  0
SECTION
  2
HEADER
  9
$ACADVER
  1
AC1009
  9
$INSBASE
 10
0.0
 20
0.0
 30
0.0
  9
$EXTMIN
 10
-65.641214679413039
 20
-108.25055263264331
 30
0.0
  9
$EXTMAX
 10
61.456397458384131
 20
144.79968575827709
 30
0.0
  9
$LIMMIN
 10
0.0
 20
0.0
  9
$LIMMAX
 10
790.0
 20
790.0
  9
$ORTHOMODE
 70
     0
  9
$REGENMODE
 70
     1
  9
$FILLMODE
 70
     1
  9
$QTEXTMODE
 70
     0
  9
$MIRRTEXT
 70
     1
  9
$DRAGMODE
 70
     2
  9
$LTSCALE
 40
4.0
  9
$OSMODE
 70
   167
  9
$ATTMODE
 70
     1
  9
$TEXTSIZE
 40
3.5
  9
$TRACEWID
 40
0.05
  9
$TEXTSTYLE
  7
ISO
  9
$CLAYER
  8
0
  9
$CELTYPE
  6
BYLAYER
  9
$CECOLOR
 62
   256
  9
$DIMSCALE
 40
0.0
  9
$DIMASZ
 40
3.0
  9
$DIMEXO
 40
1.5
  9
$DIMDLI
 40
10.0
  9
$DIMRND
 40
0.0
  9
$DIMDLE
 40
0.0
  9
$DIMEXE
 40
1.5
  9
$DIMTP
 40
0.0
  9
$DIMTM
 40
0.0
  9
$DIMTXT
 40
3.0
  9
$DIMCEN
 40
-5.0
  9
$DIMTSZ
 40
0.0
  9
$DIMTOL
 70
     0
  9
$DIMLIM
 70
     0
  9
$DIMTIH
 70
     0
  9
$DIMTOH
 70
     0
  9
$DIMSE1
 70
     0
  9
$DIMSE2
 70
     0
  9
$DIMTAD
 70
     1
  9
$DIMZIN
 70
     8
  9
$DIMBLK
  1

  9
$DIMASO
 70
     1
  9
$DIMSHO
 70
     1
  9
$DIMPOST
  1

  9
$DIMAPOST
  1

  9
$DIMALT
 70
     0
  9
$DIMALTD
 70
     0
  9
$DIMALTF
 40
25.399999999999999
  9
$DIMLFAC
 40
-1.0
  9
$DIMTOFL
 70
     1
  9
$DIMTVP
 40
0.0
  9
$DIMTIX
 70
     0
  9
$DIMSOXD
 70
     0
  9
$DIMSAH
 70
     0
  9
$DIMBLK1
  1

  9
$DIMBLK2
  1

  9
$DIMSTYLE
  2
MASKIN
  9
$DIMCLRD
 70
   256
  9
$DIMCLRE
 70
   256
  9
$DIMCLRT
 70
     2
  9
$DIMTFAC
 40
1.0
  9
$DIMGAP
 40
1.0
  9
$LUNITS
 70
     2
  9
$LUPREC
 70
     8
  9
$SKETCHINC
 40
0.1
  9
$FILLETRAD
 40
0.0
  9
$AUNITS
 70
     0
  9
$AUPREC
 70
     8
  9
$MENU
  1
ACAD
  9
$ELEVATION
 40
0.0
  9
$PELEVATION
 40
0.0
  9
$THICKNESS
 40
0.0
  9
$LIMCHECK
 70
     0
  9
$BLIPMODE
 70
     0
  9
$CHAMFERA
 40
0.0
  9
$CHAMFERB
 40
0.0
  9
$SKPOLY
 70
     0
  9
$TDCREATE
 40
2454901.619785266
  9
$TDUPDATE
 40
2456514.5560828941
  9
$TDINDWG
 40
0.0165979745
  9
$TDUSRTIMER
 40
0.0165979745
  9
$USRTIMER
 70
     1
  9
$ANGBASE
 50
0.0
  9
$ANGDIR
 70
     0
  9
$PDMODE
 70
     0
  9
$PDSIZE
 40
0.0
  9
$PLINEWID
 40
0.0
  9
$COORDS
 70
     1
  9
$SPLFRAME
 70
     0
  9
$SPLINETYPE
 70
     6
  9
$SPLINESEGS
 70
     8
  9
$ATTDIA
 70
     0
  9
$ATTREQ
 70
     1
  9
$HANDLING
 70
     1
  9
$HANDSEED
  5
18B0
  9
$SURFTAB1
 70
     6
  9
$SURFTAB2
 70
     6
  9
$SURFTYPE
 70
     6
  9
$SURFU
 70
     6
  9
$SURFV
 70
     6
  9
$UCSNAME
  2

  9
$UCSORG
 10
0.0
 20
0.0
 30
0.0
  9
$UCSXDIR
 10
1.0
 20
0.0
 30
0.0
  9
$UCSYDIR
 10
0.0
 20
1.0
 30
0.0
  9
$PUCSNAME
  2

  9
$PUCSORG
 10
0.0
 20
0.0
 30
0.0
  9
$PUCSXDIR
 10
1.0
 20
0.0
 30
0.0
  9
$PUCSYDIR
 10
0.0
 20
1.0
 30
0.0
  9
$USERI1
 70
     0
  9
$USERI2
 70
     0
  9
$USERI3
 70
     0
  9
$USERI4
 70
     0
  9
$USERI5
 70
     0
  9
$USERR1
 40
0.0
  9
$USERR2
 40
0.0
  9
$USERR3
 40
0.0
  9
$USERR4
 40
0.0
  9
$USERR5
 40
0.0
  9
$WORLDVIEW
 70
     1
  9
$SHADEDGE
 70
     3
  9
$SHADEDIF
 70
    70
  9
$TILEMODE
 70
     1
  9
$MAXACTVP
 70
    16
  9
$PLIMCHECK
 70
     0
  9
$PEXTMIN
 10
1.0000000000000000E+020
 20
1.0000000000000000E+020
 30
1.0000000000000000E+020
  9
$PEXTMAX
 10
-1.0000000000000000E+020
 20
-1.0000000000000000E+020
 30
-1.0000000000000000E+020
  9
$PLIMMIN
 10
-5.069427490234375
 20
-5.8737497329711914
  9
$PLIMMAX
 10
291.89889526367187
 20
204.0995779037475
  9
$UNITMODE
 70
     0
  9
$VISRETAIN
 70
     1
  9
$PLINEGEN
 70
     0
  9
$PSLTSCALE
 70
     1
  0
ENDSEC
  0
SECTION
  2
TABLES
  0
TABLE
  2
VPORT
 70
     1
  0
VPORT
  2
*ACTIVE
 70
     0
 10
0.0
 20
0.0
 11
1.0
 21
1.0
 12
-2.084367514057532
 22
53.30923906750688
 13
0.0
 23
0.0
 14
1.0
 24
1.0
 15
0.0
 25
0.0
 16
0.0
 26
0.0
 36
1.0
 17
0.0
 27
0.0
 37
0.0
 40
218.12631669505319
 41
2.7544204322200381
 42
50.0
 43
0.0
 44
0.0
 50
0.0
 51
0.0
 71
     0
 72
   100
 73
     1
 74
     1
 75
     0
 76
     0
 77
     0
 78
     0
  0
ENDTAB
  0
TABLE
  2
LTYPE
 70
    17
  0
LTYPE
  2
CONTINUOUS
 70
     0
  3
Solid line
 72
    65
 73
     0
 40
0.0
  0
LTYPE
  2
BYGG-01472602$0$NEWDOT
 70
     0
  3
____ . ____ . ____ . ____ . ____ . ____ . ____
 72
    65
 73
     4
 40
2.0
 49
1.0
 49
-0.5
 49
0.0
 49
-0.5
  0
LTYPE
  2
BYGG-014495$0$DASHDOT
 70
     0
  3
__ . __ . __ . __ . __ . __ . __ . __ . __ . __
 72
    65
 73
     4
 40
1.0
 49
0.5
 49
-0.25
 49
0.0
 49
-0.25
  0
LTYPE
  2
BYGG-014174$0$NEWDOT
 70
     0
  3
____ . ____ . ____ . ____ . ____ . ____ . ____
 72
    65
 73
     4
 40
2.0
 49
1.0
 49
-0.5
 49
0.0
 49
-0.5
  0
LTYPE
  2
BYGG-022120$0$NEWDOT
 70
     0
  3
____ . ____ . ____ . ____ . ____ . ____ . ____
 72
    65
 73
     4
 40
2.0
 49
1.0
 49
-0.5
 49
0.0
 49
-0.5
  0
LTYPE
  2
BYGG-022120$0$DASHDOT
 70
     0
  3
__ . __ . __ . __ . __ . __ . __ . __ . __ . __
 72
    65
 73
     4
 40
1.0
 49
0.5
 49
-0.25
 49
0.0
 49
-0.25
  0
LTYPE
  2
BYGG-022120$0$DASHED
 70
     0
  3
__ __ __ __ __ __ __ __ __ __ __ __ __ __ __
 72
    65
 73
     2
 40
0.75
 49
0.5
 49
-0.25
  0
LTYPE
  2
BYGG-022120$0$PHANTOM
 70
     0
  3
Phantom ______  __  __  ______  __  __  ______
 72
    65
 73
     6
 40
63.5
 49
31.75
 49
-6.3499999999999988
 49
6.3499999999999988
 49
-6.3499999999999988
 49
6.3499999999999988
 49
-6.3499999999999988
  0
LTYPE
  2
BYGG-01457801$0$NEWDOT
 70
     0
  3
____ . ____ . ____ . ____ . ____ . ____ . ____
 72
    65
 73
     4
 40
2.0
 49
1.0
 49
-0.5
 49
0.0
 49
-0.5
  0
LTYPE
  2
BYGG-01472602$0$ZIGZAG
 70
     0
  3
Zig zag /\/\/\/\/\/\/\/\/\/\/\/\/\/\/\/\/\/\/\/\/\/\/\/
 72
    65
 73
     4
 40
20.32254
 49
0.00254
 49
-5.0800000000000001
 49
-10.16
 49
-5.0800000000000001
  0
LTYPE
  2
BYGG-014174$0$ZIGZAG
 70
     0
  3
Zig zag /\/\/\/\/\/\/\/\/\/\/\/\/\/\/\/\/\/\/\/\/\/\/\/
 72
    65
 73
     4
 40
20.32254
 49
0.00254
 49
-5.0800000000000001
 49
-10.16
 49
-5.0800000000000001
  0
LTYPE
  2
BYGG-014174$0$DASHDOT
 70
     0
  3
__ . __ . __ . __ . __ . __ . __ . __ . __ . __
 72
    65
 73
     4
 40
1.0
 49
0.5
 49
-0.25
 49
0.0
 49
-0.25
  0
LTYPE
  2
BYGG-01457801$0$ZIGZAG
 70
     0
  3
Zig zag /\/\/\/\/\/\/\/\/\/\/\/\/\/\/\/\/\/\/\/\/\/\/\/
 72
    65
 73
     4
 40
20.32254
 49
0.00254
 49
-5.0800000000000001
 49
-10.16
 49
-5.0800000000000001
  0
LTYPE
  2
BYGG-014198$0$ZIGZAG
 70
     0
  3
Zig zag /\/\/\/\/\/\/\/\/\/\/\/\/\/\/\/\/\/\/\/\/\/\/\/
 72
    65
 73
     4
 40
20.32254
 49
0.00254
 49
-5.0800000000000001
 49
-10.16
 49
-5.0800000000000001
  0
LTYPE
  2
BYGG-014198$0$NEWDOT
 70
     0
  3
____ . ____ . ____ . ____ . ____ . ____ . ____
 72
    65
 73
     4
 40
2.0
 49
1.0
 49
-0.5
 49
0.0
 49
-0.5
  0
LTYPE
  2
BYGG-030159$0$NEWDOT
 70
     0
  3
____ . ____ . ____ . ____ . ____ . ____ . ____
 72
    65
 73
     4
 40
2.0
 49
1.0
 49
-0.5
 49
0.0
 49
-0.5
  0
LTYPE
  2
BYGG-014174$0$DASHED
 70
     0
  3
__ __ __ __ __ __ __ __ __ __ __ __ __ __ __
 72
    65
 73
     2
 40
0.75
 49
0.5
 49
-0.25
  0
ENDTAB
  0
TABLE
  2
LAYER
 70
    98
  0
LAYER
  2
0
 70
     0
 62
     7
  6
CONTINUOUS
  0
LAYER
  2
DEFPOINTS
 70
     0
 62
     7
  6
CONTINUOUS
  0
LAYER
  2
SAPA_LIGHT
 70
     1
 62
     1
  6
CONTINUOUS
  0
LAYER
  2
SAPA_ARTIKELNR
 70
     0
 62
     4
  6
CONTINUOUS
  0
LAYER
  2
SAPA_ANSLUTNING
 70
     0
 62
     6
  6
CONTINUOUS
  0
LAYER
  2
SAPA_PROFIL
 70
     0
 62
     7
  6
CONTINUOUS
  0
LAYER
  2
SAPA_FYLLNING
 70
     0
 62
     4
  6
CONTINUOUS
  0
LAYER
  2
SAPA_MATT
 70
     0
 62
     1
  6
CONTINUOUS
  0
LAYER
  2
SAPA_GLAS
 70
     0
 62
     4
  6
CONTINUOUS
  0
LAYER
  2
SAPA_FOGBAND
 70
     0
 62
     2
  6
CONTINUOUS
  0
ENDTAB
  0
TABLE
  2
STYLE
 70
    33
  0
STYLE
  2
STANDARD
 70
     0
 40
0.0
 41
1.0
 50
0.0
 71
     0
 42
0.2
  3
txt
  4

  0
STYLE
  2
ISO
 70
     0
 40
0.0
 41
1.0
 50
0.0
 71
     0
 42
3.5
  3
txt
  4

  0
STYLE
  2

 70
     1
 40
0.0
 41
1.0
 50
0.0
 71
     0
 42
0.2
  3
ltypeshp.shx
  4

  0
STYLE
  2
BYGG-019434$0$STANDARD
 70
     0
 40
0.0
 41
1.0
 50
0.0
 71
     0
 42
0.2
  3
txt
  4

  0
STYLE
  2
BYGG-019434$0$ISO
 70
     0
 40
0.0
 41
1.0
 50
0.0
 71
     0
 42
3.5
  3
txt
  4

  0
STYLE
  2
BYGG-01472602$0$STANDARD
 70
     0
 40
0.0
 41
1.0
 50
0.0
 71
     0
 42
0.2
  3
txt
  4

  0
STYLE
  2
BYGG-01472602$0$ISO
 70
     0
 40
0.0
 41
1.0
 50
0.0
 71
     0
 42
2.5
  3
isocp3.shx
  4

  0
STYLE
  2
BYGG-019437$0$STANDARD
 70
     0
 40
0.0
 41
1.0
 50
0.0
 71
     0
 42
0.2
  3
txt
  4

  0
STYLE
  2
BYGG-019437$0$ISO
 70
     0
 40
0.0
 41
1.0
 50
0.0
 71
     0
 42
3.5
  3
txt
  4

  0
STYLE
  2
BYGG-021426$0$STANDARD
 70
     0
 40
0.0
 41
1.0
 50
0.0
 71
     0
 42
0.2
  3
txt
  4

  0
STYLE
  2
BYGG-014495$0$STANDARD
 70
     0
 40
0.0
 41
1.0
 50
0.0
 71
     0
 42
0.2
  3
txt
  4

  0
STYLE
  2
BYGG-014495$0$ISO
 70
     0
 40
0.0
 41
1.0
 50
0.0
 71
     0
 42
3.5
  3
isocp3.shx
  4

  0
STYLE
  2
BYGG-021355$0$STANDARD
 70
     0
 40
0.0
 41
1.0
 50
0.0
 71
     0
 42
0.2
  3
txt
  4

  0
STYLE
  2
BYGG-021355$0$ISO
 70
     0
 40
0.0
 41
1.0
 50
0.0
 71
     0
 42
3.5
  3
isocp3.shx
  4

  0
STYLE
  2
BYGG-014174$0$STANDARD
 70
     0
 40
0.0
 41
1.0
 50
0.0
 71
     0
 42
0.2
  3
txt
  4

  0
STYLE
  2
BYGG-014174$0$ISO
 70
     0
 40
0.0
 41
1.0
 50
0.0
 71
     0
 42
3.5
  3
isocp3.shx
  4

  0
STYLE
  2
BYGG-022120$0$STANDARD
 70
     0
 40
0.0
 41
1.0
 50
0.0
 71
     0
 42
0.2
  3
txt
  4

  0
STYLE
  2
BYGG-022120$0$ISO
 70
     0
 40
0.0
 41
1.0
 50
0.0
 71
     0
 42
3.5
  3
txt
  4

  0
STYLE
  2
BYGG-01457801$0$STANDARD
 70
     0
 40
0.0
 41
1.0
 50
0.0
 71
     0
 42
0.2
  3
txt
  4

  0
STYLE
  2
BYGG-01457801$0$ISO
 70
     0
 40
0.0
 41
1.0
 50
0.0
 71
     0
 42
2.5
  3
isocp3.shx
  4

  0
STYLE
  2
BYGG-022709$0$STANDARD
 70
     0
 40
0.0
 41
1.0
 50
0.0
 71
     0
 42
0.2
  3
txt
  4

  0
STYLE
  2
BYGG-022709$0$ISO
 70
     0
 40
0.0
 41
1.0
 50
0.0
 71
     0
 42
3.5
  3
txt
  4

  0
STYLE
  2
BYGG-014198$0$STANDARD
 70
     0
 40
0.0
 41
1.0
 50
0.0
 71
     0
 42
0.2
  3
txt
  4

  0
STYLE
  2
BYGG-014198$0$ISO
 70
     0
 40
0.0
 41
1.0
 50
0.0
 71
     0
 42
3.5
  3
isocp3.shx
  4

  0
STYLE
  2
BYGG-023163$0$STANDARD
 70
     0
 40
0.0
 41
1.0
 50
0.0
 71
     0
 42
0.2
  3
txt
  4

  0
STYLE
  2
BYGG-023163$0$ISO
 70
     0
 40
0.0
 41
1.0
 50
0.0
 71
     0
 42
3.5
  3
txt
  4

  0
STYLE
  2
BYGG-020272$0$STANDARD
 70
     0
 40
0.0
 41
1.0
 50
0.0
 71
     0
 42
0.2
  3
txt
  4

  0
STYLE
  2
BYGG-020272$0$ISO
 70
     0
 40
0.0
 41
1.0
 50
0.0
 71
     0
 42
3.5
  3
isocp3.shx
  4

  0
STYLE
  2
BYGG-014014$0$STANDARD
 70
     0
 40
0.0
 41
1.0
 50
0.0
 71
     0
 42
0.2
  3
txt
  4

  0
STYLE
  2
BYGG-030661$0$STANDARD
 70
     0
 40
0.0
 41
1.0
 50
0.0
 71
     0
 42
0.2
  3
txt
  4

  0
STYLE
  2
BYGG-030661$0$ISO
 70
     0
 40
0.0
 41
1.0
 50
0.0
 71
     0
 42
3.5
  3
txt
  4

  0
STYLE
  2
BYGG-030159$0$STANDARD
 70
     0
 40
0.0
 41
1.0
 50
0.0
 71
     0
 42
0.2
  3
txt
  4

  0
STYLE
  2
BYGG-030159$0$ISO
 70
     0
 40
0.0
 41
1.0
 50
0.0
 71
     0
 42
3.5
  3
txt
  4

  0
ENDTAB
  0
TABLE
  2
VIEW
 70
     0
  0
ENDTAB
  0
TABLE
  2
UCS
 70
     0
  0
ENDTAB
  0
TABLE
  2
APPID
 70
    24
  0
APPID
  2
ACAD
 70
     0
  0
APPID
  2
ACAD_DSTYLE_DIMTEXT_FILL
 70
     0
  0
APPID
  2
ACAD_DSTYLE_DIMEXT_LENGTH
 70
     0
  0
APPID
  2
ACAD_DSTYLE_DIMEXT_ENABLED
 70
     0
  0
APPID
  2
ACAD_DSTYLE_DIM_LINETYPE
 70
     0
  0
APPID
  2
ACAD_DSTYLE_DIM_EXT1_LINETYPE
 70
     0
  0
APPID
  2
ACAD_DSTYLE_DIM_EXT2_LINETYPE
 70
     0
  0
APPID
  2
ACAD_DSTYLE_DIMJOGGED_JOGA
 70
     0
  0
APPID
  2
ACAD_DSTYLE_DIMARC_LENGTH_
 70
     0
  0
APPID
  2
ACAD_PSEXT
 70
     0
  0
APPID
  2
ACAD_MLEADERVER
 70
     0
  0
APPID
  2
AME_SOL
 70
     0
  0
APPID
  2
AMG_ARCHIVE11
 70
     0
  0
APPID
  2
DCO15
 70
     0
  0
APPID
  2
ACAECLAYERSTANDARD
 70
     0
  0
APPID
  2
ACADANNOTATIVE
 70
     0
  0
APPID
  2
ACAD_EXEMPT_FROM_CAD_STANDARDS
 70
     0
  0
APPID
  2
ACAD_DSTYLE_DIMJAG
 70
     0
  0
APPID
  2
ACAD_DSTYLE_DIMTALN
 70
     0
  0
APPID
  2
ACDBDYNAMICBLOCKGUID
 70
     0
  0
APPID
  2
ACDBBLOCKREPETAG
 70
     0
  0
APPID
  2
ACAD_NAV_VCDISPLAY
 70
     0
  0
APPID
  2
AEC_XDATA_BOUND_SPACE
 70
     0
  0
APPID
  2
ACCMTRANSPARENCY
 70
     0
  0
ENDTAB
  0
TABLE
  2
DIMSTYLE
 70
    31
  0
DIMSTYLE
  2
STANDARD
 70
     0
  3

  4

  5

  6

  7

 40
1.0
 41
0.18
 42
0.0625
 43
0.38
 44
0.18
 45
0.0
 46
0.0
 47
0.0
 48
0.0
140
0.18
141
0.09
142
0.0
143
25.399999999999999
144
1.0
145
0.0
146
1.0
147
0.09
 71
     0
 72
     0
 73
     1
 74
     1
 75
     0
 76
     0
 77
     0
 78
     0
170
     0
171
     2
172
     0
173
     0
174
     0
175
     0
176
     0
177
     0
178
     0
  0
DIMSTYLE
  2
MASKIN
 70
     0
  3

  4

  5

  6

  7

 40
0.0
 41
3.0
 42
1.5
 43
10.0
 44
1.5
 45
0.0
 46
0.0
 47
0.0
 48
0.0
140
3.0
141
-5.0
142
0.0
143
25.399999999999999
144
-1.0
145
0.0
146
1.0
147
1.0
 71
     0
 72
     0
 73
     0
 74
     0
 75
     0
 76
     0
 77
     1
 78
     8
170
     0
171
     0
172
     1
173
     0
174
     0
175
     0
176
   256
177
   256
178
     2
  0
DIMSTYLE
  2
BYGG-019434$0$STANDARD
 70
     0
  3

  4

  5

  6

  7

 40
1.0
 41
0.18
 42
0.0625
 43
0.38
 44
0.18
 45
0.0
 46
0.0
 47
0.0
 48
0.0
140
0.18
141
0.09
142
0.0
143
25.399999999999999
144
1.0
145
0.0
146
1.0
147
0.09
 71
     0
 72
     0
 73
     1
 74
     1
 75
     0
 76
     0
 77
     0
 78
     0
170
     0
171
     2
172
     0
173
     0
174
     0
175
     0
176
     0
177
     0
178
     0
  0
DIMSTYLE
  2
BYGG-019434$0$MASKIN
 70
     0
  3

  4

  5

  6

  7

 40
0.0
 41
3.0
 42
1.5
 43
10.0
 44
1.5
 45
0.0
 46
0.0
 47
0.0
 48
0.0
140
3.0
141
-5.0
142
0.0
143
25.399999999999999
144
-1.0
145
0.0
146
1.0
147
1.0
 71
     0
 72
     0
 73
     0
 74
     0
 75
     0
 76
     0
 77
     1
 78
     8
170
     0
171
     0
172
     1
173
     0
174
     0
175
     0
176
   256
177
   256
178
     2
  0
DIMSTYLE
  2
BYGG-01472602$0$STANDARD
 70
     0
  3

  4

  5

  6

  7

 40
1.0
 41
0.18
 42
0.0625
 43
0.38
 44
0.18
 45
0.0
 46
0.0
 47
0.0
 48
0.0
140
0.18
141
0.09
142
0.0
143
25.399999999999999
144
1.0
145
0.0
146
1.0
147
0.09
 71
     0
 72
     0
 73
     1
 74
     1
 75
     0
 76
     0
 77
     0
 78
     0
170
     0
171
     2
172
     0
173
     0
174
     0
175
     0
176
     0
177
     0
178
     0
  0
DIMSTYLE
  2
BYGG-01472602$0$MASKIN
 70
     0
  3

  4

  5

  6

  7

 40
0.0
 41
3.0
 42
1.5
 43
10.0
 44
1.5
 45
0.0
 46
0.0
 47
0.0
 48
0.0
140
3.0
141
-5.0
142
0.0
143
25.399999999999999
144
-1.0
145
0.0
146
1.0
147
1.0
 71
     0
 72
     0
 73
     0
 74
     1
 75
     0
 76
     0
 77
     1
 78
     8
170
     0
171
     0
172
     1
173
     0
174
     0
175
     0
176
   256
177
   256
178
     2
  0
DIMSTYLE
  2
BYGG-019437$0$STANDARD
 70
     0
  3

  4

  5

  6

  7

 40
1.0
 41
0.18
 42
0.0625
 43
0.38
 44
0.18
 45
0.0
 46
0.0
 47
0.0
 48
0.0
140
0.18
141
0.09
142
0.0
143
25.399999999999999
144
1.0
145
0.0
146
1.0
147
0.09
 71
     0
 72
     0
 73
     1
 74
     1
 75
     0
 76
     0
 77
     0
 78
     0
170
     0
171
     2
172
     0
173
     0
174
     0
175
     0
176
     0
177
     0
178
     0
  0
DIMSTYLE
  2
BYGG-019437$0$MASKIN
 70
     0
  3

  4

  5

  6

  7

 40
0.0
 41
3.0
 42
1.5
 43
10.0
 44
1.5
 45
0.0
 46
0.0
 47
0.0
 48
0.0
140
3.0
141
-5.0
142
0.0
143
25.399999999999999
144
-1.0
145
0.0
146
1.0
147
1.0
 71
     0
 72
     0
 73
     0
 74
     0
 75
     0
 76
     0
 77
     1
 78
     8
170
     0
171
     0
172
     1
173
     0
174
     0
175
     0
176
   256
177
   256
178
     2
  0
DIMSTYLE
  2
BYGG-021426$0$STANDARD
 70
     0
  3

  4

  5

  6

  7

 40
1.0
 41
0.18
 42
0.0625
 43
0.38
 44
0.18
 45
0.0
 46
0.0
 47
0.0
 48
0.0
140
0.18
141
0.09
142
0.0
143
25.399999999999999
144
1.0
145
0.0
146
1.0
147
0.09
 71
     0
 72
     0
 73
     1
 74
     1
 75
     0
 76
     0
 77
     0
 78
     0
170
     0
171
     2
172
     0
173
     0
174
     0
175
     0
176
     0
177
     0
178
     0
  0
DIMSTYLE
  2
BYGG-014495$0$MASKIN
 70
     0
  3

  4

  5

  6

  7

 40
0.0
 41
3.0
 42
1.5
 43
10.0
 44
1.5
 45
0.0
 46
0.0
 47
0.0
 48
0.0
140
3.0
141
-5.0
142
0.0
143
25.399999999999999
144
-1.0
145
0.0
146
1.0
147
1.0
 71
     0
 72
     0
 73
     0
 74
     0
 75
     0
 76
     0
 77
     1
 78
     8
170
     0
171
     0
172
     1
173
     0
174
     0
175
     0
176
   256
177
   256
178
     2
  0
DIMSTYLE
  2
BYGG-021355$0$MASKIN
 70
     0
  3

  4

  5

  6

  7

 40
0.0
 41
3.0
 42
1.5
 43
10.0
 44
1.5
 45
0.0
 46
0.0
 47
0.0
 48
0.0
140
3.0
141
-5.0
142
0.0
143
25.399999999999999
144
-1.0
145
0.0
146
1.0
147
1.0
 71
     0
 72
     0
 73
     0
 74
     0
 75
     0
 76
     0
 77
     1
 78
     8
170
     0
171
     0
172
     1
173
     0
174
     0
175
     0
176
   256
177
   256
178
   256
  0
DIMSTYLE
  2
BYGG-021355$0$STANDARD
 70
     0
  3

  4

  5

  6

  7

 40
1.0
 41
0.18
 42
0.0625
 43
0.38
 44
0.18
 45
0.0
 46
0.0
 47
0.0
 48
0.0
140
0.18
141
0.09
142
0.0
143
25.399999999999999
144
1.0
145
0.0
146
1.0
147
0.09
 71
     0
 72
     0
 73
     1
 74
     1
 75
     0
 76
     0
 77
     0
 78
     0
170
     0
171
     2
172
     0
173
     0
174
     0
175
     0
176
     0
177
     0
178
     0
  0
DIMSTYLE
  2
BYGG-014174$0$STANDARD
 70
     0
  3

  4

  5

  6

  7

 40
1.0
 41
0.18
 42
0.0625
 43
0.38
 44
0.18
 45
0.0
 46
0.0
 47
0.0
 48
0.0
140
0.18
141
0.09
142
0.0
143
25.399999999999999
144
1.0
145
0.0
146
1.0
147
0.09
 71
     0
 72
     0
 73
     1
 74
     1
 75
     0
 76
     0
 77
     0
 78
     0
170
     0
171
     2
172
     0
173
     0
174
     0
175
     0
176
     0
177
     0
178
     0
  0
DIMSTYLE
  2
BYGG-014174$0$MASKIN
 70
     0
  3

  4

  5

  6

  7

 40
0.0
 41
3.0
 42
1.5
 43
10.0
 44
1.5
 45
0.0
 46
0.0
 47
0.0
 48
0.0
140
3.0
141
-5.0
142
0.0
143
25.399999999999999
144
-1.0
145
0.0
146
1.0
147
1.0
 71
     0
 72
     0
 73
     0
 74
     0
 75
     0
 76
     0
 77
     1
 78
     8
170
     0
171
     0
172
     1
173
     0
174
     0
175
     0
176
   256
177
   256
178
   256
  0
DIMSTYLE
  2
BYGG-022120$0$STANDARD
 70
     0
  3

  4

  5

  6

  7

 40
1.0
 41
0.18
 42
0.0625
 43
0.38
 44
0.18
 45
0.0
 46
0.0
 47
0.0
 48
0.0
140
0.18
141
0.09
142
0.0
143
25.399999999999999
144
1.0
145
0.0
146
1.0
147
0.09
 71
     0
 72
     0
 73
     1
 74
     1
 75
     0
 76
     0
 77
     0
 78
     0
170
     0
171
     2
172
     0
173
     0
174
     0
175
     0
176
     0
177
     0
178
     0
  0
DIMSTYLE
  2
BYGG-022120$0$MASKIN
 70
     0
  3

  4

  5

  6

  7

 40
0.0
 41
3.0
 42
1.5
 43
10.0
 44
1.5
 45
0.0
 46
0.0
 47
0.0
 48
0.0
140
3.0
141
-5.0
142
0.0
143
25.399999999999999
144
-1.0
145
0.0
146
1.0
147
1.0
 71
     0
 72
     0
 73
     0
 74
     0
 75
     0
 76
     0
 77
     1
 78
     8
170
     0
171
     0
172
     1
173
     0
174
     0
175
     0
176
   256
177
   256
178
     2
  0
DIMSTYLE
  2
BYGG-01457801$0$STANDARD
 70
     0
  3

  4

  5

  6

  7

 40
1.0
 41
0.18
 42
0.0625
 43
0.38
 44
0.18
 45
0.0
 46
0.0
 47
0.0
 48
0.0
140
0.18
141
0.09
142
0.0
143
25.399999999999999
144
1.0
145
0.0
146
1.0
147
0.09
 71
     0
 72
     0
 73
     1
 74
     1
 75
     0
 76
     0
 77
     0
 78
     0
170
     0
171
     2
172
     0
173
     0
174
     0
175
     0
176
     0
177
     0
178
     0
  0
DIMSTYLE
  2
BYGG-01457801$0$MASKIN
 70
     0
  3

  4

  5

  6

  7

 40
0.0
 41
3.0
 42
1.5
 43
10.0
 44
1.5
 45
0.0
 46
0.0
 47
0.0
 48
0.0
140
3.0
141
-5.0
142
0.0
143
25.399999999999999
144
-1.0
145
0.0
146
1.0
147
1.0
 71
     0
 72
     0
 73
     0
 74
     1
 75
     0
 76
     0
 77
     1
 78
     8
170
     0
171
     0
172
     1
173
     0
174
     0
175
     0
176
   256
177
   256
178
     2
  0
DIMSTYLE
  2
BYGG-022709$0$STANDARD
 70
     0
  3

  4

  5

  6

  7

 40
1.0
 41
0.18
 42
0.0625
 43
0.38
 44
0.18
 45
0.0
 46
0.0
 47
0.0
 48
0.0
140
0.18
141
0.09
142
0.0
143
25.399999999999999
144
1.0
145
0.0
146
1.0
147
0.09
 71
     0
 72
     0
 73
     1
 74
     1
 75
     0
 76
     0
 77
     0
 78
     0
170
     0
171
     2
172
     0
173
     0
174
     0
175
     0
176
     0
177
     0
178
     0
  0
DIMSTYLE
  2
BYGG-022709$0$MASKIN
 70
     0
  3

  4

  5

  6

  7

 40
0.0
 41
3.0
 42
1.5
 43
10.0
 44
1.5
 45
0.0
 46
0.0
 47
0.0
 48
0.0
140
3.0
141
-5.0
142
0.0
143
25.399999999999999
144
-1.0
145
0.0
146
1.0
147
1.0
 71
     0
 72
     0
 73
     0
 74
     0
 75
     0
 76
     0
 77
     1
 78
     8
170
     0
171
     0
172
     1
173
     0
174
     0
175
     0
176
   256
177
   256
178
     2
  0
DIMSTYLE
  2
BYGG-014198$0$STANDARD
 70
     0
  3

  4

  5

  6

  7

 40
1.0
 41
0.18
 42
0.0625
 43
0.38
 44
0.18
 45
0.0
 46
0.0
 47
0.0
 48
0.0
140
0.18
141
0.09
142
0.0
143
25.399999999999999
144
1.0
145
0.0
146
1.0
147
0.09
 71
     0
 72
     0
 73
     1
 74
     1
 75
     0
 76
     0
 77
     0
 78
     0
170
     0
171
     2
172
     0
173
     0
174
     0
175
     0
176
     0
177
     0
178
     0
  0
DIMSTYLE
  2
BYGG-014198$0$MASKIN
 70
     0
  3

  4

  5

  6

  7

 40
0.0
 41
3.0
 42
1.5
 43
10.0
 44
1.5
 45
0.0
 46
0.0
 47
0.0
 48
0.0
140
3.0
141
-5.0
142
0.0
143
25.399999999999999
144
-1.0
145
0.0
146
1.0
147
1.0
 71
     0
 72
     0
 73
     0
 74
     0
 75
     0
 76
     0
 77
     1
 78
     8
170
     0
171
     0
172
     1
173
     0
174
     0
175
     0
176
   256
177
   256
178
   256
  0
DIMSTYLE
  2
BYGG-023163$0$STANDARD
 70
     0
  3

  4

  5

  6

  7

 40
1.0
 41
0.18
 42
0.0625
 43
0.38
 44
0.18
 45
0.0
 46
0.0
 47
0.0
 48
0.0
140
0.18
141
0.09
142
0.0
143
25.399999999999999
144
1.0
145
0.0
146
1.0
147
0.09
 71
     0
 72
     0
 73
     1
 74
     1
 75
     0
 76
     0
 77
     0
 78
     0
170
     0
171
     2
172
     0
173
     0
174
     0
175
     0
176
     0
177
     0
178
     0
  0
DIMSTYLE
  2
BYGG-023163$0$MASKIN
 70
     0
  3

  4

  5

  6

  7

 40
0.0
 41
3.0
 42
1.5
 43
10.0
 44
1.5
 45
0.0
 46
0.0
 47
0.0
 48
0.0
140
3.0
141
-5.0
142
0.0
143
25.399999999999999
144
-1.0
145
0.0
146
1.0
147
1.0
 71
     0
 72
     0
 73
     0
 74
     0
 75
     0
 76
     0
 77
     1
 78
     8
170
     0
171
     0
172
     1
173
     0
174
     0
175
     0
176
   256
177
   256
178
     2
  0
DIMSTYLE
  2
BYGG-020272$0$STANDARD
 70
     0
  3

  4

  5

  6

  7

 40
1.0
 41
0.18
 42
0.0625
 43
0.38
 44
0.18
 45
0.0
 46
0.0
 47
0.0
 48
0.0
140
0.18
141
0.09
142
0.0
143
25.399999999999999
144
1.0
145
0.0
146
1.0
147
0.09
 71
     0
 72
     0
 73
     1
 74
     1
 75
     0
 76
     0
 77
     0
 78
     0
170
     0
171
     2
172
     0
173
     0
174
     0
175
     0
176
     0
177
     0
178
     0
  0
DIMSTYLE
  2
BYGG-020272$0$MASKIN
 70
     0
  3

  4

  5

  6

  7

 40
0.0
 41
3.0
 42
1.5
 43
10.0
 44
1.5
 45
0.0
 46
0.0
 47
0.0
 48
0.0
140
3.0
141
-5.0
142
0.0
143
25.399999999999999
144
-1.0
145
0.0
146
1.0
147
1.0
 71
     0
 72
     0
 73
     0
 74
     0
 75
     0
 76
     0
 77
     1
 78
     8
170
     0
171
     0
172
     1
173
     0
174
     0
175
     0
176
   256
177
   256
178
     2
  0
DIMSTYLE
  2
BYGG-014014$0$STANDARD
 70
     0
  3

  4

  5

  6

  7

 40
1.0
 41
0.18
 42
0.0625
 43
0.38
 44
0.18
 45
0.0
 46
0.0
 47
0.0
 48
0.0
140
0.18
141
0.09
142
0.0
143
25.399999999999999
144
1.0
145
0.0
146
1.0
147
0.09
 71
     0
 72
     0
 73
     1
 74
     1
 75
     0
 76
     0
 77
     0
 78
     0
170
     0
171
     2
172
     0
173
     0
174
     0
175
     0
176
     0
177
     0
178
     0
  0
DIMSTYLE
  2
BYGG-030661$0$STANDARD
 70
     0
  3

  4

  5

  6

  7

 40
1.0
 41
0.18
 42
0.0625
 43
0.38
 44
0.18
 45
0.0
 46
0.0
 47
0.0
 48
0.0
140
0.18
141
0.09
142
0.0
143
25.399999999999999
144
1.0
145
0.0
146
1.0
147
0.09
 71
     0
 72
     0
 73
     1
 74
     1
 75
     0
 76
     0
 77
     0
 78
     0
170
     0
171
     2
172
     0
173
     0
174
     0
175
     0
176
     0
177
     0
178
     0
  0
DIMSTYLE
  2
BYGG-030661$0$MASKIN
 70
     0
  3

  4

  5

  6

  7

 40
0.0
 41
3.0
 42
1.5
 43
10.0
 44
1.5
 45
0.0
 46
0.0
 47
0.0
 48
0.0
140
3.0
141
-5.0
142
0.0
143
25.399999999999999
144
-1.0
145
0.0
146
1.0
147
1.0
 71
     0
 72
     0
 73
     0
 74
     0
 75
     0
 76
     0
 77
     1
 78
     8
170
     0
171
     0
172
     1
173
     0
174
     0
175
     0
176
   256
177
   256
178
     2
  0
DIMSTYLE
  2
BYGG-030159$0$STANDARD
 70
     0
  3

  4

  5

  6

  7

 40
1.0
 41
0.18
 42
0.0625
 43
0.38
 44
0.18
 45
0.0
 46
0.0
 47
0.0
 48
0.0
140
0.18
141
0.09
142
0.0
143
25.399999999999999
144
1.0
145
0.0
146
1.0
147
0.09
 71
     0
 72
     0
 73
     1
 74
     1
 75
     0
 76
     0
 77
     0
 78
     0
170
     0
171
     2
172
     0
173
     0
174
     0
175
     0
176
     0
177
     0
178
     0
  0
DIMSTYLE
  2
BYGG-030159$0$MASKIN
 70
     0
  3

  4

  5

  6

  7

 40
0.0
 41
3.0
 42
1.5
 43
10.0
 44
1.5
 45
0.0
 46
0.0
 47
0.0
 48
0.0
140
3.0
141
-5.0
142
0.0
143
25.399999999999999
144
-1.0
145
0.0
146
1.0
147
1.0
 71
     0
 72
     0
 73
     0
 74
     0
 75
     0
 76
     0
 77
     1
 78
     8
170
     0
171
     0
172
     1
173
     0
174
     0
175
     0
176
   256
177
   256
178
     2
  0
ENDTAB
  0
ENDSEC
  0
SECTION
  2
BLOCKS
  0
BLOCK
  8
0
  2
$MODEL_SPACE
 70
     0
 10
0.0
 20
0.0
 30
0.0
  3
$MODEL_SPACE
  1

  0
ENDBLK
  5
37
  8
0
  0
BLOCK
 67
     1
  8
0
  2
$PAPER_SPACE
 70
     0
 10
0.0
 20
0.0
 30
0.0
  3
$PAPER_SPACE
  1

  0
ENDBLK
  5
35
 67
     1
  8
0
  0
BLOCK
  8
0
  2
*D73
 70
     1
 10
0.0
 20
0.0
 30
0.0
  3
*D73
  1

  0
LINE
  5
100E
  8
SAPA_MATT
 10
25.00000000000005
 20
62.499999999999503
 30
0.0
 11
25.00000000000005
 21
47.043591794723611
 31
0.0
  0
LINE
  5
100F
  8
SAPA_MATT
 10
41.0
 20
73.999999999999531
 30
0.0
 11
41.0
 21
47.043591794723611
 31
0.0
  0
LINE
  5
1010
  8
SAPA_MATT
 10
28.00000000000005
 20
48.543591794723611
 30
0.0
 11
38.0
 21
48.543591794723611
 31
0.0
  0
SOLID
  5
1011
  8
SAPA_MATT
 10
28.00000000000005
 20
49.043591794723611
 30
0.0
 11
28.00000000000005
 21
48.043591794723618
 31
0.0
 12
25.00000000000005
 22
48.543591794723611
 32
0.0
 13
25.00000000000005
 23
48.543591794723611
 33
0.0
  0
SOLID
  5
1012
  8
SAPA_MATT
 10
38.0
 20
49.043591794723611
 30
0.0
 11
38.0
 21
48.043591794723618
 31
0.0
 12
41.0
 22
48.543591794723611
 32
0.0
 13
41.0
 23
48.543591794723611
 33
0.0
  0
INSERT
  5
1013
  8
0
  2
*U87
 10
0.0
 20
0.0
 30
0.0
  0
POINT
  5
1014
  8
DEFPOINTS
 62
     0
 10
25.00000000000005
 20
63.999999999999488
 30
0.0
  0
POINT
  5
1015
  8
DEFPOINTS
 62
     0
 10
41.0
 20
75.499999999999531
 30
0.0
  0
POINT
  5
1016
  8
DEFPOINTS
 62
     0
 10
41.0
 20
48.543591794723611
 30
0.0
  0
ENDBLK
  5
FC5
  8
0
  0
BLOCK
  8
0
  2
*D74
 70
     1
 10
0.0
 20
0.0
 30
0.0
  3
*D74
  1

  0
LINE
  5
1005
  8
SAPA_MATT
 10
41.499999999999993
 20
124.4999999999995
 30
0.0
 11
61.456397458384131
 21
124.4999999999995
 31
0.0
  0
LINE
  5
1006
  8
SAPA_MATT
 10
41.5
 20
74.499999999999488
 30
0.0
 11
61.456397458384117
 21
74.499999999999488
 31
0.0
  0
LINE
  5
1007
  8
SAPA_MATT
 10
59.956397458384131
 20
121.4999999999995
 30
0.0
 11
59.956397458384117
 21
77.499999999999488
 31
0.0
  0
SOLID
  5
1008
  8
SAPA_MATT
 10
59.456397458384131
 20
121.4999999999995
 30
0.0
 11
60.456397458384131
 21
121.4999999999995
 31
0.0
 12
59.956397458384131
 22
124.4999999999995
 32
0.0
 13
59.956397458384131
 23
124.4999999999995
 33
0.0
  0
SOLID
  5
1009
  8
SAPA_MATT
 10
59.456397458384117
 20
77.499999999999488
 30
0.0
 11
60.45639745838411
 21
77.499999999999488
 31
0.0
 12
59.956397458384117
 22
74.499999999999488
 32
0.0
 13
59.956397458384117
 23
74.499999999999488
 33
0.0
  0
INSERT
  5
100A
  8
0
  2
*U86
 10
0.0
 20
0.0
 30
0.0
  0
POINT
  5
100B
  8
DEFPOINTS
 62
     0
 10
40.0
 20
124.4999999999995
 30
0.0
  0
POINT
  5
100C
  8
DEFPOINTS
 62
     0
 10
40.0
 20
74.499999999999488
 30
0.0
  0
POINT
  5
100D
  8
DEFPOINTS
 62
     0
 10
59.956397458384117
 20
74.499999999999488
 30
0.0
  0
ENDBLK
  5
FD1
  8
0
  0
BLOCK
  8
0
  2
*D75
 70
     1
 10
0.0
 20
0.0
 30
0.0
  3
*D75
  1

  0
LINE
  5
189A
  8
SAPA_MATT
 10
41.5
 20
74.499999999999488
 30
0.0
 11
61.456397458384117
 21
74.499999999999488
 31
0.0
  0
LINE
  5
189B
  8
SAPA_MATT
 10
26.0
 20
64.499999999999488
 30
0.0
 11
61.456397458384117
 21
64.499999999999474
 31
0.0
  0
LINE
  5
189C
  8
SAPA_MATT
 10
59.956397458384117
 20
71.499999999999474
 30
0.0
 11
59.956397458384117
 21
67.499999999999474
 31
0.0
  0
SOLID
  5
189D
  8
SAPA_MATT
 10
59.456397458384117
 20
71.499999999999474
 30
0.0
 11
60.45639745838411
 21
71.499999999999474
 31
0.0
 12
59.956397458384117
 22
74.499999999999488
 32
0.0
 13
59.956397458384117
 23
74.499999999999488
 33
0.0
  0
SOLID
  5
189E
  8
SAPA_MATT
 10
59.456397458384117
 20
67.499999999999474
 30
0.0
 11
60.45639745838411
 21
67.499999999999474
 31
0.0
 12
59.956397458384117
 22
64.499999999999474
 32
0.0
 13
59.956397458384117
 23
64.499999999999474
 33
0.0
  0
TEXT
  8
SAPA_MATT
  40
3
  5
18AF
  62
2
  72
0
  71
0
 10
51.4564
 20
64.1900
 30
0.000000
  1
10
  7
ISO
  0
POINT
  5
18A0
  8
DEFPOINTS
 62
     0
 10
40.0
 20
74.499999999999488
 30
0.0
  0
POINT
  5
18A1
  8
DEFPOINTS
 62
     0
 10
24.5
 20
64.499999999999488
 30
0.0
  0
POINT
  5
18A2
  8
DEFPOINTS
 62
     0
 10
59.956397458384117
 20
64.499999999999474
 30
0.0
  0
ENDBLK
  5
FDD
  8
0
  0
BLOCK
  8
0
  2
*D76
 70
     1
 10
0.0
 20
0.0
 30
0.0
  3
*D76
  1

  0
LINE
  5
FF3
  8
SAPA_MATT
 10
-16.00000000000011
 20
-87.849999999999966
 30
0.0
 11
-16.00000000000011
 21
-108.25055263264331
 31
0.0
  0
LINE
  5
FF4
  8
SAPA_MATT
 10
15.99999999999994
 20
-87.849999999999966
 30
0.0
 11
15.99999999999994
 21
-108.25055263264331
 31
0.0
  0
LINE
  5
FF5
  8
SAPA_MATT
 10
-13.00000000000011
 20
-106.75055263264331
 30
0.0
 11
12.99999999999994
 21
-106.75055263264331
 31
0.0
  0
SOLID
  5
FF6
  8
SAPA_MATT
 10
-13.00000000000011
 20
-106.25055263264331
 30
0.0
 11
-13.00000000000011
 21
-107.25055263264331
 31
0.0
 12
-16.00000000000011
 22
-106.75055263264331
 32
0.0
 13
-16.00000000000011
 23
-106.75055263264331
 33
0.0
  0
SOLID
  5
FF7
  8
SAPA_MATT
 10
12.99999999999994
 20
-106.25055263264331
 30
0.0
 11
12.99999999999994
 21
-107.25055263264331
 31
0.0
 12
15.99999999999994
 22
-106.75055263264331
 32
0.0
 13
15.99999999999994
 23
-106.75055263264331
 33
0.0
  0
INSERT
  5
FF8
  8
0
  2
*U85
 10
0.0
 20
0.0
 30
0.0
  0
POINT
  5
FF9
  8
DEFPOINTS
 62
     0
 10
-16.00000000000011
 20
-86.349999999999966
 30
0.0
  0
POINT
  5
FFA
  8
DEFPOINTS
 62
     0
 10
15.99999999999994
 20
-86.349999999999966
 30
0.0
  0
POINT
  5
FFB
  8
DEFPOINTS
 62
     0
 10
15.99999999999994
 20
-106.75055263264331
 30
0.0
  0
ENDBLK
  5
FE9
  8
0
  0
BLOCK
  8
0
  2
*U77
 70
     1
 10
0.0
 20
0.0
 30
0.0
  3
*U77
  1

  0
TEXT
  5
1047
  8
SAPA_ARTIKELNR
 10
-5.7895021366381112
 20
57.279395597860223
 30
0.0
 40
3.5
  1
68281
  7
ISO
  0
ENDBLK
  5
1049
  8
0
  0
BLOCK
  8
0
  2
*U78
 70
     1
 10
0.0
 20
0.0
 30
0.0
  3
*U78
  1

  0
TEXT
  5
105B
  8
SAPA_ARTIKELNR
 10
-2.767439647895662
 20
69.315235443707195
 30
0.0
 40
3.5
  1
52070
  7
ISO
  0
ENDBLK
  5
105D
  8
0
  0
BLOCK
  8
0
  2
*U79
 70
     1
 10
0.0
 20
0.0
 30
0.0
  3
*U79
  1

  0
TEXT
  5
107D
  8
SAPA_ARTIKELNR
 10
47.602368177185149
 20
92.674386863791057
 30
0.0
 40
3.5
  1
42012
 50
90.0
  7
ISO
  0
ENDBLK
  5
107F
  8
0
  0
BLOCK
  8
0
  2
*U80
 70
     1
 10
0.0
 20
0.0
 30
0.0
  3
*U80
  1

  0
TEXT
  5
1081
  8
SAPA_ARTIKELNR
 10
-3.0201803506214211
 20
128.0213335159919
 30
0.0
 40
3.5
  1
68074
  7
ISO
  0
ENDBLK
  5
1083
  8
0
  0
BLOCK
  8
0
  2
*U81
 70
     1
 10
0.0
 20
0.0
 30
0.0
  3
*U81
  1

  0
TEXT
  5
1085
  8
SAPA_ARTIKELNR
 10
-43.555794592907752
 20
128.0213335159919
 30
0.0
 40
3.5
  1
42072
  7
ISO
  0
ENDBLK
  5
1087
  8
0
  0
BLOCK
  8
0
  2
*U82
 70
     1
 10
0.0
 20
0.0
 30
0.0
  3
*U82
  1

  0
TEXT
  5
1089
  8
SAPA_ARTIKELNR
 10
-14.37805773798873
 20
-92.169861053056039
 30
0.0
 40
3.5
  1
42844/42863
  7
ISO
  0
ENDBLK
  5
108B
  8
0
  0
BLOCK
  8
0
  2
*X83
 70
     1
 10
0.0
 20
0.0
 30
0.0
  3
*X83
  1

  0
LINE
  5
1633
  8
0
 62
     0
 10
-25.598719394652871
 20
-70.499999999998636
 30
0.0
 11
-24.95301216054429
 21
-69.854292765890065
 31
0.0
  0
LINE
  5
1634
  8
0
 62
     0
 10
-30.088847455187441
 20
-70.499999999998636
 30
0.0
 11
-24.953012160544301
 21
-65.364164705355492
 31
0.0
  0
LINE
  5
1635
  8
0
 62
     0
 10
-34.464531901535992
 20
-70.385556385812606
 30
0.0
 11
-24.95301216054429
 21
-60.874036644820897
 31
0.0
  0
LINE
  5
1636
  8
0
 62
     0
 10
-35.000000000000533
 20
-66.430896423742581
 30
0.0
 11
-24.95301216054429
 21
-56.383908584286317
 31
0.0
  0
LINE
  5
1637
  8
0
 62
     0
 10
-35.000000000000533
 20
-61.940768363208001
 30
0.0
 11
-24.95301216054429
 21
-51.893780523751751
 31
0.0
  0
LINE
  5
1638
  8
0
 62
     0
 10
-35.000000000000533
 20
-57.45064030267342
 30
0.0
 11
-24.95301216054429
 21
-47.403652463217178
 31
0.0
  0
LINE
  5
1639
  8
0
 62
     0
 10
-35.000000000000533
 20
-52.960512242138847
 30
0.0
 11
-24.95301216054429
 21
-42.91352440268259
 31
0.0
  0
LINE
  5
163A
  8
0
 62
     0
 10
-35.000000000000533
 20
-48.470384181604267
 30
0.0
 11
-24.95301216054429
 21
-38.423396342148017
 31
0.0
  0
LINE
  5
163B
  8
0
 62
     0
 10
-35.00000000000054
 20
-43.980256121069687
 30
0.0
 11
-26.897785231571358
 21
-35.878041352640523
 31
0.0
  0
LINE
  5
163C
  8
0
 62
     0
 10
-35.000000000000547
 20
-39.490128060535127
 30
0.0
 11
-27.000000000000959
 21
-31.49012806053554
 31
0.0
  0
LINE
  5
163D
  8
0
 62
     0
 10
-35.000000000000547
 20
-35.000000000000547
 30
0.0
 11
-27.00000000000092
 21
-27.00000000000092
 31
0.0
  0
LINE
  5
163E
  8
0
 62
     0
 10
-35.000000000000547
 20
-30.509871939465981
 30
0.0
 11
-27.000000000000881
 21
-22.509871939466301
 31
0.0
  0
LINE
  5
163F
  8
0
 62
     0
 10
-35.000000000000547
 20
-26.019743878931411
 30
0.0
 11
-27.000000000000831
 21
-18.019743878931671
 31
0.0
  0
LINE
  5
1640
  8
0
 62
     0
 10
-35.000000000000547
 20
-21.529615818396831
 30
0.0
 11
-27.000000000000782
 21
-13.529615818397049
 31
0.0
  0
LINE
  5
1641
  8
0
 62
     0
 10
-35.000000000000561
 20
-17.039487757862261
 30
0.0
 11
-27.000000000000739
 21
-9.0394877578624335
 31
0.0
  0
LINE
  5
1642
  8
0
 62
     0
 10
-35.000000000000561
 20
-12.549359697327681
 30
0.0
 11
-27.000000000000689
 21
-4.5493596973278123
 31
0.0
  0
LINE
  5
1643
  8
0
 62
     0
 10
-35.000000000000568
 20
-8.0592316367931112
 30
0.0
 11
-27.00000000000065
 21
-0.0592316367931911
 31
0.0
  0
LINE
  5
1644
  8
0
 62
     0
 10
-35.000000000000583
 20
-3.5691035762585428
 30
0.0
 11
-27.000000000000611
 21
4.4308964237414301
 31
0.0
  0
LINE
  5
1645
  8
0
 62
     0
 10
-35.000000000000568
 20
0.9210244842760459
 30
0.0
 11
-27.000000000000561
 21
8.9210244842760513
 31
0.0
  0
LINE
  5
1646
  8
0
 62
     0
 10
-35.000000000000568
 20
5.4111525448106166
 30
0.0
 11
-27.000000000000512
 21
13.411152544810671
 31
0.0
  0
LINE
  5
1647
  8
0
 62
     0
 10
-35.000000000000568
 20
9.9012806053451943
 30
0.0
 11
-27.000000000000469
 21
17.901280605345288
 31
0.0
  0
LINE
  5
1648
  8
0
 62
     0
 10
-35.000000000000568
 20
14.391408665879769
 30
0.0
 11
-27.00000000000043
 21
22.391408665879911
 31
0.0
  0
LINE
  5
1649
  8
0
 62
     0
 10
-35.000000000000568
 20
18.881536726414339
 30
0.0
 11
-27.00000000000038
 21
26.881536726414542
 31
0.0
  0
LINE
  5
164A
  8
0
 62
     0
 10
-35.000000000000568
 20
23.37166478694893
 30
0.0
 11
-27.00000000000033
 21
31.371664786949161
 31
0.0
  0
LINE
  5
164B
  8
0
 62
     0
 10
-35.000000000000568
 20
27.8617928474835
 30
0.0
 11
-27.000000000000291
 21
35.861792847483777
 31
0.0
  0
LINE
  5
164C
  8
0
 62
     0
 10
-35.000000000000568
 20
32.35192090801808
 30
0.0
 11
-27.000000000000249
 21
40.3519209080184
 31
0.0
  0
LINE
  5
164D
  8
0
 62
     0
 10
-35.000000000000568
 20
36.842048968552653
 30
0.0
 11
-27.000000000000199
 21
44.842048968553023
 31
0.0
  0
LINE
  5
164E
  8
0
 62
     0
 10
-35.000000000000561
 20
41.332177029087227
 30
0.0
 11
-27.00000000000016
 21
49.332177029087639
 31
0.0
  0
LINE
  5
164F
  8
0
 62
     0
 10
-35.000000000000568
 20
45.822305089621793
 30
0.0
 11
-27.000000000000121
 21
53.822305089622247
 31
0.0
  0
LINE
  5
1650
  8
0
 62
     0
 10
-35.000000000000568
 20
50.312433150156387
 30
0.0
 11
-27.000000000000082
 21
58.31243315015687
 31
0.0
  0
LINE
  5
1651
  8
0
 62
     0
 10
-35.000000000000568
 20
54.802561210690961
 30
0.0
 11
-27.000000000000028
 21
62.802561210691501
 31
0.0
  0
LINE
  5
1652
  8
0
 62
     0
 10
-35.000000000000568
 20
59.292689271225541
 30
0.0
 11
-27.714388497729448
 21
66.57830077349665
 31
0.0
  0
LINE
  5
1653
  8
0
 62
     0
 10
-35.000000000000583
 20
63.782817331760107
 30
0.0
 11
-32.204516558264039
 21
66.57830077349665
 31
0.0
  0
LINE
  5
1654
  8
0
 62
     0
 10
-25.752478252491048
 20
66.163630797302233
 30
0.0
 11
-26.16714822868547
 21
66.578300773496665
 31
0.0
  0
LINE
  5
1655
  8
0
 62
     0
 10
-27.000000000000011
 20
62.921024484276622
 30
0.0
 11
-30.65727628922005
 21
66.578300773496665
 31
0.0
  0
LINE
  5
1656
  8
0
 62
     0
 10
-27.00000000000006
 20
58.430896423742091
 30
0.0
 11
-34.776957455283231
 21
66.207853879025279
 31
0.0
  0
LINE
  5
1657
  8
0
 62
     0
 10
-27.000000000000099
 20
53.94076836320756
 30
0.0
 11
-35.000000000000568
 21
61.940768363208029
 31
0.0
  0
LINE
  5
1658
  8
0
 62
     0
 10
-27.000000000000149
 20
49.45064030267303
 30
0.0
 11
-35.000000000000568
 21
57.450640302673463
 31
0.0
  0
LINE
  5
1659
  8
0
 62
     0
 10
-27.000000000000188
 20
44.960512242138499
 30
0.0
 11
-35.000000000000568
 21
52.960512242138883
 31
0.0
  0
LINE
  5
165A
  8
0
 62
     0
 10
-27.000000000000242
 20
40.470384181603968
 30
0.0
 11
-35.000000000000568
 21
48.470384181604302
 31
0.0
  0
LINE
  5
165B
  8
0
 62
     0
 10
-27.000000000000281
 20
35.980256121069438
 30
0.0
 11
-35.000000000000568
 21
43.980256121069722
 31
0.0
  0
LINE
  5
165C
  8
0
 62
     0
 10
-27.00000000000033
 20
31.490128060534911
 30
0.0
 11
-35.000000000000568
 21
39.490128060535149
 31
0.0
  0
LINE
  5
165D
  8
0
 62
     0
 10
-27.000000000000369
 20
27.00000000000038
 30
0.0
 11
-35.000000000000568
 21
35.000000000000583
 31
0.0
  0
LINE
  5
165E
  8
0
 62
     0
 10
-27.000000000000419
 20
22.50987193946585
 30
0.0
 11
-35.000000000000568
 21
30.509871939465999
 31
0.0
  0
LINE
  5
165F
  8
0
 62
     0
 10
-27.000000000000458
 20
18.019743878931308
 30
0.0
 11
-35.000000000000568
 21
26.019743878931418
 31
0.0
  0
LINE
  5
1660
  8
0
 62
     0
 10
-27.000000000000512
 20
13.529615818396779
 30
0.0
 11
-35.000000000000568
 21
21.529615818396849
 31
0.0
  0
LINE
  5
1661
  8
0
 62
     0
 10
-27.000000000000561
 20
9.0394877578622523
 30
0.0
 11
-35.000000000000568
 21
17.039487757862268
 31
0.0
  0
LINE
  5
1662
  8
0
 62
     0
 10
-27.0000000000006
 20
4.5493596973277182
 30
0.0
 11
-35.000000000000583
 21
12.54935969732769
 31
0.0
  0
LINE
  5
1663
  8
0
 62
     0
 10
-27.000000000000639
 20
0.059231636793184
 30
0.0
 11
-35.000000000000568
 21
8.0592316367931147
 31
0.0
  0
LINE
  5
1664
  8
0
 62
     0
 10
-27.000000000000689
 20
-4.4308964237413431
 30
0.0
 11
-35.000000000000568
 21
3.5691035762585361
 31
0.0
  0
LINE
  5
1665
  8
0
 62
     0
 10
-27.000000000000728
 20
-8.9210244842758755
 30
0.0
 11
-35.000000000000568
 21
-0.9210244842760353
 31
0.0
  0
LINE
  5
1666
  8
0
 62
     0
 10
-27.000000000000771
 20
-13.41115254481041
 30
0.0
 11
-35.000000000000568
 21
-5.4111525448106121
 31
0.0
  0
LINE
  5
1667
  8
0
 62
     0
 10
-27.000000000000821
 20
-17.90128060534494
 30
0.0
 11
-35.00000000000059
 21
-9.9012806053451818
 31
0.0
  0
LINE
  5
1668
  8
0
 62
     0
 10
-27.00000000000087
 20
-22.391408665879471
 30
0.0
 11
-35.00000000000059
 21
-14.39140866587975
 31
0.0
  0
LINE
  5
1669
  8
0
 62
     0
 10
-27.00000000000092
 20
-26.881536726414001
 30
0.0
 11
-35.00000000000059
 21
-18.881536726414328
 31
0.0
  0
LINE
  5
166A
  8
0
 62
     0
 10
-27.000000000000949
 20
-31.371664786948539
 30
0.0
 11
-35.00000000000059
 21
-23.371664786948909
 31
0.0
  0
LINE
  5
166B
  8
0
 62
     0
 10
-26.853165552997439
 20
-36.008627294486629
 30
0.0
 11
-35.000000000000597
 21
-27.861792847483471
 31
0.0
  0
LINE
  5
166C
  8
0
 62
     0
 10
-24.953012160544301
 20
-37.908780686939778
 30
0.0
 11
-25.508627294488079
 21
-37.353165552995989
 31
0.0
  0
LINE
  5
166D
  8
0
 62
     0
 10
-24.95301216054429
 20
-42.398908747474358
 30
0.0
 11
-35.000000000000597
 21
-32.351920908018052
 31
0.0
  0
LINE
  5
166E
  8
0
 62
     0
 10
-24.95301216054429
 20
-46.889036808008917
 30
0.0
 11
-35.000000000000597
 21
-36.842048968552632
 31
0.0
  0
LINE
  5
166F
  8
0
 62
     0
 10
-24.95301216054429
 20
-51.379164868543512
 30
0.0
 11
-35.000000000000597
 21
-41.332177029087191
 31
0.0
  0
LINE
  5
1670
  8
0
 62
     0
 10
-24.95301216054429
 20
-55.869292929078078
 30
0.0
 11
-35.000000000000611
 21
-45.822305089621757
 31
0.0
  0
LINE
  5
1671
  8
0
 62
     0
 10
-24.95301216054429
 20
-60.359420989612673
 30
0.0
 11
-35.000000000000611
 21
-50.312433150156338
 31
0.0
  0
LINE
  5
1672
  8
0
 62
     0
 10
-24.95301216054429
 20
-64.849549050147246
 30
0.0
 11
-35.000000000000611
 21
-54.802561210690911
 31
0.0
  0
LINE
  5
1673
  8
0
 62
     0
 10
-24.95301216054429
 20
-69.339677110681819
 30
0.0
 11
-35.000000000000611
 21
-59.292689271225491
 31
0.0
  0
LINE
  5
1674
  8
0
 62
     0
 10
-28.28281733176205
 20
-70.499999999998636
 30
0.0
 11
-35.000000000000632
 21
-63.782817331760057
 31
0.0
  0
LINE
  5
1675
  8
0
 62
     0
 10
-32.772945392296627
 20
-70.499999999998636
 30
0.0
 11
-35.000000000000632
 21
-68.272945392294631
 31
0.0
  0
ENDBLK
  5
1677
  8
0
  0
BLOCK
  8
0
  2
*X84
 70
     1
 10
0.0
 20
0.0
 30
0.0
  3
*X84
  1

  0
LINE
  5
1679
  8
0
 62
     0
 10
-25.598719394652871
 20
-70.499999999998636
 30
0.0
 11
-24.95301216054429
 21
-69.854292765890065
 31
0.0
  0
LINE
  5
167A
  8
0
 62
     0
 10
-30.088847455187441
 20
-70.499999999998636
 30
0.0
 11
-24.953012160544301
 21
-65.364164705355492
 31
0.0
  0
LINE
  5
167B
  8
0
 62
     0
 10
-34.464531901535992
 20
-70.385556385812606
 30
0.0
 11
-24.95301216054429
 21
-60.874036644820897
 31
0.0
  0
LINE
  5
167C
  8
0
 62
     0
 10
-35.000000000000533
 20
-66.430896423742581
 30
0.0
 11
-24.95301216054429
 21
-56.383908584286317
 31
0.0
  0
LINE
  5
167D
  8
0
 62
     0
 10
-35.000000000000533
 20
-61.940768363208001
 30
0.0
 11
-24.95301216054429
 21
-51.893780523751751
 31
0.0
  0
LINE
  5
167E
  8
0
 62
     0
 10
-35.000000000000533
 20
-57.45064030267342
 30
0.0
 11
-24.95301216054429
 21
-47.403652463217178
 31
0.0
  0
LINE
  5
167F
  8
0
 62
     0
 10
-35.000000000000533
 20
-52.960512242138847
 30
0.0
 11
-24.95301216054429
 21
-42.91352440268259
 31
0.0
  0
LINE
  5
1680
  8
0
 62
     0
 10
-35.000000000000533
 20
-48.470384181604267
 30
0.0
 11
-24.95301216054429
 21
-38.423396342148017
 31
0.0
  0
LINE
  5
1681
  8
0
 62
     0
 10
-35.00000000000054
 20
-43.980256121069687
 30
0.0
 11
-26.897785231571358
 21
-35.878041352640523
 31
0.0
  0
LINE
  5
1682
  8
0
 62
     0
 10
-35.000000000000547
 20
-39.490128060535127
 30
0.0
 11
-27.000000000000959
 21
-31.49012806053554
 31
0.0
  0
LINE
  5
1683
  8
0
 62
     0
 10
-35.000000000000547
 20
-35.000000000000547
 30
0.0
 11
-27.00000000000092
 21
-27.00000000000092
 31
0.0
  0
LINE
  5
1684
  8
0
 62
     0
 10
-35.000000000000547
 20
-30.509871939465981
 30
0.0
 11
-27.000000000000881
 21
-22.509871939466301
 31
0.0
  0
LINE
  5
1685
  8
0
 62
     0
 10
-35.000000000000547
 20
-26.019743878931411
 30
0.0
 11
-27.000000000000831
 21
-18.019743878931671
 31
0.0
  0
LINE
  5
1686
  8
0
 62
     0
 10
-35.000000000000547
 20
-21.529615818396831
 30
0.0
 11
-27.000000000000782
 21
-13.529615818397049
 31
0.0
  0
LINE
  5
1687
  8
0
 62
     0
 10
-35.000000000000561
 20
-17.039487757862261
 30
0.0
 11
-27.000000000000739
 21
-9.0394877578624335
 31
0.0
  0
LINE
  5
1688
  8
0
 62
     0
 10
-35.000000000000561
 20
-12.549359697327681
 30
0.0
 11
-27.000000000000689
 21
-4.5493596973278123
 31
0.0
  0
LINE
  5
1689
  8
0
 62
     0
 10
-35.000000000000568
 20
-8.0592316367931112
 30
0.0
 11
-27.00000000000065
 21
-0.0592316367931911
 31
0.0
  0
LINE
  5
168A
  8
0
 62
     0
 10
-35.000000000000583
 20
-3.5691035762585428
 30
0.0
 11
-27.000000000000611
 21
4.4308964237414301
 31
0.0
  0
LINE
  5
168B
  8
0
 62
     0
 10
-35.000000000000568
 20
0.9210244842760459
 30
0.0
 11
-27.000000000000561
 21
8.9210244842760513
 31
0.0
  0
LINE
  5
168C
  8
0
 62
     0
 10
-35.000000000000568
 20
5.4111525448106166
 30
0.0
 11
-27.000000000000512
 21
13.411152544810671
 31
0.0
  0
LINE
  5
168D
  8
0
 62
     0
 10
-35.000000000000568
 20
9.9012806053451943
 30
0.0
 11
-27.000000000000469
 21
17.901280605345288
 31
0.0
  0
LINE
  5
168E
  8
0
 62
     0
 10
-35.000000000000568
 20
14.391408665879769
 30
0.0
 11
-27.00000000000043
 21
22.391408665879911
 31
0.0
  0
LINE
  5
168F
  8
0
 62
     0
 10
-35.000000000000568
 20
18.881536726414339
 30
0.0
 11
-27.00000000000038
 21
26.881536726414542
 31
0.0
  0
LINE
  5
1690
  8
0
 62
     0
 10
-35.000000000000568
 20
23.37166478694893
 30
0.0
 11
-27.00000000000033
 21
31.371664786949161
 31
0.0
  0
LINE
  5
1691
  8
0
 62
     0
 10
-35.000000000000568
 20
27.8617928474835
 30
0.0
 11
-27.000000000000291
 21
35.861792847483777
 31
0.0
  0
LINE
  5
1692
  8
0
 62
     0
 10
-35.000000000000568
 20
32.35192090801808
 30
0.0
 11
-27.000000000000249
 21
40.3519209080184
 31
0.0
  0
LINE
  5
1693
  8
0
 62
     0
 10
-35.000000000000568
 20
36.842048968552653
 30
0.0
 11
-27.000000000000199
 21
44.842048968553023
 31
0.0
  0
LINE
  5
1694
  8
0
 62
     0
 10
-35.000000000000561
 20
41.332177029087227
 30
0.0
 11
-27.00000000000016
 21
49.332177029087639
 31
0.0
  0
LINE
  5
1695
  8
0
 62
     0
 10
-35.000000000000568
 20
45.822305089621793
 30
0.0
 11
-27.000000000000121
 21
53.822305089622247
 31
0.0
  0
LINE
  5
1696
  8
0
 62
     0
 10
-35.000000000000568
 20
50.312433150156387
 30
0.0
 11
-27.000000000000082
 21
58.31243315015687
 31
0.0
  0
LINE
  5
1697
  8
0
 62
     0
 10
-35.000000000000568
 20
54.802561210690961
 30
0.0
 11
-27.000000000000028
 21
62.802561210691501
 31
0.0
  0
LINE
  5
1698
  8
0
 62
     0
 10
-35.000000000000568
 20
59.292689271225541
 30
0.0
 11
-27.714388497729448
 21
66.57830077349665
 31
0.0
  0
LINE
  5
1699
  8
0
 62
     0
 10
-35.000000000000583
 20
63.782817331760107
 30
0.0
 11
-32.204516558264039
 21
66.57830077349665
 31
0.0
  0
LINE
  5
169A
  8
0
 62
     0
 10
-25.752478252491048
 20
66.163630797302233
 30
0.0
 11
-26.16714822868547
 21
66.578300773496665
 31
0.0
  0
LINE
  5
169B
  8
0
 62
     0
 10
-27.000000000000011
 20
62.921024484276622
 30
0.0
 11
-30.65727628922005
 21
66.578300773496665
 31
0.0
  0
LINE
  5
169C
  8
0
 62
     0
 10
-27.00000000000006
 20
58.430896423742091
 30
0.0
 11
-34.776957455283231
 21
66.207853879025279
 31
0.0
  0
LINE
  5
169D
  8
0
 62
     0
 10
-27.000000000000099
 20
53.94076836320756
 30
0.0
 11
-35.000000000000568
 21
61.940768363208029
 31
0.0
  0
LINE
  5
169E
  8
0
 62
     0
 10
-27.000000000000149
 20
49.45064030267303
 30
0.0
 11
-35.000000000000568
 21
57.450640302673463
 31
0.0
  0
LINE
  5
169F
  8
0
 62
     0
 10
-27.000000000000188
 20
44.960512242138499
 30
0.0
 11
-35.000000000000568
 21
52.960512242138883
 31
0.0
  0
LINE
  5
16A0
  8
0
 62
     0
 10
-27.000000000000242
 20
40.470384181603968
 30
0.0
 11
-35.000000000000568
 21
48.470384181604302
 31
0.0
  0
LINE
  5
16A1
  8
0
 62
     0
 10
-27.000000000000281
 20
35.980256121069438
 30
0.0
 11
-35.000000000000568
 21
43.980256121069722
 31
0.0
  0
LINE
  5
16A2
  8
0
 62
     0
 10
-27.00000000000033
 20
31.490128060534911
 30
0.0
 11
-35.000000000000568
 21
39.490128060535149
 31
0.0
  0
LINE
  5
16A3
  8
0
 62
     0
 10
-27.000000000000369
 20
27.00000000000038
 30
0.0
 11
-35.000000000000568
 21
35.000000000000583
 31
0.0
  0
LINE
  5
16A4
  8
0
 62
     0
 10
-27.000000000000419
 20
22.50987193946585
 30
0.0
 11
-35.000000000000568
 21
30.509871939465999
 31
0.0
  0
LINE
  5
16A5
  8
0
 62
     0
 10
-27.000000000000458
 20
18.019743878931308
 30
0.0
 11
-35.000000000000568
 21
26.019743878931418
 31
0.0
  0
LINE
  5
16A6
  8
0
 62
     0
 10
-27.000000000000512
 20
13.529615818396779
 30
0.0
 11
-35.000000000000568
 21
21.529615818396849
 31
0.0
  0
LINE
  5
16A7
  8
0
 62
     0
 10
-27.000000000000561
 20
9.0394877578622523
 30
0.0
 11
-35.000000000000568
 21
17.039487757862268
 31
0.0
  0
LINE
  5
16A8
  8
0
 62
     0
 10
-27.0000000000006
 20
4.5493596973277182
 30
0.0
 11
-35.000000000000583
 21
12.54935969732769
 31
0.0
  0
LINE
  5
16A9
  8
0
 62
     0
 10
-27.000000000000639
 20
0.059231636793184
 30
0.0
 11
-35.000000000000568
 21
8.0592316367931147
 31
0.0
  0
LINE
  5
16AA
  8
0
 62
     0
 10
-27.000000000000689
 20
-4.4308964237413431
 30
0.0
 11
-35.000000000000568
 21
3.5691035762585361
 31
0.0
  0
LINE
  5
16AB
  8
0
 62
     0
 10
-27.000000000000728
 20
-8.9210244842758755
 30
0.0
 11
-35.000000000000568
 21
-0.9210244842760353
 31
0.0
  0
LINE
  5
16AC
  8
0
 62
     0
 10
-27.000000000000771
 20
-13.41115254481041
 30
0.0
 11
-35.000000000000568
 21
-5.4111525448106121
 31
0.0
  0
LINE
  5
16AD
  8
0
 62
     0
 10
-27.000000000000821
 20
-17.90128060534494
 30
0.0
 11
-35.00000000000059
 21
-9.9012806053451818
 31
0.0
  0
LINE
  5
16AE
  8
0
 62
     0
 10
-27.00000000000087
 20
-22.391408665879471
 30
0.0
 11
-35.00000000000059
 21
-14.39140866587975
 31
0.0
  0
LINE
  5
16AF
  8
0
 62
     0
 10
-27.00000000000092
 20
-26.881536726414001
 30
0.0
 11
-35.00000000000059
 21
-18.881536726414328
 31
0.0
  0
LINE
  5
16B0
  8
0
 62
     0
 10
-27.000000000000949
 20
-31.371664786948539
 30
0.0
 11
-35.00000000000059
 21
-23.371664786948909
 31
0.0
  0
LINE
  5
16B1
  8
0
 62
     0
 10
-26.853165552997439
 20
-36.008627294486629
 30
0.0
 11
-35.000000000000597
 21
-27.861792847483471
 31
0.0
  0
LINE
  5
16B2
  8
0
 62
     0
 10
-24.953012160544301
 20
-37.908780686939778
 30
0.0
 11
-25.508627294488079
 21
-37.353165552995989
 31
0.0
  0
LINE
  5
16B3
  8
0
 62
     0
 10
-24.95301216054429
 20
-42.398908747474358
 30
0.0
 11
-35.000000000000597
 21
-32.351920908018052
 31
0.0
  0
LINE
  5
16B4
  8
0
 62
     0
 10
-24.95301216054429
 20
-46.889036808008917
 30
0.0
 11
-35.000000000000597
 21
-36.842048968552632
 31
0.0
  0
LINE
  5
16B5
  8
0
 62
     0
 10
-24.95301216054429
 20
-51.379164868543512
 30
0.0
 11
-35.000000000000597
 21
-41.332177029087191
 31
0.0
  0
LINE
  5
16B6
  8
0
 62
     0
 10
-24.95301216054429
 20
-55.869292929078078
 30
0.0
 11
-35.000000000000611
 21
-45.822305089621757
 31
0.0
  0
LINE
  5
16B7
  8
0
 62
     0
 10
-24.95301216054429
 20
-60.359420989612673
 30
0.0
 11
-35.000000000000611
 21
-50.312433150156338
 31
0.0
  0
LINE
  5
16B8
  8
0
 62
     0
 10
-24.95301216054429
 20
-64.849549050147246
 30
0.0
 11
-35.000000000000611
 21
-54.802561210690911
 31
0.0
  0
LINE
  5
16B9
  8
0
 62
     0
 10
-24.95301216054429
 20
-69.339677110681819
 30
0.0
 11
-35.000000000000611
 21
-59.292689271225491
 31
0.0
  0
LINE
  5
16BA
  8
0
 62
     0
 10
-28.28281733176205
 20
-70.499999999998636
 30
0.0
 11
-35.000000000000632
 21
-63.782817331760057
 31
0.0
  0
LINE
  5
16BB
  8
0
 62
     0
 10
-32.772945392296627
 20
-70.499999999998636
 30
0.0
 11
-35.000000000000632
 21
-68.272945392294631
 31
0.0
  0
ENDBLK
  5
16BD
  8
0
  0
BLOCK
  8
0
  2
*U85
 70
     1
 10
0.0
 20
0.0
 30
0.0
  3
*U85
  1

  0
TEXT
  5
18A4
  8
SAPA_MATT
 62
     2
 10
-2.1000000000000849
 20
-105.75055263264331
 30
0.0
 40
3.0
  1
32
  7
ISO
  0
ENDBLK
  5
18A6
  8
0
  0
BLOCK
  8
0
  2
*U86
 70
     1
 10
0.0
 20
0.0
 30
0.0
  3
*U86
  1

  0
TEXT
  5
18A8
  8
SAPA_MATT
 62
     2
 10
58.95639745838411
 20
97.399999999999523
 30
0.0
 40
3.0
  1
50
 50
90.0
  7
ISO
  0
ENDBLK
  5
18AA
  8
0
  0
BLOCK
  8
0
  2
*U87
 70
     1
 10
0.0
 20
0.0
 30
0.0
  3
*U87
  1

  0
TEXT
  5
18AC
  8
SAPA_MATT
 62
     2
 10
31.200000000000031
 20
49.543591794723618
 30
0.0
 40
3.0
  1
16
  7
ISO
  0
ENDBLK
  5
18AE
  8
0
  0
ENDSEC
  0
SECTION
  2
ENTITIES
  0
POLYLINE
  5
6FC
  8
SAPA_LIGHT
 66
     1
 10
0.0
 20
0.0
 30
0.0
  0
VERTEX
  5
1041
  8
SAPA_LIGHT
 10
40.999999999999773
 20
-72.499999999998636
 30
0.0
  0
VERTEX
  5
1042
  8
SAPA_LIGHT
 10
10.999999999999771
 20
-72.499999999998636
 30
0.0
  0
VERTEX
  5
1043
  8
SAPA_LIGHT
 10
10.999999999999771
 20
-45.499999999998629
 30
0.0
  0
VERTEX
  5
1044
  8
SAPA_LIGHT
 10
40.999999999999773
 20
-45.499999999998629
 30
0.0
  0
SEQEND
  5
1045
  8
SAPA_LIGHT
  0
INSERT
  5
709
  8
0
  2
*U77
 10
0.0
 20
0.0
 30
0.0
  0
POLYLINE
  5
74C
  8
SAPA_ANSLUTNING
 66
     1
 10
0.0
 20
0.0
 30
0.0
 70
     1
1001
ACAD
1000
ASC_BOUNDS
1002
{
1070
    19
1005
F68
1002
}
  0
VERTEX
  5
104A
  8
SAPA_ANSLUTNING
 10
-24.95301216054429
 20
-70.499999999998636
 30
0.0
  0
VERTEX
  5
104B
  8
SAPA_ANSLUTNING
 10
-24.95301216054429
 20
-35.500000000000512
 30
0.0
  0
VERTEX
  5
104C
  8
SAPA_ANSLUTNING
 10
-6.9999999999995444
 20
-35.500000000000512
 30
0.0
  0
VERTEX
  5
104D
  8
SAPA_ANSLUTNING
 10
-6.9999999999995444
 20
-70.499999999998622
 30
0.0
  0
SEQEND
  5
104E
  8
SAPA_ANSLUTNING
  0
POLYLINE
  5
74D
  8
SAPA_ANSLUTNING
 66
     1
 10
0.0
 20
0.0
 30
0.0
  0
VERTEX
  5
104F
  8
SAPA_ANSLUTNING
 10
-24.95301216054429
 20
-70.499999999998636
 30
0.0
  0
VERTEX
  5
1050
  8
SAPA_ANSLUTNING
 10
-6.9999999999995444
 20
-35.500000000000512
 30
0.0
  0
VERTEX
  5
1051
  8
SAPA_ANSLUTNING
 10
-6.9999999999995444
 20
-70.499999999998622
 30
0.0
  0
VERTEX
  5
1052
  8
SAPA_ANSLUTNING
 10
-24.95301216054429
 20
-35.500000000000512
 30
0.0
  0
SEQEND
  5
1053
  8
SAPA_ANSLUTNING
  0
POLYLINE
  5
74E
  8
SAPA_ANSLUTNING
 66
     1
 10
0.0
 20
0.0
 30
0.0
1001
ACAD
1000
ASC_BOUNDS
1002
{
1070
    19
1005
F68
1002
}
  0
VERTEX
  5
1054
  8
SAPA_ANSLUTNING
 10
-24.5
 20
64.499999999999503
 30
0.0
  0
VERTEX
  5
1055
  8
SAPA_ANSLUTNING
 10
-24.5
 20
66.578300773496665
 30
0.0
  0
VERTEX
  5
1056
  8
SAPA_ANSLUTNING
 10
-15.83071111616459
 20
66.578300773496665
 30
0.0
  0
VERTEX
  5
1057
  8
SAPA_ANSLUTNING
 10
-15.83071111616459
 20
64.499999999999488
 30
0.0
  0
VERTEX
  5
1058
  8
SAPA_ANSLUTNING
 10
-24.5
 20
64.499999999999432
 30
0.0
  0
SEQEND
  5
1059
  8
SAPA_ANSLUTNING
  0
INSERT
  5
74F
  8
0
  2
*U78
 10
0.0
 20
0.0
 30
0.0
  0
LINE
  5
8EE
  8
SAPA_LIGHT
 10
-37.000000000000639
 20
-45.499999999998629
 30
0.0
 11
-37.000000000000639
 21
-45.499999999998629
 31
0.0
  0
POLYLINE
  5
8FE
  8
SAPA_LIGHT
 66
     1
 10
0.0
 20
0.0
 30
0.0
 70
     1
  0
VERTEX
  5
105E
  8
SAPA_LIGHT
 10
-37.000000000000583
 20
-72.499999999998678
 30
0.0
  0
VERTEX
  5
105F
  8
SAPA_LIGHT
 10
-16.000000000000391
 20
-72.499999999998636
 30
0.0
  0
VERTEX
  5
1060
  8
SAPA_LIGHT
 10
-16.000000000000391
 20
-72.499999999998636
 30
0.0
  0
VERTEX
  5
1061
  8
SAPA_LIGHT
 10
-16.000000000000391
 20
-77.646446609404535
 30
0.0
  0
VERTEX
  5
1062
  8
SAPA_LIGHT
 10
-6.968469869991587
 20
-86.423879532509702
 30
0.0
  0
VERTEX
  5
1063
  8
SAPA_LIGHT
 10
6.9684698699921572
 20
-86.423879532509702
 30
0.0
  0
VERTEX
  5
1064
  8
SAPA_LIGHT
 10
15.961939766255661
 20
-77.484234934994149
 30
0.0
  0
VERTEX
  5
1065
  8
SAPA_LIGHT
 10
15.961939766255661
 20
-72.499999999998636
 30
0.0
  0
VERTEX
  5
1066
  8
SAPA_LIGHT
 10
5.0000000000003304
 20
-72.499999999998636
 30
0.0
  0
VERTEX
  5
1067
  8
SAPA_LIGHT
 10
5.0000000000003331
 20
-45.499999999998629
 30
0.0
  0
VERTEX
  5
1068
  8
SAPA_LIGHT
 10
25.00000000000103
 20
-45.499999999998629
 30
0.0
  0
VERTEX
  5
1069
  8
SAPA_LIGHT
 10
25.000000000000011
 20
68.578300773496665
 30
0.0
  0
VERTEX
  5
106A
  8
SAPA_LIGHT
 10
-37.000000000000838
 20
68.578300773496665
 30
0.0
  0
VERTEX
  5
106B
  8
SAPA_LIGHT
 10
-37.000000000000639
 20
-45.499999999998629
 30
0.0
  0
SEQEND
  5
106C
  8
SAPA_LIGHT
  0
POLYLINE
  5
900
  8
SAPA_LIGHT
 66
     1
 10
0.0
 20
0.0
 30
0.0
  0
VERTEX
  5
106D
  8
SAPA_LIGHT
 10
41.0
 20
74.499999999999488
 30
0.0
  0
VERTEX
  5
106E
  8
SAPA_LIGHT
 10
41.000000000000028
 20
124.4999999999995
 30
0.0
  0
VERTEX
  5
106F
  8
SAPA_LIGHT
 10
-47.999999999999943
 20
124.4999999999996
 30
0.0
  0
VERTEX
  5
1070
  8
SAPA_LIGHT
 10
-47.999999999999808
 20
106.89999999999939
 30
0.0
  0
VERTEX
  5
1071
  8
SAPA_LIGHT
 10
-25.799999999999951
 20
106.89999999999939
 30
0.0
  0
VERTEX
  5
1072
  8
SAPA_LIGHT
 10
-25.799999999999962
 20
82.899999999999579
 30
0.0
  0
VERTEX
  5
1073
  8
SAPA_LIGHT
 10
-48.0
 20
82.899999999999565
 30
0.0
  0
VERTEX
  5
1074
  8
SAPA_LIGHT
 10
-48.0
 20
74.499999999999545
 30
0.0
  0
VERTEX
  5
1075
  8
SAPA_LIGHT
 10
41.0
 20
74.499999999999488
 30
0.0
  0
SEQEND
  5
1076
  8
SAPA_LIGHT
  0
POLYLINE
  5
901
  8
SAPA_LIGHT
 66
     1
 10
0.0
 20
0.0
 30
0.0
  0
VERTEX
  5
1077
  8
SAPA_LIGHT
 10
-59.799999999999891
 20
106.8999999999993
 30
0.0
  0
VERTEX
  5
1078
  8
SAPA_LIGHT
 10
-31.000000000000121
 20
106.8999999999993
 30
0.0
  0
VERTEX
  5
1079
  8
SAPA_LIGHT
 10
-31.000000000000121
 20
82.899999999999579
 30
0.0
  0
VERTEX
  5
107A
  8
SAPA_LIGHT
 10
-59.799999999999891
 20
82.899999999999579
 30
0.0
  0
SEQEND
  5
107B
  8
SAPA_LIGHT
  0
INSERT
  5
902
  8
0
  2
*U79
 10
0.0
 20
0.0
 30
0.0
  0
INSERT
  5
905
  8
0
  2
*U80
 10
0.0
 20
0.0
 30
0.0
  0
INSERT
  5
906
  8
0
  2
*U81
 10
0.0
 20
0.0
 30
0.0
  0
INSERT
  5
A60
  8
0
  2
*U82
 10
0.0
 20
0.0
 30
0.0
  0
LINE
  5
DC5
  8
SAPA_PROFIL
 10
-15.00000000000079
 20
68.578300773496665
 30
0.0
 11
-15.00000000000079
 21
66.578300773496665
 31
0.0
  0
LINE
  5
DC6
  8
SAPA_PROFIL
 10
-15.00000000000079
 20
66.578300773496665
 30
0.0
 11
-34.000000000000568
 21
66.578300773496665
 31
0.0
  0
ARC
  5
DC7
  8
SAPA_PROFIL
 10
-34.000000000000568
 20
65.578300773496665
 30
0.0
 40
1.0
 50
90.0
 51
180.0
  0
LINE
  5
DC8
  8
SAPA_PROFIL
 10
-35.000000000000568
 20
65.578300773496665
 30
0.0
 11
-35.000000000000583
 21
-69.499999999998636
 31
0.0
  0
ARC
  5
DC9
  8
SAPA_PROFIL
 10
-34.000000000000583
 20
-69.499999999998636
 30
0.0
 40
1.0
 50
180.0
 51
270.0
  0
LINE
  5
DCA
  8
SAPA_PROFIL
 10
-34.000000000000583
 20
-70.499999999998636
 30
0.0
 11
-7.3413678820460344
 21
-70.499999999998636
 31
0.0
  0
LINE
  5
DCB
  8
SAPA_PROFIL
 10
-7.3413678820460344
 20
-70.499999999998636
 30
0.0
 11
-7.3413678820460344
 21
-72.499999999998636
 31
0.0
  0
LINE
  5
DCC
  8
SAPA_PROFIL
 10
-7.3413678820460344
 20
-72.499999999998636
 30
0.0
 11
-36.000000000000583
 21
-72.499999999998636
 31
0.0
  0
ARC
  5
DCD
  8
SAPA_PROFIL
 10
-36.000000000000583
 20
-71.499999999998636
 30
0.0
 40
1.0
 50
180.0
 51
270.0000000000004
  0
LINE
  5
DCE
  8
SAPA_PROFIL
 10
-37.000000000000583
 20
-71.499999999998636
 30
0.0
 11
-37.000000000000888
 21
66.578300773496665
 31
0.0
  0
ARC
  5
DCF
  8
SAPA_PROFIL
 10
-35.000000000000838
 20
66.578300773496622
 30
0.0
 40
2.0000000000000488
 50
89.999999999998764
 51
179.99999999999881
  0
LINE
  5
DD0
  8
SAPA_PROFIL
 10
-35.000000000000803
 20
68.578300773496665
 30
0.0
 11
-15.00000000000079
 21
68.578300773496665
 31
0.0
  0
POLYLINE
  5
F2C
  8
SAPA_PROFIL
 66
     1
 10
0.0
 20
0.0
 30
0.0
 70
     1
  0
VERTEX
  5
1348
  8
SAPA_PROFIL
 10
13.289707822415201
 20
-79.262132034007521
 30
0.0
 42
0.1989123678065343
  0
VERTEX
  5
1349
  8
SAPA_PROFIL
 10
13.501839857119609
 20
-79.34999999999998
 30
0.0
  0
VERTEX
  5
134A
  8
SAPA_PROFIL
 10
14.600000000000019
 20
-79.34999999999998
 30
0.0
 42
-0.4142135623730951
  0
VERTEX
  5
134B
  8
SAPA_PROFIL
 10
14.900000000000031
 20
-79.649999999999977
 30
0.0
  0
VERTEX
  5
134C
  8
SAPA_PROFIL
 10
14.899999999999929
 20
-84.800000000000736
 30
0.0
 42
-0.4142135623730951
  0
VERTEX
  5
134D
  8
SAPA_PROFIL
 10
14.399999999999929
 20
-85.300000000000722
 30
0.0
  0
VERTEX
  5
134E
  8
SAPA_PROFIL
 10
-14.400000000000119
 20
-85.300000000000722
 30
0.0
 42
-0.4142135623730951
  0
VERTEX
  5
134F
  8
SAPA_PROFIL
 10
-14.900000000000119
 20
-84.800000000000736
 30
0.0
  0
VERTEX
  5
1350
  8
SAPA_PROFIL
 10
-14.900000000000359
 20
-79.649999999999977
 30
0.0
 42
-0.4142135623731023
  0
VERTEX
  5
1351
  8
SAPA_PROFIL
 10
-14.60000000000036
 20
-79.34999999999998
 30
0.0
  0
VERTEX
  5
1352
  8
SAPA_PROFIL
 10
-13.50183985711992
 20
-79.34999999999998
 30
0.0
 42
0.1989123678065156
  0
VERTEX
  5
1353
  8
SAPA_PROFIL
 10
-13.28970782241554
 20
-79.262132034007521
 30
0.0
  0
VERTEX
  5
1354
  8
SAPA_PROFIL
 10
-12.23786796529587
 20
-78.21029217343262
 30
0.0
 42
0.1989123669528251
  0
VERTEX
  5
1355
  8
SAPA_PROFIL
 10
-12.15000000000007
 20
-77.998160139425025
 30
0.0
  0
VERTEX
  5
1356
  8
SAPA_PROFIL
 10
-12.15000000000019
 20
-77.900906587984949
 30
0.0
 42
0.4400105308916151
  0
VERTEX
  5
1357
  8
SAPA_PROFIL
 10
-12.47614672282428
 20
-77.602048178557382
 30
0.0
  0
VERTEX
  5
1358
  8
SAPA_PROFIL
 10
-14.0449347124006
 20
-77.739299343120535
 30
0.0
 42
-0.2216946626433876
  0
VERTEX
  5
1359
  8
SAPA_PROFIL
 10
-14.283213469581209
 20
-77.65257296804856
 30
0.0
  0
VERTEX
  5
135A
  8
SAPA_PROFIL
 10
-14.99791847198218
 20
-76.937867965644799
 30
0.0
 42
0.1989123673794082
  0
VERTEX
  5
135B
  8
SAPA_PROFIL
 10
-15.21005050633811
 20
-76.84999999999998
 30
0.0
  0
VERTEX
  5
135C
  8
SAPA_PROFIL
 10
-15.699999999999919
 20
-76.84999999999998
 30
0.0
 42
0.4142135623732032
  0
VERTEX
  5
135D
  8
SAPA_PROFIL
 10
-16.00000000000011
 20
-77.149999999999935
 30
0.0
  0
VERTEX
  5
135E
  8
SAPA_PROFIL
 10
-16.00000000000011
 20
-86.349999999999966
 30
0.0
 42
0.4142135623732616
  0
VERTEX
  5
135F
  8
SAPA_PROFIL
 10
-15.699999999999919
 20
-86.649999999999963
 30
0.0
  0
VERTEX
  5
1360
  8
SAPA_PROFIL
 10
15.699999999999919
 20
-86.649999999999963
 30
0.0
 42
0.414213562373088
  0
VERTEX
  5
1361
  8
SAPA_PROFIL
 10
15.99999999999994
 20
-86.349999999999966
 30
0.0
  0
VERTEX
  5
1362
  8
SAPA_PROFIL
 10
16.00000000000011
 20
-77.149999999999935
 30
0.0
 42
0.4142135623731402
  0
VERTEX
  5
1363
  8
SAPA_PROFIL
 10
15.699999999999999
 20
-76.849999999999994
 30
0.0
  0
VERTEX
  5
1364
  8
SAPA_PROFIL
 10
15.21005050633801
 20
-76.84999999999998
 30
0.0
 42
0.1989123673794317
  0
VERTEX
  5
1365
  8
SAPA_PROFIL
 10
14.99791847198183
 20
-76.937867965644813
 30
0.0
  0
VERTEX
  5
1366
  8
SAPA_PROFIL
 10
14.283213469580859
 20
-77.65257296804856
 30
0.0
 42
-0.2216946626433918
  0
VERTEX
  5
1367
  8
SAPA_PROFIL
 10
14.04493471240025
 20
-77.739299343120535
 30
0.0
  0
VERTEX
  5
1368
  8
SAPA_PROFIL
 10
12.476146722824019
 20
-77.602048178557382
 30
0.0
 42
0.4400105308916328
  0
VERTEX
  5
1369
  8
SAPA_PROFIL
 10
12.149999999999901
 20
-77.900906587984949
 30
0.0
  0
VERTEX
  5
136A
  8
SAPA_PROFIL
 10
12.149999999999819
 20
-77.998160139425025
 30
0.0
 42
0.1989123669528365
  0
VERTEX
  5
136B
  8
SAPA_PROFIL
 10
12.237867965295621
 20
-78.21029217343262
 30
0.0
  0
SEQEND
  5
136C
  8
SAPA_PROFIL
  0
POLYLINE
  5
F2D
  8
SAPA_PROFIL
  6
CONTINUOUS
 66
     1
 10
0.0
 20
0.0
 30
0.0
 70
     1
  0
VERTEX
  5
136D
  8
SAPA_PROFIL
  6
CONTINUOUS
 10
-5.9092893218803431
 20
-76.987867965642707
 30
0.0
 42
0.6681786379191337
  0
VERTEX
  5
136E
  8
SAPA_PROFIL
  6
CONTINUOUS
 10
-5.6971572875243552
 20
-77.499999999998636
 30
0.0
  0
VERTEX
  5
136F
  8
SAPA_PROFIL
  6
CONTINUOUS
 10
-5.2999999999991507
 20
-77.499999999998195
 30
0.0
 42
-0.414213562374094
  0
VERTEX
  5
1370
  8
SAPA_PROFIL
  6
CONTINUOUS
 10
-4.9999999999991971
 20
-77.799999999999173
 30
0.0
  0
VERTEX
  5
1371
  8
SAPA_PROFIL
  6
CONTINUOUS
 10
-4.9999999999991971
 20
-80.199999999999164
 30
0.0
 42
-0.4142135623730951
  0
VERTEX
  5
1372
  8
SAPA_PROFIL
  6
CONTINUOUS
 10
-5.2999999999991507
 20
-80.499999999999105
 30
0.0
  0
VERTEX
  5
1373
  8
SAPA_PROFIL
  6
CONTINUOUS
 10
-8.0391854213350413
 20
-80.499999999998195
 30
0.0
 42
-0.2216946626429604
  0
VERTEX
  5
1374
  8
SAPA_PROFIL
  6
CONTINUOUS
 10
-9.5712743075730984
 20
-79.785575219371154
 30
0.0
  0
VERTEX
  5
1375
  8
SAPA_PROFIL
  6
CONTINUOUS
 10
-10.53302222155917
 20
-78.63940868770915
 30
0.0
 42
-0.1763269807085765
  0
VERTEX
  5
1376
  8
SAPA_PROFIL
  6
CONTINUOUS
 10
-10.650000000000031
 20
-78.318014882865171
 30
0.0
  0
VERTEX
  5
1377
  8
SAPA_PROFIL
  6
CONTINUOUS
 10
-10.649999999998149
 20
-77.79999999999815
 30
0.0
 42
-0.4142135623733171
  0
VERTEX
  5
1378
  8
SAPA_PROFIL
  6
CONTINUOUS
 10
-10.34999999999871
 20
-77.499999999999034
 30
0.0
  0
VERTEX
  5
1379
  8
SAPA_PROFIL
  6
CONTINUOUS
 10
-9.2928427124741617
 20
-77.499999999998636
 30
0.0
 42
0.6681786379192504
  0
VERTEX
  5
137A
  8
SAPA_PROFIL
  6
CONTINUOUS
 10
-9.080710678118173
 20
-76.987867965642707
 30
0.0
  0
VERTEX
  5
137B
  8
SAPA_PROFIL
  6
CONTINUOUS
 10
-9.4807106781175818
 20
-76.587867965643241
 30
0.0
 42
0.1989123673796784
  0
VERTEX
  5
137C
  8
SAPA_PROFIL
  6
CONTINUOUS
 10
-9.6928427124735705
 20
-76.499999999999162
 30
0.0
  0
VERTEX
  5
137D
  8
SAPA_PROFIL
  6
CONTINUOUS
 10
-14.65263912041404
 20
-76.499999999998195
 30
0.0
 42
0.6808757648994829
  0
VERTEX
  5
137E
  8
SAPA_PROFIL
  6
CONTINUOUS
 10
-14.857238628433141
 20
-77.019406110484184
 30
0.0
  0
VERTEX
  5
137F
  8
SAPA_PROFIL
  6
CONTINUOUS
 10
-14.428291144423151
 20
-77.419406110484161
 30
0.0
 42
0.189855932106766
  0
VERTEX
  5
1380
  8
SAPA_PROFIL
  6
CONTINUOUS
 10
-14.22369163640405
 20
-77.499999999998195
 30
0.0
  0
VERTEX
  5
1381
  8
SAPA_PROFIL
  6
CONTINUOUS
 10
-12.37022832743218
 20
-77.499999999998195
 30
0.0
 42
-0.7002075382100549
  0
VERTEX
  5
1382
  8
SAPA_PROFIL
  6
CONTINUOUS
 10
-12.114322422670099
 20
-78.203095694837842
 30
0.0
  0
VERTEX
  5
1383
  8
SAPA_PROFIL
  6
CONTINUOUS
 10
-12.542836282904879
 20
-78.562661516914957
 30
0.0
 42
0.2216946626430935
  0
VERTEX
  5
1384
  8
SAPA_PROFIL
  6
CONTINUOUS
 10
-12.649999999999171
 20
-78.792474849850763
 30
0.0
  0
VERTEX
  5
1385
  8
SAPA_PROFIL
  6
CONTINUOUS
 10
-12.649999999999171
 20
-78.947146456085889
 30
0.0
 42
0.2079979736432576
  0
VERTEX
  5
1386
  8
SAPA_PROFIL
  6
CONTINUOUS
 10
-12.55460146427969
 20
-79.166550742311657
 30
0.0
  0
VERTEX
  5
1387
  8
SAPA_PROFIL
  6
CONTINUOUS
 10
-6.59999956124215
 20
-84.719406110485195
 30
0.0
 42
0.1898559321065746
  0
VERTEX
  5
1388
  8
SAPA_PROFIL
  6
CONTINUOUS
 10
-6.3954000532241864
 20
-84.79999999999815
 30
0.0
  0
VERTEX
  5
1389
  8
SAPA_PROFIL
  6
CONTINUOUS
 10
-0.7732050807561494
 20
-84.79999999999815
 30
0.0
 42
0.131652497587957
  0
VERTEX
  5
138A
  8
SAPA_PROFIL
  6
CONTINUOUS
 10
-0.6232050807551488
 20
-84.759807621134144
 30
0.0
  0
VERTEX
  5
138B
  8
SAPA_PROFIL
  6
CONTINUOUS
 10
0.0000000000008029
 20
-84.399999999999196
 30
0.0
  0
VERTEX
  5
138C
  8
SAPA_PROFIL
  6
CONTINUOUS
 10
0.6232050807579485
 20
-84.759807621134144
 30
0.0
 42
0.1316524975871203
  0
VERTEX
  5
138D
  8
SAPA_PROFIL
  6
CONTINUOUS
 10
0.773205080757812
 20
-84.79999999999815
 30
0.0
  0
VERTEX
  5
138E
  8
SAPA_PROFIL
  6
CONTINUOUS
 10
6.395400053225905
 20
-84.79999999999815
 30
0.0
 42
0.1898559321066236
  0
VERTEX
  5
138F
  8
SAPA_PROFIL
  6
CONTINUOUS
 10
6.5999995612439264
 20
-84.719406110485195
 30
0.0
  0
VERTEX
  5
1390
  8
SAPA_PROFIL
  6
CONTINUOUS
 10
12.55460146428141
 20
-79.166550742311657
 30
0.0
 42
0.207997973643366
  0
VERTEX
  5
1391
  8
SAPA_PROFIL
  6
CONTINUOUS
 10
12.650000000000951
 20
-78.947146456085889
 30
0.0
  0
VERTEX
  5
1392
  8
SAPA_PROFIL
  6
CONTINUOUS
 10
12.65000000000089
 20
-78.792474849850763
 30
0.0
 42
0.221694662643129
  0
VERTEX
  5
1393
  8
SAPA_PROFIL
  6
CONTINUOUS
 10
12.542836282906711
 20
-78.562661516914957
 30
0.0
  0
VERTEX
  5
1394
  8
SAPA_PROFIL
  6
CONTINUOUS
 10
12.11432242267165
 20
-78.203095694837955
 30
0.0
 42
-0.7002075382100074
  0
VERTEX
  5
1395
  8
SAPA_PROFIL
  6
CONTINUOUS
 10
12.370228327433839
 20
-77.499999999998195
 30
0.0
  0
VERTEX
  5
1396
  8
SAPA_PROFIL
  6
CONTINUOUS
 10
14.22369163640594
 20
-77.499999999998479
 30
0.0
 42
0.1898559321066891
  0
VERTEX
  5
1397
  8
SAPA_PROFIL
  6
CONTINUOUS
 10
14.42829114442492
 20
-77.419406110484161
 30
0.0
  0
VERTEX
  5
1398
  8
SAPA_PROFIL
  6
CONTINUOUS
 10
14.857238628434629
 20
-77.019406110483899
 30
0.0
 42
0.6808757648995032
  0
VERTEX
  5
1399
  8
SAPA_PROFIL
  6
CONTINUOUS
 10
14.65263912041593
 20
-76.499999999998195
 30
0.0
  0
VERTEX
  5
139A
  8
SAPA_PROFIL
  6
CONTINUOUS
 10
9.6928427124751764
 20
-76.499999999999162
 30
0.0
 42
0.1989123673797132
  0
VERTEX
  5
139B
  8
SAPA_PROFIL
  6
CONTINUOUS
 10
9.4807106781192445
 20
-76.587867965643241
 30
0.0
  0
VERTEX
  5
139C
  8
SAPA_PROFIL
  6
CONTINUOUS
 10
9.0807106781197788
 20
-76.987867965642707
 30
0.0
 42
0.6681786379192504
  0
VERTEX
  5
139D
  8
SAPA_PROFIL
  6
CONTINUOUS
 10
9.2928427124757675
 20
-77.499999999998636
 30
0.0
  0
VERTEX
  5
139E
  8
SAPA_PROFIL
  6
CONTINUOUS
 10
10.35000000000179
 20
-77.499999999999162
 30
0.0
 42
-0.4142135623719851
  0
VERTEX
  5
139F
  8
SAPA_PROFIL
  6
CONTINUOUS
 10
10.64999999999975
 20
-77.79999999999815
 30
0.0
  0
VERTEX
  5
13A0
  8
SAPA_PROFIL
  6
CONTINUOUS
 10
10.65000000000078
 20
-78.318014882865171
 30
0.0
 42
-0.176326980708563
  0
VERTEX
  5
13A1
  8
SAPA_PROFIL
  6
CONTINUOUS
 10
10.533022221560771
 20
-78.63940868770915
 30
0.0
  0
VERTEX
  5
13A2
  8
SAPA_PROFIL
  6
CONTINUOUS
 10
9.5712743075746474
 20
-79.785575219371097
 30
0.0
 42
-0.2216946626429643
  0
VERTEX
  5
13A3
  8
SAPA_PROFIL
  6
CONTINUOUS
 10
8.0391854213366472
 20
-80.499999999998195
 30
0.0
  0
VERTEX
  5
13A4
  8
SAPA_PROFIL
  6
CONTINUOUS
 10
5.3000000000007574
 20
-80.499999999998195
 30
0.0
 42
-0.4142135623730951
  0
VERTEX
  5
13A5
  8
SAPA_PROFIL
  6
CONTINUOUS
 10
5.000000000000802
 20
-80.199999999999164
 30
0.0
  0
VERTEX
  5
13A6
  8
SAPA_PROFIL
  6
CONTINUOUS
 10
5.000000000000802
 20
-77.799999999999173
 30
0.0
 42
-0.414213562374094
  0
VERTEX
  5
13A7
  8
SAPA_PROFIL
  6
CONTINUOUS
 10
5.3000000000007574
 20
-77.499999999998195
 30
0.0
  0
VERTEX
  5
13A8
  8
SAPA_PROFIL
  6
CONTINUOUS
 10
5.6971572875259611
 20
-77.499999999998636
 30
0.0
 42
0.6681786379192504
  0
VERTEX
  5
13A9
  8
SAPA_PROFIL
  6
CONTINUOUS
 10
5.9092893218819489
 20
-76.987867965642707
 30
0.0
  0
VERTEX
  5
13AA
  8
SAPA_PROFIL
  6
CONTINUOUS
 10
5.5092893218825401
 20
-76.587867965643241
 30
0.0
 42
0.1989123673796784
  0
VERTEX
  5
13AB
  8
SAPA_PROFIL
  6
CONTINUOUS
 10
5.2971572875265522
 20
-76.499999999999162
 30
0.0
  0
VERTEX
  5
13AC
  8
SAPA_PROFIL
  6
CONTINUOUS
 10
-5.2971572875248887
 20
-76.499999999999162
 30
0.0
 42
0.1989123673796928
  0
VERTEX
  5
13AD
  8
SAPA_PROFIL
  6
CONTINUOUS
 10
-5.5092893218808783
 20
-76.587867965643241
 30
0.0
  0
SEQEND
  5
13AE
  8
SAPA_PROFIL
  6
CONTINUOUS
  0
POLYLINE
  5
F2E
  8
SAPA_PROFIL
 62
     4
 66
     1
 10
0.0
 20
0.0
 30
0.0
 70
     1
  0
VERTEX
  5
13AF
  8
SAPA_PROFIL
 62
     4
 10
-1.1499999999999619
 20
-48.84999999999966
 30
0.0
  0
VERTEX
  5
13B0
  8
SAPA_PROFIL
 62
     4
 10
-1.1499999999999619
 20
-46.649999999999601
 30
0.0
 42
-1.0
  0
VERTEX
  5
13B1
  8
SAPA_PROFIL
 62
     4
 10
1.149999999999991
 20
-46.649999999999601
 30
0.0
  0
VERTEX
  5
13B2
  8
SAPA_PROFIL
 62
     4
 10
1.1500000000001049
 20
-48.84999999999966
 30
0.0
 42
-1.0
  0
SEQEND
  5
13B3
  8
SAPA_PROFIL
 62
     4
  0
POLYLINE
  5
F2F
  8
SAPA_PROFIL
 62
     4
 66
     1
 10
0.0
 20
0.0
 30
0.0
 70
     1
  0
VERTEX
  5
13B4
  8
SAPA_PROFIL
 62
     4
 10
-3.9999999999999831
 20
-63.999999999999631
 30
0.0
  0
VERTEX
  5
13B5
  8
SAPA_PROFIL
 62
     4
 10
-3.9999999999999831
 20
-67.05083214903587
 30
0.0
  0
VERTEX
  5
13B6
  8
SAPA_PROFIL
 62
     4
 10
-3.9999999999999818
 20
-70.378679656439971
 30
0.0
 42
0.6681786379192966
  0
VERTEX
  5
13B7
  8
SAPA_PROFIL
 62
     4
 10
-3.146446609406762
 20
-70.732233047033191
 30
0.0
  0
VERTEX
  5
13B8
  8
SAPA_PROFIL
 62
     4
 10
-1.00000001162179
 20
-68.585786439270095
 30
0.0
 42
-0.1989123679837333
  0
VERTEX
  5
13B9
  8
SAPA_PROFIL
 62
     4
 10
-0.2928932287916808
 20
-68.292893218813077
 30
0.0
  0
VERTEX
  5
13BA
  8
SAPA_PROFIL
 62
     4
 10
0.2928932088352554
 20
-68.292893218813077
 30
0.0
 42
-0.1989123667755704
  0
VERTEX
  5
13BB
  8
SAPA_PROFIL
 62
     4
 10
0.9999999883782239
 20
-68.585786435982953
 30
0.0
  0
VERTEX
  5
13BC
  8
SAPA_PROFIL
 62
     4
 10
3.1464466094067971
 20
-70.732233047033191
 30
0.0
 42
0.6681786379192936
  0
VERTEX
  5
13BD
  8
SAPA_PROFIL
 62
     4
 10
4.0000000000000027
 20
-70.378679656439971
 30
0.0
  0
VERTEX
  5
13BE
  8
SAPA_PROFIL
 62
     4
 10
4.0000000000000018
 20
-67.05083214903587
 30
0.0
  0
VERTEX
  5
13BF
  8
SAPA_PROFIL
 62
     4
 10
4.000000000000016
 20
-63.999999999999631
 30
0.0
 42
0.4142135623730951
  0
VERTEX
  5
13C0
  8
SAPA_PROFIL
 62
     4
 10
3.500000000000016
 20
-63.499999999999631
 30
0.0
  0
VERTEX
  5
13C1
  8
SAPA_PROFIL
 62
     4
 10
-3.4999999999999831
 20
-63.499999999999631
 30
0.0
 42
0.4142135623730951
  0
SEQEND
  5
13C2
  8
SAPA_PROFIL
 62
     4
  0
POLYLINE
  5
F30
  8
SAPA_PROFIL
 62
     4
 66
     1
 10
0.0
 20
0.0
 30
0.0
 70
     1
  0
VERTEX
  5
13C3
  8
SAPA_PROFIL
 62
     4
 10
2.5857864376267941
 20
-53.459999999999638
 30
0.0
  0
VERTEX
  5
13C4
  8
SAPA_PROFIL
 62
     4
 10
1.14653106284699
 20
-52.060744625219598
 30
0.0
 42
0.9251773977986363
  0
VERTEX
  5
13C5
  8
SAPA_PROFIL
 62
     4
 10
-1.1465310628468459
 20
-52.060744625219598
 30
0.0
  0
VERTEX
  5
13C6
  8
SAPA_PROFIL
 62
     4
 10
-2.5857864376267639
 20
-53.459999999999638
 30
0.0
  0
VERTEX
  5
13C7
  8
SAPA_PROFIL
 62
     4
 10
-3.499999999999984
 20
-53.459999999999638
 30
0.0
 42
0.4142135623730769
  0
VERTEX
  5
13C8
  8
SAPA_PROFIL
 62
     4
 10
-3.999999999999984
 20
-53.959999999999638
 30
0.0
  0
VERTEX
  5
13C9
  8
SAPA_PROFIL
 62
     4
 10
-3.9999999999999831
 20
-61.999999999999631
 30
0.0
 42
0.4142135623730951
  0
VERTEX
  5
13CA
  8
SAPA_PROFIL
 62
     4
 10
-3.4999999999999831
 20
-62.499999999999631
 30
0.0
  0
VERTEX
  5
13CB
  8
SAPA_PROFIL
 62
     4
 10
3.500000000000016
 20
-62.499999999999631
 30
0.0
 42
0.4142135623730951
  0
VERTEX
  5
13CC
  8
SAPA_PROFIL
 62
     4
 10
4.0000000000000151
 20
-61.999999999999631
 30
0.0
  0
VERTEX
  5
13CD
  8
SAPA_PROFIL
 62
     4
 10
4.0000000000000151
 20
-53.959999999999638
 30
0.0
 42
0.4142135623730951
  0
VERTEX
  5
13CE
  8
SAPA_PROFIL
 62
     4
 10
3.5000000000000151
 20
-53.459999999999638
 30
0.0
  0
SEQEND
  5
13CF
  8
SAPA_PROFIL
 62
     4
  0
POLYLINE
  5
F31
  8
SAPA_PROFIL
 62
     4
 66
     1
 10
0.0
 20
0.0
 30
0.0
 70
     1
  0
VERTEX
  5
13D0
  8
SAPA_PROFIL
 62
     4
 10
-4.9999999999998712
 20
-54.109999999999623
 30
0.0
 42
1.0
  0
VERTEX
  5
13D1
  8
SAPA_PROFIL
 62
     4
 10
-6.2999999999999394
 20
-54.109999999999623
 30
0.0
  0
VERTEX
  5
13D2
  8
SAPA_PROFIL
 62
     4
 10
-6.2999999999999394
 20
-54.959999999999638
 30
0.0
  0
VERTEX
  5
13D3
  8
SAPA_PROFIL
 62
     4
 10
-6.2499999999998712
 20
-54.959999999999638
 30
0.0
 42
-1.0
  0
VERTEX
  5
13D4
  8
SAPA_PROFIL
 62
     4
 10
-6.2499999999998703
 20
-55.459999999999631
 30
0.0
  0
VERTEX
  5
13D5
  8
SAPA_PROFIL
 62
     4
 10
-6.6999999999999149
 20
-55.459999999999631
 30
0.0
 42
-0.4142135623730951
  0
VERTEX
  5
13D6
  8
SAPA_PROFIL
 62
     4
 10
-6.9999999999998712
 20
-55.15999999999957
 30
0.0
  0
VERTEX
  5
13D7
  8
SAPA_PROFIL
 62
     4
 10
-6.9999999999998712
 20
-53.459999999999638
 30
0.0
 42
-0.4225789089359373
  0
VERTEX
  5
13D8
  8
SAPA_PROFIL
 62
     4
 10
-5.9999999999998712
 20
-52.499999999999517
 30
0.0
  0
VERTEX
  5
13D9
  8
SAPA_PROFIL
 62
     4
 10
-2.9999999999998712
 20
-52.499999999999517
 30
0.0
  0
VERTEX
  5
13DA
  8
SAPA_PROFIL
 62
     4
 10
-2.1499999999999622
 20
-51.649999999999601
 30
0.0
  0
VERTEX
  5
13DB
  8
SAPA_PROFIL
 62
     4
 10
-2.1499999999999631
 20
-45.499999999999631
 30
0.0
 42
-0.4142135623730951
  0
VERTEX
  5
13DC
  8
SAPA_PROFIL
 62
     4
 10
-1.1499999999999631
 20
-44.499999999999623
 30
0.0
  0
VERTEX
  5
13DD
  8
SAPA_PROFIL
 62
     4
 10
1.149999999999991
 20
-44.499999999999623
 30
0.0
 42
-0.4142135623730951
  0
VERTEX
  5
13DE
  8
SAPA_PROFIL
 62
     4
 10
2.149999999999991
 20
-45.499999999999631
 30
0.0
  0
VERTEX
  5
13DF
  8
SAPA_PROFIL
 62
     4
 10
2.1499999999999919
 20
-51.649999999999487
 30
0.0
  0
VERTEX
  5
13E0
  8
SAPA_PROFIL
 62
     4
 10
3.0000000000000151
 20
-52.499999999999517
 30
0.0
  0
VERTEX
  5
13E1
  8
SAPA_PROFIL
 62
     4
 10
6.0000000000000151
 20
-52.499999999999517
 30
0.0
 42
-0.4225789089359373
  0
VERTEX
  5
13E2
  8
SAPA_PROFIL
 62
     4
 10
7.0000000000000293
 20
-53.459999999999638
 30
0.0
  0
VERTEX
  5
13E3
  8
SAPA_PROFIL
 62
     4
 10
7.0000000000000293
 20
-55.15999999999957
 30
0.0
 42
-0.4142135623730951
  0
VERTEX
  5
13E4
  8
SAPA_PROFIL
 62
     4
 10
6.6999999999999469
 20
-55.459999999999631
 30
0.0
  0
VERTEX
  5
13E5
  8
SAPA_PROFIL
 62
     4
 10
6.2500000000000151
 20
-55.459999999999631
 30
0.0
 42
-1.0
  0
VERTEX
  5
13E6
  8
SAPA_PROFIL
 62
     4
 10
6.2500000000000151
 20
-54.959999999999638
 30
0.0
  0
VERTEX
  5
13E7
  8
SAPA_PROFIL
 62
     4
 10
6.3000000000000833
 20
-54.959999999999638
 30
0.0
  0
VERTEX
  5
13E8
  8
SAPA_PROFIL
 62
     4
 10
6.3000000000000833
 20
-54.109999999999623
 30
0.0
 42
1.0
  0
VERTEX
  5
13E9
  8
SAPA_PROFIL
 62
     4
 10
5.0000000000000151
 20
-54.109999999999623
 30
0.0
  0
VERTEX
  5
13EA
  8
SAPA_PROFIL
 62
     4
 10
5.0000000000000018
 20
-67.05083214903587
 30
0.0
  0
VERTEX
  5
13EB
  8
SAPA_PROFIL
 62
     4
 10
5.0000000000000027
 20
-72.499999999999631
 30
0.0
  0
VERTEX
  5
13EC
  8
SAPA_PROFIL
 62
     4
 10
3.5000000000000169
 20
-72.499999999999631
 30
0.0
  0
VERTEX
  5
13ED
  8
SAPA_PROFIL
 62
     4
 10
0.353553390593237
 20
-69.35355339059285
 30
0.0
 42
0.4142135623730951
  0
VERTEX
  5
13EE
  8
SAPA_PROFIL
 62
     4
 10
-0.3535533905932025
 20
-69.35355339059285
 30
0.0
  0
VERTEX
  5
13EF
  8
SAPA_PROFIL
 62
     4
 10
-3.4999999999999818
 20
-72.499999999999631
 30
0.0
  0
VERTEX
  5
13F0
  8
SAPA_PROFIL
 62
     4
 10
-5.0000000000000098
 20
-72.499999999999631
 30
0.0
  0
VERTEX
  5
13F1
  8
SAPA_PROFIL
 62
     4
 10
-4.999999999999968
 20
-67.05083214903587
 30
0.0
  0
VERTEX
  5
13F2
  8
SAPA_PROFIL
 62
     4
 10
-4.9999999999998712
 20
-54.409999999999592
 30
0.0
  0
SEQEND
  5
13F3
  8
SAPA_PROFIL
 62
     4
  0
POLYLINE
  5
F32
  8
SAPA_PROFIL
 66
     1
 10
0.0
 20
0.0
 30
0.0
 70
     1
  0
VERTEX
  5
13F4
  8
SAPA_PROFIL
 10
-47.999999999999943
 20
113.2999999999994
 30
0.0
 42
0.4142135623730951
  0
VERTEX
  5
13F5
  8
SAPA_PROFIL
 10
-47.699999999999932
 20
112.9999999999995
 30
0.0
  0
VERTEX
  5
13F6
  8
SAPA_PROFIL
 10
-46.490000000000002
 20
112.9999999999995
 30
0.0
 42
0.4142135623730951
  0
VERTEX
  5
13F7
  8
SAPA_PROFIL
 10
-45.499999999999993
 20
113.9899999999995
 30
0.0
  0
VERTEX
  5
13F8
  8
SAPA_PROFIL
 10
-45.499999999999993
 20
114.19999999999951
 30
0.0
  0
VERTEX
  5
13F9
  8
SAPA_PROFIL
 10
-46.749999999999993
 20
114.19999999999951
 30
0.0
  0
VERTEX
  5
13FA
  8
SAPA_PROFIL
 10
-46.749999999999993
 20
115.4999999999995
 30
0.0
 42
-0.4142135623730951
  0
VERTEX
  5
13FB
  8
SAPA_PROFIL
 10
-46.25
 20
115.9999999999995
 30
0.0
  0
VERTEX
  5
13FC
  8
SAPA_PROFIL
 10
-38.25
 20
115.9999999999995
 30
0.0
 42
-0.4142135623730951
  0
VERTEX
  5
13FD
  8
SAPA_PROFIL
 10
-37.75
 20
115.4999999999995
 30
0.0
  0
VERTEX
  5
13FE
  8
SAPA_PROFIL
 10
-37.75
 20
114.19999999999951
 30
0.0
  0
VERTEX
  5
13FF
  8
SAPA_PROFIL
 10
-39.0
 20
114.19999999999951
 30
0.0
  0
VERTEX
  5
1400
  8
SAPA_PROFIL
 10
-39.0
 20
113.9899999999995
 30
0.0
 42
0.4142135623730867
  0
VERTEX
  5
1401
  8
SAPA_PROFIL
 10
-38.009999999999991
 20
112.9999999999995
 30
0.0
  0
VERTEX
  5
1402
  8
SAPA_PROFIL
 10
-37.490000000000009
 20
112.9999999999995
 30
0.0
 42
0.4142135623730951
  0
VERTEX
  5
1403
  8
SAPA_PROFIL
 10
-36.5
 20
113.9899999999995
 30
0.0
  0
VERTEX
  5
1404
  8
SAPA_PROFIL
 10
-36.5
 20
116.19999999999951
 30
0.0
 42
0.4142135623730951
  0
VERTEX
  5
1405
  8
SAPA_PROFIL
 10
-38.0
 20
117.69999999999951
 30
0.0
  0
VERTEX
  5
1406
  8
SAPA_PROFIL
 10
-46.0
 20
117.69999999999951
 30
0.0
 42
-0.4142135623730951
  0
VERTEX
  5
1407
  8
SAPA_PROFIL
 10
-46.5
 20
118.19999999999951
 30
0.0
  0
VERTEX
  5
1408
  8
SAPA_PROFIL
 10
-46.5
 20
122.4999999999995
 30
0.0
 42
-0.4142135623730951
  0
VERTEX
  5
1409
  8
SAPA_PROFIL
 10
-46.0
 20
122.9999999999995
 30
0.0
  0
VERTEX
  5
140A
  8
SAPA_PROFIL
 10
-33.258153378746158
 20
122.9999999999995
 30
0.0
 42
-0.493145426031308
  0
VERTEX
  5
140B
  8
SAPA_PROFIL
 10
-32.775190465601611
 20
122.3705904774481
 30
0.0
  0
VERTEX
  5
140C
  8
SAPA_PROFIL
 10
-33.241158122023478
 20
120.6315755089981
 30
0.0
 42
0.9999999999999452
  0
VERTEX
  5
140D
  8
SAPA_PROFIL
 10
-32.275232295734391
 20
120.3727564638955
 30
0.0
  0
VERTEX
  5
140E
  8
SAPA_PROFIL
 10
-31.914306240701929
 20
121.7197508390523
 30
0.0
 42
-0.6613727838043239
  0
VERTEX
  5
140F
  8
SAPA_PROFIL
 10
-29.98041090329264
 20
121.9766115300293
 30
0.0
  0
VERTEX
  5
1410
  8
SAPA_PROFIL
 10
-26.671264511915471
 20
116.2450018504808
 30
0.0
  0
VERTEX
  5
1411
  8
SAPA_PROFIL
 10
-26.671264511915471
 20
111.9569219381648
 30
0.0
  0
VERTEX
  5
1412
  8
SAPA_PROFIL
 10
-23.078483428499108
 20
107.7999999999995
 30
0.0
  0
VERTEX
  5
1413
  8
SAPA_PROFIL
 10
-23.078483428499059
 20
105.80000045491219
 30
0.0
 42
1.0
  0
VERTEX
  5
1414
  8
SAPA_PROFIL
 10
-22.078483428499108
 20
105.7999999999995
 30
0.0
  0
VERTEX
  5
1415
  8
SAPA_PROFIL
 10
-22.078483428499108
 20
107.9999999999995
 30
0.0
  0
VERTEX
  5
1416
  8
SAPA_PROFIL
 10
-25.171264511915471
 20
112.0745631489677
 30
0.0
  0
VERTEX
  5
1417
  8
SAPA_PROFIL
 10
-25.171264511915471
 20
116.6469256391275
 30
0.0
  0
VERTEX
  5
1418
  8
SAPA_PROFIL
 10
-25.372226406238841
 20
116.9950018504808
 30
0.0
  0
VERTEX
  5
1419
  8
SAPA_PROFIL
 10
-26.346953113330809
 20
118.2499999999995
 30
0.0
 42
-0.5773502691896074
  0
VERTEX
  5
141A
  8
SAPA_PROFIL
 10
-25.913940411438659
 20
118.9999999999995
 30
0.0
  0
VERTEX
  5
141B
  8
SAPA_PROFIL
 10
-25.729298545870449
 20
118.9999999999995
 30
0.0
  0
VERTEX
  5
141C
  8
SAPA_PROFIL
 10
-25.729298545870449
 20
120.4999999999995
 30
0.0
  0
VERTEX
  5
141D
  8
SAPA_PROFIL
 10
-27.107162896777769
 20
120.4999999999995
 30
0.0
 42
-0.2679491924311161
  0
VERTEX
  5
141E
  8
SAPA_PROFIL
 10
-27.540175598669919
 20
120.7499999999995
 30
0.0
  0
VERTEX
  5
141F
  8
SAPA_PROFIL
 10
-28.406201002454338
 20
122.2499999999995
 30
0.0
 42
-0.3494280882832233
  0
VERTEX
  5
1420
  8
SAPA_PROFIL
 10
-27.18759432515748
 20
122.9999999999995
 30
0.0
  0
VERTEX
  5
1421
  8
SAPA_PROFIL
 10
-26.928429243660108
 20
122.9999999999995
 30
0.0
  0
VERTEX
  5
1422
  8
SAPA_PROFIL
 10
-26.928429243660108
 20
123.21031506146581
 30
0.0
  0
VERTEX
  5
1423
  8
SAPA_PROFIL
 10
-26.928429243660108
 20
124.4999999999995
 30
0.0
  0
VERTEX
  5
1424
  8
SAPA_PROFIL
 10
-47.699999999999932
 20
124.4999999999995
 30
0.0
 42
0.4142135623730951
  0
VERTEX
  5
1425
  8
SAPA_PROFIL
 10
-47.999999999999943
 20
124.19999999999941
 30
0.0
  0
SEQEND
  5
1426
  8
SAPA_PROFIL
  0
POLYLINE
  5
F33
  8
SAPA_PROFIL
 66
     1
 10
0.0
 20
0.0
 30
0.0
 70
     1
  0
VERTEX
  5
1427
  8
SAPA_PROFIL
 10
24.700000000000049
 20
107.2999999999994
 30
0.0
  0
VERTEX
  5
1428
  8
SAPA_PROFIL
 10
24.700000000000049
 20
114.77499999999959
 30
0.0
 42
0.4142135623730951
  0
VERTEX
  5
1429
  8
SAPA_PROFIL
 10
24.200000000000049
 20
115.27499999999949
 30
0.0
  0
VERTEX
  5
142A
  8
SAPA_PROFIL
 10
22.50000000000011
 20
115.27499999999939
 30
0.0
 42
-0.4142135623730951
  0
VERTEX
  5
142B
  8
SAPA_PROFIL
 10
17.900000000000091
 20
119.8749999999995
 30
0.0
  0
VERTEX
  5
142C
  8
SAPA_PROFIL
 10
17.900000000000091
 20
121.69999999999951
 30
0.0
 42
0.4142135623730951
  0
VERTEX
  5
142D
  8
SAPA_PROFIL
 10
16.900000000000091
 20
122.69999999999951
 30
0.0
  0
VERTEX
  5
142E
  8
SAPA_PROFIL
 10
-17.50000000000011
 20
122.69999999999941
 30
0.0
 42
0.4142135623730951
  0
VERTEX
  5
142F
  8
SAPA_PROFIL
 10
-18.50000000000011
 20
121.69999999999941
 30
0.0
  0
VERTEX
  5
1430
  8
SAPA_PROFIL
 10
-18.50000000000011
 20
101.5999999999994
 30
0.0
 42
-0.4142135623730951
  0
VERTEX
  5
1431
  8
SAPA_PROFIL
 10
-19.00000000000011
 20
101.0999999999994
 30
0.0
  0
VERTEX
  5
1432
  8
SAPA_PROFIL
 10
-19.700000000000038
 20
101.0999999999994
 30
0.0
 42
-0.4150844288340716
  0
VERTEX
  5
1433
  8
SAPA_PROFIL
 10
-20.199997791198829
 20
101.6014862019794
 30
0.0
 42
0.3121484461588222
  0
VERTEX
  5
1434
  8
SAPA_PROFIL
 10
-20.522216822930432
 20
102.07029960483931
 30
0.0
 42
0.482358125222547
  0
VERTEX
  5
1435
  8
SAPA_PROFIL
 10
-24.22439504323609
 20
99.874395043235893
 30
0.0
  0
VERTEX
  5
1436
  8
SAPA_PROFIL
 10
-23.849999999999572
 20
99.499999999999488
 30
0.0
  0
VERTEX
  5
1437
  8
SAPA_PROFIL
 10
-24.22439504323609
 20
99.12560495676297
 30
0.0
 42
0.4823574778722663
  0
VERTEX
  5
1438
  8
SAPA_PROFIL
 10
-20.52222222222235
 20
96.929698341188157
 30
0.0
 42
0.311333703729445
  0
VERTEX
  5
1439
  8
SAPA_PROFIL
 10
-20.200000000000038
 20
97.397025915517418
 30
0.0
  0
VERTEX
  5
143A
  8
SAPA_PROFIL
 10
-20.200000000000038
 20
97.399999999999466
 30
0.0
 42
-0.4142135623730951
  0
VERTEX
  5
143B
  8
SAPA_PROFIL
 10
-19.700000000000038
 20
97.899999999999466
 30
0.0
  0
VERTEX
  5
143C
  8
SAPA_PROFIL
 10
-19.00000000000011
 20
97.899999999999466
 30
0.0
 42
-0.4142135623731117
  0
VERTEX
  5
143D
  8
SAPA_PROFIL
 10
-18.5
 20
97.399999999999466
 30
0.0
  0
VERTEX
  5
143E
  8
SAPA_PROFIL
 10
-18.5
 20
77.2999999999995
 30
0.0
 42
0.4142135623730951
  0
VERTEX
  5
143F
  8
SAPA_PROFIL
 10
-17.5
 20
76.2999999999995
 30
0.0
  0
VERTEX
  5
1440
  8
SAPA_PROFIL
 10
16.89999999999997
 20
76.2999999999995
 30
0.0
 42
0.4142135623730951
  0
VERTEX
  5
1441
  8
SAPA_PROFIL
 10
17.899999999999981
 20
77.2999999999995
 30
0.0
  0
VERTEX
  5
1442
  8
SAPA_PROFIL
 10
17.899999999999981
 20
79.124999999999488
 30
0.0
 42
-0.4142135623730914
  0
VERTEX
  5
1443
  8
SAPA_PROFIL
 10
22.5
 20
83.724999999999454
 30
0.0
  0
VERTEX
  5
1444
  8
SAPA_PROFIL
 10
24.199999999999928
 20
83.724999999999397
 30
0.0
 42
0.4142135623730951
  0
VERTEX
  5
1445
  8
SAPA_PROFIL
 10
24.699999999999928
 20
84.224999999999397
 30
0.0
  0
VERTEX
  5
1446
  8
SAPA_PROFIL
 10
24.700000000000049
 20
91.699999999999477
 30
0.0
 42
0.4142135623730951
  0
VERTEX
  5
1447
  8
SAPA_PROFIL
 10
24.399999999999981
 20
91.999999999999375
 30
0.0
  0
VERTEX
  5
1448
  8
SAPA_PROFIL
 10
24.299999999999962
 20
91.999999999999488
 30
0.0
 42
-0.4142135623730951
  0
VERTEX
  5
1449
  8
SAPA_PROFIL
 10
24.0
 20
92.299999999999443
 30
0.0
  0
VERTEX
  5
144A
  8
SAPA_PROFIL
 10
24.0
 20
106.69999999999941
 30
0.0
 42
-0.4142135623730951
  0
VERTEX
  5
144B
  8
SAPA_PROFIL
 10
24.299999999999962
 20
106.9999999999994
 30
0.0
  0
VERTEX
  5
144C
  8
SAPA_PROFIL
 10
24.399999999999981
 20
106.9999999999995
 30
0.0
 42
0.4142135623730951
  0
SEQEND
  5
144D
  8
SAPA_PROFIL
  0
POLYLINE
  5
F34
  8
SAPA_PROFIL
 66
     1
 10
0.0
 20
0.0
 30
0.0
 70
     1
  0
VERTEX
  5
144E
  8
SAPA_PROFIL
 10
-24.99999999999989
 20
120.4999999999995
 30
0.0
  0
VERTEX
  5
144F
  8
SAPA_PROFIL
 10
-23.99999999999989
 20
120.4999999999995
 30
0.0
  0
VERTEX
  5
1450
  8
SAPA_PROFIL
 10
-23.99999999999989
 20
122.69999999999951
 30
0.0
  0
VERTEX
  5
1451
  8
SAPA_PROFIL
 10
-20.999999999999879
 20
122.69999999999951
 30
0.0
  0
VERTEX
  5
1452
  8
SAPA_PROFIL
 10
-21.0
 20
103.9999999999995
 30
0.0
  0
VERTEX
  5
1453
  8
SAPA_PROFIL
 10
-24.0
 20
103.9999999999995
 30
0.0
  0
VERTEX
  5
1454
  8
SAPA_PROFIL
 10
-24.0
 20
106.4999999999995
 30
0.0
  0
VERTEX
  5
1455
  8
SAPA_PROFIL
 10
-25.0
 20
106.4999999999995
 30
0.0
  0
VERTEX
  5
1456
  8
SAPA_PROFIL
 10
-25.799999999999962
 20
105.69999999999941
 30
0.0
  0
VERTEX
  5
1457
  8
SAPA_PROFIL
 10
-25.799999999999962
 20
100.01961524227011
 30
0.0
  0
VERTEX
  5
1458
  8
SAPA_PROFIL
 10
-25.5
 20
99.499999999999488
 30
0.0
  0
VERTEX
  5
1459
  8
SAPA_PROFIL
 10
-25.799999999999962
 20
98.980384757728814
 30
0.0
  0
VERTEX
  5
145A
  8
SAPA_PROFIL
 10
-25.799999999999962
 20
93.299999999999443
 30
0.0
  0
VERTEX
  5
145B
  8
SAPA_PROFIL
 10
-25.0
 20
92.499999999999474
 30
0.0
  0
VERTEX
  5
145C
  8
SAPA_PROFIL
 10
-24.0
 20
92.499999999999474
 30
0.0
  0
VERTEX
  5
145D
  8
SAPA_PROFIL
 10
-24.0
 20
94.999999999999474
 30
0.0
  0
VERTEX
  5
145E
  8
SAPA_PROFIL
 10
-21.0
 20
94.999999999999474
 30
0.0
  0
VERTEX
  5
145F
  8
SAPA_PROFIL
 10
-21.0
 20
76.2999999999995
 30
0.0
  0
VERTEX
  5
1460
  8
SAPA_PROFIL
 10
-24.0
 20
76.2999999999995
 30
0.0
  0
VERTEX
  5
1461
  8
SAPA_PROFIL
 10
-24.0
 20
78.499999999999488
 30
0.0
  0
VERTEX
  5
1462
  8
SAPA_PROFIL
 10
-25.0
 20
78.499999999999488
 30
0.0
  0
VERTEX
  5
1463
  8
SAPA_PROFIL
 10
-26.0
 20
77.499999999999488
 30
0.0
  0
VERTEX
  5
1464
  8
SAPA_PROFIL
 10
-26.0
 20
76.2999999999995
 30
0.0
  0
VERTEX
  5
1465
  8
SAPA_PROFIL
 10
-36.0
 20
76.299999999999557
 30
0.0
 42
-0.4142135623730951
  0
VERTEX
  5
1466
  8
SAPA_PROFIL
 10
-36.5
 20
76.799999999999557
 30
0.0
  0
VERTEX
  5
1467
  8
SAPA_PROFIL
 10
-36.5
 20
78.009999999999536
 30
0.0
 42
0.4142135623730951
  0
VERTEX
  5
1468
  8
SAPA_PROFIL
 10
-37.490000000000009
 20
78.999999999999474
 30
0.0
  0
VERTEX
  5
1469
  8
SAPA_PROFIL
 10
-38.009999999999991
 20
78.999999999999545
 30
0.0
 42
0.4142135623730951
  0
VERTEX
  5
146A
  8
SAPA_PROFIL
 10
-39.0
 20
78.009999999999536
 30
0.0
  0
VERTEX
  5
146B
  8
SAPA_PROFIL
 10
-39.0
 20
77.999999999999545
 30
0.0
  0
VERTEX
  5
146C
  8
SAPA_PROFIL
 10
-37.75
 20
77.999999999999545
 30
0.0
  0
VERTEX
  5
146D
  8
SAPA_PROFIL
 10
-37.75
 20
76.499999999999545
 30
0.0
 42
-0.4142135623730951
  0
VERTEX
  5
146E
  8
SAPA_PROFIL
 10
-38.25
 20
75.999999999999545
 30
0.0
  0
VERTEX
  5
146F
  8
SAPA_PROFIL
 10
-46.25
 20
75.999999999999545
 30
0.0
 42
-0.4142135623730951
  0
VERTEX
  5
1470
  8
SAPA_PROFIL
 10
-46.749999999999993
 20
76.499999999999545
 30
0.0
  0
VERTEX
  5
1471
  8
SAPA_PROFIL
 10
-46.749999999999993
 20
77.999999999999545
 30
0.0
  0
VERTEX
  5
1472
  8
SAPA_PROFIL
 10
-45.499999999999993
 20
77.999999999999545
 30
0.0
  0
VERTEX
  5
1473
  8
SAPA_PROFIL
 10
-45.499999999999993
 20
78.009999999999536
 30
0.0
 42
0.4142135623730951
  0
VERTEX
  5
1474
  8
SAPA_PROFIL
 10
-46.490000000000002
 20
78.999999999999474
 30
0.0
  0
VERTEX
  5
1475
  8
SAPA_PROFIL
 10
-47.699999999999932
 20
78.999999999999545
 30
0.0
 42
0.4142135623731229
  0
VERTEX
  5
1476
  8
SAPA_PROFIL
 10
-48.0
 20
78.699999999999534
 30
0.0
  0
VERTEX
  5
1477
  8
SAPA_PROFIL
 10
-48.0
 20
74.799999999999557
 30
0.0
 42
0.4142135623730675
  0
VERTEX
  5
1478
  8
SAPA_PROFIL
 10
-47.699999999999932
 20
74.499999999999545
 30
0.0
  0
VERTEX
  5
1479
  8
SAPA_PROFIL
 10
29.700000000000049
 20
74.499999999999488
 30
0.0
 42
0.4142135623731227
  0
VERTEX
  5
147A
  8
SAPA_PROFIL
 10
30.0
 20
74.7999999999995
 30
0.0
  0
VERTEX
  5
147B
  8
SAPA_PROFIL
 10
30.0
 20
76.2999999999995
 30
0.0
 42
0.4142135623730951
  0
VERTEX
  5
147C
  8
SAPA_PROFIL
 10
28.5
 20
77.7999999999995
 30
0.0
  0
VERTEX
  5
147D
  8
SAPA_PROFIL
 10
28.0
 20
77.7999999999995
 30
0.0
  0
VERTEX
  5
147E
  8
SAPA_PROFIL
 10
28.0
 20
76.524999999999466
 30
0.0
  0
VERTEX
  5
147F
  8
SAPA_PROFIL
 10
26.899999999999981
 20
76.524999999999466
 30
0.0
  0
VERTEX
  5
1480
  8
SAPA_PROFIL
 10
26.899999999999981
 20
77.499999999999488
 30
0.0
 42
0.4142135623731227
  0
VERTEX
  5
1481
  8
SAPA_PROFIL
 10
26.600000000000019
 20
77.799999999999443
 30
0.0
  0
VERTEX
  5
1482
  8
SAPA_PROFIL
 10
25.600000000000019
 20
77.799999999999443
 30
0.0
  0
VERTEX
  5
1483
  8
SAPA_PROFIL
 10
25.600000000000019
 20
76.524999999999466
 30
0.0
  0
VERTEX
  5
1484
  8
SAPA_PROFIL
 10
22.5
 20
76.524999999999466
 30
0.0
 42
-1.0
  0
VERTEX
  5
1485
  8
SAPA_PROFIL
 10
22.5
 20
81.724999999999454
 30
0.0
  0
VERTEX
  5
1486
  8
SAPA_PROFIL
 10
25.599999999999909
 20
81.724999999999511
 30
0.0
  0
VERTEX
  5
1487
  8
SAPA_PROFIL
 10
25.599999999999909
 20
80.499999999999432
 30
0.0
  0
VERTEX
  5
1488
  8
SAPA_PROFIL
 10
26.600000000000019
 20
80.499999999999432
 30
0.0
 42
0.4142135623730673
  0
VERTEX
  5
1489
  8
SAPA_PROFIL
 10
26.899999999999981
 20
80.799999999999443
 30
0.0
  0
VERTEX
  5
148A
  8
SAPA_PROFIL
 10
26.899999999999981
 20
81.724999999999511
 30
0.0
  0
VERTEX
  5
148B
  8
SAPA_PROFIL
 10
28.0
 20
81.724999999999511
 30
0.0
  0
VERTEX
  5
148C
  8
SAPA_PROFIL
 10
28.0
 20
80.499999999999488
 30
0.0
  0
VERTEX
  5
148D
  8
SAPA_PROFIL
 10
28.5
 20
80.499999999999488
 30
0.0
 42
0.4142135623730951
  0
VERTEX
  5
148E
  8
SAPA_PROFIL
 10
30.0
 20
81.999999999999488
 30
0.0
  0
VERTEX
  5
148F
  8
SAPA_PROFIL
 10
30.0
 20
83.449999999999477
 30
0.0
 42
0.4142135623731227
  0
VERTEX
  5
1490
  8
SAPA_PROFIL
 10
29.700000000000049
 20
83.749999999999474
 30
0.0
  0
VERTEX
  5
1491
  8
SAPA_PROFIL
 10
27.200000000000049
 20
83.749999999999474
 30
0.0
  0
VERTEX
  5
1492
  8
SAPA_PROFIL
 10
27.200000000000049
 20
98.980384757728814
 30
0.0
  0
VERTEX
  5
1493
  8
SAPA_PROFIL
 10
26.900000000000091
 20
99.499999999999488
 30
0.0
  0
VERTEX
  5
1494
  8
SAPA_PROFIL
 10
27.200000000000049
 20
100.01961524227001
 30
0.0
  0
VERTEX
  5
1495
  8
SAPA_PROFIL
 10
27.200000000000049
 20
115.2499999999995
 30
0.0
  0
VERTEX
  5
1496
  8
SAPA_PROFIL
 10
29.700000000000049
 20
115.2499999999995
 30
0.0
 42
0.4142135623730951
  0
VERTEX
  5
1497
  8
SAPA_PROFIL
 10
30.00000000000011
 20
115.5499999999995
 30
0.0
  0
VERTEX
  5
1498
  8
SAPA_PROFIL
 10
30.00000000000011
 20
116.9999999999995
 30
0.0
 42
0.4142135623730951
  0
VERTEX
  5
1499
  8
SAPA_PROFIL
 10
28.500000000000121
 20
118.4999999999995
 30
0.0
  0
VERTEX
  5
149A
  8
SAPA_PROFIL
 10
28.00000000000011
 20
118.4999999999995
 30
0.0
  0
VERTEX
  5
149B
  8
SAPA_PROFIL
 10
28.00000000000011
 20
117.27499999999939
 30
0.0
  0
VERTEX
  5
149C
  8
SAPA_PROFIL
 10
26.900000000000091
 20
117.27499999999939
 30
0.0
  0
VERTEX
  5
149D
  8
SAPA_PROFIL
 10
26.900000000000091
 20
118.19999999999951
 30
0.0
 42
0.4142135623730951
  0
VERTEX
  5
149E
  8
SAPA_PROFIL
 10
26.60000000000014
 20
118.4999999999995
 30
0.0
  0
VERTEX
  5
149F
  8
SAPA_PROFIL
 10
25.600000000000019
 20
118.4999999999995
 30
0.0
  0
VERTEX
  5
14A0
  8
SAPA_PROFIL
 10
25.600000000000019
 20
117.27499999999939
 30
0.0
  0
VERTEX
  5
14A1
  8
SAPA_PROFIL
 10
22.50000000000011
 20
117.27499999999939
 30
0.0
 42
-1.0
  0
VERTEX
  5
14A2
  8
SAPA_PROFIL
 10
22.50000000000011
 20
122.4749999999995
 30
0.0
  0
VERTEX
  5
14A3
  8
SAPA_PROFIL
 10
25.600000000000019
 20
122.4749999999995
 30
0.0
  0
VERTEX
  5
14A4
  8
SAPA_PROFIL
 10
25.600000000000019
 20
121.19999999999951
 30
0.0
  0
VERTEX
  5
14A5
  8
SAPA_PROFIL
 10
26.600000000000019
 20
121.19999999999951
 30
0.0
 42
0.4142135623730951
  0
VERTEX
  5
14A6
  8
SAPA_PROFIL
 10
26.900000000000091
 20
121.4999999999995
 30
0.0
  0
VERTEX
  5
14A7
  8
SAPA_PROFIL
 10
26.900000000000091
 20
122.4749999999995
 30
0.0
  0
VERTEX
  5
14A8
  8
SAPA_PROFIL
 10
28.00000000000011
 20
122.4749999999995
 30
0.0
  0
VERTEX
  5
14A9
  8
SAPA_PROFIL
 10
28.00000000000011
 20
121.19999999999951
 30
0.0
  0
VERTEX
  5
14AA
  8
SAPA_PROFIL
 10
28.500000000000121
 20
121.19999999999951
 30
0.0
 42
0.4142135623730951
  0
VERTEX
  5
14AB
  8
SAPA_PROFIL
 10
30.00000000000011
 20
122.69999999999951
 30
0.0
  0
VERTEX
  5
14AC
  8
SAPA_PROFIL
 10
30.00000000000011
 20
124.19999999999951
 30
0.0
 42
0.4142135623730951
  0
VERTEX
  5
14AD
  8
SAPA_PROFIL
 10
29.700000000000049
 20
124.4999999999995
 30
0.0
  0
VERTEX
  5
14AE
  8
SAPA_PROFIL
 10
-25.99999999999989
 20
124.4999999999995
 30
0.0
  0
VERTEX
  5
14AF
  8
SAPA_PROFIL
 10
-25.99999999999989
 20
121.4999999999995
 30
0.0
  0
SEQEND
  5
14B0
  8
SAPA_PROFIL
  0
POLYLINE
  5
F35
  8
SAPA_PROFIL
  6
CONTINUOUS
 66
     1
 10
0.0
 20
0.0
 30
0.0
 70
     1
  0
VERTEX
  5
14B1
  8
SAPA_PROFIL
  6
CONTINUOUS
 10
39.000000000000021
 20
94.783418861303403
 30
0.0
  0
VERTEX
  5
14B2
  8
SAPA_PROFIL
  6
CONTINUOUS
 10
39.000000000000021
 20
98.975128484437903
 30
0.0
  0
VERTEX
  5
14B3
  8
SAPA_PROFIL
  6
CONTINUOUS
 10
39.300000000000018
 20
99.494743726708634
 30
0.0
  0
VERTEX
  5
14B4
  8
SAPA_PROFIL
  6
CONTINUOUS
 10
39.000000000000021
 20
100.01435896897929
 30
0.0
  0
VERTEX
  5
14B5
  8
SAPA_PROFIL
  6
CONTINUOUS
 10
39.000000000000021
 20
104.20606859211379
 30
0.0
  0
VERTEX
  5
14B6
  8
SAPA_PROFIL
  6
CONTINUOUS
 10
39.500000000000021
 20
104.49474372670861
 30
0.0
  0
VERTEX
  5
14B7
  8
SAPA_PROFIL
  6
CONTINUOUS
 10
39.500000000000028
 20
122.4999999999994
 30
0.0
 42
0.4142135623730939
  0
VERTEX
  5
14B8
  8
SAPA_PROFIL
  6
CONTINUOUS
 10
39.000000000000043
 20
122.9999999999995
 30
0.0
  0
VERTEX
  5
14B9
  8
SAPA_PROFIL
  6
CONTINUOUS
 10
32.20000000000001
 20
122.9999999999995
 30
0.0
 42
0.4142135623730868
  0
VERTEX
  5
14BA
  8
SAPA_PROFIL
  6
CONTINUOUS
 10
31.699999999999999
 20
122.4999999999995
 30
0.0
  0
VERTEX
  5
14BB
  8
SAPA_PROFIL
  6
CONTINUOUS
 10
31.699999999999989
 20
121.207106781186
 30
0.0
 42
-0.1989123673796266
  0
VERTEX
  5
14BC
  8
SAPA_PROFIL
  6
CONTINUOUS
 10
31.55355339059329
 20
120.85355339059279
 30
0.0
  0
VERTEX
  5
14BD
  8
SAPA_PROFIL
  6
CONTINUOUS
 10
30.146446609406699
 20
119.44644660940619
 30
0.0
 42
-0.1989123673796465
  0
VERTEX
  5
14BE
  8
SAPA_PROFIL
  6
CONTINUOUS
 10
29.792893218813418
 20
119.2999999999995
 30
0.0
  0
VERTEX
  5
14BF
  8
SAPA_PROFIL
  6
CONTINUOUS
 10
25.299999999999969
 20
119.2999999999995
 30
0.0
  0
VERTEX
  5
14C0
  8
SAPA_PROFIL
  6
CONTINUOUS
 10
25.29999999999999
 20
119.5731321849705
 30
0.0
 42
-0.1989123673796536
  0
VERTEX
  5
14C1
  8
SAPA_PROFIL
  6
CONTINUOUS
 10
25.446446609406731
 20
119.9266855755637
 30
0.0
  0
VERTEX
  5
14C2
  8
SAPA_PROFIL
  6
CONTINUOUS
 10
26.86025348681331
 20
121.3404924529703
 30
0.0
 42
-0.5801121982773917
  0
VERTEX
  5
14C3
  8
SAPA_PROFIL
  6
CONTINUOUS
 10
27.77252351568584
 20
121.09199997677899
 30
0.0
  0
VERTEX
  5
14C4
  8
SAPA_PROFIL
  6
CONTINUOUS
 10
27.899999999999999
 20
120.5999999999995
 30
0.0
  0
VERTEX
  5
14C5
  8
SAPA_PROFIL
  6
CONTINUOUS
 10
29.29583694396571
 20
120.5999999999995
 30
0.0
 42
0.1989123673796401
  0
VERTEX
  5
14C6
  8
SAPA_PROFIL
  6
CONTINUOUS
 10
29.64939033455898
 20
120.74644660940621
 30
0.0
  0
VERTEX
  5
14C7
  8
SAPA_PROFIL
  6
CONTINUOUS
 10
30.353553390593259
 20
121.4506096654405
 30
0.0
 42
0.198912367379664
  0
VERTEX
  5
14C8
  8
SAPA_PROFIL
  6
CONTINUOUS
 10
30.500000000000011
 20
121.8041630560337
 30
0.0
  0
VERTEX
  5
14C9
  8
SAPA_PROFIL
  6
CONTINUOUS
 10
30.5
 20
122.4999999999995
 30
0.0
 42
0.4142135623731033
  0
VERTEX
  5
14CA
  8
SAPA_PROFIL
  6
CONTINUOUS
 10
30.0
 20
122.9999999999995
 30
0.0
  0
VERTEX
  5
14CB
  8
SAPA_PROFIL
  6
CONTINUOUS
 10
30.000000000000021
 20
124.19999999999951
 30
0.0
 42
-0.414213562373081
  0
VERTEX
  5
14CC
  8
SAPA_PROFIL
  6
CONTINUOUS
 10
30.300000000000001
 20
124.4999999999995
 30
0.0
  0
VERTEX
  5
14CD
  8
SAPA_PROFIL
  6
CONTINUOUS
 10
40.000000000000007
 20
124.4999999999995
 30
0.0
 42
-0.4142135623730951
  0
VERTEX
  5
14CE
  8
SAPA_PROFIL
  6
CONTINUOUS
 10
41.000000000000007
 20
123.4999999999995
 30
0.0
  0
VERTEX
  5
14CF
  8
SAPA_PROFIL
  6
CONTINUOUS
 10
41.000000000000028
 20
75.499999999999517
 30
0.0
 42
-0.4142135623730951
  0
VERTEX
  5
14D0
  8
SAPA_PROFIL
  6
CONTINUOUS
 10
40.000000000000021
 20
74.499999999999517
 30
0.0
  0
VERTEX
  5
14D1
  8
SAPA_PROFIL
  6
CONTINUOUS
 10
30.300000000000011
 20
74.499999999999517
 30
0.0
 42
-0.4142135623730809
  0
VERTEX
  5
14D2
  8
SAPA_PROFIL
  6
CONTINUOUS
 10
30.000000000000021
 20
74.7999999999995
 30
0.0
  0
VERTEX
  5
14D3
  8
SAPA_PROFIL
  6
CONTINUOUS
 10
30.000000000000011
 20
75.999999999999474
 30
0.0
 42
0.4142135623731026
  0
VERTEX
  5
14D4
  8
SAPA_PROFIL
  6
CONTINUOUS
 10
30.500000000000011
 20
76.499999999999474
 30
0.0
  0
VERTEX
  5
14D5
  8
SAPA_PROFIL
  6
CONTINUOUS
 10
30.500000000000021
 20
77.195836943965247
 30
0.0
 42
0.1989123673796647
  0
VERTEX
  5
14D6
  8
SAPA_PROFIL
  6
CONTINUOUS
 10
30.35355339059327
 20
77.549390334558524
 30
0.0
  0
VERTEX
  5
14D7
  8
SAPA_PROFIL
  6
CONTINUOUS
 10
29.649390334558991
 20
78.253553390592799
 30
0.0
 42
0.1989123673796395
  0
VERTEX
  5
14D8
  8
SAPA_PROFIL
  6
CONTINUOUS
 10
29.295836943965721
 20
78.399999999999494
 30
0.0
  0
VERTEX
  5
14D9
  8
SAPA_PROFIL
  6
CONTINUOUS
 10
27.900000000000009
 20
78.399999999999494
 30
0.0
  0
VERTEX
  5
14DA
  8
SAPA_PROFIL
  6
CONTINUOUS
 10
27.772523515685851
 20
77.908000023220012
 30
0.0
 42
-0.5801121982773929
  0
VERTEX
  5
14DB
  8
SAPA_PROFIL
  6
CONTINUOUS
 10
26.86025348681332
 20
77.659507547028653
 30
0.0
  0
VERTEX
  5
14DC
  8
SAPA_PROFIL
  6
CONTINUOUS
 10
25.446446609406731
 20
79.073314424435239
 30
0.0
 42
-0.198912367379654
  0
VERTEX
  5
14DD
  8
SAPA_PROFIL
  6
CONTINUOUS
 10
25.300000000000001
 20
79.426867815028459
 30
0.0
  0
VERTEX
  5
14DE
  8
SAPA_PROFIL
  6
CONTINUOUS
 10
25.299999999999979
 20
79.699999999999477
 30
0.0
  0
VERTEX
  5
14DF
  8
SAPA_PROFIL
  6
CONTINUOUS
 10
29.792893218813429
 20
79.699999999999491
 30
0.0
 42
-0.198912367379647
  0
VERTEX
  5
14E0
  8
SAPA_PROFIL
  6
CONTINUOUS
 10
30.146446609406699
 20
79.553553390592725
 30
0.0
  0
VERTEX
  5
14E1
  8
SAPA_PROFIL
  6
CONTINUOUS
 10
31.553553390593301
 20
78.146446609406169
 30
0.0
 42
-0.1989123673796274
  0
VERTEX
  5
14E2
  8
SAPA_PROFIL
  6
CONTINUOUS
 10
31.699999999999999
 20
77.792893218812964
 30
0.0
  0
VERTEX
  5
14E3
  8
SAPA_PROFIL
  6
CONTINUOUS
 10
31.70000000000001
 20
76.499999999999474
 30
0.0
 42
0.4142135623730875
  0
VERTEX
  5
14E4
  8
SAPA_PROFIL
  6
CONTINUOUS
 10
32.200000000000017
 20
75.999999999999503
 30
0.0
  0
VERTEX
  5
14E5
  8
SAPA_PROFIL
  6
CONTINUOUS
 10
39.000000000000028
 20
75.999999999999531
 30
0.0
 42
0.4142135623730935
  0
VERTEX
  5
14E6
  8
SAPA_PROFIL
  6
CONTINUOUS
 10
39.500000000000028
 20
76.499999999999531
 30
0.0
  0
VERTEX
  5
14E7
  8
SAPA_PROFIL
  6
CONTINUOUS
 10
39.500000000000021
 20
94.494743726708634
 30
0.0
  0
SEQEND
  5
14E8
  8
SAPA_PROFIL
  6
CONTINUOUS
  0
POLYLINE
  5
F36
  8
SAPA_PROFIL
 66
     1
 10
0.0
 20
0.0
 30
0.0
 70
     1
  0
VERTEX
  5
14E9
  8
SAPA_PROFIL
 10
10.34131210472424
 20
68.494881179557453
 30
0.0
  0
VERTEX
  5
14EA
  8
SAPA_PROFIL
 10
9.3413121047242385
 20
67.494881179557453
 30
0.0
  0
VERTEX
  5
14EB
  8
SAPA_PROFIL
 10
-1.6586878952757611
 20
67.494881179557453
 30
0.0
  0
VERTEX
  5
14EC
  8
SAPA_PROFIL
 10
-2.6586878952757611
 20
68.494881179557453
 30
0.0
  0
VERTEX
  5
14ED
  8
SAPA_PROFIL
 10
-5.158687153203914
 20
68.494881179557453
 30
0.0
 42
1.0000014841447959
  0
VERTEX
  5
14EE
  8
SAPA_PROFIL
 10
-5.158687153203914
 20
67.494881179558021
 30
0.0
  0
VERTEX
  5
14EF
  8
SAPA_PROFIL
 10
-3.9086878952757611
 20
67.494881179557453
 30
0.0
  0
VERTEX
  5
14F0
  8
SAPA_PROFIL
 10
-3.9086878952757611
 20
66.39488117955743
 30
0.0
  0
VERTEX
  5
14F1
  8
SAPA_PROFIL
 10
-11.40868789527576
 20
66.39488117955743
 30
0.0
  0
VERTEX
  5
14F2
  8
SAPA_PROFIL
 10
-11.40868789527576
 20
67.494881179557453
 30
0.0
  0
VERTEX
  5
14F3
  8
SAPA_PROFIL
 10
-10.15868599247278
 20
67.494881179557453
 30
0.0
 42
0.9999967549392536
  0
VERTEX
  5
14F4
  8
SAPA_PROFIL
 10
-10.15868655301278
 20
68.494881179555634
 30
0.0
  0
VERTEX
  5
14F5
  8
SAPA_PROFIL
 10
-12.194586280138081
 20
68.494881179557453
 30
0.0
  0
VERTEX
  5
14F6
  8
SAPA_PROFIL
 10
-14.15868789527576
 20
67.360906583341873
 30
0.0
 42
0.577350269189629
  0
VERTEX
  5
14F7
  8
SAPA_PROFIL
 10
-14.15868789527576
 20
65.628855775772976
 30
0.0
  0
VERTEX
  5
14F8
  8
SAPA_PROFIL
 10
-12.42663708770703
 20
64.628855775773033
 30
0.0
 42
0.4142135623730394
  0
VERTEX
  5
14F9
  8
SAPA_PROFIL
 10
-11.060611683922611
 20
64.994881179557282
 30
0.0
  0
VERTEX
  5
14FA
  8
SAPA_PROFIL
 10
18.743235893371089
 20
64.994881179557282
 30
0.0
 42
0.4142135623730394
  0
VERTEX
  5
14FB
  8
SAPA_PROFIL
 10
20.109261297155399
 20
64.628855775773033
 30
0.0
  0
VERTEX
  5
14FC
  8
SAPA_PROFIL
 10
21.841312104724238
 20
65.628855775772976
 30
0.0
 42
0.5773502691896291
  0
VERTEX
  5
14FD
  8
SAPA_PROFIL
 10
21.841312104724238
 20
67.360906583341873
 30
0.0
  0
VERTEX
  5
14FE
  8
SAPA_PROFIL
 10
19.877210489586439
 20
68.494881179557453
 30
0.0
  0
VERTEX
  5
14FF
  8
SAPA_PROFIL
 10
17.841310762461202
 20
68.494881179555634
 30
0.0
 42
0.9999967549392536
  0
VERTEX
  5
1500
  8
SAPA_PROFIL
 10
17.8413102019212
 20
67.494881179557453
 30
0.0
  0
VERTEX
  5
1501
  8
SAPA_PROFIL
 10
19.091312104724238
 20
67.494881179557453
 30
0.0
  0
VERTEX
  5
1502
  8
SAPA_PROFIL
 10
19.091312104724238
 20
66.39488117955743
 30
0.0
  0
VERTEX
  5
1503
  8
SAPA_PROFIL
 10
11.59131210472424
 20
66.39488117955743
 30
0.0
  0
VERTEX
  5
1504
  8
SAPA_PROFIL
 10
11.59131210472424
 20
67.494881179557453
 30
0.0
  0
VERTEX
  5
1505
  8
SAPA_PROFIL
 10
12.841311362652389
 20
67.494881179558021
 30
0.0
 42
1.0000014841447959
  0
VERTEX
  5
1506
  8
SAPA_PROFIL
 10
12.841311362652389
 20
68.494881179557453
 30
0.0
  0
SEQEND
  5
1507
  8
SAPA_PROFIL
  0
POLYLINE
  5
F37
  8
SAPA_PROFIL
 66
     1
 10
0.0
 20
0.0
 30
0.0
 70
   129
  0
VERTEX
  5
1508
  8
SAPA_PROFIL
 10
-2.9999999999999711
 20
-31.49999999999952
 30
0.0
  0
VERTEX
  5
1509
  8
SAPA_PROFIL
 10
-2.9999999999999711
 20
-14.49999999999952
 30
0.0
 42
-0.4142135623730951
  0
VERTEX
  5
150A
  8
SAPA_PROFIL
 10
-0.9999999999999715
 20
-12.49999999999952
 30
0.0
  0
VERTEX
  5
150B
  8
SAPA_PROFIL
 10
1.000000000000028
 20
-12.49999999999952
 30
0.0
 42
-0.4142135623730951
  0
VERTEX
  5
150C
  8
SAPA_PROFIL
 10
3.000000000000028
 20
-14.49999999999952
 30
0.0
  0
VERTEX
  5
150D
  8
SAPA_PROFIL
 10
3.000000000000028
 20
-31.49999999999952
 30
0.0
 42
-0.4142135623731002
  0
VERTEX
  5
150E
  8
SAPA_PROFIL
 10
2.000000000000028
 20
-32.499999999999517
 30
0.0
  0
VERTEX
  5
150F
  8
SAPA_PROFIL
 10
-1.9999999999999709
 20
-32.499999999999517
 30
0.0
 42
-0.4142135623730951
  0
SEQEND
  5
1510
  8
SAPA_PROFIL
  0
POLYLINE
  5
F38
  8
SAPA_PROFIL
 66
     1
 10
0.0
 20
0.0
 30
0.0
 70
   129
  0
VERTEX
  5
1511
  8
SAPA_PROFIL
 10
20.8180339887499
 20
-14.99999999999952
 30
0.0
 42
0.6482315195103768
  0
VERTEX
  5
1512
  8
SAPA_PROFIL
 10
19.700000000000021
 20
-12.49999999999952
 30
0.0
  0
VERTEX
  5
1513
  8
SAPA_PROFIL
 10
7.0000000000000284
 20
-12.49999999999952
 30
0.0
 42
0.4142135623730951
  0
VERTEX
  5
1514
  8
SAPA_PROFIL
 10
5.0000000000000284
 20
-14.49999999999952
 30
0.0
  0
VERTEX
  5
1515
  8
SAPA_PROFIL
 10
5.0000000000000284
 20
-52.199999999999498
 30
0.0
 42
-0.4142135623730951
  0
VERTEX
  5
1516
  8
SAPA_PROFIL
 10
4.7000000000000171
 20
-52.499999999999517
 30
0.0
  0
VERTEX
  5
1517
  8
SAPA_PROFIL
 10
3.0757359312880221
 20
-52.499999999999517
 30
0.0
  0
VERTEX
  5
1518
  8
SAPA_PROFIL
 10
2.1378679656441468
 20
-51.562132034356161
 30
0.0
 42
-0.1989123673804472
  0
VERTEX
  5
1519
  8
SAPA_PROFIL
 10
2.0500000000000389
 20
-51.349999999999511
 30
0.0
  0
VERTEX
  5
151A
  8
SAPA_PROFIL
 10
2.0500000000000389
 20
-50.149999999999523
 30
0.0
  0
VERTEX
  5
151B
  8
SAPA_PROFIL
 10
2.7000000000000171
 20
-50.149999999999523
 30
0.0
  0
VERTEX
  5
151C
  8
SAPA_PROFIL
 10
2.076719695747812
 20
-48.77376540432482
 30
0.0
 42
-0.5450207774088041
  0
VERTEX
  5
151D
  8
SAPA_PROFIL
 10
2.3500000000000218
 20
-48.349999999999511
 30
0.0
  0
VERTEX
  5
151E
  8
SAPA_PROFIL
 10
2.7000000000000171
 20
-48.349999999999511
 30
0.0
  0
VERTEX
  5
151F
  8
SAPA_PROFIL
 10
2.076719695747812
 20
-46.973765404324858
 30
0.0
 42
-0.545020777408923
  0
VERTEX
  5
1520
  8
SAPA_PROFIL
 10
2.3500000000000218
 20
-46.5499999999995
 30
0.0
  0
VERTEX
  5
1521
  8
SAPA_PROFIL
 10
2.7000000000000171
 20
-46.5499999999995
 30
0.0
  0
VERTEX
  5
1522
  8
SAPA_PROFIL
 10
2.076719695747812
 20
-45.173765404324847
 30
0.0
 42
-0.5450207774088153
  0
VERTEX
  5
1523
  8
SAPA_PROFIL
 10
2.3500000000000218
 20
-44.74999999999951
 30
0.0
  0
VERTEX
  5
1524
  8
SAPA_PROFIL
 10
2.7000000000000171
 20
-44.74999999999951
 30
0.0
  0
VERTEX
  5
1525
  8
SAPA_PROFIL
 10
2.076719695747812
 20
-43.373765404324843
 30
0.0
 42
-0.5450207774088153
  0
VERTEX
  5
1526
  8
SAPA_PROFIL
 10
2.3500000000000218
 20
-42.949999999999513
 30
0.0
  0
VERTEX
  5
1527
  8
SAPA_PROFIL
 10
2.7000000000000171
 20
-42.949999999999513
 30
0.0
  0
VERTEX
  5
1528
  8
SAPA_PROFIL
 10
2.0767196957477552
 20
-41.573765404324767
 30
0.0
 42
-0.5450207774087306
  0
VERTEX
  5
1529
  8
SAPA_PROFIL
 10
2.3500000000000218
 20
-41.149999999999523
 30
0.0
  0
VERTEX
  5
152A
  8
SAPA_PROFIL
 10
2.7000000000000171
 20
-41.149999999999523
 30
0.0
  0
VERTEX
  5
152B
  8
SAPA_PROFIL
 10
2.076719695747812
 20
-39.77376540432482
 30
0.0
 42
-0.5450207774088212
  0
VERTEX
  5
152C
  8
SAPA_PROFIL
 10
2.3500000000000218
 20
-39.349999999999511
 30
0.0
  0
VERTEX
  5
152D
  8
SAPA_PROFIL
 10
2.7000000000000171
 20
-39.349999999999511
 30
0.0
  0
VERTEX
  5
152E
  8
SAPA_PROFIL
 10
2.076719695747812
 20
-37.973765404324837
 30
0.0
 42
-0.5450207774088153
  0
VERTEX
  5
152F
  8
SAPA_PROFIL
 10
2.3500000000000218
 20
-37.5499999999995
 30
0.0
  0
VERTEX
  5
1530
  8
SAPA_PROFIL
 10
2.7000000000000171
 20
-37.5499999999995
 30
0.0
  0
VERTEX
  5
1531
  8
SAPA_PROFIL
 10
2.076719695747812
 20
-36.173765404324861
 30
0.0
 42
-0.5450207774088267
  0
VERTEX
  5
1532
  8
SAPA_PROFIL
 10
2.3500000000000218
 20
-35.749999999999517
 30
0.0
  0
VERTEX
  5
1533
  8
SAPA_PROFIL
 10
2.7000000000000171
 20
-35.749999999999517
 30
0.0
  0
VERTEX
  5
1534
  8
SAPA_PROFIL
 10
2.7000000000000171
 20
-35.499999999999517
 30
0.0
 42
0.4142135623730951
  0
VERTEX
  5
1535
  8
SAPA_PROFIL
 10
1.7000000000000171
 20
-34.499999999999517
 30
0.0
  0
VERTEX
  5
1536
  8
SAPA_PROFIL
 10
-1.69999999999996
 20
-34.499999999999517
 30
0.0
 42
0.4142135623730951
  0
VERTEX
  5
1537
  8
SAPA_PROFIL
 10
-2.6999999999999602
 20
-35.499999999999517
 30
0.0
  0
VERTEX
  5
1538
  8
SAPA_PROFIL
 10
-2.6999999999999602
 20
-36.649999999999523
 30
0.0
  0
VERTEX
  5
1539
  8
SAPA_PROFIL
 10
-2.349999999999937
 20
-36.649999999999523
 30
0.0
 42
-0.5450207774090871
  0
VERTEX
  5
153A
  8
SAPA_PROFIL
 10
-2.0767196957479821
 20
-37.07376540432552
 30
0.0
  0
VERTEX
  5
153B
  8
SAPA_PROFIL
 10
-2.6999999999999602
 20
-38.449999999999513
 30
0.0
  0
VERTEX
  5
153C
  8
SAPA_PROFIL
 10
-2.349999999999937
 20
-38.449999999999513
 30
0.0
 42
-0.5450207774090871
  0
VERTEX
  5
153D
  8
SAPA_PROFIL
 10
-2.0767196957479821
 20
-38.873765404325532
 30
0.0
  0
VERTEX
  5
153E
  8
SAPA_PROFIL
 10
-2.6999999999999602
 20
-40.24999999999951
 30
0.0
  0
VERTEX
  5
153F
  8
SAPA_PROFIL
 10
-2.3500000000000512
 20
-40.24999999999951
 30
0.0
 42
-0.5450207774093415
  0
VERTEX
  5
1540
  8
SAPA_PROFIL
 10
-2.0767196957479821
 20
-40.673765404325501
 30
0.0
  0
VERTEX
  5
1541
  8
SAPA_PROFIL
 10
-2.6999999999999602
 20
-42.0499999999995
 30
0.0
  0
VERTEX
  5
1542
  8
SAPA_PROFIL
 10
-2.3500000000000218
 20
-42.0499999999995
 30
0.0
 42
-0.5450207774092283
  0
VERTEX
  5
1543
  8
SAPA_PROFIL
 10
-2.0767196957479821
 20
-42.473765404325519
 30
0.0
  0
VERTEX
  5
1544
  8
SAPA_PROFIL
 10
-2.6999999999999602
 20
-43.849999999999497
 30
0.0
  0
VERTEX
  5
1545
  8
SAPA_PROFIL
 10
-2.349999999999937
 20
-43.849999999999497
 30
0.0
 42
-0.5450207774090871
  0
VERTEX
  5
1546
  8
SAPA_PROFIL
 10
-2.0767196957479821
 20
-44.273765404325502
 30
0.0
  0
VERTEX
  5
1547
  8
SAPA_PROFIL
 10
-2.6999999999999602
 20
-45.649999999999523
 30
0.0
  0
VERTEX
  5
1548
  8
SAPA_PROFIL
 10
-2.349999999999937
 20
-45.649999999999523
 30
0.0
 42
-0.5450207774090871
  0
VERTEX
  5
1549
  8
SAPA_PROFIL
 10
-2.0767196957479821
 20
-46.073765404325513
 30
0.0
  0
VERTEX
  5
154A
  8
SAPA_PROFIL
 10
-2.6999999999999602
 20
-47.449999999999498
 30
0.0
  0
VERTEX
  5
154B
  8
SAPA_PROFIL
 10
-2.3499999999999939
 20
-47.449999999999498
 30
0.0
 42
-0.5450207774091945
  0
VERTEX
  5
154C
  8
SAPA_PROFIL
 10
-2.0767196957479821
 20
-47.873765404325532
 30
0.0
  0
VERTEX
  5
154D
  8
SAPA_PROFIL
 10
-2.6999999999999602
 20
-49.24999999999951
 30
0.0
  0
VERTEX
  5
154E
  8
SAPA_PROFIL
 10
-2.3500000000000218
 20
-49.24999999999951
 30
0.0
 42
-0.5450207774092962
  0
VERTEX
  5
154F
  8
SAPA_PROFIL
 10
-2.0767196957479821
 20
-49.673765404325501
 30
0.0
  0
VERTEX
  5
1550
  8
SAPA_PROFIL
 10
-2.6999999999999602
 20
-51.0499999999995
 30
0.0
  0
VERTEX
  5
1551
  8
SAPA_PROFIL
 10
-2.3500000000000791
 20
-51.0499999999995
 30
0.0
 42
-0.6681786379194189
  0
VERTEX
  5
1552
  8
SAPA_PROFIL
 10
-2.1378679656439772
 20
-51.5621320343555
 30
0.0
  0
VERTEX
  5
1553
  8
SAPA_PROFIL
 10
-3.0757359312879942
 20
-52.499999999999517
 30
0.0
  0
VERTEX
  5
1554
  8
SAPA_PROFIL
 10
-4.6999999999999602
 20
-52.499999999999517
 30
0.0
 42
-0.4142135623730951
  0
VERTEX
  5
1555
  8
SAPA_PROFIL
 10
-4.9999999999999707
 20
-52.199999999999498
 30
0.0
  0
VERTEX
  5
1556
  8
SAPA_PROFIL
 10
-4.9999999999999707
 20
-14.49999999999952
 30
0.0
 42
0.4142135623730951
  0
VERTEX
  5
1557
  8
SAPA_PROFIL
 10
-7.0
 20
-12.49999999999952
 30
0.0
  0
VERTEX
  5
1558
  8
SAPA_PROFIL
 10
-19.699999999999989
 20
-12.49999999999954
 30
0.0
 42
0.6482315195103831
  0
VERTEX
  5
1559
  8
SAPA_PROFIL
 10
-20.81803398874985
 20
-14.99999999999957
 30
0.0
 42
-0.6482315195103645
  0
VERTEX
  5
155A
  8
SAPA_PROFIL
 10
-21.041640786500011
 20
-15.49999999999954
 30
0.0
  0
VERTEX
  5
155B
  8
SAPA_PROFIL
 10
-22.399999999999981
 20
-15.49999999999954
 30
0.0
 42
0.4142135623730951
  0
VERTEX
  5
155C
  8
SAPA_PROFIL
 10
-22.699999999999989
 20
-15.79999999999953
 30
0.0
  0
VERTEX
  5
155D
  8
SAPA_PROFIL
 10
-22.699999999999989
 20
-29.699999999999541
 30
0.0
 42
0.4142135623731104
  0
VERTEX
  5
155E
  8
SAPA_PROFIL
 10
-22.399999999999981
 20
-29.999999999999549
 30
0.0
  0
VERTEX
  5
155F
  8
SAPA_PROFIL
 10
-16.500000000000959
 20
-29.99999999999952
 30
0.0
 42
-0.4142135623731104
  0
VERTEX
  5
1560
  8
SAPA_PROFIL
 10
-16.20000000000098
 20
-30.2999999999995
 30
0.0
  0
VERTEX
  5
1561
  8
SAPA_PROFIL
 10
-16.20000000000098
 20
-34.199999999999513
 30
0.0
 42
0.2134217652833545
  0
VERTEX
  5
1562
  8
SAPA_PROFIL
 10
-16.100000000000989
 20
-34.423606797749471
 30
0.0
 42
-0.213421765283341
  0
VERTEX
  5
1563
  8
SAPA_PROFIL
 10
-16.000000000000959
 20
-34.647213595499501
 30
0.0
  0
VERTEX
  5
1564
  8
SAPA_PROFIL
 10
-16.000000000000959
 20
-35.199999999999513
 30
0.0
 42
-0.4142135623731104
  0
VERTEX
  5
1565
  8
SAPA_PROFIL
 10
-16.300000000000981
 20
-35.499999999999517
 30
0.0
  0
VERTEX
  5
1566
  8
SAPA_PROFIL
 10
-18.000000000000959
 20
-35.499999999999538
 30
0.0
  0
VERTEX
  5
1567
  8
SAPA_PROFIL
 10
-18.586384015761979
 20
-35.035076580434549
 30
0.0
 42
-0.7105995015649603
  0
VERTEX
  5
1568
  8
SAPA_PROFIL
 10
-18.400000000001
 20
-34.499999999999552
 30
0.0
  0
VERTEX
  5
1569
  8
SAPA_PROFIL
 10
-18.000000000000959
 20
-34.499999999999552
 30
0.0
 42
0.4142135623731359
  0
VERTEX
  5
156A
  8
SAPA_PROFIL
 10
-17.70000000000098
 20
-34.199999999999541
 30
0.0
  0
VERTEX
  5
156B
  8
SAPA_PROFIL
 10
-17.70000000000098
 20
-31.799999999999532
 30
0.0
 42
0.4142135623730951
  0
VERTEX
  5
156C
  8
SAPA_PROFIL
 10
-18.000000000000959
 20
-31.499999999999549
 30
0.0
  0
VERTEX
  5
156D
  8
SAPA_PROFIL
 10
-22.900000000000968
 20
-31.499999999999549
 30
0.0
 42
0.4142135623731104
  0
VERTEX
  5
156E
  8
SAPA_PROFIL
 10
-23.200000000000959
 20
-31.799999999999532
 30
0.0
  0
VERTEX
  5
156F
  8
SAPA_PROFIL
 10
-23.20000000000098
 20
-34.199999999999541
 30
0.0
 42
0.4142135623731258
  0
VERTEX
  5
1570
  8
SAPA_PROFIL
 10
-22.900000000000951
 20
-34.499999999999552
 30
0.0
  0
VERTEX
  5
1571
  8
SAPA_PROFIL
 10
-22.000000000000959
 20
-34.499999999999552
 30
0.0
 42
-0.7105995015650852
  0
VERTEX
  5
1572
  8
SAPA_PROFIL
 10
-21.813615984240219
 20
-35.035076580434271
 30
0.0
  0
VERTEX
  5
1573
  8
SAPA_PROFIL
 10
-22.400000000000968
 20
-35.499999999999538
 30
0.0
  0
VERTEX
  5
1574
  8
SAPA_PROFIL
 10
-24.70000000000098
 20
-35.499999999999538
 30
0.0
 42
-0.4142135623730951
  0
VERTEX
  5
1575
  8
SAPA_PROFIL
 10
-25.00000000000097
 20
-35.199999999999527
 30
0.0
  0
VERTEX
  5
1576
  8
SAPA_PROFIL
 10
-25.0
 20
63.999999999999481
 30
0.0
 42
-0.4142135623730951
  0
VERTEX
  5
1577
  8
SAPA_PROFIL
 10
-24.5
 20
64.499999999999488
 30
0.0
  0
VERTEX
  5
1578
  8
SAPA_PROFIL
 10
24.5
 20
64.499999999999488
 30
0.0
 42
-0.4142135623730951
  0
VERTEX
  5
1579
  8
SAPA_PROFIL
 10
25.0
 20
63.999999999999481
 30
0.0
  0
VERTEX
  5
157A
  8
SAPA_PROFIL
 10
25.00000000000103
 20
-35.199999999999513
 30
0.0
 42
-0.4142135623731258
  0
VERTEX
  5
157B
  8
SAPA_PROFIL
 10
24.700000000001008
 20
-35.499999999999517
 30
0.0
  0
VERTEX
  5
157C
  8
SAPA_PROFIL
 10
22.400000000001029
 20
-35.499999999999517
 30
0.0
  0
VERTEX
  5
157D
  8
SAPA_PROFIL
 10
21.81361598424002
 20
-35.035076580433497
 30
0.0
 42
-0.7105995015650982
  0
VERTEX
  5
157E
  8
SAPA_PROFIL
 10
22.00000000000102
 20
-34.499999999999517
 30
0.0
  0
VERTEX
  5
157F
  8
SAPA_PROFIL
 10
22.900000000001029
 20
-34.499999999999517
 30
0.0
 42
0.4142135623731104
  0
VERTEX
  5
1580
  8
SAPA_PROFIL
 10
23.200000000001008
 20
-34.199999999999513
 30
0.0
  0
VERTEX
  5
1581
  8
SAPA_PROFIL
 10
23.200000000001008
 20
-31.7999999999995
 30
0.0
 42
0.4142135623731001
  0
VERTEX
  5
1582
  8
SAPA_PROFIL
 10
22.900000000001029
 20
-31.49999999999952
 30
0.0
  0
VERTEX
  5
1583
  8
SAPA_PROFIL
 10
18.00000000000102
 20
-31.49999999999952
 30
0.0
 42
0.4142135623730951
  0
VERTEX
  5
1584
  8
SAPA_PROFIL
 10
17.700000000001008
 20
-31.7999999999995
 30
0.0
  0
VERTEX
  5
1585
  8
SAPA_PROFIL
 10
17.700000000001008
 20
-34.199999999999513
 30
0.0
 42
0.4142135623731359
  0
VERTEX
  5
1586
  8
SAPA_PROFIL
 10
18.000000000001052
 20
-34.499999999999517
 30
0.0
  0
VERTEX
  5
1587
  8
SAPA_PROFIL
 10
18.400000000001029
 20
-34.499999999999517
 30
0.0
 42
-0.7105995015649472
  0
VERTEX
  5
1588
  8
SAPA_PROFIL
 10
18.586384015761841
 20
-35.035076580434207
 30
0.0
  0
VERTEX
  5
1589
  8
SAPA_PROFIL
 10
18.00000000000102
 20
-35.499999999999517
 30
0.0
  0
VERTEX
  5
158A
  8
SAPA_PROFIL
 10
16.300000000000999
 20
-35.499999999999517
 30
0.0
 42
-0.4142135623731156
  0
VERTEX
  5
158B
  8
SAPA_PROFIL
 10
16.00000000000102
 20
-35.199999999999513
 30
0.0
  0
VERTEX
  5
158C
  8
SAPA_PROFIL
 10
16.00000000000102
 20
-34.647213595499522
 30
0.0
 42
-0.2134217652833455
  0
VERTEX
  5
158D
  8
SAPA_PROFIL
 10
16.100000000000989
 20
-34.423606797749557
 30
0.0
 42
0.2134217652833592
  0
VERTEX
  5
158E
  8
SAPA_PROFIL
 10
16.200000000001008
 20
-34.199999999999513
 30
0.0
  0
VERTEX
  5
158F
  8
SAPA_PROFIL
 10
16.200000000001008
 20
-30.2999999999995
 30
0.0
 42
-0.4142135623731053
  0
VERTEX
  5
1590
  8
SAPA_PROFIL
 10
16.50000000000102
 20
-29.99999999999952
 30
0.0
  0
VERTEX
  5
1591
  8
SAPA_PROFIL
 10
22.400000000000009
 20
-29.99999999999952
 30
0.0
 42
0.4142135623730951
  0
VERTEX
  5
1592
  8
SAPA_PROFIL
 10
22.700000000000021
 20
-29.699999999999509
 30
0.0
  0
VERTEX
  5
1593
  8
SAPA_PROFIL
 10
22.700000000000021
 20
-15.7999999999995
 30
0.0
 42
0.4142135623730951
  0
VERTEX
  5
1594
  8
SAPA_PROFIL
 10
22.400000000000009
 20
-15.49999999999952
 30
0.0
  0
VERTEX
  5
1595
  8
SAPA_PROFIL
 10
21.041640786500011
 20
-15.49999999999952
 30
0.0
 42
-0.6482315195103644
  0
SEQEND
  5
1596
  8
SAPA_PROFIL
  0
POLYLINE
  5
F39
  8
SAPA_PROFIL
 66
     1
 10
0.0
 20
0.0
 30
0.0
 70
   129
  0
VERTEX
  5
1597
  8
SAPA_PROFIL
 10
-22.399999999999981
 20
62.2000000000005
 30
0.0
 42
0.4142135623730951
  0
VERTEX
  5
1598
  8
SAPA_PROFIL
 10
-22.699999999999989
 20
61.900000000000489
 30
0.0
  0
VERTEX
  5
1599
  8
SAPA_PROFIL
 10
-22.699999999999989
 20
49.299999999999493
 30
0.0
 42
0.4142135623731104
  0
VERTEX
  5
159A
  8
SAPA_PROFIL
 10
-22.399999999999981
 20
48.999999999999481
 30
0.0
  0
VERTEX
  5
159B
  8
SAPA_PROFIL
 10
-18.0
 20
48.999999999999481
 30
0.0
 42
-0.4142135623730951
  0
VERTEX
  5
159C
  8
SAPA_PROFIL
 10
-17.5
 20
48.499999999999488
 30
0.0
  0
VERTEX
  5
159D
  8
SAPA_PROFIL
 10
-17.5
 20
46.399999999999459
 30
0.0
 42
-0.4142135623730951
  0
VERTEX
  5
159E
  8
SAPA_PROFIL
 10
-17.800000000000011
 20
46.099999999999483
 30
0.0
  0
VERTEX
  5
159F
  8
SAPA_PROFIL
 10
-18.300000000000011
 20
46.099999999999483
 30
0.0
 42
-0.4142135623730951
  0
VERTEX
  5
15A0
  8
SAPA_PROFIL
 10
-18.599999999999991
 20
46.399999999999459
 30
0.0
  0
VERTEX
  5
15A1
  8
SAPA_PROFIL
 10
-18.600000000000311
 20
46.736626924635203
 30
0.0
 42
0.5643553431125428
  0
VERTEX
  5
15A2
  8
SAPA_PROFIL
 10
-22.924395043234998
 20
44.874395043232482
 30
0.0
  0
VERTEX
  5
15A3
  8
SAPA_PROFIL
 10
-22.550000000002001
 20
44.499999999999481
 30
0.0
  0
VERTEX
  5
15A4
  8
SAPA_PROFIL
 10
-22.924395043234231
 20
44.125604956763077
 30
0.0
 42
0.5643553431119962
  0
VERTEX
  5
15A5
  8
SAPA_PROFIL
 10
-18.599999999999991
 20
42.263373075365479
 30
0.0
  0
VERTEX
  5
15A6
  8
SAPA_PROFIL
 10
-18.599999999999991
 20
42.599999999999497
 30
0.0
 42
-0.4142135623730644
  0
VERTEX
  5
15A7
  8
SAPA_PROFIL
 10
-18.300000000000011
 20
42.899999999999459
 30
0.0
  0
VERTEX
  5
15A8
  8
SAPA_PROFIL
 10
-17.800000000000011
 20
42.899999999999459
 30
0.0
 42
-0.4142135623730951
  0
VERTEX
  5
15A9
  8
SAPA_PROFIL
 10
-17.5
 20
42.599999999999483
 30
0.0
  0
VERTEX
  5
15AA
  8
SAPA_PROFIL
 10
-17.5
 20
40.499999999999488
 30
0.0
 42
-0.4142135623730951
  0
VERTEX
  5
15AB
  8
SAPA_PROFIL
 10
-18.0
 20
39.999999999999488
 30
0.0
  0
VERTEX
  5
15AC
  8
SAPA_PROFIL
 10
-22.399999999999981
 20
39.999999999999488
 30
0.0
 42
0.4142135623731104
  0
VERTEX
  5
15AD
  8
SAPA_PROFIL
 10
-22.699999999999989
 20
39.699999999999477
 30
0.0
  0
VERTEX
  5
15AE
  8
SAPA_PROFIL
 10
-22.699999999999989
 20
9.2999999999994714
 30
0.0
 42
0.4142135623731104
  0
VERTEX
  5
15AF
  8
SAPA_PROFIL
 10
-22.399999999999981
 20
8.9999999999994582
 30
0.0
  0
VERTEX
  5
15B0
  8
SAPA_PROFIL
 10
-18.0
 20
8.9999999999994582
 30
0.0
 42
-0.4142135623730951
  0
VERTEX
  5
15B1
  8
SAPA_PROFIL
 10
-17.5
 20
8.4999999999994884
 30
0.0
  0
VERTEX
  5
15B2
  8
SAPA_PROFIL
 10
-17.5
 20
6.3999999999994941
 30
0.0
 42
-0.4142135623730951
  0
VERTEX
  5
15B3
  8
SAPA_PROFIL
 10
-17.800000000000011
 20
6.0999999999994543
 30
0.0
  0
VERTEX
  5
15B4
  8
SAPA_PROFIL
 10
-18.300000000000011
 20
6.0999999999994543
 30
0.0
 42
-0.4142135623730389
  0
VERTEX
  5
15B5
  8
SAPA_PROFIL
 10
-18.599999999999991
 20
6.3999999999994648
 30
0.0
  0
VERTEX
  5
15B6
  8
SAPA_PROFIL
 10
-18.600000000000311
 20
6.7366269246341801
 30
0.0
 42
0.5643553431125485
  0
VERTEX
  5
15B7
  8
SAPA_PROFIL
 10
-22.924395043234998
 20
4.874395043232453
 30
0.0
  0
VERTEX
  5
15B8
  8
SAPA_PROFIL
 10
-22.550000000002001
 20
4.4999999999994591
 30
0.0
  0
VERTEX
  5
15B9
  8
SAPA_PROFIL
 10
-22.924395043234199
 20
4.1256049567620323
 30
0.0
 42
0.5643553431119904
  0
VERTEX
  5
15BA
  8
SAPA_PROFIL
 10
-18.599999999999991
 20
2.2633730753654779
 30
0.0
  0
VERTEX
  5
15BB
  8
SAPA_PROFIL
 10
-18.599999999999991
 20
2.5999999999994818
 30
0.0
 42
-0.4142135623730644
  0
VERTEX
  5
15BC
  8
SAPA_PROFIL
 10
-18.300000000000011
 20
2.8999999999994648
 30
0.0
  0
VERTEX
  5
15BD
  8
SAPA_PROFIL
 10
-17.800000000000011
 20
2.8999999999994648
 30
0.0
 42
-0.4142135623730951
  0
VERTEX
  5
15BE
  8
SAPA_PROFIL
 10
-17.5
 20
2.5999999999994818
 30
0.0
  0
VERTEX
  5
15BF
  8
SAPA_PROFIL
 10
-17.5
 20
0.4999999999994884
 30
0.0
 42
-0.4142135623730951
  0
VERTEX
  5
15C0
  8
SAPA_PROFIL
 10
-18.0
 20
-0.00000000000054
 30
0.0
  0
VERTEX
  5
15C1
  8
SAPA_PROFIL
 10
-22.399999999999981
 20
-0.00000000000054
 30
0.0
 42
0.4142135623731104
  0
VERTEX
  5
15C2
  8
SAPA_PROFIL
 10
-22.699999999999989
 20
-0.3000000000005514
 30
0.0
  0
VERTEX
  5
15C3
  8
SAPA_PROFIL
 10
-22.699999999999989
 20
-9.8999999999995492
 30
0.0
 42
0.4142135623730951
  0
VERTEX
  5
15C4
  8
SAPA_PROFIL
 10
-22.399999999999981
 20
-10.19999999999953
 30
0.0
  0
VERTEX
  5
15C5
  8
SAPA_PROFIL
 10
22.400000000000009
 20
-10.1999999999995
 30
0.0
 42
0.4142135623730951
  0
VERTEX
  5
15C6
  8
SAPA_PROFIL
 10
22.700000000000021
 20
-9.8999999999995225
 30
0.0
  0
VERTEX
  5
15C7
  8
SAPA_PROFIL
 10
22.700000000000021
 20
-0.300000000000523
 30
0.0
 42
0.4142135623730951
  0
VERTEX
  5
15C8
  8
SAPA_PROFIL
 10
22.400000000000009
 20
-0.0000000000005116
 30
0.0
  0
VERTEX
  5
15C9
  8
SAPA_PROFIL
 10
18.000000000000028
 20
-0.0000000000005116
 30
0.0
 42
-0.4142135623730951
  0
VERTEX
  5
15CA
  8
SAPA_PROFIL
 10
17.500000000000028
 20
0.4999999999994884
 30
0.0
  0
VERTEX
  5
15CB
  8
SAPA_PROFIL
 10
17.500000000000028
 20
2.5999999999994818
 30
0.0
 42
-0.4142135623730951
  0
VERTEX
  5
15CC
  8
SAPA_PROFIL
 10
17.80000000000004
 20
2.8999999999994941
 30
0.0
  0
VERTEX
  5
15CD
  8
SAPA_PROFIL
 10
18.30000000000004
 20
2.8999999999994941
 30
0.0
 42
-0.4142135623730951
  0
VERTEX
  5
15CE
  8
SAPA_PROFIL
 10
18.600000000000019
 20
2.5999999999994818
 30
0.0
  0
VERTEX
  5
15CF
  8
SAPA_PROFIL
 10
18.600000000000019
 20
2.2633730753655068
 30
0.0
 42
0.5643553431119905
  0
VERTEX
  5
15D0
  8
SAPA_PROFIL
 10
22.924395043234231
 20
4.125604956762003
 30
0.0
  0
VERTEX
  5
15D1
  8
SAPA_PROFIL
 10
22.550000000002029
 20
4.4999999999994884
 30
0.0
  0
VERTEX
  5
15D2
  8
SAPA_PROFIL
 10
22.92439504323502
 20
4.8743950432324823
 30
0.0
 42
0.5643553431125659
  0
VERTEX
  5
15D3
  8
SAPA_PROFIL
 10
18.600000000000222
 20
6.7366269246341508
 30
0.0
  0
VERTEX
  5
15D4
  8
SAPA_PROFIL
 10
18.600000000000019
 20
6.3999999999994941
 30
0.0
 42
-0.4142135623730388
  0
VERTEX
  5
15D5
  8
SAPA_PROFIL
 10
18.30000000000004
 20
6.0999999999994818
 30
0.0
  0
VERTEX
  5
15D6
  8
SAPA_PROFIL
 10
17.80000000000004
 20
6.0999999999994818
 30
0.0
 42
-0.4142135623730951
  0
VERTEX
  5
15D7
  8
SAPA_PROFIL
 10
17.500000000000028
 20
6.3999999999994941
 30
0.0
  0
VERTEX
  5
15D8
  8
SAPA_PROFIL
 10
17.500000000000028
 20
8.4999999999994884
 30
0.0
 42
-0.4142135623730951
  0
VERTEX
  5
15D9
  8
SAPA_PROFIL
 10
18.000000000000028
 20
8.9999999999994884
 30
0.0
  0
VERTEX
  5
15DA
  8
SAPA_PROFIL
 10
22.400000000000009
 20
8.9999999999994884
 30
0.0
 42
0.4142135623730951
  0
VERTEX
  5
15DB
  8
SAPA_PROFIL
 10
22.700000000000021
 20
9.2999999999994998
 30
0.0
  0
VERTEX
  5
15DC
  8
SAPA_PROFIL
 10
22.700000000000021
 20
39.699999999999477
 30
0.0
 42
0.4142135623730951
  0
VERTEX
  5
15DD
  8
SAPA_PROFIL
 10
22.400000000000009
 20
39.999999999999488
 30
0.0
  0
VERTEX
  5
15DE
  8
SAPA_PROFIL
 10
18.000000000000028
 20
39.999999999999488
 30
0.0
 42
-0.4142135623730951
  0
VERTEX
  5
15DF
  8
SAPA_PROFIL
 10
17.500000000000028
 20
40.499999999999488
 30
0.0
  0
VERTEX
  5
15E0
  8
SAPA_PROFIL
 10
17.5
 20
42.599999999999483
 30
0.0
 42
-0.4142135623730951
  0
VERTEX
  5
15E1
  8
SAPA_PROFIL
 10
17.800000000000011
 20
42.899999999999459
 30
0.0
  0
VERTEX
  5
15E2
  8
SAPA_PROFIL
 10
18.300000000000011
 20
42.899999999999459
 30
0.0
 42
-0.4142135623730951
  0
VERTEX
  5
15E3
  8
SAPA_PROFIL
 10
18.599999999999991
 20
42.599999999999483
 30
0.0
  0
VERTEX
  5
15E4
  8
SAPA_PROFIL
 10
18.599999999999991
 20
42.263373075365479
 30
0.0
 42
0.5643553431119905
  0
VERTEX
  5
15E5
  8
SAPA_PROFIL
 10
22.924395043234199
 20
44.125604956762999
 30
0.0
  0
VERTEX
  5
15E6
  8
SAPA_PROFIL
 10
22.550000000002001
 20
44.499999999999481
 30
0.0
  0
VERTEX
  5
15E7
  8
SAPA_PROFIL
 10
22.924395043234998
 20
44.874395043232482
 30
0.0
 42
0.5643553431125659
  0
VERTEX
  5
15E8
  8
SAPA_PROFIL
 10
18.60000000000019
 20
46.736626924635146
 30
0.0
  0
VERTEX
  5
15E9
  8
SAPA_PROFIL
 10
18.599999999999991
 20
46.399999999999459
 30
0.0
 42
-0.4142135623730951
  0
VERTEX
  5
15EA
  8
SAPA_PROFIL
 10
18.300000000000011
 20
46.099999999999483
 30
0.0
  0
VERTEX
  5
15EB
  8
SAPA_PROFIL
 10
17.800000000000011
 20
46.099999999999483
 30
0.0
 42
-0.4142135623730951
  0
VERTEX
  5
15EC
  8
SAPA_PROFIL
 10
17.5
 20
46.399999999999459
 30
0.0
  0
VERTEX
  5
15ED
  8
SAPA_PROFIL
 10
17.5
 20
48.499999999999488
 30
0.0
 42
-0.4142135623730951
  0
VERTEX
  5
15EE
  8
SAPA_PROFIL
 10
18.0
 20
48.999999999999481
 30
0.0
  0
VERTEX
  5
15EF
  8
SAPA_PROFIL
 10
22.399999999999981
 20
48.999999999999481
 30
0.0
 42
0.4142135623730951
  0
VERTEX
  5
15F0
  8
SAPA_PROFIL
 10
22.699999999999989
 20
49.299999999999493
 30
0.0
  0
VERTEX
  5
15F1
  8
SAPA_PROFIL
 10
22.699999999999989
 20
61.899999999999473
 30
0.0
 42
0.4142135623730951
  0
VERTEX
  5
15F2
  8
SAPA_PROFIL
 10
22.399999999999981
 20
62.199999999999477
 30
0.0
  0
SEQEND
  5
15F3
  8
SAPA_PROFIL
  0
POLYLINE
  5
F5F
  8
SAPA_GLAS
 66
     1
 10
0.0
 20
0.0
 30
0.0
  0
VERTEX
  5
1613
  8
SAPA_GLAS
 10
40.999999999999773
 20
-66.499999999998636
 30
0.0
  0
VERTEX
  5
1614
  8
SAPA_GLAS
 10
10.999999999999771
 20
-66.499999999998636
 30
0.0
  0
VERTEX
  5
1615
  8
SAPA_GLAS
 10
10.999999999999771
 20
-72.499999999998636
 30
0.0
  0
VERTEX
  5
1616
  8
SAPA_GLAS
 10
40.999999999999773
 20
-72.499999999998636
 30
0.0
  0
SEQEND
  5
1617
  8
SAPA_GLAS
  0
POLYLINE
  5
F60
  8
SAPA_GLAS
 66
     1
 10
0.0
 20
0.0
 30
0.0
  0
VERTEX
  5
1618
  8
SAPA_GLAS
 10
20.999999999999769
 20
-51.499999999998629
 30
0.0
  0
VERTEX
  5
1619
  8
SAPA_GLAS
 10
10.999999999999771
 20
-51.499999999998629
 30
0.0
  0
VERTEX
  5
161A
  8
SAPA_GLAS
 10
10.999999999999771
 20
-66.499999999998636
 30
0.0
  0
VERTEX
  5
161B
  8
SAPA_GLAS
 10
20.999999999999769
 20
-66.499999999998636
 30
0.0
  0
VERTEX
  5
161C
  8
SAPA_GLAS
 10
20.999999999999769
 20
-51.499999999998629
 30
0.0
  0
SEQEND
  5
161D
  8
SAPA_GLAS
  0
POLYLINE
  5
F61
  8
SAPA_GLAS
 66
     1
 10
0.0
 20
0.0
 30
0.0
  0
VERTEX
  5
161E
  8
SAPA_GLAS
 10
40.999999999999773
 20
-45.499999999998629
 30
0.0
  0
VERTEX
  5
161F
  8
SAPA_GLAS
 10
10.999999999999771
 20
-45.499999999998629
 30
0.0
  0
VERTEX
  5
1620
  8
SAPA_GLAS
 10
10.999999999999771
 20
-51.499999999998629
 30
0.0
  0
VERTEX
  5
1621
  8
SAPA_GLAS
 10
40.999999999999773
 20
-51.499999999998629
 30
0.0
  0
SEQEND
  5
1622
  8
SAPA_GLAS
  0
POLYLINE
  5
F62
  8
SAPA_GLAS
 66
     1
 10
0.0
 20
0.0
 30
0.0
  0
VERTEX
  5
1623
  8
SAPA_GLAS
 10
-59.799999999999891
 20
100.89999999999959
 30
0.0
  0
VERTEX
  5
1624
  8
SAPA_GLAS
 10
-31.000000000000121
 20
100.89999999999959
 30
0.0
  0
VERTEX
  5
1625
  8
SAPA_GLAS
 10
-31.000000000000121
 20
106.89999999999949
 30
0.0
  0
VERTEX
  5
1626
  8
SAPA_GLAS
 10
-59.799999999999891
 20
106.8999999999993
 30
0.0
  0
SEQEND
  5
1627
  8
SAPA_GLAS
  0
POLYLINE
  5
F63
  8
SAPA_GLAS
 66
     1
 10
0.0
 20
0.0
 30
0.0
 70
     1
  0
VERTEX
  5
1628
  8
SAPA_GLAS
 10
-41.00000000000022
 20
88.899999999999565
 30
0.0
  0
VERTEX
  5
1629
  8
SAPA_GLAS
 10
-41.00000000000022
 20
100.89999999999959
 30
0.0
  0
VERTEX
  5
162A
  8
SAPA_GLAS
 10
-31.000000000000121
 20
100.89999999999959
 30
0.0
  0
VERTEX
  5
162B
  8
SAPA_GLAS
 10
-31.000000000000121
 20
88.899999999999565
 30
0.0
  0
SEQEND
  5
162C
  8
SAPA_GLAS
  0
POLYLINE
  5
F64
  8
SAPA_GLAS
 66
     1
 10
0.0
 20
0.0
 30
0.0
  0
VERTEX
  5
162D
  8
SAPA_GLAS
 10
-59.799999999999891
 20
82.899999999999579
 30
0.0
  0
VERTEX
  5
162E
  8
SAPA_GLAS
 10
-31.000000000000121
 20
82.899999999999579
 30
0.0
  0
VERTEX
  5
162F
  8
SAPA_GLAS
 10
-31.000000000000121
 20
88.899999999999565
 30
0.0
  0
VERTEX
  5
1630
  8
SAPA_GLAS
 10
-59.799999999999891
 20
88.899999999999565
 30
0.0
  0
SEQEND
  5
1631
  8
SAPA_GLAS
  0
INSERT
  5
F6A
  8
SAPA_FYLLNING
  6
CONTINUOUS
  2
*X84
 10
0.0
 20
0.0
 30
0.0
1001
ACAD
1000
HATCH
1002
{
1070
    19
1000
ANSI37
1040
1.0
1040
0.0
1000
R14_HATCH_DATA
1000
F6A
1011
1.0
1021
0.0
1031
0.0
1021
0.0
1031
0.0
1011
0.0
1021
0.0
1031
0.0
1021
1.0
1031
0.0
1011
0.0
1021
0.0
1031
0.0
1021
0.0
1031
1.0
1040
0.0
1010
0.0
1020
0.0
1030
1.0
1000
ANSI37
1070
     0
1070
     0
1071
        1
1071
        7
1070
     1
1070
     1
1071
       10
1040
-27.0
1040
63.999999999999481
1040
-0.4142135623730951
1040
-24.5
1040
66.499999999999474
1040
0.0
1040
-24.5
1040
66.578300773496665
1040
0.0
1040
-34.000000000000568
1040
66.578300773496665
1040
0.4142135623730951
1040
-35.000000000000568
1040
65.578300773496665
1040
0.0
1040
-35.000000000000583
1040
-69.499999999998636
1040
0.4142135623730951
1040
-34.000000000000583
1040
-70.499999999998636
1040
0.0
1040
-24.95301216054429
1040
-70.49999999999865
1040
0.0
1040
-24.95301216054429
1040
-37.486041304660773
1040
-0.3822847895224558
1040
-27.000000000000998
1040
-35.199999999999527
1040
0.0
1071
        0
1070
     0
1070
     1
1040
0.0
1040
1.0
1070
     0
1070
     2
1040
2.3561944901923439
1040
0.0
1040
0.0
1040
2.2450640302672871
1040
2.245064030267288
1070
     0
1040
0.7853981633974484
1040
0.0
1040
0.0
1040
2.245064030267288
1040
-2.2450640302672871
1070
     0
1040
0.3736343157766583
1071
        1
1040
-30.532657999565341
1040
7.3638243615805541
1040
0.0
1002
}
  0
POLYLINE
  5
F93
  8
SAPA_FOGBAND
 66
     1
 10
0.0
 20
0.0
 30
0.0
 70
     1
  0
VERTEX
  5
17AC
  8
SAPA_FOGBAND
 10
19.573675668776779
 20
-33.499999999998863
 30
0.0
  0
VERTEX
  5
17AD
  8
SAPA_FOGBAND
 10
19.573675668776779
 20
-35.29999999999859
 30
0.0
 42
0.4142135623730951
  0
VERTEX
  5
17AE
  8
SAPA_FOGBAND
 10
19.773675668776601
 20
-35.499999999998408
 30
0.0
  0
VERTEX
  5
17AF
  8
SAPA_FOGBAND
 10
20.673675668776241
 20
-35.499999999998408
 30
0.0
 42
0.4142135623730951
  0
VERTEX
  5
17B0
  8
SAPA_FOGBAND
 10
20.873675668776059
 20
-35.29999999999859
 30
0.0
  0
VERTEX
  5
17B1
  8
SAPA_FOGBAND
 10
20.87367566877651
 20
-33.499999999998863
 30
0.0
 42
0.9999999999999998
  0
SEQEND
  5
17B2
  8
SAPA_FOGBAND
  0
CIRCLE
  5
F94
  8
SAPA_FOGBAND
 10
20.223675668776419
 20
-36.79999999999859
 30
0.0
 40
0.2549509756796394
  0
POLYLINE
  5
F95
  8
SAPA_FOGBAND
 66
     1
 10
0.0
 20
0.0
 30
0.0
 70
     1
  0
VERTEX
  5
17B3
  8
SAPA_FOGBAND
 10
16.270085830290778
 20
-35.499999999998408
 30
0.0
 42
-0.267949192431121
  0
VERTEX
  5
17B4
  8
SAPA_FOGBAND
 10
16.09688074953306
 20
-35.399999999998961
 30
0.0
 42
0.7673269879789569
  0
VERTEX
  5
17B5
  8
SAPA_FOGBAND
 10
15.72367566877687
 20
-35.499999999998408
 30
0.0
  0
VERTEX
  5
17B6
  8
SAPA_FOGBAND
 10
15.72367566877687
 20
-44.699999999999129
 30
0.0
 42
0.4602937089574736
  0
VERTEX
  5
17B7
  8
SAPA_FOGBAND
 10
15.954497976116951
 20
-44.897610691435823
 30
0.0
  0
VERTEX
  5
17B8
  8
SAPA_FOGBAND
 10
18.428386189851381
 20
-44.51174623088923
 30
0.0
 42
-0.6910703998708235
  0
VERTEX
  5
17B9
  8
SAPA_FOGBAND
 10
18.613035907186479
 20
-44.83717369718147
 30
0.0
  0
VERTEX
  5
17BA
  8
SAPA_FOGBAND
 10
15.836297738753499
 20
-45.008963529986652
 30
0.0
 42
0.928378177954751
  0
VERTEX
  5
17BB
  8
SAPA_FOGBAND
 10
16.26687478628741
 20
-45.424442128142118
 30
0.0
  0
VERTEX
  5
17BC
  8
SAPA_FOGBAND
 10
19.476099419057618
 20
-45.228542559024163
 30
0.0
 42
-0.6076316918600427
  0
VERTEX
  5
17BD
  8
SAPA_FOGBAND
 10
19.725013792520478
 20
-45.32309672969108
 30
0.0
 42
0.38070580105552
  0
VERTEX
  5
17BE
  8
SAPA_FOGBAND
 10
19.923675668776241
 20
-45.499999999998401
 30
0.0
  0
VERTEX
  5
17BF
  8
SAPA_FOGBAND
 10
20.223675668776419
 20
-45.499999999998401
 30
0.0
  0
VERTEX
  5
17C0
  8
SAPA_FOGBAND
 10
20.523675668776612
 20
-45.499999999998401
 30
0.0
 42
0.3807058010555201
  0
VERTEX
  5
17C1
  8
SAPA_FOGBAND
 10
20.72233754503236
 20
-45.32309672969108
 30
0.0
 42
-0.6076316918600374
  0
VERTEX
  5
17C2
  8
SAPA_FOGBAND
 10
20.971251918495231
 20
-45.228542559024163
 30
0.0
  0
VERTEX
  5
17C3
  8
SAPA_FOGBAND
 10
24.205028688483029
 20
-45.421865476482928
 30
0.0
 42
0.9283781779547513
  0
VERTEX
  5
17C4
  8
SAPA_FOGBAND
 10
24.6356057360174
 20
-45.006386878327469
 30
0.0
  0
VERTEX
  5
17C5
  8
SAPA_FOGBAND
 10
21.834315430366811
 20
-44.83717369718147
 30
0.0
 42
-0.6910703998708235
  0
VERTEX
  5
17C6
  8
SAPA_FOGBAND
 10
22.018965147702382
 20
-44.511746230890139
 30
0.0
  0
VERTEX
  5
17C7
  8
SAPA_FOGBAND
 10
24.49285336143635
 20
-44.897610691435823
 30
0.0
 42
0.4602937089574736
  0
VERTEX
  5
17C8
  8
SAPA_FOGBAND
 10
24.723675668776419
 20
-44.699999999999129
 30
0.0
  0
VERTEX
  5
17C9
  8
SAPA_FOGBAND
 10
24.723675668776419
 20
-35.499999999998408
 30
0.0
 42
0.7673269879789572
  0
VERTEX
  5
17CA
  8
SAPA_FOGBAND
 10
24.350470588019789
 20
-35.399999999998961
 30
0.0
 42
-0.267949192431121
  0
VERTEX
  5
17CB
  8
SAPA_FOGBAND
 10
24.17726550726297
 20
-35.499999999998408
 30
0.0
  0
VERTEX
  5
17CC
  8
SAPA_FOGBAND
 10
21.673675668776241
 20
-35.499999999998408
 30
0.0
  0
VERTEX
  5
17CD
  8
SAPA_FOGBAND
 10
21.673675668776241
 20
-34.399999999998961
 30
0.0
  0
VERTEX
  5
17CE
  8
SAPA_FOGBAND
 10
22.181730915002621
 20
-34.291388579558088
 30
0.0
 42
0.4364998583843341
  0
VERTEX
  5
17CF
  8
SAPA_FOGBAND
 10
22.310141004872779
 20
-34.027676570637823
 30
0.0
  0
VERTEX
  5
17D0
  8
SAPA_FOGBAND
 10
21.77128221139105
 20
-32.638382853194571
 30
0.0
 42
0.3095538907669666
  0
VERTEX
  5
17D1
  8
SAPA_FOGBAND
 10
20.83895553090974
 20
-31.999999999998408
 30
0.0
  0
VERTEX
  5
17D2
  8
SAPA_FOGBAND
 10
19.608395806643099
 20
-31.99999999999886
 30
0.0
 42
0.3095538907669666
  0
VERTEX
  5
17D3
  8
SAPA_FOGBAND
 10
18.676069126161789
 20
-32.638382853194571
 30
0.0
  0
VERTEX
  5
17D4
  8
SAPA_FOGBAND
 10
18.137210332680521
 20
-34.027676570638278
 30
0.0
 42
0.4364998583843338
  0
VERTEX
  5
17D5
  8
SAPA_FOGBAND
 10
18.265620422550679
 20
-34.291388579558088
 30
0.0
  0
VERTEX
  5
17D6
  8
SAPA_FOGBAND
 10
18.77367566877637
 20
-34.399999999998961
 30
0.0
  0
VERTEX
  5
17D7
  8
SAPA_FOGBAND
 10
18.77367566877637
 20
-35.499999999998408
 30
0.0
  0
SEQEND
  5
17D8
  8
SAPA_FOGBAND
  0
POLYLINE
  5
F96
  8
SAPA_FOGBAND
 66
     1
 10
0.0
 20
0.0
 30
0.0
 70
     1
  0
VERTEX
  5
17D9
  8
SAPA_FOGBAND
 10
18.723675668776419
 20
-37.999999999998408
 30
0.0
 42
0.3533664767746626
  0
VERTEX
  5
17DA
  8
SAPA_FOGBAND
 10
18.23488157348697
 20
-38.394736842103839
 30
0.0
 42
0.162847186097109
  0
VERTEX
  5
17DB
  8
SAPA_FOGBAND
 10
18.286918832692429
 20
-41.833847743324661
 30
0.0
 42
0.2572150309758587
  0
VERTEX
  5
17DC
  8
SAPA_FOGBAND
 10
18.611937220160371
 20
-42.190466027633867
 30
0.0
 42
0.1655934221057593
  0
VERTEX
  5
17DD
  8
SAPA_FOGBAND
 10
21.835414117393391
 20
-42.190466027633867
 30
0.0
 42
0.2572150309758567
  0
VERTEX
  5
17DE
  8
SAPA_FOGBAND
 10
22.160432504860861
 20
-41.833847743324661
 30
0.0
 42
0.1628471860971115
  0
VERTEX
  5
17DF
  8
SAPA_FOGBAND
 10
22.212469764066331
 20
-38.394736842103839
 30
0.0
 42
0.3533664767746627
  0
VERTEX
  5
17E0
  8
SAPA_FOGBAND
 10
21.723675668776419
 20
-37.999999999998408
 30
0.0
  0
SEQEND
  5
17E1
  8
SAPA_FOGBAND
  0
LINE
  5
F97
  8
SAPA_FOGBAND
 10
-7.5881957391655126
 20
67.090467536750054
 30
0.0
 11
-7.5429342960169938
 21
73.066512171657251
 31
0.0
  0
LINE
  5
F98
  8
SAPA_FOGBAND
 10
-7.8029859212175552
 20
67.090467536750054
 30
0.0
 11
-8.2782586647068115
 21
73.089496958714591
 31
0.0
  0
LINE
  5
F99
  8
SAPA_FOGBAND
 10
-8.0934773178285866
 20
67.090467536750083
 30
0.0
 11
-9.2433718986121942
 21
73.089496958714591
 31
0.0
  0
LINE
  5
F9A
  8
SAPA_FOGBAND
 10
-7.3445270444838684
 20
67.090467536750054
 30
0.0
 11
-6.5778210621116102
 21
73.135466532829255
 31
0.0
  0
LINE
  5
F9B
  8
SAPA_FOGBAND
 10
-7.1717697535033826
 20
67.090467536750054
 30
0.0
 11
-5.773560033857108
 21
73.158451319886609
 31
0.0
  0
LINE
  5
F9C
  8
SAPA_FOGBAND
 10
15.258284328688971
 20
67.184600719168486
 30
0.0
 11
15.30354577183749
 21
73.160645354075655
 31
0.0
  0
LINE
  5
F9D
  8
SAPA_FOGBAND
 10
15.043494146636929
 20
67.184600719168486
 30
0.0
 11
14.568221403147669
 21
73.183630141132994
 31
0.0
  0
LINE
  5
F9E
  8
SAPA_FOGBAND
 10
14.7530027500259
 20
67.184600719168486
 30
0.0
 11
13.60310816924229
 21
73.183630141132994
 31
0.0
  0
LINE
  5
F9F
  8
SAPA_FOGBAND
 10
15.50195302337062
 20
67.184600719168486
 30
0.0
 11
16.268659005742869
 21
73.229599715247673
 31
0.0
  0
LINE
  5
FA0
  8
SAPA_FOGBAND
 10
15.674710314351101
 20
67.184600719168486
 30
0.0
 11
17.072920033997381
 21
73.252584502305012
 31
0.0
  0
POLYLINE
  5
FA1
  8
SAPA_FOGBAND
 66
     1
 10
0.0
 20
0.0
 30
0.0
 70
     1
  0
VERTEX
  5
17E2
  8
SAPA_FOGBAND
 10
17.555476650950052
 20
66.97773763565246
 30
0.0
  0
VERTEX
  5
17E3
  8
SAPA_FOGBAND
 10
17.555476650950052
 20
67.184600719168486
 30
0.0
  0
VERTEX
  5
17E4
  8
SAPA_FOGBAND
 10
12.9596993466387
 20
67.184600719168486
 30
0.0
  0
VERTEX
  5
17E5
  8
SAPA_FOGBAND
 10
12.9596993466387
 20
66.97773763565246
 30
0.0
  0
SEQEND
  5
17E6
  8
SAPA_FOGBAND
  0
POLYLINE
  5
FA2
  8
SAPA_FOGBAND
 66
     1
 10
0.0
 20
0.0
 30
0.0
 70
     1
  0
VERTEX
  5
17E7
  8
SAPA_FOGBAND
 10
-5.29100341690443
 20
66.883604453234057
 30
0.0
  0
VERTEX
  5
17E8
  8
SAPA_FOGBAND
 10
-5.29100341690443
 20
67.090467536750083
 30
0.0
  0
VERTEX
  5
17E9
  8
SAPA_FOGBAND
 10
-9.8867807212157857
 20
67.090467536750083
 30
0.0
  0
VERTEX
  5
17EA
  8
SAPA_FOGBAND
 10
-9.8867807212157857
 20
66.883604453234057
 30
0.0
  0
SEQEND
  5
17EB
  8
SAPA_FOGBAND
  0
POLYLINE
  5
FA3
  8
SAPA_FOGBAND
 66
     1
 10
0.0
 20
0.0
 30
0.0
 70
     1
  0
VERTEX
  5
17EC
  8
SAPA_FOGBAND
 10
-37.497490090368053
 20
113.00375201277861
 30
0.0
  0
VERTEX
  5
17ED
  8
SAPA_FOGBAND
 10
-38.697490090368092
 20
113.00375201277861
 30
0.0
 42
-0.4142135623730951
  0
VERTEX
  5
17EE
  8
SAPA_FOGBAND
 10
-38.997490090368053
 20
113.3037520127786
 30
0.0
  0
VERTEX
  5
17EF
  8
SAPA_FOGBAND
 10
-38.997490090368053
 20
114.20375201277869
 30
0.0
  0
VERTEX
  5
17F0
  8
SAPA_FOGBAND
 10
-38.64749009036791
 20
114.20375201277869
 30
0.0
 42
0.6681786379192988
  0
VERTEX
  5
17F1
  8
SAPA_FOGBAND
 10
-38.435358056011978
 20
114.7158840471344
 30
0.0
  0
VERTEX
  5
17F2
  8
SAPA_FOGBAND
 10
-39.288911446605198
 20
115.5694374377278
 30
0.0
 42
0.1989123673796552
  0
VERTEX
  5
17F3
  8
SAPA_FOGBAND
 10
-39.854596871554577
 20
115.8037520127786
 30
0.0
  0
VERTEX
  5
17F4
  8
SAPA_FOGBAND
 10
-40.017291993974368
 20
115.8037520127786
 30
0.0
 42
0.3394542588633746
  0
VERTEX
  5
17F5
  8
SAPA_FOGBAND
 10
-40.307069741861142
 20
115.58139772630931
 30
0.0
  0
VERTEX
  5
17F6
  8
SAPA_FOGBAND
 10
-40.67021898525104
 20
114.2261062992478
 30
0.0
 42
-0.3394542588633746
  0
VERTEX
  5
17F7
  8
SAPA_FOGBAND
 10
-40.959996733137807
 20
114.00375201277861
 30
0.0
  0
VERTEX
  5
17F8
  8
SAPA_FOGBAND
 10
-43.534983447598272
 20
114.00375201277861
 30
0.0
 42
-0.3394542588633746
  0
VERTEX
  5
17F9
  8
SAPA_FOGBAND
 10
-43.824761195485053
 20
114.2261062992478
 30
0.0
  0
VERTEX
  5
17FA
  8
SAPA_FOGBAND
 10
-44.187910438874951
 20
115.58139772630931
 30
0.0
 42
0.3394542588633744
  0
VERTEX
  5
17FB
  8
SAPA_FOGBAND
 10
-44.477688186761732
 20
115.8037520127786
 30
0.0
  0
VERTEX
  5
17FC
  8
SAPA_FOGBAND
 10
-44.640383309181509
 20
115.8037520127786
 30
0.0
 42
0.1989123673796526
  0
VERTEX
  5
17FD
  8
SAPA_FOGBAND
 10
-45.206068734130668
 20
115.5694374377278
 30
0.0
  0
VERTEX
  5
17FE
  8
SAPA_FOGBAND
 10
-46.059622124724001
 20
114.7158840471344
 30
0.0
 42
0.6681786379193474
  0
VERTEX
  5
17FF
  8
SAPA_FOGBAND
 10
-45.847490090368183
 20
114.20375201277869
 30
0.0
  0
VERTEX
  5
1800
  8
SAPA_FOGBAND
 10
-45.497490090368039
 20
114.20375201277869
 30
0.0
  0
VERTEX
  5
1801
  8
SAPA_FOGBAND
 10
-45.497490090368039
 20
113.3037520127786
 30
0.0
 42
-0.4142135623730951
  0
VERTEX
  5
1802
  8
SAPA_FOGBAND
 10
-45.797490090368001
 20
113.00375201277861
 30
0.0
  0
VERTEX
  5
1803
  8
SAPA_FOGBAND
 10
-47.89749009036813
 20
113.00375201277861
 30
0.0
 42
-0.4142135623730951
  0
VERTEX
  5
1804
  8
SAPA_FOGBAND
 10
-48.197490090368092
 20
113.3037520127786
 30
0.0
  0
VERTEX
  5
1805
  8
SAPA_FOGBAND
 10
-48.197490090368092
 20
114.70375201277869
 30
0.0
 42
0.7754026414786132
  0
VERTEX
  5
1806
  8
SAPA_FOGBAND
 10
-48.760282085775771
 20
114.84845988108459
 30
0.0
 42
-0.1137347954614569
  0
VERTEX
  5
1807
  8
SAPA_FOGBAND
 10
-52.910330244366378
 20
107.3719721227598
 30
0.0
 42
0.8680589103334746
  0
VERTEX
  5
1808
  8
SAPA_FOGBAND
 10
-52.435406214602828
 20
107.0151322200981
 30
0.0
  0
VERTEX
  5
1809
  8
SAPA_FOGBAND
 10
-48.46537081745101
 20
109.39133790942979
 30
0.0
 42
-0.1989123673796536
  0
VERTEX
  5
180A
  8
SAPA_FOGBAND
 10
-47.758264036264563
 20
109.6842311282432
 30
0.0
  0
VERTEX
  5
180B
  8
SAPA_FOGBAND
 10
-44.924945071844832
 20
109.6842311282432
 30
0.0
 42
-0.577350269189628
  0
VERTEX
  5
180C
  8
SAPA_FOGBAND
 10
-44.665137450709381
 20
109.23423112824329
 30
0.0
  0
VERTEX
  5
180D
  8
SAPA_FOGBAND
 10
-46.803266147121121
 20
107.381071656701
 30
0.0
 42
0.8769764629927301
  0
VERTEX
  5
180E
  8
SAPA_FOGBAND
 10
-46.331326491629852
 20
107.0189396223449
 30
0.0
  0
VERTEX
  5
180F
  8
SAPA_FOGBAND
 10
-42.365098496725167
 20
109.39133790942979
 30
0.0
 42
-0.198912367379658
  0
VERTEX
  5
1810
  8
SAPA_FOGBAND
 10
-41.657991715538628
 20
109.6842311282432
 30
0.0
  0
VERTEX
  5
1811
  8
SAPA_FOGBAND
 10
-39.425717353316941
 20
109.6842311282432
 30
0.0
 42
-0.5773502691896441
  0
VERTEX
  5
1812
  8
SAPA_FOGBAND
 10
-39.165909732181717
 20
109.23423112824329
 30
0.0
  0
VERTEX
  5
1813
  8
SAPA_FOGBAND
 10
-41.303536853710973
 20
107.38194040988139
 30
0.0
 42
0.87697646299276
  0
VERTEX
  5
1814
  8
SAPA_FOGBAND
 10
-40.831597198219697
 20
107.0198083755253
 30
0.0
  0
VERTEX
  5
1815
  8
SAPA_FOGBAND
 10
-36.7903833091815
 20
109.4671925567435
 30
0.0
 42
0.198912367379658
  0
VERTEX
  5
1816
  8
SAPA_FOGBAND
 10
-36.497490090368053
 20
110.17429933792999
 30
0.0
  0
VERTEX
  5
1817
  8
SAPA_FOGBAND
 10
-36.497490090368053
 20
112.00375201277861
 30
0.0
  0
VERTEX
  5
1818
  8
SAPA_FOGBAND
 10
-36.497490090368053
 20
111.9938202224654
 30
0.0
  0
SEQEND
  5
1819
  8
SAPA_FOGBAND
  0
POLYLINE
  5
FA4
  8
SAPA_FOGBAND
 66
     1
 10
0.0
 20
0.0
 30
0.0
 70
     1
  0
VERTEX
  5
181A
  8
SAPA_FOGBAND
 10
-36.437172509476909
 20
79.922613012764415
 30
0.0
 42
-0.4142135623730951
  0
VERTEX
  5
181B
  8
SAPA_FOGBAND
 10
-37.437172509476909
 20
78.92261301276443
 30
0.0
  0
VERTEX
  5
181C
  8
SAPA_FOGBAND
 10
-38.637172509476962
 20
78.92261301276443
 30
0.0
 42
0.4142135623730951
  0
VERTEX
  5
181D
  8
SAPA_FOGBAND
 10
-38.937172509476909
 20
78.622613012764475
 30
0.0
  0
VERTEX
  5
181E
  8
SAPA_FOGBAND
 10
-38.937172509476909
 20
77.722613012764384
 30
0.0
  0
VERTEX
  5
181F
  8
SAPA_FOGBAND
 10
-38.587172509476773
 20
77.722613012764384
 30
0.0
 42
-0.6681786379193472
  0
VERTEX
  5
1820
  8
SAPA_FOGBAND
 10
-38.375040475120962
 20
77.210480978408384
 30
0.0
  0
VERTEX
  5
1821
  8
SAPA_FOGBAND
 10
-39.228593865714167
 20
76.356927587815051
 30
0.0
 42
-0.1989123673796526
  0
VERTEX
  5
1822
  8
SAPA_FOGBAND
 10
-39.794279290663439
 20
76.122613012764475
 30
0.0
  0
VERTEX
  5
1823
  8
SAPA_FOGBAND
 10
-39.956974413083231
 20
76.122613012764475
 30
0.0
 42
-0.3394542588633746
  0
VERTEX
  5
1824
  8
SAPA_FOGBAND
 10
-40.246752160969997
 20
76.344967299233701
 30
0.0
  0
VERTEX
  5
1825
  8
SAPA_FOGBAND
 10
-40.609901404359903
 20
77.700258726295203
 30
0.0
 42
0.3394542588633744
  0
VERTEX
  5
1826
  8
SAPA_FOGBAND
 10
-40.899679152246676
 20
77.92261301276443
 30
0.0
  0
VERTEX
  5
1827
  8
SAPA_FOGBAND
 10
-43.474665866707142
 20
77.92261301276443
 30
0.0
 42
0.3394542588633746
  0
VERTEX
  5
1828
  8
SAPA_FOGBAND
 10
-43.764443614593908
 20
77.700258726295203
 30
0.0
  0
VERTEX
  5
1829
  8
SAPA_FOGBAND
 10
-44.127592857983807
 20
76.344967299233701
 30
0.0
 42
-0.3394542588633747
  0
VERTEX
  5
182A
  8
SAPA_FOGBAND
 10
-44.41737060587058
 20
76.122613012764475
 30
0.0
  0
VERTEX
  5
182B
  8
SAPA_FOGBAND
 10
-44.580065728290371
 20
76.122613012764475
 30
0.0
 42
-0.1989123673796526
  0
VERTEX
  5
182C
  8
SAPA_FOGBAND
 10
-45.14575115323975
 20
76.356927587815051
 30
0.0
  0
VERTEX
  5
182D
  8
SAPA_FOGBAND
 10
-45.999304543832856
 20
77.210480978408384
 30
0.0
 42
-0.6681786379193474
  0
VERTEX
  5
182E
  8
SAPA_FOGBAND
 10
-45.787172509477038
 20
77.722613012764384
 30
0.0
  0
VERTEX
  5
182F
  8
SAPA_FOGBAND
 10
-45.437172509476909
 20
77.722613012764384
 30
0.0
  0
VERTEX
  5
1830
  8
SAPA_FOGBAND
 10
-45.437172509476909
 20
78.622613012764475
 30
0.0
 42
0.4142135623730951
  0
VERTEX
  5
1831
  8
SAPA_FOGBAND
 10
-45.737172509476864
 20
78.92261301276443
 30
0.0
  0
VERTEX
  5
1832
  8
SAPA_FOGBAND
 10
-47.837172509477
 20
78.92261301276443
 30
0.0
 42
0.4142135623730951
  0
VERTEX
  5
1833
  8
SAPA_FOGBAND
 10
-48.137172509476947
 20
78.622613012764475
 30
0.0
  0
VERTEX
  5
1834
  8
SAPA_FOGBAND
 10
-48.137172509476947
 20
77.222613012764384
 30
0.0
 42
-0.7754026414785753
  0
VERTEX
  5
1835
  8
SAPA_FOGBAND
 10
-48.699964504884633
 20
77.077905144458498
 30
0.0
  0
VERTEX
  5
1836
  8
SAPA_FOGBAND
 10
-52.219667015429991
 20
82.461010917044348
 30
0.0
 42
-0.8680589103334742
  0
VERTEX
  5
1837
  8
SAPA_FOGBAND
 10
-51.744742985666448
 20
82.817850819706052
 30
0.0
  0
VERTEX
  5
1838
  8
SAPA_FOGBAND
 10
-48.405053236560093
 20
80.715506231577763
 30
0.0
 42
0.198912367379658
  0
VERTEX
  5
1839
  8
SAPA_FOGBAND
 10
-47.697946455373419
 20
80.42261301276443
 30
0.0
  0
VERTEX
  5
183A
  8
SAPA_FOGBAND
 10
-44.864627490953687
 20
80.42261301276443
 30
0.0
 42
0.5773502691896282
  0
VERTEX
  5
183B
  8
SAPA_FOGBAND
 10
-44.604819869818471
 20
80.872613012764475
 30
0.0
  0
VERTEX
  5
183C
  8
SAPA_FOGBAND
 10
-46.112602918184727
 20
82.451911383103095
 30
0.0
 42
-0.8769764629927299
  0
VERTEX
  5
183D
  8
SAPA_FOGBAND
 10
-45.640663262693472
 20
82.814043417459246
 30
0.0
  0
VERTEX
  5
183E
  8
SAPA_FOGBAND
 10
-42.304780915834158
 20
80.715506231577763
 30
0.0
 42
0.198912367379658
  0
VERTEX
  5
183F
  8
SAPA_FOGBAND
 10
-41.597674134647491
 20
80.42261301276443
 30
0.0
  0
VERTEX
  5
1840
  8
SAPA_FOGBAND
 10
-39.365399772425917
 20
80.42261301276443
 30
0.0
 42
0.5773502691896282
  0
VERTEX
  5
1841
  8
SAPA_FOGBAND
 10
-39.10559215129058
 20
80.872613012764475
 30
0.0
  0
VERTEX
  5
1842
  8
SAPA_FOGBAND
 10
-40.612873624774352
 20
82.451042629922711
 30
0.0
 42
-0.8769764629927299
  0
VERTEX
  5
1843
  8
SAPA_FOGBAND
 10
-40.140933969283083
 20
82.813174664278847
 30
0.0
  0
VERTEX
  5
1844
  8
SAPA_FOGBAND
 10
-36.730065728290469
 20
80.639651584264072
 30
0.0
 42
-0.198912367379658
  0
VERTEX
  5
1845
  8
SAPA_FOGBAND
 10
-36.437172509476909
 20
79.932544803077633
 30
0.0
  0
SEQEND
  5
1846
  8
SAPA_FOGBAND
  0
LINE
  5
FA5
  8
SAPA_FOGBAND
 10
-17.599999999999682
 20
-73.499999999998636
 30
0.0
 11
-17.599999999999682
 21
-72.499999999998636
 31
0.0
  0
CIRCLE
  5
FA6
  8
SAPA_FOGBAND
 10
-7.9999999999995453
 20
-75.057534635653383
 30
0.0
 40
0.25
  0
LINE
  5
FA7
  8
SAPA_FOGBAND
 10
-15.09999999999968
 20
-72.499999999998636
 30
0.0
 11
-15.09999999999968
 21
-73.499999999998636
 31
0.0
  0
LINE
  5
FA8
  8
SAPA_FOGBAND
 10
-10.09999999999968
 20
-72.499999999998636
 30
0.0
 11
-10.09999999999968
 21
-73.499999999998636
 31
0.0
  0
LINE
  5
FA9
  8
SAPA_FOGBAND
 10
-10.09999999999968
 20
-72.999999999998636
 30
0.0
 11
-15.09999999999968
 21
-72.999999999998636
 31
0.0
  0
LINE
  5
FAA
  8
SAPA_FOGBAND
 10
-2.5999999999996808
 20
-72.499999999998636
 30
0.0
 11
-2.5999999999996808
 21
-73.499999999998636
 31
0.0
  0
POLYLINE
  5
FAB
  8
SAPA_FOGBAND
 66
     1
 10
0.0
 20
0.0
 30
0.0
 70
     1
  0
VERTEX
  5
1847
  8
SAPA_FOGBAND
 10
-8.1500000000005457
 20
-76.557534635653155
 30
0.0
  0
VERTEX
  5
1848
  8
SAPA_FOGBAND
 10
-8.1500000000000892
 20
-78.357534635653792
 30
0.0
 42
0.9999999999999996
  0
VERTEX
  5
1849
  8
SAPA_FOGBAND
 10
-6.8500000000005912
 20
-78.357534635653792
 30
0.0
  0
VERTEX
  5
184A
  8
SAPA_FOGBAND
 10
-6.8500000000005912
 20
-76.557534635653155
 30
0.0
 42
0.4142135623730951
  0
VERTEX
  5
184B
  8
SAPA_FOGBAND
 10
-7.0500000000004093
 20
-76.357534635653323
 30
0.0
  0
VERTEX
  5
184C
  8
SAPA_FOGBAND
 10
-7.9499999999995898
 20
-76.357534635653323
 30
0.0
 42
0.4142135623730951
  0
SEQEND
  5
184D
  8
SAPA_FOGBAND
  0
CIRCLE
  5
FAC
  8
SAPA_FOGBAND
 10
7.9999999999995453
 20
-75.057534635653383
 30
0.0
 40
0.25
  0
POLYLINE
  5
FAD
  8
SAPA_FOGBAND
 66
     1
 10
0.0
 20
0.0
 30
0.0
  0
VERTEX
  5
184E
  8
SAPA_FOGBAND
 10
7.0500000000004093
 20
-76.357534635653323
 30
0.0
  0
VERTEX
  5
184F
  8
SAPA_FOGBAND
 10
7.9499999999995898
 20
-76.35753463565311
 30
0.0
 42
-0.4142135623730951
  0
VERTEX
  5
1850
  8
SAPA_FOGBAND
 10
8.1500000000005457
 20
-76.557534635653155
 30
0.0
  0
VERTEX
  5
1851
  8
SAPA_FOGBAND
 10
8.1500000000000892
 20
-78.357534635653792
 30
0.0
 42
-0.9999999999999998
  0
VERTEX
  5
1852
  8
SAPA_FOGBAND
 10
6.8499999999999091
 20
-78.357534635653792
 30
0.0
  0
VERTEX
  5
1853
  8
SAPA_FOGBAND
 10
6.8500000000005912
 20
-76.557534635653155
 30
0.0
 42
-0.4142135623730951
  0
VERTEX
  5
1854
  8
SAPA_FOGBAND
 10
7.0500000000004093
 20
-76.357534635653323
 30
0.0
  0
VERTEX
  5
1855
  8
SAPA_FOGBAND
 10
7.7999999999997272
 20
-76.357534635653323
 30
0.0
  0
SEQEND
  5
1856
  8
SAPA_FOGBAND
  0
LINE
  5
FAE
  8
SAPA_FOGBAND
 10
9.9000000000003183
 20
-72.499999999998636
 30
0.0
 11
9.9000000000003183
 21
-73.499999999998636
 31
0.0
  0
LINE
  5
FAF
  8
SAPA_FOGBAND
 10
2.4000000000003179
 20
-72.499999999998636
 30
0.0
 11
2.4000000000003179
 21
-73.499999999998636
 31
0.0
  0
LINE
  5
FB0
  8
SAPA_FOGBAND
 10
14.90000000000032
 20
-72.499999999998636
 30
0.0
 11
14.90000000000032
 21
-73.499999999998636
 31
0.0
  0
LINE
  5
FB1
  8
SAPA_FOGBAND
 10
17.400000000000318
 20
-72.499999999998636
 30
0.0
 11
17.400000000000318
 21
-73.499999999998636
 31
0.0
  0
LINE
  5
FB2
  8
SAPA_FOGBAND
 10
14.90000000000032
 20
-72.999999999998636
 30
0.0
 11
9.9000000000003183
 21
-72.999999999998636
 31
0.0
  0
LINE
  5
FB3
  8
SAPA_FOGBAND
 10
-17.599999999999682
 20
-72.499999999998636
 30
0.0
 11
17.400000000000318
 21
-72.499999999998636
 31
0.0
  0
LINE
  5
FB4
  8
SAPA_FOGBAND
 10
17.400000000000318
 20
-73.499999999998636
 30
0.0
 11
-17.599999999999682
 21
-73.499999999998636
 31
0.0
  0
POLYLINE
  5
FB5
  8
SAPA_FOGBAND
 66
     1
 10
0.0
 20
0.0
 30
0.0
 70
     1
  0
VERTEX
  5
1857
  8
SAPA_FOGBAND
 10
-21.651788769293489
 20
-72.534485185378571
 30
0.0
 42
0.8497079118398895
  0
VERTEX
  5
1858
  8
SAPA_FOGBAND
 10
-22.099999999999451
 20
-72.921427446888629
 30
0.0
  0
VERTEX
  5
1859
  8
SAPA_FOGBAND
 10
-16.55852911070588
 20
-76.404540759853262
 30
0.0
 42
0.2608822022991484
  0
VERTEX
  5
185A
  8
SAPA_FOGBAND
 10
-16.388026238211069
 20
-76.499999999998408
 30
0.0
  0
VERTEX
  5
185B
  8
SAPA_FOGBAND
 10
-9.1700000000003001
 20
-76.499999999997954
 30
0.0
 42
-0.4142135623730951
  0
VERTEX
  5
185C
  8
SAPA_FOGBAND
 10
-9.1499999999996362
 20
-76.519999999997935
 30
0.0
  0
VERTEX
  5
185D
  8
SAPA_FOGBAND
 10
-9.1499999999996362
 20
-77.499999999998636
 30
0.0
  0
VERTEX
  5
185E
  8
SAPA_FOGBAND
 10
-9.5080552462263768
 20
-77.608611420439274
 30
0.0
 42
0.4364998583843544
  0
VERTEX
  5
185F
  8
SAPA_FOGBAND
 10
-9.6364653360967623
 20
-77.872323429359994
 30
0.0
  0
VERTEX
  5
1860
  8
SAPA_FOGBAND
 10
-9.0976065426150399
 20
-79.261617146802564
 30
0.0
 42
0.3095538907669633
  0
VERTEX
  5
1861
  8
SAPA_FOGBAND
 10
-8.1652798621337297
 20
-79.899999999998727
 30
0.0
  0
VERTEX
  5
1862
  8
SAPA_FOGBAND
 10
-6.8347201378662703
 20
-79.899999999998499
 30
0.0
 42
0.309553890766963
  0
VERTEX
  5
1863
  8
SAPA_FOGBAND
 10
-5.9023934573849601
 20
-79.261617146803246
 30
0.0
  0
VERTEX
  5
1864
  8
SAPA_FOGBAND
 10
-5.3635346639043737
 20
-77.872323429359312
 30
0.0
 42
0.4364998583843053
  0
VERTEX
  5
1865
  8
SAPA_FOGBAND
 10
-5.4919447537747601
 20
-77.608611420439274
 30
0.0
  0
VERTEX
  5
1866
  8
SAPA_FOGBAND
 10
-5.8500000000003629
 20
-77.499999999998636
 30
0.0
  0
VERTEX
  5
1867
  8
SAPA_FOGBAND
 10
-5.8500000000003629
 20
-76.549999999998363
 30
0.0
 42
-0.4142135623730953
  0
VERTEX
  5
1868
  8
SAPA_FOGBAND
 10
-5.8000000000004093
 20
-76.499999999998408
 30
0.0
  0
VERTEX
  5
1869
  8
SAPA_FOGBAND
 10
5.8000000000004093
 20
-76.499999999998408
 30
0.0
 42
-0.4142135623730951
  0
VERTEX
  5
186A
  8
SAPA_FOGBAND
 10
5.8500000000003629
 20
-76.549999999998363
 30
0.0
  0
VERTEX
  5
186B
  8
SAPA_FOGBAND
 10
5.8500000000003629
 20
-77.499999999998636
 30
0.0
  0
VERTEX
  5
186C
  8
SAPA_FOGBAND
 10
5.4919447537747601
 20
-77.608611420439274
 30
0.0
 42
0.4364998583843054
  0
VERTEX
  5
186D
  8
SAPA_FOGBAND
 10
5.3635346639043737
 20
-77.872323429359994
 30
0.0
  0
VERTEX
  5
186E
  8
SAPA_FOGBAND
 10
5.9023934573849601
 20
-79.261617146802564
 30
0.0
 42
0.309553890766963
  0
VERTEX
  5
186F
  8
SAPA_FOGBAND
 10
6.8347201378662703
 20
-79.899999999998727
 30
0.0
  0
VERTEX
  5
1870
  8
SAPA_FOGBAND
 10
8.1652798621337297
 20
-79.899999999998499
 30
0.0
 42
0.3095538907669633
  0
VERTEX
  5
1871
  8
SAPA_FOGBAND
 10
9.0976065426150399
 20
-79.261617146803246
 30
0.0
  0
VERTEX
  5
1872
  8
SAPA_FOGBAND
 10
9.6364653360967623
 20
-77.872323429359312
 30
0.0
 42
0.4364998583843544
  0
VERTEX
  5
1873
  8
SAPA_FOGBAND
 10
9.5080552462263768
 20
-77.608611420439274
 30
0.0
  0
VERTEX
  5
1874
  8
SAPA_FOGBAND
 10
9.1499999999996362
 20
-77.499999999998636
 30
0.0
  0
VERTEX
  5
1875
  8
SAPA_FOGBAND
 10
9.1500000000003183
 20
-76.519999999997935
 30
0.0
 42
-0.4142135623730951
  0
VERTEX
  5
1876
  8
SAPA_FOGBAND
 10
9.1700000000003001
 20
-76.499999999998408
 30
0.0
  0
VERTEX
  5
1877
  8
SAPA_FOGBAND
 10
16.388026238211069
 20
-76.499999999998636
 30
0.0
 42
0.2608822022991486
  0
VERTEX
  5
1878
  8
SAPA_FOGBAND
 10
16.5585291107061
 20
-76.404540759852807
 30
0.0
  0
VERTEX
  5
1879
  8
SAPA_FOGBAND
 10
21.900000000000428
 20
-72.922817216677231
 30
0.0
 42
0.8497079118398893
  0
VERTEX
  5
187A
  8
SAPA_FOGBAND
 10
21.451788769294129
 20
-72.535874955167174
 30
0.0
  0
VERTEX
  5
187B
  8
SAPA_FOGBAND
 10
15.2741001893371
 20
-74.012665285346202
 30
0.0
  0
VERTEX
  5
187C
  8
SAPA_FOGBAND
 10
12.77909822842957
 20
-73.999999999998408
 30
0.0
  0
VERTEX
  5
187D
  8
SAPA_FOGBAND
 10
13.070897343000521
 20
-73.848341139642571
 30
0.0
 42
0.767326987978962
  0
VERTEX
  5
187E
  8
SAPA_FOGBAND
 10
12.596121451851779
 20
-73.515967214874763
 30
0.0
  0
VERTEX
  5
187F
  8
SAPA_FOGBAND
 10
11.00000000000022
 20
-73.999999999998408
 30
0.0
  0
VERTEX
  5
1880
  8
SAPA_FOGBAND
 10
8.6000000000001364
 20
-73.999999999998408
 30
0.0
  0
VERTEX
  5
1881
  8
SAPA_FOGBAND
 10
7.0038785481478953
 20
-73.515967214875204
 30
0.0
 42
0.7673269879789616
  0
VERTEX
  5
1882
  8
SAPA_FOGBAND
 10
6.5291026569991573
 20
-73.848341139642343
 30
0.0
  0
VERTEX
  5
1883
  8
SAPA_FOGBAND
 10
6.8209017715707878
 20
-73.999999999998408
 30
0.0
  0
VERTEX
  5
1884
  8
SAPA_FOGBAND
 10
3.3286724168056021
 20
-73.999999999998408
 30
0.0
 42
-0.2679491924311367
  0
VERTEX
  5
1885
  8
SAPA_FOGBAND
 10
3.1554673360487859
 20
-73.899999999998727
 30
0.0
  0
VERTEX
  5
1886
  8
SAPA_FOGBAND
 10
2.414891558349836
 20
-72.617285126167189
 30
0.0
 42
0.5773502691896298
  0
VERTEX
  5
1887
  8
SAPA_FOGBAND
 10
2.068481396835522
 20
-72.617285126168099
 30
0.0
  0
VERTEX
  5
1888
  8
SAPA_FOGBAND
 10
0.1732050807561336
 20
-75.899999999998954
 30
0.0
  0
VERTEX
  5
1889
  8
SAPA_FOGBAND
 10
0.0866025403786353
 20
-76.049999999998818
 30
0.0
 42
-0.5773502691896253
  0
VERTEX
  5
188A
  8
SAPA_FOGBAND
 10
-0.0866025403784079
 20
-76.049999999998818
 30
0.0
  0
VERTEX
  5
188B
  8
SAPA_FOGBAND
 10
-0.1732050807572705
 20
-75.899999999998954
 30
0.0
  0
VERTEX
  5
188C
  8
SAPA_FOGBAND
 10
-2.0684813968352951
 20
-72.617285126167189
 30
0.0
 42
0.5773502691896298
  0
VERTEX
  5
188D
  8
SAPA_FOGBAND
 10
-2.4148915583496091
 20
-72.617285126168099
 30
0.0
  0
VERTEX
  5
188E
  8
SAPA_FOGBAND
 10
-3.1554673360494681
 20
-73.899999999998499
 30
0.0
 42
-0.2679491924311367
  0
VERTEX
  5
188F
  8
SAPA_FOGBAND
 10
-3.3286724168056021
 20
-73.999999999998636
 30
0.0
  0
VERTEX
  5
1890
  8
SAPA_FOGBAND
 10
-6.8209017715707878
 20
-73.999999999998408
 30
0.0
  0
VERTEX
  5
1891
  8
SAPA_FOGBAND
 10
-6.5291026570002941
 20
-73.848341139642343
 30
0.0
 42
0.7673269879789616
  0
VERTEX
  5
1892
  8
SAPA_FOGBAND
 10
-7.0038785481478953
 20
-73.515967214874536
 30
0.0
  0
VERTEX
  5
1893
  8
SAPA_FOGBAND
 10
-8.6000000000001364
 20
-73.999999999998408
 30
0.0
  0
VERTEX
  5
1894
  8
SAPA_FOGBAND
 10
-11.00000000000022
 20
-73.999999999998408
 30
0.0
  0
VERTEX
  5
1895
  8
SAPA_FOGBAND
 10
-12.59612145185247
 20
-73.515967214874763
 30
0.0
 42
0.767326987978962
  0
VERTEX
  5
1896
  8
SAPA_FOGBAND
 10
-13.07089734300007
 20
-73.848341139641875
 30
0.0
  0
VERTEX
  5
1897
  8
SAPA_FOGBAND
 10
-12.77909822842957
 20
-73.999999999998408
 30
0.0
  0
VERTEX
  5
1898
  8
SAPA_FOGBAND
 10
-15.5754461958802
 20
-73.991785768350155
 30
0.0
  0
SEQEND
  5
1899
  8
SAPA_FOGBAND
  0
LINE
  5
FB6
  8
SAPA_FOGBAND
 10
2.4000000000003179
 20
-72.999999999998636
 30
0.0
 11
-2.5999999999996808
 21
-72.999999999998636
 31
0.0
  0
DIMENSION
  5
FBF
  8
SAPA_MATT
  2
*D76
 10
15.99999999999994
 20
-106.75055263264331
 30
0.0
 11
-0.000000000000086
 21
-104.25055263264331
 31
0.0
 70
     0
 13
-16.00000000000011
 23
-86.349999999999966
 33
0.0
 14
15.99999999999994
 24
-86.349999999999966
 34
0.0
1001
ACAD
1000
DSTYLE
1002
{
1070
    40
1040
1.0
1002
}
  0
DIMENSION
  5
FC0
  8
SAPA_MATT
  2
*D75
 10
59.956397458384117
 20
64.499999999999474
 30
0.0
 11
57.45639745838411
 21
69.499999999999488
 31
0.0
 70
     0
 13
40.0
 23
74.499999999999488
 33
0.0
 14
24.5
 24
64.499999999999488
 34
0.0
 50
90.0
1001
ACAD
1000
DSTYLE
1002
{
1070
   287
1070
     4
1070
    40
1040
1.0
1070
   279
1070
     1
1002
}
  0
DIMENSION
  5
FC1
  8
SAPA_MATT
  2
*D74
 10
59.956397458384117
 20
74.499999999999488
 30
0.0
 11
57.45639745838411
 21
99.499999999999517
 31
0.0
 70
     0
 13
40.0
 23
124.4999999999995
 33
0.0
 14
40.0
 24
74.499999999999488
 34
0.0
 50
90.0
1001
ACAD
1000
DSTYLE
1002
{
1070
    40
1040
1.0
1002
}
  0
DIMENSION
  5
FC2
  8
SAPA_MATT
  2
*D73
 10
41.0
 20
48.543591794723611
 30
0.0
 11
33.000000000000028
 21
51.043591794723611
 31
0.0
 70
     0
 13
25.00000000000005
 23
63.999999999999488
 33
0.0
 14
41.0
 24
75.499999999999531
 34
0.0
 50
180.0
1001
ACAD
1000
DSTYLE
1002
{
1070
    40
1040
1.0
1002
}
  0
VIEWPORT
  5
C4
 67
     1
  8
0
 10
143.06236603067589
 20
116.00969601843509
 30
0.0
 40
369.98580003443811
 41
256.8421457311839
 68
     1
 69
     1
1001
ACAD
1000
MVIEW
1002
{
1070
    16
1010
0.0
1020
0.0
1030
0.0
1010
0.0
1020
0.0
1030
1.0
1040
0.0
1040
256.8421457311839
1040
99.112914085388169
1040
143.07606935501099
1040
50.0
1040
0.0
1040
0.0
1070
     0
1070
     0
1070
     1
1070
     1
1070
     0
1070
     0
1070
     0
1070
     0
1040
0.0
1040
0.0
1040
0.0
1040
10.0
1040
10.0
1040
10.0
1040
10.0
1070
     0
1002
{
1002
}
1002
}
  0
ENDSEC
  0
EOF
