  0
SECTION
  2
HEADER
  9
$ACADVER
  1
AC1009
  9
$INSBASE
 10
0.0
 20
0.0
 30
0.0
  9
$EXTMIN
 10
-112.25055263264331
 20
-93.291214679413201
 30
0.0
  9
$EXTMAX
 10
142.15033018070471
 20
74.999999999999787
 30
0.0
  9
$LIMMIN
 10
0.0
 20
0.0
  9
$LIMMAX
 10
790.0
 20
790.0
  9
$ORTHOMODE
 70
     0
  9
$REGENMODE
 70
     1
  9
$FILLMODE
 70
     1
  9
$QTEXTMODE
 70
     0
  9
$MIRRTEXT
 70
     1
  9
$DRAGMODE
 70
     2
  9
$LTSCALE
 40
4.0
  9
$OSMODE
 70
   167
  9
$ATTMODE
 70
     1
  9
$TEXTSIZE
 40
3.5
  9
$TRACEWID
 40
0.05
  9
$TEXTSTYLE
  7
ISO
  9
$CLAYER
  8
0
  9
$CELTYPE
  6
BYLAYER
  9
$CECOLOR
 62
   256
  9
$DIMSCALE
 40
0.0
  9
$DIMASZ
 40
3.0
  9
$DIMEXO
 40
1.5
  9
$DIMDLI
 40
10.0
  9
$DIMRND
 40
0.0
  9
$DIMDLE
 40
0.0
  9
$DIMEXE
 40
1.5
  9
$DIMTP
 40
0.0
  9
$DIMTM
 40
0.0
  9
$DIMTXT
 40
3.0
  9
$DIMCEN
 40
-5.0
  9
$DIMTSZ
 40
0.0
  9
$DIMTOL
 70
     0
  9
$DIMLIM
 70
     0
  9
$DIMTIH
 70
     0
  9
$DIMTOH
 70
     0
  9
$DIMSE1
 70
     0
  9
$DIMSE2
 70
     0
  9
$DIMTAD
 70
     1
  9
$DIMZIN
 70
     8
  9
$DIMBLK
  1

  9
$DIMASO
 70
     1
  9
$DIMSHO
 70
     1
  9
$DIMPOST
  1

  9
$DIMAPOST
  1

  9
$DIMALT
 70
     0
  9
$DIMALTD
 70
     0
  9
$DIMALTF
 40
25.399999999999999
  9
$DIMLFAC
 40
-1.0
  9
$DIMTOFL
 70
     1
  9
$DIMTVP
 40
0.0
  9
$DIMTIX
 70
     0
  9
$DIMSOXD
 70
     0
  9
$DIMSAH
 70
     0
  9
$DIMBLK1
  1

  9
$DIMBLK2
  1

  9
$DIMSTYLE
  2
MASKIN
  9
$DIMCLRD
 70
   256
  9
$DIMCLRE
 70
   256
  9
$DIMCLRT
 70
     2
  9
$DIMTFAC
 40
1.0
  9
$DIMGAP
 40
1.0
  9
$LUNITS
 70
     2
  9
$LUPREC
 70
     8
  9
$SKETCHINC
 40
0.1
  9
$FILLETRAD
 40
0.0
  9
$AUNITS
 70
     0
  9
$AUPREC
 70
     8
  9
$MENU
  1
ACAD
  9
$ELEVATION
 40
0.0
  9
$PELEVATION
 40
0.0
  9
$THICKNESS
 40
0.0
  9
$LIMCHECK
 70
     0
  9
$BLIPMODE
 70
     0
  9
$CHAMFERA
 40
0.0
  9
$CHAMFERB
 40
0.0
  9
$SKPOLY
 70
     0
  9
$TDCREATE
 40
2454903.4914820492
  9
$TDUPDATE
 40
2456514.5537837958
  9
$TDINDWG
 40
0.0703462269
  9
$TDUSRTIMER
 40
0.0703462269
  9
$USRTIMER
 70
     1
  9
$ANGBASE
 50
0.0
  9
$ANGDIR
 70
     0
  9
$PDMODE
 70
     0
  9
$PDSIZE
 40
0.0
  9
$PLINEWID
 40
0.0
  9
$COORDS
 70
     1
  9
$SPLFRAME
 70
     0
  9
$SPLINETYPE
 70
     6
  9
$SPLINESEGS
 70
     8
  9
$ATTDIA
 70
     0
  9
$ATTREQ
 70
     1
  9
$HANDLING
 70
     1
  9
$HANDSEED
  5
1960
  9
$SURFTAB1
 70
     6
  9
$SURFTAB2
 70
     6
  9
$SURFTYPE
 70
     6
  9
$SURFU
 70
     6
  9
$SURFV
 70
     6
  9
$UCSNAME
  2

  9
$UCSORG
 10
0.0
 20
0.0
 30
0.0
  9
$UCSXDIR
 10
1.0
 20
0.0
 30
0.0
  9
$UCSYDIR
 10
0.0
 20
1.0
 30
0.0
  9
$PUCSNAME
  2

  9
$PUCSORG
 10
0.0
 20
0.0
 30
0.0
  9
$PUCSXDIR
 10
1.0
 20
0.0
 30
0.0
  9
$PUCSYDIR
 10
0.0
 20
1.0
 30
0.0
  9
$USERI1
 70
     0
  9
$USERI2
 70
     0
  9
$USERI3
 70
     0
  9
$USERI4
 70
     0
  9
$USERI5
 70
     0
  9
$USERR1
 40
0.0
  9
$USERR2
 40
0.0
  9
$USERR3
 40
0.0
  9
$USERR4
 40
0.0
  9
$USERR5
 40
0.0
  9
$WORLDVIEW
 70
     1
  9
$SHADEDGE
 70
     3
  9
$SHADEDIF
 70
    70
  9
$TILEMODE
 70
     1
  9
$MAXACTVP
 70
    16
  9
$PLIMCHECK
 70
     0
  9
$PEXTMIN
 10
1.0000000000000000E+020
 20
1.0000000000000000E+020
 30
1.0000000000000000E+020
  9
$PEXTMAX
 10
-1.0000000000000000E+020
 20
-1.0000000000000000E+020
 30
-1.0000000000000000E+020
  9
$PLIMMIN
 10
-5.069427490234375
 20
-5.8737497329711914
  9
$PLIMMAX
 10
291.89889526367187
 20
204.0995779037475
  9
$UNITMODE
 70
     0
  9
$VISRETAIN
 70
     1
  9
$PLINEGEN
 70
     0
  9
$PSLTSCALE
 70
     1
  0
ENDSEC
  0
SECTION
  2
TABLES
  0
TABLE
  2
VPORT
 70
     1
  0
VPORT
  2
*ACTIVE
 70
     0
 10
0.0
 20
0.0
 11
1.0
 21
1.0
 12
14.933342131824221
 22
14.306652171187419
 13
0.0
 23
0.0
 14
1.0
 24
1.0
 15
0.0
 25
0.0
 16
0.0
 26
0.0
 36
1.0
 17
0.0
 27
0.0
 37
0.0
 40
148.4597500727393
 41
2.754420432220039
 42
50.0
 43
0.0
 44
0.0
 50
0.0
 51
0.0
 71
     0
 72
   100
 73
     1
 74
     1
 75
     0
 76
     0
 77
     0
 78
     0
  0
ENDTAB
  0
TABLE
  2
LTYPE
 70
    14
  0
LTYPE
  2
CONTINUOUS
 70
     0
  3
Solid line
 72
    65
 73
     0
 40
0.0
  0
LTYPE
  2
BYGG-01473802$0$NEWDOT
 70
     0
  3
____ . ____ . ____ . ____ . ____ . ____ . ____
 72
    65
 73
     4
 40
2.0
 49
1.0
 49
-0.5
 49
0.0
 49
-0.5
  0
LTYPE
  2
BYGG-022120$0$NEWDOT
 70
     0
  3
____ . ____ . ____ . ____ . ____ . ____ . ____
 72
    65
 73
     4
 40
2.0
 49
1.0
 49
-0.5
 49
0.0
 49
-0.5
  0
LTYPE
  2
BYGG-022120$0$DASHDOT
 70
     0
  3
__ . __ . __ . __ . __ . __ . __ . __ . __ . __
 72
    65
 73
     4
 40
1.0
 49
0.5
 49
-0.25
 49
0.0
 49
-0.25
  0
LTYPE
  2
BYGG-022120$0$DASHED
 70
     0
  3
__ __ __ __ __ __ __ __ __ __ __ __ __ __ __
 72
    65
 73
     2
 40
0.75
 49
0.5
 49
-0.25
  0
LTYPE
  2
BYGG-022120$0$PHANTOM
 70
     0
  3
Phantom ______  __  __  ______  __  __  ______
 72
    65
 73
     6
 40
63.5
 49
31.75
 49
-6.3499999999999988
 49
6.3499999999999988
 49
-6.3499999999999988
 49
6.3499999999999988
 49
-6.3499999999999988
  0
LTYPE
  2
BYGG-01457801$0$NEWDOT
 70
     0
  3
____ . ____ . ____ . ____ . ____ . ____ . ____
 72
    65
 73
     4
 40
2.0
 49
1.0
 49
-0.5
 49
0.0
 49
-0.5
  0
LTYPE
  2
BYGG-014495$0$DASHDOT
 70
     0
  3
__ . __ . __ . __ . __ . __ . __ . __ . __ . __
 72
    65
 73
     4
 40
1.0
 49
0.5
 49
-0.25
 49
0.0
 49
-0.25
  0
LTYPE
  2
ACAD_ISO02W100
 70
     0
  3
ISO dash __ __ __ __ __ __ __ __ __ __ __ __ __
 72
    65
 73
     2
 40
15.0
 49
12.0
 49
-3.0
  0
LTYPE
  2
BYGG-01473802$0$ZIGZAG
 70
     0
  3
Zig zag /\/\/\/\/\/\/\/\/\/\/\/\/\/\/\/\/\/\/\/\/\/\/\/
 72
    65
 73
     4
 40
20.32254
 49
0.00254
 49
-5.0800000000000001
 49
-10.16
 49
-5.0800000000000001
  0
LTYPE
  2
BYGG-01457801$0$ZIGZAG
 70
     0
  3
Zig zag /\/\/\/\/\/\/\/\/\/\/\/\/\/\/\/\/\/\/\/\/\/\/\/
 72
    65
 73
     4
 40
20.32254
 49
0.00254
 49
-5.0800000000000001
 49
-10.16
 49
-5.0800000000000001
  0
LTYPE
  2
BYGG-014198$0$ZIGZAG
 70
     0
  3
Zig zag /\/\/\/\/\/\/\/\/\/\/\/\/\/\/\/\/\/\/\/\/\/\/\/
 72
    65
 73
     4
 40
20.32254
 49
0.00254
 49
-5.0800000000000001
 49
-10.16
 49
-5.0800000000000001
  0
LTYPE
  2
BYGG-014198$0$NEWDOT
 70
     0
  3
____ . ____ . ____ . ____ . ____ . ____ . ____
 72
    65
 73
     4
 40
2.0
 49
1.0
 49
-0.5
 49
0.0
 49
-0.5
  0
LTYPE
  2
BYGG-030159$0$NEWDOT
 70
     0
  3
____ . ____ . ____ . ____ . ____ . ____ . ____
 72
    65
 73
     4
 40
2.0
 49
1.0
 49
-0.5
 49
0.0
 49
-0.5
  0
ENDTAB
  0
TABLE
  2
LAYER
 70
    93
  0
LAYER
  2
0
 70
     0
 62
     7
  6
CONTINUOUS
  0
LAYER
  2
DEFPOINTS
 70
     0
 62
     7
  6
CONTINUOUS
  0
LAYER
  2
SAPA_ARTIKELNR
 70
     0
 62
     4
  6
CONTINUOUS
  0
LAYER
  2
SAPA_LIGHT
 70
     1
 62
     1
  6
CONTINUOUS
  0
LAYER
  2
SAPA_PROFIL
 70
     0
 62
     7
  6
CONTINUOUS
  0
LAYER
  2
SAPA_ANSLUTNING
 70
     0
 62
     6
  6
CONTINUOUS
  0
LAYER
  2
BYGG-023125$0$LIST
 70
     0
 62
     2
  6
CONTINUOUS
  0
LAYER
  2
SAPA_FYLLNING
 70
     0
 62
     4
  6
CONTINUOUS
  0
LAYER
  2
SAPA_MATT
 70
     0
 62
     1
  6
CONTINUOUS
  0
LAYER
  2
SAPA_GLAS
 70
     0
 62
     4
  6
CONTINUOUS
  0
LAYER
  2
SAPA_FOGBAND
 70
     0
 62
     2
  6
CONTINUOUS
  0
ENDTAB
  0
TABLE
  2
STYLE
 70
    31
  0
STYLE
  2
STANDARD
 70
     0
 40
0.0
 41
1.0
 50
0.0
 71
     0
 42
0.2
  3
txt
  4

  0
STYLE
  2
ISO
 70
     0
 40
0.0
 41
1.0
 50
0.0
 71
     0
 42
3.5
  3
txt
  4

  0
STYLE
  2

 70
     1
 40
0.0
 41
1.0
 50
0.0
 71
     0
 42
0.2
  3
ltypeshp.shx
  4

  0
STYLE
  2
BYGG-019441$0$STANDARD
 70
     0
 40
0.0
 41
1.0
 50
0.0
 71
     0
 42
0.2
  3
txt
  4

  0
STYLE
  2
BYGG-019441$0$ISO
 70
     0
 40
0.0
 41
1.0
 50
0.0
 71
     0
 42
3.5
  3
txt
  4

  0
STYLE
  2
BYGG-019441$0$ANNOTATIVE
 70
     0
 40
0.0
 41
1.0
 50
0.0
 71
     0
 42
0.2
  3
txt
  4

  0
STYLE
  2
BYGG-01473802$0$STANDARD
 70
     0
 40
0.0
 41
1.0
 50
0.0
 71
     0
 42
0.2
  3
txt
  4

  0
STYLE
  2
BYGG-01473802$0$ISO
 70
     0
 40
0.0
 41
1.0
 50
0.0
 71
     0
 42
2.5
  3
isocp3.shx
  4

  0
STYLE
  2
BYGG-019438$0$STANDARD
 70
     0
 40
0.0
 41
1.0
 50
0.0
 71
     0
 42
0.2
  3
txt
  4

  0
STYLE
  2
BYGG-019438$0$ISO
 70
     0
 40
0.0
 41
1.0
 50
0.0
 71
     0
 42
3.5
  3
txt
  4

  0
STYLE
  2
BYGG-022120$0$STANDARD
 70
     0
 40
0.0
 41
1.0
 50
0.0
 71
     0
 42
0.2
  3
txt
  4

  0
STYLE
  2
BYGG-022120$0$ISO
 70
     0
 40
0.0
 41
1.0
 50
0.0
 71
     0
 42
3.5
  3
txt
  4

  0
STYLE
  2
BYGG-01457801$0$STANDARD
 70
     0
 40
0.0
 41
1.0
 50
0.0
 71
     0
 42
0.2
  3
txt
  4

  0
STYLE
  2
BYGG-01457801$0$ISO
 70
     0
 40
0.0
 41
1.0
 50
0.0
 71
     0
 42
2.5
  3
isocp3.shx
  4

  0
STYLE
  2
BYGG-022709$0$STANDARD
 70
     0
 40
0.0
 41
1.0
 50
0.0
 71
     0
 42
0.2
  3
txt
  4

  0
STYLE
  2
BYGG-022709$0$ISO
 70
     0
 40
0.0
 41
1.0
 50
0.0
 71
     0
 42
3.5
  3
txt
  4

  0
STYLE
  2
BYGG-014198$0$STANDARD
 70
     0
 40
0.0
 41
1.0
 50
0.0
 71
     0
 42
0.2
  3
txt
  4

  0
STYLE
  2
BYGG-014198$0$ISO
 70
     0
 40
0.0
 41
1.0
 50
0.0
 71
     0
 42
3.5
  3
isocp3.shx
  4

  0
STYLE
  2
BYGG-023125$0$STANDARD
 70
     0
 40
0.0
 41
1.0
 50
0.0
 71
     0
 42
0.2
  3
txt
  4

  0
STYLE
  2
BYGG-023125$0$ISO
 70
     0
 40
0.0
 41
1.0
 50
0.0
 71
     0
 42
3.5
  3
txt
  4

  0
STYLE
  2
BYGG-014495$0$STANDARD
 70
     0
 40
0.0
 41
1.0
 50
0.0
 71
     0
 42
0.2
  3
txt
  4

  0
STYLE
  2
BYGG-014495$0$ISO
 70
     0
 40
0.0
 41
1.0
 50
0.0
 71
     0
 42
3.5
  3
isocp3.shx
  4

  0
STYLE
  2
BYGG-023163$0$STANDARD
 70
     0
 40
0.0
 41
1.0
 50
0.0
 71
     0
 42
0.2
  3
txt
  4

  0
STYLE
  2
BYGG-023163$0$ISO
 70
     0
 40
0.0
 41
1.0
 50
0.0
 71
     0
 42
3.5
  3
txt
  4

  0
STYLE
  2
BYGG-020272$0$STANDARD
 70
     0
 40
0.0
 41
1.0
 50
0.0
 71
     0
 42
0.2
  3
txt
  4

  0
STYLE
  2
BYGG-020272$0$ISO
 70
     0
 40
0.0
 41
1.0
 50
0.0
 71
     0
 42
3.5
  3
isocp3.shx
  4

  0
STYLE
  2
BYGG-014014$0$STANDARD
 70
     0
 40
0.0
 41
1.0
 50
0.0
 71
     0
 42
0.2
  3
txt
  4

  0
STYLE
  2
BYGG-030661$0$STANDARD
 70
     0
 40
0.0
 41
1.0
 50
0.0
 71
     0
 42
0.2
  3
txt
  4

  0
STYLE
  2
BYGG-030661$0$ISO
 70
     0
 40
0.0
 41
1.0
 50
0.0
 71
     0
 42
3.5
  3
txt
  4

  0
STYLE
  2
BYGG-030159$0$STANDARD
 70
     0
 40
0.0
 41
1.0
 50
0.0
 71
     0
 42
0.2
  3
txt
  4

  0
STYLE
  2
BYGG-030159$0$ISO
 70
     0
 40
0.0
 41
1.0
 50
0.0
 71
     0
 42
3.5
  3
txt
  4

  0
ENDTAB
  0
TABLE
  2
VIEW
 70
     0
  0
ENDTAB
  0
TABLE
  2
UCS
 70
     0
  0
ENDTAB
  0
TABLE
  2
APPID
 70
    21
  0
APPID
  2
ACAD
 70
     0
  0
APPID
  2
ACAD_DSTYLE_DIMTEXT_FILL
 70
     0
  0
APPID
  2
ACAD_DSTYLE_DIMEXT_LENGTH
 70
     0
  0
APPID
  2
ACAD_DSTYLE_DIMEXT_ENABLED
 70
     0
  0
APPID
  2
ACAD_DSTYLE_DIM_LINETYPE
 70
     0
  0
APPID
  2
ACAD_DSTYLE_DIM_EXT1_LINETYPE
 70
     0
  0
APPID
  2
ACAD_DSTYLE_DIM_EXT2_LINETYPE
 70
     0
  0
APPID
  2
ACAD_DSTYLE_DIMJOGGED_JOGA
 70
     0
  0
APPID
  2
ACAD_DSTYLE_DIMARC_LENGTH_
 70
     0
  0
APPID
  2
ACAD_PSEXT
 70
     0
  0
APPID
  2
ACAD_MLEADERVER
 70
     0
  0
APPID
  2
AME_SOL
 70
     0
  0
APPID
  2
DCO15
 70
     0
  0
APPID
  2
AMG_ARCHIVE11
 70
     0
  0
APPID
  2
ACAECLAYERSTANDARD
 70
     0
  0
APPID
  2
ACADANNOTATIVE
 70
     0
  0
APPID
  2
ACAD_EXEMPT_FROM_CAD_STANDARDS
 70
     0
  0
APPID
  2
ACAD_NAV_VCDISPLAY
 70
     0
  0
APPID
  2
AEC_XDATA_BOUND_SPACE
 70
     0
  0
APPID
  2
ACCMTRANSPARENCY
 70
     0
  0
APPID
  2
CONTENTBLOCKICON
 70
     0
  0
ENDTAB
  0
TABLE
  2
DIMSTYLE
 70
    29
  0
DIMSTYLE
  2
STANDARD
 70
     0
  3

  4

  5

  6

  7

 40
1.0
 41
0.18
 42
0.0625
 43
0.38
 44
0.18
 45
0.0
 46
0.0
 47
0.0
 48
0.0
140
0.18
141
0.09
142
0.0
143
25.399999999999999
144
1.0
145
0.0
146
1.0
147
0.09
 71
     0
 72
     0
 73
     1
 74
     1
 75
     0
 76
     0
 77
     0
 78
     0
170
     0
171
     2
172
     0
173
     0
174
     0
175
     0
176
     0
177
     0
178
     0
  0
DIMSTYLE
  2
MASKIN
 70
     0
  3

  4

  5

  6

  7

 40
0.0
 41
3.0
 42
1.5
 43
10.0
 44
1.5
 45
0.0
 46
0.0
 47
0.0
 48
0.0
140
3.0
141
-5.0
142
0.0
143
25.399999999999999
144
-1.0
145
0.0
146
1.0
147
1.0
 71
     0
 72
     0
 73
     0
 74
     0
 75
     0
 76
     0
 77
     1
 78
     8
170
     0
171
     0
172
     1
173
     0
174
     0
175
     0
176
   256
177
   256
178
     2
  0
DIMSTYLE
  2
BYGG-019441$0$STANDARD
 70
     0
  3

  4

  5

  6

  7

 40
1.0
 41
0.18
 42
0.0625
 43
0.38
 44
0.18
 45
0.0
 46
0.0
 47
0.0
 48
0.0
140
0.18
141
0.09
142
0.0
143
25.399999999999999
144
1.0
145
0.0
146
1.0
147
0.09
 71
     0
 72
     0
 73
     1
 74
     1
 75
     0
 76
     0
 77
     0
 78
     0
170
     0
171
     2
172
     0
173
     0
174
     0
175
     0
176
     0
177
     0
178
     0
  0
DIMSTYLE
  2
BYGG-019441$0$MASKIN
 70
     0
  3

  4

  5

  6

  7

 40
0.0
 41
3.0
 42
1.5
 43
10.0
 44
1.5
 45
0.0
 46
0.0
 47
0.0
 48
0.0
140
3.0
141
-5.0
142
0.0
143
25.399999999999999
144
-1.0
145
0.0
146
1.0
147
1.0
 71
     0
 72
     0
 73
     0
 74
     0
 75
     0
 76
     0
 77
     1
 78
     8
170
     0
171
     0
172
     1
173
     0
174
     0
175
     0
176
   256
177
   256
178
     2
  0
DIMSTYLE
  2
BYGG-019441$0$ANNOTATIVE
 70
     0
  3

  4

  5

  6

  7

 40
1.0
 41
0.18
 42
0.0625
 43
0.38
 44
0.18
 45
0.0
 46
0.0
 47
0.0
 48
0.0
140
0.18
141
0.09
142
0.0
143
25.399999999999999
144
1.0
145
0.0
146
1.0
147
0.09
 71
     0
 72
     0
 73
     1
 74
     1
 75
     0
 76
     0
 77
     0
 78
     0
170
     0
171
     2
172
     0
173
     0
174
     0
175
     0
176
     0
177
     0
178
     0
  0
DIMSTYLE
  2
BYGG-01473802$0$STANDARD
 70
     0
  3

  4

  5

  6

  7

 40
1.0
 41
0.18
 42
0.0625
 43
0.38
 44
0.18
 45
0.0
 46
0.0
 47
0.0
 48
0.0
140
0.18
141
0.09
142
0.0
143
25.399999999999999
144
1.0
145
0.0
146
1.0
147
0.09
 71
     0
 72
     0
 73
     1
 74
     1
 75
     0
 76
     0
 77
     0
 78
     0
170
     0
171
     2
172
     0
173
     0
174
     0
175
     0
176
     0
177
     0
178
     0
  0
DIMSTYLE
  2
BYGG-01473802$0$MASKIN
 70
     0
  3

  4

  5

  6

  7

 40
0.0
 41
3.0
 42
1.5
 43
10.0
 44
1.5
 45
0.0
 46
0.0
 47
0.0
 48
0.0
140
3.0
141
-5.0
142
0.0
143
25.399999999999999
144
-1.0
145
0.0
146
1.0
147
1.0
 71
     0
 72
     0
 73
     0
 74
     1
 75
     0
 76
     0
 77
     1
 78
     8
170
     0
171
     0
172
     1
173
     0
174
     0
175
     0
176
   256
177
   256
178
     2
  0
DIMSTYLE
  2
BYGG-019438$0$STANDARD
 70
     0
  3

  4

  5

  6

  7

 40
1.0
 41
0.18
 42
0.0625
 43
0.38
 44
0.18
 45
0.0
 46
0.0
 47
0.0
 48
0.0
140
0.18
141
0.09
142
0.0
143
25.399999999999999
144
1.0
145
0.0
146
1.0
147
0.09
 71
     0
 72
     0
 73
     1
 74
     1
 75
     0
 76
     0
 77
     0
 78
     0
170
     0
171
     2
172
     0
173
     0
174
     0
175
     0
176
     0
177
     0
178
     0
  0
DIMSTYLE
  2
BYGG-019438$0$MASKIN
 70
     0
  3

  4

  5

  6

  7

 40
0.0
 41
3.0
 42
1.5
 43
10.0
 44
1.5
 45
0.0
 46
0.0
 47
0.0
 48
0.0
140
3.0
141
-5.0
142
0.0
143
25.399999999999999
144
-1.0
145
0.0
146
1.0
147
1.0
 71
     0
 72
     0
 73
     0
 74
     0
 75
     0
 76
     0
 77
     1
 78
     8
170
     0
171
     0
172
     1
173
     0
174
     0
175
     0
176
   256
177
   256
178
     2
  0
DIMSTYLE
  2
BYGG-022120$0$STANDARD
 70
     0
  3

  4

  5

  6

  7

 40
1.0
 41
0.18
 42
0.0625
 43
0.38
 44
0.18
 45
0.0
 46
0.0
 47
0.0
 48
0.0
140
0.18
141
0.09
142
0.0
143
25.399999999999999
144
1.0
145
0.0
146
1.0
147
0.09
 71
     0
 72
     0
 73
     1
 74
     1
 75
     0
 76
     0
 77
     0
 78
     0
170
     0
171
     2
172
     0
173
     0
174
     0
175
     0
176
     0
177
     0
178
     0
  0
DIMSTYLE
  2
BYGG-022120$0$MASKIN
 70
     0
  3

  4

  5

  6

  7

 40
0.0
 41
3.0
 42
1.5
 43
10.0
 44
1.5
 45
0.0
 46
0.0
 47
0.0
 48
0.0
140
3.0
141
-5.0
142
0.0
143
25.399999999999999
144
-1.0
145
0.0
146
1.0
147
1.0
 71
     0
 72
     0
 73
     0
 74
     0
 75
     0
 76
     0
 77
     1
 78
     8
170
     0
171
     0
172
     1
173
     0
174
     0
175
     0
176
   256
177
   256
178
     2
  0
DIMSTYLE
  2
BYGG-01457801$0$STANDARD
 70
     0
  3

  4

  5

  6

  7

 40
1.0
 41
0.18
 42
0.0625
 43
0.38
 44
0.18
 45
0.0
 46
0.0
 47
0.0
 48
0.0
140
0.18
141
0.09
142
0.0
143
25.399999999999999
144
1.0
145
0.0
146
1.0
147
0.09
 71
     0
 72
     0
 73
     1
 74
     1
 75
     0
 76
     0
 77
     0
 78
     0
170
     0
171
     2
172
     0
173
     0
174
     0
175
     0
176
     0
177
     0
178
     0
  0
DIMSTYLE
  2
BYGG-01457801$0$MASKIN
 70
     0
  3

  4

  5

  6

  7

 40
0.0
 41
3.0
 42
1.5
 43
10.0
 44
1.5
 45
0.0
 46
0.0
 47
0.0
 48
0.0
140
3.0
141
-5.0
142
0.0
143
25.399999999999999
144
-1.0
145
0.0
146
1.0
147
1.0
 71
     0
 72
     0
 73
     0
 74
     1
 75
     0
 76
     0
 77
     1
 78
     8
170
     0
171
     0
172
     1
173
     0
174
     0
175
     0
176
   256
177
   256
178
     2
  0
DIMSTYLE
  2
BYGG-022709$0$STANDARD
 70
     0
  3

  4

  5

  6

  7

 40
1.0
 41
0.18
 42
0.0625
 43
0.38
 44
0.18
 45
0.0
 46
0.0
 47
0.0
 48
0.0
140
0.18
141
0.09
142
0.0
143
25.399999999999999
144
1.0
145
0.0
146
1.0
147
0.09
 71
     0
 72
     0
 73
     1
 74
     1
 75
     0
 76
     0
 77
     0
 78
     0
170
     0
171
     2
172
     0
173
     0
174
     0
175
     0
176
     0
177
     0
178
     0
  0
DIMSTYLE
  2
BYGG-022709$0$MASKIN
 70
     0
  3

  4

  5

  6

  7

 40
0.0
 41
3.0
 42
1.5
 43
10.0
 44
1.5
 45
0.0
 46
0.0
 47
0.0
 48
0.0
140
3.0
141
-5.0
142
0.0
143
25.399999999999999
144
-1.0
145
0.0
146
1.0
147
1.0
 71
     0
 72
     0
 73
     0
 74
     0
 75
     0
 76
     0
 77
     1
 78
     8
170
     0
171
     0
172
     1
173
     0
174
     0
175
     0
176
   256
177
   256
178
     2
  0
DIMSTYLE
  2
BYGG-014198$0$STANDARD
 70
     0
  3

  4

  5

  6

  7

 40
1.0
 41
0.18
 42
0.0625
 43
0.38
 44
0.18
 45
0.0
 46
0.0
 47
0.0
 48
0.0
140
0.18
141
0.09
142
0.0
143
25.399999999999999
144
1.0
145
0.0
146
1.0
147
0.09
 71
     0
 72
     0
 73
     1
 74
     1
 75
     0
 76
     0
 77
     0
 78
     0
170
     0
171
     2
172
     0
173
     0
174
     0
175
     0
176
     0
177
     0
178
     0
  0
DIMSTYLE
  2
BYGG-014198$0$MASKIN
 70
     0
  3

  4

  5

  6

  7

 40
0.0
 41
3.0
 42
1.5
 43
10.0
 44
1.5
 45
0.0
 46
0.0
 47
0.0
 48
0.0
140
3.0
141
-5.0
142
0.0
143
25.399999999999999
144
-1.0
145
0.0
146
1.0
147
1.0
 71
     0
 72
     0
 73
     0
 74
     0
 75
     0
 76
     0
 77
     1
 78
     8
170
     0
171
     0
172
     1
173
     0
174
     0
175
     0
176
   256
177
   256
178
   256
  0
DIMSTYLE
  2
BYGG-023125$0$STANDARD
 70
     0
  3

  4

  5

  6

  7

 40
1.0
 41
0.18
 42
0.0625
 43
0.38
 44
0.18
 45
0.0
 46
0.0
 47
0.0
 48
0.0
140
0.18
141
0.09
142
0.0
143
25.399999999999999
144
1.0
145
0.0
146
1.0
147
0.09
 71
     0
 72
     0
 73
     1
 74
     1
 75
     0
 76
     0
 77
     0
 78
     0
170
     0
171
     2
172
     0
173
     0
174
     0
175
     0
176
     0
177
     0
178
     0
  0
DIMSTYLE
  2
BYGG-023125$0$MASKIN
 70
     0
  3

  4

  5

  6

  7

 40
0.0
 41
3.0
 42
1.5
 43
10.0
 44
1.5
 45
0.0
 46
0.0
 47
0.0
 48
0.0
140
3.0
141
-5.0
142
0.0
143
25.399999999999999
144
-1.0
145
0.0
146
1.0
147
1.0
 71
     0
 72
     0
 73
     0
 74
     0
 75
     0
 76
     0
 77
     1
 78
     8
170
     0
171
     0
172
     1
173
     0
174
     0
175
     0
176
   256
177
   256
178
     2
  0
DIMSTYLE
  2
BYGG-014495$0$MASKIN
 70
     0
  3

  4

  5

  6

  7

 40
0.0
 41
3.0
 42
1.5
 43
10.0
 44
1.5
 45
0.0
 46
0.0
 47
0.0
 48
0.0
140
3.0
141
-5.0
142
0.0
143
25.399999999999999
144
-1.0
145
0.0
146
1.0
147
1.0
 71
     0
 72
     0
 73
     0
 74
     0
 75
     0
 76
     0
 77
     1
 78
     8
170
     0
171
     0
172
     1
173
     0
174
     0
175
     0
176
   256
177
   256
178
     2
  0
DIMSTYLE
  2
BYGG-023163$0$STANDARD
 70
     0
  3

  4

  5

  6

  7

 40
1.0
 41
0.18
 42
0.0625
 43
0.38
 44
0.18
 45
0.0
 46
0.0
 47
0.0
 48
0.0
140
0.18
141
0.09
142
0.0
143
25.399999999999999
144
1.0
145
0.0
146
1.0
147
0.09
 71
     0
 72
     0
 73
     1
 74
     1
 75
     0
 76
     0
 77
     0
 78
     0
170
     0
171
     2
172
     0
173
     0
174
     0
175
     0
176
     0
177
     0
178
     0
  0
DIMSTYLE
  2
BYGG-023163$0$MASKIN
 70
     0
  3

  4

  5

  6

  7

 40
0.0
 41
3.0
 42
1.5
 43
10.0
 44
1.5
 45
0.0
 46
0.0
 47
0.0
 48
0.0
140
3.0
141
-5.0
142
0.0
143
25.399999999999999
144
-1.0
145
0.0
146
1.0
147
1.0
 71
     0
 72
     0
 73
     0
 74
     0
 75
     0
 76
     0
 77
     1
 78
     8
170
     0
171
     0
172
     1
173
     0
174
     0
175
     0
176
   256
177
   256
178
     2
  0
DIMSTYLE
  2
BYGG-020272$0$STANDARD
 70
     0
  3

  4

  5

  6

  7

 40
1.0
 41
0.18
 42
0.0625
 43
0.38
 44
0.18
 45
0.0
 46
0.0
 47
0.0
 48
0.0
140
0.18
141
0.09
142
0.0
143
25.399999999999999
144
1.0
145
0.0
146
1.0
147
0.09
 71
     0
 72
     0
 73
     1
 74
     1
 75
     0
 76
     0
 77
     0
 78
     0
170
     0
171
     2
172
     0
173
     0
174
     0
175
     0
176
     0
177
     0
178
     0
  0
DIMSTYLE
  2
BYGG-020272$0$MASKIN
 70
     0
  3

  4

  5

  6

  7

 40
0.0
 41
3.0
 42
1.5
 43
10.0
 44
1.5
 45
0.0
 46
0.0
 47
0.0
 48
0.0
140
3.0
141
-5.0
142
0.0
143
25.399999999999999
144
-1.0
145
0.0
146
1.0
147
1.0
 71
     0
 72
     0
 73
     0
 74
     0
 75
     0
 76
     0
 77
     1
 78
     8
170
     0
171
     0
172
     1
173
     0
174
     0
175
     0
176
   256
177
   256
178
     2
  0
DIMSTYLE
  2
BYGG-014014$0$STANDARD
 70
     0
  3

  4

  5

  6

  7

 40
1.0
 41
0.18
 42
0.0625
 43
0.38
 44
0.18
 45
0.0
 46
0.0
 47
0.0
 48
0.0
140
0.18
141
0.09
142
0.0
143
25.399999999999999
144
1.0
145
0.0
146
1.0
147
0.09
 71
     0
 72
     0
 73
     1
 74
     1
 75
     0
 76
     0
 77
     0
 78
     0
170
     0
171
     2
172
     0
173
     0
174
     0
175
     0
176
     0
177
     0
178
     0
  0
DIMSTYLE
  2
BYGG-030661$0$STANDARD
 70
     0
  3

  4

  5

  6

  7

 40
1.0
 41
0.18
 42
0.0625
 43
0.38
 44
0.18
 45
0.0
 46
0.0
 47
0.0
 48
0.0
140
0.18
141
0.09
142
0.0
143
25.399999999999999
144
1.0
145
0.0
146
1.0
147
0.09
 71
     0
 72
     0
 73
     1
 74
     1
 75
     0
 76
     0
 77
     0
 78
     0
170
     0
171
     2
172
     0
173
     0
174
     0
175
     0
176
     0
177
     0
178
     0
  0
DIMSTYLE
  2
BYGG-030661$0$MASKIN
 70
     0
  3

  4

  5

  6

  7

 40
0.0
 41
3.0
 42
1.5
 43
10.0
 44
1.5
 45
0.0
 46
0.0
 47
0.0
 48
0.0
140
3.0
141
-5.0
142
0.0
143
25.399999999999999
144
-1.0
145
0.0
146
1.0
147
1.0
 71
     0
 72
     0
 73
     0
 74
     0
 75
     0
 76
     0
 77
     1
 78
     8
170
     0
171
     0
172
     1
173
     0
174
     0
175
     0
176
   256
177
   256
178
     2
  0
DIMSTYLE
  2
BYGG-030159$0$STANDARD
 70
     0
  3

  4

  5

  6

  7

 40
1.0
 41
0.18
 42
0.0625
 43
0.38
 44
0.18
 45
0.0
 46
0.0
 47
0.0
 48
0.0
140
0.18
141
0.09
142
0.0
143
25.399999999999999
144
1.0
145
0.0
146
1.0
147
0.09
 71
     0
 72
     0
 73
     1
 74
     1
 75
     0
 76
     0
 77
     0
 78
     0
170
     0
171
     2
172
     0
173
     0
174
     0
175
     0
176
     0
177
     0
178
     0
  0
DIMSTYLE
  2
BYGG-030159$0$MASKIN
 70
     0
  3

  4

  5

  6

  7

 40
0.0
 41
3.0
 42
1.5
 43
10.0
 44
1.5
 45
0.0
 46
0.0
 47
0.0
 48
0.0
140
3.0
141
-5.0
142
0.0
143
25.399999999999999
144
-1.0
145
0.0
146
1.0
147
1.0
 71
     0
 72
     0
 73
     0
 74
     0
 75
     0
 76
     0
 77
     1
 78
     8
170
     0
171
     0
172
     1
173
     0
174
     0
175
     0
176
   256
177
   256
178
     2
  0
ENDTAB
  0
ENDSEC
  0
SECTION
  2
BLOCKS
  0
BLOCK
  8
0
  2
$MODEL_SPACE
 70
     0
 10
0.0
 20
0.0
 30
0.0
  3
$MODEL_SPACE
  1

  0
ENDBLK
  5
37
  8
0
  0
BLOCK
 67
     1
  8
0
  2
$PAPER_SPACE
 70
     0
 10
0.0
 20
0.0
 30
0.0
  3
$PAPER_SPACE
  1

  0
ENDBLK
  5
35
 67
     1
  8
0
  0
BLOCK
  8
0
  2
BYGG-023125$0$BORST_9
 70
     0
 10
0.0
 20
0.0
 30
0.0
  3
BYGG-023125$0$BORST_9
  1

  0
POLYLINE
  5
DAE
  8
BYGG-023125$0$LIST
 66
     1
 10
0.0
 20
0.0
 30
0.0
 70
     1
  0
VERTEX
  5
11C0
  8
BYGG-023125$0$LIST
 10
32.117949192431162
 20
1.9000000000000901
 30
0.0
  0
VERTEX
  5
11C1
  8
BYGG-023125$0$LIST
 10
32.117949192431162
 20
2.7000000000000912
 30
0.0
  0
VERTEX
  5
11C2
  8
BYGG-023125$0$LIST
 10
25.417949192431159
 20
2.7000000000000912
 30
0.0
  0
VERTEX
  5
11C3
  8
BYGG-023125$0$LIST
 10
25.417949192431159
 20
1.9000000000000901
 30
0.0
  0
SEQEND
  5
11C4
  8
BYGG-023125$0$LIST
  0
POLYLINE
  5
DAF
  8
BYGG-023125$0$LIST
 66
     1
 10
0.0
 20
0.0
 30
0.0
  0
VERTEX
  5
11C5
  8
BYGG-023125$0$LIST
 10
28.263363943662679
 20
2.7000000000000912
 30
0.0
  0
VERTEX
  5
11C6
  8
BYGG-023125$0$LIST
 10
26.769574652555221
 20
10.03407417371101
 30
0.0
  0
SEQEND
  5
11C7
  8
BYGG-023125$0$LIST
  0
POLYLINE
  5
DB0
  8
BYGG-023125$0$LIST
 66
     1
 10
0.0
 20
0.0
 30
0.0
  0
VERTEX
  5
11C8
  8
BYGG-023125$0$LIST
 10
28.553855340273739
 20
2.7000000000000339
 30
0.0
  0
VERTEX
  5
11C9
  8
BYGG-023125$0$LIST
 10
27.93644453893258
 20
10.03407417371101
 30
0.0
  0
SEQEND
  5
11CA
  8
BYGG-023125$0$LIST
  0
POLYLINE
  5
DB1
  8
BYGG-023125$0$LIST
 66
     1
 10
0.0
 20
0.0
 30
0.0
  0
VERTEX
  5
11CB
  8
BYGG-023125$0$LIST
 10
29.012314217007489
 20
2.7000000000000339
 30
0.0
  0
VERTEX
  5
11CC
  8
BYGG-023125$0$LIST
 10
30.000741956894529
 20
10.03407417371101
 30
0.0
  0
SEQEND
  5
11CD
  8
BYGG-023125$0$LIST
  0
POLYLINE
  5
DB2
  8
BYGG-023125$0$LIST
 66
     1
 10
0.0
 20
0.0
 30
0.0
  0
VERTEX
  5
11CE
  8
BYGG-023125$0$LIST
 10
29.18507150798786
 20
2.7000000000000339
 30
0.0
  0
VERTEX
  5
11CF
  8
BYGG-023125$0$LIST
 10
30.980798090752462
 20
10.03407417371101
 30
0.0
  0
SEQEND
  5
11D0
  8
BYGG-023125$0$LIST
  0
LINE
  5
DB3
  8
0
 10
28.667949192431159
 20
10.03407417371101
 30
0.0
 11
28.867949192431169
 21
10.03407417371101
 31
0.0
  0
LINE
  5
DB4
  8
0
 10
28.867949192431158
 20
2.7000000000000912
 30
0.0
 11
28.867949192431169
 21
10.03407417371101
 31
0.0
  0
LINE
  5
DB5
  8
0
 10
28.667949192431159
 20
2.7000000000000912
 30
0.0
 11
28.667949192431159
 21
10.03407417371101
 31
0.0
  0
ENDBLK
  5
DB6
  8
0
  0
BLOCK
  8
0
  2
*D73
 70
     1
 10
0.0
 20
0.0
 30
0.0
  3
*D73
  1

  0
LINE
  5
1140
  8
SAPA_MATT
 10
64.200939698017763
 20
26.00000000000022
 30
0.0
 11
64.200939698017763
 21
44.04945547751047
 31
0.0
  0
LINE
  5
1141
  8
SAPA_MATT
 10
74.200939698017692
 20
1.1999999999999209
 30
0.0
 11
74.200939698017692
 21
44.04945547751047
 31
0.0
  0
LINE
  5
1142
  8
SAPA_MATT
 10
67.200939698017763
 20
42.549455477510477
 30
0.0
 11
71.200939698017692
 21
42.549455477510477
 31
0.0
  0
SOLID
  5
1143
  8
SAPA_MATT
 10
67.200939698017763
 20
43.049455477510477
 30
0.0
 11
67.200939698017763
 21
42.04945547751047
 31
0.0
 12
64.200939698017763
 22
42.549455477510477
 32
0.0
 13
64.200939698017763
 23
42.549455477510477
 33
0.0
  0
SOLID
  5
1144
  8
SAPA_MATT
 10
71.200939698017692
 20
43.049455477510477
 30
0.0
 11
71.200939698017692
 21
42.04945547751047
 31
0.0
 12
74.200939698017692
 22
42.549455477510477
 32
0.0
 13
74.200939698017692
 23
42.549455477510477
 33
0.0
  0
INSERT
  5
1145
  8
0
  2
*U84
 10
0.0
 20
0.0
 30
0.0
  0
POINT
  5
1146
  8
DEFPOINTS
 62
     0
 10
64.200939698017763
 20
24.50000000000022
 30
0.0
  0
POINT
  5
1147
  8
DEFPOINTS
 62
     0
 10
74.200939698017692
 20
-0.3000000000000789
 30
0.0
  0
POINT
  5
1148
  8
DEFPOINTS
 62
     0
 10
74.200939698017692
 20
42.549455477510477
 30
0.0
  0
ENDBLK
  5
110C
  8
0
  0
BLOCK
  8
0
  2
*D74
 70
     1
 10
0.0
 20
0.0
 30
0.0
  3
*D74
  1

  0
LINE
  5
194E
  8
SAPA_MATT
 10
74.200939698017692
 20
1.1999999999999209
 30
0.0
 11
74.200939698017692
 21
44.04945547751047
 31
0.0
  0
LINE
  5
194F
  8
SAPA_MATT
 10
124.20093969801771
 20
1.1999999999999209
 30
0.0
 11
124.20093969801771
 21
44.04945547751047
 31
0.0
  0
LINE
  5
1950
  8
SAPA_MATT
 10
77.200939698017692
 20
42.549455477510477
 30
0.0
 11
121.20093969801771
 21
42.549455477510477
 31
0.0
  0
SOLID
  5
1951
  8
SAPA_MATT
 10
77.200939698017692
 20
43.049455477510477
 30
0.0
 11
77.200939698017692
 21
42.04945547751047
 31
0.0
 12
74.200939698017692
 22
42.549455477510477
 32
0.0
 13
74.200939698017692
 23
42.549455477510477
 33
0.0
  0
SOLID
  5
1952
  8
SAPA_MATT
 10
121.20093969801771
 20
43.049455477510477
 30
0.0
 11
121.20093969801771
 21
42.04945547751047
 31
0.0
 12
124.20093969801771
 22
42.549455477510477
 32
0.0
 13
124.20093969801771
 23
42.549455477510477
 33
0.0
  0
TEXT
  8
SAPA_MATT
  40
3
  5
195F
  62
2
  72
0
  71
0
 10
93.2009
 20
39.7395
 30
0.000000
  1
50
  7
ISO
  0
POINT
  5
1954
  8
DEFPOINTS
 62
     0
 10
74.200939698017692
 20
-0.3000000000000789
 30
0.0
  0
POINT
  5
1955
  8
DEFPOINTS
 62
     0
 10
124.20093969801771
 20
-0.3000000000000789
 30
0.0
  0
POINT
  5
1956
  8
DEFPOINTS
 62
     0
 10
124.20093969801771
 20
42.549455477510477
 30
0.0
  0
ENDBLK
  5
1118
  8
0
  0
BLOCK
  8
0
  2
*D75
 70
     1
 10
0.0
 20
0.0
 30
0.0
  3
*D75
  1

  0
LINE
  5
112E
  8
SAPA_MATT
 10
-87.84999999999998
 20
16.000000000000131
 30
0.0
 11
-108.25055263264331
 21
16.000000000000131
 31
0.0
  0
LINE
  5
112F
  8
SAPA_MATT
 10
-87.84999999999998
 20
-15.999999999999931
 30
0.0
 11
-108.25055263264331
 21
-15.99999999999992
 31
0.0
  0
LINE
  5
1130
  8
SAPA_MATT
 10
-106.75055263264331
 20
13.00000000000013
 30
0.0
 11
-106.75055263264331
 21
-12.99999999999992
 31
0.0
  0
SOLID
  5
1131
  8
SAPA_MATT
 10
-107.25055263264331
 20
13.00000000000013
 30
0.0
 11
-106.25055263264331
 21
13.00000000000013
 31
0.0
 12
-106.75055263264331
 22
16.000000000000131
 32
0.0
 13
-106.75055263264331
 23
16.000000000000131
 33
0.0
  0
SOLID
  5
1132
  8
SAPA_MATT
 10
-107.25055263264331
 20
-12.99999999999992
 30
0.0
 11
-106.25055263264331
 21
-12.99999999999992
 31
0.0
 12
-106.75055263264331
 22
-15.99999999999992
 32
0.0
 13
-106.75055263264331
 23
-15.99999999999992
 33
0.0
  0
INSERT
  5
1133
  8
0
  2
*U83
 10
0.0
 20
0.0
 30
0.0
  0
POINT
  5
1134
  8
DEFPOINTS
 62
     0
 10
-86.34999999999998
 20
16.000000000000131
 30
0.0
  0
POINT
  5
1135
  8
DEFPOINTS
 62
     0
 10
-86.34999999999998
 20
-15.999999999999931
 30
0.0
  0
POINT
  5
1136
  8
DEFPOINTS
 62
     0
 10
-106.75055263264331
 20
-15.99999999999992
 30
0.0
  0
ENDBLK
  5
1124
  8
0
  0
BLOCK
  8
0
  2
*U76
 70
     1
 10
0.0
 20
0.0
 30
0.0
  3
*U76
  1

  0
TEXT
  5
1172
  8
SAPA_ARTIKELNR
 10
58.631956930834797
 20
-7.4905679408580896
 30
0.0
 40
3.5
  1
68292
 50
90.0
  7
ISO
  0
ENDBLK
  5
1174
  8
0
  0
BLOCK
  8
0
  2
*U77
 70
     1
 10
0.0
 20
0.0
 30
0.0
  3
*U77
  1

  0
TEXT
  5
118B
  8
SAPA_ARTIKELNR
 10
72.283157051711044
 20
-2.7833691968481591
 30
0.0
 40
3.5
  1
52070
 50
89.999999999999986
  7
ISO
  0
ENDBLK
  5
118D
  8
0
  0
BLOCK
  8
0
  2
*U78
 70
     1
 10
0.0
 20
0.0
 30
0.0
  3
*U78
  1

  0
TEXT
  5
118F
  8
SAPA_ARTIKELNR
 10
129.84011275317951
 20
-74.41055136779903
 30
0.0
 40
3.5
  1
42072
 50
89.999999999999986
  7
ISO
  0
ENDBLK
  5
1191
  8
0
  0
BLOCK
  8
0
  2
*U79
 70
     1
 10
0.0
 20
0.0
 30
0.0
  3
*U79
  1

  0
TEXT
  5
11B3
  8
SAPA_ARTIKELNR
 10
129.84011275317951
 20
-36.449508437535208
 30
0.0
 40
3.5
  1
68074
 50
89.999999999999986
  7
ISO
  0
ENDBLK
  5
11B5
  8
0
  0
BLOCK
  8
0
  2
*U80
 70
     1
 10
0.0
 20
0.0
 30
0.0
  3
*U80
  1

  0
TEXT
  5
11B7
  8
SAPA_ARTIKELNR
 10
-89.253876036123444
 20
-14.34386320596639
 30
0.0
 40
3.5
  1
42844/42863
 50
90.0
  7
ISO
  0
ENDBLK
  5
11B9
  8
0
  0
BLOCK
  8
0
  2
*X81
 70
     1
 10
0.0
 20
0.0
 30
0.0
  3
*X81
  1

  0
LINE
  5
16FD
  8
0
 62
     0
 10
66.279240471514925
 20
-25.868087926703751
 30
0.0
 11
64.911152544810975
 21
-24.499999999999801
 31
0.0
  0
LINE
  5
16FE
  8
0
 62
     0
 10
66.279240471514925
 20
-30.358215987238321
 30
0.0
 11
60.921024484275932
 21
-24.999999999999329
 31
0.0
  0
LINE
  5
16FF
  8
0
 62
     0
 10
66.058097691713485
 20
-34.627201267971472
 30
0.0
 11
56.430896423741409
 21
-24.999999999999378
 31
0.0
  0
LINE
  5
1700
  8
0
 62
     0
 10
61.940768363207852
 20
-35.000000000000398
 30
0.0
 11
51.940768363206892
 21
-24.999999999999432
 31
0.0
  0
LINE
  5
1701
  8
0
 62
     0
 10
57.450640302673257
 20
-35.000000000000391
 30
0.0
 11
47.450640302672348
 21
-24.999999999999481
 31
0.0
  0
LINE
  5
1702
  8
0
 62
     0
 10
52.960512242138691
 20
-35.000000000000391
 30
0.0
 11
42.960512242137817
 21
-24.999999999999531
 31
0.0
  0
LINE
  5
1703
  8
0
 62
     0
 10
48.470384181604118
 20
-35.000000000000398
 30
0.0
 11
38.470384181603301
 21
-24.999999999999581
 31
0.0
  0
LINE
  5
1704
  8
0
 62
     0
 10
43.98025612106953
 20
-35.000000000000391
 30
0.0
 11
33.980256121068777
 21
-24.999999999999631
 31
0.0
  0
LINE
  5
1705
  8
0
 62
     0
 10
39.49012806053495
 20
-35.000000000000391
 30
0.0
 11
29.490128060534239
 21
-24.99999999999967
 31
0.0
  0
LINE
  5
1706
  8
0
 62
     0
 10
35.000000000000369
 20
-35.000000000000377
 30
0.0
 11
24.999999999999719
 21
-24.999999999999719
 31
0.0
  0
LINE
  5
1707
  8
0
 62
     0
 10
30.509871939465789
 20
-35.000000000000362
 30
0.0
 11
20.509871939465182
 21
-24.999999999999769
 31
0.0
  0
LINE
  5
1708
  8
0
 62
     0
 10
26.019743878931209
 20
-35.000000000000369
 30
0.0
 11
16.019743878930662
 21
-24.999999999999819
 31
0.0
  0
LINE
  5
1709
  8
0
 62
     0
 10
21.529615818396628
 20
-35.000000000000369
 30
0.0
 11
11.529615818396129
 21
-24.999999999999869
 31
0.0
  0
LINE
  5
170A
  8
0
 62
     0
 10
17.039487757862052
 20
-35.000000000000369
 30
0.0
 11
7.0394877578616111
 21
-24.999999999999918
 31
0.0
  0
LINE
  5
170B
  8
0
 62
     0
 10
12.549359697327469
 20
-35.000000000000348
 30
0.0
 11
2.5493596973270778
 21
-24.999999999999961
 31
0.0
  0
LINE
  5
170C
  8
0
 62
     0
 10
8.0592316367928891
 20
-35.000000000000348
 30
0.0
 11
-1.9407683632074459
 21
-25.000000000000021
 31
0.0
  0
LINE
  5
170D
  8
0
 62
     0
 10
3.569103576258315
 20
-35.000000000000348
 30
0.0
 11
-6.4308964237419728
 21
-25.000000000000071
 31
0.0
  0
LINE
  5
170E
  8
0
 62
     0
 10
-0.9210244842762662
 20
-35.000000000000348
 30
0.0
 11
-10.921024484276501
 21
-25.00000000000011
 31
0.0
  0
LINE
  5
170F
  8
0
 62
     0
 10
-5.4111525448108386
 20
-35.000000000000348
 30
0.0
 11
-15.41115254481103
 21
-25.00000000000016
 31
0.0
  0
LINE
  5
1710
  8
0
 62
     0
 10
-9.9012806053454181
 20
-35.000000000000348
 30
0.0
 11
-19.901280605345558
 21
-25.00000000000021
 31
0.0
  0
LINE
  5
1711
  8
0
 62
     0
 10
-14.39140866587999
 20
-35.000000000000348
 30
0.0
 11
-25.434332879837481
 21
-23.957075786042861
 31
0.0
  0
LINE
  5
1712
  8
0
 62
     0
 10
-18.881536726414559
 20
-35.000000000000348
 30
0.0
 11
-29.094560508261431
 21
-24.78697621815348
 31
0.0
  0
LINE
  5
1713
  8
0
 62
     0
 10
-23.37166478694914
 20
-35.000000000000348
 30
0.0
 11
-33.433180616097552
 21
-24.93848417085195
 31
0.0
  0
LINE
  5
1714
  8
0
 62
     0
 10
-27.86179284748372
 20
-35.000000000000348
 30
0.0
 11
-37.908780686940013
 21
-24.953012160544059
 31
0.0
  0
LINE
  5
1715
  8
0
 62
     0
 10
-32.3519209080183
 20
-35.000000000000348
 30
0.0
 11
-42.398908747474579
 21
-24.953012160544059
 31
0.0
  0
LINE
  5
1716
  8
0
 62
     0
 10
-36.842048968552866
 20
-35.000000000000348
 30
0.0
 11
-46.889036808009152
 21
-24.953012160544059
 31
0.0
  0
LINE
  5
1717
  8
0
 62
     0
 10
-41.33217702908744
 20
-35.000000000000348
 30
0.0
 11
-51.379164868543732
 21
-24.953012160544059
 31
0.0
  0
LINE
  5
1718
  8
0
 62
     0
 10
-45.82230508962202
 20
-35.000000000000348
 30
0.0
 11
-55.869292929078298
 21
-24.953012160544059
 31
0.0
  0
LINE
  5
1719
  8
0
 62
     0
 10
-50.312433150156608
 20
-35.000000000000348
 30
0.0
 11
-60.359420989612893
 21
-24.953012160544059
 31
0.0
  0
LINE
  5
171A
  8
0
 62
     0
 10
-54.802561210691181
 20
-35.000000000000341
 30
0.0
 11
-64.849549050147473
 21
-24.953012160544059
 31
0.0
  0
LINE
  5
171B
  8
0
 62
     0
 10
-59.292689271225761
 20
-35.000000000000341
 30
0.0
 11
-69.339677110682047
 21
-24.953012160544059
 31
0.0
  0
LINE
  5
171C
  8
0
 62
     0
 10
-63.782817331760342
 20
-35.000000000000341
 30
0.0
 11
-70.499999999998636
 21
-28.28281733176204
 31
0.0
  0
LINE
  5
171D
  8
0
 62
     0
 10
-68.272945392294915
 20
-35.000000000000341
 30
0.0
 11
-70.499999999998636
 21
-32.77294539229662
 31
0.0
  0
LINE
  5
171E
  8
0
 62
     0
 10
63.782817331760342
 20
-35.000000000000341
 30
0.0
 11
66.279240471514925
 21
-32.503576860245772
 31
0.0
  0
LINE
  5
171F
  8
0
 62
     0
 10
59.292689271225747
 20
-35.000000000000348
 30
0.0
 11
66.279240471514925
 21
-28.013448799711181
 31
0.0
  0
LINE
  5
1720
  8
0
 62
     0
 10
54.802561210691181
 20
-35.000000000000348
 30
0.0
 11
65.302561210691749
 21
-24.49999999999979
 31
0.0
  0
LINE
  5
1721
  8
0
 62
     0
 10
50.312433150156608
 20
-35.000000000000348
 30
0.0
 11
60.312433150157609
 21
-24.999999999999339
 31
0.0
  0
LINE
  5
1722
  8
0
 62
     0
 10
45.822305089622027
 20
-35.000000000000341
 30
0.0
 11
55.822305089622979
 21
-24.999999999999389
 31
0.0
  0
LINE
  5
1723
  8
0
 62
     0
 10
41.33217702908744
 20
-35.000000000000348
 30
0.0
 11
51.332177029088371
 21
-24.999999999999439
 31
0.0
  0
LINE
  5
1724
  8
0
 62
     0
 10
36.842048968552881
 20
-35.000000000000348
 30
0.0
 11
46.84204896855374
 21
-24.999999999999481
 31
0.0
  0
LINE
  5
1725
  8
0
 62
     0
 10
32.3519209080183
 20
-35.000000000000348
 30
0.0
 11
42.35192090801911
 21
-24.999999999999542
 31
0.0
  0
LINE
  5
1726
  8
0
 62
     0
 10
27.86179284748372
 20
-35.000000000000348
 30
0.0
 11
37.861792847484487
 21
-24.999999999999581
 31
0.0
  0
LINE
  5
1727
  8
0
 62
     0
 10
23.37166478694914
 20
-35.000000000000348
 30
0.0
 11
33.371664786949871
 21
-24.999999999999631
 31
0.0
  0
LINE
  5
1728
  8
0
 62
     0
 10
18.881536726414549
 20
-35.000000000000362
 30
0.0
 11
28.881536726415241
 21
-24.99999999999968
 31
0.0
  0
LINE
  5
1729
  8
0
 62
     0
 10
14.391408665879981
 20
-35.000000000000362
 30
0.0
 11
24.391408665880611
 21
-24.99999999999973
 31
0.0
  0
LINE
  5
172A
  8
0
 62
     0
 10
9.9012806053454003
 20
-35.000000000000362
 30
0.0
 11
19.901280605345988
 21
-24.999999999999769
 31
0.0
  0
LINE
  5
172B
  8
0
 62
     0
 10
5.4111525448108209
 20
-35.000000000000362
 30
0.0
 11
15.41115254481136
 21
-24.999999999999819
 31
0.0
  0
LINE
  5
172C
  8
0
 62
     0
 10
0.9210244842762413
 20
-35.000000000000369
 30
0.0
 11
10.921024484276741
 21
-24.999999999999869
 31
0.0
  0
LINE
  5
172D
  8
0
 62
     0
 10
-3.5691035762583332
 20
-35.000000000000362
 30
0.0
 11
6.4308964237421238
 21
-24.999999999999911
 31
0.0
  0
LINE
  5
172E
  8
0
 62
     0
 10
-8.0592316367929087
 20
-35.000000000000362
 30
0.0
 11
1.9407683632074979
 21
-24.999999999999961
 31
0.0
  0
LINE
  5
172F
  8
0
 62
     0
 10
-12.54935969732748
 20
-35.000000000000362
 30
0.0
 11
-2.549359697327124
 21
-25.000000000000011
 31
0.0
  0
LINE
  5
1730
  8
0
 62
     0
 10
-17.039487757862052
 20
-35.000000000000348
 30
0.0
 11
-7.0394877578617443
 21
-25.00000000000005
 31
0.0
  0
LINE
  5
1731
  8
0
 62
     0
 10
-21.529615818396628
 20
-35.000000000000348
 30
0.0
 11
-11.52961581839636
 21
-25.000000000000089
 31
0.0
  0
LINE
  5
1732
  8
0
 62
     0
 10
-26.019743878931202
 20
-35.000000000000348
 30
0.0
 11
-16.019743878930989
 21
-25.000000000000139
 31
0.0
  0
LINE
  5
1733
  8
0
 62
     0
 10
-30.509871939465778
 20
-35.000000000000348
 30
0.0
 11
-20.509871939465619
 21
-25.000000000000188
 31
0.0
  0
LINE
  5
1734
  8
0
 62
     0
 10
-35.000000000000348
 20
-35.000000000000348
 30
0.0
 11
-22.90878109404515
 21
-22.90878109404515
 31
0.0
  0
LINE
  5
1735
  8
0
 62
     0
 10
-39.490128060534929
 20
-35.000000000000348
 30
0.0
 11
-29.283709507282499
 21
-24.793581446747918
 31
0.0
  0
LINE
  5
1736
  8
0
 62
     0
 10
-43.980256121069502
 20
-35.000000000000341
 30
0.0
 11
-33.936309955610852
 21
-24.956053834541692
 31
0.0
  0
LINE
  5
1737
  8
0
 62
     0
 10
-48.470384181604082
 20
-35.000000000000348
 30
0.0
 11
-38.423396342147797
 21
-24.95301216054407
 31
0.0
  0
LINE
  5
1738
  8
0
 62
     0
 10
-52.960512242138648
 20
-35.000000000000341
 30
0.0
 11
-42.91352440268237
 21
-24.953012160544059
 31
0.0
  0
LINE
  5
1739
  8
0
 62
     0
 10
-57.450640302673229
 20
-35.000000000000341
 30
0.0
 11
-47.40365246321695
 21
-24.953012160544059
 31
0.0
  0
LINE
  5
173A
  8
0
 62
     0
 10
-61.940768363207809
 20
-35.000000000000341
 30
0.0
 11
-51.893780523751524
 21
-24.953012160544059
 31
0.0
  0
LINE
  5
173B
  8
0
 62
     0
 10
-66.430896423742382
 20
-35.000000000000341
 30
0.0
 11
-56.383908584286097
 21
-24.953012160544059
 31
0.0
  0
LINE
  5
173C
  8
0
 62
     0
 10
-70.385556385812521
 20
-34.464531901535914
 30
0.0
 11
-60.87403664482067
 21
-24.953012160544059
 31
0.0
  0
LINE
  5
173D
  8
0
 62
     0
 10
-70.499999999998622
 20
-30.088847455187441
 30
0.0
 11
-65.36416470535525
 21
-24.953012160544059
 31
0.0
  0
LINE
  5
173E
  8
0
 62
     0
 10
-70.499999999998636
 20
-25.598719394652861
 30
0.0
 11
-69.854292765889824
 21
-24.953012160544059
 31
0.0
  0
ENDBLK
  5
1740
  8
0
  0
BLOCK
  8
0
  2
*X82
 70
     1
 10
0.0
 20
0.0
 30
0.0
  3
*X82
  1

  0
LINE
  5
1742
  8
0
 62
     0
 10
66.279240471514925
 20
-25.868087926703751
 30
0.0
 11
64.911152544810975
 21
-24.499999999999801
 31
0.0
  0
LINE
  5
1743
  8
0
 62
     0
 10
66.279240471514925
 20
-30.358215987238321
 30
0.0
 11
60.921024484275932
 21
-24.999999999999329
 31
0.0
  0
LINE
  5
1744
  8
0
 62
     0
 10
66.058097691713485
 20
-34.627201267971472
 30
0.0
 11
56.430896423741409
 21
-24.999999999999378
 31
0.0
  0
LINE
  5
1745
  8
0
 62
     0
 10
61.940768363207852
 20
-35.000000000000398
 30
0.0
 11
51.940768363206892
 21
-24.999999999999432
 31
0.0
  0
LINE
  5
1746
  8
0
 62
     0
 10
57.450640302673257
 20
-35.000000000000391
 30
0.0
 11
47.450640302672348
 21
-24.999999999999481
 31
0.0
  0
LINE
  5
1747
  8
0
 62
     0
 10
52.960512242138691
 20
-35.000000000000391
 30
0.0
 11
42.960512242137817
 21
-24.999999999999531
 31
0.0
  0
LINE
  5
1748
  8
0
 62
     0
 10
48.470384181604118
 20
-35.000000000000398
 30
0.0
 11
38.470384181603301
 21
-24.999999999999581
 31
0.0
  0
LINE
  5
1749
  8
0
 62
     0
 10
43.98025612106953
 20
-35.000000000000391
 30
0.0
 11
33.980256121068777
 21
-24.999999999999631
 31
0.0
  0
LINE
  5
174A
  8
0
 62
     0
 10
39.49012806053495
 20
-35.000000000000391
 30
0.0
 11
29.490128060534239
 21
-24.99999999999967
 31
0.0
  0
LINE
  5
174B
  8
0
 62
     0
 10
35.000000000000369
 20
-35.000000000000377
 30
0.0
 11
24.999999999999719
 21
-24.999999999999719
 31
0.0
  0
LINE
  5
174C
  8
0
 62
     0
 10
30.509871939465789
 20
-35.000000000000362
 30
0.0
 11
20.509871939465182
 21
-24.999999999999769
 31
0.0
  0
LINE
  5
174D
  8
0
 62
     0
 10
26.019743878931209
 20
-35.000000000000369
 30
0.0
 11
16.019743878930662
 21
-24.999999999999819
 31
0.0
  0
LINE
  5
174E
  8
0
 62
     0
 10
21.529615818396628
 20
-35.000000000000369
 30
0.0
 11
11.529615818396129
 21
-24.999999999999869
 31
0.0
  0
LINE
  5
174F
  8
0
 62
     0
 10
17.039487757862052
 20
-35.000000000000369
 30
0.0
 11
7.0394877578616111
 21
-24.999999999999918
 31
0.0
  0
LINE
  5
1750
  8
0
 62
     0
 10
12.549359697327469
 20
-35.000000000000348
 30
0.0
 11
2.5493596973270778
 21
-24.999999999999961
 31
0.0
  0
LINE
  5
1751
  8
0
 62
     0
 10
8.0592316367928891
 20
-35.000000000000348
 30
0.0
 11
-1.9407683632074459
 21
-25.000000000000021
 31
0.0
  0
LINE
  5
1752
  8
0
 62
     0
 10
3.569103576258315
 20
-35.000000000000348
 30
0.0
 11
-6.4308964237419728
 21
-25.000000000000071
 31
0.0
  0
LINE
  5
1753
  8
0
 62
     0
 10
-0.9210244842762662
 20
-35.000000000000348
 30
0.0
 11
-10.921024484276501
 21
-25.00000000000011
 31
0.0
  0
LINE
  5
1754
  8
0
 62
     0
 10
-5.4111525448108386
 20
-35.000000000000348
 30
0.0
 11
-15.41115254481103
 21
-25.00000000000016
 31
0.0
  0
LINE
  5
1755
  8
0
 62
     0
 10
-9.9012806053454181
 20
-35.000000000000348
 30
0.0
 11
-19.901280605345558
 21
-25.00000000000021
 31
0.0
  0
LINE
  5
1756
  8
0
 62
     0
 10
-14.39140866587999
 20
-35.000000000000348
 30
0.0
 11
-25.434332879837481
 21
-23.957075786042861
 31
0.0
  0
LINE
  5
1757
  8
0
 62
     0
 10
-18.881536726414559
 20
-35.000000000000348
 30
0.0
 11
-29.094560508261431
 21
-24.78697621815348
 31
0.0
  0
LINE
  5
1758
  8
0
 62
     0
 10
-23.37166478694914
 20
-35.000000000000348
 30
0.0
 11
-33.433180616097552
 21
-24.93848417085195
 31
0.0
  0
LINE
  5
1759
  8
0
 62
     0
 10
-27.86179284748372
 20
-35.000000000000348
 30
0.0
 11
-37.908780686940013
 21
-24.953012160544059
 31
0.0
  0
LINE
  5
175A
  8
0
 62
     0
 10
-32.3519209080183
 20
-35.000000000000348
 30
0.0
 11
-42.398908747474579
 21
-24.953012160544059
 31
0.0
  0
LINE
  5
175B
  8
0
 62
     0
 10
-36.842048968552866
 20
-35.000000000000348
 30
0.0
 11
-46.889036808009152
 21
-24.953012160544059
 31
0.0
  0
LINE
  5
175C
  8
0
 62
     0
 10
-41.33217702908744
 20
-35.000000000000348
 30
0.0
 11
-51.379164868543732
 21
-24.953012160544059
 31
0.0
  0
LINE
  5
175D
  8
0
 62
     0
 10
-45.82230508962202
 20
-35.000000000000348
 30
0.0
 11
-55.869292929078298
 21
-24.953012160544059
 31
0.0
  0
LINE
  5
175E
  8
0
 62
     0
 10
-50.312433150156608
 20
-35.000000000000348
 30
0.0
 11
-60.359420989612893
 21
-24.953012160544059
 31
0.0
  0
LINE
  5
175F
  8
0
 62
     0
 10
-54.802561210691181
 20
-35.000000000000341
 30
0.0
 11
-64.849549050147473
 21
-24.953012160544059
 31
0.0
  0
LINE
  5
1760
  8
0
 62
     0
 10
-59.292689271225761
 20
-35.000000000000341
 30
0.0
 11
-69.339677110682047
 21
-24.953012160544059
 31
0.0
  0
LINE
  5
1761
  8
0
 62
     0
 10
-63.782817331760342
 20
-35.000000000000341
 30
0.0
 11
-70.499999999998636
 21
-28.28281733176204
 31
0.0
  0
LINE
  5
1762
  8
0
 62
     0
 10
-68.272945392294915
 20
-35.000000000000341
 30
0.0
 11
-70.499999999998636
 21
-32.77294539229662
 31
0.0
  0
LINE
  5
1763
  8
0
 62
     0
 10
63.782817331760342
 20
-35.000000000000341
 30
0.0
 11
66.279240471514925
 21
-32.503576860245772
 31
0.0
  0
LINE
  5
1764
  8
0
 62
     0
 10
59.292689271225747
 20
-35.000000000000348
 30
0.0
 11
66.279240471514925
 21
-28.013448799711181
 31
0.0
  0
LINE
  5
1765
  8
0
 62
     0
 10
54.802561210691181
 20
-35.000000000000348
 30
0.0
 11
65.302561210691749
 21
-24.49999999999979
 31
0.0
  0
LINE
  5
1766
  8
0
 62
     0
 10
50.312433150156608
 20
-35.000000000000348
 30
0.0
 11
60.312433150157609
 21
-24.999999999999339
 31
0.0
  0
LINE
  5
1767
  8
0
 62
     0
 10
45.822305089622027
 20
-35.000000000000341
 30
0.0
 11
55.822305089622979
 21
-24.999999999999389
 31
0.0
  0
LINE
  5
1768
  8
0
 62
     0
 10
41.33217702908744
 20
-35.000000000000348
 30
0.0
 11
51.332177029088371
 21
-24.999999999999439
 31
0.0
  0
LINE
  5
1769
  8
0
 62
     0
 10
36.842048968552881
 20
-35.000000000000348
 30
0.0
 11
46.84204896855374
 21
-24.999999999999481
 31
0.0
  0
LINE
  5
176A
  8
0
 62
     0
 10
32.3519209080183
 20
-35.000000000000348
 30
0.0
 11
42.35192090801911
 21
-24.999999999999542
 31
0.0
  0
LINE
  5
176B
  8
0
 62
     0
 10
27.86179284748372
 20
-35.000000000000348
 30
0.0
 11
37.861792847484487
 21
-24.999999999999581
 31
0.0
  0
LINE
  5
176C
  8
0
 62
     0
 10
23.37166478694914
 20
-35.000000000000348
 30
0.0
 11
33.371664786949871
 21
-24.999999999999631
 31
0.0
  0
LINE
  5
176D
  8
0
 62
     0
 10
18.881536726414549
 20
-35.000000000000362
 30
0.0
 11
28.881536726415241
 21
-24.99999999999968
 31
0.0
  0
LINE
  5
176E
  8
0
 62
     0
 10
14.391408665879981
 20
-35.000000000000362
 30
0.0
 11
24.391408665880611
 21
-24.99999999999973
 31
0.0
  0
LINE
  5
176F
  8
0
 62
     0
 10
9.9012806053454003
 20
-35.000000000000362
 30
0.0
 11
19.901280605345988
 21
-24.999999999999769
 31
0.0
  0
LINE
  5
1770
  8
0
 62
     0
 10
5.4111525448108209
 20
-35.000000000000362
 30
0.0
 11
15.41115254481136
 21
-24.999999999999819
 31
0.0
  0
LINE
  5
1771
  8
0
 62
     0
 10
0.9210244842762413
 20
-35.000000000000369
 30
0.0
 11
10.921024484276741
 21
-24.999999999999869
 31
0.0
  0
LINE
  5
1772
  8
0
 62
     0
 10
-3.5691035762583332
 20
-35.000000000000362
 30
0.0
 11
6.4308964237421238
 21
-24.999999999999911
 31
0.0
  0
LINE
  5
1773
  8
0
 62
     0
 10
-8.0592316367929087
 20
-35.000000000000362
 30
0.0
 11
1.9407683632074979
 21
-24.999999999999961
 31
0.0
  0
LINE
  5
1774
  8
0
 62
     0
 10
-12.54935969732748
 20
-35.000000000000362
 30
0.0
 11
-2.549359697327124
 21
-25.000000000000011
 31
0.0
  0
LINE
  5
1775
  8
0
 62
     0
 10
-17.039487757862052
 20
-35.000000000000348
 30
0.0
 11
-7.0394877578617443
 21
-25.00000000000005
 31
0.0
  0
LINE
  5
1776
  8
0
 62
     0
 10
-21.529615818396628
 20
-35.000000000000348
 30
0.0
 11
-11.52961581839636
 21
-25.000000000000089
 31
0.0
  0
LINE
  5
1777
  8
0
 62
     0
 10
-26.019743878931202
 20
-35.000000000000348
 30
0.0
 11
-16.019743878930989
 21
-25.000000000000139
 31
0.0
  0
LINE
  5
1778
  8
0
 62
     0
 10
-30.509871939465778
 20
-35.000000000000348
 30
0.0
 11
-20.509871939465619
 21
-25.000000000000188
 31
0.0
  0
LINE
  5
1779
  8
0
 62
     0
 10
-35.000000000000348
 20
-35.000000000000348
 30
0.0
 11
-22.90878109404515
 21
-22.90878109404515
 31
0.0
  0
LINE
  5
177A
  8
0
 62
     0
 10
-39.490128060534929
 20
-35.000000000000348
 30
0.0
 11
-29.283709507282499
 21
-24.793581446747918
 31
0.0
  0
LINE
  5
177B
  8
0
 62
     0
 10
-43.980256121069502
 20
-35.000000000000341
 30
0.0
 11
-33.936309955610852
 21
-24.956053834541692
 31
0.0
  0
LINE
  5
177C
  8
0
 62
     0
 10
-48.470384181604082
 20
-35.000000000000348
 30
0.0
 11
-38.423396342147797
 21
-24.95301216054407
 31
0.0
  0
LINE
  5
177D
  8
0
 62
     0
 10
-52.960512242138648
 20
-35.000000000000341
 30
0.0
 11
-42.91352440268237
 21
-24.953012160544059
 31
0.0
  0
LINE
  5
177E
  8
0
 62
     0
 10
-57.450640302673229
 20
-35.000000000000341
 30
0.0
 11
-47.40365246321695
 21
-24.953012160544059
 31
0.0
  0
LINE
  5
177F
  8
0
 62
     0
 10
-61.940768363207809
 20
-35.000000000000341
 30
0.0
 11
-51.893780523751524
 21
-24.953012160544059
 31
0.0
  0
LINE
  5
1780
  8
0
 62
     0
 10
-66.430896423742382
 20
-35.000000000000341
 30
0.0
 11
-56.383908584286097
 21
-24.953012160544059
 31
0.0
  0
LINE
  5
1781
  8
0
 62
     0
 10
-70.385556385812521
 20
-34.464531901535914
 30
0.0
 11
-60.87403664482067
 21
-24.953012160544059
 31
0.0
  0
LINE
  5
1782
  8
0
 62
     0
 10
-70.499999999998622
 20
-30.088847455187441
 30
0.0
 11
-65.36416470535525
 21
-24.953012160544059
 31
0.0
  0
LINE
  5
1783
  8
0
 62
     0
 10
-70.499999999998636
 20
-25.598719394652861
 30
0.0
 11
-69.854292765889824
 21
-24.953012160544059
 31
0.0
  0
ENDBLK
  5
1785
  8
0
  0
BLOCK
  8
0
  2
*U83
 70
     1
 10
0.0
 20
0.0
 30
0.0
  3
*U83
  1

  0
TEXT
  5
1958
  8
SAPA_MATT
 62
     2
 10
-107.75055263264331
 20
-2.0999999999999108
 30
0.0
 40
3.0
  1
32
 50
90.0
  7
ISO
  0
ENDBLK
  5
195A
  8
0
  0
BLOCK
  8
0
  2
*U84
 70
     1
 10
0.0
 20
0.0
 30
0.0
  3
*U84
  1

  0
TEXT
  5
195C
  8
SAPA_MATT
 62
     2
 10
67.400939698017723
 20
43.54945547751047
 30
0.0
 40
3.0
  1
10
  7
ISO
  0
ENDBLK
  5
195E
  8
0
  0
ENDSEC
  0
SECTION
  2
ENTITIES
  0
LINE
  5
6AA
  8
SAPA_PROFIL
 10
64.200939698017464
 20
24.999999999999709
 30
0.0
 11
64.200939698018033
 21
-24.999999999999272
 31
0.0
1001
ACAD
1000
ASC_BOUNDS
1002
{
1070
    19
1005
10C7
1002
}
  0
INSERT
  5
6D0
  8
0
  2
*U76
 10
0.0
 20
0.0
 30
0.0
  0
POLYLINE
  5
703
  8
SAPA_LIGHT
 66
     1
 10
0.0
 20
0.0
 30
0.0
  0
VERTEX
  5
1175
  8
SAPA_LIGHT
 10
-72.499999999998664
 20
50.999999999999758
 30
0.0
  0
VERTEX
  5
1176
  8
SAPA_LIGHT
 10
-72.499999999998622
 20
10.99999999999976
 30
0.0
  0
VERTEX
  5
1177
  8
SAPA_LIGHT
 10
-45.499999999998629
 20
10.99999999999976
 30
0.0
  0
VERTEX
  5
1178
  8
SAPA_LIGHT
 10
-45.499999999996952
 20
50.999999999999758
 30
0.0
  0
SEQEND
  5
1179
  8
SAPA_LIGHT
  0
POLYLINE
  5
7F8
  8
SAPA_ANSLUTNING
 66
     1
 10
0.0
 20
0.0
 30
0.0
 70
     1
1001
ACAD
1000
ASC_BOUNDS
1002
{
1070
    19
1005
10C7
1002
}
  0
VERTEX
  5
117A
  8
SAPA_ANSLUTNING
 10
-70.499999999998636
 20
-24.953012160544059
 30
0.0
  0
VERTEX
  5
117B
  8
SAPA_ANSLUTNING
 10
-35.499999999999538
 20
-24.95301216054407
 30
0.0
  0
VERTEX
  5
117C
  8
SAPA_ANSLUTNING
 10
-35.499999999999538
 20
-5.8453509327481514
 30
0.0
  0
VERTEX
  5
117D
  8
SAPA_ANSLUTNING
 10
-70.499999999998636
 20
-5.8453509327481452
 30
0.0
  0
SEQEND
  5
117E
  8
SAPA_ANSLUTNING
  0
POLYLINE
  5
7F9
  8
SAPA_ANSLUTNING
 66
     1
 10
0.0
 20
0.0
 30
0.0
  0
VERTEX
  5
117F
  8
SAPA_ANSLUTNING
 10
-70.499999999998636
 20
-24.953012160544059
 30
0.0
  0
VERTEX
  5
1180
  8
SAPA_ANSLUTNING
 10
-35.499999999999538
 20
-5.8453509327481514
 30
0.0
  0
VERTEX
  5
1181
  8
SAPA_ANSLUTNING
 10
-70.499999999998636
 20
-5.8453509327481452
 30
0.0
  0
VERTEX
  5
1182
  8
SAPA_ANSLUTNING
 10
-35.499999999999538
 20
-24.95301216054407
 30
0.0
  0
SEQEND
  5
1183
  8
SAPA_ANSLUTNING
  0
POLYLINE
  5
7FA
  8
SAPA_ANSLUTNING
 66
     1
 10
0.0
 20
0.0
 30
0.0
1001
ACAD
1000
ASC_BOUNDS
1002
{
1070
    19
1005
10C7
1002
}
  0
VERTEX
  5
1184
  8
SAPA_ANSLUTNING
 10
64.200939698017763
 20
-24.499999999999801
 30
0.0
  0
VERTEX
  5
1185
  8
SAPA_ANSLUTNING
 10
66.279240471514925
 20
-24.499999999999801
 30
0.0
  0
VERTEX
  5
1186
  8
SAPA_ANSLUTNING
 10
66.279240471514925
 20
-15.830711116164389
 30
0.0
  0
VERTEX
  5
1187
  8
SAPA_ANSLUTNING
 10
64.200939698017748
 20
-15.830711116164389
 30
0.0
  0
VERTEX
  5
1188
  8
SAPA_ANSLUTNING
 10
64.200939698017692
 20
-24.499999999999801
 30
0.0
  0
SEQEND
  5
1189
  8
SAPA_ANSLUTNING
  0
INSERT
  5
7FD
  8
0
  2
*U77
 10
0.0
 20
0.0
 30
0.0
  0
INSERT
  5
7FE
  8
0
  2
*U78
 10
0.0
 20
0.0
 30
0.0
  0
LINE
  5
82C
  8
SAPA_PROFIL
 10
64.200939698017464
 20
24.999999999999709
 30
0.0
 11
62.000000000000512
 21
24.999999999999659
 31
0.0
  0
LINE
  5
82D
  8
SAPA_PROFIL
 10
62.000000000000462
 20
-24.999999999999321
 30
0.0
 11
64.200939698018033
 21
-24.999999999999289
 31
0.0
1001
ACAD
1000
ASC_BOUNDS
1002
{
1070
    19
1005
10C7
1002
}
  0
POLYLINE
  5
9B0
  8
SAPA_LIGHT
 66
     1
 10
0.0
 20
0.0
 30
0.0
 70
     1
  0
VERTEX
  5
1192
  8
SAPA_LIGHT
 10
-72.499999999998622
 20
-16.00000000000038
 30
0.0
  0
VERTEX
  5
1193
  8
SAPA_LIGHT
 10
-72.499999999998607
 20
-37.000000000000348
 30
0.0
  0
VERTEX
  5
1194
  8
SAPA_LIGHT
 10
68.279240471514925
 20
-37.000000000000341
 30
0.0
  0
VERTEX
  5
1195
  8
SAPA_LIGHT
 10
68.279240471514939
 20
25.000000000000671
 30
0.0
  0
VERTEX
  5
1196
  8
SAPA_LIGHT
 10
-45.499999999998629
 20
25.000000000000679
 30
0.0
  0
VERTEX
  5
1197
  8
SAPA_LIGHT
 10
-45.499999999998629
 20
5.0000000000003473
 30
0.0
  0
VERTEX
  5
1198
  8
SAPA_LIGHT
 10
-72.499999999999659
 20
5.0000000000003428
 30
0.0
  0
VERTEX
  5
1199
  8
SAPA_LIGHT
 10
-72.499999999998636
 20
16.000000000000071
 30
0.0
  0
VERTEX
  5
119A
  8
SAPA_LIGHT
 10
-77.292893218811628
 20
16.000000000000071
 30
0.0
  0
VERTEX
  5
119B
  8
SAPA_LIGHT
 10
-77.646446609404848
 20
15.853553390593291
 30
0.0
  0
VERTEX
  5
119C
  8
SAPA_LIGHT
 10
-86.207106781184976
 20
7.2928932188136333
 30
0.0
  0
VERTEX
  5
119D
  8
SAPA_LIGHT
 10
-86.499999999998394
 20
6.58578643762708
 30
0.0
  0
VERTEX
  5
119E
  8
SAPA_LIGHT
 10
-86.499999999998394
 20
-6.5857864376264788
 30
0.0
  0
VERTEX
  5
119F
  8
SAPA_LIGHT
 10
-86.207106781184976
 20
-7.2928932188130506
 30
0.0
  0
VERTEX
  5
11A0
  8
SAPA_LIGHT
 10
-77.64644660940462
 20
-15.85355339059315
 30
0.0
  0
VERTEX
  5
11A1
  8
SAPA_LIGHT
 10
-77.292893218811855
 20
-15.999999999999931
 30
0.0
  0
SEQEND
  5
11A2
  8
SAPA_LIGHT
  0
POLYLINE
  5
9B1
  8
SAPA_LIGHT
 66
     1
 10
0.0
 20
0.0
 30
0.0
  0
VERTEX
  5
11A3
  8
SAPA_LIGHT
 10
74.200939698017748
 20
-0.0000000000001137
 30
0.0
  0
VERTEX
  5
11A4
  8
SAPA_LIGHT
 10
124.20093969801781
 20
-0.0000000000001137
 30
0.0
  0
VERTEX
  5
11A5
  8
SAPA_LIGHT
 10
124.20093969801781
 20
-78.000000000000114
 30
0.0
  0
VERTEX
  5
11A6
  8
SAPA_LIGHT
 10
106.6009396980176
 20
-77.999999999999972
 30
0.0
  0
VERTEX
  5
11A7
  8
SAPA_LIGHT
 10
106.6009396980176
 20
-55.800000000000068
 30
0.0
  0
VERTEX
  5
11A8
  8
SAPA_LIGHT
 10
82.600939698017768
 20
-55.800000000000082
 30
0.0
  0
VERTEX
  5
11A9
  8
SAPA_LIGHT
 10
82.600939698017683
 20
-78.000000000000114
 30
0.0
  0
VERTEX
  5
11AA
  8
SAPA_LIGHT
 10
74.200939698017805
 20
-78.000000000000114
 30
0.0
  0
VERTEX
  5
11AB
  8
SAPA_LIGHT
 10
74.200939698017748
 20
-0.0000000000001137
 30
0.0
  0
SEQEND
  5
11AC
  8
SAPA_LIGHT
  0
POLYLINE
  5
9B2
  8
SAPA_LIGHT
 66
     1
 10
0.0
 20
0.0
 30
0.0
  0
VERTEX
  5
11AD
  8
SAPA_LIGHT
 10
82.600939698017768
 20
-89.800000000000026
 30
0.0
  0
VERTEX
  5
11AE
  8
SAPA_LIGHT
 10
82.600939698017797
 20
-61.000000000000249
 30
0.0
  0
VERTEX
  5
11AF
  8
SAPA_LIGHT
 10
106.6009396980176
 20
-61.000000000000249
 30
0.0
  0
VERTEX
  5
11B0
  8
SAPA_LIGHT
 10
106.6009396980175
 20
-89.800000000000026
 30
0.0
  0
SEQEND
  5
11B1
  8
SAPA_LIGHT
  0
INSERT
  5
9B3
  8
0
  2
*U79
 10
0.0
 20
0.0
 30
0.0
  0
INSERT
  5
A8B
  8
0
  2
*U80
 10
0.0
 20
0.0
 30
0.0
  0
LINE
  5
EE1
  8
SAPA_PROFIL
 10
68.279240471514925
 20
-15.00000000000059
 30
0.0
 11
66.279240471514925
 21
-15.00000000000059
 31
0.0
  0
LINE
  5
EE2
  8
SAPA_PROFIL
 10
66.279240471514925
 20
-15.00000000000059
 30
0.0
 11
66.279240471514925
 21
-34.000000000000369
 31
0.0
  0
ARC
  5
EE3
  8
SAPA_PROFIL
 10
65.279240471514925
 20
-34.000000000000369
 30
0.0
 40
1.0
 50
270.0
 51
0.0
  0
LINE
  5
EE4
  8
SAPA_PROFIL
 10
65.279240471514925
 20
-35.000000000000369
 30
0.0
 11
-69.499999999998636
 21
-35.000000000000341
 31
0.0
  0
ARC
  5
EE5
  8
SAPA_PROFIL
 10
-69.499999999998636
 20
-34.000000000000341
 30
0.0
 40
1.0
 50
180.0
 51
270.0
  0
LINE
  5
EE6
  8
SAPA_PROFIL
 10
-70.499999999998636
 20
-34.000000000000341
 30
0.0
 11
-70.499999999998636
 21
-7.3413678820457982
 31
0.0
  0
LINE
  5
EE7
  8
SAPA_PROFIL
 10
-70.499999999998636
 20
-7.3413678820457982
 30
0.0
 11
-72.499999999998636
 21
-7.3413678820457973
 31
0.0
  0
LINE
  5
EE8
  8
SAPA_PROFIL
 10
-72.499999999998636
 20
-7.3413678820457973
 30
0.0
 11
-72.499999999998636
 21
-36.000000000000341
 31
0.0
  0
ARC
  5
EE9
  8
SAPA_PROFIL
 10
-71.499999999998636
 20
-36.000000000000341
 30
0.0
 40
1.0
 50
180.0
 51
270.0
  0
LINE
  5
EEA
  8
SAPA_PROFIL
 10
-71.499999999998636
 20
-37.000000000000348
 30
0.0
 11
66.279240471514925
 21
-37.000000000000689
 31
0.0
  0
ARC
  5
EEB
  8
SAPA_PROFIL
 10
66.279240471514882
 20
-35.000000000000639
 30
0.0
 40
2.0000000000000422
 50
270.00000000000119
 51
0.0000000000012213
  0
LINE
  5
EEC
  8
SAPA_PROFIL
 10
68.279240471514925
 20
-35.000000000000597
 30
0.0
 11
68.279240471514925
 21
-15.00000000000059
 31
0.0
  0
LINE
  5
EED
  8
SAPA_PROFIL
  6
ACAD_ISO02W100
 10
12.50000000000049
 20
24.99999999999979
 30
0.0
 11
62.50000000000049
 21
24.99999999999979
 31
0.0
  0
LINE
  5
EEE
  8
SAPA_PROFIL
  6
ACAD_ISO02W100
 10
62.50000000000049
 20
24.99999999999979
 30
0.0
 11
62.50000000000049
 21
74.999999999999787
 31
0.0
  0
LINE
  5
EEF
  8
SAPA_PROFIL
  6
ACAD_ISO02W100
 10
62.50000000000049
 20
74.999999999999787
 30
0.0
 11
57.50000000000049
 21
74.999999999999787
 31
0.0
  0
LINE
  5
EF0
  8
SAPA_PROFIL
  6
ACAD_ISO02W100
 10
57.50000000000049
 20
74.999999999999787
 30
0.0
 11
57.50000000000049
 21
29.99999999999979
 31
0.0
  0
LINE
  5
EF1
  8
SAPA_PROFIL
  6
ACAD_ISO02W100
 10
57.50000000000049
 20
29.99999999999979
 30
0.0
 11
12.50000000000049
 21
29.99999999999979
 31
0.0
  0
LINE
  5
EF2
  8
SAPA_PROFIL
  6
ACAD_ISO02W100
 10
12.50000000000049
 20
29.99999999999979
 30
0.0
 11
12.50000000000049
 21
24.99999999999979
 31
0.0
  0
POLYLINE
  5
1068
  8
SAPA_PROFIL
 66
     1
 10
0.0
 20
0.0
 30
0.0
 70
     1
  0
VERTEX
  5
145C
  8
SAPA_PROFIL
 10
-79.262132034007521
 20
-13.28970782241519
 30
0.0
 42
0.1989123678065343
  0
VERTEX
  5
145D
  8
SAPA_PROFIL
 10
-79.34999999999998
 20
-13.501839857119601
 30
0.0
  0
VERTEX
  5
145E
  8
SAPA_PROFIL
 10
-79.34999999999998
 20
-14.60000000000001
 30
0.0
 42
-0.4142135623730951
  0
VERTEX
  5
145F
  8
SAPA_PROFIL
 10
-79.649999999999991
 20
-14.900000000000009
 30
0.0
  0
VERTEX
  5
1460
  8
SAPA_PROFIL
 10
-84.800000000000736
 20
-14.89999999999991
 30
0.0
 42
-0.4142135623730951
  0
VERTEX
  5
1461
  8
SAPA_PROFIL
 10
-85.300000000000736
 20
-14.39999999999991
 30
0.0
  0
VERTEX
  5
1462
  8
SAPA_PROFIL
 10
-85.300000000000722
 20
14.40000000000013
 30
0.0
 42
-0.4142135623730951
  0
VERTEX
  5
1463
  8
SAPA_PROFIL
 10
-84.800000000000736
 20
14.90000000000013
 30
0.0
  0
VERTEX
  5
1464
  8
SAPA_PROFIL
 10
-79.649999999999977
 20
14.90000000000037
 30
0.0
 42
-0.4142135623731023
  0
VERTEX
  5
1465
  8
SAPA_PROFIL
 10
-79.34999999999998
 20
14.600000000000369
 30
0.0
  0
VERTEX
  5
1466
  8
SAPA_PROFIL
 10
-79.34999999999998
 20
13.501839857119929
 30
0.0
 42
0.1989123678065156
  0
VERTEX
  5
1467
  8
SAPA_PROFIL
 10
-79.262132034007521
 20
13.289707822415551
 30
0.0
  0
VERTEX
  5
1468
  8
SAPA_PROFIL
 10
-78.210292173432634
 20
12.23786796529588
 30
0.0
 42
0.1989123669528251
  0
VERTEX
  5
1469
  8
SAPA_PROFIL
 10
-77.998160139425025
 20
12.15000000000008
 30
0.0
  0
VERTEX
  5
146A
  8
SAPA_PROFIL
 10
-77.900906587984949
 20
12.150000000000199
 30
0.0
 42
0.4400105308916151
  0
VERTEX
  5
146B
  8
SAPA_PROFIL
 10
-77.602048178557382
 20
12.476146722824289
 30
0.0
  0
VERTEX
  5
146C
  8
SAPA_PROFIL
 10
-77.739299343120535
 20
14.04493471240062
 30
0.0
 42
-0.2216946626433876
  0
VERTEX
  5
146D
  8
SAPA_PROFIL
 10
-77.65257296804856
 20
14.28321346958122
 30
0.0
  0
VERTEX
  5
146E
  8
SAPA_PROFIL
 10
-76.937867965644799
 20
14.997918471982191
 30
0.0
 42
0.1989123673794082
  0
VERTEX
  5
146F
  8
SAPA_PROFIL
 10
-76.84999999999998
 20
15.210050506338121
 30
0.0
  0
VERTEX
  5
1470
  8
SAPA_PROFIL
 10
-76.84999999999998
 20
15.69999999999993
 30
0.0
 42
0.4142135623732032
  0
VERTEX
  5
1471
  8
SAPA_PROFIL
 10
-77.149999999999935
 20
16.000000000000121
 30
0.0
  0
VERTEX
  5
1472
  8
SAPA_PROFIL
 10
-86.349999999999966
 20
16.000000000000131
 30
0.0
 42
0.4142135623732616
  0
VERTEX
  5
1473
  8
SAPA_PROFIL
 10
-86.649999999999963
 20
15.69999999999993
 30
0.0
  0
VERTEX
  5
1474
  8
SAPA_PROFIL
 10
-86.649999999999963
 20
-15.6999999999999
 30
0.0
 42
0.414213562373088
  0
VERTEX
  5
1475
  8
SAPA_PROFIL
 10
-86.349999999999966
 20
-15.99999999999992
 30
0.0
  0
VERTEX
  5
1476
  8
SAPA_PROFIL
 10
-77.149999999999949
 20
-16.000000000000089
 30
0.0
 42
0.4142135623731402
  0
VERTEX
  5
1477
  8
SAPA_PROFIL
 10
-76.850000000000009
 20
-15.69999999999999
 30
0.0
  0
VERTEX
  5
1478
  8
SAPA_PROFIL
 10
-76.84999999999998
 20
-15.210050506338
 30
0.0
 42
0.1989123673794317
  0
VERTEX
  5
1479
  8
SAPA_PROFIL
 10
-76.937867965644813
 20
-14.997918471981819
 30
0.0
  0
VERTEX
  5
147A
  8
SAPA_PROFIL
 10
-77.652572968048574
 20
-14.28321346958084
 30
0.0
 42
-0.2216946626433918
  0
VERTEX
  5
147B
  8
SAPA_PROFIL
 10
-77.73929934312055
 20
-14.044934712400231
 30
0.0
  0
VERTEX
  5
147C
  8
SAPA_PROFIL
 10
-77.602048178557396
 20
-12.47614672282401
 30
0.0
 42
0.4400105308916328
  0
VERTEX
  5
147D
  8
SAPA_PROFIL
 10
-77.900906587984949
 20
-12.14999999999989
 30
0.0
  0
VERTEX
  5
147E
  8
SAPA_PROFIL
 10
-77.998160139425025
 20
-12.1499999999998
 30
0.0
 42
0.1989123669528365
  0
VERTEX
  5
147F
  8
SAPA_PROFIL
 10
-78.210292173432634
 20
-12.23786796529561
 30
0.0
  0
SEQEND
  5
1480
  8
SAPA_PROFIL
  0
POLYLINE
  5
1069
  8
SAPA_PROFIL
  6
CONTINUOUS
 66
     1
 10
0.0
 20
0.0
 30
0.0
 70
     1
  0
VERTEX
  5
1481
  8
SAPA_PROFIL
  6
CONTINUOUS
 10
-76.987867965642707
 20
-5.9092893218803288
 30
0.0
 42
-0.6681786379191337
  0
VERTEX
  5
1482
  8
SAPA_PROFIL
  6
CONTINUOUS
 10
-77.499999999998636
 20
-5.697157287524341
 30
0.0
  0
VERTEX
  5
1483
  8
SAPA_PROFIL
  6
CONTINUOUS
 10
-77.499999999998195
 20
-5.2999999999991374
 30
0.0
 42
0.414213562374094
  0
VERTEX
  5
1484
  8
SAPA_PROFIL
  6
CONTINUOUS
 10
-77.799999999999173
 20
-4.999999999999182
 30
0.0
  0
VERTEX
  5
1485
  8
SAPA_PROFIL
  6
CONTINUOUS
 10
-80.199999999999164
 20
-4.9999999999991811
 30
0.0
 42
0.4142135623730951
  0
VERTEX
  5
1486
  8
SAPA_PROFIL
  6
CONTINUOUS
 10
-80.499999999999105
 20
-5.2999999999991356
 30
0.0
  0
VERTEX
  5
1487
  8
SAPA_PROFIL
  6
CONTINUOUS
 10
-80.499999999998195
 20
-8.0391854213350271
 30
0.0
 42
0.2216946626429604
  0
VERTEX
  5
1488
  8
SAPA_PROFIL
  6
CONTINUOUS
 10
-79.785575219371154
 20
-9.5712743075730842
 30
0.0
  0
VERTEX
  5
1489
  8
SAPA_PROFIL
  6
CONTINUOUS
 10
-78.63940868770915
 20
-10.533022221559159
 30
0.0
 42
0.1763269807085765
  0
VERTEX
  5
148A
  8
SAPA_PROFIL
  6
CONTINUOUS
 10
-78.318014882865171
 20
-10.650000000000009
 30
0.0
  0
VERTEX
  5
148B
  8
SAPA_PROFIL
  6
CONTINUOUS
 10
-77.79999999999815
 20
-10.64999999999813
 30
0.0
 42
0.4142135623733171
  0
VERTEX
  5
148C
  8
SAPA_PROFIL
  6
CONTINUOUS
 10
-77.499999999999034
 20
-10.34999999999869
 30
0.0
  0
VERTEX
  5
148D
  8
SAPA_PROFIL
  6
CONTINUOUS
 10
-77.499999999998636
 20
-9.2928427124741475
 30
0.0
 42
-0.6681786379192504
  0
VERTEX
  5
148E
  8
SAPA_PROFIL
  6
CONTINUOUS
 10
-76.987867965642707
 20
-9.0807106781181588
 30
0.0
  0
VERTEX
  5
148F
  8
SAPA_PROFIL
  6
CONTINUOUS
 10
-76.587867965643241
 20
-9.4807106781175676
 30
0.0
 42
-0.1989123673796784
  0
VERTEX
  5
1490
  8
SAPA_PROFIL
  6
CONTINUOUS
 10
-76.499999999999162
 20
-9.6928427124735563
 30
0.0
  0
VERTEX
  5
1491
  8
SAPA_PROFIL
  6
CONTINUOUS
 10
-76.499999999998195
 20
-14.65263912041403
 30
0.0
 42
-0.6808757648994829
  0
VERTEX
  5
1492
  8
SAPA_PROFIL
  6
CONTINUOUS
 10
-77.019406110484184
 20
-14.85723862843313
 30
0.0
  0
VERTEX
  5
1493
  8
SAPA_PROFIL
  6
CONTINUOUS
 10
-77.419406110484161
 20
-14.428291144423129
 30
0.0
 42
-0.189855932106766
  0
VERTEX
  5
1494
  8
SAPA_PROFIL
  6
CONTINUOUS
 10
-77.499999999998195
 20
-14.22369163640403
 30
0.0
  0
VERTEX
  5
1495
  8
SAPA_PROFIL
  6
CONTINUOUS
 10
-77.499999999998195
 20
-12.37022832743216
 30
0.0
 42
0.7002075382100549
  0
VERTEX
  5
1496
  8
SAPA_PROFIL
  6
CONTINUOUS
 10
-78.203095694837842
 20
-12.114322422670091
 30
0.0
  0
VERTEX
  5
1497
  8
SAPA_PROFIL
  6
CONTINUOUS
 10
-78.562661516914957
 20
-12.54283628290486
 30
0.0
 42
-0.2216946626430935
  0
VERTEX
  5
1498
  8
SAPA_PROFIL
  6
CONTINUOUS
 10
-78.792474849850763
 20
-12.64999999999916
 30
0.0
  0
VERTEX
  5
1499
  8
SAPA_PROFIL
  6
CONTINUOUS
 10
-78.947146456085889
 20
-12.64999999999916
 30
0.0
 42
-0.2079979736432576
  0
VERTEX
  5
149A
  8
SAPA_PROFIL
  6
CONTINUOUS
 10
-79.166550742311657
 20
-12.554601464279671
 30
0.0
  0
VERTEX
  5
149B
  8
SAPA_PROFIL
  6
CONTINUOUS
 10
-84.719406110485195
 20
-6.599999561242134
 30
0.0
 42
-0.1898559321065746
  0
VERTEX
  5
149C
  8
SAPA_PROFIL
  6
CONTINUOUS
 10
-84.79999999999815
 20
-6.3954000532241704
 30
0.0
  0
VERTEX
  5
149D
  8
SAPA_PROFIL
  6
CONTINUOUS
 10
-84.79999999999815
 20
-0.7732050807561337
 30
0.0
 42
-0.131652497587957
  0
VERTEX
  5
149E
  8
SAPA_PROFIL
  6
CONTINUOUS
 10
-84.759807621134144
 20
-0.6232050807551332
 30
0.0
  0
VERTEX
  5
149F
  8
SAPA_PROFIL
  6
CONTINUOUS
 10
-84.399999999999196
 20
0.0000000000008184
 30
0.0
  0
VERTEX
  5
14A0
  8
SAPA_PROFIL
  6
CONTINUOUS
 10
-84.759807621134144
 20
0.623205080757964
 30
0.0
 42
-0.1316524975871203
  0
VERTEX
  5
14A1
  8
SAPA_PROFIL
  6
CONTINUOUS
 10
-84.79999999999815
 20
0.7732050807578276
 30
0.0
  0
VERTEX
  5
14A2
  8
SAPA_PROFIL
  6
CONTINUOUS
 10
-84.79999999999815
 20
6.395400053225921
 30
0.0
 42
-0.1898559321066236
  0
VERTEX
  5
14A3
  8
SAPA_PROFIL
  6
CONTINUOUS
 10
-84.719406110485195
 20
6.5999995612439424
 30
0.0
  0
VERTEX
  5
14A4
  8
SAPA_PROFIL
  6
CONTINUOUS
 10
-79.166550742311657
 20
12.55460146428142
 30
0.0
 42
-0.207997973643366
  0
VERTEX
  5
14A5
  8
SAPA_PROFIL
  6
CONTINUOUS
 10
-78.947146456085889
 20
12.65000000000096
 30
0.0
  0
VERTEX
  5
14A6
  8
SAPA_PROFIL
  6
CONTINUOUS
 10
-78.792474849850763
 20
12.65000000000091
 30
0.0
 42
-0.221694662643129
  0
VERTEX
  5
14A7
  8
SAPA_PROFIL
  6
CONTINUOUS
 10
-78.562661516914957
 20
12.54283628290673
 30
0.0
  0
VERTEX
  5
14A8
  8
SAPA_PROFIL
  6
CONTINUOUS
 10
-78.203095694837955
 20
12.11432242267167
 30
0.0
 42
0.7002075382100074
  0
VERTEX
  5
14A9
  8
SAPA_PROFIL
  6
CONTINUOUS
 10
-77.499999999998195
 20
12.37022832743386
 30
0.0
  0
VERTEX
  5
14AA
  8
SAPA_PROFIL
  6
CONTINUOUS
 10
-77.499999999998479
 20
14.223691636405951
 30
0.0
 42
-0.1898559321066891
  0
VERTEX
  5
14AB
  8
SAPA_PROFIL
  6
CONTINUOUS
 10
-77.419406110484161
 20
14.428291144424939
 30
0.0
  0
VERTEX
  5
14AC
  8
SAPA_PROFIL
  6
CONTINUOUS
 10
-77.019406110483899
 20
14.857238628434651
 30
0.0
 42
-0.6808757648995032
  0
VERTEX
  5
14AD
  8
SAPA_PROFIL
  6
CONTINUOUS
 10
-76.499999999998195
 20
14.65263912041595
 30
0.0
  0
VERTEX
  5
14AE
  8
SAPA_PROFIL
  6
CONTINUOUS
 10
-76.499999999999162
 20
9.6928427124751906
 30
0.0
 42
-0.1989123673797132
  0
VERTEX
  5
14AF
  8
SAPA_PROFIL
  6
CONTINUOUS
 10
-76.587867965643241
 20
9.4807106781192587
 30
0.0
  0
VERTEX
  5
14B0
  8
SAPA_PROFIL
  6
CONTINUOUS
 10
-76.987867965642707
 20
9.080710678119793
 30
0.0
 42
-0.6681786379192504
  0
VERTEX
  5
14B1
  8
SAPA_PROFIL
  6
CONTINUOUS
 10
-77.499999999998636
 20
9.2928427124757818
 30
0.0
  0
VERTEX
  5
14B2
  8
SAPA_PROFIL
  6
CONTINUOUS
 10
-77.499999999999162
 20
10.350000000001801
 30
0.0
 42
0.4142135623719851
  0
VERTEX
  5
14B3
  8
SAPA_PROFIL
  6
CONTINUOUS
 10
-77.79999999999815
 20
10.649999999999769
 30
0.0
  0
VERTEX
  5
14B4
  8
SAPA_PROFIL
  6
CONTINUOUS
 10
-78.318014882865171
 20
10.650000000000791
 30
0.0
 42
0.176326980708563
  0
VERTEX
  5
14B5
  8
SAPA_PROFIL
  6
CONTINUOUS
 10
-78.63940868770915
 20
10.53302222156079
 30
0.0
  0
VERTEX
  5
14B6
  8
SAPA_PROFIL
  6
CONTINUOUS
 10
-79.785575219371097
 20
9.5712743075746616
 30
0.0
 42
0.2216946626429643
  0
VERTEX
  5
14B7
  8
SAPA_PROFIL
  6
CONTINUOUS
 10
-80.499999999998195
 20
8.0391854213366614
 30
0.0
  0
VERTEX
  5
14B8
  8
SAPA_PROFIL
  6
CONTINUOUS
 10
-80.499999999998195
 20
5.3000000000007716
 30
0.0
 42
0.4142135623730951
  0
VERTEX
  5
14B9
  8
SAPA_PROFIL
  6
CONTINUOUS
 10
-80.199999999999164
 20
5.000000000000818
 30
0.0
  0
VERTEX
  5
14BA
  8
SAPA_PROFIL
  6
CONTINUOUS
 10
-77.799999999999173
 20
5.0000000000008171
 30
0.0
 42
0.414213562374094
  0
VERTEX
  5
14BB
  8
SAPA_PROFIL
  6
CONTINUOUS
 10
-77.499999999998195
 20
5.3000000000007708
 30
0.0
  0
VERTEX
  5
14BC
  8
SAPA_PROFIL
  6
CONTINUOUS
 10
-77.499999999998636
 20
5.6971572875259753
 30
0.0
 42
-0.6681786379192504
  0
VERTEX
  5
14BD
  8
SAPA_PROFIL
  6
CONTINUOUS
 10
-76.987867965642707
 20
5.9092893218819631
 30
0.0
  0
VERTEX
  5
14BE
  8
SAPA_PROFIL
  6
CONTINUOUS
 10
-76.587867965643241
 20
5.5092893218825552
 30
0.0
 42
-0.1989123673796784
  0
VERTEX
  5
14BF
  8
SAPA_PROFIL
  6
CONTINUOUS
 10
-76.499999999999162
 20
5.2971572875265656
 30
0.0
  0
VERTEX
  5
14C0
  8
SAPA_PROFIL
  6
CONTINUOUS
 10
-76.499999999999162
 20
-5.2971572875248754
 30
0.0
 42
-0.1989123673796928
  0
VERTEX
  5
14C1
  8
SAPA_PROFIL
  6
CONTINUOUS
 10
-76.587867965643241
 20
-5.5092893218808641
 30
0.0
  0
SEQEND
  5
14C2
  8
SAPA_PROFIL
  6
CONTINUOUS
  0
POLYLINE
  5
106A
  8
SAPA_PROFIL
 62
     4
 66
     1
 10
0.0
 20
0.0
 30
0.0
 70
     1
  0
VERTEX
  5
14C3
  8
SAPA_PROFIL
 62
     4
 10
-48.849999999999618
 20
-1.1499999999999471
 30
0.0
  0
VERTEX
  5
14C4
  8
SAPA_PROFIL
 62
     4
 10
-46.649999999999579
 20
-1.149999999999948
 30
0.0
 42
1.0
  0
VERTEX
  5
14C5
  8
SAPA_PROFIL
 62
     4
 10
-46.649999999999579
 20
1.1500000000000059
 30
0.0
  0
VERTEX
  5
14C6
  8
SAPA_PROFIL
 62
     4
 10
-48.849999999999618
 20
1.15000000000012
 30
0.0
 42
1.0
  0
SEQEND
  5
14C7
  8
SAPA_PROFIL
 62
     4
  0
POLYLINE
  5
106B
  8
SAPA_PROFIL
 62
     4
 66
     1
 10
0.0
 20
0.0
 30
0.0
 70
     1
  0
VERTEX
  5
14C8
  8
SAPA_PROFIL
 62
     4
 10
-63.999999999999602
 20
-3.9999999999999658
 30
0.0
  0
VERTEX
  5
14C9
  8
SAPA_PROFIL
 62
     4
 10
-67.050832149035841
 20
-3.9999999999999649
 30
0.0
  0
VERTEX
  5
14CA
  8
SAPA_PROFIL
 62
     4
 10
-70.378679656439942
 20
-3.999999999999964
 30
0.0
 42
-0.6681786379192966
  0
VERTEX
  5
14CB
  8
SAPA_PROFIL
 62
     4
 10
-70.732233047033162
 20
-3.1464466094067438
 30
0.0
  0
VERTEX
  5
14CC
  8
SAPA_PROFIL
 62
     4
 10
-68.585786439270066
 20
-1.000000011621772
 30
0.0
 42
0.1989123679837333
  0
VERTEX
  5
14CD
  8
SAPA_PROFIL
 62
     4
 10
-68.292893218813035
 20
-0.2928932287916627
 30
0.0
  0
VERTEX
  5
14CE
  8
SAPA_PROFIL
 62
     4
 10
-68.292893218813035
 20
0.2928932088352734
 30
0.0
 42
0.1989123667755704
  0
VERTEX
  5
14CF
  8
SAPA_PROFIL
 62
     4
 10
-68.585786435982925
 20
0.9999999883782418
 30
0.0
  0
VERTEX
  5
14D0
  8
SAPA_PROFIL
 62
     4
 10
-70.732233047033162
 20
3.1464466094068162
 30
0.0
 42
-0.6681786379192936
  0
VERTEX
  5
14D1
  8
SAPA_PROFIL
 62
     4
 10
-70.378679656439942
 20
4.0000000000000213
 30
0.0
  0
VERTEX
  5
14D2
  8
SAPA_PROFIL
 62
     4
 10
-67.050832149035841
 20
4.0000000000000204
 30
0.0
  0
VERTEX
  5
14D3
  8
SAPA_PROFIL
 62
     4
 10
-63.999999999999602
 20
4.0000000000000329
 30
0.0
 42
-0.4142135623730951
  0
VERTEX
  5
14D4
  8
SAPA_PROFIL
 62
     4
 10
-63.499999999999602
 20
3.5000000000000329
 30
0.0
  0
VERTEX
  5
14D5
  8
SAPA_PROFIL
 62
     4
 10
-63.499999999999602
 20
-3.4999999999999658
 30
0.0
 42
-0.4142135623730951
  0
SEQEND
  5
14D6
  8
SAPA_PROFIL
 62
     4
  0
POLYLINE
  5
106C
  8
SAPA_PROFIL
 62
     4
 66
     1
 10
0.0
 20
0.0
 30
0.0
 70
     1
  0
VERTEX
  5
14D7
  8
SAPA_PROFIL
 62
     4
 10
-53.45999999999961
 20
2.58578643762681
 30
0.0
  0
VERTEX
  5
14D8
  8
SAPA_PROFIL
 62
     4
 10
-52.06074462521957
 20
1.1465310628470049
 30
0.0
 42
-0.9251773977986363
  0
VERTEX
  5
14D9
  8
SAPA_PROFIL
 62
     4
 10
-52.06074462521957
 20
-1.1465310628468299
 30
0.0
  0
VERTEX
  5
14DA
  8
SAPA_PROFIL
 62
     4
 10
-53.45999999999961
 20
-2.5857864376267479
 30
0.0
  0
VERTEX
  5
14DB
  8
SAPA_PROFIL
 62
     4
 10
-53.45999999999961
 20
-3.499999999999968
 30
0.0
 42
-0.4142135623730769
  0
VERTEX
  5
14DC
  8
SAPA_PROFIL
 62
     4
 10
-53.95999999999961
 20
-3.999999999999968
 30
0.0
  0
VERTEX
  5
14DD
  8
SAPA_PROFIL
 62
     4
 10
-61.999999999999602
 20
-3.9999999999999658
 30
0.0
 42
-0.4142135623730951
  0
VERTEX
  5
14DE
  8
SAPA_PROFIL
 62
     4
 10
-62.499999999999602
 20
-3.4999999999999658
 30
0.0
  0
VERTEX
  5
14DF
  8
SAPA_PROFIL
 62
     4
 10
-62.499999999999602
 20
3.5000000000000329
 30
0.0
 42
-0.4142135623730951
  0
VERTEX
  5
14E0
  8
SAPA_PROFIL
 62
     4
 10
-61.999999999999602
 20
4.0000000000000329
 30
0.0
  0
VERTEX
  5
14E1
  8
SAPA_PROFIL
 62
     4
 10
-53.95999999999961
 20
4.0000000000000311
 30
0.0
 42
-0.4142135623730951
  0
VERTEX
  5
14E2
  8
SAPA_PROFIL
 62
     4
 10
-53.45999999999961
 20
3.5000000000000311
 30
0.0
  0
SEQEND
  5
14E3
  8
SAPA_PROFIL
 62
     4
  0
POLYLINE
  5
106D
  8
SAPA_PROFIL
 62
     4
 66
     1
 10
0.0
 20
0.0
 30
0.0
 70
     1
  0
VERTEX
  5
14E4
  8
SAPA_PROFIL
 62
     4
 10
-54.10999999999958
 20
-4.9999999999998552
 30
0.0
 42
-1.0
  0
VERTEX
  5
14E5
  8
SAPA_PROFIL
 62
     4
 10
-54.10999999999958
 20
-6.2999999999999234
 30
0.0
  0
VERTEX
  5
14E6
  8
SAPA_PROFIL
 62
     4
 10
-54.95999999999961
 20
-6.2999999999999234
 30
0.0
  0
VERTEX
  5
14E7
  8
SAPA_PROFIL
 62
     4
 10
-54.95999999999961
 20
-6.2499999999998552
 30
0.0
 42
1.0
  0
VERTEX
  5
14E8
  8
SAPA_PROFIL
 62
     4
 10
-55.45999999999961
 20
-6.2499999999998552
 30
0.0
  0
VERTEX
  5
14E9
  8
SAPA_PROFIL
 62
     4
 10
-55.45999999999961
 20
-6.6999999999998998
 30
0.0
 42
0.4142135623730951
  0
VERTEX
  5
14EA
  8
SAPA_PROFIL
 62
     4
 10
-55.159999999999542
 20
-6.9999999999998552
 30
0.0
  0
VERTEX
  5
14EB
  8
SAPA_PROFIL
 62
     4
 10
-53.45999999999961
 20
-6.9999999999998552
 30
0.0
 42
0.4225789089359373
  0
VERTEX
  5
14EC
  8
SAPA_PROFIL
 62
     4
 10
-52.499999999999488
 20
-5.9999999999998552
 30
0.0
  0
VERTEX
  5
14ED
  8
SAPA_PROFIL
 62
     4
 10
-52.499999999999488
 20
-2.9999999999998548
 30
0.0
  0
VERTEX
  5
14EE
  8
SAPA_PROFIL
 62
     4
 10
-51.649999999999579
 20
-2.1499999999999462
 30
0.0
  0
VERTEX
  5
14EF
  8
SAPA_PROFIL
 62
     4
 10
-45.499999999999602
 20
-2.149999999999948
 30
0.0
 42
0.4142135623730951
  0
VERTEX
  5
14F0
  8
SAPA_PROFIL
 62
     4
 10
-44.499999999999602
 20
-1.149999999999948
 30
0.0
  0
VERTEX
  5
14F1
  8
SAPA_PROFIL
 62
     4
 10
-44.499999999999602
 20
1.150000000000005
 30
0.0
 42
0.4142135623730951
  0
VERTEX
  5
14F2
  8
SAPA_PROFIL
 62
     4
 10
-45.499999999999602
 20
2.1500000000000061
 30
0.0
  0
VERTEX
  5
14F3
  8
SAPA_PROFIL
 62
     4
 10
-51.649999999999459
 20
2.150000000000007
 30
0.0
  0
VERTEX
  5
14F4
  8
SAPA_PROFIL
 62
     4
 10
-52.499999999999488
 20
3.0000000000000302
 30
0.0
  0
VERTEX
  5
14F5
  8
SAPA_PROFIL
 62
     4
 10
-52.499999999999488
 20
6.0000000000000311
 30
0.0
 42
0.4225789089359373
  0
VERTEX
  5
14F6
  8
SAPA_PROFIL
 62
     4
 10
-53.45999999999961
 20
7.0000000000000453
 30
0.0
  0
VERTEX
  5
14F7
  8
SAPA_PROFIL
 62
     4
 10
-55.159999999999542
 20
7.0000000000000453
 30
0.0
 42
0.4142135623730951
  0
VERTEX
  5
14F8
  8
SAPA_PROFIL
 62
     4
 10
-55.45999999999961
 20
6.699999999999962
 30
0.0
  0
VERTEX
  5
14F9
  8
SAPA_PROFIL
 62
     4
 10
-55.45999999999961
 20
6.2500000000000311
 30
0.0
 42
1.0
  0
VERTEX
  5
14FA
  8
SAPA_PROFIL
 62
     4
 10
-54.95999999999961
 20
6.2500000000000311
 30
0.0
  0
VERTEX
  5
14FB
  8
SAPA_PROFIL
 62
     4
 10
-54.95999999999961
 20
6.3000000000000993
 30
0.0
  0
VERTEX
  5
14FC
  8
SAPA_PROFIL
 62
     4
 10
-54.10999999999958
 20
6.3000000000000993
 30
0.0
 42
-1.0
  0
VERTEX
  5
14FD
  8
SAPA_PROFIL
 62
     4
 10
-54.10999999999958
 20
5.0000000000000311
 30
0.0
  0
VERTEX
  5
14FE
  8
SAPA_PROFIL
 62
     4
 10
-67.050832149035841
 20
5.0000000000000204
 30
0.0
  0
VERTEX
  5
14FF
  8
SAPA_PROFIL
 62
     4
 10
-72.499999999999602
 20
5.0000000000000222
 30
0.0
  0
VERTEX
  5
1500
  8
SAPA_PROFIL
 62
     4
 10
-72.499999999999602
 20
3.500000000000036
 30
0.0
  0
VERTEX
  5
1501
  8
SAPA_PROFIL
 62
     4
 10
-69.353553390592822
 20
0.3535533905932553
 30
0.0
 42
-0.4142135623730951
  0
VERTEX
  5
1502
  8
SAPA_PROFIL
 62
     4
 10
-69.353553390592822
 20
-0.3535533905931843
 30
0.0
  0
VERTEX
  5
1503
  8
SAPA_PROFIL
 62
     4
 10
-72.499999999999602
 20
-3.4999999999999631
 30
0.0
  0
VERTEX
  5
1504
  8
SAPA_PROFIL
 62
     4
 10
-72.499999999999602
 20
-4.999999999999992
 30
0.0
  0
VERTEX
  5
1505
  8
SAPA_PROFIL
 62
     4
 10
-67.050832149035841
 20
-4.9999999999999512
 30
0.0
  0
VERTEX
  5
1506
  8
SAPA_PROFIL
 62
     4
 10
-54.40999999999957
 20
-4.9999999999998552
 30
0.0
  0
SEQEND
  5
1507
  8
SAPA_PROFIL
 62
     4
  0
POLYLINE
  5
106E
  8
SAPA_PROFIL
 66
     1
 10
0.0
 20
0.0
 30
0.0
 70
     1
  0
VERTEX
  5
1508
  8
SAPA_PROFIL
 10
68.195820877575741
 20
10.69095294973101
 30
0.0
  0
VERTEX
  5
1509
  8
SAPA_PROFIL
 10
67.195820877575741
 20
9.6909529497310132
 30
0.0
  0
VERTEX
  5
150A
  8
SAPA_PROFIL
 10
67.195820877575727
 20
-1.3090470502689859
 30
0.0
  0
VERTEX
  5
150B
  8
SAPA_PROFIL
 10
68.195820877575727
 20
-2.3090470502689859
 30
0.0
  0
VERTEX
  5
150C
  8
SAPA_PROFIL
 10
68.195820877575727
 20
-4.8090463081971393
 30
0.0
 42
-1.0000014841447959
  0
VERTEX
  5
150D
  8
SAPA_PROFIL
 10
67.195820877576296
 20
-4.8090463081971393
 30
0.0
  0
VERTEX
  5
150E
  8
SAPA_PROFIL
 10
67.195820877575727
 20
-3.5590470502689859
 30
0.0
  0
VERTEX
  5
150F
  8
SAPA_PROFIL
 10
66.095820877575704
 20
-3.5590470502689859
 30
0.0
  0
VERTEX
  5
1510
  8
SAPA_PROFIL
 10
66.095820877575704
 20
-11.05904705026898
 30
0.0
  0
VERTEX
  5
1511
  8
SAPA_PROFIL
 10
67.195820877575727
 20
-11.05904705026898
 30
0.0
  0
VERTEX
  5
1512
  8
SAPA_PROFIL
 10
67.195820877575727
 20
-9.8090451474660085
 30
0.0
 42
-0.9999967549392536
  0
VERTEX
  5
1513
  8
SAPA_PROFIL
 10
68.195820877573908
 20
-9.8090457080060105
 30
0.0
  0
VERTEX
  5
1514
  8
SAPA_PROFIL
 10
68.195820877575727
 20
-11.84494543513131
 30
0.0
  0
VERTEX
  5
1515
  8
SAPA_PROFIL
 10
67.061846281360147
 20
-13.80904705026899
 30
0.0
 42
-0.577350269189629
  0
VERTEX
  5
1516
  8
SAPA_PROFIL
 10
65.329795473791251
 20
-13.80904705026899
 30
0.0
  0
VERTEX
  5
1517
  8
SAPA_PROFIL
 10
64.329795473791293
 20
-12.076996242700259
 30
0.0
 42
-0.4142135623730394
  0
VERTEX
  5
1518
  8
SAPA_PROFIL
 10
64.695820877575557
 20
-10.71097083891584
 30
0.0
  0
VERTEX
  5
1519
  8
SAPA_PROFIL
 10
64.695820877575571
 20
19.092876738377871
 30
0.0
 42
-0.4142135623730394
  0
VERTEX
  5
151A
  8
SAPA_PROFIL
 10
64.329795473791322
 20
20.458902142162181
 30
0.0
  0
VERTEX
  5
151B
  8
SAPA_PROFIL
 10
65.329795473791265
 20
22.19095294973101
 30
0.0
 42
-0.5773502691896291
  0
VERTEX
  5
151C
  8
SAPA_PROFIL
 10
67.061846281360161
 20
22.19095294973101
 30
0.0
  0
VERTEX
  5
151D
  8
SAPA_PROFIL
 10
68.195820877575741
 20
20.226851334593221
 30
0.0
  0
VERTEX
  5
151E
  8
SAPA_PROFIL
 10
68.195820877573922
 20
18.19095160746798
 30
0.0
 42
-0.9999967549392536
  0
VERTEX
  5
151F
  8
SAPA_PROFIL
 10
67.195820877575741
 20
18.190951046927982
 30
0.0
  0
VERTEX
  5
1520
  8
SAPA_PROFIL
 10
67.195820877575741
 20
19.44095294973101
 30
0.0
  0
VERTEX
  5
1521
  8
SAPA_PROFIL
 10
66.095820877575719
 20
19.44095294973101
 30
0.0
  0
VERTEX
  5
1522
  8
SAPA_PROFIL
 10
66.095820877575719
 20
11.94095294973101
 30
0.0
  0
VERTEX
  5
1523
  8
SAPA_PROFIL
 10
67.195820877575741
 20
11.94095294973101
 30
0.0
  0
VERTEX
  5
1524
  8
SAPA_PROFIL
 10
67.19582087757631
 20
13.19095220765916
 30
0.0
 42
-1.0000014841447959
  0
VERTEX
  5
1525
  8
SAPA_PROFIL
 10
68.195820877575741
 20
13.19095220765916
 30
0.0
  0
SEQEND
  5
1526
  8
SAPA_PROFIL
  0
POLYLINE
  5
106F
  8
SAPA_PROFIL
 66
     1
 10
0.0
 20
0.0
 30
0.0
 70
     1
  0
VERTEX
  5
1527
  8
SAPA_PROFIL
 10
113.0009396980176
 20
-78.000000000000114
 30
0.0
 42
-0.4142135623730951
  0
VERTEX
  5
1528
  8
SAPA_PROFIL
 10
112.70093969801771
 20
-77.700000000000102
 30
0.0
  0
VERTEX
  5
1529
  8
SAPA_PROFIL
 10
112.70093969801771
 20
-76.49000000000018
 30
0.0
 42
-0.4142135623730951
  0
VERTEX
  5
152A
  8
SAPA_PROFIL
 10
113.6909396980177
 20
-75.500000000000171
 30
0.0
  0
VERTEX
  5
152B
  8
SAPA_PROFIL
 10
113.90093969801769
 20
-75.500000000000171
 30
0.0
  0
VERTEX
  5
152C
  8
SAPA_PROFIL
 10
113.90093969801769
 20
-76.750000000000171
 30
0.0
  0
VERTEX
  5
152D
  8
SAPA_PROFIL
 10
115.20093969801771
 20
-76.750000000000171
 30
0.0
 42
0.4142135623730951
  0
VERTEX
  5
152E
  8
SAPA_PROFIL
 10
115.70093969801771
 20
-76.250000000000171
 30
0.0
  0
VERTEX
  5
152F
  8
SAPA_PROFIL
 10
115.70093969801771
 20
-68.250000000000171
 30
0.0
 42
0.4142135623730951
  0
VERTEX
  5
1530
  8
SAPA_PROFIL
 10
115.20093969801771
 20
-67.750000000000171
 30
0.0
  0
VERTEX
  5
1531
  8
SAPA_PROFIL
 10
113.90093969801769
 20
-67.750000000000171
 30
0.0
  0
VERTEX
  5
1532
  8
SAPA_PROFIL
 10
113.90093969801769
 20
-69.000000000000171
 30
0.0
  0
VERTEX
  5
1533
  8
SAPA_PROFIL
 10
113.6909396980177
 20
-69.000000000000171
 30
0.0
 42
-0.4142135623730867
  0
VERTEX
  5
1534
  8
SAPA_PROFIL
 10
112.70093969801771
 20
-68.010000000000161
 30
0.0
  0
VERTEX
  5
1535
  8
SAPA_PROFIL
 10
112.70093969801771
 20
-67.49000000000018
 30
0.0
 42
-0.4142135623730951
  0
VERTEX
  5
1536
  8
SAPA_PROFIL
 10
113.6909396980177
 20
-66.500000000000171
 30
0.0
  0
VERTEX
  5
1537
  8
SAPA_PROFIL
 10
115.90093969801769
 20
-66.500000000000171
 30
0.0
 42
-0.4142135623730951
  0
VERTEX
  5
1538
  8
SAPA_PROFIL
 10
117.40093969801769
 20
-68.000000000000171
 30
0.0
  0
VERTEX
  5
1539
  8
SAPA_PROFIL
 10
117.40093969801769
 20
-76.000000000000171
 30
0.0
 42
0.4142135623730951
  0
VERTEX
  5
153A
  8
SAPA_PROFIL
 10
117.90093969801769
 20
-76.500000000000171
 30
0.0
  0
VERTEX
  5
153B
  8
SAPA_PROFIL
 10
122.20093969801771
 20
-76.500000000000171
 30
0.0
 42
0.4142135623730951
  0
VERTEX
  5
153C
  8
SAPA_PROFIL
 10
122.70093969801771
 20
-76.000000000000171
 30
0.0
  0
VERTEX
  5
153D
  8
SAPA_PROFIL
 10
122.70093969801771
 20
-63.258153378746329
 30
0.0
 42
0.493145426031308
  0
VERTEX
  5
153E
  8
SAPA_PROFIL
 10
122.07153017546629
 20
-62.775190465601781
 30
0.0
  0
VERTEX
  5
153F
  8
SAPA_PROFIL
 10
120.3325152070163
 20
-63.241158122023641
 30
0.0
 42
-0.9999999999999452
  0
VERTEX
  5
1540
  8
SAPA_PROFIL
 10
120.0736961619137
 20
-62.275232295734547
 30
0.0
  0
VERTEX
  5
1541
  8
SAPA_PROFIL
 10
121.4206905370705
 20
-61.914306240702111
 30
0.0
 42
0.6613727838043239
  0
VERTEX
  5
1542
  8
SAPA_PROFIL
 10
121.67755122804751
 20
-59.9804109032928
 30
0.0
  0
VERTEX
  5
1543
  8
SAPA_PROFIL
 10
115.94594154849899
 20
-56.671264511915631
 30
0.0
  0
VERTEX
  5
1544
  8
SAPA_PROFIL
 10
111.657861636183
 20
-56.671264511915631
 30
0.0
  0
VERTEX
  5
1545
  8
SAPA_PROFIL
 10
107.5009396980177
 20
-53.078483428499283
 30
0.0
  0
VERTEX
  5
1546
  8
SAPA_PROFIL
 10
105.5009401529304
 20
-53.078483428499219
 30
0.0
 42
-1.0
  0
VERTEX
  5
1547
  8
SAPA_PROFIL
 10
105.5009396980177
 20
-52.078483428499283
 30
0.0
  0
VERTEX
  5
1548
  8
SAPA_PROFIL
 10
107.70093969801771
 20
-52.078483428499283
 30
0.0
  0
VERTEX
  5
1549
  8
SAPA_PROFIL
 10
111.7755028469859
 20
-55.171264511915638
 30
0.0
  0
VERTEX
  5
154A
  8
SAPA_PROFIL
 10
116.34786533714581
 20
-55.171264511915638
 30
0.0
  0
VERTEX
  5
154B
  8
SAPA_PROFIL
 10
116.69594154849899
 20
-55.372226406239008
 30
0.0
  0
VERTEX
  5
154C
  8
SAPA_PROFIL
 10
117.95093969801771
 20
-56.346953113330983
 30
0.0
 42
0.5773502691896074
  0
VERTEX
  5
154D
  8
SAPA_PROFIL
 10
118.70093969801771
 20
-55.91394041143883
 30
0.0
  0
VERTEX
  5
154E
  8
SAPA_PROFIL
 10
118.70093969801771
 20
-55.72929854587062
 30
0.0
  0
VERTEX
  5
154F
  8
SAPA_PROFIL
 10
120.20093969801771
 20
-55.72929854587062
 30
0.0
  0
VERTEX
  5
1550
  8
SAPA_PROFIL
 10
120.20093969801771
 20
-57.107162896777943
 30
0.0
 42
0.2679491924311161
  0
VERTEX
  5
1551
  8
SAPA_PROFIL
 10
120.45093969801771
 20
-57.540175598670082
 30
0.0
  0
VERTEX
  5
1552
  8
SAPA_PROFIL
 10
121.95093969801771
 20
-58.406201002454509
 30
0.0
 42
0.3494280882832233
  0
VERTEX
  5
1553
  8
SAPA_PROFIL
 10
122.70093969801771
 20
-57.18759432515764
 30
0.0
  0
VERTEX
  5
1554
  8
SAPA_PROFIL
 10
122.70093969801771
 20
-56.928429243660268
 30
0.0
  0
VERTEX
  5
1555
  8
SAPA_PROFIL
 10
122.911254759484
 20
-56.928429243660268
 30
0.0
  0
VERTEX
  5
1556
  8
SAPA_PROFIL
 10
124.20093969801771
 20
-56.928429243660268
 30
0.0
  0
VERTEX
  5
1557
  8
SAPA_PROFIL
 10
124.20093969801771
 20
-77.700000000000102
 30
0.0
 42
-0.4142135623730951
  0
VERTEX
  5
1558
  8
SAPA_PROFIL
 10
123.90093969801759
 20
-78.000000000000114
 30
0.0
  0
SEQEND
  5
1559
  8
SAPA_PROFIL
  0
POLYLINE
  5
1070
  8
SAPA_PROFIL
 66
     1
 10
0.0
 20
0.0
 30
0.0
 70
     1
  0
VERTEX
  5
155A
  8
SAPA_PROFIL
 10
107.0009396980177
 20
-5.3000000000000682
 30
0.0
  0
VERTEX
  5
155B
  8
SAPA_PROFIL
 10
114.4759396980178
 20
-5.3000000000000682
 30
0.0
 42
-0.4142135623730951
  0
VERTEX
  5
155C
  8
SAPA_PROFIL
 10
114.9759396980178
 20
-5.8000000000000682
 30
0.0
  0
VERTEX
  5
155D
  8
SAPA_PROFIL
 10
114.9759396980177
 20
-7.5
 30
0.0
 42
0.4142135623730951
  0
VERTEX
  5
155E
  8
SAPA_PROFIL
 10
119.57593969801771
 20
-12.100000000000019
 30
0.0
  0
VERTEX
  5
155F
  8
SAPA_PROFIL
 10
121.40093969801779
 20
-12.100000000000019
 30
0.0
 42
-0.4142135623730951
  0
VERTEX
  5
1560
  8
SAPA_PROFIL
 10
122.40093969801779
 20
-13.100000000000019
 30
0.0
  0
VERTEX
  5
1561
  8
SAPA_PROFIL
 10
122.40093969801769
 20
-47.500000000000227
 30
0.0
 42
-0.4142135623730951
  0
VERTEX
  5
1562
  8
SAPA_PROFIL
 10
121.40093969801769
 20
-48.50000000000022
 30
0.0
  0
VERTEX
  5
1563
  8
SAPA_PROFIL
 10
101.3009396980176
 20
-48.50000000000022
 30
0.0
 42
0.4142135623730951
  0
VERTEX
  5
1564
  8
SAPA_PROFIL
 10
100.8009396980176
 20
-49.000000000000227
 30
0.0
  0
VERTEX
  5
1565
  8
SAPA_PROFIL
 10
100.8009396980176
 20
-49.700000000000159
 30
0.0
 42
0.4150844288340716
  0
VERTEX
  5
1566
  8
SAPA_PROFIL
 10
101.3024258999976
 20
-50.199997791198939
 30
0.0
 42
-0.3121484461588222
  0
VERTEX
  5
1567
  8
SAPA_PROFIL
 10
101.7712393028575
 20
-50.522216822930552
 30
0.0
 42
-0.482358125222547
  0
VERTEX
  5
1568
  8
SAPA_PROFIL
 10
99.57533474125421
 20
-54.224395043236193
 30
0.0
  0
VERTEX
  5
1569
  8
SAPA_PROFIL
 10
99.200939698017763
 20
-53.849999999999682
 30
0.0
  0
VERTEX
  5
156A
  8
SAPA_PROFIL
 10
98.826544654781287
 20
-54.224395043236193
 30
0.0
 42
-0.4823574778722663
  0
VERTEX
  5
156B
  8
SAPA_PROFIL
 10
96.630638039206431
 20
-50.522222222222467
 30
0.0
 42
-0.311333703729445
  0
VERTEX
  5
156C
  8
SAPA_PROFIL
 10
97.097965613535678
 20
-50.200000000000159
 30
0.0
  0
VERTEX
  5
156D
  8
SAPA_PROFIL
 10
97.100939698017726
 20
-50.200000000000159
 30
0.0
 42
0.4142135623730951
  0
VERTEX
  5
156E
  8
SAPA_PROFIL
 10
97.600939698017726
 20
-49.700000000000159
 30
0.0
  0
VERTEX
  5
156F
  8
SAPA_PROFIL
 10
97.600939698017726
 20
-49.000000000000227
 30
0.0
 42
0.4142135623731117
  0
VERTEX
  5
1570
  8
SAPA_PROFIL
 10
97.100939698017726
 20
-48.500000000000121
 30
0.0
  0
VERTEX
  5
1571
  8
SAPA_PROFIL
 10
77.00093969801776
 20
-48.500000000000121
 30
0.0
 42
-0.4142135623730951
  0
VERTEX
  5
1572
  8
SAPA_PROFIL
 10
76.000939698017746
 20
-47.500000000000107
 30
0.0
  0
VERTEX
  5
1573
  8
SAPA_PROFIL
 10
76.000939698017746
 20
-13.10000000000014
 30
0.0
 42
-0.4142135623730951
  0
VERTEX
  5
1574
  8
SAPA_PROFIL
 10
77.00093969801776
 20
-12.100000000000129
 30
0.0
  0
VERTEX
  5
1575
  8
SAPA_PROFIL
 10
78.825939698017734
 20
-12.100000000000129
 30
0.0
 42
0.4142135623730914
  0
VERTEX
  5
1576
  8
SAPA_PROFIL
 10
83.425939698017714
 20
-7.5000000000001128
 30
0.0
  0
VERTEX
  5
1577
  8
SAPA_PROFIL
 10
83.425939698017658
 20
-5.800000000000181
 30
0.0
 42
-0.4142135623730951
  0
VERTEX
  5
1578
  8
SAPA_PROFIL
 10
83.925939698017643
 20
-5.300000000000181
 30
0.0
  0
VERTEX
  5
1579
  8
SAPA_PROFIL
 10
91.400939698017737
 20
-5.3000000000000682
 30
0.0
 42
-0.4142135623730951
  0
VERTEX
  5
157A
  8
SAPA_PROFIL
 10
91.700939698017635
 20
-5.6000000000001364
 30
0.0
  0
VERTEX
  5
157B
  8
SAPA_PROFIL
 10
91.700939698017734
 20
-5.7000000000001592
 30
0.0
 42
0.4142135623730951
  0
VERTEX
  5
157C
  8
SAPA_PROFIL
 10
92.000939698017703
 20
-6.0000000000001128
 30
0.0
  0
VERTEX
  5
157D
  8
SAPA_PROFIL
 10
106.40093969801759
 20
-6.0000000000001128
 30
0.0
 42
0.4142135623730951
  0
VERTEX
  5
157E
  8
SAPA_PROFIL
 10
106.70093969801761
 20
-5.7000000000001592
 30
0.0
  0
VERTEX
  5
157F
  8
SAPA_PROFIL
 10
106.70093969801771
 20
-5.6000000000001364
 30
0.0
 42
-0.4142135623730951
  0
SEQEND
  5
1580
  8
SAPA_PROFIL
  0
POLYLINE
  5
1071
  8
SAPA_PROFIL
 66
     1
 10
0.0
 20
0.0
 30
0.0
 70
     1
  0
VERTEX
  5
1581
  8
SAPA_PROFIL
 10
120.20093969801771
 20
-55.0
 30
0.0
  0
VERTEX
  5
1582
  8
SAPA_PROFIL
 10
120.20093969801771
 20
-54.0
 30
0.0
  0
VERTEX
  5
1583
  8
SAPA_PROFIL
 10
122.40093969801779
 20
-54.0
 30
0.0
  0
VERTEX
  5
1584
  8
SAPA_PROFIL
 10
122.40093969801779
 20
-51.0
 30
0.0
  0
VERTEX
  5
1585
  8
SAPA_PROFIL
 10
103.70093969801771
 20
-51.000000000000121
 30
0.0
  0
VERTEX
  5
1586
  8
SAPA_PROFIL
 10
103.70093969801771
 20
-54.000000000000107
 30
0.0
  0
VERTEX
  5
1587
  8
SAPA_PROFIL
 10
106.20093969801771
 20
-54.000000000000107
 30
0.0
  0
VERTEX
  5
1588
  8
SAPA_PROFIL
 10
106.20093969801771
 20
-55.000000000000107
 30
0.0
  0
VERTEX
  5
1589
  8
SAPA_PROFIL
 10
105.40093969801769
 20
-55.800000000000068
 30
0.0
  0
VERTEX
  5
158A
  8
SAPA_PROFIL
 10
99.720554940288494
 20
-55.800000000000068
 30
0.0
  0
VERTEX
  5
158B
  8
SAPA_PROFIL
 10
99.200939698017805
 20
-55.500000000000107
 30
0.0
  0
VERTEX
  5
158C
  8
SAPA_PROFIL
 10
98.681324455747145
 20
-55.800000000000068
 30
0.0
  0
VERTEX
  5
158D
  8
SAPA_PROFIL
 10
93.000939698017774
 20
-55.800000000000068
 30
0.0
  0
VERTEX
  5
158E
  8
SAPA_PROFIL
 10
92.200939698017805
 20
-55.000000000000107
 30
0.0
  0
VERTEX
  5
158F
  8
SAPA_PROFIL
 10
92.200939698017805
 20
-54.000000000000107
 30
0.0
  0
VERTEX
  5
1590
  8
SAPA_PROFIL
 10
94.700939698017805
 20
-54.000000000000107
 30
0.0
  0
VERTEX
  5
1591
  8
SAPA_PROFIL
 10
94.700939698017748
 20
-51.000000000000121
 30
0.0
  0
VERTEX
  5
1592
  8
SAPA_PROFIL
 10
76.000939698017746
 20
-51.000000000000121
 30
0.0
  0
VERTEX
  5
1593
  8
SAPA_PROFIL
 10
76.000939698017817
 20
-54.000000000000107
 30
0.0
  0
VERTEX
  5
1594
  8
SAPA_PROFIL
 10
78.200939698017805
 20
-54.000000000000107
 30
0.0
  0
VERTEX
  5
1595
  8
SAPA_PROFIL
 10
78.200939698017805
 20
-55.000000000000107
 30
0.0
  0
VERTEX
  5
1596
  8
SAPA_PROFIL
 10
77.200939698017805
 20
-56.000000000000121
 30
0.0
  0
VERTEX
  5
1597
  8
SAPA_PROFIL
 10
76.000939698017817
 20
-56.000000000000121
 30
0.0
  0
VERTEX
  5
1598
  8
SAPA_PROFIL
 10
76.000939698017874
 20
-66.000000000000114
 30
0.0
 42
0.4142135623730951
  0
VERTEX
  5
1599
  8
SAPA_PROFIL
 10
76.500939698017874
 20
-66.500000000000114
 30
0.0
  0
VERTEX
  5
159A
  8
SAPA_PROFIL
 10
77.710939698017853
 20
-66.500000000000114
 30
0.0
 42
-0.4142135623730951
  0
VERTEX
  5
159B
  8
SAPA_PROFIL
 10
78.700939698017805
 20
-67.490000000000123
 30
0.0
  0
VERTEX
  5
159C
  8
SAPA_PROFIL
 10
78.700939698017862
 20
-68.010000000000105
 30
0.0
 42
-0.4142135623730951
  0
VERTEX
  5
159D
  8
SAPA_PROFIL
 10
77.710939698017853
 20
-69.000000000000114
 30
0.0
  0
VERTEX
  5
159E
  8
SAPA_PROFIL
 10
77.700939698017862
 20
-69.000000000000114
 30
0.0
  0
VERTEX
  5
159F
  8
SAPA_PROFIL
 10
77.700939698017862
 20
-67.750000000000114
 30
0.0
  0
VERTEX
  5
15A0
  8
SAPA_PROFIL
 10
76.200939698017862
 20
-67.750000000000114
 30
0.0
 42
0.4142135623730951
  0
VERTEX
  5
15A1
  8
SAPA_PROFIL
 10
75.700939698017862
 20
-68.250000000000114
 30
0.0
  0
VERTEX
  5
15A2
  8
SAPA_PROFIL
 10
75.700939698017862
 20
-76.250000000000114
 30
0.0
 42
0.4142135623730951
  0
VERTEX
  5
15A3
  8
SAPA_PROFIL
 10
76.200939698017862
 20
-76.750000000000114
 30
0.0
  0
VERTEX
  5
15A4
  8
SAPA_PROFIL
 10
77.700939698017862
 20
-76.750000000000114
 30
0.0
  0
VERTEX
  5
15A5
  8
SAPA_PROFIL
 10
77.700939698017862
 20
-75.500000000000114
 30
0.0
  0
VERTEX
  5
15A6
  8
SAPA_PROFIL
 10
77.710939698017853
 20
-75.500000000000114
 30
0.0
 42
-0.4142135623730951
  0
VERTEX
  5
15A7
  8
SAPA_PROFIL
 10
78.700939698017805
 20
-76.490000000000123
 30
0.0
  0
VERTEX
  5
15A8
  8
SAPA_PROFIL
 10
78.700939698017862
 20
-77.700000000000045
 30
0.0
 42
-0.4142135623731229
  0
VERTEX
  5
15A9
  8
SAPA_PROFIL
 10
78.400939698017851
 20
-78.000000000000114
 30
0.0
  0
VERTEX
  5
15AA
  8
SAPA_PROFIL
 10
74.500939698017874
 20
-78.000000000000114
 30
0.0
 42
-0.4142135623730675
  0
VERTEX
  5
15AB
  8
SAPA_PROFIL
 10
74.200939698017862
 20
-77.700000000000045
 30
0.0
  0
VERTEX
  5
15AC
  8
SAPA_PROFIL
 10
74.200939698017748
 20
-0.3000000000000682
 30
0.0
 42
-0.4142135623731227
  0
VERTEX
  5
15AD
  8
SAPA_PROFIL
 10
74.50093969801776
 20
-0.0000000000001137
 30
0.0
  0
VERTEX
  5
15AE
  8
SAPA_PROFIL
 10
76.000939698017746
 20
-0.0000000000001137
 30
0.0
 42
-0.4142135623730951
  0
VERTEX
  5
15AF
  8
SAPA_PROFIL
 10
77.50093969801776
 20
-1.500000000000113
 30
0.0
  0
VERTEX
  5
15B0
  8
SAPA_PROFIL
 10
77.50093969801776
 20
-2.0000000000001128
 30
0.0
  0
VERTEX
  5
15B1
  8
SAPA_PROFIL
 10
76.225939698017726
 20
-2.0000000000001128
 30
0.0
  0
VERTEX
  5
15B2
  8
SAPA_PROFIL
 10
76.225939698017726
 20
-3.100000000000136
 30
0.0
  0
VERTEX
  5
15B3
  8
SAPA_PROFIL
 10
77.200939698017748
 20
-3.100000000000136
 30
0.0
 42
-0.4142135623731227
  0
VERTEX
  5
15B4
  8
SAPA_PROFIL
 10
77.500939698017703
 20
-3.4000000000000901
 30
0.0
  0
VERTEX
  5
15B5
  8
SAPA_PROFIL
 10
77.500939698017703
 20
-4.4000000000000901
 30
0.0
  0
VERTEX
  5
15B6
  8
SAPA_PROFIL
 10
76.225939698017726
 20
-4.4000000000000901
 30
0.0
  0
VERTEX
  5
15B7
  8
SAPA_PROFIL
 10
76.225939698017726
 20
-7.5000000000001128
 30
0.0
 42
1.0
  0
VERTEX
  5
15B8
  8
SAPA_PROFIL
 10
81.425939698017714
 20
-7.5000000000001128
 30
0.0
  0
VERTEX
  5
15B9
  8
SAPA_PROFIL
 10
81.425939698017785
 20
-4.4000000000002037
 30
0.0
  0
VERTEX
  5
15BA
  8
SAPA_PROFIL
 10
80.200939698017677
 20
-4.4000000000002037
 30
0.0
  0
VERTEX
  5
15BB
  8
SAPA_PROFIL
 10
80.200939698017677
 20
-3.4000000000000901
 30
0.0
 42
-0.4142135623730673
  0
VERTEX
  5
15BC
  8
SAPA_PROFIL
 10
80.500939698017689
 20
-3.100000000000136
 30
0.0
  0
VERTEX
  5
15BD
  8
SAPA_PROFIL
 10
81.425939698017785
 20
-3.100000000000136
 30
0.0
  0
VERTEX
  5
15BE
  8
SAPA_PROFIL
 10
81.425939698017785
 20
-2.0000000000001128
 30
0.0
  0
VERTEX
  5
15BF
  8
SAPA_PROFIL
 10
80.200939698017748
 20
-2.0000000000001128
 30
0.0
  0
VERTEX
  5
15C0
  8
SAPA_PROFIL
 10
80.200939698017748
 20
-1.500000000000113
 30
0.0
 42
-0.4142135623730951
  0
VERTEX
  5
15C1
  8
SAPA_PROFIL
 10
81.700939698017734
 20
-0.0000000000001137
 30
0.0
  0
VERTEX
  5
15C2
  8
SAPA_PROFIL
 10
83.150939698017737
 20
-0.0000000000001137
 30
0.0
 42
-0.4142135623731227
  0
VERTEX
  5
15C3
  8
SAPA_PROFIL
 10
83.450939698017748
 20
-0.3000000000000682
 30
0.0
  0
VERTEX
  5
15C4
  8
SAPA_PROFIL
 10
83.450939698017748
 20
-2.8000000000000682
 30
0.0
  0
VERTEX
  5
15C5
  8
SAPA_PROFIL
 10
98.681324455747074
 20
-2.8000000000000682
 30
0.0
  0
VERTEX
  5
15C6
  8
SAPA_PROFIL
 10
99.200939698017763
 20
-3.1000000000000218
 30
0.0
  0
VERTEX
  5
15C7
  8
SAPA_PROFIL
 10
99.720554940288309
 20
-2.8000000000000682
 30
0.0
  0
VERTEX
  5
15C8
  8
SAPA_PROFIL
 10
114.95093969801771
 20
-2.8000000000000682
 30
0.0
  0
VERTEX
  5
15C9
  8
SAPA_PROFIL
 10
114.95093969801771
 20
-0.3000000000000682
 30
0.0
 42
-0.4142135623730951
  0
VERTEX
  5
15CA
  8
SAPA_PROFIL
 10
115.2509396980178
 20
0.0
 30
0.0
  0
VERTEX
  5
15CB
  8
SAPA_PROFIL
 10
116.70093969801771
 20
0.0
 30
0.0
 42
-0.4142135623730951
  0
VERTEX
  5
15CC
  8
SAPA_PROFIL
 10
118.20093969801771
 20
-1.5
 30
0.0
  0
VERTEX
  5
15CD
  8
SAPA_PROFIL
 10
118.20093969801771
 20
-2.0
 30
0.0
  0
VERTEX
  5
15CE
  8
SAPA_PROFIL
 10
116.9759396980177
 20
-2.0
 30
0.0
  0
VERTEX
  5
15CF
  8
SAPA_PROFIL
 10
116.9759396980177
 20
-3.1000000000000218
 30
0.0
  0
VERTEX
  5
15D0
  8
SAPA_PROFIL
 10
117.90093969801779
 20
-3.1000000000000218
 30
0.0
 42
-0.4142135623730951
  0
VERTEX
  5
15D1
  8
SAPA_PROFIL
 10
118.20093969801771
 20
-3.3999999999999768
 30
0.0
  0
VERTEX
  5
15D2
  8
SAPA_PROFIL
 10
118.20093969801771
 20
-4.4000000000000901
 30
0.0
  0
VERTEX
  5
15D3
  8
SAPA_PROFIL
 10
116.9759396980177
 20
-4.4000000000000901
 30
0.0
  0
VERTEX
  5
15D4
  8
SAPA_PROFIL
 10
116.9759396980177
 20
-7.5
 30
0.0
 42
1.0
  0
VERTEX
  5
15D5
  8
SAPA_PROFIL
 10
122.1759396980177
 20
-7.5
 30
0.0
  0
VERTEX
  5
15D6
  8
SAPA_PROFIL
 10
122.1759396980177
 20
-4.4000000000000901
 30
0.0
  0
VERTEX
  5
15D7
  8
SAPA_PROFIL
 10
120.90093969801779
 20
-4.4000000000000901
 30
0.0
  0
VERTEX
  5
15D8
  8
SAPA_PROFIL
 10
120.90093969801779
 20
-3.4000000000000901
 30
0.0
 42
-0.4142135623730951
  0
VERTEX
  5
15D9
  8
SAPA_PROFIL
 10
121.20093969801771
 20
-3.1000000000000218
 30
0.0
  0
VERTEX
  5
15DA
  8
SAPA_PROFIL
 10
122.1759396980177
 20
-3.1000000000000218
 30
0.0
  0
VERTEX
  5
15DB
  8
SAPA_PROFIL
 10
122.1759396980177
 20
-2.0
 30
0.0
  0
VERTEX
  5
15DC
  8
SAPA_PROFIL
 10
120.90093969801779
 20
-2.0
 30
0.0
  0
VERTEX
  5
15DD
  8
SAPA_PROFIL
 10
120.90093969801779
 20
-1.5
 30
0.0
 42
-0.4142135623730951
  0
VERTEX
  5
15DE
  8
SAPA_PROFIL
 10
122.40093969801779
 20
0.0
 30
0.0
  0
VERTEX
  5
15DF
  8
SAPA_PROFIL
 10
123.90093969801779
 20
0.0
 30
0.0
 42
-0.4142135623730951
  0
VERTEX
  5
15E0
  8
SAPA_PROFIL
 10
124.20093969801771
 20
-0.3000000000000682
 30
0.0
  0
VERTEX
  5
15E1
  8
SAPA_PROFIL
 10
124.20093969801771
 20
-56.0
 30
0.0
  0
VERTEX
  5
15E2
  8
SAPA_PROFIL
 10
121.20093969801771
 20
-56.0
 30
0.0
  0
SEQEND
  5
15E3
  8
SAPA_PROFIL
  0
POLYLINE
  5
1072
  8
SAPA_PROFIL
 66
     1
 10
0.0
 20
0.0
 30
0.0
 70
   128
  0
VERTEX
  5
15E4
  8
SAPA_PROFIL
 10
-23.034074173710451
 20
22.441180954898179
 30
0.0
 42
-0.8769764629927568
  0
VERTEX
  5
15E5
  8
SAPA_PROFIL
 10
-24.99999999999952
 20
22.700000000000731
 30
0.0
 42
0.8769764629927568
  0
VERTEX
  5
15E6
  8
SAPA_PROFIL
 10
-23.034074173710511
 20
22.441180954898751
 30
0.0
  0
VERTEX
  5
15E7
  8
SAPA_PROFIL
 10
-22.408020328491261
 20
24.777645713531459
 30
0.0
 42
-0.3394542588633806
  0
VERTEX
  5
15E8
  8
SAPA_PROFIL
 10
-22.118242580604541
 20
25.000000000000679
 30
0.0
  0
VERTEX
  5
15E9
  8
SAPA_PROFIL
 10
62.000000000000512
 20
24.999999999999659
 30
0.0
 42
-0.4142135623730951
  0
VERTEX
  5
15EA
  8
SAPA_PROFIL
 10
62.500000000000512
 20
24.499999999999659
 30
0.0
  0
VERTEX
  5
15EB
  8
SAPA_PROFIL
 10
62.500000000000462
 20
-24.499999999999321
 30
0.0
 42
-0.4142135623730951
  0
VERTEX
  5
15EC
  8
SAPA_PROFIL
 10
62.000000000000448
 20
-24.999999999999321
 30
0.0
  0
VERTEX
  5
15ED
  8
SAPA_PROFIL
 10
-22.118242580604541
 20
-25.000000000000231
 30
0.0
 42
-0.3394542588633758
  0
VERTEX
  5
15EE
  8
SAPA_PROFIL
 10
-22.408020328490519
 20
-24.777645713531228
 30
0.0
  0
VERTEX
  5
15EF
  8
SAPA_PROFIL
 10
-23.034074173710451
 20
-22.441180954897732
 30
0.0
 42
0.8769764629927491
  0
VERTEX
  5
15F0
  8
SAPA_PROFIL
 10
-24.99999999999952
 20
-22.700000000000269
 30
0.0
  0
VERTEX
  5
15F1
  8
SAPA_PROFIL
 10
-24.99999999999952
 20
-22.712613464860279
 30
0.0
 42
-0.4040262258351518
  0
VERTEX
  5
15F2
  8
SAPA_PROFIL
 10
-26.93020100659453
 20
-24.711395118898281
 30
0.0
  0
VERTEX
  5
15F3
  8
SAPA_PROFIL
 10
-35.189530150987771
 20
-24.999817248106979
 30
0.0
 42
-0.4244748162096047
  0
VERTEX
  5
15F4
  8
SAPA_PROFIL
 10
-35.499999999998522
 20
-24.7000000000013
 30
0.0
  0
VERTEX
  5
15F5
  8
SAPA_PROFIL
 10
-35.499999999999517
 20
-22.400000000001342
 30
0.0
  0
VERTEX
  5
15F6
  8
SAPA_PROFIL
 10
-35.03507658043327
 20
-21.813615984240531
 30
0.0
 42
-0.7105995015650719
  0
VERTEX
  5
15F7
  8
SAPA_PROFIL
 10
-34.499999999998522
 20
-22.000000000001251
 30
0.0
  0
VERTEX
  5
15F8
  8
SAPA_PROFIL
 10
-34.499999999999552
 20
-22.900000000000318
 30
0.0
 42
0.4142135623731258
  0
VERTEX
  5
15F9
  8
SAPA_PROFIL
 10
-34.199999999999541
 20
-23.200000000000269
 30
0.0
  0
VERTEX
  5
15FA
  8
SAPA_PROFIL
 10
-31.799999999999532
 20
-23.200000000000269
 30
0.0
 42
0.4142135623731258
  0
VERTEX
  5
15FB
  8
SAPA_PROFIL
 10
-31.49999999999952
 20
-22.900000000000318
 30
0.0
  0
VERTEX
  5
15FC
  8
SAPA_PROFIL
 10
-31.49999999999952
 20
-18.000000000001251
 30
0.0
 42
0.4142135623730951
  0
VERTEX
  5
15FD
  8
SAPA_PROFIL
 10
-31.799999999999532
 20
-17.700000000001289
 30
0.0
  0
VERTEX
  5
15FE
  8
SAPA_PROFIL
 10
-34.199999999999541
 20
-17.700000000001289
 30
0.0
 42
0.4142135623731206
  0
VERTEX
  5
15FF
  8
SAPA_PROFIL
 10
-34.499999999999517
 20
-18.000000000001251
 30
0.0
  0
VERTEX
  5
1600
  8
SAPA_PROFIL
 10
-34.499999999999517
 20
-18.400000000000318
 30
0.0
 42
-0.7105995015649539
  0
VERTEX
  5
1601
  8
SAPA_PROFIL
 10
-35.035076580433532
 20
-18.586384015761269
 30
0.0
  0
VERTEX
  5
1602
  8
SAPA_PROFIL
 10
-35.499999999999517
 20
-18.000000000001251
 30
0.0
  0
VERTEX
  5
1603
  8
SAPA_PROFIL
 10
-35.499999999999538
 20
-16.300000000001319
 30
0.0
 42
-0.4142135623730951
  0
VERTEX
  5
1604
  8
SAPA_PROFIL
 10
-35.199999999999527
 20
-16.000000000001251
 30
0.0
  0
VERTEX
  5
1605
  8
SAPA_PROFIL
 10
-34.647213595498528
 20
-16.000000000001251
 30
0.0
 42
-0.2134217652833428
  0
VERTEX
  5
1606
  8
SAPA_PROFIL
 10
-34.423606797749471
 20
-16.10000000000036
 30
0.0
 42
0.2134217652833501
  0
VERTEX
  5
1607
  8
SAPA_PROFIL
 10
-34.199999999999541
 20
-16.200000000000269
 30
0.0
  0
VERTEX
  5
1608
  8
SAPA_PROFIL
 10
-30.299999999999532
 20
-16.200000000001289
 30
0.0
 42
-0.4142135623731088
  0
VERTEX
  5
1609
  8
SAPA_PROFIL
 10
-29.99999999999952
 20
-16.500000000001251
 30
0.0
  0
VERTEX
  5
160A
  8
SAPA_PROFIL
 10
-29.99999999999952
 20
-22.299610616440312
 30
0.0
 42
0.4244748162096096
  0
VERTEX
  5
160B
  8
SAPA_PROFIL
 10
-29.482550251647531
 20
-22.79930602995023
 30
0.0
  0
VERTEX
  5
160C
  8
SAPA_PROFIL
 10
-27.48255025164827
 20
-22.729464490966851
 30
0.0
 42
0.4040262258351467
  0
VERTEX
  5
160D
  8
SAPA_PROFIL
 10
-26.99999999999952
 20
-22.229769077457259
 30
0.0
  0
VERTEX
  5
160E
  8
SAPA_PROFIL
 10
-26.99999999999952
 20
-2.1499999999992951
 30
0.0
 42
0.4142135623730951
  0
VERTEX
  5
160F
  8
SAPA_PROFIL
 10
-27.99999999999952
 20
-1.1499999999992949
 30
0.0
  0
VERTEX
  5
1610
  8
SAPA_PROFIL
 10
-31.49999999999952
 20
-1.1499999999992949
 30
0.0
 42
0.4142135623730992
  0
VERTEX
  5
1611
  8
SAPA_PROFIL
 10
-32.499999999999517
 20
-2.1500000000003179
 30
0.0
  0
VERTEX
  5
1612
  8
SAPA_PROFIL
 10
-32.499999999999517
 20
-4.0000000000003411
 30
0.0
 42
-0.4142135623730951
  0
VERTEX
  5
1613
  8
SAPA_PROFIL
 10
-33.499999999999517
 20
-5.0000000000003411
 30
0.0
  0
VERTEX
  5
1614
  8
SAPA_PROFIL
 10
-52.199999999999527
 20
-5.0000000000003411
 30
0.0
 42
-0.4142135623730967
  0
VERTEX
  5
1615
  8
SAPA_PROFIL
 10
-52.499999999999538
 20
-4.700000000000272
 30
0.0
  0
VERTEX
  5
1616
  8
SAPA_PROFIL
 10
-52.499999999999538
 20
-3.0757359312882491
 30
0.0
  0
VERTEX
  5
1617
  8
SAPA_PROFIL
 10
-51.5621320343555
 20
-2.1378679656443178
 30
0.0
 42
-0.6681786379193148
  0
VERTEX
  5
1618
  8
SAPA_PROFIL
 10
-51.049999999999528
 20
-2.3500000000002501
 30
0.0
  0
VERTEX
  5
1619
  8
SAPA_PROFIL
 10
-51.049999999999528
 20
-2.700000000000272
 30
0.0
  0
VERTEX
  5
161A
  8
SAPA_PROFIL
 10
-49.673765404325017
 20
-2.0767196957481242
 30
0.0
 42
-0.5450207774093593
  0
VERTEX
  5
161B
  8
SAPA_PROFIL
 10
-49.249999999999538
 20
-2.3500000000002501
 30
0.0
  0
VERTEX
  5
161C
  8
SAPA_PROFIL
 10
-49.249999999999538
 20
-2.700000000000272
 30
0.0
  0
VERTEX
  5
161D
  8
SAPA_PROFIL
 10
-47.873765404324963
 20
-2.0767196957481242
 30
0.0
 42
-0.5450207774092377
  0
VERTEX
  5
161E
  8
SAPA_PROFIL
 10
-47.449999999999527
 20
-2.3500000000002501
 30
0.0
  0
VERTEX
  5
161F
  8
SAPA_PROFIL
 10
-47.449999999999527
 20
-2.700000000000272
 30
0.0
  0
VERTEX
  5
1620
  8
SAPA_PROFIL
 10
-46.073765404324917
 20
-2.0767196957481242
 30
0.0
 42
-0.5450207774091275
  0
VERTEX
  5
1621
  8
SAPA_PROFIL
 10
-45.649999999999523
 20
-2.3500000000002501
 30
0.0
  0
VERTEX
  5
1622
  8
SAPA_PROFIL
 10
-45.649999999999523
 20
-2.700000000000272
 30
0.0
  0
VERTEX
  5
1623
  8
SAPA_PROFIL
 10
-44.273765404324898
 20
-2.0767196957481242
 30
0.0
 42
-0.545020777409056
  0
VERTEX
  5
1624
  8
SAPA_PROFIL
 10
-43.849999999999497
 20
-2.3500000000002501
 30
0.0
  0
VERTEX
  5
1625
  8
SAPA_PROFIL
 10
-43.849999999999497
 20
-2.700000000000272
 30
0.0
  0
VERTEX
  5
1626
  8
SAPA_PROFIL
 10
-42.473765404324951
 20
-2.0767196957481242
 30
0.0
 42
-0.5450207774091171
  0
VERTEX
  5
1627
  8
SAPA_PROFIL
 10
-42.049999999999521
 20
-2.3500000000002501
 30
0.0
  0
VERTEX
  5
1628
  8
SAPA_PROFIL
 10
-42.049999999999521
 20
-2.700000000000272
 30
0.0
  0
VERTEX
  5
1629
  8
SAPA_PROFIL
 10
-40.673765404325017
 20
-2.0767196957481242
 30
0.0
 42
-0.5450207774094031
  0
VERTEX
  5
162A
  8
SAPA_PROFIL
 10
-40.24999999999951
 20
-2.3500000000002501
 30
0.0
  0
VERTEX
  5
162B
  8
SAPA_PROFIL
 10
-40.24999999999951
 20
-2.700000000000272
 30
0.0
  0
VERTEX
  5
162C
  8
SAPA_PROFIL
 10
-38.873765404324899
 20
-2.0767196957481242
 30
0.0
 42
-0.5450207774091194
  0
VERTEX
  5
162D
  8
SAPA_PROFIL
 10
-38.449999999999541
 20
-2.3500000000002501
 30
0.0
  0
VERTEX
  5
162E
  8
SAPA_PROFIL
 10
-38.449999999999541
 20
-2.700000000000272
 30
0.0
  0
VERTEX
  5
162F
  8
SAPA_PROFIL
 10
-37.073765404324888
 20
-2.0767196957481242
 30
0.0
 42
-0.5450207774090981
  0
VERTEX
  5
1630
  8
SAPA_PROFIL
 10
-36.649999999999523
 20
-2.3500000000002501
 30
0.0
  0
VERTEX
  5
1631
  8
SAPA_PROFIL
 10
-36.649999999999523
 20
-2.700000000000272
 30
0.0
  0
VERTEX
  5
1632
  8
SAPA_PROFIL
 10
-35.499999999999517
 20
-2.700000000000272
 30
0.0
 42
0.4142135623730951
  0
VERTEX
  5
1633
  8
SAPA_PROFIL
 10
-34.499999999999517
 20
-1.700000000000272
 30
0.0
  0
VERTEX
  5
1634
  8
SAPA_PROFIL
 10
-34.499999999999517
 20
1.7000000000007269
 30
0.0
 42
0.4142135623730951
  0
VERTEX
  5
1635
  8
SAPA_PROFIL
 10
-35.499999999999517
 20
2.7000000000007272
 30
0.0
  0
VERTEX
  5
1636
  8
SAPA_PROFIL
 10
-35.749999999999517
 20
2.7000000000007272
 30
0.0
  0
VERTEX
  5
1637
  8
SAPA_PROFIL
 10
-35.749999999999517
 20
2.350000000000477
 30
0.0
 42
-0.5450207774088494
  0
VERTEX
  5
1638
  8
SAPA_PROFIL
 10
-36.173765404324513
 20
2.076719695747669
 30
0.0
  0
VERTEX
  5
1639
  8
SAPA_PROFIL
 10
-37.549999999999528
 20
2.7000000000007272
 30
0.0
  0
VERTEX
  5
163A
  8
SAPA_PROFIL
 10
-37.549999999999528
 20
2.350000000000477
 30
0.0
 42
-0.5450207774088274
  0
VERTEX
  5
163B
  8
SAPA_PROFIL
 10
-37.973765404324517
 20
2.076719695747669
 30
0.0
  0
VERTEX
  5
163C
  8
SAPA_PROFIL
 10
-39.349999999999511
 20
2.7000000000007272
 30
0.0
  0
VERTEX
  5
163D
  8
SAPA_PROFIL
 10
-39.349999999999511
 20
2.350000000000704
 30
0.0
 42
-0.5450207774090874
  0
VERTEX
  5
163E
  8
SAPA_PROFIL
 10
-39.773765404324543
 20
2.076719695747669
 30
0.0
  0
VERTEX
  5
163F
  8
SAPA_PROFIL
 10
-41.149999999999523
 20
2.7000000000007272
 30
0.0
  0
VERTEX
  5
1640
  8
SAPA_PROFIL
 10
-41.149999999999523
 20
2.350000000000477
 30
0.0
 42
-0.5450207774087519
  0
VERTEX
  5
1641
  8
SAPA_PROFIL
 10
-41.573765404324512
 20
2.076719695747669
 30
0.0
  0
VERTEX
  5
1642
  8
SAPA_PROFIL
 10
-42.949999999999527
 20
2.7000000000007272
 30
0.0
  0
VERTEX
  5
1643
  8
SAPA_PROFIL
 10
-42.949999999999527
 20
2.350000000000477
 30
0.0
 42
-0.5450207774088199
  0
VERTEX
  5
1644
  8
SAPA_PROFIL
 10
-43.37376540432453
 20
2.076719695747669
 30
0.0
  0
VERTEX
  5
1645
  8
SAPA_PROFIL
 10
-44.749999999999538
 20
2.7000000000007272
 30
0.0
  0
VERTEX
  5
1646
  8
SAPA_PROFIL
 10
-44.74999999999951
 20
2.350000000000477
 30
0.0
 42
-0.5450207774088308
  0
VERTEX
  5
1647
  8
SAPA_PROFIL
 10
-45.173765404324513
 20
2.076719695747669
 30
0.0
  0
VERTEX
  5
1648
  8
SAPA_PROFIL
 10
-46.549999999999528
 20
2.7000000000007272
 30
0.0
  0
VERTEX
  5
1649
  8
SAPA_PROFIL
 10
-46.549999999999528
 20
2.3500000000008181
 30
0.0
 42
-0.5450207774091407
  0
VERTEX
  5
164A
  8
SAPA_PROFIL
 10
-46.973765404324517
 20
2.076719695747669
 30
0.0
  0
VERTEX
  5
164B
  8
SAPA_PROFIL
 10
-48.349999999999511
 20
2.7000000000007272
 30
0.0
  0
VERTEX
  5
164C
  8
SAPA_PROFIL
 10
-48.349999999999511
 20
2.350000000000477
 30
0.0
 42
-0.5450207774088061
  0
VERTEX
  5
164D
  8
SAPA_PROFIL
 10
-48.773765404324543
 20
2.076719695747669
 30
0.0
  0
VERTEX
  5
164E
  8
SAPA_PROFIL
 10
-50.149999999999523
 20
2.7000000000007272
 30
0.0
  0
VERTEX
  5
164F
  8
SAPA_PROFIL
 10
-50.149999999999523
 20
2.0500000000007499
 30
0.0
  0
VERTEX
  5
1650
  8
SAPA_PROFIL
 10
-51.34999999999917
 20
2.0499999999997272
 30
0.0
 42
-0.1989123673804354
  0
VERTEX
  5
1651
  8
SAPA_PROFIL
 10
-51.562132034355528
 20
2.1378679656446589
 30
0.0
  0
VERTEX
  5
1652
  8
SAPA_PROFIL
 10
-52.499999999999538
 20
3.0757359312887038
 30
0.0
  0
VERTEX
  5
1653
  8
SAPA_PROFIL
 10
-52.499999999999538
 20
4.6999999999997044
 30
0.0
 42
-0.4142135623731001
  0
VERTEX
  5
1654
  8
SAPA_PROFIL
 10
-52.199999999999527
 20
4.9999999999996581
 30
0.0
  0
VERTEX
  5
1655
  8
SAPA_PROFIL
 10
-33.499999999999517
 20
4.9999999999996581
 30
0.0
 42
-0.4142135623730909
  0
VERTEX
  5
1656
  8
SAPA_PROFIL
 10
-32.499999999999517
 20
3.9999999999996581
 30
0.0
  0
VERTEX
  5
1657
  8
SAPA_PROFIL
 10
-32.499999999999517
 20
2.1500000000006589
 30
0.0
 42
0.4142135623730951
  0
VERTEX
  5
1658
  8
SAPA_PROFIL
 10
-31.49999999999952
 20
1.1500000000006589
 30
0.0
  0
VERTEX
  5
1659
  8
SAPA_PROFIL
 10
-27.99999999999952
 20
1.1500000000006589
 30
0.0
 42
0.4142135623730951
  0
VERTEX
  5
165A
  8
SAPA_PROFIL
 10
-26.99999999999952
 20
2.1500000000006589
 30
0.0
  0
VERTEX
  5
165B
  8
SAPA_PROFIL
 10
-26.99999999999952
 20
22.229769077457721
 30
0.0
 42
0.4040262258351549
  0
VERTEX
  5
165C
  8
SAPA_PROFIL
 10
-27.48255025164827
 20
22.729464490967299
 30
0.0
  0
VERTEX
  5
165D
  8
SAPA_PROFIL
 10
-29.482550251647531
 20
22.799306029950689
 30
0.0
 42
0.4244748162096052
  0
VERTEX
  5
165E
  8
SAPA_PROFIL
 10
-29.99999999999952
 20
22.299610616440759
 30
0.0
  0
VERTEX
  5
165F
  8
SAPA_PROFIL
 10
-29.99999999999952
 20
16.500000000001702
 30
0.0
 42
-0.414213562373102
  0
VERTEX
  5
1660
  8
SAPA_PROFIL
 10
-30.299999999999532
 20
16.200000000001751
 30
0.0
  0
VERTEX
  5
1661
  8
SAPA_PROFIL
 10
-34.199999999999541
 20
16.200000000000731
 30
0.0
 42
0.2134217652833544
  0
VERTEX
  5
1662
  8
SAPA_PROFIL
 10
-34.423606797749471
 20
16.100000000000701
 30
0.0
 42
-0.2134217652833613
  0
VERTEX
  5
1663
  8
SAPA_PROFIL
 10
-34.647213595498528
 20
16.000000000001702
 30
0.0
  0
VERTEX
  5
1664
  8
SAPA_PROFIL
 10
-35.199999999999527
 20
16.000000000001702
 30
0.0
 42
-0.4142135623731089
  0
VERTEX
  5
1665
  8
SAPA_PROFIL
 10
-35.499999999999517
 20
16.30000000000177
 30
0.0
  0
VERTEX
  5
1666
  8
SAPA_PROFIL
 10
-35.499999999999517
 20
18.000000000001702
 30
0.0
  0
VERTEX
  5
1667
  8
SAPA_PROFIL
 10
-35.035076580433532
 20
18.58638401576172
 30
0.0
 42
-0.7105995015649391
  0
VERTEX
  5
1668
  8
SAPA_PROFIL
 10
-34.499999999999517
 20
18.40000000000077
 30
0.0
  0
VERTEX
  5
1669
  8
SAPA_PROFIL
 10
-34.499999999999517
 20
18.000000000001702
 30
0.0
 42
0.4142135623731367
  0
VERTEX
  5
166A
  8
SAPA_PROFIL
 10
-34.199999999999541
 20
17.700000000001751
 30
0.0
  0
VERTEX
  5
166B
  8
SAPA_PROFIL
 10
-31.799999999999532
 20
17.700000000001751
 30
0.0
 42
0.4142135623730916
  0
VERTEX
  5
166C
  8
SAPA_PROFIL
 10
-31.49999999999952
 20
18.000000000001702
 30
0.0
  0
VERTEX
  5
166D
  8
SAPA_PROFIL
 10
-31.49999999999952
 20
22.900000000000659
 30
0.0
 42
0.4142135623730984
  0
VERTEX
  5
166E
  8
SAPA_PROFIL
 10
-31.799999999999532
 20
23.200000000000731
 30
0.0
  0
VERTEX
  5
166F
  8
SAPA_PROFIL
 10
-34.199999999999541
 20
23.200000000001751
 30
0.0
 42
0.4142135623731159
  0
VERTEX
  5
1670
  8
SAPA_PROFIL
 10
-34.499999999999517
 20
22.900000000001679
 30
0.0
  0
VERTEX
  5
1671
  8
SAPA_PROFIL
 10
-34.499999999998522
 20
22.000000000001709
 30
0.0
 42
-0.710599501565102
  0
VERTEX
  5
1672
  8
SAPA_PROFIL
 10
-35.03507658043327
 20
21.813615984240979
 30
0.0
  0
VERTEX
  5
1673
  8
SAPA_PROFIL
 10
-35.499999999999517
 20
22.400000000001679
 30
0.0
  0
VERTEX
  5
1674
  8
SAPA_PROFIL
 10
-35.499999999998522
 20
24.700000000001751
 30
0.0
 42
-0.424474816209507
  0
VERTEX
  5
1675
  8
SAPA_PROFIL
 10
-35.189530150987878
 20
24.99981724810743
 30
0.0
  0
VERTEX
  5
1676
  8
SAPA_PROFIL
 10
-26.93020100659453
 20
24.711395118898739
 30
0.0
 42
-0.4040262258351565
  0
VERTEX
  5
1677
  8
SAPA_PROFIL
 10
-24.99999999999952
 20
22.712613464860741
 30
0.0
  0
VERTEX
  5
1678
  8
SAPA_PROFIL
 10
-24.99999999999952
 20
22.700000000000731
 30
0.0
  0
VERTEX
  5
1679
  8
SAPA_PROFIL
 10
-24.99999999999952
 20
22.712613464860741
 30
0.0
  0
SEQEND
  5
167A
  8
SAPA_PROFIL
  0
POLYLINE
  5
1073
  8
SAPA_PROFIL
 66
     1
 10
0.0
 20
0.0
 30
0.0
 70
   129
  0
VERTEX
  5
167B
  8
SAPA_PROFIL
 10
59.2000000000005
 20
22.699999999999712
 30
0.0
 42
-0.4142135623730951
  0
VERTEX
  5
167C
  8
SAPA_PROFIL
 10
60.2000000000005
 20
21.699999999999712
 30
0.0
  0
VERTEX
  5
167D
  8
SAPA_PROFIL
 10
60.200000000000443
 20
-21.69999999999936
 30
0.0
 42
-0.4142135623730898
  0
VERTEX
  5
167E
  8
SAPA_PROFIL
 10
59.200000000000443
 20
-22.69999999999925
 30
0.0
  0
VERTEX
  5
167F
  8
SAPA_PROFIL
 10
50.000000000000462
 20
-22.69999999999925
 30
0.0
 42
-0.4142135623731053
  0
VERTEX
  5
1680
  8
SAPA_PROFIL
 10
49.000000000000448
 20
-21.69999999999925
 30
0.0
  0
VERTEX
  5
1681
  8
SAPA_PROFIL
 10
49.000000000000448
 20
-17.799999999999269
 30
0.0
 42
0.4142135623730951
  0
VERTEX
  5
1682
  8
SAPA_PROFIL
 10
48.500000000000483
 20
-17.299999999999269
 30
0.0
  0
VERTEX
  5
1683
  8
SAPA_PROFIL
 10
46.400000000000453
 20
-17.299999999999269
 30
0.0
 42
0.4142135623730951
  0
VERTEX
  5
1684
  8
SAPA_PROFIL
 10
46.100000000000477
 20
-17.599999999999341
 30
0.0
  0
VERTEX
  5
1685
  8
SAPA_PROFIL
 10
46.100000000000477
 20
-18.099999999999341
 30
0.0
 42
0.4142135623729981
  0
VERTEX
  5
1686
  8
SAPA_PROFIL
 10
46.400000000000453
 20
-18.399999999999292
 30
0.0
  0
VERTEX
  5
1687
  8
SAPA_PROFIL
 10
46.736626924635203
 20
-18.399999999999629
 30
0.0
 42
-0.5643553431125428
  0
VERTEX
  5
1688
  8
SAPA_PROFIL
 10
44.87439504323347
 20
-22.72439504323529
 30
0.0
  0
VERTEX
  5
1689
  8
SAPA_PROFIL
 10
44.500000000000483
 20
-22.3500000000023
 30
0.0
  0
VERTEX
  5
168A
  8
SAPA_PROFIL
 10
44.125604956763048
 20
-22.724395043233471
 30
0.0
 42
-0.5643553431119904
  0
VERTEX
  5
168B
  8
SAPA_PROFIL
 10
42.263373075366466
 20
-18.399999999999292
 30
0.0
  0
VERTEX
  5
168C
  8
SAPA_PROFIL
 10
42.60000000000047
 20
-18.399999999999292
 30
0.0
 42
0.4142135623730951
  0
VERTEX
  5
168D
  8
SAPA_PROFIL
 10
42.90000000000046
 20
-18.099999999999341
 30
0.0
  0
VERTEX
  5
168E
  8
SAPA_PROFIL
 10
42.90000000000046
 20
-17.599999999999341
 30
0.0
 42
0.4142135623730951
  0
VERTEX
  5
168F
  8
SAPA_PROFIL
 10
42.60000000000047
 20
-17.299999999999269
 30
0.0
  0
VERTEX
  5
1690
  8
SAPA_PROFIL
 10
40.500000000000483
 20
-17.299999999999269
 30
0.0
 42
0.4142135623730951
  0
VERTEX
  5
1691
  8
SAPA_PROFIL
 10
40.000000000000483
 20
-17.799999999999269
 30
0.0
  0
VERTEX
  5
1692
  8
SAPA_PROFIL
 10
40.000000000000483
 20
-21.69999999999925
 30
0.0
 42
-0.4142135623730951
  0
VERTEX
  5
1693
  8
SAPA_PROFIL
 10
39.000000000000483
 20
-22.69999999999925
 30
0.0
  0
VERTEX
  5
1694
  8
SAPA_PROFIL
 10
9.9999999999994316
 20
-22.69999999999925
 30
0.0
 42
-0.4142135623730951
  0
VERTEX
  5
1695
  8
SAPA_PROFIL
 10
8.9999999999994884
 20
-21.69999999999925
 30
0.0
  0
VERTEX
  5
1696
  8
SAPA_PROFIL
 10
8.9999999999994884
 20
-17.799999999999269
 30
0.0
 42
0.4142135623730951
  0
VERTEX
  5
1697
  8
SAPA_PROFIL
 10
8.4999999999994884
 20
-17.299999999999269
 30
0.0
  0
VERTEX
  5
1698
  8
SAPA_PROFIL
 10
6.3999999999994648
 20
-17.299999999999269
 30
0.0
 42
0.4142135623730951
  0
VERTEX
  5
1699
  8
SAPA_PROFIL
 10
6.0999999999994818
 20
-17.599999999999341
 30
0.0
  0
VERTEX
  5
169A
  8
SAPA_PROFIL
 10
6.0999999999994818
 20
-18.099999999999341
 30
0.0
 42
0.4142135623730389
  0
VERTEX
  5
169B
  8
SAPA_PROFIL
 10
6.3999999999994648
 20
-18.399999999999292
 30
0.0
  0
VERTEX
  5
169C
  8
SAPA_PROFIL
 10
6.736626924635174
 20
-18.399999999999629
 30
0.0
 42
-0.5643553431125485
  0
VERTEX
  5
169D
  8
SAPA_PROFIL
 10
4.8743950432324823
 20
-22.72439504323529
 30
0.0
  0
VERTEX
  5
169E
  8
SAPA_PROFIL
 10
4.4999999999994884
 20
-22.3500000000023
 30
0.0
  0
VERTEX
  5
169F
  8
SAPA_PROFIL
 10
4.1256049567630271
 20
-22.724395043233471
 30
0.0
 42
-0.5643553431119904
  0
VERTEX
  5
16A0
  8
SAPA_PROFIL
 10
2.2633730753664731
 20
-18.399999999999292
 30
0.0
  0
VERTEX
  5
16A1
  8
SAPA_PROFIL
 10
2.600000000000505
 20
-18.399999999999292
 30
0.0
 42
0.4142135623730592
  0
VERTEX
  5
16A2
  8
SAPA_PROFIL
 10
2.90000000000046
 20
-18.099999999999341
 30
0.0
  0
VERTEX
  5
16A3
  8
SAPA_PROFIL
 10
2.90000000000046
 20
-17.599999999999341
 30
0.0
 42
0.4142135623730951
  0
VERTEX
  5
16A4
  8
SAPA_PROFIL
 10
2.600000000000477
 20
-17.299999999999269
 30
0.0
  0
VERTEX
  5
16A5
  8
SAPA_PROFIL
 10
0.4999999999994884
 20
-17.299999999999269
 30
0.0
 42
0.4142135623730951
  0
VERTEX
  5
16A6
  8
SAPA_PROFIL
 10
-0.0000000000005116
 20
-17.799999999999269
 30
0.0
  0
VERTEX
  5
16A7
  8
SAPA_PROFIL
 10
-0.0000000000005116
 20
-21.69999999999925
 30
0.0
 42
-0.4142135623730951
  0
VERTEX
  5
16A8
  8
SAPA_PROFIL
 10
-1.0000000000005109
 20
-22.69999999999925
 30
0.0
  0
VERTEX
  5
16A9
  8
SAPA_PROFIL
 10
-19.816261616667472
 20
-22.700000000000269
 30
0.0
 42
-0.3394542588633853
  0
VERTEX
  5
16AA
  8
SAPA_PROFIL
 10
-20.782187442956509
 20
-21.958819045103269
 30
0.0
  0
VERTEX
  5
16AB
  8
SAPA_PROFIL
 10
-20.812444773245598
 20
-21.845897151161921
 30
0.0
 42
0.3708012337423849
  0
VERTEX
  5
16AC
  8
SAPA_PROFIL
 10
-24.366666666666191
 20
-19.42043363300127
 30
0.0
 42
-0.4472135954999589
  0
VERTEX
  5
16AD
  8
SAPA_PROFIL
 10
-24.699999999999541
 20
-19.122291236001271
 30
0.0
  0
VERTEX
  5
16AE
  8
SAPA_PROFIL
 10
-24.699999999999541
 20
19.122291236001729
 30
0.0
 42
-0.4472135954999537
  0
VERTEX
  5
16AF
  8
SAPA_PROFIL
 10
-24.366666666666191
 20
19.420433633001721
 30
0.0
 42
0.3708012337423849
  0
VERTEX
  5
16B0
  8
SAPA_PROFIL
 10
-20.812444773245598
 20
21.845897151162379
 30
0.0
  0
VERTEX
  5
16B1
  8
SAPA_PROFIL
 10
-20.782187442956509
 20
21.95881904510372
 30
0.0
 42
-0.3394542588633807
  0
VERTEX
  5
16B2
  8
SAPA_PROFIL
 10
-19.816261616667472
 20
22.700000000000731
 30
0.0
  0
VERTEX
  5
16B3
  8
SAPA_PROFIL
 10
-1.0000000000005109
 20
22.699999999999712
 30
0.0
 42
-0.4142135623730951
  0
VERTEX
  5
16B4
  8
SAPA_PROFIL
 10
-0.0000000000005116
 20
21.699999999999712
 30
0.0
  0
VERTEX
  5
16B5
  8
SAPA_PROFIL
 10
-0.0000000000005116
 20
17.79999999999972
 30
0.0
 42
0.4142135623730951
  0
VERTEX
  5
16B6
  8
SAPA_PROFIL
 10
0.4999999999994884
 20
17.299999999999731
 30
0.0
  0
VERTEX
  5
16B7
  8
SAPA_PROFIL
 10
2.600000000000477
 20
17.299999999999731
 30
0.0
 42
0.4142135623730951
  0
VERTEX
  5
16B8
  8
SAPA_PROFIL
 10
2.90000000000046
 20
17.599999999999682
 30
0.0
  0
VERTEX
  5
16B9
  8
SAPA_PROFIL
 10
2.90000000000046
 20
18.099999999999682
 30
0.0
 42
0.4142135623730951
  0
VERTEX
  5
16BA
  8
SAPA_PROFIL
 10
2.600000000000477
 20
18.39999999999975
 30
0.0
  0
VERTEX
  5
16BB
  8
SAPA_PROFIL
 10
2.2633730753664731
 20
18.39999999999975
 30
0.0
 42
-0.5643553431119905
  0
VERTEX
  5
16BC
  8
SAPA_PROFIL
 10
4.1256049567629702
 20
22.72439504323393
 30
0.0
  0
VERTEX
  5
16BD
  8
SAPA_PROFIL
 10
4.4999999999994884
 20
22.350000000002751
 30
0.0
  0
VERTEX
  5
16BE
  8
SAPA_PROFIL
 10
4.8743950432324823
 20
22.724395043235749
 30
0.0
 42
-0.5643553431125659
  0
VERTEX
  5
16BF
  8
SAPA_PROFIL
 10
6.736626924635118
 20
18.399999999999981
 30
0.0
  0
VERTEX
  5
16C0
  8
SAPA_PROFIL
 10
6.3999999999994648
 20
18.39999999999975
 30
0.0
 42
0.4142135623730388
  0
VERTEX
  5
16C1
  8
SAPA_PROFIL
 10
6.0999999999994818
 20
18.099999999999682
 30
0.0
  0
VERTEX
  5
16C2
  8
SAPA_PROFIL
 10
6.0999999999994818
 20
17.599999999999682
 30
0.0
 42
0.4142135623731053
  0
VERTEX
  5
16C3
  8
SAPA_PROFIL
 10
6.3999999999994648
 20
17.299999999999731
 30
0.0
  0
VERTEX
  5
16C4
  8
SAPA_PROFIL
 10
8.4999999999994884
 20
17.299999999999731
 30
0.0
 42
0.4142135623730951
  0
VERTEX
  5
16C5
  8
SAPA_PROFIL
 10
8.9999999999994884
 20
17.79999999999972
 30
0.0
  0
VERTEX
  5
16C6
  8
SAPA_PROFIL
 10
8.9999999999994884
 20
21.699999999999712
 30
0.0
 42
-0.4142135623730951
  0
VERTEX
  5
16C7
  8
SAPA_PROFIL
 10
9.9999999999994884
 20
22.699999999999712
 30
0.0
  0
VERTEX
  5
16C8
  8
SAPA_PROFIL
 10
39.000000000000483
 20
22.699999999999712
 30
0.0
 42
-0.4142135623730951
  0
VERTEX
  5
16C9
  8
SAPA_PROFIL
 10
40.000000000000483
 20
21.699999999999712
 30
0.0
  0
VERTEX
  5
16CA
  8
SAPA_PROFIL
 10
40.000000000000483
 20
17.79999999999972
 30
0.0
 42
0.4142135623730951
  0
VERTEX
  5
16CB
  8
SAPA_PROFIL
 10
40.500000000000483
 20
17.299999999999731
 30
0.0
  0
VERTEX
  5
16CC
  8
SAPA_PROFIL
 10
42.60000000000047
 20
17.299999999999731
 30
0.0
 42
0.4142135623730951
  0
VERTEX
  5
16CD
  8
SAPA_PROFIL
 10
42.90000000000046
 20
17.599999999999682
 30
0.0
  0
VERTEX
  5
16CE
  8
SAPA_PROFIL
 10
42.90000000000046
 20
18.099999999999682
 30
0.0
 42
0.4142135623730951
  0
VERTEX
  5
16CF
  8
SAPA_PROFIL
 10
42.60000000000047
 20
18.39999999999975
 30
0.0
  0
VERTEX
  5
16D0
  8
SAPA_PROFIL
 10
42.263373075366466
 20
18.39999999999975
 30
0.0
 42
-0.5643553431119849
  0
VERTEX
  5
16D1
  8
SAPA_PROFIL
 10
44.125604956763958
 20
22.72439504323393
 30
0.0
  0
VERTEX
  5
16D2
  8
SAPA_PROFIL
 10
44.500000000000483
 20
22.350000000002751
 30
0.0
  0
VERTEX
  5
16D3
  8
SAPA_PROFIL
 10
44.87439504323347
 20
22.724395043235749
 30
0.0
 42
-0.5643553431125659
  0
VERTEX
  5
16D4
  8
SAPA_PROFIL
 10
46.736626924636141
 20
18.399999999999981
 30
0.0
  0
VERTEX
  5
16D5
  8
SAPA_PROFIL
 10
46.400000000000453
 20
18.39999999999975
 30
0.0
 42
0.414213562372998
  0
VERTEX
  5
16D6
  8
SAPA_PROFIL
 10
46.100000000000477
 20
18.099999999999682
 30
0.0
  0
VERTEX
  5
16D7
  8
SAPA_PROFIL
 10
46.100000000000477
 20
17.599999999999682
 30
0.0
 42
0.4142135623731053
  0
VERTEX
  5
16D8
  8
SAPA_PROFIL
 10
46.400000000000453
 20
17.299999999999731
 30
0.0
  0
VERTEX
  5
16D9
  8
SAPA_PROFIL
 10
48.500000000000483
 20
17.299999999999731
 30
0.0
 42
0.4142135623730951
  0
VERTEX
  5
16DA
  8
SAPA_PROFIL
 10
49.000000000000512
 20
17.79999999999972
 30
0.0
  0
VERTEX
  5
16DB
  8
SAPA_PROFIL
 10
49.000000000000512
 20
21.699999999999712
 30
0.0
 42
-0.4142135623730951
  0
VERTEX
  5
16DC
  8
SAPA_PROFIL
 10
50.000000000000512
 20
22.699999999999712
 30
0.0
  0
SEQEND
  5
16DD
  8
SAPA_PROFIL
  0
ARC
  5
10A7
  8
SAPA_GLAS
 10
-57.499999999997449
 20
-8.4769330888607701
 30
0.0
 40
21.455789953948951
 50
65.199046227935725
 51
114.8009537720615
  0
LINE
  5
10A8
  8
SAPA_GLAS
 10
-49.999999999996028
 20
15.99999999999978
 30
0.0
 11
-64.999999999998636
 21
15.99999999999978
 31
0.0
  0
ARC
  5
10A9
  8
SAPA_GLAS
 10
-49.999999999996028
 20
16.49999999999978
 30
0.0
 40
0.5
 50
270.0
 51
0.0
  0
LINE
  5
10AA
  8
SAPA_GLAS
 10
-49.499999999996028
 20
19.49999999999978
 30
0.0
 11
-49.499999999996042
 21
16.49999999999978
 31
0.0
  0
ARC
  5
10AB
  8
SAPA_GLAS
 10
-49.999999999996021
 20
19.49999999999978
 30
0.0
 40
0.5
 50
0.0
 51
89.999999999999986
  0
LINE
  5
10AC
  8
SAPA_GLAS
 10
-64.999999999998636
 20
19.99999999999978
 30
0.0
 11
-49.999999999996021
 21
19.99999999999978
 31
0.0
  0
ARC
  5
10AD
  8
SAPA_GLAS
 10
-64.999999999998636
 20
19.49999999999978
 30
0.0
 40
0.5
 50
89.999999999999986
 51
180.0
  0
LINE
  5
10AE
  8
SAPA_GLAS
 10
-65.49999999999865
 20
16.49999999999978
 30
0.0
 11
-65.49999999999865
 21
19.49999999999978
 31
0.0
  0
ARC
  5
10AF
  8
SAPA_GLAS
 10
-64.999999999998636
 20
16.49999999999978
 30
0.0
 40
0.5
 50
180.0
 51
270.0
  0
LINE
  5
10B0
  8
SAPA_GLAS
 10
-49.499999999996028
 20
24.49999999999978
 30
0.0
 11
-49.499999999996028
 21
21.49999999999979
 31
0.0
  0
ARC
  5
10B1
  8
SAPA_GLAS
 10
-49.999999999996021
 20
24.49999999999978
 30
0.0
 40
0.5
 50
0.0
 51
89.999999999999986
  0
LINE
  5
10B2
  8
SAPA_GLAS
 10
-64.999999999998636
 20
24.99999999999979
 30
0.0
 11
-49.999999999996021
 21
24.99999999999979
 31
0.0
  0
ARC
  5
10B3
  8
SAPA_GLAS
 10
-64.999999999998636
 20
24.49999999999978
 30
0.0
 40
0.5
 50
89.999999999999986
 51
180.0
  0
LINE
  5
10B4
  8
SAPA_GLAS
 10
-65.49999999999865
 20
21.49999999999979
 30
0.0
 11
-65.49999999999865
 21
24.49999999999978
 31
0.0
  0
ARC
  5
10B5
  8
SAPA_GLAS
 10
-64.999999999998636
 20
21.49999999999979
 30
0.0
 40
0.5
 50
180.0
 51
270.0
  0
LINE
  5
10B6
  8
SAPA_GLAS
 10
-49.999999999996021
 20
20.99999999999978
 30
0.0
 11
-64.999999999998636
 21
20.99999999999978
 31
0.0
  0
ARC
  5
10B7
  8
SAPA_GLAS
 10
-49.999999999996021
 20
21.49999999999979
 30
0.0
 40
0.5
 50
270.0
 51
0.0
  0
LINE
  5
10B8
  8
SAPA_GLAS
 10
-48.499999999996028
 20
10.99999999999978
 30
0.0
 11
-45.499999999996028
 21
10.99999999999978
 31
0.0
  0
LINE
  5
10B9
  8
SAPA_GLAS
 10
-72.499999999998636
 20
10.99999999999978
 30
0.0
 11
-66.49999999999865
 21
10.99999999999978
 31
0.0
  0
LINE
  5
10BA
  8
SAPA_GLAS
 10
-66.49999999999865
 20
14.99999999999978
 30
0.0
 11
-48.499999999996028
 21
14.99999999999978
 31
0.0
1001
ACAD
1000
ASC_BOUNDS
1002
{
1070
    19
1005
0
1002
}
  0
LINE
  5
10BB
  8
SAPA_GLAS
 10
-66.49999999999865
 20
25.99999999999978
 30
0.0
 11
-48.499999999996021
 21
25.99999999999979
 31
0.0
  0
LINE
  5
10BC
  8
SAPA_GLAS
 10
-66.49999999999865
 20
25.99999999999978
 30
0.0
 11
-48.499999999996021
 21
25.99999999999979
 31
0.0
1001
ACAD
1000
ASC_BOUNDS
1002
{
1070
    19
1005
0
1002
}
  0
LINE
  5
10BD
  8
SAPA_GLAS
 10
-45.499999999996028
 20
10.99999999999978
 30
0.0
 11
-45.499999999996938
 21
50.99999999999978
 31
0.0
  0
LINE
  5
10BE
  8
SAPA_GLAS
 10
-72.499999999998636
 20
10.99999999999978
 30
0.0
 11
-72.499999999998636
 21
50.999999999999787
 31
0.0
  0
LINE
  5
10BF
  8
SAPA_GLAS
 10
-48.499999999996028
 20
10.99999999999978
 30
0.0
 11
-48.499999999996028
 21
50.99999999999978
 31
0.0
1001
ACAD
1000
ASC_BOUNDS
1002
{
1070
    19
1005
0
1005
0
1002
}
  0
LINE
  5
10C0
  8
SAPA_GLAS
 10
-66.49999999999865
 20
10.99999999999978
 30
0.0
 11
-66.499999999998636
 21
50.999999999999787
 31
0.0
1001
ACAD
1000
ASC_BOUNDS
1002
{
1070
    19
1005
0
1005
0
1002
}
  0
POLYLINE
  5
10C1
  8
SAPA_GLAS
 66
     1
 10
0.0
 20
0.0
 30
0.0
  0
VERTEX
  5
16ED
  8
SAPA_GLAS
 10
100.6009396980177
 20
-89.800000000000026
 30
0.0
  0
VERTEX
  5
16EE
  8
SAPA_GLAS
 10
100.6009396980177
 20
-61.000000000000249
 30
0.0
  0
VERTEX
  5
16EF
  8
SAPA_GLAS
 10
106.6009396980178
 20
-61.000000000000249
 30
0.0
  0
VERTEX
  5
16F0
  8
SAPA_GLAS
 10
106.6009396980175
 20
-89.800000000000026
 30
0.0
  0
SEQEND
  5
16F1
  8
SAPA_GLAS
  0
POLYLINE
  5
10C2
  8
SAPA_GLAS
 66
     1
 10
0.0
 20
0.0
 30
0.0
 70
     1
  0
VERTEX
  5
16F2
  8
SAPA_GLAS
 10
88.600939698017797
 20
-71.000000000000355
 30
0.0
  0
VERTEX
  5
16F3
  8
SAPA_GLAS
 10
100.6009396980177
 20
-71.000000000000355
 30
0.0
  0
VERTEX
  5
16F4
  8
SAPA_GLAS
 10
100.6009396980177
 20
-61.000000000000249
 30
0.0
  0
VERTEX
  5
16F5
  8
SAPA_GLAS
 10
88.600939698017797
 20
-61.000000000000249
 30
0.0
  0
SEQEND
  5
16F6
  8
SAPA_GLAS
  0
POLYLINE
  5
10C3
  8
SAPA_GLAS
 66
     1
 10
0.0
 20
0.0
 30
0.0
  0
VERTEX
  5
16F7
  8
SAPA_GLAS
 10
82.600939698017768
 20
-89.800000000000026
 30
0.0
  0
VERTEX
  5
16F8
  8
SAPA_GLAS
 10
82.600939698017768
 20
-61.000000000000242
 30
0.0
  0
VERTEX
  5
16F9
  8
SAPA_GLAS
 10
88.600939698017797
 20
-61.000000000000249
 30
0.0
  0
VERTEX
  5
16FA
  8
SAPA_GLAS
 10
88.600939698017797
 20
-89.800000000000026
 30
0.0
  0
SEQEND
  5
16FB
  8
SAPA_GLAS
  0
INSERT
  5
10C9
  8
SAPA_FYLLNING
  6
CONTINUOUS
  2
*X82
 10
0.0
 20
0.0
 30
0.0
1001
ACAD
1000
HATCH
1002
{
1070
    19
1000
ANSI37
1040
1.0
1040
0.0
1000
R14_HATCH_DATA
1000
10C9
1011
1.0
1021
0.0
1031
0.0
1021
0.0
1031
0.0
1011
0.0
1021
0.0
1031
0.0
1021
1.0
1031
0.0
1011
0.0
1021
0.0
1031
0.0
1021
0.0
1031
1.0
1040
0.0
1010
0.0
1020
0.0
1030
1.0
1000
ANSI37
1070
     0
1070
     0
1071
        1
1071
        7
1070
     1
1070
     1
1071
       17
1040
65.279240471514925
1040
-35.000000000000369
1040
0.4142135623730951
1040
66.279240471514925
1040
-34.000000000000369
1040
0.0
1040
66.279240471514925
1040
-24.499999999999801
1040
0.0
1040
64.200939698018033
1040
-24.499999999999801
1040
0.0
1040
64.200939698018033
1040
-24.9999999999993
1040
0.0
1040
62.000000000000462
1040
-24.999999999999321
1040
0.0
1040
-22.118242580604541
1040
-25.000000000000231
1040
-0.3394542588633758
1040
-22.408020328490519
1040
-24.777645713531228
1040
0.0
1040
-23.034074173710451
1040
-22.441180954897732
1040
0.8769764629927488
1040
-24.99999999999952
1040
-22.700000000000269
1040
0.0
1040
-24.99999999999952
1040
-22.712613464860279
1040
-0.4040262258351519
1040
-26.93020100659453
1040
-24.711395118898281
1040
0.0
1040
-35.189530150987771
1040
-24.999817248106979
1040
-0.1516904891564101
1040
-35.361198159471449
1040
-24.95301216054407
1040
0.0
1040
-70.499999999998636
1040
-24.953012160544059
1040
0.0
1040
-70.499999999998636
1040
-34.000000000000341
1040
0.4142135623730951
1040
-69.499999999998636
1040
-35.000000000000341
1040
0.0
1071
        0
1070
     0
1070
     1
1040
0.0
1040
1.0
1070
     0
1070
     2
1040
0.7853981633974483
1040
0.0
1040
0.0
1040
-2.2450640302672871
1040
2.245064030267288
1070
     0
1040
2.3561944901923439
1040
0.0
1040
0.0
1040
-2.245064030267288
1040
-2.2450640302672871
1070
     0
1040
0.3204928582683315
1071
        1
1040
-18.785660924963171
1040
-30.304705218337858
1040
0.0
1002
}
  0
POLYLINE
  5
10E7
  8
SAPA_FOGBAND
 66
     1
 10
0.0
 20
0.0
 30
0.0
 70
     1
  0
VERTEX
  5
186A
  8
SAPA_FOGBAND
 10
-33.499999999998863
 20
19.57367566877679
 30
0.0
  0
VERTEX
  5
186B
  8
SAPA_FOGBAND
 10
-35.29999999999859
 20
19.57367566877679
 30
0.0
 42
-0.4142135623730951
  0
VERTEX
  5
186C
  8
SAPA_FOGBAND
 10
-35.499999999998401
 20
19.773675668776612
 30
0.0
  0
VERTEX
  5
186D
  8
SAPA_FOGBAND
 10
-35.499999999998401
 20
20.673675668776252
 30
0.0
 42
-0.4142135623730951
  0
VERTEX
  5
186E
  8
SAPA_FOGBAND
 10
-35.29999999999859
 20
20.87367566877607
 30
0.0
  0
VERTEX
  5
186F
  8
SAPA_FOGBAND
 10
-33.499999999998863
 20
20.873675668776521
 30
0.0
 42
-0.9999999999999998
  0
SEQEND
  5
1870
  8
SAPA_FOGBAND
  0
CIRCLE
  5
10E8
  8
SAPA_FOGBAND
 10
-36.799999999998583
 20
20.22367566877643
 30
0.0
 40
0.2549509756796394
  0
POLYLINE
  5
10E9
  8
SAPA_FOGBAND
 66
     1
 10
0.0
 20
0.0
 30
0.0
 70
     1
  0
VERTEX
  5
1871
  8
SAPA_FOGBAND
 10
-35.499999999998408
 20
16.270085830290789
 30
0.0
 42
0.267949192431121
  0
VERTEX
  5
1872
  8
SAPA_FOGBAND
 10
-35.399999999998961
 20
16.09688074953306
 30
0.0
 42
-0.7673269879789569
  0
VERTEX
  5
1873
  8
SAPA_FOGBAND
 10
-35.499999999998408
 20
15.723675668776879
 30
0.0
  0
VERTEX
  5
1874
  8
SAPA_FOGBAND
 10
-44.69999999999915
 20
15.723675668776879
 30
0.0
 42
-0.4602937089574736
  0
VERTEX
  5
1875
  8
SAPA_FOGBAND
 10
-44.897610691435837
 20
15.95449797611696
 30
0.0
  0
VERTEX
  5
1876
  8
SAPA_FOGBAND
 10
-44.511746230889237
 20
18.428386189851391
 30
0.0
 42
0.6910703998708235
  0
VERTEX
  5
1877
  8
SAPA_FOGBAND
 10
-44.837173697181477
 20
18.613035907186489
 30
0.0
  0
VERTEX
  5
1878
  8
SAPA_FOGBAND
 10
-45.008963529986673
 20
15.83629773875351
 30
0.0
 42
-0.928378177954751
  0
VERTEX
  5
1879
  8
SAPA_FOGBAND
 10
-45.424442128142132
 20
16.266874786287421
 30
0.0
  0
VERTEX
  5
187A
  8
SAPA_FOGBAND
 10
-45.22854255902417
 20
19.476099419057618
 30
0.0
 42
0.6076316918600427
  0
VERTEX
  5
187B
  8
SAPA_FOGBAND
 10
-45.323096729691088
 20
19.725013792520489
 30
0.0
 42
-0.38070580105552
  0
VERTEX
  5
187C
  8
SAPA_FOGBAND
 10
-45.499999999998408
 20
19.923675668776252
 30
0.0
  0
VERTEX
  5
187D
  8
SAPA_FOGBAND
 10
-45.499999999998408
 20
20.22367566877643
 30
0.0
  0
VERTEX
  5
187E
  8
SAPA_FOGBAND
 10
-45.499999999998408
 20
20.523675668776612
 30
0.0
 42
-0.3807058010555201
  0
VERTEX
  5
187F
  8
SAPA_FOGBAND
 10
-45.323096729691088
 20
20.722337545032371
 30
0.0
 42
0.6076316918600374
  0
VERTEX
  5
1880
  8
SAPA_FOGBAND
 10
-45.22854255902417
 20
20.971251918495231
 30
0.0
  0
VERTEX
  5
1881
  8
SAPA_FOGBAND
 10
-45.421865476482942
 20
24.205028688483029
 30
0.0
 42
-0.9283781779547513
  0
VERTEX
  5
1882
  8
SAPA_FOGBAND
 10
-45.006386878327483
 20
24.6356057360174
 30
0.0
  0
VERTEX
  5
1883
  8
SAPA_FOGBAND
 10
-44.837173697181477
 20
21.834315430366821
 30
0.0
 42
0.6910703998708235
  0
VERTEX
  5
1884
  8
SAPA_FOGBAND
 10
-44.511746230890147
 20
22.018965147702382
 30
0.0
  0
VERTEX
  5
1885
  8
SAPA_FOGBAND
 10
-44.89761069143583
 20
24.49285336143635
 30
0.0
 42
-0.4602937089574736
  0
VERTEX
  5
1886
  8
SAPA_FOGBAND
 10
-44.699999999999143
 20
24.72367566877643
 30
0.0
  0
VERTEX
  5
1887
  8
SAPA_FOGBAND
 10
-35.499999999998401
 20
24.72367566877643
 30
0.0
 42
-0.7673269879789572
  0
VERTEX
  5
1888
  8
SAPA_FOGBAND
 10
-35.399999999998947
 20
24.3504705880198
 30
0.0
 42
0.267949192431121
  0
VERTEX
  5
1889
  8
SAPA_FOGBAND
 10
-35.499999999998401
 20
24.17726550726298
 30
0.0
  0
VERTEX
  5
188A
  8
SAPA_FOGBAND
 10
-35.499999999998401
 20
21.673675668776252
 30
0.0
  0
VERTEX
  5
188B
  8
SAPA_FOGBAND
 10
-34.399999999998947
 20
21.673675668776252
 30
0.0
  0
VERTEX
  5
188C
  8
SAPA_FOGBAND
 10
-34.291388579558081
 20
22.181730915002628
 30
0.0
 42
-0.4364998583843341
  0
VERTEX
  5
188D
  8
SAPA_FOGBAND
 10
-34.027676570637823
 20
22.310141004872779
 30
0.0
  0
VERTEX
  5
188E
  8
SAPA_FOGBAND
 10
-32.638382853194571
 20
21.77128221139106
 30
0.0
 42
-0.3095538907669666
  0
VERTEX
  5
188F
  8
SAPA_FOGBAND
 10
-31.999999999998408
 20
20.83895553090975
 30
0.0
  0
VERTEX
  5
1890
  8
SAPA_FOGBAND
 10
-31.99999999999886
 20
19.608395806643109
 30
0.0
 42
-0.3095538907669666
  0
VERTEX
  5
1891
  8
SAPA_FOGBAND
 10
-32.638382853194571
 20
18.676069126161799
 30
0.0
  0
VERTEX
  5
1892
  8
SAPA_FOGBAND
 10
-34.027676570638278
 20
18.137210332680532
 30
0.0
 42
-0.4364998583843338
  0
VERTEX
  5
1893
  8
SAPA_FOGBAND
 10
-34.291388579558088
 20
18.26562042255069
 30
0.0
  0
VERTEX
  5
1894
  8
SAPA_FOGBAND
 10
-34.399999999998961
 20
18.773675668776381
 30
0.0
  0
VERTEX
  5
1895
  8
SAPA_FOGBAND
 10
-35.499999999998408
 20
18.773675668776381
 30
0.0
  0
SEQEND
  5
1896
  8
SAPA_FOGBAND
  0
POLYLINE
  5
10EA
  8
SAPA_FOGBAND
 66
     1
 10
0.0
 20
0.0
 30
0.0
 70
     1
  0
VERTEX
  5
1897
  8
SAPA_FOGBAND
 10
-37.99999999999843
 20
18.72367566877643
 30
0.0
 42
-0.3533664767746626
  0
VERTEX
  5
1898
  8
SAPA_FOGBAND
 10
-38.39473684210386
 20
18.23488157348698
 30
0.0
 42
-0.162847186097109
  0
VERTEX
  5
1899
  8
SAPA_FOGBAND
 10
-41.833847743324682
 20
18.286918832692439
 30
0.0
 42
-0.2572150309758587
  0
VERTEX
  5
189A
  8
SAPA_FOGBAND
 10
-42.190466027633889
 20
18.611937220160382
 30
0.0
 42
-0.1655934221057593
  0
VERTEX
  5
189B
  8
SAPA_FOGBAND
 10
-42.190466027633882
 20
21.835414117393391
 30
0.0
 42
-0.2572150309758567
  0
VERTEX
  5
189C
  8
SAPA_FOGBAND
 10
-41.833847743324668
 20
22.160432504860871
 30
0.0
 42
-0.1628471860971115
  0
VERTEX
  5
189D
  8
SAPA_FOGBAND
 10
-38.394736842103853
 20
22.212469764066341
 30
0.0
 42
-0.3533664767746627
  0
VERTEX
  5
189E
  8
SAPA_FOGBAND
 10
-37.999999999998423
 20
21.72367566877643
 30
0.0
  0
SEQEND
  5
189F
  8
SAPA_FOGBAND
  0
POLYLINE
  5
10EB
  8
SAPA_FOGBAND
 66
     1
 10
0.0
 20
0.0
 30
0.0
 70
     1
  0
VERTEX
  5
18A0
  8
SAPA_FOGBAND
 10
112.70469171079679
 20
-67.497490090368174
 30
0.0
  0
VERTEX
  5
18A1
  8
SAPA_FOGBAND
 10
112.70469171079679
 20
-68.697490090368234
 30
0.0
 42
0.4142135623730951
  0
VERTEX
  5
18A2
  8
SAPA_FOGBAND
 10
113.00469171079681
 20
-68.997490090368188
 30
0.0
  0
VERTEX
  5
18A3
  8
SAPA_FOGBAND
 10
113.9046917107969
 20
-68.997490090368188
 30
0.0
  0
VERTEX
  5
18A4
  8
SAPA_FOGBAND
 10
113.9046917107969
 20
-68.647490090368052
 30
0.0
 42
-0.6681786379192988
  0
VERTEX
  5
18A5
  8
SAPA_FOGBAND
 10
114.4168237451526
 20
-68.43535805601212
 30
0.0
  0
VERTEX
  5
18A6
  8
SAPA_FOGBAND
 10
115.270377135746
 20
-69.28891144660534
 30
0.0
 42
-0.1989123673796552
  0
VERTEX
  5
18A7
  8
SAPA_FOGBAND
 10
115.50469171079681
 20
-69.854596871554719
 30
0.0
  0
VERTEX
  5
18A8
  8
SAPA_FOGBAND
 10
115.50469171079681
 20
-70.01729199397451
 30
0.0
 42
-0.3394542588633746
  0
VERTEX
  5
18A9
  8
SAPA_FOGBAND
 10
115.28233742432759
 20
-70.307069741861284
 30
0.0
  0
VERTEX
  5
18AA
  8
SAPA_FOGBAND
 10
113.92704599726611
 20
-70.670218985251182
 30
0.0
 42
0.3394542588633746
  0
VERTEX
  5
18AB
  8
SAPA_FOGBAND
 10
113.70469171079679
 20
-70.959996733137956
 30
0.0
  0
VERTEX
  5
18AC
  8
SAPA_FOGBAND
 10
113.70469171079679
 20
-73.534983447598421
 30
0.0
 42
0.3394542588633746
  0
VERTEX
  5
18AD
  8
SAPA_FOGBAND
 10
113.92704599726611
 20
-73.824761195485195
 30
0.0
  0
VERTEX
  5
18AE
  8
SAPA_FOGBAND
 10
115.28233742432759
 20
-74.187910438875093
 30
0.0
 42
-0.3394542588633744
  0
VERTEX
  5
18AF
  8
SAPA_FOGBAND
 10
115.50469171079681
 20
-74.477688186761867
 30
0.0
  0
VERTEX
  5
18B0
  8
SAPA_FOGBAND
 10
115.50469171079681
 20
-74.640383309181658
 30
0.0
 42
-0.1989123673796526
  0
VERTEX
  5
18B1
  8
SAPA_FOGBAND
 10
115.270377135746
 20
-75.20606873413081
 30
0.0
  0
VERTEX
  5
18B2
  8
SAPA_FOGBAND
 10
114.4168237451526
 20
-76.059622124724143
 30
0.0
 42
-0.6681786379193474
  0
VERTEX
  5
18B3
  8
SAPA_FOGBAND
 10
113.9046917107969
 20
-75.847490090368325
 30
0.0
  0
VERTEX
  5
18B4
  8
SAPA_FOGBAND
 10
113.9046917107969
 20
-75.497490090368188
 30
0.0
  0
VERTEX
  5
18B5
  8
SAPA_FOGBAND
 10
113.00469171079681
 20
-75.497490090368188
 30
0.0
 42
0.4142135623730951
  0
VERTEX
  5
18B6
  8
SAPA_FOGBAND
 10
112.70469171079679
 20
-75.797490090368143
 30
0.0
  0
VERTEX
  5
18B7
  8
SAPA_FOGBAND
 10
112.70469171079679
 20
-77.897490090368279
 30
0.0
 42
0.4142135623730951
  0
VERTEX
  5
18B8
  8
SAPA_FOGBAND
 10
113.00469171079681
 20
-78.197490090368234
 30
0.0
  0
VERTEX
  5
18B9
  8
SAPA_FOGBAND
 10
114.4046917107969
 20
-78.197490090368234
 30
0.0
 42
-0.7754026414786132
  0
VERTEX
  5
18BA
  8
SAPA_FOGBAND
 10
114.5493995791028
 20
-78.760282085775913
 30
0.0
 42
0.1137347954614569
  0
VERTEX
  5
18BB
  8
SAPA_FOGBAND
 10
107.072911820778
 20
-82.91033024436652
 30
0.0
 42
-0.8680589103334746
  0
VERTEX
  5
18BC
  8
SAPA_FOGBAND
 10
106.7160719181163
 20
-82.435406214602963
 30
0.0
  0
VERTEX
  5
18BD
  8
SAPA_FOGBAND
 10
109.092277607448
 20
-78.465370817451145
 30
0.0
 42
0.1989123673796536
  0
VERTEX
  5
18BE
  8
SAPA_FOGBAND
 10
109.3851708262614
 20
-77.758264036264706
 30
0.0
  0
VERTEX
  5
18BF
  8
SAPA_FOGBAND
 10
109.3851708262614
 20
-74.924945071844974
 30
0.0
 42
0.577350269189628
  0
VERTEX
  5
18C0
  8
SAPA_FOGBAND
 10
108.9351708262616
 20
-74.665137450709523
 30
0.0
  0
VERTEX
  5
18C1
  8
SAPA_FOGBAND
 10
107.0820113547192
 20
-76.803266147121263
 30
0.0
 42
-0.8769764629927301
  0
VERTEX
  5
18C2
  8
SAPA_FOGBAND
 10
106.71987932036311
 20
-76.331326491629994
 30
0.0
  0
VERTEX
  5
18C3
  8
SAPA_FOGBAND
 10
109.092277607448
 20
-72.365098496725324
 30
0.0
 42
0.198912367379658
  0
VERTEX
  5
18C4
  8
SAPA_FOGBAND
 10
109.3851708262614
 20
-71.65799171553877
 30
0.0
  0
VERTEX
  5
18C5
  8
SAPA_FOGBAND
 10
109.3851708262614
 20
-69.425717353317083
 30
0.0
 42
0.5773502691896441
  0
VERTEX
  5
18C6
  8
SAPA_FOGBAND
 10
108.9351708262616
 20
-69.165909732181859
 30
0.0
  0
VERTEX
  5
18C7
  8
SAPA_FOGBAND
 10
107.0828801078996
 20
-71.303536853711108
 30
0.0
 42
-0.87697646299276
  0
VERTEX
  5
18C8
  8
SAPA_FOGBAND
 10
106.7207480735435
 20
-70.831597198219839
 30
0.0
  0
VERTEX
  5
18C9
  8
SAPA_FOGBAND
 10
109.1681322547617
 20
-66.790383309181635
 30
0.0
 42
-0.198912367379658
  0
VERTEX
  5
18CA
  8
SAPA_FOGBAND
 10
109.8752390359482
 20
-66.497490090368188
 30
0.0
  0
VERTEX
  5
18CB
  8
SAPA_FOGBAND
 10
111.70469171079679
 20
-66.497490090368188
 30
0.0
  0
VERTEX
  5
18CC
  8
SAPA_FOGBAND
 10
111.69475992048361
 20
-66.497490090368188
 30
0.0
  0
SEQEND
  5
18CD
  8
SAPA_FOGBAND
  0
POLYLINE
  5
10EC
  8
SAPA_FOGBAND
 66
     1
 10
0.0
 20
0.0
 30
0.0
 70
     1
  0
VERTEX
  5
18CE
  8
SAPA_FOGBAND
 10
79.623552710782633
 20
-66.437172509477037
 30
0.0
 42
0.4142135623730951
  0
VERTEX
  5
18CF
  8
SAPA_FOGBAND
 10
78.623552710782633
 20
-67.437172509477037
 30
0.0
  0
VERTEX
  5
18D0
  8
SAPA_FOGBAND
 10
78.623552710782633
 20
-68.637172509477082
 30
0.0
 42
-0.4142135623730951
  0
VERTEX
  5
18D1
  8
SAPA_FOGBAND
 10
78.323552710782678
 20
-68.937172509477037
 30
0.0
  0
VERTEX
  5
18D2
  8
SAPA_FOGBAND
 10
77.423552710782587
 20
-68.937172509477037
 30
0.0
  0
VERTEX
  5
18D3
  8
SAPA_FOGBAND
 10
77.423552710782587
 20
-68.5871725094769
 30
0.0
 42
0.6681786379193472
  0
VERTEX
  5
18D4
  8
SAPA_FOGBAND
 10
76.911420676426573
 20
-68.375040475121082
 30
0.0
  0
VERTEX
  5
18D5
  8
SAPA_FOGBAND
 10
76.057867285833254
 20
-69.228593865714302
 30
0.0
 42
0.1989123673796526
  0
VERTEX
  5
18D6
  8
SAPA_FOGBAND
 10
75.823552710782678
 20
-69.794279290663567
 30
0.0
  0
VERTEX
  5
18D7
  8
SAPA_FOGBAND
 10
75.823552710782678
 20
-69.956974413083358
 30
0.0
 42
0.3394542588633746
  0
VERTEX
  5
18D8
  8
SAPA_FOGBAND
 10
76.045906997251905
 20
-70.246752160970132
 30
0.0
  0
VERTEX
  5
18D9
  8
SAPA_FOGBAND
 10
77.401198424313407
 20
-70.609901404360031
 30
0.0
 42
-0.3394542588633744
  0
VERTEX
  5
18DA
  8
SAPA_FOGBAND
 10
77.623552710782633
 20
-70.899679152246804
 30
0.0
  0
VERTEX
  5
18DB
  8
SAPA_FOGBAND
 10
77.623552710782633
 20
-73.474665866707255
 30
0.0
 42
-0.3394542588633746
  0
VERTEX
  5
18DC
  8
SAPA_FOGBAND
 10
77.401198424313407
 20
-73.764443614594043
 30
0.0
  0
VERTEX
  5
18DD
  8
SAPA_FOGBAND
 10
76.045906997251905
 20
-74.127592857983942
 30
0.0
 42
0.3394542588633747
  0
VERTEX
  5
18DE
  8
SAPA_FOGBAND
 10
75.823552710782678
 20
-74.417370605870715
 30
0.0
  0
VERTEX
  5
18DF
  8
SAPA_FOGBAND
 10
75.823552710782678
 20
-74.580065728290506
 30
0.0
 42
0.1989123673796526
  0
VERTEX
  5
18E0
  8
SAPA_FOGBAND
 10
76.057867285833254
 20
-75.145751153239885
 30
0.0
  0
VERTEX
  5
18E1
  8
SAPA_FOGBAND
 10
76.911420676426573
 20
-75.999304543832991
 30
0.0
 42
0.6681786379193474
  0
VERTEX
  5
18E2
  8
SAPA_FOGBAND
 10
77.423552710782587
 20
-75.787172509477173
 30
0.0
  0
VERTEX
  5
18E3
  8
SAPA_FOGBAND
 10
77.423552710782587
 20
-75.437172509477037
 30
0.0
  0
VERTEX
  5
18E4
  8
SAPA_FOGBAND
 10
78.323552710782678
 20
-75.437172509477037
 30
0.0
 42
-0.4142135623730951
  0
VERTEX
  5
18E5
  8
SAPA_FOGBAND
 10
78.623552710782633
 20
-75.737172509476991
 30
0.0
  0
VERTEX
  5
18E6
  8
SAPA_FOGBAND
 10
78.623552710782633
 20
-77.837172509477128
 30
0.0
 42
-0.4142135623730951
  0
VERTEX
  5
18E7
  8
SAPA_FOGBAND
 10
78.323552710782678
 20
-78.137172509477082
 30
0.0
  0
VERTEX
  5
18E8
  8
SAPA_FOGBAND
 10
76.923552710782587
 20
-78.137172509477082
 30
0.0
 42
0.7754026414785753
  0
VERTEX
  5
18E9
  8
SAPA_FOGBAND
 10
76.778844842476701
 20
-78.699964504884761
 30
0.0
  0
VERTEX
  5
18EA
  8
SAPA_FOGBAND
 10
82.161950615062551
 20
-82.219667015430119
 30
0.0
 42
0.8680589103334742
  0
VERTEX
  5
18EB
  8
SAPA_FOGBAND
 10
82.518790517724256
 20
-81.744742985666576
 30
0.0
  0
VERTEX
  5
18EC
  8
SAPA_FOGBAND
 10
80.416445929595966
 20
-78.405053236560221
 30
0.0
 42
-0.198912367379658
  0
VERTEX
  5
18ED
  8
SAPA_FOGBAND
 10
80.123552710782633
 20
-77.697946455373554
 30
0.0
  0
VERTEX
  5
18EE
  8
SAPA_FOGBAND
 10
80.123552710782633
 20
-74.864627490953822
 30
0.0
 42
-0.5773502691896282
  0
VERTEX
  5
18EF
  8
SAPA_FOGBAND
 10
80.573552710782678
 20
-74.604819869818598
 30
0.0
  0
VERTEX
  5
18F0
  8
SAPA_FOGBAND
 10
82.152851081121298
 20
-76.112602918184862
 30
0.0
 42
0.8769764629927299
  0
VERTEX
  5
18F1
  8
SAPA_FOGBAND
 10
82.514983115477435
 20
-75.640663262693593
 30
0.0
  0
VERTEX
  5
18F2
  8
SAPA_FOGBAND
 10
80.416445929595966
 20
-72.304780915834286
 30
0.0
 42
-0.198912367379658
  0
VERTEX
  5
18F3
  8
SAPA_FOGBAND
 10
80.123552710782633
 20
-71.597674134647619
 30
0.0
  0
VERTEX
  5
18F4
  8
SAPA_FOGBAND
 10
80.123552710782633
 20
-69.365399772426045
 30
0.0
 42
-0.5773502691896282
  0
VERTEX
  5
18F5
  8
SAPA_FOGBAND
 10
80.573552710782678
 20
-69.105592151290708
 30
0.0
  0
VERTEX
  5
18F6
  8
SAPA_FOGBAND
 10
82.151982327940914
 20
-70.61287362477448
 30
0.0
 42
0.8769764629927299
  0
VERTEX
  5
18F7
  8
SAPA_FOGBAND
 10
82.51411436229705
 20
-70.140933969283211
 30
0.0
  0
VERTEX
  5
18F8
  8
SAPA_FOGBAND
 10
80.340591282282276
 20
-66.730065728290583
 30
0.0
 42
0.198912367379658
  0
VERTEX
  5
18F9
  8
SAPA_FOGBAND
 10
79.633484501095836
 20
-66.437172509477037
 30
0.0
  0
SEQEND
  5
18FA
  8
SAPA_FOGBAND
  0
INSERT
  5
10ED
  8
SAPA_FOGBAND
  2
BYGG-023125$0$BORST_9
 10
64.195820877575599
 20
21.45890214216216
 30
0.0
 50
270.0
  0
LINE
  5
10EE
  8
SAPA_FOGBAND
 10
-73.499999999998636
 20
-17.599999999999671
 30
0.0
 11
-72.499999999998636
 21
-17.599999999999671
 31
0.0
  0
CIRCLE
  5
10EF
  8
SAPA_FOGBAND
 10
-75.057534635653383
 20
-7.999999999999531
 30
0.0
 40
0.25
  0
LINE
  5
10F0
  8
SAPA_FOGBAND
 10
-72.499999999998636
 20
-15.099999999999669
 30
0.0
 11
-73.499999999998636
 21
-15.099999999999669
 31
0.0
  0
LINE
  5
10F1
  8
SAPA_FOGBAND
 10
-72.499999999998636
 20
-10.099999999999669
 30
0.0
 11
-73.499999999998636
 21
-10.09999999999966
 31
0.0
  0
LINE
  5
10F2
  8
SAPA_FOGBAND
 10
-72.999999999998636
 20
-10.09999999999966
 30
0.0
 11
-72.999999999998636
 21
-15.099999999999669
 31
0.0
  0
LINE
  5
10F3
  8
SAPA_FOGBAND
 10
-72.499999999998636
 20
-2.5999999999996679
 30
0.0
 11
-73.499999999998636
 21
-2.5999999999996679
 31
0.0
  0
POLYLINE
  5
10F4
  8
SAPA_FOGBAND
 66
     1
 10
0.0
 20
0.0
 30
0.0
 70
     1
  0
VERTEX
  5
18FB
  8
SAPA_FOGBAND
 10
-76.557534635653155
 20
-8.1500000000005315
 30
0.0
  0
VERTEX
  5
18FC
  8
SAPA_FOGBAND
 10
-78.357534635653792
 20
-8.1500000000000767
 30
0.0
 42
-0.9999999999999996
  0
VERTEX
  5
18FD
  8
SAPA_FOGBAND
 10
-78.357534635653792
 20
-6.8500000000005761
 30
0.0
  0
VERTEX
  5
18FE
  8
SAPA_FOGBAND
 10
-76.557534635653155
 20
-6.8500000000005761
 30
0.0
 42
-0.4142135623730951
  0
VERTEX
  5
18FF
  8
SAPA_FOGBAND
 10
-76.357534635653323
 20
-7.0500000000003951
 30
0.0
  0
VERTEX
  5
1900
  8
SAPA_FOGBAND
 10
-76.357534635653323
 20
-7.9499999999995756
 30
0.0
 42
-0.4142135623730951
  0
SEQEND
  5
1901
  8
SAPA_FOGBAND
  0
CIRCLE
  5
10F5
  8
SAPA_FOGBAND
 10
-75.057534635653383
 20
7.9999999999995586
 30
0.0
 40
0.25
  0
POLYLINE
  5
10F6
  8
SAPA_FOGBAND
 66
     1
 10
0.0
 20
0.0
 30
0.0
  0
VERTEX
  5
1902
  8
SAPA_FOGBAND
 10
-76.357534635653323
 20
7.0500000000004226
 30
0.0
  0
VERTEX
  5
1903
  8
SAPA_FOGBAND
 10
-76.35753463565311
 20
7.9499999999996041
 30
0.0
 42
0.4142135623730951
  0
VERTEX
  5
1904
  8
SAPA_FOGBAND
 10
-76.557534635653155
 20
8.1500000000005581
 30
0.0
  0
VERTEX
  5
1905
  8
SAPA_FOGBAND
 10
-78.357534635653792
 20
8.1500000000001052
 30
0.0
 42
0.9999999999999998
  0
VERTEX
  5
1906
  8
SAPA_FOGBAND
 10
-78.357534635653792
 20
6.8499999999999233
 30
0.0
  0
VERTEX
  5
1907
  8
SAPA_FOGBAND
 10
-76.557534635653155
 20
6.8500000000006054
 30
0.0
 42
0.4142135623730951
  0
VERTEX
  5
1908
  8
SAPA_FOGBAND
 10
-76.357534635653323
 20
7.0500000000004226
 30
0.0
  0
VERTEX
  5
1909
  8
SAPA_FOGBAND
 10
-76.357534635653323
 20
7.7999999999997414
 30
0.0
  0
SEQEND
  5
190A
  8
SAPA_FOGBAND
  0
LINE
  5
10F7
  8
SAPA_FOGBAND
 10
-72.499999999998636
 20
9.9000000000003308
 30
0.0
 11
-73.499999999998636
 21
9.9000000000003325
 31
0.0
  0
LINE
  5
10F8
  8
SAPA_FOGBAND
 10
-72.499999999998636
 20
2.4000000000003312
 30
0.0
 11
-73.499999999998636
 21
2.4000000000003312
 31
0.0
  0
LINE
  5
10F9
  8
SAPA_FOGBAND
 10
-72.499999999998636
 20
14.900000000000331
 30
0.0
 11
-73.499999999998636
 21
14.900000000000331
 31
0.0
  0
LINE
  5
10FA
  8
SAPA_FOGBAND
 10
-72.499999999998636
 20
17.400000000000329
 30
0.0
 11
-73.499999999998636
 21
17.400000000000329
 31
0.0
  0
LINE
  5
10FB
  8
SAPA_FOGBAND
 10
-72.999999999998636
 20
14.900000000000331
 30
0.0
 11
-72.999999999998636
 21
9.9000000000003325
 31
0.0
  0
LINE
  5
10FC
  8
SAPA_FOGBAND
 10
-72.499999999998636
 20
-17.599999999999671
 30
0.0
 11
-72.499999999998636
 21
17.400000000000329
 31
0.0
  0
LINE
  5
10FD
  8
SAPA_FOGBAND
 10
-73.499999999998636
 20
17.400000000000329
 30
0.0
 11
-73.499999999998636
 21
-17.599999999999671
 31
0.0
  0
POLYLINE
  5
10FE
  8
SAPA_FOGBAND
 66
     1
 10
0.0
 20
0.0
 30
0.0
 70
     1
  0
VERTEX
  5
190B
  8
SAPA_FOGBAND
 10
-72.534485185378571
 20
-21.651788769293471
 30
0.0
 42
-0.8497079118398895
  0
VERTEX
  5
190C
  8
SAPA_FOGBAND
 10
-72.921427446888629
 20
-22.09999999999944
 30
0.0
  0
VERTEX
  5
190D
  8
SAPA_FOGBAND
 10
-76.404540759853262
 20
-16.558529110705859
 30
0.0
 42
-0.2608822022991484
  0
VERTEX
  5
190E
  8
SAPA_FOGBAND
 10
-76.499999999998408
 20
-16.388026238211051
 30
0.0
  0
VERTEX
  5
190F
  8
SAPA_FOGBAND
 10
-76.499999999997954
 20
-9.1700000000002841
 30
0.0
 42
0.4142135623730951
  0
VERTEX
  5
1910
  8
SAPA_FOGBAND
 10
-76.519999999997935
 20
-9.1499999999996202
 30
0.0
  0
VERTEX
  5
1911
  8
SAPA_FOGBAND
 10
-77.499999999998636
 20
-9.1499999999996202
 30
0.0
  0
VERTEX
  5
1912
  8
SAPA_FOGBAND
 10
-77.608611420439274
 20
-9.5080552462263626
 30
0.0
 42
-0.4364998583843544
  0
VERTEX
  5
1913
  8
SAPA_FOGBAND
 10
-77.872323429359994
 20
-9.636465336096748
 30
0.0
  0
VERTEX
  5
1914
  8
SAPA_FOGBAND
 10
-79.261617146802564
 20
-9.0976065426150257
 30
0.0
 42
-0.3095538907669633
  0
VERTEX
  5
1915
  8
SAPA_FOGBAND
 10
-79.899999999998727
 20
-8.1652798621337155
 30
0.0
  0
VERTEX
  5
1916
  8
SAPA_FOGBAND
 10
-79.899999999998499
 20
-6.8347201378662552
 30
0.0
 42
-0.309553890766963
  0
VERTEX
  5
1917
  8
SAPA_FOGBAND
 10
-79.261617146803246
 20
-5.902393457384945
 30
0.0
  0
VERTEX
  5
1918
  8
SAPA_FOGBAND
 10
-77.872323429359312
 20
-5.3635346639043604
 30
0.0
 42
-0.4364998583843053
  0
VERTEX
  5
1919
  8
SAPA_FOGBAND
 10
-77.608611420439274
 20
-5.491944753774745
 30
0.0
  0
VERTEX
  5
191A
  8
SAPA_FOGBAND
 10
-77.499999999998636
 20
-5.8500000000003487
 30
0.0
  0
VERTEX
  5
191B
  8
SAPA_FOGBAND
 10
-76.549999999998363
 20
-5.8500000000003487
 30
0.0
 42
0.4142135623730953
  0
VERTEX
  5
191C
  8
SAPA_FOGBAND
 10
-76.499999999998408
 20
-5.8000000000003951
 30
0.0
  0
VERTEX
  5
191D
  8
SAPA_FOGBAND
 10
-76.499999999998408
 20
5.8000000000004226
 30
0.0
 42
0.4142135623730951
  0
VERTEX
  5
191E
  8
SAPA_FOGBAND
 10
-76.549999999998363
 20
5.850000000000378
 30
0.0
  0
VERTEX
  5
191F
  8
SAPA_FOGBAND
 10
-77.499999999998636
 20
5.850000000000378
 30
0.0
  0
VERTEX
  5
1920
  8
SAPA_FOGBAND
 10
-77.608611420439274
 20
5.4919447537747743
 30
0.0
 42
-0.4364998583843054
  0
VERTEX
  5
1921
  8
SAPA_FOGBAND
 10
-77.872323429359994
 20
5.3635346639043879
 30
0.0
  0
VERTEX
  5
1922
  8
SAPA_FOGBAND
 10
-79.261617146802564
 20
5.9023934573849743
 30
0.0
 42
-0.309553890766963
  0
VERTEX
  5
1923
  8
SAPA_FOGBAND
 10
-79.899999999998727
 20
6.8347201378662854
 30
0.0
  0
VERTEX
  5
1924
  8
SAPA_FOGBAND
 10
-79.899999999998499
 20
8.1652798621337421
 30
0.0
 42
-0.3095538907669633
  0
VERTEX
  5
1925
  8
SAPA_FOGBAND
 10
-79.261617146803246
 20
9.0976065426150541
 30
0.0
  0
VERTEX
  5
1926
  8
SAPA_FOGBAND
 10
-77.872323429359312
 20
9.6364653360967765
 30
0.0
 42
-0.4364998583843544
  0
VERTEX
  5
1927
  8
SAPA_FOGBAND
 10
-77.608611420439274
 20
9.5080552462263892
 30
0.0
  0
VERTEX
  5
1928
  8
SAPA_FOGBAND
 10
-77.499999999998636
 20
9.1499999999996504
 30
0.0
  0
VERTEX
  5
1929
  8
SAPA_FOGBAND
 10
-76.519999999997935
 20
9.1500000000003325
 30
0.0
 42
0.4142135623730951
  0
VERTEX
  5
192A
  8
SAPA_FOGBAND
 10
-76.499999999998408
 20
9.1700000000003143
 30
0.0
  0
VERTEX
  5
192B
  8
SAPA_FOGBAND
 10
-76.499999999998636
 20
16.388026238211079
 30
0.0
 42
-0.2608822022991486
  0
VERTEX
  5
192C
  8
SAPA_FOGBAND
 10
-76.404540759852807
 20
16.558529110706122
 30
0.0
  0
VERTEX
  5
192D
  8
SAPA_FOGBAND
 10
-72.922817216677231
 20
21.90000000000045
 30
0.0
 42
-0.8497079118398893
  0
VERTEX
  5
192E
  8
SAPA_FOGBAND
 10
-72.535874955167174
 20
21.45178876929414
 30
0.0
  0
VERTEX
  5
192F
  8
SAPA_FOGBAND
 10
-74.012665285346202
 20
15.274100189337121
 30
0.0
  0
VERTEX
  5
1930
  8
SAPA_FOGBAND
 10
-73.999999999998408
 20
12.779098228429589
 30
0.0
  0
VERTEX
  5
1931
  8
SAPA_FOGBAND
 10
-73.848341139642571
 20
13.07089734300054
 30
0.0
 42
-0.767326987978962
  0
VERTEX
  5
1932
  8
SAPA_FOGBAND
 10
-73.515967214874763
 20
12.596121451851801
 30
0.0
  0
VERTEX
  5
1933
  8
SAPA_FOGBAND
 10
-73.999999999998408
 20
11.00000000000024
 30
0.0
  0
VERTEX
  5
1934
  8
SAPA_FOGBAND
 10
-73.999999999998408
 20
8.6000000000001506
 30
0.0
  0
VERTEX
  5
1935
  8
SAPA_FOGBAND
 10
-73.515967214875204
 20
7.0038785481479078
 30
0.0
 42
-0.7673269879789616
  0
VERTEX
  5
1936
  8
SAPA_FOGBAND
 10
-73.848341139642343
 20
6.5291026569991697
 30
0.0
  0
VERTEX
  5
1937
  8
SAPA_FOGBAND
 10
-73.999999999998408
 20
6.820901771570802
 30
0.0
  0
VERTEX
  5
1938
  8
SAPA_FOGBAND
 10
-73.999999999998408
 20
3.3286724168056159
 30
0.0
 42
0.2679491924311367
  0
VERTEX
  5
1939
  8
SAPA_FOGBAND
 10
-73.899999999998727
 20
3.1554673360488001
 30
0.0
  0
VERTEX
  5
193A
  8
SAPA_FOGBAND
 10
-72.617285126167189
 20
2.4148915583498489
 30
0.0
 42
-0.5773502691896298
  0
VERTEX
  5
193B
  8
SAPA_FOGBAND
 10
-72.617285126168099
 20
2.0684813968355358
 30
0.0
  0
VERTEX
  5
193C
  8
SAPA_FOGBAND
 10
-75.899999999998954
 20
0.1732050807561476
 30
0.0
  0
VERTEX
  5
193D
  8
SAPA_FOGBAND
 10
-76.049999999998818
 20
0.0866025403786492
 30
0.0
 42
0.5773502691896253
  0
VERTEX
  5
193E
  8
SAPA_FOGBAND
 10
-76.049999999998818
 20
-0.0866025403783939
 30
0.0
  0
VERTEX
  5
193F
  8
SAPA_FOGBAND
 10
-75.899999999998954
 20
-0.1732050807572565
 30
0.0
  0
VERTEX
  5
1940
  8
SAPA_FOGBAND
 10
-72.617285126167189
 20
-2.0684813968352822
 30
0.0
 42
-0.5773502691896298
  0
VERTEX
  5
1941
  8
SAPA_FOGBAND
 10
-72.617285126168099
 20
-2.4148915583495949
 30
0.0
  0
VERTEX
  5
1942
  8
SAPA_FOGBAND
 10
-73.899999999998499
 20
-3.1554673360494552
 30
0.0
 42
0.2679491924311367
  0
VERTEX
  5
1943
  8
SAPA_FOGBAND
 10
-73.999999999998636
 20
-3.3286724168055879
 30
0.0
  0
VERTEX
  5
1944
  8
SAPA_FOGBAND
 10
-73.999999999998408
 20
-6.8209017715707754
 30
0.0
  0
VERTEX
  5
1945
  8
SAPA_FOGBAND
 10
-73.848341139642343
 20
-6.5291026570002799
 30
0.0
 42
-0.7673269879789616
  0
VERTEX
  5
1946
  8
SAPA_FOGBAND
 10
-73.515967214874536
 20
-7.003878548147882
 30
0.0
  0
VERTEX
  5
1947
  8
SAPA_FOGBAND
 10
-73.999999999998408
 20
-8.6000000000001222
 30
0.0
  0
VERTEX
  5
1948
  8
SAPA_FOGBAND
 10
-73.999999999998408
 20
-11.00000000000021
 30
0.0
  0
VERTEX
  5
1949
  8
SAPA_FOGBAND
 10
-73.515967214874763
 20
-12.596121451852451
 30
0.0
 42
-0.767326987978962
  0
VERTEX
  5
194A
  8
SAPA_FOGBAND
 10
-73.848341139641875
 20
-13.07089734300005
 30
0.0
  0
VERTEX
  5
194B
  8
SAPA_FOGBAND
 10
-73.999999999998408
 20
-12.779098228429559
 30
0.0
  0
VERTEX
  5
194C
  8
SAPA_FOGBAND
 10
-73.991785768350155
 20
-15.57544619588019
 30
0.0
  0
SEQEND
  5
194D
  8
SAPA_FOGBAND
  0
LINE
  5
10FF
  8
SAPA_FOGBAND
 10
-72.999999999998636
 20
2.4000000000003312
 30
0.0
 11
-72.999999999998636
 21
-2.5999999999996679
 31
0.0
  0
DIMENSION
  5
1107
  8
SAPA_MATT
  2
*D75
 10
-106.75055263264331
 20
-15.99999999999992
 30
0.0
 11
-109.25055263264331
 21
0.0000000000000886
 31
0.0
 70
     0
 13
-86.34999999999998
 23
16.000000000000131
 33
0.0
 14
-86.34999999999998
 24
-15.999999999999931
 34
0.0
 50
270.0
1001
ACAD
1000
DSTYLE
1002
{
1070
    40
1040
1.0
1002
}
  0
DIMENSION
  5
1108
  8
SAPA_MATT
  2
*D74
 10
124.20093969801771
 20
42.549455477510477
 30
0.0
 11
99.20093969801772
 21
45.049455477510477
 31
0.0
 70
     0
 13
74.200939698017692
 23
-0.3000000000000789
 33
0.0
 14
124.20093969801771
 24
-0.3000000000000789
 34
0.0
1001
ACAD
1000
DSTYLE
1002
{
1070
   287
1070
     4
1070
    40
1040
1.0
1070
   279
1070
     1
1002
}
  0
DIMENSION
  5
1109
  8
SAPA_MATT
  2
*D73
 10
74.200939698017692
 20
42.549455477510477
 30
0.0
 11
69.20093969801772
 21
45.049455477510477
 31
0.0
 70
     0
 13
64.200939698017763
 23
24.50000000000022
 33
0.0
 14
74.200939698017692
 24
-0.3000000000000789
 34
0.0
1001
ACAD
1000
DSTYLE
1002
{
1070
    40
1040
1.0
1002
}
  0
VIEWPORT
  5
C4
 67
     1
  8
0
 10
143.06236603067589
 20
116.00969601843509
 30
0.0
 40
369.98580003443811
 41
256.8421457311839
 68
     1
 69
     1
1001
ACAD
1000
MVIEW
1002
{
1070
    16
1010
0.0
1020
0.0
1030
0.0
1010
0.0
1020
0.0
1030
1.0
1040
0.0
1040
256.8421457311839
1040
99.112914085388169
1040
143.07606935501099
1040
50.0
1040
0.0
1040
0.0
1070
     0
1070
     0
1070
     1
1070
     1
1070
     0
1070
     0
1070
     0
1070
     0
1040
0.0
1040
0.0
1040
0.0
1040
10.0
1040
10.0
1040
10.0
1040
10.0
1070
     0
1002
{
1002
}
1002
}
  0
ENDSEC
  0
EOF
