  0
SECTION
  2
HEADER
  9
$ACADVER
  1
AC1009
  9
$INSBASE
 10
0.0
 20
0.0
 30
0.0
  9
$EXTMIN
 10
-61.052844091650961
 20
-438.35949337547788
 30
0.0
  9
$EXTMAX
 10
372.7626417395748
 20
131.7317722287448
 30
0.0
  9
$LIMMIN
 10
0.0
 20
0.0
  9
$LIMMAX
 10
790.0
 20
790.0
  9
$ORTHOMODE
 70
     1
  9
$REGENMODE
 70
     1
  9
$FILLMODE
 70
     1
  9
$QTEXTMODE
 70
     0
  9
$MIRRTEXT
 70
     1
  9
$DRAGMODE
 70
     2
  9
$LTSCALE
 40
4.0
  9
$OSMODE
 70
   167
  9
$ATTMODE
 70
     1
  9
$TEXTSIZE
 40
3.5
  9
$TRACEWID
 40
0.05
  9
$TEXTSTYLE
  7
ISO
  9
$CLAYER
  8
0
  9
$CELTYPE
  6
BYLAYER
  9
$CECOLOR
 62
   256
  9
$DIMSCALE
 40
0.0
  9
$DIMASZ
 40
3.0
  9
$DIMEXO
 40
1.5
  9
$DIMDLI
 40
10.0
  9
$DIMRND
 40
0.0
  9
$DIMDLE
 40
0.0
  9
$DIMEXE
 40
1.5
  9
$DIMTP
 40
0.0
  9
$DIMTM
 40
0.0
  9
$DIMTXT
 40
3.0
  9
$DIMCEN
 40
-5.0
  9
$DIMTSZ
 40
0.0
  9
$DIMTOL
 70
     0
  9
$DIMLIM
 70
     0
  9
$DIMTIH
 70
     0
  9
$DIMTOH
 70
     0
  9
$DIMSE1
 70
     0
  9
$DIMSE2
 70
     0
  9
$DIMTAD
 70
     1
  9
$DIMZIN
 70
     8
  9
$DIMBLK
  1

  9
$DIMASO
 70
     1
  9
$DIMSHO
 70
     1
  9
$DIMPOST
  1

  9
$DIMAPOST
  1

  9
$DIMALT
 70
     0
  9
$DIMALTD
 70
     0
  9
$DIMALTF
 40
25.399999999999999
  9
$DIMLFAC
 40
-1.0
  9
$DIMTOFL
 70
     1
  9
$DIMTVP
 40
0.0
  9
$DIMTIX
 70
     0
  9
$DIMSOXD
 70
     0
  9
$DIMSAH
 70
     0
  9
$DIMBLK1
  1

  9
$DIMBLK2
  1

  9
$DIMSTYLE
  2
MASKIN
  9
$DIMCLRD
 70
   256
  9
$DIMCLRE
 70
   256
  9
$DIMCLRT
 70
     2
  9
$DIMTFAC
 40
1.0
  9
$DIMGAP
 40
1.0
  9
$LUNITS
 70
     2
  9
$LUPREC
 70
     8
  9
$SKETCHINC
 40
0.1
  9
$FILLETRAD
 40
0.0
  9
$AUNITS
 70
     0
  9
$AUPREC
 70
     8
  9
$MENU
  1
ACAD
  9
$ELEVATION
 40
0.0
  9
$PELEVATION
 40
0.0
  9
$THICKNESS
 40
0.0
  9
$LIMCHECK
 70
     0
  9
$BLIPMODE
 70
     0
  9
$CHAMFERA
 40
0.0
  9
$CHAMFERB
 40
0.0
  9
$SKPOLY
 70
     0
  9
$TDCREATE
 40
2454995.4690802889
  9
$TDUPDATE
 40
2455058.3769833101
  9
$TDINDWG
 40
0.0974101389
  9
$TDUSRTIMER
 40
0.0974101389
  9
$USRTIMER
 70
     1
  9
$ANGBASE
 50
0.0
  9
$ANGDIR
 70
     0
  9
$PDMODE
 70
     0
  9
$PDSIZE
 40
0.0
  9
$PLINEWID
 40
0.0
  9
$COORDS
 70
     1
  9
$SPLFRAME
 70
     0
  9
$SPLINETYPE
 70
     6
  9
$SPLINESEGS
 70
     8
  9
$ATTDIA
 70
     0
  9
$ATTREQ
 70
     1
  9
$HANDLING
 70
     1
  9
$HANDSEED
  5
25EE
  9
$SURFTAB1
 70
     6
  9
$SURFTAB2
 70
     6
  9
$SURFTYPE
 70
     6
  9
$SURFU
 70
     6
  9
$SURFV
 70
     6
  9
$UCSNAME
  2

  9
$UCSORG
 10
0.0
 20
0.0
 30
0.0
  9
$UCSXDIR
 10
1.0
 20
0.0
 30
0.0
  9
$UCSYDIR
 10
0.0
 20
1.0
 30
0.0
  9
$PUCSNAME
  2

  9
$PUCSORG
 10
0.0
 20
0.0
 30
0.0
  9
$PUCSXDIR
 10
1.0
 20
0.0
 30
0.0
  9
$PUCSYDIR
 10
0.0
 20
1.0
 30
0.0
  9
$USERI1
 70
     0
  9
$USERI2
 70
     0
  9
$USERI3
 70
     0
  9
$USERI4
 70
     0
  9
$USERI5
 70
     0
  9
$USERR1
 40
0.0
  9
$USERR2
 40
0.0
  9
$USERR3
 40
0.0
  9
$USERR4
 40
0.0
  9
$USERR5
 40
0.0
  9
$WORLDVIEW
 70
     1
  9
$SHADEDGE
 70
     3
  9
$SHADEDIF
 70
    70
  9
$TILEMODE
 70
     1
  9
$MAXACTVP
 70
    16
  9
$PLIMCHECK
 70
     0
  9
$PEXTMIN
 10
1.0000000000000000E+020
 20
1.0000000000000000E+020
 30
1.0000000000000000E+020
  9
$PEXTMAX
 10
-1.0000000000000000E+020
 20
-1.0000000000000000E+020
 30
-1.0000000000000000E+020
  9
$PLIMMIN
 10
-5.069427490234375
 20
-5.8737497329711914
  9
$PLIMMAX
 10
291.89889526367187
 20
204.0995779037475
  9
$UNITMODE
 70
     0
  9
$VISRETAIN
 70
     1
  9
$PLINEGEN
 70
     0
  9
$PSLTSCALE
 70
     1
  0
ENDSEC
  0
SECTION
  2
TABLES
  0
TABLE
  2
VPORT
 70
     1
  0
VPORT
  2
*ACTIVE
 70
     0
 10
0.0
 20
0.0
 11
1.0
 21
1.0
 12
353.5688685123194
 22
-153.31171295591801
 13
0.0
 23
0.0
 14
1.0
 24
1.0
 15
0.0
 25
0.0
 16
0.0
 26
0.0
 36
1.0
 17
0.0
 27
0.0
 37
0.0
 40
574.85686134158448
 41
2.362776025236593
 42
50.0
 43
0.0
 44
0.0
 50
0.0
 51
0.0
 71
     0
 72
 10000
 73
     1
 74
     1
 75
     0
 76
     0
 77
     0
 78
     0
  0
ENDTAB
  0
TABLE
  2
LTYPE
 70
     5
  0
LTYPE
  2
CONTINUOUS
 70
     0
  3
Solid line
 72
    65
 73
     0
 40
0.0
  0
LTYPE
  2
BYGG-01473602$0$NEWDOT
 70
     0
  3
____ . ____ . ____ . ____ . ____ . ____ . ____
 72
    65
 73
     4
 40
2.0
 49
1.0
 49
-0.5
 49
0.0
 49
-0.5
  0
LTYPE
  2
BYGG-014252$0$NEWDOT
 70
     0
  3
____ . ____ . ____ . ____ . ____ . ____ . ____
 72
    65
 73
     4
 40
2.0
 49
1.0
 49
-0.5
 49
0.0
 49
-0.5
  0
LTYPE
  2
BYGG-014680$0$NEWDOT
 70
     0
  3
____ . ____ . ____ . ____ . ____ . ____ . ____
 72
    65
 73
     4
 40
2.0
 49
1.0
 49
-0.5
 49
0.0
 49
-0.5
  0
LTYPE
  2
DASHDOT
 70
     0
  3
__ . __ . __ . __ . __ . __ . __ . __ . __ . __
 72
    65
 73
     4
 40
1.0
 49
0.5
 49
-0.25
 49
0.0
 49
-0.25
  0
ENDTAB
  0
TABLE
  2
LAYER
 70
    44
  0
LAYER
  2
0
 70
     0
 62
     7
  6
CONTINUOUS
  0
LAYER
  2
DEFPOINTS
 70
     0
 62
     7
  6
CONTINUOUS
  0
LAYER
  2
SAPA_ARTIKELNR
 70
     0
 62
     4
  6
CONTINUOUS
  0
LAYER
  2
SAPA_LIGHT
 70
     1
 62
     1
  6
CONTINUOUS
  0
LAYER
  2
SAPA_PROFIL
 70
     0
 62
     7
  6
CONTINUOUS
  0
LAYER
  2
SAPA_ANSLUTNING
 70
     0
 62
     6
  6
CONTINUOUS
  0
LAYER
  2
SAPA_FOGBAND
 70
     0
 62
     2
  6
CONTINUOUS
  0
LAYER
  2
SAPA_FYLLNING
 70
     0
 62
     4
  6
CONTINUOUS
  0
LAYER
  2
SAPA_MATT
 70
     0
 62
     1
  6
CONTINUOUS
  0
ENDTAB
  0
TABLE
  2
STYLE
 70
    21
  0
STYLE
  2
STANDARD
 70
     0
 40
0.0
 41
1.0
 50
0.0
 71
     0
 42
0.2
  3
txt
  4

  0
STYLE
  2
ISO
 70
     0
 40
0.0
 41
1.0
 50
0.0
 71
     0
 42
3.5
  3
txt
  4

  0
STYLE
  2
BYGG-024116$0$STANDARD
 70
     0
 40
0.0
 41
1.0
 50
0.0
 71
     0
 42
0.2
  3
txt
  4

  0
STYLE
  2
BYGG-024116$0$ISO
 70
     0
 40
0.0
 41
1.0
 50
0.0
 71
     0
 42
3.5
  3
txt
  4

  0
STYLE
  2
BYGG-01473602$0$STANDARD
 70
     0
 40
0.0
 41
1.0
 50
0.0
 71
     0
 42
0.2
  3
txt
  4

  0
STYLE
  2
BYGG-01473602$0$ISO
 70
     0
 40
0.0
 41
1.0
 50
0.0
 71
     0
 42
2.5
  3
isocp3.shx
  4

  0
STYLE
  2
BYGG-024082$0$STANDARD
 70
     0
 40
0.0
 41
1.0
 50
0.0
 71
     0
 42
0.2
  3
txt
  4

  0
STYLE
  2
BYGG-024082$0$ISO
 70
     0
 40
0.0
 41
1.0
 50
0.0
 71
     0
 42
3.5
  3
txt
  4

  0
STYLE
  2
BYGG-014252$0$STANDARD
 70
     0
 40
0.0
 41
1.0
 50
0.0
 71
     0
 42
0.2
  3
txt
  4

  0
STYLE
  2
BYGG-014252$0$ISO
 70
     0
 40
0.0
 41
1.0
 50
0.0
 71
     0
 42
2.5
  3
isocp3.shx
  4

  0
STYLE
  2
BYGG-014014$0$STANDARD
 70
     0
 40
0.0
 41
1.0
 50
0.0
 71
     0
 42
0.2
  3
txt
  4

  0
STYLE
  2
BYGG-024110$0$STANDARD
 70
     0
 40
0.0
 41
1.0
 50
0.0
 71
     0
 42
0.2
  3
txt
  4

  0
STYLE
  2
BYGG-024110$0$ISO
 70
     0
 40
0.0
 41
1.0
 50
0.0
 71
     0
 42
3.5
  3
txt
  4

  0
STYLE
  2
BYGG-014680$0$STANDARD
 70
     0
 40
0.0
 41
1.0
 50
0.0
 71
     0
 42
0.2
  3
txt
  4

  0
STYLE
  2
BYGG-014680$0$ISO
 70
     0
 40
0.0
 41
1.0
 50
0.0
 71
     0
 42
8.0
  3
iso
  4

  0
STYLE
  2
BYGG-024114$0$STANDARD
 70
     0
 40
0.0
 41
1.0
 50
0.0
 71
     0
 42
0.2
  3
txt
  4

  0
STYLE
  2
BYGG-024114$0$ISO
 70
     0
 40
0.0
 41
1.0
 50
0.0
 71
     0
 42
3.5
  3
txt
  4

  0
STYLE
  2
BYGG-013690$0$STANDARD
 70
     0
 40
0.0
 41
1.0
 50
0.0
 71
     0
 42
0.2
  3
txt
  4

  0
STYLE
  2
BYGG-013690$0$ISO
 70
     0
 40
0.0
 41
1.0
 50
0.0
 71
     0
 42
2.5
  3
isocp3.shx
  4

  0
STYLE
  2
BYGG-024093$0$STANDARD
 70
     0
 40
0.0
 41
1.0
 50
0.0
 71
     0
 42
0.2
  3
txt
  4

  0
STYLE
  2
BYGG-024093$0$ISO
 70
     0
 40
0.0
 41
1.0
 50
0.0
 71
     0
 42
3.5
  3
txt
  4

  0
ENDTAB
  0
TABLE
  2
VIEW
 70
     0
  0
ENDTAB
  0
TABLE
  2
UCS
 70
     0
  0
ENDTAB
  0
TABLE
  2
APPID
 70
    17
  0
APPID
  2
ACAD
 70
     0
  0
APPID
  2
ACAD_DSTYLE_DIMTEXT_FILL
 70
     0
  0
APPID
  2
ACAD_DSTYLE_DIMEXT_LENGTH
 70
     0
  0
APPID
  2
ACAD_DSTYLE_DIMEXT_ENABLED
 70
     0
  0
APPID
  2
ACAD_DSTYLE_DIM_LINETYPE
 70
     0
  0
APPID
  2
ACAD_DSTYLE_DIM_EXT1_LINETYPE
 70
     0
  0
APPID
  2
ACAD_DSTYLE_DIM_EXT2_LINETYPE
 70
     0
  0
APPID
  2
ACAD_DSTYLE_DIMJOGGED_JOGA
 70
     0
  0
APPID
  2
ACAD_DSTYLE_DIMARC_LENGTH_
 70
     0
  0
APPID
  2
ACAD_PSEXT
 70
     0
  0
APPID
  2
ACAD_MLEADERVER
 70
     0
  0
APPID
  2
AME_SOL
 70
     0
  0
APPID
  2
AMG_ARCHIVE11
 70
     0
  0
APPID
  2
DCO15
 70
     0
  0
APPID
  2
ACAD_EXEMPT_FROM_CAD_STANDARDS
 70
     0
  0
APPID
  2
ACADANNOTATIVE
 70
     0
  0
APPID
  2
ACAECLAYERSTANDARD
 70
     0
  0
ENDTAB
  0
TABLE
  2
DIMSTYLE
 70
    19
  0
DIMSTYLE
  2
MASKIN
 70
     0
  3

  4

  5

  6

  7

 40
0.0
 41
3.0
 42
1.5
 43
10.0
 44
1.5
 45
0.0
 46
0.0
 47
0.0
 48
0.0
140
3.0
141
-5.0
142
0.0
143
25.399999999999999
144
-1.0
145
0.0
146
1.0
147
1.0
 71
     0
 72
     0
 73
     0
 74
     0
 75
     0
 76
     0
 77
     1
 78
     8
170
     0
171
     0
172
     1
173
     0
174
     0
175
     0
176
   256
177
   256
178
     2
  0
DIMSTYLE
  2
BYGG-024116$0$STANDARD
 70
     0
  3

  4

  5

  6

  7

 40
1.0
 41
0.18
 42
0.0625
 43
0.38
 44
0.18
 45
0.0
 46
0.0
 47
0.0
 48
0.0
140
0.18
141
0.09
142
0.0
143
25.399999999999999
144
1.0
145
0.0
146
1.0
147
0.09
 71
     0
 72
     0
 73
     1
 74
     1
 75
     0
 76
     0
 77
     0
 78
     0
170
     0
171
     2
172
     0
173
     0
174
     0
175
     0
176
     0
177
     0
178
     0
  0
DIMSTYLE
  2
BYGG-024116$0$MASKIN
 70
     0
  3

  4

  5

  6

  7

 40
0.0
 41
3.0
 42
1.5
 43
10.0
 44
1.5
 45
0.0
 46
0.0
 47
0.0
 48
0.0
140
3.0
141
-5.0
142
0.0
143
25.399999999999999
144
-1.0
145
0.0
146
1.0
147
1.0
 71
     0
 72
     0
 73
     0
 74
     0
 75
     0
 76
     0
 77
     1
 78
     8
170
     0
171
     0
172
     1
173
     0
174
     0
175
     0
176
   256
177
   256
178
     2
  0
DIMSTYLE
  2
BYGG-01473602$0$STANDARD
 70
     0
  3

  4

  5

  6

  7

 40
1.0
 41
0.18
 42
0.0625
 43
0.38
 44
0.18
 45
0.0
 46
0.0
 47
0.0
 48
0.0
140
0.18
141
0.09
142
0.0
143
25.399999999999999
144
1.0
145
0.0
146
1.0
147
0.09
 71
     0
 72
     0
 73
     1
 74
     1
 75
     0
 76
     0
 77
     0
 78
     0
170
     0
171
     2
172
     0
173
     0
174
     0
175
     0
176
     0
177
     0
178
     0
  0
DIMSTYLE
  2
BYGG-01473602$0$MASKIN
 70
     0
  3

  4

  5

  6

  7

 40
0.0
 41
3.0
 42
1.5
 43
10.0
 44
1.5
 45
0.0
 46
0.0
 47
0.0
 48
0.0
140
3.0
141
-5.0
142
0.0
143
25.399999999999999
144
-1.0
145
0.0
146
1.0
147
1.0
 71
     0
 72
     0
 73
     0
 74
     1
 75
     0
 76
     0
 77
     1
 78
     8
170
     0
171
     0
172
     1
173
     0
174
     0
175
     0
176
   256
177
   256
178
     2
  0
DIMSTYLE
  2
BYGG-024082$0$STANDARD
 70
     0
  3

  4

  5

  6

  7

 40
1.0
 41
0.18
 42
0.0625
 43
0.38
 44
0.18
 45
0.0
 46
0.0
 47
0.0
 48
0.0
140
0.18
141
0.09
142
0.0
143
25.399999999999999
144
1.0
145
0.0
146
1.0
147
0.09
 71
     0
 72
     0
 73
     1
 74
     1
 75
     0
 76
     0
 77
     0
 78
     0
170
     0
171
     2
172
     0
173
     0
174
     0
175
     0
176
     0
177
     0
178
     0
  0
DIMSTYLE
  2
BYGG-024082$0$MASKIN
 70
     0
  3

  4

  5

  6

  7

 40
0.0
 41
3.0
 42
1.5
 43
10.0
 44
1.5
 45
0.0
 46
0.0
 47
0.0
 48
0.0
140
3.0
141
-5.0
142
0.0
143
25.399999999999999
144
-1.0
145
0.0
146
1.0
147
1.0
 71
     0
 72
     0
 73
     0
 74
     0
 75
     0
 76
     0
 77
     1
 78
     8
170
     0
171
     0
172
     1
173
     0
174
     0
175
     0
176
   256
177
   256
178
     2
  0
DIMSTYLE
  2
BYGG-014252$0$STANDARD
 70
     0
  3

  4

  5

  6

  7

 40
1.0
 41
0.18
 42
0.0625
 43
0.38
 44
0.18
 45
0.0
 46
0.0
 47
0.0
 48
0.0
140
0.18
141
0.09
142
0.0
143
25.399999999999999
144
1.0
145
0.0
146
1.0
147
0.09
 71
     0
 72
     0
 73
     1
 74
     1
 75
     0
 76
     0
 77
     0
 78
     0
170
     0
171
     2
172
     0
173
     0
174
     0
175
     0
176
     0
177
     0
178
     0
  0
DIMSTYLE
  2
BYGG-014252$0$MASKIN
 70
     0
  3

  4

  5

  6

  7

 40
0.0
 41
3.0
 42
1.5
 43
10.0
 44
1.5
 45
0.0
 46
0.0
 47
0.0
 48
0.0
140
3.0
141
-5.0
142
0.0
143
25.399999999999999
144
-1.0
145
0.0
146
1.0
147
1.0
 71
     0
 72
     0
 73
     0
 74
     1
 75
     0
 76
     0
 77
     1
 78
     8
170
     0
171
     0
172
     1
173
     0
174
     0
175
     0
176
   256
177
   256
178
     2
  0
DIMSTYLE
  2
BYGG-014014$0$STANDARD
 70
     0
  3

  4

  5

  6

  7

 40
1.0
 41
0.18
 42
0.0625
 43
0.38
 44
0.18
 45
0.0
 46
0.0
 47
0.0
 48
0.0
140
0.18
141
0.09
142
0.0
143
25.399999999999999
144
1.0
145
0.0
146
1.0
147
0.09
 71
     0
 72
     0
 73
     1
 74
     1
 75
     0
 76
     0
 77
     0
 78
     0
170
     0
171
     2
172
     0
173
     0
174
     0
175
     0
176
     0
177
     0
178
     0
  0
DIMSTYLE
  2
BYGG-024110$0$STANDARD
 70
     0
  3

  4

  5

  6

  7

 40
1.0
 41
0.18
 42
0.0625
 43
0.38
 44
0.18
 45
0.0
 46
0.0
 47
0.0
 48
0.0
140
0.18
141
0.09
142
0.0
143
25.399999999999999
144
1.0
145
0.0
146
1.0
147
0.09
 71
     0
 72
     0
 73
     1
 74
     1
 75
     0
 76
     0
 77
     0
 78
     0
170
     0
171
     2
172
     0
173
     0
174
     0
175
     0
176
     0
177
     0
178
     0
  0
DIMSTYLE
  2
BYGG-024110$0$MASKIN
 70
     0
  3

  4

  5

  6

  7

 40
0.0
 41
3.0
 42
1.5
 43
10.0
 44
1.5
 45
0.0
 46
0.0
 47
0.0
 48
0.0
140
3.0
141
-5.0
142
0.0
143
25.399999999999999
144
-1.0
145
0.0
146
1.0
147
1.0
 71
     0
 72
     0
 73
     0
 74
     0
 75
     0
 76
     0
 77
     1
 78
     8
170
     0
171
     0
172
     1
173
     0
174
     0
175
     0
176
   256
177
   256
178
     2
  0
DIMSTYLE
  2
BYGG-014680$0$MASKIN
 70
     0
  3

  4

  5

  6

  7

 40
0.0
 41
3.0
 42
1.5
 43
10.0
 44
1.5
 45
0.0
 46
0.0
 47
0.0
 48
0.0
140
3.0
141
-5.0
142
0.0
143
25.399999999999999
144
-1.0
145
0.0
146
1.0
147
1.0
 71
     0
 72
     0
 73
     0
 74
     1
 75
     0
 76
     0
 77
     1
 78
     8
170
     0
171
     0
172
     1
173
     0
174
     0
175
     0
176
   256
177
   256
178
     2
  0
DIMSTYLE
  2
BYGG-024114$0$STANDARD
 70
     0
  3

  4

  5

  6

  7

 40
1.0
 41
0.18
 42
0.0625
 43
0.38
 44
0.18
 45
0.0
 46
0.0
 47
0.0
 48
0.0
140
0.18
141
0.09
142
0.0
143
25.399999999999999
144
1.0
145
0.0
146
1.0
147
0.09
 71
     0
 72
     0
 73
     1
 74
     1
 75
     0
 76
     0
 77
     0
 78
     0
170
     0
171
     2
172
     0
173
     0
174
     0
175
     0
176
     0
177
     0
178
     0
  0
DIMSTYLE
  2
BYGG-024114$0$MASKIN
 70
     0
  3

  4

  5

  6

  7

 40
0.0
 41
3.0
 42
1.5
 43
10.0
 44
1.5
 45
0.0
 46
0.0
 47
0.0
 48
0.0
140
3.0
141
-5.0
142
0.0
143
25.399999999999999
144
-1.0
145
0.0
146
1.0
147
1.0
 71
     0
 72
     0
 73
     0
 74
     0
 75
     0
 76
     0
 77
     1
 78
     8
170
     0
171
     0
172
     1
173
     0
174
     0
175
     0
176
   256
177
   256
178
     2
  0
DIMSTYLE
  2
BYGG-013690$0$STANDARD
 70
     0
  3

  4

  5

  6

  7

 40
1.0
 41
0.18
 42
0.0625
 43
0.38
 44
0.18
 45
0.0
 46
0.0
 47
0.0
 48
0.0
140
0.18
141
0.09
142
0.0
143
25.399999999999999
144
1.0
145
0.0
146
1.0
147
0.09
 71
     0
 72
     0
 73
     1
 74
     1
 75
     0
 76
     0
 77
     0
 78
     0
170
     0
171
     2
172
     0
173
     0
174
     0
175
     0
176
     0
177
     0
178
     0
  0
DIMSTYLE
  2
BYGG-013690$0$MASKIN
 70
     0
  3

  4

  5

  6

  7

 40
0.0
 41
3.0
 42
1.5
 43
10.0
 44
1.5
 45
0.0
 46
0.0
 47
0.0
 48
0.0
140
3.0
141
-5.0
142
0.0
143
25.399999999999999
144
-1.0
145
0.0
146
1.0
147
1.0
 71
     0
 72
     0
 73
     0
 74
     1
 75
     0
 76
     0
 77
     1
 78
     8
170
     0
171
     0
172
     1
173
     0
174
     0
175
     0
176
   256
177
   256
178
     2
  0
DIMSTYLE
  2
BYGG-024093$0$STANDARD
 70
     0
  3

  4

  5

  6

  7

 40
1.0
 41
0.18
 42
0.0625
 43
0.38
 44
0.18
 45
0.0
 46
0.0
 47
0.0
 48
0.0
140
0.18
141
0.09
142
0.0
143
25.399999999999999
144
1.0
145
0.0
146
1.0
147
0.09
 71
     0
 72
     0
 73
     1
 74
     1
 75
     0
 76
     0
 77
     0
 78
     0
170
     0
171
     2
172
     0
173
     0
174
     0
175
     0
176
     0
177
     0
178
     0
  0
DIMSTYLE
  2
BYGG-024093$0$MASKIN
 70
     0
  3

  4

  5

  6

  7

 40
0.0
 41
3.0
 42
1.5
 43
10.0
 44
1.5
 45
0.0
 46
0.0
 47
0.0
 48
0.0
140
3.0
141
-5.0
142
0.0
143
25.399999999999999
144
-1.0
145
0.0
146
1.0
147
1.0
 71
     0
 72
     0
 73
     0
 74
     0
 75
     0
 76
     0
 77
     1
 78
     8
170
     0
171
     0
172
     1
173
     0
174
     0
175
     0
176
   256
177
   256
178
     2
  0
ENDTAB
  0
ENDSEC
  0
SECTION
  2
BLOCKS
  0
BLOCK
  8
0
  2
$MODEL_SPACE
 70
     0
 10
0.0
 20
0.0
 30
0.0
  3
$MODEL_SPACE
  1

  0
ENDBLK
  5
37
  8
0
  0
BLOCK
 67
     1
  8
0
  2
$PAPER_SPACE
 70
     0
 10
0.0
 20
0.0
 30
0.0
  3
$PAPER_SPACE
  1

  0
ENDBLK
  5
35
 67
     1
  8
0
  0
BLOCK
  8
0
  2
*D34
 70
     1
 10
0.0
 20
0.0
 30
0.0
  3
*D34
  1

  0
LINE
  5
1DCC
  8
SAPA_MATT
 10
170.52169618143469
 20
-43.191720227241923
 30
0.0
 11
270.15659874187412
 21
-6.9275814012285357
 31
0.0
  0
LINE
  5
1DCD
  8
SAPA_MATT
 10
273.12773917913557
 20
-325.09950646301428
 30
0.0
 11
372.7626417395748
 21
-288.83536763700101
 31
0.0
  0
LINE
  5
1DCE
  8
SAPA_MATT
 10
269.77312024067231
 20
-10.259689478574749
 30
0.0
 11
370.32704237841892
 21
-286.52931998963169
 31
0.0
  0
SOLID
  5
1DCF
  8
SAPA_MATT
 10
270.24296655106519
 20
-10.08867940691192
 30
0.0
 11
269.30327393027932
 21
-10.430699550237589
 31
0.0
 12
268.7470598106953
 22
-7.4406116162170397
 32
0.0
 13
268.7470598106953
 23
-7.4406116162170397
 33
0.0
  0
SOLID
  5
1DD0
  8
SAPA_MATT
 10
370.7968886888118
 20
-286.358309917969
 30
0.0
 11
369.85719606802593
 21
-286.70033006129461
 31
0.0
 12
371.35310280839587
 22
-289.34839785198938
 32
0.0
 13
371.35310280839587
 23
-289.34839785198938
 33
0.0
  0
INSERT
  5
1DD1
  8
0
  2
*U63
 10
0.0
 20
0.0
 30
0.0
  0
POINT
  5
1DD2
  8
DEFPOINTS
 62
     0
 10
169.1121572502559
 20
-43.70475044223042
 30
0.0
  0
POINT
  5
1DD3
  8
DEFPOINTS
 62
     0
 10
271.7182002479567
 20
-325.61253667800281
 30
0.0
  0
POINT
  5
1DD4
  8
DEFPOINTS
 62
     0
 10
371.35310280839587
 20
-289.34839785198938
 30
0.0
  0
ENDBLK
  5
1DB6
  8
0
  0
BLOCK
  8
0
  2
*D35
 70
     1
 10
0.0
 20
0.0
 30
0.0
  3
*D35
  1

  0
LINE
  5
1DC3
  8
SAPA_MATT
 10
285.46200895949659
 20
-160.98353353016699
 30
0.0
 11
304.15366387454168
 21
-154.18032751191501
 31
0.0
  0
LINE
  5
1DC4
  8
SAPA_MATT
 10
234.15898746064599
 20
-20.029640412280671
 30
0.0
 11
252.85064237569111
 21
-13.22643439402866
 31
0.0
  0
LINE
  5
1DC5
  8
SAPA_MATT
 10
301.7180645133858
 20
-151.87427986454571
 30
0.0
 11
252.4671638744893
 21
-16.558542471374889
 31
0.0
  0
SOLID
  5
1DC6
  8
SAPA_MATT
 10
302.18791082377868
 20
-151.70326979288291
 30
0.0
 11
301.24821820299292
 21
-152.0452899362086
 31
0.0
 12
302.74412494336281
 22
-154.6933577269034
 32
0.0
 13
302.74412494336281
 23
-154.6933577269034
 33
0.0
  0
SOLID
  5
1DC7
  8
SAPA_MATT
 10
252.93701018488221
 20
-16.387532399712061
 30
0.0
 11
251.99731756409631
 21
-16.72955254303772
 31
0.0
 12
251.44110344451221
 22
-13.73946460901716
 32
0.0
 13
251.44110344451221
 23
-13.73946460901716
 33
0.0
  0
INSERT
  5
1DC8
  8
0
  2
*U62
 10
0.0
 20
0.0
 30
0.0
  0
POINT
  5
1DC9
  8
DEFPOINTS
 62
     0
 10
284.05247002831771
 20
-161.49656374515541
 30
0.0
  0
POINT
  5
1DCA
  8
DEFPOINTS
 62
     0
 10
232.74944852946709
 20
-20.542670627269182
 30
0.0
  0
POINT
  5
1DCB
  8
DEFPOINTS
 62
     0
 10
251.44110344451221
 20
-13.73946460901716
 30
0.0
  0
ENDBLK
  5
1DC2
  8
0
  0
BLOCK
  8
0
  2
*U36
 70
     1
 10
0.0
 20
0.0
 30
0.0
  3
*U36
  1

  0
TEXT
  5
1DED
  8
SAPA_ARTIKELNR
 10
1.1667877444103469
 20
-19.814052863829819
 30
0.0
 40
3.5
  1
68291
 50
20.0
  7
ISO
  0
ENDBLK
  5
1DEF
  8
0
  0
BLOCK
  8
0
  2
*U37
 70
     1
 10
0.0
 20
0.0
 30
0.0
  3
*U37
  1

  0
TEXT
  5
1DF1
  8
SAPA_ARTIKELNR
 10
-34.031875958978922
 20
75.420652996361525
 30
0.0
 40
3.5
  1
42144
 50
20.0
  7
ISO
  0
ENDBLK
  5
1DF3
  8
0
  0
BLOCK
  8
0
  2
*U38
 70
     1
 10
0.0
 20
0.0
 30
0.0
  3
*U38
  1

  0
TEXT
  5
1E08
  8
SAPA_ARTIKELNR
 10
80.207101096586172
 20
16.704440890729241
 30
0.0
 40
3.5
  1
68174
  7
ISO
  0
ENDBLK
  5
1E0A
  8
0
  0
BLOCK
  8
0
  2
*X39
 70
     1
 10
0.0
 20
0.0
 30
0.0
  3
*X39
  1

  0
LINE
  5
1E11
  8
0
 62
     0
 10
-4.328668936860562
 20
-28.224759502015122
 30
0.0
 11
-4.7512569171501999
 21
-27.802171521725491
 31
0.0
  0
LINE
  5
1E12
  8
0
 62
     0
 10
-4.1446512940798277
 20
-29.531309159929499
 30
0.0
 11
-5.574245562307512
 21
-28.101714891701821
 31
0.0
  0
LINE
  5
1E13
  8
0
 62
     0
 10
-3.8827131321734458
 20
-30.915779336969521
 30
0.0
 11
-6.3972342074648259
 21
-28.401258261678151
 31
0.0
  0
LINE
  5
1E14
  8
0
 62
     0
 10
-3.5240285145951509
 20
-32.396995969681463
 30
0.0
 11
-7.2202228526221388
 21
-28.700801631654471
 31
0.0
  0
LINE
  5
1E15
  8
0
 62
     0
 10
-3.0395152249722388
 20
-34.004041274438023
 30
0.0
 11
-8.0432114977794509
 21
-29.000345001630802
 31
0.0
  0
LINE
  5
1E16
  8
0
 62
     0
 10
-2.379642608977981
 20
-35.78644590556592
 30
0.0
 11
-8.8662001429367621
 21
-29.299888371607139
 31
0.0
  0
LINE
  5
1E17
  8
0
 62
     0
 10
-1.445569702638408
 20
-37.843050827039143
 30
0.0
 11
-9.6891887880940768
 21
-29.599431741583469
 31
0.0
  0
LINE
  5
1E18
  8
0
 62
     0
 10
0.033333533880441
 20
-40.444486078691632
 30
0.0
 11
-10.51217743325139
 21
-29.8989751115598
 31
0.0
  0
LINE
  5
1E19
  8
0
 62
     0
 10
1.289301116884342
 20
-42.82298567682917
 30
0.0
 11
-11.335166078408699
 21
-30.19851848153613
 31
0.0
  0
LINE
  5
1E1A
  8
0
 62
     0
 10
0.4663124717270258
 20
-43.122529046805496
 30
0.0
 11
-12.158154723566019
 21
-30.49806185151246
 31
0.0
  0
LINE
  5
1E1B
  8
0
 62
     0
 10
-0.3566761734302872
 20
-43.422072416781837
 30
0.0
 11
-12.98114336872333
 21
-30.797605221488791
 31
0.0
  0
LINE
  5
1E1C
  8
0
 62
     0
 10
-1.179664818587596
 20
-43.721615786758171
 30
0.0
 11
-13.80413201388064
 21
-31.097148591465121
 31
0.0
  0
LINE
  5
1E1D
  8
0
 62
     0
 10
-2.0026534637449132
 20
-44.021159156734498
 30
0.0
 11
-14.36058049313924
 21
-31.663232127340169
 31
0.0
  0
LINE
  5
1E1E
  8
0
 62
     0
 10
-2.8256421089022221
 20
-44.320702526710832
 30
0.0
 11
-12.74394155768114
 21
-34.402403077931922
 31
0.0
  0
LINE
  5
1E1F
  8
0
 62
     0
 10
-3.6486307540595311
 20
-44.620245896687159
 30
0.0
 11
-11.75481660279836
 21
-36.514060047948341
 31
0.0
  0
LINE
  5
1E20
  8
0
 62
     0
 10
-4.471619399216852
 20
-44.919789266663493
 30
0.0
 11
-11.062856813061829
 21
-38.328551852818507
 31
0.0
  0
LINE
  5
1E21
  8
0
 62
     0
 10
-5.2946080443741614
 20
-45.21933263663982
 30
0.0
 11
-10.556473402148709
 21
-39.95746727886528
 31
0.0
  0
LINE
  5
1E22
  8
0
 62
     0
 10
-6.1175966895314744
 20
-45.518876006616154
 30
0.0
 11
-10.18151807282791
 21
-41.454954623319722
 31
0.0
  0
LINE
  5
1E23
  8
0
 62
     0
 10
-6.9405853346887874
 20
-45.81841937659248
 30
0.0
 11
-9.9067730325583163
 21
-42.852231678722951
 31
0.0
  0
LINE
  5
1E24
  8
0
 62
     0
 10
-7.7635739798460959
 20
-46.117962746568821
 30
0.0
 11
-9.712269171430556
 21
-44.169267554984359
 31
0.0
  0
LINE
  5
1E25
  8
0
 62
     0
 10
-8.5865626250034133
 20
-46.417506116545148
 30
0.0
 11
-9.5843051077016383
 21
-45.419763633846927
 31
0.0
  0
LINE
  5
1E26
  8
0
 62
     0
 10
-9.4095512701607227
 20
-46.717049486521482
 30
0.0
 11
-9.512991858373077
 21
-46.613608898309131
 31
0.0
  0
LINE
  5
1E27
  8
0
 62
     0
 10
0.7648945223021073
 20
-43.01385406791001
 30
0.0
 11
1.3904008449949821
 21
-42.388347745217132
 31
0.0
  0
LINE
  5
1E28
  8
0
 62
     0
 10
-1.000010322738532
 20
-43.656226897817007
 30
0.0
 11
0.9133141606047914
 21
-41.742902414473683
 31
0.0
  0
LINE
  5
1E29
  8
0
 62
     0
 10
-2.7649151677791819
 20
-44.298599727724003
 30
0.0
 11
0.4522245495889408
 21
-41.081460010355883
 31
0.0
  0
LINE
  5
1E2A
  8
0
 62
     0
 10
-4.5298200128198216
 20
-44.940972557631
 30
0.0
 11
0.0073722592283296
 21
-40.403780285582847
 31
0.0
  0
LINE
  5
1E2B
  8
0
 62
     0
 10
-6.2947248578604693
 20
-45.583345387538003
 30
0.0
 11
-0.4209574344446985
 21
-39.709577964122232
 31
0.0
  0
LINE
  5
1E2C
  8
0
 62
     0
 10
-8.059629702901109
 20
-46.225718217444999
 30
0.0
 11
-0.8324305262410761
 21
-38.99851904078497
 31
0.0
  0
LINE
  5
1E2D
  8
0
 62
     0
 10
-9.5151865987811135
 20
-46.558743098191357
 30
0.0
 11
-1.2266597721084189
 21
-38.27021627151867
 31
0.0
  0
LINE
  5
1E2E
  8
0
 62
     0
 10
-9.5780340611998689
 20
-45.499058545476473
 30
0.0
 11
-1.6031992183956729
 21
-37.52422370267228
 31
0.0
  0
LINE
  5
1E2F
  8
0
 62
     0
 10
-9.6759766956827917
 20
-44.474469164825749
 30
0.0
 11
-1.9615375750808819
 21
-36.760030044223853
 31
0.0
  0
LINE
  5
1E30
  8
0
 62
     0
 10
-9.8060521041802815
 20
-43.482012558189588
 30
0.0
 11
-2.3010901813079871
 21
-35.977050635317312
 31
0.0
  0
LINE
  5
1E31
  8
0
 62
     0
 10
-9.9657961757830051
 20
-42.519224614658683
 30
0.0
 11
-2.6211892364153999
 21
-35.174617675291081
 31
0.0
  0
LINE
  5
1E32
  8
0
 62
     0
 10
-10.15313627365221
 20
-41.584032697394242
 30
0.0
 11
-2.921071868533955
 21
-34.351968292275977
 31
0.0
  0
LINE
  5
1E33
  8
0
 62
     0
 10
-10.366312594428701
 20
-40.674677003037083
 30
0.0
 11
-3.199865474910788
 21
-33.508229883519178
 31
0.0
  0
LINE
  5
1E34
  8
0
 62
     0
 10
-10.603819125323421
 20
-39.789651518798173
 30
0.0
 11
-3.456569577182643
 21
-32.642401970657389
 31
0.0
  0
LINE
  5
1E35
  8
0
 62
     0
 10
-10.864358553877469
 20
-38.927658932218577
 30
0.0
 11
-3.6900331663087669
 21
-31.75333354464987
 31
0.0
  0
LINE
  5
1E36
  8
0
 62
     0
 10
-11.14680731705082
 20
-38.087575680258269
 30
0.0
 11
-3.898926127769065
 21
-30.83969449097652
 31
0.0
  0
LINE
  5
1E37
  8
0
 62
     0
 10
-11.45018815449146
 20
-37.268424502565267
 30
0.0
 11
-4.0817027778367416
 21
-29.899939125910549
 31
0.0
  0
LINE
  5
1E38
  8
0
 62
     0
 10
-11.77364830801797
 20
-36.469352640958149
 30
0.0
 11
-4.2365547089198472
 21
-28.932259041860021
 31
0.0
  0
LINE
  5
1E39
  8
0
 62
     0
 10
-12.116442033661761
 20
-35.689614351468293
 30
0.0
 11
-4.3613488742719211
 21
-27.934521192078449
 31
0.0
  0
LINE
  5
1E3A
  8
0
 62
     0
 10
-12.47791645356193
 20
-34.928556756234812
 30
0.0
 11
-5.6950402654182737
 21
-28.145680568091159
 31
0.0
  0
LINE
  5
1E3B
  8
0
 62
     0
 10
-12.85750002808957
 20
-34.185608315628812
 30
0.0
 11
-7.459945110458917
 21
-28.788053397998159
 31
0.0
  0
LINE
  5
1E3C
  8
0
 62
     0
 10
-13.25469310903693
 20
-33.460269381442522
 30
0.0
 11
-9.2248499554995593
 21
-29.430426227905151
 31
0.0
  0
LINE
  5
1E3D
  8
0
 62
     0
 10
-13.669060165397569
 20
-32.752104422669518
 30
0.0
 11
-10.989754800540201
 21
-30.072799057812141
 31
0.0
  0
LINE
  5
1E3E
  8
0
 62
     0
 10
-14.100223369300521
 20
-32.06073561143883
 30
0.0
 11
-12.754659645580841
 21
-30.715171887719141
 31
0.0
  0
LINE
  5
1E3F
  8
0
 62
     0
 10
-14.54785730122456
 20
-31.385837528229221
 30
0.0
 11
-14.51956449062148
 21
-31.357544717626141
 31
0.0
  0
ENDBLK
  5
1E41
  8
0
  0
BLOCK
  8
0
  2
*X40
 70
     1
 10
0.0
 20
0.0
 30
0.0
  3
*X40
  1

  0
LINE
  5
1E43
  8
0
 62
     0
 10
6.7468698790702524
 20
-39.182233905902031
 30
0.0
 11
7.06989617711855
 21
-38.622735945501482
 31
0.0
  0
LINE
  5
1E44
  8
0
 62
     0
 10
5.5901475394344038
 20
-41.185735768401251
 30
0.0
 11
5.9531198790702522
 21
-40.55704923440981
 31
0.0
  0
LINE
  5
1E45
  8
0
 62
     0
 10
6.7468701635663439
 20
-36.432603413140342
 30
0.0
 11
7.1437451635663454
 21
-35.745195748886452
 31
0.0
  0
LINE
  5
1E46
  8
0
 62
     0
 10
5.5562451635663441
 20
-38.494826405902032
 30
0.0
 11
5.9531201635663438
 21
-37.807418741648142
 31
0.0
  0
LINE
  5
1E47
  8
0
 62
     0
 10
4.3656201635663434
 20
-40.557049398663722
 30
0.0
 11
4.7624951635663431
 21
-39.869641734409832
 31
0.0
  0
LINE
  5
1E48
  8
0
 62
     0
 10
6.7468704480624471
 20
-33.682972920378653
 30
0.0
 11
6.9155399127595967
 21
-33.390828837837738
 31
0.0
  0
LINE
  5
1E49
  8
0
 62
     0
 10
5.5562454480624472
 20
-35.745195913140343
 30
0.0
 11
5.9531204480624469
 21
-35.057788248886439
 31
0.0
  0
LINE
  5
1E4A
  8
0
 62
     0
 10
4.3656204480624456
 20
-37.807418905902033
 30
0.0
 11
4.7624954480624471
 21
-37.120011241648129
 31
0.0
  0
LINE
  5
1E4B
  8
0
 62
     0
 10
3.1749954480624458
 20
-39.869641898663723
 30
0.0
 11
3.5718704480624459
 21
-39.182234234409819
 31
0.0
  0
LINE
  5
1E4C
  8
0
 62
     0
 10
2.3777514566551079
 20
-41.250508997810222
 30
0.0
 11
2.3812454480624461
 21
-41.244457227171502
 31
0.0
  0
LINE
  5
1E4D
  8
0
 62
     0
 10
5.5562457325585406
 20
-32.995565420378647
 30
0.0
 11
5.953120732558542
 21
-32.30815775612475
 31
0.0
  0
LINE
  5
1E4E
  8
0
 62
     0
 10
4.3656207325585408
 20
-35.057788413140337
 30
0.0
 11
4.7624957325585413
 21
-34.37038074888644
 31
0.0
  0
LINE
  5
1E4F
  8
0
 62
     0
 10
3.174995732558541
 20
-37.120011405902027
 30
0.0
 11
3.571870732558541
 21
-36.43260374164813
 31
0.0
  0
LINE
  5
1E50
  8
0
 62
     0
 10
1.9843707325585409
 20
-39.182234398663716
 30
0.0
 11
2.3812457325585412
 21
-38.49482673440982
 31
0.0
  0
LINE
  5
1E51
  8
0
 62
     0
 10
5.5562460170546411
 20
-30.245934927616961
 30
0.0
 11
5.7235004672856693
 21
-29.95624172202481
 31
0.0
  0
LINE
  5
1E52
  8
0
 62
     0
 10
4.3656210170546412
 20
-32.308157920378648
 30
0.0
 11
4.76249601705464
 21
-31.620750256124751
 31
0.0
  0
LINE
  5
1E53
  8
0
 62
     0
 10
3.1749960170546401
 20
-34.370380913140337
 30
0.0
 11
3.5718710170546402
 21
-33.682973248886441
 31
0.0
  0
LINE
  5
1E54
  8
0
 62
     0
 10
1.98437101705464
 20
-36.432603905902027
 30
0.0
 11
2.3812460170546399
 21
-35.745196241648131
 31
0.0
  0
LINE
  5
1E55
  8
0
 62
     0
 10
0.7937460170546402
 20
-38.494826898663717
 30
0.0
 11
1.1906210170546401
 21
-37.807419234409821
 31
0.0
  0
LINE
  5
1E56
  8
0
 62
     0
 10
4.3656213015507399
 20
-29.558527427616941
 30
0.0
 11
4.7624963015507404
 21
-28.871119763363051
 31
0.0
  0
LINE
  5
1E57
  8
0
 62
     0
 10
3.1749963015507401
 20
-31.620750420378641
 30
0.0
 11
3.5718713015507402
 21
-30.933342756124741
 31
0.0
  0
LINE
  5
1E58
  8
0
 62
     0
 10
1.9843713015507389
 20
-33.682973413140331
 30
0.0
 11
2.381246301550739
 21
-32.995565748886442
 31
0.0
  0
LINE
  5
1E59
  8
0
 62
     0
 10
0.7937463015507394
 20
-35.745196405902021
 30
0.0
 11
1.190621301550739
 21
-35.057788741648132
 31
0.0
  0
LINE
  5
1E5A
  8
0
 62
     0
 10
-0.396878698449261
 20
-37.807419398663711
 30
0.0
 11
-0.0000036984492609
 21
-37.120011734409808
 31
0.0
  0
LINE
  5
1E5B
  8
0
 62
     0
 10
3.1749965860468361
 20
-28.871119927616949
 30
0.0
 11
3.5718715860468362
 21
-28.183712263363049
 31
0.0
  0
LINE
  5
1E5C
  8
0
 62
     0
 10
1.9843715860468349
 20
-30.933342920378639
 30
0.0
 11
2.381246586046835
 21
-30.245935256124739
 31
0.0
  0
LINE
  5
1E5D
  8
0
 62
     0
 10
0.7937465860468356
 20
-32.995565913140332
 30
0.0
 11
1.190621586046835
 21
-32.308158248886443
 31
0.0
  0
LINE
  5
1E5E
  8
0
 62
     0
 10
-0.3968784139531647
 20
-35.057788905902022
 30
0.0
 11
-0.0000034139531646
 21
-34.370381241648133
 31
0.0
  0
LINE
  5
1E5F
  8
0
 62
     0
 10
-1.5415239919373811
 20
-37.040373203629727
 30
0.0
 11
-1.190628413953164
 21
-36.432604234409808
 31
0.0
  0
LINE
  5
1E60
  8
0
 62
     0
 10
1.984371870542933
 20
-28.18371242761695
 30
0.0
 11
2.3812468705429319
 21
-27.49630476336305
 31
0.0
  0
LINE
  5
1E61
  8
0
 62
     0
 10
0.7937468705429327
 20
-30.24593542037864
 30
0.0
 11
1.1906218705429319
 21
-29.558527756124739
 31
0.0
  0
LINE
  5
1E62
  8
0
 62
     0
 10
-0.3968781294570676
 20
-32.308158413140333
 30
0.0
 11
-0.0000031294570675
 21
-31.62075074888644
 31
0.0
  0
LINE
  5
1E63
  8
0
 62
     0
 10
-1.587503129457067
 20
-34.370381405902023
 30
0.0
 11
-1.1906281294570671
 21
-33.682973741648127
 31
0.0
  0
LINE
  5
1E64
  8
0
 62
     0
 10
1.9843721550390301
 20
-25.434081934855239
 30
0.0
 11
2.0453911520877139
 21
-25.328393931740031
 31
0.0
  0
LINE
  5
1E65
  8
0
 62
     0
 10
0.7937471550390299
 20
-27.49630492761694
 30
0.0
 11
1.190622155039029
 21
-26.80889726336304
 31
0.0
  0
LINE
  5
1E66
  8
0
 62
     0
 10
-0.3968778449609704
 20
-29.55852792037863
 30
0.0
 11
-0.0000028449609704
 21
-28.87112025612474
 31
0.0
  0
LINE
  5
1E67
  8
0
 62
     0
 10
-1.58750284496097
 20
-31.62075091314032
 30
0.0
 11
-1.19062784496097
 21
-30.93334324888643
 31
0.0
  0
LINE
  5
1E68
  8
0
 62
     0
 10
-2.7781278449609701
 20
-33.682973905902017
 30
0.0
 11
-2.38125284496097
 21
-32.99556624164812
 31
0.0
  0
LINE
  5
1E69
  8
0
 62
     0
 10
-0.3968775604648762
 20
-26.808897427616941
 30
0.0
 11
-0.0000025604648761
 21
-26.121489763363051
 31
0.0
  0
LINE
  5
1E6A
  8
0
 62
     0
 10
-1.587502560464876
 20
-28.871120420378642
 30
0.0
 11
-1.1906275604648759
 21
-28.183712756124741
 31
0.0
  0
LINE
  5
1E6B
  8
0
 62
     0
 10
-2.7781275604648759
 20
-30.933343413140332
 30
0.0
 11
-2.3812525604648762
 21
-30.245935748886438
 31
0.0
  0
LINE
  5
1E6C
  8
0
 62
     0
 10
-2.7781272759687798
 20
-28.183712920378639
 30
0.0
 11
-2.3812522759687802
 21
-27.496305256124739
 31
0.0
  0
LINE
  5
1E6D
  8
0
 62
     0
 10
-3.5885307738060792
 20
-29.587372953264381
 30
0.0
 11
-3.57187727596878
 21
-29.558528248886439
 31
0.0
  0
LINE
  5
1E6E
  8
0
 62
     0
 10
2.3812522759687731
 20
-26.121489927616949
 30
0.0
 11
1.984377275968773
 21
-25.434082263363059
 31
0.0
  0
LINE
  5
1E6F
  8
0
 62
     0
 10
3.571877275968772
 20
-28.18371292037865
 30
0.0
 11
3.1750022759687719
 21
-27.496305256124749
 31
0.0
  0
LINE
  5
1E70
  8
0
 62
     0
 10
4.7625022759687701
 20
-30.24593591314034
 30
0.0
 11
4.3656272759687713
 21
-29.55852824888645
 31
0.0
  0
LINE
  5
1E71
  8
0
 62
     0
 10
5.953127275968769
 20
-32.30815890590204
 30
0.0
 11
5.5562522759687702
 21
-31.62075124164814
 31
0.0
  0
LINE
  5
1E72
  8
0
 62
     0
 10
7.0942228036509816
 20
-34.284594336137239
 30
0.0
 11
6.7468772759687692
 21
-33.682974234409834
 31
0.0
  0
LINE
  5
1E73
  8
0
 62
     0
 10
1.1906275604648691
 20
-26.808897427616952
 30
0.0
 11
0.7937525604648693
 21
-26.121489763363051
 31
0.0
  0
LINE
  5
1E74
  8
0
 62
     0
 10
2.3812525604648682
 20
-28.871120420378649
 30
0.0
 11
1.9843775604648679
 21
-28.183712756124748
 31
0.0
  0
LINE
  5
1E75
  8
0
 62
     0
 10
3.5718775604648672
 20
-30.933343413140339
 30
0.0
 11
3.1750025604648671
 21
-30.245935748886438
 31
0.0
  0
LINE
  5
1E76
  8
0
 62
     0
 10
4.7625025604648661
 20
-32.995566405902032
 30
0.0
 11
4.3656275604648664
 21
-32.308158741648143
 31
0.0
  0
LINE
  5
1E77
  8
0
 62
     0
 10
5.953127560464865
 20
-35.057789398663729
 30
0.0
 11
5.5562525604648654
 21
-34.370381734409833
 31
0.0
  0
LINE
  5
1E78
  8
0
 62
     0
 10
7.1437525604648631
 20
-37.120012391425412
 30
0.0
 11
6.7468775604648643
 21
-36.432604727171523
 31
0.0
  0
LINE
  5
1E79
  8
0
 62
     0
 10
0.0000028449609667
 20
-27.496304927616961
 30
0.0
 11
-0.3968721550390331
 21
-26.808897263363061
 31
0.0
  0
LINE
  5
1E7A
  8
0
 62
     0
 10
1.1906278449609651
 20
-29.558527920378651
 30
0.0
 11
0.7937528449609662
 21
-28.871120256124762
 31
0.0
  0
LINE
  5
1E7B
  8
0
 62
     0
 10
2.3812528449609651
 20
-31.620750913140348
 30
0.0
 11
1.984377844960965
 21
-30.933343248886452
 31
0.0
  0
LINE
  5
1E7C
  8
0
 62
     0
 10
3.5718778449609641
 20
-33.682973905902038
 30
0.0
 11
3.175002844960964
 21
-32.995566241648142
 31
0.0
  0
LINE
  5
1E7D
  8
0
 62
     0
 10
4.7625028449609621
 20
-35.745196898663728
 30
0.0
 11
4.3656278449609633
 21
-35.057789234409832
 31
0.0
  0
LINE
  5
1E7E
  8
0
 62
     0
 10
5.953127844960961
 20
-37.807419891425418
 30
0.0
 11
5.5562528449609623
 21
-37.120012227171522
 31
0.0
  0
LINE
  5
1E7F
  8
0
 62
     0
 10
6.8517434823941867
 20
-39.363867831935657
 30
0.0
 11
6.7468778449609612
 21
-39.182235219933212
 31
0.0
  0
LINE
  5
1E80
  8
0
 62
     0
 10
-1.190621870542935
 20
-28.183712427616971
 30
0.0
 11
-1.5874968705429351
 21
-27.496304763363071
 31
0.0
  0
LINE
  5
1E81
  8
0
 62
     0
 10
0.0000031294570636
 20
-30.245935420378661
 30
0.0
 11
-0.3968718705429362
 21
-29.558527756124771
 31
0.0
  0
LINE
  5
1E82
  8
0
 62
     0
 10
1.190628129457062
 20
-32.308158413140347
 30
0.0
 11
0.7937531294570631
 21
-31.620750748886461
 31
0.0
  0
LINE
  5
1E83
  8
0
 62
     0
 10
2.381253129457062
 20
-34.370381405902052
 30
0.0
 11
1.9843781294570619
 21
-33.682973741648148
 31
0.0
  0
LINE
  5
1E84
  8
0
 62
     0
 10
3.5718781294570601
 20
-36.432604398663742
 30
0.0
 11
3.1750031294570609
 21
-35.745196734409838
 31
0.0
  0
LINE
  5
1E85
  8
0
 62
     0
 10
4.762503129457059
 20
-38.494827391425432
 30
0.0
 11
4.3656281294570602
 21
-37.807419727171528
 31
0.0
  0
LINE
  5
1E86
  8
0
 62
     0
 10
5.9531281294570579
 20
-40.557050384187107
 30
0.0
 11
5.5562531294570592
 21
-39.869642719933218
 31
0.0
  0
LINE
  5
1E87
  8
0
 62
     0
 10
-2.3812465860468381
 20
-28.87111992761697
 30
0.0
 11
-2.7781215860468378
 21
-28.18371226336307
 31
0.0
  0
LINE
  5
1E88
  8
0
 62
     0
 10
-1.190621586046839
 20
-30.93334292037866
 30
0.0
 11
-1.5874965860468391
 21
-30.24593525612476
 31
0.0
  0
LINE
  5
1E89
  8
0
 62
     0
 10
0.0000034139531596
 20
-32.995565913140346
 30
0.0
 11
-0.3968715860468401
 21
-32.308158248886457
 31
0.0
  0
LINE
  5
1E8A
  8
0
 62
     0
 10
1.190628413953158
 20
-35.057788905902044
 30
0.0
 11
0.7937534139531591
 21
-34.370381241648147
 31
0.0
  0
LINE
  5
1E8B
  8
0
 62
     0
 10
2.381253413953158
 20
-37.120011898663741
 30
0.0
 11
1.9843784139531579
 21
-36.432604234409837
 31
0.0
  0
LINE
  5
1E8C
  8
0
 62
     0
 10
3.5718784139531561
 20
-39.182234891425431
 30
0.0
 11
3.1750034139531569
 21
-38.494827227171527
 31
0.0
  0
LINE
  5
1E8D
  8
0
 62
     0
 10
4.762503413953155
 20
-41.244457884187113
 30
0.0
 11
4.3656284139531563
 21
-40.55705021993321
 31
0.0
  0
LINE
  5
1E8E
  8
0
 62
     0
 10
-3.571871301550738
 20
-29.558527427616969
 30
0.0
 11
-3.5886461365494582
 21
-29.529472561110602
 31
0.0
  0
LINE
  5
1E8F
  8
0
 62
     0
 10
-2.381246301550739
 20
-31.620750420378659
 30
0.0
 11
-2.7781213015507391
 21
-30.933342756124759
 31
0.0
  0
LINE
  5
1E90
  8
0
 62
     0
 10
-1.1906213015507401
 20
-33.682973413140353
 30
0.0
 11
-1.58749630155074
 21
-32.995565748886463
 31
0.0
  0
LINE
  5
1E91
  8
0
 62
     0
 10
0.0000036984492583
 20
-35.745196405902043
 30
0.0
 11
-0.3968713015507415
 21
-35.057788741648153
 31
0.0
  0
LINE
  5
1E92
  8
0
 62
     0
 10
1.1906286984492569
 20
-37.807419398663733
 30
0.0
 11
0.7937536984492578
 21
-37.120011734409843
 31
0.0
  0
LINE
  5
1E93
  8
0
 62
     0
 10
2.3812536984492558
 20
-39.869642391425423
 30
0.0
 11
1.9843786984492571
 21
-39.182234727171533
 31
0.0
  0
LINE
  5
1E94
  8
0
 62
     0
 10
3.3886817417156632
 20
-41.614558947332533
 30
0.0
 11
3.175003698449256
 21
-41.244457719933209
 31
0.0
  0
LINE
  5
1E95
  8
0
 62
     0
 10
-2.3812460170546448
 20
-34.370380913140352
 30
0.0
 11
-2.7781210170546449
 21
-33.682973248886448
 31
0.0
  0
LINE
  5
1E96
  8
0
 62
     0
 10
-1.1906210170546461
 20
-36.432603905902027
 30
0.0
 11
-1.5874960170546459
 21
-35.745196241648138
 31
0.0
  0
LINE
  5
1E97
  8
0
 62
     0
 10
0.0000039829453526
 20
-38.494826898663717
 30
0.0
 11
-0.3968710170546471
 21
-37.807419234409828
 31
0.0
  0
LINE
  5
1E98
  8
0
 62
     0
 10
1.0893913747294619
 20
-40.381701210358742
 30
0.0
 11
0.7937539829453522
 21
-39.869642227171518
 31
0.0
  0
LINE
  5
1E99
  8
0
 62
     0
 10
4.7624999999999993
 20
-41.244450000000001
 30
0.0
 11
5.5069682473226118
 21
-41.244450000000001
 31
0.0
  0
LINE
  5
1E9A
  8
0
 62
     0
 10
2.3812499999999992
 20
-41.244450000000001
 30
0.0
 11
3.1749999999999989
 21
-41.244450000000001
 31
0.0
  0
LINE
  5
1E9B
  8
0
 62
     0
 10
4.7624999999999993
 20
-39.869635000000002
 30
0.0
 11
5.5562499999999986
 21
-39.869635000000002
 31
0.0
  0
LINE
  5
1E9C
  8
0
 62
     0
 10
2.3812499999999992
 20
-39.869635000000002
 30
0.0
 11
3.1749999999999989
 21
-39.869635000000002
 31
0.0
  0
LINE
  5
1E9D
  8
0
 62
     0
 10
0.5364328038497767
 20
-39.869635000000002
 30
0.0
 11
0.79375
 21
-39.869635000000002
 31
0.0
  0
LINE
  5
1E9E
  8
0
 62
     0
 10
4.7624999999999993
 20
-38.494819999999997
 30
0.0
 11
5.5562499999999986
 21
-38.494819999999997
 31
0.0
  0
LINE
  5
1E9F
  8
0
 62
     0
 10
2.3812500000000001
 20
-38.494819999999997
 30
0.0
 11
3.1749999999999989
 21
-38.494819999999997
 31
0.0
  0
LINE
  5
1EA0
  8
0
 62
     0
 10
0.0000000000000002
 20
-38.494819999999997
 30
0.0
 11
0.7937500000000002
 21
-38.494819999999997
 31
0.0
  0
LINE
  5
1EA1
  8
0
 62
     0
 10
7.143749999999998
 20
-37.120004999999999
 30
0.0
 11
7.276027977399476
 21
-37.120004999999999
 31
0.0
  0
LINE
  5
1EA2
  8
0
 62
     0
 10
4.7624999999999993
 20
-37.120004999999999
 30
0.0
 11
5.5562499999999986
 21
-37.120004999999999
 31
0.0
  0
LINE
  5
1EA3
  8
0
 62
     0
 10
2.3812500000000001
 20
-37.120004999999999
 30
0.0
 11
3.1749999999999989
 21
-37.120004999999999
 31
0.0
  0
LINE
  5
1EA4
  8
0
 62
     0
 10
0.0000000000000002
 20
-37.120004999999999
 30
0.0
 11
0.7937500000000002
 21
-37.120004999999999
 31
0.0
  0
LINE
  5
1EA5
  8
0
 62
     0
 10
7.143749999999998
 20
-35.745190000000001
 30
0.0
 11
7.2664097304322048
 21
-35.745190000000001
 31
0.0
  0
LINE
  5
1EA6
  8
0
 62
     0
 10
4.7624999999999993
 20
-35.745190000000001
 30
0.0
 11
5.5562499999999986
 21
-35.745190000000001
 31
0.0
  0
LINE
  5
1EA7
  8
0
 62
     0
 10
2.3812500000000001
 20
-35.745190000000001
 30
0.0
 11
3.1749999999999989
 21
-35.745190000000001
 31
0.0
  0
LINE
  5
1EA8
  8
0
 62
     0
 10
0.0000000000000002
 20
-35.745190000000001
 30
0.0
 11
0.7937500000000002
 21
-35.745190000000001
 31
0.0
  0
LINE
  5
1EA9
  8
0
 62
     0
 10
-2.185364707918966
 20
-35.745190000000001
 30
0.0
 11
-1.587499999999999
 21
-35.745190000000001
 31
0.0
  0
LINE
  5
1EAA
  8
0
 62
     0
 10
4.7624999999999993
 20
-34.370375000000003
 30
0.0
 11
5.5562499999999986
 21
-34.370375000000003
 31
0.0
  0
LINE
  5
1EAB
  8
0
 62
     0
 10
2.3812500000000001
 20
-34.370375000000003
 30
0.0
 11
3.1749999999999989
 21
-34.370375000000003
 31
0.0
  0
LINE
  5
1EAC
  8
0
 62
     0
 10
0.0000000000000002
 20
-34.370375000000003
 30
0.0
 11
0.7937500000000002
 21
-34.370375000000003
 31
0.0
  0
LINE
  5
1EAD
  8
0
 62
     0
 10
-2.3812499999999992
 20
-34.370375000000003
 30
0.0
 11
-1.587499999999999
 21
-34.370375000000003
 31
0.0
  0
LINE
  5
1EAE
  8
0
 62
     0
 10
4.7624999999999993
 20
-32.995559999999998
 30
0.0
 11
5.5562499999999986
 21
-32.995559999999998
 31
0.0
  0
LINE
  5
1EAF
  8
0
 62
     0
 10
2.3812500000000001
 20
-32.995559999999998
 30
0.0
 11
3.1749999999999989
 21
-32.995559999999998
 31
0.0
  0
LINE
  5
1EB0
  8
0
 62
     0
 10
0.0000000000000002
 20
-32.995559999999998
 30
0.0
 11
0.7937500000000002
 21
-32.995559999999998
 31
0.0
  0
LINE
  5
1EB1
  8
0
 62
     0
 10
-2.3812499999999992
 20
-32.995559999999998
 30
0.0
 11
-1.587499999999999
 21
-32.995559999999998
 31
0.0
  0
LINE
  5
1EB2
  8
0
 62
     0
 10
4.7624999999999993
 20
-31.620744999999999
 30
0.0
 11
5.5562499999999986
 21
-31.620744999999999
 31
0.0
  0
LINE
  5
1EB3
  8
0
 62
     0
 10
2.3812500000000001
 20
-31.620744999999999
 30
0.0
 11
3.1749999999999989
 21
-31.620744999999999
 31
0.0
  0
LINE
  5
1EB4
  8
0
 62
     0
 10
0.0000000000000002
 20
-31.620744999999999
 30
0.0
 11
0.7937500000000002
 21
-31.620744999999999
 31
0.0
  0
LINE
  5
1EB5
  8
0
 62
     0
 10
-2.3812499999999992
 20
-31.620744999999999
 30
0.0
 11
-1.587499999999999
 21
-31.620744999999999
 31
0.0
  0
LINE
  5
1EB6
  8
0
 62
     0
 10
4.7624999999999993
 20
-30.245930000000001
 30
0.0
 11
5.5562499999999986
 21
-30.245930000000001
 31
0.0
  0
LINE
  5
1EB7
  8
0
 62
     0
 10
2.3812500000000001
 20
-30.245930000000001
 30
0.0
 11
3.1749999999999989
 21
-30.245930000000001
 31
0.0
  0
LINE
  5
1EB8
  8
0
 62
     0
 10
0.0000000000000002
 20
-30.245930000000001
 30
0.0
 11
0.7937500000000002
 21
-30.245930000000001
 31
0.0
  0
LINE
  5
1EB9
  8
0
 62
     0
 10
-2.3812499999999992
 20
-30.245930000000001
 30
0.0
 11
-1.587499999999999
 21
-30.245930000000001
 31
0.0
  0
LINE
  5
1EBA
  8
0
 62
     0
 10
4.7624999999999993
 20
-28.871114999999989
 30
0.0
 11
5.160240741216306
 21
-28.871114999999989
 31
0.0
  0
LINE
  5
1EBB
  8
0
 62
     0
 10
2.3812500000000001
 20
-28.871114999999989
 30
0.0
 11
3.1749999999999989
 21
-28.871114999999989
 31
0.0
  0
LINE
  5
1EBC
  8
0
 62
     0
 10
0.0000000000000002
 20
-28.871114999999989
 30
0.0
 11
0.7937500000000002
 21
-28.871114999999989
 31
0.0
  0
LINE
  5
1EBD
  8
0
 62
     0
 10
-2.3812499999999992
 20
-28.871114999999989
 30
0.0
 11
-1.587499999999999
 21
-28.871114999999989
 31
0.0
  0
LINE
  5
1EBE
  8
0
 62
     0
 10
2.3812500000000001
 20
-27.496300000000002
 30
0.0
 11
3.1749999999999989
 21
-27.496300000000002
 31
0.0
  0
LINE
  5
1EBF
  8
0
 62
     0
 10
0.0000000000000002
 20
-27.496300000000002
 30
0.0
 11
0.7937500000000002
 21
-27.496300000000002
 31
0.0
  0
LINE
  5
1EC0
  8
0
 62
     0
 10
-2.3812499999999992
 20
-27.496300000000002
 30
0.0
 11
-1.587499999999999
 21
-27.496300000000002
 31
0.0
  0
LINE
  5
1EC1
  8
0
 62
     0
 10
2.3812500000000001
 20
-26.121485
 30
0.0
 11
3.0955834446428891
 21
-26.121485
 31
0.0
  0
LINE
  5
1EC2
  8
0
 62
     0
 10
0.0000000000000002
 20
-26.121485
 30
0.0
 11
0.7937500000000002
 21
-26.121485
 31
0.0
  0
ENDBLK
  5
1EC4
  8
0
  0
BLOCK
  8
0
  2
*U41
 70
     1
 10
0.0
 20
0.0
 30
0.0
  3
*U41
  1

  0
TEXT
  5
1EC6
  8
SAPA_ARTIKELNR
 10
200.61685394407499
 20
-23.673525992017481
 30
0.0
 40
3.5
  1
00887
  7
ISO
  0
ENDBLK
  5
1EC8
  8
0
  0
BLOCK
  8
0
  2
*U42
 70
     1
 10
0.0
 20
0.0
 30
0.0
  3
*U42
  1

  0
TEXT
  5
1ECA
  8
0
 62
     2
 10
319.91241047885558
 20
-145.092452835302
 30
0.0
 40
3.0
  1
300
 50
290.0
  7
ISO
  0
ENDBLK
  5
1ECC
  8
0
  0
BLOCK
  8
0
  2
*U43
 70
     1
 10
0.0
 20
0.0
 30
0.0
  3
*U43
  1

  0
TEXT
  5
1ECE
  8
0
 62
     2
 10
277.05754940624519
 20
-81.196267055394827
 30
0.0
 40
3.0
  1
150
 50
290.00000000000011
  7
ISO
  0
ENDBLK
  5
1ED0
  8
0
  0
BLOCK
  8
0
  2
*U44
 70
     1
 10
0.0
 20
0.0
 30
0.0
  3
*U44
  1

  0
TEXT
  5
1FAF
  8
0
 62
     2
 10
538.15888178287003
 20
240.51041478304231
 30
0.0
 40
6.0
  1
50
  7
BYGG-01473602$0$ISO
  0
ENDBLK
  5
1FB1
  8
0
  0
BLOCK
  8
0
  2
*U45
 70
     1
 10
0.0
 20
0.0
 30
0.0
  3
*U45
  1

  0
TEXT
  5
1FB3
  8
0
 62
     2
 10
582.23843509911433
 20
195.6081336894147
 30
0.0
 40
6.0
  1
58
 50
90.0
  7
BYGG-01473602$0$ISO
  0
ENDBLK
  5
1FB5
  8
0
  0
BLOCK
  8
0
  2
*U46
 70
     1
 10
0.0
 20
0.0
 30
0.0
  3
*U46
  1

  0
TEXT
  5
200D
  8
0
 62
     2
 10
2.924893507843874
 20
11.80837843001756
 30
0.0
 40
3.0
  1
7
 50
90.0
  7
BYGG-014252$0$ISO
  0
ENDBLK
  5
200F
  8
0
  0
BLOCK
  8
0
  2
*U47
 70
     1
 10
0.0
 20
0.0
 30
0.0
  3
*U47
  1

  0
TEXT
  5
2011
  8
0
 62
     2
 10
29.55729736359487
 20
1.4710805811525349
 30
0.0
 40
3.0
  1
47.6
  7
BYGG-014252$0$ISO
  0
ENDBLK
  5
2013
  8
0
  0
BLOCK
  8
0
  2
*U48
 70
     1
 10
0.0
 20
0.0
 30
0.0
  3
*U48
  1

  0
TEXT
  5
207D
  8
0
 62
     2
 10
284.82100775789411
 20
-326.41284250989833
 30
0.0
 40
3.0
  1
60
  7
BYGG-014680$0$ISO
  0
ENDBLK
  5
207F
  8
0
  0
BLOCK
  8
0
  2
*U49
 70
     1
 10
0.0
 20
0.0
 30
0.0
  3
*U49
  1

  0
TEXT
  5
2081
  8
0
 62
     2
 10
327.91011454206352
 20
-292.96547784569952
 30
0.0
 40
3.0
  1
39
 50
90.0
  7
BYGG-014680$0$ISO
  0
ENDBLK
  5
2083
  8
0
  0
BLOCK
  8
0
  2
*U50
 70
     1
 10
0.0
 20
0.0
 30
0.0
  3
*U50
  1

  0
TEXT
  5
2094
  8
0
 62
     2
 10
639.58702159746713
 20
176.2962703174627
 30
0.0
 40
3.0
  1
30
 50
90.0
  7
BYGG-013690$0$ISO
  0
ENDBLK
  5
2096
  8
0
  0
BLOCK
  8
0
  2
*U51
 70
     1
 10
0.0
 20
0.0
 30
0.0
  3
*U51
  1

  0
TEXT
  5
2098
  8
0
 62
     2
 10
658.40267129095673
 20
202.3320694821046
 30
0.0
 40
3.0
  1
23
  7
BYGG-013690$0$ISO
  0
ENDBLK
  5
209A
  8
0
  0
BLOCK
  8
0
  2
*U52
 70
     1
 10
0.0
 20
0.0
 30
0.0
  3
*U52
  1

  0
TEXT
  5
209C
  8
0
 62
     2
 10
669.41458073977537
 20
117.9366029717615
 30
0.0
 40
3.0
  1
3
  7
BYGG-013690$0$ISO
  0
ENDBLK
  5
209E
  8
0
  0
BLOCK
  8
0
  2
*U53
 70
     1
 10
0.0
 20
0.0
 30
0.0
  3
*U53
  1

  0
TEXT
  5
2143
  8
0
 62
     2
 10
6.3810204525808309
 20
-29.818594711796639
 30
0.0
 40
6.0
  1
50
 50
19.999999999999531
  7
BYGG-01473602$0$ISO
  0
ENDBLK
  5
2145
  8
0
  0
BLOCK
  8
0
  2
*U54
 70
     1
 10
0.0
 20
0.0
 30
0.0
  3
*U54
  1

  0
TEXT
  5
2147
  8
0
 62
     2
 10
-41.131757060923647
 20
-3.58453309062459
 30
0.0
 40
6.0
  1
58
 50
289.99999999999949
  7
BYGG-01473602$0$ISO
  0
ENDBLK
  5
2149
  8
0
  0
BLOCK
  8
0
  2
*U55
 70
     1
 10
0.0
 20
0.0
 30
0.0
  3
*U55
  1

  0
TEXT
  5
214B
  8
0
 62
     2
 10
-34.165865061856657
 20
82.688117599102924
 30
0.0
 40
3.0
  1
47.6
 50
20.000000000000028
  7
BYGG-014252$0$ISO
  0
ENDBLK
  5
214D
  8
0
  0
BLOCK
  8
0
  2
*U56
 70
     1
 10
0.0
 20
0.0
 30
0.0
  3
*U56
  1

  0
TEXT
  5
214F
  8
0
 62
     2
 10
99.048919209082669
 20
-8.1297144688048188
 30
0.0
 40
3.0
  1
60
 50
200.0
  7
BYGG-014680$0$ISO
  0
ENDBLK
  5
2151
  8
0
  0
BLOCK
  8
0
  2
*U57
 70
     1
 10
0.0
 20
0.0
 30
0.0
  3
*U57
  1

  0
TEXT
  5
2153
  8
0
 62
     2
 10
45.123707936110847
 20
14.04446582835353
 30
0.0
 40
3.0
  1
39
 50
290.0
  7
BYGG-014680$0$ISO
  0
ENDBLK
  5
2155
  8
0
  0
BLOCK
  8
0
  2
*U58
 70
     1
 10
0.0
 20
0.0
 30
0.0
  3
*U58
  1

  0
TEXT
  5
243D
  8
0
 62
     2
 10
182.83578056165121
 20
-6.6767521961948209
 30
0.0
 40
3.0
  1
30
 50
289.99999999999949
  7
BYGG-013690$0$ISO
  0
ENDBLK
  5
243F
  8
0
  0
BLOCK
  8
0
  2
*U59
 70
     1
 10
0.0
 20
0.0
 30
0.0
  3
*U59
  1

  0
TEXT
  5
2441
  8
0
 62
     2
 10
191.16984725402119
 20
19.59125831971572
 30
0.0
 40
3.0
  1
23
 50
19.999999999999531
  7
BYGG-013690$0$ISO
  0
ENDBLK
  5
2443
  8
0
  0
BLOCK
  8
0
  2
*U60
 70
     1
 10
0.0
 20
0.0
 30
0.0
  3
*U60
  1

  0
TEXT
  5
2445
  8
0
 62
     2
 10
229.80250687242241
 20
-55.65833345089743
 30
0.0
 40
3.0
  1
3
  7
BYGG-013690$0$ISO
  0
ENDBLK
  5
2447
  8
0
  0
BLOCK
  8
0
  2
*U61
 70
     1
 10
0.0
 20
0.0
 30
0.0
  3
*U61
  1

  0
TEXT
  5
2449
  8
0
 62
     2
 10
2.2675513695410561
 20
82.819718569579834
 30
0.0
 40
3.0
  1
7
 50
290.00000000000011
  7
BYGG-014252$0$ISO
  0
ENDBLK
  5
244B
  8
0
  0
BLOCK
  8
0
  2
*U62
 70
     1
 10
0.0
 20
0.0
 30
0.0
  3
*U62
  1

  0
TEXT
  5
2565
  8
SAPA_MATT
 62
     2
 10
277.05754940624519
 20
-81.196267055394827
 30
0.0
 40
3.0
  1
150
 50
290.00000000000011
  7
ISO
  0
ENDBLK
  5
2567
  8
0
  0
BLOCK
  8
0
  2
*U63
 70
     1
 10
0.0
 20
0.0
 30
0.0
  3
*U63
  1

  0
TEXT
  5
2569
  8
SAPA_MATT
 62
     2
 10
319.91241047885558
 20
-145.092452835302
 30
0.0
 40
3.0
  1
300
 50
290.0
  7
ISO
  0
ENDBLK
  5
256B
  8
0
  0
ENDSEC
  0
SECTION
  2
ENTITIES
  0
INSERT
  5
6D0
  8
0
  2
*U36
 10
0.0
 20
0.0
 30
0.0
  0
INSERT
  5
6D1
  8
0
  2
*U37
 10
0.0
 20
0.0
 30
0.0
  0
POLYLINE
  5
6D2
  8
SAPA_LIGHT
 66
     1
 10
0.0
 20
0.0
 30
0.0
  0
VERTEX
  5
1DF4
  8
SAPA_LIGHT
 10
31.18792944229995
 20
-12.59302189818793
 30
0.0
  0
VERTEX
  5
1DF5
  8
SAPA_LIGHT
 10
-15.796701596994501
 20
-29.694029064471032
 30
0.0
  0
VERTEX
  5
1DF6
  8
SAPA_LIGHT
 10
-37.467258575932661
 20
29.845336902168459
 30
0.0
  0
VERTEX
  5
1DF7
  8
SAPA_LIGHT
 10
-18.673406160216089
 20
36.685739768681152
 30
0.0
  0
VERTEX
  5
1DF8
  8
SAPA_LIGHT
 10
-27.223909743358028
 20
60.178055288331549
 30
0.0
  0
VERTEX
  5
1DF9
  8
SAPA_LIGHT
 10
-43.102532336985327
 20
54.398709303104347
 30
0.0
  0
VERTEX
  5
1DFA
  8
SAPA_LIGHT
 10
-47.767526394122058
 20
67.215675136977524
 30
0.0
  0
VERTEX
  5
1DFB
  8
SAPA_LIGHT
 10
-6.6133549990081981
 20
82.194568540688564
 30
0.0
  0
VERTEX
  5
1DFC
  8
SAPA_LIGHT
 10
-2.5503163941237541
 20
71.031461719396447
 30
0.0
  0
VERTEX
  5
1DFD
  8
SAPA_LIGHT
 10
-18.428938987751341
 20
65.252115734169195
 30
0.0
  0
VERTEX
  5
1DFE
  8
SAPA_LIGHT
 10
-7.4430912863060898
 20
35.068747240880732
 30
0.0
  0
VERTEX
  5
1DFF
  8
SAPA_LIGHT
 10
11.35076112941246
 20
41.909150107394161
 30
0.0
  0
VERTEX
  5
1E00
  8
SAPA_LIGHT
 10
31.18792944229995
 20
-12.59302189818793
 30
0.0
  0
SEQEND
  5
1E01
  8
SAPA_LIGHT
  0
POLYLINE
  5
6D4
  8
SAPA_LIGHT
 66
     1
 10
0.0
 20
0.0
 30
0.0
  0
VERTEX
  5
1E02
  8
SAPA_LIGHT
 10
-61.052844091650222
 20
47.865330128607603
 30
0.0
  0
VERTEX
  5
1E03
  8
SAPA_LIGHT
 10
-32.862065468072963
 20
58.125934428377668
 30
0.0
  0
VERTEX
  5
1E04
  8
SAPA_LIGHT
 10
-24.311561884930509
 20
34.633618908727541
 30
0.0
  0
VERTEX
  5
1E05
  8
SAPA_LIGHT
 10
-52.502340508507672
 20
24.373014608957789
 30
0.0
  0
SEQEND
  5
1E06
  8
SAPA_LIGHT
  0
INSERT
  5
86A
  8
0
  2
*U38
 10
0.0
 20
0.0
 30
0.0
  0
LINE
  5
1560
  8
SAPA_ANSLUTNING
 10
222.9768886908918
 20
-294.28235343315708
 30
0.0
 11
229.86802236171161
 21
-313.21558758817781
 31
0.0
  0
ARC
  5
1563
  8
SAPA_ANSLUTNING
 10
282.11903236707292
 20
-314.09285224470563
 30
0.0
 40
56.915382799938257
 50
234.97386211036959
 51
285.8870567404573
  0
SOLID
  5
1583
  8
SAPA_ANSLUTNING
 10
250.2488527343844
 20
-359.95819339522592
 30
0.0
 11
248.7573097058854
 21
-361.2905970105528
 31
0.0
 12
245.5058703741546
 22
-356.14976611739218
 32
0.0
 13
245.5058703741546
 23
-356.14976611739218
 33
0.0
  0
SOLID
  5
15A1
  8
SAPA_ANSLUTNING
 10
223.75601980191891
 20
-293.99877290015252
 30
0.0
 11
221.8766345603471
 21
-294.68281318680391
 31
0.0
 12
220.76420632117899
 22
-288.70263731876292
 32
0.0
 13
220.76420632117899
 23
-288.70263731876292
 33
0.0
  0
ARC
  5
15A4
  8
SAPA_ANSLUTNING
 10
160.20555039260961
 20
-62.876601396576291
 30
0.0
 40
22.120220664451239
 50
104.7517027566152
 51
183.12127714115431
  0
ARC
  5
15A5
  8
SAPA_ANSLUTNING
 10
172.51872824388519
 20
-57.386132324177481
 30
0.0
 40
18.974692890818861
 50
44.320506184321047
 51
95.896459215148013
  0
SOLID
  5
15AA
  8
SAPA_ANSLUTNING
 10
185.37667212069741
 20
-44.825757831859903
 30
0.0
 11
186.81139633281609
 21
-43.432356800153478
 31
0.0
 12
190.2742373218762
 22
-48.43322995236263
 32
0.0
 13
190.2742373218762
 23
-48.43322995236263
 33
0.0
  0
LINE
  5
15AB
  8
SAPA_ANSLUTNING
 10
178.8753064921228
 20
21.571056078110651
 30
0.0
 11
-9.5006833357648048
 21
-46.992197069673573
 31
0.0
  0
LINE
  5
15BF
  8
SAPA_ANSLUTNING
 10
-3.1323527021744648
 20
40.767916720783838
 30
0.0
 11
-12.277753048048
 21
65.894697662944154
 31
0.0
  0
LINE
  5
15C1
  8
SAPA_ANSLUTNING
 10
194.26621294177789
 20
-20.715111857255181
 30
0.0
 11
123.7892663828347
 21
-46.366622606680487
 31
0.0
  0
LINE
  5
15C2
  8
SAPA_ANSLUTNING
 10
169.1121572502559
 20
-43.70475044223042
 30
0.0
 11
147.02938066178709
 21
-51.742223810383557
 31
0.0
  0
SOLID
  5
15C4
  8
SAPA_ANSLUTNING
 10
154.4888789937163
 20
-42.785954062043402
 30
0.0
 11
154.01548559391509
 21
-40.842786882147458
 31
0.0
 12
160.08168383350369
 22
-40.394190272692128
 32
0.0
 13
160.08168383350369
 23
-40.394190272692128
 33
0.0
  0
LINE
  5
15C5
  8
SAPA_ANSLUTNING
 10
62.999918552542802
 20
-2.158420736089226
 30
0.0
 11
68.928257169391372
 21
-18.446397220761749
 31
0.0
  0
LINE
  5
15C7
  8
SAPA_ANSLUTNING
 10
127.21365635076459
 20
2.767753173581752
 30
0.0
 11
121.285317733916
 21
19.055729658254329
 31
0.0
  0
LINE
  5
15C8
  8
SAPA_ANSLUTNING
 10
62.999918552542802
 20
-2.158420736089226
 30
0.0
 11
121.285317733916
 21
19.055729658254329
 31
0.0
  0
LINE
  5
15E8
  8
SAPA_ANSLUTNING
 10
271.8477519617436
 20
-330.35418368652779
 30
0.0
 11
298.14710937909058
 21
-320.78200040628531
 31
0.0
  0
LINE
  5
15EC
  8
SAPA_ANSLUTNING
 10
258.69895745761789
 20
-358.55186449698249
 30
0.0
 11
305.67155253225542
 21
-341.45523806357522
 31
0.0
  0
LINE
  5
15ED
  8
SAPA_ANSLUTNING
 10
270.41719826423849
 20
-322.03806310507099
 30
0.0
 11
269.00765933305979
 21
-322.55109332005941
 31
0.0
  0
LINE
  5
15EE
  8
SAPA_ANSLUTNING
 10
274.62364591950552
 20
-327.74757425370899
 30
0.0
 11
297.63407916410222
 21
-319.37246147510649
 31
0.0
  0
LINE
  5
15EF
  8
SAPA_ANSLUTNING
 10
276.29216898488551
 20
-325.01192597777231
 30
0.0
 11
296.95003887745088
 21
-317.49307623353468
 31
0.0
  0
LINE
  5
15F0
  8
SAPA_ANSLUTNING
 10
276.41999515195312
 20
-323.90122328532351
 30
0.0
 11
296.60801873412532
 21
-316.55338361274869
 31
0.0
  0
LINE
  5
15F3
  8
SAPA_ANSLUTNING
 10
289.03718679850931
 20
-323.3252248671746
 30
0.0
 11
279.63675494648407
 21
-326.73577922027101
 31
0.0
  0
LINE
  5
15F4
  8
SAPA_ANSLUTNING
 10
288.78139522202719
 20
-322.6201924782726
 30
0.0
 11
289.29297837499161
 21
-324.03025725607642
 31
0.0
  0
LINE
  5
15F6
  8
SAPA_ANSLUTNING
 10
279.38096337000161
 20
-326.03074683136919
 30
0.0
 11
279.8925465229662
 21
-327.44081160917278
 31
0.0
  0
ARC
  5
15F7
  8
SAPA_ANSLUTNING
 10
275.73595486530161
 20
-322.02183804375147
 30
0.0
 40
1.9999999999999989
 50
200.00000000000011
 51
289.99999999999648
  0
ARC
  5
15F8
  8
SAPA_ANSLUTNING
 10
275.43711862657142
 20
-322.66269442580762
 30
0.0
 40
2.4999999999999991
 50
200.00000000000011
 51
289.99999999999648
  0
ARC
  5
15F9
  8
SAPA_ANSLUTNING
 10
273.93960563285418
 20
-325.86818901213729
 30
0.0
 40
1.9999999999999989
 50
200.00000000000011
 51
289.99999999999648
  0
LINE
  5
1608
  8
SAPA_ANSLUTNING
 10
273.08788707460661
 20
-323.5177447841217
 30
0.0
 11
171.51086890600391
 21
-44.437181030352747
 31
0.0
  0
LINE
  5
160B
  8
SAPA_ANSLUTNING
 10
266.99699683098191
 20
-312.64113689721188
 30
0.0
 11
265.5874578998031
 21
-313.15416711220041
 31
0.0
  0
LINE
  5
1615
  8
SAPA_ANSLUTNING
 10
266.29222736539208
 20
-312.89765200470617
 30
0.0
 11
269.71242879864877
 21
-322.29457821256528
 31
0.0
  0
LINE
  5
1628
  8
SAPA_ANSLUTNING
 10
176.2594980263726
 20
-42.586063753739722
 30
0.0
 11
181.03240412466039
 21
-47.331924365364102
 31
0.0
  0
LINE
  5
1629
  8
SAPA_ANSLUTNING
 10
180.3273092782797
 20
-48.041037373006439
 30
0.0
 11
175.51879978782961
 21
-43.259775114454378
 31
0.0
  0
LINE
  5
162A
  8
SAPA_ANSLUTNING
 10
181.03240412466039
 20
-47.331924365364102
 30
0.0
 11
180.3273092782797
 21
-48.041037373006439
 31
0.0
  0
ARC
  5
162B
  8
SAPA_ANSLUTNING
 10
174.1747680244531
 20
-44.254487084391137
 30
0.0
 40
2.6701564731612879
 50
38.670520696053842
 51
183.9232818573665
  0
ARC
  5
162D
  8
SAPA_ANSLUTNING
 10
174.18976713664401
 20
-44.22621606020072
 30
0.0
 40
1.643269877266794
 50
36.023756828586983
 51
185.3018147971718
  0
LINE
  5
1632
  8
SAPA_ANSLUTNING
 10
194.26621294177789
 20
-20.715111857255181
 30
0.0
 11
178.8753064921228
 21
21.57105607811053
 31
0.0
  0
LINE
  5
1635
  8
SAPA_ANSLUTNING
 10
68.131212015484678
 20
64.456312206106531
 30
0.0
 11
-2.409402773411121
 21
38.781628116110213
 31
0.0
  0
LINE
  5
1636
  8
SAPA_ANSLUTNING
 10
68.125004212939231
 20
62.857786092045842
 30
0.0
 11
-1.8963725584225319
 21
37.372089184931397
 31
0.0
  0
LINE
  5
1637
  8
SAPA_ANSLUTNING
 10
68.125004212939231
 20
62.857786092045842
 30
0.0
 11
178.010282704644
 21
21.893529270817972
 31
0.0
  0
LINE
  5
1638
  8
SAPA_ANSLUTNING
 10
179.19105149964261
 20
20.703553799644109
 30
0.0
 11
194.26621294177809
 21
-20.715111857255451
 31
0.0
  0
LINE
  5
1639
  8
SAPA_ANSLUTNING
 10
180.3637816751814
 20
21.867210723482518
 30
0.0
 11
195.67575187295691
 21
-20.202081642266801
 31
0.0
  0
LINE
  5
163A
  8
SAPA_ANSLUTNING
 10
68.131212015484678
 20
64.456312206106531
 30
0.0
 11
179.1830128801831
 21
23.057186194656371
 31
0.0
  0
LINE
  5
163D
  8
SAPA_ANSLUTNING
 10
1.906304492822849
 20
40.35241710082591
 30
0.0
 11
2.4193347078114371
 21
38.942878169647052
 31
0.0
  0
LINE
  5
163E
  8
SAPA_ANSLUTNING
 10
-2.1528876659168841
 20
38.07685865052089
 30
0.0
 11
2.1628196003171989
 21
39.647647635236432
 31
0.0
  0
LINE
  5
163F
  8
SAPA_ANSLUTNING
 10
11.3596547215644
 20
43.793155198181417
 30
0.0
 11
11.872684936552879
 21
42.383616267002431
 31
0.0
  0
LINE
  5
1640
  8
SAPA_ANSLUTNING
 10
11.61616982905864
 20
43.088385732591981
 30
0.0
 11
19.728521361893151
 21
46.041040220447499
 31
0.0
  0
LINE
  5
1641
  8
SAPA_ANSLUTNING
 10
19.472006254398799
 20
46.745809686037049
 30
0.0
 11
19.985036469387278
 21
45.33627075485817
 31
0.0
  0
LINE
  5
1642
  8
SAPA_ANSLUTNING
 10
29.181871590634479
 20
49.481778317803062
 30
0.0
 11
37.294223123469003
 21
52.434432805658567
 31
0.0
  0
LINE
  5
1643
  8
SAPA_ANSLUTNING
 10
37.037708015974758
 20
53.139202271248116
 30
0.0
 11
37.550738230963233
 21
51.729663340069187
 31
0.0
  0
LINE
  5
1644
  8
SAPA_ANSLUTNING
 10
28.925356483140359
 20
50.186547783392548
 30
0.0
 11
29.438386698128841
 21
48.777008852213569
 31
0.0
  0
LINE
  5
1645
  8
SAPA_ANSLUTNING
 10
46.747573352210438
 20
55.875170903014187
 30
0.0
 11
54.859924885044947
 21
58.827825390869712
 31
0.0
  0
LINE
  5
1646
  8
SAPA_ANSLUTNING
 10
46.491058244716307
 20
56.57994036860363
 30
0.0
 11
47.004088459704782
 21
55.170401437424701
 31
0.0
  0
LINE
  5
1647
  8
SAPA_ANSLUTNING
 10
54.603409777550709
 20
59.532594856459198
 30
0.0
 11
55.116439992539192
 21
58.123055925280333
 31
0.0
  0
LINE
  5
1648
  8
SAPA_ANSLUTNING
 10
76.982954452950139
 20
61.15646116599595
 30
0.0
 11
76.458992118020305
 21
59.750949347626999
 31
0.0
  0
LINE
  5
1649
  8
SAPA_ANSLUTNING
 10
84.833189877177006
 20
58.229963054154553
 30
0.0
 11
84.309227542247186
 21
56.824451235785602
 31
0.0
  0
LINE
  5
164A
  8
SAPA_ANSLUTNING
 10
76.720973285485229
 20
60.453705256811467
 30
0.0
 11
84.571208709712096
 21
57.527207144970077
 31
0.0
  0
LINE
  5
164D
  8
SAPA_ANSLUTNING
 10
94.327652609665279
 20
53.890091426964602
 30
0.0
 11
102.1778880338924
 21
50.963593315123092
 31
0.0
  0
LINE
  5
164E
  8
SAPA_ANSLUTNING
 10
94.589633777130317
 20
54.59284733614907
 30
0.0
 11
94.065671442200255
 21
53.18733551778007
 31
0.0
  0
LINE
  5
164F
  8
SAPA_ANSLUTNING
 10
102.4398692013574
 20
51.66634922430768
 30
0.0
 11
101.91590686642741
 21
50.260837405938609
 31
0.0
  0
LINE
  5
1650
  8
SAPA_ANSLUTNING
 10
120.0465485255376
 20
45.102735394460687
 30
0.0
 11
119.5225861906078
 21
43.697223576091737
 31
0.0
  0
LINE
  5
1651
  8
SAPA_ANSLUTNING
 10
111.9343319338455
 20
47.326477597117609
 30
0.0
 11
119.78456735807271
 21
44.399979485276212
 31
0.0
  0
LINE
  5
1652
  8
SAPA_ANSLUTNING
 10
112.19631310131039
 20
48.029233506302148
 30
0.0
 11
111.6723507663806
 21
46.623721687933127
 31
0.0
  0
LINE
  5
1653
  8
SAPA_ANSLUTNING
 10
137.65322784971801
 20
38.539121564614049
 30
0.0
 11
137.12926551478819
 21
37.133609746244993
 31
0.0
  0
LINE
  5
1654
  8
SAPA_ANSLUTNING
 10
129.54101125802589
 20
40.762863767270971
 30
0.0
 11
137.3912466822531
 21
37.836365655429582
 31
0.0
  0
LINE
  5
1655
  8
SAPA_ANSLUTNING
 10
147.1476905822062
 20
34.199249937423978
 30
0.0
 11
154.99792600643329
 21
31.272751825582588
 31
0.0
  0
LINE
  5
1656
  8
SAPA_ANSLUTNING
 10
147.40967174967119
 20
34.902005846608461
 30
0.0
 11
146.88570941474131
 21
33.49649402823951
 31
0.0
  0
LINE
  5
1657
  8
SAPA_ANSLUTNING
 10
155.25990717389831
 20
31.97550773476706
 30
0.0
 11
154.73594483896809
 21
30.569995916398121
 31
0.0
  0
LINE
  5
1658
  8
SAPA_ANSLUTNING
 10
129.8029924254908
 20
41.465619676455447
 30
0.0
 11
129.27903009056101
 21
40.060107858086383
 31
0.0
  0
LINE
  5
1659
  8
SAPA_ANSLUTNING
 10
164.7543699063865
 20
27.63563610757711
 30
0.0
 11
172.6046053306134
 21
24.70913799573572
 31
0.0
  0
LINE
  5
165A
  8
SAPA_ANSLUTNING
 10
165.0163510738515
 20
28.338392016761588
 30
0.0
 11
164.49238873892159
 21
26.932880198392638
 31
0.0
  0
LINE
  5
165B
  8
SAPA_ANSLUTNING
 10
172.86658649807839
 20
25.411893904920191
 30
0.0
 11
172.3426241631486
 21
24.006382086551241
 31
0.0
  0
ARC
  5
165C
  8
SAPA_ANSLUTNING
 10
178.4843964336097
 20
21.18317043683118
 30
0.0
 40
1.9999999999999989
 50
20.00000000000065
 51
69.554991195009876
  0
ARC
  5
165D
  8
SAPA_ANSLUTNING
 10
177.31166625807089
 20
20.01951351299277
 30
0.0
 40
1.9999999999999989
 50
20.00000000000065
 51
69.554991195009876
  0
LINE
  5
165E
  8
SAPA_ANSLUTNING
 10
179.47419838392489
 20
19.925614128689691
 30
0.0
 11
180.8837373151037
 21
20.438644343678281
 31
0.0
  0
LINE
  5
165F
  8
SAPA_ANSLUTNING
 10
182.27741240157511
 20
12.223846913297621
 30
0.0
 11
183.68695133275389
 21
12.736877128286149
 31
0.0
  0
LINE
  5
1660
  8
SAPA_ANSLUTNING
 10
180.17896784951421
 20
20.182129236183918
 30
0.0
 11
182.98218186716451
 21
12.48036202079186
 31
0.0
  0
LINE
  5
1661
  8
SAPA_ANSLUTNING
 10
186.06771680722579
 20
4.0029244460352507
 30
0.0
 11
188.8709308248757
 21
-3.6988427693567578
 31
0.0
  0
LINE
  5
1662
  8
SAPA_ANSLUTNING
 10
188.16616135928641
 20
-3.9553578768511102
 30
0.0
 11
189.57570029046511
 21
-3.44232766186252
 31
0.0
  0
LINE
  5
1663
  8
SAPA_ANSLUTNING
 10
185.3629473416363
 20
3.7464093385410129
 30
0.0
 11
186.772486272815
 21
4.2594395535295462
 31
0.0
  0
LINE
  5
1664
  8
SAPA_ANSLUTNING
 10
194.26621294177809
 20
-20.71511185725544
 30
0.0
 11
195.67575187295679
 21
-20.202081642266851
 31
0.0
  0
LINE
  5
1665
  8
SAPA_ANSLUTNING
 10
192.16776838971751
 20
-12.75682953436908
 30
0.0
 11
194.9709824073675
 21
-20.458596749761149
 31
0.0
  0
LINE
  5
1666
  8
SAPA_ANSLUTNING
 10
191.4629989241281
 20
-13.01334464186332
 30
0.0
 11
192.87253785530689
 21
-12.500314426874841
 31
0.0
  0
LINE
  5
166B
  8
SAPA_ANSLUTNING
  6
DASHDOT
 10
254.3395635095865
 20
-390.03759012626318
 30
0.0
 11
121.5762254672987
 21
-438.35949337547788
 31
0.0
  0
LINE
  5
1803
  8
SAPA_ANSLUTNING
 10
-2.619322487185987
 20
39.358377789604859
 30
0.0
 11
175.30633630337161
 21
104.118021501573
 31
0.0
  0
LINE
  5
1805
  8
SAPA_ANSLUTNING
 10
174.79330608838319
 20
105.5275604327516
 30
0.0
 11
-3.132352702174463
 21
40.767916720783838
 31
0.0
  0
LINE
  5
1806
  8
SAPA_ANSLUTNING
 10
-3.132352702174463
 20
40.767916720783838
 30
0.0
 11
-2.619322487185987
 21
39.358377789604859
 31
0.0
  0
LINE
  5
180D
  8
SAPA_ANSLUTNING
 10
135.40042939963371
 20
91.189725875927763
 30
0.0
 11
111.7480753129351
 21
111.0364074665501
 31
0.0
  0
LINE
  5
180E
  8
SAPA_ANSLUTNING
 10
135.40042939963371
 20
91.189725875927792
 30
0.0
 11
140.76198279458569
 21
121.5966061696252
 31
0.0
  0
LINE
  5
180F
  8
SAPA_ANSLUTNING
 10
164.41433688128481
 20
101.7499245790023
 30
0.0
 11
140.76198279458569
 21
121.5966061696252
 31
0.0
  0
LINE
  5
1810
  8
SAPA_ANSLUTNING
 10
-2.409402773411121
 20
38.781628116110213
 30
0.0
 11
-1.8963725584226461
 21
37.372089184931284
 31
0.0
  0
LINE
  5
1813
  8
SAPA_ANSLUTNING
  6
DASHDOT
 10
295.6110396505033
 20
-313.81420609282878
 30
0.0
 11
307.39386573034801
 21
-346.18725468456392
 31
0.0
  0
LINE
  5
1821
  8
SAPA_ANSLUTNING
 10
162.82882788015229
 20
129.62828094493369
 30
0.0
 11
-12.277753048048
 21
65.894697662944154
 31
0.0
  0
LINE
  5
1823
  8
SAPA_ANSLUTNING
 10
-12.277753048048019
 20
65.894697662944154
 30
0.0
 11
-12.79078326303636
 21
67.304236594123026
 31
0.0
  0
LINE
  5
1824
  8
SAPA_ANSLUTNING
 10
-12.79078326303636
 20
67.304236594123026
 30
0.0
 11
163.7253365963422
 21
131.55085009110249
 31
0.0
  0
LINE
  5
1826
  8
SAPA_ANSLUTNING
 10
167.5704748886769
 20
129.75783265872181
 30
0.0
 11
265.89485562441058
 21
-140.38618319456549
 31
0.0
  0
LINE
  5
1827
  8
SAPA_ANSLUTNING
 10
265.89485562441058
 20
-140.3861831945656
 30
0.0
 11
284.95580897924629
 21
-156.3802221244955
 31
0.0
  0
ARC
  5
1828
  8
SAPA_ANSLUTNING
 10
283.02640949394993
 20
-158.6774855959865
 30
0.0
 40
3.000000305218101
 50
230.02584533385669
 51
49.974154666143839
  0
LINE
  5
1829
  8
SAPA_ANSLUTNING
 10
281.09908332112701
 20
-160.97648878320939
 30
0.0
 11
272.29651424247561
 21
-153.59025631590009
 31
0.0
  0
LINE
  5
182A
  8
SAPA_ANSLUTNING
 10
272.29651424247561
 20
-153.59025631590009
 30
0.0
 11
273.26642905731899
 21
-152.4460005453106
 31
0.0
  0
LINE
  5
182B
  8
SAPA_ANSLUTNING
 10
273.26642905731899
 20
-152.4460005453106
 30
0.0
 11
282.06149505756309
 21
-159.82593718229521
 31
0.0
  0
ARC
  5
182C
  8
SAPA_ANSLUTNING
 10
283.02640949394993
 20
-158.67748559598661
 30
0.0
 40
1.5000003052140609
 50
229.96344942004589
 51
50.036550584334982
  0
LINE
  5
182D
  8
SAPA_ANSLUTNING
 10
283.98985788653482
 20
-157.52780385286459
 30
0.0
 11
264.62278272503067
 21
-141.27689822786371
 31
0.0
  0
ARC
  5
182E
  8
SAPA_ANSLUTNING
 10
163.85488831012921
 20
126.809203082576
 30
0.0
 40
3.0
 50
20.0
 51
109.9999999999996
  0
ARC
  5
182F
  8
SAPA_ANSLUTNING
 10
164.75139702631921
 20
128.7317722287448
 30
0.0
 40
3.0
 50
19.999999999999989
 51
110.0000000000001
  0
LINE
  5
1830
  8
SAPA_ANSLUTNING
 10
106.3865219179833
 20
80.629527172853756
 30
0.0
 11
82.734167831284751
 21
100.47620876347609
 31
0.0
  0
LINE
  5
1831
  8
SAPA_ANSLUTNING
 10
106.3865219179833
 20
80.629527172853756
 30
0.0
 11
111.7480753129353
 21
111.0364074665511
 31
0.0
  0
LINE
  5
1832
  8
SAPA_ANSLUTNING
 10
77.372614436332952
 20
70.069328469779734
 30
0.0
 11
53.720260349634387
 21
89.916010060402115
 31
0.0
  0
LINE
  5
1833
  8
SAPA_ANSLUTNING
 10
77.372614436332952
 20
70.069328469779762
 30
0.0
 11
82.734167831284935
 21
100.4762087634771
 31
0.0
  0
LINE
  5
1834
  8
SAPA_ANSLUTNING
 10
48.358706954682603
 20
59.50912976670574
 30
0.0
 11
24.706352867984041
 21
79.355811357328093
 31
0.0
  0
LINE
  5
1835
  8
SAPA_ANSLUTNING
 10
48.358706954682603
 20
59.509129766705762
 30
0.0
 11
53.720260349634579
 21
89.916010060403153
 31
0.0
  0
LINE
  5
1836
  8
SAPA_ANSLUTNING
 10
19.344799473032239
 20
48.948931063631733
 30
0.0
 11
-4.3075546136663263
 21
68.7956126542541
 31
0.0
  0
LINE
  5
1837
  8
SAPA_ANSLUTNING
 10
19.344799473032239
 20
48.94893106363174
 30
0.0
 11
24.706352867984219
 21
79.355811357329145
 31
0.0
  0
POLYLINE
  5
183C
  8
SAPA_ANSLUTNING
 10
4.9457943207958976
 20
-41.532186891860945
 30
0.0
 66
     1
 70
     8
  0
VERTEX
  8
SAPA_ANSLUTNING
  5
256C
 10
4.94579
 20
-41.5322
 30
0.000000
  70
    32
  0
VERTEX
  8
SAPA_ANSLUTNING
  5
256D
 10
5.16163
 20
-41.4420
 30
0.000000
  70
    32
  0
VERTEX
  8
SAPA_ANSLUTNING
  5
256E
 10
5.36949
 20
-41.3316
 30
0.000000
  70
    32
  0
VERTEX
  8
SAPA_ANSLUTNING
  5
256F
 10
5.56887
 20
-41.2012
 30
0.000000
  70
    32
  0
VERTEX
  8
SAPA_ANSLUTNING
  5
2570
 10
5.75930
 20
-41.0511
 30
0.000000
  70
    32
  0
VERTEX
  8
SAPA_ANSLUTNING
  5
2571
 10
5.94031
 20
-40.8817
 30
0.000000
  70
    32
  0
VERTEX
  8
SAPA_ANSLUTNING
  5
2572
 10
6.11148
 20
-40.6934
 30
0.000000
  70
    32
  0
VERTEX
  8
SAPA_ANSLUTNING
  5
2573
 10
6.27238
 20
-40.4866
 30
0.000000
  70
    32
  0
VERTEX
  8
SAPA_ANSLUTNING
  5
2574
 10
6.42263
 20
-40.2618
 30
0.000000
  70
    32
  0
VERTEX
  8
SAPA_ANSLUTNING
  5
2575
 10
6.56187
 20
-40.0196
 30
0.000000
  70
    32
  0
VERTEX
  8
SAPA_ANSLUTNING
  5
2576
 10
6.68976
 20
-39.7606
 30
0.000000
  70
    32
  0
VERTEX
  8
SAPA_ANSLUTNING
  5
2577
 10
6.80600
 20
-39.4854
 30
0.000000
  70
    32
  0
VERTEX
  8
SAPA_ANSLUTNING
  5
2578
 10
6.91030
 20
-39.1947
 30
0.000000
  70
    32
  0
VERTEX
  8
SAPA_ANSLUTNING
  5
2579
 10
7.00242
 20
-38.8890
 30
0.000000
  70
    32
  0
VERTEX
  8
SAPA_ANSLUTNING
  5
257A
 10
7.08212
 20
-38.5693
 30
0.000000
  70
    32
  0
VERTEX
  8
SAPA_ANSLUTNING
  5
257B
 10
7.14923
 20
-38.2362
 30
0.000000
  70
    32
  0
VERTEX
  8
SAPA_ANSLUTNING
  5
257C
 10
7.20357
 20
-37.8906
 30
0.000000
  70
    32
  0
VERTEX
  8
SAPA_ANSLUTNING
  5
257D
 10
7.24502
 20
-37.5333
 30
0.000000
  70
    32
  0
VERTEX
  8
SAPA_ANSLUTNING
  5
257E
 10
7.27348
 20
-37.1651
 30
0.000000
  70
    32
  0
VERTEX
  8
SAPA_ANSLUTNING
  5
257F
 10
7.28887
 20
-36.7870
 30
0.000000
  70
    32
  0
VERTEX
  8
SAPA_ANSLUTNING
  5
2580
 10
7.29117
 20
-36.3998
 30
0.000000
  70
    32
  0
VERTEX
  8
SAPA_ANSLUTNING
  5
2581
 10
7.28036
 20
-36.0045
 30
0.000000
  70
    32
  0
VERTEX
  8
SAPA_ANSLUTNING
  5
2582
 10
7.25647
 20
-35.6021
 30
0.000000
  70
    32
  0
VERTEX
  8
SAPA_ANSLUTNING
  5
2583
 10
7.21956
 20
-35.1934
 30
0.000000
  70
    32
  0
VERTEX
  8
SAPA_ANSLUTNING
  5
2584
 10
7.16972
 20
-34.7796
 30
0.000000
  70
    32
  0
VERTEX
  8
SAPA_ANSLUTNING
  5
2585
 10
7.10707
 20
-34.3615
 30
0.000000
  70
    32
  0
VERTEX
  8
SAPA_ANSLUTNING
  5
2586
 10
7.03176
 20
-33.9402
 30
0.000000
  70
    32
  0
VERTEX
  8
SAPA_ANSLUTNING
  5
2587
 10
6.94397
 20
-33.5168
 30
0.000000
  70
    32
  0
VERTEX
  8
SAPA_ANSLUTNING
  5
2588
 10
6.84391
 20
-33.0921
 30
0.000000
  70
    32
  0
VERTEX
  8
SAPA_ANSLUTNING
  5
2589
 10
6.73182
 20
-32.6674
 30
0.000000
  70
    32
  0
VERTEX
  8
SAPA_ANSLUTNING
  5
258A
 10
6.60797
 20
-32.2434
 30
0.000000
  70
    32
  0
VERTEX
  8
SAPA_ANSLUTNING
  5
258B
 10
6.47267
 20
-31.8214
 30
0.000000
  70
    32
  0
VERTEX
  8
SAPA_ANSLUTNING
  5
258C
 10
6.32624
 20
-31.4023
 30
0.000000
  70
    32
  0
VERTEX
  8
SAPA_ANSLUTNING
  5
258D
 10
6.16902
 20
-30.9872
 30
0.000000
  70
    32
  0
VERTEX
  8
SAPA_ANSLUTNING
  5
258E
 10
6.00141
 20
-30.5769
 30
0.000000
  70
    32
  0
VERTEX
  8
SAPA_ANSLUTNING
  5
258F
 10
5.82379
 20
-30.1726
 30
0.000000
  70
    32
  0
VERTEX
  8
SAPA_ANSLUTNING
  5
2590
 10
5.63661
 20
-29.7751
 30
0.000000
  70
    32
  0
VERTEX
  8
SAPA_ANSLUTNING
  5
2591
 10
5.44031
 20
-29.3855
 30
0.000000
  70
    32
  0
VERTEX
  8
SAPA_ANSLUTNING
  5
2592
 10
5.23537
 20
-29.0047
 30
0.000000
  70
    32
  0
VERTEX
  8
SAPA_ANSLUTNING
  5
2593
 10
5.02227
 20
-28.6336
 30
0.000000
  70
    32
  0
VERTEX
  8
SAPA_ANSLUTNING
  5
2594
 10
4.80153
 20
-28.2730
 30
0.000000
  70
    32
  0
VERTEX
  8
SAPA_ANSLUTNING
  5
2595
 10
4.57369
 20
-27.9240
 30
0.000000
  70
    32
  0
VERTEX
  8
SAPA_ANSLUTNING
  5
2596
 10
4.33929
 20
-27.5872
 30
0.000000
  70
    32
  0
VERTEX
  8
SAPA_ANSLUTNING
  5
2597
 10
4.09889
 20
-27.2635
 30
0.000000
  70
    32
  0
VERTEX
  8
SAPA_ANSLUTNING
  5
2598
 10
3.85309
 20
-26.9538
 30
0.000000
  70
    32
  0
VERTEX
  8
SAPA_ANSLUTNING
  5
2599
 10
3.60246
 20
-26.6587
 30
0.000000
  70
    32
  0
VERTEX
  8
SAPA_ANSLUTNING
  5
259A
 10
3.34761
 20
-26.3789
 30
0.000000
  70
    32
  0
VERTEX
  8
SAPA_ANSLUTNING
  5
259B
 10
3.08916
 20
-26.1152
 30
0.000000
  70
    32
  0
VERTEX
  8
SAPA_ANSLUTNING
  5
259C
 10
2.82773
 20
-25.8681
 30
0.000000
  70
    32
  0
VERTEX
  8
SAPA_ANSLUTNING
  5
259D
 10
2.56394
 20
-25.6383
 30
0.000000
  70
    32
  0
VERTEX
  8
SAPA_ANSLUTNING
  5
259E
 10
2.29844
 20
-25.4262
 30
0.000000
  70
    32
  0
VERTEX
  8
SAPA_ANSLUTNING
  5
259F
 10
2.03186
 20
-25.2326
 30
0.000000
  70
    32
  0
VERTEX
  8
SAPA_ANSLUTNING
  5
25A0
 10
1.76485
 20
-25.0576
 30
0.000000
  70
    32
  0
VERTEX
  8
SAPA_ANSLUTNING
  5
25A1
 10
1.49805
 20
-24.9020
 30
0.000000
  70
    32
  0
VERTEX
  8
SAPA_ANSLUTNING
  5
25A2
 10
1.23210
 20
-24.7658
 30
0.000000
  70
    32
  0
VERTEX
  8
SAPA_ANSLUTNING
  5
25A3
 10
0.967643
 20
-24.6496
 30
0.000000
  70
    32
  0
VERTEX
  8
SAPA_ANSLUTNING
  5
25A4
 10
0.705314
 20
-24.5536
 30
0.000000
  70
    32
  0
VERTEX
  8
SAPA_ANSLUTNING
  5
25A5
 10
0.445747
 20
-24.4780
 30
0.000000
  70
    32
  0
VERTEX
  8
SAPA_ANSLUTNING
  5
25A6
 10
0.189567
 20
-24.4230
 30
0.000000
  70
    32
  0
VERTEX
  8
SAPA_ANSLUTNING
  5
25A7
 10
-0.0626087
 20
-24.3888
 30
0.000000
  70
    32
  0
VERTEX
  8
SAPA_ANSLUTNING
  5
25A8
 10
-0.310173
 20
-24.3754
 30
0.000000
  70
    32
  0
VERTEX
  8
SAPA_ANSLUTNING
  5
25A9
 10
-0.552530
 20
-24.3828
 30
0.000000
  70
    32
  0
VERTEX
  8
SAPA_ANSLUTNING
  5
25AA
 10
-0.789095
 20
-24.4111
 30
0.000000
  70
    32
  0
VERTEX
  8
SAPA_ANSLUTNING
  5
25AB
 10
-1.01930
 20
-24.4601
 30
0.000000
  70
    32
  0
VERTEX
  8
SAPA_ANSLUTNING
  5
25AC
 10
-1.24258
 20
-24.5298
 30
0.000000
  70
    32
  0
VERTEX
  8
SAPA_ANSLUTNING
  5
25AD
 10
-1.45842
 20
-24.6199
 30
0.000000
  70
    32
  0
VERTEX
  8
SAPA_ANSLUTNING
  5
25AE
 10
-1.66628
 20
-24.7303
 30
0.000000
  70
    32
  0
VERTEX
  8
SAPA_ANSLUTNING
  5
25AF
 10
-1.86566
 20
-24.8607
 30
0.000000
  70
    32
  0
VERTEX
  8
SAPA_ANSLUTNING
  5
25B0
 10
-2.05609
 20
-25.0108
 30
0.000000
  70
    32
  0
VERTEX
  8
SAPA_ANSLUTNING
  5
25B1
 10
-2.23710
 20
-25.1803
 30
0.000000
  70
    32
  0
VERTEX
  8
SAPA_ANSLUTNING
  5
25B2
 10
-2.40827
 20
-25.3686
 30
0.000000
  70
    32
  0
VERTEX
  8
SAPA_ANSLUTNING
  5
25B3
 10
-2.56917
 20
-25.5754
 30
0.000000
  70
    32
  0
VERTEX
  8
SAPA_ANSLUTNING
  5
25B4
 10
-2.71942
 20
-25.8001
 30
0.000000
  70
    32
  0
VERTEX
  8
SAPA_ANSLUTNING
  5
25B5
 10
-2.85866
 20
-26.0423
 30
0.000000
  70
    32
  0
VERTEX
  8
SAPA_ANSLUTNING
  5
25B6
 10
-2.98655
 20
-26.3013
 30
0.000000
  70
    32
  0
VERTEX
  8
SAPA_ANSLUTNING
  5
25B7
 10
-3.10279
 20
-26.5765
 30
0.000000
  70
    32
  0
VERTEX
  8
SAPA_ANSLUTNING
  5
25B8
 10
-3.20709
 20
-26.8673
 30
0.000000
  70
    32
  0
VERTEX
  8
SAPA_ANSLUTNING
  5
25B9
 10
-3.29921
 20
-27.1729
 30
0.000000
  70
    32
  0
VERTEX
  8
SAPA_ANSLUTNING
  5
25BA
 10
-3.37891
 20
-27.4926
 30
0.000000
  70
    32
  0
VERTEX
  8
SAPA_ANSLUTNING
  5
25BB
 10
-3.44602
 20
-27.8257
 30
0.000000
  70
    32
  0
VERTEX
  8
SAPA_ANSLUTNING
  5
25BC
 10
-3.50036
 20
-28.1713
 30
0.000000
  70
    32
  0
VERTEX
  8
SAPA_ANSLUTNING
  5
25BD
 10
-3.54181
 20
-28.5286
 30
0.000000
  70
    32
  0
VERTEX
  8
SAPA_ANSLUTNING
  5
25BE
 10
-3.57027
 20
-28.8968
 30
0.000000
  70
    32
  0
VERTEX
  8
SAPA_ANSLUTNING
  5
25BF
 10
-3.58566
 20
-29.2749
 30
0.000000
  70
    32
  0
VERTEX
  8
SAPA_ANSLUTNING
  5
25C0
 10
-3.58796
 20
-29.6621
 30
0.000000
  70
    32
  0
VERTEX
  8
SAPA_ANSLUTNING
  5
25C1
 10
-3.57715
 20
-30.0574
 30
0.000000
  70
    32
  0
VERTEX
  8
SAPA_ANSLUTNING
  5
25C2
 10
-3.55326
 20
-30.4599
 30
0.000000
  70
    32
  0
VERTEX
  8
SAPA_ANSLUTNING
  5
25C3
 10
-3.51635
 20
-30.8685
 30
0.000000
  70
    32
  0
VERTEX
  8
SAPA_ANSLUTNING
  5
25C4
 10
-3.46651
 20
-31.2824
 30
0.000000
  70
    32
  0
VERTEX
  8
SAPA_ANSLUTNING
  5
25C5
 10
-3.40386
 20
-31.7004
 30
0.000000
  70
    32
  0
VERTEX
  8
SAPA_ANSLUTNING
  5
25C6
 10
-3.32855
 20
-32.1217
 30
0.000000
  70
    32
  0
VERTEX
  8
SAPA_ANSLUTNING
  5
25C7
 10
-3.24076
 20
-32.5452
 30
0.000000
  70
    32
  0
VERTEX
  8
SAPA_ANSLUTNING
  5
25C8
 10
-3.14070
 20
-32.9698
 30
0.000000
  70
    32
  0
VERTEX
  8
SAPA_ANSLUTNING
  5
25C9
 10
-3.02861
 20
-33.3946
 30
0.000000
  70
    32
  0
VERTEX
  8
SAPA_ANSLUTNING
  5
25CA
 10
-2.90476
 20
-33.8185
 30
0.000000
  70
    32
  0
VERTEX
  8
SAPA_ANSLUTNING
  5
25CB
 10
-2.76946
 20
-34.2405
 30
0.000000
  70
    32
  0
VERTEX
  8
SAPA_ANSLUTNING
  5
25CC
 10
-2.62303
 20
-34.6596
 30
0.000000
  70
    32
  0
VERTEX
  8
SAPA_ANSLUTNING
  5
25CD
 10
-2.46581
 20
-35.0748
 30
0.000000
  70
    32
  0
VERTEX
  8
SAPA_ANSLUTNING
  5
25CE
 10
-2.29820
 20
-35.4850
 30
0.000000
  70
    32
  0
VERTEX
  8
SAPA_ANSLUTNING
  5
25CF
 10
-2.12058
 20
-35.8894
 30
0.000000
  70
    32
  0
VERTEX
  8
SAPA_ANSLUTNING
  5
25D0
 10
-1.93340
 20
-36.2868
 30
0.000000
  70
    32
  0
VERTEX
  8
SAPA_ANSLUTNING
  5
25D1
 10
-1.73710
 20
-36.6764
 30
0.000000
  70
    32
  0
VERTEX
  8
SAPA_ANSLUTNING
  5
25D2
 10
-1.53216
 20
-37.0572
 30
0.000000
  70
    32
  0
VERTEX
  8
SAPA_ANSLUTNING
  5
25D3
 10
-1.31906
 20
-37.4284
 30
0.000000
  70
    32
  0
VERTEX
  8
SAPA_ANSLUTNING
  5
25D4
 10
-1.09832
 20
-37.7889
 30
0.000000
  70
    32
  0
VERTEX
  8
SAPA_ANSLUTNING
  5
25D5
 10
-0.870479
 20
-38.1380
 30
0.000000
  70
    32
  0
VERTEX
  8
SAPA_ANSLUTNING
  5
25D6
 10
-0.636078
 20
-38.4747
 30
0.000000
  70
    32
  0
VERTEX
  8
SAPA_ANSLUTNING
  5
25D7
 10
-0.395684
 20
-38.7984
 30
0.000000
  70
    32
  0
VERTEX
  8
SAPA_ANSLUTNING
  5
25D8
 10
-0.149877
 20
-39.1082
 30
0.000000
  70
    32
  0
VERTEX
  8
SAPA_ANSLUTNING
  5
25D9
 10
0.100753
 20
-39.4033
 30
0.000000
  70
    32
  0
VERTEX
  8
SAPA_ANSLUTNING
  5
25DA
 10
0.355600
 20
-39.6830
 30
0.000000
  70
    32
  0
VERTEX
  8
SAPA_ANSLUTNING
  5
25DB
 10
0.614051
 20
-39.9468
 30
0.000000
  70
    32
  0
VERTEX
  8
SAPA_ANSLUTNING
  5
25DC
 10
0.875484
 20
-40.1939
 30
0.000000
  70
    32
  0
VERTEX
  8
SAPA_ANSLUTNING
  5
25DD
 10
1.13927
 20
-40.4237
 30
0.000000
  70
    32
  0
VERTEX
  8
SAPA_ANSLUTNING
  5
25DE
 10
1.40477
 20
-40.6357
 30
0.000000
  70
    32
  0
VERTEX
  8
SAPA_ANSLUTNING
  5
25DF
 10
1.67135
 20
-40.8294
 30
0.000000
  70
    32
  0
VERTEX
  8
SAPA_ANSLUTNING
  5
25E0
 10
1.93836
 20
-41.0043
 30
0.000000
  70
    32
  0
VERTEX
  8
SAPA_ANSLUTNING
  5
25E1
 10
2.20516
 20
-41.1600
 30
0.000000
  70
    32
  0
VERTEX
  8
SAPA_ANSLUTNING
  5
25E2
 10
2.47111
 20
-41.2961
 30
0.000000
  70
    32
  0
VERTEX
  8
SAPA_ANSLUTNING
  5
25E3
 10
2.73557
 20
-41.4123
 30
0.000000
  70
    32
  0
VERTEX
  8
SAPA_ANSLUTNING
  5
25E4
 10
2.99790
 20
-41.5083
 30
0.000000
  70
    32
  0
VERTEX
  8
SAPA_ANSLUTNING
  5
25E5
 10
3.25746
 20
-41.5839
 30
0.000000
  70
    32
  0
VERTEX
  8
SAPA_ANSLUTNING
  5
25E6
 10
3.51364
 20
-41.6389
 30
0.000000
  70
    32
  0
VERTEX
  8
SAPA_ANSLUTNING
  5
25E7
 10
3.76582
 20
-41.6731
 30
0.000000
  70
    32
  0
VERTEX
  8
SAPA_ANSLUTNING
  5
25E8
 10
4.01338
 20
-41.6866
 30
0.000000
  70
    32
  0
VERTEX
  8
SAPA_ANSLUTNING
  5
25E9
 10
4.25574
 20
-41.6791
 30
0.000000
  70
    32
  0
VERTEX
  8
SAPA_ANSLUTNING
  5
25EA
 10
4.49230
 20
-41.6509
 30
0.000000
  70
    32
  0
VERTEX
  8
SAPA_ANSLUTNING
  5
25EB
 10
4.72251
 20
-41.6019
 30
0.000000
  70
    32
  0
VERTEX
  8
SAPA_ANSLUTNING
  5
25EC
 10
4.94579
 20
-41.5322
 30
0.000000
  70
    32
  0
SEQEND
  8
SAPA_ANSLUTNING
  5
25ED
  0
POLYLINE
  5
183F
  8
SAPA_ANSLUTNING
 66
     1
 10
0.0
 20
0.0
 30
0.0
 70
     1
  0
VERTEX
  5
1E0B
  8
SAPA_ANSLUTNING
 10
1.6300496371578781
 20
-42.698963358079347
 30
0.0
  0
VERTEX
  5
1E0C
  8
SAPA_ANSLUTNING
 10
-9.507889414130652
 20
-46.752841643819522
 30
0.0
 42
0.1595543053676086
  0
VERTEX
  5
1E0D
  8
SAPA_ANSLUTNING
 10
-15.70574723685443
 20
-29.80891913345847
 30
0.0
  0
VERTEX
  5
1E0E
  8
SAPA_ANSLUTNING
 10
-4.5134592676519807
 20
-25.735259459333051
 30
0.0
 42
0.1595543053676087
  0
SEQEND
  5
1E0F
  8
SAPA_ANSLUTNING
  0
INSERT
  5
192D
  8
SAPA_ANSLUTNING
  6
CONTINUOUS
  2
*X39
 10
0.0
 20
0.0
 30
0.0
1001
ACAD
1000
HATCH
1002
{
1070
    19
1000
ANSI37
1040
0.25
1040
0.0
1000
R14_HATCH_DATA
1000
192D
1011
1.0
1021
0.0
1031
0.0
1021
0.0
1031
0.0
1011
0.0
1021
0.0
1031
0.0
1021
1.0
1031
0.0
1011
0.0
1021
0.0
1031
0.0
1021
0.0
1031
1.0
1040
0.0
1010
0.0
1020
0.0
1030
1.0
1000
ANSI37
1070
     0
1070
     0
1071
        1
1071
        7
1070
     1
1070
     1
1071
        4
1040
1.6300496371578781
1040
-42.698963358079347
1040
-0.1424482068200422
1040
-4.3885426071157729
1040
-27.670154309330549
1040
0.0
1040
-14.557712514886489
1040
-31.371429462954669
1040
-0.1424482068200422
1040
-9.507889414130652
1040
-46.752841643819522
1040
0.0
1071
        0
1070
     0
1070
     1
1040
0.0
1040
0.25
1070
     0
1070
     2
1040
0.7853981633974483
1040
0.0
1040
0.0
1040
-0.5612660075668221
1040
0.5612660075668221
1070
     0
1040
2.3561944901923439
1040
0.0
1040
0.0
1040
-0.5612660075668221
1040
-0.5612660075668221
1070
     0
1040
0.0492019416594297
1071
        1
1040
-5.7428838918203828
1040
-40.80756795684556
1040
0.0
1002
}
  0
INSERT
  5
198D
  8
SAPA_ANSLUTNING
  6
CONTINUOUS
  2
*X40
 10
0.0
 20
0.0
 30
0.0
1001
ACAD
1000
HATCH
1002
{
1070
    19
1000
HEX
1040
0.25
1040
0.0
1000
R14_HATCH_DATA
1000
198D
1011
1.0
1021
0.0
1031
0.0
1021
0.0
1031
0.0
1011
0.0
1021
0.0
1031
0.0
1021
1.0
1031
0.0
1011
0.0
1021
0.0
1031
0.0
1021
0.0
1031
1.0
1040
0.0
1010
0.0
1020
0.0
1030
1.0
1000
HEX
1070
     0
1070
     0
1071
        1
1071
        5
1071
        2
1070
     3
1040
1.851604778429631
1040
-33.030970992696929
1040
3.0941895423662671
1040
-8.5012158991640181
1040
0.5263520811930241
1040
3.7970958468288738
1040
8.7692747675302982
1070
     1
1070
     1
1040
2.1262620728963899
1040
-25.298959323747969
1040
-3.328836214510829
1040
-27.28445272536073
1071
        0
1070
     0
1070
     1
1040
0.0
1040
0.25
1070
     0
1070
     3
1040
0.0
1040
0.0
1040
0.0
1040
0.0
1040
1.374814999999999
1070
     2
1040
0.79375
1040
-1.587499999999999
1040
2.0943951023931948
1040
0.0
1040
0.0
1040
-1.190624715503902
1040
-0.6874074999999996
1070
     2
1040
0.7937499999999998
1040
-1.587499999999999
1040
1.047197551196597
1040
0.79375
1040
0.0
1040
-1.190624715503902
1040
0.6874075000000001
1070
     2
1040
0.79375
1040
-1.587499999999999
1040
0.0492019416594297
1071
        1
1040
2.7730871757237301
1040
-35.54296002444994
1040
0.0
1002
}
  0
INSERT
  5
19BE
  8
0
  2
*U41
 10
0.0
 20
0.0
 30
0.0
  0
LINE
  5
19CA
  8
SAPA_ANSLUTNING
 10
264.62278272503062
 20
-141.2768982278636
 30
0.0
 11
166.67396617248701
 21
127.835263512553
 31
0.0
  0
LINE
  5
19DB
  8
SAPA_ANSLUTNING
 10
172.55352754270569
 20
-44.378057690727111
 30
0.0
 11
273.85656962372968
 21
-322.7058783304031
 31
0.0
  0
LINE
  5
19DD
  8
SAPA_ANSLUTNING
 10
169.1121572502563
 20
-43.70475044223025
 30
0.0
 11
272.0602203912822
 21
-326.55222929878852
 31
0.0
  0
LINE
  5
19DE
  8
SAPA_ANSLUTNING
 10
167.7026183190776
 20
-44.21778065721869
 30
0.0
 11
271.84775196174348
 21
-330.35418368652802
 31
0.0
  0
LINE
  5
19DF
  8
SAPA_ANSLUTNING
 10
147.0293806617872
 20
-51.742223810383543
 30
0.0
 11
258.69895745761852
 21
-358.55186449698232
 31
0.0
  0
LINE
  5
19E0
  8
SAPA_ANSLUTNING
 10
108.39835993317971
 20
-4.080454671314576
 30
0.0
 11
249.5144699807575
 21
-391.7937805483075
 31
0.0
  0
LINE
  5
19E1
  8
SAPA_ANSLUTNING
 10
-9.5006833357648155
 20
-46.992197069673601
 30
0.0
 11
131.615426711813
 21
-434.70552294666658
 31
0.0
  0
LINE
  5
1AAC
  8
SAPA_ANSLUTNING
 10
197.57793613189889
 20
-224.49930479952491
 30
0.0
 11
204.46906980271871
 21
-243.43253895454549
 31
0.0
  0
SOLID
  5
1AAD
  8
SAPA_ANSLUTNING
 10
198.35706724292601
 20
-224.21572426652031
 30
0.0
 11
196.4776820013542
 21
-224.89976455317159
 31
0.0
 12
195.36525376218609
 22
-218.91958868513061
 32
0.0
 13
195.36525376218609
 23
-218.91958868513061
 33
0.0
  0
LINE
  5
1AAE
  8
SAPA_ANSLUTNING
 10
164.75341536921539
 20
-134.31467519963269
 30
0.0
 11
171.64454904003529
 21
-153.2479093546533
 31
0.0
  0
SOLID
  5
1AAF
  8
SAPA_ANSLUTNING
 10
165.53254648024259
 20
-134.03109466662809
 30
0.0
 11
163.65316123867069
 21
-134.7151349532794
 31
0.0
 12
162.54073299950269
 22
-128.73495908523839
 32
0.0
 13
162.54073299950269
 23
-128.73495908523839
 33
0.0
  0
ARC
  5
1C0D
  8
SAPA_FOGBAND
 10
-10.225062476618181
 20
73.405305120053001
 30
0.0
 40
0.1999999999999042
 50
290.00000000002501
 51
20.000000000042949
  0
LINE
  5
1C0E
  8
SAPA_FOGBAND
 10
-10.156658447952999
 20
73.217366595895953
 30
0.0
 11
-14.788900420213331
 21
71.531368400074371
 31
0.0
  0
ARC
  5
1C0F
  8
SAPA_FOGBAND
 10
-14.44688027688794
 20
70.591675779288337
 30
0.0
 40
1.000000000000024
 50
109.9999999999829
 51
169.6545274207225
  0
LINE
  5
1C10
  8
SAPA_FOGBAND
 10
-15.430623099270919
 20
70.77125879466017
 30
0.0
 11
-16.710951043586501
 21
65.955143461972455
 31
0.0
  0
ARC
  5
1C11
  8
SAPA_FOGBAND
 10
-15.727208221203879
 20
65.775560446602512
 30
0.0
 40
0.9999999999993455
 50
169.65452742082539
 51
181.75815865553679
  0
ARC
  5
1C12
  8
SAPA_FOGBAND
 10
-15.328084913067009
 20
65.852268353925993
 30
0.0
 40
1.40276914420451
 50
184.3905642206669
 51
238.1429233225704
  0
ARC
  5
1C13
  8
SAPA_FOGBAND
 10
-15.972166272725859
 20
64.836089504166068
 30
0.0
 40
0.2000000000000703
 50
241.21552310748851
 51
334.18376939924849
  0
LINE
  5
1C14
  8
SAPA_FOGBAND
 10
-15.792127183898559
 20
64.748992279788581
 30
0.0
 11
-13.21921490553104
 21
68.068385281797873
 31
0.0
  0
ARC
  5
1C15
  8
SAPA_FOGBAND
 10
-12.31404116101189
 20
67.643343528280411
 30
0.0
 40
1.0000000000000231
 50
110.00000000000711
 51
154.8466936976931
  0
LINE
  5
1C16
  8
SAPA_FOGBAND
 10
-12.65606130433768
 20
68.583036149066302
 30
0.0
 11
-12.54455927010522
 21
68.623619570587294
 31
0.0
  0
ARC
  5
1C17
  8
SAPA_FOGBAND
 10
-12.202539126779509
 20
67.683926949801247
 30
0.0
 40
1.0000000000001441
 50
62.894141254027033
 51
109.9999999999994
  0
LINE
  5
1C18
  8
SAPA_FOGBAND
 10
-11.746903193745
 20
68.574093168284094
 30
0.0
 11
-7.8251874661018936
 21
69.341016810620559
 31
0.0
  0
LINE
  5
1C19
  8
SAPA_FOGBAND
 10
-7.8251874661018936
 20
69.341016810620559
 30
0.0
 11
-7.4300210447000401
 21
69.871707948669254
 31
0.0
  0
LINE
  5
1C1A
  8
SAPA_FOGBAND
 10
-7.4300210447000401
 20
69.871707948669254
 30
0.0
 11
-10.882092429269459
 21
69.676749266028622
 31
0.0
  0
ARC
  5
1C1B
  8
SAPA_FOGBAND
 10
-10.69788961259766
 20
69.913538882207646
 30
0.0
 40
0.3000000000000591
 50
103.04704253179371
 51
232.12002406144981
  0
LINE
  5
1C1C
  8
SAPA_FOGBAND
 10
-10.765614907232861
 20
70.205794394502306
 30
0.0
 11
-7.9798388889723242
 21
70.851351086123117
 31
0.0
  0
ARC
  5
1C1D
  8
SAPA_FOGBAND
 10
-7.912113594336911
 20
70.559095573828699
 30
0.0
 40
0.2999999999998764
 50
20.000000000015358
 51
103.0470425318437
  0
LINE
  5
1C1E
  8
SAPA_FOGBAND
 10
-7.6302058081012802
 20
70.661701616826434
 30
0.0
 11
-7.5500490151343049
 21
70.441472638133774
 31
0.0
  0
ARC
  5
1C1F
  8
SAPA_FOGBAND
 10
-7.2681412288986564
 20
70.54407868113168
 30
0.0
 40
0.2999999999999543
 50
200.00000000004479
 51
290.00000000004479
  0
LINE
  5
1C20
  8
SAPA_FOGBAND
 10
-7.165535185900751
 20
70.26217089489603
 30
0.0
 11
-2.8883164742941281
 21
71.818951191367276
 31
0.0
  0
LINE
  5
1C21
  8
SAPA_FOGBAND
 10
-2.8883164742941281
 20
71.818951191367276
 30
0.0
 11
3.2358197999808449
 21
73.49277792297049
 31
0.0
  0
LINE
  5
1C22
  8
SAPA_FOGBAND
 10
3.2358197999808449
 20
73.49277792297049
 30
0.0
 11
3.2358197999808449
 21
73.49277792297049
 31
0.0
  0
LINE
  5
1C23
  8
SAPA_FOGBAND
 10
3.2358197999808449
 20
73.49277792297049
 30
0.0
 11
3.6458641276869619
 21
74.085063240874916
 31
0.0
  0
ARC
  5
1C24
  8
SAPA_FOGBAND
 10
22.827077130941809
 20
84.255903563245894
 30
0.0
 40
21.710940217765799
 50
204.63033566826039
 51
207.93477623752071
  0
LINE
  5
1C25
  8
SAPA_FOGBAND
 10
3.0914942444297249
 20
75.207605752662317
 30
0.0
 11
-2.2970973383401372
 21
75.013835121715616
 31
0.0
  0
LINE
  5
1C26
  8
SAPA_FOGBAND
 10
-2.2970973383401372
 20
75.013835121715616
 30
0.0
 11
-2.9298346034926221
 21
76.752266470169459
 31
0.0
  0
ARC
  5
1C27
  8
SAPA_FOGBAND
 10
-3.070788496610585
 20
76.700963448670592
 30
0.0
 40
0.1500000000000778
 50
19.999999999996149
 51
110.00000000000399
  0
LINE
  5
1C28
  8
SAPA_FOGBAND
 10
-3.1220915181094711
 20
76.841917341788545
 30
0.0
 11
-4.1709678927807943
 21
76.460157561982896
 31
0.0
  0
ARC
  5
1C29
  8
SAPA_FOGBAND
 10
-4.1196648712819748
 20
76.319203668865299
 30
0.0
 40
0.1499999999997176
 50
110.0000000000263
 51
193.46978467818741
  0
LINE
  5
1C2A
  8
SAPA_FOGBAND
 10
-4.26553880541067
 20
76.284263787043358
 30
0.0
 11
-4.0934221063017437
 21
75.565676925293232
 31
0.0
  0
ARC
  5
1C2B
  8
SAPA_FOGBAND
 10
-4.239296040430764
 20
75.530737043471461
 30
0.0
 40
0.1499999999999902
 50
289.9999999999352
 51
13.469784678095101
  0
LINE
  5
1C2C
  8
SAPA_FOGBAND
 10
-4.1879930189320751
 20
75.389783150353523
 30
0.0
 11
-7.3375805855953606
 21
74.243427025873174
 31
0.0
  0
ARC
  5
1C2D
  8
SAPA_FOGBAND
 10
-7.4059846142607242
 20
74.431365550030307
 30
0.0
 40
0.2000000000000323
 50
200.00000000006381
 51
290.00000000006651
  0
LINE
  5
1C2E
  8
SAPA_FOGBAND
 10
-7.593923138417864
 20
74.362961521364952
 30
0.0
 11
-7.8675392530779638
 21
75.114715617993795
 31
0.0
  0
ARC
  5
1C2F
  8
SAPA_FOGBAND
 10
-8.0554777772352537
 20
75.046311589328496
 30
0.0
 40
0.2000000000001573
 50
20.000000000033889
 51
110.00000000003379
  0
LINE
  5
1C30
  8
SAPA_FOGBAND
 10
-8.1238818059005524
 20
75.234250113485786
 30
0.0
 11
-8.4997588542150027
 21
75.097442056155501
 31
0.0
  0
ARC
  5
1C31
  8
SAPA_FOGBAND
 10
-8.5681628828800278
 20
75.285380580312605
 30
0.0
 40
0.1999999999998902
 50
199.999999999957
 51
289.99999999997829
  0
LINE
  5
1C32
  8
SAPA_FOGBAND
 10
-8.7561014070371641
 20
75.216976551647633
 30
0.0
 11
-9.1226097850536974
 21
76.223950044289012
 31
0.0
  0
ARC
  5
1C33
  8
SAPA_FOGBAND
 10
-9.0286405229751274
 20
76.258152058621619
 30
0.0
 40
0.099999999999994
 50
59.444555528928092
 51
200.00000000002549
  0
LINE
  5
1C34
  8
SAPA_FOGBAND
 10
-8.9778033315863421
 20
76.344265820423672
 30
0.0
 11
-7.8746578229010558
 21
75.693024739077217
 31
0.0
  0
ARC
  5
1C35
  8
SAPA_FOGBAND
 10
-7.6713090573457947
 20
76.03747978628536
 30
0.0
 40
0.4000000000000158
 50
239.4445555289073
 51
59.444555528901461
  0
LINE
  5
1C36
  8
SAPA_FOGBAND
 10
-7.4679602917905044
 20
76.381934833493474
 30
0.0
 11
-9.0180080042269424
 21
77.297004278492651
 31
0.0
  0
ARC
  5
1C37
  8
SAPA_FOGBAND
 10
-9.6534728965870684
 20
76.220582255967429
 30
0.0
 40
1.2499999999998219
 50
59.444555528904552
 51
110.00000000000961
  0
ARC
  5
1C38
  8
SAPA_FOGBAND
 10
-9.6534728965874663
 20
76.220582255967301
 30
0.0
 40
1.2499999999998059
 50
109.99999999999039
 51
160.55544447109571
  0
LINE
  5
1C39
  8
SAPA_FOGBAND
 10
-10.832177985050061
 20
76.636700405573734
 30
0.0
 11
-11.43138812048308
 21
74.939365078187052
 31
0.0
  0
ARC
  5
1C3A
  8
SAPA_FOGBAND
 10
-11.05420249217496
 20
74.806207270312981
 30
0.0
 40
0.4000000000000215
 50
160.55544447109881
 51
340.5554444710944
  0
LINE
  5
1C3B
  8
SAPA_FOGBAND
 10
-10.67701686386685
 20
74.673049462438883
 30
0.0
 11
-10.250568074995209
 21
75.881017338599378
 31
0.0
  0
ARC
  5
1C3C
  8
SAPA_FOGBAND
 10
-10.15627166791821
 20
75.847727886630821
 30
0.0
 40
0.099999999999997
 50
19.99999999997268
 51
160.5554444710734
  0
LINE
  5
1C3D
  8
SAPA_FOGBAND
 10
-10.062302405839599
 20
75.881929900963343
 30
0.0
 11
-9.6957940278231405
 21
74.874956408322191
 31
0.0
  0
ARC
  5
1C3E
  8
SAPA_FOGBAND
 10
-9.8837325519802608
 20
74.806552379656992
 30
0.0
 40
0.1999999999999647
 50
290.00000000004098
 51
20.00000000002364
  0
LINE
  5
1C3F
  8
SAPA_FOGBAND
 10
-9.8153285233150012
 20
74.618613855499888
 30
0.0
 11
-10.19120557162938
 21
74.481805798169376
 31
0.0
  0
ARC
  5
1C40
  8
SAPA_FOGBAND
 10
-10.12280154296444
 20
74.293867274012086
 30
0.0
 40
0.2000000000000334
 50
109.99999999993631
 51
199.9999999999375
  0
LINE
  5
1C41
  8
SAPA_FOGBAND
 10
-10.31074006712174
 20
74.225463245347143
 30
0.0
 11
-10.03712395246114
 21
73.473709148718243
 31
0.0
  0
LINE
  5
1C45
  8
SAPA_PROFIL
 10
27.45136736677355
 20
-2.3269019692880262
 30
0.0
 11
28.590589812288119
 21
-1.91225890891277
 31
0.0
  0
ARC
  5
1C46
  8
SAPA_PROFIL
 10
28.41957974062543
 20
-1.4424125985198879
 30
0.0
 40
0.4999999999998833
 50
289.99999999998761
 51
19.999999999987569
  0
LINE
  5
1C47
  8
SAPA_PROFIL
 10
28.889426051018312
 20
-1.271402526857196
 30
0.0
 11
26.426881019073729
 21
5.4943843428007471
 31
0.0
  0
ARC
  5
1C48
  8
SAPA_PROFIL
 10
28.7761125710385
 20
6.3494347011149141
 30
0.0
 40
2.4999999999999969
 50
109.9999999999998
 51
199.99999999999989
  0
LINE
  5
1C49
  8
SAPA_PROFIL
 10
27.92106221272433
 20
8.6986662530796846
 30
0.0
 11
39.197373662155172
 21
12.802907972987811
 31
0.0
  0
ARC
  5
1C4A
  8
SAPA_PROFIL
 10
40.052424020469431
 20
10.45367642102322
 30
0.0
 40
2.4999999999998672
 50
19.999999999999471
 51
110.0000000000034
  0
LINE
  5
1C4B
  8
SAPA_PROFIL
 10
42.40165557243408
 20
11.30872677933732
 30
0.0
 11
44.864200604378588
 21
4.5429399096792951
 31
0.0
  0
ARC
  5
1C4C
  8
SAPA_PROFIL
 10
45.33404691477169
 20
4.713949981342159
 30
0.0
 40
0.5000000000001553
 50
199.99999999999699
 51
289.9999999999971
  0
LINE
  5
1C4D
  8
SAPA_PROFIL
 10
45.50505698643456
 20
4.2441036709490501
 30
0.0
 11
48.089211693596347
 21
5.1846590650950812
 31
0.0
  0
ARC
  5
1C4E
  8
SAPA_PROFIL
 10
44.66901026033905
 20
14.581585272953919
 30
0.0
 40
9.9999999999999751
 50
290.00000000000381
 51
20.00000000000011
  0
LINE
  5
1C4F
  8
SAPA_PROFIL
 10
54.06593646819811
 20
18.001786706210609
 30
0.0
 11
51.671795464918453
 21
24.579635051711978
 31
0.0
  0
ARC
  5
1C50
  8
SAPA_PROFIL
 10
62.478260603956379
 20
28.512866699957168
 30
0.0
 40
11.499999999999989
 50
19.999999999999702
 51
200.0
  0
ARC
  5
1C51
  8
SAPA_PROFIL
 10
79.040343045307878
 20
34.540971726071973
 30
0.0
 40
6.1249999999998401
 50
200.0
 51
20.00000000000006
  0
ARC
  5
1C52
  8
SAPA_PROFIL
 10
62.478260603956898
 20
28.51286669995871
 30
0.0
 40
23.74999999999865
 50
19.99999999999682
 51
59.166710716118921
  0
ARC
  5
1C53
  8
SAPA_PROFIL
 10
58.39358413028387
 20
19.04487910791438
 30
0.0
 40
33.999999999959591
 50
61.434500649739071
 51
83.773949964552443
  0
LINE
  5
1C54
  8
SAPA_PROFIL
 10
62.080929829697268
 20
52.844338891914909
 30
0.0
 11
45.733125854056098
 21
46.894224849162761
 31
0.0
  0
ARC
  5
1C55
  8
SAPA_PROFIL
 10
73.842632244487433
 20
24.803050857019219
 30
0.0
 40
35.751423997721538
 50
141.8363046578998
 51
161.873480821843
  0
ARC
  5
1C56
  8
SAPA_PROFIL
 10
62.298958860715672
 20
28.128352870726371
 30
0.0
 40
23.749999999996419
 50
160.8332892838834
 51
176.4218215218047
  0
ARC
  5
1C57
  8
SAPA_PROFIL
 10
38.096232531457403
 20
29.641805291797869
 30
0.0
 40
0.499999999999841
 50
289.99999999998062
 51
356.42182152175951
  0
LINE
  5
1C58
  8
SAPA_PROFIL
 10
38.267242603120017
 20
29.171958981405009
 30
0.0
 11
37.774366419242497
 21
28.99256672129486
 31
0.0
  0
ARC
  5
1C59
  8
SAPA_PROFIL
 10
37.945376490905403
 20
28.522720410901961
 30
0.0
 40
0.4999999999999706
 50
110.000000000009
 51
200.00000000000259
  0
LINE
  5
1C5A
  8
SAPA_PROFIL
 10
37.475530180512493
 20
28.351710339239109
 30
0.0
 11
38.467388596156937
 21
25.626601738959948
 31
0.0
  0
ARC
  5
1C5B
  8
SAPA_PROFIL
 10
38.185480809921209
 20
25.523995695962221
 30
0.0
 40
0.2999999999999762
 50
290.0000000000087
 51
20.00000000000863
  0
LINE
  5
1C5C
  8
SAPA_PROFIL
 10
38.288086852918951
 20
25.242087909726489
 30
0.0
 11
19.858520184943941
 21
18.534274212158859
 31
0.0
  0
POLYLINE
  5
1D55
  8
SAPA_PROFIL
 66
     1
 10
0.0
 20
0.0
 30
0.0
 70
     1
  0
VERTEX
  5
22C9
  8
SAPA_PROFIL
 10
214.81162443200071
 20
-14.30137139653908
 30
0.0
  0
VERTEX
  5
22CA
  8
SAPA_PROFIL
 10
223.02010787181669
 20
-36.853994295400867
 30
0.0
 42
0.4142135623730951
  0
VERTEX
  5
22CB
  8
SAPA_PROFIL
 10
225.5835334000399
 20
-38.049339250321339
 30
0.0
  0
VERTEX
  5
22CC
  8
SAPA_PROFIL
 10
226.5232260208258
 20
-37.707319106995733
 30
0.0
  0
VERTEX
  5
22CD
  8
SAPA_PROFIL
 10
216.26262172105569
 20
-9.5165404834185097
 30
0.0
  0
VERTEX
  5
22CE
  8
SAPA_PROFIL
 10
198.40846192612349
 20
-16.01492320660623
 30
0.0
 42
-0.4142135623730951
  0
VERTEX
  5
22CF
  8
SAPA_PROFIL
 10
197.126749162012
 20
-15.417250729146019
 30
0.0
  0
VERTEX
  5
22D0
  8
SAPA_PROFIL
 10
188.9182657221958
 20
7.1353721697158221
 30
0.0
 42
0.4142135623730951
  0
VERTEX
  5
22D1
  8
SAPA_PROFIL
 10
186.35484019397259
 20
8.3307171246362941
 30
0.0
  0
VERTEX
  5
22D2
  8
SAPA_PROFIL
 10
185.4151475731868
 20
7.9886969813106239
 30
0.0
  0
VERTEX
  5
22D3
  8
SAPA_PROFIL
 10
195.67575187295691
 20
-20.202081642266592
 30
0.0
  0
VERTEX
  5
22D4
  8
SAPA_PROFIL
 10
213.52991166788919
 20
-13.703698919078819
 30
0.0
 42
-0.4142135623730951
  0
SEQEND
  5
22D5
  8
SAPA_PROFIL
  0
CIRCLE
  5
1D56
  8
SAPA_PROFIL
 10
62.478260603956947
 20
28.512866699958689
 30
0.0
 40
5.3499999999999979
  0
POLYLINE
  5
1D57
  8
SAPA_PROFIL
 66
     1
 10
0.0
 20
0.0
 30
0.0
 70
     1
  0
VERTEX
  5
22D6
  8
SAPA_PROFIL
 10
68.534624038666124
 20
20.555451168096798
 30
0.0
  0
VERTEX
  5
22D7
  8
SAPA_PROFIL
 10
67.404068185354703
 20
19.810199311678051
 30
0.0
 42
0.8419933402193075
  0
VERTEX
  5
22D8
  8
SAPA_PROFIL
 10
73.526552023550522
 20
9.1222049217194012
 30
0.0
  0
VERTEX
  5
22D9
  8
SAPA_PROFIL
 10
92.681221595420027
 20
16.093934493084529
 30
0.0
  0
VERTEX
  5
22DA
  8
SAPA_PROFIL
 10
93.666029348432204
 20
15.920286315417631
 30
0.0
  0
VERTEX
  5
22DB
  8
SAPA_PROFIL
 10
94.308816958118712
 20
16.686330758536538
 30
0.0
  0
VERTEX
  5
22DC
  8
SAPA_PROFIL
 10
110.47695334562199
 20
22.571051147144029
 30
0.0
  0
VERTEX
  5
22DD
  8
SAPA_PROFIL
 10
118.35541536971969
 20
21.181865725808681
 30
0.0
  0
VERTEX
  5
22DE
  8
SAPA_PROFIL
 10
119.3814757996967
 20
18.362787863450819
 30
0.0
  0
VERTEX
  5
22DF
  8
SAPA_PROFIL
 10
109.98454959183771
 20
14.942586430194121
 30
0.0
  0
VERTEX
  5
22E0
  8
SAPA_PROFIL
 10
109.64252944851199
 20
15.88227905098011
 30
0.0
  0
VERTEX
  5
22E1
  8
SAPA_PROFIL
 10
72.054824617075695
 20
2.2014733179533428
 30
0.0
  0
VERTEX
  5
22E2
  8
SAPA_PROFIL
 10
72.396844760401365
 20
1.2617806971673531
 30
0.0
  0
VERTEX
  5
22E3
  8
SAPA_PROFIL
 10
62.999918552542312
 20
-2.1584207360893402
 30
0.0
  0
VERTEX
  5
22E4
  8
SAPA_PROFIL
 10
53.081334396097901
 20
25.092665266701999
 30
0.0
 42
-1.9780623748969339
  0
SEQEND
  5
22E5
  8
SAPA_PROFIL
  0
POLYLINE
  5
1D58
  8
SAPA_PROFIL
 66
     1
 10
0.0
 20
0.0
 30
0.0
 70
     1
  0
VERTEX
  5
22E6
  8
SAPA_PROFIL
 10
-47.63453102483232
 20
66.463865638611566
 30
0.0
 42
0.5773502691895968
  0
VERTEX
  5
22E7
  8
SAPA_PROFIL
 10
-47.077678535306987
 20
64.933925997674947
 30
0.0
  0
VERTEX
  5
22E8
  8
SAPA_PROFIL
 10
-46.106688215213481
 20
64.762714192825115
 30
0.0
  0
VERTEX
  5
22E9
  8
SAPA_PROFIL
 10
-46.497062552571393
 20
62.548791310521921
 30
0.0
  0
VERTEX
  5
22EA
  8
SAPA_PROFIL
 10
-47.62469369751441
 20
62.138367138531137
 30
0.0
 42
0.4142135623729286
  0
VERTEX
  5
22EB
  8
SAPA_PROFIL
 10
-47.803995440752601
 20
61.753853309297789
 30
0.0
  0
VERTEX
  5
22EC
  8
SAPA_PROFIL
 10
-47.667187383422302
 20
61.377976260983353
 30
0.0
 42
0.4142135623732059
  0
VERTEX
  5
22ED
  8
SAPA_PROFIL
 10
-47.28267355418874
 20
61.198674517745239
 30
0.0
  0
VERTEX
  5
22EE
  8
SAPA_PROFIL
 10
-46.058890449512788
 20
61.644095141045518
 30
0.0
 42
-0.4142135623731506
  0
VERTEX
  5
22EF
  8
SAPA_PROFIL
 10
-45.674376620279119
 20
61.464793397807462
 30
0.0
  0
VERTEX
  5
22F0
  8
SAPA_PROFIL
 10
-45.475991433840207
 20
60.919734577712241
 30
0.0
 42
0.4142135623730951
  0
VERTEX
  5
22F1
  8
SAPA_PROFIL
 10
-45.091477604606759
 20
60.740432834474099
 30
0.0
  0
VERTEX
  5
22F2
  8
SAPA_PROFIL
 10
-42.828938057623589
 20
61.563929883426098
 30
0.0
  0
VERTEX
  5
22F3
  8
SAPA_PROFIL
 10
-42.442107691035098
 20
62.192951547011639
 30
0.0
 42
0.7105995015649727
  0
VERTEX
  5
22F4
  8
SAPA_PROFIL
 10
-42.800258344008512
 20
62.632011973417391
 30
0.0
  0
VERTEX
  5
22F5
  8
SAPA_PROFIL
 10
-43.458043178558469
 20
62.392597873089493
 30
0.0
  0
VERTEX
  5
22F6
  8
SAPA_PROFIL
 10
-44.38359763126121
 20
64.935537832365597
 30
0.0
 42
-0.4142135623731506
  0
VERTEX
  5
22F7
  8
SAPA_PROFIL
 10
-44.20429588802309
 20
65.320051661599152
 30
0.0
  0
VERTEX
  5
22F8
  8
SAPA_PROFIL
 10
-40.069648356565473
 20
66.824940292232071
 30
0.0
 42
-0.4142135623730951
  0
VERTEX
  5
22F9
  8
SAPA_PROFIL
 10
-39.685134527331797
 20
66.645638548994015
 30
0.0
  0
VERTEX
  5
22FA
  8
SAPA_PROFIL
 10
-38.759580074629142
 20
64.102698589717761
 30
0.0
  0
VERTEX
  5
22FB
  8
SAPA_PROFIL
 10
-39.417364909179149
 20
63.863284489389947
 30
0.0
 42
0.7105995015650586
  0
VERTEX
  5
22FC
  8
SAPA_PROFIL
 10
-39.409501624691693
 20
63.296729887415992
 30
0.0
  0
VERTEX
  5
22FD
  8
SAPA_PROFIL
 10
-38.708845040359343
 20
63.063521104118081
 30
0.0
  0
VERTEX
  5
22FE
  8
SAPA_PROFIL
 10
-30.763347835276161
 20
65.955445583213773
 30
0.0
  0
VERTEX
  5
22FF
  8
SAPA_PROFIL
 10
-30.421327691950491
 20
65.015752962427882
 30
0.0
  0
VERTEX
  5
2300
  8
SAPA_PROFIL
 10
-29.481635071164579
 20
65.357773105753552
 30
0.0
  0
VERTEX
  5
2301
  8
SAPA_PROFIL
 10
-29.823655214490248
 20
66.297465726539457
 30
0.0
  0
VERTEX
  5
2302
  8
SAPA_PROFIL
 10
-27.051561983171879
 20
67.306425149350162
 30
0.0
  0
VERTEX
  5
2303
  8
SAPA_PROFIL
 10
-27.393582126497549
 20
68.246117770136067
 30
0.0
  0
VERTEX
  5
2304
  8
SAPA_PROFIL
 10
-25.608166147004411
 20
68.895956042454685
 30
0.0
  0
VERTEX
  5
2305
  8
SAPA_PROFIL
 10
-25.309329908274041
 20
69.53681242451043
 30
0.0
  0
VERTEX
  5
2306
  8
SAPA_PROFIL
 10
-24.668473526217969
 20
69.237976185780539
 30
0.0
  0
VERTEX
  5
2307
  8
SAPA_PROFIL
 10
-22.883057546724981
 20
69.887814458099228
 30
0.0
  0
VERTEX
  5
2308
  8
SAPA_PROFIL
 10
-22.541037403399351
 20
68.948121837313423
 30
0.0
  0
VERTEX
  5
2309
  8
SAPA_PROFIL
 10
-19.768944172080879
 20
69.957081260124156
 30
0.0
  0
VERTEX
  5
230A
  8
SAPA_PROFIL
 10
-19.426924028755209
 20
69.01738863933825
 30
0.0
  0
VERTEX
  5
230B
  8
SAPA_PROFIL
 10
-18.487231407969301
 20
69.35940878266392
 30
0.0
  0
VERTEX
  5
230C
  8
SAPA_PROFIL
 10
-18.829251551294959
 20
70.299101403449839
 30
0.0
  0
VERTEX
  5
230D
  8
SAPA_PROFIL
 10
-10.8837543462116
 20
73.191025882545361
 30
0.0
  0
VERTEX
  5
230E
  8
SAPA_PROFIL
 10
-10.496923979623149
 20
73.820047546131335
 30
0.0
 42
0.7105995015650586
  0
VERTEX
  5
230F
  8
SAPA_PROFIL
 10
-10.855074632596519
 20
74.259107972537009
 30
0.0
  0
VERTEX
  5
2310
  8
SAPA_PROFIL
 10
-11.51285946714645
 20
74.01969387220899
 30
0.0
  0
VERTEX
  5
2311
  8
SAPA_PROFIL
 10
-12.438413919849109
 20
76.562633831485243
 30
0.0
 42
-0.4142135623730951
  0
VERTEX
  5
2312
  8
SAPA_PROFIL
 10
-12.259112176611
 20
76.947147660718784
 30
0.0
  0
VERTEX
  5
2313
  8
SAPA_PROFIL
 10
-8.1244646451531963
 20
78.452036291351561
 30
0.0
 42
-0.4142135623731506
  0
VERTEX
  5
2314
  8
SAPA_PROFIL
 10
-7.7399508159197419
 20
78.272734548113405
 30
0.0
  0
VERTEX
  5
2315
  8
SAPA_PROFIL
 10
-6.8143963632172229
 20
75.729794588837223
 30
0.0
  0
VERTEX
  5
2316
  8
SAPA_PROFIL
 10
-7.4721811977672266
 20
75.490380488509416
 30
0.0
 42
0.7105995015649949
  0
VERTEX
  5
2317
  8
SAPA_PROFIL
 10
-7.46431791327959
 20
74.923825886535283
 30
0.0
  0
VERTEX
  5
2318
  8
SAPA_PROFIL
 10
-6.7636613289475997
 20
74.690617103237727
 30
0.0
  0
VERTEX
  5
2319
  8
SAPA_PROFIL
 10
-4.5011217819644411
 20
75.514114152189734
 30
0.0
 42
0.4142135623730951
  0
VERTEX
  5
231A
  8
SAPA_PROFIL
 10
-4.3218200387263259
 20
75.898627981423289
 30
0.0
  0
VERTEX
  5
231B
  8
SAPA_PROFIL
 10
-4.5202052251652374
 20
76.443686801518496
 30
0.0
 42
-0.4142135623731506
  0
VERTEX
  5
231C
  8
SAPA_PROFIL
 10
-4.3409034819271248
 20
76.82820063075205
 30
0.0
  0
VERTEX
  5
231D
  8
SAPA_PROFIL
 10
-3.1171203772508331
 20
77.273621254051733
 30
0.0
 42
0.414213562373206
  0
VERTEX
  5
231E
  8
SAPA_PROFIL
 10
-2.9378186340128272
 20
77.658135083285259
 30
0.0
  0
VERTEX
  5
231F
  8
SAPA_PROFIL
 10
-3.0746266913431262
 20
78.03401213159971
 30
0.0
 42
0.4142135623729286
  0
VERTEX
  5
2320
  8
SAPA_PROFIL
 10
-3.4591405205765011
 20
78.213313874837652
 30
0.0
  0
VERTEX
  5
2321
  8
SAPA_PROFIL
 10
-4.5867716655196347
 20
77.802889702846826
 30
0.0
  0
VERTEX
  5
2322
  8
SAPA_PROFIL
 10
-6.3088979549348121
 20
79.247925237135931
 30
0.0
  0
VERTEX
  5
2323
  8
SAPA_PROFIL
 10
-5.6751290426944987
 20
80.003221635719129
 30
0.0
 42
0.5773502691896019
  0
VERTEX
  5
2324
  8
SAPA_PROFIL
 10
-6.2319815322189838
 20
81.533161276656074
 30
0.0
  0
VERTEX
  5
2325
  8
SAPA_PROFIL
 10
-7.4491691607736259
 20
81.747784282744362
 30
0.0
 42
0.1316524948697527
  0
VERTEX
  5
2326
  8
SAPA_PROFIL
 10
-7.964837471243114
 20
81.702669148662594
 30
0.0
  0
VERTEX
  5
2327
  8
SAPA_PROFIL
 10
-46.41604392188718
 20
67.707574529003566
 30
0.0
 42
0.1316524948697533
  0
VERTEX
  5
2328
  8
SAPA_PROFIL
 10
-46.840068214812113
 20
67.410669526089663
 30
0.0
  0
SEQEND
  5
2329
  8
SAPA_PROFIL
  0
POLYLINE
  5
1D59
  8
SAPA_PROFIL
 62
     4
 66
     1
 10
0.0
 20
0.0
 30
0.0
 70
     1
  0
VERTEX
  5
232A
  8
SAPA_PROFIL
 62
     4
 10
-17.788169817537291
 20
45.510219846920577
 30
0.0
  0
VERTEX
  5
232B
  8
SAPA_PROFIL
 62
     4
 10
-17.03572550222081
 20
43.442896081191542
 30
0.0
 42
1.0
  0
VERTEX
  5
232C
  8
SAPA_PROFIL
 62
     4
 10
-14.874432474413259
 20
44.229542410840573
 30
0.0
  0
VERTEX
  5
232D
  8
SAPA_PROFIL
 62
     4
 10
-15.626876789729639
 20
46.296866176569651
 30
0.0
 42
1.0
  0
SEQEND
  5
232E
  8
SAPA_PROFIL
 62
     4
  0
POLYLINE
  5
1D5A
  8
SAPA_PROFIL
 62
     4
 66
     1
 10
0.0
 20
0.0
 30
0.0
 70
     1
  0
VERTEX
  5
232F
  8
SAPA_PROFIL
 62
     4
 10
-25.647898958161029
 20
58.77180564334892
 30
0.0
  0
VERTEX
  5
2330
  8
SAPA_PROFIL
 62
     4
 10
-26.691345007036961
 20
61.638650101054687
 30
0.0
  0
VERTEX
  5
2331
  8
SAPA_PROFIL
 62
     4
 10
-27.829535888485282
 20
64.765803846863093
 30
0.0
 42
-0.6681786379192966
  0
VERTEX
  5
2332
  8
SAPA_PROFIL
 62
     4
 10
-27.14838044722201
 20
65.389967812044191
 30
0.0
  0
VERTEX
  5
2333
  8
SAPA_PROFIL
 62
     4
 10
-24.397252441944431
 20
64.107095746833579
 30
0.0
 42
0.1989123679837333
  0
VERTEX
  5
2334
  8
SAPA_PROFIL
 62
     4
 10
-23.632614034771478
 20
64.073710912102001
 30
0.0
  0
VERTEX
  5
2335
  8
SAPA_PROFIL
 62
     4
 10
-23.08215484197698
 20
64.274061673457396
 30
0.0
 42
0.1989123667755704
  0
VERTEX
  5
2336
  8
SAPA_PROFIL
 62
     4
 10
-22.517867199248329
 20
64.791136030396018
 30
0.0
  0
VERTEX
  5
2337
  8
SAPA_PROFIL
 62
     4
 10
-21.234995126109229
 20
67.542264052675932
 30
0.0
 42
-0.6681786379192936
  0
VERTEX
  5
2338
  8
SAPA_PROFIL
 62
     4
 10
-20.311994922198028
 20
67.501964993468448
 30
0.0
  0
VERTEX
  5
2339
  8
SAPA_PROFIL
 62
     4
 10
-19.173804040749712
 20
64.374811247660034
 30
0.0
  0
VERTEX
  5
233A
  8
SAPA_PROFIL
 62
     4
 10
-18.130357991873758
 20
61.50796678995426
 30
0.0
 42
-0.4142135623730951
  0
VERTEX
  5
233B
  8
SAPA_PROFIL
 62
     4
 10
-18.42919423060388
 20
60.86711040789848
 30
0.0
  0
VERTEX
  5
233C
  8
SAPA_PROFIL
 62
     4
 10
-25.007042576105238
 20
58.472969404618802
 30
0.0
 42
-0.4142135623730951
  0
SEQEND
  5
233D
  8
SAPA_PROFIL
 62
     4
  0
POLYLINE
  5
1D5B
  8
SAPA_PROFIL
 62
     4
 66
     1
 10
0.0
 20
0.0
 30
0.0
 70
     1
  0
VERTEX
  5
233E
  8
SAPA_PROFIL
 62
     4
 10
-15.85439172999868
 20
51.119917041574809
 30
0.0
  0
VERTEX
  5
233F
  8
SAPA_PROFIL
 62
     4
 10
-16.728275861274241
 20
49.312792761734549
 30
0.0
 42
-0.9251773977986363
  0
VERTEX
  5
2340
  8
SAPA_PROFIL
 62
     4
 10
-18.883049419792389
 20
48.528519324850087
 30
0.0
  0
VERTEX
  5
2341
  8
SAPA_PROFIL
 62
     4
 10
-20.714080598731009
 20
49.351134945561441
 30
0.0
  0
VERTEX
  5
2342
  8
SAPA_PROFIL
 62
     4
 10
-21.573160337115532
 20
49.038455491928289
 30
0.0
 42
-0.4142135623730769
  0
VERTEX
  5
2343
  8
SAPA_PROFIL
 62
     4
 10
-22.214016719171319
 20
49.337291730658407
 30
0.0
  0
VERTEX
  5
2344
  8
SAPA_PROFIL
 62
     4
 10
-24.963858671509691
 20
56.892420401777102
 30
0.0
 42
-0.4142135623730951
  0
VERTEX
  5
2345
  8
SAPA_PROFIL
 62
     4
 10
-24.665022432779569
 20
57.533276783832889
 30
0.0
  0
VERTEX
  5
2346
  8
SAPA_PROFIL
 62
     4
 10
-18.087174087278211
 20
59.927417787112567
 30
0.0
 42
-0.4142135623730951
  0
VERTEX
  5
2347
  8
SAPA_PROFIL
 62
     4
 10
-17.44631770522242
 20
59.628581548382449
 30
0.0
  0
VERTEX
  5
2348
  8
SAPA_PROFIL
 62
     4
 10
-14.69647575288405
 20
52.073452877263762
 30
0.0
 42
-0.4142135623730951
  0
VERTEX
  5
2349
  8
SAPA_PROFIL
 62
     4
 10
-14.99531199161417
 20
51.43259649520796
 30
0.0
  0
SEQEND
  5
234A
  8
SAPA_PROFIL
 62
     4
  0
POLYLINE
  5
1D5C
  8
SAPA_PROFIL
 62
     4
 66
     1
 10
0.0
 20
0.0
 30
0.0
 70
     1
  0
VERTEX
  5
234B
  8
SAPA_PROFIL
 62
     4
 10
-23.205012361455971
 20
49.136225480450641
 30
0.0
 42
-1.0
  0
VERTEX
  5
234C
  8
SAPA_PROFIL
 62
     4
 10
-24.42661276847771
 20
48.691599294127244
 30
0.0
  0
VERTEX
  5
234D
  8
SAPA_PROFIL
 62
     4
 10
-24.71732989030453
 20
49.490338021795289
 30
0.0
  0
VERTEX
  5
234E
  8
SAPA_PROFIL
 62
     4
 10
-24.670345259265179
 20
49.507439028961599
 30
0.0
 42
1.0
  0
VERTEX
  5
234F
  8
SAPA_PROFIL
 62
     4
 10
-24.84135533092801
 20
49.977285339354552
 30
0.0
  0
VERTEX
  5
2350
  8
SAPA_PROFIL
 62
     4
 10
-25.264217010281708
 20
49.823376274857978
 30
0.0
 42
0.4142135623730951
  0
VERTEX
  5
2351
  8
SAPA_PROFIL
 62
     4
 10
-25.443518753519719
 20
49.438862445624459
 30
0.0
  0
VERTEX
  5
2352
  8
SAPA_PROFIL
 62
     4
 10
-24.862084509866101
 20
47.841384990288482
 30
0.0
 42
0.4225789089359373
  0
VERTEX
  5
2353
  8
SAPA_PROFIL
 62
     4
 10
-23.594052551487511
 20
47.281300217659563
 30
0.0
  0
VERTEX
  5
2354
  8
SAPA_PROFIL
 62
     4
 10
-20.774974689129781
 20
48.307360647636571
 30
0.0
  0
VERTEX
  5
2355
  8
SAPA_PROFIL
 62
     4
 10
-19.685518839635058
 20
47.79933904179542
 30
0.0
  0
VERTEX
  5
2356
  8
SAPA_PROFIL
 62
     4
 10
-17.582094958182211
 20
42.020229423962107
 30
0.0
 42
0.4142135623730951
  0
VERTEX
  5
2357
  8
SAPA_PROFIL
 62
     4
 10
-16.300382194070629
 20
41.422556946501871
 30
0.0
  0
VERTEX
  5
2358
  8
SAPA_PROFIL
 62
     4
 10
-14.13908916626308
 20
42.209203276150888
 30
0.0
 42
0.4142135623730951
  0
VERTEX
  5
2359
  8
SAPA_PROFIL
 62
     4
 10
-13.54141668880284
 20
43.490916040262469
 30
0.0
  0
VERTEX
  5
235A
  8
SAPA_PROFIL
 62
     4
 10
-15.64484057025566
 20
49.270025658095669
 30
0.0
  0
VERTEX
  5
235B
  8
SAPA_PROFIL
 62
     4
 10
-15.13681896441444
 20
50.359481507590537
 30
0.0
  0
VERTEX
  5
235C
  8
SAPA_PROFIL
 62
     4
 10
-12.31774110205672
 20
51.385541937567552
 30
0.0
 42
0.4225789089359373
  0
VERTEX
  5
235D
  8
SAPA_PROFIL
 62
     4
 10
-11.706387818863471
 20
52.62966699684781
 30
0.0
  0
VERTEX
  5
235E
  8
SAPA_PROFIL
 62
     4
 10
-12.28782206251709
 20
54.227144452183794
 30
0.0
 42
0.4142135623730951
  0
VERTEX
  5
235F
  8
SAPA_PROFIL
 62
     4
 10
-12.672335891750659
 20
54.4064461954219
 30
0.0
  0
VERTEX
  5
2360
  8
SAPA_PROFIL
 62
     4
 10
-13.09519757110426
 20
54.252537130925369
 30
0.0
 42
1.0
  0
VERTEX
  5
2361
  8
SAPA_PROFIL
 62
     4
 10
-12.92418749944143
 20
53.782690820532409
 30
0.0
  0
VERTEX
  5
2362
  8
SAPA_PROFIL
 62
     4
 10
-12.87720286840206
 20
53.799791827698719
 30
0.0
  0
VERTEX
  5
2363
  8
SAPA_PROFIL
 62
     4
 10
-12.58648574657524
 20
53.001053100030681
 30
0.0
 42
-1.0
  0
VERTEX
  5
2364
  8
SAPA_PROFIL
 62
     4
 10
-13.80808615359698
 20
52.556426913707277
 30
0.0
  0
VERTEX
  5
2365
  8
SAPA_PROFIL
 62
     4
 10
-18.234111419963799
 20
64.716831390985703
 30
0.0
  0
VERTEX
  5
2366
  8
SAPA_PROFIL
 62
     4
 10
-20.097836589356049
 20
69.83737420996016
 30
0.0
  0
VERTEX
  5
2367
  8
SAPA_PROFIL
 62
     4
 10
-21.5073755205349
 20
69.324343994971656
 30
0.0
  0
VERTEX
  5
2368
  8
SAPA_PROFIL
 62
     4
 10
-23.387920060775421
 20
65.291503214099393
 30
0.0
 42
-0.4142135623730951
  0
VERTEX
  5
2369
  8
SAPA_PROFIL
 62
     4
 10
-24.052383085163999
 20
65.04965845145145
 30
0.0
  0
VERTEX
  5
236A
  8
SAPA_PROFIL
 62
     4
 10
-28.085223866036259
 20
66.930202991691971
 30
0.0
  0
VERTEX
  5
236B
  8
SAPA_PROFIL
 62
     4
 10
-29.494762797215149
 20
66.417172776703467
 30
0.0
  0
VERTEX
  5
236C
  8
SAPA_PROFIL
 62
     4
 10
-27.63103762782286
 20
61.296629957729017
 30
0.0
  0
VERTEX
  5
236D
  8
SAPA_PROFIL
 62
     4
 10
-23.30761840445366
 20
49.418133266686397
 30
0.0
  0
SEQEND
  5
236E
  8
SAPA_PROFIL
 62
     4
  0
POLYLINE
  5
1D5D
  8
SAPA_PROFIL
  6
CONTINUOUS
 62
     7
 66
     1
 10
0.0
 20
0.0
 30
0.0
 70
   129
  0
VERTEX
  5
236F
  8
SAPA_PROFIL
  6
CONTINUOUS
 62
     7
 10
-30.311586216841761
 20
17.69978471765393
 30
0.0
 42
-0.4040262258351549
  0
VERTEX
  5
2370
  8
SAPA_PROFIL
  6
CONTINUOUS
 62
     7
 10
-30.94618821578803
 20
17.982327731338948
 30
0.0
  0
VERTEX
  5
2371
  8
SAPA_PROFIL
  6
CONTINUOUS
 62
     7
 10
-31.695858081246119
 20
19.837825759736859
 30
0.0
 42
-0.4244748162096148
  0
VERTEX
  5
2372
  8
SAPA_PROFIL
  6
CONTINUOUS
 62
     7
 10
-31.40327622562603
 20
20.49497536683737
 30
0.0
  0
VERTEX
  5
2373
  8
SAPA_PROFIL
  6
CONTINUOUS
 62
     7
 10
-25.765371844913322
 20
22.547004745055801
 30
0.0
 42
0.4142135623731088
  0
VERTEX
  5
2374
  8
SAPA_PROFIL
  6
CONTINUOUS
 62
     7
 10
-25.586070101675318
 20
22.931518574289331
 30
0.0
  0
VERTEX
  5
2375
  8
SAPA_PROFIL
  6
CONTINUOUS
 62
     7
 10
-26.91994866064443
 20
26.596319795354649
 30
0.0
 42
-0.21342176528335
  0
VERTEX
  5
2376
  8
SAPA_PROFIL
  6
CONTINUOUS
 62
     7
 10
-26.902457427581851
 20
26.840643467490231
 30
0.0
 42
0.213421765283341
  0
VERTEX
  5
2377
  8
SAPA_PROFIL
  6
CONTINUOUS
 62
     7
 10
-26.88496619451826
 20
27.08496713962592
 30
0.0
  0
VERTEX
  5
2378
  8
SAPA_PROFIL
  6
CONTINUOUS
 62
     7
 10
-27.074030279813829
 20
27.604416444805398
 30
0.0
 42
0.4142135623730951
  0
VERTEX
  5
2379
  8
SAPA_PROFIL
  6
CONTINUOUS
 62
     7
 10
-27.45854410904747
 20
27.783718188043451
 30
0.0
  0
VERTEX
  5
237A
  8
SAPA_PROFIL
  6
CONTINUOUS
 62
     7
 10
-29.0560215643834
 20
27.202283944389819
 30
0.0
  0
VERTEX
  5
237B
  8
SAPA_PROFIL
  6
CONTINUOUS
 62
     7
 10
-29.448029122344568
 20
26.564843692679631
 30
0.0
 42
0.7105995015649539
  0
VERTEX
  5
237C
  8
SAPA_PROFIL
  6
CONTINUOUS
 62
     7
 10
-29.089878469371168
 20
26.12578326627391
 30
0.0
  0
VERTEX
  5
237D
  8
SAPA_PROFIL
  6
CONTINUOUS
 62
     7
 10
-28.714001421057841
 20
26.262591323603878
 30
0.0
 42
-0.4142135623731206
  0
VERTEX
  5
237E
  8
SAPA_PROFIL
  6
CONTINUOUS
 62
     7
 10
-28.329487591824321
 20
26.083289580365829
 30
0.0
  0
VERTEX
  5
237F
  8
SAPA_PROFIL
  6
CONTINUOUS
 62
     7
 10
-27.508639247842719
 20
23.828027290479611
 30
0.0
 42
-0.4142135623730951
  0
VERTEX
  5
2380
  8
SAPA_PROFIL
  6
CONTINUOUS
 62
     7
 10
-27.68794099108073
 20
23.443513461246202
 30
0.0
  0
VERTEX
  5
2381
  8
SAPA_PROFIL
  6
CONTINUOUS
 62
     7
 10
-32.292434832930667
 20
21.767614758950739
 30
0.0
 42
-0.4142135623731258
  0
VERTEX
  5
2382
  8
SAPA_PROFIL
  6
CONTINUOUS
 62
     7
 10
-32.6769486621642
 20
21.946916502188799
 30
0.0
  0
VERTEX
  5
2383
  8
SAPA_PROFIL
  6
CONTINUOUS
 62
     7
 10
-33.497797006145788
 20
24.202178792075021
 30
0.0
 42
-0.4142135623731257
  0
VERTEX
  5
2384
  8
SAPA_PROFIL
  6
CONTINUOUS
 62
     7
 10
-33.318495262907788
 20
24.58669262130843
 30
0.0
  0
VERTEX
  5
2385
  8
SAPA_PROFIL
  6
CONTINUOUS
 62
     7
 10
-32.472771904201352
 20
24.894510750301212
 30
0.0
 42
0.710599501565072
  0
VERTEX
  5
2386
  8
SAPA_PROFIL
  6
CONTINUOUS
 62
     7
 10
-32.480635188688893
 20
25.461065352275511
 30
0.0
  0
VERTEX
  5
2387
  8
SAPA_PROFIL
  6
CONTINUOUS
 62
     7
 10
-33.190669095841493
 20
25.697395313756829
 30
0.0
  0
VERTEX
  5
2388
  8
SAPA_PROFIL
  6
CONTINUOUS
 62
     7
 10
-35.351962123649059
 20
24.91074898410778
 30
0.0
 42
0.4244748162096024
  0
VERTEX
  5
2389
  8
SAPA_PROFIL
  6
CONTINUOUS
 62
     7
 10
-35.527511237020583
 20
24.51645921984726
 30
0.0
  0
VERTEX
  5
238A
  8
SAPA_PROFIL
  6
CONTINUOUS
 62
     7
 10
-32.431626152793513
 20
16.853874748189071
 30
0.0
 42
0.4040262258351507
  0
VERTEX
  5
238B
  8
SAPA_PROFIL
  6
CONTINUOUS
 62
     7
 10
-29.893218157008508
 20
15.72370269344913
 30
0.0
  0
VERTEX
  5
238C
  8
SAPA_PROFIL
  6
CONTINUOUS
 62
     7
 10
-29.881365377157071
 20
15.728016752508379
 30
0.0
 42
-0.8769764629927435
  0
VERTEX
  5
238D
  8
SAPA_PROFIL
  6
CONTINUOUS
 62
     7
 10
-28.965768797480909
 20
13.96917208743338
 30
0.0
  0
VERTEX
  5
238E
  8
SAPA_PROFIL
  6
CONTINUOUS
 62
     7
 10
-30.947204464022491
 20
12.58175589724231
 30
0.0
 42
0.3394542588633873
  0
VERTEX
  5
238F
  8
SAPA_PROFIL
  6
CONTINUOUS
 62
     7
 10
-31.057039319353009
 20
12.23340424095789
 30
0.0
  0
VERTEX
  5
2390
  8
SAPA_PROFIL
  6
CONTINUOUS
 62
     7
 10
-15.96771166865733
 20
-29.224182754078019
 30
0.0
 42
0.4142135623730951
  0
VERTEX
  5
2391
  8
SAPA_PROFIL
  6
CONTINUOUS
 62
     7
 10
-15.32685528660153
 20
-29.52301899280809
 30
0.0
  0
VERTEX
  5
2392
  8
SAPA_PROFIL
  6
CONTINUOUS
 62
     7
 10
30.718083131907012
 20
-12.76403196985069
 30
0.0
 42
0.4142135623730951
  0
VERTEX
  5
2393
  8
SAPA_PROFIL
  6
CONTINUOUS
 62
     7
 10
31.01691937063714
 20
-12.12317558779494
 30
0.0
  0
VERTEX
  5
2394
  8
SAPA_PROFIL
  6
CONTINUOUS
 62
     7
 10
15.927591719943329
 20
29.334411407241699
 30
0.0
 42
0.3394542588633794
  0
VERTEX
  5
2395
  8
SAPA_PROFIL
  6
CONTINUOUS
 62
     7
 10
15.619537210883321
 20
29.530663773671851
 30
0.0
  0
VERTEX
  5
2396
  8
SAPA_PROFIL
  6
CONTINUOUS
 62
     7
 10
13.20985549259745
 20
29.319843940616408
 30
0.0
 42
-0.8769764629927569
  0
VERTEX
  5
2397
  8
SAPA_PROFIL
  6
CONTINUOUS
 62
     7
 10
12.78067960652413
 20
31.255731259494102
 30
0.0
  0
VERTEX
  5
2398
  8
SAPA_PROFIL
  6
CONTINUOUS
 62
     7
 10
12.79253238637563
 20
31.260045318553349
 30
0.0
 42
0.4040262258351565
  0
VERTEX
  5
2399
  8
SAPA_PROFIL
  6
CONTINUOUS
 62
     7
 10
14.010605132314369
 20
33.757464548875021
 30
0.0
  0
VERTEX
  5
239A
  8
SAPA_PROFIL
  6
CONTINUOUS
 62
     7
 10
11.456776341063399
 20
41.617341376473121
 30
0.0
 42
0.4244748162095171
  0
VERTEX
  5
239B
  8
SAPA_PROFIL
  6
CONTINUOUS
 62
     7
 10
11.06885334317769
 20
41.806544064396853
 30
0.0
  0
VERTEX
  5
239C
  8
SAPA_PROFIL
  6
CONTINUOUS
 62
     7
 10
8.9075603153700627
 20
41.019897734747808
 30
0.0
  0
VERTEX
  5
239D
  8
SAPA_PROFIL
  6
CONTINUOUS
 62
     7
 10
8.5155527574078178
 20
40.382457483037619
 30
0.0
 42
0.710599501565103
  0
VERTEX
  5
239E
  8
SAPA_PROFIL
  6
CONTINUOUS
 62
     7
 10
8.8737034103813812
 20
39.943397056631682
 30
0.0
  0
VERTEX
  5
239F
  8
SAPA_PROFIL
  6
CONTINUOUS
 62
     7
 10
9.7194267690877041
 20
40.251215185624403
 30
0.0
 42
-0.4142135623731159
  0
VERTEX
  5
23A0
  8
SAPA_PROFIL
  6
CONTINUOUS
 62
     7
 10
10.10394059832225
 20
40.071913442386688
 30
0.0
  0
VERTEX
  5
23A1
  8
SAPA_PROFIL
  6
CONTINUOUS
 62
     7
 10
10.924788942302881
 20
37.816651152500192
 30
0.0
 42
-0.4142135623731019
  0
VERTEX
  5
23A2
  8
SAPA_PROFIL
  6
CONTINUOUS
 62
     7
 10
10.74548719906471
 20
37.432137323266659
 30
0.0
  0
VERTEX
  5
23A3
  8
SAPA_PROFIL
  6
CONTINUOUS
 62
     7
 10
6.140993357214767
 20
35.75623862097126
 30
0.0
 42
-0.4142135623730951
  0
VERTEX
  5
23A4
  8
SAPA_PROFIL
  6
CONTINUOUS
 62
     7
 10
5.7564795279812984
 20
35.935540364209317
 30
0.0
  0
VERTEX
  5
23A5
  8
SAPA_PROFIL
  6
CONTINUOUS
 62
     7
 10
4.9356311839997034
 20
38.190802654095528
 30
0.0
 42
-0.4142135623731367
  0
VERTEX
  5
23A6
  8
SAPA_PROFIL
  6
CONTINUOUS
 62
     7
 10
5.1149329272377591
 20
38.575316483328997
 30
0.0
  0
VERTEX
  5
23A7
  8
SAPA_PROFIL
  6
CONTINUOUS
 62
     7
 10
5.4908099755511444
 20
38.712124540658863
 30
0.0
 42
0.7105995015649319
  0
VERTEX
  5
23A8
  8
SAPA_PROFIL
  6
CONTINUOUS
 62
     7
 10
5.482946691063546
 20
39.278679142632882
 30
0.0
  0
VERTEX
  5
23A9
  8
SAPA_PROFIL
  6
CONTINUOUS
 62
     7
 10
4.7729127839120897
 20
39.515009104114881
 30
0.0
  0
VERTEX
  5
23AA
  8
SAPA_PROFIL
  6
CONTINUOUS
 62
     7
 10
3.1754353285759862
 20
38.933574860461249
 30
0.0
 42
0.4142135623731159
  0
VERTEX
  5
23AB
  8
SAPA_PROFIL
  6
CONTINUOUS
 62
     7
 10
2.996133585337986
 20
38.549061031227779
 30
0.0
  0
VERTEX
  5
23AC
  8
SAPA_PROFIL
  6
CONTINUOUS
 62
     7
 10
3.1851976706335559
 20
38.029611726048358
 30
0.0
 42
0.2134217652833476
  0
VERTEX
  5
23AD
  8
SAPA_PROFIL
  6
CONTINUOUS
 62
     7
 10
3.3556449617271928
 20
37.853692082577709
 30
0.0
 42
-0.2134217652833586
  0
VERTEX
  5
23AE
  8
SAPA_PROFIL
  6
CONTINUOUS
 62
     7
 10
3.5260922528199208
 20
37.677772439106718
 30
0.0
  0
VERTEX
  5
23AF
  8
SAPA_PROFIL
  6
CONTINUOUS
 62
     7
 10
4.8599708117910154
 20
34.012971218041969
 30
0.0
 42
0.4142135623731019
  0
VERTEX
  5
23B0
  8
SAPA_PROFIL
  6
CONTINUOUS
 62
     7
 10
5.2444846410244281
 20
33.833669474803919
 30
0.0
  0
VERTEX
  5
23B1
  8
SAPA_PROFIL
  6
CONTINUOUS
 62
     7
 10
10.88238902173714
 20
35.885698853022348
 30
0.0
 42
-0.4244748162095981
  0
VERTEX
  5
23B2
  8
SAPA_PROFIL
  6
CONTINUOUS
 62
     7
 10
11.528927351547511
 20
35.570361039816873
 30
0.0
  0
VERTEX
  5
23B3
  8
SAPA_PROFIL
  6
CONTINUOUS
 62
     7
 10
12.14733805939159
 20
33.667088585072008
 30
0.0
 42
-0.4040262258351559
  0
VERTEX
  5
23B4
  8
SAPA_PROFIL
  6
CONTINUOUS
 62
     7
 10
11.842819872906199
 20
33.042733777492167
 30
0.0
  0
VERTEX
  5
23B5
  8
SAPA_PROFIL
  6
CONTINUOUS
 62
     7
 10
-7.3549979303955411
 20
26.055299534224499
 30
0.0
 42
-0.4142135623730951
  0
VERTEX
  5
23B6
  8
SAPA_PROFIL
  6
CONTINUOUS
 62
     7
 10
-8.6367106945070873
 20
26.652972011684771
 30
0.0
  0
VERTEX
  5
23B7
  8
SAPA_PROFIL
  6
CONTINUOUS
 62
     7
 10
-9.8337811961469583
 20
29.94189618443545
 30
0.0
 42
-0.4142135623730951
  0
VERTEX
  5
23B8
  8
SAPA_PROFIL
  6
CONTINUOUS
 62
     7
 10
-9.2361087186867508
 20
31.223608948547049
 30
0.0
  0
VERTEX
  5
23B9
  8
SAPA_PROFIL
  6
CONTINUOUS
 62
     7
 10
-7.3567234771159056
 20
31.907649235198051
 30
0.0
 42
0.4142135623730909
  0
VERTEX
  5
23BA
  8
SAPA_PROFIL
  6
CONTINUOUS
 62
     7
 10
-6.759050999655642
 20
33.189361999309597
 30
0.0
  0
VERTEX
  5
23BB
  8
SAPA_PROFIL
  6
CONTINUOUS
 62
     7
 10
-13.154827679845649
 20
50.76161400800612
 30
0.0
 42
0.4142135623730951
  0
VERTEX
  5
23BC
  8
SAPA_PROFIL
  6
CONTINUOUS
 62
     7
 10
-13.53934150907912
 20
50.940915751244177
 30
0.0
  0
VERTEX
  5
23BD
  8
SAPA_PROFIL
  6
CONTINUOUS
 62
     7
 10
-15.065650468654489
 20
50.385384721664927
 30
0.0
  0
VERTEX
  5
23BE
  8
SAPA_PROFIL
  6
CONTINUOUS
 62
     7
 10
-15.626188339211581
 20
49.183307379047669
 30
0.0
 42
0.1989123673804336
  0
VERTEX
  5
23BF
  8
SAPA_PROFIL
  6
CONTINUOUS
 62
     7
 10
-15.63620378933706
 20
48.953915857527022
 30
0.0
  0
VERTEX
  5
23C0
  8
SAPA_PROFIL
  6
CONTINUOUS
 62
     7
 10
-15.22577961734544
 20
47.826284712584588
 30
0.0
  0
VERTEX
  5
23C1
  8
SAPA_PROFIL
  6
CONTINUOUS
 62
     7
 10
-14.61497941383465
 20
48.048597805746283
 30
0.0
  0
VERTEX
  5
23C2
  8
SAPA_PROFIL
  6
CONTINUOUS
 62
     7
 10
-14.729971362759899
 20
46.542185892727559
 30
0.0
 42
0.5450207774087864
  0
VERTEX
  5
23C3
  8
SAPA_PROFIL
  6
CONTINUOUS
 62
     7
 10
-14.32823557312372
 20
46.237444038167659
 30
0.0
  0
VERTEX
  5
23C4
  8
SAPA_PROFIL
  6
CONTINUOUS
 62
     7
 10
-13.999343155848409
 20
46.357151088331698
 30
0.0
  0
VERTEX
  5
23C5
  8
SAPA_PROFIL
  6
CONTINUOUS
 62
     7
 10
-14.11433510477366
 20
44.850739175312867
 30
0.0
 42
0.54502077740915
  0
VERTEX
  5
23C6
  8
SAPA_PROFIL
  6
CONTINUOUS
 62
     7
 10
-13.71259931513719
 20
44.545997320753081
 30
0.0
  0
VERTEX
  5
23C7
  8
SAPA_PROFIL
  6
CONTINUOUS
 62
     7
 10
-13.38370689786222
 20
44.665704370917062
 30
0.0
  0
VERTEX
  5
23C8
  8
SAPA_PROFIL
  6
CONTINUOUS
 62
     7
 10
-13.49869884678748
 20
43.159292457898289
 30
0.0
 42
0.5450207774088274
  0
VERTEX
  5
23C9
  8
SAPA_PROFIL
  6
CONTINUOUS
 62
     7
 10
-13.096963057151299
 20
42.854550603338332
 30
0.0
  0
VERTEX
  5
23CA
  8
SAPA_PROFIL
  6
CONTINUOUS
 62
     7
 10
-12.76807063987604
 20
42.974257653502427
 30
0.0
  0
VERTEX
  5
23CB
  8
SAPA_PROFIL
  6
CONTINUOUS
 62
     7
 10
-12.883062588801289
 20
41.467845740483597
 30
0.0
 42
0.5450207774088203
  0
VERTEX
  5
23CC
  8
SAPA_PROFIL
  6
CONTINUOUS
 62
     7
 10
-12.481326799165119
 20
41.163103885923697
 30
0.0
  0
VERTEX
  5
23CD
  8
SAPA_PROFIL
  6
CONTINUOUS
 62
     7
 10
-12.152434381889799
 20
41.282810936087792
 30
0.0
  0
VERTEX
  5
23CE
  8
SAPA_PROFIL
  6
CONTINUOUS
 62
     7
 10
-12.26742633081505
 20
39.776399023069018
 30
0.0
 42
0.5450207774087519
  0
VERTEX
  5
23CF
  8
SAPA_PROFIL
  6
CONTINUOUS
 62
     7
 10
-11.86569054117893
 20
39.471657168509068
 30
0.0
  0
VERTEX
  5
23D0
  8
SAPA_PROFIL
  6
CONTINUOUS
 62
     7
 10
-11.536798123903621
 20
39.591364218673171
 30
0.0
  0
VERTEX
  5
23D1
  8
SAPA_PROFIL
  6
CONTINUOUS
 62
     7
 10
-11.65179007282887
 20
38.08495230565439
 30
0.0
 42
0.5450207774090911
  0
VERTEX
  5
23D2
  8
SAPA_PROFIL
  6
CONTINUOUS
 62
     7
 10
-11.250054283192471
 20
37.780210451094547
 30
0.0
  0
VERTEX
  5
23D3
  8
SAPA_PROFIL
  6
CONTINUOUS
 62
     7
 10
-10.921161865917441
 20
37.899917501258528
 30
0.0
  0
VERTEX
  5
23D4
  8
SAPA_PROFIL
  6
CONTINUOUS
 62
     7
 10
-11.036153814842629
 20
36.393505588239748
 30
0.0
 42
0.5450207774088274
  0
VERTEX
  5
23D5
  8
SAPA_PROFIL
  6
CONTINUOUS
 62
     7
 10
-10.634418025206511
 20
36.088763733679862
 30
0.0
  0
VERTEX
  5
23D6
  8
SAPA_PROFIL
  6
CONTINUOUS
 62
     7
 10
-10.3055256079312
 20
36.2084707838439
 30
0.0
  0
VERTEX
  5
23D7
  8
SAPA_PROFIL
  6
CONTINUOUS
 62
     7
 10
-10.420517556856449
 20
34.702058870825113
 30
0.0
 42
0.5450207774088348
  0
VERTEX
  5
23D8
  8
SAPA_PROFIL
  6
CONTINUOUS
 62
     7
 10
-10.018781767220331
 20
34.397317016265163
 30
0.0
  0
VERTEX
  5
23D9
  8
SAPA_PROFIL
  6
CONTINUOUS
 62
     7
 10
-9.6898893499449628
 20
34.517024066429201
 30
0.0
  0
VERTEX
  5
23DA
  8
SAPA_PROFIL
  6
CONTINUOUS
 62
     7
 10
-9.6043843141135881
 20
34.28210091123276
 30
0.0
 42
-0.4142135623730951
  0
VERTEX
  5
23DB
  8
SAPA_PROFIL
  6
CONTINUOUS
 62
     7
 10
-10.20205679157379
 20
33.000388147121221
 30
0.0
  0
VERTEX
  5
23DC
  8
SAPA_PROFIL
  6
CONTINUOUS
 62
     7
 10
-13.39701170224685
 20
31.837519659813609
 30
0.0
 42
-0.4142135623730951
  0
VERTEX
  5
23DD
  8
SAPA_PROFIL
  6
CONTINUOUS
 62
     7
 10
-14.6787244663584
 20
32.435192137273823
 30
0.0
  0
VERTEX
  5
23DE
  8
SAPA_PROFIL
  6
CONTINUOUS
 62
     7
 10
-15.072047631182899
 20
33.515838651177603
 30
0.0
  0
VERTEX
  5
23DF
  8
SAPA_PROFIL
  6
CONTINUOUS
 62
     7
 10
-14.74315521390781
 20
33.635545701341591
 30
0.0
 42
0.5450207774091157
  0
VERTEX
  5
23E0
  8
SAPA_PROFIL
  6
CONTINUOUS
 62
     7
 10
-14.631292032919809
 20
34.12722229355888
 30
0.0
  0
VERTEX
  5
23E1
  8
SAPA_PROFIL
  6
CONTINUOUS
 62
     7
 10
-15.687683889169129
 20
35.207285368592302
 30
0.0
  0
VERTEX
  5
23E2
  8
SAPA_PROFIL
  6
CONTINUOUS
 62
     7
 10
-15.358791471894049
 20
35.32699241875622
 30
0.0
 42
0.5450207774091194
  0
VERTEX
  5
23E3
  8
SAPA_PROFIL
  6
CONTINUOUS
 62
     7
 10
-15.24692829090605
 20
35.818669010973558
 30
0.0
  0
VERTEX
  5
23E4
  8
SAPA_PROFIL
  6
CONTINUOUS
 62
     7
 10
-16.303320147155318
 20
36.898732086006873
 30
0.0
  0
VERTEX
  5
23E5
  8
SAPA_PROFIL
  6
CONTINUOUS
 62
     7
 10
-15.97442772988023
 20
37.018439136170862
 30
0.0
 42
0.5450207774093996
  0
VERTEX
  5
23E6
  8
SAPA_PROFIL
  6
CONTINUOUS
 62
     7
 10
-15.862564548892291
 20
37.510115728388257
 30
0.0
  0
VERTEX
  5
23E7
  8
SAPA_PROFIL
  6
CONTINUOUS
 62
     7
 10
-16.9189564051415
 20
38.590178803421573
 30
0.0
  0
VERTEX
  5
23E8
  8
SAPA_PROFIL
  6
CONTINUOUS
 62
     7
 10
-16.590063987866468
 20
38.70988585358549
 30
0.0
 42
0.5450207774091379
  0
VERTEX
  5
23E9
  8
SAPA_PROFIL
  6
CONTINUOUS
 62
     7
 10
-16.478200806878419
 20
39.201562445802828
 30
0.0
  0
VERTEX
  5
23EA
  8
SAPA_PROFIL
  6
CONTINUOUS
 62
     7
 10
-17.534592663127739
 20
40.281625520836137
 30
0.0
  0
VERTEX
  5
23EB
  8
SAPA_PROFIL
  6
CONTINUOUS
 62
     7
 10
-17.20570024585265
 20
40.401332571000182
 30
0.0
 42
0.5450207774090506
  0
VERTEX
  5
23EC
  8
SAPA_PROFIL
  6
CONTINUOUS
 62
     7
 10
-17.093837064864658
 20
40.893009163217407
 30
0.0
  0
VERTEX
  5
23ED
  8
SAPA_PROFIL
  6
CONTINUOUS
 62
     7
 10
-18.150228921113921
 20
41.973072238250772
 30
0.0
  0
VERTEX
  5
23EE
  8
SAPA_PROFIL
  6
CONTINUOUS
 62
     7
 10
-17.821336503838829
 20
42.092779288414746
 30
0.0
 42
0.5450207774091257
  0
VERTEX
  5
23EF
  8
SAPA_PROFIL
  6
CONTINUOUS
 62
     7
 10
-17.70947332285084
 20
42.584455880632099
 30
0.0
  0
VERTEX
  5
23F0
  8
SAPA_PROFIL
  6
CONTINUOUS
 62
     7
 10
-18.76586517910016
 20
43.664518955665407
 30
0.0
  0
VERTEX
  5
23F1
  8
SAPA_PROFIL
  6
CONTINUOUS
 62
     7
 10
-18.436972761825071
 20
43.784226005829453
 30
0.0
 42
0.545020777409241
  0
VERTEX
  5
23F2
  8
SAPA_PROFIL
  6
CONTINUOUS
 62
     7
 10
-18.325109580837079
 20
44.275902598046798
 30
0.0
  0
VERTEX
  5
23F3
  8
SAPA_PROFIL
  6
CONTINUOUS
 62
     7
 10
-19.381501437086339
 20
45.355965673080043
 30
0.0
  0
VERTEX
  5
23F4
  8
SAPA_PROFIL
  6
CONTINUOUS
 62
     7
 10
-19.052609019811261
 20
45.475672723244017
 30
0.0
 42
0.54502077740936
  0
VERTEX
  5
23F5
  8
SAPA_PROFIL
  6
CONTINUOUS
 62
     7
 10
-18.940745838823261
 20
45.96734931546149
 30
0.0
  0
VERTEX
  5
23F6
  8
SAPA_PROFIL
  6
CONTINUOUS
 62
     7
 10
-19.997137695072521
 20
47.047412390494678
 30
0.0
  0
VERTEX
  5
23F7
  8
SAPA_PROFIL
  6
CONTINUOUS
 62
     7
 10
-19.668245277797439
 20
47.167119440658723
 30
0.0
 42
0.6681786379193133
  0
VERTEX
  5
23F8
  8
SAPA_PROFIL
  6
CONTINUOUS
 62
     7
 10
-19.644065842272941
 20
47.720919563005452
 30
0.0
  0
VERTEX
  5
23F9
  8
SAPA_PROFIL
  6
CONTINUOUS
 62
     7
 10
-20.846143184890199
 20
48.281457433562537
 30
0.0
  0
VERTEX
  5
23FA
  8
SAPA_PROFIL
  6
CONTINUOUS
 62
     7
 10
-22.372452144466649
 20
47.725926403982889
 30
0.0
 42
0.4142135623730811
  0
VERTEX
  5
23FB
  8
SAPA_PROFIL
  6
CONTINUOUS
 62
     7
 10
-22.551753887704649
 20
47.341412574749477
 30
0.0
  0
VERTEX
  5
23FC
  8
SAPA_PROFIL
  6
CONTINUOUS
 62
     7
 10
-16.155977207514749
 20
29.7691605660529
 30
0.0
 42
0.4142135623730951
  0
VERTEX
  5
23FD
  8
SAPA_PROFIL
  6
CONTINUOUS
 62
     7
 10
-14.874264443403201
 20
29.171488088592699
 30
0.0
  0
VERTEX
  5
23FE
  8
SAPA_PROFIL
  6
CONTINUOUS
 62
     7
 10
-12.99487920183134
 20
29.855528375244042
 30
0.0
 42
-0.4142135623731013
  0
VERTEX
  5
23FF
  8
SAPA_PROFIL
  6
CONTINUOUS
 62
     7
 10
-11.71316643771882
 20
29.257855897784111
 30
0.0
  0
VERTEX
  5
2400
  8
SAPA_PROFIL
  6
CONTINUOUS
 62
     7
 10
-10.516095936078949
 20
25.968931725033428
 30
0.0
 42
-0.4142135623730951
  0
VERTEX
  5
2401
  8
SAPA_PROFIL
  6
CONTINUOUS
 62
     7
 10
-11.113768413539161
 20
24.687218960921829
 30
0.0
  0
SEQEND
  5
2402
  8
SAPA_PROFIL
  6
CONTINUOUS
 62
     7
  0
POLYLINE
  5
1D5E
  8
SAPA_PROFIL
  6
CONTINUOUS
 62
     7
 66
     1
 10
0.0
 20
0.0
 30
0.0
 70
   129
  0
VERTEX
  5
2403
  8
SAPA_PROFIL
  6
CONTINUOUS
 62
     7
 10
28.47042229490836
 20
-10.389580293816319
 30
0.0
 42
-0.4142135623730888
  0
VERTEX
  5
2404
  8
SAPA_PROFIL
  6
CONTINUOUS
 62
     7
 10
27.872749817448099
 20
-11.671293057927921
 30
0.0
  0
VERTEX
  5
2405
  8
SAPA_PROFIL
  6
CONTINUOUS
 62
     7
 10
-13.84960254544529
 20
-26.856987421587242
 30
0.0
 42
-0.4142135623730951
  0
VERTEX
  5
2406
  8
SAPA_PROFIL
  6
CONTINUOUS
 62
     7
 10
-15.131315309556779
 20
-26.25931494412697
 30
0.0
  0
VERTEX
  5
2407
  8
SAPA_PROFIL
  6
CONTINUOUS
 62
     7
 10
-18.38050667115067
 20
-17.332235046660848
 30
0.0
 42
-0.4142135623730992
  0
VERTEX
  5
2408
  8
SAPA_PROFIL
  6
CONTINUOUS
 62
     7
 10
-17.782834193690459
 20
-16.050522282549249
 30
0.0
  0
VERTEX
  5
2409
  8
SAPA_PROFIL
  6
CONTINUOUS
 62
     7
 10
-13.64818666223249
 20
-14.54563365191637
 30
0.0
 42
0.4142135623730951
  0
VERTEX
  5
240A
  8
SAPA_PROFIL
  6
CONTINUOUS
 62
     7
 10
-13.349350423502299
 20
-13.90477726986057
 30
0.0
  0
VERTEX
  5
240B
  8
SAPA_PROFIL
  6
CONTINUOUS
 62
     7
 10
-14.067592724486239
 20
-11.931422766210121
 30
0.0
 42
0.4142135623730812
  0
VERTEX
  5
240C
  8
SAPA_PROFIL
  6
CONTINUOUS
 62
     7
 10
-14.452106553719711
 20
-11.752121022972119
 30
0.0
  0
VERTEX
  5
240D
  8
SAPA_PROFIL
  6
CONTINUOUS
 62
     7
 10
-14.921952864112709
 20
-11.92313109463492
 30
0.0
 42
0.4142135623730258
  0
VERTEX
  5
240E
  8
SAPA_PROFIL
  6
CONTINUOUS
 62
     7
 10
-15.10125460735077
 20
-12.30764492386839
 30
0.0
  0
VERTEX
  5
240F
  8
SAPA_PROFIL
  6
CONTINUOUS
 62
     7
 10
-14.98612141834025
 20
-12.623970760905589
 30
0.0
 42
-0.5643553431125478
  0
VERTEX
  5
2410
  8
SAPA_PROFIL
  6
CONTINUOUS
 62
     7
 10
-19.686644344814621
 20
-12.353075416244449
 30
0.0
  0
VERTEX
  5
2411
  8
SAPA_PROFIL
  6
CONTINUOUS
 62
     7
 10
-19.462878731776641
 20
-11.873208510512599
 30
0.0
  0
VERTEX
  5
2412
  8
SAPA_PROFIL
  6
CONTINUOUS
 62
     7
 10
-19.942745637508381
 20
-11.649442897469889
 30
0.0
 42
-0.5643553431119912
  0
VERTEX
  5
2413
  8
SAPA_PROFIL
  6
CONTINUOUS
 62
     7
 10
-16.51606434099887
 20
-8.4204871278455471
 30
0.0
  0
VERTEX
  5
2414
  8
SAPA_PROFIL
  6
CONTINUOUS
 62
     7
 10
-16.400931151988289
 20
-8.736812964881949
 30
0.0
 42
0.4142135623730531
  0
VERTEX
  5
2415
  8
SAPA_PROFIL
  6
CONTINUOUS
 62
     7
 10
-16.016417322754869
 20
-8.9161147081200056
 30
0.0
  0
VERTEX
  5
2416
  8
SAPA_PROFIL
  6
CONTINUOUS
 62
     7
 10
-15.546571012361881
 20
-8.7451046364571994
 30
0.0
 42
0.4142135623731091
  0
VERTEX
  5
2417
  8
SAPA_PROFIL
  6
CONTINUOUS
 62
     7
 10
-15.367269269123771
 20
-8.3605908072236712
 30
0.0
  0
VERTEX
  5
2418
  8
SAPA_PROFIL
  6
CONTINUOUS
 62
     7
 10
-16.085511570107649
 20
-6.3872363035732738
 30
0.0
 42
0.4142135623730951
  0
VERTEX
  5
2419
  8
SAPA_PROFIL
  6
CONTINUOUS
 62
     7
 10
-16.72636795216351
 20
-6.0884000648431416
 30
0.0
  0
VERTEX
  5
241A
  8
SAPA_PROFIL
  6
CONTINUOUS
 62
     7
 10
-20.86101548362149
 20
-7.5932886954761321
 30
0.0
 42
-0.4142135623730951
  0
VERTEX
  5
241B
  8
SAPA_PROFIL
  6
CONTINUOUS
 62
     7
 10
-22.142728247733029
 20
-6.9956162180158676
 30
0.0
  0
VERTEX
  5
241C
  8
SAPA_PROFIL
  6
CONTINUOUS
 62
     7
 10
-28.638672324401849
 20
10.85184345066881
 30
0.0
 42
-0.3394542588633977
  0
VERTEX
  5
241D
  8
SAPA_PROFIL
  6
CONTINUOUS
 62
     7
 10
-28.272556139967438
 20
12.013015638283321
 30
0.0
  0
VERTEX
  5
241E
  8
SAPA_PROFIL
  6
CONTINUOUS
 62
     7
 10
-27.818615924778332
 20
12.330867998855471
 30
0.0
 42
0.4002077966304456
  0
VERTEX
  5
241F
  8
SAPA_PROFIL
  6
CONTINUOUS
 62
     7
 10
-27.00206928396625
 20
16.389021090623089
 30
0.0
 42
-0.478297483036658
  0
VERTEX
  5
2420
  8
SAPA_PROFIL
  6
CONTINUOUS
 62
     7
 10
-26.850947731977389
 20
16.830998572748911
 30
0.0
  0
VERTEX
  5
2421
  8
SAPA_PROFIL
  6
CONTINUOUS
 62
     7
 10
9.7502619613444494
 20
30.152749439253569
 30
0.0
 42
-0.4782974830366494
  0
VERTEX
  5
2422
  8
SAPA_PROFIL
  6
CONTINUOUS
 62
     7
 10
10.15012543575193
 20
29.911314106262409
 30
0.0
 42
0.400207796630451
  0
VERTEX
  5
2423
  8
SAPA_PROFIL
  6
CONTINUOUS
 62
     7
 10
13.384166978092709
 20
27.3274545444329
 30
0.0
  0
VERTEX
  5
2424
  8
SAPA_PROFIL
  6
CONTINUOUS
 62
     7
 10
13.936216916532089
 20
27.375752655746449
 30
0.0
 42
-0.3394542588633866
  0
VERTEX
  5
2425
  8
SAPA_PROFIL
  6
CONTINUOUS
 62
     7
 10
14.963065280065219
 20
26.721578100980249
 30
0.0
  0
VERTEX
  5
2426
  8
SAPA_PROFIL
  6
CONTINUOUS
 62
     7
 10
21.459009356732171
 20
8.8741184322947788
 30
0.0
 42
-0.4142135623730992
  0
VERTEX
  5
2427
  8
SAPA_PROFIL
  6
CONTINUOUS
 62
     7
 10
20.86133687927191
 20
7.5924056681831749
 30
0.0
  0
VERTEX
  5
2428
  8
SAPA_PROFIL
  6
CONTINUOUS
 62
     7
 10
16.726689347813931
 20
6.087517037550298
 30
0.0
 42
0.4142135623730951
  0
VERTEX
  5
2429
  8
SAPA_PROFIL
  6
CONTINUOUS
 62
     7
 10
16.427853109083848
 20
5.4466606554944397
 30
0.0
  0
VERTEX
  5
242A
  8
SAPA_PROFIL
  6
CONTINUOUS
 62
     7
 10
17.146095410067741
 20
3.4733061518440418
 30
0.0
 42
0.4142135623730951
  0
VERTEX
  5
242B
  8
SAPA_PROFIL
  6
CONTINUOUS
 62
     7
 10
17.53060923930116
 20
3.2940044086059852
 30
0.0
  0
VERTEX
  5
242C
  8
SAPA_PROFIL
  6
CONTINUOUS
 62
     7
 10
18.000455549694149
 20
3.4650144802688478
 30
0.0
 42
0.4142135623730951
  0
VERTEX
  5
242D
  8
SAPA_PROFIL
  6
CONTINUOUS
 62
     7
 10
18.179757292932258
 20
3.8495283095023178
 30
0.0
  0
VERTEX
  5
242E
  8
SAPA_PROFIL
  6
CONTINUOUS
 62
     7
 10
18.0646241039214
 20
4.1658541465391741
 30
0.0
 42
-0.5643553431119912
  0
VERTEX
  5
242F
  8
SAPA_PROFIL
  6
CONTINUOUS
 62
     7
 10
22.765147030393731
 20
3.894958801881784
 30
0.0
  0
VERTEX
  5
2430
  8
SAPA_PROFIL
  6
CONTINUOUS
 62
     7
 10
22.541381417358199
 20
3.41509189614652
 30
0.0
  0
VERTEX
  5
2431
  8
SAPA_PROFIL
  6
CONTINUOUS
 62
     7
 10
23.021248323088741
 20
3.1913262831088209
 30
0.0
 42
-0.5643553431125639
  0
VERTEX
  5
2432
  8
SAPA_PROFIL
  6
CONTINUOUS
 62
     7
 10
19.594567026580759
 20
-0.0376294865215527
 30
0.0
  0
VERTEX
  5
2433
  8
SAPA_PROFIL
  6
CONTINUOUS
 62
     7
 10
19.479433837569779
 20
0.2786963505159292
 30
0.0
 42
0.4142135623730396
  0
VERTEX
  5
2434
  8
SAPA_PROFIL
  6
CONTINUOUS
 62
     7
 10
19.09492000833626
 20
0.457998093753929
 30
0.0
  0
VERTEX
  5
2435
  8
SAPA_PROFIL
  6
CONTINUOUS
 62
     7
 10
18.625073697943261
 20
0.2869880220910659
 30
0.0
 42
0.4142135623731089
  0
VERTEX
  5
2436
  8
SAPA_PROFIL
  6
CONTINUOUS
 62
     7
 10
18.445771954705261
 20
-0.0975258071424037
 30
0.0
  0
VERTEX
  5
2437
  8
SAPA_PROFIL
  6
CONTINUOUS
 62
     7
 10
19.16401425568921
 20
-2.0708803107928011
 30
0.0
 42
0.4142135623730951
  0
VERTEX
  5
2438
  8
SAPA_PROFIL
  6
CONTINUOUS
 62
     7
 10
19.804870637744951
 20
-2.3697165495229342
 30
0.0
  0
VERTEX
  5
2439
  8
SAPA_PROFIL
  6
CONTINUOUS
 62
     7
 10
23.93951816920293
 20
-0.8648279188899437
 30
0.0
 42
-0.4142135623730951
  0
VERTEX
  5
243A
  8
SAPA_PROFIL
  6
CONTINUOUS
 62
     7
 10
25.22123093331453
 20
-1.4625003963502079
 30
0.0
  0
SEQEND
  5
243B
  8
SAPA_PROFIL
  6
CONTINUOUS
 62
     7
  0
ARC
  5
1D93
  8
SAPA_FYLLNING
 10
-9.4294330190418236
 20
50.692048563186312
 30
0.0
 40
21.455789953952831
 50
175.19904622794229
 51
224.8009537720578
  0
POLYLINE
  5
1D94
  8
SAPA_FYLLNING
 66
     1
 10
0.0
 20
0.0
 30
0.0
 70
     1
  0
VERTEX
  5
2468
  8
SAPA_FYLLNING
 10
-34.99537749706073
 20
49.368139055854748
 30
0.0
 42
0.4142135623730951
  0
VERTEX
  5
2469
  8
SAPA_FYLLNING
 10
-35.636233879116531
 20
49.666975294584873
 30
0.0
  0
VERTEX
  5
246A
  8
SAPA_FYLLNING
 10
-38.455311741474247
 20
48.640914864607858
 30
0.0
 42
0.4142135623730951
  0
VERTEX
  5
246B
  8
SAPA_FYLLNING
 10
-38.754147980204358
 20
48.00005848255207
 30
0.0
  0
VERTEX
  5
246C
  8
SAPA_FYLLNING
 10
-33.623845830318452
 20
33.90466917076099
 30
0.0
 42
0.4142135623730951
  0
VERTEX
  5
246D
  8
SAPA_FYLLNING
 10
-32.98298944826265
 20
33.605832932030872
 30
0.0
  0
VERTEX
  5
246E
  8
SAPA_FYLLNING
 10
-30.16391158590493
 20
34.631893362007879
 30
0.0
 42
0.4142135623730951
  0
VERTEX
  5
246F
  8
SAPA_FYLLNING
 10
-29.865075347174809
 20
35.272749744063667
 30
0.0
  0
SEQEND
  5
2470
  8
SAPA_FYLLNING
  0
POLYLINE
  5
1D95
  8
SAPA_FYLLNING
 66
     1
 10
0.0
 20
0.0
 30
0.0
 70
     1
  0
VERTEX
  5
2471
  8
SAPA_FYLLNING
 10
-43.153774845403788
 20
46.930814147979511
 30
0.0
 42
0.4142135623730951
  0
VERTEX
  5
2472
  8
SAPA_FYLLNING
 10
-43.452611084133899
 20
46.289957765923738
 30
0.0
  0
VERTEX
  5
2473
  8
SAPA_FYLLNING
 10
-38.322308934247992
 20
32.19456845413265
 30
0.0
 42
0.4142135623730951
  0
VERTEX
  5
2474
  8
SAPA_FYLLNING
 10
-37.681452552192198
 20
31.895732215402528
 30
0.0
  0
VERTEX
  5
2475
  8
SAPA_FYLLNING
 10
-34.862374689834468
 20
32.921792645379533
 30
0.0
 42
0.4142135623730951
  0
VERTEX
  5
2476
  8
SAPA_FYLLNING
 10
-34.56353845110435
 20
33.56264902743532
 30
0.0
  0
VERTEX
  5
2477
  8
SAPA_FYLLNING
 10
-39.693840600990271
 20
47.658038339226408
 30
0.0
 42
0.4142135623730951
  0
VERTEX
  5
2478
  8
SAPA_FYLLNING
 10
-40.334696983046058
 20
47.956874577956519
 30
0.0
  0
SEQEND
  5
2479
  8
SAPA_FYLLNING
  0
LINE
  5
1D96
  8
SAPA_FYLLNING
 10
-34.568715091263329
 20
51.119698130359282
 30
0.0
 11
-28.412352511400389
 21
34.205230956210478
 31
0.0
1001
ACAD
1000
ASC_BOUNDS
1002
{
1070
    19
1005
0
1002
}
  0
LINE
  5
1D97
  8
SAPA_FYLLNING
 10
-44.905333919908323
 20
47.35747655377692
 30
0.0
 11
-38.748971340045387
 21
30.443009379628119
 31
0.0
  0
LINE
  5
1D98
  8
SAPA_FYLLNING
 10
-44.905333919908323
 20
47.35747655377692
 30
0.0
 11
-38.748971340045387
 21
30.443009379628119
 31
0.0
1001
ACAD
1000
ASC_BOUNDS
1002
{
1070
    19
1005
0
1002
}
  0
POLYLINE
  5
1D99
  8
SAPA_FYLLNING
 66
     1
 10
0.0
 20
0.0
 30
0.0
  0
VERTEX
  5
247A
  8
SAPA_FYLLNING
 10
-52.844360651834023
 20
25.312707229743079
 30
0.0
  0
VERTEX
  5
247B
  8
SAPA_FYLLNING
 10
-24.653582028256761
 20
35.573311529513148
 30
0.0
  0
VERTEX
  5
247C
  8
SAPA_FYLLNING
 10
-24.311561884931098
 20
34.633618908727243
 30
0.0
  0
VERTEX
  5
247D
  8
SAPA_FYLLNING
 10
-52.502340508508567
 20
24.373014608957831
 30
0.0
  0
SEQEND
  5
247E
  8
SAPA_FYLLNING
  0
POLYLINE
  5
1D9A
  8
SAPA_FYLLNING
 66
     1
 10
0.0
 20
0.0
 30
0.0
1001
ACAD
1000
ASC_BOUNDS
1002
{
1070
    19
1005
0
1005
0
1002
}
  0
VERTEX
  5
247F
  8
SAPA_FYLLNING
 10
-61.052844091650961
 20
47.86533012860734
 30
0.0
  0
VERTEX
  5
2480
  8
SAPA_FYLLNING
 10
-32.862065468073709
 20
58.125934428377413
 30
0.0
  0
VERTEX
  5
2481
  8
SAPA_FYLLNING
 10
-30.8099446081197
 20
52.487778703661959
 30
0.0
  0
VERTEX
  5
2482
  8
SAPA_FYLLNING
 10
-59.000723231696952
 20
42.227174403891887
 30
0.0
  0
SEQEND
  5
2483
  8
SAPA_FYLLNING
  0
POLYLINE
  5
1DA1
  8
SAPA_FOGBAND
 66
     1
 10
0.0
 20
0.0
 30
0.0
 70
     1
  0
VERTEX
  5
24F4
  8
SAPA_FOGBAND
 10
-28.852852323019459
 20
32.800588391352257
 30
0.0
 42
-0.4679153941829814
  0
VERTEX
  5
24F5
  8
SAPA_FOGBAND
 10
-28.563996506384289
 20
32.696329643464971
 30
0.0
  0
VERTEX
  5
24F6
  8
SAPA_FOGBAND
 10
-27.007243040945848
 20
28.419736751615901
 30
0.0
 42
-0.6685323900181767
  0
VERTEX
  5
24F7
  8
SAPA_FOGBAND
 10
-27.279882467936829
 20
28.170153924317841
 30
0.0
 42
0.1991665782226247
  0
VERTEX
  5
24F8
  8
SAPA_FOGBAND
 10
-27.356434933678589
 20
28.17353378709679
 30
0.0
  0
VERTEX
  5
24F9
  8
SAPA_FOGBAND
 10
-29.788040487634468
 20
27.28850174398071
 30
0.0
 42
0.4142135623731784
  0
VERTEX
  5
24FA
  8
SAPA_FOGBAND
 10
-29.907574983126331
 20
27.03215919115841
 30
0.0
  0
VERTEX
  5
24FB
  8
SAPA_FOGBAND
 10
-29.633958868465779
 20
26.280405094529609
 30
0.0
 42
-0.4142135623731368
  0
VERTEX
  5
24FC
  8
SAPA_FOGBAND
 10
-29.753493363957851
 20
26.024062541707242
 30
0.0
  0
VERTEX
  5
24FD
  8
SAPA_FOGBAND
 10
-30.12937041227234
 20
25.887254484377049
 30
0.0
 42
0.4142135623733448
  0
VERTEX
  5
24FE
  8
SAPA_FOGBAND
 10
-30.248904907764199
 20
25.63091193155476
 30
0.0
  0
VERTEX
  5
24FF
  8
SAPA_FOGBAND
 10
-29.88239652974762
 20
24.623938438913282
 30
0.0
 42
0.703825529076487
  0
VERTEX
  5
2500
  8
SAPA_FOGBAND
 10
-29.69413086059205
 20
24.624851001277349
 30
0.0
  0
VERTEX
  5
2501
  8
SAPA_FOGBAND
 10
-29.267682071720579
 20
25.832818877437671
 30
0.0
 42
-0.9999999999999856
  0
VERTEX
  5
2502
  8
SAPA_FOGBAND
 10
-28.513310815104411
 20
25.566503261689611
 30
0.0
  0
VERTEX
  5
2503
  8
SAPA_FOGBAND
 10
-29.112520950537281
 20
23.869167934303199
 30
0.0
 42
-0.2242387338110932
  0
VERTEX
  5
2504
  8
SAPA_FOGBAND
 10
-29.863700859843149
 20
23.110670307926959
 30
0.0
 42
-0.2242387338111004
  0
VERTEX
  5
2505
  8
SAPA_FOGBAND
 10
-30.926690931360621
 20
23.208864061384212
 30
0.0
  0
VERTEX
  5
2506
  8
SAPA_FOGBAND
 10
-32.476738643796978
 20
24.123933506383182
 30
0.0
 42
-1.0000000000000899
  0
VERTEX
  5
2507
  8
SAPA_FOGBAND
 10
-32.070041112686383
 20
24.812843600799329
 30
0.0
  0
VERTEX
  5
2508
  8
SAPA_FOGBAND
 10
-30.96689560400117
 20
24.161602519453091
 30
0.0
 42
0.7038255290763446
  0
VERTEX
  5
2509
  8
SAPA_FOGBAND
 10
-30.82208915053371
 20
24.281918295587431
 30
0.0
  0
VERTEX
  5
250A
  8
SAPA_FOGBAND
 10
-31.188597528550321
 20
25.288891788229009
 30
0.0
 42
0.4142135623729703
  0
VERTEX
  5
250B
  8
SAPA_FOGBAND
 10
-31.444940081372479
 20
25.408426283721159
 30
0.0
  0
VERTEX
  5
250C
  8
SAPA_FOGBAND
 10
-31.82081712968693
 20
25.27161822639086
 30
0.0
 42
-0.4142135623730117
  0
VERTEX
  5
250D
  8
SAPA_FOGBAND
 10
-32.077159682509262
 20
25.391152721882829
 30
0.0
  0
VERTEX
  5
250E
  8
SAPA_FOGBAND
 10
-32.350775797169611
 20
26.142906818511701
 30
0.0
 42
0.4142135623731784
  0
VERTEX
  5
250F
  8
SAPA_FOGBAND
 10
-32.607118349992191
 20
26.262441314003691
 30
0.0
  0
VERTEX
  5
2510
  8
SAPA_FOGBAND
 10
-35.03872390394767
 20
25.37740927088716
 30
0.0
 42
0.1991665782227297
  0
VERTEX
  5
2511
  8
SAPA_FOGBAND
 10
-35.095193961019497
 20
25.325613169317201
 30
0.0
 42
-0.6685323900181511
  0
VERTEX
  5
2512
  8
SAPA_FOGBAND
 10
-35.464476628018993
 20
25.341555461684781
 30
0.0
  0
VERTEX
  5
2513
  8
SAPA_FOGBAND
 10
-37.02121982491748
 20
29.61812014459332
 30
0.0
 42
-0.4679406819625479
  0
VERTEX
  5
2514
  8
SAPA_FOGBAND
 10
-36.866965339348781
 20
29.883675514439709
 30
0.0
  0
VERTEX
  5
2515
  8
SAPA_FOGBAND
 10
-36.165687652607552
 20
30.003486053511502
 30
0.0
 42
-0.3624646087620003
  0
VERTEX
  5
2516
  8
SAPA_FOGBAND
 10
-35.944067928165737
 20
29.874746538667491
 30
0.0
  0
VERTEX
  5
2517
  8
SAPA_FOGBAND
 10
-35.904558113682938
 20
29.76619421552914
 30
0.0
 42
0.3515239862759624
  0
VERTEX
  5
2518
  8
SAPA_FOGBAND
 10
-35.690614051965717
 20
29.636296171547048
 30
0.0
  0
VERTEX
  5
2519
  8
SAPA_FOGBAND
 10
-34.150129947848292
 20
29.856249000242091
 30
0.0
 42
0.751570456352482
  0
VERTEX
  5
251A
  8
SAPA_FOGBAND
 10
-34.123329181907287
 20
30.046482480915252
 30
0.0
  0
VERTEX
  5
251B
  8
SAPA_FOGBAND
 10
-35.543665740158119
 20
29.766866950705559
 30
0.0
 42
-0.7197481174277197
  0
VERTEX
  5
251C
  8
SAPA_FOGBAND
 10
-35.478279272991237
 20
30.42742161186311
 30
0.0
  0
VERTEX
  5
251D
  8
SAPA_FOGBAND
 10
-33.375154556545041
 20
30.907483194955581
 30
0.0
 42
0.5053637834253038
  0
VERTEX
  5
251E
  8
SAPA_FOGBAND
 10
-33.190452767480892
 20
31.063121436906641
 30
0.0
  0
VERTEX
  5
251F
  8
SAPA_FOGBAND
 10
-33.193714037669558
 20
31.1130149647114
 30
0.0
 42
-0.3333333333331249
  0
VERTEX
  5
2520
  8
SAPA_FOGBAND
 10
-33.062543955117476
 20
31.313998569622889
 30
0.0
  0
VERTEX
  5
2521
  8
SAPA_FOGBAND
 10
-32.686666906803289
 20
31.45080662695322
 30
0.0
 42
-0.3333333333331312
  0
VERTEX
  5
2522
  8
SAPA_FOGBAND
 10
-32.456995022973558
 20
31.38115875707879
 30
0.0
  0
VERTEX
  5
2523
  8
SAPA_FOGBAND
 10
-32.427422359402691
 20
31.340841793287339
 30
0.0
 42
0.505363783425254
  0
VERTEX
  5
2524
  8
SAPA_FOGBAND
 10
-32.185890246736527
 20
31.34034000440089
 30
0.0
  0
VERTEX
  5
2525
  8
SAPA_FOGBAND
 10
-30.266225607018171
 20
32.324454005675221
 30
0.0
 42
-0.7197481174279296
  0
VERTEX
  5
2526
  8
SAPA_FOGBAND
 10
-29.791540315477299
 20
31.860469389055211
 30
0.0
  0
VERTEX
  5
2527
  8
SAPA_FOGBAND
 10
-31.05931464157884
 20
31.161692570953761
 30
0.0
 42
0.7515704563522813
  0
VERTEX
  5
2528
  8
SAPA_FOGBAND
 10
-30.916504339433871
 20
31.03319247046576
 30
0.0
  0
VERTEX
  5
2529
  8
SAPA_FOGBAND
 10
-29.59504209876112
 20
31.854902923341289
 30
0.0
 42
0.3515239862759173
  0
VERTEX
  5
252A
  8
SAPA_FOGBAND
 10
-29.514648292338421
 20
32.091931190143939
 30
0.0
  0
VERTEX
  5
252B
  8
SAPA_FOGBAND
 10
-29.554158106821141
 20
32.20048351328208
 30
0.0
 42
-0.3624646087620678
  0
VERTEX
  5
252C
  8
SAPA_FOGBAND
 10
-29.467139713445771
 20
32.441558116171613
 30
0.0
  0
SEQEND
  5
252D
  8
SAPA_FOGBAND
  0
POLYLINE
  5
1DA2
  8
SAPA_FOGBAND
 66
     1
 10
0.0
 20
0.0
 30
0.0
 70
     1
  0
VERTEX
  5
252E
  8
SAPA_FOGBAND
 10
-47.001371513502292
 20
60.871165522433152
 30
0.0
  0
VERTEX
  5
252F
  8
SAPA_FOGBAND
 10
-45.952495138830812
 20
61.252925302238367
 30
0.0
 42
-0.3812119866950782
  0
VERTEX
  5
2530
  8
SAPA_FOGBAND
 10
-45.766987277577847
 20
61.178971864241952
 30
0.0
  0
VERTEX
  5
2531
  8
SAPA_FOGBAND
 10
-45.436937587281719
 20
60.517867910292608
 30
0.0
 42
0.3812119866950766
  0
VERTEX
  5
2532
  8
SAPA_FOGBAND
 10
-45.251429726028327
 20
60.443914472296349
 30
0.0
  0
VERTEX
  5
2533
  8
SAPA_FOGBAND
 10
-42.101842159365063
 20
61.590270596776698
 30
0.0
 42
0.4142135623730951
  0
VERTEX
  5
2534
  8
SAPA_FOGBAND
 10
-41.982307663872682
 20
61.84661314959893
 30
0.0
  0
VERTEX
  5
2535
  8
SAPA_FOGBAND
 10
-42.255923778533642
 20
62.598367246227468
 30
0.0
 42
-0.4142135623732615
  0
VERTEX
  5
2536
  8
SAPA_FOGBAND
 10
-42.136389283041353
 20
62.854709799049907
 30
0.0
  0
VERTEX
  5
2537
  8
SAPA_FOGBAND
 10
-41.760512234726903
 20
62.991517856380213
 30
0.0
 42
0.4142135623733032
  0
VERTEX
  5
2538
  8
SAPA_FOGBAND
 10
-41.640977739235034
 20
63.247860409202509
 30
0.0
  0
VERTEX
  5
2539
  8
SAPA_FOGBAND
 10
-42.007486117251567
 20
64.254833901843881
 30
0.0
 42
0.7038255290763713
  0
VERTEX
  5
253A
  8
SAPA_FOGBAND
 10
-42.195751786407179
 20
64.253921339479916
 30
0.0
  0
VERTEX
  5
253B
  8
SAPA_FOGBAND
 10
-42.622200575278832
 20
63.045953463319407
 30
0.0
 42
-0.9999999999999722
  0
VERTEX
  5
253C
  8
SAPA_FOGBAND
 10
-43.376571831895042
 20
63.31226907906759
 30
0.0
  0
VERTEX
  5
253D
  8
SAPA_FOGBAND
 10
-42.77736169646203
 20
65.009604406454287
 30
0.0
 42
-0.224238733811101
  0
VERTEX
  5
253E
  8
SAPA_FOGBAND
 10
-42.026181787156261
 20
65.768102032830114
 30
0.0
 42
-0.2242387338111034
  0
VERTEX
  5
253F
  8
SAPA_FOGBAND
 10
-40.963191715638899
 20
65.669908279373189
 30
0.0
  0
VERTEX
  5
2540
  8
SAPA_FOGBAND
 10
-39.413144003202483
 20
64.754838834373999
 30
0.0
 42
-0.9999999999999722
  0
VERTEX
  5
2541
  8
SAPA_FOGBAND
 10
-39.819841534313042
 20
64.065928739957741
 30
0.0
  0
VERTEX
  5
2542
  8
SAPA_FOGBAND
 10
-40.922987042998308
 20
64.717169821304211
 30
0.0
 42
0.7038255290763713
  0
VERTEX
  5
2543
  8
SAPA_FOGBAND
 10
-41.067793496465669
 20
64.59685404516955
 30
0.0
  0
VERTEX
  5
2544
  8
SAPA_FOGBAND
 10
-40.701285118449199
 20
63.589880552528399
 30
0.0
 42
0.414213562372887
  0
VERTEX
  5
2545
  8
SAPA_FOGBAND
 10
-40.444942565627038
 20
63.470346057036231
 30
0.0
  0
VERTEX
  5
2546
  8
SAPA_FOGBAND
 10
-40.069065517312517
 20
63.607154114366331
 30
0.0
 42
-0.4142135623730951
  0
VERTEX
  5
2547
  8
SAPA_FOGBAND
 10
-39.812722964490007
 20
63.48761961887454
 30
0.0
  0
VERTEX
  5
2548
  8
SAPA_FOGBAND
 10
-39.539106849829423
 20
62.735865522245639
 30
0.0
 42
0.4142135623733032
  0
VERTEX
  5
2549
  8
SAPA_FOGBAND
 10
-39.282764297007247
 20
62.616331026753492
 30
0.0
  0
VERTEX
  5
254A
  8
SAPA_FOGBAND
 10
-34.650522324746767
 20
64.302329222574627
 30
0.0
 42
-0.2663342079579414
  0
VERTEX
  5
254B
  8
SAPA_FOGBAND
 10
-33.670345196067302
 20
64.132542870138792
 30
0.0
  0
VERTEX
  5
254C
  8
SAPA_FOGBAND
 10
-28.909777539630038
 20
59.386778179482953
 30
0.0
 42
-0.0528612085595158
  0
VERTEX
  5
254D
  8
SAPA_FOGBAND
 10
-28.7625294459347
 20
59.235854028648127
 30
0.0
 42
-0.2389362379610816
  0
VERTEX
  5
254E
  8
SAPA_FOGBAND
 10
-28.56996033090115
 20
57.982275986485689
 30
0.0
 42
-0.4294697894412148
  0
VERTEX
  5
254F
  8
SAPA_FOGBAND
 10
-28.838338416232549
 20
57.872204176317823
 30
0.0
  0
VERTEX
  5
2550
  8
SAPA_FOGBAND
 10
-32.942968263080367
 20
58.761170606690072
 30
0.0
 42
0.1982170680849689
  0
VERTEX
  5
2551
  8
SAPA_FOGBAND
 10
-33.705180150691547
 20
58.79342788650996
 30
0.0
  0
VERTEX
  5
2552
  8
SAPA_FOGBAND
 10
-33.816682184924169
 20
58.752844464989387
 30
0.0
 42
0.2084822249037396
  0
VERTEX
  5
2553
  8
SAPA_FOGBAND
 10
-34.395887231987167
 20
58.202181597041822
 30
0.0
  0
VERTEX
  5
2554
  8
SAPA_FOGBAND
 10
-37.893064787510014
 20
56.268848913108421
 30
0.0
  0
VERTEX
  5
2555
  8
SAPA_FOGBAND
 10
-38.536901516840267
 20
56.421373830981842
 30
0.0
  0
VERTEX
  5
2556
  8
SAPA_FOGBAND
 10
-35.76714438983862
 20
58.490975529261853
 30
0.0
 42
0.6313983151680253
  0
VERTEX
  5
2557
  8
SAPA_FOGBAND
 10
-36.19643500189094
 20
58.821377302116161
 30
0.0
  0
VERTEX
  5
2558
  8
SAPA_FOGBAND
 10
-38.745419083177609
 20
57.525240110550783
 30
0.0
 42
0.3791008518982226
  0
VERTEX
  5
2559
  8
SAPA_FOGBAND
 10
-38.891349232861913
 20
57.155220376135162
 30
0.0
  0
VERTEX
  5
255A
  8
SAPA_FOGBAND
 10
-38.811192439894938
 20
56.934991397442502
 30
0.0
 42
-0.414213562373095
  0
VERTEX
  5
255B
  8
SAPA_FOGBAND
 10
-38.990494183133279
 20
56.550477568209217
 30
0.0
  0
VERTEX
  5
255C
  8
SAPA_FOGBAND
 10
-43.267712894739901
 20
54.993697271737958
 30
0.0
  0
VERTEX
  5
255D
  8
SAPA_FOGBAND
 10
-49.034988540388262
 20
52.339404021090772
 30
0.0
  0
VERTEX
  5
255E
  8
SAPA_FOGBAND
 10
-49.034988540388262
 20
52.339404021090772
 30
0.0
  0
VERTEX
  5
255F
  8
SAPA_FOGBAND
 10
-49.729814382808208
 20
52.529549484340663
 30
0.0
 42
-0.5371060876771919
  0
VERTEX
  5
2560
  8
SAPA_FOGBAND
 10
-50.774047018062227
 20
54.22039875426595
 30
0.0
  0
VERTEX
  5
2561
  8
SAPA_FOGBAND
 10
-46.458285119968927
 20
58.940477259362453
 30
0.0
  0
VERTEX
  5
2562
  8
SAPA_FOGBAND
 10
-47.091022385121391
 20
60.678908607816297
 30
0.0
 42
-0.4142135623730951
  0
SEQEND
  5
2563
  8
SAPA_FOGBAND
  0
DIMENSION
  5
1DA9
  8
SAPA_MATT
  2
*D35
 10
251.44110344451221
 20
-13.73946460901716
 30
0.0
 11
279.4418457459023
 21
-83.361360809646172
 31
0.0
 70
     1
  1
150
 51
69.999999999999915
 13
284.05247002831771
 23
-161.4965637451555
 33
0.0
 14
232.74944852946709
 24
-20.542670627269182
 34
0.0
1001
ACAD
1000
DSTYLE
1002
{
1070
    40
1040
1.0
1002
}
  0
DIMENSION
  5
1DAA
  8
SAPA_MATT
  2
*D34
 10
371.35310280839587
 20
-289.34839785198938
 30
0.0
 11
322.3993128615104
 21
-147.53945437578909
 31
0.0
 70
     1
  1
300
 13
169.1121572502559
 23
-43.70475044223042
 33
0.0
 14
271.7182002479567
 24
-325.61253667800281
 34
0.0
1001
ACAD
1000
DSTYLE
1002
{
1070
    40
1040
1.0
1002
}
  0
VIEWPORT
  5
C4
 67
     1
  8
0
 10
143.06236603067589
 20
116.00969601843509
 30
0.0
 40
369.98580003443811
 41
256.8421457311839
 68
     1
 69
     1
1001
ACAD
1000
MVIEW
1002
{
1070
    16
1010
0.0
1020
0.0
1030
0.0
1010
0.0
1020
0.0
1030
1.0
1040
0.0
1040
256.8421457311839
1040
99.112914085388169
1040
143.07606935501099
1040
50.0
1040
0.0
1040
0.0
1070
     0
1070
     0
1070
     1
1070
     1
1070
     0
1070
     0
1070
     0
1070
     0
1040
0.0
1040
0.0
1040
0.0
1040
10.0
1040
10.0
1040
10.0
1040
10.0
1070
     0
1002
{
1002
}
1002
}
  0
ENDSEC
  0
EOF
