  0
SECTION
  2
HEADER
  9
$ACADVER
  1
AC1009
  9
$INSBASE
 10
0.0
 20
0.0
 30
0.0
  9
$EXTMIN
 10
-196.4074307008421
 20
-434.74831717622152
 30
0.0
  9
$EXTMAX
 10
176.45309503614561
 20
108.1786759712333
 30
0.0
  9
$LIMMIN
 10
0.0
 20
0.0
  9
$LIMMAX
 10
790.0
 20
790.0
  9
$ORTHOMODE
 70
     1
  9
$REGENMODE
 70
     1
  9
$FILLMODE
 70
     1
  9
$QTEXTMODE
 70
     0
  9
$MIRRTEXT
 70
     1
  9
$DRAGMODE
 70
     2
  9
$LTSCALE
 40
4.0
  9
$OSMODE
 70
   167
  9
$ATTMODE
 70
     1
  9
$TEXTSIZE
 40
3.5
  9
$TRACEWID
 40
0.05
  9
$TEXTSTYLE
  7
ISO
  9
$CLAYER
  8
0
  9
$CELTYPE
  6
BYLAYER
  9
$CECOLOR
 62
   256
  9
$DIMSCALE
 40
0.0
  9
$DIMASZ
 40
3.0
  9
$DIMEXO
 40
1.5
  9
$DIMDLI
 40
10.0
  9
$DIMRND
 40
0.0
  9
$DIMDLE
 40
0.0
  9
$DIMEXE
 40
1.5
  9
$DIMTP
 40
0.0
  9
$DIMTM
 40
0.0
  9
$DIMTXT
 40
3.0
  9
$DIMCEN
 40
-5.0
  9
$DIMTSZ
 40
0.0
  9
$DIMTOL
 70
     0
  9
$DIMLIM
 70
     0
  9
$DIMTIH
 70
     0
  9
$DIMTOH
 70
     0
  9
$DIMSE1
 70
     0
  9
$DIMSE2
 70
     0
  9
$DIMTAD
 70
     1
  9
$DIMZIN
 70
     8
  9
$DIMBLK
  1

  9
$DIMASO
 70
     1
  9
$DIMSHO
 70
     1
  9
$DIMPOST
  1

  9
$DIMAPOST
  1

  9
$DIMALT
 70
     0
  9
$DIMALTD
 70
     0
  9
$DIMALTF
 40
25.399999999999999
  9
$DIMLFAC
 40
-1.0
  9
$DIMTOFL
 70
     1
  9
$DIMTVP
 40
0.0
  9
$DIMTIX
 70
     0
  9
$DIMSOXD
 70
     0
  9
$DIMSAH
 70
     0
  9
$DIMBLK1
  1

  9
$DIMBLK2
  1

  9
$DIMSTYLE
  2
MASKIN
  9
$DIMCLRD
 70
   256
  9
$DIMCLRE
 70
   256
  9
$DIMCLRT
 70
     2
  9
$DIMTFAC
 40
1.0
  9
$DIMGAP
 40
1.0
  9
$LUNITS
 70
     2
  9
$LUPREC
 70
     8
  9
$SKETCHINC
 40
0.1
  9
$FILLETRAD
 40
0.0
  9
$AUNITS
 70
     0
  9
$AUPREC
 70
     8
  9
$MENU
  1
ACAD
  9
$ELEVATION
 40
0.0
  9
$PELEVATION
 40
0.0
  9
$THICKNESS
 40
0.0
  9
$LIMCHECK
 70
     0
  9
$BLIPMODE
 70
     0
  9
$CHAMFERA
 40
0.0
  9
$CHAMFERB
 40
0.0
  9
$SKPOLY
 70
     0
  9
$TDCREATE
 40
2454993.554922685
  9
$TDUPDATE
 40
2455058.3690451039
  9
$TDINDWG
 40
0.0529330556
  9
$TDUSRTIMER
 40
0.0529328704
  9
$USRTIMER
 70
     1
  9
$ANGBASE
 50
0.0
  9
$ANGDIR
 70
     0
  9
$PDMODE
 70
     0
  9
$PDSIZE
 40
0.0
  9
$PLINEWID
 40
0.0
  9
$COORDS
 70
     1
  9
$SPLFRAME
 70
     0
  9
$SPLINETYPE
 70
     6
  9
$SPLINESEGS
 70
     8
  9
$ATTDIA
 70
     0
  9
$ATTREQ
 70
     1
  9
$HANDLING
 70
     1
  9
$HANDSEED
  5
24E1
  9
$SURFTAB1
 70
     6
  9
$SURFTAB2
 70
     6
  9
$SURFTYPE
 70
     6
  9
$SURFU
 70
     6
  9
$SURFV
 70
     6
  9
$UCSNAME
  2

  9
$UCSORG
 10
0.0
 20
0.0
 30
0.0
  9
$UCSXDIR
 10
1.0
 20
0.0
 30
0.0
  9
$UCSYDIR
 10
0.0
 20
1.0
 30
0.0
  9
$PUCSNAME
  2

  9
$PUCSORG
 10
0.0
 20
0.0
 30
0.0
  9
$PUCSXDIR
 10
1.0
 20
0.0
 30
0.0
  9
$PUCSYDIR
 10
0.0
 20
1.0
 30
0.0
  9
$USERI1
 70
     0
  9
$USERI2
 70
     0
  9
$USERI3
 70
     0
  9
$USERI4
 70
     0
  9
$USERI5
 70
     0
  9
$USERR1
 40
0.0
  9
$USERR2
 40
0.0
  9
$USERR3
 40
0.0
  9
$USERR4
 40
0.0
  9
$USERR5
 40
0.0
  9
$WORLDVIEW
 70
     1
  9
$SHADEDGE
 70
     3
  9
$SHADEDIF
 70
    70
  9
$TILEMODE
 70
     1
  9
$MAXACTVP
 70
    16
  9
$PLIMCHECK
 70
     0
  9
$PEXTMIN
 10
1.0000000000000000E+020
 20
1.0000000000000000E+020
 30
1.0000000000000000E+020
  9
$PEXTMAX
 10
-1.0000000000000000E+020
 20
-1.0000000000000000E+020
 30
-1.0000000000000000E+020
  9
$PLIMMIN
 10
-5.069427490234375
 20
-5.8737497329711914
  9
$PLIMMAX
 10
291.89889526367187
 20
204.0995779037475
  9
$UNITMODE
 70
     0
  9
$VISRETAIN
 70
     1
  9
$PLINEGEN
 70
     0
  9
$PSLTSCALE
 70
     1
  0
ENDSEC
  0
SECTION
  2
TABLES
  0
TABLE
  2
VPORT
 70
     1
  0
VPORT
  2
*ACTIVE
 70
     0
 10
0.0
 20
0.0
 11
1.0
 21
1.0
 12
178.30038821853449
 22
-163.29321094430449
 13
0.0
 23
0.0
 14
1.0
 24
1.0
 15
0.0
 25
0.0
 16
0.0
 26
0.0
 36
1.0
 17
0.0
 27
0.0
 37
0.0
 40
547.44784954344777
 41
2.362776025236593
 42
50.0
 43
0.0
 44
0.0
 50
0.0
 51
0.0
 71
     0
 72
  1000
 73
     1
 74
     1
 75
     0
 76
     0
 77
     0
 78
     0
  0
ENDTAB
  0
TABLE
  2
LTYPE
 70
     6
  0
LTYPE
  2
CONTINUOUS
 70
     0
  3
Solid line
 72
    65
 73
     0
 40
0.0
  0
LTYPE
  2
BYGG-01473402$0$NEWDOT
 70
     0
  3
____ . ____ . ____ . ____ . ____ . ____ . ____
 72
    65
 73
     4
 40
2.0
 49
1.0
 49
-0.5
 49
0.0
 49
-0.5
  0
LTYPE
  2
BYGG-014680$0$NEWDOT
 70
     0
  3
____ . ____ . ____ . ____ . ____ . ____ . ____
 72
    65
 73
     4
 40
2.0
 49
1.0
 49
-0.5
 49
0.0
 49
-0.5
  0
LTYPE
  2
BYGG-01458701$0$NEWDOT
 70
     0
  3
____ . ____ . ____ . ____ . ____ . ____ . ____
 72
    65
 73
     4
 40
2.0
 49
1.0
 49
-0.5
 49
0.0
 49
-0.5
  0
LTYPE
  2
BYGG-014252$0$NEWDOT
 70
     0
  3
____ . ____ . ____ . ____ . ____ . ____ . ____
 72
    65
 73
     4
 40
2.0
 49
1.0
 49
-0.5
 49
0.0
 49
-0.5
  0
LTYPE
  2
DASHDOT
 70
     0
  3
__ . __ . __ . __ . __ . __ . __ . __ . __ . __
 72
    65
 73
     4
 40
1.0
 49
0.5
 49
-0.25
 49
0.0
 49
-0.25
  0
ENDTAB
  0
TABLE
  2
LAYER
 70
    49
  0
LAYER
  2
0
 70
     0
 62
     7
  6
CONTINUOUS
  0
LAYER
  2
DEFPOINTS
 70
     0
 62
     7
  6
CONTINUOUS
  0
LAYER
  2
SAPA_FOGBAND
 70
     0
 62
     2
  6
CONTINUOUS
  0
LAYER
  2
SAPA_ANSLUTNING
 70
     0
 62
     6
  6
CONTINUOUS
  0
LAYER
  2
SAPA_ARTIKELNR
 70
     0
 62
     4
  6
CONTINUOUS
  0
LAYER
  2
SAPA_LIGHT
 70
     1
 62
     1
  6
CONTINUOUS
  0
LAYER
  2
SAPA_PROFIL
 70
     0
 62
     7
  6
CONTINUOUS
  0
LAYER
  2
SAPA_FYLLNING
 70
     0
 62
     4
  6
CONTINUOUS
  0
LAYER
  2
SAPA_MATT
 70
     0
 62
     1
  6
CONTINUOUS
  0
ENDTAB
  0
TABLE
  2
STYLE
 70
    25
  0
STYLE
  2
STANDARD
 70
     0
 40
0.0
 41
1.0
 50
0.0
 71
     0
 42
0.2
  3
txt
  4

  0
STYLE
  2
ISO
 70
     0
 40
0.0
 41
1.0
 50
0.0
 71
     0
 42
3.5
  3
txt
  4

  0
STYLE
  2
BYGG-024109$0$STANDARD
 70
     0
 40
0.0
 41
1.0
 50
0.0
 71
     0
 42
0.2
  3
txt
  4

  0
STYLE
  2
BYGG-024109$0$ISO
 70
     0
 40
0.0
 41
1.0
 50
0.0
 71
     0
 42
3.5
  3
txt
  4

  0
STYLE
  2
BYGG-01473402$0$STANDARD
 70
     0
 40
0.0
 41
1.0
 50
0.0
 71
     0
 42
0.2
  3
txt
  4

  0
STYLE
  2
BYGG-01473402$0$ISO
 70
     0
 40
0.0
 41
1.0
 50
0.0
 71
     0
 42
2.5
  3
isocp3.shx
  4

  0
STYLE
  2
BYGG-024110$0$STANDARD
 70
     0
 40
0.0
 41
1.0
 50
0.0
 71
     0
 42
0.2
  3
txt
  4

  0
STYLE
  2
BYGG-024110$0$ISO
 70
     0
 40
0.0
 41
1.0
 50
0.0
 71
     0
 42
3.5
  3
txt
  4

  0
STYLE
  2
BYGG-014680$0$STANDARD
 70
     0
 40
0.0
 41
1.0
 50
0.0
 71
     0
 42
0.2
  3
txt
  4

  0
STYLE
  2
BYGG-014680$0$ISO
 70
     0
 40
0.0
 41
1.0
 50
0.0
 71
     0
 42
8.0
  3
iso
  4

  0
STYLE
  2
BYGG-024111$0$STANDARD
 70
     0
 40
0.0
 41
1.0
 50
0.0
 71
     0
 42
0.2
  3
txt
  4

  0
STYLE
  2
BYGG-024111$0$ISO
 70
     0
 40
0.0
 41
1.0
 50
0.0
 71
     0
 42
3.5
  3
txt
  4

  0
STYLE
  2
BYGG-01458701$0$STANDARD
 70
     0
 40
0.0
 41
1.0
 50
0.0
 71
     0
 42
0.2
  3
txt
  4

  0
STYLE
  2
BYGG-01458701$0$ISO
 70
     0
 40
0.0
 41
1.0
 50
0.0
 71
     0
 42
2.5
  3
isocp3.shx
  4

  0
STYLE
  2
BYGG-024082$0$STANDARD
 70
     0
 40
0.0
 41
1.0
 50
0.0
 71
     0
 42
0.2
  3
txt
  4

  0
STYLE
  2
BYGG-024082$0$ISO
 70
     0
 40
0.0
 41
1.0
 50
0.0
 71
     0
 42
3.5
  3
txt
  4

  0
STYLE
  2
BYGG-014252$0$STANDARD
 70
     0
 40
0.0
 41
1.0
 50
0.0
 71
     0
 42
0.2
  3
txt
  4

  0
STYLE
  2
BYGG-014252$0$ISO
 70
     0
 40
0.0
 41
1.0
 50
0.0
 71
     0
 42
2.5
  3
isocp3.shx
  4

  0
STYLE
  2
BYGG-014014$0$STANDARD
 70
     0
 40
0.0
 41
1.0
 50
0.0
 71
     0
 42
0.2
  3
txt
  4

  0
STYLE
  2
BYGG-024114$0$STANDARD
 70
     0
 40
0.0
 41
1.0
 50
0.0
 71
     0
 42
0.2
  3
txt
  4

  0
STYLE
  2
BYGG-024114$0$ISO
 70
     0
 40
0.0
 41
1.0
 50
0.0
 71
     0
 42
3.5
  3
txt
  4

  0
STYLE
  2
BYGG-013690$0$STANDARD
 70
     0
 40
0.0
 41
1.0
 50
0.0
 71
     0
 42
0.2
  3
txt
  4

  0
STYLE
  2
BYGG-013690$0$ISO
 70
     0
 40
0.0
 41
1.0
 50
0.0
 71
     0
 42
2.5
  3
isocp3.shx
  4

  0
STYLE
  2
BYGG-024093$0$STANDARD
 70
     0
 40
0.0
 41
1.0
 50
0.0
 71
     0
 42
0.2
  3
txt
  4

  0
STYLE
  2
BYGG-024093$0$ISO
 70
     0
 40
0.0
 41
1.0
 50
0.0
 71
     0
 42
3.5
  3
txt
  4

  0
ENDTAB
  0
TABLE
  2
VIEW
 70
     0
  0
ENDTAB
  0
TABLE
  2
UCS
 70
     0
  0
ENDTAB
  0
TABLE
  2
APPID
 70
    17
  0
APPID
  2
ACAD
 70
     0
  0
APPID
  2
ACAD_DSTYLE_DIMTEXT_FILL
 70
     0
  0
APPID
  2
ACAD_DSTYLE_DIMEXT_LENGTH
 70
     0
  0
APPID
  2
ACAD_DSTYLE_DIMEXT_ENABLED
 70
     0
  0
APPID
  2
ACAD_DSTYLE_DIM_LINETYPE
 70
     0
  0
APPID
  2
ACAD_DSTYLE_DIM_EXT1_LINETYPE
 70
     0
  0
APPID
  2
ACAD_DSTYLE_DIM_EXT2_LINETYPE
 70
     0
  0
APPID
  2
ACAD_DSTYLE_DIMJOGGED_JOGA
 70
     0
  0
APPID
  2
ACAD_DSTYLE_DIMARC_LENGTH_
 70
     0
  0
APPID
  2
ACAD_PSEXT
 70
     0
  0
APPID
  2
ACAD_MLEADERVER
 70
     0
  0
APPID
  2
AME_SOL
 70
     0
  0
APPID
  2
AMG_ARCHIVE11
 70
     0
  0
APPID
  2
DCO15
 70
     0
  0
APPID
  2
ACAD_EXEMPT_FROM_CAD_STANDARDS
 70
     0
  0
APPID
  2
ACADANNOTATIVE
 70
     0
  0
APPID
  2
ACAECLAYERSTANDARD
 70
     0
  0
ENDTAB
  0
TABLE
  2
DIMSTYLE
 70
    23
  0
DIMSTYLE
  2
MASKIN
 70
     0
  3

  4

  5

  6

  7

 40
0.0
 41
3.0
 42
1.5
 43
10.0
 44
1.5
 45
0.0
 46
0.0
 47
0.0
 48
0.0
140
3.0
141
-5.0
142
0.0
143
25.399999999999999
144
-1.0
145
0.0
146
1.0
147
1.0
 71
     0
 72
     0
 73
     0
 74
     0
 75
     0
 76
     0
 77
     1
 78
     8
170
     0
171
     0
172
     1
173
     0
174
     0
175
     0
176
   256
177
   256
178
     2
  0
DIMSTYLE
  2
BYGG-024109$0$STANDARD
 70
     0
  3

  4

  5

  6

  7

 40
1.0
 41
0.18
 42
0.0625
 43
0.38
 44
0.18
 45
0.0
 46
0.0
 47
0.0
 48
0.0
140
0.18
141
0.09
142
0.0
143
25.399999999999999
144
1.0
145
0.0
146
1.0
147
0.09
 71
     0
 72
     0
 73
     1
 74
     1
 75
     0
 76
     0
 77
     0
 78
     0
170
     0
171
     2
172
     0
173
     0
174
     0
175
     0
176
     0
177
     0
178
     0
  0
DIMSTYLE
  2
BYGG-024109$0$MASKIN
 70
     0
  3

  4

  5

  6

  7

 40
0.0
 41
3.0
 42
1.5
 43
10.0
 44
1.5
 45
0.0
 46
0.0
 47
0.0
 48
0.0
140
3.0
141
-5.0
142
0.0
143
25.399999999999999
144
-1.0
145
0.0
146
1.0
147
1.0
 71
     0
 72
     0
 73
     0
 74
     0
 75
     0
 76
     0
 77
     1
 78
     8
170
     0
171
     0
172
     1
173
     0
174
     0
175
     0
176
   256
177
   256
178
     2
  0
DIMSTYLE
  2
BYGG-01473402$0$STANDARD
 70
     0
  3

  4

  5

  6

  7

 40
1.0
 41
0.18
 42
0.0625
 43
0.38
 44
0.18
 45
0.0
 46
0.0
 47
0.0
 48
0.0
140
0.18
141
0.09
142
0.0
143
25.399999999999999
144
1.0
145
0.0
146
1.0
147
0.09
 71
     0
 72
     0
 73
     1
 74
     1
 75
     0
 76
     0
 77
     0
 78
     0
170
     0
171
     2
172
     0
173
     0
174
     0
175
     0
176
     0
177
     0
178
     0
  0
DIMSTYLE
  2
BYGG-01473402$0$MASKIN
 70
     0
  3

  4

  5

  6

  7

 40
0.0
 41
3.0
 42
1.5
 43
10.0
 44
1.5
 45
0.0
 46
0.0
 47
0.0
 48
0.0
140
3.0
141
-5.0
142
0.0
143
25.399999999999999
144
-1.0
145
0.0
146
1.0
147
1.0
 71
     0
 72
     0
 73
     0
 74
     1
 75
     0
 76
     0
 77
     1
 78
     8
170
     0
171
     0
172
     1
173
     0
174
     0
175
     0
176
   256
177
   256
178
     2
  0
DIMSTYLE
  2
BYGG-024110$0$STANDARD
 70
     0
  3

  4

  5

  6

  7

 40
1.0
 41
0.18
 42
0.0625
 43
0.38
 44
0.18
 45
0.0
 46
0.0
 47
0.0
 48
0.0
140
0.18
141
0.09
142
0.0
143
25.399999999999999
144
1.0
145
0.0
146
1.0
147
0.09
 71
     0
 72
     0
 73
     1
 74
     1
 75
     0
 76
     0
 77
     0
 78
     0
170
     0
171
     2
172
     0
173
     0
174
     0
175
     0
176
     0
177
     0
178
     0
  0
DIMSTYLE
  2
BYGG-024110$0$MASKIN
 70
     0
  3

  4

  5

  6

  7

 40
0.0
 41
3.0
 42
1.5
 43
10.0
 44
1.5
 45
0.0
 46
0.0
 47
0.0
 48
0.0
140
3.0
141
-5.0
142
0.0
143
25.399999999999999
144
-1.0
145
0.0
146
1.0
147
1.0
 71
     0
 72
     0
 73
     0
 74
     0
 75
     0
 76
     0
 77
     1
 78
     8
170
     0
171
     0
172
     1
173
     0
174
     0
175
     0
176
   256
177
   256
178
     2
  0
DIMSTYLE
  2
BYGG-014680$0$MASKIN
 70
     0
  3

  4

  5

  6

  7

 40
0.0
 41
3.0
 42
1.5
 43
10.0
 44
1.5
 45
0.0
 46
0.0
 47
0.0
 48
0.0
140
3.0
141
-5.0
142
0.0
143
25.399999999999999
144
-1.0
145
0.0
146
1.0
147
1.0
 71
     0
 72
     0
 73
     0
 74
     1
 75
     0
 76
     0
 77
     1
 78
     8
170
     0
171
     0
172
     1
173
     0
174
     0
175
     0
176
   256
177
   256
178
     2
  0
DIMSTYLE
  2
BYGG-024111$0$STANDARD
 70
     0
  3

  4

  5

  6

  7

 40
1.0
 41
0.18
 42
0.0625
 43
0.38
 44
0.18
 45
0.0
 46
0.0
 47
0.0
 48
0.0
140
0.18
141
0.09
142
0.0
143
25.399999999999999
144
1.0
145
0.0
146
1.0
147
0.09
 71
     0
 72
     0
 73
     1
 74
     1
 75
     0
 76
     0
 77
     0
 78
     0
170
     0
171
     2
172
     0
173
     0
174
     0
175
     0
176
     0
177
     0
178
     0
  0
DIMSTYLE
  2
BYGG-024111$0$MASKIN
 70
     0
  3

  4

  5

  6

  7

 40
0.0
 41
3.0
 42
1.5
 43
10.0
 44
1.5
 45
0.0
 46
0.0
 47
0.0
 48
0.0
140
3.0
141
-5.0
142
0.0
143
25.399999999999999
144
-1.0
145
0.0
146
1.0
147
1.0
 71
     0
 72
     0
 73
     0
 74
     0
 75
     0
 76
     0
 77
     1
 78
     8
170
     0
171
     0
172
     1
173
     0
174
     0
175
     0
176
   256
177
   256
178
     2
  0
DIMSTYLE
  2
BYGG-01458701$0$STANDARD
 70
     0
  3

  4

  5

  6

  7

 40
1.0
 41
0.18
 42
0.0625
 43
0.38
 44
0.18
 45
0.0
 46
0.0
 47
0.0
 48
0.0
140
0.18
141
0.09
142
0.0
143
25.399999999999999
144
1.0
145
0.0
146
1.0
147
0.09
 71
     0
 72
     0
 73
     1
 74
     1
 75
     0
 76
     0
 77
     0
 78
     0
170
     0
171
     2
172
     0
173
     0
174
     0
175
     0
176
     0
177
     0
178
     0
  0
DIMSTYLE
  2
BYGG-01458701$0$MASKIN
 70
     0
  3

  4

  5

  6

  7

 40
0.0
 41
3.0
 42
1.5
 43
10.0
 44
1.5
 45
0.0
 46
0.0
 47
0.0
 48
0.0
140
3.0
141
-5.0
142
0.0
143
25.399999999999999
144
-1.0
145
0.0
146
1.0
147
1.0
 71
     0
 72
     0
 73
     0
 74
     1
 75
     0
 76
     0
 77
     1
 78
     8
170
     0
171
     0
172
     1
173
     0
174
     0
175
     0
176
   256
177
   256
178
     2
  0
DIMSTYLE
  2
BYGG-024082$0$STANDARD
 70
     0
  3

  4

  5

  6

  7

 40
1.0
 41
0.18
 42
0.0625
 43
0.38
 44
0.18
 45
0.0
 46
0.0
 47
0.0
 48
0.0
140
0.18
141
0.09
142
0.0
143
25.399999999999999
144
1.0
145
0.0
146
1.0
147
0.09
 71
     0
 72
     0
 73
     1
 74
     1
 75
     0
 76
     0
 77
     0
 78
     0
170
     0
171
     2
172
     0
173
     0
174
     0
175
     0
176
     0
177
     0
178
     0
  0
DIMSTYLE
  2
BYGG-024082$0$MASKIN
 70
     0
  3

  4

  5

  6

  7

 40
0.0
 41
3.0
 42
1.5
 43
10.0
 44
1.5
 45
0.0
 46
0.0
 47
0.0
 48
0.0
140
3.0
141
-5.0
142
0.0
143
25.399999999999999
144
-1.0
145
0.0
146
1.0
147
1.0
 71
     0
 72
     0
 73
     0
 74
     0
 75
     0
 76
     0
 77
     1
 78
     8
170
     0
171
     0
172
     1
173
     0
174
     0
175
     0
176
   256
177
   256
178
     2
  0
DIMSTYLE
  2
BYGG-014252$0$STANDARD
 70
     0
  3

  4

  5

  6

  7

 40
1.0
 41
0.18
 42
0.0625
 43
0.38
 44
0.18
 45
0.0
 46
0.0
 47
0.0
 48
0.0
140
0.18
141
0.09
142
0.0
143
25.399999999999999
144
1.0
145
0.0
146
1.0
147
0.09
 71
     0
 72
     0
 73
     1
 74
     1
 75
     0
 76
     0
 77
     0
 78
     0
170
     0
171
     2
172
     0
173
     0
174
     0
175
     0
176
     0
177
     0
178
     0
  0
DIMSTYLE
  2
BYGG-014252$0$MASKIN
 70
     0
  3

  4

  5

  6

  7

 40
0.0
 41
3.0
 42
1.5
 43
10.0
 44
1.5
 45
0.0
 46
0.0
 47
0.0
 48
0.0
140
3.0
141
-5.0
142
0.0
143
25.399999999999999
144
-1.0
145
0.0
146
1.0
147
1.0
 71
     0
 72
     0
 73
     0
 74
     1
 75
     0
 76
     0
 77
     1
 78
     8
170
     0
171
     0
172
     1
173
     0
174
     0
175
     0
176
   256
177
   256
178
     2
  0
DIMSTYLE
  2
BYGG-014014$0$STANDARD
 70
     0
  3

  4

  5

  6

  7

 40
1.0
 41
0.18
 42
0.0625
 43
0.38
 44
0.18
 45
0.0
 46
0.0
 47
0.0
 48
0.0
140
0.18
141
0.09
142
0.0
143
25.399999999999999
144
1.0
145
0.0
146
1.0
147
0.09
 71
     0
 72
     0
 73
     1
 74
     1
 75
     0
 76
     0
 77
     0
 78
     0
170
     0
171
     2
172
     0
173
     0
174
     0
175
     0
176
     0
177
     0
178
     0
  0
DIMSTYLE
  2
BYGG-024114$0$STANDARD
 70
     0
  3

  4

  5

  6

  7

 40
1.0
 41
0.18
 42
0.0625
 43
0.38
 44
0.18
 45
0.0
 46
0.0
 47
0.0
 48
0.0
140
0.18
141
0.09
142
0.0
143
25.399999999999999
144
1.0
145
0.0
146
1.0
147
0.09
 71
     0
 72
     0
 73
     1
 74
     1
 75
     0
 76
     0
 77
     0
 78
     0
170
     0
171
     2
172
     0
173
     0
174
     0
175
     0
176
     0
177
     0
178
     0
  0
DIMSTYLE
  2
BYGG-024114$0$MASKIN
 70
     0
  3

  4

  5

  6

  7

 40
0.0
 41
3.0
 42
1.5
 43
10.0
 44
1.5
 45
0.0
 46
0.0
 47
0.0
 48
0.0
140
3.0
141
-5.0
142
0.0
143
25.399999999999999
144
-1.0
145
0.0
146
1.0
147
1.0
 71
     0
 72
     0
 73
     0
 74
     0
 75
     0
 76
     0
 77
     1
 78
     8
170
     0
171
     0
172
     1
173
     0
174
     0
175
     0
176
   256
177
   256
178
     2
  0
DIMSTYLE
  2
BYGG-013690$0$STANDARD
 70
     0
  3

  4

  5

  6

  7

 40
1.0
 41
0.18
 42
0.0625
 43
0.38
 44
0.18
 45
0.0
 46
0.0
 47
0.0
 48
0.0
140
0.18
141
0.09
142
0.0
143
25.399999999999999
144
1.0
145
0.0
146
1.0
147
0.09
 71
     0
 72
     0
 73
     1
 74
     1
 75
     0
 76
     0
 77
     0
 78
     0
170
     0
171
     2
172
     0
173
     0
174
     0
175
     0
176
     0
177
     0
178
     0
  0
DIMSTYLE
  2
BYGG-013690$0$MASKIN
 70
     0
  3

  4

  5

  6

  7

 40
0.0
 41
3.0
 42
1.5
 43
10.0
 44
1.5
 45
0.0
 46
0.0
 47
0.0
 48
0.0
140
3.0
141
-5.0
142
0.0
143
25.399999999999999
144
-1.0
145
0.0
146
1.0
147
1.0
 71
     0
 72
     0
 73
     0
 74
     1
 75
     0
 76
     0
 77
     1
 78
     8
170
     0
171
     0
172
     1
173
     0
174
     0
175
     0
176
   256
177
   256
178
     2
  0
DIMSTYLE
  2
BYGG-024093$0$STANDARD
 70
     0
  3

  4

  5

  6

  7

 40
1.0
 41
0.18
 42
0.0625
 43
0.38
 44
0.18
 45
0.0
 46
0.0
 47
0.0
 48
0.0
140
0.18
141
0.09
142
0.0
143
25.399999999999999
144
1.0
145
0.0
146
1.0
147
0.09
 71
     0
 72
     0
 73
     1
 74
     1
 75
     0
 76
     0
 77
     0
 78
     0
170
     0
171
     2
172
     0
173
     0
174
     0
175
     0
176
     0
177
     0
178
     0
  0
DIMSTYLE
  2
BYGG-024093$0$MASKIN
 70
     0
  3

  4

  5

  6

  7

 40
0.0
 41
3.0
 42
1.5
 43
10.0
 44
1.5
 45
0.0
 46
0.0
 47
0.0
 48
0.0
140
3.0
141
-5.0
142
0.0
143
25.399999999999999
144
-1.0
145
0.0
146
1.0
147
1.0
 71
     0
 72
     0
 73
     0
 74
     0
 75
     0
 76
     0
 77
     1
 78
     8
170
     0
171
     0
172
     1
173
     0
174
     0
175
     0
176
   256
177
   256
178
     2
  0
ENDTAB
  0
ENDSEC
  0
SECTION
  2
BLOCKS
  0
BLOCK
  8
0
  2
$MODEL_SPACE
 70
     0
 10
0.0
 20
0.0
 30
0.0
  3
$MODEL_SPACE
  1

  0
ENDBLK
  5
37
  8
0
  0
BLOCK
 67
     1
  8
0
  2
$PAPER_SPACE
 70
     0
 10
0.0
 20
0.0
 30
0.0
  3
$PAPER_SPACE
  1

  0
ENDBLK
  5
35
 67
     1
  8
0
  0
BLOCK
  8
0
  2
*D40
 70
     1
 10
0.0
 20
0.0
 30
0.0
  3
*D40
  1

  0
LINE
  5
1C99
  8
SAPA_MATT
 10
-148.38415652422131
 20
-119.62647155960229
 30
0.0
 11
-185.8410423560164
 21
-133.2596630706831
 31
0.0
  0
LINE
  5
1C9A
  8
SAPA_MATT
 10
-97.081135025370997
 20
-260.58036467748877
 30
0.0
 11
-134.5380208571662
 21
-274.21355618856973
 31
0.0
  0
LINE
  5
1C9B
  8
SAPA_MATT
 10
-183.40544299486061
 20
-135.5657107180524
 30
0.0
 11
-134.1545423559644
 21
-270.88144811122339
 31
0.0
  0
SOLID
  5
1C9C
  8
SAPA_MATT
 10
-183.87528930525349
 20
-135.73672078971521
 30
0.0
 11
-182.93559668446761
 21
-135.39470064638951
 31
0.0
 12
-184.43150342483759
 22
-132.7466328556946
 32
0.0
 13
-184.43150342483759
 23
-132.7466328556946
 33
0.0
  0
SOLID
  5
1C9D
  8
SAPA_MATT
 10
-134.62438866635731
 20
-271.05245818288631
 30
0.0
 11
-133.6846960455714
 21
-270.71043803956059
 31
0.0
 12
-133.1284819259873
 22
-273.70052597358119
 32
0.0
 13
-133.1284819259873
 23
-273.70052597358119
 33
0.0
  0
INSERT
  5
1C9E
  8
0
  2
*U74
 10
0.0
 20
0.0
 30
0.0
  0
POINT
  5
1C9F
  8
DEFPOINTS
 62
     0
 10
-146.9746175930425
 20
-119.1134413446138
 30
0.0
  0
POINT
  5
1CA0
  8
DEFPOINTS
 62
     0
 10
-95.671596094192168
 20
-260.06733446250018
 30
0.0
  0
POINT
  5
1CA1
  8
DEFPOINTS
 62
     0
 10
-133.12848192598739
 20
-273.70052597358108
 30
0.0
  0
ENDBLK
  5
1C83
  8
0
  0
BLOCK
  8
0
  2
*D41
 70
     1
 10
0.0
 20
0.0
 30
0.0
  3
*D41
  1

  0
LINE
  5
1C90
  8
SAPA_MATT
 10
-146.97461759304241
 20
-119.1134413446138
 30
0.0
 11
-196.4074307008421
 21
-137.10551391189699
 31
0.0
  0
LINE
  5
1C91
  8
SAPA_MATT
 10
-35.201779286936357
 20
-397.68478694451602
 30
0.0
 11
-93.801387703141756
 21
-419.0133001476699
 31
0.0
  0
LINE
  5
1C92
  8
SAPA_MATT
 10
-193.9718313396863
 20
-139.4115615592662
 30
0.0
 11
-93.417909201939878
 21
-415.68119207032362
 31
0.0
  0
SOLID
  5
1C93
  8
SAPA_MATT
 10
-194.44167765007921
 20
-139.5825716309291
 30
0.0
 11
-193.50198502929331
 21
-139.2405514876034
 31
0.0
 12
-194.99789176966331
 22
-136.59248369690849
 32
0.0
 13
-194.99789176966331
 23
-136.59248369690849
 33
0.0
  0
SOLID
  5
1C94
  8
SAPA_MATT
 10
-93.887755512332845
 20
-415.85220214198642
 30
0.0
 11
-92.948062891546897
 21
-415.51018199866081
 31
0.0
 12
-92.391848771962884
 22
-418.50026993268142
 32
0.0
 13
-92.391848771962884
 23
-418.50026993268142
 33
0.0
  0
INSERT
  5
1C95
  8
0
  2
*U73
 10
0.0
 20
0.0
 30
0.0
  0
POINT
  5
1C96
  8
DEFPOINTS
 62
     0
 10
-145.56507866186351
 20
-118.6004111296253
 30
0.0
  0
POINT
  5
1C97
  8
DEFPOINTS
 62
     0
 10
-33.792240355757599
 20
-397.17175672952737
 30
0.0
  0
POINT
  5
1C98
  8
DEFPOINTS
 62
     0
 10
-92.39184877196297
 20
-418.50026993268131
 30
0.0
  0
ENDBLK
  5
1C8F
  8
0
  0
BLOCK
  8
0
  2
*U42
 70
     1
 10
0.0
 20
0.0
 30
0.0
  3
*U42
  1

  0
TEXT
  5
1CBA
  8
SAPA_ARTIKELNR
 10
-7.718729803941148
 20
19.020792428126299
 30
0.0
 40
3.5
  1
68290
 50
19.999999999999979
  7
ISO
  0
ENDBLK
  5
1CBC
  8
0
  0
BLOCK
  8
0
  2
*U43
 70
     1
 10
0.0
 20
0.0
 30
0.0
  3
*U43
  1

  0
TEXT
  5
1CBE
  8
SAPA_ARTIKELNR
 10
-30.574206688465448
 20
82.931531351757656
 30
0.0
 40
3.5
  1
42144
 50
19.999999999999979
  7
ISO
  0
ENDBLK
  5
1CC0
  8
0
  0
BLOCK
  8
0
  2
*U44
 70
     1
 10
0.0
 20
0.0
 30
0.0
  3
*U44
  1

  0
TEXT
  5
1CC2
  8
SAPA_ARTIKELNR
 10
-26.626849754699929
 20
-16.093026453138801
 30
0.0
 40
3.5
  1
68174
  7
ISO
  0
ENDBLK
  5
1CC4
  8
0
  0
BLOCK
  8
0
  2
*U45
 70
     1
 10
0.0
 20
0.0
 30
0.0
  3
*U45
  1

  0
TEXT
  5
1CC6
  8
SAPA_ARTIKELNR
 10
16.496045157063602
 20
-3.5212818282539038
 30
0.0
 40
3.5
  1
68086
  7
ISO
  0
ENDBLK
  5
1CC8
  8
0
  0
BLOCK
  8
0
  2
*U46
 70
     1
 10
0.0
 20
0.0
 30
0.0
  3
*U46
  1

  0
TEXT
  5
1CCA
  8
SAPA_ARTIKELNR
 10
-159.2754692675021
 20
-68.157302737140526
 30
0.0
 40
3.5
  1
00887
  7
ISO
  0
ENDBLK
  5
1CCC
  8
0
  0
BLOCK
  8
0
  2
*X47
 70
     1
 10
0.0
 20
0.0
 30
0.0
  3
*X47
  1

  0
LINE
  5
1CEF
  8
0
 62
     0
 10
35.369016595952488
 20
-9.5507802478786807
 30
0.0
 11
34.689509370400231
 21
-8.8712730223264167
 31
0.0
  0
LINE
  5
1CF0
  8
0
 62
     0
 10
35.405252384963823
 20
-10.709548052023649
 30
0.0
 11
33.866469174811257
 21
-9.1707648418710903
 31
0.0
  0
LINE
  5
1CF1
  8
0
 62
     0
 10
35.530128968540687
 20
-11.95695665073417
 30
0.0
 11
33.043428979222291
 21
-9.4702566614157604
 31
0.0
  0
LINE
  5
1CF2
  8
0
 62
     0
 10
35.770682152180761
 20
-13.320041849507881
 30
0.0
 11
32.220388783633318
 21
-9.769748480960434
 31
0.0
  0
LINE
  5
1CF3
  8
0
 62
     0
 10
36.174938084592632
 20
-14.84682979705339
 30
0.0
 11
31.397348588044341
 21
-10.069240300505109
 31
0.0
  0
LINE
  5
1CF4
  8
0
 62
     0
 10
36.846227281210901
 20
-16.6406510088053
 30
0.0
 11
30.574308392455379
 21
-10.36873212004978
 31
0.0
  0
LINE
  5
1CF5
  8
0
 62
     0
 10
38.129147306350568
 20
-19.046103049078638
 30
0.0
 11
29.751268196866398
 21
-10.66822393959445
 31
0.0
  0
LINE
  5
1CF6
  8
0
 62
     0
 10
39.681428072902293
 20
-21.720915830763989
 30
0.0
 11
28.928228001277429
 21
-10.96771575913913
 31
0.0
  0
LINE
  5
1CF7
  8
0
 62
     0
 10
38.858387877313334
 20
-22.02040765030867
 30
0.0
 11
28.105187805688459
 21
-11.2672075786838
 31
0.0
  0
LINE
  5
1CF8
  8
0
 62
     0
 10
38.035347681724353
 20
-22.31989946985334
 30
0.0
 11
27.2821476100995
 21
-11.566699398228479
 31
0.0
  0
LINE
  5
1CF9
  8
0
 62
     0
 10
37.212307486135387
 20
-22.61939128939802
 30
0.0
 11
26.45910741451052
 21
-11.866191217773149
 31
0.0
  0
LINE
  5
1CFA
  8
0
 62
     0
 10
36.389267290546421
 20
-22.918883108942691
 30
0.0
 11
25.63606721892155
 21
-12.16568303731782
 31
0.0
  0
LINE
  5
1CFB
  8
0
 62
     0
 10
35.566227094957441
 20
-23.218374928487361
 30
0.0
 11
28.061664453306751
 21
-15.713812286836671
 31
0.0
  0
LINE
  5
1CFC
  8
0
 62
     0
 10
34.743186899368467
 20
-23.517866748032041
 30
0.0
 11
29.059304631983981
 21
-17.833984480647551
 31
0.0
  0
LINE
  5
1CFD
  8
0
 62
     0
 10
33.920146703779508
 20
-23.817358567576711
 30
0.0
 11
29.623329261002151
 21
-19.520541124799351
 31
0.0
  0
LINE
  5
1CFE
  8
0
 62
     0
 10
33.097106508190542
 20
-24.116850387121382
 30
0.0
 11
29.965527525650749
 21
-20.985271404581599
 31
0.0
  0
LINE
  5
1CFF
  8
0
 62
     0
 10
32.274066312601562
 20
-24.416342206666059
 30
0.0
 11
30.163597486539231
 21
-22.305873380603732
 31
0.0
  0
LINE
  5
1D00
  8
0
 62
     0
 10
31.451026117012589
 20
-24.715834026210729
 30
0.0
 11
30.2565711902778
 21
-23.52137909947594
 31
0.0
  0
LINE
  5
1D01
  8
0
 62
     0
 10
30.62798592142363
 20
-25.01532584575541
 30
0.0
 11
30.2673888736389
 21
-24.654728797970691
 31
0.0
  0
LINE
  5
1D02
  8
0
 62
     0
 10
38.446407921957658
 20
-22.170320895259131
 30
0.0
 11
39.593235814358771
 21
-21.023493002858022
 31
0.0
  0
LINE
  5
1D03
  8
0
 62
     0
 10
36.681740106022517
 20
-22.812456696060622
 30
0.0
 11
39.088740655628662
 21
-20.40545614645448
 31
0.0
  0
LINE
  5
1D04
  8
0
 62
     0
 10
34.91707229008739
 20
-23.454592496862109
 30
0.0
 11
38.610141264060779
 21
-19.761523522888709
 31
0.0
  0
LINE
  5
1D05
  8
0
 62
     0
 10
33.152404474152249
 20
-24.096728297663599
 30
0.0
 11
38.15796544733044
 21
-19.091167324485401
 31
0.0
  0
LINE
  5
1D06
  8
0
 62
     0
 10
31.387736658217118
 20
-24.73886409846509
 30
0.0
 11
37.732931959852309
 21
-18.393668796829889
 31
0.0
  0
LINE
  5
1D07
  8
0
 62
     0
 10
30.26528503288575
 20
-24.738783708662819
 30
0.0
 11
37.335975559416461
 21
-17.6680931821321
 31
0.0
  0
LINE
  5
1D08
  8
0
 62
     0
 10
30.260451093246601
 20
-23.62108563316831
 30
0.0
 11
36.968281807065907
 21
-16.913254919349001
 31
0.0
  0
LINE
  5
1D09
  8
0
 62
     0
 10
30.1908344476027
 20
-22.568170263678581
 30
0.0
 11
36.6313348823208
 21
-16.127669828960471
 31
0.0
  0
LINE
  5
1D0A
  8
0
 62
     0
 10
30.06595095234475
 20
-21.570521743802878
 30
0.0
 11
36.326983394549032
 21
-15.3094893015986
 31
0.0
  0
LINE
  5
1D0B
  8
0
 62
     0
 10
29.89273716824118
 20
-20.621203512772809
 30
0.0
 11
36.057531902950842
 21
-14.45640877806315
 31
0.0
  0
LINE
  5
1D0C
  8
0
 62
     0
 10
29.676414138256941
 20
-19.714994527623411
 30
0.0
 11
35.825870397171357
 21
-13.565538268708989
 31
0.0
  0
LINE
  5
1D0D
  8
0
 62
     0
 10
29.42100706188269
 20
-18.847869588864
 30
0.0
 11
35.635661854917302
 21
-12.633214795829391
 31
0.0
  0
LINE
  5
1D0E
  8
0
 62
     0
 10
29.129674744621031
 20
-18.01666989099202
 30
0.0
 11
35.491622273545033
 21
-11.65472236206802
 31
0.0
  0
LINE
  5
1D0F
  8
0
 62
     0
 10
28.804927293505411
 20
-17.218885326974
 30
0.0
 11
35.399954972121201
 21
-10.62385764835822
 31
0.0
  0
LINE
  5
1D10
  8
0
 62
     0
 10
28.448774800982431
 20
-16.45250580436333
 30
0.0
 11
35.369057130826562
 21
-9.5322234745191992
 31
0.0
  0
LINE
  5
1D11
  8
0
 62
     0
 10
28.06283157501403
 20
-15.715917015198089
 30
0.0
 11
35.032161453796348
 21
-8.746587136415771
 31
0.0
  0
LINE
  5
1D12
  8
0
 62
     0
 10
27.648390656494449
 20
-15.007825918584031
 30
0.0
 11
33.267493637861222
 21
-9.3887229372172616
 31
0.0
  0
LINE
  5
1D13
  8
0
 62
     0
 10
27.206477795057332
 20
-14.327206764887499
 30
0.0
 11
31.502825821926081
 21
-10.03085873801875
 31
0.0
  0
LINE
  5
1D14
  8
0
 62
     0
 10
26.737890753786811
 20
-13.67326179102438
 30
0.0
 11
29.73815800599095
 21
-10.67299453882023
 31
0.0
  0
LINE
  5
1D15
  8
0
 62
     0
 10
26.24322777877812
 20
-13.045392750899421
 30
0.0
 11
27.97349019005582
 21
-11.31513033962173
 31
0.0
  0
LINE
  5
1D16
  8
0
 62
     0
 10
25.722907766098221
 20
-12.44318074844567
 30
0.0
 11
26.208822374120679
 21
-11.95726614042322
 31
0.0
  0
ENDBLK
  5
1D18
  8
0
  0
BLOCK
  8
0
  2
*X48
 70
     1
 10
0.0
 20
0.0
 30
0.0
  3
*X48
  1

  0
LINE
  5
1D1A
  8
0
 62
     0
 10
29.368742603101481
 20
-21.997040985523391
 30
0.0
 11
29.477791615254649
 21
-21.808162555958901
 31
0.0
  0
LINE
  5
1D1B
  8
0
 62
     0
 10
28.17811760310148
 20
-24.059263978285092
 30
0.0
 11
28.574992603101482
 21
-23.371856314031191
 31
0.0
  0
LINE
  5
1D1C
  8
0
 62
     0
 10
26.987492603101479
 20
-26.121486971046782
 30
0.0
 11
27.384367603101481
 21
-25.434079306792881
 31
0.0
  0
LINE
  5
1D1D
  8
0
 62
     0
 10
28.178117887597569
 20
-21.309633485523388
 30
0.0
 11
28.574992887597571
 21
-20.622225821269492
 31
0.0
  0
LINE
  5
1D1E
  8
0
 62
     0
 10
26.987492887597568
 20
-23.371856478285078
 30
0.0
 11
27.38436788759757
 21
-22.684448814031189
 31
0.0
  0
LINE
  5
1D1F
  8
0
 62
     0
 10
25.796867887597571
 20
-25.434079471046768
 30
0.0
 11
26.193742887597569
 21
-24.746671806792879
 31
0.0
  0
LINE
  5
1D20
  8
0
 62
     0
 10
24.969269680470891
 20
-26.86752161404311
 30
0.0
 11
25.003117887597568
 21
-26.808894799554569
 31
0.0
  0
LINE
  5
1D21
  8
0
 62
     0
 10
28.178118172093669
 20
-18.560002992761689
 30
0.0
 11
28.57499317209367
 21
-17.872595328507799
 31
0.0
  0
LINE
  5
1D22
  8
0
 62
     0
 10
26.987493172093671
 20
-20.622225985523389
 30
0.0
 11
27.384368172093669
 21
-19.934818321269489
 31
0.0
  0
LINE
  5
1D23
  8
0
 62
     0
 10
25.796868172093671
 20
-22.684448978285079
 30
0.0
 11
26.193743172093669
 21
-21.99704131403119
 31
0.0
  0
LINE
  5
1D24
  8
0
 62
     0
 10
24.60624317209367
 20
-24.74667197104678
 30
0.0
 11
25.003118172093671
 21
-24.05926430679288
 31
0.0
  0
LINE
  5
1D25
  8
0
 62
     0
 10
23.588855452569611
 20
-26.508839192259089
 30
0.0
 11
23.812493172093671
 21
-26.12148729955457
 31
0.0
  0
LINE
  5
1D26
  8
0
 62
     0
 10
26.987493456589771
 20
-17.8725954927617
 30
0.0
 11
27.38436845658978
 21
-17.1851878285078
 31
0.0
  0
LINE
  5
1D27
  8
0
 62
     0
 10
25.79686845658977
 20
-19.93481848552339
 30
0.0
 11
26.193743456589772
 21
-19.24741082126949
 31
0.0
  0
LINE
  5
1D28
  8
0
 62
     0
 10
24.60624345658977
 20
-21.997041478285091
 30
0.0
 11
25.003118456589771
 21
-21.309633814031191
 31
0.0
  0
LINE
  5
1D29
  8
0
 62
     0
 10
23.415618456589769
 20
-24.059264471046781
 30
0.0
 11
23.81249345658977
 21
-23.371856806792881
 31
0.0
  0
LINE
  5
1D2A
  8
0
 62
     0
 10
22.406504505595908
 20
-25.807101104794711
 30
0.0
 11
22.62186845658977
 21
-25.434079799554571
 31
0.0
  0
LINE
  5
1D2B
  8
0
 62
     0
 10
26.987493741085871
 20
-15.122965000000001
 30
0.0
 11
27.034643742169791
 21
-15.04129880254572
 31
0.0
  0
LINE
  5
1D2C
  8
0
 62
     0
 10
25.796868741085859
 20
-17.185187992761691
 30
0.0
 11
26.193743741085861
 21
-16.497780328507801
 31
0.0
  0
LINE
  5
1D2D
  8
0
 62
     0
 10
24.606243741085859
 20
-19.247410985523381
 30
0.0
 11
25.00311874108586
 21
-18.560003321269491
 31
0.0
  0
LINE
  5
1D2E
  8
0
 62
     0
 10
23.415618741085861
 20
-21.309633978285081
 30
0.0
 11
23.812493741085859
 21
-20.622226314031181
 31
0.0
  0
LINE
  5
1D2F
  8
0
 62
     0
 10
22.224993741085861
 20
-23.371856971046771
 30
0.0
 11
22.621868741085859
 21
-22.684449306792882
 31
0.0
  0
LINE
  5
1D30
  8
0
 62
     0
 10
21.377747348533251
 20
-24.83933076947735
 30
0.0
 11
21.431243741085861
 21
-24.746672299554572
 31
0.0
  0
LINE
  5
1D31
  8
0
 62
     0
 10
25.796869025581959
 20
-14.4355575
 30
0.0
 11
25.974644923321492
 21
-14.12764061275398
 31
0.0
  0
LINE
  5
1D32
  8
0
 62
     0
 10
24.606244025581962
 20
-16.497780492761699
 30
0.0
 11
25.00311902558197
 21
-15.8103728285078
 31
0.0
  0
LINE
  5
1D33
  8
0
 62
     0
 10
23.415619025581961
 20
-18.560003485523389
 30
0.0
 11
23.812494025581959
 21
-17.872595821269488
 31
0.0
  0
LINE
  5
1D34
  8
0
 62
     0
 10
22.22499402558196
 20
-20.622226478285089
 30
0.0
 11
22.621869025581962
 21
-19.934818814031189
 31
0.0
  0
LINE
  5
1D35
  8
0
 62
     0
 10
21.03436902558196
 20
-22.684449471046779
 30
0.0
 11
21.431244025581961
 21
-21.997041806792879
 31
0.0
  0
LINE
  5
1D36
  8
0
 62
     0
 10
24.606244310078061
 20
-13.748150000000001
 30
0.0
 11
24.755405377187291
 21
-13.489795453255621
 31
0.0
  0
LINE
  5
1D37
  8
0
 62
     0
 10
23.415619310078061
 20
-15.810372992761691
 30
0.0
 11
23.812494310078058
 21
-15.122965328507799
 31
0.0
  0
LINE
  5
1D38
  8
0
 62
     0
 10
22.22499431007806
 20
-17.87259598552339
 30
0.0
 11
22.621869310078061
 21
-17.185188321269489
 31
0.0
  0
LINE
  5
1D39
  8
0
 62
     0
 10
21.034369310078059
 20
-19.93481897828508
 30
0.0
 11
21.431244310078061
 21
-19.247411314031179
 31
0.0
  0
LINE
  5
1D3A
  8
0
 62
     0
 10
19.843744310078058
 20
-21.99704197104678
 30
0.0
 11
20.24061931007806
 21
-21.30963430679288
 31
0.0
  0
LINE
  5
1D3B
  8
0
 62
     0
 10
22.224994594574159
 20
-15.12296549276169
 30
0.0
 11
22.621869594574161
 21
-14.4355578285078
 31
0.0
  0
LINE
  5
1D3C
  8
0
 62
     0
 10
21.034369594574159
 20
-17.185188485523391
 30
0.0
 11
21.43124459457416
 21
-16.49778082126949
 31
0.0
  0
LINE
  5
1D3D
  8
0
 62
     0
 10
19.843744594574151
 20
-19.24741147828508
 30
0.0
 11
20.240619594574159
 21
-18.56000381403118
 31
0.0
  0
LINE
  5
1D3E
  8
0
 62
     0
 10
21.034369879070251
 20
-14.435557992761691
 30
0.0
 11
21.42219109625281
 21
-13.7638319403483
 31
0.0
  0
LINE
  5
1D3F
  8
0
 62
     0
 10
19.84374487907025
 20
-16.497780985523391
 30
0.0
 11
20.240619879070248
 21
-15.810373321269489
 31
0.0
  0
LINE
  5
1D40
  8
0
 62
     0
 10
26.19374687054292
 20
-15.122970420378641
 30
0.0
 11
25.796871870542919
 21
-14.435562756124749
 31
0.0
  0
LINE
  5
1D41
  8
0
 62
     0
 10
27.384371870542921
 20
-17.18519341314034
 30
0.0
 11
26.98749687054292
 21
-16.497785748886439
 31
0.0
  0
LINE
  5
1D42
  8
0
 62
     0
 10
28.574996870542918
 20
-19.24741640590203
 30
0.0
 11
28.17812187054292
 21
-18.56000874164814
 31
0.0
  0
LINE
  5
1D43
  8
0
 62
     0
 10
29.471838004964528
 20
-20.800790817037971
 30
0.0
 11
29.368746870542921
 21
-20.62223173440983
 31
0.0
  0
LINE
  5
1D44
  8
0
 62
     0
 10
23.812497155039019
 20
-13.74815492761695
 30
0.0
 11
23.514450611008069
 21
-13.23192317033504
 31
0.0
  0
LINE
  5
1D45
  8
0
 62
     0
 10
25.003122155039019
 20
-15.810377920378651
 30
0.0
 11
24.606247155039021
 21
-15.12297025612475
 31
0.0
  0
LINE
  5
1D46
  8
0
 62
     0
 10
26.19374715503902
 20
-17.872600913140339
 30
0.0
 11
25.796872155039019
 21
-17.185193248886439
 31
0.0
  0
LINE
  5
1D47
  8
0
 62
     0
 10
27.384372155039021
 20
-19.934823905902029
 30
0.0
 11
26.987497155039019
 21
-19.247416241648139
 31
0.0
  0
LINE
  5
1D48
  8
0
 62
     0
 10
28.574997155039021
 20
-21.997046898663729
 30
0.0
 11
28.17812215503902
 21
-21.309639234409829
 31
0.0
  0
LINE
  5
1D49
  8
0
 62
     0
 10
22.621872439535121
 20
-14.435562427616951
 30
0.0
 11
22.224997439535109
 21
-13.748154763363059
 31
0.0
  0
LINE
  5
1D4A
  8
0
 62
     0
 10
23.812497439535122
 20
-16.497785420378651
 30
0.0
 11
23.41562243953511
 21
-15.810377756124749
 31
0.0
  0
LINE
  5
1D4B
  8
0
 62
     0
 10
25.003122439535119
 20
-18.560008413140341
 30
0.0
 11
24.60624743953511
 21
-17.872600748886448
 31
0.0
  0
LINE
  5
1D4C
  8
0
 62
     0
 10
26.19374743953512
 20
-20.622231405902038
 30
0.0
 11
25.796872439535111
 21
-19.934823741648142
 31
0.0
  0
LINE
  5
1D4D
  8
0
 62
     0
 10
27.38437243953512
 20
-22.684454398663728
 30
0.0
 11
26.987497439535112
 21
-21.997046734409832
 31
0.0
  0
LINE
  5
1D4E
  8
0
 62
     0
 10
28.574997439535121
 20
-24.746677391425429
 30
0.0
 11
28.178122439535109
 21
-24.059269727171529
 31
0.0
  0
LINE
  5
1D4F
  8
0
 62
     0
 10
21.431247724031209
 20
-15.12296992761695
 30
0.0
 11
21.034372724031211
 21
-14.43556226336305
 31
0.0
  0
LINE
  5
1D50
  8
0
 62
     0
 10
22.62187272403121
 20
-17.18519292037864
 30
0.0
 11
22.224997724031208
 21
-16.49778525612475
 31
0.0
  0
LINE
  5
1D51
  8
0
 62
     0
 10
23.812497724031211
 20
-19.24741591314034
 30
0.0
 11
23.415622724031209
 21
-18.56000824888644
 31
0.0
  0
LINE
  5
1D52
  8
0
 62
     0
 10
25.003122724031211
 20
-21.30963890590203
 30
0.0
 11
24.60624772403121
 21
-20.622231241648141
 31
0.0
  0
LINE
  5
1D53
  8
0
 62
     0
 10
26.193747724031208
 20
-23.371861898663731
 30
0.0
 11
25.796872724031211
 21
-22.684454234409831
 31
0.0
  0
LINE
  5
1D54
  8
0
 62
     0
 10
27.38437272403122
 20
-25.434084891425421
 30
0.0
 11
26.987497724031211
 21
-24.746677227171521
 31
0.0
  0
LINE
  5
1D55
  8
0
 62
     0
 10
20.240623008527301
 20
-15.810377427616951
 30
0.0
 11
19.959213264114851
 21
-15.32296145254961
 31
0.0
  0
LINE
  5
1D56
  8
0
 62
     0
 10
21.431248008527309
 20
-17.872600420378639
 30
0.0
 11
21.0343730085273
 21
-17.185192756124749
 31
0.0
  0
LINE
  5
1D57
  8
0
 62
     0
 10
22.621873008527309
 20
-19.934823413140339
 30
0.0
 11
22.224998008527301
 21
-19.247415748886439
 31
0.0
  0
LINE
  5
1D58
  8
0
 62
     0
 10
23.81249800852731
 20
-21.997046405902029
 30
0.0
 11
23.415623008527302
 21
-21.30963874164814
 31
0.0
  0
LINE
  5
1D59
  8
0
 62
     0
 10
25.003123008527311
 20
-24.05926939866373
 30
0.0
 11
24.606248008527309
 21
-23.37186173440983
 31
0.0
  0
LINE
  5
1D5A
  8
0
 62
     0
 10
26.193748008527312
 20
-26.12149239142542
 30
0.0
 11
25.79687300852731
 21
-25.43408472717152
 31
0.0
  0
LINE
  5
1D5B
  8
0
 62
     0
 10
20.2406232930234
 20
-18.560007920378649
 30
0.0
 11
19.843748293023399
 21
-17.872600256124748
 31
0.0
  0
LINE
  5
1D5C
  8
0
 62
     0
 10
21.431248293023401
 20
-20.622230913140339
 30
0.0
 11
21.0343732930234
 21
-19.934823248886438
 31
0.0
  0
LINE
  5
1D5D
  8
0
 62
     0
 10
22.621873293023398
 20
-22.684453905902039
 30
0.0
 11
22.224998293023411
 21
-21.997046241648139
 31
0.0
  0
LINE
  5
1D5E
  8
0
 62
     0
 10
23.812498293023399
 20
-24.746676898663729
 30
0.0
 11
23.415623293023408
 21
-24.059269234409829
 31
0.0
  0
LINE
  5
1D5F
  8
0
 62
     0
 10
25.00312329302341
 20
-26.80889989142543
 30
0.0
 11
24.606248293023409
 21
-26.12149222717153
 31
0.0
  0
LINE
  5
1D60
  8
0
 62
     0
 10
20.2406235775195
 20
-21.30963841314033
 30
0.0
 11
19.843748577519499
 21
-20.622230748886441
 31
0.0
  0
LINE
  5
1D61
  8
0
 62
     0
 10
21.431248577519511
 20
-23.371861405902031
 30
0.0
 11
21.034373577519499
 21
-22.684453741648131
 31
0.0
  0
LINE
  5
1D62
  8
0
 62
     0
 10
22.621873577519509
 20
-25.434084398663721
 30
0.0
 11
22.2249985775195
 21
-24.746676734409832
 31
0.0
  0
LINE
  5
1D63
  8
0
 62
     0
 10
26.193750000000001
 20
-26.121485
 30
0.0
 11
26.987500000000001
 21
-26.121485
 31
0.0
  0
LINE
  5
1D64
  8
0
 62
     0
 10
23.8125
 20
-26.121485
 30
0.0
 11
24.606249999999999
 21
-26.121485
 31
0.0
  0
LINE
  5
1D65
  8
0
 62
     0
 10
28.574999999999989
 20
-24.746670000000002
 30
0.0
 11
28.683543731030191
 21
-24.746670000000002
 31
0.0
  0
LINE
  5
1D66
  8
0
 62
     0
 10
26.193750000000001
 20
-24.746670000000002
 30
0.0
 11
26.98749999999999
 21
-24.746670000000002
 31
0.0
  0
LINE
  5
1D67
  8
0
 62
     0
 10
23.8125
 20
-24.746670000000002
 30
0.0
 11
24.606249999999999
 21
-24.746670000000002
 31
0.0
  0
LINE
  5
1D68
  8
0
 62
     0
 10
21.431249999999999
 20
-24.746670000000002
 30
0.0
 11
22.225000000000001
 21
-24.746670000000002
 31
0.0
  0
LINE
  5
1D69
  8
0
 62
     0
 10
28.574999999999989
 20
-23.371855
 30
0.0
 11
29.234615677161401
 21
-23.371855
 31
0.0
  0
LINE
  5
1D6A
  8
0
 62
     0
 10
26.193750000000001
 20
-23.371855
 30
0.0
 11
26.98749999999999
 21
-23.371855
 31
0.0
  0
LINE
  5
1D6B
  8
0
 62
     0
 10
23.8125
 20
-23.371855
 30
0.0
 11
24.606249999999999
 21
-23.371855
 31
0.0
  0
LINE
  5
1D6C
  8
0
 62
     0
 10
21.431249999999999
 20
-23.371855
 30
0.0
 11
22.225000000000001
 21
-23.371855
 31
0.0
  0
LINE
  5
1D6D
  8
0
 62
     0
 10
28.574999999999989
 20
-21.997039999999998
 30
0.0
 11
29.368749999999991
 21
-21.997039999999998
 31
0.0
  0
LINE
  5
1D6E
  8
0
 62
     0
 10
26.193749999999991
 20
-21.997039999999998
 30
0.0
 11
26.98749999999999
 21
-21.997039999999998
 31
0.0
  0
LINE
  5
1D6F
  8
0
 62
     0
 10
23.812499999999989
 20
-21.997039999999998
 30
0.0
 11
24.606249999999989
 21
-21.997039999999998
 31
0.0
  0
LINE
  5
1D70
  8
0
 62
     0
 10
21.431249999999991
 20
-21.997039999999998
 30
0.0
 11
22.225000000000001
 21
-21.997039999999998
 31
0.0
  0
LINE
  5
1D71
  8
0
 62
     0
 10
19.718339388274611
 20
-21.997039999999998
 30
0.0
 11
19.84375
 21
-21.997039999999998
 31
0.0
  0
LINE
  5
1D72
  8
0
 62
     0
 10
28.574999999999989
 20
-20.622225
 30
0.0
 11
29.368749999999991
 21
-20.622225
 31
0.0
  0
LINE
  5
1D73
  8
0
 62
     0
 10
26.193749999999991
 20
-20.622225
 30
0.0
 11
26.98749999999999
 21
-20.622225
 31
0.0
  0
LINE
  5
1D74
  8
0
 62
     0
 10
23.812499999999989
 20
-20.622225
 30
0.0
 11
24.606249999999989
 21
-20.622225
 31
0.0
  0
LINE
  5
1D75
  8
0
 62
     0
 10
21.431249999999991
 20
-20.622225
 30
0.0
 11
22.225000000000001
 21
-20.622225
 31
0.0
  0
LINE
  5
1D76
  8
0
 62
     0
 10
19.326476152079088
 20
-20.622225
 30
0.0
 11
19.84375
 21
-20.622225
 31
0.0
  0
LINE
  5
1D77
  8
0
 62
     0
 10
28.574999999999989
 20
-19.247409999999999
 30
0.0
 11
29.241437194110059
 21
-19.247409999999999
 31
0.0
  0
LINE
  5
1D78
  8
0
 62
     0
 10
26.193749999999991
 20
-19.247409999999999
 30
0.0
 11
26.98749999999999
 21
-19.247409999999999
 31
0.0
  0
LINE
  5
1D79
  8
0
 62
     0
 10
23.812499999999989
 20
-19.247409999999999
 30
0.0
 11
24.606249999999989
 21
-19.247409999999999
 31
0.0
  0
LINE
  5
1D7A
  8
0
 62
     0
 10
21.431249999999991
 20
-19.247409999999999
 30
0.0
 11
22.225000000000001
 21
-19.247409999999999
 31
0.0
  0
LINE
  5
1D7B
  8
0
 62
     0
 10
19.14515929790339
 20
-19.247409999999999
 30
0.0
 11
19.84375
 21
-19.247409999999999
 31
0.0
  0
LINE
  5
1D7C
  8
0
 62
     0
 10
28.574999999999989
 20
-17.872595
 30
0.0
 11
28.811160618551181
 21
-17.872595
 31
0.0
  0
LINE
  5
1D7D
  8
0
 62
     0
 10
26.193749999999991
 20
-17.872595
 30
0.0
 11
26.98749999999999
 21
-17.872595
 31
0.0
  0
LINE
  5
1D7E
  8
0
 62
     0
 10
23.812499999999989
 20
-17.872595
 30
0.0
 11
24.606249999999989
 21
-17.872595
 31
0.0
  0
LINE
  5
1D7F
  8
0
 62
     0
 10
21.431249999999991
 20
-17.872595
 30
0.0
 11
22.225000000000001
 21
-17.872595
 31
0.0
  0
LINE
  5
1D80
  8
0
 62
     0
 10
19.176751739446349
 20
-17.872595
 30
0.0
 11
19.84375
 21
-17.872595
 31
0.0
  0
LINE
  5
1D81
  8
0
 62
     0
 10
26.193749999999991
 20
-16.497779999999999
 30
0.0
 11
26.98749999999999
 21
-16.497779999999999
 31
0.0
  0
LINE
  5
1D82
  8
0
 62
     0
 10
23.812499999999989
 20
-16.497779999999999
 30
0.0
 11
24.606249999999989
 21
-16.497779999999999
 31
0.0
  0
LINE
  5
1D83
  8
0
 62
     0
 10
21.431249999999991
 20
-16.497779999999999
 30
0.0
 11
22.225000000000001
 21
-16.497779999999999
 31
0.0
  0
LINE
  5
1D84
  8
0
 62
     0
 10
19.455112455716769
 20
-16.497779999999999
 30
0.0
 11
19.84375
 21
-16.497779999999999
 31
0.0
  0
LINE
  5
1D85
  8
0
 62
     0
 10
26.193750000000001
 20
-15.122965000000001
 30
0.0
 11
26.98749999999999
 21
-15.122965000000001
 31
0.0
  0
LINE
  5
1D86
  8
0
 62
     0
 10
23.8125
 20
-15.122965000000001
 30
0.0
 11
24.606249999999999
 21
-15.122965000000001
 31
0.0
  0
LINE
  5
1D87
  8
0
 62
     0
 10
21.431249999999999
 20
-15.122965000000001
 30
0.0
 11
22.225000000000001
 21
-15.122965000000001
 31
0.0
  0
LINE
  5
1D88
  8
0
 62
     0
 10
23.8125
 20
-13.748150000000001
 30
0.0
 11
24.606249999999999
 21
-13.748150000000001
 31
0.0
  0
LINE
  5
1D89
  8
0
 62
     0
 10
21.44782850029042
 20
-13.748150000000001
 30
0.0
 11
22.225000000000001
 21
-13.748150000000001
 31
0.0
  0
ENDBLK
  5
1D8B
  8
0
  0
BLOCK
  8
0
  2
*U49
 70
     1
 10
0.0
 20
0.0
 30
0.0
  3
*U49
  1

  0
TEXT
  5
1D8D
  8
0
 62
     2
 10
-143.5571994401231
 20
-280.84842871359621
 30
0.0
 40
3.0
  1
300
 50
109.9999999999999
  7
ISO
  0
ENDBLK
  5
1D8F
  8
0
  0
BLOCK
  8
0
  2
*U50
 70
     1
 10
0.0
 20
0.0
 30
0.0
  3
*U50
  1

  0
TEXT
  5
1D91
  8
0
 62
     2
 10
-158.74492788772019
 20
-206.2437235272034
 30
0.0
 40
3.0
  1
150
 50
109.9999999999999
  7
ISO
  0
ENDBLK
  5
1D93
  8
0
  0
BLOCK
  8
0
  2
*U51
 70
     1
 10
0.0
 20
0.0
 30
0.0
  3
*U51
  1

  0
TEXT
  5
1E4C
  8
0
 62
     2
 10
27.193025901410518
 20
49.229365049884841
 30
0.0
 40
3.0
  1
50
  7
BYGG-01473402$0$ISO
  0
ENDBLK
  5
1E4E
  8
0
  0
BLOCK
  8
0
  2
*U52
 70
     1
 10
0.0
 20
0.0
 30
0.0
  3
*U52
  1

  0
TEXT
  5
1E50
  8
0
 62
     2
 10
63.040530869310679
 20
24.927474405712271
 30
0.0
 40
3.0
  1
25
 50
90.0
  7
BYGG-01473402$0$ISO
  0
ENDBLK
  5
1E52
  8
0
  0
BLOCK
  8
0
  2
*U53
 70
     1
 10
0.0
 20
0.0
 30
0.0
  3
*U53
  1

  0
TEXT
  5
1E76
  8
0
 62
     2
 10
284.82100775789411
 20
-326.41284250989833
 30
0.0
 40
3.0
  1
60
  7
BYGG-014680$0$ISO
  0
ENDBLK
  5
1E78
  8
0
  0
BLOCK
  8
0
  2
*U54
 70
     1
 10
0.0
 20
0.0
 30
0.0
  3
*U54
  1

  0
TEXT
  5
1E7A
  8
0
 62
     2
 10
327.91011454206352
 20
-292.96547784569952
 30
0.0
 40
3.0
  1
39
 50
90.0
  7
BYGG-014680$0$ISO
  0
ENDBLK
  5
1E7C
  8
0
  0
BLOCK
  8
0
  2
*U55
 70
     1
 10
0.0
 20
0.0
 30
0.0
  3
*U55
  1

  0
TEXT
  5
1EAE
  8
0
 62
     2
 10
130.33097964863219
 20
-266.28469737235088
 30
0.0
 40
3.0
  1
50
  7
BYGG-01458701$0$ISO
  0
ENDBLK
  5
1EB0
  8
0
  0
BLOCK
  8
0
  2
*U56
 70
     1
 10
0.0
 20
0.0
 30
0.0
  3
*U56
  1

  0
TEXT
  5
1EB2
  8
0
 62
     2
 10
95.674012818561607
 20
-298.58820846912988
 30
0.0
 40
3.0
  1
36
 50
90.0
  7
BYGG-01458701$0$ISO
  0
ENDBLK
  5
1EB4
  8
0
  0
BLOCK
  8
0
  2
*U57
 70
     1
 10
0.0
 20
0.0
 30
0.0
  3
*U57
  1

  0
TEXT
  5
1F15
  8
0
 62
     2
 10
2.924893507843874
 20
11.80837843001756
 30
0.0
 40
3.0
  1
7
 50
90.0
  7
BYGG-014252$0$ISO
  0
ENDBLK
  5
1F17
  8
0
  0
BLOCK
  8
0
  2
*U58
 70
     1
 10
0.0
 20
0.0
 30
0.0
  3
*U58
  1

  0
TEXT
  5
1F19
  8
0
 62
     2
 10
29.55729736359487
 20
1.4710805811525349
 30
0.0
 40
3.0
  1
47.6
  7
BYGG-014252$0$ISO
  0
ENDBLK
  5
1F1B
  8
0
  0
BLOCK
  8
0
  2
*U59
 70
     1
 10
0.0
 20
0.0
 30
0.0
  3
*U59
  1

  0
TEXT
  5
1F73
  8
0
 62
     2
 10
639.58702159746713
 20
176.2962703174627
 30
0.0
 40
3.0
  1
30
 50
90.0
  7
BYGG-013690$0$ISO
  0
ENDBLK
  5
1F75
  8
0
  0
BLOCK
  8
0
  2
*U60
 70
     1
 10
0.0
 20
0.0
 30
0.0
  3
*U60
  1

  0
TEXT
  5
1F77
  8
0
 62
     2
 10
658.40267129095673
 20
202.3320694821046
 30
0.0
 40
3.0
  1
23
  7
BYGG-013690$0$ISO
  0
ENDBLK
  5
1F79
  8
0
  0
BLOCK
  8
0
  2
*U61
 70
     1
 10
0.0
 20
0.0
 30
0.0
  3
*U61
  1

  0
TEXT
  5
1F7B
  8
0
 62
     2
 10
669.41458073977537
 20
117.9366029717615
 30
0.0
 40
3.0
  1
3
  7
BYGG-013690$0$ISO
  0
ENDBLK
  5
1F7D
  8
0
  0
BLOCK
  8
0
  2
*U62
 70
     1
 10
0.0
 20
0.0
 30
0.0
  3
*U62
  1

  0
TEXT
  5
2022
  8
0
 62
     2
 10
0.5328822921663806
 20
9.0502012347750629
 30
0.0
 40
3.0
  1
50
 50
20.000000000000028
  7
BYGG-01473402$0$ISO
  0
ENDBLK
  5
2024
  8
0
  0
BLOCK
  8
0
  2
*U63
 70
     1
 10
0.0
 20
0.0
 30
0.0
  3
*U63
  1

  0
TEXT
  5
2026
  8
0
 62
     2
 10
-36.831520680659793
 20
19.183847039255749
 30
0.0
 40
3.0
  1
25
 50
290.0
  7
BYGG-01473402$0$ISO
  0
ENDBLK
  5
2028
  8
0
  0
BLOCK
  8
0
  2
*U64
 70
     1
 10
0.0
 20
0.0
 30
0.0
  3
*U64
  1

  0
TEXT
  5
202A
  8
0
 62
     2
 10
-30.69344665624881
 20
89.805452291151624
 30
0.0
 40
3.0
  1
47.6
 50
20.000000000000028
  7
BYGG-014252$0$ISO
  0
ENDBLK
  5
202C
  8
0
  0
BLOCK
  8
0
  2
*U65
 70
     1
 10
0.0
 20
0.0
 30
0.0
  3
*U65
  1

  0
TEXT
  5
2320
  8
0
 62
     2
 10
-177.47074174732771
 20
-52.69252404777334
 30
0.0
 40
3.0
  1
30
 50
290.00000000000261
  7
BYGG-013690$0$ISO
  0
ENDBLK
  5
2322
  8
0
  0
BLOCK
  8
0
  2
*U66
 70
     1
 10
0.0
 20
0.0
 30
0.0
  3
*U66
  1

  0
TEXT
  5
2324
  8
0
 62
     2
 10
-169.13667505495741
 20
-26.424513531862559
 30
0.0
 40
3.0
  1
23
 50
20.00000000000065
  7
BYGG-013690$0$ISO
  0
ENDBLK
  5
2326
  8
0
  0
BLOCK
  8
0
  2
*U67
 70
     1
 10
0.0
 20
0.0
 30
0.0
  3
*U67
  1

  0
TEXT
  5
2328
  8
0
 62
     2
 10
-130.50401543655559
 20
-101.6741053024752
 30
0.0
 40
3.0
  1
3
  7
BYGG-013690$0$ISO
  0
ENDBLK
  5
232A
  8
0
  0
BLOCK
  8
0
  2
*U68
 70
     1
 10
0.0
 20
0.0
 30
0.0
  3
*U68
  1

  0
TEXT
  5
232C
  8
0
 62
     2
 10
5.7399697751489178
 20
89.937053261628506
 30
0.0
 40
3.0
  1
7
 50
290.00000000000011
  7
BYGG-014252$0$ISO
  0
ENDBLK
  5
232E
  8
0
  0
BLOCK
  8
0
  2
*U69
 70
     1
 10
0.0
 20
0.0
 30
0.0
  3
*U69
  1

  0
TEXT
  5
2330
  8
0
 62
     2
 10
-6.23970341272795
 20
27.657727530293261
 30
0.0
 40
3.0
  1
50
 50
20.000000000000089
  7
BYGG-01458701$0$ISO
  0
ENDBLK
  5
2332
  8
0
  0
BLOCK
  8
0
  2
*U70
 70
     1
 10
0.0
 20
0.0
 30
0.0
  3
*U70
  1

  0
TEXT
  5
2334
  8
0
 62
     2
 10
-27.366146327620338
 20
-9.7804309213834788
 30
0.0
 40
3.0
  1
36
 50
290.00000000000011
  7
BYGG-01458701$0$ISO
  0
ENDBLK
  5
2336
  8
0
  0
BLOCK
  8
0
  2
*U71
 70
     1
 10
0.0
 20
0.0
 30
0.0
  3
*U71
  1

  0
TEXT
  5
2338
  8
0
 62
     2
 10
-29.27819181131937
 20
-40.31550010297137
 30
0.0
 40
3.0
  1
60
 50
350.00000000000142
  7
BYGG-014680$0$ISO
  0
ENDBLK
  5
233A
  8
0
  0
BLOCK
  8
0
  2
*U72
 70
     1
 10
0.0
 20
0.0
 30
0.0
  3
*U72
  1

  0
TEXT
  5
233C
  8
0
 62
     2
 10
18.964368541800749
 20
-14.85862093420805
 30
0.0
 40
3.0
  1
39
 50
79.999999999999801
  7
BYGG-014680$0$ISO
  0
ENDBLK
  5
233E
  8
0
  0
BLOCK
  8
0
  2
*U73
 70
     1
 10
0.0
 20
0.0
 30
0.0
  3
*U73
  1

  0
TEXT
  5
2458
  8
SAPA_MATT
 62
     2
 10
-143.5571994401231
 20
-280.84842871359621
 30
0.0
 40
3.0
  1
300
 50
109.9999999999999
  7
ISO
  0
ENDBLK
  5
245A
  8
0
  0
BLOCK
  8
0
  2
*U74
 70
     1
 10
0.0
 20
0.0
 30
0.0
  3
*U74
  1

  0
TEXT
  5
245C
  8
SAPA_MATT
 62
     2
 10
-158.74492788772019
 20
-206.2437235272034
 30
0.0
 40
3.0
  1
150
 50
109.9999999999999
  7
ISO
  0
ENDBLK
  5
245E
  8
0
  0
ENDSEC
  0
SECTION
  2
ENTITIES
  0
ARC
  5
761
  8
SAPA_ANSLUTNING
 10
0.0
 20
-0.0000000000000002
 30
0.0
 40
10.100000000000041
 50
0.1169084134508354
 51
150.1141340101089
  0
ARC
  5
764
  8
SAPA_ANSLUTNING
 10
0.0
 20
-0.0000000000000002
 30
0.0
 40
11.400000000000039
 50
0.103576736810676
 51
145.98881995833639
  0
LINE
  5
765
  8
SAPA_ANSLUTNING
 10
10.09997897492782
 20
0.020608396753687
 30
0.0
 11
11.39998137252795
 21
0.020608396753687
 31
0.0
  0
ARC
  5
766
  8
SAPA_ANSLUTNING
 10
0.0
 20
-0.0000000000000002
 30
0.0
 40
10.750000000000041
 50
0.1169084134508354
 51
34.326769817923932
  0
LINE
  5
767
  8
SAPA_ANSLUTNING
 10
-6.4497915563033823
 20
9.4000100468158312
 30
0.0
 11
-5.7142890104091402
 21
8.3280790765649062
 31
0.0
  0
LINE
  5
76D
  8
SAPA_ANSLUTNING
 10
8.3409326200216434
 20
5.6955107785219541
 30
0.0
 11
9.4145180067570973
 21
6.4285963242723021
 31
0.0
  0
ARC
  5
76E
  8
SAPA_ANSLUTNING
 10
0.0
 20
-0.0000000000000002
 30
0.0
 40
10.750000000000041
 50
124.4558612119786
 51
147.9741470624692
  0
LINE
  5
77E
  8
SAPA_PROFIL
 10
-46.256840816064518
 20
26.795175483276189
 30
0.0
 11
-31.879543718040161
 21
32.028083676158921
 31
0.0
  0
LINE
  5
77F
  8
SAPA_PROFIL
 10
-37.706337232922799
 20
3.3028599636284812
 30
0.0
 11
-23.610947921134169
 21
8.4331621135135073
 31
0.0
  0
LINE
  5
781
  8
SAPA_PROFIL
 10
-37.706337232922799
 20
3.3028599636284799
 30
0.0
 11
-46.256840816064518
 21
26.7951754832762
 31
0.0
  0
LINE
  5
795
  8
SAPA_PROFIL
 10
35.344388134559424
 20
-7.3550724477099374
 30
0.0
 11
50.379470067133482
 21
-1.882750154499411
 31
0.0
  0
INSERT
  5
899
  8
0
  2
*U42
 10
0.0
 20
0.0
 30
0.0
  0
INSERT
  5
89A
  8
0
  2
*U43
 10
0.0
 20
0.0
 30
0.0
  0
INSERT
  5
89B
  8
0
  2
*U44
 10
0.0
 20
0.0
 30
0.0
  0
INSERT
  5
89C
  8
0
  2
*U45
 10
0.0
 20
0.0
 30
0.0
  0
INSERT
  5
89D
  8
0
  2
*U46
 10
0.0
 20
0.0
 30
0.0
  0
LINE
  5
8AC
  8
SAPA_ANSLUTNING
 10
-13.28859484440334
 20
4.1835005918292394
 30
0.0
 11
-12.547722784187339
 21
2.879235055064854
 31
0.0
  0
LINE
  5
8AD
  8
SAPA_ANSLUTNING
 10
-12.918158814295341
 20
3.5313678234470451
 30
0.0
 11
-9.1273349194294742
 21
5.6846988973268617
 31
0.0
  0
POLYLINE
  5
8B3
  8
SAPA_LIGHT
 66
     1
 10
0.0
 20
0.0
 30
0.0
  0
VERTEX
  5
1CCD
  8
SAPA_LIGHT
 10
23.373683118161601
 20
25.534169279795972
 30
0.0
  0
VERTEX
  5
1CCE
  8
SAPA_LIGHT
 10
-23.610947921133839
 20
8.4331621135125374
 30
0.0
  0
VERTEX
  5
1CCF
  8
SAPA_LIGHT
 10
-32.225652659243131
 20
32.101868856737269
 30
0.0
  0
VERTEX
  5
1CD0
  8
SAPA_LIGHT
 10
-13.431800243525171
 20
38.942271723250563
 30
0.0
  0
VERTEX
  5
1CD1
  8
SAPA_LIGHT
 10
-24.353446790002451
 20
68.949248992961458
 30
0.0
  0
VERTEX
  5
1CD2
  8
SAPA_LIGHT
 10
-40.232069383629842
 20
63.169903007734248
 30
0.0
  0
VERTEX
  5
1CD3
  8
SAPA_LIGHT
 10
-44.295107988514161
 20
74.333009829026366
 30
0.0
  0
VERTEX
  5
1CD4
  8
SAPA_LIGHT
 10
-3.1409365934002831
 20
89.311903232737407
 30
0.0
  0
VERTEX
  5
1CD5
  8
SAPA_LIGHT
 10
1.524057463736451
 20
76.494937398864295
 30
0.0
  0
VERTEX
  5
1CD6
  8
SAPA_LIGHT
 10
-14.35456512989111
 20
70.715591413637142
 30
0.0
  0
VERTEX
  5
1CD7
  8
SAPA_LIGHT
 10
-5.8040615467484571
 20
47.22327589398688
 30
0.0
  0
VERTEX
  5
1CD8
  8
SAPA_LIGHT
 10
12.98979086896982
 20
54.063678760500309
 30
0.0
  0
VERTEX
  5
1CD9
  8
SAPA_LIGHT
 10
23.373683118161608
 20
25.534169279795979
 30
0.0
  0
SEQEND
  5
1CDA
  8
SAPA_LIGHT
  0
POLYLINE
  5
8B5
  8
SAPA_LIGHT
 66
     1
 10
0.0
 20
0.0
 30
0.0
  0
VERTEX
  5
1CDB
  8
SAPA_LIGHT
 10
19.474369218401488
 20
83.028316573360996
 30
0.0
  0
VERTEX
  5
1CDC
  8
SAPA_LIGHT
 10
-8.7164094051758205
 20
72.767712273591087
 30
0.0
  0
VERTEX
  5
1CDD
  8
SAPA_LIGHT
 10
-0.1659058220335301
 20
49.275396753940718
 30
0.0
  0
VERTEX
  5
1CDE
  8
SAPA_LIGHT
 10
28.024872801543541
 20
59.536001053711082
 30
0.0
  0
SEQEND
  5
1CDF
  8
SAPA_LIGHT
  0
POLYLINE
  5
8B6
  8
SAPA_LIGHT
 66
     1
 10
0.0
 20
0.0
 30
0.0
  0
VERTEX
  5
1CE0
  8
SAPA_LIGHT
 10
-23.610947921134191
 20
8.4331621135135055
 30
0.0
  0
VERTEX
  5
1CE1
  8
SAPA_LIGHT
 10
-10.0
 20
-28.99999999999995
 30
0.0
  0
VERTEX
  5
1CE2
  8
SAPA_LIGHT
 10
50.0
 20
-28.99999999999994
 30
0.0
  0
VERTEX
  5
1CE3
  8
SAPA_LIGHT
 10
50.0
 20
-25.99999999999994
 30
0.0
  0
VERTEX
  5
1CE4
  8
SAPA_LIGHT
 10
43.071796769724408
 20
-21.99999999999994
 30
0.0
  0
VERTEX
  5
1CE5
  8
SAPA_LIGHT
 10
35.587383134146997
 20
-8.0226957221172288
 30
0.0
  0
VERTEX
  5
1CE6
  8
SAPA_LIGHT
 10
23.373683118161608
 20
25.534169279795979
 30
0.0
  0
VERTEX
  5
1CE7
  8
SAPA_LIGHT
 10
-23.610947921134191
 20
8.4331621135135038
 30
0.0
  0
SEQEND
  5
1CE8
  8
SAPA_LIGHT
  0
LINE
  5
1513
  8
SAPA_ANSLUTNING
 10
40.273299984276811
 20
-21.774287777339079
 30
0.0
 11
174.05801259898811
 21
-389.3447647544844
 31
0.0
  0
LINE
  5
1514
  8
SAPA_ANSLUTNING
 10
-96.938393348921636
 20
-100.901745084685
 30
0.0
 11
7.2067402937446481
 21
-387.03814811399428
 31
0.0
  0
LINE
  5
1515
  8
SAPA_ANSLUTNING
 10
-98.347932280100508
 20
-101.41477529967349
 30
0.0
 11
4.6001308609257316
 21
-384.26225415623202
 31
0.0
  0
LINE
  5
1517
  8
SAPA_ANSLUTNING
 10
-100.55138131249861
 20
-104.1426287602287
 30
0.0
 11
0.7516607685239702
 21
-382.47044939990218
 31
0.0
  0
LINE
  5
151A
  8
SAPA_ANSLUTNING
 10
35.404421104199479
 20
-400.18694261811942
 30
0.0
 11
-24.728706557627401
 21
-422.07361118035408
 31
0.0
  0
LINE
  5
151B
  8
SAPA_ANSLUTNING
 10
7.206740293744665
 20
-387.03814811399428
 30
0.0
 11
-32.253149710792108
 21
-401.4003735230641
 31
0.0
  0
LINE
  5
151C
  8
SAPA_ANSLUTNING
 10
3.4047859060054502
 20
-386.82567968445522
 30
0.0
 11
-32.766179925780641
 21
-399.99083459188512
 31
0.0
  0
LINE
  5
151D
  8
SAPA_ANSLUTNING
 10
0.3681822673226733
 20
-385.80255747724829
 30
0.0
 11
-33.450220212431979
 21
-398.11144935031331
 31
0.0
  0
LINE
  5
151E
  8
SAPA_ANSLUTNING
 10
-0.4436841863960482
 20
-385.0338749281251
 30
0.0
 11
-33.79224035575767
 21
-397.17175672952737
 31
0.0
  0
LINE
  5
1526
  8
SAPA_ANSLUTNING
 10
-29.266079708384421
 20
-399.56249882018312
 30
0.0
 11
-19.872669044888688
 21
-396.13265391014357
 31
0.0
  0
LINE
  5
1527
  8
SAPA_ANSLUTNING
 10
-29.523318076637601
 20
-398.85799302042102
 30
0.0
 11
-29.008841340131461
 21
-400.26700461994528
 31
0.0
  0
LINE
  5
1528
  8
SAPA_ANSLUTNING
 10
-20.129907413141868
 20
-395.42814811038119
 30
0.0
 11
-19.615430676635729
 21
-396.83715970990551
 31
0.0
  0
LINE
  5
1529
  8
SAPA_ANSLUTNING
 10
-10.47925838139296
 20
-392.7028090001038
 30
0.0
 11
-1.0858477178974579
 21
-389.27296409006402
 31
0.0
  0
LINE
  5
152A
  8
SAPA_ANSLUTNING
 10
-10.73649674964614
 20
-391.9983032003417
 30
0.0
 11
-10.22202001314
 21
-393.40731479986601
 31
0.0
  0
LINE
  5
152B
  8
SAPA_ANSLUTNING
 10
-1.3430860861501861
 20
-388.56845829030181
 30
0.0
 11
-0.8286093496442745
 21
-389.9774698898263
 31
0.0
  0
LINE
  5
152C
  8
SAPA_ANSLUTNING
  6
DASHDOT
 10
63.925970184278569
 20
-429.4295500323816
 30
0.0
 11
176.45309503614561
 21
-388.47302603874527
 31
0.0
  0
ARC
  5
152D
  8
SAPA_ANSLUTNING
 10
-6.2017263937754867
 20
-368.0569305208333
 30
0.0
 40
56.915382799938257
 50
279.11294325954429
 51
330.02613788962879
  0
SOLID
  5
152E
  8
SAPA_ANSLUTNING
 10
42.332555499688191
 20
-395.86614859655839
 30
0.0
 11
44.247450660963437
 21
-396.44336304658941
 31
0.0
 12
45.021646430418201
 22
-390.41007033774781
 32
0.0
 13
45.021646430418201
 23
-390.41007033774781
 33
0.0
  0
ARC
  5
1558
  8
SAPA_ANSLUTNING
 10
-93.782498339151914
 20
-111.58509872940481
 30
0.0
 40
18.974692890818861
 50
124.1035407848513
 51
175.6794938156815
  0
LINE
  5
1559
  8
SAPA_ANSLUTNING
 10
-104.54219090720539
 20
-105.15203367145909
 30
0.0
 11
-105.1478687028759
 21
-111.8555387229879
 31
0.0
  0
LINE
  5
155A
  8
SAPA_ANSLUTNING
 10
-104.15192565875419
 20
-111.9455245711286
 30
0.0
 11
-103.54172982236901
 21
-105.1920148653486
 31
0.0
  0
LINE
  5
155E
  8
SAPA_ANSLUTNING
 10
-105.1478687028759
 20
-111.8555387229879
 30
0.0
 11
-104.15192565875419
 21
-111.9455245711286
 31
0.0
  0
SOLID
  5
155F
  8
SAPA_ANSLUTNING
 10
-111.7059078926044
 20
-110.2282206561313
 30
0.0
 11
-113.7006313212113
 21
-110.08303648562359
 31
0.0
 12
-113.13882211843109
 22
-116.1397988566987
 32
0.0
 13
-113.13882211843109
 23
-116.1397988566987
 33
0.0
  0
LINE
  5
15EE
  8
SAPA_ANSLUTNING
 10
-58.377381177293543
 20
55.134763744827382
 30
0.0
 11
-64.091592784922312
 21
22.72785934103867
 31
0.0
  0
ARC
  5
1605
  8
SAPA_ANSLUTNING
 10
-83.233976981606588
 20
-109.8433265430503
 30
0.0
 40
22.120220664451239
 50
36.878722858842607
 51
115.2482972433851
  0
ARC
  5
160F
  8
SAPA_ANSLUTNING
 10
-101.87275322917689
 20
-105.0900814778992
 30
0.0
 40
2.6701564731612879
 50
36.076718142632743
 51
181.32947930394641
  0
ARC
  5
1610
  8
SAPA_ANSLUTNING
 10
-101.9024154797852
 20
-105.0780658603895
 30
0.0
 40
1.643269877266794
 50
34.698185202829791
 51
183.97624317140949
  0
SOLID
  5
1611
  8
SAPA_ANSLUTNING
 10
-92.327156914581849
 20
-90.775991354484077
 30
0.0
 11
-93.011197201233188
 21
-88.896606112912309
 31
0.0
 12
-98.307332782623135
 22
-91.888419593652173
 32
0.0
 13
-98.307332782623135
 23
-91.888419593652173
 33
0.0
  0
LINE
  5
1617
  8
SAPA_ANSLUTNING
 10
-143.64673241368831
 20
-52.237816325185911
 30
0.0
 11
-132.16018687894501
 21
-83.796840809431117
 31
0.0
  0
LINE
  5
1618
  8
SAPA_ANSLUTNING
 10
-139.96281962907031
 20
-64.552136816286577
 30
0.0
 11
-143.33913112233299
 21
-55.275797227502181
 31
0.0
  0
LINE
  5
1619
  8
SAPA_ANSLUTNING
 10
-123.4680301366753
 20
-80.633154483668747
 30
0.0
 11
-133.569725810124
 21
-84.309871024419579
 31
0.0
  0
LINE
  5
161A
  8
SAPA_ANSLUTNING
 10
-140.6675890946598
 20
-64.808651923780815
 30
0.0
 11
-139.2580501634809
 21
-64.295621708792311
 31
0.0
  0
LINE
  5
1639
  8
SAPA_ANSLUTNING
 10
-33.169284509411909
 20
33.982659128127807
 30
0.0
 11
-58.377381177293543
 21
55.134763744827382
 31
0.0
  0
LINE
  5
163A
  8
SAPA_ANSLUTNING
 10
-16.89433269030792
 20
39.906257154398311
 30
0.0
 11
-27.154305435423112
 21
68.095300595821357
 31
0.0
  0
LINE
  5
163B
  8
SAPA_ANSLUTNING
 10
-27.455072901783971
 20
66.389563531916536
 30
0.0
 11
-33.169284509411909
 21
33.982659128127807
 31
0.0
  0
LINE
  5
1661
  8
SAPA_ANSLUTNING
 10
-12.05380742394664
 20
5.4727162039260966
 30
0.0
 11
-145.54242247963541
 21
-51.41515727495652
 31
0.0
  0
LINE
  5
1662
  8
SAPA_ANSLUTNING
 10
-11.465737737770841
 20
4.0927980743976198
 30
0.0
 11
-143.64673241368831
 21
-52.237816325185911
 31
0.0
  0
LINE
  5
1663
  8
SAPA_ANSLUTNING
 10
-95.369938481325391
 20
-30.875659889088642
 30
0.0
 11
-87.162359404783729
 21
-27.451841461127739
 31
0.0
  0
LINE
  5
1664
  8
SAPA_ANSLUTNING
 10
-95.085598190580242
 20
-31.542870478884829
 30
0.0
 11
-95.673667876755985
 21
-30.162952349356431
 31
0.0
  0
LINE
  5
1665
  8
SAPA_ANSLUTNING
 10
-86.878019114038523
 20
-28.119052050923809
 30
0.0
 11
-87.466088800214308
 21
-26.73913392139545
 31
0.0
  0
LINE
  5
1666
  8
SAPA_ANSLUTNING
 10
-75.818341730247937
 20
-22.54349791541458
 30
0.0
 11
-67.610762653706217
 21
-19.119679487453482
 31
0.0
  0
LINE
  5
1667
  8
SAPA_ANSLUTNING
 10
-75.534001439502788
 20
-23.210708505210729
 30
0.0
 11
-76.122071125678417
 21
-21.830790375682401
 31
0.0
  0
LINE
  5
1668
  8
SAPA_ANSLUTNING
 10
-67.326422362961068
 20
-19.786890077249751
 30
0.0
 11
-67.914492049136697
 21
-18.406971947721271
 31
0.0
  0
LINE
  5
1669
  8
SAPA_ANSLUTNING
 10
-56.266744979170198
 20
-14.211335941740341
 30
0.0
 11
-48.059165902628528
 21
-10.78751751377933
 31
0.0
  0
LINE
  5
166A
  8
SAPA_ANSLUTNING
 10
-55.982404688425042
 20
-14.878546531536641
 30
0.0
 11
-56.570474374600792
 21
-13.49862840200813
 31
0.0
  0
LINE
  5
166B
  8
SAPA_ANSLUTNING
 10
-47.77482561188333
 20
-11.454728103575521
 30
0.0
 11
-48.362895298059129
 21
-10.07480997404712
 31
0.0
  0
LINE
  5
166C
  8
SAPA_ANSLUTNING
 10
-36.71514822809263
 20
-5.8791739680661692
 30
0.0
 11
-28.507569151550801
 21
-2.455355540105074
 31
0.0
  0
LINE
  5
166D
  8
SAPA_ANSLUTNING
 10
-36.430807937347602
 20
-6.5463845578623241
 30
0.0
 11
-37.018877623523167
 21
-5.166466428333905
 31
0.0
  0
LINE
  5
166E
  8
SAPA_ANSLUTNING
 10
-28.223228860805762
 20
-3.1225661299014851
 30
0.0
 11
-28.811298546981341
 21
-1.7426480003727529
 31
0.0
  0
LINE
  5
166F
  8
SAPA_ANSLUTNING
 10
-17.163551477015059
 20
2.4529880056079771
 30
0.0
 11
-11.716900713459831
 21
4.7250761671741648
 31
0.0
  0
LINE
  5
1670
  8
SAPA_ANSLUTNING
 10
-16.879211186269909
 20
1.7857774158118209
 30
0.0
 11
-17.467280872445599
 21
3.1656955453402982
 31
0.0
  0
LINE
  5
1671
  8
SAPA_ANSLUTNING
 10
-11.43256042271469
 20
4.0578655773779806
 30
0.0
 11
-12.020630108890369
 21
5.437783706906429
 31
0.0
  0
ARC
  5
167E
  8
SAPA_ANSLUTNING
 10
-1.1277244730473861
 20
-383.15448968655329
 30
0.0
 40
1.9999999999999989
 50
290.00000000000341
 51
20.000000000000089
  0
ARC
  5
167F
  8
SAPA_ANSLUTNING
 10
-0.4868680909915284
 20
-383.45332592528348
 30
0.0
 40
2.4999999999999991
 50
290.00000000000341
 51
20.000000000000089
  0
ARC
  5
1680
  8
SAPA_ANSLUTNING
 10
2.7207456193541111
 20
-384.9462944428833
 30
0.0
 40
1.9999999999999989
 50
290.00000000000341
 51
20.000000000000089
  0
LINE
  5
1691
  8
SAPA_ANSLUTNING
 10
-77.297619988454869
 20
-32.064541586343751
 30
0.0
 11
66.933053829394524
 21
-428.33506109361082
 31
0.0
  0
LINE
  5
1692
  8
SAPA_ANSLUTNING
 10
-76.265155691631833
 20
-93.37730193152035
 30
0.0
 11
35.404421104198711
 21
-400.18694261811959
 31
0.0
  0
LINE
  5
1694
  8
SAPA_ANSLUTNING
 10
-69.447168745842362
 20
-29.20721100847469
 30
0.0
 11
-142.3689261651499
 21
-55.748560139483381
 31
0.0
  0
LINE
  5
1695
  8
SAPA_ANSLUTNING
 10
-133.67676942288031
 20
-52.584873813720861
 30
0.0
 11
-118.28586297322521
 21
-94.871041749086714
 31
0.0
  0
LINE
  5
1696
  8
SAPA_ANSLUTNING
 10
-61.5942071612115
 20
-74.236966502249103
 30
0.0
 11
-118.28586297322541
 21
-94.871041749086714
 31
0.0
  0
LINE
  5
1697
  8
SAPA_ANSLUTNING
 10
-76.265155691631719
 20
-93.377301931520307
 30
0.0
 11
-98.347932280100451
 21
-101.41477529967349
 31
0.0
  0
LINE
  5
169A
  8
SAPA_ANSLUTNING
 10
-114.6371949416579
 20
-39.875032452558912
 30
0.0
 11
-115.2252646278336
 21
-38.495114323030521
 31
0.0
  0
LINE
  5
169B
  8
SAPA_ANSLUTNING
 10
-114.921535232403
 20
-39.207821862762728
 30
0.0
 11
-106.7139561558614
 21
-35.784003434801782
 31
0.0
  0
LINE
  5
169C
  8
SAPA_ANSLUTNING
 10
-106.4296158651162
 20
-36.451214024597959
 30
0.0
 11
-107.017685551292
 21
-35.071295895069511
 31
0.0
  0
LINE
  5
169D
  8
SAPA_ANSLUTNING
 10
-134.18879169273561
 20
-48.207194426233031
 30
0.0
 11
-134.77686137891129
 21
-46.827276296704611
 31
0.0
  0
LINE
  5
169E
  8
SAPA_ANSLUTNING
 10
-134.4731319834807
 20
-47.539983836436839
 30
0.0
 11
-126.26555290693889
 21
-44.116165408475858
 31
0.0
  0
LINE
  5
169F
  8
SAPA_ANSLUTNING
 10
-125.9812126161937
 20
-44.783375998272049
 30
0.0
 11
-126.5692823023694
 21
-43.403457868743651
 31
0.0
  0
LINE
  5
16A0
  8
SAPA_ANSLUTNING
 10
-144.04390058792251
 20
-55.532312334996419
 30
0.0
 11
-142.63436165674361
 21
-55.019282120007908
 31
0.0
  0
LINE
  5
16A2
  8
SAPA_ANSLUTNING
 10
-24.48619431426858
 20
6.52638775034589
 30
0.0
 11
-155.2733413771646
 21
-48.551182206699792
 31
0.0
  0
LINE
  5
16A3
  8
SAPA_ANSLUTNING
 10
-32.2484473083598
 20
24.958626584945542
 30
0.0
 11
-163.03559437125591
 21
-30.118943372100212
 31
0.0
  0
LINE
  5
16A4
  8
SAPA_ANSLUTNING
 10
-24.48619431426858
 20
6.52638775034589
 30
0.0
 11
-32.2484473083598
 21
24.958626584945542
 31
0.0
  0
LINE
  5
16A5
  8
SAPA_ANSLUTNING
 10
-163.03559437125591
 20
-30.118943372100262
 30
0.0
 11
-155.2733413771646
 21
-48.551182206699792
 31
0.0
  0
LINE
  5
16A6
  8
SAPA_ANSLUTNING
 10
-25.06836328882537
 20
7.9088056629409493
 30
0.0
 11
-155.85551035172131
 21
-47.168764294104783
 31
0.0
  0
LINE
  5
16BE
  8
SAPA_ANSLUTNING
 10
-93.221724523981095
 20
-115.49891535704479
 30
0.0
 11
-91.812185592802095
 21
-114.9858851420563
 31
0.0
  0
LINE
  5
16BF
  8
SAPA_ANSLUTNING
 10
-96.641925957237788
 20
-106.1019891491858
 30
0.0
 11
-95.232387026058802
 21
-105.58895893419729
 31
0.0
  0
LINE
  5
16C0
  8
SAPA_ANSLUTNING
 10
-95.937156491648466
 20
-105.8454740416916
 30
0.0
 11
-92.516955058391716
 21
-115.2424002495505
 31
0.0
  0
LINE
  5
16CE
  8
SAPA_ANSLUTNING
  6
DASHDOT
 10
-37.202970588170089
 20
-387.80085243212289
 30
0.0
 11
-20.11549084705624
 21
-434.74831717622152
 31
0.0
  0
LINE
  5
16DA
  8
SAPA_ANSLUTNING
 10
-66.854600199936897
 20
-60.756502646214699
 30
0.0
 11
40.273299984276811
 21
-21.774287777339079
 31
0.0
  0
LINE
  5
16DD
  8
SAPA_ANSLUTNING
 10
-133.67676942288031
 20
-52.584873813720861
 30
0.0
 11
-118.28586297322521
 21
-94.871041749086714
 31
0.0
  0
LINE
  5
16E3
  8
SAPA_ANSLUTNING
 10
-133.60038565163609
 20
-82.032780502057875
 30
0.0
 11
-136.97669714489891
 21
-72.756440913273465
 31
0.0
  0
LINE
  5
16E4
  8
SAPA_ANSLUTNING
 10
-137.6814666104882
 20
-73.012956020767717
 30
0.0
 11
-136.2719276793095
 21
-72.499925805779213
 31
0.0
  0
LINE
  5
16E5
  8
SAPA_ANSLUTNING
 10
-134.30515511722561
 20
-82.289295609552127
 30
0.0
 11
-132.89561618604671
 21
-81.776265394563595
 31
0.0
  0
LINE
  5
16F3
  8
SAPA_ANSLUTNING
 10
-23.653839664889041
 20
-396.6742139724152
 30
0.0
 11
-32.766179925780612
 21
-399.99083459188518
 31
0.0
  0
LINE
  5
1732
  8
SAPA_ANSLUTNING
 10
-188.38438652842839
 20
7.8160835509265558
 30
0.0
 11
-26.64127522043453
 21
66.685761664642584
 31
0.0
  0
LINE
  5
1735
  8
SAPA_ANSLUTNING
 10
-27.154305435423112
 20
68.095300595821357
 30
0.0
 11
-190.30695567459631
 21
8.7125922671181151
 31
0.0
  0
LINE
  5
1737
  8
SAPA_ANSLUTNING
 10
-192.09997310697699
 20
4.8674539747833787
 30
0.0
 11
-104.580379015784
 21
-235.5906545506032
 31
0.0
  0
LINE
  5
1738
  8
SAPA_ANSLUTNING
 10
-104.580379015784
 20
-235.59065455060349
 30
0.0
 11
-108.9011463608027
 21
-260.09494384120637
 31
0.0
  0
ARC
  5
1739
  8
SAPA_ANSLUTNING
 10
-105.9464881108749
 20
-260.61455567463821
 30
0.0
 40
3.0000003052181312
 50
170.02584533385601
 51
349.97415466614291
  0
LINE
  5
173A
  8
SAPA_ANSLUTNING
 10
-102.99229984272949
 20
-261.13683290720797
 30
0.0
 11
-100.99691942710839
 21
-249.82046823287359
 31
0.0
  0
LINE
  5
173B
  8
SAPA_ANSLUTNING
 10
-100.99691942710839
 20
-249.82046823287359
 30
0.0
 11
-102.47543071296521
 21
-249.56736668373941
 31
0.0
  0
LINE
  5
173C
  8
SAPA_ANSLUTNING
 10
-102.47543071296521
 20
-249.56736668373941
 30
0.0
 11
-104.46911031879161
 21
-260.87408558640402
 31
0.0
  0
ARC
  5
173D
  8
SAPA_ANSLUTNING
 10
-105.9464881108749
 20
-260.61455567463832
 30
0.0
 40
1.500000305214044
 50
169.9634494156652
 51
350.0365505799553
  0
LINE
  5
173E
  8
SAPA_ANSLUTNING
 10
-107.4235335778081
 20
-260.3531410532903
 30
0.0
 11
-103.03337405280629
 21
-235.45530915392459
 31
0.0
  0
ARC
  5
1740
  8
SAPA_ANSLUTNING
 10
-187.3583260984513
 20
4.9970056885688372
 30
0.0
 40
3.0
 50
110.0000000000003
 51
200.0
  0
ARC
  5
1741
  8
SAPA_ANSLUTNING
 10
-189.2808952446193
 20
5.8935144047603858
 30
0.0
 40
3.0
 50
109.9999999999998
 51
200.0
  0
LINE
  5
1742
  8
SAPA_ANSLUTNING
 10
-16.381302475319441
 20
38.496718223219318
 30
0.0
 11
-180.9434916456716
 21
-21.399020320472399
 31
0.0
  0
LINE
  5
1744
  8
SAPA_ANSLUTNING
 10
-181.45652186065999
 20
-19.989481389293712
 30
0.0
 11
-16.89433269030792
 21
39.906257154398311
 31
0.0
  0
LINE
  5
1745
  8
SAPA_ANSLUTNING
 10
-16.89433269030792
 20
39.906257154398311
 30
0.0
 11
-16.381302475319441
 21
38.496718223219318
 31
0.0
  0
LINE
  5
1746
  8
SAPA_ANSLUTNING
 10
-89.299689452804103
 20
43.879963957737857
 30
0.0
 11
-64.091592784922312
 21
22.727859341038659
 31
0.0
  0
LINE
  5
1747
  8
SAPA_ANSLUTNING
 10
-95.013901060432516
 20
11.47305955394895
 30
0.0
 11
-89.299689452804103
 21
43.879963957737857
 31
0.0
  0
LINE
  5
1748
  8
SAPA_ANSLUTNING
 10
-151.14430600382471
 20
21.37036438355906
 30
0.0
 11
-125.93620933594291
 21
0.2182597668598305
 31
0.0
  0
LINE
  5
1749
  8
SAPA_ANSLUTNING
 10
-156.8585176114531
 20
-11.03654002022985
 30
0.0
 11
-151.14430600382471
 21
21.37036438355906
 31
0.0
  0
LINE
  5
174A
  8
SAPA_ANSLUTNING
 10
-120.22199772831409
 20
32.62516417064856
 30
0.0
 11
-125.93620933594291
 21
0.2182597668598163
 31
0.0
  0
LINE
  5
174B
  8
SAPA_ANSLUTNING
 10
-95.013901060432516
 20
11.473059553948939
 30
0.0
 11
-120.22199772831409
 21
32.62516417064856
 31
0.0
  0
LINE
  5
174C
  8
SAPA_ANSLUTNING
 10
-156.8585176114521
 20
-11.036540020229459
 30
0.0
 11
-182.06661427933369
 21
10.11556459647012
 31
0.0
  0
POLYLINE
  5
174D
  8
SAPA_ANSLUTNING
 66
     1
 10
0.0
 20
0.0
 30
0.0
 70
     1
  0
VERTEX
  5
1CE9
  8
SAPA_ANSLUTNING
 10
-49.352146037890343
 20
-20.745256842342151
 30
0.0
  0
VERTEX
  5
1CEA
  8
SAPA_ANSLUTNING
 10
-7.2382572354060484
 20
-28.171071700776231
 30
0.0
  0
VERTEX
  5
1CEB
  8
SAPA_ANSLUTNING
 10
-9.2912757011461107
 20
-39.814318000867317
 30
0.0
  0
VERTEX
  5
1CEC
  8
SAPA_ANSLUTNING
 10
-51.405164503630417
 20
-32.388503142433237
 30
0.0
  0
SEQEND
  5
1CED
  8
SAPA_ANSLUTNING
  0
LINE
  5
1750
  8
SAPA_ANSLUTNING
 10
-9.2912757011461107
 20
-39.814318000867317
 30
0.0
 11
-69.447168745842362
 21
-29.20721100847469
 31
0.0
  0
LINE
  5
1756
  8
SAPA_ANSLUTNING
 10
1.862363460973524
 20
-382.59827556696922
 30
0.0
 11
-99.714654707630018
 21
-103.5177118132013
 31
0.0
  0
LINE
  5
175B
  8
SAPA_ANSLUTNING
 10
-103.0333740528062
 20
-235.4553091539243
 30
0.0
 11
-190.17740396080899
 21
3.970945258591831
 31
0.0
  0
LINE
  5
177F
  8
SAPA_ANSLUTNING
 10
-145.54242247963541
 20
-51.41515727495652
 30
0.0
 11
-133.56972581012391
 21
-84.309871024419607
 31
0.0
  0
POLYLINE
  5
1782
  8
SAPA_ANSLUTNING
 10
22.250356318933228
 20
-13.386693111228336
 30
0.0
 66
     1
 70
     8
  0
VERTEX
  8
SAPA_ANSLUTNING
  5
245F
 10
22.2504
 20
-13.3867
 30
0.000000
  70
    32
  0
VERTEX
  8
SAPA_ANSLUTNING
  5
2460
 10
22.0197
 20
-13.4668
 30
0.000000
  70
    32
  0
VERTEX
  8
SAPA_ANSLUTNING
  5
2461
 10
21.7945
 20
-13.5627
 30
0.000000
  70
    32
  0
VERTEX
  8
SAPA_ANSLUTNING
  5
2462
 10
21.5754
 20
-13.6743
 30
0.000000
  70
    32
  0
VERTEX
  8
SAPA_ANSLUTNING
  5
2463
 10
21.3629
 20
-13.8012
 30
0.000000
  70
    32
  0
VERTEX
  8
SAPA_ANSLUTNING
  5
2464
 10
21.1575
 20
-13.9432
 30
0.000000
  70
    32
  0
VERTEX
  8
SAPA_ANSLUTNING
  5
2465
 10
20.9596
 20
-14.1000
 30
0.000000
  70
    32
  0
VERTEX
  8
SAPA_ANSLUTNING
  5
2466
 10
20.7699
 20
-14.2710
 30
0.000000
  70
    32
  0
VERTEX
  8
SAPA_ANSLUTNING
  5
2467
 10
20.5887
 20
-14.4561
 30
0.000000
  70
    32
  0
VERTEX
  8
SAPA_ANSLUTNING
  5
2468
 10
20.4164
 20
-14.6546
 30
0.000000
  70
    32
  0
VERTEX
  8
SAPA_ANSLUTNING
  5
2469
 10
20.2535
 20
-14.8661
 30
0.000000
  70
    32
  0
VERTEX
  8
SAPA_ANSLUTNING
  5
246A
 10
20.1004
 20
-15.0901
 30
0.000000
  70
    32
  0
VERTEX
  8
SAPA_ANSLUTNING
  5
246B
 10
19.9575
 20
-15.3260
 30
0.000000
  70
    32
  0
VERTEX
  8
SAPA_ANSLUTNING
  5
246C
 10
19.8250
 20
-15.5734
 30
0.000000
  70
    32
  0
VERTEX
  8
SAPA_ANSLUTNING
  5
246D
 10
19.7033
 20
-15.8315
 30
0.000000
  70
    32
  0
VERTEX
  8
SAPA_ANSLUTNING
  5
246E
 10
19.5927
 20
-16.0999
 30
0.000000
  70
    32
  0
VERTEX
  8
SAPA_ANSLUTNING
  5
246F
 10
19.4935
 20
-16.3777
 30
0.000000
  70
    32
  0
VERTEX
  8
SAPA_ANSLUTNING
  5
2470
 10
19.4059
 20
-16.6644
 30
0.000000
  70
    32
  0
VERTEX
  8
SAPA_ANSLUTNING
  5
2471
 10
19.3302
 20
-16.9593
 30
0.000000
  70
    32
  0
VERTEX
  8
SAPA_ANSLUTNING
  5
2472
 10
19.2664
 20
-17.2616
 30
0.000000
  70
    32
  0
VERTEX
  8
SAPA_ANSLUTNING
  5
2473
 10
19.2147
 20
-17.5707
 30
0.000000
  70
    32
  0
VERTEX
  8
SAPA_ANSLUTNING
  5
2474
 10
19.1754
 20
-17.8857
 30
0.000000
  70
    32
  0
VERTEX
  8
SAPA_ANSLUTNING
  5
2475
 10
19.1484
 20
-18.2060
 30
0.000000
  70
    32
  0
VERTEX
  8
SAPA_ANSLUTNING
  5
2476
 10
19.1338
 20
-18.5307
 30
0.000000
  70
    32
  0
VERTEX
  8
SAPA_ANSLUTNING
  5
2477
 10
19.1317
 20
-18.8591
 30
0.000000
  70
    32
  0
VERTEX
  8
SAPA_ANSLUTNING
  5
2478
 10
19.1421
 20
-19.1904
 30
0.000000
  70
    32
  0
VERTEX
  8
SAPA_ANSLUTNING
  5
2479
 10
19.1650
 20
-19.5238
 30
0.000000
  70
    32
  0
VERTEX
  8
SAPA_ANSLUTNING
  5
247A
 10
19.2002
 20
-19.8584
 30
0.000000
  70
    32
  0
VERTEX
  8
SAPA_ANSLUTNING
  5
247B
 10
19.2478
 20
-20.1935
 30
0.000000
  70
    32
  0
VERTEX
  8
SAPA_ANSLUTNING
  5
247C
 10
19.3075
 20
-20.5283
 30
0.000000
  70
    32
  0
VERTEX
  8
SAPA_ANSLUTNING
  5
247D
 10
19.3793
 20
-20.8619
 30
0.000000
  70
    32
  0
VERTEX
  8
SAPA_ANSLUTNING
  5
247E
 10
19.4630
 20
-21.1936
 30
0.000000
  70
    32
  0
VERTEX
  8
SAPA_ANSLUTNING
  5
247F
 10
19.5583
 20
-21.5225
 30
0.000000
  70
    32
  0
VERTEX
  8
SAPA_ANSLUTNING
  5
2480
 10
19.6651
 20
-21.8479
 30
0.000000
  70
    32
  0
VERTEX
  8
SAPA_ANSLUTNING
  5
2481
 10
19.7831
 20
-22.1690
 30
0.000000
  70
    32
  0
VERTEX
  8
SAPA_ANSLUTNING
  5
2482
 10
19.9120
 20
-22.4850
 30
0.000000
  70
    32
  0
VERTEX
  8
SAPA_ANSLUTNING
  5
2483
 10
20.0515
 20
-22.7951
 30
0.000000
  70
    32
  0
VERTEX
  8
SAPA_ANSLUTNING
  5
2484
 10
20.2013
 20
-23.0986
 30
0.000000
  70
    32
  0
VERTEX
  8
SAPA_ANSLUTNING
  5
2485
 10
20.3609
 20
-23.3948
 30
0.000000
  70
    32
  0
VERTEX
  8
SAPA_ANSLUTNING
  5
2486
 10
20.5301
 20
-23.6830
 30
0.000000
  70
    32
  0
VERTEX
  8
SAPA_ANSLUTNING
  5
2487
 10
20.7084
 20
-23.9624
 30
0.000000
  70
    32
  0
VERTEX
  8
SAPA_ANSLUTNING
  5
2488
 10
20.8953
 20
-24.2324
 30
0.000000
  70
    32
  0
VERTEX
  8
SAPA_ANSLUTNING
  5
2489
 10
21.0905
 20
-24.4923
 30
0.000000
  70
    32
  0
VERTEX
  8
SAPA_ANSLUTNING
  5
248A
 10
21.2934
 20
-24.7415
 30
0.000000
  70
    32
  0
VERTEX
  8
SAPA_ANSLUTNING
  5
248B
 10
21.5036
 20
-24.9795
 30
0.000000
  70
    32
  0
VERTEX
  8
SAPA_ANSLUTNING
  5
248C
 10
21.7206
 20
-25.2055
 30
0.000000
  70
    32
  0
VERTEX
  8
SAPA_ANSLUTNING
  5
248D
 10
21.9438
 20
-25.4192
 30
0.000000
  70
    32
  0
VERTEX
  8
SAPA_ANSLUTNING
  5
248E
 10
22.1727
 20
-25.6200
 30
0.000000
  70
    32
  0
VERTEX
  8
SAPA_ANSLUTNING
  5
248F
 10
22.4068
 20
-25.8073
 30
0.000000
  70
    32
  0
VERTEX
  8
SAPA_ANSLUTNING
  5
2490
 10
22.6454
 20
-25.9808
 30
0.000000
  70
    32
  0
VERTEX
  8
SAPA_ANSLUTNING
  5
2491
 10
22.8880
 20
-26.1400
 30
0.000000
  70
    32
  0
VERTEX
  8
SAPA_ANSLUTNING
  5
2492
 10
23.1341
 20
-26.2845
 30
0.000000
  70
    32
  0
VERTEX
  8
SAPA_ANSLUTNING
  5
2493
 10
23.3830
 20
-26.4140
 30
0.000000
  70
    32
  0
VERTEX
  8
SAPA_ANSLUTNING
  5
2494
 10
23.6342
 20
-26.5282
 30
0.000000
  70
    32
  0
VERTEX
  8
SAPA_ANSLUTNING
  5
2495
 10
23.8870
 20
-26.6269
 30
0.000000
  70
    32
  0
VERTEX
  8
SAPA_ANSLUTNING
  5
2496
 10
24.1407
 20
-26.7096
 30
0.000000
  70
    32
  0
VERTEX
  8
SAPA_ANSLUTNING
  5
2497
 10
24.3950
 20
-26.7764
 30
0.000000
  70
    32
  0
VERTEX
  8
SAPA_ANSLUTNING
  5
2498
 10
24.6489
 20
-26.8269
 30
0.000000
  70
    32
  0
VERTEX
  8
SAPA_ANSLUTNING
  5
2499
 10
24.9021
 20
-26.8612
 30
0.000000
  70
    32
  0
VERTEX
  8
SAPA_ANSLUTNING
  5
249A
 10
25.1539
 20
-26.8790
 30
0.000000
  70
    32
  0
VERTEX
  8
SAPA_ANSLUTNING
  5
249B
 10
25.4036
 20
-26.8804
 30
0.000000
  70
    32
  0
VERTEX
  8
SAPA_ANSLUTNING
  5
249C
 10
25.6507
 20
-26.8654
 30
0.000000
  70
    32
  0
VERTEX
  8
SAPA_ANSLUTNING
  5
249D
 10
25.8946
 20
-26.8339
 30
0.000000
  70
    32
  0
VERTEX
  8
SAPA_ANSLUTNING
  5
249E
 10
26.1346
 20
-26.7861
 30
0.000000
  70
    32
  0
VERTEX
  8
SAPA_ANSLUTNING
  5
249F
 10
26.3703
 20
-26.7221
 30
0.000000
  70
    32
  0
VERTEX
  8
SAPA_ANSLUTNING
  5
24A0
 10
26.6009
 20
-26.6420
 30
0.000000
  70
    32
  0
VERTEX
  8
SAPA_ANSLUTNING
  5
24A1
 10
26.8261
 20
-26.5461
 30
0.000000
  70
    32
  0
VERTEX
  8
SAPA_ANSLUTNING
  5
24A2
 10
27.0452
 20
-26.4345
 30
0.000000
  70
    32
  0
VERTEX
  8
SAPA_ANSLUTNING
  5
24A3
 10
27.2577
 20
-26.3076
 30
0.000000
  70
    32
  0
VERTEX
  8
SAPA_ANSLUTNING
  5
24A4
 10
27.4632
 20
-26.1656
 30
0.000000
  70
    32
  0
VERTEX
  8
SAPA_ANSLUTNING
  5
24A5
 10
27.6610
 20
-26.0088
 30
0.000000
  70
    32
  0
VERTEX
  8
SAPA_ANSLUTNING
  5
24A6
 10
27.8507
 20
-25.8378
 30
0.000000
  70
    32
  0
VERTEX
  8
SAPA_ANSLUTNING
  5
24A7
 10
28.0320
 20
-25.6527
 30
0.000000
  70
    32
  0
VERTEX
  8
SAPA_ANSLUTNING
  5
24A8
 10
28.2042
 20
-25.4542
 30
0.000000
  70
    32
  0
VERTEX
  8
SAPA_ANSLUTNING
  5
24A9
 10
28.3671
 20
-25.2427
 30
0.000000
  70
    32
  0
VERTEX
  8
SAPA_ANSLUTNING
  5
24AA
 10
28.5202
 20
-25.0187
 30
0.000000
  70
    32
  0
VERTEX
  8
SAPA_ANSLUTNING
  5
24AB
 10
28.6632
 20
-24.7828
 30
0.000000
  70
    32
  0
VERTEX
  8
SAPA_ANSLUTNING
  5
24AC
 10
28.7956
 20
-24.5354
 30
0.000000
  70
    32
  0
VERTEX
  8
SAPA_ANSLUTNING
  5
24AD
 10
28.9173
 20
-24.2773
 30
0.000000
  70
    32
  0
VERTEX
  8
SAPA_ANSLUTNING
  5
24AE
 10
29.0279
 20
-24.0089
 30
0.000000
  70
    32
  0
VERTEX
  8
SAPA_ANSLUTNING
  5
24AF
 10
29.1271
 20
-23.7311
 30
0.000000
  70
    32
  0
VERTEX
  8
SAPA_ANSLUTNING
  5
24B0
 10
29.2147
 20
-23.4444
 30
0.000000
  70
    32
  0
VERTEX
  8
SAPA_ANSLUTNING
  5
24B1
 10
29.2905
 20
-23.1495
 30
0.000000
  70
    32
  0
VERTEX
  8
SAPA_ANSLUTNING
  5
24B2
 10
29.3543
 20
-22.8472
 30
0.000000
  70
    32
  0
VERTEX
  8
SAPA_ANSLUTNING
  5
24B3
 10
29.4059
 20
-22.5381
 30
0.000000
  70
    32
  0
VERTEX
  8
SAPA_ANSLUTNING
  5
24B4
 10
29.4453
 20
-22.2231
 30
0.000000
  70
    32
  0
VERTEX
  8
SAPA_ANSLUTNING
  5
24B5
 10
29.4722
 20
-21.9028
 30
0.000000
  70
    32
  0
VERTEX
  8
SAPA_ANSLUTNING
  5
24B6
 10
29.4868
 20
-21.5781
 30
0.000000
  70
    32
  0
VERTEX
  8
SAPA_ANSLUTNING
  5
24B7
 10
29.4889
 20
-21.2497
 30
0.000000
  70
    32
  0
VERTEX
  8
SAPA_ANSLUTNING
  5
24B8
 10
29.4785
 20
-20.9184
 30
0.000000
  70
    32
  0
VERTEX
  8
SAPA_ANSLUTNING
  5
24B9
 10
29.4556
 20
-20.5851
 30
0.000000
  70
    32
  0
VERTEX
  8
SAPA_ANSLUTNING
  5
24BA
 10
29.4204
 20
-20.2504
 30
0.000000
  70
    32
  0
VERTEX
  8
SAPA_ANSLUTNING
  5
24BB
 10
29.3729
 20
-19.9153
 30
0.000000
  70
    32
  0
VERTEX
  8
SAPA_ANSLUTNING
  5
24BC
 10
29.3131
 20
-19.5806
 30
0.000000
  70
    32
  0
VERTEX
  8
SAPA_ANSLUTNING
  5
24BD
 10
29.2413
 20
-19.2469
 30
0.000000
  70
    32
  0
VERTEX
  8
SAPA_ANSLUTNING
  5
24BE
 10
29.1576
 20
-18.9152
 30
0.000000
  70
    32
  0
VERTEX
  8
SAPA_ANSLUTNING
  5
24BF
 10
29.0623
 20
-18.5863
 30
0.000000
  70
    32
  0
VERTEX
  8
SAPA_ANSLUTNING
  5
24C0
 10
28.9555
 20
-18.2609
 30
0.000000
  70
    32
  0
VERTEX
  8
SAPA_ANSLUTNING
  5
24C1
 10
28.8375
 20
-17.9398
 30
0.000000
  70
    32
  0
VERTEX
  8
SAPA_ANSLUTNING
  5
24C2
 10
28.7086
 20
-17.6238
 30
0.000000
  70
    32
  0
VERTEX
  8
SAPA_ANSLUTNING
  5
24C3
 10
28.5691
 20
-17.3137
 30
0.000000
  70
    32
  0
VERTEX
  8
SAPA_ANSLUTNING
  5
24C4
 10
28.4194
 20
-17.0102
 30
0.000000
  70
    32
  0
VERTEX
  8
SAPA_ANSLUTNING
  5
24C5
 10
28.2597
 20
-16.7140
 30
0.000000
  70
    32
  0
VERTEX
  8
SAPA_ANSLUTNING
  5
24C6
 10
28.0905
 20
-16.4258
 30
0.000000
  70
    32
  0
VERTEX
  8
SAPA_ANSLUTNING
  5
24C7
 10
27.9123
 20
-16.1464
 30
0.000000
  70
    32
  0
VERTEX
  8
SAPA_ANSLUTNING
  5
24C8
 10
27.7253
 20
-15.8764
 30
0.000000
  70
    32
  0
VERTEX
  8
SAPA_ANSLUTNING
  5
24C9
 10
27.5301
 20
-15.6165
 30
0.000000
  70
    32
  0
VERTEX
  8
SAPA_ANSLUTNING
  5
24CA
 10
27.3272
 20
-15.3673
 30
0.000000
  70
    32
  0
VERTEX
  8
SAPA_ANSLUTNING
  5
24CB
 10
27.1170
 20
-15.1293
 30
0.000000
  70
    32
  0
VERTEX
  8
SAPA_ANSLUTNING
  5
24CC
 10
26.9000
 20
-14.9033
 30
0.000000
  70
    32
  0
VERTEX
  8
SAPA_ANSLUTNING
  5
24CD
 10
26.6768
 20
-14.6896
 30
0.000000
  70
    32
  0
VERTEX
  8
SAPA_ANSLUTNING
  5
24CE
 10
26.4479
 20
-14.4889
 30
0.000000
  70
    32
  0
VERTEX
  8
SAPA_ANSLUTNING
  5
24CF
 10
26.2139
 20
-14.3015
 30
0.000000
  70
    32
  0
VERTEX
  8
SAPA_ANSLUTNING
  5
24D0
 10
25.9752
 20
-14.1280
 30
0.000000
  70
    32
  0
VERTEX
  8
SAPA_ANSLUTNING
  5
24D1
 10
25.7326
 20
-13.9688
 30
0.000000
  70
    32
  0
VERTEX
  8
SAPA_ANSLUTNING
  5
24D2
 10
25.4865
 20
-13.8243
 30
0.000000
  70
    32
  0
VERTEX
  8
SAPA_ANSLUTNING
  5
24D3
 10
25.2376
 20
-13.6948
 30
0.000000
  70
    32
  0
VERTEX
  8
SAPA_ANSLUTNING
  5
24D4
 10
24.9864
 20
-13.5806
 30
0.000000
  70
    32
  0
VERTEX
  8
SAPA_ANSLUTNING
  5
24D5
 10
24.7337
 20
-13.4820
 30
0.000000
  70
    32
  0
VERTEX
  8
SAPA_ANSLUTNING
  5
24D6
 10
24.4799
 20
-13.3992
 30
0.000000
  70
    32
  0
VERTEX
  8
SAPA_ANSLUTNING
  5
24D7
 10
24.2257
 20
-13.3324
 30
0.000000
  70
    32
  0
VERTEX
  8
SAPA_ANSLUTNING
  5
24D8
 10
23.9717
 20
-13.2819
 30
0.000000
  70
    32
  0
VERTEX
  8
SAPA_ANSLUTNING
  5
24D9
 10
23.7185
 20
-13.2476
 30
0.000000
  70
    32
  0
VERTEX
  8
SAPA_ANSLUTNING
  5
24DA
 10
23.4667
 20
-13.2298
 30
0.000000
  70
    32
  0
VERTEX
  8
SAPA_ANSLUTNING
  5
24DB
 10
23.2170
 20
-13.2284
 30
0.000000
  70
    32
  0
VERTEX
  8
SAPA_ANSLUTNING
  5
24DC
 10
22.9699
 20
-13.2434
 30
0.000000
  70
    32
  0
VERTEX
  8
SAPA_ANSLUTNING
  5
24DD
 10
22.7261
 20
-13.2749
 30
0.000000
  70
    32
  0
VERTEX
  8
SAPA_ANSLUTNING
  5
24DE
 10
22.4860
 20
-13.3227
 30
0.000000
  70
    32
  0
VERTEX
  8
SAPA_ANSLUTNING
  5
24DF
 10
22.2504
 20
-13.3867
 30
0.000000
  70
    32
  0
SEQEND
  8
SAPA_ANSLUTNING
  5
24E0
  0
ARC
  5
1785
  8
SAPA_ANSLUTNING
 10
52.98142008934046
 20
-9.5799738370294882
 30
0.0
 40
17.6124276884123
 50
176.85720927220351
 51
222.92296833691029
1001
ACAD
1000
ASC_BOUNDS
1002
{
1070
    19
1005
17E4
1002
}
  0
ARC
  5
1786
  8
SAPA_ANSLUTNING
 10
12.659473653126581
 20
-24.2560677053077
 30
0.0
 40
17.6124276884123
 50
357.08017086920961
 51
43.145949446825412
1001
ACAD
1000
ASC_BOUNDS
1002
{
1070
    19
1005
17E4
1002
}
  0
LINE
  5
1787
  8
SAPA_ANSLUTNING
 10
25.50974883173955
 20
-12.21164837876997
 30
0.0
 11
35.395481427316902
 21
-8.6143805193759722
 31
0.0
1001
ACAD
1000
ASC_BOUNDS
1002
{
1070
    19
1005
17E4
1002
}
  0
LINE
  5
1788
  8
SAPA_ANSLUTNING
 10
30.249036676325851
 20
-25.153219717206241
 30
0.0
 11
40.084368418908582
 21
-21.574291962282061
 31
0.0
1001
ACAD
1000
ASC_BOUNDS
1002
{
1070
    19
1005
17E4
1002
}
  0
INSERT
  5
17E4
  8
SAPA_ANSLUTNING
  6
CONTINUOUS
  2
*X47
 10
0.0
 20
0.0
 30
0.0
1001
ACAD
1000
HATCH
1002
{
1070
    19
1000
ANSI37
1040
0.25
1040
0.0
1000
ASC_BOUNDS
1070
     1
1070
     1
1070
     4
1005
1785
1005
1788
1005
1786
1005
1787
1000
ASC_SEEDPOINT
1011
33.128764951903577
1021
0.0
1031
0.0
1021
-17.070702282043609
1031
0.0
1000
R14_HATCH_DATA
1000
17E4
1011
1.0
1021
0.0
1031
0.0
1021
0.0
1031
0.0
1011
0.0
1021
0.0
1031
0.0
1021
1.0
1031
0.0
1011
0.0
1021
0.0
1031
0.0
1021
0.0
1031
1.0
1040
0.0
1010
0.0
1020
0.0
1030
1.0
1000
ANSI37
1070
     0
1070
     1
1071
        1
1071
        7
1070
     1
1070
     1
1071
        4
1040
35.395481427316902
1040
-8.6143805193759722
1040
0.0
1040
25.50974883173955
1040
-12.21164837876997
1040
-0.2037512103660136
1040
30.249036676325851
1040
-25.153219717206241
1040
0.0
1040
40.084368418908582
1040
-21.574291962282061
1040
-0.2037511216902917
1071
        4
1005
1787
1005
1786
1005
1788
1005
1785
1070
     0
1070
     1
1040
0.0
1040
0.25
1070
     0
1070
     2
1040
0.7853981633974483
1040
0.0
1040
0.0
1040
-0.5612660075668221
1040
0.5612660075668221
1070
     0
1040
2.3561944901923439
1040
0.0
1040
0.0
1040
-0.5612660075668221
1040
-0.5612660075668221
1070
     0
1040
0.0300516495827495
1071
        1
1040
33.128764951903577
1040
-17.070702282043609
1040
0.0
1002
}
  0
INSERT
  5
1838
  8
SAPA_ANSLUTNING
  6
CONTINUOUS
  2
*X48
 10
0.0
 20
0.0
 30
0.0
1001
ACAD
1000
HATCH
1002
{
1070
    19
1000
HEX
1040
0.25
1040
0.0
1000
ASC_BOUNDS
1070
     1
1070
     1
1070
     1
1005
1782
1000
ASC_SEEDPOINT
1011
24.439721180732018
1021
0.0
1031
0.0
1021
-19.715247512647458
1031
0.0
1000
R14_HATCH_DATA
1000
1838
1011
1.0
1021
0.0
1031
0.0
1021
0.0
1031
0.0
1011
0.0
1021
0.0
1031
0.0
1021
1.0
1031
0.0
1011
0.0
1021
0.0
1031
0.0
1021
0.0
1031
1.0
1040
0.0
1010
0.0
1020
0.0
1030
1.0
1000
HEX
1070
     0
1070
     1
1071
        1
1071
        5
1071
        1
1070
     3
1040
24.310308810870769
1040
-20.054404139009879
1040
-2.0599524919375392
1040
6.6677110277815439
1040
0.7126862810955826
1040
0.0
1040
6.2831853071795862
1070
     1
1071
        1
1005
1782
1070
     0
1070
     1
1040
0.0
1040
0.25
1070
     0
1070
     3
1040
0.0
1040
0.0
1040
0.0
1040
0.0
1040
1.374814999999999
1070
     2
1040
0.79375
1040
-1.587499999999999
1040
2.0943951023931948
1040
0.0
1040
0.0
1040
-1.190624715503902
1040
-0.6874074999999996
1070
     2
1040
0.7937499999999998
1040
-1.587499999999999
1040
1.047197551196597
1040
0.79375
1040
0.0
1040
-1.190624715503902
1040
0.6874075000000001
1070
     2
1040
0.79375
1040
-1.587499999999999
1040
0.0300516495827495
1071
        1
1040
24.439721180732018
1040
-19.715247512647458
1040
0.0
1002
}
  0
LINE
  5
18E4
  8
SAPA_ANSLUTNING
 10
-86.381321657468575
 20
-134.29276777276331
 30
0.0
 11
-84.97178272628959
 21
-133.77973755777481
 31
0.0
  0
LINE
  5
18E5
  8
SAPA_ANSLUTNING
 10
-82.961120224212308
 20
-143.68969398062251
 30
0.0
 11
-81.551581293033323
 21
-143.17666376563409
 31
0.0
  0
LINE
  5
18E6
  8
SAPA_ANSLUTNING
 10
-85.676552191879708
 20
-134.03625266526919
 30
0.0
 11
-82.256350758622958
 21
-143.43317887312821
 31
0.0
  0
LINE
  5
18E7
  8
SAPA_ANSLUTNING
 10
-76.120717357699775
 20
-162.48354639634101
 30
0.0
 11
-74.711178426520789
 21
-161.97051618135251
 31
0.0
  0
LINE
  5
18E8
  8
SAPA_ANSLUTNING
 10
-72.700515924443494
 20
-171.88047260420029
 30
0.0
 11
-71.290976993264522
 21
-171.36744238921179
 31
0.0
  0
LINE
  5
18E9
  8
SAPA_ANSLUTNING
 10
-75.415947892110907
 20
-162.22703128884689
 30
0.0
 11
-71.995746458854157
 21
-171.623957496706
 31
0.0
  0
LINE
  5
18EA
  8
SAPA_ANSLUTNING
 10
-65.860113057931002
 20
-190.6743250199188
 30
0.0
 11
-64.450574126752016
 21
-190.16129480493029
 31
0.0
  0
LINE
  5
18EB
  8
SAPA_ANSLUTNING
 10
-62.439911624674728
 20
-200.07125122777811
 30
0.0
 11
-61.03037269349575
 21
-199.5582210127896
 31
0.0
  0
LINE
  5
18EC
  8
SAPA_ANSLUTNING
 10
-65.155343592342135
 20
-190.4178099124247
 30
0.0
 11
-61.735142159085378
 21
-199.8147361202837
 31
0.0
  0
LINE
  5
18ED
  8
SAPA_ANSLUTNING
 10
-55.599508758162202
 20
-218.8651036434965
 30
0.0
 11
-54.189969826983209
 21
-218.35207342850811
 31
0.0
  0
LINE
  5
18EE
  8
SAPA_ANSLUTNING
 10
-52.179307324905928
 20
-228.26202985135581
 30
0.0
 11
-50.769768393726949
 21
-227.7489996363673
 31
0.0
  0
LINE
  5
18EF
  8
SAPA_ANSLUTNING
 10
-54.894739292573327
 20
-218.60858853600249
 30
0.0
 11
-51.474537859316577
 21
-228.00551474386151
 31
0.0
  0
LINE
  5
18F0
  8
SAPA_ANSLUTNING
 10
-45.338904458388299
 20
-247.05588226707241
 30
0.0
 11
-43.929365527209313
 21
-246.5428520520839
 31
0.0
  0
LINE
  5
18F1
  8
SAPA_ANSLUTNING
 10
-41.918703025132032
 20
-256.45280847493171
 30
0.0
 11
-40.509164093953054
 21
-255.93977825994321
 31
0.0
  0
LINE
  5
18F2
  8
SAPA_ANSLUTNING
 10
-44.634134992799432
 20
-246.7993671595784
 30
0.0
 11
-41.213933559542681
 21
-256.19629336743742
 31
0.0
  0
LINE
  5
18F3
  8
SAPA_ANSLUTNING
 10
-35.078300158627123
 20
-275.246660890653
 30
0.0
 11
-33.66876122744813
 21
-274.73363067566447
 31
0.0
  0
LINE
  5
18F4
  8
SAPA_ANSLUTNING
 10
-31.658098725370849
 20
-284.64358709851223
 30
0.0
 11
-30.248559794191859
 21
-284.1305568835237
 31
0.0
  0
LINE
  5
18F5
  8
SAPA_ANSLUTNING
 10
-34.373530693038248
 20
-274.99014578315888
 30
0.0
 11
-30.953329259781501
 21
-284.38707199101788
 31
0.0
  0
LINE
  5
18F6
  8
SAPA_ANSLUTNING
 10
-24.817695858858318
 20
-303.43743951423062
 30
0.0
 11
-23.408156927679329
 21
-302.9244092992422
 31
0.0
  0
LINE
  5
18F7
  8
SAPA_ANSLUTNING
 10
-21.397494425602051
 20
-312.8343657220899
 30
0.0
 11
-19.987955494423058
 21
-312.32133550710142
 31
0.0
  0
LINE
  5
18F8
  8
SAPA_ANSLUTNING
 10
-24.112926393269451
 20
-303.18092440673661
 30
0.0
 11
-20.692724960012701
 21
-312.5778506145956
 31
0.0
  0
LINE
  5
18F9
  8
SAPA_ANSLUTNING
 10
-14.55709155907809
 20
-331.6282181378042
 30
0.0
 11
-13.147552627899101
 21
-331.11518792281572
 31
0.0
  0
LINE
  5
18FA
  8
SAPA_ANSLUTNING
 10
-11.13689012582182
 20
-341.02514434566348
 30
0.0
 11
-9.7273511946428357
 21
-340.512114130675
 31
0.0
  0
LINE
  5
18FB
  8
SAPA_ANSLUTNING
 10
-13.852322093489221
 20
-331.37170303031019
 30
0.0
 11
-10.432120660232471
 21
-340.76862923816918
 31
0.0
  0
LINE
  5
18FC
  8
SAPA_ANSLUTNING
 10
-4.2964872593182539
 20
-359.81899676138528
 30
0.0
 11
-2.886948328139268
 21
-359.3059665463968
 31
0.0
  0
LINE
  5
18FD
  8
SAPA_ANSLUTNING
 10
-0.8762858260619879
 20
-369.2159229692445
 30
0.0
 11
0.533253105116998
 21
-368.70289275425603
 31
0.0
  0
LINE
  5
18FE
  8
SAPA_ANSLUTNING
 10
-3.5917177937293872
 20
-359.5624816538911
 30
0.0
 11
-0.1715163604726371
 21
-368.95940786175009
 31
0.0
  0
LINE
  5
1911
  8
SAPA_ANSLUTNING
 10
33.928879899003761
 20
-365.4227609392214
 30
0.0
 11
27.425038193620001
 21
-347.55360271397228
 31
0.0
  0
SOLID
  5
1912
  8
SAPA_ANSLUTNING
 10
26.507267155954299
 20
-347.95071267660478
 30
0.0
 11
28.342809231285671
 21
-347.1564927513399
 31
0.0
 12
25.042378417824679
 22
-342.0469764879781
 32
0.0
 13
25.042378417824679
 23
-342.0469764879781
 33
0.0
  0
LINE
  5
1913
  8
SAPA_ANSLUTNING
 10
3.8806758197562479
 20
-282.8659987363248
 30
0.0
 11
-2.6231658856275142
 21
-264.9968405110759
 31
0.0
  0
SOLID
  5
1914
  8
SAPA_ANSLUTNING
 10
-3.540936923293216
 20
-265.39395047370829
 30
0.0
 11
-1.705394847961841
 21
-264.5997305484434
 31
0.0
 12
-5.0058256614228318
 22
-259.49021428508172
 32
0.0
 13
-5.0058256614228318
 23
-259.49021428508172
 33
0.0
  0
LINE
  5
1915
  8
SAPA_ANSLUTNING
 10
-34.338486824433538
 20
-177.8597123809501
 30
0.0
 11
-40.842328529817301
 21
-159.99055415570109
 31
0.0
  0
SOLID
  5
1916
  8
SAPA_ANSLUTNING
 10
-41.76009956748301
 20
-160.38766411833359
 30
0.0
 11
-39.924557492151642
 21
-159.59344419306871
 31
0.0
 12
-43.224988305612619
 22
-154.48392792970691
 32
0.0
 13
-43.224988305612619
 23
-154.48392792970691
 33
0.0
  0
ARC
  5
1A9E
  8
SAPA_FOGBAND
 10
-35.878749920064458
 20
69.921604242959461
 30
0.0
 40
0.1999999999999072
 50
199.999999999956
 51
289.99999999997408
  0
LINE
  5
1A9F
  8
SAPA_FOGBAND
 10
-35.81034589139945
 20
69.733665718802342
 30
0.0
 11
-31.178103919138959
 21
71.419663914623499
 31
0.0
  0
ARC
  5
1AA0
  8
SAPA_FOGBAND
 10
-30.836083775812991
 20
70.479971293837664
 30
0.0
 40
1.0000000000000331
 50
50.345472579278429
 51
110.00000000001771
  0
LINE
  5
1AA1
  8
SAPA_FOGBAND
 10
-30.197926790459508
 20
71.249877562187663
 30
0.0
 11
-26.121399420673569
 21
68.383498113103641
 31
0.0
  0
ARC
  5
1AA2
  8
SAPA_FOGBAND
 10
-26.759556406028061
 20
67.613591844755334
 30
0.0
 40
0.999999999999359
 50
38.241841344460553
 51
50.345472579172032
  0
ARC
  5
1AA3
  8
SAPA_FOGBAND
 10
-27.114609490738051
 20
67.415801993696277
 30
0.0
 40
1.402769144204514
 50
341.85707667742992
 51
35.609435779333097
  0
ARC
  5
1AA4
  8
SAPA_FOGBAND
 10
-25.96802737040365
 20
67.051371350241425
 30
0.0
 40
0.2000000000000674
 50
245.81623060075091
 51
338.78447689250982
  0
LINE
  5
1AA5
  8
SAPA_FOGBAND
 10
-26.04996029727608
 20
66.868924109938519
 30
0.0
 11
-30.154590144123901
 21
67.757890540310754
 31
0.0
  0
ARC
  5
1AA6
  8
SAPA_FOGBAND
 10
-30.574781888409539
 20
66.85045519934468
 30
0.0
 40
1.0000000000000091
 50
65.153306302305964
 51
109.9999999999926
  0
LINE
  5
1AA7
  8
SAPA_FOGBAND
 10
-30.916802031735092
 20
67.790147820130642
 30
0.0
 11
-31.028304065967699
 21
67.749564398610076
 31
0.0
  0
ARC
  5
1AA8
  8
SAPA_FOGBAND
 10
-30.68628392264198
 20
66.809871777824029
 30
0.0
 40
1.0000000000001461
 50
109.9999999999998
 51
157.10585874597189
  0
LINE
  5
1AA9
  8
SAPA_FOGBAND
 10
-31.607509113030702
 20
67.198901530662511
 30
0.0
 11
-35.104686668553533
 21
65.265568846729096
 31
0.0
  0
LINE
  5
1AAA
  8
SAPA_FOGBAND
 10
-35.104686668553533
 20
65.265568846729096
 30
0.0
 11
-35.748523397883801
 21
65.418093764602517
 31
0.0
  0
LINE
  5
1AAB
  8
SAPA_FOGBAND
 10
-35.748523397883801
 20
65.418093764602517
 30
0.0
 11
-32.978766270882147
 21
67.487695462882527
 31
0.0
  0
ARC
  5
1AAC
  8
SAPA_FOGBAND
 10
-33.272079246382752
 20
67.550683544318758
 30
0.0
 40
0.3000000000000596
 50
347.87997593854828
 51
116.95295746820651
  0
LINE
  5
1AAD
  8
SAPA_FOGBAND
 10
-33.40805688293446
 20
67.818097235736843
 30
0.0
 11
-35.957040964221143
 21
66.521960044171465
 31
0.0
  0
ARC
  5
1AAE
  8
SAPA_FOGBAND
 10
-35.821063327669748
 20
66.254546352753422
 30
0.0
 40
0.2999999999998788
 50
116.952957468157
 51
199.99999999998539
  0
LINE
  5
1AAF
  8
SAPA_FOGBAND
 10
-36.102971113905447
 20
66.15194030975583
 30
0.0
 11
-36.022814320938458
 21
65.931711331063156
 31
0.0
  0
ARC
  5
1AB0
  8
SAPA_FOGBAND
 10
-36.304722107174278
 20
65.829105288065705
 30
0.0
 40
0.2999999999999572
 50
289.99999999995578
 51
19.999999999955062
  0
LINE
  5
1AB1
  8
SAPA_FOGBAND
 10
-36.202116064176813
 20
65.547197501829885
 30
0.0
 11
-40.479334775783421
 21
63.990417205358632
 31
0.0
  0
LINE
  5
1AB2
  8
SAPA_FOGBAND
 10
-40.479334775783421
 20
63.990417205358632
 30
0.0
 11
-46.246610421431782
 21
61.336123954711432
 31
0.0
  0
LINE
  5
1AB3
  8
SAPA_FOGBAND
 10
-46.246610421431782
 20
61.336123954711432
 30
0.0
 11
-46.246610421431782
 21
61.336123954711432
 31
0.0
  0
LINE
  5
1AB4
  8
SAPA_FOGBAND
 10
-46.246610421431782
 20
61.336123954711432
 30
0.0
 11
-46.941436263851728
 21
61.526269417961323
 31
0.0
  0
ARC
  5
1AB5
  8
SAPA_FOGBAND
 10
-68.172788036596955
 20
56.988139071513473
 30
0.0
 40
21.710940217765859
 50
12.06522376247934
 51
15.369664331739591
  0
LINE
  5
1AB6
  8
SAPA_FOGBAND
 10
-47.238320713273353
 20
62.742528963422011
 30
0.0
 11
-42.985866714361123
 21
66.057811951411296
 31
0.0
  0
LINE
  5
1AB7
  8
SAPA_FOGBAND
 10
-42.985866714361123
 20
66.057811951411296
 30
0.0
 11
-43.61860397951358
 21
67.796243299865139
 31
0.0
  0
ARC
  5
1AB8
  8
SAPA_FOGBAND
 10
-43.477650086395613
 20
67.847546321364021
 30
0.0
 40
0.1500000000000797
 50
109.9999999999981
 51
200.00000000000159
  0
LINE
  5
1AB9
  8
SAPA_FOGBAND
 10
-43.528953107894488
 20
67.988500214481988
 30
0.0
 11
-42.480076733223008
 21
68.37025999428721
 31
0.0
  0
ARC
  5
1ABA
  8
SAPA_FOGBAND
 10
-42.428773711724311
 20
68.229306101169556
 30
0.0
 40
0.1499999999997319
 50
26.530215321818869
 51
109.9999999999778
  0
LINE
  5
1ABB
  8
SAPA_FOGBAND
 10
-42.29456887197005
 20
68.296306556290801
 30
0.0
 11
-41.964519181673921
 21
67.635202602341451
 31
0.0
  0
ARC
  5
1ABC
  8
SAPA_FOGBAND
 10
-41.830314341919532
 20
67.702203057463024
 30
0.0
 40
0.1499999999999971
 50
206.53021532190749
 51
290.0000000000627
  0
LINE
  5
1ABD
  8
SAPA_FOGBAND
 10
-41.77901132042053
 20
67.561249164345199
 30
0.0
 11
-38.629423753757251
 21
68.707605288825548
 31
0.0
  0
ARC
  5
1ABE
  8
SAPA_FOGBAND
 10
-38.697827782422202
 20
68.895543812982851
 30
0.0
 40
0.2000000000000492
 50
289.99999999993679
 51
19.999999999936861
  0
LINE
  5
1ABF
  8
SAPA_FOGBAND
 10
-38.509889258264892
 20
68.963947841647794
 30
0.0
 11
-38.783505372925831
 21
69.715701938276311
 31
0.0
  0
ARC
  5
1AC0
  8
SAPA_FOGBAND
 10
-38.595566848768463
 20
69.784105966941397
 30
0.0
 40
0.2000000000001579
 50
109.9999999999681
 51
199.99999999996879
  0
LINE
  5
1AC1
  8
SAPA_FOGBAND
 10
-38.663970877433549
 20
69.972044491098771
 30
0.0
 11
-38.288093829119099
 21
70.10885254842907
 31
0.0
  0
ARC
  5
1AC2
  8
SAPA_FOGBAND
 10
-38.356497857784291
 20
70.296791072586132
 30
0.0
 40
0.1999999999999048
 50
290.00000000002558
 51
20.000000000042949
  0
LINE
  5
1AC3
  8
SAPA_FOGBAND
 10
-38.168559333627243
 20
70.365195101251373
 30
0.0
 11
-38.535067711643777
 21
71.372168593892724
 31
0.0
  0
ARC
  5
1AC4
  8
SAPA_FOGBAND
 10
-38.629036973722393
 20
71.337966579560202
 30
0.0
 40
0.1000000000000015
 50
19.99999999997198
 51
160.55544447106499
  0
LINE
  5
1AC5
  8
SAPA_FOGBAND
 10
-38.723333380799389
 20
71.371256031528773
 30
0.0
 11
-39.149782169671028
 21
70.163288155368264
 31
0.0
  0
ARC
  5
1AC6
  8
SAPA_FOGBAND
 10
-39.526967797979133
 20
70.296445963242363
 30
0.0
 40
0.4000000000000126
 50
160.5554444710985
 51
340.55544447109401
  0
LINE
  5
1AC7
  8
SAPA_FOGBAND
 10
-39.904153426287237
 20
70.429603771116433
 30
0.0
 11
-39.30494329085424
 21
72.126939098503129
 31
0.0
  0
ARC
  5
1AC8
  8
SAPA_FOGBAND
 10
-38.126238202391633
 20
71.710820948896696
 30
0.0
 40
1.2499999999998159
 50
109.999999999991
 51
160.55544447109651
  0
ARC
  5
1AC9
  8
SAPA_FOGBAND
 10
-38.126238202391242
 20
71.710820948896824
 30
0.0
 40
1.249999999999825
 50
59.444555528904552
 51
110.0000000000099
  0
LINE
  5
1ACA
  8
SAPA_FOGBAND
 10
-37.490773310031109
 20
72.787242971422046
 30
0.0
 11
-35.940725597594671
 21
71.87217352642287
 31
0.0
  0
ARC
  5
1ACB
  8
SAPA_FOGBAND
 10
-36.144074363149969
 20
71.527718479214755
 30
0.0
 40
0.4000000000000099
 50
239.44455552890719
 51
59.4445555289007
  0
LINE
  5
1ACC
  8
SAPA_FOGBAND
 10
-36.347423128705231
 20
71.183263432006612
 30
0.0
 11
-37.450568637390518
 21
71.834504513353068
 31
0.0
  0
ARC
  5
1ACD
  8
SAPA_FOGBAND
 10
-37.501405828779291
 20
71.748390751551014
 30
0.0
 40
0.0999999999999977
 50
59.444555528933357
 51
200.00000000003249
  0
LINE
  5
1ACE
  8
SAPA_FOGBAND
 10
-37.595375090857871
 20
71.714188737218393
 30
0.0
 11
-37.228866712841409
 21
70.707215244577242
 31
0.0
  0
ARC
  5
1ACF
  8
SAPA_FOGBAND
 10
-37.040928188684241
 20
70.775619273242299
 30
0.0
 40
0.1999999999999612
 50
199.9999999999807
 51
289.99999999995998
  0
LINE
  5
1AD0
  8
SAPA_FOGBAND
 10
-36.972524160019248
 20
70.587680749085095
 30
0.0
 11
-36.596647111704719
 21
70.724488806415181
 31
0.0
  0
ARC
  5
1AD1
  8
SAPA_FOGBAND
 10
-36.528243083039349
 20
70.536550282258034
 30
0.0
 40
0.2000000000000348
 50
20.00000000006381
 51
110.0000000000683
  0
LINE
  5
1AD2
  8
SAPA_FOGBAND
 10
-36.34030455888221
 20
70.604954310923404
 30
0.0
 11
-36.066688444221612
 21
69.853200214294503
 31
0.0
  0
POLYLINE
  5
1BFB
  8
SAPA_PROFIL
 66
     1
 10
0.0
 20
0.0
 30
0.0
 70
     1
  0
VERTEX
  5
21A6
  8
SAPA_PROFIL
 10
-145.49489787697769
 20
-60.317143248116963
 30
0.0
  0
VERTEX
  5
21A7
  8
SAPA_PROFIL
 10
-137.2864144371616
 20
-82.869766146978748
 30
0.0
 42
0.4142135623730951
  0
VERTEX
  5
21A8
  8
SAPA_PROFIL
 10
-134.72298890893839
 20
-84.065111101899234
 30
0.0
  0
VERTEX
  5
21A9
  8
SAPA_PROFIL
 10
-133.78329628815251
 20
-83.723090958573593
 30
0.0
  0
VERTEX
  5
21AA
  8
SAPA_PROFIL
 10
-144.04390058792259
 20
-55.532312334996391
 30
0.0
  0
VERTEX
  5
21AB
  8
SAPA_PROFIL
 10
-161.89806038285479
 20
-62.030695058184108
 30
0.0
 42
-0.4142135623730951
  0
VERTEX
  5
21AC
  8
SAPA_PROFIL
 10
-163.17977314696631
 20
-61.4330225807239
 30
0.0
  0
VERTEX
  5
21AD
  8
SAPA_PROFIL
 10
-171.38825658678249
 20
-38.880399681862059
 30
0.0
 42
0.4142135623730951
  0
VERTEX
  5
21AE
  8
SAPA_PROFIL
 10
-173.9516821150057
 20
-37.685054726941587
 30
0.0
  0
VERTEX
  5
21AF
  8
SAPA_PROFIL
 10
-174.89137473579149
 20
-38.027074870267263
 30
0.0
  0
VERTEX
  5
21B0
  8
SAPA_PROFIL
 10
-164.63077043602141
 20
-66.217853493844473
 30
0.0
  0
VERTEX
  5
21B1
  8
SAPA_PROFIL
 10
-146.77661064108909
 20
-59.719470770656699
 30
0.0
 42
-0.4142135623730951
  0
SEQEND
  5
21B2
  8
SAPA_PROFIL
  0
POLYLINE
  5
1BFC
  8
SAPA_PROFIL
 66
     1
 10
0.0
 20
0.0
 30
0.0
 70
     1
  0
VERTEX
  5
21B3
  8
SAPA_PROFIL
 10
-44.162112619224473
 20
73.581200330660295
 30
0.0
 42
0.5773502691895968
  0
VERTEX
  5
21B4
  8
SAPA_PROFIL
 10
-43.605260129699133
 20
72.051260689723662
 30
0.0
  0
VERTEX
  5
21B5
  8
SAPA_PROFIL
 10
-42.63426980960562
 20
71.880048884873844
 30
0.0
  0
VERTEX
  5
21B6
  8
SAPA_PROFIL
 10
-43.024644146963531
 20
69.666126002570635
 30
0.0
  0
VERTEX
  5
21B7
  8
SAPA_PROFIL
 10
-44.152275291906548
 20
69.255701830579866
 30
0.0
 42
0.4142135623729286
  0
VERTEX
  5
21B8
  8
SAPA_PROFIL
 10
-44.33157703514474
 20
68.871188001346525
 30
0.0
  0
VERTEX
  5
21B9
  8
SAPA_PROFIL
 10
-44.194768977814448
 20
68.495310953032075
 30
0.0
 42
0.4142135623732059
  0
VERTEX
  5
21BA
  8
SAPA_PROFIL
 10
-43.810255148580879
 20
68.316009209793961
 30
0.0
  0
VERTEX
  5
21BB
  8
SAPA_PROFIL
 10
-42.586472043904941
 20
68.76142983309424
 30
0.0
 42
-0.4142135623731506
  0
VERTEX
  5
21BC
  8
SAPA_PROFIL
 10
-42.201958214671258
 20
68.582128089856184
 30
0.0
  0
VERTEX
  5
21BD
  8
SAPA_PROFIL
 10
-42.00357302823236
 20
68.037069269760977
 30
0.0
 42
0.4142135623730951
  0
VERTEX
  5
21BE
  8
SAPA_PROFIL
 10
-41.619059198998897
 20
67.857767526522821
 30
0.0
  0
VERTEX
  5
21BF
  8
SAPA_PROFIL
 10
-39.356519652015741
 20
68.681264575474813
 30
0.0
  0
VERTEX
  5
21C0
  8
SAPA_PROFIL
 10
-38.969689285427251
 20
69.31028623906036
 30
0.0
 42
0.7105995015649727
  0
VERTEX
  5
21C1
  8
SAPA_PROFIL
 10
-39.327839938400651
 20
69.749346665466106
 30
0.0
  0
VERTEX
  5
21C2
  8
SAPA_PROFIL
 10
-39.985624772950622
 20
69.5099325651382
 30
0.0
  0
VERTEX
  5
21C3
  8
SAPA_PROFIL
 10
-40.911179225653342
 20
72.052872524414312
 30
0.0
 42
-0.4142135623731506
  0
VERTEX
  5
21C4
  8
SAPA_PROFIL
 10
-40.731877482415229
 20
72.437386353647881
 30
0.0
  0
VERTEX
  5
21C5
  8
SAPA_PROFIL
 10
-36.597229950957619
 20
73.9422749842808
 30
0.0
 42
-0.4142135623730951
  0
VERTEX
  5
21C6
  8
SAPA_PROFIL
 10
-36.21271612172395
 20
73.762973241042729
 30
0.0
  0
VERTEX
  5
21C7
  8
SAPA_PROFIL
 10
-35.287161669021287
 20
71.220033281766476
 30
0.0
  0
VERTEX
  5
21C8
  8
SAPA_PROFIL
 10
-35.944946503571288
 20
70.980619181438669
 30
0.0
 42
0.7105995015650586
  0
VERTEX
  5
21C9
  8
SAPA_PROFIL
 10
-35.937083219083839
 20
70.414064579464707
 30
0.0
  0
VERTEX
  5
21CA
  8
SAPA_PROFIL
 10
-35.236426634751467
 20
70.18085579616681
 30
0.0
  0
VERTEX
  5
21CB
  8
SAPA_PROFIL
 10
-27.290929429668299
 20
73.072780275262502
 30
0.0
  0
VERTEX
  5
21CC
  8
SAPA_PROFIL
 10
-26.94890928634263
 20
72.133087654476583
 30
0.0
  0
VERTEX
  5
21CD
  8
SAPA_PROFIL
 10
-26.009216665556721
 20
72.475107797802252
 30
0.0
  0
VERTEX
  5
21CE
  8
SAPA_PROFIL
 10
-26.351236808882391
 20
73.414800418588172
 30
0.0
  0
VERTEX
  5
21CF
  8
SAPA_PROFIL
 10
-23.579143577564029
 20
74.423759841398862
 30
0.0
  0
VERTEX
  5
21D0
  8
SAPA_PROFIL
 10
-23.921163720889691
 20
75.363452462184767
 30
0.0
  0
VERTEX
  5
21D1
  8
SAPA_PROFIL
 10
-22.13574774139655
 20
76.013290734503386
 30
0.0
  0
VERTEX
  5
21D2
  8
SAPA_PROFIL
 10
-21.83691150266618
 20
76.654147116559159
 30
0.0
  0
VERTEX
  5
21D3
  8
SAPA_PROFIL
 10
-21.196055120610112
 20
76.355310877829254
 30
0.0
  0
VERTEX
  5
21D4
  8
SAPA_PROFIL
 10
-19.41063914111712
 20
77.005149150147915
 30
0.0
  0
VERTEX
  5
21D5
  8
SAPA_PROFIL
 10
-19.068618997791489
 20
76.065456529362137
 30
0.0
  0
VERTEX
  5
21D6
  8
SAPA_PROFIL
 10
-16.296525766473021
 20
77.07441595217287
 30
0.0
  0
VERTEX
  5
21D7
  8
SAPA_PROFIL
 10
-15.95450562314735
 20
76.134723331386965
 30
0.0
  0
VERTEX
  5
21D8
  8
SAPA_PROFIL
 10
-15.014813002361439
 20
76.476743474712634
 30
0.0
  0
VERTEX
  5
21D9
  8
SAPA_PROFIL
 10
-15.35683314568711
 20
77.416436095498526
 30
0.0
  0
VERTEX
  5
21DA
  8
SAPA_PROFIL
 10
-7.4113359406037427
 20
80.308360574594062
 30
0.0
  0
VERTEX
  5
21DB
  8
SAPA_PROFIL
 10
-7.0245055740152971
 20
80.937382238180064
 30
0.0
 42
0.7105995015650586
  0
VERTEX
  5
21DC
  8
SAPA_PROFIL
 10
-7.3826562269886571
 20
81.376442664585696
 30
0.0
  0
VERTEX
  5
21DD
  8
SAPA_PROFIL
 10
-8.0404410615385835
 20
81.13702856425769
 30
0.0
  0
VERTEX
  5
21DE
  8
SAPA_PROFIL
 10
-8.9659955142412482
 20
83.679968523533944
 30
0.0
 42
-0.4142135623730951
  0
VERTEX
  5
21DF
  8
SAPA_PROFIL
 10
-8.7866937710031365
 20
84.064482352767513
 30
0.0
  0
VERTEX
  5
21E0
  8
SAPA_PROFIL
 10
-4.652046239545335
 20
85.569370983400276
 30
0.0
 42
-0.4142135623731506
  0
VERTEX
  5
21E1
  8
SAPA_PROFIL
 10
-4.2675324103118806
 20
85.390069240162106
 30
0.0
  0
VERTEX
  5
21E2
  8
SAPA_PROFIL
 10
-3.3419779576093629
 20
82.847129280885923
 30
0.0
  0
VERTEX
  5
21E3
  8
SAPA_PROFIL
 10
-3.9997627921593661
 20
82.607715180558131
 30
0.0
 42
0.7105995015649949
  0
VERTEX
  5
21E4
  8
SAPA_PROFIL
 10
-3.9918995076717301
 20
82.041160578583984
 30
0.0
  0
VERTEX
  5
21E5
  8
SAPA_PROFIL
 10
-3.2912429233397411
 20
81.807951795286414
 30
0.0
  0
VERTEX
  5
21E6
  8
SAPA_PROFIL
 10
-1.0287033763565789
 20
82.631448844238435
 30
0.0
 42
0.4142135623730951
  0
VERTEX
  5
21E7
  8
SAPA_PROFIL
 10
-0.8494016331184672
 20
83.015962673471975
 30
0.0
  0
VERTEX
  5
21E8
  8
SAPA_PROFIL
 10
-1.047786819557377
 20
83.561021493567196
 30
0.0
 42
-0.4142135623731506
  0
VERTEX
  5
21E9
  8
SAPA_PROFIL
 10
-0.8684850763192635
 20
83.945535322800765
 30
0.0
  0
VERTEX
  5
21EA
  8
SAPA_PROFIL
 10
0.3552980283570273
 20
84.390955946100433
 30
0.0
 42
0.414213562373206
  0
VERTEX
  5
21EB
  8
SAPA_PROFIL
 10
0.5345997715950324
 20
84.77546977533396
 30
0.0
  0
VERTEX
  5
21EC
  8
SAPA_PROFIL
 10
0.3977917142647342
 20
85.15134682364841
 30
0.0
 42
0.4142135623729286
  0
VERTEX
  5
21ED
  8
SAPA_PROFIL
 10
0.0132778850313589
 20
85.330648566886353
 30
0.0
  0
VERTEX
  5
21EE
  8
SAPA_PROFIL
 10
-1.1143532599117729
 20
84.920224394895541
 30
0.0
  0
VERTEX
  5
21EF
  8
SAPA_PROFIL
 10
-2.8364795493269508
 20
86.365259929184646
 30
0.0
  0
VERTEX
  5
21F0
  8
SAPA_PROFIL
 10
-2.2027106370866378
 20
87.120556327767844
 30
0.0
 42
0.5773502691896019
  0
VERTEX
  5
21F1
  8
SAPA_PROFIL
 10
-2.7595631266111198
 20
88.650495968704789
 30
0.0
  0
VERTEX
  5
21F2
  8
SAPA_PROFIL
 10
-3.9767507551657628
 20
88.865118974793063
 30
0.0
 42
0.1316524948697527
  0
VERTEX
  5
21F3
  8
SAPA_PROFIL
 10
-4.4924190656352501
 20
88.820003840711308
 30
0.0
  0
VERTEX
  5
21F4
  8
SAPA_PROFIL
 10
-42.943625516279333
 20
74.82490922105228
 30
0.0
 42
0.1316524948697533
  0
VERTEX
  5
21F5
  8
SAPA_PROFIL
 10
-43.367649809204252
 20
74.528004218138392
 30
0.0
  0
SEQEND
  5
21F6
  8
SAPA_PROFIL
  0
POLYLINE
  5
1BFD
  8
SAPA_PROFIL
 62
     4
 66
     1
 10
0.0
 20
0.0
 30
0.0
 70
     1
  0
VERTEX
  5
21F7
  8
SAPA_PROFIL
 62
     4
 10
-14.315751411929471
 20
52.627554538969427
 30
0.0
  0
VERTEX
  5
21F8
  8
SAPA_PROFIL
 62
     4
 10
-13.56330709661299
 20
50.560230773240391
 30
0.0
 42
1.0
  0
VERTEX
  5
21F9
  8
SAPA_PROFIL
 62
     4
 10
-11.402014068805441
 20
51.346877102889408
 30
0.0
  0
VERTEX
  5
21FA
  8
SAPA_PROFIL
 62
     4
 10
-12.154458384121821
 20
53.414200868618487
 30
0.0
 42
1.0
  0
SEQEND
  5
21FB
  8
SAPA_PROFIL
 62
     4
  0
POLYLINE
  5
1BFE
  8
SAPA_PROFIL
 62
     4
 66
     1
 10
0.0
 20
0.0
 30
0.0
 70
     1
  0
VERTEX
  5
21FC
  8
SAPA_PROFIL
 62
     4
 10
-22.175480552553211
 20
65.889140335397769
 30
0.0
  0
VERTEX
  5
21FD
  8
SAPA_PROFIL
 62
     4
 10
-23.218926601429139
 20
68.755984793103536
 30
0.0
  0
VERTEX
  5
21FE
  8
SAPA_PROFIL
 62
     4
 10
-24.357117482877459
 20
71.88313853891195
 30
0.0
 42
-0.6681786379192966
  0
VERTEX
  5
21FF
  8
SAPA_PROFIL
 62
     4
 10
-23.675962041614191
 20
72.507302504093033
 30
0.0
  0
VERTEX
  5
2200
  8
SAPA_PROFIL
 62
     4
 10
-20.924834036336598
 20
71.224430438882422
 30
0.0
 42
0.1989123679837333
  0
VERTEX
  5
2201
  8
SAPA_PROFIL
 62
     4
 10
-20.160195629163649
 20
71.191045604150844
 30
0.0
  0
VERTEX
  5
2202
  8
SAPA_PROFIL
 62
     4
 10
-19.609736436369161
 20
71.391396365506225
 30
0.0
 42
0.1989123667755704
  0
VERTEX
  5
2203
  8
SAPA_PROFIL
 62
     4
 10
-19.045448793640499
 20
71.908470722444861
 30
0.0
  0
VERTEX
  5
2204
  8
SAPA_PROFIL
 62
     4
 10
-17.7625767205014
 20
74.659598744724775
 30
0.0
 42
-0.6681786379192936
  0
VERTEX
  5
2205
  8
SAPA_PROFIL
 62
     4
 10
-16.839576516590199
 20
74.619299685517291
 30
0.0
  0
VERTEX
  5
2206
  8
SAPA_PROFIL
 62
     4
 10
-15.701385635141881
 20
71.492145939708877
 30
0.0
  0
VERTEX
  5
2207
  8
SAPA_PROFIL
 62
     4
 10
-14.657939586265931
 20
68.62530148200311
 30
0.0
 42
-0.4142135623730951
  0
VERTEX
  5
2208
  8
SAPA_PROFIL
 62
     4
 10
-14.956775824996059
 20
67.984445099947322
 30
0.0
  0
VERTEX
  5
2209
  8
SAPA_PROFIL
 62
     4
 10
-21.53462417049742
 20
65.590304096667637
 30
0.0
 42
-0.4142135623730951
  0
SEQEND
  5
220A
  8
SAPA_PROFIL
 62
     4
  0
POLYLINE
  5
1BFF
  8
SAPA_PROFIL
 62
     4
 66
     1
 10
0.0
 20
0.0
 30
0.0
 70
     1
  0
VERTEX
  5
220B
  8
SAPA_PROFIL
 62
     4
 10
-12.381973324390859
 20
58.237251733623651
 30
0.0
  0
VERTEX
  5
220C
  8
SAPA_PROFIL
 62
     4
 10
-13.255857455666421
 20
56.430127453783399
 30
0.0
 42
-0.9251773977986363
  0
VERTEX
  5
220D
  8
SAPA_PROFIL
 62
     4
 10
-15.41063101418457
 20
55.64585401689893
 30
0.0
  0
VERTEX
  5
220E
  8
SAPA_PROFIL
 62
     4
 10
-17.24166219312319
 20
56.468469637610291
 30
0.0
  0
VERTEX
  5
220F
  8
SAPA_PROFIL
 62
     4
 10
-18.100741931507709
 20
56.155790183977132
 30
0.0
 42
-0.4142135623730769
  0
VERTEX
  5
2210
  8
SAPA_PROFIL
 62
     4
 10
-18.74159831356349
 20
56.45462642270725
 30
0.0
  0
VERTEX
  5
2211
  8
SAPA_PROFIL
 62
     4
 10
-21.491440265901868
 20
64.009755093825945
 30
0.0
 42
-0.4142135623730951
  0
VERTEX
  5
2212
  8
SAPA_PROFIL
 62
     4
 10
-21.19260402717175
 20
64.650611475881732
 30
0.0
  0
VERTEX
  5
2213
  8
SAPA_PROFIL
 62
     4
 10
-14.61475568167039
 20
67.044752479161417
 30
0.0
 42
-0.4142135623730951
  0
VERTEX
  5
2214
  8
SAPA_PROFIL
 62
     4
 10
-13.973899299614599
 20
66.745916240431299
 30
0.0
  0
VERTEX
  5
2215
  8
SAPA_PROFIL
 62
     4
 10
-11.224057347276229
 20
59.19078756931259
 30
0.0
 42
-0.4142135623730951
  0
VERTEX
  5
2216
  8
SAPA_PROFIL
 62
     4
 10
-11.522893586006351
 20
58.54993118725681
 30
0.0
  0
SEQEND
  5
2217
  8
SAPA_PROFIL
 62
     4
  0
POLYLINE
  5
1C00
  8
SAPA_PROFIL
 62
     4
 66
     1
 10
0.0
 20
0.0
 30
0.0
 70
     1
  0
VERTEX
  5
2218
  8
SAPA_PROFIL
 62
     4
 10
-19.732593955848142
 20
56.25356017249949
 30
0.0
 42
-1.0
  0
VERTEX
  5
2219
  8
SAPA_PROFIL
 62
     4
 10
-20.954194362869881
 20
55.808933986176093
 30
0.0
  0
VERTEX
  5
221A
  8
SAPA_PROFIL
 62
     4
 10
-21.244911484696718
 20
56.607672713844138
 30
0.0
  0
VERTEX
  5
221B
  8
SAPA_PROFIL
 62
     4
 10
-21.197926853657361
 20
56.624773721010442
 30
0.0
 42
1.0
  0
VERTEX
  5
221C
  8
SAPA_PROFIL
 62
     4
 10
-21.368936925320192
 20
57.094620031403387
 30
0.0
  0
VERTEX
  5
221D
  8
SAPA_PROFIL
 62
     4
 10
-21.79179860467389
 20
56.940710966906842
 30
0.0
 42
0.4142135623730951
  0
VERTEX
  5
221E
  8
SAPA_PROFIL
 62
     4
 10
-21.971100347911889
 20
56.556197137673308
 30
0.0
  0
VERTEX
  5
221F
  8
SAPA_PROFIL
 62
     4
 10
-21.389666104258279
 20
54.958719682337332
 30
0.0
 42
0.4225789089359373
  0
VERTEX
  5
2220
  8
SAPA_PROFIL
 62
     4
 10
-20.121634145879689
 20
54.398634909708413
 30
0.0
  0
VERTEX
  5
2221
  8
SAPA_PROFIL
 62
     4
 10
-17.302556283521959
 20
55.424695339685407
 30
0.0
  0
VERTEX
  5
2222
  8
SAPA_PROFIL
 62
     4
 10
-16.21310043402724
 20
54.91667373384427
 30
0.0
  0
VERTEX
  5
2223
  8
SAPA_PROFIL
 62
     4
 10
-14.10967655257439
 20
49.13756411601095
 30
0.0
 42
0.4142135623730951
  0
VERTEX
  5
2224
  8
SAPA_PROFIL
 62
     4
 10
-12.82796378846281
 20
48.539891638550721
 30
0.0
  0
VERTEX
  5
2225
  8
SAPA_PROFIL
 62
     4
 10
-10.66667076065526
 20
49.32653796819973
 30
0.0
 42
0.4142135623730951
  0
VERTEX
  5
2226
  8
SAPA_PROFIL
 62
     4
 10
-10.06899828319502
 20
50.608250732311312
 30
0.0
  0
VERTEX
  5
2227
  8
SAPA_PROFIL
 62
     4
 10
-12.172422164647839
 20
56.387360350144519
 30
0.0
  0
VERTEX
  5
2228
  8
SAPA_PROFIL
 62
     4
 10
-11.664400558806619
 20
57.47681619963938
 30
0.0
  0
VERTEX
  5
2229
  8
SAPA_PROFIL
 62
     4
 10
-8.8453226964488945
 20
58.502876629616402
 30
0.0
 42
0.4225789089359373
  0
VERTEX
  5
222A
  8
SAPA_PROFIL
 62
     4
 10
-8.2339694132556573
 20
59.747001688896653
 30
0.0
  0
VERTEX
  5
222B
  8
SAPA_PROFIL
 62
     4
 10
-8.8154036569092682
 20
61.344479144232629
 30
0.0
 42
0.4142135623730951
  0
VERTEX
  5
222C
  8
SAPA_PROFIL
 62
     4
 10
-9.1999174861428425
 20
61.523780887470743
 30
0.0
  0
VERTEX
  5
222D
  8
SAPA_PROFIL
 62
     4
 10
-9.6227791654964374
 20
61.369871822974218
 30
0.0
 42
1.0
  0
VERTEX
  5
222E
  8
SAPA_PROFIL
 62
     4
 10
-9.4517690938336028
 20
60.900025512581259
 30
0.0
  0
VERTEX
  5
222F
  8
SAPA_PROFIL
 62
     4
 10
-9.4047844627942432
 20
60.917126519747569
 30
0.0
  0
VERTEX
  5
2230
  8
SAPA_PROFIL
 62
     4
 10
-9.1140673409674182
 20
60.118387792079517
 30
0.0
 42
-1.0
  0
VERTEX
  5
2231
  8
SAPA_PROFIL
 62
     4
 10
-10.335667747989159
 20
59.673761605756127
 30
0.0
  0
VERTEX
  5
2232
  8
SAPA_PROFIL
 62
     4
 10
-14.76169301435597
 20
71.834166083034546
 30
0.0
  0
VERTEX
  5
2233
  8
SAPA_PROFIL
 62
     4
 10
-16.62541818374822
 20
76.954708902009003
 30
0.0
  0
VERTEX
  5
2234
  8
SAPA_PROFIL
 62
     4
 10
-18.034957114927071
 20
76.441678687020499
 30
0.0
  0
VERTEX
  5
2235
  8
SAPA_PROFIL
 62
     4
 10
-19.915501655167589
 20
72.408837906148236
 30
0.0
 42
-0.4142135623730951
  0
VERTEX
  5
2236
  8
SAPA_PROFIL
 62
     4
 10
-20.57996467955617
 20
72.166993143500292
 30
0.0
  0
VERTEX
  5
2237
  8
SAPA_PROFIL
 62
     4
 10
-24.612805460428429
 20
74.047537683740813
 30
0.0
  0
VERTEX
  5
2238
  8
SAPA_PROFIL
 62
     4
 10
-26.022344391607319
 20
73.534507468752309
 30
0.0
  0
VERTEX
  5
2239
  8
SAPA_PROFIL
 62
     4
 10
-24.158619222215041
 20
68.413964649777867
 30
0.0
  0
VERTEX
  5
223A
  8
SAPA_PROFIL
 62
     4
 10
-19.835199998845841
 20
56.535467958735232
 30
0.0
  0
SEQEND
  5
223B
  8
SAPA_PROFIL
 62
     4
  0
POLYLINE
  5
1C01
  8
SAPA_PROFIL
 66
     1
 10
0.0
 20
0.0
 30
0.0
 70
     1
  0
VERTEX
  5
223C
  8
SAPA_PROFIL
 10
11.90589202440944
 20
10.70731516352958
 30
0.0
 42
-0.4142135623732062
  0
VERTEX
  5
223D
  8
SAPA_PROFIL
 10
12.29040585364308
 20
10.528013420291639
 30
0.0
  0
VERTEX
  5
223E
  8
SAPA_PROFIL
 10
16.189435487555521
 20
-0.1844824566678937
 30
0.0
 42
-0.4142135623730117
  0
VERTEX
  5
223F
  8
SAPA_PROFIL
 10
16.010133744317471
 20
-0.5689962859012782
 30
0.0
  0
VERTEX
  5
2240
  8
SAPA_PROFIL
 10
15.57073307761064
 20
-0.7289250494994235
 30
0.0
 42
0.2868106387144194
  0
VERTEX
  5
2241
  8
SAPA_PROFIL
 10
14.91820614462776
 20
-1.5643290658909159
 30
0.0
 42
-0.037344033101038
  0
VERTEX
  5
2242
  8
SAPA_PROFIL
 10
14.51953465140841
 20
-3.7660474647176718
 30
0.0
 42
0.3617029558070689
  0
VERTEX
  5
2243
  8
SAPA_PROFIL
 10
16.700937511487581
 20
-8.3955579367919029
 30
0.0
  0
VERTEX
  5
2244
  8
SAPA_PROFIL
 10
20.054251532469461
 20
-9.9592339449743008
 30
0.0
  0
VERTEX
  5
2245
  8
SAPA_PROFIL
 10
20.818889937535879
 20
-9.9926187787236245
 30
0.0
  0
VERTEX
  5
2246
  8
SAPA_PROFIL
 10
27.445224019610631
 20
-7.5808304105447633
 30
0.0
 42
0.4142135623730951
  0
VERTEX
  5
2247
  8
SAPA_PROFIL
 10
29.835913929451578
 20
-2.4539793540984638
 30
0.0
  0
VERTEX
  5
2248
  8
SAPA_PROFIL
 10
22.991930163678919
 20
16.349711501475721
 30
0.0
 42
0.4142135623730867
  0
VERTEX
  5
2249
  8
SAPA_PROFIL
 10
17.865079107232731
 20
18.7404014113167
 30
0.0
  0
VERTEX
  5
224A
  8
SAPA_PROFIL
 10
12.47106724016421
 20
16.777141648425239
 30
0.0
 42
0.5027747815994277
  0
VERTEX
  5
224B
  8
SAPA_PROFIL
 10
10.634900741379649
 20
10.62404439121314
 30
0.0
 42
0.2214354817247867
  0
VERTEX
  5
224C
  8
SAPA_PROFIL
 10
11.476064824606251
 20
10.55087085692298
 30
0.0
  0
SEQEND
  5
224D
  8
SAPA_PROFIL
  0
POLYLINE
  5
1C02
  8
SAPA_PROFIL
 66
     1
 10
0.0
 20
0.0
 30
0.0
 70
     1
  0
VERTEX
  5
224E
  8
SAPA_PROFIL
 10
25.250764305501999
 20
-11.784917298699471
 30
0.0
  0
VERTEX
  5
224F
  8
SAPA_PROFIL
 10
24.865091739690001
 20
-12.24454396457093
 30
0.0
  0
VERTEX
  5
2250
  8
SAPA_PROFIL
 10
20.38118004161171
 20
-13.876554355749469
 30
0.0
 42
-0.1989123673796723
  0
VERTEX
  5
2251
  8
SAPA_PROFIL
 10
20.151788520091799
 20
-13.866538905624729
 30
0.0
  0
VERTEX
  5
2252
  8
SAPA_PROFIL
 10
10.11418262878297
 20
-9.1859264089655426
 30
0.0
 42
-0.4663076581549887
  0
VERTEX
  5
2253
  8
SAPA_PROFIL
 10
9.4202485093234412
 20
-6.5961290180370611
 30
0.0
 42
0.9999999999999927
  0
VERTEX
  5
2254
  8
SAPA_PROFIL
 10
-9.4202485093233292
 20
6.5961290180370611
 30
0.0
 42
-0.8070884877514037
  0
VERTEX
  5
2255
  8
SAPA_PROFIL
 10
-12.573752938184009
 20
7.922595189693026
 30
0.0
 42
0.5810002848221991
  0
VERTEX
  5
2256
  8
SAPA_PROFIL
 10
-13.23618825311015
 20
8.4846436166728552
 30
0.0
  0
VERTEX
  5
2257
  8
SAPA_PROFIL
 10
-16.85125865844023
 20
7.1688655943560491
 30
0.0
  0
VERTEX
  5
2258
  8
SAPA_PROFIL
 10
-17.442143310247669
 20
7.2730545009562197
 30
0.0
  0
VERTEX
  5
2259
  8
SAPA_PROFIL
 10
-17.827815876059589
 20
6.8134278350847799
 30
0.0
  0
VERTEX
  5
225A
  8
SAPA_PROFIL
 10
-21.47418479870808
 20
5.486258084087523
 30
0.0
 42
-0.4142135623730784
  0
VERTEX
  5
225B
  8
SAPA_PROFIL
 10
-22.75589756281963
 20
6.0839305615476738
 30
0.0
  0
VERTEX
  5
225C
  8
SAPA_PROFIL
 10
-23.50834187813609
 20
8.1512543272767175
 30
0.0
 42
-0.4142135623731229
  0
VERTEX
  5
225D
  8
SAPA_PROFIL
 10
-23.32904013489804
 20
8.5357681565101302
 30
0.0
  0
VERTEX
  5
225E
  8
SAPA_PROFIL
 10
-11.86479016130974
 20
12.708413905081549
 30
0.0
  0
VERTEX
  5
225F
  8
SAPA_PROFIL
 10
-11.62537606098166
 20
12.050629070533089
 30
0.0
 42
0.4142135623728317
  0
VERTEX
  5
2260
  8
SAPA_PROFIL
 10
-11.240862231748309
 20
11.87132732729512
 30
0.0
  0
VERTEX
  5
2261
  8
SAPA_PROFIL
 10
20.144871302499979
 20
23.294800114371949
 30
0.0
 42
0.4142135623727621
  0
VERTEX
  5
2262
  8
SAPA_PROFIL
 10
20.324173045738149
 20
23.679313943605049
 30
0.0
  0
VERTEX
  5
2263
  8
SAPA_PROFIL
 10
20.084758945410758
 20
24.337098778155969
 30
0.0
  0
VERTEX
  5
2264
  8
SAPA_PROFIL
 10
23.091775331925898
 20
25.431563236798301
 30
0.0
 42
-0.414213562373123
  0
VERTEX
  5
2265
  8
SAPA_PROFIL
 10
23.476289161159311
 20
25.252261493560152
 30
0.0
  0
VERTEX
  5
2266
  8
SAPA_PROFIL
 10
35.587383134147018
 20
-8.0226957221172484
 30
0.0
 42
-0.414213562373123
  0
VERTEX
  5
2267
  8
SAPA_PROFIL
 10
35.40808139090899
 20
-8.4072095513506326
 30
0.0
  0
VERTEX
  5
2268
  8
SAPA_PROFIL
 10
25.84164895730947
 20
-11.88910620529964
 30
0.0
  0
SEQEND
  5
2269
  8
SAPA_PROFIL
  0
CIRCLE
  5
1C03
  8
SAPA_PROFIL
 10
0.0
 20
0.0
 30
0.0
 40
5.3499999999999979
  0
POLYLINE
  5
1C04
  8
SAPA_PROFIL
 66
     1
 10
0.0
 20
0.0
 30
0.0
 70
     1
  0
VERTEX
  5
226A
  8
SAPA_PROFIL
 10
-4.5825629595148589
 20
-8.8882009834433102
 30
0.0
  0
VERTEX
  5
226B
  8
SAPA_PROFIL
 10
-3.3397711631904481
 20
-9.4258118259130015
 30
0.0
 42
-0.8419933402193075
  0
VERTEX
  5
226C
  8
SAPA_PROFIL
 10
-7.5132899660069077
 20
-21.014589726593162
 30
0.0
  0
VERTEX
  5
226D
  8
SAPA_PROFIL
 10
-27.587585202025231
 20
-17.474949857775702
 30
0.0
  0
VERTEX
  5
226E
  8
SAPA_PROFIL
 10
-28.527277822811101
 20
-17.816970001101371
 30
0.0
  0
VERTEX
  5
226F
  8
SAPA_PROFIL
 10
-29.293322265930069
 20
-17.174182391414831
 30
0.0
  0
VERTEX
  5
2270
  8
SAPA_PROFIL
 10
-46.23769930366322
 20
-14.186431548365469
 30
0.0
  0
VERTEX
  5
2271
  8
SAPA_PROFIL
 10
-53.755240269950598
 20
-16.922592694970831
 30
0.0
  0
VERTEX
  5
2272
  8
SAPA_PROFIL
 10
-54.27618480295137
 20
-19.877015954007501
 30
0.0
  0
VERTEX
  5
2273
  8
SAPA_PROFIL
 10
-44.428107272829322
 20
-21.61349773067678
 30
0.0
  0
VERTEX
  5
2274
  8
SAPA_PROFIL
 10
-44.25445909516236
 20
-20.628689977664578
 30
0.0
  0
VERTEX
  5
2275
  8
SAPA_PROFIL
 10
-4.8621489746740281
 20
-27.57461708434181
 30
0.0
  0
VERTEX
  5
2276
  8
SAPA_PROFIL
 10
-5.0357971523409901
 20
-28.559424837354019
 30
0.0
  0
VERTEX
  5
2277
  8
SAPA_PROFIL
 10
4.8122803777810637
 20
-30.295906614023298
 30
0.0
  0
VERTEX
  5
2278
  8
SAPA_PROFIL
 10
9.8480775301220547
 20
-1.7364817766692791
 30
0.0
 42
1.9780623748969339
  0
SEQEND
  5
2279
  8
SAPA_PROFIL
  0
POLYLINE
  5
1C05
  8
SAPA_PROFIL
  6
CONTINUOUS
 62
     7
 66
     1
 10
0.0
 20
0.0
 30
0.0
 70
   129
  0
VERTEX
  5
227A
  8
SAPA_PROFIL
  6
CONTINUOUS
 62
     7
 10
15.619756464998339
 20
40.784423277121903
 30
0.0
 42
-0.4040262258351265
  0
VERTEX
  5
227B
  8
SAPA_PROFIL
  6
CONTINUOUS
 62
     7
 10
15.31523827851357
 20
40.160068469541443
 30
0.0
  0
VERTEX
  5
227C
  8
SAPA_PROFIL
  6
CONTINUOUS
 62
     7
 10
-3.8825795247877402
 20
33.172634226272912
 30
0.0
 42
-0.4142135623730951
  0
VERTEX
  5
227D
  8
SAPA_PROFIL
  6
CONTINUOUS
 62
     7
 10
-5.1642922888993184
 20
33.770306703733148
 30
0.0
  0
VERTEX
  5
227E
  8
SAPA_PROFIL
  6
CONTINUOUS
 62
     7
 10
-6.361362790539153
 20
37.059230876483831
 30
0.0
 42
-0.4142135623730951
  0
VERTEX
  5
227F
  8
SAPA_PROFIL
  6
CONTINUOUS
 62
     7
 10
-5.7636903130789143
 20
38.340943640595412
 30
0.0
  0
VERTEX
  5
2280
  8
SAPA_PROFIL
  6
CONTINUOUS
 62
     7
 10
-4.8239976922930046
 20
38.682963783921082
 30
0.0
 42
0.4142135623730951
  0
VERTEX
  5
2281
  8
SAPA_PROFIL
  6
CONTINUOUS
 62
     7
 10
-3.6286527373725259
 20
41.246389312144217
 30
0.0
  0
VERTEX
  5
2282
  8
SAPA_PROFIL
  6
CONTINUOUS
 62
     7
 10
-9.6824092742369103
 20
57.878948700054799
 30
0.0
 42
0.4142135623730951
  0
VERTEX
  5
2283
  8
SAPA_PROFIL
  6
CONTINUOUS
 62
     7
 10
-10.06692310347033
 20
58.058250443292877
 30
0.0
  0
VERTEX
  5
2284
  8
SAPA_PROFIL
  6
CONTINUOUS
 62
     7
 10
-11.59323206304672
 20
57.502719413713258
 30
0.0
  0
VERTEX
  5
2285
  8
SAPA_PROFIL
  6
CONTINUOUS
 62
     7
 10
-12.15376993360386
 20
56.300642071096618
 30
0.0
 42
0.198912367380615
  0
VERTEX
  5
2286
  8
SAPA_PROFIL
  6
CONTINUOUS
 62
     7
 10
-12.163785383728509
 20
56.071250549576071
 30
0.0
  0
VERTEX
  5
2287
  8
SAPA_PROFIL
  6
CONTINUOUS
 62
     7
 10
-11.753361211737699
 20
54.943619404632969
 30
0.0
  0
VERTEX
  5
2288
  8
SAPA_PROFIL
  6
CONTINUOUS
 62
     7
 10
-11.14256100822683
 20
55.165932497794657
 30
0.0
  0
VERTEX
  5
2289
  8
SAPA_PROFIL
  6
CONTINUOUS
 62
     7
 10
-11.257552957151431
 20
53.659520584776821
 30
0.0
 42
0.5450207774095396
  0
VERTEX
  5
228A
  8
SAPA_PROFIL
  6
CONTINUOUS
 62
     7
 10
-10.855817167515729
 20
53.354778730216061
 30
0.0
  0
VERTEX
  5
228B
  8
SAPA_PROFIL
  6
CONTINUOUS
 62
     7
 10
-10.52692475024064
 20
53.474485780380043
 30
0.0
  0
VERTEX
  5
228C
  8
SAPA_PROFIL
  6
CONTINUOUS
 62
     7
 10
-10.641916699165231
 20
51.968073867362023
 30
0.0
 42
0.545020777409285
  0
VERTEX
  5
228D
  8
SAPA_PROFIL
  6
CONTINUOUS
 62
     7
 10
-10.240180909529521
 20
51.663332012801398
 30
0.0
  0
VERTEX
  5
228E
  8
SAPA_PROFIL
  6
CONTINUOUS
 62
     7
 10
-9.9112884922544318
 20
51.7830390629654
 30
0.0
  0
VERTEX
  5
228F
  8
SAPA_PROFIL
  6
CONTINUOUS
 62
     7
 10
-10.026280441179059
 20
50.276627149947302
 30
0.0
 42
0.5450207774091322
  0
VERTEX
  5
2290
  8
SAPA_PROFIL
  6
CONTINUOUS
 62
     7
 10
-9.6245446515433137
 20
49.971885295386748
 30
0.0
  0
VERTEX
  5
2291
  8
SAPA_PROFIL
  6
CONTINUOUS
 62
     7
 10
-9.2956522342682248
 20
50.091592345550751
 30
0.0
  0
VERTEX
  5
2292
  8
SAPA_PROFIL
  6
CONTINUOUS
 62
     7
 10
-9.4106441831928311
 20
48.585180432532937
 30
0.0
 42
0.545020777409636
  0
VERTEX
  5
2293
  8
SAPA_PROFIL
  6
CONTINUOUS
 62
     7
 10
-9.0089083935571175
 20
48.280438577972127
 30
0.0
  0
VERTEX
  5
2294
  8
SAPA_PROFIL
  6
CONTINUOUS
 62
     7
 10
-8.6800159762820286
 20
48.40014562813613
 30
0.0
  0
VERTEX
  5
2295
  8
SAPA_PROFIL
  6
CONTINUOUS
 62
     7
 10
-8.7950079252066722
 20
46.893733715118081
 30
0.0
 42
0.5450207774091208
  0
VERTEX
  5
2296
  8
SAPA_PROFIL
  6
CONTINUOUS
 62
     7
 10
-8.3932721355709106
 20
46.588991860557492
 30
0.0
  0
VERTEX
  5
2297
  8
SAPA_PROFIL
  6
CONTINUOUS
 62
     7
 10
-8.0643797182958217
 20
46.708698910721488
 30
0.0
  0
VERTEX
  5
2298
  8
SAPA_PROFIL
  6
CONTINUOUS
 62
     7
 10
-8.1793716672204368
 20
45.202286997703361
 30
0.0
 42
0.5450207774089454
  0
VERTEX
  5
2299
  8
SAPA_PROFIL
  6
CONTINUOUS
 62
     7
 10
-7.7776358775847143
 20
44.897545143142871
 30
0.0
  0
VERTEX
  5
229A
  8
SAPA_PROFIL
  6
CONTINUOUS
 62
     7
 10
-7.4487434603096254
 20
45.017252193306859
 30
0.0
  0
VERTEX
  5
229B
  8
SAPA_PROFIL
  6
CONTINUOUS
 62
     7
 10
-7.5637354092342264
 20
43.510840280288861
 30
0.0
 42
0.5450207774092681
  0
VERTEX
  5
229C
  8
SAPA_PROFIL
  6
CONTINUOUS
 62
     7
 10
-7.1619996195985074
 20
43.206098425728229
 30
0.0
  0
VERTEX
  5
229D
  8
SAPA_PROFIL
  6
CONTINUOUS
 62
     7
 10
-6.8331072023234176
 20
43.325805475892217
 30
0.0
  0
VERTEX
  5
229E
  8
SAPA_PROFIL
  6
CONTINUOUS
 62
     7
 10
-6.9480991512480621
 20
41.819393562874183
 30
0.0
 42
0.5450207774092116
  0
VERTEX
  5
229F
  8
SAPA_PROFIL
  6
CONTINUOUS
 62
     7
 10
-6.5463633616122996
 20
41.514651708313572
 30
0.0
  0
VERTEX
  5
22A0
  8
SAPA_PROFIL
  6
CONTINUOUS
 62
     7
 10
-6.2174709443372107
 20
41.634358758477568
 30
0.0
  0
VERTEX
  5
22A1
  8
SAPA_PROFIL
  6
CONTINUOUS
 62
     7
 10
-6.1319659085057943
 20
41.399435603281091
 30
0.0
 42
-0.4142135623730951
  0
VERTEX
  5
22A2
  8
SAPA_PROFIL
  6
CONTINUOUS
 62
     7
 10
-6.7296383859660329
 20
40.11772283916951
 30
0.0
  0
VERTEX
  5
22A3
  8
SAPA_PROFIL
  6
CONTINUOUS
 62
     7
 10
-9.9245932966381574
 20
38.954854351862238
 30
0.0
 42
-0.4142135623730951
  0
VERTEX
  5
22A4
  8
SAPA_PROFIL
  6
CONTINUOUS
 62
     7
 10
-11.20630606074973
 20
39.552526829322467
 30
0.0
  0
VERTEX
  5
22A5
  8
SAPA_PROFIL
  6
CONTINUOUS
 62
     7
 10
-11.599629225574249
 20
40.633173343226268
 30
0.0
  0
VERTEX
  5
22A6
  8
SAPA_PROFIL
  6
CONTINUOUS
 62
     7
 10
-11.270736808299329
 20
40.752880393390242
 30
0.0
 42
0.5450207774097775
  0
VERTEX
  5
22A7
  8
SAPA_PROFIL
  6
CONTINUOUS
 62
     7
 10
-11.158873627311459
 20
41.244556985608142
 30
0.0
  0
VERTEX
  5
22A8
  8
SAPA_PROFIL
  6
CONTINUOUS
 62
     7
 10
-12.21526548356046
 20
42.324620060640918
 30
0.0
  0
VERTEX
  5
22A9
  8
SAPA_PROFIL
  6
CONTINUOUS
 62
     7
 10
-11.886373066285371
 20
42.444327110804913
 30
0.0
 42
0.545020777409251
  0
VERTEX
  5
22AA
  8
SAPA_PROFIL
  6
CONTINUOUS
 62
     7
 10
-11.774509885297659
 20
42.936003703022763
 30
0.0
  0
VERTEX
  5
22AB
  8
SAPA_PROFIL
  6
CONTINUOUS
 62
     7
 10
-12.83090174154666
 20
44.016066778055539
 30
0.0
  0
VERTEX
  5
22AC
  8
SAPA_PROFIL
  6
CONTINUOUS
 62
     7
 10
-12.50200932427151
 20
44.135773828219548
 30
0.0
 42
0.5450207774093077
  0
VERTEX
  5
22AD
  8
SAPA_PROFIL
  6
CONTINUOUS
 62
     7
 10
-12.39014614328387
 20
44.627450420437398
 30
0.0
  0
VERTEX
  5
22AE
  8
SAPA_PROFIL
  6
CONTINUOUS
 62
     7
 10
-13.446537999532859
 20
45.707513495470188
 30
0.0
  0
VERTEX
  5
22AF
  8
SAPA_PROFIL
  6
CONTINUOUS
 62
     7
 10
-13.117645582257831
 20
45.827220545634162
 30
0.0
 42
0.5450207774091775
  0
VERTEX
  5
22B0
  8
SAPA_PROFIL
  6
CONTINUOUS
 62
     7
 10
-13.005782401270061
 20
46.318897137852019
 30
0.0
  0
VERTEX
  5
22B1
  8
SAPA_PROFIL
  6
CONTINUOUS
 62
     7
 10
-14.06217425751907
 20
47.398960212884823
 30
0.0
  0
VERTEX
  5
22B2
  8
SAPA_PROFIL
  6
CONTINUOUS
 62
     7
 10
-13.733281840244141
 20
47.518667263048769
 30
0.0
 42
0.5450207774097434
  0
VERTEX
  5
22B3
  8
SAPA_PROFIL
  6
CONTINUOUS
 62
     7
 10
-13.621418659256269
 20
48.010343855266669
 30
0.0
  0
VERTEX
  5
22B4
  8
SAPA_PROFIL
  6
CONTINUOUS
 62
     7
 10
-14.67781051550527
 20
49.090406930299451
 30
0.0
  0
VERTEX
  5
22B5
  8
SAPA_PROFIL
  6
CONTINUOUS
 62
     7
 10
-14.348918098230181
 20
49.210113980463447
 30
0.0
 42
0.5450207774091265
  0
VERTEX
  5
22B6
  8
SAPA_PROFIL
  6
CONTINUOUS
 62
     7
 10
-14.23705491724248
 20
49.701790572681318
 30
0.0
  0
VERTEX
  5
22B7
  8
SAPA_PROFIL
  6
CONTINUOUS
 62
     7
 10
-15.293446773491469
 20
50.781853647714101
 30
0.0
  0
VERTEX
  5
22B8
  8
SAPA_PROFIL
  6
CONTINUOUS
 62
     7
 10
-14.96455435621654
 20
50.901560697878033
 30
0.0
 42
0.5450207774097152
  0
VERTEX
  5
22B9
  8
SAPA_PROFIL
  6
CONTINUOUS
 62
     7
 10
-14.852691175228671
 20
51.393237290095939
 30
0.0
  0
VERTEX
  5
22BA
  8
SAPA_PROFIL
  6
CONTINUOUS
 62
     7
 10
-15.909083031477669
 20
52.473300365128722
 30
0.0
  0
VERTEX
  5
22BB
  8
SAPA_PROFIL
  6
CONTINUOUS
 62
     7
 10
-15.58019061420258
 20
52.593007415292711
 30
0.0
 42
0.5450207774091775
  0
VERTEX
  5
22BC
  8
SAPA_PROFIL
  6
CONTINUOUS
 62
     7
 10
-15.468327433214879
 20
53.084684007510582
 30
0.0
  0
VERTEX
  5
22BD
  8
SAPA_PROFIL
  6
CONTINUOUS
 62
     7
 10
-16.524719289463881
 20
54.164747082543357
 30
0.0
  0
VERTEX
  5
22BE
  8
SAPA_PROFIL
  6
CONTINUOUS
 62
     7
 10
-16.195826872188889
 20
54.284454132707317
 30
0.0
 42
0.6681786379193241
  0
VERTEX
  5
22BF
  8
SAPA_PROFIL
  6
CONTINUOUS
 62
     7
 10
-16.171647436664259
 20
54.838254255054167
 30
0.0
  0
VERTEX
  5
22C0
  8
SAPA_PROFIL
  6
CONTINUOUS
 62
     7
 10
-17.37372477928152
 20
55.398792125611209
 30
0.0
  0
VERTEX
  5
22C1
  8
SAPA_PROFIL
  6
CONTINUOUS
 62
     7
 10
-18.90003373885791
 20
54.843261096031583
 30
0.0
 42
0.4142135623730951
  0
VERTEX
  5
22C2
  8
SAPA_PROFIL
  6
CONTINUOUS
 62
     7
 10
-19.079335482095939
 20
54.458747266798142
 30
0.0
  0
VERTEX
  5
22C3
  8
SAPA_PROFIL
  6
CONTINUOUS
 62
     7
 10
-13.02557894523161
 20
37.826187878887538
 30
0.0
 42
0.4142135623730951
  0
VERTEX
  5
22C4
  8
SAPA_PROFIL
  6
CONTINUOUS
 62
     7
 10
-10.46215341700845
 20
36.630842923967073
 30
0.0
  0
VERTEX
  5
22C5
  8
SAPA_PROFIL
  6
CONTINUOUS
 62
     7
 10
-9.5224607962225463
 20
36.972863067292742
 30
0.0
 42
-0.4142135623730951
  0
VERTEX
  5
22C6
  8
SAPA_PROFIL
  6
CONTINUOUS
 62
     7
 10
-8.2407480321109716
 20
36.375190589832499
 30
0.0
  0
VERTEX
  5
22C7
  8
SAPA_PROFIL
  6
CONTINUOUS
 62
     7
 10
-7.0436775304711281
 20
33.086266417081823
 30
0.0
 42
-0.41421356237309
  0
VERTEX
  5
22C8
  8
SAPA_PROFIL
  6
CONTINUOUS
 62
     7
 10
-7.6413500079313721
 20
31.804553652970242
 30
0.0
  0
VERTEX
  5
22C9
  8
SAPA_PROFIL
  6
CONTINUOUS
 62
     7
 10
-26.839167811233441
 20
24.817119409703619
 30
0.0
 42
-0.404026225835172
  0
VERTEX
  5
22CA
  8
SAPA_PROFIL
  6
CONTINUOUS
 62
     7
 10
-27.473769810179661
 20
25.09966242338864
 30
0.0
  0
VERTEX
  5
22CB
  8
SAPA_PROFIL
  6
CONTINUOUS
 62
     7
 10
-28.223439675637849
 20
26.955160451786501
 30
0.0
 42
-0.4244748162095842
  0
VERTEX
  5
22CC
  8
SAPA_PROFIL
  6
CONTINUOUS
 62
     7
 10
-27.930857820017192
 20
27.612310058888259
 30
0.0
  0
VERTEX
  5
22CD
  8
SAPA_PROFIL
  6
CONTINUOUS
 62
     7
 10
-22.292953439304402
 20
29.66433943710674
 30
0.0
 42
0.4142135623731155
  0
VERTEX
  5
22CE
  8
SAPA_PROFIL
  6
CONTINUOUS
 62
     7
 10
-22.11365169606637
 20
30.048853266340171
 30
0.0
  0
VERTEX
  5
22CF
  8
SAPA_PROFIL
  6
CONTINUOUS
 62
     7
 10
-23.447530255036469
 20
33.713654487405222
 30
0.0
 42
-0.2134217652833684
  0
VERTEX
  5
22D0
  8
SAPA_PROFIL
  6
CONTINUOUS
 62
     7
 10
-23.430039021972899
 20
33.957978159541021
 30
0.0
 42
0.2134217652833683
  0
VERTEX
  5
22D1
  8
SAPA_PROFIL
  6
CONTINUOUS
 62
     7
 10
-23.41254778890935
 20
34.202301831676849
 30
0.0
  0
VERTEX
  5
22D2
  8
SAPA_PROFIL
  6
CONTINUOUS
 62
     7
 10
-23.60161187420492
 20
34.721751136856277
 30
0.0
 42
0.4142135623731054
  0
VERTEX
  5
22D3
  8
SAPA_PROFIL
  6
CONTINUOUS
 62
     7
 10
-23.98612570343845
 20
34.90105288009434
 30
0.0
  0
VERTEX
  5
22D4
  8
SAPA_PROFIL
  6
CONTINUOUS
 62
     7
 10
-25.583603158774441
 20
34.31961863644073
 30
0.0
  0
VERTEX
  5
22D5
  8
SAPA_PROFIL
  6
CONTINUOUS
 62
     7
 10
-25.975610716736469
 20
33.682178384729518
 30
0.0
 42
0.7105995015649932
  0
VERTEX
  5
22D6
  8
SAPA_PROFIL
  6
CONTINUOUS
 62
     7
 10
-25.617460063763161
 20
33.243117958324547
 30
0.0
  0
VERTEX
  5
22D7
  8
SAPA_PROFIL
  6
CONTINUOUS
 62
     7
 10
-25.241583015448771
 20
33.379926015654817
 30
0.0
 42
-0.4142135623731308
  0
VERTEX
  5
22D8
  8
SAPA_PROFIL
  6
CONTINUOUS
 62
     7
 10
-24.857069186215341
 20
33.200624272416732
 30
0.0
  0
VERTEX
  5
22D9
  8
SAPA_PROFIL
  6
CONTINUOUS
 62
     7
 10
-24.036220842233728
 20
30.945361982530549
 30
0.0
 42
-0.4142135623730951
  0
VERTEX
  5
22DA
  8
SAPA_PROFIL
  6
CONTINUOUS
 62
     7
 10
-24.215522585471771
 20
30.560848153297101
 30
0.0
  0
VERTEX
  5
22DB
  8
SAPA_PROFIL
  6
CONTINUOUS
 62
     7
 10
-28.707415131647132
 20
28.92593297096704
 30
0.0
 42
-0.4040262258351568
  0
VERTEX
  5
22DC
  8
SAPA_PROFIL
  6
CONTINUOUS
 62
     7
 10
-29.088176331014822
 20
29.095458779178049
 30
0.0
  0
VERTEX
  5
22DD
  8
SAPA_PROFIL
  6
CONTINUOUS
 62
     7
 10
-29.987780169564981
 20
31.322056413256089
 30
0.0
 42
-0.4244748162096048
  0
VERTEX
  5
22DE
  8
SAPA_PROFIL
  6
CONTINUOUS
 62
     7
 10
-29.812231056192459
 20
31.716346177516979
 30
0.0
  0
VERTEX
  5
22DF
  8
SAPA_PROFIL
  6
CONTINUOUS
 62
     7
 10
-29.000353498592411
 20
32.011845442352147
 30
0.0
 42
0.710599501565118
  0
VERTEX
  5
22E0
  8
SAPA_PROFIL
  6
CONTINUOUS
 62
     7
 10
-29.008216783080108
 20
32.578400044326138
 30
0.0
  0
VERTEX
  5
22E1
  8
SAPA_PROFIL
  6
CONTINUOUS
 62
     7
 10
-29.718250690232459
 20
32.814730005807782
 30
0.0
  0
VERTEX
  5
22E2
  8
SAPA_PROFIL
  6
CONTINUOUS
 62
     7
 10
-31.879543718040068
 20
32.028083676158737
 30
0.0
 42
0.4142135623733353
  0
VERTEX
  5
22E3
  8
SAPA_PROFIL
  6
CONTINUOUS
 62
     7
 10
-32.058845461278047
 20
31.643569846925161
 30
0.0
  0
VERTEX
  5
22E4
  8
SAPA_PROFIL
  6
CONTINUOUS
 62
     7
 10
-32.055092831412537
 20
31.633793911897861
 30
0.0
  0
VERTEX
  5
22E5
  8
SAPA_PROFIL
  6
CONTINUOUS
 62
     7
 10
-28.959207747184958
 20
23.97120944023882
 30
0.0
 42
0.4040262258351517
  0
VERTEX
  5
22E6
  8
SAPA_PROFIL
  6
CONTINUOUS
 62
     7
 10
-26.420799751399532
 20
22.841037385499028
 30
0.0
 42
-0.8769764629929342
  0
VERTEX
  5
22E7
  8
SAPA_PROFIL
  6
CONTINUOUS
 62
     7
 10
-25.505203171723341
 20
21.0821927204228
 30
0.0
  0
VERTEX
  5
22E8
  8
SAPA_PROFIL
  6
CONTINUOUS
 62
     7
 10
-27.475942007055551
 20
19.702266532081381
 30
0.0
 42
0.3394542588633806
  0
VERTEX
  5
22E9
  8
SAPA_PROFIL
  6
CONTINUOUS
 62
     7
 10
-27.585776862385639
 20
19.353914875796718
 30
0.0
  0
VERTEX
  5
22EA
  8
SAPA_PROFIL
  6
CONTINUOUS
 62
     7
 10
-23.781957992796919
 20
8.9030084239062912
 30
0.0
 42
0.4142135623730951
  0
VERTEX
  5
22EB
  8
SAPA_PROFIL
  6
CONTINUOUS
 62
     7
 10
-23.141101610741138
 20
8.6041721851761732
 30
0.0
  0
VERTEX
  5
22EC
  8
SAPA_PROFIL
  6
CONTINUOUS
 62
     7
 10
22.90383680776873
 20
25.363159208132949
 30
0.0
 42
0.4142135623730951
  0
VERTEX
  5
22ED
  8
SAPA_PROFIL
  6
CONTINUOUS
 62
     7
 10
23.202673046498852
 20
26.00401559018874
 30
0.0
  0
VERTEX
  5
22EE
  8
SAPA_PROFIL
  6
CONTINUOUS
 62
     7
 10
19.398854176909751
 20
36.45492204208022
 30
0.0
 42
0.3394542588634147
  0
VERTEX
  5
22EF
  8
SAPA_PROFIL
  6
CONTINUOUS
 62
     7
 10
19.090799667849701
 20
36.651174408510037
 30
0.0
  0
VERTEX
  5
22F0
  8
SAPA_PROFIL
  6
CONTINUOUS
 62
     7
 10
16.694126678056179
 20
36.441492691723923
 30
0.0
 42
-0.87697646299261
  0
VERTEX
  5
22F1
  8
SAPA_PROFIL
  6
CONTINUOUS
 62
     7
 10
16.264950791983122
 20
38.377380010601577
 30
0.0
 42
0.404026225835172
  0
VERTEX
  5
22F2
  8
SAPA_PROFIL
  6
CONTINUOUS
 62
     7
 10
17.483023537920989
 20
40.874799240924077
 30
0.0
  0
VERTEX
  5
22F3
  8
SAPA_PROFIL
  6
CONTINUOUS
 62
     7
 10
14.929194746670399
 20
48.734676068523292
 30
0.0
  0
VERTEX
  5
22F4
  8
SAPA_PROFIL
  6
CONTINUOUS
 62
     7
 10
14.92578557801767
 20
48.744577013207753
 30
0.0
 42
0.4142135623733302
  0
VERTEX
  5
22F5
  8
SAPA_PROFIL
  6
CONTINUOUS
 62
     7
 10
14.54127174878368
 20
48.92387875644669
 30
0.0
  0
VERTEX
  5
22F6
  8
SAPA_PROFIL
  6
CONTINUOUS
 62
     7
 10
12.37997872097624
 20
48.137232426797709
 30
0.0
  0
VERTEX
  5
22F7
  8
SAPA_PROFIL
  6
CONTINUOUS
 62
     7
 10
11.98797116301421
 20
47.499792175086512
 30
0.0
 42
0.7105995015651246
  0
VERTEX
  5
22F8
  8
SAPA_PROFIL
  6
CONTINUOUS
 62
     7
 10
12.346121815987569
 20
47.06073174868154
 30
0.0
  0
VERTEX
  5
22F9
  8
SAPA_PROFIL
  6
CONTINUOUS
 62
     7
 10
13.157999373588471
 20
47.356231013517011
 30
0.0
 42
-0.4244748162093936
  0
VERTEX
  5
22FA
  8
SAPA_PROFIL
  6
CONTINUOUS
 62
     7
 10
13.54592237147479
 20
47.167028325593741
 30
0.0
  0
VERTEX
  5
22FB
  8
SAPA_PROFIL
  6
CONTINUOUS
 62
     7
 10
14.288015220887459
 20
44.883101379899287
 30
0.0
 42
-0.4040262258354259
  0
VERTEX
  5
22FC
  8
SAPA_PROFIL
  6
CONTINUOUS
 62
     7
 10
14.105304308996891
 20
44.508488495351408
 30
0.0
  0
VERTEX
  5
22FD
  8
SAPA_PROFIL
  6
CONTINUOUS
 62
     7
 10
9.6134117628209381
 20
42.873573313021147
 30
0.0
 42
-0.4142135623730951
  0
VERTEX
  5
22FE
  8
SAPA_PROFIL
  6
CONTINUOUS
 62
     7
 10
9.2288979335874082
 20
43.052875056259182
 30
0.0
  0
VERTEX
  5
22FF
  8
SAPA_PROFIL
  6
CONTINUOUS
 62
     7
 10
8.4080495896058025
 20
45.308137346145372
 30
0.0
 42
-0.4142135623731257
  0
VERTEX
  5
2300
  8
SAPA_PROFIL
  6
CONTINUOUS
 62
     7
 10
8.5873513328439355
 20
45.69265117537887
 30
0.0
  0
VERTEX
  5
2301
  8
SAPA_PROFIL
  6
CONTINUOUS
 62
     7
 10
8.9632283811582791
 20
45.829459232709141
 30
0.0
 42
0.7105995015649868
  0
VERTEX
  5
2302
  8
SAPA_PROFIL
  6
CONTINUOUS
 62
     7
 10
8.9553650966707004
 20
46.396013834683103
 30
0.0
  0
VERTEX
  5
2303
  8
SAPA_PROFIL
  6
CONTINUOUS
 62
     7
 10
8.2453311895182662
 20
46.632343796164783
 30
0.0
  0
VERTEX
  5
2304
  8
SAPA_PROFIL
  6
CONTINUOUS
 62
     7
 10
6.6478537341821804
 20
46.050909552511129
 30
0.0
 42
0.4142135623731155
  0
VERTEX
  5
2305
  8
SAPA_PROFIL
  6
CONTINUOUS
 62
     7
 10
6.4685519909441549
 20
45.66639572327766
 30
0.0
  0
VERTEX
  5
2306
  8
SAPA_PROFIL
  6
CONTINUOUS
 62
     7
 10
6.6576160762397301
 20
45.146946418098231
 30
0.0
 42
0.2134217652833684
  0
VERTEX
  5
2307
  8
SAPA_PROFIL
  6
CONTINUOUS
 62
     7
 10
6.8280633673332609
 20
44.971026774627582
 30
0.0
 42
-0.2134217652833637
  0
VERTEX
  5
2308
  8
SAPA_PROFIL
  6
CONTINUOUS
 62
     7
 10
6.9985106584269401
 20
44.795107131156861
 30
0.0
  0
VERTEX
  5
2309
  8
SAPA_PROFIL
  6
CONTINUOUS
 62
     7
 10
8.3323892173970489
 20
41.13030591009182
 30
0.0
 42
0.4142135623731104
  0
VERTEX
  5
230A
  8
SAPA_PROFIL
  6
CONTINUOUS
 62
     7
 10
8.7169030466305806
 20
40.951004166853792
 30
0.0
  0
VERTEX
  5
230B
  8
SAPA_PROFIL
  6
CONTINUOUS
 62
     7
 10
14.35480742734412
 20
43.00303354507254
 30
0.0
 42
-0.424474816209579
  0
VERTEX
  5
230C
  8
SAPA_PROFIL
  6
CONTINUOUS
 62
     7
 10
15.00134575715459
 20
42.687695731866981
 30
0.0
  0
SEQEND
  5
230D
  8
SAPA_PROFIL
  6
CONTINUOUS
 62
     7
  0
POLYLINE
  5
1C06
  8
SAPA_PROFIL
  6
CONTINUOUS
 62
     7
 66
     1
 10
0.0
 20
0.0
 30
0.0
 70
   129
  0
VERTEX
  5
230E
  8
SAPA_PROFIL
  6
CONTINUOUS
 62
     7
 10
-22.706147533368529
 20
11.2100913993071
 30
0.0
  0
VERTEX
  5
230F
  8
SAPA_PROFIL
  6
CONTINUOUS
 62
     7
 10
-25.167409867434621
 20
17.972354085507838
 30
0.0
 42
-0.3394542588633467
  0
VERTEX
  5
2310
  8
SAPA_PROFIL
  6
CONTINUOUS
 62
     7
 10
-24.801293682999191
 20
19.133526273122548
 30
0.0
  0
VERTEX
  5
2311
  8
SAPA_PROFIL
  6
CONTINUOUS
 62
     7
 10
-24.35805029902108
 20
19.44388863184497
 30
0.0
 42
0.3394542588633758
  0
VERTEX
  5
2312
  8
SAPA_PROFIL
  6
CONTINUOUS
 62
     7
 10
-23.259701745716491
 20
22.927405194688919
 30
0.0
  0
VERTEX
  5
2313
  8
SAPA_PROFIL
  6
CONTINUOUS
 62
     7
 10
-23.499115846044461
 20
23.585190029239069
 30
0.0
 42
-0.4142135623730848
  0
VERTEX
  5
2314
  8
SAPA_PROFIL
  6
CONTINUOUS
 62
     7
 10
-23.319814102806379
 20
23.969703858472531
 30
0.0
  0
VERTEX
  5
2315
  8
SAPA_PROFIL
  6
CONTINUOUS
 62
     7
 10
13.163965143389881
 20
37.248713537626969
 30
0.0
 42
-0.4142135623729826
  0
VERTEX
  5
2316
  8
SAPA_PROFIL
  6
CONTINUOUS
 62
     7
 10
13.54847897262326
 20
37.069411794388998
 30
0.0
  0
VERTEX
  5
2317
  8
SAPA_PROFIL
  6
CONTINUOUS
 62
     7
 10
13.78789307295127
 20
36.411626959838742
 30
0.0
 42
0.3394542588633709
  0
VERTEX
  5
2318
  8
SAPA_PROFIL
  6
CONTINUOUS
 62
     7
 10
16.868438163551669
 20
34.449103295540503
 30
0.0
  0
VERTEX
  5
2319
  8
SAPA_PROFIL
  6
CONTINUOUS
 62
     7
 10
17.407479373497491
 20
34.496263290584587
 30
0.0
 42
-0.3394542588634342
  0
VERTEX
  5
231A
  8
SAPA_PROFIL
  6
CONTINUOUS
 62
     7
 10
18.434327737031548
 20
33.842088735818763
 30
0.0
  0
VERTEX
  5
231B
  8
SAPA_PROFIL
  6
CONTINUOUS
 62
     7
 10
20.895590071097939
 20
27.079826049617161
 30
0.0
 42
-0.4142135623730132
  0
VERTEX
  5
231C
  8
SAPA_PROFIL
  6
CONTINUOUS
 62
     7
 10
20.716288327859921
 20
26.695312220383691
 30
0.0
  0
VERTEX
  5
231D
  8
SAPA_PROFIL
  6
CONTINUOUS
 62
     7
 10
-22.321633704135049
 20
11.030789656069039
 30
0.0
 42
-0.4142135623730951
  0
SEQEND
  5
231E
  8
SAPA_PROFIL
  6
CONTINUOUS
 62
     7
  0
LINE
  5
1C07
  8
SAPA_PROFIL
 10
14.54127174878359
 20
48.923878756446882
 30
0.0
 11
29.85826146759338
 21
54.498807092655099
 31
0.0
  0
ARC
  5
1C60
  8
SAPA_FYLLNING
 10
-21.888437554437541
 20
52.010819515204361
 30
0.0
 40
21.455789953952831
 50
355.19904622794161
 51
44.800953772057767
  0
POLYLINE
  5
1C61
  8
SAPA_FYLLNING
 66
     1
 10
0.0
 20
0.0
 30
0.0
 70
     1
  0
VERTEX
  5
235B
  8
SAPA_FYLLNING
 10
-1.4527952263037951
 20
67.430118334325073
 30
0.0
 42
-0.4142135623730951
  0
VERTEX
  5
235C
  8
SAPA_FYLLNING
 10
-1.15395898757367
 20
68.070974716380874
 30
0.0
  0
VERTEX
  5
235D
  8
SAPA_FYLLNING
 10
1.6651188747840591
 20
69.097035146357854
 30
0.0
 42
-0.4142135623730951
  0
VERTEX
  5
235E
  8
SAPA_FYLLNING
 10
2.3059752568398459
 20
68.798198907627736
 30
0.0
  0
VERTEX
  5
235F
  8
SAPA_FYLLNING
 10
7.43627740672569
 20
54.702809595836619
 30
0.0
 42
-0.4142135623730951
  0
VERTEX
  5
2360
  8
SAPA_FYLLNING
 10
7.1374411679955658
 20
54.061953213780832
 30
0.0
  0
VERTEX
  5
2361
  8
SAPA_FYLLNING
 10
4.3183633056378357
 20
53.035892783803853
 30
0.0
 42
-0.4142135623730951
  0
VERTEX
  5
2362
  8
SAPA_FYLLNING
 10
3.6775069235820488
 20
53.334729022533963
 30
0.0
  0
SEQEND
  5
2363
  8
SAPA_FYLLNING
  0
POLYLINE
  5
1C62
  8
SAPA_FYLLNING
 66
     1
 10
0.0
 20
0.0
 30
0.0
 70
     1
  0
VERTEX
  5
2364
  8
SAPA_FYLLNING
 10
6.3635819787136114
 20
70.807135862986172
 30
0.0
 42
-0.4142135623730951
  0
VERTEX
  5
2365
  8
SAPA_FYLLNING
 10
7.0044383607693979
 20
70.50829962425604
 30
0.0
  0
VERTEX
  5
2366
  8
SAPA_FYLLNING
 10
12.13474051065524
 20
56.41291031246493
 30
0.0
 42
-0.4142135623730951
  0
VERTEX
  5
2367
  8
SAPA_FYLLNING
 10
11.83590427192512
 20
55.77205393040915
 30
0.0
  0
VERTEX
  5
2368
  8
SAPA_FYLLNING
 10
9.016826409567388
 20
54.745993500432157
 30
0.0
 42
-0.4142135623730951
  0
VERTEX
  5
2369
  8
SAPA_FYLLNING
 10
8.3759700275116025
 20
55.044829739162282
 30
0.0
  0
VERTEX
  5
236A
  8
SAPA_FYLLNING
 10
3.245667877625757
 20
69.140219050953391
 30
0.0
 42
-0.4142135623730951
  0
VERTEX
  5
236B
  8
SAPA_FYLLNING
 10
3.5445041163558808
 20
69.781075433009178
 30
0.0
  0
SEQEND
  5
236C
  8
SAPA_FYLLNING
  0
LINE
  5
1C63
  8
SAPA_FYLLNING
 10
-2.9055180620781988
 20
68.497637122178276
 30
0.0
 11
3.250844517784631
 21
51.583169948029443
 31
0.0
1001
ACAD
1000
ASC_BOUNDS
1002
{
1070
    19
1005
0
1002
}
  0
LINE
  5
1C64
  8
SAPA_FYLLNING
 10
7.4311007665668161
 20
72.259858698760581
 30
0.0
 11
13.587463346429651
 21
55.345391524611742
 31
0.0
  0
LINE
  5
1C65
  8
SAPA_FYLLNING
 10
7.4311007665668161
 20
72.259858698760581
 30
0.0
 11
13.587463346429651
 21
55.345391524611742
 31
0.0
1001
ACAD
1000
ASC_BOUNDS
1002
{
1070
    19
1005
0
1002
}
  0
POLYLINE
  5
1C66
  8
SAPA_FYLLNING
 66
     1
 10
0.0
 20
0.0
 30
0.0
  0
VERTEX
  5
236D
  8
SAPA_FYLLNING
 10
27.682852658218309
 20
60.475693674496682
 30
0.0
  0
VERTEX
  5
236E
  8
SAPA_FYLLNING
 10
-0.507925965359009
 20
50.21508937472678
 30
0.0
  0
VERTEX
  5
236F
  8
SAPA_FYLLNING
 10
-0.1659058220333467
 20
49.275396753940861
 30
0.0
  0
VERTEX
  5
2370
  8
SAPA_FYLLNING
 10
28.02487280154374
 20
59.536001053711402
 30
0.0
  0
SEQEND
  5
2371
  8
SAPA_FYLLNING
  0
POLYLINE
  5
1C67
  8
SAPA_FYLLNING
 66
     1
 10
0.0
 20
0.0
 30
0.0
1001
ACAD
1000
ASC_BOUNDS
1002
{
1070
    19
1005
0
1005
0
1002
}
  0
VERTEX
  5
2372
  8
SAPA_FYLLNING
 10
19.474369218401488
 20
83.028316573360996
 30
0.0
  0
VERTEX
  5
2373
  8
SAPA_FYLLNING
 10
-8.7164094051758205
 20
72.767712273591087
 30
0.0
  0
VERTEX
  5
2374
  8
SAPA_FYLLNING
 10
-6.6642885452218401
 20
67.129556548875627
 30
0.0
  0
VERTEX
  5
2375
  8
SAPA_FYLLNING
 10
21.526490078355469
 20
77.390160848645536
 30
0.0
  0
SEQEND
  5
2376
  8
SAPA_FYLLNING
  0
POLYLINE
  5
1C6E
  8
SAPA_FOGBAND
 66
     1
 10
0.0
 20
0.0
 30
0.0
 70
     1
  0
VERTEX
  5
23E7
  8
SAPA_FOGBAND
 10
4.4911737873995508
 20
50.79029913762939
 30
0.0
 42
0.4679153941829814
  0
VERTEX
  5
23E8
  8
SAPA_FOGBAND
 10
4.3369136255469547
 20
50.524759363244812
 30
0.0
  0
VERTEX
  5
23E9
  8
SAPA_FOGBAND
 10
5.8933122065957164
 20
46.24803730404129
 30
0.0
 42
0.6685323900181767
  0
VERTEX
  5
23EA
  8
SAPA_FOGBAND
 10
6.262594873595023
 20
46.232095011673529
 30
0.0
 42
-0.1991665782226247
  0
VERTEX
  5
23EB
  8
SAPA_FOGBAND
 10
6.3190649306668192
 20
46.283891113243598
 30
0.0
  0
VERTEX
  5
23EC
  8
SAPA_FOGBAND
 10
8.750670484622546
 20
47.168923156360087
 30
0.0
 42
-0.4142135623731784
  0
VERTEX
  5
23ED
  8
SAPA_FOGBAND
 10
9.0070130374447075
 20
47.04938866086794
 30
0.0
  0
VERTEX
  5
23EE
  8
SAPA_FOGBAND
 10
9.2806291521052593
 20
46.297634564239146
 30
0.0
 42
0.4142135623731368
  0
VERTEX
  5
23EF
  8
SAPA_FOGBAND
 10
9.5369717049276321
 20
46.178100068747057
 30
0.0
  0
VERTEX
  5
23F0
  8
SAPA_FOGBAND
 10
9.9128487532420451
 20
46.314908126077462
 30
0.0
 42
-0.4142135623733448
  0
VERTEX
  5
23F1
  8
SAPA_FOGBAND
 10
10.169191306064199
 20
46.195373630585308
 30
0.0
  0
VERTEX
  5
23F2
  8
SAPA_FOGBAND
 10
10.53569968408077
 20
45.188400137943837
 30
0.0
 42
-0.703825529076487
  0
VERTEX
  5
23F3
  8
SAPA_FOGBAND
 10
10.390893230613379
 20
45.068084361809277
 30
0.0
  0
VERTEX
  5
23F4
  8
SAPA_FOGBAND
 10
9.2877477219283548
 20
45.719325443155732
 30
0.0
 42
0.9999999999999856
  0
VERTEX
  5
23F5
  8
SAPA_FOGBAND
 10
8.8810501908177528
 20
45.030415348739567
 30
0.0
  0
VERTEX
  5
23F6
  8
SAPA_FOGBAND
 10
10.431097903253891
 20
44.115345903740518
 30
0.0
 42
0.2242387338110932
  0
VERTEX
  5
23F7
  8
SAPA_FOGBAND
 10
11.49408797477156
 20
44.017152150283337
 30
0.0
 42
0.2242387338111004
  0
VERTEX
  5
23F8
  8
SAPA_FOGBAND
 10
12.24526788407724
 20
44.775649776659499
 30
0.0
  0
VERTEX
  5
23F9
  8
SAPA_FOGBAND
 10
12.84447801951033
 20
46.472985104045968
 30
0.0
 42
1.0000000000000899
  0
VERTEX
  5
23FA
  8
SAPA_FOGBAND
 10
12.090106762894161
 20
46.739300719794052
 30
0.0
  0
VERTEX
  5
23FB
  8
SAPA_FOGBAND
 10
11.66365797402243
 20
45.531332843633749
 30
0.0
 42
-0.7038255290763446
  0
VERTEX
  5
23FC
  8
SAPA_FOGBAND
 10
11.475392304866929
 20
45.530420281269478
 30
0.0
  0
VERTEX
  5
23FD
  8
SAPA_FOGBAND
 10
11.10888392685033
 20
46.537393773911049
 30
0.0
 42
-0.4142135623729703
  0
VERTEX
  5
23FE
  8
SAPA_FOGBAND
 10
11.228418422342189
 20
46.793736326733352
 30
0.0
  0
VERTEX
  5
23FF
  8
SAPA_FOGBAND
 10
11.604295470656639
 20
46.930544384063651
 30
0.0
 42
0.4142135623730117
  0
VERTEX
  5
2400
  8
SAPA_FOGBAND
 10
11.723829966148751
 20
47.186886936885912
 30
0.0
  0
VERTEX
  5
2401
  8
SAPA_FOGBAND
 10
11.450213851487989
 20
47.938641033514621
 30
0.0
 42
-0.4142135623731784
  0
VERTEX
  5
2402
  8
SAPA_FOGBAND
 10
11.569748346980271
 20
48.194983586337081
 30
0.0
  0
VERTEX
  5
2403
  8
SAPA_FOGBAND
 10
14.001353900935991
 20
49.080015629452959
 30
0.0
 42
-0.1991665782227297
  0
VERTEX
  5
2404
  8
SAPA_FOGBAND
 10
14.077906366677709
 20
49.07663576667413
 30
0.0
 42
0.6685323900181511
  0
VERTEX
  5
2405
  8
SAPA_FOGBAND
 10
14.35054579366895
 20
49.32621859397215
 30
0.0
  0
VERTEX
  5
2406
  8
SAPA_FOGBAND
 10
12.794157478819679
 20
53.602912443383303
 30
0.0
 42
0.4679406819625479
  0
VERTEX
  5
2407
  8
SAPA_FOGBAND
 10
12.50529598590062
 20
53.707186786732393
 30
0.0
  0
VERTEX
  5
2408
  8
SAPA_FOGBAND
 10
11.891073380863951
 20
53.348194376428538
 30
0.0
 42
0.3624646087620003
  0
VERTEX
  5
2409
  8
SAPA_FOGBAND
 10
11.804054987488531
 20
53.107119773539111
 30
0.0
  0
VERTEX
  5
240A
  8
SAPA_FOGBAND
 10
11.84356480197134
 20
52.99856745040077
 30
0.0
 42
-0.3515239862759624
  0
VERTEX
  5
240B
  8
SAPA_FOGBAND
 10
11.76317099554876
 20
52.761539183598408
 30
0.0
  0
VERTEX
  5
240C
  8
SAPA_FOGBAND
 10
10.441708754875799
 20
51.939828730722809
 30
0.0
 42
-0.751570456352482
  0
VERTEX
  5
240D
  8
SAPA_FOGBAND
 10
10.29889845273113
 20
52.068328831210671
 30
0.0
  0
VERTEX
  5
240E
  8
SAPA_FOGBAND
 10
11.566672778832629
 20
52.767105649312228
 30
0.0
 42
0.7197481174277197
  0
VERTEX
  5
240F
  8
SAPA_FOGBAND
 10
11.09198748729151
 20
53.231090265932259
 30
0.0
  0
VERTEX
  5
2410
  8
SAPA_FOGBAND
 10
9.1723228475733585
 20
52.246976264658016
 30
0.0
 42
-0.5053637834253038
  0
VERTEX
  5
2411
  8
SAPA_FOGBAND
 10
8.9307907349070952
 20
52.247478053544071
 30
0.0
  0
VERTEX
  5
2412
  8
SAPA_FOGBAND
 10
8.9012180713361886
 20
52.287795017335633
 30
0.0
 42
0.3333333333331249
  0
VERTEX
  5
2413
  8
SAPA_FOGBAND
 10
8.6715461875064683
 20
52.357442887210048
 30
0.0
  0
VERTEX
  5
2414
  8
SAPA_FOGBAND
 10
8.2956691391921922
 20
52.220634829879948
 30
0.0
 42
0.3333333333331312
  0
VERTEX
  5
2415
  8
SAPA_FOGBAND
 10
8.1644990566401141
 20
52.019651224968449
 30
0.0
  0
VERTEX
  5
2416
  8
SAPA_FOGBAND
 10
8.1677603268287431
 20
51.969757697163807
 30
0.0
 42
-0.505363783425254
  0
VERTEX
  5
2417
  8
SAPA_FOGBAND
 10
7.9830585377649266
 20
51.814119455212499
 30
0.0
  0
VERTEX
  5
2418
  8
SAPA_FOGBAND
 10
5.8799338213184971
 20
51.334057872119963
 30
0.0
 42
0.7197481174279296
  0
VERTEX
  5
2419
  8
SAPA_FOGBAND
 10
5.814547354151796
 20
50.6735032109626
 30
0.0
  0
VERTEX
  5
241A
  8
SAPA_FOGBAND
 10
7.2348839124025872
 20
50.953118741172382
 30
0.0
 42
-0.7515704563522813
  0
VERTEX
  5
241B
  8
SAPA_FOGBAND
 10
7.2080831464614556
 20
50.762885260498948
 30
0.0
  0
VERTEX
  5
241C
  8
SAPA_FOGBAND
 10
5.6675990423442366
 20
50.542932431803983
 30
0.0
 42
-0.3515239862759173
  0
VERTEX
  5
241D
  8
SAPA_FOGBAND
 10
5.4536549806267232
 20
50.672830475786228
 30
0.0
  0
VERTEX
  5
241E
  8
SAPA_FOGBAND
 10
5.414145166143995
 20
50.781382798924348
 30
0.0
 42
0.3624646087620678
  0
VERTEX
  5
241F
  8
SAPA_FOGBAND
 10
5.192525441702152
 20
50.910122313768483
 30
0.0
  0
SEQEND
  5
2420
  8
SAPA_FOGBAND
  0
POLYLINE
  5
1C6F
  8
SAPA_FOGBAND
 66
     1
 10
0.0
 20
0.0
 30
0.0
 70
     1
  0
VERTEX
  5
2421
  8
SAPA_FOGBAND
 10
0.3503268874981362
 20
83.959252033837345
 30
0.0
  0
VERTEX
  5
2422
  8
SAPA_FOGBAND
 10
-0.6985494871731884
 20
83.577492254031711
 30
0.0
 42
0.3812119866950782
  0
VERTEX
  5
2423
  8
SAPA_FOGBAND
 10
-0.7931203998030894
 20
83.401598479092158
 30
0.0
  0
VERTEX
  5
2424
  8
SAPA_FOGBAND
 10
-0.621003700694168
 20
82.683011617342032
 30
0.0
 42
-0.3812119866950766
  0
VERTEX
  5
2425
  8
SAPA_FOGBAND
 10
-0.7155746133244963
 20
82.507117842402337
 30
0.0
  0
VERTEX
  5
2426
  8
SAPA_FOGBAND
 10
-3.8651621799877809
 20
81.360761717922003
 30
0.0
 42
-0.4142135623730951
  0
VERTEX
  5
2427
  8
SAPA_FOGBAND
 10
-4.1215047328102896
 20
81.480296213413794
 30
0.0
  0
VERTEX
  5
2428
  8
SAPA_FOGBAND
 10
-4.3951208474703769
 20
82.232050310042624
 30
0.0
 42
0.4142135623732615
  0
VERTEX
  5
2429
  8
SAPA_FOGBAND
 10
-4.6514634002929638
 20
82.351584805534628
 30
0.0
  0
VERTEX
  5
242A
  8
SAPA_FOGBAND
 10
-5.027340448607414
 20
82.214776748204315
 30
0.0
 42
-0.4142135623733032
  0
VERTEX
  5
242B
  8
SAPA_FOGBAND
 10
-5.2836830014295719
 20
82.334311243696476
 30
0.0
  0
VERTEX
  5
242C
  8
SAPA_FOGBAND
 10
-5.6501913794460998
 20
83.341284736337855
 30
0.0
 42
-0.7038255290763713
  0
VERTEX
  5
242D
  8
SAPA_FOGBAND
 10
-5.5053849259787491
 20
83.461600512472515
 30
0.0
  0
VERTEX
  5
242E
  8
SAPA_FOGBAND
 10
-4.4022394172934733
 20
82.810359431126045
 30
0.0
 42
0.9999999999999722
  0
VERTEX
  5
242F
  8
SAPA_FOGBAND
 10
-3.995541886182906
 20
83.499269525542303
 30
0.0
  0
VERTEX
  5
2430
  8
SAPA_FOGBAND
 10
-5.545589598619336
 20
84.414338970541493
 30
0.0
 42
0.224238733811101
  0
VERTEX
  5
2431
  8
SAPA_FOGBAND
 10
-6.6085796701366872
 20
84.512532723998419
 30
0.0
 42
0.2242387338111034
  0
VERTEX
  5
2432
  8
SAPA_FOGBAND
 10
-7.3597595794424731
 20
83.754035097622591
 30
0.0
  0
VERTEX
  5
2433
  8
SAPA_FOGBAND
 10
-7.9589697148754848
 20
82.056699770235895
 30
0.0
 42
0.9999999999999722
  0
VERTEX
  5
2434
  8
SAPA_FOGBAND
 10
-7.2045984582592784
 20
81.790384154487725
 30
0.0
  0
VERTEX
  5
2435
  8
SAPA_FOGBAND
 10
-6.7781496693876262
 20
82.998352030648235
 30
0.0
 42
-0.7038255290763713
  0
VERTEX
  5
2436
  8
SAPA_FOGBAND
 10
-6.5898840002320114
 20
82.999264593012185
 30
0.0
  0
VERTEX
  5
2437
  8
SAPA_FOGBAND
 10
-6.2233756222155607
 20
81.992291100371034
 30
0.0
 42
-0.414213562372887
  0
VERTEX
  5
2438
  8
SAPA_FOGBAND
 10
-6.3429101177074241
 20
81.735948547548716
 30
0.0
  0
VERTEX
  5
2439
  8
SAPA_FOGBAND
 10
-6.7187871660217962
 20
81.599140490218232
 30
0.0
 42
0.4142135623730951
  0
VERTEX
  5
243A
  8
SAPA_FOGBAND
 10
-6.8383216615141631
 20
81.342797937395986
 30
0.0
  0
VERTEX
  5
243B
  8
SAPA_FOGBAND
 10
-6.5647055468535713
 20
80.591043840767085
 30
0.0
 42
-0.4142135623733032
  0
VERTEX
  5
243C
  8
SAPA_FOGBAND
 10
-6.6842400423454338
 20
80.334701287944796
 30
0.0
  0
VERTEX
  5
243D
  8
SAPA_FOGBAND
 10
-11.31648201460578
 20
78.648703092123242
 30
0.0
 42
0.2663342079579414
  0
VERTEX
  5
243E
  8
SAPA_FOGBAND
 10
-11.958204693663371
 20
77.888593486709055
 30
0.0
  0
VERTEX
  5
243F
  8
SAPA_FOGBAND
 10
-12.55449235132766
 20
71.193092912449515
 30
0.0
 42
0.0528612085595158
  0
VERTEX
  5
2440
  8
SAPA_FOGBAND
 10
-12.57027876110376
 20
70.982829055192724
 30
0.0
 42
0.2389362379610816
  0
VERTEX
  5
2441
  8
SAPA_FOGBAND
 10
-11.91201082831442
 20
69.898751520826352
 30
0.0
 42
0.4294697894412148
  0
VERTEX
  5
2442
  8
SAPA_FOGBAND
 10
-11.635668491639731
 20
69.986941730265642
 30
0.0
  0
VERTEX
  5
2443
  8
SAPA_FOGBAND
 10
-9.0627562132721824
 20
73.306334732274934
 30
0.0
 42
-0.1982170680849689
  0
VERTEX
  5
2444
  8
SAPA_FOGBAND
 10
-8.4996026120788173
 20
73.820985599543349
 30
0.0
  0
VERTEX
  5
2445
  8
SAPA_FOGBAND
 10
-8.3881005778463607
 20
73.861569021064341
 30
0.0
 42
-0.2084822249037396
  0
VERTEX
  5
2446
  8
SAPA_FOGBAND
 10
-7.5904445014861279
 20
73.81204261876114
 30
0.0
  0
VERTEX
  5
2447
  8
SAPA_FOGBAND
 10
-3.6687287738430259
 20
74.578966261097577
 30
0.0
  0
VERTEX
  5
2448
  8
SAPA_FOGBAND
 10
-3.273562352441171
 20
75.109657399146286
 30
0.0
  0
VERTEX
  5
2449
  8
SAPA_FOGBAND
 10
-6.7256337370105861
 20
74.914698716505654
 30
0.0
 42
-0.6313983151680253
  0
VERTEX
  5
244A
  8
SAPA_FOGBAND
 10
-6.6091562149739804
 20
75.443743844979338
 30
0.0
  0
VERTEX
  5
244B
  8
SAPA_FOGBAND
 10
-3.8233801967134449
 20
76.08930053660012
 30
0.0
 42
-0.3791008518982226
  0
VERTEX
  5
244C
  8
SAPA_FOGBAND
 10
-3.473747115842396
 20
75.899651067303452
 30
0.0
  0
VERTEX
  5
244D
  8
SAPA_FOGBAND
 10
-3.3935903228754221
 20
75.679422088610778
 30
0.0
 42
0.414213562373095
  0
VERTEX
  5
244E
  8
SAPA_FOGBAND
 10
-3.0090764936418721
 20
75.500120345373034
 30
0.0
  0
VERTEX
  5
244F
  8
SAPA_FOGBAND
 10
1.268142217964761
 20
77.056900641844251
 30
0.0
  0
VERTEX
  5
2450
  8
SAPA_FOGBAND
 10
7.3922784922397451
 20
78.730727373447422
 30
0.0
  0
VERTEX
  5
2451
  8
SAPA_FOGBAND
 10
7.3922784922397451
 20
78.730727373447422
 30
0.0
  0
VERTEX
  5
2452
  8
SAPA_FOGBAND
 10
7.8023228199458741
 20
79.323012691351835
 30
0.0
 42
0.5371060876771919
  0
VERTEX
  5
2453
  8
SAPA_FOGBAND
 10
7.5153944669502124
 20
81.2894981783015
 30
0.0
  0
VERTEX
  5
2454
  8
SAPA_FOGBAND
 10
1.1753210672674339
 20
82.131169813764402
 30
0.0
  0
VERTEX
  5
2455
  8
SAPA_FOGBAND
 10
0.5425838021149883
 20
83.869601162218274
 30
0.0
 42
0.4142135623730951
  0
SEQEND
  5
2456
  8
SAPA_FOGBAND
  0
DIMENSION
  5
1C76
  8
SAPA_MATT
  2
*D41
 10
-92.39184877196297
 20
-418.50026993268131
 30
0.0
 11
-146.0441018227778
 21
-278.40142717310903
 31
0.0
 70
     0
  1
300
 51
340.00000000000011
 13
-145.56507866186351
 23
-118.6004111296253
 33
0.0
 14
-33.792240355757578
 24
-397.17175672952737
 34
0.0
 50
109.9999999999999
1001
ACAD
1000
DSTYLE
1002
{
1070
    40
1040
1.0
1002
}
  0
DIMENSION
  5
1C77
  8
SAPA_MATT
  2
*D40
 10
-133.12848192598739
 20
-273.70052597358108
 30
0.0
 11
-161.12922422737719
 21
-204.0786297729521
 31
0.0
 70
     0
  1
150
 51
340.00000000000011
 13
-146.97461759304241
 23
-119.1134413446138
 33
0.0
 14
-95.671596094192196
 24
-260.06733446250018
 34
0.0
 50
109.9999999999999
1001
ACAD
1000
DSTYLE
1002
{
1070
    40
1040
1.0
1002
}
  0
VIEWPORT
  5
C4
 67
     1
  8
0
 10
143.06236603067589
 20
116.00969601843509
 30
0.0
 40
369.98580003443811
 41
256.8421457311839
 68
     1
 69
     1
1001
ACAD
1000
MVIEW
1002
{
1070
    16
1010
0.0
1020
0.0
1030
0.0
1010
0.0
1020
0.0
1030
1.0
1040
0.0
1040
256.8421457311839
1040
99.112914085388169
1040
143.07606935501099
1040
50.0
1040
0.0
1040
0.0
1070
     0
1070
     0
1070
     1
1070
     1
1070
     0
1070
     0
1070
     0
1070
     0
1040
0.0
1040
0.0
1040
0.0
1040
10.0
1040
10.0
1040
10.0
1040
10.0
1070
     0
1002
{
1002
}
1002
}
  0
ENDSEC
  0
EOF
