  0
SECTION
  2
HEADER
  9
$ACADVER
  1
AC1009
  9
$INSBASE
 10
0.0
 20
0.0
 30
0.0
  9
$EXTMIN
 10
-196.4074307008421
 20
-424.25393039006542
 30
0.0
  9
$EXTMAX
 10
167.01417897799851
 20
108.1786759712333
 30
0.0
  9
$LIMMIN
 10
0.0
 20
0.0
  9
$LIMMAX
 10
790.0
 20
790.0
  9
$ORTHOMODE
 70
     1
  9
$REGENMODE
 70
     1
  9
$FILLMODE
 70
     1
  9
$QTEXTMODE
 70
     0
  9
$MIRRTEXT
 70
     1
  9
$DRAGMODE
 70
     2
  9
$LTSCALE
 40
4.0
  9
$OSMODE
 70
   167
  9
$ATTMODE
 70
     1
  9
$TEXTSIZE
 40
3.5
  9
$TRACEWID
 40
0.05
  9
$TEXTSTYLE
  7
ISO
  9
$CLAYER
  8
0
  9
$CELTYPE
  6
BYLAYER
  9
$CECOLOR
 62
   256
  9
$DIMSCALE
 40
0.0
  9
$DIMASZ
 40
3.0
  9
$DIMEXO
 40
1.5
  9
$DIMDLI
 40
10.0
  9
$DIMRND
 40
0.0
  9
$DIMDLE
 40
0.0
  9
$DIMEXE
 40
1.5
  9
$DIMTP
 40
0.0
  9
$DIMTM
 40
0.0
  9
$DIMTXT
 40
3.0
  9
$DIMCEN
 40
-5.0
  9
$DIMTSZ
 40
0.0
  9
$DIMTOL
 70
     0
  9
$DIMLIM
 70
     0
  9
$DIMTIH
 70
     0
  9
$DIMTOH
 70
     0
  9
$DIMSE1
 70
     0
  9
$DIMSE2
 70
     0
  9
$DIMTAD
 70
     1
  9
$DIMZIN
 70
     8
  9
$DIMBLK
  1

  9
$DIMASO
 70
     1
  9
$DIMSHO
 70
     1
  9
$DIMPOST
  1

  9
$DIMAPOST
  1

  9
$DIMALT
 70
     0
  9
$DIMALTD
 70
     0
  9
$DIMALTF
 40
25.399999999999999
  9
$DIMLFAC
 40
-1.0
  9
$DIMTOFL
 70
     1
  9
$DIMTVP
 40
0.0
  9
$DIMTIX
 70
     0
  9
$DIMSOXD
 70
     0
  9
$DIMSAH
 70
     0
  9
$DIMBLK1
  1

  9
$DIMBLK2
  1

  9
$DIMSTYLE
  2
MASKIN
  9
$DIMCLRD
 70
   256
  9
$DIMCLRE
 70
   256
  9
$DIMCLRT
 70
     2
  9
$DIMTFAC
 40
1.0
  9
$DIMGAP
 40
1.0
  9
$LUNITS
 70
     2
  9
$LUPREC
 70
     8
  9
$SKETCHINC
 40
0.1
  9
$FILLETRAD
 40
0.0
  9
$AUNITS
 70
     0
  9
$AUPREC
 70
     8
  9
$MENU
  1
ACAD
  9
$ELEVATION
 40
0.0
  9
$PELEVATION
 40
0.0
  9
$THICKNESS
 40
0.0
  9
$LIMCHECK
 70
     0
  9
$BLIPMODE
 70
     0
  9
$CHAMFERA
 40
0.0
  9
$CHAMFERB
 40
0.0
  9
$SKPOLY
 70
     0
  9
$TDCREATE
 40
2454993.5132560181
  9
$TDUPDATE
 40
2456983.6029544561
  9
$TDINDWG
 40
0.0489788657
  9
$TDUSRTIMER
 40
0.0489786806
  9
$USRTIMER
 70
     1
  9
$ANGBASE
 50
0.0
  9
$ANGDIR
 70
     0
  9
$PDMODE
 70
     0
  9
$PDSIZE
 40
0.0
  9
$PLINEWID
 40
0.0
  9
$COORDS
 70
     1
  9
$SPLFRAME
 70
     0
  9
$SPLINETYPE
 70
     6
  9
$SPLINESEGS
 70
     8
  9
$ATTDIA
 70
     0
  9
$ATTREQ
 70
     1
  9
$HANDLING
 70
     1
  9
$HANDSEED
  5
22CB
  9
$SURFTAB1
 70
     6
  9
$SURFTAB2
 70
     6
  9
$SURFTYPE
 70
     6
  9
$SURFU
 70
     6
  9
$SURFV
 70
     6
  9
$UCSNAME
  2

  9
$UCSORG
 10
0.0
 20
0.0
 30
0.0
  9
$UCSXDIR
 10
1.0
 20
0.0
 30
0.0
  9
$UCSYDIR
 10
0.0
 20
1.0
 30
0.0
  9
$PUCSNAME
  2

  9
$PUCSORG
 10
0.0
 20
0.0
 30
0.0
  9
$PUCSXDIR
 10
1.0
 20
0.0
 30
0.0
  9
$PUCSYDIR
 10
0.0
 20
1.0
 30
0.0
  9
$USERI1
 70
     0
  9
$USERI2
 70
     0
  9
$USERI3
 70
     0
  9
$USERI4
 70
     0
  9
$USERI5
 70
     0
  9
$USERR1
 40
0.0
  9
$USERR2
 40
0.0
  9
$USERR3
 40
0.0
  9
$USERR4
 40
0.0
  9
$USERR5
 40
0.0
  9
$WORLDVIEW
 70
     1
  9
$SHADEDGE
 70
     3
  9
$SHADEDIF
 70
    70
  9
$TILEMODE
 70
     1
  9
$MAXACTVP
 70
    16
  9
$PLIMCHECK
 70
     0
  9
$PEXTMIN
 10
1.0000000000000000E+020
 20
1.0000000000000000E+020
 30
1.0000000000000000E+020
  9
$PEXTMAX
 10
-1.0000000000000000E+020
 20
-1.0000000000000000E+020
 30
-1.0000000000000000E+020
  9
$PLIMMIN
 10
-5.069427490234375
 20
-5.8737497329711914
  9
$PLIMMAX
 10
291.89889526367187
 20
204.0995779037475
  9
$UNITMODE
 70
     0
  9
$VISRETAIN
 70
     1
  9
$PLINEGEN
 70
     0
  9
$PSLTSCALE
 70
     1
  0
ENDSEC
  0
SECTION
  2
TABLES
  0
TABLE
  2
VPORT
 70
     1
  0
VPORT
  2
*ACTIVE
 70
     0
 10
0.0
 20
0.0
 11
1.0
 21
1.0
 12
116.6930181284873
 22
-212.54322550136831
 13
0.0
 23
0.0
 14
1.0
 24
1.0
 15
0.0
 25
0.0
 16
0.0
 26
0.0
 36
1.0
 17
0.0
 27
0.0
 37
0.0
 40
393.06445434041183
 41
2.0037243947858472
 42
50.0
 43
0.0
 44
0.0
 50
0.0
 51
0.0
 71
     0
 72
  1000
 73
     1
 74
     1
 75
     0
 76
     0
 77
     0
 78
     0
  0
ENDTAB
  0
TABLE
  2
LTYPE
 70
     9
  0
LTYPE
  2
CONTINUOUS
 70
     0
  3
Solid line
 72
    65
 73
     0
 40
0.0
  0
LTYPE
  2
BYGG-01473402$0$NEWDOT
 70
     0
  3
____ . ____ . ____ . ____ . ____ . ____ . ____
 72
    65
 73
     4
 40
2.0
 49
1.0
 49
-0.5
 49
0.0
 49
-0.5
  0
LTYPE
  2
BYGG-014252$0$NEWDOT
 70
     0
  3
____ . ____ . ____ . ____ . ____ . ____ . ____
 72
    65
 73
     4
 40
2.0
 49
1.0
 49
-0.5
 49
0.0
 49
-0.5
  0
LTYPE
  2
DASHDOT
 70
     0
  3
__ . __ . __ . __ . __ . __ . __ . __ . __ . __
 72
    65
 73
     4
 40
1.0
 49
0.5
 49
-0.25
 49
0.0
 49
-0.25
  0
LTYPE
  2
BYGG-01473402$0$ZIGZAG
 70
     0
  3
Zig zag /\/\/\/\/\/\/\/\/\/\/\/\/\/\/\/\/\/\/\/\/\/\/\/
 72
    65
 73
     4
 40
20.32254
 49
0.00254
 49
-5.0800000000000001
 49
-10.16
 49
-5.0800000000000001
  0
LTYPE
  2
BYGG-014680$0$DASHDOT
 70
     0
  3
Dash dot __ . __ . __ . __ . __ . __ . __ . __
 72
    65
 73
     4
 40
1.0
 49
0.5
 49
-0.25
 49
0.0
 49
-0.25
  0
LTYPE
  2
BYGG-01458701$0$DASHDOT
 70
     0
  3
Dash dot __ . __ . __ . __ . __ . __ . __ . __
 72
    65
 73
     4
 40
1.0
 49
0.5
 49
-0.25
 49
0.0
 49
-0.25
  0
LTYPE
  2
BYGG-014252$0$ZIGZAG
 70
     0
  3
Zig zag /\/\/\/\/\/\/\/\/\/\/\/\/\/\/\/\/\/\/\/\/\/\/\/
 72
    65
 73
     4
 40
20.32254
 49
0.00254
 49
-5.0800000000000001
 49
-10.16
 49
-5.0800000000000001
  0
LTYPE
  2
BYGG-014252$0$PHANTOM2
 70
     0
  3
Phantom (.5x) ___ _ _ ___ _ _ ___ _ _ ___ _ _
 72
    65
 73
     6
 40
1.25
 49
0.625
 49
-0.125
 49
0.125
 49
-0.125
 49
0.125
 49
-0.125
  0
ENDTAB
  0
TABLE
  2
LAYER
 70
    49
  0
LAYER
  2
0
 70
     0
 62
     7
  6
CONTINUOUS
  0
LAYER
  2
DEFPOINTS
 70
     0
 62
     7
  6
CONTINUOUS
  0
LAYER
  2
SAPA_FOGBAND
 70
     0
 62
     2
  6
CONTINUOUS
  0
LAYER
  2
SAPA_ANSLUTNING
 70
     0
 62
     6
  6
CONTINUOUS
  0
LAYER
  2
SAPA_ARTIKELNR
 70
     0
 62
     4
  6
CONTINUOUS
  0
LAYER
  2
SAPA_LIGHT
 70
     1
 62
     1
  6
CONTINUOUS
  0
LAYER
  2
SAPA_PROFIL
 70
     0
 62
     7
  6
CONTINUOUS
  0
LAYER
  2
SAPA_MATT
 70
     0
 62
     1
  6
CONTINUOUS
  0
LAYER
  2
SAPA_GLAS
 70
     0
 62
     4
  6
CONTINUOUS
  0
ENDTAB
  0
TABLE
  2
STYLE
 70
    26
  0
STYLE
  2
STANDARD
 70
     0
 40
0.0
 41
1.0
 50
0.0
 71
     0
 42
0.2
  3
txt
  4

  0
STYLE
  2
ISO
 70
     0
 40
0.0
 41
1.0
 50
0.0
 71
     0
 42
3.5
  3
txt
  4

  0
STYLE
  2

 70
     1
 40
0.0
 41
1.0
 50
0.0
 71
     0
 42
0.2
  3
ltypeshp.shx
  4

  0
STYLE
  2
BYGG-024109$0$STANDARD
 70
     0
 40
0.0
 41
1.0
 50
0.0
 71
     0
 42
0.2
  3
txt
  4

  0
STYLE
  2
BYGG-024109$0$ISO
 70
     0
 40
0.0
 41
1.0
 50
0.0
 71
     0
 42
3.5
  3
txt
  4

  0
STYLE
  2
BYGG-01473402$0$STANDARD
 70
     0
 40
0.0
 41
1.0
 50
0.0
 71
     0
 42
0.2
  3
txt
  4

  0
STYLE
  2
BYGG-01473402$0$ISO
 70
     0
 40
0.0
 41
1.0
 50
0.0
 71
     0
 42
2.5
  3
isocp3.shx
  4

  0
STYLE
  2
BYGG-024110$0$STANDARD
 70
     0
 40
0.0
 41
1.0
 50
0.0
 71
     0
 42
0.2
  3
txt
  4

  0
STYLE
  2
BYGG-024110$0$ISO
 70
     0
 40
0.0
 41
1.0
 50
0.0
 71
     0
 42
3.5
  3
txt
  4

  0
STYLE
  2
BYGG-014680$0$STANDARD
 70
     0
 40
0.0
 41
1.0
 50
0.0
 71
     0
 42
0.2
  3
txt
  4

  0
STYLE
  2
BYGG-014680$0$ISO
 70
     0
 40
0.0
 41
1.0
 50
0.0
 71
     0
 42
8.0
  3
iso
  4

  0
STYLE
  2
BYGG-024111$0$STANDARD
 70
     0
 40
0.0
 41
1.0
 50
0.0
 71
     0
 42
0.2
  3
txt
  4

  0
STYLE
  2
BYGG-024111$0$ISO
 70
     0
 40
0.0
 41
1.0
 50
0.0
 71
     0
 42
3.5
  3
txt
  4

  0
STYLE
  2
BYGG-01458701$0$STANDARD
 70
     0
 40
0.0
 41
1.0
 50
0.0
 71
     0
 42
0.2
  3
txt
  4

  0
STYLE
  2
BYGG-01458701$0$ISO
 70
     0
 40
0.0
 41
1.0
 50
0.0
 71
     0
 42
2.5
  3
isocp3.shx
  4

  0
STYLE
  2
BYGG-024082$0$STANDARD
 70
     0
 40
0.0
 41
1.0
 50
0.0
 71
     0
 42
0.2
  3
txt
  4

  0
STYLE
  2
BYGG-024082$0$ISO
 70
     0
 40
0.0
 41
1.0
 50
0.0
 71
     0
 42
3.5
  3
txt
  4

  0
STYLE
  2
BYGG-014252$0$STANDARD
 70
     0
 40
0.0
 41
1.0
 50
0.0
 71
     0
 42
0.2
  3
txt
  4

  0
STYLE
  2
BYGG-014252$0$ISO
 70
     0
 40
0.0
 41
1.0
 50
0.0
 71
     0
 42
2.5
  3
isocp3.shx
  4

  0
STYLE
  2
BYGG-014014$0$STANDARD
 70
     0
 40
0.0
 41
1.0
 50
0.0
 71
     0
 42
0.2
  3
txt
  4

  0
STYLE
  2
BYGG-024083$0$STANDARD
 70
     0
 40
0.0
 41
1.0
 50
0.0
 71
     0
 42
0.2
  3
txt
  4

  0
STYLE
  2
BYGG-024083$0$ISO
 70
     0
 40
0.0
 41
1.0
 50
0.0
 71
     0
 42
3.5
  3
txt
  4

  0
STYLE
  2
BYGG-024114$0$STANDARD
 70
     0
 40
0.0
 41
1.0
 50
0.0
 71
     0
 42
0.2
  3
txt
  4

  0
STYLE
  2
BYGG-024114$0$ISO
 70
     0
 40
0.0
 41
1.0
 50
0.0
 71
     0
 42
3.5
  3
txt
  4

  0
STYLE
  2
BYGG-013690$0$STANDARD
 70
     0
 40
0.0
 41
1.0
 50
0.0
 71
     0
 42
0.2
  3
txt
  4

  0
STYLE
  2
BYGG-013690$0$ISO
 70
     0
 40
0.0
 41
1.0
 50
0.0
 71
     0
 42
2.5
  3
isocp3.shx
  4

  0
ENDTAB
  0
TABLE
  2
VIEW
 70
     0
  0
ENDTAB
  0
TABLE
  2
UCS
 70
     0
  0
ENDTAB
  0
TABLE
  2
APPID
 70
    19
  0
APPID
  2
ACAD
 70
     0
  0
APPID
  2
ACAD_DSTYLE_DIMTEXT_FILL
 70
     0
  0
APPID
  2
ACAD_DSTYLE_DIMEXT_LENGTH
 70
     0
  0
APPID
  2
ACAD_DSTYLE_DIMEXT_ENABLED
 70
     0
  0
APPID
  2
ACAD_DSTYLE_DIM_LINETYPE
 70
     0
  0
APPID
  2
ACAD_DSTYLE_DIM_EXT1_LINETYPE
 70
     0
  0
APPID
  2
ACAD_DSTYLE_DIM_EXT2_LINETYPE
 70
     0
  0
APPID
  2
ACAD_DSTYLE_DIMJOGGED_JOGA
 70
     0
  0
APPID
  2
ACAD_DSTYLE_DIMARC_LENGTH_
 70
     0
  0
APPID
  2
ACAD_PSEXT
 70
     0
  0
APPID
  2
ACAD_MLEADERVER
 70
     0
  0
APPID
  2
AME_SOL
 70
     0
  0
APPID
  2
AMG_ARCHIVE11
 70
     0
  0
APPID
  2
DCO15
 70
     0
  0
APPID
  2
ACAD_EXEMPT_FROM_CAD_STANDARDS
 70
     0
  0
APPID
  2
ACADANNOTATIVE
 70
     0
  0
APPID
  2
ACAECLAYERSTANDARD
 70
     0
  0
APPID
  2
ACAD_NAV_VCDISPLAY
 70
     0
  0
APPID
  2
ACCMTRANSPARENCY
 70
     0
  0
ENDTAB
  0
TABLE
  2
DIMSTYLE
 70
    22
  0
DIMSTYLE
  2
MASKIN
 70
     0
  3

  4

  5

  6

  7

 40
0.0
 41
3.0
 42
1.5
 43
10.0
 44
1.5
 45
0.0
 46
0.0
 47
0.0
 48
0.0
140
3.0
141
-5.0
142
0.0
143
25.399999999999999
144
-1.0
145
0.0
146
1.0
147
1.0
 71
     0
 72
     0
 73
     0
 74
     0
 75
     0
 76
     0
 77
     1
 78
     8
170
     0
171
     0
172
     1
173
     0
174
     0
175
     0
176
   256
177
   256
178
     2
  0
DIMSTYLE
  2
BYGG-024109$0$STANDARD
 70
     0
  3

  4

  5

  6

  7

 40
1.0
 41
0.18
 42
0.0625
 43
0.38
 44
0.18
 45
0.0
 46
0.0
 47
0.0
 48
0.0
140
0.18
141
0.09
142
0.0
143
25.399999999999999
144
1.0
145
0.0
146
1.0
147
0.09
 71
     0
 72
     0
 73
     1
 74
     1
 75
     0
 76
     0
 77
     0
 78
     0
170
     0
171
     2
172
     0
173
     0
174
     0
175
     0
176
     0
177
     0
178
     0
  0
DIMSTYLE
  2
BYGG-024109$0$MASKIN
 70
     0
  3

  4

  5

  6

  7

 40
0.0
 41
3.0
 42
1.5
 43
10.0
 44
1.5
 45
0.0
 46
0.0
 47
0.0
 48
0.0
140
3.0
141
-5.0
142
0.0
143
25.399999999999999
144
-1.0
145
0.0
146
1.0
147
1.0
 71
     0
 72
     0
 73
     0
 74
     0
 75
     0
 76
     0
 77
     1
 78
     8
170
     0
171
     0
172
     1
173
     0
174
     0
175
     0
176
   256
177
   256
178
     2
  0
DIMSTYLE
  2
BYGG-01473402$0$STANDARD
 70
     0
  3

  4

  5

  6

  7

 40
1.0
 41
0.18
 42
0.0625
 43
0.38
 44
0.18
 45
0.0
 46
0.0
 47
0.0
 48
0.0
140
0.18
141
0.09
142
0.0
143
25.399999999999999
144
1.0
145
0.0
146
1.0
147
0.09
 71
     0
 72
     0
 73
     1
 74
     1
 75
     0
 76
     0
 77
     0
 78
     0
170
     0
171
     2
172
     0
173
     0
174
     0
175
     0
176
     0
177
     0
178
     0
  0
DIMSTYLE
  2
BYGG-01473402$0$MASKIN
 70
     0
  3

  4

  5

  6

  7

 40
0.0
 41
3.0
 42
1.5
 43
10.0
 44
1.5
 45
0.0
 46
0.0
 47
0.0
 48
0.0
140
3.0
141
-5.0
142
0.0
143
25.399999999999999
144
-1.0
145
0.0
146
1.0
147
1.0
 71
     0
 72
     0
 73
     0
 74
     1
 75
     0
 76
     0
 77
     1
 78
     8
170
     0
171
     0
172
     1
173
     0
174
     0
175
     0
176
   256
177
   256
178
     2
  0
DIMSTYLE
  2
BYGG-024110$0$STANDARD
 70
     0
  3

  4

  5

  6

  7

 40
1.0
 41
0.18
 42
0.0625
 43
0.38
 44
0.18
 45
0.0
 46
0.0
 47
0.0
 48
0.0
140
0.18
141
0.09
142
0.0
143
25.399999999999999
144
1.0
145
0.0
146
1.0
147
0.09
 71
     0
 72
     0
 73
     1
 74
     1
 75
     0
 76
     0
 77
     0
 78
     0
170
     0
171
     2
172
     0
173
     0
174
     0
175
     0
176
     0
177
     0
178
     0
  0
DIMSTYLE
  2
BYGG-024110$0$MASKIN
 70
     0
  3

  4

  5

  6

  7

 40
0.0
 41
3.0
 42
1.5
 43
10.0
 44
1.5
 45
0.0
 46
0.0
 47
0.0
 48
0.0
140
3.0
141
-5.0
142
0.0
143
25.399999999999999
144
-1.0
145
0.0
146
1.0
147
1.0
 71
     0
 72
     0
 73
     0
 74
     0
 75
     0
 76
     0
 77
     1
 78
     8
170
     0
171
     0
172
     1
173
     0
174
     0
175
     0
176
   256
177
   256
178
     2
  0
DIMSTYLE
  2
BYGG-014680$0$MASKIN
 70
     0
  3

  4

  5

  6

  7

 40
0.0
 41
3.0
 42
1.5
 43
10.0
 44
1.5
 45
0.0
 46
0.0
 47
0.0
 48
0.0
140
3.0
141
-5.0
142
0.0
143
25.399999999999999
144
-1.0
145
0.0
146
1.0
147
1.0
 71
     0
 72
     0
 73
     0
 74
     1
 75
     0
 76
     0
 77
     1
 78
     8
170
     0
171
     0
172
     1
173
     0
174
     0
175
     0
176
   256
177
   256
178
     2
  0
DIMSTYLE
  2
BYGG-024111$0$STANDARD
 70
     0
  3

  4

  5

  6

  7

 40
1.0
 41
0.18
 42
0.0625
 43
0.38
 44
0.18
 45
0.0
 46
0.0
 47
0.0
 48
0.0
140
0.18
141
0.09
142
0.0
143
25.399999999999999
144
1.0
145
0.0
146
1.0
147
0.09
 71
     0
 72
     0
 73
     1
 74
     1
 75
     0
 76
     0
 77
     0
 78
     0
170
     0
171
     2
172
     0
173
     0
174
     0
175
     0
176
     0
177
     0
178
     0
  0
DIMSTYLE
  2
BYGG-024111$0$MASKIN
 70
     0
  3

  4

  5

  6

  7

 40
0.0
 41
3.0
 42
1.5
 43
10.0
 44
1.5
 45
0.0
 46
0.0
 47
0.0
 48
0.0
140
3.0
141
-5.0
142
0.0
143
25.399999999999999
144
-1.0
145
0.0
146
1.0
147
1.0
 71
     0
 72
     0
 73
     0
 74
     0
 75
     0
 76
     0
 77
     1
 78
     8
170
     0
171
     0
172
     1
173
     0
174
     0
175
     0
176
   256
177
   256
178
     2
  0
DIMSTYLE
  2
BYGG-01458701$0$MASKIN
 70
     0
  3

  4

  5

  6

  7

 40
0.0
 41
3.0
 42
1.5
 43
10.0
 44
1.5
 45
0.0
 46
0.0
 47
0.0
 48
0.0
140
3.0
141
-5.0
142
0.0
143
25.399999999999999
144
-1.0
145
0.0
146
1.0
147
1.0
 71
     0
 72
     0
 73
     0
 74
     1
 75
     0
 76
     0
 77
     1
 78
     8
170
     0
171
     0
172
     1
173
     0
174
     0
175
     0
176
   256
177
   256
178
     2
  0
DIMSTYLE
  2
BYGG-024082$0$STANDARD
 70
     0
  3

  4

  5

  6

  7

 40
1.0
 41
0.18
 42
0.0625
 43
0.38
 44
0.18
 45
0.0
 46
0.0
 47
0.0
 48
0.0
140
0.18
141
0.09
142
0.0
143
25.399999999999999
144
1.0
145
0.0
146
1.0
147
0.09
 71
     0
 72
     0
 73
     1
 74
     1
 75
     0
 76
     0
 77
     0
 78
     0
170
     0
171
     2
172
     0
173
     0
174
     0
175
     0
176
     0
177
     0
178
     0
  0
DIMSTYLE
  2
BYGG-024082$0$MASKIN
 70
     0
  3

  4

  5

  6

  7

 40
0.0
 41
3.0
 42
1.5
 43
10.0
 44
1.5
 45
0.0
 46
0.0
 47
0.0
 48
0.0
140
3.0
141
-5.0
142
0.0
143
25.399999999999999
144
-1.0
145
0.0
146
1.0
147
1.0
 71
     0
 72
     0
 73
     0
 74
     0
 75
     0
 76
     0
 77
     1
 78
     8
170
     0
171
     0
172
     1
173
     0
174
     0
175
     0
176
   256
177
   256
178
     2
  0
DIMSTYLE
  2
BYGG-014252$0$STANDARD
 70
     0
  3

  4

  5

  6

  7

 40
1.0
 41
0.18
 42
0.0625
 43
0.38
 44
0.18
 45
0.0
 46
0.0
 47
0.0
 48
0.0
140
0.18
141
0.09
142
0.0
143
25.399999999999999
144
1.0
145
0.0
146
1.0
147
0.09
 71
     0
 72
     0
 73
     1
 74
     1
 75
     0
 76
     0
 77
     0
 78
     0
170
     0
171
     2
172
     0
173
     0
174
     0
175
     0
176
     0
177
     0
178
     0
  0
DIMSTYLE
  2
BYGG-014252$0$MASKIN
 70
     0
  3

  4

  5

  6

  7

 40
0.0
 41
3.0
 42
1.5
 43
10.0
 44
1.5
 45
0.0
 46
0.0
 47
0.0
 48
0.0
140
3.0
141
-5.0
142
0.0
143
25.399999999999999
144
-1.0
145
0.0
146
1.0
147
1.0
 71
     0
 72
     0
 73
     0
 74
     1
 75
     0
 76
     0
 77
     1
 78
     8
170
     0
171
     0
172
     1
173
     0
174
     0
175
     0
176
   256
177
   256
178
     2
  0
DIMSTYLE
  2
BYGG-014014$0$STANDARD
 70
     0
  3

  4

  5

  6

  7

 40
1.0
 41
0.18
 42
0.0625
 43
0.38
 44
0.18
 45
0.0
 46
0.0
 47
0.0
 48
0.0
140
0.18
141
0.09
142
0.0
143
25.399999999999999
144
1.0
145
0.0
146
1.0
147
0.09
 71
     0
 72
     0
 73
     1
 74
     1
 75
     0
 76
     0
 77
     0
 78
     0
170
     0
171
     2
172
     0
173
     0
174
     0
175
     0
176
     0
177
     0
178
     0
  0
DIMSTYLE
  2
BYGG-024083$0$STANDARD
 70
     0
  3

  4

  5

  6

  7

 40
1.0
 41
0.18
 42
0.0625
 43
0.38
 44
0.18
 45
0.0
 46
0.0
 47
0.0
 48
0.0
140
0.18
141
0.09
142
0.0
143
25.399999999999999
144
1.0
145
0.0
146
1.0
147
0.09
 71
     0
 72
     0
 73
     1
 74
     1
 75
     0
 76
     0
 77
     0
 78
     0
170
     0
171
     2
172
     0
173
     0
174
     0
175
     0
176
     0
177
     0
178
     0
  0
DIMSTYLE
  2
BYGG-024083$0$MASKIN
 70
     0
  3

  4

  5

  6

  7

 40
0.0
 41
3.0
 42
1.5
 43
10.0
 44
1.5
 45
0.0
 46
0.0
 47
0.0
 48
0.0
140
3.0
141
-5.0
142
0.0
143
25.399999999999999
144
-1.0
145
0.0
146
1.0
147
1.0
 71
     0
 72
     0
 73
     0
 74
     0
 75
     0
 76
     0
 77
     1
 78
     8
170
     0
171
     0
172
     1
173
     0
174
     0
175
     0
176
   256
177
   256
178
     2
  0
DIMSTYLE
  2
BYGG-024114$0$STANDARD
 70
     0
  3

  4

  5

  6

  7

 40
1.0
 41
0.18
 42
0.0625
 43
0.38
 44
0.18
 45
0.0
 46
0.0
 47
0.0
 48
0.0
140
0.18
141
0.09
142
0.0
143
25.399999999999999
144
1.0
145
0.0
146
1.0
147
0.09
 71
     0
 72
     0
 73
     1
 74
     1
 75
     0
 76
     0
 77
     0
 78
     0
170
     0
171
     2
172
     0
173
     0
174
     0
175
     0
176
     0
177
     0
178
     0
  0
DIMSTYLE
  2
BYGG-024114$0$MASKIN
 70
     0
  3

  4

  5

  6

  7

 40
0.0
 41
3.0
 42
1.5
 43
10.0
 44
1.5
 45
0.0
 46
0.0
 47
0.0
 48
0.0
140
3.0
141
-5.0
142
0.0
143
25.399999999999999
144
-1.0
145
0.0
146
1.0
147
1.0
 71
     0
 72
     0
 73
     0
 74
     0
 75
     0
 76
     0
 77
     1
 78
     8
170
     0
171
     0
172
     1
173
     0
174
     0
175
     0
176
   256
177
   256
178
     2
  0
DIMSTYLE
  2
BYGG-013690$0$STANDARD
 70
     0
  3

  4

  5

  6

  7

 40
1.0
 41
0.18
 42
0.0625
 43
0.38
 44
0.18
 45
0.0
 46
0.0
 47
0.0
 48
0.0
140
0.18
141
0.09
142
0.0
143
25.399999999999999
144
1.0
145
0.0
146
1.0
147
0.09
 71
     0
 72
     0
 73
     1
 74
     1
 75
     0
 76
     0
 77
     0
 78
     0
170
     0
171
     2
172
     0
173
     0
174
     0
175
     0
176
     0
177
     0
178
     0
  0
DIMSTYLE
  2
BYGG-013690$0$MASKIN
 70
     0
  3

  4

  5

  6

  7

 40
0.0
 41
3.0
 42
1.5
 43
10.0
 44
1.5
 45
0.0
 46
0.0
 47
0.0
 48
0.0
140
3.0
141
-5.0
142
0.0
143
25.399999999999999
144
-1.0
145
0.0
146
1.0
147
1.0
 71
     0
 72
     0
 73
     0
 74
     1
 75
     0
 76
     0
 77
     1
 78
     8
170
     0
171
     0
172
     1
173
     0
174
     0
175
     0
176
   256
177
   256
178
     2
  0
ENDTAB
  0
ENDSEC
  0
SECTION
  2
BLOCKS
  0
BLOCK
  8
0
  2
$MODEL_SPACE
 70
     0
 10
0.0
 20
0.0
 30
0.0
  3
$MODEL_SPACE
  1

  0
ENDBLK
  5
37
  8
0
  0
BLOCK
 67
     1
  8
0
  2
$PAPER_SPACE
 70
     0
 10
0.0
 20
0.0
 30
0.0
  3
$PAPER_SPACE
  1

  0
ENDBLK
  5
35
 67
     1
  8
0
  0
BLOCK
  8
0
  2
*D40
 70
     1
 10
0.0
 20
0.0
 30
0.0
  3
*D40
  1

  0
LINE
  5
1D2D
  8
SAPA_MATT
 10
-148.38415652422131
 20
-119.62647155960229
 30
0.0
 11
-185.84104235601649
 21
-133.25966307068319
 31
0.0
  0
LINE
  5
1D2E
  8
SAPA_MATT
 10
-97.081135025371125
 20
-260.5803646774886
 30
0.0
 11
-134.53802085716629
 21
-274.2135561885695
 31
0.0
  0
LINE
  5
1D2F
  8
SAPA_MATT
 10
-183.40544299486061
 20
-135.5657107180524
 30
0.0
 11
-134.1545423559644
 21
-270.88144811122322
 31
0.0
  0
SOLID
  5
1D30
  8
SAPA_MATT
 10
-183.87528930525349
 20
-135.73672078971521
 30
0.0
 11
-182.93559668446761
 21
-135.39470064638951
 31
0.0
 12
-184.43150342483759
 22
-132.7466328556946
 32
0.0
 13
-184.43150342483759
 23
-132.7466328556946
 33
0.0
  0
SOLID
  5
1D31
  8
SAPA_MATT
 10
-134.62438866635739
 20
-271.05245818288608
 30
0.0
 11
-133.68469604557151
 21
-270.71043803956042
 31
0.0
 12
-133.12848192598739
 22
-273.70052597358102
 32
0.0
 13
-133.12848192598739
 23
-273.70052597358102
 33
0.0
  0
INSERT
  5
1D32
  8
0
  2
*U50
 10
0.0
 20
0.0
 30
0.0
  0
POINT
  5
1D33
  8
DEFPOINTS
 62
     0
 10
-146.9746175930425
 20
-119.1134413446138
 30
0.0
  0
POINT
  5
1D34
  8
DEFPOINTS
 62
     0
 10
-95.671596094192324
 20
-260.06733446250001
 30
0.0
  0
POINT
  5
1D35
  8
DEFPOINTS
 62
     0
 10
-133.1284819259875
 20
-273.70052597358091
 30
0.0
  0
ENDBLK
  5
1D0E
  8
0
  0
BLOCK
  8
0
  2
*D41
 70
     1
 10
0.0
 20
0.0
 30
0.0
  3
*D41
  1

  0
LINE
  5
1D24
  8
SAPA_MATT
 10
-146.97461759304241
 20
-119.1134413446138
 30
0.0
 11
-196.4074307008421
 21
-137.10551391189699
 31
0.0
  0
LINE
  5
1D25
  8
SAPA_MATT
 10
-35.201779286936329
 20
-397.68478694451591
 30
0.0
 11
-93.801387703141785
 21
-419.01330014766978
 31
0.0
  0
LINE
  5
1D26
  8
SAPA_MATT
 10
-193.9718313396863
 20
-139.4115615592662
 30
0.0
 11
-93.417909201939906
 21
-415.6811920703235
 31
0.0
  0
SOLID
  5
1D27
  8
SAPA_MATT
 10
-194.44167765007921
 20
-139.5825716309291
 30
0.0
 11
-193.50198502929331
 21
-139.2405514876034
 31
0.0
 12
-194.99789176966331
 22
-136.59248369690849
 32
0.0
 13
-194.99789176966331
 23
-136.59248369690849
 33
0.0
  0
SOLID
  5
1D28
  8
SAPA_MATT
 10
-93.887755512332888
 20
-415.85220214198631
 30
0.0
 11
-92.948062891546954
 21
-415.51018199866058
 31
0.0
 12
-92.391848771962927
 22
-418.50026993268131
 32
0.0
 13
-92.391848771962927
 23
-418.50026993268131
 33
0.0
  0
INSERT
  5
1D29
  8
0
  2
*U49
 10
0.0
 20
0.0
 30
0.0
  0
POINT
  5
1D2A
  8
DEFPOINTS
 62
     0
 10
-145.56507866186351
 20
-118.6004111296253
 30
0.0
  0
POINT
  5
1D2B
  8
DEFPOINTS
 62
     0
 10
-33.792240355757592
 20
-397.1717567295272
 30
0.0
  0
POINT
  5
1D2C
  8
DEFPOINTS
 62
     0
 10
-92.391848771963012
 20
-418.50026993268119
 30
0.0
  0
ENDBLK
  5
1D1A
  8
0
  0
BLOCK
  8
0
  2
*U42
 70
     1
 10
0.0
 20
0.0
 30
0.0
  3
*U42
  1

  0
TEXT
  5
1D5D
  8
SAPA_ARTIKELNR
 10
-7.718729803941148
 20
19.020792428126299
 30
0.0
 40
3.5
  1
68290
 50
19.999999999999979
  7
ISO
  0
ENDBLK
  5
1D5F
  8
0
  0
BLOCK
  8
0
  2
*U43
 70
     1
 10
0.0
 20
0.0
 30
0.0
  3
*U43
  1

  0
TEXT
  5
1D61
  8
SAPA_ARTIKELNR
 10
-30.574206688465448
 20
82.931531351757656
 30
0.0
 40
3.5
  1
42144
 50
19.999999999999979
  7
ISO
  0
ENDBLK
  5
1D63
  8
0
  0
BLOCK
  8
0
  2
*U44
 70
     1
 10
0.0
 20
0.0
 30
0.0
  3
*U44
  1

  0
TEXT
  5
1D65
  8
SAPA_ARTIKELNR
 10
-26.626849754699929
 20
-16.093026453138801
 30
0.0
 40
3.5
  1
68174
  7
ISO
  0
ENDBLK
  5
1D67
  8
0
  0
BLOCK
  8
0
  2
*U45
 70
     1
 10
0.0
 20
0.0
 30
0.0
  3
*U45
  1

  0
TEXT
  5
1D69
  8
SAPA_ARTIKELNR
 10
16.496045157063602
 20
-3.5212818282539038
 30
0.0
 40
3.5
  1
68086
  7
ISO
  0
ENDBLK
  5
1D6B
  8
0
  0
BLOCK
  8
0
  2
*U46
 70
     1
 10
0.0
 20
0.0
 30
0.0
  3
*U46
  1

  0
TEXT
  5
1D6D
  8
SAPA_ARTIKELNR
 10
-159.2754692675021
 20
-68.157302737140526
 30
0.0
 40
3.5
  1
00887
  7
ISO
  0
ENDBLK
  5
1D6F
  8
0
  0
BLOCK
  8
0
  2
*X47
 70
     1
 10
0.0
 20
0.0
 30
0.0
  3
*X47
  1

  0
LINE
  5
1D92
  8
0
 62
     0
 10
35.369016595952488
 20
-9.5507802478786807
 30
0.0
 11
34.689509370400231
 21
-8.8712730223264167
 31
0.0
  0
LINE
  5
1D93
  8
0
 62
     0
 10
35.405252384963823
 20
-10.709548052023649
 30
0.0
 11
33.866469174811257
 21
-9.1707648418710903
 31
0.0
  0
LINE
  5
1D94
  8
0
 62
     0
 10
35.530128968540687
 20
-11.95695665073417
 30
0.0
 11
33.043428979222291
 21
-9.4702566614157604
 31
0.0
  0
LINE
  5
1D95
  8
0
 62
     0
 10
35.770682152180761
 20
-13.320041849507881
 30
0.0
 11
32.220388783633318
 21
-9.769748480960434
 31
0.0
  0
LINE
  5
1D96
  8
0
 62
     0
 10
36.174938084592632
 20
-14.84682979705339
 30
0.0
 11
31.397348588044341
 21
-10.069240300505109
 31
0.0
  0
LINE
  5
1D97
  8
0
 62
     0
 10
36.846227281210901
 20
-16.6406510088053
 30
0.0
 11
30.574308392455379
 21
-10.36873212004978
 31
0.0
  0
LINE
  5
1D98
  8
0
 62
     0
 10
38.129147306350568
 20
-19.046103049078638
 30
0.0
 11
29.751268196866398
 21
-10.66822393959445
 31
0.0
  0
LINE
  5
1D99
  8
0
 62
     0
 10
39.681428072902293
 20
-21.720915830763989
 30
0.0
 11
28.928228001277429
 21
-10.96771575913913
 31
0.0
  0
LINE
  5
1D9A
  8
0
 62
     0
 10
38.858387877313334
 20
-22.02040765030867
 30
0.0
 11
28.105187805688459
 21
-11.2672075786838
 31
0.0
  0
LINE
  5
1D9B
  8
0
 62
     0
 10
38.035347681724353
 20
-22.31989946985334
 30
0.0
 11
27.2821476100995
 21
-11.566699398228479
 31
0.0
  0
LINE
  5
1D9C
  8
0
 62
     0
 10
37.212307486135387
 20
-22.61939128939802
 30
0.0
 11
26.45910741451052
 21
-11.866191217773149
 31
0.0
  0
LINE
  5
1D9D
  8
0
 62
     0
 10
36.389267290546421
 20
-22.918883108942691
 30
0.0
 11
25.63606721892155
 21
-12.16568303731782
 31
0.0
  0
LINE
  5
1D9E
  8
0
 62
     0
 10
35.566227094957441
 20
-23.218374928487361
 30
0.0
 11
28.061664453306751
 21
-15.713812286836671
 31
0.0
  0
LINE
  5
1D9F
  8
0
 62
     0
 10
34.743186899368467
 20
-23.517866748032041
 30
0.0
 11
29.059304631983981
 21
-17.833984480647551
 31
0.0
  0
LINE
  5
1DA0
  8
0
 62
     0
 10
33.920146703779508
 20
-23.817358567576711
 30
0.0
 11
29.623329261002151
 21
-19.520541124799351
 31
0.0
  0
LINE
  5
1DA1
  8
0
 62
     0
 10
33.097106508190542
 20
-24.116850387121382
 30
0.0
 11
29.965527525650749
 21
-20.985271404581599
 31
0.0
  0
LINE
  5
1DA2
  8
0
 62
     0
 10
32.274066312601562
 20
-24.416342206666059
 30
0.0
 11
30.163597486539231
 21
-22.305873380603732
 31
0.0
  0
LINE
  5
1DA3
  8
0
 62
     0
 10
31.451026117012589
 20
-24.715834026210729
 30
0.0
 11
30.2565711902778
 21
-23.52137909947594
 31
0.0
  0
LINE
  5
1DA4
  8
0
 62
     0
 10
30.62798592142363
 20
-25.01532584575541
 30
0.0
 11
30.2673888736389
 21
-24.654728797970691
 31
0.0
  0
LINE
  5
1DA5
  8
0
 62
     0
 10
38.446407921957658
 20
-22.170320895259131
 30
0.0
 11
39.593235814358771
 21
-21.023493002858022
 31
0.0
  0
LINE
  5
1DA6
  8
0
 62
     0
 10
36.681740106022517
 20
-22.812456696060622
 30
0.0
 11
39.088740655628662
 21
-20.40545614645448
 31
0.0
  0
LINE
  5
1DA7
  8
0
 62
     0
 10
34.91707229008739
 20
-23.454592496862109
 30
0.0
 11
38.610141264060779
 21
-19.761523522888709
 31
0.0
  0
LINE
  5
1DA8
  8
0
 62
     0
 10
33.152404474152249
 20
-24.096728297663599
 30
0.0
 11
38.15796544733044
 21
-19.091167324485401
 31
0.0
  0
LINE
  5
1DA9
  8
0
 62
     0
 10
31.387736658217118
 20
-24.73886409846509
 30
0.0
 11
37.732931959852309
 21
-18.393668796829889
 31
0.0
  0
LINE
  5
1DAA
  8
0
 62
     0
 10
30.26528503288575
 20
-24.738783708662819
 30
0.0
 11
37.335975559416461
 21
-17.6680931821321
 31
0.0
  0
LINE
  5
1DAB
  8
0
 62
     0
 10
30.260451093246601
 20
-23.62108563316831
 30
0.0
 11
36.968281807065907
 21
-16.913254919349001
 31
0.0
  0
LINE
  5
1DAC
  8
0
 62
     0
 10
30.1908344476027
 20
-22.568170263678581
 30
0.0
 11
36.6313348823208
 21
-16.127669828960471
 31
0.0
  0
LINE
  5
1DAD
  8
0
 62
     0
 10
30.06595095234475
 20
-21.570521743802878
 30
0.0
 11
36.326983394549032
 21
-15.3094893015986
 31
0.0
  0
LINE
  5
1DAE
  8
0
 62
     0
 10
29.89273716824118
 20
-20.621203512772809
 30
0.0
 11
36.057531902950842
 21
-14.45640877806315
 31
0.0
  0
LINE
  5
1DAF
  8
0
 62
     0
 10
29.676414138256941
 20
-19.714994527623411
 30
0.0
 11
35.825870397171357
 21
-13.565538268708989
 31
0.0
  0
LINE
  5
1DB0
  8
0
 62
     0
 10
29.42100706188269
 20
-18.847869588864
 30
0.0
 11
35.635661854917302
 21
-12.633214795829391
 31
0.0
  0
LINE
  5
1DB1
  8
0
 62
     0
 10
29.129674744621031
 20
-18.01666989099202
 30
0.0
 11
35.491622273545033
 21
-11.65472236206802
 31
0.0
  0
LINE
  5
1DB2
  8
0
 62
     0
 10
28.804927293505411
 20
-17.218885326974
 30
0.0
 11
35.399954972121201
 21
-10.62385764835822
 31
0.0
  0
LINE
  5
1DB3
  8
0
 62
     0
 10
28.448774800982431
 20
-16.45250580436333
 30
0.0
 11
35.369057130826562
 21
-9.5322234745191992
 31
0.0
  0
LINE
  5
1DB4
  8
0
 62
     0
 10
28.06283157501403
 20
-15.715917015198089
 30
0.0
 11
35.032161453796348
 21
-8.746587136415771
 31
0.0
  0
LINE
  5
1DB5
  8
0
 62
     0
 10
27.648390656494449
 20
-15.007825918584031
 30
0.0
 11
33.267493637861222
 21
-9.3887229372172616
 31
0.0
  0
LINE
  5
1DB6
  8
0
 62
     0
 10
27.206477795057332
 20
-14.327206764887499
 30
0.0
 11
31.502825821926081
 21
-10.03085873801875
 31
0.0
  0
LINE
  5
1DB7
  8
0
 62
     0
 10
26.737890753786811
 20
-13.67326179102438
 30
0.0
 11
29.73815800599095
 21
-10.67299453882023
 31
0.0
  0
LINE
  5
1DB8
  8
0
 62
     0
 10
26.24322777877812
 20
-13.045392750899421
 30
0.0
 11
27.97349019005582
 21
-11.31513033962173
 31
0.0
  0
LINE
  5
1DB9
  8
0
 62
     0
 10
25.722907766098221
 20
-12.44318074844567
 30
0.0
 11
26.208822374120679
 21
-11.95726614042322
 31
0.0
  0
ENDBLK
  5
1DBB
  8
0
  0
BLOCK
  8
0
  2
*X48
 70
     1
 10
0.0
 20
0.0
 30
0.0
  3
*X48
  1

  0
LINE
  5
1DBD
  8
0
 62
     0
 10
29.368742603101481
 20
-21.997040985523391
 30
0.0
 11
29.477791615254649
 21
-21.808162555958901
 31
0.0
  0
LINE
  5
1DBE
  8
0
 62
     0
 10
28.17811760310148
 20
-24.059263978285092
 30
0.0
 11
28.574992603101482
 21
-23.371856314031191
 31
0.0
  0
LINE
  5
1DBF
  8
0
 62
     0
 10
26.987492603101479
 20
-26.121486971046782
 30
0.0
 11
27.384367603101481
 21
-25.434079306792881
 31
0.0
  0
LINE
  5
1DC0
  8
0
 62
     0
 10
28.178117887597569
 20
-21.309633485523388
 30
0.0
 11
28.574992887597571
 21
-20.622225821269492
 31
0.0
  0
LINE
  5
1DC1
  8
0
 62
     0
 10
26.987492887597568
 20
-23.371856478285078
 30
0.0
 11
27.38436788759757
 21
-22.684448814031189
 31
0.0
  0
LINE
  5
1DC2
  8
0
 62
     0
 10
25.796867887597571
 20
-25.434079471046768
 30
0.0
 11
26.193742887597569
 21
-24.746671806792879
 31
0.0
  0
LINE
  5
1DC3
  8
0
 62
     0
 10
24.969269680470891
 20
-26.86752161404311
 30
0.0
 11
25.003117887597568
 21
-26.808894799554569
 31
0.0
  0
LINE
  5
1DC4
  8
0
 62
     0
 10
28.178118172093669
 20
-18.560002992761689
 30
0.0
 11
28.57499317209367
 21
-17.872595328507799
 31
0.0
  0
LINE
  5
1DC5
  8
0
 62
     0
 10
26.987493172093671
 20
-20.622225985523389
 30
0.0
 11
27.384368172093669
 21
-19.934818321269489
 31
0.0
  0
LINE
  5
1DC6
  8
0
 62
     0
 10
25.796868172093671
 20
-22.684448978285079
 30
0.0
 11
26.193743172093669
 21
-21.99704131403119
 31
0.0
  0
LINE
  5
1DC7
  8
0
 62
     0
 10
24.60624317209367
 20
-24.74667197104678
 30
0.0
 11
25.003118172093671
 21
-24.05926430679288
 31
0.0
  0
LINE
  5
1DC8
  8
0
 62
     0
 10
23.588855452569611
 20
-26.508839192259089
 30
0.0
 11
23.812493172093671
 21
-26.12148729955457
 31
0.0
  0
LINE
  5
1DC9
  8
0
 62
     0
 10
26.987493456589771
 20
-17.8725954927617
 30
0.0
 11
27.38436845658978
 21
-17.1851878285078
 31
0.0
  0
LINE
  5
1DCA
  8
0
 62
     0
 10
25.79686845658977
 20
-19.93481848552339
 30
0.0
 11
26.193743456589772
 21
-19.24741082126949
 31
0.0
  0
LINE
  5
1DCB
  8
0
 62
     0
 10
24.60624345658977
 20
-21.997041478285091
 30
0.0
 11
25.003118456589771
 21
-21.309633814031191
 31
0.0
  0
LINE
  5
1DCC
  8
0
 62
     0
 10
23.415618456589769
 20
-24.059264471046781
 30
0.0
 11
23.81249345658977
 21
-23.371856806792881
 31
0.0
  0
LINE
  5
1DCD
  8
0
 62
     0
 10
22.406504505595908
 20
-25.807101104794711
 30
0.0
 11
22.62186845658977
 21
-25.434079799554571
 31
0.0
  0
LINE
  5
1DCE
  8
0
 62
     0
 10
26.987493741085871
 20
-15.122965000000001
 30
0.0
 11
27.034643742169791
 21
-15.04129880254572
 31
0.0
  0
LINE
  5
1DCF
  8
0
 62
     0
 10
25.796868741085859
 20
-17.185187992761691
 30
0.0
 11
26.193743741085861
 21
-16.497780328507801
 31
0.0
  0
LINE
  5
1DD0
  8
0
 62
     0
 10
24.606243741085859
 20
-19.247410985523381
 30
0.0
 11
25.00311874108586
 21
-18.560003321269491
 31
0.0
  0
LINE
  5
1DD1
  8
0
 62
     0
 10
23.415618741085861
 20
-21.309633978285081
 30
0.0
 11
23.812493741085859
 21
-20.622226314031181
 31
0.0
  0
LINE
  5
1DD2
  8
0
 62
     0
 10
22.224993741085861
 20
-23.371856971046771
 30
0.0
 11
22.621868741085859
 21
-22.684449306792882
 31
0.0
  0
LINE
  5
1DD3
  8
0
 62
     0
 10
21.377747348533251
 20
-24.83933076947735
 30
0.0
 11
21.431243741085861
 21
-24.746672299554572
 31
0.0
  0
LINE
  5
1DD4
  8
0
 62
     0
 10
25.796869025581959
 20
-14.4355575
 30
0.0
 11
25.974644923321492
 21
-14.12764061275398
 31
0.0
  0
LINE
  5
1DD5
  8
0
 62
     0
 10
24.606244025581962
 20
-16.497780492761699
 30
0.0
 11
25.00311902558197
 21
-15.8103728285078
 31
0.0
  0
LINE
  5
1DD6
  8
0
 62
     0
 10
23.415619025581961
 20
-18.560003485523389
 30
0.0
 11
23.812494025581959
 21
-17.872595821269488
 31
0.0
  0
LINE
  5
1DD7
  8
0
 62
     0
 10
22.22499402558196
 20
-20.622226478285089
 30
0.0
 11
22.621869025581962
 21
-19.934818814031189
 31
0.0
  0
LINE
  5
1DD8
  8
0
 62
     0
 10
21.03436902558196
 20
-22.684449471046779
 30
0.0
 11
21.431244025581961
 21
-21.997041806792879
 31
0.0
  0
LINE
  5
1DD9
  8
0
 62
     0
 10
24.606244310078061
 20
-13.748150000000001
 30
0.0
 11
24.755405377187291
 21
-13.489795453255621
 31
0.0
  0
LINE
  5
1DDA
  8
0
 62
     0
 10
23.415619310078061
 20
-15.810372992761691
 30
0.0
 11
23.812494310078058
 21
-15.122965328507799
 31
0.0
  0
LINE
  5
1DDB
  8
0
 62
     0
 10
22.22499431007806
 20
-17.87259598552339
 30
0.0
 11
22.621869310078061
 21
-17.185188321269489
 31
0.0
  0
LINE
  5
1DDC
  8
0
 62
     0
 10
21.034369310078059
 20
-19.93481897828508
 30
0.0
 11
21.431244310078061
 21
-19.247411314031179
 31
0.0
  0
LINE
  5
1DDD
  8
0
 62
     0
 10
19.843744310078058
 20
-21.99704197104678
 30
0.0
 11
20.24061931007806
 21
-21.30963430679288
 31
0.0
  0
LINE
  5
1DDE
  8
0
 62
     0
 10
22.224994594574159
 20
-15.12296549276169
 30
0.0
 11
22.621869594574161
 21
-14.4355578285078
 31
0.0
  0
LINE
  5
1DDF
  8
0
 62
     0
 10
21.034369594574159
 20
-17.185188485523391
 30
0.0
 11
21.43124459457416
 21
-16.49778082126949
 31
0.0
  0
LINE
  5
1DE0
  8
0
 62
     0
 10
19.843744594574151
 20
-19.24741147828508
 30
0.0
 11
20.240619594574159
 21
-18.56000381403118
 31
0.0
  0
LINE
  5
1DE1
  8
0
 62
     0
 10
21.034369879070251
 20
-14.435557992761691
 30
0.0
 11
21.42219109625281
 21
-13.7638319403483
 31
0.0
  0
LINE
  5
1DE2
  8
0
 62
     0
 10
19.84374487907025
 20
-16.497780985523391
 30
0.0
 11
20.240619879070248
 21
-15.810373321269489
 31
0.0
  0
LINE
  5
1DE3
  8
0
 62
     0
 10
26.19374687054292
 20
-15.122970420378641
 30
0.0
 11
25.796871870542919
 21
-14.435562756124749
 31
0.0
  0
LINE
  5
1DE4
  8
0
 62
     0
 10
27.384371870542921
 20
-17.18519341314034
 30
0.0
 11
26.98749687054292
 21
-16.497785748886439
 31
0.0
  0
LINE
  5
1DE5
  8
0
 62
     0
 10
28.574996870542918
 20
-19.24741640590203
 30
0.0
 11
28.17812187054292
 21
-18.56000874164814
 31
0.0
  0
LINE
  5
1DE6
  8
0
 62
     0
 10
29.471838004964528
 20
-20.800790817037971
 30
0.0
 11
29.368746870542921
 21
-20.62223173440983
 31
0.0
  0
LINE
  5
1DE7
  8
0
 62
     0
 10
23.812497155039019
 20
-13.74815492761695
 30
0.0
 11
23.514450611008069
 21
-13.23192317033504
 31
0.0
  0
LINE
  5
1DE8
  8
0
 62
     0
 10
25.003122155039019
 20
-15.810377920378651
 30
0.0
 11
24.606247155039021
 21
-15.12297025612475
 31
0.0
  0
LINE
  5
1DE9
  8
0
 62
     0
 10
26.19374715503902
 20
-17.872600913140339
 30
0.0
 11
25.796872155039019
 21
-17.185193248886439
 31
0.0
  0
LINE
  5
1DEA
  8
0
 62
     0
 10
27.384372155039021
 20
-19.934823905902029
 30
0.0
 11
26.987497155039019
 21
-19.247416241648139
 31
0.0
  0
LINE
  5
1DEB
  8
0
 62
     0
 10
28.574997155039021
 20
-21.997046898663729
 30
0.0
 11
28.17812215503902
 21
-21.309639234409829
 31
0.0
  0
LINE
  5
1DEC
  8
0
 62
     0
 10
22.621872439535121
 20
-14.435562427616951
 30
0.0
 11
22.224997439535109
 21
-13.748154763363059
 31
0.0
  0
LINE
  5
1DED
  8
0
 62
     0
 10
23.812497439535122
 20
-16.497785420378651
 30
0.0
 11
23.41562243953511
 21
-15.810377756124749
 31
0.0
  0
LINE
  5
1DEE
  8
0
 62
     0
 10
25.003122439535119
 20
-18.560008413140341
 30
0.0
 11
24.60624743953511
 21
-17.872600748886448
 31
0.0
  0
LINE
  5
1DEF
  8
0
 62
     0
 10
26.19374743953512
 20
-20.622231405902038
 30
0.0
 11
25.796872439535111
 21
-19.934823741648142
 31
0.0
  0
LINE
  5
1DF0
  8
0
 62
     0
 10
27.38437243953512
 20
-22.684454398663728
 30
0.0
 11
26.987497439535112
 21
-21.997046734409832
 31
0.0
  0
LINE
  5
1DF1
  8
0
 62
     0
 10
28.574997439535121
 20
-24.746677391425429
 30
0.0
 11
28.178122439535109
 21
-24.059269727171529
 31
0.0
  0
LINE
  5
1DF2
  8
0
 62
     0
 10
21.431247724031209
 20
-15.12296992761695
 30
0.0
 11
21.034372724031211
 21
-14.43556226336305
 31
0.0
  0
LINE
  5
1DF3
  8
0
 62
     0
 10
22.62187272403121
 20
-17.18519292037864
 30
0.0
 11
22.224997724031208
 21
-16.49778525612475
 31
0.0
  0
LINE
  5
1DF4
  8
0
 62
     0
 10
23.812497724031211
 20
-19.24741591314034
 30
0.0
 11
23.415622724031209
 21
-18.56000824888644
 31
0.0
  0
LINE
  5
1DF5
  8
0
 62
     0
 10
25.003122724031211
 20
-21.30963890590203
 30
0.0
 11
24.60624772403121
 21
-20.622231241648141
 31
0.0
  0
LINE
  5
1DF6
  8
0
 62
     0
 10
26.193747724031208
 20
-23.371861898663731
 30
0.0
 11
25.796872724031211
 21
-22.684454234409831
 31
0.0
  0
LINE
  5
1DF7
  8
0
 62
     0
 10
27.38437272403122
 20
-25.434084891425421
 30
0.0
 11
26.987497724031211
 21
-24.746677227171521
 31
0.0
  0
LINE
  5
1DF8
  8
0
 62
     0
 10
20.240623008527301
 20
-15.810377427616951
 30
0.0
 11
19.959213264114851
 21
-15.32296145254961
 31
0.0
  0
LINE
  5
1DF9
  8
0
 62
     0
 10
21.431248008527309
 20
-17.872600420378639
 30
0.0
 11
21.0343730085273
 21
-17.185192756124749
 31
0.0
  0
LINE
  5
1DFA
  8
0
 62
     0
 10
22.621873008527309
 20
-19.934823413140339
 30
0.0
 11
22.224998008527301
 21
-19.247415748886439
 31
0.0
  0
LINE
  5
1DFB
  8
0
 62
     0
 10
23.81249800852731
 20
-21.997046405902029
 30
0.0
 11
23.415623008527302
 21
-21.30963874164814
 31
0.0
  0
LINE
  5
1DFC
  8
0
 62
     0
 10
25.003123008527311
 20
-24.05926939866373
 30
0.0
 11
24.606248008527309
 21
-23.37186173440983
 31
0.0
  0
LINE
  5
1DFD
  8
0
 62
     0
 10
26.193748008527312
 20
-26.12149239142542
 30
0.0
 11
25.79687300852731
 21
-25.43408472717152
 31
0.0
  0
LINE
  5
1DFE
  8
0
 62
     0
 10
20.2406232930234
 20
-18.560007920378649
 30
0.0
 11
19.843748293023399
 21
-17.872600256124748
 31
0.0
  0
LINE
  5
1DFF
  8
0
 62
     0
 10
21.431248293023401
 20
-20.622230913140339
 30
0.0
 11
21.0343732930234
 21
-19.934823248886438
 31
0.0
  0
LINE
  5
1E00
  8
0
 62
     0
 10
22.621873293023398
 20
-22.684453905902039
 30
0.0
 11
22.224998293023411
 21
-21.997046241648139
 31
0.0
  0
LINE
  5
1E01
  8
0
 62
     0
 10
23.812498293023399
 20
-24.746676898663729
 30
0.0
 11
23.415623293023408
 21
-24.059269234409829
 31
0.0
  0
LINE
  5
1E02
  8
0
 62
     0
 10
25.00312329302341
 20
-26.80889989142543
 30
0.0
 11
24.606248293023409
 21
-26.12149222717153
 31
0.0
  0
LINE
  5
1E03
  8
0
 62
     0
 10
20.2406235775195
 20
-21.30963841314033
 30
0.0
 11
19.843748577519499
 21
-20.622230748886441
 31
0.0
  0
LINE
  5
1E04
  8
0
 62
     0
 10
21.431248577519511
 20
-23.371861405902031
 30
0.0
 11
21.034373577519499
 21
-22.684453741648131
 31
0.0
  0
LINE
  5
1E05
  8
0
 62
     0
 10
22.621873577519509
 20
-25.434084398663721
 30
0.0
 11
22.2249985775195
 21
-24.746676734409832
 31
0.0
  0
LINE
  5
1E06
  8
0
 62
     0
 10
26.193750000000001
 20
-26.121485
 30
0.0
 11
26.987500000000001
 21
-26.121485
 31
0.0
  0
LINE
  5
1E07
  8
0
 62
     0
 10
23.8125
 20
-26.121485
 30
0.0
 11
24.606249999999999
 21
-26.121485
 31
0.0
  0
LINE
  5
1E08
  8
0
 62
     0
 10
28.574999999999989
 20
-24.746670000000002
 30
0.0
 11
28.683543731030191
 21
-24.746670000000002
 31
0.0
  0
LINE
  5
1E09
  8
0
 62
     0
 10
26.193750000000001
 20
-24.746670000000002
 30
0.0
 11
26.98749999999999
 21
-24.746670000000002
 31
0.0
  0
LINE
  5
1E0A
  8
0
 62
     0
 10
23.8125
 20
-24.746670000000002
 30
0.0
 11
24.606249999999999
 21
-24.746670000000002
 31
0.0
  0
LINE
  5
1E0B
  8
0
 62
     0
 10
21.431249999999999
 20
-24.746670000000002
 30
0.0
 11
22.225000000000001
 21
-24.746670000000002
 31
0.0
  0
LINE
  5
1E0C
  8
0
 62
     0
 10
28.574999999999989
 20
-23.371855
 30
0.0
 11
29.234615677161401
 21
-23.371855
 31
0.0
  0
LINE
  5
1E0D
  8
0
 62
     0
 10
26.193750000000001
 20
-23.371855
 30
0.0
 11
26.98749999999999
 21
-23.371855
 31
0.0
  0
LINE
  5
1E0E
  8
0
 62
     0
 10
23.8125
 20
-23.371855
 30
0.0
 11
24.606249999999999
 21
-23.371855
 31
0.0
  0
LINE
  5
1E0F
  8
0
 62
     0
 10
21.431249999999999
 20
-23.371855
 30
0.0
 11
22.225000000000001
 21
-23.371855
 31
0.0
  0
LINE
  5
1E10
  8
0
 62
     0
 10
28.574999999999989
 20
-21.997039999999998
 30
0.0
 11
29.368749999999991
 21
-21.997039999999998
 31
0.0
  0
LINE
  5
1E11
  8
0
 62
     0
 10
26.193749999999991
 20
-21.997039999999998
 30
0.0
 11
26.98749999999999
 21
-21.997039999999998
 31
0.0
  0
LINE
  5
1E12
  8
0
 62
     0
 10
23.812499999999989
 20
-21.997039999999998
 30
0.0
 11
24.606249999999989
 21
-21.997039999999998
 31
0.0
  0
LINE
  5
1E13
  8
0
 62
     0
 10
21.431249999999991
 20
-21.997039999999998
 30
0.0
 11
22.225000000000001
 21
-21.997039999999998
 31
0.0
  0
LINE
  5
1E14
  8
0
 62
     0
 10
19.718339388274611
 20
-21.997039999999998
 30
0.0
 11
19.84375
 21
-21.997039999999998
 31
0.0
  0
LINE
  5
1E15
  8
0
 62
     0
 10
28.574999999999989
 20
-20.622225
 30
0.0
 11
29.368749999999991
 21
-20.622225
 31
0.0
  0
LINE
  5
1E16
  8
0
 62
     0
 10
26.193749999999991
 20
-20.622225
 30
0.0
 11
26.98749999999999
 21
-20.622225
 31
0.0
  0
LINE
  5
1E17
  8
0
 62
     0
 10
23.812499999999989
 20
-20.622225
 30
0.0
 11
24.606249999999989
 21
-20.622225
 31
0.0
  0
LINE
  5
1E18
  8
0
 62
     0
 10
21.431249999999991
 20
-20.622225
 30
0.0
 11
22.225000000000001
 21
-20.622225
 31
0.0
  0
LINE
  5
1E19
  8
0
 62
     0
 10
19.326476152079088
 20
-20.622225
 30
0.0
 11
19.84375
 21
-20.622225
 31
0.0
  0
LINE
  5
1E1A
  8
0
 62
     0
 10
28.574999999999989
 20
-19.247409999999999
 30
0.0
 11
29.241437194110059
 21
-19.247409999999999
 31
0.0
  0
LINE
  5
1E1B
  8
0
 62
     0
 10
26.193749999999991
 20
-19.247409999999999
 30
0.0
 11
26.98749999999999
 21
-19.247409999999999
 31
0.0
  0
LINE
  5
1E1C
  8
0
 62
     0
 10
23.812499999999989
 20
-19.247409999999999
 30
0.0
 11
24.606249999999989
 21
-19.247409999999999
 31
0.0
  0
LINE
  5
1E1D
  8
0
 62
     0
 10
21.431249999999991
 20
-19.247409999999999
 30
0.0
 11
22.225000000000001
 21
-19.247409999999999
 31
0.0
  0
LINE
  5
1E1E
  8
0
 62
     0
 10
19.14515929790339
 20
-19.247409999999999
 30
0.0
 11
19.84375
 21
-19.247409999999999
 31
0.0
  0
LINE
  5
1E1F
  8
0
 62
     0
 10
28.574999999999989
 20
-17.872595
 30
0.0
 11
28.811160618551181
 21
-17.872595
 31
0.0
  0
LINE
  5
1E20
  8
0
 62
     0
 10
26.193749999999991
 20
-17.872595
 30
0.0
 11
26.98749999999999
 21
-17.872595
 31
0.0
  0
LINE
  5
1E21
  8
0
 62
     0
 10
23.812499999999989
 20
-17.872595
 30
0.0
 11
24.606249999999989
 21
-17.872595
 31
0.0
  0
LINE
  5
1E22
  8
0
 62
     0
 10
21.431249999999991
 20
-17.872595
 30
0.0
 11
22.225000000000001
 21
-17.872595
 31
0.0
  0
LINE
  5
1E23
  8
0
 62
     0
 10
19.176751739446349
 20
-17.872595
 30
0.0
 11
19.84375
 21
-17.872595
 31
0.0
  0
LINE
  5
1E24
  8
0
 62
     0
 10
26.193749999999991
 20
-16.497779999999999
 30
0.0
 11
26.98749999999999
 21
-16.497779999999999
 31
0.0
  0
LINE
  5
1E25
  8
0
 62
     0
 10
23.812499999999989
 20
-16.497779999999999
 30
0.0
 11
24.606249999999989
 21
-16.497779999999999
 31
0.0
  0
LINE
  5
1E26
  8
0
 62
     0
 10
21.431249999999991
 20
-16.497779999999999
 30
0.0
 11
22.225000000000001
 21
-16.497779999999999
 31
0.0
  0
LINE
  5
1E27
  8
0
 62
     0
 10
19.455112455716769
 20
-16.497779999999999
 30
0.0
 11
19.84375
 21
-16.497779999999999
 31
0.0
  0
LINE
  5
1E28
  8
0
 62
     0
 10
26.193750000000001
 20
-15.122965000000001
 30
0.0
 11
26.98749999999999
 21
-15.122965000000001
 31
0.0
  0
LINE
  5
1E29
  8
0
 62
     0
 10
23.8125
 20
-15.122965000000001
 30
0.0
 11
24.606249999999999
 21
-15.122965000000001
 31
0.0
  0
LINE
  5
1E2A
  8
0
 62
     0
 10
21.431249999999999
 20
-15.122965000000001
 30
0.0
 11
22.225000000000001
 21
-15.122965000000001
 31
0.0
  0
LINE
  5
1E2B
  8
0
 62
     0
 10
23.8125
 20
-13.748150000000001
 30
0.0
 11
24.606249999999999
 21
-13.748150000000001
 31
0.0
  0
LINE
  5
1E2C
  8
0
 62
     0
 10
21.44782850029042
 20
-13.748150000000001
 30
0.0
 11
22.225000000000001
 21
-13.748150000000001
 31
0.0
  0
ENDBLK
  5
1E2E
  8
0
  0
BLOCK
  8
0
  2
*U49
 70
     1
 10
0.0
 20
0.0
 30
0.0
  3
*U49
  1

  0
TEXT
  5
2242
  8
SAPA_MATT
 62
     2
 10
-143.5571994401231
 20
-280.84842871359609
 30
0.0
 40
3.0
  1
300
 50
109.9999999999999
  7
ISO
  0
ENDBLK
  5
2244
  8
0
  0
BLOCK
  8
0
  2
*U50
 70
     1
 10
0.0
 20
0.0
 30
0.0
  3
*U50
  1

  0
TEXT
  5
2246
  8
SAPA_MATT
 62
     2
 10
-158.74492788772019
 20
-206.24372352720329
 30
0.0
 40
3.0
  1
150
 50
109.9999999999999
  7
ISO
  0
ENDBLK
  5
2248
  8
0
  0
ENDSEC
  0
SECTION
  2
ENTITIES
  0
ARC
  5
761
  8
SAPA_ANSLUTNING
 10
0.0
 20
-0.0000000000000002
 30
0.0
 40
10.100000000000041
 50
0.1169084134508354
 51
150.1141340101089
  0
ARC
  5
764
  8
SAPA_ANSLUTNING
 10
0.0
 20
-0.0000000000000002
 30
0.0
 40
11.400000000000039
 50
0.103576736810676
 51
145.98881995833639
  0
LINE
  5
765
  8
SAPA_ANSLUTNING
 10
10.09997897492782
 20
0.020608396753687
 30
0.0
 11
11.39998137252795
 21
0.020608396753687
 31
0.0
  0
ARC
  5
766
  8
SAPA_ANSLUTNING
 10
0.0
 20
-0.0000000000000002
 30
0.0
 40
10.750000000000041
 50
0.1169084134508354
 51
34.326769817923932
  0
LINE
  5
767
  8
SAPA_ANSLUTNING
 10
-6.4497915563033823
 20
9.4000100468158312
 30
0.0
 11
-5.7142890104091402
 21
8.3280790765649062
 31
0.0
  0
LINE
  5
76D
  8
SAPA_ANSLUTNING
 10
8.3409326200216434
 20
5.6955107785219541
 30
0.0
 11
9.4145180067570973
 21
6.4285963242723021
 31
0.0
  0
ARC
  5
76E
  8
SAPA_ANSLUTNING
 10
0.0
 20
-0.0000000000000002
 30
0.0
 40
10.750000000000041
 50
124.4558612119786
 51
147.9741470624692
  0
LINE
  5
77E
  8
SAPA_PROFIL
 10
-46.256840816064518
 20
26.795175483276189
 30
0.0
 11
-31.879543718040161
 21
32.028083676158921
 31
0.0
  0
LINE
  5
77F
  8
SAPA_PROFIL
 10
-37.706337232922799
 20
3.3028599636284812
 30
0.0
 11
-23.610947921134169
 21
8.4331621135135073
 31
0.0
  0
LINE
  5
781
  8
SAPA_PROFIL
 10
-37.706337232922799
 20
3.3028599636284799
 30
0.0
 11
-46.256840816064518
 21
26.7951754832762
 31
0.0
  0
LINE
  5
795
  8
SAPA_PROFIL
 10
35.344388134559424
 20
-7.3550724477099374
 30
0.0
 11
50.379470067133482
 21
-1.882750154499411
 31
0.0
  0
INSERT
  5
899
  8
0
  2
*U42
 10
0.0
 20
0.0
 30
0.0
  0
INSERT
  5
89A
  8
0
  2
*U43
 10
0.0
 20
0.0
 30
0.0
  0
INSERT
  5
89B
  8
0
  2
*U44
 10
0.0
 20
0.0
 30
0.0
  0
INSERT
  5
89C
  8
0
  2
*U45
 10
0.0
 20
0.0
 30
0.0
  0
INSERT
  5
89D
  8
0
  2
*U46
 10
0.0
 20
0.0
 30
0.0
  0
LINE
  5
8AC
  8
SAPA_ANSLUTNING
 10
-13.28859484440334
 20
4.1835005918292394
 30
0.0
 11
-12.547722784187339
 21
2.879235055064854
 31
0.0
  0
LINE
  5
8AD
  8
SAPA_ANSLUTNING
 10
-12.918158814295341
 20
3.5313678234470451
 30
0.0
 11
-9.1273349194294742
 21
5.6846988973268617
 31
0.0
  0
POLYLINE
  5
8B3
  8
SAPA_LIGHT
 66
     1
 10
0.0
 20
0.0
 30
0.0
  0
VERTEX
  5
1D70
  8
SAPA_LIGHT
 10
23.373683118161601
 20
25.534169279795972
 30
0.0
  0
VERTEX
  5
1D71
  8
SAPA_LIGHT
 10
-23.610947921133839
 20
8.4331621135125374
 30
0.0
  0
VERTEX
  5
1D72
  8
SAPA_LIGHT
 10
-32.225652659243131
 20
32.101868856737269
 30
0.0
  0
VERTEX
  5
1D73
  8
SAPA_LIGHT
 10
-13.431800243525171
 20
38.942271723250563
 30
0.0
  0
VERTEX
  5
1D74
  8
SAPA_LIGHT
 10
-24.353446790002451
 20
68.949248992961458
 30
0.0
  0
VERTEX
  5
1D75
  8
SAPA_LIGHT
 10
-40.232069383629842
 20
63.169903007734248
 30
0.0
  0
VERTEX
  5
1D76
  8
SAPA_LIGHT
 10
-44.295107988514161
 20
74.333009829026366
 30
0.0
  0
VERTEX
  5
1D77
  8
SAPA_LIGHT
 10
-3.1409365934002831
 20
89.311903232737407
 30
0.0
  0
VERTEX
  5
1D78
  8
SAPA_LIGHT
 10
0.9221020114840566
 20
78.148796411445389
 30
0.0
  0
VERTEX
  5
1D79
  8
SAPA_LIGHT
 10
-14.95652058214349
 20
72.369450426218151
 30
0.0
  0
VERTEX
  5
1D7A
  8
SAPA_LIGHT
 10
-5.8040615467484571
 20
47.22327589398688
 30
0.0
  0
VERTEX
  5
1D7B
  8
SAPA_LIGHT
 10
12.98979086896982
 20
54.063678760500309
 30
0.0
  0
VERTEX
  5
1D7C
  8
SAPA_LIGHT
 10
23.373683118161608
 20
25.534169279795979
 30
0.0
  0
SEQEND
  5
1D7D
  8
SAPA_LIGHT
  0
POLYLINE
  5
8B5
  8
SAPA_LIGHT
 66
     1
 10
0.0
 20
0.0
 30
0.0
  0
VERTEX
  5
1D7E
  8
SAPA_LIGHT
 10
18.872413766148661
 20
84.682175585942105
 30
0.0
  0
VERTEX
  5
1D7F
  8
SAPA_LIGHT
 10
-9.3183648574285538
 20
74.421571286171925
 30
0.0
  0
VERTEX
  5
1D80
  8
SAPA_LIGHT
 10
-0.1659058220335301
 20
49.275396753940718
 30
0.0
  0
VERTEX
  5
1D81
  8
SAPA_LIGHT
 10
28.024872801543541
 20
59.536001053711082
 30
0.0
  0
SEQEND
  5
1D82
  8
SAPA_LIGHT
  0
POLYLINE
  5
8B6
  8
SAPA_LIGHT
 66
     1
 10
0.0
 20
0.0
 30
0.0
  0
VERTEX
  5
1D83
  8
SAPA_LIGHT
 10
-23.610947921134191
 20
8.4331621135135055
 30
0.0
  0
VERTEX
  5
1D84
  8
SAPA_LIGHT
 10
-10.0
 20
-28.99999999999995
 30
0.0
  0
VERTEX
  5
1D85
  8
SAPA_LIGHT
 10
50.0
 20
-28.99999999999994
 30
0.0
  0
VERTEX
  5
1D86
  8
SAPA_LIGHT
 10
50.0
 20
-25.99999999999994
 30
0.0
  0
VERTEX
  5
1D87
  8
SAPA_LIGHT
 10
43.071796769724408
 20
-21.99999999999994
 30
0.0
  0
VERTEX
  5
1D88
  8
SAPA_LIGHT
 10
35.587383134146997
 20
-8.0226957221172288
 30
0.0
  0
VERTEX
  5
1D89
  8
SAPA_LIGHT
 10
23.373683118161608
 20
25.534169279795979
 30
0.0
  0
VERTEX
  5
1D8A
  8
SAPA_LIGHT
 10
-23.610947921134191
 20
8.4331621135135038
 30
0.0
  0
SEQEND
  5
1D8B
  8
SAPA_LIGHT
  0
LINE
  5
1516
  8
SAPA_ANSLUTNING
 10
1.862363460973071
 20
-382.59827556696928
 30
0.0
 11
-99.714654707629933
 21
-103.5177118132014
 31
0.0
  0
LINE
  5
1517
  8
SAPA_ANSLUTNING
 10
-100.55138131249861
 20
-104.1426287602287
 30
0.0
 11
-93.511350027911433
 21
-123.4849557468863
 31
0.0
  0
LINE
  5
151A
  8
SAPA_ANSLUTNING
 10
35.404421104199223
 20
-400.18694261811942
 30
0.0
 11
-24.72870655762766
 21
-422.07361118035408
 31
0.0
  0
LINE
  5
151B
  8
SAPA_ANSLUTNING
 10
7.2067402937444021
 20
-387.03814811399428
 30
0.0
 11
-32.253149710792371
 21
-401.4003735230641
 31
0.0
  0
LINE
  5
151C
  8
SAPA_ANSLUTNING
 10
3.4047859060051868
 20
-386.82567968445522
 30
0.0
 11
-32.766179925780911
 21
-399.99083459188512
 31
0.0
  0
LINE
  5
151D
  8
SAPA_ANSLUTNING
 10
0.3681822673224104
 20
-385.80255747724829
 30
0.0
 11
-33.450220212432242
 21
-398.11144935031331
 31
0.0
  0
LINE
  5
151E
  8
SAPA_ANSLUTNING
 10
-0.4436841863963111
 20
-385.0338749281251
 30
0.0
 11
-33.792240355757933
 21
-397.17175672952737
 31
0.0
  0
LINE
  5
1526
  8
SAPA_ANSLUTNING
 10
-29.26607970838468
 20
-399.56249882018312
 30
0.0
 11
-19.872669044888951
 21
-396.13265391014357
 31
0.0
  0
LINE
  5
1527
  8
SAPA_ANSLUTNING
 10
-29.523318076637871
 20
-398.85799302042102
 30
0.0
 11
-29.008841340131731
 21
-400.26700461994528
 31
0.0
  0
LINE
  5
1528
  8
SAPA_ANSLUTNING
 10
-20.129907413142131
 20
-395.42814811038119
 30
0.0
 11
-19.615430676635992
 21
-396.83715970990551
 31
0.0
  0
LINE
  5
1529
  8
SAPA_ANSLUTNING
 10
-10.479258381393221
 20
-392.7028090001038
 30
0.0
 11
-1.0858477178977211
 21
-389.27296409006402
 31
0.0
  0
LINE
  5
152A
  8
SAPA_ANSLUTNING
 10
-10.736496749646401
 20
-391.9983032003417
 30
0.0
 11
-10.222020013140259
 21
-393.40731479986601
 31
0.0
  0
LINE
  5
152B
  8
SAPA_ANSLUTNING
 10
-1.343086086150449
 20
-388.56845829030181
 30
0.0
 11
-0.8286093496445374
 21
-389.9774698898263
 31
0.0
  0
ARC
  5
152D
  8
SAPA_ANSLUTNING
 10
-6.2017263937757496
 20
-368.0569305208333
 30
0.0
 40
56.915382799938257
 50
279.11294325954429
 51
330.02613788962861
  0
SOLID
  5
152E
  8
SAPA_ANSLUTNING
 10
42.332555499687928
 20
-395.86614859655839
 30
0.0
 11
44.247450660963167
 21
-396.44336304658941
 31
0.0
 12
45.021646430417931
 22
-390.41007033774781
 32
0.0
 13
45.021646430417931
 23
-390.41007033774781
 33
0.0
  0
ARC
  5
1558
  8
SAPA_ANSLUTNING
 10
-93.782498339151914
 20
-111.58509872940481
 30
0.0
 40
18.974692890818861
 50
124.1035407848513
 51
175.6794938156815
  0
LINE
  5
1559
  8
SAPA_ANSLUTNING
 10
-104.54219090720539
 20
-105.15203367145909
 30
0.0
 11
-105.1478687028759
 21
-111.8555387229879
 31
0.0
  0
LINE
  5
155A
  8
SAPA_ANSLUTNING
 10
-104.15192565875419
 20
-111.9455245711286
 30
0.0
 11
-103.54172982236901
 21
-105.1920148653486
 31
0.0
  0
LINE
  5
155E
  8
SAPA_ANSLUTNING
 10
-105.1478687028759
 20
-111.8555387229879
 30
0.0
 11
-104.15192565875419
 21
-111.9455245711286
 31
0.0
  0
SOLID
  5
155F
  8
SAPA_ANSLUTNING
 10
-111.7059078926044
 20
-110.2282206561313
 30
0.0
 11
-113.7006313212113
 21
-110.08303648562359
 31
0.0
 12
-113.13882211843109
 22
-116.1397988566987
 32
0.0
 13
-113.13882211843109
 23
-116.1397988566987
 33
0.0
  0
LINE
  5
15EE
  8
SAPA_ANSLUTNING
 10
-58.377381177293543
 20
55.134763744827382
 30
0.0
 11
-64.091592784922312
 21
22.72785934103867
 31
0.0
  0
ARC
  5
1605
  8
SAPA_ANSLUTNING
 10
-83.233976981606588
 20
-109.8433265430503
 30
0.0
 40
22.120220664451239
 50
36.878722858842607
 51
115.2482972433851
  0
ARC
  5
160F
  8
SAPA_ANSLUTNING
 10
-101.87275322917689
 20
-105.0900814778992
 30
0.0
 40
2.6701564731612879
 50
36.076718142632743
 51
181.32947930394641
  0
ARC
  5
1610
  8
SAPA_ANSLUTNING
 10
-101.9024154797852
 20
-105.0780658603895
 30
0.0
 40
1.643269877266794
 50
34.698185202829791
 51
183.97624317140949
  0
SOLID
  5
1611
  8
SAPA_ANSLUTNING
 10
-92.327156914581849
 20
-90.775991354484077
 30
0.0
 11
-93.011197201233188
 21
-88.896606112912309
 31
0.0
 12
-98.307332782623135
 22
-91.888419593652173
 32
0.0
 13
-98.307332782623135
 23
-91.888419593652173
 33
0.0
  0
LINE
  5
1617
  8
SAPA_ANSLUTNING
 10
-143.64673241368831
 20
-52.237816325185911
 30
0.0
 11
-132.16018687894501
 21
-83.796840809431117
 31
0.0
  0
LINE
  5
1618
  8
SAPA_ANSLUTNING
 10
-139.96281962907031
 20
-64.552136816286577
 30
0.0
 11
-143.33913112233299
 21
-55.275797227502181
 31
0.0
  0
LINE
  5
1619
  8
SAPA_ANSLUTNING
 10
-123.4680301366753
 20
-80.633154483668747
 30
0.0
 11
-133.569725810124
 21
-84.309871024419579
 31
0.0
  0
LINE
  5
161A
  8
SAPA_ANSLUTNING
 10
-140.6675890946598
 20
-64.808651923780815
 30
0.0
 11
-139.2580501634809
 21
-64.295621708792311
 31
0.0
  0
LINE
  5
1639
  8
SAPA_ANSLUTNING
 10
-33.169284509411909
 20
33.982659128127807
 30
0.0
 11
-58.377381177293543
 21
55.134763744827382
 31
0.0
  0
LINE
  5
163A
  8
SAPA_ANSLUTNING
 10
-16.89433269030792
 20
39.906257154398311
 30
0.0
 11
-27.154305435423112
 21
68.095300595821357
 31
0.0
  0
LINE
  5
163B
  8
SAPA_ANSLUTNING
 10
-27.455072901783971
 20
66.389563531916536
 30
0.0
 11
-33.169284509411909
 21
33.982659128127807
 31
0.0
  0
LINE
  5
1661
  8
SAPA_ANSLUTNING
 10
-12.05380742394664
 20
5.4727162039260966
 30
0.0
 11
-145.54242247963541
 21
-51.41515727495652
 31
0.0
  0
LINE
  5
1662
  8
SAPA_ANSLUTNING
 10
-11.465737737770841
 20
4.0927980743976198
 30
0.0
 11
-143.64673241368831
 21
-52.237816325185911
 31
0.0
  0
LINE
  5
1663
  8
SAPA_ANSLUTNING
 10
-95.369938481325391
 20
-30.875659889088642
 30
0.0
 11
-87.162359404783729
 21
-27.451841461127739
 31
0.0
  0
LINE
  5
1664
  8
SAPA_ANSLUTNING
 10
-95.085598190580242
 20
-31.542870478884829
 30
0.0
 11
-95.673667876755985
 21
-30.162952349356431
 31
0.0
  0
LINE
  5
1665
  8
SAPA_ANSLUTNING
 10
-86.878019114038523
 20
-28.119052050923809
 30
0.0
 11
-87.466088800214308
 21
-26.73913392139545
 31
0.0
  0
LINE
  5
1666
  8
SAPA_ANSLUTNING
 10
-75.818341730247937
 20
-22.54349791541458
 30
0.0
 11
-67.610762653706217
 21
-19.119679487453482
 31
0.0
  0
LINE
  5
1667
  8
SAPA_ANSLUTNING
 10
-75.534001439502788
 20
-23.210708505210729
 30
0.0
 11
-76.122071125678417
 21
-21.830790375682401
 31
0.0
  0
LINE
  5
1668
  8
SAPA_ANSLUTNING
 10
-67.326422362961068
 20
-19.786890077249751
 30
0.0
 11
-67.914492049136697
 21
-18.406971947721271
 31
0.0
  0
LINE
  5
1669
  8
SAPA_ANSLUTNING
 10
-56.266744979170198
 20
-14.211335941740341
 30
0.0
 11
-48.059165902628528
 21
-10.78751751377933
 31
0.0
  0
LINE
  5
166A
  8
SAPA_ANSLUTNING
 10
-55.982404688425042
 20
-14.878546531536641
 30
0.0
 11
-56.570474374600792
 21
-13.49862840200813
 31
0.0
  0
LINE
  5
166B
  8
SAPA_ANSLUTNING
 10
-47.77482561188333
 20
-11.454728103575521
 30
0.0
 11
-48.362895298059129
 21
-10.07480997404712
 31
0.0
  0
LINE
  5
166C
  8
SAPA_ANSLUTNING
 10
-36.71514822809263
 20
-5.8791739680661692
 30
0.0
 11
-28.507569151550801
 21
-2.455355540105074
 31
0.0
  0
LINE
  5
166D
  8
SAPA_ANSLUTNING
 10
-36.430807937347602
 20
-6.5463845578623241
 30
0.0
 11
-37.018877623523167
 21
-5.166466428333905
 31
0.0
  0
LINE
  5
166E
  8
SAPA_ANSLUTNING
 10
-28.223228860805762
 20
-3.1225661299014851
 30
0.0
 11
-28.811298546981341
 21
-1.7426480003727529
 31
0.0
  0
LINE
  5
166F
  8
SAPA_ANSLUTNING
 10
-17.163551477015059
 20
2.4529880056079771
 30
0.0
 11
-11.716900713459831
 21
4.7250761671741648
 31
0.0
  0
LINE
  5
1670
  8
SAPA_ANSLUTNING
 10
-16.879211186269909
 20
1.7857774158118209
 30
0.0
 11
-17.467280872445599
 21
3.1656955453402982
 31
0.0
  0
LINE
  5
1671
  8
SAPA_ANSLUTNING
 10
-11.43256042271469
 20
4.0578655773779806
 30
0.0
 11
-12.020630108890369
 21
5.437783706906429
 31
0.0
  0
ARC
  5
167E
  8
SAPA_ANSLUTNING
 10
-1.127724473047649
 20
-383.15448968655329
 30
0.0
 40
1.9999999999999989
 50
290.00000000000341
 51
20.000000000000089
  0
ARC
  5
167F
  8
SAPA_ANSLUTNING
 10
-0.4868680909917913
 20
-383.45332592528348
 30
0.0
 40
2.4999999999999991
 50
290.00000000000341
 51
20.000000000000089
  0
ARC
  5
1680
  8
SAPA_ANSLUTNING
 10
2.7207456193538491
 20
-384.9462944428833
 30
0.0
 40
1.9999999999999989
 50
290.00000000000341
 51
20.000000000000089
  0
LINE
  5
1681
  8
SAPA_ANSLUTNING
 10
0.2416767662145247
 20
-370.09464664716108
 30
0.0
 11
3.6618781994712171
 21
-379.49157285502008
 31
0.0
  0
LINE
  5
1682
  8
SAPA_ANSLUTNING
 10
-0.4630926993749683
 20
-370.35116175465532
 30
0.0
 11
0.9464462318037902
 21
-369.8381315396669
 31
0.0
  0
LINE
  5
1683
  8
SAPA_ANSLUTNING
 10
2.957108733881725
 20
-379.74808796251438
 30
0.0
 11
4.3666476650604826
 21
-379.2350577475259
 31
0.0
  0
LINE
  5
1694
  8
SAPA_ANSLUTNING
 10
-69.447168745842362
 20
-29.20721100847469
 30
0.0
 11
-142.3689261651499
 21
-55.748560139483381
 31
0.0
  0
LINE
  5
1695
  8
SAPA_ANSLUTNING
 10
-133.67676942288031
 20
-52.584873813720861
 30
0.0
 11
-118.28586297322521
 21
-94.871041749086714
 31
0.0
  0
LINE
  5
1696
  8
SAPA_ANSLUTNING
 10
-61.5942071612115
 20
-74.236966502249103
 30
0.0
 11
-118.28586297322541
 21
-94.871041749086714
 31
0.0
  0
LINE
  5
1697
  8
SAPA_ANSLUTNING
 10
-76.265155691631719
 20
-93.377301931520307
 30
0.0
 11
-98.347932280100451
 21
-101.41477529967349
 31
0.0
  0
LINE
  5
169A
  8
SAPA_ANSLUTNING
 10
-114.6371949416579
 20
-39.875032452558912
 30
0.0
 11
-115.2252646278336
 21
-38.495114323030521
 31
0.0
  0
LINE
  5
169B
  8
SAPA_ANSLUTNING
 10
-114.921535232403
 20
-39.207821862762728
 30
0.0
 11
-106.7139561558614
 21
-35.784003434801782
 31
0.0
  0
LINE
  5
169C
  8
SAPA_ANSLUTNING
 10
-106.4296158651162
 20
-36.451214024597959
 30
0.0
 11
-107.017685551292
 21
-35.071295895069511
 31
0.0
  0
LINE
  5
169D
  8
SAPA_ANSLUTNING
 10
-134.18879169273561
 20
-48.207194426233031
 30
0.0
 11
-134.77686137891129
 21
-46.827276296704611
 31
0.0
  0
LINE
  5
169E
  8
SAPA_ANSLUTNING
 10
-134.4731319834807
 20
-47.539983836436839
 30
0.0
 11
-126.26555290693889
 21
-44.116165408475858
 31
0.0
  0
LINE
  5
169F
  8
SAPA_ANSLUTNING
 10
-125.9812126161937
 20
-44.783375998272049
 30
0.0
 11
-126.5692823023694
 21
-43.403457868743651
 31
0.0
  0
LINE
  5
16A0
  8
SAPA_ANSLUTNING
 10
-144.04390058792251
 20
-55.532312334996419
 30
0.0
 11
-142.63436165674361
 21
-55.019282120007908
 31
0.0
  0
LINE
  5
16A2
  8
SAPA_ANSLUTNING
 10
-24.48619431426858
 20
6.52638775034589
 30
0.0
 11
-155.2733413771646
 21
-48.551182206699792
 31
0.0
  0
LINE
  5
16A3
  8
SAPA_ANSLUTNING
 10
-32.2484473083598
 20
24.958626584945542
 30
0.0
 11
-163.03559437125591
 21
-30.118943372100212
 31
0.0
  0
LINE
  5
16A4
  8
SAPA_ANSLUTNING
 10
-24.48619431426858
 20
6.52638775034589
 30
0.0
 11
-32.2484473083598
 21
24.958626584945542
 31
0.0
  0
LINE
  5
16A5
  8
SAPA_ANSLUTNING
 10
-163.03559437125591
 20
-30.118943372100262
 30
0.0
 11
-155.2733413771646
 21
-48.551182206699792
 31
0.0
  0
LINE
  5
16A6
  8
SAPA_ANSLUTNING
 10
-25.06836328882537
 20
7.9088056629409493
 30
0.0
 11
-155.85551035172131
 21
-47.168764294104783
 31
0.0
  0
LINE
  5
16DA
  8
SAPA_ANSLUTNING
 10
-66.854600199936897
 20
-60.756502646214699
 30
0.0
 11
40.273299984276811
 21
-21.774287777339079
 31
0.0
  0
LINE
  5
16DD
  8
SAPA_ANSLUTNING
 10
-133.67676942288031
 20
-52.584873813720861
 30
0.0
 11
-118.28586297322521
 21
-94.871041749086714
 31
0.0
  0
LINE
  5
16E3
  8
SAPA_ANSLUTNING
 10
-133.60038565163609
 20
-82.032780502057875
 30
0.0
 11
-136.97669714489891
 21
-72.756440913273465
 31
0.0
  0
LINE
  5
16E4
  8
SAPA_ANSLUTNING
 10
-137.6814666104882
 20
-73.012956020767717
 30
0.0
 11
-136.2719276793095
 21
-72.499925805779213
 31
0.0
  0
LINE
  5
16E5
  8
SAPA_ANSLUTNING
 10
-134.30515511722561
 20
-82.289295609552127
 30
0.0
 11
-132.89561618604671
 21
-81.776265394563595
 31
0.0
  0
LINE
  5
16F3
  8
SAPA_ANSLUTNING
 10
-23.653839664889311
 20
-396.6742139724152
 30
0.0
 11
-32.766179925780882
 21
-399.99083459188518
 31
0.0
  0
LINE
  5
1732
  8
SAPA_ANSLUTNING
 10
-188.38438652842839
 20
7.8160835509265558
 30
0.0
 11
-26.64127522043453
 21
66.685761664642584
 31
0.0
  0
LINE
  5
1735
  8
SAPA_ANSLUTNING
 10
-27.154305435423112
 20
68.095300595821357
 30
0.0
 11
-190.30695567459631
 21
8.7125922671181151
 31
0.0
  0
LINE
  5
1737
  8
SAPA_ANSLUTNING
 10
-192.09997310697699
 20
4.8674539747833787
 30
0.0
 11
-104.580379015784
 21
-235.5906545506032
 31
0.0
  0
LINE
  5
1738
  8
SAPA_ANSLUTNING
 10
-104.580379015784
 20
-235.59065455060329
 30
0.0
 11
-108.9011463608027
 21
-260.0949438412062
 31
0.0
  0
ARC
  5
1739
  8
SAPA_ANSLUTNING
 10
-105.9464881108749
 20
-260.61455567463793
 30
0.0
 40
3.0000003052181312
 50
170.02584533385601
 51
349.97415466614291
  0
LINE
  5
173A
  8
SAPA_ANSLUTNING
 10
-102.99229984272949
 20
-261.1368329072078
 30
0.0
 11
-100.99691942710839
 21
-249.8204682328734
 31
0.0
  0
LINE
  5
173B
  8
SAPA_ANSLUTNING
 10
-100.99691942710839
 20
-249.8204682328734
 30
0.0
 11
-102.47543071296521
 21
-249.56736668373921
 31
0.0
  0
LINE
  5
173C
  8
SAPA_ANSLUTNING
 10
-102.47543071296521
 20
-249.56736668373921
 30
0.0
 11
-104.46911031879161
 21
-260.87408558640368
 31
0.0
  0
ARC
  5
173D
  8
SAPA_ANSLUTNING
 10
-105.9464881108749
 20
-260.61455567463798
 30
0.0
 40
1.500000305214044
 50
169.9634494156652
 51
350.0365505799553
  0
LINE
  5
173E
  8
SAPA_ANSLUTNING
 10
-107.4235335778081
 20
-260.35314105329007
 30
0.0
 11
-103.0333740528062
 21
-235.4553091539243
 31
0.0
  0
ARC
  5
1740
  8
SAPA_ANSLUTNING
 10
-187.3583260984513
 20
4.9970056885688372
 30
0.0
 40
3.0
 50
110.0000000000003
 51
200.0
  0
ARC
  5
1741
  8
SAPA_ANSLUTNING
 10
-189.2808952446193
 20
5.8935144047603858
 30
0.0
 40
3.0
 50
109.9999999999998
 51
200.0
  0
LINE
  5
1742
  8
SAPA_ANSLUTNING
 10
-16.381302475319441
 20
38.496718223219318
 30
0.0
 11
-180.9434916456716
 21
-21.399020320472399
 31
0.0
  0
LINE
  5
1744
  8
SAPA_ANSLUTNING
 10
-181.45652186065999
 20
-19.989481389293712
 30
0.0
 11
-16.89433269030792
 21
39.906257154398311
 31
0.0
  0
LINE
  5
1745
  8
SAPA_ANSLUTNING
 10
-16.89433269030792
 20
39.906257154398311
 30
0.0
 11
-16.381302475319441
 21
38.496718223219318
 31
0.0
  0
LINE
  5
1746
  8
SAPA_ANSLUTNING
 10
-89.299689452804103
 20
43.879963957737857
 30
0.0
 11
-64.091592784922312
 21
22.727859341038659
 31
0.0
  0
LINE
  5
1747
  8
SAPA_ANSLUTNING
 10
-95.013901060432516
 20
11.47305955394895
 30
0.0
 11
-89.299689452804103
 21
43.879963957737857
 31
0.0
  0
LINE
  5
1748
  8
SAPA_ANSLUTNING
 10
-151.14430600382471
 20
21.37036438355906
 30
0.0
 11
-125.93620933594291
 21
0.2182597668598305
 31
0.0
  0
LINE
  5
1749
  8
SAPA_ANSLUTNING
 10
-156.8585176114531
 20
-11.03654002022985
 30
0.0
 11
-151.14430600382471
 21
21.37036438355906
 31
0.0
  0
LINE
  5
174A
  8
SAPA_ANSLUTNING
 10
-120.22199772831409
 20
32.62516417064856
 30
0.0
 11
-125.93620933594291
 21
0.2182597668598163
 31
0.0
  0
LINE
  5
174B
  8
SAPA_ANSLUTNING
 10
-95.013901060432516
 20
11.473059553948939
 30
0.0
 11
-120.22199772831409
 21
32.62516417064856
 31
0.0
  0
LINE
  5
174C
  8
SAPA_ANSLUTNING
 10
-156.8585176114521
 20
-11.036540020229459
 30
0.0
 11
-182.06661427933369
 21
10.11556459647012
 31
0.0
  0
POLYLINE
  5
174D
  8
SAPA_ANSLUTNING
 66
     1
 10
0.0
 20
0.0
 30
0.0
 70
     1
  0
VERTEX
  5
1D8C
  8
SAPA_ANSLUTNING
 10
-49.352146037890343
 20
-20.745256842342151
 30
0.0
  0
VERTEX
  5
1D8D
  8
SAPA_ANSLUTNING
 10
-7.2382572354060484
 20
-28.171071700776231
 30
0.0
  0
VERTEX
  5
1D8E
  8
SAPA_ANSLUTNING
 10
-9.2912757011461107
 20
-39.814318000867317
 30
0.0
  0
VERTEX
  5
1D8F
  8
SAPA_ANSLUTNING
 10
-51.405164503630417
 20
-32.388503142433237
 30
0.0
  0
SEQEND
  5
1D90
  8
SAPA_ANSLUTNING
  0
LINE
  5
1750
  8
SAPA_ANSLUTNING
 10
-9.2912757011461107
 20
-39.814318000867317
 30
0.0
 11
-69.447168745842362
 21
-29.20721100847469
 31
0.0
  0
LINE
  5
1756
  8
SAPA_ANSLUTNING
 10
-92.571657407126125
 20
-123.1429356035609
 30
0.0
 11
-99.714654707630018
 21
-103.5177118132013
 31
0.0
  0
LINE
  5
175B
  8
SAPA_ANSLUTNING
 10
-103.0333740528062
 20
-235.45530915392419
 30
0.0
 11
-190.17740396080899
 21
3.970945258591831
 31
0.0
  0
LINE
  5
175F
  8
SAPA_ANSLUTNING
 10
35.404421104199209
 20
-400.18694261811947
 30
0.0
 11
-76.265155691631534
 21
-93.377301931520222
 31
0.0
  0
LINE
  5
1777
  8
SAPA_ANSLUTNING
 10
40.273299984276719
 20
-21.774287777339111
 30
0.0
 11
164.61909654084121
 21
-363.41155602059831
 31
0.0
  0
LINE
  5
1779
  8
SAPA_ANSLUTNING
 10
-77.297619988454699
 20
-32.064541586343708
 30
0.0
 11
57.49413777124758
 21
-402.40185235972461
 31
0.0
  0
LINE
  5
177A
  8
SAPA_ANSLUTNING
 10
-96.938393348921636
 20
-100.9017450846849
 30
0.0
 11
7.2067402937444021
 21
-387.03814811399423
 31
0.0
  0
LINE
  5
177B
  8
SAPA_ANSLUTNING
 10
-98.347932280100665
 20
-101.41477529967349
 30
0.0
 11
4.6001308609257157
 21
-384.2622541562319
 31
0.0
  0
LINE
  5
177D
  8
SAPA_ANSLUTNING
 10
-100.55138131249851
 20
-104.1426287602291
 30
0.0
 11
0.7516607685241042
 21
-382.47044939990201
 31
0.0
  0
LINE
  5
177F
  8
SAPA_ANSLUTNING
 10
-145.54242247963541
 20
-51.41515727495652
 30
0.0
 11
-133.56972581012391
 21
-84.309871024419607
 31
0.0
  0
POLYLINE
  5
1782
  8
SAPA_ANSLUTNING
 10
22.250356318933228
 20
-13.386693111228336
 30
0.0
 66
     1
 70
     8
  0
VERTEX
  8
SAPA_ANSLUTNING
  5
2249
 10
22.2504
 20
-13.3867
 30
0.000000
  70
    32
  0
VERTEX
  8
SAPA_ANSLUTNING
  5
224A
 10
22.0197
 20
-13.4668
 30
0.000000
  70
    32
  0
VERTEX
  8
SAPA_ANSLUTNING
  5
224B
 10
21.7945
 20
-13.5627
 30
0.000000
  70
    32
  0
VERTEX
  8
SAPA_ANSLUTNING
  5
224C
 10
21.5754
 20
-13.6743
 30
0.000000
  70
    32
  0
VERTEX
  8
SAPA_ANSLUTNING
  5
224D
 10
21.3629
 20
-13.8012
 30
0.000000
  70
    32
  0
VERTEX
  8
SAPA_ANSLUTNING
  5
224E
 10
21.1575
 20
-13.9432
 30
0.000000
  70
    32
  0
VERTEX
  8
SAPA_ANSLUTNING
  5
224F
 10
20.9596
 20
-14.1000
 30
0.000000
  70
    32
  0
VERTEX
  8
SAPA_ANSLUTNING
  5
2250
 10
20.7699
 20
-14.2710
 30
0.000000
  70
    32
  0
VERTEX
  8
SAPA_ANSLUTNING
  5
2251
 10
20.5887
 20
-14.4561
 30
0.000000
  70
    32
  0
VERTEX
  8
SAPA_ANSLUTNING
  5
2252
 10
20.4164
 20
-14.6546
 30
0.000000
  70
    32
  0
VERTEX
  8
SAPA_ANSLUTNING
  5
2253
 10
20.2535
 20
-14.8661
 30
0.000000
  70
    32
  0
VERTEX
  8
SAPA_ANSLUTNING
  5
2254
 10
20.1004
 20
-15.0901
 30
0.000000
  70
    32
  0
VERTEX
  8
SAPA_ANSLUTNING
  5
2255
 10
19.9575
 20
-15.3260
 30
0.000000
  70
    32
  0
VERTEX
  8
SAPA_ANSLUTNING
  5
2256
 10
19.8250
 20
-15.5734
 30
0.000000
  70
    32
  0
VERTEX
  8
SAPA_ANSLUTNING
  5
2257
 10
19.7033
 20
-15.8315
 30
0.000000
  70
    32
  0
VERTEX
  8
SAPA_ANSLUTNING
  5
2258
 10
19.5927
 20
-16.0999
 30
0.000000
  70
    32
  0
VERTEX
  8
SAPA_ANSLUTNING
  5
2259
 10
19.4935
 20
-16.3777
 30
0.000000
  70
    32
  0
VERTEX
  8
SAPA_ANSLUTNING
  5
225A
 10
19.4059
 20
-16.6644
 30
0.000000
  70
    32
  0
VERTEX
  8
SAPA_ANSLUTNING
  5
225B
 10
19.3302
 20
-16.9593
 30
0.000000
  70
    32
  0
VERTEX
  8
SAPA_ANSLUTNING
  5
225C
 10
19.2664
 20
-17.2616
 30
0.000000
  70
    32
  0
VERTEX
  8
SAPA_ANSLUTNING
  5
225D
 10
19.2147
 20
-17.5707
 30
0.000000
  70
    32
  0
VERTEX
  8
SAPA_ANSLUTNING
  5
225E
 10
19.1754
 20
-17.8857
 30
0.000000
  70
    32
  0
VERTEX
  8
SAPA_ANSLUTNING
  5
225F
 10
19.1484
 20
-18.2060
 30
0.000000
  70
    32
  0
VERTEX
  8
SAPA_ANSLUTNING
  5
2260
 10
19.1338
 20
-18.5307
 30
0.000000
  70
    32
  0
VERTEX
  8
SAPA_ANSLUTNING
  5
2261
 10
19.1317
 20
-18.8591
 30
0.000000
  70
    32
  0
VERTEX
  8
SAPA_ANSLUTNING
  5
2262
 10
19.1421
 20
-19.1904
 30
0.000000
  70
    32
  0
VERTEX
  8
SAPA_ANSLUTNING
  5
2263
 10
19.1650
 20
-19.5238
 30
0.000000
  70
    32
  0
VERTEX
  8
SAPA_ANSLUTNING
  5
2264
 10
19.2002
 20
-19.8584
 30
0.000000
  70
    32
  0
VERTEX
  8
SAPA_ANSLUTNING
  5
2265
 10
19.2478
 20
-20.1935
 30
0.000000
  70
    32
  0
VERTEX
  8
SAPA_ANSLUTNING
  5
2266
 10
19.3075
 20
-20.5283
 30
0.000000
  70
    32
  0
VERTEX
  8
SAPA_ANSLUTNING
  5
2267
 10
19.3793
 20
-20.8619
 30
0.000000
  70
    32
  0
VERTEX
  8
SAPA_ANSLUTNING
  5
2268
 10
19.4630
 20
-21.1936
 30
0.000000
  70
    32
  0
VERTEX
  8
SAPA_ANSLUTNING
  5
2269
 10
19.5583
 20
-21.5225
 30
0.000000
  70
    32
  0
VERTEX
  8
SAPA_ANSLUTNING
  5
226A
 10
19.6651
 20
-21.8479
 30
0.000000
  70
    32
  0
VERTEX
  8
SAPA_ANSLUTNING
  5
226B
 10
19.7831
 20
-22.1690
 30
0.000000
  70
    32
  0
VERTEX
  8
SAPA_ANSLUTNING
  5
226C
 10
19.9120
 20
-22.4850
 30
0.000000
  70
    32
  0
VERTEX
  8
SAPA_ANSLUTNING
  5
226D
 10
20.0515
 20
-22.7951
 30
0.000000
  70
    32
  0
VERTEX
  8
SAPA_ANSLUTNING
  5
226E
 10
20.2013
 20
-23.0986
 30
0.000000
  70
    32
  0
VERTEX
  8
SAPA_ANSLUTNING
  5
226F
 10
20.3609
 20
-23.3948
 30
0.000000
  70
    32
  0
VERTEX
  8
SAPA_ANSLUTNING
  5
2270
 10
20.5301
 20
-23.6830
 30
0.000000
  70
    32
  0
VERTEX
  8
SAPA_ANSLUTNING
  5
2271
 10
20.7084
 20
-23.9624
 30
0.000000
  70
    32
  0
VERTEX
  8
SAPA_ANSLUTNING
  5
2272
 10
20.8953
 20
-24.2324
 30
0.000000
  70
    32
  0
VERTEX
  8
SAPA_ANSLUTNING
  5
2273
 10
21.0905
 20
-24.4923
 30
0.000000
  70
    32
  0
VERTEX
  8
SAPA_ANSLUTNING
  5
2274
 10
21.2934
 20
-24.7415
 30
0.000000
  70
    32
  0
VERTEX
  8
SAPA_ANSLUTNING
  5
2275
 10
21.5036
 20
-24.9795
 30
0.000000
  70
    32
  0
VERTEX
  8
SAPA_ANSLUTNING
  5
2276
 10
21.7206
 20
-25.2055
 30
0.000000
  70
    32
  0
VERTEX
  8
SAPA_ANSLUTNING
  5
2277
 10
21.9438
 20
-25.4192
 30
0.000000
  70
    32
  0
VERTEX
  8
SAPA_ANSLUTNING
  5
2278
 10
22.1727
 20
-25.6200
 30
0.000000
  70
    32
  0
VERTEX
  8
SAPA_ANSLUTNING
  5
2279
 10
22.4068
 20
-25.8073
 30
0.000000
  70
    32
  0
VERTEX
  8
SAPA_ANSLUTNING
  5
227A
 10
22.6454
 20
-25.9808
 30
0.000000
  70
    32
  0
VERTEX
  8
SAPA_ANSLUTNING
  5
227B
 10
22.8880
 20
-26.1400
 30
0.000000
  70
    32
  0
VERTEX
  8
SAPA_ANSLUTNING
  5
227C
 10
23.1341
 20
-26.2845
 30
0.000000
  70
    32
  0
VERTEX
  8
SAPA_ANSLUTNING
  5
227D
 10
23.3830
 20
-26.4140
 30
0.000000
  70
    32
  0
VERTEX
  8
SAPA_ANSLUTNING
  5
227E
 10
23.6342
 20
-26.5282
 30
0.000000
  70
    32
  0
VERTEX
  8
SAPA_ANSLUTNING
  5
227F
 10
23.8870
 20
-26.6269
 30
0.000000
  70
    32
  0
VERTEX
  8
SAPA_ANSLUTNING
  5
2280
 10
24.1407
 20
-26.7096
 30
0.000000
  70
    32
  0
VERTEX
  8
SAPA_ANSLUTNING
  5
2281
 10
24.3950
 20
-26.7764
 30
0.000000
  70
    32
  0
VERTEX
  8
SAPA_ANSLUTNING
  5
2282
 10
24.6489
 20
-26.8269
 30
0.000000
  70
    32
  0
VERTEX
  8
SAPA_ANSLUTNING
  5
2283
 10
24.9021
 20
-26.8612
 30
0.000000
  70
    32
  0
VERTEX
  8
SAPA_ANSLUTNING
  5
2284
 10
25.1539
 20
-26.8790
 30
0.000000
  70
    32
  0
VERTEX
  8
SAPA_ANSLUTNING
  5
2285
 10
25.4036
 20
-26.8804
 30
0.000000
  70
    32
  0
VERTEX
  8
SAPA_ANSLUTNING
  5
2286
 10
25.6507
 20
-26.8654
 30
0.000000
  70
    32
  0
VERTEX
  8
SAPA_ANSLUTNING
  5
2287
 10
25.8946
 20
-26.8339
 30
0.000000
  70
    32
  0
VERTEX
  8
SAPA_ANSLUTNING
  5
2288
 10
26.1346
 20
-26.7861
 30
0.000000
  70
    32
  0
VERTEX
  8
SAPA_ANSLUTNING
  5
2289
 10
26.3703
 20
-26.7221
 30
0.000000
  70
    32
  0
VERTEX
  8
SAPA_ANSLUTNING
  5
228A
 10
26.6009
 20
-26.6420
 30
0.000000
  70
    32
  0
VERTEX
  8
SAPA_ANSLUTNING
  5
228B
 10
26.8261
 20
-26.5461
 30
0.000000
  70
    32
  0
VERTEX
  8
SAPA_ANSLUTNING
  5
228C
 10
27.0452
 20
-26.4345
 30
0.000000
  70
    32
  0
VERTEX
  8
SAPA_ANSLUTNING
  5
228D
 10
27.2577
 20
-26.3076
 30
0.000000
  70
    32
  0
VERTEX
  8
SAPA_ANSLUTNING
  5
228E
 10
27.4632
 20
-26.1656
 30
0.000000
  70
    32
  0
VERTEX
  8
SAPA_ANSLUTNING
  5
228F
 10
27.6610
 20
-26.0088
 30
0.000000
  70
    32
  0
VERTEX
  8
SAPA_ANSLUTNING
  5
2290
 10
27.8507
 20
-25.8378
 30
0.000000
  70
    32
  0
VERTEX
  8
SAPA_ANSLUTNING
  5
2291
 10
28.0320
 20
-25.6527
 30
0.000000
  70
    32
  0
VERTEX
  8
SAPA_ANSLUTNING
  5
2292
 10
28.2042
 20
-25.4542
 30
0.000000
  70
    32
  0
VERTEX
  8
SAPA_ANSLUTNING
  5
2293
 10
28.3671
 20
-25.2427
 30
0.000000
  70
    32
  0
VERTEX
  8
SAPA_ANSLUTNING
  5
2294
 10
28.5202
 20
-25.0187
 30
0.000000
  70
    32
  0
VERTEX
  8
SAPA_ANSLUTNING
  5
2295
 10
28.6632
 20
-24.7828
 30
0.000000
  70
    32
  0
VERTEX
  8
SAPA_ANSLUTNING
  5
2296
 10
28.7956
 20
-24.5354
 30
0.000000
  70
    32
  0
VERTEX
  8
SAPA_ANSLUTNING
  5
2297
 10
28.9173
 20
-24.2773
 30
0.000000
  70
    32
  0
VERTEX
  8
SAPA_ANSLUTNING
  5
2298
 10
29.0279
 20
-24.0089
 30
0.000000
  70
    32
  0
VERTEX
  8
SAPA_ANSLUTNING
  5
2299
 10
29.1271
 20
-23.7311
 30
0.000000
  70
    32
  0
VERTEX
  8
SAPA_ANSLUTNING
  5
229A
 10
29.2147
 20
-23.4444
 30
0.000000
  70
    32
  0
VERTEX
  8
SAPA_ANSLUTNING
  5
229B
 10
29.2905
 20
-23.1495
 30
0.000000
  70
    32
  0
VERTEX
  8
SAPA_ANSLUTNING
  5
229C
 10
29.3543
 20
-22.8472
 30
0.000000
  70
    32
  0
VERTEX
  8
SAPA_ANSLUTNING
  5
229D
 10
29.4059
 20
-22.5381
 30
0.000000
  70
    32
  0
VERTEX
  8
SAPA_ANSLUTNING
  5
229E
 10
29.4453
 20
-22.2231
 30
0.000000
  70
    32
  0
VERTEX
  8
SAPA_ANSLUTNING
  5
229F
 10
29.4722
 20
-21.9028
 30
0.000000
  70
    32
  0
VERTEX
  8
SAPA_ANSLUTNING
  5
22A0
 10
29.4868
 20
-21.5781
 30
0.000000
  70
    32
  0
VERTEX
  8
SAPA_ANSLUTNING
  5
22A1
 10
29.4889
 20
-21.2497
 30
0.000000
  70
    32
  0
VERTEX
  8
SAPA_ANSLUTNING
  5
22A2
 10
29.4785
 20
-20.9184
 30
0.000000
  70
    32
  0
VERTEX
  8
SAPA_ANSLUTNING
  5
22A3
 10
29.4556
 20
-20.5851
 30
0.000000
  70
    32
  0
VERTEX
  8
SAPA_ANSLUTNING
  5
22A4
 10
29.4204
 20
-20.2504
 30
0.000000
  70
    32
  0
VERTEX
  8
SAPA_ANSLUTNING
  5
22A5
 10
29.3729
 20
-19.9153
 30
0.000000
  70
    32
  0
VERTEX
  8
SAPA_ANSLUTNING
  5
22A6
 10
29.3131
 20
-19.5806
 30
0.000000
  70
    32
  0
VERTEX
  8
SAPA_ANSLUTNING
  5
22A7
 10
29.2413
 20
-19.2469
 30
0.000000
  70
    32
  0
VERTEX
  8
SAPA_ANSLUTNING
  5
22A8
 10
29.1576
 20
-18.9152
 30
0.000000
  70
    32
  0
VERTEX
  8
SAPA_ANSLUTNING
  5
22A9
 10
29.0623
 20
-18.5863
 30
0.000000
  70
    32
  0
VERTEX
  8
SAPA_ANSLUTNING
  5
22AA
 10
28.9555
 20
-18.2609
 30
0.000000
  70
    32
  0
VERTEX
  8
SAPA_ANSLUTNING
  5
22AB
 10
28.8375
 20
-17.9398
 30
0.000000
  70
    32
  0
VERTEX
  8
SAPA_ANSLUTNING
  5
22AC
 10
28.7086
 20
-17.6238
 30
0.000000
  70
    32
  0
VERTEX
  8
SAPA_ANSLUTNING
  5
22AD
 10
28.5691
 20
-17.3137
 30
0.000000
  70
    32
  0
VERTEX
  8
SAPA_ANSLUTNING
  5
22AE
 10
28.4194
 20
-17.0102
 30
0.000000
  70
    32
  0
VERTEX
  8
SAPA_ANSLUTNING
  5
22AF
 10
28.2597
 20
-16.7140
 30
0.000000
  70
    32
  0
VERTEX
  8
SAPA_ANSLUTNING
  5
22B0
 10
28.0905
 20
-16.4258
 30
0.000000
  70
    32
  0
VERTEX
  8
SAPA_ANSLUTNING
  5
22B1
 10
27.9123
 20
-16.1464
 30
0.000000
  70
    32
  0
VERTEX
  8
SAPA_ANSLUTNING
  5
22B2
 10
27.7253
 20
-15.8764
 30
0.000000
  70
    32
  0
VERTEX
  8
SAPA_ANSLUTNING
  5
22B3
 10
27.5301
 20
-15.6165
 30
0.000000
  70
    32
  0
VERTEX
  8
SAPA_ANSLUTNING
  5
22B4
 10
27.3272
 20
-15.3673
 30
0.000000
  70
    32
  0
VERTEX
  8
SAPA_ANSLUTNING
  5
22B5
 10
27.1170
 20
-15.1293
 30
0.000000
  70
    32
  0
VERTEX
  8
SAPA_ANSLUTNING
  5
22B6
 10
26.9000
 20
-14.9033
 30
0.000000
  70
    32
  0
VERTEX
  8
SAPA_ANSLUTNING
  5
22B7
 10
26.6768
 20
-14.6896
 30
0.000000
  70
    32
  0
VERTEX
  8
SAPA_ANSLUTNING
  5
22B8
 10
26.4479
 20
-14.4889
 30
0.000000
  70
    32
  0
VERTEX
  8
SAPA_ANSLUTNING
  5
22B9
 10
26.2139
 20
-14.3015
 30
0.000000
  70
    32
  0
VERTEX
  8
SAPA_ANSLUTNING
  5
22BA
 10
25.9752
 20
-14.1280
 30
0.000000
  70
    32
  0
VERTEX
  8
SAPA_ANSLUTNING
  5
22BB
 10
25.7326
 20
-13.9688
 30
0.000000
  70
    32
  0
VERTEX
  8
SAPA_ANSLUTNING
  5
22BC
 10
25.4865
 20
-13.8243
 30
0.000000
  70
    32
  0
VERTEX
  8
SAPA_ANSLUTNING
  5
22BD
 10
25.2376
 20
-13.6948
 30
0.000000
  70
    32
  0
VERTEX
  8
SAPA_ANSLUTNING
  5
22BE
 10
24.9864
 20
-13.5806
 30
0.000000
  70
    32
  0
VERTEX
  8
SAPA_ANSLUTNING
  5
22BF
 10
24.7337
 20
-13.4820
 30
0.000000
  70
    32
  0
VERTEX
  8
SAPA_ANSLUTNING
  5
22C0
 10
24.4799
 20
-13.3992
 30
0.000000
  70
    32
  0
VERTEX
  8
SAPA_ANSLUTNING
  5
22C1
 10
24.2257
 20
-13.3324
 30
0.000000
  70
    32
  0
VERTEX
  8
SAPA_ANSLUTNING
  5
22C2
 10
23.9717
 20
-13.2819
 30
0.000000
  70
    32
  0
VERTEX
  8
SAPA_ANSLUTNING
  5
22C3
 10
23.7185
 20
-13.2476
 30
0.000000
  70
    32
  0
VERTEX
  8
SAPA_ANSLUTNING
  5
22C4
 10
23.4667
 20
-13.2298
 30
0.000000
  70
    32
  0
VERTEX
  8
SAPA_ANSLUTNING
  5
22C5
 10
23.2170
 20
-13.2284
 30
0.000000
  70
    32
  0
VERTEX
  8
SAPA_ANSLUTNING
  5
22C6
 10
22.9699
 20
-13.2434
 30
0.000000
  70
    32
  0
VERTEX
  8
SAPA_ANSLUTNING
  5
22C7
 10
22.7261
 20
-13.2749
 30
0.000000
  70
    32
  0
VERTEX
  8
SAPA_ANSLUTNING
  5
22C8
 10
22.4860
 20
-13.3227
 30
0.000000
  70
    32
  0
VERTEX
  8
SAPA_ANSLUTNING
  5
22C9
 10
22.2504
 20
-13.3867
 30
0.000000
  70
    32
  0
SEQEND
  8
SAPA_ANSLUTNING
  5
22CA
  0
ARC
  5
1785
  8
SAPA_ANSLUTNING
 10
52.98142008934046
 20
-9.5799738370294882
 30
0.0
 40
17.6124276884123
 50
176.85720927220351
 51
222.92296833691029
1001
ACAD
1000
ASC_BOUNDS
1002
{
1070
    19
1005
17E4
1002
}
  0
ARC
  5
1786
  8
SAPA_ANSLUTNING
 10
12.659473653126581
 20
-24.2560677053077
 30
0.0
 40
17.6124276884123
 50
357.08017086920961
 51
43.145949446825412
1001
ACAD
1000
ASC_BOUNDS
1002
{
1070
    19
1005
17E4
1002
}
  0
LINE
  5
1787
  8
SAPA_ANSLUTNING
 10
25.50974883173955
 20
-12.21164837876997
 30
0.0
 11
35.395481427316902
 21
-8.6143805193759722
 31
0.0
1001
ACAD
1000
ASC_BOUNDS
1002
{
1070
    19
1005
17E4
1002
}
  0
LINE
  5
1788
  8
SAPA_ANSLUTNING
 10
30.249036676325851
 20
-25.153219717206241
 30
0.0
 11
40.084368418908582
 21
-21.574291962282061
 31
0.0
1001
ACAD
1000
ASC_BOUNDS
1002
{
1070
    19
1005
17E4
1002
}
  0
INSERT
  5
17E4
  8
SAPA_ANSLUTNING
  6
CONTINUOUS
  2
*X47
 10
0.0
 20
0.0
 30
0.0
1001
ACAD
1000
HATCH
1002
{
1070
    19
1000
ANSI37
1040
0.25
1040
0.0
1000
ASC_BOUNDS
1070
     1
1070
     1
1070
     4
1005
1785
1005
1788
1005
1786
1005
1787
1000
ASC_SEEDPOINT
1011
33.128764951903577
1021
0.0
1031
0.0
1021
-17.070702282043609
1031
0.0
1000
R14_HATCH_DATA
1000
17E4
1011
1.0
1021
0.0
1031
0.0
1021
0.0
1031
0.0
1011
0.0
1021
0.0
1031
0.0
1021
1.0
1031
0.0
1011
0.0
1021
0.0
1031
0.0
1021
0.0
1031
1.0
1040
0.0
1010
0.0
1020
0.0
1030
1.0
1000
ANSI37
1070
     0
1070
     1
1071
        1
1071
        7
1070
     1
1070
     1
1071
        4
1040
35.395481427316902
1040
-8.6143805193759722
1040
0.0
1040
25.50974883173955
1040
-12.21164837876997
1040
-0.2037512103660136
1040
30.249036676325851
1040
-25.153219717206241
1040
0.0
1040
40.084368418908582
1040
-21.574291962282061
1040
-0.2037511216902917
1071
        4
1005
1787
1005
1786
1005
1788
1005
1785
1070
     0
1070
     1
1040
0.0
1040
0.25
1070
     0
1070
     2
1040
0.7853981633974483
1040
0.0
1040
0.0
1040
-0.5612660075668221
1040
0.5612660075668221
1070
     0
1040
2.3561944901923439
1040
0.0
1040
0.0
1040
-0.5612660075668221
1040
-0.5612660075668221
1070
     0
1040
0.0300516495827495
1071
        1
1040
33.128764951903577
1040
-17.070702282043609
1040
0.0
1002
}
  0
INSERT
  5
1838
  8
SAPA_ANSLUTNING
  6
CONTINUOUS
  2
*X48
 10
0.0
 20
0.0
 30
0.0
1001
ACAD
1000
HATCH
1002
{
1070
    19
1000
HEX
1040
0.25
1040
0.0
1000
ASC_BOUNDS
1070
     1
1070
     1
1070
     1
1005
1782
1000
ASC_SEEDPOINT
1011
24.439721180732018
1021
0.0
1031
0.0
1021
-19.715247512647458
1031
0.0
1000
R14_HATCH_DATA
1000
1838
1011
1.0
1021
0.0
1031
0.0
1021
0.0
1031
0.0
1011
0.0
1021
0.0
1031
0.0
1021
1.0
1031
0.0
1011
0.0
1021
0.0
1031
0.0
1021
0.0
1031
1.0
1040
0.0
1010
0.0
1020
0.0
1030
1.0
1000
HEX
1070
     0
1070
     1
1071
        1
1071
        5
1071
        1
1070
     3
1040
24.310308810870769
1040
-20.054404139009879
1040
-2.0599524919375392
1040
6.6677110277815439
1040
0.7126862810955826
1040
0.0
1040
6.2831853071795862
1070
     1
1071
        1
1005
1782
1070
     0
1070
     1
1040
0.0
1040
0.25
1070
     0
1070
     3
1040
0.0
1040
0.0
1040
0.0
1040
0.0
1040
1.374814999999999
1070
     2
1040
0.79375
1040
-1.587499999999999
1040
2.0943951023931948
1040
0.0
1040
0.0
1040
-1.190624715503902
1040
-0.6874074999999996
1070
     2
1040
0.7937499999999998
1040
-1.587499999999999
1040
1.047197551196597
1040
0.79375
1040
0.0
1040
-1.190624715503902
1040
0.6874075000000001
1070
     2
1040
0.79375
1040
-1.587499999999999
1040
0.0300516495827495
1071
        1
1040
24.439721180732018
1040
-19.715247512647458
1040
0.0
1002
}
  0
LINE
  5
18B8
  8
SAPA_ANSLUTNING
 10
37.904029552817988
 20
-375.68808991659239
 30
0.0
 11
30.544874240118261
 21
-355.46897686869028
 31
0.0
  0
SOLID
  5
18B9
  8
SAPA_ANSLUTNING
 10
29.587027774344602
 20
-355.75625747716379
 30
0.0
 11
31.502720705891921
 21
-355.181696260217
 31
0.0
 12
28.821190589277268
 22
-349.72189807404828
 32
0.0
 13
28.821190589277268
 23
-349.72189807404828
 33
0.0
  0
LINE
  5
18BA
  8
SAPA_ANSLUTNING
 10
7.4731310681616057
 20
-292.07988347628299
 30
0.0
 11
0.1139757554618797
 21
-271.86077042838099
 31
0.0
  0
SOLID
  5
18BB
  8
SAPA_ANSLUTNING
 10
-0.8438707103117764
 20
-272.14805103685438
 30
0.0
 11
1.0718222212355351
 21
-271.57348981990759
 31
0.0
 12
-1.609707895379116
 22
-266.11369163373888
 32
0.0
 13
-1.609707895379116
 23
-266.11369163373888
 33
0.0
  0
LINE
  5
18BC
  8
SAPA_ANSLUTNING
 10
-27.409046833356001
 20
-196.24188735046431
 30
0.0
 11
-34.768202146055728
 21
-176.02277430256231
 31
0.0
  0
SOLID
  5
18BD
  8
SAPA_ANSLUTNING
 10
-35.726048611829377
 20
-176.31005491103571
 30
0.0
 11
-33.810355680282072
 21
-175.73549369408889
 31
0.0
 12
-36.491885796896732
 22
-170.2756955079202
 32
0.0
 13
-36.491885796896732
 23
-170.2756955079202
 33
0.0
  0
LINE
  5
18C8
  8
SAPA_ANSLUTNING
 10
-10.018927533555541
 20
-341.90386802358381
 30
0.0
 11
-6.5987261002988467
 21
-351.30079423144292
 31
0.0
  0
LINE
  5
18C9
  8
SAPA_ANSLUTNING
 10
-10.72369699914503
 20
-342.16038313107799
 30
0.0
 11
-9.3141580679662752
 21
-341.64735291608957
 31
0.0
  0
LINE
  5
18CA
  8
SAPA_ANSLUTNING
 10
-7.3034955658883396
 20
-351.5573093389371
 30
0.0
 11
-5.8939566347095811
 21
-351.04427912394863
 31
0.0
  0
LINE
  5
18CB
  8
SAPA_ANSLUTNING
 10
-20.27953183332561
 20
-313.71308940000648
 30
0.0
 11
-16.859330400068909
 21
-323.11001560786559
 31
0.0
  0
LINE
  5
18CC
  8
SAPA_ANSLUTNING
 10
-20.984301298915099
 20
-313.96960450750078
 30
0.0
 11
-19.574762367736341
 21
-313.4565742925123
 31
0.0
  0
LINE
  5
18CD
  8
SAPA_ANSLUTNING
 10
-17.564099865658399
 20
-323.36653071535977
 30
0.0
 11
-16.154560934479651
 21
-322.8535005003713
 31
0.0
  0
LINE
  5
18CE
  8
SAPA_ANSLUTNING
 10
-30.54013613309569
 20
-285.52231077642921
 30
0.0
 11
-27.119934699838989
 21
-294.91923698428832
 31
0.0
  0
LINE
  5
18CF
  8
SAPA_ANSLUTNING
 10
-31.244905598685179
 20
-285.7788258839235
 30
0.0
 11
-29.83536666750642
 21
-285.26579566893503
 31
0.0
  0
LINE
  5
18D0
  8
SAPA_ANSLUTNING
 10
-27.824704165428489
 20
-295.1757520917825
 30
0.0
 11
-26.415165234249731
 21
-294.66272187679402
 31
0.0
  0
LINE
  5
18D1
  8
SAPA_ANSLUTNING
 10
-40.800740432865737
 20
-257.33153215285188
 30
0.0
 11
-37.380538999609051
 21
-266.72845836071099
 31
0.0
  0
LINE
  5
18D2
  8
SAPA_ANSLUTNING
 10
-41.505509898455223
 20
-257.58804726034617
 30
0.0
 11
-40.095970967276472
 21
-257.0750170453577
 31
0.0
  0
LINE
  5
18D3
  8
SAPA_ANSLUTNING
 10
-38.085308465198537
 20
-266.98497346820523
 30
0.0
 11
-36.675769534019778
 21
-266.47194325321669
 31
0.0
  0
LINE
  5
18D4
  8
SAPA_ANSLUTNING
 10
-51.061344732635789
 20
-229.1407535292746
 30
0.0
 11
-47.641143299379102
 21
-238.53767973713369
 31
0.0
  0
LINE
  5
18D5
  8
SAPA_ANSLUTNING
 10
-51.766114198225281
 20
-229.3972686367689
 30
0.0
 11
-50.356575267046523
 21
-228.8842384217804
 31
0.0
  0
LINE
  5
18D6
  8
SAPA_ANSLUTNING
 10
-48.345912764968581
 20
-238.7941948446279
 30
0.0
 11
-46.93637383378983
 21
-238.28116462963939
 31
0.0
  0
LINE
  5
18D7
  8
SAPA_ANSLUTNING
 10
-61.32194903240584
 20
-200.94997490569739
 30
0.0
 11
-57.901747599149147
 21
-210.34690111355641
 31
0.0
  0
LINE
  5
18D8
  8
SAPA_ANSLUTNING
 10
-62.026718497995333
 20
-201.2064900131916
 30
0.0
 11
-60.617179566816581
 21
-200.69345979820321
 31
0.0
  0
LINE
  5
18D9
  8
SAPA_ANSLUTNING
 10
-58.60651706473864
 20
-210.60341622105071
 30
0.0
 11
-57.196978133559881
 21
-210.0903860060622
 31
0.0
  0
LINE
  5
18DA
  8
SAPA_ANSLUTNING
 10
-71.582553332175905
 20
-172.75919628212009
 30
0.0
 11
-68.162351898919212
 21
-182.15612248997911
 31
0.0
  0
LINE
  5
18DB
  8
SAPA_ANSLUTNING
 10
-72.287322797765398
 20
-173.0157113896143
 30
0.0
 11
-70.87778386658664
 21
-172.50268117462591
 31
0.0
  0
LINE
  5
18DC
  8
SAPA_ANSLUTNING
 10
-68.867121364508705
 20
-182.41263759747341
 30
0.0
 11
-67.457582433329947
 21
-181.89960738248479
 31
0.0
  0
LINE
  5
18DD
  8
SAPA_ANSLUTNING
 10
-81.843157631945957
 20
-144.56841765854281
 30
0.0
 11
-78.422956198689249
 21
-153.96534386640189
 31
0.0
  0
LINE
  5
18DE
  8
SAPA_ANSLUTNING
 10
-82.547927097535435
 20
-144.82493276603711
 30
0.0
 11
-81.138388166356677
 21
-144.3119025510486
 31
0.0
  0
LINE
  5
18DF
  8
SAPA_ANSLUTNING
 10
-79.127725664278742
 20
-154.2218589738961
 30
0.0
 11
-77.718186733099984
 21
-153.7088287589076
 31
0.0
  0
LINE
  5
18E0
  8
SAPA_ANSLUTNING
 10
-92.103761931715994
 20
-116.3776390349656
 30
0.0
 11
-88.6835604984593
 21
-125.77456524282471
 31
0.0
  0
LINE
  5
18E1
  8
SAPA_ANSLUTNING
 10
-92.808531397305487
 20
-116.63415414245981
 30
0.0
 11
-91.398992466126728
 21
-116.1211239274714
 31
0.0
  0
LINE
  5
18E2
  8
SAPA_ANSLUTNING
 10
-89.388329964048793
 20
-126.0310803503189
 30
0.0
 11
-87.978791032870035
 21
-125.5180501353304
 31
0.0
  0
LINE
  5
18E3
  8
SAPA_ANSLUTNING
  6
DASHDOT
 10
54.48705412613144
 20
-403.49634129849551
 30
0.0
 11
167.01417897799851
 21
-362.5398173048593
 31
0.0
  0
ARC
  5
1B2D
  8
SAPA_FOGBAND
 10
-35.878749920064458
 20
69.921604242959461
 30
0.0
 40
0.1999999999999072
 50
199.999999999956
 51
289.99999999997408
  0
LINE
  5
1B2E
  8
SAPA_FOGBAND
 10
-35.81034589139945
 20
69.733665718802342
 30
0.0
 11
-31.178103919138959
 21
71.419663914623499
 31
0.0
  0
ARC
  5
1B2F
  8
SAPA_FOGBAND
 10
-30.836083775812991
 20
70.479971293837664
 30
0.0
 40
1.0000000000000331
 50
50.345472579278429
 51
110.00000000001771
  0
LINE
  5
1B30
  8
SAPA_FOGBAND
 10
-30.197926790459508
 20
71.249877562187663
 30
0.0
 11
-26.121399420673569
 21
68.383498113103641
 31
0.0
  0
ARC
  5
1B31
  8
SAPA_FOGBAND
 10
-26.759556406028061
 20
67.613591844755334
 30
0.0
 40
0.999999999999359
 50
38.241841344460553
 51
50.345472579172032
  0
ARC
  5
1B32
  8
SAPA_FOGBAND
 10
-27.114609490738051
 20
67.415801993696277
 30
0.0
 40
1.402769144204514
 50
341.85707667742992
 51
35.609435779333097
  0
ARC
  5
1B33
  8
SAPA_FOGBAND
 10
-25.96802737040365
 20
67.051371350241425
 30
0.0
 40
0.2000000000000674
 50
245.81623060075091
 51
338.78447689250982
  0
LINE
  5
1B34
  8
SAPA_FOGBAND
 10
-26.04996029727608
 20
66.868924109938519
 30
0.0
 11
-30.154590144123901
 21
67.757890540310754
 31
0.0
  0
ARC
  5
1B35
  8
SAPA_FOGBAND
 10
-30.574781888409539
 20
66.85045519934468
 30
0.0
 40
1.0000000000000091
 50
65.153306302305964
 51
109.9999999999926
  0
LINE
  5
1B36
  8
SAPA_FOGBAND
 10
-30.916802031735092
 20
67.790147820130642
 30
0.0
 11
-31.028304065967699
 21
67.749564398610076
 31
0.0
  0
ARC
  5
1B37
  8
SAPA_FOGBAND
 10
-30.68628392264198
 20
66.809871777824029
 30
0.0
 40
1.0000000000001461
 50
109.9999999999998
 51
157.10585874597189
  0
LINE
  5
1B38
  8
SAPA_FOGBAND
 10
-31.607509113030702
 20
67.198901530662511
 30
0.0
 11
-35.104686668553533
 21
65.265568846729096
 31
0.0
  0
LINE
  5
1B39
  8
SAPA_FOGBAND
 10
-35.104686668553533
 20
65.265568846729096
 30
0.0
 11
-35.748523397883801
 21
65.418093764602517
 31
0.0
  0
LINE
  5
1B3A
  8
SAPA_FOGBAND
 10
-35.748523397883801
 20
65.418093764602517
 30
0.0
 11
-32.978766270882147
 21
67.487695462882527
 31
0.0
  0
ARC
  5
1B3B
  8
SAPA_FOGBAND
 10
-33.272079246382752
 20
67.550683544318758
 30
0.0
 40
0.3000000000000596
 50
347.87997593854828
 51
116.95295746820651
  0
LINE
  5
1B3C
  8
SAPA_FOGBAND
 10
-33.40805688293446
 20
67.818097235736843
 30
0.0
 11
-35.957040964221143
 21
66.521960044171465
 31
0.0
  0
ARC
  5
1B3D
  8
SAPA_FOGBAND
 10
-35.821063327669748
 20
66.254546352753422
 30
0.0
 40
0.2999999999998788
 50
116.952957468157
 51
199.99999999998539
  0
LINE
  5
1B3E
  8
SAPA_FOGBAND
 10
-36.102971113905447
 20
66.15194030975583
 30
0.0
 11
-36.022814320938458
 21
65.931711331063156
 31
0.0
  0
ARC
  5
1B3F
  8
SAPA_FOGBAND
 10
-36.304722107174278
 20
65.829105288065705
 30
0.0
 40
0.2999999999999572
 50
289.99999999995578
 51
19.999999999955062
  0
LINE
  5
1B40
  8
SAPA_FOGBAND
 10
-36.202116064176813
 20
65.547197501829885
 30
0.0
 11
-40.479334775783421
 21
63.990417205358632
 31
0.0
  0
LINE
  5
1B41
  8
SAPA_FOGBAND
 10
-40.479334775783421
 20
63.990417205358632
 30
0.0
 11
-46.246610421431782
 21
61.336123954711432
 31
0.0
  0
LINE
  5
1B42
  8
SAPA_FOGBAND
 10
-46.246610421431782
 20
61.336123954711432
 30
0.0
 11
-46.246610421431782
 21
61.336123954711432
 31
0.0
  0
LINE
  5
1B43
  8
SAPA_FOGBAND
 10
-46.246610421431782
 20
61.336123954711432
 30
0.0
 11
-46.941436263851728
 21
61.526269417961323
 31
0.0
  0
ARC
  5
1B44
  8
SAPA_FOGBAND
 10
-68.172788036596955
 20
56.988139071513473
 30
0.0
 40
21.710940217765859
 50
12.06522376247934
 51
15.369664331739591
  0
LINE
  5
1B45
  8
SAPA_FOGBAND
 10
-47.238320713273353
 20
62.742528963422011
 30
0.0
 11
-42.985866714361123
 21
66.057811951411296
 31
0.0
  0
LINE
  5
1B46
  8
SAPA_FOGBAND
 10
-42.985866714361123
 20
66.057811951411296
 30
0.0
 11
-43.61860397951358
 21
67.796243299865139
 31
0.0
  0
ARC
  5
1B47
  8
SAPA_FOGBAND
 10
-43.477650086395613
 20
67.847546321364021
 30
0.0
 40
0.1500000000000797
 50
109.9999999999981
 51
200.00000000000159
  0
LINE
  5
1B48
  8
SAPA_FOGBAND
 10
-43.528953107894488
 20
67.988500214481988
 30
0.0
 11
-42.480076733223008
 21
68.37025999428721
 31
0.0
  0
ARC
  5
1B49
  8
SAPA_FOGBAND
 10
-42.428773711724311
 20
68.229306101169556
 30
0.0
 40
0.1499999999997319
 50
26.530215321818869
 51
109.9999999999778
  0
LINE
  5
1B4A
  8
SAPA_FOGBAND
 10
-42.29456887197005
 20
68.296306556290801
 30
0.0
 11
-41.964519181673921
 21
67.635202602341451
 31
0.0
  0
ARC
  5
1B4B
  8
SAPA_FOGBAND
 10
-41.830314341919532
 20
67.702203057463024
 30
0.0
 40
0.1499999999999971
 50
206.53021532190749
 51
290.0000000000627
  0
LINE
  5
1B4C
  8
SAPA_FOGBAND
 10
-41.77901132042053
 20
67.561249164345199
 30
0.0
 11
-38.629423753757251
 21
68.707605288825548
 31
0.0
  0
ARC
  5
1B4D
  8
SAPA_FOGBAND
 10
-38.697827782422202
 20
68.895543812982851
 30
0.0
 40
0.2000000000000492
 50
289.99999999993679
 51
19.999999999936861
  0
LINE
  5
1B4E
  8
SAPA_FOGBAND
 10
-38.509889258264892
 20
68.963947841647794
 30
0.0
 11
-38.783505372925831
 21
69.715701938276311
 31
0.0
  0
ARC
  5
1B4F
  8
SAPA_FOGBAND
 10
-38.595566848768463
 20
69.784105966941397
 30
0.0
 40
0.2000000000001579
 50
109.9999999999681
 51
199.99999999996879
  0
LINE
  5
1B50
  8
SAPA_FOGBAND
 10
-38.663970877433549
 20
69.972044491098771
 30
0.0
 11
-38.288093829119099
 21
70.10885254842907
 31
0.0
  0
ARC
  5
1B51
  8
SAPA_FOGBAND
 10
-38.356497857784291
 20
70.296791072586132
 30
0.0
 40
0.1999999999999048
 50
290.00000000002558
 51
20.000000000042949
  0
LINE
  5
1B52
  8
SAPA_FOGBAND
 10
-38.168559333627243
 20
70.365195101251373
 30
0.0
 11
-38.535067711643777
 21
71.372168593892724
 31
0.0
  0
ARC
  5
1B53
  8
SAPA_FOGBAND
 10
-38.629036973722393
 20
71.337966579560202
 30
0.0
 40
0.1000000000000015
 50
19.99999999997198
 51
160.55544447106499
  0
LINE
  5
1B54
  8
SAPA_FOGBAND
 10
-38.723333380799389
 20
71.371256031528773
 30
0.0
 11
-39.149782169671028
 21
70.163288155368264
 31
0.0
  0
ARC
  5
1B55
  8
SAPA_FOGBAND
 10
-39.526967797979133
 20
70.296445963242363
 30
0.0
 40
0.4000000000000126
 50
160.5554444710985
 51
340.55544447109401
  0
LINE
  5
1B56
  8
SAPA_FOGBAND
 10
-39.904153426287237
 20
70.429603771116433
 30
0.0
 11
-39.30494329085424
 21
72.126939098503129
 31
0.0
  0
ARC
  5
1B57
  8
SAPA_FOGBAND
 10
-38.126238202391633
 20
71.710820948896696
 30
0.0
 40
1.2499999999998159
 50
109.999999999991
 51
160.55544447109651
  0
ARC
  5
1B58
  8
SAPA_FOGBAND
 10
-38.126238202391242
 20
71.710820948896824
 30
0.0
 40
1.249999999999825
 50
59.444555528904552
 51
110.0000000000099
  0
LINE
  5
1B59
  8
SAPA_FOGBAND
 10
-37.490773310031109
 20
72.787242971422046
 30
0.0
 11
-35.940725597594671
 21
71.87217352642287
 31
0.0
  0
ARC
  5
1B5A
  8
SAPA_FOGBAND
 10
-36.144074363149969
 20
71.527718479214755
 30
0.0
 40
0.4000000000000099
 50
239.44455552890719
 51
59.4445555289007
  0
LINE
  5
1B5B
  8
SAPA_FOGBAND
 10
-36.347423128705231
 20
71.183263432006612
 30
0.0
 11
-37.450568637390518
 21
71.834504513353068
 31
0.0
  0
ARC
  5
1B5C
  8
SAPA_FOGBAND
 10
-37.501405828779291
 20
71.748390751551014
 30
0.0
 40
0.0999999999999977
 50
59.444555528933357
 51
200.00000000003249
  0
LINE
  5
1B5D
  8
SAPA_FOGBAND
 10
-37.595375090857871
 20
71.714188737218393
 30
0.0
 11
-37.228866712841409
 21
70.707215244577242
 31
0.0
  0
ARC
  5
1B5E
  8
SAPA_FOGBAND
 10
-37.040928188684241
 20
70.775619273242299
 30
0.0
 40
0.1999999999999612
 50
199.9999999999807
 51
289.99999999995998
  0
LINE
  5
1B5F
  8
SAPA_FOGBAND
 10
-36.972524160019248
 20
70.587680749085095
 30
0.0
 11
-36.596647111704719
 21
70.724488806415181
 31
0.0
  0
ARC
  5
1B60
  8
SAPA_FOGBAND
 10
-36.528243083039349
 20
70.536550282258034
 30
0.0
 40
0.2000000000000348
 50
20.00000000006381
 51
110.0000000000683
  0
LINE
  5
1B61
  8
SAPA_FOGBAND
 10
-36.34030455888221
 20
70.604954310923404
 30
0.0
 11
-36.066688444221612
 21
69.853200214294503
 31
0.0
  0
POLYLINE
  5
1CA2
  8
SAPA_PROFIL
 66
     1
 10
0.0
 20
0.0
 30
0.0
 70
     1
  0
VERTEX
  5
1FBE
  8
SAPA_PROFIL
 10
-145.49489787697769
 20
-60.317143248117077
 30
0.0
  0
VERTEX
  5
1FBF
  8
SAPA_PROFIL
 10
-137.2864144371616
 20
-82.869766146978861
 30
0.0
 42
0.4142135623730951
  0
VERTEX
  5
1FC0
  8
SAPA_PROFIL
 10
-134.72298890893839
 20
-84.065111101899333
 30
0.0
  0
VERTEX
  5
1FC1
  8
SAPA_PROFIL
 10
-133.78329628815251
 20
-83.723090958573664
 30
0.0
  0
VERTEX
  5
1FC2
  8
SAPA_PROFIL
 10
-144.04390058792259
 20
-55.53231233499644
 30
0.0
  0
VERTEX
  5
1FC3
  8
SAPA_PROFIL
 10
-161.89806038285479
 20
-62.030695058184158
 30
0.0
 42
-0.4142135623730951
  0
VERTEX
  5
1FC4
  8
SAPA_PROFIL
 10
-163.1797731469664
 20
-61.4330225807239
 30
0.0
  0
VERTEX
  5
1FC5
  8
SAPA_PROFIL
 10
-171.38825658678249
 20
-38.880399681862059
 30
0.0
 42
0.4142135623730951
  0
VERTEX
  5
1FC6
  8
SAPA_PROFIL
 10
-173.9516821150057
 20
-37.685054726941637
 30
0.0
  0
VERTEX
  5
1FC7
  8
SAPA_PROFIL
 10
-174.8913747357916
 20
-38.027074870267263
 30
0.0
  0
VERTEX
  5
1FC8
  8
SAPA_PROFIL
 10
-164.63077043602149
 20
-66.217853493844515
 30
0.0
  0
VERTEX
  5
1FC9
  8
SAPA_PROFIL
 10
-146.77661064108929
 20
-59.719470770656812
 30
0.0
 42
-0.4142135623730951
  0
SEQEND
  5
1FCA
  8
SAPA_PROFIL
  0
POLYLINE
  5
1CA3
  8
SAPA_PROFIL
  6
CONTINUOUS
 62
     7
 66
     1
 10
0.0
 20
0.0
 30
0.0
 70
     1
  0
VERTEX
  5
1FCB
  8
SAPA_PROFIL
  6
CONTINUOUS
 62
     7
 10
-2.7595631266110661
 20
88.650495968704973
 30
0.0
 42
-0.577350269189556
  0
VERTEX
  5
1FCC
  8
SAPA_PROFIL
  6
CONTINUOUS
 62
     7
 10
-2.2027106370865259
 20
87.120556327767972
 30
0.0
  0
VERTEX
  5
1FCD
  8
SAPA_PROFIL
  6
CONTINUOUS
 62
     7
 10
-2.6436432720823171
 20
86.595073261625146
 30
0.0
 42
0.4142135584498797
  0
VERTEX
  5
1FCE
  8
SAPA_PROFIL
  6
CONTINUOUS
 62
     7
 10
-2.6066662194696129
 20
86.172423648861795
 30
0.0
  0
VERTEX
  5
1FCF
  8
SAPA_PROFIL
  6
CONTINUOUS
 62
     7
 10
-1.114353259911635
 20
84.920224394895655
 30
0.0
  0
VERTEX
  5
1FD0
  8
SAPA_PROFIL
  6
CONTINUOUS
 62
     7
 10
-0.268629901204231
 20
85.228042523888803
 30
0.0
 42
-1.0000000000000351
  0
VERTEX
  5
1FD1
  8
SAPA_PROFIL
  6
CONTINUOUS
 62
     7
 10
0.1417942707864137
 20
84.100411378945708
 30
0.0
  0
VERTEX
  5
1FD2
  8
SAPA_PROFIL
  6
CONTINUOUS
 62
     7
 10
-0.8000810476540829
 20
83.757596798643647
 30
0.0
 42
0.4142135623731922
  0
VERTEX
  5
1FD3
  8
SAPA_PROFIL
  6
CONTINUOUS
 62
     7
 10
-0.9793827908922363
 20
83.373082969410106
 30
0.0
  0
VERTEX
  5
1FD4
  8
SAPA_PROFIL
  6
CONTINUOUS
 62
     7
 10
-0.8494016331184512
 20
83.015962673472046
 30
0.0
 42
-0.4142135623730951
  0
VERTEX
  5
1FD5
  8
SAPA_PROFIL
  6
CONTINUOUS
 62
     7
 10
-1.0287033763565141
 20
82.631448844238605
 30
0.0
  0
VERTEX
  5
1FD6
  8
SAPA_PROFIL
  6
CONTINUOUS
 62
     7
 10
-3.2912429233396949
 20
81.807951795286584
 30
0.0
  0
VERTEX
  5
1FD7
  8
SAPA_PROFIL
  6
CONTINUOUS
 62
     7
 10
-3.9918995076716892
 20
82.041160578584154
 30
0.0
 42
-0.7105995015650364
  0
VERTEX
  5
1FD8
  8
SAPA_PROFIL
  6
CONTINUOUS
 62
     7
 10
-3.999762792159312
 20
82.607715180558131
 30
0.0
  0
VERTEX
  5
1FD9
  8
SAPA_PROFIL
  6
CONTINUOUS
 62
     7
 10
-3.3419779576092452
 20
82.847129280886037
 30
0.0
  0
VERTEX
  5
1FDA
  8
SAPA_PROFIL
  6
CONTINUOUS
 62
     7
 10
-4.2675324103118557
 20
85.390069240162333
 30
0.0
 42
0.4142135623731784
  0
VERTEX
  5
1FDB
  8
SAPA_PROFIL
  6
CONTINUOUS
 62
     7
 10
-4.6520462395454114
 20
85.569370983400404
 30
0.0
  0
VERTEX
  5
1FDC
  8
SAPA_PROFIL
  6
CONTINUOUS
 62
     7
 10
-8.7866937710031152
 20
84.064482352767556
 30
0.0
 42
0.4142135623731367
  0
VERTEX
  5
1FDD
  8
SAPA_PROFIL
  6
CONTINUOUS
 62
     7
 10
-8.9659955142411611
 20
83.6799685235341
 30
0.0
  0
VERTEX
  5
1FDE
  8
SAPA_PROFIL
  6
CONTINUOUS
 62
     7
 10
-8.0404410615385196
 20
81.137028564257804
 30
0.0
  0
VERTEX
  5
1FDF
  8
SAPA_PROFIL
  6
CONTINUOUS
 62
     7
 10
-7.3826562269886269
 20
81.376442664585809
 30
0.0
 42
-0.7105995015649959
  0
VERTEX
  5
1FE0
  8
SAPA_PROFIL
  6
CONTINUOUS
 62
     7
 10
-7.0245055740152704
 20
80.937382238180106
 30
0.0
  0
VERTEX
  5
1FE1
  8
SAPA_PROFIL
  6
CONTINUOUS
 62
     7
 10
-7.4113359406037471
 20
80.308360574594218
 30
0.0
  0
VERTEX
  5
1FE2
  8
SAPA_PROFIL
  6
CONTINUOUS
 62
     7
 10
-15.07492535945128
 20
77.519042138496303
 30
0.0
 42
0.4142135623731022
  0
VERTEX
  5
1FE3
  8
SAPA_PROFIL
  6
CONTINUOUS
 62
     7
 10
-15.254227102689329
 20
77.134528309262819
 30
0.0
  0
VERTEX
  5
1FE4
  8
SAPA_PROFIL
  6
CONTINUOUS
 62
     7
 10
-15.11741904535908
 20
76.758651260948454
 30
0.0
 42
-0.4142135623730883
  0
VERTEX
  5
1FE5
  8
SAPA_PROFIL
  6
CONTINUOUS
 62
     7
 10
-15.29672078859714
 20
76.374137431714985
 30
0.0
  0
VERTEX
  5
1FE6
  8
SAPA_PROFIL
  6
CONTINUOUS
 62
     7
 10
-15.67259783691151
 20
76.2373293743847
 30
0.0
 42
-0.4142135623730951
  0
VERTEX
  5
1FE7
  8
SAPA_PROFIL
  6
CONTINUOUS
 62
     7
 10
-16.057111666145001
 20
76.416631117622785
 30
0.0
  0
VERTEX
  5
1FE8
  8
SAPA_PROFIL
  6
CONTINUOUS
 62
     7
 10
-16.193919723475251
 20
76.79250816593715
 30
0.0
 42
0.4142135623730744
  0
VERTEX
  5
1FE9
  8
SAPA_PROFIL
  6
CONTINUOUS
 62
     7
 10
-16.57843355270872
 20
76.971809909175221
 30
0.0
  0
VERTEX
  5
1FEA
  8
SAPA_PROFIL
  6
CONTINUOUS
 62
     7
 10
-18.786711211555598
 20
76.168062572359915
 30
0.0
 42
-0.4142135623730951
  0
VERTEX
  5
1FEB
  8
SAPA_PROFIL
  6
CONTINUOUS
 62
     7
 10
-19.171225040789061
 20
76.347364315597986
 30
0.0
  0
VERTEX
  5
1FEC
  8
SAPA_PROFIL
  6
CONTINUOUS
 62
     7
 10
-19.308046601429329
 20
76.723278463951672
 30
0.0
 42
0.4142135623730673
  0
VERTEX
  5
1FED
  8
SAPA_PROFIL
  6
CONTINUOUS
 62
     7
 10
-19.692560430662791
 20
76.902580207189743
 30
0.0
  0
VERTEX
  5
1FEE
  8
SAPA_PROFIL
  6
CONTINUOUS
 62
     7
 10
-21.196068623920151
 20
76.355347977868931
 30
0.0
  0
VERTEX
  5
1FEF
  8
SAPA_PROFIL
  6
CONTINUOUS
 62
     7
 10
-21.836925005976081
 20
76.654184216598793
 30
0.0
  0
VERTEX
  5
1FF0
  8
SAPA_PROFIL
  6
CONTINUOUS
 62
     7
 10
-22.135761244706391
 20
76.013327834543134
 30
0.0
  0
VERTEX
  5
1FF1
  8
SAPA_PROFIL
  6
CONTINUOUS
 62
     7
 10
-23.639269437963751
 20
75.466095605221895
 30
0.0
 42
0.4142135623730813
  0
VERTEX
  5
1FF2
  8
SAPA_PROFIL
  6
CONTINUOUS
 62
     7
 10
-23.818571181201811
 20
75.081581775988411
 30
0.0
  0
VERTEX
  5
1FF3
  8
SAPA_PROFIL
  6
CONTINUOUS
 62
     7
 10
-23.681749620561529
 20
74.705667627634739
 30
0.0
 42
-0.4142135623731019
  0
VERTEX
  5
1FF4
  8
SAPA_PROFIL
  6
CONTINUOUS
 62
     7
 10
-23.861051363799611
 20
74.321153798401255
 30
0.0
  0
VERTEX
  5
1FF5
  8
SAPA_PROFIL
  6
CONTINUOUS
 62
     7
 10
-26.069329022646421
 20
73.517406461585949
 30
0.0
 42
0.4142135623730951
  0
VERTEX
  5
1FF6
  8
SAPA_PROFIL
  6
CONTINUOUS
 62
     7
 10
-26.248630765884471
 20
73.132892632352494
 30
0.0
  0
VERTEX
  5
1FF7
  8
SAPA_PROFIL
  6
CONTINUOUS
 62
     7
 10
-26.111822708554211
 20
72.757015584038129
 30
0.0
 42
-0.4142135623730951
  0
VERTEX
  5
1FF8
  8
SAPA_PROFIL
  6
CONTINUOUS
 62
     7
 10
-26.2911244517923
 20
72.372501754804659
 30
0.0
  0
VERTEX
  5
1FF9
  8
SAPA_PROFIL
  6
CONTINUOUS
 62
     7
 10
-26.667001500106661
 20
72.235693697474403
 30
0.0
 42
-0.4142135623731157
  0
VERTEX
  5
1FFA
  8
SAPA_PROFIL
  6
CONTINUOUS
 62
     7
 10
-27.05151532934012
 20
72.414995440712474
 30
0.0
  0
VERTEX
  5
1FFB
  8
SAPA_PROFIL
  6
CONTINUOUS
 62
     7
 10
-27.18832338667038
 20
72.790872489026825
 30
0.0
 42
0.4142135623730951
  0
VERTEX
  5
1FFC
  8
SAPA_PROFIL
  6
CONTINUOUS
 62
     7
 10
-27.572837215903849
 20
72.97017423226491
 30
0.0
  0
VERTEX
  5
1FFD
  8
SAPA_PROFIL
  6
CONTINUOUS
 62
     7
 10
-35.236426634751467
 20
70.180855796166952
 30
0.0
  0
VERTEX
  5
1FFE
  8
SAPA_PROFIL
  6
CONTINUOUS
 62
     7
 10
-35.937083219083689
 20
70.414064579464764
 30
0.0
 42
-0.7105995015650303
  0
VERTEX
  5
1FFF
  8
SAPA_PROFIL
  6
CONTINUOUS
 62
     7
 10
-35.944946503571259
 20
70.980619181438755
 30
0.0
  0
VERTEX
  5
2000
  8
SAPA_PROFIL
  6
CONTINUOUS
 62
     7
 10
-35.287161669021252
 20
71.220033281766547
 30
0.0
  0
VERTEX
  5
2001
  8
SAPA_PROFIL
  6
CONTINUOUS
 62
     7
 10
-36.212716121723922
 20
73.762973241042843
 30
0.0
 42
0.4142135623731644
  0
VERTEX
  5
2002
  8
SAPA_PROFIL
  6
CONTINUOUS
 62
     7
 10
-36.59722995095747
 20
73.942274984280886
 30
0.0
  0
VERTEX
  5
2003
  8
SAPA_PROFIL
  6
CONTINUOUS
 62
     7
 10
-40.731877482415157
 20
72.437386353648023
 30
0.0
 42
0.4142135623731539
  0
VERTEX
  5
2004
  8
SAPA_PROFIL
  6
CONTINUOUS
 62
     7
 10
-40.911179225653271
 20
72.052872524414568
 30
0.0
  0
VERTEX
  5
2005
  8
SAPA_PROFIL
  6
CONTINUOUS
 62
     7
 10
-39.985624772950487
 20
69.509932565138314
 30
0.0
  0
VERTEX
  5
2006
  8
SAPA_PROFIL
  6
CONTINUOUS
 62
     7
 10
-39.327839938400572
 20
69.749346665466334
 30
0.0
 42
-0.7105995015649943
  0
VERTEX
  5
2007
  8
SAPA_PROFIL
  6
CONTINUOUS
 62
     7
 10
-38.969689285427172
 20
69.310286239060531
 30
0.0
  0
VERTEX
  5
2008
  8
SAPA_PROFIL
  6
CONTINUOUS
 62
     7
 10
-39.356519652015642
 20
68.681264575474984
 30
0.0
  0
VERTEX
  5
2009
  8
SAPA_PROFIL
  6
CONTINUOUS
 62
     7
 10
-41.619059198998798
 20
67.857767526522977
 30
0.0
 42
-0.4142135623730951
  0
VERTEX
  5
200A
  8
SAPA_PROFIL
  6
CONTINUOUS
 62
     7
 10
-42.003573028232289
 20
68.037069269761034
 30
0.0
  0
VERTEX
  5
200B
  8
SAPA_PROFIL
  6
CONTINUOUS
 62
     7
 10
-42.133554186006108
 20
68.394189565699065
 30
0.0
 42
0.4142135623731366
  0
VERTEX
  5
200C
  8
SAPA_PROFIL
  6
CONTINUOUS
 62
     7
 10
-42.518068015239649
 20
68.57349130893715
 30
0.0
  0
VERTEX
  5
200D
  8
SAPA_PROFIL
  6
CONTINUOUS
 62
     7
 10
-43.459943333680108
 20
68.230676728634819
 30
0.0
 42
-1.000000000000091
  0
VERTEX
  5
200E
  8
SAPA_PROFIL
  6
CONTINUOUS
 62
     7
 10
-43.870367505670927
 20
69.358307873577587
 30
0.0
  0
VERTEX
  5
200F
  8
SAPA_PROFIL
  6
CONTINUOUS
 62
     7
 10
-43.024644146963439
 20
69.666126002570749
 30
0.0
  0
VERTEX
  5
2010
  8
SAPA_PROFIL
  6
CONTINUOUS
 62
     7
 10
-42.686364262207832
 20
71.584606562927704
 30
0.0
 42
0.4142135584498586
  0
VERTEX
  5
2011
  8
SAPA_PROFIL
  6
CONTINUOUS
 62
     7
 10
-42.929712130854043
 20
71.932143341433658
 30
0.0
  0
VERTEX
  5
2012
  8
SAPA_PROFIL
  6
CONTINUOUS
 62
     7
 10
-43.605260129699033
 20
72.051260689723748
 30
0.0
 42
-0.5773502691895934
  0
VERTEX
  5
2013
  8
SAPA_PROFIL
  6
CONTINUOUS
 62
     7
 10
-44.162112619224423
 20
73.581200330660465
 30
0.0
  0
VERTEX
  5
2014
  8
SAPA_PROFIL
  6
CONTINUOUS
 62
     7
 10
-43.36764980920416
 20
74.52800421813852
 30
0.0
 42
-0.1316524948697513
  0
VERTEX
  5
2015
  8
SAPA_PROFIL
  6
CONTINUOUS
 62
     7
 10
-42.943625516279262
 20
74.824909221052451
 30
0.0
  0
VERTEX
  5
2016
  8
SAPA_PROFIL
  6
CONTINUOUS
 62
     7
 10
-4.492419065635298
 20
88.820003840711465
 30
0.0
 42
-0.1316524948697554
  0
VERTEX
  5
2017
  8
SAPA_PROFIL
  6
CONTINUOUS
 62
     7
 10
-3.9767507551657211
 20
88.865118974793205
 30
0.0
  0
SEQEND
  5
2018
  8
SAPA_PROFIL
  6
CONTINUOUS
 62
     7
  0
POLYLINE
  5
1CA4
  8
SAPA_PROFIL
 62
     4
 66
     1
 10
0.0
 20
0.0
 30
0.0
 70
     1
  0
VERTEX
  5
2019
  8
SAPA_PROFIL
 62
     4
 10
-14.31575141192941
 20
52.627554538969427
 30
0.0
  0
VERTEX
  5
201A
  8
SAPA_PROFIL
 62
     4
 10
-13.563307096612929
 20
50.560230773240391
 30
0.0
 42
1.0
  0
VERTEX
  5
201B
  8
SAPA_PROFIL
 62
     4
 10
-11.40201406880538
 20
51.346877102889408
 30
0.0
  0
VERTEX
  5
201C
  8
SAPA_PROFIL
 62
     4
 10
-12.15445838412176
 20
53.414200868618487
 30
0.0
 42
1.0
  0
SEQEND
  5
201D
  8
SAPA_PROFIL
 62
     4
  0
POLYLINE
  5
1CA5
  8
SAPA_PROFIL
 62
     4
 66
     1
 10
0.0
 20
0.0
 30
0.0
 70
     1
  0
VERTEX
  5
201E
  8
SAPA_PROFIL
 62
     4
 10
-22.17548055255315
 20
65.889140335397769
 30
0.0
  0
VERTEX
  5
201F
  8
SAPA_PROFIL
 62
     4
 10
-23.218926601429079
 20
68.755984793103536
 30
0.0
  0
VERTEX
  5
2020
  8
SAPA_PROFIL
 62
     4
 10
-24.357117482877399
 20
71.883138538911936
 30
0.0
 42
-0.6681786379192966
  0
VERTEX
  5
2021
  8
SAPA_PROFIL
 62
     4
 10
-23.675962041614131
 20
72.507302504093033
 30
0.0
  0
VERTEX
  5
2022
  8
SAPA_PROFIL
 62
     4
 10
-20.924834036336541
 20
71.224430438882422
 30
0.0
 42
0.1989123679837333
  0
VERTEX
  5
2023
  8
SAPA_PROFIL
 62
     4
 10
-20.160195629163599
 20
71.191045604150844
 30
0.0
  0
VERTEX
  5
2024
  8
SAPA_PROFIL
 62
     4
 10
-19.609736436369101
 20
71.391396365506225
 30
0.0
 42
0.1989123667755704
  0
VERTEX
  5
2025
  8
SAPA_PROFIL
 62
     4
 10
-19.045448793640439
 20
71.908470722444861
 30
0.0
  0
VERTEX
  5
2026
  8
SAPA_PROFIL
 62
     4
 10
-17.76257672050134
 20
74.659598744724775
 30
0.0
 42
-0.6681786379192936
  0
VERTEX
  5
2027
  8
SAPA_PROFIL
 62
     4
 10
-16.839576516590139
 20
74.619299685517291
 30
0.0
  0
VERTEX
  5
2028
  8
SAPA_PROFIL
 62
     4
 10
-15.70138563514182
 20
71.492145939708877
 30
0.0
  0
VERTEX
  5
2029
  8
SAPA_PROFIL
 62
     4
 10
-14.657939586265879
 20
68.62530148200311
 30
0.0
 42
-0.4142135623730951
  0
VERTEX
  5
202A
  8
SAPA_PROFIL
 62
     4
 10
-14.956775824996001
 20
67.984445099947322
 30
0.0
  0
VERTEX
  5
202B
  8
SAPA_PROFIL
 62
     4
 10
-21.534624170497359
 20
65.590304096667637
 30
0.0
 42
-0.4142135623730951
  0
SEQEND
  5
202C
  8
SAPA_PROFIL
 62
     4
  0
POLYLINE
  5
1CA6
  8
SAPA_PROFIL
 62
     4
 66
     1
 10
0.0
 20
0.0
 30
0.0
 70
     1
  0
VERTEX
  5
202D
  8
SAPA_PROFIL
 62
     4
 10
-12.381973324390801
 20
58.237251733623651
 30
0.0
  0
VERTEX
  5
202E
  8
SAPA_PROFIL
 62
     4
 10
-13.25585745566636
 20
56.430127453783399
 30
0.0
 42
-0.9251773977986363
  0
VERTEX
  5
202F
  8
SAPA_PROFIL
 62
     4
 10
-15.410631014184499
 20
55.64585401689893
 30
0.0
  0
VERTEX
  5
2030
  8
SAPA_PROFIL
 62
     4
 10
-17.24166219312313
 20
56.468469637610291
 30
0.0
  0
VERTEX
  5
2031
  8
SAPA_PROFIL
 62
     4
 10
-18.100741931507649
 20
56.155790183977132
 30
0.0
 42
-0.4142135623730769
  0
VERTEX
  5
2032
  8
SAPA_PROFIL
 62
     4
 10
-18.741598313563429
 20
56.45462642270725
 30
0.0
  0
VERTEX
  5
2033
  8
SAPA_PROFIL
 62
     4
 10
-21.491440265901812
 20
64.009755093825945
 30
0.0
 42
-0.4142135623730951
  0
VERTEX
  5
2034
  8
SAPA_PROFIL
 62
     4
 10
-21.19260402717169
 20
64.650611475881732
 30
0.0
  0
VERTEX
  5
2035
  8
SAPA_PROFIL
 62
     4
 10
-14.61475568167033
 20
67.044752479161417
 30
0.0
 42
-0.4142135623730951
  0
VERTEX
  5
2036
  8
SAPA_PROFIL
 62
     4
 10
-13.973899299614541
 20
66.745916240431285
 30
0.0
  0
VERTEX
  5
2037
  8
SAPA_PROFIL
 62
     4
 10
-11.224057347276171
 20
59.19078756931259
 30
0.0
 42
-0.4142135623730951
  0
VERTEX
  5
2038
  8
SAPA_PROFIL
 62
     4
 10
-11.52289358600629
 20
58.54993118725681
 30
0.0
  0
SEQEND
  5
2039
  8
SAPA_PROFIL
 62
     4
  0
POLYLINE
  5
1CA7
  8
SAPA_PROFIL
 62
     4
 66
     1
 10
0.0
 20
0.0
 30
0.0
 70
     1
  0
VERTEX
  5
203A
  8
SAPA_PROFIL
 62
     4
 10
-19.732593955848081
 20
56.25356017249949
 30
0.0
 42
-1.0
  0
VERTEX
  5
203B
  8
SAPA_PROFIL
 62
     4
 10
-20.954194362869831
 20
55.808933986176079
 30
0.0
  0
VERTEX
  5
203C
  8
SAPA_PROFIL
 62
     4
 10
-21.244911484696651
 20
56.607672713844131
 30
0.0
  0
VERTEX
  5
203D
  8
SAPA_PROFIL
 62
     4
 10
-21.19792685365729
 20
56.624773721010442
 30
0.0
 42
1.0
  0
VERTEX
  5
203E
  8
SAPA_PROFIL
 62
     4
 10
-21.368936925320131
 20
57.094620031403387
 30
0.0
  0
VERTEX
  5
203F
  8
SAPA_PROFIL
 62
     4
 10
-21.791798604673829
 20
56.940710966906828
 30
0.0
 42
0.4142135623730951
  0
VERTEX
  5
2040
  8
SAPA_PROFIL
 62
     4
 10
-21.971100347911829
 20
56.556197137673308
 30
0.0
  0
VERTEX
  5
2041
  8
SAPA_PROFIL
 62
     4
 10
-21.389666104258222
 20
54.958719682337318
 30
0.0
 42
0.4225789089359373
  0
VERTEX
  5
2042
  8
SAPA_PROFIL
 62
     4
 10
-20.121634145879629
 20
54.398634909708399
 30
0.0
  0
VERTEX
  5
2043
  8
SAPA_PROFIL
 62
     4
 10
-17.302556283521898
 20
55.424695339685407
 30
0.0
  0
VERTEX
  5
2044
  8
SAPA_PROFIL
 62
     4
 10
-16.213100434027179
 20
54.91667373384427
 30
0.0
  0
VERTEX
  5
2045
  8
SAPA_PROFIL
 62
     4
 10
-14.109676552574321
 20
49.13756411601095
 30
0.0
 42
0.4142135623730951
  0
VERTEX
  5
2046
  8
SAPA_PROFIL
 62
     4
 10
-12.827963788462741
 20
48.539891638550721
 30
0.0
  0
VERTEX
  5
2047
  8
SAPA_PROFIL
 62
     4
 10
-10.666670760655199
 20
49.32653796819973
 30
0.0
 42
0.4142135623730951
  0
VERTEX
  5
2048
  8
SAPA_PROFIL
 62
     4
 10
-10.06899828319496
 20
50.608250732311312
 30
0.0
  0
VERTEX
  5
2049
  8
SAPA_PROFIL
 62
     4
 10
-12.172422164647781
 20
56.387360350144519
 30
0.0
  0
VERTEX
  5
204A
  8
SAPA_PROFIL
 62
     4
 10
-11.664400558806561
 20
57.47681619963938
 30
0.0
  0
VERTEX
  5
204B
  8
SAPA_PROFIL
 62
     4
 10
-8.8453226964488341
 20
58.502876629616402
 30
0.0
 42
0.4225789089359373
  0
VERTEX
  5
204C
  8
SAPA_PROFIL
 62
     4
 10
-8.2339694132555952
 20
59.747001688896653
 30
0.0
  0
VERTEX
  5
204D
  8
SAPA_PROFIL
 62
     4
 10
-8.8154036569092078
 20
61.344479144232629
 30
0.0
 42
0.4142135623730951
  0
VERTEX
  5
204E
  8
SAPA_PROFIL
 62
     4
 10
-9.1999174861427822
 20
61.523780887470743
 30
0.0
  0
VERTEX
  5
204F
  8
SAPA_PROFIL
 62
     4
 10
-9.622779165496377
 20
61.369871822974218
 30
0.0
 42
1.0
  0
VERTEX
  5
2050
  8
SAPA_PROFIL
 62
     4
 10
-9.4517690938335441
 20
60.900025512581259
 30
0.0
  0
VERTEX
  5
2051
  8
SAPA_PROFIL
 62
     4
 10
-9.4047844627941828
 20
60.917126519747569
 30
0.0
  0
VERTEX
  5
2052
  8
SAPA_PROFIL
 62
     4
 10
-9.1140673409673578
 20
60.118387792079517
 30
0.0
 42
-1.0
  0
VERTEX
  5
2053
  8
SAPA_PROFIL
 62
     4
 10
-10.335667747989101
 20
59.673761605756127
 30
0.0
  0
VERTEX
  5
2054
  8
SAPA_PROFIL
 62
     4
 10
-14.76169301435591
 20
71.834166083034546
 30
0.0
  0
VERTEX
  5
2055
  8
SAPA_PROFIL
 62
     4
 10
-16.62541818374817
 20
76.954708902009003
 30
0.0
  0
VERTEX
  5
2056
  8
SAPA_PROFIL
 62
     4
 10
-18.034957114927021
 20
76.441678687020499
 30
0.0
  0
VERTEX
  5
2057
  8
SAPA_PROFIL
 62
     4
 10
-19.915501655167539
 20
72.408837906148236
 30
0.0
 42
-0.4142135623730951
  0
VERTEX
  5
2058
  8
SAPA_PROFIL
 62
     4
 10
-20.57996467955611
 20
72.166993143500292
 30
0.0
  0
VERTEX
  5
2059
  8
SAPA_PROFIL
 62
     4
 10
-24.61280546042838
 20
74.047537683740813
 30
0.0
  0
VERTEX
  5
205A
  8
SAPA_PROFIL
 62
     4
 10
-26.02234439160727
 20
73.534507468752309
 30
0.0
  0
VERTEX
  5
205B
  8
SAPA_PROFIL
 62
     4
 10
-24.15861922221497
 20
68.413964649777867
 30
0.0
  0
VERTEX
  5
205C
  8
SAPA_PROFIL
 62
     4
 10
-19.83519999884577
 20
56.535467958735232
 30
0.0
  0
SEQEND
  5
205D
  8
SAPA_PROFIL
 62
     4
  0
POLYLINE
  5
1CA8
  8
SAPA_PROFIL
 66
     1
 10
0.0
 20
0.0
 30
0.0
 70
     1
  0
VERTEX
  5
205E
  8
SAPA_PROFIL
 10
11.90589202440944
 20
10.70731516352958
 30
0.0
 42
-0.4142135623732062
  0
VERTEX
  5
205F
  8
SAPA_PROFIL
 10
12.29040585364308
 20
10.528013420291639
 30
0.0
  0
VERTEX
  5
2060
  8
SAPA_PROFIL
 10
16.189435487555521
 20
-0.1844824566678937
 30
0.0
 42
-0.4142135623730117
  0
VERTEX
  5
2061
  8
SAPA_PROFIL
 10
16.010133744317471
 20
-0.5689962859012782
 30
0.0
  0
VERTEX
  5
2062
  8
SAPA_PROFIL
 10
15.57073307761064
 20
-0.7289250494994235
 30
0.0
 42
0.2868106387144194
  0
VERTEX
  5
2063
  8
SAPA_PROFIL
 10
14.91820614462776
 20
-1.5643290658909159
 30
0.0
 42
-0.037344033101038
  0
VERTEX
  5
2064
  8
SAPA_PROFIL
 10
14.51953465140841
 20
-3.7660474647176718
 30
0.0
 42
0.3617029558070689
  0
VERTEX
  5
2065
  8
SAPA_PROFIL
 10
16.700937511487581
 20
-8.3955579367919029
 30
0.0
  0
VERTEX
  5
2066
  8
SAPA_PROFIL
 10
20.054251532469461
 20
-9.9592339449743008
 30
0.0
  0
VERTEX
  5
2067
  8
SAPA_PROFIL
 10
20.818889937535879
 20
-9.9926187787236245
 30
0.0
  0
VERTEX
  5
2068
  8
SAPA_PROFIL
 10
27.445224019610631
 20
-7.5808304105447633
 30
0.0
 42
0.4142135623730951
  0
VERTEX
  5
2069
  8
SAPA_PROFIL
 10
29.835913929451578
 20
-2.4539793540984638
 30
0.0
  0
VERTEX
  5
206A
  8
SAPA_PROFIL
 10
22.991930163678919
 20
16.349711501475721
 30
0.0
 42
0.4142135623730867
  0
VERTEX
  5
206B
  8
SAPA_PROFIL
 10
17.865079107232731
 20
18.7404014113167
 30
0.0
  0
VERTEX
  5
206C
  8
SAPA_PROFIL
 10
12.47106724016421
 20
16.777141648425239
 30
0.0
 42
0.5027747815994277
  0
VERTEX
  5
206D
  8
SAPA_PROFIL
 10
10.634900741379649
 20
10.62404439121314
 30
0.0
 42
0.2214354817247867
  0
VERTEX
  5
206E
  8
SAPA_PROFIL
 10
11.476064824606251
 20
10.55087085692298
 30
0.0
  0
SEQEND
  5
206F
  8
SAPA_PROFIL
  0
POLYLINE
  5
1CA9
  8
SAPA_PROFIL
 66
     1
 10
0.0
 20
0.0
 30
0.0
 70
     1
  0
VERTEX
  5
2070
  8
SAPA_PROFIL
 10
25.250764305501999
 20
-11.784917298699471
 30
0.0
  0
VERTEX
  5
2071
  8
SAPA_PROFIL
 10
24.865091739690001
 20
-12.24454396457093
 30
0.0
  0
VERTEX
  5
2072
  8
SAPA_PROFIL
 10
20.38118004161171
 20
-13.876554355749469
 30
0.0
 42
-0.1989123673796723
  0
VERTEX
  5
2073
  8
SAPA_PROFIL
 10
20.151788520091799
 20
-13.866538905624729
 30
0.0
  0
VERTEX
  5
2074
  8
SAPA_PROFIL
 10
10.11418262878297
 20
-9.1859264089655426
 30
0.0
 42
-0.4663076581549887
  0
VERTEX
  5
2075
  8
SAPA_PROFIL
 10
9.4202485093234412
 20
-6.5961290180370611
 30
0.0
 42
0.9999999999999927
  0
VERTEX
  5
2076
  8
SAPA_PROFIL
 10
-9.4202485093233292
 20
6.5961290180370611
 30
0.0
 42
-0.8070884877514037
  0
VERTEX
  5
2077
  8
SAPA_PROFIL
 10
-12.573752938184009
 20
7.922595189693026
 30
0.0
 42
0.5810002848221991
  0
VERTEX
  5
2078
  8
SAPA_PROFIL
 10
-13.23618825311015
 20
8.4846436166728552
 30
0.0
  0
VERTEX
  5
2079
  8
SAPA_PROFIL
 10
-16.85125865844023
 20
7.1688655943560491
 30
0.0
  0
VERTEX
  5
207A
  8
SAPA_PROFIL
 10
-17.442143310247669
 20
7.2730545009562197
 30
0.0
  0
VERTEX
  5
207B
  8
SAPA_PROFIL
 10
-17.827815876059589
 20
6.8134278350847799
 30
0.0
  0
VERTEX
  5
207C
  8
SAPA_PROFIL
 10
-21.47418479870808
 20
5.486258084087523
 30
0.0
 42
-0.4142135623730784
  0
VERTEX
  5
207D
  8
SAPA_PROFIL
 10
-22.75589756281963
 20
6.0839305615476738
 30
0.0
  0
VERTEX
  5
207E
  8
SAPA_PROFIL
 10
-23.50834187813609
 20
8.1512543272767175
 30
0.0
 42
-0.4142135623731229
  0
VERTEX
  5
207F
  8
SAPA_PROFIL
 10
-23.32904013489804
 20
8.5357681565101302
 30
0.0
  0
VERTEX
  5
2080
  8
SAPA_PROFIL
 10
-11.86479016130974
 20
12.708413905081549
 30
0.0
  0
VERTEX
  5
2081
  8
SAPA_PROFIL
 10
-11.62537606098166
 20
12.050629070533089
 30
0.0
 42
0.4142135623728317
  0
VERTEX
  5
2082
  8
SAPA_PROFIL
 10
-11.240862231748309
 20
11.87132732729512
 30
0.0
  0
VERTEX
  5
2083
  8
SAPA_PROFIL
 10
20.144871302499979
 20
23.294800114371949
 30
0.0
 42
0.4142135623727621
  0
VERTEX
  5
2084
  8
SAPA_PROFIL
 10
20.324173045738149
 20
23.679313943605049
 30
0.0
  0
VERTEX
  5
2085
  8
SAPA_PROFIL
 10
20.084758945410758
 20
24.337098778155969
 30
0.0
  0
VERTEX
  5
2086
  8
SAPA_PROFIL
 10
23.091775331925898
 20
25.431563236798301
 30
0.0
 42
-0.414213562373123
  0
VERTEX
  5
2087
  8
SAPA_PROFIL
 10
23.476289161159311
 20
25.252261493560152
 30
0.0
  0
VERTEX
  5
2088
  8
SAPA_PROFIL
 10
35.587383134147018
 20
-8.0226957221172484
 30
0.0
 42
-0.414213562373123
  0
VERTEX
  5
2089
  8
SAPA_PROFIL
 10
35.40808139090899
 20
-8.4072095513506326
 30
0.0
  0
VERTEX
  5
208A
  8
SAPA_PROFIL
 10
25.84164895730947
 20
-11.88910620529964
 30
0.0
  0
SEQEND
  5
208B
  8
SAPA_PROFIL
  0
CIRCLE
  5
1CAA
  8
SAPA_PROFIL
 10
0.0
 20
0.0
 30
0.0
 40
5.3499999999999979
  0
POLYLINE
  5
1CAB
  8
SAPA_PROFIL
 66
     1
 10
0.0
 20
0.0
 30
0.0
 70
     1
  0
VERTEX
  5
208C
  8
SAPA_PROFIL
 10
-4.5825629595148589
 20
-8.8882009834433102
 30
0.0
  0
VERTEX
  5
208D
  8
SAPA_PROFIL
 10
-3.3397711631904481
 20
-9.4258118259130015
 30
0.0
 42
-0.8419933402193075
  0
VERTEX
  5
208E
  8
SAPA_PROFIL
 10
-7.5132899660069077
 20
-21.014589726593162
 30
0.0
  0
VERTEX
  5
208F
  8
SAPA_PROFIL
 10
-27.587585202025231
 20
-17.474949857775702
 30
0.0
  0
VERTEX
  5
2090
  8
SAPA_PROFIL
 10
-28.527277822811101
 20
-17.816970001101371
 30
0.0
  0
VERTEX
  5
2091
  8
SAPA_PROFIL
 10
-29.293322265930069
 20
-17.174182391414831
 30
0.0
  0
VERTEX
  5
2092
  8
SAPA_PROFIL
 10
-46.23769930366322
 20
-14.186431548365469
 30
0.0
  0
VERTEX
  5
2093
  8
SAPA_PROFIL
 10
-53.755240269950598
 20
-16.922592694970831
 30
0.0
  0
VERTEX
  5
2094
  8
SAPA_PROFIL
 10
-54.27618480295137
 20
-19.877015954007501
 30
0.0
  0
VERTEX
  5
2095
  8
SAPA_PROFIL
 10
-44.428107272829322
 20
-21.61349773067678
 30
0.0
  0
VERTEX
  5
2096
  8
SAPA_PROFIL
 10
-44.25445909516236
 20
-20.628689977664578
 30
0.0
  0
VERTEX
  5
2097
  8
SAPA_PROFIL
 10
-4.8621489746740281
 20
-27.57461708434181
 30
0.0
  0
VERTEX
  5
2098
  8
SAPA_PROFIL
 10
-5.0357971523409901
 20
-28.559424837354019
 30
0.0
  0
VERTEX
  5
2099
  8
SAPA_PROFIL
 10
4.8122803777810637
 20
-30.295906614023298
 30
0.0
  0
VERTEX
  5
209A
  8
SAPA_PROFIL
 10
9.8480775301220547
 20
-1.7364817766692791
 30
0.0
 42
1.9780623748969339
  0
SEQEND
  5
209B
  8
SAPA_PROFIL
  0
POLYLINE
  5
1CAC
  8
SAPA_PROFIL
 66
     1
 10
0.0
 20
0.0
 30
0.0
 70
   129
  0
VERTEX
  5
209C
  8
SAPA_PROFIL
 10
15.61975646499824
 20
40.784423277122073
 30
0.0
 42
-0.4040262258351265
  0
VERTEX
  5
209D
  8
SAPA_PROFIL
 10
15.315238278513471
 20
40.160068469541599
 30
0.0
  0
VERTEX
  5
209E
  8
SAPA_PROFIL
 10
-3.8825795247878392
 20
33.172634226273068
 30
0.0
 42
-0.4142135623730951
  0
VERTEX
  5
209F
  8
SAPA_PROFIL
 10
-5.1642922888994169
 20
33.770306703733311
 30
0.0
  0
VERTEX
  5
20A0
  8
SAPA_PROFIL
 10
-6.361362790539256
 20
37.059230876483987
 30
0.0
 42
-0.4142135623730951
  0
VERTEX
  5
20A1
  8
SAPA_PROFIL
 10
-5.7636903130790174
 20
38.340943640595569
 30
0.0
  0
VERTEX
  5
20A2
  8
SAPA_PROFIL
 10
-4.8239976922931076
 20
38.682963783921238
 30
0.0
 42
0.4142135623730951
  0
VERTEX
  5
20A3
  8
SAPA_PROFIL
 10
-3.6286527373726249
 20
41.24638931214438
 30
0.0
  0
VERTEX
  5
20A4
  8
SAPA_PROFIL
 10
-9.682409274237024
 20
57.878948700054963
 30
0.0
 42
0.4142135623730951
  0
VERTEX
  5
20A5
  8
SAPA_PROFIL
 10
-10.066923103470449
 20
58.058250443293041
 30
0.0
  0
VERTEX
  5
20A6
  8
SAPA_PROFIL
 10
-11.59323206304683
 20
57.502719413713407
 30
0.0
  0
VERTEX
  5
20A7
  8
SAPA_PROFIL
 10
-12.15376993360398
 20
56.300642071096789
 30
0.0
 42
0.198912367380615
  0
VERTEX
  5
20A8
  8
SAPA_PROFIL
 10
-12.163785383728619
 20
56.071250549576241
 30
0.0
  0
VERTEX
  5
20A9
  8
SAPA_PROFIL
 10
-11.75336121173782
 20
54.943619404633132
 30
0.0
  0
VERTEX
  5
20AA
  8
SAPA_PROFIL
 10
-11.14256100822694
 20
55.16593249779482
 30
0.0
  0
VERTEX
  5
20AB
  8
SAPA_PROFIL
 10
-11.257552957151541
 20
53.659520584776978
 30
0.0
 42
0.5450207774095396
  0
VERTEX
  5
20AC
  8
SAPA_PROFIL
 10
-10.855817167515831
 20
53.354778730216211
 30
0.0
  0
VERTEX
  5
20AD
  8
SAPA_PROFIL
 10
-10.526924750240751
 20
53.474485780380199
 30
0.0
  0
VERTEX
  5
20AE
  8
SAPA_PROFIL
 10
-10.641916699165341
 20
51.968073867362172
 30
0.0
 42
0.545020777409285
  0
VERTEX
  5
20AF
  8
SAPA_PROFIL
 10
-10.240180909529631
 20
51.663332012801561
 30
0.0
  0
VERTEX
  5
20B0
  8
SAPA_PROFIL
 10
-9.9112884922545401
 20
51.78303906296555
 30
0.0
  0
VERTEX
  5
20B1
  8
SAPA_PROFIL
 10
-10.026280441179161
 20
50.276627149947458
 30
0.0
 42
0.5450207774091322
  0
VERTEX
  5
20B2
  8
SAPA_PROFIL
 10
-9.6245446515434239
 20
49.971885295386919
 30
0.0
  0
VERTEX
  5
20B3
  8
SAPA_PROFIL
 10
-9.2956522342683332
 20
50.091592345550907
 30
0.0
  0
VERTEX
  5
20B4
  8
SAPA_PROFIL
 10
-9.4106441831929395
 20
48.585180432533093
 30
0.0
 42
0.545020777409636
  0
VERTEX
  5
20B5
  8
SAPA_PROFIL
 10
-9.0089083935572241
 20
48.280438577972291
 30
0.0
  0
VERTEX
  5
20B6
  8
SAPA_PROFIL
 10
-8.6800159762821352
 20
48.400145628136279
 30
0.0
  0
VERTEX
  5
20B7
  8
SAPA_PROFIL
 10
-8.7950079252067788
 20
46.893733715118252
 30
0.0
 42
0.5450207774091208
  0
VERTEX
  5
20B8
  8
SAPA_PROFIL
 10
-8.3932721355710171
 20
46.588991860557648
 30
0.0
  0
VERTEX
  5
20B9
  8
SAPA_PROFIL
 10
-8.0643797182959283
 20
46.708698910721637
 30
0.0
  0
VERTEX
  5
20BA
  8
SAPA_PROFIL
 10
-8.1793716672205434
 20
45.202286997703517
 30
0.0
 42
0.5450207774089454
  0
VERTEX
  5
20BB
  8
SAPA_PROFIL
 10
-7.77763587758482
 20
44.897545143143027
 30
0.0
  0
VERTEX
  5
20BC
  8
SAPA_PROFIL
 10
-7.448743460309732
 20
45.017252193307023
 30
0.0
  0
VERTEX
  5
20BD
  8
SAPA_PROFIL
 10
-7.5637354092343321
 20
43.510840280289017
 30
0.0
 42
0.5450207774092681
  0
VERTEX
  5
20BE
  8
SAPA_PROFIL
 10
-7.1619996195986104
 20
43.206098425728378
 30
0.0
  0
VERTEX
  5
20BF
  8
SAPA_PROFIL
 10
-6.8331072023235251
 20
43.325805475892381
 30
0.0
  0
VERTEX
  5
20C0
  8
SAPA_PROFIL
 10
-6.9480991512481651
 20
41.819393562874339
 30
0.0
 42
0.5450207774092116
  0
VERTEX
  5
20C1
  8
SAPA_PROFIL
 10
-6.5463633616124026
 20
41.514651708313743
 30
0.0
  0
VERTEX
  5
20C2
  8
SAPA_PROFIL
 10
-6.2174709443373137
 20
41.634358758477731
 30
0.0
  0
VERTEX
  5
20C3
  8
SAPA_PROFIL
 10
-6.1319659085058973
 20
41.399435603281248
 30
0.0
 42
-0.4142135623730951
  0
VERTEX
  5
20C4
  8
SAPA_PROFIL
 10
-6.7296383859661404
 20
40.117722839169673
 30
0.0
  0
VERTEX
  5
20C5
  8
SAPA_PROFIL
 10
-9.9245932966382568
 20
38.954854351862402
 30
0.0
 42
-0.4142135623730951
  0
VERTEX
  5
20C6
  8
SAPA_PROFIL
 10
-11.20630606074984
 20
39.552526829322638
 30
0.0
  0
VERTEX
  5
20C7
  8
SAPA_PROFIL
 10
-11.59962922557435
 20
40.633173343226417
 30
0.0
  0
VERTEX
  5
20C8
  8
SAPA_PROFIL
 10
-11.270736808299439
 20
40.752880393390399
 30
0.0
 42
0.5450207774097775
  0
VERTEX
  5
20C9
  8
SAPA_PROFIL
 10
-11.158873627311561
 20
41.244556985608291
 30
0.0
  0
VERTEX
  5
20CA
  8
SAPA_PROFIL
 10
-12.215265483560559
 20
42.324620060641081
 30
0.0
  0
VERTEX
  5
20CB
  8
SAPA_PROFIL
 10
-11.88637306628547
 20
42.444327110805069
 30
0.0
 42
0.545020777409251
  0
VERTEX
  5
20CC
  8
SAPA_PROFIL
 10
-11.774509885297769
 20
42.936003703022919
 30
0.0
  0
VERTEX
  5
20CD
  8
SAPA_PROFIL
 10
-12.830901741546761
 20
44.016066778055702
 30
0.0
  0
VERTEX
  5
20CE
  8
SAPA_PROFIL
 10
-12.50200932427162
 20
44.135773828219712
 30
0.0
 42
0.5450207774093077
  0
VERTEX
  5
20CF
  8
SAPA_PROFIL
 10
-12.390146143283969
 20
44.627450420437562
 30
0.0
  0
VERTEX
  5
20D0
  8
SAPA_PROFIL
 10
-13.446537999532969
 20
45.707513495470337
 30
0.0
  0
VERTEX
  5
20D1
  8
SAPA_PROFIL
 10
-13.11764558225793
 20
45.827220545634319
 30
0.0
 42
0.5450207774091775
  0
VERTEX
  5
20D2
  8
SAPA_PROFIL
 10
-13.005782401270171
 20
46.318897137852183
 30
0.0
  0
VERTEX
  5
20D3
  8
SAPA_PROFIL
 10
-14.06217425751918
 20
47.398960212884987
 30
0.0
  0
VERTEX
  5
20D4
  8
SAPA_PROFIL
 10
-13.733281840244249
 20
47.518667263048918
 30
0.0
 42
0.5450207774097434
  0
VERTEX
  5
20D5
  8
SAPA_PROFIL
 10
-13.62141865925638
 20
48.010343855266832
 30
0.0
  0
VERTEX
  5
20D6
  8
SAPA_PROFIL
 10
-14.677810515505371
 20
49.090406930299608
 30
0.0
  0
VERTEX
  5
20D7
  8
SAPA_PROFIL
 10
-14.34891809823028
 20
49.210113980463603
 30
0.0
 42
0.5450207774091265
  0
VERTEX
  5
20D8
  8
SAPA_PROFIL
 10
-14.237054917242579
 20
49.701790572681467
 30
0.0
  0
VERTEX
  5
20D9
  8
SAPA_PROFIL
 10
-15.29344677349158
 20
50.78185364771425
 30
0.0
  0
VERTEX
  5
20DA
  8
SAPA_PROFIL
 10
-14.964554356216651
 20
50.901560697878189
 30
0.0
 42
0.5450207774097152
  0
VERTEX
  5
20DB
  8
SAPA_PROFIL
 10
-14.852691175228779
 20
51.393237290096103
 30
0.0
  0
VERTEX
  5
20DC
  8
SAPA_PROFIL
 10
-15.909083031477779
 20
52.473300365128878
 30
0.0
  0
VERTEX
  5
20DD
  8
SAPA_PROFIL
 10
-15.58019061420269
 20
52.593007415292867
 30
0.0
 42
0.5450207774091775
  0
VERTEX
  5
20DE
  8
SAPA_PROFIL
 10
-15.46832743321499
 20
53.084684007510738
 30
0.0
  0
VERTEX
  5
20DF
  8
SAPA_PROFIL
 10
-16.524719289463992
 20
54.164747082543521
 30
0.0
  0
VERTEX
  5
20E0
  8
SAPA_PROFIL
 10
-16.195826872188999
 20
54.284454132707467
 30
0.0
 42
0.6681786379193241
  0
VERTEX
  5
20E1
  8
SAPA_PROFIL
 10
-16.171647436664379
 20
54.838254255054331
 30
0.0
  0
VERTEX
  5
20E2
  8
SAPA_PROFIL
 10
-17.373724779281631
 20
55.398792125611358
 30
0.0
  0
VERTEX
  5
20E3
  8
SAPA_PROFIL
 10
-18.900033738858021
 20
54.843261096031732
 30
0.0
 42
0.4142135623730951
  0
VERTEX
  5
20E4
  8
SAPA_PROFIL
 10
-19.079335482096049
 20
54.458747266798291
 30
0.0
  0
VERTEX
  5
20E5
  8
SAPA_PROFIL
 10
-13.025578945231709
 20
37.826187878887701
 30
0.0
 42
0.4142135623730951
  0
VERTEX
  5
20E6
  8
SAPA_PROFIL
 10
-10.46215341700856
 20
36.630842923967222
 30
0.0
  0
VERTEX
  5
20E7
  8
SAPA_PROFIL
 10
-9.5224607962226493
 20
36.972863067292892
 30
0.0
 42
-0.4142135623730951
  0
VERTEX
  5
20E8
  8
SAPA_PROFIL
 10
-8.2407480321110747
 20
36.375190589832648
 30
0.0
  0
VERTEX
  5
20E9
  8
SAPA_PROFIL
 10
-7.0436775304712347
 20
33.086266417081973
 30
0.0
 42
-0.41421356237309
  0
VERTEX
  5
20EA
  8
SAPA_PROFIL
 10
-7.6413500079314707
 20
31.804553652970402
 30
0.0
  0
VERTEX
  5
20EB
  8
SAPA_PROFIL
 10
-26.839167811233541
 20
24.817119409703761
 30
0.0
 42
-0.404026225835172
  0
VERTEX
  5
20EC
  8
SAPA_PROFIL
 10
-27.47376981017975
 20
25.099662423388789
 30
0.0
  0
VERTEX
  5
20ED
  8
SAPA_PROFIL
 10
-28.223439675637941
 20
26.955160451786639
 30
0.0
 42
-0.4244748162095842
  0
VERTEX
  5
20EE
  8
SAPA_PROFIL
 10
-27.930857820017302
 20
27.612310058888411
 30
0.0
  0
VERTEX
  5
20EF
  8
SAPA_PROFIL
 10
-22.292953439304501
 20
29.664339437106889
 30
0.0
 42
0.4142135623731155
  0
VERTEX
  5
20F0
  8
SAPA_PROFIL
 10
-22.113651696066459
 20
30.04885326634033
 30
0.0
  0
VERTEX
  5
20F1
  8
SAPA_PROFIL
 10
-23.447530255036579
 20
33.713654487405378
 30
0.0
 42
-0.2134217652833684
  0
VERTEX
  5
20F2
  8
SAPA_PROFIL
 10
-23.430039021972998
 20
33.95797815954117
 30
0.0
 42
0.2134217652833683
  0
VERTEX
  5
20F3
  8
SAPA_PROFIL
 10
-23.412547788909439
 20
34.202301831676998
 30
0.0
  0
VERTEX
  5
20F4
  8
SAPA_PROFIL
 10
-23.60161187420502
 20
34.72175113685644
 30
0.0
 42
0.4142135623731054
  0
VERTEX
  5
20F5
  8
SAPA_PROFIL
 10
-23.98612570343856
 20
34.901052880094497
 30
0.0
  0
VERTEX
  5
20F6
  8
SAPA_PROFIL
 10
-25.58360315877454
 20
34.319618636440879
 30
0.0
  0
VERTEX
  5
20F7
  8
SAPA_PROFIL
 10
-25.975610716736568
 20
33.682178384729667
 30
0.0
 42
0.7105995015649932
  0
VERTEX
  5
20F8
  8
SAPA_PROFIL
 10
-25.617460063763261
 20
33.243117958324703
 30
0.0
  0
VERTEX
  5
20F9
  8
SAPA_PROFIL
 10
-25.241583015448871
 20
33.379926015654981
 30
0.0
 42
-0.4142135623731308
  0
VERTEX
  5
20FA
  8
SAPA_PROFIL
 10
-24.85706918621544
 20
33.200624272416867
 30
0.0
  0
VERTEX
  5
20FB
  8
SAPA_PROFIL
 10
-24.036220842233831
 20
30.945361982530692
 30
0.0
 42
-0.4142135623730951
  0
VERTEX
  5
20FC
  8
SAPA_PROFIL
 10
-24.21552258547187
 20
30.56084815329724
 30
0.0
  0
VERTEX
  5
20FD
  8
SAPA_PROFIL
 10
-28.707415131647231
 20
28.9259329709672
 30
0.0
 42
-0.4040262258351568
  0
VERTEX
  5
20FE
  8
SAPA_PROFIL
 10
-29.088176331014921
 20
29.095458779178198
 30
0.0
  0
VERTEX
  5
20FF
  8
SAPA_PROFIL
 10
-29.987780169565092
 20
31.322056413256242
 30
0.0
 42
-0.4244748162096048
  0
VERTEX
  5
2100
  8
SAPA_PROFIL
 10
-29.812231056192559
 20
31.716346177517138
 30
0.0
  0
VERTEX
  5
2101
  8
SAPA_PROFIL
 10
-29.000353498592499
 20
32.011845442352303
 30
0.0
 42
0.710599501565118
  0
VERTEX
  5
2102
  8
SAPA_PROFIL
 10
-29.008216783080211
 20
32.57840004432628
 30
0.0
  0
VERTEX
  5
2103
  8
SAPA_PROFIL
 10
-29.718250690232569
 20
32.814730005807917
 30
0.0
  0
VERTEX
  5
2104
  8
SAPA_PROFIL
 10
-31.879543718040171
 20
32.028083676158893
 30
0.0
 42
0.4142135623733353
  0
VERTEX
  5
2105
  8
SAPA_PROFIL
 10
-32.05884546127816
 20
31.64356984692531
 30
0.0
  0
VERTEX
  5
2106
  8
SAPA_PROFIL
 10
-32.055092831412637
 20
31.63379391189801
 30
0.0
  0
VERTEX
  5
2107
  8
SAPA_PROFIL
 10
-28.959207747185062
 20
23.971209440238979
 30
0.0
 42
0.4040262258351517
  0
VERTEX
  5
2108
  8
SAPA_PROFIL
 10
-26.420799751399631
 20
22.841037385499181
 30
0.0
 42
-0.8769764629929342
  0
VERTEX
  5
2109
  8
SAPA_PROFIL
 10
-25.505203171723441
 20
21.082192720422949
 30
0.0
  0
VERTEX
  5
210A
  8
SAPA_PROFIL
 10
-27.475942007055639
 20
19.702266532081531
 30
0.0
 42
0.3394542588633806
  0
VERTEX
  5
210B
  8
SAPA_PROFIL
 10
-27.585776862385739
 20
19.353914875796871
 30
0.0
  0
VERTEX
  5
210C
  8
SAPA_PROFIL
 10
-23.781957992797022
 20
8.9030084239064422
 30
0.0
 42
0.4142135623730951
  0
VERTEX
  5
210D
  8
SAPA_PROFIL
 10
-23.141101610741231
 20
8.6041721851763242
 30
0.0
  0
VERTEX
  5
210E
  8
SAPA_PROFIL
 10
22.903836807768641
 20
25.36315920813313
 30
0.0
 42
0.4142135623730951
  0
VERTEX
  5
210F
  8
SAPA_PROFIL
 10
23.202673046498749
 20
26.00401559018891
 30
0.0
  0
VERTEX
  5
2110
  8
SAPA_PROFIL
 10
19.398854176909651
 20
36.454922042080383
 30
0.0
 42
0.3394542588634147
  0
VERTEX
  5
2111
  8
SAPA_PROFIL
 10
19.090799667849598
 20
36.651174408510222
 30
0.0
  0
VERTEX
  5
2112
  8
SAPA_PROFIL
 10
16.69412667805608
 20
36.441492691724093
 30
0.0
 42
-0.87697646299261
  0
VERTEX
  5
2113
  8
SAPA_PROFIL
 10
16.264950791983019
 20
38.377380010601748
 30
0.0
 42
0.404026225835172
  0
VERTEX
  5
2114
  8
SAPA_PROFIL
 10
17.483023537920879
 20
40.874799240924247
 30
0.0
  0
VERTEX
  5
2115
  8
SAPA_PROFIL
 10
14.929194746670291
 20
48.73467606852347
 30
0.0
  0
VERTEX
  5
2116
  8
SAPA_PROFIL
 10
14.92578557801756
 20
48.744577013207923
 30
0.0
 42
0.4142135623733302
  0
VERTEX
  5
2117
  8
SAPA_PROFIL
 10
14.54127174878357
 20
48.923878756446861
 30
0.0
  0
VERTEX
  5
2118
  8
SAPA_PROFIL
 10
12.37997872097613
 20
48.13723242679788
 30
0.0
  0
VERTEX
  5
2119
  8
SAPA_PROFIL
 10
11.987971163014111
 20
47.499792175086668
 30
0.0
 42
0.7105995015651246
  0
VERTEX
  5
211A
  8
SAPA_PROFIL
 10
12.346121815987461
 20
47.060731748681718
 30
0.0
  0
VERTEX
  5
211B
  8
SAPA_PROFIL
 10
13.157999373588369
 20
47.356231013517188
 30
0.0
 42
-0.4244748162093936
  0
VERTEX
  5
211C
  8
SAPA_PROFIL
 10
13.545922371474679
 20
47.167028325593911
 30
0.0
  0
VERTEX
  5
211D
  8
SAPA_PROFIL
 10
14.28801522088736
 20
44.88310137989945
 30
0.0
 42
-0.4040262258354259
  0
VERTEX
  5
211E
  8
SAPA_PROFIL
 10
14.10530430899678
 20
44.508488495351578
 30
0.0
  0
VERTEX
  5
211F
  8
SAPA_PROFIL
 10
9.6134117628208351
 20
42.873573313021311
 30
0.0
 42
-0.4142135623730951
  0
VERTEX
  5
2120
  8
SAPA_PROFIL
 10
9.2288979335873051
 20
43.052875056259353
 30
0.0
  0
VERTEX
  5
2121
  8
SAPA_PROFIL
 10
8.4080495896056995
 20
45.308137346145529
 30
0.0
 42
-0.4142135623731257
  0
VERTEX
  5
2122
  8
SAPA_PROFIL
 10
8.5873513328438307
 20
45.692651175379041
 30
0.0
  0
VERTEX
  5
2123
  8
SAPA_PROFIL
 10
8.9632283811581726
 20
45.829459232709297
 30
0.0
 42
0.7105995015649868
  0
VERTEX
  5
2124
  8
SAPA_PROFIL
 10
8.9553650966705938
 20
46.396013834683266
 30
0.0
  0
VERTEX
  5
2125
  8
SAPA_PROFIL
 10
8.2453311895181614
 20
46.632343796164953
 30
0.0
  0
VERTEX
  5
2126
  8
SAPA_PROFIL
 10
6.6478537341820738
 20
46.0509095525113
 30
0.0
 42
0.4142135623731155
  0
VERTEX
  5
2127
  8
SAPA_PROFIL
 10
6.4685519909440501
 20
45.666395723277823
 30
0.0
  0
VERTEX
  5
2128
  8
SAPA_PROFIL
 10
6.6576160762396253
 20
45.146946418098388
 30
0.0
 42
0.2134217652833684
  0
VERTEX
  5
2129
  8
SAPA_PROFIL
 10
6.8280633673331561
 20
44.971026774627738
 30
0.0
 42
-0.2134217652833637
  0
VERTEX
  5
212A
  8
SAPA_PROFIL
 10
6.9985106584268353
 20
44.795107131157032
 30
0.0
  0
VERTEX
  5
212B
  8
SAPA_PROFIL
 10
8.332389217396944
 20
41.130305910091991
 30
0.0
 42
0.4142135623731104
  0
VERTEX
  5
212C
  8
SAPA_PROFIL
 10
8.7169030466304775
 20
40.951004166853949
 30
0.0
  0
VERTEX
  5
212D
  8
SAPA_PROFIL
 10
14.35480742734401
 20
43.003033545072711
 30
0.0
 42
-0.424474816209579
  0
VERTEX
  5
212E
  8
SAPA_PROFIL
 10
15.001345757154491
 20
42.687695731867151
 30
0.0
  0
SEQEND
  5
212F
  8
SAPA_PROFIL
  0
POLYLINE
  5
1CAD
  8
SAPA_PROFIL
 66
     1
 10
0.0
 20
0.0
 30
0.0
 70
   129
  0
VERTEX
  5
2130
  8
SAPA_PROFIL
 10
-22.706147533368618
 20
11.21009139930724
 30
0.0
  0
VERTEX
  5
2131
  8
SAPA_PROFIL
 10
-25.16740986743471
 20
17.972354085507991
 30
0.0
 42
-0.3394542588633467
  0
VERTEX
  5
2132
  8
SAPA_PROFIL
 10
-24.80129368299928
 20
19.133526273122701
 30
0.0
  0
VERTEX
  5
2133
  8
SAPA_PROFIL
 10
-24.358050299021169
 20
19.44388863184512
 30
0.0
 42
0.3394542588633758
  0
VERTEX
  5
2134
  8
SAPA_PROFIL
 10
-23.25970174571658
 20
22.927405194689069
 30
0.0
  0
VERTEX
  5
2135
  8
SAPA_PROFIL
 10
-23.49911584604456
 20
23.585190029239222
 30
0.0
 42
-0.4142135623730848
  0
VERTEX
  5
2136
  8
SAPA_PROFIL
 10
-23.319814102806468
 20
23.96970385847268
 30
0.0
  0
VERTEX
  5
2137
  8
SAPA_PROFIL
 10
13.16396514338977
 20
37.24871353762714
 30
0.0
 42
-0.4142135623729826
  0
VERTEX
  5
2138
  8
SAPA_PROFIL
 10
13.54847897262316
 20
37.069411794389168
 30
0.0
  0
VERTEX
  5
2139
  8
SAPA_PROFIL
 10
13.787893072951171
 20
36.411626959838912
 30
0.0
 42
0.3394542588633709
  0
VERTEX
  5
213A
  8
SAPA_PROFIL
 10
16.86843816355157
 20
34.449103295540667
 30
0.0
  0
VERTEX
  5
213B
  8
SAPA_PROFIL
 10
17.407479373497392
 20
34.496263290584771
 30
0.0
 42
-0.3394542588634342
  0
VERTEX
  5
213C
  8
SAPA_PROFIL
 10
18.434327737031449
 20
33.84208873581894
 30
0.0
  0
VERTEX
  5
213D
  8
SAPA_PROFIL
 10
20.89559007109785
 20
27.079826049617338
 30
0.0
 42
-0.4142135623730132
  0
VERTEX
  5
213E
  8
SAPA_PROFIL
 10
20.716288327859822
 20
26.695312220383869
 30
0.0
  0
VERTEX
  5
213F
  8
SAPA_PROFIL
 10
-22.321633704135142
 20
11.030789656069199
 30
0.0
 42
-0.4142135623730951
  0
SEQEND
  5
2140
  8
SAPA_PROFIL
  0
LINE
  5
1CAE
  8
SAPA_PROFIL
 10
14.54127174878359
 20
48.923878756446882
 30
0.0
 11
29.85826146759338
 21
54.498807092655099
 31
0.0
  0
POLYLINE
  5
1CF8
  8
SAPA_GLAS
 66
     1
 10
0.0
 20
0.0
 30
0.0
  0
VERTEX
  5
2151
  8
SAPA_GLAS
 10
25.028776346010702
 20
67.767708411795752
 30
0.0
  0
VERTEX
  5
2152
  8
SAPA_GLAS
 10
-3.162002277566482
 20
57.507104112025473
 30
0.0
  0
VERTEX
  5
2153
  8
SAPA_GLAS
 10
-0.1659058220331211
 20
49.275396753940854
 30
0.0
  0
VERTEX
  5
2154
  8
SAPA_GLAS
 10
28.024872801543541
 20
59.536001053711068
 30
0.0
  0
SEQEND
  5
2155
  8
SAPA_GLAS
  0
POLYLINE
  5
1CF9
  8
SAPA_GLAS
 66
     1
 10
0.0
 20
0.0
 30
0.0
  0
VERTEX
  5
2156
  8
SAPA_GLAS
 10
-3.1620022775661951
 20
57.507104112025573
 30
0.0
  0
VERTEX
  5
2157
  8
SAPA_GLAS
 10
-7.2662439974743416
 20
68.78341556145655
 30
0.0
  0
VERTEX
  5
2158
  8
SAPA_GLAS
 10
2.13068221038451
 20
72.203616994713229
 30
0.0
  0
VERTEX
  5
2159
  8
SAPA_GLAS
 10
6.2349239302930011
 20
60.927305545282373
 30
0.0
  0
VERTEX
  5
215A
  8
SAPA_GLAS
 10
-3.1620022775661951
 20
57.507104112025573
 30
0.0
  0
SEQEND
  5
215B
  8
SAPA_GLAS
  0
POLYLINE
  5
1CFA
  8
SAPA_GLAS
 66
     1
 10
0.0
 20
0.0
 30
0.0
  0
VERTEX
  5
215C
  8
SAPA_GLAS
 10
18.872413766148661
 20
84.682175585942105
 30
0.0
  0
VERTEX
  5
215D
  8
SAPA_GLAS
 10
-9.3183648574285574
 20
74.421571286171925
 30
0.0
  0
VERTEX
  5
215E
  8
SAPA_GLAS
 10
-7.2662439974745441
 20
68.783415561456479
 30
0.0
  0
VERTEX
  5
215F
  8
SAPA_GLAS
 10
20.924534626102631
 20
79.044019861226744
 30
0.0
  0
SEQEND
  5
2160
  8
SAPA_GLAS
  0
LINE
  5
1CFB
  8
SAPA_GLAS
 10
-1.6639540497995879
 20
53.391250432983242
 30
0.0
 11
26.526824573777109
 21
63.651854732753343
 31
0.0
  0
POLYLINE
  5
1D02
  8
SAPA_FOGBAND
 66
     1
 10
0.0
 20
0.0
 30
0.0
 70
     1
  0
VERTEX
  5
21D1
  8
SAPA_FOGBAND
 10
4.4911737873998687
 20
50.790299137629432
 30
0.0
 42
0.4679153941829814
  0
VERTEX
  5
21D2
  8
SAPA_FOGBAND
 10
4.3369136255472824
 20
50.524759363244868
 30
0.0
  0
VERTEX
  5
21D3
  8
SAPA_FOGBAND
 10
5.893312206595958
 20
46.248037304041311
 30
0.0
 42
0.6685323900181767
  0
VERTEX
  5
21D4
  8
SAPA_FOGBAND
 10
6.262594873595372
 20
46.2320950116736
 30
0.0
 42
-0.1991665782226247
  0
VERTEX
  5
21D5
  8
SAPA_FOGBAND
 10
6.3190649306671673
 20
46.283891113243662
 30
0.0
  0
VERTEX
  5
21D6
  8
SAPA_FOGBAND
 10
8.7506704846228889
 20
47.168923156360172
 30
0.0
 42
-0.4142135623731784
  0
VERTEX
  5
21D7
  8
SAPA_FOGBAND
 10
9.0070130374451551
 20
47.049388660868047
 30
0.0
  0
VERTEX
  5
21D8
  8
SAPA_FOGBAND
 10
9.280629152105714
 20
46.297634564239253
 30
0.0
 42
0.4142135623731368
  0
VERTEX
  5
21D9
  8
SAPA_FOGBAND
 10
9.5369717049279821
 20
46.178100068747149
 30
0.0
  0
VERTEX
  5
21DA
  8
SAPA_FOGBAND
 10
9.9128487532423915
 20
46.314908126077547
 30
0.0
 42
-0.4142135623733448
  0
VERTEX
  5
21DB
  8
SAPA_FOGBAND
 10
10.169191306064549
 20
46.195373630585401
 30
0.0
  0
VERTEX
  5
21DC
  8
SAPA_FOGBAND
 10
10.53569968408112
 20
45.18840013794393
 30
0.0
 42
-0.703825529076487
  0
VERTEX
  5
21DD
  8
SAPA_FOGBAND
 10
10.390893230613729
 20
45.068084361809369
 30
0.0
  0
VERTEX
  5
21DE
  8
SAPA_FOGBAND
 10
9.2877477219286018
 20
45.719325443155761
 30
0.0
 42
0.9999999999999856
  0
VERTEX
  5
21DF
  8
SAPA_FOGBAND
 10
8.8810501908179962
 20
45.030415348739609
 30
0.0
  0
VERTEX
  5
21E0
  8
SAPA_FOGBAND
 10
10.431097903254249
 20
44.115345903740597
 30
0.0
 42
0.2242387338110932
  0
VERTEX
  5
21E1
  8
SAPA_FOGBAND
 10
11.494087974771929
 20
44.01715215028343
 30
0.0
 42
0.2242387338111004
  0
VERTEX
  5
21E2
  8
SAPA_FOGBAND
 10
12.24526788407759
 20
44.775649776659577
 30
0.0
  0
VERTEX
  5
21E3
  8
SAPA_FOGBAND
 10
12.844478019510669
 20
46.472985104046082
 30
0.0
 42
1.0000000000000899
  0
VERTEX
  5
21E4
  8
SAPA_FOGBAND
 10
12.090106762894401
 20
46.739300719794102
 30
0.0
  0
VERTEX
  5
21E5
  8
SAPA_FOGBAND
 10
11.663657974022779
 20
45.531332843633841
 30
0.0
 42
-0.7038255290763446
  0
VERTEX
  5
21E6
  8
SAPA_FOGBAND
 10
11.475392304867279
 20
45.530420281269571
 30
0.0
  0
VERTEX
  5
21E7
  8
SAPA_FOGBAND
 10
11.10888392685067
 20
46.537393773911148
 30
0.0
 42
-0.4142135623729703
  0
VERTEX
  5
21E8
  8
SAPA_FOGBAND
 10
11.22841842234264
 20
46.79373632673348
 30
0.0
  0
VERTEX
  5
21E9
  8
SAPA_FOGBAND
 10
11.604295470656981
 20
46.930544384063737
 30
0.0
 42
0.4142135623730117
  0
VERTEX
  5
21EA
  8
SAPA_FOGBAND
 10
11.72382996614909
 20
47.186886936885998
 30
0.0
  0
VERTEX
  5
21EB
  8
SAPA_FOGBAND
 10
11.45021385148843
 20
47.938641033514763
 30
0.0
 42
-0.4142135623731784
  0
VERTEX
  5
21EC
  8
SAPA_FOGBAND
 10
11.569748346980511
 20
48.194983586337138
 30
0.0
  0
VERTEX
  5
21ED
  8
SAPA_FOGBAND
 10
14.001353900936421
 20
49.080015629453108
 30
0.0
 42
-0.1991665782227297
  0
VERTEX
  5
21EE
  8
SAPA_FOGBAND
 10
14.07790636667805
 20
49.076635766674237
 30
0.0
 42
0.6685323900181511
  0
VERTEX
  5
21EF
  8
SAPA_FOGBAND
 10
14.35054579366917
 20
49.326218593972222
 30
0.0
  0
VERTEX
  5
21F0
  8
SAPA_FOGBAND
 10
12.79415747881988
 20
53.602912443383367
 30
0.0
 42
0.4679406819625479
  0
VERTEX
  5
21F1
  8
SAPA_FOGBAND
 10
12.505295985900821
 20
53.70718678673245
 30
0.0
  0
VERTEX
  5
21F2
  8
SAPA_FOGBAND
 10
11.89107338086426
 20
53.348194376428637
 30
0.0
 42
0.3624646087620003
  0
VERTEX
  5
21F3
  8
SAPA_FOGBAND
 10
11.80405498748884
 20
53.10711977353921
 30
0.0
  0
VERTEX
  5
21F4
  8
SAPA_FOGBAND
 10
11.84356480197164
 20
52.99856745040087
 30
0.0
 42
-0.3515239862759624
  0
VERTEX
  5
21F5
  8
SAPA_FOGBAND
 10
11.76317099554897
 20
52.761539183598458
 30
0.0
  0
VERTEX
  5
21F6
  8
SAPA_FOGBAND
 10
10.44170875487611
 20
51.939828730722901
 30
0.0
 42
-0.751570456352482
  0
VERTEX
  5
21F7
  8
SAPA_FOGBAND
 10
10.298898452731439
 20
52.068328831210771
 30
0.0
  0
VERTEX
  5
21F8
  8
SAPA_FOGBAND
 10
11.56667277883294
 20
52.76710564931232
 30
0.0
 42
0.7197481174277197
  0
VERTEX
  5
21F9
  8
SAPA_FOGBAND
 10
11.09198748729181
 20
53.231090265932352
 30
0.0
  0
VERTEX
  5
21FA
  8
SAPA_FOGBAND
 10
9.1723228475735645
 20
52.246976264658073
 30
0.0
 42
-0.5053637834253038
  0
VERTEX
  5
21FB
  8
SAPA_FOGBAND
 10
8.9307907349074078
 20
52.24747805354415
 30
0.0
  0
VERTEX
  5
21FC
  8
SAPA_FOGBAND
 10
8.9012180713365012
 20
52.287795017335696
 30
0.0
 42
0.3333333333331249
  0
VERTEX
  5
21FD
  8
SAPA_FOGBAND
 10
8.6715461875068893
 20
52.357442887210183
 30
0.0
  0
VERTEX
  5
21FE
  8
SAPA_FOGBAND
 10
8.2956691391925084
 20
52.220634829880019
 30
0.0
 42
0.3333333333331312
  0
VERTEX
  5
21FF
  8
SAPA_FOGBAND
 10
8.1644990566404232
 20
52.019651224968527
 30
0.0
  0
VERTEX
  5
2200
  8
SAPA_FOGBAND
 10
8.1677603268290575
 20
51.969757697163878
 30
0.0
 42
-0.505363783425254
  0
VERTEX
  5
2201
  8
SAPA_FOGBAND
 10
7.983058537765241
 20
51.814119455212577
 30
0.0
  0
VERTEX
  5
2202
  8
SAPA_FOGBAND
 10
5.8799338213188159
 20
51.33405787212002
 30
0.0
 42
0.7197481174279296
  0
VERTEX
  5
2203
  8
SAPA_FOGBAND
 10
5.8145473541521202
 20
50.673503210962657
 30
0.0
  0
VERTEX
  5
2204
  8
SAPA_FOGBAND
 10
7.2348839124028022
 20
50.953118741172418
 30
0.0
 42
-0.7515704563522813
  0
VERTEX
  5
2205
  8
SAPA_FOGBAND
 10
7.2080831464617781
 20
50.762885260499019
 30
0.0
  0
VERTEX
  5
2206
  8
SAPA_FOGBAND
 10
5.6675990423445572
 20
50.542932431804047
 30
0.0
 42
-0.3515239862759173
  0
VERTEX
  5
2207
  8
SAPA_FOGBAND
 10
5.4536549806270438
 20
50.672830475786277
 30
0.0
  0
VERTEX
  5
2208
  8
SAPA_FOGBAND
 10
5.4141451661443201
 20
50.781382798924412
 30
0.0
 42
0.3624646087620678
  0
VERTEX
  5
2209
  8
SAPA_FOGBAND
 10
5.1925254417024727
 20
50.910122313768539
 30
0.0
  0
SEQEND
  5
220A
  8
SAPA_FOGBAND
  0
POLYLINE
  5
1D03
  8
SAPA_FOGBAND
 66
     1
 10
0.0
 20
0.0
 30
0.0
 70
     1
  0
VERTEX
  5
220B
  8
SAPA_FOGBAND
 10
-6.5647055468533164
 20
80.591043840767114
 30
0.0
 42
-0.4142135623731784
  0
VERTEX
  5
220C
  8
SAPA_FOGBAND
 10
-6.6842400423451789
 20
80.334701287944824
 30
0.0
  0
VERTEX
  5
220D
  8
SAPA_FOGBAND
 10
-11.31648201460551
 20
78.648703092123256
 30
0.0
 42
0.2663342079579515
  0
VERTEX
  5
220E
  8
SAPA_FOGBAND
 10
-11.958204693663101
 20
77.888593486709055
 30
0.0
  0
VERTEX
  5
220F
  8
SAPA_FOGBAND
 10
-13.23853263797869
 20
73.07247815402134
 30
0.0
 42
0.052861208559515
  0
VERTEX
  5
2210
  8
SAPA_FOGBAND
 10
-13.25431904775478
 20
72.862214296764549
 30
0.0
 42
0.2389362379610746
  0
VERTEX
  5
2211
  8
SAPA_FOGBAND
 10
-12.596051114965441
 20
71.778136762398162
 30
0.0
 42
0.4294697894411934
  0
VERTEX
  5
2212
  8
SAPA_FOGBAND
 10
-12.31970877829075
 20
71.866326971837452
 30
0.0
  0
VERTEX
  5
2213
  8
SAPA_FOGBAND
 10
-9.7467964999232226
 20
75.185719973846773
 30
0.0
 42
-0.1982170680849751
  0
VERTEX
  5
2214
  8
SAPA_FOGBAND
 10
-9.1836428987298593
 20
75.700370841115173
 30
0.0
  0
VERTEX
  5
2215
  8
SAPA_FOGBAND
 10
-9.0721408644974044
 20
75.740954262636166
 30
0.0
 42
-0.2084822249037384
  0
VERTEX
  5
2216
  8
SAPA_FOGBAND
 10
-8.2744847881371726
 20
75.691427860332965
 30
0.0
  0
VERTEX
  5
2217
  8
SAPA_FOGBAND
 10
-4.3527690604940741
 20
76.45835150266943
 30
0.0
  0
VERTEX
  5
2218
  8
SAPA_FOGBAND
 10
-3.9576026390922201
 20
76.989042640718125
 30
0.0
  0
VERTEX
  5
2219
  8
SAPA_FOGBAND
 10
-7.4096740236616352
 20
76.794083958077493
 30
0.0
 42
-0.6313983151680102
  0
VERTEX
  5
221A
  8
SAPA_FOGBAND
 10
-7.2931965016250331
 20
77.323129086551177
 30
0.0
  0
VERTEX
  5
221B
  8
SAPA_FOGBAND
 10
-4.5074204833645011
 20
77.968685778171988
 30
0.0
 42
-0.379100851898285
  0
VERTEX
  5
221C
  8
SAPA_FOGBAND
 10
-4.15778740249345
 20
77.779036308875305
 30
0.0
  0
VERTEX
  5
221D
  8
SAPA_FOGBAND
 10
-4.0776306095264738
 20
77.558807330182646
 30
0.0
 42
0.4142135623730951
  0
VERTEX
  5
221E
  8
SAPA_FOGBAND
 10
-3.693116780292923
 20
77.379505586944887
 30
0.0
  0
VERTEX
  5
221F
  8
SAPA_FOGBAND
 10
0.5841019313137004
 20
78.936285883416133
 30
0.0
  0
VERTEX
  5
2220
  8
SAPA_FOGBAND
 10
6.708238205588672
 20
80.610112615019347
 30
0.0
  0
VERTEX
  5
2221
  8
SAPA_FOGBAND
 10
6.708238205588672
 20
80.610112615019347
 30
0.0
  0
VERTEX
  5
2222
  8
SAPA_FOGBAND
 10
7.1182825332948001
 20
81.202397932923745
 30
0.0
 42
-0.0144193411868444
  0
VERTEX
  5
2223
  8
SAPA_FOGBAND
 10
6.563912650037552
 20
82.324940444711174
 30
0.0
  0
VERTEX
  5
2224
  8
SAPA_FOGBAND
 10
1.175321067267679
 20
82.131169813764473
 30
0.0
  0
VERTEX
  5
2225
  8
SAPA_FOGBAND
 10
0.5425838021152228
 20
83.869601162218316
 30
0.0
 42
0.4142135623731212
  0
VERTEX
  5
2226
  8
SAPA_FOGBAND
 10
0.3503268874983707
 20
83.959252033837416
 30
0.0
  0
VERTEX
  5
2227
  8
SAPA_FOGBAND
 10
-0.6985494871729521
 20
83.577492254031768
 30
0.0
 42
0.3812119866949899
  0
VERTEX
  5
2228
  8
SAPA_FOGBAND
 10
-0.7931203998028518
 20
83.401598479092215
 30
0.0
  0
VERTEX
  5
2229
  8
SAPA_FOGBAND
 10
-0.6210037006939256
 20
82.683011617342103
 30
0.0
 42
-0.3812119866949819
  0
VERTEX
  5
222A
  8
SAPA_FOGBAND
 10
-0.7155746133242529
 20
82.507117842402394
 30
0.0
  0
VERTEX
  5
222B
  8
SAPA_FOGBAND
 10
-3.8651621799875309
 20
81.360761717922045
 30
0.0
 42
-0.4142135623730951
  0
VERTEX
  5
222C
  8
SAPA_FOGBAND
 10
-4.12150473281004
 20
81.480296213413823
 30
0.0
  0
VERTEX
  5
222D
  8
SAPA_FOGBAND
 10
-4.3951208474701318
 20
82.232050310042666
 30
0.0
 42
0.4142135623730951
  0
VERTEX
  5
222E
  8
SAPA_FOGBAND
 10
-4.6514634002927204
 20
82.351584805534657
 30
0.0
  0
VERTEX
  5
222F
  8
SAPA_FOGBAND
 10
-5.0273404486071689
 20
82.214776748204372
 30
0.0
 42
-0.4142135623731784
  0
VERTEX
  5
2230
  8
SAPA_FOGBAND
 10
-5.2836830014293277
 20
82.334311243696504
 30
0.0
  0
VERTEX
  5
2231
  8
SAPA_FOGBAND
 10
-5.6501913794458618
 20
83.341284736337869
 30
0.0
 42
-0.7038255290761633
  0
VERTEX
  5
2232
  8
SAPA_FOGBAND
 10
-5.5053849259785128
 20
83.461600512472558
 30
0.0
  0
VERTEX
  5
2233
  8
SAPA_FOGBAND
 10
-4.4022394172932309
 20
82.810359431126074
 30
0.0
 42
0.9999999999999552
  0
VERTEX
  5
2234
  8
SAPA_FOGBAND
 10
-3.9955418861826688
 20
83.499269525542346
 30
0.0
  0
VERTEX
  5
2235
  8
SAPA_FOGBAND
 10
-5.5455895986191051
 20
84.414338970541507
 30
0.0
 42
0.2242387338111004
  0
VERTEX
  5
2236
  8
SAPA_FOGBAND
 10
-6.6085796701364554
 20
84.512532723998433
 30
0.0
 42
0.2242387338111007
  0
VERTEX
  5
2237
  8
SAPA_FOGBAND
 10
-7.3597595794422377
 20
83.754035097622619
 30
0.0
  0
VERTEX
  5
2238
  8
SAPA_FOGBAND
 10
-7.9589697148752387
 20
82.056699770235923
 30
0.0
 42
0.9999999999999548
  0
VERTEX
  5
2239
  8
SAPA_FOGBAND
 10
-7.2045984582590306
 20
81.790384154487754
 30
0.0
  0
VERTEX
  5
223A
  8
SAPA_FOGBAND
 10
-6.7781496693873837
 20
82.998352030648263
 30
0.0
 42
-0.7038255290761636
  0
VERTEX
  5
223B
  8
SAPA_FOGBAND
 10
-6.5898840002317707
 20
82.999264593012214
 30
0.0
  0
VERTEX
  5
223C
  8
SAPA_FOGBAND
 10
-6.2233756222153147
 20
81.992291100371077
 30
0.0
 42
-0.4142135623730117
  0
VERTEX
  5
223D
  8
SAPA_FOGBAND
 10
-6.3429101177071763
 20
81.735948547548773
 30
0.0
  0
VERTEX
  5
223E
  8
SAPA_FOGBAND
 10
-6.7187871660215466
 20
81.599140490218247
 30
0.0
 42
0.4142135623730951
  0
VERTEX
  5
223F
  8
SAPA_FOGBAND
 10
-6.8383216615139126
 20
81.342797937396014
 30
0.0
  0
SEQEND
  5
2240
  8
SAPA_FOGBAND
  0
DIMENSION
  5
1D0A
  8
SAPA_MATT
  2
*D41
 10
-92.391848771963012
 20
-418.50026993268119
 30
0.0
 11
-146.0441018227778
 21
-278.40142717310903
 31
0.0
 70
     0
  1
300
 51
340.00000000000011
 13
-145.56507866186351
 23
-118.6004111296253
 33
0.0
 14
-33.792240355757592
 24
-397.1717567295272
 34
0.0
 50
109.9999999999999
1001
ACAD
1000
DSTYLE
1002
{
1070
    40
1040
1.0
1002
}
  0
DIMENSION
  5
1D0B
  8
SAPA_MATT
  2
*D40
 10
-133.1284819259875
 20
-273.70052597358091
 30
0.0
 11
-161.12922422737731
 21
-204.0786297729519
 31
0.0
 70
     0
  1
150
 51
340.00000000000011
 13
-146.97461759304241
 23
-119.1134413446138
 33
0.0
 14
-95.671596094192324
 24
-260.06733446250001
 34
0.0
 50
109.9999999999999
1001
ACAD
1000
DSTYLE
1002
{
1070
    40
1040
1.0
1002
}
  0
VIEWPORT
  5
C4
 67
     1
  8
0
 10
143.06236603067589
 20
116.00969601843509
 30
0.0
 40
369.98580003443811
 41
256.8421457311839
 68
     1
 69
     1
1001
ACAD
1000
MVIEW
1002
{
1070
    16
1010
0.0
1020
0.0
1030
0.0
1010
0.0
1020
0.0
1030
1.0
1040
0.0
1040
256.8421457311839
1040
99.112914085388169
1040
143.07606935501099
1040
50.0
1040
0.0
1040
0.0
1070
     0
1070
     0
1070
     1
1070
     1
1070
     0
1070
     0
1070
     0
1070
     0
1040
0.0
1040
0.0
1040
0.0
1040
10.0
1040
10.0
1040
10.0
1040
10.0
1070
     0
1002
{
1002
}
1002
}
  0
ENDSEC
  0
EOF
