  0
SECTION
  2
HEADER
  9
$ACADVER
  1
AC1009
  9
$INSBASE
 10
0.0
 20
0.0
 30
0.0
  9
$EXTMIN
 10
-61.654799543902861
 20
-51.221923806403041
 30
0.0
  9
$EXTMAX
 10
95.404999581934845
 20
179.7275994403175
 30
0.0
  9
$LIMMIN
 10
0.0
 20
0.0
  9
$LIMMAX
 10
790.0
 20
790.0
  9
$ORTHOMODE
 70
     0
  9
$REGENMODE
 70
     1
  9
$FILLMODE
 70
     1
  9
$QTEXTMODE
 70
     0
  9
$MIRRTEXT
 70
     1
  9
$DRAGMODE
 70
     2
  9
$LTSCALE
 40
4.0
  9
$OSMODE
 70
   167
  9
$ATTMODE
 70
     1
  9
$TEXTSIZE
 40
3.5
  9
$TRACEWID
 40
0.05
  9
$TEXTSTYLE
  7
ISO
  9
$CLAYER
  8
0
  9
$CELTYPE
  6
BYLAYER
  9
$CECOLOR
 62
   256
  9
$DIMSCALE
 40
0.0
  9
$DIMASZ
 40
3.0
  9
$DIMEXO
 40
1.5
  9
$DIMDLI
 40
10.0
  9
$DIMRND
 40
0.0
  9
$DIMDLE
 40
0.0
  9
$DIMEXE
 40
1.5
  9
$DIMTP
 40
0.0
  9
$DIMTM
 40
0.0
  9
$DIMTXT
 40
3.0
  9
$DIMCEN
 40
-5.0
  9
$DIMTSZ
 40
0.0
  9
$DIMTOL
 70
     0
  9
$DIMLIM
 70
     0
  9
$DIMTIH
 70
     0
  9
$DIMTOH
 70
     0
  9
$DIMSE1
 70
     0
  9
$DIMSE2
 70
     0
  9
$DIMTAD
 70
     1
  9
$DIMZIN
 70
     8
  9
$DIMBLK
  1

  9
$DIMASO
 70
     1
  9
$DIMSHO
 70
     1
  9
$DIMPOST
  1

  9
$DIMAPOST
  1

  9
$DIMALT
 70
     0
  9
$DIMALTD
 70
     0
  9
$DIMALTF
 40
25.399999999999999
  9
$DIMLFAC
 40
-1.0
  9
$DIMTOFL
 70
     1
  9
$DIMTVP
 40
0.0
  9
$DIMTIX
 70
     0
  9
$DIMSOXD
 70
     0
  9
$DIMSAH
 70
     0
  9
$DIMBLK1
  1

  9
$DIMBLK2
  1

  9
$DIMSTYLE
  2
MASKIN
  9
$DIMCLRD
 70
   256
  9
$DIMCLRE
 70
   256
  9
$DIMCLRT
 70
     2
  9
$DIMTFAC
 40
1.0
  9
$DIMGAP
 40
1.0
  9
$LUNITS
 70
     2
  9
$LUPREC
 70
     8
  9
$SKETCHINC
 40
0.1
  9
$FILLETRAD
 40
0.0
  9
$AUNITS
 70
     0
  9
$AUPREC
 70
     8
  9
$MENU
  1
ACAD
  9
$ELEVATION
 40
0.0
  9
$PELEVATION
 40
0.0
  9
$THICKNESS
 40
0.0
  9
$LIMCHECK
 70
     0
  9
$BLIPMODE
 70
     0
  9
$CHAMFERA
 40
0.0
  9
$CHAMFERB
 40
0.0
  9
$SKPOLY
 70
     0
  9
$TDCREATE
 40
2455001.320694143
  9
$TDUPDATE
 40
2456001.3839429282
  9
$TDINDWG
 40
0.0068908449
  9
$TDUSRTIMER
 40
0.0068906597
  9
$USRTIMER
 70
     1
  9
$ANGBASE
 50
0.0
  9
$ANGDIR
 70
     0
  9
$PDMODE
 70
     0
  9
$PDSIZE
 40
0.0
  9
$PLINEWID
 40
0.0
  9
$COORDS
 70
     1
  9
$SPLFRAME
 70
     0
  9
$SPLINETYPE
 70
     6
  9
$SPLINESEGS
 70
     8
  9
$ATTDIA
 70
     0
  9
$ATTREQ
 70
     1
  9
$HANDLING
 70
     1
  9
$HANDSEED
  5
1FEA
  9
$SURFTAB1
 70
     6
  9
$SURFTAB2
 70
     6
  9
$SURFTYPE
 70
     6
  9
$SURFU
 70
     6
  9
$SURFV
 70
     6
  9
$UCSNAME
  2

  9
$UCSORG
 10
0.0
 20
0.0
 30
0.0
  9
$UCSXDIR
 10
1.0
 20
0.0
 30
0.0
  9
$UCSYDIR
 10
0.0
 20
1.0
 30
0.0
  9
$PUCSNAME
  2

  9
$PUCSORG
 10
0.0
 20
0.0
 30
0.0
  9
$PUCSXDIR
 10
1.0
 20
0.0
 30
0.0
  9
$PUCSYDIR
 10
0.0
 20
1.0
 30
0.0
  9
$USERI1
 70
     0
  9
$USERI2
 70
     0
  9
$USERI3
 70
     0
  9
$USERI4
 70
     0
  9
$USERI5
 70
     0
  9
$USERR1
 40
0.0
  9
$USERR2
 40
0.0
  9
$USERR3
 40
0.0
  9
$USERR4
 40
0.0
  9
$USERR5
 40
0.0
  9
$WORLDVIEW
 70
     1
  9
$SHADEDGE
 70
     3
  9
$SHADEDIF
 70
    70
  9
$TILEMODE
 70
     1
  9
$MAXACTVP
 70
    16
  9
$PLIMCHECK
 70
     0
  9
$PEXTMIN
 10
5.869999703752308
 20
-0.0000001723469722
 30
0.0
  9
$PEXTMAX
 10
185.86836054690431
 20
282.99999982765303
 30
0.0
  9
$PLIMMIN
 10
-14.406514999948911
 20
-4.2536696474310238
  9
$PLIMMAX
 10
195.56681263676981
 20
292.67232522561591
  9
$UNITMODE
 70
     0
  9
$VISRETAIN
 70
     1
  9
$PLINEGEN
 70
     0
  9
$PSLTSCALE
 70
     1
  0
ENDSEC
  0
SECTION
  2
TABLES
  0
TABLE
  2
VPORT
 70
     1
  0
VPORT
  2
*ACTIVE
 70
     0
 10
0.0
 20
0.0
 11
1.0
 21
1.0
 12
158.2471165424885
 22
126.16485367135989
 13
0.0
 23
0.0
 14
1.0
 24
1.0
 15
0.0
 25
0.0
 16
0.0
 26
0.0
 36
1.0
 17
0.0
 27
0.0
 37
0.0
 40
231.88210033527011
 41
2.37391304347826
 42
50.0
 43
0.0
 44
0.0
 50
0.0
 51
0.0
 71
     0
 72
   100
 73
     1
 74
     1
 75
     0
 76
     0
 77
     0
 78
     0
  0
ENDTAB
  0
TABLE
  2
LTYPE
 70
    18
  0
LTYPE
  2
CONTINUOUS
 70
     0
  3
Solid line
 72
    65
 73
     0
 40
0.0
  0
LTYPE
  2
BYGG-014252$0$NEWDOT
 70
     0
  3
____ . ____ . ____ . ____ . ____ . ____ . ____
 72
    65
 73
     4
 40
2.0
 49
1.0
 49
-0.5
 49
0.0
 49
-0.5
  0
LTYPE
  2
BYGG-015039$0$DASHDOT
 70
     0
  3
__ . __ . __ . __ . __ . __ . __ . __ . __ . __
 72
    65
 73
     4
 40
1.0
 49
0.5
 49
-0.25
 49
0.0
 49
-0.25
  0
LTYPE
  2
BYGG-014344$0$NEWDOT
 70
     0
  3
____ . ____ . ____ . ____ . ____ . ____ . ____
 72
    65
 73
     4
 40
2.0
 49
1.0
 49
-0.5
 49
0.0
 49
-0.5
  0
LTYPE
  2
BYGG-01473602$0$NEWDOT
 70
     0
  3
____ . ____ . ____ . ____ . ____ . ____ . ____
 72
    65
 73
     4
 40
2.0
 49
1.0
 49
-0.5
 49
0.0
 49
-0.5
  0
LTYPE
  2
BYGG-014252$0$ZIGZAG
 70
     0
  3
Zig zag /\/\/\/\/\/\/\/\/\/\/\/\/\/\/\/\/\/\/\/\/\/\/\/
 72
    65
 73
     4
 40
20.32254
 49
0.00254
 49
-5.0800000000000001
 49
-10.16
 49
-5.0800000000000001
  0
LTYPE
  2
BYGG-024275$0$DASHDOT
 70
     0
  3
__ . __ . __ . __ . __ . __ . __ . __ . __ . __
 72
    65
 73
     4
 40
1.0
 49
0.5
 49
-0.25
 49
0.0
 49
-0.25
  0
LTYPE
  2
BYGG-015039$0$NEWDOT
 70
     0
  3
____ . ____ . ____ . ____ . ____ . ____ . ____
 72
    65
 73
     4
 40
2.0
 49
1.0
 49
-0.5
 49
0.0
 49
-0.5
  0
LTYPE
  2
BYGG-015039$0$DASHED
 70
     0
  3
__ __ __ __ __ __ __ __ __ __ __ __ __ __ __
 72
    65
 73
     2
 40
0.75
 49
0.5
 49
-0.25
  0
LTYPE
  2
BYGG-015039$0$ZIGZAG
 70
     0
  3
Zig zag /\/\/\/\/\/\/\/\/\/\/\/\/\/\/\/\/\/\/\/\/\/\/\/
 72
    65
 73
     4
 40
20.32254
 49
0.00254
 49
-5.0800000000000001
 49
-10.16
 49
-5.0800000000000001
  0
LTYPE
  2
BYGG-024775$0$DASHDOT
 70
     0
  3
__ . __ . __ . __ . __ . __ . __ . __ . __ . __
 72
    65
 73
     4
 40
1.0
 49
0.5
 49
-0.25
 49
0.0
 49
-0.25
  0
LTYPE
  2
BYGG-025059$0$DASHDOT
 70
     0
  3
__ . __ . __ . __ . __ . __ . __ . __ . __ . __
 72
    65
 73
     4
 40
1.0
 49
0.5
 49
-0.25
 49
0.0
 49
-0.25
  0
LTYPE
  2
BYGG-024776$0$NEWDOT
 70
     0
  3
____ . ____ . ____ . ____ . ____ . ____ . ____
 72
    65
 73
     4
 40
2.0
 49
1.0
 49
-0.5
 49
0.0
 49
-0.5
  0
LTYPE
  2
BYGG-024776$0$DASHDOT
 70
     0
  3
__ . __ . __ . __ . __ . __ . __ . __ . __ . __
 72
    65
 73
     4
 40
1.0
 49
0.5
 49
-0.25
 49
0.0
 49
-0.25
  0
LTYPE
  2
BYGG-024777$0$NEWDOT
 70
     0
  3
____ . ____ . ____ . ____ . ____ . ____ . ____
 72
    65
 73
     4
 40
2.0
 49
1.0
 49
-0.5
 49
0.0
 49
-0.5
  0
LTYPE
  2
BYGG-024777$0$DASHDOT
 70
     0
  3
__ . __ . __ . __ . __ . __ . __ . __ . __ . __
 72
    65
 73
     4
 40
1.0
 49
0.5
 49
-0.25
 49
0.0
 49
-0.25
  0
LTYPE
  2
BYGG-014344$0$ZIGZAG
 70
     0
  3
Zig zag /\/\/\/\/\/\/\/\/\/\/\/\/\/\/\/\/\/\/\/\/\/\/\/
 72
    65
 73
     4
 40
20.32254
 49
0.00254
 49
-5.0800000000000001
 49
-10.16
 49
-5.0800000000000001
  0
LTYPE
  2
BYGG-01473602$0$ZIGZAG
 70
     0
  3
Zig zag /\/\/\/\/\/\/\/\/\/\/\/\/\/\/\/\/\/\/\/\/\/\/\/
 72
    65
 73
     4
 40
20.32254
 49
0.00254
 49
-5.0800000000000001
 49
-10.16
 49
-5.0800000000000001
  0
ENDTAB
  0
TABLE
  2
LAYER
 70
   105
  0
LAYER
  2
0
 70
     0
 62
     7
  6
CONTINUOUS
  0
LAYER
  2
DEFPOINTS
 70
     0
 62
     7
  6
CONTINUOUS
  0
LAYER
  2
3D-RAM
 70
     0
 62
     3
  6
CONTINUOUS
  0
LAYER
  2
SAPA_ARTIKELNR
 70
     0
 62
     4
  6
CONTINUOUS
  0
LAYER
  2
SAPA_LIGHT
 70
     1
 62
     1
  6
CONTINUOUS
  0
LAYER
  2
RAM_GRENS2
 70
     0
 62
     3
  6
CONTINUOUS
  0
LAYER
  2
BYGG-024775$0$MATT
 70
     0
 62
     1
  6
CONTINUOUS
  0
LAYER
  2
BYGG-024775$0$LACK_SYNLIGY
 70
     0
 62
     2
  6
BYGG-024775$0$DASHDOT
  0
LAYER
  2
BYGG-024775$0$LACK_MINDRES
 70
     0
 62
     1
  6
CONTINUOUS
  0
LAYER
  2
BYGG-024775$0$0_ÖPPEN-PROF
 70
     0
 62
     7
  6
CONTINUOUS
  0
LAYER
  2
BYGG-025059$0$MATT
 70
     0
 62
     1
  6
CONTINUOUS
  0
LAYER
  2
BYGG-025059$0$LACK_MINDRES
 70
     0
 62
     1
  6
CONTINUOUS
  0
LAYER
  2
BYGG-025059$0$0_ÖPPEN-PROF
 70
     0
 62
     7
  6
CONTINUOUS
  0
LAYER
  2
BYGG-024973$0$ISOLATOR
 70
     0
 62
     4
  6
CONTINUOUS
  0
LAYER
  2
SAPA_ISOLATOR
 70
     0
 62
     4
  6
CONTINUOUS
  0
LAYER
  2
SAPA_MATT
 70
     0
 62
     1
  6
CONTINUOUS
  0
LAYER
  2
SAPA_GLAS
 70
     0
 62
     4
  6
CONTINUOUS
  0
LAYER
  2
SAPA_FOGBAND
 70
     0
 62
     2
  6
CONTINUOUS
  0
LAYER
  2
SAPA_PROFIL
 70
     0
 62
     7
  6
CONTINUOUS
  0
ENDTAB
  0
TABLE
  2
STYLE
 70
    36
  0
STYLE
  2
STANDARD
 70
     0
 40
0.0
 41
1.0
 50
0.0
 71
     0
 42
0.2
  3
txt
  4

  0
STYLE
  2
ISO
 70
     0
 40
0.0
 41
1.0
 50
0.0
 71
     0
 42
3.5
  3
txt
  4

  0
STYLE
  2

 70
     1
 40
0.0
 41
1.0
 50
0.0
 71
     0
 42
0.2
  3
ltypeshp.shx
  4

  0
STYLE
  2
BYGG-024082$0$STANDARD
 70
     0
 40
0.0
 41
1.0
 50
0.0
 71
     0
 42
0.2
  3
txt
  4

  0
STYLE
  2
BYGG-024082$0$ISO
 70
     0
 40
0.0
 41
1.0
 50
0.0
 71
     0
 42
3.5
  3
txt
  4

  0
STYLE
  2
BYGG-014252$0$STANDARD
 70
     0
 40
0.0
 41
1.0
 50
0.0
 71
     0
 42
0.2
  3
txt
  4

  0
STYLE
  2
BYGG-014252$0$ISO
 70
     0
 40
0.0
 41
1.0
 50
0.0
 71
     0
 42
2.5
  3
isocp3.shx
  4

  0
STYLE
  2
BYGG-014014$0$STANDARD
 70
     0
 40
0.0
 41
1.0
 50
0.0
 71
     0
 42
0.2
  3
txt
  4

  0
STYLE
  2
BYGG-024083$0$STANDARD
 70
     0
 40
0.0
 41
1.0
 50
0.0
 71
     0
 42
0.2
  3
txt
  4

  0
STYLE
  2
BYGG-024083$0$ISO
 70
     0
 40
0.0
 41
1.0
 50
0.0
 71
     0
 42
3.5
  3
txt
  4

  0
STYLE
  2
BYGG-024275$0$STANDARD
 70
     0
 40
0.0
 41
1.0
 50
0.0
 71
     0
 42
0.2
  3
txt
  4

  0
STYLE
  2
BYGG-024275$0$ISO
 70
     0
 40
0.0
 41
1.0
 50
0.0
 71
     0
 42
3.5
  3
txt
  4

  0
STYLE
  2
BYGG-015039$0$STANDARD
 70
     0
 40
0.0
 41
1.0
 50
0.0
 71
     0
 42
0.2
  3
txt
  4

  0
STYLE
  2
BYGG-015039$0$ISO
 70
     0
 40
0.0
 41
1.0
 50
0.0
 71
     0
 42
3.5
  3
txt
  4

  0
STYLE
  2
BYGG-024775$0$STANDARD
 70
     0
 40
0.0
 41
1.0
 50
0.0
 71
     0
 42
0.2
  3
txt
  4

  0
STYLE
  2
BYGG-024775$0$ISO
 70
     0
 40
0.0
 41
1.0
 50
0.0
 71
     0
 42
3.5
  3
txt
  4

  0
STYLE
  2
BYGG-024775$0$ANNOTATIVE
 70
     0
 40
0.0
 41
1.0
 50
0.0
 71
     0
 42
0.2
  3
txt
  4

  0
STYLE
  2
BYGG-025059$0$STANDARD
 70
     0
 40
0.0
 41
1.0
 50
0.0
 71
     0
 42
0.2
  3
txt
  4

  0
STYLE
  2
BYGG-025059$0$ISO
 70
     0
 40
0.0
 41
1.0
 50
0.0
 71
     0
 42
3.5
  3
txt
  4

  0
STYLE
  2
BYGG-025059$0$ANNOTATIVE
 70
     0
 40
0.0
 41
1.0
 50
0.0
 71
     0
 42
0.2
  3
txt
  4

  0
STYLE
  2
BYGG-024776$0$STANDARD
 70
     0
 40
0.0
 41
1.0
 50
0.0
 71
     0
 42
0.2
  3
txt
  4

  0
STYLE
  2
BYGG-024776$0$ISO
 70
     0
 40
0.0
 41
1.0
 50
0.0
 71
     0
 42
3.5
  3
txt
  4

  0
STYLE
  2
BYGG-024973$0$STANDARD
 70
     0
 40
0.0
 41
1.0
 50
0.0
 71
     0
 42
0.2
  3
txt
  4

  0
STYLE
  2
BYGG-024973$0$ISO
 70
     0
 40
0.0
 41
1.0
 50
0.0
 71
     0
 42
3.5
  3
txt
  4

  0
STYLE
  2
BYGG-011943$0$STANDARD
 70
     0
 40
0.0
 41
1.0
 50
0.0
 71
     0
 42
0.2
  3
txt
  4

  0
STYLE
  2
BYGG-011943$0$ISO
 70
     0
 40
0.0
 41
1.0
 50
0.0
 71
     0
 42
3.5
  3
txt
  4

  0
STYLE
  2
BYGG-024777$0$STANDARD
 70
     0
 40
0.0
 41
1.0
 50
0.0
 71
     0
 42
0.2
  3
txt
  4

  0
STYLE
  2
BYGG-024777$0$ISO
 70
     0
 40
0.0
 41
1.0
 50
0.0
 71
     0
 42
3.5
  3
txt
  4

  0
STYLE
  2
BYGG-024270$0$STANDARD
 70
     0
 40
0.0
 41
1.0
 50
0.0
 71
     0
 42
0.2
  3
txt
  4

  0
STYLE
  2
BYGG-024270$0$ISO
 70
     0
 40
0.0
 41
1.0
 50
0.0
 71
     0
 42
3.5
  3
txt
  4

  0
STYLE
  2
BYGG-014344$0$STANDARD
 70
     0
 40
0.0
 41
1.0
 50
0.0
 71
     0
 42
0.2
  3
txt
  4

  0
STYLE
  2
BYGG-014344$0$ISO
 70
     0
 40
0.0
 41
1.0
 50
0.0
 71
     0
 42
3.5
  3
isocp3.shx
  4

  0
STYLE
  2
BYGG-024116$0$STANDARD
 70
     0
 40
0.0
 41
1.0
 50
0.0
 71
     0
 42
0.2
  3
txt
  4

  0
STYLE
  2
BYGG-024116$0$ISO
 70
     0
 40
0.0
 41
1.0
 50
0.0
 71
     0
 42
3.5
  3
txt
  4

  0
STYLE
  2
BYGG-01473602$0$STANDARD
 70
     0
 40
0.0
 41
1.0
 50
0.0
 71
     0
 42
0.2
  3
txt
  4

  0
STYLE
  2
BYGG-01473602$0$ISO
 70
     0
 40
0.0
 41
1.0
 50
0.0
 71
     0
 42
2.5
  3
isocp3.shx
  4

  0
ENDTAB
  0
TABLE
  2
VIEW
 70
     0
  0
ENDTAB
  0
TABLE
  2
UCS
 70
     0
  0
ENDTAB
  0
TABLE
  2
APPID
 70
    25
  0
APPID
  2
ACAD
 70
     0
  0
APPID
  2
ACAD_DSTYLE_DIMTEXT_FILL
 70
     0
  0
APPID
  2
ACAD_DSTYLE_DIMEXT_LENGTH
 70
     0
  0
APPID
  2
ACAD_DSTYLE_DIMEXT_ENABLED
 70
     0
  0
APPID
  2
ACAD_DSTYLE_DIM_LINETYPE
 70
     0
  0
APPID
  2
ACAD_DSTYLE_DIM_EXT1_LINETYPE
 70
     0
  0
APPID
  2
ACAD_DSTYLE_DIM_EXT2_LINETYPE
 70
     0
  0
APPID
  2
ACAD_DSTYLE_DIMJOGGED_JOGA
 70
     0
  0
APPID
  2
ACAD_DSTYLE_DIMARC_LENGTH_
 70
     0
  0
APPID
  2
ACAD_PSEXT
 70
     0
  0
APPID
  2
ACAD_MLEADERVER
 70
     0
  0
APPID
  2
AME_SOL
 70
     0
  0
APPID
  2
AMG_ARCHIVE11
 70
     0
  0
APPID
  2
DCO15
 70
     0
  0
APPID
  2
ACAD_EXEMPT_FROM_CAD_STANDARDS
 70
     0
  0
APPID
  2
ACADANNOTATIVE
 70
     0
  0
APPID
  2
ACAECLAYERSTANDARD
 70
     0
  0
APPID
  2
ACDBDYNAMICBLOCKGUID
 70
     0
  0
APPID
  2
ACDBBLOCKREPETAG
 70
     0
  0
APPID
  2
ACAUTHENVIRON
 70
     0
  0
APPID
  2
ACDBDYNAMICBLOCKTRUENAME
 70
     0
  0
APPID
  2
ACAD_NAV_VCDISPLAY
 70
     0
  0
APPID
  2
AEC_XDATA_BOUND_SPACE
 70
     0
  0
APPID
  2
ACCMTRANSPARENCY
 70
     0
  0
APPID
  2
CONTENTBLOCKICON
 70
     0
  0
ENDTAB
  0
TABLE
  2
DIMSTYLE
 70
    35
  0
DIMSTYLE
  2
STANDARD
 70
     0
  3

  4

  5

  6

  7

 40
1.0
 41
0.18
 42
0.0625
 43
0.38
 44
0.18
 45
0.0
 46
0.0
 47
0.0
 48
0.0
140
0.18
141
0.09
142
0.0
143
25.399999999999999
144
1.0
145
0.0
146
1.0
147
0.09
 71
     0
 72
     0
 73
     1
 74
     1
 75
     0
 76
     0
 77
     0
 78
     0
170
     0
171
     2
172
     0
173
     0
174
     0
175
     0
176
     0
177
     0
178
     0
  0
DIMSTYLE
  2
MASKIN
 70
     0
  3

  4

  5

  6

  7

 40
0.0
 41
3.0
 42
1.5
 43
10.0
 44
1.5
 45
0.0
 46
0.0
 47
0.0
 48
0.0
140
3.0
141
-5.0
142
0.0
143
25.399999999999999
144
-1.0
145
0.0
146
1.0
147
1.0
 71
     0
 72
     0
 73
     0
 74
     0
 75
     0
 76
     0
 77
     1
 78
     8
170
     0
171
     0
172
     1
173
     0
174
     0
175
     0
176
   256
177
   256
178
     2
  0
DIMSTYLE
  2
BYGG-024082$0$STANDARD
 70
     0
  3

  4

  5

  6

  7

 40
1.0
 41
0.18
 42
0.0625
 43
0.38
 44
0.18
 45
0.0
 46
0.0
 47
0.0
 48
0.0
140
0.18
141
0.09
142
0.0
143
25.399999999999999
144
1.0
145
0.0
146
1.0
147
0.09
 71
     0
 72
     0
 73
     1
 74
     1
 75
     0
 76
     0
 77
     0
 78
     0
170
     0
171
     2
172
     0
173
     0
174
     0
175
     0
176
     0
177
     0
178
     0
  0
DIMSTYLE
  2
BYGG-024082$0$MASKIN
 70
     0
  3

  4

  5

  6

  7

 40
0.0
 41
3.0
 42
1.5
 43
10.0
 44
1.5
 45
0.0
 46
0.0
 47
0.0
 48
0.0
140
3.0
141
-5.0
142
0.0
143
25.399999999999999
144
-1.0
145
0.0
146
1.0
147
1.0
 71
     0
 72
     0
 73
     0
 74
     0
 75
     0
 76
     0
 77
     1
 78
     8
170
     0
171
     0
172
     1
173
     0
174
     0
175
     0
176
   256
177
   256
178
     2
  0
DIMSTYLE
  2
BYGG-014252$0$STANDARD
 70
     0
  3

  4

  5

  6

  7

 40
1.0
 41
0.18
 42
0.0625
 43
0.38
 44
0.18
 45
0.0
 46
0.0
 47
0.0
 48
0.0
140
0.18
141
0.09
142
0.0
143
25.399999999999999
144
1.0
145
0.0
146
1.0
147
0.09
 71
     0
 72
     0
 73
     1
 74
     1
 75
     0
 76
     0
 77
     0
 78
     0
170
     0
171
     2
172
     0
173
     0
174
     0
175
     0
176
     0
177
     0
178
     0
  0
DIMSTYLE
  2
BYGG-014252$0$MASKIN
 70
     0
  3

  4

  5

  6

  7

 40
0.0
 41
3.0
 42
1.5
 43
10.0
 44
1.5
 45
0.0
 46
0.0
 47
0.0
 48
0.0
140
3.0
141
-5.0
142
0.0
143
25.399999999999999
144
-1.0
145
0.0
146
1.0
147
1.0
 71
     0
 72
     0
 73
     0
 74
     1
 75
     0
 76
     0
 77
     1
 78
     8
170
     0
171
     0
172
     1
173
     0
174
     0
175
     0
176
   256
177
   256
178
     2
  0
DIMSTYLE
  2
BYGG-014014$0$STANDARD
 70
     0
  3

  4

  5

  6

  7

 40
1.0
 41
0.18
 42
0.0625
 43
0.38
 44
0.18
 45
0.0
 46
0.0
 47
0.0
 48
0.0
140
0.18
141
0.09
142
0.0
143
25.399999999999999
144
1.0
145
0.0
146
1.0
147
0.09
 71
     0
 72
     0
 73
     1
 74
     1
 75
     0
 76
     0
 77
     0
 78
     0
170
     0
171
     2
172
     0
173
     0
174
     0
175
     0
176
     0
177
     0
178
     0
  0
DIMSTYLE
  2
BYGG-024083$0$STANDARD
 70
     0
  3

  4

  5

  6

  7

 40
1.0
 41
0.18
 42
0.0625
 43
0.38
 44
0.18
 45
0.0
 46
0.0
 47
0.0
 48
0.0
140
0.18
141
0.09
142
0.0
143
25.399999999999999
144
1.0
145
0.0
146
1.0
147
0.09
 71
     0
 72
     0
 73
     1
 74
     1
 75
     0
 76
     0
 77
     0
 78
     0
170
     0
171
     2
172
     0
173
     0
174
     0
175
     0
176
     0
177
     0
178
     0
  0
DIMSTYLE
  2
BYGG-024083$0$MASKIN
 70
     0
  3

  4

  5

  6

  7

 40
0.0
 41
3.0
 42
1.5
 43
10.0
 44
1.5
 45
0.0
 46
0.0
 47
0.0
 48
0.0
140
3.0
141
-5.0
142
0.0
143
25.399999999999999
144
-1.0
145
0.0
146
1.0
147
1.0
 71
     0
 72
     0
 73
     0
 74
     0
 75
     0
 76
     0
 77
     1
 78
     8
170
     0
171
     0
172
     1
173
     0
174
     0
175
     0
176
   256
177
   256
178
     2
  0
DIMSTYLE
  2
BYGG-024275$0$STANDARD
 70
     0
  3

  4

  5

  6

  7

 40
1.0
 41
0.18
 42
0.0625
 43
0.38
 44
0.18
 45
0.0
 46
0.0
 47
0.0
 48
0.0
140
0.18
141
0.09
142
0.0
143
25.399999999999999
144
1.0
145
0.0
146
1.0
147
0.09
 71
     0
 72
     0
 73
     1
 74
     1
 75
     0
 76
     0
 77
     0
 78
     0
170
     0
171
     2
172
     0
173
     0
174
     0
175
     0
176
     0
177
     0
178
     0
  0
DIMSTYLE
  2
BYGG-024275$0$MASKIN
 70
     0
  3

  4

  5

  6

  7

 40
0.0
 41
3.0
 42
1.5
 43
10.0
 44
1.5
 45
0.0
 46
0.0
 47
0.0
 48
0.0
140
3.0
141
-5.0
142
0.0
143
25.399999999999999
144
-1.0
145
0.0
146
1.0
147
1.0
 71
     0
 72
     0
 73
     0
 74
     0
 75
     0
 76
     0
 77
     1
 78
     8
170
     0
171
     0
172
     1
173
     0
174
     0
175
     0
176
   256
177
   256
178
     2
  0
DIMSTYLE
  2
BYGG-015039$0$MASKIN
 70
     0
  3

  4

  5

  6

  7

 40
0.0
 41
3.0
 42
1.5
 43
10.0
 44
1.5
 45
0.0
 46
0.0
 47
0.0
 48
0.0
140
3.0
141
-5.0
142
0.0
143
25.399999999999999
144
-1.0
145
0.0
146
1.0
147
1.0
 71
     0
 72
     0
 73
     0
 74
     0
 75
     0
 76
     0
 77
     1
 78
     8
170
     0
171
     0
172
     1
173
     0
174
     0
175
     0
176
   256
177
   256
178
   256
  0
DIMSTYLE
  2
BYGG-015039$0$STANDARD
 70
     0
  3

  4

  5

  6

  7

 40
1.0
 41
0.18
 42
0.0625
 43
0.38
 44
0.18
 45
0.0
 46
0.0
 47
0.0
 48
0.0
140
0.18
141
0.09
142
0.0
143
25.399999999999999
144
1.0
145
0.0
146
1.0
147
0.09
 71
     0
 72
     0
 73
     1
 74
     1
 75
     0
 76
     0
 77
     0
 78
     0
170
     0
171
     2
172
     0
173
     0
174
     0
175
     0
176
     0
177
     0
178
     0
  0
DIMSTYLE
  2
BYGG-024775$0$MASKIN
 70
     0
  3

  4

  5

  6

  7

 40
0.0
 41
3.0
 42
1.5
 43
10.0
 44
1.5
 45
0.0
 46
0.0
 47
0.0
 48
0.0
140
3.0
141
-5.0
142
0.0
143
25.399999999999999
144
-1.0
145
0.0
146
1.0
147
1.0
 71
     0
 72
     0
 73
     0
 74
     0
 75
     0
 76
     0
 77
     1
 78
     8
170
     0
171
     0
172
     1
173
     0
174
     0
175
     0
176
   256
177
   256
178
     2
  0
DIMSTYLE
  2
BYGG-024775$0$STANDARD
 70
     0
  3

  4

  5

  6

  7

 40
1.0
 41
0.18
 42
0.0625
 43
0.38
 44
0.18
 45
0.0
 46
0.0
 47
0.0
 48
0.0
140
0.18
141
0.09
142
0.0
143
25.399999999999999
144
1.0
145
0.0
146
1.0
147
0.09
 71
     0
 72
     0
 73
     1
 74
     1
 75
     0
 76
     0
 77
     0
 78
     0
170
     0
171
     2
172
     0
173
     0
174
     0
175
     0
176
     0
177
     0
178
     0
  0
DIMSTYLE
  2
BYGG-024775$0$ANNOTATIVE
 70
     0
  3

  4

  5

  6

  7

 40
1.0
 41
0.18
 42
0.0625
 43
0.38
 44
0.18
 45
0.0
 46
0.0
 47
0.0
 48
0.0
140
0.18
141
0.09
142
0.0
143
25.399999999999999
144
1.0
145
0.0
146
1.0
147
0.09
 71
     0
 72
     0
 73
     1
 74
     1
 75
     0
 76
     0
 77
     0
 78
     0
170
     0
171
     2
172
     0
173
     0
174
     0
175
     0
176
     0
177
     0
178
     0
  0
DIMSTYLE
  2
BYGG-025059$0$MASKIN
 70
     0
  3

  4

  5

  6

  7

 40
0.0
 41
3.0
 42
1.5
 43
10.0
 44
1.5
 45
0.0
 46
0.0
 47
0.0
 48
0.0
140
3.0
141
-5.0
142
0.0
143
25.399999999999999
144
-1.0
145
0.0
146
1.0
147
1.0
 71
     0
 72
     0
 73
     0
 74
     0
 75
     0
 76
     0
 77
     1
 78
     8
170
     0
171
     0
172
     1
173
     0
174
     0
175
     0
176
   256
177
   256
178
     2
  0
DIMSTYLE
  2
BYGG-025059$0$STANDARD
 70
     0
  3

  4

  5

  6

  7

 40
1.0
 41
0.18
 42
0.0625
 43
0.38
 44
0.18
 45
0.0
 46
0.0
 47
0.0
 48
0.0
140
0.18
141
0.09
142
0.0
143
25.399999999999999
144
1.0
145
0.0
146
1.0
147
0.09
 71
     0
 72
     0
 73
     1
 74
     1
 75
     0
 76
     0
 77
     0
 78
     0
170
     0
171
     2
172
     0
173
     0
174
     0
175
     0
176
     0
177
     0
178
     0
  0
DIMSTYLE
  2
BYGG-025059$0$ANNOTATIVE
 70
     0
  3

  4

  5

  6

  7

 40
1.0
 41
0.18
 42
0.0625
 43
0.38
 44
0.18
 45
0.0
 46
0.0
 47
0.0
 48
0.0
140
0.18
141
0.09
142
0.0
143
25.399999999999999
144
1.0
145
0.0
146
1.0
147
0.09
 71
     0
 72
     0
 73
     1
 74
     1
 75
     0
 76
     0
 77
     0
 78
     0
170
     0
171
     2
172
     0
173
     0
174
     0
175
     0
176
     0
177
     0
178
     0
  0
DIMSTYLE
  2
BYGG-024776$0$MASKIN
 70
     0
  3

  4

  5

  6

  7

 40
0.0
 41
3.0
 42
1.5
 43
10.0
 44
1.5
 45
0.0
 46
0.0
 47
0.0
 48
0.0
140
3.0
141
-5.0
142
0.0
143
25.399999999999999
144
-1.0
145
0.0
146
1.0
147
1.0
 71
     0
 72
     0
 73
     0
 74
     0
 75
     0
 76
     0
 77
     1
 78
     8
170
     0
171
     0
172
     1
173
     0
174
     0
175
     0
176
   256
177
   256
178
     2
  0
DIMSTYLE
  2
BYGG-024776$0$STANDARD
 70
     0
  3

  4

  5

  6

  7

 40
1.0
 41
0.18
 42
0.0625
 43
0.38
 44
0.18
 45
0.0
 46
0.0
 47
0.0
 48
0.0
140
0.18
141
0.09
142
0.0
143
25.399999999999999
144
1.0
145
0.0
146
1.0
147
0.09
 71
     0
 72
     0
 73
     1
 74
     1
 75
     0
 76
     0
 77
     0
 78
     0
170
     0
171
     2
172
     0
173
     0
174
     0
175
     0
176
     0
177
     0
178
     0
  0
DIMSTYLE
  2
BYGG-024973$0$STANDARD
 70
     0
  3

  4

  5

  6

  7

 40
1.0
 41
0.18
 42
0.0625
 43
0.38
 44
0.18
 45
0.0
 46
0.0
 47
0.0
 48
0.0
140
0.18
141
0.09
142
0.0
143
25.399999999999999
144
1.0
145
0.0
146
1.0
147
0.09
 71
     0
 72
     0
 73
     1
 74
     1
 75
     0
 76
     0
 77
     0
 78
     0
170
     0
171
     2
172
     0
173
     0
174
     0
175
     0
176
     0
177
     0
178
     0
  0
DIMSTYLE
  2
BYGG-024973$0$MASKIN
 70
     0
  3

  4

  5

  6

  7

 40
0.0
 41
3.0
 42
1.5
 43
10.0
 44
1.5
 45
0.0
 46
0.0
 47
0.0
 48
0.0
140
3.0
141
-5.0
142
0.0
143
25.399999999999999
144
-1.0
145
0.0
146
1.0
147
1.0
 71
     0
 72
     0
 73
     0
 74
     0
 75
     0
 76
     0
 77
     1
 78
     8
170
     0
171
     0
172
     1
173
     0
174
     0
175
     0
176
   256
177
   256
178
     2
  0
DIMSTYLE
  2
BYGG-011943$0$STANDARD
 70
     0
  3

  4

  5

  6

  7

 40
1.0
 41
0.18
 42
0.0625
 43
0.38
 44
0.18
 45
0.0
 46
0.0
 47
0.0
 48
0.0
140
0.18
141
0.09
142
0.0
143
25.399999999999999
144
1.0
145
0.0
146
1.0
147
0.09
 71
     0
 72
     0
 73
     1
 74
     1
 75
     0
 76
     0
 77
     0
 78
     0
170
     0
171
     2
172
     0
173
     0
174
     0
175
     0
176
     0
177
     0
178
     0
  0
DIMSTYLE
  2
BYGG-011943$0$MASKIN
 70
     0
  3

  4

  5

  6

  7

 40
0.0
 41
3.0
 42
1.5
 43
10.0
 44
1.5
 45
0.0
 46
0.0
 47
0.0
 48
0.0
140
3.0
141
-5.0
142
0.0
143
25.399999999999999
144
-1.0
145
0.0
146
1.0
147
1.0
 71
     0
 72
     0
 73
     0
 74
     0
 75
     0
 76
     0
 77
     1
 78
     8
170
     0
171
     0
172
     1
173
     0
174
     0
175
     0
176
   256
177
   256
178
     2
  0
DIMSTYLE
  2
BYGG-024777$0$MASKIN
 70
     0
  3

  4

  5

  6

  7

 40
0.0
 41
3.0
 42
1.5
 43
10.0
 44
1.5
 45
0.0
 46
0.0
 47
0.0
 48
0.0
140
3.0
141
-5.0
142
0.0
143
25.399999999999999
144
-1.0
145
0.0
146
1.0
147
1.0
 71
     0
 72
     0
 73
     0
 74
     0
 75
     0
 76
     0
 77
     1
 78
     8
170
     0
171
     0
172
     1
173
     0
174
     0
175
     0
176
   256
177
   256
178
     2
  0
DIMSTYLE
  2
BYGG-024777$0$STANDARD
 70
     0
  3

  4

  5

  6

  7

 40
1.0
 41
0.18
 42
0.0625
 43
0.38
 44
0.18
 45
0.0
 46
0.0
 47
0.0
 48
0.0
140
0.18
141
0.09
142
0.0
143
25.399999999999999
144
1.0
145
0.0
146
1.0
147
0.09
 71
     0
 72
     0
 73
     1
 74
     1
 75
     0
 76
     0
 77
     0
 78
     0
170
     0
171
     2
172
     0
173
     0
174
     0
175
     0
176
     0
177
     0
178
     0
  0
DIMSTYLE
  2
BYGG-024270$0$STANDARD
 70
     0
  3

  4

  5

  6

  7

 40
1.0
 41
0.18
 42
0.0625
 43
0.38
 44
0.18
 45
0.0
 46
0.0
 47
0.0
 48
0.0
140
0.18
141
0.09
142
0.0
143
25.399999999999999
144
1.0
145
0.0
146
1.0
147
0.09
 71
     0
 72
     0
 73
     1
 74
     1
 75
     0
 76
     0
 77
     0
 78
     0
170
     0
171
     2
172
     0
173
     0
174
     0
175
     0
176
     0
177
     0
178
     0
  0
DIMSTYLE
  2
BYGG-024270$0$MASKIN
 70
     0
  3

  4

  5

  6

  7

 40
0.0
 41
3.0
 42
1.5
 43
10.0
 44
1.5
 45
0.0
 46
0.0
 47
0.0
 48
0.0
140
3.0
141
-5.0
142
0.0
143
25.399999999999999
144
-1.0
145
0.0
146
1.0
147
1.0
 71
     0
 72
     0
 73
     0
 74
     0
 75
     0
 76
     0
 77
     1
 78
     8
170
     0
171
     0
172
     1
173
     0
174
     0
175
     0
176
   256
177
   256
178
     2
  0
DIMSTYLE
  2
BYGG-014344$0$MASKIN1
 70
     0
  3

  4

  5

  6

  7

 40
1.0
 41
3.0
 42
1.5
 43
10.0
 44
1.5
 45
0.0
 46
0.0
 47
0.0
 48
0.0
140
3.0
141
-5.0
142
0.0
143
25.399999999999999
144
1.0
145
0.0
146
1.0
147
0.9
 71
     0
 72
     0
 73
     0
 74
     0
 75
     0
 76
     0
 77
     1
 78
     8
170
     0
171
     0
172
     1
173
     0
174
     0
175
     0
176
   256
177
   256
178
   256
  0
DIMSTYLE
  2
BYGG-014344$0$STANDARD
 70
     0
  3

  4

  5

  6

  7

 40
1.0
 41
0.18
 42
0.0625
 43
0.38
 44
0.18
 45
0.0
 46
0.0
 47
0.0
 48
0.0
140
0.18
141
0.09
142
0.0
143
25.399999999999999
144
1.0
145
0.0
146
1.0
147
0.09
 71
     0
 72
     0
 73
     1
 74
     1
 75
     0
 76
     0
 77
     0
 78
     0
170
     0
171
     2
172
     0
173
     0
174
     0
175
     0
176
     0
177
     0
178
     0
  0
DIMSTYLE
  2
BYGG-024116$0$STANDARD
 70
     0
  3

  4

  5

  6

  7

 40
1.0
 41
0.18
 42
0.0625
 43
0.38
 44
0.18
 45
0.0
 46
0.0
 47
0.0
 48
0.0
140
0.18
141
0.09
142
0.0
143
25.399999999999999
144
1.0
145
0.0
146
1.0
147
0.09
 71
     0
 72
     0
 73
     1
 74
     1
 75
     0
 76
     0
 77
     0
 78
     0
170
     0
171
     2
172
     0
173
     0
174
     0
175
     0
176
     0
177
     0
178
     0
  0
DIMSTYLE
  2
BYGG-024116$0$MASKIN
 70
     0
  3

  4

  5

  6

  7

 40
0.0
 41
3.0
 42
1.5
 43
10.0
 44
1.5
 45
0.0
 46
0.0
 47
0.0
 48
0.0
140
3.0
141
-5.0
142
0.0
143
25.399999999999999
144
-1.0
145
0.0
146
1.0
147
1.0
 71
     0
 72
     0
 73
     0
 74
     0
 75
     0
 76
     0
 77
     1
 78
     8
170
     0
171
     0
172
     1
173
     0
174
     0
175
     0
176
   256
177
   256
178
     2
  0
DIMSTYLE
  2
BYGG-01473602$0$STANDARD
 70
     0
  3

  4

  5

  6

  7

 40
1.0
 41
0.18
 42
0.0625
 43
0.38
 44
0.18
 45
0.0
 46
0.0
 47
0.0
 48
0.0
140
0.18
141
0.09
142
0.0
143
25.399999999999999
144
1.0
145
0.0
146
1.0
147
0.09
 71
     0
 72
     0
 73
     1
 74
     1
 75
     0
 76
     0
 77
     0
 78
     0
170
     0
171
     2
172
     0
173
     0
174
     0
175
     0
176
     0
177
     0
178
     0
  0
DIMSTYLE
  2
BYGG-01473602$0$MASKIN
 70
     0
  3

  4

  5

  6

  7

 40
0.0
 41
3.0
 42
1.5
 43
10.0
 44
1.5
 45
0.0
 46
0.0
 47
0.0
 48
0.0
140
3.0
141
-5.0
142
0.0
143
25.399999999999999
144
-1.0
145
0.0
146
1.0
147
1.0
 71
     0
 72
     0
 73
     0
 74
     1
 75
     0
 76
     0
 77
     1
 78
     8
170
     0
171
     0
172
     1
173
     0
174
     0
175
     0
176
   256
177
   256
178
     2
  0
ENDTAB
  0
ENDSEC
  0
SECTION
  2
BLOCKS
  0
BLOCK
  8
0
  2
$MODEL_SPACE
 70
     0
 10
0.0
 20
0.0
 30
0.0
  3
$MODEL_SPACE
  1

  0
ENDBLK
  5
37
  8
0
  0
BLOCK
 67
     1
  8
0
  2
$PAPER_SPACE
 70
     0
 10
0.0
 20
0.0
 30
0.0
  3
$PAPER_SPACE
  1

  0
ENDBLK
  5
7CE
 67
     1
  8
0
  0
BLOCK
  8
0
  2
WEB
 70
     0
 10
0.0
 20
0.0
 30
0.0
  3
WEB
  1

  0
POLYLINE
  5
7BE
  8
RAM_GRENS2
 62
     3
 66
     1
 10
0.0
 20
0.0
 30
0.0
  0
VERTEX
  5
132B
  8
RAM_GRENS2
 62
     3
 10
6.869999703752308
 20
282.99999982765303
 30
0.0
  0
VERTEX
  5
132C
  8
RAM_GRENS2
 62
     3
 10
5.869999703752308
 20
282.99999982765303
 30
0.0
  0
VERTEX
  5
132D
  8
RAM_GRENS2
 62
     3
 10
5.869999703752308
 20
281.99999982765303
 30
0.0
  0
SEQEND
  5
132E
  8
RAM_GRENS2
 62
     3
  0
POLYLINE
  5
7BF
  8
RAM_GRENS2
 62
     3
 66
     1
 10
0.0
 20
0.0
 30
0.0
  0
VERTEX
  5
132F
  8
RAM_GRENS2
 62
     3
 10
185.86836054690431
 20
281.99999982765303
 30
0.0
  0
VERTEX
  5
1330
  8
RAM_GRENS2
 62
     3
 10
185.86836054690431
 20
282.99999982765303
 30
0.0
  0
VERTEX
  5
1331
  8
RAM_GRENS2
 62
     3
 10
184.86836054690431
 20
282.99999982765303
 30
0.0
  0
SEQEND
  5
1332
  8
RAM_GRENS2
 62
     3
  0
POLYLINE
  5
7C0
  8
RAM_GRENS2
 62
     3
 66
     1
 10
0.0
 20
0.0
 30
0.0
  0
VERTEX
  5
1333
  8
RAM_GRENS2
 62
     3
 10
6.869999703752308
 20
-0.0000001723469722
 30
0.0
  0
VERTEX
  5
1334
  8
RAM_GRENS2
 62
     3
 10
5.869999703752308
 20
-0.0000001723469722
 30
0.0
  0
VERTEX
  5
1335
  8
RAM_GRENS2
 62
     3
 10
5.869999703752308
 20
0.9999998276530278
 30
0.0
  0
SEQEND
  5
1336
  8
RAM_GRENS2
 62
     3
  0
POLYLINE
  5
7C1
  8
RAM_GRENS2
 62
     3
 66
     1
 10
0.0
 20
0.0
 30
0.0
  0
VERTEX
  5
1337
  8
RAM_GRENS2
 62
     3
 10
185.86836054690431
 20
0.9999998276530278
 30
0.0
  0
VERTEX
  5
1338
  8
RAM_GRENS2
 62
     3
 10
185.86836054690431
 20
-0.0000001723469722
 30
0.0
  0
VERTEX
  5
1339
  8
RAM_GRENS2
 62
     3
 10
184.86836054690431
 20
-0.0000001723469722
 30
0.0
  0
SEQEND
  5
133A
  8
RAM_GRENS2
 62
     3
  0
ENDBLK
  5
7C2
  8
0
  0
BLOCK
  8
0
  2
BYGG-024973
 70
     0
 10
0.0
 20
0.0
 30
0.0
  3
BYGG-024973
  1
\\spnves96\pspdata$\2009\11\0\BYGG-024973.dwg
  0
INSERT
  5
D85
  8
BYGG-024973$0$ISOLATOR
  6
CONTINUOUS
  2
*X78
 10
0.0
 20
0.0
 30
0.0
1001
ACAD
1000
HATCH
1002
{
1070
    19
1000
ANSI31
1040
0.35
1040
5.4977871437821371
1000
R14_HATCH_DATA
1000
D85
1011
1.0
1021
0.0
1031
0.0
1021
0.0
1031
0.0
1011
0.0
1021
0.0
1031
0.0
1021
1.0
1031
0.0
1011
0.0
1021
0.0
1031
0.0
1021
0.0
1031
1.0
1040
0.0
1010
0.0
1020
0.0
1030
1.0
1000
ANSI31
1070
     0
1070
     0
1071
        1
1071
        1
1071
       49
1070
     2
1040
2.5929699236118529
1040
3.0362576533742951
1040
0.3006817060114675
1040
0.0050584204141675
1040
1.2209764013054469
1070
     1
1070
     1
1040
2.696022157233926
1040
3.3187284049141108
1040
0.2631921356899056
1040
4.2042061177853043
1070
     2
1040
0.4000001930227235
1040
4.5800831661014412
1040
0.400000000002539
1040
1.919862177198238
1040
3.1415926535904428
1070
     0
1070
     1
1040
0.0000001930201847
1040
4.5800831661017014
1040
0.0000001930202131
1040
15.00000015081582
1070
     1
1040
0.0000001930202131
1040
15.00000015081582
1040
0.0000001930202709
1040
25.419917135533922
1070
     2
1040
0.4000001930199204
1040
25.41991713553217
1040
0.3999999999996488
1040
3.1415926535941709
1040
4.3633231299864041
1070
     0
1070
     1
1040
0.2631921356899909
1040
25.79579418384629
1040
2.6960221572256842
1040
26.68127189671447
1070
     2
1040
2.5931237142819441
1040
26.963634468861891
1040
0.3005273892841634
1040
5.0618515338339378
1040
6.2784842586649878
1070
     1
1070
     2
1040
-2.66699529224298
1040
27.191810443800168
1040
5.5653807064749881
1040
6.2419205770420829
1040
6.3050848890821518
1070
     1
1070
     1
1040
2.8970509124056329
1040
27.313680212567501
1040
3.0357206695121568
1040
27.553863277349791
1070
     2
1040
2.8538553347172568
1040
27.6588632773495
1040
0.2100000000000017
1040
5.7595865315828716
1040
7.8539816339739712
1070
     1
1070
     1
1040
2.8538553347173661
1040
27.868863277349512
1040
2.586740806504451
1040
27.868863277349622
1070
     1
1040
2.586740806504451
1040
27.868863277349622
1040
2.3905187407201529
1040
28.200000150815811
1070
     1
1040
2.3905187407201529
1040
28.200000150815811
1040
1.8228745772227051
1040
29.18332028879632
1070
     2
1040
2.0047399120162508
1040
29.288320288794601
1040
0.209999999998109
1040
2.6179938779958061
1040
3.1415926535924319
1070
     0
1070
     1
1040
1.794739912018144
1040
29.288320288795148
1040
1.7947399120180321
1040
29.600000150817721
1070
     2
1040
2.1947399120141631
1040
29.600000150819628
1040
0.3999999999961332
1040
3.1415926535850138
1040
4.7123889803951498
1070
     0
1070
     1
1040
2.1947399120183491
1040
30.000000150815769
1040
5.5947399120180981
1040
30.000000150815819
1070
     2
1040
5.5947399120210077
1040
29.600000150818762
1040
0.3999999999970676
1040
4.7123889803774146
1040
6.2831853071870016
1070
     0
1070
     1
1040
5.9947399120180762
1040
29.600000150815791
1040
5.9947399120180753
1040
29.288320288792129
1070
     2
1040
5.7847399120231273
1040
29.288320288793791
1040
0.2099999999949489
1040
0.0000000000078835
1040
0.5235987756045111
1070
     0
1070
     1
1040
5.9666052468128319
1040
29.183320288795191
1040
5.3988851004507969
1040
28.200000150815811
1070
     1
1040
5.3988851004507969
1040
28.200000150815811
1040
5.0555094274786816
1040
27.60525603914493
1070
     2
1040
6.0947399120290733
1040
27.005256039138821
1040
1.2000000000109059
1040
2.6179938779908598
1040
3.1415926535875132
1070
     1
1070
     1
1040
4.8947399120181672
1040
27.00525603914156
1040
4.8947399120183954
1040
26.05339170625513
1070
     2
1040
3.894739912026143
1040
26.05339170626414
1040
0.9999999999922533
1040
0.0000000000090097
1040
1.221730476401516
1070
     0
1070
     1
1040
4.236760055344007
1040
25.113699085483631
1040
2.0631921356903149
1040
24.322585060573768
1070
     2
1040
2.2000001930215869
1040
23.946708012258298
1040
0.4000000000013905
1040
1.9198621771951729
1040
3.141592653587403
1070
     1
1070
     1
1040
1.8000001930201961
1040
23.946708012259251
1040
1.8000001930201941
1040
15.00000015081582
1070
     1
1040
1.8000001930201961
1040
15.00000015081582
1040
1.800000193020139
1040
6.0532922893723358
1070
     2
1040
2.2000001930187159
1040
6.0532922893713419
1040
0.3999999999985775
1040
3.141592653587308
1040
4.363323129979511
1070
     1
1070
     1
1040
2.0631921356865628
1040
5.6774152410591787
1040
4.2367600553437788
1040
4.8863012161480688
1070
     2
1040
3.8947399120048991
1040
3.94660859535291
1040
1.000000000013211
1040
5.0614548307928056
1040
6.2831853071850263
1070
     0
1070
     1
1040
4.8947399120181103
1040
3.9466085953474699
1040
4.8947399120181103
1040
2.9947442624899732
1070
     2
1040
6.0947399120071371
1040
2.9947442624869791
1040
1.1999999999890261
1040
3.1415926535872978
1040
3.665191429183948
1070
     1
1070
     1
1040
5.0555094274728267
1040
2.3947442624967721
1040
5.3947399120180526
1040
1.807179827788274
1070
     1
1040
5.3947399120180526
1040
1.807179827788274
1040
5.966605246812775
1040
0.8166800128363433
1070
     2
1040
5.7847399120116343
1040
0.7116800128346748
1040
0.2100000000063851
1040
5.759586531589667
1040
6.2831853071863426
1070
     0
1070
     1
1040
5.9947399120180194
1040
0.7116800128332557
1040
5.9947399120180762
1040
0.4000001508157424
1070
     2
1040
5.5947399120151253
1040
0.4000001508187152
1040
0.40000000000295
1040
0.0000000000074323
1040
1.570796326797411
1070
     0
1070
     1
1040
5.594739912014119
1040
0.0000001508157652
1040
2.194739912018064
1040
0.0000001508157652
1070
     2
1040
2.194739912020065
1040
0.4000001508177434
1040
0.4000000000019782
1040
1.5707963267998979
1040
3.1415926535899059
1070
     0
1070
     1
1040
1.7947399120180869
1040
0.4000001508177889
1040
1.7947399120180869
1040
0.7116800128364389
1070
     2
1040
2.0047399120199958
1040
0.7116800128359661
1040
0.2100000000019078
1040
3.1415926535920451
1040
3.6651914291886731
1070
     0
1070
     1
1040
1.8228745772236721
1040
0.8166800128370255
1040
2.586740806504451
1040
2.131137024282026
1070
     1
1040
2.586740806504451
1040
2.131137024282026
1040
2.8538553347173652
1040
2.1311370242821388
1070
     2
1040
2.8538553347172591
1040
2.341137024282141
1040
0.2100000000000017
1040
4.7123889803851959
1040
6.8067840827762964
1070
     1
1070
     1
1040
3.035720669512159
1040
2.4461370242818532
1040
2.8970509124056352
1040
2.686320089064147
1070
     2
1040
-2.6669952916854842
1040
2.8081898578345479
1040
5.5653807059176952
1040
6.2612857252742726
1040
6.3244500373143397
1070
     1
1071
        0
1070
     0
1070
     1
1040
5.4977871437821371
1040
0.35
1070
     0
1070
     1
1040
0.0
1040
0.0
1040
0.0
1040
0.0000000000000003
1040
1.111249999999999
1070
     0
1071
        1
1040
0.0
1040
0.0
1040
0.0
1002
}
  0
POLYLINE
  5
D86
  8
0
 62
     4
 66
     1
 10
0.0
 20
0.0
 30
0.0
 70
     1
  0
VERTEX
  5
137E
  8
0
 62
     4
 10
2.8936477827673448
 20
3.037778621367806
 30
0.0
 42
0.3137019356282051
  0
VERTEX
  5
137F
  8
0
 62
     4
 10
2.696022157233926
 20
3.3187284049141108
 30
0.0
  0
VERTEX
  5
1380
  8
0
 62
     4
 10
0.2631921356899056
 20
4.2042061177853043
 30
0.0
 42
-0.3152987888779321
  0
VERTEX
  5
1381
  8
0
 62
     4
 10
0.0000001930201847
 20
4.5800831661017014
 30
0.0
  0
VERTEX
  5
1382
  8
0
 62
     4
 10
0.0000001930202131
 20
15.00000015081582
 30
0.0
  0
VERTEX
  5
1383
  8
0
 62
     4
 10
0.00000019302027
 20
25.419917135533922
 30
0.0
 42
-0.3152987888779395
  0
VERTEX
  5
1384
  8
0
 62
     4
 10
0.2631921356899909
 20
25.79579418384629
 30
0.0
  0
VERTEX
  5
1385
  8
0
 62
     4
 10
2.6960221572256842
 20
26.68127189671447
 30
0.0
 42
0.3138982169096283
  0
VERTEX
  5
1386
  8
0
 62
     4
 10
2.8936477827660378
 20
26.962221680228652
 30
0.0
 42
0.0157923906855865
  0
VERTEX
  5
1387
  8
0
 62
     4
 10
2.8970509124056329
 20
27.313680212567501
 30
0.0
  0
VERTEX
  5
1388
  8
0
 62
     4
 10
3.035720669512159
 20
27.553863277349791
 30
0.0
 42
0.5773502691889272
  0
VERTEX
  5
1389
  8
0
 62
     4
 10
2.8538553347173661
 20
27.868863277349512
 30
0.0
  0
VERTEX
  5
138A
  8
0
 62
     4
 10
2.586740806504451
 20
27.868863277349622
 30
0.0
  0
VERTEX
  5
138B
  8
0
 62
     4
 10
2.3905187407201529
 20
28.200000150815811
 30
0.0
  0
VERTEX
  5
138C
  8
0
 62
     4
 10
1.8228745772227051
 20
29.18332028879632
 30
0.0
 42
-0.1316524975869703
  0
VERTEX
  5
138D
  8
0
 62
     4
 10
1.794739912018144
 20
29.288320288795148
 30
0.0
  0
VERTEX
  5
138E
  8
0
 62
     4
 10
1.7947399120180301
 20
29.600000150817721
 30
0.0
 42
-0.4142135623775584
  0
VERTEX
  5
138F
  8
0
 62
     4
 10
2.1947399120183491
 20
30.000000150815769
 30
0.0
  0
VERTEX
  5
1390
  8
0
 62
     4
 10
5.5947399120180981
 20
30.000000150815819
 30
0.0
 42
-0.4142135623773978
  0
VERTEX
  5
1391
  8
0
 62
     4
 10
5.9947399120180762
 20
29.600000150815791
 30
0.0
  0
VERTEX
  5
1392
  8
0
 62
     4
 10
5.9947399120180762
 20
29.288320288792129
 30
0.0
 42
-0.1316524975869708
  0
VERTEX
  5
1393
  8
0
 62
     4
 10
5.9666052468128319
 20
29.183320288795191
 30
0.0
  0
VERTEX
  5
1394
  8
0
 62
     4
 10
5.3988851004507969
 20
28.200000150815811
 30
0.0
  0
VERTEX
  5
1395
  8
0
 62
     4
 10
5.0555094274786816
 20
27.60525603914493
 30
0.0
 42
0.1316524975869772
  0
VERTEX
  5
1396
  8
0
 62
     4
 10
4.8947399120181672
 20
27.00525603914156
 30
0.0
  0
VERTEX
  5
1397
  8
0
 62
     4
 10
4.8947399120183936
 20
26.05339170625513
 30
0.0
 42
-0.3152987888780149
  0
VERTEX
  5
1398
  8
0
 62
     4
 10
4.236760055344007
 20
25.113699085483631
 30
0.0
  0
VERTEX
  5
1399
  8
0
 62
     4
 10
2.063192135690314
 20
24.322585060573768
 30
0.0
 42
0.3152987888779391
  0
VERTEX
  5
139A
  8
0
 62
     4
 10
1.8000001930201961
 20
23.946708012259251
 30
0.0
  0
VERTEX
  5
139B
  8
0
 62
     4
 10
1.8000001930201961
 20
15.00000015081582
 30
0.0
  0
VERTEX
  5
139C
  8
0
 62
     4
 10
1.800000193020139
 20
6.0532922893723358
 30
0.0
 42
0.3152987888779318
  0
VERTEX
  5
139D
  8
0
 62
     4
 10
2.0631921356865628
 20
5.6774152410591787
 30
0.0
  0
VERTEX
  5
139E
  8
0
 62
     4
 10
4.2367600553437788
 20
4.8863012161480688
 30
0.0
 42
-0.3152987888779361
  0
VERTEX
  5
139F
  8
0
 62
     4
 10
4.8947399120181103
 20
3.9466085953474699
 30
0.0
  0
VERTEX
  5
13A0
  8
0
 62
     4
 10
4.8947399120181103
 20
2.9947442624899732
 30
0.0
 42
0.1316524975869766
  0
VERTEX
  5
13A1
  8
0
 62
     4
 10
5.0555094274728267
 20
2.3947442624967721
 30
0.0
  0
VERTEX
  5
13A2
  8
0
 62
     4
 10
5.3947399120180526
 20
1.807179827788274
 30
0.0
  0
VERTEX
  5
13A3
  8
0
 62
     4
 10
5.966605246812775
 20
0.8166800128363433
 30
0.0
 42
-0.1316524975869832
  0
VERTEX
  5
13A4
  8
0
 62
     4
 10
5.9947399120180194
 20
0.7116800128332557
 30
0.0
  0
VERTEX
  5
13A5
  8
0
 62
     4
 10
5.9947399120180762
 20
0.4000001508157425
 30
0.0
 42
-0.414213562371655
  0
VERTEX
  5
13A6
  8
0
 62
     4
 10
5.594739912014119
 20
0.0000001508157652
 30
0.0
  0
VERTEX
  5
13A7
  8
0
 62
     4
 10
2.194739912018064
 20
0.0000001508157652
 30
0.0
 42
-0.4142135623716633
  0
VERTEX
  5
13A8
  8
0
 62
     4
 10
1.7947399120180869
 20
0.4000001508177889
 30
0.0
  0
VERTEX
  5
13A9
  8
0
 62
     4
 10
1.7947399120180869
 20
0.7116800128364389
 30
0.0
 42
-0.1316524975869709
  0
VERTEX
  5
13AA
  8
0
 62
     4
 10
1.8228745772236721
 20
0.8166800128370255
 30
0.0
  0
VERTEX
  5
13AB
  8
0
 62
     4
 10
2.586740806504451
 20
2.131137024282026
 30
0.0
  0
VERTEX
  5
13AC
  8
0
 62
     4
 10
2.8538553347173661
 20
2.1311370242821388
 30
0.0
 42
0.5773502691889269
  0
VERTEX
  5
13AD
  8
0
 62
     4
 10
3.035720669512159
 20
2.4461370242818532
 30
0.0
  0
VERTEX
  5
13AE
  8
0
 62
     4
 10
2.8970509124056352
 20
2.686320089064147
 30
0.0
 42
0.015792390685586
  0
SEQEND
  5
13AF
  8
0
 62
     4
  0
ENDBLK
  5
901
  8
0
  0
BLOCK
  8
0
  2
BYGG-024775
 70
     0
 10
0.0
 20
0.0
 30
0.0
  3
BYGG-024775
  1
\\spnves96\pspdata$\2009\10\0\BYGG-024775.dwg
  0
DIMENSION
  5
E02
  8
BYGG-024775$0$MATT
  2
*D28
 10
37.348428909669217
 20
-74.235580058704954
 30
0.0
 11
22.59842890966922
 21
-71.735580058704954
 31
0.0
  3
BYGG-024775$0$MASKIN
 13
7.8484289096692228
 23
-52.023794819340083
 33
0.0
 14
37.348428909669217
 24
-52.023794819340083
 34
0.0
1001
ACAD
1000
DSTYLE
1002
{
1070
    40
1040
1.0
1002
}
  0
POLYLINE
  5
E11
  8
BYGG-024775$0$0_ÖPPEN-PROF
 66
     1
 10
0.0
 20
0.0
 30
0.0
 70
     1
  0
VERTEX
  5
13B7
  8
BYGG-024775$0$0_ÖPPEN-PROF
 10
-0.6516150903305517
 20
-20.282889066308599
 30
0.0
 42
-0.3394542950839196
  0
VERTEX
  5
13B8
  8
BYGG-024775$0$0_ÖPPEN-PROF
 10
-1.022206090330769
 20
-20.765852595499101
 30
0.0
  0
VERTEX
  5
13B9
  8
BYGG-024775$0$0_ÖPPEN-PROF
 10
-8.1572700903307123
 20
-22.677687595499091
 30
0.0
 42
0.4142009999999837
  0
VERTEX
  5
13BA
  8
BYGG-024775$0$0_ÖPPEN-PROF
 10
-8.3694050903308153
 20
-23.045097595499101
 30
0.0
  0
VERTEX
  5
13BB
  8
BYGG-024775$0$0_ÖPPEN-PROF
 10
-8.0847520903307668
 20
-24.10762859549914
 30
0.0
 42
0.4142269999998691
  0
VERTEX
  5
13BC
  8
BYGG-024775$0$0_ÖPPEN-PROF
 10
-7.7173250903307462
 20
-24.3197735954991
 30
0.0
  0
VERTEX
  5
13BD
  8
BYGG-024775$0$0_ÖPPEN-PROF
 10
1.6113929096692341
 20
-21.820151595499109
 30
0.0
  0
VERTEX
  5
13BE
  8
BYGG-024775$0$0_ÖPPEN-PROF
 10
7.5484289096692692
 20
-21.820151595499109
 30
0.0
 42
-0.4142135623730951
  0
VERTEX
  5
13BF
  8
BYGG-024775$0$0_ÖPPEN-PROF
 10
7.8484289096692228
 20
-22.12015159549912
 30
0.0
  0
VERTEX
  5
13C0
  8
BYGG-024775$0$0_ÖPPEN-PROF
 10
7.8484289096693374
 20
-62.820182595499141
 30
0.0
 42
0.4142135623730951
  0
VERTEX
  5
13C1
  8
BYGG-024775$0$0_ÖPPEN-PROF
 10
8.1484289096692901
 20
-63.120182595499152
 30
0.0
  0
VERTEX
  5
13C2
  8
BYGG-024775$0$0_ÖPPEN-PROF
 10
37.048429133791728
 20
-63.120182595499152
 30
0.0
 42
0.4142137811865733
  0
VERTEX
  5
13C3
  8
BYGG-024775$0$0_ÖPPEN-PROF
 10
37.348428909669217
 20
-62.820182595499091
 30
0.0
  0
VERTEX
  5
13C4
  8
BYGG-024775$0$0_ÖPPEN-PROF
 10
37.348428909669217
 20
-22.719957595499132
 30
0.0
  0
VERTEX
  5
13C5
  8
BYGG-024775$0$0_ÖPPEN-PROF
 10
37.148670909669249
 20
-22.52018259549914
 30
0.0
  0
VERTEX
  5
13C6
  8
BYGG-024775$0$0_ÖPPEN-PROF
 10
34.848853909669288
 20
-22.520079595499109
 30
0.0
  0
VERTEX
  5
13C7
  8
BYGG-024775$0$0_ÖPPEN-PROF
 10
34.262448909669267
 20
-22.98497759549906
 30
0.0
 42
0.7106000000000921
  0
VERTEX
  5
13C8
  8
BYGG-024775$0$0_ÖPPEN-PROF
 10
34.448808909669197
 20
-23.520061595499101
 30
0.0
  0
VERTEX
  5
13C9
  8
BYGG-024775$0$0_ÖPPEN-PROF
 10
35.348808909669287
 20
-23.52010159549895
 30
0.0
 42
-0.4142139999999028
  0
VERTEX
  5
13CA
  8
BYGG-024775$0$0_ÖPPEN-PROF
 10
35.648795909669282
 20
-23.82011559549909
 30
0.0
  0
VERTEX
  5
13CB
  8
BYGG-024775$0$0_ÖPPEN-PROF
 10
35.648688909669318
 20
-26.22011559549907
 30
0.0
 42
-0.414214000000136
  0
VERTEX
  5
13CC
  8
BYGG-024775$0$0_ÖPPEN-PROF
 10
35.348675909669282
 20
-26.520101595499121
 30
0.0
  0
VERTEX
  5
13CD
  8
BYGG-024775$0$0_ÖPPEN-PROF
 10
30.448675909669191
 20
-26.519883595499149
 30
0.0
 42
-0.414214000000086
  0
VERTEX
  5
13CE
  8
BYGG-024775$0$0_ÖPPEN-PROF
 10
30.148688909669211
 20
-26.21987059549906
 30
0.0
  0
VERTEX
  5
13CF
  8
BYGG-024775$0$0_ÖPPEN-PROF
 10
30.148795909669271
 20
-23.819870595499079
 30
0.0
 42
-0.4142140000000027
  0
VERTEX
  5
13D0
  8
BYGG-024775$0$0_ÖPPEN-PROF
 10
30.4488089096692
 20
-23.519883595499099
 30
0.0
  0
VERTEX
  5
13D1
  8
BYGG-024775$0$0_ÖPPEN-PROF
 10
30.848808909669291
 20
-23.519901595499171
 30
0.0
 42
0.7106000000000716
  0
VERTEX
  5
13D2
  8
BYGG-024775$0$0_ÖPPEN-PROF
 10
31.035216909669199
 20
-22.98483359549914
 30
0.0
  0
VERTEX
  5
13D3
  8
BYGG-024775$0$0_ÖPPEN-PROF
 10
30.4488539096692
 20
-22.519883595499099
 30
0.0
  0
VERTEX
  5
13D4
  8
BYGG-024775$0$0_ÖPPEN-PROF
 10
28.748853909669268
 20
-22.519808595499171
 30
0.0
 42
0.414214000000036
  0
VERTEX
  5
13D5
  8
BYGG-024775$0$0_ÖPPEN-PROF
 10
28.448840909669229
 20
-22.819794595499101
 30
0.0
  0
VERTEX
  5
13D6
  8
BYGG-024775$0$0_ÖPPEN-PROF
 10
28.448815909669179
 20
-23.372581595499071
 30
0.0
 42
0.2134220000000518
  0
VERTEX
  5
13D7
  8
BYGG-024775$0$0_ÖPPEN-PROF
 10
28.54880590966923
 20
-23.59619259549908
 30
0.0
 42
-0.2134220000000498
  0
VERTEX
  5
13D8
  8
BYGG-024775$0$0_ÖPPEN-PROF
 10
28.648795909669278
 20
-23.819803595499138
 30
0.0
  0
VERTEX
  5
13D9
  8
BYGG-024775$0$0_ÖPPEN-PROF
 10
28.648630909669119
 20
-27.51980359549907
 30
0.0
 42
0.4142140000000028
  0
VERTEX
  5
13DA
  8
BYGG-024775$0$0_ÖPPEN-PROF
 10
29.148608909669179
 20
-28.019825595499132
 30
0.0
  0
VERTEX
  5
13DB
  8
BYGG-024775$0$0_ÖPPEN-PROF
 10
35.148425909669299
 20
-28.02009359549913
 30
0.0
 42
-0.414214000000036
  0
VERTEX
  5
13DC
  8
BYGG-024775$0$0_ÖPPEN-PROF
 10
35.648403909669128
 20
-28.520115595499139
 30
0.0
  0
VERTEX
  5
13DD
  8
BYGG-024775$0$0_ÖPPEN-PROF
 10
35.648111909669183
 20
-30.52025559549913
 30
0.0
 42
-0.4141710000000158
  0
VERTEX
  5
13DE
  8
BYGG-024775$0$0_ÖPPEN-PROF
 10
35.14811190966919
 20
-31.02018259549914
 30
0.0
  0
VERTEX
  5
13DF
  8
BYGG-024775$0$0_ÖPPEN-PROF
 10
19.84838690966933
 20
-31.020182595498969
 30
0.0
 42
-0.41421378118654
  0
VERTEX
  5
13E0
  8
BYGG-024775$0$0_ÖPPEN-PROF
 10
19.348386909669209
 20
-30.520182969036739
 30
0.0
  0
VERTEX
  5
13E1
  8
BYGG-024775$0$0_ÖPPEN-PROF
 10
19.348386909669209
 20
-18.520151595499161
 30
0.0
 42
-0.4142140000001354
  0
VERTEX
  5
13E2
  8
BYGG-024775$0$0_ÖPPEN-PROF
 10
19.648386909669281
 20
-18.22015159549909
 30
0.0
  0
VERTEX
  5
13E3
  8
BYGG-024775$0$0_ÖPPEN-PROF
 10
19.698386909669239
 20
-18.22015159549909
 30
0.0
  0
VERTEX
  5
13E4
  8
BYGG-024775$0$0_ÖPPEN-PROF
 10
20.134489909669352
 20
-16.793722595499052
 30
0.0
 42
0.476976000000043
  0
VERTEX
  5
13E5
  8
BYGG-024775$0$0_ÖPPEN-PROF
 10
19.858062909669229
 20
-16.38390259549908
 30
0.0
  0
VERTEX
  5
13E6
  8
BYGG-024775$0$0_ÖPPEN-PROF
 10
18.01751490966921
 20
-16.22287559549909
 30
0.0
 42
0.2216949999999973
  0
VERTEX
  5
13E7
  8
BYGG-024775$0$0_ÖPPEN-PROF
 10
17.382104909669241
 20
-16.454145595499082
 30
0.0
  0
VERTEX
  5
13E8
  8
BYGG-024775$0$0_ÖPPEN-PROF
 10
17.157520909669302
 20
-16.678729595499082
 30
0.0
 42
0.577350000000126
  0
VERTEX
  5
13E9
  8
BYGG-024775$0$0_ÖPPEN-PROF
 10
17.24717790966929
 20
-17.01333659549908
 30
0.0
  0
VERTEX
  5
13EA
  8
BYGG-024775$0$0_ÖPPEN-PROF
 10
17.55813990966919
 20
-17.09665859549909
 30
0.0
  0
VERTEX
  5
13EB
  8
BYGG-024775$0$0_ÖPPEN-PROF
 10
18.048386909669262
 20
-19.22015159549909
 30
0.0
  0
VERTEX
  5
13EC
  8
BYGG-024775$0$0_ÖPPEN-PROF
 10
18.048386909669151
 20
-19.420151595499082
 30
0.0
 42
-0.6885000000001503
  0
VERTEX
  5
13ED
  8
BYGG-024775$0$0_ÖPPEN-PROF
 10
17.524779909669292
 20
-19.62015159549912
 30
0.0
 42
0.2134219999999575
  0
VERTEX
  5
13EE
  8
BYGG-024775$0$0_ÖPPEN-PROF
 10
17.301172909669269
 20
-19.520151595499101
 30
0.0
  0
VERTEX
  5
13EF
  8
BYGG-024775$0$0_ÖPPEN-PROF
 10
13.448386909669351
 20
-19.520151595499101
 30
0.0
 42
-0.4142139999999356
  0
VERTEX
  5
13F0
  8
BYGG-024775$0$0_ÖPPEN-PROF
 10
13.148386909669281
 20
-19.22015159549909
 30
0.0
  0
VERTEX
  5
13F1
  8
BYGG-024775$0$0_ÖPPEN-PROF
 10
13.148386909669281
 20
-18.920151595499082
 30
0.0
  0
VERTEX
  5
13F2
  8
BYGG-024775$0$0_ÖPPEN-PROF
 10
14.0721469096693
 20
-17.320151595499109
 30
0.0
 42
0.5773500000002099
  0
VERTEX
  5
13F3
  8
BYGG-024775$0$0_ÖPPEN-PROF
 10
13.898941909669251
 20
-17.020151595499101
 30
0.0
  0
VERTEX
  5
13F4
  8
BYGG-024775$0$0_ÖPPEN-PROF
 10
12.513301909669281
 20
-17.020151595499151
 30
0.0
 42
0.2679489999999963
  0
VERTEX
  5
13F5
  8
BYGG-024775$0$0_ÖPPEN-PROF
 10
11.647275909669251
 20
-17.520151595499101
 30
0.0
  0
VERTEX
  5
13F6
  8
BYGG-024775$0$0_ÖPPEN-PROF
 10
10.63691290966926
 20
-19.270151595499101
 30
0.0
 42
-0.2679490000000247
  0
VERTEX
  5
13F7
  8
BYGG-024775$0$0_ÖPPEN-PROF
 10
10.20389990966919
 20
-19.520151595499101
 30
0.0
  0
VERTEX
  5
13F8
  8
BYGG-024775$0$0_ÖPPEN-PROF
 10
8.4928689096693688
 20
-19.520151595499101
 30
0.0
 42
-0.2679490000000247
  0
VERTEX
  5
13F9
  8
BYGG-024775$0$0_ÖPPEN-PROF
 10
8.0598559096692952
 20
-19.270151595499101
 30
0.0
  0
VERTEX
  5
13FA
  8
BYGG-024775$0$0_ÖPPEN-PROF
 10
7.0494929096691967
 20
-17.520151595499101
 30
0.0
 42
0.2679490000000078
  0
VERTEX
  5
13FB
  8
BYGG-024775$0$0_ÖPPEN-PROF
 10
6.1834679096692753
 20
-17.020151595499101
 30
0.0
  0
VERTEX
  5
13FC
  8
BYGG-024775$0$0_ÖPPEN-PROF
 10
4.7978269096693111
 20
-17.020151595499101
 30
0.0
 42
0.5773499999999686
  0
VERTEX
  5
13FD
  8
BYGG-024775$0$0_ÖPPEN-PROF
 10
4.6246219096692576
 20
-17.320151595499048
 30
0.0
  0
VERTEX
  5
13FE
  8
BYGG-024775$0$0_ÖPPEN-PROF
 10
5.5483829096692707
 20
-18.920151595499082
 30
0.0
  0
VERTEX
  5
13FF
  8
BYGG-024775$0$0_ÖPPEN-PROF
 10
5.5483829096693853
 20
-19.22015159549909
 30
0.0
 42
-0.4142139999999689
  0
VERTEX
  5
1400
  8
BYGG-024775$0$0_ÖPPEN-PROF
 10
5.2483829096693171
 20
-19.520151595499101
 30
0.0
  0
VERTEX
  5
1401
  8
BYGG-024775$0$0_ÖPPEN-PROF
 10
1.395595909669282
 20
-19.520151595499151
 30
0.0
 42
0.2134220000000454
  0
VERTEX
  5
1402
  8
BYGG-024775$0$0_ÖPPEN-PROF
 10
1.1719889096693801
 20
-19.62015159549912
 30
0.0
 42
-0.6885000000001575
  0
VERTEX
  5
1403
  8
BYGG-024775$0$0_ÖPPEN-PROF
 10
0.6483829096692944
 20
-19.420151595499082
 30
0.0
  0
VERTEX
  5
1404
  8
BYGG-024775$0$0_ÖPPEN-PROF
 10
0.6483829096692944
 20
-19.22015159549909
 30
0.0
  0
VERTEX
  5
1405
  8
BYGG-024775$0$0_ÖPPEN-PROF
 10
1.138629909669248
 20
-17.09665859549909
 30
0.0
  0
VERTEX
  5
1406
  8
BYGG-024775$0$0_ÖPPEN-PROF
 10
1.4495909096692681
 20
-17.01333659549908
 30
0.0
 42
0.5773499999999805
  0
VERTEX
  5
1407
  8
BYGG-024775$0$0_ÖPPEN-PROF
 10
1.5392489096692541
 20
-16.678729595499082
 30
0.0
  0
VERTEX
  5
1408
  8
BYGG-024775$0$0_ÖPPEN-PROF
 10
1.3146649096693179
 20
-16.454145595499082
 30
0.0
 42
0.2216949999999953
  0
VERTEX
  5
1409
  8
BYGG-024775$0$0_ÖPPEN-PROF
 10
0.6792549096692256
 20
-16.22287559549909
 30
0.0
  0
VERTEX
  5
140A
  8
BYGG-024775$0$0_ÖPPEN-PROF
 10
-1.1612930903306731
 20
-16.38390259549908
 30
0.0
 42
0.4769760000001309
  0
VERTEX
  5
140B
  8
BYGG-024775$0$0_ÖPPEN-PROF
 10
-1.437720090330685
 20
-16.793722595499101
 30
0.0
  0
VERTEX
  5
140C
  8
BYGG-024775$0$0_ÖPPEN-PROF
 10
-1.001617090330682
 20
-18.22015159549909
 30
0.0
  0
VERTEX
  5
140D
  8
BYGG-024775$0$0_ÖPPEN-PROF
 10
-0.9516150903307334
 20
-18.220151595499029
 30
0.0
 42
-0.4142139999999689
  0
VERTEX
  5
140E
  8
BYGG-024775$0$0_ÖPPEN-PROF
 10
-0.651615090330779
 20
-18.520151595499101
 30
0.0
  0
SEQEND
  5
140F
  8
BYGG-024775$0$0_ÖPPEN-PROF
  0
POLYLINE
  5
E12
  8
BYGG-024775$0$0_ÖPPEN-PROF
 66
     1
 10
0.0
 20
0.0
 30
0.0
 70
     1
  0
VERTEX
  5
1410
  8
BYGG-024775$0$0_ÖPPEN-PROF
 10
24.148428909669288
 20
-61.120182595499053
 30
0.0
 42
-0.4142139999998358
  0
VERTEX
  5
1411
  8
BYGG-024775$0$0_ÖPPEN-PROF
 10
24.44842890966925
 20
-60.820182595499091
 30
0.0
  0
VERTEX
  5
1412
  8
BYGG-024775$0$0_ÖPPEN-PROF
 10
25.84842890966922
 20
-60.820182595499091
 30
0.0
 42
0.414213999999919
  0
VERTEX
  5
1413
  8
BYGG-024775$0$0_ÖPPEN-PROF
 10
26.148428909669182
 20
-60.520182595499143
 30
0.0
  0
VERTEX
  5
1414
  8
BYGG-024775$0$0_ÖPPEN-PROF
 10
26.148428909669182
 20
-56.720190595499098
 30
0.0
 42
-0.4142449999999811
  0
VERTEX
  5
1415
  8
BYGG-024775$0$0_ÖPPEN-PROF
 10
26.448460909669279
 20
-56.420190595499093
 30
0.0
  0
VERTEX
  5
1416
  8
BYGG-024775$0$0_ÖPPEN-PROF
 10
27.34846090966926
 20
-56.420285595499131
 30
0.0
 42
-0.4141820000001122
  0
VERTEX
  5
1417
  8
BYGG-024775$0$0_ÖPPEN-PROF
 10
27.648428909669182
 20
-56.720285595499142
 30
0.0
  0
VERTEX
  5
1418
  8
BYGG-024775$0$0_ÖPPEN-PROF
 10
27.648428909669182
 20
-61.120349595499079
 30
0.0
 42
0.4240208847482567
  0
VERTEX
  5
1419
  8
BYGG-024775$0$0_ÖPPEN-PROF
 10
27.95843773108572
 20
-61.420182595499107
 30
0.0
  0
VERTEX
  5
141A
  8
BYGG-024775$0$0_ÖPPEN-PROF
 10
35.348434133791777
 20
-61.420182595499107
 30
0.0
 42
0.4142137811864901
  0
VERTEX
  5
141B
  8
BYGG-024775$0$0_ÖPPEN-PROF
 10
35.648433909669279
 20
-61.120182595499102
 30
0.0
  0
VERTEX
  5
141C
  8
BYGG-024775$0$0_ÖPPEN-PROF
 10
35.648433909669279
 20
-38.520190595499123
 30
0.0
 42
0.4142139999998857
  0
VERTEX
  5
141D
  8
BYGG-024775$0$0_ÖPPEN-PROF
 10
35.348433909669332
 20
-38.220190595499112
 30
0.0
  0
VERTEX
  5
141E
  8
BYGG-024775$0$0_ÖPPEN-PROF
 10
32.948433909669227
 20
-38.220190595499162
 30
0.0
 42
-0.4142139999999523
  0
VERTEX
  5
141F
  8
BYGG-024775$0$0_ÖPPEN-PROF
 10
32.648433909669279
 20
-37.920190595499101
 30
0.0
  0
VERTEX
  5
1420
  8
BYGG-024775$0$0_ÖPPEN-PROF
 10
32.648433909669279
 20
-36.520190595499123
 30
0.0
 42
-0.4142140000000189
  0
VERTEX
  5
1421
  8
BYGG-024775$0$0_ÖPPEN-PROF
 10
32.948433909669227
 20
-36.220190595499112
 30
0.0
  0
VERTEX
  5
1422
  8
BYGG-024775$0$0_ÖPPEN-PROF
 10
35.348433909669332
 20
-36.220190595499162
 30
0.0
 42
0.4142139999999689
  0
VERTEX
  5
1423
  8
BYGG-024775$0$0_ÖPPEN-PROF
 10
35.648433909669279
 20
-35.920190595499093
 30
0.0
  0
VERTEX
  5
1424
  8
BYGG-024775$0$0_ÖPPEN-PROF
 10
35.648433909669279
 20
-33.02018259549908
 30
0.0
 42
0.414213999999919
  0
VERTEX
  5
1425
  8
BYGG-024775$0$0_ÖPPEN-PROF
 10
35.348433909669332
 20
-32.720182595499132
 30
0.0
  0
VERTEX
  5
1426
  8
BYGG-024775$0$0_ÖPPEN-PROF
 10
9.8484289096693374
 20
-32.720182595499068
 30
0.0
 42
0.4142140000000355
  0
VERTEX
  5
1427
  8
BYGG-024775$0$0_ÖPPEN-PROF
 10
9.5484289096692692
 20
-33.020182595499143
 30
0.0
  0
VERTEX
  5
1428
  8
BYGG-024775$0$0_ÖPPEN-PROF
 10
9.5484289096692692
 20
-35.920188595499098
 30
0.0
 42
0.4142140000001354
  0
VERTEX
  5
1429
  8
BYGG-024775$0$0_ÖPPEN-PROF
 10
9.8484289096692237
 20
-36.22018859549911
 30
0.0
  0
VERTEX
  5
142A
  8
BYGG-024775$0$0_ÖPPEN-PROF
 10
12.248428909669199
 20
-36.220188595499224
 30
0.0
 42
-0.4142140000000189
  0
VERTEX
  5
142B
  8
BYGG-024775$0$0_ÖPPEN-PROF
 10
12.548428909669269
 20
-36.520188595499121
 30
0.0
  0
VERTEX
  5
142C
  8
BYGG-024775$0$0_ÖPPEN-PROF
 10
12.548428909669269
 20
-37.920188595499098
 30
0.0
 42
-0.4142140000001188
  0
VERTEX
  5
142D
  8
BYGG-024775$0$0_ÖPPEN-PROF
 10
12.248428909669199
 20
-38.22018859549911
 30
0.0
  0
VERTEX
  5
142E
  8
BYGG-024775$0$0_ÖPPEN-PROF
 10
9.8484289096693374
 20
-38.22018859549911
 30
0.0
 42
0.4142140000000022
  0
VERTEX
  5
142F
  8
BYGG-024775$0$0_ÖPPEN-PROF
 10
9.5484289096692692
 20
-38.520188595499121
 30
0.0
  0
VERTEX
  5
1430
  8
BYGG-024775$0$0_ÖPPEN-PROF
 10
9.5484289096692692
 20
-61.120182595499102
 30
0.0
 42
0.4142140000000855
  0
VERTEX
  5
1431
  8
BYGG-024775$0$0_ÖPPEN-PROF
 10
9.8484289096692237
 20
-61.420182595499107
 30
0.0
  0
VERTEX
  5
1432
  8
BYGG-024775$0$0_ÖPPEN-PROF
 10
11.248428909669199
 20
-61.420182595499107
 30
0.0
 42
0.4142140000000022
  0
VERTEX
  5
1433
  8
BYGG-024775$0$0_ÖPPEN-PROF
 10
11.548428909669269
 20
-61.120182595499102
 30
0.0
 42
-0.4142139999999024
  0
VERTEX
  5
1434
  8
BYGG-024775$0$0_ÖPPEN-PROF
 10
11.84842890966922
 20
-60.820182595499091
 30
0.0
  0
VERTEX
  5
1435
  8
BYGG-024775$0$0_ÖPPEN-PROF
 10
13.248428909669309
 20
-60.820182595499091
 30
0.0
 42
-0.4142139999998857
  0
VERTEX
  5
1436
  8
BYGG-024775$0$0_ÖPPEN-PROF
 10
13.54842890966915
 20
-61.120182595499102
 30
0.0
 42
0.4142139999999689
  0
VERTEX
  5
1437
  8
BYGG-024775$0$0_ÖPPEN-PROF
 10
13.84842890966922
 20
-61.420182595499107
 30
0.0
  0
VERTEX
  5
1438
  8
BYGG-024775$0$0_ÖPPEN-PROF
 10
23.8484291337918
 20
-61.420182595499107
 30
0.0
 42
0.4142137811865733
  0
SEQEND
  5
1439
  8
BYGG-024775$0$0_ÖPPEN-PROF
  0
POLYLINE
  5
E13
  8
BYGG-024775$0$0_ÖPPEN-PROF
 66
     1
 10
0.0
 20
0.0
 30
0.0
 70
     1
  0
VERTEX
  5
143A
  8
BYGG-024775$0$0_ÖPPEN-PROF
 10
9.8484289096692237
 20
-31.02018259549914
 30
0.0
  0
VERTEX
  5
143B
  8
BYGG-024775$0$0_ÖPPEN-PROF
 10
17.348386909669209
 20
-31.02018259549914
 30
0.0
 42
0.4142140000000522
  0
VERTEX
  5
143C
  8
BYGG-024775$0$0_ÖPPEN-PROF
 10
17.648386909669281
 20
-30.720182595499129
 30
0.0
  0
VERTEX
  5
143D
  8
BYGG-024775$0$0_ÖPPEN-PROF
 10
17.648386909669281
 20
-22.12015159549912
 30
0.0
 42
0.4142139999999523
  0
VERTEX
  5
143E
  8
BYGG-024775$0$0_ÖPPEN-PROF
 10
17.348386909669209
 20
-21.820151595499109
 30
0.0
  0
VERTEX
  5
143F
  8
BYGG-024775$0$0_ÖPPEN-PROF
 10
9.8484289096693374
 20
-21.820151595499109
 30
0.0
 42
0.4142140000000022
  0
VERTEX
  5
1440
  8
BYGG-024775$0$0_ÖPPEN-PROF
 10
9.5484289096692692
 20
-22.12015159549912
 30
0.0
  0
VERTEX
  5
1441
  8
BYGG-024775$0$0_ÖPPEN-PROF
 10
9.5484289096692692
 20
-30.720182595499129
 30
0.0
 42
0.4142140000001188
  0
SEQEND
  5
1442
  8
BYGG-024775$0$0_ÖPPEN-PROF
  0
POLYLINE
  5
E14
  8
BYGG-024775$0$LACK_SYNLIGY
 66
     1
 10
0.0
 20
0.0
 30
0.0
  0
VERTEX
  5
1443
  8
BYGG-024775$0$LACK_SYNLIGY
 10
42.118705281116149
 20
-20.670174258477122
 30
0.0
  0
VERTEX
  5
1444
  8
BYGG-024775$0$LACK_SYNLIGY
 10
42.118705281116149
 20
-67.474421340982644
 30
0.0
  0
VERTEX
  5
1445
  8
BYGG-024775$0$LACK_SYNLIGY
 10
4.4646255031668707
 20
-67.474421340982644
 30
0.0
  0
SEQEND
  5
1446
  8
BYGG-024775$0$LACK_SYNLIGY
  0
POLYLINE
  5
E15
  8
BYGG-024775$0$LACK_MINDRES
  6
CONTINUOUS
 66
     1
 10
0.0
 20
0.0
 30
0.0
  0
VERTEX
  5
1447
  8
BYGG-024775$0$LACK_MINDRES
  6
CONTINUOUS
 10
-2.738763713851085
 20
-16.415242743494272
 30
0.0
  0
VERTEX
  5
1448
  8
BYGG-024775$0$LACK_MINDRES
  6
CONTINUOUS
 10
-11.251859703574951
 20
-18.706359664904941
 30
0.0
  0
VERTEX
  5
1449
  8
BYGG-024775$0$LACK_MINDRES
  6
CONTINUOUS
 10
-9.9421526282328614
 20
-27.216222903717782
 30
0.0
  0
VERTEX
  5
144A
  8
BYGG-024775$0$LACK_MINDRES
  6
CONTINUOUS
 10
1.1903578148114771
 20
-24.59780344562154
 30
0.0
  0
VERTEX
  5
144B
  8
BYGG-024775$0$LACK_MINDRES
  6
CONTINUOUS
 10
4.4646255031668707
 20
-24.59780344562154
 30
0.0
  0
VERTEX
  5
144C
  8
BYGG-024775$0$LACK_MINDRES
  6
CONTINUOUS
 10
4.4646255031668707
 20
-67.474421340982644
 30
0.0
  0
SEQEND
  5
144D
  8
BYGG-024775$0$LACK_MINDRES
  6
CONTINUOUS
  0
POLYLINE
  5
E16
  8
BYGG-024775$0$LACK_MINDRES
  6
CONTINUOUS
 66
     1
 10
0.0
 20
0.0
 30
0.0
  0
VERTEX
  5
144E
  8
BYGG-024775$0$LACK_MINDRES
  6
CONTINUOUS
 10
-2.8687044184244992
 20
-15.93242247331602
 30
0.0
  0
VERTEX
  5
144F
  8
BYGG-024775$0$LACK_MINDRES
  6
CONTINUOUS
 10
-11.81414711155764
 20
-18.33989622299379
 30
0.0
  0
VERTEX
  5
1450
  8
BYGG-024775$0$LACK_MINDRES
  6
CONTINUOUS
 10
-10.35407617151156
 20
-27.826753439147581
 30
0.0
  0
VERTEX
  5
1451
  8
BYGG-024775$0$LACK_MINDRES
  6
CONTINUOUS
 10
1.24836751165742
 20
-25.09780344562148
 30
0.0
  0
VERTEX
  5
1452
  8
BYGG-024775$0$LACK_MINDRES
  6
CONTINUOUS
 10
3.9646255031668711
 20
-25.09780344562154
 30
0.0
  0
VERTEX
  5
1453
  8
BYGG-024775$0$LACK_MINDRES
  6
CONTINUOUS
 10
3.9646255031668711
 20
-67.474421340982644
 30
0.0
  0
SEQEND
  5
1454
  8
BYGG-024775$0$LACK_MINDRES
  6
CONTINUOUS
  0
POLYLINE
  5
E17
  8
0
 66
     1
 10
0.0
 20
0.0
 30
0.0
 70
     1
  0
VERTEX
  5
1455
  8
0
 10
17.648428909669288
 20
-30.720182595499129
 30
0.0
  0
VERTEX
  5
1456
  8
0
 10
17.648428909669288
 20
-22.12018259549912
 30
0.0
 42
0.414213999999924
  0
VERTEX
  5
1457
  8
0
 10
17.34842890966922
 20
-21.820182595499109
 30
0.0
  0
VERTEX
  5
1458
  8
0
 10
9.848470909669345
 20
-21.820182595499109
 30
0.0
 42
0.4142140000000905
  0
VERTEX
  5
1459
  8
0
 10
9.5484709096692768
 20
-22.12018259549912
 30
0.0
  0
VERTEX
  5
145A
  8
0
 10
9.5484709096692768
 20
-30.720182595499129
 30
0.0
 42
0.4142140000001459
  0
VERTEX
  5
145B
  8
0
 10
9.8484709096692313
 20
-31.02018259549914
 30
0.0
  0
VERTEX
  5
145C
  8
0
 10
17.34842890966922
 20
-31.02018259549914
 30
0.0
 42
0.4142140000001461
  0
SEQEND
  5
145D
  8
0
  0
POLYLINE
  5
E18
  8
0
 66
     1
 10
0.0
 20
0.0
 30
0.0
 70
     1
  0
VERTEX
  5
145E
  8
0
 10
26.148428909669182
 20
-60.520182595499143
 30
0.0
  0
VERTEX
  5
145F
  8
0
 10
26.148428909669182
 20
-56.720190595499098
 30
0.0
 42
-0.4142450000000288
  0
VERTEX
  5
1460
  8
0
 10
26.448460909669279
 20
-56.420190595499093
 30
0.0
  0
VERTEX
  5
1461
  8
0
 10
27.34846090966926
 20
-56.420285595499131
 30
0.0
 42
-0.4141819999999786
  0
VERTEX
  5
1462
  8
0
 10
27.648428909669182
 20
-56.720285595499142
 30
0.0
  0
VERTEX
  5
1463
  8
0
 10
27.648428909669182
 20
-61.120349595499079
 30
0.0
 42
0.424020884748223
  0
VERTEX
  5
1464
  8
0
 10
27.95843773108572
 20
-61.420182595499107
 30
0.0
  0
VERTEX
  5
1465
  8
0
 10
35.348434133791777
 20
-61.420182595499107
 30
0.0
 42
0.4142137811864927
  0
VERTEX
  5
1466
  8
0
 10
35.648433909669279
 20
-61.120182595499102
 30
0.0
  0
VERTEX
  5
1467
  8
0
 10
35.648433909669279
 20
-38.520190595499123
 30
0.0
 42
0.4142139999998685
  0
VERTEX
  5
1468
  8
0
 10
35.348433909669332
 20
-38.220190595499112
 30
0.0
  0
VERTEX
  5
1469
  8
0
 10
32.948433909669227
 20
-38.220190595499162
 30
0.0
 42
-0.414213999999924
  0
VERTEX
  5
146A
  8
0
 10
32.648433909669279
 20
-37.920190595499101
 30
0.0
  0
VERTEX
  5
146B
  8
0
 10
32.648433909669279
 20
-36.520190595499123
 30
0.0
 42
-0.4142140000000351
  0
VERTEX
  5
146C
  8
0
 10
32.948433909669227
 20
-36.220190595499112
 30
0.0
  0
VERTEX
  5
146D
  8
0
 10
35.348433909669332
 20
-36.220190595499162
 30
0.0
 42
0.414213999999924
  0
VERTEX
  5
146E
  8
0
 10
35.648433909669279
 20
-35.920190595499093
 30
0.0
  0
VERTEX
  5
146F
  8
0
 10
35.648433909669279
 20
-33.02018259549908
 30
0.0
 42
0.4142139999998685
  0
VERTEX
  5
1470
  8
0
 10
35.348433909669332
 20
-32.720182595499132
 30
0.0
  0
VERTEX
  5
1471
  8
0
 10
9.8484289096693374
 20
-32.720182595499068
 30
0.0
 42
0.414214000000146
  0
VERTEX
  5
1472
  8
0
 10
9.5484289096692692
 20
-33.020182595499143
 30
0.0
  0
VERTEX
  5
1473
  8
0
 10
9.5484289096692692
 20
-35.920188595499098
 30
0.0
 42
0.4142140000000906
  0
VERTEX
  5
1474
  8
0
 10
9.8484289096692237
 20
-36.22018859549911
 30
0.0
  0
VERTEX
  5
1475
  8
0
 10
12.248428909669199
 20
-36.220188595499224
 30
0.0
 42
-0.4142140000000907
  0
VERTEX
  5
1476
  8
0
 10
12.548428909669269
 20
-36.520188595499121
 30
0.0
  0
VERTEX
  5
1477
  8
0
 10
12.548428909669269
 20
-37.920188595499098
 30
0.0
 42
-0.4142140000001461
  0
VERTEX
  5
1478
  8
0
 10
12.248428909669199
 20
-38.22018859549911
 30
0.0
  0
VERTEX
  5
1479
  8
0
 10
9.8484289096693374
 20
-38.22018859549911
 30
0.0
 42
0.4142140000000905
  0
VERTEX
  5
147A
  8
0
 10
9.5484289096692692
 20
-38.520188595499121
 30
0.0
  0
VERTEX
  5
147B
  8
0
 10
9.5484289096692692
 20
-61.120182595499102
 30
0.0
 42
0.4142140000000906
  0
VERTEX
  5
147C
  8
0
 10
9.8484289096692237
 20
-61.420182595499107
 30
0.0
  0
VERTEX
  5
147D
  8
0
 10
11.248428909669199
 20
-61.420182595499107
 30
0.0
 42
0.4142140000001461
  0
VERTEX
  5
147E
  8
0
 10
11.548428909669269
 20
-61.120182595499102
 30
0.0
 42
-0.414213999999924
  0
VERTEX
  5
147F
  8
0
 10
11.84842890966922
 20
-60.820182595499091
 30
0.0
  0
VERTEX
  5
1480
  8
0
 10
13.248428909669309
 20
-60.820182595499091
 30
0.0
 42
-0.4142139999999794
  0
VERTEX
  5
1481
  8
0
 10
13.54842890966915
 20
-61.120182595499102
 30
0.0
 42
0.4142139999998684
  0
VERTEX
  5
1482
  8
0
 10
13.84842890966922
 20
-61.420182595499107
 30
0.0
  0
VERTEX
  5
1483
  8
0
 10
23.8484291337918
 20
-61.420182595499107
 30
0.0
 42
0.4142137811864927
  0
VERTEX
  5
1484
  8
0
 10
24.148428909669288
 20
-61.120182595499053
 30
0.0
 42
-0.414213999999813
  0
VERTEX
  5
1485
  8
0
 10
24.44842890966925
 20
-60.820182595499091
 30
0.0
  0
VERTEX
  5
1486
  8
0
 10
25.84842890966922
 20
-60.820182595499091
 30
0.0
 42
0.4142139999998685
  0
SEQEND
  5
1487
  8
0
  0
POLYLINE
  5
E19
  8
0
 66
     1
 10
0.0
 20
0.0
 30
0.0
  0
VERTEX
  5
1488
  8
0
 10
7.5484729096692709
 20
-21.820182595499109
 30
0.0
  0
VERTEX
  5
1489
  8
0
 10
1.6114369096692369
 20
-21.820182595499109
 30
0.0
  0
VERTEX
  5
148A
  8
0
 10
-7.7172810903307427
 20
-24.319804595499161
 30
0.0
 42
-0.4142269999998489
  0
VERTEX
  5
148B
  8
0
 10
-8.0847080903307642
 20
-24.10765959549914
 30
0.0
  0
VERTEX
  5
148C
  8
0
 10
-8.3693610903308127
 20
-23.045128595499101
 30
0.0
 42
-0.4142010000001278
  0
VERTEX
  5
148D
  8
0
 10
-8.1572260903307097
 20
-22.677718595499101
 30
0.0
  0
VERTEX
  5
148E
  8
0
 10
-1.022162090330766
 20
-20.765883595499162
 30
0.0
 42
0.3394542950838991
  0
VERTEX
  5
148F
  8
0
 10
-0.6515710903305491
 20
-20.282920066308598
 30
0.0
  0
VERTEX
  5
1490
  8
0
 10
-0.6515710903306627
 20
-19.518011495796621
 30
0.0
  0
VERTEX
  5
1491
  8
0
 10
-0.1409511026085966
 20
-18.196901252896421
 30
0.0
 42
0.4142135623730607
  0
VERTEX
  5
1492
  8
0
 10
-0.340915147115993
 20
-17.822716297420602
 30
0.0
  0
VERTEX
  5
1493
  8
0
 10
-0.38876089711448
 20
-17.808197888173499
 30
0.0
  0
VERTEX
  5
1494
  8
0
 10
-0.3888445049981328
 20
-16.305096807411491
 30
0.0
 42
-0.4769755326981281
  0
VERTEX
  5
1495
  8
0
 10
-0.0171876300523763
 20
-16.002843982905031
 30
0.0
  0
VERTEX
  5
1496
  8
0
 10
1.796042840605991
 20
-16.38429057903274
 30
0.0
 42
-0.221694662643023
  0
VERTEX
  5
1497
  8
0
 10
2.3369226720826641
 20
-16.79009948418754
 30
0.0
  0
VERTEX
  5
1498
  8
0
 10
2.4890565831915401
 20
-17.074781767419172
 30
0.0
 42
-0.577350269189773
  0
VERTEX
  5
1499
  8
0
 10
2.3061028430813622
 20
-17.368938067674002
 30
0.0
  0
VERTEX
  5
149A
  8
0
 10
1.984345114863117
 20
-17.358376701447028
 30
0.0
  0
VERTEX
  5
149B
  8
0
 10
0.8997806678912638
 20
-19.24422039330809
 30
0.0
  0
VERTEX
  5
149C
  8
0
 10
0.8417070309022847
 20
-19.435603393301811
 30
0.0
 42
0.7625858545243234
  0
VERTEX
  5
149D
  8
0
 10
1.172033111919162
 20
-19.620182595499291
 30
0.0
 42
-0.2134217652834307
  0
VERTEX
  5
149E
  8
0
 10
1.395639909669284
 20
-19.520182595499161
 30
0.0
  0
VERTEX
  5
149F
  8
0
 10
5.2484269096693188
 20
-19.520182595499101
 30
0.0
 42
0.4142139999999814
  0
VERTEX
  5
14A0
  8
0
 10
5.548426909669387
 20
-19.220182595499089
 30
0.0
  0
VERTEX
  5
14A1
  8
0
 10
5.5484269096692742
 20
-18.920182595499082
 30
0.0
  0
VERTEX
  5
14A2
  8
0
 10
4.6246659096692611
 20
-17.320182595499048
 30
0.0
 42
-0.5773499999998635
  0
VERTEX
  5
14A3
  8
0
 10
4.7978709096693128
 20
-17.020182595499101
 30
0.0
  0
VERTEX
  5
14A4
  8
0
 10
6.183511909669277
 20
-17.020182595499101
 30
0.0
 42
-0.2679490000000113
  0
VERTEX
  5
14A5
  8
0
 10
7.0495369096692002
 20
-17.520182595499101
 30
0.0
  0
VERTEX
  5
14A6
  8
0
 10
8.0598999096692978
 20
-19.270182595499101
 30
0.0
 42
0.2679490000000428
  0
VERTEX
  5
14A7
  8
0
 10
8.4929129096693714
 20
-19.520182595499101
 30
0.0
  0
VERTEX
  5
14A8
  8
0
 10
10.203941909669201
 20
-19.520182595499101
 30
0.0
 42
0.2679490000000428
  0
VERTEX
  5
14A9
  8
0
 10
10.636954909669271
 20
-19.270182595499101
 30
0.0
  0
VERTEX
  5
14AA
  8
0
 10
11.647317909669139
 20
-17.52018259549904
 30
0.0
 42
-0.2679490000000188
  0
VERTEX
  5
14AB
  8
0
 10
12.51334390966929
 20
-17.020182595499151
 30
0.0
  0
VERTEX
  5
14AC
  8
0
 10
13.89898390966925
 20
-17.02018259549904
 30
0.0
 42
-0.5773500000003136
  0
VERTEX
  5
14AD
  8
0
 10
14.0721889096693
 20
-17.320182595499109
 30
0.0
  0
VERTEX
  5
14AE
  8
0
 10
13.14842890966929
 20
-18.920182595499082
 30
0.0
  0
VERTEX
  5
14AF
  8
0
 10
13.14842890966929
 20
-19.220182595499089
 30
0.0
 42
0.4142139999999814
  0
VERTEX
  5
14B0
  8
0
 10
13.44842890966936
 20
-19.520182595499101
 30
0.0
  0
VERTEX
  5
14B1
  8
0
 10
17.30121490966928
 20
-19.520182595499101
 30
0.0
 42
-0.2134217652834307
  0
VERTEX
  5
14B2
  8
0
 10
17.524821707419392
 20
-19.620182595499241
 30
0.0
 42
0.7625858545243353
  0
VERTEX
  5
14B3
  8
0
 10
17.85514778843638
 20
-19.435603393301751
 30
0.0
  0
VERTEX
  5
14B4
  8
0
 10
17.797074151447301
 20
-19.24422039330803
 30
0.0
  0
VERTEX
  5
14B5
  8
0
 10
16.712509704475679
 20
-17.358376701446979
 30
0.0
  0
VERTEX
  5
14B6
  8
0
 10
16.39075197625743
 20
-17.368938067673941
 30
0.0
 42
-0.5773502691897681
  0
VERTEX
  5
14B7
  8
0
 10
16.207798236147251
 20
-17.074781767419111
 30
0.0
  0
VERTEX
  5
14B8
  8
0
 10
16.359932147256011
 20
-16.790099484187479
 30
0.0
 42
-0.2216946626430135
  0
VERTEX
  5
14B9
  8
0
 10
16.90081197873269
 20
-16.38429057903268
 30
0.0
  0
VERTEX
  5
14BA
  8
0
 10
18.714042449390941
 20
-16.00284398290497
 30
0.0
 42
-0.4769755326981251
  0
VERTEX
  5
14BB
  8
0
 10
19.085699324336929
 20
-16.305096807411442
 30
0.0
  0
VERTEX
  5
14BC
  8
0
 10
19.085615716453269
 20
-17.808197888173439
 30
0.0
  0
VERTEX
  5
14BD
  8
0
 10
19.037769966454789
 20
-17.822716297420548
 30
0.0
 42
0.4142135623731253
  0
VERTEX
  5
14BE
  8
0
 10
18.837805921947378
 20
-18.19690125289636
 30
0.0
  0
VERTEX
  5
14BF
  8
0
 10
19.34842890966933
 20
-19.518019257597441
 30
0.0
  0
VERTEX
  5
14C0
  8
0
 10
19.34842890966911
 20
-30.520182969036739
 30
0.0
 42
0.4142137811866025
  0
VERTEX
  5
14C1
  8
0
 10
19.84842890966932
 20
-31.020182595498969
 30
0.0
  0
VERTEX
  5
14C2
  8
0
 10
35.14811190966919
 20
-31.02018259549908
 30
0.0
 42
0.4141710000000034
  0
VERTEX
  5
14C3
  8
0
 10
35.648111909669183
 20
-30.52025559549913
 30
0.0
  0
VERTEX
  5
14C4
  8
0
 10
35.648403909669128
 20
-28.520115595499139
 30
0.0
 42
0.4142140000000444
  0
VERTEX
  5
14C5
  8
0
 10
35.148425909669299
 20
-28.02009359549913
 30
0.0
  0
VERTEX
  5
14C6
  8
0
 10
29.148608909669179
 20
-28.019825595499189
 30
0.0
 42
-0.4142139999999778
  0
VERTEX
  5
14C7
  8
0
 10
28.648630909669141
 20
-27.519803595499081
 30
0.0
  0
VERTEX
  5
14C8
  8
0
 10
28.648795909669278
 20
-23.819803595499138
 30
0.0
 42
0.2134220000000628
  0
VERTEX
  5
14C9
  8
0
 10
28.548805909669209
 20
-23.59619259549908
 30
0.0
 42
-0.2134220000000822
  0
VERTEX
  5
14CA
  8
0
 10
28.448815909669179
 20
-23.372581595499071
 30
0.0
  0
VERTEX
  5
14CB
  8
0
 10
28.448840909669229
 20
-22.819794595499101
 30
0.0
 42
-0.4142139999999901
  0
VERTEX
  5
14CC
  8
0
 10
28.748853909669268
 20
-22.519808595499178
 30
0.0
  0
VERTEX
  5
14CD
  8
0
 10
30.4488539096692
 20
-22.519883595499099
 30
0.0
  0
VERTEX
  5
14CE
  8
0
 10
31.03521690966932
 20
-22.98483359549903
 30
0.0
 42
-0.7106000000002889
  0
VERTEX
  5
14CF
  8
0
 10
30.848808909669302
 20
-23.519901595499171
 30
0.0
  0
VERTEX
  5
14D0
  8
0
 10
30.4488089096692
 20
-23.519883595499149
 30
0.0
 42
0.41421400000009
  0
VERTEX
  5
14D1
  8
0
 10
30.148795909669289
 20
-23.819870595499079
 30
0.0
  0
VERTEX
  5
14D2
  8
0
 10
30.148688909669321
 20
-26.21987059549906
 30
0.0
 42
0.4142139999999775
  0
VERTEX
  5
14D3
  8
0
 10
30.448675909669181
 20
-26.519883595499149
 30
0.0
  0
VERTEX
  5
14D4
  8
0
 10
35.348675909669282
 20
-26.52010159549917
 30
0.0
 42
0.4142140000001568
  0
VERTEX
  5
14D5
  8
0
 10
35.648688909669318
 20
-26.22011559549906
 30
0.0
  0
VERTEX
  5
14D6
  8
0
 10
35.648795909669161
 20
-23.82011559549909
 30
0.0
 42
0.4142139999997988
  0
VERTEX
  5
14D7
  8
0
 10
35.348808909669302
 20
-23.520101595498939
 30
0.0
  0
VERTEX
  5
14D8
  8
0
 10
34.448808909669197
 20
-23.520061595499101
 30
0.0
 42
-0.7106000000000156
  0
VERTEX
  5
14D9
  8
0
 10
34.262448909669267
 20
-22.98497759549906
 30
0.0
  0
VERTEX
  5
14DA
  8
0
 10
34.848853909669288
 20
-22.520079595499109
 30
0.0
  0
VERTEX
  5
14DB
  8
0
 10
37.148670909669249
 20
-22.52018259549914
 30
0.0
  0
VERTEX
  5
14DC
  8
0
 10
37.348428909669217
 20
-22.719957595499132
 30
0.0
  0
VERTEX
  5
14DD
  8
0
 10
37.348428909669217
 20
-62.820182595499077
 30
0.0
 42
-0.4142137811864901
  0
VERTEX
  5
14DE
  8
0
 10
37.048429133791728
 20
-63.120182595499159
 30
0.0
  0
VERTEX
  5
14DF
  8
0
 10
8.1484289096692901
 20
-63.120182595499152
 30
0.0
 42
-0.4142135623731492
  0
VERTEX
  5
14E0
  8
0
 10
7.8484289096693374
 20
-62.820182595499141
 30
0.0
  0
VERTEX
  5
14E1
  8
0
 10
7.8484289096693374
 20
-22.12018259549912
 30
0.0
 42
0.4142135623730951
  0
VERTEX
  5
14E2
  8
0
 10
7.5484289096692692
 20
-21.820182595499109
 30
0.0
  0
SEQEND
  5
14E3
  8
0
  0
ENDBLK
  5
912
  8
0
  0
BLOCK
  8
0
  2
BYGG-025059
 70
     0
 10
0.0
 20
0.0
 30
0.0
  3
BYGG-025059
  1
\\spnves96\pspdata$\2009\11\0\BYGG-025059.dwg
  0
DIMENSION
  5
E51
  8
BYGG-025059$0$MATT
  2
*D33
 10
0.7861299690933692
 20
-13.38063998543619
 30
0.0
 11
24.036129969093398
 21
-10.88063998543619
 31
0.0
  3
BYGG-025059$0$MASKIN
 13
47.286129969093423
 23
4.3001340146682017
 33
0.0
 14
0.7861299690933706
 24
7.7500667646681034
 34
0.0
1001
ACAD
1000
DSTYLE
1002
{
1070
    40
1040
1.0
1002
}
  0
DIMENSION
  5
E60
  8
BYGG-025059$0$MATT
  2
*D34
 10
-10.139820690697089
 20
0.0000445146681079
 30
0.0
 11
-12.639820690697089
 21
7.5000445146681063
 31
0.0
  3
BYGG-025059$0$MASKIN
 13
4.7597178440933892
 23
15.000044514668099
 33
0.0
 14
1.7695932190933661
 24
0.0000445146681045
 34
0.0
 50
90.0
1001
ACAD
1000
DSTYLE
1002
{
1070
    40
1040
1.0
1002
}
  0
POLYLINE
  5
E6D
  8
BYGG-025059$0$0_ÖPPEN-PROF
 66
     1
 10
0.0
 20
0.0
 30
0.0
 70
     1
  0
VERTEX
  5
14ED
  8
BYGG-025059$0$0_ÖPPEN-PROF
 10
4.3422064690933722
 20
3.500120014668112
 30
0.0
 42
0.3394552719462804
  0
VERTEX
  5
14EE
  8
BYGG-025059$0$0_ÖPPEN-PROF
 10
3.376221219093368
 20
2.7590240146682272
 30
0.0
  0
VERTEX
  5
14EF
  8
BYGG-025059$0$0_ÖPPEN-PROF
 10
2.7360872190934828
 20
0.3705480146681136
 30
0.0
 42
-0.3394539999999437
  0
VERTEX
  5
14F0
  8
BYGG-025059$0$0_ÖPPEN-PROF
 10
2.2530912190933612
 20
0.0000000146681032
 30
0.0
  0
VERTEX
  5
14F1
  8
BYGG-025059$0$0_ÖPPEN-PROF
 10
1.2860952190933701
 20
0.0000890146681475
 30
0.0
 42
-0.4141869999999672
  0
VERTEX
  5
14F2
  8
BYGG-025059$0$0_ÖPPEN-PROF
 10
0.7861402190933707
 20
0.5000890146681059
 30
0.0
  0
VERTEX
  5
14F3
  8
BYGG-025059$0$0_ÖPPEN-PROF
 10
0.7861192190933704
 20
15.000044514668099
 30
0.0
  0
VERTEX
  5
14F4
  8
BYGG-025059$0$0_ÖPPEN-PROF
 10
0.7861192190933704
 20
16.000044514668101
 30
0.0
 42
0.4142139999999814
  0
VERTEX
  5
14F5
  8
BYGG-025059$0$0_ÖPPEN-PROF
 10
0.486119219093391
 20
16.300044514668109
 30
0.0
  0
VERTEX
  5
14F6
  8
BYGG-025059$0$0_ÖPPEN-PROF
 10
0.4361192190933796
 20
16.300044514668109
 30
0.0
  0
VERTEX
  5
14F7
  8
BYGG-025059$0$0_ÖPPEN-PROF
 10
0.0000162190933692
 20
17.726473514668129
 30
0.0
 42
-0.4769759999999122
  0
VERTEX
  5
14F8
  8
BYGG-025059$0$0_ÖPPEN-PROF
 10
0.2764432190933892
 20
18.136293514668122
 30
0.0
  0
VERTEX
  5
14F9
  8
BYGG-025059$0$0_ÖPPEN-PROF
 10
2.116991219093372
 20
18.29732051466809
 30
0.0
 42
-0.2216950000000117
  0
VERTEX
  5
14FA
  8
BYGG-025059$0$0_ÖPPEN-PROF
 10
2.7524012190933802
 20
18.066049514668119
 30
0.0
  0
VERTEX
  5
14FB
  8
BYGG-025059$0$0_ÖPPEN-PROF
 10
2.976985219093343
 20
17.841465514668091
 30
0.0
 42
-0.5773499999998194
  0
VERTEX
  5
14FC
  8
BYGG-025059$0$0_ÖPPEN-PROF
 10
2.8873282190933778
 20
17.506859514668118
 30
0.0
  0
VERTEX
  5
14FD
  8
BYGG-025059$0$0_ÖPPEN-PROF
 10
2.576366219093388
 20
17.423537514668109
 30
0.0
  0
VERTEX
  5
14FE
  8
BYGG-025059$0$0_ÖPPEN-PROF
 10
2.0861192190933782
 20
15.300044514668111
 30
0.0
  0
VERTEX
  5
14FF
  8
BYGG-025059$0$0_ÖPPEN-PROF
 10
2.0861192190933782
 20
15.10004451466812
 30
0.0
 42
0.6884999999999297
  0
VERTEX
  5
1500
  8
BYGG-025059$0$0_ÖPPEN-PROF
 10
2.6097262190933441
 20
14.90004451466814
 30
0.0
 42
-0.2134220000000285
  0
VERTEX
  5
1501
  8
BYGG-025059$0$0_ÖPPEN-PROF
 10
2.8333332190933991
 20
15.000044514668099
 30
0.0
  0
VERTEX
  5
1502
  8
BYGG-025059$0$0_ÖPPEN-PROF
 10
6.6861192190933787
 20
15.000044514668099
 30
0.0
 42
0.4142139999999669
  0
VERTEX
  5
1503
  8
BYGG-025059$0$0_ÖPPEN-PROF
 10
6.9861192190933901
 20
15.3000445146681
 30
0.0
  0
VERTEX
  5
1504
  8
BYGG-025059$0$0_ÖPPEN-PROF
 10
6.9861192190933901
 20
15.600044514668109
 30
0.0
  0
VERTEX
  5
1505
  8
BYGG-025059$0$0_ÖPPEN-PROF
 10
6.0623592190933593
 20
17.200044514668189
 30
0.0
 42
-0.5773499999997525
  0
VERTEX
  5
1506
  8
BYGG-025059$0$0_ÖPPEN-PROF
 10
6.2355642190933711
 20
17.500044514668101
 30
0.0
  0
VERTEX
  5
1507
  8
BYGG-025059$0$0_ÖPPEN-PROF
 10
7.6212052190933877
 20
17.50004451466809
 30
0.0
 42
-0.2679490000000114
  0
VERTEX
  5
1508
  8
BYGG-025059$0$0_ÖPPEN-PROF
 10
8.4872302190934032
 20
17.00004451466808
 30
0.0
  0
VERTEX
  5
1509
  8
BYGG-025059$0$0_ÖPPEN-PROF
 10
9.4975932190934387
 20
15.25004451466808
 30
0.0
 42
0.2679490000000378
  0
VERTEX
  5
150A
  8
BYGG-025059$0$0_ÖPPEN-PROF
 10
9.9306062190933968
 20
15.000044514668099
 30
0.0
  0
VERTEX
  5
150B
  8
BYGG-025059$0$0_ÖPPEN-PROF
 10
11.64165053909341
 20
15.00004451466808
 30
0.0
 42
0.2679489999999778
  0
VERTEX
  5
150C
  8
BYGG-025059$0$0_ÖPPEN-PROF
 10
12.07466353909342
 20
15.25004451466809
 30
0.0
  0
VERTEX
  5
150D
  8
BYGG-025059$0$0_ÖPPEN-PROF
 10
13.08502653909348
 20
17.00004451466803
 30
0.0
 42
-0.2679489999999883
  0
VERTEX
  5
150E
  8
BYGG-025059$0$0_ÖPPEN-PROF
 10
13.95105153909337
 20
17.50004451466808
 30
0.0
  0
VERTEX
  5
150F
  8
BYGG-025059$0$0_ÖPPEN-PROF
 10
15.3366925390934
 20
17.500044514668009
 30
0.0
 42
-0.5773499999999486
  0
VERTEX
  5
1510
  8
BYGG-025059$0$0_ÖPPEN-PROF
 10
15.5098975390934
 20
17.200044514668189
 30
0.0
  0
VERTEX
  5
1511
  8
BYGG-025059$0$0_ÖPPEN-PROF
 10
14.586137539093381
 20
15.600044514668109
 30
0.0
  0
VERTEX
  5
1512
  8
BYGG-025059$0$0_ÖPPEN-PROF
 10
14.586137539093381
 20
15.3000445146681
 30
0.0
 42
0.414213999999841
  0
VERTEX
  5
1513
  8
BYGG-025059$0$0_ÖPPEN-PROF
 10
14.88613753909339
 20
15.00004451466808
 30
0.0
  0
VERTEX
  5
1514
  8
BYGG-025059$0$0_ÖPPEN-PROF
 10
18.738923539093431
 20
15.00004451466808
 30
0.0
 42
-0.2134220000001145
  0
VERTEX
  5
1515
  8
BYGG-025059$0$0_ÖPPEN-PROF
 10
18.962530539093379
 20
14.900044514668091
 30
0.0
 42
0.6884999999999567
  0
VERTEX
  5
1516
  8
BYGG-025059$0$0_ÖPPEN-PROF
 10
19.486137539093399
 20
15.100044514668109
 30
0.0
  0
VERTEX
  5
1517
  8
BYGG-025059$0$0_ÖPPEN-PROF
 10
19.486137539093399
 20
15.3000445146681
 30
0.0
  0
VERTEX
  5
1518
  8
BYGG-025059$0$0_ÖPPEN-PROF
 10
18.995890539093399
 20
17.423537514668091
 30
0.0
  0
VERTEX
  5
1519
  8
BYGG-025059$0$0_ÖPPEN-PROF
 10
18.684928539093391
 20
17.506859514668111
 30
0.0
 42
-0.5773500000001344
  0
VERTEX
  5
151A
  8
BYGG-025059$0$0_ÖPPEN-PROF
 10
18.595271539093389
 20
17.841465514668108
 30
0.0
  0
VERTEX
  5
151B
  8
BYGG-025059$0$0_ÖPPEN-PROF
 10
18.81985553909341
 20
18.06604951466808
 30
0.0
 42
-0.2216949999999774
  0
VERTEX
  5
151C
  8
BYGG-025059$0$0_ÖPPEN-PROF
 10
19.455265539093428
 20
18.297320514668112
 30
0.0
  0
VERTEX
  5
151D
  8
BYGG-025059$0$0_ÖPPEN-PROF
 10
21.29581353909338
 20
18.136293514668079
 30
0.0
 42
-0.4769759999999405
  0
VERTEX
  5
151E
  8
BYGG-025059$0$0_ÖPPEN-PROF
 10
21.572240539093389
 20
17.726473514668111
 30
0.0
  0
VERTEX
  5
151F
  8
BYGG-025059$0$0_ÖPPEN-PROF
 10
21.13613753909339
 20
16.300044514668102
 30
0.0
  0
VERTEX
  5
1520
  8
BYGG-025059$0$0_ÖPPEN-PROF
 10
21.086137539093379
 20
16.300044514668102
 30
0.0
 42
0.4142139999999534
  0
VERTEX
  5
1521
  8
BYGG-025059$0$0_ÖPPEN-PROF
 10
20.786137539093431
 20
16.00004451466809
 30
0.0
  0
VERTEX
  5
1522
  8
BYGG-025059$0$0_ÖPPEN-PROF
 10
20.786137539093431
 20
14.75533751466811
 30
0.0
  0
VERTEX
  5
1523
  8
BYGG-025059$0$0_ÖPPEN-PROF
 10
20.786115539093409
 20
5.600134014668126
 30
0.0
 42
0.4142140000000074
  0
VERTEX
  5
1524
  8
BYGG-025059$0$0_ÖPPEN-PROF
 10
21.286115539093419
 20
5.1001340146681278
 30
0.0
  0
VERTEX
  5
1525
  8
BYGG-025059$0$0_ÖPPEN-PROF
 10
23.786129969093398
 20
5.1001340146681278
 30
0.0
 42
0.4142140000000074
  0
VERTEX
  5
1526
  8
BYGG-025059$0$0_ÖPPEN-PROF
 10
24.286129969093398
 20
5.6001340146681278
 30
0.0
  0
VERTEX
  5
1527
  8
BYGG-025059$0$0_ÖPPEN-PROF
 10
24.28612996909326
 20
8.3001340146682026
 30
0.0
 42
-0.4142139999999241
  0
VERTEX
  5
1528
  8
BYGG-025059$0$0_ÖPPEN-PROF
 10
24.58612996909341
 20
8.6001340146681287
 30
0.0
  0
VERTEX
  5
1529
  8
BYGG-025059$0$0_ÖPPEN-PROF
 10
27.98612996909339
 20
8.6001340146679865
 30
0.0
 42
-0.4142139999999241
  0
VERTEX
  5
152A
  8
BYGG-025059$0$0_ÖPPEN-PROF
 10
28.286129969093398
 20
8.3001340146682026
 30
0.0
  0
VERTEX
  5
152B
  8
BYGG-025059$0$0_ÖPPEN-PROF
 10
28.286129969093519
 20
7.4001340146681107
 30
0.0
 42
-0.4142140000000074
  0
VERTEX
  5
152C
  8
BYGG-025059$0$0_ÖPPEN-PROF
 10
27.98612996909339
 20
7.1001340146681278
 30
0.0
  0
VERTEX
  5
152D
  8
BYGG-025059$0$0_ÖPPEN-PROF
 10
26.08612996909342
 20
7.1001340146681278
 30
0.0
 42
0.4142139999999241
  0
VERTEX
  5
152E
  8
BYGG-025059$0$0_ÖPPEN-PROF
 10
25.786129969093398
 20
6.8001340146682017
 30
0.0
  0
VERTEX
  5
152F
  8
BYGG-025059$0$0_ÖPPEN-PROF
 10
25.786129969093398
 20
4.4001340146681107
 30
0.0
 42
0.4142140000000074
  0
VERTEX
  5
1530
  8
BYGG-025059$0$0_ÖPPEN-PROF
 10
26.08612996909342
 20
4.1001340146681278
 30
0.0
  0
VERTEX
  5
1531
  8
BYGG-025059$0$0_ÖPPEN-PROF
 10
45.486129969093383
 20
4.1001340146681278
 30
0.0
 42
0.4142139999998961
  0
VERTEX
  5
1532
  8
BYGG-025059$0$0_ÖPPEN-PROF
 10
45.786129969093388
 20
4.4001340146681107
 30
0.0
  0
VERTEX
  5
1533
  8
BYGG-025059$0$0_ÖPPEN-PROF
 10
45.786129969093388
 20
6.8001340146682017
 30
0.0
 42
0.4142139999999241
  0
VERTEX
  5
1534
  8
BYGG-025059$0$0_ÖPPEN-PROF
 10
45.486129969093383
 20
7.1001340146681278
 30
0.0
  0
VERTEX
  5
1535
  8
BYGG-025059$0$0_ÖPPEN-PROF
 10
43.586129969093399
 20
7.1001340146681278
 30
0.0
 42
-0.4142139999998961
  0
VERTEX
  5
1536
  8
BYGG-025059$0$0_ÖPPEN-PROF
 10
43.286129969093388
 20
7.4001340146681107
 30
0.0
  0
VERTEX
  5
1537
  8
BYGG-025059$0$0_ÖPPEN-PROF
 10
43.286129969093253
 20
8.3001340146682026
 30
0.0
 42
-0.4142139999999241
  0
VERTEX
  5
1538
  8
BYGG-025059$0$0_ÖPPEN-PROF
 10
43.586129969093399
 20
8.6001340146681287
 30
0.0
  0
VERTEX
  5
1539
  8
BYGG-025059$0$0_ÖPPEN-PROF
 10
46.986129969093412
 20
8.6001340146680434
 30
0.0
 42
-0.4142139999998691
  0
VERTEX
  5
153A
  8
BYGG-025059$0$0_ÖPPEN-PROF
 10
47.286129969093423
 20
8.3001340146682026
 30
0.0
  0
VERTEX
  5
153B
  8
BYGG-025059$0$0_ÖPPEN-PROF
 10
47.286129969093452
 20
0.3001340146682028
 30
0.0
 42
-0.4142139999999794
  0
VERTEX
  5
153C
  8
BYGG-025059$0$0_ÖPPEN-PROF
 10
46.986129969093412
 20
0.0001340146681059
 30
0.0
  0
VERTEX
  5
153D
  8
BYGG-025059$0$0_ÖPPEN-PROF
 10
19.22153046909342
 20
0.000134014668161
 30
0.0
 42
-0.3394299999999863
  0
VERTEX
  5
153E
  8
BYGG-025059$0$0_ÖPPEN-PROF
 10
18.738578469093412
 20
0.3706810146681221
 30
0.0
  0
VERTEX
  5
153F
  8
BYGG-025059$0$0_ÖPPEN-PROF
 10
18.098480469093388
 20
2.7591240146681151
 30
0.0
 42
0.3394540000000004
  0
VERTEX
  5
1540
  8
BYGG-025059$0$0_ÖPPEN-PROF
 10
17.132489469093411
 20
3.500220014668201
 30
0.0
  0
VERTEX
  5
1541
  8
BYGG-025059$0$0_ÖPPEN-PROF
 10
16.286079469093419
 20
3.500146014668104
 30
0.0
 42
0.4141880000000513
  0
VERTEX
  5
1542
  8
BYGG-025059$0$0_ÖPPEN-PROF
 10
15.78612346909342
 20
3.000146014668104
 30
0.0
  0
VERTEX
  5
1543
  8
BYGG-025059$0$0_ÖPPEN-PROF
 10
15.78612346909331
 20
1.0002440146682281
 30
0.0
 42
-0.4142060000000156
  0
VERTEX
  5
1544
  8
BYGG-025059$0$0_ÖPPEN-PROF
 10
15.286137469093379
 20
0.5002440146682261
 30
0.0
  0
VERTEX
  5
1545
  8
BYGG-025059$0$0_ÖPPEN-PROF
 10
11.652108129190379
 20
0.5001452961175659
 30
0.0
  0
VERTEX
  5
1546
  8
BYGG-025059$0$0_ÖPPEN-PROF
 10
10.786123469093409
 20
1.000121771794525
 30
0.0
  0
VERTEX
  5
1547
  8
BYGG-025059$0$0_ÖPPEN-PROF
 10
9.9200582200283076
 20
0.5000987335651104
 30
0.0
  0
VERTEX
  5
1548
  8
BYGG-025059$0$0_ÖPPEN-PROF
 10
6.2861374690933873
 20
0.500000014668053
 30
0.0
 42
-0.4142219999999844
  0
VERTEX
  5
1549
  8
BYGG-025059$0$0_ÖPPEN-PROF
 10
5.7861234690933703
 20
1.000000014668103
 30
0.0
  0
VERTEX
  5
154A
  8
BYGG-025059$0$0_ÖPPEN-PROF
 10
5.7861234690933703
 20
3.0001200146681142
 30
0.0
 42
0.4142140000000095
  0
VERTEX
  5
154B
  8
BYGG-025059$0$0_ÖPPEN-PROF
 10
5.2861234690933703
 20
3.500120014668112
 30
0.0
  0
VERTEX
  5
154C
  8
BYGG-025059$0$0_ÖPPEN-PROF
 10
4.3422122190933701
 20
3.500120014668112
 30
0.0
  0
SEQEND
  5
154D
  8
BYGG-025059$0$0_ÖPPEN-PROF
  0
POLYLINE
  5
E6E
  8
BYGG-025059$0$0_ÖPPEN-PROF
 66
     1
 10
0.0
 20
0.0
 30
0.0
 70
     1
  0
VERTEX
  5
154E
  8
BYGG-025059$0$0_ÖPPEN-PROF
 10
2.4861277040931951
 20
12.90004451466811
 30
0.0
 42
-0.4142140000000169
  0
VERTEX
  5
154F
  8
BYGG-025059$0$0_ÖPPEN-PROF
 10
2.7861277040933912
 20
13.20004451466821
 30
0.0
  0
VERTEX
  5
1550
  8
BYGG-025059$0$0_ÖPPEN-PROF
 10
4.3861277040934139
 20
13.20004451466831
 30
0.0
 42
-0.4142140000001437
  0
VERTEX
  5
1551
  8
BYGG-025059$0$0_ÖPPEN-PROF
 10
4.5861277040933883
 20
13.000044514668099
 30
0.0
  0
VERTEX
  5
1552
  8
BYGG-025059$0$0_ÖPPEN-PROF
 10
4.5861277040933954
 20
12.90004451466811
 30
0.0
 42
0.4142140000000085
  0
VERTEX
  5
1553
  8
BYGG-025059$0$0_ÖPPEN-PROF
 10
4.7861277040933761
 20
12.70004451466821
 30
0.0
  0
VERTEX
  5
1554
  8
BYGG-025059$0$0_ÖPPEN-PROF
 10
6.386127704093413
 20
12.70004451466821
 30
0.0
 42
0.4142139999998545
  0
VERTEX
  5
1555
  8
BYGG-025059$0$0_ÖPPEN-PROF
 10
6.5861277040933883
 20
12.90004451466811
 30
0.0
  0
VERTEX
  5
1556
  8
BYGG-025059$0$0_ÖPPEN-PROF
 10
6.5861277040932737
 20
13.000044514668099
 30
0.0
 42
-0.4142139999998691
  0
VERTEX
  5
1557
  8
BYGG-025059$0$0_ÖPPEN-PROF
 10
6.7861277040933761
 20
13.200044514668191
 30
0.0
  0
VERTEX
  5
1558
  8
BYGG-025059$0$0_ÖPPEN-PROF
 10
14.78612770409339
 20
13.200044514668109
 30
0.0
 42
-0.4142139999999356
  0
VERTEX
  5
1559
  8
BYGG-025059$0$0_ÖPPEN-PROF
 10
14.98612770409343
 20
13.00004451466809
 30
0.0
  0
VERTEX
  5
155A
  8
BYGG-025059$0$0_ÖPPEN-PROF
 10
14.98612770409343
 20
12.90004451466811
 30
0.0
 42
0.4142140000000189
  0
VERTEX
  5
155B
  8
BYGG-025059$0$0_ÖPPEN-PROF
 10
15.186127704093421
 20
12.70004451466821
 30
0.0
  0
VERTEX
  5
155C
  8
BYGG-025059$0$0_ÖPPEN-PROF
 10
16.786127704093389
 20
12.70004451466821
 30
0.0
 42
0.4142140000001042
  0
VERTEX
  5
155D
  8
BYGG-025059$0$0_ÖPPEN-PROF
 10
16.98612770409343
 20
12.90004451466811
 30
0.0
  0
VERTEX
  5
155E
  8
BYGG-025059$0$0_ÖPPEN-PROF
 10
16.986127704093491
 20
13.00004451466809
 30
0.0
 42
-0.4142140000002291
  0
VERTEX
  5
155F
  8
BYGG-025059$0$0_ÖPPEN-PROF
 10
17.186127704093419
 20
13.200044514668191
 30
0.0
  0
VERTEX
  5
1560
  8
BYGG-025059$0$0_ÖPPEN-PROF
 10
18.78612770409341
 20
13.20004451466812
 30
0.0
 42
-0.4142139999999252
  0
VERTEX
  5
1561
  8
BYGG-025059$0$0_ÖPPEN-PROF
 10
19.086127704093421
 20
12.90004451466811
 30
0.0
  0
VERTEX
  5
1562
  8
BYGG-025059$0$0_ÖPPEN-PROF
 10
19.086127704093251
 20
5.8000865146682088
 30
0.0
 42
-0.4141880000000388
  0
VERTEX
  5
1563
  8
BYGG-025059$0$0_ÖPPEN-PROF
 10
18.786154704093398
 20
5.5000865146682267
 30
0.0
  0
VERTEX
  5
1564
  8
BYGG-025059$0$0_ÖPPEN-PROF
 10
13.08615470409339
 20
5.499589514668231
 30
0.0
 42
0.4141880000000822
  0
VERTEX
  5
1565
  8
BYGG-025059$0$0_ÖPPEN-PROF
 10
12.786180704093431
 20
5.1995895146681059
 30
0.0
  0
VERTEX
  5
1566
  8
BYGG-025059$0$0_ÖPPEN-PROF
 10
12.7861807040934
 20
4.8003895146681259
 30
0.0
 42
-0.4142059999999927
  0
VERTEX
  5
1567
  8
BYGG-025059$0$0_ÖPPEN-PROF
 10
12.4861897040934
 20
4.5003895146681163
 30
0.0
  0
VERTEX
  5
1568
  8
BYGG-025059$0$0_ÖPPEN-PROF
 10
9.0861897040934192
 20
4.5002975146680591
 30
0.0
 42
-0.4142219999998628
  0
VERTEX
  5
1569
  8
BYGG-025059$0$0_ÖPPEN-PROF
 10
8.7861807040934323
 20
4.8002975146681317
 30
0.0
  0
VERTEX
  5
156A
  8
BYGG-025059$0$0_ÖPPEN-PROF
 10
8.7861807040934323
 20
5.2002975146681099
 30
0.0
 42
0.4142399761202665
  0
VERTEX
  5
156B
  8
BYGG-025059$0$0_ÖPPEN-PROF
 10
8.4861537040934323
 20
5.5002975146681212
 30
0.0
  0
VERTEX
  5
156C
  8
BYGG-025059$0$0_ÖPPEN-PROF
 10
2.786153704093393
 20
5.499791514668221
 30
0.0
 42
-0.4142389999999623
  0
VERTEX
  5
156D
  8
BYGG-025059$0$0_ÖPPEN-PROF
 10
2.486127704093394
 20
5.7997915146681311
 30
0.0
  0
SEQEND
  5
156E
  8
BYGG-025059$0$0_ÖPPEN-PROF
  0
POLYLINE
  5
E6F
  8
0
 66
     1
 10
0.0
 20
0.0
 30
0.0
 70
     1
  0
VERTEX
  5
156F
  8
0
 10
2.4861277040931919
 20
12.90004451466811
 30
0.0
 42
-0.4142140000000169
  0
VERTEX
  5
1570
  8
0
 10
2.7861277040933881
 20
13.2000445146682
 30
0.0
  0
VERTEX
  5
1571
  8
0
 10
4.3861277040934112
 20
13.200044514668321
 30
0.0
 42
-0.4142140000001437
  0
VERTEX
  5
1572
  8
0
 10
4.5861277040933848
 20
13.000044514668099
 30
0.0
  0
VERTEX
  5
1573
  8
0
 10
4.586127704093399
 20
12.90004451466811
 30
0.0
 42
0.4142140000000085
  0
VERTEX
  5
1574
  8
0
 10
4.7861277040933743
 20
12.7000445146682
 30
0.0
  0
VERTEX
  5
1575
  8
0
 10
6.3861277040934112
 20
12.7000445146682
 30
0.0
 42
0.4142139999998545
  0
VERTEX
  5
1576
  8
0
 10
6.5861277040933848
 20
12.90004451466811
 30
0.0
  0
VERTEX
  5
1577
  8
0
 10
6.5861277040932711
 20
13.000044514668099
 30
0.0
 42
-0.4142139999998691
  0
VERTEX
  5
1578
  8
0
 10
6.7861277040933743
 20
13.200044514668191
 30
0.0
  0
VERTEX
  5
1579
  8
0
 10
14.78612770409339
 20
13.200044514668109
 30
0.0
 42
-0.4142139999999356
  0
VERTEX
  5
157A
  8
0
 10
14.98612770409343
 20
13.00004451466809
 30
0.0
  0
VERTEX
  5
157B
  8
0
 10
14.98612770409343
 20
12.90004451466811
 30
0.0
 42
0.4142140000000189
  0
VERTEX
  5
157C
  8
0
 10
15.186127704093421
 20
12.7000445146682
 30
0.0
  0
VERTEX
  5
157D
  8
0
 10
16.786127704093389
 20
12.7000445146682
 30
0.0
 42
0.4142140000001042
  0
VERTEX
  5
157E
  8
0
 10
16.98612770409343
 20
12.90004451466811
 30
0.0
  0
VERTEX
  5
157F
  8
0
 10
16.986127704093491
 20
13.00004451466809
 30
0.0
 42
-0.4142140000002291
  0
VERTEX
  5
1580
  8
0
 10
17.186127704093419
 20
13.200044514668191
 30
0.0
  0
VERTEX
  5
1581
  8
0
 10
18.78612770409342
 20
13.20004451466812
 30
0.0
 42
-0.4142139999999252
  0
VERTEX
  5
1582
  8
0
 10
19.086127704093428
 20
12.90004451466811
 30
0.0
  0
VERTEX
  5
1583
  8
0
 10
19.086127704093261
 20
5.8000865146682079
 30
0.0
 42
-0.4141880000000388
  0
VERTEX
  5
1584
  8
0
 10
18.786154704093398
 20
5.500086514668225
 30
0.0
  0
VERTEX
  5
1585
  8
0
 10
13.08615470409339
 20
5.4995895146682301
 30
0.0
 42
0.4141880000000822
  0
VERTEX
  5
1586
  8
0
 10
12.78618070409342
 20
5.199589514668105
 30
0.0
  0
VERTEX
  5
1587
  8
0
 10
12.786180704093409
 20
4.800389514668125
 30
0.0
 42
-0.4142059999999927
  0
VERTEX
  5
1588
  8
0
 10
12.486189704093389
 20
4.5003895146681137
 30
0.0
  0
VERTEX
  5
1589
  8
0
 10
9.0861897040934139
 20
4.5002975146680617
 30
0.0
 42
-0.4142219999998628
  0
VERTEX
  5
158A
  8
0
 10
8.7861807040934252
 20
4.8002975146681299
 30
0.0
  0
VERTEX
  5
158B
  8
0
 10
8.7861807040934252
 20
5.2002975146681081
 30
0.0
 42
0.4142399761202665
  0
VERTEX
  5
158C
  8
0
 10
8.4861537040934252
 20
5.5002975146681186
 30
0.0
  0
VERTEX
  5
158D
  8
0
 10
2.786153704093393
 20
5.4997915146682166
 30
0.0
 42
-0.4142389999999623
  0
VERTEX
  5
158E
  8
0
 10
2.4861277040933909
 20
5.7997915146681294
 30
0.0
  0
SEQEND
  5
158F
  8
0
  0
POLYLINE
  5
E70
  8
0
 66
     1
 10
0.0
 20
0.0
 30
0.0
 70
     1
  0
VERTEX
  5
1590
  8
0
 10
0.7861192190933651
 20
15.002207852569599
 30
0.0
  0
VERTEX
  5
1591
  8
0
 10
0.7861192190933651
 20
15.000044514668099
 30
0.0
  0
VERTEX
  5
1592
  8
0
 10
1.2967422068153951
 20
16.323325857270859
 30
0.0
 42
0.4142135623730948
  0
VERTEX
  5
1593
  8
0
 10
1.096778162307998
 20
16.697510812746671
 30
0.0
  0
VERTEX
  5
1594
  8
0
 10
1.048932412309511
 20
16.71202922199377
 30
0.0
  0
VERTEX
  5
1595
  8
0
 10
1.048848804425873
 20
18.215130302755782
 30
0.0
 42
-0.4769755326981641
  0
VERTEX
  5
1596
  8
0
 10
1.420505679371729
 20
18.517383127262249
 30
0.0
  0
VERTEX
  5
1597
  8
0
 10
3.233736150029983
 20
18.135936531134529
 30
0.0
 42
-0.221694662643019
  0
VERTEX
  5
1598
  8
0
 10
3.774615981506769
 20
17.73012762597973
 30
0.0
  0
VERTEX
  5
1599
  8
0
 10
3.926749892615546
 20
17.44544534274808
 30
0.0
 42
-0.5773502691897449
  0
VERTEX
  5
159A
  8
0
 10
3.7437961525053529
 20
17.151289042493271
 30
0.0
  0
VERTEX
  5
159B
  8
0
 10
3.4220384242871091
 20
17.161850408720241
 30
0.0
  0
VERTEX
  5
159C
  8
0
 10
2.3374739773153692
 20
15.276006716859181
 30
0.0
  0
VERTEX
  5
159D
  8
0
 10
2.2794003403262901
 20
15.08462371686546
 30
0.0
 42
0.7625858545243258
  0
VERTEX
  5
159E
  8
0
 10
2.6097264213432818
 20
14.900044514667981
 30
0.0
 42
-0.2134217652834374
  0
VERTEX
  5
159F
  8
0
 10
2.833333219093404
 20
15.000044514668099
 30
0.0
  0
VERTEX
  5
15A0
  8
0
 10
6.686119219093384
 20
15.000044514668099
 30
0.0
 42
0.4142139999999655
  0
VERTEX
  5
15A1
  8
0
 10
6.9861192190933963
 20
15.3000445146681
 30
0.0
  0
VERTEX
  5
15A2
  8
0
 10
6.9861192190933963
 20
15.600044514668109
 30
0.0
  0
VERTEX
  5
15A3
  8
0
 10
6.0623592190933664
 20
17.200044514668189
 30
0.0
 42
-0.5773499999997661
  0
VERTEX
  5
15A4
  8
0
 10
6.2355642190933764
 20
17.500044514668101
 30
0.0
  0
VERTEX
  5
15A5
  8
0
 10
7.6212052190933832
 20
17.50004451466809
 30
0.0
 42
-0.2679490000000106
  0
VERTEX
  5
15A6
  8
0
 10
8.487230219093405
 20
17.00004451466809
 30
0.0
  0
VERTEX
  5
15A7
  8
0
 10
9.4975932190934316
 20
15.25004451466809
 30
0.0
 42
0.2679490000000305
  0
VERTEX
  5
15A8
  8
0
 10
9.9306062190933915
 20
15.000044514668099
 30
0.0
  0
VERTEX
  5
15A9
  8
0
 10
11.6416505390934
 20
15.00004451466809
 30
0.0
 42
0.2679489999999749
  0
VERTEX
  5
15AA
  8
0
 10
12.07466353909342
 20
15.25004451466809
 30
0.0
  0
VERTEX
  5
15AB
  8
0
 10
13.085026539093491
 20
17.00004451466803
 30
0.0
 42
-0.2679489999999891
  0
VERTEX
  5
15AC
  8
0
 10
13.951051539093379
 20
17.50004451466809
 30
0.0
  0
VERTEX
  5
15AD
  8
0
 10
15.3366925390934
 20
17.500044514668001
 30
0.0
 42
-0.5773499999999352
  0
VERTEX
  5
15AE
  8
0
 10
15.5098975390934
 20
17.200044514668189
 30
0.0
  0
VERTEX
  5
15AF
  8
0
 10
14.586137539093381
 20
15.600044514668109
 30
0.0
  0
VERTEX
  5
15B0
  8
0
 10
14.586137539093381
 20
15.3000445146681
 30
0.0
 42
0.4142139999998408
  0
VERTEX
  5
15B1
  8
0
 10
14.886137539093401
 20
15.00004451466809
 30
0.0
  0
VERTEX
  5
15B2
  8
0
 10
18.738923539093431
 20
15.000044514668071
 30
0.0
 42
-0.2134217652834374
  0
VERTEX
  5
15B3
  8
0
 10
18.962530336843539
 20
14.90004451466795
 30
0.0
 42
0.7625858545243228
  0
VERTEX
  5
15B4
  8
0
 10
19.292856417860559
 20
15.08462371686543
 30
0.0
  0
VERTEX
  5
15B5
  8
0
 10
19.23478278087147
 20
15.276006716859159
 30
0.0
  0
VERTEX
  5
15B6
  8
0
 10
18.15021833389973
 20
17.161850408720209
 30
0.0
  0
VERTEX
  5
15B7
  8
0
 10
17.828460605681471
 20
17.151289042493229
 30
0.0
 42
-0.5773502691897449
  0
VERTEX
  5
15B8
  8
0
 10
17.645506865571299
 20
17.445445342748069
 30
0.0
  0
VERTEX
  5
15B9
  8
0
 10
17.797640776680051
 20
17.730127625979719
 30
0.0
 42
-0.2216946626430182
  0
VERTEX
  5
15BA
  8
0
 10
18.338520608156848
 20
18.135936531134501
 30
0.0
  0
VERTEX
  5
15BB
  8
0
 10
20.151751078815099
 20
18.517383127262221
 30
0.0
 42
-0.4769755326981641
  0
VERTEX
  5
15BC
  8
0
 10
20.52340795376098
 20
18.21513030275575
 30
0.0
  0
VERTEX
  5
15BD
  8
0
 10
20.523324345877331
 20
16.712029221993738
 30
0.0
  0
VERTEX
  5
15BE
  8
0
 10
20.47547859587884
 20
16.697510812746639
 30
0.0
 42
0.4142135623730948
  0
VERTEX
  5
15BF
  8
0
 10
20.27551455137144
 20
16.323325857270831
 30
0.0
  0
VERTEX
  5
15C0
  8
0
 10
20.786137539093431
 20
15.002207852569679
 30
0.0
  0
VERTEX
  5
15C1
  8
0
 10
20.786137539093431
 20
14.75533751466811
 30
0.0
  0
VERTEX
  5
15C2
  8
0
 10
20.786115539093409
 20
5.6001340146681278
 30
0.0
 42
0.4142140000000128
  0
VERTEX
  5
15C3
  8
0
 10
21.286115539093419
 20
5.1001340146681278
 30
0.0
  0
VERTEX
  5
15C4
  8
0
 10
23.786129969093391
 20
5.1001340146681278
 30
0.0
 42
0.4142140000000127
  0
VERTEX
  5
15C5
  8
0
 10
24.286129969093398
 20
5.6001340146681278
 30
0.0
  0
VERTEX
  5
15C6
  8
0
 10
24.286129969093249
 20
8.3001340146682026
 30
0.0
 42
-0.414213999999924
  0
VERTEX
  5
15C7
  8
0
 10
24.58612996909341
 20
8.6001340146681287
 30
0.0
  0
VERTEX
  5
15C8
  8
0
 10
27.98612996909338
 20
8.6001340146679865
 30
0.0
 42
-0.414213999999924
  0
VERTEX
  5
15C9
  8
0
 10
28.286129969093398
 20
8.3001340146682026
 30
0.0
  0
VERTEX
  5
15CA
  8
0
 10
28.286129969093508
 20
7.4001340146681107
 30
0.0
 42
-0.4142140000000072
  0
VERTEX
  5
15CB
  8
0
 10
27.98612996909338
 20
7.1001340146681278
 30
0.0
  0
VERTEX
  5
15CC
  8
0
 10
26.08612996909341
 20
7.1001340146681278
 30
0.0
 42
0.414213999999924
  0
VERTEX
  5
15CD
  8
0
 10
25.786129969093398
 20
6.8001340146682017
 30
0.0
  0
VERTEX
  5
15CE
  8
0
 10
25.786129969093398
 20
4.4001340146681107
 30
0.0
 42
0.4142140000000074
  0
VERTEX
  5
15CF
  8
0
 10
26.08612996909341
 20
4.1001340146681278
 30
0.0
  0
VERTEX
  5
15D0
  8
0
 10
45.486129969093383
 20
4.1001340146681278
 30
0.0
 42
0.4142139999998963
  0
VERTEX
  5
15D1
  8
0
 10
45.786129969093388
 20
4.4001340146681107
 30
0.0
  0
VERTEX
  5
15D2
  8
0
 10
45.786129969093388
 20
6.8001340146682017
 30
0.0
 42
0.414213999999938
  0
VERTEX
  5
15D3
  8
0
 10
45.486129969093383
 20
7.1001340146681278
 30
0.0
  0
VERTEX
  5
15D4
  8
0
 10
43.586129969093399
 20
7.1001340146681278
 30
0.0
 42
-0.4142139999998963
  0
VERTEX
  5
15D5
  8
0
 10
43.286129969093388
 20
7.4001340146681107
 30
0.0
  0
VERTEX
  5
15D6
  8
0
 10
43.286129969093253
 20
8.3001340146682026
 30
0.0
 42
-0.414213999999924
  0
VERTEX
  5
15D7
  8
0
 10
43.586129969093399
 20
8.6001340146681287
 30
0.0
  0
VERTEX
  5
15D8
  8
0
 10
46.986129969093412
 20
8.6001340146680434
 30
0.0
 42
-0.4142139999998685
  0
VERTEX
  5
15D9
  8
0
 10
47.286129969093423
 20
8.3001340146682026
 30
0.0
  0
VERTEX
  5
15DA
  8
0
 10
47.286129969093452
 20
0.3001340146682025
 30
0.0
 42
-0.4142139999999796
  0
VERTEX
  5
15DB
  8
0
 10
46.986129969093412
 20
0.0001340146681059
 30
0.0
  0
VERTEX
  5
15DC
  8
0
 10
19.22153046909342
 20
0.0001340146681628
 30
0.0
 42
-0.3394299999999863
  0
VERTEX
  5
15DD
  8
0
 10
18.738578469093412
 20
0.3706810146681221
 30
0.0
  0
VERTEX
  5
15DE
  8
0
 10
18.098480469093388
 20
2.7591240146681169
 30
0.0
 42
0.3394539999999995
  0
VERTEX
  5
15DF
  8
0
 10
17.132489469093411
 20
3.500220014668201
 30
0.0
  0
VERTEX
  5
15E0
  8
0
 10
16.286079469093419
 20
3.500146014668104
 30
0.0
 42
0.4141880000000525
  0
VERTEX
  5
15E1
  8
0
 10
15.786123469093409
 20
3.000146014668104
 30
0.0
  0
VERTEX
  5
15E2
  8
0
 10
15.78612346909331
 20
1.0002440146682261
 30
0.0
 42
-0.4142060000000179
  0
VERTEX
  5
15E3
  8
0
 10
15.28613746909339
 20
0.5002440146682261
 30
0.0
  0
VERTEX
  5
15E4
  8
0
 10
11.652108129190379
 20
0.5001452961175659
 30
0.0
  0
VERTEX
  5
15E5
  8
0
 10
10.786123469093409
 20
1.000121771794525
 30
0.0
  0
VERTEX
  5
15E6
  8
0
 10
9.9200582200283094
 20
0.5000987335651104
 30
0.0
  0
VERTEX
  5
15E7
  8
0
 10
6.2861374690933891
 20
0.5000000146680536
 30
0.0
 42
-0.4142219999999848
  0
VERTEX
  5
15E8
  8
0
 10
5.7861234690933676
 20
1.000000014668103
 30
0.0
  0
VERTEX
  5
15E9
  8
0
 10
5.7861234690933676
 20
3.000120014668112
 30
0.0
 42
0.4142140000000127
  0
VERTEX
  5
15EA
  8
0
 10
5.2861234690933676
 20
3.500120014668112
 30
0.0
  0
VERTEX
  5
15EB
  8
0
 10
4.3422064690933686
 20
3.500120014668112
 30
0.0
 42
0.3394552719462804
  0
VERTEX
  5
15EC
  8
0
 10
3.3762212190933658
 20
2.7590240146682272
 30
0.0
  0
VERTEX
  5
15ED
  8
0
 10
2.7360872190934771
 20
0.3705480146681168
 30
0.0
 42
-0.3394539999999489
  0
VERTEX
  5
15EE
  8
0
 10
2.253091219093363
 20
0.0000000146681032
 30
0.0
  0
VERTEX
  5
15EF
  8
0
 10
1.2860952190933681
 20
0.0000890146681485
 30
0.0
 42
-0.4141869999999645
  0
VERTEX
  5
15F0
  8
0
 10
0.786140219093369
 20
0.5000890146681059
 30
0.0
  0
VERTEX
  5
15F1
  8
0
 10
0.7861192190933651
 20
15.000044514668099
 30
0.0
  0
SEQEND
  5
15F2
  8
0
  0
POLYLINE
  5
E71
  8
BYGG-025059$0$LACK_MINDRES
  6
CONTINUOUS
 66
     1
 10
0.0
 20
0.0
 30
0.0
  0
VERTEX
  5
15F3
  8
BYGG-025059$0$LACK_MINDRES
  6
CONTINUOUS
 10
50.107493190934321
 20
-1.0318944660628799
 30
0.0
  0
VERTEX
  5
15F4
  8
BYGG-025059$0$LACK_MINDRES
  6
CONTINUOUS
 10
50.107493190934321
 20
10.81527731172949
 30
0.0
  0
VERTEX
  5
15F5
  8
BYGG-025059$0$LACK_MINDRES
  6
CONTINUOUS
 10
23.83628539259783
 20
10.815277311729499
 30
0.0
  0
VERTEX
  5
15F6
  8
BYGG-025059$0$LACK_MINDRES
  6
CONTINUOUS
 10
23.83628539259783
 20
17.42994835928782
 30
0.0
  0
SEQEND
  5
15F7
  8
BYGG-025059$0$LACK_MINDRES
  6
CONTINUOUS
  0
POLYLINE
  5
E72
  8
BYGG-025059$0$LACK_MINDRES
  6
CONTINUOUS
 66
     1
 10
0.0
 20
0.0
 30
0.0
  0
VERTEX
  5
15F8
  8
BYGG-025059$0$LACK_MINDRES
  6
CONTINUOUS
 10
50.607493190934321
 20
-1.0318944660628799
 30
0.0
  0
VERTEX
  5
15F9
  8
BYGG-025059$0$LACK_MINDRES
  6
CONTINUOUS
 10
50.607493190934314
 20
11.31527731172954
 30
0.0
  0
VERTEX
  5
15FA
  8
BYGG-025059$0$LACK_MINDRES
  6
CONTINUOUS
 10
24.336285392597858
 20
11.315277311729499
 30
0.0
  0
VERTEX
  5
15FB
  8
BYGG-025059$0$LACK_MINDRES
  6
CONTINUOUS
 10
24.33628539259783
 20
17.42994835928782
 30
0.0
  0
SEQEND
  5
15FC
  8
BYGG-025059$0$LACK_MINDRES
  6
CONTINUOUS
  0
ENDBLK
  5
915
  8
0
  0
BLOCK
  8
0
  2
*D28
 70
     1
 10
0.0
 20
0.0
 30
0.0
  3
*D28
  1

  0
LINE
  5
E05
  8
BYGG-024775$0$MATT
 10
7.8484289096692228
 20
-53.523794819340083
 30
0.0
 11
7.848428909669221
 21
-75.735580058704954
 31
0.0
  0
LINE
  5
E06
  8
BYGG-024775$0$MATT
 10
37.348428909669217
 20
-53.523794819340083
 30
0.0
 11
37.348428909669217
 21
-75.735580058704954
 31
0.0
  0
LINE
  5
E07
  8
BYGG-024775$0$MATT
 10
10.84842890966922
 20
-74.235580058704954
 30
0.0
 11
34.348428909669231
 21
-74.235580058704954
 31
0.0
  0
SOLID
  5
E08
  8
BYGG-024775$0$MATT
 10
10.84842890966922
 20
-73.735580058704954
 30
0.0
 11
10.84842890966922
 21
-74.735580058704954
 31
0.0
 12
7.848428909669221
 22
-74.235580058704954
 32
0.0
 13
7.848428909669221
 23
-74.235580058704954
 33
0.0
  0
SOLID
  5
E09
  8
BYGG-024775$0$MATT
 10
34.348428909669231
 20
-73.735580058704954
 30
0.0
 11
34.348428909669231
 21
-74.735580058704954
 31
0.0
 12
37.348428909669217
 22
-74.235580058704954
 32
0.0
 13
37.348428909669217
 23
-74.235580058704954
 33
0.0
  0
INSERT
  5
E0A
  8
0
  2
*U79
 10
0.0
 20
0.0
 30
0.0
  0
POINT
  5
E0C
  8
DEFPOINTS
 62
     0
 10
7.8484289096692228
 20
-52.023794819340083
 30
0.0
  0
POINT
  5
E0D
  8
DEFPOINTS
 62
     0
 10
37.348428909669217
 20
-52.023794819340083
 30
0.0
  0
POINT
  5
E0E
  8
DEFPOINTS
 62
     0
 10
37.348428909669217
 20
-74.235580058704954
 30
0.0
  0
ENDBLK
  5
E0F
  8
0
  0
BLOCK
  8
0
  2
*D33
 70
     1
 10
0.0
 20
0.0
 30
0.0
  3
*D33
  1

  0
LINE
  5
E54
  8
BYGG-025059$0$MATT
 10
47.286129969093423
 20
2.8001340146682021
 30
0.0
 11
47.286129969093423
 21
-14.88063998543619
 31
0.0
  0
LINE
  5
E55
  8
BYGG-025059$0$MATT
 10
0.7861299690933704
 20
6.2500667646681034
 30
0.0
 11
0.7861299690933692
 21
-14.88063998543619
 31
0.0
  0
LINE
  5
E56
  8
BYGG-025059$0$MATT
 10
44.286129969093423
 20
-13.38063998543619
 30
0.0
 11
3.7861299690933681
 21
-13.38063998543619
 31
0.0
  0
SOLID
  5
E57
  8
BYGG-025059$0$MATT
 10
44.286129969093423
 20
-12.88063998543619
 30
0.0
 11
44.286129969093423
 21
-13.88063998543619
 31
0.0
 12
47.286129969093423
 22
-13.38063998543619
 32
0.0
 13
47.286129969093423
 23
-13.38063998543619
 33
0.0
  0
SOLID
  5
E58
  8
BYGG-025059$0$MATT
 10
3.7861299690933681
 20
-12.88063998543619
 30
0.0
 11
3.7861299690933681
 21
-13.88063998543619
 31
0.0
 12
0.7861299690933692
 22
-13.38063998543619
 32
0.0
 13
0.7861299690933692
 23
-13.38063998543619
 33
0.0
  0
INSERT
  5
E59
  8
0
  2
*U80
 10
0.0
 20
0.0
 30
0.0
  0
POINT
  5
E5B
  8
DEFPOINTS
 62
     0
 10
47.286129969093423
 20
4.3001340146682017
 30
0.0
  0
POINT
  5
E5C
  8
DEFPOINTS
 62
     0
 10
0.7861299690933706
 20
7.7500667646681034
 30
0.0
  0
POINT
  5
E5D
  8
DEFPOINTS
 62
     0
 10
0.7861299690933692
 20
-13.38063998543619
 30
0.0
  0
ENDBLK
  5
E5E
  8
0
  0
BLOCK
  8
0
  2
*D34
 70
     1
 10
0.0
 20
0.0
 30
0.0
  3
*D34
  1

  0
LINE
  5
E63
  8
BYGG-025059$0$MATT
 10
3.2597178440933892
 20
15.000044514668099
 30
0.0
 11
-11.639820690697089
 21
15.000044514668099
 31
0.0
  0
LINE
  5
E64
  8
BYGG-025059$0$MATT
 10
0.2695932190933661
 20
0.0000445146681049
 30
0.0
 11
-11.639820690697089
 21
0.0000445146681083
 31
0.0
  0
LINE
  5
E65
  8
BYGG-025059$0$MATT
 10
-10.139820690697089
 20
12.000044514668099
 30
0.0
 11
-10.139820690697089
 21
3.0000445146681081
 31
0.0
  0
SOLID
  5
E66
  8
BYGG-025059$0$MATT
 10
-10.639820690697089
 20
12.000044514668099
 30
0.0
 11
-9.6398206906970891
 21
12.000044514668099
 31
0.0
 12
-10.139820690697089
 22
15.000044514668099
 32
0.0
 13
-10.139820690697089
 23
15.000044514668099
 33
0.0
  0
SOLID
  5
E67
  8
BYGG-025059$0$MATT
 10
-10.639820690697089
 20
3.0000445146681081
 30
0.0
 11
-9.6398206906970945
 21
3.0000445146681081
 31
0.0
 12
-10.139820690697089
 22
0.0000445146681079
 32
0.0
 13
-10.139820690697089
 23
0.0000445146681079
 33
0.0
  0
INSERT
  5
E68
  8
0
  2
*U81
 10
0.0
 20
0.0
 30
0.0
  0
POINT
  5
E69
  8
DEFPOINTS
 62
     0
 10
4.7597178440933892
 20
15.000044514668099
 30
0.0
  0
POINT
  5
E6A
  8
DEFPOINTS
 62
     0
 10
1.7695932190933661
 20
0.0000445146681045
 30
0.0
  0
POINT
  5
E6B
  8
DEFPOINTS
 62
     0
 10
-10.139820690697089
 20
0.0000445146681079
 30
0.0
  0
ENDBLK
  5
E6C
  8
0
  0
BLOCK
  8
0
  2
BYGG-014344$0$ACAD
 70
     0
 10
0.0
 20
0.0
 30
0.0
  3
BYGG-014344$0$ACAD
  1

  0
ENDBLK
  5
ADF
  8
0
  0
BLOCK
  8
0
  2
BYGG-014344$0$ASDP2
 70
     0
 10
0.0
 20
0.0
 30
0.0
  3
BYGG-014344$0$ASDP2
  1

  0
INSERT
  5
ADC
  8
0
  2
BYGG-014344$0$ACAD
 10
0.0
 20
0.0
 30
0.0
  0
ENDBLK
  5
AE0
  8
0
  0
BLOCK
  8
0
  2
*D71
 70
     1
 10
0.0
 20
0.0
 30
0.0
  3
*D71
  1

  0
LINE
  5
1298
  8
SAPA_MATT
 10
-14.77064116701696
 20
-32.513106926828563
 30
0.0
 11
-7.9611887045147549
 21
-51.221923806403041
 31
0.0
  0
LINE
  5
1299
  8
SAPA_MATT
 10
31.529949585628049
 20
-13.53271451897289
 30
0.0
 11
39.02344233478162
 21
-34.120916640119248
 31
0.0
  0
LINE
  5
129A
  8
SAPA_MATT
 10
-5.6551410571455358
 20
-48.786324445247182
 30
0.0
 11
35.691334257435393
 21
-33.737438138917391
 31
0.0
  0
SOLID
  5
129B
  8
SAPA_MATT
 10
-5.8261511288083714
 20
-48.316478134854222
 30
0.0
 11
-5.4841309854827021
 21
-49.25617075564012
 31
0.0
 12
-8.4742189195032598
 22
-49.812384875224183
 32
0.0
 13
-8.4742189195032598
 23
-49.812384875224183
 33
0.0
  0
SOLID
  5
129C
  8
SAPA_MATT
 10
35.520324185772552
 20
-33.267591828524438
 30
0.0
 11
35.862344329098221
 21
-34.20728444931035
 31
0.0
 12
38.510412119793109
 22
-32.711377708940383
 32
0.0
 13
38.510412119793109
 23
-32.711377708940383
 33
0.0
  0
INSERT
  5
129D
  8
0
  2
*U86
 10
0.0
 20
0.0
 30
0.0
  0
POINT
  5
129E
  8
DEFPOINTS
 62
     0
 10
-15.283671382005471
 20
-31.103567995649701
 30
0.0
  0
POINT
  5
129F
  8
DEFPOINTS
 62
     0
 10
31.016919370639538
 20
-12.12317558779403
 30
0.0
  0
POINT
  5
12A0
  8
DEFPOINTS
 62
     0
 10
38.510412119793109
 20
-32.711377708940383
 30
0.0
  0
ENDBLK
  5
1279
  8
0
  0
BLOCK
  8
0
  2
*D72
 70
     1
 10
0.0
 20
0.0
 30
0.0
  3
*D72
  1

  0
LINE
  5
1FDC
  8
SAPA_MATT
 10
31.529949585628049
 20
-13.53271451897289
 30
0.0
 11
39.02344233478162
 21
-34.120916640119262
 31
0.0
  0
LINE
  5
1FDD
  8
SAPA_MATT
 10
71.254965154996
 20
52.751966226486601
 30
0.0
 11
95.404999581934845
 21
-13.599708040579589
 31
0.0
  0
LINE
  5
1FDE
  8
SAPA_MATT
 10
41.329489982150832
 20
-31.685317278963399
 30
0.0
 11
92.072891504588597
 21
-13.216229539377739
 31
0.0
  0
SOLID
  5
1FDF
  8
SAPA_MATT
 10
41.158479910487998
 20
-31.21547096857045
 30
0.0
 11
41.500500053813667
 21
-32.155163589356349
 31
0.0
 12
38.510412119793124
 22
-32.711377708940411
 32
0.0
 13
38.510412119793124
 23
-32.711377708940411
 33
0.0
  0
SOLID
  5
1FE0
  8
SAPA_MATT
 10
91.901881432925776
 20
-12.74638322898479
 30
0.0
 11
92.243901576251446
 21
-13.68607584977069
 31
0.0
 12
94.891969366946341
 22
-12.190169109400729
 32
0.0
 13
94.891969366946341
 23
-12.190169109400729
 33
0.0
  0
TEXT
  8
SAPA_MATT
  40
3
  5
1FE9
  62
2
  72
0
  71
0
 10
59.8461
 20
-25.4115
 30
0.000000
  1
60
  7
ISO
  0
POINT
  5
1FE2
  8
DEFPOINTS
 62
     0
 10
31.016919370639538
 20
-12.12317558779403
 30
0.0
  0
POINT
  5
1FE3
  8
DEFPOINTS
 62
     0
 10
70.741934940007496
 20
54.161505157665452
 30
0.0
  0
POINT
  5
1FE4
  8
DEFPOINTS
 62
     0
 10
94.891969366946341
 20
-12.190169109400729
 30
0.0
  0
ENDBLK
  5
1285
  8
0
  0
BLOCK
  8
0
  2
*U73
 70
     1
 10
0.0
 20
0.0
 30
0.0
  3
*U73
  1

  0
TEXT
  5
12E8
  8
SAPA_ARTIKELNR
 10
5.0553283863636969
 20
-31.810848688695039
 30
0.0
 40
3.4999999999999991
  1
68291
 50
20.000000000000071
  7
ISO
  0
ENDBLK
  5
12EA
  8
0
  0
BLOCK
  8
0
  2
*U74
 70
     1
 10
0.0
 20
0.0
 30
0.0
  3
*U74
  1

  0
TEXT
  5
12EC
  8
SAPA_ARTIKELNR
 10
-33.388184125950893
 20
73.811833863410186
 30
0.0
 40
3.4999999999999991
  1
42144
 50
20.000000000000071
  7
ISO
  0
ENDBLK
  5
12EE
  8
0
  0
BLOCK
  8
0
  2
*U75
 70
     1
 10
0.0
 20
0.0
 30
0.0
  3
*U75
  1

  0
TEXT
  5
12F0
  8
SAPA_ARTIKELNR
 10
-2.6821042365178118
 20
157.60750393921461
 30
0.0
 40
3.4999999999999991
  1
42643
 50
20.000000000000281
  7
ISO
  0
ENDBLK
  5
12F2
  8
0
  0
BLOCK
  8
0
  2
*U76
 70
     1
 10
0.0
 20
0.0
 30
0.0
  3
*U76
  1

  0
TEXT
  5
12F4
  8
SAPA_ARTIKELNR
 10
37.19296392089327
 20
36.75918451746157
 30
0.0
 40
3.4999999999999991
  1
74702
 50
19.999999999999719
  7
ISO
  0
ENDBLK
  5
12F6
  8
0
  0
BLOCK
  8
0
  2
*U77
 70
     1
 10
0.0
 20
0.0
 30
0.0
  3
*U77
  1

  0
TEXT
  5
12F8
  8
SAPA_ARTIKELNR
 10
51.825361358668729
 20
72.271904322378802
 30
0.0
 40
3.4999999999999991
  1
74701
 50
20.000000000000369
  7
ISO
  0
ENDBLK
  5
12FA
  8
0
  0
BLOCK
  8
0
  2
*X78
 70
     1
 10
0.0
 20
0.0
 30
0.0
  3
*X78
  1

  0
LINE
  5
1362
  8
0
 62
     0
 10
1.9940570985189929
 20
1.111249999999999
 30
0.0
 11
5.7965351854286693
 21
1.111249999999999
 31
0.0
  0
LINE
  5
1363
  8
0
 62
     0
 10
3.027133309282636
 20
2.2224999999999988
 30
0.0
 11
5.1549546987917152
 21
2.2224999999999988
 31
0.0
  0
LINE
  5
1364
  8
0
 62
     0
 10
2.6547506639312561
 20
3.3337499999999989
 30
0.0
 11
4.8947399120181103
 21
3.3337499999999989
 31
0.0
  0
LINE
  5
1365
  8
0
 62
     0
 10
0.0234998102366743
 20
4.4449999999999994
 30
0.0
 11
4.7616920489769026
 21
4.4449999999999994
 31
0.0
  0
LINE
  5
1366
  8
0
 62
     0
 10
0.0000001930201874
 20
5.5562499999999986
 30
0.0
 11
2.3960908995194501
 21
5.5562499999999986
 31
0.0
  0
LINE
  5
1367
  8
0
 62
     0
 10
0.0000001930201905
 20
6.6674999999999978
 30
0.0
 11
1.800000193020143
 21
6.6674999999999978
 31
0.0
  0
LINE
  5
1368
  8
0
 62
     0
 10
0.0000001930201935
 20
7.7787499999999978
 30
0.0
 11
1.8000001930201499
 21
7.7787499999999978
 31
0.0
  0
LINE
  5
1369
  8
0
 62
     0
 10
0.0000001930201965
 20
8.8899999999999988
 30
0.0
 11
1.800000193020157
 21
8.8899999999999988
 31
0.0
  0
LINE
  5
136A
  8
0
 62
     0
 10
0.0000001930201996
 20
10.001250000000001
 30
0.0
 11
1.8000001930201639
 21
10.001250000000001
 31
0.0
  0
LINE
  5
136B
  8
0
 62
     0
 10
0.0000001930202026
 20
11.112500000000001
 30
0.0
 11
1.800000193020171
 21
11.112500000000001
 31
0.0
  0
LINE
  5
136C
  8
0
 62
     0
 10
0.0000001930202056
 20
12.223750000000001
 30
0.0
 11
1.8000001930201781
 21
12.223750000000001
 31
0.0
  0
LINE
  5
136D
  8
0
 62
     0
 10
0.0000001930202087
 20
13.335000000000001
 30
0.0
 11
1.800000193020185
 21
13.335000000000001
 31
0.0
  0
LINE
  5
136E
  8
0
 62
     0
 10
0.0000001930202117
 20
14.446249999999999
 30
0.0
 11
1.8000001930201921
 21
14.446249999999999
 31
0.0
  0
LINE
  5
136F
  8
0
 62
     0
 10
0.0000001930202163
 20
15.55749999999999
 30
0.0
 11
1.8000001930201941
 21
15.55749999999999
 31
0.0
  0
LINE
  5
1370
  8
0
 62
     0
 10
0.0000001930202224
 20
16.668749999999999
 30
0.0
 11
1.8000001930201941
 21
16.668749999999999
 31
0.0
  0
LINE
  5
1371
  8
0
 62
     0
 10
0.0000001930202286
 20
17.780000000000001
 30
0.0
 11
1.8000001930201941
 21
17.780000000000001
 31
0.0
  0
LINE
  5
1372
  8
0
 62
     0
 10
0.0000001930202348
 20
18.891249999999989
 30
0.0
 11
1.800000193020195
 21
18.891249999999989
 31
0.0
  0
LINE
  5
1373
  8
0
 62
     0
 10
0.0000001930202409
 20
20.002500000000001
 30
0.0
 11
1.800000193020195
 21
20.002500000000001
 31
0.0
  0
LINE
  5
1374
  8
0
 62
     0
 10
0.0000001930202471
 20
21.11375
 30
0.0
 11
1.800000193020195
 21
21.11375
 31
0.0
  0
LINE
  5
1375
  8
0
 62
     0
 10
0.0000001930202532
 20
22.225000000000001
 30
0.0
 11
1.800000193020195
 21
22.225000000000001
 31
0.0
  0
LINE
  5
1376
  8
0
 62
     0
 10
0.0000001930202594
 20
23.33625
 30
0.0
 11
1.800000193020195
 21
23.33625
 31
0.0
  0
LINE
  5
1377
  8
0
 62
     0
 10
0.0000001930202655
 20
24.447500000000002
 30
0.0
 11
2.406393111116409
 21
24.447500000000002
 31
0.0
  0
LINE
  5
1378
  8
0
 62
     0
 10
0.0248663025976104
 20
25.55875
 30
0.0
 11
4.7638369045468911
 21
25.55875
 31
0.0
  0
LINE
  5
1379
  8
0
 62
     0
 10
2.6650528755282661
 20
26.670000000000002
 30
0.0
 11
4.8947399120182471
 21
26.670000000000002
 31
0.0
  0
LINE
  5
137A
  8
0
 62
     0
 10
3.0245055328386541
 20
27.78125
 30
0.0
 11
5.1571195881540968
 21
27.78125
 31
0.0
  0
LINE
  5
137B
  8
0
 62
     0
 10
1.9907572770532149
 20
28.892499999999998
 30
0.0
 11
5.7987000747911051
 21
28.892499999999998
 31
0.0
  0
ENDBLK
  5
137D
  8
0
  0
BLOCK
  8
0
  2
*U79
 70
     1
 10
0.0
 20
0.0
 30
0.0
  3
*U79
  1

  0
TEXT
  5
13B4
  8
BYGG-024775$0$MATT
 62
     2
 10
18.998428909669219
 20
-73.235580058704954
 30
0.0
 40
3.0
  1
29.5
  7
BYGG-024775$0$ISO
  0
ENDBLK
  5
13B6
  8
0
  0
BLOCK
  8
0
  2
*U80
 70
     1
 10
0.0
 20
0.0
 30
0.0
  3
*U80
  1

  0
TEXT
  5
14E6
  8
BYGG-025059$0$MATT
 62
     2
 10
20.286129969093391
 20
-12.38063998543619
 30
0.0
 40
3.0
  1
46.5
  7
BYGG-025059$0$ISO
  0
ENDBLK
  5
14E8
  8
0
  0
BLOCK
  8
0
  2
*U81
 70
     1
 10
0.0
 20
0.0
 30
0.0
  3
*U81
  1

  0
TEXT
  5
14EA
  8
BYGG-025059$0$MATT
 62
     2
 10
-11.139820690697089
 20
5.7000445146681056
 30
0.0
 40
3.0
  1
15
 50
90.0
  7
BYGG-025059$0$ISO
  0
ENDBLK
  5
14EC
  8
0
  0
BLOCK
  8
0
  2
*X82
 70
     1
 10
0.0
 20
0.0
 30
0.0
  3
*X82
  1

  0
LINE
  5
1C6F
  8
0
 62
     0
 10
19.670246534537419
 20
64.452499999999986
 30
0.0
 11
21.827774728741399
 21
64.452499999999986
 31
0.0
  0
LINE
  5
1C70
  8
0
 62
     0
 10
19.849495588766249
 20
65.563749999999985
 30
0.0
 11
23.73350392073754
 21
65.563749999999985
 31
0.0
  0
LINE
  5
1C71
  8
0
 62
     0
 10
19.99505742157546
 20
66.674999999999997
 30
0.0
 11
22.69640239017356
 21
66.674999999999997
 31
0.0
  0
LINE
  5
1C72
  8
0
 62
     0
 10
19.625705101647132
 20
67.786249999999995
 30
0.0
 11
21.778763442753309
 21
67.786249999999995
 31
0.0
  0
LINE
  5
1C73
  8
0
 62
     0
 10
19.84257832947814
 20
68.897499999999994
 30
0.0
 11
22.949034663673618
 21
68.897499999999994
 31
0.0
  0
LINE
  5
1C74
  8
0
 62
     0
 10
21.161923189723119
 20
70.008749999999992
 30
0.0
 11
24.010587224301641
 21
70.008749999999992
 31
0.0
  0
LINE
  5
1C75
  8
0
 62
     0
 10
21.70567255371817
 20
71.11999999999999
 30
0.0
 11
23.621192544174772
 21
71.11999999999999
 31
0.0
  0
LINE
  5
1C76
  8
0
 62
     0
 10
21.301210630889852
 20
72.231249999999989
 30
0.0
 11
23.216730621346439
 21
72.231249999999989
 31
0.0
  0
LINE
  5
1C77
  8
0
 62
     0
 10
20.896748708061519
 20
73.342499999999987
 30
0.0
 11
22.812268698518121
 21
73.342499999999987
 31
0.0
  0
LINE
  5
1C78
  8
0
 62
     0
 10
20.492286785233201
 20
74.453749999999985
 30
0.0
 11
22.407806775689799
 21
74.453749999999985
 31
0.0
  0
LINE
  5
1C79
  8
0
 62
     0
 10
20.087824862404869
 20
75.564999999999984
 30
0.0
 11
22.003344852861481
 21
75.564999999999984
 31
0.0
  0
LINE
  5
1C7A
  8
0
 62
     0
 10
19.68336293957654
 20
76.676249999999996
 30
0.0
 11
21.59888293003316
 21
76.676249999999996
 31
0.0
  0
LINE
  5
1C7B
  8
0
 62
     0
 10
19.278901016748222
 20
77.787499999999994
 30
0.0
 11
21.194421007204841
 21
77.787499999999994
 31
0.0
  0
LINE
  5
1C7C
  8
0
 62
     0
 10
18.874439093919889
 20
78.898749999999993
 30
0.0
 11
20.78995908437652
 21
78.898749999999993
 31
0.0
  0
LINE
  5
1C7D
  8
0
 62
     0
 10
18.469977171091578
 20
80.009999999999991
 30
0.0
 11
20.385497161548201
 21
80.009999999999991
 31
0.0
  0
LINE
  5
1C7E
  8
0
 62
     0
 10
18.06551524826326
 20
81.121249999999975
 30
0.0
 11
19.981035238719869
 21
81.121249999999975
 31
0.0
  0
LINE
  5
1C7F
  8
0
 62
     0
 10
17.661053325434938
 20
82.232499999999973
 30
0.0
 11
19.576573315891551
 21
82.232499999999973
 31
0.0
  0
LINE
  5
1C80
  8
0
 62
     0
 10
17.25659140260662
 20
83.343749999999986
 30
0.0
 11
19.172111393063229
 21
83.343749999999986
 31
0.0
  0
LINE
  5
1C81
  8
0
 62
     0
 10
16.852129479778299
 20
84.454999999999984
 30
0.0
 11
18.7676494702349
 21
84.454999999999984
 31
0.0
  0
LINE
  5
1C82
  8
0
 62
     0
 10
16.44766755694998
 20
85.566249999999982
 30
0.0
 11
18.363187547406579
 21
85.566249999999982
 31
0.0
  0
LINE
  5
1C83
  8
0
 62
     0
 10
16.043205634121669
 20
86.677499999999995
 30
0.0
 11
17.95872562457826
 21
86.677499999999995
 31
0.0
  0
LINE
  5
1C84
  8
0
 62
     0
 10
15.62411245195697
 20
87.788749999999993
 30
0.0
 11
17.554263701749932
 21
87.788749999999993
 31
0.0
  0
LINE
  5
1C85
  8
0
 62
     0
 10
11.94092856790887
 20
88.899999999999977
 30
0.0
 11
17.14980177892161
 21
88.899999999999977
 31
0.0
  0
LINE
  5
1C86
  8
0
 62
     0
 10
11.37267357699956
 20
90.011250000000004
 30
0.0
 11
13.726030027797851
 21
90.011250000000004
 31
0.0
  0
LINE
  5
1C87
  8
0
 62
     0
 10
10.04846169285738
 20
91.122499999999988
 30
0.0
 11
13.59376193985887
 21
91.122499999999988
 31
0.0
  0
LINE
  5
1C88
  8
0
 62
     0
 10
10.441999783072349
 20
92.233749999999986
 30
0.0
 11
13.793973455058371
 21
92.233749999999986
 31
0.0
  0
ENDBLK
  5
1C8A
  8
0
  0
BLOCK
  8
0
  2
*X83
 70
     1
 10
0.0
 20
0.0
 30
0.0
  3
*X83
  1

  0
LINE
  5
1C8C
  8
0
 62
     0
 10
-5.9970244773672396
 20
54.451249999999987
 30
0.0
 11
-5.6465109007769341
 21
54.451249999999987
 31
0.0
  0
LINE
  5
1C8D
  8
0
 62
     0
 10
-6.2307656730186052
 20
55.562499999999993
 30
0.0
 11
-2.593376618407996
 21
55.562499999999993
 31
0.0
  0
LINE
  5
1C8E
  8
0
 62
     0
 10
-5.7752523619105851
 20
56.673749999999991
 30
0.0
 11
-2.6371545947852622
 21
56.673749999999991
 31
0.0
  0
LINE
  5
1C8F
  8
0
 62
     0
 10
-6.0552004543492384
 20
57.784999999999989
 30
0.0
 11
-3.961490774555565
 21
57.784999999999989
 31
0.0
  0
LINE
  5
1C90
  8
0
 62
     0
 10
-6.4596623771775539
 20
58.896249999999988
 30
0.0
 11
-4.5441423867208997
 21
58.896249999999988
 31
0.0
  0
LINE
  5
1C91
  8
0
 62
     0
 10
-6.8641243000058703
 20
60.0075
 30
0.0
 11
-4.9486043095492169
 21
60.0075
 31
0.0
  0
LINE
  5
1C92
  8
0
 62
     0
 10
-7.2685862228341858
 20
61.118749999999991
 30
0.0
 11
-5.3530662323775342
 21
61.118749999999991
 31
0.0
  0
LINE
  5
1C93
  8
0
 62
     0
 10
-7.673048145662503
 20
62.229999999999983
 30
0.0
 11
-5.7575281552058497
 21
62.229999999999983
 31
0.0
  0
LINE
  5
1C94
  8
0
 62
     0
 10
-8.0775100684908203
 20
63.341249999999988
 30
0.0
 11
-6.1619900780341661
 21
63.341249999999988
 31
0.0
  0
LINE
  5
1C95
  8
0
 62
     0
 10
-8.4819719913191385
 20
64.452499999999986
 30
0.0
 11
-6.5664520008624816
 21
64.452499999999986
 31
0.0
  0
LINE
  5
1C96
  8
0
 62
     0
 10
-8.8521273150900122
 20
65.563749999999985
 30
0.0
 11
-6.9691717896977412
 21
65.563749999999985
 31
0.0
  0
LINE
  5
1C97
  8
0
 62
     0
 10
-10.51947497358077
 20
66.674999999999997
 30
0.0
 11
-6.9061043219236096
 21
66.674999999999997
 31
0.0
  0
LINE
  5
1C98
  8
0
 62
     0
 10
-9.9421611146327908
 20
67.786249999999995
 30
0.0
 11
-6.7101609646113367
 21
67.786249999999995
 31
0.0
  0
ENDBLK
  5
1C9A
  8
0
  0
BLOCK
  8
0
  2
*X84
 70
     1
 10
0.0
 20
0.0
 30
0.0
  3
*X84
  1

  0
LINE
  5
1C9C
  8
0
 62
     0
 10
19.670246534537419
 20
64.452499999999986
 30
0.0
 11
21.827774728741399
 21
64.452499999999986
 31
0.0
  0
LINE
  5
1C9D
  8
0
 62
     0
 10
19.849495588766249
 20
65.563749999999985
 30
0.0
 11
23.73350392073754
 21
65.563749999999985
 31
0.0
  0
LINE
  5
1C9E
  8
0
 62
     0
 10
19.99505742157546
 20
66.674999999999997
 30
0.0
 11
22.69640239017356
 21
66.674999999999997
 31
0.0
  0
LINE
  5
1C9F
  8
0
 62
     0
 10
19.625705101647132
 20
67.786249999999995
 30
0.0
 11
21.778763442753309
 21
67.786249999999995
 31
0.0
  0
LINE
  5
1CA0
  8
0
 62
     0
 10
19.84257832947814
 20
68.897499999999994
 30
0.0
 11
22.949034663673618
 21
68.897499999999994
 31
0.0
  0
LINE
  5
1CA1
  8
0
 62
     0
 10
21.161923189723119
 20
70.008749999999992
 30
0.0
 11
24.010587224301641
 21
70.008749999999992
 31
0.0
  0
LINE
  5
1CA2
  8
0
 62
     0
 10
21.70567255371817
 20
71.11999999999999
 30
0.0
 11
23.621192544174772
 21
71.11999999999999
 31
0.0
  0
LINE
  5
1CA3
  8
0
 62
     0
 10
21.301210630889852
 20
72.231249999999989
 30
0.0
 11
23.216730621346439
 21
72.231249999999989
 31
0.0
  0
LINE
  5
1CA4
  8
0
 62
     0
 10
20.896748708061519
 20
73.342499999999987
 30
0.0
 11
22.812268698518121
 21
73.342499999999987
 31
0.0
  0
LINE
  5
1CA5
  8
0
 62
     0
 10
20.492286785233201
 20
74.453749999999985
 30
0.0
 11
22.407806775689799
 21
74.453749999999985
 31
0.0
  0
LINE
  5
1CA6
  8
0
 62
     0
 10
20.087824862404869
 20
75.564999999999984
 30
0.0
 11
22.003344852861481
 21
75.564999999999984
 31
0.0
  0
LINE
  5
1CA7
  8
0
 62
     0
 10
19.68336293957654
 20
76.676249999999996
 30
0.0
 11
21.59888293003316
 21
76.676249999999996
 31
0.0
  0
LINE
  5
1CA8
  8
0
 62
     0
 10
19.278901016748222
 20
77.787499999999994
 30
0.0
 11
21.194421007204841
 21
77.787499999999994
 31
0.0
  0
LINE
  5
1CA9
  8
0
 62
     0
 10
18.874439093919889
 20
78.898749999999993
 30
0.0
 11
20.78995908437652
 21
78.898749999999993
 31
0.0
  0
LINE
  5
1CAA
  8
0
 62
     0
 10
18.469977171091578
 20
80.009999999999991
 30
0.0
 11
20.385497161548201
 21
80.009999999999991
 31
0.0
  0
LINE
  5
1CAB
  8
0
 62
     0
 10
18.06551524826326
 20
81.121249999999975
 30
0.0
 11
19.981035238719869
 21
81.121249999999975
 31
0.0
  0
LINE
  5
1CAC
  8
0
 62
     0
 10
17.661053325434938
 20
82.232499999999973
 30
0.0
 11
19.576573315891551
 21
82.232499999999973
 31
0.0
  0
LINE
  5
1CAD
  8
0
 62
     0
 10
17.25659140260662
 20
83.343749999999986
 30
0.0
 11
19.172111393063229
 21
83.343749999999986
 31
0.0
  0
LINE
  5
1CAE
  8
0
 62
     0
 10
16.852129479778299
 20
84.454999999999984
 30
0.0
 11
18.7676494702349
 21
84.454999999999984
 31
0.0
  0
LINE
  5
1CAF
  8
0
 62
     0
 10
16.44766755694998
 20
85.566249999999982
 30
0.0
 11
18.363187547406579
 21
85.566249999999982
 31
0.0
  0
LINE
  5
1CB0
  8
0
 62
     0
 10
16.043205634121669
 20
86.677499999999995
 30
0.0
 11
17.95872562457826
 21
86.677499999999995
 31
0.0
  0
LINE
  5
1CB1
  8
0
 62
     0
 10
15.62411245195697
 20
87.788749999999993
 30
0.0
 11
17.554263701749932
 21
87.788749999999993
 31
0.0
  0
LINE
  5
1CB2
  8
0
 62
     0
 10
11.94092856790887
 20
88.899999999999977
 30
0.0
 11
17.14980177892161
 21
88.899999999999977
 31
0.0
  0
LINE
  5
1CB3
  8
0
 62
     0
 10
11.37267357699956
 20
90.011250000000004
 30
0.0
 11
13.726030027797851
 21
90.011250000000004
 31
0.0
  0
LINE
  5
1CB4
  8
0
 62
     0
 10
10.04846169285738
 20
91.122499999999988
 30
0.0
 11
13.59376193985887
 21
91.122499999999988
 31
0.0
  0
LINE
  5
1CB5
  8
0
 62
     0
 10
10.441999783072349
 20
92.233749999999986
 30
0.0
 11
13.793973455058371
 21
92.233749999999986
 31
0.0
  0
ENDBLK
  5
1CB7
  8
0
  0
BLOCK
  8
0
  2
*X85
 70
     1
 10
0.0
 20
0.0
 30
0.0
  3
*X85
  1

  0
LINE
  5
1CB9
  8
0
 62
     0
 10
-5.9970244773672396
 20
54.451249999999987
 30
0.0
 11
-5.6465109007769341
 21
54.451249999999987
 31
0.0
  0
LINE
  5
1CBA
  8
0
 62
     0
 10
-6.2307656730186052
 20
55.562499999999993
 30
0.0
 11
-2.593376618407996
 21
55.562499999999993
 31
0.0
  0
LINE
  5
1CBB
  8
0
 62
     0
 10
-5.7752523619105851
 20
56.673749999999991
 30
0.0
 11
-2.6371545947852622
 21
56.673749999999991
 31
0.0
  0
LINE
  5
1CBC
  8
0
 62
     0
 10
-6.0552004543492384
 20
57.784999999999989
 30
0.0
 11
-3.961490774555565
 21
57.784999999999989
 31
0.0
  0
LINE
  5
1CBD
  8
0
 62
     0
 10
-6.4596623771775539
 20
58.896249999999988
 30
0.0
 11
-4.5441423867208997
 21
58.896249999999988
 31
0.0
  0
LINE
  5
1CBE
  8
0
 62
     0
 10
-6.8641243000058703
 20
60.0075
 30
0.0
 11
-4.9486043095492169
 21
60.0075
 31
0.0
  0
LINE
  5
1CBF
  8
0
 62
     0
 10
-7.2685862228341858
 20
61.118749999999991
 30
0.0
 11
-5.3530662323775342
 21
61.118749999999991
 31
0.0
  0
LINE
  5
1CC0
  8
0
 62
     0
 10
-7.673048145662503
 20
62.229999999999983
 30
0.0
 11
-5.7575281552058497
 21
62.229999999999983
 31
0.0
  0
LINE
  5
1CC1
  8
0
 62
     0
 10
-8.0775100684908203
 20
63.341249999999988
 30
0.0
 11
-6.1619900780341661
 21
63.341249999999988
 31
0.0
  0
LINE
  5
1CC2
  8
0
 62
     0
 10
-8.4819719913191385
 20
64.452499999999986
 30
0.0
 11
-6.5664520008624816
 21
64.452499999999986
 31
0.0
  0
LINE
  5
1CC3
  8
0
 62
     0
 10
-8.8521273150900122
 20
65.563749999999985
 30
0.0
 11
-6.9691717896977412
 21
65.563749999999985
 31
0.0
  0
LINE
  5
1CC4
  8
0
 62
     0
 10
-10.51947497358077
 20
66.674999999999997
 30
0.0
 11
-6.9061043219236096
 21
66.674999999999997
 31
0.0
  0
LINE
  5
1CC5
  8
0
 62
     0
 10
-9.9421611146327908
 20
67.786249999999995
 30
0.0
 11
-6.7101609646113367
 21
67.786249999999995
 31
0.0
  0
ENDBLK
  5
1CC7
  8
0
  0
BLOCK
  8
0
  2
*U86
 70
     1
 10
0.0
 20
0.0
 30
0.0
  3
*U86
  1

  0
TEXT
  5
1FE6
  8
SAPA_MATT
 62
     2
 10
12.702721953168851
 20
-41.040430972280269
 30
0.0
 40
3.0
  1
50
 50
20.000000000000011
  7
ISO
  0
ENDBLK
  5
1FE8
  8
0
  0
ENDSEC
  0
SECTION
  2
ENTITIES
  0
INSERT
  5
7A5
  8
0
  2
*U73
 10
0.0
 20
0.0
 30
0.0
  0
INSERT
  5
7A7
  8
0
  2
*U74
 10
0.0
 20
0.0
 30
0.0
  0
INSERT
  5
7A8
  8
0
  2
*U75
 10
0.0
 20
0.0
 30
0.0
  0
INSERT
  5
7A9
  8
0
  2
*U76
 10
0.0
 20
0.0
 30
0.0
  0
INSERT
  5
7AA
  8
0
  2
*U77
 10
0.0
 20
0.0
 30
0.0
  0
POLYLINE
  5
7AE
  8
SAPA_LIGHT
 66
     1
 10
0.0
 20
0.0
 30
0.0
  0
VERTEX
  5
12FB
  8
SAPA_LIGHT
 10
31.871969728951839
 20
-14.47240713975954
 30
0.0
  0
VERTEX
  5
12FC
  8
SAPA_LIGHT
 10
-15.11266131034264
 20
-31.573414306042661
 30
0.0
  0
VERTEX
  5
12FD
  8
SAPA_LIGHT
 10
-37.467258575932128
 20
29.84533690216864
 30
0.0
  0
VERTEX
  5
12FE
  8
SAPA_LIGHT
 10
-18.673406160215581
 20
36.685739768681437
 30
0.0
  0
VERTEX
  5
12FF
  8
SAPA_LIGHT
 10
-27.82586519561055
 20
61.831914300912523
 30
0.0
  0
VERTEX
  5
1300
  8
SAPA_LIGHT
 10
-43.704487789237739
 20
56.052568315685441
 30
0.0
  0
VERTEX
  5
1301
  8
SAPA_LIGHT
 10
-47.767526394122093
 20
67.215675136977524
 30
0.0
  0
VERTEX
  5
1302
  8
SAPA_LIGHT
 10
-6.6133549990082026
 20
82.194568540688593
 30
0.0
  0
VERTEX
  5
1303
  8
SAPA_LIGHT
 10
-3.05603401141577
 20
72.420909453526392
 30
0.0
  0
VERTEX
  5
1304
  8
SAPA_LIGHT
 10
-18.934656605043269
 20
66.641563468299154
 30
0.0
  0
VERTEX
  5
1305
  8
SAPA_LIGHT
 10
-7.4430912863059957
 20
35.068747240880661
 30
0.0
  0
VERTEX
  5
1306
  8
SAPA_LIGHT
 10
11.350761129413931
 20
41.909150107394673
 30
0.0
  0
VERTEX
  5
1307
  8
SAPA_LIGHT
 10
31.871969728953729
 20
-14.472407139758859
 30
0.0
  0
SEQEND
  5
1308
  8
SAPA_LIGHT
  0
POLYLINE
  5
7B6
  8
SAPA_LIGHT
 66
     1
 10
0.0
 20
0.0
 30
0.0
  0
VERTEX
  5
1309
  8
SAPA_LIGHT
 10
-52.502340508507856
 20
24.3730146089577
 30
0.0
  0
VERTEX
  5
130A
  8
SAPA_LIGHT
 10
-24.311561884930569
 20
34.63361890872612
 30
0.0
  0
VERTEX
  5
130B
  8
SAPA_LIGHT
 10
-33.4640209203259
 20
59.779793440958528
 30
0.0
  0
VERTEX
  5
130C
  8
SAPA_LIGHT
 10
-61.654799543902861
 20
49.519189141188697
 30
0.0
  0
SEQEND
  5
130D
  8
SAPA_LIGHT
  0
POLYLINE
  5
7B7
  8
SAPA_LIGHT
 66
     1
 10
0.0
 20
0.0
 30
0.0
  0
VERTEX
  5
130E
  8
SAPA_LIGHT
 10
65.650050355189805
 20
165.64221973373259
 30
0.0
  0
VERTEX
  5
130F
  8
SAPA_LIGHT
 10
22.291716119105271
 20
149.8610766644326
 30
0.0
  0
VERTEX
  5
1310
  8
SAPA_LIGHT
 10
31.526259988898389
 20
124.489375903213
 30
0.0
  0
VERTEX
  5
1311
  8
SAPA_LIGHT
 10
74.884594224982891
 20
140.270518972513
 30
0.0
  0
SEQEND
  5
1312
  8
SAPA_LIGHT
  0
POLYLINE
  5
7B8
  8
SAPA_LIGHT
 66
     1
 10
0.0
 20
0.0
 30
0.0
  0
VERTEX
  5
1313
  8
SAPA_LIGHT
 10
-13.29650088033573
 20
68.693684328250313
 30
0.0
  0
VERTEX
  5
1314
  8
SAPA_LIGHT
 10
-1.804935561598453
 20
37.120868100831792
 30
0.0
  0
VERTEX
  5
1315
  8
SAPA_LIGHT
 10
20.74768733727171
 20
45.329351540651032
 30
0.0
  0
VERTEX
  5
1316
  8
SAPA_LIGHT
 10
23.757303900712088
 20
37.060497991382007
 30
0.0
  0
VERTEX
  5
1317
  8
SAPA_LIGHT
 10
70.741934940007482
 20
54.161505157665452
 30
0.0
  0
VERTEX
  5
1318
  8
SAPA_LIGHT
 10
43.551630438744247
 20
128.86625280298131
 30
0.0
  0
VERTEX
  5
1319
  8
SAPA_LIGHT
 10
26.558415870224518
 20
122.6815378015371
 30
0.0
  0
VERTEX
  5
131A
  8
SAPA_LIGHT
 10
17.323971403034399
 20
148.0529654563496
 30
0.0
  0
VERTEX
  5
131B
  8
SAPA_LIGHT
 10
34.317358099885311
 20
154.2380523933785
 30
0.0
  0
VERTEX
  5
131C
  8
SAPA_LIGHT
 10
31.28530426087249
 20
162.56899253625639
 30
0.0
  0
VERTEX
  5
131D
  8
SAPA_LIGHT
 10
30.86548097638731
 20
162.89549401782909
 30
0.0
  0
VERTEX
  5
131E
  8
SAPA_LIGHT
 10
20.246755716625749
 20
163.96337661896931
 30
0.0
  0
VERTEX
  5
131F
  8
SAPA_LIGHT
 10
20.025715007200841
 20
163.93573229097279
 30
0.0
  0
VERTEX
  5
1320
  8
SAPA_LIGHT
 10
-36.249552743282493
 20
143.45320990443619
 30
0.0
  0
VERTEX
  5
1321
  8
SAPA_LIGHT
 10
-25.304916834056979
 20
113.3830698796869
 30
0.0
  0
VERTEX
  5
1322
  8
SAPA_LIGHT
 10
-18.727520442680511
 20
115.7770463851171
 30
0.0
  0
VERTEX
  5
1323
  8
SAPA_LIGHT
 10
-14.04622829118302
 20
102.9153019050067
 30
0.0
  0
VERTEX
  5
1324
  8
SAPA_LIGHT
 10
-13.52915393213779
 20
102.3510142612956
 30
0.0
  0
VERTEX
  5
1325
  8
SAPA_LIGHT
 10
-4.0262894682371817
 20
97.919755787370022
 30
0.0
  0
VERTEX
  5
1326
  8
SAPA_LIGHT
 10
-3.509215109191937
 20
97.355468143658911
 30
0.0
  0
VERTEX
  5
1327
  8
SAPA_LIGHT
 10
4.5576096983666812
 20
75.192049138195316
 30
0.0
  0
VERTEX
  5
1328
  8
SAPA_LIGHT
 10
-13.29650088033573
 20
68.693684328250313
 30
0.0
  0
SEQEND
  5
1329
  8
SAPA_LIGHT
  0
POLYLINE
  5
1211
  8
SAPA_PROFIL
 66
     1
 10
0.0
 20
0.0
 30
0.0
 70
   129
  0
VERTEX
  5
1916
  8
SAPA_PROFIL
 10
11.842819872906491
 20
33.042733777492188
 30
0.0
 42
0.4040262258351549
  0
VERTEX
  5
1917
  8
SAPA_PROFIL
 10
12.14733805939102
 20
33.667088585072591
 30
0.0
  0
VERTEX
  5
1918
  8
SAPA_PROFIL
 10
11.52892735154717
 20
35.570361039816937
 30
0.0
 42
0.4244748162096148
  0
VERTEX
  5
1919
  8
SAPA_PROFIL
 10
10.882389021737371
 20
35.885698853022362
 30
0.0
  0
VERTEX
  5
191A
  8
SAPA_PROFIL
 10
5.2444846410246546
 20
33.833669474803933
 30
0.0
 42
-0.4142135623731088
  0
VERTEX
  5
191B
  8
SAPA_PROFIL
 10
4.8599708117911851
 20
34.012971218041983
 30
0.0
  0
VERTEX
  5
191C
  8
SAPA_PROFIL
 10
3.526092252820149
 20
37.677772439106697
 30
0.0
 42
0.21342176528335
  0
VERTEX
  5
191D
  8
SAPA_PROFIL
 10
3.3556449617274211
 20
37.85369208257778
 30
0.0
 42
-0.213421765283341
  0
VERTEX
  5
191E
  8
SAPA_PROFIL
 10
3.1851976706337828
 20
38.029611726048373
 30
0.0
  0
VERTEX
  5
191F
  8
SAPA_PROFIL
 10
2.9961335853381561
 20
38.549061031227822
 30
0.0
 42
-0.4142135623730951
  0
VERTEX
  5
1920
  8
SAPA_PROFIL
 10
3.1754353285763268
 20
38.933574860461292
 30
0.0
  0
VERTEX
  5
1921
  8
SAPA_PROFIL
 10
4.7729127839123739
 20
39.515009104114931
 30
0.0
  0
VERTEX
  5
1922
  8
SAPA_PROFIL
 10
5.4829466910639431
 20
39.278679142632903
 30
0.0
 42
-0.7105995015649539
  0
VERTEX
  5
1923
  8
SAPA_PROFIL
 10
5.4908099755514277
 20
38.712124540658962
 30
0.0
  0
VERTEX
  5
1924
  8
SAPA_PROFIL
 10
5.114932927238101
 20
38.575316483329047
 30
0.0
 42
0.4142135623731206
  0
VERTEX
  5
1925
  8
SAPA_PROFIL
 10
4.9356311840000444
 20
38.190802654095549
 30
0.0
  0
VERTEX
  5
1926
  8
SAPA_PROFIL
 10
5.7564795279815817
 20
35.935540364209359
 30
0.0
 42
0.4142135623730951
  0
VERTEX
  5
1927
  8
SAPA_PROFIL
 10
6.1409933572150521
 20
35.756238620971281
 30
0.0
  0
VERTEX
  5
1928
  8
SAPA_PROFIL
 10
10.745487199064989
 20
37.43213732326668
 30
0.0
 42
0.4142135623731258
  0
VERTEX
  5
1929
  8
SAPA_PROFIL
 10
10.924788942303049
 20
37.816651152500199
 30
0.0
  0
VERTEX
  5
192A
  8
SAPA_PROFIL
 10
10.103940598321509
 20
40.071913442386389
 30
0.0
 42
0.4142135623731257
  0
VERTEX
  5
192B
  8
SAPA_PROFIL
 10
9.7194267690880451
 20
40.251215185624467
 30
0.0
  0
VERTEX
  5
192C
  8
SAPA_PROFIL
 10
8.8737034103816086
 20
39.943397056631703
 30
0.0
 42
-0.710599501565072
  0
VERTEX
  5
192D
  8
SAPA_PROFIL
 10
8.5155527574080452
 20
40.382457483037641
 30
0.0
  0
VERTEX
  5
192E
  8
SAPA_PROFIL
 10
8.9075603153704606
 20
41.019897734747879
 30
0.0
  0
VERTEX
  5
192F
  8
SAPA_PROFIL
 10
11.068853343177921
 20
41.806544064396903
 30
0.0
 42
-0.4244748162096024
  0
VERTEX
  5
1930
  8
SAPA_PROFIL
 10
11.45677634106357
 20
41.617341376473142
 30
0.0
  0
VERTEX
  5
1931
  8
SAPA_PROFIL
 10
14.01060513231482
 20
33.75746454887507
 30
0.0
 42
-0.4040262258351507
  0
VERTEX
  5
1932
  8
SAPA_PROFIL
 10
12.79253238637579
 20
31.26004531855337
 30
0.0
  0
VERTEX
  5
1933
  8
SAPA_PROFIL
 10
12.78067960652424
 20
31.255731259494109
 30
0.0
 42
0.8769764629927435
  0
VERTEX
  5
1934
  8
SAPA_PROFIL
 10
13.209855492598191
 20
29.31984394061671
 30
0.0
  0
VERTEX
  5
1935
  8
SAPA_PROFIL
 10
15.619537210883429
 20
29.530663773671488
 30
0.0
 42
-0.3394542588633873
  0
VERTEX
  5
1936
  8
SAPA_PROFIL
 10
15.927591719943621
 20
29.334411407241721
 30
0.0
  0
VERTEX
  5
1937
  8
SAPA_PROFIL
 10
31.016919370637542
 20
-12.12317558779484
 30
0.0
 42
-0.4142135623730951
  0
VERTEX
  5
1938
  8
SAPA_PROFIL
 10
30.718083131907289
 20
-12.764031969850651
 30
0.0
  0
VERTEX
  5
1939
  8
SAPA_PROFIL
 10
-15.326855286601241
 20
-29.523018992808051
 30
0.0
 42
-0.4142135623730951
  0
VERTEX
  5
193A
  8
SAPA_PROFIL
 10
-15.967711668656991
 20
-29.224182754077919
 30
0.0
  0
VERTEX
  5
193B
  8
SAPA_PROFIL
 10
-31.057039319352729
 20
12.23340424095791
 30
0.0
 42
-0.3394542588633794
  0
VERTEX
  5
193C
  8
SAPA_PROFIL
 10
-30.947204464022661
 20
12.58175589724253
 30
0.0
  0
VERTEX
  5
193D
  8
SAPA_PROFIL
 10
-28.965768797480109
 20
13.969172087433529
 30
0.0
 42
0.8769764629927569
  0
VERTEX
  5
193E
  8
SAPA_PROFIL
 10
-29.88136537715684
 20
15.72801675250839
 30
0.0
  0
VERTEX
  5
193F
  8
SAPA_PROFIL
 10
-29.893218157008281
 20
15.723702693449139
 30
0.0
 42
-0.4040262258351565
  0
VERTEX
  5
1940
  8
SAPA_PROFIL
 10
-32.431626152793001
 20
16.853874748189231
 30
0.0
  0
VERTEX
  5
1941
  8
SAPA_PROFIL
 10
-35.527511237020349
 20
24.516459219847309
 30
0.0
 42
-0.4244748162095171
  0
VERTEX
  5
1942
  8
SAPA_PROFIL
 10
-35.351962123648718
 20
24.91074898410783
 30
0.0
  0
VERTEX
  5
1943
  8
SAPA_PROFIL
 10
-33.190669095841137
 20
25.6973953137569
 30
0.0
  0
VERTEX
  5
1944
  8
SAPA_PROFIL
 10
-32.480635188688673
 20
25.461065352275561
 30
0.0
 42
-0.710599501565103
  0
VERTEX
  5
1945
  8
SAPA_PROFIL
 10
-32.472771904201068
 20
24.894510750301251
 30
0.0
  0
VERTEX
  5
1946
  8
SAPA_PROFIL
 10
-33.31849526290739
 20
24.586692621308501
 30
0.0
 42
0.4142135623731159
  0
VERTEX
  5
1947
  8
SAPA_PROFIL
 10
-33.497797006146591
 20
24.202178792074658
 30
0.0
  0
VERTEX
  5
1948
  8
SAPA_PROFIL
 10
-32.676948662164023
 20
21.94691650218882
 30
0.0
 42
0.4142135623731019
  0
VERTEX
  5
1949
  8
SAPA_PROFIL
 10
-32.292434832930439
 20
21.76761475895076
 30
0.0
  0
VERTEX
  5
194A
  8
SAPA_PROFIL
 10
-27.687940991080492
 20
23.44351346124618
 30
0.0
 42
0.4142135623730951
  0
VERTEX
  5
194B
  8
SAPA_PROFIL
 10
-27.508639247842439
 20
23.82802729047965
 30
0.0
  0
VERTEX
  5
194C
  8
SAPA_PROFIL
 10
-28.32948759182409
 20
26.08328958036584
 30
0.0
 42
0.4142135623731367
  0
VERTEX
  5
194D
  8
SAPA_PROFIL
 10
-28.71400142105745
 20
26.262591323603932
 30
0.0
  0
VERTEX
  5
194E
  8
SAPA_PROFIL
 10
-29.089878469370891
 20
26.12578326627402
 30
0.0
 42
-0.7105995015649319
  0
VERTEX
  5
194F
  8
SAPA_PROFIL
 10
-29.44802912234422
 20
26.564843692679698
 30
0.0
  0
VERTEX
  5
1950
  8
SAPA_PROFIL
 10
-29.056021564383169
 20
27.20228394438983
 30
0.0
  0
VERTEX
  5
1951
  8
SAPA_PROFIL
 10
-27.458544109047011
 20
27.783718188043501
 30
0.0
 42
-0.4142135623731159
  0
VERTEX
  5
1952
  8
SAPA_PROFIL
 10
-27.074030279813659
 20
27.604416444805409
 30
0.0
  0
VERTEX
  5
1953
  8
SAPA_PROFIL
 10
-26.884966194518029
 20
27.084967139625959
 30
0.0
 42
-0.2134217652833476
  0
VERTEX
  5
1954
  8
SAPA_PROFIL
 10
-26.90245742758157
 20
26.840643467490182
 30
0.0
 42
0.2134217652833586
  0
VERTEX
  5
1955
  8
SAPA_PROFIL
 10
-26.919948660644192
 20
26.596319795354692
 30
0.0
  0
VERTEX
  5
1956
  8
SAPA_PROFIL
 10
-25.586070101675091
 20
22.931518574289289
 30
0.0
 42
-0.4142135623731019
  0
VERTEX
  5
1957
  8
SAPA_PROFIL
 10
-25.765371844913151
 20
22.54700474505584
 30
0.0
  0
VERTEX
  5
1958
  8
SAPA_PROFIL
 10
-31.403276225625749
 20
20.49497536683738
 30
0.0
 42
0.4244748162095981
  0
VERTEX
  5
1959
  8
SAPA_PROFIL
 10
-31.695858081246339
 20
19.83782575973645
 30
0.0
  0
VERTEX
  5
195A
  8
SAPA_PROFIL
 10
-30.94618821578786
 20
17.982327731338142
 30
0.0
 42
0.4040262258351559
  0
VERTEX
  5
195B
  8
SAPA_PROFIL
 10
-30.311586216841651
 20
17.699784717653969
 30
0.0
  0
VERTEX
  5
195C
  8
SAPA_PROFIL
 10
-11.113768413539789
 20
24.687218960921591
 30
0.0
 42
0.4142135623730951
  0
VERTEX
  5
195D
  8
SAPA_PROFIL
 10
-10.51609593607952
 20
25.968931725033158
 30
0.0
  0
VERTEX
  5
195E
  8
SAPA_PROFIL
 10
-11.713166437719449
 20
29.257855897783841
 30
0.0
 42
0.4142135623730951
  0
VERTEX
  5
195F
  8
SAPA_PROFIL
 10
-12.99487920183094
 20
29.855528375244081
 30
0.0
  0
VERTEX
  5
1960
  8
SAPA_PROFIL
 10
-14.8742644434019
 20
29.17148808859308
 30
0.0
 42
-0.4142135623730909
  0
VERTEX
  5
1961
  8
SAPA_PROFIL
 10
-16.155977207513381
 20
29.769160566053319
 30
0.0
  0
VERTEX
  5
1962
  8
SAPA_PROFIL
 10
-22.551753887703399
 20
47.34141257474981
 30
0.0
 42
-0.4142135623730951
  0
VERTEX
  5
1963
  8
SAPA_PROFIL
 10
-22.372452144465459
 20
47.725926403983237
 30
0.0
  0
VERTEX
  5
1964
  8
SAPA_PROFIL
 10
-20.846143184890021
 20
48.281457433562522
 30
0.0
  0
VERTEX
  5
1965
  8
SAPA_PROFIL
 10
-19.644065842272649
 20
47.720919563005523
 30
0.0
 42
-0.1989123673804336
  0
VERTEX
  5
1966
  8
SAPA_PROFIL
 10
-19.488943534558071
 20
47.551633269892122
 30
0.0
  0
VERTEX
  5
1967
  8
SAPA_PROFIL
 10
-19.078519362568379
 20
46.42400212494907
 30
0.0
  0
VERTEX
  5
1968
  8
SAPA_PROFIL
 10
-19.689319566079231
 20
46.201689031787382
 30
0.0
  0
VERTEX
  5
1969
  8
SAPA_PROFIL
 10
-18.632927709828891
 20
45.121625956754009
 30
0.0
 42
-0.5450207774087864
  0
VERTEX
  5
196A
  8
SAPA_PROFIL
 10
-18.74479089081774
 20
44.629949364536813
 30
0.0
  0
VERTEX
  5
196B
  8
SAPA_PROFIL
 10
-19.073683308092988
 20
44.510242314372739
 30
0.0
  0
VERTEX
  5
196C
  8
SAPA_PROFIL
 10
-18.017291451842759
 20
43.430179239339367
 30
0.0
 42
-0.54502077740915
  0
VERTEX
  5
196D
  8
SAPA_PROFIL
 10
-18.129154632831838
 20
42.938502647122057
 30
0.0
  0
VERTEX
  5
196E
  8
SAPA_PROFIL
 10
-18.45804705010676
 20
42.818795596958111
 30
0.0
  0
VERTEX
  5
196F
  8
SAPA_PROFIL
 10
-17.401655193856531
 20
41.738732521924739
 30
0.0
 42
-0.5450207774088274
  0
VERTEX
  5
1970
  8
SAPA_PROFIL
 10
-17.513518374845368
 20
41.247055929707543
 30
0.0
  0
VERTEX
  5
1971
  8
SAPA_PROFIL
 10
-17.842410792120631
 20
41.127348879543469
 30
0.0
  0
VERTEX
  5
1972
  8
SAPA_PROFIL
 10
-16.786018935870288
 20
40.047285804510103
 30
0.0
 42
-0.5450207774088203
  0
VERTEX
  5
1973
  8
SAPA_PROFIL
 10
-16.89788211685914
 20
39.555609212292907
 30
0.0
  0
VERTEX
  5
1974
  8
SAPA_PROFIL
 10
-17.226774534134389
 20
39.435902162128841
 30
0.0
  0
VERTEX
  5
1975
  8
SAPA_PROFIL
 10
-16.170382677884049
 20
38.355839087095482
 30
0.0
 42
-0.5450207774087519
  0
VERTEX
  5
1976
  8
SAPA_PROFIL
 10
-16.282245858872901
 20
37.864162494878272
 30
0.0
  0
VERTEX
  5
1977
  8
SAPA_PROFIL
 10
-16.61113827614815
 20
37.744455444714212
 30
0.0
  0
VERTEX
  5
1978
  8
SAPA_PROFIL
 10
-15.554746419897921
 20
36.66439236968084
 30
0.0
 42
-0.5450207774090911
  0
VERTEX
  5
1979
  8
SAPA_PROFIL
 10
-15.666609600886879
 20
36.17271577746358
 30
0.0
  0
VERTEX
  5
197A
  8
SAPA_PROFIL
 10
-15.99550201816203
 20
36.053008727299598
 30
0.0
  0
VERTEX
  5
197B
  8
SAPA_PROFIL
 10
-14.93911016191168
 20
34.972945652266212
 30
0.0
 42
-0.5450207774088274
  0
VERTEX
  5
197C
  8
SAPA_PROFIL
 10
-15.05097334290053
 20
34.481269060049001
 30
0.0
  0
VERTEX
  5
197D
  8
SAPA_PROFIL
 10
-15.37986576017579
 20
34.361562009884942
 30
0.0
  0
VERTEX
  5
197E
  8
SAPA_PROFIL
 10
-14.323473903925439
 20
33.281498934851598
 30
0.0
 42
-0.5450207774088348
  0
VERTEX
  5
197F
  8
SAPA_PROFIL
 10
-14.435337084914289
 20
32.789822342634373
 30
0.0
  0
VERTEX
  5
1980
  8
SAPA_PROFIL
 10
-14.764229502189551
 20
32.6701152924703
 30
0.0
  0
VERTEX
  5
1981
  8
SAPA_PROFIL
 10
-14.678724466358171
 20
32.43519213727383
 30
0.0
 42
0.4142135623730951
  0
VERTEX
  5
1982
  8
SAPA_PROFIL
 10
-13.397011702246569
 20
31.837519659813569
 30
0.0
  0
VERTEX
  5
1983
  8
SAPA_PROFIL
 10
-10.20205679157357
 20
33.000388147121171
 30
0.0
 42
0.4142135623730951
  0
VERTEX
  5
1984
  8
SAPA_PROFIL
 10
-9.6043843141133038
 20
34.282100911232781
 30
0.0
  0
VERTEX
  5
1985
  8
SAPA_PROFIL
 10
-9.9977074789378548
 20
35.362747425136561
 30
0.0
  0
VERTEX
  5
1986
  8
SAPA_PROFIL
 10
-10.326599896213001
 20
35.24304037497258
 30
0.0
 42
-0.5450207774091157
  0
VERTEX
  5
1987
  8
SAPA_PROFIL
 10
-10.728335685848601
 20
35.547782229533126
 30
0.0
  0
VERTEX
  5
1988
  8
SAPA_PROFIL
 10
-10.61334373692409
 20
37.054194142551196
 30
0.0
  0
VERTEX
  5
1989
  8
SAPA_PROFIL
 10
-10.94223615419912
 20
36.934487092387222
 30
0.0
 42
-0.5450207774091194
  0
VERTEX
  5
198A
  8
SAPA_PROFIL
 10
-11.343971943834839
 20
37.239228946947733
 30
0.0
  0
VERTEX
  5
198B
  8
SAPA_PROFIL
 10
-11.228979994910221
 20
38.745640859965832
 30
0.0
  0
VERTEX
  5
198C
  8
SAPA_PROFIL
 10
-11.557872412185359
 20
38.62593380980185
 30
0.0
 42
-0.5450207774093996
  0
VERTEX
  5
198D
  8
SAPA_PROFIL
 10
-11.95960820182108
 20
38.930675664362482
 30
0.0
  0
VERTEX
  5
198E
  8
SAPA_PROFIL
 10
-11.84461625289646
 20
40.437087577380467
 30
0.0
  0
VERTEX
  5
198F
  8
SAPA_PROFIL
 10
-12.1735086701716
 20
40.317380527216493
 30
0.0
 42
-0.5450207774091379
  0
VERTEX
  5
1990
  8
SAPA_PROFIL
 10
-12.575244459807211
 20
40.622122381777061
 30
0.0
  0
VERTEX
  5
1991
  8
SAPA_PROFIL
 10
-12.46025251088269
 20
42.128534294795102
 30
0.0
  0
VERTEX
  5
1992
  8
SAPA_PROFIL
 10
-12.78914492815772
 20
42.008827244631121
 30
0.0
 42
-0.5450207774090506
  0
VERTEX
  5
1993
  8
SAPA_PROFIL
 10
-13.19088071779345
 20
42.313569099191632
 30
0.0
  0
VERTEX
  5
1994
  8
SAPA_PROFIL
 10
-13.07588876886882
 20
43.819981012209738
 30
0.0
  0
VERTEX
  5
1995
  8
SAPA_PROFIL
 10
-13.404781186143961
 20
43.700273962045763
 30
0.0
 42
-0.5450207774091257
  0
VERTEX
  5
1996
  8
SAPA_PROFIL
 10
-13.806516975779569
 20
44.005015816606303
 30
0.0
  0
VERTEX
  5
1997
  8
SAPA_PROFIL
 10
-13.691525026855061
 20
45.511427729624373
 30
0.0
  0
VERTEX
  5
1998
  8
SAPA_PROFIL
 10
-14.020417444130199
 20
45.391720679460391
 30
0.0
 42
-0.545020777409241
  0
VERTEX
  5
1999
  8
SAPA_PROFIL
 10
-14.42215323376581
 20
45.696462534020988
 30
0.0
  0
VERTEX
  5
199A
  8
SAPA_PROFIL
 10
-14.3071612848413
 20
47.202874447039008
 30
0.0
  0
VERTEX
  5
199B
  8
SAPA_PROFIL
 10
-14.63605370211633
 20
47.083167396875027
 30
0.0
 42
-0.54502077740936
  0
VERTEX
  5
199C
  8
SAPA_PROFIL
 10
-15.037789491752051
 20
47.387909251435659
 30
0.0
  0
VERTEX
  5
199D
  8
SAPA_PROFIL
 10
-14.92279754282742
 20
48.894321164453643
 30
0.0
  0
VERTEX
  5
199E
  8
SAPA_PROFIL
 10
-15.251689960102571
 20
48.774614114289662
 30
0.0
 42
-0.6681786379193133
  0
VERTEX
  5
199F
  8
SAPA_PROFIL
 10
-15.62618833921124
 20
49.183307379047662
 30
0.0
  0
VERTEX
  5
19A0
  8
SAPA_PROFIL
 10
-15.06565046865432
 20
50.38538472166492
 30
0.0
  0
VERTEX
  5
19A1
  8
SAPA_PROFIL
 10
-13.53934150907787
 20
50.940915751244532
 30
0.0
 42
-0.4142135623730811
  0
VERTEX
  5
19A2
  8
SAPA_PROFIL
 10
-13.1548276798444
 20
50.761614008006468
 30
0.0
  0
VERTEX
  5
19A3
  8
SAPA_PROFIL
 10
-6.7590509996542769
 20
33.189361999310009
 30
0.0
 42
-0.4142135623730951
  0
VERTEX
  5
19A4
  8
SAPA_PROFIL
 10
-7.356723477114655
 20
31.907649235198431
 30
0.0
  0
VERTEX
  5
19A5
  8
SAPA_PROFIL
 10
-9.2361087186864097
 20
31.223608948547099
 30
0.0
 42
0.4142135623731013
  0
VERTEX
  5
19A6
  8
SAPA_PROFIL
 10
-9.8337811961475836
 20
29.94189618443518
 30
0.0
  0
VERTEX
  5
19A7
  8
SAPA_PROFIL
 10
-8.6367106945077694
 20
26.652972011684501
 30
0.0
 42
0.4142135623730951
  0
VERTEX
  5
19A8
  8
SAPA_PROFIL
 10
-7.3549979303961663
 20
26.055299534224261
 30
0.0
  0
SEQEND
  5
19A9
  8
SAPA_PROFIL
  0
POLYLINE
  5
1212
  8
SAPA_PROFIL
 66
     1
 10
0.0
 20
0.0
 30
0.0
 70
   129
  0
VERTEX
  5
19AA
  8
SAPA_PROFIL
 10
-15.1313153095565
 20
-26.259314944126992
 30
0.0
 42
0.4142135623730888
  0
VERTEX
  5
19AB
  8
SAPA_PROFIL
 10
-13.849602545445009
 20
-26.85698742158722
 30
0.0
  0
VERTEX
  5
19AC
  8
SAPA_PROFIL
 10
27.87274981744838
 20
-11.67129305792788
 30
0.0
 42
0.4142135623730951
  0
VERTEX
  5
19AD
  8
SAPA_PROFIL
 10
28.470422294908651
 20
-10.38958029381631
 30
0.0
  0
VERTEX
  5
19AE
  8
SAPA_PROFIL
 10
25.221230933314821
 20
-1.4625003963501371
 30
0.0
 42
0.4142135623730992
  0
VERTEX
  5
19AF
  8
SAPA_PROFIL
 10
23.939518169203101
 20
-0.8648279188899294
 30
0.0
  0
VERTEX
  5
19B0
  8
SAPA_PROFIL
 10
19.804870637745118
 20
-2.3697165495228631
 30
0.0
 42
-0.4142135623730951
  0
VERTEX
  5
19B1
  8
SAPA_PROFIL
 10
19.164014255689491
 20
-2.0708803107927589
 30
0.0
  0
VERTEX
  5
19B2
  8
SAPA_PROFIL
 10
18.445771954705489
 20
-0.0975258071423326
 30
0.0
 42
-0.4142135623730812
  0
VERTEX
  5
19B3
  8
SAPA_PROFIL
 10
18.625073697943659
 20
0.2869880220911369
 30
0.0
  0
VERTEX
  5
19B4
  8
SAPA_PROFIL
 10
19.094920008336651
 20
0.4579980937539716
 30
0.0
 42
-0.4142135623730258
  0
VERTEX
  5
19B5
  8
SAPA_PROFIL
 10
19.47943383757001
 20
0.278696350515915
 30
0.0
  0
VERTEX
  5
19B6
  8
SAPA_PROFIL
 10
19.59456702658122
 20
-0.0376294865210838
 30
0.0
 42
0.5643553431125478
  0
VERTEX
  5
19B7
  8
SAPA_PROFIL
 10
23.021248323090159
 20
3.1913262831086371
 30
0.0
  0
VERTEX
  5
19B8
  8
SAPA_PROFIL
 10
22.54138141735848
 20
3.4150918961465351
 30
0.0
  0
VERTEX
  5
19B9
  8
SAPA_PROFIL
 10
22.765147030392999
 20
3.8949588018819412
 30
0.0
 42
0.5643553431119912
  0
VERTEX
  5
19BA
  8
SAPA_PROFIL
 10
18.064624103921911
 20
4.1658541465387913
 30
0.0
  0
VERTEX
  5
19BB
  8
SAPA_PROFIL
 10
18.17975729293255
 20
3.849528309502332
 30
0.0
 42
-0.4142135623730531
  0
VERTEX
  5
19BC
  8
SAPA_PROFIL
 10
18.00045554969449
 20
3.4650144802688909
 30
0.0
  0
VERTEX
  5
19BD
  8
SAPA_PROFIL
 10
17.530609239301491
 20
3.2940044086060558
 30
0.0
 42
-0.4142135623731091
  0
VERTEX
  5
19BE
  8
SAPA_PROFIL
 10
17.146095410068028
 20
3.4733061518441128
 30
0.0
  0
VERTEX
  5
19BF
  8
SAPA_PROFIL
 10
16.42785310908414
 20
5.4466606554945107
 30
0.0
 42
-0.4142135623730951
  0
VERTEX
  5
19C0
  8
SAPA_PROFIL
 10
16.726689347814158
 20
6.0875170375503131
 30
0.0
  0
VERTEX
  5
19C1
  8
SAPA_PROFIL
 10
20.86133687927213
 20
7.5924056681832459
 30
0.0
 42
0.4142135623730951
  0
VERTEX
  5
19C2
  8
SAPA_PROFIL
 10
21.459009356732391
 20
8.8741184322948214
 30
0.0
  0
VERTEX
  5
19C3
  8
SAPA_PROFIL
 10
14.96306528006539
 20
26.72157810098021
 30
0.0
 42
0.3394542588633977
  0
VERTEX
  5
19C4
  8
SAPA_PROFIL
 10
13.93621691653232
 20
27.375752655746439
 30
0.0
  0
VERTEX
  5
19C5
  8
SAPA_PROFIL
 10
13.384166978093051
 20
27.327454544432999
 30
0.0
 42
-0.4002077966304456
  0
VERTEX
  5
19C6
  8
SAPA_PROFIL
 10
10.1501254357521
 20
29.911314106262449
 30
0.0
 42
0.478297483036658
  0
VERTEX
  5
19C7
  8
SAPA_PROFIL
 10
9.7502619613445631
 20
30.15274943925364
 30
0.0
  0
VERTEX
  5
19C8
  8
SAPA_PROFIL
 10
-26.850947731977161
 20
16.830998572748889
 30
0.0
 42
0.4782974830366494
  0
VERTEX
  5
19C9
  8
SAPA_PROFIL
 10
-27.00206928396597
 20
16.389021090623071
 30
0.0
 42
-0.400207796630451
  0
VERTEX
  5
19CA
  8
SAPA_PROFIL
 10
-27.81861592477787
 20
12.33086799885557
 30
0.0
  0
VERTEX
  5
19CB
  8
SAPA_PROFIL
 10
-28.272556139967151
 20
12.01301563828333
 30
0.0
 42
0.3394542588633866
  0
VERTEX
  5
19CC
  8
SAPA_PROFIL
 10
-28.638672324401679
 20
10.851843450668881
 30
0.0
  0
VERTEX
  5
19CD
  8
SAPA_PROFIL
 10
-22.142728247732752
 20
-6.995616218015825
 30
0.0
 42
0.4142135623730992
  0
VERTEX
  5
19CE
  8
SAPA_PROFIL
 10
-20.861015483621149
 20
-7.5932886954760903
 30
0.0
  0
VERTEX
  5
19CF
  8
SAPA_PROFIL
 10
-16.726367952163169
 20
-6.0884000648431558
 30
0.0
 42
-0.4142135623730951
  0
VERTEX
  5
19D0
  8
SAPA_PROFIL
 10
-16.085511570107428
 20
-6.387236303573288
 30
0.0
  0
VERTEX
  5
19D1
  8
SAPA_PROFIL
 10
-15.36726926912354
 20
-8.3605908072236872
 30
0.0
 42
-0.4142135623730951
  0
VERTEX
  5
19D2
  8
SAPA_PROFIL
 10
-15.546571012361481
 20
-8.7451046364571283
 30
0.0
  0
VERTEX
  5
19D3
  8
SAPA_PROFIL
 10
-16.016417322754481
 20
-8.9161147081199612
 30
0.0
 42
-0.4142135623730951
  0
VERTEX
  5
19D4
  8
SAPA_PROFIL
 10
-16.400931151988061
 20
-8.7368129648819348
 30
0.0
  0
VERTEX
  5
19D5
  8
SAPA_PROFIL
 10
-16.516064340998689
 20
-8.4204871278450213
 30
0.0
 42
0.5643553431119912
  0
VERTEX
  5
19D6
  8
SAPA_PROFIL
 10
-19.942745637508661
 20
-11.649442897470561
 30
0.0
  0
VERTEX
  5
19D7
  8
SAPA_PROFIL
 10
-19.46287873177641
 20
-11.87320851051258
 30
0.0
  0
VERTEX
  5
19D8
  8
SAPA_PROFIL
 10
-19.686644344813431
 20
-12.35307541624344
 30
0.0
 42
0.5643553431125639
  0
VERTEX
  5
19D9
  8
SAPA_PROFIL
 10
-14.98612141833951
 20
-12.623970760905751
 30
0.0
  0
VERTEX
  5
19DA
  8
SAPA_PROFIL
 10
-15.10125460735048
 20
-12.30764492386832
 30
0.0
 42
-0.4142135623730396
  0
VERTEX
  5
19DB
  8
SAPA_PROFIL
 10
-14.92195286411231
 20
-11.923131094634879
 30
0.0
  0
VERTEX
  5
19DC
  8
SAPA_PROFIL
 10
-14.45210655371932
 20
-11.75212102297205
 30
0.0
 42
-0.4142135623731089
  0
VERTEX
  5
19DD
  8
SAPA_PROFIL
 10
-14.06759272448596
 20
-11.93142276621013
 30
0.0
  0
VERTEX
  5
19DE
  8
SAPA_PROFIL
 10
-13.34935042350207
 20
-13.90477726986056
 30
0.0
 42
-0.4142135623730951
  0
VERTEX
  5
19DF
  8
SAPA_PROFIL
 10
-13.648186662232201
 20
-14.545633651916329
 30
0.0
  0
VERTEX
  5
19E0
  8
SAPA_PROFIL
 10
-17.782834193690171
 20
-16.05052228254926
 30
0.0
 42
0.4142135623730951
  0
VERTEX
  5
19E1
  8
SAPA_PROFIL
 10
-18.380506671150439
 20
-17.332235046660841
 30
0.0
  0
SEQEND
  5
19E2
  8
SAPA_PROFIL
  0
INSERT
  5
1213
  8
SAPA_PROFIL
  2
BYGG-014344$0$ASDP2
 10
-232.04049709793389
 20
-400.00163183575341
 30
0.0
 50
19.999999999999989
  0
POLYLINE
  5
1214
  8
SAPA_PROFIL
 66
     1
 10
0.0
 20
0.0
 30
0.0
 70
     1
  0
VERTEX
  5
19E3
  8
SAPA_PROFIL
 10
-6.1268520700648699
 20
150.16026523529391
 30
0.0
  0
VERTEX
  5
19E4
  8
SAPA_PROFIL
 10
-3.1984536514809458
 20
151.22611509373061
 30
0.0
 42
-0.3394542588633416
  0
VERTEX
  5
19E5
  8
SAPA_PROFIL
 10
-2.617867557673633
 20
151.0430570015132
 30
0.0
  0
VERTEX
  5
19E6
  8
SAPA_PROFIL
 10
-1.4966185099988529
 20
149.44174740901511
 30
0.0
 42
0.3394542588633758
  0
VERTEX
  5
19E7
  8
SAPA_PROFIL
 10
-0.3354463223841151
 20
149.07563122458009
 30
0.0
  0
VERTEX
  5
19E8
  8
SAPA_PROFIL
 10
0.2084716673530522
 20
149.27360118272631
 30
0.0
 42
0.4142135623730951
  0
VERTEX
  5
19E9
  8
SAPA_PROFIL
 10
0.5073079060831276
 20
149.9144575647822
 30
0.0
  0
VERTEX
  5
19EA
  8
SAPA_PROFIL
 10
-0.1767323805682111
 20
151.79384280635401
 30
0.0
 42
-0.4142135623730951
  0
VERTEX
  5
19EB
  8
SAPA_PROFIL
 10
0.1221038581619211
 20
152.4346991884097
 30
0.0
  0
VERTEX
  5
19EC
  8
SAPA_PROFIL
 10
9.0491837556280927
 20
155.68389055000361
 30
0.0
 42
-0.4142135623730951
  0
VERTEX
  5
19ED
  8
SAPA_PROFIL
 10
9.6900401376838374
 20
155.38505431127351
 30
0.0
  0
VERTEX
  5
19EE
  8
SAPA_PROFIL
 10
10.374080424335171
 20
153.5056690697017
 30
0.0
 42
0.4142135623730951
  0
VERTEX
  5
19EF
  8
SAPA_PROFIL
 10
11.014936806390979
 20
153.20683283097151
 30
0.0
  0
VERTEX
  5
19F0
  8
SAPA_PROFIL
 10
11.5588547961282
 20
153.4048027891175
 30
0.0
 42
0.3394542588633637
  0
VERTEX
  5
19F1
  8
SAPA_PROFIL
 10
12.213029350894679
 20
154.4316511526514
 30
0.0
  0
VERTEX
  5
19F2
  8
SAPA_PROFIL
 10
12.042729956372771
 20
156.37818213915821
 30
0.0
 42
-0.3394563963282379
  0
VERTEX
  5
19F3
  8
SAPA_PROFIL
 10
12.369820835816061
 20
156.89160763195221
 30
0.0
  0
VERTEX
  5
19F4
  8
SAPA_PROFIL
 10
19.993691733000698
 20
159.66640351767569
 30
0.0
 42
-0.414224747454694
  0
VERTEX
  5
19F5
  8
SAPA_PROFIL
 10
20.378208342269179
 20
159.48708856833869
 30
0.0
  0
VERTEX
  5
19F6
  8
SAPA_PROFIL
 10
22.15647040982611
 20
154.6006765875143
 30
0.0
 42
0.4142135623731951
  0
VERTEX
  5
19F7
  8
SAPA_PROFIL
 10
22.797313482565549
 20
154.30181180852441
 30
0.0
  0
VERTEX
  5
19F8
  8
SAPA_PROFIL
 10
24.496064990730329
 20
154.92002111815211
 30
0.0
  0
VERTEX
  5
19F9
  8
SAPA_PROFIL
 10
24.882923370430969
 20
155.54902555361389
 30
0.0
 42
0.7105995015653251
  0
VERTEX
  5
19FA
  8
SAPA_PROFIL
 10
24.52479227137928
 20
155.9881019298322
 30
0.0
  0
VERTEX
  5
19FB
  8
SAPA_PROFIL
 10
23.866996775168239
 20
155.74871712420639
 30
0.0
  0
VERTEX
  5
19FC
  8
SAPA_PROFIL
 10
22.941555573280681
 20
158.29169830055241
 30
0.0
 42
-0.4142135623730951
  0
VERTEX
  5
19FD
  8
SAPA_PROFIL
 10
23.120874440674761
 20
158.67620414419719
 30
0.0
  0
VERTEX
  5
19FE
  8
SAPA_PROFIL
 10
27.25558898828578
 20
160.18090863670309
 30
0.0
 42
-0.4142135623729286
  0
VERTEX
  5
19FF
  8
SAPA_PROFIL
 10
27.64009483193027
 20
160.00158976930911
 30
0.0
  0
VERTEX
  5
1A00
  8
SAPA_PROFIL
 10
28.56553603381769
 20
157.45860859296349
 30
0.0
  0
VERTEX
  5
1A01
  8
SAPA_PROFIL
 10
27.907740537608081
 20
157.21922378733771
 30
0.0
 42
0.7105995015652633
  0
VERTEX
  5
1A02
  8
SAPA_PROFIL
 10
27.91557859056363
 20
156.65266883573361
 30
0.0
  0
VERTEX
  5
1A03
  8
SAPA_PROFIL
 10
28.616224788240999
 20
156.41942884890861
 30
0.0
  0
VERTEX
  5
1A04
  8
SAPA_PROFIL
 10
30.878801007442551
 20
157.24282513478661
 30
0.0
 42
0.4142135623730948
  0
VERTEX
  5
1A05
  8
SAPA_PROFIL
 10
31.058119874836709
 20
157.6273309784311
 30
0.0
  0
VERTEX
  5
1A06
  8
SAPA_PROFIL
 10
30.859758962803632
 20
158.17239863307549
 30
0.0
 42
-0.4142135623730951
  0
VERTEX
  5
1A07
  8
SAPA_PROFIL
 10
31.039077830196529
 20
158.5569044767195
 30
0.0
  0
VERTEX
  5
1A08
  8
SAPA_PROFIL
 10
32.26391936613922
 20
159.00264856389131
 30
0.0
 42
0.4142135689162279
  0
VERTEX
  5
1A09
  8
SAPA_PROFIL
 10
32.443238231239889
 20
159.38715441383329
 30
0.0
  0
VERTEX
  5
1A0A
  8
SAPA_PROFIL
 10
31.285304260872611
 20
162.5689925362563
 30
0.0
 42
0.287972826846284
  0
VERTEX
  5
1A0B
  8
SAPA_PROFIL
 10
30.865480976387431
 20
162.89549401782901
 30
0.0
  0
VERTEX
  5
1A0C
  8
SAPA_PROFIL
 10
20.24675571662587
 20
163.96337661896931
 30
0.0
 42
0.1127984919225282
  0
VERTEX
  5
1A0D
  8
SAPA_PROFIL
 10
20.02571500720094
 20
163.93573229097279
 30
0.0
  0
VERTEX
  5
1A0E
  8
SAPA_PROFIL
 10
4.1254478912123602
 20
158.1485083438709
 30
0.0
  0
VERTEX
  5
1A0F
  8
SAPA_PROFIL
 10
3.408344586673365
 20
157.29389790442491
 30
0.0
  0
VERTEX
  5
1A10
  8
SAPA_PROFIL
 10
2.3096785835030849
 20
157.48762236357069
 30
0.0
  0
VERTEX
  5
1A11
  8
SAPA_PROFIL
 10
-35.967644957046801
 20
143.55581594743339
 30
0.0
 42
0.4142135623730951
  0
VERTEX
  5
1A12
  8
SAPA_PROFIL
 10
-36.14694670028463
 20
143.17130211820009
 30
0.0
  0
VERTEX
  5
1A13
  8
SAPA_PROFIL
 10
-25.373320862722071
 20
113.5710084038441
 30
0.0
 42
0.4142135623730951
  0
VERTEX
  5
1A14
  8
SAPA_PROFIL
 10
-25.11697830989991
 20
113.4514739083519
 30
0.0
  0
VERTEX
  5
1A15
  8
SAPA_PROFIL
 10
-23.707438528776979
 20
113.9645044326947
 30
0.0
 42
0.4142135623730948
  0
VERTEX
  5
1A16
  8
SAPA_PROFIL
 10
-23.52813678553872
 20
114.34901826192829
 30
0.0
  0
VERTEX
  5
1A17
  8
SAPA_PROFIL
 10
-33.344106221789858
 20
141.31817263808361
 30
0.0
 42
-0.4142135623730951
  0
VERTEX
  5
1A18
  8
SAPA_PROFIL
 10
-33.045269983059733
 20
141.9590290201395
 30
0.0
  0
VERTEX
  5
1A19
  8
SAPA_PROFIL
 10
-30.696013373406071
 20
142.8140884987065
 30
0.0
 42
-0.4142135623730951
  0
VERTEX
  5
1A1A
  8
SAPA_PROFIL
 10
-30.05515699135028
 20
142.51525225997631
 30
0.0
  0
VERTEX
  5
1A1B
  8
SAPA_PROFIL
 10
-29.884146919687471
 20
142.04540594958351
 30
0.0
 42
0.4142135623730951
  0
VERTEX
  5
1A1C
  8
SAPA_PROFIL
 10
-29.243290537631701
 20
141.74656971085341
 30
0.0
  0
VERTEX
  5
1A1D
  8
SAPA_PROFIL
 10
-26.424212675273981
 20
142.77263014083039
 30
0.0
 42
0.4142135623730951
  0
VERTEX
  5
1A1E
  8
SAPA_PROFIL
 10
-26.125376436543849
 20
143.4134865228861
 30
0.0
  0
VERTEX
  5
1A1F
  8
SAPA_PROFIL
 10
-26.29638650820668
 20
143.8833328332791
 30
0.0
 42
-0.4142135623730951
  0
VERTEX
  5
1A20
  8
SAPA_PROFIL
 10
-25.997550269476552
 20
144.5241892153349
 30
0.0
  0
VERTEX
  5
1A21
  8
SAPA_PROFIL
 10
-7.579574905839336
 20
151.22778402314711
 30
0.0
 42
-0.4142135623730951
  0
VERTEX
  5
1A22
  8
SAPA_PROFIL
 10
-6.9387185237835354
 20
150.92894778441701
 30
0.0
  0
VERTEX
  5
1A23
  8
SAPA_PROFIL
 10
-6.7677084521206723
 20
150.45910147402401
 30
0.0
 42
0.4142135623730951
  0
SEQEND
  5
1A24
  8
SAPA_PROFIL
  0
INSERT
  5
1215
  8
SAPA_PROFIL
  2
BYGG-025059
 10
14.542334281212369
 20
157.6833137704929
 30
0.0
 50
200.0
1001
AEC_XDATA_BOUND_SPACE
1070
   100
1070
     1
  0
INSERT
  5
1216
  8
SAPA_PROFIL
  2
BYGG-024973
 10
10.65382441638851
 20
108.37996463061531
 30
0.0
 50
20.000000000000011
1001
AEC_XDATA_BOUND_SPACE
1070
   100
1070
     1
  0
INSERT
  5
1217
  8
SAPA_PROFIL
  2
BYGG-024973
 10
-29.120434757523299
 20
115.10126112258079
 30
0.0
 43
-1.0
 50
339.99999999999989
210
0.0
220
0.0
230
-1.0
1001
AEC_XDATA_BOUND_SPACE
1070
   100
1070
     1
  0
INSERT
  5
1218
  8
SAPA_PROFIL
  2
BYGG-024775
 10
4.5157487389817836
 20
126.918799392151
 30
0.0
 50
20.000000000000011
1001
AEC_XDATA_BOUND_SPACE
1070
   100
1070
     1
  0
POLYLINE
  5
1219
  8
SAPA_PROFIL
 66
     1
 10
0.0
 20
0.0
 30
0.0
 70
     1
  0
VERTEX
  5
1A25
  8
SAPA_PROFIL
 10
-10.933045868225889
 20
67.532015221351628
 30
0.0
 42
0.7625858545243258
  0
VERTEX
  5
1A26
  8
SAPA_PROFIL
 10
-11.180321043820189
 20
67.24558933352246
 30
0.0
  0
VERTEX
  5
1A27
  8
SAPA_PROFIL
 10
-11.060292834591399
 20
67.08561049433095
 30
0.0
  0
VERTEX
  5
1A28
  8
SAPA_PROFIL
 10
-9.396139097225177
 20
65.684439980732662
 30
0.0
  0
VERTEX
  5
1A29
  8
SAPA_PROFIL
 10
-9.0973979343283151
 20
65.804412042962923
 30
0.0
 42
-0.5773502691897443
  0
VERTEX
  5
1A2A
  8
SAPA_PROFIL
 10
-8.8248702748282941
 20
65.590569402670212
 30
0.0
  0
VERTEX
  5
1A2B
  8
SAPA_PROFIL
 10
-8.8704623131553255
 20
65.271022699766831
 30
0.0
 42
-0.2216946626430194
  0
VERTEX
  5
1A2C
  8
SAPA_PROFIL
 10
-9.2399282796221236
 20
64.704695268660004
 30
0.0
  0
VERTEX
  5
1A2D
  8
SAPA_PROFIL
 10
-10.813345153205139
 20
63.726091371597889
 30
0.0
 42
-0.4769755326981641
  0
VERTEX
  5
1A2E
  8
SAPA_PROFIL
 10
-11.26596493041443
 20
63.883001982761357
 30
0.0
  0
VERTEX
  5
1A2F
  8
SAPA_PROFIL
 10
-11.779977211778309
 20
65.295483572229102
 30
0.0
  0
VERTEX
  5
1A30
  8
SAPA_PROFIL
 10
-11.73998250198032
 20
65.325490624536144
 30
0.0
 42
0.4142135623730955
  0
VERTEX
  5
1A31
  8
SAPA_PROFIL
 10
-11.680056557036361
 20
65.745501197168281
 30
0.0
  0
VERTEX
  5
1A32
  8
SAPA_PROFIL
 10
-12.611734179920351
 20
66.812302689927265
 30
0.0
  0
VERTEX
  5
1A33
  8
SAPA_PROFIL
 10
-12.61247408505953
 20
66.814335562589719
 30
0.0
  0
VERTEX
  5
1A34
  8
SAPA_PROFIL
 10
-13.12549096126244
 20
68.223837845756336
 30
0.0
 42
-0.4142140000000128
  0
VERTEX
  5
1A35
  8
SAPA_PROFIL
 10
-12.82665472253232
 20
68.864694227812151
 30
0.0
  0
VERTEX
  5
1A36
  8
SAPA_PROFIL
 10
4.2757115086811623
 20
75.089446471493289
 30
0.0
 42
0.4142040000000322
  0
VERTEX
  5
1A37
  8
SAPA_PROFIL
 10
4.4550038549929951
 20
75.473956880525321
 30
0.0
  0
VERTEX
  5
1A38
  8
SAPA_PROFIL
 10
-2.0685433422600208
 20
93.397255499724537
 30
0.0
 42
-0.1989169999999825
  0
VERTEX
  5
1A39
  8
SAPA_PROFIL
 10
-2.0585263971034631
 20
93.626651785541725
 30
0.0
  0
VERTEX
  5
1A3A
  8
SAPA_PROFIL
 10
-1.812203448358253
 20
94.154869629605599
 30
0.0
  0
VERTEX
  5
1A3B
  8
SAPA_PROFIL
 10
-2.3404382932570789
 20
94.40118958308625
 30
0.0
 42
-0.1989120000000538
  0
VERTEX
  5
1A3C
  8
SAPA_PROFIL
 10
-2.4955606215042669
 20
94.570475832165044
 30
0.0
  0
VERTEX
  5
1A3D
  8
SAPA_PROFIL
 10
-3.5092149548224039
 20
97.355468224089037
 30
0.0
 42
0.198911999999999
  0
VERTEX
  5
1A3E
  8
SAPA_PROFIL
 10
-4.0262888410687054
 20
97.919755208563359
 30
0.0
  0
VERTEX
  5
1A3F
  8
SAPA_PROFIL
 10
-13.52915336304263
 20
102.3510137095692
 30
0.0
 42
-0.1989119999999948
  0
VERTEX
  5
1A40
  8
SAPA_PROFIL
 10
-14.046227591309069
 20
102.91530163373621
 30
0.0
  0
VERTEX
  5
1A41
  8
SAPA_PROFIL
 10
-16.257346409971309
 20
108.99030065974191
 30
0.0
 42
-0.198912367379658
  0
VERTEX
  5
1A42
  8
SAPA_PROFIL
 10
-16.247330959846529
 20
109.21969218126181
 30
0.0
  0
VERTEX
  5
1A43
  8
SAPA_PROFIL
 10
-16.00101098583227
 20
109.7479270701951
 30
0.0
  0
VERTEX
  5
1A44
  8
SAPA_PROFIL
 10
-16.529245663004151
 20
109.9942469454634
 30
0.0
 42
-0.1989195190252918
  0
VERTEX
  5
1A45
  8
SAPA_PROFIL
 10
-16.68437079410063
 20
110.16354099608969
 30
0.0
  0
VERTEX
  5
1A46
  8
SAPA_PROFIL
 10
-19.385315984008681
 20
117.5850307263311
 30
0.0
 42
-0.3419982526834719
  0
VERTEX
  5
1A47
  8
SAPA_PROFIL
 10
-19.011758058902739
 20
118.7514145754721
 30
0.0
 42
-0.478873518089567
  0
VERTEX
  5
1A48
  8
SAPA_PROFIL
 10
-18.713262509489891
 20
118.66187888228519
 30
0.0
  0
VERTEX
  5
1A49
  8
SAPA_PROFIL
 10
-18.505538526487861
 20
118.09108201061061
 30
0.0
  0
VERTEX
  5
1A4A
  8
SAPA_PROFIL
 10
-17.095976679959399
 20
118.6040492661935
 30
0.0
 42
0.414214000000017
  0
VERTEX
  5
1A4B
  8
SAPA_PROFIL
 10
-16.498246525424712
 20
119.8857351350436
 30
0.0
  0
VERTEX
  5
1A4C
  8
SAPA_PROFIL
 10
-17.284797006426508
 20
122.0470630489058
 30
0.0
 42
0.4142139999999795
  0
VERTEX
  5
1A4D
  8
SAPA_PROFIL
 10
-18.566482875276591
 20
122.6447932034403
 30
0.0
  0
VERTEX
  5
1A4E
  8
SAPA_PROFIL
 10
-19.976044721805071
 20
122.13182594785749
 30
0.0
  0
VERTEX
  5
1A4F
  8
SAPA_PROFIL
 10
-19.770854929709689
 20
121.56799268347
 30
0.0
 42
-0.4903144048618169
  0
VERTEX
  5
1A50
  8
SAPA_PROFIL
 10
-19.939558211627471
 20
121.30052454484979
 30
0.0
 42
-0.3419982526834651
  0
VERTEX
  5
1A51
  8
SAPA_PROFIL
 10
-20.97545727070424
 20
121.9539080052696
 30
0.0
  0
VERTEX
  5
1A52
  8
SAPA_PROFIL
 10
-21.08674178990243
 20
122.2597009858432
 30
0.0
 42
-0.4142010000000088
  0
VERTEX
  5
1A53
  8
SAPA_PROFIL
 10
-20.489377517817431
 20
123.5412547485502
 30
0.0
  0
VERTEX
  5
1A54
  8
SAPA_PROFIL
 10
-12.2199988222582
 20
126.55106244960881
 30
0.0
 42
-0.4142140000000211
  0
VERTEX
  5
1A55
  8
SAPA_PROFIL
 10
-11.835484993024719
 20
126.37176070637079
 30
0.0
  0
VERTEX
  5
1A56
  8
SAPA_PROFIL
 10
-10.33059636239178
 20
122.23711317491281
 30
0.0
 42
-0.4142140000000074
  0
VERTEX
  5
1A57
  8
SAPA_PROFIL
 10
-10.50989810562986
 20
121.85259934567929
 30
0.0
  0
VERTEX
  5
1A58
  8
SAPA_PROFIL
 10
-11.355621464337149
 20
121.5447812166862
 30
0.0
 42
-0.4142140000001183
  0
VERTEX
  5
1A59
  8
SAPA_PROFIL
 10
-11.74013529357063
 20
121.7240829599243
 30
0.0
  0
VERTEX
  5
1A5A
  8
SAPA_PROFIL
 10
-12.560983637552241
 20
123.97934524981051
 30
0.0
 42
0.4142140000001183
  0
VERTEX
  5
1A5B
  8
SAPA_PROFIL
 10
-12.945497466785721
 20
124.15864699304851
 30
0.0
  0
VERTEX
  5
1A5C
  8
SAPA_PROFIL
 10
-15.764575329143421
 20
123.1325865630715
 30
0.0
 42
0.4142140000000072
  0
VERTEX
  5
1A5D
  8
SAPA_PROFIL
 10
-15.94387707238141
 20
122.7480727338381
 30
0.0
  0
VERTEX
  5
1A5E
  8
SAPA_PROFIL
 10
-9.9927378651796381
 20
106.3974521420197
 30
0.0
 42
0.4142140000000351
  0
VERTEX
  5
1A5F
  8
SAPA_PROFIL
 10
-9.6082240359461881
 20
106.2181503987818
 30
0.0
  0
VERTEX
  5
1A60
  8
SAPA_PROFIL
 10
-6.7891461735884198
 20
107.2442108287586
 30
0.0
 42
0.4142140000000488
  0
VERTEX
  5
1A61
  8
SAPA_PROFIL
 10
-6.6098444303502504
 20
107.62872465799219
 30
0.0
  0
VERTEX
  5
1A62
  8
SAPA_PROFIL
 10
-7.4306927743319662
 20
109.8839869478783
 30
0.0
 42
-0.4142140000000906
  0
VERTEX
  5
1A63
  8
SAPA_PROFIL
 10
-7.2513910310938634
 20
110.2685007771118
 30
0.0
  0
VERTEX
  5
1A64
  8
SAPA_PROFIL
 10
-6.4056676723865813
 20
110.5763189061049
 30
0.0
 42
-0.4142139999999796
  0
VERTEX
  5
1A65
  8
SAPA_PROFIL
 10
-6.0211538431531153
 20
110.3970171628668
 30
0.0
  0
VERTEX
  5
1A66
  8
SAPA_PROFIL
 10
-4.5162652125201737
 20
106.2623696314088
 30
0.0
 42
-0.4142140000000351
  0
VERTEX
  5
1A67
  8
SAPA_PROFIL
 10
-4.6955669557582516
 20
105.8778558021753
 30
0.0
  0
VERTEX
  5
1A68
  8
SAPA_PROFIL
 10
-8.7834572617911952
 20
104.389985409834
 30
0.0
 42
0.6681790000000243
  0
VERTEX
  5
1A69
  8
SAPA_PROFIL
 10
-8.8237566852242661
 20
103.4669844248384
 30
0.0
  0
VERTEX
  5
1A6A
  8
SAPA_PROFIL
 10
-1.4445171821601219
 20
100.02598853319959
 30
0.0
 42
-0.1989119999999689
  0
VERTEX
  5
1A6B
  8
SAPA_PROFIL
 10
-1.185979769190652
 20
99.743845211972541
 30
0.0
  0
VERTEX
  5
1A6C
  8
SAPA_PROFIL
 10
1.801749505555875
 20
91.535126494162853
 30
0.0
 42
0.4142109999999376
  0
VERTEX
  5
1A6D
  8
SAPA_PROFIL
 10
2.186260515711524
 20
91.355823724864393
 30
0.0
  0
VERTEX
  5
1A6E
  8
SAPA_PROFIL
 10
9.7823149562095821
 20
94.120493331693865
 30
0.0
 42
0.4931339999999921
  0
VERTEX
  5
1A6F
  8
SAPA_PROFIL
 10
10.02089680668831
 20
94.877110743567329
 30
0.0
  0
VERTEX
  5
1A70
  8
SAPA_PROFIL
 10
7.770791684145351
 20
98.090898589388971
 30
0.0
 42
-0.4142140000000106
  0
VERTEX
  5
1A71
  8
SAPA_PROFIL
 10
7.893610711789008
 20
98.787257767872788
 30
0.0
  0
VERTEX
  5
1A72
  8
SAPA_PROFIL
 10
8.958540995781
 20
99.532859673075379
 30
0.0
  0
VERTEX
  5
1A73
  8
SAPA_PROFIL
 10
9.7055465712294602
 20
99.488319527612688
 30
0.0
 42
-0.7106000000000535
  0
VERTEX
  5
1A74
  8
SAPA_PROFIL
 10
9.8597520359215736
 20
98.943098022695551
 30
0.0
  0
VERTEX
  5
1A75
  8
SAPA_PROFIL
 10
9.5320808046010654
 20
98.713682406640544
 30
0.0
 42
0.414213999999965
  0
VERTEX
  5
1A76
  8
SAPA_PROFIL
 10
9.458389883426463
 20
98.295867292700876
 30
0.0
  0
VERTEX
  5
1A77
  8
SAPA_PROFIL
 10
10.8348863988343
 20
96.329840930838202
 30
0.0
 42
0.414213999999931
  0
VERTEX
  5
1A78
  8
SAPA_PROFIL
 10
11.252701512773941
 20
96.256150009663642
 30
0.0
  0
VERTEX
  5
1A79
  8
SAPA_PROFIL
 10
15.266671852590211
 20
99.066495278439035
 30
0.0
 42
0.4142139999998971
  0
VERTEX
  5
1A7A
  8
SAPA_PROFIL
 10
15.34036277376477
 20
99.484310392378688
 30
0.0
  0
VERTEX
  5
1A7B
  8
SAPA_PROFIL
 10
13.9638671980496
 20
101.45033709626151
 30
0.0
 42
0.4142139999999882
  0
VERTEX
  5
1A7C
  8
SAPA_PROFIL
 10
13.54605208410986
 20
101.52402801743619
 30
0.0
  0
VERTEX
  5
1A7D
  8
SAPA_PROFIL
 10
12.80879174972563
 20
101.00784232596109
 30
0.0
 42
-0.7105999999999463
  0
VERTEX
  5
1A7E
  8
SAPA_PROFIL
 10
12.349222854480301
 20
101.3392657868793
 30
0.0
  0
VERTEX
  5
1A7F
  8
SAPA_PROFIL
 10
12.562923172226061
 20
102.05643520845091
 30
0.0
  0
VERTEX
  5
1A80
  8
SAPA_PROFIL
 10
14.037442559281811
 20
103.08880718907361
 30
0.0
 42
-0.4142140000000444
  0
VERTEX
  5
1A81
  8
SAPA_PROFIL
 10
14.733801395745459
 20
102.9659891011226
 30
0.0
  0
VERTEX
  5
1A82
  8
SAPA_PROFIL
 10
17.402076159772761
 20
99.154935103831704
 30
0.0
 42
-0.4145924122163537
  0
VERTEX
  5
1A83
  8
SAPA_PROFIL
 10
17.279659298728021
 20
98.458042055784304
 30
0.0
  0
VERTEX
  5
1A84
  8
SAPA_PROFIL
 10
14.659322221311539
 20
96.623262852820503
 30
0.0
 42
0.3394542996516683
  0
VERTEX
  5
1A85
  8
SAPA_PROFIL
 10
14.549487330029571
 20
96.274911171362575
 30
0.0
  0
VERTEX
  5
1A86
  8
SAPA_PROFIL
 10
15.369017496015431
 20
94.023270545754556
 30
0.0
  0
VERTEX
  5
1A87
  8
SAPA_PROFIL
 10
15.34103781176743
 20
92.607182358103486
 30
0.0
 42
0.4142135623730946
  0
VERTEX
  5
1A88
  8
SAPA_PROFIL
 10
15.656921340915691
 20
92.323955247796164
 30
0.0
  0
VERTEX
  5
1A89
  8
SAPA_PROFIL
 10
15.70684722753678
 20
92.326676616033126
 30
0.0
  0
VERTEX
  5
1A8A
  8
SAPA_PROFIL
 10
16.221016640323281
 20
90.914252217726073
 30
0.0
 42
-0.4769755326981639
  0
VERTEX
  5
1A8B
  8
SAPA_PROFIL
 10
15.975149971830589
 20
90.503113331288716
 30
0.0
  0
VERTEX
  5
1A8C
  8
SAPA_PROFIL
 10
14.14080825929018
 20
90.241394537436818
 30
0.0
 42
-0.2216946626430198
  0
VERTEX
  5
1A8D
  8
SAPA_PROFIL
 10
13.49375265301564
 20
90.437738373576323
 30
0.0
  0
VERTEX
  5
1A8E
  8
SAPA_PROFIL
 10
13.25342646406226
 20
90.653219352315475
 30
0.0
 42
-0.5773502691897454
  0
VERTEX
  5
1A8F
  8
SAPA_PROFIL
 10
13.32473936361569
 20
90.992209721437064
 30
0.0
  0
VERTEX
  5
1A90
  8
SAPA_PROFIL
 10
13.63070492649387
 20
91.092332907849524
 30
0.0
  0
VERTEX
  5
1A91
  8
SAPA_PROFIL
 10
14.004865604299839
 20
93.23538919664621
 30
0.0
  0
VERTEX
  5
1A92
  8
SAPA_PROFIL
 10
13.99398013135273
 20
93.435092743130625
 30
0.0
 42
0.7625858545243291
  0
VERTEX
  5
1A93
  8
SAPA_PROFIL
 10
13.62044534537741
 20
93.495562283812504
 30
0.0
 42
-0.2134217652834358
  0
VERTEX
  5
1A94
  8
SAPA_PROFIL
 10
13.44452570190666
 20
93.325114992718724
 30
0.0
  0
VERTEX
  5
1A95
  8
SAPA_PROFIL
 10
9.8240911282394237
 20
92.007384572795615
 30
0.0
 42
0.4142140000000212
  0
VERTEX
  5
1A96
  8
SAPA_PROFIL
 10
9.6447893850014097
 20
91.622870743562146
 30
0.0
  0
VERTEX
  5
1A97
  8
SAPA_PROFIL
 10
9.7473954279990238
 20
91.340962957326326
 30
0.0
  0
VERTEX
  5
1A98
  8
SAPA_PROFIL
 10
11.16267811269732
 20
90.153399291667398
 30
0.0
 42
-0.5773500000000463
  0
VERTEX
  5
1A99
  8
SAPA_PROFIL
 10
11.10252469531177
 20
89.81225190650693
 30
0.0
  0
VERTEX
  5
1A9A
  8
SAPA_PROFIL
 10
9.8004480725533583
 20
89.338334773088988
 30
0.0
 42
-0.267948999999994
  0
VERTEX
  5
1A9B
  8
SAPA_PROFIL
 10
8.8156406989744198
 20
89.511983088858344
 30
0.0
  0
VERTEX
  5
1A9C
  8
SAPA_PROFIL
 10
8.1522306578342238
 20
90.068650653415844
 30
0.0
 42
0.2679470000000245
  0
VERTEX
  5
1A9D
  8
SAPA_PROFIL
 10
7.6598302599689481
 20
90.155476008370997
 30
0.0
  0
VERTEX
  5
1A9E
  8
SAPA_PROFIL
 10
5.2796696581814038
 20
89.289191808458213
 30
0.0
 42
0.4142160000000003
  0
VERTEX
  5
1A9F
  8
SAPA_PROFIL
 10
3.78546873098579
 20
86.084902715756272
 30
0.0
  0
VERTEX
  5
1AA0
  8
SAPA_PROFIL
 10
8.0607147082141637
 20
74.338760930706968
 30
0.0
 42
-0.4142140000000072
  0
VERTEX
  5
1AA1
  8
SAPA_PROFIL
 10
7.8814129649761071
 20
73.95424710147347
 30
0.0
  0
VERTEX
  5
1AA2
  8
SAPA_PROFIL
 10
-4.0796205476723548
 20
69.600786931808926
 30
0.0
 42
0.2679490000000027
  0
VERTEX
  5
1AA3
  8
SAPA_PROFIL
 10
-4.4010146326452277
 20
69.217764608290537
 30
0.0
  0
VERTEX
  5
1AA4
  8
SAPA_PROFIL
 10
-4.691756619854992
 20
67.568885409004793
 30
0.0
 42
-0.267948999999995
  0
VERTEX
  5
1AA5
  8
SAPA_PROFIL
 10
-5.3345438501082612
 20
66.802841103988214
 30
0.0
  0
VERTEX
  5
1AA6
  8
SAPA_PROFIL
 10
-6.6366204728666878
 20
66.328923970570287
 30
0.0
 42
-0.57735000000001
  0
VERTEX
  5
1AA7
  8
SAPA_PROFIL
 10
-6.9019859762476079
 20
66.551592157881359
 30
0.0
  0
VERTEX
  5
1AA8
  8
SAPA_PROFIL
 10
-6.5811677501914723
 20
68.371044878737337
 30
0.0
  0
VERTEX
  5
1AA9
  8
SAPA_PROFIL
 10
-6.6837737931891681
 20
68.652952664973085
 30
0.0
 42
0.4142139999999934
  0
VERTEX
  5
1AAA
  8
SAPA_PROFIL
 10
-7.068287622422651
 20
68.832254408211114
 30
0.0
  0
VERTEX
  5
1AAB
  8
SAPA_PROFIL
 10
-10.68872219608995
 20
67.514523988288033
 30
0.0
 42
-0.2134220000000247
  0
VERTEX
  5
1AAC
  8
SAPA_PROFIL
 10
-10.933046058278549
 20
67.532015152178005
 30
0.0
  0
SEQEND
  5
1AAD
  8
SAPA_PROFIL
  0
POLYLINE
  5
121A
  8
SAPA_PROFIL
 62
     4
 66
     1
 10
0.0
 20
0.0
 30
0.0
 70
     1
  0
VERTEX
  5
1AAE
  8
SAPA_PROFIL
 62
     4
 10
21.796174990972059
 20
67.673734962108682
 30
0.0
 42
-0.3137019356282051
  0
VERTEX
  5
1AAF
  8
SAPA_PROFIL
 62
     4
 10
21.885791847728189
 20
68.005333345288321
 30
0.0
  0
VERTEX
  5
1AB0
  8
SAPA_PROFIL
 62
     4
 10
23.86905305233164
 20
69.669487090599233
 30
0.0
 42
0.3152987888779321
  0
VERTEX
  5
1AB1
  8
SAPA_PROFIL
 62
     4
 10
23.987815056770678
 20
70.112712925178997
 30
0.0
  0
VERTEX
  5
1AB2
  8
SAPA_PROFIL
 62
     4
 10
20.423993556217159
 20
79.90423202491661
 30
0.0
  0
VERTEX
  5
1AB3
  8
SAPA_PROFIL
 62
     4
 10
16.86017205566225
 20
89.695751124657932
 30
0.0
 42
0.3152987888779395
  0
VERTEX
  5
1AB4
  8
SAPA_PROFIL
 62
     4
 10
16.484295007348582
 20
89.958943067325777
 30
0.0
  0
VERTEX
  5
1AB5
  8
SAPA_PROFIL
 62
     4
 10
13.895331374218211
 20
89.958943067325777
 30
0.0
 42
-0.3138982169096283
  0
VERTEX
  5
1AB6
  8
SAPA_PROFIL
 62
     4
 10
13.613533546994899
 20
90.155357560933311
 30
0.0
 42
-0.0157923906855865
  0
VERTEX
  5
1AB7
  8
SAPA_PROFIL
 62
     4
 10
13.49012975358143
 20
90.484456611397277
 30
0.0
  0
VERTEX
  5
1AB8
  8
SAPA_PROFIL
 62
     4
 10
13.27767535986102
 20
90.662727014810443
 30
0.0
 42
-0.5773502691889272
  0
VERTEX
  5
1AB9
  8
SAPA_PROFIL
 62
     4
 10
13.340836527796959
 20
91.020931798230222
 30
0.0
  0
VERTEX
  5
1ABA
  8
SAPA_PROFIL
 62
     4
 10
13.5918420788633
 20
91.112290347454078
 30
0.0
  0
VERTEX
  5
1ABB
  8
SAPA_PROFIL
 62
     4
 10
13.662975025192861
 20
91.490569122983572
 30
0.0
  0
VERTEX
  5
1ABC
  8
SAPA_PROFIL
 62
     4
 10
13.860070762336489
 20
92.60873353867143
 30
0.0
 42
0.1316524975869703
  0
VERTEX
  5
1ABD
  8
SAPA_PROFIL
 62
     4
 10
13.8505965845687
 20
92.717023886078522
 30
0.0
  0
VERTEX
  5
1ABE
  8
SAPA_PROFIL
 62
     4
 10
13.74399579348812
 20
93.009907152468728
 30
0.0
 42
0.4142135623775584
  0
VERTEX
  5
1ABF
  8
SAPA_PROFIL
 62
     4
 10
13.231310687843861
 20
93.248976143450875
 30
0.0
  0
VERTEX
  5
1AC0
  8
SAPA_PROFIL
 62
     4
 10
10.036355777171989
 20
92.086107656143753
 30
0.0
 42
0.4142135623773978
  0
VERTEX
  5
1AC1
  8
SAPA_PROFIL
 62
     4
 10
9.7972867861879251
 20
91.573422550499089
 30
0.0
  0
VERTEX
  5
1AC2
  8
SAPA_PROFIL
 62
     4
 10
9.9038875772689821
 20
91.280539284107917
 30
0.0
 42
0.1316524975869708
  0
VERTEX
  5
1AC3
  8
SAPA_PROFIL
 62
     4
 10
9.9662376295987798
 20
91.191494181154184
 30
0.0
  0
VERTEX
  5
1AC4
  8
SAPA_PROFIL
 62
     4
 10
10.836035356333401
 20
90.461647229452382
 30
0.0
  0
VERTEX
  5
1AC5
  8
SAPA_PROFIL
 62
     4
 10
11.36211740869846
 20
90.020211973343862
 30
0.0
 42
-0.1316524975869772
  0
VERTEX
  5
1AC6
  8
SAPA_PROFIL
 62
     4
 10
11.7184034220206
 20
89.511382813589336
 30
0.0
  0
VERTEX
  5
1AC7
  8
SAPA_PROFIL
 62
     4
 10
12.043960197580789
 20
88.616922923986564
 30
0.0
 42
0.3152987888780149
  0
VERTEX
  5
1AC8
  8
SAPA_PROFIL
 62
     4
 10
12.98365281836182
 20
87.958943067325819
 30
0.0
  0
VERTEX
  5
1AC9
  8
SAPA_PROFIL
 62
     4
 10
15.29671548542399
 20
87.958943067325819
 30
0.0
 42
-0.3152987888779391
  0
VERTEX
  5
1ACA
  8
SAPA_PROFIL
 62
     4
 10
15.67259253373877
 20
87.695751124656084
 30
0.0
  0
VERTEX
  5
1ACB
  8
SAPA_PROFIL
 62
     4
 10
18.732546838802541
 20
79.288595766930399
 30
0.0
  0
VERTEX
  5
1ACC
  8
SAPA_PROFIL
 62
     4
 10
21.792501143866382
 20
70.8814404092047
 30
0.0
 42
-0.3152987888779318
  0
VERTEX
  5
1ACD
  8
SAPA_PROFIL
 62
     4
 10
21.67373913942933
 20
70.438214574629114
 30
0.0
  0
VERTEX
  5
1ACE
  8
SAPA_PROFIL
 62
     4
 10
19.901830336737511
 20
68.951406551810663
 30
0.0
 42
0.3152987888779361
  0
VERTEX
  5
1ACF
  8
SAPA_PROFIL
 62
     4
 10
19.604925325643169
 20
67.843341965352209
 30
0.0
  0
VERTEX
  5
1AD0
  8
SAPA_PROFIL
 62
     4
 10
19.930482101193679
 20
66.948882075776723
 30
0.0
 42
-0.1316524975869766
  0
VERTEX
  5
1AD1
  8
SAPA_PROFIL
 62
     4
 10
19.984620259866631
 20
66.330080090593341
 30
0.0
  0
VERTEX
  5
1AD2
  8
SAPA_PROFIL
 62
     4
 10
19.866806748965921
 20
65.661926468116931
 30
0.0
  0
VERTEX
  5
1AD3
  8
SAPA_PROFIL
 62
     4
 10
19.668200002449971
 20
64.535571637347317
 30
0.0
 42
0.1316524975869832
  0
VERTEX
  5
1AD4
  8
SAPA_PROFIL
 62
     4
 10
19.67767418021857
 20
64.427281289935991
 30
0.0
  0
VERTEX
  5
1AD5
  8
SAPA_PROFIL
 62
     4
 10
19.784274971297471
 20
64.134398023550531
 30
0.0
 42
0.414213562371655
  0
VERTEX
  5
1AD6
  8
SAPA_PROFIL
 62
     4
 10
20.296960076945808
 20
63.895329032567822
 30
0.0
  0
VERTEX
  5
1AD7
  8
SAPA_PROFIL
 62
     4
 10
23.491914987614191
 20
65.058197519873744
 30
0.0
 42
0.4142135623716633
  0
VERTEX
  5
1AD8
  8
SAPA_PROFIL
 62
     4
 10
23.730983978597578
 20
65.570882625520269
 30
0.0
  0
VERTEX
  5
1AD9
  8
SAPA_PROFIL
 62
     4
 10
23.624383187518241
 20
65.863765891906766
 30
0.0
 42
0.1316524975869709
  0
VERTEX
  5
1ADA
  8
SAPA_PROFIL
 62
     4
 10
23.562033135186869
 20
65.952810994863796
 30
0.0
  0
VERTEX
  5
1ADB
  8
SAPA_PROFIL
 62
     4
 10
22.394662900814311
 20
66.926738911638694
 30
0.0
  0
VERTEX
  5
1ADC
  8
SAPA_PROFIL
 62
     4
 10
22.14365734974789
 20
66.835380362415066
 30
0.0
 42
-0.5773502691889269
  0
VERTEX
  5
1ADD
  8
SAPA_PROFIL
 62
     4
 10
21.865023491516979
 20
67.069181930089883
 30
0.0
  0
VERTEX
  5
1ADE
  8
SAPA_PROFIL
 62
     4
 10
21.913182992754908
 20
67.342308033904047
 30
0.0
 42
-0.015792390685586
  0
SEQEND
  5
1ADF
  8
SAPA_PROFIL
 62
     4
  0
POLYLINE
  5
121B
  8
SAPA_PROFIL
 62
     4
 66
     1
 10
0.0
 20
0.0
 30
0.0
 70
     1
  0
VERTEX
  5
1AE0
  8
SAPA_PROFIL
 62
     4
 10
-6.0528964958766007
 20
56.571246230595669
 30
0.0
  0
VERTEX
  5
1AE1
  8
SAPA_PROFIL
 62
     4
 10
-6.1192932948439953
 20
56.194691271731131
 30
0.0
  0
VERTEX
  5
1AE2
  8
SAPA_PROFIL
 62
     4
 10
-6.3164604325251528
 20
55.076500868374062
 30
0.0
 42
0.1316524975873982
  0
VERTEX
  5
1AE3
  8
SAPA_PROFIL
 62
     4
 10
-6.306986254757601
 20
54.968210520965599
 30
0.0
  0
VERTEX
  5
1AE4
  8
SAPA_PROFIL
 62
     4
 10
-6.2003854636775966
 20
54.67532725457729
 30
0.0
 42
0.4142135623730951
  0
VERTEX
  5
1AE5
  8
SAPA_PROFIL
 62
     4
 10
-5.6877003580329957
 20
54.43625826359321
 30
0.0
  0
VERTEX
  5
1AE6
  8
SAPA_PROFIL
 62
     4
 10
-2.4927454473608739
 20
55.599126750900503
 30
0.0
 42
0.4142135623730951
  0
VERTEX
  5
1AE7
  8
SAPA_PROFIL
 62
     4
 10
-2.2536764563767919
 20
56.111811856545089
 30
0.0
  0
VERTEX
  5
1AE8
  8
SAPA_PROFIL
 62
     4
 10
-2.3602772474567431
 20
56.404695122933433
 30
0.0
 42
0.1316524975873984
  0
VERTEX
  5
1AE9
  8
SAPA_PROFIL
 62
     4
 10
-2.422627299787647
 20
56.493740225890029
 30
0.0
  0
VERTEX
  5
1AEA
  8
SAPA_PROFIL
 62
     4
 10
-3.2924250265222339
 20
57.223587177591881
 30
0.0
  0
VERTEX
  5
1AEB
  8
SAPA_PROFIL
 62
     4
 10
-3.9717159675140721
 20
57.79357995564019
 30
0.0
 42
-0.1316524975873982
  0
VERTEX
  5
1AEC
  8
SAPA_PROFIL
 62
     4
 10
-4.328001980833343
 20
58.302409115392173
 30
0.0
  0
VERTEX
  5
1AED
  8
SAPA_PROFIL
 62
     4
 10
-5.6386405472692891
 20
61.90335898174132
 30
0.0
  0
VERTEX
  5
1AEE
  8
SAPA_PROFIL
 62
     4
 10
-6.9492791137052343
 20
65.50430884809046
 30
0.0
 42
-0.1316524975873984
  0
VERTEX
  5
1AEF
  8
SAPA_PROFIL
 62
     4
 10
-7.0034172723767787
 20
66.123110833281601
 30
0.0
  0
VERTEX
  5
1AF0
  8
SAPA_PROFIL
 62
     4
 10
-6.8508741259440473
 20
66.988226006352804
 30
0.0
  0
VERTEX
  5
1AF1
  8
SAPA_PROFIL
 62
     4
 10
-6.6522673794280713
 20
68.114580837122361
 30
0.0
 42
0.1316524975873982
  0
VERTEX
  5
1AF2
  8
SAPA_PROFIL
 62
     4
 10
-6.6617415571955689
 20
68.222871184530845
 30
0.0
  0
VERTEX
  5
1AF3
  8
SAPA_PROFIL
 62
     4
 10
-6.7683423482756284
 20
68.515754450919133
 30
0.0
 42
0.4142135623730951
  0
VERTEX
  5
1AF4
  8
SAPA_PROFIL
 62
     4
 10
-7.2810274539202293
 20
68.754823441903213
 30
0.0
  0
VERTEX
  5
1AF5
  8
SAPA_PROFIL
 62
     4
 10
-10.475982364592349
 20
67.591954954595934
 30
0.0
 42
0.4142135623730951
  0
VERTEX
  5
1AF6
  8
SAPA_PROFIL
 62
     4
 10
-10.71505135557643
 20
67.079269848951327
 30
0.0
  0
VERTEX
  5
1AF7
  8
SAPA_PROFIL
 62
     4
 10
-10.60845056449641
 20
66.786386582562955
 30
0.0
 42
0.1316524975873984
  0
VERTEX
  5
1AF8
  8
SAPA_PROFIL
 62
     4
 10
-10.54610051216558
 20
66.697341479606393
 30
0.0
  0
VERTEX
  5
1AF9
  8
SAPA_PROFIL
 62
     4
 10
-9.6699519883017722
 20
65.96216557637581
 30
0.0
  0
VERTEX
  5
1AFA
  8
SAPA_PROFIL
 62
     4
 10
-9.3833950246168421
 20
65.721715733836504
 30
0.0
  0
VERTEX
  5
1AFB
  8
SAPA_PROFIL
 62
     4
 10
-9.1277247267241766
 20
65.81477211205528
 30
0.0
 42
-0.5773502691889281
  0
VERTEX
  5
1AFC
  8
SAPA_PROFIL
 62
     4
 10
-8.8490908684932634
 20
65.580970544380463
 30
0.0
  0
VERTEX
  5
1AFD
  8
SAPA_PROFIL
 62
     4
 10
-8.8978843038773228
 20
65.304249221368536
 30
0.0
 42
-0.1028918098306669
  0
VERTEX
  5
1AFE
  8
SAPA_PROFIL
 62
     4
 10
-8.6407258311198802
 20
64.88867259010425
 30
0.0
  0
VERTEX
  5
1AFF
  8
SAPA_PROFIL
 62
     4
 10
-7.330087264683935
 20
61.28772272375511
 30
0.0
  0
VERTEX
  5
1B00
  8
SAPA_PROFIL
 62
     4
 10
-6.0194486982479898
 20
57.68677285740597
 30
0.0
 42
-0.1028918098311628
  0
VERTEX
  5
1B01
  8
SAPA_PROFIL
 62
     4
 10
-5.9493160078529801
 20
57.203124408319113
 30
0.0
  0
VERTEX
  5
1B02
  8
SAPA_PROFIL
 62
     4
 10
-5.7340650300500293
 20
57.022507392233727
 30
0.0
 42
-0.5773502691889286
  0
VERTEX
  5
1B03
  8
SAPA_PROFIL
 62
     4
 10
-5.7972261979859683
 20
56.664302608813962
 30
0.0
  0
SEQEND
  5
1B04
  8
SAPA_PROFIL
 62
     4
  0
POLYLINE
  5
121C
  8
SAPA_PROFIL
 66
     1
 10
0.0
 20
0.0
 30
0.0
 70
     1
  0
VERTEX
  5
1B05
  8
SAPA_PROFIL
 10
23.829277776228821
 20
68.924061102872457
 30
0.0
 42
-0.4769755326981641
  0
VERTEX
  5
1B06
  8
SAPA_PROFIL
 10
24.281897553438139
 20
68.767150491709003
 30
0.0
  0
VERTEX
  5
1B07
  8
SAPA_PROFIL
 10
24.795909834802028
 20
67.354668902241286
 30
0.0
  0
VERTEX
  5
1B08
  8
SAPA_PROFIL
 10
24.755915125004041
 20
67.324661849934216
 30
0.0
 42
0.4142135623730961
  0
VERTEX
  5
1B09
  8
SAPA_PROFIL
 10
24.695989180060081
 20
66.904651277302094
 30
0.0
  0
VERTEX
  5
1B0A
  8
SAPA_PROFIL
 10
25.62766680294401
 20
65.837849784543096
 30
0.0
  0
VERTEX
  5
1B0B
  8
SAPA_PROFIL
 10
29.732648427991268
 20
54.559505462449771
 30
0.0
 42
0.4142140000000128
  0
VERTEX
  5
1B0C
  8
SAPA_PROFIL
 10
30.373504810047049
 20
54.260669223719653
 30
0.0
  0
VERTEX
  5
1B0D
  8
SAPA_PROFIL
 10
49.825142060315372
 20
61.340486190560988
 30
0.0
 42
0.4142140000000043
  0
VERTEX
  5
1B0E
  8
SAPA_PROFIL
 10
50.123978299045497
 20
61.981342572616768
 30
0.0
  0
VERTEX
  5
1B0F
  8
SAPA_PROFIL
 10
49.097917869068468
 20
64.800420434974512
 30
0.0
 42
0.4142140000000209
  0
VERTEX
  5
1B10
  8
SAPA_PROFIL
 10
48.457061487012702
 20
65.099256673704616
 30
0.0
  0
VERTEX
  5
1B11
  8
SAPA_PROFIL
 10
42.81890576229722
 20
63.047135813750621
 30
0.0
 42
-0.4142139999999961
  0
VERTEX
  5
1B12
  8
SAPA_PROFIL
 10
42.178049380241433
 20
63.345972052480711
 30
0.0
  0
VERTEX
  5
1B13
  8
SAPA_PROFIL
 10
40.638958735275921
 20
67.574588846017321
 30
0.0
 42
-0.4142140000000129
  0
VERTEX
  5
1B14
  8
SAPA_PROFIL
 10
40.937794974006039
 20
68.215445228073094
 30
0.0
  0
VERTEX
  5
1B15
  8
SAPA_PROFIL
 10
42.159395381027728
 20
68.660071414396469
 30
0.0
  0
VERTEX
  5
1B16
  8
SAPA_PROFIL
 10
42.86942912987007
 20
68.423741841786722
 30
0.0
 42
-0.7105999999999906
  0
VERTEX
  5
1B17
  8
SAPA_PROFIL
 10
42.877292572667777
 20
67.857186850940849
 30
0.0
  0
VERTEX
  5
1B18
  8
SAPA_PROFIL
 10
42.501415524353398
 20
67.720378793610564
 30
0.0
 42
0.4142139999998962
  0
VERTEX
  5
1B19
  8
SAPA_PROFIL
 10
42.32211378111532
 20
67.335864964377109
 30
0.0
  0
VERTEX
  5
1B1A
  8
SAPA_PROFIL
 10
43.142962125096929
 20
65.080602674490933
 30
0.0
 42
0.414213999999924
  0
VERTEX
  5
1B1B
  8
SAPA_PROFIL
 10
43.527475954330413
 20
64.901300931252834
 30
0.0
  0
VERTEX
  5
1B1C
  8
SAPA_PROFIL
 10
48.131969796181373
 20
66.577199633548616
 30
0.0
 42
0.4142139999998545
  0
VERTEX
  5
1B1D
  8
SAPA_PROFIL
 10
48.311271539419423
 20
66.9617134627821
 30
0.0
  0
VERTEX
  5
1B1E
  8
SAPA_PROFIL
 10
47.490423195437849
 20
69.216975752668304
 30
0.0
 42
0.4142139999998685
  0
VERTEX
  5
1B1F
  8
SAPA_PROFIL
 10
47.105909366204358
 20
69.396277495906375
 30
0.0
  0
VERTEX
  5
1B20
  8
SAPA_PROFIL
 10
46.260186007497033
 20
69.088459366913256
 30
0.0
 42
-0.7106000000000542
  0
VERTEX
  5
1B21
  8
SAPA_PROFIL
 10
45.902035225834197
 20
69.527520192971892
 30
0.0
  0
VERTEX
  5
1B22
  8
SAPA_PROFIL
 10
46.294042912485743
 20
70.164960045029432
 30
0.0
  0
VERTEX
  5
1B23
  8
SAPA_PROFIL
 10
48.173430461830741
 20
70.848996914930439
 30
0.0
 42
-0.4142130000000436
  0
VERTEX
  5
1B24
  8
SAPA_PROFIL
 10
48.814285904193923
 20
70.550160334180163
 30
0.0
  0
VERTEX
  5
1B25
  8
SAPA_PROFIL
 10
55.962505531619833
 20
50.910588318525143
 30
0.0
 42
0.4142139999999932
  0
VERTEX
  5
1B26
  8
SAPA_PROFIL
 10
56.347019360853267
 20
50.731286575287193
 30
0.0
  0
VERTEX
  5
1B27
  8
SAPA_PROFIL
 10
68.093177120677154
 20
55.006538366857953
 30
0.0
 42
0.4142140000000127
  0
VERTEX
  5
1B28
  8
SAPA_PROFIL
 10
68.392013359407272
 20
55.64739474891374
 30
0.0
  0
VERTEX
  5
1B29
  8
SAPA_PROFIL
 10
63.090701137859391
 20
70.212630371095315
 30
0.0
 42
-0.4142140000000074
  0
VERTEX
  5
1B2A
  8
SAPA_PROFIL
 10
63.270002881097469
 20
70.597144200328785
 30
0.0
  0
VERTEX
  5
1B2B
  8
SAPA_PROFIL
 10
64.303664763961962
 20
70.973366357987004
 30
0.0
 42
-0.4142140000001183
  0
VERTEX
  5
1B2C
  8
SAPA_PROFIL
 10
64.688178593195445
 20
70.794064614748947
 30
0.0
  0
VERTEX
  5
1B2D
  8
SAPA_PROFIL
 10
70.570925058396952
 20
54.631351537231311
 30
0.0
 42
-0.4142140000000043
  0
VERTEX
  5
1B2E
  8
SAPA_PROFIL
 10
70.272088819666834
 20
53.990495155175523
 30
0.0
  0
VERTEX
  5
1B2F
  8
SAPA_PROFIL
 10
24.227150401157299
 20
37.231508132217762
 30
0.0
 42
-0.4142140000000128
  0
VERTEX
  5
1B30
  8
SAPA_PROFIL
 10
23.586294019101501
 20
37.530344370947873
 30
0.0
  0
VERTEX
  5
1B31
  8
SAPA_PROFIL
 10
19.85827445685171
 20
47.772993937514279
 30
0.0
 42
0.4142140000000127
  0
VERTEX
  5
1B32
  8
SAPA_PROFIL
 10
19.217418074795919
 20
48.071830176244418
 30
0.0
  0
VERTEX
  5
1B33
  8
SAPA_PROFIL
 10
-2.3955122032799858
 20
40.205366879754031
 30
0.0
 42
-0.4142140000000128
  0
VERTEX
  5
1B34
  8
SAPA_PROFIL
 10
-3.0363685853357651
 20
40.504203118484121
 30
0.0
  0
VERTEX
  5
1B35
  8
SAPA_PROFIL
 10
-5.1739944811211993
 20
46.377281998396072
 30
0.0
  0
VERTEX
  5
1B36
  8
SAPA_PROFIL
 10
-4.8751582423910778
 20
47.018138380451852
 30
0.0
  0
VERTEX
  5
1B37
  8
SAPA_PROFIL
 10
-5.5160146244468669
 20
47.31697461918197
 30
0.0
  0
VERTEX
  5
1B38
  8
SAPA_PROFIL
 10
-7.8253931517265567
 20
53.661939975856342
 30
0.0
  0
VERTEX
  5
1B39
  8
SAPA_PROFIL
 10
-7.7974136318641394
 20
55.078019843739952
 30
0.0
 42
0.4142135623730961
  0
VERTEX
  5
1B3A
  8
SAPA_PROFIL
 10
-8.1132971610123903
 20
55.361246954047282
 30
0.0
  0
VERTEX
  5
1B3B
  8
SAPA_PROFIL
 10
-8.1632230476334904
 20
55.358525585810327
 30
0.0
  0
VERTEX
  5
1B3C
  8
SAPA_PROFIL
 10
-8.6773924604199735
 20
56.770949984117358
 30
0.0
 42
-0.4769755326981641
  0
VERTEX
  5
1B3D
  8
SAPA_PROFIL
 10
-8.4315257919272923
 20
57.182088870554743
 30
0.0
  0
VERTEX
  5
1B3E
  8
SAPA_PROFIL
 10
-6.5971840793868797
 20
57.443807664406627
 30
0.0
 42
-0.2216946626430182
  0
VERTEX
  5
1B3F
  8
SAPA_PROFIL
 10
-5.9501284731123416
 20
57.247463828267108
 30
0.0
  0
VERTEX
  5
1B40
  8
SAPA_PROFIL
 10
-5.7098022841589593
 20
57.031982849527957
 30
0.0
 42
-0.5773502691897454
  0
VERTEX
  5
1B41
  8
SAPA_PROFIL
 10
-5.7811151837123909
 20
56.692992480406367
 30
0.0
  0
VERTEX
  5
1B42
  8
SAPA_PROFIL
 10
-6.0870807465905763
 20
56.592869293993921
 30
0.0
  0
VERTEX
  5
1B43
  8
SAPA_PROFIL
 10
-6.461241424396543
 20
54.449813005197242
 30
0.0
  0
VERTEX
  5
1B44
  8
SAPA_PROFIL
 10
-6.4503559514494322
 20
54.250109458712821
 30
0.0
 42
0.7625858545243253
  0
VERTEX
  5
1B45
  8
SAPA_PROFIL
 10
-6.0768211654741151
 20
54.189639918030942
 30
0.0
 42
-0.2134217652834383
  0
VERTEX
  5
1B46
  8
SAPA_PROFIL
 10
-5.9009015220033731
 20
54.36008720912475
 30
0.0
  0
VERTEX
  5
1B47
  8
SAPA_PROFIL
 10
-2.2804660086434621
 20
55.677817971068031
 30
0.0
 42
0.4142139999999796
  0
VERTEX
  5
1B48
  8
SAPA_PROFIL
 10
-2.1011642654053282
 20
56.062331800301529
 30
0.0
  0
VERTEX
  5
1B49
  8
SAPA_PROFIL
 10
-2.2037703084030769
 20
56.34423958653727
 30
0.0
  0
VERTEX
  5
1B4A
  8
SAPA_PROFIL
 10
-3.6190539327940048
 20
57.531802910176069
 30
0.0
 42
-0.577349999999943
  0
VERTEX
  5
1B4B
  8
SAPA_PROFIL
 10
-3.5589005154084541
 20
57.872950295336558
 30
0.0
  0
VERTEX
  5
1B4C
  8
SAPA_PROFIL
 10
-2.256823892650107
 20
58.346867428754457
 30
0.0
 42
-0.2679490000000079
  0
VERTEX
  5
1B4D
  8
SAPA_PROFIL
 10
-1.2720165190711099
 20
58.17321911298513
 30
0.0
  0
VERTEX
  5
1B4E
  8
SAPA_PROFIL
 10
0.2759493871638814
 20
56.874321524680731
 30
0.0
 42
0.2679490000000099
  0
VERTEX
  5
1B4F
  8
SAPA_PROFIL
 10
0.7683535437997133
 20
56.787497537806139
 30
0.0
  0
VERTEX
  5
1B50
  8
SAPA_PROFIL
 10
17.03539975331055
 20
62.708218157500951
 30
0.0
 42
0.2679489999999995
  0
VERTEX
  5
1B51
  8
SAPA_PROFIL
 10
17.356793838283519
 20
63.091240481019298
 30
0.0
  0
VERTEX
  5
1B52
  8
SAPA_PROFIL
 10
17.70768924287869
 20
65.081267065465596
 30
0.0
 42
-0.2679489999999919
  0
VERTEX
  5
1B53
  8
SAPA_PROFIL
 10
18.350477412824631
 20
65.847311712502318
 30
0.0
  0
VERTEX
  5
1B54
  8
SAPA_PROFIL
 10
19.65255309589039
 20
66.321228503900073
 30
0.0
 42
-0.5773500000002294
  0
VERTEX
  5
1B55
  8
SAPA_PROFIL
 10
19.917918599271349
 20
66.098560316589072
 30
0.0
  0
VERTEX
  5
1B56
  8
SAPA_PROFIL
 10
19.597100373215198
 20
64.279107595733052
 30
0.0
  0
VERTEX
  5
1B57
  8
SAPA_PROFIL
 10
19.699706416212891
 20
63.997199809497303
 30
0.0
 42
0.4142139999999103
  0
VERTEX
  5
1B58
  8
SAPA_PROFIL
 10
20.08422024544641
 20
63.817898066259239
 30
0.0
  0
VERTEX
  5
1B59
  8
SAPA_PROFIL
 10
23.704654819113671
 20
65.13562848618237
 30
0.0
 42
-0.2134217652834381
  0
VERTEX
  5
1B5A
  8
SAPA_PROFIL
 10
23.948978491249601
 20
65.118137253118732
 30
0.0
 42
0.7625858545243234
  0
VERTEX
  5
1B5B
  8
SAPA_PROFIL
 10
24.196253666843919
 20
65.404563140947914
 30
0.0
  0
VERTEX
  5
1B5C
  8
SAPA_PROFIL
 10
24.07622545761512
 20
65.564541980139438
 30
0.0
  0
VERTEX
  5
1B5D
  8
SAPA_PROFIL
 10
22.4120717202489
 20
66.965712493737726
 30
0.0
  0
VERTEX
  5
1B5E
  8
SAPA_PROFIL
 10
22.113330557352018
 20
66.845740431507465
 30
0.0
 42
-0.5773502691897454
  0
VERTEX
  5
1B5F
  8
SAPA_PROFIL
 10
21.840802897852011
 20
67.059583071800176
 30
0.0
  0
VERTEX
  5
1B60
  8
SAPA_PROFIL
 10
21.886394936179052
 20
67.379129774703543
 30
0.0
 42
-0.2216946626430182
  0
VERTEX
  5
1B61
  8
SAPA_PROFIL
 10
22.255860902645839
 20
67.945457205810357
 30
0.0
  0
SEQEND
  5
1B62
  8
SAPA_PROFIL
  0
POLYLINE
  5
121D
  8
SAPA_PROFIL
 66
     1
 10
0.0
 20
0.0
 30
0.0
 70
     1
  0
VERTEX
  5
1B63
  8
SAPA_PROFIL
 10
20.682928050938219
 20
61.588201009786509
 30
0.0
 42
0.4142139999999795
  0
VERTEX
  5
1B64
  8
SAPA_PROFIL
 10
21.0674418801717
 20
61.408899266548431
 30
0.0
  0
VERTEX
  5
1B65
  8
SAPA_PROFIL
 10
22.383011549272009
 20
61.887727467204378
 30
0.0
 42
0.4142139999999655
  0
VERTEX
  5
1B66
  8
SAPA_PROFIL
 10
22.56231329250998
 20
62.272241296437826
 30
0.0
 42
-0.4142139999999517
  0
VERTEX
  5
1B67
  8
SAPA_PROFIL
 10
22.741615035748119
 20
62.65675512567131
 30
0.0
  0
VERTEX
  5
1B68
  8
SAPA_PROFIL
 10
24.151153966927019
 20
63.169785340659701
 30
0.0
 42
-0.4142140000000072
  0
VERTEX
  5
1B69
  8
SAPA_PROFIL
 10
24.53566779616046
 20
62.990483597421758
 30
0.0
  0
VERTEX
  5
1B6A
  8
SAPA_PROFIL
 10
27.921667215084689
 20
53.687526651641299
 30
0.0
 42
-0.4142140000000351
  0
VERTEX
  5
1B6B
  8
SAPA_PROFIL
 10
27.742365471846501
 20
53.303012822407773
 30
0.0
  0
VERTEX
  5
1B6C
  8
SAPA_PROFIL
 10
26.332826540667622
 20
52.789982607419319
 30
0.0
 42
-0.4142139999999795
  0
VERTEX
  5
1B6D
  8
SAPA_PROFIL
 10
25.948312711434149
 20
52.96928435065734
 30
0.0
 42
0.4142140000000629
  0
VERTEX
  5
1B6E
  8
SAPA_PROFIL
 10
25.563798882200729
 20
53.148586093895418
 30
0.0
  0
VERTEX
  5
1B6F
  8
SAPA_PROFIL
 10
24.248229213100419
 20
52.669757893239471
 30
0.0
 42
0.4142139999999517
  0
VERTEX
  5
1B70
  8
SAPA_PROFIL
 10
24.068927469862341
 20
52.285244064006022
 30
0.0
 42
-0.4142139999998685
  0
VERTEX
  5
1B71
  8
SAPA_PROFIL
 10
23.88962572662431
 20
51.900730234772539
 30
0.0
  0
VERTEX
  5
1B72
  8
SAPA_PROFIL
 10
2.4646339727055468
 20
44.102670966947407
 30
0.0
 42
-0.4142140000000211
  0
VERTEX
  5
1B73
  8
SAPA_PROFIL
 10
2.0801201434721031
 20
44.281972710185357
 30
0.0
 42
0.4142140000000072
  0
VERTEX
  5
1B74
  8
SAPA_PROFIL
 10
1.6956063142386191
 20
44.461274453423428
 30
0.0
  0
VERTEX
  5
1B75
  8
SAPA_PROFIL
 10
0.3800366451383701
 20
43.982446252767502
 30
0.0
 42
0.4142140000000071
  0
VERTEX
  5
1B76
  8
SAPA_PROFIL
 10
0.2007349019003881
 20
43.597932423534068
 30
0.0
 42
-0.4142140000000351
  0
VERTEX
  5
1B77
  8
SAPA_PROFIL
 10
0.0214331586622028
 20
43.213418594300549
 30
0.0
  0
VERTEX
  5
1B78
  8
SAPA_PROFIL
 10
-1.3881057725166741
 20
42.700388379312088
 30
0.0
 42
-0.4142139999999518
  0
VERTEX
  5
1B79
  8
SAPA_PROFIL
 10
-1.7726196017501601
 20
42.879690122550123
 30
0.0
  0
VERTEX
  5
1B7A
  8
SAPA_PROFIL
 10
-5.1586190206743074
 20
52.182647068330603
 30
0.0
 42
-0.4142139999999517
  0
VERTEX
  5
1B7B
  8
SAPA_PROFIL
 10
-4.979317277436178
 20
52.567160897564086
 30
0.0
  0
VERTEX
  5
1B7C
  8
SAPA_PROFIL
 10
-3.5697783462572792
 20
53.080191112552477
 30
0.0
 42
-0.4142140000000072
  0
VERTEX
  5
1B7D
  8
SAPA_PROFIL
 10
-3.1852645170238381
 20
52.900889369314541
 30
0.0
 42
0.4142140000000351
  0
VERTEX
  5
1B7E
  8
SAPA_PROFIL
 10
-2.8007506877903499
 20
52.721587626076449
 30
0.0
  0
VERTEX
  5
1B7F
  8
SAPA_PROFIL
 10
-1.4851810186901
 20
53.200415826732389
 30
0.0
 42
0.4142140000000351
  0
VERTEX
  5
1B80
  8
SAPA_PROFIL
 10
-1.305879275452128
 20
53.584929655965837
 30
0.0
 42
-0.4142140000000071
  0
VERTEX
  5
1B81
  8
SAPA_PROFIL
 10
-1.126577532213932
 20
53.969443485199342
 30
0.0
  0
VERTEX
  5
1B82
  8
SAPA_PROFIL
 10
20.298414221704771
 20
61.767502753024651
 30
0.0
 42
-0.414213999999924
  0
SEQEND
  5
1B83
  8
SAPA_PROFIL
  0
POLYLINE
  5
121E
  8
SAPA_PROFIL
 66
     1
 10
0.0
 20
0.0
 30
0.0
 70
     1
  0
VERTEX
  5
1B84
  8
SAPA_PROFIL
 10
25.13748158574705
 20
50.22655707919607
 30
0.0
 42
-0.4142140000000074
  0
VERTEX
  5
1B85
  8
SAPA_PROFIL
 10
24.958179842509072
 20
49.842043249962657
 30
0.0
  0
VERTEX
  5
1B86
  8
SAPA_PROFIL
 10
23.642610173408858
 20
49.363215049306618
 30
0.0
 42
-0.4142140000000074
  0
VERTEX
  5
1B87
  8
SAPA_PROFIL
 10
23.25809634417535
 20
49.54251679254476
 30
0.0
 42
0.4142140000000072
  0
VERTEX
  5
1B88
  8
SAPA_PROFIL
 10
22.873582514941852
 20
49.721818535782859
 30
0.0
  0
VERTEX
  5
1B89
  8
SAPA_PROFIL
 10
21.46404358376299
 20
49.208788320794348
 30
0.0
 42
0.4142139999999656
  0
VERTEX
  5
1B8A
  8
SAPA_PROFIL
 10
21.284741840524958
 20
48.824274491560892
 30
0.0
  0
VERTEX
  5
1B8B
  8
SAPA_PROFIL
 10
24.670741259449091
 20
39.521317545780391
 30
0.0
 42
0.4142140000000627
  0
VERTEX
  5
1B8C
  8
SAPA_PROFIL
 10
25.055255088682511
 20
39.342015802542321
 30
0.0
  0
VERTEX
  5
1B8D
  8
SAPA_PROFIL
 10
26.464794019861369
 20
39.855046017530832
 30
0.0
 42
0.4142140000000072
  0
VERTEX
  5
1B8E
  8
SAPA_PROFIL
 10
26.644095763099461
 20
40.23955984676428
 30
0.0
 42
-0.414213999999924
  0
VERTEX
  5
1B8F
  8
SAPA_PROFIL
 10
26.823397506337539
 20
40.624073675997771
 30
0.0
  0
VERTEX
  5
1B90
  8
SAPA_PROFIL
 10
28.138967175437791
 20
41.102901876653689
 30
0.0
 42
-0.4142139999999241
  0
VERTEX
  5
1B91
  8
SAPA_PROFIL
 10
28.523481004671279
 20
40.923600133415611
 30
0.0
 42
0.4142139999999517
  0
VERTEX
  5
1B92
  8
SAPA_PROFIL
 10
28.907994833904759
 20
40.744298390177562
 30
0.0
  0
VERTEX
  5
1B93
  8
SAPA_PROFIL
 10
50.332986587823463
 20
48.5423576580028
 30
0.0
 42
0.4142139999999796
  0
VERTEX
  5
1B94
  8
SAPA_PROFIL
 10
50.512288331061619
 20
48.926871487236298
 30
0.0
 42
-0.4142140000000348
  0
VERTEX
  5
1B95
  8
SAPA_PROFIL
 10
50.691590074299619
 20
49.31138531646976
 30
0.0
  0
VERTEX
  5
1B96
  8
SAPA_PROFIL
 10
52.007159743399917
 20
49.790213517125572
 30
0.0
 42
-0.4142140000000209
  0
VERTEX
  5
1B97
  8
SAPA_PROFIL
 10
52.391673572633358
 20
49.610911773887608
 30
0.0
 42
0.4142140000001181
  0
VERTEX
  5
1B98
  8
SAPA_PROFIL
 10
52.776187401866828
 20
49.431610030649551
 30
0.0
  0
VERTEX
  5
1B99
  8
SAPA_PROFIL
 10
54.1857263330457
 20
49.944640245638048
 30
0.0
 42
0.4142139999999518
  0
VERTEX
  5
1B9A
  8
SAPA_PROFIL
 10
54.365028076283792
 20
50.329154074871511
 30
0.0
  0
VERTEX
  5
1B9B
  8
SAPA_PROFIL
 10
50.97902865735967
 20
59.632111020651998
 30
0.0
 42
0.4142139999999934
  0
VERTEX
  5
1B9C
  8
SAPA_PROFIL
 10
50.594514828126179
 20
59.81141276389009
 30
0.0
  0
VERTEX
  5
1B9D
  8
SAPA_PROFIL
 10
49.184975896947307
 20
59.298382548901579
 30
0.0
 42
0.4142140000000211
  0
VERTEX
  5
1B9E
  8
SAPA_PROFIL
 10
49.005674153709229
 20
58.913868719668102
 30
0.0
 42
-0.4142140000000766
  0
VERTEX
  5
1B9F
  8
SAPA_PROFIL
 10
48.826372410471151
 20
58.529354890434632
 30
0.0
  0
VERTEX
  5
1BA0
  8
SAPA_PROFIL
 10
47.510802741370938
 20
58.050526689778593
 30
0.0
 42
-0.4142140000000074
  0
VERTEX
  5
1BA1
  8
SAPA_PROFIL
 10
47.126288912137433
 20
58.229828433016749
 30
0.0
 42
0.4142140000001044
  0
VERTEX
  5
1BA2
  8
SAPA_PROFIL
 10
46.741775082903942
 20
58.409130176254841
 30
0.0
  0
VERTEX
  5
1BA3
  8
SAPA_PROFIL
 10
25.316783328985242
 20
50.611070908429603
 30
0.0
 42
0.4142140000000213
  0
SEQEND
  5
1BA4
  8
SAPA_PROFIL
  0
POLYLINE
  5
121F
  8
SAPA_PROFIL
 66
     1
 10
0.0
 20
0.0
 30
0.0
 70
     1
  0
VERTEX
  5
1BA5
  8
SAPA_PROFIL
 10
-47.634531024832278
 20
66.463865638611466
 30
0.0
 42
0.5773502691895968
  0
VERTEX
  5
1BA6
  8
SAPA_PROFIL
 10
-47.077678535306937
 20
64.933925997674834
 30
0.0
  0
VERTEX
  5
1BA7
  8
SAPA_PROFIL
 10
-46.106688215213417
 20
64.762714192825015
 30
0.0
  0
VERTEX
  5
1BA8
  8
SAPA_PROFIL
 10
-46.497062552571343
 20
62.548791310521821
 30
0.0
  0
VERTEX
  5
1BA9
  8
SAPA_PROFIL
 10
-47.62469369751436
 20
62.138367138531038
 30
0.0
 42
0.4142135623729286
  0
VERTEX
  5
1BAA
  8
SAPA_PROFIL
 10
-47.803995440752558
 20
61.753853309297703
 30
0.0
  0
VERTEX
  5
1BAB
  8
SAPA_PROFIL
 10
-47.667187383422259
 20
61.377976260983253
 30
0.0
 42
0.4142135623732059
  0
VERTEX
  5
1BAC
  8
SAPA_PROFIL
 10
-47.282673554188698
 20
61.198674517745133
 30
0.0
  0
VERTEX
  5
1BAD
  8
SAPA_PROFIL
 10
-46.058890449512752
 20
61.644095141045419
 30
0.0
 42
-0.4142135623731506
  0
VERTEX
  5
1BAE
  8
SAPA_PROFIL
 10
-45.674376620279077
 20
61.464793397807348
 30
0.0
  0
VERTEX
  5
1BAF
  8
SAPA_PROFIL
 10
-45.475991433840171
 20
60.919734577712148
 30
0.0
 42
0.4142135623730951
  0
VERTEX
  5
1BB0
  8
SAPA_PROFIL
 10
-45.091477604606709
 20
60.740432834473992
 30
0.0
  0
VERTEX
  5
1BB1
  8
SAPA_PROFIL
 10
-42.828938057623553
 20
61.563929883425999
 30
0.0
  0
VERTEX
  5
1BB2
  8
SAPA_PROFIL
 10
-42.442107691035062
 20
62.192951547011532
 30
0.0
 42
0.7105995015649727
  0
VERTEX
  5
1BB3
  8
SAPA_PROFIL
 10
-42.800258344008462
 20
62.632011973417292
 30
0.0
  0
VERTEX
  5
1BB4
  8
SAPA_PROFIL
 10
-43.458043178558427
 20
62.392597873089379
 30
0.0
  0
VERTEX
  5
1BB5
  8
SAPA_PROFIL
 10
-44.383597631261154
 20
64.935537832365483
 30
0.0
 42
-0.4142135623731506
  0
VERTEX
  5
1BB6
  8
SAPA_PROFIL
 10
-44.204295888023047
 20
65.320051661599052
 30
0.0
  0
VERTEX
  5
1BB7
  8
SAPA_PROFIL
 10
-40.06964835656543
 20
66.824940292231972
 30
0.0
 42
-0.4142135623730951
  0
VERTEX
  5
1BB8
  8
SAPA_PROFIL
 10
-39.685134527331762
 20
66.645638548993901
 30
0.0
  0
VERTEX
  5
1BB9
  8
SAPA_PROFIL
 10
-38.759580074629099
 20
64.102698589717647
 30
0.0
  0
VERTEX
  5
1BBA
  8
SAPA_PROFIL
 10
-39.417364909179099
 20
63.863284489389848
 30
0.0
 42
0.7105995015650586
  0
VERTEX
  5
1BBB
  8
SAPA_PROFIL
 10
-39.40950162469165
 20
63.296729887415879
 30
0.0
  0
VERTEX
  5
1BBC
  8
SAPA_PROFIL
 10
-38.708845040359293
 20
63.063521104117967
 30
0.0
  0
VERTEX
  5
1BBD
  8
SAPA_PROFIL
 10
-30.763347835276111
 20
65.955445583213674
 30
0.0
  0
VERTEX
  5
1BBE
  8
SAPA_PROFIL
 10
-30.421327691950442
 20
65.015752962427754
 30
0.0
  0
VERTEX
  5
1BBF
  8
SAPA_PROFIL
 10
-29.481635071164529
 20
65.357773105753438
 30
0.0
  0
VERTEX
  5
1BC0
  8
SAPA_PROFIL
 10
-29.823655214490199
 20
66.297465726539343
 30
0.0
  0
VERTEX
  5
1BC1
  8
SAPA_PROFIL
 10
-27.05156198317184
 20
67.306425149350048
 30
0.0
  0
VERTEX
  5
1BC2
  8
SAPA_PROFIL
 10
-27.393582126497499
 20
68.246117770135953
 30
0.0
  0
VERTEX
  5
1BC3
  8
SAPA_PROFIL
 10
-25.608166147004368
 20
68.895956042454571
 30
0.0
  0
VERTEX
  5
1BC4
  8
SAPA_PROFIL
 10
-25.309329908273991
 20
69.536812424510316
 30
0.0
  0
VERTEX
  5
1BC5
  8
SAPA_PROFIL
 10
-24.66847352621793
 20
69.237976185780425
 30
0.0
  0
VERTEX
  5
1BC6
  8
SAPA_PROFIL
 10
-22.883057546724931
 20
69.887814458099115
 30
0.0
  0
VERTEX
  5
1BC7
  8
SAPA_PROFIL
 10
-22.541037403399301
 20
68.948121837313309
 30
0.0
  0
VERTEX
  5
1BC8
  8
SAPA_PROFIL
 10
-19.768944172080829
 20
69.957081260124042
 30
0.0
  0
VERTEX
  5
1BC9
  8
SAPA_PROFIL
 10
-19.42692402875516
 20
69.017388639338137
 30
0.0
  0
VERTEX
  5
1BCA
  8
SAPA_PROFIL
 10
-18.487231407969251
 20
69.359408782663806
 30
0.0
  0
VERTEX
  5
1BCB
  8
SAPA_PROFIL
 10
-18.82925155129492
 20
70.299101403449711
 30
0.0
  0
VERTEX
  5
1BCC
  8
SAPA_PROFIL
 10
-10.88375434621155
 20
73.191025882545233
 30
0.0
  0
VERTEX
  5
1BCD
  8
SAPA_PROFIL
 10
-10.49692397962311
 20
73.820047546131235
 30
0.0
 42
0.7105995015650586
  0
VERTEX
  5
1BCE
  8
SAPA_PROFIL
 10
-10.85507463259647
 20
74.259107972536881
 30
0.0
  0
VERTEX
  5
1BCF
  8
SAPA_PROFIL
 10
-11.51285946714639
 20
74.019693872208876
 30
0.0
  0
VERTEX
  5
1BD0
  8
SAPA_PROFIL
 10
-12.43841391984906
 20
76.562633831485115
 30
0.0
 42
-0.4142135623730951
  0
VERTEX
  5
1BD1
  8
SAPA_PROFIL
 10
-12.25911217661095
 20
76.947147660718684
 30
0.0
  0
VERTEX
  5
1BD2
  8
SAPA_PROFIL
 10
-8.1244646451531466
 20
78.452036291351433
 30
0.0
 42
-0.4142135623731506
  0
VERTEX
  5
1BD3
  8
SAPA_PROFIL
 10
-7.739950815919693
 20
78.272734548113277
 30
0.0
  0
VERTEX
  5
1BD4
  8
SAPA_PROFIL
 10
-6.814396363217174
 20
75.729794588837095
 30
0.0
  0
VERTEX
  5
1BD5
  8
SAPA_PROFIL
 10
-7.4721811977671768
 20
75.490380488509274
 30
0.0
 42
0.7105995015649949
  0
VERTEX
  5
1BD6
  8
SAPA_PROFIL
 10
-7.4643179132795421
 20
74.923825886535155
 30
0.0
  0
VERTEX
  5
1BD7
  8
SAPA_PROFIL
 10
-6.7636613289475518
 20
74.690617103237599
 30
0.0
  0
VERTEX
  5
1BD8
  8
SAPA_PROFIL
 10
-4.5011217819643914
 20
75.514114152189606
 30
0.0
 42
0.4142135623730951
  0
VERTEX
  5
1BD9
  8
SAPA_PROFIL
 10
-4.321820038726278
 20
75.898627981423175
 30
0.0
  0
VERTEX
  5
1BDA
  8
SAPA_PROFIL
 10
-4.5202052251651894
 20
76.443686801518368
 30
0.0
 42
-0.4142135623731506
  0
VERTEX
  5
1BDB
  8
SAPA_PROFIL
 10
-4.3409034819270751
 20
76.828200630751923
 30
0.0
  0
VERTEX
  5
1BDC
  8
SAPA_PROFIL
 10
-3.1171203772507838
 20
77.273621254051619
 30
0.0
 42
0.414213562373206
  0
VERTEX
  5
1BDD
  8
SAPA_PROFIL
 10
-2.9378186340127792
 20
77.658135083285146
 30
0.0
  0
VERTEX
  5
1BDE
  8
SAPA_PROFIL
 10
-3.0746266913430769
 20
78.034012131599582
 30
0.0
 42
0.4142135623729286
  0
VERTEX
  5
1BDF
  8
SAPA_PROFIL
 10
-3.4591405205764518
 20
78.213313874837525
 30
0.0
  0
VERTEX
  5
1BE0
  8
SAPA_PROFIL
 10
-4.586771665519584
 20
77.802889702846699
 30
0.0
  0
VERTEX
  5
1BE1
  8
SAPA_PROFIL
 10
-6.3088979549347632
 20
79.247925237135803
 30
0.0
  0
VERTEX
  5
1BE2
  8
SAPA_PROFIL
 10
-5.675129042694449
 20
80.003221635719015
 30
0.0
 42
0.5773502691896019
  0
VERTEX
  5
1BE3
  8
SAPA_PROFIL
 10
-6.2319815322189323
 20
81.533161276655946
 30
0.0
  0
VERTEX
  5
1BE4
  8
SAPA_PROFIL
 10
-7.4491691607735753
 20
81.747784282744249
 30
0.0
 42
0.1316524948697527
  0
VERTEX
  5
1BE5
  8
SAPA_PROFIL
 10
-7.9648374712430607
 20
81.702669148662466
 30
0.0
  0
VERTEX
  5
1BE6
  8
SAPA_PROFIL
 10
-46.41604392188713
 20
67.707574529003466
 30
0.0
 42
0.1316524948697533
  0
VERTEX
  5
1BE7
  8
SAPA_PROFIL
 10
-46.840068214812057
 20
67.410669526089549
 30
0.0
  0
SEQEND
  5
1BE8
  8
SAPA_PROFIL
  0
POLYLINE
  5
1220
  8
SAPA_PROFIL
 62
     4
 66
     1
 10
0.0
 20
0.0
 30
0.0
 70
     1
  0
VERTEX
  5
1BE9
  8
SAPA_PROFIL
 62
     4
 10
-17.788169817537291
 20
45.510219846920563
 30
0.0
  0
VERTEX
  5
1BEA
  8
SAPA_PROFIL
 62
     4
 10
-17.035725502220799
 20
43.44289608119152
 30
0.0
 42
1.0
  0
VERTEX
  5
1BEB
  8
SAPA_PROFIL
 62
     4
 10
-14.874432474413251
 20
44.229542410840537
 30
0.0
  0
VERTEX
  5
1BEC
  8
SAPA_PROFIL
 62
     4
 10
-15.62687678972963
 20
46.296866176569623
 30
0.0
 42
1.0
  0
SEQEND
  5
1BED
  8
SAPA_PROFIL
 62
     4
  0
POLYLINE
  5
1221
  8
SAPA_PROFIL
 62
     4
 66
     1
 10
0.0
 20
0.0
 30
0.0
 70
     1
  0
VERTEX
  5
1BEE
  8
SAPA_PROFIL
 62
     4
 10
-25.647898958161019
 20
58.771805643348891
 30
0.0
  0
VERTEX
  5
1BEF
  8
SAPA_PROFIL
 62
     4
 10
-26.691345007036951
 20
61.638650101054672
 30
0.0
  0
VERTEX
  5
1BF0
  8
SAPA_PROFIL
 62
     4
 10
-27.829535888485271
 20
64.765803846863065
 30
0.0
 42
-0.6681786379192966
  0
VERTEX
  5
1BF1
  8
SAPA_PROFIL
 62
     4
 10
-27.148380447221999
 20
65.389967812044162
 30
0.0
  0
VERTEX
  5
1BF2
  8
SAPA_PROFIL
 62
     4
 10
-24.39725244194441
 20
64.107095746833551
 30
0.0
 42
0.1989123679837333
  0
VERTEX
  5
1BF3
  8
SAPA_PROFIL
 62
     4
 10
-23.632614034771471
 20
64.073710912101973
 30
0.0
  0
VERTEX
  5
1BF4
  8
SAPA_PROFIL
 62
     4
 10
-23.082154841976969
 20
64.274061673457354
 30
0.0
 42
0.1989123667755704
  0
VERTEX
  5
1BF5
  8
SAPA_PROFIL
 62
     4
 10
-22.517867199248311
 20
64.79113603039599
 30
0.0
  0
VERTEX
  5
1BF6
  8
SAPA_PROFIL
 62
     4
 10
-21.234995126109212
 20
67.542264052675904
 30
0.0
 42
-0.6681786379192936
  0
VERTEX
  5
1BF7
  8
SAPA_PROFIL
 62
     4
 10
-20.311994922198021
 20
67.501964993468405
 30
0.0
  0
VERTEX
  5
1BF8
  8
SAPA_PROFIL
 62
     4
 10
-19.173804040749701
 20
64.374811247660006
 30
0.0
  0
VERTEX
  5
1BF9
  8
SAPA_PROFIL
 62
     4
 10
-18.130357991873751
 20
61.507966789954239
 30
0.0
 42
-0.4142135623730951
  0
VERTEX
  5
1BFA
  8
SAPA_PROFIL
 62
     4
 10
-18.429194230603869
 20
60.867110407898451
 30
0.0
  0
VERTEX
  5
1BFB
  8
SAPA_PROFIL
 62
     4
 10
-25.007042576105231
 20
58.472969404618773
 30
0.0
 42
-0.4142135623730951
  0
SEQEND
  5
1BFC
  8
SAPA_PROFIL
 62
     4
  0
POLYLINE
  5
1222
  8
SAPA_PROFIL
 62
     4
 66
     1
 10
0.0
 20
0.0
 30
0.0
 70
     1
  0
VERTEX
  5
1BFD
  8
SAPA_PROFIL
 62
     4
 10
-15.854391729998669
 20
51.11991704157478
 30
0.0
  0
VERTEX
  5
1BFE
  8
SAPA_PROFIL
 62
     4
 10
-16.728275861274231
 20
49.312792761734521
 30
0.0
 42
-0.9251773977986363
  0
VERTEX
  5
1BFF
  8
SAPA_PROFIL
 62
     4
 10
-18.883049419792378
 20
48.528519324850052
 30
0.0
  0
VERTEX
  5
1C00
  8
SAPA_PROFIL
 62
     4
 10
-20.714080598731009
 20
49.351134945561419
 30
0.0
  0
VERTEX
  5
1C01
  8
SAPA_PROFIL
 62
     4
 10
-21.573160337115521
 20
49.038455491928261
 30
0.0
 42
-0.4142135623730769
  0
VERTEX
  5
1C02
  8
SAPA_PROFIL
 62
     4
 10
-22.214016719171308
 20
49.337291730658379
 30
0.0
  0
VERTEX
  5
1C03
  8
SAPA_PROFIL
 62
     4
 10
-24.96385867150968
 20
56.892420401777073
 30
0.0
 42
-0.4142135623730951
  0
VERTEX
  5
1C04
  8
SAPA_PROFIL
 62
     4
 10
-24.665022432779558
 20
57.533276783832861
 30
0.0
  0
VERTEX
  5
1C05
  8
SAPA_PROFIL
 62
     4
 10
-18.0871740872782
 20
59.927417787112553
 30
0.0
 42
-0.4142135623730951
  0
VERTEX
  5
1C06
  8
SAPA_PROFIL
 62
     4
 10
-17.446317705222409
 20
59.628581548382421
 30
0.0
  0
VERTEX
  5
1C07
  8
SAPA_PROFIL
 62
     4
 10
-14.696475752884041
 20
52.073452877263719
 30
0.0
 42
-0.4142135623730951
  0
VERTEX
  5
1C08
  8
SAPA_PROFIL
 62
     4
 10
-14.995311991614161
 20
51.432596495207939
 30
0.0
  0
SEQEND
  5
1C09
  8
SAPA_PROFIL
 62
     4
  0
POLYLINE
  5
1223
  8
SAPA_PROFIL
 62
     4
 66
     1
 10
0.0
 20
0.0
 30
0.0
 70
     1
  0
VERTEX
  5
1C0A
  8
SAPA_PROFIL
 62
     4
 10
-23.20501236145595
 20
49.136225480450612
 30
0.0
 42
-1.0
  0
VERTEX
  5
1C0B
  8
SAPA_PROFIL
 62
     4
 10
-24.4266127684777
 20
48.691599294127222
 30
0.0
  0
VERTEX
  5
1C0C
  8
SAPA_PROFIL
 62
     4
 10
-24.71732989030453
 20
49.490338021795267
 30
0.0
  0
VERTEX
  5
1C0D
  8
SAPA_PROFIL
 62
     4
 10
-24.670345259265162
 20
49.507439028961571
 30
0.0
 42
1.0
  0
VERTEX
  5
1C0E
  8
SAPA_PROFIL
 62
     4
 10
-24.841355330928
 20
49.977285339354523
 30
0.0
  0
VERTEX
  5
1C0F
  8
SAPA_PROFIL
 62
     4
 10
-25.264217010281701
 20
49.823376274857957
 30
0.0
 42
0.4142135623730951
  0
VERTEX
  5
1C10
  8
SAPA_PROFIL
 62
     4
 10
-25.443518753519712
 20
49.438862445624437
 30
0.0
  0
VERTEX
  5
1C11
  8
SAPA_PROFIL
 62
     4
 10
-24.86208450986609
 20
47.841384990288461
 30
0.0
 42
0.4225789089359373
  0
VERTEX
  5
1C12
  8
SAPA_PROFIL
 62
     4
 10
-23.594052551487501
 20
47.281300217659542
 30
0.0
  0
VERTEX
  5
1C13
  8
SAPA_PROFIL
 62
     4
 10
-20.774974689129781
 20
48.307360647636543
 30
0.0
  0
VERTEX
  5
1C14
  8
SAPA_PROFIL
 62
     4
 10
-19.685518839635051
 20
47.799339041795392
 30
0.0
  0
VERTEX
  5
1C15
  8
SAPA_PROFIL
 62
     4
 10
-17.5820949581822
 20
42.020229423962071
 30
0.0
 42
0.4142135623730951
  0
VERTEX
  5
1C16
  8
SAPA_PROFIL
 62
     4
 10
-16.300382194070622
 20
41.422556946501842
 30
0.0
  0
VERTEX
  5
1C17
  8
SAPA_PROFIL
 62
     4
 10
-14.139089166263069
 20
42.209203276150852
 30
0.0
 42
0.4142135623730951
  0
VERTEX
  5
1C18
  8
SAPA_PROFIL
 62
     4
 10
-13.54141668880283
 20
43.490916040262441
 30
0.0
  0
VERTEX
  5
1C19
  8
SAPA_PROFIL
 62
     4
 10
-15.644840570255649
 20
49.270025658095648
 30
0.0
  0
VERTEX
  5
1C1A
  8
SAPA_PROFIL
 62
     4
 10
-15.136818964414431
 20
50.359481507590509
 30
0.0
  0
VERTEX
  5
1C1B
  8
SAPA_PROFIL
 62
     4
 10
-12.31774110205671
 20
51.385541937567517
 30
0.0
 42
0.4225789089359373
  0
VERTEX
  5
1C1C
  8
SAPA_PROFIL
 62
     4
 10
-11.706387818863471
 20
52.629666996847781
 30
0.0
  0
VERTEX
  5
1C1D
  8
SAPA_PROFIL
 62
     4
 10
-12.28782206251708
 20
54.227144452183758
 30
0.0
 42
0.4142135623730951
  0
VERTEX
  5
1C1E
  8
SAPA_PROFIL
 62
     4
 10
-12.672335891750651
 20
54.406446195421871
 30
0.0
  0
VERTEX
  5
1C1F
  8
SAPA_PROFIL
 62
     4
 10
-13.095197571104251
 20
54.25253713092534
 30
0.0
 42
1.0
  0
VERTEX
  5
1C20
  8
SAPA_PROFIL
 62
     4
 10
-12.924187499441411
 20
53.782690820532387
 30
0.0
  0
VERTEX
  5
1C21
  8
SAPA_PROFIL
 62
     4
 10
-12.87720286840206
 20
53.799791827698691
 30
0.0
  0
VERTEX
  5
1C22
  8
SAPA_PROFIL
 62
     4
 10
-12.58648574657523
 20
53.001053100030653
 30
0.0
 42
-1.0
  0
VERTEX
  5
1C23
  8
SAPA_PROFIL
 62
     4
 10
-13.808086153596969
 20
52.556426913707249
 30
0.0
  0
VERTEX
  5
1C24
  8
SAPA_PROFIL
 62
     4
 10
-18.234111419963789
 20
64.716831390985675
 30
0.0
  0
VERTEX
  5
1C25
  8
SAPA_PROFIL
 62
     4
 10
-20.097836589356039
 20
69.837374209960132
 30
0.0
  0
VERTEX
  5
1C26
  8
SAPA_PROFIL
 62
     4
 10
-21.50737552053489
 20
69.324343994971628
 30
0.0
  0
VERTEX
  5
1C27
  8
SAPA_PROFIL
 62
     4
 10
-23.387920060775411
 20
65.291503214099365
 30
0.0
 42
-0.4142135623730951
  0
VERTEX
  5
1C28
  8
SAPA_PROFIL
 62
     4
 10
-24.052383085163989
 20
65.049658451451421
 30
0.0
  0
VERTEX
  5
1C29
  8
SAPA_PROFIL
 62
     4
 10
-28.085223866036252
 20
66.930202991691942
 30
0.0
  0
VERTEX
  5
1C2A
  8
SAPA_PROFIL
 62
     4
 10
-29.494762797215142
 20
66.417172776703438
 30
0.0
  0
VERTEX
  5
1C2B
  8
SAPA_PROFIL
 62
     4
 10
-27.631037627822838
 20
61.296629957729003
 30
0.0
  0
VERTEX
  5
1C2C
  8
SAPA_PROFIL
 62
     4
 10
-23.307618404453649
 20
49.418133266686361
 30
0.0
  0
SEQEND
  5
1C2D
  8
SAPA_PROFIL
 62
     4
  0
POLYLINE
  5
123B
  8
SAPA_GLAS
 66
     1
 10
0.0
 20
0.0
 30
0.0
  0
VERTEX
  5
1C4E
  8
SAPA_GLAS
 10
-55.49843696404082
 20
32.604721967042352
 30
0.0
  0
VERTEX
  5
1C4F
  8
SAPA_GLAS
 10
-27.307658340463501
 20
42.865326266812197
 30
0.0
  0
VERTEX
  5
1C50
  8
SAPA_GLAS
 10
-24.311561884930988
 20
34.633618908727279
 30
0.0
  0
VERTEX
  5
1C51
  8
SAPA_GLAS
 10
-52.502340508507871
 20
24.37301460895771
 30
0.0
  0
SEQEND
  5
1C52
  8
SAPA_GLAS
  0
POLYLINE
  5
123C
  8
SAPA_GLAS
 66
     1
 10
0.0
 20
0.0
 30
0.0
  0
VERTEX
  5
1C53
  8
SAPA_GLAS
 10
-27.307658340463782
 20
42.86532626681209
 30
0.0
  0
VERTEX
  5
1C54
  8
SAPA_GLAS
 10
-31.41190006037176
 20
54.141637716243132
 30
0.0
  0
VERTEX
  5
1C55
  8
SAPA_GLAS
 10
-40.808826268230668
 20
50.721436282986581
 30
0.0
  0
VERTEX
  5
1C56
  8
SAPA_GLAS
 10
-36.704584548323027
 20
39.445124833555433
 30
0.0
  0
VERTEX
  5
1C57
  8
SAPA_GLAS
 10
-27.307658340463782
 20
42.86532626681209
 30
0.0
  0
SEQEND
  5
1C58
  8
SAPA_GLAS
  0
POLYLINE
  5
123D
  8
SAPA_GLAS
 66
     1
 10
0.0
 20
0.0
 30
0.0
  0
VERTEX
  5
1C59
  8
SAPA_GLAS
 10
-61.654799543902861
 20
49.519189141188697
 30
0.0
  0
VERTEX
  5
1C5A
  8
SAPA_GLAS
 10
-33.464020920325567
 20
59.779793440958649
 30
0.0
  0
VERTEX
  5
1C5B
  8
SAPA_GLAS
 10
-31.411900060371561
 20
54.14163771624321
 30
0.0
  0
VERTEX
  5
1C5C
  8
SAPA_GLAS
 10
-59.602678683948888
 20
43.881033416473358
 30
0.0
  0
SEQEND
  5
1C5D
  8
SAPA_GLAS
  0
LINE
  5
123E
  8
SAPA_GLAS
 10
-25.80961011269746
 20
38.74947258776966
 30
0.0
 11
-54.000388736274303
 21
28.488868287999988
 31
0.0
  0
LINE
  5
123F
  8
SAPA_GLAS
 10
29.987169343932909
 20
128.7179926967496
 30
0.0
 11
73.345503580017436
 21
144.49913576604959
 31
0.0
  0
POLYLINE
  5
1240
  8
SAPA_GLAS
 66
     1
 10
0.0
 20
0.0
 30
0.0
  0
VERTEX
  5
1C5E
  8
SAPA_GLAS
 10
74.884594224982933
 20
140.270518972513
 30
0.0
  0
VERTEX
  5
1C5F
  8
SAPA_GLAS
 10
31.526259988898431
 20
124.489375903213
 30
0.0
  0
VERTEX
  5
1C60
  8
SAPA_GLAS
 10
28.448078698967372
 20
132.94660949028619
 30
0.0
  0
VERTEX
  5
1C61
  8
SAPA_GLAS
 10
71.806412935051924
 20
148.72775255958621
 30
0.0
  0
SEQEND
  5
1C62
  8
SAPA_GLAS
  0
POLYLINE
  5
1241
  8
SAPA_GLAS
 66
     1
 10
0.0
 20
0.0
 30
0.0
  0
VERTEX
  5
1C63
  8
SAPA_GLAS
 10
24.343836979059361
 20
144.22292093971711
 30
0.0
  0
VERTEX
  5
1C64
  8
SAPA_GLAS
 10
28.448078698967372
 20
132.94660949028619
 30
0.0
  0
VERTEX
  5
1C65
  8
SAPA_GLAS
 10
37.845004906826503
 20
136.36681092354289
 30
0.0
  0
VERTEX
  5
1C66
  8
SAPA_GLAS
 10
33.740763186918478
 20
147.64312237297381
 30
0.0
  0
VERTEX
  5
1C67
  8
SAPA_GLAS
 10
24.343836979059351
 20
144.22292093971711
 30
0.0
  0
SEQEND
  5
1C68
  8
SAPA_GLAS
  0
POLYLINE
  5
1242
  8
SAPA_GLAS
 66
     1
 10
0.0
 20
0.0
 30
0.0
  0
VERTEX
  5
1C69
  8
SAPA_GLAS
 10
65.650050355189876
 20
165.6422197337325
 30
0.0
  0
VERTEX
  5
1C6A
  8
SAPA_GLAS
 10
22.291716119105331
 20
149.8610766644326
 30
0.0
  0
VERTEX
  5
1C6B
  8
SAPA_GLAS
 10
24.343836979059351
 20
144.22292093971711
 30
0.0
  0
VERTEX
  5
1C6C
  8
SAPA_GLAS
 10
67.702171215143892
 20
160.0040640090171
 30
0.0
  0
SEQEND
  5
1C6D
  8
SAPA_GLAS
  0
INSERT
  5
1249
  8
SAPA_ISOLATOR
  6
CONTINUOUS
  2
*X84
 10
0.0
 20
0.0
 30
0.0
1001
ACAD
1000
HATCH
1002
{
1070
    19
1000
ANSI31
1040
0.35
1040
5.4977871437821371
1000
R14_HATCH_DATA
1000
1249
1011
1.0
1021
0.0
1031
0.0
1021
0.0
1031
0.0
1011
0.0
1021
0.0
1031
0.0
1021
1.0
1031
0.0
1011
0.0
1021
0.0
1031
0.0
1021
0.0
1031
1.0
1040
0.0
1010
0.0
1020
0.0
1030
1.0
1000
ANSI31
1070
     0
1070
     0
1071
        1
1071
        1
1071
       49
1070
     2
1040
22.079239958145319
1040
67.775143604191953
1040
0.3006817060114675
1040
2.7975852236050942
1040
4.0135032044963737
1070
     0
1070
     1
1040
21.885791847728189
1040
68.005333345288321
1040
23.86905305233164
1040
69.669487090599233
1070
     2
1040
23.611938008454018
1040
69.975904867847618
1040
0.400000000002539
1040
-0.8726646259926887
1040
0.3490658503995165
1070
     1
1070
     1
1040
23.987815056770678
1040
70.112712925178997
1040
20.423993556217159
1040
79.904232024916595
1070
     1
1040
20.423993556217159
1040
79.90423202491661
1040
16.86017205566225
1040
89.695751124657946
1070
     2
1040
16.484295007348809
1040
89.558943067326155
1040
0.3999999999996487
1040
0.3490658504032447
1040
1.5707963267954761
1070
     1
1070
     1
1040
16.484295007348582
1040
89.958943067325777
1040
13.895331374218211
1040
89.958943067325777
1070
     2
1040
13.895450594347141
1040
90.259470432962445
1040
0.3005273892841633
1040
7.8543783370248654
1040
9.0710110618559163
1070
     0
1070
     2
1040
18.760304829582441
1040
92.272952369374309
1040
5.5653807064749881
1040
9.0344473802330114
1040
9.0976116922730803
1070
     0
1070
     1
1040
13.49012975358143
1040
90.484456611397277
1040
13.27767535986102
1040
90.662727014810443
1070
     2
1040
13.41266075789545
1040
90.82359634786522
1040
0.2100000000000017
1040
8.5521133347738001
1040
10.646508437164901
1070
     0
1070
     1
1040
13.340836527796959
1040
91.020931798230222
1040
13.5918420788633
1040
91.112290347454078
1070
     1
1040
13.5918420788633
1040
91.112290347454078
1040
13.66297502519285
1040
91.490569122983587
1070
     1
1040
13.662975025192861
1040
91.490569122983572
1040
13.860070762336489
1040
92.608733538671416
1070
     2
1040
13.65326113420563
1040
92.645199655980264
1040
0.209999999998109
1040
-0.1745329251951206
1040
0.3490658504015052
1070
     1
1070
     1
1040
13.8505965845687
1040
92.717023886078522
1040
13.74399579348812
1040
93.009907152468728
1070
     2
1040
13.368118745176741
1040
92.873099095141598
1040
0.3999999999961332
1040
0.3490658503940875
1040
1.919862177204223
1070
     1
1070
     1
1040
13.231310687843861
1040
93.248976143450875
1040
10.036355777171989
1040
92.086107656143753
1070
     2
1040
10.173163834498521
1040
91.71023060783115
1040
0.3999999999970675
1040
1.9198621771864881
1040
3.4906585039960749
1070
     1
1070
     1
1040
9.7972867861879251
1040
91.573422550499089
1040
9.9038875772689803
1040
91.280539284107917
1070
     2
1040
10.101223027628709
1040
91.352363514206147
1040
0.2099999999949488
1040
-2.7925268031830428
1040
-2.2689280275864161
1070
     1
1070
     1
1040
9.9662376295987798
1040
91.191494181154184
1040
10.836035356333401
1040
90.461647229452382
1070
     1
1040
10.836035356333401
1040
90.461647229452382
1040
11.36211740869846
1040
90.020211973343862
1070
     2
1040
10.59077227706819
1040
89.100958641592243
1040
1.2000000000109059
1040
5.4105206811817883
1040
5.9341194567784399
1070
     0
1070
     1
1040
11.7184034220206
1040
89.511382813589336
1040
12.043960197580789
1040
88.616922923986564
1070
     2
1040
12.98365281835633
1040
88.958943067318074
1040
0.9999999999922531
1040
-2.792526803181917
1040
-1.5707963267894101
1070
     1
1070
     1
1040
12.98365281836182
1040
87.958943067325819
1040
15.29671548542399
1040
87.958943067325819
1070
     2
1040
15.29671548542343
1040
87.558943067324435
1040
0.4000000000013905
1040
4.7123889803861001
1040
5.9341194567783306
1070
     0
1070
     1
1040
15.67259253373877
1040
87.695751124656084
1040
18.732546838802541
1040
79.288595766930399
1070
     1
1040
18.732546838802541
1040
79.288595766930399
1040
21.792501143866382
1040
70.8814404092047
1070
     2
1040
21.416624095553701
1040
70.744632351873989
1040
0.3999999999985774
1040
5.9341194567782347
1040
7.1558499331704377
1070
     0
1070
     1
1040
21.67373913942933
1040
70.438214574629114
1040
19.901830336737511
1040
68.951406551810663
1070
     2
1040
20.544617946439629
1040
68.185362108687514
1040
1.0000000000132101
1040
2.2689280276018788
1040
3.4906585039940992
1070
     1
1070
     1
1040
19.604925325643169
1040
67.843341965352209
1040
19.930482101193679
1040
66.948882075776723
1070
     2
1040
18.802850956261931
1040
66.538457903786863
1040
1.1999999999890261
1040
5.9341194567782241
1040
6.4577182323748747
1070
     0
1070
     1
1040
19.984620259866631
1040
66.330080090593341
1040
19.866806748965921
1040
65.661926468116931
1070
     1
1040
19.866806748965921
1040
65.661926468116931
1040
19.668200002449971
1040
64.535571637347317
1070
     2
1040
19.875009630589119
1040
64.499105520037887
1040
0.2100000000063851
1040
2.967059728398739
1040
3.4906585039954159
1070
     1
1070
     1
1040
19.67767418021857
1040
64.427281289935991
1040
19.784274971297471
1040
64.134398023550546
1070
     2
1040
20.160152019613591
1040
64.27120608088461
1040
0.4000000000029499
1040
-2.792526803183494
1040
-1.2217304763935151
1070
     1
1070
     1
1040
20.296960076945808
1040
63.895329032567822
1040
23.491914987614191
1040
65.058197519873744
1070
     2
1040
23.355106930281369
1040
65.434074568189274
1040
0.4000000000019782
1040
-1.2217304763910279
1040
0.3490658503989796
1070
     1
1070
     1
1040
23.730983978597578
1040
65.570882625520269
1040
23.62438318751823
1040
65.863765891906766
1070
     2
1040
23.427047737151561
1040
65.791941661807272
1040
0.2100000000019077
1040
0.3490658504011179
1040
0.872664625997746
1070
     1
1070
     1
1040
23.562033135186869
1040
65.952810994863796
1040
22.394662900814311
1040
66.926738911638694
1070
     1
1040
22.394662900814311
1040
66.926738911638694
1040
22.14365734974789
1040
66.835380362415066
1070
     2
1040
22.0718331196496
1040
67.032715812780154
1040
0.2100000000000017
1040
7.5049157835761227
1040
9.599310885967224
1070
     0
1070
     1
1040
21.865023491516979
1040
67.069181930089883
1040
21.913182992754908
1040
67.342308033904061
1070
     2
1040
27.099994236669261
1040
69.359844036508377
1040
5.5653807059176943
1040
9.0538125284652011
1040
9.1169768405052682
1070
     0
1071
        0
1070
     0
1070
     1
1040
5.4977871437821371
1040
0.35
1070
     0
1070
     1
1040
0.0
1040
0.0
1040
0.0
1040
0.0000000000000003
1040
1.111249999999999
1070
     0
1071
        1
1040
25.554295939063909
1040
65.808842637424263
1040
0.0
1002
}
  0
INSERT
  5
124A
  8
SAPA_ISOLATOR
  6
CONTINUOUS
  2
*X85
 10
0.0
 20
0.0
 30
0.0
1001
ACAD
1000
HATCH
1002
{
1070
    19
1000
ANSI31
1040
0.35
1040
5.4977871437821371
1000
R14_HATCH_DATA
1000
124A
1011
1.0
1021
0.0
1031
0.0
1021
0.0
1031
0.0
1011
0.0
1021
0.0
1031
0.0
1021
1.0
1031
0.0
1011
0.0
1021
0.0
1031
0.0
1021
0.0
1031
1.0
1040
0.0
1010
0.0
1020
0.0
1030
1.0
1000
ANSI31
1070
     0
1070
     0
1071
        1
1071
        1
1071
       36
1070
     1
1040
-6.0528964958766007
1040
56.571246230595669
1040
-6.1192932948439953
1040
56.194691271731124
1070
     1
1040
-6.1192932948439953
1040
56.194691271731131
1040
-6.3164604325251528
1040
55.076500868374062
1070
     2
1040
-6.1096508043925617
1040
55.040034751064049
1040
0.2100000000000184
1040
2.9670597283906122
1040
3.4906585039889202
1070
     1
1070
     1
1040
-6.306986254757601
1040
54.968210520965599
1040
-6.2003854636775966
1040
54.67532725457729
1070
     2
1040
-5.8245084153632547
1040
54.812135311907547
1040
0.3999999999999772
1040
3.4906585039886582
1040
5.0614548307835552
1070
     1
1070
     1
1040
-5.6877003580329957
1040
54.43625826359321
1040
-2.4927454473608752
1040
55.599126750900503
1070
     2
1040
-2.629553504691132
1040
55.975003799214832
1040
0.3999999999999772
1040
5.0614548307835552
1040
6.6322511575784509
1070
     1
1070
     1
1040
-2.2536764563767919
1040
56.111811856545089
1040
-2.3602772474567431
1040
56.404695122933433
1070
     2
1040
-2.557612697821809
1040
56.332870892834983
1040
0.2100000000000461
1040
0.3490658503991025
1040
0.8726646259974114
1070
     1
1070
     1
1040
-2.422627299787647
1040
56.493740225890029
1040
-3.2924250265222348
1040
57.223587177591881
1070
     1
1040
-3.2924250265222339
1040
57.223587177591881
1040
-3.9717159675140721
1040
57.79357995564019
1070
     2
1040
-3.2003708358902321
1040
58.712833287383013
1040
1.2000000000000319
1040
2.2689280275925978
1040
2.7925268031909058
1070
     0
1070
     1
1040
-4.328001980833343
1040
58.302409115392173
1040
-5.6386405472692882
1040
61.903358981741313
1070
     1
1040
-5.6386405472692891
1040
61.90335898174132
1040
-6.9492791137052343
1040
65.50430884809046
1070
     2
1040
-5.8216479687621048
1040
65.914733020081243
1040
1.2000000000000319
1040
2.792526803190948
1040
3.3161255787892561
1070
     0
1070
     1
1040
-7.0034172723767787
1040
66.123110833281601
1040
-6.8508741259440464
1040
66.988226006352804
1070
     1
1040
-6.8508741259440473
1040
66.988226006352804
1040
-6.6522673794280713
1040
68.114580837122361
1070
     2
1040
-6.8590770075606713
1040
68.151046954432488
1040
0.2100000000000466
1040
6.108652381979903
1040
6.632251157578211
1070
     1
1070
     1
1040
-6.6617415571955689
1040
68.222871184530845
1040
-6.7683423482756266
1040
68.515754450919133
1070
     2
1040
-7.1442193965899694
1040
68.378946393588876
1040
0.3999999999999772
1040
6.6322511575784509
1040
8.2030474843733483
1070
     1
1070
     1
1040
-7.2810274539202293
1040
68.754823441903213
1040
-10.475982364592349
1040
67.591954954595934
1070
     2
1040
-10.339174307262089
1040
67.216077906281583
1040
0.3999999999999772
1040
1.919862177193761
1040
3.4906585039886582
1070
     1
1070
     1
1040
-10.71505135557643
1040
67.079269848951327
1040
-10.60845056449641
1040
66.786386582562955
1070
     2
1040
-10.411115114131441
1040
66.858210812661298
1040
0.2099999999999119
1040
3.4906585039885281
1040
4.0142572795868361
1070
     1
1070
     1
1040
-10.54610051216558
1040
66.697341479606393
1040
-9.6699519883017722
1040
65.962165576375796
1070
     1
1040
-9.6699519883017722
1040
65.96216557637581
1040
-9.3833950246168438
1040
65.721715733836504
1070
     1
1040
-9.3833950246168421
1040
65.721715733836504
1040
-9.1277247267241766
1040
65.81477211205528
1070
     2
1040
-9.0559004966258865
1040
65.617436661690206
1040
0.2100000000000013
1040
4.3633231299863313
1040
6.4577182323774336
1070
     0
1070
     1
1040
-8.8490908684932634
1040
65.580970544380463
1040
-8.8978843038773192
1040
65.304249221368536
1070
     2
1040
-9.7683569760630036
1040
64.478248418113523
1040
1.200000000000004
1040
5.5239954440609154
1040
5.9341194567807882
1070
     0
1070
     1
1040
-8.6407258311198802
1040
64.88867259010425
1040
-7.330087264683935
1040
61.28772272375511
1070
     1
1040
-7.330087264683935
1040
61.28772272375511
1040
-6.0194486982479907
1040
57.68677285740597
1070
     2
1040
-7.147079843191058
1040
57.276348685415087
1040
1.2000000000000051
1040
5.9341194567806541
1040
6.344243469502489
1070
     0
1070
     1
1040
-5.9493160078529801
1040
57.203124408319113
1040
-5.7340650300500293
1040
57.022507392233727
1070
     2
1040
-5.8690504280844582
1040
56.861638059178958
1040
0.2100000000000013
1040
5.4105206811840052
1040
7.5049157835751101
1070
     0
1070
     1
1040
-5.7972261979859683
1040
56.664302608813962
1040
-6.0528964958766007
1040
56.571246230595669
1071
        0
1070
     0
1070
     1
1040
5.4977871437821371
1040
0.35
1070
     0
1070
     1
1040
0.0
1040
0.0
1040
0.0
1040
0.0000000000000003
1040
1.111249999999999
1070
     0
1071
        1
1040
-10.85185940127179
1040
67.455146962810019
1040
0.0
1002
}
  0
CIRCLE
  5
125F
  8
SAPA_FOGBAND
 10
11.68082887237648
 20
99.415168771828746
 30
0.0
 40
0.8
  0
POLYLINE
  5
1260
  8
SAPA_FOGBAND
 62
     2
 66
     1
 10
0.0
 20
0.0
 30
0.0
  0
VERTEX
  5
1E52
  8
SAPA_FOGBAND
 62
     2
 10
9.5780310343913655
 20
99.957239106586186
 30
0.0
  0
VERTEX
  5
1E53
  8
SAPA_FOGBAND
 62
     2
 10
10.36132715084006
 20
99.17394299013759
 30
0.0
  0
VERTEX
  5
1E54
  8
SAPA_FOGBAND
 62
     2
 10
10.073982645645
 20
98.831499143759544
 30
0.0
 42
0.4430158954262519
  0
VERTEX
  5
1E55
  8
SAPA_FOGBAND
 62
     2
 10
10.114130215891111
 20
98.537965446916061
 30
0.0
  0
VERTEX
  5
1E56
  8
SAPA_FOGBAND
 62
     2
 10
11.233545138264949
 20
97.77080905595534
 30
0.0
 42
0.3125358528825162
  0
VERTEX
  5
1E57
  8
SAPA_FOGBAND
 62
     2
 10
11.68909834956089
 20
97.773100588052202
 30
0.0
  0
VERTEX
  5
1E58
  8
SAPA_FOGBAND
 62
     2
 10
13.22103989972703
 20
98.845777609574654
 30
0.0
 42
0.3125358528825104
  0
VERTEX
  5
1E59
  8
SAPA_FOGBAND
 62
     2
 10
13.3790016101484
 20
99.273073850468947
 30
0.0
  0
VERTEX
  5
1E5A
  8
SAPA_FOGBAND
 62
     2
 10
13.040972862765249
 20
100.58736273141101
 30
0.0
 42
0.4430158954262519
  0
VERTEX
  5
1E5B
  8
SAPA_FOGBAND
 62
     2
 10
12.77887269161921
 20
100.7254835439789
 30
0.0
  0
VERTEX
  5
1E5C
  8
SAPA_FOGBAND
 62
     2
 10
12.358803127293299
 20
100.57259072624301
 30
0.0
  0
VERTEX
  5
1E5D
  8
SAPA_FOGBAND
 62
     2
 10
11.8905729261049
 20
101.57649837158969
 30
0.0
  0
SEQEND
  5
1E5E
  8
SAPA_FOGBAND
 62
     2
  0
POLYLINE
  5
1261
  8
SAPA_FOGBAND
 62
     2
 66
     1
 10
0.0
 20
0.0
 30
0.0
 70
     1
  0
VERTEX
  5
1E5F
  8
SAPA_FOGBAND
 62
     2
 10
9.5875269535864742
 20
99.963888220788846
 30
0.0
 42
-0.285714285714282
  0
VERTEX
  5
1E60
  8
SAPA_FOGBAND
 62
     2
 10
11.881152677595599
 20
101.5699022425717
 30
0.0
  0
VERTEX
  5
1E61
  8
SAPA_FOGBAND
 62
     2
 10
13.57989394275541
 20
102.7593736819051
 30
0.0
 42
0.3882600129940275
  0
VERTEX
  5
1E62
  8
SAPA_FOGBAND
 62
     2
 10
13.667950565386899
 20
103.15456030488011
 30
0.0
  0
VERTEX
  5
1E63
  8
SAPA_FOGBAND
 62
     2
 10
12.384958552930691
 20
105.79967498809189
 30
0.0
 42
0.4406523138893894
  0
VERTEX
  5
1E64
  8
SAPA_FOGBAND
 62
     2
 10
11.952756068488471
 20
105.8959795916896
 30
0.0
  0
VERTEX
  5
1E65
  8
SAPA_FOGBAND
 62
     2
 10
10.552176458902251
 20
104.9152831911945
 30
0.0
 42
0.1324021389273206
  0
VERTEX
  5
1E66
  8
SAPA_FOGBAND
 62
     2
 10
10.389185631251291
 20
104.6428461308263
 30
0.0
  0
VERTEX
  5
1E67
  8
SAPA_FOGBAND
 62
     2
 10
10.30326794444977
 20
104.41271101581511
 30
0.0
 42
-0.0974546877251531
  0
VERTEX
  5
1E68
  8
SAPA_FOGBAND
 62
     2
 10
10.087588786408
 20
104.2155206894727
 30
0.0
  0
VERTEX
  5
1E69
  8
SAPA_FOGBAND
 62
     2
 10
7.7148938007460446
 20
102.5541417746399
 30
0.0
 42
-0.0777736930649696
  0
VERTEX
  5
1E6A
  8
SAPA_FOGBAND
 62
     2
 10
7.4597566887480307
 20
102.4133032465907
 30
0.0
  0
VERTEX
  5
1E6B
  8
SAPA_FOGBAND
 62
     2
 10
7.235637838551634
 20
102.4247765061946
 30
0.0
 42
0.1093112119857678
  0
VERTEX
  5
1E6C
  8
SAPA_FOGBAND
 62
     2
 10
6.8984337992416487
 20
102.3569050382217
 30
0.0
  0
VERTEX
  5
1E6D
  8
SAPA_FOGBAND
 62
     2
 10
5.4978541896555821
 20
101.37620863772671
 30
0.0
 42
0.4406523138893994
  0
VERTEX
  5
1E6E
  8
SAPA_FOGBAND
 62
     2
 10
5.4405289593295754
 20
100.9371330380858
 30
0.0
  0
VERTEX
  5
1E6F
  8
SAPA_FOGBAND
 62
     2
 10
7.4873145962900347
 20
98.826832408388384
 30
0.0
 42
0.3882600129940462
  0
VERTEX
  5
1E70
  8
SAPA_FOGBAND
 62
     2
 10
7.8887856884264176
 20
98.774416781455855
 30
0.0
  0
VERTEX
  5
1E71
  8
SAPA_FOGBAND
 62
     2
 10
9.5780310343913655
 20
99.957239106586186
 30
0.0
  0
SEQEND
  5
1E72
  8
SAPA_FOGBAND
 62
     2
  0
POLYLINE
  5
1262
  8
SAPA_FOGBAND
 66
     1
 10
0.0
 20
0.0
 30
0.0
 70
     1
  0
VERTEX
  5
1E73
  8
SAPA_FOGBAND
 10
-28.852852323019459
 20
32.800588391352257
 30
0.0
 42
-0.4679153941829814
  0
VERTEX
  5
1E74
  8
SAPA_FOGBAND
 10
-28.563996506384289
 20
32.696329643464971
 30
0.0
  0
VERTEX
  5
1E75
  8
SAPA_FOGBAND
 10
-27.007243040945738
 20
28.41973675161595
 30
0.0
 42
-0.6685323900181767
  0
VERTEX
  5
1E76
  8
SAPA_FOGBAND
 10
-27.279882467936829
 20
28.170153924317841
 30
0.0
 42
0.1991665782226247
  0
VERTEX
  5
1E77
  8
SAPA_FOGBAND
 10
-27.356434933678589
 20
28.17353378709679
 30
0.0
  0
VERTEX
  5
1E78
  8
SAPA_FOGBAND
 10
-29.788040487634468
 20
27.28850174398071
 30
0.0
 42
0.4142135623731784
  0
VERTEX
  5
1E79
  8
SAPA_FOGBAND
 10
-29.907574983126441
 20
27.032159191158371
 30
0.0
  0
VERTEX
  5
1E7A
  8
SAPA_FOGBAND
 10
-29.633958868465879
 20
26.280405094529581
 30
0.0
 42
-0.4142135623731368
  0
VERTEX
  5
1E7B
  8
SAPA_FOGBAND
 10
-29.753493363957851
 20
26.024062541707242
 30
0.0
  0
VERTEX
  5
1E7C
  8
SAPA_FOGBAND
 10
-30.12937041227234
 20
25.887254484377049
 30
0.0
 42
0.4142135623733448
  0
VERTEX
  5
1E7D
  8
SAPA_FOGBAND
 10
-30.248904907764199
 20
25.63091193155476
 30
0.0
  0
VERTEX
  5
1E7E
  8
SAPA_FOGBAND
 10
-29.88239652974762
 20
24.623938438913282
 30
0.0
 42
0.703825529076487
  0
VERTEX
  5
1E7F
  8
SAPA_FOGBAND
 10
-29.69413086059205
 20
24.624851001277349
 30
0.0
  0
VERTEX
  5
1E80
  8
SAPA_FOGBAND
 10
-29.267682071720468
 20
25.83281887743771
 30
0.0
 42
-0.9999999999999856
  0
VERTEX
  5
1E81
  8
SAPA_FOGBAND
 10
-28.513310815104301
 20
25.56650326168965
 30
0.0
  0
VERTEX
  5
1E82
  8
SAPA_FOGBAND
 10
-29.112520950537281
 20
23.869167934303199
 30
0.0
 42
-0.2242387338110932
  0
VERTEX
  5
1E83
  8
SAPA_FOGBAND
 10
-29.863700859843149
 20
23.110670307926959
 30
0.0
 42
-0.2242387338111004
  0
VERTEX
  5
1E84
  8
SAPA_FOGBAND
 10
-30.926690931360621
 20
23.208864061384212
 30
0.0
  0
VERTEX
  5
1E85
  8
SAPA_FOGBAND
 10
-32.476738643796978
 20
24.123933506383182
 30
0.0
 42
-1.0000000000000899
  0
VERTEX
  5
1E86
  8
SAPA_FOGBAND
 10
-32.070041112686269
 20
24.812843600799379
 30
0.0
  0
VERTEX
  5
1E87
  8
SAPA_FOGBAND
 10
-30.96689560400117
 20
24.161602519453091
 30
0.0
 42
0.7038255290763446
  0
VERTEX
  5
1E88
  8
SAPA_FOGBAND
 10
-30.82208915053371
 20
24.281918295587431
 30
0.0
  0
VERTEX
  5
1E89
  8
SAPA_FOGBAND
 10
-31.188597528550321
 20
25.288891788229009
 30
0.0
 42
0.4142135623729703
  0
VERTEX
  5
1E8A
  8
SAPA_FOGBAND
 10
-31.444940081372589
 20
25.40842628372112
 30
0.0
  0
VERTEX
  5
1E8B
  8
SAPA_FOGBAND
 10
-31.82081712968693
 20
25.27161822639086
 30
0.0
 42
-0.4142135623730117
  0
VERTEX
  5
1E8C
  8
SAPA_FOGBAND
 10
-32.077159682509262
 20
25.391152721882829
 30
0.0
  0
VERTEX
  5
1E8D
  8
SAPA_FOGBAND
 10
-32.350775797169717
 20
26.142906818511658
 30
0.0
 42
0.4142135623731784
  0
VERTEX
  5
1E8E
  8
SAPA_FOGBAND
 10
-32.607118349992092
 20
26.262441314003741
 30
0.0
  0
VERTEX
  5
1E8F
  8
SAPA_FOGBAND
 10
-35.038723903947769
 20
25.377409270887131
 30
0.0
 42
0.1991665782227297
  0
VERTEX
  5
1E90
  8
SAPA_FOGBAND
 10
-35.095193961019497
 20
25.325613169317201
 30
0.0
 42
-0.6685323900181511
  0
VERTEX
  5
1E91
  8
SAPA_FOGBAND
 10
-35.464476628018872
 20
25.341555461684809
 30
0.0
  0
VERTEX
  5
1E92
  8
SAPA_FOGBAND
 10
-37.021219824917367
 20
29.618120144593359
 30
0.0
 42
-0.4679406819625479
  0
VERTEX
  5
1E93
  8
SAPA_FOGBAND
 10
-36.866965339348667
 20
29.883675514439751
 30
0.0
  0
VERTEX
  5
1E94
  8
SAPA_FOGBAND
 10
-36.165687652607552
 20
30.003486053511502
 30
0.0
 42
-0.3624646087620003
  0
VERTEX
  5
1E95
  8
SAPA_FOGBAND
 10
-35.944067928165737
 20
29.874746538667491
 30
0.0
  0
VERTEX
  5
1E96
  8
SAPA_FOGBAND
 10
-35.904558113682938
 20
29.76619421552914
 30
0.0
 42
0.3515239862759624
  0
VERTEX
  5
1E97
  8
SAPA_FOGBAND
 10
-35.690614051965611
 20
29.636296171547091
 30
0.0
  0
VERTEX
  5
1E98
  8
SAPA_FOGBAND
 10
-34.150129947848292
 20
29.856249000242091
 30
0.0
 42
0.751570456352482
  0
VERTEX
  5
1E99
  8
SAPA_FOGBAND
 10
-34.123329181907287
 20
30.046482480915252
 30
0.0
  0
VERTEX
  5
1E9A
  8
SAPA_FOGBAND
 10
-35.543665740158119
 20
29.766866950705559
 30
0.0
 42
-0.7197481174277197
  0
VERTEX
  5
1E9B
  8
SAPA_FOGBAND
 10
-35.478279272991237
 20
30.42742161186311
 30
0.0
  0
VERTEX
  5
1E9C
  8
SAPA_FOGBAND
 10
-33.375154556544928
 20
30.907483194955621
 30
0.0
 42
0.5053637834253038
  0
VERTEX
  5
1E9D
  8
SAPA_FOGBAND
 10
-33.190452767480892
 20
31.063121436906641
 30
0.0
  0
VERTEX
  5
1E9E
  8
SAPA_FOGBAND
 10
-33.193714037669558
 20
31.1130149647114
 30
0.0
 42
-0.3333333333331249
  0
VERTEX
  5
1E9F
  8
SAPA_FOGBAND
 10
-33.06254395511759
 20
31.313998569622861
 30
0.0
  0
VERTEX
  5
1EA0
  8
SAPA_FOGBAND
 10
-32.686666906803289
 20
31.45080662695322
 30
0.0
 42
-0.3333333333331312
  0
VERTEX
  5
1EA1
  8
SAPA_FOGBAND
 10
-32.456995022973558
 20
31.38115875707879
 30
0.0
  0
VERTEX
  5
1EA2
  8
SAPA_FOGBAND
 10
-32.427422359402691
 20
31.340841793287339
 30
0.0
 42
0.505363783425254
  0
VERTEX
  5
1EA3
  8
SAPA_FOGBAND
 10
-32.185890246736527
 20
31.34034000440089
 30
0.0
  0
VERTEX
  5
1EA4
  8
SAPA_FOGBAND
 10
-30.266225607018171
 20
32.324454005675221
 30
0.0
 42
-0.7197481174279296
  0
VERTEX
  5
1EA5
  8
SAPA_FOGBAND
 10
-29.791540315477299
 20
31.860469389055211
 30
0.0
  0
VERTEX
  5
1EA6
  8
SAPA_FOGBAND
 10
-31.05931464157873
 20
31.1616925709538
 30
0.0
 42
0.7515704563522813
  0
VERTEX
  5
1EA7
  8
SAPA_FOGBAND
 10
-30.916504339433871
 20
31.03319247046576
 30
0.0
  0
VERTEX
  5
1EA8
  8
SAPA_FOGBAND
 10
-29.59504209876112
 20
31.854902923341289
 30
0.0
 42
0.3515239862759173
  0
VERTEX
  5
1EA9
  8
SAPA_FOGBAND
 10
-29.514648292338421
 20
32.091931190143939
 30
0.0
  0
VERTEX
  5
1EAA
  8
SAPA_FOGBAND
 10
-29.554158106821141
 20
32.20048351328208
 30
0.0
 42
-0.3624646087620678
  0
VERTEX
  5
1EAB
  8
SAPA_FOGBAND
 10
-29.467139713445771
 20
32.441558116171613
 30
0.0
  0
SEQEND
  5
1EAC
  8
SAPA_FOGBAND
  0
POLYLINE
  5
1263
  8
SAPA_FOGBAND
 66
     1
 10
0.0
 20
0.0
 30
0.0
 70
     1
  0
VERTEX
  5
1EAD
  8
SAPA_FOGBAND
 10
-39.539106849829523
 20
62.735865522245611
 30
0.0
 42
0.4142135623731784
  0
VERTEX
  5
1EAE
  8
SAPA_FOGBAND
 10
-39.282764297007361
 20
62.61633102675345
 30
0.0
  0
VERTEX
  5
1EAF
  8
SAPA_FOGBAND
 10
-34.650522324746873
 20
64.302329222574585
 30
0.0
 42
-0.2663342079579515
  0
VERTEX
  5
1EB0
  8
SAPA_FOGBAND
 10
-33.670345196067409
 20
64.132542870138764
 30
0.0
  0
VERTEX
  5
1EB1
  8
SAPA_FOGBAND
 10
-29.59381782628148
 20
61.266163421054728
 30
0.0
 42
-0.052861208559515
  0
VERTEX
  5
1EB2
  8
SAPA_FOGBAND
 10
-29.446569732586148
 20
61.115239270219909
 30
0.0
 42
-0.2389362379610746
  0
VERTEX
  5
1EB3
  8
SAPA_FOGBAND
 10
-29.254000617552592
 20
59.86166122805745
 30
0.0
 42
-0.4294697894411934
  0
VERTEX
  5
1EB4
  8
SAPA_FOGBAND
 10
-29.522378702883991
 20
59.751589417889612
 30
0.0
  0
VERTEX
  5
1EB5
  8
SAPA_FOGBAND
 10
-33.627008549731812
 20
60.640555848261847
 30
0.0
 42
0.1982170680849751
  0
VERTEX
  5
1EB6
  8
SAPA_FOGBAND
 10
-34.389220437342999
 20
60.672813128081728
 30
0.0
  0
VERTEX
  5
1EB7
  8
SAPA_FOGBAND
 10
-34.500722471575607
 20
60.632229706561169
 30
0.0
 42
0.2084822249037384
  0
VERTEX
  5
1EB8
  8
SAPA_FOGBAND
 10
-35.07992751863862
 20
60.081566838613597
 30
0.0
  0
VERTEX
  5
1EB9
  8
SAPA_FOGBAND
 10
-38.577105074161452
 20
58.148234154680189
 30
0.0
  0
VERTEX
  5
1EBA
  8
SAPA_FOGBAND
 10
-39.220941803491712
 20
58.300759072553618
 30
0.0
  0
VERTEX
  5
1EBB
  8
SAPA_FOGBAND
 10
-36.451184676490058
 20
60.370360770833628
 30
0.0
 42
0.6313983151680102
  0
VERTEX
  5
1EBC
  8
SAPA_FOGBAND
 10
-36.880475288542371
 20
60.700762543687937
 30
0.0
  0
VERTEX
  5
1EBD
  8
SAPA_FOGBAND
 10
-39.429459369829047
 20
59.404625352122558
 30
0.0
 42
0.379100851898285
  0
VERTEX
  5
1EBE
  8
SAPA_FOGBAND
 10
-39.575389519513358
 20
59.03460561770693
 30
0.0
  0
VERTEX
  5
1EBF
  8
SAPA_FOGBAND
 10
-39.495232726546391
 20
58.81437663901427
 30
0.0
 42
-0.4142135623730951
  0
VERTEX
  5
1EC0
  8
SAPA_FOGBAND
 10
-39.674534469784717
 20
58.429862809780992
 30
0.0
  0
VERTEX
  5
1EC1
  8
SAPA_FOGBAND
 10
-43.951753181391339
 20
56.87308251330974
 30
0.0
  0
VERTEX
  5
1EC2
  8
SAPA_FOGBAND
 10
-49.719028827039708
 20
54.21878926266254
 30
0.0
  0
VERTEX
  5
1EC3
  8
SAPA_FOGBAND
 10
-49.719028827039708
 20
54.21878926266254
 30
0.0
  0
VERTEX
  5
1EC4
  8
SAPA_FOGBAND
 10
-50.413854669459653
 20
54.408934725912431
 30
0.0
 42
0.0144193411868444
  0
VERTEX
  5
1EC5
  8
SAPA_FOGBAND
 10
-50.710739118881271
 20
55.625194271373132
 30
0.0
  0
VERTEX
  5
1EC6
  8
SAPA_FOGBAND
 10
-46.458285119969027
 20
58.94047725936241
 30
0.0
  0
VERTEX
  5
1EC7
  8
SAPA_FOGBAND
 10
-47.091022385121491
 20
60.678908607816247
 30
0.0
 42
-0.4142135623731212
  0
VERTEX
  5
1EC8
  8
SAPA_FOGBAND
 10
-47.001371513502399
 20
60.871165522433103
 30
0.0
  0
VERTEX
  5
1EC9
  8
SAPA_FOGBAND
 10
-45.952495138830919
 20
61.252925302238317
 30
0.0
 42
-0.3812119866949899
  0
VERTEX
  5
1ECA
  8
SAPA_FOGBAND
 10
-45.766987277577961
 20
61.178971864241909
 30
0.0
  0
VERTEX
  5
1ECB
  8
SAPA_FOGBAND
 10
-45.436937587281832
 20
60.517867910292573
 30
0.0
 42
0.3812119866949819
  0
VERTEX
  5
1ECC
  8
SAPA_FOGBAND
 10
-45.251429726028448
 20
60.443914472296321
 30
0.0
  0
VERTEX
  5
1ECD
  8
SAPA_FOGBAND
 10
-42.101842159365162
 20
61.590270596776662
 30
0.0
 42
0.4142135623730951
  0
VERTEX
  5
1ECE
  8
SAPA_FOGBAND
 10
-41.982307663872803
 20
61.846613149598888
 30
0.0
  0
VERTEX
  5
1ECF
  8
SAPA_FOGBAND
 10
-42.255923778533742
 20
62.598367246227433
 30
0.0
 42
-0.4142135623730951
  0
VERTEX
  5
1ED0
  8
SAPA_FOGBAND
 10
-42.136389283041453
 20
62.854709799049878
 30
0.0
  0
VERTEX
  5
1ED1
  8
SAPA_FOGBAND
 10
-41.760512234727003
 20
62.99151785638017
 30
0.0
 42
0.4142135623731784
  0
VERTEX
  5
1ED2
  8
SAPA_FOGBAND
 10
-41.64097773923514
 20
63.247860409202481
 30
0.0
  0
VERTEX
  5
1ED3
  8
SAPA_FOGBAND
 10
-42.00748611725168
 20
64.254833901843838
 30
0.0
 42
0.7038255290761633
  0
VERTEX
  5
1ED4
  8
SAPA_FOGBAND
 10
-42.1957517864073
 20
64.253921339479888
 30
0.0
  0
VERTEX
  5
1ED5
  8
SAPA_FOGBAND
 10
-42.622200575278931
 20
63.045953463319378
 30
0.0
 42
-0.9999999999999552
  0
VERTEX
  5
1ED6
  8
SAPA_FOGBAND
 10
-43.376571831895149
 20
63.312269079067548
 30
0.0
  0
VERTEX
  5
1ED7
  8
SAPA_FOGBAND
 10
-42.777361696462151
 20
65.009604406454244
 30
0.0
 42
-0.2242387338111004
  0
VERTEX
  5
1ED8
  8
SAPA_FOGBAND
 10
-42.026181787156361
 20
65.768102032830086
 30
0.0
 42
-0.2242387338111007
  0
VERTEX
  5
1ED9
  8
SAPA_FOGBAND
 10
-40.963191715639013
 20
65.669908279373146
 30
0.0
  0
VERTEX
  5
1EDA
  8
SAPA_FOGBAND
 10
-39.413144003202582
 20
64.75483883437397
 30
0.0
 42
-0.9999999999999548
  0
VERTEX
  5
1EDB
  8
SAPA_FOGBAND
 10
-39.819841534313142
 20
64.065928739957712
 30
0.0
  0
VERTEX
  5
1EDC
  8
SAPA_FOGBAND
 10
-40.922987042998408
 20
64.717169821304154
 30
0.0
 42
0.7038255290761636
  0
VERTEX
  5
1EDD
  8
SAPA_FOGBAND
 10
-41.067793496465761
 20
64.596854045169493
 30
0.0
  0
VERTEX
  5
1EDE
  8
SAPA_FOGBAND
 10
-40.70128511844932
 20
63.589880552528363
 30
0.0
 42
0.4142135623730117
  0
VERTEX
  5
1EDF
  8
SAPA_FOGBAND
 10
-40.444942565627159
 20
63.470346057036203
 30
0.0
  0
VERTEX
  5
1EE0
  8
SAPA_FOGBAND
 10
-40.06906551731263
 20
63.607154114366288
 30
0.0
 42
-0.4142135623730951
  0
VERTEX
  5
1EE1
  8
SAPA_FOGBAND
 10
-39.812722964490121
 20
63.487619618874511
 30
0.0
  0
SEQEND
  5
1EE2
  8
SAPA_FOGBAND
  0
POLYLINE
  5
1264
  8
SAPA_FOGBAND
 66
     1
 10
0.0
 20
0.0
 30
0.0
 70
     1
  0
VERTEX
  5
1EE3
  8
SAPA_FOGBAND
 10
-3.9742664127795981
 20
76.59491026615413
 30
0.0
 42
0.3812119866949899
  0
VERTEX
  5
1EE4
  8
SAPA_FOGBAND
 10
-4.0688373254093779
 20
76.419016491214251
 30
0.0
  0
VERTEX
  5
1EE5
  8
SAPA_FOGBAND
 10
-3.896720626300143
 20
75.700429629464622
 30
0.0
 42
-0.3812119866949819
  0
VERTEX
  5
1EE6
  8
SAPA_FOGBAND
 10
-3.991291538930414
 20
75.524535854524757
 30
0.0
  0
VERTEX
  5
1EE7
  8
SAPA_FOGBAND
 10
-7.140879105594097
 20
74.378179730044195
 30
0.0
 42
-0.4142135623730951
  0
VERTEX
  5
1EE8
  8
SAPA_FOGBAND
 10
-7.3972216584162407
 20
74.497714225536299
 30
0.0
  0
VERTEX
  5
1EE9
  8
SAPA_FOGBAND
 10
-7.6708377730767401
 20
75.249468322164915
 30
0.0
 42
0.4142135623730951
  0
VERTEX
  5
1EEA
  8
SAPA_FOGBAND
 10
-7.9271803258991707
 20
75.369002817657133
 30
0.0
  0
VERTEX
  5
1EEB
  8
SAPA_FOGBAND
 10
-8.3030573742134042
 20
75.232194760326934
 30
0.0
 42
-0.4142135623731784
  0
VERTEX
  5
1EEC
  8
SAPA_FOGBAND
 10
-8.559399927035761
 20
75.351729255818952
 30
0.0
  0
VERTEX
  5
1EED
  8
SAPA_FOGBAND
 10
-8.9259083050522712
 20
76.35870274846026
 30
0.0
 42
-0.7038255290761633
  0
VERTEX
  5
1EEE
  8
SAPA_FOGBAND
 10
-8.7811018515847312
 20
76.479018524595062
 30
0.0
  0
VERTEX
  5
1EEF
  8
SAPA_FOGBAND
 10
-7.6779563428993702
 20
75.82777744324838
 30
0.0
 42
0.9999999999999552
  0
VERTEX
  5
1EF0
  8
SAPA_FOGBAND
 10
-7.27125881178908
 20
76.516687537664737
 30
0.0
  0
VERTEX
  5
1EF1
  8
SAPA_FOGBAND
 10
-8.8213065242254753
 20
77.431756982663799
 30
0.0
 42
0.2242387338111004
  0
VERTEX
  5
1EF2
  8
SAPA_FOGBAND
 10
-9.8842965957428834
 20
77.529950736120895
 30
0.0
 42
0.2242387338111007
  0
VERTEX
  5
1EF3
  8
SAPA_FOGBAND
 10
-10.635476505048381
 20
76.771453109744925
 30
0.0
  0
VERTEX
  5
1EF4
  8
SAPA_FOGBAND
 10
-11.234686640481589
 20
75.074117782358144
 30
0.0
 42
0.9999999999999548
  0
VERTEX
  5
1EF5
  8
SAPA_FOGBAND
 10
-10.48031538386565
 20
74.807802166610074
 30
0.0
  0
VERTEX
  5
1EF6
  8
SAPA_FOGBAND
 10
-10.05386659499397
 20
76.015770042770455
 30
0.0
 42
-0.7038255290761636
  0
VERTEX
  5
1EF7
  8
SAPA_FOGBAND
 10
-9.8656009258382422
 20
76.016682605134775
 30
0.0
  0
VERTEX
  5
1EF8
  8
SAPA_FOGBAND
 10
-9.4990925478216877
 20
75.00970911249334
 30
0.0
 42
-0.4142135623730117
  0
VERTEX
  5
1EF9
  8
SAPA_FOGBAND
 10
-9.6186270433139747
 20
74.753366559670894
 30
0.0
  0
VERTEX
  5
1EFA
  8
SAPA_FOGBAND
 10
-9.9945040916279186
 20
74.616558502340524
 30
0.0
 42
0.4142135623730951
  0
VERTEX
  5
1EFB
  8
SAPA_FOGBAND
 10
-10.11403858712003
 20
74.360215949518263
 30
0.0
  0
VERTEX
  5
1EFC
  8
SAPA_FOGBAND
 10
-9.8404224724595526
 20
73.60846185288969
 30
0.0
 42
-0.4142135623731784
  0
VERTEX
  5
1EFD
  8
SAPA_FOGBAND
 10
-9.9599569679518236
 20
73.352119300067173
 30
0.0
  0
VERTEX
  5
1EFE
  8
SAPA_FOGBAND
 10
-14.59219894021245
 20
71.666121104245747
 30
0.0
 42
0.2663342079579515
  0
VERTEX
  5
1EFF
  8
SAPA_FOGBAND
 10
-15.23392161926953
 20
70.906011498831475
 30
0.0
  0
VERTEX
  5
1F00
  8
SAPA_FOGBAND
 10
-16.004864843106429
 20
66.682840051659099
 30
0.0
 42
0.1331863386191133
  0
VERTEX
  5
1F01
  8
SAPA_FOGBAND
 10
-15.96081464150944
 20
66.161236892962023
 30
0.0
 42
0.1798172683719535
  0
VERTEX
  5
1F02
  8
SAPA_FOGBAND
 10
-15.362383320096949
 20
65.388498660028986
 30
0.0
 42
0.4294697894411934
  0
VERTEX
  5
1F03
  8
SAPA_FOGBAND
 10
-15.086040983418471
 20
65.476688869475154
 30
0.0
  0
VERTEX
  5
1F04
  8
SAPA_FOGBAND
 10
-13.3645335688554
 20
69.142830606755325
 30
0.0
 42
-0.1982170680849751
  0
VERTEX
  5
1F05
  8
SAPA_FOGBAND
 10
-12.801379967661999
 20
69.657481474023641
 30
0.0
  0
VERTEX
  5
1F06
  8
SAPA_FOGBAND
 10
-12.689877933429621
 20
69.698064895544178
 30
0.0
 42
-0.2084822249037384
  0
VERTEX
  5
1F07
  8
SAPA_FOGBAND
 10
-11.89222185706941
 20
69.648538493241034
 30
0.0
  0
VERTEX
  5
1F08
  8
SAPA_FOGBAND
 10
-8.0585599742787348
 20
70.808722175423725
 30
0.0
 42
0.9101364515750665
  0
VERTEX
  5
1F09
  8
SAPA_FOGBAND
 10
-7.6841841115997891
 20
71.396534904101472
 30
0.0
  0
VERTEX
  5
1F0A
  8
SAPA_FOGBAND
 10
-11.02741109259348
 20
70.751194590985818
 30
0.0
 42
-0.6313983151680102
  0
VERTEX
  5
1F0B
  8
SAPA_FOGBAND
 10
-10.91093357055734
 20
71.280239719459459
 30
0.0
  0
VERTEX
  5
1F0C
  8
SAPA_FOGBAND
 10
-8.1251575522966029
 20
71.925796411080341
 30
0.0
 42
-0.379100851898285
  0
VERTEX
  5
1F0D
  8
SAPA_FOGBAND
 10
-7.7755244714254541
 20
71.736146941783389
 30
0.0
  0
VERTEX
  5
1F0E
  8
SAPA_FOGBAND
 10
-7.6953676784586147
 20
71.515917963091098
 30
0.0
 42
0.4142135623730951
  0
VERTEX
  5
1F0F
  8
SAPA_FOGBAND
 10
-7.3108538492252197
 20
71.336616219853113
 30
0.0
  0
VERTEX
  5
1F10
  8
SAPA_FOGBAND
 10
-3.033635137618516
 20
72.893396516324145
 30
0.0
  0
VERTEX
  5
1F11
  8
SAPA_FOGBAND
 10
1.585783360779047
 20
74.053591218864852
 30
0.0
 42
0.4294697894411934
  0
VERTEX
  5
1F12
  8
SAPA_FOGBAND
 10
1.854161446110159
 20
74.163663029032833
 30
0.0
 42
0.1798172683719743
  0
VERTEX
  5
1F13
  8
SAPA_FOGBAND
 10
1.815879872813515
 20
75.140279097006001
 30
0.0
 42
0.1331863386191133
  0
VERTEX
  5
1F14
  8
SAPA_FOGBAND
 10
1.514344237381245
 20
75.56816522203016
 30
0.0
  0
VERTEX
  5
1F15
  8
SAPA_FOGBAND
 10
-2.100395858338695
 20
75.14858782588675
 30
0.0
  0
VERTEX
  5
1F16
  8
SAPA_FOGBAND
 10
-2.7331331234911702
 20
76.887019174340651
 30
0.0
 42
0.4142135623731212
  0
VERTEX
  5
1F17
  8
SAPA_FOGBAND
 10
-2.92539003810804
 20
76.976670045959793
 30
0.0
  0
SEQEND
  5
1F18
  8
SAPA_FOGBAND
  0
CIRCLE
  5
1265
  8
SAPA_FOGBAND
 10
44.394438712384812
 20
68.951709419011451
 30
0.0
 40
0.2358905882584707
  0
POLYLINE
  5
1266
  8
SAPA_FOGBAND
 66
     1
 10
0.0
 20
0.0
 30
0.0
 70
     1
  0
VERTEX
  5
1F19
  8
SAPA_FOGBAND
 10
45.39129974496754
 20
69.816823223181132
 30
0.0
 42
0.3447914135838039
  0
VERTEX
  5
1F1A
  8
SAPA_FOGBAND
 10
43.074714423523908
 20
68.973655121037652
 30
0.0
 42
-3.0828215212176171
  0
SEQEND
  5
1F1B
  8
SAPA_FOGBAND
  0
POLYLINE
  5
1267
  8
SAPA_FOGBAND
 66
     1
 10
0.0
 20
0.0
 30
0.0
 70
     1
  0
VERTEX
  5
1F1C
  8
SAPA_FOGBAND
 10
43.310674302634887
 20
68.128381942598665
 30
0.0
 42
0.4142135623731159
  0
VERTEX
  5
1F1D
  8
SAPA_FOGBAND
 10
43.567016855457247
 20
68.008847447106646
 30
0.0
  0
VERTEX
  5
1F1E
  8
SAPA_FOGBAND
 10
43.754955379614472
 20
68.077251475771803
 30
0.0
 42
-0.4142135623730951
  0
VERTEX
  5
1F1F
  8
SAPA_FOGBAND
 10
44.139469208847913
 20
67.897949732533704
 30
0.0
  0
VERTEX
  5
1F20
  8
SAPA_FOGBAND
 10
44.433466564218698
 20
67.090198637272408
 30
0.0
 42
-0.78128606223657
  0
VERTEX
  5
1F21
  8
SAPA_FOGBAND
 10
44.207573216099711
 20
66.937831472212821
 30
0.0
  0
VERTEX
  5
1F22
  8
SAPA_FOGBAND
 10
43.523050242563919
 20
67.554178725996934
 30
0.0
 42
1.000000000000008
  0
VERTEX
  5
1F23
  8
SAPA_FOGBAND
 10
42.987745757475551
 20
66.959662865613666
 30
0.0
  0
VERTEX
  5
1F24
  8
SAPA_FOGBAND
 10
43.7349651034557
 20
66.286863544515512
 30
0.0
 42
0.2773245440598384
  0
VERTEX
  5
1F25
  8
SAPA_FOGBAND
 10
44.543885703203387
 20
66.129625308268729
 30
0.0
  0
VERTEX
  5
1F26
  8
SAPA_FOGBAND
 10
46.093956375406073
 20
66.693804893959509
 30
0.0
 42
0.2773245440598382
  0
VERTEX
  5
1F27
  8
SAPA_FOGBAND
 10
46.612554715738852
 20
67.334220509820199
 30
0.0
  0
VERTEX
  5
1F28
  8
SAPA_FOGBAND
 10
46.752490876110699
 20
68.329918028396634
 30
0.0
 42
1.0000000000000471
  0
VERTEX
  5
1F29
  8
SAPA_FOGBAND
 10
45.960276421117143
 20
68.44125650916466
 30
0.0
  0
VERTEX
  5
1F2A
  8
SAPA_FOGBAND
 10
45.832081779051428
 20
67.529104234438464
 30
0.0
 42
-0.7812856265067891
  0
VERTEX
  5
1F2B
  8
SAPA_FOGBAND
 10
45.56109776113594
 20
67.500622666466214
 30
0.0
  0
VERTEX
  5
1F2C
  8
SAPA_FOGBAND
 10
45.267100353790838
 20
68.308373904524444
 30
0.0
 42
-0.4142135623730951
  0
VERTEX
  5
1F2D
  8
SAPA_FOGBAND
 10
45.446402097029093
 20
68.692887733757942
 30
0.0
  0
VERTEX
  5
1F2E
  8
SAPA_FOGBAND
 10
45.634340621186311
 20
68.761291762423085
 30
0.0
 42
0.4142135623730951
  0
VERTEX
  5
1F2F
  8
SAPA_FOGBAND
 10
45.753875116678167
 20
69.017634315245388
 30
0.0
  0
VERTEX
  5
1F30
  8
SAPA_FOGBAND
 10
45.668238526853003
 20
69.252918912069163
 30
0.0
 42
3.9561540140094551
  0
VERTEX
  5
1F31
  8
SAPA_FOGBAND
 10
43.225037712809907
 20
68.363666539421914
 30
0.0
  0
SEQEND
  5
1F32
  8
SAPA_FOGBAND
  0
CIRCLE
  5
1268
  8
SAPA_FOGBAND
 10
6.7955928292104328
 20
41.121868498659531
 30
0.0
 40
0.3497642965545451
  0
POLYLINE
  5
1269
  8
SAPA_FOGBAND
 66
     1
 10
0.0
 20
0.0
 30
0.0
 70
     1
  0
VERTEX
  5
1F33
  8
SAPA_FOGBAND
 10
7.2630954555228548
 20
37.857345152020692
 30
0.0
  0
VERTEX
  5
1F34
  8
SAPA_FOGBAND
 10
6.1599499468378269
 20
38.508586233367119
 30
0.0
 42
0.9999999999999539
  0
VERTEX
  5
1F35
  8
SAPA_FOGBAND
 10
5.7532524157272267
 20
37.819676138950967
 30
0.0
  0
VERTEX
  5
1F36
  8
SAPA_FOGBAND
 10
7.303300128163583
 20
36.904606693951997
 30
0.0
 42
0.2242387338111005
  0
VERTEX
  5
1F37
  8
SAPA_FOGBAND
 10
8.3662901996810142
 20
36.806412940494859
 30
0.0
 42
0.2242387338111004
  0
VERTEX
  5
1F38
  8
SAPA_FOGBAND
 10
9.1174701089867192
 20
37.564910566870907
 30
0.0
  0
VERTEX
  5
1F39
  8
SAPA_FOGBAND
 10
9.7166802444197984
 20
39.26224589425739
 30
0.0
 42
0.9999999999999538
  0
VERTEX
  5
1F3A
  8
SAPA_FOGBAND
 10
8.9623089878036293
 20
39.528561510005453
 30
0.0
  0
VERTEX
  5
1F3B
  8
SAPA_FOGBAND
 10
8.5358601989319443
 20
38.32059363384505
 30
0.0
 42
-0.7038255290761731
  0
VERTEX
  5
1F3C
  8
SAPA_FOGBAND
 10
8.3475945297764085
 20
38.319681071480893
 30
0.0
  0
VERTEX
  5
1F3D
  8
SAPA_FOGBAND
 10
7.9810861517597962
 20
39.326654564122457
 30
0.0
 42
-0.4142135623730117
  0
VERTEX
  5
1F3E
  8
SAPA_FOGBAND
 10
8.1006206472518727
 20
39.582997116944831
 30
0.0
  0
VERTEX
  5
1F3F
  8
SAPA_FOGBAND
 10
8.4764976955661062
 20
39.719805174275052
 30
0.0
 42
0.4142135623730951
  0
VERTEX
  5
1F40
  8
SAPA_FOGBAND
 10
8.5960321910582191
 20
39.97614772709732
 30
0.0
  0
VERTEX
  5
1F41
  8
SAPA_FOGBAND
 10
8.322416076397662
 20
40.727901823726107
 30
0.0
 42
-0.4142135623731784
  0
VERTEX
  5
1F42
  8
SAPA_FOGBAND
 10
8.4419505718897376
 20
40.984244376548482
 30
0.0
  0
VERTEX
  5
1F43
  8
SAPA_FOGBAND
 10
10.873556125845621
 20
41.869276419664558
 30
0.0
 42
-0.1991665782226951
  0
VERTEX
  5
1F44
  8
SAPA_FOGBAND
 10
10.950108591587171
 20
41.865896556885552
 30
0.0
 42
0.6685323900181889
  0
VERTEX
  5
1F45
  8
SAPA_FOGBAND
 10
11.22274801858101
 20
42.115479384176417
 30
0.0
  0
VERTEX
  5
1F46
  8
SAPA_FOGBAND
 10
10.385334609979351
 20
44.416253815057978
 30
0.0
 42
0.4679280380114118
  0
VERTEX
  5
1F47
  8
SAPA_FOGBAND
 10
10.0964759550405
 20
44.520520360617297
 30
0.0
  0
VERTEX
  5
1F48
  8
SAPA_FOGBAND
 10
9.4822209569137605
 20
44.161509017644022
 30
0.0
 42
0.3624646087619923
  0
VERTEX
  5
1F49
  8
SAPA_FOGBAND
 10
9.3952025635381702
 20
43.920434414754411
 30
0.0
  0
VERTEX
  5
1F4A
  8
SAPA_FOGBAND
 10
9.4347123780209312
 20
43.81188209161617
 30
0.0
 42
-0.3515239862758881
  0
VERTEX
  5
1F4B
  8
SAPA_FOGBAND
 10
9.3543185715983643
 20
43.574853824813808
 30
0.0
  0
VERTEX
  5
1F4C
  8
SAPA_FOGBAND
 10
8.0328563309254406
 20
42.753143371938108
 30
0.0
 42
-0.7515704563522097
  0
VERTEX
  5
1F4D
  8
SAPA_FOGBAND
 10
7.8900460287807288
 20
42.88164347242607
 30
0.0
  0
VERTEX
  5
1F4E
  8
SAPA_FOGBAND
 10
9.1578203548822295
 20
43.580420290527627
 30
0.0
 42
0.7197481174278709
  0
VERTEX
  5
1F4F
  8
SAPA_FOGBAND
 10
8.6831350633413571
 20
44.044404907147637
 30
0.0
  0
VERTEX
  5
1F50
  8
SAPA_FOGBAND
 10
6.763470423622957
 20
43.060290905873408
 30
0.0
 42
-0.5053637834251774
  0
VERTEX
  5
1F51
  8
SAPA_FOGBAND
 10
6.5219383109569087
 20
43.060792694759542
 30
0.0
  0
VERTEX
  5
1F52
  8
SAPA_FOGBAND
 10
6.4923656473857889
 20
43.10110965855101
 30
0.0
 42
0.3333333333331314
  0
VERTEX
  5
1F53
  8
SAPA_FOGBAND
 10
6.2626937635562818
 20
43.170757528425519
 30
0.0
  0
VERTEX
  5
1F54
  8
SAPA_FOGBAND
 10
5.8868167152417952
 20
43.033949471095333
 30
0.0
 42
0.3333333333331314
  0
VERTEX
  5
1F55
  8
SAPA_FOGBAND
 10
5.7556466326897109
 20
42.832965866183841
 30
0.0
  0
VERTEX
  5
1F56
  8
SAPA_FOGBAND
 10
5.7589079028783807
 20
42.783072338379093
 30
0.0
 42
-0.5053637834251772
  0
VERTEX
  5
1F57
  8
SAPA_FOGBAND
 10
5.5742061138145278
 20
42.627434096427891
 30
0.0
  0
VERTEX
  5
1F58
  8
SAPA_FOGBAND
 10
3.471081397368101
 20
42.147372513335327
 30
0.0
 42
0.7197481174278715
  0
VERTEX
  5
1F59
  8
SAPA_FOGBAND
 10
3.4056949302014079
 20
41.486817852177971
 30
0.0
  0
VERTEX
  5
1F5A
  8
SAPA_FOGBAND
 10
4.8260314884521973
 20
41.76643338238776
 30
0.0
 42
-0.7515704563522123
  0
VERTEX
  5
1F5B
  8
SAPA_FOGBAND
 10
4.799230722511278
 20
41.576199901714411
 30
0.0
  0
VERTEX
  5
1F5C
  8
SAPA_FOGBAND
 10
3.2587466183938472
 20
41.356247073019361
 30
0.0
 42
-0.3515239862758881
  0
VERTEX
  5
1F5D
  8
SAPA_FOGBAND
 10
3.0448025566763679
 20
41.486145117001492
 30
0.0
  0
VERTEX
  5
1F5E
  8
SAPA_FOGBAND
 10
3.0052927421936051
 20
41.594697440139718
 30
0.0
 42
0.3624646087619912
  0
VERTEX
  5
1F5F
  8
SAPA_FOGBAND
 10
2.7836730177517599
 20
41.723436954983853
 30
0.0
  0
VERTEX
  5
1F60
  8
SAPA_FOGBAND
 10
2.082358346778566
 20
41.603620097301309
 30
0.0
 42
0.4679280380114149
  0
VERTEX
  5
1F61
  8
SAPA_FOGBAND
 10
1.928101022906179
 20
41.338072525126961
 30
0.0
  0
VERTEX
  5
1F62
  8
SAPA_FOGBAND
 10
2.7655144315051849
 20
39.03729809425267
 30
0.0
 42
0.6685323900181927
  0
VERTEX
  5
1F63
  8
SAPA_FOGBAND
 10
3.134797098504706
 20
39.021355801884987
 30
0.0
 42
-0.199166578222699
  0
VERTEX
  5
1F64
  8
SAPA_FOGBAND
 10
3.1912671555762899
 20
39.073151903454992
 30
0.0
  0
VERTEX
  5
1F65
  8
SAPA_FOGBAND
 10
5.6228727095320101
 20
39.958183946571488
 30
0.0
 42
-0.4142135623730951
  0
VERTEX
  5
1F66
  8
SAPA_FOGBAND
 10
5.8792152623543839
 20
39.838649451079412
 30
0.0
  0
VERTEX
  5
1F67
  8
SAPA_FOGBAND
 10
6.1528313770149428
 20
39.086895354450618
 30
0.0
 42
0.4142135623730951
  0
VERTEX
  5
1F68
  8
SAPA_FOGBAND
 10
6.4091739298372792
 20
38.967360858958642
 30
0.0
  0
VERTEX
  5
1F69
  8
SAPA_FOGBAND
 10
6.7850509781515118
 20
39.10416891628887
 30
0.0
 42
-0.4142135623731784
  0
VERTEX
  5
1F6A
  8
SAPA_FOGBAND
 10
7.0413935309738873
 20
38.984634420796787
 30
0.0
  0
VERTEX
  5
1F6B
  8
SAPA_FOGBAND
 10
7.4079019089904978
 20
37.977660928155217
 30
0.0
 42
-0.7038255290761719
  0
SEQEND
  5
1F6C
  8
SAPA_FOGBAND
  0
CIRCLE
  5
126A
  8
SAPA_FOGBAND
 10
26.79280467706695
 20
155.0190127737464
 30
0.0
 40
0.3497642965545451
  0
POLYLINE
  5
126B
  8
SAPA_FOGBAND
 66
     1
 10
0.0
 20
0.0
 30
0.0
 70
     1
  0
VERTEX
  5
1F6D
  8
SAPA_FOGBAND
 10
19.339597123827581
 20
147.15843319473581
 30
0.0
  0
VERTEX
  5
1F6E
  8
SAPA_FOGBAND
 10
21.912657228895291
 20
150.4777116087383
 30
0.0
 42
-0.198217068084988
  0
VERTEX
  5
1F6F
  8
SAPA_FOGBAND
 10
22.47583374951979
 20
150.99233739543601
 30
0.0
  0
VERTEX
  5
1F70
  8
SAPA_FOGBAND
 10
22.587337591025079
 20
151.03291585117131
 30
0.0
 42
-0.208482224903749
  0
VERTEX
  5
1F71
  8
SAPA_FOGBAND
 10
23.384991460935431
 20
150.98335392528239
 30
0.0
  0
VERTEX
  5
1F72
  8
SAPA_FOGBAND
 10
27.00127216166274
 20
151.58596370258891
 30
0.0
 42
0.9200886903235648
  0
VERTEX
  5
1F73
  8
SAPA_FOGBAND
 10
26.960493644400501
 20
152.0825631322403
 30
0.0
  0
VERTEX
  5
1F74
  8
SAPA_FOGBAND
 10
24.249851331371161
 20
152.0859715075643
 30
0.0
 42
-0.6313983151680703
  0
VERTEX
  5
1F75
  8
SAPA_FOGBAND
 10
24.366352414330091
 20
152.61501144818351
 30
0.0
  0
VERTEX
  5
1F76
  8
SAPA_FOGBAND
 10
27.15215717971148
 20
153.2604440745572
 30
0.0
 42
-0.3791008518980832
  0
VERTEX
  5
1F77
  8
SAPA_FOGBAND
 10
27.50178181419265
 20
153.0707790345308
 30
0.0
  0
VERTEX
  5
1F78
  8
SAPA_FOGBAND
 10
27.581928799177501
 20
152.85054648627229
 30
0.0
 42
0.4142135623733171
  0
VERTEX
  5
1F79
  8
SAPA_FOGBAND
 10
27.96643464282052
 20
152.67122761887831
 30
0.0
  0
VERTEX
  5
1F7A
  8
SAPA_FOGBAND
 10
32.243722681436857
 20
154.2278174277609
 30
0.0
  0
VERTEX
  5
1F7B
  8
SAPA_FOGBAND
 10
40.5247037247549
 20
156.50048538393941
 30
0.0
 42
0.8718123466474258
  0
VERTEX
  5
1F7C
  8
SAPA_FOGBAND
 10
40.379706939821723
 20
157.48048073371021
 30
0.0
  0
VERTEX
  5
1F7D
  8
SAPA_FOGBAND
 10
33.006094172705119
 20
156.95282871458821
 30
0.0
  0
VERTEX
  5
1F7E
  8
SAPA_FOGBAND
 10
32.37343432926459
 20
158.6912882402882
 30
0.0
 42
0.4142135623730951
  0
VERTEX
  5
1F7F
  8
SAPA_FOGBAND
 10
32.181181407442971
 20
158.7809476739848
 30
0.0
  0
VERTEX
  5
1F80
  8
SAPA_FOGBAND
 10
31.132288032130031
 20
158.39923460629441
 30
0.0
 42
0.3812119866950211
  0
VERTEX
  5
1F81
  8
SAPA_FOGBAND
 10
31.037709286159199
 20
158.22334504324681
 30
0.0
  0
VERTEX
  5
1F82
  8
SAPA_FOGBAND
 10
31.209793982814531
 20
157.50475051698839
 30
0.0
 42
-0.3812119866949977
  0
VERTEX
  5
1F83
  8
SAPA_FOGBAND
 10
31.115215236843628
 20
157.32886095394099
 30
0.0
  0
VERTEX
  5
1F84
  8
SAPA_FOGBAND
 10
27.965576620303789
 20
156.18264509756051
 30
0.0
 42
-0.4142135623729287
  0
VERTEX
  5
1F85
  8
SAPA_FOGBAND
 10
27.709239391208591
 20
156.3021910091569
 30
0.0
  0
VERTEX
  5
1F86
  8
SAPA_FOGBAND
 10
27.435656756207599
 20
157.05395729054061
 30
0.0
 42
0.414213562373428
  0
VERTEX
  5
1F87
  8
SAPA_FOGBAND
 10
27.179319527109911
 20
157.173503202136
 30
0.0
  0
VERTEX
  5
1F88
  8
SAPA_FOGBAND
 10
26.803436386418309
 20
157.03671188463511
 30
0.0
 42
-0.4142135623730951
  0
VERTEX
  5
1F89
  8
SAPA_FOGBAND
 10
26.5470991573231
 20
157.15625779623161
 30
0.0
  0
VERTEX
  5
1F8A
  8
SAPA_FOGBAND
 10
26.180635625259988
 20
158.16324761033391
 30
0.0
 42
-0.7038255290759504
  0
VERTEX
  5
1F8B
  8
SAPA_FOGBAND
 10
26.32544743685062
 20
158.28355693739061
 30
0.0
  0
VERTEX
  5
1F8C
  8
SAPA_FOGBAND
 10
27.428563941402668
 20
157.6322667280761
 30
0.0
 42
0.9999999999998999
  0
VERTEX
  5
1F8D
  8
SAPA_FOGBAND
 10
27.835292152738379
 20
158.3211587095241
 30
0.0
  0
VERTEX
  5
1F8E
  8
SAPA_FOGBAND
 10
26.28528519448103
 20
159.23629718503031
 30
0.0
 42
0.2242387338111125
  0
VERTEX
  5
1F8F
  8
SAPA_FOGBAND
 10
25.222299497079071
 20
159.33453827867979
 30
0.0
 42
0.2242387338111175
  0
VERTEX
  5
1F90
  8
SAPA_FOGBAND
 10
24.471085808807569
 20
158.57607410687399
 30
0.0
  0
VERTEX
  5
1F91
  8
SAPA_FOGBAND
 10
23.871800083095788
 20
156.87876546700821
 30
0.0
 42
0.9999999999999998
  0
VERTEX
  5
1F92
  8
SAPA_FOGBAND
 10
24.626159478591401
 20
156.61241625558159
 30
0.0
  0
VERTEX
  5
1F93
  8
SAPA_FOGBAND
 10
25.052662063919851
 20
157.82036513863551
 30
0.0
 42
-0.7038255290762128
  0
VERTEX
  5
1F94
  8
SAPA_FOGBAND
 10
25.24092777352957
 20
157.82126931658291
 30
0.0
  0
VERTEX
  5
1F95
  8
SAPA_FOGBAND
 10
25.607391305591982
 20
156.81427950247979
 30
0.0
 42
-0.4142135623730951
  0
VERTEX
  5
1F96
  8
SAPA_FOGBAND
 10
25.487845393995411
 20
156.55794227338291
 30
0.0
  0
VERTEX
  5
1F97
  8
SAPA_FOGBAND
 10
25.111962253304629
 20
156.42115095588241
 30
0.0
 42
0.4142135623732615
  0
VERTEX
  5
1F98
  8
SAPA_FOGBAND
 10
24.992416341710278
 20
156.16481372678729
 30
0.0
  0
VERTEX
  5
1F99
  8
SAPA_FOGBAND
 10
25.265998976710652
 20
155.41304744540261
 30
0.0
 42
-0.4142135623730951
  0
VERTEX
  5
1F9A
  8
SAPA_FOGBAND
 10
25.146453065114859
 20
155.15671021630629
 30
0.0
  0
VERTEX
  5
1F9B
  8
SAPA_FOGBAND
 10
20.514136011474658
 20
153.47091831917231
 30
0.0
 42
0.2663342079579334
  0
VERTEX
  5
1F9C
  8
SAPA_FOGBAND
 10
19.87237948155423
 20
152.71083729364861
 30
0.0
  0
VERTEX
  5
1F9D
  8
SAPA_FOGBAND
 10
18.420826981024309
 20
148.36462529556721
 30
0.0
 42
0.0528612085595121
  0
VERTEX
  5
1F9E
  8
SAPA_FOGBAND
 10
18.40503120715697
 20
148.15436214156719
 30
0.0
 42
0.2389362379610668
  0
VERTEX
  5
1F9F
  8
SAPA_FOGBAND
 10
19.06325085987255
 20
147.07025529229719
 30
0.0
 42
0.4294697894410435
  0
SEQEND
  5
1FA0
  8
SAPA_FOGBAND
  0
ARC
  5
126C
  8
SAPA_FOGBAND
 62
     2
 10
38.959352499914822
 20
126.855348107555
 30
0.0
 40
0.2
 50
109.9999999999999
 51
200.0
  0
CIRCLE
  5
126D
  8
SAPA_FOGBAND
 62
     2
 10
42.588193579916577
 20
117.63270319271361
 30
0.0
 40
0.3497642965545451
  0
POLYLINE
  5
126E
  8
SAPA_FOGBAND
 62
     2
 66
     1
 10
0.0
 20
0.0
 30
0.0
 70
     1
  0
VERTEX
  5
1FA1
  8
SAPA_FOGBAND
 62
     2
 10
47.015348769284508
 20
118.6263140782378
 30
0.0
  0
VERTEX
  5
1FA2
  8
SAPA_FOGBAND
 62
     2
 10
43.441774214080112
 20
128.44462947539941
 30
0.0
 42
0.467928038011413
  0
VERTEX
  5
1FA3
  8
SAPA_FOGBAND
 62
     2
 10
43.15291555914127
 20
128.54889602095869
 30
0.0
  0
VERTEX
  5
1FA4
  8
SAPA_FOGBAND
 62
     2
 10
42.538660561014389
 20
128.18988467798519
 30
0.0
 42
0.362464608761992
  0
VERTEX
  5
1FA5
  8
SAPA_FOGBAND
 62
     2
 10
42.451642167639008
 20
127.94881007509559
 30
0.0
  0
VERTEX
  5
1FA6
  8
SAPA_FOGBAND
 62
     2
 10
42.491151982121693
 20
127.84025775195759
 30
0.0
 42
-0.3515239862758894
  0
VERTEX
  5
1FA7
  8
SAPA_FOGBAND
 62
     2
 10
42.410758175698987
 20
127.603229485155
 30
0.0
  0
VERTEX
  5
1FA8
  8
SAPA_FOGBAND
 62
     2
 10
41.089295935026293
 20
126.78151903227931
 30
0.0
 42
-0.7515704563522143
  0
VERTEX
  5
1FA9
  8
SAPA_FOGBAND
 62
     2
 10
40.946485632881497
 20
126.9100191327675
 30
0.0
  0
VERTEX
  5
1FAA
  8
SAPA_FOGBAND
 62
     2
 10
42.214259958983028
 20
127.60879595086899
 30
0.0
 42
0.7197481174278725
  0
VERTEX
  5
1FAB
  8
SAPA_FOGBAND
 62
     2
 10
41.739574667441943
 20
128.07278056748891
 30
0.0
  0
VERTEX
  5
1FAC
  8
SAPA_FOGBAND
 62
     2
 10
39.819910027723601
 20
127.0886665662146
 30
0.0
 42
-0.5053637834251817
  0
VERTEX
  5
1FAD
  8
SAPA_FOGBAND
 62
     2
 10
39.578377915057501
 20
127.0891683551008
 30
0.0
  0
VERTEX
  5
1FAE
  8
SAPA_FOGBAND
 62
     2
 10
39.548805251486627
 20
127.12948531889219
 30
0.0
 42
0.3333333333331312
  0
VERTEX
  5
1FAF
  8
SAPA_FOGBAND
 62
     2
 10
39.319133367656868
 20
127.19913318876679
 30
0.0
  0
VERTEX
  5
1FB0
  8
SAPA_FOGBAND
 62
     2
 10
38.943256319342638
 20
127.06232513143659
 30
0.0
 42
0.3333333333331312
  0
VERTEX
  5
1FB1
  8
SAPA_FOGBAND
 62
     2
 10
38.812086236790563
 20
126.86134152652509
 30
0.0
  0
VERTEX
  5
1FB2
  8
SAPA_FOGBAND
 62
     2
 10
38.815347506979229
 20
126.8114479987203
 30
0.0
 42
-0.5053637834251815
  0
VERTEX
  5
1FB3
  8
SAPA_FOGBAND
 62
     2
 10
38.630645717915293
 20
126.6558097567693
 30
0.0
  0
VERTEX
  5
1FB4
  8
SAPA_FOGBAND
 62
     2
 10
36.527521001468919
 20
126.17574817367669
 30
0.0
 42
0.7197481174278725
  0
VERTEX
  5
1FB5
  8
SAPA_FOGBAND
 62
     2
 10
36.46213453430223
 20
125.5151935125193
 30
0.0
  0
VERTEX
  5
1FB6
  8
SAPA_FOGBAND
 62
     2
 10
37.882471092552827
 20
125.7948090427289
 30
0.0
 42
-0.7515704563522143
  0
VERTEX
  5
1FB7
  8
SAPA_FOGBAND
 62
     2
 10
37.855670326611872
 20
125.6045755620557
 30
0.0
  0
VERTEX
  5
1FB8
  8
SAPA_FOGBAND
 62
     2
 10
36.315186222494411
 20
125.3846227333607
 30
0.0
 42
-0.3515239862758894
  0
VERTEX
  5
1FB9
  8
SAPA_FOGBAND
 62
     2
 10
36.10124216077714
 20
125.5145207773429
 30
0.0
  0
VERTEX
  5
1FBA
  8
SAPA_FOGBAND
 62
     2
 10
36.061732346294463
 20
125.62307310048089
 30
0.0
 42
0.3624646087619919
  0
VERTEX
  5
1FBB
  8
SAPA_FOGBAND
 62
     2
 10
35.840112621852597
 20
125.75181261532509
 30
0.0
  0
VERTEX
  5
1FBC
  8
SAPA_FOGBAND
 62
     2
 10
35.138797950879329
 20
125.6319957576427
 30
0.0
 42
0.467928038011413
  0
VERTEX
  5
1FBD
  8
SAPA_FOGBAND
 62
     2
 10
34.98454062700673
 20
125.3664481854683
 30
0.0
  0
VERTEX
  5
1FBE
  8
SAPA_FOGBAND
 62
     2
 10
38.558115182211118
 20
115.5481327883066
 30
0.0
 42
0.6685323900181888
  0
VERTEX
  5
1FBF
  8
SAPA_FOGBAND
 62
     2
 10
38.927397849176813
 20
115.53219049595479
 30
0.0
 42
-0.1991665782226962
  0
VERTEX
  5
1FC0
  8
SAPA_FOGBAND
 62
     2
 10
38.983867906282399
 20
115.5839865975092
 30
0.0
  0
VERTEX
  5
1FC1
  8
SAPA_FOGBAND
 62
     2
 10
41.415473460238204
 20
116.46901864062541
 30
0.0
 42
-0.4142135623730951
  0
VERTEX
  5
1FC2
  8
SAPA_FOGBAND
 62
     2
 10
41.671816013060578
 20
116.3494841451334
 30
0.0
  0
VERTEX
  5
1FC3
  8
SAPA_FOGBAND
 62
     2
 10
41.945432127721098
 20
115.5977300485047
 30
0.0
 42
0.4142135623730951
  0
VERTEX
  5
1FC4
  8
SAPA_FOGBAND
 62
     2
 10
42.201774680543259
 20
115.4781955530125
 30
0.0
  0
VERTEX
  5
1FC5
  8
SAPA_FOGBAND
 62
     2
 10
42.57765172885771
 20
115.6150036103428
 30
0.0
 42
-0.4142135623731784
  0
VERTEX
  5
1FC6
  8
SAPA_FOGBAND
 62
     2
 10
42.833994281679857
 20
115.49546911485071
 30
0.0
  0
VERTEX
  5
1FC7
  8
SAPA_FOGBAND
 62
     2
 10
43.200502659696397
 20
114.4884956222093
 30
0.0
 42
-0.7038255290761635
  0
VERTEX
  5
1FC8
  8
SAPA_FOGBAND
 62
     2
 10
43.055696206229008
 20
114.3681798460747
 30
0.0
  0
VERTEX
  5
1FC9
  8
SAPA_FOGBAND
 62
     2
 10
41.952550697543757
 20
115.01942092742109
 30
0.0
 42
0.9999999999999552
  0
VERTEX
  5
1FCA
  8
SAPA_FOGBAND
 62
     2
 10
41.54585316643314
 20
114.33051083300499
 30
0.0
  0
VERTEX
  5
1FCB
  8
SAPA_FOGBAND
 62
     2
 10
43.09590087886977
 20
113.4154413880059
 30
0.0
 42
0.2242387338111004
  0
VERTEX
  5
1FCC
  8
SAPA_FOGBAND
 62
     2
 10
44.158890950386983
 20
113.31724763454871
 30
0.0
 42
0.2242387338111004
  0
VERTEX
  5
1FCD
  8
SAPA_FOGBAND
 62
     2
 10
44.910070859692908
 20
114.0757452609249
 30
0.0
  0
VERTEX
  5
1FCE
  8
SAPA_FOGBAND
 62
     2
 10
45.509280995125977
 20
115.7730805883113
 30
0.0
 42
0.9999999999999548
  0
VERTEX
  5
1FCF
  8
SAPA_FOGBAND
 62
     2
 10
44.754909738509753
 20
116.0393962040596
 30
0.0
  0
VERTEX
  5
1FD0
  8
SAPA_FOGBAND
 62
     2
 10
44.328460949638128
 20
114.831428327899
 30
0.0
 42
-0.7038255290761635
  0
VERTEX
  5
1FD1
  8
SAPA_FOGBAND
 62
     2
 10
44.140195280482523
 20
114.830515765535
 30
0.0
  0
VERTEX
  5
1FD2
  8
SAPA_FOGBAND
 62
     2
 10
43.773686902465997
 20
115.8374892581764
 30
0.0
 42
-0.4142135623730117
  0
VERTEX
  5
1FD3
  8
SAPA_FOGBAND
 62
     2
 10
43.893221397958058
 20
116.09383181099879
 30
0.0
  0
VERTEX
  5
1FD4
  8
SAPA_FOGBAND
 62
     2
 10
44.269098446272302
 20
116.23063986832901
 30
0.0
 42
0.4142135623730951
  0
VERTEX
  5
1FD5
  8
SAPA_FOGBAND
 62
     2
 10
44.388632941764371
 20
116.4869824211514
 30
0.0
  0
VERTEX
  5
1FD6
  8
SAPA_FOGBAND
 62
     2
 10
44.115016827103808
 20
117.2387365177802
 30
0.0
 42
-0.4142135623731783
  0
VERTEX
  5
1FD7
  8
SAPA_FOGBAND
 62
     2
 10
44.234551322595713
 20
117.4950790706024
 30
0.0
  0
VERTEX
  5
1FD8
  8
SAPA_FOGBAND
 62
     2
 10
46.666156876551717
 20
118.3801111137187
 30
0.0
 42
-0.1991665782226962
  0
VERTEX
  5
1FD9
  8
SAPA_FOGBAND
 62
     2
 10
46.742709342293317
 20
118.3767312509396
 30
0.0
 42
0.6685323900181887
  0
VERTEX
  5
1FDA
  8
SAPA_FOGBAND
 62
     2
 10
47.015348769284508
 20
118.6263140782378
 30
0.0
  0
SEQEND
  5
1FDB
  8
SAPA_FOGBAND
 62
     2
  0
DIMENSION
  5
1275
  8
SAPA_MATT
  2
*D72
 10
94.891969366946341
 20
-12.190169109400729
 30
0.0
 11
65.846140385055563
 21
-20.101541857205799
 31
0.0
 70
     0
 13
31.016919370639538
 23
-12.12317558779403
 33
0.0
 14
70.741934940007482
 24
54.161505157665452
 34
0.0
 50
20.000000000000011
1001
ACAD
1000
DSTYLE
1002
{
1070
   287
1070
     4
1070
    40
1040
1.0
1070
   279
1070
     1
1002
}
  0
DIMENSION
  5
1276
  8
SAPA_MATT
  2
*D71
 10
38.510412119793109
 20
-32.711377708940383
 30
0.0
 11
14.163046241830751
 21
-38.912649740117509
 31
0.0
 70
     0
 13
-15.283671382005471
 23
-31.103567995649701
 33
0.0
 14
31.016919370639538
 24
-12.12317558779403
 34
0.0
 50
20.000000000000011
1001
ACAD
1000
DSTYLE
1002
{
1070
    40
1040
1.0
1002
}
  0
VIEWPORT
  5
7C8
 67
     1
  8
0
 10
117.6369664708614
 20
142.9987162234838
 30
0.0
 40
454.13674225015501
 41
288.02508713675689
 68
     1
 69
     1
1001
ACAD
1000
MVIEW
1002
{
1070
    16
1010
0.0
1020
0.0
1030
0.0
1010
0.0
1020
0.0
1030
1.0
1040
0.0
1040
288.02508713675689
1040
117.6369664708614
1040
142.9987162234838
1040
50.0
1040
0.0
1040
0.0
1070
     0
1070
   100
1070
     1
1070
     1
1070
     0
1070
     0
1070
     0
1070
     0
1040
0.0
1040
0.0
1040
0.0
1040
10.0
1040
10.0
1040
10.0
1040
10.0
1070
     0
1002
{
1002
}
1002
}
  0
INSERT
  5
7C9
 67
     1
  8
0
  2
WEB
 10
0.0
 20
0.0
 30
0.0
  0
VIEWPORT
  5
7CA
 67
     1
  8
3D-RAM
 10
96.369180125328342
 20
138.999999827653
 30
0.0
 40
175.0
 41
175.0
 68
     2
 69
     2
1001
ACAD
1000
MVIEW
1002
{
1070
    16
1010
0.0
1020
0.0
1030
0.0
1010
0.0
1020
0.0
1030
1.0
1040
0.0
1040
17.5
1040
1425.350342731407
1040
1538.27922035293
1040
50.0
1040
0.0
1040
0.0
1070
     0
1070
   100
1070
     1
1070
     0
1070
     0
1070
     0
1070
     0
1070
     0
1040
0.0
1040
0.0
1040
0.0
1040
5.0
1040
5.0
1040
10.0
1040
10.0
1070
     0
1002
{
1002
}
1002
}
  0
LINE
  5
7CB
 67
     1
  8
3D-RAM
 10
25.1036710795997
 20
69.587678081293987
 30
0.0
 11
25.1036710795997
 21
79.587678081293987
 31
0.0
  0
LINE
  5
7CC
 67
     1
  8
3D-RAM
 10
30.1036710795997
 20
74.587678081293987
 30
0.0
 11
20.1036710795997
 21
74.587678081293987
 31
0.0
  0
ENDSEC
  0
EOF
