  0
SECTION
  2
HEADER
  9
$ACADVER
  1
AC1009
  9
$INSBASE
 10
0.0
 20
0.0
 30
0.0
  9
$EXTMIN
 10
-52.658640351439473
 20
-45.409976921574142
 30
0.0
  9
$EXTMAX
 10
119.73287939097639
 20
162.57566758394449
 30
0.0
  9
$LIMMIN
 10
0.0
 20
0.0
  9
$LIMMAX
 10
790.0
 20
790.0
  9
$ORTHOMODE
 70
     1
  9
$REGENMODE
 70
     1
  9
$FILLMODE
 70
     1
  9
$QTEXTMODE
 70
     0
  9
$MIRRTEXT
 70
     1
  9
$DRAGMODE
 70
     2
  9
$LTSCALE
 40
4.0
  9
$OSMODE
 70
   167
  9
$ATTMODE
 70
     1
  9
$TEXTSIZE
 40
3.5
  9
$TRACEWID
 40
0.05
  9
$TEXTSTYLE
  7
ISO
  9
$CLAYER
  8
0
  9
$CELTYPE
  6
BYLAYER
  9
$CECOLOR
 62
   256
  9
$DIMSCALE
 40
0.0
  9
$DIMASZ
 40
3.0
  9
$DIMEXO
 40
1.5
  9
$DIMDLI
 40
10.0
  9
$DIMRND
 40
0.0
  9
$DIMDLE
 40
0.0
  9
$DIMEXE
 40
1.5
  9
$DIMTP
 40
0.0
  9
$DIMTM
 40
0.0
  9
$DIMTXT
 40
3.0
  9
$DIMCEN
 40
-5.0
  9
$DIMTSZ
 40
0.0
  9
$DIMTOL
 70
     0
  9
$DIMLIM
 70
     0
  9
$DIMTIH
 70
     0
  9
$DIMTOH
 70
     0
  9
$DIMSE1
 70
     0
  9
$DIMSE2
 70
     0
  9
$DIMTAD
 70
     1
  9
$DIMZIN
 70
     8
  9
$DIMBLK
  1

  9
$DIMASO
 70
     1
  9
$DIMSHO
 70
     1
  9
$DIMPOST
  1

  9
$DIMAPOST
  1

  9
$DIMALT
 70
     0
  9
$DIMALTD
 70
     0
  9
$DIMALTF
 40
25.399999999999999
  9
$DIMLFAC
 40
-1.0
  9
$DIMTOFL
 70
     1
  9
$DIMTVP
 40
0.0
  9
$DIMTIX
 70
     0
  9
$DIMSOXD
 70
     0
  9
$DIMSAH
 70
     0
  9
$DIMBLK1
  1

  9
$DIMBLK2
  1

  9
$DIMSTYLE
  2
MASKIN
  9
$DIMCLRD
 70
   256
  9
$DIMCLRE
 70
   256
  9
$DIMCLRT
 70
     2
  9
$DIMTFAC
 40
1.0
  9
$DIMGAP
 40
1.0
  9
$LUNITS
 70
     2
  9
$LUPREC
 70
     8
  9
$SKETCHINC
 40
0.1
  9
$FILLETRAD
 40
0.0
  9
$AUNITS
 70
     0
  9
$AUPREC
 70
     8
  9
$MENU
  1
ACAD
  9
$ELEVATION
 40
0.0
  9
$PELEVATION
 40
0.0
  9
$THICKNESS
 40
0.0
  9
$LIMCHECK
 70
     0
  9
$BLIPMODE
 70
     0
  9
$CHAMFERA
 40
0.0
  9
$CHAMFERB
 40
0.0
  9
$SKPOLY
 70
     0
  9
$TDCREATE
 40
2455001.320694143
  9
$TDUPDATE
 40
2456001.383293496
  9
$TDINDWG
 40
0.0066443634
  9
$TDUSRTIMER
 40
0.0066441782
  9
$USRTIMER
 70
     1
  9
$ANGBASE
 50
0.0
  9
$ANGDIR
 70
     0
  9
$PDMODE
 70
     0
  9
$PDSIZE
 40
0.0
  9
$PLINEWID
 40
0.0
  9
$COORDS
 70
     1
  9
$SPLFRAME
 70
     0
  9
$SPLINETYPE
 70
     6
  9
$SPLINESEGS
 70
     8
  9
$ATTDIA
 70
     0
  9
$ATTREQ
 70
     1
  9
$HANDLING
 70
     1
  9
$HANDSEED
  5
1FB5
  9
$SURFTAB1
 70
     6
  9
$SURFTAB2
 70
     6
  9
$SURFTYPE
 70
     6
  9
$SURFU
 70
     6
  9
$SURFV
 70
     6
  9
$UCSNAME
  2

  9
$UCSORG
 10
0.0
 20
0.0
 30
0.0
  9
$UCSXDIR
 10
1.0
 20
0.0
 30
0.0
  9
$UCSYDIR
 10
0.0
 20
1.0
 30
0.0
  9
$PUCSNAME
  2

  9
$PUCSORG
 10
0.0
 20
0.0
 30
0.0
  9
$PUCSXDIR
 10
1.0
 20
0.0
 30
0.0
  9
$PUCSYDIR
 10
0.0
 20
1.0
 30
0.0
  9
$USERI1
 70
     0
  9
$USERI2
 70
     0
  9
$USERI3
 70
     0
  9
$USERI4
 70
     0
  9
$USERI5
 70
     0
  9
$USERR1
 40
0.0
  9
$USERR2
 40
0.0
  9
$USERR3
 40
0.0
  9
$USERR4
 40
0.0
  9
$USERR5
 40
0.0
  9
$WORLDVIEW
 70
     1
  9
$SHADEDGE
 70
     3
  9
$SHADEDIF
 70
    70
  9
$TILEMODE
 70
     1
  9
$MAXACTVP
 70
    16
  9
$PLIMCHECK
 70
     0
  9
$PEXTMIN
 10
5.869999703752308
 20
-0.0000001723469722
 30
0.0
  9
$PEXTMAX
 10
185.86836054690431
 20
282.99999982765303
 30
0.0
  9
$PLIMMIN
 10
-14.406514999948911
 20
-4.2536696474310238
  9
$PLIMMAX
 10
195.56681263676981
 20
292.67232522561591
  9
$UNITMODE
 70
     0
  9
$VISRETAIN
 70
     1
  9
$PLINEGEN
 70
     0
  9
$PSLTSCALE
 70
     1
  0
ENDSEC
  0
SECTION
  2
TABLES
  0
TABLE
  2
VPORT
 70
     1
  0
VPORT
  2
*ACTIVE
 70
     0
 10
0.0
 20
0.0
 11
1.0
 21
1.0
 12
164.03699949816689
 22
114.3397190100513
 13
0.0
 23
0.0
 14
1.0
 24
1.0
 15
0.0
 25
0.0
 16
0.0
 26
0.0
 36
1.0
 17
0.0
 27
0.0
 37
0.0
 40
208.85333683989171
 41
2.37391304347826
 42
50.0
 43
0.0
 44
0.0
 50
0.0
 51
0.0
 71
     0
 72
   100
 73
     1
 74
     1
 75
     0
 76
     0
 77
     0
 78
     0
  0
ENDTAB
  0
TABLE
  2
LTYPE
 70
    18
  0
LTYPE
  2
CONTINUOUS
 70
     0
  3
Solid line
 72
    65
 73
     0
 40
0.0
  0
LTYPE
  2
BYGG-01472402$0$NEWDOT
 70
     0
  3
____ . ____ . ____ . ____ . ____ . ____ . ____
 72
    65
 73
     4
 40
2.0
 49
1.0
 49
-0.5
 49
0.0
 49
-0.5
  0
LTYPE
  2
BYGG-014252$0$NEWDOT
 70
     0
  3
____ . ____ . ____ . ____ . ____ . ____ . ____
 72
    65
 73
     4
 40
2.0
 49
1.0
 49
-0.5
 49
0.0
 49
-0.5
  0
LTYPE
  2
BYGG-015039$0$DASHDOT
 70
     0
  3
__ . __ . __ . __ . __ . __ . __ . __ . __ . __
 72
    65
 73
     4
 40
1.0
 49
0.5
 49
-0.25
 49
0.0
 49
-0.25
  0
LTYPE
  2
BYGG-014344$0$NEWDOT
 70
     0
  3
____ . ____ . ____ . ____ . ____ . ____ . ____
 72
    65
 73
     4
 40
2.0
 49
1.0
 49
-0.5
 49
0.0
 49
-0.5
  0
LTYPE
  2
BYGG-01472402$0$ZIGZAG
 70
     0
  3
Zig zag /\/\/\/\/\/\/\/\/\/\/\/\/\/\/\/\/\/\/\/\/\/\/\/
 72
    65
 73
     4
 40
20.32254
 49
0.00254
 49
-5.0800000000000001
 49
-10.16
 49
-5.0800000000000001
  0
LTYPE
  2
BYGG-014252$0$ZIGZAG
 70
     0
  3
Zig zag /\/\/\/\/\/\/\/\/\/\/\/\/\/\/\/\/\/\/\/\/\/\/\/
 72
    65
 73
     4
 40
20.32254
 49
0.00254
 49
-5.0800000000000001
 49
-10.16
 49
-5.0800000000000001
  0
LTYPE
  2
BYGG-024275$0$DASHDOT
 70
     0
  3
__ . __ . __ . __ . __ . __ . __ . __ . __ . __
 72
    65
 73
     4
 40
1.0
 49
0.5
 49
-0.25
 49
0.0
 49
-0.25
  0
LTYPE
  2
BYGG-015039$0$NEWDOT
 70
     0
  3
____ . ____ . ____ . ____ . ____ . ____ . ____
 72
    65
 73
     4
 40
2.0
 49
1.0
 49
-0.5
 49
0.0
 49
-0.5
  0
LTYPE
  2
BYGG-015039$0$DASHED
 70
     0
  3
__ __ __ __ __ __ __ __ __ __ __ __ __ __ __
 72
    65
 73
     2
 40
0.75
 49
0.5
 49
-0.25
  0
LTYPE
  2
BYGG-015039$0$ZIGZAG
 70
     0
  3
Zig zag /\/\/\/\/\/\/\/\/\/\/\/\/\/\/\/\/\/\/\/\/\/\/\/
 72
    65
 73
     4
 40
20.32254
 49
0.00254
 49
-5.0800000000000001
 49
-10.16
 49
-5.0800000000000001
  0
LTYPE
  2
BYGG-024775$0$DASHDOT
 70
     0
  3
__ . __ . __ . __ . __ . __ . __ . __ . __ . __
 72
    65
 73
     4
 40
1.0
 49
0.5
 49
-0.25
 49
0.0
 49
-0.25
  0
LTYPE
  2
BYGG-025059$0$DASHDOT
 70
     0
  3
__ . __ . __ . __ . __ . __ . __ . __ . __ . __
 72
    65
 73
     4
 40
1.0
 49
0.5
 49
-0.25
 49
0.0
 49
-0.25
  0
LTYPE
  2
BYGG-024776$0$NEWDOT
 70
     0
  3
____ . ____ . ____ . ____ . ____ . ____ . ____
 72
    65
 73
     4
 40
2.0
 49
1.0
 49
-0.5
 49
0.0
 49
-0.5
  0
LTYPE
  2
BYGG-024776$0$DASHDOT
 70
     0
  3
__ . __ . __ . __ . __ . __ . __ . __ . __ . __
 72
    65
 73
     4
 40
1.0
 49
0.5
 49
-0.25
 49
0.0
 49
-0.25
  0
LTYPE
  2
BYGG-024777$0$NEWDOT
 70
     0
  3
____ . ____ . ____ . ____ . ____ . ____ . ____
 72
    65
 73
     4
 40
2.0
 49
1.0
 49
-0.5
 49
0.0
 49
-0.5
  0
LTYPE
  2
BYGG-024777$0$DASHDOT
 70
     0
  3
__ . __ . __ . __ . __ . __ . __ . __ . __ . __
 72
    65
 73
     4
 40
1.0
 49
0.5
 49
-0.25
 49
0.0
 49
-0.25
  0
LTYPE
  2
BYGG-014344$0$ZIGZAG
 70
     0
  3
Zig zag /\/\/\/\/\/\/\/\/\/\/\/\/\/\/\/\/\/\/\/\/\/\/\/
 72
    65
 73
     4
 40
20.32254
 49
0.00254
 49
-5.0800000000000001
 49
-10.16
 49
-5.0800000000000001
  0
ENDTAB
  0
TABLE
  2
LAYER
 70
   104
  0
LAYER
  2
0
 70
     0
 62
     7
  6
CONTINUOUS
  0
LAYER
  2
DEFPOINTS
 70
     0
 62
     7
  6
CONTINUOUS
  0
LAYER
  2
3D-RAM
 70
     0
 62
     3
  6
CONTINUOUS
  0
LAYER
  2
SAPA_ARTIKELNR
 70
     0
 62
     4
  6
CONTINUOUS
  0
LAYER
  2
SAPA_LIGHT
 70
     1
 62
     1
  6
CONTINUOUS
  0
LAYER
  2
RAM_GRENS2
 70
     0
 62
     3
  6
CONTINUOUS
  0
LAYER
  2
BYGG-024775$0$MATT
 70
     0
 62
     1
  6
CONTINUOUS
  0
LAYER
  2
BYGG-024775$0$LACK_SYNLIGY
 70
     0
 62
     2
  6
BYGG-024775$0$DASHDOT
  0
LAYER
  2
BYGG-024775$0$LACK_MINDRES
 70
     0
 62
     1
  6
CONTINUOUS
  0
LAYER
  2
BYGG-024775$0$0_ÖPPEN-PROF
 70
     0
 62
     7
  6
CONTINUOUS
  0
LAYER
  2
BYGG-025059$0$MATT
 70
     0
 62
     1
  6
CONTINUOUS
  0
LAYER
  2
BYGG-025059$0$LACK_MINDRES
 70
     0
 62
     1
  6
CONTINUOUS
  0
LAYER
  2
BYGG-025059$0$0_ÖPPEN-PROF
 70
     0
 62
     7
  6
CONTINUOUS
  0
LAYER
  2
BYGG-024973$0$ISOLATOR
 70
     0
 62
     4
  6
CONTINUOUS
  0
LAYER
  2
SAPA_FYLLNING
 70
     0
 62
     4
  6
CONTINUOUS
  0
LAYER
  2
SAPA_ISOLATOR
 70
     0
 62
     4
  6
CONTINUOUS
  0
LAYER
  2
SAPA_MATT
 70
     0
 62
     1
  6
CONTINUOUS
  0
LAYER
  2
SAPA_GLAS
 70
     0
 62
     4
  6
CONTINUOUS
  0
LAYER
  2
SAPA_FOGBAND
 70
     0
 62
     2
  6
CONTINUOUS
  0
LAYER
  2
SAPA_PROFIL
 70
     0
 62
     7
  6
CONTINUOUS
  0
ENDTAB
  0
TABLE
  2
STYLE
 70
    36
  0
STYLE
  2
STANDARD
 70
     0
 40
0.0
 41
1.0
 50
0.0
 71
     0
 42
0.2
  3
txt
  4

  0
STYLE
  2
ISO
 70
     0
 40
0.0
 41
1.0
 50
0.0
 71
     0
 42
3.5
  3
txt
  4

  0
STYLE
  2

 70
     1
 40
0.0
 41
1.0
 50
0.0
 71
     0
 42
0.2
  3
ltypeshp.shx
  4

  0
STYLE
  2
BYGG-024081$0$STANDARD
 70
     0
 40
0.0
 41
1.0
 50
0.0
 71
     0
 42
0.2
  3
txt
  4

  0
STYLE
  2
BYGG-024081$0$ISO
 70
     0
 40
0.0
 41
1.0
 50
0.0
 71
     0
 42
3.5
  3
txt
  4

  0
STYLE
  2
BYGG-01472402$0$STANDARD
 70
     0
 40
0.0
 41
1.0
 50
0.0
 71
     0
 42
0.2
  3
txt
  4

  0
STYLE
  2
BYGG-01472402$0$ISO
 70
     0
 40
0.0
 41
1.0
 50
0.0
 71
     0
 42
2.5
  3
isocp3.shx
  4

  0
STYLE
  2
BYGG-024082$0$STANDARD
 70
     0
 40
0.0
 41
1.0
 50
0.0
 71
     0
 42
0.2
  3
txt
  4

  0
STYLE
  2
BYGG-024082$0$ISO
 70
     0
 40
0.0
 41
1.0
 50
0.0
 71
     0
 42
3.5
  3
txt
  4

  0
STYLE
  2
BYGG-014252$0$STANDARD
 70
     0
 40
0.0
 41
1.0
 50
0.0
 71
     0
 42
0.2
  3
txt
  4

  0
STYLE
  2
BYGG-014252$0$ISO
 70
     0
 40
0.0
 41
1.0
 50
0.0
 71
     0
 42
2.5
  3
isocp3.shx
  4

  0
STYLE
  2
BYGG-014014$0$STANDARD
 70
     0
 40
0.0
 41
1.0
 50
0.0
 71
     0
 42
0.2
  3
txt
  4

  0
STYLE
  2
BYGG-024275$0$STANDARD
 70
     0
 40
0.0
 41
1.0
 50
0.0
 71
     0
 42
0.2
  3
txt
  4

  0
STYLE
  2
BYGG-024275$0$ISO
 70
     0
 40
0.0
 41
1.0
 50
0.0
 71
     0
 42
3.5
  3
txt
  4

  0
STYLE
  2
BYGG-015039$0$STANDARD
 70
     0
 40
0.0
 41
1.0
 50
0.0
 71
     0
 42
0.2
  3
txt
  4

  0
STYLE
  2
BYGG-015039$0$ISO
 70
     0
 40
0.0
 41
1.0
 50
0.0
 71
     0
 42
3.5
  3
txt
  4

  0
STYLE
  2
BYGG-024775$0$STANDARD
 70
     0
 40
0.0
 41
1.0
 50
0.0
 71
     0
 42
0.2
  3
txt
  4

  0
STYLE
  2
BYGG-024775$0$ISO
 70
     0
 40
0.0
 41
1.0
 50
0.0
 71
     0
 42
3.5
  3
txt
  4

  0
STYLE
  2
BYGG-024775$0$ANNOTATIVE
 70
     0
 40
0.0
 41
1.0
 50
0.0
 71
     0
 42
0.2
  3
txt
  4

  0
STYLE
  2
BYGG-025059$0$STANDARD
 70
     0
 40
0.0
 41
1.0
 50
0.0
 71
     0
 42
0.2
  3
txt
  4

  0
STYLE
  2
BYGG-025059$0$ISO
 70
     0
 40
0.0
 41
1.0
 50
0.0
 71
     0
 42
3.5
  3
txt
  4

  0
STYLE
  2
BYGG-025059$0$ANNOTATIVE
 70
     0
 40
0.0
 41
1.0
 50
0.0
 71
     0
 42
0.2
  3
txt
  4

  0
STYLE
  2
BYGG-024776$0$STANDARD
 70
     0
 40
0.0
 41
1.0
 50
0.0
 71
     0
 42
0.2
  3
txt
  4

  0
STYLE
  2
BYGG-024776$0$ISO
 70
     0
 40
0.0
 41
1.0
 50
0.0
 71
     0
 42
3.5
  3
txt
  4

  0
STYLE
  2
BYGG-024973$0$STANDARD
 70
     0
 40
0.0
 41
1.0
 50
0.0
 71
     0
 42
0.2
  3
txt
  4

  0
STYLE
  2
BYGG-024973$0$ISO
 70
     0
 40
0.0
 41
1.0
 50
0.0
 71
     0
 42
3.5
  3
txt
  4

  0
STYLE
  2
BYGG-011943$0$STANDARD
 70
     0
 40
0.0
 41
1.0
 50
0.0
 71
     0
 42
0.2
  3
txt
  4

  0
STYLE
  2
BYGG-011943$0$ISO
 70
     0
 40
0.0
 41
1.0
 50
0.0
 71
     0
 42
3.5
  3
txt
  4

  0
STYLE
  2
BYGG-024777$0$STANDARD
 70
     0
 40
0.0
 41
1.0
 50
0.0
 71
     0
 42
0.2
  3
txt
  4

  0
STYLE
  2
BYGG-024777$0$ISO
 70
     0
 40
0.0
 41
1.0
 50
0.0
 71
     0
 42
3.5
  3
txt
  4

  0
STYLE
  2
BYGG-024270$0$STANDARD
 70
     0
 40
0.0
 41
1.0
 50
0.0
 71
     0
 42
0.2
  3
txt
  4

  0
STYLE
  2
BYGG-024270$0$ISO
 70
     0
 40
0.0
 41
1.0
 50
0.0
 71
     0
 42
3.5
  3
txt
  4

  0
STYLE
  2
BYGG-014344$0$STANDARD
 70
     0
 40
0.0
 41
1.0
 50
0.0
 71
     0
 42
0.2
  3
txt
  4

  0
STYLE
  2
BYGG-014344$0$ISO
 70
     0
 40
0.0
 41
1.0
 50
0.0
 71
     0
 42
3.5
  3
isocp3.shx
  4

  0
STYLE
  2
BYGG-024093$0$STANDARD
 70
     0
 40
0.0
 41
1.0
 50
0.0
 71
     0
 42
0.2
  3
txt
  4

  0
STYLE
  2
BYGG-024093$0$ISO
 70
     0
 40
0.0
 41
1.0
 50
0.0
 71
     0
 42
3.5
  3
txt
  4

  0
ENDTAB
  0
TABLE
  2
VIEW
 70
     0
  0
ENDTAB
  0
TABLE
  2
UCS
 70
     0
  0
ENDTAB
  0
TABLE
  2
APPID
 70
    25
  0
APPID
  2
ACAD
 70
     0
  0
APPID
  2
ACAD_DSTYLE_DIMTEXT_FILL
 70
     0
  0
APPID
  2
ACAD_DSTYLE_DIMEXT_LENGTH
 70
     0
  0
APPID
  2
ACAD_DSTYLE_DIMEXT_ENABLED
 70
     0
  0
APPID
  2
ACAD_DSTYLE_DIM_LINETYPE
 70
     0
  0
APPID
  2
ACAD_DSTYLE_DIM_EXT1_LINETYPE
 70
     0
  0
APPID
  2
ACAD_DSTYLE_DIM_EXT2_LINETYPE
 70
     0
  0
APPID
  2
ACAD_DSTYLE_DIMJOGGED_JOGA
 70
     0
  0
APPID
  2
ACAD_DSTYLE_DIMARC_LENGTH_
 70
     0
  0
APPID
  2
ACAD_PSEXT
 70
     0
  0
APPID
  2
ACAD_MLEADERVER
 70
     0
  0
APPID
  2
AME_SOL
 70
     0
  0
APPID
  2
AMG_ARCHIVE11
 70
     0
  0
APPID
  2
DCO15
 70
     0
  0
APPID
  2
ACAD_EXEMPT_FROM_CAD_STANDARDS
 70
     0
  0
APPID
  2
ACADANNOTATIVE
 70
     0
  0
APPID
  2
ACAECLAYERSTANDARD
 70
     0
  0
APPID
  2
ACDBDYNAMICBLOCKGUID
 70
     0
  0
APPID
  2
ACDBBLOCKREPETAG
 70
     0
  0
APPID
  2
ACAUTHENVIRON
 70
     0
  0
APPID
  2
ACDBDYNAMICBLOCKTRUENAME
 70
     0
  0
APPID
  2
ACAD_NAV_VCDISPLAY
 70
     0
  0
APPID
  2
AEC_XDATA_BOUND_SPACE
 70
     0
  0
APPID
  2
ACCMTRANSPARENCY
 70
     0
  0
APPID
  2
CONTENTBLOCKICON
 70
     0
  0
ENDTAB
  0
TABLE
  2
DIMSTYLE
 70
    35
  0
DIMSTYLE
  2
STANDARD
 70
     0
  3

  4

  5

  6

  7

 40
1.0
 41
0.18
 42
0.0625
 43
0.38
 44
0.18
 45
0.0
 46
0.0
 47
0.0
 48
0.0
140
0.18
141
0.09
142
0.0
143
25.399999999999999
144
1.0
145
0.0
146
1.0
147
0.09
 71
     0
 72
     0
 73
     1
 74
     1
 75
     0
 76
     0
 77
     0
 78
     0
170
     0
171
     2
172
     0
173
     0
174
     0
175
     0
176
     0
177
     0
178
     0
  0
DIMSTYLE
  2
MASKIN
 70
     0
  3

  4

  5

  6

  7

 40
0.0
 41
3.0
 42
1.5
 43
10.0
 44
1.5
 45
0.0
 46
0.0
 47
0.0
 48
0.0
140
3.0
141
-5.0
142
0.0
143
25.399999999999999
144
-1.0
145
0.0
146
1.0
147
1.0
 71
     0
 72
     0
 73
     0
 74
     0
 75
     0
 76
     0
 77
     1
 78
     8
170
     0
171
     0
172
     1
173
     0
174
     0
175
     0
176
   256
177
   256
178
     2
  0
DIMSTYLE
  2
BYGG-024081$0$STANDARD
 70
     0
  3

  4

  5

  6

  7

 40
1.0
 41
0.18
 42
0.0625
 43
0.38
 44
0.18
 45
0.0
 46
0.0
 47
0.0
 48
0.0
140
0.18
141
0.09
142
0.0
143
25.399999999999999
144
1.0
145
0.0
146
1.0
147
0.09
 71
     0
 72
     0
 73
     1
 74
     1
 75
     0
 76
     0
 77
     0
 78
     0
170
     0
171
     2
172
     0
173
     0
174
     0
175
     0
176
     0
177
     0
178
     0
  0
DIMSTYLE
  2
BYGG-024081$0$MASKIN
 70
     0
  3

  4

  5

  6

  7

 40
0.0
 41
3.0
 42
1.5
 43
10.0
 44
1.5
 45
0.0
 46
0.0
 47
0.0
 48
0.0
140
3.0
141
-5.0
142
0.0
143
25.399999999999999
144
-1.0
145
0.0
146
1.0
147
1.0
 71
     0
 72
     0
 73
     0
 74
     0
 75
     0
 76
     0
 77
     1
 78
     8
170
     0
171
     0
172
     1
173
     0
174
     0
175
     0
176
   256
177
   256
178
     2
  0
DIMSTYLE
  2
BYGG-01472402$0$STANDARD
 70
     0
  3

  4

  5

  6

  7

 40
1.0
 41
0.18
 42
0.0625
 43
0.38
 44
0.18
 45
0.0
 46
0.0
 47
0.0
 48
0.0
140
0.18
141
0.09
142
0.0
143
25.399999999999999
144
1.0
145
0.0
146
1.0
147
0.09
 71
     0
 72
     0
 73
     1
 74
     1
 75
     0
 76
     0
 77
     0
 78
     0
170
     0
171
     2
172
     0
173
     0
174
     0
175
     0
176
     0
177
     0
178
     0
  0
DIMSTYLE
  2
BYGG-01472402$0$MASKIN
 70
     0
  3

  4

  5

  6

  7

 40
0.0
 41
3.0
 42
1.5
 43
10.0
 44
1.5
 45
0.0
 46
0.0
 47
0.0
 48
0.0
140
3.0
141
-5.0
142
0.0
143
25.399999999999999
144
-1.0
145
0.0
146
1.0
147
1.0
 71
     0
 72
     0
 73
     0
 74
     1
 75
     0
 76
     0
 77
     1
 78
     8
170
     0
171
     0
172
     1
173
     0
174
     0
175
     0
176
   256
177
   256
178
     2
  0
DIMSTYLE
  2
BYGG-024082$0$STANDARD
 70
     0
  3

  4

  5

  6

  7

 40
1.0
 41
0.18
 42
0.0625
 43
0.38
 44
0.18
 45
0.0
 46
0.0
 47
0.0
 48
0.0
140
0.18
141
0.09
142
0.0
143
25.399999999999999
144
1.0
145
0.0
146
1.0
147
0.09
 71
     0
 72
     0
 73
     1
 74
     1
 75
     0
 76
     0
 77
     0
 78
     0
170
     0
171
     2
172
     0
173
     0
174
     0
175
     0
176
     0
177
     0
178
     0
  0
DIMSTYLE
  2
BYGG-024082$0$MASKIN
 70
     0
  3

  4

  5

  6

  7

 40
0.0
 41
3.0
 42
1.5
 43
10.0
 44
1.5
 45
0.0
 46
0.0
 47
0.0
 48
0.0
140
3.0
141
-5.0
142
0.0
143
25.399999999999999
144
-1.0
145
0.0
146
1.0
147
1.0
 71
     0
 72
     0
 73
     0
 74
     0
 75
     0
 76
     0
 77
     1
 78
     8
170
     0
171
     0
172
     1
173
     0
174
     0
175
     0
176
   256
177
   256
178
     2
  0
DIMSTYLE
  2
BYGG-014252$0$STANDARD
 70
     0
  3

  4

  5

  6

  7

 40
1.0
 41
0.18
 42
0.0625
 43
0.38
 44
0.18
 45
0.0
 46
0.0
 47
0.0
 48
0.0
140
0.18
141
0.09
142
0.0
143
25.399999999999999
144
1.0
145
0.0
146
1.0
147
0.09
 71
     0
 72
     0
 73
     1
 74
     1
 75
     0
 76
     0
 77
     0
 78
     0
170
     0
171
     2
172
     0
173
     0
174
     0
175
     0
176
     0
177
     0
178
     0
  0
DIMSTYLE
  2
BYGG-014252$0$MASKIN
 70
     0
  3

  4

  5

  6

  7

 40
0.0
 41
3.0
 42
1.5
 43
10.0
 44
1.5
 45
0.0
 46
0.0
 47
0.0
 48
0.0
140
3.0
141
-5.0
142
0.0
143
25.399999999999999
144
-1.0
145
0.0
146
1.0
147
1.0
 71
     0
 72
     0
 73
     0
 74
     1
 75
     0
 76
     0
 77
     1
 78
     8
170
     0
171
     0
172
     1
173
     0
174
     0
175
     0
176
   256
177
   256
178
     2
  0
DIMSTYLE
  2
BYGG-014014$0$STANDARD
 70
     0
  3

  4

  5

  6

  7

 40
1.0
 41
0.18
 42
0.0625
 43
0.38
 44
0.18
 45
0.0
 46
0.0
 47
0.0
 48
0.0
140
0.18
141
0.09
142
0.0
143
25.399999999999999
144
1.0
145
0.0
146
1.0
147
0.09
 71
     0
 72
     0
 73
     1
 74
     1
 75
     0
 76
     0
 77
     0
 78
     0
170
     0
171
     2
172
     0
173
     0
174
     0
175
     0
176
     0
177
     0
178
     0
  0
DIMSTYLE
  2
BYGG-024275$0$STANDARD
 70
     0
  3

  4

  5

  6

  7

 40
1.0
 41
0.18
 42
0.0625
 43
0.38
 44
0.18
 45
0.0
 46
0.0
 47
0.0
 48
0.0
140
0.18
141
0.09
142
0.0
143
25.399999999999999
144
1.0
145
0.0
146
1.0
147
0.09
 71
     0
 72
     0
 73
     1
 74
     1
 75
     0
 76
     0
 77
     0
 78
     0
170
     0
171
     2
172
     0
173
     0
174
     0
175
     0
176
     0
177
     0
178
     0
  0
DIMSTYLE
  2
BYGG-024275$0$MASKIN
 70
     0
  3

  4

  5

  6

  7

 40
0.0
 41
3.0
 42
1.5
 43
10.0
 44
1.5
 45
0.0
 46
0.0
 47
0.0
 48
0.0
140
3.0
141
-5.0
142
0.0
143
25.399999999999999
144
-1.0
145
0.0
146
1.0
147
1.0
 71
     0
 72
     0
 73
     0
 74
     0
 75
     0
 76
     0
 77
     1
 78
     8
170
     0
171
     0
172
     1
173
     0
174
     0
175
     0
176
   256
177
   256
178
     2
  0
DIMSTYLE
  2
BYGG-015039$0$MASKIN
 70
     0
  3

  4

  5

  6

  7

 40
0.0
 41
3.0
 42
1.5
 43
10.0
 44
1.5
 45
0.0
 46
0.0
 47
0.0
 48
0.0
140
3.0
141
-5.0
142
0.0
143
25.399999999999999
144
-1.0
145
0.0
146
1.0
147
1.0
 71
     0
 72
     0
 73
     0
 74
     0
 75
     0
 76
     0
 77
     1
 78
     8
170
     0
171
     0
172
     1
173
     0
174
     0
175
     0
176
   256
177
   256
178
   256
  0
DIMSTYLE
  2
BYGG-015039$0$STANDARD
 70
     0
  3

  4

  5

  6

  7

 40
1.0
 41
0.18
 42
0.0625
 43
0.38
 44
0.18
 45
0.0
 46
0.0
 47
0.0
 48
0.0
140
0.18
141
0.09
142
0.0
143
25.399999999999999
144
1.0
145
0.0
146
1.0
147
0.09
 71
     0
 72
     0
 73
     1
 74
     1
 75
     0
 76
     0
 77
     0
 78
     0
170
     0
171
     2
172
     0
173
     0
174
     0
175
     0
176
     0
177
     0
178
     0
  0
DIMSTYLE
  2
BYGG-024775$0$MASKIN
 70
     0
  3

  4

  5

  6

  7

 40
0.0
 41
3.0
 42
1.5
 43
10.0
 44
1.5
 45
0.0
 46
0.0
 47
0.0
 48
0.0
140
3.0
141
-5.0
142
0.0
143
25.399999999999999
144
-1.0
145
0.0
146
1.0
147
1.0
 71
     0
 72
     0
 73
     0
 74
     0
 75
     0
 76
     0
 77
     1
 78
     8
170
     0
171
     0
172
     1
173
     0
174
     0
175
     0
176
   256
177
   256
178
     2
  0
DIMSTYLE
  2
BYGG-024775$0$STANDARD
 70
     0
  3

  4

  5

  6

  7

 40
1.0
 41
0.18
 42
0.0625
 43
0.38
 44
0.18
 45
0.0
 46
0.0
 47
0.0
 48
0.0
140
0.18
141
0.09
142
0.0
143
25.399999999999999
144
1.0
145
0.0
146
1.0
147
0.09
 71
     0
 72
     0
 73
     1
 74
     1
 75
     0
 76
     0
 77
     0
 78
     0
170
     0
171
     2
172
     0
173
     0
174
     0
175
     0
176
     0
177
     0
178
     0
  0
DIMSTYLE
  2
BYGG-024775$0$ANNOTATIVE
 70
     0
  3

  4

  5

  6

  7

 40
1.0
 41
0.18
 42
0.0625
 43
0.38
 44
0.18
 45
0.0
 46
0.0
 47
0.0
 48
0.0
140
0.18
141
0.09
142
0.0
143
25.399999999999999
144
1.0
145
0.0
146
1.0
147
0.09
 71
     0
 72
     0
 73
     1
 74
     1
 75
     0
 76
     0
 77
     0
 78
     0
170
     0
171
     2
172
     0
173
     0
174
     0
175
     0
176
     0
177
     0
178
     0
  0
DIMSTYLE
  2
BYGG-025059$0$MASKIN
 70
     0
  3

  4

  5

  6

  7

 40
0.0
 41
3.0
 42
1.5
 43
10.0
 44
1.5
 45
0.0
 46
0.0
 47
0.0
 48
0.0
140
3.0
141
-5.0
142
0.0
143
25.399999999999999
144
-1.0
145
0.0
146
1.0
147
1.0
 71
     0
 72
     0
 73
     0
 74
     0
 75
     0
 76
     0
 77
     1
 78
     8
170
     0
171
     0
172
     1
173
     0
174
     0
175
     0
176
   256
177
   256
178
     2
  0
DIMSTYLE
  2
BYGG-025059$0$STANDARD
 70
     0
  3

  4

  5

  6

  7

 40
1.0
 41
0.18
 42
0.0625
 43
0.38
 44
0.18
 45
0.0
 46
0.0
 47
0.0
 48
0.0
140
0.18
141
0.09
142
0.0
143
25.399999999999999
144
1.0
145
0.0
146
1.0
147
0.09
 71
     0
 72
     0
 73
     1
 74
     1
 75
     0
 76
     0
 77
     0
 78
     0
170
     0
171
     2
172
     0
173
     0
174
     0
175
     0
176
     0
177
     0
178
     0
  0
DIMSTYLE
  2
BYGG-025059$0$ANNOTATIVE
 70
     0
  3

  4

  5

  6

  7

 40
1.0
 41
0.18
 42
0.0625
 43
0.38
 44
0.18
 45
0.0
 46
0.0
 47
0.0
 48
0.0
140
0.18
141
0.09
142
0.0
143
25.399999999999999
144
1.0
145
0.0
146
1.0
147
0.09
 71
     0
 72
     0
 73
     1
 74
     1
 75
     0
 76
     0
 77
     0
 78
     0
170
     0
171
     2
172
     0
173
     0
174
     0
175
     0
176
     0
177
     0
178
     0
  0
DIMSTYLE
  2
BYGG-024776$0$MASKIN
 70
     0
  3

  4

  5

  6

  7

 40
0.0
 41
3.0
 42
1.5
 43
10.0
 44
1.5
 45
0.0
 46
0.0
 47
0.0
 48
0.0
140
3.0
141
-5.0
142
0.0
143
25.399999999999999
144
-1.0
145
0.0
146
1.0
147
1.0
 71
     0
 72
     0
 73
     0
 74
     0
 75
     0
 76
     0
 77
     1
 78
     8
170
     0
171
     0
172
     1
173
     0
174
     0
175
     0
176
   256
177
   256
178
     2
  0
DIMSTYLE
  2
BYGG-024776$0$STANDARD
 70
     0
  3

  4

  5

  6

  7

 40
1.0
 41
0.18
 42
0.0625
 43
0.38
 44
0.18
 45
0.0
 46
0.0
 47
0.0
 48
0.0
140
0.18
141
0.09
142
0.0
143
25.399999999999999
144
1.0
145
0.0
146
1.0
147
0.09
 71
     0
 72
     0
 73
     1
 74
     1
 75
     0
 76
     0
 77
     0
 78
     0
170
     0
171
     2
172
     0
173
     0
174
     0
175
     0
176
     0
177
     0
178
     0
  0
DIMSTYLE
  2
BYGG-024973$0$STANDARD
 70
     0
  3

  4

  5

  6

  7

 40
1.0
 41
0.18
 42
0.0625
 43
0.38
 44
0.18
 45
0.0
 46
0.0
 47
0.0
 48
0.0
140
0.18
141
0.09
142
0.0
143
25.399999999999999
144
1.0
145
0.0
146
1.0
147
0.09
 71
     0
 72
     0
 73
     1
 74
     1
 75
     0
 76
     0
 77
     0
 78
     0
170
     0
171
     2
172
     0
173
     0
174
     0
175
     0
176
     0
177
     0
178
     0
  0
DIMSTYLE
  2
BYGG-024973$0$MASKIN
 70
     0
  3

  4

  5

  6

  7

 40
0.0
 41
3.0
 42
1.5
 43
10.0
 44
1.5
 45
0.0
 46
0.0
 47
0.0
 48
0.0
140
3.0
141
-5.0
142
0.0
143
25.399999999999999
144
-1.0
145
0.0
146
1.0
147
1.0
 71
     0
 72
     0
 73
     0
 74
     0
 75
     0
 76
     0
 77
     1
 78
     8
170
     0
171
     0
172
     1
173
     0
174
     0
175
     0
176
   256
177
   256
178
     2
  0
DIMSTYLE
  2
BYGG-011943$0$STANDARD
 70
     0
  3

  4

  5

  6

  7

 40
1.0
 41
0.18
 42
0.0625
 43
0.38
 44
0.18
 45
0.0
 46
0.0
 47
0.0
 48
0.0
140
0.18
141
0.09
142
0.0
143
25.399999999999999
144
1.0
145
0.0
146
1.0
147
0.09
 71
     0
 72
     0
 73
     1
 74
     1
 75
     0
 76
     0
 77
     0
 78
     0
170
     0
171
     2
172
     0
173
     0
174
     0
175
     0
176
     0
177
     0
178
     0
  0
DIMSTYLE
  2
BYGG-011943$0$MASKIN
 70
     0
  3

  4

  5

  6

  7

 40
0.0
 41
3.0
 42
1.5
 43
10.0
 44
1.5
 45
0.0
 46
0.0
 47
0.0
 48
0.0
140
3.0
141
-5.0
142
0.0
143
25.399999999999999
144
-1.0
145
0.0
146
1.0
147
1.0
 71
     0
 72
     0
 73
     0
 74
     0
 75
     0
 76
     0
 77
     1
 78
     8
170
     0
171
     0
172
     1
173
     0
174
     0
175
     0
176
   256
177
   256
178
     2
  0
DIMSTYLE
  2
BYGG-024777$0$MASKIN
 70
     0
  3

  4

  5

  6

  7

 40
0.0
 41
3.0
 42
1.5
 43
10.0
 44
1.5
 45
0.0
 46
0.0
 47
0.0
 48
0.0
140
3.0
141
-5.0
142
0.0
143
25.399999999999999
144
-1.0
145
0.0
146
1.0
147
1.0
 71
     0
 72
     0
 73
     0
 74
     0
 75
     0
 76
     0
 77
     1
 78
     8
170
     0
171
     0
172
     1
173
     0
174
     0
175
     0
176
   256
177
   256
178
     2
  0
DIMSTYLE
  2
BYGG-024777$0$STANDARD
 70
     0
  3

  4

  5

  6

  7

 40
1.0
 41
0.18
 42
0.0625
 43
0.38
 44
0.18
 45
0.0
 46
0.0
 47
0.0
 48
0.0
140
0.18
141
0.09
142
0.0
143
25.399999999999999
144
1.0
145
0.0
146
1.0
147
0.09
 71
     0
 72
     0
 73
     1
 74
     1
 75
     0
 76
     0
 77
     0
 78
     0
170
     0
171
     2
172
     0
173
     0
174
     0
175
     0
176
     0
177
     0
178
     0
  0
DIMSTYLE
  2
BYGG-024270$0$STANDARD
 70
     0
  3

  4

  5

  6

  7

 40
1.0
 41
0.18
 42
0.0625
 43
0.38
 44
0.18
 45
0.0
 46
0.0
 47
0.0
 48
0.0
140
0.18
141
0.09
142
0.0
143
25.399999999999999
144
1.0
145
0.0
146
1.0
147
0.09
 71
     0
 72
     0
 73
     1
 74
     1
 75
     0
 76
     0
 77
     0
 78
     0
170
     0
171
     2
172
     0
173
     0
174
     0
175
     0
176
     0
177
     0
178
     0
  0
DIMSTYLE
  2
BYGG-024270$0$MASKIN
 70
     0
  3

  4

  5

  6

  7

 40
0.0
 41
3.0
 42
1.5
 43
10.0
 44
1.5
 45
0.0
 46
0.0
 47
0.0
 48
0.0
140
3.0
141
-5.0
142
0.0
143
25.399999999999999
144
-1.0
145
0.0
146
1.0
147
1.0
 71
     0
 72
     0
 73
     0
 74
     0
 75
     0
 76
     0
 77
     1
 78
     8
170
     0
171
     0
172
     1
173
     0
174
     0
175
     0
176
   256
177
   256
178
     2
  0
DIMSTYLE
  2
BYGG-014344$0$MASKIN1
 70
     0
  3

  4

  5

  6

  7

 40
1.0
 41
3.0
 42
1.5
 43
10.0
 44
1.5
 45
0.0
 46
0.0
 47
0.0
 48
0.0
140
3.0
141
-5.0
142
0.0
143
25.399999999999999
144
1.0
145
0.0
146
1.0
147
0.9
 71
     0
 72
     0
 73
     0
 74
     0
 75
     0
 76
     0
 77
     1
 78
     8
170
     0
171
     0
172
     1
173
     0
174
     0
175
     0
176
   256
177
   256
178
   256
  0
DIMSTYLE
  2
BYGG-014344$0$STANDARD
 70
     0
  3

  4

  5

  6

  7

 40
1.0
 41
0.18
 42
0.0625
 43
0.38
 44
0.18
 45
0.0
 46
0.0
 47
0.0
 48
0.0
140
0.18
141
0.09
142
0.0
143
25.399999999999999
144
1.0
145
0.0
146
1.0
147
0.09
 71
     0
 72
     0
 73
     1
 74
     1
 75
     0
 76
     0
 77
     0
 78
     0
170
     0
171
     2
172
     0
173
     0
174
     0
175
     0
176
     0
177
     0
178
     0
  0
DIMSTYLE
  2
BYGG-024093$0$STANDARD
 70
     0
  3

  4

  5

  6

  7

 40
1.0
 41
0.18
 42
0.0625
 43
0.38
 44
0.18
 45
0.0
 46
0.0
 47
0.0
 48
0.0
140
0.18
141
0.09
142
0.0
143
25.399999999999999
144
1.0
145
0.0
146
1.0
147
0.09
 71
     0
 72
     0
 73
     1
 74
     1
 75
     0
 76
     0
 77
     0
 78
     0
170
     0
171
     2
172
     0
173
     0
174
     0
175
     0
176
     0
177
     0
178
     0
  0
DIMSTYLE
  2
BYGG-024093$0$MASKIN
 70
     0
  3

  4

  5

  6

  7

 40
0.0
 41
3.0
 42
1.5
 43
10.0
 44
1.5
 45
0.0
 46
0.0
 47
0.0
 48
0.0
140
3.0
141
-5.0
142
0.0
143
25.399999999999999
144
-1.0
145
0.0
146
1.0
147
1.0
 71
     0
 72
     0
 73
     0
 74
     0
 75
     0
 76
     0
 77
     1
 78
     8
170
     0
171
     0
172
     1
173
     0
174
     0
175
     0
176
   256
177
   256
178
     2
  0
ENDTAB
  0
ENDSEC
  0
SECTION
  2
BLOCKS
  0
BLOCK
  8
0
  2
$MODEL_SPACE
 70
     0
 10
0.0
 20
0.0
 30
0.0
  3
$MODEL_SPACE
  1

  0
ENDBLK
  5
37
  8
0
  0
BLOCK
 67
     1
  8
0
  2
$PAPER_SPACE
 70
     0
 10
0.0
 20
0.0
 30
0.0
  3
$PAPER_SPACE
  1

  0
ENDBLK
  5
7CE
 67
     1
  8
0
  0
BLOCK
  8
0
  2
WEB
 70
     0
 10
0.0
 20
0.0
 30
0.0
  3
WEB
  1

  0
POLYLINE
  5
7BE
  8
RAM_GRENS2
 62
     3
 66
     1
 10
0.0
 20
0.0
 30
0.0
  0
VERTEX
  5
12F2
  8
RAM_GRENS2
 62
     3
 10
6.869999703752308
 20
282.99999982765303
 30
0.0
  0
VERTEX
  5
12F3
  8
RAM_GRENS2
 62
     3
 10
5.869999703752308
 20
282.99999982765303
 30
0.0
  0
VERTEX
  5
12F4
  8
RAM_GRENS2
 62
     3
 10
5.869999703752308
 20
281.99999982765303
 30
0.0
  0
SEQEND
  5
12F5
  8
RAM_GRENS2
 62
     3
  0
POLYLINE
  5
7BF
  8
RAM_GRENS2
 62
     3
 66
     1
 10
0.0
 20
0.0
 30
0.0
  0
VERTEX
  5
12F6
  8
RAM_GRENS2
 62
     3
 10
185.86836054690431
 20
281.99999982765303
 30
0.0
  0
VERTEX
  5
12F7
  8
RAM_GRENS2
 62
     3
 10
185.86836054690431
 20
282.99999982765303
 30
0.0
  0
VERTEX
  5
12F8
  8
RAM_GRENS2
 62
     3
 10
184.86836054690431
 20
282.99999982765303
 30
0.0
  0
SEQEND
  5
12F9
  8
RAM_GRENS2
 62
     3
  0
POLYLINE
  5
7C0
  8
RAM_GRENS2
 62
     3
 66
     1
 10
0.0
 20
0.0
 30
0.0
  0
VERTEX
  5
12FA
  8
RAM_GRENS2
 62
     3
 10
6.869999703752308
 20
-0.0000001723469722
 30
0.0
  0
VERTEX
  5
12FB
  8
RAM_GRENS2
 62
     3
 10
5.869999703752308
 20
-0.0000001723469722
 30
0.0
  0
VERTEX
  5
12FC
  8
RAM_GRENS2
 62
     3
 10
5.869999703752308
 20
0.9999998276530278
 30
0.0
  0
SEQEND
  5
12FD
  8
RAM_GRENS2
 62
     3
  0
POLYLINE
  5
7C1
  8
RAM_GRENS2
 62
     3
 66
     1
 10
0.0
 20
0.0
 30
0.0
  0
VERTEX
  5
12FE
  8
RAM_GRENS2
 62
     3
 10
185.86836054690431
 20
0.9999998276530278
 30
0.0
  0
VERTEX
  5
12FF
  8
RAM_GRENS2
 62
     3
 10
185.86836054690431
 20
-0.0000001723469722
 30
0.0
  0
VERTEX
  5
1300
  8
RAM_GRENS2
 62
     3
 10
184.86836054690431
 20
-0.0000001723469722
 30
0.0
  0
SEQEND
  5
1301
  8
RAM_GRENS2
 62
     3
  0
ENDBLK
  5
7C2
  8
0
  0
BLOCK
  8
0
  2
BYGG-024973
 70
     0
 10
0.0
 20
0.0
 30
0.0
  3
BYGG-024973
  1
\\spnves96\pspdata$\2009\11\0\BYGG-024973.dwg
  0
INSERT
  5
D21
  8
BYGG-024973$0$ISOLATOR
  6
CONTINUOUS
  2
*X79
 10
0.0
 20
0.0
 30
0.0
1001
ACAD
1000
HATCH
1002
{
1070
    19
1000
ANSI31
1040
0.35
1040
5.4977871437821371
1000
R14_HATCH_DATA
1000
D21
1011
1.0
1021
0.0
1031
0.0
1021
0.0
1031
0.0
1011
0.0
1021
0.0
1031
0.0
1021
1.0
1031
0.0
1011
0.0
1021
0.0
1031
0.0
1021
0.0
1031
1.0
1040
0.0
1010
0.0
1020
0.0
1030
1.0
1000
ANSI31
1070
     0
1070
     0
1071
        1
1071
        1
1071
       49
1070
     2
1040
2.5929699236118529
1040
3.0362576533742951
1040
0.3006817060114675
1040
0.0050584204141675
1040
1.2209764013054469
1070
     1
1070
     1
1040
2.696022157233926
1040
3.3187284049141108
1040
0.2631921356899056
1040
4.2042061177853043
1070
     2
1040
0.4000001930227235
1040
4.5800831661014412
1040
0.400000000002539
1040
1.919862177198238
1040
3.1415926535904428
1070
     0
1070
     1
1040
0.0000001930201847
1040
4.5800831661017014
1040
0.0000001930202131
1040
15.00000015081582
1070
     1
1040
0.0000001930202131
1040
15.00000015081582
1040
0.0000001930202709
1040
25.419917135533922
1070
     2
1040
0.4000001930199204
1040
25.41991713553217
1040
0.3999999999996488
1040
3.1415926535941709
1040
4.3633231299864041
1070
     0
1070
     1
1040
0.2631921356899909
1040
25.79579418384629
1040
2.6960221572256842
1040
26.68127189671447
1070
     2
1040
2.5931237142819441
1040
26.963634468861891
1040
0.3005273892841634
1040
5.0618515338339378
1040
6.2784842586649878
1070
     1
1070
     2
1040
-2.66699529224298
1040
27.191810443800168
1040
5.5653807064749881
1040
6.2419205770420829
1040
6.3050848890821518
1070
     1
1070
     1
1040
2.8970509124056329
1040
27.313680212567501
1040
3.0357206695121568
1040
27.553863277349791
1070
     2
1040
2.8538553347172568
1040
27.6588632773495
1040
0.2100000000000017
1040
5.7595865315828716
1040
7.8539816339739712
1070
     1
1070
     1
1040
2.8538553347173661
1040
27.868863277349512
1040
2.586740806504451
1040
27.868863277349622
1070
     1
1040
2.586740806504451
1040
27.868863277349622
1040
2.3905187407201529
1040
28.200000150815811
1070
     1
1040
2.3905187407201529
1040
28.200000150815811
1040
1.8228745772227051
1040
29.18332028879632
1070
     2
1040
2.0047399120162508
1040
29.288320288794601
1040
0.209999999998109
1040
2.6179938779958061
1040
3.1415926535924319
1070
     0
1070
     1
1040
1.794739912018144
1040
29.288320288795148
1040
1.7947399120180321
1040
29.600000150817721
1070
     2
1040
2.1947399120141631
1040
29.600000150819628
1040
0.3999999999961332
1040
3.1415926535850138
1040
4.7123889803951498
1070
     0
1070
     1
1040
2.1947399120183491
1040
30.000000150815769
1040
5.5947399120180981
1040
30.000000150815819
1070
     2
1040
5.5947399120210077
1040
29.600000150818762
1040
0.3999999999970676
1040
4.7123889803774146
1040
6.2831853071870016
1070
     0
1070
     1
1040
5.9947399120180762
1040
29.600000150815791
1040
5.9947399120180753
1040
29.288320288792129
1070
     2
1040
5.7847399120231273
1040
29.288320288793791
1040
0.2099999999949489
1040
0.0000000000078835
1040
0.5235987756045111
1070
     0
1070
     1
1040
5.9666052468128319
1040
29.183320288795191
1040
5.3988851004507969
1040
28.200000150815811
1070
     1
1040
5.3988851004507969
1040
28.200000150815811
1040
5.0555094274786816
1040
27.60525603914493
1070
     2
1040
6.0947399120290733
1040
27.005256039138821
1040
1.2000000000109059
1040
2.6179938779908598
1040
3.1415926535875132
1070
     1
1070
     1
1040
4.8947399120181672
1040
27.00525603914156
1040
4.8947399120183954
1040
26.05339170625513
1070
     2
1040
3.894739912026143
1040
26.05339170626414
1040
0.9999999999922533
1040
0.0000000000090097
1040
1.221730476401516
1070
     0
1070
     1
1040
4.236760055344007
1040
25.113699085483631
1040
2.0631921356903149
1040
24.322585060573768
1070
     2
1040
2.2000001930215869
1040
23.946708012258298
1040
0.4000000000013905
1040
1.9198621771951729
1040
3.141592653587403
1070
     1
1070
     1
1040
1.8000001930201961
1040
23.946708012259251
1040
1.8000001930201941
1040
15.00000015081582
1070
     1
1040
1.8000001930201961
1040
15.00000015081582
1040
1.800000193020139
1040
6.0532922893723358
1070
     2
1040
2.2000001930187159
1040
6.0532922893713419
1040
0.3999999999985775
1040
3.141592653587308
1040
4.363323129979511
1070
     1
1070
     1
1040
2.0631921356865628
1040
5.6774152410591787
1040
4.2367600553437788
1040
4.8863012161480688
1070
     2
1040
3.8947399120048991
1040
3.94660859535291
1040
1.000000000013211
1040
5.0614548307928056
1040
6.2831853071850263
1070
     0
1070
     1
1040
4.8947399120181103
1040
3.9466085953474699
1040
4.8947399120181103
1040
2.9947442624899732
1070
     2
1040
6.0947399120071371
1040
2.9947442624869791
1040
1.1999999999890261
1040
3.1415926535872978
1040
3.665191429183948
1070
     1
1070
     1
1040
5.0555094274728267
1040
2.3947442624967721
1040
5.3947399120180526
1040
1.807179827788274
1070
     1
1040
5.3947399120180526
1040
1.807179827788274
1040
5.966605246812775
1040
0.8166800128363433
1070
     2
1040
5.7847399120116343
1040
0.7116800128346748
1040
0.2100000000063851
1040
5.759586531589667
1040
6.2831853071863426
1070
     0
1070
     1
1040
5.9947399120180194
1040
0.7116800128332557
1040
5.9947399120180762
1040
0.4000001508157424
1070
     2
1040
5.5947399120151253
1040
0.4000001508187152
1040
0.40000000000295
1040
0.0000000000074323
1040
1.570796326797411
1070
     0
1070
     1
1040
5.594739912014119
1040
0.0000001508157652
1040
2.194739912018064
1040
0.0000001508157652
1070
     2
1040
2.194739912020065
1040
0.4000001508177434
1040
0.4000000000019782
1040
1.5707963267998979
1040
3.1415926535899059
1070
     0
1070
     1
1040
1.7947399120180869
1040
0.4000001508177889
1040
1.7947399120180869
1040
0.7116800128364389
1070
     2
1040
2.0047399120199958
1040
0.7116800128359661
1040
0.2100000000019078
1040
3.1415926535920451
1040
3.6651914291886731
1070
     0
1070
     1
1040
1.8228745772236721
1040
0.8166800128370255
1040
2.586740806504451
1040
2.131137024282026
1070
     1
1040
2.586740806504451
1040
2.131137024282026
1040
2.8538553347173652
1040
2.1311370242821388
1070
     2
1040
2.8538553347172591
1040
2.341137024282141
1040
0.2100000000000017
1040
4.7123889803851959
1040
6.8067840827762964
1070
     1
1070
     1
1040
3.035720669512159
1040
2.4461370242818532
1040
2.8970509124056352
1040
2.686320089064147
1070
     2
1040
-2.6669952916854842
1040
2.8081898578345479
1040
5.5653807059176952
1040
6.2612857252742726
1040
6.3244500373143397
1070
     1
1071
        0
1070
     0
1070
     1
1040
5.4977871437821371
1040
0.35
1070
     0
1070
     1
1040
0.0
1040
0.0
1040
0.0
1040
0.0000000000000003
1040
1.111249999999999
1070
     0
1071
        1
1040
0.0
1040
0.0
1040
0.0
1002
}
  0
POLYLINE
  5
D22
  8
0
 62
     4
 66
     1
 10
0.0
 20
0.0
 30
0.0
 70
     1
  0
VERTEX
  5
1345
  8
0
 62
     4
 10
2.8936477827673448
 20
3.037778621367806
 30
0.0
 42
0.3137019356282051
  0
VERTEX
  5
1346
  8
0
 62
     4
 10
2.696022157233926
 20
3.3187284049141108
 30
0.0
  0
VERTEX
  5
1347
  8
0
 62
     4
 10
0.2631921356899056
 20
4.2042061177853043
 30
0.0
 42
-0.3152987888779321
  0
VERTEX
  5
1348
  8
0
 62
     4
 10
0.0000001930201847
 20
4.5800831661017014
 30
0.0
  0
VERTEX
  5
1349
  8
0
 62
     4
 10
0.0000001930202131
 20
15.00000015081582
 30
0.0
  0
VERTEX
  5
134A
  8
0
 62
     4
 10
0.00000019302027
 20
25.419917135533922
 30
0.0
 42
-0.3152987888779395
  0
VERTEX
  5
134B
  8
0
 62
     4
 10
0.2631921356899909
 20
25.79579418384629
 30
0.0
  0
VERTEX
  5
134C
  8
0
 62
     4
 10
2.6960221572256842
 20
26.68127189671447
 30
0.0
 42
0.3138982169096283
  0
VERTEX
  5
134D
  8
0
 62
     4
 10
2.8936477827660378
 20
26.962221680228652
 30
0.0
 42
0.0157923906855865
  0
VERTEX
  5
134E
  8
0
 62
     4
 10
2.8970509124056329
 20
27.313680212567501
 30
0.0
  0
VERTEX
  5
134F
  8
0
 62
     4
 10
3.035720669512159
 20
27.553863277349791
 30
0.0
 42
0.5773502691889272
  0
VERTEX
  5
1350
  8
0
 62
     4
 10
2.8538553347173661
 20
27.868863277349512
 30
0.0
  0
VERTEX
  5
1351
  8
0
 62
     4
 10
2.586740806504451
 20
27.868863277349622
 30
0.0
  0
VERTEX
  5
1352
  8
0
 62
     4
 10
2.3905187407201529
 20
28.200000150815811
 30
0.0
  0
VERTEX
  5
1353
  8
0
 62
     4
 10
1.8228745772227051
 20
29.18332028879632
 30
0.0
 42
-0.1316524975869703
  0
VERTEX
  5
1354
  8
0
 62
     4
 10
1.794739912018144
 20
29.288320288795148
 30
0.0
  0
VERTEX
  5
1355
  8
0
 62
     4
 10
1.7947399120180301
 20
29.600000150817721
 30
0.0
 42
-0.4142135623775584
  0
VERTEX
  5
1356
  8
0
 62
     4
 10
2.1947399120183491
 20
30.000000150815769
 30
0.0
  0
VERTEX
  5
1357
  8
0
 62
     4
 10
5.5947399120180981
 20
30.000000150815819
 30
0.0
 42
-0.4142135623773978
  0
VERTEX
  5
1358
  8
0
 62
     4
 10
5.9947399120180762
 20
29.600000150815791
 30
0.0
  0
VERTEX
  5
1359
  8
0
 62
     4
 10
5.9947399120180762
 20
29.288320288792129
 30
0.0
 42
-0.1316524975869708
  0
VERTEX
  5
135A
  8
0
 62
     4
 10
5.9666052468128319
 20
29.183320288795191
 30
0.0
  0
VERTEX
  5
135B
  8
0
 62
     4
 10
5.3988851004507969
 20
28.200000150815811
 30
0.0
  0
VERTEX
  5
135C
  8
0
 62
     4
 10
5.0555094274786816
 20
27.60525603914493
 30
0.0
 42
0.1316524975869772
  0
VERTEX
  5
135D
  8
0
 62
     4
 10
4.8947399120181672
 20
27.00525603914156
 30
0.0
  0
VERTEX
  5
135E
  8
0
 62
     4
 10
4.8947399120183936
 20
26.05339170625513
 30
0.0
 42
-0.3152987888780149
  0
VERTEX
  5
135F
  8
0
 62
     4
 10
4.236760055344007
 20
25.113699085483631
 30
0.0
  0
VERTEX
  5
1360
  8
0
 62
     4
 10
2.063192135690314
 20
24.322585060573768
 30
0.0
 42
0.3152987888779391
  0
VERTEX
  5
1361
  8
0
 62
     4
 10
1.8000001930201961
 20
23.946708012259251
 30
0.0
  0
VERTEX
  5
1362
  8
0
 62
     4
 10
1.8000001930201961
 20
15.00000015081582
 30
0.0
  0
VERTEX
  5
1363
  8
0
 62
     4
 10
1.800000193020139
 20
6.0532922893723358
 30
0.0
 42
0.3152987888779318
  0
VERTEX
  5
1364
  8
0
 62
     4
 10
2.0631921356865628
 20
5.6774152410591787
 30
0.0
  0
VERTEX
  5
1365
  8
0
 62
     4
 10
4.2367600553437788
 20
4.8863012161480688
 30
0.0
 42
-0.3152987888779361
  0
VERTEX
  5
1366
  8
0
 62
     4
 10
4.8947399120181103
 20
3.9466085953474699
 30
0.0
  0
VERTEX
  5
1367
  8
0
 62
     4
 10
4.8947399120181103
 20
2.9947442624899732
 30
0.0
 42
0.1316524975869766
  0
VERTEX
  5
1368
  8
0
 62
     4
 10
5.0555094274728267
 20
2.3947442624967721
 30
0.0
  0
VERTEX
  5
1369
  8
0
 62
     4
 10
5.3947399120180526
 20
1.807179827788274
 30
0.0
  0
VERTEX
  5
136A
  8
0
 62
     4
 10
5.966605246812775
 20
0.8166800128363433
 30
0.0
 42
-0.1316524975869832
  0
VERTEX
  5
136B
  8
0
 62
     4
 10
5.9947399120180194
 20
0.7116800128332557
 30
0.0
  0
VERTEX
  5
136C
  8
0
 62
     4
 10
5.9947399120180762
 20
0.4000001508157425
 30
0.0
 42
-0.414213562371655
  0
VERTEX
  5
136D
  8
0
 62
     4
 10
5.594739912014119
 20
0.0000001508157652
 30
0.0
  0
VERTEX
  5
136E
  8
0
 62
     4
 10
2.194739912018064
 20
0.0000001508157652
 30
0.0
 42
-0.4142135623716633
  0
VERTEX
  5
136F
  8
0
 62
     4
 10
1.7947399120180869
 20
0.4000001508177889
 30
0.0
  0
VERTEX
  5
1370
  8
0
 62
     4
 10
1.7947399120180869
 20
0.7116800128364389
 30
0.0
 42
-0.1316524975869709
  0
VERTEX
  5
1371
  8
0
 62
     4
 10
1.8228745772236721
 20
0.8166800128370255
 30
0.0
  0
VERTEX
  5
1372
  8
0
 62
     4
 10
2.586740806504451
 20
2.131137024282026
 30
0.0
  0
VERTEX
  5
1373
  8
0
 62
     4
 10
2.8538553347173661
 20
2.1311370242821388
 30
0.0
 42
0.5773502691889269
  0
VERTEX
  5
1374
  8
0
 62
     4
 10
3.035720669512159
 20
2.4461370242818532
 30
0.0
  0
VERTEX
  5
1375
  8
0
 62
     4
 10
2.8970509124056352
 20
2.686320089064147
 30
0.0
 42
0.015792390685586
  0
SEQEND
  5
1376
  8
0
 62
     4
  0
ENDBLK
  5
8A0
  8
0
  0
BLOCK
  8
0
  2
BYGG-024775
 70
     0
 10
0.0
 20
0.0
 30
0.0
  3
BYGG-024775
  1
\\spnves96\pspdata$\2009\10\0\BYGG-024775.dwg
  0
DIMENSION
  5
D9E
  8
BYGG-024775$0$MATT
  2
*D30
 10
37.348428909669217
 20
-74.235580058704954
 30
0.0
 11
22.59842890966922
 21
-71.735580058704954
 31
0.0
  3
BYGG-024775$0$MASKIN
 13
7.8484289096692228
 23
-52.023794819340083
 33
0.0
 14
37.348428909669217
 24
-52.023794819340083
 34
0.0
1001
ACAD
1000
DSTYLE
1002
{
1070
    40
1040
1.0
1002
}
  0
POLYLINE
  5
DAD
  8
BYGG-024775$0$0_ÖPPEN-PROF
 66
     1
 10
0.0
 20
0.0
 30
0.0
 70
     1
  0
VERTEX
  5
137E
  8
BYGG-024775$0$0_ÖPPEN-PROF
 10
-0.6516150903305517
 20
-20.282889066308599
 30
0.0
 42
-0.3394542950839196
  0
VERTEX
  5
137F
  8
BYGG-024775$0$0_ÖPPEN-PROF
 10
-1.022206090330769
 20
-20.765852595499101
 30
0.0
  0
VERTEX
  5
1380
  8
BYGG-024775$0$0_ÖPPEN-PROF
 10
-8.1572700903307123
 20
-22.677687595499091
 30
0.0
 42
0.4142009999999837
  0
VERTEX
  5
1381
  8
BYGG-024775$0$0_ÖPPEN-PROF
 10
-8.3694050903308153
 20
-23.045097595499101
 30
0.0
  0
VERTEX
  5
1382
  8
BYGG-024775$0$0_ÖPPEN-PROF
 10
-8.0847520903307668
 20
-24.10762859549914
 30
0.0
 42
0.4142269999998691
  0
VERTEX
  5
1383
  8
BYGG-024775$0$0_ÖPPEN-PROF
 10
-7.7173250903307462
 20
-24.3197735954991
 30
0.0
  0
VERTEX
  5
1384
  8
BYGG-024775$0$0_ÖPPEN-PROF
 10
1.6113929096692341
 20
-21.820151595499109
 30
0.0
  0
VERTEX
  5
1385
  8
BYGG-024775$0$0_ÖPPEN-PROF
 10
7.5484289096692692
 20
-21.820151595499109
 30
0.0
 42
-0.4142135623730951
  0
VERTEX
  5
1386
  8
BYGG-024775$0$0_ÖPPEN-PROF
 10
7.8484289096692228
 20
-22.12015159549912
 30
0.0
  0
VERTEX
  5
1387
  8
BYGG-024775$0$0_ÖPPEN-PROF
 10
7.8484289096693374
 20
-62.820182595499141
 30
0.0
 42
0.4142135623730951
  0
VERTEX
  5
1388
  8
BYGG-024775$0$0_ÖPPEN-PROF
 10
8.1484289096692901
 20
-63.120182595499152
 30
0.0
  0
VERTEX
  5
1389
  8
BYGG-024775$0$0_ÖPPEN-PROF
 10
37.048429133791728
 20
-63.120182595499152
 30
0.0
 42
0.4142137811865733
  0
VERTEX
  5
138A
  8
BYGG-024775$0$0_ÖPPEN-PROF
 10
37.348428909669217
 20
-62.820182595499091
 30
0.0
  0
VERTEX
  5
138B
  8
BYGG-024775$0$0_ÖPPEN-PROF
 10
37.348428909669217
 20
-22.719957595499132
 30
0.0
  0
VERTEX
  5
138C
  8
BYGG-024775$0$0_ÖPPEN-PROF
 10
37.148670909669249
 20
-22.52018259549914
 30
0.0
  0
VERTEX
  5
138D
  8
BYGG-024775$0$0_ÖPPEN-PROF
 10
34.848853909669288
 20
-22.520079595499109
 30
0.0
  0
VERTEX
  5
138E
  8
BYGG-024775$0$0_ÖPPEN-PROF
 10
34.262448909669267
 20
-22.98497759549906
 30
0.0
 42
0.7106000000000921
  0
VERTEX
  5
138F
  8
BYGG-024775$0$0_ÖPPEN-PROF
 10
34.448808909669197
 20
-23.520061595499101
 30
0.0
  0
VERTEX
  5
1390
  8
BYGG-024775$0$0_ÖPPEN-PROF
 10
35.348808909669287
 20
-23.52010159549895
 30
0.0
 42
-0.4142139999999028
  0
VERTEX
  5
1391
  8
BYGG-024775$0$0_ÖPPEN-PROF
 10
35.648795909669282
 20
-23.82011559549909
 30
0.0
  0
VERTEX
  5
1392
  8
BYGG-024775$0$0_ÖPPEN-PROF
 10
35.648688909669318
 20
-26.22011559549907
 30
0.0
 42
-0.414214000000136
  0
VERTEX
  5
1393
  8
BYGG-024775$0$0_ÖPPEN-PROF
 10
35.348675909669282
 20
-26.520101595499121
 30
0.0
  0
VERTEX
  5
1394
  8
BYGG-024775$0$0_ÖPPEN-PROF
 10
30.448675909669191
 20
-26.519883595499149
 30
0.0
 42
-0.414214000000086
  0
VERTEX
  5
1395
  8
BYGG-024775$0$0_ÖPPEN-PROF
 10
30.148688909669211
 20
-26.21987059549906
 30
0.0
  0
VERTEX
  5
1396
  8
BYGG-024775$0$0_ÖPPEN-PROF
 10
30.148795909669271
 20
-23.819870595499079
 30
0.0
 42
-0.4142140000000027
  0
VERTEX
  5
1397
  8
BYGG-024775$0$0_ÖPPEN-PROF
 10
30.4488089096692
 20
-23.519883595499099
 30
0.0
  0
VERTEX
  5
1398
  8
BYGG-024775$0$0_ÖPPEN-PROF
 10
30.848808909669291
 20
-23.519901595499171
 30
0.0
 42
0.7106000000000716
  0
VERTEX
  5
1399
  8
BYGG-024775$0$0_ÖPPEN-PROF
 10
31.035216909669199
 20
-22.98483359549914
 30
0.0
  0
VERTEX
  5
139A
  8
BYGG-024775$0$0_ÖPPEN-PROF
 10
30.4488539096692
 20
-22.519883595499099
 30
0.0
  0
VERTEX
  5
139B
  8
BYGG-024775$0$0_ÖPPEN-PROF
 10
28.748853909669268
 20
-22.519808595499171
 30
0.0
 42
0.414214000000036
  0
VERTEX
  5
139C
  8
BYGG-024775$0$0_ÖPPEN-PROF
 10
28.448840909669229
 20
-22.819794595499101
 30
0.0
  0
VERTEX
  5
139D
  8
BYGG-024775$0$0_ÖPPEN-PROF
 10
28.448815909669179
 20
-23.372581595499071
 30
0.0
 42
0.2134220000000518
  0
VERTEX
  5
139E
  8
BYGG-024775$0$0_ÖPPEN-PROF
 10
28.54880590966923
 20
-23.59619259549908
 30
0.0
 42
-0.2134220000000498
  0
VERTEX
  5
139F
  8
BYGG-024775$0$0_ÖPPEN-PROF
 10
28.648795909669278
 20
-23.819803595499138
 30
0.0
  0
VERTEX
  5
13A0
  8
BYGG-024775$0$0_ÖPPEN-PROF
 10
28.648630909669119
 20
-27.51980359549907
 30
0.0
 42
0.4142140000000028
  0
VERTEX
  5
13A1
  8
BYGG-024775$0$0_ÖPPEN-PROF
 10
29.148608909669179
 20
-28.019825595499132
 30
0.0
  0
VERTEX
  5
13A2
  8
BYGG-024775$0$0_ÖPPEN-PROF
 10
35.148425909669299
 20
-28.02009359549913
 30
0.0
 42
-0.414214000000036
  0
VERTEX
  5
13A3
  8
BYGG-024775$0$0_ÖPPEN-PROF
 10
35.648403909669128
 20
-28.520115595499139
 30
0.0
  0
VERTEX
  5
13A4
  8
BYGG-024775$0$0_ÖPPEN-PROF
 10
35.648111909669183
 20
-30.52025559549913
 30
0.0
 42
-0.4141710000000158
  0
VERTEX
  5
13A5
  8
BYGG-024775$0$0_ÖPPEN-PROF
 10
35.14811190966919
 20
-31.02018259549914
 30
0.0
  0
VERTEX
  5
13A6
  8
BYGG-024775$0$0_ÖPPEN-PROF
 10
19.84838690966933
 20
-31.020182595498969
 30
0.0
 42
-0.41421378118654
  0
VERTEX
  5
13A7
  8
BYGG-024775$0$0_ÖPPEN-PROF
 10
19.348386909669209
 20
-30.520182969036739
 30
0.0
  0
VERTEX
  5
13A8
  8
BYGG-024775$0$0_ÖPPEN-PROF
 10
19.348386909669209
 20
-18.520151595499161
 30
0.0
 42
-0.4142140000001354
  0
VERTEX
  5
13A9
  8
BYGG-024775$0$0_ÖPPEN-PROF
 10
19.648386909669281
 20
-18.22015159549909
 30
0.0
  0
VERTEX
  5
13AA
  8
BYGG-024775$0$0_ÖPPEN-PROF
 10
19.698386909669239
 20
-18.22015159549909
 30
0.0
  0
VERTEX
  5
13AB
  8
BYGG-024775$0$0_ÖPPEN-PROF
 10
20.134489909669352
 20
-16.793722595499052
 30
0.0
 42
0.476976000000043
  0
VERTEX
  5
13AC
  8
BYGG-024775$0$0_ÖPPEN-PROF
 10
19.858062909669229
 20
-16.38390259549908
 30
0.0
  0
VERTEX
  5
13AD
  8
BYGG-024775$0$0_ÖPPEN-PROF
 10
18.01751490966921
 20
-16.22287559549909
 30
0.0
 42
0.2216949999999973
  0
VERTEX
  5
13AE
  8
BYGG-024775$0$0_ÖPPEN-PROF
 10
17.382104909669241
 20
-16.454145595499082
 30
0.0
  0
VERTEX
  5
13AF
  8
BYGG-024775$0$0_ÖPPEN-PROF
 10
17.157520909669302
 20
-16.678729595499082
 30
0.0
 42
0.577350000000126
  0
VERTEX
  5
13B0
  8
BYGG-024775$0$0_ÖPPEN-PROF
 10
17.24717790966929
 20
-17.01333659549908
 30
0.0
  0
VERTEX
  5
13B1
  8
BYGG-024775$0$0_ÖPPEN-PROF
 10
17.55813990966919
 20
-17.09665859549909
 30
0.0
  0
VERTEX
  5
13B2
  8
BYGG-024775$0$0_ÖPPEN-PROF
 10
18.048386909669262
 20
-19.22015159549909
 30
0.0
  0
VERTEX
  5
13B3
  8
BYGG-024775$0$0_ÖPPEN-PROF
 10
18.048386909669151
 20
-19.420151595499082
 30
0.0
 42
-0.6885000000001503
  0
VERTEX
  5
13B4
  8
BYGG-024775$0$0_ÖPPEN-PROF
 10
17.524779909669292
 20
-19.62015159549912
 30
0.0
 42
0.2134219999999575
  0
VERTEX
  5
13B5
  8
BYGG-024775$0$0_ÖPPEN-PROF
 10
17.301172909669269
 20
-19.520151595499101
 30
0.0
  0
VERTEX
  5
13B6
  8
BYGG-024775$0$0_ÖPPEN-PROF
 10
13.448386909669351
 20
-19.520151595499101
 30
0.0
 42
-0.4142139999999356
  0
VERTEX
  5
13B7
  8
BYGG-024775$0$0_ÖPPEN-PROF
 10
13.148386909669281
 20
-19.22015159549909
 30
0.0
  0
VERTEX
  5
13B8
  8
BYGG-024775$0$0_ÖPPEN-PROF
 10
13.148386909669281
 20
-18.920151595499082
 30
0.0
  0
VERTEX
  5
13B9
  8
BYGG-024775$0$0_ÖPPEN-PROF
 10
14.0721469096693
 20
-17.320151595499109
 30
0.0
 42
0.5773500000002099
  0
VERTEX
  5
13BA
  8
BYGG-024775$0$0_ÖPPEN-PROF
 10
13.898941909669251
 20
-17.020151595499101
 30
0.0
  0
VERTEX
  5
13BB
  8
BYGG-024775$0$0_ÖPPEN-PROF
 10
12.513301909669281
 20
-17.020151595499151
 30
0.0
 42
0.2679489999999963
  0
VERTEX
  5
13BC
  8
BYGG-024775$0$0_ÖPPEN-PROF
 10
11.647275909669251
 20
-17.520151595499101
 30
0.0
  0
VERTEX
  5
13BD
  8
BYGG-024775$0$0_ÖPPEN-PROF
 10
10.63691290966926
 20
-19.270151595499101
 30
0.0
 42
-0.2679490000000247
  0
VERTEX
  5
13BE
  8
BYGG-024775$0$0_ÖPPEN-PROF
 10
10.20389990966919
 20
-19.520151595499101
 30
0.0
  0
VERTEX
  5
13BF
  8
BYGG-024775$0$0_ÖPPEN-PROF
 10
8.4928689096693688
 20
-19.520151595499101
 30
0.0
 42
-0.2679490000000247
  0
VERTEX
  5
13C0
  8
BYGG-024775$0$0_ÖPPEN-PROF
 10
8.0598559096692952
 20
-19.270151595499101
 30
0.0
  0
VERTEX
  5
13C1
  8
BYGG-024775$0$0_ÖPPEN-PROF
 10
7.0494929096691967
 20
-17.520151595499101
 30
0.0
 42
0.2679490000000078
  0
VERTEX
  5
13C2
  8
BYGG-024775$0$0_ÖPPEN-PROF
 10
6.1834679096692753
 20
-17.020151595499101
 30
0.0
  0
VERTEX
  5
13C3
  8
BYGG-024775$0$0_ÖPPEN-PROF
 10
4.7978269096693111
 20
-17.020151595499101
 30
0.0
 42
0.5773499999999686
  0
VERTEX
  5
13C4
  8
BYGG-024775$0$0_ÖPPEN-PROF
 10
4.6246219096692576
 20
-17.320151595499048
 30
0.0
  0
VERTEX
  5
13C5
  8
BYGG-024775$0$0_ÖPPEN-PROF
 10
5.5483829096692707
 20
-18.920151595499082
 30
0.0
  0
VERTEX
  5
13C6
  8
BYGG-024775$0$0_ÖPPEN-PROF
 10
5.5483829096693853
 20
-19.22015159549909
 30
0.0
 42
-0.4142139999999689
  0
VERTEX
  5
13C7
  8
BYGG-024775$0$0_ÖPPEN-PROF
 10
5.2483829096693171
 20
-19.520151595499101
 30
0.0
  0
VERTEX
  5
13C8
  8
BYGG-024775$0$0_ÖPPEN-PROF
 10
1.395595909669282
 20
-19.520151595499151
 30
0.0
 42
0.2134220000000454
  0
VERTEX
  5
13C9
  8
BYGG-024775$0$0_ÖPPEN-PROF
 10
1.1719889096693801
 20
-19.62015159549912
 30
0.0
 42
-0.6885000000001575
  0
VERTEX
  5
13CA
  8
BYGG-024775$0$0_ÖPPEN-PROF
 10
0.6483829096692944
 20
-19.420151595499082
 30
0.0
  0
VERTEX
  5
13CB
  8
BYGG-024775$0$0_ÖPPEN-PROF
 10
0.6483829096692944
 20
-19.22015159549909
 30
0.0
  0
VERTEX
  5
13CC
  8
BYGG-024775$0$0_ÖPPEN-PROF
 10
1.138629909669248
 20
-17.09665859549909
 30
0.0
  0
VERTEX
  5
13CD
  8
BYGG-024775$0$0_ÖPPEN-PROF
 10
1.4495909096692681
 20
-17.01333659549908
 30
0.0
 42
0.5773499999999805
  0
VERTEX
  5
13CE
  8
BYGG-024775$0$0_ÖPPEN-PROF
 10
1.5392489096692541
 20
-16.678729595499082
 30
0.0
  0
VERTEX
  5
13CF
  8
BYGG-024775$0$0_ÖPPEN-PROF
 10
1.3146649096693179
 20
-16.454145595499082
 30
0.0
 42
0.2216949999999953
  0
VERTEX
  5
13D0
  8
BYGG-024775$0$0_ÖPPEN-PROF
 10
0.6792549096692256
 20
-16.22287559549909
 30
0.0
  0
VERTEX
  5
13D1
  8
BYGG-024775$0$0_ÖPPEN-PROF
 10
-1.1612930903306731
 20
-16.38390259549908
 30
0.0
 42
0.4769760000001309
  0
VERTEX
  5
13D2
  8
BYGG-024775$0$0_ÖPPEN-PROF
 10
-1.437720090330685
 20
-16.793722595499101
 30
0.0
  0
VERTEX
  5
13D3
  8
BYGG-024775$0$0_ÖPPEN-PROF
 10
-1.001617090330682
 20
-18.22015159549909
 30
0.0
  0
VERTEX
  5
13D4
  8
BYGG-024775$0$0_ÖPPEN-PROF
 10
-0.9516150903307334
 20
-18.220151595499029
 30
0.0
 42
-0.4142139999999689
  0
VERTEX
  5
13D5
  8
BYGG-024775$0$0_ÖPPEN-PROF
 10
-0.651615090330779
 20
-18.520151595499101
 30
0.0
  0
SEQEND
  5
13D6
  8
BYGG-024775$0$0_ÖPPEN-PROF
  0
POLYLINE
  5
DAE
  8
BYGG-024775$0$0_ÖPPEN-PROF
 66
     1
 10
0.0
 20
0.0
 30
0.0
 70
     1
  0
VERTEX
  5
13D7
  8
BYGG-024775$0$0_ÖPPEN-PROF
 10
24.148428909669288
 20
-61.120182595499053
 30
0.0
 42
-0.4142139999998358
  0
VERTEX
  5
13D8
  8
BYGG-024775$0$0_ÖPPEN-PROF
 10
24.44842890966925
 20
-60.820182595499091
 30
0.0
  0
VERTEX
  5
13D9
  8
BYGG-024775$0$0_ÖPPEN-PROF
 10
25.84842890966922
 20
-60.820182595499091
 30
0.0
 42
0.414213999999919
  0
VERTEX
  5
13DA
  8
BYGG-024775$0$0_ÖPPEN-PROF
 10
26.148428909669182
 20
-60.520182595499143
 30
0.0
  0
VERTEX
  5
13DB
  8
BYGG-024775$0$0_ÖPPEN-PROF
 10
26.148428909669182
 20
-56.720190595499098
 30
0.0
 42
-0.4142449999999811
  0
VERTEX
  5
13DC
  8
BYGG-024775$0$0_ÖPPEN-PROF
 10
26.448460909669279
 20
-56.420190595499093
 30
0.0
  0
VERTEX
  5
13DD
  8
BYGG-024775$0$0_ÖPPEN-PROF
 10
27.34846090966926
 20
-56.420285595499131
 30
0.0
 42
-0.4141820000001122
  0
VERTEX
  5
13DE
  8
BYGG-024775$0$0_ÖPPEN-PROF
 10
27.648428909669182
 20
-56.720285595499142
 30
0.0
  0
VERTEX
  5
13DF
  8
BYGG-024775$0$0_ÖPPEN-PROF
 10
27.648428909669182
 20
-61.120349595499079
 30
0.0
 42
0.4240208847482567
  0
VERTEX
  5
13E0
  8
BYGG-024775$0$0_ÖPPEN-PROF
 10
27.95843773108572
 20
-61.420182595499107
 30
0.0
  0
VERTEX
  5
13E1
  8
BYGG-024775$0$0_ÖPPEN-PROF
 10
35.348434133791777
 20
-61.420182595499107
 30
0.0
 42
0.4142137811864901
  0
VERTEX
  5
13E2
  8
BYGG-024775$0$0_ÖPPEN-PROF
 10
35.648433909669279
 20
-61.120182595499102
 30
0.0
  0
VERTEX
  5
13E3
  8
BYGG-024775$0$0_ÖPPEN-PROF
 10
35.648433909669279
 20
-38.520190595499123
 30
0.0
 42
0.4142139999998857
  0
VERTEX
  5
13E4
  8
BYGG-024775$0$0_ÖPPEN-PROF
 10
35.348433909669332
 20
-38.220190595499112
 30
0.0
  0
VERTEX
  5
13E5
  8
BYGG-024775$0$0_ÖPPEN-PROF
 10
32.948433909669227
 20
-38.220190595499162
 30
0.0
 42
-0.4142139999999523
  0
VERTEX
  5
13E6
  8
BYGG-024775$0$0_ÖPPEN-PROF
 10
32.648433909669279
 20
-37.920190595499101
 30
0.0
  0
VERTEX
  5
13E7
  8
BYGG-024775$0$0_ÖPPEN-PROF
 10
32.648433909669279
 20
-36.520190595499123
 30
0.0
 42
-0.4142140000000189
  0
VERTEX
  5
13E8
  8
BYGG-024775$0$0_ÖPPEN-PROF
 10
32.948433909669227
 20
-36.220190595499112
 30
0.0
  0
VERTEX
  5
13E9
  8
BYGG-024775$0$0_ÖPPEN-PROF
 10
35.348433909669332
 20
-36.220190595499162
 30
0.0
 42
0.4142139999999689
  0
VERTEX
  5
13EA
  8
BYGG-024775$0$0_ÖPPEN-PROF
 10
35.648433909669279
 20
-35.920190595499093
 30
0.0
  0
VERTEX
  5
13EB
  8
BYGG-024775$0$0_ÖPPEN-PROF
 10
35.648433909669279
 20
-33.02018259549908
 30
0.0
 42
0.414213999999919
  0
VERTEX
  5
13EC
  8
BYGG-024775$0$0_ÖPPEN-PROF
 10
35.348433909669332
 20
-32.720182595499132
 30
0.0
  0
VERTEX
  5
13ED
  8
BYGG-024775$0$0_ÖPPEN-PROF
 10
9.8484289096693374
 20
-32.720182595499068
 30
0.0
 42
0.4142140000000355
  0
VERTEX
  5
13EE
  8
BYGG-024775$0$0_ÖPPEN-PROF
 10
9.5484289096692692
 20
-33.020182595499143
 30
0.0
  0
VERTEX
  5
13EF
  8
BYGG-024775$0$0_ÖPPEN-PROF
 10
9.5484289096692692
 20
-35.920188595499098
 30
0.0
 42
0.4142140000001354
  0
VERTEX
  5
13F0
  8
BYGG-024775$0$0_ÖPPEN-PROF
 10
9.8484289096692237
 20
-36.22018859549911
 30
0.0
  0
VERTEX
  5
13F1
  8
BYGG-024775$0$0_ÖPPEN-PROF
 10
12.248428909669199
 20
-36.220188595499224
 30
0.0
 42
-0.4142140000000189
  0
VERTEX
  5
13F2
  8
BYGG-024775$0$0_ÖPPEN-PROF
 10
12.548428909669269
 20
-36.520188595499121
 30
0.0
  0
VERTEX
  5
13F3
  8
BYGG-024775$0$0_ÖPPEN-PROF
 10
12.548428909669269
 20
-37.920188595499098
 30
0.0
 42
-0.4142140000001188
  0
VERTEX
  5
13F4
  8
BYGG-024775$0$0_ÖPPEN-PROF
 10
12.248428909669199
 20
-38.22018859549911
 30
0.0
  0
VERTEX
  5
13F5
  8
BYGG-024775$0$0_ÖPPEN-PROF
 10
9.8484289096693374
 20
-38.22018859549911
 30
0.0
 42
0.4142140000000022
  0
VERTEX
  5
13F6
  8
BYGG-024775$0$0_ÖPPEN-PROF
 10
9.5484289096692692
 20
-38.520188595499121
 30
0.0
  0
VERTEX
  5
13F7
  8
BYGG-024775$0$0_ÖPPEN-PROF
 10
9.5484289096692692
 20
-61.120182595499102
 30
0.0
 42
0.4142140000000855
  0
VERTEX
  5
13F8
  8
BYGG-024775$0$0_ÖPPEN-PROF
 10
9.8484289096692237
 20
-61.420182595499107
 30
0.0
  0
VERTEX
  5
13F9
  8
BYGG-024775$0$0_ÖPPEN-PROF
 10
11.248428909669199
 20
-61.420182595499107
 30
0.0
 42
0.4142140000000022
  0
VERTEX
  5
13FA
  8
BYGG-024775$0$0_ÖPPEN-PROF
 10
11.548428909669269
 20
-61.120182595499102
 30
0.0
 42
-0.4142139999999024
  0
VERTEX
  5
13FB
  8
BYGG-024775$0$0_ÖPPEN-PROF
 10
11.84842890966922
 20
-60.820182595499091
 30
0.0
  0
VERTEX
  5
13FC
  8
BYGG-024775$0$0_ÖPPEN-PROF
 10
13.248428909669309
 20
-60.820182595499091
 30
0.0
 42
-0.4142139999998857
  0
VERTEX
  5
13FD
  8
BYGG-024775$0$0_ÖPPEN-PROF
 10
13.54842890966915
 20
-61.120182595499102
 30
0.0
 42
0.4142139999999689
  0
VERTEX
  5
13FE
  8
BYGG-024775$0$0_ÖPPEN-PROF
 10
13.84842890966922
 20
-61.420182595499107
 30
0.0
  0
VERTEX
  5
13FF
  8
BYGG-024775$0$0_ÖPPEN-PROF
 10
23.8484291337918
 20
-61.420182595499107
 30
0.0
 42
0.4142137811865733
  0
SEQEND
  5
1400
  8
BYGG-024775$0$0_ÖPPEN-PROF
  0
POLYLINE
  5
DAF
  8
BYGG-024775$0$0_ÖPPEN-PROF
 66
     1
 10
0.0
 20
0.0
 30
0.0
 70
     1
  0
VERTEX
  5
1401
  8
BYGG-024775$0$0_ÖPPEN-PROF
 10
9.8484289096692237
 20
-31.02018259549914
 30
0.0
  0
VERTEX
  5
1402
  8
BYGG-024775$0$0_ÖPPEN-PROF
 10
17.348386909669209
 20
-31.02018259549914
 30
0.0
 42
0.4142140000000522
  0
VERTEX
  5
1403
  8
BYGG-024775$0$0_ÖPPEN-PROF
 10
17.648386909669281
 20
-30.720182595499129
 30
0.0
  0
VERTEX
  5
1404
  8
BYGG-024775$0$0_ÖPPEN-PROF
 10
17.648386909669281
 20
-22.12015159549912
 30
0.0
 42
0.4142139999999523
  0
VERTEX
  5
1405
  8
BYGG-024775$0$0_ÖPPEN-PROF
 10
17.348386909669209
 20
-21.820151595499109
 30
0.0
  0
VERTEX
  5
1406
  8
BYGG-024775$0$0_ÖPPEN-PROF
 10
9.8484289096693374
 20
-21.820151595499109
 30
0.0
 42
0.4142140000000022
  0
VERTEX
  5
1407
  8
BYGG-024775$0$0_ÖPPEN-PROF
 10
9.5484289096692692
 20
-22.12015159549912
 30
0.0
  0
VERTEX
  5
1408
  8
BYGG-024775$0$0_ÖPPEN-PROF
 10
9.5484289096692692
 20
-30.720182595499129
 30
0.0
 42
0.4142140000001188
  0
SEQEND
  5
1409
  8
BYGG-024775$0$0_ÖPPEN-PROF
  0
POLYLINE
  5
DB0
  8
BYGG-024775$0$LACK_SYNLIGY
 66
     1
 10
0.0
 20
0.0
 30
0.0
  0
VERTEX
  5
140A
  8
BYGG-024775$0$LACK_SYNLIGY
 10
42.118705281116149
 20
-20.670174258477122
 30
0.0
  0
VERTEX
  5
140B
  8
BYGG-024775$0$LACK_SYNLIGY
 10
42.118705281116149
 20
-67.474421340982644
 30
0.0
  0
VERTEX
  5
140C
  8
BYGG-024775$0$LACK_SYNLIGY
 10
4.4646255031668707
 20
-67.474421340982644
 30
0.0
  0
SEQEND
  5
140D
  8
BYGG-024775$0$LACK_SYNLIGY
  0
POLYLINE
  5
DB1
  8
BYGG-024775$0$LACK_MINDRES
  6
CONTINUOUS
 66
     1
 10
0.0
 20
0.0
 30
0.0
  0
VERTEX
  5
140E
  8
BYGG-024775$0$LACK_MINDRES
  6
CONTINUOUS
 10
-2.738763713851085
 20
-16.415242743494272
 30
0.0
  0
VERTEX
  5
140F
  8
BYGG-024775$0$LACK_MINDRES
  6
CONTINUOUS
 10
-11.251859703574951
 20
-18.706359664904941
 30
0.0
  0
VERTEX
  5
1410
  8
BYGG-024775$0$LACK_MINDRES
  6
CONTINUOUS
 10
-9.9421526282328614
 20
-27.216222903717782
 30
0.0
  0
VERTEX
  5
1411
  8
BYGG-024775$0$LACK_MINDRES
  6
CONTINUOUS
 10
1.1903578148114771
 20
-24.59780344562154
 30
0.0
  0
VERTEX
  5
1412
  8
BYGG-024775$0$LACK_MINDRES
  6
CONTINUOUS
 10
4.4646255031668707
 20
-24.59780344562154
 30
0.0
  0
VERTEX
  5
1413
  8
BYGG-024775$0$LACK_MINDRES
  6
CONTINUOUS
 10
4.4646255031668707
 20
-67.474421340982644
 30
0.0
  0
SEQEND
  5
1414
  8
BYGG-024775$0$LACK_MINDRES
  6
CONTINUOUS
  0
POLYLINE
  5
DB2
  8
BYGG-024775$0$LACK_MINDRES
  6
CONTINUOUS
 66
     1
 10
0.0
 20
0.0
 30
0.0
  0
VERTEX
  5
1415
  8
BYGG-024775$0$LACK_MINDRES
  6
CONTINUOUS
 10
-2.8687044184244992
 20
-15.93242247331602
 30
0.0
  0
VERTEX
  5
1416
  8
BYGG-024775$0$LACK_MINDRES
  6
CONTINUOUS
 10
-11.81414711155764
 20
-18.33989622299379
 30
0.0
  0
VERTEX
  5
1417
  8
BYGG-024775$0$LACK_MINDRES
  6
CONTINUOUS
 10
-10.35407617151156
 20
-27.826753439147581
 30
0.0
  0
VERTEX
  5
1418
  8
BYGG-024775$0$LACK_MINDRES
  6
CONTINUOUS
 10
1.24836751165742
 20
-25.09780344562148
 30
0.0
  0
VERTEX
  5
1419
  8
BYGG-024775$0$LACK_MINDRES
  6
CONTINUOUS
 10
3.9646255031668711
 20
-25.09780344562154
 30
0.0
  0
VERTEX
  5
141A
  8
BYGG-024775$0$LACK_MINDRES
  6
CONTINUOUS
 10
3.9646255031668711
 20
-67.474421340982644
 30
0.0
  0
SEQEND
  5
141B
  8
BYGG-024775$0$LACK_MINDRES
  6
CONTINUOUS
  0
POLYLINE
  5
DB3
  8
0
 66
     1
 10
0.0
 20
0.0
 30
0.0
 70
     1
  0
VERTEX
  5
141C
  8
0
 10
17.648428909669288
 20
-30.720182595499129
 30
0.0
  0
VERTEX
  5
141D
  8
0
 10
17.648428909669288
 20
-22.12018259549912
 30
0.0
 42
0.414213999999924
  0
VERTEX
  5
141E
  8
0
 10
17.34842890966922
 20
-21.820182595499109
 30
0.0
  0
VERTEX
  5
141F
  8
0
 10
9.848470909669345
 20
-21.820182595499109
 30
0.0
 42
0.4142140000000905
  0
VERTEX
  5
1420
  8
0
 10
9.5484709096692768
 20
-22.12018259549912
 30
0.0
  0
VERTEX
  5
1421
  8
0
 10
9.5484709096692768
 20
-30.720182595499129
 30
0.0
 42
0.4142140000001459
  0
VERTEX
  5
1422
  8
0
 10
9.8484709096692313
 20
-31.02018259549914
 30
0.0
  0
VERTEX
  5
1423
  8
0
 10
17.34842890966922
 20
-31.02018259549914
 30
0.0
 42
0.4142140000001461
  0
SEQEND
  5
1424
  8
0
  0
POLYLINE
  5
DB4
  8
0
 66
     1
 10
0.0
 20
0.0
 30
0.0
 70
     1
  0
VERTEX
  5
1425
  8
0
 10
26.148428909669182
 20
-60.520182595499143
 30
0.0
  0
VERTEX
  5
1426
  8
0
 10
26.148428909669182
 20
-56.720190595499098
 30
0.0
 42
-0.4142450000000288
  0
VERTEX
  5
1427
  8
0
 10
26.448460909669279
 20
-56.420190595499093
 30
0.0
  0
VERTEX
  5
1428
  8
0
 10
27.34846090966926
 20
-56.420285595499131
 30
0.0
 42
-0.4141819999999786
  0
VERTEX
  5
1429
  8
0
 10
27.648428909669182
 20
-56.720285595499142
 30
0.0
  0
VERTEX
  5
142A
  8
0
 10
27.648428909669182
 20
-61.120349595499079
 30
0.0
 42
0.424020884748223
  0
VERTEX
  5
142B
  8
0
 10
27.95843773108572
 20
-61.420182595499107
 30
0.0
  0
VERTEX
  5
142C
  8
0
 10
35.348434133791777
 20
-61.420182595499107
 30
0.0
 42
0.4142137811864927
  0
VERTEX
  5
142D
  8
0
 10
35.648433909669279
 20
-61.120182595499102
 30
0.0
  0
VERTEX
  5
142E
  8
0
 10
35.648433909669279
 20
-38.520190595499123
 30
0.0
 42
0.4142139999998685
  0
VERTEX
  5
142F
  8
0
 10
35.348433909669332
 20
-38.220190595499112
 30
0.0
  0
VERTEX
  5
1430
  8
0
 10
32.948433909669227
 20
-38.220190595499162
 30
0.0
 42
-0.414213999999924
  0
VERTEX
  5
1431
  8
0
 10
32.648433909669279
 20
-37.920190595499101
 30
0.0
  0
VERTEX
  5
1432
  8
0
 10
32.648433909669279
 20
-36.520190595499123
 30
0.0
 42
-0.4142140000000351
  0
VERTEX
  5
1433
  8
0
 10
32.948433909669227
 20
-36.220190595499112
 30
0.0
  0
VERTEX
  5
1434
  8
0
 10
35.348433909669332
 20
-36.220190595499162
 30
0.0
 42
0.414213999999924
  0
VERTEX
  5
1435
  8
0
 10
35.648433909669279
 20
-35.920190595499093
 30
0.0
  0
VERTEX
  5
1436
  8
0
 10
35.648433909669279
 20
-33.02018259549908
 30
0.0
 42
0.4142139999998685
  0
VERTEX
  5
1437
  8
0
 10
35.348433909669332
 20
-32.720182595499132
 30
0.0
  0
VERTEX
  5
1438
  8
0
 10
9.8484289096693374
 20
-32.720182595499068
 30
0.0
 42
0.414214000000146
  0
VERTEX
  5
1439
  8
0
 10
9.5484289096692692
 20
-33.020182595499143
 30
0.0
  0
VERTEX
  5
143A
  8
0
 10
9.5484289096692692
 20
-35.920188595499098
 30
0.0
 42
0.4142140000000906
  0
VERTEX
  5
143B
  8
0
 10
9.8484289096692237
 20
-36.22018859549911
 30
0.0
  0
VERTEX
  5
143C
  8
0
 10
12.248428909669199
 20
-36.220188595499224
 30
0.0
 42
-0.4142140000000907
  0
VERTEX
  5
143D
  8
0
 10
12.548428909669269
 20
-36.520188595499121
 30
0.0
  0
VERTEX
  5
143E
  8
0
 10
12.548428909669269
 20
-37.920188595499098
 30
0.0
 42
-0.4142140000001461
  0
VERTEX
  5
143F
  8
0
 10
12.248428909669199
 20
-38.22018859549911
 30
0.0
  0
VERTEX
  5
1440
  8
0
 10
9.8484289096693374
 20
-38.22018859549911
 30
0.0
 42
0.4142140000000905
  0
VERTEX
  5
1441
  8
0
 10
9.5484289096692692
 20
-38.520188595499121
 30
0.0
  0
VERTEX
  5
1442
  8
0
 10
9.5484289096692692
 20
-61.120182595499102
 30
0.0
 42
0.4142140000000906
  0
VERTEX
  5
1443
  8
0
 10
9.8484289096692237
 20
-61.420182595499107
 30
0.0
  0
VERTEX
  5
1444
  8
0
 10
11.248428909669199
 20
-61.420182595499107
 30
0.0
 42
0.4142140000001461
  0
VERTEX
  5
1445
  8
0
 10
11.548428909669269
 20
-61.120182595499102
 30
0.0
 42
-0.414213999999924
  0
VERTEX
  5
1446
  8
0
 10
11.84842890966922
 20
-60.820182595499091
 30
0.0
  0
VERTEX
  5
1447
  8
0
 10
13.248428909669309
 20
-60.820182595499091
 30
0.0
 42
-0.4142139999999794
  0
VERTEX
  5
1448
  8
0
 10
13.54842890966915
 20
-61.120182595499102
 30
0.0
 42
0.4142139999998684
  0
VERTEX
  5
1449
  8
0
 10
13.84842890966922
 20
-61.420182595499107
 30
0.0
  0
VERTEX
  5
144A
  8
0
 10
23.8484291337918
 20
-61.420182595499107
 30
0.0
 42
0.4142137811864927
  0
VERTEX
  5
144B
  8
0
 10
24.148428909669288
 20
-61.120182595499053
 30
0.0
 42
-0.414213999999813
  0
VERTEX
  5
144C
  8
0
 10
24.44842890966925
 20
-60.820182595499091
 30
0.0
  0
VERTEX
  5
144D
  8
0
 10
25.84842890966922
 20
-60.820182595499091
 30
0.0
 42
0.4142139999998685
  0
SEQEND
  5
144E
  8
0
  0
POLYLINE
  5
DB5
  8
0
 66
     1
 10
0.0
 20
0.0
 30
0.0
  0
VERTEX
  5
144F
  8
0
 10
7.5484729096692709
 20
-21.820182595499109
 30
0.0
  0
VERTEX
  5
1450
  8
0
 10
1.6114369096692369
 20
-21.820182595499109
 30
0.0
  0
VERTEX
  5
1451
  8
0
 10
-7.7172810903307427
 20
-24.319804595499161
 30
0.0
 42
-0.4142269999998489
  0
VERTEX
  5
1452
  8
0
 10
-8.0847080903307642
 20
-24.10765959549914
 30
0.0
  0
VERTEX
  5
1453
  8
0
 10
-8.3693610903308127
 20
-23.045128595499101
 30
0.0
 42
-0.4142010000001278
  0
VERTEX
  5
1454
  8
0
 10
-8.1572260903307097
 20
-22.677718595499101
 30
0.0
  0
VERTEX
  5
1455
  8
0
 10
-1.022162090330766
 20
-20.765883595499162
 30
0.0
 42
0.3394542950838991
  0
VERTEX
  5
1456
  8
0
 10
-0.6515710903305491
 20
-20.282920066308598
 30
0.0
  0
VERTEX
  5
1457
  8
0
 10
-0.6515710903306627
 20
-19.518011495796621
 30
0.0
  0
VERTEX
  5
1458
  8
0
 10
-0.1409511026085966
 20
-18.196901252896421
 30
0.0
 42
0.4142135623730607
  0
VERTEX
  5
1459
  8
0
 10
-0.340915147115993
 20
-17.822716297420602
 30
0.0
  0
VERTEX
  5
145A
  8
0
 10
-0.38876089711448
 20
-17.808197888173499
 30
0.0
  0
VERTEX
  5
145B
  8
0
 10
-0.3888445049981328
 20
-16.305096807411491
 30
0.0
 42
-0.4769755326981281
  0
VERTEX
  5
145C
  8
0
 10
-0.0171876300523763
 20
-16.002843982905031
 30
0.0
  0
VERTEX
  5
145D
  8
0
 10
1.796042840605991
 20
-16.38429057903274
 30
0.0
 42
-0.221694662643023
  0
VERTEX
  5
145E
  8
0
 10
2.3369226720826641
 20
-16.79009948418754
 30
0.0
  0
VERTEX
  5
145F
  8
0
 10
2.4890565831915401
 20
-17.074781767419172
 30
0.0
 42
-0.577350269189773
  0
VERTEX
  5
1460
  8
0
 10
2.3061028430813622
 20
-17.368938067674002
 30
0.0
  0
VERTEX
  5
1461
  8
0
 10
1.984345114863117
 20
-17.358376701447028
 30
0.0
  0
VERTEX
  5
1462
  8
0
 10
0.8997806678912638
 20
-19.24422039330809
 30
0.0
  0
VERTEX
  5
1463
  8
0
 10
0.8417070309022847
 20
-19.435603393301811
 30
0.0
 42
0.7625858545243234
  0
VERTEX
  5
1464
  8
0
 10
1.172033111919162
 20
-19.620182595499291
 30
0.0
 42
-0.2134217652834307
  0
VERTEX
  5
1465
  8
0
 10
1.395639909669284
 20
-19.520182595499161
 30
0.0
  0
VERTEX
  5
1466
  8
0
 10
5.2484269096693188
 20
-19.520182595499101
 30
0.0
 42
0.4142139999999814
  0
VERTEX
  5
1467
  8
0
 10
5.548426909669387
 20
-19.220182595499089
 30
0.0
  0
VERTEX
  5
1468
  8
0
 10
5.5484269096692742
 20
-18.920182595499082
 30
0.0
  0
VERTEX
  5
1469
  8
0
 10
4.6246659096692611
 20
-17.320182595499048
 30
0.0
 42
-0.5773499999998635
  0
VERTEX
  5
146A
  8
0
 10
4.7978709096693128
 20
-17.020182595499101
 30
0.0
  0
VERTEX
  5
146B
  8
0
 10
6.183511909669277
 20
-17.020182595499101
 30
0.0
 42
-0.2679490000000113
  0
VERTEX
  5
146C
  8
0
 10
7.0495369096692002
 20
-17.520182595499101
 30
0.0
  0
VERTEX
  5
146D
  8
0
 10
8.0598999096692978
 20
-19.270182595499101
 30
0.0
 42
0.2679490000000428
  0
VERTEX
  5
146E
  8
0
 10
8.4929129096693714
 20
-19.520182595499101
 30
0.0
  0
VERTEX
  5
146F
  8
0
 10
10.203941909669201
 20
-19.520182595499101
 30
0.0
 42
0.2679490000000428
  0
VERTEX
  5
1470
  8
0
 10
10.636954909669271
 20
-19.270182595499101
 30
0.0
  0
VERTEX
  5
1471
  8
0
 10
11.647317909669139
 20
-17.52018259549904
 30
0.0
 42
-0.2679490000000188
  0
VERTEX
  5
1472
  8
0
 10
12.51334390966929
 20
-17.020182595499151
 30
0.0
  0
VERTEX
  5
1473
  8
0
 10
13.89898390966925
 20
-17.02018259549904
 30
0.0
 42
-0.5773500000003136
  0
VERTEX
  5
1474
  8
0
 10
14.0721889096693
 20
-17.320182595499109
 30
0.0
  0
VERTEX
  5
1475
  8
0
 10
13.14842890966929
 20
-18.920182595499082
 30
0.0
  0
VERTEX
  5
1476
  8
0
 10
13.14842890966929
 20
-19.220182595499089
 30
0.0
 42
0.4142139999999814
  0
VERTEX
  5
1477
  8
0
 10
13.44842890966936
 20
-19.520182595499101
 30
0.0
  0
VERTEX
  5
1478
  8
0
 10
17.30121490966928
 20
-19.520182595499101
 30
0.0
 42
-0.2134217652834307
  0
VERTEX
  5
1479
  8
0
 10
17.524821707419392
 20
-19.620182595499241
 30
0.0
 42
0.7625858545243353
  0
VERTEX
  5
147A
  8
0
 10
17.85514778843638
 20
-19.435603393301751
 30
0.0
  0
VERTEX
  5
147B
  8
0
 10
17.797074151447301
 20
-19.24422039330803
 30
0.0
  0
VERTEX
  5
147C
  8
0
 10
16.712509704475679
 20
-17.358376701446979
 30
0.0
  0
VERTEX
  5
147D
  8
0
 10
16.39075197625743
 20
-17.368938067673941
 30
0.0
 42
-0.5773502691897681
  0
VERTEX
  5
147E
  8
0
 10
16.207798236147251
 20
-17.074781767419111
 30
0.0
  0
VERTEX
  5
147F
  8
0
 10
16.359932147256011
 20
-16.790099484187479
 30
0.0
 42
-0.2216946626430135
  0
VERTEX
  5
1480
  8
0
 10
16.90081197873269
 20
-16.38429057903268
 30
0.0
  0
VERTEX
  5
1481
  8
0
 10
18.714042449390941
 20
-16.00284398290497
 30
0.0
 42
-0.4769755326981251
  0
VERTEX
  5
1482
  8
0
 10
19.085699324336929
 20
-16.305096807411442
 30
0.0
  0
VERTEX
  5
1483
  8
0
 10
19.085615716453269
 20
-17.808197888173439
 30
0.0
  0
VERTEX
  5
1484
  8
0
 10
19.037769966454789
 20
-17.822716297420548
 30
0.0
 42
0.4142135623731253
  0
VERTEX
  5
1485
  8
0
 10
18.837805921947378
 20
-18.19690125289636
 30
0.0
  0
VERTEX
  5
1486
  8
0
 10
19.34842890966933
 20
-19.518019257597441
 30
0.0
  0
VERTEX
  5
1487
  8
0
 10
19.34842890966911
 20
-30.520182969036739
 30
0.0
 42
0.4142137811866025
  0
VERTEX
  5
1488
  8
0
 10
19.84842890966932
 20
-31.020182595498969
 30
0.0
  0
VERTEX
  5
1489
  8
0
 10
35.14811190966919
 20
-31.02018259549908
 30
0.0
 42
0.4141710000000034
  0
VERTEX
  5
148A
  8
0
 10
35.648111909669183
 20
-30.52025559549913
 30
0.0
  0
VERTEX
  5
148B
  8
0
 10
35.648403909669128
 20
-28.520115595499139
 30
0.0
 42
0.4142140000000444
  0
VERTEX
  5
148C
  8
0
 10
35.148425909669299
 20
-28.02009359549913
 30
0.0
  0
VERTEX
  5
148D
  8
0
 10
29.148608909669179
 20
-28.019825595499189
 30
0.0
 42
-0.4142139999999778
  0
VERTEX
  5
148E
  8
0
 10
28.648630909669141
 20
-27.519803595499081
 30
0.0
  0
VERTEX
  5
148F
  8
0
 10
28.648795909669278
 20
-23.819803595499138
 30
0.0
 42
0.2134220000000628
  0
VERTEX
  5
1490
  8
0
 10
28.548805909669209
 20
-23.59619259549908
 30
0.0
 42
-0.2134220000000822
  0
VERTEX
  5
1491
  8
0
 10
28.448815909669179
 20
-23.372581595499071
 30
0.0
  0
VERTEX
  5
1492
  8
0
 10
28.448840909669229
 20
-22.819794595499101
 30
0.0
 42
-0.4142139999999901
  0
VERTEX
  5
1493
  8
0
 10
28.748853909669268
 20
-22.519808595499178
 30
0.0
  0
VERTEX
  5
1494
  8
0
 10
30.4488539096692
 20
-22.519883595499099
 30
0.0
  0
VERTEX
  5
1495
  8
0
 10
31.03521690966932
 20
-22.98483359549903
 30
0.0
 42
-0.7106000000002889
  0
VERTEX
  5
1496
  8
0
 10
30.848808909669302
 20
-23.519901595499171
 30
0.0
  0
VERTEX
  5
1497
  8
0
 10
30.4488089096692
 20
-23.519883595499149
 30
0.0
 42
0.41421400000009
  0
VERTEX
  5
1498
  8
0
 10
30.148795909669289
 20
-23.819870595499079
 30
0.0
  0
VERTEX
  5
1499
  8
0
 10
30.148688909669321
 20
-26.21987059549906
 30
0.0
 42
0.4142139999999775
  0
VERTEX
  5
149A
  8
0
 10
30.448675909669181
 20
-26.519883595499149
 30
0.0
  0
VERTEX
  5
149B
  8
0
 10
35.348675909669282
 20
-26.52010159549917
 30
0.0
 42
0.4142140000001568
  0
VERTEX
  5
149C
  8
0
 10
35.648688909669318
 20
-26.22011559549906
 30
0.0
  0
VERTEX
  5
149D
  8
0
 10
35.648795909669161
 20
-23.82011559549909
 30
0.0
 42
0.4142139999997988
  0
VERTEX
  5
149E
  8
0
 10
35.348808909669302
 20
-23.520101595498939
 30
0.0
  0
VERTEX
  5
149F
  8
0
 10
34.448808909669197
 20
-23.520061595499101
 30
0.0
 42
-0.7106000000000156
  0
VERTEX
  5
14A0
  8
0
 10
34.262448909669267
 20
-22.98497759549906
 30
0.0
  0
VERTEX
  5
14A1
  8
0
 10
34.848853909669288
 20
-22.520079595499109
 30
0.0
  0
VERTEX
  5
14A2
  8
0
 10
37.148670909669249
 20
-22.52018259549914
 30
0.0
  0
VERTEX
  5
14A3
  8
0
 10
37.348428909669217
 20
-22.719957595499132
 30
0.0
  0
VERTEX
  5
14A4
  8
0
 10
37.348428909669217
 20
-62.820182595499077
 30
0.0
 42
-0.4142137811864901
  0
VERTEX
  5
14A5
  8
0
 10
37.048429133791728
 20
-63.120182595499159
 30
0.0
  0
VERTEX
  5
14A6
  8
0
 10
8.1484289096692901
 20
-63.120182595499152
 30
0.0
 42
-0.4142135623731492
  0
VERTEX
  5
14A7
  8
0
 10
7.8484289096693374
 20
-62.820182595499141
 30
0.0
  0
VERTEX
  5
14A8
  8
0
 10
7.8484289096693374
 20
-22.12018259549912
 30
0.0
 42
0.4142135623730951
  0
VERTEX
  5
14A9
  8
0
 10
7.5484289096692692
 20
-21.820182595499109
 30
0.0
  0
SEQEND
  5
14AA
  8
0
  0
ENDBLK
  5
8B1
  8
0
  0
BLOCK
  8
0
  2
BYGG-025059
 70
     0
 10
0.0
 20
0.0
 30
0.0
  3
BYGG-025059
  1
\\spnves96\pspdata$\2009\11\0\BYGG-025059.dwg
  0
DIMENSION
  5
DED
  8
BYGG-025059$0$MATT
  2
*D35
 10
0.7861299690933692
 20
-13.38063998543619
 30
0.0
 11
24.036129969093398
 21
-10.88063998543619
 31
0.0
  3
BYGG-025059$0$MASKIN
 13
47.286129969093423
 23
4.3001340146682017
 33
0.0
 14
0.7861299690933706
 24
7.7500667646681034
 34
0.0
1001
ACAD
1000
DSTYLE
1002
{
1070
    40
1040
1.0
1002
}
  0
DIMENSION
  5
DFC
  8
BYGG-025059$0$MATT
  2
*D36
 10
-10.139820690697089
 20
0.0000445146681079
 30
0.0
 11
-12.639820690697089
 21
7.5000445146681063
 31
0.0
  3
BYGG-025059$0$MASKIN
 13
4.7597178440933892
 23
15.000044514668099
 33
0.0
 14
1.7695932190933661
 24
0.0000445146681045
 34
0.0
 50
90.0
1001
ACAD
1000
DSTYLE
1002
{
1070
    40
1040
1.0
1002
}
  0
POLYLINE
  5
E09
  8
BYGG-025059$0$0_ÖPPEN-PROF
 66
     1
 10
0.0
 20
0.0
 30
0.0
 70
     1
  0
VERTEX
  5
14B4
  8
BYGG-025059$0$0_ÖPPEN-PROF
 10
4.3422064690933722
 20
3.500120014668112
 30
0.0
 42
0.3394552719462804
  0
VERTEX
  5
14B5
  8
BYGG-025059$0$0_ÖPPEN-PROF
 10
3.376221219093368
 20
2.7590240146682272
 30
0.0
  0
VERTEX
  5
14B6
  8
BYGG-025059$0$0_ÖPPEN-PROF
 10
2.7360872190934828
 20
0.3705480146681136
 30
0.0
 42
-0.3394539999999437
  0
VERTEX
  5
14B7
  8
BYGG-025059$0$0_ÖPPEN-PROF
 10
2.2530912190933612
 20
0.0000000146681032
 30
0.0
  0
VERTEX
  5
14B8
  8
BYGG-025059$0$0_ÖPPEN-PROF
 10
1.2860952190933701
 20
0.0000890146681475
 30
0.0
 42
-0.4141869999999672
  0
VERTEX
  5
14B9
  8
BYGG-025059$0$0_ÖPPEN-PROF
 10
0.7861402190933707
 20
0.5000890146681059
 30
0.0
  0
VERTEX
  5
14BA
  8
BYGG-025059$0$0_ÖPPEN-PROF
 10
0.7861192190933704
 20
15.000044514668099
 30
0.0
  0
VERTEX
  5
14BB
  8
BYGG-025059$0$0_ÖPPEN-PROF
 10
0.7861192190933704
 20
16.000044514668101
 30
0.0
 42
0.4142139999999814
  0
VERTEX
  5
14BC
  8
BYGG-025059$0$0_ÖPPEN-PROF
 10
0.486119219093391
 20
16.300044514668109
 30
0.0
  0
VERTEX
  5
14BD
  8
BYGG-025059$0$0_ÖPPEN-PROF
 10
0.4361192190933796
 20
16.300044514668109
 30
0.0
  0
VERTEX
  5
14BE
  8
BYGG-025059$0$0_ÖPPEN-PROF
 10
0.0000162190933692
 20
17.726473514668129
 30
0.0
 42
-0.4769759999999122
  0
VERTEX
  5
14BF
  8
BYGG-025059$0$0_ÖPPEN-PROF
 10
0.2764432190933892
 20
18.136293514668122
 30
0.0
  0
VERTEX
  5
14C0
  8
BYGG-025059$0$0_ÖPPEN-PROF
 10
2.116991219093372
 20
18.29732051466809
 30
0.0
 42
-0.2216950000000117
  0
VERTEX
  5
14C1
  8
BYGG-025059$0$0_ÖPPEN-PROF
 10
2.7524012190933802
 20
18.066049514668119
 30
0.0
  0
VERTEX
  5
14C2
  8
BYGG-025059$0$0_ÖPPEN-PROF
 10
2.976985219093343
 20
17.841465514668091
 30
0.0
 42
-0.5773499999998194
  0
VERTEX
  5
14C3
  8
BYGG-025059$0$0_ÖPPEN-PROF
 10
2.8873282190933778
 20
17.506859514668118
 30
0.0
  0
VERTEX
  5
14C4
  8
BYGG-025059$0$0_ÖPPEN-PROF
 10
2.576366219093388
 20
17.423537514668109
 30
0.0
  0
VERTEX
  5
14C5
  8
BYGG-025059$0$0_ÖPPEN-PROF
 10
2.0861192190933782
 20
15.300044514668111
 30
0.0
  0
VERTEX
  5
14C6
  8
BYGG-025059$0$0_ÖPPEN-PROF
 10
2.0861192190933782
 20
15.10004451466812
 30
0.0
 42
0.6884999999999297
  0
VERTEX
  5
14C7
  8
BYGG-025059$0$0_ÖPPEN-PROF
 10
2.6097262190933441
 20
14.90004451466814
 30
0.0
 42
-0.2134220000000285
  0
VERTEX
  5
14C8
  8
BYGG-025059$0$0_ÖPPEN-PROF
 10
2.8333332190933991
 20
15.000044514668099
 30
0.0
  0
VERTEX
  5
14C9
  8
BYGG-025059$0$0_ÖPPEN-PROF
 10
6.6861192190933787
 20
15.000044514668099
 30
0.0
 42
0.4142139999999669
  0
VERTEX
  5
14CA
  8
BYGG-025059$0$0_ÖPPEN-PROF
 10
6.9861192190933901
 20
15.3000445146681
 30
0.0
  0
VERTEX
  5
14CB
  8
BYGG-025059$0$0_ÖPPEN-PROF
 10
6.9861192190933901
 20
15.600044514668109
 30
0.0
  0
VERTEX
  5
14CC
  8
BYGG-025059$0$0_ÖPPEN-PROF
 10
6.0623592190933593
 20
17.200044514668189
 30
0.0
 42
-0.5773499999997525
  0
VERTEX
  5
14CD
  8
BYGG-025059$0$0_ÖPPEN-PROF
 10
6.2355642190933711
 20
17.500044514668101
 30
0.0
  0
VERTEX
  5
14CE
  8
BYGG-025059$0$0_ÖPPEN-PROF
 10
7.6212052190933877
 20
17.50004451466809
 30
0.0
 42
-0.2679490000000114
  0
VERTEX
  5
14CF
  8
BYGG-025059$0$0_ÖPPEN-PROF
 10
8.4872302190934032
 20
17.00004451466808
 30
0.0
  0
VERTEX
  5
14D0
  8
BYGG-025059$0$0_ÖPPEN-PROF
 10
9.4975932190934387
 20
15.25004451466808
 30
0.0
 42
0.2679490000000378
  0
VERTEX
  5
14D1
  8
BYGG-025059$0$0_ÖPPEN-PROF
 10
9.9306062190933968
 20
15.000044514668099
 30
0.0
  0
VERTEX
  5
14D2
  8
BYGG-025059$0$0_ÖPPEN-PROF
 10
11.64165053909341
 20
15.00004451466808
 30
0.0
 42
0.2679489999999778
  0
VERTEX
  5
14D3
  8
BYGG-025059$0$0_ÖPPEN-PROF
 10
12.07466353909342
 20
15.25004451466809
 30
0.0
  0
VERTEX
  5
14D4
  8
BYGG-025059$0$0_ÖPPEN-PROF
 10
13.08502653909348
 20
17.00004451466803
 30
0.0
 42
-0.2679489999999883
  0
VERTEX
  5
14D5
  8
BYGG-025059$0$0_ÖPPEN-PROF
 10
13.95105153909337
 20
17.50004451466808
 30
0.0
  0
VERTEX
  5
14D6
  8
BYGG-025059$0$0_ÖPPEN-PROF
 10
15.3366925390934
 20
17.500044514668009
 30
0.0
 42
-0.5773499999999486
  0
VERTEX
  5
14D7
  8
BYGG-025059$0$0_ÖPPEN-PROF
 10
15.5098975390934
 20
17.200044514668189
 30
0.0
  0
VERTEX
  5
14D8
  8
BYGG-025059$0$0_ÖPPEN-PROF
 10
14.586137539093381
 20
15.600044514668109
 30
0.0
  0
VERTEX
  5
14D9
  8
BYGG-025059$0$0_ÖPPEN-PROF
 10
14.586137539093381
 20
15.3000445146681
 30
0.0
 42
0.414213999999841
  0
VERTEX
  5
14DA
  8
BYGG-025059$0$0_ÖPPEN-PROF
 10
14.88613753909339
 20
15.00004451466808
 30
0.0
  0
VERTEX
  5
14DB
  8
BYGG-025059$0$0_ÖPPEN-PROF
 10
18.738923539093431
 20
15.00004451466808
 30
0.0
 42
-0.2134220000001145
  0
VERTEX
  5
14DC
  8
BYGG-025059$0$0_ÖPPEN-PROF
 10
18.962530539093379
 20
14.900044514668091
 30
0.0
 42
0.6884999999999567
  0
VERTEX
  5
14DD
  8
BYGG-025059$0$0_ÖPPEN-PROF
 10
19.486137539093399
 20
15.100044514668109
 30
0.0
  0
VERTEX
  5
14DE
  8
BYGG-025059$0$0_ÖPPEN-PROF
 10
19.486137539093399
 20
15.3000445146681
 30
0.0
  0
VERTEX
  5
14DF
  8
BYGG-025059$0$0_ÖPPEN-PROF
 10
18.995890539093399
 20
17.423537514668091
 30
0.0
  0
VERTEX
  5
14E0
  8
BYGG-025059$0$0_ÖPPEN-PROF
 10
18.684928539093391
 20
17.506859514668111
 30
0.0
 42
-0.5773500000001344
  0
VERTEX
  5
14E1
  8
BYGG-025059$0$0_ÖPPEN-PROF
 10
18.595271539093389
 20
17.841465514668108
 30
0.0
  0
VERTEX
  5
14E2
  8
BYGG-025059$0$0_ÖPPEN-PROF
 10
18.81985553909341
 20
18.06604951466808
 30
0.0
 42
-0.2216949999999774
  0
VERTEX
  5
14E3
  8
BYGG-025059$0$0_ÖPPEN-PROF
 10
19.455265539093428
 20
18.297320514668112
 30
0.0
  0
VERTEX
  5
14E4
  8
BYGG-025059$0$0_ÖPPEN-PROF
 10
21.29581353909338
 20
18.136293514668079
 30
0.0
 42
-0.4769759999999405
  0
VERTEX
  5
14E5
  8
BYGG-025059$0$0_ÖPPEN-PROF
 10
21.572240539093389
 20
17.726473514668111
 30
0.0
  0
VERTEX
  5
14E6
  8
BYGG-025059$0$0_ÖPPEN-PROF
 10
21.13613753909339
 20
16.300044514668102
 30
0.0
  0
VERTEX
  5
14E7
  8
BYGG-025059$0$0_ÖPPEN-PROF
 10
21.086137539093379
 20
16.300044514668102
 30
0.0
 42
0.4142139999999534
  0
VERTEX
  5
14E8
  8
BYGG-025059$0$0_ÖPPEN-PROF
 10
20.786137539093431
 20
16.00004451466809
 30
0.0
  0
VERTEX
  5
14E9
  8
BYGG-025059$0$0_ÖPPEN-PROF
 10
20.786137539093431
 20
14.75533751466811
 30
0.0
  0
VERTEX
  5
14EA
  8
BYGG-025059$0$0_ÖPPEN-PROF
 10
20.786115539093409
 20
5.600134014668126
 30
0.0
 42
0.4142140000000074
  0
VERTEX
  5
14EB
  8
BYGG-025059$0$0_ÖPPEN-PROF
 10
21.286115539093419
 20
5.1001340146681278
 30
0.0
  0
VERTEX
  5
14EC
  8
BYGG-025059$0$0_ÖPPEN-PROF
 10
23.786129969093398
 20
5.1001340146681278
 30
0.0
 42
0.4142140000000074
  0
VERTEX
  5
14ED
  8
BYGG-025059$0$0_ÖPPEN-PROF
 10
24.286129969093398
 20
5.6001340146681278
 30
0.0
  0
VERTEX
  5
14EE
  8
BYGG-025059$0$0_ÖPPEN-PROF
 10
24.28612996909326
 20
8.3001340146682026
 30
0.0
 42
-0.4142139999999241
  0
VERTEX
  5
14EF
  8
BYGG-025059$0$0_ÖPPEN-PROF
 10
24.58612996909341
 20
8.6001340146681287
 30
0.0
  0
VERTEX
  5
14F0
  8
BYGG-025059$0$0_ÖPPEN-PROF
 10
27.98612996909339
 20
8.6001340146679865
 30
0.0
 42
-0.4142139999999241
  0
VERTEX
  5
14F1
  8
BYGG-025059$0$0_ÖPPEN-PROF
 10
28.286129969093398
 20
8.3001340146682026
 30
0.0
  0
VERTEX
  5
14F2
  8
BYGG-025059$0$0_ÖPPEN-PROF
 10
28.286129969093519
 20
7.4001340146681107
 30
0.0
 42
-0.4142140000000074
  0
VERTEX
  5
14F3
  8
BYGG-025059$0$0_ÖPPEN-PROF
 10
27.98612996909339
 20
7.1001340146681278
 30
0.0
  0
VERTEX
  5
14F4
  8
BYGG-025059$0$0_ÖPPEN-PROF
 10
26.08612996909342
 20
7.1001340146681278
 30
0.0
 42
0.4142139999999241
  0
VERTEX
  5
14F5
  8
BYGG-025059$0$0_ÖPPEN-PROF
 10
25.786129969093398
 20
6.8001340146682017
 30
0.0
  0
VERTEX
  5
14F6
  8
BYGG-025059$0$0_ÖPPEN-PROF
 10
25.786129969093398
 20
4.4001340146681107
 30
0.0
 42
0.4142140000000074
  0
VERTEX
  5
14F7
  8
BYGG-025059$0$0_ÖPPEN-PROF
 10
26.08612996909342
 20
4.1001340146681278
 30
0.0
  0
VERTEX
  5
14F8
  8
BYGG-025059$0$0_ÖPPEN-PROF
 10
45.486129969093383
 20
4.1001340146681278
 30
0.0
 42
0.4142139999998961
  0
VERTEX
  5
14F9
  8
BYGG-025059$0$0_ÖPPEN-PROF
 10
45.786129969093388
 20
4.4001340146681107
 30
0.0
  0
VERTEX
  5
14FA
  8
BYGG-025059$0$0_ÖPPEN-PROF
 10
45.786129969093388
 20
6.8001340146682017
 30
0.0
 42
0.4142139999999241
  0
VERTEX
  5
14FB
  8
BYGG-025059$0$0_ÖPPEN-PROF
 10
45.486129969093383
 20
7.1001340146681278
 30
0.0
  0
VERTEX
  5
14FC
  8
BYGG-025059$0$0_ÖPPEN-PROF
 10
43.586129969093399
 20
7.1001340146681278
 30
0.0
 42
-0.4142139999998961
  0
VERTEX
  5
14FD
  8
BYGG-025059$0$0_ÖPPEN-PROF
 10
43.286129969093388
 20
7.4001340146681107
 30
0.0
  0
VERTEX
  5
14FE
  8
BYGG-025059$0$0_ÖPPEN-PROF
 10
43.286129969093253
 20
8.3001340146682026
 30
0.0
 42
-0.4142139999999241
  0
VERTEX
  5
14FF
  8
BYGG-025059$0$0_ÖPPEN-PROF
 10
43.586129969093399
 20
8.6001340146681287
 30
0.0
  0
VERTEX
  5
1500
  8
BYGG-025059$0$0_ÖPPEN-PROF
 10
46.986129969093412
 20
8.6001340146680434
 30
0.0
 42
-0.4142139999998691
  0
VERTEX
  5
1501
  8
BYGG-025059$0$0_ÖPPEN-PROF
 10
47.286129969093423
 20
8.3001340146682026
 30
0.0
  0
VERTEX
  5
1502
  8
BYGG-025059$0$0_ÖPPEN-PROF
 10
47.286129969093452
 20
0.3001340146682028
 30
0.0
 42
-0.4142139999999794
  0
VERTEX
  5
1503
  8
BYGG-025059$0$0_ÖPPEN-PROF
 10
46.986129969093412
 20
0.0001340146681059
 30
0.0
  0
VERTEX
  5
1504
  8
BYGG-025059$0$0_ÖPPEN-PROF
 10
19.22153046909342
 20
0.000134014668161
 30
0.0
 42
-0.3394299999999863
  0
VERTEX
  5
1505
  8
BYGG-025059$0$0_ÖPPEN-PROF
 10
18.738578469093412
 20
0.3706810146681221
 30
0.0
  0
VERTEX
  5
1506
  8
BYGG-025059$0$0_ÖPPEN-PROF
 10
18.098480469093388
 20
2.7591240146681151
 30
0.0
 42
0.3394540000000004
  0
VERTEX
  5
1507
  8
BYGG-025059$0$0_ÖPPEN-PROF
 10
17.132489469093411
 20
3.500220014668201
 30
0.0
  0
VERTEX
  5
1508
  8
BYGG-025059$0$0_ÖPPEN-PROF
 10
16.286079469093419
 20
3.500146014668104
 30
0.0
 42
0.4141880000000513
  0
VERTEX
  5
1509
  8
BYGG-025059$0$0_ÖPPEN-PROF
 10
15.78612346909342
 20
3.000146014668104
 30
0.0
  0
VERTEX
  5
150A
  8
BYGG-025059$0$0_ÖPPEN-PROF
 10
15.78612346909331
 20
1.0002440146682281
 30
0.0
 42
-0.4142060000000156
  0
VERTEX
  5
150B
  8
BYGG-025059$0$0_ÖPPEN-PROF
 10
15.286137469093379
 20
0.5002440146682261
 30
0.0
  0
VERTEX
  5
150C
  8
BYGG-025059$0$0_ÖPPEN-PROF
 10
11.652108129190379
 20
0.5001452961175659
 30
0.0
  0
VERTEX
  5
150D
  8
BYGG-025059$0$0_ÖPPEN-PROF
 10
10.786123469093409
 20
1.000121771794525
 30
0.0
  0
VERTEX
  5
150E
  8
BYGG-025059$0$0_ÖPPEN-PROF
 10
9.9200582200283076
 20
0.5000987335651104
 30
0.0
  0
VERTEX
  5
150F
  8
BYGG-025059$0$0_ÖPPEN-PROF
 10
6.2861374690933873
 20
0.500000014668053
 30
0.0
 42
-0.4142219999999844
  0
VERTEX
  5
1510
  8
BYGG-025059$0$0_ÖPPEN-PROF
 10
5.7861234690933703
 20
1.000000014668103
 30
0.0
  0
VERTEX
  5
1511
  8
BYGG-025059$0$0_ÖPPEN-PROF
 10
5.7861234690933703
 20
3.0001200146681142
 30
0.0
 42
0.4142140000000095
  0
VERTEX
  5
1512
  8
BYGG-025059$0$0_ÖPPEN-PROF
 10
5.2861234690933703
 20
3.500120014668112
 30
0.0
  0
VERTEX
  5
1513
  8
BYGG-025059$0$0_ÖPPEN-PROF
 10
4.3422122190933701
 20
3.500120014668112
 30
0.0
  0
SEQEND
  5
1514
  8
BYGG-025059$0$0_ÖPPEN-PROF
  0
POLYLINE
  5
E0A
  8
BYGG-025059$0$0_ÖPPEN-PROF
 66
     1
 10
0.0
 20
0.0
 30
0.0
 70
     1
  0
VERTEX
  5
1515
  8
BYGG-025059$0$0_ÖPPEN-PROF
 10
2.4861277040931951
 20
12.90004451466811
 30
0.0
 42
-0.4142140000000169
  0
VERTEX
  5
1516
  8
BYGG-025059$0$0_ÖPPEN-PROF
 10
2.7861277040933912
 20
13.20004451466821
 30
0.0
  0
VERTEX
  5
1517
  8
BYGG-025059$0$0_ÖPPEN-PROF
 10
4.3861277040934139
 20
13.20004451466831
 30
0.0
 42
-0.4142140000001437
  0
VERTEX
  5
1518
  8
BYGG-025059$0$0_ÖPPEN-PROF
 10
4.5861277040933883
 20
13.000044514668099
 30
0.0
  0
VERTEX
  5
1519
  8
BYGG-025059$0$0_ÖPPEN-PROF
 10
4.5861277040933954
 20
12.90004451466811
 30
0.0
 42
0.4142140000000085
  0
VERTEX
  5
151A
  8
BYGG-025059$0$0_ÖPPEN-PROF
 10
4.7861277040933761
 20
12.70004451466821
 30
0.0
  0
VERTEX
  5
151B
  8
BYGG-025059$0$0_ÖPPEN-PROF
 10
6.386127704093413
 20
12.70004451466821
 30
0.0
 42
0.4142139999998545
  0
VERTEX
  5
151C
  8
BYGG-025059$0$0_ÖPPEN-PROF
 10
6.5861277040933883
 20
12.90004451466811
 30
0.0
  0
VERTEX
  5
151D
  8
BYGG-025059$0$0_ÖPPEN-PROF
 10
6.5861277040932737
 20
13.000044514668099
 30
0.0
 42
-0.4142139999998691
  0
VERTEX
  5
151E
  8
BYGG-025059$0$0_ÖPPEN-PROF
 10
6.7861277040933761
 20
13.200044514668191
 30
0.0
  0
VERTEX
  5
151F
  8
BYGG-025059$0$0_ÖPPEN-PROF
 10
14.78612770409339
 20
13.200044514668109
 30
0.0
 42
-0.4142139999999356
  0
VERTEX
  5
1520
  8
BYGG-025059$0$0_ÖPPEN-PROF
 10
14.98612770409343
 20
13.00004451466809
 30
0.0
  0
VERTEX
  5
1521
  8
BYGG-025059$0$0_ÖPPEN-PROF
 10
14.98612770409343
 20
12.90004451466811
 30
0.0
 42
0.4142140000000189
  0
VERTEX
  5
1522
  8
BYGG-025059$0$0_ÖPPEN-PROF
 10
15.186127704093421
 20
12.70004451466821
 30
0.0
  0
VERTEX
  5
1523
  8
BYGG-025059$0$0_ÖPPEN-PROF
 10
16.786127704093389
 20
12.70004451466821
 30
0.0
 42
0.4142140000001042
  0
VERTEX
  5
1524
  8
BYGG-025059$0$0_ÖPPEN-PROF
 10
16.98612770409343
 20
12.90004451466811
 30
0.0
  0
VERTEX
  5
1525
  8
BYGG-025059$0$0_ÖPPEN-PROF
 10
16.986127704093491
 20
13.00004451466809
 30
0.0
 42
-0.4142140000002291
  0
VERTEX
  5
1526
  8
BYGG-025059$0$0_ÖPPEN-PROF
 10
17.186127704093419
 20
13.200044514668191
 30
0.0
  0
VERTEX
  5
1527
  8
BYGG-025059$0$0_ÖPPEN-PROF
 10
18.78612770409341
 20
13.20004451466812
 30
0.0
 42
-0.4142139999999252
  0
VERTEX
  5
1528
  8
BYGG-025059$0$0_ÖPPEN-PROF
 10
19.086127704093421
 20
12.90004451466811
 30
0.0
  0
VERTEX
  5
1529
  8
BYGG-025059$0$0_ÖPPEN-PROF
 10
19.086127704093251
 20
5.8000865146682088
 30
0.0
 42
-0.4141880000000388
  0
VERTEX
  5
152A
  8
BYGG-025059$0$0_ÖPPEN-PROF
 10
18.786154704093398
 20
5.5000865146682267
 30
0.0
  0
VERTEX
  5
152B
  8
BYGG-025059$0$0_ÖPPEN-PROF
 10
13.08615470409339
 20
5.499589514668231
 30
0.0
 42
0.4141880000000822
  0
VERTEX
  5
152C
  8
BYGG-025059$0$0_ÖPPEN-PROF
 10
12.786180704093431
 20
5.1995895146681059
 30
0.0
  0
VERTEX
  5
152D
  8
BYGG-025059$0$0_ÖPPEN-PROF
 10
12.7861807040934
 20
4.8003895146681259
 30
0.0
 42
-0.4142059999999927
  0
VERTEX
  5
152E
  8
BYGG-025059$0$0_ÖPPEN-PROF
 10
12.4861897040934
 20
4.5003895146681163
 30
0.0
  0
VERTEX
  5
152F
  8
BYGG-025059$0$0_ÖPPEN-PROF
 10
9.0861897040934192
 20
4.5002975146680591
 30
0.0
 42
-0.4142219999998628
  0
VERTEX
  5
1530
  8
BYGG-025059$0$0_ÖPPEN-PROF
 10
8.7861807040934323
 20
4.8002975146681317
 30
0.0
  0
VERTEX
  5
1531
  8
BYGG-025059$0$0_ÖPPEN-PROF
 10
8.7861807040934323
 20
5.2002975146681099
 30
0.0
 42
0.4142399761202665
  0
VERTEX
  5
1532
  8
BYGG-025059$0$0_ÖPPEN-PROF
 10
8.4861537040934323
 20
5.5002975146681212
 30
0.0
  0
VERTEX
  5
1533
  8
BYGG-025059$0$0_ÖPPEN-PROF
 10
2.786153704093393
 20
5.499791514668221
 30
0.0
 42
-0.4142389999999623
  0
VERTEX
  5
1534
  8
BYGG-025059$0$0_ÖPPEN-PROF
 10
2.486127704093394
 20
5.7997915146681311
 30
0.0
  0
SEQEND
  5
1535
  8
BYGG-025059$0$0_ÖPPEN-PROF
  0
POLYLINE
  5
E0B
  8
0
 66
     1
 10
0.0
 20
0.0
 30
0.0
 70
     1
  0
VERTEX
  5
1536
  8
0
 10
2.4861277040931919
 20
12.90004451466811
 30
0.0
 42
-0.4142140000000169
  0
VERTEX
  5
1537
  8
0
 10
2.7861277040933881
 20
13.2000445146682
 30
0.0
  0
VERTEX
  5
1538
  8
0
 10
4.3861277040934112
 20
13.200044514668321
 30
0.0
 42
-0.4142140000001437
  0
VERTEX
  5
1539
  8
0
 10
4.5861277040933848
 20
13.000044514668099
 30
0.0
  0
VERTEX
  5
153A
  8
0
 10
4.586127704093399
 20
12.90004451466811
 30
0.0
 42
0.4142140000000085
  0
VERTEX
  5
153B
  8
0
 10
4.7861277040933743
 20
12.7000445146682
 30
0.0
  0
VERTEX
  5
153C
  8
0
 10
6.3861277040934112
 20
12.7000445146682
 30
0.0
 42
0.4142139999998545
  0
VERTEX
  5
153D
  8
0
 10
6.5861277040933848
 20
12.90004451466811
 30
0.0
  0
VERTEX
  5
153E
  8
0
 10
6.5861277040932711
 20
13.000044514668099
 30
0.0
 42
-0.4142139999998691
  0
VERTEX
  5
153F
  8
0
 10
6.7861277040933743
 20
13.200044514668191
 30
0.0
  0
VERTEX
  5
1540
  8
0
 10
14.78612770409339
 20
13.200044514668109
 30
0.0
 42
-0.4142139999999356
  0
VERTEX
  5
1541
  8
0
 10
14.98612770409343
 20
13.00004451466809
 30
0.0
  0
VERTEX
  5
1542
  8
0
 10
14.98612770409343
 20
12.90004451466811
 30
0.0
 42
0.4142140000000189
  0
VERTEX
  5
1543
  8
0
 10
15.186127704093421
 20
12.7000445146682
 30
0.0
  0
VERTEX
  5
1544
  8
0
 10
16.786127704093389
 20
12.7000445146682
 30
0.0
 42
0.4142140000001042
  0
VERTEX
  5
1545
  8
0
 10
16.98612770409343
 20
12.90004451466811
 30
0.0
  0
VERTEX
  5
1546
  8
0
 10
16.986127704093491
 20
13.00004451466809
 30
0.0
 42
-0.4142140000002291
  0
VERTEX
  5
1547
  8
0
 10
17.186127704093419
 20
13.200044514668191
 30
0.0
  0
VERTEX
  5
1548
  8
0
 10
18.78612770409342
 20
13.20004451466812
 30
0.0
 42
-0.4142139999999252
  0
VERTEX
  5
1549
  8
0
 10
19.086127704093428
 20
12.90004451466811
 30
0.0
  0
VERTEX
  5
154A
  8
0
 10
19.086127704093261
 20
5.8000865146682079
 30
0.0
 42
-0.4141880000000388
  0
VERTEX
  5
154B
  8
0
 10
18.786154704093398
 20
5.500086514668225
 30
0.0
  0
VERTEX
  5
154C
  8
0
 10
13.08615470409339
 20
5.4995895146682301
 30
0.0
 42
0.4141880000000822
  0
VERTEX
  5
154D
  8
0
 10
12.78618070409342
 20
5.199589514668105
 30
0.0
  0
VERTEX
  5
154E
  8
0
 10
12.786180704093409
 20
4.800389514668125
 30
0.0
 42
-0.4142059999999927
  0
VERTEX
  5
154F
  8
0
 10
12.486189704093389
 20
4.5003895146681137
 30
0.0
  0
VERTEX
  5
1550
  8
0
 10
9.0861897040934139
 20
4.5002975146680617
 30
0.0
 42
-0.4142219999998628
  0
VERTEX
  5
1551
  8
0
 10
8.7861807040934252
 20
4.8002975146681299
 30
0.0
  0
VERTEX
  5
1552
  8
0
 10
8.7861807040934252
 20
5.2002975146681081
 30
0.0
 42
0.4142399761202665
  0
VERTEX
  5
1553
  8
0
 10
8.4861537040934252
 20
5.5002975146681186
 30
0.0
  0
VERTEX
  5
1554
  8
0
 10
2.786153704093393
 20
5.4997915146682166
 30
0.0
 42
-0.4142389999999623
  0
VERTEX
  5
1555
  8
0
 10
2.4861277040933909
 20
5.7997915146681294
 30
0.0
  0
SEQEND
  5
1556
  8
0
  0
POLYLINE
  5
E0C
  8
0
 66
     1
 10
0.0
 20
0.0
 30
0.0
 70
     1
  0
VERTEX
  5
1557
  8
0
 10
0.7861192190933651
 20
15.002207852569599
 30
0.0
  0
VERTEX
  5
1558
  8
0
 10
0.7861192190933651
 20
15.000044514668099
 30
0.0
  0
VERTEX
  5
1559
  8
0
 10
1.2967422068153951
 20
16.323325857270859
 30
0.0
 42
0.4142135623730948
  0
VERTEX
  5
155A
  8
0
 10
1.096778162307998
 20
16.697510812746671
 30
0.0
  0
VERTEX
  5
155B
  8
0
 10
1.048932412309511
 20
16.71202922199377
 30
0.0
  0
VERTEX
  5
155C
  8
0
 10
1.048848804425873
 20
18.215130302755782
 30
0.0
 42
-0.4769755326981641
  0
VERTEX
  5
155D
  8
0
 10
1.420505679371729
 20
18.517383127262249
 30
0.0
  0
VERTEX
  5
155E
  8
0
 10
3.233736150029983
 20
18.135936531134529
 30
0.0
 42
-0.221694662643019
  0
VERTEX
  5
155F
  8
0
 10
3.774615981506769
 20
17.73012762597973
 30
0.0
  0
VERTEX
  5
1560
  8
0
 10
3.926749892615546
 20
17.44544534274808
 30
0.0
 42
-0.5773502691897449
  0
VERTEX
  5
1561
  8
0
 10
3.7437961525053529
 20
17.151289042493271
 30
0.0
  0
VERTEX
  5
1562
  8
0
 10
3.4220384242871091
 20
17.161850408720241
 30
0.0
  0
VERTEX
  5
1563
  8
0
 10
2.3374739773153692
 20
15.276006716859181
 30
0.0
  0
VERTEX
  5
1564
  8
0
 10
2.2794003403262901
 20
15.08462371686546
 30
0.0
 42
0.7625858545243258
  0
VERTEX
  5
1565
  8
0
 10
2.6097264213432818
 20
14.900044514667981
 30
0.0
 42
-0.2134217652834374
  0
VERTEX
  5
1566
  8
0
 10
2.833333219093404
 20
15.000044514668099
 30
0.0
  0
VERTEX
  5
1567
  8
0
 10
6.686119219093384
 20
15.000044514668099
 30
0.0
 42
0.4142139999999655
  0
VERTEX
  5
1568
  8
0
 10
6.9861192190933963
 20
15.3000445146681
 30
0.0
  0
VERTEX
  5
1569
  8
0
 10
6.9861192190933963
 20
15.600044514668109
 30
0.0
  0
VERTEX
  5
156A
  8
0
 10
6.0623592190933664
 20
17.200044514668189
 30
0.0
 42
-0.5773499999997661
  0
VERTEX
  5
156B
  8
0
 10
6.2355642190933764
 20
17.500044514668101
 30
0.0
  0
VERTEX
  5
156C
  8
0
 10
7.6212052190933832
 20
17.50004451466809
 30
0.0
 42
-0.2679490000000106
  0
VERTEX
  5
156D
  8
0
 10
8.487230219093405
 20
17.00004451466809
 30
0.0
  0
VERTEX
  5
156E
  8
0
 10
9.4975932190934316
 20
15.25004451466809
 30
0.0
 42
0.2679490000000305
  0
VERTEX
  5
156F
  8
0
 10
9.9306062190933915
 20
15.000044514668099
 30
0.0
  0
VERTEX
  5
1570
  8
0
 10
11.6416505390934
 20
15.00004451466809
 30
0.0
 42
0.2679489999999749
  0
VERTEX
  5
1571
  8
0
 10
12.07466353909342
 20
15.25004451466809
 30
0.0
  0
VERTEX
  5
1572
  8
0
 10
13.085026539093491
 20
17.00004451466803
 30
0.0
 42
-0.2679489999999891
  0
VERTEX
  5
1573
  8
0
 10
13.951051539093379
 20
17.50004451466809
 30
0.0
  0
VERTEX
  5
1574
  8
0
 10
15.3366925390934
 20
17.500044514668001
 30
0.0
 42
-0.5773499999999352
  0
VERTEX
  5
1575
  8
0
 10
15.5098975390934
 20
17.200044514668189
 30
0.0
  0
VERTEX
  5
1576
  8
0
 10
14.586137539093381
 20
15.600044514668109
 30
0.0
  0
VERTEX
  5
1577
  8
0
 10
14.586137539093381
 20
15.3000445146681
 30
0.0
 42
0.4142139999998408
  0
VERTEX
  5
1578
  8
0
 10
14.886137539093401
 20
15.00004451466809
 30
0.0
  0
VERTEX
  5
1579
  8
0
 10
18.738923539093431
 20
15.000044514668071
 30
0.0
 42
-0.2134217652834374
  0
VERTEX
  5
157A
  8
0
 10
18.962530336843539
 20
14.90004451466795
 30
0.0
 42
0.7625858545243228
  0
VERTEX
  5
157B
  8
0
 10
19.292856417860559
 20
15.08462371686543
 30
0.0
  0
VERTEX
  5
157C
  8
0
 10
19.23478278087147
 20
15.276006716859159
 30
0.0
  0
VERTEX
  5
157D
  8
0
 10
18.15021833389973
 20
17.161850408720209
 30
0.0
  0
VERTEX
  5
157E
  8
0
 10
17.828460605681471
 20
17.151289042493229
 30
0.0
 42
-0.5773502691897449
  0
VERTEX
  5
157F
  8
0
 10
17.645506865571299
 20
17.445445342748069
 30
0.0
  0
VERTEX
  5
1580
  8
0
 10
17.797640776680051
 20
17.730127625979719
 30
0.0
 42
-0.2216946626430182
  0
VERTEX
  5
1581
  8
0
 10
18.338520608156848
 20
18.135936531134501
 30
0.0
  0
VERTEX
  5
1582
  8
0
 10
20.151751078815099
 20
18.517383127262221
 30
0.0
 42
-0.4769755326981641
  0
VERTEX
  5
1583
  8
0
 10
20.52340795376098
 20
18.21513030275575
 30
0.0
  0
VERTEX
  5
1584
  8
0
 10
20.523324345877331
 20
16.712029221993738
 30
0.0
  0
VERTEX
  5
1585
  8
0
 10
20.47547859587884
 20
16.697510812746639
 30
0.0
 42
0.4142135623730948
  0
VERTEX
  5
1586
  8
0
 10
20.27551455137144
 20
16.323325857270831
 30
0.0
  0
VERTEX
  5
1587
  8
0
 10
20.786137539093431
 20
15.002207852569679
 30
0.0
  0
VERTEX
  5
1588
  8
0
 10
20.786137539093431
 20
14.75533751466811
 30
0.0
  0
VERTEX
  5
1589
  8
0
 10
20.786115539093409
 20
5.6001340146681278
 30
0.0
 42
0.4142140000000128
  0
VERTEX
  5
158A
  8
0
 10
21.286115539093419
 20
5.1001340146681278
 30
0.0
  0
VERTEX
  5
158B
  8
0
 10
23.786129969093391
 20
5.1001340146681278
 30
0.0
 42
0.4142140000000127
  0
VERTEX
  5
158C
  8
0
 10
24.286129969093398
 20
5.6001340146681278
 30
0.0
  0
VERTEX
  5
158D
  8
0
 10
24.286129969093249
 20
8.3001340146682026
 30
0.0
 42
-0.414213999999924
  0
VERTEX
  5
158E
  8
0
 10
24.58612996909341
 20
8.6001340146681287
 30
0.0
  0
VERTEX
  5
158F
  8
0
 10
27.98612996909338
 20
8.6001340146679865
 30
0.0
 42
-0.414213999999924
  0
VERTEX
  5
1590
  8
0
 10
28.286129969093398
 20
8.3001340146682026
 30
0.0
  0
VERTEX
  5
1591
  8
0
 10
28.286129969093508
 20
7.4001340146681107
 30
0.0
 42
-0.4142140000000072
  0
VERTEX
  5
1592
  8
0
 10
27.98612996909338
 20
7.1001340146681278
 30
0.0
  0
VERTEX
  5
1593
  8
0
 10
26.08612996909341
 20
7.1001340146681278
 30
0.0
 42
0.414213999999924
  0
VERTEX
  5
1594
  8
0
 10
25.786129969093398
 20
6.8001340146682017
 30
0.0
  0
VERTEX
  5
1595
  8
0
 10
25.786129969093398
 20
4.4001340146681107
 30
0.0
 42
0.4142140000000074
  0
VERTEX
  5
1596
  8
0
 10
26.08612996909341
 20
4.1001340146681278
 30
0.0
  0
VERTEX
  5
1597
  8
0
 10
45.486129969093383
 20
4.1001340146681278
 30
0.0
 42
0.4142139999998963
  0
VERTEX
  5
1598
  8
0
 10
45.786129969093388
 20
4.4001340146681107
 30
0.0
  0
VERTEX
  5
1599
  8
0
 10
45.786129969093388
 20
6.8001340146682017
 30
0.0
 42
0.414213999999938
  0
VERTEX
  5
159A
  8
0
 10
45.486129969093383
 20
7.1001340146681278
 30
0.0
  0
VERTEX
  5
159B
  8
0
 10
43.586129969093399
 20
7.1001340146681278
 30
0.0
 42
-0.4142139999998963
  0
VERTEX
  5
159C
  8
0
 10
43.286129969093388
 20
7.4001340146681107
 30
0.0
  0
VERTEX
  5
159D
  8
0
 10
43.286129969093253
 20
8.3001340146682026
 30
0.0
 42
-0.414213999999924
  0
VERTEX
  5
159E
  8
0
 10
43.586129969093399
 20
8.6001340146681287
 30
0.0
  0
VERTEX
  5
159F
  8
0
 10
46.986129969093412
 20
8.6001340146680434
 30
0.0
 42
-0.4142139999998685
  0
VERTEX
  5
15A0
  8
0
 10
47.286129969093423
 20
8.3001340146682026
 30
0.0
  0
VERTEX
  5
15A1
  8
0
 10
47.286129969093452
 20
0.3001340146682025
 30
0.0
 42
-0.4142139999999796
  0
VERTEX
  5
15A2
  8
0
 10
46.986129969093412
 20
0.0001340146681059
 30
0.0
  0
VERTEX
  5
15A3
  8
0
 10
19.22153046909342
 20
0.0001340146681628
 30
0.0
 42
-0.3394299999999863
  0
VERTEX
  5
15A4
  8
0
 10
18.738578469093412
 20
0.3706810146681221
 30
0.0
  0
VERTEX
  5
15A5
  8
0
 10
18.098480469093388
 20
2.7591240146681169
 30
0.0
 42
0.3394539999999995
  0
VERTEX
  5
15A6
  8
0
 10
17.132489469093411
 20
3.500220014668201
 30
0.0
  0
VERTEX
  5
15A7
  8
0
 10
16.286079469093419
 20
3.500146014668104
 30
0.0
 42
0.4141880000000525
  0
VERTEX
  5
15A8
  8
0
 10
15.786123469093409
 20
3.000146014668104
 30
0.0
  0
VERTEX
  5
15A9
  8
0
 10
15.78612346909331
 20
1.0002440146682261
 30
0.0
 42
-0.4142060000000179
  0
VERTEX
  5
15AA
  8
0
 10
15.28613746909339
 20
0.5002440146682261
 30
0.0
  0
VERTEX
  5
15AB
  8
0
 10
11.652108129190379
 20
0.5001452961175659
 30
0.0
  0
VERTEX
  5
15AC
  8
0
 10
10.786123469093409
 20
1.000121771794525
 30
0.0
  0
VERTEX
  5
15AD
  8
0
 10
9.9200582200283094
 20
0.5000987335651104
 30
0.0
  0
VERTEX
  5
15AE
  8
0
 10
6.2861374690933891
 20
0.5000000146680536
 30
0.0
 42
-0.4142219999999848
  0
VERTEX
  5
15AF
  8
0
 10
5.7861234690933676
 20
1.000000014668103
 30
0.0
  0
VERTEX
  5
15B0
  8
0
 10
5.7861234690933676
 20
3.000120014668112
 30
0.0
 42
0.4142140000000127
  0
VERTEX
  5
15B1
  8
0
 10
5.2861234690933676
 20
3.500120014668112
 30
0.0
  0
VERTEX
  5
15B2
  8
0
 10
4.3422064690933686
 20
3.500120014668112
 30
0.0
 42
0.3394552719462804
  0
VERTEX
  5
15B3
  8
0
 10
3.3762212190933658
 20
2.7590240146682272
 30
0.0
  0
VERTEX
  5
15B4
  8
0
 10
2.7360872190934771
 20
0.3705480146681168
 30
0.0
 42
-0.3394539999999489
  0
VERTEX
  5
15B5
  8
0
 10
2.253091219093363
 20
0.0000000146681032
 30
0.0
  0
VERTEX
  5
15B6
  8
0
 10
1.2860952190933681
 20
0.0000890146681485
 30
0.0
 42
-0.4141869999999645
  0
VERTEX
  5
15B7
  8
0
 10
0.786140219093369
 20
0.5000890146681059
 30
0.0
  0
VERTEX
  5
15B8
  8
0
 10
0.7861192190933651
 20
15.000044514668099
 30
0.0
  0
SEQEND
  5
15B9
  8
0
  0
POLYLINE
  5
E0D
  8
BYGG-025059$0$LACK_MINDRES
  6
CONTINUOUS
 66
     1
 10
0.0
 20
0.0
 30
0.0
  0
VERTEX
  5
15BA
  8
BYGG-025059$0$LACK_MINDRES
  6
CONTINUOUS
 10
50.107493190934321
 20
-1.0318944660628799
 30
0.0
  0
VERTEX
  5
15BB
  8
BYGG-025059$0$LACK_MINDRES
  6
CONTINUOUS
 10
50.107493190934321
 20
10.81527731172949
 30
0.0
  0
VERTEX
  5
15BC
  8
BYGG-025059$0$LACK_MINDRES
  6
CONTINUOUS
 10
23.83628539259783
 20
10.815277311729499
 30
0.0
  0
VERTEX
  5
15BD
  8
BYGG-025059$0$LACK_MINDRES
  6
CONTINUOUS
 10
23.83628539259783
 20
17.42994835928782
 30
0.0
  0
SEQEND
  5
15BE
  8
BYGG-025059$0$LACK_MINDRES
  6
CONTINUOUS
  0
POLYLINE
  5
E0E
  8
BYGG-025059$0$LACK_MINDRES
  6
CONTINUOUS
 66
     1
 10
0.0
 20
0.0
 30
0.0
  0
VERTEX
  5
15BF
  8
BYGG-025059$0$LACK_MINDRES
  6
CONTINUOUS
 10
50.607493190934321
 20
-1.0318944660628799
 30
0.0
  0
VERTEX
  5
15C0
  8
BYGG-025059$0$LACK_MINDRES
  6
CONTINUOUS
 10
50.607493190934314
 20
11.31527731172954
 30
0.0
  0
VERTEX
  5
15C1
  8
BYGG-025059$0$LACK_MINDRES
  6
CONTINUOUS
 10
24.336285392597858
 20
11.315277311729499
 30
0.0
  0
VERTEX
  5
15C2
  8
BYGG-025059$0$LACK_MINDRES
  6
CONTINUOUS
 10
24.33628539259783
 20
17.42994835928782
 30
0.0
  0
SEQEND
  5
15C3
  8
BYGG-025059$0$LACK_MINDRES
  6
CONTINUOUS
  0
ENDBLK
  5
8B4
  8
0
  0
BLOCK
  8
0
  2
*D30
 70
     1
 10
0.0
 20
0.0
 30
0.0
  3
*D30
  1

  0
LINE
  5
DA1
  8
BYGG-024775$0$MATT
 10
7.8484289096692228
 20
-53.523794819340083
 30
0.0
 11
7.848428909669221
 21
-75.735580058704954
 31
0.0
  0
LINE
  5
DA2
  8
BYGG-024775$0$MATT
 10
37.348428909669217
 20
-53.523794819340083
 30
0.0
 11
37.348428909669217
 21
-75.735580058704954
 31
0.0
  0
LINE
  5
DA3
  8
BYGG-024775$0$MATT
 10
10.84842890966922
 20
-74.235580058704954
 30
0.0
 11
34.348428909669231
 21
-74.235580058704954
 31
0.0
  0
SOLID
  5
DA4
  8
BYGG-024775$0$MATT
 10
10.84842890966922
 20
-73.735580058704954
 30
0.0
 11
10.84842890966922
 21
-74.735580058704954
 31
0.0
 12
7.848428909669221
 22
-74.235580058704954
 32
0.0
 13
7.848428909669221
 23
-74.235580058704954
 33
0.0
  0
SOLID
  5
DA5
  8
BYGG-024775$0$MATT
 10
34.348428909669231
 20
-73.735580058704954
 30
0.0
 11
34.348428909669231
 21
-74.735580058704954
 31
0.0
 12
37.348428909669217
 22
-74.235580058704954
 32
0.0
 13
37.348428909669217
 23
-74.235580058704954
 33
0.0
  0
INSERT
  5
DA6
  8
0
  2
*U80
 10
0.0
 20
0.0
 30
0.0
  0
POINT
  5
DA8
  8
DEFPOINTS
 62
     0
 10
7.8484289096692228
 20
-52.023794819340083
 30
0.0
  0
POINT
  5
DA9
  8
DEFPOINTS
 62
     0
 10
37.348428909669217
 20
-52.023794819340083
 30
0.0
  0
POINT
  5
DAA
  8
DEFPOINTS
 62
     0
 10
37.348428909669217
 20
-74.235580058704954
 30
0.0
  0
ENDBLK
  5
DAB
  8
0
  0
BLOCK
  8
0
  2
*D35
 70
     1
 10
0.0
 20
0.0
 30
0.0
  3
*D35
  1

  0
LINE
  5
DF0
  8
BYGG-025059$0$MATT
 10
47.286129969093423
 20
2.8001340146682021
 30
0.0
 11
47.286129969093423
 21
-14.88063998543619
 31
0.0
  0
LINE
  5
DF1
  8
BYGG-025059$0$MATT
 10
0.7861299690933704
 20
6.2500667646681034
 30
0.0
 11
0.7861299690933692
 21
-14.88063998543619
 31
0.0
  0
LINE
  5
DF2
  8
BYGG-025059$0$MATT
 10
44.286129969093423
 20
-13.38063998543619
 30
0.0
 11
3.7861299690933681
 21
-13.38063998543619
 31
0.0
  0
SOLID
  5
DF3
  8
BYGG-025059$0$MATT
 10
44.286129969093423
 20
-12.88063998543619
 30
0.0
 11
44.286129969093423
 21
-13.88063998543619
 31
0.0
 12
47.286129969093423
 22
-13.38063998543619
 32
0.0
 13
47.286129969093423
 23
-13.38063998543619
 33
0.0
  0
SOLID
  5
DF4
  8
BYGG-025059$0$MATT
 10
3.7861299690933681
 20
-12.88063998543619
 30
0.0
 11
3.7861299690933681
 21
-13.88063998543619
 31
0.0
 12
0.7861299690933692
 22
-13.38063998543619
 32
0.0
 13
0.7861299690933692
 23
-13.38063998543619
 33
0.0
  0
INSERT
  5
DF5
  8
0
  2
*U81
 10
0.0
 20
0.0
 30
0.0
  0
POINT
  5
DF7
  8
DEFPOINTS
 62
     0
 10
47.286129969093423
 20
4.3001340146682017
 30
0.0
  0
POINT
  5
DF8
  8
DEFPOINTS
 62
     0
 10
0.7861299690933706
 20
7.7500667646681034
 30
0.0
  0
POINT
  5
DF9
  8
DEFPOINTS
 62
     0
 10
0.7861299690933692
 20
-13.38063998543619
 30
0.0
  0
ENDBLK
  5
DFA
  8
0
  0
BLOCK
  8
0
  2
*D36
 70
     1
 10
0.0
 20
0.0
 30
0.0
  3
*D36
  1

  0
LINE
  5
DFF
  8
BYGG-025059$0$MATT
 10
3.2597178440933892
 20
15.000044514668099
 30
0.0
 11
-11.639820690697089
 21
15.000044514668099
 31
0.0
  0
LINE
  5
E00
  8
BYGG-025059$0$MATT
 10
0.2695932190933661
 20
0.0000445146681049
 30
0.0
 11
-11.639820690697089
 21
0.0000445146681083
 31
0.0
  0
LINE
  5
E01
  8
BYGG-025059$0$MATT
 10
-10.139820690697089
 20
12.000044514668099
 30
0.0
 11
-10.139820690697089
 21
3.0000445146681081
 31
0.0
  0
SOLID
  5
E02
  8
BYGG-025059$0$MATT
 10
-10.639820690697089
 20
12.000044514668099
 30
0.0
 11
-9.6398206906970891
 21
12.000044514668099
 31
0.0
 12
-10.139820690697089
 22
15.000044514668099
 32
0.0
 13
-10.139820690697089
 23
15.000044514668099
 33
0.0
  0
SOLID
  5
E03
  8
BYGG-025059$0$MATT
 10
-10.639820690697089
 20
3.0000445146681081
 30
0.0
 11
-9.6398206906970945
 21
3.0000445146681081
 31
0.0
 12
-10.139820690697089
 22
0.0000445146681079
 32
0.0
 13
-10.139820690697089
 23
0.0000445146681079
 33
0.0
  0
INSERT
  5
E04
  8
0
  2
*U82
 10
0.0
 20
0.0
 30
0.0
  0
POINT
  5
E05
  8
DEFPOINTS
 62
     0
 10
4.7597178440933892
 20
15.000044514668099
 30
0.0
  0
POINT
  5
E06
  8
DEFPOINTS
 62
     0
 10
1.7695932190933661
 20
0.0000445146681045
 30
0.0
  0
POINT
  5
E07
  8
DEFPOINTS
 62
     0
 10
-10.139820690697089
 20
0.0000445146681079
 30
0.0
  0
ENDBLK
  5
E08
  8
0
  0
BLOCK
  8
0
  2
BYGG-014344$0$ACAD
 70
     0
 10
0.0
 20
0.0
 30
0.0
  3
BYGG-014344$0$ACAD
  1

  0
ENDBLK
  5
A9C
  8
0
  0
BLOCK
  8
0
  2
BYGG-014344$0$ASDP2
 70
     0
 10
0.0
 20
0.0
 30
0.0
  3
BYGG-014344$0$ASDP2
  1

  0
INSERT
  5
A99
  8
0
  2
BYGG-014344$0$ACAD
 10
0.0
 20
0.0
 30
0.0
  0
ENDBLK
  5
A9D
  8
0
  0
BLOCK
  8
0
  2
*D72
 70
     1
 10
0.0
 20
0.0
 30
0.0
  3
*D72
  1

  0
LINE
  5
125F
  8
SAPA_MATT
 10
-24.99999999999914
 20
-25.50046984900883
 30
0.0
 11
-24.99999999999914
 21
-45.409976921574142
 31
0.0
  0
LINE
  5
1260
  8
SAPA_MATT
 10
24.999999999999879
 20
-25.50046984900883
 30
0.0
 11
24.999999999999879
 21
-45.409976921574142
 31
0.0
  0
LINE
  5
1261
  8
SAPA_MATT
 10
-21.99999999999914
 20
-43.909976921574142
 30
0.0
 11
21.999999999999879
 21
-43.909976921574142
 31
0.0
  0
SOLID
  5
1262
  8
SAPA_MATT
 10
-21.99999999999914
 20
-43.409976921574142
 30
0.0
 11
-21.99999999999914
 21
-44.409976921574142
 31
0.0
 12
-24.99999999999914
 22
-43.909976921574142
 32
0.0
 13
-24.99999999999914
 23
-43.909976921574142
 33
0.0
  0
SOLID
  5
1263
  8
SAPA_MATT
 10
21.999999999999879
 20
-43.409976921574142
 30
0.0
 11
21.999999999999879
 21
-44.409976921574142
 31
0.0
 12
24.999999999999879
 22
-43.909976921574142
 32
0.0
 13
24.999999999999879
 23
-43.909976921574142
 33
0.0
  0
INSERT
  5
1264
  8
0
  2
*U87
 10
0.0
 20
0.0
 30
0.0
  0
POINT
  5
1265
  8
DEFPOINTS
 62
     0
 10
-24.99999999999914
 20
-24.00046984900882
 30
0.0
  0
POINT
  5
1266
  8
DEFPOINTS
 62
     0
 10
24.999999999999879
 20
-24.00046984900882
 30
0.0
  0
POINT
  5
1267
  8
DEFPOINTS
 62
     0
 10
24.999999999999879
 20
-43.909976921574142
 30
0.0
  0
ENDBLK
  5
1240
  8
0
  0
BLOCK
  8
0
  2
*D73
 70
     1
 10
0.0
 20
0.0
 30
0.0
  3
*D73
  1

  0
LINE
  5
1FA7
  8
SAPA_MATT
 10
24.999999999999879
 20
-25.50046984900883
 30
0.0
 11
24.999999999999879
 21
-45.409976921574142
 31
0.0
  0
LINE
  5
1FA8
  8
SAPA_MATT
 10
85.000000000000512
 20
25.699999999999651
 30
0.0
 11
85.000000000000512
 21
-45.409976921574142
 31
0.0
  0
LINE
  5
1FA9
  8
SAPA_MATT
 10
27.999999999999879
 20
-43.909976921574142
 30
0.0
 11
82.000000000000497
 21
-43.909976921574142
 31
0.0
  0
SOLID
  5
1FAA
  8
SAPA_MATT
 10
27.999999999999879
 20
-43.409976921574142
 30
0.0
 11
27.999999999999879
 21
-44.409976921574142
 31
0.0
 12
24.999999999999879
 22
-43.909976921574142
 32
0.0
 13
24.999999999999879
 23
-43.909976921574142
 33
0.0
  0
SOLID
  5
1FAB
  8
SAPA_MATT
 10
82.000000000000497
 20
-43.409976921574142
 30
0.0
 11
82.000000000000497
 21
-44.409976921574142
 31
0.0
 12
85.000000000000512
 22
-43.909976921574142
 32
0.0
 13
85.000000000000512
 23
-43.909976921574142
 33
0.0
  0
TEXT
  8
SAPA_MATT
  40
3
  5
1FB4
  62
2
  72
0
  71
0
 10
49.0000
 20
-46.7200
 30
0.000000
  1
60
  7
ISO
  0
POINT
  5
1FAD
  8
DEFPOINTS
 62
     0
 10
24.999999999999879
 20
-24.00046984900882
 30
0.0
  0
POINT
  5
1FAE
  8
DEFPOINTS
 62
     0
 10
85.000000000000512
 20
27.199999999999651
 30
0.0
  0
POINT
  5
1FAF
  8
DEFPOINTS
 62
     0
 10
85.000000000000512
 20
-43.909976921574142
 30
0.0
  0
ENDBLK
  5
124C
  8
0
  0
BLOCK
  8
0
  2
*U74
 70
     1
 10
0.0
 20
0.0
 30
0.0
  3
*U74
  1

  0
TEXT
  5
12AF
  8
SAPA_ARTIKELNR
 10
-6.1294962475032033
 20
-31.621443912966239
 30
0.0
 40
3.5
  1
68280
  7
ISO
  0
ENDBLK
  5
12B1
  8
0
  0
BLOCK
  8
0
  2
*U75
 70
     1
 10
0.0
 20
0.0
 30
0.0
  3
*U75
  1

  0
TEXT
  5
12B3
  8
SAPA_ARTIKELNR
 10
-6.1294962475031891
 20
80.779867128263504
 30
0.0
 40
3.5
  1
42144
  7
ISO
  0
ENDBLK
  5
12B5
  8
0
  0
BLOCK
  8
0
  2
*U76
 70
     1
 10
0.0
 20
0.0
 30
0.0
  3
*U76
  1

  0
TEXT
  5
12B7
  8
SAPA_ARTIKELNR
 10
49.108375257970387
 20
149.01994210755419
 30
0.0
 40
3.5
  1
42643
  7
ISO
  0
ENDBLK
  5
12B9
  8
0
  0
BLOCK
  8
0
  2
*U77
 70
     1
 10
0.0
 20
0.0
 30
0.0
  3
*U77
  1

  0
TEXT
  5
12BB
  8
SAPA_ARTIKELNR
 10
48.492703687509142
 20
20.96182096086568
 30
0.0
 40
3.5
  1
74702
  7
ISO
  0
ENDBLK
  5
12BD
  8
0
  0
BLOCK
  8
0
  2
*U78
 70
     1
 10
0.0
 20
0.0
 30
0.0
  3
*U78
  1

  0
TEXT
  5
12BF
  8
SAPA_ARTIKELNR
 10
70.881018871805438
 20
50.188057662088113
 30
0.0
 40
3.5
  1
74701
  7
ISO
  0
ENDBLK
  5
12C1
  8
0
  0
BLOCK
  8
0
  2
*X79
 70
     1
 10
0.0
 20
0.0
 30
0.0
  3
*X79
  1

  0
LINE
  5
1329
  8
0
 62
     0
 10
1.9940570985189929
 20
1.111249999999999
 30
0.0
 11
5.7965351854286693
 21
1.111249999999999
 31
0.0
  0
LINE
  5
132A
  8
0
 62
     0
 10
3.027133309282636
 20
2.2224999999999988
 30
0.0
 11
5.1549546987917152
 21
2.2224999999999988
 31
0.0
  0
LINE
  5
132B
  8
0
 62
     0
 10
2.6547506639312561
 20
3.3337499999999989
 30
0.0
 11
4.8947399120181103
 21
3.3337499999999989
 31
0.0
  0
LINE
  5
132C
  8
0
 62
     0
 10
0.0234998102366743
 20
4.4449999999999994
 30
0.0
 11
4.7616920489769026
 21
4.4449999999999994
 31
0.0
  0
LINE
  5
132D
  8
0
 62
     0
 10
0.0000001930201874
 20
5.5562499999999986
 30
0.0
 11
2.3960908995194501
 21
5.5562499999999986
 31
0.0
  0
LINE
  5
132E
  8
0
 62
     0
 10
0.0000001930201905
 20
6.6674999999999978
 30
0.0
 11
1.800000193020143
 21
6.6674999999999978
 31
0.0
  0
LINE
  5
132F
  8
0
 62
     0
 10
0.0000001930201935
 20
7.7787499999999978
 30
0.0
 11
1.8000001930201499
 21
7.7787499999999978
 31
0.0
  0
LINE
  5
1330
  8
0
 62
     0
 10
0.0000001930201965
 20
8.8899999999999988
 30
0.0
 11
1.800000193020157
 21
8.8899999999999988
 31
0.0
  0
LINE
  5
1331
  8
0
 62
     0
 10
0.0000001930201996
 20
10.001250000000001
 30
0.0
 11
1.8000001930201639
 21
10.001250000000001
 31
0.0
  0
LINE
  5
1332
  8
0
 62
     0
 10
0.0000001930202026
 20
11.112500000000001
 30
0.0
 11
1.800000193020171
 21
11.112500000000001
 31
0.0
  0
LINE
  5
1333
  8
0
 62
     0
 10
0.0000001930202056
 20
12.223750000000001
 30
0.0
 11
1.8000001930201781
 21
12.223750000000001
 31
0.0
  0
LINE
  5
1334
  8
0
 62
     0
 10
0.0000001930202087
 20
13.335000000000001
 30
0.0
 11
1.800000193020185
 21
13.335000000000001
 31
0.0
  0
LINE
  5
1335
  8
0
 62
     0
 10
0.0000001930202117
 20
14.446249999999999
 30
0.0
 11
1.8000001930201921
 21
14.446249999999999
 31
0.0
  0
LINE
  5
1336
  8
0
 62
     0
 10
0.0000001930202163
 20
15.55749999999999
 30
0.0
 11
1.8000001930201941
 21
15.55749999999999
 31
0.0
  0
LINE
  5
1337
  8
0
 62
     0
 10
0.0000001930202224
 20
16.668749999999999
 30
0.0
 11
1.8000001930201941
 21
16.668749999999999
 31
0.0
  0
LINE
  5
1338
  8
0
 62
     0
 10
0.0000001930202286
 20
17.780000000000001
 30
0.0
 11
1.8000001930201941
 21
17.780000000000001
 31
0.0
  0
LINE
  5
1339
  8
0
 62
     0
 10
0.0000001930202348
 20
18.891249999999989
 30
0.0
 11
1.800000193020195
 21
18.891249999999989
 31
0.0
  0
LINE
  5
133A
  8
0
 62
     0
 10
0.0000001930202409
 20
20.002500000000001
 30
0.0
 11
1.800000193020195
 21
20.002500000000001
 31
0.0
  0
LINE
  5
133B
  8
0
 62
     0
 10
0.0000001930202471
 20
21.11375
 30
0.0
 11
1.800000193020195
 21
21.11375
 31
0.0
  0
LINE
  5
133C
  8
0
 62
     0
 10
0.0000001930202532
 20
22.225000000000001
 30
0.0
 11
1.800000193020195
 21
22.225000000000001
 31
0.0
  0
LINE
  5
133D
  8
0
 62
     0
 10
0.0000001930202594
 20
23.33625
 30
0.0
 11
1.800000193020195
 21
23.33625
 31
0.0
  0
LINE
  5
133E
  8
0
 62
     0
 10
0.0000001930202655
 20
24.447500000000002
 30
0.0
 11
2.406393111116409
 21
24.447500000000002
 31
0.0
  0
LINE
  5
133F
  8
0
 62
     0
 10
0.0248663025976104
 20
25.55875
 30
0.0
 11
4.7638369045468911
 21
25.55875
 31
0.0
  0
LINE
  5
1340
  8
0
 62
     0
 10
2.6650528755282661
 20
26.670000000000002
 30
0.0
 11
4.8947399120182471
 21
26.670000000000002
 31
0.0
  0
LINE
  5
1341
  8
0
 62
     0
 10
3.0245055328386541
 20
27.78125
 30
0.0
 11
5.1571195881540968
 21
27.78125
 31
0.0
  0
LINE
  5
1342
  8
0
 62
     0
 10
1.9907572770532149
 20
28.892499999999998
 30
0.0
 11
5.7987000747911051
 21
28.892499999999998
 31
0.0
  0
ENDBLK
  5
1344
  8
0
  0
BLOCK
  8
0
  2
*U80
 70
     1
 10
0.0
 20
0.0
 30
0.0
  3
*U80
  1

  0
TEXT
  5
137B
  8
BYGG-024775$0$MATT
 62
     2
 10
18.998428909669219
 20
-73.235580058704954
 30
0.0
 40
3.0
  1
29.5
  7
BYGG-024775$0$ISO
  0
ENDBLK
  5
137D
  8
0
  0
BLOCK
  8
0
  2
*U81
 70
     1
 10
0.0
 20
0.0
 30
0.0
  3
*U81
  1

  0
TEXT
  5
14AD
  8
BYGG-025059$0$MATT
 62
     2
 10
20.286129969093391
 20
-12.38063998543619
 30
0.0
 40
3.0
  1
46.5
  7
BYGG-025059$0$ISO
  0
ENDBLK
  5
14AF
  8
0
  0
BLOCK
  8
0
  2
*U82
 70
     1
 10
0.0
 20
0.0
 30
0.0
  3
*U82
  1

  0
TEXT
  5
14B1
  8
BYGG-025059$0$MATT
 62
     2
 10
-11.139820690697089
 20
5.7000445146681056
 30
0.0
 40
3.0
  1
15
 50
90.0
  7
BYGG-025059$0$ISO
  0
ENDBLK
  5
14B3
  8
0
  0
BLOCK
  8
0
  2
*X83
 70
     1
 10
0.0
 20
0.0
 30
0.0
  3
*X83
  1

  0
LINE
  5
1C38
  8
0
 62
     0
 10
40.559787146651992
 20
53.339999999999989
 30
0.0
 11
44.692999257843873
 21
53.339999999999989
 31
0.0
  0
LINE
  5
1C39
  8
0
 62
     0
 10
40.863162080516638
 20
54.451249999999987
 30
0.0
 11
44.387605490172561
 21
54.451249999999987
 31
0.0
  0
LINE
  5
1C3A
  8
0
 62
     0
 10
41.501900619976411
 20
55.562499999999993
 30
0.0
 11
43.494859700263241
 21
55.562499999999993
 31
0.0
  0
LINE
  5
1C3B
  8
0
 62
     0
 10
41.626393202247741
 20
56.673749999999991
 30
0.0
 11
44.525777445368739
 21
56.673749999999991
 31
0.0
  0
LINE
  5
1C3C
  8
0
 62
     0
 10
41.952020967626062
 20
57.784999999999989
 30
0.0
 11
46.521132921245673
 21
57.784999999999989
 31
0.0
  0
LINE
  5
1C3D
  8
0
 62
     0
 10
44.627611858543041
 20
58.896249999999988
 30
0.0
 11
46.521132921245673
 21
58.896249999999988
 31
0.0
  0
LINE
  5
1C3E
  8
0
 62
     0
 10
44.721132921245697
 20
60.0075
 30
0.0
 11
46.521132921245659
 21
60.0075
 31
0.0
  0
LINE
  5
1C3F
  8
0
 62
     0
 10
44.721132921245697
 20
61.118749999999991
 30
0.0
 11
46.521132921245659
 21
61.118749999999991
 31
0.0
  0
LINE
  5
1C40
  8
0
 62
     0
 10
44.72113292124569
 20
62.229999999999983
 30
0.0
 11
46.521132921245652
 21
62.229999999999983
 31
0.0
  0
LINE
  5
1C41
  8
0
 62
     0
 10
44.721132921245683
 20
63.341249999999988
 30
0.0
 11
46.521132921245652
 21
63.341249999999988
 31
0.0
  0
LINE
  5
1C42
  8
0
 62
     0
 10
44.721132921245669
 20
64.452499999999986
 30
0.0
 11
46.521132921245638
 21
64.452499999999986
 31
0.0
  0
LINE
  5
1C43
  8
0
 62
     0
 10
44.721132921245669
 20
65.563749999999985
 30
0.0
 11
46.521132921245638
 21
65.563749999999985
 31
0.0
  0
LINE
  5
1C44
  8
0
 62
     0
 10
44.721132921245662
 20
66.674999999999997
 30
0.0
 11
46.521132921245638
 21
66.674999999999997
 31
0.0
  0
LINE
  5
1C45
  8
0
 62
     0
 10
44.721132921245648
 20
67.786249999999995
 30
0.0
 11
46.521132921245631
 21
67.786249999999995
 31
0.0
  0
LINE
  5
1C46
  8
0
 62
     0
 10
44.721132921245648
 20
68.897499999999994
 30
0.0
 11
46.521132921245631
 21
68.897499999999994
 31
0.0
  0
LINE
  5
1C47
  8
0
 62
     0
 10
44.721132921245648
 20
70.008749999999992
 30
0.0
 11
46.521132921245631
 21
70.008749999999992
 31
0.0
  0
LINE
  5
1C48
  8
0
 62
     0
 10
44.721132921245648
 20
71.11999999999999
 30
0.0
 11
46.521132921245623
 21
71.11999999999999
 31
0.0
  0
LINE
  5
1C49
  8
0
 62
     0
 10
44.721132921245648
 20
72.231249999999989
 30
0.0
 11
46.521132921245609
 21
72.231249999999989
 31
0.0
  0
LINE
  5
1C4A
  8
0
 62
     0
 10
44.721132921245648
 20
73.342499999999987
 30
0.0
 11
46.521132921245602
 21
73.342499999999987
 31
0.0
  0
LINE
  5
1C4B
  8
0
 62
     0
 10
44.721132921245648
 20
74.453749999999985
 30
0.0
 11
46.521132921245602
 21
74.453749999999985
 31
0.0
  0
LINE
  5
1C4C
  8
0
 62
     0
 10
44.721132921245648
 20
75.564999999999984
 30
0.0
 11
46.521132921245602
 21
75.564999999999984
 31
0.0
  0
LINE
  5
1C4D
  8
0
 62
     0
 10
44.721132921245648
 20
76.676249999999996
 30
0.0
 11
46.521132921245588
 21
76.676249999999996
 31
0.0
  0
LINE
  5
1C4E
  8
0
 62
     0
 10
43.455345008115309
 20
77.787499999999994
 30
0.0
 11
46.521132921245588
 21
77.787499999999994
 31
0.0
  0
LINE
  5
1C4F
  8
0
 62
     0
 10
41.659357691917712
 20
78.898749999999993
 30
0.0
 11
46.249819526072478
 21
78.898749999999993
 31
0.0
  0
LINE
  5
1C50
  8
0
 62
     0
 10
41.626393202247662
 20
80.009999999999991
 30
0.0
 11
43.632306725600053
 21
80.009999999999991
 31
0.0
  0
LINE
  5
1C51
  8
0
 62
     0
 10
41.22544937443228
 20
81.121249999999975
 30
0.0
 11
44.02469233021764
 21
81.121249999999975
 31
0.0
  0
LINE
  5
1C52
  8
0
 62
     0
 10
40.583868887795262
 20
82.232499999999973
 30
0.0
 11
44.668921443661112
 21
82.232499999999973
 31
0.0
  0
ENDBLK
  5
1C54
  8
0
  0
BLOCK
  8
0
  2
*X84
 70
     1
 10
0.0
 20
0.0
 30
0.0
  3
*X84
  1

  0
LINE
  5
1C56
  8
0
 62
     0
 10
12.90641808800887
 20
53.339999999999989
 30
0.0
 11
17.040795507475679
 21
53.339999999999989
 31
0.0
  0
LINE
  5
1C57
  8
0
 62
     0
 10
13.211150315444909
 20
54.451249999999987
 30
0.0
 11
16.736063280039669
 21
54.451249999999987
 31
0.0
  0
LINE
  5
1C58
  8
0
 62
     0
 10
14.104365660292819
 20
55.562499999999993
 30
0.0
 11
16.094482793402701
 21
55.562499999999993
 31
0.0
  0
LINE
  5
1C59
  8
0
 62
     0
 10
14.07360679774227
 20
56.673749999999991
 30
0.0
 11
15.87360679774228
 21
56.673749999999991
 31
0.0
  0
LINE
  5
1C5A
  8
0
 62
     0
 10
14.07360679774227
 20
57.784999999999989
 30
0.0
 11
15.87360679774228
 21
57.784999999999989
 31
0.0
  0
LINE
  5
1C5B
  8
0
 62
     0
 10
14.07360679774227
 20
58.896249999999988
 30
0.0
 11
15.87360679774228
 21
58.896249999999988
 31
0.0
  0
LINE
  5
1C5C
  8
0
 62
     0
 10
14.07360679774227
 20
60.0075
 30
0.0
 11
15.87360679774228
 21
60.0075
 31
0.0
  0
LINE
  5
1C5D
  8
0
 62
     0
 10
14.07360679774227
 20
61.118749999999991
 30
0.0
 11
15.87360679774228
 21
61.118749999999991
 31
0.0
  0
LINE
  5
1C5E
  8
0
 62
     0
 10
14.07360679774227
 20
62.229999999999983
 30
0.0
 11
15.87360679774228
 21
62.229999999999983
 31
0.0
  0
LINE
  5
1C5F
  8
0
 62
     0
 10
14.07360679774227
 20
63.341249999999988
 30
0.0
 11
15.87360679774228
 21
63.341249999999988
 31
0.0
  0
LINE
  5
1C60
  8
0
 62
     0
 10
13.999105139363611
 20
64.452499999999986
 30
0.0
 11
15.992989266387751
 21
64.452499999999986
 31
0.0
  0
LINE
  5
1C61
  8
0
 62
     0
 10
13.316410836376569
 20
65.563749999999985
 30
0.0
 11
16.630802759108018
 21
65.563749999999985
 31
0.0
  0
LINE
  5
1C62
  8
0
 62
     0
 10
12.87360679774228
 20
66.674999999999997
 30
0.0
 11
17.073606797742269
 21
66.674999999999997
 31
0.0
  0
ENDBLK
  5
1C64
  8
0
  0
BLOCK
  8
0
  2
*X85
 70
     1
 10
0.0
 20
0.0
 30
0.0
  3
*X85
  1

  0
LINE
  5
1C66
  8
0
 62
     0
 10
40.559787146651992
 20
53.339999999999989
 30
0.0
 11
44.692999257843873
 21
53.339999999999989
 31
0.0
  0
LINE
  5
1C67
  8
0
 62
     0
 10
40.863162080516638
 20
54.451249999999987
 30
0.0
 11
44.387605490172561
 21
54.451249999999987
 31
0.0
  0
LINE
  5
1C68
  8
0
 62
     0
 10
41.501900619976411
 20
55.562499999999993
 30
0.0
 11
43.494859700263241
 21
55.562499999999993
 31
0.0
  0
LINE
  5
1C69
  8
0
 62
     0
 10
41.626393202247741
 20
56.673749999999991
 30
0.0
 11
44.525777445368739
 21
56.673749999999991
 31
0.0
  0
LINE
  5
1C6A
  8
0
 62
     0
 10
41.952020967626062
 20
57.784999999999989
 30
0.0
 11
46.521132921245673
 21
57.784999999999989
 31
0.0
  0
LINE
  5
1C6B
  8
0
 62
     0
 10
44.627611858543041
 20
58.896249999999988
 30
0.0
 11
46.521132921245673
 21
58.896249999999988
 31
0.0
  0
LINE
  5
1C6C
  8
0
 62
     0
 10
44.721132921245697
 20
60.0075
 30
0.0
 11
46.521132921245659
 21
60.0075
 31
0.0
  0
LINE
  5
1C6D
  8
0
 62
     0
 10
44.721132921245697
 20
61.118749999999991
 30
0.0
 11
46.521132921245659
 21
61.118749999999991
 31
0.0
  0
LINE
  5
1C6E
  8
0
 62
     0
 10
44.72113292124569
 20
62.229999999999983
 30
0.0
 11
46.521132921245652
 21
62.229999999999983
 31
0.0
  0
LINE
  5
1C6F
  8
0
 62
     0
 10
44.721132921245683
 20
63.341249999999988
 30
0.0
 11
46.521132921245652
 21
63.341249999999988
 31
0.0
  0
LINE
  5
1C70
  8
0
 62
     0
 10
44.721132921245669
 20
64.452499999999986
 30
0.0
 11
46.521132921245638
 21
64.452499999999986
 31
0.0
  0
LINE
  5
1C71
  8
0
 62
     0
 10
44.721132921245669
 20
65.563749999999985
 30
0.0
 11
46.521132921245638
 21
65.563749999999985
 31
0.0
  0
LINE
  5
1C72
  8
0
 62
     0
 10
44.721132921245662
 20
66.674999999999997
 30
0.0
 11
46.521132921245638
 21
66.674999999999997
 31
0.0
  0
LINE
  5
1C73
  8
0
 62
     0
 10
44.721132921245648
 20
67.786249999999995
 30
0.0
 11
46.521132921245631
 21
67.786249999999995
 31
0.0
  0
LINE
  5
1C74
  8
0
 62
     0
 10
44.721132921245648
 20
68.897499999999994
 30
0.0
 11
46.521132921245631
 21
68.897499999999994
 31
0.0
  0
LINE
  5
1C75
  8
0
 62
     0
 10
44.721132921245648
 20
70.008749999999992
 30
0.0
 11
46.521132921245631
 21
70.008749999999992
 31
0.0
  0
LINE
  5
1C76
  8
0
 62
     0
 10
44.721132921245648
 20
71.11999999999999
 30
0.0
 11
46.521132921245623
 21
71.11999999999999
 31
0.0
  0
LINE
  5
1C77
  8
0
 62
     0
 10
44.721132921245648
 20
72.231249999999989
 30
0.0
 11
46.521132921245609
 21
72.231249999999989
 31
0.0
  0
LINE
  5
1C78
  8
0
 62
     0
 10
44.721132921245648
 20
73.342499999999987
 30
0.0
 11
46.521132921245602
 21
73.342499999999987
 31
0.0
  0
LINE
  5
1C79
  8
0
 62
     0
 10
44.721132921245648
 20
74.453749999999985
 30
0.0
 11
46.521132921245602
 21
74.453749999999985
 31
0.0
  0
LINE
  5
1C7A
  8
0
 62
     0
 10
44.721132921245648
 20
75.564999999999984
 30
0.0
 11
46.521132921245602
 21
75.564999999999984
 31
0.0
  0
LINE
  5
1C7B
  8
0
 62
     0
 10
44.721132921245648
 20
76.676249999999996
 30
0.0
 11
46.521132921245588
 21
76.676249999999996
 31
0.0
  0
LINE
  5
1C7C
  8
0
 62
     0
 10
43.455345008115309
 20
77.787499999999994
 30
0.0
 11
46.521132921245588
 21
77.787499999999994
 31
0.0
  0
LINE
  5
1C7D
  8
0
 62
     0
 10
41.659357691917712
 20
78.898749999999993
 30
0.0
 11
46.249819526072478
 21
78.898749999999993
 31
0.0
  0
LINE
  5
1C7E
  8
0
 62
     0
 10
41.626393202247662
 20
80.009999999999991
 30
0.0
 11
43.632306725600053
 21
80.009999999999991
 31
0.0
  0
LINE
  5
1C7F
  8
0
 62
     0
 10
41.22544937443228
 20
81.121249999999975
 30
0.0
 11
44.02469233021764
 21
81.121249999999975
 31
0.0
  0
LINE
  5
1C80
  8
0
 62
     0
 10
40.583868887795262
 20
82.232499999999973
 30
0.0
 11
44.668921443661112
 21
82.232499999999973
 31
0.0
  0
ENDBLK
  5
1C82
  8
0
  0
BLOCK
  8
0
  2
*X86
 70
     1
 10
0.0
 20
0.0
 30
0.0
  3
*X86
  1

  0
LINE
  5
1C84
  8
0
 62
     0
 10
12.90641808800887
 20
53.339999999999989
 30
0.0
 11
17.040795507475679
 21
53.339999999999989
 31
0.0
  0
LINE
  5
1C85
  8
0
 62
     0
 10
13.211150315444909
 20
54.451249999999987
 30
0.0
 11
16.736063280039669
 21
54.451249999999987
 31
0.0
  0
LINE
  5
1C86
  8
0
 62
     0
 10
14.104365660292819
 20
55.562499999999993
 30
0.0
 11
16.094482793402701
 21
55.562499999999993
 31
0.0
  0
LINE
  5
1C87
  8
0
 62
     0
 10
14.07360679774227
 20
56.673749999999991
 30
0.0
 11
15.87360679774228
 21
56.673749999999991
 31
0.0
  0
LINE
  5
1C88
  8
0
 62
     0
 10
14.07360679774227
 20
57.784999999999989
 30
0.0
 11
15.87360679774228
 21
57.784999999999989
 31
0.0
  0
LINE
  5
1C89
  8
0
 62
     0
 10
14.07360679774227
 20
58.896249999999988
 30
0.0
 11
15.87360679774228
 21
58.896249999999988
 31
0.0
  0
LINE
  5
1C8A
  8
0
 62
     0
 10
14.07360679774227
 20
60.0075
 30
0.0
 11
15.87360679774228
 21
60.0075
 31
0.0
  0
LINE
  5
1C8B
  8
0
 62
     0
 10
14.07360679774227
 20
61.118749999999991
 30
0.0
 11
15.87360679774228
 21
61.118749999999991
 31
0.0
  0
LINE
  5
1C8C
  8
0
 62
     0
 10
14.07360679774227
 20
62.229999999999983
 30
0.0
 11
15.87360679774228
 21
62.229999999999983
 31
0.0
  0
LINE
  5
1C8D
  8
0
 62
     0
 10
14.07360679774227
 20
63.341249999999988
 30
0.0
 11
15.87360679774228
 21
63.341249999999988
 31
0.0
  0
LINE
  5
1C8E
  8
0
 62
     0
 10
13.999105139363611
 20
64.452499999999986
 30
0.0
 11
15.992989266387751
 21
64.452499999999986
 31
0.0
  0
LINE
  5
1C8F
  8
0
 62
     0
 10
13.316410836376569
 20
65.563749999999985
 30
0.0
 11
16.630802759108018
 21
65.563749999999985
 31
0.0
  0
LINE
  5
1C90
  8
0
 62
     0
 10
12.87360679774228
 20
66.674999999999997
 30
0.0
 11
17.073606797742269
 21
66.674999999999997
 31
0.0
  0
ENDBLK
  5
1C92
  8
0
  0
BLOCK
  8
0
  2
*U87
 70
     1
 10
0.0
 20
0.0
 30
0.0
  3
*U87
  1

  0
TEXT
  5
1FB1
  8
SAPA_MATT
 62
     2
 10
-2.0999999999996302
 20
-42.909976921574142
 30
0.0
 40
3.0
  1
50
  7
ISO
  0
ENDBLK
  5
1FB3
  8
0
  0
ENDSEC
  0
SECTION
  2
ENTITIES
  0
INSERT
  5
7A5
  8
0
  2
*U74
 10
0.0
 20
0.0
 30
0.0
  0
INSERT
  5
7A7
  8
0
  2
*U75
 10
0.0
 20
0.0
 30
0.0
  0
INSERT
  5
7A8
  8
0
  2
*U76
 10
0.0
 20
0.0
 30
0.0
  0
INSERT
  5
7A9
  8
0
  2
*U77
 10
0.0
 20
0.0
 30
0.0
  0
INSERT
  5
7AA
  8
0
  2
*U78
 10
0.0
 20
0.0
 30
0.0
  0
POLYLINE
  5
7AE
  8
SAPA_LIGHT
 66
     1
 10
0.0
 20
0.0
 30
0.0
  0
VERTEX
  5
12C2
  8
SAPA_LIGHT
 10
24.999999999999869
 20
-24.50046984900883
 30
0.0
  0
VERTEX
  5
12C3
  8
SAPA_LIGHT
 10
-24.999999999999151
 20
-24.500469849008841
 30
0.0
  0
VERTEX
  5
12C4
  8
SAPA_LIGHT
 10
-24.999999999998401
 20
40.859999999997441
 30
0.0
  0
VERTEX
  5
12C5
  8
SAPA_LIGHT
 10
-5.0000000000001243
 20
40.859999999997449
 30
0.0
  0
VERTEX
  5
12C6
  8
SAPA_LIGHT
 10
-5.0000000000001217
 20
65.8599999999999
 30
0.0
  0
VERTEX
  5
12C7
  8
SAPA_LIGHT
 10
-21.897677221672001
 20
65.8599999999999
 30
0.0
  0
VERTEX
  5
12C8
  8
SAPA_LIGHT
 10
-21.897677221672019
 20
79.499530150990921
 30
0.0
  0
VERTEX
  5
12C9
  8
SAPA_LIGHT
 10
21.8976772216722
 20
79.499530150990935
 30
0.0
  0
VERTEX
  5
12CA
  8
SAPA_LIGHT
 10
21.8976772216722
 20
69.098619394675708
 30
0.0
  0
VERTEX
  5
12CB
  8
SAPA_LIGHT
 10
4.9999999999999849
 20
69.098619394675708
 30
0.0
  0
VERTEX
  5
12CC
  8
SAPA_LIGHT
 10
4.9999999999999867
 20
35.499530150990161
 30
0.0
  0
VERTEX
  5
12CD
  8
SAPA_LIGHT
 10
25.000000000001869
 20
35.499530150990161
 30
0.0
  0
VERTEX
  5
12CE
  8
SAPA_LIGHT
 10
25.00000000000189
 20
-24.50046984900883
 30
0.0
  0
SEQEND
  5
12CF
  8
SAPA_LIGHT
  0
POLYLINE
  5
7B6
  8
SAPA_LIGHT
 66
     1
 10
0.0
 20
0.0
 30
0.0
  0
VERTEX
  5
12D0
  8
SAPA_LIGHT
 10
-40.999999999999609
 20
40.859999999997633
 30
0.0
  0
VERTEX
  5
12D1
  8
SAPA_LIGHT
 10
-11.000000000000121
 20
40.859999999996063
 30
0.0
  0
VERTEX
  5
12D2
  8
SAPA_LIGHT
 10
-11.00000000000024
 20
65.8599999999999
 30
0.0
  0
VERTEX
  5
12D3
  8
SAPA_LIGHT
 10
-40.999999999999673
 20
65.8599999999999
 30
0.0
  0
SEQEND
  5
12D4
  8
SAPA_LIGHT
  0
POLYLINE
  5
7B7
  8
SAPA_LIGHT
 66
     1
 10
0.0
 20
0.0
 30
0.0
  0
VERTEX
  5
12D5
  8
SAPA_LIGHT
 10
118.3438436071083
 20
133.19913194256699
 30
0.0
  0
VERTEX
  5
12D6
  8
SAPA_LIGHT
 10
72.202868061485773
 20
133.19913194256699
 30
0.0
  0
VERTEX
  5
12D7
  8
SAPA_LIGHT
 10
72.202868061485802
 20
106.19913194256701
 30
0.0
  0
VERTEX
  5
12D8
  8
SAPA_LIGHT
 10
118.3438436071083
 20
106.19913194256701
 30
0.0
  0
SEQEND
  5
12D9
  8
SAPA_LIGHT
  0
POLYLINE
  5
7B8
  8
SAPA_LIGHT
 66
     1
 10
0.0
 20
0.0
 30
0.0
  0
VERTEX
  5
12DA
  8
SAPA_LIGHT
 10
10.999999999991569
 20
69.098619394675708
 30
0.0
  0
VERTEX
  5
12DB
  8
SAPA_LIGHT
 10
10.999999999991569
 20
35.499530150990161
 30
0.0
  0
VERTEX
  5
12DC
  8
SAPA_LIGHT
 10
35.000000000000533
 20
35.499530150990282
 30
0.0
  0
VERTEX
  5
12DD
  8
SAPA_LIGHT
 10
35.000000000000533
 20
26.69999999999964
 30
0.0
  0
VERTEX
  5
12DE
  8
SAPA_LIGHT
 10
85.000000000000526
 20
26.699999999999651
 30
0.0
  0
VERTEX
  5
12DF
  8
SAPA_LIGHT
 10
85.000000000000441
 20
106.19913194256701
 30
0.0
  0
VERTEX
  5
12E0
  8
SAPA_LIGHT
 10
66.9163045553085
 20
106.199422576335
 30
0.0
  0
VERTEX
  5
12E1
  8
SAPA_LIGHT
 10
66.9163045553085
 20
133.19913194256711
 30
0.0
  0
VERTEX
  5
12E2
  8
SAPA_LIGHT
 10
85.000288957185063
 20
133.19913194256699
 30
0.0
  0
VERTEX
  5
12E3
  8
SAPA_LIGHT
 10
85.000439680543806
 20
142.06467840762869
 30
0.0
  0
VERTEX
  5
12E4
  8
SAPA_LIGHT
 10
84.717604921602529
 20
142.5150774604694
 30
0.0
  0
VERTEX
  5
12E5
  8
SAPA_LIGHT
 10
75.104504513148626
 20
147.15037679590611
 30
0.0
  0
VERTEX
  5
12E6
  8
SAPA_LIGHT
 10
74.887339272585251
 20
147.19999999999951
 30
0.0
  0
VERTEX
  5
12E7
  8
SAPA_LIGHT
 10
15.000450192390341
 20
147.19999999999951
 30
0.0
  0
VERTEX
  5
12E8
  8
SAPA_LIGHT
 10
15.00045019239035
 20
115.20002537042301
 30
0.0
  0
VERTEX
  5
12E9
  8
SAPA_LIGHT
 10
21.999969232856198
 20
115.2000253704223
 30
0.0
  0
VERTEX
  5
12EA
  8
SAPA_LIGHT
 10
21.999969232855889
 20
101.5128427794242
 30
0.0
  0
VERTEX
  5
12EB
  8
SAPA_LIGHT
 10
22.292862451669361
 20
100.80573599823759
 30
0.0
  0
VERTEX
  5
12EC
  8
SAPA_LIGHT
 10
29.70705440636026
 20
93.391544043546943
 30
0.0
  0
VERTEX
  5
12ED
  8
SAPA_LIGHT
 10
29.999947625173711
 20
92.684437262360277
 30
0.0
  0
VERTEX
  5
12EE
  8
SAPA_LIGHT
 10
29.999947625173721
 20
69.098619394675708
 30
0.0
  0
VERTEX
  5
12EF
  8
SAPA_LIGHT
 10
10.999999999991569
 20
69.098619394675708
 30
0.0
  0
SEQEND
  5
12F0
  8
SAPA_LIGHT
  0
INSERT
  5
11CB
  8
SAPA_PROFIL
  2
BYGG-014344$0$ASDP2
 10
-354.85535829738831
 20
-296.51605766358449
 30
0.0
  0
POLYLINE
  5
11CC
  8
SAPA_PROFIL
 66
     1
 10
0.0
 20
0.0
 30
0.0
 70
     1
  0
VERTEX
  5
18D2
  8
SAPA_PROFIL
 10
45.600477758708728
 20
143.19999999999919
 30
0.0
  0
VERTEX
  5
18D3
  8
SAPA_PROFIL
 10
48.716814264719339
 20
143.19999999999919
 30
0.0
 42
-0.3394542588633416
  0
VERTEX
  5
18D4
  8
SAPA_PROFIL
 10
49.199777177863893
 20
142.82940952255049
 30
0.0
  0
VERTEX
  5
18D5
  8
SAPA_PROFIL
 10
49.705726497692133
 20
140.94118095489679
 30
0.0
 42
0.3394542588633758
  0
VERTEX
  5
18D6
  8
SAPA_PROFIL
 10
50.67165232398122
 20
140.19999999999919
 30
0.0
  0
VERTEX
  5
18D7
  8
SAPA_PROFIL
 10
51.25047775870928
 20
140.19999999999919
 30
0.0
 42
0.4142135623730951
  0
VERTEX
  5
18D8
  8
SAPA_PROFIL
 10
51.75047775870928
 20
140.69999999999919
 30
0.0
  0
VERTEX
  5
18D9
  8
SAPA_PROFIL
 10
51.75047775870928
 20
142.69999999999919
 30
0.0
 42
-0.4142135623730951
  0
VERTEX
  5
18DA
  8
SAPA_PROFIL
 10
52.25047775870928
 20
143.19999999999919
 30
0.0
  0
VERTEX
  5
18DB
  8
SAPA_PROFIL
 10
61.75047775870928
 20
143.19999999999919
 30
0.0
 42
-0.4142135623730951
  0
VERTEX
  5
18DC
  8
SAPA_PROFIL
 10
62.25047775870928
 20
142.69999999999919
 30
0.0
  0
VERTEX
  5
18DD
  8
SAPA_PROFIL
 10
62.25047775870928
 20
140.69999999999919
 30
0.0
 42
0.4142135623730951
  0
VERTEX
  5
18DE
  8
SAPA_PROFIL
 10
62.75047775870928
 20
140.19999999999919
 30
0.0
  0
VERTEX
  5
18DF
  8
SAPA_PROFIL
 10
63.32930319343734
 20
140.19999999999899
 30
0.0
 42
0.3394542588633637
  0
VERTEX
  5
18E0
  8
SAPA_PROFIL
 10
64.295229019726875
 20
140.94118095489659
 30
0.0
  0
VERTEX
  5
18E1
  8
SAPA_PROFIL
 10
64.800952742363222
 20
142.82856758237079
 30
0.0
 42
-0.3394563963282379
  0
VERTEX
  5
18E2
  8
SAPA_PROFIL
 10
65.283919488734895
 20
143.199158059805
 30
0.0
  0
VERTEX
  5
18E3
  8
SAPA_PROFIL
 10
73.39705079917843
 20
143.1990958608549
 30
0.0
 42
-0.414224747454694
  0
VERTEX
  5
18E4
  8
SAPA_PROFIL
 10
73.697048894804936
 20
142.8990825003533
 30
0.0
  0
VERTEX
  5
18E5
  8
SAPA_PROFIL
 10
73.69681731148188
 20
137.69915577263629
 30
0.0
 42
0.4142135623731951
  0
VERTEX
  5
18E6
  8
SAPA_PROFIL
 10
74.196795043471809
 20
137.19913350561919
 30
0.0
  0
VERTEX
  5
18E7
  8
SAPA_PROFIL
 10
76.00453933692728
 20
137.19905299768021
 30
0.0
  0
VERTEX
  5
18E8
  8
SAPA_PROFIL
 10
76.583199488790285
 20
137.65781046565331
 30
0.0
 42
0.7105995015653251
  0
VERTEX
  5
18E9
  8
SAPA_PROFIL
 10
76.396839302862588
 20
138.19289534617411
 30
0.0
  0
VERTEX
  5
18EA
  8
SAPA_PROFIL
 10
75.696839303556715
 20
138.19292652069231
 30
0.0
  0
VERTEX
  5
18EB
  8
SAPA_PROFIL
 10
75.696959821580037
 20
140.89906669941121
 30
0.0
 42
-0.4142135623730951
  0
VERTEX
  5
18EC
  8
SAPA_PROFIL
 10
75.996973181790906
 20
141.19905333860621
 30
0.0
  0
VERTEX
  5
18ED
  8
SAPA_PROFIL
 10
80.396973177426787
 20
141.1988573844927
 30
0.0
 42
-0.4142135623729286
  0
VERTEX
  5
18EE
  8
SAPA_PROFIL
 10
80.696959816621487
 20
140.898844024282
 30
0.0
  0
VERTEX
  5
18EF
  8
SAPA_PROFIL
 10
80.69683929859815
 20
138.19270384556361
 30
0.0
  0
VERTEX
  5
18F0
  8
SAPA_PROFIL
 10
79.99683929929364
 20
138.19273502008139
 30
0.0
 42
0.7105995015652633
  0
VERTEX
  5
18F1
  8
SAPA_PROFIL
 10
79.810431454067782
 20
137.65766674079401
 30
0.0
  0
VERTEX
  5
18F2
  8
SAPA_PROFIL
 10
80.389050742083725
 20
137.1988577333521
 30
0.0
  0
VERTEX
  5
18F3
  8
SAPA_PROFIL
 10
82.796795034942932
 20
137.19875050439771
 30
0.0
 42
0.4142135623730948
  0
VERTEX
  5
18F4
  8
SAPA_PROFIL
 10
83.096808395153801
 20
137.49873714359239
 30
0.0
  0
VERTEX
  5
18F5
  8
SAPA_PROFIL
 10
83.096834227227589
 20
138.07877662405451
 30
0.0
 42
-0.4142135623730951
  0
VERTEX
  5
18F6
  8
SAPA_PROFIL
 10
83.396847587437094
 20
138.3787632632492
 30
0.0
  0
VERTEX
  5
18F7
  8
SAPA_PROFIL
 10
84.700275596975587
 20
138.37870521504911
 30
0.0
 42
0.4142135689162279
  0
VERTEX
  5
18F8
  8
SAPA_PROFIL
 10
85.000288957185091
 20
138.6786918609458
 30
0.0
  0
VERTEX
  5
18F9
  8
SAPA_PROFIL
 10
85.000439680543835
 20
142.06467840762869
 30
0.0
 42
0.287972826846284
  0
VERTEX
  5
18FA
  8
SAPA_PROFIL
 10
84.717604921602572
 20
142.5150774604694
 30
0.0
  0
VERTEX
  5
18FB
  8
SAPA_PROFIL
 10
75.10450451314864
 20
147.15037679590611
 30
0.0
 42
0.1127984919225282
  0
VERTEX
  5
18FC
  8
SAPA_PROFIL
 10
74.88733927258528
 20
147.19999999999951
 30
0.0
  0
VERTEX
  5
18FD
  8
SAPA_PROFIL
 10
57.96662843132043
 20
147.19999999999919
 30
0.0
  0
VERTEX
  5
18FE
  8
SAPA_PROFIL
 10
57.000477762717018
 20
146.64219265140301
 30
0.0
  0
VERTEX
  5
18FF
  8
SAPA_PROFIL
 10
56.034327094112257
 20
147.19999999999919
 30
0.0
  0
VERTEX
  5
1900
  8
SAPA_PROFIL
 10
15.300450192390089
 20
147.19999999999919
 30
0.0
 42
0.4142135623730951
  0
VERTEX
  5
1901
  8
SAPA_PROFIL
 10
15.00045019239036
 20
146.8999999999993
 30
0.0
  0
VERTEX
  5
1902
  8
SAPA_PROFIL
 10
15.00045019239036
 20
115.40002537042309
 30
0.0
 42
0.4142135623730951
  0
VERTEX
  5
1903
  8
SAPA_PROFIL
 10
15.20045019239018
 20
115.20002537042311
 30
0.0
  0
VERTEX
  5
1904
  8
SAPA_PROFIL
 10
16.70045109688175
 20
115.20002537042311
 30
0.0
 42
0.4142135623730948
  0
VERTEX
  5
1905
  8
SAPA_PROFIL
 10
17.000451096881928
 20
115.500025370423
 30
0.0
  0
VERTEX
  5
1906
  8
SAPA_PROFIL
 10
17.00045109688147
 20
144.19999999999919
 30
0.0
 42
-0.4142135623730951
  0
VERTEX
  5
1907
  8
SAPA_PROFIL
 10
17.50045109688147
 20
144.69999999999919
 30
0.0
  0
VERTEX
  5
1908
  8
SAPA_PROFIL
 10
20.000477762717029
 20
144.69999999999919
 30
0.0
 42
-0.4142135623730951
  0
VERTEX
  5
1909
  8
SAPA_PROFIL
 10
20.500477762717029
 20
144.19999999999919
 30
0.0
  0
VERTEX
  5
190A
  8
SAPA_PROFIL
 10
20.500477762717029
 20
143.69999999999931
 30
0.0
 42
0.4142135623730951
  0
VERTEX
  5
190B
  8
SAPA_PROFIL
 10
21.000477762717018
 20
143.19999999999931
 30
0.0
  0
VERTEX
  5
190C
  8
SAPA_PROFIL
 10
24.000477762717029
 20
143.19999999999931
 30
0.0
 42
0.4142135623730951
  0
VERTEX
  5
190D
  8
SAPA_PROFIL
 10
24.500477762717029
 20
143.69999999999931
 30
0.0
  0
VERTEX
  5
190E
  8
SAPA_PROFIL
 10
24.500477762717029
 20
144.19999999999931
 30
0.0
 42
-0.4142135623730951
  0
VERTEX
  5
190F
  8
SAPA_PROFIL
 10
25.000477762717029
 20
144.69999999999931
 30
0.0
  0
VERTEX
  5
1910
  8
SAPA_PROFIL
 10
44.600477758708728
 20
144.69999999999931
 30
0.0
 42
-0.4142135623730951
  0
VERTEX
  5
1911
  8
SAPA_PROFIL
 10
45.100477758708728
 20
144.19999999999931
 30
0.0
  0
VERTEX
  5
1912
  8
SAPA_PROFIL
 10
45.100477758708728
 20
143.69999999999919
 30
0.0
 42
0.4142135623730951
  0
SEQEND
  5
1913
  8
SAPA_PROFIL
  0
INSERT
  5
11CD
  8
SAPA_PROFIL
  2
BYGG-025059
 10
67.59619378890757
 20
143.2000751160511
 30
0.0
 50
180.0
1001
AEC_XDATA_BOUND_SPACE
1070
   100
1070
     1
  0
INSERT
  5
11CE
  8
SAPA_PROFIL
  2
BYGG-024973
 10
47.079451223822943
 20
98.200030450567283
 30
0.0
1001
AEC_XDATA_BOUND_SPACE
1070
   100
1070
     1
  0
INSERT
  5
11CF
  8
SAPA_PROFIL
  2
BYGG-024973
 10
-66.731207481832413
 20
98.200030450567283
 30
0.0
 43
-1.0
210
0.0
220
0.0
230
-1.0
1001
AEC_XDATA_BOUND_SPACE
1070
   100
1070
     1
  0
INSERT
  5
11D0
  8
SAPA_PROFIL
  2
BYGG-024775
 10
47.652201726169729
 20
117.72018219688221
 30
0.0
1001
AEC_XDATA_BOUND_SPACE
1070
   100
1070
     1
  0
POLYLINE
  5
11D1
  8
SAPA_PROFIL
 66
     1
 10
0.0
 20
0.0
 30
0.0
 70
     1
  0
VERTEX
  5
1914
  8
SAPA_PROFIL
 10
12.82360699999216
 20
67.198658285142514
 30
0.0
 42
0.7625858545243258
  0
VERTEX
  5
1915
  8
SAPA_PROFIL
 10
12.49328091897514
 20
67.014079082945031
 30
0.0
  0
VERTEX
  5
1916
  8
SAPA_PROFIL
 10
12.551354555964229
 20
66.82269608295131
 30
0.0
  0
VERTEX
  5
1917
  8
SAPA_PROFIL
 10
13.635919002935969
 20
64.936852391090255
 30
0.0
  0
VERTEX
  5
1918
  8
SAPA_PROFIL
 10
13.95767673115423
 20
64.94741375731725
 30
0.0
 42
-0.5773502691897443
  0
VERTEX
  5
1919
  8
SAPA_PROFIL
 10
14.1406304712644
 20
64.653257457062395
 30
0.0
  0
VERTEX
  5
191A
  8
SAPA_PROFIL
 10
13.988496560155649
 20
64.368575173830763
 30
0.0
 42
-0.2216946626430194
  0
VERTEX
  5
191B
  8
SAPA_PROFIL
 10
13.447616728678851
 20
63.962766268675963
 30
0.0
  0
VERTEX
  5
191C
  8
SAPA_PROFIL
 10
11.63438625802061
 20
63.58131967254824
 30
0.0
 42
-0.4769755326981641
  0
VERTEX
  5
191D
  8
SAPA_PROFIL
 10
11.262729383074721
 20
63.883572497054708
 30
0.0
  0
VERTEX
  5
191E
  8
SAPA_PROFIL
 10
11.26281299095837
 20
65.386673577816723
 30
0.0
  0
VERTEX
  5
191F
  8
SAPA_PROFIL
 10
11.31065874095686
 20
65.401191987063825
 30
0.0
 42
0.4142135623730955
  0
VERTEX
  5
1920
  8
SAPA_PROFIL
 10
11.51062278546426
 20
65.775376942539637
 30
0.0
  0
VERTEX
  5
1921
  8
SAPA_PROFIL
 10
10.999999797742291
 20
67.096494947240743
 30
0.0
  0
VERTEX
  5
1922
  8
SAPA_PROFIL
 10
10.999999797742291
 20
67.098658285142406
 30
0.0
  0
VERTEX
  5
1923
  8
SAPA_PROFIL
 10
10.999999797742291
 20
68.598619285142391
 30
0.0
 42
-0.4142140000000128
  0
VERTEX
  5
1924
  8
SAPA_PROFIL
 10
11.499999797742291
 20
69.098619285142391
 30
0.0
  0
VERTEX
  5
1925
  8
SAPA_PROFIL
 10
29.699957797742311
 20
69.098619285142377
 30
0.0
 42
0.4142040000000322
  0
VERTEX
  5
1926
  8
SAPA_PROFIL
 10
29.99994779774228
 20
69.398619285142388
 30
0.0
  0
VERTEX
  5
1927
  8
SAPA_PROFIL
 10
29.999947797742301
 20
88.472195285142391
 30
0.0
 42
-0.1989169999999825
  0
VERTEX
  5
1928
  8
SAPA_PROFIL
 10
30.087818797742301
 20
88.684331285142378
 30
0.0
  0
VERTEX
  5
1929
  8
SAPA_PROFIL
 10
30.499947797742291
 20
89.096446285142378
 30
0.0
  0
VERTEX
  5
192A
  8
SAPA_PROFIL
 10
30.087815797742309
 20
89.508578285142391
 30
0.0
 42
-0.1989120000000538
  0
VERTEX
  5
192B
  8
SAPA_PROFIL
 10
29.999947797742301
 20
89.720710285142388
 30
0.0
  0
VERTEX
  5
192C
  8
SAPA_PROFIL
 10
29.999947797742308
 20
92.684437285142394
 30
0.0
 42
0.198911999999999
  0
VERTEX
  5
192D
  8
SAPA_PROFIL
 10
29.707054797742291
 20
93.391543285142376
 30
0.0
  0
VERTEX
  5
192E
  8
SAPA_PROFIL
 10
22.292862797742309
 20
100.8057352851424
 30
0.0
 42
-0.1989119999999948
  0
VERTEX
  5
192F
  8
SAPA_PROFIL
 10
21.999969797742299
 20
101.5128422851424
 30
0.0
  0
VERTEX
  5
1930
  8
SAPA_PROFIL
 10
21.999969797742299
 20
107.9777212164305
 30
0.0
 42
-0.198912367379658
  0
VERTEX
  5
1931
  8
SAPA_PROFIL
 10
22.087837763386339
 20
108.1898532507864
 30
0.0
  0
VERTEX
  5
1932
  8
SAPA_PROFIL
 10
22.499969797742299
 20
108.6019852851424
 30
0.0
  0
VERTEX
  5
1933
  8
SAPA_PROFIL
 10
22.087837928603879
 20
109.0141171542808
 30
0.0
 42
-0.1989195190252918
  0
VERTEX
  5
1934
  8
SAPA_PROFIL
 10
21.99996996307345
 20
109.22625744396829
 30
0.0
  0
VERTEX
  5
1935
  8
SAPA_PROFIL
 10
22.000210680196801
 20
117.12395423968159
 30
0.0
 42
-0.3419982526834719
  0
VERTEX
  5
1936
  8
SAPA_PROFIL
 10
22.750167077110891
 20
118.09223220063809
 30
0.0
 42
-0.478873518089567
  0
VERTEX
  5
1937
  8
SAPA_PROFIL
 10
23.00003813161506
 20
117.9060046798612
 30
0.0
  0
VERTEX
  5
1938
  8
SAPA_PROFIL
 10
23.000010797742309
 20
117.29858528514239
 30
0.0
  0
VERTEX
  5
1939
  8
SAPA_PROFIL
 10
24.500010797742309
 20
117.29851828514241
 30
0.0
 42
0.414214000000017
  0
VERTEX
  5
193A
  8
SAPA_PROFIL
 10
25.50005579774238
 20
118.29847328514241
 30
0.0
  0
VERTEX
  5
193B
  8
SAPA_PROFIL
 10
25.500157797742279
 20
120.5984732851423
 30
0.0
 42
0.4142139999999795
  0
VERTEX
  5
193C
  8
SAPA_PROFIL
 10
24.500202797742279
 20
121.5985182851423
 30
0.0
  0
VERTEX
  5
193D
  8
SAPA_PROFIL
 10
23.000202797742279
 20
121.59858528514241
 30
0.0
  0
VERTEX
  5
193E
  8
SAPA_PROFIL
 10
23.00017579733732
 20
120.99857628514241
 30
0.0
 42
-0.4903144048618169
  0
VERTEX
  5
193F
  8
SAPA_PROFIL
 10
22.750167077110881
 20
120.80493836964661
 30
0.0
 42
-0.3419982526834651
  0
VERTEX
  5
1940
  8
SAPA_PROFIL
 10
22.000210680196801
 20
121.77321633060311
 30
0.0
  0
VERTEX
  5
1941
  8
SAPA_PROFIL
 10
22.000224797742309
 20
122.09862928514239
 30
0.0
 42
-0.4142010000000088
  0
VERTEX
  5
1942
  8
SAPA_PROFIL
 10
22.999880797742321
 20
123.09858528514231
 30
0.0
  0
VERTEX
  5
1943
  8
SAPA_PROFIL
 10
31.7999697977423
 20
123.09858528514231
 30
0.0
 42
-0.4142140000000211
  0
VERTEX
  5
1944
  8
SAPA_PROFIL
 10
32.099969797742311
 20
122.79858528514239
 30
0.0
  0
VERTEX
  5
1945
  8
SAPA_PROFIL
 10
32.099969797742311
 20
118.3985852851424
 30
0.0
 42
-0.4142140000000074
  0
VERTEX
  5
1946
  8
SAPA_PROFIL
 10
31.7999697977423
 20
118.09858528514241
 30
0.0
  0
VERTEX
  5
1947
  8
SAPA_PROFIL
 10
30.89996979774234
 20
118.09858528514241
 30
0.0
 42
-0.4142140000001183
  0
VERTEX
  5
1948
  8
SAPA_PROFIL
 10
30.599969797742329
 20
118.3985852851424
 30
0.0
  0
VERTEX
  5
1949
  8
SAPA_PROFIL
 10
30.599969797742329
 20
120.79858528514239
 30
0.0
 42
0.4142140000001183
  0
VERTEX
  5
194A
  8
SAPA_PROFIL
 10
30.299969797742321
 20
121.09858528514241
 30
0.0
  0
VERTEX
  5
194B
  8
SAPA_PROFIL
 10
27.299969797742332
 20
121.09858528514231
 30
0.0
 42
0.4142140000000072
  0
VERTEX
  5
194C
  8
SAPA_PROFIL
 10
26.99996979774243
 20
120.79858528514239
 30
0.0
  0
VERTEX
  5
194D
  8
SAPA_PROFIL
 10
26.999969797742299
 20
103.3986182851424
 30
0.0
 42
0.4142140000000351
  0
VERTEX
  5
194E
  8
SAPA_PROFIL
 10
27.29996979774231
 20
103.09861828514251
 30
0.0
  0
VERTEX
  5
194F
  8
SAPA_PROFIL
 10
30.2999697977423
 20
103.09861828514229
 30
0.0
 42
0.4142140000000488
  0
VERTEX
  5
1950
  8
SAPA_PROFIL
 10
30.599969797742421
 20
103.3986182851424
 30
0.0
  0
VERTEX
  5
1951
  8
SAPA_PROFIL
 10
30.599969797742311
 20
105.7986182851424
 30
0.0
 42
-0.4142140000000906
  0
VERTEX
  5
1952
  8
SAPA_PROFIL
 10
30.899969797742319
 20
106.09861828514229
 30
0.0
  0
VERTEX
  5
1953
  8
SAPA_PROFIL
 10
31.799969797742278
 20
106.09861828514229
 30
0.0
 42
-0.4142139999999796
  0
VERTEX
  5
1954
  8
SAPA_PROFIL
 10
32.09996979774229
 20
105.7986182851424
 30
0.0
  0
VERTEX
  5
1955
  8
SAPA_PROFIL
 10
32.09996979774229
 20
101.3986182851424
 30
0.0
 42
-0.4142140000000351
  0
VERTEX
  5
1956
  8
SAPA_PROFIL
 10
31.799969797742278
 20
101.09861828514239
 30
0.0
  0
VERTEX
  5
1957
  8
SAPA_PROFIL
 10
27.44972779774228
 20
101.09861828514239
 30
0.0
 42
0.6681790000000243
  0
VERTEX
  5
1958
  8
SAPA_PROFIL
 10
27.09617379774236
 20
100.2450642851424
 30
0.0
  0
VERTEX
  5
1959
  8
SAPA_PROFIL
 10
32.853500797742271
 20
94.487737285142373
 30
0.0
 42
-0.1989119999999689
  0
VERTEX
  5
195A
  8
SAPA_PROFIL
 10
32.999947797742287
 20
94.13418428514241
 30
0.0
  0
VERTEX
  5
195B
  8
SAPA_PROFIL
 10
32.99994779774228
 20
85.398648285142386
 30
0.0
 42
0.4142109999999376
  0
VERTEX
  5
195C
  8
SAPA_PROFIL
 10
33.299944797742327
 20
85.098648285142374
 30
0.0
  0
VERTEX
  5
195D
  8
SAPA_PROFIL
 10
41.383473797742319
 20
85.098584285142394
 30
0.0
 42
0.4931339999999921
  0
VERTEX
  5
195E
  8
SAPA_PROFIL
 10
41.86644579774228
 20
85.727972285142386
 30
0.0
  0
VERTEX
  5
195F
  8
SAPA_PROFIL
 10
40.851218797742298
 20
89.517526285142395
 30
0.0
 42
-0.4142140000000106
  0
VERTEX
  5
1960
  8
SAPA_PROFIL
 10
41.204799797742318
 20
90.129883285142384
 30
0.0
  0
VERTEX
  5
1961
  8
SAPA_PROFIL
 10
42.460517797742327
 20
90.466292285142373
 30
0.0
  0
VERTEX
  5
1962
  8
SAPA_PROFIL
 10
43.14723979774228
 20
90.168947285142394
 30
0.0
 42
-0.7106000000000535
  0
VERTEX
  5
1963
  8
SAPA_PROFIL
 10
43.105668797742318
 20
89.603865285142376
 30
0.0
  0
VERTEX
  5
1964
  8
SAPA_PROFIL
 10
42.719293797742338
 20
89.500355285142376
 30
0.0
 42
0.414213999999965
  0
VERTEX
  5
1965
  8
SAPA_PROFIL
 10
42.507145797742361
 20
89.132941285142365
 30
0.0
  0
VERTEX
  5
1966
  8
SAPA_PROFIL
 10
43.128208797742303
 20
86.814691285142374
 30
0.0
 42
0.414213999999931
  0
VERTEX
  5
1967
  8
SAPA_PROFIL
 10
43.4956227977423
 20
86.602543285142474
 30
0.0
  0
VERTEX
  5
1968
  8
SAPA_PROFIL
 10
48.228715797742332
 20
87.870545285142356
 30
0.0
 42
0.4142139999998971
  0
VERTEX
  5
1969
  8
SAPA_PROFIL
 10
48.440863797742253
 20
88.237959285142338
 30
0.0
  0
VERTEX
  5
196A
  8
SAPA_PROFIL
 10
47.819801797742358
 20
90.556209285142387
 30
0.0
 42
0.4142139999999882
  0
VERTEX
  5
196B
  8
SAPA_PROFIL
 10
47.452387797742318
 20
90.768357285142429
 30
0.0
  0
VERTEX
  5
196C
  8
SAPA_PROFIL
 10
46.583043797742313
 20
90.535459285142394
 30
0.0
 42
-0.7105999999999463
  0
VERTEX
  5
196D
  8
SAPA_PROFIL
 10
46.264543797742292
 20
91.004077285142387
 30
0.0
  0
VERTEX
  5
196E
  8
SAPA_PROFIL
 10
46.710642797742288
 20
91.604906285142377
 30
0.0
  0
VERTEX
  5
196F
  8
SAPA_PROFIL
 10
48.449329797742337
 20
92.070703285142386
 30
0.0
 42
-0.4142140000000444
  0
VERTEX
  5
1970
  8
SAPA_PROFIL
 10
49.061686797742283
 20
91.717123285142364
 30
0.0
  0
VERTEX
  5
1971
  8
SAPA_PROFIL
 10
50.265587669352712
 20
87.22330024924662
 30
0.0
 42
-0.4145924122163537
  0
VERTEX
  5
1972
  8
SAPA_PROFIL
 10
49.91220198819336
 20
86.610304026879476
 30
0.0
  0
VERTEX
  5
1973
  8
SAPA_PROFIL
 10
46.822359126604752
 20
85.782383611862485
 30
0.0
 42
0.3394542996516683
  0
VERTEX
  5
1974
  8
SAPA_PROFIL
 10
46.60000479774228
 20
85.492605852616535
 30
0.0
  0
VERTEX
  5
1975
  8
SAPA_PROFIL
 10
46.600004797742301
 20
83.096459947240731
 30
0.0
  0
VERTEX
  5
1976
  8
SAPA_PROFIL
 10
46.089381810020328
 20
81.775341942539626
 30
0.0
 42
0.4142135623730946
  0
VERTEX
  5
1977
  8
SAPA_PROFIL
 10
46.289345854527717
 20
81.401156987063814
 30
0.0
  0
VERTEX
  5
1978
  8
SAPA_PROFIL
 10
46.337191604526211
 20
81.386638577816697
 30
0.0
  0
VERTEX
  5
1979
  8
SAPA_PROFIL
 10
46.337275212409843
 20
79.883537497054704
 30
0.0
 42
-0.4769755326981639
  0
VERTEX
  5
197A
  8
SAPA_PROFIL
 10
45.965618337463987
 20
79.581284672548236
 30
0.0
  0
VERTEX
  5
197B
  8
SAPA_PROFIL
 10
44.152387866805739
 20
79.962731268675952
 30
0.0
 42
-0.2216946626430198
  0
VERTEX
  5
197C
  8
SAPA_PROFIL
 10
43.611508035328953
 20
80.368540173830766
 30
0.0
  0
VERTEX
  5
197D
  8
SAPA_PROFIL
 10
43.459374124220169
 20
80.653222457062384
 30
0.0
 42
-0.5773502691897454
  0
VERTEX
  5
197E
  8
SAPA_PROFIL
 10
43.642327864330369
 20
80.947378757317225
 30
0.0
  0
VERTEX
  5
197F
  8
SAPA_PROFIL
 10
43.964085592548606
 20
80.936817391090244
 30
0.0
  0
VERTEX
  5
1980
  8
SAPA_PROFIL
 10
45.048650039520354
 20
82.822661082951299
 30
0.0
  0
VERTEX
  5
1981
  8
SAPA_PROFIL
 10
45.106723676509432
 20
83.014044082945006
 30
0.0
 42
0.7625858545243291
  0
VERTEX
  5
1982
  8
SAPA_PROFIL
 10
44.776397595492433
 20
83.198623285142503
 30
0.0
 42
-0.2134217652834358
  0
VERTEX
  5
1983
  8
SAPA_PROFIL
 10
44.552790797742311
 20
83.098623285142395
 30
0.0
  0
VERTEX
  5
1984
  8
SAPA_PROFIL
 10
40.700004797742331
 20
83.098623285142395
 30
0.0
 42
0.4142140000000212
  0
VERTEX
  5
1985
  8
SAPA_PROFIL
 10
40.40000479774239
 20
82.798623285142384
 30
0.0
  0
VERTEX
  5
1986
  8
SAPA_PROFIL
 10
40.400004797742298
 20
82.498623285142386
 30
0.0
  0
VERTEX
  5
1987
  8
SAPA_PROFIL
 10
41.323764797742342
 20
80.898623285142378
 30
0.0
 42
-0.5773500000000463
  0
VERTEX
  5
1988
  8
SAPA_PROFIL
 10
41.150559797742318
 20
80.598623285142395
 30
0.0
  0
VERTEX
  5
1989
  8
SAPA_PROFIL
 10
39.764918797742311
 20
80.598623285142395
 30
0.0
 42
-0.267948999999994
  0
VERTEX
  5
198A
  8
SAPA_PROFIL
 10
38.898893797742332
 20
81.098623285142395
 30
0.0
  0
VERTEX
  5
198B
  8
SAPA_PROFIL
 10
38.465883797742308
 20
81.848619285142377
 30
0.0
 42
0.2679470000000245
  0
VERTEX
  5
198C
  8
SAPA_PROFIL
 10
38.032874797742338
 20
82.098619285142377
 30
0.0
  0
VERTEX
  5
198D
  8
SAPA_PROFIL
 10
35.499968797742298
 20
82.098641285142378
 30
0.0
 42
0.4142160000000003
  0
VERTEX
  5
198E
  8
SAPA_PROFIL
 10
32.99994779774233
 20
79.598641285142364
 30
0.0
  0
VERTEX
  5
198F
  8
SAPA_PROFIL
 10
32.99994779774228
 20
67.098658285142392
 30
0.0
 42
-0.4142140000000072
  0
VERTEX
  5
1990
  8
SAPA_PROFIL
 10
32.699947797742297
 20
66.79865828514238
 30
0.0
  0
VERTEX
  5
1991
  8
SAPA_PROFIL
 10
19.971281797742321
 20
66.798658285142395
 30
0.0
 42
0.2679490000000027
  0
VERTEX
  5
1992
  8
SAPA_PROFIL
 10
19.538268797742379
 20
66.548658285142338
 30
0.0
  0
VERTEX
  5
1993
  8
SAPA_PROFIL
 10
18.701110797742299
 20
65.098658285142406
 30
0.0
 42
-0.267948999999995
  0
VERTEX
  5
1994
  8
SAPA_PROFIL
 10
17.83508579774232
 20
64.598658285142406
 30
0.0
  0
VERTEX
  5
1995
  8
SAPA_PROFIL
 10
16.449444797742299
 20
64.598658285142406
 30
0.0
 42
-0.57735000000001
  0
VERTEX
  5
1996
  8
SAPA_PROFIL
 10
16.276239797742299
 20
64.898658285142417
 30
0.0
  0
VERTEX
  5
1997
  8
SAPA_PROFIL
 10
17.199999797742318
 20
66.498658285142412
 30
0.0
  0
VERTEX
  5
1998
  8
SAPA_PROFIL
 10
17.199999797742318
 20
66.798658285142395
 30
0.0
 42
0.4142139999999934
  0
VERTEX
  5
1999
  8
SAPA_PROFIL
 10
16.899999797742289
 20
67.098658285142349
 30
0.0
  0
VERTEX
  5
199A
  8
SAPA_PROFIL
 10
13.04721379774227
 20
67.098658285142406
 30
0.0
 42
-0.2134220000000247
  0
VERTEX
  5
199B
  8
SAPA_PROFIL
 10
12.823606797742309
 20
67.1986582851424
 30
0.0
  0
SEQEND
  5
199C
  8
SAPA_PROFIL
  0
POLYLINE
  5
11D2
  8
SAPA_PROFIL
 62
     4
 66
     1
 10
0.0
 20
0.0
 30
0.0
 70
     1
  0
VERTEX
  5
199D
  8
SAPA_PROFIL
 62
     4
 10
43.627485331498498
 20
56.137778470551268
 30
0.0
 42
-0.3137019356282051
  0
VERTEX
  5
199E
  8
SAPA_PROFIL
 62
     4
 10
43.825110957031917
 20
56.418728254097573
 30
0.0
  0
VERTEX
  5
199F
  8
SAPA_PROFIL
 62
     4
 10
46.257940978575938
 20
57.304205966968773
 30
0.0
 42
0.3152987888779321
  0
VERTEX
  5
19A0
  8
SAPA_PROFIL
 62
     4
 10
46.521132921245673
 20
57.680083015285163
 30
0.0
  0
VERTEX
  5
19A1
  8
SAPA_PROFIL
 62
     4
 10
46.521132921245631
 20
68.099999999999284
 30
0.0
  0
VERTEX
  5
19A2
  8
SAPA_PROFIL
 62
     4
 10
46.521132921245581
 20
78.519916984717383
 30
0.0
 42
0.3152987888779395
  0
VERTEX
  5
19A3
  8
SAPA_PROFIL
 62
     4
 10
46.257940978575853
 20
78.895794033029745
 30
0.0
  0
VERTEX
  5
19A4
  8
SAPA_PROFIL
 62
     4
 10
43.825110957040167
 20
79.781271745897925
 30
0.0
 42
-0.3138982169096283
  0
VERTEX
  5
19A5
  8
SAPA_PROFIL
 62
     4
 10
43.627485331499813
 20
80.062221529412099
 30
0.0
 42
-0.0157923906855865
  0
VERTEX
  5
19A6
  8
SAPA_PROFIL
 62
     4
 10
43.624082201860212
 20
80.413680061750966
 30
0.0
  0
VERTEX
  5
19A7
  8
SAPA_PROFIL
 62
     4
 10
43.485412444753692
 20
80.653863126533253
 30
0.0
 42
-0.5773502691889272
  0
VERTEX
  5
19A8
  8
SAPA_PROFIL
 62
     4
 10
43.667277779548492
 20
80.968863126532966
 30
0.0
  0
VERTEX
  5
19A9
  8
SAPA_PROFIL
 62
     4
 10
43.934392307761399
 20
80.968863126533094
 30
0.0
  0
VERTEX
  5
19AA
  8
SAPA_PROFIL
 62
     4
 10
44.130614373545697
 20
81.299999999999272
 30
0.0
  0
VERTEX
  5
19AB
  8
SAPA_PROFIL
 62
     4
 10
44.698258537043138
 20
82.283320137979786
 30
0.0
 42
0.1316524975869703
  0
VERTEX
  5
19AC
  8
SAPA_PROFIL
 62
     4
 10
44.726393202247714
 20
82.38832013797861
 30
0.0
  0
VERTEX
  5
19AD
  8
SAPA_PROFIL
 62
     4
 10
44.726393202247813
 20
82.700000000001182
 30
0.0
 42
0.4142135623775584
  0
VERTEX
  5
19AE
  8
SAPA_PROFIL
 62
     4
 10
44.326393202247502
 20
83.099999999999227
 30
0.0
  0
VERTEX
  5
19AF
  8
SAPA_PROFIL
 62
     4
 10
40.926393202247752
 20
83.099999999999284
 30
0.0
 42
0.4142135623773978
  0
VERTEX
  5
19B0
  8
SAPA_PROFIL
 62
     4
 10
40.526393202247768
 20
82.699999999999235
 30
0.0
  0
VERTEX
  5
19B1
  8
SAPA_PROFIL
 62
     4
 10
40.526393202247768
 20
82.388320137975597
 30
0.0
 42
0.1316524975869708
  0
VERTEX
  5
19B2
  8
SAPA_PROFIL
 62
     4
 10
40.554527867453011
 20
82.283320137978649
 30
0.0
  0
VERTEX
  5
19B3
  8
SAPA_PROFIL
 62
     4
 10
41.122248013815053
 20
81.299999999999272
 30
0.0
  0
VERTEX
  5
19B4
  8
SAPA_PROFIL
 62
     4
 10
41.465623686787168
 20
80.705255888328395
 30
0.0
 42
-0.1316524975869772
  0
VERTEX
  5
19B5
  8
SAPA_PROFIL
 62
     4
 10
41.626393202247677
 20
80.105255888325019
 30
0.0
  0
VERTEX
  5
19B6
  8
SAPA_PROFIL
 62
     4
 10
41.626393202247449
 20
79.153391555438589
 30
0.0
 42
0.3152987888780149
  0
VERTEX
  5
19B7
  8
SAPA_PROFIL
 62
     4
 10
42.284373058921837
 20
78.213698934667093
 30
0.0
  0
VERTEX
  5
19B8
  8
SAPA_PROFIL
 62
     4
 10
44.457940978575529
 20
77.422584909757234
 30
0.0
 42
-0.3152987888779391
  0
VERTEX
  5
19B9
  8
SAPA_PROFIL
 62
     4
 10
44.721132921245648
 20
77.046707861442712
 30
0.0
  0
VERTEX
  5
19BA
  8
SAPA_PROFIL
 62
     4
 10
44.721132921245648
 20
68.099999999999284
 30
0.0
  0
VERTEX
  5
19BB
  8
SAPA_PROFIL
 62
     4
 10
44.721132921245697
 20
59.153292138555798
 30
0.0
 42
-0.3152987888779318
  0
VERTEX
  5
19BC
  8
SAPA_PROFIL
 62
     4
 10
44.457940978579288
 20
58.777415090242641
 30
0.0
  0
VERTEX
  5
19BD
  8
SAPA_PROFIL
 62
     4
 10
42.284373058922071
 20
57.986301065331531
 30
0.0
 42
0.3152987888779361
  0
VERTEX
  5
19BE
  8
SAPA_PROFIL
 62
     4
 10
41.626393202247741
 20
57.046608444530932
 30
0.0
  0
VERTEX
  5
19BF
  8
SAPA_PROFIL
 62
     4
 10
41.626393202247741
 20
56.094744111673442
 30
0.0
 42
-0.1316524975869766
  0
VERTEX
  5
19C0
  8
SAPA_PROFIL
 62
     4
 10
41.465623686793023
 20
55.494744111680241
 30
0.0
  0
VERTEX
  5
19C1
  8
SAPA_PROFIL
 62
     4
 10
41.12639320224779
 20
54.907179676971737
 30
0.0
  0
VERTEX
  5
19C2
  8
SAPA_PROFIL
 62
     4
 10
40.554527867453068
 20
53.916679862019798
 30
0.0
 42
0.1316524975869832
  0
VERTEX
  5
19C3
  8
SAPA_PROFIL
 62
     4
 10
40.526393202247831
 20
53.81167986201671
 30
0.0
  0
VERTEX
  5
19C4
  8
SAPA_PROFIL
 62
     4
 10
40.526393202247768
 20
53.499999999999197
 30
0.0
 42
0.414213562371655
  0
VERTEX
  5
19C5
  8
SAPA_PROFIL
 62
     4
 10
40.926393202251731
 20
53.099999999999227
 30
0.0
  0
VERTEX
  5
19C6
  8
SAPA_PROFIL
 62
     4
 10
44.326393202247793
 20
53.099999999999227
 30
0.0
 42
0.4142135623716633
  0
VERTEX
  5
19C7
  8
SAPA_PROFIL
 62
     4
 10
44.726393202247763
 20
53.500000000001251
 30
0.0
  0
VERTEX
  5
19C8
  8
SAPA_PROFIL
 62
     4
 10
44.726393202247763
 20
53.811679862019901
 30
0.0
 42
0.1316524975869709
  0
VERTEX
  5
19C9
  8
SAPA_PROFIL
 62
     4
 10
44.698258537042172
 20
53.91667986202048
 30
0.0
  0
VERTEX
  5
19CA
  8
SAPA_PROFIL
 62
     4
 10
43.934392307761399
 20
55.231136873465481
 30
0.0
  0
VERTEX
  5
19CB
  8
SAPA_PROFIL
 62
     4
 10
43.667277779548492
 20
55.231136873465601
 30
0.0
 42
-0.5773502691889269
  0
VERTEX
  5
19CC
  8
SAPA_PROFIL
 62
     4
 10
43.485412444753692
 20
55.546136873465308
 30
0.0
  0
VERTEX
  5
19CD
  8
SAPA_PROFIL
 62
     4
 10
43.624082201860212
 20
55.786319938247601
 30
0.0
 42
-0.015792390685586
  0
SEQEND
  5
19CE
  8
SAPA_PROFIL
 62
     4
  0
POLYLINE
  5
11D3
  8
SAPA_PROFIL
 62
     4
 66
     1
 10
0.0
 20
0.0
 30
0.0
 70
     1
  0
VERTEX
  5
19CF
  8
SAPA_PROFIL
 62
     4
 10
13.66064357234387
 20
55.229795158608553
 30
0.0
  0
VERTEX
  5
19D0
  8
SAPA_PROFIL
 62
     4
 10
13.46946160930956
 20
54.898658285142389
 30
0.0
  0
VERTEX
  5
19D1
  8
SAPA_PROFIL
 62
     4
 10
12.90174146294752
 20
53.915338147162963
 30
0.0
 42
0.1316524975873982
  0
VERTEX
  5
19D2
  8
SAPA_PROFIL
 62
     4
 10
12.87360679774228
 20
53.810338147162931
 30
0.0
  0
VERTEX
  5
19D3
  8
SAPA_PROFIL
 62
     4
 10
12.87360679774228
 20
53.498658285142362
 30
0.0
 42
0.4142135623730951
  0
VERTEX
  5
19D4
  8
SAPA_PROFIL
 62
     4
 10
13.273606797742261
 20
53.098658285142371
 30
0.0
  0
VERTEX
  5
19D5
  8
SAPA_PROFIL
 62
     4
 10
16.673606797742291
 20
53.098658285142371
 30
0.0
 42
0.4142135623730951
  0
VERTEX
  5
19D6
  8
SAPA_PROFIL
 62
     4
 10
17.073606797742269
 20
53.498658285142362
 30
0.0
  0
VERTEX
  5
19D7
  8
SAPA_PROFIL
 62
     4
 10
17.073606797742329
 20
53.810338147162931
 30
0.0
 42
0.1316524975873984
  0
VERTEX
  5
19D8
  8
SAPA_PROFIL
 62
     4
 10
17.045472132537029
 20
53.915338147162963
 30
0.0
  0
VERTEX
  5
19D9
  8
SAPA_PROFIL
 62
     4
 10
16.477751986175051
 20
54.898658285142389
 30
0.0
  0
VERTEX
  5
19DA
  8
SAPA_PROFIL
 62
     4
 10
16.03437631320098
 20
55.666607477573493
 30
0.0
 42
-0.1316524975873982
  0
VERTEX
  5
19DB
  8
SAPA_PROFIL
 62
     4
 10
15.87360679774228
 20
56.266607477573523
 30
0.0
  0
VERTEX
  5
19DC
  8
SAPA_PROFIL
 62
     4
 10
15.87360679774228
 20
60.098658285142378
 30
0.0
  0
VERTEX
  5
19DD
  8
SAPA_PROFIL
 62
     4
 10
15.87360679774228
 20
63.930709092711233
 30
0.0
 42
-0.1316524975873984
  0
VERTEX
  5
19DE
  8
SAPA_PROFIL
 62
     4
 10
16.03437631320098
 20
64.530709092711263
 30
0.0
  0
VERTEX
  5
19DF
  8
SAPA_PROFIL
 62
     4
 10
16.473606797742299
 20
65.291478608169925
 30
0.0
  0
VERTEX
  5
19E0
  8
SAPA_PROFIL
 62
     4
 10
17.045472132537029
 20
66.281978423121799
 30
0.0
 42
0.1316524975873982
  0
VERTEX
  5
19E1
  8
SAPA_PROFIL
 62
     4
 10
17.073606797742329
 20
66.386978423121818
 30
0.0
  0
VERTEX
  5
19E2
  8
SAPA_PROFIL
 62
     4
 10
17.073606797742269
 20
66.6986582851424
 30
0.0
 42
0.4142135623730951
  0
VERTEX
  5
19E3
  8
SAPA_PROFIL
 62
     4
 10
16.673606797742291
 20
67.098658285142378
 30
0.0
  0
VERTEX
  5
19E4
  8
SAPA_PROFIL
 62
     4
 10
13.273606797742261
 20
67.098658285142378
 30
0.0
 42
0.4142135623730951
  0
VERTEX
  5
19E5
  8
SAPA_PROFIL
 62
     4
 10
12.87360679774228
 20
66.6986582851424
 30
0.0
  0
VERTEX
  5
19E6
  8
SAPA_PROFIL
 62
     4
 10
12.87360679774228
 20
66.386978423121761
 30
0.0
 42
0.1316524975873984
  0
VERTEX
  5
19E7
  8
SAPA_PROFIL
 62
     4
 10
12.90174146294752
 20
66.281978423121799
 30
0.0
  0
VERTEX
  5
19E8
  8
SAPA_PROFIL
 62
     4
 10
13.47360679774231
 20
65.291478608169925
 30
0.0
  0
VERTEX
  5
19E9
  8
SAPA_PROFIL
 62
     4
 10
13.66064357234392
 20
64.967521411676117
 30
0.0
  0
VERTEX
  5
19EA
  8
SAPA_PROFIL
 62
     4
 10
13.93272222044355
 20
64.967521411676003
 30
0.0
 42
-0.5773502691889281
  0
VERTEX
  5
19EB
  8
SAPA_PROFIL
 62
     4
 10
14.114587555238341
 20
64.65252141167629
 30
0.0
  0
VERTEX
  5
19EC
  8
SAPA_PROFIL
 62
     4
 10
13.974092457507339
 20
64.409176764191272
 30
0.0
 42
-0.1028918098306669
  0
VERTEX
  5
19ED
  8
SAPA_PROFIL
 62
     4
 10
14.07360679774227
 20
63.930709092711233
 30
0.0
  0
VERTEX
  5
19EE
  8
SAPA_PROFIL
 62
     4
 10
14.07360679774227
 20
60.098658285142378
 30
0.0
  0
VERTEX
  5
19EF
  8
SAPA_PROFIL
 62
     4
 10
14.07360679774227
 20
56.266607477573523
 30
0.0
 42
-0.1028918098311628
  0
VERTEX
  5
19F0
  8
SAPA_PROFIL
 62
     4
 10
13.9740924575064
 20
55.788139806091323
 30
0.0
  0
VERTEX
  5
19F1
  8
SAPA_PROFIL
 62
     4
 10
14.114587555236209
 20
55.54479515860838
 30
0.0
 42
-0.5773502691889286
  0
VERTEX
  5
19F2
  8
SAPA_PROFIL
 62
     4
 10
13.93272222044142
 20
55.229795158608667
 30
0.0
  0
SEQEND
  5
19F3
  8
SAPA_PROFIL
 62
     4
  0
POLYLINE
  5
11D4
  8
SAPA_PROFIL
 66
     1
 10
0.0
 20
0.0
 30
0.0
 70
     1
  0
VERTEX
  5
19F4
  8
SAPA_PROFIL
 10
45.96561374197141
 20
56.617338612593372
 30
0.0
 42
-0.4769755326981641
  0
VERTEX
  5
19F5
  8
SAPA_PROFIL
 10
46.33727061691733
 20
56.315085788086897
 30
0.0
  0
VERTEX
  5
19F6
  8
SAPA_PROFIL
 10
46.337187009033677
 20
54.811984707324903
 30
0.0
  0
VERTEX
  5
19F7
  8
SAPA_PROFIL
 10
46.28934125903519
 20
54.797466298077786
 30
0.0
 42
0.4142135623730961
  0
VERTEX
  5
19F8
  8
SAPA_PROFIL
 10
46.089377214527801
 20
54.423281342601982
 30
0.0
  0
VERTEX
  5
19F9
  8
SAPA_PROFIL
 10
46.600000202249717
 20
53.10216333790089
 30
0.0
  0
VERTEX
  5
19FA
  8
SAPA_PROFIL
 10
46.600000202249767
 20
41.099999999999227
 30
0.0
 42
0.4142140000000128
  0
VERTEX
  5
19FB
  8
SAPA_PROFIL
 10
47.100000202249767
 20
40.599999999999227
 30
0.0
  0
VERTEX
  5
19FC
  8
SAPA_PROFIL
 10
67.800000202249791
 20
40.599999999999227
 30
0.0
 42
0.4142140000000043
  0
VERTEX
  5
19FD
  8
SAPA_PROFIL
 10
68.300000202249791
 20
41.099999999999213
 30
0.0
  0
VERTEX
  5
19FE
  8
SAPA_PROFIL
 10
68.300000202249763
 20
44.09999999999922
 30
0.0
 42
0.4142140000000209
  0
VERTEX
  5
19FF
  8
SAPA_PROFIL
 10
67.800000202249791
 20
44.59999999999922
 30
0.0
  0
VERTEX
  5
1A00
  8
SAPA_PROFIL
 10
61.800000202249763
 20
44.599999999999241
 30
0.0
 42
-0.4142139999999961
  0
VERTEX
  5
1A01
  8
SAPA_PROFIL
 10
61.300000202249763
 20
45.099999999999213
 30
0.0
  0
VERTEX
  5
1A02
  8
SAPA_PROFIL
 10
61.300000202249763
 20
49.59999999999922
 30
0.0
 42
-0.4142140000000129
  0
VERTEX
  5
1A03
  8
SAPA_PROFIL
 10
61.800000202249763
 20
50.099999999999227
 30
0.0
  0
VERTEX
  5
1A04
  8
SAPA_PROFIL
 10
63.100000202249767
 20
50.099999999999227
 30
0.0
  0
VERTEX
  5
1A05
  8
SAPA_PROFIL
 10
63.686384202249791
 20
49.635076999999221
 30
0.0
 42
-0.7105999999999906
  0
VERTEX
  5
1A06
  8
SAPA_PROFIL
 10
63.50000020224978
 20
49.09999999999922
 30
0.0
  0
VERTEX
  5
1A07
  8
SAPA_PROFIL
 10
63.100000202249767
 20
49.09999999999922
 30
0.0
 42
0.4142139999998962
  0
VERTEX
  5
1A08
  8
SAPA_PROFIL
 10
62.800000202249763
 20
48.799999999999237
 30
0.0
  0
VERTEX
  5
1A09
  8
SAPA_PROFIL
 10
62.800000202249763
 20
46.399999999999238
 30
0.0
 42
0.414213999999924
  0
VERTEX
  5
1A0A
  8
SAPA_PROFIL
 10
63.100000202249767
 20
46.099999999999227
 30
0.0
  0
VERTEX
  5
1A0B
  8
SAPA_PROFIL
 10
68.000000202249765
 20
46.099999999999213
 30
0.0
 42
0.4142139999998545
  0
VERTEX
  5
1A0C
  8
SAPA_PROFIL
 10
68.300000202249763
 20
46.399999999999238
 30
0.0
  0
VERTEX
  5
1A0D
  8
SAPA_PROFIL
 10
68.300000202249791
 20
48.799999999999237
 30
0.0
 42
0.4142139999998685
  0
VERTEX
  5
1A0E
  8
SAPA_PROFIL
 10
68.000000202249765
 20
49.099999999999248
 30
0.0
  0
VERTEX
  5
1A0F
  8
SAPA_PROFIL
 10
67.100000202249774
 20
49.099999999999241
 30
0.0
 42
-0.7106000000000542
  0
VERTEX
  5
1A10
  8
SAPA_PROFIL
 10
66.91361620224977
 20
49.635076999999221
 30
0.0
  0
VERTEX
  5
1A11
  8
SAPA_PROFIL
 10
67.50000020224978
 20
50.099999999999227
 30
0.0
  0
VERTEX
  5
1A12
  8
SAPA_PROFIL
 10
69.500001202249777
 20
50.099995999999237
 30
0.0
 42
-0.4142130000000436
  0
VERTEX
  5
1A13
  8
SAPA_PROFIL
 10
70.00000020224978
 20
49.599995999999237
 30
0.0
  0
VERTEX
  5
1A14
  8
SAPA_PROFIL
 10
70.00000020224978
 20
28.699999999999228
 30
0.0
 42
0.4142139999999932
  0
VERTEX
  5
1A15
  8
SAPA_PROFIL
 10
70.300000202249791
 20
28.399999999999359
 30
0.0
  0
VERTEX
  5
1A16
  8
SAPA_PROFIL
 10
82.800000202249805
 20
28.399999999999238
 30
0.0
 42
0.4142140000000127
  0
VERTEX
  5
1A17
  8
SAPA_PROFIL
 10
83.300000202249791
 20
28.899999999999238
 30
0.0
  0
VERTEX
  5
1A18
  8
SAPA_PROFIL
 10
83.300000202249777
 20
44.399999999999238
 30
0.0
 42
-0.4142140000000074
  0
VERTEX
  5
1A19
  8
SAPA_PROFIL
 10
83.600000202249774
 20
44.699999999999221
 30
0.0
  0
VERTEX
  5
1A1A
  8
SAPA_PROFIL
 10
84.700000202249768
 20
44.699999999999221
 30
0.0
 42
-0.4142140000001183
  0
VERTEX
  5
1A1B
  8
SAPA_PROFIL
 10
85.000000202249794
 20
44.399999999999238
 30
0.0
  0
VERTEX
  5
1A1C
  8
SAPA_PROFIL
 10
85.000000202249794
 20
27.199999999999221
 30
0.0
 42
-0.4142140000000043
  0
VERTEX
  5
1A1D
  8
SAPA_PROFIL
 10
84.50000020224978
 20
26.699999999999228
 30
0.0
  0
VERTEX
  5
1A1E
  8
SAPA_PROFIL
 10
35.500000202249751
 20
26.699999999999228
 30
0.0
 42
-0.4142140000000128
  0
VERTEX
  5
1A1F
  8
SAPA_PROFIL
 10
35.000000202249751
 20
27.199999999999221
 30
0.0
  0
VERTEX
  5
1A20
  8
SAPA_PROFIL
 10
35.000000202249751
 20
38.099999999999227
 30
0.0
 42
0.4142140000000127
  0
VERTEX
  5
1A21
  8
SAPA_PROFIL
 10
34.500000202249751
 20
38.599999999999241
 30
0.0
  0
VERTEX
  5
1A22
  8
SAPA_PROFIL
 10
11.500000202249741
 20
38.599999999999241
 30
0.0
 42
-0.4142140000000128
  0
VERTEX
  5
1A23
  8
SAPA_PROFIL
 10
11.000000202249741
 20
39.099999999999213
 30
0.0
  0
VERTEX
  5
1A24
  8
SAPA_PROFIL
 10
11.000000202249741
 20
45.34999999999922
 30
0.0
  0
VERTEX
  5
1A25
  8
SAPA_PROFIL
 10
11.500000202249741
 20
45.84999999999922
 30
0.0
  0
VERTEX
  5
1A26
  8
SAPA_PROFIL
 10
11.000000202249741
 20
46.34999999999922
 30
0.0
  0
VERTEX
  5
1A27
  8
SAPA_PROFIL
 10
11.000000202249749
 20
53.102171099701778
 30
0.0
  0
VERTEX
  5
1A28
  8
SAPA_PROFIL
 10
11.510620189971741
 20
54.423281342601967
 30
0.0
 42
0.4142135623730961
  0
VERTEX
  5
1A29
  8
SAPA_PROFIL
 10
11.31065614546435
 20
54.797466298077772
 30
0.0
  0
VERTEX
  5
1A2A
  8
SAPA_PROFIL
 10
11.262810395465859
 20
54.811984707324882
 30
0.0
  0
VERTEX
  5
1A2B
  8
SAPA_PROFIL
 10
11.262726787582221
 20
56.31508578808689
 30
0.0
 42
-0.4769755326981641
  0
VERTEX
  5
1A2C
  8
SAPA_PROFIL
 10
11.63438366252808
 20
56.61733861259335
 30
0.0
  0
VERTEX
  5
1A2D
  8
SAPA_PROFIL
 10
13.447614133186329
 20
56.235892016465641
 30
0.0
 42
-0.2216946626430182
  0
VERTEX
  5
1A2E
  8
SAPA_PROFIL
 10
13.988493964663119
 20
55.830083111310842
 30
0.0
  0
VERTEX
  5
1A2F
  8
SAPA_PROFIL
 10
14.1406278757719
 20
55.545400828079188
 30
0.0
 42
-0.5773502691897454
  0
VERTEX
  5
1A30
  8
SAPA_PROFIL
 10
13.9576741356617
 20
55.25124452782439
 30
0.0
  0
VERTEX
  5
1A31
  8
SAPA_PROFIL
 10
13.63591640744346
 20
55.261805894051349
 30
0.0
  0
VERTEX
  5
1A32
  8
SAPA_PROFIL
 10
12.55135196047172
 20
53.375962202190301
 30
0.0
  0
VERTEX
  5
1A33
  8
SAPA_PROFIL
 10
12.49327832348264
 20
53.184579202196574
 30
0.0
 42
0.7625858545243253
  0
VERTEX
  5
1A34
  8
SAPA_PROFIL
 10
12.82360440449963
 20
52.999999999999091
 30
0.0
 42
-0.2134217652834383
  0
VERTEX
  5
1A35
  8
SAPA_PROFIL
 10
13.04721120224975
 20
53.099999999999227
 30
0.0
  0
VERTEX
  5
1A36
  8
SAPA_PROFIL
 10
16.89999820224979
 20
53.099999999999227
 30
0.0
 42
0.4142139999999796
  0
VERTEX
  5
1A37
  8
SAPA_PROFIL
 10
17.199998202249859
 20
53.399999999999238
 30
0.0
  0
VERTEX
  5
1A38
  8
SAPA_PROFIL
 10
17.199998202249802
 20
53.699999999999221
 30
0.0
  0
VERTEX
  5
1A39
  8
SAPA_PROFIL
 10
16.27623720224976
 20
55.299999999999237
 30
0.0
 42
-0.577349999999943
  0
VERTEX
  5
1A3A
  8
SAPA_PROFIL
 10
16.449442202249781
 20
55.599999999999227
 30
0.0
  0
VERTEX
  5
1A3B
  8
SAPA_PROFIL
 10
17.83508320224972
 20
55.599999999999227
 30
0.0
 42
-0.2679490000000079
  0
VERTEX
  5
1A3C
  8
SAPA_PROFIL
 10
18.70110820224977
 20
55.099999999999227
 30
0.0
  0
VERTEX
  5
1A3D
  8
SAPA_PROFIL
 10
19.711471202249719
 20
53.34999999999922
 30
0.0
 42
0.2679490000000099
  0
VERTEX
  5
1A3E
  8
SAPA_PROFIL
 10
20.144484202249771
 20
53.099999999999213
 30
0.0
  0
VERTEX
  5
1A3F
  8
SAPA_PROFIL
 10
37.455513202249747
 20
53.099999999999227
 30
0.0
 42
0.2679489999999995
  0
VERTEX
  5
1A40
  8
SAPA_PROFIL
 10
37.888526202249771
 20
53.349999999999213
 30
0.0
  0
VERTEX
  5
1A41
  8
SAPA_PROFIL
 10
38.898889202249748
 20
55.099999999999227
 30
0.0
 42
-0.2679489999999919
  0
VERTEX
  5
1A42
  8
SAPA_PROFIL
 10
39.764915202249782
 20
55.599999999999227
 30
0.0
  0
VERTEX
  5
1A43
  8
SAPA_PROFIL
 10
41.150555202249748
 20
55.599999999999227
 30
0.0
 42
-0.5773500000002294
  0
VERTEX
  5
1A44
  8
SAPA_PROFIL
 10
41.323760202249801
 20
55.299999999999237
 30
0.0
  0
VERTEX
  5
1A45
  8
SAPA_PROFIL
 10
40.40000020224975
 20
53.699999999999221
 30
0.0
  0
VERTEX
  5
1A46
  8
SAPA_PROFIL
 10
40.40000020224975
 20
53.399999999999238
 30
0.0
 42
0.4142139999999103
  0
VERTEX
  5
1A47
  8
SAPA_PROFIL
 10
40.700000202249797
 20
53.099999999999227
 30
0.0
  0
VERTEX
  5
1A48
  8
SAPA_PROFIL
 10
44.552786202249798
 20
53.099999999999227
 30
0.0
 42
-0.2134217652834381
  0
VERTEX
  5
1A49
  8
SAPA_PROFIL
 10
44.776392999999878
 20
52.999999999999112
 30
0.0
 42
0.7625858545243234
  0
VERTEX
  5
1A4A
  8
SAPA_PROFIL
 10
45.106719081016912
 20
53.184579202196588
 30
0.0
  0
VERTEX
  5
1A4B
  8
SAPA_PROFIL
 10
45.048645444027819
 20
53.375962202190308
 30
0.0
  0
VERTEX
  5
1A4C
  8
SAPA_PROFIL
 10
43.964080997056087
 20
55.261805894051363
 30
0.0
  0
VERTEX
  5
1A4D
  8
SAPA_PROFIL
 10
43.642323268837814
 20
55.25124452782439
 30
0.0
 42
-0.5773502691897454
  0
VERTEX
  5
1A4E
  8
SAPA_PROFIL
 10
43.459369528727663
 20
55.545400828079217
 30
0.0
  0
VERTEX
  5
1A4F
  8
SAPA_PROFIL
 10
43.611503439836419
 20
55.83008311131087
 30
0.0
 42
-0.2216946626430182
  0
VERTEX
  5
1A50
  8
SAPA_PROFIL
 10
44.152383271313212
 20
56.235892016465662
 30
0.0
  0
SEQEND
  5
1A51
  8
SAPA_PROFIL
  0
POLYLINE
  5
11D5
  8
SAPA_PROFIL
 66
     1
 10
0.0
 20
0.0
 30
0.0
 70
     1
  0
VERTEX
  5
1A52
  8
SAPA_PROFIL
 10
40.500000202249751
 20
50.799999999999237
 30
0.0
 42
0.4142139999999795
  0
VERTEX
  5
1A53
  8
SAPA_PROFIL
 10
40.800000202249763
 20
50.499999999999233
 30
0.0
  0
VERTEX
  5
1A54
  8
SAPA_PROFIL
 10
42.20000020224979
 20
50.499999999999233
 30
0.0
 42
0.4142139999999655
  0
VERTEX
  5
1A55
  8
SAPA_PROFIL
 10
42.500000202249687
 20
50.799999999999237
 30
0.0
 42
-0.4142139999999517
  0
VERTEX
  5
1A56
  8
SAPA_PROFIL
 10
42.800000202249763
 20
51.099999999999227
 30
0.0
  0
VERTEX
  5
1A57
  8
SAPA_PROFIL
 10
44.300000202249763
 20
51.099999999999113
 30
0.0
 42
-0.4142140000000072
  0
VERTEX
  5
1A58
  8
SAPA_PROFIL
 10
44.600000202249767
 20
50.799999999999237
 30
0.0
  0
VERTEX
  5
1A59
  8
SAPA_PROFIL
 10
44.60000020224988
 20
40.899999999999238
 30
0.0
 42
-0.4142140000000351
  0
VERTEX
  5
1A5A
  8
SAPA_PROFIL
 10
44.300000202249763
 20
40.599999999999227
 30
0.0
  0
VERTEX
  5
1A5B
  8
SAPA_PROFIL
 10
42.800000202249763
 20
40.599999999999277
 30
0.0
 42
-0.4142139999999795
  0
VERTEX
  5
1A5C
  8
SAPA_PROFIL
 10
42.500000202249751
 20
40.899999999999238
 30
0.0
 42
0.4142140000000629
  0
VERTEX
  5
1A5D
  8
SAPA_PROFIL
 10
42.20000020224979
 20
41.199999999999207
 30
0.0
  0
VERTEX
  5
1A5E
  8
SAPA_PROFIL
 10
40.800000202249763
 20
41.199999999999207
 30
0.0
 42
0.4142139999999517
  0
VERTEX
  5
1A5F
  8
SAPA_PROFIL
 10
40.500000202249751
 20
40.899999999999238
 30
0.0
 42
-0.4142139999998685
  0
VERTEX
  5
1A60
  8
SAPA_PROFIL
 10
40.20000020224979
 20
40.599999999999227
 30
0.0
  0
VERTEX
  5
1A61
  8
SAPA_PROFIL
 10
17.400000202249782
 20
40.599999999999334
 30
0.0
 42
-0.4142140000000211
  0
VERTEX
  5
1A62
  8
SAPA_PROFIL
 10
17.10000020224977
 20
40.899999999999217
 30
0.0
 42
0.4142140000000072
  0
VERTEX
  5
1A63
  8
SAPA_PROFIL
 10
16.800000202249759
 20
41.199999999999207
 30
0.0
  0
VERTEX
  5
1A64
  8
SAPA_PROFIL
 10
15.40000020224978
 20
41.199999999999207
 30
0.0
 42
0.4142140000000071
  0
VERTEX
  5
1A65
  8
SAPA_PROFIL
 10
15.100000202249889
 20
40.899999999999238
 30
0.0
 42
-0.4142140000000351
  0
VERTEX
  5
1A66
  8
SAPA_PROFIL
 10
14.800000202249761
 20
40.599999999999227
 30
0.0
  0
VERTEX
  5
1A67
  8
SAPA_PROFIL
 10
13.300000202249761
 20
40.599999999999262
 30
0.0
 42
-0.4142139999999518
  0
VERTEX
  5
1A68
  8
SAPA_PROFIL
 10
13.00000020224973
 20
40.899999999999238
 30
0.0
  0
VERTEX
  5
1A69
  8
SAPA_PROFIL
 10
13.00000020224971
 20
50.799999999999237
 30
0.0
 42
-0.4142139999999517
  0
VERTEX
  5
1A6A
  8
SAPA_PROFIL
 10
13.300000202249761
 20
51.099999999999227
 30
0.0
  0
VERTEX
  5
1A6B
  8
SAPA_PROFIL
 10
14.800000202249761
 20
51.099999999999113
 30
0.0
 42
-0.4142140000000072
  0
VERTEX
  5
1A6C
  8
SAPA_PROFIL
 10
15.10000020224977
 20
50.799999999999237
 30
0.0
 42
0.4142140000000351
  0
VERTEX
  5
1A6D
  8
SAPA_PROFIL
 10
15.40000020224978
 20
50.499999999999233
 30
0.0
  0
VERTEX
  5
1A6E
  8
SAPA_PROFIL
 10
16.800000202249759
 20
50.499999999999233
 30
0.0
 42
0.4142140000000351
  0
VERTEX
  5
1A6F
  8
SAPA_PROFIL
 10
17.10000020224966
 20
50.799999999999237
 30
0.0
 42
-0.4142140000000071
  0
VERTEX
  5
1A70
  8
SAPA_PROFIL
 10
17.400000202249782
 20
51.099999999999227
 30
0.0
  0
VERTEX
  5
1A71
  8
SAPA_PROFIL
 10
40.20000020224979
 20
51.099999999999298
 30
0.0
 42
-0.414213999999924
  0
SEQEND
  5
1A72
  8
SAPA_PROFIL
  0
POLYLINE
  5
11D6
  8
SAPA_PROFIL
 66
     1
 10
0.0
 20
0.0
 30
0.0
 70
     1
  0
VERTEX
  5
1A73
  8
SAPA_PROFIL
 10
40.800000202249642
 20
38.599999999999227
 30
0.0
 42
-0.4142140000000074
  0
VERTEX
  5
1A74
  8
SAPA_PROFIL
 10
40.500000202249751
 20
38.299999999999251
 30
0.0
  0
VERTEX
  5
1A75
  8
SAPA_PROFIL
 10
39.100000202249767
 20
38.29999999999913
 30
0.0
 42
-0.4142140000000074
  0
VERTEX
  5
1A76
  8
SAPA_PROFIL
 10
38.800000202249763
 20
38.599999999999213
 30
0.0
 42
0.4142140000000072
  0
VERTEX
  5
1A77
  8
SAPA_PROFIL
 10
38.500000202249751
 20
38.899999999999238
 30
0.0
  0
VERTEX
  5
1A78
  8
SAPA_PROFIL
 10
37.000000202249751
 20
38.899999999999238
 30
0.0
 42
0.4142139999999656
  0
VERTEX
  5
1A79
  8
SAPA_PROFIL
 10
36.700000202249797
 20
38.599999999999227
 30
0.0
  0
VERTEX
  5
1A7A
  8
SAPA_PROFIL
 10
36.700000202249797
 20
28.699999999999228
 30
0.0
 42
0.4142140000000627
  0
VERTEX
  5
1A7B
  8
SAPA_PROFIL
 10
37.000000202249751
 20
28.399999999999238
 30
0.0
  0
VERTEX
  5
1A7C
  8
SAPA_PROFIL
 10
38.500000202249751
 20
28.399999999999238
 30
0.0
 42
0.4142140000000072
  0
VERTEX
  5
1A7D
  8
SAPA_PROFIL
 10
38.800000202249763
 20
28.699999999999228
 30
0.0
 42
-0.414213999999924
  0
VERTEX
  5
1A7E
  8
SAPA_PROFIL
 10
39.100000202249767
 20
28.99999999999924
 30
0.0
  0
VERTEX
  5
1A7F
  8
SAPA_PROFIL
 10
40.500000202249751
 20
28.99999999999924
 30
0.0
 42
-0.4142139999999241
  0
VERTEX
  5
1A80
  8
SAPA_PROFIL
 10
40.800000202249763
 20
28.699999999999228
 30
0.0
 42
0.4142139999999517
  0
VERTEX
  5
1A81
  8
SAPA_PROFIL
 10
41.100000202249767
 20
28.399999999999238
 30
0.0
  0
VERTEX
  5
1A82
  8
SAPA_PROFIL
 10
63.900000202249757
 20
28.399999999999238
 30
0.0
 42
0.4142139999999796
  0
VERTEX
  5
1A83
  8
SAPA_PROFIL
 10
64.200000202249853
 20
28.699999999999228
 30
0.0
 42
-0.4142140000000348
  0
VERTEX
  5
1A84
  8
SAPA_PROFIL
 10
64.50000020224978
 20
28.99999999999924
 30
0.0
  0
VERTEX
  5
1A85
  8
SAPA_PROFIL
 10
65.900000202249757
 20
28.999999999999119
 30
0.0
 42
-0.4142140000000209
  0
VERTEX
  5
1A86
  8
SAPA_PROFIL
 10
66.200000202249768
 20
28.699999999999228
 30
0.0
 42
0.4142140000001181
  0
VERTEX
  5
1A87
  8
SAPA_PROFIL
 10
66.50000020224978
 20
28.399999999999238
 30
0.0
  0
VERTEX
  5
1A88
  8
SAPA_PROFIL
 10
68.000000202249765
 20
28.399999999999238
 30
0.0
 42
0.4142139999999518
  0
VERTEX
  5
1A89
  8
SAPA_PROFIL
 10
68.300000202249791
 20
28.699999999999228
 30
0.0
  0
VERTEX
  5
1A8A
  8
SAPA_PROFIL
 10
68.300000202249791
 20
38.599999999999213
 30
0.0
 42
0.4142139999999934
  0
VERTEX
  5
1A8B
  8
SAPA_PROFIL
 10
68.000000202249765
 20
38.899999999999238
 30
0.0
  0
VERTEX
  5
1A8C
  8
SAPA_PROFIL
 10
66.50000020224978
 20
38.899999999999238
 30
0.0
 42
0.4142140000000211
  0
VERTEX
  5
1A8D
  8
SAPA_PROFIL
 10
66.200000202249768
 20
38.599999999999227
 30
0.0
 42
-0.4142140000000766
  0
VERTEX
  5
1A8E
  8
SAPA_PROFIL
 10
65.900000202249757
 20
38.299999999999251
 30
0.0
  0
VERTEX
  5
1A8F
  8
SAPA_PROFIL
 10
64.50000020224978
 20
38.299999999999123
 30
0.0
 42
-0.4142140000000074
  0
VERTEX
  5
1A90
  8
SAPA_PROFIL
 10
64.200000202249768
 20
38.599999999999213
 30
0.0
 42
0.4142140000001044
  0
VERTEX
  5
1A91
  8
SAPA_PROFIL
 10
63.900000202249757
 20
38.899999999999238
 30
0.0
  0
VERTEX
  5
1A92
  8
SAPA_PROFIL
 10
41.100000202249767
 20
38.899999999999238
 30
0.0
 42
0.4142140000000213
  0
SEQEND
  5
1A93
  8
SAPA_PROFIL
  0
POLYLINE
  5
11D7
  8
SAPA_PROFIL
 66
     1
 10
0.0
 20
0.0
 30
0.0
 70
     1
  0
VERTEX
  5
1A94
  8
SAPA_PROFIL
 10
-22.029836446936429
 20
78.747573217873509
 30
0.0
 42
0.5773502691895968
  0
VERTEX
  5
1A95
  8
SAPA_PROFIL
 10
-22.02983644693597
 20
77.119445458758804
 30
0.0
  0
VERTEX
  5
1A96
  8
SAPA_PROFIL
 10
-21.17596189432334
 20
76.626460740703763
 30
0.0
  0
VERTEX
  5
1A97
  8
SAPA_PROFIL
 10
-22.300000000000072
 20
74.679569632028205
 30
0.0
  0
VERTEX
  5
1A98
  8
SAPA_PROFIL
 10
-23.5
 20
74.679569632028205
 30
0.0
 42
0.4142135623729286
  0
VERTEX
  5
1A99
  8
SAPA_PROFIL
 10
-23.800000000000072
 20
74.379569632028364
 30
0.0
  0
VERTEX
  5
1A9A
  8
SAPA_PROFIL
 10
-23.800000000000072
 20
73.979569632028273
 30
0.0
 42
0.4142135623732059
  0
VERTEX
  5
1A9B
  8
SAPA_PROFIL
 10
-23.5
 20
73.679569632028205
 30
0.0
  0
VERTEX
  5
1A9C
  8
SAPA_PROFIL
 10
-22.197677221672169
 20
73.679569632028546
 30
0.0
 42
-0.4142135623731506
  0
VERTEX
  5
1A9D
  8
SAPA_PROFIL
 10
-21.89767722167198
 20
73.379569632028478
 30
0.0
  0
VERTEX
  5
1A9E
  8
SAPA_PROFIL
 10
-21.89767722167198
 20
72.799530150991217
 30
0.0
 42
0.4142135623730951
  0
VERTEX
  5
1A9F
  8
SAPA_PROFIL
 10
-21.597677221672029
 20
72.499530150991149
 30
0.0
  0
VERTEX
  5
1AA0
  8
SAPA_PROFIL
 10
-19.189932926424831
 20
72.499530150991149
 30
0.0
  0
VERTEX
  5
1AA1
  8
SAPA_PROFIL
 10
-18.611293205911242
 20
72.958313389153631
 30
0.0
 42
0.7105995015649727
  0
VERTEX
  5
1AA2
  8
SAPA_PROFIL
 10
-18.797677221672071
 20
73.493389969588378
 30
0.0
  0
VERTEX
  5
1AA3
  8
SAPA_PROFIL
 10
-19.497677221671889
 20
73.493389969588378
 30
0.0
  0
VERTEX
  5
1AA4
  8
SAPA_PROFIL
 10
-19.49767722167201
 20
76.199530150990853
 30
0.0
 42
-0.4142135623731506
  0
VERTEX
  5
1AA5
  8
SAPA_PROFIL
 10
-19.197677221671938
 20
76.499530150990921
 30
0.0
  0
VERTEX
  5
1AA6
  8
SAPA_PROFIL
 10
-14.7976772216723
 20
76.499530150991021
 30
0.0
 42
-0.4142135623730951
  0
VERTEX
  5
1AA7
  8
SAPA_PROFIL
 10
-14.49767722167212
 20
76.199530150990952
 30
0.0
  0
VERTEX
  5
1AA8
  8
SAPA_PROFIL
 10
-14.49767722167212
 20
73.493389969588364
 30
0.0
  0
VERTEX
  5
1AA9
  8
SAPA_PROFIL
 10
-15.19767722167194
 20
73.493389969588478
 30
0.0
 42
0.7105995015650586
  0
VERTEX
  5
1AAA
  8
SAPA_PROFIL
 10
-15.38406123743289
 20
72.958313389153844
 30
0.0
  0
VERTEX
  5
1AAB
  8
SAPA_PROFIL
 10
-14.80542151691907
 20
72.499530150990921
 30
0.0
  0
VERTEX
  5
1AAC
  8
SAPA_PROFIL
 10
-6.3500000000000218
 20
72.499530150991021
 30
0.0
  0
VERTEX
  5
1AAD
  8
SAPA_PROFIL
 10
-6.3500000000000218
 20
71.499530150991021
 30
0.0
  0
VERTEX
  5
1AAE
  8
SAPA_PROFIL
 10
-5.3500000000000218
 20
71.499530150991021
 30
0.0
  0
VERTEX
  5
1AAF
  8
SAPA_PROFIL
 10
-5.3500000000000218
 20
72.499530150991021
 30
0.0
  0
VERTEX
  5
1AB0
  8
SAPA_PROFIL
 10
-2.4000000000000901
 20
72.499530150991021
 30
0.0
  0
VERTEX
  5
1AB1
  8
SAPA_PROFIL
 10
-2.4000000000000901
 20
73.499530150991021
 30
0.0
  0
VERTEX
  5
1AB2
  8
SAPA_PROFIL
 10
-0.5000000000002274
 20
73.499530150990907
 30
0.0
  0
VERTEX
  5
1AB3
  8
SAPA_PROFIL
 10
0.0
 20
73.999530150990793
 30
0.0
  0
VERTEX
  5
1AB4
  8
SAPA_PROFIL
 10
0.5000000000003411
 20
73.499530150990907
 30
0.0
  0
VERTEX
  5
1AB5
  8
SAPA_PROFIL
 10
2.400000000000087
 20
73.499530150990907
 30
0.0
  0
VERTEX
  5
1AB6
  8
SAPA_PROFIL
 10
2.400000000000087
 20
72.499530150991021
 30
0.0
  0
VERTEX
  5
1AB7
  8
SAPA_PROFIL
 10
5.350000000000132
 20
72.499530150991021
 30
0.0
  0
VERTEX
  5
1AB8
  8
SAPA_PROFIL
 10
5.350000000000132
 20
71.499530150991021
 30
0.0
  0
VERTEX
  5
1AB9
  8
SAPA_PROFIL
 10
6.350000000000132
 20
71.499530150991021
 30
0.0
  0
VERTEX
  5
1ABA
  8
SAPA_PROFIL
 10
6.350000000000132
 20
72.499530150991021
 30
0.0
  0
VERTEX
  5
1ABB
  8
SAPA_PROFIL
 10
14.80542151691929
 20
72.499530150990907
 30
0.0
  0
VERTEX
  5
1ABC
  8
SAPA_PROFIL
 10
15.384061237433
 20
72.958313389153844
 30
0.0
 42
0.7105995015650586
  0
VERTEX
  5
1ABD
  8
SAPA_PROFIL
 10
15.19767722167216
 20
73.493389969588478
 30
0.0
  0
VERTEX
  5
1ABE
  8
SAPA_PROFIL
 10
14.49767722167234
 20
73.493389969588364
 30
0.0
  0
VERTEX
  5
1ABF
  8
SAPA_PROFIL
 10
14.497677221672349
 20
76.199530150990952
 30
0.0
 42
-0.4142135623730951
  0
VERTEX
  5
1AC0
  8
SAPA_PROFIL
 10
14.79767722167241
 20
76.499530150991021
 30
0.0
  0
VERTEX
  5
1AC1
  8
SAPA_PROFIL
 10
19.197677221672159
 20
76.499530150990907
 30
0.0
 42
-0.4142135623731506
  0
VERTEX
  5
1AC2
  8
SAPA_PROFIL
 10
19.49767722167212
 20
76.199530150990839
 30
0.0
  0
VERTEX
  5
1AC3
  8
SAPA_PROFIL
 10
19.49767722167201
 20
73.493389969588364
 30
0.0
  0
VERTEX
  5
1AC4
  8
SAPA_PROFIL
 10
18.797677221672188
 20
73.493389969588478
 30
0.0
 42
0.7105995015649949
  0
VERTEX
  5
1AC5
  8
SAPA_PROFIL
 10
18.611293205911348
 20
72.958313389153616
 30
0.0
  0
VERTEX
  5
1AC6
  8
SAPA_PROFIL
 10
19.189932926424941
 20
72.499530150991134
 30
0.0
  0
VERTEX
  5
1AC7
  8
SAPA_PROFIL
 10
21.597677221672139
 20
72.499530150991134
 30
0.0
 42
0.4142135623730951
  0
VERTEX
  5
1AC8
  8
SAPA_PROFIL
 10
21.897677221672211
 20
72.799530150991203
 30
0.0
  0
VERTEX
  5
1AC9
  8
SAPA_PROFIL
 10
21.897677221672211
 20
73.379569632028463
 30
0.0
 42
-0.4142135623731506
  0
VERTEX
  5
1ACA
  8
SAPA_PROFIL
 10
22.197677221672279
 20
73.679569632028532
 30
0.0
  0
VERTEX
  5
1ACB
  8
SAPA_PROFIL
 10
23.500000000000231
 20
73.679569632028191
 30
0.0
 42
0.414213562373206
  0
VERTEX
  5
1ACC
  8
SAPA_PROFIL
 10
23.800000000000178
 20
73.979569632028259
 30
0.0
  0
VERTEX
  5
1ACD
  8
SAPA_PROFIL
 10
23.800000000000178
 20
74.37956963202835
 30
0.0
 42
0.4142135623729286
  0
VERTEX
  5
1ACE
  8
SAPA_PROFIL
 10
23.500000000000231
 20
74.679569632028191
 30
0.0
  0
VERTEX
  5
1ACF
  8
SAPA_PROFIL
 10
22.300000000000178
 20
74.679569632028191
 30
0.0
  0
VERTEX
  5
1AD0
  8
SAPA_PROFIL
 10
21.17596189432356
 20
76.626460740703763
 30
0.0
  0
VERTEX
  5
1AD1
  8
SAPA_PROFIL
 10
22.029836446936091
 20
77.11944545875879
 30
0.0
 42
0.5773502691896019
  0
VERTEX
  5
1AD2
  8
SAPA_PROFIL
 10
22.029836446936539
 20
78.747573217873494
 30
0.0
  0
VERTEX
  5
1AD3
  8
SAPA_PROFIL
 10
20.959459605575152
 20
79.365555560118025
 30
0.0
 42
0.1316524948697527
  0
VERTEX
  5
1AD4
  8
SAPA_PROFIL
 10
20.459459614829029
 20
79.499530150990907
 30
0.0
  0
VERTEX
  5
1AD5
  8
SAPA_PROFIL
 10
-20.459459614828798
 20
79.499530150990921
 30
0.0
 42
0.1316524948697533
  0
VERTEX
  5
1AD6
  8
SAPA_PROFIL
 10
-20.959459605575042
 20
79.365555560118054
 30
0.0
  0
SEQEND
  5
1AD7
  8
SAPA_PROFIL
  0
POLYLINE
  5
11D8
  8
SAPA_PROFIL
 62
     4
 66
     1
 10
0.0
 20
0.0
 30
0.0
 70
     1
  0
VERTEX
  5
1AD8
  8
SAPA_PROFIL
 62
     4
 10
-1.149999999999977
 20
48.849530150991079
 30
0.0
  0
VERTEX
  5
1AD9
  8
SAPA_PROFIL
 62
     4
 10
-1.149999999999977
 20
46.649530150991033
 30
0.0
 42
1.0
  0
VERTEX
  5
1ADA
  8
SAPA_PROFIL
 62
     4
 10
1.149999999999977
 20
46.649530150991033
 30
0.0
  0
VERTEX
  5
1ADB
  8
SAPA_PROFIL
 62
     4
 10
1.1500000000000901
 20
48.849530150991079
 30
0.0
 42
1.0
  0
SEQEND
  5
1ADC
  8
SAPA_PROFIL
 62
     4
  0
POLYLINE
  5
11D9
  8
SAPA_PROFIL
 62
     4
 66
     1
 10
0.0
 20
0.0
 30
0.0
 70
     1
  0
VERTEX
  5
1ADD
  8
SAPA_PROFIL
 62
     4
 10
-4.0
 20
63.999530150991063
 30
0.0
  0
VERTEX
  5
1ADE
  8
SAPA_PROFIL
 62
     4
 10
-4.0
 20
67.050362300027302
 30
0.0
  0
VERTEX
  5
1ADF
  8
SAPA_PROFIL
 62
     4
 10
-4.0
 20
70.378209807431404
 30
0.0
 42
-0.6681786379192966
  0
VERTEX
  5
1AE0
  8
SAPA_PROFIL
 62
     4
 10
-3.1464466094067798
 20
70.731763198024623
 30
0.0
  0
VERTEX
  5
1AE1
  8
SAPA_PROFIL
 62
     4
 10
-1.0000000116218071
 20
68.585316590261513
 30
0.0
 42
0.1989123679837333
  0
VERTEX
  5
1AE2
  8
SAPA_PROFIL
 62
     4
 10
-0.2928932287916979
 20
68.29242336980451
 30
0.0
  0
VERTEX
  5
1AE3
  8
SAPA_PROFIL
 62
     4
 10
0.2928932088352383
 20
68.29242336980451
 30
0.0
 42
0.1989123667755704
  0
VERTEX
  5
1AE4
  8
SAPA_PROFIL
 62
     4
 10
0.9999999883782066
 20
68.585316586974386
 30
0.0
  0
VERTEX
  5
1AE5
  8
SAPA_PROFIL
 62
     4
 10
3.1464466094067798
 20
70.731763198024623
 30
0.0
 42
-0.6681786379192936
  0
VERTEX
  5
1AE6
  8
SAPA_PROFIL
 62
     4
 10
3.9999999999999849
 20
70.378209807431404
 30
0.0
  0
VERTEX
  5
1AE7
  8
SAPA_PROFIL
 62
     4
 10
3.9999999999999849
 20
67.050362300027302
 30
0.0
  0
VERTEX
  5
1AE8
  8
SAPA_PROFIL
 62
     4
 10
4.0
 20
63.999530150991063
 30
0.0
 42
-0.4142135623730951
  0
VERTEX
  5
1AE9
  8
SAPA_PROFIL
 62
     4
 10
3.5
 20
63.49953015099107
 30
0.0
  0
VERTEX
  5
1AEA
  8
SAPA_PROFIL
 62
     4
 10
-3.5
 20
63.49953015099107
 30
0.0
 42
-0.4142135623730951
  0
SEQEND
  5
1AEB
  8
SAPA_PROFIL
 62
     4
  0
POLYLINE
  5
11DA
  8
SAPA_PROFIL
 62
     4
 66
     1
 10
0.0
 20
0.0
 30
0.0
 70
     1
  0
VERTEX
  5
1AEC
  8
SAPA_PROFIL
 62
     4
 10
2.585786437626779
 20
53.459530150991071
 30
0.0
  0
VERTEX
  5
1AED
  8
SAPA_PROFIL
 62
     4
 10
1.1465310628469749
 20
52.060274776211031
 30
0.0
 42
-0.9251773977986363
  0
VERTEX
  5
1AEE
  8
SAPA_PROFIL
 62
     4
 10
-1.146531062846861
 20
52.060274776211031
 30
0.0
  0
VERTEX
  5
1AEF
  8
SAPA_PROFIL
 62
     4
 10
-2.585786437626779
 20
53.459530150991071
 30
0.0
  0
VERTEX
  5
1AF0
  8
SAPA_PROFIL
 62
     4
 10
-3.5
 20
53.459530150991071
 30
0.0
 42
-0.4142135623730769
  0
VERTEX
  5
1AF1
  8
SAPA_PROFIL
 62
     4
 10
-4.0
 20
53.959530150991071
 30
0.0
  0
VERTEX
  5
1AF2
  8
SAPA_PROFIL
 62
     4
 10
-4.0
 20
61.999530150991063
 30
0.0
 42
-0.4142135623730951
  0
VERTEX
  5
1AF3
  8
SAPA_PROFIL
 62
     4
 10
-3.5
 20
62.499530150991063
 30
0.0
  0
VERTEX
  5
1AF4
  8
SAPA_PROFIL
 62
     4
 10
3.5
 20
62.499530150991063
 30
0.0
 42
-0.4142135623730951
  0
VERTEX
  5
1AF5
  8
SAPA_PROFIL
 62
     4
 10
4.0
 20
61.999530150991063
 30
0.0
  0
VERTEX
  5
1AF6
  8
SAPA_PROFIL
 62
     4
 10
4.0
 20
53.959530150991071
 30
0.0
 42
-0.4142135623730951
  0
VERTEX
  5
1AF7
  8
SAPA_PROFIL
 62
     4
 10
3.5
 20
53.459530150991071
 30
0.0
  0
SEQEND
  5
1AF8
  8
SAPA_PROFIL
 62
     4
  0
POLYLINE
  5
11DB
  8
SAPA_PROFIL
 62
     4
 66
     1
 10
0.0
 20
0.0
 30
0.0
 70
     1
  0
VERTEX
  5
1AF9
  8
SAPA_PROFIL
 62
     4
 10
-4.9999999999998863
 20
54.109530150991048
 30
0.0
 42
-1.0
  0
VERTEX
  5
1AFA
  8
SAPA_PROFIL
 62
     4
 10
-6.2999999999999536
 20
54.109530150991048
 30
0.0
  0
VERTEX
  5
1AFB
  8
SAPA_PROFIL
 62
     4
 10
-6.2999999999999536
 20
54.959530150991071
 30
0.0
  0
VERTEX
  5
1AFC
  8
SAPA_PROFIL
 62
     4
 10
-6.2499999999998863
 20
54.959530150991071
 30
0.0
 42
1.0
  0
VERTEX
  5
1AFD
  8
SAPA_PROFIL
 62
     4
 10
-6.2499999999998863
 20
55.459530150991071
 30
0.0
  0
VERTEX
  5
1AFE
  8
SAPA_PROFIL
 62
     4
 10
-6.6999999999999309
 20
55.459530150991071
 30
0.0
 42
0.4142135623730951
  0
VERTEX
  5
1AFF
  8
SAPA_PROFIL
 62
     4
 10
-6.9999999999998863
 20
55.159530150991003
 30
0.0
  0
VERTEX
  5
1B00
  8
SAPA_PROFIL
 62
     4
 10
-6.9999999999998863
 20
53.459530150991071
 30
0.0
 42
0.4225789089359373
  0
VERTEX
  5
1B01
  8
SAPA_PROFIL
 62
     4
 10
-5.9999999999998863
 20
52.499530150990942
 30
0.0
  0
VERTEX
  5
1B02
  8
SAPA_PROFIL
 62
     4
 10
-2.9999999999998859
 20
52.499530150990942
 30
0.0
  0
VERTEX
  5
1B03
  8
SAPA_PROFIL
 62
     4
 10
-2.1499999999999768
 20
51.649530150991041
 30
0.0
  0
VERTEX
  5
1B04
  8
SAPA_PROFIL
 62
     4
 10
-2.1499999999999768
 20
45.499530150991063
 30
0.0
 42
0.4142135623730951
  0
VERTEX
  5
1B05
  8
SAPA_PROFIL
 62
     4
 10
-1.149999999999977
 20
44.499530150991063
 30
0.0
  0
VERTEX
  5
1B06
  8
SAPA_PROFIL
 62
     4
 10
1.149999999999977
 20
44.499530150991063
 30
0.0
 42
0.4142135623730951
  0
VERTEX
  5
1B07
  8
SAPA_PROFIL
 62
     4
 10
2.1499999999999768
 20
45.499530150991063
 30
0.0
  0
VERTEX
  5
1B08
  8
SAPA_PROFIL
 62
     4
 10
2.1499999999999768
 20
51.649530150990927
 30
0.0
  0
VERTEX
  5
1B09
  8
SAPA_PROFIL
 62
     4
 10
3.0
 20
52.499530150990942
 30
0.0
  0
VERTEX
  5
1B0A
  8
SAPA_PROFIL
 62
     4
 10
6.0
 20
52.499530150990942
 30
0.0
 42
0.4225789089359373
  0
VERTEX
  5
1B0B
  8
SAPA_PROFIL
 62
     4
 10
7.0000000000000142
 20
53.459530150991071
 30
0.0
  0
VERTEX
  5
1B0C
  8
SAPA_PROFIL
 62
     4
 10
7.0000000000000142
 20
55.159530150991003
 30
0.0
 42
0.4142135623730951
  0
VERTEX
  5
1B0D
  8
SAPA_PROFIL
 62
     4
 10
6.6999999999999309
 20
55.459530150991071
 30
0.0
  0
VERTEX
  5
1B0E
  8
SAPA_PROFIL
 62
     4
 10
6.25
 20
55.459530150991071
 30
0.0
 42
1.0
  0
VERTEX
  5
1B0F
  8
SAPA_PROFIL
 62
     4
 10
6.25
 20
54.959530150991071
 30
0.0
  0
VERTEX
  5
1B10
  8
SAPA_PROFIL
 62
     4
 10
6.3000000000000682
 20
54.959530150991071
 30
0.0
  0
VERTEX
  5
1B11
  8
SAPA_PROFIL
 62
     4
 10
6.3000000000000682
 20
54.109530150991048
 30
0.0
 42
-1.0
  0
VERTEX
  5
1B12
  8
SAPA_PROFIL
 62
     4
 10
5.0
 20
54.109530150991048
 30
0.0
  0
VERTEX
  5
1B13
  8
SAPA_PROFIL
 62
     4
 10
4.9999999999999849
 20
67.050362300027302
 30
0.0
  0
VERTEX
  5
1B14
  8
SAPA_PROFIL
 62
     4
 10
4.9999999999999849
 20
72.499530150991063
 30
0.0
  0
VERTEX
  5
1B15
  8
SAPA_PROFIL
 62
     4
 10
3.5
 20
72.499530150991063
 30
0.0
  0
VERTEX
  5
1B16
  8
SAPA_PROFIL
 62
     4
 10
0.3535533905932198
 20
69.353083541584283
 30
0.0
 42
-0.4142135623730951
  0
VERTEX
  5
1B17
  8
SAPA_PROFIL
 62
     4
 10
-0.3535533905932198
 20
69.353083541584283
 30
0.0
  0
VERTEX
  5
1B18
  8
SAPA_PROFIL
 62
     4
 10
-3.5
 20
72.499530150991063
 30
0.0
  0
VERTEX
  5
1B19
  8
SAPA_PROFIL
 62
     4
 10
-5.0000000000000284
 20
72.499530150991063
 30
0.0
  0
VERTEX
  5
1B1A
  8
SAPA_PROFIL
 62
     4
 10
-4.9999999999999849
 20
67.050362300027302
 30
0.0
  0
VERTEX
  5
1B1B
  8
SAPA_PROFIL
 62
     4
 10
-4.9999999999998863
 20
54.409530150991031
 30
0.0
  0
SEQEND
  5
1B1C
  8
SAPA_PROFIL
 62
     4
  0
POLYLINE
  5
11DC
  8
SAPA_PROFIL
 66
     1
 10
0.0
 20
0.0
 30
0.0
 70
   129
  0
VERTEX
  5
1B1D
  8
SAPA_PROFIL
 10
3.4999999999998859
 20
31.49953015099118
 30
0.0
 42
0.4142135623730951
  0
VERTEX
  5
1B1E
  8
SAPA_PROFIL
 10
2.4999999999998859
 20
32.499530150991177
 30
0.0
  0
VERTEX
  5
1B1F
  8
SAPA_PROFIL
 10
-2.5000000000001128
 20
32.499530150990147
 30
0.0
 42
0.4142135623730951
  0
VERTEX
  5
1B20
  8
SAPA_PROFIL
 10
-3.5000000000001061
 20
31.499530150990161
 30
0.0
  0
VERTEX
  5
1B21
  8
SAPA_PROFIL
 10
-3.5000000000001168
 20
14.499530150990161
 30
0.0
 42
0.4142135623730951
  0
VERTEX
  5
1B22
  8
SAPA_PROFIL
 10
-1.500000000000117
 20
12.499530150990161
 30
0.0
  0
VERTEX
  5
1B23
  8
SAPA_PROFIL
 10
1.4999999999998821
 20
12.499530150990161
 30
0.0
 42
0.4142135623730951
  0
VERTEX
  5
1B24
  8
SAPA_PROFIL
 10
3.4999999999998819
 20
14.499530150990161
 30
0.0
  0
SEQEND
  5
1B25
  8
SAPA_PROFIL
  0
POLYLINE
  5
11DD
  8
SAPA_PROFIL
 66
     1
 10
0.0
 20
0.0
 30
0.0
 70
   129
  0
VERTEX
  5
1B26
  8
SAPA_PROFIL
 10
22.899999999999881
 20
-22.50046984900882
 30
0.0
  0
VERTEX
  5
1B27
  8
SAPA_PROFIL
 10
-22.900000000000119
 20
-22.50046984900882
 30
0.0
 42
-0.4142135623730951
  0
VERTEX
  5
1B28
  8
SAPA_PROFIL
 10
-23.200000000000131
 20
-22.20046984900884
 30
0.0
  0
VERTEX
  5
1B29
  8
SAPA_PROFIL
 10
-23.19999999999914
 20
-9.3004698490088273
 30
0.0
 42
-0.4142135623731104
  0
VERTEX
  5
1B2A
  8
SAPA_PROFIL
 10
-22.899999999999139
 20
-9.0004698490088142
 30
0.0
  0
VERTEX
  5
1B2B
  8
SAPA_PROFIL
 10
-17.99999999999913
 20
-9.0004698490088142
 30
0.0
 42
0.4142135623730951
  0
VERTEX
  5
1B2C
  8
SAPA_PROFIL
 10
-17.49999999999913
 20
-8.5004698490088142
 30
0.0
  0
VERTEX
  5
1B2D
  8
SAPA_PROFIL
 10
-17.49999999999913
 20
-6.4004698490088501
 30
0.0
 42
0.4142135623730951
  0
VERTEX
  5
1B2E
  8
SAPA_PROFIL
 10
-17.79999999999913
 20
-6.1004698490088378
 30
0.0
  0
VERTEX
  5
1B2F
  8
SAPA_PROFIL
 10
-18.29999999999913
 20
-6.1004698490088378
 30
0.0
 42
0.4142135623730389
  0
VERTEX
  5
1B30
  8
SAPA_PROFIL
 10
-18.599999999999131
 20
-6.4004698490088501
 30
0.0
  0
VERTEX
  5
1B31
  8
SAPA_PROFIL
 10
-18.59999999999944
 20
-6.7370967736445593
 30
0.0
 42
-0.5643553431125487
  0
VERTEX
  5
1B32
  8
SAPA_PROFIL
 10
-22.92439504323513
 20
-4.8748648922418383
 30
0.0
  0
VERTEX
  5
1B33
  8
SAPA_PROFIL
 10
-22.550000000002122
 20
-4.5004698490088151
 30
0.0
  0
VERTEX
  5
1B34
  8
SAPA_PROFIL
 10
-22.92439504323335
 20
-4.1260748057724106
 30
0.0
 42
-0.5643553431119904
  0
VERTEX
  5
1B35
  8
SAPA_PROFIL
 10
-18.599999999999131
 20
-2.2638429243748339
 30
0.0
  0
VERTEX
  5
1B36
  8
SAPA_PROFIL
 10
-18.599999999999131
 20
-2.6004698490088671
 30
0.0
 42
0.4142135623730644
  0
VERTEX
  5
1B37
  8
SAPA_PROFIL
 10
-18.29999999999913
 20
-2.9004698490088501
 30
0.0
  0
VERTEX
  5
1B38
  8
SAPA_PROFIL
 10
-17.79999999999913
 20
-2.9004698490088501
 30
0.0
 42
0.4142135623730951
  0
VERTEX
  5
1B39
  8
SAPA_PROFIL
 10
-17.49999999999913
 20
-2.6004698490088378
 30
0.0
  0
VERTEX
  5
1B3A
  8
SAPA_PROFIL
 10
-17.49999999999913
 20
-0.500469849008816
 30
0.0
 42
0.4142135623730951
  0
VERTEX
  5
1B3B
  8
SAPA_PROFIL
 10
-17.99999999999913
 20
-0.000469849008816
 30
0.0
  0
VERTEX
  5
1B3C
  8
SAPA_PROFIL
 10
-22.899999999999121
 20
-0.000469849008816
 30
0.0
 42
-0.4142135623731104
  0
VERTEX
  5
1B3D
  8
SAPA_PROFIL
 10
-23.199999999999129
 20
0.299530150991167
 30
0.0
  0
VERTEX
  5
1B3E
  8
SAPA_PROFIL
 10
-23.199999999999129
 20
10.199530150990149
 30
0.0
 42
-0.4142135623730951
  0
VERTEX
  5
1B3F
  8
SAPA_PROFIL
 10
-22.899999999999132
 20
10.49953015099118
 30
0.0
  0
VERTEX
  5
1B40
  8
SAPA_PROFIL
 10
22.899999999999888
 20
10.49953015099117
 30
0.0
 42
-0.4142135623731206
  0
VERTEX
  5
1B41
  8
SAPA_PROFIL
 10
23.199999999999871
 20
10.199530150991141
 30
0.0
  0
VERTEX
  5
1B42
  8
SAPA_PROFIL
 10
23.199999999999871
 20
0.2995301509911599
 30
0.0
 42
-0.4142135623730951
  0
VERTEX
  5
1B43
  8
SAPA_PROFIL
 10
22.899999999999881
 20
-0.0004698490088231
 30
0.0
  0
VERTEX
  5
1B44
  8
SAPA_PROFIL
 10
17.999999999999879
 20
-0.0004698490088231
 30
0.0
 42
0.4142135623730951
  0
VERTEX
  5
1B45
  8
SAPA_PROFIL
 10
17.499999999999879
 20
-0.5004698490088231
 30
0.0
  0
VERTEX
  5
1B46
  8
SAPA_PROFIL
 10
17.499999999999879
 20
-2.6004698490088449
 30
0.0
 42
0.4142135623730951
  0
VERTEX
  5
1B47
  8
SAPA_PROFIL
 10
17.799999999999859
 20
-2.9004698490088572
 30
0.0
  0
VERTEX
  5
1B48
  8
SAPA_PROFIL
 10
18.299999999999859
 20
-2.9004698490088572
 30
0.0
 42
0.4142135623730951
  0
VERTEX
  5
1B49
  8
SAPA_PROFIL
 10
18.59999999999987
 20
-2.6004698490088449
 30
0.0
  0
VERTEX
  5
1B4A
  8
SAPA_PROFIL
 10
18.59999999999987
 20
-2.263842924374841
 30
0.0
 42
-0.5643553431119905
  0
VERTEX
  5
1B4B
  8
SAPA_PROFIL
 10
22.92439504323411
 20
-4.1260748057723609
 30
0.0
  0
VERTEX
  5
1B4C
  8
SAPA_PROFIL
 10
22.550000000002878
 20
-4.5004698490088231
 30
0.0
  0
VERTEX
  5
1B4D
  8
SAPA_PROFIL
 10
22.924395043235869
 20
-4.8748648922418454
 30
0.0
 42
-0.5643553431125659
  0
VERTEX
  5
1B4E
  8
SAPA_PROFIL
 10
18.600000000000101
 20
-6.7370967736445087
 30
0.0
  0
VERTEX
  5
1B4F
  8
SAPA_PROFIL
 10
18.59999999999987
 20
-6.4004698490088572
 30
0.0
 42
0.4142135623730388
  0
VERTEX
  5
1B50
  8
SAPA_PROFIL
 10
18.299999999999859
 20
-6.1004698490088449
 30
0.0
  0
VERTEX
  5
1B51
  8
SAPA_PROFIL
 10
17.799999999999859
 20
-6.1004698490088449
 30
0.0
 42
0.4142135623730951
  0
VERTEX
  5
1B52
  8
SAPA_PROFIL
 10
17.499999999999879
 20
-6.4004698490088572
 30
0.0
  0
VERTEX
  5
1B53
  8
SAPA_PROFIL
 10
17.499999999999879
 20
-8.5004698490088231
 30
0.0
 42
0.4142135623730951
  0
VERTEX
  5
1B54
  8
SAPA_PROFIL
 10
17.999999999999879
 20
-9.0004698490088231
 30
0.0
  0
VERTEX
  5
1B55
  8
SAPA_PROFIL
 10
22.899999999999881
 20
-9.0004698490088231
 30
0.0
 42
-0.4142135623730951
  0
VERTEX
  5
1B56
  8
SAPA_PROFIL
 10
23.199999999999871
 20
-9.3004698490088344
 30
0.0
  0
VERTEX
  5
1B57
  8
SAPA_PROFIL
 10
23.199999999999861
 20
-22.20046984900884
 30
0.0
 42
-0.41421356237309
  0
SEQEND
  5
1B58
  8
SAPA_PROFIL
  0
POLYLINE
  5
11DE
  8
SAPA_PROFIL
 66
     1
 10
0.0
 20
0.0
 30
0.0
 70
   129
  0
VERTEX
  5
1B59
  8
SAPA_PROFIL
 10
16.200000000001889
 20
30.299530150990169
 30
0.0
 42
0.414213562373109
  0
VERTEX
  5
1B5A
  8
SAPA_PROFIL
 10
16.500000000001869
 20
29.99953015099015
 30
0.0
  0
VERTEX
  5
1B5B
  8
SAPA_PROFIL
 10
22.900000000000858
 20
29.99953015099015
 30
0.0
 42
-0.4142135623731854
  0
VERTEX
  5
1B5C
  8
SAPA_PROFIL
 10
23.199999999999871
 20
29.699530150990171
 30
0.0
  0
VERTEX
  5
1B5D
  8
SAPA_PROFIL
 10
23.199999999999871
 20
15.299531408951159
 30
0.0
 42
-0.4142142825135553
  0
VERTEX
  5
1B5E
  8
SAPA_PROFIL
 10
22.899999262386871
 20
14.99953140895215
 30
0.0
  0
VERTEX
  5
1B5F
  8
SAPA_PROFIL
 10
21.5000012293564
 20
14.999534851144629
 30
0.0
 42
0.5661922251793411
  0
VERTEX
  5
1B60
  8
SAPA_PROFIL
 10
21.058824266694518
 20
14.264239351100169
 30
0.0
 42
-0.5661914134523967
  0
VERTEX
  5
1B61
  8
SAPA_PROFIL
 10
20.00000250675987
 20
12.49953015099015
 30
0.0
  0
VERTEX
  5
1B62
  8
SAPA_PROFIL
 10
6.9999999999998819
 20
12.499530150990161
 30
0.0
 42
-0.4142135623730951
  0
VERTEX
  5
1B63
  8
SAPA_PROFIL
 10
4.9999999999998819
 20
14.499530150990161
 30
0.0
  0
VERTEX
  5
1B64
  8
SAPA_PROFIL
 10
4.9999999999998934
 20
52.199530150990142
 30
0.0
 42
0.4142135623730951
  0
VERTEX
  5
1B65
  8
SAPA_PROFIL
 10
4.699999999999882
 20
52.499530150990147
 30
0.0
  0
VERTEX
  5
1B66
  8
SAPA_PROFIL
 10
3.0757359312878871
 20
52.499530150991177
 30
0.0
  0
VERTEX
  5
1B67
  8
SAPA_PROFIL
 10
2.1378679656448929
 20
51.561662185346158
 30
0.0
 42
0.1989123673804444
  0
VERTEX
  5
1B68
  8
SAPA_PROFIL
 10
2.0499999999998759
 20
51.349530150990802
 30
0.0
  0
VERTEX
  5
1B69
  8
SAPA_PROFIL
 10
2.0500000000008849
 20
50.149530150990159
 30
0.0
  0
VERTEX
  5
1B6A
  8
SAPA_PROFIL
 10
2.7000000000008759
 20
50.149530150990159
 30
0.0
  0
VERTEX
  5
1B6B
  8
SAPA_PROFIL
 10
2.0767196957478902
 20
48.77329555531616
 30
0.0
 42
0.5450207774087934
  0
VERTEX
  5
1B6C
  8
SAPA_PROFIL
 10
2.3500000000006551
 20
48.349530150991143
 30
0.0
  0
VERTEX
  5
1B6D
  8
SAPA_PROFIL
 10
2.7000000000008759
 20
48.349530150990169
 30
0.0
  0
VERTEX
  5
1B6E
  8
SAPA_PROFIL
 10
2.0767196957478902
 20
46.973295555316163
 30
0.0
 42
0.5450207774089168
  0
VERTEX
  5
1B6F
  8
SAPA_PROFIL
 10
2.3500000000007399
 20
46.549530150990172
 30
0.0
  0
VERTEX
  5
1B70
  8
SAPA_PROFIL
 10
2.7000000000008759
 20
46.549530150990172
 30
0.0
  0
VERTEX
  5
1B71
  8
SAPA_PROFIL
 10
2.0767196957478831
 20
45.173295555316137
 30
0.0
 42
0.5450207774088086
  0
VERTEX
  5
1B72
  8
SAPA_PROFIL
 10
2.350000000000648
 20
44.74953015099117
 30
0.0
  0
VERTEX
  5
1B73
  8
SAPA_PROFIL
 10
2.7000000000008688
 20
44.749530150990147
 30
0.0
  0
VERTEX
  5
1B74
  8
SAPA_PROFIL
 10
2.0767196957478831
 20
43.373295555316162
 30
0.0
 42
0.5450207774088141
  0
VERTEX
  5
1B75
  8
SAPA_PROFIL
 10
2.350000000000648
 20
42.949530150990142
 30
0.0
  0
VERTEX
  5
1B76
  8
SAPA_PROFIL
 10
2.7000000000008688
 20
42.949530150990142
 30
0.0
  0
VERTEX
  5
1B77
  8
SAPA_PROFIL
 10
2.0767196957478831
 20
41.573295555316172
 30
0.0
 42
0.5450207774087156
  0
VERTEX
  5
1B78
  8
SAPA_PROFIL
 10
2.350000000000648
 20
41.149530150991147
 30
0.0
  0
VERTEX
  5
1B79
  8
SAPA_PROFIL
 10
2.7000000000008688
 20
41.149530150990159
 30
0.0
  0
VERTEX
  5
1B7A
  8
SAPA_PROFIL
 10
2.0767196957478831
 20
39.773295555316167
 30
0.0
 42
0.5450207774088258
  0
VERTEX
  5
1B7B
  8
SAPA_PROFIL
 10
2.350000000000676
 20
39.349530150990176
 30
0.0
  0
VERTEX
  5
1B7C
  8
SAPA_PROFIL
 10
2.7000000000008688
 20
39.349530150990176
 30
0.0
  0
VERTEX
  5
1B7D
  8
SAPA_PROFIL
 10
2.0767196957478831
 20
37.973295555316163
 30
0.0
 42
0.5450207774088105
  0
VERTEX
  5
1B7E
  8
SAPA_PROFIL
 10
2.350000000000648
 20
37.549530150990172
 30
0.0
  0
VERTEX
  5
1B7F
  8
SAPA_PROFIL
 10
2.7000000000008688
 20
37.549530150990172
 30
0.0
  0
VERTEX
  5
1B80
  8
SAPA_PROFIL
 10
2.0767196957478831
 20
36.173295555316152
 30
0.0
 42
0.5450207774088258
  0
VERTEX
  5
1B81
  8
SAPA_PROFIL
 10
2.350000000000676
 20
35.749530150990161
 30
0.0
  0
VERTEX
  5
1B82
  8
SAPA_PROFIL
 10
2.7000000000008688
 20
35.749530150990161
 30
0.0
  0
VERTEX
  5
1B83
  8
SAPA_PROFIL
 10
2.7000000000008688
 20
35.499530150990161
 30
0.0
 42
-0.4142135623730951
  0
VERTEX
  5
1B84
  8
SAPA_PROFIL
 10
1.700000000000869
 20
34.499530150990161
 30
0.0
  0
VERTEX
  5
1B85
  8
SAPA_PROFIL
 10
-1.7000000000001301
 20
34.499530150990161
 30
0.0
 42
-0.4142135623730951
  0
VERTEX
  5
1B86
  8
SAPA_PROFIL
 10
-2.7000000000001299
 20
35.499530150990161
 30
0.0
  0
VERTEX
  5
1B87
  8
SAPA_PROFIL
 10
-2.7000000000001299
 20
36.649530150990159
 30
0.0
  0
VERTEX
  5
1B88
  8
SAPA_PROFIL
 10
-2.3500000000001222
 20
36.649530150990159
 30
0.0
 42
0.5450207774091047
  0
VERTEX
  5
1B89
  8
SAPA_PROFIL
 10
-2.0767196957479248
 20
37.073295555315553
 30
0.0
  0
VERTEX
  5
1B8A
  8
SAPA_PROFIL
 10
-2.7000000000001299
 20
38.449530150990171
 30
0.0
  0
VERTEX
  5
1B8B
  8
SAPA_PROFIL
 10
-2.3500000000001222
 20
38.449530150990171
 30
0.0
 42
0.5450207774091047
  0
VERTEX
  5
1B8C
  8
SAPA_PROFIL
 10
-2.0767196957479248
 20
38.873295555315543
 30
0.0
  0
VERTEX
  5
1B8D
  8
SAPA_PROFIL
 10
-2.7000000000001299
 20
40.249530150990161
 30
0.0
  0
VERTEX
  5
1B8E
  8
SAPA_PROFIL
 10
-2.3500000000001222
 20
40.249530150990161
 30
0.0
 42
0.5450207774093641
  0
VERTEX
  5
1B8F
  8
SAPA_PROFIL
 10
-2.0767196957479821
 20
40.673295555315661
 30
0.0
  0
VERTEX
  5
1B90
  8
SAPA_PROFIL
 10
-2.7000000000001299
 20
42.049530150990172
 30
0.0
  0
VERTEX
  5
1B91
  8
SAPA_PROFIL
 10
-2.3500000000001222
 20
42.049530150990172
 30
0.0
 42
0.5450207774092309
  0
VERTEX
  5
1B92
  8
SAPA_PROFIL
 10
-2.0767196957479541
 20
42.473295555315588
 30
0.0
  0
VERTEX
  5
1B93
  8
SAPA_PROFIL
 10
-2.7000000000001299
 20
43.849530150990176
 30
0.0
  0
VERTEX
  5
1B94
  8
SAPA_PROFIL
 10
-2.3500000000001222
 20
43.849530150990176
 30
0.0
 42
0.5450207774091023
  0
VERTEX
  5
1B95
  8
SAPA_PROFIL
 10
-2.0767196957479248
 20
44.27329555531653
 30
0.0
  0
VERTEX
  5
1B96
  8
SAPA_PROFIL
 10
-2.7000000000001299
 20
45.649530150990159
 30
0.0
  0
VERTEX
  5
1B97
  8
SAPA_PROFIL
 10
-2.3500000000001222
 20
45.649530150990159
 30
0.0
 42
0.5450207774091114
  0
VERTEX
  5
1B98
  8
SAPA_PROFIL
 10
-2.0767196957479181
 20
46.073295555315553
 30
0.0
  0
VERTEX
  5
1B99
  8
SAPA_PROFIL
 10
-2.7000000000001232
 20
47.449530150990142
 30
0.0
  0
VERTEX
  5
1B9A
  8
SAPA_PROFIL
 10
-2.3500000000001151
 20
47.449530150990142
 30
0.0
 42
0.54502077740921
  0
VERTEX
  5
1B9B
  8
SAPA_PROFIL
 10
-2.076719695747947
 20
47.873295555316624
 30
0.0
  0
VERTEX
  5
1B9C
  8
SAPA_PROFIL
 10
-2.7000000000001232
 20
49.24953015099117
 30
0.0
  0
VERTEX
  5
1B9D
  8
SAPA_PROFIL
 10
-2.3500000000001151
 20
49.24953015099117
 30
0.0
 42
0.5450207774093123
  0
VERTEX
  5
1B9E
  8
SAPA_PROFIL
 10
-2.076719695747975
 20
49.673295555315661
 30
0.0
  0
VERTEX
  5
1B9F
  8
SAPA_PROFIL
 10
-2.7000000000001232
 20
51.049530150990172
 30
0.0
  0
VERTEX
  5
1BA0
  8
SAPA_PROFIL
 10
-2.3500000000001151
 20
51.04953015099116
 30
0.0
 42
0.668178637919434
  0
VERTEX
  5
1BA1
  8
SAPA_PROFIL
 10
-2.1378679656441402
 20
51.561662185347132
 30
0.0
  0
VERTEX
  5
1BA2
  8
SAPA_PROFIL
 10
-3.0757359312881141
 20
52.499530150991177
 30
0.0
  0
VERTEX
  5
1BA3
  8
SAPA_PROFIL
 10
-4.7000000000001227
 20
52.499530150991177
 30
0.0
 42
0.4142135623730986
  0
VERTEX
  5
1BA4
  8
SAPA_PROFIL
 10
-5.0000000000001199
 20
52.199530150990142
 30
0.0
  0
VERTEX
  5
1BA5
  8
SAPA_PROFIL
 10
-5.0000000000001128
 20
14.499530150990161
 30
0.0
 42
-0.4142135623730951
  0
VERTEX
  5
1BA6
  8
SAPA_PROFIL
 10
-7.0000000000001199
 20
12.499530150990161
 30
0.0
  0
VERTEX
  5
1BA7
  8
SAPA_PROFIL
 10
-20.00000250675912
 20
12.499530150990161
 30
0.0
 42
-0.5661914134523486
  0
VERTEX
  5
1BA8
  8
SAPA_PROFIL
 10
-21.058824266693851
 20
14.264239351100009
 30
0.0
 42
0.5661922251792668
  0
VERTEX
  5
1BA9
  8
SAPA_PROFIL
 10
-21.500001229355561
 20
14.999534851144629
 30
0.0
  0
VERTEX
  5
1BAA
  8
SAPA_PROFIL
 10
-22.899999262386121
 20
14.99953140895216
 30
0.0
 42
-0.4142142825134858
  0
VERTEX
  5
1BAB
  8
SAPA_PROFIL
 10
-23.199999999999122
 20
15.29953140895117
 30
0.0
  0
VERTEX
  5
1BAC
  8
SAPA_PROFIL
 10
-23.20000000000012
 20
29.699530150990181
 30
0.0
 42
-0.4142135623730811
  0
VERTEX
  5
1BAD
  8
SAPA_PROFIL
 10
-22.900000000000109
 20
29.999530150990161
 30
0.0
  0
VERTEX
  5
1BAE
  8
SAPA_PROFIL
 10
-16.500000000001119
 20
29.999530150990161
 30
0.0
 42
0.4142135623731158
  0
VERTEX
  5
1BAF
  8
SAPA_PROFIL
 10
-16.200000000001118
 20
30.299530150990169
 30
0.0
  0
VERTEX
  5
1BB0
  8
SAPA_PROFIL
 10
-16.200000000000109
 20
34.199530150990178
 30
0.0
 42
-0.2134217652833566
  0
VERTEX
  5
1BB1
  8
SAPA_PROFIL
 10
-16.100000000001081
 20
34.423136948740201
 30
0.0
 42
0.213421765283343
  0
VERTEX
  5
1BB2
  8
SAPA_PROFIL
 10
-16.000000000001108
 20
34.646743746490174
 30
0.0
  0
VERTEX
  5
1BB3
  8
SAPA_PROFIL
 10
-16.000000000001108
 20
35.199530150990178
 30
0.0
 42
0.4142135623731228
  0
VERTEX
  5
1BB4
  8
SAPA_PROFIL
 10
-16.300000000001109
 20
35.499530150990161
 30
0.0
  0
VERTEX
  5
1BB5
  8
SAPA_PROFIL
 10
-18.000000000001108
 20
35.499530150990161
 30
0.0
  0
VERTEX
  5
1BB6
  8
SAPA_PROFIL
 10
-18.586384015760931
 20
35.034606731424851
 30
0.0
 42
0.7105995015649606
  0
VERTEX
  5
1BB7
  8
SAPA_PROFIL
 10
-18.400000000000109
 20
34.499530150990161
 30
0.0
  0
VERTEX
  5
1BB8
  8
SAPA_PROFIL
 10
-18.000000000001162
 20
34.499530150990161
 30
0.0
 42
-0.4142135623731366
  0
VERTEX
  5
1BB9
  8
SAPA_PROFIL
 10
-17.700000000001118
 20
34.199530150990178
 30
0.0
  0
VERTEX
  5
1BBA
  8
SAPA_PROFIL
 10
-17.700000000001118
 20
31.799530150990169
 30
0.0
 42
-0.4142135623730951
  0
VERTEX
  5
1BBB
  8
SAPA_PROFIL
 10
-18.000000000001108
 20
31.499530150990161
 30
0.0
  0
VERTEX
  5
1BBC
  8
SAPA_PROFIL
 10
-22.900000000000109
 20
31.499530150990161
 30
0.0
 42
-0.4142135623731088
  0
VERTEX
  5
1BBD
  8
SAPA_PROFIL
 10
-23.20000000000012
 20
31.799530150990169
 30
0.0
  0
VERTEX
  5
1BBE
  8
SAPA_PROFIL
 10
-23.20000000000012
 20
34.199530150990178
 30
0.0
 42
-0.4142135623731229
  0
VERTEX
  5
1BBF
  8
SAPA_PROFIL
 10
-22.900000000000119
 20
34.499530150990161
 30
0.0
  0
VERTEX
  5
1BC0
  8
SAPA_PROFIL
 10
-22.000000000001119
 20
34.499530150990161
 30
0.0
 42
0.7105995015650805
  0
VERTEX
  5
1BC1
  8
SAPA_PROFIL
 10
-21.813615984240119
 20
35.034606731425157
 30
0.0
  0
VERTEX
  5
1BC2
  8
SAPA_PROFIL
 10
-22.400000000001121
 20
35.499530150990161
 30
0.0
  0
VERTEX
  5
1BC3
  8
SAPA_PROFIL
 10
-24.700000000001118
 20
35.499530150990161
 30
0.0
 42
0.4142135623730951
  0
VERTEX
  5
1BC4
  8
SAPA_PROFIL
 10
-25.000000000001119
 20
35.199530150990178
 30
0.0
  0
VERTEX
  5
1BC5
  8
SAPA_PROFIL
 10
-24.99999999999913
 20
-24.00046984900882
 30
0.0
 42
0.4142135623730951
  0
VERTEX
  5
1BC6
  8
SAPA_PROFIL
 10
-24.49999999999914
 20
-24.50046984900883
 30
0.0
  0
VERTEX
  5
1BC7
  8
SAPA_PROFIL
 10
24.499999999999869
 20
-24.50046984900883
 30
0.0
 42
0.4142135623730951
  0
VERTEX
  5
1BC8
  8
SAPA_PROFIL
 10
24.999999999999879
 20
-24.00046984900882
 30
0.0
  0
VERTEX
  5
1BC9
  8
SAPA_PROFIL
 10
25.000000000001879
 20
35.199530150990149
 30
0.0
 42
0.4142135623731229
  0
VERTEX
  5
1BCA
  8
SAPA_PROFIL
 10
24.700000000001889
 20
35.499530150990161
 30
0.0
  0
VERTEX
  5
1BCB
  8
SAPA_PROFIL
 10
22.400000000001882
 20
35.499530150990161
 30
0.0
  0
VERTEX
  5
1BCC
  8
SAPA_PROFIL
 10
21.813615984241121
 20
35.034606731424901
 30
0.0
 42
0.7105995015650992
  0
VERTEX
  5
1BCD
  8
SAPA_PROFIL
 10
22.000000000001879
 20
34.499530150990161
 30
0.0
  0
VERTEX
  5
1BCE
  8
SAPA_PROFIL
 10
22.900000000000858
 20
34.499530150990161
 30
0.0
 42
-0.4142135623731158
  0
VERTEX
  5
1BCF
  8
SAPA_PROFIL
 10
23.200000000001889
 20
34.199530150990171
 30
0.0
  0
VERTEX
  5
1BD0
  8
SAPA_PROFIL
 10
23.20000000000087
 20
31.799530150990162
 30
0.0
 42
-0.4142135623731088
  0
VERTEX
  5
1BD1
  8
SAPA_PROFIL
 10
22.90000000000089
 20
31.49953015099015
 30
0.0
  0
VERTEX
  5
1BD2
  8
SAPA_PROFIL
 10
18.000000000001869
 20
31.49953015099015
 30
0.0
 42
-0.4142135623730882
  0
VERTEX
  5
1BD3
  8
SAPA_PROFIL
 10
17.700000000001889
 20
31.799530150990162
 30
0.0
  0
VERTEX
  5
1BD4
  8
SAPA_PROFIL
 10
17.700000000001889
 20
34.199530150990171
 30
0.0
 42
-0.4142135623731367
  0
VERTEX
  5
1BD5
  8
SAPA_PROFIL
 10
18.000000000001869
 20
34.499530150990161
 30
0.0
  0
VERTEX
  5
1BD6
  8
SAPA_PROFIL
 10
18.400000000000912
 20
34.499530150990161
 30
0.0
 42
0.7105995015649363
  0
VERTEX
  5
1BD7
  8
SAPA_PROFIL
 10
18.586384015761858
 20
35.034606731425157
 30
0.0
  0
VERTEX
  5
1BD8
  8
SAPA_PROFIL
 10
18.000000000001869
 20
35.499530150990161
 30
0.0
  0
VERTEX
  5
1BD9
  8
SAPA_PROFIL
 10
16.300000000001909
 20
35.499530150990161
 30
0.0
 42
0.4142135623731159
  0
VERTEX
  5
1BDA
  8
SAPA_PROFIL
 10
16.000000000001869
 20
35.199530150990171
 30
0.0
  0
VERTEX
  5
1BDB
  8
SAPA_PROFIL
 10
16.000000000001869
 20
34.646743746490159
 30
0.0
 42
0.2134217652833529
  0
VERTEX
  5
1BDC
  8
SAPA_PROFIL
 10
16.1000000000009
 20
34.423136948740137
 30
0.0
 42
-0.2134217652833564
  0
VERTEX
  5
1BDD
  8
SAPA_PROFIL
 10
16.20000000000087
 20
34.199530150990171
 30
0.0
  0
SEQEND
  5
1BDE
  8
SAPA_PROFIL
  0
LINE
  5
11F2
  8
SAPA_GLAS
 10
72.202868061485816
 20
110.69913194256711
 30
0.0
 11
118.3438436071083
 21
110.69913194256711
 31
0.0
  0
POLYLINE
  5
11F3
  8
SAPA_GLAS
 66
     1
 10
0.0
 20
0.0
 30
0.0
  0
VERTEX
  5
1BEF
  8
SAPA_GLAS
 10
118.3438436071083
 20
106.19913194256701
 30
0.0
  0
VERTEX
  5
1BF0
  8
SAPA_GLAS
 10
72.202868061485816
 20
106.19913194256701
 30
0.0
  0
VERTEX
  5
1BF1
  8
SAPA_GLAS
 10
72.202868061485773
 20
115.19913194256711
 30
0.0
  0
VERTEX
  5
1BF2
  8
SAPA_GLAS
 10
118.3438436071083
 20
115.19913194256711
 30
0.0
  0
SEQEND
  5
1BF3
  8
SAPA_GLAS
  0
POLYLINE
  5
11F4
  8
SAPA_GLAS
 66
     1
 10
0.0
 20
0.0
 30
0.0
  0
VERTEX
  5
1BF4
  8
SAPA_GLAS
 10
72.202868061485773
 20
127.19913194256701
 30
0.0
  0
VERTEX
  5
1BF5
  8
SAPA_GLAS
 10
72.202868061485773
 20
115.19913194256711
 30
0.0
  0
VERTEX
  5
1BF6
  8
SAPA_GLAS
 10
82.202868061485844
 20
115.19913194256711
 30
0.0
  0
VERTEX
  5
1BF7
  8
SAPA_GLAS
 10
82.202868061485844
 20
127.19913194256711
 30
0.0
  0
VERTEX
  5
1BF8
  8
SAPA_GLAS
 10
72.202868061485773
 20
127.19913194256711
 30
0.0
  0
SEQEND
  5
1BF9
  8
SAPA_GLAS
  0
POLYLINE
  5
11F5
  8
SAPA_GLAS
 66
     1
 10
0.0
 20
0.0
 30
0.0
  0
VERTEX
  5
1BFA
  8
SAPA_GLAS
 10
118.3438436071083
 20
133.19913194256699
 30
0.0
  0
VERTEX
  5
1BFB
  8
SAPA_GLAS
 10
72.202868061485773
 20
133.19913194256699
 30
0.0
  0
VERTEX
  5
1BFC
  8
SAPA_GLAS
 10
72.202868061485773
 20
127.19913194256711
 30
0.0
  0
VERTEX
  5
1BFD
  8
SAPA_GLAS
 10
118.3438436071083
 20
127.19913194256711
 30
0.0
  0
SEQEND
  5
1BFE
  8
SAPA_GLAS
  0
ARC
  5
1202
  8
SAPA_FYLLNING
 10
8.4769330888641292
 20
50.859999999999552
 30
0.0
 40
21.455789953952831
 50
155.19904622794201
 51
204.80095377205799
  0
POLYLINE
  5
1203
  8
SAPA_FYLLNING
 66
     1
 10
0.0
 20
0.0
 30
0.0
 70
     1
  0
VERTEX
  5
1C1B
  8
SAPA_FYLLNING
 10
-16.000000000000242
 20
58.3599999999999
 30
0.0
 42
0.4142135623730951
  0
VERTEX
  5
1C1C
  8
SAPA_FYLLNING
 10
-16.500000000000242
 20
58.8599999999999
 30
0.0
  0
VERTEX
  5
1C1D
  8
SAPA_FYLLNING
 10
-19.500000000000242
 20
58.8599999999999
 30
0.0
 42
0.4142135623730951
  0
VERTEX
  5
1C1E
  8
SAPA_FYLLNING
 10
-20.000000000000242
 20
58.3599999999999
 30
0.0
  0
VERTEX
  5
1C1F
  8
SAPA_FYLLNING
 10
-20.000000000000242
 20
43.359999999997278
 30
0.0
 42
0.4142135623730951
  0
VERTEX
  5
1C20
  8
SAPA_FYLLNING
 10
-19.500000000000242
 20
42.859999999997278
 30
0.0
  0
VERTEX
  5
1C21
  8
SAPA_FYLLNING
 10
-16.500000000000242
 20
42.859999999997278
 30
0.0
 42
0.4142135623730951
  0
VERTEX
  5
1C22
  8
SAPA_FYLLNING
 10
-16.000000000000242
 20
43.359999999997278
 30
0.0
  0
SEQEND
  5
1C23
  8
SAPA_FYLLNING
  0
POLYLINE
  5
1204
  8
SAPA_FYLLNING
 66
     1
 10
0.0
 20
0.0
 30
0.0
 70
     1
  0
VERTEX
  5
1C24
  8
SAPA_FYLLNING
 10
-24.500000000000242
 20
58.8599999999999
 30
0.0
 42
0.4142135623730951
  0
VERTEX
  5
1C25
  8
SAPA_FYLLNING
 10
-25.000000000000242
 20
58.3599999999999
 30
0.0
  0
VERTEX
  5
1C26
  8
SAPA_FYLLNING
 10
-25.000000000000242
 20
43.359999999997278
 30
0.0
 42
0.4142135623730951
  0
VERTEX
  5
1C27
  8
SAPA_FYLLNING
 10
-24.500000000000242
 20
42.859999999997278
 30
0.0
  0
VERTEX
  5
1C28
  8
SAPA_FYLLNING
 10
-21.500000000000242
 20
42.859999999997278
 30
0.0
 42
0.4142135623730951
  0
VERTEX
  5
1C29
  8
SAPA_FYLLNING
 10
-21.000000000000242
 20
43.359999999997278
 30
0.0
  0
VERTEX
  5
1C2A
  8
SAPA_FYLLNING
 10
-21.000000000000242
 20
58.3599999999999
 30
0.0
 42
0.4142135623730951
  0
VERTEX
  5
1C2B
  8
SAPA_FYLLNING
 10
-21.500000000000242
 20
58.8599999999999
 30
0.0
  0
SEQEND
  5
1C2C
  8
SAPA_FYLLNING
  0
LINE
  5
1205
  8
SAPA_FYLLNING
 10
-15.00000000000024
 20
59.859999999999893
 30
0.0
 11
-15.00000000000024
 21
41.859999999997292
 31
0.0
1001
ACAD
1000
ASC_BOUNDS
1002
{
1070
    19
1005
0
1002
}
  0
LINE
  5
1206
  8
SAPA_FYLLNING
 10
-26.000000000000242
 20
59.859999999999893
 30
0.0
 11
-26.000000000000242
 21
41.859999999997292
 31
0.0
  0
LINE
  5
1207
  8
SAPA_FYLLNING
 10
-26.000000000000242
 20
59.859999999999893
 30
0.0
 11
-26.000000000000242
 21
41.859999999997292
 31
0.0
1001
ACAD
1000
ASC_BOUNDS
1002
{
1070
    19
1005
0
1002
}
  0
POLYLINE
  5
1208
  8
SAPA_FYLLNING
 66
     1
 10
0.0
 20
0.0
 30
0.0
  0
VERTEX
  5
1C2D
  8
SAPA_FYLLNING
 10
-41.000000000000242
 20
41.859999999997292
 30
0.0
  0
VERTEX
  5
1C2E
  8
SAPA_FYLLNING
 10
-11.00000000000024
 20
41.859999999997292
 30
0.0
  0
VERTEX
  5
1C2F
  8
SAPA_FYLLNING
 10
-11.00000000000024
 20
40.859999999997278
 30
0.0
  0
VERTEX
  5
1C30
  8
SAPA_FYLLNING
 10
-41.000000000000242
 20
40.85999999999796
 30
0.0
  0
SEQEND
  5
1C31
  8
SAPA_FYLLNING
  0
POLYLINE
  5
1209
  8
SAPA_FYLLNING
 66
     1
 10
0.0
 20
0.0
 30
0.0
1001
ACAD
1000
ASC_BOUNDS
1002
{
1070
    19
1005
0
1005
0
1002
}
  0
VERTEX
  5
1C32
  8
SAPA_FYLLNING
 10
-41.000000000000242
 20
65.8599999999999
 30
0.0
  0
VERTEX
  5
1C33
  8
SAPA_FYLLNING
 10
-11.00000000000024
 20
65.8599999999999
 30
0.0
  0
VERTEX
  5
1C34
  8
SAPA_FYLLNING
 10
-11.00000000000024
 20
59.859999999999893
 30
0.0
  0
VERTEX
  5
1C35
  8
SAPA_FYLLNING
 10
-41.000000000000242
 20
59.859999999999893
 30
0.0
  0
SEQEND
  5
1C36
  8
SAPA_FYLLNING
  0
INSERT
  5
1210
  8
SAPA_ISOLATOR
  6
CONTINUOUS
  2
*X85
 10
0.0
 20
0.0
 30
0.0
1001
ACAD
1000
HATCH
1002
{
1070
    19
1000
ANSI31
1040
0.35
1040
5.4977871437821371
1000
R14_HATCH_DATA
1000
1210
1011
1.0
1021
0.0
1031
0.0
1021
0.0
1031
0.0
1011
0.0
1021
0.0
1031
0.0
1021
1.0
1031
0.0
1011
0.0
1021
0.0
1031
0.0
1021
0.0
1031
1.0
1040
0.0
1010
0.0
1020
0.0
1030
1.0
1000
ANSI31
1070
     0
1070
     0
1071
        1
1071
        1
1071
       49
1070
     2
1040
43.92816319065399
1040
56.136257502557747
1040
0.3006817060114675
1040
-3.1365342331756252
1040
-1.9206162522843451
1070
     0
1070
     1
1040
43.825110957031917
1040
56.418728254097573
1040
46.257940978575938
1040
57.304205966968773
1070
     2
1040
46.121132921243131
1040
57.6800830152849
1040
0.400000000002539
1040
5.0614548307880307
1040
6.2831853071802364
1070
     1
1070
     1
1040
46.521132921245673
1040
57.680083015285163
1040
46.521132921245631
1040
68.099999999999284
1070
     1
1040
46.521132921245631
1040
68.099999999999284
1040
46.521132921245581
1040
78.519916984717383
1070
     2
1040
46.121132921245923
1040
78.519916984715636
1040
0.3999999999996488
1040
6.2831853071839641
1040
7.5049157835761973
1070
     1
1070
     1
1040
46.257940978575853
1040
78.895794033029745
1040
43.825110957040167
1040
79.781271745897925
1070
     2
1040
43.9280093999839
1040
80.063634318045345
1040
0.3005273892841634
1040
1.9202588802441449
1040
3.1368916050751952
1070
     0
1070
     2
1040
49.188128406508831
1040
80.291810292983627
1040
5.5653807064749881
1040
3.1003279234522898
1040
3.1634922354923591
1070
     0
1070
     1
1040
43.624082201860212
1040
80.413680061750966
1040
43.485412444753692
1040
80.653863126533253
1070
     2
1040
43.667277779548591
1040
80.758863126532944
1040
0.2100000000000017
1040
2.6179938779930789
1040
4.7123889803841781
1070
     0
1070
     1
1040
43.667277779548492
1040
80.968863126532966
1040
43.934392307761399
1040
80.968863126533094
1070
     1
1040
43.934392307761399
1040
80.968863126533094
1040
44.130614373545697
1040
81.299999999999272
1070
     1
1040
44.130614373545697
1040
81.299999999999272
1040
44.698258537043138
1040
82.283320137979786
1070
     2
1040
44.516393202249603
1040
82.388320137978056
1040
0.209999999998109
1040
5.7595865315855992
1040
6.283185307182225
1070
     1
1070
     1
1040
44.726393202247714
1040
82.38832013797861
1040
44.726393202247813
1040
82.700000000001182
1070
     2
1040
44.326393202251687
1040
82.700000000003087
1040
0.3999999999961332
1040
6.2831853071748069
1040
7.8539816339849429
1070
     1
1070
     1
1040
44.326393202247502
1040
83.099999999999227
1040
40.926393202247752
1040
83.099999999999284
1070
     2
1040
40.926393202244839
1040
82.700000000002206
1040
0.3999999999970676
1040
7.8539816339672077
1040
9.4247779607767956
1070
     1
1070
     1
1040
40.526393202247768
1040
82.699999999999235
1040
40.526393202247768
1040
82.388320137975597
1070
     2
1040
40.736393202242724
1040
82.388320137977246
1040
0.2099999999949489
1040
3.1415926535976761
1040
3.6651914291943042
1070
     1
1070
     1
1040
40.554527867453011
1040
82.283320137978649
1040
41.122248013815053
1040
81.299999999999272
1070
     1
1040
41.122248013815053
1040
81.299999999999272
1040
41.465623686787168
1040
80.705255888328395
1070
     2
1040
40.426393202236781
1040
80.105255888322276
1040
1.2000000000109059
1040
-0.5235987755989325
1040
-0.0000000000022795
1070
     0
1070
     1
1040
41.626393202247677
1040
80.105255888325019
1040
41.626393202247449
1040
79.153391555438589
1070
     2
1040
42.626393202239697
1040
79.153391555447598
1040
0.9999999999922533
1040
3.1415926535988019
1040
4.3633231299913087
1070
     1
1070
     1
1040
42.284373058921837
1040
78.213698934667093
1040
44.457940978575529
1040
77.422584909757234
1070
     2
1040
44.321132921244264
1040
77.04670786144176
1040
0.4000000000013905
1040
-1.2217304763946191
1040
-0.0000000000023892
1070
     0
1070
     1
1040
44.721132921245648
1040
77.046707861442712
1040
44.721132921245648
1040
68.099999999999284
1070
     1
1040
44.721132921245648
1040
68.099999999999284
1040
44.721132921245697
1040
59.153292138555798
1070
     2
1040
44.321132921247127
1040
59.153292138554797
1040
0.3999999999985775
1040
-0.0000000000024847
1040
1.2217304763897181
1070
     0
1070
     1
1040
44.457940978579288
1040
58.777415090242641
1040
42.284373058922071
1040
57.986301065331531
1070
     2
1040
42.62639320226095
1040
57.046608444536382
1040
1.000000000013211
1040
8.2030474843825996
1040
9.4247779607748186
1070
     1
1070
     1
1040
41.626393202247741
1040
57.046608444530932
1040
41.626393202247741
1040
56.094744111673442
1070
     2
1040
40.426393202258708
1040
56.094744111670437
1040
1.1999999999890261
1040
-0.0000000000024949
1040
0.5235987755941554
1070
     0
1070
     1
1040
41.465623686793023
1040
55.494744111680241
1040
41.12639320224779
1040
54.907179676971737
1070
     1
1040
41.12639320224779
1040
54.907179676971737
1040
40.554527867453068
1040
53.916679862019798
1070
     2
1040
40.73639320225422
1040
53.811679862018138
1040
0.2100000000063851
1040
8.9011791851794602
1040
9.4247779607761366
1070
     1
1070
     1
1040
40.526393202247831
1040
53.81167986201671
1040
40.526393202247768
1040
53.499999999999197
1070
     2
1040
40.926393202250722
1040
53.500000000002181
1040
0.40000000000295
1040
3.1415926535972249
1040
4.7123889803872041
1070
     1
1070
     1
1040
40.926393202251731
1040
53.099999999999227
1040
44.326393202247793
1040
53.099999999999227
1070
     2
1040
44.326393202245782
1040
53.500000000001208
1040
0.4000000000019782
1040
4.712388980389691
1040
6.283185307179699
1070
     1
1070
     1
1040
44.726393202247763
1040
53.500000000001251
1040
44.726393202247763
1040
53.811679862019901
1070
     2
1040
44.516393202245851
1040
53.811679862019417
1040
0.2100000000019078
1040
6.2831853071818378
1040
6.8067840827784662
1070
     1
1070
     1
1040
44.698258537042172
1040
53.91667986202048
1040
43.934392307761399
1040
55.231136873465481
1070
     1
1040
43.934392307761399
1040
55.231136873465481
1040
43.667277779548492
1040
55.231136873465601
1070
     2
1040
43.667277779548591
1040
55.441136873465602
1040
0.2100000000000017
1040
1.570796326795403
1040
3.6651914291865029
1070
     0
1070
     1
1040
43.485412444753692
1040
55.546136873465308
1040
43.624082201860212
1040
55.786319938247601
1070
     2
1040
49.188128405951332
1040
55.90818970701801
1040
5.5653807059176952
1040
3.11969307168448
1040
3.1828573837245471
1070
     0
1071
        0
1070
     0
1070
     1
1040
5.4977871437821371
1040
0.35
1070
     0
1070
     1
1040
0.0
1040
0.0
1040
0.0
1040
0.0000000000000003
1040
1.111249999999999
1070
     0
1071
        1
1040
46.521133114265837
1040
53.099999849183462
1040
0.0
1002
}
  0
INSERT
  5
1211
  8
SAPA_ISOLATOR
  6
CONTINUOUS
  2
*X86
 10
0.0
 20
0.0
 30
0.0
1001
ACAD
1000
HATCH
1002
{
1070
    19
1000
ANSI31
1040
0.35
1040
5.4977871437821371
1000
R14_HATCH_DATA
1000
1211
1011
1.0
1021
0.0
1031
0.0
1021
0.0
1031
0.0
1011
0.0
1021
0.0
1031
0.0
1021
1.0
1031
0.0
1011
0.0
1021
0.0
1031
0.0
1021
0.0
1031
1.0
1040
0.0
1010
0.0
1020
0.0
1030
1.0
1000
ANSI31
1070
     0
1070
     0
1071
        1
1071
        1
1071
       36
1070
     1
1040
13.66064357234387
1040
55.229795158608553
1040
13.46946160930956
1040
54.898658285142389
1070
     1
1040
13.46946160930956
1040
54.898658285142389
1040
12.90174146294752
1040
53.915338147162963
1070
     2
1040
13.0836067977423
1040
53.810338147163002
1040
0.2100000000000184
1040
2.6179938779917471
1040
3.1415926535900551
1070
     1
1070
     1
1040
12.87360679774228
1040
53.810338147162931
1040
12.87360679774228
1040
53.498658285142362
1070
     2
1040
13.273606797742261
1040
53.498658285142362
1040
0.3999999999999772
1040
3.1415926535897931
1040
4.7123889803846888
1070
     1
1070
     1
1040
13.273606797742261
1040
53.098658285142371
1040
16.673606797742291
1040
53.098658285142371
1070
     2
1040
16.673606797742291
1040
53.498658285142362
1040
0.3999999999999772
1040
4.7123889803846888
1040
6.2831853071795862
1070
     1
1070
     1
1040
17.073606797742269
1040
53.498658285142362
1040
17.073606797742329
1040
53.810338147162931
1070
     2
1040
16.863606797742278
1040
53.810338147162888
1040
0.2100000000000461
1040
0.000000000000237
1040
0.523598775598546
1070
     1
1070
     1
1040
17.045472132537029
1040
53.915338147162963
1040
16.477751986175051
1040
54.898658285142389
1070
     1
1040
16.477751986175051
1040
54.898658285142389
1040
16.03437631320098
1040
55.666607477573493
1070
     2
1040
17.073606797742311
1040
56.266607477573537
1040
1.2000000000000319
1040
2.6179938779914642
1040
3.1415926535897718
1070
     0
1070
     1
1040
15.87360679774228
1040
56.266607477573523
1040
15.87360679774228
1040
60.098658285142378
1070
     1
1040
15.87360679774228
1040
60.098658285142378
1040
15.87360679774228
1040
63.930709092711233
1070
     2
1040
17.073606797742311
1040
63.930709092711211
1040
1.2000000000000319
1040
3.1415926535898131
1040
3.665191429188122
1070
     0
1070
     1
1040
16.03437631320098
1040
64.530709092711263
1040
16.473606797742299
1040
65.291478608169925
1070
     1
1040
16.473606797742299
1040
65.291478608169925
1040
17.045472132537029
1040
66.281978423121799
1070
     2
1040
16.863606797742278
1040
66.386978423121874
1040
0.2100000000000466
1040
5.7595865315810384
1040
6.2831853071793464
1070
     1
1070
     1
1040
17.073606797742329
1040
66.386978423121818
1040
17.073606797742269
1040
66.6986582851424
1070
     2
1040
16.673606797742291
1040
66.6986582851424
1040
0.3999999999999772
1040
6.2831853071795862
1040
7.8539816339744819
1070
     1
1070
     1
1040
16.673606797742291
1040
67.098658285142378
1040
13.273606797742261
1040
67.098658285142378
1070
     2
1040
13.273606797742261
1040
66.6986582851424
1040
0.3999999999999772
1040
1.5707963267948959
1040
3.1415926535897931
1070
     1
1070
     1
1040
12.87360679774228
1040
66.6986582851424
1040
12.87360679774228
1040
66.386978423121761
1070
     2
1040
13.08360679774219
1040
66.386978423121732
1040
0.2099999999999119
1040
3.1415926535896621
1040
3.665191429187971
1070
     1
1070
     1
1040
12.90174146294752
1040
66.281978423121799
1040
13.47360679774231
1040
65.291478608169925
1070
     1
1040
13.47360679774231
1040
65.291478608169925
1040
13.66064357234392
1040
64.967521411676117
1070
     1
1040
13.66064357234392
1040
64.967521411676117
1040
13.93272222044355
1040
64.967521411676003
1070
     2
1040
13.93272222044344
1040
64.757521411675995
1040
0.2100000000000013
1040
4.7123889803851959
1040
6.8067840827762991
1070
     0
1070
     1
1040
14.114587555238341
1040
64.65252141167629
1040
13.974092457507339
1040
64.409176764191272
1070
     2
1040
12.87360679774226
1040
63.930709092711311
1040
1.200000000000004
1040
5.87306129445978
1040
6.2831853071796528
1070
     0
1070
     1
1040
14.07360679774227
1040
63.930709092711233
1040
14.07360679774227
1040
60.098658285142378
1070
     1
1040
14.07360679774227
1040
60.098658285142378
1040
14.07360679774227
1040
56.266607477573523
1070
     2
1040
12.87360679774226
1040
56.266607477573437
1040
1.2000000000000051
1040
6.2831853071795187
1040
6.6933093199013554
1070
     0
1070
     1
1040
13.9740924575064
1040
55.788139806091323
1040
14.114587555236209
1040
55.544795158608373
1070
     2
1040
13.93272222044131
1040
55.439795158608668
1040
0.2100000000000013
1040
5.7595865315828698
1040
7.8539816339739748
1070
     0
1070
     1
1040
13.93272222044142
1040
55.229795158608667
1040
13.66064357234387
1040
55.229795158608553
1071
        0
1070
     0
1070
     1
1040
5.4977871437821371
1040
0.35
1070
     0
1070
     1
1040
0.0
1040
0.0
1040
0.0
1040
0.0000000000000003
1040
1.111249999999999
1070
     0
1071
        1
1040
12.873606831092999
1040
67.098658342754547
1040
0.0
1002
}
  0
CIRCLE
  5
1226
  8
SAPA_FOGBAND
 10
44.978378968121532
 20
89.424621723980366
 30
0.0
 40
0.8
  0
POLYLINE
  5
1227
  8
SAPA_FOGBAND
 62
     2
 66
     1
 10
0.0
 20
0.0
 30
0.0
  0
VERTEX
  5
1E1D
  8
SAPA_FOGBAND
 62
     2
 10
43.18779433034868
 20
90.653200435431444
 30
0.0
  0
VERTEX
  5
1E1E
  8
SAPA_FOGBAND
 62
     2
 10
43.655948860851588
 20
89.649239804900219
 30
0.0
  0
VERTEX
  5
1E1F
  8
SAPA_FOGBAND
 62
     2
 10
43.268810656277211
 20
89.425725458275863
 30
0.0
 42
0.4430158954262519
  0
VERTEX
  5
1E20
  8
SAPA_FOGBAND
 62
     2
 10
43.206142594714642
 20
89.136162731670296
 30
0.0
  0
VERTEX
  5
1E21
  8
SAPA_FOGBAND
 62
     2
 10
43.99566559807738
 20
88.032409079904554
 30
0.0
 42
0.3125358528825162
  0
VERTEX
  5
1E22
  8
SAPA_FOGBAND
 62
     2
 10
44.424529339243712
 20
87.878754041086367
 30
0.0
  0
VERTEX
  5
1E23
  8
SAPA_FOGBAND
 62
     2
 10
46.230960658053412
 20
88.362785854143254
 30
0.0
 42
0.3125358528825104
  0
VERTEX
  5
1E24
  8
SAPA_FOGBAND
 62
     2
 10
46.525540033256277
 20
88.710286891762905
 30
0.0
  0
VERTEX
  5
1E25
  8
SAPA_FOGBAND
 62
     2
 10
46.65741018515795
 20
90.060927095393296
 30
0.0
 42
0.4430158954262519
  0
VERTEX
  5
1E26
  8
SAPA_FOGBAND
 62
     2
 10
46.458356688536057
 20
90.280361741841418
 30
0.0
  0
VERTEX
  5
1E27
  8
SAPA_FOGBAND
 62
     2
 10
46.01132799528672
 20
90.280361741841247
 30
0.0
  0
VERTEX
  5
1E28
  8
SAPA_FOGBAND
 62
     2
 10
45.914692167148118
 20
91.383870508644023
 30
0.0
  0
SEQEND
  5
1E29
  8
SAPA_FOGBAND
 62
     2
  0
POLYLINE
  5
1228
  8
SAPA_FOGBAND
 62
     2
 66
     1
 10
0.0
 20
0.0
 30
0.0
 70
     1
  0
VERTEX
  5
1E2A
  8
SAPA_FOGBAND
 62
     2
 10
43.198991706536482
 20
90.656200763338319
 30
0.0
 42
-0.285714285714282
  0
VERTEX
  5
1E2B
  8
SAPA_FOGBAND
 62
     2
 10
45.903584020145821
 20
91.380894089625372
 30
0.0
  0
VERTEX
  5
1E2C
  8
SAPA_FOGBAND
 62
     2
 10
47.906701843803589
 20
91.917627892819311
 30
0.0
 42
0.3882600129940275
  0
VERTEX
  5
1E2D
  8
SAPA_FOGBAND
 62
     2
 10
48.124609787732041
 20
92.258864707569046
 30
0.0
  0
VERTEX
  5
1E2E
  8
SAPA_FOGBAND
 62
     2
 10
47.823674164164622
 20
95.183268568501617
 30
0.0
 42
0.4406523138893894
  0
VERTEX
  5
1E2F
  8
SAPA_FOGBAND
 62
     2
 10
47.450474793174322
 20
95.421587249524705
 30
0.0
  0
VERTEX
  5
1E30
  8
SAPA_FOGBAND
 62
     2
 10
45.798942545766643
 20
94.979060517557826
 30
0.0
 42
0.1324021389273206
  0
VERTEX
  5
1E31
  8
SAPA_FOGBAND
 62
     2
 10
45.552602305332911
 20
94.778799568535234
 30
0.0
  0
VERTEX
  5
1E32
  8
SAPA_FOGBAND
 62
     2
 10
45.393155244030112
 20
94.591928878729533
 30
0.0
 42
-0.0974546877251531
  0
VERTEX
  5
1E33
  8
SAPA_FOGBAND
 62
     2
 10
45.123040067082897
 20
94.480397200721086
 30
0.0
  0
VERTEX
  5
1E34
  8
SAPA_FOGBAND
 62
     2
 10
42.325211043111238
 20
93.730721173187504
 30
0.0
 42
-0.0777736930649696
  0
VERTEX
  5
1E35
  8
SAPA_FOGBAND
 62
     2
 10
42.037290968128907
 20
93.685638279270563
 30
0.0
  0
VERTEX
  5
1E36
  8
SAPA_FOGBAND
 62
     2
 10
41.8306122243145
 20
93.773072777922948
 30
0.0
 42
0.1093112119857678
  0
VERTEX
  5
1E37
  8
SAPA_FOGBAND
 62
     2
 10
41.490530667671891
 20
93.824625034161684
 30
0.0
  0
VERTEX
  5
1E38
  8
SAPA_FOGBAND
 62
     2
 10
39.838998420264403
 20
93.382098302194876
 30
0.0
 42
0.4406523138893994
  0
VERTEX
  5
1E39
  8
SAPA_FOGBAND
 62
     2
 10
39.634957624822199
 20
92.989108584737437
 30
0.0
  0
VERTEX
  5
1E3A
  8
SAPA_FOGBAND
 62
     2
 10
40.836541660375161
 20
90.306032738460743
 30
0.0
 42
0.3882600129940462
  0
VERTEX
  5
1E3B
  8
SAPA_FOGBAND
 62
     2
 10
41.195873882878608
 20
90.119466960144806
 30
0.0
  0
VERTEX
  5
1E3C
  8
SAPA_FOGBAND
 62
     2
 10
43.18779433034868
 20
90.653200435431444
 30
0.0
  0
SEQEND
  5
1E3D
  8
SAPA_FOGBAND
 62
     2
  0
POLYLINE
  5
1229
  8
SAPA_FOGBAND
 66
     1
 10
0.0
 20
0.0
 30
0.0
 70
     1
  0
VERTEX
  5
1E3E
  8
SAPA_FOGBAND
 10
22.462413366120462
 20
73.334951134977132
 30
0.0
 42
0.3812119866949899
  0
VERTEX
  5
1E3F
  8
SAPA_FOGBAND
 10
22.313386563266238
 20
73.202010209716036
 30
0.0
  0
VERTEX
  5
1E40
  8
SAPA_FOGBAND
 10
22.229352173885658
 20
72.467892060238114
 30
0.0
 42
-0.3812119866949819
  0
VERTEX
  5
1E41
  8
SAPA_FOGBAND
 10
22.08032537103098
 20
72.334951134977189
 30
0.0
  0
VERTEX
  5
1E42
  8
SAPA_FOGBAND
 10
18.72860429012097
 20
72.334951134977132
 30
0.0
 42
-0.4142135623730951
  0
VERTEX
  5
1E43
  8
SAPA_FOGBAND
 10
18.528604290121152
 20
72.534951134977121
 30
0.0
  0
VERTEX
  5
1E44
  8
SAPA_FOGBAND
 10
18.528604290121152
 20
73.334951134977018
 30
0.0
 42
0.4142135623730951
  0
VERTEX
  5
1E45
  8
SAPA_FOGBAND
 10
18.328604290121099
 20
73.534951134977234
 30
0.0
  0
VERTEX
  5
1E46
  8
SAPA_FOGBAND
 10
17.928604290121239
 20
73.534951134977234
 30
0.0
 42
-0.4142135623731784
  0
VERTEX
  5
1E47
  8
SAPA_FOGBAND
 10
17.72860429012119
 20
73.734951134977223
 30
0.0
  0
VERTEX
  5
1E48
  8
SAPA_FOGBAND
 10
17.72860429012119
 20
74.806549943318544
 30
0.0
 42
-0.7038255290761633
  0
VERTEX
  5
1E49
  8
SAPA_FOGBAND
 10
17.905828264884789
 20
74.870083066347092
 30
0.0
  0
VERTEX
  5
1E4A
  8
SAPA_FOGBAND
 10
18.71970839106778
 20
73.880818642863346
 30
0.0
 42
0.9999999999999552
  0
VERTEX
  5
1E4B
  8
SAPA_FOGBAND
 10
19.337500189174751
 20
74.38908362709077
 30
0.0
  0
VERTEX
  5
1E4C
  8
SAPA_FOGBAND
 10
18.193903974663709
 20
75.779115172832178
 30
0.0
 42
0.2242387338111004
  0
VERTEX
  5
1E4D
  8
SAPA_FOGBAND
 10
17.228604290121201
 20
76.234951134977223
 30
0.0
 42
0.2242387338111007
  0
VERTEX
  5
1E4E
  8
SAPA_FOGBAND
 10
16.263304605578909
 20
75.779115172832121
 30
0.0
  0
VERTEX
  5
1E4F
  8
SAPA_FOGBAND
 10
15.11970839106765
 20
74.389083627090599
 30
0.0
 42
0.9999999999999548
  0
VERTEX
  5
1E50
  8
SAPA_FOGBAND
 10
15.737500189174609
 20
73.880818642863517
 30
0.0
  0
VERTEX
  5
1E51
  8
SAPA_FOGBAND
 10
16.551380315357601
 20
74.870083066346922
 30
0.0
 42
-0.7038255290761636
  0
VERTEX
  5
1E52
  8
SAPA_FOGBAND
 10
16.728604290121201
 20
74.806549943318714
 30
0.0
  0
VERTEX
  5
1E53
  8
SAPA_FOGBAND
 10
16.728604290121201
 20
73.73495113497728
 30
0.0
 42
-0.4142135623730117
  0
VERTEX
  5
1E54
  8
SAPA_FOGBAND
 10
16.528604290120921
 20
73.534951134977234
 30
0.0
  0
VERTEX
  5
1E55
  8
SAPA_FOGBAND
 10
16.128604290121292
 20
73.534951134977007
 30
0.0
 42
0.4142135623730951
  0
VERTEX
  5
1E56
  8
SAPA_FOGBAND
 10
15.928604290121241
 20
73.334951134977075
 30
0.0
  0
VERTEX
  5
1E57
  8
SAPA_FOGBAND
 10
15.928604290121241
 20
72.534951134977234
 30
0.0
 42
-0.4142135623731784
  0
VERTEX
  5
1E58
  8
SAPA_FOGBAND
 10
15.72860429012097
 20
72.334951134977132
 30
0.0
  0
VERTEX
  5
1E59
  8
SAPA_FOGBAND
 10
10.799075346511231
 20
72.334951134977132
 30
0.0
 42
0.2663342079579515
  0
VERTEX
  5
1E5A
  8
SAPA_FOGBAND
 10
9.936080484223325
 20
71.840163830447295
 30
0.0
  0
VERTEX
  5
1E5B
  8
SAPA_FOGBAND
 10
7.7672211220881158
 20
68.135358897138303
 30
0.0
 42
0.1331863386191133
  0
VERTEX
  5
1E5C
  8
SAPA_FOGBAND
 10
7.6302159843762487
 20
67.63014620166831
 30
0.0
 42
0.1798172683719535
  0
VERTEX
  5
1E5D
  8
SAPA_FOGBAND
 10
7.9282654399737416
 20
66.699334220061914
 30
0.0
 42
0.4294697894411934
  0
VERTEX
  5
1E5E
  8
SAPA_FOGBAND
 10
8.2181051226359472
 20
66.687691263506338
 30
0.0
  0
VERTEX
  5
1E5F
  8
SAPA_FOGBAND
 10
11.089687259165871
 20
69.543947388118681
 30
0.0
 42
-0.1982170680849751
  0
VERTEX
  5
1E60
  8
SAPA_FOGBAND
 10
11.7948995059621
 20
69.834951134977246
 30
0.0
  0
VERTEX
  5
1E61
  8
SAPA_FOGBAND
 10
11.91355749237799
 20
69.834951134977075
 30
0.0
 42
-0.2084822249037384
  0
VERTEX
  5
1E62
  8
SAPA_FOGBAND
 10
12.6461699940446
 20
69.515597094637428
 30
0.0
  0
VERTEX
  5
1E63
  8
SAPA_FOGBAND
 10
16.645439965155429
 20
69.29462355292651
 30
0.0
 42
0.9101364515750665
  0
VERTEX
  5
1E64
  8
SAPA_FOGBAND
 10
17.19828199442621
 20
69.718942750257895
 30
0.0
  0
VERTEX
  5
1E65
  8
SAPA_FOGBAND
 10
13.835956884388439
 20
70.25597219133715
 30
0.0
 42
-0.6313983151680102
  0
VERTEX
  5
1E66
  8
SAPA_FOGBAND
 10
14.12635404299952
 20
70.71327433584554
 30
0.0
  0
VERTEX
  5
1E67
  8
SAPA_FOGBAND
 10
16.964920602714511
 20
70.367107682221899
 30
0.0
 42
-0.379100851898285
  0
VERTEX
  5
1E68
  8
SAPA_FOGBAND
 10
17.228604290121201
 20
70.069313918956652
 30
0.0
  0
VERTEX
  5
1E69
  8
SAPA_FOGBAND
 10
17.228604290121201
 20
69.834951134977246
 30
0.0
 42
0.4142135623730951
  0
VERTEX
  5
1E6A
  8
SAPA_FOGBAND
 10
17.528604290121152
 20
69.534951134977334
 30
0.0
  0
VERTEX
  5
1E6B
  8
SAPA_FOGBAND
 10
22.08032537103098
 20
69.534951134977121
 30
0.0
  0
VERTEX
  5
1E6C
  8
SAPA_FOGBAND
 10
26.81796880474575
 20
69.045243358726339
 30
0.0
 42
0.4294697894411934
  0
VERTEX
  5
1E6D
  8
SAPA_FOGBAND
 10
27.107808487401812
 20
69.056886315287315
 30
0.0
 42
0.1798172683719743
  0
VERTEX
  5
1E6E
  8
SAPA_FOGBAND
 10
27.40585794300522
 20
69.987698296888311
 30
0.0
 42
0.1331863386191133
  0
VERTEX
  5
1E6F
  8
SAPA_FOGBAND
 10
27.268852805293349
 20
70.492910992358532
 30
0.0
  0
VERTEX
  5
1E70
  8
SAPA_FOGBAND
 10
23.728604290121201
 20
71.334951134977189
 30
0.0
  0
VERTEX
  5
1E71
  8
SAPA_FOGBAND
 10
23.728604290121201
 20
73.184951134977155
 30
0.0
 42
0.4142135623731212
  0
VERTEX
  5
1E72
  8
SAPA_FOGBAND
 10
23.57860429012111
 20
73.334951134977302
 30
0.0
  0
SEQEND
  5
1E73
  8
SAPA_FOGBAND
  0
CIRCLE
  5
122A
  8
SAPA_FOGBAND
 10
65.300000000000395
 20
49.609620240346828
 30
0.0
 40
0.2358905882584708
  0
POLYLINE
  5
122B
  8
SAPA_FOGBAND
 66
     1
 10
0.0
 20
0.0
 30
0.0
 70
     1
  0
VERTEX
  5
1E74
  8
SAPA_FOGBAND
 10
66.53262930356253
 20
50.081614745025377
 30
0.0
 42
0.3447914135838039
  0
VERTEX
  5
1E75
  8
SAPA_FOGBAND
 10
64.06737069643826
 20
50.081614745025377
 30
0.0
 42
-3.0828215212176171
  0
SEQEND
  5
1E76
  8
SAPA_FOGBAND
  0
POLYLINE
  5
122C
  8
SAPA_FOGBAND
 66
     1
 10
0.0
 20
0.0
 30
0.0
 70
     1
  0
VERTEX
  5
1E77
  8
SAPA_FOGBAND
 10
64.00000000000135
 20
49.206614745025369
 30
0.0
 42
0.4142135623731159
  0
VERTEX
  5
1E78
  8
SAPA_FOGBAND
 10
64.200000000001396
 20
49.006614745025381
 30
0.0
  0
VERTEX
  5
1E79
  8
SAPA_FOGBAND
 10
64.400000000001441
 20
49.006614745025381
 30
0.0
 42
-0.4142135623730951
  0
VERTEX
  5
1E7A
  8
SAPA_FOGBAND
 10
64.700000000001396
 20
48.706614745025369
 30
0.0
  0
VERTEX
  5
1E7B
  8
SAPA_FOGBAND
 10
64.700000000001154
 20
47.847023983755307
 30
0.0
 42
-0.78128606223657
  0
VERTEX
  5
1E7C
  8
SAPA_FOGBAND
 10
64.435617048057324
 20
47.781105758398724
 30
0.0
  0
VERTEX
  5
1E7D
  8
SAPA_FOGBAND
 10
64.003179037144932
 20
48.59440337013973
 30
0.0
 42
1.000000000000008
  0
VERTEX
  5
1E7E
  8
SAPA_FOGBAND
 10
63.296820962856131
 20
48.218826119910197
 30
0.0
  0
VERTEX
  5
1E7F
  8
SAPA_FOGBAND
 10
63.768866548150733
 20
47.331037494796639
 30
0.0
 42
0.2773245440598384
  0
VERTEX
  5
1E80
  8
SAPA_FOGBAND
 10
64.475224622437949
 20
46.906614745025358
 30
0.0
  0
VERTEX
  5
1E81
  8
SAPA_FOGBAND
 10
66.124775377562841
 20
46.906614745025358
 30
0.0
 42
0.2773245440598382
  0
VERTEX
  5
1E82
  8
SAPA_FOGBAND
 10
66.83113345185005
 20
47.331037494796639
 30
0.0
  0
VERTEX
  5
1E83
  8
SAPA_FOGBAND
 10
67.303179037145114
 20
48.218826119910943
 30
0.0
 42
1.0000000000000471
  0
VERTEX
  5
1E84
  8
SAPA_FOGBAND
 10
66.596820962857663
 20
48.59440337013973
 30
0.0
  0
VERTEX
  5
1E85
  8
SAPA_FOGBAND
 10
66.164382951947559
 20
47.781105758399342
 30
0.0
 42
-0.7812856265067891
  0
VERTEX
  5
1E86
  8
SAPA_FOGBAND
 10
65.900000000001441
 20
47.847023831793813
 30
0.0
  0
VERTEX
  5
1E87
  8
SAPA_FOGBAND
 10
65.900000000001214
 20
48.706614745025369
 30
0.0
 42
-0.4142135623730951
  0
VERTEX
  5
1E88
  8
SAPA_FOGBAND
 10
66.200000000001396
 20
49.006614745025331
 30
0.0
  0
VERTEX
  5
1E89
  8
SAPA_FOGBAND
 10
66.400000000001441
 20
49.006614745025331
 30
0.0
 42
0.4142135623730951
  0
VERTEX
  5
1E8A
  8
SAPA_FOGBAND
 10
66.600000000001259
 20
49.206614745025369
 30
0.0
  0
VERTEX
  5
1E8B
  8
SAPA_FOGBAND
 10
66.600000000001259
 20
49.456999383171187
 30
0.0
 42
3.9561540140094551
  0
VERTEX
  5
1E8C
  8
SAPA_FOGBAND
 10
64.00000000000135
 20
49.456999383170619
 30
0.0
  0
SEQEND
  5
1E8D
  8
SAPA_FOGBAND
  0
CIRCLE
  5
122D
  8
SAPA_FOGBAND
 10
20.450275793205481
 20
36.317686747689443
 30
0.0
 40
0.3497642965545452
  0
POLYLINE
  5
122E
  8
SAPA_FOGBAND
 66
     1
 10
0.0
 20
0.0
 30
0.0
 70
     1
  0
VERTEX
  5
1E8E
  8
SAPA_FOGBAND
 10
19.773051818441878
 20
33.090142933213087
 30
0.0
  0
VERTEX
  5
1E8F
  8
SAPA_FOGBAND
 10
18.959171692259119
 20
34.0794073566965
 30
0.0
 42
0.9999999999999539
  0
VERTEX
  5
1E90
  8
SAPA_FOGBAND
 10
18.341379894151931
 20
33.57114237246936
 30
0.0
  0
VERTEX
  5
1E91
  8
SAPA_FOGBAND
 10
19.484976108662959
 20
32.181110826728059
 30
0.0
 42
0.2242387338111005
  0
VERTEX
  5
1E92
  8
SAPA_FOGBAND
 10
20.450275793205481
 20
31.725274864582961
 30
0.0
 42
0.2242387338111004
  0
VERTEX
  5
1E93
  8
SAPA_FOGBAND
 10
21.415575477747989
 20
32.181110826728059
 30
0.0
  0
VERTEX
  5
1E94
  8
SAPA_FOGBAND
 10
22.559171692259032
 20
33.57114237246936
 30
0.0
 42
0.9999999999999538
  0
VERTEX
  5
1E95
  8
SAPA_FOGBAND
 10
21.94137989415184
 20
34.0794073566965
 30
0.0
  0
VERTEX
  5
1E96
  8
SAPA_FOGBAND
 10
21.127499767968839
 20
33.090142933213087
 30
0.0
 42
-0.7038255290761731
  0
VERTEX
  5
1E97
  8
SAPA_FOGBAND
 10
20.950275793205481
 20
33.153676056241352
 30
0.0
  0
VERTEX
  5
1E98
  8
SAPA_FOGBAND
 10
20.950275793205481
 20
34.225274864582957
 30
0.0
 42
-0.4142135623730117
  0
VERTEX
  5
1E99
  8
SAPA_FOGBAND
 10
21.15027579320552
 20
34.425274864583002
 30
0.0
  0
VERTEX
  5
1E9A
  8
SAPA_FOGBAND
 10
21.55027579320539
 20
34.425274864583002
 30
0.0
 42
0.4142135623730951
  0
VERTEX
  5
1E9B
  8
SAPA_FOGBAND
 10
21.750275793205429
 20
34.625274864582941
 30
0.0
  0
VERTEX
  5
1E9C
  8
SAPA_FOGBAND
 10
21.750275793205429
 20
35.425274864583002
 30
0.0
 42
-0.4142135623731784
  0
VERTEX
  5
1E9D
  8
SAPA_FOGBAND
 10
21.950275793205481
 20
35.625274864583048
 30
0.0
  0
VERTEX
  5
1E9E
  8
SAPA_FOGBAND
 10
24.537936375154221
 20
35.625274864582821
 30
0.0
 42
-0.1991665782226951
  0
VERTEX
  5
1E9F
  8
SAPA_FOGBAND
 10
24.608716181162421
 20
35.595916347165257
 30
0.0
 42
0.6685323900181889
  0
VERTEX
  5
1EA0
  8
SAPA_FOGBAND
 10
24.950275793205481
 20
35.737199312348707
 30
0.0
  0
VERTEX
  5
1EA1
  8
SAPA_FOGBAND
 10
24.950275793205481
 20
38.185632321173792
 30
0.0
 42
0.4679280380114118
  0
VERTEX
  5
1EA2
  8
SAPA_FOGBAND
 10
24.71449870556556
 20
38.382406303193761
 30
0.0
  0
VERTEX
  5
1EA3
  8
SAPA_FOGBAND
 10
24.014498705565739
 20
38.25513357592115
 30
0.0
 42
0.3624646087619923
  0
VERTEX
  5
1EA4
  8
SAPA_FOGBAND
 10
23.850275793205569
 20
38.05835959390118
 30
0.0
  0
VERTEX
  5
1EA5
  8
SAPA_FOGBAND
 10
23.850275793205569
 20
37.942840624466839
 30
0.0
 42
-0.3515239862758881
  0
VERTEX
  5
1EA6
  8
SAPA_FOGBAND
 10
23.693661884769408
 20
37.747603212430143
 30
0.0
  0
VERTEX
  5
1EA7
  8
SAPA_FOGBAND
 10
22.170852041697099
 20
37.42741466839459
 30
0.0
 42
-0.7515704563522097
  0
VERTEX
  5
1EA8
  8
SAPA_FOGBAND
 10
22.080603877385769
 20
37.597009264601297
 30
0.0
  0
VERTEX
  5
1EA9
  8
SAPA_FOGBAND
 10
23.510917803924929
 20
37.820040327429751
 30
0.0
 42
0.7197481174278709
  0
VERTEX
  5
1EAA
  8
SAPA_FOGBAND
 10
23.223551623345639
 20
38.418395179273148
 30
0.0
  0
VERTEX
  5
1EAB
  8
SAPA_FOGBAND
 10
21.083070115254021
 20
38.150194489477371
 30
0.0
 42
-0.5053637834251774
  0
VERTEX
  5
1EAC
  8
SAPA_FOGBAND
 10
20.856275793205651
 20
38.233274864582661
 30
0.0
  0
VERTEX
  5
1EAD
  8
SAPA_FOGBAND
 10
20.8422757932053
 20
38.281274864583111
 30
0.0
 42
0.3333333333331314
  0
VERTEX
  5
1EAE
  8
SAPA_FOGBAND
 10
20.65027579320553
 20
38.425274864582889
 30
0.0
  0
VERTEX
  5
1EAF
  8
SAPA_FOGBAND
 10
20.250275793205429
 20
38.425274864583002
 30
0.0
 42
0.3333333333331314
  0
VERTEX
  5
1EB0
  8
SAPA_FOGBAND
 10
20.058275793205429
 20
38.281274864583231
 30
0.0
  0
VERTEX
  5
1EB1
  8
SAPA_FOGBAND
 10
20.044275793205301
 20
38.233274864582768
 30
0.0
 42
-0.5053637834251772
  0
VERTEX
  5
1EB2
  8
SAPA_FOGBAND
 10
19.817481471156938
 20
38.150194489477258
 30
0.0
  0
VERTEX
  5
1EB3
  8
SAPA_FOGBAND
 10
17.67699996306531
 20
38.418395179273148
 30
0.0
 42
0.7197481174278715
  0
VERTEX
  5
1EB4
  8
SAPA_FOGBAND
 10
17.38963378248603
 20
37.820040327429751
 30
0.0
  0
VERTEX
  5
1EB5
  8
SAPA_FOGBAND
 10
18.819947709025179
 20
37.597009264601411
 30
0.0
 42
-0.7515704563522123
  0
VERTEX
  5
1EB6
  8
SAPA_FOGBAND
 10
18.729699544713849
 20
37.42741466839459
 30
0.0
  0
VERTEX
  5
1EB7
  8
SAPA_FOGBAND
 10
17.20688970164154
 20
37.747603212430022
 30
0.0
 42
-0.3515239862758881
  0
VERTEX
  5
1EB8
  8
SAPA_FOGBAND
 10
17.050275793205159
 20
37.942840624466839
 30
0.0
  0
VERTEX
  5
1EB9
  8
SAPA_FOGBAND
 10
17.050275793205159
 20
38.05835959390118
 30
0.0
 42
0.3624646087619912
  0
VERTEX
  5
1EBA
  8
SAPA_FOGBAND
 10
16.88605288084521
 20
38.25513357592115
 30
0.0
  0
VERTEX
  5
1EBB
  8
SAPA_FOGBAND
 10
16.186052880845391
 20
38.382406303193761
 30
0.0
 42
0.4679280380114149
  0
VERTEX
  5
1EBC
  8
SAPA_FOGBAND
 10
15.95027579320548
 20
38.185632321173792
 30
0.0
  0
VERTEX
  5
1EBD
  8
SAPA_FOGBAND
 10
15.95027579320548
 20
35.737199312356438
 30
0.0
 42
0.6685323900181927
  0
VERTEX
  5
1EBE
  8
SAPA_FOGBAND
 10
16.291835405248531
 20
35.595916347165257
 30
0.0
 42
-0.199166578222699
  0
VERTEX
  5
1EBF
  8
SAPA_FOGBAND
 10
16.362615211256738
 20
35.625274864582821
 30
0.0
  0
VERTEX
  5
1EC0
  8
SAPA_FOGBAND
 10
18.950275793205471
 20
35.625274864583048
 30
0.0
 42
-0.4142135623730951
  0
VERTEX
  5
1EC1
  8
SAPA_FOGBAND
 10
19.15027579320552
 20
35.425274864583002
 30
0.0
  0
VERTEX
  5
1EC2
  8
SAPA_FOGBAND
 10
19.15027579320552
 20
34.625274864582941
 30
0.0
 42
0.4142135623730951
  0
VERTEX
  5
1EC3
  8
SAPA_FOGBAND
 10
19.350275793205569
 20
34.425274864583002
 30
0.0
  0
VERTEX
  5
1EC4
  8
SAPA_FOGBAND
 10
19.750275793205429
 20
34.425274864583002
 30
0.0
 42
-0.4142135623731784
  0
VERTEX
  5
1EC5
  8
SAPA_FOGBAND
 10
19.950275793205481
 20
34.225274864582957
 30
0.0
  0
VERTEX
  5
1EC6
  8
SAPA_FOGBAND
 10
19.950275793205481
 20
33.153676056241352
 30
0.0
 42
-0.7038255290761719
  0
SEQEND
  5
1EC7
  8
SAPA_FOGBAND
  0
CIRCLE
  5
122F
  8
SAPA_FOGBAND
 10
78.196625812278398
 20
136.506543489259
 30
0.0
 40
0.3497642965545452
  0
POLYLINE
  5
1230
  8
SAPA_FOGBAND
 66
     1
 10
0.0
 20
0.0
 30
0.0
 70
     1
  0
VERTEX
  5
1EC8
  8
SAPA_FOGBAND
 10
68.504425119077496
 20
131.66916197935711
 30
0.0
  0
VERTEX
  5
1EC9
  8
SAPA_FOGBAND
 10
72.057570791543185
 20
133.9082250254084
 30
0.0
 42
-0.198217068084988
  0
VERTEX
  5
1ECA
  8
SAPA_FOGBAND
 10
72.762795997499325
 20
134.19919736533271
 30
0.0
  0
VERTEX
  5
1ECB
  8
SAPA_FOGBAND
 10
72.881453983797655
 20
134.19919208089709
 30
0.0
 42
-0.208482224903749
  0
VERTEX
  5
1ECC
  8
SAPA_FOGBAND
 10
73.614052262297719
 20
133.8798054139564
 30
0.0
  0
VERTEX
  5
1ECD
  8
SAPA_FOGBAND
 10
77.218349233865496
 20
133.20923253133611
 30
0.0
 42
0.9200886903235648
  0
VERTEX
  5
1ECE
  8
SAPA_FOGBAND
 10
77.349876970212392
 20
133.6898304251846
 30
0.0
  0
VERTEX
  5
1ECF
  8
SAPA_FOGBAND
 10
74.803872124085501
 20
134.62012752273239
 30
0.0
 42
-0.6313983151680703
  0
VERTEX
  5
1ED0
  8
SAPA_FOGBAND
 10
75.094289648371159
 20
135.0774167339421
 30
0.0
  0
VERTEX
  5
1ED1
  8
SAPA_FOGBAND
 10
77.932840788729663
 20
134.73112366502679
 30
0.0
 42
-0.3791008518980832
  0
VERTEX
  5
1ED2
  8
SAPA_FOGBAND
 10
78.196511213622898
 20
134.43331815889761
 30
0.0
  0
VERTEX
  5
1ED3
  8
SAPA_FOGBAND
 10
78.196500776271023
 20
134.19895537515049
 30
0.0
 42
0.4142135623733171
  0
VERTEX
  5
1ED4
  8
SAPA_FOGBAND
 10
78.496487415464344
 20
133.8989420149403
 30
0.0
  0
VERTEX
  5
1ED5
  8
SAPA_FOGBAND
 10
83.048208491861274
 20
133.89873930392511
 30
0.0
  0
VERTEX
  5
1ED6
  8
SAPA_FOGBAND
 10
91.607083491239067
 20
133.20208628852981
 30
0.0
 42
0.8718123466474258
  0
VERTEX
  5
1ED7
  8
SAPA_FOGBAND
 10
91.806009232386742
 20
134.17257250827859
 30
0.0
  0
VERTEX
  5
1ED8
  8
SAPA_FOGBAND
 10
84.696612107388319
 20
136.19866589500401
 30
0.0
  0
VERTEX
  5
1ED9
  8
SAPA_FOGBAND
 10
84.696694497185504
 20
138.0486658931693
 30
0.0
 42
0.4142135623730951
  0
VERTEX
  5
1EDA
  8
SAPA_FOGBAND
 10
84.546701177588602
 20
138.198672573274
 30
0.0
  0
VERTEX
  5
1EDB
  8
SAPA_FOGBAND
 10
83.430510254695037
 20
138.19872228286559
 30
0.0
 42
0.3812119866950211
  0
VERTEX
  5
1EDC
  8
SAPA_FOGBAND
 10
83.281477531460027
 20
138.0657879946491
 30
0.0
  0
VERTEX
  5
1EDD
  8
SAPA_FOGBAND
 10
83.197410448193295
 20
137.33167358837269
 30
0.0
 42
-0.3812119866949977
  0
VERTEX
  5
1EDE
  8
SAPA_FOGBAND
 10
83.048377724958286
 20
137.1987393001564
 30
0.0
  0
VERTEX
  5
1EDF
  8
SAPA_FOGBAND
 10
79.696656647372023
 20
137.19888856914071
 30
0.0
 42
-0.4142135623729287
  0
VERTEX
  5
1EE0
  8
SAPA_FOGBAND
 10
79.496665554576794
 20
137.3988974759479
 30
0.0
  0
VERTEX
  5
1EE1
  8
SAPA_FOGBAND
 10
79.496701182597462
 20
138.1988974751543
 30
0.0
 42
0.414213562373428
  0
VERTEX
  5
1EE2
  8
SAPA_FOGBAND
 10
79.29671008979949
 20
138.3989063819613
 30
0.0
  0
VERTEX
  5
1EE3
  8
SAPA_FOGBAND
 10
78.896710090196393
 20
138.39892419597109
 30
0.0
 42
-0.4142135623730951
  0
VERTEX
  5
1EE4
  8
SAPA_FOGBAND
 10
78.696718997401149
 20
138.59893310277829
 30
0.0
  0
VERTEX
  5
1EE5
  8
SAPA_FOGBAND
 10
78.696766721081076
 20
139.6705319100567
 30
0.0
 42
-0.7038255290759504
  0
VERTEX
  5
1EE6
  8
SAPA_FOGBAND
 10
78.873993525118749
 20
139.73405714034811
 30
0.0
  0
VERTEX
  5
1EE7
  8
SAPA_FOGBAND
 10
79.687829593577135
 20
138.74475647167341
 30
0.0
 42
0.9999999999998999
  0
VERTEX
  5
1EE8
  8
SAPA_FOGBAND
 10
80.305644026665504
 20
139.25299394202301
 30
0.0
  0
VERTEX
  5
1EE9
  8
SAPA_FOGBAND
 10
79.162109718379725
 20
140.64307641647241
 30
0.0
 42
0.2242387338111125
  0
VERTEX
  5
1EEA
  8
SAPA_FOGBAND
 10
78.196830335460618
 20
141.09895536781141
 30
0.0
 42
0.2242387338111175
  0
VERTEX
  5
1EEB
  8
SAPA_FOGBAND
 10
77.23151035121009
 20
140.64316239576581
 30
0.0
  0
VERTEX
  5
1EEC
  8
SAPA_FOGBAND
 10
76.087852232741625
 20
139.25318178148871
 30
0.0
 42
0.9999999999999998
  0
VERTEX
  5
1EED
  8
SAPA_FOGBAND
 10
76.705621394642549
 20
138.7448892843924
 30
0.0
  0
VERTEX
  5
1EEE
  8
SAPA_FOGBAND
 10
77.519545576933979
 20
139.73411746072199
 30
0.0
 42
-0.7038255290762128
  0
VERTEX
  5
1EEF
  8
SAPA_FOGBAND
 10
77.696766722072425
 20
139.67057644508299
 30
0.0
  0
VERTEX
  5
1EF0
  8
SAPA_FOGBAND
 10
77.696718998391589
 20
138.59897763780421
 30
0.0
 42
-0.4142135623730951
  0
VERTEX
  5
1EF1
  8
SAPA_FOGBAND
 10
77.496710091583736
 20
138.39898654500729
 30
0.0
  0
VERTEX
  5
1EF2
  8
SAPA_FOGBAND
 10
77.096710091981549
 20
138.39900435901731
 30
0.0
 42
0.4142135623732615
  0
VERTEX
  5
1EF3
  8
SAPA_FOGBAND
 10
76.896701185176425
 20
138.1990132662215
 30
0.0
  0
VERTEX
  5
1EF4
  8
SAPA_FOGBAND
 10
76.896665557154847
 20
137.3990132670144
 30
0.0
 42
-0.4142135623730951
  0
VERTEX
  5
1EF5
  8
SAPA_FOGBAND
 10
76.696656650347904
 20
137.19902217421779
 30
0.0
  0
VERTEX
  5
1EF6
  8
SAPA_FOGBAND
 10
71.767127711626472
 20
137.19924171091631
 30
0.0
 42
0.2663342079579334
  0
VERTEX
  5
1EF7
  8
SAPA_FOGBAND
 10
70.904110814830346
 20
136.70449284037591
 30
0.0
  0
VERTEX
  5
1EF8
  8
SAPA_FOGBAND
 10
68.053605590891493
 20
133.1168496916836
 30
0.0
 42
0.0528612085595121
  0
VERTEX
  5
1EF9
  8
SAPA_FOGBAND
 10
67.966848184681567
 20
132.92466943028859
 30
0.0
 42
0.2389362379610668
  0
VERTEX
  5
1EFA
  8
SAPA_FOGBAND
 10
68.214585955226994
 20
131.68081784392459
 30
0.0
 42
0.4294697894410435
  0
SEQEND
  5
1EFB
  8
SAPA_FOGBAND
  0
ARC
  5
1231
  8
SAPA_FOGBAND
 62
     2
 10
79.996900396140504
 20
105.880151198001
 30
0.0
 40
0.2
 50
90.0
 51
180.0
  0
CIRCLE
  5
1232
  8
SAPA_FOGBAND
 62
     2
 10
80.252565245407126
 20
95.97256308110758
 30
0.0
 40
0.3497642965545452
  0
POLYLINE
  5
1233
  8
SAPA_FOGBAND
 62
     2
 66
     1
 10
0.0
 20
0.0
 30
0.0
 70
     1
  0
VERTEX
  5
1EFC
  8
SAPA_FOGBAND
 62
     2
 10
84.752565245407141
 20
95.392075645774568
 30
0.0
  0
VERTEX
  5
1EFD
  8
SAPA_FOGBAND
 62
     2
 10
84.752565245407141
 20
105.840508654592
 30
0.0
 42
0.467928038011413
  0
VERTEX
  5
1EFE
  8
SAPA_FOGBAND
 62
     2
 10
84.516788157767209
 20
106.03728263661201
 30
0.0
  0
VERTEX
  5
1EFF
  8
SAPA_FOGBAND
 62
     2
 10
83.816788157767178
 20
105.91000990933919
 30
0.0
 42
0.362464608761992
  0
VERTEX
  5
1F00
  8
SAPA_FOGBAND
 62
     2
 10
83.652565245407246
 20
105.7132359273192
 30
0.0
  0
VERTEX
  5
1F01
  8
SAPA_FOGBAND
 62
     2
 10
83.652565245407246
 20
105.5977169578851
 30
0.0
 42
-0.3515239862758894
  0
VERTEX
  5
1F02
  8
SAPA_FOGBAND
 62
     2
 10
83.495951336970833
 20
105.4024795458481
 30
0.0
  0
VERTEX
  5
1F03
  8
SAPA_FOGBAND
 62
     2
 10
81.973141493898765
 20
105.08229100181261
 30
0.0
 42
-0.7515704563522143
  0
VERTEX
  5
1F04
  8
SAPA_FOGBAND
 62
     2
 10
81.882893329587446
 20
105.2518855980195
 30
0.0
  0
VERTEX
  5
1F05
  8
SAPA_FOGBAND
 62
     2
 10
83.313207256126589
 20
105.4749166608479
 30
0.0
 42
0.7197481174278725
  0
VERTEX
  5
1F06
  8
SAPA_FOGBAND
 62
     2
 10
83.025841075547063
 20
106.07327151269131
 30
0.0
  0
VERTEX
  5
1F07
  8
SAPA_FOGBAND
 62
     2
 10
80.885359567455453
 20
105.8050708228954
 30
0.0
 42
-0.5053637834251817
  0
VERTEX
  5
1F08
  8
SAPA_FOGBAND
 62
     2
 10
80.65856524540709
 20
105.8881511980008
 30
0.0
  0
VERTEX
  5
1F09
  8
SAPA_FOGBAND
 62
     2
 10
80.644565245406966
 20
105.9361511980011
 30
0.0
 42
0.3333333333331312
  0
VERTEX
  5
1F0A
  8
SAPA_FOGBAND
 62
     2
 10
80.452565245406944
 20
106.080151198001
 30
0.0
  0
VERTEX
  5
1F0B
  8
SAPA_FOGBAND
 62
     2
 10
80.052565245407095
 20
106.080151198001
 30
0.0
 42
0.3333333333331312
  0
VERTEX
  5
1F0C
  8
SAPA_FOGBAND
 62
     2
 10
79.860565245407088
 20
105.9361511980012
 30
0.0
  0
VERTEX
  5
1F0D
  8
SAPA_FOGBAND
 62
     2
 10
79.846565245406964
 20
105.8881511980008
 30
0.0
 42
-0.5053637834251815
  0
VERTEX
  5
1F0E
  8
SAPA_FOGBAND
 62
     2
 10
79.619770923358601
 20
105.8050708228955
 30
0.0
  0
VERTEX
  5
1F0F
  8
SAPA_FOGBAND
 62
     2
 10
77.479289415266976
 20
106.07327151269131
 30
0.0
 42
0.7197481174278725
  0
VERTEX
  5
1F10
  8
SAPA_FOGBAND
 62
     2
 10
77.191923234687692
 20
105.4749166608479
 30
0.0
  0
VERTEX
  5
1F11
  8
SAPA_FOGBAND
 62
     2
 10
78.622237161226622
 20
105.2518855980194
 30
0.0
 42
-0.7515704563522143
  0
VERTEX
  5
1F12
  8
SAPA_FOGBAND
 62
     2
 10
78.531988996915288
 20
105.08229100181271
 30
0.0
  0
VERTEX
  5
1F13
  8
SAPA_FOGBAND
 62
     2
 10
77.009179153842979
 20
105.40247954584819
 30
0.0
 42
-0.3515239862758894
  0
VERTEX
  5
1F14
  8
SAPA_FOGBAND
 62
     2
 10
76.852565245406822
 20
105.5977169578851
 30
0.0
  0
VERTEX
  5
1F15
  8
SAPA_FOGBAND
 62
     2
 10
76.852565245406822
 20
105.7132359273192
 30
0.0
 42
0.3624646087619919
  0
VERTEX
  5
1F16
  8
SAPA_FOGBAND
 62
     2
 10
76.688342333046876
 20
105.91000990933919
 30
0.0
  0
VERTEX
  5
1F17
  8
SAPA_FOGBAND
 62
     2
 10
75.988342333047058
 20
106.03728263661201
 30
0.0
 42
0.467928038011413
  0
VERTEX
  5
1F18
  8
SAPA_FOGBAND
 62
     2
 10
75.752565245406913
 20
105.840508654592
 30
0.0
  0
VERTEX
  5
1F19
  8
SAPA_FOGBAND
 62
     2
 10
75.752565245406913
 20
95.392075645774568
 30
0.0
 42
0.6685323900181888
  0
VERTEX
  5
1F1A
  8
SAPA_FOGBAND
 62
     2
 10
76.094124857423594
 20
95.250792680609905
 30
0.0
 42
-0.1991665782226962
  0
VERTEX
  5
1F1B
  8
SAPA_FOGBAND
 62
     2
 10
76.164904663458401
 20
95.280151198001064
 30
0.0
  0
VERTEX
  5
1F1C
  8
SAPA_FOGBAND
 62
     2
 10
78.752565245407141
 20
95.280151198001064
 30
0.0
 42
-0.4142135623730951
  0
VERTEX
  5
1F1D
  8
SAPA_FOGBAND
 62
     2
 10
78.952565245407186
 20
95.080151198001033
 30
0.0
  0
VERTEX
  5
1F1E
  8
SAPA_FOGBAND
 62
     2
 10
78.952565245407186
 20
94.280151198001064
 30
0.0
 42
0.4142135623730951
  0
VERTEX
  5
1F1F
  8
SAPA_FOGBAND
 62
     2
 10
79.152565245407004
 20
94.080151198001019
 30
0.0
  0
VERTEX
  5
1F20
  8
SAPA_FOGBAND
 62
     2
 10
79.552565245407095
 20
94.080151198001019
 30
0.0
 42
-0.4142135623731784
  0
VERTEX
  5
1F21
  8
SAPA_FOGBAND
 62
     2
 10
79.752565245406913
 20
93.880151198000988
 30
0.0
  0
VERTEX
  5
1F22
  8
SAPA_FOGBAND
 62
     2
 10
79.752565245406913
 20
92.808552389659596
 30
0.0
 42
-0.7038255290761635
  0
VERTEX
  5
1F23
  8
SAPA_FOGBAND
 62
     2
 10
79.575341270643548
 20
92.745019266631232
 30
0.0
  0
VERTEX
  5
1F24
  8
SAPA_FOGBAND
 62
     2
 10
78.761461144460554
 20
93.734283690114637
 30
0.0
 42
0.9999999999999552
  0
VERTEX
  5
1F25
  8
SAPA_FOGBAND
 62
     2
 10
78.143669346353363
 20
93.226018705887597
 30
0.0
  0
VERTEX
  5
1F26
  8
SAPA_FOGBAND
 62
     2
 10
79.287265560864626
 20
91.83598716014609
 30
0.0
 42
0.2242387338111004
  0
VERTEX
  5
1F27
  8
SAPA_FOGBAND
 62
     2
 10
80.252565245406913
 20
91.380151198000988
 30
0.0
 42
0.2242387338111004
  0
VERTEX
  5
1F28
  8
SAPA_FOGBAND
 62
     2
 10
81.217864929949656
 20
91.83598716014609
 30
0.0
  0
VERTEX
  5
1F29
  8
SAPA_FOGBAND
 62
     2
 10
82.361461144460705
 20
93.226018705887384
 30
0.0
 42
0.9999999999999548
  0
VERTEX
  5
1F2A
  8
SAPA_FOGBAND
 62
     2
 10
81.743669346353485
 20
93.734283690114765
 30
0.0
  0
VERTEX
  5
1F2B
  8
SAPA_FOGBAND
 62
     2
 10
80.929789220170505
 20
92.745019266631104
 30
0.0
 42
-0.7038255290761635
  0
VERTEX
  5
1F2C
  8
SAPA_FOGBAND
 62
     2
 10
80.752565245407141
 20
92.808552389659596
 30
0.0
  0
VERTEX
  5
1F2D
  8
SAPA_FOGBAND
 62
     2
 10
80.752565245407141
 20
93.880151198000988
 30
0.0
 42
-0.4142135623730117
  0
VERTEX
  5
1F2E
  8
SAPA_FOGBAND
 62
     2
 10
80.952565245407186
 20
94.080151198001019
 30
0.0
  0
VERTEX
  5
1F2F
  8
SAPA_FOGBAND
 62
     2
 10
81.352565245407064
 20
94.080151198001019
 30
0.0
 42
0.4142135623730951
  0
VERTEX
  5
1F30
  8
SAPA_FOGBAND
 62
     2
 10
81.552565245407095
 20
94.280151198001064
 30
0.0
  0
VERTEX
  5
1F31
  8
SAPA_FOGBAND
 62
     2
 10
81.552565245407095
 20
95.080151198001147
 30
0.0
 42
-0.4142135623731783
  0
VERTEX
  5
1F32
  8
SAPA_FOGBAND
 62
     2
 10
81.752565245406899
 20
95.280151198001064
 30
0.0
  0
VERTEX
  5
1F33
  8
SAPA_FOGBAND
 62
     2
 10
84.34022582735588
 20
95.280151198001064
 30
0.0
 42
-0.1991665782226962
  0
VERTEX
  5
1F34
  8
SAPA_FOGBAND
 62
     2
 10
84.411005633364084
 20
95.250792680583388
 30
0.0
 42
0.6685323900181887
  0
VERTEX
  5
1F35
  8
SAPA_FOGBAND
 62
     2
 10
84.752565245407141
 20
95.392075645774568
 30
0.0
  0
SEQEND
  5
1F36
  8
SAPA_FOGBAND
 62
     2
  0
POLYLINE
  5
1234
  8
SAPA_FOGBAND
 66
     1
 10
0.0
 20
0.0
 30
0.0
 70
     1
  0
VERTEX
  5
1F37
  8
SAPA_FOGBAND
 10
-15.8943504737904
 20
40.690727555663102
 30
0.0
 42
-0.4679153941829814
  0
VERTEX
  5
1F38
  8
SAPA_FOGBAND
 10
-15.658573386322599
 20
40.493961871815017
 30
0.0
  0
VERTEX
  5
1F39
  8
SAPA_FOGBAND
 10
-15.65838455628297
 20
35.942838045867013
 30
0.0
 42
-0.6685323900181767
  0
VERTEX
  5
1F3A
  8
SAPA_FOGBAND
 10
-15.99994416832579
 20
35.801555080675833
 30
0.0
 42
0.1991665782226247
  0
VERTEX
  5
1F3B
  8
SAPA_FOGBAND
 10
-16.070723974334229
 20
35.830913598093389
 30
0.0
  0
VERTEX
  5
1F3C
  8
SAPA_FOGBAND
 10
-18.658384556282972
 20
35.830913598093623
 30
0.0
 42
0.4142135623731784
  0
VERTEX
  5
1F3D
  8
SAPA_FOGBAND
 10
-18.858384556282779
 20
35.630913598093571
 30
0.0
  0
VERTEX
  5
1F3E
  8
SAPA_FOGBAND
 10
-18.858384556282779
 20
34.830913598093503
 30
0.0
 42
-0.4142135623731368
  0
VERTEX
  5
1F3F
  8
SAPA_FOGBAND
 10
-19.058384556282832
 20
34.630913598093457
 30
0.0
  0
VERTEX
  5
1F40
  8
SAPA_FOGBAND
 10
-19.458384556282919
 20
34.630913598093571
 30
0.0
 42
0.4142135623733448
  0
VERTEX
  5
1F41
  8
SAPA_FOGBAND
 10
-19.658384556282741
 20
34.430913598093532
 30
0.0
  0
VERTEX
  5
1F42
  8
SAPA_FOGBAND
 10
-19.658384556282741
 20
33.359314789752027
 30
0.0
 42
0.703825529076487
  0
VERTEX
  5
1F43
  8
SAPA_FOGBAND
 10
-19.481160581519369
 20
33.295781666723663
 30
0.0
  0
VERTEX
  5
1F44
  8
SAPA_FOGBAND
 10
-18.667280455336609
 20
34.285046090207061
 30
0.0
 42
-0.9999999999999856
  0
VERTEX
  5
1F45
  8
SAPA_FOGBAND
 10
-18.049488657229411
 20
33.776781105979921
 30
0.0
  0
VERTEX
  5
1F46
  8
SAPA_FOGBAND
 10
-19.193084871740218
 20
32.386749560238627
 30
0.0
 42
-0.2242387338110932
  0
VERTEX
  5
1F47
  8
SAPA_FOGBAND
 10
-20.158384556282972
 20
31.930913598093412
 30
0.0
 42
-0.2242387338111004
  0
VERTEX
  5
1F48
  8
SAPA_FOGBAND
 10
-21.123684240825479
 20
32.386749560238627
 30
0.0
  0
VERTEX
  5
1F49
  8
SAPA_FOGBAND
 10
-22.267280455336518
 20
33.776781105979921
 30
0.0
 42
-1.0000000000000899
  0
VERTEX
  5
1F4A
  8
SAPA_FOGBAND
 10
-21.64948865722933
 20
34.285046090207061
 30
0.0
  0
VERTEX
  5
1F4B
  8
SAPA_FOGBAND
 10
-20.835608531046329
 20
33.295781666723769
 30
0.0
 42
0.7038255290763446
  0
VERTEX
  5
1F4C
  8
SAPA_FOGBAND
 10
-20.658384556282972
 20
33.35931478975192
 30
0.0
  0
VERTEX
  5
1F4D
  8
SAPA_FOGBAND
 10
-20.658384556282972
 20
34.430913598093532
 30
0.0
 42
0.4142135623729703
  0
VERTEX
  5
1F4E
  8
SAPA_FOGBAND
 10
-20.858384556282779
 20
34.630913598093571
 30
0.0
  0
VERTEX
  5
1F4F
  8
SAPA_FOGBAND
 10
-21.258384556282881
 20
34.630913598093571
 30
0.0
 42
-0.4142135623730117
  0
VERTEX
  5
1F50
  8
SAPA_FOGBAND
 10
-21.458384556282919
 20
34.830913598093503
 30
0.0
  0
VERTEX
  5
1F51
  8
SAPA_FOGBAND
 10
-21.458384556282699
 20
35.630913598093571
 30
0.0
 42
0.4142135623731784
  0
VERTEX
  5
1F52
  8
SAPA_FOGBAND
 10
-21.658384556282972
 20
35.830913598093623
 30
0.0
  0
VERTEX
  5
1F53
  8
SAPA_FOGBAND
 10
-24.24604513823148
 20
35.830913598093282
 30
0.0
 42
0.1991665782227297
  0
VERTEX
  5
1F54
  8
SAPA_FOGBAND
 10
-24.316824944239912
 20
35.801555080675833
 30
0.0
 42
-0.6685323900181511
  0
VERTEX
  5
1F55
  8
SAPA_FOGBAND
 10
-24.658384556282972
 20
35.9428380458669
 30
0.0
  0
VERTEX
  5
1F56
  8
SAPA_FOGBAND
 10
-24.658573385077279
 20
40.493931852034159
 30
0.0
 42
-0.4679406819625479
  0
VERTEX
  5
1F57
  8
SAPA_FOGBAND
 10
-24.42279629760948
 20
40.690714132226041
 30
0.0
  0
VERTEX
  5
1F58
  8
SAPA_FOGBAND
 10
-23.72283321251167
 20
40.563448116753868
 30
0.0
 42
-0.3624646087620003
  0
VERTEX
  5
1F59
  8
SAPA_FOGBAND
 10
-23.558610300151731
 20
40.366674134734012
 30
0.0
  0
VERTEX
  5
1F5A
  8
SAPA_FOGBAND
 10
-23.558610300151731
 20
40.251155165299572
 30
0.0
 42
0.3515239862759624
  0
VERTEX
  5
1F5B
  8
SAPA_FOGBAND
 10
-23.401996391715571
 20
40.055917753262861
 30
0.0
  0
VERTEX
  5
1F5C
  8
SAPA_FOGBAND
 10
-21.879186548643261
 20
39.735729209227429
 30
0.0
 42
0.751570456352482
  0
VERTEX
  5
1F5D
  8
SAPA_FOGBAND
 10
-21.788938384331932
 20
39.905323805434023
 30
0.0
  0
VERTEX
  5
1F5E
  8
SAPA_FOGBAND
 10
-23.219252310871081
 20
40.12835486826247
 30
0.0
 42
-0.7197481174277197
  0
VERTEX
  5
1F5F
  8
SAPA_FOGBAND
 10
-22.93188613029157
 20
40.72670972010598
 30
0.0
  0
VERTEX
  5
1F60
  8
SAPA_FOGBAND
 10
-20.791404622200179
 20
40.45850903031009
 30
0.0
 42
0.5053637834253038
  0
VERTEX
  5
1F61
  8
SAPA_FOGBAND
 10
-20.564610300151578
 20
40.54158940541538
 30
0.0
  0
VERTEX
  5
1F62
  8
SAPA_FOGBAND
 10
-20.550610300151462
 20
40.589589405415829
 30
0.0
 42
-0.3333333333331249
  0
VERTEX
  5
1F63
  8
SAPA_FOGBAND
 10
-20.358610300151462
 20
40.733589405415607
 30
0.0
  0
VERTEX
  5
1F64
  8
SAPA_FOGBAND
 10
-19.958610300151591
 20
40.733589405415728
 30
0.0
 42
-0.3333333333331312
  0
VERTEX
  5
1F65
  8
SAPA_FOGBAND
 10
-19.76661030015158
 20
40.58958940541595
 30
0.0
  0
VERTEX
  5
1F66
  8
SAPA_FOGBAND
 10
-19.75261030015146
 20
40.541589405415607
 30
0.0
 42
0.505363783425254
  0
VERTEX
  5
1F67
  8
SAPA_FOGBAND
 10
-19.5258159781031
 20
40.458509030309983
 30
0.0
  0
VERTEX
  5
1F68
  8
SAPA_FOGBAND
 10
-17.385334470011468
 20
40.726709720105873
 30
0.0
 42
-0.7197481174279296
  0
VERTEX
  5
1F69
  8
SAPA_FOGBAND
 10
-17.097968289432188
 20
40.12835486826247
 30
0.0
  0
VERTEX
  5
1F6A
  8
SAPA_FOGBAND
 10
-18.528282215971341
 20
39.905323805434129
 30
0.0
 42
0.7515704563522813
  0
VERTEX
  5
1F6B
  8
SAPA_FOGBAND
 10
-18.43803405165978
 20
39.735729209227323
 30
0.0
  0
VERTEX
  5
1F6C
  8
SAPA_FOGBAND
 10
-16.915224208587698
 20
40.055917753262747
 30
0.0
 42
0.3515239862759173
  0
VERTEX
  5
1F6D
  8
SAPA_FOGBAND
 10
-16.758610300151322
 20
40.251155165299672
 30
0.0
  0
VERTEX
  5
1F6E
  8
SAPA_FOGBAND
 10
-16.758610300151322
 20
40.366674134733898
 30
0.0
 42
-0.3624646087620678
  0
VERTEX
  5
1F6F
  8
SAPA_FOGBAND
 10
-16.594387387791372
 20
40.563448116753868
 30
0.0
  0
SEQEND
  5
1F70
  8
SAPA_FOGBAND
  0
POLYLINE
  5
1235
  8
SAPA_FOGBAND
 66
     1
 10
0.0
 20
0.0
 30
0.0
 70
     1
  0
VERTEX
  5
1F71
  8
SAPA_FOGBAND
 10
-23.34767722167204
 20
73.275600881619084
 30
0.0
  0
VERTEX
  5
1F72
  8
SAPA_FOGBAND
 10
-22.231486297671619
 20
73.275600881618857
 30
0.0
 42
-0.3812119866950782
  0
VERTEX
  5
1F73
  8
SAPA_FOGBAND
 10
-22.0824594948174
 20
73.142659956358102
 30
0.0
  0
VERTEX
  5
1F74
  8
SAPA_FOGBAND
 10
-21.998425105436372
 20
72.408541806879839
 30
0.0
 42
0.3812119866950766
  0
VERTEX
  5
1F75
  8
SAPA_FOGBAND
 10
-21.84939830258169
 20
72.275600881619084
 30
0.0
  0
VERTEX
  5
1F76
  8
SAPA_FOGBAND
 10
-18.497677221672131
 20
72.275600881619084
 30
0.0
 42
0.4142135623730951
  0
VERTEX
  5
1F77
  8
SAPA_FOGBAND
 10
-18.297677221671862
 20
72.475600881618902
 30
0.0
  0
VERTEX
  5
1F78
  8
SAPA_FOGBAND
 10
-18.297677221672309
 20
73.275600881618857
 30
0.0
 42
-0.4142135623732615
  0
VERTEX
  5
1F79
  8
SAPA_FOGBAND
 10
-18.09767722167204
 20
73.475600881618902
 30
0.0
  0
VERTEX
  5
1F7A
  8
SAPA_FOGBAND
 10
-17.697677221671949
 20
73.475600881618902
 30
0.0
 42
0.4142135623733032
  0
VERTEX
  5
1F7B
  8
SAPA_FOGBAND
 10
-17.497677221672131
 20
73.675600881618934
 30
0.0
  0
VERTEX
  5
1F7C
  8
SAPA_FOGBAND
 10
-17.497677221672131
 20
74.747199689960325
 30
0.0
 42
0.7038255290763713
  0
VERTEX
  5
1F7D
  8
SAPA_FOGBAND
 10
-17.674901196435499
 20
74.810732812988817
 30
0.0
  0
VERTEX
  5
1F7E
  8
SAPA_FOGBAND
 10
-18.48878132261849
 20
73.821468389505299
 30
0.0
 42
-0.9999999999999722
  0
VERTEX
  5
1F7F
  8
SAPA_FOGBAND
 10
-19.106573120725681
 20
74.329733373732552
 30
0.0
  0
VERTEX
  5
1F80
  8
SAPA_FOGBAND
 10
-17.962976906214649
 20
75.719764919474073
 30
0.0
 42
-0.224238733811101
  0
VERTEX
  5
1F81
  8
SAPA_FOGBAND
 10
-16.997677221672131
 20
76.175600881618934
 30
0.0
 42
-0.2242387338111034
  0
VERTEX
  5
1F82
  8
SAPA_FOGBAND
 10
-16.032377537129619
 20
75.719764919474073
 30
0.0
  0
VERTEX
  5
1F83
  8
SAPA_FOGBAND
 10
-14.888781322618581
 20
74.329733373732552
 30
0.0
 42
-0.9999999999999722
  0
VERTEX
  5
1F84
  8
SAPA_FOGBAND
 10
-15.50657312072577
 20
73.821468389505299
 30
0.0
  0
VERTEX
  5
1F85
  8
SAPA_FOGBAND
 10
-16.32045324690877
 20
74.810732812988817
 30
0.0
 42
0.7038255290763713
  0
VERTEX
  5
1F86
  8
SAPA_FOGBAND
 10
-16.497677221672131
 20
74.747199689960325
 30
0.0
  0
VERTEX
  5
1F87
  8
SAPA_FOGBAND
 10
-16.497677221672131
 20
73.675600881619175
 30
0.0
 42
0.414213562372887
  0
VERTEX
  5
1F88
  8
SAPA_FOGBAND
 10
-16.297677221672309
 20
73.475600881619116
 30
0.0
  0
VERTEX
  5
1F89
  8
SAPA_FOGBAND
 10
-15.89767722167222
 20
73.475600881618902
 30
0.0
 42
-0.4142135623730951
  0
VERTEX
  5
1F8A
  8
SAPA_FOGBAND
 10
-15.697677221671951
 20
73.275600881619084
 30
0.0
  0
VERTEX
  5
1F8B
  8
SAPA_FOGBAND
 10
-15.697677221671951
 20
72.475600881618902
 30
0.0
 42
0.4142135623733032
  0
VERTEX
  5
1F8C
  8
SAPA_FOGBAND
 10
-15.497677221672131
 20
72.275600881618857
 30
0.0
  0
VERTEX
  5
1F8D
  8
SAPA_FOGBAND
 10
-10.568148278062621
 20
72.27560088161863
 30
0.0
 42
-0.2663342079579414
  0
VERTEX
  5
1F8E
  8
SAPA_FOGBAND
 10
-9.7051534157742623
 20
71.78081357708902
 30
0.0
  0
VERTEX
  5
1F8F
  8
SAPA_FOGBAND
 10
-6.854830237956107
 20
65.693043485127191
 30
0.0
 42
-0.0528612085595158
  0
VERTEX
  5
1F90
  8
SAPA_FOGBAND
 10
-6.7680813905856354
 20
65.500859360179206
 30
0.0
 42
-0.2389362379610816
  0
VERTEX
  5
1F91
  8
SAPA_FOGBAND
 10
-7.0158745558476454
 20
64.257018808056046
 30
0.0
 42
-0.4294697894412148
  0
VERTEX
  5
1F92
  8
SAPA_FOGBAND
 10
-7.3057142385039384
 20
64.245375851495282
 30
0.0
  0
VERTEX
  5
1F93
  8
SAPA_FOGBAND
 10
-10.858760190716801
 20
66.484597134760179
 30
0.0
 42
0.1982170680849689
  0
VERTEX
  5
1F94
  8
SAPA_FOGBAND
 10
-11.563972437513041
 20
66.775600881618857
 30
0.0
  0
VERTEX
  5
1F95
  8
SAPA_FOGBAND
 10
-11.682630423929149
 20
66.775600881619084
 30
0.0
 42
0.2084822249037396
  0
VERTEX
  5
1F96
  8
SAPA_FOGBAND
 10
-12.415242925595759
 20
66.456246841279381
 30
0.0
  0
VERTEX
  5
1F97
  8
SAPA_FOGBAND
 10
-16.36275358975378
 20
65.835613553438165
 30
0.0
  0
VERTEX
  5
1F98
  8
SAPA_FOGBAND
 10
-16.915595619024561
 20
66.199145223693677
 30
0.0
  0
VERTEX
  5
1F99
  8
SAPA_FOGBAND
 10
-13.605029815939149
 20
67.196621937978989
 30
0.0
 42
0.6313983151680253
  0
VERTEX
  5
1F9A
  8
SAPA_FOGBAND
 10
-13.89542697455069
 20
67.653924082487265
 30
0.0
  0
VERTEX
  5
1F9B
  8
SAPA_FOGBAND
 10
-16.733993534265451
 20
67.307757428863624
 30
0.0
 42
0.3791008518982226
  0
VERTEX
  5
1F9C
  8
SAPA_FOGBAND
 10
-16.997677221672131
 20
67.009963665598661
 30
0.0
  0
VERTEX
  5
1F9D
  8
SAPA_FOGBAND
 10
-16.997677221672131
 20
66.775600881618857
 30
0.0
 42
-0.414213562373095
  0
VERTEX
  5
1F9E
  8
SAPA_FOGBAND
 10
-17.297677221672309
 20
66.47560088161913
 30
0.0
  0
VERTEX
  5
1F9F
  8
SAPA_FOGBAND
 10
-21.849398302582149
 20
66.47560088161913
 30
0.0
  0
VERTEX
  5
1FA0
  8
SAPA_FOGBAND
 10
-28.17668642685091
 20
65.953905543507403
 30
0.0
  0
VERTEX
  5
1FA1
  8
SAPA_FOGBAND
 10
-28.17668642685091
 20
65.953905543507403
 30
0.0
  0
VERTEX
  5
1FA2
  8
SAPA_FOGBAND
 10
-28.764575565110832
 20
66.370228266410095
 30
0.0
 42
-0.5371060876771919
  0
VERTEX
  5
1FA3
  8
SAPA_FOGBAND
 10
-29.167528757200909
 20
68.316255443795043
 30
0.0
  0
VERTEX
  5
1FA4
  8
SAPA_FOGBAND
 10
-23.497677221672131
 20
71.275600881619084
 30
0.0
  0
VERTEX
  5
1FA5
  8
SAPA_FOGBAND
 10
-23.497677221672131
 20
73.125600881618993
 30
0.0
 42
-0.4142135623730951
  0
SEQEND
  5
1FA6
  8
SAPA_FOGBAND
  0
DIMENSION
  5
123C
  8
SAPA_MATT
  2
*D73
 10
85.000000000000512
 20
-43.909976921574142
 30
0.0
 11
55.000000000000192
 21
-41.409976921574142
 31
0.0
 70
     0
 13
24.999999999999879
 23
-24.00046984900882
 33
0.0
 14
85.000000000000512
 24
27.199999999999651
 34
0.0
 50
0.000000000000007
1001
ACAD
1000
DSTYLE
1002
{
1070
   287
1070
     4
1070
    40
1040
1.0
1070
   279
1070
     1
1002
}
  0
DIMENSION
  5
123D
  8
SAPA_MATT
  2
*D72
 10
24.999999999999879
 20
-43.909976921574142
 30
0.0
 11
0.0000000000003696
 21
-41.409976921574142
 31
0.0
 70
     0
 13
-24.99999999999914
 23
-24.00046984900882
 33
0.0
 14
24.999999999999879
 24
-24.00046984900882
 34
0.0
 50
0.000000000000007
1001
ACAD
1000
DSTYLE
1002
{
1070
    40
1040
1.0
1002
}
  0
VIEWPORT
  5
7C8
 67
     1
  8
0
 10
117.6369664708614
 20
142.9987162234838
 30
0.0
 40
454.13674225015501
 41
288.02508713675689
 68
     1
 69
     1
1001
ACAD
1000
MVIEW
1002
{
1070
    16
1010
0.0
1020
0.0
1030
0.0
1010
0.0
1020
0.0
1030
1.0
1040
0.0
1040
288.02508713675689
1040
117.6369664708614
1040
142.9987162234838
1040
50.0
1040
0.0
1040
0.0
1070
     0
1070
   100
1070
     1
1070
     1
1070
     0
1070
     0
1070
     0
1070
     0
1040
0.0
1040
0.0
1040
0.0
1040
10.0
1040
10.0
1040
10.0
1040
10.0
1070
     0
1002
{
1002
}
1002
}
  0
INSERT
  5
7C9
 67
     1
  8
0
  2
WEB
 10
0.0
 20
0.0
 30
0.0
  0
VIEWPORT
  5
7CA
 67
     1
  8
3D-RAM
 10
96.369180125328342
 20
138.999999827653
 30
0.0
 40
175.0
 41
175.0
 68
     2
 69
     2
1001
ACAD
1000
MVIEW
1002
{
1070
    16
1010
0.0
1020
0.0
1030
0.0
1010
0.0
1020
0.0
1030
1.0
1040
0.0
1040
17.5
1040
1425.350342731407
1040
1538.27922035293
1040
50.0
1040
0.0
1040
0.0
1070
     0
1070
   100
1070
     1
1070
     0
1070
     0
1070
     0
1070
     0
1070
     0
1040
0.0
1040
0.0
1040
0.0
1040
5.0
1040
5.0
1040
10.0
1040
10.0
1070
     0
1002
{
1002
}
1002
}
  0
LINE
  5
7CB
 67
     1
  8
3D-RAM
 10
25.1036710795997
 20
69.587678081293987
 30
0.0
 11
25.1036710795997
 21
79.587678081293987
 31
0.0
  0
LINE
  5
7CC
 67
     1
  8
3D-RAM
 10
30.1036710795997
 20
74.587678081293987
 30
0.0
 11
20.1036710795997
 21
74.587678081293987
 31
0.0
  0
ENDSEC
  0
EOF
