  0
SECTION
  2
HEADER
  9
$ACADVER
  1
AC1009
  9
$INSBASE
 10
0.0
 20
0.0
 30
0.0
  9
$EXTMIN
 10
-61.654799543902648
 20
-55.776557027373308
 30
0.0
  9
$EXTMAX
 10
124.05198558122041
 20
458.40334198463842
 30
0.0
  9
$LIMMIN
 10
0.0
 20
0.0
  9
$LIMMAX
 10
790.0
 20
790.0
  9
$ORTHOMODE
 70
     1
  9
$REGENMODE
 70
     1
  9
$FILLMODE
 70
     1
  9
$QTEXTMODE
 70
     0
  9
$MIRRTEXT
 70
     1
  9
$DRAGMODE
 70
     2
  9
$LTSCALE
 40
4.0
  9
$OSMODE
 70
   167
  9
$ATTMODE
 70
     1
  9
$TEXTSIZE
 40
3.5
  9
$TRACEWID
 40
0.05
  9
$TEXTSTYLE
  7
ISO
  9
$CLAYER
  8
0
  9
$CELTYPE
  6
BYLAYER
  9
$CECOLOR
 62
   256
  9
$DIMSCALE
 40
0.0
  9
$DIMASZ
 40
3.0
  9
$DIMEXO
 40
1.5
  9
$DIMDLI
 40
10.0
  9
$DIMRND
 40
0.0
  9
$DIMDLE
 40
0.0
  9
$DIMEXE
 40
1.5
  9
$DIMTP
 40
0.0
  9
$DIMTM
 40
0.0
  9
$DIMTXT
 40
3.0
  9
$DIMCEN
 40
-5.0
  9
$DIMTSZ
 40
0.0
  9
$DIMTOL
 70
     0
  9
$DIMLIM
 70
     0
  9
$DIMTIH
 70
     0
  9
$DIMTOH
 70
     0
  9
$DIMSE1
 70
     0
  9
$DIMSE2
 70
     0
  9
$DIMTAD
 70
     1
  9
$DIMZIN
 70
     8
  9
$DIMBLK
  1

  9
$DIMASO
 70
     1
  9
$DIMSHO
 70
     1
  9
$DIMPOST
  1

  9
$DIMAPOST
  1

  9
$DIMALT
 70
     0
  9
$DIMALTD
 70
     0
  9
$DIMALTF
 40
25.399999999999999
  9
$DIMLFAC
 40
-1.0
  9
$DIMTOFL
 70
     1
  9
$DIMTVP
 40
0.0
  9
$DIMTIX
 70
     0
  9
$DIMSOXD
 70
     0
  9
$DIMSAH
 70
     0
  9
$DIMBLK1
  1

  9
$DIMBLK2
  1

  9
$DIMSTYLE
  2
MASKIN
  9
$DIMCLRD
 70
   256
  9
$DIMCLRE
 70
   256
  9
$DIMCLRT
 70
     2
  9
$DIMTFAC
 40
1.0
  9
$DIMGAP
 40
1.0
  9
$LUNITS
 70
     2
  9
$LUPREC
 70
     8
  9
$SKETCHINC
 40
0.1
  9
$FILLETRAD
 40
0.0
  9
$AUNITS
 70
     0
  9
$AUPREC
 70
     8
  9
$MENU
  1
ACAD
  9
$ELEVATION
 40
0.0
  9
$PELEVATION
 40
0.0
  9
$THICKNESS
 40
0.0
  9
$LIMCHECK
 70
     0
  9
$BLIPMODE
 70
     0
  9
$CHAMFERA
 40
0.0
  9
$CHAMFERB
 40
0.0
  9
$SKPOLY
 70
     0
  9
$TDCREATE
 40
2454995.4690802889
  9
$TDUPDATE
 40
2455009.369563357
  9
$TDINDWG
 40
0.0662366319
  9
$TDUSRTIMER
 40
0.0662366319
  9
$USRTIMER
 70
     1
  9
$ANGBASE
 50
0.0
  9
$ANGDIR
 70
     0
  9
$PDMODE
 70
     0
  9
$PDSIZE
 40
0.0
  9
$PLINEWID
 40
0.0
  9
$COORDS
 70
     1
  9
$SPLFRAME
 70
     0
  9
$SPLINETYPE
 70
     6
  9
$SPLINESEGS
 70
     8
  9
$ATTDIA
 70
     0
  9
$ATTREQ
 70
     1
  9
$HANDLING
 70
     1
  9
$HANDSEED
  5
1274
  9
$SURFTAB1
 70
     6
  9
$SURFTAB2
 70
     6
  9
$SURFTYPE
 70
     6
  9
$SURFU
 70
     6
  9
$SURFV
 70
     6
  9
$UCSNAME
  2

  9
$UCSORG
 10
0.0
 20
0.0
 30
0.0
  9
$UCSXDIR
 10
1.0
 20
0.0
 30
0.0
  9
$UCSYDIR
 10
0.0
 20
1.0
 30
0.0
  9
$PUCSNAME
  2

  9
$PUCSORG
 10
0.0
 20
0.0
 30
0.0
  9
$PUCSXDIR
 10
1.0
 20
0.0
 30
0.0
  9
$PUCSYDIR
 10
0.0
 20
1.0
 30
0.0
  9
$USERI1
 70
     0
  9
$USERI2
 70
     0
  9
$USERI3
 70
     0
  9
$USERI4
 70
     0
  9
$USERI5
 70
     0
  9
$USERR1
 40
0.0
  9
$USERR2
 40
0.0
  9
$USERR3
 40
0.0
  9
$USERR4
 40
0.0
  9
$USERR5
 40
0.0
  9
$WORLDVIEW
 70
     1
  9
$SHADEDGE
 70
     3
  9
$SHADEDIF
 70
    70
  9
$TILEMODE
 70
     1
  9
$MAXACTVP
 70
    16
  9
$PLIMCHECK
 70
     0
  9
$PEXTMIN
 10
1.0000000000000000E+020
 20
1.0000000000000000E+020
 30
1.0000000000000000E+020
  9
$PEXTMAX
 10
-1.0000000000000000E+020
 20
-1.0000000000000000E+020
 30
-1.0000000000000000E+020
  9
$PLIMMIN
 10
-5.069427490234375
 20
-5.8737497329711914
  9
$PLIMMAX
 10
291.89889526367187
 20
204.0995779037475
  9
$UNITMODE
 70
     0
  9
$VISRETAIN
 70
     1
  9
$PLINEGEN
 70
     0
  9
$PSLTSCALE
 70
     1
  0
ENDSEC
  0
SECTION
  2
TABLES
  0
TABLE
  2
VPORT
 70
     1
  0
VPORT
  2
*ACTIVE
 70
     0
 10
0.0
 20
0.0
 11
1.0
 21
1.0
 12
232.76013641904379
 22
201.31330039425069
 13
0.0
 23
0.0
 14
1.0
 24
1.0
 15
0.0
 25
0.0
 16
0.0
 26
0.0
 36
1.0
 17
0.0
 27
0.0
 37
0.0
 40
518.27005015688576
 41
2.362776025236593
 42
50.0
 43
0.0
 44
0.0
 50
0.0
 51
0.0
 71
     0
 72
   100
 73
     1
 74
     1
 75
     0
 76
     0
 77
     0
 78
     0
  0
ENDTAB
  0
TABLE
  2
LTYPE
 70
     5
  0
LTYPE
  2
CONTINUOUS
 70
     0
  3
Solid line
 72
    65
 73
     0
 40
0.0
  0
LTYPE
  2
BYGG-01473602$0$NEWDOT
 70
     0
  3
____ . ____ . ____ . ____ . ____ . ____ . ____
 72
    65
 73
     4
 40
2.0
 49
1.0
 49
-0.5
 49
0.0
 49
-0.5
  0
LTYPE
  2
BYGG-014252$0$NEWDOT
 70
     0
  3
____ . ____ . ____ . ____ . ____ . ____ . ____
 72
    65
 73
     4
 40
2.0
 49
1.0
 49
-0.5
 49
0.0
 49
-0.5
  0
LTYPE
  2
BYGG-014680$0$NEWDOT
 70
     0
  3
____ . ____ . ____ . ____ . ____ . ____ . ____
 72
    65
 73
     4
 40
2.0
 49
1.0
 49
-0.5
 49
0.0
 49
-0.5
  0
LTYPE
  2
NEWDOT
 70
     0
  3
____ . ____ . ____ . ____ . ____ . ____ . ____
 72
    65
 73
     4
 40
2.0
 49
1.0
 49
-0.5
 49
0.0
 49
-0.5
  0
ENDTAB
  0
TABLE
  2
LAYER
 70
    46
  0
LAYER
  2
0
 70
     0
 62
     7
  6
CONTINUOUS
  0
LAYER
  2
DEFPOINTS
 70
     0
 62
     7
  6
CONTINUOUS
  0
LAYER
  2
SAPA_ARTIKELNR
 70
     0
 62
     4
  6
CONTINUOUS
  0
LAYER
  2
SAPA_LIGHT
 70
     1
 62
     1
  6
CONTINUOUS
  0
LAYER
  2
SAPA_PROFIL
 70
     0
 62
     7
  6
CONTINUOUS
  0
LAYER
  2
SAPA_ANSLUTNING
 70
     0
 62
     6
  6
CONTINUOUS
  0
LAYER
  2
BYGG-014680$0$ARTIKELNUMME
 70
     0
 62
     4
  6
CONTINUOUS
  0
LAYER
  2
SAPA_MATT
 70
     0
 62
     1
  6
CONTINUOUS
  0
LAYER
  2
SAPA_GLAS
 70
     0
 62
     4
  6
CONTINUOUS
  0
LAYER
  2
SAPA_FOGBAND
 70
     0
 62
     2
  6
CONTINUOUS
  0
ENDTAB
  0
TABLE
  2
STYLE
 70
    21
  0
STYLE
  2
STANDARD
 70
     0
 40
0.0
 41
1.0
 50
0.0
 71
     0
 42
0.2
  3
txt
  4

  0
STYLE
  2
ISO
 70
     0
 40
0.0
 41
1.0
 50
0.0
 71
     0
 42
3.5
  3
txt
  4

  0
STYLE
  2
ANNOTATIVE
 70
     0
 40
0.0
 41
1.0
 50
0.0
 71
     0
 42
0.2
  3
txt
  4

  0
STYLE
  2
BYGG-024116$0$STANDARD
 70
     0
 40
0.0
 41
1.0
 50
0.0
 71
     0
 42
0.2
  3
txt
  4

  0
STYLE
  2
BYGG-024116$0$ISO
 70
     0
 40
0.0
 41
1.0
 50
0.0
 71
     0
 42
3.5
  3
txt
  4

  0
STYLE
  2
BYGG-01473602$0$STANDARD
 70
     0
 40
0.0
 41
1.0
 50
0.0
 71
     0
 42
0.2
  3
txt
  4

  0
STYLE
  2
BYGG-01473602$0$ISO
 70
     0
 40
0.0
 41
1.0
 50
0.0
 71
     0
 42
2.5
  3
isocp3.shx
  4

  0
STYLE
  2
BYGG-024082$0$STANDARD
 70
     0
 40
0.0
 41
1.0
 50
0.0
 71
     0
 42
0.2
  3
txt
  4

  0
STYLE
  2
BYGG-024082$0$ISO
 70
     0
 40
0.0
 41
1.0
 50
0.0
 71
     0
 42
3.5
  3
txt
  4

  0
STYLE
  2
BYGG-014252$0$STANDARD
 70
     0
 40
0.0
 41
1.0
 50
0.0
 71
     0
 42
0.2
  3
txt
  4

  0
STYLE
  2
BYGG-014252$0$ISO
 70
     0
 40
0.0
 41
1.0
 50
0.0
 71
     0
 42
2.5
  3
isocp3.shx
  4

  0
STYLE
  2
BYGG-014014$0$STANDARD
 70
     0
 40
0.0
 41
1.0
 50
0.0
 71
     0
 42
0.2
  3
txt
  4

  0
STYLE
  2
BYGG-024083$0$STANDARD
 70
     0
 40
0.0
 41
1.0
 50
0.0
 71
     0
 42
0.2
  3
txt
  4

  0
STYLE
  2
BYGG-024083$0$ISO
 70
     0
 40
0.0
 41
1.0
 50
0.0
 71
     0
 42
3.5
  3
txt
  4

  0
STYLE
  2
BYGG-024084$0$STANDARD
 70
     0
 40
0.0
 41
1.0
 50
0.0
 71
     0
 42
0.2
  3
txt
  4

  0
STYLE
  2
BYGG-024084$0$ISO
 70
     0
 40
0.0
 41
1.0
 50
0.0
 71
     0
 42
3.5
  3
txt
  4

  0
STYLE
  2
BYGG-013683$0$STANDARD
 70
     0
 40
0.0
 41
1.0
 50
0.0
 71
     0
 42
0.2
  3
txt
  4

  0
STYLE
  2
BYGG-024110$0$STANDARD
 70
     0
 40
0.0
 41
1.0
 50
0.0
 71
     0
 42
0.2
  3
txt
  4

  0
STYLE
  2
BYGG-024110$0$ISO
 70
     0
 40
0.0
 41
1.0
 50
0.0
 71
     0
 42
3.5
  3
txt
  4

  0
STYLE
  2
BYGG-014680$0$STANDARD
 70
     0
 40
0.0
 41
1.0
 50
0.0
 71
     0
 42
0.2
  3
txt
  4

  0
STYLE
  2
BYGG-014680$0$ISO
 70
     0
 40
0.0
 41
1.0
 50
0.0
 71
     0
 42
8.0
  3
iso
  4

  0
ENDTAB
  0
TABLE
  2
VIEW
 70
     0
  0
ENDTAB
  0
TABLE
  2
UCS
 70
     0
  0
ENDTAB
  0
TABLE
  2
APPID
 70
    17
  0
APPID
  2
ACAD
 70
     0
  0
APPID
  2
ACAD_DSTYLE_DIMTEXT_FILL
 70
     0
  0
APPID
  2
ACAD_DSTYLE_DIMEXT_LENGTH
 70
     0
  0
APPID
  2
ACAD_DSTYLE_DIMEXT_ENABLED
 70
     0
  0
APPID
  2
ACAD_DSTYLE_DIM_LINETYPE
 70
     0
  0
APPID
  2
ACAD_DSTYLE_DIM_EXT1_LINETYPE
 70
     0
  0
APPID
  2
ACAD_DSTYLE_DIM_EXT2_LINETYPE
 70
     0
  0
APPID
  2
ACAD_DSTYLE_DIMJOGGED_JOGA
 70
     0
  0
APPID
  2
ACAD_DSTYLE_DIMARC_LENGTH_
 70
     0
  0
APPID
  2
ACAD_PSEXT
 70
     0
  0
APPID
  2
ACAD_MLEADERVER
 70
     0
  0
APPID
  2
AME_SOL
 70
     0
  0
APPID
  2
AMG_ARCHIVE11
 70
     0
  0
APPID
  2
DCO15
 70
     0
  0
APPID
  2
ACAD_EXEMPT_FROM_CAD_STANDARDS
 70
     0
  0
APPID
  2
ACADANNOTATIVE
 70
     0
  0
APPID
  2
ACAECLAYERSTANDARD
 70
     0
  0
ENDTAB
  0
TABLE
  2
DIMSTYLE
 70
    21
  0
DIMSTYLE
  2
STANDARD
 70
     0
  3

  4

  5

  6

  7

 40
1.0
 41
0.18
 42
0.0625
 43
0.38
 44
0.18
 45
0.0
 46
0.0
 47
0.0
 48
0.0
140
0.18
141
0.09
142
0.0
143
25.399999999999999
144
1.0
145
0.0
146
1.0
147
0.09
 71
     0
 72
     0
 73
     1
 74
     1
 75
     0
 76
     0
 77
     0
 78
     0
170
     0
171
     2
172
     0
173
     0
174
     0
175
     0
176
     0
177
     0
178
     0
  0
DIMSTYLE
  2
MASKIN
 70
     0
  3

  4

  5

  6

  7

 40
0.0
 41
3.0
 42
1.5
 43
10.0
 44
1.5
 45
0.0
 46
0.0
 47
0.0
 48
0.0
140
3.0
141
-5.0
142
0.0
143
25.399999999999999
144
-1.0
145
0.0
146
1.0
147
1.0
 71
     0
 72
     0
 73
     0
 74
     0
 75
     0
 76
     0
 77
     1
 78
     8
170
     0
171
     0
172
     1
173
     0
174
     0
175
     0
176
   256
177
   256
178
     2
  0
DIMSTYLE
  2
ANNOTATIVE
 70
     0
  3

  4

  5

  6

  7

 40
1.0
 41
0.18
 42
0.0625
 43
0.38
 44
0.18
 45
0.0
 46
0.0
 47
0.0
 48
0.0
140
0.18
141
0.09
142
0.0
143
25.399999999999999
144
1.0
145
0.0
146
1.0
147
0.09
 71
     0
 72
     0
 73
     1
 74
     1
 75
     0
 76
     0
 77
     0
 78
     0
170
     0
171
     2
172
     0
173
     0
174
     0
175
     0
176
     0
177
     0
178
     0
  0
DIMSTYLE
  2
BYGG-024116$0$STANDARD
 70
     0
  3

  4

  5

  6

  7

 40
1.0
 41
0.18
 42
0.0625
 43
0.38
 44
0.18
 45
0.0
 46
0.0
 47
0.0
 48
0.0
140
0.18
141
0.09
142
0.0
143
25.399999999999999
144
1.0
145
0.0
146
1.0
147
0.09
 71
     0
 72
     0
 73
     1
 74
     1
 75
     0
 76
     0
 77
     0
 78
     0
170
     0
171
     2
172
     0
173
     0
174
     0
175
     0
176
     0
177
     0
178
     0
  0
DIMSTYLE
  2
BYGG-024116$0$MASKIN
 70
     0
  3

  4

  5

  6

  7

 40
0.0
 41
3.0
 42
1.5
 43
10.0
 44
1.5
 45
0.0
 46
0.0
 47
0.0
 48
0.0
140
3.0
141
-5.0
142
0.0
143
25.399999999999999
144
-1.0
145
0.0
146
1.0
147
1.0
 71
     0
 72
     0
 73
     0
 74
     0
 75
     0
 76
     0
 77
     1
 78
     8
170
     0
171
     0
172
     1
173
     0
174
     0
175
     0
176
   256
177
   256
178
     2
  0
DIMSTYLE
  2
BYGG-01473602$0$STANDARD
 70
     0
  3

  4

  5

  6

  7

 40
1.0
 41
0.18
 42
0.0625
 43
0.38
 44
0.18
 45
0.0
 46
0.0
 47
0.0
 48
0.0
140
0.18
141
0.09
142
0.0
143
25.399999999999999
144
1.0
145
0.0
146
1.0
147
0.09
 71
     0
 72
     0
 73
     1
 74
     1
 75
     0
 76
     0
 77
     0
 78
     0
170
     0
171
     2
172
     0
173
     0
174
     0
175
     0
176
     0
177
     0
178
     0
  0
DIMSTYLE
  2
BYGG-01473602$0$MASKIN
 70
     0
  3

  4

  5

  6

  7

 40
0.0
 41
3.0
 42
1.5
 43
10.0
 44
1.5
 45
0.0
 46
0.0
 47
0.0
 48
0.0
140
3.0
141
-5.0
142
0.0
143
25.399999999999999
144
-1.0
145
0.0
146
1.0
147
1.0
 71
     0
 72
     0
 73
     0
 74
     1
 75
     0
 76
     0
 77
     1
 78
     8
170
     0
171
     0
172
     1
173
     0
174
     0
175
     0
176
   256
177
   256
178
     2
  0
DIMSTYLE
  2
BYGG-024082$0$STANDARD
 70
     0
  3

  4

  5

  6

  7

 40
1.0
 41
0.18
 42
0.0625
 43
0.38
 44
0.18
 45
0.0
 46
0.0
 47
0.0
 48
0.0
140
0.18
141
0.09
142
0.0
143
25.399999999999999
144
1.0
145
0.0
146
1.0
147
0.09
 71
     0
 72
     0
 73
     1
 74
     1
 75
     0
 76
     0
 77
     0
 78
     0
170
     0
171
     2
172
     0
173
     0
174
     0
175
     0
176
     0
177
     0
178
     0
  0
DIMSTYLE
  2
BYGG-024082$0$MASKIN
 70
     0
  3

  4

  5

  6

  7

 40
0.0
 41
3.0
 42
1.5
 43
10.0
 44
1.5
 45
0.0
 46
0.0
 47
0.0
 48
0.0
140
3.0
141
-5.0
142
0.0
143
25.399999999999999
144
-1.0
145
0.0
146
1.0
147
1.0
 71
     0
 72
     0
 73
     0
 74
     0
 75
     0
 76
     0
 77
     1
 78
     8
170
     0
171
     0
172
     1
173
     0
174
     0
175
     0
176
   256
177
   256
178
     2
  0
DIMSTYLE
  2
BYGG-014252$0$STANDARD
 70
     0
  3

  4

  5

  6

  7

 40
1.0
 41
0.18
 42
0.0625
 43
0.38
 44
0.18
 45
0.0
 46
0.0
 47
0.0
 48
0.0
140
0.18
141
0.09
142
0.0
143
25.399999999999999
144
1.0
145
0.0
146
1.0
147
0.09
 71
     0
 72
     0
 73
     1
 74
     1
 75
     0
 76
     0
 77
     0
 78
     0
170
     0
171
     2
172
     0
173
     0
174
     0
175
     0
176
     0
177
     0
178
     0
  0
DIMSTYLE
  2
BYGG-014252$0$MASKIN
 70
     0
  3

  4

  5

  6

  7

 40
0.0
 41
3.0
 42
1.5
 43
10.0
 44
1.5
 45
0.0
 46
0.0
 47
0.0
 48
0.0
140
3.0
141
-5.0
142
0.0
143
25.399999999999999
144
-1.0
145
0.0
146
1.0
147
1.0
 71
     0
 72
     0
 73
     0
 74
     1
 75
     0
 76
     0
 77
     1
 78
     8
170
     0
171
     0
172
     1
173
     0
174
     0
175
     0
176
   256
177
   256
178
     2
  0
DIMSTYLE
  2
BYGG-014014$0$STANDARD
 70
     0
  3

  4

  5

  6

  7

 40
1.0
 41
0.18
 42
0.0625
 43
0.38
 44
0.18
 45
0.0
 46
0.0
 47
0.0
 48
0.0
140
0.18
141
0.09
142
0.0
143
25.399999999999999
144
1.0
145
0.0
146
1.0
147
0.09
 71
     0
 72
     0
 73
     1
 74
     1
 75
     0
 76
     0
 77
     0
 78
     0
170
     0
171
     2
172
     0
173
     0
174
     0
175
     0
176
     0
177
     0
178
     0
  0
DIMSTYLE
  2
BYGG-024083$0$STANDARD
 70
     0
  3

  4

  5

  6

  7

 40
1.0
 41
0.18
 42
0.0625
 43
0.38
 44
0.18
 45
0.0
 46
0.0
 47
0.0
 48
0.0
140
0.18
141
0.09
142
0.0
143
25.399999999999999
144
1.0
145
0.0
146
1.0
147
0.09
 71
     0
 72
     0
 73
     1
 74
     1
 75
     0
 76
     0
 77
     0
 78
     0
170
     0
171
     2
172
     0
173
     0
174
     0
175
     0
176
     0
177
     0
178
     0
  0
DIMSTYLE
  2
BYGG-024083$0$MASKIN
 70
     0
  3

  4

  5

  6

  7

 40
0.0
 41
3.0
 42
1.5
 43
10.0
 44
1.5
 45
0.0
 46
0.0
 47
0.0
 48
0.0
140
3.0
141
-5.0
142
0.0
143
25.399999999999999
144
-1.0
145
0.0
146
1.0
147
1.0
 71
     0
 72
     0
 73
     0
 74
     0
 75
     0
 76
     0
 77
     1
 78
     8
170
     0
171
     0
172
     1
173
     0
174
     0
175
     0
176
   256
177
   256
178
     2
  0
DIMSTYLE
  2
BYGG-024084$0$STANDARD
 70
     0
  3

  4

  5

  6

  7

 40
1.0
 41
0.18
 42
0.0625
 43
0.38
 44
0.18
 45
0.0
 46
0.0
 47
0.0
 48
0.0
140
0.18
141
0.09
142
0.0
143
25.399999999999999
144
1.0
145
0.0
146
1.0
147
0.09
 71
     0
 72
     0
 73
     1
 74
     1
 75
     0
 76
     0
 77
     0
 78
     0
170
     0
171
     2
172
     0
173
     0
174
     0
175
     0
176
     0
177
     0
178
     0
  0
DIMSTYLE
  2
BYGG-024084$0$MASKIN
 70
     0
  3

  4

  5

  6

  7

 40
0.0
 41
3.0
 42
1.5
 43
10.0
 44
1.5
 45
0.0
 46
0.0
 47
0.0
 48
0.0
140
3.0
141
-5.0
142
0.0
143
25.399999999999999
144
-1.0
145
0.0
146
1.0
147
1.0
 71
     0
 72
     0
 73
     0
 74
     0
 75
     0
 76
     0
 77
     1
 78
     8
170
     0
171
     0
172
     1
173
     0
174
     0
175
     0
176
   256
177
   256
178
     2
  0
DIMSTYLE
  2
BYGG-013683$0$STANDARD
 70
     0
  3

  4

  5

  6

  7

 40
1.0
 41
0.18
 42
0.0625
 43
0.38
 44
0.18
 45
0.0
 46
0.0
 47
0.0
 48
0.0
140
0.18
141
0.09
142
0.0
143
25.399999999999999
144
1.0
145
0.0
146
1.0
147
0.09
 71
     0
 72
     0
 73
     1
 74
     1
 75
     0
 76
     0
 77
     0
 78
     0
170
     0
171
     2
172
     0
173
     0
174
     0
175
     0
176
     0
177
     0
178
     0
  0
DIMSTYLE
  2
BYGG-024110$0$STANDARD
 70
     0
  3

  4

  5

  6

  7

 40
1.0
 41
0.18
 42
0.0625
 43
0.38
 44
0.18
 45
0.0
 46
0.0
 47
0.0
 48
0.0
140
0.18
141
0.09
142
0.0
143
25.399999999999999
144
1.0
145
0.0
146
1.0
147
0.09
 71
     0
 72
     0
 73
     1
 74
     1
 75
     0
 76
     0
 77
     0
 78
     0
170
     0
171
     2
172
     0
173
     0
174
     0
175
     0
176
     0
177
     0
178
     0
  0
DIMSTYLE
  2
BYGG-024110$0$MASKIN
 70
     0
  3

  4

  5

  6

  7

 40
0.0
 41
3.0
 42
1.5
 43
10.0
 44
1.5
 45
0.0
 46
0.0
 47
0.0
 48
0.0
140
3.0
141
-5.0
142
0.0
143
25.399999999999999
144
-1.0
145
0.0
146
1.0
147
1.0
 71
     0
 72
     0
 73
     0
 74
     0
 75
     0
 76
     0
 77
     1
 78
     8
170
     0
171
     0
172
     1
173
     0
174
     0
175
     0
176
   256
177
   256
178
     2
  0
DIMSTYLE
  2
BYGG-014680$0$STANDARD
 70
     0
  3

  4

  5

  6

  7

 40
1.0
 41
0.18
 42
0.0625
 43
0.38
 44
0.18
 45
0.0
 46
0.0
 47
0.0
 48
0.0
140
0.18
141
0.09
142
0.0
143
25.399999999999999
144
1.0
145
0.0
146
1.0
147
0.09
 71
     0
 72
     0
 73
     1
 74
     1
 75
     0
 76
     0
 77
     0
 78
     0
170
     0
171
     2
172
     0
173
     0
174
     0
175
     0
176
     0
177
     0
178
     0
  0
DIMSTYLE
  2
BYGG-014680$0$MASKIN
 70
     0
  3

  4

  5

  6

  7

 40
0.0
 41
3.0
 42
1.5
 43
10.0
 44
1.5
 45
0.0
 46
0.0
 47
0.0
 48
0.0
140
3.0
141
-5.0
142
0.0
143
25.399999999999999
144
-1.0
145
0.0
146
1.0
147
1.0
 71
     0
 72
     0
 73
     0
 74
     1
 75
     0
 76
     0
 77
     1
 78
     8
170
     0
171
     0
172
     1
173
     0
174
     0
175
     0
176
   256
177
   256
178
     2
  0
ENDTAB
  0
ENDSEC
  0
SECTION
  2
BLOCKS
  0
BLOCK
  8
0
  2
$MODEL_SPACE
 70
     0
 10
0.0
 20
0.0
 30
0.0
  3
$MODEL_SPACE
  1

  0
ENDBLK
  5
37
  8
0
  0
BLOCK
 67
     1
  8
0
  2
$PAPER_SPACE
 70
     0
 10
0.0
 20
0.0
 30
0.0
  3
$PAPER_SPACE
  1

  0
ENDBLK
  5
35
 67
     1
  8
0
  0
BLOCK
  8
0
  2
BYGG-014680$0$68174-TXT
 70
     0
 10
0.0
 20
0.0
 30
0.0
  3
BYGG-014680$0$68174-TXT
  1

  0
TEXT
  5
9B5
  8
BYGG-014680$0$ARTIKELNUMME
 10
0.0
 20
0.0
 30
0.0
 40
3.5
  1
68174
  7
BYGG-014680$0$ISO
  0
ENDBLK
  5
9B7
  8
0
  0
BLOCK
  8
0
  2
*D31
 70
     1
 10
0.0
 20
0.0
 30
0.0
  3
*D31
  1

  0
LINE
  5
B31
  8
SAPA_MATT
 10
89.778260603956937
 20
145.16762218502419
 30
0.0
 11
124.05198558122029
 21
145.16762218502419
 31
0.0
  0
LINE
  5
B32
  8
SAPA_MATT
 10
92.978260603956926
 20
445.16762218502419
 30
0.0
 11
124.05198558122041
 21
445.16762218502419
 31
0.0
  0
LINE
  5
B33
  8
SAPA_MATT
 10
122.55198558122029
 20
148.16762218502419
 30
0.0
 11
122.55198558122041
 21
442.16762218502407
 31
0.0
  0
SOLID
  5
B34
  8
SAPA_MATT
 10
122.05198558122029
 20
148.16762218502419
 30
0.0
 11
123.05198558122029
 21
148.16762218502419
 31
0.0
 12
122.55198558122029
 22
145.16762218502419
 32
0.0
 13
122.55198558122029
 23
145.16762218502419
 33
0.0
  0
SOLID
  5
B35
  8
SAPA_MATT
 10
122.05198558122041
 20
442.16762218502407
 30
0.0
 11
123.05198558122041
 21
442.16762218502407
 31
0.0
 12
122.55198558122041
 22
445.16762218502419
 32
0.0
 13
122.55198558122041
 23
445.16762218502419
 33
0.0
  0
INSERT
  5
B36
  8
0
  2
*U52
 10
0.0
 20
0.0
 30
0.0
  0
POINT
  5
B37
  8
DEFPOINTS
 62
     0
 10
88.278260603956923
 20
145.16762218502419
 30
0.0
  0
POINT
  5
B38
  8
DEFPOINTS
 62
     0
 10
91.478260603956926
 20
445.16762218502419
 30
0.0
  0
POINT
  5
B39
  8
DEFPOINTS
 62
     0
 10
122.55198558122041
 20
445.16762218502419
 30
0.0
  0
ENDBLK
  5
B1B
  8
0
  0
BLOCK
  8
0
  2
*D32
 70
     1
 10
0.0
 20
0.0
 30
0.0
  3
*D32
  1

  0
LINE
  5
B28
  8
SAPA_MATT
 10
-15.45468145366883
 20
-30.633721685256941
 30
0.0
 11
-9.8884943633813602
 21
-45.9266950282816
 31
0.0
  0
LINE
  5
B29
  8
SAPA_MATT
 10
31.529949585625641
 20
-13.53271451897386
 30
0.0
 11
37.096136675913122
 21
-28.825687861998532
 31
0.0
  0
LINE
  5
B2A
  8
SAPA_MATT
 10
-7.5824467160121367
 20
-43.491095667125727
 30
0.0
 11
33.764028598566881
 21
-28.442209360796671
 31
0.0
  0
SOLID
  5
B2B
  8
SAPA_MATT
 10
-7.7534567876749696
 20
-43.021249356732767
 30
0.0
 11
-7.411436644349302
 21
-43.960941977518679
 31
0.0
 12
-10.401524578369861
 22
-44.517156097102742
 32
0.0
 13
-10.401524578369861
 23
-44.517156097102742
 33
0.0
  0
SOLID
  5
B2C
  8
SAPA_MATT
 10
33.593018526904054
 20
-27.972363050403711
 30
0.0
 11
33.935038670229723
 21
-28.912055671189631
 31
0.0
 12
36.583106460924611
 22
-27.41614893081967
 32
0.0
 13
36.583106460924611
 23
-27.41614893081967
 33
0.0
  0
INSERT
  5
B2D
  8
0
  2
*U51
 10
0.0
 20
0.0
 30
0.0
  0
POINT
  5
B2E
  8
DEFPOINTS
 62
     0
 10
-15.96771166865733
 20
-29.224182754078068
 30
0.0
  0
POINT
  5
B2F
  8
DEFPOINTS
 62
     0
 10
31.01691937063714
 20
-12.123175587795
 30
0.0
  0
POINT
  5
B30
  8
DEFPOINTS
 62
     0
 10
36.583106460924611
 20
-27.41614893081967
 30
0.0
  0
ENDBLK
  5
B27
  8
0
  0
BLOCK
  8
0
  2
*U33
 70
     1
 10
0.0
 20
0.0
 30
0.0
  3
*U33
  1

  0
TEXT
  5
B52
  8
SAPA_ARTIKELNR
 10
3.7655526280741092
 20
-28.426928560015298
 30
0.0
 40
3.5
  1
68291
 50
20.0
  7
ISO
  0
ENDBLK
  5
B54
  8
0
  0
BLOCK
  8
0
  2
*U34
 70
     1
 10
0.0
 20
0.0
 30
0.0
  3
*U34
  1

  0
TEXT
  5
B56
  8
SAPA_ARTIKELNR
 10
-34.031875958978922
 20
75.420652996361525
 30
0.0
 40
3.5
  1
42144
 50
20.0
  7
ISO
  0
ENDBLK
  5
B58
  8
0
  0
BLOCK
  8
0
  2
*U35
 70
     1
 10
0.0
 20
0.0
 30
0.0
  3
*U35
  1

  0
TEXT
  5
B6D
  8
SAPA_ARTIKELNR
 10
-12.46790559766311
 20
92.348904585856076
 30
0.0
 40
3.5
  1
0064
 50
20.0
  7
ISO
  0
ENDBLK
  5
B6F
  8
0
  0
BLOCK
  8
0
  2
*U36
 70
     1
 10
0.0
 20
0.0
 30
0.0
  3
*U36
  1

  0
TEXT
  5
B71
  8
SAPA_ARTIKELNR
 10
68.306390892959058
 20
13.012866699958691
 30
0.0
 40
3.5
  1
68174
  7
ISO
  0
ENDBLK
  5
B73
  8
0
  0
BLOCK
  8
0
  2
*U37
 70
     1
 10
0.0
 20
0.0
 30
0.0
  3
*U37
  1

  0
TEXT
  5
B75
  8
0
 62
     2
 10
121.5497128539476
 20
288.26762218502421
 30
0.0
 40
3.0
  1
min 300
 50
90.0
  7
ISO
  0
ENDBLK
  5
B77
  8
0
  0
BLOCK
  8
0
  2
*U38
 70
     1
 10
0.0
 20
0.0
 30
0.0
  3
*U38
  1

  0
TEXT
  5
C56
  8
0
 62
     2
 10
538.15888178287003
 20
240.51041478304231
 30
0.0
 40
6.0
  1
50
  7
BYGG-01473602$0$ISO
  0
ENDBLK
  5
C58
  8
0
  0
BLOCK
  8
0
  2
*U39
 70
     1
 10
0.0
 20
0.0
 30
0.0
  3
*U39
  1

  0
TEXT
  5
C5A
  8
0
 62
     2
 10
582.23843509911433
 20
195.6081336894147
 30
0.0
 40
6.0
  1
58
 50
90.0
  7
BYGG-01473602$0$ISO
  0
ENDBLK
  5
C5C
  8
0
  0
BLOCK
  8
0
  2
*U40
 70
     1
 10
0.0
 20
0.0
 30
0.0
  3
*U40
  1

  0
TEXT
  5
CB4
  8
0
 62
     2
 10
2.924893507843874
 20
11.80837843001756
 30
0.0
 40
3.0
  1
7
 50
90.0
  7
BYGG-014252$0$ISO
  0
ENDBLK
  5
CB6
  8
0
  0
BLOCK
  8
0
  2
*U41
 70
     1
 10
0.0
 20
0.0
 30
0.0
  3
*U41
  1

  0
TEXT
  5
CB8
  8
0
 62
     2
 10
29.55729736359487
 20
1.4710805811525349
 30
0.0
 40
3.0
  1
47.6
  7
BYGG-014252$0$ISO
  0
ENDBLK
  5
CBA
  8
0
  0
BLOCK
  8
0
  2
*U42
 70
     1
 10
0.0
 20
0.0
 30
0.0
  3
*U42
  1

  0
TEXT
  5
DE9
  8
0
 62
     2
 10
284.82100775789411
 20
-326.41284250989833
 30
0.0
 40
3.0
  1
60
  7
BYGG-014680$0$ISO
  0
ENDBLK
  5
DEB
  8
0
  0
BLOCK
  8
0
  2
*U43
 70
     1
 10
0.0
 20
0.0
 30
0.0
  3
*U43
  1

  0
TEXT
  5
DED
  8
0
 62
     2
 10
327.91011454206352
 20
-292.96547784569952
 30
0.0
 40
3.0
  1
39
 50
90.0
  7
BYGG-014680$0$ISO
  0
ENDBLK
  5
DEF
  8
0
  0
BLOCK
  8
0
  2
*U44
 70
     1
 10
0.0
 20
0.0
 30
0.0
  3
*U44
  1

  0
TEXT
  5
E03
  8
0
 62
     2
 10
10.7754162943013
 20
-35.745202194159177
 30
0.0
 40
3.0
  1
50
 50
19.999999999999972
  7
ISO
  0
ENDBLK
  5
E05
  8
0
  0
BLOCK
  8
0
  2
*U45
 70
     1
 10
0.0
 20
0.0
 30
0.0
  3
*U45
  1

  0
TEXT
  5
E07
  8
0
 62
     2
 10
6.3810204525808309
 20
-29.818594711796639
 30
0.0
 40
6.0
  1
50
 50
19.999999999999531
  7
BYGG-01473602$0$ISO
  0
ENDBLK
  5
E09
  8
0
  0
BLOCK
  8
0
  2
*U46
 70
     1
 10
0.0
 20
0.0
 30
0.0
  3
*U46
  1

  0
TEXT
  5
E0B
  8
0
 62
     2
 10
-41.131757060923647
 20
-3.58453309062459
 30
0.0
 40
6.0
  1
58
 50
289.99999999999949
  7
BYGG-01473602$0$ISO
  0
ENDBLK
  5
E0D
  8
0
  0
BLOCK
  8
0
  2
*U47
 70
     1
 10
0.0
 20
0.0
 30
0.0
  3
*U47
  1

  0
TEXT
  5
E0F
  8
0
 62
     2
 10
-34.165865061856657
 20
82.688117599102924
 30
0.0
 40
3.0
  1
47.6
 50
20.000000000000028
  7
BYGG-014252$0$ISO
  0
ENDBLK
  5
E11
  8
0
  0
BLOCK
  8
0
  2
*U48
 70
     1
 10
0.0
 20
0.0
 30
0.0
  3
*U48
  1

  0
TEXT
  5
E13
  8
0
 62
     2
 10
109.41892563243189
 20
50.34554386531304
 30
0.0
 40
3.0
  1
60
 50
270.0
  7
BYGG-014680$0$ISO
  0
ENDBLK
  5
E15
  8
0
  0
BLOCK
  8
0
  2
*U49
 70
     1
 10
0.0
 20
0.0
 30
0.0
  3
*U49
  1

  0
TEXT
  5
E17
  8
0
 62
     2
 10
70.13850354676714
 20
7.2564370811436234
 30
0.0
 40
3.0
  1
39
 50
0.0000000000000127
  7
BYGG-014680$0$ISO
  0
ENDBLK
  5
E19
  8
0
  0
BLOCK
  8
0
  2
*U50
 70
     1
 10
0.0
 20
0.0
 30
0.0
  3
*U50
  1

  0
TEXT
  5
10FD
  8
0
 62
     2
 10
2.2675513695410561
 20
82.819718569579834
 30
0.0
 40
3.0
  1
7
 50
290.00000000000011
  7
BYGG-014252$0$ISO
  0
ENDBLK
  5
10FF
  8
0
  0
BLOCK
  8
0
  2
*U51
 70
     1
 10
0.0
 20
0.0
 30
0.0
  3
*U51
  1

  0
TEXT
  5
126D
  8
SAPA_MATT
 62
     2
 10
10.7754162943013
 20
-35.745202194159177
 30
0.0
 40
3.0
  1
50
 50
19.999999999999972
  7
ISO
  0
ENDBLK
  5
126F
  8
0
  0
BLOCK
  8
0
  2
*U52
 70
     1
 10
0.0
 20
0.0
 30
0.0
  3
*U52
  1

  0
TEXT
  5
1271
  8
SAPA_MATT
 62
     2
 10
121.5497128539476
 20
288.26762218502421
 30
0.0
 40
3.0
  1
min 300
 50
90.0
  7
ISO
  0
ENDBLK
  5
1273
  8
0
  0
ENDSEC
  0
SECTION
  2
ENTITIES
  0
INSERT
  5
6D0
  8
0
  2
*U33
 10
0.0
 20
0.0
 30
0.0
  0
INSERT
  5
6D1
  8
0
  2
*U34
 10
0.0
 20
0.0
 30
0.0
  0
POLYLINE
  5
6D2
  8
SAPA_LIGHT
 66
     1
 10
0.0
 20
0.0
 30
0.0
  0
VERTEX
  5
B59
  8
SAPA_LIGHT
 10
31.18792944229995
 20
-12.59302189818793
 30
0.0
  0
VERTEX
  5
B5A
  8
SAPA_LIGHT
 10
-15.796701596994501
 20
-29.694029064471032
 30
0.0
  0
VERTEX
  5
B5B
  8
SAPA_LIGHT
 10
-37.467258575932661
 20
29.845336902168459
 30
0.0
  0
VERTEX
  5
B5C
  8
SAPA_LIGHT
 10
-18.673406160216089
 20
36.685739768681152
 30
0.0
  0
VERTEX
  5
B5D
  8
SAPA_LIGHT
 10
-27.82586519561109
 20
61.831914300912331
 30
0.0
  0
VERTEX
  5
B5E
  8
SAPA_LIGHT
 10
-43.704487789237731
 20
56.052568315685392
 30
0.0
  0
VERTEX
  5
B5F
  8
SAPA_LIGHT
 10
-47.767526394122058
 20
67.215675136977524
 30
0.0
  0
VERTEX
  5
B60
  8
SAPA_LIGHT
 10
-6.6133549990081981
 20
82.194568540688564
 30
0.0
  0
VERTEX
  5
B61
  8
SAPA_LIGHT
 10
-1.5242559641467319
 20
68.212383857038674
 30
0.0
  0
VERTEX
  5
B62
  8
SAPA_LIGHT
 10
-17.402878557774319
 20
62.43303787181145
 30
0.0
  0
VERTEX
  5
B63
  8
SAPA_LIGHT
 10
-7.4430912863060898
 20
35.068747240880732
 30
0.0
  0
VERTEX
  5
B64
  8
SAPA_LIGHT
 10
11.35076112941246
 20
41.909150107394161
 30
0.0
  0
VERTEX
  5
B65
  8
SAPA_LIGHT
 10
31.18792944229995
 20
-12.59302189818793
 30
0.0
  0
SEQEND
  5
B66
  8
SAPA_LIGHT
  0
POLYLINE
  5
6D4
  8
SAPA_LIGHT
 66
     1
 10
0.0
 20
0.0
 30
0.0
  0
VERTEX
  5
B67
  8
SAPA_LIGHT
 10
-61.654799543902648
 20
49.519189141188768
 30
0.0
  0
VERTEX
  5
B68
  8
SAPA_LIGHT
 10
-33.46402092032541
 20
59.779793440958827
 30
0.0
  0
VERTEX
  5
B69
  8
SAPA_LIGHT
 10
-24.311561884930509
 20
34.633618908727541
 30
0.0
  0
VERTEX
  5
B6A
  8
SAPA_LIGHT
 10
-52.502340508507672
 20
24.373014608957789
 30
0.0
  0
SEQEND
  5
B6B
  8
SAPA_LIGHT
  0
LINE
  5
71B
  8
SAPA_ANSLUTNING
 10
89.778260603956952
 20
144.11731087770971
 30
0.0
 11
-27.380603476252261
 21
101.47497167207359
 31
0.0
  0
ARC
  5
71C
  8
SAPA_ANSLUTNING
 10
-26.8333712469312
 20
99.971463478816176
 30
0.0
 40
1.5999999999999941
 50
110.0
 51
290.0
  0
LINE
  5
71D
  8
SAPA_ANSLUTNING
 10
-26.286139017610139
 20
98.467955285558745
 30
0.0
 11
-15.45818622431041
 21
102.4090078003594
 31
0.0
  0
LINE
  5
71E
  8
SAPA_ANSLUTNING
 10
-14.94515600932189
 20
100.9994688691805
 30
0.0
 11
-25.773108802621639
 21
97.058416354379915
 31
0.0
  0
ARC
  5
71F
  8
SAPA_ANSLUTNING
 10
-26.8333712469312
 20
99.971463478816176
 30
0.0
 40
3.0999999999999801
 50
110.0
 51
290.0
  0
LINE
  5
720
  8
SAPA_ANSLUTNING
 10
-27.893633691240769
 20
102.88451060325249
 30
0.0
 11
88.278260603956909
 21
145.16762218502419
 31
0.0
  0
LINE
  5
722
  8
SAPA_ANSLUTNING
 10
-15.45818622431041
 20
102.4090078003594
 30
0.0
 11
-14.9451560093219
 21
100.9994688691805
 31
0.0
  0
LINE
  5
72B
  8
SAPA_ANSLUTNING
 10
-1.804935561591086
 20
37.120868100834521
 30
0.0
 11
-2.31796577657959
 21
38.530407032013379
 31
0.0
  0
LINE
  5
72C
  8
SAPA_ANSLUTNING
 10
72.313841145035866
 20
64.097896622269758
 30
0.0
 11
-1.8049355615910869
 21
37.120868100834521
 31
0.0
  0
LINE
  5
72D
  8
SAPA_ANSLUTNING
 10
71.800810930047334
 20
65.507435553448701
 30
0.0
 11
-2.3179657765795878
 21
38.530407032013372
 31
0.0
  0
LINE
  5
730
  8
SAPA_ANSLUTNING
 10
-2.3521677909121572
 20
38.624376294091967
 30
0.0
 11
-11.21749060373832
 21
62.981650538507807
 31
0.0
  0
LINE
  5
732
  8
SAPA_ANSLUTNING
 10
-11.73052081872661
 20
64.391189469686751
 30
0.0
 11
89.878260603956932
 21
101.3737614476042
 31
0.0
  0
LINE
  5
733
  8
SAPA_ANSLUTNING
 10
27.464410169489479
 20
77.858844354158435
 30
0.0
 11
36.861336377348572
 21
81.279045787415143
 31
0.0
  0
LINE
  5
734
  8
SAPA_ANSLUTNING
 10
-11.21749060373811
 20
62.981650538507893
 30
0.0
 11
91.378260603956946
 21
100.32345014028959
 31
0.0
  0
LINE
  5
736
  8
SAPA_ANSLUTNING
 10
-11.21749060373833
 20
62.981650538507829
 30
0.0
 11
-11.730520818726831
 21
64.39118946968668
 31
0.0
  0
LINE
  5
756
  8
SAPA_ANSLUTNING
 10
-2.352167790912147
 20
38.624376294091967
 30
0.0
 11
77.967082814742284
 21
67.858192753117834
 31
0.0
  0
LINE
  5
757
  8
SAPA_ANSLUTNING
 10
8.1389543587383972
 20
43.24096580997255
 30
0.0
 11
17.535880566597481
 21
46.661167243229237
 31
0.0
  0
LINE
  5
758
  8
SAPA_ANSLUTNING
 10
-2.8651980059006501
 20
40.033915225270817
 30
0.0
 11
77.01094984432153
 21
69.106455470598021
 31
0.0
  0
INSERT
  5
759
  8
0
  2
*U35
 10
0.0
 20
0.0
 30
0.0
  0
LINE
  5
772
  8
SAPA_ANSLUTNING
 10
91.378260603956946
 20
79.158616791072788
 30
0.0
 11
91.378260603956946
 21
99.206575127482566
 31
0.0
  0
LINE
  5
773
  8
SAPA_ANSLUTNING
 10
90.628260603956875
 20
79.908616791072802
 30
0.0
 11
90.628260603956889
 21
84.875610049042407
 31
0.0
  0
LINE
  5
774
  8
SAPA_ANSLUTNING
 10
89.878260603956932
 20
80.658616791072802
 30
0.0
 11
89.878260603956932
 21
99.206575127482537
 31
0.0
  0
LINE
  5
778
  8
SAPA_ANSLUTNING
 10
89.878260603956932
 20
99.206575127482566
 30
0.0
 11
91.378260603956946
 21
99.206575127482537
 31
0.0
  0
LINE
  5
77A
  8
SAPA_ANSLUTNING
 10
90.628260603956946
 20
100.8486057939469
 30
0.0
 11
90.628260603956946
 21
106.46679481799249
 31
0.0
  0
LINE
  5
77C
  8
SAPA_ANSLUTNING
 10
85.129302892761714
 20
80.658616791072802
 30
0.0
 11
89.878260603956932
 21
80.658616791072802
 31
0.0
  0
LINE
  5
77D
  8
SAPA_ANSLUTNING
 10
85.518914409319237
 20
79.908616791072802
 30
0.0
 11
90.628260603956875
 21
79.908616791072788
 31
0.0
  0
LINE
  5
77E
  8
SAPA_ANSLUTNING
 10
85.908525925876773
 20
79.158616791072802
 30
0.0
 11
91.378260603956946
 21
79.158616791072788
 31
0.0
  0
LINE
  5
77F
  8
SAPA_ANSLUTNING
 10
85.129302892761714
 20
80.658616791072802
 30
0.0
 11
77.01094984432153
 21
69.106455470598021
 31
0.0
  0
LINE
  5
780
  8
SAPA_ANSLUTNING
 10
85.518914409319251
 20
79.908616791072788
 30
0.0
 11
84.093419532995554
 21
77.880182369147079
 31
0.0
  0
LINE
  5
781
  8
SAPA_ANSLUTNING
 10
85.908525925876773
 20
79.158616791072802
 30
0.0
 11
77.967082814742298
 21
67.858192753117834
 31
0.0
  0
LINE
  5
782
  8
SAPA_ANSLUTNING
 10
72.31384114503588
 20
64.097896622269758
 30
0.0
 11
71.800810930047334
 21
65.507435553448701
 31
0.0
  0
LINE
  5
783
  8
SAPA_ANSLUTNING
 10
84.707047861271775
 20
77.448951253923553
 30
0.0
 11
83.479791204719305
 21
78.311413484370632
 31
0.0
  0
LINE
  5
784
  8
SAPA_ANSLUTNING
 10
89.878260603956932
 20
84.875610049042393
 30
0.0
 11
91.378260603956946
 21
84.875610049042393
 31
0.0
  0
LINE
  5
785
  8
SAPA_ANSLUTNING
 10
73.660922706257736
 20
67.887145308358811
 30
0.0
 11
74.17395292124624
 21
66.477606377179953
 31
0.0
  0
LINE
  5
786
  8
SAPA_ANSLUTNING
 10
64.263996498398654
 20
64.466943875102103
 30
0.0
 11
64.777026713387158
 21
63.057404943923252
 31
0.0
  0
LINE
  5
787
  8
SAPA_ANSLUTNING
 10
45.470144082680498
 20
57.626541008588667
 30
0.0
 11
45.983174297669002
 21
56.217002077409823
 31
0.0
  0
LINE
  5
788
  8
SAPA_ANSLUTNING
 10
36.073217874821431
 20
54.206339575331953
 30
0.0
 11
36.586248089809942
 21
52.796800644153102
 31
0.0
  0
LINE
  5
789
  8
SAPA_ANSLUTNING
 10
17.279365459103278
 20
47.365936708818509
 30
0.0
 11
17.792395674091789
 21
45.956397777639658
 31
0.0
  0
LINE
  5
78A
  8
SAPA_ANSLUTNING
 10
7.8824392512442119
 20
43.945735275561802
 30
0.0
 11
8.3954694662327167
 21
42.536196344382951
 31
0.0
  0
LINE
  5
78B
  8
SAPA_ANSLUTNING
 10
36.329732982315647
 20
53.501570109742609
 30
0.0
 11
45.726659190174729
 21
56.921771542999309
 31
0.0
  0
LINE
  5
78C
  8
SAPA_ANSLUTNING
 10
64.520511605892906
 20
63.762174409512681
 30
0.0
 11
73.917437813752016
 21
67.182375842769375
 31
0.0
  0
LINE
  5
78D
  8
SAPA_ANSLUTNING
 10
-0.7263684540877673
 20
67.598240054388384
 30
0.0
 11
8.6705577537713161
 21
71.018441487645077
 31
0.0
  0
LINE
  5
78E
  8
SAPA_ANSLUTNING
 10
27.464410169489479
 20
77.858844354158464
 30
0.0
 11
36.861336377348572
 21
81.279045787415157
 31
0.0
  0
LINE
  5
78F
  8
SAPA_ANSLUTNING
 10
36.604821269854341
 20
81.983815253004508
 30
0.0
 11
37.117851484842852
 21
80.574276321825664
 31
0.0
  0
LINE
  5
790
  8
SAPA_ANSLUTNING
 10
27.20789506199527
 20
78.563613819747786
 30
0.0
 11
27.72092527698377
 21
77.154074888568942
 31
0.0
  0
LINE
  5
791
  8
SAPA_ANSLUTNING
 10
8.4140426462771192
 20
71.723210953234357
 30
0.0
 11
8.9270728612656232
 21
70.313672022055499
 31
0.0
  0
LINE
  5
792
  8
SAPA_ANSLUTNING
 10
-0.9828835615819517
 20
68.30300951997765
 30
0.0
 11
-0.4698533465934478
 21
66.893470588798792
 31
0.0
  0
LINE
  5
793
  8
SAPA_ANSLUTNING
 10
55.655188793066699
 20
88.119448653928615
 30
0.0
 11
65.052115000925795
 21
91.539650087185308
 31
0.0
  0
LINE
  5
794
  8
SAPA_ANSLUTNING
 10
55.655188793066699
 20
88.119448653928629
 30
0.0
 11
65.052115000925795
 21
91.539650087185322
 31
0.0
  0
LINE
  5
795
  8
SAPA_ANSLUTNING
 10
64.795599893431543
 20
92.244419552774687
 30
0.0
 11
65.308630108420061
 21
90.834880621595829
 31
0.0
  0
LINE
  5
796
  8
SAPA_ANSLUTNING
 10
55.39867368557249
 20
88.824218119517951
 30
0.0
 11
55.911703900560987
 21
87.414679188339093
 31
0.0
  0
LINE
  5
797
  8
SAPA_ANSLUTNING
 10
83.845967416643944
 20
98.380052953698737
 30
0.0
 11
90.628260603956946
 21
100.8486057939471
 31
0.0
  0
LINE
  5
798
  8
SAPA_ANSLUTNING
 10
83.845967416643944
 20
98.380052953698751
 30
0.0
 11
90.628260603956946
 21
100.8486057939471
 31
0.0
  0
LINE
  5
79A
  8
SAPA_ANSLUTNING
 10
83.589452309149721
 20
99.084822419288059
 30
0.0
 11
84.102482524138225
 21
97.675283488109216
 31
0.0
  0
LINE
  5
79B
  8
SAPA_ANSLUTNING
 10
89.878260603956946
 20
106.46679481799249
 30
0.0
 11
91.378260603956946
 21
106.46679481799249
 31
0.0
  0
LINE
  5
79C
  8
SAPA_ANSLUTNING
 10
89.878260603956946
 20
126.46679481799249
 30
0.0
 11
91.378260603956946
 21
126.46679481799249
 31
0.0
  0
LINE
  5
79D
  8
SAPA_ANSLUTNING
 10
89.878260603956946
 20
136.46679481799251
 30
0.0
 11
91.378260603956946
 21
136.46679481799251
 31
0.0
  0
LINE
  5
79E
  8
SAPA_ANSLUTNING
 10
89.878260603956946
 20
156.46679481799251
 30
0.0
 11
91.378260603956946
 21
156.46679481799251
 31
0.0
  0
LINE
  5
79F
  8
SAPA_ANSLUTNING
 10
89.878260603956946
 20
166.46679481799251
 30
0.0
 11
91.378260603956946
 21
166.46679481799251
 31
0.0
  0
LINE
  5
7A0
  8
SAPA_ANSLUTNING
 10
90.628260603956932
 20
156.46679481799251
 30
0.0
 11
90.628260603956932
 21
166.46679481799251
 31
0.0
  0
LINE
  5
7A1
  8
SAPA_ANSLUTNING
 10
90.628260603956932
 20
126.46679481799249
 30
0.0
 11
90.628260603956932
 21
136.46679481799251
 31
0.0
  0
LINE
  5
7E3
  8
SAPA_ANSLUTNING
 10
72.289158284004486
 20
164.11060253678849
 30
0.0
 11
72.289158284004486
 21
455.08704951410408
 31
0.0
  0
LINE
  5
7E5
  8
SAPA_ANSLUTNING
 10
82.289158284004486
 20
169.8841052286848
 30
0.0
 11
82.289158284004486
 21
455.08704951410408
 31
0.0
  0
LINE
  5
7F6
  8
SAPA_ANSLUTNING
 10
89.979174363428285
 20
445.29877523671809
 30
0.0
 11
91.478260603956926
 21
445.16762218502419
 31
0.0
  0
LINE
  5
801
  8
SAPA_ANSLUTNING
 10
72.289158284004486
 20
164.11060253678849
 30
0.0
 11
82.289158284004486
 21
169.8841052286848
 31
0.0
  0
LINE
  5
802
  8
SAPA_ANSLUTNING
 10
91.478260603956926
 20
445.16762218502419
 30
0.0
 11
89.778260603956923
 21
425.73653327032969
 31
0.0
  0
LINE
  5
803
  8
SAPA_ANSLUTNING
 10
89.98396855681932
 20
445.29835579914572
 30
0.0
 11
88.278260603956952
 21
425.80202468469292
 31
0.0
  0
LINE
  5
842
  8
SAPA_ANSLUTNING
 10
89.878260603956932
 20
409.09773551211839
 30
0.0
 11
91.378260603956946
 21
409.09773551211839
 31
0.0
  0
LINE
  5
843
  8
SAPA_ANSLUTNING
 10
89.878260603956932
 20
399.09773551211839
 30
0.0
 11
91.378260603956946
 21
399.09773551211839
 31
0.0
  0
LINE
  5
844
  8
SAPA_ANSLUTNING
 10
90.628260603956932
 20
399.09773551211839
 30
0.0
 11
90.628260603956932
 21
409.09773551211839
 31
0.0
  0
LINE
  5
846
  8
SAPA_ANSLUTNING
 10
91.478260603956926
 20
-55.776557027373308
 30
0.0
 11
91.478260603956926
 21
458.40334198463842
 31
0.0
  0
LINE
  5
847
  8
SAPA_ANSLUTNING
 10
91.378260603956946
 20
100.32345014028959
 30
0.0
 11
91.378260603956946
 21
409.09773551211839
 31
0.0
  0
LINE
  5
848
  8
SAPA_ANSLUTNING
 10
89.878260603957173
 20
101.37376144760429
 30
0.0
 11
89.878260603956932
 21
409.09773551211839
 31
0.0
  0
LINE
  5
849
  8
SAPA_ANSLUTNING
 10
89.778260603957037
 20
144.1173108777098
 30
0.0
 11
89.778260603956937
 21
425.73653327032969
 31
0.0
  0
LINE
  5
84A
  8
SAPA_ANSLUTNING
 10
88.278260603956923
 20
145.16762218502419
 30
0.0
 11
88.278260603956923
 21
425.8020246846927
 31
0.0
  0
LINE
  5
863
  8
SAPA_ANSLUTNING
 10
-2.8651980059006572
 20
40.033915225270817
 30
0.0
 11
2.0313905566513251
 21
67.803848918219913
 31
0.0
  0
LINE
  5
864
  8
SAPA_ANSLUTNING
 10
23.632564314878671
 20
49.678311984695043
 30
0.0
 11
2.0313905566513228
 21
67.803848918219913
 31
0.0
  0
LINE
  5
865
  8
SAPA_ANSLUTNING
 10
23.632564314878671
 20
49.678311984695043
 30
0.0
 11
28.529152877430661
 21
77.448245677644124
 31
0.0
  0
LINE
  5
866
  8
SAPA_ANSLUTNING
 10
50.130326635657987
 20
59.322708744119247
 30
0.0
 11
28.529152877430661
 21
77.448245677644124
 31
0.0
  0
LINE
  5
867
  8
SAPA_ANSLUTNING
 10
50.130326635658001
 20
59.322708744119247
 30
0.0
 11
55.026915198209991
 21
87.092642437068349
 31
0.0
  0
LINE
  5
868
  8
SAPA_ANSLUTNING
 10
76.628088956437324
 20
68.967105503543465
 30
0.0
 11
55.026915198209991
 21
87.092642437068349
 31
0.0
  0
INSERT
  5
86A
  8
0
  2
*U36
 10
0.0
 20
0.0
 30
0.0
  0
LINE
  5
8BD
  8
SAPA_ANSLUTNING
 10
90.628260603956932
 20
369.0977355121185
 30
0.0
 11
90.628260603956932
 21
379.0977355121185
 31
0.0
  0
LINE
  5
8BE
  8
SAPA_ANSLUTNING
 10
89.878260603956932
 20
379.0977355121185
 30
0.0
 11
91.378260603956946
 21
379.0977355121185
 31
0.0
  0
LINE
  5
8BF
  8
SAPA_ANSLUTNING
 10
89.878260603956932
 20
369.0977355121185
 30
0.0
 11
91.378260603956946
 21
369.0977355121185
 31
0.0
  0
LINE
  5
8C0
  8
SAPA_ANSLUTNING
 10
90.628260603956932
 20
339.09773551211839
 30
0.0
 11
90.628260603956932
 21
349.09773551211839
 31
0.0
  0
LINE
  5
8C1
  8
SAPA_ANSLUTNING
 10
89.878260603956932
 20
349.09773551211839
 30
0.0
 11
91.378260603956946
 21
349.09773551211839
 31
0.0
  0
LINE
  5
8C2
  8
SAPA_ANSLUTNING
 10
89.878260603956932
 20
339.09773551211839
 30
0.0
 11
91.378260603956946
 21
339.09773551211839
 31
0.0
  0
LINE
  5
8C3
  8
SAPA_ANSLUTNING
 10
90.628260603956932
 20
309.09773551211839
 30
0.0
 11
90.628260603956932
 21
319.0977355121185
 31
0.0
  0
LINE
  5
8C4
  8
SAPA_ANSLUTNING
 10
89.878260603956932
 20
319.0977355121185
 30
0.0
 11
91.378260603956946
 21
319.0977355121185
 31
0.0
  0
LINE
  5
8C5
  8
SAPA_ANSLUTNING
 10
89.878260603956932
 20
309.09773551211839
 30
0.0
 11
91.378260603956946
 21
309.09773551211839
 31
0.0
  0
LINE
  5
8C6
  8
SAPA_ANSLUTNING
 10
90.628260603956932
 20
279.0977355121185
 30
0.0
 11
90.628260603956932
 21
289.09773551211839
 31
0.0
  0
LINE
  5
8C7
  8
SAPA_ANSLUTNING
 10
89.878260603956932
 20
289.09773551211839
 30
0.0
 11
91.378260603956946
 21
289.09773551211839
 31
0.0
  0
LINE
  5
8C8
  8
SAPA_ANSLUTNING
 10
89.878260603956932
 20
279.0977355121185
 30
0.0
 11
91.378260603956946
 21
279.0977355121185
 31
0.0
  0
LINE
  5
8C9
  8
SAPA_ANSLUTNING
 10
90.628260603956932
 20
249.09773551211839
 30
0.0
 11
90.628260603956932
 21
259.09773551211839
 31
0.0
  0
LINE
  5
8CA
  8
SAPA_ANSLUTNING
 10
89.878260603956932
 20
259.09773551211839
 30
0.0
 11
91.378260603956946
 21
259.09773551211839
 31
0.0
  0
LINE
  5
8CB
  8
SAPA_ANSLUTNING
 10
89.878260603956932
 20
249.09773551211839
 30
0.0
 11
91.378260603956946
 21
249.09773551211839
 31
0.0
  0
LINE
  5
8CC
  8
SAPA_ANSLUTNING
 10
90.628260603956932
 20
219.0977355121185
 30
0.0
 11
90.628260603956932
 21
229.0977355121185
 31
0.0
  0
LINE
  5
8CD
  8
SAPA_ANSLUTNING
 10
89.878260603956932
 20
229.0977355121185
 30
0.0
 11
91.378260603956946
 21
229.0977355121185
 31
0.0
  0
LINE
  5
8CE
  8
SAPA_ANSLUTNING
 10
89.878260603956932
 20
219.0977355121185
 30
0.0
 11
91.378260603956946
 21
219.0977355121185
 31
0.0
  0
LINE
  5
8CF
  8
SAPA_ANSLUTNING
 10
90.628260603956932
 20
189.09773551211839
 30
0.0
 11
90.628260603956932
 21
199.09773551211839
 31
0.0
  0
LINE
  5
8D0
  8
SAPA_ANSLUTNING
 10
89.878260603956932
 20
199.09773551211839
 30
0.0
 11
91.378260603956946
 21
199.09773551211839
 31
0.0
  0
LINE
  5
8D1
  8
SAPA_ANSLUTNING
 10
89.878260603956932
 20
189.09773551211839
 30
0.0
 11
91.378260603956946
 21
189.09773551211839
 31
0.0
  0
LINE
  5
9F2
  8
SAPA_PROFIL
 10
27.45136736677355
 20
-2.3269019692880262
 30
0.0
 11
28.590589812288119
 21
-1.91225890891277
 31
0.0
  0
ARC
  5
9F3
  8
SAPA_PROFIL
 10
28.41957974062543
 20
-1.4424125985198879
 30
0.0
 40
0.4999999999998833
 50
289.99999999998761
 51
19.999999999987569
  0
LINE
  5
9F4
  8
SAPA_PROFIL
 10
28.889426051018312
 20
-1.271402526857196
 30
0.0
 11
26.426881019073729
 21
5.4943843428007471
 31
0.0
  0
ARC
  5
9F5
  8
SAPA_PROFIL
 10
28.7761125710385
 20
6.3494347011149141
 30
0.0
 40
2.4999999999999969
 50
109.9999999999998
 51
199.99999999999989
  0
LINE
  5
9F6
  8
SAPA_PROFIL
 10
27.92106221272433
 20
8.6986662530796846
 30
0.0
 11
39.197373662155172
 21
12.802907972987811
 31
0.0
  0
ARC
  5
9F7
  8
SAPA_PROFIL
 10
40.052424020469431
 20
10.45367642102322
 30
0.0
 40
2.4999999999998672
 50
19.999999999999471
 51
110.0000000000034
  0
LINE
  5
9F8
  8
SAPA_PROFIL
 10
42.40165557243408
 20
11.30872677933732
 30
0.0
 11
44.864200604378588
 21
4.5429399096792951
 31
0.0
  0
ARC
  5
9F9
  8
SAPA_PROFIL
 10
45.33404691477169
 20
4.713949981342159
 30
0.0
 40
0.5000000000001553
 50
199.99999999999699
 51
289.9999999999971
  0
LINE
  5
9FA
  8
SAPA_PROFIL
 10
45.50505698643456
 20
4.2441036709490501
 30
0.0
 11
48.089211693596347
 21
5.1846590650950812
 31
0.0
  0
ARC
  5
9FB
  8
SAPA_PROFIL
 10
44.66901026033905
 20
14.581585272953919
 30
0.0
 40
9.9999999999999751
 50
290.00000000000381
 51
20.00000000000011
  0
LINE
  5
9FC
  8
SAPA_PROFIL
 10
54.06593646819811
 20
18.001786706210609
 30
0.0
 11
51.671795464918453
 21
24.579635051711978
 31
0.0
  0
ARC
  5
9FD
  8
SAPA_PROFIL
 10
62.478260603956379
 20
28.512866699957168
 30
0.0
 40
11.499999999999989
 50
19.999999999999702
 51
200.0
  0
ARC
  5
9FE
  8
SAPA_PROFIL
 10
79.040343045307878
 20
34.540971726071973
 30
0.0
 40
6.1249999999998401
 50
200.0
 51
20.00000000000006
  0
ARC
  5
9FF
  8
SAPA_PROFIL
 10
62.478260603956898
 20
28.51286669995871
 30
0.0
 40
23.74999999999865
 50
19.99999999999682
 51
59.166710716118921
  0
ARC
  5
A00
  8
SAPA_PROFIL
 10
58.39358413028387
 20
19.04487910791438
 30
0.0
 40
33.999999999959591
 50
61.434500649739071
 51
83.773949964552443
  0
LINE
  5
A01
  8
SAPA_PROFIL
 10
62.080929829697268
 20
52.844338891914909
 30
0.0
 11
45.733125854056098
 21
46.894224849162761
 31
0.0
  0
ARC
  5
A02
  8
SAPA_PROFIL
 10
73.842632244487433
 20
24.803050857019219
 30
0.0
 40
35.751423997721538
 50
141.8363046578998
 51
161.873480821843
  0
ARC
  5
A03
  8
SAPA_PROFIL
 10
62.298958860715672
 20
28.128352870726371
 30
0.0
 40
23.749999999996419
 50
160.8332892838834
 51
176.4218215218047
  0
ARC
  5
A04
  8
SAPA_PROFIL
 10
38.096232531457403
 20
29.641805291797869
 30
0.0
 40
0.499999999999841
 50
289.99999999998062
 51
356.42182152175951
  0
LINE
  5
A05
  8
SAPA_PROFIL
 10
38.267242603120017
 20
29.171958981405009
 30
0.0
 11
37.774366419242497
 21
28.99256672129486
 31
0.0
  0
ARC
  5
A06
  8
SAPA_PROFIL
 10
37.945376490905403
 20
28.522720410901961
 30
0.0
 40
0.4999999999999706
 50
110.000000000009
 51
200.00000000000259
  0
LINE
  5
A07
  8
SAPA_PROFIL
 10
37.475530180512493
 20
28.351710339239109
 30
0.0
 11
38.467388596156937
 21
25.626601738959948
 31
0.0
  0
ARC
  5
A08
  8
SAPA_PROFIL
 10
38.185480809921209
 20
25.523995695962221
 30
0.0
 40
0.2999999999999762
 50
290.0000000000087
 51
20.00000000000863
  0
LINE
  5
A09
  8
SAPA_PROFIL
 10
38.288086852918951
 20
25.242087909726489
 30
0.0
 11
19.858520184943941
 21
18.534274212158859
 31
0.0
  0
CIRCLE
  5
ADC
  8
SAPA_PROFIL
 10
62.478260603956919
 20
28.512866699958689
 30
0.0
 40
5.3499999999999988
  0
POLYLINE
  5
ADD
  8
SAPA_PROFIL
 66
     1
 10
0.0
 20
0.0
 30
0.0
 70
     1
  0
VERTEX
  5
F8B
  8
SAPA_PROFIL
 10
72.027183549746326
 20
31.482390327643149
 30
0.0
  0
VERTEX
  5
F8C
  8
SAPA_PROFIL
 10
72.340818344862782
 20
30.165124188154039
 30
0.0
 42
0.8419933402193075
  0
VERTEX
  5
F8D
  8
SAPA_PROFIL
 10
84.478260603956926
 20
32.26286769867005
 30
0.0
  0
VERTEX
  5
F8E
  8
SAPA_PROFIL
 10
84.478260603956869
 20
52.646841296174273
 30
0.0
  0
VERTEX
  5
F8F
  8
SAPA_PROFIL
 10
84.978260603956855
 20
53.512866699958693
 30
0.0
  0
VERTEX
  5
F90
  8
SAPA_PROFIL
 10
84.478260603956869
 20
54.378892103743112
 30
0.0
  0
VERTEX
  5
F91
  8
SAPA_PROFIL
 10
84.478260603956869
 20
71.584663469683093
 30
0.0
  0
VERTEX
  5
F92
  8
SAPA_PROFIL
 10
88.478260603956869
 20
78.512866699958693
 30
0.0
  0
VERTEX
  5
F93
  8
SAPA_PROFIL
 10
91.478260603956926
 20
78.512866699958693
 30
0.0
  0
VERTEX
  5
F94
  8
SAPA_PROFIL
 10
91.478260603956926
 20
68.512866699958693
 30
0.0
  0
VERTEX
  5
F95
  8
SAPA_PROFIL
 10
90.478260603956926
 20
68.512866699958693
 30
0.0
  0
VERTEX
  5
F96
  8
SAPA_PROFIL
 10
90.478260603956926
 20
28.512866699958689
 30
0.0
  0
VERTEX
  5
F97
  8
SAPA_PROFIL
 10
91.478260603956926
 20
28.512866699958689
 30
0.0
  0
VERTEX
  5
F98
  8
SAPA_PROFIL
 10
91.478260603956926
 20
18.512866699958689
 30
0.0
  0
VERTEX
  5
F99
  8
SAPA_PROFIL
 10
62.478260603956919
 20
18.512866699958689
 30
0.0
 42
-1.9780623748969339
  0
SEQEND
  5
F9A
  8
SAPA_PROFIL
  0
INSERT
  5
ADE
  8
SAPA_PROFIL
  2
BYGG-014680$0$68174-TXT
 10
-89.229971042498903
 20
60.073255184314348
 30
0.0
 43
-1.0
 50
270.0
210
0.0
220
0.0
230
-1.0
  0
POLYLINE
  5
ADF
  8
SAPA_PROFIL
 66
     1
 10
0.0
 20
0.0
 30
0.0
 70
     1
  0
VERTEX
  5
F9B
  8
SAPA_PROFIL
 10
-12.79078326303636
 20
67.304236594123068
 30
0.0
  0
VERTEX
  5
F9C
  8
SAPA_PROFIL
 10
5.0633765318959831
 20
73.802619317310814
 30
0.0
 42
0.4142135623730999
  0
VERTEX
  5
F9D
  8
SAPA_PROFIL
 10
6.8563939642766618
 20
77.647757609645566
 30
0.0
  0
VERTEX
  5
F9E
  8
SAPA_PROFIL
 10
-2.720170048842192
 20
103.9591509916512
 30
0.0
 42
0.4142135623730951
  0
VERTEX
  5
F9F
  8
SAPA_PROFIL
 10
-6.5653083411768867
 20
105.75216842403189
 30
0.0
  0
VERTEX
  5
FA0
  8
SAPA_PROFIL
 10
-24.419468136109231
 20
99.253785700844176
 30
0.0
  0
VERTEX
  5
FA1
  8
SAPA_PROFIL
 10
-25.445528566086178
 20
102.07286356320191
 30
0.0
  0
VERTEX
  5
FA2
  8
SAPA_PROFIL
 10
-1.9532130464384629
 20
110.6233671463436
 30
0.0
  0
VERTEX
  5
FA3
  8
SAPA_PROFIL
 10
11.727592686588419
 20
73.035662314907086
 30
0.0
  0
VERTEX
  5
FA4
  8
SAPA_PROFIL
 10
-11.76472283305929
 20
64.485158731765324
 30
0.0
  0
SEQEND
  5
FA5
  8
SAPA_PROFIL
  0
POLYLINE
  5
AE0
  8
SAPA_PROFIL
 66
     1
 10
0.0
 20
0.0
 30
0.0
 70
     1
  0
VERTEX
  5
FA6
  8
SAPA_PROFIL
 10
-47.63453102483232
 20
66.463865638611566
 30
0.0
 42
0.5773502691895968
  0
VERTEX
  5
FA7
  8
SAPA_PROFIL
 10
-47.077678535306987
 20
64.933925997674947
 30
0.0
  0
VERTEX
  5
FA8
  8
SAPA_PROFIL
 10
-46.106688215213481
 20
64.762714192825115
 30
0.0
  0
VERTEX
  5
FA9
  8
SAPA_PROFIL
 10
-46.497062552571393
 20
62.548791310521921
 30
0.0
  0
VERTEX
  5
FAA
  8
SAPA_PROFIL
 10
-47.62469369751441
 20
62.138367138531137
 30
0.0
 42
0.4142135623729286
  0
VERTEX
  5
FAB
  8
SAPA_PROFIL
 10
-47.803995440752601
 20
61.753853309297789
 30
0.0
  0
VERTEX
  5
FAC
  8
SAPA_PROFIL
 10
-47.667187383422302
 20
61.377976260983353
 30
0.0
 42
0.4142135623732059
  0
VERTEX
  5
FAD
  8
SAPA_PROFIL
 10
-47.28267355418874
 20
61.198674517745239
 30
0.0
  0
VERTEX
  5
FAE
  8
SAPA_PROFIL
 10
-46.058890449512788
 20
61.644095141045518
 30
0.0
 42
-0.4142135623731506
  0
VERTEX
  5
FAF
  8
SAPA_PROFIL
 10
-45.674376620279119
 20
61.464793397807462
 30
0.0
  0
VERTEX
  5
FB0
  8
SAPA_PROFIL
 10
-45.475991433840207
 20
60.919734577712241
 30
0.0
 42
0.4142135623730951
  0
VERTEX
  5
FB1
  8
SAPA_PROFIL
 10
-45.091477604606759
 20
60.740432834474099
 30
0.0
  0
VERTEX
  5
FB2
  8
SAPA_PROFIL
 10
-42.828938057623589
 20
61.563929883426098
 30
0.0
  0
VERTEX
  5
FB3
  8
SAPA_PROFIL
 10
-42.442107691035098
 20
62.192951547011639
 30
0.0
 42
0.7105995015649727
  0
VERTEX
  5
FB4
  8
SAPA_PROFIL
 10
-42.800258344008512
 20
62.632011973417391
 30
0.0
  0
VERTEX
  5
FB5
  8
SAPA_PROFIL
 10
-43.458043178558469
 20
62.392597873089493
 30
0.0
  0
VERTEX
  5
FB6
  8
SAPA_PROFIL
 10
-44.38359763126121
 20
64.935537832365597
 30
0.0
 42
-0.4142135623731506
  0
VERTEX
  5
FB7
  8
SAPA_PROFIL
 10
-44.20429588802309
 20
65.320051661599152
 30
0.0
  0
VERTEX
  5
FB8
  8
SAPA_PROFIL
 10
-40.069648356565473
 20
66.824940292232071
 30
0.0
 42
-0.4142135623730951
  0
VERTEX
  5
FB9
  8
SAPA_PROFIL
 10
-39.685134527331797
 20
66.645638548994015
 30
0.0
  0
VERTEX
  5
FBA
  8
SAPA_PROFIL
 10
-38.759580074629142
 20
64.102698589717761
 30
0.0
  0
VERTEX
  5
FBB
  8
SAPA_PROFIL
 10
-39.417364909179149
 20
63.863284489389947
 30
0.0
 42
0.7105995015650586
  0
VERTEX
  5
FBC
  8
SAPA_PROFIL
 10
-39.409501624691693
 20
63.296729887415992
 30
0.0
  0
VERTEX
  5
FBD
  8
SAPA_PROFIL
 10
-38.708845040359343
 20
63.063521104118081
 30
0.0
  0
VERTEX
  5
FBE
  8
SAPA_PROFIL
 10
-30.763347835276161
 20
65.955445583213773
 30
0.0
  0
VERTEX
  5
FBF
  8
SAPA_PROFIL
 10
-30.421327691950491
 20
65.015752962427882
 30
0.0
  0
VERTEX
  5
FC0
  8
SAPA_PROFIL
 10
-29.481635071164579
 20
65.357773105753552
 30
0.0
  0
VERTEX
  5
FC1
  8
SAPA_PROFIL
 10
-29.823655214490248
 20
66.297465726539457
 30
0.0
  0
VERTEX
  5
FC2
  8
SAPA_PROFIL
 10
-27.051561983171879
 20
67.306425149350162
 30
0.0
  0
VERTEX
  5
FC3
  8
SAPA_PROFIL
 10
-27.393582126497549
 20
68.246117770136067
 30
0.0
  0
VERTEX
  5
FC4
  8
SAPA_PROFIL
 10
-25.608166147004411
 20
68.895956042454685
 30
0.0
  0
VERTEX
  5
FC5
  8
SAPA_PROFIL
 10
-25.309329908274041
 20
69.53681242451043
 30
0.0
  0
VERTEX
  5
FC6
  8
SAPA_PROFIL
 10
-24.668473526217969
 20
69.237976185780539
 30
0.0
  0
VERTEX
  5
FC7
  8
SAPA_PROFIL
 10
-22.883057546724981
 20
69.887814458099228
 30
0.0
  0
VERTEX
  5
FC8
  8
SAPA_PROFIL
 10
-22.541037403399351
 20
68.948121837313423
 30
0.0
  0
VERTEX
  5
FC9
  8
SAPA_PROFIL
 10
-19.768944172080879
 20
69.957081260124156
 30
0.0
  0
VERTEX
  5
FCA
  8
SAPA_PROFIL
 10
-19.426924028755209
 20
69.01738863933825
 30
0.0
  0
VERTEX
  5
FCB
  8
SAPA_PROFIL
 10
-18.487231407969301
 20
69.35940878266392
 30
0.0
  0
VERTEX
  5
FCC
  8
SAPA_PROFIL
 10
-18.829251551294959
 20
70.299101403449839
 30
0.0
  0
VERTEX
  5
FCD
  8
SAPA_PROFIL
 10
-10.8837543462116
 20
73.191025882545361
 30
0.0
  0
VERTEX
  5
FCE
  8
SAPA_PROFIL
 10
-10.496923979623149
 20
73.820047546131335
 30
0.0
 42
0.7105995015650586
  0
VERTEX
  5
FCF
  8
SAPA_PROFIL
 10
-10.855074632596519
 20
74.259107972537009
 30
0.0
  0
VERTEX
  5
FD0
  8
SAPA_PROFIL
 10
-11.51285946714645
 20
74.01969387220899
 30
0.0
  0
VERTEX
  5
FD1
  8
SAPA_PROFIL
 10
-12.438413919849109
 20
76.562633831485243
 30
0.0
 42
-0.4142135623730951
  0
VERTEX
  5
FD2
  8
SAPA_PROFIL
 10
-12.259112176611
 20
76.947147660718784
 30
0.0
  0
VERTEX
  5
FD3
  8
SAPA_PROFIL
 10
-8.1244646451531963
 20
78.452036291351561
 30
0.0
 42
-0.4142135623731506
  0
VERTEX
  5
FD4
  8
SAPA_PROFIL
 10
-7.7399508159197419
 20
78.272734548113405
 30
0.0
  0
VERTEX
  5
FD5
  8
SAPA_PROFIL
 10
-6.8143963632172229
 20
75.729794588837223
 30
0.0
  0
VERTEX
  5
FD6
  8
SAPA_PROFIL
 10
-7.4721811977672266
 20
75.490380488509416
 30
0.0
 42
0.7105995015649949
  0
VERTEX
  5
FD7
  8
SAPA_PROFIL
 10
-7.46431791327959
 20
74.923825886535283
 30
0.0
  0
VERTEX
  5
FD8
  8
SAPA_PROFIL
 10
-6.7636613289475997
 20
74.690617103237727
 30
0.0
  0
VERTEX
  5
FD9
  8
SAPA_PROFIL
 10
-4.5011217819644411
 20
75.514114152189734
 30
0.0
 42
0.4142135623730951
  0
VERTEX
  5
FDA
  8
SAPA_PROFIL
 10
-4.3218200387263259
 20
75.898627981423289
 30
0.0
  0
VERTEX
  5
FDB
  8
SAPA_PROFIL
 10
-4.5202052251652374
 20
76.443686801518496
 30
0.0
 42
-0.4142135623731506
  0
VERTEX
  5
FDC
  8
SAPA_PROFIL
 10
-4.3409034819271248
 20
76.82820063075205
 30
0.0
  0
VERTEX
  5
FDD
  8
SAPA_PROFIL
 10
-3.1171203772508331
 20
77.273621254051733
 30
0.0
 42
0.414213562373206
  0
VERTEX
  5
FDE
  8
SAPA_PROFIL
 10
-2.9378186340128272
 20
77.658135083285259
 30
0.0
  0
VERTEX
  5
FDF
  8
SAPA_PROFIL
 10
-3.0746266913431262
 20
78.03401213159971
 30
0.0
 42
0.4142135623729286
  0
VERTEX
  5
FE0
  8
SAPA_PROFIL
 10
-3.4591405205765011
 20
78.213313874837652
 30
0.0
  0
VERTEX
  5
FE1
  8
SAPA_PROFIL
 10
-4.5867716655196347
 20
77.802889702846826
 30
0.0
  0
VERTEX
  5
FE2
  8
SAPA_PROFIL
 10
-6.3088979549348121
 20
79.247925237135931
 30
0.0
  0
VERTEX
  5
FE3
  8
SAPA_PROFIL
 10
-5.6751290426944987
 20
80.003221635719129
 30
0.0
 42
0.5773502691896019
  0
VERTEX
  5
FE4
  8
SAPA_PROFIL
 10
-6.2319815322189838
 20
81.533161276656074
 30
0.0
  0
VERTEX
  5
FE5
  8
SAPA_PROFIL
 10
-7.4491691607736259
 20
81.747784282744362
 30
0.0
 42
0.1316524948697527
  0
VERTEX
  5
FE6
  8
SAPA_PROFIL
 10
-7.964837471243114
 20
81.702669148662594
 30
0.0
  0
VERTEX
  5
FE7
  8
SAPA_PROFIL
 10
-46.41604392188718
 20
67.707574529003566
 30
0.0
 42
0.1316524948697533
  0
VERTEX
  5
FE8
  8
SAPA_PROFIL
 10
-46.840068214812113
 20
67.410669526089663
 30
0.0
  0
SEQEND
  5
FE9
  8
SAPA_PROFIL
  0
POLYLINE
  5
AE1
  8
SAPA_PROFIL
 62
     4
 66
     1
 10
0.0
 20
0.0
 30
0.0
 70
     1
  0
VERTEX
  5
FEA
  8
SAPA_PROFIL
 62
     4
 10
-17.788169817537291
 20
45.510219846920577
 30
0.0
  0
VERTEX
  5
FEB
  8
SAPA_PROFIL
 62
     4
 10
-17.03572550222081
 20
43.442896081191542
 30
0.0
 42
1.0
  0
VERTEX
  5
FEC
  8
SAPA_PROFIL
 62
     4
 10
-14.874432474413259
 20
44.229542410840573
 30
0.0
  0
VERTEX
  5
FED
  8
SAPA_PROFIL
 62
     4
 10
-15.626876789729639
 20
46.296866176569651
 30
0.0
 42
1.0
  0
SEQEND
  5
FEE
  8
SAPA_PROFIL
 62
     4
  0
POLYLINE
  5
AE2
  8
SAPA_PROFIL
 62
     4
 66
     1
 10
0.0
 20
0.0
 30
0.0
 70
     1
  0
VERTEX
  5
FEF
  8
SAPA_PROFIL
 62
     4
 10
-25.647898958161029
 20
58.77180564334892
 30
0.0
  0
VERTEX
  5
FF0
  8
SAPA_PROFIL
 62
     4
 10
-26.691345007036961
 20
61.638650101054687
 30
0.0
  0
VERTEX
  5
FF1
  8
SAPA_PROFIL
 62
     4
 10
-27.829535888485282
 20
64.765803846863093
 30
0.0
 42
-0.6681786379192966
  0
VERTEX
  5
FF2
  8
SAPA_PROFIL
 62
     4
 10
-27.14838044722201
 20
65.389967812044191
 30
0.0
  0
VERTEX
  5
FF3
  8
SAPA_PROFIL
 62
     4
 10
-24.397252441944431
 20
64.107095746833579
 30
0.0
 42
0.1989123679837333
  0
VERTEX
  5
FF4
  8
SAPA_PROFIL
 62
     4
 10
-23.632614034771478
 20
64.073710912102001
 30
0.0
  0
VERTEX
  5
FF5
  8
SAPA_PROFIL
 62
     4
 10
-23.08215484197698
 20
64.274061673457396
 30
0.0
 42
0.1989123667755704
  0
VERTEX
  5
FF6
  8
SAPA_PROFIL
 62
     4
 10
-22.517867199248329
 20
64.791136030396018
 30
0.0
  0
VERTEX
  5
FF7
  8
SAPA_PROFIL
 62
     4
 10
-21.234995126109229
 20
67.542264052675932
 30
0.0
 42
-0.6681786379192936
  0
VERTEX
  5
FF8
  8
SAPA_PROFIL
 62
     4
 10
-20.311994922198028
 20
67.501964993468448
 30
0.0
  0
VERTEX
  5
FF9
  8
SAPA_PROFIL
 62
     4
 10
-19.173804040749712
 20
64.374811247660034
 30
0.0
  0
VERTEX
  5
FFA
  8
SAPA_PROFIL
 62
     4
 10
-18.130357991873758
 20
61.50796678995426
 30
0.0
 42
-0.4142135623730951
  0
VERTEX
  5
FFB
  8
SAPA_PROFIL
 62
     4
 10
-18.42919423060388
 20
60.86711040789848
 30
0.0
  0
VERTEX
  5
FFC
  8
SAPA_PROFIL
 62
     4
 10
-25.007042576105238
 20
58.472969404618802
 30
0.0
 42
-0.4142135623730951
  0
SEQEND
  5
FFD
  8
SAPA_PROFIL
 62
     4
  0
POLYLINE
  5
AE3
  8
SAPA_PROFIL
 62
     4
 66
     1
 10
0.0
 20
0.0
 30
0.0
 70
     1
  0
VERTEX
  5
FFE
  8
SAPA_PROFIL
 62
     4
 10
-15.85439172999868
 20
51.119917041574809
 30
0.0
  0
VERTEX
  5
FFF
  8
SAPA_PROFIL
 62
     4
 10
-16.728275861274241
 20
49.312792761734549
 30
0.0
 42
-0.9251773977986363
  0
VERTEX
  5
1000
  8
SAPA_PROFIL
 62
     4
 10
-18.883049419792389
 20
48.528519324850087
 30
0.0
  0
VERTEX
  5
1001
  8
SAPA_PROFIL
 62
     4
 10
-20.714080598731009
 20
49.351134945561441
 30
0.0
  0
VERTEX
  5
1002
  8
SAPA_PROFIL
 62
     4
 10
-21.573160337115532
 20
49.038455491928289
 30
0.0
 42
-0.4142135623730769
  0
VERTEX
  5
1003
  8
SAPA_PROFIL
 62
     4
 10
-22.214016719171319
 20
49.337291730658407
 30
0.0
  0
VERTEX
  5
1004
  8
SAPA_PROFIL
 62
     4
 10
-24.963858671509691
 20
56.892420401777102
 30
0.0
 42
-0.4142135623730951
  0
VERTEX
  5
1005
  8
SAPA_PROFIL
 62
     4
 10
-24.665022432779569
 20
57.533276783832889
 30
0.0
  0
VERTEX
  5
1006
  8
SAPA_PROFIL
 62
     4
 10
-18.087174087278211
 20
59.927417787112567
 30
0.0
 42
-0.4142135623730951
  0
VERTEX
  5
1007
  8
SAPA_PROFIL
 62
     4
 10
-17.44631770522242
 20
59.628581548382449
 30
0.0
  0
VERTEX
  5
1008
  8
SAPA_PROFIL
 62
     4
 10
-14.69647575288405
 20
52.073452877263762
 30
0.0
 42
-0.4142135623730951
  0
VERTEX
  5
1009
  8
SAPA_PROFIL
 62
     4
 10
-14.99531199161417
 20
51.43259649520796
 30
0.0
  0
SEQEND
  5
100A
  8
SAPA_PROFIL
 62
     4
  0
POLYLINE
  5
AE4
  8
SAPA_PROFIL
 62
     4
 66
     1
 10
0.0
 20
0.0
 30
0.0
 70
     1
  0
VERTEX
  5
100B
  8
SAPA_PROFIL
 62
     4
 10
-23.205012361455971
 20
49.136225480450641
 30
0.0
 42
-1.0
  0
VERTEX
  5
100C
  8
SAPA_PROFIL
 62
     4
 10
-24.42661276847771
 20
48.691599294127244
 30
0.0
  0
VERTEX
  5
100D
  8
SAPA_PROFIL
 62
     4
 10
-24.71732989030453
 20
49.490338021795289
 30
0.0
  0
VERTEX
  5
100E
  8
SAPA_PROFIL
 62
     4
 10
-24.670345259265179
 20
49.507439028961599
 30
0.0
 42
1.0
  0
VERTEX
  5
100F
  8
SAPA_PROFIL
 62
     4
 10
-24.84135533092801
 20
49.977285339354552
 30
0.0
  0
VERTEX
  5
1010
  8
SAPA_PROFIL
 62
     4
 10
-25.264217010281708
 20
49.823376274857978
 30
0.0
 42
0.4142135623730951
  0
VERTEX
  5
1011
  8
SAPA_PROFIL
 62
     4
 10
-25.443518753519719
 20
49.438862445624459
 30
0.0
  0
VERTEX
  5
1012
  8
SAPA_PROFIL
 62
     4
 10
-24.862084509866101
 20
47.841384990288482
 30
0.0
 42
0.4225789089359373
  0
VERTEX
  5
1013
  8
SAPA_PROFIL
 62
     4
 10
-23.594052551487511
 20
47.281300217659563
 30
0.0
  0
VERTEX
  5
1014
  8
SAPA_PROFIL
 62
     4
 10
-20.774974689129781
 20
48.307360647636571
 30
0.0
  0
VERTEX
  5
1015
  8
SAPA_PROFIL
 62
     4
 10
-19.685518839635058
 20
47.79933904179542
 30
0.0
  0
VERTEX
  5
1016
  8
SAPA_PROFIL
 62
     4
 10
-17.582094958182211
 20
42.020229423962107
 30
0.0
 42
0.4142135623730951
  0
VERTEX
  5
1017
  8
SAPA_PROFIL
 62
     4
 10
-16.300382194070629
 20
41.422556946501871
 30
0.0
  0
VERTEX
  5
1018
  8
SAPA_PROFIL
 62
     4
 10
-14.13908916626308
 20
42.209203276150888
 30
0.0
 42
0.4142135623730951
  0
VERTEX
  5
1019
  8
SAPA_PROFIL
 62
     4
 10
-13.54141668880284
 20
43.490916040262469
 30
0.0
  0
VERTEX
  5
101A
  8
SAPA_PROFIL
 62
     4
 10
-15.64484057025566
 20
49.270025658095669
 30
0.0
  0
VERTEX
  5
101B
  8
SAPA_PROFIL
 62
     4
 10
-15.13681896441444
 20
50.359481507590537
 30
0.0
  0
VERTEX
  5
101C
  8
SAPA_PROFIL
 62
     4
 10
-12.31774110205672
 20
51.385541937567552
 30
0.0
 42
0.4225789089359373
  0
VERTEX
  5
101D
  8
SAPA_PROFIL
 62
     4
 10
-11.706387818863471
 20
52.62966699684781
 30
0.0
  0
VERTEX
  5
101E
  8
SAPA_PROFIL
 62
     4
 10
-12.28782206251709
 20
54.227144452183794
 30
0.0
 42
0.4142135623730951
  0
VERTEX
  5
101F
  8
SAPA_PROFIL
 62
     4
 10
-12.672335891750659
 20
54.4064461954219
 30
0.0
  0
VERTEX
  5
1020
  8
SAPA_PROFIL
 62
     4
 10
-13.09519757110426
 20
54.252537130925369
 30
0.0
 42
1.0
  0
VERTEX
  5
1021
  8
SAPA_PROFIL
 62
     4
 10
-12.92418749944143
 20
53.782690820532409
 30
0.0
  0
VERTEX
  5
1022
  8
SAPA_PROFIL
 62
     4
 10
-12.87720286840206
 20
53.799791827698719
 30
0.0
  0
VERTEX
  5
1023
  8
SAPA_PROFIL
 62
     4
 10
-12.58648574657524
 20
53.001053100030681
 30
0.0
 42
-1.0
  0
VERTEX
  5
1024
  8
SAPA_PROFIL
 62
     4
 10
-13.80808615359698
 20
52.556426913707277
 30
0.0
  0
VERTEX
  5
1025
  8
SAPA_PROFIL
 62
     4
 10
-18.234111419963799
 20
64.716831390985703
 30
0.0
  0
VERTEX
  5
1026
  8
SAPA_PROFIL
 62
     4
 10
-20.097836589356049
 20
69.83737420996016
 30
0.0
  0
VERTEX
  5
1027
  8
SAPA_PROFIL
 62
     4
 10
-21.5073755205349
 20
69.324343994971656
 30
0.0
  0
VERTEX
  5
1028
  8
SAPA_PROFIL
 62
     4
 10
-23.387920060775421
 20
65.291503214099393
 30
0.0
 42
-0.4142135623730951
  0
VERTEX
  5
1029
  8
SAPA_PROFIL
 62
     4
 10
-24.052383085163999
 20
65.04965845145145
 30
0.0
  0
VERTEX
  5
102A
  8
SAPA_PROFIL
 62
     4
 10
-28.085223866036259
 20
66.930202991691971
 30
0.0
  0
VERTEX
  5
102B
  8
SAPA_PROFIL
 62
     4
 10
-29.494762797215149
 20
66.417172776703467
 30
0.0
  0
VERTEX
  5
102C
  8
SAPA_PROFIL
 62
     4
 10
-27.63103762782286
 20
61.296629957729017
 30
0.0
  0
VERTEX
  5
102D
  8
SAPA_PROFIL
 62
     4
 10
-23.30761840445366
 20
49.418133266686397
 30
0.0
  0
SEQEND
  5
102E
  8
SAPA_PROFIL
 62
     4
  0
POLYLINE
  5
AE5
  8
SAPA_PROFIL
  6
CONTINUOUS
 62
     7
 66
     1
 10
0.0
 20
0.0
 30
0.0
 70
   129
  0
VERTEX
  5
102F
  8
SAPA_PROFIL
  6
CONTINUOUS
 62
     7
 10
-30.311586216841761
 20
17.69978471765393
 30
0.0
 42
-0.4040262258351549
  0
VERTEX
  5
1030
  8
SAPA_PROFIL
  6
CONTINUOUS
 62
     7
 10
-30.94618821578803
 20
17.982327731338948
 30
0.0
  0
VERTEX
  5
1031
  8
SAPA_PROFIL
  6
CONTINUOUS
 62
     7
 10
-31.695858081246119
 20
19.837825759736859
 30
0.0
 42
-0.4244748162096148
  0
VERTEX
  5
1032
  8
SAPA_PROFIL
  6
CONTINUOUS
 62
     7
 10
-31.40327622562603
 20
20.49497536683737
 30
0.0
  0
VERTEX
  5
1033
  8
SAPA_PROFIL
  6
CONTINUOUS
 62
     7
 10
-25.765371844913322
 20
22.547004745055801
 30
0.0
 42
0.4142135623731088
  0
VERTEX
  5
1034
  8
SAPA_PROFIL
  6
CONTINUOUS
 62
     7
 10
-25.586070101675318
 20
22.931518574289331
 30
0.0
  0
VERTEX
  5
1035
  8
SAPA_PROFIL
  6
CONTINUOUS
 62
     7
 10
-26.91994866064443
 20
26.596319795354649
 30
0.0
 42
-0.21342176528335
  0
VERTEX
  5
1036
  8
SAPA_PROFIL
  6
CONTINUOUS
 62
     7
 10
-26.902457427581851
 20
26.840643467490231
 30
0.0
 42
0.213421765283341
  0
VERTEX
  5
1037
  8
SAPA_PROFIL
  6
CONTINUOUS
 62
     7
 10
-26.88496619451826
 20
27.08496713962592
 30
0.0
  0
VERTEX
  5
1038
  8
SAPA_PROFIL
  6
CONTINUOUS
 62
     7
 10
-27.074030279813829
 20
27.604416444805398
 30
0.0
 42
0.4142135623730951
  0
VERTEX
  5
1039
  8
SAPA_PROFIL
  6
CONTINUOUS
 62
     7
 10
-27.45854410904747
 20
27.783718188043451
 30
0.0
  0
VERTEX
  5
103A
  8
SAPA_PROFIL
  6
CONTINUOUS
 62
     7
 10
-29.0560215643834
 20
27.202283944389819
 30
0.0
  0
VERTEX
  5
103B
  8
SAPA_PROFIL
  6
CONTINUOUS
 62
     7
 10
-29.448029122344568
 20
26.564843692679631
 30
0.0
 42
0.7105995015649539
  0
VERTEX
  5
103C
  8
SAPA_PROFIL
  6
CONTINUOUS
 62
     7
 10
-29.089878469371168
 20
26.12578326627391
 30
0.0
  0
VERTEX
  5
103D
  8
SAPA_PROFIL
  6
CONTINUOUS
 62
     7
 10
-28.714001421057841
 20
26.262591323603878
 30
0.0
 42
-0.4142135623731206
  0
VERTEX
  5
103E
  8
SAPA_PROFIL
  6
CONTINUOUS
 62
     7
 10
-28.329487591824321
 20
26.083289580365829
 30
0.0
  0
VERTEX
  5
103F
  8
SAPA_PROFIL
  6
CONTINUOUS
 62
     7
 10
-27.508639247842719
 20
23.828027290479611
 30
0.0
 42
-0.4142135623730951
  0
VERTEX
  5
1040
  8
SAPA_PROFIL
  6
CONTINUOUS
 62
     7
 10
-27.68794099108073
 20
23.443513461246202
 30
0.0
  0
VERTEX
  5
1041
  8
SAPA_PROFIL
  6
CONTINUOUS
 62
     7
 10
-32.292434832930667
 20
21.767614758950739
 30
0.0
 42
-0.4142135623731258
  0
VERTEX
  5
1042
  8
SAPA_PROFIL
  6
CONTINUOUS
 62
     7
 10
-32.6769486621642
 20
21.946916502188799
 30
0.0
  0
VERTEX
  5
1043
  8
SAPA_PROFIL
  6
CONTINUOUS
 62
     7
 10
-33.497797006145788
 20
24.202178792075021
 30
0.0
 42
-0.4142135623731257
  0
VERTEX
  5
1044
  8
SAPA_PROFIL
  6
CONTINUOUS
 62
     7
 10
-33.318495262907788
 20
24.58669262130843
 30
0.0
  0
VERTEX
  5
1045
  8
SAPA_PROFIL
  6
CONTINUOUS
 62
     7
 10
-32.472771904201352
 20
24.894510750301212
 30
0.0
 42
0.710599501565072
  0
VERTEX
  5
1046
  8
SAPA_PROFIL
  6
CONTINUOUS
 62
     7
 10
-32.480635188688893
 20
25.461065352275511
 30
0.0
  0
VERTEX
  5
1047
  8
SAPA_PROFIL
  6
CONTINUOUS
 62
     7
 10
-33.190669095841493
 20
25.697395313756829
 30
0.0
  0
VERTEX
  5
1048
  8
SAPA_PROFIL
  6
CONTINUOUS
 62
     7
 10
-35.351962123649059
 20
24.91074898410778
 30
0.0
 42
0.4244748162096024
  0
VERTEX
  5
1049
  8
SAPA_PROFIL
  6
CONTINUOUS
 62
     7
 10
-35.527511237020583
 20
24.51645921984726
 30
0.0
  0
VERTEX
  5
104A
  8
SAPA_PROFIL
  6
CONTINUOUS
 62
     7
 10
-32.431626152793513
 20
16.853874748189071
 30
0.0
 42
0.4040262258351507
  0
VERTEX
  5
104B
  8
SAPA_PROFIL
  6
CONTINUOUS
 62
     7
 10
-29.893218157008508
 20
15.72370269344913
 30
0.0
  0
VERTEX
  5
104C
  8
SAPA_PROFIL
  6
CONTINUOUS
 62
     7
 10
-29.881365377157071
 20
15.728016752508379
 30
0.0
 42
-0.8769764629927435
  0
VERTEX
  5
104D
  8
SAPA_PROFIL
  6
CONTINUOUS
 62
     7
 10
-28.965768797480909
 20
13.96917208743338
 30
0.0
  0
VERTEX
  5
104E
  8
SAPA_PROFIL
  6
CONTINUOUS
 62
     7
 10
-30.947204464022491
 20
12.58175589724231
 30
0.0
 42
0.3394542588633873
  0
VERTEX
  5
104F
  8
SAPA_PROFIL
  6
CONTINUOUS
 62
     7
 10
-31.057039319353009
 20
12.23340424095789
 30
0.0
  0
VERTEX
  5
1050
  8
SAPA_PROFIL
  6
CONTINUOUS
 62
     7
 10
-15.96771166865733
 20
-29.224182754078019
 30
0.0
 42
0.4142135623730951
  0
VERTEX
  5
1051
  8
SAPA_PROFIL
  6
CONTINUOUS
 62
     7
 10
-15.32685528660153
 20
-29.52301899280809
 30
0.0
  0
VERTEX
  5
1052
  8
SAPA_PROFIL
  6
CONTINUOUS
 62
     7
 10
30.718083131907012
 20
-12.76403196985069
 30
0.0
 42
0.4142135623730951
  0
VERTEX
  5
1053
  8
SAPA_PROFIL
  6
CONTINUOUS
 62
     7
 10
31.01691937063714
 20
-12.12317558779494
 30
0.0
  0
VERTEX
  5
1054
  8
SAPA_PROFIL
  6
CONTINUOUS
 62
     7
 10
15.927591719943329
 20
29.334411407241699
 30
0.0
 42
0.3394542588633794
  0
VERTEX
  5
1055
  8
SAPA_PROFIL
  6
CONTINUOUS
 62
     7
 10
15.619537210883321
 20
29.530663773671851
 30
0.0
  0
VERTEX
  5
1056
  8
SAPA_PROFIL
  6
CONTINUOUS
 62
     7
 10
13.20985549259745
 20
29.319843940616408
 30
0.0
 42
-0.8769764629927569
  0
VERTEX
  5
1057
  8
SAPA_PROFIL
  6
CONTINUOUS
 62
     7
 10
12.78067960652413
 20
31.255731259494102
 30
0.0
  0
VERTEX
  5
1058
  8
SAPA_PROFIL
  6
CONTINUOUS
 62
     7
 10
12.79253238637563
 20
31.260045318553349
 30
0.0
 42
0.4040262258351565
  0
VERTEX
  5
1059
  8
SAPA_PROFIL
  6
CONTINUOUS
 62
     7
 10
14.010605132314369
 20
33.757464548875021
 30
0.0
  0
VERTEX
  5
105A
  8
SAPA_PROFIL
  6
CONTINUOUS
 62
     7
 10
11.456776341063399
 20
41.617341376473121
 30
0.0
 42
0.4244748162095171
  0
VERTEX
  5
105B
  8
SAPA_PROFIL
  6
CONTINUOUS
 62
     7
 10
11.06885334317769
 20
41.806544064396853
 30
0.0
  0
VERTEX
  5
105C
  8
SAPA_PROFIL
  6
CONTINUOUS
 62
     7
 10
8.9075603153700627
 20
41.019897734747808
 30
0.0
  0
VERTEX
  5
105D
  8
SAPA_PROFIL
  6
CONTINUOUS
 62
     7
 10
8.5155527574078178
 20
40.382457483037619
 30
0.0
 42
0.710599501565103
  0
VERTEX
  5
105E
  8
SAPA_PROFIL
  6
CONTINUOUS
 62
     7
 10
8.8737034103813812
 20
39.943397056631682
 30
0.0
  0
VERTEX
  5
105F
  8
SAPA_PROFIL
  6
CONTINUOUS
 62
     7
 10
9.7194267690877041
 20
40.251215185624403
 30
0.0
 42
-0.4142135623731159
  0
VERTEX
  5
1060
  8
SAPA_PROFIL
  6
CONTINUOUS
 62
     7
 10
10.10394059832225
 20
40.071913442386688
 30
0.0
  0
VERTEX
  5
1061
  8
SAPA_PROFIL
  6
CONTINUOUS
 62
     7
 10
10.924788942302881
 20
37.816651152500192
 30
0.0
 42
-0.4142135623731019
  0
VERTEX
  5
1062
  8
SAPA_PROFIL
  6
CONTINUOUS
 62
     7
 10
10.74548719906471
 20
37.432137323266659
 30
0.0
  0
VERTEX
  5
1063
  8
SAPA_PROFIL
  6
CONTINUOUS
 62
     7
 10
6.140993357214767
 20
35.75623862097126
 30
0.0
 42
-0.4142135623730951
  0
VERTEX
  5
1064
  8
SAPA_PROFIL
  6
CONTINUOUS
 62
     7
 10
5.7564795279812984
 20
35.935540364209317
 30
0.0
  0
VERTEX
  5
1065
  8
SAPA_PROFIL
  6
CONTINUOUS
 62
     7
 10
4.9356311839997034
 20
38.190802654095528
 30
0.0
 42
-0.4142135623731367
  0
VERTEX
  5
1066
  8
SAPA_PROFIL
  6
CONTINUOUS
 62
     7
 10
5.1149329272377591
 20
38.575316483328997
 30
0.0
  0
VERTEX
  5
1067
  8
SAPA_PROFIL
  6
CONTINUOUS
 62
     7
 10
5.4908099755511444
 20
38.712124540658863
 30
0.0
 42
0.7105995015649319
  0
VERTEX
  5
1068
  8
SAPA_PROFIL
  6
CONTINUOUS
 62
     7
 10
5.482946691063546
 20
39.278679142632882
 30
0.0
  0
VERTEX
  5
1069
  8
SAPA_PROFIL
  6
CONTINUOUS
 62
     7
 10
4.7729127839120897
 20
39.515009104114881
 30
0.0
  0
VERTEX
  5
106A
  8
SAPA_PROFIL
  6
CONTINUOUS
 62
     7
 10
3.1754353285759862
 20
38.933574860461249
 30
0.0
 42
0.4142135623731159
  0
VERTEX
  5
106B
  8
SAPA_PROFIL
  6
CONTINUOUS
 62
     7
 10
2.996133585337986
 20
38.549061031227779
 30
0.0
  0
VERTEX
  5
106C
  8
SAPA_PROFIL
  6
CONTINUOUS
 62
     7
 10
3.1851976706335559
 20
38.029611726048358
 30
0.0
 42
0.2134217652833476
  0
VERTEX
  5
106D
  8
SAPA_PROFIL
  6
CONTINUOUS
 62
     7
 10
3.3556449617271928
 20
37.853692082577709
 30
0.0
 42
-0.2134217652833586
  0
VERTEX
  5
106E
  8
SAPA_PROFIL
  6
CONTINUOUS
 62
     7
 10
3.5260922528199208
 20
37.677772439106718
 30
0.0
  0
VERTEX
  5
106F
  8
SAPA_PROFIL
  6
CONTINUOUS
 62
     7
 10
4.8599708117910154
 20
34.012971218041969
 30
0.0
 42
0.4142135623731019
  0
VERTEX
  5
1070
  8
SAPA_PROFIL
  6
CONTINUOUS
 62
     7
 10
5.2444846410244281
 20
33.833669474803919
 30
0.0
  0
VERTEX
  5
1071
  8
SAPA_PROFIL
  6
CONTINUOUS
 62
     7
 10
10.88238902173714
 20
35.885698853022348
 30
0.0
 42
-0.4244748162095981
  0
VERTEX
  5
1072
  8
SAPA_PROFIL
  6
CONTINUOUS
 62
     7
 10
11.528927351547511
 20
35.570361039816873
 30
0.0
  0
VERTEX
  5
1073
  8
SAPA_PROFIL
  6
CONTINUOUS
 62
     7
 10
12.14733805939159
 20
33.667088585072008
 30
0.0
 42
-0.4040262258351559
  0
VERTEX
  5
1074
  8
SAPA_PROFIL
  6
CONTINUOUS
 62
     7
 10
11.842819872906199
 20
33.042733777492167
 30
0.0
  0
VERTEX
  5
1075
  8
SAPA_PROFIL
  6
CONTINUOUS
 62
     7
 10
-7.3549979303955411
 20
26.055299534224499
 30
0.0
 42
-0.4142135623730951
  0
VERTEX
  5
1076
  8
SAPA_PROFIL
  6
CONTINUOUS
 62
     7
 10
-8.6367106945070873
 20
26.652972011684771
 30
0.0
  0
VERTEX
  5
1077
  8
SAPA_PROFIL
  6
CONTINUOUS
 62
     7
 10
-9.8337811961469583
 20
29.94189618443545
 30
0.0
 42
-0.4142135623730951
  0
VERTEX
  5
1078
  8
SAPA_PROFIL
  6
CONTINUOUS
 62
     7
 10
-9.2361087186867508
 20
31.223608948547049
 30
0.0
  0
VERTEX
  5
1079
  8
SAPA_PROFIL
  6
CONTINUOUS
 62
     7
 10
-7.3567234771159056
 20
31.907649235198051
 30
0.0
 42
0.4142135623730909
  0
VERTEX
  5
107A
  8
SAPA_PROFIL
  6
CONTINUOUS
 62
     7
 10
-6.759050999655642
 20
33.189361999309597
 30
0.0
  0
VERTEX
  5
107B
  8
SAPA_PROFIL
  6
CONTINUOUS
 62
     7
 10
-13.154827679845649
 20
50.76161400800612
 30
0.0
 42
0.4142135623730951
  0
VERTEX
  5
107C
  8
SAPA_PROFIL
  6
CONTINUOUS
 62
     7
 10
-13.53934150907912
 20
50.940915751244177
 30
0.0
  0
VERTEX
  5
107D
  8
SAPA_PROFIL
  6
CONTINUOUS
 62
     7
 10
-15.065650468654489
 20
50.385384721664927
 30
0.0
  0
VERTEX
  5
107E
  8
SAPA_PROFIL
  6
CONTINUOUS
 62
     7
 10
-15.626188339211581
 20
49.183307379047669
 30
0.0
 42
0.1989123673804336
  0
VERTEX
  5
107F
  8
SAPA_PROFIL
  6
CONTINUOUS
 62
     7
 10
-15.63620378933706
 20
48.953915857527022
 30
0.0
  0
VERTEX
  5
1080
  8
SAPA_PROFIL
  6
CONTINUOUS
 62
     7
 10
-15.22577961734544
 20
47.826284712584588
 30
0.0
  0
VERTEX
  5
1081
  8
SAPA_PROFIL
  6
CONTINUOUS
 62
     7
 10
-14.61497941383465
 20
48.048597805746283
 30
0.0
  0
VERTEX
  5
1082
  8
SAPA_PROFIL
  6
CONTINUOUS
 62
     7
 10
-14.729971362759899
 20
46.542185892727559
 30
0.0
 42
0.5450207774087864
  0
VERTEX
  5
1083
  8
SAPA_PROFIL
  6
CONTINUOUS
 62
     7
 10
-14.32823557312372
 20
46.237444038167659
 30
0.0
  0
VERTEX
  5
1084
  8
SAPA_PROFIL
  6
CONTINUOUS
 62
     7
 10
-13.999343155848409
 20
46.357151088331698
 30
0.0
  0
VERTEX
  5
1085
  8
SAPA_PROFIL
  6
CONTINUOUS
 62
     7
 10
-14.11433510477366
 20
44.850739175312867
 30
0.0
 42
0.54502077740915
  0
VERTEX
  5
1086
  8
SAPA_PROFIL
  6
CONTINUOUS
 62
     7
 10
-13.71259931513719
 20
44.545997320753081
 30
0.0
  0
VERTEX
  5
1087
  8
SAPA_PROFIL
  6
CONTINUOUS
 62
     7
 10
-13.38370689786222
 20
44.665704370917062
 30
0.0
  0
VERTEX
  5
1088
  8
SAPA_PROFIL
  6
CONTINUOUS
 62
     7
 10
-13.49869884678748
 20
43.159292457898289
 30
0.0
 42
0.5450207774088274
  0
VERTEX
  5
1089
  8
SAPA_PROFIL
  6
CONTINUOUS
 62
     7
 10
-13.096963057151299
 20
42.854550603338332
 30
0.0
  0
VERTEX
  5
108A
  8
SAPA_PROFIL
  6
CONTINUOUS
 62
     7
 10
-12.76807063987604
 20
42.974257653502427
 30
0.0
  0
VERTEX
  5
108B
  8
SAPA_PROFIL
  6
CONTINUOUS
 62
     7
 10
-12.883062588801289
 20
41.467845740483597
 30
0.0
 42
0.5450207774088203
  0
VERTEX
  5
108C
  8
SAPA_PROFIL
  6
CONTINUOUS
 62
     7
 10
-12.481326799165119
 20
41.163103885923697
 30
0.0
  0
VERTEX
  5
108D
  8
SAPA_PROFIL
  6
CONTINUOUS
 62
     7
 10
-12.152434381889799
 20
41.282810936087792
 30
0.0
  0
VERTEX
  5
108E
  8
SAPA_PROFIL
  6
CONTINUOUS
 62
     7
 10
-12.26742633081505
 20
39.776399023069018
 30
0.0
 42
0.5450207774087519
  0
VERTEX
  5
108F
  8
SAPA_PROFIL
  6
CONTINUOUS
 62
     7
 10
-11.86569054117893
 20
39.471657168509068
 30
0.0
  0
VERTEX
  5
1090
  8
SAPA_PROFIL
  6
CONTINUOUS
 62
     7
 10
-11.536798123903621
 20
39.591364218673171
 30
0.0
  0
VERTEX
  5
1091
  8
SAPA_PROFIL
  6
CONTINUOUS
 62
     7
 10
-11.65179007282887
 20
38.08495230565439
 30
0.0
 42
0.5450207774090911
  0
VERTEX
  5
1092
  8
SAPA_PROFIL
  6
CONTINUOUS
 62
     7
 10
-11.250054283192471
 20
37.780210451094547
 30
0.0
  0
VERTEX
  5
1093
  8
SAPA_PROFIL
  6
CONTINUOUS
 62
     7
 10
-10.921161865917441
 20
37.899917501258528
 30
0.0
  0
VERTEX
  5
1094
  8
SAPA_PROFIL
  6
CONTINUOUS
 62
     7
 10
-11.036153814842629
 20
36.393505588239748
 30
0.0
 42
0.5450207774088274
  0
VERTEX
  5
1095
  8
SAPA_PROFIL
  6
CONTINUOUS
 62
     7
 10
-10.634418025206511
 20
36.088763733679862
 30
0.0
  0
VERTEX
  5
1096
  8
SAPA_PROFIL
  6
CONTINUOUS
 62
     7
 10
-10.3055256079312
 20
36.2084707838439
 30
0.0
  0
VERTEX
  5
1097
  8
SAPA_PROFIL
  6
CONTINUOUS
 62
     7
 10
-10.420517556856449
 20
34.702058870825113
 30
0.0
 42
0.5450207774088348
  0
VERTEX
  5
1098
  8
SAPA_PROFIL
  6
CONTINUOUS
 62
     7
 10
-10.018781767220331
 20
34.397317016265163
 30
0.0
  0
VERTEX
  5
1099
  8
SAPA_PROFIL
  6
CONTINUOUS
 62
     7
 10
-9.6898893499449628
 20
34.517024066429201
 30
0.0
  0
VERTEX
  5
109A
  8
SAPA_PROFIL
  6
CONTINUOUS
 62
     7
 10
-9.6043843141135881
 20
34.28210091123276
 30
0.0
 42
-0.4142135623730951
  0
VERTEX
  5
109B
  8
SAPA_PROFIL
  6
CONTINUOUS
 62
     7
 10
-10.20205679157379
 20
33.000388147121221
 30
0.0
  0
VERTEX
  5
109C
  8
SAPA_PROFIL
  6
CONTINUOUS
 62
     7
 10
-13.39701170224685
 20
31.837519659813609
 30
0.0
 42
-0.4142135623730951
  0
VERTEX
  5
109D
  8
SAPA_PROFIL
  6
CONTINUOUS
 62
     7
 10
-14.6787244663584
 20
32.435192137273823
 30
0.0
  0
VERTEX
  5
109E
  8
SAPA_PROFIL
  6
CONTINUOUS
 62
     7
 10
-15.072047631182899
 20
33.515838651177603
 30
0.0
  0
VERTEX
  5
109F
  8
SAPA_PROFIL
  6
CONTINUOUS
 62
     7
 10
-14.74315521390781
 20
33.635545701341591
 30
0.0
 42
0.5450207774091157
  0
VERTEX
  5
10A0
  8
SAPA_PROFIL
  6
CONTINUOUS
 62
     7
 10
-14.631292032919809
 20
34.12722229355888
 30
0.0
  0
VERTEX
  5
10A1
  8
SAPA_PROFIL
  6
CONTINUOUS
 62
     7
 10
-15.687683889169129
 20
35.207285368592302
 30
0.0
  0
VERTEX
  5
10A2
  8
SAPA_PROFIL
  6
CONTINUOUS
 62
     7
 10
-15.358791471894049
 20
35.32699241875622
 30
0.0
 42
0.5450207774091194
  0
VERTEX
  5
10A3
  8
SAPA_PROFIL
  6
CONTINUOUS
 62
     7
 10
-15.24692829090605
 20
35.818669010973558
 30
0.0
  0
VERTEX
  5
10A4
  8
SAPA_PROFIL
  6
CONTINUOUS
 62
     7
 10
-16.303320147155318
 20
36.898732086006873
 30
0.0
  0
VERTEX
  5
10A5
  8
SAPA_PROFIL
  6
CONTINUOUS
 62
     7
 10
-15.97442772988023
 20
37.018439136170862
 30
0.0
 42
0.5450207774093996
  0
VERTEX
  5
10A6
  8
SAPA_PROFIL
  6
CONTINUOUS
 62
     7
 10
-15.862564548892291
 20
37.510115728388257
 30
0.0
  0
VERTEX
  5
10A7
  8
SAPA_PROFIL
  6
CONTINUOUS
 62
     7
 10
-16.9189564051415
 20
38.590178803421573
 30
0.0
  0
VERTEX
  5
10A8
  8
SAPA_PROFIL
  6
CONTINUOUS
 62
     7
 10
-16.590063987866468
 20
38.70988585358549
 30
0.0
 42
0.5450207774091379
  0
VERTEX
  5
10A9
  8
SAPA_PROFIL
  6
CONTINUOUS
 62
     7
 10
-16.478200806878419
 20
39.201562445802828
 30
0.0
  0
VERTEX
  5
10AA
  8
SAPA_PROFIL
  6
CONTINUOUS
 62
     7
 10
-17.534592663127739
 20
40.281625520836137
 30
0.0
  0
VERTEX
  5
10AB
  8
SAPA_PROFIL
  6
CONTINUOUS
 62
     7
 10
-17.20570024585265
 20
40.401332571000182
 30
0.0
 42
0.5450207774090506
  0
VERTEX
  5
10AC
  8
SAPA_PROFIL
  6
CONTINUOUS
 62
     7
 10
-17.093837064864658
 20
40.893009163217407
 30
0.0
  0
VERTEX
  5
10AD
  8
SAPA_PROFIL
  6
CONTINUOUS
 62
     7
 10
-18.150228921113921
 20
41.973072238250772
 30
0.0
  0
VERTEX
  5
10AE
  8
SAPA_PROFIL
  6
CONTINUOUS
 62
     7
 10
-17.821336503838829
 20
42.092779288414746
 30
0.0
 42
0.5450207774091257
  0
VERTEX
  5
10AF
  8
SAPA_PROFIL
  6
CONTINUOUS
 62
     7
 10
-17.70947332285084
 20
42.584455880632099
 30
0.0
  0
VERTEX
  5
10B0
  8
SAPA_PROFIL
  6
CONTINUOUS
 62
     7
 10
-18.76586517910016
 20
43.664518955665407
 30
0.0
  0
VERTEX
  5
10B1
  8
SAPA_PROFIL
  6
CONTINUOUS
 62
     7
 10
-18.436972761825071
 20
43.784226005829453
 30
0.0
 42
0.545020777409241
  0
VERTEX
  5
10B2
  8
SAPA_PROFIL
  6
CONTINUOUS
 62
     7
 10
-18.325109580837079
 20
44.275902598046798
 30
0.0
  0
VERTEX
  5
10B3
  8
SAPA_PROFIL
  6
CONTINUOUS
 62
     7
 10
-19.381501437086339
 20
45.355965673080043
 30
0.0
  0
VERTEX
  5
10B4
  8
SAPA_PROFIL
  6
CONTINUOUS
 62
     7
 10
-19.052609019811261
 20
45.475672723244017
 30
0.0
 42
0.54502077740936
  0
VERTEX
  5
10B5
  8
SAPA_PROFIL
  6
CONTINUOUS
 62
     7
 10
-18.940745838823261
 20
45.96734931546149
 30
0.0
  0
VERTEX
  5
10B6
  8
SAPA_PROFIL
  6
CONTINUOUS
 62
     7
 10
-19.997137695072521
 20
47.047412390494678
 30
0.0
  0
VERTEX
  5
10B7
  8
SAPA_PROFIL
  6
CONTINUOUS
 62
     7
 10
-19.668245277797439
 20
47.167119440658723
 30
0.0
 42
0.6681786379193133
  0
VERTEX
  5
10B8
  8
SAPA_PROFIL
  6
CONTINUOUS
 62
     7
 10
-19.644065842272941
 20
47.720919563005452
 30
0.0
  0
VERTEX
  5
10B9
  8
SAPA_PROFIL
  6
CONTINUOUS
 62
     7
 10
-20.846143184890199
 20
48.281457433562537
 30
0.0
  0
VERTEX
  5
10BA
  8
SAPA_PROFIL
  6
CONTINUOUS
 62
     7
 10
-22.372452144466649
 20
47.725926403982889
 30
0.0
 42
0.4142135623730811
  0
VERTEX
  5
10BB
  8
SAPA_PROFIL
  6
CONTINUOUS
 62
     7
 10
-22.551753887704649
 20
47.341412574749477
 30
0.0
  0
VERTEX
  5
10BC
  8
SAPA_PROFIL
  6
CONTINUOUS
 62
     7
 10
-16.155977207514749
 20
29.7691605660529
 30
0.0
 42
0.4142135623730951
  0
VERTEX
  5
10BD
  8
SAPA_PROFIL
  6
CONTINUOUS
 62
     7
 10
-14.874264443403201
 20
29.171488088592699
 30
0.0
  0
VERTEX
  5
10BE
  8
SAPA_PROFIL
  6
CONTINUOUS
 62
     7
 10
-12.99487920183134
 20
29.855528375244042
 30
0.0
 42
-0.4142135623731013
  0
VERTEX
  5
10BF
  8
SAPA_PROFIL
  6
CONTINUOUS
 62
     7
 10
-11.71316643771882
 20
29.257855897784111
 30
0.0
  0
VERTEX
  5
10C0
  8
SAPA_PROFIL
  6
CONTINUOUS
 62
     7
 10
-10.516095936078949
 20
25.968931725033428
 30
0.0
 42
-0.4142135623730951
  0
VERTEX
  5
10C1
  8
SAPA_PROFIL
  6
CONTINUOUS
 62
     7
 10
-11.113768413539161
 20
24.687218960921829
 30
0.0
  0
SEQEND
  5
10C2
  8
SAPA_PROFIL
  6
CONTINUOUS
 62
     7
  0
POLYLINE
  5
AE6
  8
SAPA_PROFIL
  6
CONTINUOUS
 62
     7
 66
     1
 10
0.0
 20
0.0
 30
0.0
 70
   129
  0
VERTEX
  5
10C3
  8
SAPA_PROFIL
  6
CONTINUOUS
 62
     7
 10
28.47042229490836
 20
-10.389580293816319
 30
0.0
 42
-0.4142135623730888
  0
VERTEX
  5
10C4
  8
SAPA_PROFIL
  6
CONTINUOUS
 62
     7
 10
27.872749817448099
 20
-11.671293057927921
 30
0.0
  0
VERTEX
  5
10C5
  8
SAPA_PROFIL
  6
CONTINUOUS
 62
     7
 10
-13.84960254544529
 20
-26.856987421587242
 30
0.0
 42
-0.4142135623730951
  0
VERTEX
  5
10C6
  8
SAPA_PROFIL
  6
CONTINUOUS
 62
     7
 10
-15.131315309556779
 20
-26.25931494412697
 30
0.0
  0
VERTEX
  5
10C7
  8
SAPA_PROFIL
  6
CONTINUOUS
 62
     7
 10
-18.38050667115067
 20
-17.332235046660848
 30
0.0
 42
-0.4142135623730992
  0
VERTEX
  5
10C8
  8
SAPA_PROFIL
  6
CONTINUOUS
 62
     7
 10
-17.782834193690459
 20
-16.050522282549249
 30
0.0
  0
VERTEX
  5
10C9
  8
SAPA_PROFIL
  6
CONTINUOUS
 62
     7
 10
-13.64818666223249
 20
-14.54563365191637
 30
0.0
 42
0.4142135623730951
  0
VERTEX
  5
10CA
  8
SAPA_PROFIL
  6
CONTINUOUS
 62
     7
 10
-13.349350423502299
 20
-13.90477726986057
 30
0.0
  0
VERTEX
  5
10CB
  8
SAPA_PROFIL
  6
CONTINUOUS
 62
     7
 10
-14.067592724486239
 20
-11.931422766210121
 30
0.0
 42
0.4142135623730812
  0
VERTEX
  5
10CC
  8
SAPA_PROFIL
  6
CONTINUOUS
 62
     7
 10
-14.452106553719711
 20
-11.752121022972119
 30
0.0
  0
VERTEX
  5
10CD
  8
SAPA_PROFIL
  6
CONTINUOUS
 62
     7
 10
-14.921952864112709
 20
-11.92313109463492
 30
0.0
 42
0.4142135623730258
  0
VERTEX
  5
10CE
  8
SAPA_PROFIL
  6
CONTINUOUS
 62
     7
 10
-15.10125460735077
 20
-12.30764492386839
 30
0.0
  0
VERTEX
  5
10CF
  8
SAPA_PROFIL
  6
CONTINUOUS
 62
     7
 10
-14.98612141834025
 20
-12.623970760905589
 30
0.0
 42
-0.5643553431125478
  0
VERTEX
  5
10D0
  8
SAPA_PROFIL
  6
CONTINUOUS
 62
     7
 10
-19.686644344814621
 20
-12.353075416244449
 30
0.0
  0
VERTEX
  5
10D1
  8
SAPA_PROFIL
  6
CONTINUOUS
 62
     7
 10
-19.462878731776641
 20
-11.873208510512599
 30
0.0
  0
VERTEX
  5
10D2
  8
SAPA_PROFIL
  6
CONTINUOUS
 62
     7
 10
-19.942745637508381
 20
-11.649442897469889
 30
0.0
 42
-0.5643553431119912
  0
VERTEX
  5
10D3
  8
SAPA_PROFIL
  6
CONTINUOUS
 62
     7
 10
-16.51606434099887
 20
-8.4204871278455471
 30
0.0
  0
VERTEX
  5
10D4
  8
SAPA_PROFIL
  6
CONTINUOUS
 62
     7
 10
-16.400931151988289
 20
-8.736812964881949
 30
0.0
 42
0.4142135623730531
  0
VERTEX
  5
10D5
  8
SAPA_PROFIL
  6
CONTINUOUS
 62
     7
 10
-16.016417322754869
 20
-8.9161147081200056
 30
0.0
  0
VERTEX
  5
10D6
  8
SAPA_PROFIL
  6
CONTINUOUS
 62
     7
 10
-15.546571012361881
 20
-8.7451046364571994
 30
0.0
 42
0.4142135623731091
  0
VERTEX
  5
10D7
  8
SAPA_PROFIL
  6
CONTINUOUS
 62
     7
 10
-15.367269269123771
 20
-8.3605908072236712
 30
0.0
  0
VERTEX
  5
10D8
  8
SAPA_PROFIL
  6
CONTINUOUS
 62
     7
 10
-16.085511570107649
 20
-6.3872363035732738
 30
0.0
 42
0.4142135623730951
  0
VERTEX
  5
10D9
  8
SAPA_PROFIL
  6
CONTINUOUS
 62
     7
 10
-16.72636795216351
 20
-6.0884000648431416
 30
0.0
  0
VERTEX
  5
10DA
  8
SAPA_PROFIL
  6
CONTINUOUS
 62
     7
 10
-20.86101548362149
 20
-7.5932886954761321
 30
0.0
 42
-0.4142135623730951
  0
VERTEX
  5
10DB
  8
SAPA_PROFIL
  6
CONTINUOUS
 62
     7
 10
-22.142728247733029
 20
-6.9956162180158676
 30
0.0
  0
VERTEX
  5
10DC
  8
SAPA_PROFIL
  6
CONTINUOUS
 62
     7
 10
-28.638672324401849
 20
10.85184345066881
 30
0.0
 42
-0.3394542588633977
  0
VERTEX
  5
10DD
  8
SAPA_PROFIL
  6
CONTINUOUS
 62
     7
 10
-28.272556139967438
 20
12.013015638283321
 30
0.0
  0
VERTEX
  5
10DE
  8
SAPA_PROFIL
  6
CONTINUOUS
 62
     7
 10
-27.818615924778332
 20
12.330867998855471
 30
0.0
 42
0.4002077966304456
  0
VERTEX
  5
10DF
  8
SAPA_PROFIL
  6
CONTINUOUS
 62
     7
 10
-27.00206928396625
 20
16.389021090623089
 30
0.0
 42
-0.478297483036658
  0
VERTEX
  5
10E0
  8
SAPA_PROFIL
  6
CONTINUOUS
 62
     7
 10
-26.850947731977389
 20
16.830998572748911
 30
0.0
  0
VERTEX
  5
10E1
  8
SAPA_PROFIL
  6
CONTINUOUS
 62
     7
 10
9.7502619613444494
 20
30.152749439253569
 30
0.0
 42
-0.4782974830366494
  0
VERTEX
  5
10E2
  8
SAPA_PROFIL
  6
CONTINUOUS
 62
     7
 10
10.15012543575193
 20
29.911314106262409
 30
0.0
 42
0.400207796630451
  0
VERTEX
  5
10E3
  8
SAPA_PROFIL
  6
CONTINUOUS
 62
     7
 10
13.384166978092709
 20
27.3274545444329
 30
0.0
  0
VERTEX
  5
10E4
  8
SAPA_PROFIL
  6
CONTINUOUS
 62
     7
 10
13.936216916532089
 20
27.375752655746449
 30
0.0
 42
-0.3394542588633866
  0
VERTEX
  5
10E5
  8
SAPA_PROFIL
  6
CONTINUOUS
 62
     7
 10
14.963065280065219
 20
26.721578100980249
 30
0.0
  0
VERTEX
  5
10E6
  8
SAPA_PROFIL
  6
CONTINUOUS
 62
     7
 10
21.459009356732171
 20
8.8741184322947788
 30
0.0
 42
-0.4142135623730992
  0
VERTEX
  5
10E7
  8
SAPA_PROFIL
  6
CONTINUOUS
 62
     7
 10
20.86133687927191
 20
7.5924056681831749
 30
0.0
  0
VERTEX
  5
10E8
  8
SAPA_PROFIL
  6
CONTINUOUS
 62
     7
 10
16.726689347813931
 20
6.087517037550298
 30
0.0
 42
0.4142135623730951
  0
VERTEX
  5
10E9
  8
SAPA_PROFIL
  6
CONTINUOUS
 62
     7
 10
16.427853109083848
 20
5.4466606554944397
 30
0.0
  0
VERTEX
  5
10EA
  8
SAPA_PROFIL
  6
CONTINUOUS
 62
     7
 10
17.146095410067741
 20
3.4733061518440418
 30
0.0
 42
0.4142135623730951
  0
VERTEX
  5
10EB
  8
SAPA_PROFIL
  6
CONTINUOUS
 62
     7
 10
17.53060923930116
 20
3.2940044086059852
 30
0.0
  0
VERTEX
  5
10EC
  8
SAPA_PROFIL
  6
CONTINUOUS
 62
     7
 10
18.000455549694149
 20
3.4650144802688478
 30
0.0
 42
0.4142135623730951
  0
VERTEX
  5
10ED
  8
SAPA_PROFIL
  6
CONTINUOUS
 62
     7
 10
18.179757292932258
 20
3.8495283095023178
 30
0.0
  0
VERTEX
  5
10EE
  8
SAPA_PROFIL
  6
CONTINUOUS
 62
     7
 10
18.0646241039214
 20
4.1658541465391741
 30
0.0
 42
-0.5643553431119912
  0
VERTEX
  5
10EF
  8
SAPA_PROFIL
  6
CONTINUOUS
 62
     7
 10
22.765147030393731
 20
3.894958801881784
 30
0.0
  0
VERTEX
  5
10F0
  8
SAPA_PROFIL
  6
CONTINUOUS
 62
     7
 10
22.541381417358199
 20
3.41509189614652
 30
0.0
  0
VERTEX
  5
10F1
  8
SAPA_PROFIL
  6
CONTINUOUS
 62
     7
 10
23.021248323088741
 20
3.1913262831088209
 30
0.0
 42
-0.5643553431125639
  0
VERTEX
  5
10F2
  8
SAPA_PROFIL
  6
CONTINUOUS
 62
     7
 10
19.594567026580759
 20
-0.0376294865215527
 30
0.0
  0
VERTEX
  5
10F3
  8
SAPA_PROFIL
  6
CONTINUOUS
 62
     7
 10
19.479433837569779
 20
0.2786963505159292
 30
0.0
 42
0.4142135623730396
  0
VERTEX
  5
10F4
  8
SAPA_PROFIL
  6
CONTINUOUS
 62
     7
 10
19.09492000833626
 20
0.457998093753929
 30
0.0
  0
VERTEX
  5
10F5
  8
SAPA_PROFIL
  6
CONTINUOUS
 62
     7
 10
18.625073697943261
 20
0.2869880220910659
 30
0.0
 42
0.4142135623731089
  0
VERTEX
  5
10F6
  8
SAPA_PROFIL
  6
CONTINUOUS
 62
     7
 10
18.445771954705261
 20
-0.0975258071424037
 30
0.0
  0
VERTEX
  5
10F7
  8
SAPA_PROFIL
  6
CONTINUOUS
 62
     7
 10
19.16401425568921
 20
-2.0708803107928011
 30
0.0
 42
0.4142135623730951
  0
VERTEX
  5
10F8
  8
SAPA_PROFIL
  6
CONTINUOUS
 62
     7
 10
19.804870637744951
 20
-2.3697165495229342
 30
0.0
  0
VERTEX
  5
10F9
  8
SAPA_PROFIL
  6
CONTINUOUS
 62
     7
 10
23.93951816920293
 20
-0.8648279188899437
 30
0.0
 42
-0.4142135623730951
  0
VERTEX
  5
10FA
  8
SAPA_PROFIL
  6
CONTINUOUS
 62
     7
 10
25.22123093331453
 20
-1.4625003963502079
 30
0.0
  0
SEQEND
  5
10FB
  8
SAPA_PROFIL
  6
CONTINUOUS
 62
     7
  0
POLYLINE
  5
AFA
  8
SAPA_GLAS
 66
     1
 10
0.0
 20
0.0
 30
0.0
  0
VERTEX
  5
1110
  8
SAPA_GLAS
 10
-55.4984369640406
 20
32.604721967042423
 30
0.0
  0
VERTEX
  5
1111
  8
SAPA_GLAS
 10
-27.307658340463281
 20
42.865326266812268
 30
0.0
  0
VERTEX
  5
1112
  8
SAPA_GLAS
 10
-24.311561884930779
 20
34.63361890872735
 30
0.0
  0
VERTEX
  5
1113
  8
SAPA_GLAS
 10
-52.502340508507658
 20
24.373014608957781
 30
0.0
  0
SEQEND
  5
1114
  8
SAPA_GLAS
  0
POLYLINE
  5
AFB
  8
SAPA_GLAS
 66
     1
 10
0.0
 20
0.0
 30
0.0
  0
VERTEX
  5
1115
  8
SAPA_GLAS
 10
-27.307658340463568
 20
42.865326266812161
 30
0.0
  0
VERTEX
  5
1116
  8
SAPA_GLAS
 10
-31.411900060371551
 20
54.141637716243203
 30
0.0
  0
VERTEX
  5
1117
  8
SAPA_GLAS
 10
-40.808826268230447
 20
50.721436282986659
 30
0.0
  0
VERTEX
  5
1118
  8
SAPA_GLAS
 10
-36.704584548322821
 20
39.445124833555511
 30
0.0
  0
VERTEX
  5
1119
  8
SAPA_GLAS
 10
-27.307658340463568
 20
42.865326266812161
 30
0.0
  0
SEQEND
  5
111A
  8
SAPA_GLAS
  0
POLYLINE
  5
AFC
  8
SAPA_GLAS
 66
     1
 10
0.0
 20
0.0
 30
0.0
  0
VERTEX
  5
111B
  8
SAPA_GLAS
 10
-61.654799543902641
 20
49.519189141188768
 30
0.0
  0
VERTEX
  5
111C
  8
SAPA_GLAS
 10
-33.46402092032536
 20
59.779793440958727
 30
0.0
  0
VERTEX
  5
111D
  8
SAPA_GLAS
 10
-31.411900060371352
 20
54.141637716243281
 30
0.0
  0
VERTEX
  5
111E
  8
SAPA_GLAS
 10
-59.602678683948668
 20
43.881033416473429
 30
0.0
  0
SEQEND
  5
111F
  8
SAPA_GLAS
  0
LINE
  5
AFD
  8
SAPA_GLAS
 10
-25.809610112697239
 20
38.749472587769731
 30
0.0
 11
-54.000388736274083
 21
28.488868288000059
 31
0.0
  0
POLYLINE
  5
B05
  8
SAPA_FOGBAND
 66
     1
 10
0.0
 20
0.0
 30
0.0
 70
     1
  0
VERTEX
  5
11C6
  8
SAPA_FOGBAND
 10
-28.852852323019238
 20
32.800588391352328
 30
0.0
 42
-0.4679153941829814
  0
VERTEX
  5
11C7
  8
SAPA_FOGBAND
 10
-28.563996506384068
 20
32.696329643465042
 30
0.0
  0
VERTEX
  5
11C8
  8
SAPA_FOGBAND
 10
-27.007243040945529
 20
28.419736751616021
 30
0.0
 42
-0.6685323900181767
  0
VERTEX
  5
11C9
  8
SAPA_FOGBAND
 10
-27.279882467936609
 20
28.170153924317908
 30
0.0
 42
0.1991665782226247
  0
VERTEX
  5
11CA
  8
SAPA_FOGBAND
 10
-27.356434933678379
 20
28.173533787096861
 30
0.0
  0
VERTEX
  5
11CB
  8
SAPA_FOGBAND
 10
-29.788040487634259
 20
27.288501743980781
 30
0.0
 42
0.4142135623731784
  0
VERTEX
  5
11CC
  8
SAPA_FOGBAND
 10
-29.907574983126231
 20
27.032159191158438
 30
0.0
  0
VERTEX
  5
11CD
  8
SAPA_FOGBAND
 10
-29.633958868465669
 20
26.280405094529652
 30
0.0
 42
-0.4142135623731368
  0
VERTEX
  5
11CE
  8
SAPA_FOGBAND
 10
-29.753493363957642
 20
26.024062541707309
 30
0.0
  0
VERTEX
  5
11CF
  8
SAPA_FOGBAND
 10
-30.129370412272131
 20
25.88725448437712
 30
0.0
 42
0.4142135623733448
  0
VERTEX
  5
11D0
  8
SAPA_FOGBAND
 10
-30.24890490776399
 20
25.630911931554831
 30
0.0
  0
VERTEX
  5
11D1
  8
SAPA_FOGBAND
 10
-29.88239652974741
 20
24.623938438913349
 30
0.0
 42
0.703825529076487
  0
VERTEX
  5
11D2
  8
SAPA_FOGBAND
 10
-29.694130860591841
 20
24.62485100127742
 30
0.0
  0
VERTEX
  5
11D3
  8
SAPA_FOGBAND
 10
-29.267682071720259
 20
25.832818877437781
 30
0.0
 42
-0.9999999999999856
  0
VERTEX
  5
11D4
  8
SAPA_FOGBAND
 10
-28.513310815104091
 20
25.566503261689721
 30
0.0
  0
VERTEX
  5
11D5
  8
SAPA_FOGBAND
 10
-29.112520950537061
 20
23.86916793430327
 30
0.0
 42
-0.2242387338110932
  0
VERTEX
  5
11D6
  8
SAPA_FOGBAND
 10
-29.86370085984294
 20
23.11067030792703
 30
0.0
 42
-0.2242387338111004
  0
VERTEX
  5
11D7
  8
SAPA_FOGBAND
 10
-30.926690931360412
 20
23.208864061384279
 30
0.0
  0
VERTEX
  5
11D8
  8
SAPA_FOGBAND
 10
-32.476738643796757
 20
24.123933506383249
 30
0.0
 42
-1.0000000000000899
  0
VERTEX
  5
11D9
  8
SAPA_FOGBAND
 10
-32.070041112686063
 20
24.81284360079945
 30
0.0
  0
VERTEX
  5
11DA
  8
SAPA_FOGBAND
 10
-30.96689560400096
 20
24.161602519453162
 30
0.0
 42
0.7038255290763446
  0
VERTEX
  5
11DB
  8
SAPA_FOGBAND
 10
-30.8220891505335
 20
24.281918295587499
 30
0.0
  0
VERTEX
  5
11DC
  8
SAPA_FOGBAND
 10
-31.188597528550108
 20
25.28889178822908
 30
0.0
 42
0.4142135623729703
  0
VERTEX
  5
11DD
  8
SAPA_FOGBAND
 10
-31.444940081372369
 20
25.408426283721191
 30
0.0
  0
VERTEX
  5
11DE
  8
SAPA_FOGBAND
 10
-31.82081712968672
 20
25.271618226390931
 30
0.0
 42
-0.4142135623730117
  0
VERTEX
  5
11DF
  8
SAPA_FOGBAND
 10
-32.077159682509048
 20
25.3911527218829
 30
0.0
  0
VERTEX
  5
11E0
  8
SAPA_FOGBAND
 10
-32.350775797169497
 20
26.142906818511729
 30
0.0
 42
0.4142135623731784
  0
VERTEX
  5
11E1
  8
SAPA_FOGBAND
 10
-32.607118349991879
 20
26.262441314003809
 30
0.0
  0
VERTEX
  5
11E2
  8
SAPA_FOGBAND
 10
-35.038723903947563
 20
25.377409270887199
 30
0.0
 42
0.1991665782227297
  0
VERTEX
  5
11E3
  8
SAPA_FOGBAND
 10
-35.095193961019291
 20
25.325613169317268
 30
0.0
 42
-0.6685323900181511
  0
VERTEX
  5
11E4
  8
SAPA_FOGBAND
 10
-35.464476628018659
 20
25.34155546168488
 30
0.0
  0
VERTEX
  5
11E5
  8
SAPA_FOGBAND
 10
-37.021219824917146
 20
29.61812014459343
 30
0.0
 42
-0.4679406819625479
  0
VERTEX
  5
11E6
  8
SAPA_FOGBAND
 10
-36.866965339348461
 20
29.883675514439819
 30
0.0
  0
VERTEX
  5
11E7
  8
SAPA_FOGBAND
 10
-36.165687652607339
 20
30.003486053511569
 30
0.0
 42
-0.3624646087620003
  0
VERTEX
  5
11E8
  8
SAPA_FOGBAND
 10
-35.944067928165531
 20
29.874746538667559
 30
0.0
  0
VERTEX
  5
11E9
  8
SAPA_FOGBAND
 10
-35.904558113682718
 20
29.766194215529211
 30
0.0
 42
0.3515239862759624
  0
VERTEX
  5
11EA
  8
SAPA_FOGBAND
 10
-35.690614051965397
 20
29.636296171547158
 30
0.0
  0
VERTEX
  5
11EB
  8
SAPA_FOGBAND
 10
-34.150129947848072
 20
29.856249000242158
 30
0.0
 42
0.751570456352482
  0
VERTEX
  5
11EC
  8
SAPA_FOGBAND
 10
-34.123329181907081
 20
30.046482480915319
 30
0.0
  0
VERTEX
  5
11ED
  8
SAPA_FOGBAND
 10
-35.543665740157913
 20
29.76686695070563
 30
0.0
 42
-0.7197481174277197
  0
VERTEX
  5
11EE
  8
SAPA_FOGBAND
 10
-35.478279272991031
 20
30.427421611863181
 30
0.0
  0
VERTEX
  5
11EF
  8
SAPA_FOGBAND
 10
-33.375154556544722
 20
30.907483194955692
 30
0.0
 42
0.5053637834253038
  0
VERTEX
  5
11F0
  8
SAPA_FOGBAND
 10
-33.190452767480679
 20
31.063121436906709
 30
0.0
  0
VERTEX
  5
11F1
  8
SAPA_FOGBAND
 10
-33.193714037669352
 20
31.113014964711471
 30
0.0
 42
-0.3333333333331249
  0
VERTEX
  5
11F2
  8
SAPA_FOGBAND
 10
-33.062543955117377
 20
31.313998569622932
 30
0.0
  0
VERTEX
  5
11F3
  8
SAPA_FOGBAND
 10
-32.686666906803069
 20
31.450806626953291
 30
0.0
 42
-0.3333333333331312
  0
VERTEX
  5
11F4
  8
SAPA_FOGBAND
 10
-32.456995022973338
 20
31.381158757078861
 30
0.0
  0
VERTEX
  5
11F5
  8
SAPA_FOGBAND
 10
-32.427422359402478
 20
31.34084179328741
 30
0.0
 42
0.505363783425254
  0
VERTEX
  5
11F6
  8
SAPA_FOGBAND
 10
-32.185890246736321
 20
31.340340004400971
 30
0.0
  0
VERTEX
  5
11F7
  8
SAPA_FOGBAND
 10
-30.266225607017951
 20
32.3244540056753
 30
0.0
 42
-0.7197481174279296
  0
VERTEX
  5
11F8
  8
SAPA_FOGBAND
 10
-29.791540315477079
 20
31.860469389055289
 30
0.0
  0
VERTEX
  5
11F9
  8
SAPA_FOGBAND
 10
-31.059314641578521
 20
31.161692570953871
 30
0.0
 42
0.7515704563522813
  0
VERTEX
  5
11FA
  8
SAPA_FOGBAND
 10
-30.916504339433661
 20
31.033192470465831
 30
0.0
  0
VERTEX
  5
11FB
  8
SAPA_FOGBAND
 10
-29.59504209876091
 20
31.854902923341371
 30
0.0
 42
0.3515239862759173
  0
VERTEX
  5
11FC
  8
SAPA_FOGBAND
 10
-29.514648292338201
 20
32.09193119014401
 30
0.0
  0
VERTEX
  5
11FD
  8
SAPA_FOGBAND
 10
-29.554158106820928
 20
32.200483513282151
 30
0.0
 42
-0.3624646087620678
  0
VERTEX
  5
11FE
  8
SAPA_FOGBAND
 10
-29.467139713445562
 20
32.441558116171677
 30
0.0
  0
SEQEND
  5
11FF
  8
SAPA_FOGBAND
  0
POLYLINE
  5
B06
  8
SAPA_FOGBAND
 66
     1
 10
0.0
 20
0.0
 30
0.0
 70
     1
  0
VERTEX
  5
1200
  8
SAPA_FOGBAND
 10
-39.539106849829309
 20
62.735865522245682
 30
0.0
 42
0.4142135623731784
  0
VERTEX
  5
1201
  8
SAPA_FOGBAND
 10
-39.282764297007148
 20
62.616331026753521
 30
0.0
  0
VERTEX
  5
1202
  8
SAPA_FOGBAND
 10
-34.65052232474666
 20
64.30232922257467
 30
0.0
 42
-0.2663342079579515
  0
VERTEX
  5
1203
  8
SAPA_FOGBAND
 10
-33.670345196067203
 20
64.13254287013882
 30
0.0
  0
VERTEX
  5
1204
  8
SAPA_FOGBAND
 10
-29.593817826281271
 20
61.266163421054799
 30
0.0
 42
-0.052861208559515
  0
VERTEX
  5
1205
  8
SAPA_FOGBAND
 10
-29.446569732585932
 20
61.11523927021998
 30
0.0
 42
-0.2389362379610746
  0
VERTEX
  5
1206
  8
SAPA_FOGBAND
 10
-29.254000617552379
 20
59.861661228057521
 30
0.0
 42
-0.4294697894411934
  0
VERTEX
  5
1207
  8
SAPA_FOGBAND
 10
-29.522378702883781
 20
59.75158941788969
 30
0.0
  0
VERTEX
  5
1208
  8
SAPA_FOGBAND
 10
-33.627008549731599
 20
60.640555848261918
 30
0.0
 42
0.1982170680849751
  0
VERTEX
  5
1209
  8
SAPA_FOGBAND
 10
-34.389220437342793
 20
60.672813128081799
 30
0.0
  0
VERTEX
  5
120A
  8
SAPA_FOGBAND
 10
-34.500722471575401
 20
60.63222970656124
 30
0.0
 42
0.2084822249037384
  0
VERTEX
  5
120B
  8
SAPA_FOGBAND
 10
-35.079927518638399
 20
60.081566838613668
 30
0.0
  0
VERTEX
  5
120C
  8
SAPA_FOGBAND
 10
-38.577105074161238
 20
58.14823415468026
 30
0.0
  0
VERTEX
  5
120D
  8
SAPA_FOGBAND
 10
-39.220941803491499
 20
58.300759072553689
 30
0.0
  0
VERTEX
  5
120E
  8
SAPA_FOGBAND
 10
-36.451184676489838
 20
60.370360770833699
 30
0.0
 42
0.6313983151680102
  0
VERTEX
  5
120F
  8
SAPA_FOGBAND
 10
-36.880475288542158
 20
60.700762543688008
 30
0.0
  0
VERTEX
  5
1210
  8
SAPA_FOGBAND
 10
-39.429459369828841
 20
59.404625352122629
 30
0.0
 42
0.379100851898285
  0
VERTEX
  5
1211
  8
SAPA_FOGBAND
 10
-39.575389519513152
 20
59.034605617707001
 30
0.0
  0
VERTEX
  5
1212
  8
SAPA_FOGBAND
 10
-39.49523272654617
 20
58.814376639014341
 30
0.0
 42
-0.4142135623730951
  0
VERTEX
  5
1213
  8
SAPA_FOGBAND
 10
-39.674534469784511
 20
58.429862809781064
 30
0.0
  0
VERTEX
  5
1214
  8
SAPA_FOGBAND
 10
-43.951753181391133
 20
56.873082513309811
 30
0.0
  0
VERTEX
  5
1215
  8
SAPA_FOGBAND
 10
-49.719028827039487
 20
54.218789262662611
 30
0.0
  0
VERTEX
  5
1216
  8
SAPA_FOGBAND
 10
-49.719028827039487
 20
54.218789262662611
 30
0.0
  0
VERTEX
  5
1217
  8
SAPA_FOGBAND
 10
-50.41385466945944
 20
54.408934725912502
 30
0.0
 42
0.0144193411868444
  0
VERTEX
  5
1218
  8
SAPA_FOGBAND
 10
-50.710739118881058
 20
55.625194271373211
 30
0.0
  0
VERTEX
  5
1219
  8
SAPA_FOGBAND
 10
-46.458285119968821
 20
58.940477259362481
 30
0.0
  0
VERTEX
  5
121A
  8
SAPA_FOGBAND
 10
-47.091022385121271
 20
60.678908607816318
 30
0.0
 42
-0.4142135623731212
  0
VERTEX
  5
121B
  8
SAPA_FOGBAND
 10
-47.001371513502193
 20
60.871165522433166
 30
0.0
  0
VERTEX
  5
121C
  8
SAPA_FOGBAND
 10
-45.952495138830713
 20
61.252925302238388
 30
0.0
 42
-0.3812119866949899
  0
VERTEX
  5
121D
  8
SAPA_FOGBAND
 10
-45.766987277577748
 20
61.17897186424198
 30
0.0
  0
VERTEX
  5
121E
  8
SAPA_FOGBAND
 10
-45.436937587281619
 20
60.517867910292637
 30
0.0
 42
0.3812119866949819
  0
VERTEX
  5
121F
  8
SAPA_FOGBAND
 10
-45.251429726028228
 20
60.443914472296392
 30
0.0
  0
VERTEX
  5
1220
  8
SAPA_FOGBAND
 10
-42.101842159364949
 20
61.590270596776733
 30
0.0
 42
0.4142135623730951
  0
VERTEX
  5
1221
  8
SAPA_FOGBAND
 10
-41.982307663872589
 20
61.846613149598959
 30
0.0
  0
VERTEX
  5
1222
  8
SAPA_FOGBAND
 10
-42.255923778533521
 20
62.598367246227497
 30
0.0
 42
-0.4142135623730951
  0
VERTEX
  5
1223
  8
SAPA_FOGBAND
 10
-42.136389283041233
 20
62.854709799049949
 30
0.0
  0
VERTEX
  5
1224
  8
SAPA_FOGBAND
 10
-41.760512234726789
 20
62.991517856380248
 30
0.0
 42
0.4142135623731784
  0
VERTEX
  5
1225
  8
SAPA_FOGBAND
 10
-41.640977739234927
 20
63.247860409202552
 30
0.0
  0
VERTEX
  5
1226
  8
SAPA_FOGBAND
 10
-42.00748611725146
 20
64.254833901843909
 30
0.0
 42
0.7038255290761633
  0
VERTEX
  5
1227
  8
SAPA_FOGBAND
 10
-42.195751786407087
 20
64.253921339479959
 30
0.0
  0
VERTEX
  5
1228
  8
SAPA_FOGBAND
 10
-42.622200575278718
 20
63.045953463319449
 30
0.0
 42
-0.9999999999999552
  0
VERTEX
  5
1229
  8
SAPA_FOGBAND
 10
-43.376571831894928
 20
63.312269079067619
 30
0.0
  0
VERTEX
  5
122A
  8
SAPA_FOGBAND
 10
-42.777361696461931
 20
65.009604406454315
 30
0.0
 42
-0.2242387338111004
  0
VERTEX
  5
122B
  8
SAPA_FOGBAND
 10
-42.026181787156141
 20
65.768102032830143
 30
0.0
 42
-0.2242387338111007
  0
VERTEX
  5
122C
  8
SAPA_FOGBAND
 10
-40.963191715638793
 20
65.669908279373203
 30
0.0
  0
VERTEX
  5
122D
  8
SAPA_FOGBAND
 10
-39.413144003202369
 20
64.754838834374041
 30
0.0
 42
-0.9999999999999548
  0
VERTEX
  5
122E
  8
SAPA_FOGBAND
 10
-39.819841534312928
 20
64.065928739957755
 30
0.0
  0
VERTEX
  5
122F
  8
SAPA_FOGBAND
 10
-40.922987042998201
 20
64.717169821304253
 30
0.0
 42
0.7038255290761636
  0
VERTEX
  5
1230
  8
SAPA_FOGBAND
 10
-41.067793496465548
 20
64.596854045169579
 30
0.0
  0
VERTEX
  5
1231
  8
SAPA_FOGBAND
 10
-40.7012851184491
 20
63.589880552528427
 30
0.0
 42
0.4142135623730117
  0
VERTEX
  5
1232
  8
SAPA_FOGBAND
 10
-40.444942565626938
 20
63.470346057036267
 30
0.0
  0
VERTEX
  5
1233
  8
SAPA_FOGBAND
 10
-40.06906551731241
 20
63.607154114366359
 30
0.0
 42
-0.4142135623730951
  0
VERTEX
  5
1234
  8
SAPA_FOGBAND
 10
-39.812722964489907
 20
63.487619618874582
 30
0.0
  0
SEQEND
  5
1235
  8
SAPA_FOGBAND
  0
POLYLINE
  5
B07
  8
SAPA_FOGBAND
 66
     1
 10
0.0
 20
0.0
 30
0.0
 70
     1
  0
VERTEX
  5
1236
  8
SAPA_FOGBAND
 10
-10.03712395246106
 20
73.473709148718285
 30
0.0
 42
-0.4142135623731784
  0
VERTEX
  5
1237
  8
SAPA_FOGBAND
 10
-10.156658447952919
 20
73.217366595895982
 30
0.0
  0
VERTEX
  5
1238
  8
SAPA_FOGBAND
 10
-14.788900420213251
 20
71.531368400074399
 30
0.0
 42
0.2663342079579515
  0
VERTEX
  5
1239
  8
SAPA_FOGBAND
 10
-15.430623099270839
 20
70.771258794660199
 30
0.0
  0
VERTEX
  5
123A
  8
SAPA_FOGBAND
 10
-16.710951043586419
 20
65.955143461972483
 30
0.0
 42
0.052861208559515
  0
VERTEX
  5
123B
  8
SAPA_FOGBAND
 10
-16.726737453362521
 20
65.744879604715692
 30
0.0
 42
0.2389362379610746
  0
VERTEX
  5
123C
  8
SAPA_FOGBAND
 10
-16.068469520573171
 20
64.66080207034932
 30
0.0
 42
0.4294697894411934
  0
VERTEX
  5
123D
  8
SAPA_FOGBAND
 10
-15.792127183898479
 20
64.748992279788609
 30
0.0
  0
VERTEX
  5
123E
  8
SAPA_FOGBAND
 10
-13.21921490553096
 20
68.068385281797916
 30
0.0
 42
-0.1982170680849751
  0
VERTEX
  5
123F
  8
SAPA_FOGBAND
 10
-12.6560613043376
 20
68.583036149066345
 30
0.0
  0
VERTEX
  5
1240
  8
SAPA_FOGBAND
 10
-12.54455927010514
 20
68.623619570587323
 30
0.0
 42
-0.2084822249037384
  0
VERTEX
  5
1241
  8
SAPA_FOGBAND
 10
-11.74690319374491
 20
68.574093168284122
 30
0.0
  0
VERTEX
  5
1242
  8
SAPA_FOGBAND
 10
-7.825187466101811
 20
69.341016810620602
 30
0.0
  0
VERTEX
  5
1243
  8
SAPA_FOGBAND
 10
-7.4300210446999593
 20
69.871707948669297
 30
0.0
  0
VERTEX
  5
1244
  8
SAPA_FOGBAND
 10
-10.88209242926937
 20
69.676749266028651
 30
0.0
 42
-0.6313983151680102
  0
VERTEX
  5
1245
  8
SAPA_FOGBAND
 10
-10.76561490723277
 20
70.205794394502334
 30
0.0
  0
VERTEX
  5
1246
  8
SAPA_FOGBAND
 10
-7.9798388889722416
 20
70.851351086123145
 30
0.0
 42
-0.379100851898285
  0
VERTEX
  5
1247
  8
SAPA_FOGBAND
 10
-7.6302058081011914
 20
70.661701616826477
 30
0.0
  0
VERTEX
  5
1248
  8
SAPA_FOGBAND
 10
-7.5500490151342152
 20
70.441472638133803
 30
0.0
 42
0.4142135623730951
  0
VERTEX
  5
1249
  8
SAPA_FOGBAND
 10
-7.1655351859006631
 20
70.262170894896045
 30
0.0
  0
VERTEX
  5
124A
  8
SAPA_FOGBAND
 10
-2.888316474294041
 20
71.818951191367304
 30
0.0
  0
VERTEX
  5
124B
  8
SAPA_FOGBAND
 10
3.2358197999809279
 20
73.492777922970532
 30
0.0
  0
VERTEX
  5
124C
  8
SAPA_FOGBAND
 10
3.2358197999809279
 20
73.492777922970532
 30
0.0
  0
VERTEX
  5
124D
  8
SAPA_FOGBAND
 10
3.6458641276870551
 20
74.085063240874945
 30
0.0
 42
-0.0144193411868444
  0
VERTEX
  5
124E
  8
SAPA_FOGBAND
 10
3.0914942444298048
 20
75.207605752662346
 30
0.0
  0
VERTEX
  5
124F
  8
SAPA_FOGBAND
 10
-2.297097338340067
 20
75.013835121715644
 30
0.0
  0
VERTEX
  5
1250
  8
SAPA_FOGBAND
 10
-2.9298346034925249
 20
76.752266470169474
 30
0.0
 42
0.4142135623731212
  0
VERTEX
  5
1251
  8
SAPA_FOGBAND
 10
-3.1220915181093778
 20
76.841917341788587
 30
0.0
  0
VERTEX
  5
1252
  8
SAPA_FOGBAND
 10
-4.170967892780701
 20
76.460157561982925
 30
0.0
 42
0.3812119866949899
  0
VERTEX
  5
1253
  8
SAPA_FOGBAND
 10
-4.2655388054105989
 20
76.284263787043386
 30
0.0
  0
VERTEX
  5
1254
  8
SAPA_FOGBAND
 10
-4.0934221063016727
 20
75.565676925293275
 30
0.0
 42
-0.3812119866949819
  0
VERTEX
  5
1255
  8
SAPA_FOGBAND
 10
-4.1879930189319987
 20
75.389783150353566
 30
0.0
  0
VERTEX
  5
1256
  8
SAPA_FOGBAND
 10
-7.3375805855952763
 20
74.243427025873203
 30
0.0
 42
-0.4142135623730951
  0
VERTEX
  5
1257
  8
SAPA_FOGBAND
 10
-7.5939231384177859
 20
74.36296152136498
 30
0.0
  0
VERTEX
  5
1258
  8
SAPA_FOGBAND
 10
-7.8675392530778803
 20
75.114715617993824
 30
0.0
 42
0.4142135623730951
  0
VERTEX
  5
1259
  8
SAPA_FOGBAND
 10
-8.1238818059004672
 20
75.234250113485814
 30
0.0
  0
VERTEX
  5
125A
  8
SAPA_FOGBAND
 10
-8.4997588542149156
 20
75.097442056155529
 30
0.0
 42
-0.4142135623731784
  0
VERTEX
  5
125B
  8
SAPA_FOGBAND
 10
-8.7561014070370771
 20
75.216976551647676
 30
0.0
  0
VERTEX
  5
125C
  8
SAPA_FOGBAND
 10
-9.1226097850536121
 20
76.22395004428904
 30
0.0
 42
-0.7038255290761633
  0
VERTEX
  5
125D
  8
SAPA_FOGBAND
 10
-8.9778033315862622
 20
76.344265820423715
 30
0.0
  0
VERTEX
  5
125E
  8
SAPA_FOGBAND
 10
-7.8746578229009794
 20
75.693024739077245
 30
0.0
 42
0.9999999999999552
  0
VERTEX
  5
125F
  8
SAPA_FOGBAND
 10
-7.4679602917904191
 20
76.381934833493503
 30
0.0
  0
VERTEX
  5
1260
  8
SAPA_FOGBAND
 10
-9.0180080042268553
 20
77.297004278492693
 30
0.0
 42
0.2242387338111004
  0
VERTEX
  5
1261
  8
SAPA_FOGBAND
 10
-10.080998075744199
 20
77.395198031949604
 30
0.0
 42
0.2242387338111007
  0
VERTEX
  5
1262
  8
SAPA_FOGBAND
 10
-10.83217798504999
 20
76.636700405573777
 30
0.0
  0
VERTEX
  5
1263
  8
SAPA_FOGBAND
 10
-11.431388120482991
 20
74.93936507818708
 30
0.0
 42
0.9999999999999548
  0
VERTEX
  5
1264
  8
SAPA_FOGBAND
 10
-10.67701686386677
 20
74.673049462438911
 30
0.0
  0
VERTEX
  5
1265
  8
SAPA_FOGBAND
 10
-10.25056807499513
 20
75.88101733859942
 30
0.0
 42
-0.7038255290761636
  0
VERTEX
  5
1266
  8
SAPA_FOGBAND
 10
-10.062302405839519
 20
75.881929900963371
 30
0.0
  0
VERTEX
  5
1267
  8
SAPA_FOGBAND
 10
-9.6957940278230623
 20
74.874956408322205
 30
0.0
 42
-0.4142135623730117
  0
VERTEX
  5
1268
  8
SAPA_FOGBAND
 10
-9.8153285233149212
 20
74.61861385549993
 30
0.0
  0
VERTEX
  5
1269
  8
SAPA_FOGBAND
 10
-10.19120557162929
 20
74.481805798169404
 30
0.0
 42
0.4142135623730951
  0
VERTEX
  5
126A
  8
SAPA_FOGBAND
 10
-10.31074006712166
 20
74.225463245347171
 30
0.0
  0
SEQEND
  5
126B
  8
SAPA_FOGBAND
  0
DIMENSION
  5
B0E
  8
SAPA_MATT
  2
*D32
 10
36.583106460924611
 20
-27.41614893081967
 30
0.0
 11
12.235740582963199
 21
-33.617420961996423
 31
0.0
 70
     1
 13
-15.96771166865733
 23
-29.224182754078068
 33
0.0
 14
31.01691937063714
 24
-12.123175587795
 34
0.0
1001
ACAD
1000
DSTYLE
1002
{
1070
    40
1040
1.0
1002
}
  0
DIMENSION
  5
B0F
  8
SAPA_MATT
  2
*D31
 10
122.55198558122041
 20
445.16762218502419
 30
0.0
 11
120.0508492175839
 21
295.16762218502419
 31
0.0
 70
     0
  1
min 300
 13
88.278260603956923
 23
145.16762218502419
 33
0.0
 14
91.478260603956926
 24
445.16762218502419
 34
0.0
 50
90.0
1001
ACAD
1000
DSTYLE
1002
{
1070
    40
1040
1.0
1002
}
  0
VIEWPORT
  5
C4
 67
     1
  8
0
 10
143.06236603067589
 20
116.00969601843509
 30
0.0
 40
369.98580003443811
 41
256.8421457311839
 68
     1
 69
     1
1001
ACAD
1000
MVIEW
1002
{
1070
    16
1010
0.0
1020
0.0
1030
0.0
1010
0.0
1020
0.0
1030
1.0
1040
0.0
1040
256.8421457311839
1040
99.112914085388169
1040
143.07606935501099
1040
50.0
1040
0.0
1040
0.0
1070
     0
1070
     0
1070
     1
1070
     1
1070
     0
1070
     0
1070
     0
1070
     0
1040
0.0
1040
0.0
1040
0.0
1040
10.0
1040
10.0
1040
10.0
1040
10.0
1070
     0
1002
{
1002
}
1002
}
  0
ENDSEC
  0
EOF
