  0
SECTION
  2
HEADER
  9
$ACADVER
  1
AC1009
  9
$INSBASE
 10
0.0
 20
0.0
 30
0.0
  9
$EXTMIN
 10
-67.53848510786338
 20
-120.34461419492619
 30
0.0
  9
$EXTMAX
 10
210.17988547077911
 20
89.499999999999488
 30
0.1
  9
$LIMMIN
 10
0.0
 20
0.0
  9
$LIMMAX
 10
790.0
 20
790.0
  9
$ORTHOMODE
 70
     0
  9
$REGENMODE
 70
     1
  9
$FILLMODE
 70
     1
  9
$QTEXTMODE
 70
     0
  9
$MIRRTEXT
 70
     1
  9
$DRAGMODE
 70
     2
  9
$LTSCALE
 40
4.0
  9
$OSMODE
 70
   167
  9
$ATTMODE
 70
     1
  9
$TEXTSIZE
 40
3.5
  9
$TRACEWID
 40
0.05
  9
$TEXTSTYLE
  7
ISO
  9
$CLAYER
  8
0
  9
$CELTYPE
  6
BYLAYER
  9
$CECOLOR
 62
   256
  9
$DIMSCALE
 40
0.0
  9
$DIMASZ
 40
3.0
  9
$DIMEXO
 40
1.5
  9
$DIMDLI
 40
10.0
  9
$DIMRND
 40
0.0
  9
$DIMDLE
 40
0.0
  9
$DIMEXE
 40
1.5
  9
$DIMTP
 40
0.0
  9
$DIMTM
 40
0.0
  9
$DIMTXT
 40
3.0
  9
$DIMCEN
 40
-5.0
  9
$DIMTSZ
 40
0.0
  9
$DIMTOL
 70
     0
  9
$DIMLIM
 70
     0
  9
$DIMTIH
 70
     0
  9
$DIMTOH
 70
     0
  9
$DIMSE1
 70
     0
  9
$DIMSE2
 70
     0
  9
$DIMTAD
 70
     1
  9
$DIMZIN
 70
     8
  9
$DIMBLK
  1

  9
$DIMASO
 70
     1
  9
$DIMSHO
 70
     1
  9
$DIMPOST
  1

  9
$DIMAPOST
  1

  9
$DIMALT
 70
     0
  9
$DIMALTD
 70
     0
  9
$DIMALTF
 40
25.399999999999999
  9
$DIMLFAC
 40
-1.0
  9
$DIMTOFL
 70
     1
  9
$DIMTVP
 40
0.0
  9
$DIMTIX
 70
     0
  9
$DIMSOXD
 70
     0
  9
$DIMSAH
 70
     0
  9
$DIMBLK1
  1

  9
$DIMBLK2
  1

  9
$DIMSTYLE
  2
MASKIN
  9
$DIMCLRD
 70
   256
  9
$DIMCLRE
 70
   256
  9
$DIMCLRT
 70
     2
  9
$DIMTFAC
 40
1.0
  9
$DIMGAP
 40
1.0
  9
$LUNITS
 70
     2
  9
$LUPREC
 70
     8
  9
$SKETCHINC
 40
0.1
  9
$FILLETRAD
 40
0.0
  9
$AUNITS
 70
     0
  9
$AUPREC
 70
     8
  9
$MENU
  1
ACAD
  9
$ELEVATION
 40
0.0
  9
$PELEVATION
 40
0.0
  9
$THICKNESS
 40
0.0
  9
$LIMCHECK
 70
     0
  9
$BLIPMODE
 70
     0
  9
$CHAMFERA
 40
0.0
  9
$CHAMFERB
 40
0.0
  9
$SKPOLY
 70
     0
  9
$TDCREATE
 40
2454901.5781186
  9
$TDUPDATE
 40
2458458.3423880092
  9
$TDINDWG
 40
0.0655890394
  9
$TDUSRTIMER
 40
0.0655890394
  9
$USRTIMER
 70
     1
  9
$ANGBASE
 50
0.0
  9
$ANGDIR
 70
     0
  9
$PDMODE
 70
     0
  9
$PDSIZE
 40
0.0
  9
$PLINEWID
 40
0.0
  9
$COORDS
 70
     1
  9
$SPLFRAME
 70
     0
  9
$SPLINETYPE
 70
     6
  9
$SPLINESEGS
 70
     8
  9
$ATTDIA
 70
     1
  9
$ATTREQ
 70
     1
  9
$HANDLING
 70
     1
  9
$HANDSEED
  5
298C
  9
$SURFTAB1
 70
     6
  9
$SURFTAB2
 70
     6
  9
$SURFTYPE
 70
     6
  9
$SURFU
 70
     6
  9
$SURFV
 70
     6
  9
$UCSNAME
  2

  9
$UCSORG
 10
0.0
 20
0.0
 30
0.0
  9
$UCSXDIR
 10
1.0
 20
0.0
 30
0.0
  9
$UCSYDIR
 10
0.0
 20
1.0
 30
0.0
  9
$PUCSNAME
  2

  9
$PUCSORG
 10
0.0
 20
0.0
 30
0.0
  9
$PUCSXDIR
 10
1.0
 20
0.0
 30
0.0
  9
$PUCSYDIR
 10
0.0
 20
1.0
 30
0.0
  9
$USERI1
 70
     0
  9
$USERI2
 70
     0
  9
$USERI3
 70
     0
  9
$USERI4
 70
     0
  9
$USERI5
 70
     0
  9
$USERR1
 40
0.0
  9
$USERR2
 40
0.0
  9
$USERR3
 40
0.0
  9
$USERR4
 40
0.0
  9
$USERR5
 40
0.0
  9
$WORLDVIEW
 70
     1
  9
$SHADEDGE
 70
     3
  9
$SHADEDIF
 70
    70
  9
$TILEMODE
 70
     1
  9
$MAXACTVP
 70
    16
  9
$PLIMCHECK
 70
     0
  9
$PEXTMIN
 10
1.0000000000000000E+020
 20
1.0000000000000000E+020
 30
1.0000000000000000E+020
  9
$PEXTMAX
 10
-1.0000000000000000E+020
 20
-1.0000000000000000E+020
 30
-1.0000000000000000E+020
  9
$PLIMMIN
 10
-5.069427490234375
 20
-5.8737497329711914
  9
$PLIMMAX
 10
291.89889526367187
 20
204.0995779037475
  9
$UNITMODE
 70
     0
  9
$VISRETAIN
 70
     1
  9
$PLINEGEN
 70
     0
  9
$PSLTSCALE
 70
     1
  0
ENDSEC
  0
SECTION
  2
TABLES
  0
TABLE
  2
VPORT
 70
     1
  0
VPORT
  2
*ACTIVE
 70
     0
 10
0.0
 20
0.0
 11
1.0
 21
1.0
 12
163.03977757014579
 22
139.54136380568639
 13
0.0
 23
0.0
 14
1.0
 24
1.0
 15
0.0
 25
0.0
 16
0.0
 26
0.0
 36
1.0
 17
0.0
 27
0.0
 37
0.0
 40
448.20442992573169
 41
1.7265193370165739
 42
50.0
 43
0.0
 44
0.0
 50
0.0
 51
0.0
 71
     0
 72
   100
 73
     1
 74
     1
 75
     0
 76
     0
 77
     0
 78
     0
  0
ENDTAB
  0
TABLE
  2
LTYPE
 70
    50
  0
LTYPE
  2
CONTINUOUS
 70
     0
  3
Solid line
 72
    65
 73
     0
 40
0.0
  0
LTYPE
  2
BYGG-01472602$0$NEWDOT
 70
     0
  3
____ . ____ . ____ . ____ . ____ . ____ . ____
 72
    65
 73
     4
 40
2.0
 49
1.0
 49
-0.5
 49
0.0
 49
-0.5
  0
LTYPE
  2
BYGG-01472602$0$ZIGZAG
 70
     0
  3
Zig zag /\/\/\/\/\/\/\/\/\/\/\/\/\/\/\/\/\/\/\/\/\/\/\/
 72
    65
 73
     4
 40
20.32254
 49
0.00254
 49
-5.0800000000000001
 49
-10.16
 49
-5.0800000000000001
  0
LTYPE
  2
BYGG-014352$0$DASHDOT
 70
     0
  3
Dash dot __ . __ . __ . __ . __ . __ . __ . __
 72
    65
 73
     4
 40
1.0
 49
0.5
 49
-0.25
 49
0.0
 49
-0.25
  0
LTYPE
  2
BYGG-025060$0$NEWDOT
 70
     0
  3
____ . ____ . ____ . ____ . ____ . ____ . ____
 72
    65
 73
     4
 40
2.0
 49
1.0
 49
-0.5
 49
0.0
 49
-0.5
  0
LTYPE
  2
BYGG-012216$0$DASHDOT
 70
     0
  3
__ . __ . __ . __ . __ . __ . __ . __ . __ . __
 72
    65
 73
     4
 40
1.0
 49
0.5
 49
-0.25
 49
0.0
 49
-0.25
  0
LTYPE
  2
BYGG-024800$0$NEWDOT
 70
     0
  3
____ . ____ . ____ . ____ . ____ . ____ . ____
 72
    65
 73
     4
 40
2.0
 49
1.0
 49
-0.5
 49
0.0
 49
-0.5
  0
LTYPE
  2
BYGG-024807$0$NEWDOT
 70
     0
  3
____ . ____ . ____ . ____ . ____ . ____ . ____
 72
    65
 73
     4
 40
2.0
 49
1.0
 49
-0.5
 49
0.0
 49
-0.5
  0
LTYPE
  2
BYGG-024807$0$DASHDOT
 70
     0
  3
__ . __ . __ . __ . __ . __ . __ . __ . __ . __
 72
    65
 73
     4
 40
1.0
 49
0.5
 49
-0.25
 49
0.0
 49
-0.25
  0
LTYPE
  2
BYGG-025727$0$NEWDOT
 70
     0
  3
____ . ____ . ____ . ____ . ____ . ____ . ____
 72
    65
 73
     4
 40
2.0
 49
1.0
 49
-0.5
 49
0.0
 49
-0.5
  0
LTYPE
  2
BYGG-025727$0$DASHDOT
 70
     0
  3
__ . __ . __ . __ . __ . __ . __ . __ . __ . __
 72
    65
 73
     4
 40
1.0
 49
0.5
 49
-0.25
 49
0.0
 49
-0.25
  0
LTYPE
  2
BYGG-025727$0$DASHED
 70
     0
  3
__ __ __ __ __ __ __ __ __ __ __ __ __ __ __
 72
    65
 73
     2
 40
0.75
 49
0.5
 49
-0.25
  0
LTYPE
  2
BYGG-025727$0$PHANTOM
 70
     0
  3
Phantom ______  __  __  ______  __  __  ______
 72
    65
 73
     6
 40
63.5
 49
31.75
 49
-6.3499999999999988
 49
6.3499999999999988
 49
-6.3499999999999988
 49
6.3499999999999988
 49
-6.3499999999999988
  0
LTYPE
  2
BYGG-025593$0$NEWDOT
 70
     0
  3
____ . ____ . ____ . ____ . ____ . ____ . ____
 72
    65
 73
     4
 40
2.0
 49
1.0
 49
-0.5
 49
0.0
 49
-0.5
  0
LTYPE
  2
BYGG-025593$0$DASHDOT
 70
     0
  3
__ . __ . __ . __ . __ . __ . __ . __ . __ . __
 72
    65
 73
     4
 40
1.0
 49
0.5
 49
-0.25
 49
0.0
 49
-0.25
  0
LTYPE
  2
BYGG-025593$0$DASHED
 70
     0
  3
__ __ __ __ __ __ __ __ __ __ __ __ __ __ __
 72
    65
 73
     2
 40
0.75
 49
0.5
 49
-0.25
  0
LTYPE
  2
BYGG-025593$0$PHANTOM
 70
     0
  3
Phantom ______  __  __  ______  __  __  ______
 72
    65
 73
     6
 40
63.5
 49
31.75
 49
-6.3499999999999988
 49
6.3499999999999988
 49
-6.3499999999999988
 49
6.3499999999999988
 49
-6.3499999999999988
  0
LTYPE
  2
BYGG-033168$0$NEWDOT
 70
     0
  3
____ . ____ . ____ . ____ . ____ . ____ . ____
 72
    65
 73
     4
 40
2.0
 49
1.0
 49
-0.5
 49
0.0
 49
-0.5
  0
LTYPE
  2
BYGG-033168$0$DASHDOT
 70
     0
  3
__ . __ . __ . __ . __ . __ . __ . __ . __ . __
 72
    65
 73
     4
 40
1.0
 49
0.5
 49
-0.25
 49
0.0
 49
-0.25
  0
LTYPE
  2
BYGG-033168$0$DASHED
 70
     0
  3
__ __ __ __ __ __ __ __ __ __ __ __ __ __ __
 72
    65
 73
     2
 40
0.75
 49
0.5
 49
-0.25
  0
LTYPE
  2
BYGG-033168$0$PHANTOM
 70
     0
  3
Phantom ______  __  __  ______  __  __  ______
 72
    65
 73
     6
 40
63.5
 49
31.75
 49
-6.3499999999999988
 49
6.3499999999999988
 49
-6.3499999999999988
 49
6.3499999999999988
 49
-6.3499999999999988
  0
LTYPE
  2
BYGG-027036$0$NEWDOT
 70
     0
  3
____ . ____ . ____ . ____ . ____ . ____ . ____
 72
    65
 73
     4
 40
2.0
 49
1.0
 49
-0.5
 49
0.0
 49
-0.5
  0
LTYPE
  2
BYGG-027036$0$DASHDOT
 70
     0
  3
__ . __ . __ . __ . __ . __ . __ . __ . __ . __
 72
    65
 73
     4
 40
1.0
 49
0.5
 49
-0.25
 49
0.0
 49
-0.25
  0
LTYPE
  2
BYGG-027036$0$DASHED
 70
     0
  3
__ __ __ __ __ __ __ __ __ __ __ __ __ __ __
 72
    65
 73
     2
 40
0.75
 49
0.5
 49
-0.25
  0
LTYPE
  2
BYGG-027036$0$PHANTOM
 70
     0
  3
Phantom ______  __  __  ______  __  __  ______
 72
    65
 73
     6
 40
63.5
 49
31.75
 49
-6.3499999999999988
 49
6.3499999999999988
 49
-6.3499999999999988
 49
6.3499999999999988
 49
-6.3499999999999988
  0
LTYPE
  2
BYGG-027036$0$HIDDEN
 70
     0
  3
_ _ _ _ _ _ _ _ _ _ _ _ _ _ _ _ _ _ _ _ _ _ _
 72
    65
 73
     2
 40
0.375
 49
0.25
 49
-0.125
  0
LTYPE
  2
BYGG-027036$0$DOT
 70
     0
  3
...............................................
 72
    65
 73
     2
 40
0.25
 49
0.0
 49
-0.25
  0
LTYPE
  2
BYGG-027036$0$CENTER
 70
     0
  3
____ _ ____ _ ____ _ ____ _ ____ _ ____ _ ____
 72
    65
 73
     4
 40
0.6
 49
0.375
 49
-0.075
 49
0.075
 49
-0.075
  0
LTYPE
  2
BYGG-033291$0$NEWDOT
 70
     0
  3
____ . ____ . ____ . ____ . ____ . ____ . ____
 72
    65
 73
     4
 40
2.0
 49
1.0
 49
-0.5
 49
0.0
 49
-0.5
  0
LTYPE
  2
BYGG-033291$0$DASHDOT
 70
     0
  3
__ . __ . __ . __ . __ . __ . __ . __ . __ . __
 72
    65
 73
     4
 40
1.0
 49
0.5
 49
-0.25
 49
0.0
 49
-0.25
  0
LTYPE
  2
BYGG-033291$0$DASHED
 70
     0
  3
__ __ __ __ __ __ __ __ __ __ __ __ __ __ __
 72
    65
 73
     2
 40
0.75
 49
0.5
 49
-0.25
  0
LTYPE
  2
BYGG-033291$0$PHANTOM
 70
     0
  3
Phantom ______  __  __  ______  __  __  ______
 72
    65
 73
     6
 40
63.5
 49
31.75
 49
-6.3499999999999988
 49
6.3499999999999988
 49
-6.3499999999999988
 49
6.3499999999999988
 49
-6.3499999999999988
  0
LTYPE
  2
BYGG-029021$0$NEWDOT
 70
     0
  3
____ . ____ . ____ . ____ . ____ . ____ . ____
 72
    65
 73
     4
 40
2.0
 49
1.0
 49
-0.5
 49
0.0
 49
-0.5
  0
LTYPE
  2
BYGG-029021$0$DASHDOT
 70
     0
  3
__ . __ . __ . __ . __ . __ . __ . __ . __ . __
 72
    65
 73
     4
 40
1.0
 49
0.5
 49
-0.25
 49
0.0
 49
-0.25
  0
LTYPE
  2
BYGG-029021$0$DASHED
 70
     0
  3
__ __ __ __ __ __ __ __ __ __ __ __ __ __ __
 72
    65
 73
     2
 40
0.75
 49
0.5
 49
-0.25
  0
LTYPE
  2
BYGG-029021$0$PHANTOM
 70
     0
  3
Phantom ______  __  __  ______  __  __  ______
 72
    65
 73
     6
 40
63.5
 49
31.75
 49
-6.3499999999999988
 49
6.3499999999999988
 49
-6.3499999999999988
 49
6.3499999999999988
 49
-6.3499999999999988
  0
LTYPE
  2
BYGG-029021$0$DASHED2
 70
     0
  3
_ _ _ _ _ _ _ _ _ _ _ _ _ _ _ _ _ _ _ _ _ _ _ _ _ _ _ _ _ _ _
 72
    65
 73
     2
 40
0.375
 49
0.25
 49
-0.125
  0
LTYPE
  2
BYGG-01409101$0$DASHDOT
 70
     0
  3
__ . __ . __ . __ . __ . __ . __ . __ . __ . __
 72
    65
 73
     4
 40
1.0
 49
0.5
 49
-0.25
 49
0.0
 49
-0.25
  0
LTYPE
  2
BYGG-01409101$0$HIDDEN
 70
     0
  3
_ _ _ _ _ _ _ _ _ _ _ _ _ _ _ _ _ _ _ _ _ _ _
 72
    65
 73
     2
 40
0.375
 49
0.25
 49
-0.125
  0
LTYPE
  2
BYGG-030601$0$NEWDOT
 70
     0
  3
____ . ____ . ____ . ____ . ____ . ____ . ____
 72
    65
 73
     4
 40
2.0
 49
1.0
 49
-0.5
 49
0.0
 49
-0.5
  0
LTYPE
  2
BYGG-030601$0$ZIGZAG
 70
     0
  3
Zig zag /\/\/\/\/\/\/\/\/\/\/\/\/\/\/\/\/\/\/\/\/\/\/\/
 72
    65
 73
     4
 40
20.32254
 49
0.00254
 49
-5.0800000000000001
 49
-10.16
 49
-5.0800000000000001
  0
LTYPE
  2
BYGG-025060$0$DASHDOT
 70
     0
  3
__ . __ . __ . __ . __ . __ . __ . __ . __ . __
 72
    65
 73
     4
 40
1.0
 49
0.5
 49
-0.25
 49
0.0
 49
-0.25
  0
LTYPE
  2
BYGG-027036$0$ALF
 70
     0
  3
*alf,- - - - - - - - - - - - -
 72
    65
 73
     2
 40
0.3
 49
0.1
 49
-0.2
  0
LTYPE
  2
BYGG-027036$0$CENTRE2
 70
     0
  3
___ _ ___ _ ___ _ ___ _ ___ _ ___ _ ___ _ ___ _
 72
    65
 73
     4
 40
28.574999999999999
 49
19.050000000000001
 49
-3.1749999999999989
 49
3.1749999999999989
 49
-3.1749999999999989
  0
LTYPE
  2
BYGG-029021$0$PHANTOM2
 70
     0
  3
Phantom (.5x) ___ _ _ ___ _ _ ___ _ _ ___ _ _
 72
    65
 73
     6
 40
1.25
 49
0.625
 49
-0.125
 49
0.125
 49
-0.125
 49
0.125
 49
-0.125
  0
LTYPE
  2
BYGG-024800$0$DASHDOT
 70
     0
  3
__ . __ . __ . __ . __ . __ . __ . __ . __ . __
 72
    65
 73
     4
 40
1.0
 49
0.5
 49
-0.25
 49
0.0
 49
-0.25
  0
LTYPE
  2
BYGG-01409101$0$PHANTOM2
 70
     0
  3
Phantom (.5x) ___ _ _ ___ _ _ ___ _ _ ___ _ _
 72
    65
 73
     6
 40
1.25
 49
0.625
 49
-0.125
 49
0.125
 49
-0.125
 49
0.125
 49
-0.125
  0
LTYPE
  2
BYGG-030601$0$PHANTOM2
 70
     0
  3
Phantom (.5x) ___ _ _ ___ _ _ ___ _ _ ___ _ _
 72
    65
 73
     6
 40
1.25
 49
0.625
 49
-0.125
 49
0.125
 49
-0.125
 49
0.125
 49
-0.125
  0
LTYPE
  2
BYGG-014090$0$PHANTOM2
 70
     0
  3
Phantom (.5x) ___ _ _ ___ _ _ ___ _ _ ___ _ _
 72
    65
 73
     6
 40
1.25
 49
0.625
 49
-0.125
 49
0.125
 49
-0.125
 49
0.125
 49
-0.125
  0
LTYPE
  2
BYGG-01409301$0$PHANTOM2
 70
     0
  3
Phantom (.5x) ___ _ _ ___ _ _ ___ _ _ ___ _ _
 72
    65
 73
     6
 40
1.25
 49
0.625
 49
-0.125
 49
0.125
 49
-0.125
 49
0.125
 49
-0.125
  0
ENDTAB
  0
TABLE
  2
LAYER
 70
   268
  0
LAYER
  2
0
 70
     0
 62
     7
  6
CONTINUOUS
  0
LAYER
  2
DEFPOINTS
 70
     0
 62
     7
  6
CONTINUOUS
  0
LAYER
  2
SAPA_LIGHT
 70
     1
 62
     1
  6
CONTINUOUS
  0
LAYER
  2
SAPA_ARTIKELNR
 70
     0
 62
     4
  6
CONTINUOUS
  0
LAYER
  2
SAPA_ANSLUTNING
 70
     0
 62
     6
  6
CONTINUOUS
  0
LAYER
  2
SAPA_PROFIL
 70
     0
 62
     7
  6
CONTINUOUS
  0
LAYER
  2
BYGG-027036$0$DIM
 70
     4
 62
     5
  6
CONTINUOUS
  0
LAYER
  2
BYGG-027036$0$KON
 70
     4
 62
     7
  6
CONTINUOUS
  0
LAYER
  2
SAPA_FYLLNING
 70
     0
 62
     4
  6
CONTINUOUS
  0
LAYER
  2
SAPA_ISOLATOR
 70
     0
 62
     4
  6
CONTINUOUS
  0
LAYER
  2
SAPA_MATT
 70
     0
 62
     1
  6
CONTINUOUS
  0
LAYER
  2
SAPA_GLAS
 70
     0
 62
     4
  6
CONTINUOUS
  0
LAYER
  2
SAPA_FOGBAND
 70
     0
 62
     2
  6
CONTINUOUS
  0
ENDTAB
  0
TABLE
  2
STYLE
 70
    58
  0
STYLE
  2
STANDARD
 70
     0
 40
0.0
 41
1.0
 50
0.0
 71
     0
 42
0.2
  3
txt
  4

  0
STYLE
  2
ISO
 70
     0
 40
0.0
 41
1.0
 50
0.0
 71
     0
 42
3.5
  3
txt
  4

  0
STYLE
  2

 70
     1
 40
0.0
 41
1.0
 50
0.0
 71
     0
 42
0.2
  3
ltypeshp.shx
  4

  0
STYLE
  2
BYGG-019434$0$STANDARD
 70
     0
 40
0.0
 41
1.0
 50
0.0
 71
     0
 42
0.2
  3
txt
  4

  0
STYLE
  2
BYGG-019434$0$ISO
 70
     0
 40
0.0
 41
1.0
 50
0.0
 71
     0
 42
3.5
  3
txt
  4

  0
STYLE
  2
BYGG-01472602$0$STANDARD
 70
     0
 40
0.0
 41
1.0
 50
0.0
 71
     0
 42
0.2
  3
txt
  4

  0
STYLE
  2
BYGG-01472602$0$ISO
 70
     0
 40
0.0
 41
1.0
 50
0.0
 71
     0
 42
2.5
  3
isocp3.shx
  4

  0
STYLE
  2
BYGG-019435$0$STANDARD
 70
     0
 40
0.0
 41
1.0
 50
0.0
 71
     0
 42
0.2
  3
txt
  4

  0
STYLE
  2
BYGG-019435$0$ISO
 70
     0
 40
0.0
 41
1.0
 50
0.0
 71
     0
 42
3.5
  3
txt
  4

  0
STYLE
  2
BYGG-014352$0$STANDARD
 70
     0
 40
0.0
 41
1.0
 50
0.0
 71
     0
 42
0.2
  3
txt
  4

  0
STYLE
  2
BYGG-014352$0$ISO
 70
     0
 40
0.0
 41
1.0
 50
0.0
 71
     0
 42
3.5
  3
isocp3.shx
  4

  0
STYLE
  2
BYGG-014014$0$STANDARD
 70
     0
 40
0.0
 41
1.0
 50
0.0
 71
     0
 42
0.2
  3
txt
  4

  0
STYLE
  2
BYGG-025727$0$STANDARD
 70
     0
 40
0.0
 41
1.0
 50
0.0
 71
     0
 42
0.2
  3
txt
  4

  0
STYLE
  2
BYGG-025727$0$ISO
 70
     0
 40
0.0
 41
1.0
 50
0.0
 71
     0
 42
3.5
  3
txt
  4

  0
STYLE
  2
BYGG-025593$0$STANDARD
 70
     0
 40
0.0
 41
1.0
 50
0.0
 71
     0
 42
0.2
  3
txt
  4

  0
STYLE
  2
BYGG-025593$0$ISO
 70
     0
 40
0.0
 41
1.0
 50
0.0
 71
     0
 42
3.5
  3
txt
  4

  0
STYLE
  2
BYGG-033291$0$STANDARD
 70
     0
 40
0.0
 41
1.0
 50
0.0
 71
     0
 42
0.2
  3
txt
  4

  0
STYLE
  2
BYGG-033291$0$ISO
 70
     0
 40
0.0
 41
1.0
 50
0.0
 71
     0
 42
3.5
  3
txt
  4

  0
STYLE
  2
BYGG-025060$0$STANDARD
 70
     0
 40
0.0
 41
1.0
 50
0.0
 71
     0
 42
0.2
  3
txt
  4

  0
STYLE
  2
BYGG-025060$0$ISO
 70
     0
 40
0.0
 41
1.0
 50
0.0
 71
     0
 42
3.5
  3
txt
  4

  0
STYLE
  2
BYGG-012216$0$STANDARD
 70
     0
 40
0.0
 41
1.0
 50
0.0
 71
     0
 42
0.2
  3
txt
  4

  0
STYLE
  2
BYGG-012216$0$ISO
 70
     0
 40
0.0
 41
1.0
 50
0.0
 71
     0
 42
3.5
  3
txt
  4

  0
STYLE
  2
BYGG-028980$0$STANDARD
 70
     0
 40
0.0
 41
1.0
 50
0.0
 71
     0
 42
0.2
  3
txt
  4

  0
STYLE
  2
BYGG-028980$0$ISO
 70
     0
 40
0.0
 41
1.0
 50
0.0
 71
     0
 42
3.5
  3
txt
  4

  0
STYLE
  2
BYGG-033168$0$STANDARD
 70
     0
 40
0.0
 41
1.0
 50
0.0
 71
     0
 42
0.2
  3
txt
  4

  0
STYLE
  2
BYGG-033168$0$ISO
 70
     0
 40
0.0
 41
1.0
 50
0.0
 71
     0
 42
3.5
  3
txt
  4

  0
STYLE
  2
BYGG-027036$0$STANDARD
 70
     0
 40
0.0
 41
1.0
 50
0.0
 71
     0
 42
0.2
  3
txt
  4

  0
STYLE
  2
BYGG-027036$0$ISO
 70
     0
 40
0.0
 41
1.0
 50
0.0
 71
     0
 42
3.5
  3
txt
  4

  0
STYLE
  2
BYGG-027036$0$SIMPLEX
 70
     0
 40
0.0
 41
1.0
 50
0.0
 71
     0
 42
0.4
  3
simplex
  4

  0
STYLE
  2
BYGG-027036$0$ITALIC
 70
     0
 40
0.0
 41
1.0
 50
0.0
 71
     0
 42
0.4
  3
ITALIC
  4

  0
STYLE
  2
BYGG-027036$0$SYMBOL1
 70
     0
 40
0.0
 41
1.0
 50
0.0
 71
     0
 42
0.2
  3
SIMPLEX.SHX
  4

  0
STYLE
  2
BYGG-027036$0$MONOTXT
 70
     0
 40
0.2
 41
1.0
 50
0.0
 71
     0
 42
0.2
  3
MONOTXT
  4

  0
STYLE
  2
BYGG-027036$0$TIMES
 70
     0
 40
0.0
 41
1.0
 50
0.0
 71
     0
 42
100.0
  3
txt
  4

  0
STYLE
  2
BYGG-027036$0$ROMANS
 70
     0
 40
0.0
 41
1.0
 50
0.0
 71
     0
 42
5.0
  3
romans
  4

  0
STYLE
  2
BYGG-027036$0$SEACAD_ARIAL
 70
     0
 40
0.0
 41
1.0
 50
0.0
 71
     0
 42
0.2
  3
txt
  4

  0
STYLE
  2
BYGG-027036$0$ANNOTATIVE
 70
     0
 40
0.0
 41
1.0
 50
0.0
 71
     0
 42
0.2
  3
txt
  4

  0
STYLE
  2
BYGG-019610$0$STANDARD
 70
     0
 40
0.0
 41
1.0
 50
0.0
 71
     0
 42
0.2
  3
txt
  4

  0
STYLE
  2
BYGG-019610$0$ISO
 70
     0
 40
0.0
 41
1.0
 50
0.0
 71
     0
 42
3.5
  3
txt
  4

  0
STYLE
  2
BYGG-029021$0$STANDARD
 70
     0
 40
0.0
 41
1.0
 50
0.0
 71
     0
 42
0.2
  3
txt
  4

  0
STYLE
  2
BYGG-029021$0$ISO
 70
     0
 40
0.0
 41
1.0
 50
0.0
 71
     0
 42
3.5
  3
txt
  4

  0
STYLE
  2
BYGG-029021$0$ANNOTATION
 70
     0
 40
0.0
 41
1.0
 50
0.0
 71
     0
 42
0.2
  3
txt
  4

  0
STYLE
  2
BYGG-029021$0$COTATION
 70
     0
 40
0.0
 41
1.0
 50
0.0
 71
     0
 42
0.2
  3
txt
  4

  0
STYLE
  2
BYGG-029021$0$ANNOTATIVE
 70
     0
 40
0.0
 41
1.0
 50
0.0
 71
     0
 42
0.2
  3
txt
  4

  0
STYLE
  2
BYGG-024800$0$STANDARD
 70
     0
 40
0.0
 41
1.0
 50
0.0
 71
     0
 42
0.2
  3
txt
  4

  0
STYLE
  2
BYGG-024800$0$ISO
 70
     0
 40
0.0
 41
1.0
 50
0.0
 71
     0
 42
3.5
  3
txt
  4

  0
STYLE
  2
BYGG-024807$0$STANDARD
 70
     0
 40
0.0
 41
1.0
 50
0.0
 71
     0
 42
0.2
  3
txt
  4

  0
STYLE
  2
BYGG-024807$0$ISO
 70
     0
 40
0.0
 41
1.0
 50
0.0
 71
     0
 42
3.5
  3
txt
  4

  0
STYLE
  2
BYGG-024807$0$ANNOTATIVE
 70
     0
 40
0.0
 41
1.0
 50
0.0
 71
     0
 42
0.2
  3
txt
  4

  0
STYLE
  2
BYGG-01409101$0$STANDARD
 70
     0
 40
0.0
 41
1.0
 50
0.0
 71
     0
 42
0.4
  3
txt
  4

  0
STYLE
  2
BYGG-01409101$0$SIMPLEX
 70
     0
 40
0.0
 41
1.0
 50
0.0
 71
     0
 42
0.2
  3
simplex
  4

  0
STYLE
  2
BYGG-036634$0$STANDARD
 70
     0
 40
0.0
 41
1.0
 50
0.0
 71
     0
 42
0.2
  3
txt
  4

  0
STYLE
  2
BYGG-036634$0$ISO
 70
     0
 40
0.0
 41
1.0
 50
0.0
 71
     0
 42
3.5
  3
txt
  4

  0
STYLE
  2
BYGG-030601$0$STANDARD
 70
     0
 40
0.0
 41
1.0
 50
0.0
 71
     0
 42
0.2
  3
txt
  4

  0
STYLE
  2
BYGG-030601$0$ISO
 70
     0
 40
0.0
 41
1.0
 50
0.0
 71
     0
 42
3.5
  3
txt
  4

  0
STYLE
  2
BYGG-014090$0$STANDARD
 70
     0
 40
0.0
 41
1.0
 50
0.0
 71
     0
 42
0.2
  3
txt
  4

  0
STYLE
  2
BYGG-014090$0$SIMPLEX
 70
     0
 40
0.0
 41
1.0
 50
0.0
 71
     0
 42
0.2
  3
simplex
  4

  0
STYLE
  2
BYGG-01409301$0$STANDARD
 70
     0
 40
0.0
 41
1.0
 50
0.0
 71
     0
 42
0.4
  3
txt
  4

  0
STYLE
  2
BYGG-01409301$0$ANNOTATIVE
 70
     0
 40
0.0
 41
1.0
 50
0.0
 71
     0
 42
0.4
  3
txt
  4

  0
ENDTAB
  0
TABLE
  2
VIEW
 70
     0
  0
ENDTAB
  0
TABLE
  2
UCS
 70
     0
  0
ENDTAB
  0
TABLE
  2
APPID
 70
    51
  0
APPID
  2
ACAD
 70
     0
  0
APPID
  2
ACAD_DSTYLE_DIMTEXT_FILL
 70
     0
  0
APPID
  2
ACAD_DSTYLE_DIMEXT_LENGTH
 70
     0
  0
APPID
  2
ACAD_DSTYLE_DIMEXT_ENABLED
 70
     0
  0
APPID
  2
ACAD_DSTYLE_DIM_LINETYPE
 70
     0
  0
APPID
  2
ACAD_DSTYLE_DIM_EXT1_LINETYPE
 70
     0
  0
APPID
  2
ACAD_DSTYLE_DIM_EXT2_LINETYPE
 70
     0
  0
APPID
  2
ACAD_DSTYLE_DIMJOGGED_JOGA
 70
     0
  0
APPID
  2
ACAD_DSTYLE_DIMARC_LENGTH_
 70
     0
  0
APPID
  2
ACAD_PSEXT
 70
     0
  0
APPID
  2
ACAD_MLEADERVER
 70
     0
  0
APPID
  2
AME_SOL
 70
     0
  0
APPID
  2
AMG_ARCHIVE11
 70
     0
  0
APPID
  2
DCO15
 70
     0
  0
APPID
  2
ACAECLAYERSTANDARD
 70
     0
  0
APPID
  2
ACADANNOTATIVE
 70
     0
  0
APPID
  2
ACAD_EXEMPT_FROM_CAD_STANDARDS
 70
     0
  0
APPID
  2
ACDBDYNAMICBLOCKGUID
 70
     0
  0
APPID
  2
ACDBBLOCKREPETAG
 70
     0
  0
APPID
  2
ACAD_DSTYLE_DIMJAG
 70
     0
  0
APPID
  2
ACAD_DSTYLE_DIMTALN
 70
     0
  0
APPID
  2
RC_PROFILE
 70
     0
  0
APPID
  2
ACAUTHENVIRON
 70
     0
  0
APPID
  2
ACDBDYNAMICBLOCKTRUENAME
 70
     0
  0
APPID
  2
ACAD_NAV_VCDISPLAY
 70
     0
  0
APPID
  2
ACCMTRANSPARENCY
 70
     0
  0
APPID
  2
PE_URL
 70
     0
  0
APPID
  2
ACDBBLOCKREPBTAG
 70
     0
  0
APPID
  2
ACAD_DSTYLE_DIMRADIAL_EXTENSION
 70
     0
  0
APPID
  2
ACLAYERTOOLS
 70
     0
  0
APPID
  2
ACAD_OBJECT_CHANGE_GUID
 70
     0
  0
APPID
  2
AVE_RENDER
 70
     0
  0
APPID
  2
AVE_ENTITY_MATERIAL
 70
     0
  0
APPID
  2
AVE_FINISH
 70
     0
  0
APPID
  2
AVE_MATERIAL
 70
     0
  0
APPID
  2
AVE_GLOBAL
 70
     0
  0
APPID
  2
4M_RENDER
 70
     0
  0
APPID
  2
LIBMAN
 70
     0
  0
APPID
  2
AUTOBUILD
 70
     0
  0
APPID
  2
GRADIENTCOLOR1ACI
 70
     0
  0
APPID
  2
GRADIENTCOLOR2ACI
 70
     0
  0
APPID
  2
GENIUS_GENREC_14
 70
     0
  0
APPID
  2
GENIUS_GENOBJ-N-REC_13
 70
     0
  0
APPID
  2
GENIUS_GENODEF_13
 70
     0
  0
APPID
  2
GENIUS_GENTRA_14
 70
     0
  0
APPID
  2
GENIUS_GENOREF_13
 70
     0
  0
APPID
  2
GENIUS_GENSCREG_15
 70
     0
  0
APPID
  2
GENIUS_GENOBJ-N-SDF_13
 70
     0
  0
APPID
  2
ACADANNOPO
 70
     0
  0
APPID
  2
ACADBPTGRAPHNODEID
 70
     0
  0
APPID
  2
ACDBATTR
 70
     0
  0
ENDTAB
  0
TABLE
  2
DIMSTYLE
 70
    50
  0
DIMSTYLE
  2
STANDARD
 70
     0
  3

  4

  5

  6

  7

 40
1.0
 41
0.18
 42
0.0625
 43
0.38
 44
0.18
 45
0.0
 46
0.0
 47
0.0
 48
0.0
140
0.18
141
0.09
142
0.0
143
25.399999999999999
144
1.0
145
0.0
146
1.0
147
0.09
 71
     0
 72
     0
 73
     1
 74
     1
 75
     0
 76
     0
 77
     0
 78
     0
170
     0
171
     2
172
     0
173
     0
174
     0
175
     0
176
     0
177
     0
178
     0
  0
DIMSTYLE
  2
MASKIN
 70
     0
  3

  4

  5

  6

  7

 40
0.0
 41
3.0
 42
1.5
 43
10.0
 44
1.5
 45
0.0
 46
0.0
 47
0.0
 48
0.0
140
3.0
141
-5.0
142
0.0
143
25.399999999999999
144
-1.0
145
0.0
146
1.0
147
1.0
 71
     0
 72
     0
 73
     0
 74
     0
 75
     0
 76
     0
 77
     1
 78
     8
170
     0
171
     0
172
     1
173
     0
174
     0
175
     0
176
   256
177
   256
178
     2
  0
DIMSTYLE
  2
BYGG-019434$0$STANDARD
 70
     0
  3

  4

  5

  6

  7

 40
1.0
 41
0.18
 42
0.0625
 43
0.38
 44
0.18
 45
0.0
 46
0.0
 47
0.0
 48
0.0
140
0.18
141
0.09
142
0.0
143
25.399999999999999
144
1.0
145
0.0
146
1.0
147
0.09
 71
     0
 72
     0
 73
     1
 74
     1
 75
     0
 76
     0
 77
     0
 78
     0
170
     0
171
     2
172
     0
173
     0
174
     0
175
     0
176
     0
177
     0
178
     0
  0
DIMSTYLE
  2
BYGG-019434$0$MASKIN
 70
     0
  3

  4

  5

  6

  7

 40
0.0
 41
3.0
 42
1.5
 43
10.0
 44
1.5
 45
0.0
 46
0.0
 47
0.0
 48
0.0
140
3.0
141
-5.0
142
0.0
143
25.399999999999999
144
-1.0
145
0.0
146
1.0
147
1.0
 71
     0
 72
     0
 73
     0
 74
     0
 75
     0
 76
     0
 77
     1
 78
     8
170
     0
171
     0
172
     1
173
     0
174
     0
175
     0
176
   256
177
   256
178
     2
  0
DIMSTYLE
  2
BYGG-01472602$0$STANDARD
 70
     0
  3

  4

  5

  6

  7

 40
1.0
 41
0.18
 42
0.0625
 43
0.38
 44
0.18
 45
0.0
 46
0.0
 47
0.0
 48
0.0
140
0.18
141
0.09
142
0.0
143
25.399999999999999
144
1.0
145
0.0
146
1.0
147
0.09
 71
     0
 72
     0
 73
     1
 74
     1
 75
     0
 76
     0
 77
     0
 78
     0
170
     0
171
     2
172
     0
173
     0
174
     0
175
     0
176
     0
177
     0
178
     0
  0
DIMSTYLE
  2
BYGG-01472602$0$MASKIN
 70
     0
  3

  4

  5

  6

  7

 40
0.0
 41
3.0
 42
1.5
 43
10.0
 44
1.5
 45
0.0
 46
0.0
 47
0.0
 48
0.0
140
3.0
141
-5.0
142
0.0
143
25.399999999999999
144
-1.0
145
0.0
146
1.0
147
1.0
 71
     0
 72
     0
 73
     0
 74
     1
 75
     0
 76
     0
 77
     1
 78
     8
170
     0
171
     0
172
     1
173
     0
174
     0
175
     0
176
   256
177
   256
178
     2
  0
DIMSTYLE
  2
BYGG-019435$0$STANDARD
 70
     0
  3

  4

  5

  6

  7

 40
1.0
 41
0.18
 42
0.0625
 43
0.38
 44
0.18
 45
0.0
 46
0.0
 47
0.0
 48
0.0
140
0.18
141
0.09
142
0.0
143
25.399999999999999
144
1.0
145
0.0
146
1.0
147
0.09
 71
     0
 72
     0
 73
     1
 74
     1
 75
     0
 76
     0
 77
     0
 78
     0
170
     0
171
     2
172
     0
173
     0
174
     0
175
     0
176
     0
177
     0
178
     0
  0
DIMSTYLE
  2
BYGG-019435$0$MASKIN
 70
     0
  3

  4

  5

  6

  7

 40
0.0
 41
3.0
 42
1.5
 43
10.0
 44
1.5
 45
0.0
 46
0.0
 47
0.0
 48
0.0
140
3.0
141
-5.0
142
0.0
143
25.399999999999999
144
-1.0
145
0.0
146
1.0
147
1.0
 71
     0
 72
     0
 73
     0
 74
     0
 75
     0
 76
     0
 77
     1
 78
     8
170
     0
171
     0
172
     1
173
     0
174
     0
175
     0
176
   256
177
   256
178
     2
  0
DIMSTYLE
  2
BYGG-014352$0$MASKIN
 70
     0
  3

  4

  5

  6

  7

 40
0.0
 41
3.0
 42
1.5
 43
10.0
 44
1.5
 45
0.0
 46
0.0
 47
0.0
 48
0.0
140
3.0
141
-5.0
142
0.0
143
25.399999999999999
144
-1.0
145
0.0
146
1.0
147
1.0
 71
     0
 72
     0
 73
     0
 74
     0
 75
     0
 76
     0
 77
     1
 78
     8
170
     0
171
     0
172
     1
173
     0
174
     0
175
     0
176
   256
177
   256
178
   256
  0
DIMSTYLE
  2
BYGG-014014$0$STANDARD
 70
     0
  3

  4

  5

  6

  7

 40
1.0
 41
0.18
 42
0.0625
 43
0.38
 44
0.18
 45
0.0
 46
0.0
 47
0.0
 48
0.0
140
0.18
141
0.09
142
0.0
143
25.399999999999999
144
1.0
145
0.0
146
1.0
147
0.09
 71
     0
 72
     0
 73
     1
 74
     1
 75
     0
 76
     0
 77
     0
 78
     0
170
     0
171
     2
172
     0
173
     0
174
     0
175
     0
176
     0
177
     0
178
     0
  0
DIMSTYLE
  2
BYGG-025727$0$STANDARD
 70
     0
  3

  4

  5

  6

  7

 40
1.0
 41
0.18
 42
0.0625
 43
0.38
 44
0.18
 45
0.0
 46
0.0
 47
0.0
 48
0.0
140
0.18
141
0.09
142
0.0
143
25.399999999999999
144
1.0
145
0.0
146
1.0
147
0.09
 71
     0
 72
     0
 73
     1
 74
     1
 75
     0
 76
     0
 77
     0
 78
     0
170
     0
171
     2
172
     0
173
     0
174
     0
175
     0
176
     0
177
     0
178
     0
  0
DIMSTYLE
  2
BYGG-025727$0$MASKIN
 70
     0
  3

  4

  5

  6

  7

 40
0.0
 41
3.0
 42
1.5
 43
10.0
 44
1.5
 45
0.0
 46
0.0
 47
0.0
 48
0.0
140
3.0
141
-5.0
142
0.0
143
25.399999999999999
144
-1.0
145
0.0
146
1.0
147
1.0
 71
     0
 72
     0
 73
     0
 74
     0
 75
     0
 76
     0
 77
     1
 78
     8
170
     0
171
     0
172
     1
173
     0
174
     0
175
     0
176
   256
177
   256
178
     2
  0
DIMSTYLE
  2
BYGG-025593$0$STANDARD
 70
     0
  3

  4

  5

  6

  7

 40
1.0
 41
0.18
 42
0.0625
 43
0.38
 44
0.18
 45
0.0
 46
0.0
 47
0.0
 48
0.0
140
0.18
141
0.09
142
0.0
143
25.399999999999999
144
1.0
145
0.0
146
1.0
147
0.09
 71
     0
 72
     0
 73
     1
 74
     1
 75
     0
 76
     0
 77
     0
 78
     0
170
     0
171
     2
172
     0
173
     0
174
     0
175
     0
176
     0
177
     0
178
     0
  0
DIMSTYLE
  2
BYGG-025593$0$MASKIN
 70
     0
  3

  4

  5

  6

  7

 40
0.0
 41
3.0
 42
1.5
 43
10.0
 44
1.5
 45
0.0
 46
0.0
 47
0.0
 48
0.0
140
3.0
141
-5.0
142
0.0
143
25.399999999999999
144
-1.0
145
0.0
146
1.0
147
1.0
 71
     0
 72
     0
 73
     0
 74
     0
 75
     0
 76
     0
 77
     1
 78
     8
170
     0
171
     0
172
     1
173
     0
174
     0
175
     0
176
   256
177
   256
178
     2
  0
DIMSTYLE
  2
BYGG-033291$0$STANDARD
 70
     0
  3

  4

  5

  6

  7

 40
1.0
 41
0.18
 42
0.0625
 43
0.38
 44
0.18
 45
0.0
 46
0.0
 47
0.0
 48
0.0
140
0.18
141
0.09
142
0.0
143
25.399999999999999
144
1.0
145
0.0
146
1.0
147
0.09
 71
     0
 72
     0
 73
     1
 74
     1
 75
     0
 76
     0
 77
     0
 78
     0
170
     0
171
     2
172
     0
173
     0
174
     0
175
     0
176
     0
177
     0
178
     0
  0
DIMSTYLE
  2
BYGG-033291$0$MASKIN
 70
     0
  3

  4

  5

  6

  7

 40
0.0
 41
3.0
 42
1.5
 43
10.0
 44
1.5
 45
0.0
 46
0.0
 47
0.0
 48
0.0
140
3.0
141
-5.0
142
0.0
143
25.399999999999999
144
-1.0
145
0.0
146
1.0
147
1.0
 71
     0
 72
     0
 73
     0
 74
     0
 75
     0
 76
     0
 77
     1
 78
     8
170
     0
171
     0
172
     1
173
     0
174
     0
175
     0
176
   256
177
   256
178
     2
  0
DIMSTYLE
  2
BYGG-025060$0$MASKIN
 70
     0
  3

  4

  5

  6

  7

 40
0.0
 41
3.0
 42
1.5
 43
10.0
 44
1.5
 45
0.0
 46
0.0
 47
0.0
 48
0.0
140
3.0
141
-5.0
142
0.0
143
25.399999999999999
144
-1.0
145
0.0
146
1.0
147
1.0
 71
     0
 72
     0
 73
     0
 74
     0
 75
     0
 76
     0
 77
     1
 78
     8
170
     0
171
     0
172
     1
173
     0
174
     0
175
     0
176
   256
177
   256
178
     2
  0
DIMSTYLE
  2
BYGG-025060$0$STANDARD
 70
     0
  3

  4

  5

  6

  7

 40
1.0
 41
0.18
 42
0.0625
 43
0.38
 44
0.18
 45
0.0
 46
0.0
 47
0.0
 48
0.0
140
0.18
141
0.09
142
0.0
143
25.399999999999999
144
1.0
145
0.0
146
1.0
147
0.09
 71
     0
 72
     0
 73
     1
 74
     1
 75
     0
 76
     0
 77
     0
 78
     0
170
     0
171
     2
172
     0
173
     0
174
     0
175
     0
176
     0
177
     0
178
     0
  0
DIMSTYLE
  2
BYGG-012216$0$MASKIN
 70
     0
  3

  4

  5

  6

  7

 40
0.0
 41
3.0
 42
1.5
 43
10.0
 44
1.5
 45
0.0
 46
0.0
 47
0.0
 48
0.0
140
3.0
141
-5.0
142
0.0
143
25.399999999999999
144
-1.0
145
0.0
146
1.0
147
1.0
 71
     0
 72
     0
 73
     0
 74
     0
 75
     0
 76
     0
 77
     1
 78
     8
170
     0
171
     0
172
     1
173
     0
174
     0
175
     0
176
   256
177
   256
178
     2
  0
DIMSTYLE
  2
BYGG-012216$0$STANDARD
 70
     0
  3

  4

  5

  6

  7

 40
1.0
 41
0.18
 42
0.0625
 43
0.38
 44
0.18
 45
0.0
 46
0.0
 47
0.0
 48
0.0
140
0.18
141
0.09
142
0.0
143
25.399999999999999
144
1.0
145
0.0
146
1.0
147
0.09
 71
     0
 72
     0
 73
     1
 74
     1
 75
     0
 76
     0
 77
     0
 78
     0
170
     0
171
     2
172
     0
173
     0
174
     0
175
     0
176
     0
177
     0
178
     0
  0
DIMSTYLE
  2
BYGG-028980$0$STANDARD
 70
     0
  3

  4

  5

  6

  7

 40
1.0
 41
0.18
 42
0.0625
 43
0.38
 44
0.18
 45
0.0
 46
0.0
 47
0.0
 48
0.0
140
0.18
141
0.09
142
0.0
143
25.399999999999999
144
1.0
145
0.0
146
1.0
147
0.09
 71
     0
 72
     0
 73
     1
 74
     1
 75
     0
 76
     0
 77
     0
 78
     0
170
     0
171
     2
172
     0
173
     0
174
     0
175
     0
176
     0
177
     0
178
     0
  0
DIMSTYLE
  2
BYGG-028980$0$MASKIN
 70
     0
  3

  4

  5

  6

  7

 40
0.0
 41
3.0
 42
1.5
 43
10.0
 44
1.5
 45
0.0
 46
0.0
 47
0.0
 48
0.0
140
3.0
141
-5.0
142
0.0
143
25.399999999999999
144
-1.0
145
0.0
146
1.0
147
1.0
 71
     0
 72
     0
 73
     0
 74
     0
 75
     0
 76
     0
 77
     1
 78
     8
170
     0
171
     0
172
     1
173
     0
174
     0
175
     0
176
   256
177
   256
178
     2
  0
DIMSTYLE
  2
BYGG-033168$0$STANDARD
 70
     0
  3

  4

  5

  6

  7

 40
1.0
 41
0.18
 42
0.0625
 43
0.38
 44
0.18
 45
0.0
 46
0.0
 47
0.0
 48
0.0
140
0.18
141
0.09
142
0.0
143
25.399999999999999
144
1.0
145
0.0
146
1.0
147
0.09
 71
     0
 72
     0
 73
     1
 74
     1
 75
     0
 76
     0
 77
     0
 78
     0
170
     0
171
     2
172
     0
173
     0
174
     0
175
     0
176
     0
177
     0
178
     0
  0
DIMSTYLE
  2
BYGG-033168$0$MASKIN
 70
     0
  3

  4

  5

  6

  7

 40
0.0
 41
3.0
 42
1.5
 43
10.0
 44
1.5
 45
0.0
 46
0.0
 47
0.0
 48
0.0
140
3.0
141
-5.0
142
0.0
143
25.399999999999999
144
-1.0
145
0.0
146
1.0
147
1.0
 71
     0
 72
     0
 73
     0
 74
     0
 75
     0
 76
     0
 77
     1
 78
     8
170
     0
171
     0
172
     1
173
     0
174
     0
175
     0
176
   256
177
   256
178
     2
  0
DIMSTYLE
  2
BYGG-027036$0$STANDARD
 70
     0
  3

  4

  5

  6

  7

 40
1.0
 41
0.18
 42
0.0625
 43
0.38
 44
0.18
 45
0.0
 46
0.0
 47
0.0
 48
0.0
140
0.18
141
0.09
142
0.0
143
25.399999999999999
144
1.0
145
0.0
146
1.0
147
0.09
 71
     0
 72
     0
 73
     1
 74
     1
 75
     0
 76
     0
 77
     0
 78
     0
170
     0
171
     2
172
     0
173
     0
174
     0
175
     0
176
     0
177
     0
178
     0
  0
DIMSTYLE
  2
BYGG-027036$0$MASKIN
 70
     0
  3

  4

  5

  6

  7

 40
0.0
 41
3.0
 42
1.5
 43
10.0
 44
1.5
 45
0.0
 46
0.0
 47
0.0
 48
0.0
140
3.0
141
-5.0
142
0.0
143
25.399999999999999
144
-1.0
145
0.0
146
1.0
147
1.0
 71
     0
 72
     0
 73
     0
 74
     0
 75
     0
 76
     0
 77
     1
 78
     8
170
     0
171
     0
172
     1
173
     0
174
     0
175
     0
176
   256
177
   256
178
     2
  0
DIMSTYLE
  2
BYGG-027036$0$STANDARD$4
 70
     0
  3

  4

  5

  6

  7

 40
1.0
 41
2.5
 42
2.0
 43
3.75
 44
1.0
 45
0.0
 46
0.0
 47
0.0
 48
0.0
140
5.0
141
3.0
142
0.0
143
0.0394
144
1.0
145
1.0
146
1.0
147
1.0
 71
     0
 72
     0
 73
     1
 74
     0
 75
     0
 76
     0
 77
     1
 78
     8
170
     0
171
     2
172
     1
173
     0
174
     0
175
     0
176
     5
177
     5
178
     5
  0
DIMSTYLE
  2
BYGG-027036$0$STANDARD$2
 70
     0
  3

  4

  5

  6

  7

 40
1.0
 41
2.5
 42
2.0
 43
3.75
 44
1.0
 45
0.0
 46
0.0
 47
0.0
 48
0.0
140
5.0
141
3.0
142
0.0
143
0.0394
144
1.0
145
1.0
146
1.0
147
1.0
 71
     0
 72
     0
 73
     1
 74
     0
 75
     0
 76
     0
 77
     1
 78
     8
170
     0
171
     2
172
     1
173
     0
174
     0
175
     0
176
     5
177
     5
178
     5
  0
DIMSTYLE
  2
BYGG-027036$0$DMST_1
 70
     0
  3

  4

  5

  6

  7

 40
1.0
 41
0.3500000000000001
 42
0.0
 43
7.0
 44
0.2
 45
0.0
 46
0.0
 47
0.0
 48
0.0
140
0.3500000000000001
141
0.0
142
0.0
143
25.399999999999999
144
1.0
145
0.0
146
1.0
147
0.09
 71
     0
 72
     0
 73
     0
 74
     0
 75
     0
 76
     0
 77
     1
 78
     9
170
     0
171
     2
172
     0
173
     0
174
     0
175
     0
176
     1
177
     1
178
     2
  0
DIMSTYLE
  2
BYGG-027036$0$ANNOTATIVE
 70
     0
  3

  4

  5

  6

  7

 40
1.0
 41
0.18
 42
0.0625
 43
0.38
 44
0.18
 45
0.0
 46
0.0
 47
0.0
 48
0.0
140
0.18
141
0.09
142
0.0
143
25.399999999999999
144
1.0
145
0.0
146
1.0
147
0.09
 71
     0
 72
     0
 73
     1
 74
     1
 75
     0
 76
     0
 77
     0
 78
     0
170
     0
171
     2
172
     0
173
     0
174
     0
175
     0
176
     0
177
     0
178
     0
  0
DIMSTYLE
  2
BYGG-019610$0$STANDARD
 70
     0
  3

  4

  5

  6

  7

 40
1.0
 41
0.18
 42
0.0625
 43
0.38
 44
0.18
 45
0.0
 46
0.0
 47
0.0
 48
0.0
140
0.18
141
0.09
142
0.0
143
25.399999999999999
144
1.0
145
0.0
146
1.0
147
0.09
 71
     0
 72
     0
 73
     1
 74
     1
 75
     0
 76
     0
 77
     0
 78
     0
170
     0
171
     2
172
     0
173
     0
174
     0
175
     0
176
     0
177
     0
178
     0
  0
DIMSTYLE
  2
BYGG-019610$0$MASKIN
 70
     0
  3

  4

  5

  6

  7

 40
0.0
 41
3.0
 42
1.5
 43
10.0
 44
1.5
 45
0.0
 46
0.0
 47
0.0
 48
0.0
140
3.0
141
-5.0
142
0.0
143
25.399999999999999
144
-1.0
145
0.0
146
1.0
147
1.0
 71
     0
 72
     0
 73
     0
 74
     0
 75
     0
 76
     0
 77
     1
 78
     8
170
     0
171
     0
172
     1
173
     0
174
     0
175
     0
176
   256
177
   256
178
     2
  0
DIMSTYLE
  2
BYGG-029021$0$STANDARD
 70
     0
  3

  4

  5

  6

  7

 40
1.0
 41
0.18
 42
0.0625
 43
0.38
 44
0.18
 45
0.0
 46
0.0
 47
0.0
 48
0.0
140
0.18
141
0.09
142
0.0
143
25.399999999999999
144
1.0
145
0.0
146
1.0
147
0.09
 71
     0
 72
     0
 73
     1
 74
     1
 75
     0
 76
     0
 77
     0
 78
     0
170
     0
171
     2
172
     0
173
     0
174
     0
175
     0
176
     0
177
     0
178
     0
  0
DIMSTYLE
  2
BYGG-029021$0$MASKIN
 70
     0
  3

  4

  5

  6

  7

 40
0.0
 41
3.0
 42
1.5
 43
10.0
 44
1.5
 45
0.0
 46
0.0
 47
0.0
 48
0.0
140
3.0
141
-5.0
142
0.0
143
25.399999999999999
144
-1.0
145
0.0
146
1.0
147
1.0
 71
     0
 72
     0
 73
     0
 74
     0
 75
     0
 76
     0
 77
     1
 78
     8
170
     0
171
     0
172
     1
173
     0
174
     0
175
     0
176
   256
177
   256
178
     2
  0
DIMSTYLE
  2
BYGG-029021$0$MASKIN1
 70
     0
  3

  4

  5

  6

  7

 40
0.0
 41
3.0
 42
1.5
 43
10.0
 44
1.5
 45
0.0
 46
0.0
 47
0.0
 48
0.0
140
3.0
141
-5.0
142
0.0
143
25.399999999999999
144
-1.0
145
0.0
146
1.0
147
1.0
 71
     0
 72
     0
 73
     0
 74
     0
 75
     0
 76
     0
 77
     1
 78
     8
170
     0
171
     0
172
     1
173
     0
174
     0
175
     0
176
   256
177
   256
178
   256
  0
DIMSTYLE
  2
BYGG-029021$0$COTATION_HUT
 70
     0
  3

  4

  5

  6

  7

 40
1.0
 41
0.25
 42
0.1
 43
3.75
 44
0.18
 45
0.0
 46
0.0
 47
0.0
 48
0.0
140
0.25
141
2.5
142
0.0
143
25.399999999999999
144
1.0
145
0.05
146
0.7000000000000002
147
0.09
 71
     1
 72
     0
 73
     0
 74
     0
 75
     0
 76
     0
 77
     1
 78
     0
170
     0
171
     2
172
     1
173
     0
174
     0
175
     0
176
     0
177
     0
178
     0
  0
DIMSTYLE
  2
BYGG-029021$0$ANNOTATIVE
 70
     0
  3

  4

  5

  6

  7

 40
1.0
 41
0.18
 42
0.0625
 43
0.38
 44
0.18
 45
0.0
 46
0.0
 47
0.0
 48
0.0
140
0.18
141
0.09
142
0.0
143
25.399999999999999
144
1.0
145
0.0
146
1.0
147
0.09
 71
     0
 72
     0
 73
     1
 74
     1
 75
     0
 76
     0
 77
     0
 78
     0
170
     0
171
     2
172
     0
173
     0
174
     0
175
     0
176
     0
177
     0
178
     0
  0
DIMSTYLE
  2
BYGG-024800$0$MASKIN
 70
     0
  3

  4

  5

  6

  7

 40
0.0
 41
3.0
 42
1.5
 43
10.0
 44
1.5
 45
0.0
 46
0.0
 47
0.0
 48
0.0
140
3.0
141
-5.0
142
0.0
143
25.399999999999999
144
-1.0
145
0.0
146
1.0
147
1.0
 71
     0
 72
     0
 73
     0
 74
     0
 75
     0
 76
     0
 77
     1
 78
     8
170
     0
171
     0
172
     1
173
     0
174
     0
175
     0
176
   256
177
   256
178
     2
  0
DIMSTYLE
  2
BYGG-024800$0$STANDARD
 70
     0
  3

  4

  5

  6

  7

 40
1.0
 41
0.18
 42
0.0625
 43
0.38
 44
0.18
 45
0.0
 46
0.0
 47
0.0
 48
0.0
140
0.18
141
0.09
142
0.0
143
25.399999999999999
144
1.0
145
0.0
146
1.0
147
0.09
 71
     0
 72
     0
 73
     1
 74
     1
 75
     0
 76
     0
 77
     0
 78
     0
170
     0
171
     2
172
     0
173
     0
174
     0
175
     0
176
     0
177
     0
178
     0
  0
DIMSTYLE
  2
BYGG-024807$0$MASKIN
 70
     0
  3

  4

  5

  6

  7

 40
0.0
 41
3.0
 42
1.5
 43
10.0
 44
1.5
 45
0.0
 46
0.0
 47
0.0
 48
0.0
140
3.0
141
-5.0
142
0.0
143
25.399999999999999
144
-1.0
145
0.0
146
1.0
147
1.0
 71
     0
 72
     0
 73
     0
 74
     0
 75
     0
 76
     0
 77
     1
 78
     8
170
     0
171
     0
172
     1
173
     0
174
     0
175
     0
176
   256
177
   256
178
     2
  0
DIMSTYLE
  2
BYGG-024807$0$STANDARD
 70
     0
  3

  4

  5

  6

  7

 40
1.0
 41
0.18
 42
0.0625
 43
0.38
 44
0.18
 45
0.0
 46
0.0
 47
0.0
 48
0.0
140
0.18
141
0.09
142
0.0
143
25.399999999999999
144
1.0
145
0.0
146
1.0
147
0.09
 71
     0
 72
     0
 73
     1
 74
     1
 75
     0
 76
     0
 77
     0
 78
     0
170
     0
171
     2
172
     0
173
     0
174
     0
175
     0
176
     0
177
     0
178
     0
  0
DIMSTYLE
  2
BYGG-024807$0$ANNOTATIVE
 70
     0
  3

  4

  5

  6

  7

 40
1.0
 41
0.18
 42
0.0625
 43
0.38
 44
0.18
 45
0.0
 46
0.0
 47
0.0
 48
0.0
140
0.18
141
0.09
142
0.0
143
25.399999999999999
144
1.0
145
0.0
146
1.0
147
0.09
 71
     0
 72
     0
 73
     1
 74
     1
 75
     0
 76
     0
 77
     0
 78
     0
170
     0
171
     2
172
     0
173
     0
174
     0
175
     0
176
     0
177
     0
178
     0
  0
DIMSTYLE
  2
BYGG-01409101$0$STANDARD
 70
     0
  3

  4

  5

  6

  7

 40
1.0
 41
0.18
 42
0.0625
 43
0.38
 44
0.18
 45
0.0
 46
0.0
 47
0.0
 48
0.0
140
0.18
141
0.09
142
0.0
143
25.399999999999999
144
1.0
145
0.0
146
1.0
147
0.09
 71
     0
 72
     0
 73
     1
 74
     1
 75
     0
 76
     0
 77
     0
 78
     0
170
     0
171
     2
172
     0
173
     0
174
     0
175
     0
176
     0
177
     0
178
     0
  0
DIMSTYLE
  2
BYGG-036634$0$STANDARD
 70
     0
  3

  4

  5

  6

  7

 40
1.0
 41
0.18
 42
0.0625
 43
0.38
 44
0.18
 45
0.0
 46
0.0
 47
0.0
 48
0.0
140
0.18
141
0.09
142
0.0
143
25.399999999999999
144
1.0
145
0.0
146
1.0
147
0.09
 71
     0
 72
     0
 73
     1
 74
     1
 75
     0
 76
     0
 77
     0
 78
     0
170
     0
171
     2
172
     0
173
     0
174
     0
175
     0
176
     0
177
     0
178
     0
  0
DIMSTYLE
  2
BYGG-036634$0$MASKIN
 70
     0
  3

  4

  5

  6

  7

 40
0.0
 41
3.0
 42
1.5
 43
10.0
 44
1.5
 45
0.0
 46
0.0
 47
0.0
 48
0.0
140
3.0
141
-5.0
142
0.0
143
25.399999999999999
144
-1.0
145
0.0
146
1.0
147
1.0
 71
     0
 72
     0
 73
     0
 74
     0
 75
     0
 76
     0
 77
     1
 78
     8
170
     0
171
     0
172
     1
173
     0
174
     0
175
     0
176
   256
177
   256
178
     2
  0
DIMSTYLE
  2
BYGG-030601$0$STANDARD
 70
     0
  3

  4

  5

  6

  7

 40
1.0
 41
0.18
 42
0.0625
 43
0.38
 44
0.18
 45
0.0
 46
0.0
 47
0.0
 48
0.0
140
0.18
141
0.09
142
0.0
143
25.399999999999999
144
1.0
145
0.0
146
1.0
147
0.09
 71
     0
 72
     0
 73
     1
 74
     1
 75
     0
 76
     0
 77
     0
 78
     0
170
     0
171
     2
172
     0
173
     0
174
     0
175
     0
176
     0
177
     0
178
     0
  0
DIMSTYLE
  2
BYGG-030601$0$MASKIN
 70
     0
  3

  4

  5

  6

  7

 40
0.0
 41
3.0
 42
1.5
 43
10.0
 44
1.5
 45
0.0
 46
0.0
 47
0.0
 48
0.0
140
3.0
141
-5.0
142
0.0
143
25.399999999999999
144
-1.0
145
0.0
146
1.0
147
1.0
 71
     0
 72
     0
 73
     0
 74
     0
 75
     0
 76
     0
 77
     1
 78
     8
170
     0
171
     0
172
     1
173
     0
174
     0
175
     0
176
   256
177
   256
178
     2
  0
DIMSTYLE
  2
BYGG-014090$0$STANDARD
 70
     0
  3

  4

  5

  6

  7

 40
1.0
 41
0.18
 42
0.0625
 43
0.38
 44
0.18
 45
0.0
 46
0.0
 47
0.0
 48
0.0
140
0.18
141
0.09
142
0.0
143
25.399999999999999
144
1.0
145
0.0
146
1.0
147
0.09
 71
     0
 72
     0
 73
     1
 74
     1
 75
     0
 76
     0
 77
     0
 78
     0
170
     0
171
     2
172
     0
173
     0
174
     0
175
     0
176
     0
177
     0
178
     0
  0
DIMSTYLE
  2
BYGG-01409301$0$STANDARD
 70
     0
  3

  4

  5

  6

  7

 40
1.0
 41
0.18
 42
0.0625
 43
0.38
 44
0.18
 45
0.0
 46
0.0
 47
0.0
 48
0.0
140
0.18
141
0.09
142
0.0
143
25.399999999999999
144
1.0
145
0.0
146
1.0
147
0.09
 71
     0
 72
     0
 73
     1
 74
     1
 75
     0
 76
     0
 77
     0
 78
     0
170
     0
171
     2
172
     0
173
     0
174
     0
175
     0
176
     0
177
     0
178
     0
  0
DIMSTYLE
  2
BYGG-01409301$0$ANNOTATIVE
 70
     0
  3

  4

  5

  6

  7

 40
1.0
 41
0.18
 42
0.0625
 43
0.38
 44
0.18
 45
0.0
 46
0.0
 47
0.0
 48
0.0
140
0.18
141
0.09
142
0.0
143
25.399999999999999
144
1.0
145
0.0
146
1.0
147
0.09
 71
     0
 72
     0
 73
     1
 74
     1
 75
     0
 76
     0
 77
     0
 78
     0
170
     0
171
     2
172
     0
173
     0
174
     0
175
     0
176
     0
177
     0
178
     0
  0
ENDTAB
  0
ENDSEC
  0
SECTION
  2
BLOCKS
  0
BLOCK
  8
0
  2
$MODEL_SPACE
 70
     0
 10
0.0
 20
0.0
 30
0.0
  3
$MODEL_SPACE
  1

  0
ENDBLK
  5
37
  8
0
  0
BLOCK
 67
     1
  8
0
  2
$PAPER_SPACE
 70
     0
 10
0.0
 20
0.0
 30
0.0
  3
$PAPER_SPACE
  1

  0
ENDBLK
  5
35
 67
     1
  8
0
  0
BLOCK
  8
0
  2
BYGG-027036$0$RH
 70
     2
 10
0.0
 20
0.0
 30
0.0
  3
BYGG-027036$0$RH
  1

  0
ATTDEF
  5
1236
  8
BYGG-027036$0$KON
 10
11.0
 20
2.2999999999999989
 30
0.0
 40
0.4400000000000001
  1

  7
BYGG-027036$0$SIMPLEX
 72
     4
 11
11.0
 21
2.2999999999999989
 31
0.0
  3
Benämning
  2
BENÄMNING
 70
     0
  0
ATTDEF
  5
1238
  8
BYGG-027036$0$KON
 10
11.0
 20
1.5
 30
0.0
 40
0.4400000000000001
  1

  7
BYGG-027036$0$SIMPLEX
 72
     4
 11
11.0
 21
1.5
 31
0.0
  3
Gummi-hårdhet-färg
  2
GUMMI-HÅRDHET-FÄRG
 70
     0
  0
ATTDEF
  5
1239
  8
BYGG-027036$0$KON
 10
11.0
 20
0.7
 30
0.0
 40
0.4400000000000001
  1

  7
BYGG-027036$0$SIMPLEX
 72
     4
 11
11.0
 21
0.7
 31
0.0
  3
Kund
  2
KUND
 70
     0
  0
ATTDEF
  5
123A
  8
BYGG-027036$0$KON
 10
18.399999999999999
 20
0.8
 30
0.0
 40
0.4
  1

  7
BYGG-027036$0$SIMPLEX
 72
     4
 11
18.399999999999999
 21
0.8
 31
0.0
  3
Rit.Nr:
  2
RIT.NR:
 70
     0
  0
ATTDEF
  5
123B
  8
BYGG-027036$0$KON
 10
18.399999999999999
 20
3.2000000000000002
 30
0.0
 40
0.4
  1

  7
BYGG-027036$0$SIMPLEX
 72
     4
 11
18.399999999999999
 21
3.2000000000000002
 31
0.0
  3
Det.Nr:
  2
DET.NR:
 70
     0
  0
ATTDEF
  5
123C
  8
BYGG-027036$0$KON
 10
18.800000000000001
 20
2.0
 30
0.0
 40
0.4
  1

  7
BYGG-027036$0$SIMPLEX
 72
     4
 11
18.800000000000001
 21
2.0
 31
0.0
  3
Skala:
  2
SKALA:
 70
     1
  0
ATTDEF
  5
123D
  8
BYGG-027036$0$KON
 10
3.6000000000000001
 20
1.8999999999999999
 30
0.0
 40
0.3
  1

  7
BYGG-027036$0$SIMPLEX
 72
     4
 11
3.6000000000000001
 21
1.8999999999999999
 31
0.0
  3
Datum
  2
DATUM
 70
     0
  0
ATTDEF
  5
123E
  8
BYGG-027036$0$KON
 10
3.399999999999999
 20
0.9
 30
0.0
 40
0.4
  1

  7
BYGG-027036$0$SIMPLEX
 72
     4
 11
3.399999999999999
 21
0.9
 31
0.0
  3
Ritad av:
  2
RITAD:
 70
     1
  0
ATTDEF
  5
123F
  8
BYGG-027036$0$KON
 10
3.1999999999999988
 20
5.2999999999999989
 30
0.0
 40
0.4
  1

  7
BYGG-027036$0$SIMPLEX
  3
Säljare:
  2
SÄLJARE
 70
     1
  0
ENDBLK
  5
1240
  8
0
  0
BLOCK
  8
0
  2
*D111
 70
     1
 10
0.0
 20
0.0
 30
0.0
  3
*D111
  1

  0
LINE
  5
184A
  8
SAPA_MATT
 10
-16.00000000000006
 20
-78.792893218811628
 30
0.0
 11
-16.00000000000006
 21
-108.3138500465783
 31
0.0
  0
LINE
  5
184B
  8
SAPA_MATT
 10
16.000000000000171
 20
-78.54644660940528
 30
0.0
 11
16.00000000000016
 21
-108.3138500465783
 31
0.0
  0
LINE
  5
184C
  8
SAPA_MATT
 10
-13.00000000000006
 20
-106.8138500465783
 30
0.0
 11
13.00000000000016
 21
-106.8138500465783
 31
0.0
  0
SOLID
  5
184D
  8
SAPA_MATT
 10
-13.00000000000006
 20
-106.3138500465783
 30
0.0
 11
-13.00000000000006
 21
-107.3138500465783
 31
0.0
 12
-16.00000000000006
 22
-106.8138500465783
 32
0.0
 13
-16.00000000000006
 23
-106.8138500465783
 33
0.0
  0
SOLID
  5
184E
  8
SAPA_MATT
 10
13.00000000000016
 20
-106.3138500465783
 30
0.0
 11
13.00000000000016
 21
-107.3138500465783
 31
0.0
 12
16.00000000000016
 22
-106.8138500465783
 32
0.0
 13
16.00000000000016
 23
-106.8138500465783
 33
0.0
  0
INSERT
  5
184F
  8
0
  2
*U127
 10
0.0
 20
0.0
 30
0.0
  0
POINT
  5
1850
  8
DEFPOINTS
 62
     0
 10
-16.00000000000006
 20
-77.292893218811628
 30
0.0
  0
POINT
  5
1851
  8
DEFPOINTS
 62
     0
 10
16.000000000000171
 20
-77.04644660940528
 30
0.0
  0
POINT
  5
1852
  8
DEFPOINTS
 62
     0
 10
16.00000000000016
 20
-106.8138500465783
 30
0.0
  0
ENDBLK
  5
17E8
  8
0
  0
BLOCK
  8
0
  2
*D112
 70
     1
 10
0.0
 20
0.0
 30
0.0
  3
*D112
  1

  0
LINE
  5
1841
  8
SAPA_MATT
 10
-25.0
 20
65.499999999999488
 30
0.0
 11
-25.0
 21
85.499999999999488
 31
0.0
  0
LINE
  5
1842
  8
SAPA_MATT
 10
25.0
 20
65.499999999999488
 30
0.0
 11
25.0
 21
85.499999999999488
 31
0.0
  0
LINE
  5
1843
  8
SAPA_MATT
 10
-22.0
 20
83.999999999999474
 30
0.0
 11
22.0
 21
83.999999999999474
 31
0.0
  0
SOLID
  5
1844
  8
SAPA_MATT
 10
-22.0
 20
84.499999999999488
 30
0.0
 11
-22.0
 21
83.499999999999488
 31
0.0
 12
-25.0
 22
83.999999999999474
 32
0.0
 13
-25.0
 23
83.999999999999474
 33
0.0
  0
SOLID
  5
1845
  8
SAPA_MATT
 10
22.0
 20
84.499999999999488
 30
0.0
 11
22.0
 21
83.499999999999488
 31
0.0
 12
25.0
 22
83.999999999999474
 32
0.0
 13
25.0
 23
83.999999999999474
 33
0.0
  0
INSERT
  5
1846
  8
0
  2
*U126
 10
0.0
 20
0.0
 30
0.0
  0
POINT
  5
1847
  8
DEFPOINTS
 62
     0
 10
-25.0
 20
63.999999999999481
 30
0.0
  0
POINT
  5
1848
  8
DEFPOINTS
 62
     0
 10
25.0
 20
63.999999999999481
 30
0.0
  0
POINT
  5
1849
  8
DEFPOINTS
 62
     0
 10
25.0
 20
83.999999999999474
 30
0.0
  0
ENDBLK
  5
17F4
  8
0
  0
BLOCK
  8
0
  2
*D113
 70
     1
 10
0.0
 20
0.0
 30
0.0
  3
*D113
  1

  0
LINE
  5
27F2
  8
SAPA_MATT
 10
16.000000000000171
 20
-78.54644660940528
 30
0.0
 11
16.00000000000016
 21
-108.3138500465783
 31
0.0
  0
LINE
  5
27F3
  8
SAPA_MATT
 10
76.000000000001194
 20
-65.999946820781531
 30
0.0
 11
76.000000000001194
 21
-108.3138500465783
 31
0.0
  0
LINE
  5
27F4
  8
SAPA_MATT
 10
19.000000000000171
 20
-106.8138500465783
 30
0.0
 11
73.000000000001194
 21
-106.8138500465783
 31
0.0
  0
SOLID
  5
27F5
  8
SAPA_MATT
 10
19.000000000000171
 20
-106.3138500465783
 30
0.0
 11
19.000000000000171
 21
-107.3138500465783
 31
0.0
 12
16.00000000000016
 22
-106.8138500465783
 32
0.0
 13
16.00000000000016
 23
-106.8138500465783
 33
0.0
  0
SOLID
  5
27F6
  8
SAPA_MATT
 10
73.000000000001194
 20
-106.3138500465783
 30
0.0
 11
73.000000000001194
 21
-107.3138500465783
 31
0.0
 12
76.000000000001194
 22
-106.8138500465783
 32
0.0
 13
76.000000000001194
 23
-106.8138500465783
 33
0.0
  0
TEXT
  8
SAPA_MATT
  40
3
  5
2803
  62
2
  72
0
  71
0
 10
40.0000
 20
-109.624
 30
0.000000
  1
60
  7
ISO
  0
POINT
  5
27F8
  8
DEFPOINTS
 62
     0
 10
16.000000000000171
 20
-77.04644660940528
 30
0.0
  0
POINT
  5
27F9
  8
DEFPOINTS
 62
     0
 10
76.000000000001194
 20
-64.499946820781531
 30
0.0
  0
POINT
  5
27FA
  8
DEFPOINTS
 62
     0
 10
76.000000000001194
 20
-106.8138500465783
 30
0.0
  0
ENDBLK
  5
1800
  8
0
  0
BLOCK
  8
0
  2
*D114
 70
     1
 10
0.0
 20
0.0
 30
0.0
  3
*D114
  1

  0
LINE
  5
27E7
  8
SAPA_MATT
 10
76.000000000001194
 20
-65.999946820781531
 30
0.0
 11
76.000000000001194
 21
-108.3138500465783
 31
0.0
  0
LINE
  5
27E8
  8
SAPA_MATT
 10
81.000000000000995
 20
-70.849948021764106
 30
0.0
 11
81.000000000000995
 21
-108.3138500465783
 31
0.0
  0
LINE
  5
27E9
  8
SAPA_MATT
 10
73.000000000001194
 20
-106.8138500465783
 30
0.0
 11
70.000000000001194
 21
-106.8138500465783
 31
0.0
  0
LINE
  5
27EA
  8
SAPA_MATT
 10
84.000000000001009
 20
-106.8138500465783
 30
0.0
 11
87.000000000000995
 21
-106.8138500465783
 31
0.0
  0
LINE
  5
27EB
  8
SAPA_MATT
 10
76.000000000001194
 20
-106.8138500465783
 30
0.0
 11
81.000000000000995
 21
-106.8138500465783
 31
0.0
  0
SOLID
  5
27EC
  8
SAPA_MATT
 10
73.000000000001194
 20
-106.3138500465783
 30
0.0
 11
73.000000000001194
 21
-107.3138500465783
 31
0.0
 12
76.000000000001194
 22
-106.8138500465783
 32
0.0
 13
76.000000000001194
 23
-106.8138500465783
 33
0.0
  0
SOLID
  5
27ED
  8
SAPA_MATT
 10
84.000000000001009
 20
-106.3138500465783
 30
0.0
 11
84.000000000001009
 21
-107.3138500465783
 31
0.0
 12
81.000000000000995
 22
-106.8138500465783
 32
0.0
 13
81.000000000000995
 23
-106.8138500465783
 33
0.0
  0
TEXT
  8
SAPA_MATT
  40
3
  5
2804
  62
2
  72
0
  71
0
 10
72.5000
 20
-109.624
 30
0.000000
  1
5
  7
ISO
  0
POINT
  5
27EF
  8
DEFPOINTS
 62
     0
 10
76.000000000001194
 20
-64.499946820781531
 30
0.0
  0
POINT
  5
27F0
  8
DEFPOINTS
 62
     0
 10
81.000000000000995
 20
-69.349948021764106
 30
0.0
  0
POINT
  5
27F1
  8
DEFPOINTS
 62
     0
 10
81.000000000000995
 20
-106.8138500465783
 30
0.0
  0
ENDBLK
  5
180C
  8
0
  0
BLOCK
  8
0
  2
*D115
 70
     1
 10
0.0
 20
0.0
 30
0.0
  3
*D115
  1

  0
LINE
  5
27DE
  8
SAPA_MATT
 10
81.000000000000995
 20
-70.849948021764106
 30
0.0
 11
81.000000000000995
 21
-108.3138500465783
 31
0.0
  0
LINE
  5
27DF
  8
SAPA_MATT
 10
169.99999999978931
 20
-73.199947648272314
 30
0.0
 11
169.99999999978931
 21
-108.3138500465783
 31
0.0
  0
LINE
  5
27E0
  8
SAPA_MATT
 10
84.000000000001009
 20
-106.8138500465783
 30
0.0
 11
166.99999999978931
 21
-106.8138500465783
 31
0.0
  0
SOLID
  5
27E1
  8
SAPA_MATT
 10
84.000000000001009
 20
-106.3138500465783
 30
0.0
 11
84.000000000001009
 21
-107.3138500465783
 31
0.0
 12
81.000000000000995
 22
-106.8138500465783
 32
0.0
 13
81.000000000000995
 23
-106.8138500465783
 33
0.0
  0
SOLID
  5
27E2
  8
SAPA_MATT
 10
166.99999999978931
 20
-106.3138500465783
 30
0.0
 11
166.99999999978931
 21
-107.3138500465783
 31
0.0
 12
169.99999999978931
 22
-106.8138500465783
 32
0.0
 13
169.99999999978931
 23
-106.8138500465783
 33
0.0
  0
TEXT
  8
SAPA_MATT
  40
3
  5
2805
  62
2
  72
0
  71
0
 10
119.500
 20
-109.624
 30
0.000000
  1
89
  7
ISO
  0
POINT
  5
27E4
  8
DEFPOINTS
 62
     0
 10
81.000000000000995
 20
-69.349948021764106
 30
0.0
  0
POINT
  5
27E5
  8
DEFPOINTS
 62
     0
 10
169.99999999978931
 20
-71.699947648272314
 30
0.0
  0
POINT
  5
27E6
  8
DEFPOINTS
 62
     0
 10
169.99999999978931
 20
-106.8138500465783
 30
0.0
  0
ENDBLK
  5
181A
  8
0
  0
BLOCK
  8
0
  2
*U116
 70
     1
 10
0.0
 20
0.0
 30
0.0
  3
*U116
  1

  0
TEXT
  5
18BC
  8
SAPA_ARTIKELNR
 10
-5.7895021366381112
 20
-91.758745396285804
 30
0.0
 40
3.5
  1
42651
  7
ISO
  0
ENDBLK
  5
18BE
  8
0
  0
BLOCK
  8
0
  2
*U117
 70
     1
 10
0.0
 20
0.0
 30
0.0
  3
*U117
  1

  0
TEXT
  5
18C0
  8
SAPA_ARTIKELNR
 10
-5.7895021366381112
 20
67.057004625961554
 30
0.0
 40
3.5
  1
68281
  7
ISO
  0
ENDBLK
  5
18C2
  8
0
  0
BLOCK
  8
0
  2
*U118
 70
     1
 10
0.0
 20
0.0
 30
0.0
  3
*U118
  1

  0
TEXT
  5
1941
  8
SAPA_ARTIKELNR
 10
55.242067886933981
 20
19.947120488328832
 30
0.0
 40
3.5
  1
86423
  7
ISO
  0
ENDBLK
  5
1943
  8
0
  0
BLOCK
  8
0
  2
*U119
 70
     1
 10
0.0
 20
0.0
 30
0.0
  3
*U119
  1

  0
TEXT
  5
1945
  8
SAPA_ARTIKELNR
 10
117.241379097847
 20
19.947120488328832
 30
0.0
 40
3.5
  1
86424
  7
ISO
  0
ENDBLK
  5
1947
  8
0
  0
BLOCK
  8
0
  2
*U120
 70
     1
 10
0.0
 20
0.0
 30
0.0
  3
*U120
  1

  0
SOLID
  5
1BBD
  8
SAPA_PROFIL
  6
CONTINUOUS
 62
     2
 10
86.831507495362601
 20
-67.067340025554557
 30
0.1
 11
86.654730800065977
 21
-67.140563330257919
 31
0.1
 12
87.008284190659239
 22
-67.140563330257919
 32
0.1
 13
87.008284190659239
 23
-67.140563330257919
 33
0.1
210
0.0
220
0.0
230
1.0
  0
SOLID
  5
1BBE
  8
SAPA_PROFIL
  6
CONTINUOUS
 62
     2
 10
86.654730800065977
 20
-67.140563330257919
 30
0.1
 11
86.581507495362587
 21
-67.317340025554543
 31
0.1
 12
87.081507495362601
 22
-67.317340025554543
 32
0.1
 13
87.081507495362601
 23
-67.317340025554543
 33
0.1
210
0.0
220
0.0
230
1.0
  0
SOLID
  5
1BBF
  8
SAPA_PROFIL
  6
CONTINUOUS
 62
     2
 10
-86.654730800065977
 20
-67.140563330257919
 30
-0.1
 11
-87.008284190659239
 21
-67.140563330257919
 31
-0.1
 12
-87.081507495362601
 22
-67.317340025554543
 32
-0.1
 13
-87.081507495362601
 23
-67.317340025554543
 33
-0.1
210
0.0
220
0.0
230
-1.0
  0
SOLID
  5
1BC0
  8
SAPA_PROFIL
  6
CONTINUOUS
 62
     2
 10
-86.654730800065977
 20
-67.494116720851196
 30
-0.1
 11
-87.008284190659239
 21
-67.494116720851196
 31
-0.1
 12
-86.831507495362601
 22
-67.567340025554557
 32
-0.1
 13
-86.831507495362601
 23
-67.567340025554557
 33
-0.1
210
0.0
220
0.0
230
-1.0
  0
SOLID
  5
1BC1
  8
SAPA_PROFIL
  6
CONTINUOUS
 62
     2
 10
86.581507495362587
 20
-67.317340025554543
 30
0.1
 11
86.654730800065977
 21
-67.494116720851196
 31
0.1
 12
87.008284190659239
 22
-67.494116720851196
 32
0.1
 13
87.008284190659239
 23
-67.494116720851196
 33
0.1
210
0.0
220
0.0
230
1.0
  0
SOLID
  5
1BC2
  8
SAPA_PROFIL
  6
CONTINUOUS
 62
     2
 10
-86.581507495362587
 20
-67.317340025554543
 30
-0.1
 11
-87.081507495362601
 21
-67.317340025554543
 31
-0.1
 12
-87.008284190659239
 22
-67.494116720851196
 32
-0.1
 13
-87.008284190659239
 23
-67.494116720851196
 33
-0.1
210
0.0
220
0.0
230
-1.0
  0
LINE
  5
1BC3
  8
SAPA_PROFIL
  6
CONTINUOUS
 62
     2
 10
86.831507495362601
 20
-67.067340025554557
 30
0.1
 11
86.654730800065977
 21
-67.140563330257919
 31
0.1
  0
LINE
  5
1BC4
  8
SAPA_PROFIL
  6
CONTINUOUS
 62
     2
 10
87.008284190659239
 20
-67.140563330257919
 30
0.1
 11
86.831507495362601
 21
-67.067340025554557
 31
0.1
  0
LINE
  5
1BC5
  8
SAPA_PROFIL
  6
CONTINUOUS
 62
     2
 10
86.654730800065977
 20
-67.140563330257919
 30
0.1
 11
86.581507495362587
 21
-67.317340025554543
 31
0.1
  0
LINE
  5
1BC6
  8
SAPA_PROFIL
  6
CONTINUOUS
 62
     2
 10
87.008284190659239
 20
-67.140563330257919
 30
0.1
 11
87.081507495362601
 21
-67.317340025554543
 31
0.1
  0
LINE
  5
1BC7
  8
SAPA_PROFIL
  6
CONTINUOUS
 62
     2
 10
87.008284190659239
 20
-67.494116720851196
 30
0.1
 11
86.831507495362601
 21
-67.567340025554557
 31
0.1
  0
LINE
  5
1BC8
  8
SAPA_PROFIL
  6
CONTINUOUS
 62
     2
 10
86.831507495362601
 20
-67.567340025554557
 30
0.1
 11
86.654730800065977
 21
-67.494116720851196
 31
0.1
  0
LINE
  5
1BC9
  8
SAPA_PROFIL
  6
CONTINUOUS
 62
     2
 10
86.581507495362587
 20
-67.317340025554543
 30
0.1
 11
86.654730800065977
 21
-67.494116720851196
 31
0.1
  0
LINE
  5
1BCA
  8
SAPA_PROFIL
  6
CONTINUOUS
 62
     2
 10
87.081507495362601
 20
-67.317340025554543
 30
0.1
 11
87.008284190659239
 21
-67.494116720851196
 31
0.1
  0
ENDBLK
  5
1BCC
  8
0
  0
BLOCK
  8
0
  2
*U121
 70
     1
 10
0.0
 20
0.0
 30
0.0
  3
*U121
  1

  0
SOLID
  5
21A5
  8
SAPA_PROFIL
  6
CONTINUOUS
 62
     2
 10
86.831507495362601
 20
-67.067340025554557
 30
0.1
 11
86.654730800065977
 21
-67.140563330257919
 31
0.1
 12
87.008284190659239
 22
-67.140563330257919
 32
0.1
 13
87.008284190659239
 23
-67.140563330257919
 33
0.1
210
0.0
220
0.0
230
1.0
  0
SOLID
  5
21A6
  8
SAPA_PROFIL
  6
CONTINUOUS
 62
     2
 10
86.654730800065977
 20
-67.140563330257919
 30
0.1
 11
86.581507495362587
 21
-67.317340025554543
 31
0.1
 12
87.081507495362601
 22
-67.317340025554543
 32
0.1
 13
87.081507495362601
 23
-67.317340025554543
 33
0.1
210
0.0
220
0.0
230
1.0
  0
SOLID
  5
21A7
  8
SAPA_PROFIL
  6
CONTINUOUS
 62
     2
 10
-86.654730800065977
 20
-67.140563330257919
 30
-0.1
 11
-87.008284190659239
 21
-67.140563330257919
 31
-0.1
 12
-87.081507495362601
 22
-67.317340025554543
 32
-0.1
 13
-87.081507495362601
 23
-67.317340025554543
 33
-0.1
210
0.0
220
0.0
230
-1.0
  0
SOLID
  5
21A8
  8
SAPA_PROFIL
  6
CONTINUOUS
 62
     2
 10
-86.654730800065977
 20
-67.494116720851196
 30
-0.1
 11
-87.008284190659239
 21
-67.494116720851196
 31
-0.1
 12
-86.831507495362601
 22
-67.567340025554557
 32
-0.1
 13
-86.831507495362601
 23
-67.567340025554557
 33
-0.1
210
0.0
220
0.0
230
-1.0
  0
SOLID
  5
21A9
  8
SAPA_PROFIL
  6
CONTINUOUS
 62
     2
 10
86.581507495362587
 20
-67.317340025554543
 30
0.1
 11
86.654730800065977
 21
-67.494116720851196
 31
0.1
 12
87.008284190659239
 22
-67.494116720851196
 32
0.1
 13
87.008284190659239
 23
-67.494116720851196
 33
0.1
210
0.0
220
0.0
230
1.0
  0
SOLID
  5
21AA
  8
SAPA_PROFIL
  6
CONTINUOUS
 62
     2
 10
-86.581507495362587
 20
-67.317340025554543
 30
-0.1
 11
-87.081507495362601
 21
-67.317340025554543
 31
-0.1
 12
-87.008284190659239
 22
-67.494116720851196
 32
-0.1
 13
-87.008284190659239
 23
-67.494116720851196
 33
-0.1
210
0.0
220
0.0
230
-1.0
  0
LINE
  5
21AB
  8
SAPA_PROFIL
  6
CONTINUOUS
 62
     2
 10
86.831507495362601
 20
-67.067340025554557
 30
0.1
 11
86.654730800065977
 21
-67.140563330257919
 31
0.1
  0
LINE
  5
21AC
  8
SAPA_PROFIL
  6
CONTINUOUS
 62
     2
 10
87.008284190659239
 20
-67.140563330257919
 30
0.1
 11
86.831507495362601
 21
-67.067340025554557
 31
0.1
  0
LINE
  5
21AD
  8
SAPA_PROFIL
  6
CONTINUOUS
 62
     2
 10
86.654730800065977
 20
-67.140563330257919
 30
0.1
 11
86.581507495362587
 21
-67.317340025554543
 31
0.1
  0
LINE
  5
21AE
  8
SAPA_PROFIL
  6
CONTINUOUS
 62
     2
 10
87.008284190659239
 20
-67.140563330257919
 30
0.1
 11
87.081507495362601
 21
-67.317340025554543
 31
0.1
  0
LINE
  5
21AF
  8
SAPA_PROFIL
  6
CONTINUOUS
 62
     2
 10
87.008284190659239
 20
-67.494116720851196
 30
0.1
 11
86.831507495362601
 21
-67.567340025554557
 31
0.1
  0
LINE
  5
21B0
  8
SAPA_PROFIL
  6
CONTINUOUS
 62
     2
 10
86.831507495362601
 20
-67.567340025554557
 30
0.1
 11
86.654730800065977
 21
-67.494116720851196
 31
0.1
  0
LINE
  5
21B1
  8
SAPA_PROFIL
  6
CONTINUOUS
 62
     2
 10
86.581507495362587
 20
-67.317340025554543
 30
0.1
 11
86.654730800065977
 21
-67.494116720851196
 31
0.1
  0
LINE
  5
21B2
  8
SAPA_PROFIL
  6
CONTINUOUS
 62
     2
 10
87.081507495362601
 20
-67.317340025554543
 30
0.1
 11
87.008284190659239
 21
-67.494116720851196
 31
0.1
  0
ENDBLK
  5
21B4
  8
0
  0
BLOCK
  8
0
  2
*X122
 70
     1
 10
0.0
 20
0.0
 30
0.0
  3
*X122
  1

  0
LINE
  5
256F
  8
0
 62
     0
 10
-26.680120174814029
 20
52.931408748809979
 30
0.0
 11
-26.283245174814031
 21
53.618816413063882
 31
0.0
  0
LINE
  5
2570
  8
0
 62
     0
 10
-27.870744890317859
 20
53.618816248810177
 30
0.0
 11
-27.473869890317861
 21
54.30622391306408
 31
0.0
  0
LINE
  5
2571
  8
0
 62
     0
 10
-29.061369890317859
 20
51.556593256048487
 30
0.0
 11
-28.664494890317862
 21
52.244000920302391
 31
0.0
  0
LINE
  5
2572
  8
0
 62
     0
 10
-29.061369605821731
 20
54.306223748810083
 30
0.0
 11
-28.66449460582173
 21
54.99363141306398
 31
0.0
  0
LINE
  5
2573
  8
0
 62
     0
 10
-30.251994605821729
 20
52.244000756048393
 30
0.0
 11
-29.855119605821731
 21
52.93140842030229
 31
0.0
  0
LINE
  5
2574
  8
0
 62
     0
 10
-30.251994321325611
 20
54.993631248810082
 30
0.0
 11
-29.855119321325599
 21
55.681038913063979
 31
0.0
  0
LINE
  5
2575
  8
0
 62
     0
 10
-31.442619321325608
 20
52.931408256048393
 30
0.0
 11
-31.0457443213256
 21
53.618815920302289
 31
0.0
  0
LINE
  5
2576
  8
0
 62
     0
 10
-32.539714870189421
 20
51.031183024658617
 30
0.0
 11
-32.236369321325597
 21
51.556592927540599
 31
0.0
  0
LINE
  5
2577
  8
0
 62
     0
 10
-31.442619036829662
 20
55.681038748810039
 30
0.0
 11
-31.195909091880591
 21
56.108352908194341
 31
0.0
  0
LINE
  5
2578
  8
0
 62
     0
 10
-32.633244036829659
 20
53.618815756048363
 30
0.0
 11
-32.236369036829657
 21
54.306223420302253
 31
0.0
  0
LINE
  5
2579
  8
0
 62
     0
 10
-33.82386903682967
 20
51.556592763286659
 30
0.0
 11
-33.426994036829662
 21
52.244000427540563
 31
0.0
  0
LINE
  5
257A
  8
0
 62
     0
 10
-33.823868752333652
 20
54.30622325604822
 30
0.0
 11
-33.426993752333637
 21
54.993630920302117
 31
0.0
  0
LINE
  5
257B
  8
0
 62
     0
 10
-35.014493752333649
 20
52.244000263286537
 30
0.0
 11
-34.617618752333648
 21
52.931407927540427
 31
0.0
  0
LINE
  5
257C
  8
0
 62
     0
 10
-35.014493467837511
 20
54.993630756048383
 30
0.0
 11
-34.617618467837509
 21
55.681038420302279
 31
0.0
  0
LINE
  5
257D
  8
0
 62
     0
 10
-36.205118467837522
 20
52.931407763286693
 30
0.0
 11
-35.808243467837521
 21
53.618815427540582
 31
0.0
  0
LINE
  5
257E
  8
0
 62
     0
 10
-37.004086333487287
 20
51.547554826366422
 30
0.0
 11
-36.998868467837518
 21
51.556592434778899
 31
0.0
  0
LINE
  5
257F
  8
0
 62
     0
 10
-36.205118183341391
 20
55.681038256048431
 30
0.0
 11
-36.120835099616087
 21
55.827020839279207
 31
0.0
  0
LINE
  5
2580
  8
0
 62
     0
 10
-37.395743183341388
 20
53.618815263286741
 30
0.0
 11
-36.998868183341393
 21
54.306222927540638
 31
0.0
  0
LINE
  5
2581
  8
0
 62
     0
 10
-38.336112068756727
 20
51.990048575890448
 30
0.0
 11
-38.189493183341391
 21
52.243999934778948
 31
0.0
  0
LINE
  5
2582
  8
0
 62
     0
 10
-38.586367898845261
 20
54.306222763286662
 30
0.0
 11
-38.189492898845259
 21
54.993630427540552
 31
0.0
  0
LINE
  5
2583
  8
0
 62
     0
 10
-39.513071814455657
 20
52.701124497876428
 30
0.0
 11
-39.38011789884527
 21
52.931407434778862
 31
0.0
  0
LINE
  5
2584
  8
0
 62
     0
 10
-26.283426398827419
 20
54.993434144132209
 30
0.0
 11
-26.301082524621702
 21
55.024015451072742
 31
0.0
  0
LINE
  5
2585
  8
0
 62
     0
 10
-25.170980137551648
 20
53.066620698912537
 30
0.0
 11
-25.48967639882742
 21
53.618618815624409
 31
0.0
  0
LINE
  5
2586
  8
0
 62
     0
 10
-27.47405111433131
 20
54.306026644132182
 30
0.0
 11
-27.870926114331311
 21
54.993434308386071
 31
0.0
  0
LINE
  5
2587
  8
0
 62
     0
 10
-26.283426114331309
 20
52.243803651370477
 30
0.0
 11
-26.680301114331311
 21
52.931211315624381
 31
0.0
  0
LINE
  5
2588
  8
0
 62
     0
 10
-29.855300829835159
 20
55.680842136893872
 30
0.0
 11
-30.042976223727258
 21
56.005905454445497
 31
0.0
  0
LINE
  5
2589
  8
0
 62
     0
 10
-28.664675829835161
 20
53.618619144132182
 30
0.0
 11
-29.061550829835159
 21
54.306026808386079
 31
0.0
  0
LINE
  5
258A
  8
0
 62
     0
 10
-27.540982037401449
 20
51.672324403487231
 30
0.0
 11
-27.870925829835159
 21
52.243803815624389
 31
0.0
  0
LINE
  5
258B
  8
0
 62
     0
 10
-31.045925545339031
 20
54.99343463689393
 30
0.0
 11
-31.442800545339029
 21
55.680842301147827
 31
0.0
  0
LINE
  5
258C
  8
0
 62
     0
 10
-29.855300545339041
 20
52.93121164413224
 30
0.0
 11
-30.252175545339039
 21
53.618619308386137
 31
0.0
  0
LINE
  5
258D
  8
0
 62
     0
 10
-28.936122144266481
 20
51.339147952254642
 30
0.0
 11
-29.061550545339038
 21
51.55639631562444
 31
0.0
  0
LINE
  5
258E
  8
0
 62
     0
 10
-32.236550260842911
 20
54.306027136893867
 30
0.0
 11
-32.633425260842898
 21
54.993434801147757
 31
0.0
  0
LINE
  5
258F
  8
0
 62
     0
 10
-31.04592526084291
 20
52.243804144132177
 30
0.0
 11
-31.442800260842901
 21
52.931211808386067
 31
0.0
  0
LINE
  5
2590
  8
0
 62
     0
 10
-34.617799976346951
 20
55.680842629655501
 30
0.0
 11
-34.814390948464869
 21
56.021348181673112
 31
0.0
  0
LINE
  5
2591
  8
0
 62
     0
 10
-33.427174976346947
 20
53.618619636893811
 30
0.0
 11
-33.824049976346949
 21
54.306027301147701
 31
0.0
  0
LINE
  5
2592
  8
0
 62
     0
 10
-32.23654997634695
 20
51.556396644132121
 30
0.0
 11
-32.633424976346951
 21
52.243804308386018
 31
0.0
  0
LINE
  5
2593
  8
0
 62
     0
 10
-35.80842469185086
 20
54.993435129655509
 30
0.0
 11
-36.205299691850861
 21
55.680842793909413
 31
0.0
  0
LINE
  5
2594
  8
0
 62
     0
 10
-34.617799691850863
 20
52.931212136893812
 30
0.0
 11
-35.014674691850871
 21
53.618619801147709
 31
0.0
  0
LINE
  5
2595
  8
0
 62
     0
 10
-33.535106842730698
 20
51.055933113226189
 30
0.0
 11
-33.824049691850867
 21
51.556396808386033
 31
0.0
  0
LINE
  5
2596
  8
0
 62
     0
 10
-36.99904940735474
 20
54.306027629655581
 30
0.0
 11
-37.395924407354727
 21
54.993435293909478
 31
0.0
  0
LINE
  5
2597
  8
0
 62
     0
 10
-35.808424407354728
 20
52.243804636893891
 30
0.0
 11
-36.205299407354737
 21
52.931212301147781
 31
0.0
  0
LINE
  5
2598
  8
0
 62
     0
 10
-38.189674122858612
 20
53.618620129655511
 30
0.0
 11
-38.586549122858607
 21
54.306027793909408
 31
0.0
  0
LINE
  5
2599
  8
0
 62
     0
 10
-36.999049122858608
 20
51.556397136893821
 30
0.0
 11
-37.395924122858609
 21
52.243804801147711
 31
0.0
  0
LINE
  5
259A
  8
0
 62
     0
 10
-39.380298838362492
 20
52.931212629655583
 30
0.0
 11
-39.777173838362501
 21
53.61862029390948
 31
0.0
  0
LINE
  5
259B
  8
0
 62
     0
 10
-26.283164662418489
 20
52.2437459982525
 30
0.0
 11
-26.131791151006261
 21
52.2437459982525
 31
0.0
  0
LINE
  5
259C
  8
0
 62
     0
 10
-28.664414662418491
 20
52.2437459982525
 30
0.0
 11
-27.870664662418491
 21
52.2437459982525
 31
0.0
  0
LINE
  5
259D
  8
0
 62
     0
 10
-31.045664662418488
 20
52.2437459982525
 30
0.0
 11
-30.251914662418489
 21
52.2437459982525
 31
0.0
  0
LINE
  5
259E
  8
0
 62
     0
 10
-33.42691466241849
 20
52.2437459982525
 30
0.0
 11
-32.633164662418487
 21
52.2437459982525
 31
0.0
  0
LINE
  5
259F
  8
0
 62
     0
 10
-35.808164662418491
 20
52.2437459982525
 30
0.0
 11
-35.014414662418488
 21
52.2437459982525
 31
0.0
  0
LINE
  5
25A0
  8
0
 62
     0
 10
-38.189414662418493
 20
52.2437459982525
 30
0.0
 11
-37.39566466241849
 21
52.2437459982525
 31
0.0
  0
LINE
  5
25A1
  8
0
 62
     0
 10
-26.283164662418489
 20
53.618560998252399
 30
0.0
 11
-25.489414662418501
 21
53.618560998252399
 31
0.0
  0
LINE
  5
25A2
  8
0
 62
     0
 10
-28.664414662418491
 20
53.618560998252399
 30
0.0
 11
-27.870664662418491
 21
53.618560998252399
 31
0.0
  0
LINE
  5
25A3
  8
0
 62
     0
 10
-31.045664662418488
 20
53.618560998252399
 30
0.0
 11
-30.251914662418489
 21
53.618560998252399
 31
0.0
  0
LINE
  5
25A4
  8
0
 62
     0
 10
-33.42691466241849
 20
53.618560998252399
 30
0.0
 11
-32.633164662418487
 21
53.618560998252399
 31
0.0
  0
LINE
  5
25A5
  8
0
 62
     0
 10
-35.808164662418491
 20
53.618560998252399
 30
0.0
 11
-35.014414662418488
 21
53.618560998252399
 31
0.0
  0
LINE
  5
25A6
  8
0
 62
     0
 10
-38.189414662418493
 20
53.618560998252399
 30
0.0
 11
-37.39566466241849
 21
53.618560998252399
 31
0.0
  0
LINE
  5
25A7
  8
0
 62
     0
 10
-39.97797140442276
 20
53.618560998252399
 30
0.0
 11
-39.776914662418491
 21
53.618560998252399
 31
0.0
  0
LINE
  5
25A8
  8
0
 62
     0
 10
-26.283164662418489
 20
54.993375998252418
 30
0.0
 11
-26.241297406376361
 21
54.993375998252418
 31
0.0
  0
LINE
  5
25A9
  8
0
 62
     0
 10
-28.664414662418491
 20
54.993375998252418
 30
0.0
 11
-27.870664662418491
 21
54.993375998252418
 31
0.0
  0
LINE
  5
25AA
  8
0
 62
     0
 10
-31.045664662418488
 20
54.993375998252418
 30
0.0
 11
-30.251914662418489
 21
54.993375998252418
 31
0.0
  0
LINE
  5
25AB
  8
0
 62
     0
 10
-33.42691466241849
 20
54.993375998252418
 30
0.0
 11
-32.633164662418487
 21
54.993375998252418
 31
0.0
  0
LINE
  5
25AC
  8
0
 62
     0
 10
-35.808164662418491
 20
54.993375998252418
 30
0.0
 11
-35.014414662418488
 21
54.993375998252418
 31
0.0
  0
LINE
  5
25AD
  8
0
 62
     0
 10
-38.189414662418493
 20
54.993375998252418
 30
0.0
 11
-37.39566466241849
 21
54.993375998252418
 31
0.0
  0
ENDBLK
  5
25AF
  8
0
  0
BLOCK
  8
0
  2
*X123
 70
     1
 10
0.0
 20
0.0
 30
0.0
  3
*X123
  1

  0
LINE
  5
25B1
  8
0
 62
     0
 10
-25.00000000000011
 20
62.901779139876894
 30
0.0
 11
-25.457826946597919
 21
63.359606086474713
 31
0.0
  0
LINE
  5
25B2
  8
0
 62
     0
 10
-25.000000000000071
 20
61.779247124743222
 30
0.0
 11
-26.282223855790619
 21
63.061470980533777
 31
0.0
  0
LINE
  5
25B3
  8
0
 62
     0
 10
-25.00000000000011
 20
60.656715109609642
 30
0.0
 11
-27.138454113904949
 21
62.795169223514478
 31
0.0
  0
LINE
  5
25B4
  8
0
 62
     0
 10
-25.000000000000071
 20
59.534183094475956
 30
0.0
 11
-28.028919794707221
 21
62.563102889183106
 31
0.0
  0
LINE
  5
25B5
  8
0
 62
     0
 10
-25.00000000000011
 20
58.41165107934237
 30
0.0
 11
-28.956596979826969
 21
62.36824805916924
 31
0.0
  0
LINE
  5
25B6
  8
0
 62
     0
 10
-25.000000000000071
 20
57.289119064208712
 30
0.0
 11
-29.925219879991079
 21
62.214338944199717
 31
0.0
  0
LINE
  5
25B7
  8
0
 62
     0
 10
-25.00000000000022
 20
56.166587049075119
 30
0.0
 11
-30.939553465046849
 21
62.106140514121748
 31
0.0
  0
LINE
  5
25B8
  8
0
 62
     0
 10
-25.000000000000099
 20
55.044055033941369
 30
0.0
 11
-32.005812564975841
 21
62.049867598917103
 31
0.0
  0
LINE
  5
25B9
  8
0
 62
     0
 10
-26.832341637988758
 20
55.753864656796402
 30
0.0
 11
-33.132336746361652
 21
62.053859765169292
 31
0.0
  0
LINE
  5
25BA
  8
0
 62
     0
 10
-28.410382564309842
 20
56.20937356798386
 30
0.0
 11
-34.330742658448372
 21
62.129733662122383
 31
0.0
  0
LINE
  5
25BB
  8
0
 62
     0
 10
-29.807270344789671
 20
56.483729333330047
 30
0.0
 11
-35.618047341061441
 21
62.29450632960183
 31
0.0
  0
LINE
  5
25BC
  8
0
 62
     0
 10
-31.079502049313518
 20
56.633429022720271
 30
0.0
 11
-37.021005831640451
 21
62.574932805047212
 31
0.0
  0
LINE
  5
25BD
  8
0
 62
     0
 10
-32.25775143460708
 20
56.689146392880097
 30
0.0
 11
-38.586395358558953
 21
63.017790316831963
 31
0.0
  0
LINE
  5
25BE
  8
0
 62
     0
 10
-33.360894560109827
 20
56.669757503249222
 30
0.0
 11
-40.000000000000057
 21
63.308862943139452
 31
0.0
  0
LINE
  5
25BF
  8
0
 62
     0
 10
-34.401520846724416
 20
56.587851774730169
 30
0.0
 11
-40.000000000000021
 21
62.186330928005781
 31
0.0
  0
LINE
  5
25C0
  8
0
 62
     0
 10
-35.388509020815633
 20
56.452307933687742
 30
0.0
 11
-40.000000000000057
 21
61.06379891287218
 31
0.0
  0
LINE
  5
25C1
  8
0
 62
     0
 10
-36.32837987714683
 20
56.269646774885331
 30
0.0
 11
-40.000000000000021
 21
59.941266897738522
 31
0.0
  0
LINE
  5
25C2
  8
0
 62
     0
 10
-37.22606908761982
 20
56.044803970224692
 30
0.0
 11
-40.000000000000071
 21
58.818734882604929
 31
0.0
  0
LINE
  5
25C3
  8
0
 62
     0
 10
-38.085397765606182
 20
55.781600633077417
 30
0.0
 11
-40.000000000000021
 21
57.696202867471271
 31
0.0
  0
LINE
  5
25C4
  8
0
 62
     0
 10
-38.909373618521833
 20
55.483044470859447
 30
0.0
 11
-40.000000000000071
 21
56.573670852337671
 31
0.0
  0
LINE
  5
25C5
  8
0
 62
     0
 10
-39.700391451757874
 20
55.151530288961851
 30
0.0
 11
-40.000000000000021
 21
55.451138837203999
 31
0.0
  0
LINE
  5
25C6
  8
0
 62
     0
 10
-25.472836517040381
 20
55.228026069141492
 30
0.0
 11
-25.0
 21
55.700862586181977
 31
0.0
  0
LINE
  5
25C7
  8
0
 62
     0
 10
-26.271005325455238
 20
55.552389275860378
 30
0.0
 11
-25.0
 21
56.823394601315613
 31
0.0
  0
LINE
  5
25C8
  8
0
 62
     0
 10
-27.102619720611759
 20
55.8433068958376
 30
0.0
 11
-25.000000000000231
 21
57.945926616449121
 31
0.0
  0
LINE
  5
25C9
  8
0
 62
     0
 10
-27.970197155651931
 20
56.098261475931167
 30
0.0
 11
-25.0
 21
59.068458631583091
 31
0.0
  0
LINE
  5
25CA
  8
0
 62
     0
 10
-28.876906147828318
 20
56.314084498888413
 30
0.0
 11
-25.00000000000011
 21
60.190990646716607
 31
0.0
  0
LINE
  5
25CB
  8
0
 62
     0
 10
-29.826785119721759
 20
56.486737542128587
 30
0.0
 11
-25.00000000000011
 21
61.313522661850243
 31
0.0
  0
LINE
  5
25CC
  8
0
 62
     0
 10
-30.825073747243891
 20
56.610980929740087
 30
0.0
 11
-25.0
 21
62.436054676983872
 31
0.0
  0
LINE
  5
25CD
  8
0
 62
     0
 10
-31.878735953998781
 20
56.67985073811883
 30
0.0
 11
-25.025647001437619
 21
63.532939690679989
 31
0.0
  0
LINE
  5
25CE
  8
0
 62
     0
 10
-32.997329894866311
 20
56.683788812384812
 30
0.0
 11
-26.779586872570238
 21
62.901531834681009
 31
0.0
  0
LINE
  5
25CF
  8
0
 62
     0
 10
-34.19455640219406
 20
56.60909432019082
 30
0.0
 11
-28.303037115160691
 21
62.500613607224182
 31
0.0
  0
LINE
  5
25D0
  8
0
 62
     0
 10
-35.491274745629077
 20
56.434907991889418
 30
0.0
 11
-29.677180900588951
 21
62.249001836929551
 31
0.0
  0
LINE
  5
25D1
  8
0
 62
     0
 10
-36.922166818801088
 20
56.126547933851043
 30
0.0
 11
-30.9428376117711
 21
62.105877140881027
 31
0.0
  0
LINE
  5
25D2
  8
0
 62
     0
 10
-38.553590847830492
 20
55.617655919955268
 30
0.0
 11
-32.124017226833992
 21
62.047229540951783
 31
0.0
  0
LINE
  5
25D3
  8
0
 62
     0
 10
-40.0
 20
55.293778782919283
 30
0.0
 11
-33.23626950009816
 21
62.057509282821229
 31
0.0
  0
LINE
  5
25D4
  8
0
 62
     0
 10
-40.0
 20
56.416310798053019
 30
0.0
 11
-34.290344330742641
 21
62.125966467310263
 31
0.0
  0
LINE
  5
25D5
  8
0
 62
     0
 10
-40.0
 20
57.538842813186648
 30
0.0
 11
-35.29403080075236
 21
62.244812012434181
 31
0.0
  0
LINE
  5
25D6
  8
0
 62
     0
 10
-39.999999999999893
 20
58.66137482832027
 30
0.0
 11
-36.253174236902169
 21
62.408200591418101
 31
0.0
  0
LINE
  5
25D7
  8
0
 62
     0
 10
-40.0
 20
59.783906843453792
 30
0.0
 11
-37.1722804493902
 21
62.611626394063713
 31
0.0
  0
LINE
  5
25D8
  8
0
 62
     0
 10
-40.0
 20
60.906438858587649
 30
0.0
 11
-38.054895208751873
 21
62.851543649835769
 31
0.0
  0
LINE
  5
25D9
  8
0
 62
     0
 10
-40.000000000000107
 20
62.028970873721278
 30
0.0
 11
-38.903853337683699
 21
63.125117536037692
 31
0.0
  0
LINE
  5
25DA
  8
0
 62
     0
 10
-40.0
 20
63.1515028888549
 30
0.0
 11
-39.72144817538026
 21
63.43005471347476
 31
0.0
  0
ENDBLK
  5
25DC
  8
0
  0
BLOCK
  8
0
  2
*X124
 70
     1
 10
0.0
 20
0.0
 30
0.0
  3
*X124
  1

  0
LINE
  5
25DE
  8
0
 62
     0
 10
-26.680120174814029
 20
52.931408748809979
 30
0.0
 11
-26.283245174814031
 21
53.618816413063882
 31
0.0
  0
LINE
  5
25DF
  8
0
 62
     0
 10
-27.870744890317859
 20
53.618816248810177
 30
0.0
 11
-27.473869890317861
 21
54.30622391306408
 31
0.0
  0
LINE
  5
25E0
  8
0
 62
     0
 10
-29.061369890317859
 20
51.556593256048487
 30
0.0
 11
-28.664494890317862
 21
52.244000920302391
 31
0.0
  0
LINE
  5
25E1
  8
0
 62
     0
 10
-29.061369605821731
 20
54.306223748810083
 30
0.0
 11
-28.66449460582173
 21
54.99363141306398
 31
0.0
  0
LINE
  5
25E2
  8
0
 62
     0
 10
-30.251994605821729
 20
52.244000756048393
 30
0.0
 11
-29.855119605821731
 21
52.93140842030229
 31
0.0
  0
LINE
  5
25E3
  8
0
 62
     0
 10
-30.251994321325611
 20
54.993631248810082
 30
0.0
 11
-29.855119321325599
 21
55.681038913063979
 31
0.0
  0
LINE
  5
25E4
  8
0
 62
     0
 10
-31.442619321325608
 20
52.931408256048393
 30
0.0
 11
-31.0457443213256
 21
53.618815920302289
 31
0.0
  0
LINE
  5
25E5
  8
0
 62
     0
 10
-32.539714870189421
 20
51.031183024658617
 30
0.0
 11
-32.236369321325597
 21
51.556592927540599
 31
0.0
  0
LINE
  5
25E6
  8
0
 62
     0
 10
-31.442619036829662
 20
55.681038748810039
 30
0.0
 11
-31.195909091880591
 21
56.108352908194341
 31
0.0
  0
LINE
  5
25E7
  8
0
 62
     0
 10
-32.633244036829659
 20
53.618815756048363
 30
0.0
 11
-32.236369036829657
 21
54.306223420302253
 31
0.0
  0
LINE
  5
25E8
  8
0
 62
     0
 10
-33.82386903682967
 20
51.556592763286659
 30
0.0
 11
-33.426994036829662
 21
52.244000427540563
 31
0.0
  0
LINE
  5
25E9
  8
0
 62
     0
 10
-33.823868752333652
 20
54.30622325604822
 30
0.0
 11
-33.426993752333637
 21
54.993630920302117
 31
0.0
  0
LINE
  5
25EA
  8
0
 62
     0
 10
-35.014493752333649
 20
52.244000263286537
 30
0.0
 11
-34.617618752333648
 21
52.931407927540427
 31
0.0
  0
LINE
  5
25EB
  8
0
 62
     0
 10
-35.014493467837511
 20
54.993630756048383
 30
0.0
 11
-34.617618467837509
 21
55.681038420302279
 31
0.0
  0
LINE
  5
25EC
  8
0
 62
     0
 10
-36.205118467837522
 20
52.931407763286693
 30
0.0
 11
-35.808243467837521
 21
53.618815427540582
 31
0.0
  0
LINE
  5
25ED
  8
0
 62
     0
 10
-37.004086333487287
 20
51.547554826366422
 30
0.0
 11
-36.998868467837518
 21
51.556592434778899
 31
0.0
  0
LINE
  5
25EE
  8
0
 62
     0
 10
-36.205118183341391
 20
55.681038256048431
 30
0.0
 11
-36.120835099616087
 21
55.827020839279207
 31
0.0
  0
LINE
  5
25EF
  8
0
 62
     0
 10
-37.395743183341388
 20
53.618815263286741
 30
0.0
 11
-36.998868183341393
 21
54.306222927540638
 31
0.0
  0
LINE
  5
25F0
  8
0
 62
     0
 10
-38.336112068756727
 20
51.990048575890448
 30
0.0
 11
-38.189493183341391
 21
52.243999934778948
 31
0.0
  0
LINE
  5
25F1
  8
0
 62
     0
 10
-38.586367898845261
 20
54.306222763286662
 30
0.0
 11
-38.189492898845259
 21
54.993630427540552
 31
0.0
  0
LINE
  5
25F2
  8
0
 62
     0
 10
-39.513071814455657
 20
52.701124497876428
 30
0.0
 11
-39.38011789884527
 21
52.931407434778862
 31
0.0
  0
LINE
  5
25F3
  8
0
 62
     0
 10
-26.283426398827419
 20
54.993434144132209
 30
0.0
 11
-26.301082524621702
 21
55.024015451072742
 31
0.0
  0
LINE
  5
25F4
  8
0
 62
     0
 10
-25.170980137551648
 20
53.066620698912537
 30
0.0
 11
-25.48967639882742
 21
53.618618815624409
 31
0.0
  0
LINE
  5
25F5
  8
0
 62
     0
 10
-27.47405111433131
 20
54.306026644132182
 30
0.0
 11
-27.870926114331311
 21
54.993434308386071
 31
0.0
  0
LINE
  5
25F6
  8
0
 62
     0
 10
-26.283426114331309
 20
52.243803651370477
 30
0.0
 11
-26.680301114331311
 21
52.931211315624381
 31
0.0
  0
LINE
  5
25F7
  8
0
 62
     0
 10
-29.855300829835159
 20
55.680842136893872
 30
0.0
 11
-30.042976223727258
 21
56.005905454445497
 31
0.0
  0
LINE
  5
25F8
  8
0
 62
     0
 10
-28.664675829835161
 20
53.618619144132182
 30
0.0
 11
-29.061550829835159
 21
54.306026808386079
 31
0.0
  0
LINE
  5
25F9
  8
0
 62
     0
 10
-27.540982037401449
 20
51.672324403487231
 30
0.0
 11
-27.870925829835159
 21
52.243803815624389
 31
0.0
  0
LINE
  5
25FA
  8
0
 62
     0
 10
-31.045925545339031
 20
54.99343463689393
 30
0.0
 11
-31.442800545339029
 21
55.680842301147827
 31
0.0
  0
LINE
  5
25FB
  8
0
 62
     0
 10
-29.855300545339041
 20
52.93121164413224
 30
0.0
 11
-30.252175545339039
 21
53.618619308386137
 31
0.0
  0
LINE
  5
25FC
  8
0
 62
     0
 10
-28.936122144266481
 20
51.339147952254642
 30
0.0
 11
-29.061550545339038
 21
51.55639631562444
 31
0.0
  0
LINE
  5
25FD
  8
0
 62
     0
 10
-32.236550260842911
 20
54.306027136893867
 30
0.0
 11
-32.633425260842898
 21
54.993434801147757
 31
0.0
  0
LINE
  5
25FE
  8
0
 62
     0
 10
-31.04592526084291
 20
52.243804144132177
 30
0.0
 11
-31.442800260842901
 21
52.931211808386067
 31
0.0
  0
LINE
  5
25FF
  8
0
 62
     0
 10
-34.617799976346951
 20
55.680842629655501
 30
0.0
 11
-34.814390948464869
 21
56.021348181673112
 31
0.0
  0
LINE
  5
2600
  8
0
 62
     0
 10
-33.427174976346947
 20
53.618619636893811
 30
0.0
 11
-33.824049976346949
 21
54.306027301147701
 31
0.0
  0
LINE
  5
2601
  8
0
 62
     0
 10
-32.23654997634695
 20
51.556396644132121
 30
0.0
 11
-32.633424976346951
 21
52.243804308386018
 31
0.0
  0
LINE
  5
2602
  8
0
 62
     0
 10
-35.80842469185086
 20
54.993435129655509
 30
0.0
 11
-36.205299691850861
 21
55.680842793909413
 31
0.0
  0
LINE
  5
2603
  8
0
 62
     0
 10
-34.617799691850863
 20
52.931212136893812
 30
0.0
 11
-35.014674691850871
 21
53.618619801147709
 31
0.0
  0
LINE
  5
2604
  8
0
 62
     0
 10
-33.535106842730698
 20
51.055933113226189
 30
0.0
 11
-33.824049691850867
 21
51.556396808386033
 31
0.0
  0
LINE
  5
2605
  8
0
 62
     0
 10
-36.99904940735474
 20
54.306027629655581
 30
0.0
 11
-37.395924407354727
 21
54.993435293909478
 31
0.0
  0
LINE
  5
2606
  8
0
 62
     0
 10
-35.808424407354728
 20
52.243804636893891
 30
0.0
 11
-36.205299407354737
 21
52.931212301147781
 31
0.0
  0
LINE
  5
2607
  8
0
 62
     0
 10
-38.189674122858612
 20
53.618620129655511
 30
0.0
 11
-38.586549122858607
 21
54.306027793909408
 31
0.0
  0
LINE
  5
2608
  8
0
 62
     0
 10
-36.999049122858608
 20
51.556397136893821
 30
0.0
 11
-37.395924122858609
 21
52.243804801147711
 31
0.0
  0
LINE
  5
2609
  8
0
 62
     0
 10
-39.380298838362492
 20
52.931212629655583
 30
0.0
 11
-39.777173838362501
 21
53.61862029390948
 31
0.0
  0
LINE
  5
260A
  8
0
 62
     0
 10
-26.283164662418489
 20
52.2437459982525
 30
0.0
 11
-26.131791151006261
 21
52.2437459982525
 31
0.0
  0
LINE
  5
260B
  8
0
 62
     0
 10
-28.664414662418491
 20
52.2437459982525
 30
0.0
 11
-27.870664662418491
 21
52.2437459982525
 31
0.0
  0
LINE
  5
260C
  8
0
 62
     0
 10
-31.045664662418488
 20
52.2437459982525
 30
0.0
 11
-30.251914662418489
 21
52.2437459982525
 31
0.0
  0
LINE
  5
260D
  8
0
 62
     0
 10
-33.42691466241849
 20
52.2437459982525
 30
0.0
 11
-32.633164662418487
 21
52.2437459982525
 31
0.0
  0
LINE
  5
260E
  8
0
 62
     0
 10
-35.808164662418491
 20
52.2437459982525
 30
0.0
 11
-35.014414662418488
 21
52.2437459982525
 31
0.0
  0
LINE
  5
260F
  8
0
 62
     0
 10
-38.189414662418493
 20
52.2437459982525
 30
0.0
 11
-37.39566466241849
 21
52.2437459982525
 31
0.0
  0
LINE
  5
2610
  8
0
 62
     0
 10
-26.283164662418489
 20
53.618560998252399
 30
0.0
 11
-25.489414662418501
 21
53.618560998252399
 31
0.0
  0
LINE
  5
2611
  8
0
 62
     0
 10
-28.664414662418491
 20
53.618560998252399
 30
0.0
 11
-27.870664662418491
 21
53.618560998252399
 31
0.0
  0
LINE
  5
2612
  8
0
 62
     0
 10
-31.045664662418488
 20
53.618560998252399
 30
0.0
 11
-30.251914662418489
 21
53.618560998252399
 31
0.0
  0
LINE
  5
2613
  8
0
 62
     0
 10
-33.42691466241849
 20
53.618560998252399
 30
0.0
 11
-32.633164662418487
 21
53.618560998252399
 31
0.0
  0
LINE
  5
2614
  8
0
 62
     0
 10
-35.808164662418491
 20
53.618560998252399
 30
0.0
 11
-35.014414662418488
 21
53.618560998252399
 31
0.0
  0
LINE
  5
2615
  8
0
 62
     0
 10
-38.189414662418493
 20
53.618560998252399
 30
0.0
 11
-37.39566466241849
 21
53.618560998252399
 31
0.0
  0
LINE
  5
2616
  8
0
 62
     0
 10
-39.97797140442276
 20
53.618560998252399
 30
0.0
 11
-39.776914662418491
 21
53.618560998252399
 31
0.0
  0
LINE
  5
2617
  8
0
 62
     0
 10
-26.283164662418489
 20
54.993375998252418
 30
0.0
 11
-26.241297406376361
 21
54.993375998252418
 31
0.0
  0
LINE
  5
2618
  8
0
 62
     0
 10
-28.664414662418491
 20
54.993375998252418
 30
0.0
 11
-27.870664662418491
 21
54.993375998252418
 31
0.0
  0
LINE
  5
2619
  8
0
 62
     0
 10
-31.045664662418488
 20
54.993375998252418
 30
0.0
 11
-30.251914662418489
 21
54.993375998252418
 31
0.0
  0
LINE
  5
261A
  8
0
 62
     0
 10
-33.42691466241849
 20
54.993375998252418
 30
0.0
 11
-32.633164662418487
 21
54.993375998252418
 31
0.0
  0
LINE
  5
261B
  8
0
 62
     0
 10
-35.808164662418491
 20
54.993375998252418
 30
0.0
 11
-35.014414662418488
 21
54.993375998252418
 31
0.0
  0
LINE
  5
261C
  8
0
 62
     0
 10
-38.189414662418493
 20
54.993375998252418
 30
0.0
 11
-37.39566466241849
 21
54.993375998252418
 31
0.0
  0
ENDBLK
  5
261E
  8
0
  0
BLOCK
  8
0
  2
*X125
 70
     1
 10
0.0
 20
0.0
 30
0.0
  3
*X125
  1

  0
LINE
  5
2620
  8
0
 62
     0
 10
-25.00000000000011
 20
62.901779139876894
 30
0.0
 11
-25.457826946597919
 21
63.359606086474713
 31
0.0
  0
LINE
  5
2621
  8
0
 62
     0
 10
-25.000000000000071
 20
61.779247124743222
 30
0.0
 11
-26.282223855790619
 21
63.061470980533777
 31
0.0
  0
LINE
  5
2622
  8
0
 62
     0
 10
-25.00000000000011
 20
60.656715109609642
 30
0.0
 11
-27.138454113904949
 21
62.795169223514478
 31
0.0
  0
LINE
  5
2623
  8
0
 62
     0
 10
-25.000000000000071
 20
59.534183094475956
 30
0.0
 11
-28.028919794707221
 21
62.563102889183106
 31
0.0
  0
LINE
  5
2624
  8
0
 62
     0
 10
-25.00000000000011
 20
58.41165107934237
 30
0.0
 11
-28.956596979826969
 21
62.36824805916924
 31
0.0
  0
LINE
  5
2625
  8
0
 62
     0
 10
-25.000000000000071
 20
57.289119064208712
 30
0.0
 11
-29.925219879991079
 21
62.214338944199717
 31
0.0
  0
LINE
  5
2626
  8
0
 62
     0
 10
-25.00000000000022
 20
56.166587049075119
 30
0.0
 11
-30.939553465046849
 21
62.106140514121748
 31
0.0
  0
LINE
  5
2627
  8
0
 62
     0
 10
-25.000000000000099
 20
55.044055033941369
 30
0.0
 11
-32.005812564975841
 21
62.049867598917103
 31
0.0
  0
LINE
  5
2628
  8
0
 62
     0
 10
-26.832341637988758
 20
55.753864656796402
 30
0.0
 11
-33.132336746361652
 21
62.053859765169292
 31
0.0
  0
LINE
  5
2629
  8
0
 62
     0
 10
-28.410382564309842
 20
56.20937356798386
 30
0.0
 11
-34.330742658448372
 21
62.129733662122383
 31
0.0
  0
LINE
  5
262A
  8
0
 62
     0
 10
-29.807270344789671
 20
56.483729333330047
 30
0.0
 11
-35.618047341061441
 21
62.29450632960183
 31
0.0
  0
LINE
  5
262B
  8
0
 62
     0
 10
-31.079502049313518
 20
56.633429022720271
 30
0.0
 11
-37.021005831640451
 21
62.574932805047212
 31
0.0
  0
LINE
  5
262C
  8
0
 62
     0
 10
-32.25775143460708
 20
56.689146392880097
 30
0.0
 11
-38.586395358558953
 21
63.017790316831963
 31
0.0
  0
LINE
  5
262D
  8
0
 62
     0
 10
-33.360894560109827
 20
56.669757503249222
 30
0.0
 11
-40.000000000000057
 21
63.308862943139452
 31
0.0
  0
LINE
  5
262E
  8
0
 62
     0
 10
-34.401520846724416
 20
56.587851774730169
 30
0.0
 11
-40.000000000000021
 21
62.186330928005781
 31
0.0
  0
LINE
  5
262F
  8
0
 62
     0
 10
-35.388509020815633
 20
56.452307933687742
 30
0.0
 11
-40.000000000000057
 21
61.06379891287218
 31
0.0
  0
LINE
  5
2630
  8
0
 62
     0
 10
-36.32837987714683
 20
56.269646774885331
 30
0.0
 11
-40.000000000000021
 21
59.941266897738522
 31
0.0
  0
LINE
  5
2631
  8
0
 62
     0
 10
-37.22606908761982
 20
56.044803970224692
 30
0.0
 11
-40.000000000000071
 21
58.818734882604929
 31
0.0
  0
LINE
  5
2632
  8
0
 62
     0
 10
-38.085397765606182
 20
55.781600633077417
 30
0.0
 11
-40.000000000000021
 21
57.696202867471271
 31
0.0
  0
LINE
  5
2633
  8
0
 62
     0
 10
-38.909373618521833
 20
55.483044470859447
 30
0.0
 11
-40.000000000000071
 21
56.573670852337671
 31
0.0
  0
LINE
  5
2634
  8
0
 62
     0
 10
-39.700391451757874
 20
55.151530288961851
 30
0.0
 11
-40.000000000000021
 21
55.451138837203999
 31
0.0
  0
LINE
  5
2635
  8
0
 62
     0
 10
-25.472836517040381
 20
55.228026069141492
 30
0.0
 11
-25.0
 21
55.700862586181977
 31
0.0
  0
LINE
  5
2636
  8
0
 62
     0
 10
-26.271005325455238
 20
55.552389275860378
 30
0.0
 11
-25.0
 21
56.823394601315613
 31
0.0
  0
LINE
  5
2637
  8
0
 62
     0
 10
-27.102619720611759
 20
55.8433068958376
 30
0.0
 11
-25.000000000000231
 21
57.945926616449121
 31
0.0
  0
LINE
  5
2638
  8
0
 62
     0
 10
-27.970197155651931
 20
56.098261475931167
 30
0.0
 11
-25.0
 21
59.068458631583091
 31
0.0
  0
LINE
  5
2639
  8
0
 62
     0
 10
-28.876906147828318
 20
56.314084498888413
 30
0.0
 11
-25.00000000000011
 21
60.190990646716607
 31
0.0
  0
LINE
  5
263A
  8
0
 62
     0
 10
-29.826785119721759
 20
56.486737542128587
 30
0.0
 11
-25.00000000000011
 21
61.313522661850243
 31
0.0
  0
LINE
  5
263B
  8
0
 62
     0
 10
-30.825073747243891
 20
56.610980929740087
 30
0.0
 11
-25.0
 21
62.436054676983872
 31
0.0
  0
LINE
  5
263C
  8
0
 62
     0
 10
-31.878735953998781
 20
56.67985073811883
 30
0.0
 11
-25.025647001437619
 21
63.532939690679989
 31
0.0
  0
LINE
  5
263D
  8
0
 62
     0
 10
-32.997329894866311
 20
56.683788812384812
 30
0.0
 11
-26.779586872570238
 21
62.901531834681009
 31
0.0
  0
LINE
  5
263E
  8
0
 62
     0
 10
-34.19455640219406
 20
56.60909432019082
 30
0.0
 11
-28.303037115160691
 21
62.500613607224182
 31
0.0
  0
LINE
  5
263F
  8
0
 62
     0
 10
-35.491274745629077
 20
56.434907991889418
 30
0.0
 11
-29.677180900588951
 21
62.249001836929551
 31
0.0
  0
LINE
  5
2640
  8
0
 62
     0
 10
-36.922166818801088
 20
56.126547933851043
 30
0.0
 11
-30.9428376117711
 21
62.105877140881027
 31
0.0
  0
LINE
  5
2641
  8
0
 62
     0
 10
-38.553590847830492
 20
55.617655919955268
 30
0.0
 11
-32.124017226833992
 21
62.047229540951783
 31
0.0
  0
LINE
  5
2642
  8
0
 62
     0
 10
-40.0
 20
55.293778782919283
 30
0.0
 11
-33.23626950009816
 21
62.057509282821229
 31
0.0
  0
LINE
  5
2643
  8
0
 62
     0
 10
-40.0
 20
56.416310798053019
 30
0.0
 11
-34.290344330742641
 21
62.125966467310263
 31
0.0
  0
LINE
  5
2644
  8
0
 62
     0
 10
-40.0
 20
57.538842813186648
 30
0.0
 11
-35.29403080075236
 21
62.244812012434181
 31
0.0
  0
LINE
  5
2645
  8
0
 62
     0
 10
-39.999999999999893
 20
58.66137482832027
 30
0.0
 11
-36.253174236902169
 21
62.408200591418101
 31
0.0
  0
LINE
  5
2646
  8
0
 62
     0
 10
-40.0
 20
59.783906843453792
 30
0.0
 11
-37.1722804493902
 21
62.611626394063713
 31
0.0
  0
LINE
  5
2647
  8
0
 62
     0
 10
-40.0
 20
60.906438858587649
 30
0.0
 11
-38.054895208751873
 21
62.851543649835769
 31
0.0
  0
LINE
  5
2648
  8
0
 62
     0
 10
-40.000000000000107
 20
62.028970873721278
 30
0.0
 11
-38.903853337683699
 21
63.125117536037692
 31
0.0
  0
LINE
  5
2649
  8
0
 62
     0
 10
-40.0
 20
63.1515028888549
 30
0.0
 11
-39.72144817538026
 21
63.43005471347476
 31
0.0
  0
ENDBLK
  5
264B
  8
0
  0
BLOCK
  8
0
  2
*U126
 70
     1
 10
0.0
 20
0.0
 30
0.0
  3
*U126
  1

  0
TEXT
  5
27FC
  8
SAPA_MATT
 62
     2
 10
-2.0999999999999992
 20
84.999999999999474
 30
0.0
 40
3.0
  1
50
  7
ISO
  0
ENDBLK
  5
27FE
  8
0
  0
BLOCK
  8
0
  2
*U127
 70
     1
 10
0.0
 20
0.0
 30
0.0
  3
*U127
  1

  0
TEXT
  5
2800
  8
SAPA_MATT
 62
     2
 10
-2.0999999999999459
 20
-105.8138500465783
 30
0.0
 40
3.0
  1
32
  7
ISO
  0
ENDBLK
  5
2802
  8
0
  0
ENDSEC
  0
SECTION
  2
ENTITIES
  0
POLYLINE
  5
6FB
  8
SAPA_LIGHT
 66
     1
 10
0.0
 20
0.0
 30
0.0
  0
VERTEX
  5
18AB
  8
SAPA_LIGHT
 10
-25.0
 20
64.499999999999474
 30
0.0
  0
VERTEX
  5
18AC
  8
SAPA_LIGHT
 10
25.0
 20
64.499999999999446
 30
0.0
  0
VERTEX
  5
18AD
  8
SAPA_LIGHT
 10
25.0
 20
-46.853932708651541
 30
0.0
  0
VERTEX
  5
18AE
  8
SAPA_LIGHT
 10
4.9999999999999751
 20
-46.853932708651541
 30
0.0
  0
VERTEX
  5
18AF
  8
SAPA_LIGHT
 10
4.9999999999999707
 20
-72.499999999998636
 30
0.0
  0
VERTEX
  5
18B0
  8
SAPA_LIGHT
 10
16.000000000000391
 20
-72.499999999998636
 30
0.0
  0
VERTEX
  5
18B1
  8
SAPA_LIGHT
 10
16.000000000000391
 20
-77.646446609404535
 30
0.0
  0
VERTEX
  5
18B2
  8
SAPA_LIGHT
 10
6.968469869991587
 20
-86.423879532509702
 30
0.0
  0
VERTEX
  5
18B3
  8
SAPA_LIGHT
 10
-6.9684698699921572
 20
-86.423879532509702
 30
0.0
  0
VERTEX
  5
18B4
  8
SAPA_LIGHT
 10
-15.961939766255661
 20
-77.484234934994149
 30
0.0
  0
VERTEX
  5
18B5
  8
SAPA_LIGHT
 10
-15.961939766255661
 20
-72.499999999998636
 30
0.0
  0
VERTEX
  5
18B6
  8
SAPA_LIGHT
 10
-25.00000000000103
 20
-72.499999999998607
 30
0.0
  0
VERTEX
  5
18B7
  8
SAPA_LIGHT
 10
-25.00000000000103
 20
-45.499999999998629
 30
0.0
  0
VERTEX
  5
18B8
  8
SAPA_LIGHT
 10
-25.00000000000103
 20
-45.499999999998629
 30
0.0
  0
VERTEX
  5
18B9
  8
SAPA_LIGHT
 10
-25.00000000000097
 20
64.499999999999474
 30
0.0
  0
SEQEND
  5
18BA
  8
SAPA_LIGHT
  0
INSERT
  5
708
  8
0
  2
*U116
 10
0.0
 20
0.0
 30
0.0
  0
INSERT
  5
709
  8
0
  2
*U117
 10
0.0
 20
0.0
 30
0.0
  0
POLYLINE
  5
A58
  8
SAPA_LIGHT
 66
     1
 10
0.0
 20
0.0
 30
0.0
  0
VERTEX
  5
18C3
  8
SAPA_LIGHT
 10
183.00000000000119
 20
-63.249947679035238
 30
0.0
  0
VERTEX
  5
18C4
  8
SAPA_LIGHT
 10
153.00000000000119
 20
-63.249947679035238
 30
0.0
  0
VERTEX
  5
18C5
  8
SAPA_LIGHT
 10
153.00000000000111
 20
-36.249947679035252
 30
0.0
  0
VERTEX
  5
18C6
  8
SAPA_LIGHT
 10
183.00000000000119
 20
-36.249947679035252
 30
0.0
  0
SEQEND
  5
18C7
  8
SAPA_LIGHT
  0
POLYLINE
  5
AAC
  8
SAPA_LIGHT
 66
     1
 10
0.0
 20
0.0
 30
0.0
  0
VERTEX
  5
18C8
  8
SAPA_LIGHT
 10
31.00000000000119
 20
1.800052393359806
 30
0.0
  0
VERTEX
  5
18C9
  8
SAPA_LIGHT
 10
170.00000000001481
 20
1.800052393359806
 30
0.0
  0
VERTEX
  5
18CA
  8
SAPA_LIGHT
 10
170.00000000001481
 20
-36.249947679035252
 30
0.0
  0
VERTEX
  5
18CB
  8
SAPA_LIGHT
 10
148.7887370868213
 20
-36.249947679035238
 30
0.0
  0
VERTEX
  5
18CC
  8
SAPA_LIGHT
 10
148.78873708682141
 20
-67.749947649157491
 30
0.0
  0
VERTEX
  5
18CD
  8
SAPA_LIGHT
 10
170.00000000000131
 20
-67.749947649157519
 30
0.0
  0
VERTEX
  5
18CE
  8
SAPA_LIGHT
 10
170.00000000000139
 20
-72.199947648243267
 30
0.0
  0
VERTEX
  5
18CF
  8
SAPA_LIGHT
 10
9.0000000001066951
 20
-72.199947648243196
 30
0.0
  0
VERTEX
  5
18D0
  8
SAPA_LIGHT
 10
9.0000000001066969
 20
-46.853932708651541
 30
0.0
  0
VERTEX
  5
18D1
  8
SAPA_LIGHT
 10
31.00000000000119
 20
-46.853932708651541
 30
0.0
  0
VERTEX
  5
18D2
  8
SAPA_LIGHT
 10
31.00000000000119
 20
1.800052393359806
 30
0.0
  0
SEQEND
  5
18D3
  8
SAPA_LIGHT
  0
POLYLINE
  5
AE6
  8
SAPA_ANSLUTNING
 66
     1
 10
0.0
 20
0.0
 30
0.0
 70
     1
  0
VERTEX
  5
18D4
  8
SAPA_ANSLUTNING
 10
-40.0
 20
63.543604510527068
 30
0.0
  0
VERTEX
  5
18D5
  8
SAPA_ANSLUTNING
 10
-40.0
 20
55.013914570887209
 30
0.0
 42
-0.2235864103272747
  0
VERTEX
  5
18D6
  8
SAPA_ANSLUTNING
 10
-25.0
 20
55.013914570887209
 30
0.0
  0
VERTEX
  5
18D7
  8
SAPA_ANSLUTNING
 10
-25.0
 20
63.543604510527068
 30
0.0
 42
-0.2000000000000035
  0
SEQEND
  5
18D8
  8
SAPA_ANSLUTNING
  0
POLYLINE
  5
AE8
  8
SAPA_ANSLUTNING
 10
-25.013181316814556
 20
53.589194351408871
 30
0.0
 66
     1
 70
     8
  0
VERTEX
  8
SAPA_ANSLUTNING
  5
2806
 10
-25.0132
 20
53.5892
 30
0.000000
  70
    32
  0
VERTEX
  8
SAPA_ANSLUTNING
  5
2807
 10
-25.0222
 20
53.4637
 30
0.000000
  70
    32
  0
VERTEX
  8
SAPA_ANSLUTNING
  5
2808
 10
-25.0492
 20
53.3385
 30
0.000000
  70
    32
  0
VERTEX
  8
SAPA_ANSLUTNING
  5
2809
 10
-25.0942
 20
53.2138
 30
0.000000
  70
    32
  0
VERTEX
  8
SAPA_ANSLUTNING
  5
280A
 10
-25.1570
 20
53.0901
 30
0.000000
  70
    32
  0
VERTEX
  8
SAPA_ANSLUTNING
  5
280B
 10
-25.2374
 20
52.9676
 30
0.000000
  70
    32
  0
VERTEX
  8
SAPA_ANSLUTNING
  5
280C
 10
-25.3354
 20
52.8466
 30
0.000000
  70
    32
  0
VERTEX
  8
SAPA_ANSLUTNING
  5
280D
 10
-25.4506
 20
52.7274
 30
0.000000
  70
    32
  0
VERTEX
  8
SAPA_ANSLUTNING
  5
280E
 10
-25.5828
 20
52.6103
 30
0.000000
  70
    32
  0
VERTEX
  8
SAPA_ANSLUTNING
  5
280F
 10
-25.7316
 20
52.4955
 30
0.000000
  70
    32
  0
VERTEX
  8
SAPA_ANSLUTNING
  5
2810
 10
-25.8967
 20
52.3833
 30
0.000000
  70
    32
  0
VERTEX
  8
SAPA_ANSLUTNING
  5
2811
 10
-26.0777
 20
52.2741
 30
0.000000
  70
    32
  0
VERTEX
  8
SAPA_ANSLUTNING
  5
2812
 10
-26.2742
 20
52.1680
 30
0.000000
  70
    32
  0
VERTEX
  8
SAPA_ANSLUTNING
  5
2813
 10
-26.4857
 20
52.0654
 30
0.000000
  70
    32
  0
VERTEX
  8
SAPA_ANSLUTNING
  5
2814
 10
-26.7117
 20
51.9664
 30
0.000000
  70
    32
  0
VERTEX
  8
SAPA_ANSLUTNING
  5
2815
 10
-26.9516
 20
51.8713
 30
0.000000
  70
    32
  0
VERTEX
  8
SAPA_ANSLUTNING
  5
2816
 10
-27.2048
 20
51.7804
 30
0.000000
  70
    32
  0
VERTEX
  8
SAPA_ANSLUTNING
  5
2817
 10
-27.4708
 20
51.6938
 30
0.000000
  70
    32
  0
VERTEX
  8
SAPA_ANSLUTNING
  5
2818
 10
-27.7489
 20
51.6118
 30
0.000000
  70
    32
  0
VERTEX
  8
SAPA_ANSLUTNING
  5
2819
 10
-28.0384
 20
51.5345
 30
0.000000
  70
    32
  0
VERTEX
  8
SAPA_ANSLUTNING
  5
281A
 10
-28.3387
 20
51.4622
 30
0.000000
  70
    32
  0
VERTEX
  8
SAPA_ANSLUTNING
  5
281B
 10
-28.6490
 20
51.3951
 30
0.000000
  70
    32
  0
VERTEX
  8
SAPA_ANSLUTNING
  5
281C
 10
-28.9685
 20
51.3332
 30
0.000000
  70
    32
  0
VERTEX
  8
SAPA_ANSLUTNING
  5
281D
 10
-29.2966
 20
51.2767
 30
0.000000
  70
    32
  0
VERTEX
  8
SAPA_ANSLUTNING
  5
281E
 10
-29.6323
 20
51.2259
 30
0.000000
  70
    32
  0
VERTEX
  8
SAPA_ANSLUTNING
  5
281F
 10
-29.9750
 20
51.1807
 30
0.000000
  70
    32
  0
VERTEX
  8
SAPA_ANSLUTNING
  5
2820
 10
-30.3237
 20
51.1413
 30
0.000000
  70
    32
  0
VERTEX
  8
SAPA_ANSLUTNING
  5
2821
 10
-30.6777
 20
51.1078
 30
0.000000
  70
    32
  0
VERTEX
  8
SAPA_ANSLUTNING
  5
2822
 10
-31.0360
 20
51.0803
 30
0.000000
  70
    32
  0
VERTEX
  8
SAPA_ANSLUTNING
  5
2823
 10
-31.3979
 20
51.0588
 30
0.000000
  70
    32
  0
VERTEX
  8
SAPA_ANSLUTNING
  5
2824
 10
-31.7624
 20
51.0435
 30
0.000000
  70
    32
  0
VERTEX
  8
SAPA_ANSLUTNING
  5
2825
 10
-32.1287
 20
51.0342
 30
0.000000
  70
    32
  0
VERTEX
  8
SAPA_ANSLUTNING
  5
2826
 10
-32.4958
 20
51.0311
 30
0.000000
  70
    32
  0
VERTEX
  8
SAPA_ANSLUTNING
  5
2827
 10
-32.8630
 20
51.0342
 30
0.000000
  70
    32
  0
VERTEX
  8
SAPA_ANSLUTNING
  5
2828
 10
-33.2293
 20
51.0435
 30
0.000000
  70
    32
  0
VERTEX
  8
SAPA_ANSLUTNING
  5
2829
 10
-33.5938
 20
51.0588
 30
0.000000
  70
    32
  0
VERTEX
  8
SAPA_ANSLUTNING
  5
282A
 10
-33.9556
 20
51.0803
 30
0.000000
  70
    32
  0
VERTEX
  8
SAPA_ANSLUTNING
  5
282B
 10
-34.3140
 20
51.1078
 30
0.000000
  70
    32
  0
VERTEX
  8
SAPA_ANSLUTNING
  5
282C
 10
-34.6679
 20
51.1413
 30
0.000000
  70
    32
  0
VERTEX
  8
SAPA_ANSLUTNING
  5
282D
 10
-35.0166
 20
51.1807
 30
0.000000
  70
    32
  0
VERTEX
  8
SAPA_ANSLUTNING
  5
282E
 10
-35.3593
 20
51.2259
 30
0.000000
  70
    32
  0
VERTEX
  8
SAPA_ANSLUTNING
  5
282F
 10
-35.6951
 20
51.2767
 30
0.000000
  70
    32
  0
VERTEX
  8
SAPA_ANSLUTNING
  5
2830
 10
-36.0231
 20
51.3332
 30
0.000000
  70
    32
  0
VERTEX
  8
SAPA_ANSLUTNING
  5
2831
 10
-36.3427
 20
51.3951
 30
0.000000
  70
    32
  0
VERTEX
  8
SAPA_ANSLUTNING
  5
2832
 10
-36.6530
 20
51.4622
 30
0.000000
  70
    32
  0
VERTEX
  8
SAPA_ANSLUTNING
  5
2833
 10
-36.9532
 20
51.5345
 30
0.000000
  70
    32
  0
VERTEX
  8
SAPA_ANSLUTNING
  5
2834
 10
-37.2428
 20
51.6118
 30
0.000000
  70
    32
  0
VERTEX
  8
SAPA_ANSLUTNING
  5
2835
 10
-37.5209
 20
51.6938
 30
0.000000
  70
    32
  0
VERTEX
  8
SAPA_ANSLUTNING
  5
2836
 10
-37.7868
 20
51.7804
 30
0.000000
  70
    32
  0
VERTEX
  8
SAPA_ANSLUTNING
  5
2837
 10
-38.0401
 20
51.8713
 30
0.000000
  70
    32
  0
VERTEX
  8
SAPA_ANSLUTNING
  5
2838
 10
-38.2800
 20
51.9664
 30
0.000000
  70
    32
  0
VERTEX
  8
SAPA_ANSLUTNING
  5
2839
 10
-38.5059
 20
52.0654
 30
0.000000
  70
    32
  0
VERTEX
  8
SAPA_ANSLUTNING
  5
283A
 10
-38.7174
 20
52.1680
 30
0.000000
  70
    32
  0
VERTEX
  8
SAPA_ANSLUTNING
  5
283B
 10
-38.9139
 20
52.2741
 30
0.000000
  70
    32
  0
VERTEX
  8
SAPA_ANSLUTNING
  5
283C
 10
-39.0949
 20
52.3833
 30
0.000000
  70
    32
  0
VERTEX
  8
SAPA_ANSLUTNING
  5
283D
 10
-39.2601
 20
52.4955
 30
0.000000
  70
    32
  0
VERTEX
  8
SAPA_ANSLUTNING
  5
283E
 10
-39.4089
 20
52.6103
 30
0.000000
  70
    32
  0
VERTEX
  8
SAPA_ANSLUTNING
  5
283F
 10
-39.5411
 20
52.7274
 30
0.000000
  70
    32
  0
VERTEX
  8
SAPA_ANSLUTNING
  5
2840
 10
-39.6563
 20
52.8466
 30
0.000000
  70
    32
  0
VERTEX
  8
SAPA_ANSLUTNING
  5
2841
 10
-39.7542
 20
52.9676
 30
0.000000
  70
    32
  0
VERTEX
  8
SAPA_ANSLUTNING
  5
2842
 10
-39.8347
 20
53.0901
 30
0.000000
  70
    32
  0
VERTEX
  8
SAPA_ANSLUTNING
  5
2843
 10
-39.8975
 20
53.2138
 30
0.000000
  70
    32
  0
VERTEX
  8
SAPA_ANSLUTNING
  5
2844
 10
-39.9424
 20
53.3385
 30
0.000000
  70
    32
  0
VERTEX
  8
SAPA_ANSLUTNING
  5
2845
 10
-39.9695
 20
53.4637
 30
0.000000
  70
    32
  0
VERTEX
  8
SAPA_ANSLUTNING
  5
2846
 10
-39.9785
 20
53.5892
 30
0.000000
  70
    32
  0
VERTEX
  8
SAPA_ANSLUTNING
  5
2847
 10
-39.9695
 20
53.7147
 30
0.000000
  70
    32
  0
VERTEX
  8
SAPA_ANSLUTNING
  5
2848
 10
-39.9424
 20
53.8399
 30
0.000000
  70
    32
  0
VERTEX
  8
SAPA_ANSLUTNING
  5
2849
 10
-39.8975
 20
53.9645
 30
0.000000
  70
    32
  0
VERTEX
  8
SAPA_ANSLUTNING
  5
284A
 10
-39.8347
 20
54.0882
 30
0.000000
  70
    32
  0
VERTEX
  8
SAPA_ANSLUTNING
  5
284B
 10
-39.7542
 20
54.2108
 30
0.000000
  70
    32
  0
VERTEX
  8
SAPA_ANSLUTNING
  5
284C
 10
-39.6563
 20
54.3318
 30
0.000000
  70
    32
  0
VERTEX
  8
SAPA_ANSLUTNING
  5
284D
 10
-39.5411
 20
54.4510
 30
0.000000
  70
    32
  0
VERTEX
  8
SAPA_ANSLUTNING
  5
284E
 10
-39.4089
 20
54.5681
 30
0.000000
  70
    32
  0
VERTEX
  8
SAPA_ANSLUTNING
  5
284F
 10
-39.2601
 20
54.6829
 30
0.000000
  70
    32
  0
VERTEX
  8
SAPA_ANSLUTNING
  5
2850
 10
-39.0949
 20
54.7951
 30
0.000000
  70
    32
  0
VERTEX
  8
SAPA_ANSLUTNING
  5
2851
 10
-38.9139
 20
54.9043
 30
0.000000
  70
    32
  0
VERTEX
  8
SAPA_ANSLUTNING
  5
2852
 10
-38.7174
 20
55.0104
 30
0.000000
  70
    32
  0
VERTEX
  8
SAPA_ANSLUTNING
  5
2853
 10
-38.5059
 20
55.1130
 30
0.000000
  70
    32
  0
VERTEX
  8
SAPA_ANSLUTNING
  5
2854
 10
-38.2800
 20
55.2120
 30
0.000000
  70
    32
  0
VERTEX
  8
SAPA_ANSLUTNING
  5
2855
 10
-38.0401
 20
55.3071
 30
0.000000
  70
    32
  0
VERTEX
  8
SAPA_ANSLUTNING
  5
2856
 10
-37.7868
 20
55.3980
 30
0.000000
  70
    32
  0
VERTEX
  8
SAPA_ANSLUTNING
  5
2857
 10
-37.5209
 20
55.4846
 30
0.000000
  70
    32
  0
VERTEX
  8
SAPA_ANSLUTNING
  5
2858
 10
-37.2428
 20
55.5666
 30
0.000000
  70
    32
  0
VERTEX
  8
SAPA_ANSLUTNING
  5
2859
 10
-36.9532
 20
55.6438
 30
0.000000
  70
    32
  0
VERTEX
  8
SAPA_ANSLUTNING
  5
285A
 10
-36.6530
 20
55.7161
 30
0.000000
  70
    32
  0
VERTEX
  8
SAPA_ANSLUTNING
  5
285B
 10
-36.3427
 20
55.7833
 30
0.000000
  70
    32
  0
VERTEX
  8
SAPA_ANSLUTNING
  5
285C
 10
-36.0231
 20
55.8452
 30
0.000000
  70
    32
  0
VERTEX
  8
SAPA_ANSLUTNING
  5
285D
 10
-35.6951
 20
55.9016
 30
0.000000
  70
    32
  0
VERTEX
  8
SAPA_ANSLUTNING
  5
285E
 10
-35.3593
 20
55.9525
 30
0.000000
  70
    32
  0
VERTEX
  8
SAPA_ANSLUTNING
  5
285F
 10
-35.0166
 20
55.9977
 30
0.000000
  70
    32
  0
VERTEX
  8
SAPA_ANSLUTNING
  5
2860
 10
-34.6679
 20
56.0371
 30
0.000000
  70
    32
  0
VERTEX
  8
SAPA_ANSLUTNING
  5
2861
 10
-34.3140
 20
56.0706
 30
0.000000
  70
    32
  0
VERTEX
  8
SAPA_ANSLUTNING
  5
2862
 10
-33.9556
 20
56.0981
 30
0.000000
  70
    32
  0
VERTEX
  8
SAPA_ANSLUTNING
  5
2863
 10
-33.5938
 20
56.1196
 30
0.000000
  70
    32
  0
VERTEX
  8
SAPA_ANSLUTNING
  5
2864
 10
-33.2293
 20
56.1349
 30
0.000000
  70
    32
  0
VERTEX
  8
SAPA_ANSLUTNING
  5
2865
 10
-32.8630
 20
56.1442
 30
0.000000
  70
    32
  0
VERTEX
  8
SAPA_ANSLUTNING
  5
2866
 10
-32.4958
 20
56.1472
 30
0.000000
  70
    32
  0
VERTEX
  8
SAPA_ANSLUTNING
  5
2867
 10
-32.1287
 20
56.1442
 30
0.000000
  70
    32
  0
VERTEX
  8
SAPA_ANSLUTNING
  5
2868
 10
-31.7624
 20
56.1349
 30
0.000000
  70
    32
  0
VERTEX
  8
SAPA_ANSLUTNING
  5
2869
 10
-31.3979
 20
56.1196
 30
0.000000
  70
    32
  0
VERTEX
  8
SAPA_ANSLUTNING
  5
286A
 10
-31.0360
 20
56.0981
 30
0.000000
  70
    32
  0
VERTEX
  8
SAPA_ANSLUTNING
  5
286B
 10
-30.6777
 20
56.0706
 30
0.000000
  70
    32
  0
VERTEX
  8
SAPA_ANSLUTNING
  5
286C
 10
-30.3237
 20
56.0371
 30
0.000000
  70
    32
  0
VERTEX
  8
SAPA_ANSLUTNING
  5
286D
 10
-29.9750
 20
55.9977
 30
0.000000
  70
    32
  0
VERTEX
  8
SAPA_ANSLUTNING
  5
286E
 10
-29.6323
 20
55.9525
 30
0.000000
  70
    32
  0
VERTEX
  8
SAPA_ANSLUTNING
  5
286F
 10
-29.2966
 20
55.9016
 30
0.000000
  70
    32
  0
VERTEX
  8
SAPA_ANSLUTNING
  5
2870
 10
-28.9685
 20
55.8452
 30
0.000000
  70
    32
  0
VERTEX
  8
SAPA_ANSLUTNING
  5
2871
 10
-28.6490
 20
55.7833
 30
0.000000
  70
    32
  0
VERTEX
  8
SAPA_ANSLUTNING
  5
2872
 10
-28.3387
 20
55.7161
 30
0.000000
  70
    32
  0
VERTEX
  8
SAPA_ANSLUTNING
  5
2873
 10
-28.0384
 20
55.6438
 30
0.000000
  70
    32
  0
VERTEX
  8
SAPA_ANSLUTNING
  5
2874
 10
-27.7489
 20
55.5666
 30
0.000000
  70
    32
  0
VERTEX
  8
SAPA_ANSLUTNING
  5
2875
 10
-27.4708
 20
55.4846
 30
0.000000
  70
    32
  0
VERTEX
  8
SAPA_ANSLUTNING
  5
2876
 10
-27.2048
 20
55.3980
 30
0.000000
  70
    32
  0
VERTEX
  8
SAPA_ANSLUTNING
  5
2877
 10
-26.9516
 20
55.3071
 30
0.000000
  70
    32
  0
VERTEX
  8
SAPA_ANSLUTNING
  5
2878
 10
-26.7117
 20
55.2120
 30
0.000000
  70
    32
  0
VERTEX
  8
SAPA_ANSLUTNING
  5
2879
 10
-26.4857
 20
55.1130
 30
0.000000
  70
    32
  0
VERTEX
  8
SAPA_ANSLUTNING
  5
287A
 10
-26.2742
 20
55.0104
 30
0.000000
  70
    32
  0
VERTEX
  8
SAPA_ANSLUTNING
  5
287B
 10
-26.0777
 20
54.9043
 30
0.000000
  70
    32
  0
VERTEX
  8
SAPA_ANSLUTNING
  5
287C
 10
-25.8967
 20
54.7951
 30
0.000000
  70
    32
  0
VERTEX
  8
SAPA_ANSLUTNING
  5
287D
 10
-25.7316
 20
54.6829
 30
0.000000
  70
    32
  0
VERTEX
  8
SAPA_ANSLUTNING
  5
287E
 10
-25.5828
 20
54.5681
 30
0.000000
  70
    32
  0
VERTEX
  8
SAPA_ANSLUTNING
  5
287F
 10
-25.4506
 20
54.4510
 30
0.000000
  70
    32
  0
VERTEX
  8
SAPA_ANSLUTNING
  5
2880
 10
-25.3354
 20
54.3318
 30
0.000000
  70
    32
  0
VERTEX
  8
SAPA_ANSLUTNING
  5
2881
 10
-25.2374
 20
54.2108
 30
0.000000
  70
    32
  0
VERTEX
  8
SAPA_ANSLUTNING
  5
2882
 10
-25.1570
 20
54.0882
 30
0.000000
  70
    32
  0
VERTEX
  8
SAPA_ANSLUTNING
  5
2883
 10
-25.0942
 20
53.9645
 30
0.000000
  70
    32
  0
VERTEX
  8
SAPA_ANSLUTNING
  5
2884
 10
-25.0492
 20
53.8399
 30
0.000000
  70
    32
  0
VERTEX
  8
SAPA_ANSLUTNING
  5
2885
 10
-25.0222
 20
53.7147
 30
0.000000
  70
    32
  0
VERTEX
  8
SAPA_ANSLUTNING
  5
2886
 10
-25.0132
 20
53.5892
 30
0.000000
  70
    32
  0
SEQEND
  8
SAPA_ANSLUTNING
  5
2887
  0
LINE
  5
AE9
  8
SAPA_ANSLUTNING
 10
-40.0
 20
84.857054109932506
 30
0.0
 11
-40.0
 21
-120.34461419492619
 31
0.0
  0
LINE
  5
AEA
  8
SAPA_PROFIL
 10
-39.5
 20
-70.949999999998909
 30
0.0
 11
-39.5
 21
-104.72579666874481
 31
0.0
  0
LINE
  5
AEB
  8
SAPA_PROFIL
 10
-38.0
 20
-72.450000000000713
 30
0.0
 11
-38.0
 21
-104.72579666874481
 31
0.0
  0
LINE
  5
AF3
  8
SAPA_PROFIL
 10
-9.1562463053096508
 20
-72.449999999998894
 30
0.0
 11
-38.0
 21
-72.449999999998894
 31
0.0
  0
LINE
  5
AF4
  8
SAPA_PROFIL
 10
-9.1562463053087413
 20
-70.949999999998909
 30
0.0
 11
-39.5
 21
-70.949999999998909
 31
0.0
  0
LINE
  5
AF6
  8
SAPA_PROFIL
 10
-9.1562463053096508
 20
-72.449999999998894
 30
0.0
 11
-9.1562463053087413
 21
-70.949999999998909
 31
0.0
  0
LINE
  5
AFD
  8
SAPA_ANSLUTNING
 10
-40.0
 20
-120.34461419492619
 30
0.0
 11
-67.53848510786338
 21
-120.34461419492619
 31
0.0
  0
LINE
  5
AFE
  8
SAPA_PROFIL
 10
-39.5
 20
-104.72579666874481
 30
0.0
 11
-38.0
 21
-104.72579666874481
 31
0.0
  0
POLYLINE
  5
AFF
  8
SAPA_ANSLUTNING
 66
     1
 10
0.0
 20
0.0
 30
0.0
  0
VERTEX
  5
18D9
  8
SAPA_ANSLUTNING
 10
-38.497550037938709
 20
47.536775314725674
 30
0.0
  0
VERTEX
  5
18DA
  8
SAPA_ANSLUTNING
 10
-26.502449962061291
 20
47.536775314725674
 30
0.0
 42
-0.9999999999999998
  0
VERTEX
  5
18DB
  8
SAPA_ANSLUTNING
 10
-26.502449962061291
 20
44.531875390603091
 30
0.0
  0
VERTEX
  5
18DC
  8
SAPA_ANSLUTNING
 10
-38.497550037938709
 20
44.531875390603091
 30
0.0
 42
0.9999999999999998
  0
VERTEX
  5
18DD
  8
SAPA_ANSLUTNING
 10
-38.497550037938709
 20
41.526975466480508
 30
0.0
  0
VERTEX
  5
18DE
  8
SAPA_ANSLUTNING
 10
-26.502449962061291
 20
41.526975466480508
 30
0.0
 42
-0.9999999999999998
  0
VERTEX
  5
18DF
  8
SAPA_ANSLUTNING
 10
-26.502449962061291
 20
38.522075542357932
 30
0.0
  0
VERTEX
  5
18E0
  8
SAPA_ANSLUTNING
 10
-38.497550037938709
 20
38.522075542357932
 30
0.0
 42
0.9999999999999998
  0
VERTEX
  5
18E1
  8
SAPA_ANSLUTNING
 10
-38.497550037938709
 20
35.517175618235342
 30
0.0
  0
VERTEX
  5
18E2
  8
SAPA_ANSLUTNING
 10
-26.502449962061291
 20
35.517175618235342
 30
0.0
 42
-0.9999999999999998
  0
VERTEX
  5
18E3
  8
SAPA_ANSLUTNING
 10
-26.502449962061291
 20
32.512275694112759
 30
0.0
  0
VERTEX
  5
18E4
  8
SAPA_ANSLUTNING
 10
-38.497550037938709
 20
32.512275694112759
 30
0.0
 42
0.9999999999999998
  0
VERTEX
  5
18E5
  8
SAPA_ANSLUTNING
 10
-38.497550037938709
 20
29.507375769990169
 30
0.0
  0
VERTEX
  5
18E6
  8
SAPA_ANSLUTNING
 10
-26.502449962061291
 20
29.507375769990169
 30
0.0
 42
-0.9999999999999998
  0
VERTEX
  5
18E7
  8
SAPA_ANSLUTNING
 10
-26.502449962061291
 20
26.5024758458676
 30
0.0
  0
VERTEX
  5
18E8
  8
SAPA_ANSLUTNING
 10
-38.497550037938709
 20
26.5024758458676
 30
0.0
 42
0.9999999999999998
  0
VERTEX
  5
18E9
  8
SAPA_ANSLUTNING
 10
-38.497550037938709
 20
23.49757592174501
 30
0.0
  0
VERTEX
  5
18EA
  8
SAPA_ANSLUTNING
 10
-26.502449962061291
 20
23.49757592174501
 30
0.0
 42
-0.9999999999999998
  0
VERTEX
  5
18EB
  8
SAPA_ANSLUTNING
 10
-26.502449962061291
 20
20.492675997622431
 30
0.0
  0
VERTEX
  5
18EC
  8
SAPA_ANSLUTNING
 10
-38.497550037938709
 20
20.492675997622431
 30
0.0
 42
0.9999999999999998
  0
VERTEX
  5
18ED
  8
SAPA_ANSLUTNING
 10
-38.497550037938709
 20
17.487776073499841
 30
0.0
  0
VERTEX
  5
18EE
  8
SAPA_ANSLUTNING
 10
-26.502449962061291
 20
17.487776073499841
 30
0.0
 42
-0.9999999999999998
  0
VERTEX
  5
18EF
  8
SAPA_ANSLUTNING
 10
-26.502449962061291
 20
14.48287614937726
 30
0.0
  0
VERTEX
  5
18F0
  8
SAPA_ANSLUTNING
 10
-38.497550037938709
 20
14.48287614937726
 30
0.0
 42
0.9999999999999998
  0
VERTEX
  5
18F1
  8
SAPA_ANSLUTNING
 10
-38.497550037938709
 20
11.477976225254681
 30
0.0
  0
VERTEX
  5
18F2
  8
SAPA_ANSLUTNING
 10
-26.502449962061291
 20
11.477976225254681
 30
0.0
 42
-0.9999999999999998
  0
VERTEX
  5
18F3
  8
SAPA_ANSLUTNING
 10
-26.502449962061291
 20
8.4730763011320942
 30
0.0
  0
VERTEX
  5
18F4
  8
SAPA_ANSLUTNING
 10
-38.497550037938709
 20
8.4730763011320942
 30
0.0
 42
0.9999999999999998
  0
VERTEX
  5
18F5
  8
SAPA_ANSLUTNING
 10
-38.497550037938709
 20
5.4681763770095131
 30
0.0
  0
VERTEX
  5
18F6
  8
SAPA_ANSLUTNING
 10
-26.502449962061291
 20
5.4681763770095131
 30
0.0
 42
-0.9999999999999998
  0
VERTEX
  5
18F7
  8
SAPA_ANSLUTNING
 10
-26.502449962061291
 20
2.4632764528869302
 30
0.0
  0
VERTEX
  5
18F8
  8
SAPA_ANSLUTNING
 10
-38.497550037938709
 20
2.4632764528869302
 30
0.0
 42
0.9999999999999998
  0
VERTEX
  5
18F9
  8
SAPA_ANSLUTNING
 10
-38.497550037938709
 20
-0.5416234712356527
 30
0.0
  0
VERTEX
  5
18FA
  8
SAPA_ANSLUTNING
 10
-26.502449962061291
 20
-0.5416234712356527
 30
0.0
 42
-0.9999999999999998
  0
VERTEX
  5
18FB
  8
SAPA_ANSLUTNING
 10
-26.502449962061291
 20
-3.5465233953582351
 30
0.0
  0
VERTEX
  5
18FC
  8
SAPA_ANSLUTNING
 10
-38.497550037938709
 20
-3.5465233953582351
 30
0.0
 42
0.9999999999999998
  0
VERTEX
  5
18FD
  8
SAPA_ANSLUTNING
 10
-38.497550037938709
 20
-6.5514233194808176
 30
0.0
  0
VERTEX
  5
18FE
  8
SAPA_ANSLUTNING
 10
-26.502449962061291
 20
-6.5514233194808176
 30
0.0
 42
-0.9999999999999998
  0
VERTEX
  5
18FF
  8
SAPA_ANSLUTNING
 10
-26.502449962061291
 20
-9.5563232436034014
 30
0.0
  0
VERTEX
  5
1900
  8
SAPA_ANSLUTNING
 10
-38.497550037938709
 20
-9.5563232436034014
 30
0.0
 42
0.9999999999999998
  0
VERTEX
  5
1901
  8
SAPA_ANSLUTNING
 10
-38.497550037938709
 20
-12.561223167725981
 30
0.0
  0
VERTEX
  5
1902
  8
SAPA_ANSLUTNING
 10
-26.502449962061291
 20
-12.561223167725981
 30
0.0
 42
-0.9999999999999998
  0
VERTEX
  5
1903
  8
SAPA_ANSLUTNING
 10
-26.502449962061291
 20
-15.56612309184856
 30
0.0
  0
VERTEX
  5
1904
  8
SAPA_ANSLUTNING
 10
-38.497550037938709
 20
-15.56612309184856
 30
0.0
 42
0.9999999999999998
  0
VERTEX
  5
1905
  8
SAPA_ANSLUTNING
 10
-38.497550037938709
 20
-18.57102301597115
 30
0.0
  0
VERTEX
  5
1906
  8
SAPA_ANSLUTNING
 10
-26.502449962061291
 20
-18.57102301597115
 30
0.0
 42
-0.9999999999999998
  0
VERTEX
  5
1907
  8
SAPA_ANSLUTNING
 10
-26.502449962061291
 20
-21.575922940093729
 30
0.0
  0
VERTEX
  5
1908
  8
SAPA_ANSLUTNING
 10
-38.497550037938709
 20
-21.575922940093729
 30
0.0
 42
0.9999999999999998
  0
VERTEX
  5
1909
  8
SAPA_ANSLUTNING
 10
-38.497550037938709
 20
-24.580822864216319
 30
0.0
  0
VERTEX
  5
190A
  8
SAPA_ANSLUTNING
 10
-26.502449962061291
 20
-24.580822864216319
 30
0.0
 42
-0.9999999999999998
  0
VERTEX
  5
190B
  8
SAPA_ANSLUTNING
 10
-26.502449962061291
 20
-27.585722788338899
 30
0.0
  0
VERTEX
  5
190C
  8
SAPA_ANSLUTNING
 10
-38.497550037938709
 20
-27.585722788338899
 30
0.0
 42
0.9999999999999998
  0
VERTEX
  5
190D
  8
SAPA_ANSLUTNING
 10
-38.497550037938709
 20
-30.590622712461482
 30
0.0
  0
VERTEX
  5
190E
  8
SAPA_ANSLUTNING
 10
-26.502449962061291
 20
-30.590622712461482
 30
0.0
 42
-0.9999999999999998
  0
VERTEX
  5
190F
  8
SAPA_ANSLUTNING
 10
-26.502449962061291
 20
-33.595522636584057
 30
0.0
  0
VERTEX
  5
1910
  8
SAPA_ANSLUTNING
 10
-38.497550037938709
 20
-33.595522636584057
 30
0.0
 42
0.9999999999999998
  0
VERTEX
  5
1911
  8
SAPA_ANSLUTNING
 10
-38.497550037938709
 20
-36.600422560706647
 30
0.0
  0
VERTEX
  5
1912
  8
SAPA_ANSLUTNING
 10
-26.502449962061291
 20
-36.600422560706647
 30
0.0
 42
-0.9999999999999998
  0
VERTEX
  5
1913
  8
SAPA_ANSLUTNING
 10
-26.502449962061291
 20
-39.60532248482923
 30
0.0
  0
VERTEX
  5
1914
  8
SAPA_ANSLUTNING
 10
-38.497550037938709
 20
-39.60532248482923
 30
0.0
 42
0.9999999999999998
  0
VERTEX
  5
1915
  8
SAPA_ANSLUTNING
 10
-38.497550037938709
 20
-42.610222408951813
 30
0.0
  0
VERTEX
  5
1916
  8
SAPA_ANSLUTNING
 10
-26.502449962061291
 20
-42.610222408951813
 30
0.0
 42
-0.9999999999999998
  0
VERTEX
  5
1917
  8
SAPA_ANSLUTNING
 10
-26.502449962061291
 20
-45.615122333074389
 30
0.0
  0
VERTEX
  5
1918
  8
SAPA_ANSLUTNING
 10
-38.497550037938709
 20
-45.615122333074389
 30
0.0
 42
0.9999999999999998
  0
VERTEX
  5
1919
  8
SAPA_ANSLUTNING
 10
-38.497550037938709
 20
-48.620022257196979
 30
0.0
  0
VERTEX
  5
191A
  8
SAPA_ANSLUTNING
 10
-26.502449962061291
 20
-48.620022257196979
 30
0.0
 42
-0.9999999999999998
  0
VERTEX
  5
191B
  8
SAPA_ANSLUTNING
 10
-26.502449962061291
 20
-51.624922181319562
 30
0.0
  0
VERTEX
  5
191C
  8
SAPA_ANSLUTNING
 10
-38.497550037938709
 20
-51.624922181319562
 30
0.0
 42
0.9999999999999998
  0
VERTEX
  5
191D
  8
SAPA_ANSLUTNING
 10
-38.497550037938709
 20
-54.629822105442152
 30
0.0
  0
VERTEX
  5
191E
  8
SAPA_ANSLUTNING
 10
-26.502449962061291
 20
-54.629822105442152
 30
0.0
 42
-0.9999999999999998
  0
VERTEX
  5
191F
  8
SAPA_ANSLUTNING
 10
-26.502449962061291
 20
-57.634722029564728
 30
0.0
  0
VERTEX
  5
1920
  8
SAPA_ANSLUTNING
 10
-38.497550037938709
 20
-57.634722029564728
 30
0.0
 42
0.9999999999999998
  0
VERTEX
  5
1921
  8
SAPA_ANSLUTNING
 10
-38.497550037938709
 20
-60.63962195368731
 30
0.0
  0
VERTEX
  5
1922
  8
SAPA_ANSLUTNING
 10
-26.502449962061291
 20
-60.63962195368731
 30
0.0
 42
-0.9999999999999998
  0
VERTEX
  5
1923
  8
SAPA_ANSLUTNING
 10
-26.502449962061291
 20
-63.644521877809893
 30
0.0
  0
VERTEX
  5
1924
  8
SAPA_ANSLUTNING
 10
-38.497550037938709
 20
-63.644521877809893
 30
0.0
 42
0.9999999999999998
  0
VERTEX
  5
1925
  8
SAPA_ANSLUTNING
 10
-38.497550037938709
 20
-66.649421801932476
 30
0.0
  0
VERTEX
  5
1926
  8
SAPA_ANSLUTNING
 10
-26.502449962061291
 20
-66.649421801932476
 30
0.0
 42
-0.9999999999999998
  0
VERTEX
  5
1927
  8
SAPA_ANSLUTNING
 10
-26.502449962061291
 20
-69.654321726055059
 30
0.0
  0
VERTEX
  5
1928
  8
SAPA_ANSLUTNING
 10
-38.497550037938709
 20
-69.654321726055059
 30
0.0
  0
SEQEND
  5
1929
  8
SAPA_ANSLUTNING
  0
INSERT
  5
F1F
  8
0
  2
*U118
 10
0.0
 20
0.0
 30
0.0
  0
INSERT
  5
F20
  8
0
  2
*U119
 10
0.0
 20
0.0
 30
0.0
  0
INSERT
  5
15D5
  8
BYGG-027036$0$KON
 66
     1
  2
BYGG-027036$0$RH
 10
-559.98359050052272
 20
-386.93657317286039
 30
0.0
 43
-1.0
 50
180.0
210
0.0
220
0.0
230
-1.0
  0
ATTRIB
  5
15D6
  8
BYGG-027036$0$KON
 10
563.18359050052266
 20
-392.2365731728604
 30
0.0
 40
0.3999999999999772
  1
GGFJ
  7
BYGG-027036$0$SIMPLEX
 71
     4
  2
SÄLJARE
 70
     1
  0
ATTRIB
  5
15D7
  8
BYGG-027036$0$KON
 10
563.58359050052275
 20
-388.83657317286043
 30
0.0
 40
0.3000000000000114
  1

  7
BYGG-027036$0$SIMPLEX
 71
     4
 72
     4
 11
563.58359050052275
 21
-388.83657317286043
 31
0.0
  2
DATUM
 70
     0
  0
ATTRIB
  5
15D8
  8
BYGG-027036$0$KON
 10
563.38359050052259
 20
-387.83657317286043
 30
0.0
 40
0.3999999999999772
  1

  7
BYGG-027036$0$SIMPLEX
 71
     4
 72
     4
 11
563.38359050052259
 21
-387.83657317286043
 31
0.0
  2
RITAD:
 70
     1
  0
ATTRIB
  5
15D9
  8
BYGG-027036$0$KON
 10
570.98359050052272
 20
-389.2365731728604
 30
0.0
 40
0.4399999999999978
  1

  7
BYGG-027036$0$SIMPLEX
 71
     4
 72
     4
 11
570.98359050052272
 21
-389.2365731728604
 31
0.0
  2
BENÄMNING
 70
     0
  0
ATTRIB
  5
15DA
  8
BYGG-027036$0$KON
 10
570.98359050052272
 20
-388.43657317286039
 30
0.0
 40
0.4399999999999978
  1

  7
BYGG-027036$0$SIMPLEX
 71
     4
 72
     4
 11
570.98359050052272
 21
-388.43657317286039
 31
0.0
  2
GUMMI-HÅRDHET-FÄRG
 70
     0
  0
ATTRIB
  5
15DB
  8
BYGG-027036$0$KON
 10
570.98359050052272
 20
-387.63657317286038
 30
0.0
 40
0.4399999999999978
  1

  7
BYGG-027036$0$SIMPLEX
 71
     4
 72
     4
 11
570.98359050052272
 21
-387.63657317286038
 31
0.0
  2
KUND
 70
     0
  0
ATTRIB
  5
15DC
  8
BYGG-027036$0$KON
 10
578.78359050052256
 20
-388.93657317286039
 30
0.0
 40
0.3999999999999772
  1

  7
BYGG-027036$0$SIMPLEX
 71
     4
 72
     4
 11
578.78359050052256
 21
-388.93657317286039
 31
0.0
  2
SKALA:
 70
     1
  0
ATTRIB
  5
15DD
  8
BYGG-027036$0$KON
 10
578.3835905005227
 20
-387.7365731728604
 30
0.0
 40
0.3999999999999772
  1

  7
BYGG-027036$0$SIMPLEX
 71
     4
 72
     4
 11
578.3835905005227
 21
-387.7365731728604
 31
0.0
  2
RIT.NR:
 70
     0
  0
ATTRIB
  5
15DE
  8
BYGG-027036$0$KON
 10
578.3835905005227
 20
-390.13657317286038
 30
0.0
 40
0.3999999999999772
  1

  7
BYGG-027036$0$SIMPLEX
 71
     4
 72
     4
 11
578.3835905005227
 21
-390.13657317286038
 31
0.0
  2
DET.NR:
 70
     0
  0
SEQEND
  5
15F8
  8
BYGG-027036$0$KON
  0
INSERT
  5
15DF
  8
BYGG-027036$0$KON
 66
     1
  2
BYGG-027036$0$RH
 10
-559.98359050052272
 20
-386.93657317286039
 30
0.0
 43
-1.0
 50
180.0
210
0.0
220
0.0
230
-1.0
  0
ATTRIB
  5
15E0
  8
BYGG-027036$0$KON
 10
570.98359050052272
 20
-389.2365731728604
 30
0.0
 40
0.4399999999999978
  1

  7
BYGG-027036$0$SIMPLEX
 71
     4
 72
     4
 11
570.98359050052272
 21
-389.2365731728604
 31
0.0
  2
BENÄMNING
 70
     0
  0
ATTRIB
  5
15E1
  8
BYGG-027036$0$KON
 10
570.98359050052272
 20
-388.43657317286039
 30
0.0
 40
0.4399999999999978
  1

  7
BYGG-027036$0$SIMPLEX
 71
     4
 72
     4
 11
570.98359050052272
 21
-388.43657317286039
 31
0.0
  2
GUMMI-HÅRDHET-FÄRG
 70
     0
  0
ATTRIB
  5
15E2
  8
BYGG-027036$0$KON
 10
570.98359050052272
 20
-387.63657317286038
 30
0.0
 40
0.4399999999999978
  1

  7
BYGG-027036$0$SIMPLEX
 71
     4
 72
     4
 11
570.98359050052272
 21
-387.63657317286038
 31
0.0
  2
KUND
 70
     0
  0
ATTRIB
  5
15E3
  8
BYGG-027036$0$KON
 10
578.3835905005227
 20
-387.7365731728604
 30
0.0
 40
0.3999999999999772
  1

  7
BYGG-027036$0$SIMPLEX
 71
     4
 72
     4
 11
578.3835905005227
 21
-387.7365731728604
 31
0.0
  2
RIT.NR:
 70
     0
  0
ATTRIB
  5
15E4
  8
BYGG-027036$0$KON
 10
578.3835905005227
 20
-390.13657317286038
 30
0.0
 40
0.3999999999999772
  1

  7
BYGG-027036$0$SIMPLEX
 71
     4
 72
     4
 11
578.3835905005227
 21
-390.13657317286038
 31
0.0
  2
DET.NR:
 70
     0
  0
ATTRIB
  5
15E5
  8
BYGG-027036$0$KON
 10
578.78359050052256
 20
-388.93657317286039
 30
0.0
 40
0.3999999999999772
  1

  7
BYGG-027036$0$SIMPLEX
 71
     4
 72
     4
 11
578.78359050052256
 21
-388.93657317286039
 31
0.0
  2
SKALA:
 70
     1
  0
ATTRIB
  5
15E6
  8
BYGG-027036$0$KON
 10
563.58359050052275
 20
-388.83657317286043
 30
0.0
 40
0.3000000000000114
  1

  7
BYGG-027036$0$SIMPLEX
 71
     4
 72
     4
 11
563.58359050052275
 21
-388.83657317286043
 31
0.0
  2
DATUM
 70
     0
  0
ATTRIB
  5
15E7
  8
BYGG-027036$0$KON
 10
563.38359050052259
 20
-387.83657317286043
 30
0.0
 40
0.3999999999999772
  1

  7
BYGG-027036$0$SIMPLEX
 71
     4
 72
     4
 11
563.38359050052259
 21
-387.83657317286043
 31
0.0
  2
RITAD:
 70
     1
  0
ATTRIB
  5
15E8
  8
BYGG-027036$0$KON
 10
563.18359050052266
 20
-392.2365731728604
 30
0.0
 40
0.3999999999999772
  1

  7
BYGG-027036$0$SIMPLEX
 71
     4
  2
SÄLJARE
 70
     1
  0
SEQEND
  5
15F9
  8
BYGG-027036$0$KON
  0
INSERT
  5
15E9
  8
BYGG-027036$0$DIM
 66
     1
  2
BYGG-027036$0$RH
 10
-559.98359050052272
 20
-386.93657317286039
 30
0.0
 43
-1.0
 50
180.0
210
0.0
220
0.0
230
-1.0
  0
ATTRIB
  5
15EA
  8
BYGG-027036$0$KON
 10
570.98359050052272
 20
-389.2365731728604
 30
0.0
 40
0.4399999999999978
  1

  7
BYGG-027036$0$SIMPLEX
 71
     4
 72
     4
 11
570.98359050052272
 21
-389.2365731728604
 31
0.0
  2
BENÄMNING
 70
     0
  0
ATTRIB
  5
15EB
  8
BYGG-027036$0$KON
 10
570.98359050052272
 20
-388.43657317286039
 30
0.0
 40
0.4399999999999978
  1

  7
BYGG-027036$0$SIMPLEX
 71
     4
 72
     4
 11
570.98359050052272
 21
-388.43657317286039
 31
0.0
  2
GUMMI-HÅRDHET-FÄRG
 70
     0
  0
ATTRIB
  5
15EC
  8
BYGG-027036$0$KON
 10
570.98359050052272
 20
-387.63657317286038
 30
0.0
 40
0.4399999999999978
  1

  7
BYGG-027036$0$SIMPLEX
 71
     4
 72
     4
 11
570.98359050052272
 21
-387.63657317286038
 31
0.0
  2
KUND
 70
     0
  0
ATTRIB
  5
15ED
  8
BYGG-027036$0$KON
 10
578.3835905005227
 20
-387.7365731728604
 30
0.0
 40
0.3999999999999772
  1

  7
BYGG-027036$0$SIMPLEX
 71
     4
 72
     4
 11
578.3835905005227
 21
-387.7365731728604
 31
0.0
  2
RIT.NR:
 70
     0
  0
ATTRIB
  5
15EE
  8
BYGG-027036$0$KON
 10
578.3835905005227
 20
-390.13657317286038
 30
0.0
 40
0.3999999999999772
  1

  7
BYGG-027036$0$SIMPLEX
 71
     4
 72
     4
 11
578.3835905005227
 21
-390.13657317286038
 31
0.0
  2
DET.NR:
 70
     0
  0
ATTRIB
  5
15EF
  8
BYGG-027036$0$KON
 10
578.78359050052256
 20
-388.93657317286039
 30
0.0
 40
0.3999999999999772
  1

  7
BYGG-027036$0$SIMPLEX
 71
     4
 72
     4
 11
578.78359050052256
 21
-388.93657317286039
 31
0.0
  2
SKALA:
 70
     1
  0
ATTRIB
  5
15F0
  8
BYGG-027036$0$KON
 10
563.58359050052275
 20
-388.83657317286043
 30
0.0
 40
0.3000000000000114
  1

  7
BYGG-027036$0$SIMPLEX
 71
     4
 72
     4
 11
563.58359050052275
 21
-388.83657317286043
 31
0.0
  2
DATUM
 70
     0
  0
ATTRIB
  5
15F1
  8
BYGG-027036$0$KON
 10
563.38359050052259
 20
-387.83657317286043
 30
0.0
 40
0.3999999999999772
  1

  7
BYGG-027036$0$SIMPLEX
 71
     4
 72
     4
 11
563.38359050052259
 21
-387.83657317286043
 31
0.0
  2
RITAD:
 70
     1
  0
ATTRIB
  5
15F2
  8
BYGG-027036$0$KON
 10
563.18359050052266
 20
-392.2365731728604
 30
0.0
 40
0.3999999999999772
  1

  7
BYGG-027036$0$SIMPLEX
 71
     4
  2
SÄLJARE
 70
     1
  0
SEQEND
  5
15FA
  8
BYGG-027036$0$DIM
  0
CIRCLE
  5
173E
  8
SAPA_PROFIL
 62
     2
 10
166.66796481167819
 20
-69.35800648541931
 30
0.0
 40
0.8999999999999985
  0
POLYLINE
  5
173F
  8
SAPA_PROFIL
 62
     2
 66
     1
 10
0.0
 20
0.0
 30
0.0
  0
VERTEX
  5
1F7C
  8
SAPA_PROFIL
 62
     2
 10
168.06796481167819
 20
-68.050000073846263
 30
0.0
  0
VERTEX
  5
1F7D
  8
SAPA_PROFIL
 62
     2
 10
167.87560639168581
 20
-69.140918883999007
 30
0.0
  0
VERTEX
  5
1F7E
  8
SAPA_PROFIL
 62
     2
 10
168.30740295158739
 20
-69.256618423518944
 30
0.0
 42
-0.4430158954262519
  0
VERTEX
  5
1F7F
  8
SAPA_PROFIL
 62
     2
 10
168.44287999913149
 20
-69.520094851625913
 30
0.0
  0
VERTEX
  5
1F80
  8
SAPA_PROFIL
 62
     2
 10
167.96593180591259
 20
-70.790582599544109
 30
0.0
 42
-0.3125358528825162
  0
VERTEX
  5
1F81
  8
SAPA_PROFIL
 62
     2
 10
167.59145009278319
 20
-71.050000073845808
 30
0.0
  0
VERTEX
  5
1F82
  8
SAPA_PROFIL
 62
     2
 10
165.72129477687281
 20
-71.050000073846263
 30
0.0
 42
-0.3125358528825104
  0
VERTEX
  5
1F83
  8
SAPA_PROFIL
 62
     2
 10
165.3468130637435
 20
-70.790582599544109
 30
0.0
  0
VERTEX
  5
1F84
  8
SAPA_PROFIL
 62
     2
 10
164.86986487052431
 20
-69.520094851625913
 30
0.0
 42
-0.4430158954262519
  0
VERTEX
  5
1F85
  8
SAPA_PROFIL
 62
     2
 10
165.00534191806841
 20
-69.256618423519058
 30
0.0
  0
VERTEX
  5
1F86
  8
SAPA_PROFIL
 62
     2
 10
165.43713847797019
 20
-69.140918883999007
 30
0.0
  0
VERTEX
  5
1F87
  8
SAPA_PROFIL
 62
     2
 10
165.24487243482801
 20
-68.050000073846263
 30
0.0
  0
SEQEND
  5
1F88
  8
SAPA_PROFIL
 62
     2
  0
POLYLINE
  5
1740
  8
SAPA_PROFIL
 62
     2
 66
     1
 10
0.0
 20
0.0
 30
0.0
 70
     1
  0
VERTEX
  5
1F89
  8
SAPA_PROFIL
 62
     2
 10
168.05637243482789
 20
-68.050000073846263
 30
0.0
 42
0.285714285714282
  0
VERTEX
  5
1F8A
  8
SAPA_PROFIL
 62
     2
 10
165.25637243482791
 20
-68.050000073846263
 30
0.0
  0
VERTEX
  5
1F8B
  8
SAPA_PROFIL
 62
     2
 10
163.18259226544001
 20
-68.050000073845808
 30
0.0
 42
-0.3882600129940275
  0
VERTEX
  5
1F8C
  8
SAPA_PROFIL
 62
     2
 10
162.88379076809861
 20
-67.77678934756625
 30
0.0
  0
VERTEX
  5
1F8D
  8
SAPA_PROFIL
 62
     2
 10
162.41758084417211
 20
-63.876789347566159
 30
0.0
 42
-0.4406523138893894
  0
VERTEX
  5
1F8E
  8
SAPA_PROFIL
 62
     2
 10
162.71638234151399
 20
-63.550000073846263
 30
0.0
  0
VERTEX
  5
1F8F
  8
SAPA_PROFIL
 62
     2
 10
164.42617433843429
 20
-63.550000073846263
 30
0.0
 42
-0.3394542588634375
  0
VERTEX
  5
1F90
  8
SAPA_PROFIL
 62
     2
 10
164.7159520863209
 20
-63.772354360315262
 30
0.0
  0
VERTEX
  5
1F91
  8
SAPA_PROFIL
 62
     2
 10
164.9183318142523
 20
-63.989940142482851
 30
0.0
 42
0.3394542588633663
  0
VERTEX
  5
1F92
  8
SAPA_PROFIL
 62
     2
 10
165.2081095621391
 20
-64.21229442895185
 30
0.0
  0
VERTEX
  5
1F93
  8
SAPA_PROFIL
 62
     2
 10
168.1046353075169
 20
-64.21229442895185
 30
0.0
 42
0.3394542588634373
  0
VERTEX
  5
1F94
  8
SAPA_PROFIL
 62
     2
 10
168.3944130554035
 20
-63.989940142482851
 30
0.0
  0
VERTEX
  5
1F95
  8
SAPA_PROFIL
 62
     2
 10
168.59679278333491
 20
-63.772354360315262
 30
0.0
 42
-0.3394542588633662
  0
VERTEX
  5
1F96
  8
SAPA_PROFIL
 62
     2
 10
168.88657053122171
 20
-63.550000073846263
 30
0.0
  0
VERTEX
  5
1F97
  8
SAPA_PROFIL
 62
     2
 10
170.59636252814181
 20
-63.550000073846263
 30
0.0
 42
-0.4406523138893994
  0
VERTEX
  5
1F98
  8
SAPA_PROFIL
 62
     2
 10
170.89516402548341
 20
-63.876789347566159
 30
0.0
  0
VERTEX
  5
1F99
  8
SAPA_PROFIL
 62
     2
 10
170.42895410155711
 20
-67.77678934756625
 30
0.0
 42
-0.3882600129940462
  0
VERTEX
  5
1F9A
  8
SAPA_PROFIL
 62
     2
 10
170.13015260421579
 20
-68.050000073846263
 30
0.0
  0
VERTEX
  5
1F9B
  8
SAPA_PROFIL
 62
     2
 10
168.06796481167819
 20
-68.050000073846263
 30
0.0
  0
SEQEND
  5
1F9C
  8
SAPA_PROFIL
 62
     2
  0
POLYLINE
  5
1741
  8
SAPA_PROFIL
  6
CONTINUOUS
 66
     1
 10
0.0
 20
0.0
 30
0.0
 70
     1
  0
VERTEX
  5
1F9D
  8
SAPA_PROFIL
  6
CONTINUOUS
 10
165.58311288153871
 20
10.107797028340171
 30
0.0
  0
VERTEX
  5
1F9E
  8
SAPA_PROFIL
  6
CONTINUOUS
 10
150.44457742493151
 20
10.52736051773217
 30
0.0
 42
0.2061234514950211
  0
VERTEX
  5
1F9F
  8
SAPA_PROFIL
  6
CONTINUOUS
 10
150.07717188707019
 20
10.381105827142409
 30
0.0
  0
VERTEX
  5
1FA0
  8
SAPA_PROFIL
  6
CONTINUOUS
 10
148.1464466073374
 20
8.4503805474092921
 30
0.0
 42
-0.1989123673797024
  0
VERTEX
  5
1FA1
  8
SAPA_PROFIL
  6
CONTINUOUS
 10
147.79289321674409
 20
8.3039339380024693
 30
0.0
  0
VERTEX
  5
1FA2
  8
SAPA_PROFIL
  6
CONTINUOUS
 10
143.61211517687909
 20
8.3039339380024693
 30
0.0
 42
-0.6681786379193032
  0
VERTEX
  5
1FA3
  8
SAPA_PROFIL
  6
CONTINUOUS
 10
143.43533848158251
 20
8.7307106332991076
 30
0.0
  0
VERTEX
  5
1FA4
  8
SAPA_PROFIL
  6
CONTINUOUS
 10
144.42253752080421
 20
9.7179096725207863
 30
0.0
 42
-0.4584832902918763
  0
VERTEX
  5
1FA5
  8
SAPA_PROFIL
  6
CONTINUOUS
 10
145.93373633551909
 20
9.6053077286724111
 30
0.0
 42
0.2378770156285958
  0
VERTEX
  5
1FA6
  8
SAPA_PROFIL
  6
CONTINUOUS
 10
146.13475934390161
 20
9.5039339380052148
 30
0.0
  0
VERTEX
  5
1FA7
  8
SAPA_PROFIL
  6
CONTINUOUS
 10
147.2958369418958
 20
9.5039339380029837
 30
0.0
 42
0.1989123673801665
  0
VERTEX
  5
1FA8
  8
SAPA_PROFIL
  6
CONTINUOUS
 10
147.6493903324901
 20
9.6503805474096929
 30
0.0
  0
VERTEX
  5
1FA9
  8
SAPA_PROFIL
  6
CONTINUOUS
 10
147.99999999793059
 20
10.00099021285015
 30
0.0
  0
VERTEX
  5
1FAA
  8
SAPA_PROFIL
  6
CONTINUOUS
 10
148.42680759047661
 20
10.42794704044209
 30
0.0
 42
0.1988669396406054
  0
VERTEX
  5
1FAB
  8
SAPA_PROFIL
  6
CONTINUOUS
 10
148.49999999793059
 20
10.60469283308819
 30
0.0
  0
VERTEX
  5
1FAC
  8
SAPA_PROFIL
  6
CONTINUOUS
 10
148.49999999793059
 20
10.751166039925151
 30
0.0
 42
0.4142135623733282
  0
VERTEX
  5
1FAD
  8
SAPA_PROFIL
  6
CONTINUOUS
 10
148.25000099793041
 20
11.00116503992515
 30
0.0
  0
VERTEX
  5
1FAE
  8
SAPA_PROFIL
  6
CONTINUOUS
 10
148.24999999793079
 20
11.00116503992515
 30
0.0
 42
-0.4142135623732616
  0
VERTEX
  5
1FAF
  8
SAPA_PROFIL
  6
CONTINUOUS
 10
147.99999999793059
 20
11.251165039925089
 30
0.0
  0
VERTEX
  5
1FB0
  8
SAPA_PROFIL
  6
CONTINUOUS
 10
147.99999999793059
 20
11.750064846359029
 30
0.0
 42
-0.4209003450991805
  0
VERTEX
  5
1FB1
  8
SAPA_PROFIL
  6
CONTINUOUS
 10
148.2556935086505
 20
12.00000000582196
 30
0.0
 42
0.0067990255081984
  0
VERTEX
  5
1FB2
  8
SAPA_PROFIL
  6
CONTINUOUS
 10
169.49779016963791
 20
11.80503094641338
 30
0.0
 42
-0.4155086472897409
  0
VERTEX
  5
1FB3
  8
SAPA_PROFIL
  6
CONTINUOUS
 10
169.99999999794409
 20
11.305035829778239
 30
0.0
  0
VERTEX
  5
1FB4
  8
SAPA_PROFIL
  6
CONTINUOUS
 10
169.99999999793059
 20
-26.394621398208411
 30
0.0
 42
-0.4142135623716549
  0
VERTEX
  5
1FB5
  8
SAPA_PROFIL
  6
CONTINUOUS
 10
169.6999999979306
 20
-26.69462139820973
 30
0.0
  0
VERTEX
  5
1FB6
  8
SAPA_PROFIL
  6
CONTINUOUS
 10
168.4999999979452
 20
-26.69462139820951
 30
0.0
 42
-0.4142135623732907
  0
VERTEX
  5
1FB7
  8
SAPA_PROFIL
  6
CONTINUOUS
 10
168.1999999979453
 20
-26.394621398209321
 30
0.0
  0
VERTEX
  5
1FB8
  8
SAPA_PROFIL
  6
CONTINUOUS
 10
168.19999999794609
 20
-25.1946213982099
 30
0.0
 42
0.4142135623732116
  0
VERTEX
  5
1FB9
  8
SAPA_PROFIL
  6
CONTINUOUS
 10
167.69999999794609
 20
-24.694621398209708
 30
0.0
  0
VERTEX
  5
1FBA
  8
SAPA_PROFIL
  6
CONTINUOUS
 10
158.79999999793191
 20
-24.694621398209708
 30
0.0
 42
-0.4142135623733198
  0
VERTEX
  5
1FBB
  8
SAPA_PROFIL
  6
CONTINUOUS
 10
158.49999999793201
 20
-24.394621398209519
 30
0.0
  0
VERTEX
  5
1FBC
  8
SAPA_PROFIL
  6
CONTINUOUS
 10
158.49999999793221
 20
-23.69462139820951
 30
0.0
 42
-0.4142135623728995
  0
VERTEX
  5
1FBD
  8
SAPA_PROFIL
  6
CONTINUOUS
 10
158.79999999793219
 20
-23.394621398209701
 30
0.0
  0
VERTEX
  5
1FBE
  8
SAPA_PROFIL
  6
CONTINUOUS
 10
167.9999999979355
 20
-23.394621398209811
 30
0.0
 42
0.4142135623716508
  0
VERTEX
  5
1FBF
  8
SAPA_PROFIL
  6
CONTINUOUS
 10
168.4999999979307
 20
-22.894621398209789
 30
0.0
  0
VERTEX
  5
1FC0
  8
SAPA_PROFIL
  6
CONTINUOUS
 10
168.4999999979307
 20
-5.4960660619949202
 30
0.0
 42
0.41421356237163
  0
VERTEX
  5
1FC1
  8
SAPA_PROFIL
  6
CONTINUOUS
 10
167.99999999793059
 20
-4.9960660619974213
 30
0.0
  0
VERTEX
  5
1FC2
  8
SAPA_PROFIL
  6
CONTINUOUS
 10
146.08582707856621
 20
-4.9960660619974284
 30
0.0
 42
0.4663076581592616
  0
VERTEX
  5
1FC3
  8
SAPA_PROFIL
  6
CONTINUOUS
 10
145.7903847526625
 20
-5.3481605152974261
 30
0.0
  0
VERTEX
  5
1FC4
  8
SAPA_PROFIL
  6
CONTINUOUS
 10
145.89544232383409
 20
-5.9439716086961063
 30
0.0
 42
-0.7332303362587812
  0
VERTEX
  5
1FC5
  8
SAPA_PROFIL
  6
CONTINUOUS
 10
145.38786796357471
 20
-6.208198096353545
 30
0.0
  0
VERTEX
  5
1FC6
  8
SAPA_PROFIL
  6
CONTINUOUS
 10
143.38786796357729
 20
-4.208198096356031
 30
0.0
 42
-0.6681786379237062
  0
VERTEX
  5
1FC7
  8
SAPA_PROFIL
  6
CONTINUOUS
 10
143.59999999793069
 20
-3.6960660619975441
 30
0.0
  0
VERTEX
  5
1FC8
  8
SAPA_PROFIL
  6
CONTINUOUS
 10
167.99999999793059
 20
-3.6960660619975232
 30
0.0
 42
0.4142135623716217
  0
VERTEX
  5
1FC9
  8
SAPA_PROFIL
  6
CONTINUOUS
 10
168.49999999793059
 20
-3.1960660619950221
 30
0.0
  0
VERTEX
  5
1FCA
  8
SAPA_PROFIL
  6
CONTINUOUS
 10
168.4999999979307
 20
7.1089485412407809
 30
0.0
 42
0.40612121347231
  0
SEQEND
  5
1FCB
  8
SAPA_PROFIL
  6
CONTINUOUS
  0
POLYLINE
  5
1742
  8
SAPA_PROFIL
 62
     2
 10
165.89999999794571
 20
-30.34462141152185
 30
0.0
 66
     1
 70
     8
  0
VERTEX
  8
SAPA_PROFIL
  5
2888
 10
165.900
 20
-30.3446
 30
0.000000
  70
    32
  0
VERTEX
  8
SAPA_PROFIL
  5
2889
 10
165.896
 20
-30.4428
 30
0.000000
  70
    32
  0
VERTEX
  8
SAPA_PROFIL
  5
288A
 10
165.883
 20
-30.5407
 30
0.000000
  70
    32
  0
VERTEX
  8
SAPA_PROFIL
  5
288B
 10
165.862
 20
-30.6381
 30
0.000000
  70
    32
  0
VERTEX
  8
SAPA_PROFIL
  5
288C
 10
165.833
 20
-30.7348
 30
0.000000
  70
    32
  0
VERTEX
  8
SAPA_PROFIL
  5
288D
 10
165.795
 20
-30.8306
 30
0.000000
  70
    32
  0
VERTEX
  8
SAPA_PROFIL
  5
288E
 10
165.749
 20
-30.9252
 30
0.000000
  70
    32
  0
VERTEX
  8
SAPA_PROFIL
  5
288F
 10
165.695
 20
-31.0184
 30
0.000000
  70
    32
  0
VERTEX
  8
SAPA_PROFIL
  5
2890
 10
165.634
 20
-31.1100
 30
0.000000
  70
    32
  0
VERTEX
  8
SAPA_PROFIL
  5
2891
 10
165.564
 20
-31.1997
 30
0.000000
  70
    32
  0
VERTEX
  8
SAPA_PROFIL
  5
2892
 10
165.487
 20
-31.2874
 30
0.000000
  70
    32
  0
VERTEX
  8
SAPA_PROFIL
  5
2893
 10
165.402
 20
-31.3728
 30
0.000000
  70
    32
  0
VERTEX
  8
SAPA_PROFIL
  5
2894
 10
165.310
 20
-31.4558
 30
0.000000
  70
    32
  0
VERTEX
  8
SAPA_PROFIL
  5
2895
 10
165.211
 20
-31.5360
 30
0.000000
  70
    32
  0
VERTEX
  8
SAPA_PROFIL
  5
2896
 10
165.106
 20
-31.6134
 30
0.000000
  70
    32
  0
VERTEX
  8
SAPA_PROFIL
  5
2897
 10
164.993
 20
-31.6877
 30
0.000000
  70
    32
  0
VERTEX
  8
SAPA_PROFIL
  5
2898
 10
164.875
 20
-31.7588
 30
0.000000
  70
    32
  0
VERTEX
  8
SAPA_PROFIL
  5
2899
 10
164.750
 20
-31.8265
 30
0.000000
  70
    32
  0
VERTEX
  8
SAPA_PROFIL
  5
289A
 10
164.620
 20
-31.8906
 30
0.000000
  70
    32
  0
VERTEX
  8
SAPA_PROFIL
  5
289B
 10
164.485
 20
-31.9510
 30
0.000000
  70
    32
  0
VERTEX
  8
SAPA_PROFIL
  5
289C
 10
164.344
 20
-32.0076
 30
0.000000
  70
    32
  0
VERTEX
  8
SAPA_PROFIL
  5
289D
 10
164.199
 20
-32.0601
 30
0.000000
  70
    32
  0
VERTEX
  8
SAPA_PROFIL
  5
289E
 10
164.050
 20
-32.1085
 30
0.000000
  70
    32
  0
VERTEX
  8
SAPA_PROFIL
  5
289F
 10
163.896
 20
-32.1526
 30
0.000000
  70
    32
  0
VERTEX
  8
SAPA_PROFIL
  5
28A0
 10
163.739
 20
-32.1924
 30
0.000000
  70
    32
  0
VERTEX
  8
SAPA_PROFIL
  5
28A1
 10
163.579
 20
-32.2277
 30
0.000000
  70
    32
  0
VERTEX
  8
SAPA_PROFIL
  5
28A2
 10
163.416
 20
-32.2585
 30
0.000000
  70
    32
  0
VERTEX
  8
SAPA_PROFIL
  5
28A3
 10
163.250
 20
-32.2847
 30
0.000000
  70
    32
  0
VERTEX
  8
SAPA_PROFIL
  5
28A4
 10
163.083
 20
-32.3062
 30
0.000000
  70
    32
  0
VERTEX
  8
SAPA_PROFIL
  5
28A5
 10
162.914
 20
-32.3230
 30
0.000000
  70
    32
  0
VERTEX
  8
SAPA_PROFIL
  5
28A6
 10
162.743
 20
-32.3350
 30
0.000000
  70
    32
  0
VERTEX
  8
SAPA_PROFIL
  5
28A7
 10
162.572
 20
-32.3422
 30
0.000000
  70
    32
  0
VERTEX
  8
SAPA_PROFIL
  5
28A8
 10
162.400
 20
-32.3446
 30
0.000000
  70
    32
  0
VERTEX
  8
SAPA_PROFIL
  5
28A9
 10
162.228
 20
-32.3422
 30
0.000000
  70
    32
  0
VERTEX
  8
SAPA_PROFIL
  5
28AA
 10
162.057
 20
-32.3350
 30
0.000000
  70
    32
  0
VERTEX
  8
SAPA_PROFIL
  5
28AB
 10
161.886
 20
-32.3230
 30
0.000000
  70
    32
  0
VERTEX
  8
SAPA_PROFIL
  5
28AC
 10
161.717
 20
-32.3062
 30
0.000000
  70
    32
  0
VERTEX
  8
SAPA_PROFIL
  5
28AD
 10
161.550
 20
-32.2847
 30
0.000000
  70
    32
  0
VERTEX
  8
SAPA_PROFIL
  5
28AE
 10
161.384
 20
-32.2585
 30
0.000000
  70
    32
  0
VERTEX
  8
SAPA_PROFIL
  5
28AF
 10
161.221
 20
-32.2277
 30
0.000000
  70
    32
  0
VERTEX
  8
SAPA_PROFIL
  5
28B0
 10
161.061
 20
-32.1924
 30
0.000000
  70
    32
  0
VERTEX
  8
SAPA_PROFIL
  5
28B1
 10
160.904
 20
-32.1526
 30
0.000000
  70
    32
  0
VERTEX
  8
SAPA_PROFIL
  5
28B2
 10
160.750
 20
-32.1085
 30
0.000000
  70
    32
  0
VERTEX
  8
SAPA_PROFIL
  5
28B3
 10
160.601
 20
-32.0601
 30
0.000000
  70
    32
  0
VERTEX
  8
SAPA_PROFIL
  5
28B4
 10
160.456
 20
-32.0076
 30
0.000000
  70
    32
  0
VERTEX
  8
SAPA_PROFIL
  5
28B5
 10
160.315
 20
-31.9510
 30
0.000000
  70
    32
  0
VERTEX
  8
SAPA_PROFIL
  5
28B6
 10
160.180
 20
-31.8906
 30
0.000000
  70
    32
  0
VERTEX
  8
SAPA_PROFIL
  5
28B7
 10
160.050
 20
-31.8265
 30
0.000000
  70
    32
  0
VERTEX
  8
SAPA_PROFIL
  5
28B8
 10
159.925
 20
-31.7588
 30
0.000000
  70
    32
  0
VERTEX
  8
SAPA_PROFIL
  5
28B9
 10
159.807
 20
-31.6877
 30
0.000000
  70
    32
  0
VERTEX
  8
SAPA_PROFIL
  5
28BA
 10
159.694
 20
-31.6134
 30
0.000000
  70
    32
  0
VERTEX
  8
SAPA_PROFIL
  5
28BB
 10
159.589
 20
-31.5360
 30
0.000000
  70
    32
  0
VERTEX
  8
SAPA_PROFIL
  5
28BC
 10
159.490
 20
-31.4558
 30
0.000000
  70
    32
  0
VERTEX
  8
SAPA_PROFIL
  5
28BD
 10
159.398
 20
-31.3728
 30
0.000000
  70
    32
  0
VERTEX
  8
SAPA_PROFIL
  5
28BE
 10
159.313
 20
-31.2874
 30
0.000000
  70
    32
  0
VERTEX
  8
SAPA_PROFIL
  5
28BF
 10
159.236
 20
-31.1997
 30
0.000000
  70
    32
  0
VERTEX
  8
SAPA_PROFIL
  5
28C0
 10
159.166
 20
-31.1100
 30
0.000000
  70
    32
  0
VERTEX
  8
SAPA_PROFIL
  5
28C1
 10
159.105
 20
-31.0184
 30
0.000000
  70
    32
  0
VERTEX
  8
SAPA_PROFIL
  5
28C2
 10
159.051
 20
-30.9252
 30
0.000000
  70
    32
  0
VERTEX
  8
SAPA_PROFIL
  5
28C3
 10
159.005
 20
-30.8306
 30
0.000000
  70
    32
  0
VERTEX
  8
SAPA_PROFIL
  5
28C4
 10
158.967
 20
-30.7348
 30
0.000000
  70
    32
  0
VERTEX
  8
SAPA_PROFIL
  5
28C5
 10
158.938
 20
-30.6381
 30
0.000000
  70
    32
  0
VERTEX
  8
SAPA_PROFIL
  5
28C6
 10
158.917
 20
-30.5407
 30
0.000000
  70
    32
  0
VERTEX
  8
SAPA_PROFIL
  5
28C7
 10
158.904
 20
-30.4428
 30
0.000000
  70
    32
  0
VERTEX
  8
SAPA_PROFIL
  5
28C8
 10
158.900
 20
-30.3446
 30
0.000000
  70
    32
  0
VERTEX
  8
SAPA_PROFIL
  5
28C9
 10
158.904
 20
-30.2465
 30
0.000000
  70
    32
  0
VERTEX
  8
SAPA_PROFIL
  5
28CA
 10
158.917
 20
-30.1486
 30
0.000000
  70
    32
  0
VERTEX
  8
SAPA_PROFIL
  5
28CB
 10
158.938
 20
-30.0512
 30
0.000000
  70
    32
  0
VERTEX
  8
SAPA_PROFIL
  5
28CC
 10
158.967
 20
-29.9544
 30
0.000000
  70
    32
  0
VERTEX
  8
SAPA_PROFIL
  5
28CD
 10
159.005
 20
-29.8587
 30
0.000000
  70
    32
  0
VERTEX
  8
SAPA_PROFIL
  5
28CE
 10
159.051
 20
-29.7641
 30
0.000000
  70
    32
  0
VERTEX
  8
SAPA_PROFIL
  5
28CF
 10
159.105
 20
-29.6708
 30
0.000000
  70
    32
  0
VERTEX
  8
SAPA_PROFIL
  5
28D0
 10
159.166
 20
-29.5793
 30
0.000000
  70
    32
  0
VERTEX
  8
SAPA_PROFIL
  5
28D1
 10
159.236
 20
-29.4895
 30
0.000000
  70
    32
  0
VERTEX
  8
SAPA_PROFIL
  5
28D2
 10
159.313
 20
-29.4018
 30
0.000000
  70
    32
  0
VERTEX
  8
SAPA_PROFIL
  5
28D3
 10
159.398
 20
-29.3164
 30
0.000000
  70
    32
  0
VERTEX
  8
SAPA_PROFIL
  5
28D4
 10
159.490
 20
-29.2335
 30
0.000000
  70
    32
  0
VERTEX
  8
SAPA_PROFIL
  5
28D5
 10
159.589
 20
-29.1532
 30
0.000000
  70
    32
  0
VERTEX
  8
SAPA_PROFIL
  5
28D6
 10
159.694
 20
-29.0758
 30
0.000000
  70
    32
  0
VERTEX
  8
SAPA_PROFIL
  5
28D7
 10
159.807
 20
-29.0015
 30
0.000000
  70
    32
  0
VERTEX
  8
SAPA_PROFIL
  5
28D8
 10
159.925
 20
-28.9304
 30
0.000000
  70
    32
  0
VERTEX
  8
SAPA_PROFIL
  5
28D9
 10
160.050
 20
-28.8627
 30
0.000000
  70
    32
  0
VERTEX
  8
SAPA_PROFIL
  5
28DA
 10
160.180
 20
-28.7986
 30
0.000000
  70
    32
  0
VERTEX
  8
SAPA_PROFIL
  5
28DB
 10
160.315
 20
-28.7382
 30
0.000000
  70
    32
  0
VERTEX
  8
SAPA_PROFIL
  5
28DC
 10
160.456
 20
-28.6817
 30
0.000000
  70
    32
  0
VERTEX
  8
SAPA_PROFIL
  5
28DD
 10
160.601
 20
-28.6292
 30
0.000000
  70
    32
  0
VERTEX
  8
SAPA_PROFIL
  5
28DE
 10
160.750
 20
-28.5808
 30
0.000000
  70
    32
  0
VERTEX
  8
SAPA_PROFIL
  5
28DF
 10
160.904
 20
-28.5366
 30
0.000000
  70
    32
  0
VERTEX
  8
SAPA_PROFIL
  5
28E0
 10
161.061
 20
-28.4969
 30
0.000000
  70
    32
  0
VERTEX
  8
SAPA_PROFIL
  5
28E1
 10
161.221
 20
-28.4615
 30
0.000000
  70
    32
  0
VERTEX
  8
SAPA_PROFIL
  5
28E2
 10
161.384
 20
-28.4307
 30
0.000000
  70
    32
  0
VERTEX
  8
SAPA_PROFIL
  5
28E3
 10
161.550
 20
-28.4046
 30
0.000000
  70
    32
  0
VERTEX
  8
SAPA_PROFIL
  5
28E4
 10
161.717
 20
-28.3831
 30
0.000000
  70
    32
  0
VERTEX
  8
SAPA_PROFIL
  5
28E5
 10
161.886
 20
-28.3663
 30
0.000000
  70
    32
  0
VERTEX
  8
SAPA_PROFIL
  5
28E6
 10
162.057
 20
-28.3543
 30
0.000000
  70
    32
  0
VERTEX
  8
SAPA_PROFIL
  5
28E7
 10
162.228
 20
-28.3470
 30
0.000000
  70
    32
  0
VERTEX
  8
SAPA_PROFIL
  5
28E8
 10
162.400
 20
-28.3446
 30
0.000000
  70
    32
  0
VERTEX
  8
SAPA_PROFIL
  5
28E9
 10
162.572
 20
-28.3470
 30
0.000000
  70
    32
  0
VERTEX
  8
SAPA_PROFIL
  5
28EA
 10
162.743
 20
-28.3543
 30
0.000000
  70
    32
  0
VERTEX
  8
SAPA_PROFIL
  5
28EB
 10
162.914
 20
-28.3663
 30
0.000000
  70
    32
  0
VERTEX
  8
SAPA_PROFIL
  5
28EC
 10
163.083
 20
-28.3831
 30
0.000000
  70
    32
  0
VERTEX
  8
SAPA_PROFIL
  5
28ED
 10
163.250
 20
-28.4046
 30
0.000000
  70
    32
  0
VERTEX
  8
SAPA_PROFIL
  5
28EE
 10
163.416
 20
-28.4307
 30
0.000000
  70
    32
  0
VERTEX
  8
SAPA_PROFIL
  5
28EF
 10
163.579
 20
-28.4615
 30
0.000000
  70
    32
  0
VERTEX
  8
SAPA_PROFIL
  5
28F0
 10
163.739
 20
-28.4969
 30
0.000000
  70
    32
  0
VERTEX
  8
SAPA_PROFIL
  5
28F1
 10
163.896
 20
-28.5366
 30
0.000000
  70
    32
  0
VERTEX
  8
SAPA_PROFIL
  5
28F2
 10
164.050
 20
-28.5808
 30
0.000000
  70
    32
  0
VERTEX
  8
SAPA_PROFIL
  5
28F3
 10
164.199
 20
-28.6292
 30
0.000000
  70
    32
  0
VERTEX
  8
SAPA_PROFIL
  5
28F4
 10
164.344
 20
-28.6817
 30
0.000000
  70
    32
  0
VERTEX
  8
SAPA_PROFIL
  5
28F5
 10
164.485
 20
-28.7382
 30
0.000000
  70
    32
  0
VERTEX
  8
SAPA_PROFIL
  5
28F6
 10
164.620
 20
-28.7986
 30
0.000000
  70
    32
  0
VERTEX
  8
SAPA_PROFIL
  5
28F7
 10
164.750
 20
-28.8627
 30
0.000000
  70
    32
  0
VERTEX
  8
SAPA_PROFIL
  5
28F8
 10
164.875
 20
-28.9304
 30
0.000000
  70
    32
  0
VERTEX
  8
SAPA_PROFIL
  5
28F9
 10
164.993
 20
-29.0015
 30
0.000000
  70
    32
  0
VERTEX
  8
SAPA_PROFIL
  5
28FA
 10
165.106
 20
-29.0758
 30
0.000000
  70
    32
  0
VERTEX
  8
SAPA_PROFIL
  5
28FB
 10
165.211
 20
-29.1532
 30
0.000000
  70
    32
  0
VERTEX
  8
SAPA_PROFIL
  5
28FC
 10
165.310
 20
-29.2335
 30
0.000000
  70
    32
  0
VERTEX
  8
SAPA_PROFIL
  5
28FD
 10
165.402
 20
-29.3164
 30
0.000000
  70
    32
  0
VERTEX
  8
SAPA_PROFIL
  5
28FE
 10
165.487
 20
-29.4018
 30
0.000000
  70
    32
  0
VERTEX
  8
SAPA_PROFIL
  5
28FF
 10
165.564
 20
-29.4895
 30
0.000000
  70
    32
  0
VERTEX
  8
SAPA_PROFIL
  5
2900
 10
165.634
 20
-29.5793
 30
0.000000
  70
    32
  0
VERTEX
  8
SAPA_PROFIL
  5
2901
 10
165.695
 20
-29.6708
 30
0.000000
  70
    32
  0
VERTEX
  8
SAPA_PROFIL
  5
2902
 10
165.749
 20
-29.7641
 30
0.000000
  70
    32
  0
VERTEX
  8
SAPA_PROFIL
  5
2903
 10
165.795
 20
-29.8587
 30
0.000000
  70
    32
  0
VERTEX
  8
SAPA_PROFIL
  5
2904
 10
165.833
 20
-29.9544
 30
0.000000
  70
    32
  0
VERTEX
  8
SAPA_PROFIL
  5
2905
 10
165.862
 20
-30.0512
 30
0.000000
  70
    32
  0
VERTEX
  8
SAPA_PROFIL
  5
2906
 10
165.883
 20
-30.1486
 30
0.000000
  70
    32
  0
VERTEX
  8
SAPA_PROFIL
  5
2907
 10
165.896
 20
-30.2465
 30
0.000000
  70
    32
  0
VERTEX
  8
SAPA_PROFIL
  5
2908
 10
165.900
 20
-30.3446
 30
0.000000
  70
    32
  0
SEQEND
  8
SAPA_PROFIL
  5
2909
  0
POLYLINE
  5
1743
  8
SAPA_PROFIL
 62
     2
 66
     1
 10
0.0
 20
0.0
 30
0.0
 70
     1
  0
VERTEX
  5
1FCC
  8
SAPA_PROFIL
 62
     2
 10
157.5812192343196
 20
-24.694621398209328
 30
0.0
  0
VERTEX
  5
1FCD
  8
SAPA_PROFIL
 62
     2
 10
167.89999999794551
 20
-24.694621398209328
 30
0.0
 42
-0.4142135623730951
  0
VERTEX
  5
1FCE
  8
SAPA_PROFIL
 62
     2
 10
168.1999999979455
 20
-24.99462139820934
 30
0.0
  0
VERTEX
  5
1FCF
  8
SAPA_PROFIL
 62
     2
 10
168.1999999979455
 20
-26.694621398209339
 30
0.0
  0
VERTEX
  5
1FD0
  8
SAPA_PROFIL
 62
     2
 10
170.01370008986589
 20
-26.694621398209339
 30
0.0
 42
-0.4005932428724212
  0
VERTEX
  5
1FD1
  8
SAPA_PROFIL
 62
     2
 10
170.31337265758589
 20
-26.98060882685008
 30
0.0
  0
VERTEX
  5
1FD2
  8
SAPA_PROFIL
 62
     2
 10
170.79967256566559
 20
-36.180608826850083
 30
0.0
 42
-0.427966335106886
  0
VERTEX
  5
1FD3
  8
SAPA_PROFIL
 62
     2
 10
170.49999999794551
 20
-36.49462139820934
 30
0.0
  0
VERTEX
  5
1FD4
  8
SAPA_PROFIL
 62
     2
 10
156.81953534864681
 20
-36.49462139820934
 30
0.0
 42
-0.0195279011117891
  0
VERTEX
  5
1FD5
  8
SAPA_PROFIL
 62
     2
 10
156.78052419853361
 20
-36.493097205211889
 30
0.0
  0
VERTEX
  5
1FD6
  8
SAPA_PROFIL
 62
     2
 10
148.77197769771911
 20
-35.666776174713362
 30
0.0
 42
-0.3915187749346392
  0
VERTEX
  5
1FD7
  8
SAPA_PROFIL
 62
     2
 10
147.8499999979455
 20
-34.669824560708271
 30
0.0
  0
VERTEX
  5
1FD8
  8
SAPA_PROFIL
 62
     2
 10
147.8499999979455
 20
-32.375127943545053
 30
0.0
 42
-0.2613472755167645
  0
VERTEX
  5
1FD9
  8
SAPA_PROFIL
 62
     2
 10
148.08939084342131
 20
-31.948416250972439
 30
0.0
  0
VERTEX
  5
1FDA
  8
SAPA_PROFIL
 62
     2
 10
157.0600009252712
 20
-24.841198013064119
 30
0.0
 42
-0.1379343940649207
  0
SEQEND
  5
1FDB
  8
SAPA_PROFIL
 62
     2
  0
POLYLINE
  5
1744
  8
SAPA_PROFIL
 66
     1
 10
0.0
 20
0.0
 30
0.0
 70
     1
  0
VERTEX
  5
1FDC
  8
SAPA_PROFIL
 10
97.545009244861305
 20
-8.4999999929718353
 30
0.0
  0
VERTEX
  5
1FDD
  8
SAPA_PROFIL
 10
101.3977956493615
 20
-8.4999999929718442
 30
0.0
 42
-0.4142135623731784
  0
VERTEX
  5
1FDE
  8
SAPA_PROFIL
 10
101.69779564936159
 20
-8.7999999929719142
 30
0.0
  0
VERTEX
  5
1FDF
  8
SAPA_PROFIL
 10
101.6977956493615
 20
-9.0999999929722666
 30
0.0
  0
VERTEX
  5
1FE0
  8
SAPA_PROFIL
 10
100.7740352186581
 20
-10.69999999297189
 30
0.0
 42
0.5773502691887984
  0
VERTEX
  5
1FE1
  8
SAPA_PROFIL
 10
100.9472402994151
 20
-10.999999992971841
 30
0.0
  0
VERTEX
  5
1FE2
  8
SAPA_PROFIL
 10
102.33288094547009
 20
-10.999999992971841
 30
0.0
 42
0.2679491924311038
  0
VERTEX
  5
1FE3
  8
SAPA_PROFIL
 10
103.1989063492545
 20
-10.49999999297202
 30
0.0
  0
VERTEX
  5
1FE4
  8
SAPA_PROFIL
 10
104.20926931882769
 20
-8.7499999955850551
 30
0.0
 42
-0.2679491932396976
  0
VERTEX
  5
1FE5
  8
SAPA_PROFIL
 10
104.6422820222289
 20
-8.4999999955850303
 30
0.0
  0
VERTEX
  5
1FE6
  8
SAPA_PROFIL
 10
137.2803847556599
 20
-8.4999999955850694
 30
0.0
  0
VERTEX
  5
1FE7
  8
SAPA_PROFIL
 10
137.7999999979306
 20
-8.1999999955850722
 30
0.0
  0
VERTEX
  5
1FE8
  8
SAPA_PROFIL
 10
138.31961524020119
 20
-8.4999999955850694
 30
0.0
  0
VERTEX
  5
1FE9
  8
SAPA_PROFIL
 10
138.6577179736326
 20
-8.4999999955850711
 30
0.0
 42
-0.2679491916226445
  0
VERTEX
  5
1FEA
  8
SAPA_PROFIL
 10
139.09073067552481
 20
-8.7499999929719792
 30
0.0
  0
VERTEX
  5
1FEB
  8
SAPA_PROFIL
 10
140.10109364660681
 20
-10.499999992971979
 30
0.0
 42
0.2679491924311319
  0
VERTEX
  5
1FEC
  8
SAPA_PROFIL
 10
140.9671190503912
 20
-10.999999992971921
 30
0.0
  0
VERTEX
  5
1FED
  8
SAPA_PROFIL
 10
142.35275969644621
 20
-10.999999992971929
 30
0.0
 42
0.5773502691893683
  0
VERTEX
  5
1FEE
  8
SAPA_PROFIL
 10
142.52596477720331
 20
-10.69999999297198
 30
0.0
  0
VERTEX
  5
1FEF
  8
SAPA_PROFIL
 10
141.6022043464998
 20
-9.0999999929719362
 30
0.0
  0
VERTEX
  5
1FF0
  8
SAPA_PROFIL
 10
141.6022043464998
 20
-8.7999999929719959
 30
0.0
 42
-0.4142135623732059
  0
VERTEX
  5
1FF1
  8
SAPA_PROFIL
 10
141.90220434650001
 20
-8.4999999929719312
 30
0.0
  0
VERTEX
  5
1FF2
  8
SAPA_PROFIL
 10
145.75499075100009
 20
-8.4999999929719383
 30
0.0
 42
0.2134217652834387
  0
VERTEX
  5
1FF3
  8
SAPA_PROFIL
 10
145.9785975487502
 20
-8.3999999929718161
 30
0.0
 42
-0.7625858545243238
  0
VERTEX
  5
1FF4
  8
SAPA_PROFIL
 10
146.30892362976721
 20
-8.5845791951692991
 30
0.0
  0
VERTEX
  5
1FF5
  8
SAPA_PROFIL
 10
146.25084999277809
 20
-8.7759621951630198
 30
0.0
  0
VERTEX
  5
1FF6
  8
SAPA_PROFIL
 10
145.1662855458064
 20
-10.66180588702407
 30
0.0
  0
VERTEX
  5
1FF7
  8
SAPA_PROFIL
 10
144.8445278175881
 20
-10.651244520797089
 30
0.0
 42
0.5773502691897466
  0
VERTEX
  5
1FF8
  8
SAPA_PROFIL
 10
144.66157407747789
 20
-10.94540082105193
 30
0.0
  0
VERTEX
  5
1FF9
  8
SAPA_PROFIL
 10
144.81370798858671
 20
-11.23008310428358
 30
0.0
 42
0.221694662643019
  0
VERTEX
  5
1FFA
  8
SAPA_PROFIL
 10
145.3545878200635
 20
-11.63589200943836
 30
0.0
  0
VERTEX
  5
1FFB
  8
SAPA_PROFIL
 10
147.1678182907217
 20
-12.01733860556609
 30
0.0
 42
0.476975532698164
  0
VERTEX
  5
1FFC
  8
SAPA_PROFIL
 10
147.5394751656676
 20
-11.715085781059621
 30
0.0
  0
VERTEX
  5
1FFD
  8
SAPA_PROFIL
 10
147.539391557784
 20
-10.211984700297609
 30
0.0
  0
VERTEX
  5
1FFE
  8
SAPA_PROFIL
 10
147.49154580778551
 20
-10.19746629105051
 30
0.0
 42
-0.4142135623730951
  0
VERTEX
  5
1FFF
  8
SAPA_PROFIL
 10
147.29158176327809
 20
-9.8232813355746966
 30
0.0
  0
VERTEX
  5
2000
  8
SAPA_PROFIL
 10
147.79999999793071
 20
-8.5078676157293156
 30
0.0
  0
VERTEX
  5
2001
  8
SAPA_PROFIL
 10
147.79999999793051
 20
-5.5097167545557726
 30
0.0
 42
0.2562769736732418
  0
VERTEX
  5
2002
  8
SAPA_PROFIL
 10
147.70746899961509
 20
-5.3410442503444289
 30
0.0
  0
VERTEX
  5
2003
  8
SAPA_PROFIL
 10
146.4612035004574
 20
-4.5469912441678151
 30
0.0
 42
0.5920056181180006
  0
VERTEX
  5
2004
  8
SAPA_PROFIL
 10
145.9999999979307
 20
-4.8000000004848866
 30
0.0
  0
VERTEX
  5
2005
  8
SAPA_PROFIL
 10
145.9999999979307
 20
-6.2000000004848639
 30
0.0
 42
-0.4142135623731505
  0
VERTEX
  5
2006
  8
SAPA_PROFIL
 10
145.69999999793069
 20
-6.5000000004849037
 30
0.0
  0
VERTEX
  5
2007
  8
SAPA_PROFIL
 10
143.2999999979308
 20
-6.5000000004847553
 30
0.0
 42
-0.4142135623729841
  0
VERTEX
  5
2008
  8
SAPA_PROFIL
 10
142.99999999793079
 20
-6.2000000004848568
 30
0.0
  0
VERTEX
  5
2009
  8
SAPA_PROFIL
 10
142.99999999793079
 20
11.1999999995152
 30
0.0
 42
-0.4142135623730882
  0
VERTEX
  5
200A
  8
SAPA_PROFIL
 10
143.2999999979308
 20
11.499999999515209
 30
0.0
  0
VERTEX
  5
200B
  8
SAPA_PROFIL
 10
145.69999999793089
 20
11.49999999951519
 30
0.0
 42
-0.4142135623730118
  0
VERTEX
  5
200C
  8
SAPA_PROFIL
 10
145.9999999979307
 20
11.19999999951512
 30
0.0
  0
VERTEX
  5
200D
  8
SAPA_PROFIL
 10
145.9999999979307
 20
9.7999999995151068
 30
0.0
 42
0.5877032589249656
  0
VERTEX
  5
200E
  8
SAPA_PROFIL
 10
146.4579602050583
 20
9.5449537822049955
 30
0.0
  0
VERTEX
  5
200F
  8
SAPA_PROFIL
 10
147.90530680268259
 20
10.44135275944719
 30
0.0
 42
0.2596812337301635
  0
VERTEX
  5
2010
  8
SAPA_PROFIL
 10
147.99999999793079
 20
10.611383570987289
 30
0.0
  0
VERTEX
  5
2011
  8
SAPA_PROFIL
 10
147.99999999793079
 20
13.30000000434671
 30
0.0
 42
0.4142135623732095
  0
VERTEX
  5
2012
  8
SAPA_PROFIL
 10
147.7999999979308
 20
13.500000004346701
 30
0.0
  0
VERTEX
  5
2013
  8
SAPA_PROFIL
 10
104.9999985037806
 20
13.50000000434679
 30
0.0
 42
0.4142135623730067
  0
VERTEX
  5
2014
  8
SAPA_PROFIL
 10
102.9999999979306
 20
11.5000014984973
 30
0.0
  0
VERTEX
  5
2015
  8
SAPA_PROFIL
 10
102.9999999979306
 20
5.7999992572718808
 30
0.0
 42
-0.4142135623729993
  0
VERTEX
  5
2016
  8
SAPA_PROFIL
 10
102.00000074500559
 20
4.8000000043467903
 30
0.0
  0
VERTEX
  5
2017
  8
SAPA_PROFIL
 10
94.498980997930545
 20
4.8000000043469049
 30
0.0
 42
0.4142135623730951
  0
VERTEX
  5
2018
  8
SAPA_PROFIL
 10
93.498980997930616
 20
3.8000000043468929
 30
0.0
  0
VERTEX
  5
2019
  8
SAPA_PROFIL
 10
93.498980997930616
 20
3.3022248549319162
 30
0.0
 42
0.4142135623729598
  0
VERTEX
  5
201A
  8
SAPA_PROFIL
 10
93.698980848515632
 20
3.1022250043468151
 30
0.0
  0
VERTEX
  5
201B
  8
SAPA_PROFIL
 10
95.296831561109286
 20
3.102225004346896
 30
0.0
 42
-0.414645992438811
  0
VERTEX
  5
201C
  8
SAPA_PROFIL
 10
95.496831343197755
 20
2.9019297678863629
 30
0.0
  0
VERTEX
  5
201D
  8
SAPA_PROFIL
 10
95.498387850139594
 20
-8.5036965589539708
 30
0.0
  0
VERTEX
  5
201E
  8
SAPA_PROFIL
 10
96.008418232582926
 20
-9.8232813355745723
 30
0.0
 42
-0.4142135623730951
  0
VERTEX
  5
201F
  8
SAPA_PROFIL
 10
95.808454188075501
 20
-10.197466291050381
 30
0.0
  0
VERTEX
  5
2020
  8
SAPA_PROFIL
 10
95.760608438077014
 20
-10.21198470029748
 30
0.0
  0
VERTEX
  5
2021
  8
SAPA_PROFIL
 10
95.760524830193376
 20
-11.715085781059489
 30
0.0
 42
0.4769755326981641
  0
VERTEX
  5
2022
  8
SAPA_PROFIL
 10
96.132181705139246
 20
-12.017338605565961
 30
0.0
  0
VERTEX
  5
2023
  8
SAPA_PROFIL
 10
97.945412175797486
 20
-11.635892009438249
 30
0.0
 42
0.2216946626430191
  0
VERTEX
  5
2024
  8
SAPA_PROFIL
 10
98.486292007274287
 20
-11.23008310428345
 30
0.0
  0
VERTEX
  5
2025
  8
SAPA_PROFIL
 10
98.638425918383064
 20
-10.9454008210518
 30
0.0
 42
0.5773502691897466
  0
VERTEX
  5
2026
  8
SAPA_PROFIL
 10
98.455472178272856
 20
-10.65124452079699
 30
0.0
  0
VERTEX
  5
2027
  8
SAPA_PROFIL
 10
98.133714450054612
 20
-10.661805887023959
 30
0.0
  0
VERTEX
  5
2028
  8
SAPA_PROFIL
 10
97.0491500030829
 20
-8.7759621951629025
 30
0.0
  0
VERTEX
  5
2029
  8
SAPA_PROFIL
 10
96.991076366093807
 20
-8.5845791951691819
 30
0.0
 42
-0.7625858545243257
  0
VERTEX
  5
202A
  8
SAPA_PROFIL
 10
97.321402447110799
 20
-8.3999999929716989
 30
0.0
 42
0.2134217652834391
  0
SEQEND
  5
202B
  8
SAPA_PROFIL
  0
POLYLINE
  5
1745
  8
SAPA_PROFIL
 66
     1
 10
0.0
 20
0.0
 30
0.0
 70
     1
  0
VERTEX
  5
202C
  8
SAPA_PROFIL
 10
104.9999999979306
 20
11.50000000756498
 30
0.0
  0
VERTEX
  5
202D
  8
SAPA_PROFIL
 10
106.9999999979306
 20
11.50000000756498
 30
0.0
  0
VERTEX
  5
202E
  8
SAPA_PROFIL
 10
106.9999999979305
 20
11.400000007565071
 30
0.0
 42
0.4142135623732199
  0
VERTEX
  5
202F
  8
SAPA_PROFIL
 10
107.1999999979305
 20
11.20000000756499
 30
0.0
  0
VERTEX
  5
2030
  8
SAPA_PROFIL
 10
108.7999999979305
 20
11.20000000756488
 30
0.0
 42
0.4142135623727933
  0
VERTEX
  5
2031
  8
SAPA_PROFIL
 10
108.9999999979306
 20
11.40000000756477
 30
0.0
  0
VERTEX
  5
2032
  8
SAPA_PROFIL
 10
108.9999999979306
 20
11.500000007564971
 30
0.0
  0
VERTEX
  5
2033
  8
SAPA_PROFIL
 10
137.2999999979306
 20
11.50000000756491
 30
0.0
  0
VERTEX
  5
2034
  8
SAPA_PROFIL
 10
137.2999999979308
 20
11.40000000756492
 30
0.0
 42
0.4142135623730847
  0
VERTEX
  5
2035
  8
SAPA_PROFIL
 10
137.49999999793079
 20
11.20000000756492
 30
0.0
  0
VERTEX
  5
2036
  8
SAPA_PROFIL
 10
139.09999999793081
 20
11.200000007565031
 30
0.0
 42
0.4142135623730847
  0
VERTEX
  5
2037
  8
SAPA_PROFIL
 10
139.29999999793071
 20
11.40000000756492
 30
0.0
  0
VERTEX
  5
2038
  8
SAPA_PROFIL
 10
139.29999999793071
 20
11.50000000756491
 30
0.0
  0
VERTEX
  5
2039
  8
SAPA_PROFIL
 10
140.99999999793079
 20
11.50000000756491
 30
0.0
 42
-0.4142135623730675
  0
VERTEX
  5
203A
  8
SAPA_PROFIL
 10
141.2999999979306
 20
11.20000000756491
 30
0.0
  0
VERTEX
  5
203B
  8
SAPA_PROFIL
 10
141.29999999793051
 20
-6.3999999924350748
 30
0.0
 42
-0.4142135623730673
  0
VERTEX
  5
203C
  8
SAPA_PROFIL
 10
140.99999999793079
 20
-6.6999999924350302
 30
0.0
  0
VERTEX
  5
203D
  8
SAPA_PROFIL
 10
139.29999999793051
 20
-6.6999999924350258
 30
0.0
  0
VERTEX
  5
203E
  8
SAPA_PROFIL
 10
139.29999999793071
 20
-6.3999999924350153
 30
0.0
 42
0.4142135623731367
  0
VERTEX
  5
203F
  8
SAPA_PROFIL
 10
139.09999999793061
 20
-6.1999999924350258
 30
0.0
  0
VERTEX
  5
2040
  8
SAPA_PROFIL
 10
137.49999999793079
 20
-6.1999999924349662
 30
0.0
 42
0.4142135623732407
  0
VERTEX
  5
2041
  8
SAPA_PROFIL
 10
137.2999999979306
 20
-6.3999999924351823
 30
0.0
  0
VERTEX
  5
2042
  8
SAPA_PROFIL
 10
137.2999999979308
 20
-6.699999992435079
 30
0.0
  0
VERTEX
  5
2043
  8
SAPA_PROFIL
 10
108.9999999979304
 20
-6.6999999924350186
 30
0.0
  0
VERTEX
  5
2044
  8
SAPA_PROFIL
 10
108.9999999979306
 20
-6.3999999924349513
 30
0.0
 42
0.4142135623732199
  0
VERTEX
  5
2045
  8
SAPA_PROFIL
 10
108.7999999979305
 20
-6.1999999924349618
 30
0.0
  0
VERTEX
  5
2046
  8
SAPA_PROFIL
 10
107.1999999979305
 20
-6.1999999924350444
 30
0.0
 42
0.4142135623733448
  0
VERTEX
  5
2047
  8
SAPA_PROFIL
 10
106.9999999979306
 20
-6.3999999924351183
 30
0.0
  0
VERTEX
  5
2048
  8
SAPA_PROFIL
 10
106.9999999979306
 20
-6.6999999924349591
 30
0.0
  0
VERTEX
  5
2049
  8
SAPA_PROFIL
 10
97.499999997930814
 20
-6.6999999924349369
 30
0.0
 42
-0.4142135623732061
  0
VERTEX
  5
204A
  8
SAPA_PROFIL
 10
97.199999997930718
 20
-6.3999999924349256
 30
0.0
  0
VERTEX
  5
204B
  8
SAPA_PROFIL
 10
97.199999997930746
 20
2.8000000043469
 30
0.0
 42
-0.4142135623732059
  0
VERTEX
  5
204C
  8
SAPA_PROFIL
 10
97.499999997930814
 20
3.1000000043468812
 30
0.0
  0
VERTEX
  5
204D
  8
SAPA_PROFIL
 10
102.00000074500549
 20
3.1000000043468718
 30
0.0
 42
0.414213562373052
  0
VERTEX
  5
204E
  8
SAPA_PROFIL
 10
104.6999999979305
 20
5.7999992572717067
 30
0.0
  0
VERTEX
  5
204F
  8
SAPA_PROFIL
 10
104.6999999979305
 20
11.20000000756499
 30
0.0
 42
-0.4142135623732891
  0
SEQEND
  5
2050
  8
SAPA_PROFIL
  0
POLYLINE
  5
1746
  8
SAPA_PROFIL
 66
     1
 10
0.0
 20
0.0
 30
0.1
 70
     1
  0
VERTEX
  5
2051
  8
SAPA_PROFIL
 10
103.2003825292542
 20
-48.499999992889421
 30
0.1
 42
0.2679491924311119
  0
VERTEX
  5
2052
  8
SAPA_PROFIL
 10
102.33435712546989
 20
-47.999999992889521
 30
0.1
  0
VERTEX
  5
2053
  8
SAPA_PROFIL
 10
100.9487164794148
 20
-47.999999992889627
 30
0.1
 42
0.5773502691897603
  0
VERTEX
  5
2054
  8
SAPA_PROFIL
 10
100.775511398658
 20
-48.299999992889582
 30
0.1
  0
VERTEX
  5
2055
  8
SAPA_PROFIL
 10
101.69927182936129
 20
-49.899999992889263
 30
0.1
  0
VERTEX
  5
2056
  8
SAPA_PROFIL
 10
101.69927182936129
 20
-50.199999992889452
 30
0.1
 42
-0.4142135623728995
  0
VERTEX
  5
2057
  8
SAPA_PROFIL
 10
101.3992718293614
 20
-50.499999992889506
 30
0.1
  0
VERTEX
  5
2058
  8
SAPA_PROFIL
 10
97.546485424861331
 20
-50.499999992889457
 30
0.1
 42
0.2134217652834313
  0
VERTEX
  5
2059
  8
SAPA_PROFIL
 10
97.322878627111251
 20
-50.599999992889579
 30
0.1
 42
-0.7625858545243313
  0
VERTEX
  5
205A
  8
SAPA_PROFIL
 10
96.992552546094217
 20
-50.415420790692103
 30
0.1
  0
VERTEX
  5
205B
  8
SAPA_PROFIL
 10
97.050626183083324
 20
-50.224037790698382
 30
0.1
  0
VERTEX
  5
205C
  8
SAPA_PROFIL
 10
98.135190630055064
 20
-48.338194098837342
 30
0.1
  0
VERTEX
  5
205D
  8
SAPA_PROFIL
 10
98.456948358273323
 20
-48.348755465064329
 30
0.1
 42
0.5773502691897454
  0
VERTEX
  5
205E
  8
SAPA_PROFIL
 10
98.639902098383473
 20
-48.054599164809467
 30
0.1
  0
VERTEX
  5
205F
  8
SAPA_PROFIL
 10
98.487768187274753
 20
-47.769916881577821
 30
0.1
 42
0.2216946626430149
  0
VERTEX
  5
2060
  8
SAPA_PROFIL
 10
97.946888355797938
 20
-47.364107976423043
 30
0.1
  0
VERTEX
  5
2061
  8
SAPA_PROFIL
 10
96.133657885139726
 20
-46.982661380295319
 30
0.1
 42
0.476975532698164
  0
VERTEX
  5
2062
  8
SAPA_PROFIL
 10
95.762001010193813
 20
-47.28491420480178
 30
0.1
  0
VERTEX
  5
2063
  8
SAPA_PROFIL
 10
95.762084618077452
 20
-48.788015285563802
 30
0.1
  0
VERTEX
  5
2064
  8
SAPA_PROFIL
 10
95.809930368075939
 20
-48.80253369481089
 30
0.1
 42
-0.4142135623730875
  0
VERTEX
  5
2065
  8
SAPA_PROFIL
 10
96.009894412583336
 20
-49.176718650286709
 30
0.1
  0
VERTEX
  5
2066
  8
SAPA_PROFIL
 10
95.499999994019589
 20
-50.495951652048731
 30
0.1
  0
VERTEX
  5
2067
  8
SAPA_PROFIL
 10
95.499999994019561
 20
-70.231478389545572
 30
0.1
 42
-0.3821712090170728
  0
VERTEX
  5
2068
  8
SAPA_PROFIL
 10
95.233119778113789
 20
-70.529644584647485
 30
0.1
  0
VERTEX
  5
2069
  8
SAPA_PROFIL
 10
88.655148994019584
 20
-71.055484119612487
 30
0.1
 42
-0.4469990000000183
  0
VERTEX
  5
206A
  8
SAPA_PROFIL
 10
88.099948994019599
 20
-70.558540119612474
 30
0.1
  0
VERTEX
  5
206B
  8
SAPA_PROFIL
 10
88.099948994019584
 20
-68.799999992889468
 30
0.1
 42
0.414213999999998
  0
VERTEX
  5
206C
  8
SAPA_PROFIL
 10
87.099948994019599
 20
-67.799999992889454
 30
0.1
  0
VERTEX
  5
206D
  8
SAPA_PROFIL
 10
86.832404994019583
 20
-67.799999992889482
 30
0.1
 42
0.2896899999999924
  0
VERTEX
  5
206E
  8
SAPA_PROFIL
 10
85.928896994019567
 20
-68.371427992889465
 30
0.1
 42
0.5507599999999715
  0
VERTEX
  5
206F
  8
SAPA_PROFIL
 10
86.199948994019564
 20
-68.799999992889468
 30
0.1
  0
VERTEX
  5
2070
  8
SAPA_PROFIL
 10
86.499948994019562
 20
-68.799999992889468
 30
0.1
 42
-0.4142140000001125
  0
VERTEX
  5
2071
  8
SAPA_PROFIL
 10
86.699948994019564
 20
-68.999999992889485
 30
0.1
  0
VERTEX
  5
2072
  8
SAPA_PROFIL
 10
86.699948994019564
 20
-70.099999992889494
 30
0.1
 42
-0.4142139999999939
  0
VERTEX
  5
2073
  8
SAPA_PROFIL
 10
85.699948994019564
 20
-71.099999992889508
 30
0.1
  0
VERTEX
  5
2074
  8
SAPA_PROFIL
 10
83.399999994019595
 20
-71.099999992889494
 30
0.1
 42
-0.4142139999999918
  0
VERTEX
  5
2075
  8
SAPA_PROFIL
 10
82.399999994019595
 20
-70.099999992889494
 30
0.1
  0
VERTEX
  5
2076
  8
SAPA_PROFIL
 10
82.399999994019566
 20
-68.999999992889471
 30
0.1
 42
-0.4142139999999378
  0
VERTEX
  5
2077
  8
SAPA_PROFIL
 10
82.599999994019598
 20
-68.799999992889468
 30
0.1
  0
VERTEX
  5
2078
  8
SAPA_PROFIL
 10
82.899948994019567
 20
-68.79999999288944
 30
0.1
 42
0.5507599999999796
  0
VERTEX
  5
2079
  8
SAPA_PROFIL
 10
83.171001994019591
 20
-68.371427992889494
 30
0.1
 42
0.2896900000000027
  0
VERTEX
  5
207A
  8
SAPA_PROFIL
 10
82.267493994019574
 20
-67.799999992889454
 30
0.1
  0
VERTEX
  5
207B
  8
SAPA_PROFIL
 10
81.999999994019575
 20
-67.799999992889482
 30
0.1
 42
0.4142140000000064
  0
VERTEX
  5
207C
  8
SAPA_PROFIL
 10
80.999999994019575
 20
-68.799999992889454
 30
0.1
  0
VERTEX
  5
207D
  8
SAPA_PROFIL
 10
80.999999994019618
 20
-70.499999992889457
 30
0.1
 42
0.4142139999999918
  0
VERTEX
  5
207E
  8
SAPA_PROFIL
 10
82.999999994019561
 20
-72.499999992889471
 30
0.1
  0
VERTEX
  5
207F
  8
SAPA_PROFIL
 10
169.4999999940195
 20
-72.499999992889585
 30
0.1
 42
0.414213999999996
  0
VERTEX
  5
2080
  8
SAPA_PROFIL
 10
169.9999999940195
 20
-71.999999992889613
 30
0.1
  0
VERTEX
  5
2081
  8
SAPA_PROFIL
 10
169.99999999401939
 20
-68.299999992889639
 30
0.1
 42
0.4142139999999107
  0
VERTEX
  5
2082
  8
SAPA_PROFIL
 10
169.69999999401961
 20
-67.999999992889641
 30
0.1
  0
VERTEX
  5
2083
  8
SAPA_PROFIL
 10
168.93245499401951
 20
-67.999999992889627
 30
0.1
 42
0.2896899999999864
  0
VERTEX
  5
2084
  8
SAPA_PROFIL
 10
168.02894699401961
 20
-68.57142799288961
 30
0.1
 42
0.5507600000000558
  0
VERTEX
  5
2085
  8
SAPA_PROFIL
 10
168.29999999401949
 20
-68.999999992889641
 30
0.1
  0
VERTEX
  5
2086
  8
SAPA_PROFIL
 10
168.4999999940195
 20
-68.999999992889641
 30
0.1
 42
-0.414214000000073
  0
VERTEX
  5
2087
  8
SAPA_PROFIL
 10
168.79999999401949
 20
-69.299999992889624
 30
0.1
  0
VERTEX
  5
2088
  8
SAPA_PROFIL
 10
168.79999999401949
 20
-70.799999992889624
 30
0.1
 42
-0.414213999999996
  0
VERTEX
  5
2089
  8
SAPA_PROFIL
 10
168.29999999401949
 20
-71.299999992889624
 30
0.1
  0
VERTEX
  5
208A
  8
SAPA_PROFIL
 10
164.9999999940195
 20
-71.299999992889624
 30
0.1
 42
-0.4142140000000002
  0
VERTEX
  5
208B
  8
SAPA_PROFIL
 10
164.49999999401939
 20
-70.799999992889624
 30
0.1
  0
VERTEX
  5
208C
  8
SAPA_PROFIL
 10
164.49999999401939
 20
-69.299999992889624
 30
0.1
 42
-0.4142140000000209
  0
VERTEX
  5
208D
  8
SAPA_PROFIL
 10
164.79999999401949
 20
-68.999999992889641
 30
0.1
  0
VERTEX
  5
208E
  8
SAPA_PROFIL
 10
164.9999999940195
 20
-68.999999992889698
 30
0.1
 42
0.5507600000000054
  0
VERTEX
  5
208F
  8
SAPA_PROFIL
 10
165.2710519940195
 20
-68.571427992889596
 30
0.1
 42
0.2896899999999876
  0
VERTEX
  5
2090
  8
SAPA_PROFIL
 10
164.3675439940196
 20
-67.999999992889627
 30
0.1
  0
VERTEX
  5
2091
  8
SAPA_PROFIL
 10
163.37007299401949
 20
-67.999999992889641
 30
0.1
 42
0.0436609999999812
  0
VERTEX
  5
2092
  8
SAPA_PROFIL
 10
163.2832479940196
 20
-68.007595992889634
 30
0.1
  0
VERTEX
  5
2093
  8
SAPA_PROFIL
 10
161.71317599401959
 20
-68.28444199288964
 30
0.1
 42
0.839099999999979
  0
VERTEX
  5
2094
  8
SAPA_PROFIL
 10
161.71317599401959
 20
-69.269249992889627
 30
0.1
  0
VERTEX
  5
2095
  8
SAPA_PROFIL
 10
162.88682399401961
 20
-69.476194992889603
 30
0.1
 42
-0.363970000000042
  0
VERTEX
  5
2096
  8
SAPA_PROFIL
 10
163.2999999940196
 20
-69.968598992889653
 30
0.1
  0
VERTEX
  5
2097
  8
SAPA_PROFIL
 10
163.2999999940196
 20
-70.779999992889614
 30
0.1
 42
-0.4373279999999794
  0
VERTEX
  5
2098
  8
SAPA_PROFIL
 10
162.76090499401951
 20
-71.278468992889628
 30
0.1
  0
VERTEX
  5
2099
  8
SAPA_PROFIL
 10
148.2878467206032
 20
-70.711670506493732
 30
0.1
 42
-0.4023941355298093
  0
VERTEX
  5
209A
  8
SAPA_PROFIL
 10
147.99999999401939
 20
-70.411916777667415
 30
0.1
  0
VERTEX
  5
209B
  8
SAPA_PROFIL
 10
147.9999999940195
 20
-69.611382992889574
 30
0.1
 42
0.2596810000001062
  0
VERTEX
  5
209C
  8
SAPA_PROFIL
 10
147.9053069940195
 20
-69.441351992889594
 30
0.1
  0
VERTEX
  5
209D
  8
SAPA_PROFIL
 10
146.4579599940196
 20
-68.544952992889506
 30
0.1
 42
0.5877030000000574
  0
VERTEX
  5
209E
  8
SAPA_PROFIL
 10
145.9999999940195
 20
-68.799999992889639
 30
0.1
  0
VERTEX
  5
209F
  8
SAPA_PROFIL
 10
145.99999999401939
 20
-70.199999992889602
 30
0.1
 42
-0.4142139999999773
  0
VERTEX
  5
20A0
  8
SAPA_PROFIL
 10
145.69999999401961
 20
-70.499999992889599
 30
0.1
  0
VERTEX
  5
20A1
  8
SAPA_PROFIL
 10
143.29999999401949
 20
-70.499999992889599
 30
0.1
 42
-0.4142140000000855
  0
VERTEX
  5
20A2
  8
SAPA_PROFIL
 10
142.9999999940195
 20
-70.199999992889587
 30
0.1
  0
VERTEX
  5
20A3
  8
SAPA_PROFIL
 10
142.9999999940195
 20
-52.79999999288961
 30
0.1
 42
-0.4142140000001167
  0
VERTEX
  5
20A4
  8
SAPA_PROFIL
 10
143.2999999940196
 20
-52.499999992889592
 30
0.1
  0
VERTEX
  5
20A5
  8
SAPA_PROFIL
 10
145.69999999401961
 20
-52.499999992889592
 30
0.1
 42
-0.4142140000000127
  0
VERTEX
  5
20A6
  8
SAPA_PROFIL
 10
145.9999999940195
 20
-52.79999999288961
 30
0.1
  0
VERTEX
  5
20A7
  8
SAPA_PROFIL
 10
145.9999999940195
 20
-54.199999992889587
 30
0.1
 42
0.5920054160710117
  0
VERTEX
  5
20A8
  8
SAPA_PROFIL
 10
146.4612033321344
 20
-54.453008505647382
 30
0.1
  0
VERTEX
  5
20A9
  8
SAPA_PROFIL
 10
147.70746898834739
 20
-53.658955475825707
 30
0.1
 42
0.2562769852931595
  0
VERTEX
  5
20AA
  8
SAPA_PROFIL
 10
147.79999999401949
 20
-53.490282966927083
 30
0.1
  0
VERTEX
  5
20AB
  8
SAPA_PROFIL
 10
147.79999999401949
 20
-50.495951652048561
 30
0.1
  0
VERTEX
  5
20AC
  8
SAPA_PROFIL
 10
147.2901055754559
 20
-49.176718650286873
 30
0.1
 42
-0.4142135623730875
  0
VERTEX
  5
20AD
  8
SAPA_PROFIL
 10
147.49006961996329
 20
-48.802533694811061
 30
0.1
  0
VERTEX
  5
20AE
  8
SAPA_PROFIL
 10
147.53791536996181
 20
-48.788015285563958
 30
0.1
  0
VERTEX
  5
20AF
  8
SAPA_PROFIL
 10
147.5379989778454
 20
-47.28491420480195
 30
0.1
 42
0.4769755326981641
  0
VERTEX
  5
20B0
  8
SAPA_PROFIL
 10
147.16634210289959
 20
-46.982661380295482
 30
0.1
  0
VERTEX
  5
20B1
  8
SAPA_PROFIL
 10
145.35311163224131
 20
-47.364107976423163
 30
0.1
 42
0.2216946626430149
  0
VERTEX
  5
20B2
  8
SAPA_PROFIL
 10
144.81223180076449
 20
-47.769916881577977
 30
0.1
  0
VERTEX
  5
20B3
  8
SAPA_PROFIL
 10
144.66009788965579
 20
-48.05459916480963
 30
0.1
 42
0.5773502691897454
  0
VERTEX
  5
20B4
  8
SAPA_PROFIL
 10
144.84305162976591
 20
-48.34875546506445
 30
0.1
  0
VERTEX
  5
20B5
  8
SAPA_PROFIL
 10
145.16480935798421
 20
-48.338194098837477
 30
0.1
  0
VERTEX
  5
20B6
  8
SAPA_PROFIL
 10
146.24937380495589
 20
-50.22403779069851
 30
0.1
  0
VERTEX
  5
20B7
  8
SAPA_PROFIL
 10
146.30744744194499
 20
-50.415420790692231
 30
0.1
 42
-0.7625858545243333
  0
VERTEX
  5
20B8
  8
SAPA_PROFIL
 10
145.97712136092801
 20
-50.599999992889707
 30
0.1
 42
0.2134217652834462
  0
VERTEX
  5
20B9
  8
SAPA_PROFIL
 10
145.7535145631779
 20
-50.499999992889599
 30
0.1
  0
VERTEX
  5
20BA
  8
SAPA_PROFIL
 10
141.90072815867779
 20
-50.499999992889599
 30
0.1
 42
-0.4142135623729119
  0
VERTEX
  5
20BB
  8
SAPA_PROFIL
 10
141.6007281586779
 20
-50.199999992889531
 30
0.1
  0
VERTEX
  5
20BC
  8
SAPA_PROFIL
 10
141.6007281586779
 20
-49.899999992889349
 30
0.1
  0
VERTEX
  5
20BD
  8
SAPA_PROFIL
 10
142.52448858938129
 20
-48.299999992889717
 30
0.1
 42
0.5773502691897497
  0
VERTEX
  5
20BE
  8
SAPA_PROFIL
 10
142.35128350862439
 20
-47.999999992889592
 30
0.1
  0
VERTEX
  5
20BF
  8
SAPA_PROFIL
 10
140.9656428625693
 20
-47.999999992889421
 30
0.1
 42
0.2679491924311136
  0
VERTEX
  5
20C0
  8
SAPA_PROFIL
 10
140.09961745878479
 20
-48.499999992889428
 30
0.1
  0
VERTEX
  5
20C1
  8
SAPA_PROFIL
 10
139.0892544877027
 20
-50.24999999288962
 30
0.1
 42
-0.2679491924310958
  0
VERTEX
  5
20C2
  8
SAPA_PROFIL
 10
138.65624178581049
 20
-50.499999992889592
 30
0.1
  0
VERTEX
  5
20C3
  8
SAPA_PROFIL
 10
138.31961523629019
 20
-50.499999992889592
 30
0.1
  0
VERTEX
  5
20C4
  8
SAPA_PROFIL
 10
137.79999999401949
 20
-50.799999992889582
 30
0.1
  0
VERTEX
  5
20C5
  8
SAPA_PROFIL
 10
137.28038475174881
 20
-50.499999992889578
 30
0.1
  0
VERTEX
  5
20C6
  8
SAPA_PROFIL
 10
104.6437582022287
 20
-50.499999992889528
 30
0.1
 42
-0.2679491924311033
  0
VERTEX
  5
20C7
  8
SAPA_PROFIL
 10
104.2107455003364
 20
-50.249999992889549
 30
0.1
  0
SEQEND
  5
20C8
  8
SAPA_PROFIL
  0
POLYLINE
  5
1747
  8
SAPA_PROFIL
 66
     1
 10
0.0
 20
0.0
 30
0.1
 70
     1
  0
VERTEX
  5
20C9
  8
SAPA_PROFIL
 10
139.09999999401961
 20
-52.799999992889603
 30
0.1
  0
VERTEX
  5
20CA
  8
SAPA_PROFIL
 10
137.49999999401959
 20
-52.799999992889603
 30
0.1
 42
-0.4142135623730951
  0
VERTEX
  5
20CB
  8
SAPA_PROFIL
 10
137.2999999940196
 20
-52.599999992889572
 30
0.1
  0
VERTEX
  5
20CC
  8
SAPA_PROFIL
 10
137.2999999940196
 20
-52.29999990901625
 30
0.1
  0
VERTEX
  5
20CD
  8
SAPA_PROFIL
 10
101.19999999401961
 20
-52.299999909016172
 30
0.1
  0
VERTEX
  5
20CE
  8
SAPA_PROFIL
 10
101.19999999401961
 20
-52.599999992889501
 30
0.1
 42
-0.4142135623730951
  0
VERTEX
  5
20CF
  8
SAPA_PROFIL
 10
100.9999999940196
 20
-52.799999992889532
 30
0.1
  0
VERTEX
  5
20D0
  8
SAPA_PROFIL
 10
99.399999994019581
 20
-52.799999992889518
 30
0.1
 42
-0.4142135623730951
  0
VERTEX
  5
20D1
  8
SAPA_PROFIL
 10
99.199999994019592
 20
-52.599999992889501
 30
0.1
  0
VERTEX
  5
20D2
  8
SAPA_PROFIL
 10
99.199999994019592
 20
-52.299999909016172
 30
0.1
  0
VERTEX
  5
20D3
  8
SAPA_PROFIL
 10
97.499999994019603
 20
-52.299999909016172
 30
0.1
 42
0.4142135623730951
  0
VERTEX
  5
20D4
  8
SAPA_PROFIL
 10
97.199999994019592
 20
-52.599999909016177
 30
0.1
  0
VERTEX
  5
20D5
  8
SAPA_PROFIL
 10
97.199999994019564
 20
-70.199999992889502
 30
0.1
 42
0.4142135623730951
  0
VERTEX
  5
20D6
  8
SAPA_PROFIL
 10
97.499999994019575
 20
-70.499999992889485
 30
0.1
  0
VERTEX
  5
20D7
  8
SAPA_PROFIL
 10
99.199999994019549
 20
-70.499999992889485
 30
0.1
  0
VERTEX
  5
20D8
  8
SAPA_PROFIL
 10
99.199999994019549
 20
-70.399999992889477
 30
0.1
 42
-0.4142135623730951
  0
VERTEX
  5
20D9
  8
SAPA_PROFIL
 10
99.399999994019552
 20
-70.199999992889502
 30
0.1
  0
VERTEX
  5
20DA
  8
SAPA_PROFIL
 10
100.9999999940195
 20
-70.199999992889502
 30
0.1
 42
-0.4142135623730951
  0
VERTEX
  5
20DB
  8
SAPA_PROFIL
 10
101.19999999401951
 20
-70.399999992889477
 30
0.1
  0
VERTEX
  5
20DC
  8
SAPA_PROFIL
 10
101.19999999401951
 20
-70.499999992889514
 30
0.1
  0
VERTEX
  5
20DD
  8
SAPA_PROFIL
 10
137.2999999940196
 20
-70.499999992889585
 30
0.1
  0
VERTEX
  5
20DE
  8
SAPA_PROFIL
 10
137.2999999940196
 20
-70.399999992889548
 30
0.1
 42
-0.4142135623730951
  0
VERTEX
  5
20DF
  8
SAPA_PROFIL
 10
137.4999999940195
 20
-70.199999992889573
 30
0.1
  0
VERTEX
  5
20E0
  8
SAPA_PROFIL
 10
139.09999999401961
 20
-70.199999992889587
 30
0.1
 42
-0.4142135623730951
  0
VERTEX
  5
20E1
  8
SAPA_PROFIL
 10
139.2999999940196
 20
-70.399999992889562
 30
0.1
  0
VERTEX
  5
20E2
  8
SAPA_PROFIL
 10
139.2999999940196
 20
-70.499999992889585
 30
0.1
  0
VERTEX
  5
20E3
  8
SAPA_PROFIL
 10
140.99999999401959
 20
-70.49999999288957
 30
0.1
 42
0.4142135623730951
  0
VERTEX
  5
20E4
  8
SAPA_PROFIL
 10
141.29999999401949
 20
-70.199999992889587
 30
0.1
  0
VERTEX
  5
20E5
  8
SAPA_PROFIL
 10
141.2999999940196
 20
-52.599999909016262
 30
0.1
 42
0.4142135623730951
  0
VERTEX
  5
20E6
  8
SAPA_PROFIL
 10
140.99999999401959
 20
-52.299999909016258
 30
0.1
  0
VERTEX
  5
20E7
  8
SAPA_PROFIL
 10
139.2999999940196
 20
-52.299999909016258
 30
0.1
  0
VERTEX
  5
20E8
  8
SAPA_PROFIL
 10
139.2999999940196
 20
-52.599999992889572
 30
0.1
 42
-0.4142135623730951
  0
SEQEND
  5
20E9
  8
SAPA_PROFIL
  0
POLYLINE
  5
1748
  8
SAPA_PROFIL
 62
     4
 66
     1
 10
0.0
 20
0.0
 30
0.0
  0
VERTEX
  5
20EA
  8
SAPA_PROFIL
 62
     4
 10
145.09663288463821
 20
-20.450670870617529
 30
0.0
 42
0.5571646428658034
  0
VERTEX
  5
20EB
  8
SAPA_PROFIL
 62
     4
 10
144.22891397048269
 20
-20.987631374754361
 30
0.0
  0
VERTEX
  5
20EC
  8
SAPA_PROFIL
 62
     4
 10
144.22891397048309
 20
-38.012368611275562
 30
0.0
 42
0.5571645048035741
  0
VERTEX
  5
20ED
  8
SAPA_PROFIL
 62
     4
 10
145.09663265834931
 20
-38.549329228236623
 30
0.0
  0
VERTEX
  5
20EE
  8
SAPA_PROFIL
 62
     4
 10
146.7627733144173
 20
-37.718622140689916
 30
0.0
 42
0.284385813979063
  0
VERTEX
  5
20EF
  8
SAPA_PROFIL
 62
     4
 10
146.9289139704847
 20
-37.450141832209582
 30
0.0
  0
VERTEX
  5
20F0
  8
SAPA_PROFIL
 62
     4
 10
146.92891397048481
 20
-21.54985815382026
 30
0.0
 42
0.2843858139786238
  0
VERTEX
  5
20F1
  8
SAPA_PROFIL
 62
     4
 10
146.76277331441781
 20
-21.281377845339971
 30
0.0
  0
VERTEX
  5
20F2
  8
SAPA_PROFIL
 62
     4
 10
145.09663265834851
 20
-20.45067075779281
 30
0.0
  0
SEQEND
  5
20F3
  8
SAPA_PROFIL
 62
     4
  0
POLYLINE
  5
1749
  8
SAPA_PROFIL
 62
     4
 66
     1
 10
0.0
 20
0.0
 30
0.0
 70
     1
  0
VERTEX
  5
20F4
  8
SAPA_PROFIL
 62
     4
 10
147.2857454849823
 20
-43.917611177682211
 30
0.0
  0
VERTEX
  5
20F5
  8
SAPA_PROFIL
 62
     4
 10
147.69230568098641
 20
-44.181634456058227
 30
0.0
 42
-0.2539676464751066
  0
VERTEX
  5
20F6
  8
SAPA_PROFIL
 62
     4
 10
147.82891397048249
 20
-44.433235626442929
 30
0.0
  0
VERTEX
  5
20F7
  8
SAPA_PROFIL
 62
     4
 10
147.82891397048249
 20
-45.814735211648269
 30
0.0
 42
-0.3152987888790479
  0
VERTEX
  5
20F8
  8
SAPA_PROFIL
 62
     4
 10
147.49992404214439
 20
-46.28458152204059
 30
0.0
  0
VERTEX
  5
20F9
  8
SAPA_PROFIL
 62
     4
 10
145.03909385169311
 20
-47.180250462949182
 30
0.0
 42
0.2694959974287434
  0
VERTEX
  5
20FA
  8
SAPA_PROFIL
 62
     4
 10
144.8459618773492
 20
-47.411769509350549
 30
0.0
 42
0.0612686379508233
  0
VERTEX
  5
20FB
  8
SAPA_PROFIL
 62
     4
 10
144.8323785067187
 20
-47.704444942203821
 30
0.0
  0
VERTEX
  5
20FC
  8
SAPA_PROFIL
 62
     4
 10
144.6306418279899
 20
-48.053863119512087
 30
0.0
 42
0.5773502691891679
  0
VERTEX
  5
20FD
  8
SAPA_PROFIL
 62
     4
 10
144.81250716278441
 20
-48.368863119511673
 30
0.0
  0
VERTEX
  5
20FE
  8
SAPA_PROFIL
 62
     4
 10
145.0796216909107
 20
-48.368863119511907
 30
0.0
  0
VERTEX
  5
20FF
  8
SAPA_PROFIL
 62
     4
 10
145.88830515221909
 20
-49.767390820146169
 30
0.0
 42
-0.1318219888653519
  0
VERTEX
  5
2100
  8
SAPA_PROFIL
 62
     4
 10
145.92859754875639
 20
-49.917563922618513
 30
0.0
  0
VERTEX
  5
2101
  8
SAPA_PROFIL
 62
     4
 10
145.9285975487501
 20
-50.099999993055299
 30
0.0
 42
-0.4142135623724291
  0
VERTEX
  5
2102
  8
SAPA_PROFIL
 62
     4
 10
145.52859754875041
 20
-50.49999999305583
 30
0.0
  0
VERTEX
  5
2103
  8
SAPA_PROFIL
 62
     4
 10
142.12859754874941
 20
-50.499999993054473
 30
0.0
 42
-0.4142135623744271
  0
VERTEX
  5
2104
  8
SAPA_PROFIL
 62
     4
 10
141.72859754874841
 20
-50.099999993055278
 30
0.0
  0
VERTEX
  5
2105
  8
SAPA_PROFIL
 62
     4
 10
141.72859754874781
 20
-49.920384750783981
 30
0.0
 42
-0.1316524975874005
  0
VERTEX
  5
2106
  8
SAPA_PROFIL
 62
     4
 10
141.7687899276134
 20
-49.770384750787173
 30
0.0
  0
VERTEX
  5
2107
  8
SAPA_PROFIL
 62
     4
 10
142.694939374266
 20
-48.166246853784912
 30
0.0
 42
0.1316524975875904
  0
VERTEX
  5
2108
  8
SAPA_PROFIL
 62
     4
 10
142.8289139704807
 20
-47.6662468537832
 30
0.0
  0
VERTEX
  5
2109
  8
SAPA_PROFIL
 62
     4
 10
142.8289139704807
 20
-47.24999999305583
 30
0.0
 42
0.4142135623730951
  0
VERTEX
  5
210A
  8
SAPA_PROFIL
 62
     4
 10
141.8289139704807
 20
-46.24999999305583
 30
0.0
  0
VERTEX
  5
210B
  8
SAPA_PROFIL
 62
     4
 10
138.8289139704834
 20
-46.24999999305583
 30
0.0
 42
-0.9999996830128083
  0
VERTEX
  5
210C
  8
SAPA_PROFIL
 62
     4
 10
138.82891397048161
 20
-45.24999999305583
 30
0.0
  0
VERTEX
  5
210D
  8
SAPA_PROFIL
 62
     4
 10
141.82891397048161
 20
-45.24999999305583
 30
0.0
 42
0.4142135623730951
  0
VERTEX
  5
210E
  8
SAPA_PROFIL
 62
     4
 10
142.82891397048161
 20
-44.24999999305583
 30
0.0
  0
VERTEX
  5
210F
  8
SAPA_PROFIL
 62
     4
 10
142.82891397048169
 20
-14.749999992971251
 30
0.0
 42
0.4142135623730951
  0
VERTEX
  5
2110
  8
SAPA_PROFIL
 62
     4
 10
141.82891397048169
 20
-13.749999992971251
 30
0.0
  0
VERTEX
  5
2111
  8
SAPA_PROFIL
 62
     4
 10
138.82891397048351
 20
-13.749999992971251
 30
0.0
 42
-0.9999999999999998
  0
VERTEX
  5
2112
  8
SAPA_PROFIL
 62
     4
 10
138.82891397048351
 20
-12.749999992971251
 30
0.0
  0
VERTEX
  5
2113
  8
SAPA_PROFIL
 62
     4
 10
141.82891397048169
 20
-12.749999992971251
 30
0.0
 42
0.4142135623736278
  0
VERTEX
  5
2114
  8
SAPA_PROFIL
 62
     4
 10
142.82891397048169
 20
-11.749999992971251
 30
0.0
  0
VERTEX
  5
2115
  8
SAPA_PROFIL
 62
     4
 10
142.82891397048169
 20
-11.333753132244791
 30
0.0
 42
0.1316524975874375
  0
VERTEX
  5
2116
  8
SAPA_PROFIL
 62
     4
 10
142.69493937426569
 20
-10.83375313224459
 30
0.0
  0
VERTEX
  5
2117
  8
SAPA_PROFIL
 62
     4
 10
141.76878992761351
 20
-9.2296152352426404
 30
0.0
 42
-0.1316524975874
  0
VERTEX
  5
2118
  8
SAPA_PROFIL
 62
     4
 10
141.7285975487479
 20
-9.0796152352430965
 30
0.0
  0
VERTEX
  5
2119
  8
SAPA_PROFIL
 62
     4
 10
141.7285975487485
 20
-8.899999992971793
 30
0.0
 42
-0.4142135623744271
  0
VERTEX
  5
211A
  8
SAPA_PROFIL
 62
     4
 10
142.1285975487495
 20
-8.4999999929726187
 30
0.0
  0
VERTEX
  5
211B
  8
SAPA_PROFIL
 62
     4
 10
145.5285975487505
 20
-8.4999999929712544
 30
0.0
 42
-0.4142135623724291
  0
VERTEX
  5
211C
  8
SAPA_PROFIL
 62
     4
 10
145.92859754875019
 20
-8.8999999929718072
 30
0.0
  0
VERTEX
  5
211D
  8
SAPA_PROFIL
 62
     4
 10
145.9285975487565
 20
-9.0824360634085863
 30
0.0
 42
-0.1318219888653524
  0
VERTEX
  5
211E
  8
SAPA_PROFIL
 62
     4
 10
145.88830515221909
 20
-9.2326091658809304
 30
0.0
  0
VERTEX
  5
211F
  8
SAPA_PROFIL
 62
     4
 10
145.0796216909948
 20
-10.631136866360571
 30
0.0
  0
VERTEX
  5
2120
  8
SAPA_PROFIL
 62
     4
 10
144.8125071627818
 20
-10.631136866360571
 30
0.0
 42
0.577350269189159
  0
VERTEX
  5
2121
  8
SAPA_PROFIL
 62
     4
 10
144.6306418279872
 20
-10.946136866360179
 30
0.0
  0
VERTEX
  5
2122
  8
SAPA_PROFIL
 62
     4
 10
144.8323785066643
 20
-11.29555504357883
 30
0.0
 42
0.0612687673629489
  0
VERTEX
  5
2123
  8
SAPA_PROFIL
 62
     4
 10
144.8459618773505
 20
-11.588230476679049
 30
0.0
 42
0.2694959974285039
  0
VERTEX
  5
2124
  8
SAPA_PROFIL
 62
     4
 10
145.03909385169439
 20
-11.819749523079571
 30
0.0
  0
VERTEX
  5
2125
  8
SAPA_PROFIL
 62
     4
 10
147.4999240421476
 20
-12.71541846398924
 30
0.0
 42
-0.3152987888784035
  0
VERTEX
  5
2126
  8
SAPA_PROFIL
 62
     4
 10
147.82891397048419
 20
-13.185264774382469
 30
0.0
  0
VERTEX
  5
2127
  8
SAPA_PROFIL
 62
     4
 10
147.8289139704826
 20
-14.5667643595869
 30
0.0
 42
-0.2539676464741841
  0
VERTEX
  5
2128
  8
SAPA_PROFIL
 62
     4
 10
147.69230568098729
 20
-14.818365529970981
 30
0.0
  0
VERTEX
  5
2129
  8
SAPA_PROFIL
 62
     4
 10
147.2857454849823
 20
-15.08238880834762
 30
0.0
 42
-0.5862177598324623
  0
VERTEX
  5
212A
  8
SAPA_PROFIL
 62
     4
 10
146.82891397048579
 20
-14.82664699310928
 30
0.0
  0
VERTEX
  5
212B
  8
SAPA_PROFIL
 62
     4
 10
146.82891397049349
 20
-13.88547231259947
 30
0.0
 42
0.3152987888813165
  0
VERTEX
  5
212C
  8
SAPA_PROFIL
 62
     4
 10
146.49992404215669
 20
-13.41562600220171
 30
0.0
  0
VERTEX
  5
212D
  8
SAPA_PROFIL
 62
     4
 10
145.29992404214551
 20
-12.978861721077751
 30
0.0
 42
0.5205670505515651
  0
VERTEX
  5
212E
  8
SAPA_PROFIL
 62
     4
 10
144.62891397048281
 20
-13.44870803147097
 30
0.0
  0
VERTEX
  5
212F
  8
SAPA_PROFIL
 62
     4
 10
144.6289139704827
 20
-18.465148972139819
 30
0.0
 42
0.3702522326300203
  0
VERTEX
  5
2130
  8
SAPA_PROFIL
 62
     4
 10
144.88337392314841
 20
-18.761672333933149
 30
0.0
 42
0.0982365330332397
  0
VERTEX
  5
2131
  8
SAPA_PROFIL
 62
     4
 10
146.57106069814341
 20
-18.852125092144099
 30
0.0
 42
0.3735060174783164
  0
VERTEX
  5
2132
  8
SAPA_PROFIL
 62
     4
 10
146.82891397048351
 20
-18.55510042423311
 30
0.0
  0
VERTEX
  5
2133
  8
SAPA_PROFIL
 62
     4
 10
146.82891397048439
 20
-18.126646993110459
 30
0.0
 42
-0.5920056181162531
  0
VERTEX
  5
2134
  8
SAPA_PROFIL
 62
     4
 10
147.29011747301229
 20
-17.87363823679306
 30
0.0
  0
VERTEX
  5
2135
  8
SAPA_PROFIL
 62
     4
 10
147.69230568099059
 20
-18.13482231294876
 30
0.0
 42
-0.2539676464746725
  0
VERTEX
  5
2136
  8
SAPA_PROFIL
 62
     4
 10
147.82891397048601
 20
-18.386423483332528
 30
0.0
  0
VERTEX
  5
2137
  8
SAPA_PROFIL
 62
     4
 10
147.82891397048439
 20
-40.613576502698223
 30
0.0
 42
-0.2539676464741819
  0
VERTEX
  5
2138
  8
SAPA_PROFIL
 62
     4
 10
147.69230568099059
 20
-40.865177673081071
 30
0.0
  0
VERTEX
  5
2139
  8
SAPA_PROFIL
 62
     4
 10
147.2901174730122
 20
-41.126361749234881
 30
0.0
 42
-0.5920055144124249
  0
VERTEX
  5
213A
  8
SAPA_PROFIL
 62
     4
 10
146.82891397048439
 20
-40.873352992919372
 30
0.0
  0
VERTEX
  5
213B
  8
SAPA_PROFIL
 62
     4
 10
146.82891399575939
 20
-40.444899515629153
 30
0.0
 42
0.3735060174775405
  0
VERTEX
  5
213C
  8
SAPA_PROFIL
 62
     4
 10
146.57106072341929
 20
-40.147874847719457
 30
0.0
 42
0.0355900683670349
  0
VERTEX
  5
213D
  8
SAPA_PROFIL
 62
     4
 10
145.95518713661949
 20
-40.103981283687197
 30
0.0
 42
0.0624282003873116
  0
VERTEX
  5
213E
  8
SAPA_PROFIL
 62
     4
 10
144.88337394842441
 20
-40.238327605930138
 30
0.0
 42
0.3702522326309292
  0
VERTEX
  5
213F
  8
SAPA_PROFIL
 62
     4
 10
144.62891399575869
 20
-40.534850967723521
 30
0.0
  0
VERTEX
  5
2140
  8
SAPA_PROFIL
 62
     4
 10
144.6289139704825
 20
-45.55129195455703
 30
0.0
 42
0.5205670505515692
  0
VERTEX
  5
2141
  8
SAPA_PROFIL
 62
     4
 10
145.29992404214551
 20
-46.021138264950253
 30
0.0
  0
VERTEX
  5
2142
  8
SAPA_PROFIL
 62
     4
 10
146.4999240421549
 20
-45.584373983825309
 30
0.0
 42
0.3152987888807539
  0
VERTEX
  5
2143
  8
SAPA_PROFIL
 62
     4
 10
146.82891397049249
 20
-45.11452767342945
 30
0.0
  0
VERTEX
  5
2144
  8
SAPA_PROFIL
 62
     4
 10
146.8289139704857
 20
-44.173352992920357
 30
0.0
 42
-0.5862175119221242
  0
VERTEX
  5
2145
  8
SAPA_PROFIL
 62
     4
 10
147.28574529624089
 20
-43.917611061938409
 30
0.0
 42
0.0000002084758573
  0
SEQEND
  5
2146
  8
SAPA_PROFIL
 62
     4
  0
POLYLINE
  5
174A
  8
SAPA_PROFIL
 62
     4
 66
     1
 10
0.0
 20
0.0
 30
0.0
  0
VERTEX
  5
2147
  8
SAPA_PROFIL
 62
     4
 10
98.203367111223145
 20
-20.450670870617429
 30
0.0
 42
-0.5571646428658034
  0
VERTEX
  5
2148
  8
SAPA_PROFIL
 62
     4
 10
99.071086025378705
 20
-20.987631374754262
 30
0.0
  0
VERTEX
  5
2149
  8
SAPA_PROFIL
 62
     4
 10
99.071086025378236
 20
-38.012368611275448
 30
0.0
 42
-0.5571645048035741
  0
VERTEX
  5
214A
  8
SAPA_PROFIL
 62
     4
 10
98.203367337512034
 20
-38.549329228236509
 30
0.0
  0
VERTEX
  5
214B
  8
SAPA_PROFIL
 62
     4
 10
96.537226681444025
 20
-37.71862214068981
 30
0.0
 42
-0.284385813979063
  0
VERTEX
  5
214C
  8
SAPA_PROFIL
 62
     4
 10
96.371086025376584
 20
-37.450141832209461
 30
0.0
  0
VERTEX
  5
214D
  8
SAPA_PROFIL
 62
     4
 10
96.371086025376613
 20
-21.54985815382015
 30
0.0
 42
-0.2843858139786238
  0
VERTEX
  5
214E
  8
SAPA_PROFIL
 62
     4
 10
96.537226681443542
 20
-21.281377845339861
 30
0.0
  0
VERTEX
  5
214F
  8
SAPA_PROFIL
 62
     4
 10
98.203367337512901
 20
-20.4506707577927
 30
0.0
  0
SEQEND
  5
2150
  8
SAPA_PROFIL
 62
     4
  0
POLYLINE
  5
174B
  8
SAPA_PROFIL
 62
     4
 66
     1
 10
0.0
 20
0.0
 30
0.0
 70
     1
  0
VERTEX
  5
2151
  8
SAPA_PROFIL
 62
     4
 10
96.014254510878999
 20
-43.917611177682097
 30
0.0
  0
VERTEX
  5
2152
  8
SAPA_PROFIL
 62
     4
 10
95.607694314874834
 20
-44.181634456058099
 30
0.0
 42
0.2539676464751066
  0
VERTEX
  5
2153
  8
SAPA_PROFIL
 62
     4
 10
95.471086025378753
 20
-44.433235626442809
 30
0.0
  0
VERTEX
  5
2154
  8
SAPA_PROFIL
 62
     4
 10
95.471086025378753
 20
-45.814735211648163
 30
0.0
 42
0.3152987888790479
  0
VERTEX
  5
2155
  8
SAPA_PROFIL
 62
     4
 10
95.800075953716913
 20
-46.284581522040469
 30
0.0
  0
VERTEX
  5
2156
  8
SAPA_PROFIL
 62
     4
 10
98.260906144168175
 20
-47.180250462949083
 30
0.0
 42
-0.2694959974287434
  0
VERTEX
  5
2157
  8
SAPA_PROFIL
 62
     4
 10
98.454038118512074
 20
-47.411769509350442
 30
0.0
 42
-0.0612686379508233
  0
VERTEX
  5
2158
  8
SAPA_PROFIL
 62
     4
 10
98.467621489142573
 20
-47.704444942203722
 30
0.0
  0
VERTEX
  5
2159
  8
SAPA_PROFIL
 62
     4
 10
98.669358167871394
 20
-48.053863119511988
 30
0.0
 42
-0.5773502691891679
  0
VERTEX
  5
215A
  8
SAPA_PROFIL
 62
     4
 10
98.487492833076843
 20
-48.36886311951158
 30
0.0
  0
VERTEX
  5
215B
  8
SAPA_PROFIL
 62
     4
 10
98.220378304950529
 20
-48.368863119511822
 30
0.0
  0
VERTEX
  5
215C
  8
SAPA_PROFIL
 62
     4
 10
97.411694843642195
 20
-49.767390820146062
 30
0.0
 42
0.1318219888653519
  0
VERTEX
  5
215D
  8
SAPA_PROFIL
 62
     4
 10
97.371402447104813
 20
-49.917563922618413
 30
0.0
  0
VERTEX
  5
215E
  8
SAPA_PROFIL
 62
     4
 10
97.371402447111194
 20
-50.099999993055178
 30
0.0
 42
0.4142135623724291
  0
VERTEX
  5
215F
  8
SAPA_PROFIL
 62
     4
 10
97.771402447110816
 20
-50.499999993055731
 30
0.0
  0
VERTEX
  5
2160
  8
SAPA_PROFIL
 62
     4
 10
101.1714024471118
 20
-50.499999993054381
 30
0.0
 42
0.4142135623744271
  0
VERTEX
  5
2161
  8
SAPA_PROFIL
 62
     4
 10
101.5714024471128
 20
-50.099999993055199
 30
0.0
  0
VERTEX
  5
2162
  8
SAPA_PROFIL
 62
     4
 10
101.5714024471134
 20
-49.920384750783889
 30
0.0
 42
0.1316524975874005
  0
VERTEX
  5
2163
  8
SAPA_PROFIL
 62
     4
 10
101.5312100682478
 20
-49.77038475078708
 30
0.0
  0
VERTEX
  5
2164
  8
SAPA_PROFIL
 62
     4
 10
100.6050606215953
 20
-48.166246853784813
 30
0.0
 42
-0.1316524975875904
  0
VERTEX
  5
2165
  8
SAPA_PROFIL
 62
     4
 10
100.4710860253805
 20
-47.6662468537831
 30
0.0
  0
VERTEX
  5
2166
  8
SAPA_PROFIL
 62
     4
 10
100.4710860253805
 20
-47.249999993055731
 30
0.0
 42
-0.4142135623730951
  0
VERTEX
  5
2167
  8
SAPA_PROFIL
 62
     4
 10
101.4710860253805
 20
-46.249999993055752
 30
0.0
  0
VERTEX
  5
2168
  8
SAPA_PROFIL
 62
     4
 10
104.4710860253778
 20
-46.249999993055752
 30
0.0
 42
0.9999996830128083
  0
VERTEX
  5
2169
  8
SAPA_PROFIL
 62
     4
 10
104.47108602537961
 20
-45.249999993055738
 30
0.0
  0
VERTEX
  5
216A
  8
SAPA_PROFIL
 62
     4
 10
101.47108602537961
 20
-45.249999993055738
 30
0.0
 42
-0.4142135623730951
  0
VERTEX
  5
216B
  8
SAPA_PROFIL
 62
     4
 10
100.47108602537961
 20
-44.249999993055731
 30
0.0
  0
VERTEX
  5
216C
  8
SAPA_PROFIL
 62
     4
 10
100.47108602537971
 20
-14.74999999297115
 30
0.0
 42
-0.4142135623730951
  0
VERTEX
  5
216D
  8
SAPA_PROFIL
 62
     4
 10
101.47108602537971
 20
-13.74999999297116
 30
0.0
  0
VERTEX
  5
216E
  8
SAPA_PROFIL
 62
     4
 10
104.4710860253779
 20
-13.74999999297116
 30
0.0
 42
0.9999999999999998
  0
VERTEX
  5
216F
  8
SAPA_PROFIL
 62
     4
 10
104.4710860253779
 20
-12.74999999297116
 30
0.0
  0
VERTEX
  5
2170
  8
SAPA_PROFIL
 62
     4
 10
101.47108602537971
 20
-12.74999999297116
 30
0.0
 42
-0.4142135623736278
  0
VERTEX
  5
2171
  8
SAPA_PROFIL
 62
     4
 10
100.47108602537971
 20
-11.74999999297115
 30
0.0
  0
VERTEX
  5
2172
  8
SAPA_PROFIL
 62
     4
 10
100.47108602537971
 20
-11.33375313224469
 30
0.0
 42
-0.1316524975874375
  0
VERTEX
  5
2173
  8
SAPA_PROFIL
 62
     4
 10
100.6050606215957
 20
-10.833753132244491
 30
0.0
  0
VERTEX
  5
2174
  8
SAPA_PROFIL
 62
     4
 10
101.5312100682479
 20
-9.2296152352425551
 30
0.0
 42
0.1316524975874
  0
VERTEX
  5
2175
  8
SAPA_PROFIL
 62
     4
 10
101.5714024471135
 20
-9.0796152352430113
 30
0.0
  0
VERTEX
  5
2176
  8
SAPA_PROFIL
 62
     4
 10
101.5714024471129
 20
-8.8999999929717077
 30
0.0
 42
0.4142135623744271
  0
VERTEX
  5
2177
  8
SAPA_PROFIL
 62
     4
 10
101.1714024471119
 20
-8.4999999929725192
 30
0.0
  0
VERTEX
  5
2178
  8
SAPA_PROFIL
 62
     4
 10
97.771402447110916
 20
-8.4999999929711532
 30
0.0
 42
0.4142135623724291
  0
VERTEX
  5
2179
  8
SAPA_PROFIL
 62
     4
 10
97.371402447111265
 20
-8.8999999929716935
 30
0.0
  0
VERTEX
  5
217A
  8
SAPA_PROFIL
 62
     4
 10
97.371402447104899
 20
-9.0824360634084726
 30
0.0
 42
0.1318219888653524
  0
VERTEX
  5
217B
  8
SAPA_PROFIL
 62
     4
 10
97.411694843642294
 20
-9.2326091658808167
 30
0.0
  0
VERTEX
  5
217C
  8
SAPA_PROFIL
 62
     4
 10
98.220378304866642
 20
-10.631136866360469
 30
0.0
  0
VERTEX
  5
217D
  8
SAPA_PROFIL
 62
     4
 10
98.487492833079671
 20
-10.631136866360469
 30
0.0
 42
-0.577350269189159
  0
VERTEX
  5
217E
  8
SAPA_PROFIL
 62
     4
 10
98.669358167874236
 20
-10.94613686636008
 30
0.0
  0
VERTEX
  5
217F
  8
SAPA_PROFIL
 62
     4
 10
98.467621489197114
 20
-11.29555504357873
 30
0.0
 42
-0.0612687673629489
  0
VERTEX
  5
2180
  8
SAPA_PROFIL
 62
     4
 10
98.454038118510923
 20
-11.58823047667895
 30
0.0
 42
-0.2694959974285039
  0
VERTEX
  5
2181
  8
SAPA_PROFIL
 62
     4
 10
98.260906144166967
 20
-11.819749523079469
 30
0.0
  0
VERTEX
  5
2182
  8
SAPA_PROFIL
 62
     4
 10
95.800075953713801
 20
-12.715418463989129
 30
0.0
 42
0.3152987888784035
  0
VERTEX
  5
2183
  8
SAPA_PROFIL
 62
     4
 10
95.471086025377218
 20
-13.18526477438235
 30
0.0
  0
VERTEX
  5
2184
  8
SAPA_PROFIL
 62
     4
 10
95.471086025378796
 20
-14.56676435958679
 30
0.0
 42
0.2539676464741841
  0
VERTEX
  5
2185
  8
SAPA_PROFIL
 62
     4
 10
95.607694314874081
 20
-14.818365529970871
 30
0.0
  0
VERTEX
  5
2186
  8
SAPA_PROFIL
 62
     4
 10
96.014254510879056
 20
-15.08238880834751
 30
0.0
 42
0.5862177598324623
  0
VERTEX
  5
2187
  8
SAPA_PROFIL
 62
     4
 10
96.471086025375556
 20
-14.82664699310916
 30
0.0
  0
VERTEX
  5
2188
  8
SAPA_PROFIL
 62
     4
 10
96.471086025367896
 20
-13.885472312599351
 30
0.0
 42
-0.3152987888813165
  0
VERTEX
  5
2189
  8
SAPA_PROFIL
 62
     4
 10
96.800075953704649
 20
-13.4156260022016
 30
0.0
  0
VERTEX
  5
218A
  8
SAPA_PROFIL
 62
     4
 10
98.000075953715893
 20
-12.978861721077649
 30
0.0
 42
-0.5205670505515651
  0
VERTEX
  5
218B
  8
SAPA_PROFIL
 62
     4
 10
98.671086025378628
 20
-13.44870803147087
 30
0.0
  0
VERTEX
  5
218C
  8
SAPA_PROFIL
 62
     4
 10
98.671086025378656
 20
-18.465148972139719
 30
0.0
 42
-0.3702522326300203
  0
VERTEX
  5
218D
  8
SAPA_PROFIL
 62
     4
 10
98.416626072712944
 20
-18.761672333933049
 30
0.0
 42
-0.0982365330332397
  0
VERTEX
  5
218E
  8
SAPA_PROFIL
 62
     4
 10
96.728939297717943
 20
-18.852125092143979
 30
0.0
 42
-0.3735060174783164
  0
VERTEX
  5
218F
  8
SAPA_PROFIL
 62
     4
 10
96.471086025377915
 20
-18.555100424233
 30
0.0
  0
VERTEX
  5
2190
  8
SAPA_PROFIL
 62
     4
 10
96.471086025376991
 20
-18.126646993110349
 30
0.0
 42
0.5920056181162531
  0
VERTEX
  5
2191
  8
SAPA_PROFIL
 62
     4
 10
96.009882522849054
 20
-17.873638236792949
 30
0.0
  0
VERTEX
  5
2192
  8
SAPA_PROFIL
 62
     4
 10
95.60769431487077
 20
-18.13482231294865
 30
0.0
 42
0.2539676464746725
  0
VERTEX
  5
2193
  8
SAPA_PROFIL
 62
     4
 10
95.471086025375385
 20
-18.386423483332411
 30
0.0
  0
VERTEX
  5
2194
  8
SAPA_PROFIL
 62
     4
 10
95.471086025376934
 20
-40.613576502698102
 30
0.0
 42
0.2539676464741819
  0
VERTEX
  5
2195
  8
SAPA_PROFIL
 62
     4
 10
95.607694314870713
 20
-40.86517767308095
 30
0.0
  0
VERTEX
  5
2196
  8
SAPA_PROFIL
 62
     4
 10
96.009882522849054
 20
-41.126361749234761
 30
0.0
 42
0.5920055144124249
  0
VERTEX
  5
2197
  8
SAPA_PROFIL
 62
     4
 10
96.471086025376934
 20
-40.873352992919251
 30
0.0
  0
VERTEX
  5
2198
  8
SAPA_PROFIL
 62
     4
 10
96.471086000101934
 20
-40.444899515629039
 30
0.0
 42
-0.3735060174775405
  0
VERTEX
  5
2199
  8
SAPA_PROFIL
 62
     4
 10
96.728939272442034
 20
-40.147874847719351
 30
0.0
 42
-0.0355900683670349
  0
VERTEX
  5
219A
  8
SAPA_PROFIL
 62
     4
 10
97.344812859241813
 20
-40.103981283687091
 30
0.0
 42
-0.0624282003873116
  0
VERTEX
  5
219B
  8
SAPA_PROFIL
 62
     4
 10
98.416626047436935
 20
-40.238327605930039
 30
0.0
 42
-0.3702522326309292
  0
VERTEX
  5
219C
  8
SAPA_PROFIL
 62
     4
 10
98.671086000102676
 20
-40.534850967723408
 30
0.0
  0
VERTEX
  5
219D
  8
SAPA_PROFIL
 62
     4
 10
98.671086025378784
 20
-45.55129195455693
 30
0.0
 42
-0.5205670505515692
  0
VERTEX
  5
219E
  8
SAPA_PROFIL
 62
     4
 10
98.000075953715822
 20
-46.021138264950153
 30
0.0
  0
VERTEX
  5
219F
  8
SAPA_PROFIL
 62
     4
 10
96.800075953706369
 20
-45.584373983825188
 30
0.0
 42
-0.3152987888807539
  0
VERTEX
  5
21A0
  8
SAPA_PROFIL
 62
     4
 10
96.471086025368734
 20
-45.114527673429343
 30
0.0
  0
VERTEX
  5
21A1
  8
SAPA_PROFIL
 62
     4
 10
96.471086025375556
 20
-44.173352992920258
 30
0.0
 42
0.5862175119221242
  0
VERTEX
  5
21A2
  8
SAPA_PROFIL
 62
     4
 10
96.014254699620452
 20
-43.917611061938302
 30
0.0
 42
-0.0000002084758573
  0
SEQEND
  5
21A3
  8
SAPA_PROFIL
 62
     4
  0
CIRCLE
  5
174C
  8
SAPA_PROFIL
 62
     2
 10
86.831507495362601
 20
-67.317340025554543
 30
0.1
 40
0.25
  0
INSERT
  5
174D
  8
SAPA_PROFIL
  6
CONTINUOUS
 62
     2
  2
*U121
 10
0.0
 20
0.0
 30
0.0
1001
ACAD
1002
{
1000
R14_HATCH_DATA
1000
174D
1011
1.0
1021
0.0
1031
0.0
1021
0.0
1031
0.0
1011
0.0
1021
0.0
1031
0.0
1021
1.0
1031
0.0
1011
0.0
1021
0.0
1031
0.0
1021
0.0
1031
1.0
1040
0.1
1010
0.0
1020
0.0
1030
1.0
1000
SOLID
1070
     1
1070
     1
1071
        1
1071
        7
1070
     1
1070
     1
1071
        2
1040
86.831507495362601
1040
-67.067340025554557
1040
1.0
1040
86.831507495362601
1040
-67.567340025554557
1040
1.0
1071
        1
1005
174C
1070
     0
1070
     1
1040
0.0095408196840103
1071
        1
1040
86.831507495362601
1040
-67.217340025554563
1040
0.1
1002
}
  0
POLYLINE
  5
174E
  8
SAPA_PROFIL
 62
     2
 66
     1
 10
0.0
 20
0.0
 30
0.1
 70
     1
  0
VERTEX
  5
21B5
  8
SAPA_PROFIL
 62
     2
 10
84.499974494019568
 20
-69.991719264420453
 30
0.1
  0
VERTEX
  5
21B6
  8
SAPA_PROFIL
 62
     2
 10
84.399974494019574
 20
-69.991719264420453
 30
0.1
 42
-0.4142135623730959
  0
VERTEX
  5
21B7
  8
SAPA_PROFIL
 62
     2
 10
83.699974494019571
 20
-69.29171926442045
 30
0.1
  0
VERTEX
  5
21B8
  8
SAPA_PROFIL
 62
     2
 10
83.699974494019571
 20
-68.191719264420442
 30
0.1
 42
-0.4142135623730961
  0
VERTEX
  5
21B9
  8
SAPA_PROFIL
 62
     2
 10
83.899974494019574
 20
-67.991719264420453
 30
0.1
  0
VERTEX
  5
21BA
  8
SAPA_PROFIL
 62
     2
 10
84.999974494019568
 20
-67.991719264420453
 30
0.1
 42
-0.4142135623730956
  0
VERTEX
  5
21BB
  8
SAPA_PROFIL
 62
     2
 10
85.199974494019571
 20
-68.191719264420442
 30
0.1
  0
VERTEX
  5
21BC
  8
SAPA_PROFIL
 62
     2
 10
85.199974494019571
 20
-69.29171926442045
 30
0.1
 42
-0.4142135623730946
  0
SEQEND
  5
21BD
  8
SAPA_PROFIL
 62
     2
  0
POLYLINE
  5
174F
  8
SAPA_PROFIL
 62
     2
 66
     1
 10
0.0
 20
0.0
 30
0.1
  0
VERTEX
  5
21BE
  8
SAPA_PROFIL
 62
     2
 10
85.999974494019568
 20
-68.691719264420456
 30
0.1
  0
VERTEX
  5
21BF
  8
SAPA_PROFIL
 62
     2
 10
85.999974494019568
 20
-68.043953699147366
 30
0.1
 42
-0.4416942457848117
  0
VERTEX
  5
21C0
  8
SAPA_PROFIL
 62
     2
 10
86.218528853647484
 20
-67.844816219654433
 30
0.1
  0
VERTEX
  5
21C1
  8
SAPA_PROFIL
 62
     2
 10
87.181420134391658
 20
-67.934532284912464
 30
0.1
 42
0.4416942457848106
  0
VERTEX
  5
21C2
  8
SAPA_PROFIL
 62
     2
 10
87.399974494019574
 20
-67.735394805419531
 30
0.1
  0
VERTEX
  5
21C3
  8
SAPA_PROFIL
 62
     2
 10
87.399974494019574
 20
-67.185412465827994
 30
0.1
 42
0.5445962197109637
  0
VERTEX
  5
21C4
  8
SAPA_PROFIL
 62
     2
 10
86.694295448614497
 20
-66.729675556766125
 30
0.1
  0
VERTEX
  5
21C5
  8
SAPA_PROFIL
 62
     2
 10
86.335244295329247
 20
-66.891719264420459
 30
0.1
  0
VERTEX
  5
21C6
  8
SAPA_PROFIL
 62
     2
 10
84.862285056581342
 20
-66.891719264420459
 30
0.1
 42
0.336437923496554
  0
VERTEX
  5
21C7
  8
SAPA_PROFIL
 62
     2
 10
83.790541326966505
 20
-67.079226082262181
 30
0.1
  0
VERTEX
  5
21C8
  8
SAPA_PROFIL
 62
     2
 10
83.228677691142778
 20
-67.079226082262181
 30
0.1
 42
-0.1919812372740513
  0
VERTEX
  5
21C9
  8
SAPA_PROFIL
 62
     2
 10
82.884690643542754
 20
-66.942093704244925
 30
0.1
  0
VERTEX
  5
21CA
  8
SAPA_PROFIL
 62
     2
 10
82.492823713139444
 20
-66.570616227954886
 30
0.1
 42
-0.9249153594910841
  0
VERTEX
  5
21CB
  8
SAPA_PROFIL
 62
     2
 10
84.158601641661676
 20
-64.336921412875583
 30
0.1
  0
VERTEX
  5
21CC
  8
SAPA_PROFIL
 62
     2
 10
85.243146581330436
 20
-64.870469468127226
 30
0.1
 42
0.4184584792862776
  0
VERTEX
  5
21CD
  8
SAPA_PROFIL
 62
     2
 10
85.829848897901869
 20
-64.466717347707501
 30
0.1
 42
0.3891337693453737
  0
VERTEX
  5
21CE
  8
SAPA_PROFIL
 62
     2
 10
85.684682006361385
 20
-64.23862803976489
 30
0.1
  0
VERTEX
  5
21CF
  8
SAPA_PROFIL
 62
     2
 10
84.598785915796384
 20
-63.675722987277013
 30
0.1
 42
0.8864286961344978
  0
VERTEX
  5
21D0
  8
SAPA_PROFIL
 62
     2
 10
81.927006013859838
 20
-67.034921742797735
 30
0.1
  0
VERTEX
  5
21D1
  8
SAPA_PROFIL
 62
     2
 10
81.496446875978577
 20
-67.15028971608686
 30
0.1
 42
0.9163311740174273
  0
VERTEX
  5
21D2
  8
SAPA_PROFIL
 62
     2
 10
81.634836791118644
 20
-67.935137925839172
 30
0.1
  0
VERTEX
  5
21D3
  8
SAPA_PROFIL
 62
     2
 10
82.682543345470037
 20
-67.843475479631621
 30
0.1
 42
-0.4400105308918339
  0
VERTEX
  5
21D4
  8
SAPA_PROFIL
 62
     2
 10
82.899974494019574
 20
-68.042714419249975
 30
0.1
  0
VERTEX
  5
21D5
  8
SAPA_PROFIL
 62
     2
 10
82.899974494019574
 20
-68.891719264420445
 30
0.1
  0
VERTEX
  5
21D6
  8
SAPA_PROFIL
 62
     2
 10
82.499974494019568
 20
-68.891719264420445
 30
0.1
 42
0.569380983920789
  0
VERTEX
  5
21D7
  8
SAPA_PROFIL
 62
     2
 10
82.324420448455982
 20
-69.187535636123101
 30
0.1
  0
VERTEX
  5
21D8
  8
SAPA_PROFIL
 62
     2
 10
83.02938604835505
 20
-70.479168379528403
 30
0.1
 42
0.274387813087548
  0
VERTEX
  5
21D9
  8
SAPA_PROFIL
 62
     2
 10
83.556048185045796
 20
-70.79171926442045
 30
0.1
  0
VERTEX
  5
21DA
  8
SAPA_PROFIL
 62
     2
 10
85.343900802993346
 20
-70.79171926442045
 30
0.1
 42
0.274387813087548
  0
VERTEX
  5
21DB
  8
SAPA_PROFIL
 62
     2
 10
85.870562939684092
 20
-70.479168379528403
 30
0.1
  0
VERTEX
  5
21DC
  8
SAPA_PROFIL
 62
     2
 10
86.575528539583161
 20
-69.187535636123101
 30
0.1
 42
0.5693809839207892
  0
VERTEX
  5
21DD
  8
SAPA_PROFIL
 62
     2
 10
86.399974494019574
 20
-68.891719264420445
 30
0.1
  0
VERTEX
  5
21DE
  8
SAPA_PROFIL
 62
     2
 10
85.999974494019597
 20
-68.891719264420445
 30
0.1
  0
VERTEX
  5
21DF
  8
SAPA_PROFIL
 62
     2
 10
85.999974494019597
 20
-68.042714419249975
 30
0.1
  0
SEQEND
  5
21E0
  8
SAPA_PROFIL
 62
     2
  0
POLYLINE
  5
1750
  8
SAPA_PROFIL
 66
     1
 10
0.0
 20
0.0
 30
0.0
 70
     1
  0
VERTEX
  5
21E1
  8
SAPA_PROFIL
 10
81.453514569158656
 20
-8.4999999990094537
 30
0.0
 42
0.2134217652834387
  0
VERTEX
  5
21E2
  8
SAPA_PROFIL
 10
81.677121366908764
 20
-8.3999999990093457
 30
0.0
 42
-0.7625858545243219
  0
VERTEX
  5
21E3
  8
SAPA_PROFIL
 10
82.007447447925784
 20
-8.5845792012068216
 30
0.0
  0
VERTEX
  5
21E4
  8
SAPA_PROFIL
 10
81.949373810936692
 20
-8.7759622012005423
 30
0.0
  0
VERTEX
  5
21E5
  8
SAPA_PROFIL
 10
80.864809363964966
 20
-10.66180589306159
 30
0.0
  0
VERTEX
  5
21E6
  8
SAPA_PROFIL
 10
80.543051635746693
 20
-10.651244526834621
 30
0.0
 42
0.5773502691897439
  0
VERTEX
  5
21E7
  8
SAPA_PROFIL
 10
80.360097895636528
 20
-10.945400827089451
 30
0.0
  0
VERTEX
  5
21E8
  8
SAPA_PROFIL
 10
80.512231806745277
 20
-11.23008311032109
 30
0.0
 42
0.2216946626430187
  0
VERTEX
  5
21E9
  8
SAPA_PROFIL
 10
81.053111638222063
 20
-11.635892015475889
 30
0.0
  0
VERTEX
  5
21EA
  8
SAPA_PROFIL
 10
82.866342108880303
 20
-12.0173386116036
 30
0.0
 42
0.4769755326981641
  0
VERTEX
  5
21EB
  8
SAPA_PROFIL
 10
83.237998983826202
 20
-11.71508578709714
 30
0.0
  0
VERTEX
  5
21EC
  8
SAPA_PROFIL
 10
83.237915375942549
 20
-10.21198470633513
 30
0.0
  0
VERTEX
  5
21ED
  8
SAPA_PROFIL
 10
83.190069625944048
 20
-10.19746629708802
 30
0.0
 42
-0.4142135623730944
  0
VERTEX
  5
21EE
  8
SAPA_PROFIL
 10
82.990105581436666
 20
-9.8232813416122156
 30
0.0
  0
VERTEX
  5
21EF
  8
SAPA_PROFIL
 10
83.500000000000156
 20
-8.5040483398508044
 30
0.0
  0
VERTEX
  5
21F0
  8
SAPA_PROFIL
 10
83.500000000000213
 20
11.23147839764669
 30
0.0
 42
-0.38217120901707
  0
VERTEX
  5
21F1
  8
SAPA_PROFIL
 10
83.766880215905957
 20
11.529644592748619
 30
0.0
  0
VERTEX
  5
21F2
  8
SAPA_PROFIL
 10
90.344851000000176
 20
12.05548412771361
 30
0.0
 42
-0.4469990000000265
  0
VERTEX
  5
21F3
  8
SAPA_PROFIL
 10
90.900051000000303
 20
11.55854012771356
 30
0.0
  0
VERTEX
  5
21F4
  8
SAPA_PROFIL
 10
90.900051000000175
 20
9.8000000009905666
 30
0.0
 42
0.4142139999999868
  0
VERTEX
  5
21F5
  8
SAPA_PROFIL
 10
91.900051000000119
 20
8.8000000009905932
 30
0.0
  0
VERTEX
  5
21F6
  8
SAPA_PROFIL
 10
92.167595000000233
 20
8.8000000009905524
 30
0.0
 42
0.2896899999999956
  0
VERTEX
  5
21F7
  8
SAPA_PROFIL
 10
93.071103000000221
 20
9.3714280009906261
 30
0.0
 42
0.5507599999999603
  0
VERTEX
  5
21F8
  8
SAPA_PROFIL
 10
92.800051000000167
 20
9.8000000009905666
 30
0.0
  0
VERTEX
  5
21F9
  8
SAPA_PROFIL
 10
92.500051000000227
 20
9.800000000990563
 30
0.0
 42
-0.4142140000001095
  0
VERTEX
  5
21FA
  8
SAPA_PROFIL
 10
92.300051000000124
 20
10.00000000099061
 30
0.0
  0
VERTEX
  5
21FB
  8
SAPA_PROFIL
 10
92.300051000000195
 20
11.100000000990571
 30
0.0
 42
-0.4142139999999826
  0
VERTEX
  5
21FC
  8
SAPA_PROFIL
 10
93.300051000000167
 20
12.100000000990519
 30
0.0
  0
VERTEX
  5
21FD
  8
SAPA_PROFIL
 10
95.60000000000025
 20
12.10000000099056
 30
0.0
 42
-0.4142139999999877
  0
VERTEX
  5
21FE
  8
SAPA_PROFIL
 10
96.600000000000236
 20
11.100000000990621
 30
0.0
  0
VERTEX
  5
21FF
  8
SAPA_PROFIL
 10
96.60000000000025
 20
10.00000000099055
 30
0.0
 42
-0.4142139999999481
  0
VERTEX
  5
2200
  8
SAPA_PROFIL
 10
96.400000000000134
 20
9.8000000009906021
 30
0.0
  0
VERTEX
  5
2201
  8
SAPA_PROFIL
 10
96.100051000000235
 20
9.8000000009905595
 30
0.0
 42
0.5507600000000124
  0
VERTEX
  5
2202
  8
SAPA_PROFIL
 10
95.828998000000183
 20
9.3714280009905604
 30
0.0
 42
0.2896899999999978
  0
VERTEX
  5
2203
  8
SAPA_PROFIL
 10
96.732506000000114
 20
8.8000000009905381
 30
0.0
  0
VERTEX
  5
2204
  8
SAPA_PROFIL
 10
97.000000000000242
 20
8.800000000990563
 30
0.0
 42
0.4142140000000002
  0
VERTEX
  5
2205
  8
SAPA_PROFIL
 10
98.000000000000227
 20
9.8000000009905772
 30
0.0
  0
VERTEX
  5
2206
  8
SAPA_PROFIL
 10
98.000000000000256
 20
11.50000000099055
 30
0.0
 42
0.4142139999999887
  0
VERTEX
  5
2207
  8
SAPA_PROFIL
 10
96.000000000000199
 20
13.50000000099061
 30
0.0
  0
VERTEX
  5
2208
  8
SAPA_PROFIL
 10
31.20000000000028
 20
13.50000000099055
 30
0.0
 42
0.4142135623730847
  0
VERTEX
  5
2209
  8
SAPA_PROFIL
 10
31.00000000000027
 20
13.300000000990559
 30
0.0
  0
VERTEX
  5
220A
  8
SAPA_PROFIL
 10
31.000000000000281
 20
10.611383000990591
 30
0.0
 42
0.2596810000000924
  0
VERTEX
  5
220B
  8
SAPA_PROFIL
 10
31.094693000000291
 20
10.44135200099057
 30
0.0
  0
VERTEX
  5
220C
  8
SAPA_PROFIL
 10
32.542040000000213
 20
9.5449530009905619
 30
0.0
 42
0.5877030000000333
  0
VERTEX
  5
220D
  8
SAPA_PROFIL
 10
33.000000000000298
 20
9.8000000009906234
 30
0.0
  0
VERTEX
  5
220E
  8
SAPA_PROFIL
 10
33.000000000000291
 20
11.20000000099059
 30
0.0
 42
-0.4142139999999517
  0
VERTEX
  5
220F
  8
SAPA_PROFIL
 10
33.30000000000021
 20
11.50000000099058
 30
0.0
  0
VERTEX
  5
2210
  8
SAPA_PROFIL
 10
35.700000000000223
 20
11.500000000990539
 30
0.0
 42
-0.4142140000000525
  0
VERTEX
  5
2211
  8
SAPA_PROFIL
 10
36.000000000000227
 20
11.200000000990601
 30
0.0
  0
VERTEX
  5
2212
  8
SAPA_PROFIL
 10
36.000000000000277
 20
-6.1999999990093828
 30
0.0
 42
-0.4142140000001183
  0
VERTEX
  5
2213
  8
SAPA_PROFIL
 10
35.700000000000188
 20
-6.4999999990095647
 30
0.0
  0
VERTEX
  5
2214
  8
SAPA_PROFIL
 10
33.300000000000182
 20
-6.499999999009459
 30
0.0
 42
-0.4142140000000144
  0
VERTEX
  5
2215
  8
SAPA_PROFIL
 10
33.000000000000341
 20
-6.1999999990094397
 30
0.0
  0
VERTEX
  5
2216
  8
SAPA_PROFIL
 10
33.000000000000291
 20
-4.7999999990094064
 30
0.0
 42
0.5920054160710128
  0
VERTEX
  5
2217
  8
SAPA_PROFIL
 10
32.538796661885378
 20
-4.5469914862516747
 30
0.0
  0
VERTEX
  5
2218
  8
SAPA_PROFIL
 10
31.292531005672402
 20
-5.3410445160732882
 30
0.0
 42
0.2562769852931535
  0
VERTEX
  5
2219
  8
SAPA_PROFIL
 10
31.200000000000301
 20
-5.509717024971911
 30
0.0
  0
VERTEX
  5
221A
  8
SAPA_PROFIL
 10
31.200000000000291
 20
-8.5040483398502911
 30
0.0
  0
VERTEX
  5
221B
  8
SAPA_PROFIL
 10
31.709894418563959
 20
-9.8232813416121925
 30
0.0
 42
-0.4142135623730948
  0
VERTEX
  5
221C
  8
SAPA_PROFIL
 10
31.509930374056569
 20
-10.197466297088001
 30
0.0
  0
VERTEX
  5
221D
  8
SAPA_PROFIL
 10
31.462084624058079
 20
-10.2119847063351
 30
0.0
  0
VERTEX
  5
221E
  8
SAPA_PROFIL
 10
31.46200101617444
 20
-11.715085787097109
 30
0.0
 42
0.4769755326981646
  0
VERTEX
  5
221F
  8
SAPA_PROFIL
 10
31.8336578911203
 20
-12.017338611603581
 30
0.0
  0
VERTEX
  5
2220
  8
SAPA_PROFIL
 10
33.646888361778551
 20
-11.63589201547585
 30
0.0
 42
0.2216946626430189
  0
VERTEX
  5
2221
  8
SAPA_PROFIL
 10
34.187768193255337
 20
-11.230083110321059
 30
0.0
  0
VERTEX
  5
2222
  8
SAPA_PROFIL
 10
34.339902104364107
 20
-10.94540082708942
 30
0.0
 42
0.5773502691897443
  0
VERTEX
  5
2223
  8
SAPA_PROFIL
 10
34.156948364253921
 20
-10.65124452683461
 30
0.0
  0
VERTEX
  5
2224
  8
SAPA_PROFIL
 10
33.835190636035676
 20
-10.661805893061571
 30
0.0
  0
VERTEX
  5
2225
  8
SAPA_PROFIL
 10
32.750626189063937
 20
-8.7759622012005192
 30
0.0
  0
VERTEX
  5
2226
  8
SAPA_PROFIL
 10
32.692552552074858
 20
-8.5845792012068056
 30
0.0
 42
-0.7625858545243274
  0
VERTEX
  5
2227
  8
SAPA_PROFIL
 10
33.02287863309185
 20
-8.3999999990093013
 30
0.0
 42
0.2134217652834391
  0
VERTEX
  5
2228
  8
SAPA_PROFIL
 10
33.246485430841972
 20
-8.4999999990094235
 30
0.0
  0
VERTEX
  5
2229
  8
SAPA_PROFIL
 10
37.099271835342002
 20
-8.4999999990094448
 30
0.0
 42
-0.4142135623729077
  0
VERTEX
  5
222A
  8
SAPA_PROFIL
 10
37.399271835341892
 20
-8.7999999990095201
 30
0.0
  0
VERTEX
  5
222B
  8
SAPA_PROFIL
 10
37.399271835341949
 20
-9.099999999009702
 30
0.0
  0
VERTEX
  5
222C
  8
SAPA_PROFIL
 10
36.475511404638667
 20
-10.69999999900932
 30
0.0
 42
0.5773502691897674
  0
VERTEX
  5
222D
  8
SAPA_PROFIL
 10
36.648716485395433
 20
-10.99999999900945
 30
0.0
  0
VERTEX
  5
222E
  8
SAPA_PROFIL
 10
38.034357131450577
 20
-10.99999999900945
 30
0.0
 42
0.2679491924311062
  0
VERTEX
  5
222F
  8
SAPA_PROFIL
 10
38.900382535235011
 20
-10.49999999900963
 30
0.0
  0
VERTEX
  5
2230
  8
SAPA_PROFIL
 10
39.910745506317078
 20
-8.7499999990093951
 30
0.0
 42
-0.267949192431108
  0
VERTEX
  5
2231
  8
SAPA_PROFIL
 10
40.343758208209287
 20
-8.4999999990094448
 30
0.0
  0
VERTEX
  5
2232
  8
SAPA_PROFIL
 10
74.356241791791135
 20
-8.4999999990094395
 30
0.0
 42
-0.2679491924311069
  0
VERTEX
  5
2233
  8
SAPA_PROFIL
 10
74.789254493683359
 20
-8.7499999990094182
 30
0.0
  0
VERTEX
  5
2234
  8
SAPA_PROFIL
 10
75.799617464765447
 20
-10.49999999900956
 30
0.0
 42
0.2679491924311082
  0
VERTEX
  5
2235
  8
SAPA_PROFIL
 10
76.665642868549867
 20
-10.999999999009439
 30
0.0
  0
VERTEX
  5
2236
  8
SAPA_PROFIL
 10
78.051283514604961
 20
-10.999999999009439
 30
0.0
 42
0.5773502691897738
  0
VERTEX
  5
2237
  8
SAPA_PROFIL
 10
78.224488595361748
 20
-10.699999999009369
 30
0.0
  0
VERTEX
  5
2238
  8
SAPA_PROFIL
 10
77.300728164658494
 20
-9.0999999990096967
 30
0.0
  0
VERTEX
  5
2239
  8
SAPA_PROFIL
 10
77.300728164658494
 20
-8.7999999990095148
 30
0.0
 42
-0.4142135623729009
  0
VERTEX
  5
223A
  8
SAPA_PROFIL
 10
77.600728164658364
 20
-8.4999999990093826
 30
0.0
  0
SEQEND
  5
223B
  8
SAPA_PROFIL
  0
POLYLINE
  5
1751
  8
SAPA_PROFIL
 66
     1
 10
0.0
 20
0.0
 30
0.0
 70
     1
  0
VERTEX
  5
223C
  8
SAPA_PROFIL
 10
79.800000000000267
 20
-6.399999999009423
 30
0.0
 42
0.4142135623730951
  0
VERTEX
  5
223D
  8
SAPA_PROFIL
 10
79.60000000000025
 20
-6.1999999990093784
 30
0.0
  0
VERTEX
  5
223E
  8
SAPA_PROFIL
 10
78.000000000000213
 20
-6.1999999990094352
 30
0.0
 42
0.4142135623730951
  0
VERTEX
  5
223F
  8
SAPA_PROFIL
 10
77.800000000000182
 20
-6.399999999009423
 30
0.0
  0
VERTEX
  5
2240
  8
SAPA_PROFIL
 10
77.800000000000182
 20
-6.7000000828827524
 30
0.0
  0
VERTEX
  5
2241
  8
SAPA_PROFIL
 10
41.700000000000223
 20
-6.7000000828827559
 30
0.0
  0
VERTEX
  5
2242
  8
SAPA_PROFIL
 10
41.700000000000237
 20
-6.3999999990094283
 30
0.0
 42
0.4142135623730951
  0
VERTEX
  5
2243
  8
SAPA_PROFIL
 10
41.50000000000022
 20
-6.1999999990093819
 30
0.0
  0
VERTEX
  5
2244
  8
SAPA_PROFIL
 10
39.900000000000212
 20
-6.1999999990094388
 30
0.0
 42
0.4142135623730951
  0
VERTEX
  5
2245
  8
SAPA_PROFIL
 10
39.700000000000223
 20
-6.3999999990094283
 30
0.0
  0
VERTEX
  5
2246
  8
SAPA_PROFIL
 10
39.700000000000223
 20
-6.7000000828827559
 30
0.0
  0
VERTEX
  5
2247
  8
SAPA_PROFIL
 10
38.000000000000227
 20
-6.7000000828827071
 30
0.0
 42
-0.4142135623730951
  0
VERTEX
  5
2248
  8
SAPA_PROFIL
 10
37.700000000000223
 20
-6.4000000828827464
 30
0.0
  0
VERTEX
  5
2249
  8
SAPA_PROFIL
 10
37.700000000000237
 20
11.20000000099059
 30
0.0
 42
-0.414213562373095
  0
VERTEX
  5
224A
  8
SAPA_PROFIL
 10
38.000000000000227
 20
11.50000000099055
 30
0.0
  0
VERTEX
  5
224B
  8
SAPA_PROFIL
 10
39.700000000000223
 20
11.50000000099055
 30
0.0
  0
VERTEX
  5
224C
  8
SAPA_PROFIL
 10
39.700000000000223
 20
11.40000000099052
 30
0.0
 42
0.4142135623730951
  0
VERTEX
  5
224D
  8
SAPA_PROFIL
 10
39.900000000000212
 20
11.20000000099059
 30
0.0
  0
VERTEX
  5
224E
  8
SAPA_PROFIL
 10
41.50000000000022
 20
11.20000000099053
 30
0.0
 42
0.4142135623730951
  0
VERTEX
  5
224F
  8
SAPA_PROFIL
 10
41.700000000000223
 20
11.40000000099052
 30
0.0
  0
VERTEX
  5
2250
  8
SAPA_PROFIL
 10
41.700000000000223
 20
11.50000000099055
 30
0.0
  0
VERTEX
  5
2251
  8
SAPA_PROFIL
 10
77.800000000000182
 20
11.50000000099055
 30
0.0
  0
VERTEX
  5
2252
  8
SAPA_PROFIL
 10
77.800000000000239
 20
11.400000000990531
 30
0.0
 42
0.4142135623730951
  0
VERTEX
  5
2253
  8
SAPA_PROFIL
 10
78.000000000000213
 20
11.200000000990601
 30
0.0
  0
VERTEX
  5
2254
  8
SAPA_PROFIL
 10
79.60000000000025
 20
11.200000000990549
 30
0.0
 42
0.4142135623730898
  0
VERTEX
  5
2255
  8
SAPA_PROFIL
 10
79.800000000000182
 20
11.400000000990531
 30
0.0
  0
VERTEX
  5
2256
  8
SAPA_PROFIL
 10
79.800000000000182
 20
11.50000000099055
 30
0.0
  0
VERTEX
  5
2257
  8
SAPA_PROFIL
 10
81.500000000000227
 20
11.50000000099061
 30
0.0
 42
-0.4142135623730953
  0
VERTEX
  5
2258
  8
SAPA_PROFIL
 10
81.800000000000196
 20
11.200000000990601
 30
0.0
  0
VERTEX
  5
2259
  8
SAPA_PROFIL
 10
81.800000000000239
 20
-6.400000082882741
 30
0.0
 42
-0.4142135623730951
  0
VERTEX
  5
225A
  8
SAPA_PROFIL
 10
81.500000000000227
 20
-6.7000000828827524
 30
0.0
  0
VERTEX
  5
225B
  8
SAPA_PROFIL
 10
79.800000000000182
 20
-6.7000000828827524
 30
0.0
  0
SEQEND
  5
225C
  8
SAPA_PROFIL
  0
POLYLINE
  5
1752
  8
SAPA_PROFIL
 66
     1
 10
0.0
 20
0.0
 30
0.0
 70
     1
  0
VERTEX
  5
225D
  8
SAPA_PROFIL
 10
33.246485430841872
 20
-50.499999999009418
 30
0.0
  0
VERTEX
  5
225E
  8
SAPA_PROFIL
 10
37.099271835341931
 20
-50.499999999009418
 30
0.0
 42
0.414213562372901
  0
VERTEX
  5
225F
  8
SAPA_PROFIL
 10
37.3992718353418
 20
-50.19999999900935
 30
0.0
  0
VERTEX
  5
2260
  8
SAPA_PROFIL
 10
37.39927183534185
 20
-49.899999999009161
 30
0.0
  0
VERTEX
  5
2261
  8
SAPA_PROFIL
 10
36.475511404638567
 20
-48.299999999009501
 30
0.0
 42
-0.5773502691897976
  0
VERTEX
  5
2262
  8
SAPA_PROFIL
 10
36.648716485395333
 20
-47.999999999009418
 30
0.0
  0
VERTEX
  5
2263
  8
SAPA_PROFIL
 10
38.034357131450477
 20
-47.999999999009418
 30
0.0
 42
-0.2679491924311222
  0
VERTEX
  5
2264
  8
SAPA_PROFIL
 10
38.900382535234897
 20
-48.499999999009269
 30
0.0
  0
VERTEX
  5
2265
  8
SAPA_PROFIL
 10
39.910745506316992
 20
-50.249999999009447
 30
0.0
 42
0.2679491924310994
  0
VERTEX
  5
2266
  8
SAPA_PROFIL
 10
40.343758208209188
 20
-50.499999999009439
 30
0.0
  0
VERTEX
  5
2267
  8
SAPA_PROFIL
 10
74.356241791791092
 20
-50.499999999009418
 30
0.0
 42
0.2679491924311005
  0
VERTEX
  5
2268
  8
SAPA_PROFIL
 10
74.789254493683302
 20
-50.249999999009447
 30
0.0
  0
VERTEX
  5
2269
  8
SAPA_PROFIL
 10
75.799617464765362
 20
-48.499999999009248
 30
0.0
 42
-0.2679491924311199
  0
VERTEX
  5
226A
  8
SAPA_PROFIL
 10
76.66564286854981
 20
-47.999999999009418
 30
0.0
  0
VERTEX
  5
226B
  8
SAPA_PROFIL
 10
78.051283514604933
 20
-47.999999999009397
 30
0.0
 42
-0.5773502691897738
  0
VERTEX
  5
226C
  8
SAPA_PROFIL
 10
78.22448859536172
 20
-48.299999999009479
 30
0.0
  0
VERTEX
  5
226D
  8
SAPA_PROFIL
 10
77.300728164658409
 20
-49.899999999009161
 30
0.0
  0
VERTEX
  5
226E
  8
SAPA_PROFIL
 10
77.300728164658409
 20
-50.19999999900935
 30
0.0
 42
0.414213562372901
  0
VERTEX
  5
226F
  8
SAPA_PROFIL
 10
77.600728164658335
 20
-50.499999999009468
 30
0.0
  0
VERTEX
  5
2270
  8
SAPA_PROFIL
 10
81.453514569158415
 20
-50.499999999009418
 30
0.0
 42
-0.2134217652834299
  0
VERTEX
  5
2271
  8
SAPA_PROFIL
 10
81.677121366908494
 20
-50.59999999900954
 30
0.0
 42
0.7625858545243327
  0
VERTEX
  5
2272
  8
SAPA_PROFIL
 10
82.007447447925529
 20
-50.415420796812072
 30
0.0
  0
VERTEX
  5
2273
  8
SAPA_PROFIL
 10
81.949373810936436
 20
-50.224037796818351
 30
0.0
  0
VERTEX
  5
2274
  8
SAPA_PROFIL
 10
80.864809363964696
 20
-48.338194104957289
 30
0.0
  0
VERTEX
  5
2275
  8
SAPA_PROFIL
 10
80.543051635746423
 20
-48.348755471184283
 30
0.0
 42
-0.5773502691897466
  0
VERTEX
  5
2276
  8
SAPA_PROFIL
 10
80.360097895636258
 20
-48.054599170929428
 30
0.0
  0
VERTEX
  5
2277
  8
SAPA_PROFIL
 10
80.512231806745007
 20
-47.769916887697782
 30
0.0
 42
-0.221694662643014
  0
VERTEX
  5
2278
  8
SAPA_PROFIL
 10
81.053111638221822
 20
-47.364107982542997
 30
0.0
  0
VERTEX
  5
2279
  8
SAPA_PROFIL
 10
82.866342108880048
 20
-46.98266138641528
 30
0.0
 42
-0.4769755326981641
  0
VERTEX
  5
227A
  8
SAPA_PROFIL
 10
83.237998983825946
 20
-47.284914210921748
 30
0.0
  0
VERTEX
  5
227B
  8
SAPA_PROFIL
 10
83.237915375942293
 20
-48.788015291683763
 30
0.0
  0
VERTEX
  5
227C
  8
SAPA_PROFIL
 10
83.190069625943806
 20
-48.802533700930859
 30
0.0
 42
0.4142135623730878
  0
VERTEX
  5
227D
  8
SAPA_PROFIL
 10
82.990105581436396
 20
-49.176718656406671
 30
0.0
  0
VERTEX
  5
227E
  8
SAPA_PROFIL
 10
83.500000000000085
 20
-50.495951658168501
 30
0.0
  0
VERTEX
  5
227F
  8
SAPA_PROFIL
 10
83.500000000000114
 20
-61.89999991516185
 30
0.0
 42
0.4142135623730847
  0
VERTEX
  5
2280
  8
SAPA_PROFIL
 10
83.700000000000131
 20
-62.09999991516186
 30
0.0
  0
VERTEX
  5
2281
  8
SAPA_PROFIL
 10
85.299999997930684
 20
-62.099999915161838
 30
0.0
 42
-0.4142135623730951
  0
VERTEX
  5
2282
  8
SAPA_PROFIL
 10
85.499999997930715
 20
-62.299999915161862
 30
0.0
  0
VERTEX
  5
2283
  8
SAPA_PROFIL
 10
85.499999997930715
 20
-62.799999915162338
 30
0.0
 42
-0.4142135623730951
  0
VERTEX
  5
2284
  8
SAPA_PROFIL
 10
84.499999997931084
 20
-63.799999915161919
 30
0.0
  0
VERTEX
  5
2285
  8
SAPA_PROFIL
 10
76.999999250856376
 20
-63.799999915161919
 30
0.0
 42
0.4142135623730951
  0
VERTEX
  5
2286
  8
SAPA_PROFIL
 10
75.999999997930786
 20
-64.799999168087496
 30
0.0
  0
VERTEX
  5
2287
  8
SAPA_PROFIL
 10
75.999999997930644
 20
-70.499999999009418
 30
0.0
 42
-0.4142135623730951
  0
VERTEX
  5
2288
  8
SAPA_PROFIL
 10
73.999999997930644
 20
-72.499999999009418
 30
0.0
  0
VERTEX
  5
2289
  8
SAPA_PROFIL
 10
9.5000000000001741
 20
-72.499999999009418
 30
0.0
 42
-0.4142139999999795
  0
VERTEX
  5
228A
  8
SAPA_PROFIL
 10
9.0000000000001741
 20
-71.999999999009418
 30
0.0
  0
VERTEX
  5
228B
  8
SAPA_PROFIL
 10
9.0000000000001883
 20
-68.299999999009401
 30
0.0
 42
-0.414213999999917
  0
VERTEX
  5
228C
  8
SAPA_PROFIL
 10
9.3000000000001144
 20
-67.999999999009418
 30
0.0
  0
VERTEX
  5
228D
  8
SAPA_PROFIL
 10
10.06754500000015
 20
-67.999999999009418
 30
0.0
 42
-0.2896899999999867
  0
VERTEX
  5
228E
  8
SAPA_PROFIL
 10
10.97105300000011
 20
-68.571427999009416
 30
0.0
 42
-0.5507600000000635
  0
VERTEX
  5
228F
  8
SAPA_PROFIL
 10
10.700000000000159
 20
-68.999999999009404
 30
0.0
  0
VERTEX
  5
2290
  8
SAPA_PROFIL
 10
10.500000000000171
 20
-68.999999999009404
 30
0.0
 42
0.4142140000000558
  0
VERTEX
  5
2291
  8
SAPA_PROFIL
 10
10.200000000000101
 20
-69.299999999009387
 30
0.0
  0
VERTEX
  5
2292
  8
SAPA_PROFIL
 10
10.20000000000015
 20
-70.799999999009401
 30
0.0
 42
0.4142139999999795
  0
VERTEX
  5
2293
  8
SAPA_PROFIL
 10
10.700000000000159
 20
-71.299999999009387
 30
0.0
  0
VERTEX
  5
2294
  8
SAPA_PROFIL
 10
14.000000000000201
 20
-71.299999999009401
 30
0.0
 42
0.4142140000000003
  0
VERTEX
  5
2295
  8
SAPA_PROFIL
 10
14.50000000000024
 20
-70.799999999009401
 30
0.0
  0
VERTEX
  5
2296
  8
SAPA_PROFIL
 10
14.500000000000201
 20
-69.299999999009401
 30
0.0
 42
0.4142140000000143
  0
VERTEX
  5
2297
  8
SAPA_PROFIL
 10
14.200000000000131
 20
-68.999999999009376
 30
0.0
  0
VERTEX
  5
2298
  8
SAPA_PROFIL
 10
14.000000000000201
 20
-68.999999999009404
 30
0.0
 42
-0.5507599999999967
  0
VERTEX
  5
2299
  8
SAPA_PROFIL
 10
13.7289480000002
 20
-68.571427999009401
 30
0.0
 42
-0.2896899999999865
  0
VERTEX
  5
229A
  8
SAPA_PROFIL
 10
14.63245600000012
 20
-67.999999999009418
 30
0.0
  0
VERTEX
  5
229B
  8
SAPA_PROFIL
 10
15.62992700000011
 20
-67.999999999009418
 30
0.0
 42
-0.0436609999999814
  0
VERTEX
  5
229C
  8
SAPA_PROFIL
 10
15.71675200000009
 20
-68.007595999009425
 30
0.0
  0
VERTEX
  5
229D
  8
SAPA_PROFIL
 10
17.286824000000109
 20
-68.284441999009374
 30
0.0
 42
-0.839099999999982
  0
VERTEX
  5
229E
  8
SAPA_PROFIL
 10
17.286824000000109
 20
-69.269249999009432
 30
0.0
  0
VERTEX
  5
229F
  8
SAPA_PROFIL
 10
16.113176000000109
 20
-69.476194999009408
 30
0.0
 42
0.3639700000000465
  0
VERTEX
  5
22A0
  8
SAPA_PROFIL
 10
15.70000000000012
 20
-69.968598999009444
 30
0.0
  0
VERTEX
  5
22A1
  8
SAPA_PROFIL
 10
15.70000000000012
 20
-70.779999999009391
 30
0.0
 42
0.4373279999999983
  0
VERTEX
  5
22A2
  8
SAPA_PROFIL
 10
16.23909500000012
 20
-71.278468999009434
 30
0.0
  0
VERTEX
  5
22A3
  8
SAPA_PROFIL
 10
30.712153273416519
 20
-70.711670512613566
 30
0.0
 42
0.4023941355297885
  0
VERTEX
  5
22A4
  8
SAPA_PROFIL
 10
31.000000000000242
 20
-70.411916783787234
 30
0.0
  0
VERTEX
  5
22A5
  8
SAPA_PROFIL
 10
31.00000000000021
 20
-69.611382999009408
 30
0.0
 42
-0.2596810000001162
  0
VERTEX
  5
22A6
  8
SAPA_PROFIL
 10
31.09469300000022
 20
-69.441351999009413
 30
0.0
  0
VERTEX
  5
22A7
  8
SAPA_PROFIL
 10
32.542040000000121
 20
-68.544952999009411
 30
0.0
 42
-0.5877030000000189
  0
VERTEX
  5
22A8
  8
SAPA_PROFIL
 10
33.00000000000022
 20
-68.79999999900943
 30
0.0
  0
VERTEX
  5
22A9
  8
SAPA_PROFIL
 10
33.00000000000022
 20
-70.199999999009407
 30
0.0
 42
0.4142139999999518
  0
VERTEX
  5
22AA
  8
SAPA_PROFIL
 10
33.300000000000111
 20
-70.49999999900939
 30
0.0
  0
VERTEX
  5
22AB
  8
SAPA_PROFIL
 10
35.700000000000117
 20
-70.499999999009418
 30
0.0
 42
0.4142140000000629
  0
VERTEX
  5
22AC
  8
SAPA_PROFIL
 10
36.000000000000163
 20
-70.199999999009407
 30
0.0
  0
VERTEX
  5
22AD
  8
SAPA_PROFIL
 10
36.000000000000192
 20
-52.79999999900943
 30
0.0
 42
0.4142140000001044
  0
VERTEX
  5
22AE
  8
SAPA_PROFIL
 10
35.700000000000117
 20
-52.499999999009333
 30
0.0
  0
VERTEX
  5
22AF
  8
SAPA_PROFIL
 10
33.300000000000111
 20
-52.499999999009418
 30
0.0
 42
0.4142140000000074
  0
VERTEX
  5
22B0
  8
SAPA_PROFIL
 10
33.000000000000242
 20
-52.79999999900943
 30
0.0
  0
VERTEX
  5
22B1
  8
SAPA_PROFIL
 10
33.000000000000242
 20
-54.199999999009407
 30
0.0
 42
-0.5920054160709848
  0
VERTEX
  5
22B2
  8
SAPA_PROFIL
 10
32.538796661885293
 20
-54.453008511767173
 30
0.0
  0
VERTEX
  5
22B3
  8
SAPA_PROFIL
 10
31.29253100567233
 20
-53.658955481945497
 30
0.0
 42
-0.2562769852931301
  0
VERTEX
  5
22B4
  8
SAPA_PROFIL
 10
31.200000000000198
 20
-53.490282973046902
 30
0.0
  0
VERTEX
  5
22B5
  8
SAPA_PROFIL
 10
31.200000000000198
 20
-50.49595165816789
 30
0.0
  0
VERTEX
  5
22B6
  8
SAPA_PROFIL
 10
31.709894418563621
 20
-49.176718656406671
 30
0.0
 42
0.4142135623730872
  0
VERTEX
  5
22B7
  8
SAPA_PROFIL
 10
31.509930374056228
 20
-48.802533700930859
 30
0.0
  0
VERTEX
  5
22B8
  8
SAPA_PROFIL
 10
31.462084624057741
 20
-48.788015291683763
 30
0.0
  0
VERTEX
  5
22B9
  8
SAPA_PROFIL
 10
31.462001016174121
 20
-47.284914210921748
 30
0.0
 42
-0.4769755326981643
  0
VERTEX
  5
22BA
  8
SAPA_PROFIL
 10
31.833657891119952
 20
-46.98266138641528
 30
0.0
  0
VERTEX
  5
22BB
  8
SAPA_PROFIL
 10
33.646888361778238
 20
-47.36410798254299
 30
0.0
 42
-0.221694662643016
  0
VERTEX
  5
22BC
  8
SAPA_PROFIL
 10
34.187768193255003
 20
-47.769916887697804
 30
0.0
  0
VERTEX
  5
22BD
  8
SAPA_PROFIL
 10
34.339902104363759
 20
-48.05459917092945
 30
0.0
 42
-0.5773502691897466
  0
VERTEX
  5
22BE
  8
SAPA_PROFIL
 10
34.15694836425358
 20
-48.348755471184262
 30
0.0
  0
VERTEX
  5
22BF
  8
SAPA_PROFIL
 10
33.835190636035342
 20
-48.338194104957289
 30
0.0
  0
VERTEX
  5
22C0
  8
SAPA_PROFIL
 10
32.750626189063603
 20
-50.224037796818351
 30
0.0
  0
VERTEX
  5
22C1
  8
SAPA_PROFIL
 10
32.692552552074503
 20
-50.415420796812072
 30
0.0
 42
0.7625858545243331
  0
VERTEX
  5
22C2
  8
SAPA_PROFIL
 10
33.022878633091509
 20
-50.59999999900954
 30
0.0
 42
-0.2134217652834442
  0
SEQEND
  5
22C3
  8
SAPA_PROFIL
  0
POLYLINE
  5
1753
  8
SAPA_PROFIL
 66
     1
 10
0.0
 20
0.0
 30
0.0
 70
     1
  0
VERTEX
  5
22C4
  8
SAPA_PROFIL
 10
71.999999957930697
 20
-52.599999999009412
 30
0.0
 42
-0.4142135623730951
  0
VERTEX
  5
22C5
  8
SAPA_PROFIL
 10
71.79999995793068
 20
-52.79999999900943
 30
0.0
  0
VERTEX
  5
22C6
  8
SAPA_PROFIL
 10
70.199999957930629
 20
-52.799999999009401
 30
0.0
 42
-0.4142135623730951
  0
VERTEX
  5
22C7
  8
SAPA_PROFIL
 10
69.99999995793064
 20
-52.599999999009412
 30
0.0
  0
VERTEX
  5
22C8
  8
SAPA_PROFIL
 10
69.99999995793064
 20
-52.299999915136112
 30
0.0
  0
VERTEX
  5
22C9
  8
SAPA_PROFIL
 10
41.700000000000109
 20
-52.299999915136112
 30
0.0
  0
VERTEX
  5
22CA
  8
SAPA_PROFIL
 10
41.700000000000109
 20
-52.599999999009412
 30
0.0
 42
-0.4142135623730951
  0
VERTEX
  5
22CB
  8
SAPA_PROFIL
 10
41.500000000000121
 20
-52.79999999900943
 30
0.0
  0
VERTEX
  5
22CC
  8
SAPA_PROFIL
 10
39.900000000000112
 20
-52.799999999009401
 30
0.0
 42
-0.4142135623730951
  0
VERTEX
  5
22CD
  8
SAPA_PROFIL
 10
39.700000000000117
 20
-52.599999999009412
 30
0.0
  0
VERTEX
  5
22CE
  8
SAPA_PROFIL
 10
39.700000000000117
 20
-52.299999915136112
 30
0.0
  0
VERTEX
  5
22CF
  8
SAPA_PROFIL
 10
38.000000000000128
 20
-52.299999915136112
 30
0.0
 42
0.4142135623730951
  0
VERTEX
  5
22D0
  8
SAPA_PROFIL
 10
37.700000000000117
 20
-52.59999991513606
 30
0.0
  0
VERTEX
  5
22D1
  8
SAPA_PROFIL
 10
37.700000000000117
 20
-70.199999999009407
 30
0.0
 42
0.4142135623730951
  0
VERTEX
  5
22D2
  8
SAPA_PROFIL
 10
38.000000000000128
 20
-70.499999999009418
 30
0.0
  0
VERTEX
  5
22D3
  8
SAPA_PROFIL
 10
39.700000000000117
 20
-70.499999999009418
 30
0.0
  0
VERTEX
  5
22D4
  8
SAPA_PROFIL
 10
39.700000000000117
 20
-70.399999999009395
 30
0.0
 42
-0.4142135623730951
  0
VERTEX
  5
22D5
  8
SAPA_PROFIL
 10
39.900000000000112
 20
-70.199999999009407
 30
0.0
  0
VERTEX
  5
22D6
  8
SAPA_PROFIL
 10
41.500000000000121
 20
-70.199999999009407
 30
0.0
 42
-0.4142135623730951
  0
VERTEX
  5
22D7
  8
SAPA_PROFIL
 10
41.700000000000109
 20
-70.399999999009395
 30
0.0
  0
VERTEX
  5
22D8
  8
SAPA_PROFIL
 10
41.700000000000109
 20
-70.499999999009418
 30
0.0
  0
VERTEX
  5
22D9
  8
SAPA_PROFIL
 10
69.99999995793064
 20
-70.499999999009418
 30
0.0
  0
VERTEX
  5
22DA
  8
SAPA_PROFIL
 10
69.99999995793064
 20
-70.399999999009395
 30
0.0
 42
-0.4142135623730951
  0
VERTEX
  5
22DB
  8
SAPA_PROFIL
 10
70.199999957930629
 20
-70.199999999009407
 30
0.0
  0
VERTEX
  5
22DC
  8
SAPA_PROFIL
 10
71.79999995793068
 20
-70.199999999009421
 30
0.0
 42
-0.4142135623730951
  0
VERTEX
  5
22DD
  8
SAPA_PROFIL
 10
71.99999995793064
 20
-70.399999999009395
 30
0.0
  0
VERTEX
  5
22DE
  8
SAPA_PROFIL
 10
71.99999995793064
 20
-70.499999999009418
 30
0.0
  0
VERTEX
  5
22DF
  8
SAPA_PROFIL
 10
73.999999997930672
 20
-70.499999999009418
 30
0.0
 42
0.4142135623732158
  0
VERTEX
  5
22E0
  8
SAPA_PROFIL
 10
74.299999997930769
 20
-70.199999999009435
 30
0.0
  0
VERTEX
  5
22E1
  8
SAPA_PROFIL
 10
74.299999997930712
 20
-64.799999168087496
 30
0.0
 42
-0.4142135623730951
  0
VERTEX
  5
22E2
  8
SAPA_PROFIL
 10
76.999999250856376
 20
-62.099999915161838
 30
0.0
  0
VERTEX
  5
22E3
  8
SAPA_PROFIL
 10
81.500000000000142
 20
-62.099999915161838
 30
0.0
 42
0.4142135623730951
  0
VERTEX
  5
22E4
  8
SAPA_PROFIL
 10
81.800000000000125
 20
-61.799999915161862
 30
0.0
  0
VERTEX
  5
22E5
  8
SAPA_PROFIL
 10
81.800000000000125
 20
-52.59999991513606
 30
0.0
 42
0.4142135623730951
  0
VERTEX
  5
22E6
  8
SAPA_PROFIL
 10
81.500000000000114
 20
-52.299999915136112
 30
0.0
  0
VERTEX
  5
22E7
  8
SAPA_PROFIL
 10
71.99999995793064
 20
-52.299999915136112
 30
0.0
  0
SEQEND
  5
22E8
  8
SAPA_PROFIL
  0
POLYLINE
  5
1754
  8
SAPA_PROFIL
 62
     4
 66
     1
 10
0.0
 20
0.0
 30
0.0
  0
VERTEX
  5
22E9
  8
SAPA_PROFIL
 62
     4
 10
33.932281085847137
 20
-38.549329121449119
 30
0.0
 42
0.5571646428658034
  0
VERTEX
  5
22EA
  8
SAPA_PROFIL
 62
     4
 10
34.80000000000269
 20
-38.012368617312291
 30
0.0
  0
VERTEX
  5
22EB
  8
SAPA_PROFIL
 62
     4
 10
34.800000000002228
 20
-20.98763138079109
 30
0.0
 42
0.5571645048035741
  0
VERTEX
  5
22EC
  8
SAPA_PROFIL
 62
     4
 10
33.932281312136062
 20
-20.45067076383004
 30
0.0
  0
VERTEX
  5
22ED
  8
SAPA_PROFIL
 62
     4
 10
32.266140656068032
 20
-21.281377851376732
 30
0.0
 42
0.284385813979063
  0
VERTEX
  5
22EE
  8
SAPA_PROFIL
 62
     4
 10
32.100000000000591
 20
-21.549858159857081
 30
0.0
  0
VERTEX
  5
22EF
  8
SAPA_PROFIL
 62
     4
 10
32.100000000000598
 20
-37.450141838246402
 30
0.0
 42
0.2843858139786238
  0
VERTEX
  5
22F0
  8
SAPA_PROFIL
 62
     4
 10
32.266140656067527
 20
-37.71862214672668
 30
0.0
  0
VERTEX
  5
22F1
  8
SAPA_PROFIL
 62
     4
 10
33.93228131213688
 20
-38.549329234273841
 30
0.0
  0
SEQEND
  5
22F2
  8
SAPA_PROFIL
 62
     4
  0
POLYLINE
  5
1755
  8
SAPA_PROFIL
 62
     4
 66
     1
 10
0.0
 20
0.0
 30
0.0
 70
     1
  0
VERTEX
  5
22F3
  8
SAPA_PROFIL
 62
     4
 10
31.74316848550302
 20
-15.082388814384441
 30
0.0
  0
VERTEX
  5
22F4
  8
SAPA_PROFIL
 62
     4
 10
31.33660828949888
 20
-14.818365536008431
 30
0.0
 42
-0.2539676464751066
  0
VERTEX
  5
22F5
  8
SAPA_PROFIL
 62
     4
 10
31.200000000002781
 20
-14.566764365623721
 30
0.0
  0
VERTEX
  5
22F6
  8
SAPA_PROFIL
 62
     4
 10
31.200000000002781
 20
-13.185264780418381
 30
0.0
 42
-0.3152987888790479
  0
VERTEX
  5
22F7
  8
SAPA_PROFIL
 62
     4
 10
31.528989928340941
 20
-12.71541847002606
 30
0.0
  0
VERTEX
  5
22F8
  8
SAPA_PROFIL
 62
     4
 10
33.98982011879221
 20
-11.819749529117461
 30
0.0
 42
0.2694959974287434
  0
VERTEX
  5
22F9
  8
SAPA_PROFIL
 62
     4
 10
34.182952093136102
 20
-11.588230482716099
 30
0.0
 42
0.0612686379508233
  0
VERTEX
  5
22FA
  8
SAPA_PROFIL
 62
     4
 10
34.196535463766622
 20
-11.29555504986282
 30
0.0
  0
VERTEX
  5
22FB
  8
SAPA_PROFIL
 62
     4
 10
34.398272142495443
 20
-10.946136872554559
 30
0.0
 42
0.5773502691891679
  0
VERTEX
  5
22FC
  8
SAPA_PROFIL
 62
     4
 10
34.216406807700878
 20
-10.63113687255497
 30
0.0
  0
VERTEX
  5
22FD
  8
SAPA_PROFIL
 62
     4
 10
33.949292279574557
 20
-10.63113687255473
 30
0.0
  0
VERTEX
  5
22FE
  8
SAPA_PROFIL
 62
     4
 10
33.140608818266251
 20
-9.2326091719204797
 30
0.0
 42
-0.1318219888653519
  0
VERTEX
  5
22FF
  8
SAPA_PROFIL
 62
     4
 10
33.100316421728849
 20
-9.0824360694481356
 30
0.0
  0
VERTEX
  5
2300
  8
SAPA_PROFIL
 62
     4
 10
33.100316421735222
 20
-8.8999999990113565
 30
0.0
 42
-0.4142135623724291
  0
VERTEX
  5
2301
  8
SAPA_PROFIL
 62
     4
 10
33.500316421734851
 20
-8.4999999990108108
 30
0.0
  0
VERTEX
  5
2302
  8
SAPA_PROFIL
 62
     4
 10
36.900316421735852
 20
-8.4999999990121751
 30
0.0
 42
-0.4142135623744271
  0
VERTEX
  5
2303
  8
SAPA_PROFIL
 62
     4
 10
37.300316421736852
 20
-8.8999999990113565
 30
0.0
  0
VERTEX
  5
2304
  8
SAPA_PROFIL
 62
     4
 10
37.300316421737492
 20
-9.0796152412826601
 30
0.0
 42
-0.1316524975874005
  0
VERTEX
  5
2305
  8
SAPA_PROFIL
 62
     4
 10
37.260124042871887
 20
-9.2296152412794754
 30
0.0
  0
VERTEX
  5
2306
  8
SAPA_PROFIL
 62
     4
 10
36.333974596219363
 20
-10.833753138281731
 30
0.0
 42
0.1316524975875904
  0
VERTEX
  5
2307
  8
SAPA_PROFIL
 62
     4
 10
36.200000000004593
 20
-11.33375313828344
 30
0.0
  0
VERTEX
  5
2308
  8
SAPA_PROFIL
 62
     4
 10
36.200000000004593
 20
-11.749999999010811
 30
0.0
 42
0.4142135623730951
  0
VERTEX
  5
2309
  8
SAPA_PROFIL
 62
     4
 10
37.200000000004593
 20
-12.749999999010811
 30
0.0
  0
VERTEX
  5
230A
  8
SAPA_PROFIL
 62
     4
 10
40.200000000001857
 20
-12.749999999010811
 30
0.0
 42
-0.9999996830128083
  0
VERTEX
  5
230B
  8
SAPA_PROFIL
 62
     4
 10
40.200000000003683
 20
-13.749999999010811
 30
0.0
  0
VERTEX
  5
230C
  8
SAPA_PROFIL
 62
     4
 10
37.200000000003683
 20
-13.749999999010811
 30
0.0
 42
0.4142135623730951
  0
VERTEX
  5
230D
  8
SAPA_PROFIL
 62
     4
 10
36.200000000003691
 20
-14.749999999010811
 30
0.0
  0
VERTEX
  5
230E
  8
SAPA_PROFIL
 62
     4
 10
36.200000000003691
 20
-44.249999999095387
 30
0.0
 42
0.4142135623730951
  0
VERTEX
  5
230F
  8
SAPA_PROFIL
 62
     4
 10
37.200000000003691
 20
-45.249999999095387
 30
0.0
  0
VERTEX
  5
2310
  8
SAPA_PROFIL
 62
     4
 10
40.200000000001857
 20
-45.249999999095387
 30
0.0
 42
-0.9999999999999998
  0
VERTEX
  5
2311
  8
SAPA_PROFIL
 62
     4
 10
40.200000000001857
 20
-46.249999999095387
 30
0.0
  0
VERTEX
  5
2312
  8
SAPA_PROFIL
 62
     4
 10
37.200000000003691
 20
-46.249999999095387
 30
0.0
 42
0.4142135623736278
  0
VERTEX
  5
2313
  8
SAPA_PROFIL
 62
     4
 10
36.200000000003691
 20
-47.249999999095387
 30
0.0
  0
VERTEX
  5
2314
  8
SAPA_PROFIL
 62
     4
 10
36.200000000003691
 20
-47.666246859821847
 30
0.0
 42
0.1316524975874375
  0
VERTEX
  5
2315
  8
SAPA_PROFIL
 62
     4
 10
36.333974596219733
 20
-48.166246859822053
 30
0.0
  0
VERTEX
  5
2316
  8
SAPA_PROFIL
 62
     4
 10
37.260124042871901
 20
-49.770384756824001
 30
0.0
 42
-0.1316524975874
  0
VERTEX
  5
2317
  8
SAPA_PROFIL
 62
     4
 10
37.300316421737492
 20
-49.920384756823537
 30
0.0
  0
VERTEX
  5
2318
  8
SAPA_PROFIL
 62
     4
 10
37.300316421736859
 20
-50.099999999094848
 30
0.0
 42
-0.4142135623744271
  0
VERTEX
  5
2319
  8
SAPA_PROFIL
 62
     4
 10
36.900316421735859
 20
-50.499999999094022
 30
0.0
  0
VERTEX
  5
231A
  8
SAPA_PROFIL
 62
     4
 10
33.500316421734858
 20
-50.499999999095387
 30
0.0
 42
-0.4142135623724291
  0
VERTEX
  5
231B
  8
SAPA_PROFIL
 62
     4
 10
33.100316421735222
 20
-50.099999999094848
 30
0.0
  0
VERTEX
  5
231C
  8
SAPA_PROFIL
 62
     4
 10
33.100316421728863
 20
-49.917563928658069
 30
0.0
 42
-0.1318219888653524
  0
VERTEX
  5
231D
  8
SAPA_PROFIL
 62
     4
 10
33.140608818266251
 20
-49.767390826185718
 30
0.0
  0
VERTEX
  5
231E
  8
SAPA_PROFIL
 62
     4
 10
33.949292279490592
 20
-48.368863125706071
 30
0.0
  0
VERTEX
  5
231F
  8
SAPA_PROFIL
 62
     4
 10
34.216406807703621
 20
-48.368863125706071
 30
0.0
 42
0.577350269189159
  0
VERTEX
  5
2320
  8
SAPA_PROFIL
 62
     4
 10
34.398272142498193
 20
-48.053863125706471
 30
0.0
  0
VERTEX
  5
2321
  8
SAPA_PROFIL
 62
     4
 10
34.196535463821078
 20
-47.704444948487797
 30
0.0
 42
0.0612687673629489
  0
VERTEX
  5
2322
  8
SAPA_PROFIL
 62
     4
 10
34.182952093134872
 20
-47.411769515387597
 30
0.0
 42
0.2694959974285039
  0
VERTEX
  5
2323
  8
SAPA_PROFIL
 62
     4
 10
33.989820118790917
 20
-47.180250468987069
 30
0.0
  0
VERTEX
  5
2324
  8
SAPA_PROFIL
 62
     4
 10
31.528989928337761
 20
-46.284581528077403
 30
0.0
 42
-0.3152987888784035
  0
VERTEX
  5
2325
  8
SAPA_PROFIL
 62
     4
 10
31.200000000001179
 20
-45.814735217684181
 30
0.0
  0
VERTEX
  5
2326
  8
SAPA_PROFIL
 62
     4
 10
31.200000000002781
 20
-44.433235632479743
 30
0.0
 42
-0.2539676464741841
  0
VERTEX
  5
2327
  8
SAPA_PROFIL
 62
     4
 10
31.336608289498059
 20
-44.181634462095673
 30
0.0
  0
VERTEX
  5
2328
  8
SAPA_PROFIL
 62
     4
 10
31.74316848550303
 20
-43.917611183719032
 30
0.0
 42
-0.5862177598324623
  0
VERTEX
  5
2329
  8
SAPA_PROFIL
 62
     4
 10
32.199999999999541
 20
-44.173352998957377
 30
0.0
  0
VERTEX
  5
232A
  8
SAPA_PROFIL
 62
     4
 10
32.199999999991867
 20
-45.11452767946718
 30
0.0
 42
0.3152987888813165
  0
VERTEX
  5
232B
  8
SAPA_PROFIL
 62
     4
 10
32.52898992832862
 20
-45.584373989864943
 30
0.0
  0
VERTEX
  5
232C
  8
SAPA_PROFIL
 62
     4
 10
33.72898992833985
 20
-46.021138270988892
 30
0.0
 42
0.5205670505515651
  0
VERTEX
  5
232D
  8
SAPA_PROFIL
 62
     4
 10
34.400000000002599
 20
-45.55129196059567
 30
0.0
  0
VERTEX
  5
232E
  8
SAPA_PROFIL
 62
     4
 10
34.400000000002628
 20
-40.534851019926819
 30
0.0
 42
0.3702522326300203
  0
VERTEX
  5
232F
  8
SAPA_PROFIL
 62
     4
 10
34.145540047336908
 20
-40.2383276581335
 30
0.0
 42
0.0982365330332397
  0
VERTEX
  5
2330
  8
SAPA_PROFIL
 62
     4
 10
32.457853272341907
 20
-40.147874899922549
 30
0.0
 42
0.3735060174783164
  0
VERTEX
  5
2331
  8
SAPA_PROFIL
 62
     4
 10
32.200000000001879
 20
-40.444899567833538
 30
0.0
  0
VERTEX
  5
2332
  8
SAPA_PROFIL
 62
     4
 10
32.200000000000969
 20
-40.873352998956193
 30
0.0
 42
-0.5920056181162531
  0
VERTEX
  5
2333
  8
SAPA_PROFIL
 62
     4
 10
31.738796497473039
 20
-41.126361755273592
 30
0.0
  0
VERTEX
  5
2334
  8
SAPA_PROFIL
 62
     4
 10
31.336608289494741
 20
-40.865177679117892
 30
0.0
 42
-0.2539676464746725
  0
VERTEX
  5
2335
  8
SAPA_PROFIL
 62
     4
 10
31.199999999999381
 20
-40.613576508734127
 30
0.0
  0
VERTEX
  5
2336
  8
SAPA_PROFIL
 62
     4
 10
31.200000000000959
 20
-18.38642348936844
 30
0.0
 42
-0.2539676464741819
  0
VERTEX
  5
2337
  8
SAPA_PROFIL
 62
     4
 10
31.336608289494741
 20
-18.134822318985581
 30
0.0
  0
VERTEX
  5
2338
  8
SAPA_PROFIL
 62
     4
 10
31.738796497473071
 20
-17.87363824283177
 30
0.0
 42
-0.5920055144124249
  0
VERTEX
  5
2339
  8
SAPA_PROFIL
 62
     4
 10
32.200000000000962
 20
-18.12664699914728
 30
0.0
  0
VERTEX
  5
233A
  8
SAPA_PROFIL
 62
     4
 10
32.199999974725948
 20
-18.555100476437499
 30
0.0
 42
0.3735060174775405
  0
VERTEX
  5
233B
  8
SAPA_PROFIL
 62
     4
 10
32.457853247066041
 20
-18.852125144347191
 30
0.0
 42
0.0355900683670349
  0
VERTEX
  5
233C
  8
SAPA_PROFIL
 62
     4
 10
33.073726833865827
 20
-18.89601870837944
 30
0.0
 42
0.0624282003873116
  0
VERTEX
  5
233D
  8
SAPA_PROFIL
 62
     4
 10
34.145540022060963
 20
-18.7616723861365
 30
0.0
 42
0.3702522326309292
  0
VERTEX
  5
233E
  8
SAPA_PROFIL
 62
     4
 10
34.399999974726683
 20
-18.46514902434313
 30
0.0
  0
VERTEX
  5
233F
  8
SAPA_PROFIL
 62
     4
 10
34.400000000002812
 20
-13.44870803750962
 30
0.0
 42
0.5205670505515692
  0
VERTEX
  5
2340
  8
SAPA_PROFIL
 62
     4
 10
33.728989928339843
 20
-12.97886172711639
 30
0.0
  0
VERTEX
  5
2341
  8
SAPA_PROFIL
 62
     4
 10
32.528989928330397
 20
-13.41562600824135
 30
0.0
 42
0.3152987888807539
  0
VERTEX
  5
2342
  8
SAPA_PROFIL
 62
     4
 10
32.19999999999277
 20
-13.8854723186372
 30
0.0
  0
VERTEX
  5
2343
  8
SAPA_PROFIL
 62
     4
 10
32.199999999999591
 20
-14.826646999146281
 30
0.0
 42
-0.5862175119221242
  0
VERTEX
  5
2344
  8
SAPA_PROFIL
 62
     4
 10
31.743168674244458
 20
-15.082388930128239
 30
0.0
 42
0.0000002084758573
  0
SEQEND
  5
2345
  8
SAPA_PROFIL
 62
     4
  0
POLYLINE
  5
1756
  8
SAPA_PROFIL
 62
     4
 66
     1
 10
0.0
 20
0.0
 30
0.0
  0
VERTEX
  5
2346
  8
SAPA_PROFIL
 62
     4
 10
80.767718914153235
 20
-38.549329121449119
 30
0.0
 42
-0.5571646428658034
  0
VERTEX
  5
2347
  8
SAPA_PROFIL
 62
     4
 10
79.899999999997689
 20
-38.012368617312291
 30
0.0
  0
VERTEX
  5
2348
  8
SAPA_PROFIL
 62
     4
 10
79.899999999998158
 20
-20.98763138079109
 30
0.0
 42
-0.5571645048035741
  0
VERTEX
  5
2349
  8
SAPA_PROFIL
 62
     4
 10
80.767718687864331
 20
-20.45067076383004
 30
0.0
  0
VERTEX
  5
234A
  8
SAPA_PROFIL
 62
     4
 10
82.433859343932355
 20
-21.281377851376732
 30
0.0
 42
-0.284385813979063
  0
VERTEX
  5
234B
  8
SAPA_PROFIL
 62
     4
 10
82.599999999999795
 20
-21.549858159857081
 30
0.0
  0
VERTEX
  5
234C
  8
SAPA_PROFIL
 62
     4
 10
82.599999999999795
 20
-37.450141838246402
 30
0.0
 42
-0.2843858139786238
  0
VERTEX
  5
234D
  8
SAPA_PROFIL
 62
     4
 10
82.433859343932866
 20
-37.71862214672668
 30
0.0
  0
VERTEX
  5
234E
  8
SAPA_PROFIL
 62
     4
 10
80.767718687863521
 20
-38.549329234273841
 30
0.0
  0
SEQEND
  5
234F
  8
SAPA_PROFIL
 62
     4
  0
POLYLINE
  5
1757
  8
SAPA_PROFIL
 62
     4
 66
     1
 10
0.0
 20
0.0
 30
0.0
 70
     1
  0
VERTEX
  5
2350
  8
SAPA_PROFIL
 62
     4
 10
82.956831514497367
 20
-15.082388814384441
 30
0.0
  0
VERTEX
  5
2351
  8
SAPA_PROFIL
 62
     4
 10
83.363391710501503
 20
-14.818365536008431
 30
0.0
 42
0.2539676464751066
  0
VERTEX
  5
2352
  8
SAPA_PROFIL
 62
     4
 10
83.499999999997613
 20
-14.566764365623721
 30
0.0
  0
VERTEX
  5
2353
  8
SAPA_PROFIL
 62
     4
 10
83.499999999997613
 20
-13.185264780418381
 30
0.0
 42
0.3152987888790479
  0
VERTEX
  5
2354
  8
SAPA_PROFIL
 62
     4
 10
83.171010071659452
 20
-12.71541847002606
 30
0.0
  0
VERTEX
  5
2355
  8
SAPA_PROFIL
 62
     4
 10
80.710179881208177
 20
-11.819749529117461
 30
0.0
 42
-0.2694959974287434
  0
VERTEX
  5
2356
  8
SAPA_PROFIL
 62
     4
 10
80.517047906864263
 20
-11.588230482716099
 30
0.0
 42
-0.0612686379508233
  0
VERTEX
  5
2357
  8
SAPA_PROFIL
 62
     4
 10
80.503464536233764
 20
-11.29555504986282
 30
0.0
  0
VERTEX
  5
2358
  8
SAPA_PROFIL
 62
     4
 10
80.301727857504943
 20
-10.946136872554559
 30
0.0
 42
-0.5773502691891679
  0
VERTEX
  5
2359
  8
SAPA_PROFIL
 62
     4
 10
80.483593192299494
 20
-10.63113687255497
 30
0.0
  0
VERTEX
  5
235A
  8
SAPA_PROFIL
 62
     4
 10
80.750707720425822
 20
-10.63113687255473
 30
0.0
  0
VERTEX
  5
235B
  8
SAPA_PROFIL
 62
     4
 10
81.559391181734142
 20
-9.2326091719204797
 30
0.0
 42
0.1318219888653519
  0
VERTEX
  5
235C
  8
SAPA_PROFIL
 62
     4
 10
81.599683578271524
 20
-9.0824360694481356
 30
0.0
  0
VERTEX
  5
235D
  8
SAPA_PROFIL
 62
     4
 10
81.599683578265171
 20
-8.8999999990113565
 30
0.0
 42
0.4142135623724291
  0
VERTEX
  5
235E
  8
SAPA_PROFIL
 62
     4
 10
81.199683578265535
 20
-8.4999999990108108
 30
0.0
  0
VERTEX
  5
235F
  8
SAPA_PROFIL
 62
     4
 10
77.799683578264535
 20
-8.4999999990121751
 30
0.0
 42
0.4142135623744271
  0
VERTEX
  5
2360
  8
SAPA_PROFIL
 62
     4
 10
77.399683578263534
 20
-8.8999999990113565
 30
0.0
  0
VERTEX
  5
2361
  8
SAPA_PROFIL
 62
     4
 10
77.399683578262895
 20
-9.0796152412826601
 30
0.0
 42
0.1316524975874005
  0
VERTEX
  5
2362
  8
SAPA_PROFIL
 62
     4
 10
77.439875957128493
 20
-9.2296152412794754
 30
0.0
  0
VERTEX
  5
2363
  8
SAPA_PROFIL
 62
     4
 10
78.366025403781023
 20
-10.833753138281731
 30
0.0
 42
-0.1316524975875904
  0
VERTEX
  5
2364
  8
SAPA_PROFIL
 62
     4
 10
78.499999999995794
 20
-11.33375313828344
 30
0.0
  0
VERTEX
  5
2365
  8
SAPA_PROFIL
 62
     4
 10
78.499999999995794
 20
-11.749999999010811
 30
0.0
 42
-0.4142135623730951
  0
VERTEX
  5
2366
  8
SAPA_PROFIL
 62
     4
 10
77.499999999995794
 20
-12.749999999010811
 30
0.0
  0
VERTEX
  5
2367
  8
SAPA_PROFIL
 62
     4
 10
74.499999999998522
 20
-12.749999999010811
 30
0.0
 42
0.9999996830128083
  0
VERTEX
  5
2368
  8
SAPA_PROFIL
 62
     4
 10
74.499999999996703
 20
-13.749999999010811
 30
0.0
  0
VERTEX
  5
2369
  8
SAPA_PROFIL
 62
     4
 10
77.499999999996703
 20
-13.749999999010811
 30
0.0
 42
-0.4142135623730951
  0
VERTEX
  5
236A
  8
SAPA_PROFIL
 62
     4
 10
78.499999999996703
 20
-14.749999999010811
 30
0.0
  0
VERTEX
  5
236B
  8
SAPA_PROFIL
 62
     4
 10
78.499999999996703
 20
-44.249999999095387
 30
0.0
 42
-0.4142135623730951
  0
VERTEX
  5
236C
  8
SAPA_PROFIL
 62
     4
 10
77.499999999996703
 20
-45.249999999095387
 30
0.0
  0
VERTEX
  5
236D
  8
SAPA_PROFIL
 62
     4
 10
74.499999999998522
 20
-45.249999999095387
 30
0.0
 42
0.9999999999999998
  0
VERTEX
  5
236E
  8
SAPA_PROFIL
 62
     4
 10
74.499999999998522
 20
-46.249999999095387
 30
0.0
  0
VERTEX
  5
236F
  8
SAPA_PROFIL
 62
     4
 10
77.499999999996703
 20
-46.249999999095387
 30
0.0
 42
-0.4142135623736278
  0
VERTEX
  5
2370
  8
SAPA_PROFIL
 62
     4
 10
78.499999999996703
 20
-47.249999999095387
 30
0.0
  0
VERTEX
  5
2371
  8
SAPA_PROFIL
 62
     4
 10
78.499999999996689
 20
-47.666246859821847
 30
0.0
 42
-0.1316524975874375
  0
VERTEX
  5
2372
  8
SAPA_PROFIL
 62
     4
 10
78.366025403780654
 20
-48.166246859822053
 30
0.0
  0
VERTEX
  5
2373
  8
SAPA_PROFIL
 62
     4
 10
77.439875957128478
 20
-49.770384756824001
 30
0.0
 42
0.1316524975874
  0
VERTEX
  5
2374
  8
SAPA_PROFIL
 62
     4
 10
77.399683578262895
 20
-49.920384756823537
 30
0.0
  0
VERTEX
  5
2375
  8
SAPA_PROFIL
 62
     4
 10
77.39968357826352
 20
-50.099999999094848
 30
0.0
 42
0.4142135623744271
  0
VERTEX
  5
2376
  8
SAPA_PROFIL
 62
     4
 10
77.799683578264521
 20
-50.499999999094022
 30
0.0
  0
VERTEX
  5
2377
  8
SAPA_PROFIL
 62
     4
 10
81.199683578265521
 20
-50.499999999095387
 30
0.0
 42
0.4142135623724291
  0
VERTEX
  5
2378
  8
SAPA_PROFIL
 62
     4
 10
81.599683578265157
 20
-50.099999999094848
 30
0.0
  0
VERTEX
  5
2379
  8
SAPA_PROFIL
 62
     4
 10
81.599683578271524
 20
-49.917563928658069
 30
0.0
 42
0.1318219888653524
  0
VERTEX
  5
237A
  8
SAPA_PROFIL
 62
     4
 10
81.559391181734142
 20
-49.767390826185718
 30
0.0
  0
VERTEX
  5
237B
  8
SAPA_PROFIL
 62
     4
 10
80.750707720509808
 20
-48.368863125706071
 30
0.0
  0
VERTEX
  5
237C
  8
SAPA_PROFIL
 62
     4
 10
80.483593192296766
 20
-48.368863125706071
 30
0.0
 42
-0.577350269189159
  0
VERTEX
  5
237D
  8
SAPA_PROFIL
 62
     4
 10
80.3017278575022
 20
-48.053863125706471
 30
0.0
  0
VERTEX
  5
237E
  8
SAPA_PROFIL
 62
     4
 10
80.503464536179308
 20
-47.704444948487797
 30
0.0
 42
-0.0612687673629489
  0
VERTEX
  5
237F
  8
SAPA_PROFIL
 62
     4
 10
80.517047906865514
 20
-47.411769515387597
 30
0.0
 42
-0.2694959974285039
  0
VERTEX
  5
2380
  8
SAPA_PROFIL
 62
     4
 10
80.710179881209456
 20
-47.180250468987069
 30
0.0
  0
VERTEX
  5
2381
  8
SAPA_PROFIL
 62
     4
 10
83.171010071662636
 20
-46.284581528077403
 30
0.0
 42
0.3152987888784035
  0
VERTEX
  5
2382
  8
SAPA_PROFIL
 62
     4
 10
83.499999999999204
 20
-45.814735217684181
 30
0.0
  0
VERTEX
  5
2383
  8
SAPA_PROFIL
 62
     4
 10
83.499999999997613
 20
-44.433235632479743
 30
0.0
 42
0.2539676464741841
  0
VERTEX
  5
2384
  8
SAPA_PROFIL
 62
     4
 10
83.363391710502341
 20
-44.181634462095673
 30
0.0
  0
VERTEX
  5
2385
  8
SAPA_PROFIL
 62
     4
 10
82.956831514497367
 20
-43.917611183719032
 30
0.0
 42
0.5862177598324623
  0
VERTEX
  5
2386
  8
SAPA_PROFIL
 62
     4
 10
82.500000000000853
 20
-44.173352998957377
 30
0.0
  0
VERTEX
  5
2387
  8
SAPA_PROFIL
 62
     4
 10
82.500000000008527
 20
-45.11452767946718
 30
0.0
 42
-0.3152987888813165
  0
VERTEX
  5
2388
  8
SAPA_PROFIL
 62
     4
 10
82.171010071671773
 20
-45.584373989864943
 30
0.0
  0
VERTEX
  5
2389
  8
SAPA_PROFIL
 62
     4
 10
80.971010071660544
 20
-46.021138270988892
 30
0.0
 42
-0.5205670505515651
  0
VERTEX
  5
238A
  8
SAPA_PROFIL
 62
     4
 10
80.299999999997794
 20
-45.55129196059567
 30
0.0
  0
VERTEX
  5
238B
  8
SAPA_PROFIL
 62
     4
 10
80.299999999997766
 20
-40.534851019926819
 30
0.0
 42
-0.3702522326300203
  0
VERTEX
  5
238C
  8
SAPA_PROFIL
 62
     4
 10
80.554459952663464
 20
-40.2383276581335
 30
0.0
 42
-0.0982365330332397
  0
VERTEX
  5
238D
  8
SAPA_PROFIL
 62
     4
 10
82.242146727658479
 20
-40.147874899922549
 30
0.0
 42
-0.3735060174783164
  0
VERTEX
  5
238E
  8
SAPA_PROFIL
 62
     4
 10
82.499999999998494
 20
-40.444899567833538
 30
0.0
  0
VERTEX
  5
238F
  8
SAPA_PROFIL
 62
     4
 10
82.499999999999432
 20
-40.873352998956193
 30
0.0
 42
0.5920056181162531
  0
VERTEX
  5
2390
  8
SAPA_PROFIL
 62
     4
 10
82.961203502527354
 20
-41.126361755273592
 30
0.0
  0
VERTEX
  5
2391
  8
SAPA_PROFIL
 62
     4
 10
83.363391710505667
 20
-40.865177679117892
 30
0.0
 42
0.2539676464746725
  0
VERTEX
  5
2392
  8
SAPA_PROFIL
 62
     4
 10
83.500000000000995
 20
-40.613576508734127
 30
0.0
  0
VERTEX
  5
2393
  8
SAPA_PROFIL
 62
     4
 10
83.499999999999417
 20
-18.38642348936844
 30
0.0
 42
0.2539676464741819
  0
VERTEX
  5
2394
  8
SAPA_PROFIL
 62
     4
 10
83.363391710505667
 20
-18.134822318985581
 30
0.0
  0
VERTEX
  5
2395
  8
SAPA_PROFIL
 62
     4
 10
82.961203502527312
 20
-17.87363824283177
 30
0.0
 42
0.5920055144124249
  0
VERTEX
  5
2396
  8
SAPA_PROFIL
 62
     4
 10
82.499999999999432
 20
-18.12664699914728
 30
0.0
  0
VERTEX
  5
2397
  8
SAPA_PROFIL
 62
     4
 10
82.500000025274431
 20
-18.555100476437499
 30
0.0
 42
-0.3735060174775405
  0
VERTEX
  5
2398
  8
SAPA_PROFIL
 62
     4
 10
82.242146752934346
 20
-18.852125144347191
 30
0.0
 42
-0.0355900683670349
  0
VERTEX
  5
2399
  8
SAPA_PROFIL
 62
     4
 10
81.626273166134567
 20
-18.89601870837944
 30
0.0
 42
-0.0624282003873116
  0
VERTEX
  5
239A
  8
SAPA_PROFIL
 62
     4
 10
80.554459977939445
 20
-18.7616723861365
 30
0.0
 42
-0.3702522326309292
  0
VERTEX
  5
239B
  8
SAPA_PROFIL
 62
     4
 10
80.300000025273704
 20
-18.46514902434313
 30
0.0
  0
VERTEX
  5
239C
  8
SAPA_PROFIL
 62
     4
 10
80.299999999997567
 20
-13.44870803750962
 30
0.0
 42
-0.5205670505515692
  0
VERTEX
  5
239D
  8
SAPA_PROFIL
 62
     4
 10
80.971010071660544
 20
-12.97886172711639
 30
0.0
  0
VERTEX
  5
239E
  8
SAPA_PROFIL
 62
     4
 10
82.171010071669983
 20
-13.41562600824135
 30
0.0
 42
-0.3152987888807539
  0
VERTEX
  5
239F
  8
SAPA_PROFIL
 62
     4
 10
82.500000000007617
 20
-13.8854723186372
 30
0.0
  0
VERTEX
  5
23A0
  8
SAPA_PROFIL
 62
     4
 10
82.500000000000796
 20
-14.826646999146281
 30
0.0
 42
0.5862175119221242
  0
VERTEX
  5
23A1
  8
SAPA_PROFIL
 62
     4
 10
82.956831325755928
 20
-15.082388930128239
 30
0.0
 42
-0.0000002084758573
  0
SEQEND
  5
23A2
  8
SAPA_PROFIL
 62
     4
  0
POLYLINE
  5
1758
  8
SAPA_PROFIL
 62
     4
 66
     1
 10
0.0
 20
0.0
 30
0.0
 70
     1
  0
VERTEX
  5
23A3
  8
SAPA_PROFIL
 62
     4
 10
14.90000000090231
 20
-58.702943553210837
 30
0.0
  0
VERTEX
  5
23A4
  8
SAPA_PROFIL
 62
     4
 10
14.900000000900491
 20
-62.897056102907747
 30
0.0
 42
-0.1989123673786592
  0
VERTEX
  5
23A5
  8
SAPA_PROFIL
 62
     4
 10
14.81213203525704
 20
-63.109188137263573
 30
0.0
  0
VERTEX
  5
23A6
  8
SAPA_PROFIL
 62
     4
 10
12.587867966546129
 20
-65.333452205974481
 30
0.0
 42
0.1989123673785438
  0
VERTEX
  5
23A7
  8
SAPA_PROFIL
 62
     4
 10
12.50000000090267
 20
-65.5455842403303
 30
0.0
  0
VERTEX
  5
23A8
  8
SAPA_PROFIL
 62
     4
 10
12.500000000904491
 20
-65.999999828058662
 30
0.0
 42
0.4142135623730951
  0
VERTEX
  5
23A9
  8
SAPA_PROFIL
 62
     4
 10
12.80000000090376
 20
-66.299999828058844
 30
0.0
  0
VERTEX
  5
23AA
  8
SAPA_PROFIL
 62
     4
 10
24.700000000899941
 20
-66.299999828058844
 30
0.0
 42
-0.4142135623730951
  0
VERTEX
  5
23AB
  8
SAPA_PROFIL
 62
     4
 10
25.200000000899951
 20
-66.799999828058844
 30
0.0
  0
VERTEX
  5
23AC
  8
SAPA_PROFIL
 62
     4
 10
25.200000000899951
 20
-68.499999828058662
 30
0.0
 42
0.4142135623739832
  0
VERTEX
  5
23AD
  8
SAPA_PROFIL
 62
     4
 10
25.50000000089922
 20
-68.799999828058844
 30
0.0
  0
VERTEX
  5
23AE
  8
SAPA_PROFIL
 62
     4
 10
29.200000000901579
 20
-68.799999828058844
 30
0.0
 42
0.414213562375759
  0
VERTEX
  5
23AF
  8
SAPA_PROFIL
 62
     4
 10
29.500000000902681
 20
-68.499999828058662
 30
0.0
  0
VERTEX
  5
23B0
  8
SAPA_PROFIL
 62
     4
 10
29.500000000900851
 20
-52.006576697655653
 30
0.0
 42
0.4142135623735391
  0
VERTEX
  5
23B1
  8
SAPA_PROFIL
 62
     4
 10
29.200000000901579
 20
-51.706576697655919
 30
0.0
  0
VERTEX
  5
23B2
  8
SAPA_PROFIL
 62
     4
 10
12.80000000090376
 20
-51.706576697655919
 30
0.0
 42
0.4142135623726511
  0
VERTEX
  5
23B3
  8
SAPA_PROFIL
 62
     4
 10
12.50000000090267
 20
-52.006576697655653
 30
0.0
  0
VERTEX
  5
23B4
  8
SAPA_PROFIL
 62
     4
 10
12.50000000090267
 20
-56.05441541578648
 30
0.0
 42
0.1989123673785438
  0
VERTEX
  5
23B5
  8
SAPA_PROFIL
 62
     4
 10
12.587867966546129
 20
-56.266547450142298
 30
0.0
  0
VERTEX
  5
23B6
  8
SAPA_PROFIL
 62
     4
 10
14.81213203525885
 20
-58.490811518855033
 30
0.0
 42
-0.1989123673798886
  0
SEQEND
  5
23B7
  8
SAPA_PROFIL
 62
     4
  0
POLYLINE
  5
1759
  8
SAPA_PROFIL
 62
     4
 66
     1
 10
0.0
 20
0.0
 30
0.0
 70
     1
  0
VERTEX
  5
23B8
  8
SAPA_PROFIL
 62
     4
 10
29.500000000902681
 20
-45.299999828059057
 30
0.0
  0
VERTEX
  5
23B9
  8
SAPA_PROFIL
 62
     4
 10
29.500000000900851
 20
-50.106576697655562
 30
0.0
 42
-0.4142135623732061
  0
VERTEX
  5
23BA
  8
SAPA_PROFIL
 62
     4
 10
29.200000000901579
 20
-50.406576697655737
 30
0.0
  0
VERTEX
  5
23BB
  8
SAPA_PROFIL
 62
     4
 10
12.80000000090376
 20
-50.406576697655737
 30
0.0
 42
-0.4142135623730951
  0
VERTEX
  5
23BC
  8
SAPA_PROFIL
 62
     4
 10
12.50000000090267
 20
-50.106576697655562
 30
0.0
  0
VERTEX
  5
23BD
  8
SAPA_PROFIL
 62
     4
 10
12.500000000904491
 20
-45.299999828059057
 30
0.0
 42
-0.4142135623731173
  0
VERTEX
  5
23BE
  8
SAPA_PROFIL
 62
     4
 10
12.80000000090558
 20
-44.999999828058883
 30
0.0
  0
VERTEX
  5
23BF
  8
SAPA_PROFIL
 62
     4
 10
29.200000000903401
 20
-44.999999828058883
 30
0.0
 42
-0.4142135623730951
  0
SEQEND
  5
23C0
  8
SAPA_PROFIL
 62
     4
  0
POLYLINE
  5
175A
  8
SAPA_PROFIL
 62
     4
 66
     1
 10
0.0
 20
0.0
 30
0.0
 70
     1
  0
VERTEX
  5
23C1
  8
SAPA_PROFIL
 62
     4
 10
11.00000000090267
 20
-56.67573575934648
 30
0.0
 42
0.1989123673799838
  0
VERTEX
  5
23C2
  8
SAPA_PROFIL
 62
     4
 10
11.08786796654794
 20
-56.887867793703208
 30
0.0
  0
VERTEX
  5
23C3
  8
SAPA_PROFIL
 62
     4
 10
13.31213203525885
 20
-59.11213186241411
 30
0.0
 42
-0.1989123673811189
  0
VERTEX
  5
23C4
  8
SAPA_PROFIL
 62
     4
 10
13.40000000090231
 20
-59.324263896769942
 30
0.0
  0
VERTEX
  5
23C5
  8
SAPA_PROFIL
 62
     4
 10
13.400000000900491
 20
-62.275735759347747
 30
0.0
 42
-0.1989123673785447
  0
VERTEX
  5
23C6
  8
SAPA_PROFIL
 62
     4
 10
13.31213203525704
 20
-62.487867793703572
 30
0.0
  0
VERTEX
  5
23C7
  8
SAPA_PROFIL
 62
     4
 10
11.087867966546121
 20
-64.71213186241539
 30
0.0
 42
0.1989123673785445
  0
VERTEX
  5
23C8
  8
SAPA_PROFIL
 62
     4
 10
11.00000000090267
 20
-64.924263896771194
 30
0.0
  0
VERTEX
  5
23C9
  8
SAPA_PROFIL
 62
     4
 10
11.000000000904491
 20
-67.299999828058844
 30
0.0
 42
0.4142135623730951
  0
VERTEX
  5
23CA
  8
SAPA_PROFIL
 62
     4
 10
11.500000000904491
 20
-67.799999828058844
 30
0.0
  0
VERTEX
  5
23CB
  8
SAPA_PROFIL
 62
     4
 10
23.400000000900668
 20
-67.799999828058844
 30
0.0
 42
-0.4142135623737615
  0
VERTEX
  5
23CC
  8
SAPA_PROFIL
 62
     4
 10
23.700000000899941
 20
-68.099999828059026
 30
0.0
  0
VERTEX
  5
23CD
  8
SAPA_PROFIL
 62
     4
 10
23.700000000899941
 20
-69.799999828058844
 30
0.0
 42
0.4142135623730951
  0
VERTEX
  5
23CE
  8
SAPA_PROFIL
 62
     4
 10
24.200000000899951
 20
-70.299999828058844
 30
0.0
  0
VERTEX
  5
23CF
  8
SAPA_PROFIL
 62
     4
 10
30.500000000902681
 20
-70.299999828058844
 30
0.0
 42
0.4142135623730951
  0
VERTEX
  5
23D0
  8
SAPA_PROFIL
 62
     4
 10
31.00000000090267
 20
-69.799999828058844
 30
0.0
  0
VERTEX
  5
23D1
  8
SAPA_PROFIL
 62
     4
 10
31.000000000899039
 20
-68.799999828058475
 30
0.0
 42
-0.4142135623735387
  0
VERTEX
  5
23D2
  8
SAPA_PROFIL
 62
     4
 10
31.300000000898311
 20
-68.49999982805852
 30
0.0
  0
VERTEX
  5
23D3
  8
SAPA_PROFIL
 62
     4
 10
32.900000000900491
 20
-68.499999828058975
 30
0.0
 42
-0.4142135623735394
  0
VERTEX
  5
23D4
  8
SAPA_PROFIL
 62
     4
 10
33.200000000899763
 20
-68.799999828058702
 30
0.0
  0
VERTEX
  5
23D5
  8
SAPA_PROFIL
 62
     4
 10
33.200000000897951
 20
-69.099999828058344
 30
0.0
 42
0.5923377296036106
  0
VERTEX
  5
23D6
  8
SAPA_PROFIL
 62
     4
 10
33.661452271639519
 20
-69.352849910662599
 30
0.0
  0
VERTEX
  5
23D7
  8
SAPA_PROFIL
 62
     4
 10
35.361452271640253
 20
-68.075790642365746
 30
0.0
 42
0.2560149538738703
  0
VERTEX
  5
23D8
  8
SAPA_PROFIL
 62
     4
 10
35.500000000900847
 20
-67.822940559760582
 30
0.0
  0
VERTEX
  5
23D9
  8
SAPA_PROFIL
 62
     4
 10
35.500000000900847
 20
-67.599999828057975
 30
0.0
 42
0.4142135623733172
  0
VERTEX
  5
23DA
  8
SAPA_PROFIL
 62
     4
 10
35.200000000901589
 20
-67.299999828058702
 30
0.0
  0
VERTEX
  5
23DB
  8
SAPA_PROFIL
 62
     4
 10
31.300000000898311
 20
-67.299999828058702
 30
0.0
 42
-0.4142135623735389
  0
VERTEX
  5
23DC
  8
SAPA_PROFIL
 62
     4
 10
31.000000000899039
 20
-66.999999828058733
 30
0.0
  0
VERTEX
  5
23DD
  8
SAPA_PROFIL
 62
     4
 10
31.000000000900862
 20
-55.99999982805857
 30
0.0
 42
-0.4142135623735387
  0
VERTEX
  5
23DE
  8
SAPA_PROFIL
 62
     4
 10
31.30000000090013
 20
-55.699999828058608
 30
0.0
  0
VERTEX
  5
23DF
  8
SAPA_PROFIL
 62
     4
 10
35.200000000901589
 20
-55.699999828058608
 30
0.0
 42
0.4142135623730951
  0
VERTEX
  5
23E0
  8
SAPA_PROFIL
 62
     4
 10
35.500000000900847
 20
-55.399999828059343
 30
0.0
  0
VERTEX
  5
23E1
  8
SAPA_PROFIL
 62
     4
 10
35.500000000900847
 20
-55.177059096356743
 30
0.0
 42
0.2560149538738701
  0
VERTEX
  5
23E2
  8
SAPA_PROFIL
 62
     4
 10
35.361452271640253
 20
-54.924209013751579
 30
0.0
  0
VERTEX
  5
23E3
  8
SAPA_PROFIL
 62
     4
 10
33.661452271639519
 20
-53.647149745454719
 30
0.0
 42
0.5923377296036115
  0
VERTEX
  5
23E4
  8
SAPA_PROFIL
 62
     4
 10
33.200000000897951
 20
-53.899999828058981
 30
0.0
  0
VERTEX
  5
23E5
  8
SAPA_PROFIL
 62
     4
 10
33.200000000899763
 20
-54.199999828058623
 30
0.0
 42
-0.4142135623735394
  0
VERTEX
  5
23E6
  8
SAPA_PROFIL
 62
     4
 10
32.900000000900491
 20
-54.499999828058343
 30
0.0
  0
VERTEX
  5
23E7
  8
SAPA_PROFIL
 62
     4
 10
31.30000000090013
 20
-54.499999828058797
 30
0.0
 42
-0.4142135623735389
  0
VERTEX
  5
23E8
  8
SAPA_PROFIL
 62
     4
 10
31.000000000900862
 20
-54.199999828058843
 30
0.0
  0
VERTEX
  5
23E9
  8
SAPA_PROFIL
 62
     4
 10
31.000000000906311
 20
-43.99999982805889
 30
0.0
 42
0.4142135623731242
  0
VERTEX
  5
23EA
  8
SAPA_PROFIL
 62
     4
 10
30.500000000906311
 20
-43.49999982805889
 30
0.0
  0
VERTEX
  5
23EB
  8
SAPA_PROFIL
 62
     4
 10
11.500000000904491
 20
-43.49999982805889
 30
0.0
 42
0.4142135623730951
  0
VERTEX
  5
23EC
  8
SAPA_PROFIL
 62
     4
 10
11.000000000904491
 20
-43.99999982805889
 30
0.0
  0
SEQEND
  5
23ED
  8
SAPA_PROFIL
 62
     4
  0
POLYLINE
  5
175B
  8
SAPA_PROFIL
 62
     6
 66
     1
 10
0.0
 20
0.0
 30
0.0
 70
     1
  0
VERTEX
  5
23EE
  8
SAPA_PROFIL
 62
     6
 10
-11.0
 20
-72.000000000001592
 30
0.0
  0
VERTEX
  5
23EF
  8
SAPA_PROFIL
 62
     6
 10
-25.0
 20
-72.000000000001592
 30
0.0
  0
VERTEX
  5
23F0
  8
SAPA_PROFIL
 62
     6
 10
-25.0
 20
-35.500000000001592
 30
0.0
  0
VERTEX
  5
23F1
  8
SAPA_PROFIL
 62
     6
 10
-5.0
 20
-35.500000000001592
 30
0.0
  0
VERTEX
  5
23F2
  8
SAPA_PROFIL
 62
     6
 10
-5.0
 20
-52.500000000001592
 30
0.0
  0
VERTEX
  5
23F3
  8
SAPA_PROFIL
 62
     6
 10
-11.0
 20
-52.500000000001592
 30
0.0
  0
SEQEND
  5
23F4
  8
SAPA_PROFIL
 62
     6
  0
POLYLINE
  5
175C
  8
SAPA_PROFIL
 66
     1
 10
0.0
 20
0.0
 30
0.0
 70
     1
  0
VERTEX
  5
23F5
  8
SAPA_PROFIL
 10
15.99999999999994
 20
-77.292893218811855
 30
0.0
 42
-0.1989123673794186
  0
VERTEX
  5
23F6
  8
SAPA_PROFIL
 10
15.853553390593159
 20
-77.64644660940462
 30
0.0
  0
VERTEX
  5
23F7
  8
SAPA_PROFIL
 10
7.292893218813048
 20
-86.207106781184976
 30
0.0
 42
-0.1989123673796614
  0
VERTEX
  5
23F8
  8
SAPA_PROFIL
 10
6.5857864376264947
 20
-86.499999999998394
 30
0.0
  0
VERTEX
  5
23F9
  8
SAPA_PROFIL
 10
0.7732050807566681
 20
-86.499999999998394
 30
0.0
 42
-0.1316524975873993
  0
VERTEX
  5
23FA
  8
SAPA_PROFIL
 10
0.6232050807566907
 20
-86.459807621133805
 30
0.0
  0
VERTEX
  5
23FB
  8
SAPA_PROFIL
 10
-0.0000000000002842
 20
-86.099999999998431
 30
0.0
  0
VERTEX
  5
23FC
  8
SAPA_PROFIL
 10
-0.6232050807570319
 20
-86.459807621133805
 30
0.0
 42
-0.1316524975873993
  0
VERTEX
  5
23FD
  8
SAPA_PROFIL
 10
-0.773205080757009
 20
-86.499999999998394
 30
0.0
  0
VERTEX
  5
23FE
  8
SAPA_PROFIL
 10
-6.5857864376270641
 20
-86.499999999998394
 30
0.0
 42
-0.1989123673796648
  0
VERTEX
  5
23FF
  8
SAPA_PROFIL
 10
-7.2928932188136173
 20
-86.207106781184976
 30
0.0
  0
VERTEX
  5
2400
  8
SAPA_PROFIL
 10
-15.85355339059328
 20
-77.646446609404848
 30
0.0
 42
-0.1989123673796564
  0
VERTEX
  5
2401
  8
SAPA_PROFIL
 10
-16.00000000000006
 20
-77.292893218811628
 30
0.0
  0
VERTEX
  5
2402
  8
SAPA_PROFIL
 10
-16.000000000000171
 20
-76.799999999998363
 30
0.0
 42
-0.4142135623731118
  0
VERTEX
  5
2403
  8
SAPA_PROFIL
 10
-15.700000000000211
 20
-76.499999999998408
 30
0.0
  0
VERTEX
  5
2404
  8
SAPA_PROFIL
 10
-9.8242640687126936
 20
-76.499999999998636
 30
0.0
 42
-0.198912367379658
  0
VERTEX
  5
2405
  8
SAPA_PROFIL
 10
-9.6121320343566481
 20
-76.587867965642658
 30
0.0
  0
VERTEX
  5
2406
  8
SAPA_PROFIL
 10
-9.0414213562381178
 20
-77.158578643761416
 30
0.0
 42
-0.6681786379192989
  0
VERTEX
  5
2407
  8
SAPA_PROFIL
 10
-9.1828427124754057
 20
-77.499999999998636
 30
0.0
  0
VERTEX
  5
2408
  8
SAPA_PROFIL
 10
-10.350000000000421
 20
-77.499999999998636
 30
0.0
 42
0.4142135623727809
  0
VERTEX
  5
2409
  8
SAPA_PROFIL
 10
-10.65000000000037
 20
-77.799999999998249
 30
0.0
  0
VERTEX
  5
240A
  8
SAPA_PROFIL
 10
-10.650000000001061
 20
-78.318014882865214
 30
0.0
 42
0.1763269807085444
  0
VERTEX
  5
240B
  8
SAPA_PROFIL
 10
-10.53302222156054
 20
-78.639408687708624
 30
0.0
  0
VERTEX
  5
240C
  8
SAPA_PROFIL
 10
-9.0617217731355026
 20
-80.392836282904341
 30
0.0
 42
0.2216946626428773
  0
VERTEX
  5
240D
  8
SAPA_PROFIL
 10
-8.8319084401998111
 20
-80.499999999998394
 30
0.0
  0
VERTEX
  5
240E
  8
SAPA_PROFIL
 10
-5.3000000000006926
 20
-80.499999999998536
 30
0.0
 42
0.4142135623730951
  0
VERTEX
  5
240F
  8
SAPA_PROFIL
 10
-5.0000000000007381
 20
-80.199999999998568
 30
0.0
  0
VERTEX
  5
2410
  8
SAPA_PROFIL
 10
-5.0000000000007381
 20
-77.79999999999859
 30
0.0
 42
0.4142135623730951
  0
VERTEX
  5
2411
  8
SAPA_PROFIL
 10
-5.3000000000008072
 20
-77.499999999998522
 30
0.0
  0
VERTEX
  5
2412
  8
SAPA_PROFIL
 10
-5.8171572875260722
 20
-77.499999999998636
 30
0.0
 42
-0.6681786379192989
  0
VERTEX
  5
2413
  8
SAPA_PROFIL
 10
-5.9585786437633601
 20
-77.158578643761416
 30
0.0
  0
VERTEX
  5
2414
  8
SAPA_PROFIL
 10
-5.3878679656448289
 20
-76.587867965642658
 30
0.0
 42
-0.198912367379658
  0
VERTEX
  5
2415
  8
SAPA_PROFIL
 10
-5.1757359312887843
 20
-76.499999999998636
 30
0.0
  0
VERTEX
  5
2416
  8
SAPA_PROFIL
 10
-3.5000000000008522
 20
-76.499999999998636
 30
0.0
 42
-0.4142135623730951
  0
VERTEX
  5
2417
  8
SAPA_PROFIL
 10
-3.0000000000008522
 20
-76.999999999998636
 30
0.0
  0
VERTEX
  5
2418
  8
SAPA_PROFIL
 10
-3.0000000000008522
 20
-77.999999999998636
 30
0.0
 42
0.4142135623730951
  0
VERTEX
  5
2419
  8
SAPA_PROFIL
 10
-2.5000000000008522
 20
-78.499999999998636
 30
0.0
  0
VERTEX
  5
241A
  8
SAPA_PROFIL
 10
2.5000000000001701
 20
-78.499999999998636
 30
0.0
 42
0.4142135623730951
  0
VERTEX
  5
241B
  8
SAPA_PROFIL
 10
3.0000000000001701
 20
-77.999999999998636
 30
0.0
  0
VERTEX
  5
241C
  8
SAPA_PROFIL
 10
3.0000000000001701
 20
-76.999999999998636
 30
0.0
 42
-0.4142135623730951
  0
VERTEX
  5
241D
  8
SAPA_PROFIL
 10
3.5000000000001701
 20
-76.499999999998636
 30
0.0
  0
VERTEX
  5
241E
  8
SAPA_PROFIL
 10
5.175735931288215
 20
-76.499999999998636
 30
0.0
 42
-0.198912367379658
  0
VERTEX
  5
241F
  8
SAPA_PROFIL
 10
5.3878679656442614
 20
-76.587867965642658
 30
0.0
  0
VERTEX
  5
2420
  8
SAPA_PROFIL
 10
5.9585786437627908
 20
-77.158578643761416
 30
0.0
 42
-0.6681786379192989
  0
VERTEX
  5
2421
  8
SAPA_PROFIL
 10
5.8171572875255029
 20
-77.499999999998636
 30
0.0
  0
VERTEX
  5
2422
  8
SAPA_PROFIL
 10
5.3000000000002379
 20
-77.499999999998522
 30
0.0
 42
0.4142135623730951
  0
VERTEX
  5
2423
  8
SAPA_PROFIL
 10
5.0000000000001696
 20
-77.79999999999859
 30
0.0
  0
VERTEX
  5
2424
  8
SAPA_PROFIL
 10
5.0000000000001696
 20
-80.199999999998568
 30
0.0
 42
0.4142135623730951
  0
VERTEX
  5
2425
  8
SAPA_PROFIL
 10
5.3000000000001251
 20
-80.499999999998536
 30
0.0
  0
VERTEX
  5
2426
  8
SAPA_PROFIL
 10
8.8319084401992427
 20
-80.499999999998394
 30
0.0
 42
0.2216946626428774
  0
VERTEX
  5
2427
  8
SAPA_PROFIL
 10
9.0617217731349342
 20
-80.392836282904341
 30
0.0
  0
VERTEX
  5
2428
  8
SAPA_PROFIL
 10
10.53302222155974
 20
-78.639408687708851
 30
0.0
 42
0.1763269807085444
  0
VERTEX
  5
2429
  8
SAPA_PROFIL
 10
10.65000000000026
 20
-78.318014882865441
 30
0.0
  0
VERTEX
  5
242A
  8
SAPA_PROFIL
 10
10.65000000000015
 20
-77.799999999998477
 30
0.0
 42
0.4142135623729905
  0
VERTEX
  5
242B
  8
SAPA_PROFIL
 10
10.35000000000019
 20
-77.499999999998636
 30
0.0
  0
VERTEX
  5
242C
  8
SAPA_PROFIL
 10
9.1828427124748373
 20
-77.499999999998636
 30
0.0
 42
-0.6681786379192989
  0
VERTEX
  5
242D
  8
SAPA_PROFIL
 10
9.0414213562375494
 20
-77.158578643761416
 30
0.0
  0
VERTEX
  5
242E
  8
SAPA_PROFIL
 10
9.6121320343560797
 20
-76.587867965642658
 30
0.0
 42
-0.198912367379658
  0
VERTEX
  5
242F
  8
SAPA_PROFIL
 10
9.8242640687121252
 20
-76.499999999998636
 30
0.0
  0
VERTEX
  5
2430
  8
SAPA_PROFIL
 10
15.70000000000044
 20
-76.499999999998408
 30
0.0
 42
-0.4142135623733904
  0
VERTEX
  5
2431
  8
SAPA_PROFIL
 10
16.000000000000401
 20
-76.799999999998704
 30
0.0
  0
SEQEND
  5
2432
  8
SAPA_PROFIL
  0
POLYLINE
  5
175D
  8
SAPA_PROFIL
 62
     4
 66
     1
 10
0.0
 20
0.0
 30
0.0
 70
     1
  0
VERTEX
  5
2433
  8
SAPA_PROFIL
 62
     4
 10
1.1499999999996291
 20
-48.84999999999966
 30
0.0
  0
VERTEX
  5
2434
  8
SAPA_PROFIL
 62
     4
 10
1.1499999999996291
 20
-46.649999999999622
 30
0.0
 42
1.0
  0
VERTEX
  5
2435
  8
SAPA_PROFIL
 62
     4
 10
-1.1500000000003241
 20
-46.649999999999622
 30
0.0
  0
VERTEX
  5
2436
  8
SAPA_PROFIL
 62
     4
 10
-1.150000000000438
 20
-48.84999999999966
 30
0.0
 42
1.0
  0
SEQEND
  5
2437
  8
SAPA_PROFIL
 62
     4
  0
POLYLINE
  5
175E
  8
SAPA_PROFIL
 62
     4
 66
     1
 10
0.0
 20
0.0
 30
0.0
 70
     1
  0
VERTEX
  5
2438
  8
SAPA_PROFIL
 62
     4
 10
3.9999999999996501
 20
-63.999999999999638
 30
0.0
  0
VERTEX
  5
2439
  8
SAPA_PROFIL
 62
     4
 10
3.9999999999996501
 20
-67.050832149035884
 30
0.0
  0
VERTEX
  5
243A
  8
SAPA_PROFIL
 62
     4
 10
3.9999999999996492
 20
-70.378679656439985
 30
0.0
 42
-0.6681786379192966
  0
VERTEX
  5
243B
  8
SAPA_PROFIL
 62
     4
 10
3.146446609406429
 20
-70.732233047033205
 30
0.0
  0
VERTEX
  5
243C
  8
SAPA_PROFIL
 62
     4
 10
1.0000000116214569
 20
-68.585786439270095
 30
0.0
 42
0.1989123679837333
  0
VERTEX
  5
243D
  8
SAPA_PROFIL
 62
     4
 10
0.2928932287913475
 20
-68.292893218813091
 30
0.0
  0
VERTEX
  5
243E
  8
SAPA_PROFIL
 62
     4
 10
-0.2928932088355886
 20
-68.292893218813091
 30
0.0
 42
0.1989123667755704
  0
VERTEX
  5
243F
  8
SAPA_PROFIL
 62
     4
 10
-0.9999999883785571
 20
-68.585786435982953
 30
0.0
  0
VERTEX
  5
2440
  8
SAPA_PROFIL
 62
     4
 10
-3.1464466094071302
 20
-70.732233047033205
 30
0.0
 42
-0.6681786379192936
  0
VERTEX
  5
2441
  8
SAPA_PROFIL
 62
     4
 10
-4.0000000000003357
 20
-70.378679656439985
 30
0.0
  0
VERTEX
  5
2442
  8
SAPA_PROFIL
 62
     4
 10
-4.0000000000003348
 20
-67.050832149035884
 30
0.0
  0
VERTEX
  5
2443
  8
SAPA_PROFIL
 62
     4
 10
-4.0000000000003491
 20
-63.999999999999638
 30
0.0
 42
-0.4142135623730951
  0
VERTEX
  5
2444
  8
SAPA_PROFIL
 62
     4
 10
-3.5000000000003491
 20
-63.499999999999652
 30
0.0
  0
VERTEX
  5
2445
  8
SAPA_PROFIL
 62
     4
 10
3.4999999999996501
 20
-63.499999999999652
 30
0.0
 42
-0.4142135623730951
  0
SEQEND
  5
2446
  8
SAPA_PROFIL
 62
     4
  0
POLYLINE
  5
175F
  8
SAPA_PROFIL
 62
     4
 66
     1
 10
0.0
 20
0.0
 30
0.0
 70
     1
  0
VERTEX
  5
2447
  8
SAPA_PROFIL
 62
     4
 10
-2.585786437627128
 20
-53.459999999999653
 30
0.0
  0
VERTEX
  5
2448
  8
SAPA_PROFIL
 62
     4
 10
-1.1465310628473231
 20
-52.060744625219613
 30
0.0
 42
-0.9251773977986363
  0
VERTEX
  5
2449
  8
SAPA_PROFIL
 62
     4
 10
1.1465310628465131
 20
-52.060744625219613
 30
0.0
  0
VERTEX
  5
244A
  8
SAPA_PROFIL
 62
     4
 10
2.5857864376264308
 20
-53.459999999999653
 30
0.0
  0
VERTEX
  5
244B
  8
SAPA_PROFIL
 62
     4
 10
3.4999999999996509
 20
-53.459999999999653
 30
0.0
 42
-0.4142135623730769
  0
VERTEX
  5
244C
  8
SAPA_PROFIL
 62
     4
 10
3.9999999999996509
 20
-53.959999999999653
 30
0.0
  0
VERTEX
  5
244D
  8
SAPA_PROFIL
 62
     4
 10
3.9999999999996501
 20
-61.999999999999638
 30
0.0
 42
-0.4142135623730951
  0
VERTEX
  5
244E
  8
SAPA_PROFIL
 62
     4
 10
3.4999999999996501
 20
-62.499999999999638
 30
0.0
  0
VERTEX
  5
244F
  8
SAPA_PROFIL
 62
     4
 10
-3.5000000000003491
 20
-62.499999999999638
 30
0.0
 42
-0.4142135623730951
  0
VERTEX
  5
2450
  8
SAPA_PROFIL
 62
     4
 10
-4.0000000000003491
 20
-61.999999999999638
 30
0.0
  0
VERTEX
  5
2451
  8
SAPA_PROFIL
 62
     4
 10
-4.0000000000003482
 20
-53.959999999999653
 30
0.0
 42
-0.4142135623730951
  0
VERTEX
  5
2452
  8
SAPA_PROFIL
 62
     4
 10
-3.5000000000003482
 20
-53.459999999999653
 30
0.0
  0
SEQEND
  5
2453
  8
SAPA_PROFIL
 62
     4
  0
POLYLINE
  5
1760
  8
SAPA_PROFIL
 62
     4
 66
     1
 10
0.0
 20
0.0
 30
0.0
 70
     1
  0
VERTEX
  5
2454
  8
SAPA_PROFIL
 62
     4
 10
4.9999999999995381
 20
-54.10999999999963
 30
0.0
 42
-1.0
  0
VERTEX
  5
2455
  8
SAPA_PROFIL
 62
     4
 10
6.2999999999996064
 20
-54.10999999999963
 30
0.0
  0
VERTEX
  5
2456
  8
SAPA_PROFIL
 62
     4
 10
6.2999999999996064
 20
-54.959999999999653
 30
0.0
  0
VERTEX
  5
2457
  8
SAPA_PROFIL
 62
     4
 10
6.2499999999995381
 20
-54.959999999999653
 30
0.0
 42
1.0
  0
VERTEX
  5
2458
  8
SAPA_PROFIL
 62
     4
 10
6.2499999999995373
 20
-55.459999999999653
 30
0.0
  0
VERTEX
  5
2459
  8
SAPA_PROFIL
 62
     4
 10
6.6999999999995818
 20
-55.459999999999653
 30
0.0
 42
0.4142135623730951
  0
VERTEX
  5
245A
  8
SAPA_PROFIL
 62
     4
 10
6.9999999999995381
 20
-55.159999999999592
 30
0.0
  0
VERTEX
  5
245B
  8
SAPA_PROFIL
 62
     4
 10
6.9999999999995381
 20
-53.459999999999653
 30
0.0
 42
0.4225789089359373
  0
VERTEX
  5
245C
  8
SAPA_PROFIL
 62
     4
 10
5.9999999999995381
 20
-52.499999999999531
 30
0.0
  0
VERTEX
  5
245D
  8
SAPA_PROFIL
 62
     4
 10
2.9999999999995381
 20
-52.499999999999531
 30
0.0
  0
VERTEX
  5
245E
  8
SAPA_PROFIL
 62
     4
 10
2.1499999999996291
 20
-51.649999999999622
 30
0.0
  0
VERTEX
  5
245F
  8
SAPA_PROFIL
 62
     4
 10
2.1499999999996291
 20
-45.499999999999638
 30
0.0
 42
0.4142135623730951
  0
VERTEX
  5
2460
  8
SAPA_PROFIL
 62
     4
 10
1.1499999999996291
 20
-44.499999999999638
 30
0.0
  0
VERTEX
  5
2461
  8
SAPA_PROFIL
 62
     4
 10
-1.1500000000003241
 20
-44.499999999999638
 30
0.0
 42
0.4142135623730951
  0
VERTEX
  5
2462
  8
SAPA_PROFIL
 62
     4
 10
-2.1500000000003241
 20
-45.499999999999638
 30
0.0
  0
VERTEX
  5
2463
  8
SAPA_PROFIL
 62
     4
 10
-2.150000000000325
 20
-51.649999999999508
 30
0.0
  0
VERTEX
  5
2464
  8
SAPA_PROFIL
 62
     4
 10
-3.0000000000003482
 20
-52.499999999999531
 30
0.0
  0
VERTEX
  5
2465
  8
SAPA_PROFIL
 62
     4
 10
-6.0000000000003482
 20
-52.499999999999531
 30
0.0
 42
0.4225789089359373
  0
VERTEX
  5
2466
  8
SAPA_PROFIL
 62
     4
 10
-7.0000000000003624
 20
-53.459999999999653
 30
0.0
  0
VERTEX
  5
2467
  8
SAPA_PROFIL
 62
     4
 10
-7.0000000000003624
 20
-55.159999999999592
 30
0.0
 42
0.4142135623730951
  0
VERTEX
  5
2468
  8
SAPA_PROFIL
 62
     4
 10
-6.70000000000028
 20
-55.459999999999653
 30
0.0
  0
VERTEX
  5
2469
  8
SAPA_PROFIL
 62
     4
 10
-6.2500000000003491
 20
-55.459999999999653
 30
0.0
 42
1.0
  0
VERTEX
  5
246A
  8
SAPA_PROFIL
 62
     4
 10
-6.2500000000003482
 20
-54.959999999999653
 30
0.0
  0
VERTEX
  5
246B
  8
SAPA_PROFIL
 62
     4
 10
-6.3000000000004164
 20
-54.959999999999653
 30
0.0
  0
VERTEX
  5
246C
  8
SAPA_PROFIL
 62
     4
 10
-6.3000000000004164
 20
-54.10999999999963
 30
0.0
 42
-1.0
  0
VERTEX
  5
246D
  8
SAPA_PROFIL
 62
     4
 10
-5.0000000000003482
 20
-54.10999999999963
 30
0.0
  0
VERTEX
  5
246E
  8
SAPA_PROFIL
 62
     4
 10
-5.0000000000003348
 20
-67.050832149035884
 30
0.0
  0
VERTEX
  5
246F
  8
SAPA_PROFIL
 62
     4
 10
-5.0000000000003357
 20
-72.499999999999645
 30
0.0
  0
VERTEX
  5
2470
  8
SAPA_PROFIL
 62
     4
 10
-3.5000000000003499
 20
-72.499999999999645
 30
0.0
  0
VERTEX
  5
2471
  8
SAPA_PROFIL
 62
     4
 10
-0.3535533905935702
 20
-69.353553390592865
 30
0.0
 42
-0.4142135623730951
  0
VERTEX
  5
2472
  8
SAPA_PROFIL
 62
     4
 10
0.3535533905928693
 20
-69.353553390592865
 30
0.0
  0
VERTEX
  5
2473
  8
SAPA_PROFIL
 62
     4
 10
3.4999999999996492
 20
-72.499999999999645
 30
0.0
  0
VERTEX
  5
2474
  8
SAPA_PROFIL
 62
     4
 10
4.9999999999996767
 20
-72.499999999999645
 30
0.0
  0
VERTEX
  5
2475
  8
SAPA_PROFIL
 62
     4
 10
4.999999999999635
 20
-67.050832149035884
 30
0.0
  0
VERTEX
  5
2476
  8
SAPA_PROFIL
 62
     4
 10
4.9999999999995381
 20
-54.409999999999613
 30
0.0
  0
SEQEND
  5
2477
  8
SAPA_PROFIL
 62
     4
  0
POLYLINE
  5
1761
  8
SAPA_PROFIL
 66
     1
 10
0.0
 20
0.0
 30
0.0
 70
   129
  0
VERTEX
  5
2478
  8
SAPA_PROFIL
 10
2.9999999999999711
 20
-31.49999999999952
 30
0.0
  0
VERTEX
  5
2479
  8
SAPA_PROFIL
 10
2.9999999999999711
 20
-14.49999999999952
 30
0.0
 42
0.4142135623730951
  0
VERTEX
  5
247A
  8
SAPA_PROFIL
 10
0.9999999999999715
 20
-12.49999999999952
 30
0.0
  0
VERTEX
  5
247B
  8
SAPA_PROFIL
 10
-1.000000000000028
 20
-12.49999999999952
 30
0.0
 42
0.4142135623730951
  0
VERTEX
  5
247C
  8
SAPA_PROFIL
 10
-3.000000000000028
 20
-14.49999999999952
 30
0.0
  0
VERTEX
  5
247D
  8
SAPA_PROFIL
 10
-3.000000000000028
 20
-31.49999999999952
 30
0.0
 42
0.4142135623731002
  0
VERTEX
  5
247E
  8
SAPA_PROFIL
 10
-2.000000000000028
 20
-32.499999999999517
 30
0.0
  0
VERTEX
  5
247F
  8
SAPA_PROFIL
 10
1.9999999999999709
 20
-32.499999999999517
 30
0.0
 42
0.4142135623730951
  0
SEQEND
  5
2480
  8
SAPA_PROFIL
  0
POLYLINE
  5
1762
  8
SAPA_PROFIL
 66
     1
 10
0.0
 20
0.0
 30
0.0
 70
   129
  0
VERTEX
  5
2481
  8
SAPA_PROFIL
 10
-20.8180339887499
 20
-14.99999999999952
 30
0.0
 42
-0.6482315195103768
  0
VERTEX
  5
2482
  8
SAPA_PROFIL
 10
-19.700000000000021
 20
-12.49999999999952
 30
0.0
  0
VERTEX
  5
2483
  8
SAPA_PROFIL
 10
-7.0000000000000284
 20
-12.49999999999952
 30
0.0
 42
-0.4142135623730951
  0
VERTEX
  5
2484
  8
SAPA_PROFIL
 10
-5.0000000000000284
 20
-14.49999999999952
 30
0.0
  0
VERTEX
  5
2485
  8
SAPA_PROFIL
 10
-5.0000000000000284
 20
-52.199999999999498
 30
0.0
 42
0.4142135623730951
  0
VERTEX
  5
2486
  8
SAPA_PROFIL
 10
-4.7000000000000171
 20
-52.499999999999517
 30
0.0
  0
VERTEX
  5
2487
  8
SAPA_PROFIL
 10
-3.0757359312880221
 20
-52.499999999999517
 30
0.0
  0
VERTEX
  5
2488
  8
SAPA_PROFIL
 10
-2.1378679656441468
 20
-51.562132034356161
 30
0.0
 42
0.1989123673804472
  0
VERTEX
  5
2489
  8
SAPA_PROFIL
 10
-2.0500000000000389
 20
-51.349999999999511
 30
0.0
  0
VERTEX
  5
248A
  8
SAPA_PROFIL
 10
-2.0500000000000389
 20
-50.149999999999523
 30
0.0
  0
VERTEX
  5
248B
  8
SAPA_PROFIL
 10
-2.7000000000000171
 20
-50.149999999999523
 30
0.0
  0
VERTEX
  5
248C
  8
SAPA_PROFIL
 10
-2.076719695747812
 20
-48.77376540432482
 30
0.0
 42
0.5450207774088041
  0
VERTEX
  5
248D
  8
SAPA_PROFIL
 10
-2.3500000000000218
 20
-48.349999999999511
 30
0.0
  0
VERTEX
  5
248E
  8
SAPA_PROFIL
 10
-2.7000000000000171
 20
-48.349999999999511
 30
0.0
  0
VERTEX
  5
248F
  8
SAPA_PROFIL
 10
-2.076719695747812
 20
-46.973765404324858
 30
0.0
 42
0.545020777408923
  0
VERTEX
  5
2490
  8
SAPA_PROFIL
 10
-2.3500000000000218
 20
-46.5499999999995
 30
0.0
  0
VERTEX
  5
2491
  8
SAPA_PROFIL
 10
-2.7000000000000171
 20
-46.5499999999995
 30
0.0
  0
VERTEX
  5
2492
  8
SAPA_PROFIL
 10
-2.076719695747812
 20
-45.173765404324847
 30
0.0
 42
0.5450207774088153
  0
VERTEX
  5
2493
  8
SAPA_PROFIL
 10
-2.3500000000000218
 20
-44.74999999999951
 30
0.0
  0
VERTEX
  5
2494
  8
SAPA_PROFIL
 10
-2.7000000000000171
 20
-44.74999999999951
 30
0.0
  0
VERTEX
  5
2495
  8
SAPA_PROFIL
 10
-2.076719695747812
 20
-43.373765404324843
 30
0.0
 42
0.5450207774088153
  0
VERTEX
  5
2496
  8
SAPA_PROFIL
 10
-2.3500000000000218
 20
-42.949999999999513
 30
0.0
  0
VERTEX
  5
2497
  8
SAPA_PROFIL
 10
-2.7000000000000171
 20
-42.949999999999513
 30
0.0
  0
VERTEX
  5
2498
  8
SAPA_PROFIL
 10
-2.0767196957477552
 20
-41.573765404324767
 30
0.0
 42
0.5450207774087306
  0
VERTEX
  5
2499
  8
SAPA_PROFIL
 10
-2.3500000000000218
 20
-41.149999999999523
 30
0.0
  0
VERTEX
  5
249A
  8
SAPA_PROFIL
 10
-2.7000000000000171
 20
-41.149999999999523
 30
0.0
  0
VERTEX
  5
249B
  8
SAPA_PROFIL
 10
-2.076719695747812
 20
-39.77376540432482
 30
0.0
 42
0.5450207774088212
  0
VERTEX
  5
249C
  8
SAPA_PROFIL
 10
-2.3500000000000218
 20
-39.349999999999511
 30
0.0
  0
VERTEX
  5
249D
  8
SAPA_PROFIL
 10
-2.7000000000000171
 20
-39.349999999999511
 30
0.0
  0
VERTEX
  5
249E
  8
SAPA_PROFIL
 10
-2.076719695747812
 20
-37.973765404324837
 30
0.0
 42
0.5450207774088153
  0
VERTEX
  5
249F
  8
SAPA_PROFIL
 10
-2.3500000000000218
 20
-37.5499999999995
 30
0.0
  0
VERTEX
  5
24A0
  8
SAPA_PROFIL
 10
-2.7000000000000171
 20
-37.5499999999995
 30
0.0
  0
VERTEX
  5
24A1
  8
SAPA_PROFIL
 10
-2.076719695747812
 20
-36.173765404324861
 30
0.0
 42
0.5450207774088267
  0
VERTEX
  5
24A2
  8
SAPA_PROFIL
 10
-2.3500000000000218
 20
-35.749999999999517
 30
0.0
  0
VERTEX
  5
24A3
  8
SAPA_PROFIL
 10
-2.7000000000000171
 20
-35.749999999999517
 30
0.0
  0
VERTEX
  5
24A4
  8
SAPA_PROFIL
 10
-2.7000000000000171
 20
-35.499999999999517
 30
0.0
 42
-0.4142135623730951
  0
VERTEX
  5
24A5
  8
SAPA_PROFIL
 10
-1.7000000000000171
 20
-34.499999999999517
 30
0.0
  0
VERTEX
  5
24A6
  8
SAPA_PROFIL
 10
1.69999999999996
 20
-34.499999999999517
 30
0.0
 42
-0.4142135623730951
  0
VERTEX
  5
24A7
  8
SAPA_PROFIL
 10
2.6999999999999602
 20
-35.499999999999517
 30
0.0
  0
VERTEX
  5
24A8
  8
SAPA_PROFIL
 10
2.6999999999999602
 20
-36.649999999999523
 30
0.0
  0
VERTEX
  5
24A9
  8
SAPA_PROFIL
 10
2.349999999999937
 20
-36.649999999999523
 30
0.0
 42
0.5450207774090871
  0
VERTEX
  5
24AA
  8
SAPA_PROFIL
 10
2.0767196957479821
 20
-37.07376540432552
 30
0.0
  0
VERTEX
  5
24AB
  8
SAPA_PROFIL
 10
2.6999999999999602
 20
-38.449999999999513
 30
0.0
  0
VERTEX
  5
24AC
  8
SAPA_PROFIL
 10
2.349999999999937
 20
-38.449999999999513
 30
0.0
 42
0.5450207774090871
  0
VERTEX
  5
24AD
  8
SAPA_PROFIL
 10
2.0767196957479821
 20
-38.873765404325532
 30
0.0
  0
VERTEX
  5
24AE
  8
SAPA_PROFIL
 10
2.6999999999999602
 20
-40.24999999999951
 30
0.0
  0
VERTEX
  5
24AF
  8
SAPA_PROFIL
 10
2.3500000000000512
 20
-40.24999999999951
 30
0.0
 42
0.5450207774093415
  0
VERTEX
  5
24B0
  8
SAPA_PROFIL
 10
2.0767196957479821
 20
-40.673765404325501
 30
0.0
  0
VERTEX
  5
24B1
  8
SAPA_PROFIL
 10
2.6999999999999602
 20
-42.0499999999995
 30
0.0
  0
VERTEX
  5
24B2
  8
SAPA_PROFIL
 10
2.3500000000000218
 20
-42.0499999999995
 30
0.0
 42
0.5450207774092283
  0
VERTEX
  5
24B3
  8
SAPA_PROFIL
 10
2.0767196957479821
 20
-42.473765404325519
 30
0.0
  0
VERTEX
  5
24B4
  8
SAPA_PROFIL
 10
2.6999999999999602
 20
-43.849999999999497
 30
0.0
  0
VERTEX
  5
24B5
  8
SAPA_PROFIL
 10
2.349999999999937
 20
-43.849999999999497
 30
0.0
 42
0.5450207774090871
  0
VERTEX
  5
24B6
  8
SAPA_PROFIL
 10
2.0767196957479821
 20
-44.273765404325502
 30
0.0
  0
VERTEX
  5
24B7
  8
SAPA_PROFIL
 10
2.6999999999999602
 20
-45.649999999999523
 30
0.0
  0
VERTEX
  5
24B8
  8
SAPA_PROFIL
 10
2.349999999999937
 20
-45.649999999999523
 30
0.0
 42
0.5450207774090871
  0
VERTEX
  5
24B9
  8
SAPA_PROFIL
 10
2.0767196957479821
 20
-46.073765404325513
 30
0.0
  0
VERTEX
  5
24BA
  8
SAPA_PROFIL
 10
2.6999999999999602
 20
-47.449999999999498
 30
0.0
  0
VERTEX
  5
24BB
  8
SAPA_PROFIL
 10
2.3499999999999939
 20
-47.449999999999498
 30
0.0
 42
0.5450207774091945
  0
VERTEX
  5
24BC
  8
SAPA_PROFIL
 10
2.0767196957479821
 20
-47.873765404325532
 30
0.0
  0
VERTEX
  5
24BD
  8
SAPA_PROFIL
 10
2.6999999999999602
 20
-49.24999999999951
 30
0.0
  0
VERTEX
  5
24BE
  8
SAPA_PROFIL
 10
2.3500000000000218
 20
-49.24999999999951
 30
0.0
 42
0.5450207774092962
  0
VERTEX
  5
24BF
  8
SAPA_PROFIL
 10
2.0767196957479821
 20
-49.673765404325501
 30
0.0
  0
VERTEX
  5
24C0
  8
SAPA_PROFIL
 10
2.6999999999999602
 20
-51.0499999999995
 30
0.0
  0
VERTEX
  5
24C1
  8
SAPA_PROFIL
 10
2.3500000000000791
 20
-51.0499999999995
 30
0.0
 42
0.6681786379194189
  0
VERTEX
  5
24C2
  8
SAPA_PROFIL
 10
2.1378679656439772
 20
-51.5621320343555
 30
0.0
  0
VERTEX
  5
24C3
  8
SAPA_PROFIL
 10
3.0757359312879942
 20
-52.499999999999517
 30
0.0
  0
VERTEX
  5
24C4
  8
SAPA_PROFIL
 10
4.6999999999999602
 20
-52.499999999999517
 30
0.0
 42
0.4142135623730951
  0
VERTEX
  5
24C5
  8
SAPA_PROFIL
 10
4.9999999999999707
 20
-52.199999999999498
 30
0.0
  0
VERTEX
  5
24C6
  8
SAPA_PROFIL
 10
4.9999999999999707
 20
-14.49999999999952
 30
0.0
 42
-0.4142135623730951
  0
VERTEX
  5
24C7
  8
SAPA_PROFIL
 10
7.0
 20
-12.49999999999952
 30
0.0
  0
VERTEX
  5
24C8
  8
SAPA_PROFIL
 10
19.699999999999989
 20
-12.49999999999954
 30
0.0
 42
-0.6482315195103831
  0
VERTEX
  5
24C9
  8
SAPA_PROFIL
 10
20.81803398874985
 20
-14.99999999999957
 30
0.0
 42
0.6482315195103645
  0
VERTEX
  5
24CA
  8
SAPA_PROFIL
 10
21.041640786500011
 20
-15.49999999999954
 30
0.0
  0
VERTEX
  5
24CB
  8
SAPA_PROFIL
 10
22.399999999999981
 20
-15.49999999999954
 30
0.0
 42
-0.4142135623730951
  0
VERTEX
  5
24CC
  8
SAPA_PROFIL
 10
22.699999999999989
 20
-15.79999999999953
 30
0.0
  0
VERTEX
  5
24CD
  8
SAPA_PROFIL
 10
22.699999999999989
 20
-29.699999999999541
 30
0.0
 42
-0.4142135623731104
  0
VERTEX
  5
24CE
  8
SAPA_PROFIL
 10
22.399999999999981
 20
-29.999999999999549
 30
0.0
  0
VERTEX
  5
24CF
  8
SAPA_PROFIL
 10
16.500000000000959
 20
-29.99999999999952
 30
0.0
 42
0.4142135623731104
  0
VERTEX
  5
24D0
  8
SAPA_PROFIL
 10
16.20000000000098
 20
-30.2999999999995
 30
0.0
  0
VERTEX
  5
24D1
  8
SAPA_PROFIL
 10
16.20000000000098
 20
-34.199999999999513
 30
0.0
 42
-0.2134217652833545
  0
VERTEX
  5
24D2
  8
SAPA_PROFIL
 10
16.100000000000989
 20
-34.423606797749471
 30
0.0
 42
0.213421765283341
  0
VERTEX
  5
24D3
  8
SAPA_PROFIL
 10
16.000000000000959
 20
-34.647213595499501
 30
0.0
  0
VERTEX
  5
24D4
  8
SAPA_PROFIL
 10
16.000000000000959
 20
-35.199999999999513
 30
0.0
 42
0.4142135623731104
  0
VERTEX
  5
24D5
  8
SAPA_PROFIL
 10
16.300000000000981
 20
-35.499999999999517
 30
0.0
  0
VERTEX
  5
24D6
  8
SAPA_PROFIL
 10
18.000000000000959
 20
-35.499999999999538
 30
0.0
  0
VERTEX
  5
24D7
  8
SAPA_PROFIL
 10
18.586384015761979
 20
-35.035076580434549
 30
0.0
 42
0.7105995015649603
  0
VERTEX
  5
24D8
  8
SAPA_PROFIL
 10
18.400000000001
 20
-34.499999999999552
 30
0.0
  0
VERTEX
  5
24D9
  8
SAPA_PROFIL
 10
18.000000000000959
 20
-34.499999999999552
 30
0.0
 42
-0.4142135623731359
  0
VERTEX
  5
24DA
  8
SAPA_PROFIL
 10
17.70000000000098
 20
-34.199999999999541
 30
0.0
  0
VERTEX
  5
24DB
  8
SAPA_PROFIL
 10
17.70000000000098
 20
-31.799999999999532
 30
0.0
 42
-0.4142135623730951
  0
VERTEX
  5
24DC
  8
SAPA_PROFIL
 10
18.000000000000959
 20
-31.499999999999549
 30
0.0
  0
VERTEX
  5
24DD
  8
SAPA_PROFIL
 10
22.900000000000968
 20
-31.499999999999549
 30
0.0
 42
-0.4142135623731104
  0
VERTEX
  5
24DE
  8
SAPA_PROFIL
 10
23.200000000000959
 20
-31.799999999999532
 30
0.0
  0
VERTEX
  5
24DF
  8
SAPA_PROFIL
 10
23.20000000000098
 20
-34.199999999999541
 30
0.0
 42
-0.4142135623731258
  0
VERTEX
  5
24E0
  8
SAPA_PROFIL
 10
22.900000000000951
 20
-34.499999999999552
 30
0.0
  0
VERTEX
  5
24E1
  8
SAPA_PROFIL
 10
22.000000000000959
 20
-34.499999999999552
 30
0.0
 42
0.7105995015650852
  0
VERTEX
  5
24E2
  8
SAPA_PROFIL
 10
21.813615984240219
 20
-35.035076580434271
 30
0.0
  0
VERTEX
  5
24E3
  8
SAPA_PROFIL
 10
22.400000000000968
 20
-35.499999999999538
 30
0.0
  0
VERTEX
  5
24E4
  8
SAPA_PROFIL
 10
24.70000000000098
 20
-35.499999999999538
 30
0.0
 42
0.4142135623730951
  0
VERTEX
  5
24E5
  8
SAPA_PROFIL
 10
25.00000000000097
 20
-35.199999999999527
 30
0.0
  0
VERTEX
  5
24E6
  8
SAPA_PROFIL
 10
25.0
 20
63.999999999999481
 30
0.0
 42
0.4142135623730951
  0
VERTEX
  5
24E7
  8
SAPA_PROFIL
 10
24.5
 20
64.499999999999488
 30
0.0
  0
VERTEX
  5
24E8
  8
SAPA_PROFIL
 10
-24.5
 20
64.499999999999488
 30
0.0
 42
0.4142135623730951
  0
VERTEX
  5
24E9
  8
SAPA_PROFIL
 10
-25.0
 20
63.999999999999481
 30
0.0
  0
VERTEX
  5
24EA
  8
SAPA_PROFIL
 10
-25.00000000000103
 20
-35.199999999999513
 30
0.0
 42
0.4142135623731258
  0
VERTEX
  5
24EB
  8
SAPA_PROFIL
 10
-24.700000000001008
 20
-35.499999999999517
 30
0.0
  0
VERTEX
  5
24EC
  8
SAPA_PROFIL
 10
-22.400000000001029
 20
-35.499999999999517
 30
0.0
  0
VERTEX
  5
24ED
  8
SAPA_PROFIL
 10
-21.81361598424002
 20
-35.035076580433497
 30
0.0
 42
0.7105995015650982
  0
VERTEX
  5
24EE
  8
SAPA_PROFIL
 10
-22.00000000000102
 20
-34.499999999999517
 30
0.0
  0
VERTEX
  5
24EF
  8
SAPA_PROFIL
 10
-22.900000000001029
 20
-34.499999999999517
 30
0.0
 42
-0.4142135623731104
  0
VERTEX
  5
24F0
  8
SAPA_PROFIL
 10
-23.200000000001008
 20
-34.199999999999513
 30
0.0
  0
VERTEX
  5
24F1
  8
SAPA_PROFIL
 10
-23.200000000001008
 20
-31.7999999999995
 30
0.0
 42
-0.4142135623731001
  0
VERTEX
  5
24F2
  8
SAPA_PROFIL
 10
-22.900000000001029
 20
-31.49999999999952
 30
0.0
  0
VERTEX
  5
24F3
  8
SAPA_PROFIL
 10
-18.00000000000102
 20
-31.49999999999952
 30
0.0
 42
-0.4142135623730951
  0
VERTEX
  5
24F4
  8
SAPA_PROFIL
 10
-17.700000000001008
 20
-31.7999999999995
 30
0.0
  0
VERTEX
  5
24F5
  8
SAPA_PROFIL
 10
-17.700000000001008
 20
-34.199999999999513
 30
0.0
 42
-0.4142135623731359
  0
VERTEX
  5
24F6
  8
SAPA_PROFIL
 10
-18.000000000001052
 20
-34.499999999999517
 30
0.0
  0
VERTEX
  5
24F7
  8
SAPA_PROFIL
 10
-18.400000000001029
 20
-34.499999999999517
 30
0.0
 42
0.7105995015649472
  0
VERTEX
  5
24F8
  8
SAPA_PROFIL
 10
-18.586384015761841
 20
-35.035076580434207
 30
0.0
  0
VERTEX
  5
24F9
  8
SAPA_PROFIL
 10
-18.00000000000102
 20
-35.499999999999517
 30
0.0
  0
VERTEX
  5
24FA
  8
SAPA_PROFIL
 10
-16.300000000000999
 20
-35.499999999999517
 30
0.0
 42
0.4142135623731156
  0
VERTEX
  5
24FB
  8
SAPA_PROFIL
 10
-16.00000000000102
 20
-35.199999999999513
 30
0.0
  0
VERTEX
  5
24FC
  8
SAPA_PROFIL
 10
-16.00000000000102
 20
-34.647213595499522
 30
0.0
 42
0.2134217652833455
  0
VERTEX
  5
24FD
  8
SAPA_PROFIL
 10
-16.100000000000989
 20
-34.423606797749557
 30
0.0
 42
-0.2134217652833592
  0
VERTEX
  5
24FE
  8
SAPA_PROFIL
 10
-16.200000000001008
 20
-34.199999999999513
 30
0.0
  0
VERTEX
  5
24FF
  8
SAPA_PROFIL
 10
-16.200000000001008
 20
-30.2999999999995
 30
0.0
 42
0.4142135623731053
  0
VERTEX
  5
2500
  8
SAPA_PROFIL
 10
-16.50000000000102
 20
-29.99999999999952
 30
0.0
  0
VERTEX
  5
2501
  8
SAPA_PROFIL
 10
-22.400000000000009
 20
-29.99999999999952
 30
0.0
 42
-0.4142135623730951
  0
VERTEX
  5
2502
  8
SAPA_PROFIL
 10
-22.700000000000021
 20
-29.699999999999509
 30
0.0
  0
VERTEX
  5
2503
  8
SAPA_PROFIL
 10
-22.700000000000021
 20
-15.7999999999995
 30
0.0
 42
-0.4142135623730951
  0
VERTEX
  5
2504
  8
SAPA_PROFIL
 10
-22.400000000000009
 20
-15.49999999999952
 30
0.0
  0
VERTEX
  5
2505
  8
SAPA_PROFIL
 10
-21.041640786500011
 20
-15.49999999999952
 30
0.0
 42
0.6482315195103644
  0
SEQEND
  5
2506
  8
SAPA_PROFIL
  0
POLYLINE
  5
1763
  8
SAPA_PROFIL
 66
     1
 10
0.0
 20
0.0
 30
0.0
 70
   129
  0
VERTEX
  5
2507
  8
SAPA_PROFIL
 10
22.399999999999981
 20
62.2000000000005
 30
0.0
 42
-0.4142135623730951
  0
VERTEX
  5
2508
  8
SAPA_PROFIL
 10
22.699999999999989
 20
61.900000000000489
 30
0.0
  0
VERTEX
  5
2509
  8
SAPA_PROFIL
 10
22.699999999999989
 20
49.299999999999493
 30
0.0
 42
-0.4142135623731104
  0
VERTEX
  5
250A
  8
SAPA_PROFIL
 10
22.399999999999981
 20
48.999999999999481
 30
0.0
  0
VERTEX
  5
250B
  8
SAPA_PROFIL
 10
18.0
 20
48.999999999999481
 30
0.0
 42
0.4142135623730951
  0
VERTEX
  5
250C
  8
SAPA_PROFIL
 10
17.5
 20
48.499999999999488
 30
0.0
  0
VERTEX
  5
250D
  8
SAPA_PROFIL
 10
17.5
 20
46.399999999999459
 30
0.0
 42
0.4142135623730951
  0
VERTEX
  5
250E
  8
SAPA_PROFIL
 10
17.800000000000011
 20
46.099999999999483
 30
0.0
  0
VERTEX
  5
250F
  8
SAPA_PROFIL
 10
18.300000000000011
 20
46.099999999999483
 30
0.0
 42
0.4142135623730951
  0
VERTEX
  5
2510
  8
SAPA_PROFIL
 10
18.599999999999991
 20
46.399999999999459
 30
0.0
  0
VERTEX
  5
2511
  8
SAPA_PROFIL
 10
18.600000000000311
 20
46.736626924635203
 30
0.0
 42
-0.5643553431125428
  0
VERTEX
  5
2512
  8
SAPA_PROFIL
 10
22.924395043234998
 20
44.874395043232482
 30
0.0
  0
VERTEX
  5
2513
  8
SAPA_PROFIL
 10
22.550000000002001
 20
44.499999999999481
 30
0.0
  0
VERTEX
  5
2514
  8
SAPA_PROFIL
 10
22.924395043234231
 20
44.125604956763077
 30
0.0
 42
-0.5643553431119962
  0
VERTEX
  5
2515
  8
SAPA_PROFIL
 10
18.599999999999991
 20
42.263373075365479
 30
0.0
  0
VERTEX
  5
2516
  8
SAPA_PROFIL
 10
18.599999999999991
 20
42.599999999999497
 30
0.0
 42
0.4142135623730644
  0
VERTEX
  5
2517
  8
SAPA_PROFIL
 10
18.300000000000011
 20
42.899999999999459
 30
0.0
  0
VERTEX
  5
2518
  8
SAPA_PROFIL
 10
17.800000000000011
 20
42.899999999999459
 30
0.0
 42
0.4142135623730951
  0
VERTEX
  5
2519
  8
SAPA_PROFIL
 10
17.5
 20
42.599999999999483
 30
0.0
  0
VERTEX
  5
251A
  8
SAPA_PROFIL
 10
17.5
 20
40.499999999999488
 30
0.0
 42
0.4142135623730951
  0
VERTEX
  5
251B
  8
SAPA_PROFIL
 10
18.0
 20
39.999999999999488
 30
0.0
  0
VERTEX
  5
251C
  8
SAPA_PROFIL
 10
22.399999999999981
 20
39.999999999999488
 30
0.0
 42
-0.4142135623731104
  0
VERTEX
  5
251D
  8
SAPA_PROFIL
 10
22.699999999999989
 20
39.699999999999477
 30
0.0
  0
VERTEX
  5
251E
  8
SAPA_PROFIL
 10
22.699999999999989
 20
9.2999999999994714
 30
0.0
 42
-0.4142135623731104
  0
VERTEX
  5
251F
  8
SAPA_PROFIL
 10
22.399999999999981
 20
8.9999999999994582
 30
0.0
  0
VERTEX
  5
2520
  8
SAPA_PROFIL
 10
18.0
 20
8.9999999999994582
 30
0.0
 42
0.4142135623730951
  0
VERTEX
  5
2521
  8
SAPA_PROFIL
 10
17.5
 20
8.4999999999994884
 30
0.0
  0
VERTEX
  5
2522
  8
SAPA_PROFIL
 10
17.5
 20
6.3999999999994941
 30
0.0
 42
0.4142135623730951
  0
VERTEX
  5
2523
  8
SAPA_PROFIL
 10
17.800000000000011
 20
6.0999999999994543
 30
0.0
  0
VERTEX
  5
2524
  8
SAPA_PROFIL
 10
18.300000000000011
 20
6.0999999999994543
 30
0.0
 42
0.4142135623730389
  0
VERTEX
  5
2525
  8
SAPA_PROFIL
 10
18.599999999999991
 20
6.3999999999994648
 30
0.0
  0
VERTEX
  5
2526
  8
SAPA_PROFIL
 10
18.600000000000311
 20
6.7366269246341801
 30
0.0
 42
-0.5643553431125485
  0
VERTEX
  5
2527
  8
SAPA_PROFIL
 10
22.924395043234998
 20
4.874395043232453
 30
0.0
  0
VERTEX
  5
2528
  8
SAPA_PROFIL
 10
22.550000000002001
 20
4.4999999999994591
 30
0.0
  0
VERTEX
  5
2529
  8
SAPA_PROFIL
 10
22.924395043234199
 20
4.1256049567620323
 30
0.0
 42
-0.5643553431119904
  0
VERTEX
  5
252A
  8
SAPA_PROFIL
 10
18.599999999999991
 20
2.2633730753654779
 30
0.0
  0
VERTEX
  5
252B
  8
SAPA_PROFIL
 10
18.599999999999991
 20
2.5999999999994818
 30
0.0
 42
0.4142135623730644
  0
VERTEX
  5
252C
  8
SAPA_PROFIL
 10
18.300000000000011
 20
2.8999999999994648
 30
0.0
  0
VERTEX
  5
252D
  8
SAPA_PROFIL
 10
17.800000000000011
 20
2.8999999999994648
 30
0.0
 42
0.4142135623730951
  0
VERTEX
  5
252E
  8
SAPA_PROFIL
 10
17.5
 20
2.5999999999994818
 30
0.0
  0
VERTEX
  5
252F
  8
SAPA_PROFIL
 10
17.5
 20
0.4999999999994884
 30
0.0
 42
0.4142135623730951
  0
VERTEX
  5
2530
  8
SAPA_PROFIL
 10
18.0
 20
-0.00000000000054
 30
0.0
  0
VERTEX
  5
2531
  8
SAPA_PROFIL
 10
22.399999999999981
 20
-0.00000000000054
 30
0.0
 42
-0.4142135623731104
  0
VERTEX
  5
2532
  8
SAPA_PROFIL
 10
22.699999999999989
 20
-0.3000000000005514
 30
0.0
  0
VERTEX
  5
2533
  8
SAPA_PROFIL
 10
22.699999999999989
 20
-9.8999999999995492
 30
0.0
 42
-0.4142135623730951
  0
VERTEX
  5
2534
  8
SAPA_PROFIL
 10
22.399999999999981
 20
-10.19999999999953
 30
0.0
  0
VERTEX
  5
2535
  8
SAPA_PROFIL
 10
-22.400000000000009
 20
-10.1999999999995
 30
0.0
 42
-0.4142135623730951
  0
VERTEX
  5
2536
  8
SAPA_PROFIL
 10
-22.700000000000021
 20
-9.8999999999995225
 30
0.0
  0
VERTEX
  5
2537
  8
SAPA_PROFIL
 10
-22.700000000000021
 20
-0.300000000000523
 30
0.0
 42
-0.4142135623730951
  0
VERTEX
  5
2538
  8
SAPA_PROFIL
 10
-22.400000000000009
 20
-0.0000000000005116
 30
0.0
  0
VERTEX
  5
2539
  8
SAPA_PROFIL
 10
-18.000000000000028
 20
-0.0000000000005116
 30
0.0
 42
0.4142135623730951
  0
VERTEX
  5
253A
  8
SAPA_PROFIL
 10
-17.500000000000028
 20
0.4999999999994884
 30
0.0
  0
VERTEX
  5
253B
  8
SAPA_PROFIL
 10
-17.500000000000028
 20
2.5999999999994818
 30
0.0
 42
0.4142135623730951
  0
VERTEX
  5
253C
  8
SAPA_PROFIL
 10
-17.80000000000004
 20
2.8999999999994941
 30
0.0
  0
VERTEX
  5
253D
  8
SAPA_PROFIL
 10
-18.30000000000004
 20
2.8999999999994941
 30
0.0
 42
0.4142135623730951
  0
VERTEX
  5
253E
  8
SAPA_PROFIL
 10
-18.600000000000019
 20
2.5999999999994818
 30
0.0
  0
VERTEX
  5
253F
  8
SAPA_PROFIL
 10
-18.600000000000019
 20
2.2633730753655068
 30
0.0
 42
-0.5643553431119905
  0
VERTEX
  5
2540
  8
SAPA_PROFIL
 10
-22.924395043234231
 20
4.125604956762003
 30
0.0
  0
VERTEX
  5
2541
  8
SAPA_PROFIL
 10
-22.550000000002029
 20
4.4999999999994884
 30
0.0
  0
VERTEX
  5
2542
  8
SAPA_PROFIL
 10
-22.92439504323502
 20
4.8743950432324823
 30
0.0
 42
-0.5643553431125659
  0
VERTEX
  5
2543
  8
SAPA_PROFIL
 10
-18.600000000000222
 20
6.7366269246341508
 30
0.0
  0
VERTEX
  5
2544
  8
SAPA_PROFIL
 10
-18.600000000000019
 20
6.3999999999994941
 30
0.0
 42
0.4142135623730388
  0
VERTEX
  5
2545
  8
SAPA_PROFIL
 10
-18.30000000000004
 20
6.0999999999994818
 30
0.0
  0
VERTEX
  5
2546
  8
SAPA_PROFIL
 10
-17.80000000000004
 20
6.0999999999994818
 30
0.0
 42
0.4142135623730951
  0
VERTEX
  5
2547
  8
SAPA_PROFIL
 10
-17.500000000000028
 20
6.3999999999994941
 30
0.0
  0
VERTEX
  5
2548
  8
SAPA_PROFIL
 10
-17.500000000000028
 20
8.4999999999994884
 30
0.0
 42
0.4142135623730951
  0
VERTEX
  5
2549
  8
SAPA_PROFIL
 10
-18.000000000000028
 20
8.9999999999994884
 30
0.0
  0
VERTEX
  5
254A
  8
SAPA_PROFIL
 10
-22.400000000000009
 20
8.9999999999994884
 30
0.0
 42
-0.4142135623730951
  0
VERTEX
  5
254B
  8
SAPA_PROFIL
 10
-22.700000000000021
 20
9.2999999999994998
 30
0.0
  0
VERTEX
  5
254C
  8
SAPA_PROFIL
 10
-22.700000000000021
 20
39.699999999999477
 30
0.0
 42
-0.4142135623730951
  0
VERTEX
  5
254D
  8
SAPA_PROFIL
 10
-22.400000000000009
 20
39.999999999999488
 30
0.0
  0
VERTEX
  5
254E
  8
SAPA_PROFIL
 10
-18.000000000000028
 20
39.999999999999488
 30
0.0
 42
0.4142135623730951
  0
VERTEX
  5
254F
  8
SAPA_PROFIL
 10
-17.500000000000028
 20
40.499999999999488
 30
0.0
  0
VERTEX
  5
2550
  8
SAPA_PROFIL
 10
-17.5
 20
42.599999999999483
 30
0.0
 42
0.4142135623730951
  0
VERTEX
  5
2551
  8
SAPA_PROFIL
 10
-17.800000000000011
 20
42.899999999999459
 30
0.0
  0
VERTEX
  5
2552
  8
SAPA_PROFIL
 10
-18.300000000000011
 20
42.899999999999459
 30
0.0
 42
0.4142135623730951
  0
VERTEX
  5
2553
  8
SAPA_PROFIL
 10
-18.599999999999991
 20
42.599999999999483
 30
0.0
  0
VERTEX
  5
2554
  8
SAPA_PROFIL
 10
-18.599999999999991
 20
42.263373075365479
 30
0.0
 42
-0.5643553431119905
  0
VERTEX
  5
2555
  8
SAPA_PROFIL
 10
-22.924395043234199
 20
44.125604956762999
 30
0.0
  0
VERTEX
  5
2556
  8
SAPA_PROFIL
 10
-22.550000000002001
 20
44.499999999999481
 30
0.0
  0
VERTEX
  5
2557
  8
SAPA_PROFIL
 10
-22.924395043234998
 20
44.874395043232482
 30
0.0
 42
-0.5643553431125659
  0
VERTEX
  5
2558
  8
SAPA_PROFIL
 10
-18.60000000000019
 20
46.736626924635146
 30
0.0
  0
VERTEX
  5
2559
  8
SAPA_PROFIL
 10
-18.599999999999991
 20
46.399999999999459
 30
0.0
 42
0.4142135623730951
  0
VERTEX
  5
255A
  8
SAPA_PROFIL
 10
-18.300000000000011
 20
46.099999999999483
 30
0.0
  0
VERTEX
  5
255B
  8
SAPA_PROFIL
 10
-17.800000000000011
 20
46.099999999999483
 30
0.0
 42
0.4142135623730951
  0
VERTEX
  5
255C
  8
SAPA_PROFIL
 10
-17.5
 20
46.399999999999459
 30
0.0
  0
VERTEX
  5
255D
  8
SAPA_PROFIL
 10
-17.5
 20
48.499999999999488
 30
0.0
 42
0.4142135623730951
  0
VERTEX
  5
255E
  8
SAPA_PROFIL
 10
-18.0
 20
48.999999999999481
 30
0.0
  0
VERTEX
  5
255F
  8
SAPA_PROFIL
 10
-22.399999999999981
 20
48.999999999999481
 30
0.0
 42
-0.4142135623730951
  0
VERTEX
  5
2560
  8
SAPA_PROFIL
 10
-22.699999999999989
 20
49.299999999999493
 30
0.0
  0
VERTEX
  5
2561
  8
SAPA_PROFIL
 10
-22.699999999999989
 20
61.899999999999473
 30
0.0
 42
-0.4142135623730951
  0
VERTEX
  5
2562
  8
SAPA_PROFIL
 10
-22.399999999999981
 20
62.199999999999477
 30
0.0
  0
SEQEND
  5
2563
  8
SAPA_PROFIL
  0
TEXT
  5
177B
  8
SAPA_ARTIKELNR
 62
     4
 10
210.17988547077911
 20
20.051192314697911
 30
0.0
 40
3.0
  1
42762
 50
180.0
  7
BYGG-036634$0$STANDARD
 71
     4
 72
     4
 11
203.17988547077911
 21
21.551192314697911
 31
0.0
  0
LINE
  5
1784
  8
SAPA_GLAS
 10
162.99999999793059
 20
-57.550000073848253
 30
0.0
 11
162.99999999793059
 21
-42.550000073848253
 31
0.0
  0
POLYLINE
  5
1785
  8
SAPA_GLAS
 66
     1
 10
0.0
 20
0.0
 30
0.0
  0
VERTEX
  5
2569
  8
SAPA_GLAS
 10
182.9999999979307
 20
-36.550000073848253
 30
0.0
  0
VERTEX
  5
256A
  8
SAPA_GLAS
 10
152.9999999979307
 20
-36.550000073848253
 30
0.0
  0
VERTEX
  5
256B
  8
SAPA_GLAS
 10
152.9999999979307
 20
-63.550000073848253
 30
0.0
  0
VERTEX
  5
256C
  8
SAPA_GLAS
 10
182.9999999979307
 20
-63.550000073848253
 30
0.0
  0
SEQEND
  5
256D
  8
SAPA_GLAS
  0
LINE
  5
1786
  8
SAPA_GLAS
 10
182.9999999979307
 20
-42.550000073848253
 30
0.0
 11
152.9999999979307
 21
-42.550000073848253
 31
0.0
  0
LINE
  5
1787
  8
SAPA_GLAS
 10
182.9999999979307
 20
-57.550000073848253
 30
0.0
 11
152.9999999979307
 21
-57.550000073848253
 31
0.0
  0
INSERT
  5
178E
  8
SAPA_FYLLNING
  6
CONTINUOUS
  2
*X124
 10
0.0
 20
0.0
 30
0.0
1001
ACAD
1000
HATCH
1002
{
1070
    19
1000
HEX
1040
0.25
1040
0.0
1000
R14_HATCH_DATA
1000
178E
1011
1.0
1021
0.0
1031
0.0
1021
0.0
1031
0.0
1011
0.0
1021
0.0
1031
0.0
1021
1.0
1031
0.0
1011
0.0
1021
0.0
1031
0.0
1021
0.0
1031
1.0
1040
0.0
1010
0.0
1020
0.0
1030
1.0
1000
HEX
1070
     0
1070
     0
1071
        1
1071
        5
1071
        1
1070
     3
1040
-32.495822906705143
1040
53.589194351408871
1040
7.482641589890588
1040
-0.0000000000000005
1040
0.3418652764874095
1040
0.0
1040
6.2831853071795862
1070
     0
1071
        0
1070
     0
1070
     1
1040
0.0
1040
0.25
1070
     0
1070
     3
1040
0.0
1040
-981.16441466241838
1040
-820.76377900174748
1040
0.0
1040
1.374814999999999
1070
     2
1040
0.79375
1040
-1.587499999999999
1040
2.0943951023931948
1040
-981.16441466241838
1040
-820.76377900174748
1040
-1.190624715503902
1040
-0.6874074999999996
1070
     2
1040
0.7937499999999995
1040
-1.587499999999999
1040
1.047197551196597
1040
-980.37066466241845
1040
-820.76377900174748
1040
-1.190624715503902
1040
0.6874075000000001
1070
     2
1040
0.79375
1040
-1.587499999999999
1040
0.1355913865917768
1071
        1
1040
-33.594287567786523
1040
54.585673989912273
1040
0.0
1002
}
  0
INSERT
  5
178F
  8
SAPA_FYLLNING
  6
CONTINUOUS
  2
*X125
 10
0.0
 20
0.0
 30
0.0
1001
ACAD
1000
HATCH
1002
{
1070
    19
1000
ANSI37
1040
0.25
1040
0.0
1000
R14_HATCH_DATA
1000
178F
1011
1.0
1021
0.0
1031
0.0
1021
0.0
1031
0.0
1011
0.0
1021
0.0
1031
0.0
1021
1.0
1031
0.0
1011
0.0
1021
0.0
1031
0.0
1021
0.0
1031
1.0
1040
0.0
1010
0.0
1020
0.0
1030
1.0
1000
ANSI37
1070
     0
1070
     0
1071
        1
1071
        7
1070
     1
1070
     1
1071
        4
1040
-25.0
1040
63.543604510527068
1040
-0.2000000000000035
1040
-40.0
1040
63.543604510527068
1040
0.0
1040
-40.0
1040
55.013914570887209
1040
-0.2235864103272747
1040
-25.0
1040
55.013914570887209
1040
0.0
1071
        0
1070
     0
1070
     1
1040
0.0
1040
0.25
1070
     0
1070
     2
1040
0.7853981633974483
1040
-981.16441466241838
1040
-820.76377900174748
1040
-0.5612660075668221
1040
0.5612660075668221
1070
     0
1040
2.3561944901923439
1040
-981.16441466241838
1040
-820.76377900174748
1040
-0.5612660075668221
1040
-0.5612660075668221
1070
     0
1040
0.1355913865917768
1071
        1
1040
-32.509048140836967
1040
59.331374730054911
1040
0.0
1002
}
  0
LINE
  5
179A
  8
SAPA_ISOLATOR
 10
25.00001783612641
 20
-7.3369832384353231
 30
0.0
 11
31.194641603309378
 21
-7.3369832384353231
 31
0.0
  0
LINE
  5
179B
  8
SAPA_ISOLATOR
 10
25.00001783612641
 20
-42.578680595394303
 30
0.0
 11
25.00001783612641
 21
-7.3369832384353231
 31
0.0
  0
LINE
  5
179C
  8
SAPA_ISOLATOR
 10
31.194641603311201
 20
-42.578680595394303
 30
0.0
 11
25.00001783612641
 21
-42.578680595394303
 31
0.0
  0
LINE
  5
179D
  8
SAPA_ISOLATOR
 10
31.200017836126449
 20
-7.3369832384353231
 30
0.0
 11
31.194641603311201
 21
-42.578680595394303
 31
0.0
  0
LINE
  5
179E
  8
SAPA_ISOLATOR
 10
31.194641603311201
 20
-42.578680595394303
 30
0.0
 11
25.00001783612641
 21
-7.3369832384353231
 31
0.0
  0
LINE
  5
179F
  8
SAPA_ISOLATOR
 10
31.2166051390119
 20
-7.3369832384353231
 30
0.0
 11
25.01122890619661
 21
-42.578680595394303
 31
0.0
  0
POLYLINE
  5
17BE
  8
SAPA_FOGBAND
 66
     1
 10
0.0
 20
0.0
 30
0.0
 70
     1
  0
VERTEX
  5
2715
  8
SAPA_FOGBAND
 10
16.00339355472715
 20
-36.300000000000132
 30
0.0
  0
VERTEX
  5
2716
  8
SAPA_FOGBAND
 10
23.303393554727108
 20
-36.300000000000132
 30
0.0
 42
0.4142135623730951
  0
VERTEX
  5
2717
  8
SAPA_FOGBAND
 10
23.803393554727108
 20
-35.800000000000118
 30
0.0
  0
VERTEX
  5
2718
  8
SAPA_FOGBAND
 10
23.803393554727108
 20
-35.500000000000171
 30
0.0
  0
VERTEX
  5
2719
  8
SAPA_FOGBAND
 10
22.203393554727089
 20
-35.500000000000171
 30
0.0
 42
-0.4142135623730951
  0
VERTEX
  5
271A
  8
SAPA_FOGBAND
 10
21.703393554727089
 20
-35.000000000000171
 30
0.0
  0
VERTEX
  5
271B
  8
SAPA_FOGBAND
 10
21.703393554727089
 20
-34.058574583118293
 30
0.0
  0
VERTEX
  5
271C
  8
SAPA_FOGBAND
 10
21.95515736374762
 20
-33.991114673807893
 30
0.0
 42
0.4740571810232243
  0
VERTEX
  5
271D
  8
SAPA_FOGBAND
 10
22.082451226111171
 20
-33.708832088169231
 30
0.0
  0
VERTEX
  5
271E
  8
SAPA_FOGBAND
 10
21.462350723352529
 20
-32.262625951409348
 30
0.0
 42
0.2846003776496037
  0
VERTEX
  5
271F
  8
SAPA_FOGBAND
 10
21.01470654489242
 20
-31.98536950236138
 30
0.0
  0
VERTEX
  5
2720
  8
SAPA_FOGBAND
 10
19.392080564561859
 20
-31.98536950236138
 30
0.0
 42
0.2846003776496048
  0
VERTEX
  5
2721
  8
SAPA_FOGBAND
 10
18.944436386101639
 20
-32.262625951409348
 30
0.0
  0
VERTEX
  5
2722
  8
SAPA_FOGBAND
 10
18.324335883343
 20
-33.708832088169231
 30
0.0
 42
0.4740571810232242
  0
VERTEX
  5
2723
  8
SAPA_FOGBAND
 10
18.451629745706668
 20
-33.991114673807893
 30
0.0
  0
VERTEX
  5
2724
  8
SAPA_FOGBAND
 10
18.703393554727079
 20
-34.058574583118293
 30
0.0
  0
VERTEX
  5
2725
  8
SAPA_FOGBAND
 10
18.703393554727079
 20
-35.000000000000171
 30
0.0
 42
-0.4142135623730951
  0
VERTEX
  5
2726
  8
SAPA_FOGBAND
 10
18.203393554727079
 20
-35.500000000000171
 30
0.0
  0
VERTEX
  5
2727
  8
SAPA_FOGBAND
 10
15.503393554727269
 20
-35.500000000000171
 30
0.0
  0
VERTEX
  5
2728
  8
SAPA_FOGBAND
 10
15.50339355472715
 20
-35.800000000000118
 30
0.0
 42
0.4142135623730951
  0
SEQEND
  5
2729
  8
SAPA_FOGBAND
  0
POLYLINE
  5
17BF
  8
SAPA_FOGBAND
 66
     1
 10
0.0
 20
0.0
 30
0.0
 70
     1
  0
VERTEX
  5
272A
  8
SAPA_FOGBAND
 10
19.303393554727108
 20
-34.185369502361432
 30
0.0
  0
VERTEX
  5
272B
  8
SAPA_FOGBAND
 10
19.303393554727108
 20
-33.585369502361402
 30
0.0
 42
-0.9999999999999998
  0
VERTEX
  5
272C
  8
SAPA_FOGBAND
 10
21.10339355472707
 20
-33.585369502361402
 30
0.0
  0
VERTEX
  5
272D
  8
SAPA_FOGBAND
 10
21.10339355472707
 20
-34.185369502361432
 30
0.0
 42
-0.9999999999999998
  0
SEQEND
  5
272E
  8
SAPA_FOGBAND
  0
POLYLINE
  5
17C0
  8
SAPA_FOGBAND
 66
     1
 10
0.0
 20
0.0
 30
0.0
  0
VERTEX
  5
272F
  8
SAPA_FOGBAND
 10
23.803393554727108
 20
-35.800000000000118
 30
0.0
  0
VERTEX
  5
2730
  8
SAPA_FOGBAND
 10
23.803393554727108
 20
-35.500000000000171
 30
0.0
  0
VERTEX
  5
2731
  8
SAPA_FOGBAND
 10
24.715553718108481
 20
-35.500000000000171
 30
0.0
 42
-0.4027293761437522
  0
VERTEX
  5
2732
  8
SAPA_FOGBAND
 10
25.015321271706512
 20
-35.788192637469308
 30
0.0
  0
VERTEX
  5
2733
  8
SAPA_FOGBAND
 10
25.635472610187659
 20
-42.423995511553407
 30
0.0
 42
-0.4366759199119207
  0
VERTEX
  5
2734
  8
SAPA_FOGBAND
 10
24.638365134668678
 20
-43.500000000000739
 30
0.0
  0
VERTEX
  5
2735
  8
SAPA_FOGBAND
 10
12.763165518679671
 20
-43.500000000000739
 30
0.0
 42
-0.1134871727417796
  0
VERTEX
  5
2736
  8
SAPA_FOGBAND
 10
12.32638668306754
 20
-43.39956892385333
 30
0.0
  0
VERTEX
  5
2737
  8
SAPA_FOGBAND
 10
5.2213249162899507
 20
-40.440889661176527
 30
0.0
 42
-0.2866770623134215
  0
VERTEX
  5
2738
  8
SAPA_FOGBAND
 10
5.002066370208559
 20
-40.090931572824843
 30
0.0
  0
VERTEX
  5
2739
  8
SAPA_FOGBAND
 10
5.002066370208559
 20
-39.098088390160967
 30
0.0
 42
-0.3386584782462731
  0
VERTEX
  5
273A
  8
SAPA_FOGBAND
 10
5.5928058660858611
 20
-38.325942004160026
 30
0.0
  0
VERTEX
  5
273B
  8
SAPA_FOGBAND
 10
15.05021068724818
 20
-35.546144059770711
 30
0.0
 42
-0.0644539213931785
  0
VERTEX
  5
273C
  8
SAPA_FOGBAND
 10
15.4066852208482
 20
-35.500000000000171
 30
0.0
  0
VERTEX
  5
273D
  8
SAPA_FOGBAND
 10
15.503393554727269
 20
-35.500000000000171
 30
0.0
  0
SEQEND
  5
273E
  8
SAPA_FOGBAND
  0
POLYLINE
  5
17C1
  8
SAPA_FOGBAND
 66
     1
 10
0.0
 20
0.0
 30
0.0
 70
     1
  0
VERTEX
  5
273F
  8
SAPA_FOGBAND
 10
11.88029721313341
 20
-37.605164153426472
 30
0.0
  0
VERTEX
  5
2740
  8
SAPA_FOGBAND
 10
7.6042180012538898
 20
-39.020702744132109
 30
0.0
 42
0.444186966527488
  0
VERTEX
  5
2741
  8
SAPA_FOGBAND
 10
7.5698481632943313
 20
-39.495522529296878
 30
0.0
  0
VERTEX
  5
2742
  8
SAPA_FOGBAND
 10
11.762261311780319
 20
-41.890424100316409
 30
0.0
 42
0.5537304554466119
  0
VERTEX
  5
2743
  8
SAPA_FOGBAND
 10
12.693293997256889
 20
-41.307503437659932
 30
0.0
  0
VERTEX
  5
2744
  8
SAPA_FOGBAND
 10
12.693293997256889
 20
-38.231806045761289
 30
0.0
 42
0.4917973357877383
  0
SEQEND
  5
2745
  8
SAPA_FOGBAND
  0
POLYLINE
  5
17C2
  8
SAPA_FOGBAND
 10
21.926001341734228
 20
-40.020122589263615
 30
0.0
 66
     1
 70
     8
  0
VERTEX
  8
SAPA_FOGBAND
  5
290A
 10
21.9260
 20
-40.0201
 30
0.000000
  70
    32
  0
VERTEX
  8
SAPA_FOGBAND
  5
290B
 10
21.9213
 20
-40.1350
 30
0.000000
  70
    32
  0
VERTEX
  8
SAPA_FOGBAND
  5
290C
 10
21.9094
 20
-40.2495
 30
0.000000
  70
    32
  0
VERTEX
  8
SAPA_FOGBAND
  5
290D
 10
21.8905
 20
-40.3634
 30
0.000000
  70
    32
  0
VERTEX
  8
SAPA_FOGBAND
  5
290E
 10
21.8644
 20
-40.4765
 30
0.000000
  70
    32
  0
VERTEX
  8
SAPA_FOGBAND
  5
290F
 10
21.8314
 20
-40.5883
 30
0.000000
  70
    32
  0
VERTEX
  8
SAPA_FOGBAND
  5
2910
 10
21.7914
 20
-40.6987
 30
0.000000
  70
    32
  0
VERTEX
  8
SAPA_FOGBAND
  5
2911
 10
21.7446
 20
-40.8074
 30
0.000000
  70
    32
  0
VERTEX
  8
SAPA_FOGBAND
  5
2912
 10
21.6911
 20
-40.9141
 30
0.000000
  70
    32
  0
VERTEX
  8
SAPA_FOGBAND
  5
2913
 10
21.6310
 20
-41.0186
 30
0.000000
  70
    32
  0
VERTEX
  8
SAPA_FOGBAND
  5
2914
 10
21.5645
 20
-41.1206
 30
0.000000
  70
    32
  0
VERTEX
  8
SAPA_FOGBAND
  5
2915
 10
21.4917
 20
-41.2199
 30
0.000000
  70
    32
  0
VERTEX
  8
SAPA_FOGBAND
  5
2916
 10
21.4128
 20
-41.3163
 30
0.000000
  70
    32
  0
VERTEX
  8
SAPA_FOGBAND
  5
2917
 10
21.3279
 20
-41.4094
 30
0.000000
  70
    32
  0
VERTEX
  8
SAPA_FOGBAND
  5
2918
 10
21.2374
 20
-41.4992
 30
0.000000
  70
    32
  0
VERTEX
  8
SAPA_FOGBAND
  5
2919
 10
21.1414
 20
-41.5852
 30
0.000000
  70
    32
  0
VERTEX
  8
SAPA_FOGBAND
  5
291A
 10
21.0401
 20
-41.6675
 30
0.000000
  70
    32
  0
VERTEX
  8
SAPA_FOGBAND
  5
291B
 10
20.9338
 20
-41.7457
 30
0.000000
  70
    32
  0
VERTEX
  8
SAPA_FOGBAND
  5
291C
 10
20.8227
 20
-41.8197
 30
0.000000
  70
    32
  0
VERTEX
  8
SAPA_FOGBAND
  5
291D
 10
20.7071
 20
-41.8893
 30
0.000000
  70
    32
  0
VERTEX
  8
SAPA_FOGBAND
  5
291E
 10
20.5874
 20
-41.9543
 30
0.000000
  70
    32
  0
VERTEX
  8
SAPA_FOGBAND
  5
291F
 10
20.4636
 20
-42.0146
 30
0.000000
  70
    32
  0
VERTEX
  8
SAPA_FOGBAND
  5
2920
 10
20.3363
 20
-42.0699
 30
0.000000
  70
    32
  0
VERTEX
  8
SAPA_FOGBAND
  5
2921
 10
20.2057
 20
-42.1203
 30
0.000000
  70
    32
  0
VERTEX
  8
SAPA_FOGBAND
  5
2922
 10
20.0720
 20
-42.1656
 30
0.000000
  70
    32
  0
VERTEX
  8
SAPA_FOGBAND
  5
2923
 10
19.9356
 20
-42.2056
 30
0.000000
  70
    32
  0
VERTEX
  8
SAPA_FOGBAND
  5
2924
 10
19.7969
 20
-42.2403
 30
0.000000
  70
    32
  0
VERTEX
  8
SAPA_FOGBAND
  5
2925
 10
19.6562
 20
-42.2696
 30
0.000000
  70
    32
  0
VERTEX
  8
SAPA_FOGBAND
  5
2926
 10
19.5138
 20
-42.2933
 30
0.000000
  70
    32
  0
VERTEX
  8
SAPA_FOGBAND
  5
2927
 10
19.3701
 20
-42.3115
 30
0.000000
  70
    32
  0
VERTEX
  8
SAPA_FOGBAND
  5
2928
 10
19.2253
 20
-42.3242
 30
0.000000
  70
    32
  0
VERTEX
  8
SAPA_FOGBAND
  5
2929
 10
19.0799
 20
-42.3312
 30
0.000000
  70
    32
  0
VERTEX
  8
SAPA_FOGBAND
  5
292A
 10
18.9342
 20
-42.3326
 30
0.000000
  70
    32
  0
VERTEX
  8
SAPA_FOGBAND
  5
292B
 10
18.7886
 20
-42.3283
 30
0.000000
  70
    32
  0
VERTEX
  8
SAPA_FOGBAND
  5
292C
 10
18.6434
 20
-42.3184
 30
0.000000
  70
    32
  0
VERTEX
  8
SAPA_FOGBAND
  5
292D
 10
18.4989
 20
-42.3029
 30
0.000000
  70
    32
  0
VERTEX
  8
SAPA_FOGBAND
  5
292E
 10
18.3556
 20
-42.2818
 30
0.000000
  70
    32
  0
VERTEX
  8
SAPA_FOGBAND
  5
292F
 10
18.2137
 20
-42.2552
 30
0.000000
  70
    32
  0
VERTEX
  8
SAPA_FOGBAND
  5
2930
 10
18.0736
 20
-42.2231
 30
0.000000
  70
    32
  0
VERTEX
  8
SAPA_FOGBAND
  5
2931
 10
17.9356
 20
-42.1857
 30
0.000000
  70
    32
  0
VERTEX
  8
SAPA_FOGBAND
  5
2932
 10
17.8001
 20
-42.1430
 30
0.000000
  70
    32
  0
VERTEX
  8
SAPA_FOGBAND
  5
2933
 10
17.6673
 20
-42.0951
 30
0.000000
  70
    32
  0
VERTEX
  8
SAPA_FOGBAND
  5
2934
 10
17.5377
 20
-42.0421
 30
0.000000
  70
    32
  0
VERTEX
  8
SAPA_FOGBAND
  5
2935
 10
17.4115
 20
-41.9842
 30
0.000000
  70
    32
  0
VERTEX
  8
SAPA_FOGBAND
  5
2936
 10
17.2890
 20
-41.9214
 30
0.000000
  70
    32
  0
VERTEX
  8
SAPA_FOGBAND
  5
2937
 10
17.1705
 20
-41.8541
 30
0.000000
  70
    32
  0
VERTEX
  8
SAPA_FOGBAND
  5
2938
 10
17.0564
 20
-41.7822
 30
0.000000
  70
    32
  0
VERTEX
  8
SAPA_FOGBAND
  5
2939
 10
16.9468
 20
-41.7060
 30
0.000000
  70
    32
  0
VERTEX
  8
SAPA_FOGBAND
  5
293A
 10
16.8421
 20
-41.6257
 30
0.000000
  70
    32
  0
VERTEX
  8
SAPA_FOGBAND
  5
293B
 10
16.7424
 20
-41.5415
 30
0.000000
  70
    32
  0
VERTEX
  8
SAPA_FOGBAND
  5
293C
 10
16.6481
 20
-41.4535
 30
0.000000
  70
    32
  0
VERTEX
  8
SAPA_FOGBAND
  5
293D
 10
16.5594
 20
-41.3620
 30
0.000000
  70
    32
  0
VERTEX
  8
SAPA_FOGBAND
  5
293E
 10
16.4764
 20
-41.2671
 30
0.000000
  70
    32
  0
VERTEX
  8
SAPA_FOGBAND
  5
293F
 10
16.3995
 20
-41.1693
 30
0.000000
  70
    32
  0
VERTEX
  8
SAPA_FOGBAND
  5
2940
 10
16.3286
 20
-41.0685
 30
0.000000
  70
    32
  0
VERTEX
  8
SAPA_FOGBAND
  5
2941
 10
16.2642
 20
-40.9652
 30
0.000000
  70
    32
  0
VERTEX
  8
SAPA_FOGBAND
  5
2942
 10
16.2062
 20
-40.8595
 30
0.000000
  70
    32
  0
VERTEX
  8
SAPA_FOGBAND
  5
2943
 10
16.1548
 20
-40.7517
 30
0.000000
  70
    32
  0
VERTEX
  8
SAPA_FOGBAND
  5
2944
 10
16.1102
 20
-40.6421
 30
0.000000
  70
    32
  0
VERTEX
  8
SAPA_FOGBAND
  5
2945
 10
16.0724
 20
-40.5310
 30
0.000000
  70
    32
  0
VERTEX
  8
SAPA_FOGBAND
  5
2946
 10
16.0416
 20
-40.4185
 30
0.000000
  70
    32
  0
VERTEX
  8
SAPA_FOGBAND
  5
2947
 10
16.0178
 20
-40.3050
 30
0.000000
  70
    32
  0
VERTEX
  8
SAPA_FOGBAND
  5
2948
 10
16.0011
 20
-40.1907
 30
0.000000
  70
    32
  0
VERTEX
  8
SAPA_FOGBAND
  5
2949
 10
15.9916
 20
-40.0760
 30
0.000000
  70
    32
  0
VERTEX
  8
SAPA_FOGBAND
  5
294A
 10
15.9891
 20
-39.9610
 30
0.000000
  70
    32
  0
VERTEX
  8
SAPA_FOGBAND
  5
294B
 10
15.9938
 20
-39.8462
 30
0.000000
  70
    32
  0
VERTEX
  8
SAPA_FOGBAND
  5
294C
 10
16.0057
 20
-39.7316
 30
0.000000
  70
    32
  0
VERTEX
  8
SAPA_FOGBAND
  5
294D
 10
16.0247
 20
-39.6177
 30
0.000000
  70
    32
  0
VERTEX
  8
SAPA_FOGBAND
  5
294E
 10
16.0507
 20
-39.5047
 30
0.000000
  70
    32
  0
VERTEX
  8
SAPA_FOGBAND
  5
294F
 10
16.0837
 20
-39.3929
 30
0.000000
  70
    32
  0
VERTEX
  8
SAPA_FOGBAND
  5
2950
 10
16.1237
 20
-39.2825
 30
0.000000
  70
    32
  0
VERTEX
  8
SAPA_FOGBAND
  5
2951
 10
16.1705
 20
-39.1738
 30
0.000000
  70
    32
  0
VERTEX
  8
SAPA_FOGBAND
  5
2952
 10
16.2240
 20
-39.0670
 30
0.000000
  70
    32
  0
VERTEX
  8
SAPA_FOGBAND
  5
2953
 10
16.2841
 20
-38.9625
 30
0.000000
  70
    32
  0
VERTEX
  8
SAPA_FOGBAND
  5
2954
 10
16.3506
 20
-38.8605
 30
0.000000
  70
    32
  0
VERTEX
  8
SAPA_FOGBAND
  5
2955
 10
16.4234
 20
-38.7612
 30
0.000000
  70
    32
  0
VERTEX
  8
SAPA_FOGBAND
  5
2956
 10
16.5023
 20
-38.6649
 30
0.000000
  70
    32
  0
VERTEX
  8
SAPA_FOGBAND
  5
2957
 10
16.5872
 20
-38.5717
 30
0.000000
  70
    32
  0
VERTEX
  8
SAPA_FOGBAND
  5
2958
 10
16.6777
 20
-38.4820
 30
0.000000
  70
    32
  0
VERTEX
  8
SAPA_FOGBAND
  5
2959
 10
16.7737
 20
-38.3959
 30
0.000000
  70
    32
  0
VERTEX
  8
SAPA_FOGBAND
  5
295A
 10
16.8750
 20
-38.3137
 30
0.000000
  70
    32
  0
VERTEX
  8
SAPA_FOGBAND
  5
295B
 10
16.9813
 20
-38.2354
 30
0.000000
  70
    32
  0
VERTEX
  8
SAPA_FOGBAND
  5
295C
 10
17.0924
 20
-38.1615
 30
0.000000
  70
    32
  0
VERTEX
  8
SAPA_FOGBAND
  5
295D
 10
17.2080
 20
-38.0919
 30
0.000000
  70
    32
  0
VERTEX
  8
SAPA_FOGBAND
  5
295E
 10
17.3278
 20
-38.0269
 30
0.000000
  70
    32
  0
VERTEX
  8
SAPA_FOGBAND
  5
295F
 10
17.4515
 20
-37.9666
 30
0.000000
  70
    32
  0
VERTEX
  8
SAPA_FOGBAND
  5
2960
 10
17.5788
 20
-37.9112
 30
0.000000
  70
    32
  0
VERTEX
  8
SAPA_FOGBAND
  5
2961
 10
17.7095
 20
-37.8608
 30
0.000000
  70
    32
  0
VERTEX
  8
SAPA_FOGBAND
  5
2962
 10
17.8431
 20
-37.8156
 30
0.000000
  70
    32
  0
VERTEX
  8
SAPA_FOGBAND
  5
2963
 10
17.9795
 20
-37.7755
 30
0.000000
  70
    32
  0
VERTEX
  8
SAPA_FOGBAND
  5
2964
 10
18.1182
 20
-37.7409
 30
0.000000
  70
    32
  0
VERTEX
  8
SAPA_FOGBAND
  5
2965
 10
18.2589
 20
-37.7116
 30
0.000000
  70
    32
  0
VERTEX
  8
SAPA_FOGBAND
  5
2966
 10
18.4013
 20
-37.6878
 30
0.000000
  70
    32
  0
VERTEX
  8
SAPA_FOGBAND
  5
2967
 10
18.5451
 20
-37.6696
 30
0.000000
  70
    32
  0
VERTEX
  8
SAPA_FOGBAND
  5
2968
 10
18.6898
 20
-37.6570
 30
0.000000
  70
    32
  0
VERTEX
  8
SAPA_FOGBAND
  5
2969
 10
18.8352
 20
-37.6500
 30
0.000000
  70
    32
  0
VERTEX
  8
SAPA_FOGBAND
  5
296A
 10
18.9809
 20
-37.6486
 30
0.000000
  70
    32
  0
VERTEX
  8
SAPA_FOGBAND
  5
296B
 10
19.1265
 20
-37.6529
 30
0.000000
  70
    32
  0
VERTEX
  8
SAPA_FOGBAND
  5
296C
 10
19.2717
 20
-37.6628
 30
0.000000
  70
    32
  0
VERTEX
  8
SAPA_FOGBAND
  5
296D
 10
19.4162
 20
-37.6783
 30
0.000000
  70
    32
  0
VERTEX
  8
SAPA_FOGBAND
  5
296E
 10
19.5595
 20
-37.6994
 30
0.000000
  70
    32
  0
VERTEX
  8
SAPA_FOGBAND
  5
296F
 10
19.7014
 20
-37.7260
 30
0.000000
  70
    32
  0
VERTEX
  8
SAPA_FOGBAND
  5
2970
 10
19.8416
 20
-37.7580
 30
0.000000
  70
    32
  0
VERTEX
  8
SAPA_FOGBAND
  5
2971
 10
19.9795
 20
-37.7955
 30
0.000000
  70
    32
  0
VERTEX
  8
SAPA_FOGBAND
  5
2972
 10
20.1151
 20
-37.8382
 30
0.000000
  70
    32
  0
VERTEX
  8
SAPA_FOGBAND
  5
2973
 10
20.2478
 20
-37.8861
 30
0.000000
  70
    32
  0
VERTEX
  8
SAPA_FOGBAND
  5
2974
 10
20.3774
 20
-37.9391
 30
0.000000
  70
    32
  0
VERTEX
  8
SAPA_FOGBAND
  5
2975
 10
20.5036
 20
-37.9970
 30
0.000000
  70
    32
  0
VERTEX
  8
SAPA_FOGBAND
  5
2976
 10
20.6261
 20
-38.0597
 30
0.000000
  70
    32
  0
VERTEX
  8
SAPA_FOGBAND
  5
2977
 10
20.7446
 20
-38.1271
 30
0.000000
  70
    32
  0
VERTEX
  8
SAPA_FOGBAND
  5
2978
 10
20.8587
 20
-38.1989
 30
0.000000
  70
    32
  0
VERTEX
  8
SAPA_FOGBAND
  5
2979
 10
20.9683
 20
-38.2751
 30
0.000000
  70
    32
  0
VERTEX
  8
SAPA_FOGBAND
  5
297A
 10
21.0730
 20
-38.3554
 30
0.000000
  70
    32
  0
VERTEX
  8
SAPA_FOGBAND
  5
297B
 10
21.1727
 20
-38.4397
 30
0.000000
  70
    32
  0
VERTEX
  8
SAPA_FOGBAND
  5
297C
 10
21.2670
 20
-38.5277
 30
0.000000
  70
    32
  0
VERTEX
  8
SAPA_FOGBAND
  5
297D
 10
21.3557
 20
-38.6192
 30
0.000000
  70
    32
  0
VERTEX
  8
SAPA_FOGBAND
  5
297E
 10
21.4387
 20
-38.7140
 30
0.000000
  70
    32
  0
VERTEX
  8
SAPA_FOGBAND
  5
297F
 10
21.5157
 20
-38.8119
 30
0.000000
  70
    32
  0
VERTEX
  8
SAPA_FOGBAND
  5
2980
 10
21.5865
 20
-38.9126
 30
0.000000
  70
    32
  0
VERTEX
  8
SAPA_FOGBAND
  5
2981
 10
21.6510
 20
-39.0160
 30
0.000000
  70
    32
  0
VERTEX
  8
SAPA_FOGBAND
  5
2982
 10
21.7090
 20
-39.1216
 30
0.000000
  70
    32
  0
VERTEX
  8
SAPA_FOGBAND
  5
2983
 10
21.7603
 20
-39.2294
 30
0.000000
  70
    32
  0
VERTEX
  8
SAPA_FOGBAND
  5
2984
 10
21.8049
 20
-39.3390
 30
0.000000
  70
    32
  0
VERTEX
  8
SAPA_FOGBAND
  5
2985
 10
21.8427
 20
-39.4502
 30
0.000000
  70
    32
  0
VERTEX
  8
SAPA_FOGBAND
  5
2986
 10
21.8735
 20
-39.5627
 30
0.000000
  70
    32
  0
VERTEX
  8
SAPA_FOGBAND
  5
2987
 10
21.8973
 20
-39.6762
 30
0.000000
  70
    32
  0
VERTEX
  8
SAPA_FOGBAND
  5
2988
 10
21.9140
 20
-39.7904
 30
0.000000
  70
    32
  0
VERTEX
  8
SAPA_FOGBAND
  5
2989
 10
21.9236
 20
-39.9052
 30
0.000000
  70
    32
  0
VERTEX
  8
SAPA_FOGBAND
  5
298A
 10
21.9260
 20
-40.0201
 30
0.000000
  70
    32
  0
SEQEND
  8
SAPA_FOGBAND
  5
298B
  0
POLYLINE
  5
17C3
  8
SAPA_FOGBAND
 62
     2
 66
     1
 10
0.0
 20
0.0
 30
0.0000000195376815
 70
     1
  0
VERTEX
  5
2746
  8
SAPA_FOGBAND
 62
     2
 10
94.415820339269317
 20
10.87301692303129
 30
0.0000000195376815
  0
VERTEX
  5
2747
  8
SAPA_FOGBAND
 62
     2
 10
94.515820339269325
 20
10.87301692303129
 30
0.0000000195376815
 42
-0.4142135623730959
  0
VERTEX
  5
2748
  8
SAPA_FOGBAND
 62
     2
 10
95.215820339269314
 20
10.1730169230313
 30
0.0000000195376815
  0
VERTEX
  5
2749
  8
SAPA_FOGBAND
 62
     2
 10
95.215820339269342
 20
9.0730169230313091
 30
0.0000000195376815
 42
-0.4142135623730961
  0
VERTEX
  5
274A
  8
SAPA_FOGBAND
 62
     2
 10
95.015820339269325
 20
8.8730169230312921
 30
0.0000000195376815
  0
VERTEX
  5
274B
  8
SAPA_FOGBAND
 62
     2
 10
93.915820339269331
 20
8.8730169230312921
 30
0.0000000195376815
 42
-0.4142135623730956
  0
VERTEX
  5
274C
  8
SAPA_FOGBAND
 62
     2
 10
93.715820339269314
 20
9.0730169230313091
 30
0.0000000195376815
  0
VERTEX
  5
274D
  8
SAPA_FOGBAND
 62
     2
 10
93.715820339269342
 20
10.1730169230313
 30
0.0000000195376815
 42
-0.4142135623730946
  0
SEQEND
  5
274E
  8
SAPA_FOGBAND
 62
     2
  0
POLYLINE
  5
17C4
  8
SAPA_FOGBAND
 62
     2
 66
     1
 10
0.0
 20
0.0
 30
0.0000000195376815
 70
     1
  0
VERTEX
  5
274F
  8
SAPA_FOGBAND
 62
     2
 10
92.915820339269345
 20
9.5730169230313091
 30
0.0000000195376815
  0
VERTEX
  5
2750
  8
SAPA_FOGBAND
 62
     2
 10
92.915820339269345
 20
8.9252513577582189
 30
0.0000000195376815
 42
-0.4416942457848321
  0
VERTEX
  5
2751
  8
SAPA_FOGBAND
 62
     2
 10
92.697265979641415
 20
8.7261138782652719
 30
0.0000000195376815
  0
VERTEX
  5
2752
  8
SAPA_FOGBAND
 62
     2
 10
91.734374698897255
 20
8.8158299435233172
 30
0.0000000195376815
 42
0.441694245784789
  0
VERTEX
  5
2753
  8
SAPA_FOGBAND
 62
     2
 10
91.515820339269325
 20
8.6166924640303986
 30
0.0000000195376815
  0
VERTEX
  5
2754
  8
SAPA_FOGBAND
 62
     2
 10
91.515820339269325
 20
8.0667101244388331
 30
0.0000000195376815
 42
0.5445962197109614
  0
VERTEX
  5
2755
  8
SAPA_FOGBAND
 62
     2
 10
92.221499384674402
 20
7.6109732153769931
 30
0.0000000195376815
  0
VERTEX
  5
2756
  8
SAPA_FOGBAND
 62
     2
 10
92.580550537959667
 20
7.7730169230312969
 30
0.0000000195376815
  0
VERTEX
  5
2757
  8
SAPA_FOGBAND
 62
     2
 10
94.053509776707557
 20
7.7730169230313004
 30
0.0000000195376815
 42
0.3364379234965429
  0
VERTEX
  5
2758
  8
SAPA_FOGBAND
 62
     2
 10
95.125253506322409
 20
7.9605237408730476
 30
0.0000000195376815
  0
VERTEX
  5
2759
  8
SAPA_FOGBAND
 62
     2
 10
95.687117142146107
 20
7.9605237408730476
 30
0.0000000195376815
 42
-0.1919812372740509
  0
VERTEX
  5
275A
  8
SAPA_FOGBAND
 62
     2
 10
96.031104189746145
 20
7.8233913628557783
 30
0.0000000195376815
  0
VERTEX
  5
275B
  8
SAPA_FOGBAND
 62
     2
 10
96.422971120149555
 20
7.4519138865656958
 30
0.0000000195376815
 42
-0.7523758382293955
  0
VERTEX
  5
275C
  8
SAPA_FOGBAND
 62
     2
 10
92.182541309047053
 20
6.463342713137588
 30
0.0000000195376815
 42
-0.020738253891463
  0
VERTEX
  5
275D
  8
SAPA_FOGBAND
 62
     2
 10
91.936822091096602
 20
6.9665738422081942
 30
0.0000000195376815
 42
0.910188045100355
  0
VERTEX
  5
275E
  8
SAPA_FOGBAND
 62
     2
 10
91.479522524415231
 20
6.614826995194476
 30
0.0000000195376815
 42
0.8808478876171385
  0
VERTEX
  5
275F
  8
SAPA_FOGBAND
 62
     2
 10
96.988788819429075
 20
7.9162194014085729
 30
0.0000000195376815
  0
VERTEX
  5
2760
  8
SAPA_FOGBAND
 62
     2
 10
97.419347957310336
 20
8.0315873746977005
 30
0.0000000195376815
 42
0.9163311740173993
  0
VERTEX
  5
2761
  8
SAPA_FOGBAND
 62
     2
 10
97.280958042170255
 20
8.8164355844500388
 30
0.0000000195376815
  0
VERTEX
  5
2762
  8
SAPA_FOGBAND
 62
     2
 10
96.233251487818876
 20
8.7247731382424885
 30
0.0000000195376815
 42
-0.4400105308918154
  0
VERTEX
  5
2763
  8
SAPA_FOGBAND
 62
     2
 10
96.015820339269325
 20
8.9240120778608283
 30
0.0000000195376815
  0
VERTEX
  5
2764
  8
SAPA_FOGBAND
 62
     2
 10
96.015820339269325
 20
9.7730169230312978
 30
0.0000000195376815
  0
VERTEX
  5
2765
  8
SAPA_FOGBAND
 62
     2
 10
96.415820339269331
 20
9.7730169230312978
 30
0.0000000195376815
 42
0.5693809839207589
  0
VERTEX
  5
2766
  8
SAPA_FOGBAND
 62
     2
 10
96.591374384832903
 20
10.06883329473397
 30
0.0000000195376815
  0
VERTEX
  5
2767
  8
SAPA_FOGBAND
 62
     2
 10
95.886408784933835
 20
11.36046603813924
 30
0.0000000195376815
 42
0.2743878130875473
  0
VERTEX
  5
2768
  8
SAPA_FOGBAND
 62
     2
 10
95.359746648243103
 20
11.673016923031319
 30
0.0000000195376815
  0
VERTEX
  5
2769
  8
SAPA_FOGBAND
 62
     2
 10
93.571894030295553
 20
11.6730169230313
 30
0.0000000195376815
 42
0.2743878130875473
  0
VERTEX
  5
276A
  8
SAPA_FOGBAND
 62
     2
 10
93.045231893604836
 20
11.360466038139229
 30
0.0000000195376815
  0
VERTEX
  5
276B
  8
SAPA_FOGBAND
 62
     2
 10
92.340266293705724
 20
10.06883329473397
 30
0.0000000195376815
 42
0.5693809839208268
  0
VERTEX
  5
276C
  8
SAPA_FOGBAND
 62
     2
 10
92.515820339269325
 20
9.7730169230312658
 30
0.0000000195376815
  0
VERTEX
  5
276D
  8
SAPA_FOGBAND
 62
     2
 10
92.915820339269345
 20
9.7730169230312978
 30
0.0000000195376815
  0
VERTEX
  5
276E
  8
SAPA_FOGBAND
 62
     2
 10
92.915820339269345
 20
8.9240120778608283
 30
0.0000000195376815
  0
SEQEND
  5
276F
  8
SAPA_FOGBAND
 62
     2
  0
LINE
  5
17C5
  8
SAPA_FOGBAND
 10
17.499999999999769
 20
-73.499999999998636
 30
0.0
 11
17.499999999999769
 21
-72.499999999998636
 31
0.0
  0
CIRCLE
  5
17C6
  8
SAPA_FOGBAND
 10
7.8999999999996362
 20
-75.057534635653383
 30
0.0
 40
0.25
  0
LINE
  5
17C7
  8
SAPA_FOGBAND
 10
14.999999999999771
 20
-72.499999999998636
 30
0.0
 11
14.999999999999771
 21
-73.499999999998636
 31
0.0
  0
LINE
  5
17C8
  8
SAPA_FOGBAND
 10
9.9999999999997726
 20
-72.499999999998636
 30
0.0
 11
9.9999999999997726
 21
-73.499999999998636
 31
0.0
  0
LINE
  5
17C9
  8
SAPA_FOGBAND
 10
9.9999999999997726
 20
-72.999999999998636
 30
0.0
 11
14.999999999999771
 21
-72.999999999998636
 31
0.0
  0
LINE
  5
17CA
  8
SAPA_FOGBAND
 10
2.4999999999997722
 20
-72.499999999998636
 30
0.0
 11
2.4999999999997722
 21
-73.499999999998636
 31
0.0
  0
POLYLINE
  5
17CB
  8
SAPA_FOGBAND
 66
     1
 10
0.0
 20
0.0
 30
0.0
 70
     1
  0
VERTEX
  5
2770
  8
SAPA_FOGBAND
 10
8.0500000000006366
 20
-76.557534635653155
 30
0.0
  0
VERTEX
  5
2771
  8
SAPA_FOGBAND
 10
8.0500000000001801
 20
-78.357534635653792
 30
0.0
 42
-0.9999999999999996
  0
VERTEX
  5
2772
  8
SAPA_FOGBAND
 10
6.7500000000006821
 20
-78.357534635653792
 30
0.0
  0
VERTEX
  5
2773
  8
SAPA_FOGBAND
 10
6.7500000000006821
 20
-76.557534635653155
 30
0.0
 42
-0.4142135623730951
  0
VERTEX
  5
2774
  8
SAPA_FOGBAND
 10
6.9500000000005002
 20
-76.357534635653323
 30
0.0
  0
VERTEX
  5
2775
  8
SAPA_FOGBAND
 10
7.8499999999996808
 20
-76.357534635653323
 30
0.0
 42
-0.4142135623730951
  0
SEQEND
  5
2776
  8
SAPA_FOGBAND
  0
CIRCLE
  5
17CC
  8
SAPA_FOGBAND
 10
-8.0999999999994543
 20
-75.057534635653383
 30
0.0
 40
0.25
  0
POLYLINE
  5
17CD
  8
SAPA_FOGBAND
 66
     1
 10
0.0
 20
0.0
 30
0.0
  0
VERTEX
  5
2777
  8
SAPA_FOGBAND
 10
-7.1500000000003183
 20
-76.357534635653323
 30
0.0
  0
VERTEX
  5
2778
  8
SAPA_FOGBAND
 10
-8.0499999999994998
 20
-76.35753463565311
 30
0.0
 42
0.4142135623730951
  0
VERTEX
  5
2779
  8
SAPA_FOGBAND
 10
-8.2500000000004547
 20
-76.557534635653155
 30
0.0
  0
VERTEX
  5
277A
  8
SAPA_FOGBAND
 10
-8.25
 20
-78.357534635653792
 30
0.0
 42
0.9999999999999998
  0
VERTEX
  5
277B
  8
SAPA_FOGBAND
 10
-6.9499999999998181
 20
-78.357534635653792
 30
0.0
  0
VERTEX
  5
277C
  8
SAPA_FOGBAND
 10
-6.9500000000005002
 20
-76.557534635653155
 30
0.0
 42
0.4142135623730951
  0
VERTEX
  5
277D
  8
SAPA_FOGBAND
 10
-7.1500000000003183
 20
-76.357534635653323
 30
0.0
  0
VERTEX
  5
277E
  8
SAPA_FOGBAND
 10
-7.8999999999996362
 20
-76.357534635653323
 30
0.0
  0
SEQEND
  5
277F
  8
SAPA_FOGBAND
  0
LINE
  5
17CE
  8
SAPA_FOGBAND
 10
-10.000000000000229
 20
-72.499999999998636
 30
0.0
 11
-10.000000000000229
 21
-73.499999999998636
 31
0.0
  0
LINE
  5
17CF
  8
SAPA_FOGBAND
 10
-2.5000000000002269
 20
-72.499999999998636
 30
0.0
 11
-2.5000000000002269
 21
-73.499999999998636
 31
0.0
  0
LINE
  5
17D0
  8
SAPA_FOGBAND
 10
-15.000000000000229
 20
-72.499999999998636
 30
0.0
 11
-15.000000000000229
 21
-73.499999999998636
 31
0.0
  0
LINE
  5
17D1
  8
SAPA_FOGBAND
 10
-17.500000000000231
 20
-72.499999999998636
 30
0.0
 11
-17.500000000000231
 21
-73.499999999998636
 31
0.0
  0
LINE
  5
17D2
  8
SAPA_FOGBAND
 10
-15.000000000000229
 20
-72.999999999998636
 30
0.0
 11
-10.000000000000229
 21
-72.999999999998636
 31
0.0
  0
LINE
  5
17D3
  8
SAPA_FOGBAND
 10
17.499999999999769
 20
-72.499999999998636
 30
0.0
 11
-17.500000000000231
 21
-72.499999999998636
 31
0.0
  0
LINE
  5
17D4
  8
SAPA_FOGBAND
 10
-17.500000000000231
 20
-73.499999999998636
 30
0.0
 11
17.499999999999769
 21
-73.499999999998636
 31
0.0
  0
POLYLINE
  5
17D5
  8
SAPA_FOGBAND
 66
     1
 10
0.0
 20
0.0
 30
0.0
 70
     1
  0
VERTEX
  5
2780
  8
SAPA_FOGBAND
 10
21.55178876929358
 20
-72.534485185378571
 30
0.0
 42
-0.8497079118398895
  0
VERTEX
  5
2781
  8
SAPA_FOGBAND
 10
21.999999999999542
 20
-72.921427446888629
 30
0.0
  0
VERTEX
  5
2782
  8
SAPA_FOGBAND
 10
16.458529110705971
 20
-76.404540759853262
 30
0.0
 42
-0.2608822022991484
  0
VERTEX
  5
2783
  8
SAPA_FOGBAND
 10
16.28802623821116
 20
-76.499999999998408
 30
0.0
  0
VERTEX
  5
2784
  8
SAPA_FOGBAND
 10
9.0700000000003911
 20
-76.499999999997954
 30
0.0
 42
0.4142135623730951
  0
VERTEX
  5
2785
  8
SAPA_FOGBAND
 10
9.0499999999997272
 20
-76.519999999997935
 30
0.0
  0
VERTEX
  5
2786
  8
SAPA_FOGBAND
 10
9.0499999999997272
 20
-77.499999999998636
 30
0.0
  0
VERTEX
  5
2787
  8
SAPA_FOGBAND
 10
9.4080552462264677
 20
-77.608611420439274
 30
0.0
 42
-0.4364998583843544
  0
VERTEX
  5
2788
  8
SAPA_FOGBAND
 10
9.5364653360968532
 20
-77.872323429359994
 30
0.0
  0
VERTEX
  5
2789
  8
SAPA_FOGBAND
 10
8.9976065426151308
 20
-79.261617146802564
 30
0.0
 42
-0.3095538907669633
  0
VERTEX
  5
278A
  8
SAPA_FOGBAND
 10
8.0652798621338206
 20
-79.899999999998727
 30
0.0
  0
VERTEX
  5
278B
  8
SAPA_FOGBAND
 10
6.7347201378663613
 20
-79.899999999998499
 30
0.0
 42
-0.309553890766963
  0
VERTEX
  5
278C
  8
SAPA_FOGBAND
 10
5.8023934573850511
 20
-79.261617146803246
 30
0.0
  0
VERTEX
  5
278D
  8
SAPA_FOGBAND
 10
5.2635346639044647
 20
-77.872323429359312
 30
0.0
 42
-0.4364998583843053
  0
VERTEX
  5
278E
  8
SAPA_FOGBAND
 10
5.3919447537748511
 20
-77.608611420439274
 30
0.0
  0
VERTEX
  5
278F
  8
SAPA_FOGBAND
 10
5.7500000000004539
 20
-77.499999999998636
 30
0.0
  0
VERTEX
  5
2790
  8
SAPA_FOGBAND
 10
5.7500000000004539
 20
-76.549999999998363
 30
0.0
 42
0.4142135623730953
  0
VERTEX
  5
2791
  8
SAPA_FOGBAND
 10
5.7000000000005002
 20
-76.499999999998408
 30
0.0
  0
VERTEX
  5
2792
  8
SAPA_FOGBAND
 10
-5.9000000000003183
 20
-76.499999999998408
 30
0.0
 42
0.4142135623730951
  0
VERTEX
  5
2793
  8
SAPA_FOGBAND
 10
-5.950000000000272
 20
-76.549999999998363
 30
0.0
  0
VERTEX
  5
2794
  8
SAPA_FOGBAND
 10
-5.950000000000272
 20
-77.499999999998636
 30
0.0
  0
VERTEX
  5
2795
  8
SAPA_FOGBAND
 10
-5.5919447537746692
 20
-77.608611420439274
 30
0.0
 42
-0.4364998583843054
  0
VERTEX
  5
2796
  8
SAPA_FOGBAND
 10
-5.4635346639042828
 20
-77.872323429359994
 30
0.0
  0
VERTEX
  5
2797
  8
SAPA_FOGBAND
 10
-6.0023934573848692
 20
-79.261617146802564
 30
0.0
 42
-0.309553890766963
  0
VERTEX
  5
2798
  8
SAPA_FOGBAND
 10
-6.9347201378661794
 20
-79.899999999998727
 30
0.0
  0
VERTEX
  5
2799
  8
SAPA_FOGBAND
 10
-8.2652798621336387
 20
-79.899999999998499
 30
0.0
 42
-0.3095538907669633
  0
VERTEX
  5
279A
  8
SAPA_FOGBAND
 10
-9.1976065426149471
 20
-79.261617146803246
 30
0.0
  0
VERTEX
  5
279B
  8
SAPA_FOGBAND
 10
-9.7364653360966713
 20
-77.872323429359312
 30
0.0
 42
-0.4364998583843544
  0
VERTEX
  5
279C
  8
SAPA_FOGBAND
 10
-9.6080552462262858
 20
-77.608611420439274
 30
0.0
  0
VERTEX
  5
279D
  8
SAPA_FOGBAND
 10
-9.2499999999995453
 20
-77.499999999998636
 30
0.0
  0
VERTEX
  5
279E
  8
SAPA_FOGBAND
 10
-9.2500000000002274
 20
-76.519999999997935
 30
0.0
 42
0.4142135623730951
  0
VERTEX
  5
279F
  8
SAPA_FOGBAND
 10
-9.2700000000002092
 20
-76.499999999998408
 30
0.0
  0
VERTEX
  5
27A0
  8
SAPA_FOGBAND
 10
-16.488026238210971
 20
-76.499999999998636
 30
0.0
 42
-0.2608822022991486
  0
VERTEX
  5
27A1
  8
SAPA_FOGBAND
 10
-16.658529110706009
 20
-76.404540759852807
 30
0.0
  0
VERTEX
  5
27A2
  8
SAPA_FOGBAND
 10
-22.000000000000341
 20
-72.922817216677231
 30
0.0
 42
-0.8497079118398893
  0
VERTEX
  5
27A3
  8
SAPA_FOGBAND
 10
-21.551788769294038
 20
-72.535874955167174
 30
0.0
  0
VERTEX
  5
27A4
  8
SAPA_FOGBAND
 10
-15.37410018933701
 20
-74.012665285346202
 30
0.0
  0
VERTEX
  5
27A5
  8
SAPA_FOGBAND
 10
-12.879098228429481
 20
-73.999999999998408
 30
0.0
  0
VERTEX
  5
27A6
  8
SAPA_FOGBAND
 10
-13.17089734300043
 20
-73.848341139642571
 30
0.0
 42
-0.767326987978962
  0
VERTEX
  5
27A7
  8
SAPA_FOGBAND
 10
-12.69612145185169
 20
-73.515967214874763
 30
0.0
  0
VERTEX
  5
27A8
  8
SAPA_FOGBAND
 10
-11.100000000000129
 20
-73.999999999998408
 30
0.0
  0
VERTEX
  5
27A9
  8
SAPA_FOGBAND
 10
-8.7000000000000455
 20
-73.999999999998408
 30
0.0
  0
VERTEX
  5
27AA
  8
SAPA_FOGBAND
 10
-7.1038785481478044
 20
-73.515967214875204
 30
0.0
 42
-0.7673269879789616
  0
VERTEX
  5
27AB
  8
SAPA_FOGBAND
 10
-6.6291026569990663
 20
-73.848341139642343
 30
0.0
  0
VERTEX
  5
27AC
  8
SAPA_FOGBAND
 10
-6.9209017715706969
 20
-73.999999999998408
 30
0.0
  0
VERTEX
  5
27AD
  8
SAPA_FOGBAND
 10
-3.4286724168055112
 20
-73.999999999998408
 30
0.0
 42
0.2679491924311367
  0
VERTEX
  5
27AE
  8
SAPA_FOGBAND
 10
-3.255467336048695
 20
-73.899999999998727
 30
0.0
  0
VERTEX
  5
27AF
  8
SAPA_FOGBAND
 10
-2.5148915583497451
 20
-72.617285126167189
 30
0.0
 42
-0.5773502691896298
  0
VERTEX
  5
27B0
  8
SAPA_FOGBAND
 10
-2.1684813968354311
 20
-72.617285126168099
 30
0.0
  0
VERTEX
  5
27B1
  8
SAPA_FOGBAND
 10
-0.2732050807560427
 20
-75.899999999998954
 30
0.0
  0
VERTEX
  5
27B2
  8
SAPA_FOGBAND
 10
-0.1866025403785443
 20
-76.049999999998818
 30
0.0
 42
0.5773502691896253
  0
VERTEX
  5
27B3
  8
SAPA_FOGBAND
 10
-0.0133974596215012
 20
-76.049999999998818
 30
0.0
  0
VERTEX
  5
27B4
  8
SAPA_FOGBAND
 10
0.0732050807573614
 20
-75.899999999998954
 30
0.0
  0
VERTEX
  5
27B5
  8
SAPA_FOGBAND
 10
1.968481396835386
 20
-72.617285126167189
 30
0.0
 42
-0.5773502691896298
  0
VERTEX
  5
27B6
  8
SAPA_FOGBAND
 10
2.3148915583497001
 20
-72.617285126168099
 30
0.0
  0
VERTEX
  5
27B7
  8
SAPA_FOGBAND
 10
3.055467336049559
 20
-73.899999999998499
 30
0.0
 42
0.2679491924311367
  0
VERTEX
  5
27B8
  8
SAPA_FOGBAND
 10
3.2286724168056931
 20
-73.999999999998636
 30
0.0
  0
VERTEX
  5
27B9
  8
SAPA_FOGBAND
 10
6.7209017715708788
 20
-73.999999999998408
 30
0.0
  0
VERTEX
  5
27BA
  8
SAPA_FOGBAND
 10
6.4291026570003851
 20
-73.848341139642343
 30
0.0
 42
-0.7673269879789616
  0
VERTEX
  5
27BB
  8
SAPA_FOGBAND
 10
6.9038785481479863
 20
-73.515967214874536
 30
0.0
  0
VERTEX
  5
27BC
  8
SAPA_FOGBAND
 10
8.5000000000002274
 20
-73.999999999998408
 30
0.0
  0
VERTEX
  5
27BD
  8
SAPA_FOGBAND
 10
10.90000000000032
 20
-73.999999999998408
 30
0.0
  0
VERTEX
  5
27BE
  8
SAPA_FOGBAND
 10
12.496121451852559
 20
-73.515967214874763
 30
0.0
 42
-0.767326987978962
  0
VERTEX
  5
27BF
  8
SAPA_FOGBAND
 10
12.970897343000161
 20
-73.848341139641875
 30
0.0
  0
VERTEX
  5
27C0
  8
SAPA_FOGBAND
 10
12.679098228429661
 20
-73.999999999998408
 30
0.0
  0
VERTEX
  5
27C1
  8
SAPA_FOGBAND
 10
15.47544619588029
 20
-73.991785768350155
 30
0.0
  0
SEQEND
  5
27C2
  8
SAPA_FOGBAND
  0
LINE
  5
17D6
  8
SAPA_FOGBAND
 10
-2.5000000000002269
 20
-72.999999999998636
 30
0.0
 11
2.4999999999997722
 21
-72.999999999998636
 31
0.0
  0
POLYLINE
  5
17D7
  8
SAPA_FOGBAND
 66
     1
 10
0.0
 20
0.0
 30
0.0
 70
     1
  0
VERTEX
  5
27C3
  8
SAPA_FOGBAND
 10
28.500000000685759
 20
13.060773946887361
 30
0.0
  0
VERTEX
  5
27C4
  8
SAPA_FOGBAND
 10
28.500000000685759
 20
10.227454982467631
 30
0.0
 42
-0.577350269189628
  0
VERTEX
  5
27C5
  8
SAPA_FOGBAND
 10
28.050000000685721
 20
9.9676473613321832
 30
0.0
  0
VERTEX
  5
27C6
  8
SAPA_FOGBAND
 10
25.393650503841741
 20
12.1093615718172
 30
0.0
 42
0.8769764629927237
  0
VERTEX
  5
27C7
  8
SAPA_FOGBAND
 10
25.031518469485832
 20
11.63742191632593
 30
0.0
  0
VERTEX
  5
27C8
  8
SAPA_FOGBAND
 10
28.207106781872199
 20
7.6676084073478696
 30
0.0
 42
-0.1989123673796493
  0
VERTEX
  5
27C9
  8
SAPA_FOGBAND
 10
28.500000000685759
 20
6.9605016261614301
 30
0.0
  0
VERTEX
  5
27CA
  8
SAPA_FOGBAND
 10
28.500000000685759
 20
5.2095454967269461
 30
0.0
 42
-0.577350269189628
  0
VERTEX
  5
27CB
  8
SAPA_FOGBAND
 10
28.050000000685721
 20
4.9497378755917216
 30
0.0
  0
VERTEX
  5
27CC
  8
SAPA_FOGBAND
 10
25.394519257022129
 20
7.0307859270717472
 30
0.0
 42
0.8769764629928424
  0
VERTEX
  5
27CD
  8
SAPA_FOGBAND
 10
25.03238722266622
 20
6.5588462715804781
 30
0.0
  0
VERTEX
  5
27CE
  8
SAPA_FOGBAND
 10
29.282961429186109
 20
2.0928932198041821
 30
0.0
 42
0.1989123673796579
  0
VERTEX
  5
27CF
  8
SAPA_FOGBAND
 10
29.990068210372549
 20
1.800000000990849
 30
0.0
  0
VERTEX
  5
27D0
  8
SAPA_FOGBAND
 10
30.000000000685759
 20
1.800000000990849
 30
0.0
 42
0.4142135623730951
  0
VERTEX
  5
27D1
  8
SAPA_FOGBAND
 10
31.000000000685759
 20
2.800000000990849
 30
0.0
  0
VERTEX
  5
27D2
  8
SAPA_FOGBAND
 10
32.164084599809257
 20
10.03499250175809
 30
0.0
 42
0.6261632875160376
  0
VERTEX
  5
27D3
  8
SAPA_FOGBAND
 10
31.722117796382921
 20
10.34484943027678
 30
0.0
  0
VERTEX
  5
27D4
  8
SAPA_FOGBAND
 10
31.445776150396799
 20
10.191211435487959
 30
0.0
 42
-0.5719685712689121
  0
VERTEX
  5
27D5
  8
SAPA_FOGBAND
 10
31.000000000685869
 20
10.453412339711351
 30
0.0
  0
VERTEX
  5
27D6
  8
SAPA_FOGBAND
 10
31.000000000685759
 20
13.200000000990711
 30
0.0
 42
-0.4142135623730118
  0
VERTEX
  5
27D7
  8
SAPA_FOGBAND
 10
31.300000000685721
 20
13.500000000990889
 30
0.0
  0
VERTEX
  5
27D8
  8
SAPA_FOGBAND
 10
32.700000000685812
 20
13.500000000990671
 30
0.0
 42
0.7754026414785753
  0
VERTEX
  5
27D9
  8
SAPA_FOGBAND
 10
32.844707868991691
 20
14.06279199639857
 30
0.0
  0
VERTEX
  5
27DA
  8
SAPA_FOGBAND
 10
25.384550969900719
 20
18.21642566906246
 30
0.0
 42
0.8680589103333867
  0
VERTEX
  5
27DB
  8
SAPA_FOGBAND
 10
25.027711067238791
 20
17.74150163929869
 30
0.0
  0
VERTEX
  5
27DC
  8
SAPA_FOGBAND
 10
28.207106781872199
 20
13.7678807280738
 30
0.0
 42
-0.1989123673796493
  0
SEQEND
  5
27DD
  8
SAPA_FOGBAND
  0
DIMENSION
  5
17E1
  8
SAPA_MATT
  2
*D115
 10
169.99999999978931
 20
-106.8138500465783
 30
0.0
 11
125.49999999989519
 21
-104.3138500465783
 31
0.0
 70
     0
 13
81.000000000000995
 23
-69.349948021764106
 33
0.0
 14
169.99999999978931
 24
-71.699947648272314
 34
0.0
1001
ACAD
1000
DSTYLE
1002
{
1070
   287
1070
     4
1070
    40
1040
1.0
1070
   279
1070
     1
1002
}
  0
DIMENSION
  5
17E2
  8
SAPA_MATT
  2
*D114
 10
81.000000000000995
 20
-106.8138500465783
 30
0.0
 11
78.500000000001108
 21
-104.3138500465783
 31
0.0
 70
     0
 13
76.000000000001194
 23
-64.499946820781531
 33
0.0
 14
81.000000000000995
 24
-69.349948021764106
 34
0.0
1001
ACAD
1000
DSTYLE
1002
{
1070
   287
1070
     4
1070
    40
1040
1.0
1070
   279
1070
     1
1002
}
  0
DIMENSION
  5
17E3
  8
SAPA_MATT
  2
*D113
 10
76.000000000001194
 20
-106.8138500465783
 30
0.0
 11
46.000000000000682
 21
-104.3138500465783
 31
0.0
 70
     0
 13
16.000000000000171
 23
-77.04644660940528
 33
0.0
 14
76.000000000001194
 24
-64.499946820781531
 34
0.0
1001
ACAD
1000
DSTYLE
1002
{
1070
   287
1070
     4
1070
    40
1040
1.0
1070
   279
1070
     1
1002
}
  0
DIMENSION
  5
17E4
  8
SAPA_MATT
  2
*D112
 10
25.0
 20
83.999999999999474
 30
0.0
 11
0.0000000000000002
 21
86.499999999999474
 31
0.0
 70
     0
 13
-25.0
 23
63.999999999999481
 33
0.0
 14
25.0
 24
63.999999999999481
 34
0.0
1001
ACAD
1000
DSTYLE
1002
{
1070
    40
1040
1.0
1002
}
  0
DIMENSION
  5
17E5
  8
SAPA_MATT
  2
*D111
 10
16.00000000000016
 20
-106.8138500465783
 30
0.0
 11
0.0000000000000534
 21
-104.3138500465783
 31
0.0
 70
     0
 13
-16.00000000000006
 23
-77.292893218811628
 33
0.0
 14
16.000000000000171
 24
-77.04644660940528
 34
0.0
1001
ACAD
1000
DSTYLE
1002
{
1070
    40
1040
1.0
1002
}
  0
VIEWPORT
  5
C4
 67
     1
  8
0
 10
143.06236603067589
 20
116.00969601843509
 30
0.0
 40
369.98580003443811
 41
256.8421457311839
 68
     1
 69
     1
1001
ACAD
1000
MVIEW
1002
{
1070
    16
1010
0.0
1020
0.0
1030
0.0
1010
0.0
1020
0.0
1030
1.0
1040
0.0
1040
256.8421457311839
1040
99.112914085388169
1040
143.07606935501099
1040
50.0
1040
0.0
1040
0.0
1070
     0
1070
     0
1070
     1
1070
     1
1070
     0
1070
     0
1070
     0
1070
     0
1040
0.0
1040
0.0
1040
0.0
1040
10.0
1040
10.0
1040
10.0
1040
10.0
1070
     0
1002
{
1002
}
1002
}
  0
ENDSEC
  0
EOF
