  0
SECTION
  2
HEADER
  9
$ACADVER
  1
AC1009
  9
$INSBASE
 10
0.0
 20
0.0
 30
0.0
  9
$EXTMIN
 10
-112.3283286202785
 20
-93.291214679413201
 30
0.0
  9
$EXTMAX
 10
142.15033018070471
 20
74.999999999999787
 30
0.0
  9
$LIMMIN
 10
0.0
 20
0.0
  9
$LIMMAX
 10
790.0
 20
790.0
  9
$ORTHOMODE
 70
     0
  9
$REGENMODE
 70
     1
  9
$FILLMODE
 70
     1
  9
$QTEXTMODE
 70
     0
  9
$MIRRTEXT
 70
     1
  9
$DRAGMODE
 70
     2
  9
$LTSCALE
 40
4.0
  9
$OSMODE
 70
    37
  9
$ATTMODE
 70
     1
  9
$TEXTSIZE
 40
3.5
  9
$TRACEWID
 40
0.05
  9
$TEXTSTYLE
  7
ISO
  9
$CLAYER
  8
0
  9
$CELTYPE
  6
BYLAYER
  9
$CECOLOR
 62
   256
  9
$DIMSCALE
 40
0.0
  9
$DIMASZ
 40
3.0
  9
$DIMEXO
 40
1.5
  9
$DIMDLI
 40
10.0
  9
$DIMRND
 40
0.0
  9
$DIMDLE
 40
0.0
  9
$DIMEXE
 40
1.5
  9
$DIMTP
 40
0.0
  9
$DIMTM
 40
0.0
  9
$DIMTXT
 40
3.0
  9
$DIMCEN
 40
-5.0
  9
$DIMTSZ
 40
0.0
  9
$DIMTOL
 70
     0
  9
$DIMLIM
 70
     0
  9
$DIMTIH
 70
     0
  9
$DIMTOH
 70
     0
  9
$DIMSE1
 70
     0
  9
$DIMSE2
 70
     0
  9
$DIMTAD
 70
     1
  9
$DIMZIN
 70
     8
  9
$DIMBLK
  1

  9
$DIMASO
 70
     1
  9
$DIMSHO
 70
     1
  9
$DIMPOST
  1

  9
$DIMAPOST
  1

  9
$DIMALT
 70
     0
  9
$DIMALTD
 70
     0
  9
$DIMALTF
 40
25.399999999999999
  9
$DIMLFAC
 40
-1.0
  9
$DIMTOFL
 70
     1
  9
$DIMTVP
 40
0.0
  9
$DIMTIX
 70
     0
  9
$DIMSOXD
 70
     0
  9
$DIMSAH
 70
     0
  9
$DIMBLK1
  1

  9
$DIMBLK2
  1

  9
$DIMSTYLE
  2
MASKIN
  9
$DIMCLRD
 70
   256
  9
$DIMCLRE
 70
   256
  9
$DIMCLRT
 70
     2
  9
$DIMTFAC
 40
1.0
  9
$DIMGAP
 40
1.0
  9
$LUNITS
 70
     2
  9
$LUPREC
 70
     8
  9
$SKETCHINC
 40
0.1
  9
$FILLETRAD
 40
0.0
  9
$AUNITS
 70
     0
  9
$AUPREC
 70
     8
  9
$MENU
  1
ACAD
  9
$ELEVATION
 40
0.0
  9
$PELEVATION
 40
0.0
  9
$THICKNESS
 40
0.0
  9
$LIMCHECK
 70
     0
  9
$BLIPMODE
 70
     0
  9
$CHAMFERA
 40
0.0
  9
$CHAMFERB
 40
0.0
  9
$SKPOLY
 70
     0
  9
$TDCREATE
 40
2454903.4498153818
  9
$TDUPDATE
 40
2455580.5769145479
  9
$TDINDWG
 40
0.0136721644
  9
$TDUSRTIMER
 40
0.0136721644
  9
$USRTIMER
 70
     1
  9
$ANGBASE
 50
0.0
  9
$ANGDIR
 70
     0
  9
$PDMODE
 70
     0
  9
$PDSIZE
 40
0.0
  9
$PLINEWID
 40
0.0
  9
$COORDS
 70
     1
  9
$SPLFRAME
 70
     0
  9
$SPLINETYPE
 70
     6
  9
$SPLINESEGS
 70
     8
  9
$ATTDIA
 70
     0
  9
$ATTREQ
 70
     1
  9
$HANDLING
 70
     1
  9
$HANDSEED
  5
2317
  9
$SURFTAB1
 70
     6
  9
$SURFTAB2
 70
     6
  9
$SURFTYPE
 70
     6
  9
$SURFU
 70
     6
  9
$SURFV
 70
     6
  9
$UCSNAME
  2

  9
$UCSORG
 10
0.0
 20
0.0
 30
0.0
  9
$UCSXDIR
 10
1.0
 20
0.0
 30
0.0
  9
$UCSYDIR
 10
0.0
 20
1.0
 30
0.0
  9
$PUCSNAME
  2

  9
$PUCSORG
 10
0.0
 20
0.0
 30
0.0
  9
$PUCSXDIR
 10
1.0
 20
0.0
 30
0.0
  9
$PUCSYDIR
 10
0.0
 20
1.0
 30
0.0
  9
$USERI1
 70
     0
  9
$USERI2
 70
     0
  9
$USERI3
 70
     0
  9
$USERI4
 70
     0
  9
$USERI5
 70
     0
  9
$USERR1
 40
0.0
  9
$USERR2
 40
0.0
  9
$USERR3
 40
0.0
  9
$USERR4
 40
0.0
  9
$USERR5
 40
0.0
  9
$WORLDVIEW
 70
     1
  9
$SHADEDGE
 70
     3
  9
$SHADEDIF
 70
    70
  9
$TILEMODE
 70
     1
  9
$MAXACTVP
 70
    16
  9
$PLIMCHECK
 70
     0
  9
$PEXTMIN
 10
1.0000000000000000E+020
 20
1.0000000000000000E+020
 30
1.0000000000000000E+020
  9
$PEXTMAX
 10
-1.0000000000000000E+020
 20
-1.0000000000000000E+020
 30
-1.0000000000000000E+020
  9
$PLIMMIN
 10
-5.069427490234375
 20
-5.8737497329711914
  9
$PLIMMAX
 10
291.89889526367187
 20
204.0995779037475
  9
$UNITMODE
 70
     0
  9
$VISRETAIN
 70
     1
  9
$PLINEGEN
 70
     0
  9
$PSLTSCALE
 70
     1
  0
ENDSEC
  0
SECTION
  2
TABLES
  0
TABLE
  2
VPORT
 70
     1
  0
VPORT
  2
*ACTIVE
 70
     0
 10
0.0
 20
0.0
 11
1.0
 21
1.0
 12
82.364025719897825
 22
-10.30339797229415
 13
0.0
 23
0.0
 14
1.0
 24
1.0
 15
0.0
 25
0.0
 16
0.0
 26
0.0
 36
1.0
 17
0.0
 27
0.0
 37
0.0
 40
172.05295169745409
 41
2.362397820163487
 42
50.0
 43
0.0
 44
0.0
 50
0.0
 51
0.0
 71
     0
 72
   100
 73
     1
 74
     1
 75
     0
 76
     0
 77
     0
 78
     0
  0
ENDTAB
  0
TABLE
  2
LTYPE
 70
    14
  0
LTYPE
  2
CONTINUOUS
 70
     0
  3
Solid line
 72
    65
 73
     0
 40
0.0
  0
LTYPE
  2
BYGG-01473802$0$NEWDOT
 70
     0
  3
____ . ____ . ____ . ____ . ____ . ____ . ____
 72
    65
 73
     4
 40
2.0
 49
1.0
 49
-0.5
 49
0.0
 49
-0.5
  0
LTYPE
  2
BYGG-022120$0$NEWDOT
 70
     0
  3
____ . ____ . ____ . ____ . ____ . ____ . ____
 72
    65
 73
     4
 40
2.0
 49
1.0
 49
-0.5
 49
0.0
 49
-0.5
  0
LTYPE
  2
BYGG-022120$0$DASHDOT
 70
     0
  3
__ . __ . __ . __ . __ . __ . __ . __ . __ . __
 72
    65
 73
     4
 40
1.0
 49
0.5
 49
-0.25
 49
0.0
 49
-0.25
  0
LTYPE
  2
BYGG-022120$0$DASHED
 70
     0
  3
__ __ __ __ __ __ __ __ __ __ __ __ __ __ __
 72
    65
 73
     2
 40
0.75
 49
0.5
 49
-0.25
  0
LTYPE
  2
BYGG-022120$0$PHANTOM
 70
     0
  3
Phantom ______  __  __  ______  __  __  ______
 72
    65
 73
     6
 40
63.5
 49
31.75
 49
-6.3499999999999988
 49
6.3499999999999988
 49
-6.3499999999999988
 49
6.3499999999999988
 49
-6.3499999999999988
  0
LTYPE
  2
BYGG-01457801$0$NEWDOT
 70
     0
  3
____ . ____ . ____ . ____ . ____ . ____ . ____
 72
    65
 73
     4
 40
2.0
 49
1.0
 49
-0.5
 49
0.0
 49
-0.5
  0
LTYPE
  2
BYGG-014495$0$DASHDOT
 70
     0
  3
__ . __ . __ . __ . __ . __ . __ . __ . __ . __
 72
    65
 73
     4
 40
1.0
 49
0.5
 49
-0.25
 49
0.0
 49
-0.25
  0
LTYPE
  2
ACAD_ISO02W100
 70
     0
  3
ISO dash __ __ __ __ __ __ __ __ __ __ __ __ __
 72
    65
 73
     2
 40
15.0
 49
12.0
 49
-3.0
  0
LTYPE
  2
BYGG-020273$0$DASHDOT
 70
     0
  3
__ . __ . __ . __ . __ . __ . __ . __ . __ . __
 72
    65
 73
     4
 40
1.0
 49
0.5
 49
-0.25
 49
0.0
 49
-0.25
  0
LTYPE
  2
BYGG-01473802$0$ZIGZAG
 70
     0
  3
Zig zag /\/\/\/\/\/\/\/\/\/\/\/\/\/\/\/\/\/\/\/\/\/\/\/
 72
    65
 73
     4
 40
20.32254
 49
0.00254
 49
-5.0800000000000001
 49
-10.16
 49
-5.0800000000000001
  0
LTYPE
  2
BYGG-01457801$0$ZIGZAG
 70
     0
  3
Zig zag /\/\/\/\/\/\/\/\/\/\/\/\/\/\/\/\/\/\/\/\/\/\/\/
 72
    65
 73
     4
 40
20.32254
 49
0.00254
 49
-5.0800000000000001
 49
-10.16
 49
-5.0800000000000001
  0
LTYPE
  2
BYGG-014198$0$ZIGZAG
 70
     0
  3
Zig zag /\/\/\/\/\/\/\/\/\/\/\/\/\/\/\/\/\/\/\/\/\/\/\/
 72
    65
 73
     4
 40
20.32254
 49
0.00254
 49
-5.0800000000000001
 49
-10.16
 49
-5.0800000000000001
  0
LTYPE
  2
BYGG-014198$0$NEWDOT
 70
     0
  3
____ . ____ . ____ . ____ . ____ . ____ . ____
 72
    65
 73
     4
 40
2.0
 49
1.0
 49
-0.5
 49
0.0
 49
-0.5
  0
ENDTAB
  0
TABLE
  2
LAYER
 70
    90
  0
LAYER
  2
0
 70
     0
 62
     7
  6
CONTINUOUS
  0
LAYER
  2
DEFPOINTS
 70
     0
 62
     7
  6
CONTINUOUS
  0
LAYER
  2
SAPA_ARTIKELNR
 70
     0
 62
     4
  6
CONTINUOUS
  0
LAYER
  2
SAPA_LIGHT
 70
     1
 62
     1
  6
CONTINUOUS
  0
LAYER
  2
SAPA_PROFIL
 70
     0
 62
     7
  6
CONTINUOUS
  0
LAYER
  2
SAPA_ANSLUTNING
 70
     0
 62
     6
  6
CONTINUOUS
  0
LAYER
  2
SAPA_FYLLNING
 70
     0
 62
     4
  6
CONTINUOUS
  0
LAYER
  2
SAPA_MATT
 70
     0
 62
     1
  6
CONTINUOUS
  0
LAYER
  2
SAPA_GLAS
 70
     0
 62
     4
  6
CONTINUOUS
  0
LAYER
  2
SAPA_FOGBAND
 70
     0
 62
     2
  6
CONTINUOUS
  0
ENDTAB
  0
TABLE
  2
STYLE
 70
    30
  0
STYLE
  2
STANDARD
 70
     0
 40
0.0
 41
1.0
 50
0.0
 71
     0
 42
0.2
  3
txt
  4

  0
STYLE
  2
ISO
 70
     0
 40
0.0
 41
1.0
 50
0.0
 71
     0
 42
3.5
  3
txt
  4

  0
STYLE
  2

 70
     1
 40
0.0
 41
1.0
 50
0.0
 71
     0
 42
0.2
  3
ltypeshp.shx
  4

  0
STYLE
  2
BYGG-019441$0$STANDARD
 70
     0
 40
0.0
 41
1.0
 50
0.0
 71
     0
 42
0.2
  3
txt
  4

  0
STYLE
  2
BYGG-019441$0$ISO
 70
     0
 40
0.0
 41
1.0
 50
0.0
 71
     0
 42
3.5
  3
txt
  4

  0
STYLE
  2
BYGG-019441$0$ANNOTATIVE
 70
     0
 40
0.0
 41
1.0
 50
0.0
 71
     0
 42
0.2
  3
txt
  4

  0
STYLE
  2
BYGG-01473802$0$STANDARD
 70
     0
 40
0.0
 41
1.0
 50
0.0
 71
     0
 42
0.2
  3
txt
  4

  0
STYLE
  2
BYGG-01473802$0$ISO
 70
     0
 40
0.0
 41
1.0
 50
0.0
 71
     0
 42
2.5
  3
isocp3.shx
  4

  0
STYLE
  2
BYGG-019438$0$STANDARD
 70
     0
 40
0.0
 41
1.0
 50
0.0
 71
     0
 42
0.2
  3
txt
  4

  0
STYLE
  2
BYGG-019438$0$ISO
 70
     0
 40
0.0
 41
1.0
 50
0.0
 71
     0
 42
3.5
  3
txt
  4

  0
STYLE
  2
BYGG-022120$0$STANDARD
 70
     0
 40
0.0
 41
1.0
 50
0.0
 71
     0
 42
0.2
  3
txt
  4

  0
STYLE
  2
BYGG-022120$0$ISO
 70
     0
 40
0.0
 41
1.0
 50
0.0
 71
     0
 42
3.5
  3
txt
  4

  0
STYLE
  2
BYGG-01457801$0$STANDARD
 70
     0
 40
0.0
 41
1.0
 50
0.0
 71
     0
 42
0.2
  3
txt
  4

  0
STYLE
  2
BYGG-01457801$0$ISO
 70
     0
 40
0.0
 41
1.0
 50
0.0
 71
     0
 42
2.5
  3
isocp3.shx
  4

  0
STYLE
  2
BYGG-022709$0$STANDARD
 70
     0
 40
0.0
 41
1.0
 50
0.0
 71
     0
 42
0.2
  3
txt
  4

  0
STYLE
  2
BYGG-022709$0$ISO
 70
     0
 40
0.0
 41
1.0
 50
0.0
 71
     0
 42
3.5
  3
txt
  4

  0
STYLE
  2
BYGG-014198$0$STANDARD
 70
     0
 40
0.0
 41
1.0
 50
0.0
 71
     0
 42
0.2
  3
txt
  4

  0
STYLE
  2
BYGG-014198$0$ISO
 70
     0
 40
0.0
 41
1.0
 50
0.0
 71
     0
 42
3.5
  3
isocp3.shx
  4

  0
STYLE
  2
BYGG-023125$0$STANDARD
 70
     0
 40
0.0
 41
1.0
 50
0.0
 71
     0
 42
0.2
  3
txt
  4

  0
STYLE
  2
BYGG-014495$0$STANDARD
 70
     0
 40
0.0
 41
1.0
 50
0.0
 71
     0
 42
0.2
  3
txt
  4

  0
STYLE
  2
BYGG-014495$0$ISO
 70
     0
 40
0.0
 41
1.0
 50
0.0
 71
     0
 42
3.5
  3
isocp3.shx
  4

  0
STYLE
  2
BYGG-023163$0$STANDARD
 70
     0
 40
0.0
 41
1.0
 50
0.0
 71
     0
 42
0.2
  3
txt
  4

  0
STYLE
  2
BYGG-023163$0$ISO
 70
     0
 40
0.0
 41
1.0
 50
0.0
 71
     0
 42
3.5
  3
txt
  4

  0
STYLE
  2
BYGG-020272$0$STANDARD
 70
     0
 40
0.0
 41
1.0
 50
0.0
 71
     0
 42
0.2
  3
txt
  4

  0
STYLE
  2
BYGG-020272$0$ISO
 70
     0
 40
0.0
 41
1.0
 50
0.0
 71
     0
 42
3.5
  3
isocp3.shx
  4

  0
STYLE
  2
BYGG-014014$0$STANDARD
 70
     0
 40
0.0
 41
1.0
 50
0.0
 71
     0
 42
0.2
  3
txt
  4

  0
STYLE
  2
BYGG-022359$0$STANDARD
 70
     0
 40
0.0
 41
1.0
 50
0.0
 71
     0
 42
0.2
  3
txt
  4

  0
STYLE
  2
BYGG-022359$0$ISO
 70
     0
 40
0.0
 41
1.0
 50
0.0
 71
     0
 42
3.5
  3
isocp3.shx
  4

  0
STYLE
  2
BYGG-020273$0$STANDARD
 70
     0
 40
0.0
 41
1.0
 50
0.0
 71
     0
 42
0.2
  3
txt
  4

  0
STYLE
  2
BYGG-020273$0$ISO
 70
     0
 40
0.0
 41
1.0
 50
0.0
 71
     0
 42
3.5
  3
isocp3.shx
  4

  0
ENDTAB
  0
TABLE
  2
VIEW
 70
     0
  0
ENDTAB
  0
TABLE
  2
UCS
 70
     0
  0
ENDTAB
  0
TABLE
  2
APPID
 70
    18
  0
APPID
  2
ACAD
 70
     0
  0
APPID
  2
ACAD_DSTYLE_DIMTEXT_FILL
 70
     0
  0
APPID
  2
ACAD_DSTYLE_DIMEXT_LENGTH
 70
     0
  0
APPID
  2
ACAD_DSTYLE_DIMEXT_ENABLED
 70
     0
  0
APPID
  2
ACAD_DSTYLE_DIM_LINETYPE
 70
     0
  0
APPID
  2
ACAD_DSTYLE_DIM_EXT1_LINETYPE
 70
     0
  0
APPID
  2
ACAD_DSTYLE_DIM_EXT2_LINETYPE
 70
     0
  0
APPID
  2
ACAD_DSTYLE_DIMJOGGED_JOGA
 70
     0
  0
APPID
  2
ACAD_DSTYLE_DIMARC_LENGTH_
 70
     0
  0
APPID
  2
ACAD_PSEXT
 70
     0
  0
APPID
  2
ACAD_MLEADERVER
 70
     0
  0
APPID
  2
AME_SOL
 70
     0
  0
APPID
  2
DCO15
 70
     0
  0
APPID
  2
AMG_ARCHIVE11
 70
     0
  0
APPID
  2
ACAECLAYERSTANDARD
 70
     0
  0
APPID
  2
ACADANNOTATIVE
 70
     0
  0
APPID
  2
ACAD_EXEMPT_FROM_CAD_STANDARDS
 70
     0
  0
APPID
  2
AEC_XDATA_BOUND_SPACE
 70
     0
  0
ENDTAB
  0
TABLE
  2
DIMSTYLE
 70
    27
  0
DIMSTYLE
  2
STANDARD
 70
     0
  3

  4

  5

  6

  7

 40
1.0
 41
0.18
 42
0.0625
 43
0.38
 44
0.18
 45
0.0
 46
0.0
 47
0.0
 48
0.0
140
0.18
141
0.09
142
0.0
143
25.399999999999999
144
1.0
145
0.0
146
1.0
147
0.09
 71
     0
 72
     0
 73
     1
 74
     1
 75
     0
 76
     0
 77
     0
 78
     0
170
     0
171
     2
172
     0
173
     0
174
     0
175
     0
176
     0
177
     0
178
     0
  0
DIMSTYLE
  2
MASKIN
 70
     0
  3

  4

  5

  6

  7

 40
0.0
 41
3.0
 42
1.5
 43
10.0
 44
1.5
 45
0.0
 46
0.0
 47
0.0
 48
0.0
140
3.0
141
-5.0
142
0.0
143
25.399999999999999
144
-1.0
145
0.0
146
1.0
147
1.0
 71
     0
 72
     0
 73
     0
 74
     0
 75
     0
 76
     0
 77
     1
 78
     8
170
     0
171
     0
172
     1
173
     0
174
     0
175
     0
176
   256
177
   256
178
     2
  0
DIMSTYLE
  2
BYGG-019441$0$STANDARD
 70
     0
  3

  4

  5

  6

  7

 40
1.0
 41
0.18
 42
0.0625
 43
0.38
 44
0.18
 45
0.0
 46
0.0
 47
0.0
 48
0.0
140
0.18
141
0.09
142
0.0
143
25.399999999999999
144
1.0
145
0.0
146
1.0
147
0.09
 71
     0
 72
     0
 73
     1
 74
     1
 75
     0
 76
     0
 77
     0
 78
     0
170
     0
171
     2
172
     0
173
     0
174
     0
175
     0
176
     0
177
     0
178
     0
  0
DIMSTYLE
  2
BYGG-019441$0$MASKIN
 70
     0
  3

  4

  5

  6

  7

 40
0.0
 41
3.0
 42
1.5
 43
10.0
 44
1.5
 45
0.0
 46
0.0
 47
0.0
 48
0.0
140
3.0
141
-5.0
142
0.0
143
25.399999999999999
144
-1.0
145
0.0
146
1.0
147
1.0
 71
     0
 72
     0
 73
     0
 74
     0
 75
     0
 76
     0
 77
     1
 78
     8
170
     0
171
     0
172
     1
173
     0
174
     0
175
     0
176
   256
177
   256
178
     2
  0
DIMSTYLE
  2
BYGG-019441$0$ANNOTATIVE
 70
     0
  3

  4

  5

  6

  7

 40
1.0
 41
0.18
 42
0.0625
 43
0.38
 44
0.18
 45
0.0
 46
0.0
 47
0.0
 48
0.0
140
0.18
141
0.09
142
0.0
143
25.399999999999999
144
1.0
145
0.0
146
1.0
147
0.09
 71
     0
 72
     0
 73
     1
 74
     1
 75
     0
 76
     0
 77
     0
 78
     0
170
     0
171
     2
172
     0
173
     0
174
     0
175
     0
176
     0
177
     0
178
     0
  0
DIMSTYLE
  2
BYGG-01473802$0$STANDARD
 70
     0
  3

  4

  5

  6

  7

 40
1.0
 41
0.18
 42
0.0625
 43
0.38
 44
0.18
 45
0.0
 46
0.0
 47
0.0
 48
0.0
140
0.18
141
0.09
142
0.0
143
25.399999999999999
144
1.0
145
0.0
146
1.0
147
0.09
 71
     0
 72
     0
 73
     1
 74
     1
 75
     0
 76
     0
 77
     0
 78
     0
170
     0
171
     2
172
     0
173
     0
174
     0
175
     0
176
     0
177
     0
178
     0
  0
DIMSTYLE
  2
BYGG-01473802$0$MASKIN
 70
     0
  3

  4

  5

  6

  7

 40
0.0
 41
3.0
 42
1.5
 43
10.0
 44
1.5
 45
0.0
 46
0.0
 47
0.0
 48
0.0
140
3.0
141
-5.0
142
0.0
143
25.399999999999999
144
-1.0
145
0.0
146
1.0
147
1.0
 71
     0
 72
     0
 73
     0
 74
     1
 75
     0
 76
     0
 77
     1
 78
     8
170
     0
171
     0
172
     1
173
     0
174
     0
175
     0
176
   256
177
   256
178
     2
  0
DIMSTYLE
  2
BYGG-019438$0$STANDARD
 70
     0
  3

  4

  5

  6

  7

 40
1.0
 41
0.18
 42
0.0625
 43
0.38
 44
0.18
 45
0.0
 46
0.0
 47
0.0
 48
0.0
140
0.18
141
0.09
142
0.0
143
25.399999999999999
144
1.0
145
0.0
146
1.0
147
0.09
 71
     0
 72
     0
 73
     1
 74
     1
 75
     0
 76
     0
 77
     0
 78
     0
170
     0
171
     2
172
     0
173
     0
174
     0
175
     0
176
     0
177
     0
178
     0
  0
DIMSTYLE
  2
BYGG-019438$0$MASKIN
 70
     0
  3

  4

  5

  6

  7

 40
0.0
 41
3.0
 42
1.5
 43
10.0
 44
1.5
 45
0.0
 46
0.0
 47
0.0
 48
0.0
140
3.0
141
-5.0
142
0.0
143
25.399999999999999
144
-1.0
145
0.0
146
1.0
147
1.0
 71
     0
 72
     0
 73
     0
 74
     0
 75
     0
 76
     0
 77
     1
 78
     8
170
     0
171
     0
172
     1
173
     0
174
     0
175
     0
176
   256
177
   256
178
     2
  0
DIMSTYLE
  2
BYGG-022120$0$STANDARD
 70
     0
  3

  4

  5

  6

  7

 40
1.0
 41
0.18
 42
0.0625
 43
0.38
 44
0.18
 45
0.0
 46
0.0
 47
0.0
 48
0.0
140
0.18
141
0.09
142
0.0
143
25.399999999999999
144
1.0
145
0.0
146
1.0
147
0.09
 71
     0
 72
     0
 73
     1
 74
     1
 75
     0
 76
     0
 77
     0
 78
     0
170
     0
171
     2
172
     0
173
     0
174
     0
175
     0
176
     0
177
     0
178
     0
  0
DIMSTYLE
  2
BYGG-022120$0$MASKIN
 70
     0
  3

  4

  5

  6

  7

 40
0.0
 41
3.0
 42
1.5
 43
10.0
 44
1.5
 45
0.0
 46
0.0
 47
0.0
 48
0.0
140
3.0
141
-5.0
142
0.0
143
25.399999999999999
144
-1.0
145
0.0
146
1.0
147
1.0
 71
     0
 72
     0
 73
     0
 74
     0
 75
     0
 76
     0
 77
     1
 78
     8
170
     0
171
     0
172
     1
173
     0
174
     0
175
     0
176
   256
177
   256
178
     2
  0
DIMSTYLE
  2
BYGG-01457801$0$STANDARD
 70
     0
  3

  4

  5

  6

  7

 40
1.0
 41
0.18
 42
0.0625
 43
0.38
 44
0.18
 45
0.0
 46
0.0
 47
0.0
 48
0.0
140
0.18
141
0.09
142
0.0
143
25.399999999999999
144
1.0
145
0.0
146
1.0
147
0.09
 71
     0
 72
     0
 73
     1
 74
     1
 75
     0
 76
     0
 77
     0
 78
     0
170
     0
171
     2
172
     0
173
     0
174
     0
175
     0
176
     0
177
     0
178
     0
  0
DIMSTYLE
  2
BYGG-01457801$0$MASKIN
 70
     0
  3

  4

  5

  6

  7

 40
0.0
 41
3.0
 42
1.5
 43
10.0
 44
1.5
 45
0.0
 46
0.0
 47
0.0
 48
0.0
140
3.0
141
-5.0
142
0.0
143
25.399999999999999
144
-1.0
145
0.0
146
1.0
147
1.0
 71
     0
 72
     0
 73
     0
 74
     1
 75
     0
 76
     0
 77
     1
 78
     8
170
     0
171
     0
172
     1
173
     0
174
     0
175
     0
176
   256
177
   256
178
     2
  0
DIMSTYLE
  2
BYGG-022709$0$STANDARD
 70
     0
  3

  4

  5

  6

  7

 40
1.0
 41
0.18
 42
0.0625
 43
0.38
 44
0.18
 45
0.0
 46
0.0
 47
0.0
 48
0.0
140
0.18
141
0.09
142
0.0
143
25.399999999999999
144
1.0
145
0.0
146
1.0
147
0.09
 71
     0
 72
     0
 73
     1
 74
     1
 75
     0
 76
     0
 77
     0
 78
     0
170
     0
171
     2
172
     0
173
     0
174
     0
175
     0
176
     0
177
     0
178
     0
  0
DIMSTYLE
  2
BYGG-022709$0$MASKIN
 70
     0
  3

  4

  5

  6

  7

 40
0.0
 41
3.0
 42
1.5
 43
10.0
 44
1.5
 45
0.0
 46
0.0
 47
0.0
 48
0.0
140
3.0
141
-5.0
142
0.0
143
25.399999999999999
144
-1.0
145
0.0
146
1.0
147
1.0
 71
     0
 72
     0
 73
     0
 74
     0
 75
     0
 76
     0
 77
     1
 78
     8
170
     0
171
     0
172
     1
173
     0
174
     0
175
     0
176
   256
177
   256
178
     2
  0
DIMSTYLE
  2
BYGG-014198$0$STANDARD
 70
     0
  3

  4

  5

  6

  7

 40
1.0
 41
0.18
 42
0.0625
 43
0.38
 44
0.18
 45
0.0
 46
0.0
 47
0.0
 48
0.0
140
0.18
141
0.09
142
0.0
143
25.399999999999999
144
1.0
145
0.0
146
1.0
147
0.09
 71
     0
 72
     0
 73
     1
 74
     1
 75
     0
 76
     0
 77
     0
 78
     0
170
     0
171
     2
172
     0
173
     0
174
     0
175
     0
176
     0
177
     0
178
     0
  0
DIMSTYLE
  2
BYGG-014198$0$MASKIN
 70
     0
  3

  4

  5

  6

  7

 40
0.0
 41
3.0
 42
1.5
 43
10.0
 44
1.5
 45
0.0
 46
0.0
 47
0.0
 48
0.0
140
3.0
141
-5.0
142
0.0
143
25.399999999999999
144
-1.0
145
0.0
146
1.0
147
1.0
 71
     0
 72
     0
 73
     0
 74
     0
 75
     0
 76
     0
 77
     1
 78
     8
170
     0
171
     0
172
     1
173
     0
174
     0
175
     0
176
   256
177
   256
178
   256
  0
DIMSTYLE
  2
BYGG-023125$0$STANDARD
 70
     0
  3

  4

  5

  6

  7

 40
1.0
 41
0.18
 42
0.0625
 43
0.38
 44
0.18
 45
0.0
 46
0.0
 47
0.0
 48
0.0
140
0.18
141
0.09
142
0.0
143
25.399999999999999
144
1.0
145
0.0
146
1.0
147
0.09
 71
     0
 72
     0
 73
     1
 74
     1
 75
     0
 76
     0
 77
     0
 78
     0
170
     0
171
     2
172
     0
173
     0
174
     0
175
     0
176
     0
177
     0
178
     0
  0
DIMSTYLE
  2
BYGG-014495$0$MASKIN
 70
     0
  3

  4

  5

  6

  7

 40
0.0
 41
3.0
 42
1.5
 43
10.0
 44
1.5
 45
0.0
 46
0.0
 47
0.0
 48
0.0
140
3.0
141
-5.0
142
0.0
143
25.399999999999999
144
-1.0
145
0.0
146
1.0
147
1.0
 71
     0
 72
     0
 73
     0
 74
     0
 75
     0
 76
     0
 77
     1
 78
     8
170
     0
171
     0
172
     1
173
     0
174
     0
175
     0
176
   256
177
   256
178
     2
  0
DIMSTYLE
  2
BYGG-023163$0$STANDARD
 70
     0
  3

  4

  5

  6

  7

 40
1.0
 41
0.18
 42
0.0625
 43
0.38
 44
0.18
 45
0.0
 46
0.0
 47
0.0
 48
0.0
140
0.18
141
0.09
142
0.0
143
25.399999999999999
144
1.0
145
0.0
146
1.0
147
0.09
 71
     0
 72
     0
 73
     1
 74
     1
 75
     0
 76
     0
 77
     0
 78
     0
170
     0
171
     2
172
     0
173
     0
174
     0
175
     0
176
     0
177
     0
178
     0
  0
DIMSTYLE
  2
BYGG-023163$0$MASKIN
 70
     0
  3

  4

  5

  6

  7

 40
0.0
 41
3.0
 42
1.5
 43
10.0
 44
1.5
 45
0.0
 46
0.0
 47
0.0
 48
0.0
140
3.0
141
-5.0
142
0.0
143
25.399999999999999
144
-1.0
145
0.0
146
1.0
147
1.0
 71
     0
 72
     0
 73
     0
 74
     0
 75
     0
 76
     0
 77
     1
 78
     8
170
     0
171
     0
172
     1
173
     0
174
     0
175
     0
176
   256
177
   256
178
     2
  0
DIMSTYLE
  2
BYGG-020272$0$STANDARD
 70
     0
  3

  4

  5

  6

  7

 40
1.0
 41
0.18
 42
0.0625
 43
0.38
 44
0.18
 45
0.0
 46
0.0
 47
0.0
 48
0.0
140
0.18
141
0.09
142
0.0
143
25.399999999999999
144
1.0
145
0.0
146
1.0
147
0.09
 71
     0
 72
     0
 73
     1
 74
     1
 75
     0
 76
     0
 77
     0
 78
     0
170
     0
171
     2
172
     0
173
     0
174
     0
175
     0
176
     0
177
     0
178
     0
  0
DIMSTYLE
  2
BYGG-020272$0$MASKIN
 70
     0
  3

  4

  5

  6

  7

 40
0.0
 41
3.0
 42
1.5
 43
10.0
 44
1.5
 45
0.0
 46
0.0
 47
0.0
 48
0.0
140
3.0
141
-5.0
142
0.0
143
25.399999999999999
144
-1.0
145
0.0
146
1.0
147
1.0
 71
     0
 72
     0
 73
     0
 74
     0
 75
     0
 76
     0
 77
     1
 78
     8
170
     0
171
     0
172
     1
173
     0
174
     0
175
     0
176
   256
177
   256
178
     2
  0
DIMSTYLE
  2
BYGG-014014$0$STANDARD
 70
     0
  3

  4

  5

  6

  7

 40
1.0
 41
0.18
 42
0.0625
 43
0.38
 44
0.18
 45
0.0
 46
0.0
 47
0.0
 48
0.0
140
0.18
141
0.09
142
0.0
143
25.399999999999999
144
1.0
145
0.0
146
1.0
147
0.09
 71
     0
 72
     0
 73
     1
 74
     1
 75
     0
 76
     0
 77
     0
 78
     0
170
     0
171
     2
172
     0
173
     0
174
     0
175
     0
176
     0
177
     0
178
     0
  0
DIMSTYLE
  2
BYGG-022359$0$MASKIN
 70
     0
  3

  4

  5

  6

  7

 40
0.0
 41
3.0
 42
1.5
 43
10.0
 44
1.5
 45
0.0
 46
0.0
 47
0.0
 48
0.0
140
3.0
141
-5.0
142
0.0
143
25.399999999999999
144
-1.0
145
0.0
146
1.0
147
1.0
 71
     0
 72
     0
 73
     0
 74
     0
 75
     0
 76
     0
 77
     1
 78
     8
170
     0
171
     0
172
     1
173
     0
174
     0
175
     0
176
   256
177
   256
178
   256
  0
DIMSTYLE
  2
BYGG-022359$0$STANDARD
 70
     0
  3

  4

  5

  6

  7

 40
1.0
 41
0.18
 42
0.0625
 43
0.38
 44
0.18
 45
0.0
 46
0.0
 47
0.0
 48
0.0
140
0.18
141
0.09
142
0.0
143
25.399999999999999
144
1.0
145
0.0
146
1.0
147
0.09
 71
     0
 72
     0
 73
     1
 74
     1
 75
     0
 76
     0
 77
     0
 78
     0
170
     0
171
     2
172
     0
173
     0
174
     0
175
     0
176
     0
177
     0
178
     0
  0
DIMSTYLE
  2
BYGG-020273$0$MASKIN
 70
     0
  3

  4

  5

  6

  7

 40
0.0
 41
3.0
 42
1.5
 43
10.0
 44
1.5
 45
0.0
 46
0.0
 47
0.0
 48
0.0
140
3.0
141
-5.0
142
0.0
143
25.399999999999999
144
-1.0
145
0.0
146
1.0
147
1.0
 71
     0
 72
     0
 73
     0
 74
     0
 75
     0
 76
     0
 77
     1
 78
     8
170
     0
171
     0
172
     1
173
     0
174
     0
175
     0
176
   256
177
   256
178
     2
  0
ENDTAB
  0
ENDSEC
  0
SECTION
  2
BLOCKS
  0
BLOCK
  8
0
  2
$MODEL_SPACE
 70
     0
 10
0.0
 20
0.0
 30
0.0
  3
$MODEL_SPACE
  1

  0
ENDBLK
  5
37
  8
0
  0
BLOCK
 67
     1
  8
0
  2
$PAPER_SPACE
 70
     0
 10
0.0
 20
0.0
 30
0.0
  3
$PAPER_SPACE
  1

  0
ENDBLK
  5
35
 67
     1
  8
0
  0
BLOCK
  8
0
  2
*D72
 70
     1
 10
0.0
 20
0.0
 30
0.0
  3
*D72
  1

  0
LINE
  5
10A0
  8
SAPA_MATT
 10
-78.546446609404995
 20
16.000000000000131
 30
0.0
 11
-108.3283286202785
 21
16.000000000000139
 31
0.0
  0
LINE
  5
10A1
  8
SAPA_MATT
 10
-78.546446609434525
 20
-16.000000000000149
 30
0.0
 11
-108.3283286202785
 21
-16.000000000000139
 31
0.0
  0
LINE
  5
10A2
  8
SAPA_MATT
 10
-106.8283286202785
 20
13.00000000000014
 30
0.0
 11
-106.8283286202785
 21
-13.000000000000149
 31
0.0
  0
SOLID
  5
10A3
  8
SAPA_MATT
 10
-107.3283286202785
 20
13.00000000000014
 30
0.0
 11
-106.3283286202785
 21
13.00000000000014
 31
0.0
 12
-106.8283286202785
 22
16.000000000000139
 32
0.0
 13
-106.8283286202785
 23
16.000000000000139
 33
0.0
  0
SOLID
  5
10A4
  8
SAPA_MATT
 10
-107.3283286202785
 20
-13.000000000000149
 30
0.0
 11
-106.3283286202785
 21
-13.000000000000149
 31
0.0
 12
-106.8283286202785
 22
-16.000000000000139
 32
0.0
 13
-106.8283286202785
 23
-16.000000000000139
 33
0.0
  0
INSERT
  5
10A5
  8
0
  2
*U120
 10
0.0
 20
0.0
 30
0.0
  0
POINT
  5
10A6
  8
DEFPOINTS
 62
     0
 10
-77.046446609404995
 20
16.000000000000131
 30
0.0
  0
POINT
  5
10A7
  8
DEFPOINTS
 62
     0
 10
-77.046446609434525
 20
-16.000000000000149
 30
0.0
  0
POINT
  5
10A8
  8
DEFPOINTS
 62
     0
 10
-106.8283286202785
 20
-16.000000000000139
 30
0.0
  0
ENDBLK
  5
106C
  8
0
  0
BLOCK
  8
0
  2
*D73
 70
     1
 10
0.0
 20
0.0
 30
0.0
  3
*D73
  1

  0
LINE
  5
1097
  8
SAPA_MATT
 10
64.200939698017763
 20
26.00000000000022
 30
0.0
 11
64.200939698017763
 21
44.04945547751047
 31
0.0
  0
LINE
  5
1098
  8
SAPA_MATT
 10
74.200939698017692
 20
1.1999999999999209
 30
0.0
 11
74.200939698017692
 21
44.04945547751047
 31
0.0
  0
LINE
  5
1099
  8
SAPA_MATT
 10
67.200939698017763
 20
42.549455477510477
 30
0.0
 11
71.200939698017692
 21
42.549455477510477
 31
0.0
  0
SOLID
  5
109A
  8
SAPA_MATT
 10
67.200939698017763
 20
43.049455477510477
 30
0.0
 11
67.200939698017763
 21
42.04945547751047
 31
0.0
 12
64.200939698017763
 22
42.549455477510477
 32
0.0
 13
64.200939698017763
 23
42.549455477510477
 33
0.0
  0
SOLID
  5
109B
  8
SAPA_MATT
 10
71.200939698017692
 20
43.049455477510477
 30
0.0
 11
71.200939698017692
 21
42.04945547751047
 31
0.0
 12
74.200939698017692
 22
42.549455477510477
 32
0.0
 13
74.200939698017692
 23
42.549455477510477
 33
0.0
  0
INSERT
  5
109C
  8
0
  2
*U119
 10
0.0
 20
0.0
 30
0.0
  0
POINT
  5
109D
  8
DEFPOINTS
 62
     0
 10
64.200939698017763
 20
24.50000000000022
 30
0.0
  0
POINT
  5
109E
  8
DEFPOINTS
 62
     0
 10
74.200939698017692
 20
-0.3000000000000789
 30
0.0
  0
POINT
  5
109F
  8
DEFPOINTS
 62
     0
 10
74.200939698017692
 20
42.549455477510477
 30
0.0
  0
ENDBLK
  5
1078
  8
0
  0
BLOCK
  8
0
  2
*D74
 70
     1
 10
0.0
 20
0.0
 30
0.0
  3
*D74
  1

  0
LINE
  5
2305
  8
SAPA_MATT
 10
74.200939698017692
 20
1.1999999999999209
 30
0.0
 11
74.200939698017692
 21
44.04945547751047
 31
0.0
  0
LINE
  5
2306
  8
SAPA_MATT
 10
124.20093969801771
 20
1.1999999999999209
 30
0.0
 11
124.20093969801771
 21
44.04945547751047
 31
0.0
  0
LINE
  5
2307
  8
SAPA_MATT
 10
77.200939698017692
 20
42.549455477510477
 30
0.0
 11
121.20093969801771
 21
42.549455477510477
 31
0.0
  0
SOLID
  5
2308
  8
SAPA_MATT
 10
77.200939698017692
 20
43.049455477510477
 30
0.0
 11
77.200939698017692
 21
42.04945547751047
 31
0.0
 12
74.200939698017692
 22
42.549455477510477
 32
0.0
 13
74.200939698017692
 23
42.549455477510477
 33
0.0
  0
SOLID
  5
2309
  8
SAPA_MATT
 10
121.20093969801771
 20
43.049455477510477
 30
0.0
 11
121.20093969801771
 21
42.04945547751047
 31
0.0
 12
124.20093969801771
 22
42.549455477510477
 32
0.0
 13
124.20093969801771
 23
42.549455477510477
 33
0.0
  0
TEXT
  8
SAPA_MATT
  40
3
  5
2316
  62
2
  72
0
  71
0
 10
93.2009
 20
39.7395
 30
0.000000
  1
50
  7
ISO
  0
POINT
  5
230B
  8
DEFPOINTS
 62
     0
 10
74.200939698017692
 20
-0.3000000000000789
 30
0.0
  0
POINT
  5
230C
  8
DEFPOINTS
 62
     0
 10
124.20093969801771
 20
-0.3000000000000789
 30
0.0
  0
POINT
  5
230D
  8
DEFPOINTS
 62
     0
 10
124.20093969801771
 20
42.549455477510477
 30
0.0
  0
ENDBLK
  5
1084
  8
0
  0
BLOCK
  8
0
  2
*U75
 70
     1
 10
0.0
 20
0.0
 30
0.0
  3
*U75
  1

  0
TEXT
  5
10D0
  8
SAPA_ARTIKELNR
 10
-89.664925162157033
 20
-14.15737894709614
 30
0.0
 40
3.5
  1
42844/42845
 50
90.0
  7
ISO
  0
ENDBLK
  5
10D2
  8
0
  0
BLOCK
  8
0
  2
*U76
 70
     1
 10
0.0
 20
0.0
 30
0.0
  3
*U76
  1

  0
TEXT
  5
10D4
  8
SAPA_ARTIKELNR
 10
58.631956930834797
 20
-7.4905679408580896
 30
0.0
 40
3.5
  1
68292
 50
90.0
  7
ISO
  0
ENDBLK
  5
10D6
  8
0
  0
BLOCK
  8
0
  2
*U77
 70
     1
 10
0.0
 20
0.0
 30
0.0
  3
*U77
  1

  0
TEXT
  5
10ED
  8
SAPA_ARTIKELNR
 10
72.283157051711044
 20
-2.7833691968481591
 30
0.0
 40
3.5
  1
52070
 50
89.999999999999986
  7
ISO
  0
ENDBLK
  5
10EF
  8
0
  0
BLOCK
  8
0
  2
*U78
 70
     1
 10
0.0
 20
0.0
 30
0.0
  3
*U78
  1

  0
TEXT
  5
10F1
  8
SAPA_ARTIKELNR
 10
129.84011275317951
 20
-74.41055136779903
 30
0.0
 40
3.5
  1
42072
 50
89.999999999999986
  7
ISO
  0
ENDBLK
  5
10F3
  8
0
  0
BLOCK
  8
0
  2
*U79
 70
     1
 10
0.0
 20
0.0
 30
0.0
  3
*U79
  1

  0
TEXT
  5
10F5
  8
0
 62
     2
 10
67.400939698017723
 20
43.54945547751047
 30
0.0
 40
3.0
  1
10
  7
ISO
  0
ENDBLK
  5
10F7
  8
0
  0
BLOCK
  8
0
  2
*U80
 70
     1
 10
0.0
 20
0.0
 30
0.0
  3
*U80
  1

  0
TEXT
  5
10F9
  8
0
 62
     2
 10
97.100939698017726
 20
43.54945547751047
 30
0.0
 40
3.0
  1
50
  7
ISO
  0
ENDBLK
  5
10FB
  8
0
  0
BLOCK
  8
0
  2
*U81
 70
     1
 10
0.0
 20
0.0
 30
0.0
  3
*U81
  1

  0
TEXT
  5
111D
  8
SAPA_ARTIKELNR
 10
129.84011275317951
 20
-36.449508437535208
 30
0.0
 40
3.5
  1
68074
 50
89.999999999999986
  7
ISO
  0
ENDBLK
  5
111F
  8
0
  0
BLOCK
  8
0
  2
*U82
 70
     1
 10
0.0
 20
0.0
 30
0.0
  3
*U82
  1

  0
TEXT
  5
1121
  8
0
 62
     2
 10
-107.8283286202785
 20
-2.100000000000021
 30
0.0
 40
3.0
  1
32
 50
90.0
  7
ISO
  0
ENDBLK
  5
1123
  8
0
  0
BLOCK
  8
0
  2
*U83
 70
     1
 10
0.0
 20
0.0
 30
0.0
  3
*U83
  1

  0
TEXT
  5
1458
  8
0
 62
     2
 10
803.01068992404385
 20
216.54455714651471
 30
0.0
 40
6.0
  1
98
 50
90.0
  7
BYGG-01473802$0$ISO
  0
ENDBLK
  5
145A
  8
0
  0
BLOCK
  8
0
  2
*U84
 70
     1
 10
0.0
 20
0.0
 30
0.0
  3
*U84
  1

  0
TEXT
  5
145C
  8
0
 62
     2
 10
755.53701152505107
 20
283.19343277492499
 30
0.0
 40
6.0
  1
50
  7
BYGG-01473802$0$ISO
  0
ENDBLK
  5
145E
  8
0
  0
BLOCK
  8
0
  2
*X85
 70
     1
 10
0.0
 20
0.0
 30
0.0
  3
*X85
  1

  0
LINE
  5
14AB
  8
0
 62
     0
 10
-26.193750000000019
 20
-65.087499999999991
 30
0.0
 11
-26.193750000000019
 21
-65.087499999999991
 31
0.0
  0
LINE
  5
14AC
  8
0
 62
     0
 10
-27.781250000000011
 20
-65.087499999999991
 30
0.0
 11
-27.781250000000011
 21
-65.087499999999991
 31
0.0
  0
LINE
  5
14AD
  8
0
 62
     0
 10
-29.368750000000009
 20
-65.087499999999991
 30
0.0
 11
-29.368750000000009
 21
-65.087499999999991
 31
0.0
  0
LINE
  5
14AE
  8
0
 62
     0
 10
-30.956250000000011
 20
-65.087499999999991
 30
0.0
 11
-30.956250000000011
 21
-65.087499999999991
 31
0.0
  0
LINE
  5
14AF
  8
0
 62
     0
 10
-32.54375000000001
 20
-65.087499999999991
 30
0.0
 11
-32.54375000000001
 21
-65.087499999999991
 31
0.0
  0
LINE
  5
14B0
  8
0
 62
     0
 10
-34.131250000000009
 20
-65.087499999999991
 30
0.0
 11
-34.131250000000009
 21
-65.087499999999991
 31
0.0
  0
LINE
  5
14B1
  8
0
 62
     0
 10
-35.718750000000007
 20
-65.087499999999991
 30
0.0
 11
-35.718750000000007
 21
-65.087499999999991
 31
0.0
  0
LINE
  5
14B2
  8
0
 62
     0
 10
-37.306250000000013
 20
-65.087499999999991
 30
0.0
 11
-37.306250000000013
 21
-65.087499999999991
 31
0.0
  0
LINE
  5
14B3
  8
0
 62
     0
 10
-38.893750000000011
 20
-65.087499999999991
 30
0.0
 11
-38.893750000000011
 21
-65.087499999999991
 31
0.0
  0
LINE
  5
14B4
  8
0
 62
     0
 10
-40.481250000000003
 20
-65.087499999999991
 30
0.0
 11
-40.481250000000003
 21
-65.087499999999991
 31
0.0
  0
LINE
  5
14B5
  8
0
 62
     0
 10
-42.068750000000001
 20
-65.087499999999991
 30
0.0
 11
-42.068750000000001
 21
-65.087499999999991
 31
0.0
  0
LINE
  5
14B6
  8
0
 62
     0
 10
-43.65625
 20
-65.087499999999991
 30
0.0
 11
-43.65625
 21
-65.087499999999991
 31
0.0
  0
LINE
  5
14B7
  8
0
 62
     0
 10
-45.243749999999999
 20
-65.087499999999991
 30
0.0
 11
-45.243749999999999
 21
-65.087499999999991
 31
0.0
  0
LINE
  5
14B8
  8
0
 62
     0
 10
-46.83124999999999
 20
-65.087499999999991
 30
0.0
 11
-46.83124999999999
 21
-65.087499999999991
 31
0.0
  0
LINE
  5
14B9
  8
0
 62
     0
 10
-48.418749999999989
 20
-65.087499999999991
 30
0.0
 11
-48.418749999999989
 21
-65.087499999999991
 31
0.0
  0
LINE
  5
14BA
  8
0
 62
     0
 10
-50.006249999999987
 20
-65.087499999999991
 30
0.0
 11
-50.006249999999987
 21
-65.087499999999991
 31
0.0
  0
LINE
  5
14BB
  8
0
 62
     0
 10
-26.987500000000018
 20
-63.5
 30
0.0
 11
-26.987500000000018
 21
-63.5
 31
0.0
  0
LINE
  5
14BC
  8
0
 62
     0
 10
-28.575000000000021
 20
-63.5
 30
0.0
 11
-28.575000000000021
 21
-63.5
 31
0.0
  0
LINE
  5
14BD
  8
0
 62
     0
 10
-30.162500000000019
 20
-63.5
 30
0.0
 11
-30.162500000000019
 21
-63.5
 31
0.0
  0
LINE
  5
14BE
  8
0
 62
     0
 10
-31.750000000000021
 20
-63.5
 30
0.0
 11
-31.750000000000021
 21
-63.5
 31
0.0
  0
LINE
  5
14BF
  8
0
 62
     0
 10
-33.337500000000013
 20
-63.5
 30
0.0
 11
-33.337500000000013
 21
-63.5
 31
0.0
  0
LINE
  5
14C0
  8
0
 62
     0
 10
-34.925000000000011
 20
-63.5
 30
0.0
 11
-34.925000000000011
 21
-63.5
 31
0.0
  0
LINE
  5
14C1
  8
0
 62
     0
 10
-36.51250000000001
 20
-63.5
 30
0.0
 11
-36.51250000000001
 21
-63.5
 31
0.0
  0
LINE
  5
14C2
  8
0
 62
     0
 10
-38.100000000000009
 20
-63.5
 30
0.0
 11
-38.100000000000009
 21
-63.5
 31
0.0
  0
LINE
  5
14C3
  8
0
 62
     0
 10
-39.687500000000007
 20
-63.5
 30
0.0
 11
-39.687500000000007
 21
-63.5
 31
0.0
  0
LINE
  5
14C4
  8
0
 62
     0
 10
-41.274999999999999
 20
-63.5
 30
0.0
 11
-41.274999999999999
 21
-63.5
 31
0.0
  0
LINE
  5
14C5
  8
0
 62
     0
 10
-42.862499999999997
 20
-63.5
 30
0.0
 11
-42.862499999999997
 21
-63.5
 31
0.0
  0
LINE
  5
14C6
  8
0
 62
     0
 10
-44.450000000000003
 20
-63.5
 30
0.0
 11
-44.450000000000003
 21
-63.5
 31
0.0
  0
LINE
  5
14C7
  8
0
 62
     0
 10
-46.037500000000001
 20
-63.5
 30
0.0
 11
-46.037500000000001
 21
-63.5
 31
0.0
  0
LINE
  5
14C8
  8
0
 62
     0
 10
-47.625
 20
-63.5
 30
0.0
 11
-47.625
 21
-63.5
 31
0.0
  0
LINE
  5
14C9
  8
0
 62
     0
 10
-49.212499999999999
 20
-63.5
 30
0.0
 11
-49.212499999999999
 21
-63.5
 31
0.0
  0
LINE
  5
14CA
  8
0
 62
     0
 10
-50.799999999999997
 20
-63.5
 30
0.0
 11
-50.799999999999997
 21
-63.5
 31
0.0
  0
LINE
  5
14CB
  8
0
 62
     0
 10
-26.193750000000019
 20
-61.912500000000001
 30
0.0
 11
-26.193750000000019
 21
-61.912500000000001
 31
0.0
  0
LINE
  5
14CC
  8
0
 62
     0
 10
-27.781250000000011
 20
-61.912500000000001
 30
0.0
 11
-27.781250000000011
 21
-61.912500000000001
 31
0.0
  0
LINE
  5
14CD
  8
0
 62
     0
 10
-29.368750000000009
 20
-61.912500000000001
 30
0.0
 11
-29.368750000000009
 21
-61.912500000000001
 31
0.0
  0
LINE
  5
14CE
  8
0
 62
     0
 10
-30.956250000000011
 20
-61.912500000000001
 30
0.0
 11
-30.956250000000011
 21
-61.912500000000001
 31
0.0
  0
LINE
  5
14CF
  8
0
 62
     0
 10
-32.54375000000001
 20
-61.912500000000001
 30
0.0
 11
-32.54375000000001
 21
-61.912500000000001
 31
0.0
  0
LINE
  5
14D0
  8
0
 62
     0
 10
-34.131250000000009
 20
-61.912500000000001
 30
0.0
 11
-34.131250000000009
 21
-61.912500000000001
 31
0.0
  0
LINE
  5
14D1
  8
0
 62
     0
 10
-35.718750000000007
 20
-61.912500000000001
 30
0.0
 11
-35.718750000000007
 21
-61.912500000000001
 31
0.0
  0
LINE
  5
14D2
  8
0
 62
     0
 10
-37.306250000000013
 20
-61.912500000000001
 30
0.0
 11
-37.306250000000013
 21
-61.912500000000001
 31
0.0
  0
LINE
  5
14D3
  8
0
 62
     0
 10
-38.893750000000011
 20
-61.912500000000001
 30
0.0
 11
-38.893750000000011
 21
-61.912500000000001
 31
0.0
  0
LINE
  5
14D4
  8
0
 62
     0
 10
-40.481250000000003
 20
-61.912500000000001
 30
0.0
 11
-40.481250000000003
 21
-61.912500000000001
 31
0.0
  0
LINE
  5
14D5
  8
0
 62
     0
 10
-42.068750000000001
 20
-61.912500000000001
 30
0.0
 11
-42.068750000000001
 21
-61.912500000000001
 31
0.0
  0
LINE
  5
14D6
  8
0
 62
     0
 10
-43.65625
 20
-61.912500000000001
 30
0.0
 11
-43.65625
 21
-61.912500000000001
 31
0.0
  0
LINE
  5
14D7
  8
0
 62
     0
 10
-45.243749999999999
 20
-61.912500000000001
 30
0.0
 11
-45.243749999999999
 21
-61.912500000000001
 31
0.0
  0
LINE
  5
14D8
  8
0
 62
     0
 10
-46.83124999999999
 20
-61.912500000000001
 30
0.0
 11
-46.83124999999999
 21
-61.912500000000001
 31
0.0
  0
LINE
  5
14D9
  8
0
 62
     0
 10
-48.418749999999989
 20
-61.912500000000001
 30
0.0
 11
-48.418749999999989
 21
-61.912500000000001
 31
0.0
  0
LINE
  5
14DA
  8
0
 62
     0
 10
-50.006249999999987
 20
-61.912500000000001
 30
0.0
 11
-50.006249999999987
 21
-61.912500000000001
 31
0.0
  0
LINE
  5
14DB
  8
0
 62
     0
 10
-26.987500000000018
 20
-60.324999999999989
 30
0.0
 11
-26.987500000000018
 21
-60.324999999999989
 31
0.0
  0
LINE
  5
14DC
  8
0
 62
     0
 10
-28.575000000000021
 20
-60.324999999999989
 30
0.0
 11
-28.575000000000021
 21
-60.324999999999989
 31
0.0
  0
LINE
  5
14DD
  8
0
 62
     0
 10
-30.162500000000019
 20
-60.324999999999989
 30
0.0
 11
-30.162500000000019
 21
-60.324999999999989
 31
0.0
  0
LINE
  5
14DE
  8
0
 62
     0
 10
-31.750000000000021
 20
-60.324999999999989
 30
0.0
 11
-31.750000000000021
 21
-60.324999999999989
 31
0.0
  0
LINE
  5
14DF
  8
0
 62
     0
 10
-33.337500000000013
 20
-60.324999999999989
 30
0.0
 11
-33.337500000000013
 21
-60.324999999999989
 31
0.0
  0
LINE
  5
14E0
  8
0
 62
     0
 10
-34.925000000000011
 20
-60.324999999999989
 30
0.0
 11
-34.925000000000011
 21
-60.324999999999989
 31
0.0
  0
LINE
  5
14E1
  8
0
 62
     0
 10
-36.51250000000001
 20
-60.324999999999989
 30
0.0
 11
-36.51250000000001
 21
-60.324999999999989
 31
0.0
  0
LINE
  5
14E2
  8
0
 62
     0
 10
-38.100000000000009
 20
-60.324999999999989
 30
0.0
 11
-38.100000000000009
 21
-60.324999999999989
 31
0.0
  0
LINE
  5
14E3
  8
0
 62
     0
 10
-39.687500000000007
 20
-60.324999999999989
 30
0.0
 11
-39.687500000000007
 21
-60.324999999999989
 31
0.0
  0
LINE
  5
14E4
  8
0
 62
     0
 10
-41.274999999999999
 20
-60.324999999999989
 30
0.0
 11
-41.274999999999999
 21
-60.324999999999989
 31
0.0
  0
LINE
  5
14E5
  8
0
 62
     0
 10
-42.862499999999997
 20
-60.324999999999989
 30
0.0
 11
-42.862499999999997
 21
-60.324999999999989
 31
0.0
  0
LINE
  5
14E6
  8
0
 62
     0
 10
-44.450000000000003
 20
-60.324999999999989
 30
0.0
 11
-44.450000000000003
 21
-60.324999999999989
 31
0.0
  0
LINE
  5
14E7
  8
0
 62
     0
 10
-46.037500000000001
 20
-60.324999999999989
 30
0.0
 11
-46.037500000000001
 21
-60.324999999999989
 31
0.0
  0
LINE
  5
14E8
  8
0
 62
     0
 10
-47.625
 20
-60.324999999999989
 30
0.0
 11
-47.625
 21
-60.324999999999989
 31
0.0
  0
LINE
  5
14E9
  8
0
 62
     0
 10
-49.212499999999999
 20
-60.324999999999989
 30
0.0
 11
-49.212499999999999
 21
-60.324999999999989
 31
0.0
  0
LINE
  5
14EA
  8
0
 62
     0
 10
-50.799999999999997
 20
-60.324999999999989
 30
0.0
 11
-50.799999999999997
 21
-60.324999999999989
 31
0.0
  0
LINE
  5
14EB
  8
0
 62
     0
 10
-26.193750000000019
 20
-58.737499999999997
 30
0.0
 11
-26.193750000000019
 21
-58.737499999999997
 31
0.0
  0
LINE
  5
14EC
  8
0
 62
     0
 10
-27.781250000000011
 20
-58.737499999999997
 30
0.0
 11
-27.781250000000011
 21
-58.737499999999997
 31
0.0
  0
LINE
  5
14ED
  8
0
 62
     0
 10
-29.368750000000009
 20
-58.737499999999997
 30
0.0
 11
-29.368750000000009
 21
-58.737499999999997
 31
0.0
  0
LINE
  5
14EE
  8
0
 62
     0
 10
-30.956250000000011
 20
-58.737499999999997
 30
0.0
 11
-30.956250000000011
 21
-58.737499999999997
 31
0.0
  0
LINE
  5
14EF
  8
0
 62
     0
 10
-32.54375000000001
 20
-58.737499999999997
 30
0.0
 11
-32.54375000000001
 21
-58.737499999999997
 31
0.0
  0
LINE
  5
14F0
  8
0
 62
     0
 10
-34.131250000000009
 20
-58.737499999999997
 30
0.0
 11
-34.131250000000009
 21
-58.737499999999997
 31
0.0
  0
LINE
  5
14F1
  8
0
 62
     0
 10
-35.718750000000007
 20
-58.737499999999997
 30
0.0
 11
-35.718750000000007
 21
-58.737499999999997
 31
0.0
  0
LINE
  5
14F2
  8
0
 62
     0
 10
-37.306250000000013
 20
-58.737499999999997
 30
0.0
 11
-37.306250000000013
 21
-58.737499999999997
 31
0.0
  0
LINE
  5
14F3
  8
0
 62
     0
 10
-38.893750000000011
 20
-58.737499999999997
 30
0.0
 11
-38.893750000000011
 21
-58.737499999999997
 31
0.0
  0
LINE
  5
14F4
  8
0
 62
     0
 10
-40.481250000000003
 20
-58.737499999999997
 30
0.0
 11
-40.481250000000003
 21
-58.737499999999997
 31
0.0
  0
LINE
  5
14F5
  8
0
 62
     0
 10
-42.068750000000001
 20
-58.737499999999997
 30
0.0
 11
-42.068750000000001
 21
-58.737499999999997
 31
0.0
  0
LINE
  5
14F6
  8
0
 62
     0
 10
-43.65625
 20
-58.737499999999997
 30
0.0
 11
-43.65625
 21
-58.737499999999997
 31
0.0
  0
LINE
  5
14F7
  8
0
 62
     0
 10
-45.243749999999999
 20
-58.737499999999997
 30
0.0
 11
-45.243749999999999
 21
-58.737499999999997
 31
0.0
  0
LINE
  5
14F8
  8
0
 62
     0
 10
-46.83124999999999
 20
-58.737499999999997
 30
0.0
 11
-46.83124999999999
 21
-58.737499999999997
 31
0.0
  0
LINE
  5
14F9
  8
0
 62
     0
 10
-48.418749999999989
 20
-58.737499999999997
 30
0.0
 11
-48.418749999999989
 21
-58.737499999999997
 31
0.0
  0
LINE
  5
14FA
  8
0
 62
     0
 10
-50.006249999999987
 20
-58.737499999999997
 30
0.0
 11
-50.006249999999987
 21
-58.737499999999997
 31
0.0
  0
LINE
  5
14FB
  8
0
 62
     0
 10
-26.987500000000018
 20
-57.149999999999991
 30
0.0
 11
-26.987500000000018
 21
-57.149999999999991
 31
0.0
  0
LINE
  5
14FC
  8
0
 62
     0
 10
-28.575000000000021
 20
-57.149999999999991
 30
0.0
 11
-28.575000000000021
 21
-57.149999999999991
 31
0.0
  0
LINE
  5
14FD
  8
0
 62
     0
 10
-30.162500000000019
 20
-57.149999999999991
 30
0.0
 11
-30.162500000000019
 21
-57.149999999999991
 31
0.0
  0
LINE
  5
14FE
  8
0
 62
     0
 10
-31.750000000000021
 20
-57.149999999999991
 30
0.0
 11
-31.750000000000021
 21
-57.149999999999991
 31
0.0
  0
LINE
  5
14FF
  8
0
 62
     0
 10
-33.337500000000013
 20
-57.149999999999991
 30
0.0
 11
-33.337500000000013
 21
-57.149999999999991
 31
0.0
  0
LINE
  5
1500
  8
0
 62
     0
 10
-34.925000000000011
 20
-57.149999999999991
 30
0.0
 11
-34.925000000000011
 21
-57.149999999999991
 31
0.0
  0
LINE
  5
1501
  8
0
 62
     0
 10
-36.51250000000001
 20
-57.149999999999991
 30
0.0
 11
-36.51250000000001
 21
-57.149999999999991
 31
0.0
  0
LINE
  5
1502
  8
0
 62
     0
 10
-38.100000000000009
 20
-57.149999999999991
 30
0.0
 11
-38.100000000000009
 21
-57.149999999999991
 31
0.0
  0
LINE
  5
1503
  8
0
 62
     0
 10
-39.687500000000007
 20
-57.149999999999991
 30
0.0
 11
-39.687500000000007
 21
-57.149999999999991
 31
0.0
  0
LINE
  5
1504
  8
0
 62
     0
 10
-41.274999999999999
 20
-57.149999999999991
 30
0.0
 11
-41.274999999999999
 21
-57.149999999999991
 31
0.0
  0
LINE
  5
1505
  8
0
 62
     0
 10
-42.862499999999997
 20
-57.149999999999991
 30
0.0
 11
-42.862499999999997
 21
-57.149999999999991
 31
0.0
  0
LINE
  5
1506
  8
0
 62
     0
 10
-44.450000000000003
 20
-57.149999999999991
 30
0.0
 11
-44.450000000000003
 21
-57.149999999999991
 31
0.0
  0
LINE
  5
1507
  8
0
 62
     0
 10
-46.037500000000001
 20
-57.149999999999991
 30
0.0
 11
-46.037500000000001
 21
-57.149999999999991
 31
0.0
  0
LINE
  5
1508
  8
0
 62
     0
 10
-47.625
 20
-57.149999999999991
 30
0.0
 11
-47.625
 21
-57.149999999999991
 31
0.0
  0
LINE
  5
1509
  8
0
 62
     0
 10
-49.212499999999999
 20
-57.149999999999991
 30
0.0
 11
-49.212499999999999
 21
-57.149999999999991
 31
0.0
  0
LINE
  5
150A
  8
0
 62
     0
 10
-50.799999999999997
 20
-57.149999999999991
 30
0.0
 11
-50.799999999999997
 21
-57.149999999999991
 31
0.0
  0
LINE
  5
150B
  8
0
 62
     0
 10
-26.193750000000019
 20
-55.5625
 30
0.0
 11
-26.193750000000019
 21
-55.5625
 31
0.0
  0
LINE
  5
150C
  8
0
 62
     0
 10
-27.781250000000021
 20
-55.5625
 30
0.0
 11
-27.781250000000021
 21
-55.5625
 31
0.0
  0
LINE
  5
150D
  8
0
 62
     0
 10
-29.36875000000002
 20
-55.5625
 30
0.0
 11
-29.36875000000002
 21
-55.5625
 31
0.0
  0
LINE
  5
150E
  8
0
 62
     0
 10
-30.956250000000018
 20
-55.5625
 30
0.0
 11
-30.956250000000018
 21
-55.5625
 31
0.0
  0
LINE
  5
150F
  8
0
 62
     0
 10
-32.543750000000017
 20
-55.5625
 30
0.0
 11
-32.543750000000017
 21
-55.5625
 31
0.0
  0
LINE
  5
1510
  8
0
 62
     0
 10
-34.131250000000023
 20
-55.5625
 30
0.0
 11
-34.131250000000023
 21
-55.5625
 31
0.0
  0
LINE
  5
1511
  8
0
 62
     0
 10
-35.718750000000021
 20
-55.5625
 30
0.0
 11
-35.718750000000021
 21
-55.5625
 31
0.0
  0
LINE
  5
1512
  8
0
 62
     0
 10
-37.30625000000002
 20
-55.5625
 30
0.0
 11
-37.30625000000002
 21
-55.5625
 31
0.0
  0
LINE
  5
1513
  8
0
 62
     0
 10
-38.893750000000011
 20
-55.5625
 30
0.0
 11
-38.893750000000011
 21
-55.5625
 31
0.0
  0
LINE
  5
1514
  8
0
 62
     0
 10
-40.48125000000001
 20
-55.5625
 30
0.0
 11
-40.48125000000001
 21
-55.5625
 31
0.0
  0
LINE
  5
1515
  8
0
 62
     0
 10
-42.068750000000009
 20
-55.5625
 30
0.0
 11
-42.068750000000009
 21
-55.5625
 31
0.0
  0
LINE
  5
1516
  8
0
 62
     0
 10
-43.65625
 20
-55.5625
 30
0.0
 11
-43.65625
 21
-55.5625
 31
0.0
  0
LINE
  5
1517
  8
0
 62
     0
 10
-45.243749999999999
 20
-55.5625
 30
0.0
 11
-45.243749999999999
 21
-55.5625
 31
0.0
  0
LINE
  5
1518
  8
0
 62
     0
 10
-46.831249999999997
 20
-55.5625
 30
0.0
 11
-46.831249999999997
 21
-55.5625
 31
0.0
  0
LINE
  5
1519
  8
0
 62
     0
 10
-48.418750000000003
 20
-55.5625
 30
0.0
 11
-48.418750000000003
 21
-55.5625
 31
0.0
  0
LINE
  5
151A
  8
0
 62
     0
 10
-50.006250000000001
 20
-55.5625
 30
0.0
 11
-50.006250000000001
 21
-55.5625
 31
0.0
  0
LINE
  5
151B
  8
0
 62
     0
 10
-26.987500000000018
 20
-53.974999999999987
 30
0.0
 11
-26.987500000000018
 21
-53.974999999999987
 31
0.0
  0
LINE
  5
151C
  8
0
 62
     0
 10
-28.575000000000021
 20
-53.974999999999987
 30
0.0
 11
-28.575000000000021
 21
-53.974999999999987
 31
0.0
  0
LINE
  5
151D
  8
0
 62
     0
 10
-30.162500000000019
 20
-53.974999999999987
 30
0.0
 11
-30.162500000000019
 21
-53.974999999999987
 31
0.0
  0
LINE
  5
151E
  8
0
 62
     0
 10
-31.750000000000021
 20
-53.974999999999987
 30
0.0
 11
-31.750000000000021
 21
-53.974999999999987
 31
0.0
  0
LINE
  5
151F
  8
0
 62
     0
 10
-33.337500000000013
 20
-53.974999999999987
 30
0.0
 11
-33.337500000000013
 21
-53.974999999999987
 31
0.0
  0
LINE
  5
1520
  8
0
 62
     0
 10
-34.925000000000011
 20
-53.974999999999987
 30
0.0
 11
-34.925000000000011
 21
-53.974999999999987
 31
0.0
  0
LINE
  5
1521
  8
0
 62
     0
 10
-36.51250000000001
 20
-53.974999999999987
 30
0.0
 11
-36.51250000000001
 21
-53.974999999999987
 31
0.0
  0
LINE
  5
1522
  8
0
 62
     0
 10
-38.100000000000009
 20
-53.974999999999987
 30
0.0
 11
-38.100000000000009
 21
-53.974999999999987
 31
0.0
  0
LINE
  5
1523
  8
0
 62
     0
 10
-39.687500000000007
 20
-53.974999999999987
 30
0.0
 11
-39.687500000000007
 21
-53.974999999999987
 31
0.0
  0
LINE
  5
1524
  8
0
 62
     0
 10
-41.274999999999999
 20
-53.974999999999987
 30
0.0
 11
-41.274999999999999
 21
-53.974999999999987
 31
0.0
  0
LINE
  5
1525
  8
0
 62
     0
 10
-42.862499999999997
 20
-53.974999999999987
 30
0.0
 11
-42.862499999999997
 21
-53.974999999999987
 31
0.0
  0
LINE
  5
1526
  8
0
 62
     0
 10
-44.450000000000003
 20
-53.974999999999987
 30
0.0
 11
-44.450000000000003
 21
-53.974999999999987
 31
0.0
  0
LINE
  5
1527
  8
0
 62
     0
 10
-46.037500000000001
 20
-53.974999999999987
 30
0.0
 11
-46.037500000000001
 21
-53.974999999999987
 31
0.0
  0
LINE
  5
1528
  8
0
 62
     0
 10
-47.625
 20
-53.974999999999987
 30
0.0
 11
-47.625
 21
-53.974999999999987
 31
0.0
  0
LINE
  5
1529
  8
0
 62
     0
 10
-49.212499999999999
 20
-53.974999999999987
 30
0.0
 11
-49.212499999999999
 21
-53.974999999999987
 31
0.0
  0
LINE
  5
152A
  8
0
 62
     0
 10
-50.799999999999997
 20
-53.974999999999987
 30
0.0
 11
-50.799999999999997
 21
-53.974999999999987
 31
0.0
  0
LINE
  5
152B
  8
0
 62
     0
 10
-26.193750000000019
 20
-52.387499999999989
 30
0.0
 11
-26.193750000000019
 21
-52.387499999999989
 31
0.0
  0
LINE
  5
152C
  8
0
 62
     0
 10
-27.781250000000011
 20
-52.387499999999989
 30
0.0
 11
-27.781250000000011
 21
-52.387499999999989
 31
0.0
  0
LINE
  5
152D
  8
0
 62
     0
 10
-29.368750000000009
 20
-52.387499999999989
 30
0.0
 11
-29.368750000000009
 21
-52.387499999999989
 31
0.0
  0
LINE
  5
152E
  8
0
 62
     0
 10
-30.956250000000011
 20
-52.387499999999989
 30
0.0
 11
-30.956250000000011
 21
-52.387499999999989
 31
0.0
  0
LINE
  5
152F
  8
0
 62
     0
 10
-32.54375000000001
 20
-52.387499999999989
 30
0.0
 11
-32.54375000000001
 21
-52.387499999999989
 31
0.0
  0
LINE
  5
1530
  8
0
 62
     0
 10
-34.131250000000009
 20
-52.387499999999989
 30
0.0
 11
-34.131250000000009
 21
-52.387499999999989
 31
0.0
  0
LINE
  5
1531
  8
0
 62
     0
 10
-35.718750000000007
 20
-52.387499999999989
 30
0.0
 11
-35.718750000000007
 21
-52.387499999999989
 31
0.0
  0
LINE
  5
1532
  8
0
 62
     0
 10
-37.306250000000013
 20
-52.387499999999989
 30
0.0
 11
-37.306250000000013
 21
-52.387499999999989
 31
0.0
  0
LINE
  5
1533
  8
0
 62
     0
 10
-38.893750000000011
 20
-52.387499999999989
 30
0.0
 11
-38.893750000000011
 21
-52.387499999999989
 31
0.0
  0
LINE
  5
1534
  8
0
 62
     0
 10
-40.481250000000003
 20
-52.387499999999989
 30
0.0
 11
-40.481250000000003
 21
-52.387499999999989
 31
0.0
  0
LINE
  5
1535
  8
0
 62
     0
 10
-42.068750000000001
 20
-52.387499999999989
 30
0.0
 11
-42.068750000000001
 21
-52.387499999999989
 31
0.0
  0
LINE
  5
1536
  8
0
 62
     0
 10
-43.65625
 20
-52.387499999999989
 30
0.0
 11
-43.65625
 21
-52.387499999999989
 31
0.0
  0
LINE
  5
1537
  8
0
 62
     0
 10
-45.243749999999999
 20
-52.387499999999989
 30
0.0
 11
-45.243749999999999
 21
-52.387499999999989
 31
0.0
  0
LINE
  5
1538
  8
0
 62
     0
 10
-46.83124999999999
 20
-52.387499999999989
 30
0.0
 11
-46.83124999999999
 21
-52.387499999999989
 31
0.0
  0
LINE
  5
1539
  8
0
 62
     0
 10
-48.418749999999989
 20
-52.387499999999989
 30
0.0
 11
-48.418749999999989
 21
-52.387499999999989
 31
0.0
  0
LINE
  5
153A
  8
0
 62
     0
 10
-50.006249999999987
 20
-52.387499999999989
 30
0.0
 11
-50.006249999999987
 21
-52.387499999999989
 31
0.0
  0
LINE
  5
153B
  8
0
 62
     0
 10
-26.987500000000018
 20
-50.799999999999997
 30
0.0
 11
-26.987500000000018
 21
-50.799999999999997
 31
0.0
  0
LINE
  5
153C
  8
0
 62
     0
 10
-28.575000000000021
 20
-50.799999999999997
 30
0.0
 11
-28.575000000000021
 21
-50.799999999999997
 31
0.0
  0
LINE
  5
153D
  8
0
 62
     0
 10
-30.162500000000019
 20
-50.799999999999997
 30
0.0
 11
-30.162500000000019
 21
-50.799999999999997
 31
0.0
  0
LINE
  5
153E
  8
0
 62
     0
 10
-31.750000000000021
 20
-50.799999999999997
 30
0.0
 11
-31.750000000000021
 21
-50.799999999999997
 31
0.0
  0
LINE
  5
153F
  8
0
 62
     0
 10
-33.337500000000013
 20
-50.799999999999997
 30
0.0
 11
-33.337500000000013
 21
-50.799999999999997
 31
0.0
  0
LINE
  5
1540
  8
0
 62
     0
 10
-34.925000000000011
 20
-50.799999999999997
 30
0.0
 11
-34.925000000000011
 21
-50.799999999999997
 31
0.0
  0
LINE
  5
1541
  8
0
 62
     0
 10
-36.51250000000001
 20
-50.799999999999997
 30
0.0
 11
-36.51250000000001
 21
-50.799999999999997
 31
0.0
  0
LINE
  5
1542
  8
0
 62
     0
 10
-38.100000000000009
 20
-50.799999999999997
 30
0.0
 11
-38.100000000000009
 21
-50.799999999999997
 31
0.0
  0
LINE
  5
1543
  8
0
 62
     0
 10
-39.687500000000007
 20
-50.799999999999997
 30
0.0
 11
-39.687500000000007
 21
-50.799999999999997
 31
0.0
  0
LINE
  5
1544
  8
0
 62
     0
 10
-41.274999999999999
 20
-50.799999999999997
 30
0.0
 11
-41.274999999999999
 21
-50.799999999999997
 31
0.0
  0
LINE
  5
1545
  8
0
 62
     0
 10
-42.862499999999997
 20
-50.799999999999997
 30
0.0
 11
-42.862499999999997
 21
-50.799999999999997
 31
0.0
  0
LINE
  5
1546
  8
0
 62
     0
 10
-44.450000000000003
 20
-50.799999999999997
 30
0.0
 11
-44.450000000000003
 21
-50.799999999999997
 31
0.0
  0
LINE
  5
1547
  8
0
 62
     0
 10
-46.037500000000001
 20
-50.799999999999997
 30
0.0
 11
-46.037500000000001
 21
-50.799999999999997
 31
0.0
  0
LINE
  5
1548
  8
0
 62
     0
 10
-47.625
 20
-50.799999999999997
 30
0.0
 11
-47.625
 21
-50.799999999999997
 31
0.0
  0
LINE
  5
1549
  8
0
 62
     0
 10
-49.212499999999999
 20
-50.799999999999997
 30
0.0
 11
-49.212499999999999
 21
-50.799999999999997
 31
0.0
  0
LINE
  5
154A
  8
0
 62
     0
 10
-50.799999999999997
 20
-50.799999999999997
 30
0.0
 11
-50.799999999999997
 21
-50.799999999999997
 31
0.0
  0
LINE
  5
154B
  8
0
 62
     0
 10
-26.193750000000019
 20
-49.212499999999999
 30
0.0
 11
-26.193750000000019
 21
-49.212499999999999
 31
0.0
  0
LINE
  5
154C
  8
0
 62
     0
 10
-27.781250000000011
 20
-49.212499999999999
 30
0.0
 11
-27.781250000000011
 21
-49.212499999999999
 31
0.0
  0
LINE
  5
154D
  8
0
 62
     0
 10
-29.368750000000009
 20
-49.212499999999999
 30
0.0
 11
-29.368750000000009
 21
-49.212499999999999
 31
0.0
  0
LINE
  5
154E
  8
0
 62
     0
 10
-30.956250000000011
 20
-49.212499999999999
 30
0.0
 11
-30.956250000000011
 21
-49.212499999999999
 31
0.0
  0
LINE
  5
154F
  8
0
 62
     0
 10
-32.54375000000001
 20
-49.212499999999999
 30
0.0
 11
-32.54375000000001
 21
-49.212499999999999
 31
0.0
  0
LINE
  5
1550
  8
0
 62
     0
 10
-34.131250000000009
 20
-49.212499999999999
 30
0.0
 11
-34.131250000000009
 21
-49.212499999999999
 31
0.0
  0
LINE
  5
1551
  8
0
 62
     0
 10
-35.718750000000007
 20
-49.212499999999999
 30
0.0
 11
-35.718750000000007
 21
-49.212499999999999
 31
0.0
  0
LINE
  5
1552
  8
0
 62
     0
 10
-37.306250000000013
 20
-49.212499999999999
 30
0.0
 11
-37.306250000000013
 21
-49.212499999999999
 31
0.0
  0
LINE
  5
1553
  8
0
 62
     0
 10
-38.893750000000011
 20
-49.212499999999999
 30
0.0
 11
-38.893750000000011
 21
-49.212499999999999
 31
0.0
  0
LINE
  5
1554
  8
0
 62
     0
 10
-40.481250000000003
 20
-49.212499999999999
 30
0.0
 11
-40.481250000000003
 21
-49.212499999999999
 31
0.0
  0
LINE
  5
1555
  8
0
 62
     0
 10
-42.068750000000001
 20
-49.212499999999999
 30
0.0
 11
-42.068750000000001
 21
-49.212499999999999
 31
0.0
  0
LINE
  5
1556
  8
0
 62
     0
 10
-43.65625
 20
-49.212499999999999
 30
0.0
 11
-43.65625
 21
-49.212499999999999
 31
0.0
  0
LINE
  5
1557
  8
0
 62
     0
 10
-45.243749999999999
 20
-49.212499999999999
 30
0.0
 11
-45.243749999999999
 21
-49.212499999999999
 31
0.0
  0
LINE
  5
1558
  8
0
 62
     0
 10
-46.83124999999999
 20
-49.212499999999999
 30
0.0
 11
-46.83124999999999
 21
-49.212499999999999
 31
0.0
  0
LINE
  5
1559
  8
0
 62
     0
 10
-48.418749999999989
 20
-49.212499999999999
 30
0.0
 11
-48.418749999999989
 21
-49.212499999999999
 31
0.0
  0
LINE
  5
155A
  8
0
 62
     0
 10
-50.006249999999987
 20
-49.212499999999999
 30
0.0
 11
-50.006249999999987
 21
-49.212499999999999
 31
0.0
  0
ENDBLK
  5
155C
  8
0
  0
BLOCK
  8
0
  2
*X86
 70
     1
 10
0.0
 20
0.0
 30
0.0
  3
*X86
  1

  0
LINE
  5
155E
  8
0
 62
     0
 10
-11.49593125845009
 20
-66.49999999999865
 30
0.0
 11
-11.154269258885661
 21
-66.158338000434213
 31
0.0
  0
LINE
  5
155F
  8
0
 62
     0
 10
-12.618463273583741
 20
-66.499999999998664
 30
0.0
 11
-11.48481583191314
 21
-65.36635255832806
 31
0.0
  0
LINE
  5
1560
  8
0
 62
     0
 10
-13.740995288717381
 20
-66.49999999999865
 30
0.0
 11
-11.788423508807069
 21
-64.547428220088335
 31
0.0
  0
LINE
  5
1561
  8
0
 62
     0
 10
-14.863527303851029
 20
-66.49999999999865
 30
0.0
 11
-12.06353495897873
 21
-63.700007655126349
 31
0.0
  0
LINE
  5
1562
  8
0
 62
     0
 10
-14.99999999999976
 20
-65.513940681013736
 30
0.0
 11
-12.30827629264896
 21
-62.82221697366294
 31
0.0
  0
LINE
  5
1563
  8
0
 62
     0
 10
-14.99999999999976
 20
-64.391408665880107
 30
0.0
 11
-12.520377763870311
 21
-61.911786429750649
 31
0.0
  0
LINE
  5
1564
  8
0
 62
     0
 10
-14.99999999999976
 20
-63.268876650746449
 30
0.0
 11
-12.69706451206242
 21
-60.965941162809109
 31
0.0
  0
LINE
  5
1565
  8
0
 62
     0
 10
-14.99999999999976
 20
-62.146344635612813
 30
0.0
 11
-12.83490247968612
 21
-59.981247115299169
 31
0.0
  0
LINE
  5
1566
  8
0
 62
     0
 10
-14.99999999999976
 20
-61.023812620479163
 30
0.0
 11
-12.929574965313529
 21
-58.953387585792939
 31
0.0
  0
LINE
  5
1567
  8
0
 62
     0
 10
-14.99999999999976
 20
-59.901280605345512
 30
0.0
 11
-12.97554749339295
 21
-57.876828098738713
 31
0.0
  0
LINE
  5
1568
  8
0
 62
     0
 10
-14.99999999999976
 20
-58.778748590211869
 30
0.0
 11
-12.965544124534921
 21
-56.744292714747033
 31
0.0
  0
LINE
  5
1569
  8
0
 62
     0
 10
-14.99999999999976
 20
-57.656216575078233
 30
0.0
 11
-12.88968637381619
 21
-55.545902948894657
 31
0.0
  0
LINE
  5
156A
  8
0
 62
     0
 10
-14.999999999999771
 20
-56.533684559944589
 30
0.0
 11
-12.733982672284119
 21
-54.267667232228938
 31
0.0
  0
LINE
  5
156B
  8
0
 62
     0
 10
-14.999999999999771
 20
-55.411152544810953
 30
0.0
 11
-12.47744282332599
 21
-52.888595368137167
 31
0.0
  0
LINE
  5
156C
  8
0
 62
     0
 10
-14.999999999999771
 20
-54.288620529677303
 30
0.0
 11
-12.08587642106675
 21
-51.374496950744287
 31
0.0
  0
LINE
  5
156D
  8
0
 62
     0
 10
-14.999999999999771
 20
-53.166088514543659
 30
0.0
 11
-11.49600040881927
 21
-49.662088923363157
 31
0.0
  0
LINE
  5
156E
  8
0
 62
     0
 10
-14.999999999999771
 20
-52.043556499410009
 30
0.0
 11
-11.45644350058579
 21
-48.499999999996028
 31
0.0
  0
LINE
  5
156F
  8
0
 62
     0
 10
-14.999999999999771
 20
-50.921024484276373
 30
0.0
 11
-12.57897551571943
 21
-48.499999999996028
 31
0.0
  0
LINE
  5
1570
  8
0
 62
     0
 10
-14.99999999999976
 20
-49.798492469142722
 30
0.0
 11
-13.701507530853061
 21
-48.499999999996028
 31
0.0
  0
LINE
  5
1571
  8
0
 62
     0
 10
-14.99999999999976
 20
-48.675960454009079
 30
0.0
 11
-14.824039545986709
 21
-48.499999999996028
 31
0.0
  0
ENDBLK
  5
1573
  8
0
  0
BLOCK
  8
0
  2
*U87
 70
     1
 10
0.0
 20
0.0
 30
0.0
  3
*U87
  1

  0
SOLID
  5
1577
  8
0
  6
CONTINUOUS
 62
     4
 10
23.015468331081149
 20
12.761725249354241
 30
0.0
 11
22.474732851717611
 21
12.71697570444282
 31
0.0
 12
25.15145993421989
 22
12.71697570444282
 32
0.0
 13
25.15145993421989
 23
12.71697570444282
 33
0.0
210
0.0
220
0.0
230
1.0
  0
SOLID
  5
1578
  8
0
  6
CONTINUOUS
 62
     4
 10
-23.015468331081149
 20
12.761725249354241
 30
0.0
 11
-24.454227930408258
 21
12.761725249354241
 31
0.0
 12
-25.15145993421989
 22
12.71697570444282
 32
0.0
 13
-25.15145993421989
 23
12.71697570444282
 33
0.0
210
0.0
220
0.0
230
-1.0
  0
SOLID
  5
1579
  8
0
  6
CONTINUOUS
 62
     4
 10
22.474732851717611
 20
12.71697570444282
 30
0.0
 11
22.473477922542319
 21
12.71687185050382
 31
0.0
 12
25.151993375661391
 22
12.71687185050382
 32
0.0
 13
25.151993375661391
 23
12.71687185050382
 33
0.0
210
0.0
220
0.0
230
1.0
  0
SOLID
  5
157A
  8
0
  6
CONTINUOUS
 62
     4
 10
-22.474732851717611
 20
12.71697570444282
 30
0.0
 11
-25.15145993421989
 21
12.71697570444282
 31
0.0
 12
-25.151993375661391
 22
12.71687185050382
 32
0.0
 13
-25.151993375661391
 23
12.71687185050382
 33
0.0
210
0.0
220
0.0
230
-1.0
  0
SOLID
  5
157B
  8
0
  6
CONTINUOUS
 62
     4
 10
22.473477922542319
 20
12.71687185050382
 30
0.0
 11
21.94623421576545
 21
12.58353204399163
 31
0.0
 12
25.836887750194141
 22
12.58353204399163
 32
0.0
 13
25.836887750194141
 23
12.58353204399163
 33
0.0
210
0.0
220
0.0
230
1.0
  0
SOLID
  5
157C
  8
0
  6
CONTINUOUS
 62
     4
 10
-22.473477922542319
 20
12.71687185050382
 30
0.0
 11
-25.151993375661391
 21
12.71687185050382
 31
0.0
 12
-25.836887750194141
 22
12.58353204399163
 32
0.0
 13
-25.836887750194141
 23
12.58353204399163
 33
0.0
210
0.0
220
0.0
230
-1.0
  0
SOLID
  5
157D
  8
0
  6
CONTINUOUS
 62
     4
 10
21.94623421576545
 20
12.58353204399163
 30
0.0
 11
21.94614682995218
 21
12.583461390664089
 31
0.0
 12
25.837250658074652
 22
12.583461390664089
 32
0.0
 13
25.837250658074652
 23
12.583461390664089
 33
0.0
210
0.0
220
0.0
230
1.0
  0
SOLID
  5
157E
  8
0
  6
CONTINUOUS
 62
     4
 10
-21.94623421576545
 20
12.58353204399163
 30
0.0
 11
-25.836887750194141
 21
12.58353204399163
 31
0.0
 12
-25.837250658074652
 22
12.583461390664089
 32
0.0
 13
-25.837250658074652
 23
12.583461390664089
 33
0.0
210
0.0
220
0.0
230
-1.0
  0
SOLID
  5
157F
  8
0
  6
CONTINUOUS
 62
     4
 10
21.94614682995218
 20
12.583461390664089
 30
0.0
 11
21.346644890689259
 21
12.0987510551557
 31
0.0
 12
26.56909861488554
 22
12.0987510551557
 32
0.0
 13
26.56909861488554
 23
12.0987510551557
 33
0.0
  0
SOLID
  5
1580
  8
0
  6
CONTINUOUS
 62
     4
 10
-21.94614682995218
 20
12.583461390664089
 30
0.0
 11
-25.837250658074652
 21
12.583461390664089
 31
0.0
 12
-26.56909861488554
 22
12.0987510551557
 32
0.0
 13
-26.56909861488554
 23
12.0987510551557
 33
0.0
210
0.0
220
0.0
230
-1.0
  0
SOLID
  5
1581
  8
0
  6
CONTINUOUS
 62
     4
 10
21.346644890689259
 20
12.0987510551557
 30
0.0
 11
21.14040383518217
 21
11.932000683449891
 31
0.0
 12
26.62595503153107
 22
11.932000683449891
 32
0.0
 13
26.62595503153107
 23
11.932000683449891
 33
0.0
210
0.0
220
0.0
230
1.0
  0
SOLID
  5
1582
  8
0
  6
CONTINUOUS
 62
     4
 10
-21.346644890689259
 20
12.0987510551557
 30
0.0
 11
-26.56909861488554
 21
12.0987510551557
 31
0.0
 12
-26.62595503153107
 22
11.932000683449891
 32
0.0
 13
-26.62595503153107
 23
11.932000683449891
 33
0.0
210
0.0
220
0.0
230
-1.0
  0
SOLID
  5
1583
  8
0
  6
CONTINUOUS
 62
     4
 10
21.14040383518217
 20
11.932000683449891
 30
0.0
 11
21.05500954395162
 21
11.491775001953259
 31
0.0
 12
26.7760575740873
 22
11.491775001953259
 32
0.0
 13
26.7760575740873
 23
11.491775001953259
 33
0.0
210
0.0
220
0.0
230
1.0
  0
SOLID
  5
1584
  8
0
  6
CONTINUOUS
 62
     4
 10
-21.14040383518217
 20
11.932000683449891
 30
0.0
 11
-26.62595503153107
 21
11.932000683449891
 31
0.0
 12
-26.7760575740873
 22
11.491775001953259
 32
0.0
 13
-26.7760575740873
 23
11.491775001953259
 33
0.0
210
0.0
220
0.0
230
-1.0
  0
SOLID
  5
1585
  8
0
  6
CONTINUOUS
 62
     4
 10
24.532363637744179
 20
11.491775001953259
 30
0.0
 11
24.627542661503639
 21
11.26791232475091
 31
0.0
 12
26.85238741681087
 22
11.26791232475091
 32
0.0
 13
26.85238741681087
 23
11.26791232475091
 33
0.0
210
0.0
220
0.0
230
1.0
  0
SOLID
  5
1586
  8
0
  6
CONTINUOUS
 62
     4
 10
-24.532363637744179
 20
11.491775001953259
 30
0.0
 11
-26.7760575740873
 21
11.491775001953259
 31
0.0
 12
-26.85238741681087
 22
11.26791232475091
 32
0.0
 13
-26.85238741681087
 23
11.26791232475091
 33
0.0
210
0.0
220
0.0
230
-1.0
  0
SOLID
  5
1587
  8
0
  6
CONTINUOUS
 62
     4
 10
21.05500954395162
 20
11.491775001953259
 30
0.0
 11
21.002042486913641
 21
11.2187185898043
 31
0.0
 12
23.061911805288169
 22
11.2187185898043
 32
0.0
 13
23.061911805288169
 23
11.2187185898043
 33
0.0
210
0.0
220
0.0
230
1.0
  0
SOLID
  5
1588
  8
0
  6
CONTINUOUS
 62
     4
 10
-21.05500954395162
 20
11.491775001953259
 30
0.0
 11
-23.226746727748719
 21
11.491775001953259
 31
0.0
 12
-23.061911805288169
 22
11.2187185898043
 32
0.0
 13
-23.061911805288169
 23
11.2187185898043
 33
0.0
210
0.0
220
0.0
230
-1.0
  0
SOLID
  5
1589
  8
0
  6
CONTINUOUS
 62
     4
 10
24.627542661503639
 20
11.26791232475091
 30
0.0
 11
24.741725930660721
 21
10.999351340244321
 31
0.0
 12
26.85238741681087
 22
10.999351340244321
 32
0.0
 13
26.85238741681087
 23
10.999351340244321
 33
0.0
210
0.0
220
0.0
230
1.0
  0
SOLID
  5
158A
  8
0
  6
CONTINUOUS
 62
     4
 10
-24.627542661503639
 20
11.26791232475091
 30
0.0
 11
-26.85238741681087
 21
11.26791232475091
 31
0.0
 12
-26.85238741681087
 22
10.999351340244321
 32
0.0
 13
-26.85238741681087
 23
10.999351340244321
 33
0.0
210
0.0
220
0.0
230
-1.0
  0
SOLID
  5
158B
  8
0
  6
CONTINUOUS
 62
     4
 10
21.002042486913641
 20
11.2187185898043
 30
0.0
 11
20.943068132967419
 21
10.914693288081221
 31
0.0
 12
22.965480628843881
 22
10.914693288081221
 32
0.0
 13
22.965480628843881
 23
10.914693288081221
 33
0.0
  0
SOLID
  5
158C
  8
0
  6
CONTINUOUS
 62
     4
 10
-21.002042486913641
 20
11.2187185898043
 30
0.0
 11
-23.061911805288169
 21
11.2187185898043
 31
0.0
 12
-22.965480628843881
 22
10.914693288081221
 32
0.0
 13
-22.965480628843881
 23
10.914693288081221
 33
0.0
210
0.0
220
0.0
230
-1.0
  0
SOLID
  5
158D
  8
0
  6
CONTINUOUS
 62
     4
 10
24.741725930660721
 20
10.999351340244321
 30
0.0
 11
24.813214782167488
 21
10.46906559046751
 31
0.0
 12
26.85238741681087
 22
10.46906559046751
 32
0.0
 13
26.85238741681087
 23
10.46906559046751
 33
0.0
210
0.0
220
0.0
230
1.0
  0
SOLID
  5
158E
  8
0
  6
CONTINUOUS
 62
     4
 10
-24.741725930660721
 20
10.999351340244321
 30
0.0
 11
-26.85238741681087
 21
10.999351340244321
 31
0.0
 12
-26.85238741681087
 22
10.46906559046751
 32
0.0
 13
-26.85238741681087
 23
10.46906559046751
 33
0.0
210
0.0
220
0.0
230
-1.0
  0
SOLID
  5
158F
  8
0
  6
CONTINUOUS
 62
     4
 10
22.65427133230396
 20
10.216853593185981
 30
0.0
 11
22.434882565705681
 21
10.19714352993763
 31
0.0
 12
24.448064473450149
 22
10.19714352993763
 32
0.0
 13
24.448064473450149
 23
10.19714352993763
 33
0.0
210
0.0
220
0.0
230
1.0
  0
SOLID
  5
1590
  8
0
  6
CONTINUOUS
 62
     4
 10
-22.65427133230396
 20
10.216853593185981
 30
0.0
 11
-24.078718816616799
 21
10.216853593185981
 31
0.0
 12
-24.448064473450149
 22
10.19714352993763
 32
0.0
 13
-24.448064473450149
 23
10.19714352993763
 33
0.0
210
0.0
220
0.0
230
-1.0
  0
SOLID
  5
1591
  8
0
  6
CONTINUOUS
 62
     4
 10
22.434882565705681
 20
10.19714352993763
 30
0.0
 11
22.107286398766998
 21
10.16771202681012
 31
0.0
 12
24.630505424617908
 22
10.16771202681012
 32
0.0
 13
24.630505424617908
 23
10.16771202681012
 33
0.0
210
0.0
220
0.0
230
1.0
  0
SOLID
  5
1592
  8
0
  6
CONTINUOUS
 62
     4
 10
-22.434882565705681
 20
10.19714352993763
 30
0.0
 11
-24.448064473450149
 21
10.19714352993763
 31
0.0
 12
-24.630505424617908
 22
10.16771202681012
 32
0.0
 13
-24.630505424617908
 23
10.16771202681012
 33
0.0
210
0.0
220
0.0
230
-1.0
  0
SOLID
  5
1593
  8
0
  6
CONTINUOUS
 62
     4
 10
24.813214782167488
 20
10.46906559046751
 30
0.0
 11
24.813214782167499
 21
10.13823722417548
 31
0.0
 12
26.85238741681087
 22
10.13823722417548
 32
0.0
 13
26.85238741681087
 23
10.13823722417548
 33
0.0
210
0.0
220
0.0
230
1.0
  0
SOLID
  5
1594
  8
0
  6
CONTINUOUS
 62
     4
 10
-24.813214782167488
 20
10.46906559046751
 30
0.0
 11
-26.85238741681087
 21
10.46906559046751
 31
0.0
 12
-26.85238741681087
 22
10.13823722417548
 32
0.0
 13
-26.85238741681087
 23
10.13823722417548
 33
0.0
210
0.0
220
0.0
230
-1.0
  0
SOLID
  5
1595
  8
0
  6
CONTINUOUS
 62
     4
 10
22.107286398766998
 20
10.16771202681012
 30
0.0
 11
22.000287186968752
 21
10.13823722417548
 31
0.0
 12
24.813214782167499
 22
10.13823722417548
 32
0.0
 13
24.813214782167499
 23
10.13823722417548
 33
0.0
210
0.0
220
0.0
230
1.0
  0
SOLID
  5
1596
  8
0
  6
CONTINUOUS
 62
     4
 10
-22.107286398766998
 20
10.16771202681012
 30
0.0
 11
-24.630505424617908
 21
10.16771202681012
 31
0.0
 12
-24.813214782167499
 22
10.13823722417548
 32
0.0
 13
-24.813214782167499
 23
10.13823722417548
 33
0.0
210
0.0
220
0.0
230
-1.0
  0
SOLID
  5
1597
  8
0
  6
CONTINUOUS
 62
     4
 10
22.000287186968752
 20
10.13823722417548
 30
0.0
 11
21.577819740142921
 21
10.02186118359089
 31
0.0
 12
26.85238741681087
 22
10.02186118359089
 32
0.0
 13
26.85238741681087
 23
10.02186118359089
 33
0.0
210
0.0
220
0.0
230
1.0
  0
SOLID
  5
1598
  8
0
  6
CONTINUOUS
 62
     4
 10
-22.000287186968752
 20
10.13823722417548
 30
0.0
 11
-26.85238741681087
 21
10.13823722417548
 31
0.0
 12
-26.85238741681087
 22
10.02186118359089
 32
0.0
 13
-26.85238741681087
 23
10.02186118359089
 33
0.0
210
0.0
220
0.0
230
-1.0
  0
SOLID
  5
1599
  8
0
  6
CONTINUOUS
 62
     4
 10
21.577819740142921
 20
10.02186118359089
 30
0.0
 11
21.12109376134968
 21
9.7362947386209377
 31
0.0
 12
26.85238741681087
 22
9.7362947386209377
 32
0.0
 13
26.85238741681087
 23
9.7362947386209377
 33
0.0
210
0.0
220
0.0
230
1.0
  0
SOLID
  5
159A
  8
0
  6
CONTINUOUS
 62
     4
 10
-21.577819740142921
 20
10.02186118359089
 30
0.0
 11
-26.85238741681087
 21
10.02186118359089
 31
0.0
 12
-26.85238741681087
 22
9.7362947386209377
 32
0.0
 13
-26.85238741681087
 23
9.7362947386209377
 33
0.0
210
0.0
220
0.0
230
-1.0
  0
SOLID
  5
159B
  8
0
  6
CONTINUOUS
 62
     4
 10
21.12109376134968
 20
9.7362947386209377
 30
0.0
 11
20.811957480991911
 21
9.2951807234684196
 31
0.0
 12
26.85238741681086
 22
9.2951807234684196
 32
0.0
 13
26.85238741681086
 23
9.2951807234684196
 33
0.0
210
0.0
220
0.0
230
1.0
  0
SOLID
  5
159C
  8
0
  6
CONTINUOUS
 62
     4
 10
-21.12109376134968
 20
9.7362947386209377
 30
0.0
 11
-26.85238741681087
 21
9.7362947386209377
 31
0.0
 12
-26.85238741681086
 22
9.2951807234684196
 32
0.0
 13
-26.85238741681086
 23
9.2951807234684196
 33
0.0
210
0.0
220
0.0
230
-1.0
  0
SOLID
  5
159D
  8
0
  6
CONTINUOUS
 62
     4
 10
20.811957480991911
 20
9.2951807234684196
 30
0.0
 11
20.710763950783871
 21
8.9511586626376651
 31
0.0
 12
26.85238741681086
 22
8.9511586626376651
 32
0.0
 13
26.85238741681086
 23
8.9511586626376651
 33
0.0
  0
SOLID
  5
159E
  8
0
  6
CONTINUOUS
 62
     4
 10
-20.811957480991911
 20
9.2951807234684196
 30
0.0
 11
-26.85238741681086
 21
9.2951807234684196
 31
0.0
 12
-26.85238741681086
 22
8.9511586626376651
 32
0.0
 13
-26.85238741681086
 23
8.9511586626376651
 33
0.0
210
0.0
220
0.0
230
-1.0
  0
SOLID
  5
159F
  8
0
  6
CONTINUOUS
 62
     4
 10
20.710763950783871
 20
8.9511586626376651
 30
0.0
 11
20.67359246009369
 21
8.8247887968458283
 31
0.0
 12
22.93607818216935
 22
8.8247887968458283
 32
0.0
 13
22.93607818216935
 23
8.8247887968458283
 33
0.0
210
0.0
220
0.0
230
1.0
  0
SOLID
  5
15A0
  8
0
  6
CONTINUOUS
 62
     4
 10
-20.710763950783871
 20
8.9511586626376651
 30
0.0
 11
-23.294957983802199
 21
8.9511586626376651
 31
0.0
 12
-22.93607818216935
 22
8.8247887968458283
 32
0.0
 13
-22.93607818216935
 23
8.8247887968458283
 33
0.0
210
0.0
220
0.0
230
-1.0
  0
SOLID
  5
15A1
  8
0
  6
CONTINUOUS
 62
     4
 10
20.67359246009369
 20
8.8247887968458283
 30
0.0
 11
20.661770239401221
 21
8.7845974455029499
 31
0.0
 12
22.91115366209651
 22
8.7845974455029499
 32
0.0
 13
22.91115366209651
 23
8.7845974455029499
 33
0.0
210
0.0
220
0.0
230
1.0
  0
SOLID
  5
15A2
  8
0
  6
CONTINUOUS
 62
     4
 10
-20.67359246009369
 20
8.8247887968458283
 30
0.0
 11
-22.93607818216935
 21
8.8247887968458283
 31
0.0
 12
-22.91115366209651
 22
8.7845974455029499
 32
0.0
 13
-22.91115366209651
 23
8.7845974455029499
 33
0.0
210
0.0
220
0.0
230
-1.0
  0
SOLID
  5
15A3
  8
0
  6
CONTINUOUS
 62
     4
 10
20.661770239401221
 20
8.7845974455029499
 30
0.0
 11
20.651443334370821
 21
8.5014401058415441
 31
0.0
 12
22.735554669767211
 22
8.5014401058415441
 32
0.0
 13
22.735554669767211
 23
8.5014401058415441
 33
0.0
210
0.0
220
0.0
230
1.0
  0
SOLID
  5
15A4
  8
0
  6
CONTINUOUS
 62
     4
 10
-20.661770239401221
 20
8.7845974455029499
 30
0.0
 11
-22.91115366209651
 21
8.7845974455029499
 31
0.0
 12
-22.735554669767211
 22
8.5014401058415441
 32
0.0
 13
-22.735554669767211
 23
8.5014401058415441
 33
0.0
210
0.0
220
0.0
230
-1.0
  0
SOLID
  5
15A5
  8
0
  6
CONTINUOUS
 62
     4
 10
20.651443334370821
 20
8.5014401058415441
 30
0.0
 11
20.642813673721481
 21
8.2648201558708951
 31
0.0
 12
22.716629656757402
 22
8.2648201558708951
 32
0.0
 13
22.716629656757402
 23
8.2648201558708951
 33
0.0
  0
SOLID
  5
15A6
  8
0
  6
CONTINUOUS
 62
     4
 10
-20.651443334370821
 20
8.5014401058415441
 30
0.0
 11
-22.735554669767211
 21
8.5014401058415441
 31
0.0
 12
-22.716629656757402
 22
8.2648201558708951
 32
0.0
 13
-22.716629656757402
 23
8.2648201558708951
 33
0.0
210
0.0
220
0.0
230
-1.0
  0
SOLID
  5
15A7
  8
0
  6
CONTINUOUS
 62
     4
 10
20.642813673721481
 20
8.2648201558708951
 30
0.0
 11
20.642373004445759
 21
8.25273727727199
 31
0.0
 12
22.718999083744642
 22
8.25273727727199
 32
0.0
 13
22.718999083744642
 23
8.25273727727199
 33
0.0
210
0.0
220
0.0
230
1.0
  0
SOLID
  5
15A8
  8
0
  6
CONTINUOUS
 62
     4
 10
-20.642813673721481
 20
8.2648201558708951
 30
0.0
 11
-22.716629656757402
 21
8.2648201558708951
 31
0.0
 12
-22.718999083744642
 22
8.25273727727199
 32
0.0
 13
-22.718999083744642
 23
8.25273727727199
 33
0.0
210
0.0
220
0.0
230
-1.0
  0
SOLID
  5
15A9
  8
0
  6
CONTINUOUS
 62
     4
 10
20.642373004445759
 20
8.25273727727199
 30
0.0
 11
20.64936958292677
 21
8.0318811101244627
 31
0.0
 12
22.76230851191243
 22
8.0318811101244627
 32
0.0
 13
22.76230851191243
 23
8.0318811101244627
 33
0.0
  0
SOLID
  5
15AA
  8
0
  6
CONTINUOUS
 62
     4
 10
-20.642373004445759
 20
8.25273727727199
 30
0.0
 11
-22.718999083744642
 21
8.25273727727199
 31
0.0
 12
-22.76230851191243
 22
8.0318811101244627
 32
0.0
 13
-22.76230851191243
 23
8.0318811101244627
 33
0.0
210
0.0
220
0.0
230
-1.0
  0
SOLID
  5
15AB
  8
0
  6
CONTINUOUS
 62
     4
 10
20.64936958292677
 20
8.0318811101244627
 30
0.0
 11
20.6576291451054
 21
7.771157207714471
 31
0.0
 12
23.07094298441357
 22
7.771157207714471
 32
0.0
 13
23.07094298441357
 23
7.771157207714471
 33
0.0
210
0.0
220
0.0
230
1.0
  0
SOLID
  5
15AC
  8
0
  6
CONTINUOUS
 62
     4
 10
-20.64936958292677
 20
8.0318811101244627
 30
0.0
 11
-22.76230851191243
 21
8.0318811101244627
 31
0.0
 12
-23.07094298441357
 22
7.771157207714471
 32
0.0
 13
-23.07094298441357
 23
7.771157207714471
 33
0.0
210
0.0
220
0.0
230
-1.0
  0
SOLID
  5
15AD
  8
0
  6
CONTINUOUS
 62
     4
 10
20.6576291451054
 20
7.771157207714471
 30
0.0
 11
20.658939500887939
 21
7.7297941105209436
 31
0.0
 12
23.244611971873478
 22
7.7297941105209436
 32
0.0
 13
23.244611971873478
 23
7.7297941105209436
 33
0.0
210
0.0
220
0.0
230
1.0
  0
SOLID
  5
15AE
  8
0
  6
CONTINUOUS
 62
     4
 10
-20.6576291451054
 20
7.771157207714471
 30
0.0
 11
-23.07094298441357
 21
7.771157207714471
 31
0.0
 12
-23.244611971873478
 22
7.7297941105209436
 32
0.0
 13
-23.244611971873478
 23
7.7297941105209436
 33
0.0
210
0.0
220
0.0
230
-1.0
  0
SOLID
  5
15AF
  8
0
  6
CONTINUOUS
 62
     4
 10
24.813214782167488
 20
8.9511586626376651
 30
0.0
 11
24.813214782167488
 21
7.6775493076214643
 31
0.0
 12
26.85238741681086
 22
7.6775493076214643
 32
0.0
 13
26.85238741681086
 23
7.6775493076214643
 33
0.0
210
0.0
220
0.0
230
1.0
  0
SOLID
  5
15B0
  8
0
  6
CONTINUOUS
 62
     4
 10
-24.813214782167488
 20
8.9511586626376651
 30
0.0
 11
-26.85238741681086
 21
8.9511586626376651
 31
0.0
 12
-26.85238741681086
 22
7.6775493076214643
 32
0.0
 13
-26.85238741681086
 23
7.6775493076214643
 33
0.0
210
0.0
220
0.0
230
-1.0
  0
SOLID
  5
15B1
  8
0
  6
CONTINUOUS
 62
     4
 10
20.658939500887939
 20
7.7297941105209436
 30
0.0
 11
20.673325903303219
 21
7.6775493076214643
 31
0.0
 12
23.463969385491321
 22
7.6775493076214643
 32
0.0
 13
23.463969385491321
 23
7.6775493076214643
 33
0.0
210
0.0
220
0.0
230
1.0
  0
SOLID
  5
15B2
  8
0
  6
CONTINUOUS
 62
     4
 10
-20.658939500887939
 20
7.7297941105209436
 30
0.0
 11
-23.244611971873478
 21
7.7297941105209436
 31
0.0
 12
-23.463969385491321
 22
7.6775493076214643
 32
0.0
 13
-23.463969385491321
 23
7.6775493076214643
 33
0.0
210
0.0
220
0.0
230
-1.0
  0
SOLID
  5
15B3
  8
0
  6
CONTINUOUS
 62
     4
 10
20.673325903303219
 20
7.6775493076214643
 30
0.0
 11
20.797842107812329
 21
7.2253636690866561
 31
0.0
 12
26.85238741681086
 22
7.2253636690866561
 32
0.0
 13
26.85238741681086
 23
7.2253636690866561
 33
0.0
210
0.0
220
0.0
230
1.0
  0
SOLID
  5
15B4
  8
0
  6
CONTINUOUS
 62
     4
 10
-20.673325903303219
 20
7.6775493076214643
 30
0.0
 11
-26.85238741681086
 21
7.6775493076214643
 31
0.0
 12
-26.85238741681086
 22
7.2253636690866561
 32
0.0
 13
-26.85238741681086
 23
7.2253636690866561
 33
0.0
210
0.0
220
0.0
230
-1.0
  0
SOLID
  5
15B5
  8
0
  6
CONTINUOUS
 62
     4
 10
20.797842107812329
 20
7.2253636690866561
 30
0.0
 11
20.989719540574821
 21
6.9013658779097202
 31
0.0
 12
26.85238741681086
 22
6.9013658779097202
 32
0.0
 13
26.85238741681086
 23
6.9013658779097202
 33
0.0
  0
SOLID
  5
15B6
  8
0
  6
CONTINUOUS
 62
     4
 10
-20.797842107812329
 20
7.2253636690866561
 30
0.0
 11
-26.85238741681086
 21
7.2253636690866561
 31
0.0
 12
-26.85238741681086
 22
6.9013658779097202
 32
0.0
 13
-26.85238741681086
 23
6.9013658779097202
 33
0.0
210
0.0
220
0.0
230
-1.0
  0
SOLID
  5
15B7
  8
0
  6
CONTINUOUS
 62
     4
 10
20.989719540574821
 20
6.9013658779097202
 30
0.0
 11
21.26748386512045
 21
6.6471248546645016
 31
0.0
 12
26.85238741681086
 22
6.6471248546645016
 32
0.0
 13
26.85238741681086
 23
6.6471248546645016
 33
0.0
210
0.0
220
0.0
230
1.0
  0
SOLID
  5
15B8
  8
0
  6
CONTINUOUS
 62
     4
 10
-20.989719540574821
 20
6.9013658779097202
 30
0.0
 11
-26.85238741681086
 21
6.9013658779097202
 31
0.0
 12
-26.85238741681086
 22
6.6471248546645016
 32
0.0
 13
-26.85238741681086
 23
6.6471248546645016
 33
0.0
210
0.0
220
0.0
230
-1.0
  0
SOLID
  5
15B9
  8
0
  6
CONTINUOUS
 62
     4
 10
21.26748386512045
 20
6.6471248546645016
 30
0.0
 11
21.822397112474789
 21
6.3822685934078072
 31
0.0
 12
26.85238741681086
 22
6.3822685934078072
 32
0.0
 13
26.85238741681086
 23
6.3822685934078072
 33
0.0
210
0.0
220
0.0
230
1.0
  0
SOLID
  5
15BA
  8
0
  6
CONTINUOUS
 62
     4
 10
-21.26748386512045
 20
6.6471248546645016
 30
0.0
 11
-26.85238741681086
 21
6.6471248546645016
 31
0.0
 12
-26.85238741681086
 22
6.3822685934078072
 32
0.0
 13
-26.85238741681086
 23
6.3822685934078072
 33
0.0
210
0.0
220
0.0
230
-1.0
  0
SOLID
  5
15BB
  8
0
  6
CONTINUOUS
 62
     4
 10
21.822397112474789
 20
6.3822685934078072
 30
0.0
 11
21.850775037621119
 21
6.3780249825224411
 31
0.0
 12
26.85238741681086
 22
6.3780249825224411
 32
0.0
 13
26.85238741681086
 23
6.3780249825224411
 33
0.0
210
0.0
220
0.0
230
1.0
  0
SOLID
  5
15BC
  8
0
  6
CONTINUOUS
 62
     4
 10
-21.822397112474789
 20
6.3822685934078072
 30
0.0
 11
-26.85238741681086
 21
6.3822685934078072
 31
0.0
 12
-26.85238741681086
 22
6.3780249825224411
 32
0.0
 13
-26.85238741681086
 23
6.3780249825224411
 33
0.0
210
0.0
220
0.0
230
-1.0
  0
SOLID
  5
15BD
  8
0
  6
CONTINUOUS
 62
     4
 10
21.850775037621119
 20
6.3780249825224411
 30
0.0
 11
22.285467041116551
 21
6.3130215085791557
 31
0.0
 12
26.079069191562368
 22
6.3130215085791557
 32
0.0
 13
26.079069191562368
 23
6.3130215085791557
 33
0.0
210
0.0
220
0.0
230
1.0
  0
SOLID
  5
15BE
  8
0
  6
CONTINUOUS
 62
     4
 10
-21.850775037621119
 20
6.3780249825224411
 30
0.0
 11
-26.85238741681086
 21
6.3780249825224411
 31
0.0
 12
-26.079069191562368
 22
6.3130215085791557
 32
0.0
 13
-26.079069191562368
 23
6.3130215085791557
 33
0.0
210
0.0
220
0.0
230
-1.0
  0
SOLID
  5
15BF
  8
0
  6
CONTINUOUS
 62
     4
 10
22.285467041116551
 20
6.3130215085791557
 30
0.0
 11
22.43051545779414
 21
6.2913310912303224
 31
0.0
 12
25.303326930936201
 22
6.2913310912303224
 32
0.0
 13
25.303326930936201
 23
6.2913310912303224
 33
0.0
210
0.0
220
0.0
230
1.0
  0
SOLID
  5
15C0
  8
0
  6
CONTINUOUS
 62
     4
 10
-22.285467041116551
 20
6.3130215085791557
 30
0.0
 11
-26.079069191562368
 21
6.3130215085791557
 31
0.0
 12
-25.303326930936201
 22
6.2913310912303224
 32
0.0
 13
-25.303326930936201
 23
6.2913310912303224
 33
0.0
210
0.0
220
0.0
230
-1.0
  0
LINE
  5
15C1
  8
0
  6
CONTINUOUS
 62
     4
 10
23.015468331081149
 20
12.761725249354241
 30
0.0
 11
22.474732851717611
 21
12.71697570444282
 31
0.0
  0
LINE
  5
15C2
  8
0
  6
CONTINUOUS
 62
     4
 10
24.454227930408258
 20
12.761725249354241
 30
0.0
 11
25.15145993421989
 21
12.71697570444282
 31
0.0
  0
LINE
  5
15C3
  8
0
  6
CONTINUOUS
 62
     4
 10
22.474732851717611
 20
12.71697570444282
 30
0.0
 11
22.473477922542319
 21
12.71687185050382
 31
0.0
  0
LINE
  5
15C4
  8
0
  6
CONTINUOUS
 62
     4
 10
25.15145993421989
 20
12.71697570444282
 30
0.0
 11
25.151993375661391
 21
12.71687185050382
 31
0.0
  0
LINE
  5
15C5
  8
0
  6
CONTINUOUS
 62
     4
 10
22.473477922542319
 20
12.71687185050382
 30
0.0
 11
21.94623421576545
 21
12.58353204399163
 31
0.0
  0
LINE
  5
15C6
  8
0
  6
CONTINUOUS
 62
     4
 10
25.151993375661391
 20
12.71687185050382
 30
0.0
 11
25.836887750194141
 21
12.58353204399163
 31
0.0
  0
LINE
  5
15C7
  8
0
  6
CONTINUOUS
 62
     4
 10
21.94623421576545
 20
12.58353204399163
 30
0.0
 11
21.94614682995218
 21
12.583461390664089
 31
0.0
  0
LINE
  5
15C8
  8
0
  6
CONTINUOUS
 62
     4
 10
25.836887750194141
 20
12.58353204399163
 30
0.0
 11
25.837250658074652
 21
12.583461390664089
 31
0.0
  0
LINE
  5
15C9
  8
0
  6
CONTINUOUS
 62
     4
 10
21.94614682995218
 20
12.583461390664089
 30
0.0
 11
21.346644890689259
 21
12.0987510551557
 31
0.0
  0
LINE
  5
15CA
  8
0
  6
CONTINUOUS
 62
     4
 10
25.837250658074652
 20
12.583461390664089
 30
0.0
 11
26.56909861488554
 21
12.0987510551557
 31
0.0
  0
LINE
  5
15CB
  8
0
  6
CONTINUOUS
 62
     4
 10
21.346644890689259
 20
12.0987510551557
 30
0.0
 11
21.14040383518217
 21
11.932000683449891
 31
0.0
  0
LINE
  5
15CC
  8
0
  6
CONTINUOUS
 62
     4
 10
26.56909861488554
 20
12.0987510551557
 30
0.0
 11
26.62595503153107
 21
11.932000683449891
 31
0.0
  0
LINE
  5
15CD
  8
0
  6
CONTINUOUS
 62
     4
 10
21.14040383518217
 20
11.932000683449891
 30
0.0
 11
21.05500954395162
 21
11.491775001953259
 31
0.0
  0
LINE
  5
15CE
  8
0
  6
CONTINUOUS
 62
     4
 10
26.62595503153107
 20
11.932000683449891
 30
0.0
 11
26.7760575740873
 21
11.491775001953259
 31
0.0
  0
LINE
  5
15CF
  8
0
  6
CONTINUOUS
 62
     4
 10
24.532363637744179
 20
11.491775001953259
 30
0.0
 11
24.627542661503639
 21
11.26791232475091
 31
0.0
  0
LINE
  5
15D0
  8
0
  6
CONTINUOUS
 62
     4
 10
26.7760575740873
 20
11.491775001953259
 30
0.0
 11
26.85238741681087
 21
11.26791232475091
 31
0.0
  0
LINE
  5
15D1
  8
0
  6
CONTINUOUS
 62
     4
 10
21.05500954395162
 20
11.491775001953259
 30
0.0
 11
21.002042486913641
 21
11.2187185898043
 31
0.0
  0
LINE
  5
15D2
  8
0
  6
CONTINUOUS
 62
     4
 10
23.226746727748719
 20
11.491775001953259
 30
0.0
 11
23.061911805288169
 21
11.2187185898043
 31
0.0
  0
LINE
  5
15D3
  8
0
  6
CONTINUOUS
 62
     4
 10
24.627542661503639
 20
11.26791232475091
 30
0.0
 11
24.741725930660721
 21
10.999351340244321
 31
0.0
  0
LINE
  5
15D4
  8
0
  6
CONTINUOUS
 62
     4
 10
26.85238741681087
 20
11.26791232475091
 30
0.0
 11
26.85238741681087
 21
10.999351340244321
 31
0.0
  0
LINE
  5
15D5
  8
0
  6
CONTINUOUS
 62
     4
 10
21.002042486913641
 20
11.2187185898043
 30
0.0
 11
20.943068132967419
 21
10.914693288081221
 31
0.0
  0
LINE
  5
15D6
  8
0
  6
CONTINUOUS
 62
     4
 10
23.061911805288169
 20
11.2187185898043
 30
0.0
 11
22.965480628843881
 21
10.914693288081221
 31
0.0
  0
LINE
  5
15D7
  8
0
  6
CONTINUOUS
 62
     4
 10
24.741725930660721
 20
10.999351340244321
 30
0.0
 11
24.813214782167488
 21
10.46906559046751
 31
0.0
  0
LINE
  5
15D8
  8
0
  6
CONTINUOUS
 62
     4
 10
26.85238741681087
 20
10.999351340244321
 30
0.0
 11
26.85238741681087
 21
10.46906559046751
 31
0.0
  0
LINE
  5
15D9
  8
0
  6
CONTINUOUS
 62
     4
 10
22.65427133230396
 20
10.216853593185981
 30
0.0
 11
22.434882565705681
 21
10.19714352993763
 31
0.0
  0
LINE
  5
15DA
  8
0
  6
CONTINUOUS
 62
     4
 10
24.078718816616799
 20
10.216853593185981
 30
0.0
 11
24.448064473450149
 21
10.19714352993763
 31
0.0
  0
LINE
  5
15DB
  8
0
  6
CONTINUOUS
 62
     4
 10
22.434882565705681
 20
10.19714352993763
 30
0.0
 11
22.107286398766998
 21
10.16771202681012
 31
0.0
  0
LINE
  5
15DC
  8
0
  6
CONTINUOUS
 62
     4
 10
24.448064473450149
 20
10.19714352993763
 30
0.0
 11
24.630505424617908
 21
10.16771202681012
 31
0.0
  0
LINE
  5
15DD
  8
0
  6
CONTINUOUS
 62
     4
 10
24.813214782167488
 20
10.46906559046751
 30
0.0
 11
24.813214782167499
 21
10.13823722417548
 31
0.0
  0
LINE
  5
15DE
  8
0
  6
CONTINUOUS
 62
     4
 10
26.85238741681087
 20
10.46906559046751
 30
0.0
 11
26.85238741681087
 21
10.13823722417548
 31
0.0
  0
LINE
  5
15DF
  8
0
  6
CONTINUOUS
 62
     4
 10
22.107286398766998
 20
10.16771202681012
 30
0.0
 11
22.000287186968752
 21
10.13823722417548
 31
0.0
  0
LINE
  5
15E0
  8
0
  6
CONTINUOUS
 62
     4
 10
24.630505424617908
 20
10.16771202681012
 30
0.0
 11
24.813214782167499
 21
10.13823722417548
 31
0.0
  0
LINE
  5
15E1
  8
0
  6
CONTINUOUS
 62
     4
 10
22.000287186968752
 20
10.13823722417548
 30
0.0
 11
21.577819740142921
 21
10.02186118359089
 31
0.0
  0
LINE
  5
15E2
  8
0
  6
CONTINUOUS
 62
     4
 10
26.85238741681087
 20
10.13823722417548
 30
0.0
 11
26.85238741681087
 21
10.02186118359089
 31
0.0
  0
LINE
  5
15E3
  8
0
  6
CONTINUOUS
 62
     4
 10
21.577819740142921
 20
10.02186118359089
 30
0.0
 11
21.12109376134968
 21
9.7362947386209377
 31
0.0
  0
LINE
  5
15E4
  8
0
  6
CONTINUOUS
 62
     4
 10
26.85238741681087
 20
10.02186118359089
 30
0.0
 11
26.85238741681087
 21
9.7362947386209377
 31
0.0
  0
LINE
  5
15E5
  8
0
  6
CONTINUOUS
 62
     4
 10
21.12109376134968
 20
9.7362947386209377
 30
0.0
 11
20.811957480991911
 21
9.2951807234684196
 31
0.0
  0
LINE
  5
15E6
  8
0
  6
CONTINUOUS
 62
     4
 10
26.85238741681087
 20
9.7362947386209377
 30
0.0
 11
26.85238741681086
 21
9.2951807234684196
 31
0.0
  0
LINE
  5
15E7
  8
0
  6
CONTINUOUS
 62
     4
 10
20.811957480991911
 20
9.2951807234684196
 30
0.0
 11
20.710763950783871
 21
8.9511586626376651
 31
0.0
  0
LINE
  5
15E8
  8
0
  6
CONTINUOUS
 62
     4
 10
26.85238741681086
 20
9.2951807234684196
 30
0.0
 11
26.85238741681086
 21
8.9511586626376651
 31
0.0
  0
LINE
  5
15E9
  8
0
  6
CONTINUOUS
 62
     4
 10
20.710763950783871
 20
8.9511586626376651
 30
0.0
 11
20.67359246009369
 21
8.8247887968458283
 31
0.0
  0
LINE
  5
15EA
  8
0
  6
CONTINUOUS
 62
     4
 10
23.294957983802199
 20
8.9511586626376651
 30
0.0
 11
22.93607818216935
 21
8.8247887968458283
 31
0.0
  0
LINE
  5
15EB
  8
0
  6
CONTINUOUS
 62
     4
 10
20.67359246009369
 20
8.8247887968458283
 30
0.0
 11
20.661770239401221
 21
8.7845974455029499
 31
0.0
  0
LINE
  5
15EC
  8
0
  6
CONTINUOUS
 62
     4
 10
22.93607818216935
 20
8.8247887968458283
 30
0.0
 11
22.91115366209651
 21
8.7845974455029499
 31
0.0
  0
LINE
  5
15ED
  8
0
  6
CONTINUOUS
 62
     4
 10
20.661770239401221
 20
8.7845974455029499
 30
0.0
 11
20.651443334370821
 21
8.5014401058415441
 31
0.0
  0
LINE
  5
15EE
  8
0
  6
CONTINUOUS
 62
     4
 10
22.91115366209651
 20
8.7845974455029499
 30
0.0
 11
22.735554669767211
 21
8.5014401058415441
 31
0.0
  0
LINE
  5
15EF
  8
0
  6
CONTINUOUS
 62
     4
 10
20.651443334370821
 20
8.5014401058415441
 30
0.0
 11
20.642813673721481
 21
8.2648201558708951
 31
0.0
  0
LINE
  5
15F0
  8
0
  6
CONTINUOUS
 62
     4
 10
22.735554669767211
 20
8.5014401058415441
 30
0.0
 11
22.716629656757402
 21
8.2648201558708951
 31
0.0
  0
LINE
  5
15F1
  8
0
  6
CONTINUOUS
 62
     4
 10
20.642813673721481
 20
8.2648201558708951
 30
0.0
 11
20.642373004445759
 21
8.25273727727199
 31
0.0
  0
LINE
  5
15F2
  8
0
  6
CONTINUOUS
 62
     4
 10
22.716629656757402
 20
8.2648201558708951
 30
0.0
 11
22.718999083744642
 21
8.25273727727199
 31
0.0
  0
LINE
  5
15F3
  8
0
  6
CONTINUOUS
 62
     4
 10
20.642373004445759
 20
8.25273727727199
 30
0.0
 11
20.64936958292677
 21
8.0318811101244627
 31
0.0
  0
LINE
  5
15F4
  8
0
  6
CONTINUOUS
 62
     4
 10
22.718999083744642
 20
8.25273727727199
 30
0.0
 11
22.76230851191243
 21
8.0318811101244627
 31
0.0
  0
LINE
  5
15F5
  8
0
  6
CONTINUOUS
 62
     4
 10
20.64936958292677
 20
8.0318811101244627
 30
0.0
 11
20.6576291451054
 21
7.771157207714471
 31
0.0
  0
LINE
  5
15F6
  8
0
  6
CONTINUOUS
 62
     4
 10
22.76230851191243
 20
8.0318811101244627
 30
0.0
 11
23.07094298441357
 21
7.771157207714471
 31
0.0
  0
LINE
  5
15F7
  8
0
  6
CONTINUOUS
 62
     4
 10
20.6576291451054
 20
7.771157207714471
 30
0.0
 11
20.658939500887939
 21
7.7297941105209436
 31
0.0
  0
LINE
  5
15F8
  8
0
  6
CONTINUOUS
 62
     4
 10
23.07094298441357
 20
7.771157207714471
 30
0.0
 11
23.244611971873478
 21
7.7297941105209436
 31
0.0
  0
LINE
  5
15F9
  8
0
  6
CONTINUOUS
 62
     4
 10
24.813214782167488
 20
8.9511586626376651
 30
0.0
 11
24.813214782167488
 21
7.6775493076214643
 31
0.0
  0
LINE
  5
15FA
  8
0
  6
CONTINUOUS
 62
     4
 10
26.85238741681086
 20
8.9511586626376651
 30
0.0
 11
26.85238741681086
 21
7.6775493076214643
 31
0.0
  0
LINE
  5
15FB
  8
0
  6
CONTINUOUS
 62
     4
 10
20.658939500887939
 20
7.7297941105209436
 30
0.0
 11
20.673325903303219
 21
7.6775493076214643
 31
0.0
  0
LINE
  5
15FC
  8
0
  6
CONTINUOUS
 62
     4
 10
23.244611971873478
 20
7.7297941105209436
 30
0.0
 11
23.463969385491321
 21
7.6775493076214643
 31
0.0
  0
LINE
  5
15FD
  8
0
  6
CONTINUOUS
 62
     4
 10
20.673325903303219
 20
7.6775493076214643
 30
0.0
 11
20.797842107812329
 21
7.2253636690866561
 31
0.0
  0
LINE
  5
15FE
  8
0
  6
CONTINUOUS
 62
     4
 10
26.85238741681086
 20
7.6775493076214643
 30
0.0
 11
26.85238741681086
 21
7.2253636690866561
 31
0.0
  0
LINE
  5
15FF
  8
0
  6
CONTINUOUS
 62
     4
 10
20.797842107812329
 20
7.2253636690866561
 30
0.0
 11
20.989719540574821
 21
6.9013658779097202
 31
0.0
  0
LINE
  5
1600
  8
0
  6
CONTINUOUS
 62
     4
 10
26.85238741681086
 20
7.2253636690866561
 30
0.0
 11
26.85238741681086
 21
6.9013658779097202
 31
0.0
  0
LINE
  5
1601
  8
0
  6
CONTINUOUS
 62
     4
 10
20.989719540574821
 20
6.9013658779097202
 30
0.0
 11
21.26748386512045
 21
6.6471248546645016
 31
0.0
  0
LINE
  5
1602
  8
0
  6
CONTINUOUS
 62
     4
 10
26.85238741681086
 20
6.9013658779097202
 30
0.0
 11
26.85238741681086
 21
6.6471248546645016
 31
0.0
  0
LINE
  5
1603
  8
0
  6
CONTINUOUS
 62
     4
 10
21.26748386512045
 20
6.6471248546645016
 30
0.0
 11
21.822397112474789
 21
6.3822685934078072
 31
0.0
  0
LINE
  5
1604
  8
0
  6
CONTINUOUS
 62
     4
 10
26.85238741681086
 20
6.6471248546645016
 30
0.0
 11
26.85238741681086
 21
6.3822685934078072
 31
0.0
  0
LINE
  5
1605
  8
0
  6
CONTINUOUS
 62
     4
 10
21.822397112474789
 20
6.3822685934078072
 30
0.0
 11
21.850775037621119
 21
6.3780249825224411
 31
0.0
  0
LINE
  5
1606
  8
0
  6
CONTINUOUS
 62
     4
 10
26.85238741681086
 20
6.3822685934078072
 30
0.0
 11
26.85238741681086
 21
6.3780249825224411
 31
0.0
  0
LINE
  5
1607
  8
0
  6
CONTINUOUS
 62
     4
 10
21.850775037621119
 20
6.3780249825224411
 30
0.0
 11
22.285467041116551
 21
6.3130215085791557
 31
0.0
  0
LINE
  5
1608
  8
0
  6
CONTINUOUS
 62
     4
 10
26.85238741681086
 20
6.3780249825224411
 30
0.0
 11
26.079069191562368
 21
6.3130215085791557
 31
0.0
  0
LINE
  5
1609
  8
0
  6
CONTINUOUS
 62
     4
 10
22.285467041116551
 20
6.3130215085791557
 30
0.0
 11
22.43051545779414
 21
6.2913310912303224
 31
0.0
  0
LINE
  5
160A
  8
0
  6
CONTINUOUS
 62
     4
 10
26.079069191562368
 20
6.3130215085791557
 30
0.0
 11
25.303326930936201
 21
6.2913310912303224
 31
0.0
  0
ENDBLK
  5
160C
  8
0
  0
BLOCK
  8
0
  2
*U88
 70
     1
 10
0.0
 20
0.0
 30
0.0
  3
*U88
  1

  0
SOLID
  5
1630
  8
0
  6
CONTINUOUS
 62
     4
 10
15.732202760291161
 20
12.761725249354241
 30
0.0
 11
15.19146728092762
 21
12.71697570444282
 31
0.0
 12
17.868194363429961
 22
12.71697570444282
 32
0.0
 13
17.868194363429961
 23
12.71697570444282
 33
0.0
210
0.0
220
0.0
230
1.0
  0
SOLID
  5
1631
  8
0
  6
CONTINUOUS
 62
     4
 10
-15.732202760291161
 20
12.761725249354241
 30
0.0
 11
-17.170962359618301
 21
12.761725249354241
 31
0.0
 12
-17.868194363429961
 22
12.71697570444282
 32
0.0
 13
-17.868194363429961
 23
12.71697570444282
 33
0.0
210
0.0
220
0.0
230
-1.0
  0
SOLID
  5
1632
  8
0
  6
CONTINUOUS
 62
     4
 10
15.19146728092762
 20
12.71697570444282
 30
0.0
 11
15.19021235175237
 21
12.71687185050382
 31
0.0
 12
17.868727804871451
 22
12.71687185050382
 32
0.0
 13
17.868727804871451
 23
12.71687185050382
 33
0.0
210
0.0
220
0.0
230
1.0
  0
SOLID
  5
1633
  8
0
  6
CONTINUOUS
 62
     4
 10
-15.19146728092762
 20
12.71697570444282
 30
0.0
 11
-17.868194363429961
 21
12.71697570444282
 31
0.0
 12
-17.868727804871451
 22
12.71687185050382
 32
0.0
 13
-17.868727804871451
 23
12.71687185050382
 33
0.0
210
0.0
220
0.0
230
-1.0
  0
SOLID
  5
1634
  8
0
  6
CONTINUOUS
 62
     4
 10
15.19021235175237
 20
12.71687185050382
 30
0.0
 11
14.6629686449755
 21
12.583532043991619
 31
0.0
 12
18.553622179404218
 22
12.583532043991619
 32
0.0
 13
18.553622179404218
 23
12.583532043991619
 33
0.0
210
0.0
220
0.0
230
1.0
  0
SOLID
  5
1635
  8
0
  6
CONTINUOUS
 62
     4
 10
-15.19021235175237
 20
12.71687185050382
 30
0.0
 11
-17.868727804871451
 21
12.71687185050382
 31
0.0
 12
-18.553622179404218
 22
12.583532043991619
 32
0.0
 13
-18.553622179404218
 23
12.583532043991619
 33
0.0
210
0.0
220
0.0
230
-1.0
  0
SOLID
  5
1636
  8
0
  6
CONTINUOUS
 62
     4
 10
14.6629686449755
 20
12.583532043991619
 30
0.0
 11
14.662873830390399
 21
12.583461390664089
 31
0.0
 12
18.553985087284708
 22
12.583461390664089
 32
0.0
 13
18.553985087284708
 23
12.583461390664089
 33
0.0
210
0.0
220
0.0
230
1.0
  0
SOLID
  5
1637
  8
0
  6
CONTINUOUS
 62
     4
 10
-14.6629686449755
 20
12.583532043991619
 30
0.0
 11
-18.553622179404218
 21
12.583532043991619
 31
0.0
 12
-18.553985087284708
 22
12.583461390664089
 32
0.0
 13
-18.553985087284708
 23
12.583461390664089
 33
0.0
210
0.0
220
0.0
230
-1.0
  0
SOLID
  5
1638
  8
0
  6
CONTINUOUS
 62
     4
 10
14.662873830390399
 20
12.583461390664089
 30
0.0
 11
13.922697163314391
 21
12.03190126487484
 31
0.0
 12
19.278528596291071
 22
12.03190126487484
 32
0.0
 13
19.278528596291071
 23
12.03190126487484
 33
0.0
210
0.0
220
0.0
230
1.0
  0
SOLID
  5
1639
  8
0
  6
CONTINUOUS
 62
     4
 10
-14.662873830390399
 20
12.583461390664089
 30
0.0
 11
-18.553985087284708
 21
12.583461390664089
 31
0.0
 12
-19.278528596291071
 22
12.03190126487484
 32
0.0
 13
-19.278528596291071
 23
12.03190126487484
 33
0.0
210
0.0
220
0.0
230
-1.0
  0
SOLID
  5
163A
  8
0
  6
CONTINUOUS
 62
     4
 10
13.922697163314391
 20
12.03190126487484
 30
0.0
 11
13.89662821361563
 21
11.95055560779519
 31
0.0
 12
19.385386335034578
 22
11.95055560779519
 32
0.0
 13
19.385386335034578
 23
11.95055560779519
 33
0.0
  0
SOLID
  5
163B
  8
0
  6
CONTINUOUS
 62
     4
 10
-13.922697163314391
 20
12.03190126487484
 30
0.0
 11
-19.278528596291071
 21
12.03190126487484
 31
0.0
 12
-19.385386335034578
 22
11.95055560779519
 32
0.0
 13
-19.385386335034578
 23
11.95055560779519
 33
0.0
210
0.0
220
0.0
230
-1.0
  0
SOLID
  5
163C
  8
0
  6
CONTINUOUS
 62
     4
 10
13.89662821361563
 20
11.95055560779519
 30
0.0
 11
13.745643798513409
 21
11.47942322244014
 31
0.0
 12
19.447726775167091
 22
11.47942322244014
 32
0.0
 13
19.447726775167091
 23
11.47942322244014
 33
0.0
210
0.0
220
0.0
230
1.0
  0
SOLID
  5
163D
  8
0
  6
CONTINUOUS
 62
     4
 10
-13.89662821361563
 20
11.95055560779519
 30
0.0
 11
-19.385386335034578
 21
11.95055560779519
 31
0.0
 12
-19.447726775167091
 22
11.47942322244014
 32
0.0
 13
-19.447726775167091
 23
11.47942322244014
 33
0.0
210
0.0
220
0.0
230
-1.0
  0
SOLID
  5
163E
  8
0
  6
CONTINUOUS
 62
     4
 10
13.745643798513409
 20
11.47942322244014
 30
0.0
 11
13.72711729402053
 21
11.421613042176761
 31
0.0
 12
16.048738140931579
 22
11.421613042176761
 32
0.0
 13
16.048738140931579
 23
11.421613042176761
 33
0.0
210
0.0
220
0.0
230
1.0
  0
SOLID
  5
163F
  8
0
  6
CONTINUOUS
 62
     4
 10
-13.745643798513409
 20
11.47942322244014
 30
0.0
 11
-16.494530878027291
 21
11.47942322244014
 31
0.0
 12
-16.048738140931579
 22
11.421613042176761
 32
0.0
 13
-16.048738140931579
 23
11.421613042176761
 33
0.0
210
0.0
220
0.0
230
-1.0
  0
SOLID
  5
1640
  8
0
  6
CONTINUOUS
 62
     4
 10
16.877275021253151
 20
11.47942322244014
 30
0.0
 11
17.334385593995449
 21
11.321359580031929
 31
0.0
 12
19.468641824403718
 22
11.321359580031929
 32
0.0
 13
19.468641824403718
 23
11.321359580031929
 33
0.0
210
0.0
220
0.0
230
1.0
  0
SOLID
  5
1641
  8
0
  6
CONTINUOUS
 62
     4
 10
-16.877275021253151
 20
11.47942322244014
 30
0.0
 11
-19.447726775167091
 21
11.47942322244014
 31
0.0
 12
-19.468641824403718
 22
11.321359580031929
 32
0.0
 13
-19.468641824403718
 23
11.321359580031929
 33
0.0
210
0.0
220
0.0
230
-1.0
  0
SOLID
  5
1642
  8
0
  6
CONTINUOUS
 62
     4
 10
13.72711729402053
 20
11.421613042176761
 30
0.0
 11
13.67266282076142
 21
11.25169308148118
 31
0.0
 12
15.63256463342951
 22
11.25169308148118
 32
0.0
 13
15.63256463342951
 23
11.25169308148118
 33
0.0
210
0.0
220
0.0
230
1.0
  0
SOLID
  5
1643
  8
0
  6
CONTINUOUS
 62
     4
 10
-13.72711729402053
 20
11.421613042176761
 30
0.0
 11
-16.048738140931579
 21
11.421613042176761
 31
0.0
 12
-15.63256463342951
 22
11.25169308148118
 32
0.0
 13
-15.63256463342951
 23
11.25169308148118
 33
0.0
210
0.0
220
0.0
230
-1.0
  0
SOLID
  5
1644
  8
0
  6
CONTINUOUS
 62
     4
 10
13.67266282076142
 20
11.25169308148118
 30
0.0
 11
13.64095234308947
 21
11.15274357747959
 31
0.0
 12
15.63256463342951
 22
11.15274357747959
 32
0.0
 13
15.63256463342951
 23
11.15274357747959
 33
0.0
210
0.0
220
0.0
230
1.0
  0
SOLID
  5
1645
  8
0
  6
CONTINUOUS
 62
     4
 10
-13.67266282076142
 20
11.25169308148118
 30
0.0
 11
-15.63256463342951
 21
11.25169308148118
 31
0.0
 12
-15.63256463342951
 22
11.15274357747959
 32
0.0
 13
-15.63256463342951
 23
11.15274357747959
 33
0.0
210
0.0
220
0.0
230
-1.0
  0
SOLID
  5
1646
  8
0
  6
CONTINUOUS
 62
     4
 10
17.334385593995449
 20
11.321359580031929
 30
0.0
 11
17.596218971843289
 21
10.914693288081221
 31
0.0
 12
19.522452083293391
 22
10.914693288081221
 32
0.0
 13
19.522452083293391
 23
10.914693288081221
 33
0.0
210
0.0
220
0.0
230
1.0
  0
SOLID
  5
1647
  8
0
  6
CONTINUOUS
 62
     4
 10
-17.334385593995449
 20
11.321359580031929
 30
0.0
 11
-19.468641824403718
 21
11.321359580031929
 31
0.0
 12
-19.522452083293391
 22
10.914693288081221
 32
0.0
 13
-19.522452083293391
 23
10.914693288081221
 33
0.0
210
0.0
220
0.0
230
-1.0
  0
SOLID
  5
1648
  8
0
  6
CONTINUOUS
 62
     4
 10
13.64095234308947
 20
11.15274357747959
 30
0.0
 11
13.64095234308947
 21
10.914693288081221
 31
0.0
 12
15.63256463342951
 22
10.914693288081221
 32
0.0
 13
15.63256463342951
 23
10.914693288081221
 33
0.0
  0
SOLID
  5
1649
  8
0
  6
CONTINUOUS
 62
     4
 10
-13.64095234308947
 20
11.15274357747959
 30
0.0
 11
-15.63256463342951
 21
11.15274357747959
 31
0.0
 12
-15.63256463342951
 22
10.914693288081221
 32
0.0
 13
-15.63256463342951
 23
10.914693288081221
 33
0.0
210
0.0
220
0.0
230
-1.0
  0
SOLID
  5
164A
  8
0
  6
CONTINUOUS
 62
     4
 10
13.64095234308947
 20
10.914693288081221
 30
0.0
 11
13.64095234308947
 21
10.57769349468129
 31
0.0
 12
15.63256463342951
 22
10.57769349468129
 32
0.0
 13
15.63256463342951
 23
10.57769349468129
 33
0.0
  0
SOLID
  5
164B
  8
0
  6
CONTINUOUS
 62
     4
 10
-13.64095234308947
 20
10.914693288081221
 30
0.0
 11
-15.63256463342951
 21
10.914693288081221
 31
0.0
 12
-15.63256463342951
 22
10.57769349468129
 32
0.0
 13
-15.63256463342951
 23
10.57769349468129
 33
0.0
210
0.0
220
0.0
230
-1.0
  0
SOLID
  5
164C
  8
0
  6
CONTINUOUS
 62
     4
 10
13.64095234308947
 20
10.57769349468129
 30
0.0
 11
13.64095234308947
 21
10.411815209523819
 31
0.0
 12
16.033712217722989
 22
10.411815209523819
 32
0.0
 13
16.033712217722989
 23
10.411815209523819
 33
0.0
210
0.0
220
0.0
230
1.0
  0
SOLID
  5
164D
  8
0
  6
CONTINUOUS
 62
     4
 10
-13.64095234308947
 20
10.57769349468129
 30
0.0
 11
-15.63256463342951
 21
10.57769349468129
 31
0.0
 12
-16.033712217722989
 22
10.411815209523819
 32
0.0
 13
-16.033712217722989
 23
10.411815209523819
 33
0.0
210
0.0
220
0.0
230
-1.0
  0
SOLID
  5
164E
  8
0
  6
CONTINUOUS
 62
     4
 10
13.64095234308947
 20
10.411815209523819
 30
0.0
 11
13.64095234308947
 21
10.350229482990599
 31
0.0
 12
16.463412331940621
 22
10.350229482990599
 32
0.0
 13
16.463412331940621
 23
10.350229482990599
 33
0.0
210
0.0
220
0.0
230
1.0
  0
SOLID
  5
164F
  8
0
  6
CONTINUOUS
 62
     4
 10
-13.64095234308947
 20
10.411815209523819
 30
0.0
 11
-16.033712217722989
 21
10.411815209523819
 31
0.0
 12
-16.463412331940621
 22
10.350229482990599
 32
0.0
 13
-16.463412331940621
 23
10.350229482990599
 33
0.0
210
0.0
220
0.0
230
-1.0
  0
SOLID
  5
1650
  8
0
  6
CONTINUOUS
 62
     4
 10
13.64095234308947
 20
10.350229482990599
 30
0.0
 11
13.64095234308947
 21
10.32774341607765
 31
0.0
 12
17.74961158496421
 22
10.32774341607765
 32
0.0
 13
17.74961158496421
 23
10.32774341607765
 33
0.0
210
0.0
220
0.0
230
1.0
  0
SOLID
  5
1651
  8
0
  6
CONTINUOUS
 62
     4
 10
-13.64095234308947
 20
10.350229482990599
 30
0.0
 11
-16.463412331940621
 21
10.350229482990599
 31
0.0
 12
-17.74961158496421
 22
10.32774341607765
 32
0.0
 13
-17.74961158496421
 23
10.32774341607765
 33
0.0
210
0.0
220
0.0
230
-1.0
  0
SOLID
  5
1652
  8
0
  6
CONTINUOUS
 62
     4
 10
13.64095234308947
 20
10.32774341607765
 30
0.0
 11
13.643600072413561
 21
10.31867636594944
 31
0.0
 12
18.268245330349121
 22
10.31867636594944
 32
0.0
 13
18.268245330349121
 23
10.31867636594944
 33
0.0
210
0.0
220
0.0
230
1.0
  0
SOLID
  5
1653
  8
0
  6
CONTINUOUS
 62
     4
 10
-13.64095234308947
 20
10.32774341607765
 30
0.0
 11
-17.74961158496421
 21
10.32774341607765
 31
0.0
 12
-18.268245330349121
 22
10.31867636594944
 32
0.0
 13
-18.268245330349121
 23
10.31867636594944
 33
0.0
210
0.0
220
0.0
230
-1.0
  0
SOLID
  5
1654
  8
0
  6
CONTINUOUS
 62
     4
 10
13.643600072413561
 20
10.31867636594944
 30
0.0
 11
13.773307120516479
 21
9.874499426701238
 31
0.0
 12
19.36739400057861
 22
9.874499426701238
 32
0.0
 13
19.36739400057861
 23
9.874499426701238
 33
0.0
210
0.0
220
0.0
230
1.0
  0
SOLID
  5
1655
  8
0
  6
CONTINUOUS
 62
     4
 10
-13.643600072413561
 20
10.31867636594944
 30
0.0
 11
-18.268245330349121
 21
10.31867636594944
 31
0.0
 12
-19.36739400057861
 22
9.874499426701238
 32
0.0
 13
-19.36739400057861
 23
9.874499426701238
 33
0.0
210
0.0
220
0.0
230
-1.0
  0
SOLID
  5
1656
  8
0
  6
CONTINUOUS
 62
     4
 10
13.773307120516479
 20
9.874499426701238
 30
0.0
 11
13.84267356698599
 21
9.6369566228984578
 31
0.0
 12
19.483204032608239
 22
9.6369566228984578
 32
0.0
 13
19.483204032608239
 23
9.6369566228984578
 33
0.0
210
0.0
220
0.0
230
1.0
  0
SOLID
  5
1657
  8
0
  6
CONTINUOUS
 62
     4
 10
-13.773307120516479
 20
9.874499426701238
 30
0.0
 11
-19.36739400057861
 21
9.874499426701238
 31
0.0
 12
-19.483204032608239
 22
9.6369566228984578
 32
0.0
 13
-19.483204032608239
 23
9.6369566228984578
 33
0.0
210
0.0
220
0.0
230
-1.0
  0
SOLID
  5
1658
  8
0
  6
CONTINUOUS
 62
     4
 10
13.84267356698599
 20
9.6369566228984578
 30
0.0
 11
14.384437503773
 21
9.1632798527290227
 31
0.0
 12
19.714137241473448
 22
9.1632798527290227
 32
0.0
 13
19.714137241473448
 23
9.1632798527290227
 33
0.0
210
0.0
220
0.0
230
1.0
  0
SOLID
  5
1659
  8
0
  6
CONTINUOUS
 62
     4
 10
-13.84267356698599
 20
9.6369566228984578
 30
0.0
 11
-19.483204032608239
 21
9.6369566228984578
 31
0.0
 12
-19.714137241473448
 22
9.1632798527290227
 32
0.0
 13
-19.714137241473448
 23
9.1632798527290227
 33
0.0
210
0.0
220
0.0
230
-1.0
  0
SOLID
  5
165A
  8
0
  6
CONTINUOUS
 62
     4
 10
14.384437503773
 20
9.1632798527290227
 30
0.0
 11
15.168197024638131
 21
8.8985413362032801
 31
0.0
 12
19.84320608964525
 22
8.8985413362032801
 32
0.0
 13
19.84320608964525
 23
8.8985413362032801
 33
0.0
210
0.0
220
0.0
230
1.0
  0
SOLID
  5
165B
  8
0
  6
CONTINUOUS
 62
     4
 10
-14.384437503773
 20
9.1632798527290227
 30
0.0
 11
-19.714137241473448
 21
9.1632798527290227
 31
0.0
 12
-19.84320608964525
 22
8.8985413362032801
 32
0.0
 13
-19.84320608964525
 23
8.8985413362032801
 33
0.0
210
0.0
220
0.0
230
-1.0
  0
SOLID
  5
165C
  8
0
  6
CONTINUOUS
 62
     4
 10
15.168197024638131
 20
8.8985413362032801
 30
0.0
 11
15.9905888738613
 21
8.8088913779752644
 31
0.0
 12
19.886913431512198
 22
8.8088913779752644
 32
0.0
 13
19.886913431512198
 23
8.8088913779752644
 33
0.0
210
0.0
220
0.0
230
1.0
  0
SOLID
  5
165D
  8
0
  6
CONTINUOUS
 62
     4
 10
-15.168197024638131
 20
8.8985413362032801
 30
0.0
 11
-19.84320608964525
 21
8.8985413362032801
 31
0.0
 12
-19.886913431512198
 22
8.8088913779752644
 32
0.0
 13
-19.886913431512198
 23
8.8088913779752644
 33
0.0
210
0.0
220
0.0
230
-1.0
  0
SOLID
  5
165E
  8
0
  6
CONTINUOUS
 62
     4
 10
17.289494074157052
 20
8.8088913779752644
 30
0.0
 11
17.667594337462049
 21
8.6522771209774945
 31
0.0
 12
19.888650916205979
 22
8.6522771209774945
 32
0.0
 13
19.888650916205979
 23
8.6522771209774945
 33
0.0
  0
SOLID
  5
165F
  8
0
  6
CONTINUOUS
 62
     4
 10
-17.289494074157052
 20
8.8088913779752644
 30
0.0
 11
-19.886913431512198
 21
8.8088913779752644
 31
0.0
 12
-19.888650916205979
 22
8.6522771209774945
 32
0.0
 13
-19.888650916205979
 23
8.6522771209774945
 33
0.0
210
0.0
220
0.0
230
-1.0
  0
SOLID
  5
1660
  8
0
  6
CONTINUOUS
 62
     4
 10
17.667594337462049
 20
8.6522771209774945
 30
0.0
 11
17.824208594459819
 21
8.2741768576724883
 31
0.0
 12
19.89284557531812
 22
8.2741768576724883
 32
0.0
 13
19.89284557531812
 23
8.2741768576724883
 33
0.0
210
0.0
220
0.0
230
1.0
  0
SOLID
  5
1661
  8
0
  6
CONTINUOUS
 62
     4
 10
-17.667594337462049
 20
8.6522771209774945
 30
0.0
 11
-19.888650916205979
 21
8.6522771209774945
 31
0.0
 12
-19.89284557531812
 22
8.2741768576724883
 32
0.0
 13
-19.89284557531812
 23
8.2741768576724883
 33
0.0
210
0.0
220
0.0
230
-1.0
  0
SOLID
  5
1662
  8
0
  6
CONTINUOUS
 62
     4
 10
17.824208594459819
 20
8.2741768576724883
 30
0.0
 11
17.824208594459819
 21
8.2442836998577516
 31
0.0
 12
19.893177211180308
 22
8.2442836998577516
 32
0.0
 13
19.893177211180308
 23
8.2442836998577516
 33
0.0
  0
SOLID
  5
1663
  8
0
  6
CONTINUOUS
 62
     4
 10
-17.824208594459819
 20
8.2741768576724883
 30
0.0
 11
-19.89284557531812
 21
8.2741768576724883
 31
0.0
 12
-19.893177211180308
 22
8.2442836998577516
 32
0.0
 13
-19.893177211180308
 23
8.2442836998577516
 33
0.0
210
0.0
220
0.0
230
-1.0
  0
SOLID
  5
1664
  8
0
  6
CONTINUOUS
 62
     4
 10
17.824208594459819
 20
8.2442836998577516
 30
0.0
 11
17.824208594459812
 21
7.9950657396160656
 31
0.0
 12
19.84012867592326
 22
7.9950657396160656
 32
0.0
 13
19.84012867592326
 23
7.9950657396160656
 33
0.0
210
0.0
220
0.0
230
1.0
  0
SOLID
  5
1665
  8
0
  6
CONTINUOUS
 62
     4
 10
-17.824208594459819
 20
8.2442836998577516
 30
0.0
 11
-19.893177211180308
 21
8.2442836998577516
 31
0.0
 12
-19.84012867592326
 22
7.9950657396160656
 32
0.0
 13
-19.84012867592326
 23
7.9950657396160656
 33
0.0
210
0.0
220
0.0
230
-1.0
  0
SOLID
  5
1666
  8
0
  6
CONTINUOUS
 62
     4
 10
13.67877588744186
 20
8.316935590030166
 30
0.0
 11
13.722085603626279
 21
7.9239696906426538
 31
0.0
 12
15.816108651767109
 22
7.9239696906426538
 32
0.0
 13
15.816108651767109
 23
7.9239696906426538
 33
0.0
210
0.0
220
0.0
230
1.0
  0
SOLID
  5
1667
  8
0
  6
CONTINUOUS
 62
     4
 10
-13.67877588744186
 20
8.316935590030166
 30
0.0
 11
-15.694790245108379
 21
8.316935590030166
 31
0.0
 12
-15.816108651767109
 22
7.9239696906426538
 32
0.0
 13
-15.816108651767109
 23
7.9239696906426538
 33
0.0
210
0.0
220
0.0
230
-1.0
  0
SOLID
  5
1668
  8
0
  6
CONTINUOUS
 62
     4
 10
17.824208594459812
 20
7.9950657396160656
 30
0.0
 11
17.710606984571289
 21
7.7208071923157711
 31
0.0
 12
19.781750001280798
 22
7.7208071923157711
 32
0.0
 13
19.781750001280798
 23
7.7208071923157711
 33
0.0
210
0.0
220
0.0
230
1.0
  0
SOLID
  5
1669
  8
0
  6
CONTINUOUS
 62
     4
 10
-17.824208594459812
 20
7.9950657396160656
 30
0.0
 11
-19.84012867592326
 21
7.9950657396160656
 31
0.0
 12
-19.781750001280798
 22
7.7208071923157711
 32
0.0
 13
-19.781750001280798
 23
7.7208071923157711
 33
0.0
210
0.0
220
0.0
230
-1.0
  0
SOLID
  5
166A
  8
0
  6
CONTINUOUS
 62
     4
 10
13.722085603626279
 20
7.9239696906426538
 30
0.0
 11
13.75032052220979
 21
7.6677832929286636
 31
0.0
 12
16.13783661682762
 22
7.6677832929286636
 32
0.0
 13
16.13783661682762
 23
7.6677832929286636
 33
0.0
210
0.0
220
0.0
230
1.0
  0
SOLID
  5
166B
  8
0
  6
CONTINUOUS
 62
     4
 10
-13.722085603626279
 20
7.9239696906426538
 30
0.0
 11
-15.816108651767109
 21
7.9239696906426538
 31
0.0
 12
-16.13783661682762
 22
7.6677832929286636
 32
0.0
 13
-16.13783661682762
 23
7.6677832929286636
 33
0.0
210
0.0
220
0.0
230
-1.0
  0
SOLID
  5
166C
  8
0
  6
CONTINUOUS
 62
     4
 10
13.75032052220979
 20
7.6677832929286636
 30
0.0
 11
13.75531323294336
 21
7.6224824866281287
 31
0.0
 12
16.295510768765968
 22
7.6224824866281287
 32
0.0
 13
16.295510768765968
 23
7.6224824866281287
 33
0.0
210
0.0
220
0.0
230
1.0
  0
SOLID
  5
166D
  8
0
  6
CONTINUOUS
 62
     4
 10
-13.75032052220979
 20
7.6677832929286636
 30
0.0
 11
-16.13783661682762
 21
7.6677832929286636
 31
0.0
 12
-16.295510768765968
 22
7.6224824866281287
 32
0.0
 13
-16.295510768765968
 23
7.6224824866281287
 33
0.0
210
0.0
220
0.0
230
-1.0
  0
SOLID
  5
166E
  8
0
  6
CONTINUOUS
 62
     4
 10
17.710606984571289
 20
7.7208071923157711
 30
0.0
 11
17.436348437270979
 21
7.607205582427242
 31
0.0
 12
19.757568762490521
 22
7.607205582427242
 32
0.0
 13
19.757568762490521
 23
7.607205582427242
 33
0.0
210
0.0
220
0.0
230
1.0
  0
SOLID
  5
166F
  8
0
  6
CONTINUOUS
 62
     4
 10
-17.710606984571289
 20
7.7208071923157711
 30
0.0
 11
-19.781750001280798
 21
7.7208071923157711
 31
0.0
 12
-19.757568762490521
 22
7.607205582427242
 32
0.0
 13
-19.757568762490521
 23
7.607205582427242
 33
0.0
210
0.0
220
0.0
230
-1.0
  0
SOLID
  5
1670
  8
0
  6
CONTINUOUS
 62
     4
 10
13.75531323294336
 20
7.6224824866281287
 30
0.0
 11
13.75699693727025
 21
7.607205582427242
 31
0.0
 12
16.458850651951291
 22
7.607205582427242
 32
0.0
 13
16.458850651951291
 23
7.607205582427242
 33
0.0
210
0.0
220
0.0
230
1.0
  0
SOLID
  5
1671
  8
0
  6
CONTINUOUS
 62
     4
 10
-13.75531323294336
 20
7.6224824866281287
 30
0.0
 11
-16.295510768765968
 21
7.6224824866281287
 31
0.0
 12
-16.458850651951291
 22
7.607205582427242
 32
0.0
 13
-16.458850651951291
 23
7.607205582427242
 33
0.0
210
0.0
220
0.0
230
-1.0
  0
SOLID
  5
1672
  8
0
  6
CONTINUOUS
 62
     4
 10
13.75699693727025
 20
7.607205582427242
 30
0.0
 11
13.77068829281388
 21
7.4829785886015339
 31
0.0
 12
19.731125804465151
 22
7.4829785886015339
 32
0.0
 13
19.731125804465151
 23
7.4829785886015339
 33
0.0
210
0.0
220
0.0
230
1.0
  0
SOLID
  5
1673
  8
0
  6
CONTINUOUS
 62
     4
 10
-13.75699693727025
 20
7.607205582427242
 30
0.0
 11
-19.757568762490521
 21
7.607205582427242
 31
0.0
 12
-19.731125804465151
 22
7.4829785886015339
 32
0.0
 13
-19.731125804465151
 23
7.4829785886015339
 33
0.0
210
0.0
220
0.0
230
-1.0
  0
SOLID
  5
1674
  8
0
  6
CONTINUOUS
 62
     4
 10
13.77068829281388
 20
7.4829785886015339
 30
0.0
 11
13.78948975798024
 21
7.3123855826940023
 31
0.0
 12
19.606955589459201
 22
7.3123855826940023
 32
0.0
 13
19.606955589459201
 23
7.3123855826940023
 33
0.0
210
0.0
220
0.0
230
1.0
  0
SOLID
  5
1675
  8
0
  6
CONTINUOUS
 62
     4
 10
-13.77068829281388
 20
7.4829785886015339
 30
0.0
 11
-19.731125804465151
 21
7.4829785886015339
 31
0.0
 12
-19.606955589459201
 22
7.3123855826940023
 32
0.0
 13
-19.606955589459201
 23
7.3123855826940023
 33
0.0
210
0.0
220
0.0
230
-1.0
  0
SOLID
  5
1676
  8
0
  6
CONTINUOUS
 62
     4
 10
13.78948975798024
 20
7.3123855826940023
 30
0.0
 11
14.23531603139066
 21
6.853669853725787
 31
0.0
 12
19.273068333123081
 22
6.853669853725787
 32
0.0
 13
19.273068333123081
 23
6.853669853725787
 33
0.0
  0
SOLID
  5
1677
  8
0
  6
CONTINUOUS
 62
     4
 10
-13.78948975798024
 20
7.3123855826940023
 30
0.0
 11
-19.606955589459201
 21
7.3123855826940023
 31
0.0
 12
-19.273068333123081
 22
6.853669853725787
 32
0.0
 13
-19.273068333123081
 23
6.853669853725787
 33
0.0
210
0.0
220
0.0
230
-1.0
  0
SOLID
  5
1678
  8
0
  6
CONTINUOUS
 62
     4
 10
14.23531603139066
 20
6.853669853725787
 30
0.0
 11
14.493860225862401
 21
6.5876507882042201
 31
0.0
 12
18.83811483574711
 22
6.5876507882042201
 32
0.0
 13
18.83811483574711
 23
6.5876507882042201
 33
0.0
210
0.0
220
0.0
230
1.0
  0
SOLID
  5
1679
  8
0
  6
CONTINUOUS
 62
     4
 10
-14.23531603139066
 20
6.853669853725787
 30
0.0
 11
-19.273068333123081
 21
6.853669853725787
 31
0.0
 12
-18.83811483574711
 22
6.5876507882042201
 32
0.0
 13
-18.83811483574711
 23
6.5876507882042201
 33
0.0
210
0.0
220
0.0
230
-1.0
  0
SOLID
  5
167A
  8
0
  6
CONTINUOUS
 62
     4
 10
14.493860225862401
 20
6.5876507882042201
 30
0.0
 11
14.905117021939811
 21
6.4367293105265899
 31
0.0
 12
18.59135122722029
 22
6.4367293105265899
 32
0.0
 13
18.59135122722029
 23
6.4367293105265899
 33
0.0
210
0.0
220
0.0
230
1.0
  0
SOLID
  5
167B
  8
0
  6
CONTINUOUS
 62
     4
 10
-14.493860225862401
 20
6.5876507882042201
 30
0.0
 11
-18.83811483574711
 21
6.5876507882042201
 31
0.0
 12
-18.59135122722029
 22
6.4367293105265899
 32
0.0
 13
-18.59135122722029
 23
6.4367293105265899
 33
0.0
210
0.0
220
0.0
230
-1.0
  0
SOLID
  5
167C
  8
0
  6
CONTINUOUS
 62
     4
 10
14.905117021939811
 20
6.4367293105265899
 30
0.0
 11
15.09665710087207
 21
6.366438650231939
 31
0.0
 12
18.211481350165919
 22
6.366438650231939
 32
0.0
 13
18.211481350165919
 23
6.366438650231939
 33
0.0
210
0.0
220
0.0
230
1.0
  0
SOLID
  5
167D
  8
0
  6
CONTINUOUS
 62
     4
 10
-14.905117021939811
 20
6.4367293105265899
 30
0.0
 11
-18.59135122722029
 21
6.4367293105265899
 31
0.0
 12
-18.211481350165919
 22
6.366438650231939
 32
0.0
 13
-18.211481350165919
 23
6.366438650231939
 33
0.0
210
0.0
220
0.0
230
-1.0
  0
SOLID
  5
167E
  8
0
  6
CONTINUOUS
 62
     4
 10
15.09665710087207
 20
6.366438650231939
 30
0.0
 11
15.73435431514268
 21
6.2913310912303242
 31
0.0
 12
17.805579640263101
 22
6.2913310912303242
 32
0.0
 13
17.805579640263101
 23
6.2913310912303242
 33
0.0
210
0.0
220
0.0
230
1.0
  0
SOLID
  5
167F
  8
0
  6
CONTINUOUS
 62
     4
 10
-15.09665710087207
 20
6.366438650231939
 30
0.0
 11
-18.211481350165919
 21
6.366438650231939
 31
0.0
 12
-17.805579640263101
 22
6.2913310912303242
 32
0.0
 13
-17.805579640263101
 23
6.2913310912303242
 33
0.0
210
0.0
220
0.0
230
-1.0
  0
LINE
  5
1680
  8
0
  6
CONTINUOUS
 62
     4
 10
15.732202760291161
 20
12.761725249354241
 30
0.0
 11
15.19146728092762
 21
12.71697570444282
 31
0.0
  0
LINE
  5
1681
  8
0
  6
CONTINUOUS
 62
     4
 10
17.170962359618301
 20
12.761725249354241
 30
0.0
 11
17.868194363429961
 21
12.71697570444282
 31
0.0
  0
LINE
  5
1682
  8
0
  6
CONTINUOUS
 62
     4
 10
15.19146728092762
 20
12.71697570444282
 30
0.0
 11
15.19021235175237
 21
12.71687185050382
 31
0.0
  0
LINE
  5
1683
  8
0
  6
CONTINUOUS
 62
     4
 10
17.868194363429961
 20
12.71697570444282
 30
0.0
 11
17.868727804871451
 21
12.71687185050382
 31
0.0
  0
LINE
  5
1684
  8
0
  6
CONTINUOUS
 62
     4
 10
15.19021235175237
 20
12.71687185050382
 30
0.0
 11
14.6629686449755
 21
12.583532043991619
 31
0.0
  0
LINE
  5
1685
  8
0
  6
CONTINUOUS
 62
     4
 10
17.868727804871451
 20
12.71687185050382
 30
0.0
 11
18.553622179404218
 21
12.583532043991619
 31
0.0
  0
LINE
  5
1686
  8
0
  6
CONTINUOUS
 62
     4
 10
14.6629686449755
 20
12.583532043991619
 30
0.0
 11
14.662873830390399
 21
12.583461390664089
 31
0.0
  0
LINE
  5
1687
  8
0
  6
CONTINUOUS
 62
     4
 10
18.553622179404218
 20
12.583532043991619
 30
0.0
 11
18.553985087284708
 21
12.583461390664089
 31
0.0
  0
LINE
  5
1688
  8
0
  6
CONTINUOUS
 62
     4
 10
14.662873830390399
 20
12.583461390664089
 30
0.0
 11
13.922697163314391
 21
12.03190126487484
 31
0.0
  0
LINE
  5
1689
  8
0
  6
CONTINUOUS
 62
     4
 10
18.553985087284708
 20
12.583461390664089
 30
0.0
 11
19.278528596291071
 21
12.03190126487484
 31
0.0
  0
LINE
  5
168A
  8
0
  6
CONTINUOUS
 62
     4
 10
13.922697163314391
 20
12.03190126487484
 30
0.0
 11
13.89662821361563
 21
11.95055560779519
 31
0.0
  0
LINE
  5
168B
  8
0
  6
CONTINUOUS
 62
     4
 10
19.278528596291071
 20
12.03190126487484
 30
0.0
 11
19.385386335034578
 21
11.95055560779519
 31
0.0
  0
LINE
  5
168C
  8
0
  6
CONTINUOUS
 62
     4
 10
13.89662821361563
 20
11.95055560779519
 30
0.0
 11
13.745643798513409
 21
11.47942322244014
 31
0.0
  0
LINE
  5
168D
  8
0
  6
CONTINUOUS
 62
     4
 10
19.385386335034578
 20
11.95055560779519
 30
0.0
 11
19.447726775167091
 21
11.47942322244014
 31
0.0
  0
LINE
  5
168E
  8
0
  6
CONTINUOUS
 62
     4
 10
13.745643798513409
 20
11.47942322244014
 30
0.0
 11
13.72711729402053
 21
11.421613042176761
 31
0.0
  0
LINE
  5
168F
  8
0
  6
CONTINUOUS
 62
     4
 10
16.494530878027291
 20
11.47942322244014
 30
0.0
 11
16.048738140931579
 21
11.421613042176761
 31
0.0
  0
LINE
  5
1690
  8
0
  6
CONTINUOUS
 62
     4
 10
16.877275021253151
 20
11.47942322244014
 30
0.0
 11
17.334385593995449
 21
11.321359580031929
 31
0.0
  0
LINE
  5
1691
  8
0
  6
CONTINUOUS
 62
     4
 10
19.447726775167091
 20
11.47942322244014
 30
0.0
 11
19.468641824403718
 21
11.321359580031929
 31
0.0
  0
LINE
  5
1692
  8
0
  6
CONTINUOUS
 62
     4
 10
13.72711729402053
 20
11.421613042176761
 30
0.0
 11
13.67266282076142
 21
11.25169308148118
 31
0.0
  0
LINE
  5
1693
  8
0
  6
CONTINUOUS
 62
     4
 10
16.048738140931579
 20
11.421613042176761
 30
0.0
 11
15.63256463342951
 21
11.25169308148118
 31
0.0
  0
LINE
  5
1694
  8
0
  6
CONTINUOUS
 62
     4
 10
13.67266282076142
 20
11.25169308148118
 30
0.0
 11
13.64095234308947
 21
11.15274357747959
 31
0.0
  0
LINE
  5
1695
  8
0
  6
CONTINUOUS
 62
     4
 10
15.63256463342951
 20
11.25169308148118
 30
0.0
 11
15.63256463342951
 21
11.15274357747959
 31
0.0
  0
LINE
  5
1696
  8
0
  6
CONTINUOUS
 62
     4
 10
17.334385593995449
 20
11.321359580031929
 30
0.0
 11
17.596218971843289
 21
10.914693288081221
 31
0.0
  0
LINE
  5
1697
  8
0
  6
CONTINUOUS
 62
     4
 10
19.468641824403718
 20
11.321359580031929
 30
0.0
 11
19.522452083293391
 21
10.914693288081221
 31
0.0
  0
LINE
  5
1698
  8
0
  6
CONTINUOUS
 62
     4
 10
13.64095234308947
 20
11.15274357747959
 30
0.0
 11
13.64095234308947
 21
10.914693288081221
 31
0.0
  0
LINE
  5
1699
  8
0
  6
CONTINUOUS
 62
     4
 10
15.63256463342951
 20
11.15274357747959
 30
0.0
 11
15.63256463342951
 21
10.914693288081221
 31
0.0
  0
LINE
  5
169A
  8
0
  6
CONTINUOUS
 62
     4
 10
13.64095234308947
 20
10.914693288081221
 30
0.0
 11
13.64095234308947
 21
10.57769349468129
 31
0.0
  0
LINE
  5
169B
  8
0
  6
CONTINUOUS
 62
     4
 10
15.63256463342951
 20
10.914693288081221
 30
0.0
 11
15.63256463342951
 21
10.57769349468129
 31
0.0
  0
LINE
  5
169C
  8
0
  6
CONTINUOUS
 62
     4
 10
13.64095234308947
 20
10.57769349468129
 30
0.0
 11
13.64095234308947
 21
10.411815209523819
 31
0.0
  0
LINE
  5
169D
  8
0
  6
CONTINUOUS
 62
     4
 10
15.63256463342951
 20
10.57769349468129
 30
0.0
 11
16.033712217722989
 21
10.411815209523819
 31
0.0
  0
LINE
  5
169E
  8
0
  6
CONTINUOUS
 62
     4
 10
13.64095234308947
 20
10.411815209523819
 30
0.0
 11
13.64095234308947
 21
10.350229482990599
 31
0.0
  0
LINE
  5
169F
  8
0
  6
CONTINUOUS
 62
     4
 10
16.033712217722989
 20
10.411815209523819
 30
0.0
 11
16.463412331940621
 21
10.350229482990599
 31
0.0
  0
LINE
  5
16A0
  8
0
  6
CONTINUOUS
 62
     4
 10
13.64095234308947
 20
10.350229482990599
 30
0.0
 11
13.64095234308947
 21
10.32774341607765
 31
0.0
  0
LINE
  5
16A1
  8
0
  6
CONTINUOUS
 62
     4
 10
16.463412331940621
 20
10.350229482990599
 30
0.0
 11
17.74961158496421
 21
10.32774341607765
 31
0.0
  0
LINE
  5
16A2
  8
0
  6
CONTINUOUS
 62
     4
 10
13.64095234308947
 20
10.32774341607765
 30
0.0
 11
13.643600072413561
 21
10.31867636594944
 31
0.0
  0
LINE
  5
16A3
  8
0
  6
CONTINUOUS
 62
     4
 10
17.74961158496421
 20
10.32774341607765
 30
0.0
 11
18.268245330349121
 21
10.31867636594944
 31
0.0
  0
LINE
  5
16A4
  8
0
  6
CONTINUOUS
 62
     4
 10
13.643600072413561
 20
10.31867636594944
 30
0.0
 11
13.773307120516479
 21
9.874499426701238
 31
0.0
  0
LINE
  5
16A5
  8
0
  6
CONTINUOUS
 62
     4
 10
18.268245330349121
 20
10.31867636594944
 30
0.0
 11
19.36739400057861
 21
9.874499426701238
 31
0.0
  0
LINE
  5
16A6
  8
0
  6
CONTINUOUS
 62
     4
 10
13.773307120516479
 20
9.874499426701238
 30
0.0
 11
13.84267356698599
 21
9.6369566228984578
 31
0.0
  0
LINE
  5
16A7
  8
0
  6
CONTINUOUS
 62
     4
 10
19.36739400057861
 20
9.874499426701238
 30
0.0
 11
19.483204032608239
 21
9.6369566228984578
 31
0.0
  0
LINE
  5
16A8
  8
0
  6
CONTINUOUS
 62
     4
 10
13.84267356698599
 20
9.6369566228984578
 30
0.0
 11
14.384437503773
 21
9.1632798527290227
 31
0.0
  0
LINE
  5
16A9
  8
0
  6
CONTINUOUS
 62
     4
 10
19.483204032608239
 20
9.6369566228984578
 30
0.0
 11
19.714137241473448
 21
9.1632798527290227
 31
0.0
  0
LINE
  5
16AA
  8
0
  6
CONTINUOUS
 62
     4
 10
14.384437503773
 20
9.1632798527290227
 30
0.0
 11
15.168197024638131
 21
8.8985413362032801
 31
0.0
  0
LINE
  5
16AB
  8
0
  6
CONTINUOUS
 62
     4
 10
19.714137241473448
 20
9.1632798527290227
 30
0.0
 11
19.84320608964525
 21
8.8985413362032801
 31
0.0
  0
LINE
  5
16AC
  8
0
  6
CONTINUOUS
 62
     4
 10
15.168197024638131
 20
8.8985413362032801
 30
0.0
 11
15.9905888738613
 21
8.8088913779752644
 31
0.0
  0
LINE
  5
16AD
  8
0
  6
CONTINUOUS
 62
     4
 10
19.84320608964525
 20
8.8985413362032801
 30
0.0
 11
19.886913431512198
 21
8.8088913779752644
 31
0.0
  0
LINE
  5
16AE
  8
0
  6
CONTINUOUS
 62
     4
 10
17.289494074157052
 20
8.8088913779752644
 30
0.0
 11
17.667594337462049
 21
8.6522771209774945
 31
0.0
  0
LINE
  5
16AF
  8
0
  6
CONTINUOUS
 62
     4
 10
19.886913431512198
 20
8.8088913779752644
 30
0.0
 11
19.888650916205979
 21
8.6522771209774945
 31
0.0
  0
LINE
  5
16B0
  8
0
  6
CONTINUOUS
 62
     4
 10
17.667594337462049
 20
8.6522771209774945
 30
0.0
 11
17.824208594459819
 21
8.2741768576724883
 31
0.0
  0
LINE
  5
16B1
  8
0
  6
CONTINUOUS
 62
     4
 10
19.888650916205979
 20
8.6522771209774945
 30
0.0
 11
19.89284557531812
 21
8.2741768576724883
 31
0.0
  0
LINE
  5
16B2
  8
0
  6
CONTINUOUS
 62
     4
 10
17.824208594459819
 20
8.2741768576724883
 30
0.0
 11
17.824208594459819
 21
8.2442836998577516
 31
0.0
  0
LINE
  5
16B3
  8
0
  6
CONTINUOUS
 62
     4
 10
19.89284557531812
 20
8.2741768576724883
 30
0.0
 11
19.893177211180308
 21
8.2442836998577516
 31
0.0
  0
LINE
  5
16B4
  8
0
  6
CONTINUOUS
 62
     4
 10
17.824208594459819
 20
8.2442836998577516
 30
0.0
 11
17.824208594459812
 21
7.9950657396160656
 31
0.0
  0
LINE
  5
16B5
  8
0
  6
CONTINUOUS
 62
     4
 10
19.893177211180308
 20
8.2442836998577516
 30
0.0
 11
19.84012867592326
 21
7.9950657396160656
 31
0.0
  0
LINE
  5
16B6
  8
0
  6
CONTINUOUS
 62
     4
 10
13.67877588744186
 20
8.316935590030166
 30
0.0
 11
13.722085603626279
 21
7.9239696906426538
 31
0.0
  0
LINE
  5
16B7
  8
0
  6
CONTINUOUS
 62
     4
 10
15.694790245108379
 20
8.316935590030166
 30
0.0
 11
15.816108651767109
 21
7.9239696906426538
 31
0.0
  0
LINE
  5
16B8
  8
0
  6
CONTINUOUS
 62
     4
 10
17.824208594459812
 20
7.9950657396160656
 30
0.0
 11
17.710606984571289
 21
7.7208071923157711
 31
0.0
  0
LINE
  5
16B9
  8
0
  6
CONTINUOUS
 62
     4
 10
19.84012867592326
 20
7.9950657396160656
 30
0.0
 11
19.781750001280798
 21
7.7208071923157711
 31
0.0
  0
LINE
  5
16BA
  8
0
  6
CONTINUOUS
 62
     4
 10
13.722085603626279
 20
7.9239696906426538
 30
0.0
 11
13.75032052220979
 21
7.6677832929286636
 31
0.0
  0
LINE
  5
16BB
  8
0
  6
CONTINUOUS
 62
     4
 10
15.816108651767109
 20
7.9239696906426538
 30
0.0
 11
16.13783661682762
 21
7.6677832929286636
 31
0.0
  0
LINE
  5
16BC
  8
0
  6
CONTINUOUS
 62
     4
 10
13.75032052220979
 20
7.6677832929286636
 30
0.0
 11
13.75531323294336
 21
7.6224824866281287
 31
0.0
  0
LINE
  5
16BD
  8
0
  6
CONTINUOUS
 62
     4
 10
16.13783661682762
 20
7.6677832929286636
 30
0.0
 11
16.295510768765968
 21
7.6224824866281287
 31
0.0
  0
LINE
  5
16BE
  8
0
  6
CONTINUOUS
 62
     4
 10
17.710606984571289
 20
7.7208071923157711
 30
0.0
 11
17.436348437270979
 21
7.607205582427242
 31
0.0
  0
LINE
  5
16BF
  8
0
  6
CONTINUOUS
 62
     4
 10
19.781750001280798
 20
7.7208071923157711
 30
0.0
 11
19.757568762490521
 21
7.607205582427242
 31
0.0
  0
LINE
  5
16C0
  8
0
  6
CONTINUOUS
 62
     4
 10
13.75531323294336
 20
7.6224824866281287
 30
0.0
 11
13.75699693727025
 21
7.607205582427242
 31
0.0
  0
LINE
  5
16C1
  8
0
  6
CONTINUOUS
 62
     4
 10
16.295510768765968
 20
7.6224824866281287
 30
0.0
 11
16.458850651951291
 21
7.607205582427242
 31
0.0
  0
LINE
  5
16C2
  8
0
  6
CONTINUOUS
 62
     4
 10
13.75699693727025
 20
7.607205582427242
 30
0.0
 11
13.77068829281388
 21
7.4829785886015339
 31
0.0
  0
LINE
  5
16C3
  8
0
  6
CONTINUOUS
 62
     4
 10
19.757568762490521
 20
7.607205582427242
 30
0.0
 11
19.731125804465151
 21
7.4829785886015339
 31
0.0
  0
LINE
  5
16C4
  8
0
  6
CONTINUOUS
 62
     4
 10
13.77068829281388
 20
7.4829785886015339
 30
0.0
 11
13.78948975798024
 21
7.3123855826940023
 31
0.0
  0
LINE
  5
16C5
  8
0
  6
CONTINUOUS
 62
     4
 10
19.731125804465151
 20
7.4829785886015339
 30
0.0
 11
19.606955589459201
 21
7.3123855826940023
 31
0.0
  0
LINE
  5
16C6
  8
0
  6
CONTINUOUS
 62
     4
 10
13.78948975798024
 20
7.3123855826940023
 30
0.0
 11
14.23531603139066
 21
6.853669853725787
 31
0.0
  0
LINE
  5
16C7
  8
0
  6
CONTINUOUS
 62
     4
 10
19.606955589459201
 20
7.3123855826940023
 30
0.0
 11
19.273068333123081
 21
6.853669853725787
 31
0.0
  0
LINE
  5
16C8
  8
0
  6
CONTINUOUS
 62
     4
 10
14.23531603139066
 20
6.853669853725787
 30
0.0
 11
14.493860225862401
 21
6.5876507882042201
 31
0.0
  0
LINE
  5
16C9
  8
0
  6
CONTINUOUS
 62
     4
 10
19.273068333123081
 20
6.853669853725787
 30
0.0
 11
18.83811483574711
 21
6.5876507882042201
 31
0.0
  0
LINE
  5
16CA
  8
0
  6
CONTINUOUS
 62
     4
 10
14.493860225862401
 20
6.5876507882042201
 30
0.0
 11
14.905117021939811
 21
6.4367293105265899
 31
0.0
  0
LINE
  5
16CB
  8
0
  6
CONTINUOUS
 62
     4
 10
18.83811483574711
 20
6.5876507882042201
 30
0.0
 11
18.59135122722029
 21
6.4367293105265899
 31
0.0
  0
LINE
  5
16CC
  8
0
  6
CONTINUOUS
 62
     4
 10
14.905117021939811
 20
6.4367293105265899
 30
0.0
 11
15.09665710087207
 21
6.366438650231939
 31
0.0
  0
LINE
  5
16CD
  8
0
  6
CONTINUOUS
 62
     4
 10
18.59135122722029
 20
6.4367293105265899
 30
0.0
 11
18.211481350165919
 21
6.366438650231939
 31
0.0
  0
LINE
  5
16CE
  8
0
  6
CONTINUOUS
 62
     4
 10
15.09665710087207
 20
6.366438650231939
 30
0.0
 11
15.73435431514268
 21
6.2913310912303242
 31
0.0
  0
LINE
  5
16CF
  8
0
  6
CONTINUOUS
 62
     4
 10
18.211481350165919
 20
6.366438650231939
 30
0.0
 11
17.805579640263101
 21
6.2913310912303242
 31
0.0
  0
ENDBLK
  5
16D1
  8
0
  0
BLOCK
  8
0
  2
*U89
 70
     1
 10
0.0
 20
0.0
 30
0.0
  3
*U89
  1

  0
SOLID
  5
16F7
  8
0
  6
CONTINUOUS
 62
     4
 10
37.560298341075871
 20
12.761725249354241
 30
0.0
 11
37.019562861712323
 21
12.71697570444282
 31
0.0
 12
39.696289944214641
 22
12.71697570444282
 32
0.0
 13
39.696289944214641
 23
12.71697570444282
 33
0.0
210
0.0
220
0.0
230
1.0
  0
SOLID
  5
16F8
  8
0
  6
CONTINUOUS
 62
     4
 10
-37.560298341075871
 20
12.761725249354241
 30
0.0
 11
-38.999057940402963
 21
12.761725249354241
 31
0.0
 12
-39.696289944214641
 22
12.71697570444282
 32
0.0
 13
-39.696289944214641
 23
12.71697570444282
 33
0.0
210
0.0
220
0.0
230
-1.0
  0
SOLID
  5
16F9
  8
0
  6
CONTINUOUS
 62
     4
 10
37.019562861712323
 20
12.71697570444282
 30
0.0
 11
37.018307932537049
 21
12.71687185050382
 31
0.0
 12
39.696823385656131
 22
12.71687185050382
 32
0.0
 13
39.696823385656131
 23
12.71687185050382
 33
0.0
210
0.0
220
0.0
230
1.0
  0
SOLID
  5
16FA
  8
0
  6
CONTINUOUS
 62
     4
 10
-37.019562861712323
 20
12.71697570444282
 30
0.0
 11
-39.696289944214641
 21
12.71697570444282
 31
0.0
 12
-39.696823385656131
 22
12.71687185050382
 32
0.0
 13
-39.696823385656131
 23
12.71687185050382
 33
0.0
210
0.0
220
0.0
230
-1.0
  0
SOLID
  5
16FB
  8
0
  6
CONTINUOUS
 62
     4
 10
37.018307932537049
 20
12.71687185050382
 30
0.0
 11
36.491064225760191
 21
12.58353204399163
 31
0.0
 12
40.381717760188863
 22
12.58353204399163
 32
0.0
 13
40.381717760188863
 23
12.58353204399163
 33
0.0
210
0.0
220
0.0
230
1.0
  0
SOLID
  5
16FC
  8
0
  6
CONTINUOUS
 62
     4
 10
-37.018307932537049
 20
12.71687185050382
 30
0.0
 11
-39.696823385656131
 21
12.71687185050382
 31
0.0
 12
-40.381717760188863
 22
12.58353204399163
 32
0.0
 13
-40.381717760188863
 23
12.58353204399163
 33
0.0
210
0.0
220
0.0
230
-1.0
  0
SOLID
  5
16FD
  8
0
  6
CONTINUOUS
 62
     4
 10
36.491064225760191
 20
12.58353204399163
 30
0.0
 11
36.490976839946917
 21
12.583461390664089
 31
0.0
 12
40.382080668069371
 22
12.583461390664089
 32
0.0
 13
40.382080668069371
 23
12.583461390664089
 33
0.0
210
0.0
220
0.0
230
1.0
  0
SOLID
  5
16FE
  8
0
  6
CONTINUOUS
 62
     4
 10
-36.491064225760191
 20
12.58353204399163
 30
0.0
 11
-40.381717760188863
 21
12.58353204399163
 31
0.0
 12
-40.382080668069371
 22
12.583461390664089
 32
0.0
 13
-40.382080668069371
 23
12.583461390664089
 33
0.0
210
0.0
220
0.0
230
-1.0
  0
SOLID
  5
16FF
  8
0
  6
CONTINUOUS
 62
     4
 10
36.490976839946917
 20
12.583461390664089
 30
0.0
 11
35.891474900683988
 21
12.0987510551557
 31
0.0
 12
41.113928624880273
 22
12.0987510551557
 32
0.0
 13
41.113928624880273
 23
12.0987510551557
 33
0.0
210
0.0
220
0.0
230
1.0
  0
SOLID
  5
1700
  8
0
  6
CONTINUOUS
 62
     4
 10
-36.490976839946917
 20
12.583461390664089
 30
0.0
 11
-40.382080668069371
 21
12.583461390664089
 31
0.0
 12
-41.113928624880273
 22
12.0987510551557
 32
0.0
 13
-41.113928624880273
 23
12.0987510551557
 33
0.0
210
0.0
220
0.0
230
-1.0
  0
SOLID
  5
1701
  8
0
  6
CONTINUOUS
 62
     4
 10
35.891474900683988
 20
12.0987510551557
 30
0.0
 11
35.685233845176903
 21
11.932000683449891
 31
0.0
 12
41.170785041525811
 22
11.932000683449891
 32
0.0
 13
41.170785041525811
 23
11.932000683449891
 33
0.0
210
0.0
220
0.0
230
1.0
  0
SOLID
  5
1702
  8
0
  6
CONTINUOUS
 62
     4
 10
-35.891474900683988
 20
12.0987510551557
 30
0.0
 11
-41.113928624880273
 21
12.0987510551557
 31
0.0
 12
-41.170785041525811
 22
11.932000683449891
 32
0.0
 13
-41.170785041525811
 23
11.932000683449891
 33
0.0
210
0.0
220
0.0
230
-1.0
  0
SOLID
  5
1703
  8
0
  6
CONTINUOUS
 62
     4
 10
35.685233845176903
 20
11.932000683449891
 30
0.0
 11
35.599839553946353
 21
11.491775001953259
 31
0.0
 12
41.320887584082037
 22
11.491775001953259
 32
0.0
 13
41.320887584082037
 23
11.491775001953259
 33
0.0
210
0.0
220
0.0
230
1.0
  0
SOLID
  5
1704
  8
0
  6
CONTINUOUS
 62
     4
 10
-35.685233845176903
 20
11.932000683449891
 30
0.0
 11
-41.170785041525811
 21
11.932000683449891
 31
0.0
 12
-41.320887584082037
 22
11.491775001953259
 32
0.0
 13
-41.320887584082037
 23
11.491775001953259
 33
0.0
210
0.0
220
0.0
230
-1.0
  0
SOLID
  5
1705
  8
0
  6
CONTINUOUS
 62
     4
 10
39.077193647738902
 20
11.491775001953259
 30
0.0
 11
39.172372671498373
 21
11.26791232475091
 31
0.0
 12
41.397217426805618
 22
11.26791232475091
 32
0.0
 13
41.397217426805618
 23
11.26791232475091
 33
0.0
210
0.0
220
0.0
230
1.0
  0
SOLID
  5
1706
  8
0
  6
CONTINUOUS
 62
     4
 10
-39.077193647738902
 20
11.491775001953259
 30
0.0
 11
-41.320887584082037
 21
11.491775001953259
 31
0.0
 12
-41.397217426805618
 22
11.26791232475091
 32
0.0
 13
-41.397217426805618
 23
11.26791232475091
 33
0.0
210
0.0
220
0.0
230
-1.0
  0
SOLID
  5
1707
  8
0
  6
CONTINUOUS
 62
     4
 10
35.599839553946353
 20
11.491775001953259
 30
0.0
 11
35.546872496908357
 21
11.2187185898043
 31
0.0
 12
37.606741815282923
 22
11.2187185898043
 32
0.0
 13
37.606741815282923
 23
11.2187185898043
 33
0.0
210
0.0
220
0.0
230
1.0
  0
SOLID
  5
1708
  8
0
  6
CONTINUOUS
 62
     4
 10
-35.599839553946353
 20
11.491775001953259
 30
0.0
 11
-37.77157673774348
 21
11.491775001953259
 31
0.0
 12
-37.606741815282923
 22
11.2187185898043
 32
0.0
 13
-37.606741815282923
 23
11.2187185898043
 33
0.0
210
0.0
220
0.0
230
-1.0
  0
SOLID
  5
1709
  8
0
  6
CONTINUOUS
 62
     4
 10
39.172372671498373
 20
11.26791232475091
 30
0.0
 11
39.286555940655447
 21
10.99935134024434
 31
0.0
 12
41.397217426805618
 22
10.99935134024434
 32
0.0
 13
41.397217426805618
 23
10.99935134024434
 33
0.0
210
0.0
220
0.0
230
1.0
  0
SOLID
  5
170A
  8
0
  6
CONTINUOUS
 62
     4
 10
-39.172372671498373
 20
11.26791232475091
 30
0.0
 11
-41.397217426805618
 21
11.26791232475091
 31
0.0
 12
-41.397217426805618
 22
10.99935134024434
 32
0.0
 13
-41.397217426805618
 23
10.99935134024434
 33
0.0
210
0.0
220
0.0
230
-1.0
  0
SOLID
  5
170B
  8
0
  6
CONTINUOUS
 62
     4
 10
35.546872496908357
 20
11.2187185898043
 30
0.0
 11
35.487898142962152
 21
10.914693288081221
 31
0.0
 12
37.510310638838611
 22
10.914693288081221
 32
0.0
 13
37.510310638838611
 23
10.914693288081221
 33
0.0
  0
SOLID
  5
170C
  8
0
  6
CONTINUOUS
 62
     4
 10
-35.546872496908357
 20
11.2187185898043
 30
0.0
 11
-37.606741815282923
 21
11.2187185898043
 31
0.0
 12
-37.510310638838611
 22
10.914693288081221
 32
0.0
 13
-37.510310638838611
 23
10.914693288081221
 33
0.0
210
0.0
220
0.0
230
-1.0
  0
SOLID
  5
170D
  8
0
  6
CONTINUOUS
 62
     4
 10
39.286555940655447
 20
10.99935134024434
 30
0.0
 11
39.358044792162232
 21
10.469065590467549
 31
0.0
 12
41.397217426805618
 22
10.469065590467549
 32
0.0
 13
41.397217426805618
 23
10.469065590467549
 33
0.0
210
0.0
220
0.0
230
1.0
  0
SOLID
  5
170E
  8
0
  6
CONTINUOUS
 62
     4
 10
-39.286555940655447
 20
10.99935134024434
 30
0.0
 11
-41.397217426805618
 21
10.99935134024434
 31
0.0
 12
-41.397217426805618
 22
10.469065590467549
 32
0.0
 13
-41.397217426805618
 23
10.469065590467549
 33
0.0
210
0.0
220
0.0
230
-1.0
  0
SOLID
  5
170F
  8
0
  6
CONTINUOUS
 62
     4
 10
37.199101342298697
 20
10.216853593185981
 30
0.0
 11
36.979712575700432
 21
10.197143529937639
 31
0.0
 12
38.9928944834449
 22
10.197143529937639
 32
0.0
 13
38.9928944834449
 23
10.197143529937639
 33
0.0
210
0.0
220
0.0
230
1.0
  0
SOLID
  5
1710
  8
0
  6
CONTINUOUS
 62
     4
 10
-37.199101342298697
 20
10.216853593185981
 30
0.0
 11
-38.623548826611547
 21
10.216853593185981
 31
0.0
 12
-38.9928944834449
 22
10.197143529937639
 32
0.0
 13
-38.9928944834449
 23
10.197143529937639
 33
0.0
210
0.0
220
0.0
230
-1.0
  0
SOLID
  5
1711
  8
0
  6
CONTINUOUS
 62
     4
 10
36.979712575700432
 20
10.197143529937639
 30
0.0
 11
36.652116408761742
 21
10.16771202681012
 31
0.0
 12
39.17533543461267
 22
10.16771202681012
 32
0.0
 13
39.17533543461267
 23
10.16771202681012
 33
0.0
210
0.0
220
0.0
230
1.0
  0
SOLID
  5
1712
  8
0
  6
CONTINUOUS
 62
     4
 10
-36.979712575700432
 20
10.197143529937639
 30
0.0
 11
-38.9928944834449
 21
10.197143529937639
 31
0.0
 12
-39.17533543461267
 22
10.16771202681012
 32
0.0
 13
-39.17533543461267
 23
10.16771202681012
 33
0.0
210
0.0
220
0.0
230
-1.0
  0
SOLID
  5
1713
  8
0
  6
CONTINUOUS
 62
     4
 10
39.358044792162232
 20
10.469065590467549
 30
0.0
 11
39.358044792162239
 21
10.138237224175491
 31
0.0
 12
41.397217426805611
 22
10.138237224175491
 32
0.0
 13
41.397217426805611
 23
10.138237224175491
 33
0.0
210
0.0
220
0.0
230
1.0
  0
SOLID
  5
1714
  8
0
  6
CONTINUOUS
 62
     4
 10
-39.358044792162232
 20
10.469065590467549
 30
0.0
 11
-41.397217426805618
 21
10.469065590467549
 31
0.0
 12
-41.397217426805611
 22
10.138237224175491
 32
0.0
 13
-41.397217426805611
 23
10.138237224175491
 33
0.0
210
0.0
220
0.0
230
-1.0
  0
SOLID
  5
1715
  8
0
  6
CONTINUOUS
 62
     4
 10
36.652116408761742
 20
10.16771202681012
 30
0.0
 11
36.545117196963503
 21
10.138237224175491
 31
0.0
 12
39.358044792162239
 22
10.138237224175491
 32
0.0
 13
39.358044792162239
 23
10.138237224175491
 33
0.0
210
0.0
220
0.0
230
1.0
  0
SOLID
  5
1716
  8
0
  6
CONTINUOUS
 62
     4
 10
-36.652116408761742
 20
10.16771202681012
 30
0.0
 11
-39.17533543461267
 21
10.16771202681012
 31
0.0
 12
-39.358044792162239
 22
10.138237224175491
 32
0.0
 13
-39.358044792162239
 23
10.138237224175491
 33
0.0
210
0.0
220
0.0
230
-1.0
  0
SOLID
  5
1717
  8
0
  6
CONTINUOUS
 62
     4
 10
36.545117196963503
 20
10.138237224175491
 30
0.0
 11
36.122649750137647
 21
10.02186118359089
 31
0.0
 12
41.397217426805611
 22
10.02186118359089
 32
0.0
 13
41.397217426805611
 23
10.02186118359089
 33
0.0
210
0.0
220
0.0
230
1.0
  0
SOLID
  5
1718
  8
0
  6
CONTINUOUS
 62
     4
 10
-36.545117196963503
 20
10.138237224175491
 30
0.0
 11
-41.397217426805611
 21
10.138237224175491
 31
0.0
 12
-41.397217426805611
 22
10.02186118359089
 32
0.0
 13
-41.397217426805611
 23
10.02186118359089
 33
0.0
210
0.0
220
0.0
230
-1.0
  0
SOLID
  5
1719
  8
0
  6
CONTINUOUS
 62
     4
 10
36.122649750137647
 20
10.02186118359089
 30
0.0
 11
35.665923771344431
 21
9.7362947386209342
 31
0.0
 12
41.397217426805611
 22
9.7362947386209342
 32
0.0
 13
41.397217426805611
 23
9.7362947386209342
 33
0.0
210
0.0
220
0.0
230
1.0
  0
SOLID
  5
171A
  8
0
  6
CONTINUOUS
 62
     4
 10
-36.122649750137647
 20
10.02186118359089
 30
0.0
 11
-41.397217426805611
 21
10.02186118359089
 31
0.0
 12
-41.397217426805611
 22
9.7362947386209342
 32
0.0
 13
-41.397217426805611
 23
9.7362947386209342
 33
0.0
210
0.0
220
0.0
230
-1.0
  0
SOLID
  5
171B
  8
0
  6
CONTINUOUS
 62
     4
 10
35.665923771344431
 20
9.7362947386209342
 30
0.0
 11
35.356787490986662
 21
9.2951807234684214
 31
0.0
 12
41.397217426805611
 22
9.2951807234684214
 32
0.0
 13
41.397217426805611
 23
9.2951807234684214
 33
0.0
210
0.0
220
0.0
230
1.0
  0
SOLID
  5
171C
  8
0
  6
CONTINUOUS
 62
     4
 10
-35.665923771344431
 20
9.7362947386209342
 30
0.0
 11
-41.397217426805611
 21
9.7362947386209342
 31
0.0
 12
-41.397217426805611
 22
9.2951807234684214
 32
0.0
 13
-41.397217426805611
 23
9.2951807234684214
 33
0.0
210
0.0
220
0.0
230
-1.0
  0
SOLID
  5
171D
  8
0
  6
CONTINUOUS
 62
     4
 10
35.356787490986662
 20
9.2951807234684214
 30
0.0
 11
35.255593960778619
 21
8.9511586626376651
 31
0.0
 12
41.397217426805611
 22
8.9511586626376651
 32
0.0
 13
41.397217426805611
 23
8.9511586626376651
 33
0.0
  0
SOLID
  5
171E
  8
0
  6
CONTINUOUS
 62
     4
 10
-35.356787490986662
 20
9.2951807234684214
 30
0.0
 11
-41.397217426805611
 21
9.2951807234684214
 31
0.0
 12
-41.397217426805611
 22
8.9511586626376651
 32
0.0
 13
-41.397217426805611
 23
8.9511586626376651
 33
0.0
210
0.0
220
0.0
230
-1.0
  0
SOLID
  5
171F
  8
0
  6
CONTINUOUS
 62
     4
 10
35.255593960778619
 20
8.9511586626376651
 30
0.0
 11
35.218422470088413
 21
8.8247887968458034
 31
0.0
 12
37.480908192164058
 22
8.8247887968458034
 32
0.0
 13
37.480908192164058
 23
8.8247887968458034
 33
0.0
210
0.0
220
0.0
230
1.0
  0
SOLID
  5
1720
  8
0
  6
CONTINUOUS
 62
     4
 10
-35.255593960778619
 20
8.9511586626376651
 30
0.0
 11
-37.839787993796932
 21
8.9511586626376651
 31
0.0
 12
-37.480908192164058
 22
8.8247887968458034
 32
0.0
 13
-37.480908192164058
 23
8.8247887968458034
 33
0.0
210
0.0
220
0.0
230
-1.0
  0
SOLID
  5
1721
  8
0
  6
CONTINUOUS
 62
     4
 10
35.218422470088413
 20
8.8247887968458034
 30
0.0
 11
35.206600249395962
 21
8.7845974455029552
 31
0.0
 12
37.45598367209125
 22
8.7845974455029552
 32
0.0
 13
37.45598367209125
 23
8.7845974455029552
 33
0.0
210
0.0
220
0.0
230
1.0
  0
SOLID
  5
1722
  8
0
  6
CONTINUOUS
 62
     4
 10
-35.218422470088413
 20
8.8247887968458034
 30
0.0
 11
-37.480908192164058
 21
8.8247887968458034
 31
0.0
 12
-37.45598367209125
 22
8.7845974455029552
 32
0.0
 13
-37.45598367209125
 23
8.7845974455029552
 33
0.0
210
0.0
220
0.0
230
-1.0
  0
SOLID
  5
1723
  8
0
  6
CONTINUOUS
 62
     4
 10
35.206600249395962
 20
8.7845974455029552
 30
0.0
 11
35.196273344365551
 21
8.5014401058414677
 31
0.0
 12
37.28038467976193
 22
8.5014401058414677
 32
0.0
 13
37.28038467976193
 23
8.5014401058414677
 33
0.0
210
0.0
220
0.0
230
1.0
  0
SOLID
  5
1724
  8
0
  6
CONTINUOUS
 62
     4
 10
-35.206600249395962
 20
8.7845974455029552
 30
0.0
 11
-37.45598367209125
 21
8.7845974455029552
 31
0.0
 12
-37.28038467976193
 22
8.5014401058414677
 32
0.0
 13
-37.28038467976193
 23
8.5014401058414677
 33
0.0
210
0.0
220
0.0
230
-1.0
  0
SOLID
  5
1725
  8
0
  6
CONTINUOUS
 62
     4
 10
35.196273344365551
 20
8.5014401058414677
 30
0.0
 11
35.187643683716217
 21
8.2648201558708632
 31
0.0
 12
37.261459666752138
 22
8.2648201558708632
 32
0.0
 13
37.261459666752138
 23
8.2648201558708632
 33
0.0
210
0.0
220
0.0
230
1.0
  0
SOLID
  5
1726
  8
0
  6
CONTINUOUS
 62
     4
 10
-35.196273344365551
 20
8.5014401058414677
 30
0.0
 11
-37.28038467976193
 21
8.5014401058414677
 31
0.0
 12
-37.261459666752138
 22
8.2648201558708632
 32
0.0
 13
-37.261459666752138
 23
8.2648201558708632
 33
0.0
210
0.0
220
0.0
230
-1.0
  0
SOLID
  5
1727
  8
0
  6
CONTINUOUS
 62
     4
 10
35.187643683716217
 20
8.2648201558708632
 30
0.0
 11
35.187203014440499
 21
8.2527372772719971
 31
0.0
 12
37.263829093739382
 22
8.2527372772719971
 32
0.0
 13
37.263829093739382
 23
8.2527372772719971
 33
0.0
  0
SOLID
  5
1728
  8
0
  6
CONTINUOUS
 62
     4
 10
-35.187643683716217
 20
8.2648201558708632
 30
0.0
 11
-37.261459666752138
 21
8.2648201558708632
 31
0.0
 12
-37.263829093739382
 22
8.2527372772719971
 32
0.0
 13
-37.263829093739382
 23
8.2527372772719971
 33
0.0
210
0.0
220
0.0
230
-1.0
  0
SOLID
  5
1729
  8
0
  6
CONTINUOUS
 62
     4
 10
35.187203014440499
 20
8.2527372772719971
 30
0.0
 11
35.194199592921507
 21
8.0318811101244805
 31
0.0
 12
37.30713852190717
 22
8.0318811101244805
 32
0.0
 13
37.30713852190717
 23
8.0318811101244805
 33
0.0
210
0.0
220
0.0
230
1.0
  0
SOLID
  5
172A
  8
0
  6
CONTINUOUS
 62
     4
 10
-35.187203014440499
 20
8.2527372772719971
 30
0.0
 11
-37.263829093739382
 21
8.2527372772719971
 31
0.0
 12
-37.30713852190717
 22
8.0318811101244805
 32
0.0
 13
-37.30713852190717
 23
8.0318811101244805
 33
0.0
210
0.0
220
0.0
230
-1.0
  0
SOLID
  5
172B
  8
0
  6
CONTINUOUS
 62
     4
 10
35.194199592921507
 20
8.0318811101244805
 30
0.0
 11
35.202459155100129
 21
7.7711572077144799
 31
0.0
 12
37.615772994408303
 22
7.7711572077144799
 32
0.0
 13
37.615772994408303
 23
7.7711572077144799
 33
0.0
210
0.0
220
0.0
230
1.0
  0
SOLID
  5
172C
  8
0
  6
CONTINUOUS
 62
     4
 10
-35.194199592921507
 20
8.0318811101244805
 30
0.0
 11
-37.30713852190717
 21
8.0318811101244805
 31
0.0
 12
-37.615772994408303
 22
7.7711572077144799
 32
0.0
 13
-37.615772994408303
 23
7.7711572077144799
 33
0.0
210
0.0
220
0.0
230
-1.0
  0
SOLID
  5
172D
  8
0
  6
CONTINUOUS
 62
     4
 10
35.202459155100129
 20
7.7711572077144799
 30
0.0
 11
35.203769510882672
 21
7.729794110520948
 31
0.0
 12
37.789441981868229
 22
7.729794110520948
 32
0.0
 13
37.789441981868229
 23
7.729794110520948
 33
0.0
210
0.0
220
0.0
230
1.0
  0
SOLID
  5
172E
  8
0
  6
CONTINUOUS
 62
     4
 10
-35.202459155100129
 20
7.7711572077144799
 30
0.0
 11
-37.615772994408303
 21
7.7711572077144799
 31
0.0
 12
-37.789441981868229
 22
7.729794110520948
 32
0.0
 13
-37.789441981868229
 23
7.729794110520948
 33
0.0
210
0.0
220
0.0
230
-1.0
  0
SOLID
  5
172F
  8
0
  6
CONTINUOUS
 62
     4
 10
39.358044792162232
 20
8.9511586626376651
 30
0.0
 11
39.358044792162232
 21
7.6775493076214643
 31
0.0
 12
41.397217426805597
 22
7.6775493076214643
 32
0.0
 13
41.397217426805597
 23
7.6775493076214643
 33
0.0
  0
SOLID
  5
1730
  8
0
  6
CONTINUOUS
 62
     4
 10
-39.358044792162232
 20
8.9511586626376651
 30
0.0
 11
-41.397217426805611
 21
8.9511586626376651
 31
0.0
 12
-41.397217426805597
 22
7.6775493076214643
 32
0.0
 13
-41.397217426805597
 23
7.6775493076214643
 33
0.0
210
0.0
220
0.0
230
-1.0
  0
SOLID
  5
1731
  8
0
  6
CONTINUOUS
 62
     4
 10
35.203769510882672
 20
7.729794110520948
 30
0.0
 11
35.218155913297949
 21
7.6775493076214643
 31
0.0
 12
38.008799395486072
 22
7.6775493076214643
 32
0.0
 13
38.008799395486072
 23
7.6775493076214643
 33
0.0
210
0.0
220
0.0
230
1.0
  0
SOLID
  5
1732
  8
0
  6
CONTINUOUS
 62
     4
 10
-35.203769510882672
 20
7.729794110520948
 30
0.0
 11
-37.789441981868229
 21
7.729794110520948
 31
0.0
 12
-38.008799395486072
 22
7.6775493076214643
 32
0.0
 13
-38.008799395486072
 23
7.6775493076214643
 33
0.0
210
0.0
220
0.0
230
-1.0
  0
SOLID
  5
1733
  8
0
  6
CONTINUOUS
 62
     4
 10
35.218155913297949
 20
7.6775493076214643
 30
0.0
 11
35.342672117807062
 21
7.2253636690866569
 31
0.0
 12
41.397217426805597
 22
7.2253636690866569
 32
0.0
 13
41.397217426805597
 23
7.2253636690866569
 33
0.0
210
0.0
220
0.0
230
1.0
  0
SOLID
  5
1734
  8
0
  6
CONTINUOUS
 62
     4
 10
-35.218155913297949
 20
7.6775493076214643
 30
0.0
 11
-41.397217426805597
 21
7.6775493076214643
 31
0.0
 12
-41.397217426805597
 22
7.2253636690866569
 32
0.0
 13
-41.397217426805597
 23
7.2253636690866569
 33
0.0
210
0.0
220
0.0
230
-1.0
  0
SOLID
  5
1735
  8
0
  6
CONTINUOUS
 62
     4
 10
35.342672117807062
 20
7.2253636690866569
 30
0.0
 11
35.534549550569551
 21
6.9013658779097202
 31
0.0
 12
41.397217426805589
 22
6.9013658779097202
 32
0.0
 13
41.397217426805589
 23
6.9013658779097202
 33
0.0
210
0.0
220
0.0
230
1.0
  0
SOLID
  5
1736
  8
0
  6
CONTINUOUS
 62
     4
 10
-35.342672117807062
 20
7.2253636690866569
 30
0.0
 11
-41.397217426805597
 21
7.2253636690866569
 31
0.0
 12
-41.397217426805589
 22
6.9013658779097202
 32
0.0
 13
-41.397217426805589
 23
6.9013658779097202
 33
0.0
210
0.0
220
0.0
230
-1.0
  0
SOLID
  5
1737
  8
0
  6
CONTINUOUS
 62
     4
 10
35.534549550569551
 20
6.9013658779097202
 30
0.0
 11
35.812313875115173
 21
6.6471248546645016
 31
0.0
 12
41.397217426805589
 22
6.6471248546645016
 32
0.0
 13
41.397217426805589
 23
6.6471248546645016
 33
0.0
210
0.0
220
0.0
230
1.0
  0
SOLID
  5
1738
  8
0
  6
CONTINUOUS
 62
     4
 10
-35.534549550569551
 20
6.9013658779097202
 30
0.0
 11
-41.397217426805589
 21
6.9013658779097202
 31
0.0
 12
-41.397217426805589
 22
6.6471248546645016
 32
0.0
 13
-41.397217426805589
 23
6.6471248546645016
 33
0.0
210
0.0
220
0.0
230
-1.0
  0
SOLID
  5
1739
  8
0
  6
CONTINUOUS
 62
     4
 10
35.812313875115173
 20
6.6471248546645016
 30
0.0
 11
36.367227122469508
 21
6.3822685934078081
 31
0.0
 12
41.397217426805589
 22
6.3822685934078081
 32
0.0
 13
41.397217426805589
 23
6.3822685934078081
 33
0.0
  0
SOLID
  5
173A
  8
0
  6
CONTINUOUS
 62
     4
 10
-35.812313875115173
 20
6.6471248546645016
 30
0.0
 11
-41.397217426805589
 21
6.6471248546645016
 31
0.0
 12
-41.397217426805589
 22
6.3822685934078081
 32
0.0
 13
-41.397217426805589
 23
6.3822685934078081
 33
0.0
210
0.0
220
0.0
230
-1.0
  0
SOLID
  5
173B
  8
0
  6
CONTINUOUS
 62
     4
 10
36.367227122469508
 20
6.3822685934078081
 30
0.0
 11
36.395605047615852
 21
6.3780249825224411
 31
0.0
 12
41.397217426805589
 22
6.3780249825224411
 32
0.0
 13
41.397217426805589
 23
6.3780249825224411
 33
0.0
210
0.0
220
0.0
230
1.0
  0
SOLID
  5
173C
  8
0
  6
CONTINUOUS
 62
     4
 10
-36.367227122469508
 20
6.3822685934078081
 30
0.0
 11
-41.397217426805589
 21
6.3822685934078081
 31
0.0
 12
-41.397217426805589
 22
6.3780249825224411
 32
0.0
 13
-41.397217426805589
 23
6.3780249825224411
 33
0.0
210
0.0
220
0.0
230
-1.0
  0
SOLID
  5
173D
  8
0
  6
CONTINUOUS
 62
     4
 10
36.395605047615852
 20
6.3780249825224411
 30
0.0
 11
36.830297051111259
 21
6.3130215085791583
 31
0.0
 12
40.623899201557109
 22
6.3130215085791583
 32
0.0
 13
40.623899201557109
 23
6.3130215085791583
 33
0.0
210
0.0
220
0.0
230
1.0
  0
SOLID
  5
173E
  8
0
  6
CONTINUOUS
 62
     4
 10
-36.395605047615852
 20
6.3780249825224411
 30
0.0
 11
-41.397217426805589
 21
6.3780249825224411
 31
0.0
 12
-40.623899201557109
 22
6.3130215085791583
 32
0.0
 13
-40.623899201557109
 23
6.3130215085791583
 33
0.0
210
0.0
220
0.0
230
-1.0
  0
SOLID
  5
173F
  8
0
  6
CONTINUOUS
 62
     4
 10
36.830297051111259
 20
6.3130215085791583
 30
0.0
 11
36.975345467788848
 21
6.2913310912303242
 31
0.0
 12
39.848156940930942
 22
6.2913310912303242
 32
0.0
 13
39.848156940930942
 23
6.2913310912303242
 33
0.0
210
0.0
220
0.0
230
1.0
  0
SOLID
  5
1740
  8
0
  6
CONTINUOUS
 62
     4
 10
-36.830297051111259
 20
6.3130215085791583
 30
0.0
 11
-40.623899201557109
 21
6.3130215085791583
 31
0.0
 12
-39.848156940930942
 22
6.2913310912303242
 32
0.0
 13
-39.848156940930942
 23
6.2913310912303242
 33
0.0
210
0.0
220
0.0
230
-1.0
  0
LINE
  5
1741
  8
0
  6
CONTINUOUS
 62
     4
 10
37.560298341075871
 20
12.761725249354241
 30
0.0
 11
37.019562861712323
 21
12.71697570444282
 31
0.0
  0
LINE
  5
1742
  8
0
  6
CONTINUOUS
 62
     4
 10
38.999057940402963
 20
12.761725249354241
 30
0.0
 11
39.696289944214641
 21
12.71697570444282
 31
0.0
  0
LINE
  5
1743
  8
0
  6
CONTINUOUS
 62
     4
 10
37.019562861712323
 20
12.71697570444282
 30
0.0
 11
37.018307932537049
 21
12.71687185050382
 31
0.0
  0
LINE
  5
1744
  8
0
  6
CONTINUOUS
 62
     4
 10
39.696289944214641
 20
12.71697570444282
 30
0.0
 11
39.696823385656131
 21
12.71687185050382
 31
0.0
  0
LINE
  5
1745
  8
0
  6
CONTINUOUS
 62
     4
 10
37.018307932537049
 20
12.71687185050382
 30
0.0
 11
36.491064225760191
 21
12.58353204399163
 31
0.0
  0
LINE
  5
1746
  8
0
  6
CONTINUOUS
 62
     4
 10
39.696823385656131
 20
12.71687185050382
 30
0.0
 11
40.381717760188863
 21
12.58353204399163
 31
0.0
  0
LINE
  5
1747
  8
0
  6
CONTINUOUS
 62
     4
 10
36.491064225760191
 20
12.58353204399163
 30
0.0
 11
36.490976839946917
 21
12.583461390664089
 31
0.0
  0
LINE
  5
1748
  8
0
  6
CONTINUOUS
 62
     4
 10
40.381717760188863
 20
12.58353204399163
 30
0.0
 11
40.382080668069371
 21
12.583461390664089
 31
0.0
  0
LINE
  5
1749
  8
0
  6
CONTINUOUS
 62
     4
 10
36.490976839946917
 20
12.583461390664089
 30
0.0
 11
35.891474900683988
 21
12.0987510551557
 31
0.0
  0
LINE
  5
174A
  8
0
  6
CONTINUOUS
 62
     4
 10
40.382080668069371
 20
12.583461390664089
 30
0.0
 11
41.113928624880273
 21
12.0987510551557
 31
0.0
  0
LINE
  5
174B
  8
0
  6
CONTINUOUS
 62
     4
 10
35.891474900683988
 20
12.0987510551557
 30
0.0
 11
35.685233845176903
 21
11.932000683449891
 31
0.0
  0
LINE
  5
174C
  8
0
  6
CONTINUOUS
 62
     4
 10
41.113928624880273
 20
12.0987510551557
 30
0.0
 11
41.170785041525811
 21
11.932000683449891
 31
0.0
  0
LINE
  5
174D
  8
0
  6
CONTINUOUS
 62
     4
 10
35.685233845176903
 20
11.932000683449891
 30
0.0
 11
35.599839553946353
 21
11.491775001953259
 31
0.0
  0
LINE
  5
174E
  8
0
  6
CONTINUOUS
 62
     4
 10
41.170785041525811
 20
11.932000683449891
 30
0.0
 11
41.320887584082037
 21
11.491775001953259
 31
0.0
  0
LINE
  5
174F
  8
0
  6
CONTINUOUS
 62
     4
 10
39.077193647738902
 20
11.491775001953259
 30
0.0
 11
39.172372671498373
 21
11.26791232475091
 31
0.0
  0
LINE
  5
1750
  8
0
  6
CONTINUOUS
 62
     4
 10
41.320887584082037
 20
11.491775001953259
 30
0.0
 11
41.397217426805618
 21
11.26791232475091
 31
0.0
  0
LINE
  5
1751
  8
0
  6
CONTINUOUS
 62
     4
 10
35.599839553946353
 20
11.491775001953259
 30
0.0
 11
35.546872496908357
 21
11.2187185898043
 31
0.0
  0
LINE
  5
1752
  8
0
  6
CONTINUOUS
 62
     4
 10
37.77157673774348
 20
11.491775001953259
 30
0.0
 11
37.606741815282923
 21
11.2187185898043
 31
0.0
  0
LINE
  5
1753
  8
0
  6
CONTINUOUS
 62
     4
 10
39.172372671498373
 20
11.26791232475091
 30
0.0
 11
39.286555940655447
 21
10.99935134024434
 31
0.0
  0
LINE
  5
1754
  8
0
  6
CONTINUOUS
 62
     4
 10
41.397217426805618
 20
11.26791232475091
 30
0.0
 11
41.397217426805618
 21
10.99935134024434
 31
0.0
  0
LINE
  5
1755
  8
0
  6
CONTINUOUS
 62
     4
 10
35.546872496908357
 20
11.2187185898043
 30
0.0
 11
35.487898142962152
 21
10.914693288081221
 31
0.0
  0
LINE
  5
1756
  8
0
  6
CONTINUOUS
 62
     4
 10
37.606741815282923
 20
11.2187185898043
 30
0.0
 11
37.510310638838611
 21
10.914693288081221
 31
0.0
  0
LINE
  5
1757
  8
0
  6
CONTINUOUS
 62
     4
 10
39.286555940655447
 20
10.99935134024434
 30
0.0
 11
39.358044792162232
 21
10.469065590467549
 31
0.0
  0
LINE
  5
1758
  8
0
  6
CONTINUOUS
 62
     4
 10
41.397217426805618
 20
10.99935134024434
 30
0.0
 11
41.397217426805618
 21
10.469065590467549
 31
0.0
  0
LINE
  5
1759
  8
0
  6
CONTINUOUS
 62
     4
 10
37.199101342298697
 20
10.216853593185981
 30
0.0
 11
36.979712575700432
 21
10.197143529937639
 31
0.0
  0
LINE
  5
175A
  8
0
  6
CONTINUOUS
 62
     4
 10
38.623548826611547
 20
10.216853593185981
 30
0.0
 11
38.9928944834449
 21
10.197143529937639
 31
0.0
  0
LINE
  5
175B
  8
0
  6
CONTINUOUS
 62
     4
 10
36.979712575700432
 20
10.197143529937639
 30
0.0
 11
36.652116408761742
 21
10.16771202681012
 31
0.0
  0
LINE
  5
175C
  8
0
  6
CONTINUOUS
 62
     4
 10
38.9928944834449
 20
10.197143529937639
 30
0.0
 11
39.17533543461267
 21
10.16771202681012
 31
0.0
  0
LINE
  5
175D
  8
0
  6
CONTINUOUS
 62
     4
 10
39.358044792162232
 20
10.469065590467549
 30
0.0
 11
39.358044792162239
 21
10.138237224175491
 31
0.0
  0
LINE
  5
175E
  8
0
  6
CONTINUOUS
 62
     4
 10
41.397217426805618
 20
10.469065590467549
 30
0.0
 11
41.397217426805611
 21
10.138237224175491
 31
0.0
  0
LINE
  5
175F
  8
0
  6
CONTINUOUS
 62
     4
 10
36.652116408761742
 20
10.16771202681012
 30
0.0
 11
36.545117196963503
 21
10.138237224175491
 31
0.0
  0
LINE
  5
1760
  8
0
  6
CONTINUOUS
 62
     4
 10
39.17533543461267
 20
10.16771202681012
 30
0.0
 11
39.358044792162239
 21
10.138237224175491
 31
0.0
  0
LINE
  5
1761
  8
0
  6
CONTINUOUS
 62
     4
 10
36.545117196963503
 20
10.138237224175491
 30
0.0
 11
36.122649750137647
 21
10.02186118359089
 31
0.0
  0
LINE
  5
1762
  8
0
  6
CONTINUOUS
 62
     4
 10
41.397217426805611
 20
10.138237224175491
 30
0.0
 11
41.397217426805611
 21
10.02186118359089
 31
0.0
  0
LINE
  5
1763
  8
0
  6
CONTINUOUS
 62
     4
 10
36.122649750137647
 20
10.02186118359089
 30
0.0
 11
35.665923771344431
 21
9.7362947386209342
 31
0.0
  0
LINE
  5
1764
  8
0
  6
CONTINUOUS
 62
     4
 10
41.397217426805611
 20
10.02186118359089
 30
0.0
 11
41.397217426805611
 21
9.7362947386209342
 31
0.0
  0
LINE
  5
1765
  8
0
  6
CONTINUOUS
 62
     4
 10
35.665923771344431
 20
9.7362947386209342
 30
0.0
 11
35.356787490986662
 21
9.2951807234684214
 31
0.0
  0
LINE
  5
1766
  8
0
  6
CONTINUOUS
 62
     4
 10
41.397217426805611
 20
9.7362947386209342
 30
0.0
 11
41.397217426805611
 21
9.2951807234684214
 31
0.0
  0
LINE
  5
1767
  8
0
  6
CONTINUOUS
 62
     4
 10
35.356787490986662
 20
9.2951807234684214
 30
0.0
 11
35.255593960778619
 21
8.9511586626376651
 31
0.0
  0
LINE
  5
1768
  8
0
  6
CONTINUOUS
 62
     4
 10
41.397217426805611
 20
9.2951807234684214
 30
0.0
 11
41.397217426805611
 21
8.9511586626376651
 31
0.0
  0
LINE
  5
1769
  8
0
  6
CONTINUOUS
 62
     4
 10
35.255593960778619
 20
8.9511586626376651
 30
0.0
 11
35.218422470088413
 21
8.8247887968458034
 31
0.0
  0
LINE
  5
176A
  8
0
  6
CONTINUOUS
 62
     4
 10
37.839787993796932
 20
8.9511586626376651
 30
0.0
 11
37.480908192164058
 21
8.8247887968458034
 31
0.0
  0
LINE
  5
176B
  8
0
  6
CONTINUOUS
 62
     4
 10
35.218422470088413
 20
8.8247887968458034
 30
0.0
 11
35.206600249395962
 21
8.7845974455029552
 31
0.0
  0
LINE
  5
176C
  8
0
  6
CONTINUOUS
 62
     4
 10
37.480908192164058
 20
8.8247887968458034
 30
0.0
 11
37.45598367209125
 21
8.7845974455029552
 31
0.0
  0
LINE
  5
176D
  8
0
  6
CONTINUOUS
 62
     4
 10
35.206600249395962
 20
8.7845974455029552
 30
0.0
 11
35.196273344365551
 21
8.5014401058414677
 31
0.0
  0
LINE
  5
176E
  8
0
  6
CONTINUOUS
 62
     4
 10
37.45598367209125
 20
8.7845974455029552
 30
0.0
 11
37.28038467976193
 21
8.5014401058414677
 31
0.0
  0
LINE
  5
176F
  8
0
  6
CONTINUOUS
 62
     4
 10
35.196273344365551
 20
8.5014401058414677
 30
0.0
 11
35.187643683716217
 21
8.2648201558708632
 31
0.0
  0
LINE
  5
1770
  8
0
  6
CONTINUOUS
 62
     4
 10
37.28038467976193
 20
8.5014401058414677
 30
0.0
 11
37.261459666752138
 21
8.2648201558708632
 31
0.0
  0
LINE
  5
1771
  8
0
  6
CONTINUOUS
 62
     4
 10
35.187643683716217
 20
8.2648201558708632
 30
0.0
 11
35.187203014440499
 21
8.2527372772719971
 31
0.0
  0
LINE
  5
1772
  8
0
  6
CONTINUOUS
 62
     4
 10
37.261459666752138
 20
8.2648201558708632
 30
0.0
 11
37.263829093739382
 21
8.2527372772719971
 31
0.0
  0
LINE
  5
1773
  8
0
  6
CONTINUOUS
 62
     4
 10
35.187203014440499
 20
8.2527372772719971
 30
0.0
 11
35.194199592921507
 21
8.0318811101244805
 31
0.0
  0
LINE
  5
1774
  8
0
  6
CONTINUOUS
 62
     4
 10
37.263829093739382
 20
8.2527372772719971
 30
0.0
 11
37.30713852190717
 21
8.0318811101244805
 31
0.0
  0
LINE
  5
1775
  8
0
  6
CONTINUOUS
 62
     4
 10
35.194199592921507
 20
8.0318811101244805
 30
0.0
 11
35.202459155100129
 21
7.7711572077144799
 31
0.0
  0
LINE
  5
1776
  8
0
  6
CONTINUOUS
 62
     4
 10
37.30713852190717
 20
8.0318811101244805
 30
0.0
 11
37.615772994408303
 21
7.7711572077144799
 31
0.0
  0
LINE
  5
1777
  8
0
  6
CONTINUOUS
 62
     4
 10
35.202459155100129
 20
7.7711572077144799
 30
0.0
 11
35.203769510882672
 21
7.729794110520948
 31
0.0
  0
LINE
  5
1778
  8
0
  6
CONTINUOUS
 62
     4
 10
37.615772994408303
 20
7.7711572077144799
 30
0.0
 11
37.789441981868229
 21
7.729794110520948
 31
0.0
  0
LINE
  5
1779
  8
0
  6
CONTINUOUS
 62
     4
 10
39.358044792162232
 20
8.9511586626376651
 30
0.0
 11
39.358044792162232
 21
7.6775493076214643
 31
0.0
  0
LINE
  5
177A
  8
0
  6
CONTINUOUS
 62
     4
 10
41.397217426805611
 20
8.9511586626376651
 30
0.0
 11
41.397217426805597
 21
7.6775493076214643
 31
0.0
  0
LINE
  5
177B
  8
0
  6
CONTINUOUS
 62
     4
 10
35.203769510882672
 20
7.729794110520948
 30
0.0
 11
35.218155913297949
 21
7.6775493076214643
 31
0.0
  0
LINE
  5
177C
  8
0
  6
CONTINUOUS
 62
     4
 10
37.789441981868229
 20
7.729794110520948
 30
0.0
 11
38.008799395486072
 21
7.6775493076214643
 31
0.0
  0
LINE
  5
177D
  8
0
  6
CONTINUOUS
 62
     4
 10
35.218155913297949
 20
7.6775493076214643
 30
0.0
 11
35.342672117807062
 21
7.2253636690866569
 31
0.0
  0
LINE
  5
177E
  8
0
  6
CONTINUOUS
 62
     4
 10
41.397217426805597
 20
7.6775493076214643
 30
0.0
 11
41.397217426805597
 21
7.2253636690866569
 31
0.0
  0
LINE
  5
177F
  8
0
  6
CONTINUOUS
 62
     4
 10
35.342672117807062
 20
7.2253636690866569
 30
0.0
 11
35.534549550569551
 21
6.9013658779097202
 31
0.0
  0
LINE
  5
1780
  8
0
  6
CONTINUOUS
 62
     4
 10
41.397217426805597
 20
7.2253636690866569
 30
0.0
 11
41.397217426805589
 21
6.9013658779097202
 31
0.0
  0
LINE
  5
1781
  8
0
  6
CONTINUOUS
 62
     4
 10
35.534549550569551
 20
6.9013658779097202
 30
0.0
 11
35.812313875115173
 21
6.6471248546645016
 31
0.0
  0
LINE
  5
1782
  8
0
  6
CONTINUOUS
 62
     4
 10
41.397217426805589
 20
6.9013658779097202
 30
0.0
 11
41.397217426805589
 21
6.6471248546645016
 31
0.0
  0
LINE
  5
1783
  8
0
  6
CONTINUOUS
 62
     4
 10
35.812313875115173
 20
6.6471248546645016
 30
0.0
 11
36.367227122469508
 21
6.3822685934078081
 31
0.0
  0
LINE
  5
1784
  8
0
  6
CONTINUOUS
 62
     4
 10
41.397217426805589
 20
6.6471248546645016
 30
0.0
 11
41.397217426805589
 21
6.3822685934078081
 31
0.0
  0
LINE
  5
1785
  8
0
  6
CONTINUOUS
 62
     4
 10
36.367227122469508
 20
6.3822685934078081
 30
0.0
 11
36.395605047615852
 21
6.3780249825224411
 31
0.0
  0
LINE
  5
1786
  8
0
  6
CONTINUOUS
 62
     4
 10
41.397217426805589
 20
6.3822685934078081
 30
0.0
 11
41.397217426805589
 21
6.3780249825224411
 31
0.0
  0
LINE
  5
1787
  8
0
  6
CONTINUOUS
 62
     4
 10
36.395605047615852
 20
6.3780249825224411
 30
0.0
 11
36.830297051111259
 21
6.3130215085791583
 31
0.0
  0
LINE
  5
1788
  8
0
  6
CONTINUOUS
 62
     4
 10
41.397217426805589
 20
6.3780249825224411
 30
0.0
 11
40.623899201557109
 21
6.3130215085791583
 31
0.0
  0
LINE
  5
1789
  8
0
  6
CONTINUOUS
 62
     4
 10
36.830297051111259
 20
6.3130215085791583
 30
0.0
 11
36.975345467788848
 21
6.2913310912303242
 31
0.0
  0
LINE
  5
178A
  8
0
  6
CONTINUOUS
 62
     4
 10
40.623899201557109
 20
6.3130215085791583
 30
0.0
 11
39.848156940930942
 21
6.2913310912303242
 31
0.0
  0
ENDBLK
  5
178C
  8
0
  0
BLOCK
  8
0
  2
*U90
 70
     1
 10
0.0
 20
0.0
 30
0.0
  3
*U90
  1

  0
SOLID
  5
17B0
  8
0
  6
CONTINUOUS
 62
     4
 10
31.43349217408856
 20
12.761725249354241
 30
0.0
 11
30.68229383392881
 21
12.6288600621091
 31
0.0
 12
32.878959969958942
 22
12.6288600621091
 32
0.0
 13
32.878959969958942
 23
12.6288600621091
 33
0.0
210
0.0
220
0.0
230
1.0
  0
SOLID
  5
17B1
  8
0
  6
CONTINUOUS
 62
     4
 10
-31.43349217408856
 20
12.761725249354241
 30
0.0
 11
-32.448644450296271
 21
12.761725249354241
 31
0.0
 12
-32.878959969958942
 22
12.6288600621091
 32
0.0
 13
-32.878959969958942
 23
12.6288600621091
 33
0.0
210
0.0
220
0.0
230
-1.0
  0
SOLID
  5
17B2
  8
0
  6
CONTINUOUS
 62
     4
 10
30.68229383392881
 20
12.6288600621091
 30
0.0
 11
30.37296586084598
 21
12.44961613536635
 31
0.0
 12
33.459484071734153
 22
12.44961613536635
 32
0.0
 13
33.459484071734153
 23
12.44961613536635
 33
0.0
210
0.0
220
0.0
230
1.0
  0
SOLID
  5
17B3
  8
0
  6
CONTINUOUS
 62
     4
 10
-30.68229383392881
 20
12.6288600621091
 30
0.0
 11
-32.878959969958942
 21
12.6288600621091
 31
0.0
 12
-33.459484071734153
 22
12.44961613536635
 32
0.0
 13
-33.459484071734153
 23
12.44961613536635
 33
0.0
210
0.0
220
0.0
230
-1.0
  0
SOLID
  5
17B4
  8
0
  6
CONTINUOUS
 62
     4
 10
30.37296586084598
 20
12.44961613536635
 30
0.0
 11
30.022244046220621
 21
12.24638603424984
 31
0.0
 12
33.621278820540098
 22
12.24638603424984
 32
0.0
 13
33.621278820540098
 23
12.24638603424984
 33
0.0
210
0.0
220
0.0
230
1.0
  0
SOLID
  5
17B5
  8
0
  6
CONTINUOUS
 62
     4
 10
-30.37296586084598
 20
12.44961613536635
 30
0.0
 11
-33.459484071734153
 21
12.44961613536635
 31
0.0
 12
-33.621278820540098
 22
12.24638603424984
 32
0.0
 13
-33.621278820540098
 23
12.24638603424984
 33
0.0
210
0.0
220
0.0
230
-1.0
  0
SOLID
  5
17B6
  8
0
  6
CONTINUOUS
 62
     4
 10
27.908930251085039
 20
12.688276309604881
 30
0.0
 11
27.908930251085039
 21
12.24638603424984
 31
0.0
 12
30.022244046220621
 22
12.24638603424984
 32
0.0
 13
30.022244046220621
 23
12.24638603424984
 33
0.0
  0
SOLID
  5
17B7
  8
0
  6
CONTINUOUS
 62
     4
 10
-27.908930251085039
 20
12.688276309604881
 30
0.0
 11
-30.022244046220621
 21
12.688276309604881
 31
0.0
 12
-30.022244046220621
 22
12.24638603424984
 32
0.0
 13
-30.022244046220621
 23
12.24638603424984
 33
0.0
210
0.0
220
0.0
230
-1.0
  0
SOLID
  5
17B8
  8
0
  6
CONTINUOUS
 62
     4
 10
27.908930251085039
 20
12.24638603424984
 30
0.0
 11
27.908930251085039
 21
11.62194842100261
 31
0.0
 12
34.118403637313193
 22
11.62194842100261
 32
0.0
 13
34.118403637313193
 23
11.62194842100261
 33
0.0
210
0.0
220
0.0
230
1.0
  0
SOLID
  5
17B9
  8
0
  6
CONTINUOUS
 62
     4
 10
-27.908930251085039
 20
12.24638603424984
 30
0.0
 11
-33.621278820540098
 21
12.24638603424984
 31
0.0
 12
-34.118403637313193
 22
11.62194842100261
 32
0.0
 13
-34.118403637313193
 23
11.62194842100261
 33
0.0
210
0.0
220
0.0
230
-1.0
  0
SOLID
  5
17BA
  8
0
  6
CONTINUOUS
 62
     4
 10
27.908930251085039
 20
11.62194842100261
 30
0.0
 11
27.908930251085039
 21
11.20489331706864
 31
0.0
 12
34.238180244053019
 22
11.20489331706864
 32
0.0
 13
34.238180244053019
 23
11.20489331706864
 33
0.0
210
0.0
220
0.0
230
1.0
  0
SOLID
  5
17BB
  8
0
  6
CONTINUOUS
 62
     4
 10
-27.908930251085039
 20
11.62194842100261
 30
0.0
 11
-34.118403637313193
 21
11.62194842100261
 31
0.0
 12
-34.238180244053019
 22
11.20489331706864
 32
0.0
 13
-34.238180244053019
 23
11.20489331706864
 33
0.0
210
0.0
220
0.0
230
-1.0
  0
SOLID
  5
17BC
  8
0
  6
CONTINUOUS
 62
     4
 10
27.908930251085039
 20
11.20489331706864
 30
0.0
 11
27.908930251085039
 21
11.169386569952779
 31
0.0
 12
30.699011631192551
 22
11.169386569952779
 32
0.0
 13
30.699011631192551
 23
11.169386569952779
 33
0.0
210
0.0
220
0.0
230
1.0
  0
SOLID
  5
17BD
  8
0
  6
CONTINUOUS
 62
     4
 10
-27.908930251085039
 20
11.20489331706864
 30
0.0
 11
-31.02714412116546
 21
11.20489331706864
 31
0.0
 12
-30.699011631192551
 22
11.169386569952779
 32
0.0
 13
-30.699011631192551
 23
11.169386569952779
 33
0.0
210
0.0
220
0.0
230
-1.0
  0
SOLID
  5
17BE
  8
0
  6
CONTINUOUS
 62
     4
 10
31.11853605958073
 20
11.20489331706864
 30
0.0
 11
31.54698554379506
 21
11.153478444881589
 31
0.0
 12
34.252946395740011
 22
11.153478444881589
 32
0.0
 13
34.252946395740011
 23
11.153478444881589
 33
0.0
  0
SOLID
  5
17BF
  8
0
  6
CONTINUOUS
 62
     4
 10
-31.11853605958073
 20
11.20489331706864
 30
0.0
 11
-34.238180244053019
 21
11.20489331706864
 31
0.0
 12
-34.252946395740011
 22
11.153478444881589
 32
0.0
 13
-34.252946395740011
 23
11.153478444881589
 33
0.0
210
0.0
220
0.0
230
-1.0
  0
SOLID
  5
17C0
  8
0
  6
CONTINUOUS
 62
     4
 10
27.908930251085039
 20
11.169386569952779
 30
0.0
 11
27.908930251085039
 21
11.0645100890686
 31
0.0
 12
30.38606980940466
 22
11.0645100890686
 32
0.0
 13
30.38606980940466
 23
11.0645100890686
 33
0.0
210
0.0
220
0.0
230
1.0
  0
SOLID
  5
17C1
  8
0
  6
CONTINUOUS
 62
     4
 10
-27.908930251085039
 20
11.169386569952779
 30
0.0
 11
-30.699011631192551
 21
11.169386569952779
 31
0.0
 12
-30.38606980940466
 22
11.0645100890686
 32
0.0
 13
-30.38606980940466
 23
11.0645100890686
 33
0.0
210
0.0
220
0.0
230
-1.0
  0
SOLID
  5
17C2
  8
0
  6
CONTINUOUS
 62
     4
 10
31.54698554379506
 20
11.153478444881589
 30
0.0
 11
31.817183842647449
 21
11.052301202499709
 31
0.0
 12
34.28200410695726
 22
11.052301202499709
 32
0.0
 13
34.28200410695726
 23
11.052301202499709
 33
0.0
210
0.0
220
0.0
230
1.0
  0
SOLID
  5
17C3
  8
0
  6
CONTINUOUS
 62
     4
 10
-31.54698554379506
 20
11.153478444881589
 30
0.0
 11
-34.252946395740011
 21
11.153478444881589
 31
0.0
 12
-34.28200410695726
 22
11.052301202499709
 32
0.0
 13
-34.28200410695726
 23
11.052301202499709
 33
0.0
210
0.0
220
0.0
230
-1.0
  0
SOLID
  5
17C4
  8
0
  6
CONTINUOUS
 62
     4
 10
31.817183842647449
 20
11.052301202499709
 30
0.0
 11
31.951105794682331
 21
11.00215338936086
 31
0.0
 12
34.286692628305232
 22
11.00215338936086
 32
0.0
 13
34.286692628305232
 23
11.00215338936086
 33
0.0
210
0.0
220
0.0
230
1.0
  0
SOLID
  5
17C5
  8
0
  6
CONTINUOUS
 62
     4
 10
-31.817183842647449
 20
11.052301202499709
 30
0.0
 11
-34.28200410695726
 21
11.052301202499709
 31
0.0
 12
-34.286692628305232
 22
11.00215338936086
 32
0.0
 13
-34.286692628305232
 23
11.00215338936086
 33
0.0
210
0.0
220
0.0
230
-1.0
  0
SOLID
  5
17C6
  8
0
  6
CONTINUOUS
 62
     4
 10
27.908930251085039
 20
11.0645100890686
 30
0.0
 11
27.908930251085039
 21
10.65623175635891
 31
0.0
 12
30.123012038905141
 22
10.65623175635891
 32
0.0
 13
30.123012038905141
 23
10.65623175635891
 33
0.0
210
0.0
220
0.0
230
1.0
  0
SOLID
  5
17C7
  8
0
  6
CONTINUOUS
 62
     4
 10
-27.908930251085039
 20
11.0645100890686
 30
0.0
 11
-30.38606980940466
 21
11.0645100890686
 31
0.0
 12
-30.123012038905141
 22
10.65623175635891
 32
0.0
 13
-30.123012038905141
 23
10.65623175635891
 33
0.0
210
0.0
220
0.0
230
-1.0
  0
SOLID
  5
17C8
  8
0
  6
CONTINUOUS
 62
     4
 10
31.951105794682331
 20
11.00215338936086
 30
0.0
 11
32.155316531736119
 21
10.59951958337802
 31
0.0
 12
34.324336487062112
 22
10.59951958337802
 32
0.0
 13
34.324336487062112
 23
10.59951958337802
 33
0.0
210
0.0
220
0.0
230
1.0
  0
SOLID
  5
17C9
  8
0
  6
CONTINUOUS
 62
     4
 10
-31.951105794682331
 20
11.00215338936086
 30
0.0
 11
-34.286692628305232
 21
11.00215338936086
 31
0.0
 12
-34.324336487062112
 22
10.59951958337802
 32
0.0
 13
-34.324336487062112
 23
10.59951958337802
 33
0.0
210
0.0
220
0.0
230
-1.0
  0
SOLID
  5
17CA
  8
0
  6
CONTINUOUS
 62
     4
 10
32.155316531736119
 20
10.59951958337802
 30
0.0
 11
32.176978618550358
 21
10.46220016363166
 31
0.0
 12
34.337175033564407
 22
10.46220016363166
 32
0.0
 13
34.337175033564407
 23
10.46220016363166
 33
0.0
  0
SOLID
  5
17CB
  8
0
  6
CONTINUOUS
 62
     4
 10
-32.155316531736119
 20
10.59951958337802
 30
0.0
 11
-34.324336487062112
 21
10.59951958337802
 31
0.0
 12
-34.337175033564407
 22
10.46220016363166
 32
0.0
 13
-34.337175033564407
 23
10.46220016363166
 33
0.0
210
0.0
220
0.0
230
-1.0
  0
SOLID
  5
17CC
  8
0
  6
CONTINUOUS
 62
     4
 10
27.908930251085039
 20
10.65623175635891
 30
0.0
 11
27.908930251085039
 21
10.179358804748111
 31
0.0
 12
30.030910054114461
 22
10.179358804748111
 32
0.0
 13
30.030910054114461
 23
10.179358804748111
 33
0.0
210
0.0
220
0.0
230
1.0
  0
SOLID
  5
17CD
  8
0
  6
CONTINUOUS
 62
     4
 10
-27.908930251085039
 20
10.65623175635891
 30
0.0
 11
-30.123012038905141
 21
10.65623175635891
 31
0.0
 12
-30.030910054114461
 22
10.179358804748111
 32
0.0
 13
-30.030910054114461
 23
10.179358804748111
 33
0.0
210
0.0
220
0.0
230
-1.0
  0
SOLID
  5
17CE
  8
0
  6
CONTINUOUS
 62
     4
 10
32.176978618550358
 20
10.46220016363166
 30
0.0
 11
32.225664234538613
 21
10.15357428677912
 31
0.0
 12
34.337175033564407
 22
10.15357428677912
 32
0.0
 13
34.337175033564407
 23
10.15357428677912
 33
0.0
  0
SOLID
  5
17CF
  8
0
  6
CONTINUOUS
 62
     4
 10
-32.176978618550358
 20
10.46220016363166
 30
0.0
 11
-34.337175033564407
 21
10.46220016363166
 31
0.0
 12
-34.337175033564407
 22
10.15357428677912
 32
0.0
 13
-34.337175033564407
 23
10.15357428677912
 33
0.0
210
0.0
220
0.0
230
-1.0
  0
SOLID
  5
17D0
  8
0
  6
CONTINUOUS
 62
     4
 10
32.225664234538613
 20
10.15357428677912
 30
0.0
 11
32.22566423453862
 21
9.3816366283648644
 31
0.0
 12
34.337175033564407
 22
9.3816366283648644
 32
0.0
 13
34.337175033564407
 23
9.3816366283648644
 33
0.0
  0
SOLID
  5
17D1
  8
0
  6
CONTINUOUS
 62
     4
 10
-32.225664234538613
 20
10.15357428677912
 30
0.0
 11
-34.337175033564407
 21
10.15357428677912
 31
0.0
 12
-34.337175033564407
 22
9.3816366283648644
 32
0.0
 13
-34.337175033564407
 23
9.3816366283648644
 33
0.0
210
0.0
220
0.0
230
-1.0
  0
SOLID
  5
17D2
  8
0
  6
CONTINUOUS
 62
     4
 10
32.22566423453862
 20
9.3816366283648644
 30
0.0
 11
32.18992863629714
 21
8.8740694997394236
 31
0.0
 12
34.337175033564407
 22
8.8740694997394236
 32
0.0
 13
34.337175033564407
 23
8.8740694997394236
 33
0.0
210
0.0
220
0.0
230
1.0
  0
SOLID
  5
17D3
  8
0
  6
CONTINUOUS
 62
     4
 10
-32.22566423453862
 20
9.3816366283648644
 30
0.0
 11
-34.337175033564407
 21
9.3816366283648644
 31
0.0
 12
-34.337175033564407
 22
8.8740694997394236
 32
0.0
 13
-34.337175033564407
 23
8.8740694997394236
 33
0.0
210
0.0
220
0.0
230
-1.0
  0
SOLID
  5
17D4
  8
0
  6
CONTINUOUS
 62
     4
 10
32.18992863629714
 20
8.8740694997394236
 30
0.0
 11
32.154491876164229
 21
8.7085166987223648
 31
0.0
 12
34.337175033564407
 22
8.7085166987223648
 32
0.0
 13
34.337175033564407
 23
8.7085166987223648
 33
0.0
210
0.0
220
0.0
230
1.0
  0
SOLID
  5
17D5
  8
0
  6
CONTINUOUS
 62
     4
 10
-32.18992863629714
 20
8.8740694997394236
 30
0.0
 11
-34.337175033564407
 21
8.8740694997394236
 31
0.0
 12
-34.337175033564407
 22
8.7085166987223648
 32
0.0
 13
-34.337175033564407
 23
8.7085166987223648
 33
0.0
210
0.0
220
0.0
230
-1.0
  0
SOLID
  5
17D6
  8
0
  6
CONTINUOUS
 62
     4
 10
32.154491876164229
 20
8.7085166987223648
 30
0.0
 11
32.083426905871512
 21
8.3765166839910883
 31
0.0
 12
34.300226888469929
 22
8.3765166839910883
 32
0.0
 13
34.300226888469929
 23
8.3765166839910883
 33
0.0
210
0.0
220
0.0
230
1.0
  0
SOLID
  5
17D7
  8
0
  6
CONTINUOUS
 62
     4
 10
-32.154491876164229
 20
8.7085166987223648
 30
0.0
 11
-34.337175033564407
 21
8.7085166987223648
 31
0.0
 12
-34.300226888469929
 22
8.3765166839910883
 32
0.0
 13
-34.300226888469929
 23
8.3765166839910883
 33
0.0
210
0.0
220
0.0
230
-1.0
  0
SOLID
  5
17D8
  8
0
  6
CONTINUOUS
 62
     4
 10
32.083426905871512
 20
8.3765166839910883
 30
0.0
 11
31.932228762072661
 21
8.1111372781850832
 31
0.0
 12
34.27069292354301
 22
8.1111372781850832
 32
0.0
 13
34.27069292354301
 23
8.1111372781850832
 33
0.0
  0
SOLID
  5
17D9
  8
0
  6
CONTINUOUS
 62
     4
 10
-32.083426905871512
 20
8.3765166839910883
 30
0.0
 11
-34.300226888469929
 21
8.3765166839910883
 31
0.0
 12
-34.27069292354301
 22
8.1111372781850832
 32
0.0
 13
-34.27069292354301
 23
8.1111372781850832
 33
0.0
210
0.0
220
0.0
230
-1.0
  0
SOLID
  5
17DA
  8
0
  6
CONTINUOUS
 62
     4
 10
31.932228762072661
 20
8.1111372781850832
 30
0.0
 11
31.749832553403561
 21
7.9917701052239023
 31
0.0
 12
34.257408599957493
 22
7.9917701052239023
 32
0.0
 13
34.257408599957493
 23
7.9917701052239023
 33
0.0
210
0.0
220
0.0
230
1.0
  0
SOLID
  5
17DB
  8
0
  6
CONTINUOUS
 62
     4
 10
-31.932228762072661
 20
8.1111372781850832
 30
0.0
 11
-34.27069292354301
 21
8.1111372781850832
 31
0.0
 12
-34.257408599957493
 22
7.9917701052239023
 32
0.0
 13
-34.257408599957493
 23
7.9917701052239023
 33
0.0
210
0.0
220
0.0
230
-1.0
  0
SOLID
  5
17DC
  8
0
  6
CONTINUOUS
 62
     4
 10
31.749832553403561
 20
7.9917701052239023
 30
0.0
 11
31.676663056039899
 21
7.9438851403388258
 31
0.0
 12
34.240872906506752
 22
7.9438851403388258
 32
0.0
 13
34.240872906506752
 23
7.9438851403388258
 33
0.0
210
0.0
220
0.0
230
1.0
  0
SOLID
  5
17DD
  8
0
  6
CONTINUOUS
 62
     4
 10
-31.749832553403561
 20
7.9917701052239023
 30
0.0
 11
-34.257408599957493
 21
7.9917701052239023
 31
0.0
 12
-34.240872906506752
 22
7.9438851403388258
 32
0.0
 13
-34.240872906506752
 23
7.9438851403388258
 33
0.0
210
0.0
220
0.0
230
-1.0
  0
SOLID
  5
17DE
  8
0
  6
CONTINUOUS
 62
     4
 10
31.676663056039899
 20
7.9438851403388258
 30
0.0
 11
31.511299495553448
 21
7.9004115087946998
 31
0.0
 12
34.225860539971059
 22
7.9004115087946998
 32
0.0
 13
34.225860539971059
 23
7.9004115087946998
 33
0.0
210
0.0
220
0.0
230
1.0
  0
SOLID
  5
17DF
  8
0
  6
CONTINUOUS
 62
     4
 10
-31.676663056039899
 20
7.9438851403388258
 30
0.0
 11
-34.240872906506752
 21
7.9438851403388258
 31
0.0
 12
-34.225860539971059
 22
7.9004115087946998
 32
0.0
 13
-34.225860539971059
 23
7.9004115087946998
 33
0.0
210
0.0
220
0.0
230
-1.0
  0
SOLID
  5
17E0
  8
0
  6
CONTINUOUS
 62
     4
 10
31.511299495553448
 20
7.9004115087946998
 30
0.0
 11
31.340944262058329
 21
7.885777363886084
 31
0.0
 12
34.220807059516318
 22
7.885777363886084
 32
0.0
 13
34.220807059516318
 23
7.885777363886084
 33
0.0
210
0.0
220
0.0
230
1.0
  0
SOLID
  5
17E1
  8
0
  6
CONTINUOUS
 62
     4
 10
-31.511299495553448
 20
7.9004115087946998
 30
0.0
 11
-34.225860539971059
 21
7.9004115087946998
 31
0.0
 12
-34.220807059516318
 22
7.885777363886084
 32
0.0
 13
-34.220807059516318
 23
7.885777363886084
 33
0.0
210
0.0
220
0.0
230
-1.0
  0
SOLID
  5
17E2
  8
0
  6
CONTINUOUS
 62
     4
 10
27.908930251085039
 20
10.179358804748111
 30
0.0
 11
27.908930251085039
 21
7.885777363886084
 31
0.0
 12
30.030910054114461
 22
7.885777363886084
 32
0.0
 13
30.030910054114461
 23
7.885777363886084
 33
0.0
210
0.0
220
0.0
230
1.0
  0
SOLID
  5
17E3
  8
0
  6
CONTINUOUS
 62
     4
 10
-27.908930251085039
 20
10.179358804748111
 30
0.0
 11
-30.030910054114461
 21
10.179358804748111
 31
0.0
 12
-30.030910054114461
 22
7.885777363886084
 32
0.0
 13
-30.030910054114461
 23
7.885777363886084
 33
0.0
210
0.0
220
0.0
230
-1.0
  0
SOLID
  5
17E4
  8
0
  6
CONTINUOUS
 62
     4
 10
27.908930251085039
 20
7.885777363886084
 30
0.0
 11
27.908930251085039
 21
7.3100977979820794
 31
0.0
 12
34.02201270202886
 22
7.3100977979820794
 32
0.0
 13
34.02201270202886
 23
7.3100977979820794
 33
0.0
  0
SOLID
  5
17E5
  8
0
  6
CONTINUOUS
 62
     4
 10
-27.908930251085039
 20
7.885777363886084
 30
0.0
 11
-34.220807059516318
 21
7.885777363886084
 31
0.0
 12
-34.02201270202886
 22
7.3100977979820794
 32
0.0
 13
-34.02201270202886
 23
7.3100977979820794
 33
0.0
210
0.0
220
0.0
230
-1.0
  0
SOLID
  5
17E6
  8
0
  6
CONTINUOUS
 62
     4
 10
27.908930251085039
 20
7.3100977979820794
 30
0.0
 11
27.908930251085039
 21
6.7588625753243399
 31
0.0
 12
33.604858161461983
 22
6.7588625753243399
 32
0.0
 13
33.604858161461983
 23
6.7588625753243399
 33
0.0
210
0.0
220
0.0
230
1.0
  0
SOLID
  5
17E7
  8
0
  6
CONTINUOUS
 62
     4
 10
-27.908930251085039
 20
7.3100977979820794
 30
0.0
 11
-34.02201270202886
 21
7.3100977979820794
 31
0.0
 12
-33.604858161461983
 22
6.7588625753243399
 32
0.0
 13
-33.604858161461983
 23
6.7588625753243399
 33
0.0
210
0.0
220
0.0
230
-1.0
  0
SOLID
  5
17E8
  8
0
  6
CONTINUOUS
 62
     4
 10
27.908930251085039
 20
6.7588625753243399
 30
0.0
 11
27.908930251085039
 21
6.4189705055174278
 31
0.0
 12
33.00290171594748
 22
6.4189705055174278
 32
0.0
 13
33.00290171594748
 23
6.4189705055174278
 33
0.0
210
0.0
220
0.0
230
1.0
  0
SOLID
  5
17E9
  8
0
  6
CONTINUOUS
 62
     4
 10
-27.908930251085039
 20
6.7588625753243399
 30
0.0
 11
-33.604858161461983
 21
6.7588625753243399
 31
0.0
 12
-33.00290171594748
 22
6.4189705055174278
 32
0.0
 13
-33.00290171594748
 23
6.4189705055174278
 33
0.0
210
0.0
220
0.0
230
-1.0
  0
SOLID
  5
17EA
  8
0
  6
CONTINUOUS
 62
     4
 10
27.908930251085039
 20
6.4189705055174278
 30
0.0
 11
27.908930251085039
 21
6.3391745294582611
 31
0.0
 12
32.665376440190208
 22
6.3391745294582611
 32
0.0
 13
32.665376440190208
 23
6.3391745294582611
 33
0.0
210
0.0
220
0.0
230
1.0
  0
SOLID
  5
17EB
  8
0
  6
CONTINUOUS
 62
     4
 10
-27.908930251085039
 20
6.4189705055174278
 30
0.0
 11
-33.00290171594748
 21
6.4189705055174278
 31
0.0
 12
-32.665376440190208
 22
6.3391745294582611
 32
0.0
 13
-32.665376440190208
 23
6.3391745294582611
 33
0.0
210
0.0
220
0.0
230
-1.0
  0
SOLID
  5
17EC
  8
0
  6
CONTINUOUS
 62
     4
 10
30.022244046220621
 20
6.3391745294582611
 30
0.0
 11
30.223110450430699
 21
6.3234327960089303
 31
0.0
 12
32.598791216400933
 22
6.3234327960089303
 32
0.0
 13
32.598791216400933
 23
6.3234327960089303
 33
0.0
210
0.0
220
0.0
230
1.0
  0
SOLID
  5
17ED
  8
0
  6
CONTINUOUS
 62
     4
 10
-30.022244046220621
 20
6.3391745294582611
 30
0.0
 11
-32.665376440190208
 21
6.3391745294582611
 31
0.0
 12
-32.598791216400933
 22
6.3234327960089303
 32
0.0
 13
-32.598791216400933
 23
6.3234327960089303
 33
0.0
210
0.0
220
0.0
230
-1.0
  0
SOLID
  5
17EE
  8
0
  6
CONTINUOUS
 62
     4
 10
30.223110450430699
 20
6.3234327960089303
 30
0.0
 11
30.480006273767732
 21
6.3033000834673709
 31
0.0
 12
32.339144741609907
 22
6.3033000834673709
 32
0.0
 13
32.339144741609907
 23
6.3033000834673709
 33
0.0
210
0.0
220
0.0
230
1.0
  0
SOLID
  5
17EF
  8
0
  6
CONTINUOUS
 62
     4
 10
-30.223110450430699
 20
6.3234327960089303
 30
0.0
 11
-32.598791216400933
 21
6.3234327960089303
 31
0.0
 12
-32.339144741609907
 22
6.3033000834673709
 32
0.0
 13
-32.339144741609907
 23
6.3033000834673709
 33
0.0
210
0.0
220
0.0
230
-1.0
  0
SOLID
  5
17F0
  8
0
  6
CONTINUOUS
 62
     4
 10
30.480006273767732
 20
6.3033000834673709
 30
0.0
 11
30.939016051516401
 21
6.2913310912303224
 31
0.0
 12
32.184783691913502
 22
6.2913310912303224
 32
0.0
 13
32.184783691913502
 23
6.2913310912303224
 33
0.0
210
0.0
220
0.0
230
1.0
  0
SOLID
  5
17F1
  8
0
  6
CONTINUOUS
 62
     4
 10
-30.480006273767732
 20
6.3033000834673709
 30
0.0
 11
-32.339144741609907
 21
6.3033000834673709
 31
0.0
 12
-32.184783691913502
 22
6.2913310912303224
 32
0.0
 13
-32.184783691913502
 23
6.2913310912303224
 33
0.0
210
0.0
220
0.0
230
-1.0
  0
SOLID
  5
17F2
  8
0
  6
CONTINUOUS
 62
     4
 10
27.908930251085039
 20
6.3391745294582611
 30
0.0
 11
27.908930251085039
 21
3.992809411462424
 31
0.0
 12
30.022244046220621
 22
3.992809411462424
 32
0.0
 13
30.022244046220621
 23
3.992809411462424
 33
0.0
210
0.0
220
0.0
230
1.0
  0
SOLID
  5
17F3
  8
0
  6
CONTINUOUS
 62
     4
 10
-27.908930251085039
 20
6.3391745294582611
 30
0.0
 11
-30.022244046220621
 21
6.3391745294582611
 31
0.0
 12
-30.022244046220621
 22
3.992809411462424
 32
0.0
 13
-30.022244046220621
 23
3.992809411462424
 33
0.0
210
0.0
220
0.0
230
-1.0
  0
LINE
  5
17F4
  8
0
  6
CONTINUOUS
 62
     4
 10
31.43349217408856
 20
12.761725249354241
 30
0.0
 11
30.68229383392881
 21
12.6288600621091
 31
0.0
  0
LINE
  5
17F5
  8
0
  6
CONTINUOUS
 62
     4
 10
32.448644450296271
 20
12.761725249354241
 30
0.0
 11
32.878959969958942
 21
12.6288600621091
 31
0.0
  0
LINE
  5
17F6
  8
0
  6
CONTINUOUS
 62
     4
 10
30.68229383392881
 20
12.6288600621091
 30
0.0
 11
30.37296586084598
 21
12.44961613536635
 31
0.0
  0
LINE
  5
17F7
  8
0
  6
CONTINUOUS
 62
     4
 10
32.878959969958942
 20
12.6288600621091
 30
0.0
 11
33.459484071734153
 21
12.44961613536635
 31
0.0
  0
LINE
  5
17F8
  8
0
  6
CONTINUOUS
 62
     4
 10
30.37296586084598
 20
12.44961613536635
 30
0.0
 11
30.022244046220621
 21
12.24638603424984
 31
0.0
  0
LINE
  5
17F9
  8
0
  6
CONTINUOUS
 62
     4
 10
33.459484071734153
 20
12.44961613536635
 30
0.0
 11
33.621278820540098
 21
12.24638603424984
 31
0.0
  0
LINE
  5
17FA
  8
0
  6
CONTINUOUS
 62
     4
 10
27.908930251085039
 20
12.688276309604881
 30
0.0
 11
27.908930251085039
 21
12.24638603424984
 31
0.0
  0
LINE
  5
17FB
  8
0
  6
CONTINUOUS
 62
     4
 10
30.022244046220621
 20
12.688276309604881
 30
0.0
 11
30.022244046220621
 21
12.24638603424984
 31
0.0
  0
LINE
  5
17FC
  8
0
  6
CONTINUOUS
 62
     4
 10
27.908930251085039
 20
12.24638603424984
 30
0.0
 11
27.908930251085039
 21
11.62194842100261
 31
0.0
  0
LINE
  5
17FD
  8
0
  6
CONTINUOUS
 62
     4
 10
33.621278820540098
 20
12.24638603424984
 30
0.0
 11
34.118403637313193
 21
11.62194842100261
 31
0.0
  0
LINE
  5
17FE
  8
0
  6
CONTINUOUS
 62
     4
 10
27.908930251085039
 20
11.62194842100261
 30
0.0
 11
27.908930251085039
 21
11.20489331706864
 31
0.0
  0
LINE
  5
17FF
  8
0
  6
CONTINUOUS
 62
     4
 10
34.118403637313193
 20
11.62194842100261
 30
0.0
 11
34.238180244053019
 21
11.20489331706864
 31
0.0
  0
LINE
  5
1800
  8
0
  6
CONTINUOUS
 62
     4
 10
27.908930251085039
 20
11.20489331706864
 30
0.0
 11
27.908930251085039
 21
11.169386569952779
 31
0.0
  0
LINE
  5
1801
  8
0
  6
CONTINUOUS
 62
     4
 10
31.02714412116546
 20
11.20489331706864
 30
0.0
 11
30.699011631192551
 21
11.169386569952779
 31
0.0
  0
LINE
  5
1802
  8
0
  6
CONTINUOUS
 62
     4
 10
31.11853605958073
 20
11.20489331706864
 30
0.0
 11
31.54698554379506
 21
11.153478444881589
 31
0.0
  0
LINE
  5
1803
  8
0
  6
CONTINUOUS
 62
     4
 10
34.238180244053019
 20
11.20489331706864
 30
0.0
 11
34.252946395740011
 21
11.153478444881589
 31
0.0
  0
LINE
  5
1804
  8
0
  6
CONTINUOUS
 62
     4
 10
27.908930251085039
 20
11.169386569952779
 30
0.0
 11
27.908930251085039
 21
11.0645100890686
 31
0.0
  0
LINE
  5
1805
  8
0
  6
CONTINUOUS
 62
     4
 10
30.699011631192551
 20
11.169386569952779
 30
0.0
 11
30.38606980940466
 21
11.0645100890686
 31
0.0
  0
LINE
  5
1806
  8
0
  6
CONTINUOUS
 62
     4
 10
31.54698554379506
 20
11.153478444881589
 30
0.0
 11
31.817183842647449
 21
11.052301202499709
 31
0.0
  0
LINE
  5
1807
  8
0
  6
CONTINUOUS
 62
     4
 10
34.252946395740011
 20
11.153478444881589
 30
0.0
 11
34.28200410695726
 21
11.052301202499709
 31
0.0
  0
LINE
  5
1808
  8
0
  6
CONTINUOUS
 62
     4
 10
31.817183842647449
 20
11.052301202499709
 30
0.0
 11
31.951105794682331
 21
11.00215338936086
 31
0.0
  0
LINE
  5
1809
  8
0
  6
CONTINUOUS
 62
     4
 10
34.28200410695726
 20
11.052301202499709
 30
0.0
 11
34.286692628305232
 21
11.00215338936086
 31
0.0
  0
LINE
  5
180A
  8
0
  6
CONTINUOUS
 62
     4
 10
27.908930251085039
 20
11.0645100890686
 30
0.0
 11
27.908930251085039
 21
10.65623175635891
 31
0.0
  0
LINE
  5
180B
  8
0
  6
CONTINUOUS
 62
     4
 10
30.38606980940466
 20
11.0645100890686
 30
0.0
 11
30.123012038905141
 21
10.65623175635891
 31
0.0
  0
LINE
  5
180C
  8
0
  6
CONTINUOUS
 62
     4
 10
31.951105794682331
 20
11.00215338936086
 30
0.0
 11
32.155316531736119
 21
10.59951958337802
 31
0.0
  0
LINE
  5
180D
  8
0
  6
CONTINUOUS
 62
     4
 10
34.286692628305232
 20
11.00215338936086
 30
0.0
 11
34.324336487062112
 21
10.59951958337802
 31
0.0
  0
LINE
  5
180E
  8
0
  6
CONTINUOUS
 62
     4
 10
32.155316531736119
 20
10.59951958337802
 30
0.0
 11
32.176978618550358
 21
10.46220016363166
 31
0.0
  0
LINE
  5
180F
  8
0
  6
CONTINUOUS
 62
     4
 10
34.324336487062112
 20
10.59951958337802
 30
0.0
 11
34.337175033564407
 21
10.46220016363166
 31
0.0
  0
LINE
  5
1810
  8
0
  6
CONTINUOUS
 62
     4
 10
27.908930251085039
 20
10.65623175635891
 30
0.0
 11
27.908930251085039
 21
10.179358804748111
 31
0.0
  0
LINE
  5
1811
  8
0
  6
CONTINUOUS
 62
     4
 10
30.123012038905141
 20
10.65623175635891
 30
0.0
 11
30.030910054114461
 21
10.179358804748111
 31
0.0
  0
LINE
  5
1812
  8
0
  6
CONTINUOUS
 62
     4
 10
32.176978618550358
 20
10.46220016363166
 30
0.0
 11
32.225664234538613
 21
10.15357428677912
 31
0.0
  0
LINE
  5
1813
  8
0
  6
CONTINUOUS
 62
     4
 10
34.337175033564407
 20
10.46220016363166
 30
0.0
 11
34.337175033564407
 21
10.15357428677912
 31
0.0
  0
LINE
  5
1814
  8
0
  6
CONTINUOUS
 62
     4
 10
32.225664234538613
 20
10.15357428677912
 30
0.0
 11
32.22566423453862
 21
9.3816366283648644
 31
0.0
  0
LINE
  5
1815
  8
0
  6
CONTINUOUS
 62
     4
 10
34.337175033564407
 20
10.15357428677912
 30
0.0
 11
34.337175033564407
 21
9.3816366283648644
 31
0.0
  0
LINE
  5
1816
  8
0
  6
CONTINUOUS
 62
     4
 10
32.22566423453862
 20
9.3816366283648644
 30
0.0
 11
32.18992863629714
 21
8.8740694997394236
 31
0.0
  0
LINE
  5
1817
  8
0
  6
CONTINUOUS
 62
     4
 10
34.337175033564407
 20
9.3816366283648644
 30
0.0
 11
34.337175033564407
 21
8.8740694997394236
 31
0.0
  0
LINE
  5
1818
  8
0
  6
CONTINUOUS
 62
     4
 10
32.18992863629714
 20
8.8740694997394236
 30
0.0
 11
32.154491876164229
 21
8.7085166987223648
 31
0.0
  0
LINE
  5
1819
  8
0
  6
CONTINUOUS
 62
     4
 10
34.337175033564407
 20
8.8740694997394236
 30
0.0
 11
34.337175033564407
 21
8.7085166987223648
 31
0.0
  0
LINE
  5
181A
  8
0
  6
CONTINUOUS
 62
     4
 10
32.154491876164229
 20
8.7085166987223648
 30
0.0
 11
32.083426905871512
 21
8.3765166839910883
 31
0.0
  0
LINE
  5
181B
  8
0
  6
CONTINUOUS
 62
     4
 10
34.337175033564407
 20
8.7085166987223648
 30
0.0
 11
34.300226888469929
 21
8.3765166839910883
 31
0.0
  0
LINE
  5
181C
  8
0
  6
CONTINUOUS
 62
     4
 10
32.083426905871512
 20
8.3765166839910883
 30
0.0
 11
31.932228762072661
 21
8.1111372781850832
 31
0.0
  0
LINE
  5
181D
  8
0
  6
CONTINUOUS
 62
     4
 10
34.300226888469929
 20
8.3765166839910883
 30
0.0
 11
34.27069292354301
 21
8.1111372781850832
 31
0.0
  0
LINE
  5
181E
  8
0
  6
CONTINUOUS
 62
     4
 10
31.932228762072661
 20
8.1111372781850832
 30
0.0
 11
31.749832553403561
 21
7.9917701052239023
 31
0.0
  0
LINE
  5
181F
  8
0
  6
CONTINUOUS
 62
     4
 10
34.27069292354301
 20
8.1111372781850832
 30
0.0
 11
34.257408599957493
 21
7.9917701052239023
 31
0.0
  0
LINE
  5
1820
  8
0
  6
CONTINUOUS
 62
     4
 10
31.749832553403561
 20
7.9917701052239023
 30
0.0
 11
31.676663056039899
 21
7.9438851403388258
 31
0.0
  0
LINE
  5
1821
  8
0
  6
CONTINUOUS
 62
     4
 10
34.257408599957493
 20
7.9917701052239023
 30
0.0
 11
34.240872906506752
 21
7.9438851403388258
 31
0.0
  0
LINE
  5
1822
  8
0
  6
CONTINUOUS
 62
     4
 10
31.676663056039899
 20
7.9438851403388258
 30
0.0
 11
31.511299495553448
 21
7.9004115087946998
 31
0.0
  0
LINE
  5
1823
  8
0
  6
CONTINUOUS
 62
     4
 10
34.240872906506752
 20
7.9438851403388258
 30
0.0
 11
34.225860539971059
 21
7.9004115087946998
 31
0.0
  0
LINE
  5
1824
  8
0
  6
CONTINUOUS
 62
     4
 10
31.511299495553448
 20
7.9004115087946998
 30
0.0
 11
31.340944262058329
 21
7.885777363886084
 31
0.0
  0
LINE
  5
1825
  8
0
  6
CONTINUOUS
 62
     4
 10
34.225860539971059
 20
7.9004115087946998
 30
0.0
 11
34.220807059516318
 21
7.885777363886084
 31
0.0
  0
LINE
  5
1826
  8
0
  6
CONTINUOUS
 62
     4
 10
27.908930251085039
 20
10.179358804748111
 30
0.0
 11
27.908930251085039
 21
7.885777363886084
 31
0.0
  0
LINE
  5
1827
  8
0
  6
CONTINUOUS
 62
     4
 10
30.030910054114461
 20
10.179358804748111
 30
0.0
 11
30.030910054114461
 21
7.885777363886084
 31
0.0
  0
LINE
  5
1828
  8
0
  6
CONTINUOUS
 62
     4
 10
27.908930251085039
 20
7.885777363886084
 30
0.0
 11
27.908930251085039
 21
7.3100977979820794
 31
0.0
  0
LINE
  5
1829
  8
0
  6
CONTINUOUS
 62
     4
 10
34.220807059516318
 20
7.885777363886084
 30
0.0
 11
34.02201270202886
 21
7.3100977979820794
 31
0.0
  0
LINE
  5
182A
  8
0
  6
CONTINUOUS
 62
     4
 10
27.908930251085039
 20
7.3100977979820794
 30
0.0
 11
27.908930251085039
 21
6.7588625753243399
 31
0.0
  0
LINE
  5
182B
  8
0
  6
CONTINUOUS
 62
     4
 10
34.02201270202886
 20
7.3100977979820794
 30
0.0
 11
33.604858161461983
 21
6.7588625753243399
 31
0.0
  0
LINE
  5
182C
  8
0
  6
CONTINUOUS
 62
     4
 10
27.908930251085039
 20
6.7588625753243399
 30
0.0
 11
27.908930251085039
 21
6.4189705055174278
 31
0.0
  0
LINE
  5
182D
  8
0
  6
CONTINUOUS
 62
     4
 10
33.604858161461983
 20
6.7588625753243399
 30
0.0
 11
33.00290171594748
 21
6.4189705055174278
 31
0.0
  0
LINE
  5
182E
  8
0
  6
CONTINUOUS
 62
     4
 10
27.908930251085039
 20
6.4189705055174278
 30
0.0
 11
27.908930251085039
 21
6.3391745294582611
 31
0.0
  0
LINE
  5
182F
  8
0
  6
CONTINUOUS
 62
     4
 10
33.00290171594748
 20
6.4189705055174278
 30
0.0
 11
32.665376440190208
 21
6.3391745294582611
 31
0.0
  0
LINE
  5
1830
  8
0
  6
CONTINUOUS
 62
     4
 10
30.022244046220621
 20
6.3391745294582611
 30
0.0
 11
30.223110450430699
 21
6.3234327960089303
 31
0.0
  0
LINE
  5
1831
  8
0
  6
CONTINUOUS
 62
     4
 10
32.665376440190208
 20
6.3391745294582611
 30
0.0
 11
32.598791216400933
 21
6.3234327960089303
 31
0.0
  0
LINE
  5
1832
  8
0
  6
CONTINUOUS
 62
     4
 10
30.223110450430699
 20
6.3234327960089303
 30
0.0
 11
30.480006273767732
 21
6.3033000834673709
 31
0.0
  0
LINE
  5
1833
  8
0
  6
CONTINUOUS
 62
     4
 10
32.598791216400933
 20
6.3234327960089303
 30
0.0
 11
32.339144741609907
 21
6.3033000834673709
 31
0.0
  0
LINE
  5
1834
  8
0
  6
CONTINUOUS
 62
     4
 10
30.480006273767732
 20
6.3033000834673709
 30
0.0
 11
30.939016051516401
 21
6.2913310912303224
 31
0.0
  0
LINE
  5
1835
  8
0
  6
CONTINUOUS
 62
     4
 10
32.339144741609907
 20
6.3033000834673709
 30
0.0
 11
32.184783691913502
 21
6.2913310912303224
 31
0.0
  0
LINE
  5
1836
  8
0
  6
CONTINUOUS
 62
     4
 10
27.908930251085039
 20
6.3391745294582611
 30
0.0
 11
27.908930251085039
 21
3.992809411462424
 31
0.0
  0
LINE
  5
1837
  8
0
  6
CONTINUOUS
 62
     4
 10
30.022244046220621
 20
6.3391745294582611
 30
0.0
 11
30.022244046220621
 21
3.992809411462424
 31
0.0
  0
ENDBLK
  5
1839
  8
0
  0
BLOCK
  8
0
  2
*X91
 70
     1
 10
0.0
 20
0.0
 30
0.0
  3
*X91
  1

  0
LINE
  5
185A
  8
0
 62
     0
 10
44.21875
 20
6.5625
 30
0.0
 11
44.21875
 21
6.5625
 31
0.0
  0
LINE
  5
185B
  8
0
 62
     0
 10
43.90625
 20
6.5625
 30
0.0
 11
43.90625
 21
6.5625
 31
0.0
  0
LINE
  5
185C
  8
0
 62
     0
 10
43.59375
 20
6.5625
 30
0.0
 11
43.59375
 21
6.5625
 31
0.0
  0
LINE
  5
185D
  8
0
 62
     0
 10
43.28125
 20
6.5625
 30
0.0
 11
43.28125
 21
6.5625
 31
0.0
  0
LINE
  5
185E
  8
0
 62
     0
 10
44.6875
 20
6.875
 30
0.0
 11
44.6875
 21
6.875
 31
0.0
  0
LINE
  5
185F
  8
0
 62
     0
 10
44.375
 20
6.875
 30
0.0
 11
44.375
 21
6.875
 31
0.0
  0
LINE
  5
1860
  8
0
 62
     0
 10
44.0625
 20
6.875
 30
0.0
 11
44.0625
 21
6.875
 31
0.0
  0
LINE
  5
1861
  8
0
 62
     0
 10
43.75
 20
6.875
 30
0.0
 11
43.75
 21
6.875
 31
0.0
  0
LINE
  5
1862
  8
0
 62
     0
 10
43.4375
 20
6.875
 30
0.0
 11
43.4375
 21
6.875
 31
0.0
  0
LINE
  5
1863
  8
0
 62
     0
 10
43.125
 20
6.875
 30
0.0
 11
43.125
 21
6.875
 31
0.0
  0
LINE
  5
1864
  8
0
 62
     0
 10
44.53125
 20
7.1875
 30
0.0
 11
44.53125
 21
7.1875
 31
0.0
  0
LINE
  5
1865
  8
0
 62
     0
 10
44.21875
 20
7.1875
 30
0.0
 11
44.21875
 21
7.1875
 31
0.0
  0
LINE
  5
1866
  8
0
 62
     0
 10
43.90625
 20
7.1875
 30
0.0
 11
43.90625
 21
7.1875
 31
0.0
  0
LINE
  5
1867
  8
0
 62
     0
 10
43.59375
 20
7.1875
 30
0.0
 11
43.59375
 21
7.1875
 31
0.0
  0
LINE
  5
1868
  8
0
 62
     0
 10
43.28125
 20
7.1875
 30
0.0
 11
43.28125
 21
7.1875
 31
0.0
  0
LINE
  5
1869
  8
0
 62
     0
 10
42.96875
 20
7.1875
 30
0.0
 11
42.96875
 21
7.1875
 31
0.0
  0
LINE
  5
186A
  8
0
 62
     0
 10
44.6875
 20
7.5
 30
0.0
 11
44.6875
 21
7.5
 31
0.0
  0
LINE
  5
186B
  8
0
 62
     0
 10
44.375
 20
7.5
 30
0.0
 11
44.375
 21
7.5
 31
0.0
  0
LINE
  5
186C
  8
0
 62
     0
 10
44.0625
 20
7.5
 30
0.0
 11
44.0625
 21
7.5
 31
0.0
  0
LINE
  5
186D
  8
0
 62
     0
 10
43.75
 20
7.5
 30
0.0
 11
43.75
 21
7.5
 31
0.0
  0
LINE
  5
186E
  8
0
 62
     0
 10
43.4375
 20
7.5
 30
0.0
 11
43.4375
 21
7.5
 31
0.0
  0
LINE
  5
186F
  8
0
 62
     0
 10
43.125
 20
7.5
 30
0.0
 11
43.125
 21
7.5
 31
0.0
  0
LINE
  5
1870
  8
0
 62
     0
 10
42.8125
 20
7.5
 30
0.0
 11
42.8125
 21
7.5
 31
0.0
  0
LINE
  5
1871
  8
0
 62
     0
 10
44.53125
 20
7.8125
 30
0.0
 11
44.53125
 21
7.8125
 31
0.0
  0
LINE
  5
1872
  8
0
 62
     0
 10
44.21875
 20
7.8125
 30
0.0
 11
44.21875
 21
7.8125
 31
0.0
  0
LINE
  5
1873
  8
0
 62
     0
 10
43.90625
 20
7.8125
 30
0.0
 11
43.90625
 21
7.8125
 31
0.0
  0
LINE
  5
1874
  8
0
 62
     0
 10
43.59375
 20
7.8125
 30
0.0
 11
43.59375
 21
7.8125
 31
0.0
  0
LINE
  5
1875
  8
0
 62
     0
 10
43.28125
 20
7.8125
 30
0.0
 11
43.28125
 21
7.8125
 31
0.0
  0
LINE
  5
1876
  8
0
 62
     0
 10
42.96875
 20
7.8125
 30
0.0
 11
42.96875
 21
7.8125
 31
0.0
  0
LINE
  5
1877
  8
0
 62
     0
 10
44.375
 20
8.125
 30
0.0
 11
44.375
 21
8.125
 31
0.0
  0
LINE
  5
1878
  8
0
 62
     0
 10
44.0625
 20
8.125
 30
0.0
 11
44.0625
 21
8.125
 31
0.0
  0
LINE
  5
1879
  8
0
 62
     0
 10
43.75
 20
8.125
 30
0.0
 11
43.75
 21
8.125
 31
0.0
  0
LINE
  5
187A
  8
0
 62
     0
 10
43.4375
 20
8.125
 30
0.0
 11
43.4375
 21
8.125
 31
0.0
  0
LINE
  5
187B
  8
0
 62
     0
 10
44.0625
 20
10.0
 30
0.0
 11
44.0625
 21
10.0
 31
0.0
  0
LINE
  5
187C
  8
0
 62
     0
 10
43.75
 20
10.0
 30
0.0
 11
43.75
 21
10.0
 31
0.0
  0
LINE
  5
187D
  8
0
 62
     0
 10
43.4375
 20
10.0
 30
0.0
 11
43.4375
 21
10.0
 31
0.0
  0
LINE
  5
187E
  8
0
 62
     0
 10
44.53125
 20
10.3125
 30
0.0
 11
44.53125
 21
10.3125
 31
0.0
  0
LINE
  5
187F
  8
0
 62
     0
 10
44.21875
 20
10.3125
 30
0.0
 11
44.21875
 21
10.3125
 31
0.0
  0
LINE
  5
1880
  8
0
 62
     0
 10
43.90625
 20
10.3125
 30
0.0
 11
43.90625
 21
10.3125
 31
0.0
  0
LINE
  5
1881
  8
0
 62
     0
 10
43.59375
 20
10.3125
 30
0.0
 11
43.59375
 21
10.3125
 31
0.0
  0
LINE
  5
1882
  8
0
 62
     0
 10
43.28125
 20
10.3125
 30
0.0
 11
43.28125
 21
10.3125
 31
0.0
  0
LINE
  5
1883
  8
0
 62
     0
 10
42.96875
 20
10.3125
 30
0.0
 11
42.96875
 21
10.3125
 31
0.0
  0
LINE
  5
1884
  8
0
 62
     0
 10
44.6875
 20
10.625
 30
0.0
 11
44.6875
 21
10.625
 31
0.0
  0
LINE
  5
1885
  8
0
 62
     0
 10
44.375
 20
10.625
 30
0.0
 11
44.375
 21
10.625
 31
0.0
  0
LINE
  5
1886
  8
0
 62
     0
 10
44.0625
 20
10.625
 30
0.0
 11
44.0625
 21
10.625
 31
0.0
  0
LINE
  5
1887
  8
0
 62
     0
 10
43.75
 20
10.625
 30
0.0
 11
43.75
 21
10.625
 31
0.0
  0
LINE
  5
1888
  8
0
 62
     0
 10
43.4375
 20
10.625
 30
0.0
 11
43.4375
 21
10.625
 31
0.0
  0
LINE
  5
1889
  8
0
 62
     0
 10
43.125
 20
10.625
 30
0.0
 11
43.125
 21
10.625
 31
0.0
  0
LINE
  5
188A
  8
0
 62
     0
 10
42.8125
 20
10.625
 30
0.0
 11
42.8125
 21
10.625
 31
0.0
  0
LINE
  5
188B
  8
0
 62
     0
 10
44.53125
 20
10.9375
 30
0.0
 11
44.53125
 21
10.9375
 31
0.0
  0
LINE
  5
188C
  8
0
 62
     0
 10
44.21875
 20
10.9375
 30
0.0
 11
44.21875
 21
10.9375
 31
0.0
  0
LINE
  5
188D
  8
0
 62
     0
 10
43.90625
 20
10.9375
 30
0.0
 11
43.90625
 21
10.9375
 31
0.0
  0
LINE
  5
188E
  8
0
 62
     0
 10
43.59375
 20
10.9375
 30
0.0
 11
43.59375
 21
10.9375
 31
0.0
  0
LINE
  5
188F
  8
0
 62
     0
 10
43.28125
 20
10.9375
 30
0.0
 11
43.28125
 21
10.9375
 31
0.0
  0
LINE
  5
1890
  8
0
 62
     0
 10
42.96875
 20
10.9375
 30
0.0
 11
42.96875
 21
10.9375
 31
0.0
  0
LINE
  5
1891
  8
0
 62
     0
 10
44.6875
 20
11.25
 30
0.0
 11
44.6875
 21
11.25
 31
0.0
  0
LINE
  5
1892
  8
0
 62
     0
 10
44.375
 20
11.25
 30
0.0
 11
44.375
 21
11.25
 31
0.0
  0
LINE
  5
1893
  8
0
 62
     0
 10
44.0625
 20
11.25
 30
0.0
 11
44.0625
 21
11.25
 31
0.0
  0
LINE
  5
1894
  8
0
 62
     0
 10
43.75
 20
11.25
 30
0.0
 11
43.75
 21
11.25
 31
0.0
  0
LINE
  5
1895
  8
0
 62
     0
 10
43.4375
 20
11.25
 30
0.0
 11
43.4375
 21
11.25
 31
0.0
  0
LINE
  5
1896
  8
0
 62
     0
 10
43.125
 20
11.25
 30
0.0
 11
43.125
 21
11.25
 31
0.0
  0
LINE
  5
1897
  8
0
 62
     0
 10
42.8125
 20
11.25
 30
0.0
 11
42.8125
 21
11.25
 31
0.0
  0
LINE
  5
1898
  8
0
 62
     0
 10
44.53125
 20
11.5625
 30
0.0
 11
44.53125
 21
11.5625
 31
0.0
  0
LINE
  5
1899
  8
0
 62
     0
 10
44.21875
 20
11.5625
 30
0.0
 11
44.21875
 21
11.5625
 31
0.0
  0
LINE
  5
189A
  8
0
 62
     0
 10
43.90625
 20
11.5625
 30
0.0
 11
43.90625
 21
11.5625
 31
0.0
  0
LINE
  5
189B
  8
0
 62
     0
 10
43.59375
 20
11.5625
 30
0.0
 11
43.59375
 21
11.5625
 31
0.0
  0
LINE
  5
189C
  8
0
 62
     0
 10
43.28125
 20
11.5625
 30
0.0
 11
43.28125
 21
11.5625
 31
0.0
  0
LINE
  5
189D
  8
0
 62
     0
 10
42.96875
 20
11.5625
 30
0.0
 11
42.96875
 21
11.5625
 31
0.0
  0
LINE
  5
189E
  8
0
 62
     0
 10
44.0625
 20
11.875
 30
0.0
 11
44.0625
 21
11.875
 31
0.0
  0
LINE
  5
189F
  8
0
 62
     0
 10
43.75
 20
11.875
 30
0.0
 11
43.75
 21
11.875
 31
0.0
  0
LINE
  5
18A0
  8
0
 62
     0
 10
43.4375
 20
11.875
 30
0.0
 11
43.4375
 21
11.875
 31
0.0
  0
ENDBLK
  5
18A2
  8
0
  0
BLOCK
  8
0
  2
*U92
 70
     1
 10
0.0
 20
0.0
 30
0.0
  3
*U92
  1

  0
TEXT
  5
18AF
  8
0
 62
     1
 10
4.2355095310447783
 20
4.4145522861116309
 30
0.0
 40
2.0
  1
Copyright Sapa. Rätt till ändringar förbehålles. We reserve the right to change the drawing.
 50
90.0
  7
BYGG-022120$0$ISO
  0
ENDBLK
  5
18B1
  8
0
  0
BLOCK
  8
0
  2
*U93
 70
     1
 10
0.0
 20
0.0
 30
0.0
  3
*U93
  1

  0
TEXT
  5
19B3
  8
0
 62
     2
 10
919.72391383653485
 20
547.10253458471277
 30
0.0
 40
3.0
  1
56
  7
BYGG-01457801$0$ISO
  0
ENDBLK
  5
19B5
  8
0
  0
BLOCK
  8
0
  2
*U94
 70
     1
 10
0.0
 20
0.0
 30
0.0
  3
*U94
  1

  0
TEXT
  5
19B7
  8
0
 62
     2
 10
963.93655566925975
 20
506.99537380256618
 30
0.0
 40
3.0
  1
50
 50
90.0
  7
BYGG-01457801$0$ISO
  0
ENDBLK
  5
19B9
  8
0
  0
BLOCK
  8
0
  2
*U95
 70
     1
 10
0.0
 20
0.0
 30
0.0
  3
*U95
  1

  0
TEXT
  5
19BB
  8
0
 62
     2
 10
908.7983232853536
 20
471.11520364751999
 30
0.0
 40
3.0
  1
78
  7
BYGG-01457801$0$ISO
  0
ENDBLK
  5
19BD
  8
0
  0
BLOCK
  8
0
  2
*U96
 70
     1
 10
0.0
 20
0.0
 30
0.0
  3
*U96
  1

  0
TEXT
  5
19F9
  8
0
 10
37.055390465841519
 20
-420.46468390418471
 30
0.0
 40
3.0
  1
11.5
  7
BYGG-014198$0$ISO
  0
ENDBLK
  5
19FB
  8
0
  0
BLOCK
  8
0
  2
*U97
 70
     1
 10
0.0
 20
0.0
 30
0.0
  3
*U97
  1

  0
TEXT
  5
1A01
  8
0
 10
61.316617707294021
 20
-447.47946737143371
 30
0.0
 40
3.0
  1
22
 50
90.0
  7
BYGG-014198$0$ISO
  0
ENDBLK
  5
1A03
  8
0
  0
BLOCK
  8
0
  2
*U98
 70
     1
 10
0.0
 20
0.0
 30
0.0
  3
*U98
  1

  0
TEXT
  5
1A25
  8
0
 62
     2
 10
168.61233255458859
 20
-109.8978374467376
 30
0.0
 40
3.0
  1
4
 50
90.0
  7
BYGG-014495$0$ISO
  0
ENDBLK
  5
1A27
  8
0
  0
BLOCK
  8
0
  2
*U99
 70
     1
 10
0.0
 20
0.0
 30
0.0
  3
*U99
  1

  0
TEXT
  5
1A29
  8
0
 62
     2
 10
193.08583812517111
 20
-120.33032450952319
 30
0.0
 40
3.0
  1
37
  7
BYGG-014495$0$ISO
  0
ENDBLK
  5
1A2B
  8
0
  0
BLOCK
  8
0
  2
*U100
 70
     1
 10
0.0
 20
0.0
 30
0.0
  3
*U100
  1

  0
TEXT
  5
1ACB
  8
0
 62
     2
 10
-20.835258187785119
 20
-6.762132034354976
 30
0.0
 40
3.0
  1
8.3
 50
90.0
  7
BYGG-020272$0$ISO
  0
ENDBLK
  5
1ACD
  8
0
  0
BLOCK
  8
0
  2
*U101
 70
     1
 10
0.0
 20
0.0
 30
0.0
  3
*U101
  1

  0
TEXT
  5
1ACF
  8
0
 62
     2
 10
-3.6745411630629432
 20
6.6218637180911113
 30
0.0
 40
3.0
  1
29.9
  7
BYGG-020272$0$ISO
  0
ENDBLK
  5
1AD1
  8
0
  0
BLOCK
  8
0
  2
*U102
 70
     1
 10
0.0
 20
0.0
 30
0.0
  3
*U102
  1

  0
TEXT
  5
1B05
  8
0
 62
     2
 10
482.78008189025172
 20
381.56223453284508
 30
0.0
 40
3.0
  1
32
  7
BYGG-020273$0$ISO
  0
ENDBLK
  5
1B07
  8
0
  0
BLOCK
  8
0
  2
*U103
 70
     1
 10
0.0
 20
0.0
 30
0.0
  3
*U103
  1

  0
TEXT
  5
1B09
  8
0
 62
     2
 10
461.54257777187871
 20
368.2048318109222
 30
0.0
 40
3.0
  1
9.5
 50
90.0
  7
BYGG-020273$0$ISO
  0
ENDBLK
  5
1B0B
  8
0
  0
BLOCK
  8
0
  2
*U104
 70
     1
 10
0.0
 20
0.0
 30
0.0
  3
*U104
  1

  0
TEXT
  5
1B54
  8
0
 62
     2
 10
9.4032980857472452
 20
-43.271316194268252
 30
0.0
 40
6.0
  1
98
  7
BYGG-01473802$0$ISO
  0
ENDBLK
  5
1B56
  8
0
  0
BLOCK
  8
0
  2
*U105
 70
     1
 10
0.0
 20
0.0
 30
0.0
  3
*U105
  1

  0
TEXT
  5
1B58
  8
0
 62
     2
 10
72.052173714157732
 20
-4.2023622047242277
 30
0.0
 40
6.0
  1
50
 50
90.0
  7
BYGG-01473802$0$ISO
  0
ENDBLK
  5
1B5A
  8
0
  0
BLOCK
  8
0
  2
*U106
 70
     1
 10
0.0
 20
0.0
 30
0.0
  3
*U106
  1

  0
TEXT
  5
1B5C
  8
0
 62
     2
 10
135.20691937780231
 20
-30.174409448818899
 30
0.0
 40
3.0
  1
56
 50
90.000000000000028
  7
BYGG-01457801$0$ISO
  0
ENDBLK
  5
1B5E
  8
0
  0
BLOCK
  8
0
  2
*U107
 70
     1
 10
0.0
 20
0.0
 30
0.0
  3
*U107
  1

  0
TEXT
  5
1B60
  8
0
 62
     2
 10
101.3021208003799
 20
14.038232383906131
 30
0.0
 40
3.0
  1
50
 50
180.0
  7
BYGG-01457801$0$ISO
  0
ENDBLK
  5
1B62
  8
0
  0
BLOCK
  8
0
  2
*U108
 70
     1
 10
0.0
 20
0.0
 30
0.0
  3
*U108
  1

  0
TEXT
  5
1B64
  8
0
 62
     2
 10
59.21958844060952
 20
-41.100000000000122
 30
0.0
 40
3.0
  1
78
 50
90.000000000000028
  7
BYGG-01457801$0$ISO
  0
ENDBLK
  5
1B66
  8
0
  0
BLOCK
  8
0
  2
*U109
 70
     1
 10
0.0
 20
0.0
 30
0.0
  3
*U109
  1

  0
TEXT
  5
1B68
  8
0
 10
115.38880766366169
 20
-90.791214679413201
 30
0.0
 40
3.0
  1
11.5
  7
BYGG-014198$0$ISO
  0
ENDBLK
  5
1B6A
  8
0
  0
BLOCK
  8
0
  2
*U110
 70
     1
 10
0.0
 20
0.0
 30
0.0
  3
*U110
  1

  0
TEXT
  5
1B6C
  8
0
 10
139.6500349051141
 20
-70.080427275156325
 30
0.0
 40
3.0
  1
22
 50
90.0
  7
BYGG-014198$0$ISO
  0
ENDBLK
  5
1B6E
  8
0
  0
BLOCK
  8
0
  2
*U111
 70
     1
 10
0.0
 20
0.0
 30
0.0
  3
*U111
  1

  0
TEXT
  5
1B70
  8
0
 62
     2
 10
64.995820877575653
 20
30.7644585203135
 30
0.0
 40
3.0
  1
4
  7
BYGG-014495$0$ISO
  0
ENDBLK
  5
1B72
  8
0
  0
BLOCK
  8
0
  2
*U112
 70
     1
 10
0.0
 20
0.0
 30
0.0
  3
*U112
  1

  0
TEXT
  5
1B74
  8
0
 62
     2
 10
52.563333814790113
 20
2.0909529497310801
 30
0.0
 40
3.0
  1
37
 50
90.0
  7
BYGG-014495$0$ISO
  0
ENDBLK
  5
1B76
  8
0
  0
BLOCK
  8
0
  2
*U113
 70
     1
 10
0.0
 20
0.0
 30
0.0
  3
*U113
  1

  0
TEXT
  5
207C
  8
0
 62
     2
 10
-72.953670820739092
 20
-2.1900885826764682
 30
0.0
 40
3.0
  1
32
 50
90.0
  7
BYGG-020273$0$ISO
  0
ENDBLK
  5
207E
  8
0
  0
BLOCK
  8
0
  2
*U114
 70
     1
 10
0.0
 20
0.0
 30
0.0
  3
*U114
  1

  0
TEXT
  5
2080
  8
0
 62
     2
 10
-84.310482991480995
 20
23.427592701050798
 30
0.0
 40
3.0
  1
9.5
  7
BYGG-020273$0$ISO
  0
ENDBLK
  5
2082
  8
0
  0
BLOCK
  8
0
  2
*U115
 70
     1
 10
0.0
 20
0.0
 30
0.0
  3
*U115
  1

  0
TEXT
  5
2084
  8
0
 62
     2
 10
-83.262132034354124
 20
20.835258187785939
 30
0.0
 40
3.0
  1
8.3
  7
BYGG-020272$0$ISO
  0
ENDBLK
  5
2086
  8
0
  0
BLOCK
  8
0
  2
*U116
 70
     1
 10
0.0
 20
0.0
 30
0.0
  3
*U116
  1

  0
TEXT
  5
2088
  8
0
 62
     2
 10
-71.578726833089164
 20
-3.4915603933783448
 30
0.0
 40
3.0
  1
29.6
 50
90.0
  7
BYGG-020272$0$ISO
  0
ENDBLK
  5
208A
  8
0
  0
BLOCK
  8
0
  2
*X117
 70
     1
 10
0.0
 20
0.0
 30
0.0
  3
*X117
  1

  0
LINE
  5
20AA
  8
0
 62
     0
 10
66.279240471514925
 20
-25.868087926703751
 30
0.0
 11
64.911152544810975
 21
-24.499999999999801
 31
0.0
  0
LINE
  5
20AB
  8
0
 62
     0
 10
66.279240471514925
 20
-30.358215987238321
 30
0.0
 11
60.921024484275932
 21
-24.999999999999329
 31
0.0
  0
LINE
  5
20AC
  8
0
 62
     0
 10
66.058097691713485
 20
-34.627201267971472
 30
0.0
 11
56.430896423741409
 21
-24.999999999999378
 31
0.0
  0
LINE
  5
20AD
  8
0
 62
     0
 10
61.940768363207852
 20
-35.000000000000398
 30
0.0
 11
51.940768363206892
 21
-24.999999999999432
 31
0.0
  0
LINE
  5
20AE
  8
0
 62
     0
 10
57.450640302673257
 20
-35.000000000000391
 30
0.0
 11
47.450640302672348
 21
-24.999999999999481
 31
0.0
  0
LINE
  5
20AF
  8
0
 62
     0
 10
52.960512242138691
 20
-35.000000000000391
 30
0.0
 11
42.960512242137817
 21
-24.999999999999531
 31
0.0
  0
LINE
  5
20B0
  8
0
 62
     0
 10
48.470384181604118
 20
-35.000000000000398
 30
0.0
 11
38.470384181603301
 21
-24.999999999999581
 31
0.0
  0
LINE
  5
20B1
  8
0
 62
     0
 10
43.98025612106953
 20
-35.000000000000391
 30
0.0
 11
33.980256121068777
 21
-24.999999999999631
 31
0.0
  0
LINE
  5
20B2
  8
0
 62
     0
 10
39.49012806053495
 20
-35.000000000000391
 30
0.0
 11
29.490128060534239
 21
-24.99999999999967
 31
0.0
  0
LINE
  5
20B3
  8
0
 62
     0
 10
35.000000000000369
 20
-35.000000000000377
 30
0.0
 11
24.999999999999719
 21
-24.999999999999719
 31
0.0
  0
LINE
  5
20B4
  8
0
 62
     0
 10
30.509871939465789
 20
-35.000000000000362
 30
0.0
 11
20.509871939465182
 21
-24.999999999999769
 31
0.0
  0
LINE
  5
20B5
  8
0
 62
     0
 10
26.019743878931209
 20
-35.000000000000369
 30
0.0
 11
16.019743878930662
 21
-24.999999999999819
 31
0.0
  0
LINE
  5
20B6
  8
0
 62
     0
 10
21.529615818396628
 20
-35.000000000000369
 30
0.0
 11
11.529615818396129
 21
-24.999999999999869
 31
0.0
  0
LINE
  5
20B7
  8
0
 62
     0
 10
17.039487757862052
 20
-35.000000000000369
 30
0.0
 11
7.0394877578616111
 21
-24.999999999999918
 31
0.0
  0
LINE
  5
20B8
  8
0
 62
     0
 10
12.549359697327469
 20
-35.000000000000348
 30
0.0
 11
2.5493596973270778
 21
-24.999999999999961
 31
0.0
  0
LINE
  5
20B9
  8
0
 62
     0
 10
8.0592316367928891
 20
-35.000000000000348
 30
0.0
 11
-1.9407683632074459
 21
-25.000000000000021
 31
0.0
  0
LINE
  5
20BA
  8
0
 62
     0
 10
3.569103576258315
 20
-35.000000000000348
 30
0.0
 11
-6.4308964237419728
 21
-25.000000000000071
 31
0.0
  0
LINE
  5
20BB
  8
0
 62
     0
 10
-0.9210244842762662
 20
-35.000000000000348
 30
0.0
 11
-10.921024484276501
 21
-25.00000000000011
 31
0.0
  0
LINE
  5
20BC
  8
0
 62
     0
 10
-5.4111525448108386
 20
-35.000000000000348
 30
0.0
 11
-15.41115254481103
 21
-25.00000000000016
 31
0.0
  0
LINE
  5
20BD
  8
0
 62
     0
 10
-9.9012806053454181
 20
-35.000000000000348
 30
0.0
 11
-19.901280605345558
 21
-25.00000000000021
 31
0.0
  0
LINE
  5
20BE
  8
0
 62
     0
 10
-14.39140866587999
 20
-35.000000000000348
 30
0.0
 11
-25.434332879837481
 21
-23.957075786042861
 31
0.0
  0
LINE
  5
20BF
  8
0
 62
     0
 10
-18.881536726414559
 20
-35.000000000000348
 30
0.0
 11
-29.094560508261431
 21
-24.78697621815348
 31
0.0
  0
LINE
  5
20C0
  8
0
 62
     0
 10
-23.37166478694914
 20
-35.000000000000348
 30
0.0
 11
-33.433180616097552
 21
-24.93848417085195
 31
0.0
  0
LINE
  5
20C1
  8
0
 62
     0
 10
-27.86179284748372
 20
-35.000000000000348
 30
0.0
 11
-37.908780686940013
 21
-24.953012160544059
 31
0.0
  0
LINE
  5
20C2
  8
0
 62
     0
 10
-32.3519209080183
 20
-35.000000000000348
 30
0.0
 11
-42.398908747474579
 21
-24.953012160544059
 31
0.0
  0
LINE
  5
20C3
  8
0
 62
     0
 10
-36.842048968552866
 20
-35.000000000000348
 30
0.0
 11
-46.889036808009152
 21
-24.953012160544059
 31
0.0
  0
LINE
  5
20C4
  8
0
 62
     0
 10
-41.33217702908744
 20
-35.000000000000348
 30
0.0
 11
-51.379164868543732
 21
-24.953012160544059
 31
0.0
  0
LINE
  5
20C5
  8
0
 62
     0
 10
-45.82230508962202
 20
-35.000000000000348
 30
0.0
 11
-55.869292929078298
 21
-24.953012160544059
 31
0.0
  0
LINE
  5
20C6
  8
0
 62
     0
 10
-50.312433150156608
 20
-35.000000000000348
 30
0.0
 11
-60.359420989612893
 21
-24.953012160544059
 31
0.0
  0
LINE
  5
20C7
  8
0
 62
     0
 10
-54.802561210691181
 20
-35.000000000000341
 30
0.0
 11
-64.849549050147473
 21
-24.953012160544059
 31
0.0
  0
LINE
  5
20C8
  8
0
 62
     0
 10
-59.292689271225761
 20
-35.000000000000341
 30
0.0
 11
-69.339677110682047
 21
-24.953012160544059
 31
0.0
  0
LINE
  5
20C9
  8
0
 62
     0
 10
-63.782817331760342
 20
-35.000000000000341
 30
0.0
 11
-70.499999999998636
 21
-28.28281733176204
 31
0.0
  0
LINE
  5
20CA
  8
0
 62
     0
 10
-68.272945392294915
 20
-35.000000000000341
 30
0.0
 11
-70.499999999998636
 21
-32.77294539229662
 31
0.0
  0
LINE
  5
20CB
  8
0
 62
     0
 10
63.782817331760342
 20
-35.000000000000341
 30
0.0
 11
66.279240471514925
 21
-32.503576860245772
 31
0.0
  0
LINE
  5
20CC
  8
0
 62
     0
 10
59.292689271225747
 20
-35.000000000000348
 30
0.0
 11
66.279240471514925
 21
-28.013448799711181
 31
0.0
  0
LINE
  5
20CD
  8
0
 62
     0
 10
54.802561210691181
 20
-35.000000000000348
 30
0.0
 11
65.302561210691749
 21
-24.49999999999979
 31
0.0
  0
LINE
  5
20CE
  8
0
 62
     0
 10
50.312433150156608
 20
-35.000000000000348
 30
0.0
 11
60.312433150157609
 21
-24.999999999999339
 31
0.0
  0
LINE
  5
20CF
  8
0
 62
     0
 10
45.822305089622027
 20
-35.000000000000341
 30
0.0
 11
55.822305089622979
 21
-24.999999999999389
 31
0.0
  0
LINE
  5
20D0
  8
0
 62
     0
 10
41.33217702908744
 20
-35.000000000000348
 30
0.0
 11
51.332177029088371
 21
-24.999999999999439
 31
0.0
  0
LINE
  5
20D1
  8
0
 62
     0
 10
36.842048968552881
 20
-35.000000000000348
 30
0.0
 11
46.84204896855374
 21
-24.999999999999481
 31
0.0
  0
LINE
  5
20D2
  8
0
 62
     0
 10
32.3519209080183
 20
-35.000000000000348
 30
0.0
 11
42.35192090801911
 21
-24.999999999999542
 31
0.0
  0
LINE
  5
20D3
  8
0
 62
     0
 10
27.86179284748372
 20
-35.000000000000348
 30
0.0
 11
37.861792847484487
 21
-24.999999999999581
 31
0.0
  0
LINE
  5
20D4
  8
0
 62
     0
 10
23.37166478694914
 20
-35.000000000000348
 30
0.0
 11
33.371664786949871
 21
-24.999999999999631
 31
0.0
  0
LINE
  5
20D5
  8
0
 62
     0
 10
18.881536726414549
 20
-35.000000000000362
 30
0.0
 11
28.881536726415241
 21
-24.99999999999968
 31
0.0
  0
LINE
  5
20D6
  8
0
 62
     0
 10
14.391408665879981
 20
-35.000000000000362
 30
0.0
 11
24.391408665880611
 21
-24.99999999999973
 31
0.0
  0
LINE
  5
20D7
  8
0
 62
     0
 10
9.9012806053454003
 20
-35.000000000000362
 30
0.0
 11
19.901280605345988
 21
-24.999999999999769
 31
0.0
  0
LINE
  5
20D8
  8
0
 62
     0
 10
5.4111525448108209
 20
-35.000000000000362
 30
0.0
 11
15.41115254481136
 21
-24.999999999999819
 31
0.0
  0
LINE
  5
20D9
  8
0
 62
     0
 10
0.9210244842762413
 20
-35.000000000000369
 30
0.0
 11
10.921024484276741
 21
-24.999999999999869
 31
0.0
  0
LINE
  5
20DA
  8
0
 62
     0
 10
-3.5691035762583332
 20
-35.000000000000362
 30
0.0
 11
6.4308964237421238
 21
-24.999999999999911
 31
0.0
  0
LINE
  5
20DB
  8
0
 62
     0
 10
-8.0592316367929087
 20
-35.000000000000362
 30
0.0
 11
1.9407683632074979
 21
-24.999999999999961
 31
0.0
  0
LINE
  5
20DC
  8
0
 62
     0
 10
-12.54935969732748
 20
-35.000000000000362
 30
0.0
 11
-2.549359697327124
 21
-25.000000000000011
 31
0.0
  0
LINE
  5
20DD
  8
0
 62
     0
 10
-17.039487757862052
 20
-35.000000000000348
 30
0.0
 11
-7.0394877578617443
 21
-25.00000000000005
 31
0.0
  0
LINE
  5
20DE
  8
0
 62
     0
 10
-21.529615818396628
 20
-35.000000000000348
 30
0.0
 11
-11.52961581839636
 21
-25.000000000000089
 31
0.0
  0
LINE
  5
20DF
  8
0
 62
     0
 10
-26.019743878931202
 20
-35.000000000000348
 30
0.0
 11
-16.019743878930989
 21
-25.000000000000139
 31
0.0
  0
LINE
  5
20E0
  8
0
 62
     0
 10
-30.509871939465778
 20
-35.000000000000348
 30
0.0
 11
-20.509871939465619
 21
-25.000000000000188
 31
0.0
  0
LINE
  5
20E1
  8
0
 62
     0
 10
-35.000000000000348
 20
-35.000000000000348
 30
0.0
 11
-22.90878109404515
 21
-22.90878109404515
 31
0.0
  0
LINE
  5
20E2
  8
0
 62
     0
 10
-39.490128060534929
 20
-35.000000000000348
 30
0.0
 11
-29.283709507282499
 21
-24.793581446747918
 31
0.0
  0
LINE
  5
20E3
  8
0
 62
     0
 10
-43.980256121069502
 20
-35.000000000000341
 30
0.0
 11
-33.936309955610852
 21
-24.956053834541692
 31
0.0
  0
LINE
  5
20E4
  8
0
 62
     0
 10
-48.470384181604082
 20
-35.000000000000348
 30
0.0
 11
-38.423396342147797
 21
-24.95301216054407
 31
0.0
  0
LINE
  5
20E5
  8
0
 62
     0
 10
-52.960512242138648
 20
-35.000000000000341
 30
0.0
 11
-42.91352440268237
 21
-24.953012160544059
 31
0.0
  0
LINE
  5
20E6
  8
0
 62
     0
 10
-57.450640302673229
 20
-35.000000000000341
 30
0.0
 11
-47.40365246321695
 21
-24.953012160544059
 31
0.0
  0
LINE
  5
20E7
  8
0
 62
     0
 10
-61.940768363207809
 20
-35.000000000000341
 30
0.0
 11
-51.893780523751524
 21
-24.953012160544059
 31
0.0
  0
LINE
  5
20E8
  8
0
 62
     0
 10
-66.430896423742382
 20
-35.000000000000341
 30
0.0
 11
-56.383908584286097
 21
-24.953012160544059
 31
0.0
  0
LINE
  5
20E9
  8
0
 62
     0
 10
-70.385556385812521
 20
-34.464531901535914
 30
0.0
 11
-60.87403664482067
 21
-24.953012160544059
 31
0.0
  0
LINE
  5
20EA
  8
0
 62
     0
 10
-70.499999999998622
 20
-30.088847455187441
 30
0.0
 11
-65.36416470535525
 21
-24.953012160544059
 31
0.0
  0
LINE
  5
20EB
  8
0
 62
     0
 10
-70.499999999998636
 20
-25.598719394652861
 30
0.0
 11
-69.854292765889824
 21
-24.953012160544059
 31
0.0
  0
ENDBLK
  5
20ED
  8
0
  0
BLOCK
  8
0
  2
*X118
 70
     1
 10
0.0
 20
0.0
 30
0.0
  3
*X118
  1

  0
LINE
  5
20EF
  8
0
 62
     0
 10
66.279240471514925
 20
-25.868087926703751
 30
0.0
 11
64.911152544810975
 21
-24.499999999999801
 31
0.0
  0
LINE
  5
20F0
  8
0
 62
     0
 10
66.279240471514925
 20
-30.358215987238321
 30
0.0
 11
60.921024484275932
 21
-24.999999999999329
 31
0.0
  0
LINE
  5
20F1
  8
0
 62
     0
 10
66.058097691713485
 20
-34.627201267971472
 30
0.0
 11
56.430896423741409
 21
-24.999999999999378
 31
0.0
  0
LINE
  5
20F2
  8
0
 62
     0
 10
61.940768363207852
 20
-35.000000000000398
 30
0.0
 11
51.940768363206892
 21
-24.999999999999432
 31
0.0
  0
LINE
  5
20F3
  8
0
 62
     0
 10
57.450640302673257
 20
-35.000000000000391
 30
0.0
 11
47.450640302672348
 21
-24.999999999999481
 31
0.0
  0
LINE
  5
20F4
  8
0
 62
     0
 10
52.960512242138691
 20
-35.000000000000391
 30
0.0
 11
42.960512242137817
 21
-24.999999999999531
 31
0.0
  0
LINE
  5
20F5
  8
0
 62
     0
 10
48.470384181604118
 20
-35.000000000000398
 30
0.0
 11
38.470384181603301
 21
-24.999999999999581
 31
0.0
  0
LINE
  5
20F6
  8
0
 62
     0
 10
43.98025612106953
 20
-35.000000000000391
 30
0.0
 11
33.980256121068777
 21
-24.999999999999631
 31
0.0
  0
LINE
  5
20F7
  8
0
 62
     0
 10
39.49012806053495
 20
-35.000000000000391
 30
0.0
 11
29.490128060534239
 21
-24.99999999999967
 31
0.0
  0
LINE
  5
20F8
  8
0
 62
     0
 10
35.000000000000369
 20
-35.000000000000377
 30
0.0
 11
24.999999999999719
 21
-24.999999999999719
 31
0.0
  0
LINE
  5
20F9
  8
0
 62
     0
 10
30.509871939465789
 20
-35.000000000000362
 30
0.0
 11
20.509871939465182
 21
-24.999999999999769
 31
0.0
  0
LINE
  5
20FA
  8
0
 62
     0
 10
26.019743878931209
 20
-35.000000000000369
 30
0.0
 11
16.019743878930662
 21
-24.999999999999819
 31
0.0
  0
LINE
  5
20FB
  8
0
 62
     0
 10
21.529615818396628
 20
-35.000000000000369
 30
0.0
 11
11.529615818396129
 21
-24.999999999999869
 31
0.0
  0
LINE
  5
20FC
  8
0
 62
     0
 10
17.039487757862052
 20
-35.000000000000369
 30
0.0
 11
7.0394877578616111
 21
-24.999999999999918
 31
0.0
  0
LINE
  5
20FD
  8
0
 62
     0
 10
12.549359697327469
 20
-35.000000000000348
 30
0.0
 11
2.5493596973270778
 21
-24.999999999999961
 31
0.0
  0
LINE
  5
20FE
  8
0
 62
     0
 10
8.0592316367928891
 20
-35.000000000000348
 30
0.0
 11
-1.9407683632074459
 21
-25.000000000000021
 31
0.0
  0
LINE
  5
20FF
  8
0
 62
     0
 10
3.569103576258315
 20
-35.000000000000348
 30
0.0
 11
-6.4308964237419728
 21
-25.000000000000071
 31
0.0
  0
LINE
  5
2100
  8
0
 62
     0
 10
-0.9210244842762662
 20
-35.000000000000348
 30
0.0
 11
-10.921024484276501
 21
-25.00000000000011
 31
0.0
  0
LINE
  5
2101
  8
0
 62
     0
 10
-5.4111525448108386
 20
-35.000000000000348
 30
0.0
 11
-15.41115254481103
 21
-25.00000000000016
 31
0.0
  0
LINE
  5
2102
  8
0
 62
     0
 10
-9.9012806053454181
 20
-35.000000000000348
 30
0.0
 11
-19.901280605345558
 21
-25.00000000000021
 31
0.0
  0
LINE
  5
2103
  8
0
 62
     0
 10
-14.39140866587999
 20
-35.000000000000348
 30
0.0
 11
-25.434332879837481
 21
-23.957075786042861
 31
0.0
  0
LINE
  5
2104
  8
0
 62
     0
 10
-18.881536726414559
 20
-35.000000000000348
 30
0.0
 11
-29.094560508261431
 21
-24.78697621815348
 31
0.0
  0
LINE
  5
2105
  8
0
 62
     0
 10
-23.37166478694914
 20
-35.000000000000348
 30
0.0
 11
-33.433180616097552
 21
-24.93848417085195
 31
0.0
  0
LINE
  5
2106
  8
0
 62
     0
 10
-27.86179284748372
 20
-35.000000000000348
 30
0.0
 11
-37.908780686940013
 21
-24.953012160544059
 31
0.0
  0
LINE
  5
2107
  8
0
 62
     0
 10
-32.3519209080183
 20
-35.000000000000348
 30
0.0
 11
-42.398908747474579
 21
-24.953012160544059
 31
0.0
  0
LINE
  5
2108
  8
0
 62
     0
 10
-36.842048968552866
 20
-35.000000000000348
 30
0.0
 11
-46.889036808009152
 21
-24.953012160544059
 31
0.0
  0
LINE
  5
2109
  8
0
 62
     0
 10
-41.33217702908744
 20
-35.000000000000348
 30
0.0
 11
-51.379164868543732
 21
-24.953012160544059
 31
0.0
  0
LINE
  5
210A
  8
0
 62
     0
 10
-45.82230508962202
 20
-35.000000000000348
 30
0.0
 11
-55.869292929078298
 21
-24.953012160544059
 31
0.0
  0
LINE
  5
210B
  8
0
 62
     0
 10
-50.312433150156608
 20
-35.000000000000348
 30
0.0
 11
-60.359420989612893
 21
-24.953012160544059
 31
0.0
  0
LINE
  5
210C
  8
0
 62
     0
 10
-54.802561210691181
 20
-35.000000000000341
 30
0.0
 11
-64.849549050147473
 21
-24.953012160544059
 31
0.0
  0
LINE
  5
210D
  8
0
 62
     0
 10
-59.292689271225761
 20
-35.000000000000341
 30
0.0
 11
-69.339677110682047
 21
-24.953012160544059
 31
0.0
  0
LINE
  5
210E
  8
0
 62
     0
 10
-63.782817331760342
 20
-35.000000000000341
 30
0.0
 11
-70.499999999998636
 21
-28.28281733176204
 31
0.0
  0
LINE
  5
210F
  8
0
 62
     0
 10
-68.272945392294915
 20
-35.000000000000341
 30
0.0
 11
-70.499999999998636
 21
-32.77294539229662
 31
0.0
  0
LINE
  5
2110
  8
0
 62
     0
 10
63.782817331760342
 20
-35.000000000000341
 30
0.0
 11
66.279240471514925
 21
-32.503576860245772
 31
0.0
  0
LINE
  5
2111
  8
0
 62
     0
 10
59.292689271225747
 20
-35.000000000000348
 30
0.0
 11
66.279240471514925
 21
-28.013448799711181
 31
0.0
  0
LINE
  5
2112
  8
0
 62
     0
 10
54.802561210691181
 20
-35.000000000000348
 30
0.0
 11
65.302561210691749
 21
-24.49999999999979
 31
0.0
  0
LINE
  5
2113
  8
0
 62
     0
 10
50.312433150156608
 20
-35.000000000000348
 30
0.0
 11
60.312433150157609
 21
-24.999999999999339
 31
0.0
  0
LINE
  5
2114
  8
0
 62
     0
 10
45.822305089622027
 20
-35.000000000000341
 30
0.0
 11
55.822305089622979
 21
-24.999999999999389
 31
0.0
  0
LINE
  5
2115
  8
0
 62
     0
 10
41.33217702908744
 20
-35.000000000000348
 30
0.0
 11
51.332177029088371
 21
-24.999999999999439
 31
0.0
  0
LINE
  5
2116
  8
0
 62
     0
 10
36.842048968552881
 20
-35.000000000000348
 30
0.0
 11
46.84204896855374
 21
-24.999999999999481
 31
0.0
  0
LINE
  5
2117
  8
0
 62
     0
 10
32.3519209080183
 20
-35.000000000000348
 30
0.0
 11
42.35192090801911
 21
-24.999999999999542
 31
0.0
  0
LINE
  5
2118
  8
0
 62
     0
 10
27.86179284748372
 20
-35.000000000000348
 30
0.0
 11
37.861792847484487
 21
-24.999999999999581
 31
0.0
  0
LINE
  5
2119
  8
0
 62
     0
 10
23.37166478694914
 20
-35.000000000000348
 30
0.0
 11
33.371664786949871
 21
-24.999999999999631
 31
0.0
  0
LINE
  5
211A
  8
0
 62
     0
 10
18.881536726414549
 20
-35.000000000000362
 30
0.0
 11
28.881536726415241
 21
-24.99999999999968
 31
0.0
  0
LINE
  5
211B
  8
0
 62
     0
 10
14.391408665879981
 20
-35.000000000000362
 30
0.0
 11
24.391408665880611
 21
-24.99999999999973
 31
0.0
  0
LINE
  5
211C
  8
0
 62
     0
 10
9.9012806053454003
 20
-35.000000000000362
 30
0.0
 11
19.901280605345988
 21
-24.999999999999769
 31
0.0
  0
LINE
  5
211D
  8
0
 62
     0
 10
5.4111525448108209
 20
-35.000000000000362
 30
0.0
 11
15.41115254481136
 21
-24.999999999999819
 31
0.0
  0
LINE
  5
211E
  8
0
 62
     0
 10
0.9210244842762413
 20
-35.000000000000369
 30
0.0
 11
10.921024484276741
 21
-24.999999999999869
 31
0.0
  0
LINE
  5
211F
  8
0
 62
     0
 10
-3.5691035762583332
 20
-35.000000000000362
 30
0.0
 11
6.4308964237421238
 21
-24.999999999999911
 31
0.0
  0
LINE
  5
2120
  8
0
 62
     0
 10
-8.0592316367929087
 20
-35.000000000000362
 30
0.0
 11
1.9407683632074979
 21
-24.999999999999961
 31
0.0
  0
LINE
  5
2121
  8
0
 62
     0
 10
-12.54935969732748
 20
-35.000000000000362
 30
0.0
 11
-2.549359697327124
 21
-25.000000000000011
 31
0.0
  0
LINE
  5
2122
  8
0
 62
     0
 10
-17.039487757862052
 20
-35.000000000000348
 30
0.0
 11
-7.0394877578617443
 21
-25.00000000000005
 31
0.0
  0
LINE
  5
2123
  8
0
 62
     0
 10
-21.529615818396628
 20
-35.000000000000348
 30
0.0
 11
-11.52961581839636
 21
-25.000000000000089
 31
0.0
  0
LINE
  5
2124
  8
0
 62
     0
 10
-26.019743878931202
 20
-35.000000000000348
 30
0.0
 11
-16.019743878930989
 21
-25.000000000000139
 31
0.0
  0
LINE
  5
2125
  8
0
 62
     0
 10
-30.509871939465778
 20
-35.000000000000348
 30
0.0
 11
-20.509871939465619
 21
-25.000000000000188
 31
0.0
  0
LINE
  5
2126
  8
0
 62
     0
 10
-35.000000000000348
 20
-35.000000000000348
 30
0.0
 11
-22.90878109404515
 21
-22.90878109404515
 31
0.0
  0
LINE
  5
2127
  8
0
 62
     0
 10
-39.490128060534929
 20
-35.000000000000348
 30
0.0
 11
-29.283709507282499
 21
-24.793581446747918
 31
0.0
  0
LINE
  5
2128
  8
0
 62
     0
 10
-43.980256121069502
 20
-35.000000000000341
 30
0.0
 11
-33.936309955610852
 21
-24.956053834541692
 31
0.0
  0
LINE
  5
2129
  8
0
 62
     0
 10
-48.470384181604082
 20
-35.000000000000348
 30
0.0
 11
-38.423396342147797
 21
-24.95301216054407
 31
0.0
  0
LINE
  5
212A
  8
0
 62
     0
 10
-52.960512242138648
 20
-35.000000000000341
 30
0.0
 11
-42.91352440268237
 21
-24.953012160544059
 31
0.0
  0
LINE
  5
212B
  8
0
 62
     0
 10
-57.450640302673229
 20
-35.000000000000341
 30
0.0
 11
-47.40365246321695
 21
-24.953012160544059
 31
0.0
  0
LINE
  5
212C
  8
0
 62
     0
 10
-61.940768363207809
 20
-35.000000000000341
 30
0.0
 11
-51.893780523751524
 21
-24.953012160544059
 31
0.0
  0
LINE
  5
212D
  8
0
 62
     0
 10
-66.430896423742382
 20
-35.000000000000341
 30
0.0
 11
-56.383908584286097
 21
-24.953012160544059
 31
0.0
  0
LINE
  5
212E
  8
0
 62
     0
 10
-70.385556385812521
 20
-34.464531901535914
 30
0.0
 11
-60.87403664482067
 21
-24.953012160544059
 31
0.0
  0
LINE
  5
212F
  8
0
 62
     0
 10
-70.499999999998622
 20
-30.088847455187441
 30
0.0
 11
-65.36416470535525
 21
-24.953012160544059
 31
0.0
  0
LINE
  5
2130
  8
0
 62
     0
 10
-70.499999999998636
 20
-25.598719394652861
 30
0.0
 11
-69.854292765889824
 21
-24.953012160544059
 31
0.0
  0
ENDBLK
  5
2132
  8
0
  0
BLOCK
  8
0
  2
*U119
 70
     1
 10
0.0
 20
0.0
 30
0.0
  3
*U119
  1

  0
TEXT
  5
230F
  8
SAPA_MATT
 62
     2
 10
67.400939698017723
 20
43.54945547751047
 30
0.0
 40
3.0
  1
10
  7
ISO
  0
ENDBLK
  5
2311
  8
0
  0
BLOCK
  8
0
  2
*U120
 70
     1
 10
0.0
 20
0.0
 30
0.0
  3
*U120
  1

  0
TEXT
  5
2313
  8
SAPA_MATT
 62
     2
 10
-107.8283286202785
 20
-2.100000000000021
 30
0.0
 40
3.0
  1
32
 50
90.0
  7
ISO
  0
ENDBLK
  5
2315
  8
0
  0
ENDSEC
  0
SECTION
  2
ENTITIES
  0
LINE
  5
6AA
  8
SAPA_PROFIL
 10
64.200939698017464
 20
24.999999999999709
 30
0.0
 11
64.200939698018033
 21
-24.999999999999272
 31
0.0
1001
ACAD
1000
ASC_BOUNDS
1002
{
1070
    19
1005
101D
1002
}
  0
INSERT
  5
6CF
  8
0
  2
*U75
 10
0.0
 20
0.0
 30
0.0
  0
INSERT
  5
6D0
  8
0
  2
*U76
 10
0.0
 20
0.0
 30
0.0
  0
POLYLINE
  5
703
  8
SAPA_LIGHT
 66
     1
 10
0.0
 20
0.0
 30
0.0
  0
VERTEX
  5
10D7
  8
SAPA_LIGHT
 10
-72.499999999998664
 20
50.999999999999758
 30
0.0
  0
VERTEX
  5
10D8
  8
SAPA_LIGHT
 10
-72.499999999998622
 20
10.99999999999976
 30
0.0
  0
VERTEX
  5
10D9
  8
SAPA_LIGHT
 10
-45.499999999998629
 20
10.99999999999976
 30
0.0
  0
VERTEX
  5
10DA
  8
SAPA_LIGHT
 10
-45.499999999996952
 20
50.999999999999758
 30
0.0
  0
SEQEND
  5
10DB
  8
SAPA_LIGHT
  0
POLYLINE
  5
7F8
  8
SAPA_ANSLUTNING
 66
     1
 10
0.0
 20
0.0
 30
0.0
 70
     1
1001
ACAD
1000
ASC_BOUNDS
1002
{
1070
    19
1005
101D
1002
}
  0
VERTEX
  5
10DC
  8
SAPA_ANSLUTNING
 10
-70.499999999998636
 20
-24.953012160544059
 30
0.0
  0
VERTEX
  5
10DD
  8
SAPA_ANSLUTNING
 10
-35.499999999999538
 20
-24.95301216054407
 30
0.0
  0
VERTEX
  5
10DE
  8
SAPA_ANSLUTNING
 10
-35.499999999999538
 20
-5.8453509327481514
 30
0.0
  0
VERTEX
  5
10DF
  8
SAPA_ANSLUTNING
 10
-70.499999999998636
 20
-5.8453509327481452
 30
0.0
  0
SEQEND
  5
10E0
  8
SAPA_ANSLUTNING
  0
POLYLINE
  5
7F9
  8
SAPA_ANSLUTNING
 66
     1
 10
0.0
 20
0.0
 30
0.0
  0
VERTEX
  5
10E1
  8
SAPA_ANSLUTNING
 10
-70.499999999998636
 20
-24.953012160544059
 30
0.0
  0
VERTEX
  5
10E2
  8
SAPA_ANSLUTNING
 10
-35.499999999999538
 20
-5.8453509327481514
 30
0.0
  0
VERTEX
  5
10E3
  8
SAPA_ANSLUTNING
 10
-70.499999999998636
 20
-5.8453509327481452
 30
0.0
  0
VERTEX
  5
10E4
  8
SAPA_ANSLUTNING
 10
-35.499999999999538
 20
-24.95301216054407
 30
0.0
  0
SEQEND
  5
10E5
  8
SAPA_ANSLUTNING
  0
POLYLINE
  5
7FA
  8
SAPA_ANSLUTNING
 66
     1
 10
0.0
 20
0.0
 30
0.0
1001
ACAD
1000
ASC_BOUNDS
1002
{
1070
    19
1005
101D
1002
}
  0
VERTEX
  5
10E6
  8
SAPA_ANSLUTNING
 10
64.200939698017763
 20
-24.499999999999801
 30
0.0
  0
VERTEX
  5
10E7
  8
SAPA_ANSLUTNING
 10
66.279240471514925
 20
-24.499999999999801
 30
0.0
  0
VERTEX
  5
10E8
  8
SAPA_ANSLUTNING
 10
66.279240471514925
 20
-15.830711116164389
 30
0.0
  0
VERTEX
  5
10E9
  8
SAPA_ANSLUTNING
 10
64.200939698017748
 20
-15.830711116164389
 30
0.0
  0
VERTEX
  5
10EA
  8
SAPA_ANSLUTNING
 10
64.200939698017692
 20
-24.499999999999801
 30
0.0
  0
SEQEND
  5
10EB
  8
SAPA_ANSLUTNING
  0
INSERT
  5
7FD
  8
0
  2
*U77
 10
0.0
 20
0.0
 30
0.0
  0
INSERT
  5
7FE
  8
0
  2
*U78
 10
0.0
 20
0.0
 30
0.0
  0
LINE
  5
82C
  8
SAPA_PROFIL
 10
64.200939698017464
 20
24.999999999999709
 30
0.0
 11
62.000000000000512
 21
24.999999999999659
 31
0.0
  0
LINE
  5
82D
  8
SAPA_PROFIL
 10
62.000000000000462
 20
-24.999999999999321
 30
0.0
 11
64.200939698018033
 21
-24.999999999999289
 31
0.0
1001
ACAD
1000
ASC_BOUNDS
1002
{
1070
    19
1005
101D
1002
}
  0
POLYLINE
  5
9B0
  8
SAPA_LIGHT
 66
     1
 10
0.0
 20
0.0
 30
0.0
 70
     1
  0
VERTEX
  5
10FC
  8
SAPA_LIGHT
 10
-72.499999999998622
 20
-16.00000000000038
 30
0.0
  0
VERTEX
  5
10FD
  8
SAPA_LIGHT
 10
-72.499999999998607
 20
-37.000000000000348
 30
0.0
  0
VERTEX
  5
10FE
  8
SAPA_LIGHT
 10
68.279240471514925
 20
-37.000000000000341
 30
0.0
  0
VERTEX
  5
10FF
  8
SAPA_LIGHT
 10
68.279240471514939
 20
25.000000000000671
 30
0.0
  0
VERTEX
  5
1100
  8
SAPA_LIGHT
 10
-45.499999999998629
 20
25.000000000000679
 30
0.0
  0
VERTEX
  5
1101
  8
SAPA_LIGHT
 10
-45.499999999998629
 20
5.0000000000003473
 30
0.0
  0
VERTEX
  5
1102
  8
SAPA_LIGHT
 10
-72.499999999999659
 20
5.0000000000003428
 30
0.0
  0
VERTEX
  5
1103
  8
SAPA_LIGHT
 10
-72.499999999998636
 20
16.000000000000071
 30
0.0
  0
VERTEX
  5
1104
  8
SAPA_LIGHT
 10
-77.292893218811628
 20
16.000000000000071
 30
0.0
  0
VERTEX
  5
1105
  8
SAPA_LIGHT
 10
-77.646446609404848
 20
15.853553390593291
 30
0.0
  0
VERTEX
  5
1106
  8
SAPA_LIGHT
 10
-86.207106781184976
 20
7.2928932188136333
 30
0.0
  0
VERTEX
  5
1107
  8
SAPA_LIGHT
 10
-86.499999999998394
 20
6.58578643762708
 30
0.0
  0
VERTEX
  5
1108
  8
SAPA_LIGHT
 10
-86.499999999998394
 20
-6.5857864376264788
 30
0.0
  0
VERTEX
  5
1109
  8
SAPA_LIGHT
 10
-86.207106781184976
 20
-7.2928932188130506
 30
0.0
  0
VERTEX
  5
110A
  8
SAPA_LIGHT
 10
-77.64644660940462
 20
-15.85355339059315
 30
0.0
  0
VERTEX
  5
110B
  8
SAPA_LIGHT
 10
-77.292893218811855
 20
-15.999999999999931
 30
0.0
  0
SEQEND
  5
110C
  8
SAPA_LIGHT
  0
POLYLINE
  5
9B1
  8
SAPA_LIGHT
 66
     1
 10
0.0
 20
0.0
 30
0.0
  0
VERTEX
  5
110D
  8
SAPA_LIGHT
 10
74.200939698017748
 20
-0.0000000000001137
 30
0.0
  0
VERTEX
  5
110E
  8
SAPA_LIGHT
 10
124.20093969801781
 20
-0.0000000000001137
 30
0.0
  0
VERTEX
  5
110F
  8
SAPA_LIGHT
 10
124.20093969801781
 20
-78.000000000000114
 30
0.0
  0
VERTEX
  5
1110
  8
SAPA_LIGHT
 10
106.6009396980176
 20
-77.999999999999972
 30
0.0
  0
VERTEX
  5
1111
  8
SAPA_LIGHT
 10
106.6009396980176
 20
-55.800000000000068
 30
0.0
  0
VERTEX
  5
1112
  8
SAPA_LIGHT
 10
82.600939698017768
 20
-55.800000000000082
 30
0.0
  0
VERTEX
  5
1113
  8
SAPA_LIGHT
 10
82.600939698017683
 20
-78.000000000000114
 30
0.0
  0
VERTEX
  5
1114
  8
SAPA_LIGHT
 10
74.200939698017805
 20
-78.000000000000114
 30
0.0
  0
VERTEX
  5
1115
  8
SAPA_LIGHT
 10
74.200939698017748
 20
-0.0000000000001137
 30
0.0
  0
SEQEND
  5
1116
  8
SAPA_LIGHT
  0
POLYLINE
  5
9B2
  8
SAPA_LIGHT
 66
     1
 10
0.0
 20
0.0
 30
0.0
  0
VERTEX
  5
1117
  8
SAPA_LIGHT
 10
82.600939698017768
 20
-89.800000000000026
 30
0.0
  0
VERTEX
  5
1118
  8
SAPA_LIGHT
 10
82.600939698017797
 20
-61.000000000000249
 30
0.0
  0
VERTEX
  5
1119
  8
SAPA_LIGHT
 10
106.6009396980176
 20
-61.000000000000249
 30
0.0
  0
VERTEX
  5
111A
  8
SAPA_LIGHT
 10
106.6009396980175
 20
-89.800000000000026
 30
0.0
  0
SEQEND
  5
111B
  8
SAPA_LIGHT
  0
INSERT
  5
9B3
  8
0
  2
*U81
 10
0.0
 20
0.0
 30
0.0
  0
LINE
  5
E04
  8
SAPA_PROFIL
 10
68.279240471514925
 20
-15.00000000000059
 30
0.0
 11
66.279240471514925
 21
-15.00000000000059
 31
0.0
  0
LINE
  5
E05
  8
SAPA_PROFIL
 10
66.279240471514925
 20
-15.00000000000059
 30
0.0
 11
66.279240471514925
 21
-34.000000000000369
 31
0.0
  0
ARC
  5
E06
  8
SAPA_PROFIL
 10
65.279240471514925
 20
-34.000000000000369
 30
0.0
 40
1.0
 50
270.0
 51
0.0
  0
LINE
  5
E07
  8
SAPA_PROFIL
 10
65.279240471514925
 20
-35.000000000000369
 30
0.0
 11
-69.499999999998636
 21
-35.000000000000341
 31
0.0
  0
ARC
  5
E08
  8
SAPA_PROFIL
 10
-69.499999999998636
 20
-34.000000000000341
 30
0.0
 40
1.0
 50
180.0
 51
270.0
  0
LINE
  5
E09
  8
SAPA_PROFIL
 10
-70.499999999998636
 20
-34.000000000000341
 30
0.0
 11
-70.499999999998636
 21
-7.3413678820457982
 31
0.0
  0
LINE
  5
E0A
  8
SAPA_PROFIL
 10
-70.499999999998636
 20
-7.3413678820457982
 30
0.0
 11
-72.499999999998636
 21
-7.3413678820457973
 31
0.0
  0
LINE
  5
E0B
  8
SAPA_PROFIL
 10
-72.499999999998636
 20
-7.3413678820457973
 30
0.0
 11
-72.499999999998636
 21
-36.000000000000341
 31
0.0
  0
ARC
  5
E0C
  8
SAPA_PROFIL
 10
-71.499999999998636
 20
-36.000000000000341
 30
0.0
 40
1.0
 50
180.0
 51
270.0
  0
LINE
  5
E0D
  8
SAPA_PROFIL
 10
-71.499999999998636
 20
-37.000000000000348
 30
0.0
 11
66.279240471514925
 21
-37.000000000000689
 31
0.0
  0
ARC
  5
E0E
  8
SAPA_PROFIL
 10
66.279240471514882
 20
-35.000000000000639
 30
0.0
 40
2.0000000000000422
 50
270.00000000000119
 51
0.0000000000012213
  0
LINE
  5
E0F
  8
SAPA_PROFIL
 10
68.279240471514925
 20
-35.000000000000597
 30
0.0
 11
68.279240471514925
 21
-15.00000000000059
 31
0.0
  0
LINE
  5
E10
  8
SAPA_PROFIL
  6
ACAD_ISO02W100
 10
12.50000000000049
 20
24.99999999999979
 30
0.0
 11
62.50000000000049
 21
24.99999999999979
 31
0.0
  0
LINE
  5
E11
  8
SAPA_PROFIL
  6
ACAD_ISO02W100
 10
62.50000000000049
 20
24.99999999999979
 30
0.0
 11
62.50000000000049
 21
74.999999999999787
 31
0.0
  0
LINE
  5
E12
  8
SAPA_PROFIL
  6
ACAD_ISO02W100
 10
62.50000000000049
 20
74.999999999999787
 30
0.0
 11
57.50000000000049
 21
74.999999999999787
 31
0.0
  0
LINE
  5
E13
  8
SAPA_PROFIL
  6
ACAD_ISO02W100
 10
57.50000000000049
 20
74.999999999999787
 30
0.0
 11
57.50000000000049
 21
29.99999999999979
 31
0.0
  0
LINE
  5
E14
  8
SAPA_PROFIL
  6
ACAD_ISO02W100
 10
57.50000000000049
 20
29.99999999999979
 30
0.0
 11
12.50000000000049
 21
29.99999999999979
 31
0.0
  0
LINE
  5
E15
  8
SAPA_PROFIL
  6
ACAD_ISO02W100
 10
12.50000000000049
 20
29.99999999999979
 30
0.0
 11
12.50000000000049
 21
24.99999999999979
 31
0.0
  0
POLYLINE
  5
FAC
  8
SAPA_PROFIL
  6
CONTINUOUS
 66
     1
 10
0.0
 20
0.0
 30
0.0
 70
     1
  0
VERTEX
  5
1DF9
  8
SAPA_PROFIL
  6
CONTINUOUS
 10
-77.299999999998136
 20
-15.99999999999943
 30
0.0
 42
0.4142135623730951
  0
VERTEX
  5
1DFA
  8
SAPA_PROFIL
  6
CONTINUOUS
 10
-76.999999999998181
 20
-15.69999999999936
 30
0.0
  0
VERTEX
  5
1DFB
  8
SAPA_PROFIL
  6
CONTINUOUS
 10
-76.999999999998181
 20
-15.210050506337319
 30
0.0
 42
0.1989123673794033
  0
VERTEX
  5
1DFC
  8
SAPA_PROFIL
  6
CONTINUOUS
 10
-77.087867965642999
 20
-14.99791847198116
 30
0.0
  0
VERTEX
  5
1DFD
  8
SAPA_PROFIL
  6
CONTINUOUS
 10
-77.786482931164528
 20
-14.29930350646236
 30
0.0
 42
-0.2216946626434256
  0
VERTEX
  5
1DFE
  8
SAPA_PROFIL
  6
CONTINUOUS
 10
-77.873209306236504
 20
-14.06102474928173
 30
0.0
  0
VERTEX
  5
1DFF
  8
SAPA_PROFIL
  6
CONTINUOUS
 10
-77.752048178555583
 20
-12.67614672282332
 30
0.0
 42
0.440010530891594
  0
VERTEX
  5
1E00
  8
SAPA_PROFIL
  6
CONTINUOUS
 10
-78.05090658798315
 20
-12.34999999999923
 30
0.0
  0
VERTEX
  5
1E01
  8
SAPA_PROFIL
  6
CONTINUOUS
 10
-78.148160139423226
 20
-12.34999999999911
 30
0.0
 42
0.1989123669528273
  0
VERTEX
  5
1E02
  8
SAPA_PROFIL
  6
CONTINUOUS
 10
-78.360292173430821
 20
-12.43786796529491
 30
0.0
  0
VERTEX
  5
1E03
  8
SAPA_PROFIL
  6
CONTINUOUS
 10
-78.650551934370242
 20
-12.72812772528084
 30
0.0
 42
-0.4142135619519165
  0
VERTEX
  5
1E04
  8
SAPA_PROFIL
  6
CONTINUOUS
 10
-79.074816002777084
 20
-12.72812772488896
 30
0.0
  0
VERTEX
  5
1E05
  8
SAPA_PROFIL
  6
CONTINUOUS
 10
-85.21213203438856
 20
-6.5908116907696694
 30
0.0
 42
-0.1989123673373824
  0
VERTEX
  5
1E06
  8
SAPA_PROFIL
  6
CONTINUOUS
 10
-85.299999999998136
 20
-6.3786796564482984
 30
0.0
  0
VERTEX
  5
1E07
  8
SAPA_PROFIL
  6
CONTINUOUS
 10
-85.299999999998917
 20
6.3786796564498891
 30
0.0
 42
-0.1989123673373823
  0
VERTEX
  5
1E08
  8
SAPA_PROFIL
  6
CONTINUOUS
 10
-85.212132034389128
 20
6.5908116907718286
 30
0.0
  0
VERTEX
  5
1E09
  8
SAPA_PROFIL
  6
CONTINUOUS
 10
-79.074816002777084
 20
12.72812772489055
 30
0.0
 42
-0.4142135619518105
  0
VERTEX
  5
1E0A
  8
SAPA_PROFIL
  6
CONTINUOUS
 10
-78.650551934370242
 20
12.72812772528243
 30
0.0
  0
VERTEX
  5
1E0B
  8
SAPA_PROFIL
  6
CONTINUOUS
 10
-78.360292173430821
 20
12.437867965296279
 30
0.0
 42
0.1989123669527856
  0
VERTEX
  5
1E0C
  8
SAPA_PROFIL
  6
CONTINUOUS
 10
-78.148160139423226
 20
12.35000000000082
 30
0.0
  0
VERTEX
  5
1E0D
  8
SAPA_PROFIL
  6
CONTINUOUS
 10
-78.05090658798315
 20
12.3500000000007
 30
0.0
 42
0.4400105308917307
  0
VERTEX
  5
1E0E
  8
SAPA_PROFIL
  6
CONTINUOUS
 10
-77.752048178555583
 20
12.67614672282502
 30
0.0
  0
VERTEX
  5
1E0F
  8
SAPA_PROFIL
  6
CONTINUOUS
 10
-77.873209306236603
 20
14.06102474928332
 30
0.0
 42
-0.2216946626434257
  0
VERTEX
  5
1E10
  8
SAPA_PROFIL
  6
CONTINUOUS
 10
-77.786482931164528
 20
14.299303506463961
 30
0.0
  0
VERTEX
  5
1E11
  8
SAPA_PROFIL
  6
CONTINUOUS
 10
-77.087867965642999
 20
14.997918471982871
 30
0.0
 42
0.1989123673793253
  0
VERTEX
  5
1E12
  8
SAPA_PROFIL
  6
CONTINUOUS
 10
-76.999999999998181
 20
15.210050506338799
 30
0.0
  0
VERTEX
  5
1E13
  8
SAPA_PROFIL
  6
CONTINUOUS
 10
-76.999999999998181
 20
15.70000000000061
 30
0.0
 42
0.4142135623731617
  0
VERTEX
  5
1E14
  8
SAPA_PROFIL
  6
CONTINUOUS
 10
-77.299999999998136
 20
16.000000000000789
 30
0.0
  0
VERTEX
  5
1E15
  8
SAPA_PROFIL
  6
CONTINUOUS
 10
-77.375735931287181
 20
16.000000000000789
 30
0.0
 42
0.198912367379543
  0
VERTEX
  5
1E16
  8
SAPA_PROFIL
  6
CONTINUOUS
 10
-77.587867965642999
 20
15.91213203435677
 30
0.0
  0
VERTEX
  5
1E17
  8
SAPA_PROFIL
  6
CONTINUOUS
 10
-86.207106781185075
 20
7.2928932188146973
 30
0.0
 42
0.1989123673796771
  0
VERTEX
  5
1E18
  8
SAPA_PROFIL
  6
CONTINUOUS
 10
-86.499999999998195
 20
6.5857864376276893
 30
0.0
  0
VERTEX
  5
1E19
  8
SAPA_PROFIL
  6
CONTINUOUS
 10
-86.499999999998195
 20
-6.5857864376263251
 30
0.0
 42
0.1989123673794909
  0
VERTEX
  5
1E1A
  8
SAPA_PROFIL
  6
CONTINUOUS
 10
-86.207106781185075
 20
-7.292893218812309
 30
0.0
  0
VERTEX
  5
1E1B
  8
SAPA_PROFIL
  6
CONTINUOUS
 10
-77.587867965642999
 20
-15.91213203435529
 30
0.0
 42
0.1989123673795744
  0
VERTEX
  5
1E1C
  8
SAPA_PROFIL
  6
CONTINUOUS
 10
-77.375735931287181
 20
-15.99999999999932
 30
0.0
  0
SEQEND
  5
1E1D
  8
SAPA_PROFIL
  6
CONTINUOUS
  0
POLYLINE
  5
FAD
  8
SAPA_PROFIL
  6
CONTINUOUS
 66
     1
 10
0.0
 20
0.0
 30
0.0
 70
     1
  0
VERTEX
  5
1E1E
  8
SAPA_PROFIL
  6
CONTINUOUS
 10
-76.987867965642707
 20
-5.9092893218803288
 30
0.0
 42
-0.6681786379191337
  0
VERTEX
  5
1E1F
  8
SAPA_PROFIL
  6
CONTINUOUS
 10
-77.499999999998636
 20
-5.697157287524341
 30
0.0
  0
VERTEX
  5
1E20
  8
SAPA_PROFIL
  6
CONTINUOUS
 10
-77.499999999998195
 20
-5.2999999999991374
 30
0.0
 42
0.414213562374094
  0
VERTEX
  5
1E21
  8
SAPA_PROFIL
  6
CONTINUOUS
 10
-77.799999999999173
 20
-4.999999999999182
 30
0.0
  0
VERTEX
  5
1E22
  8
SAPA_PROFIL
  6
CONTINUOUS
 10
-80.199999999999164
 20
-4.9999999999991811
 30
0.0
 42
0.4142135623730951
  0
VERTEX
  5
1E23
  8
SAPA_PROFIL
  6
CONTINUOUS
 10
-80.499999999999105
 20
-5.2999999999991356
 30
0.0
  0
VERTEX
  5
1E24
  8
SAPA_PROFIL
  6
CONTINUOUS
 10
-80.499999999998195
 20
-8.0391854213350271
 30
0.0
 42
0.2216946626429604
  0
VERTEX
  5
1E25
  8
SAPA_PROFIL
  6
CONTINUOUS
 10
-79.785575219371154
 20
-9.5712743075730842
 30
0.0
  0
VERTEX
  5
1E26
  8
SAPA_PROFIL
  6
CONTINUOUS
 10
-78.63940868770915
 20
-10.533022221559159
 30
0.0
 42
0.1763269807085765
  0
VERTEX
  5
1E27
  8
SAPA_PROFIL
  6
CONTINUOUS
 10
-78.318014882865171
 20
-10.650000000000009
 30
0.0
  0
VERTEX
  5
1E28
  8
SAPA_PROFIL
  6
CONTINUOUS
 10
-77.79999999999815
 20
-10.64999999999813
 30
0.0
 42
0.4142135623733171
  0
VERTEX
  5
1E29
  8
SAPA_PROFIL
  6
CONTINUOUS
 10
-77.499999999999034
 20
-10.34999999999869
 30
0.0
  0
VERTEX
  5
1E2A
  8
SAPA_PROFIL
  6
CONTINUOUS
 10
-77.499999999998636
 20
-9.2928427124741475
 30
0.0
 42
-0.6681786379192504
  0
VERTEX
  5
1E2B
  8
SAPA_PROFIL
  6
CONTINUOUS
 10
-76.987867965642707
 20
-9.0807106781181588
 30
0.0
  0
VERTEX
  5
1E2C
  8
SAPA_PROFIL
  6
CONTINUOUS
 10
-76.587867965643241
 20
-9.4807106781175676
 30
0.0
 42
-0.1989123673796784
  0
VERTEX
  5
1E2D
  8
SAPA_PROFIL
  6
CONTINUOUS
 10
-76.499999999999162
 20
-9.6928427124735563
 30
0.0
  0
VERTEX
  5
1E2E
  8
SAPA_PROFIL
  6
CONTINUOUS
 10
-76.499999999998195
 20
-14.65263912041403
 30
0.0
 42
-0.6808757648994829
  0
VERTEX
  5
1E2F
  8
SAPA_PROFIL
  6
CONTINUOUS
 10
-77.019406110484184
 20
-14.85723862843313
 30
0.0
  0
VERTEX
  5
1E30
  8
SAPA_PROFIL
  6
CONTINUOUS
 10
-77.419406110484161
 20
-14.428291144423129
 30
0.0
 42
-0.189855932106766
  0
VERTEX
  5
1E31
  8
SAPA_PROFIL
  6
CONTINUOUS
 10
-77.499999999998195
 20
-14.22369163640403
 30
0.0
  0
VERTEX
  5
1E32
  8
SAPA_PROFIL
  6
CONTINUOUS
 10
-77.499999999998195
 20
-12.37022832743216
 30
0.0
 42
0.7002075382100549
  0
VERTEX
  5
1E33
  8
SAPA_PROFIL
  6
CONTINUOUS
 10
-78.203095694837842
 20
-12.114322422670091
 30
0.0
  0
VERTEX
  5
1E34
  8
SAPA_PROFIL
  6
CONTINUOUS
 10
-78.562661516914957
 20
-12.54283628290486
 30
0.0
 42
-0.2216946626430935
  0
VERTEX
  5
1E35
  8
SAPA_PROFIL
  6
CONTINUOUS
 10
-78.792474849850763
 20
-12.64999999999916
 30
0.0
  0
VERTEX
  5
1E36
  8
SAPA_PROFIL
  6
CONTINUOUS
 10
-78.947146456085889
 20
-12.64999999999916
 30
0.0
 42
-0.2079979736432576
  0
VERTEX
  5
1E37
  8
SAPA_PROFIL
  6
CONTINUOUS
 10
-79.166550742311657
 20
-12.554601464279671
 30
0.0
  0
VERTEX
  5
1E38
  8
SAPA_PROFIL
  6
CONTINUOUS
 10
-84.719406110485195
 20
-6.599999561242134
 30
0.0
 42
-0.1898559321065746
  0
VERTEX
  5
1E39
  8
SAPA_PROFIL
  6
CONTINUOUS
 10
-84.79999999999815
 20
-6.3954000532241704
 30
0.0
  0
VERTEX
  5
1E3A
  8
SAPA_PROFIL
  6
CONTINUOUS
 10
-84.79999999999815
 20
-0.7732050807561337
 30
0.0
 42
-0.131652497587957
  0
VERTEX
  5
1E3B
  8
SAPA_PROFIL
  6
CONTINUOUS
 10
-84.759807621134144
 20
-0.6232050807551332
 30
0.0
  0
VERTEX
  5
1E3C
  8
SAPA_PROFIL
  6
CONTINUOUS
 10
-84.399999999999196
 20
0.0000000000008184
 30
0.0
  0
VERTEX
  5
1E3D
  8
SAPA_PROFIL
  6
CONTINUOUS
 10
-84.759807621134144
 20
0.623205080757964
 30
0.0
 42
-0.1316524975871203
  0
VERTEX
  5
1E3E
  8
SAPA_PROFIL
  6
CONTINUOUS
 10
-84.79999999999815
 20
0.7732050807578276
 30
0.0
  0
VERTEX
  5
1E3F
  8
SAPA_PROFIL
  6
CONTINUOUS
 10
-84.79999999999815
 20
6.395400053225921
 30
0.0
 42
-0.1898559321066236
  0
VERTEX
  5
1E40
  8
SAPA_PROFIL
  6
CONTINUOUS
 10
-84.719406110485195
 20
6.5999995612439424
 30
0.0
  0
VERTEX
  5
1E41
  8
SAPA_PROFIL
  6
CONTINUOUS
 10
-79.166550742311657
 20
12.55460146428142
 30
0.0
 42
-0.207997973643366
  0
VERTEX
  5
1E42
  8
SAPA_PROFIL
  6
CONTINUOUS
 10
-78.947146456085889
 20
12.65000000000096
 30
0.0
  0
VERTEX
  5
1E43
  8
SAPA_PROFIL
  6
CONTINUOUS
 10
-78.792474849850763
 20
12.65000000000091
 30
0.0
 42
-0.221694662643129
  0
VERTEX
  5
1E44
  8
SAPA_PROFIL
  6
CONTINUOUS
 10
-78.562661516914957
 20
12.54283628290673
 30
0.0
  0
VERTEX
  5
1E45
  8
SAPA_PROFIL
  6
CONTINUOUS
 10
-78.203095694837955
 20
12.11432242267167
 30
0.0
 42
0.7002075382100074
  0
VERTEX
  5
1E46
  8
SAPA_PROFIL
  6
CONTINUOUS
 10
-77.499999999998195
 20
12.37022832743386
 30
0.0
  0
VERTEX
  5
1E47
  8
SAPA_PROFIL
  6
CONTINUOUS
 10
-77.499999999998479
 20
14.223691636405951
 30
0.0
 42
-0.1898559321066891
  0
VERTEX
  5
1E48
  8
SAPA_PROFIL
  6
CONTINUOUS
 10
-77.419406110484161
 20
14.428291144424939
 30
0.0
  0
VERTEX
  5
1E49
  8
SAPA_PROFIL
  6
CONTINUOUS
 10
-77.019406110483899
 20
14.857238628434651
 30
0.0
 42
-0.6808757648995032
  0
VERTEX
  5
1E4A
  8
SAPA_PROFIL
  6
CONTINUOUS
 10
-76.499999999998195
 20
14.65263912041595
 30
0.0
  0
VERTEX
  5
1E4B
  8
SAPA_PROFIL
  6
CONTINUOUS
 10
-76.499999999999162
 20
9.6928427124751906
 30
0.0
 42
-0.1989123673797132
  0
VERTEX
  5
1E4C
  8
SAPA_PROFIL
  6
CONTINUOUS
 10
-76.587867965643241
 20
9.4807106781192587
 30
0.0
  0
VERTEX
  5
1E4D
  8
SAPA_PROFIL
  6
CONTINUOUS
 10
-76.987867965642707
 20
9.080710678119793
 30
0.0
 42
-0.6681786379192504
  0
VERTEX
  5
1E4E
  8
SAPA_PROFIL
  6
CONTINUOUS
 10
-77.499999999998636
 20
9.2928427124757818
 30
0.0
  0
VERTEX
  5
1E4F
  8
SAPA_PROFIL
  6
CONTINUOUS
 10
-77.499999999999162
 20
10.350000000001801
 30
0.0
 42
0.4142135623719851
  0
VERTEX
  5
1E50
  8
SAPA_PROFIL
  6
CONTINUOUS
 10
-77.79999999999815
 20
10.649999999999769
 30
0.0
  0
VERTEX
  5
1E51
  8
SAPA_PROFIL
  6
CONTINUOUS
 10
-78.318014882865171
 20
10.650000000000791
 30
0.0
 42
0.176326980708563
  0
VERTEX
  5
1E52
  8
SAPA_PROFIL
  6
CONTINUOUS
 10
-78.63940868770915
 20
10.53302222156079
 30
0.0
  0
VERTEX
  5
1E53
  8
SAPA_PROFIL
  6
CONTINUOUS
 10
-79.785575219371097
 20
9.5712743075746616
 30
0.0
 42
0.2216946626429643
  0
VERTEX
  5
1E54
  8
SAPA_PROFIL
  6
CONTINUOUS
 10
-80.499999999998195
 20
8.0391854213366614
 30
0.0
  0
VERTEX
  5
1E55
  8
SAPA_PROFIL
  6
CONTINUOUS
 10
-80.499999999998195
 20
5.3000000000007716
 30
0.0
 42
0.4142135623730951
  0
VERTEX
  5
1E56
  8
SAPA_PROFIL
  6
CONTINUOUS
 10
-80.199999999999164
 20
5.000000000000818
 30
0.0
  0
VERTEX
  5
1E57
  8
SAPA_PROFIL
  6
CONTINUOUS
 10
-77.799999999999173
 20
5.0000000000008171
 30
0.0
 42
0.414213562374094
  0
VERTEX
  5
1E58
  8
SAPA_PROFIL
  6
CONTINUOUS
 10
-77.499999999998195
 20
5.3000000000007708
 30
0.0
  0
VERTEX
  5
1E59
  8
SAPA_PROFIL
  6
CONTINUOUS
 10
-77.499999999998636
 20
5.6971572875259753
 30
0.0
 42
-0.6681786379192504
  0
VERTEX
  5
1E5A
  8
SAPA_PROFIL
  6
CONTINUOUS
 10
-76.987867965642707
 20
5.9092893218819631
 30
0.0
  0
VERTEX
  5
1E5B
  8
SAPA_PROFIL
  6
CONTINUOUS
 10
-76.587867965643241
 20
5.5092893218825552
 30
0.0
 42
-0.1989123673796784
  0
VERTEX
  5
1E5C
  8
SAPA_PROFIL
  6
CONTINUOUS
 10
-76.499999999999162
 20
5.2971572875265656
 30
0.0
  0
VERTEX
  5
1E5D
  8
SAPA_PROFIL
  6
CONTINUOUS
 10
-76.499999999999162
 20
-5.2971572875248754
 30
0.0
 42
-0.1989123673796928
  0
VERTEX
  5
1E5E
  8
SAPA_PROFIL
  6
CONTINUOUS
 10
-76.587867965643241
 20
-5.5092893218808641
 30
0.0
  0
SEQEND
  5
1E5F
  8
SAPA_PROFIL
  6
CONTINUOUS
  0
POLYLINE
  5
FAE
  8
SAPA_PROFIL
 62
     4
 66
     1
 10
0.0
 20
0.0
 30
0.0
 70
     1
  0
VERTEX
  5
1E60
  8
SAPA_PROFIL
 62
     4
 10
-48.849999999999618
 20
-1.1499999999999471
 30
0.0
  0
VERTEX
  5
1E61
  8
SAPA_PROFIL
 62
     4
 10
-46.649999999999579
 20
-1.149999999999948
 30
0.0
 42
1.0
  0
VERTEX
  5
1E62
  8
SAPA_PROFIL
 62
     4
 10
-46.649999999999579
 20
1.1500000000000059
 30
0.0
  0
VERTEX
  5
1E63
  8
SAPA_PROFIL
 62
     4
 10
-48.849999999999618
 20
1.15000000000012
 30
0.0
 42
1.0
  0
SEQEND
  5
1E64
  8
SAPA_PROFIL
 62
     4
  0
POLYLINE
  5
FAF
  8
SAPA_PROFIL
 62
     4
 66
     1
 10
0.0
 20
0.0
 30
0.0
 70
     1
  0
VERTEX
  5
1E65
  8
SAPA_PROFIL
 62
     4
 10
-63.999999999999602
 20
-3.9999999999999658
 30
0.0
  0
VERTEX
  5
1E66
  8
SAPA_PROFIL
 62
     4
 10
-67.050832149035841
 20
-3.9999999999999649
 30
0.0
  0
VERTEX
  5
1E67
  8
SAPA_PROFIL
 62
     4
 10
-70.378679656439942
 20
-3.999999999999964
 30
0.0
 42
-0.6681786379192966
  0
VERTEX
  5
1E68
  8
SAPA_PROFIL
 62
     4
 10
-70.732233047033162
 20
-3.1464466094067438
 30
0.0
  0
VERTEX
  5
1E69
  8
SAPA_PROFIL
 62
     4
 10
-68.585786439270066
 20
-1.000000011621772
 30
0.0
 42
0.1989123679837333
  0
VERTEX
  5
1E6A
  8
SAPA_PROFIL
 62
     4
 10
-68.292893218813035
 20
-0.2928932287916627
 30
0.0
  0
VERTEX
  5
1E6B
  8
SAPA_PROFIL
 62
     4
 10
-68.292893218813035
 20
0.2928932088352734
 30
0.0
 42
0.1989123667755704
  0
VERTEX
  5
1E6C
  8
SAPA_PROFIL
 62
     4
 10
-68.585786435982925
 20
0.9999999883782418
 30
0.0
  0
VERTEX
  5
1E6D
  8
SAPA_PROFIL
 62
     4
 10
-70.732233047033162
 20
3.1464466094068162
 30
0.0
 42
-0.6681786379192936
  0
VERTEX
  5
1E6E
  8
SAPA_PROFIL
 62
     4
 10
-70.378679656439942
 20
4.0000000000000213
 30
0.0
  0
VERTEX
  5
1E6F
  8
SAPA_PROFIL
 62
     4
 10
-67.050832149035841
 20
4.0000000000000204
 30
0.0
  0
VERTEX
  5
1E70
  8
SAPA_PROFIL
 62
     4
 10
-63.999999999999602
 20
4.0000000000000329
 30
0.0
 42
-0.4142135623730951
  0
VERTEX
  5
1E71
  8
SAPA_PROFIL
 62
     4
 10
-63.499999999999602
 20
3.5000000000000329
 30
0.0
  0
VERTEX
  5
1E72
  8
SAPA_PROFIL
 62
     4
 10
-63.499999999999602
 20
-3.4999999999999658
 30
0.0
 42
-0.4142135623730951
  0
SEQEND
  5
1E73
  8
SAPA_PROFIL
 62
     4
  0
POLYLINE
  5
FB0
  8
SAPA_PROFIL
 62
     4
 66
     1
 10
0.0
 20
0.0
 30
0.0
 70
     1
  0
VERTEX
  5
1E74
  8
SAPA_PROFIL
 62
     4
 10
-53.45999999999961
 20
2.58578643762681
 30
0.0
  0
VERTEX
  5
1E75
  8
SAPA_PROFIL
 62
     4
 10
-52.06074462521957
 20
1.1465310628470049
 30
0.0
 42
-0.9251773977986363
  0
VERTEX
  5
1E76
  8
SAPA_PROFIL
 62
     4
 10
-52.06074462521957
 20
-1.1465310628468299
 30
0.0
  0
VERTEX
  5
1E77
  8
SAPA_PROFIL
 62
     4
 10
-53.45999999999961
 20
-2.5857864376267479
 30
0.0
  0
VERTEX
  5
1E78
  8
SAPA_PROFIL
 62
     4
 10
-53.45999999999961
 20
-3.499999999999968
 30
0.0
 42
-0.4142135623730769
  0
VERTEX
  5
1E79
  8
SAPA_PROFIL
 62
     4
 10
-53.95999999999961
 20
-3.999999999999968
 30
0.0
  0
VERTEX
  5
1E7A
  8
SAPA_PROFIL
 62
     4
 10
-61.999999999999602
 20
-3.9999999999999658
 30
0.0
 42
-0.4142135623730951
  0
VERTEX
  5
1E7B
  8
SAPA_PROFIL
 62
     4
 10
-62.499999999999602
 20
-3.4999999999999658
 30
0.0
  0
VERTEX
  5
1E7C
  8
SAPA_PROFIL
 62
     4
 10
-62.499999999999602
 20
3.5000000000000329
 30
0.0
 42
-0.4142135623730951
  0
VERTEX
  5
1E7D
  8
SAPA_PROFIL
 62
     4
 10
-61.999999999999602
 20
4.0000000000000329
 30
0.0
  0
VERTEX
  5
1E7E
  8
SAPA_PROFIL
 62
     4
 10
-53.95999999999961
 20
4.0000000000000311
 30
0.0
 42
-0.4142135623730951
  0
VERTEX
  5
1E7F
  8
SAPA_PROFIL
 62
     4
 10
-53.45999999999961
 20
3.5000000000000311
 30
0.0
  0
SEQEND
  5
1E80
  8
SAPA_PROFIL
 62
     4
  0
POLYLINE
  5
FB1
  8
SAPA_PROFIL
 62
     4
 66
     1
 10
0.0
 20
0.0
 30
0.0
 70
     1
  0
VERTEX
  5
1E81
  8
SAPA_PROFIL
 62
     4
 10
-54.10999999999958
 20
-4.9999999999998552
 30
0.0
 42
-1.0
  0
VERTEX
  5
1E82
  8
SAPA_PROFIL
 62
     4
 10
-54.10999999999958
 20
-6.2999999999999234
 30
0.0
  0
VERTEX
  5
1E83
  8
SAPA_PROFIL
 62
     4
 10
-54.95999999999961
 20
-6.2999999999999234
 30
0.0
  0
VERTEX
  5
1E84
  8
SAPA_PROFIL
 62
     4
 10
-54.95999999999961
 20
-6.2499999999998552
 30
0.0
 42
1.0
  0
VERTEX
  5
1E85
  8
SAPA_PROFIL
 62
     4
 10
-55.45999999999961
 20
-6.2499999999998552
 30
0.0
  0
VERTEX
  5
1E86
  8
SAPA_PROFIL
 62
     4
 10
-55.45999999999961
 20
-6.6999999999998998
 30
0.0
 42
0.4142135623730951
  0
VERTEX
  5
1E87
  8
SAPA_PROFIL
 62
     4
 10
-55.159999999999542
 20
-6.9999999999998552
 30
0.0
  0
VERTEX
  5
1E88
  8
SAPA_PROFIL
 62
     4
 10
-53.45999999999961
 20
-6.9999999999998552
 30
0.0
 42
0.4225789089359373
  0
VERTEX
  5
1E89
  8
SAPA_PROFIL
 62
     4
 10
-52.499999999999488
 20
-5.9999999999998552
 30
0.0
  0
VERTEX
  5
1E8A
  8
SAPA_PROFIL
 62
     4
 10
-52.499999999999488
 20
-2.9999999999998548
 30
0.0
  0
VERTEX
  5
1E8B
  8
SAPA_PROFIL
 62
     4
 10
-51.649999999999579
 20
-2.1499999999999462
 30
0.0
  0
VERTEX
  5
1E8C
  8
SAPA_PROFIL
 62
     4
 10
-45.499999999999602
 20
-2.149999999999948
 30
0.0
 42
0.4142135623730951
  0
VERTEX
  5
1E8D
  8
SAPA_PROFIL
 62
     4
 10
-44.499999999999602
 20
-1.149999999999948
 30
0.0
  0
VERTEX
  5
1E8E
  8
SAPA_PROFIL
 62
     4
 10
-44.499999999999602
 20
1.150000000000005
 30
0.0
 42
0.4142135623730951
  0
VERTEX
  5
1E8F
  8
SAPA_PROFIL
 62
     4
 10
-45.499999999999602
 20
2.1500000000000061
 30
0.0
  0
VERTEX
  5
1E90
  8
SAPA_PROFIL
 62
     4
 10
-51.649999999999459
 20
2.150000000000007
 30
0.0
  0
VERTEX
  5
1E91
  8
SAPA_PROFIL
 62
     4
 10
-52.499999999999488
 20
3.0000000000000302
 30
0.0
  0
VERTEX
  5
1E92
  8
SAPA_PROFIL
 62
     4
 10
-52.499999999999488
 20
6.0000000000000311
 30
0.0
 42
0.4225789089359373
  0
VERTEX
  5
1E93
  8
SAPA_PROFIL
 62
     4
 10
-53.45999999999961
 20
7.0000000000000453
 30
0.0
  0
VERTEX
  5
1E94
  8
SAPA_PROFIL
 62
     4
 10
-55.159999999999542
 20
7.0000000000000453
 30
0.0
 42
0.4142135623730951
  0
VERTEX
  5
1E95
  8
SAPA_PROFIL
 62
     4
 10
-55.45999999999961
 20
6.699999999999962
 30
0.0
  0
VERTEX
  5
1E96
  8
SAPA_PROFIL
 62
     4
 10
-55.45999999999961
 20
6.2500000000000311
 30
0.0
 42
1.0
  0
VERTEX
  5
1E97
  8
SAPA_PROFIL
 62
     4
 10
-54.95999999999961
 20
6.2500000000000311
 30
0.0
  0
VERTEX
  5
1E98
  8
SAPA_PROFIL
 62
     4
 10
-54.95999999999961
 20
6.3000000000000993
 30
0.0
  0
VERTEX
  5
1E99
  8
SAPA_PROFIL
 62
     4
 10
-54.10999999999958
 20
6.3000000000000993
 30
0.0
 42
-1.0
  0
VERTEX
  5
1E9A
  8
SAPA_PROFIL
 62
     4
 10
-54.10999999999958
 20
5.0000000000000311
 30
0.0
  0
VERTEX
  5
1E9B
  8
SAPA_PROFIL
 62
     4
 10
-67.050832149035841
 20
5.0000000000000204
 30
0.0
  0
VERTEX
  5
1E9C
  8
SAPA_PROFIL
 62
     4
 10
-72.499999999999602
 20
5.0000000000000222
 30
0.0
  0
VERTEX
  5
1E9D
  8
SAPA_PROFIL
 62
     4
 10
-72.499999999999602
 20
3.500000000000036
 30
0.0
  0
VERTEX
  5
1E9E
  8
SAPA_PROFIL
 62
     4
 10
-69.353553390592822
 20
0.3535533905932553
 30
0.0
 42
-0.4142135623730951
  0
VERTEX
  5
1E9F
  8
SAPA_PROFIL
 62
     4
 10
-69.353553390592822
 20
-0.3535533905931843
 30
0.0
  0
VERTEX
  5
1EA0
  8
SAPA_PROFIL
 62
     4
 10
-72.499999999999602
 20
-3.4999999999999631
 30
0.0
  0
VERTEX
  5
1EA1
  8
SAPA_PROFIL
 62
     4
 10
-72.499999999999602
 20
-4.999999999999992
 30
0.0
  0
VERTEX
  5
1EA2
  8
SAPA_PROFIL
 62
     4
 10
-67.050832149035841
 20
-4.9999999999999512
 30
0.0
  0
VERTEX
  5
1EA3
  8
SAPA_PROFIL
 62
     4
 10
-54.40999999999957
 20
-4.9999999999998552
 30
0.0
  0
SEQEND
  5
1EA4
  8
SAPA_PROFIL
 62
     4
  0
POLYLINE
  5
FB2
  8
SAPA_PROFIL
 66
     1
 10
0.0
 20
0.0
 30
0.0
 70
     1
  0
VERTEX
  5
1EA5
  8
SAPA_PROFIL
 10
68.195820877575741
 20
10.69095294973101
 30
0.0
  0
VERTEX
  5
1EA6
  8
SAPA_PROFIL
 10
67.195820877575741
 20
9.6909529497310132
 30
0.0
  0
VERTEX
  5
1EA7
  8
SAPA_PROFIL
 10
67.195820877575727
 20
-1.3090470502689859
 30
0.0
  0
VERTEX
  5
1EA8
  8
SAPA_PROFIL
 10
68.195820877575727
 20
-2.3090470502689859
 30
0.0
  0
VERTEX
  5
1EA9
  8
SAPA_PROFIL
 10
68.195820877575727
 20
-4.8090463081971393
 30
0.0
 42
-1.0000014841447959
  0
VERTEX
  5
1EAA
  8
SAPA_PROFIL
 10
67.195820877576296
 20
-4.8090463081971393
 30
0.0
  0
VERTEX
  5
1EAB
  8
SAPA_PROFIL
 10
67.195820877575727
 20
-3.5590470502689859
 30
0.0
  0
VERTEX
  5
1EAC
  8
SAPA_PROFIL
 10
66.095820877575704
 20
-3.5590470502689859
 30
0.0
  0
VERTEX
  5
1EAD
  8
SAPA_PROFIL
 10
66.095820877575704
 20
-11.05904705026898
 30
0.0
  0
VERTEX
  5
1EAE
  8
SAPA_PROFIL
 10
67.195820877575727
 20
-11.05904705026898
 30
0.0
  0
VERTEX
  5
1EAF
  8
SAPA_PROFIL
 10
67.195820877575727
 20
-9.8090451474660085
 30
0.0
 42
-0.9999967549392536
  0
VERTEX
  5
1EB0
  8
SAPA_PROFIL
 10
68.195820877573908
 20
-9.8090457080060105
 30
0.0
  0
VERTEX
  5
1EB1
  8
SAPA_PROFIL
 10
68.195820877575727
 20
-11.84494543513131
 30
0.0
  0
VERTEX
  5
1EB2
  8
SAPA_PROFIL
 10
67.061846281360147
 20
-13.80904705026899
 30
0.0
 42
-0.577350269189629
  0
VERTEX
  5
1EB3
  8
SAPA_PROFIL
 10
65.329795473791251
 20
-13.80904705026899
 30
0.0
  0
VERTEX
  5
1EB4
  8
SAPA_PROFIL
 10
64.329795473791293
 20
-12.076996242700259
 30
0.0
 42
-0.4142135623730394
  0
VERTEX
  5
1EB5
  8
SAPA_PROFIL
 10
64.695820877575557
 20
-10.71097083891584
 30
0.0
  0
VERTEX
  5
1EB6
  8
SAPA_PROFIL
 10
64.695820877575571
 20
19.092876738377871
 30
0.0
 42
-0.4142135623730394
  0
VERTEX
  5
1EB7
  8
SAPA_PROFIL
 10
64.329795473791322
 20
20.458902142162181
 30
0.0
  0
VERTEX
  5
1EB8
  8
SAPA_PROFIL
 10
65.329795473791265
 20
22.19095294973101
 30
0.0
 42
-0.5773502691896291
  0
VERTEX
  5
1EB9
  8
SAPA_PROFIL
 10
67.061846281360161
 20
22.19095294973101
 30
0.0
  0
VERTEX
  5
1EBA
  8
SAPA_PROFIL
 10
68.195820877575741
 20
20.226851334593221
 30
0.0
  0
VERTEX
  5
1EBB
  8
SAPA_PROFIL
 10
68.195820877573922
 20
18.19095160746798
 30
0.0
 42
-0.9999967549392536
  0
VERTEX
  5
1EBC
  8
SAPA_PROFIL
 10
67.195820877575741
 20
18.190951046927982
 30
0.0
  0
VERTEX
  5
1EBD
  8
SAPA_PROFIL
 10
67.195820877575741
 20
19.44095294973101
 30
0.0
  0
VERTEX
  5
1EBE
  8
SAPA_PROFIL
 10
66.095820877575719
 20
19.44095294973101
 30
0.0
  0
VERTEX
  5
1EBF
  8
SAPA_PROFIL
 10
66.095820877575719
 20
11.94095294973101
 30
0.0
  0
VERTEX
  5
1EC0
  8
SAPA_PROFIL
 10
67.195820877575741
 20
11.94095294973101
 30
0.0
  0
VERTEX
  5
1EC1
  8
SAPA_PROFIL
 10
67.19582087757631
 20
13.19095220765916
 30
0.0
 42
-1.0000014841447959
  0
VERTEX
  5
1EC2
  8
SAPA_PROFIL
 10
68.195820877575741
 20
13.19095220765916
 30
0.0
  0
SEQEND
  5
1EC3
  8
SAPA_PROFIL
  0
POLYLINE
  5
FB3
  8
SAPA_PROFIL
 66
     1
 10
0.0
 20
0.0
 30
0.0
 70
     1
  0
VERTEX
  5
1EC4
  8
SAPA_PROFIL
 10
113.0009396980176
 20
-78.000000000000114
 30
0.0
 42
-0.4142135623730951
  0
VERTEX
  5
1EC5
  8
SAPA_PROFIL
 10
112.70093969801771
 20
-77.700000000000102
 30
0.0
  0
VERTEX
  5
1EC6
  8
SAPA_PROFIL
 10
112.70093969801771
 20
-76.49000000000018
 30
0.0
 42
-0.4142135623730951
  0
VERTEX
  5
1EC7
  8
SAPA_PROFIL
 10
113.6909396980177
 20
-75.500000000000171
 30
0.0
  0
VERTEX
  5
1EC8
  8
SAPA_PROFIL
 10
113.90093969801769
 20
-75.500000000000171
 30
0.0
  0
VERTEX
  5
1EC9
  8
SAPA_PROFIL
 10
113.90093969801769
 20
-76.750000000000171
 30
0.0
  0
VERTEX
  5
1ECA
  8
SAPA_PROFIL
 10
115.20093969801771
 20
-76.750000000000171
 30
0.0
 42
0.4142135623730951
  0
VERTEX
  5
1ECB
  8
SAPA_PROFIL
 10
115.70093969801771
 20
-76.250000000000171
 30
0.0
  0
VERTEX
  5
1ECC
  8
SAPA_PROFIL
 10
115.70093969801771
 20
-68.250000000000171
 30
0.0
 42
0.4142135623730951
  0
VERTEX
  5
1ECD
  8
SAPA_PROFIL
 10
115.20093969801771
 20
-67.750000000000171
 30
0.0
  0
VERTEX
  5
1ECE
  8
SAPA_PROFIL
 10
113.90093969801769
 20
-67.750000000000171
 30
0.0
  0
VERTEX
  5
1ECF
  8
SAPA_PROFIL
 10
113.90093969801769
 20
-69.000000000000171
 30
0.0
  0
VERTEX
  5
1ED0
  8
SAPA_PROFIL
 10
113.6909396980177
 20
-69.000000000000171
 30
0.0
 42
-0.4142135623730867
  0
VERTEX
  5
1ED1
  8
SAPA_PROFIL
 10
112.70093969801771
 20
-68.010000000000161
 30
0.0
  0
VERTEX
  5
1ED2
  8
SAPA_PROFIL
 10
112.70093969801771
 20
-67.49000000000018
 30
0.0
 42
-0.4142135623730951
  0
VERTEX
  5
1ED3
  8
SAPA_PROFIL
 10
113.6909396980177
 20
-66.500000000000171
 30
0.0
  0
VERTEX
  5
1ED4
  8
SAPA_PROFIL
 10
115.90093969801769
 20
-66.500000000000171
 30
0.0
 42
-0.4142135623730951
  0
VERTEX
  5
1ED5
  8
SAPA_PROFIL
 10
117.40093969801769
 20
-68.000000000000171
 30
0.0
  0
VERTEX
  5
1ED6
  8
SAPA_PROFIL
 10
117.40093969801769
 20
-76.000000000000171
 30
0.0
 42
0.4142135623730951
  0
VERTEX
  5
1ED7
  8
SAPA_PROFIL
 10
117.90093969801769
 20
-76.500000000000171
 30
0.0
  0
VERTEX
  5
1ED8
  8
SAPA_PROFIL
 10
122.20093969801771
 20
-76.500000000000171
 30
0.0
 42
0.4142135623730951
  0
VERTEX
  5
1ED9
  8
SAPA_PROFIL
 10
122.70093969801771
 20
-76.000000000000171
 30
0.0
  0
VERTEX
  5
1EDA
  8
SAPA_PROFIL
 10
122.70093969801771
 20
-63.258153378746329
 30
0.0
 42
0.493145426031308
  0
VERTEX
  5
1EDB
  8
SAPA_PROFIL
 10
122.07153017546629
 20
-62.775190465601781
 30
0.0
  0
VERTEX
  5
1EDC
  8
SAPA_PROFIL
 10
120.3325152070163
 20
-63.241158122023641
 30
0.0
 42
-0.9999999999999452
  0
VERTEX
  5
1EDD
  8
SAPA_PROFIL
 10
120.0736961619137
 20
-62.275232295734547
 30
0.0
  0
VERTEX
  5
1EDE
  8
SAPA_PROFIL
 10
121.4206905370705
 20
-61.914306240702111
 30
0.0
 42
0.6613727838043239
  0
VERTEX
  5
1EDF
  8
SAPA_PROFIL
 10
121.67755122804751
 20
-59.9804109032928
 30
0.0
  0
VERTEX
  5
1EE0
  8
SAPA_PROFIL
 10
115.94594154849899
 20
-56.671264511915631
 30
0.0
  0
VERTEX
  5
1EE1
  8
SAPA_PROFIL
 10
111.657861636183
 20
-56.671264511915631
 30
0.0
  0
VERTEX
  5
1EE2
  8
SAPA_PROFIL
 10
107.5009396980177
 20
-53.078483428499283
 30
0.0
  0
VERTEX
  5
1EE3
  8
SAPA_PROFIL
 10
105.5009401529304
 20
-53.078483428499219
 30
0.0
 42
-1.0
  0
VERTEX
  5
1EE4
  8
SAPA_PROFIL
 10
105.5009396980177
 20
-52.078483428499283
 30
0.0
  0
VERTEX
  5
1EE5
  8
SAPA_PROFIL
 10
107.70093969801771
 20
-52.078483428499283
 30
0.0
  0
VERTEX
  5
1EE6
  8
SAPA_PROFIL
 10
111.7755028469859
 20
-55.171264511915638
 30
0.0
  0
VERTEX
  5
1EE7
  8
SAPA_PROFIL
 10
116.34786533714581
 20
-55.171264511915638
 30
0.0
  0
VERTEX
  5
1EE8
  8
SAPA_PROFIL
 10
116.69594154849899
 20
-55.372226406239008
 30
0.0
  0
VERTEX
  5
1EE9
  8
SAPA_PROFIL
 10
117.95093969801771
 20
-56.346953113330983
 30
0.0
 42
0.5773502691896074
  0
VERTEX
  5
1EEA
  8
SAPA_PROFIL
 10
118.70093969801771
 20
-55.91394041143883
 30
0.0
  0
VERTEX
  5
1EEB
  8
SAPA_PROFIL
 10
118.70093969801771
 20
-55.72929854587062
 30
0.0
  0
VERTEX
  5
1EEC
  8
SAPA_PROFIL
 10
120.20093969801771
 20
-55.72929854587062
 30
0.0
  0
VERTEX
  5
1EED
  8
SAPA_PROFIL
 10
120.20093969801771
 20
-57.107162896777943
 30
0.0
 42
0.2679491924311161
  0
VERTEX
  5
1EEE
  8
SAPA_PROFIL
 10
120.45093969801771
 20
-57.540175598670082
 30
0.0
  0
VERTEX
  5
1EEF
  8
SAPA_PROFIL
 10
121.95093969801771
 20
-58.406201002454509
 30
0.0
 42
0.3494280882832233
  0
VERTEX
  5
1EF0
  8
SAPA_PROFIL
 10
122.70093969801771
 20
-57.18759432515764
 30
0.0
  0
VERTEX
  5
1EF1
  8
SAPA_PROFIL
 10
122.70093969801771
 20
-56.928429243660268
 30
0.0
  0
VERTEX
  5
1EF2
  8
SAPA_PROFIL
 10
122.911254759484
 20
-56.928429243660268
 30
0.0
  0
VERTEX
  5
1EF3
  8
SAPA_PROFIL
 10
124.20093969801771
 20
-56.928429243660268
 30
0.0
  0
VERTEX
  5
1EF4
  8
SAPA_PROFIL
 10
124.20093969801771
 20
-77.700000000000102
 30
0.0
 42
-0.4142135623730951
  0
VERTEX
  5
1EF5
  8
SAPA_PROFIL
 10
123.90093969801759
 20
-78.000000000000114
 30
0.0
  0
SEQEND
  5
1EF6
  8
SAPA_PROFIL
  0
POLYLINE
  5
FB4
  8
SAPA_PROFIL
 66
     1
 10
0.0
 20
0.0
 30
0.0
 70
     1
  0
VERTEX
  5
1EF7
  8
SAPA_PROFIL
 10
107.0009396980177
 20
-5.3000000000000682
 30
0.0
  0
VERTEX
  5
1EF8
  8
SAPA_PROFIL
 10
114.4759396980178
 20
-5.3000000000000682
 30
0.0
 42
-0.4142135623730951
  0
VERTEX
  5
1EF9
  8
SAPA_PROFIL
 10
114.9759396980178
 20
-5.8000000000000682
 30
0.0
  0
VERTEX
  5
1EFA
  8
SAPA_PROFIL
 10
114.9759396980177
 20
-7.5
 30
0.0
 42
0.4142135623730951
  0
VERTEX
  5
1EFB
  8
SAPA_PROFIL
 10
119.57593969801771
 20
-12.100000000000019
 30
0.0
  0
VERTEX
  5
1EFC
  8
SAPA_PROFIL
 10
121.40093969801779
 20
-12.100000000000019
 30
0.0
 42
-0.4142135623730951
  0
VERTEX
  5
1EFD
  8
SAPA_PROFIL
 10
122.40093969801779
 20
-13.100000000000019
 30
0.0
  0
VERTEX
  5
1EFE
  8
SAPA_PROFIL
 10
122.40093969801769
 20
-47.500000000000227
 30
0.0
 42
-0.4142135623730951
  0
VERTEX
  5
1EFF
  8
SAPA_PROFIL
 10
121.40093969801769
 20
-48.50000000000022
 30
0.0
  0
VERTEX
  5
1F00
  8
SAPA_PROFIL
 10
101.3009396980176
 20
-48.50000000000022
 30
0.0
 42
0.4142135623730951
  0
VERTEX
  5
1F01
  8
SAPA_PROFIL
 10
100.8009396980176
 20
-49.000000000000227
 30
0.0
  0
VERTEX
  5
1F02
  8
SAPA_PROFIL
 10
100.8009396980176
 20
-49.700000000000159
 30
0.0
 42
0.4150844288340716
  0
VERTEX
  5
1F03
  8
SAPA_PROFIL
 10
101.3024258999976
 20
-50.199997791198939
 30
0.0
 42
-0.3121484461588222
  0
VERTEX
  5
1F04
  8
SAPA_PROFIL
 10
101.7712393028575
 20
-50.522216822930552
 30
0.0
 42
-0.482358125222547
  0
VERTEX
  5
1F05
  8
SAPA_PROFIL
 10
99.57533474125421
 20
-54.224395043236193
 30
0.0
  0
VERTEX
  5
1F06
  8
SAPA_PROFIL
 10
99.200939698017763
 20
-53.849999999999682
 30
0.0
  0
VERTEX
  5
1F07
  8
SAPA_PROFIL
 10
98.826544654781287
 20
-54.224395043236193
 30
0.0
 42
-0.4823574778722663
  0
VERTEX
  5
1F08
  8
SAPA_PROFIL
 10
96.630638039206431
 20
-50.522222222222467
 30
0.0
 42
-0.311333703729445
  0
VERTEX
  5
1F09
  8
SAPA_PROFIL
 10
97.097965613535678
 20
-50.200000000000159
 30
0.0
  0
VERTEX
  5
1F0A
  8
SAPA_PROFIL
 10
97.100939698017726
 20
-50.200000000000159
 30
0.0
 42
0.4142135623730951
  0
VERTEX
  5
1F0B
  8
SAPA_PROFIL
 10
97.600939698017726
 20
-49.700000000000159
 30
0.0
  0
VERTEX
  5
1F0C
  8
SAPA_PROFIL
 10
97.600939698017726
 20
-49.000000000000227
 30
0.0
 42
0.4142135623731117
  0
VERTEX
  5
1F0D
  8
SAPA_PROFIL
 10
97.100939698017726
 20
-48.500000000000121
 30
0.0
  0
VERTEX
  5
1F0E
  8
SAPA_PROFIL
 10
77.00093969801776
 20
-48.500000000000121
 30
0.0
 42
-0.4142135623730951
  0
VERTEX
  5
1F0F
  8
SAPA_PROFIL
 10
76.000939698017746
 20
-47.500000000000107
 30
0.0
  0
VERTEX
  5
1F10
  8
SAPA_PROFIL
 10
76.000939698017746
 20
-13.10000000000014
 30
0.0
 42
-0.4142135623730951
  0
VERTEX
  5
1F11
  8
SAPA_PROFIL
 10
77.00093969801776
 20
-12.100000000000129
 30
0.0
  0
VERTEX
  5
1F12
  8
SAPA_PROFIL
 10
78.825939698017734
 20
-12.100000000000129
 30
0.0
 42
0.4142135623730914
  0
VERTEX
  5
1F13
  8
SAPA_PROFIL
 10
83.425939698017714
 20
-7.5000000000001128
 30
0.0
  0
VERTEX
  5
1F14
  8
SAPA_PROFIL
 10
83.425939698017658
 20
-5.800000000000181
 30
0.0
 42
-0.4142135623730951
  0
VERTEX
  5
1F15
  8
SAPA_PROFIL
 10
83.925939698017643
 20
-5.300000000000181
 30
0.0
  0
VERTEX
  5
1F16
  8
SAPA_PROFIL
 10
91.400939698017737
 20
-5.3000000000000682
 30
0.0
 42
-0.4142135623730951
  0
VERTEX
  5
1F17
  8
SAPA_PROFIL
 10
91.700939698017635
 20
-5.6000000000001364
 30
0.0
  0
VERTEX
  5
1F18
  8
SAPA_PROFIL
 10
91.700939698017734
 20
-5.7000000000001592
 30
0.0
 42
0.4142135623730951
  0
VERTEX
  5
1F19
  8
SAPA_PROFIL
 10
92.000939698017703
 20
-6.0000000000001128
 30
0.0
  0
VERTEX
  5
1F1A
  8
SAPA_PROFIL
 10
106.40093969801759
 20
-6.0000000000001128
 30
0.0
 42
0.4142135623730951
  0
VERTEX
  5
1F1B
  8
SAPA_PROFIL
 10
106.70093969801761
 20
-5.7000000000001592
 30
0.0
  0
VERTEX
  5
1F1C
  8
SAPA_PROFIL
 10
106.70093969801771
 20
-5.6000000000001364
 30
0.0
 42
-0.4142135623730951
  0
SEQEND
  5
1F1D
  8
SAPA_PROFIL
  0
POLYLINE
  5
FB5
  8
SAPA_PROFIL
 66
     1
 10
0.0
 20
0.0
 30
0.0
 70
     1
  0
VERTEX
  5
1F1E
  8
SAPA_PROFIL
 10
120.20093969801771
 20
-55.0
 30
0.0
  0
VERTEX
  5
1F1F
  8
SAPA_PROFIL
 10
120.20093969801771
 20
-54.0
 30
0.0
  0
VERTEX
  5
1F20
  8
SAPA_PROFIL
 10
122.40093969801779
 20
-54.0
 30
0.0
  0
VERTEX
  5
1F21
  8
SAPA_PROFIL
 10
122.40093969801779
 20
-51.0
 30
0.0
  0
VERTEX
  5
1F22
  8
SAPA_PROFIL
 10
103.70093969801771
 20
-51.000000000000121
 30
0.0
  0
VERTEX
  5
1F23
  8
SAPA_PROFIL
 10
103.70093969801771
 20
-54.000000000000107
 30
0.0
  0
VERTEX
  5
1F24
  8
SAPA_PROFIL
 10
106.20093969801771
 20
-54.000000000000107
 30
0.0
  0
VERTEX
  5
1F25
  8
SAPA_PROFIL
 10
106.20093969801771
 20
-55.000000000000107
 30
0.0
  0
VERTEX
  5
1F26
  8
SAPA_PROFIL
 10
105.40093969801769
 20
-55.800000000000068
 30
0.0
  0
VERTEX
  5
1F27
  8
SAPA_PROFIL
 10
99.720554940288494
 20
-55.800000000000068
 30
0.0
  0
VERTEX
  5
1F28
  8
SAPA_PROFIL
 10
99.200939698017805
 20
-55.500000000000107
 30
0.0
  0
VERTEX
  5
1F29
  8
SAPA_PROFIL
 10
98.681324455747145
 20
-55.800000000000068
 30
0.0
  0
VERTEX
  5
1F2A
  8
SAPA_PROFIL
 10
93.000939698017774
 20
-55.800000000000068
 30
0.0
  0
VERTEX
  5
1F2B
  8
SAPA_PROFIL
 10
92.200939698017805
 20
-55.000000000000107
 30
0.0
  0
VERTEX
  5
1F2C
  8
SAPA_PROFIL
 10
92.200939698017805
 20
-54.000000000000107
 30
0.0
  0
VERTEX
  5
1F2D
  8
SAPA_PROFIL
 10
94.700939698017805
 20
-54.000000000000107
 30
0.0
  0
VERTEX
  5
1F2E
  8
SAPA_PROFIL
 10
94.700939698017748
 20
-51.000000000000121
 30
0.0
  0
VERTEX
  5
1F2F
  8
SAPA_PROFIL
 10
76.000939698017746
 20
-51.000000000000121
 30
0.0
  0
VERTEX
  5
1F30
  8
SAPA_PROFIL
 10
76.000939698017817
 20
-54.000000000000107
 30
0.0
  0
VERTEX
  5
1F31
  8
SAPA_PROFIL
 10
78.200939698017805
 20
-54.000000000000107
 30
0.0
  0
VERTEX
  5
1F32
  8
SAPA_PROFIL
 10
78.200939698017805
 20
-55.000000000000107
 30
0.0
  0
VERTEX
  5
1F33
  8
SAPA_PROFIL
 10
77.200939698017805
 20
-56.000000000000121
 30
0.0
  0
VERTEX
  5
1F34
  8
SAPA_PROFIL
 10
76.000939698017817
 20
-56.000000000000121
 30
0.0
  0
VERTEX
  5
1F35
  8
SAPA_PROFIL
 10
76.000939698017874
 20
-66.000000000000114
 30
0.0
 42
0.4142135623730951
  0
VERTEX
  5
1F36
  8
SAPA_PROFIL
 10
76.500939698017874
 20
-66.500000000000114
 30
0.0
  0
VERTEX
  5
1F37
  8
SAPA_PROFIL
 10
77.710939698017853
 20
-66.500000000000114
 30
0.0
 42
-0.4142135623730951
  0
VERTEX
  5
1F38
  8
SAPA_PROFIL
 10
78.700939698017805
 20
-67.490000000000123
 30
0.0
  0
VERTEX
  5
1F39
  8
SAPA_PROFIL
 10
78.700939698017862
 20
-68.010000000000105
 30
0.0
 42
-0.4142135623730951
  0
VERTEX
  5
1F3A
  8
SAPA_PROFIL
 10
77.710939698017853
 20
-69.000000000000114
 30
0.0
  0
VERTEX
  5
1F3B
  8
SAPA_PROFIL
 10
77.700939698017862
 20
-69.000000000000114
 30
0.0
  0
VERTEX
  5
1F3C
  8
SAPA_PROFIL
 10
77.700939698017862
 20
-67.750000000000114
 30
0.0
  0
VERTEX
  5
1F3D
  8
SAPA_PROFIL
 10
76.200939698017862
 20
-67.750000000000114
 30
0.0
 42
0.4142135623730951
  0
VERTEX
  5
1F3E
  8
SAPA_PROFIL
 10
75.700939698017862
 20
-68.250000000000114
 30
0.0
  0
VERTEX
  5
1F3F
  8
SAPA_PROFIL
 10
75.700939698017862
 20
-76.250000000000114
 30
0.0
 42
0.4142135623730951
  0
VERTEX
  5
1F40
  8
SAPA_PROFIL
 10
76.200939698017862
 20
-76.750000000000114
 30
0.0
  0
VERTEX
  5
1F41
  8
SAPA_PROFIL
 10
77.700939698017862
 20
-76.750000000000114
 30
0.0
  0
VERTEX
  5
1F42
  8
SAPA_PROFIL
 10
77.700939698017862
 20
-75.500000000000114
 30
0.0
  0
VERTEX
  5
1F43
  8
SAPA_PROFIL
 10
77.710939698017853
 20
-75.500000000000114
 30
0.0
 42
-0.4142135623730951
  0
VERTEX
  5
1F44
  8
SAPA_PROFIL
 10
78.700939698017805
 20
-76.490000000000123
 30
0.0
  0
VERTEX
  5
1F45
  8
SAPA_PROFIL
 10
78.700939698017862
 20
-77.700000000000045
 30
0.0
 42
-0.4142135623731229
  0
VERTEX
  5
1F46
  8
SAPA_PROFIL
 10
78.400939698017851
 20
-78.000000000000114
 30
0.0
  0
VERTEX
  5
1F47
  8
SAPA_PROFIL
 10
74.500939698017874
 20
-78.000000000000114
 30
0.0
 42
-0.4142135623730675
  0
VERTEX
  5
1F48
  8
SAPA_PROFIL
 10
74.200939698017862
 20
-77.700000000000045
 30
0.0
  0
VERTEX
  5
1F49
  8
SAPA_PROFIL
 10
74.200939698017748
 20
-0.3000000000000682
 30
0.0
 42
-0.4142135623731227
  0
VERTEX
  5
1F4A
  8
SAPA_PROFIL
 10
74.50093969801776
 20
-0.0000000000001137
 30
0.0
  0
VERTEX
  5
1F4B
  8
SAPA_PROFIL
 10
76.000939698017746
 20
-0.0000000000001137
 30
0.0
 42
-0.4142135623730951
  0
VERTEX
  5
1F4C
  8
SAPA_PROFIL
 10
77.50093969801776
 20
-1.500000000000113
 30
0.0
  0
VERTEX
  5
1F4D
  8
SAPA_PROFIL
 10
77.50093969801776
 20
-2.0000000000001128
 30
0.0
  0
VERTEX
  5
1F4E
  8
SAPA_PROFIL
 10
76.225939698017726
 20
-2.0000000000001128
 30
0.0
  0
VERTEX
  5
1F4F
  8
SAPA_PROFIL
 10
76.225939698017726
 20
-3.100000000000136
 30
0.0
  0
VERTEX
  5
1F50
  8
SAPA_PROFIL
 10
77.200939698017748
 20
-3.100000000000136
 30
0.0
 42
-0.4142135623731227
  0
VERTEX
  5
1F51
  8
SAPA_PROFIL
 10
77.500939698017703
 20
-3.4000000000000901
 30
0.0
  0
VERTEX
  5
1F52
  8
SAPA_PROFIL
 10
77.500939698017703
 20
-4.4000000000000901
 30
0.0
  0
VERTEX
  5
1F53
  8
SAPA_PROFIL
 10
76.225939698017726
 20
-4.4000000000000901
 30
0.0
  0
VERTEX
  5
1F54
  8
SAPA_PROFIL
 10
76.225939698017726
 20
-7.5000000000001128
 30
0.0
 42
1.0
  0
VERTEX
  5
1F55
  8
SAPA_PROFIL
 10
81.425939698017714
 20
-7.5000000000001128
 30
0.0
  0
VERTEX
  5
1F56
  8
SAPA_PROFIL
 10
81.425939698017785
 20
-4.4000000000002037
 30
0.0
  0
VERTEX
  5
1F57
  8
SAPA_PROFIL
 10
80.200939698017677
 20
-4.4000000000002037
 30
0.0
  0
VERTEX
  5
1F58
  8
SAPA_PROFIL
 10
80.200939698017677
 20
-3.4000000000000901
 30
0.0
 42
-0.4142135623730673
  0
VERTEX
  5
1F59
  8
SAPA_PROFIL
 10
80.500939698017689
 20
-3.100000000000136
 30
0.0
  0
VERTEX
  5
1F5A
  8
SAPA_PROFIL
 10
81.425939698017785
 20
-3.100000000000136
 30
0.0
  0
VERTEX
  5
1F5B
  8
SAPA_PROFIL
 10
81.425939698017785
 20
-2.0000000000001128
 30
0.0
  0
VERTEX
  5
1F5C
  8
SAPA_PROFIL
 10
80.200939698017748
 20
-2.0000000000001128
 30
0.0
  0
VERTEX
  5
1F5D
  8
SAPA_PROFIL
 10
80.200939698017748
 20
-1.500000000000113
 30
0.0
 42
-0.4142135623730951
  0
VERTEX
  5
1F5E
  8
SAPA_PROFIL
 10
81.700939698017734
 20
-0.0000000000001137
 30
0.0
  0
VERTEX
  5
1F5F
  8
SAPA_PROFIL
 10
83.150939698017737
 20
-0.0000000000001137
 30
0.0
 42
-0.4142135623731227
  0
VERTEX
  5
1F60
  8
SAPA_PROFIL
 10
83.450939698017748
 20
-0.3000000000000682
 30
0.0
  0
VERTEX
  5
1F61
  8
SAPA_PROFIL
 10
83.450939698017748
 20
-2.8000000000000682
 30
0.0
  0
VERTEX
  5
1F62
  8
SAPA_PROFIL
 10
98.681324455747074
 20
-2.8000000000000682
 30
0.0
  0
VERTEX
  5
1F63
  8
SAPA_PROFIL
 10
99.200939698017763
 20
-3.1000000000000218
 30
0.0
  0
VERTEX
  5
1F64
  8
SAPA_PROFIL
 10
99.720554940288309
 20
-2.8000000000000682
 30
0.0
  0
VERTEX
  5
1F65
  8
SAPA_PROFIL
 10
114.95093969801771
 20
-2.8000000000000682
 30
0.0
  0
VERTEX
  5
1F66
  8
SAPA_PROFIL
 10
114.95093969801771
 20
-0.3000000000000682
 30
0.0
 42
-0.4142135623730951
  0
VERTEX
  5
1F67
  8
SAPA_PROFIL
 10
115.2509396980178
 20
0.0
 30
0.0
  0
VERTEX
  5
1F68
  8
SAPA_PROFIL
 10
116.70093969801771
 20
0.0
 30
0.0
 42
-0.4142135623730951
  0
VERTEX
  5
1F69
  8
SAPA_PROFIL
 10
118.20093969801771
 20
-1.5
 30
0.0
  0
VERTEX
  5
1F6A
  8
SAPA_PROFIL
 10
118.20093969801771
 20
-2.0
 30
0.0
  0
VERTEX
  5
1F6B
  8
SAPA_PROFIL
 10
116.9759396980177
 20
-2.0
 30
0.0
  0
VERTEX
  5
1F6C
  8
SAPA_PROFIL
 10
116.9759396980177
 20
-3.1000000000000218
 30
0.0
  0
VERTEX
  5
1F6D
  8
SAPA_PROFIL
 10
117.90093969801779
 20
-3.1000000000000218
 30
0.0
 42
-0.4142135623730951
  0
VERTEX
  5
1F6E
  8
SAPA_PROFIL
 10
118.20093969801771
 20
-3.3999999999999768
 30
0.0
  0
VERTEX
  5
1F6F
  8
SAPA_PROFIL
 10
118.20093969801771
 20
-4.4000000000000901
 30
0.0
  0
VERTEX
  5
1F70
  8
SAPA_PROFIL
 10
116.9759396980177
 20
-4.4000000000000901
 30
0.0
  0
VERTEX
  5
1F71
  8
SAPA_PROFIL
 10
116.9759396980177
 20
-7.5
 30
0.0
 42
1.0
  0
VERTEX
  5
1F72
  8
SAPA_PROFIL
 10
122.1759396980177
 20
-7.5
 30
0.0
  0
VERTEX
  5
1F73
  8
SAPA_PROFIL
 10
122.1759396980177
 20
-4.4000000000000901
 30
0.0
  0
VERTEX
  5
1F74
  8
SAPA_PROFIL
 10
120.90093969801779
 20
-4.4000000000000901
 30
0.0
  0
VERTEX
  5
1F75
  8
SAPA_PROFIL
 10
120.90093969801779
 20
-3.4000000000000901
 30
0.0
 42
-0.4142135623730951
  0
VERTEX
  5
1F76
  8
SAPA_PROFIL
 10
121.20093969801771
 20
-3.1000000000000218
 30
0.0
  0
VERTEX
  5
1F77
  8
SAPA_PROFIL
 10
122.1759396980177
 20
-3.1000000000000218
 30
0.0
  0
VERTEX
  5
1F78
  8
SAPA_PROFIL
 10
122.1759396980177
 20
-2.0
 30
0.0
  0
VERTEX
  5
1F79
  8
SAPA_PROFIL
 10
120.90093969801779
 20
-2.0
 30
0.0
  0
VERTEX
  5
1F7A
  8
SAPA_PROFIL
 10
120.90093969801779
 20
-1.5
 30
0.0
 42
-0.4142135623730951
  0
VERTEX
  5
1F7B
  8
SAPA_PROFIL
 10
122.40093969801779
 20
0.0
 30
0.0
  0
VERTEX
  5
1F7C
  8
SAPA_PROFIL
 10
123.90093969801779
 20
0.0
 30
0.0
 42
-0.4142135623730951
  0
VERTEX
  5
1F7D
  8
SAPA_PROFIL
 10
124.20093969801771
 20
-0.3000000000000682
 30
0.0
  0
VERTEX
  5
1F7E
  8
SAPA_PROFIL
 10
124.20093969801771
 20
-56.0
 30
0.0
  0
VERTEX
  5
1F7F
  8
SAPA_PROFIL
 10
121.20093969801771
 20
-56.0
 30
0.0
  0
SEQEND
  5
1F80
  8
SAPA_PROFIL
  0
POLYLINE
  5
FB6
  8
SAPA_PROFIL
 66
     1
 10
0.0
 20
0.0
 30
0.0
 70
   128
  0
VERTEX
  5
1F81
  8
SAPA_PROFIL
 10
-23.034074173710451
 20
22.441180954898179
 30
0.0
 42
-0.8769764629927568
  0
VERTEX
  5
1F82
  8
SAPA_PROFIL
 10
-24.99999999999952
 20
22.700000000000731
 30
0.0
 42
0.8769764629927568
  0
VERTEX
  5
1F83
  8
SAPA_PROFIL
 10
-23.034074173710511
 20
22.441180954898751
 30
0.0
  0
VERTEX
  5
1F84
  8
SAPA_PROFIL
 10
-22.408020328491261
 20
24.777645713531459
 30
0.0
 42
-0.3394542588633806
  0
VERTEX
  5
1F85
  8
SAPA_PROFIL
 10
-22.118242580604541
 20
25.000000000000679
 30
0.0
  0
VERTEX
  5
1F86
  8
SAPA_PROFIL
 10
62.000000000000512
 20
24.999999999999659
 30
0.0
 42
-0.4142135623730951
  0
VERTEX
  5
1F87
  8
SAPA_PROFIL
 10
62.500000000000512
 20
24.499999999999659
 30
0.0
  0
VERTEX
  5
1F88
  8
SAPA_PROFIL
 10
62.500000000000462
 20
-24.499999999999321
 30
0.0
 42
-0.4142135623730951
  0
VERTEX
  5
1F89
  8
SAPA_PROFIL
 10
62.000000000000448
 20
-24.999999999999321
 30
0.0
  0
VERTEX
  5
1F8A
  8
SAPA_PROFIL
 10
-22.118242580604541
 20
-25.000000000000231
 30
0.0
 42
-0.3394542588633758
  0
VERTEX
  5
1F8B
  8
SAPA_PROFIL
 10
-22.408020328490519
 20
-24.777645713531228
 30
0.0
  0
VERTEX
  5
1F8C
  8
SAPA_PROFIL
 10
-23.034074173710451
 20
-22.441180954897732
 30
0.0
 42
0.8769764629927491
  0
VERTEX
  5
1F8D
  8
SAPA_PROFIL
 10
-24.99999999999952
 20
-22.700000000000269
 30
0.0
  0
VERTEX
  5
1F8E
  8
SAPA_PROFIL
 10
-24.99999999999952
 20
-22.712613464860279
 30
0.0
 42
-0.4040262258351518
  0
VERTEX
  5
1F8F
  8
SAPA_PROFIL
 10
-26.93020100659453
 20
-24.711395118898281
 30
0.0
  0
VERTEX
  5
1F90
  8
SAPA_PROFIL
 10
-35.189530150987771
 20
-24.999817248106979
 30
0.0
 42
-0.4244748162096047
  0
VERTEX
  5
1F91
  8
SAPA_PROFIL
 10
-35.499999999998522
 20
-24.7000000000013
 30
0.0
  0
VERTEX
  5
1F92
  8
SAPA_PROFIL
 10
-35.499999999999517
 20
-22.400000000001342
 30
0.0
  0
VERTEX
  5
1F93
  8
SAPA_PROFIL
 10
-35.03507658043327
 20
-21.813615984240531
 30
0.0
 42
-0.7105995015650719
  0
VERTEX
  5
1F94
  8
SAPA_PROFIL
 10
-34.499999999998522
 20
-22.000000000001251
 30
0.0
  0
VERTEX
  5
1F95
  8
SAPA_PROFIL
 10
-34.499999999999552
 20
-22.900000000000318
 30
0.0
 42
0.4142135623731258
  0
VERTEX
  5
1F96
  8
SAPA_PROFIL
 10
-34.199999999999541
 20
-23.200000000000269
 30
0.0
  0
VERTEX
  5
1F97
  8
SAPA_PROFIL
 10
-31.799999999999532
 20
-23.200000000000269
 30
0.0
 42
0.4142135623731258
  0
VERTEX
  5
1F98
  8
SAPA_PROFIL
 10
-31.49999999999952
 20
-22.900000000000318
 30
0.0
  0
VERTEX
  5
1F99
  8
SAPA_PROFIL
 10
-31.49999999999952
 20
-18.000000000001251
 30
0.0
 42
0.4142135623730951
  0
VERTEX
  5
1F9A
  8
SAPA_PROFIL
 10
-31.799999999999532
 20
-17.700000000001289
 30
0.0
  0
VERTEX
  5
1F9B
  8
SAPA_PROFIL
 10
-34.199999999999541
 20
-17.700000000001289
 30
0.0
 42
0.4142135623731206
  0
VERTEX
  5
1F9C
  8
SAPA_PROFIL
 10
-34.499999999999517
 20
-18.000000000001251
 30
0.0
  0
VERTEX
  5
1F9D
  8
SAPA_PROFIL
 10
-34.499999999999517
 20
-18.400000000000318
 30
0.0
 42
-0.7105995015649539
  0
VERTEX
  5
1F9E
  8
SAPA_PROFIL
 10
-35.035076580433532
 20
-18.586384015761269
 30
0.0
  0
VERTEX
  5
1F9F
  8
SAPA_PROFIL
 10
-35.499999999999517
 20
-18.000000000001251
 30
0.0
  0
VERTEX
  5
1FA0
  8
SAPA_PROFIL
 10
-35.499999999999538
 20
-16.300000000001319
 30
0.0
 42
-0.4142135623730951
  0
VERTEX
  5
1FA1
  8
SAPA_PROFIL
 10
-35.199999999999527
 20
-16.000000000001251
 30
0.0
  0
VERTEX
  5
1FA2
  8
SAPA_PROFIL
 10
-34.647213595498528
 20
-16.000000000001251
 30
0.0
 42
-0.2134217652833428
  0
VERTEX
  5
1FA3
  8
SAPA_PROFIL
 10
-34.423606797749471
 20
-16.10000000000036
 30
0.0
 42
0.2134217652833501
  0
VERTEX
  5
1FA4
  8
SAPA_PROFIL
 10
-34.199999999999541
 20
-16.200000000000269
 30
0.0
  0
VERTEX
  5
1FA5
  8
SAPA_PROFIL
 10
-30.299999999999532
 20
-16.200000000001289
 30
0.0
 42
-0.4142135623731088
  0
VERTEX
  5
1FA6
  8
SAPA_PROFIL
 10
-29.99999999999952
 20
-16.500000000001251
 30
0.0
  0
VERTEX
  5
1FA7
  8
SAPA_PROFIL
 10
-29.99999999999952
 20
-22.299610616440312
 30
0.0
 42
0.4244748162096096
  0
VERTEX
  5
1FA8
  8
SAPA_PROFIL
 10
-29.482550251647531
 20
-22.79930602995023
 30
0.0
  0
VERTEX
  5
1FA9
  8
SAPA_PROFIL
 10
-27.48255025164827
 20
-22.729464490966851
 30
0.0
 42
0.4040262258351467
  0
VERTEX
  5
1FAA
  8
SAPA_PROFIL
 10
-26.99999999999952
 20
-22.229769077457259
 30
0.0
  0
VERTEX
  5
1FAB
  8
SAPA_PROFIL
 10
-26.99999999999952
 20
-2.1499999999992951
 30
0.0
 42
0.4142135623730951
  0
VERTEX
  5
1FAC
  8
SAPA_PROFIL
 10
-27.99999999999952
 20
-1.1499999999992949
 30
0.0
  0
VERTEX
  5
1FAD
  8
SAPA_PROFIL
 10
-31.49999999999952
 20
-1.1499999999992949
 30
0.0
 42
0.4142135623730992
  0
VERTEX
  5
1FAE
  8
SAPA_PROFIL
 10
-32.499999999999517
 20
-2.1500000000003179
 30
0.0
  0
VERTEX
  5
1FAF
  8
SAPA_PROFIL
 10
-32.499999999999517
 20
-4.0000000000003411
 30
0.0
 42
-0.4142135623730951
  0
VERTEX
  5
1FB0
  8
SAPA_PROFIL
 10
-33.499999999999517
 20
-5.0000000000003411
 30
0.0
  0
VERTEX
  5
1FB1
  8
SAPA_PROFIL
 10
-52.199999999999527
 20
-5.0000000000003411
 30
0.0
 42
-0.4142135623730967
  0
VERTEX
  5
1FB2
  8
SAPA_PROFIL
 10
-52.499999999999538
 20
-4.700000000000272
 30
0.0
  0
VERTEX
  5
1FB3
  8
SAPA_PROFIL
 10
-52.499999999999538
 20
-3.0757359312882491
 30
0.0
  0
VERTEX
  5
1FB4
  8
SAPA_PROFIL
 10
-51.5621320343555
 20
-2.1378679656443178
 30
0.0
 42
-0.6681786379193148
  0
VERTEX
  5
1FB5
  8
SAPA_PROFIL
 10
-51.049999999999528
 20
-2.3500000000002501
 30
0.0
  0
VERTEX
  5
1FB6
  8
SAPA_PROFIL
 10
-51.049999999999528
 20
-2.700000000000272
 30
0.0
  0
VERTEX
  5
1FB7
  8
SAPA_PROFIL
 10
-49.673765404325017
 20
-2.0767196957481242
 30
0.0
 42
-0.5450207774093593
  0
VERTEX
  5
1FB8
  8
SAPA_PROFIL
 10
-49.249999999999538
 20
-2.3500000000002501
 30
0.0
  0
VERTEX
  5
1FB9
  8
SAPA_PROFIL
 10
-49.249999999999538
 20
-2.700000000000272
 30
0.0
  0
VERTEX
  5
1FBA
  8
SAPA_PROFIL
 10
-47.873765404324963
 20
-2.0767196957481242
 30
0.0
 42
-0.5450207774092377
  0
VERTEX
  5
1FBB
  8
SAPA_PROFIL
 10
-47.449999999999527
 20
-2.3500000000002501
 30
0.0
  0
VERTEX
  5
1FBC
  8
SAPA_PROFIL
 10
-47.449999999999527
 20
-2.700000000000272
 30
0.0
  0
VERTEX
  5
1FBD
  8
SAPA_PROFIL
 10
-46.073765404324917
 20
-2.0767196957481242
 30
0.0
 42
-0.5450207774091275
  0
VERTEX
  5
1FBE
  8
SAPA_PROFIL
 10
-45.649999999999523
 20
-2.3500000000002501
 30
0.0
  0
VERTEX
  5
1FBF
  8
SAPA_PROFIL
 10
-45.649999999999523
 20
-2.700000000000272
 30
0.0
  0
VERTEX
  5
1FC0
  8
SAPA_PROFIL
 10
-44.273765404324898
 20
-2.0767196957481242
 30
0.0
 42
-0.545020777409056
  0
VERTEX
  5
1FC1
  8
SAPA_PROFIL
 10
-43.849999999999497
 20
-2.3500000000002501
 30
0.0
  0
VERTEX
  5
1FC2
  8
SAPA_PROFIL
 10
-43.849999999999497
 20
-2.700000000000272
 30
0.0
  0
VERTEX
  5
1FC3
  8
SAPA_PROFIL
 10
-42.473765404324951
 20
-2.0767196957481242
 30
0.0
 42
-0.5450207774091171
  0
VERTEX
  5
1FC4
  8
SAPA_PROFIL
 10
-42.049999999999521
 20
-2.3500000000002501
 30
0.0
  0
VERTEX
  5
1FC5
  8
SAPA_PROFIL
 10
-42.049999999999521
 20
-2.700000000000272
 30
0.0
  0
VERTEX
  5
1FC6
  8
SAPA_PROFIL
 10
-40.673765404325017
 20
-2.0767196957481242
 30
0.0
 42
-0.5450207774094031
  0
VERTEX
  5
1FC7
  8
SAPA_PROFIL
 10
-40.24999999999951
 20
-2.3500000000002501
 30
0.0
  0
VERTEX
  5
1FC8
  8
SAPA_PROFIL
 10
-40.24999999999951
 20
-2.700000000000272
 30
0.0
  0
VERTEX
  5
1FC9
  8
SAPA_PROFIL
 10
-38.873765404324899
 20
-2.0767196957481242
 30
0.0
 42
-0.5450207774091194
  0
VERTEX
  5
1FCA
  8
SAPA_PROFIL
 10
-38.449999999999541
 20
-2.3500000000002501
 30
0.0
  0
VERTEX
  5
1FCB
  8
SAPA_PROFIL
 10
-38.449999999999541
 20
-2.700000000000272
 30
0.0
  0
VERTEX
  5
1FCC
  8
SAPA_PROFIL
 10
-37.073765404324888
 20
-2.0767196957481242
 30
0.0
 42
-0.5450207774090981
  0
VERTEX
  5
1FCD
  8
SAPA_PROFIL
 10
-36.649999999999523
 20
-2.3500000000002501
 30
0.0
  0
VERTEX
  5
1FCE
  8
SAPA_PROFIL
 10
-36.649999999999523
 20
-2.700000000000272
 30
0.0
  0
VERTEX
  5
1FCF
  8
SAPA_PROFIL
 10
-35.499999999999517
 20
-2.700000000000272
 30
0.0
 42
0.4142135623730951
  0
VERTEX
  5
1FD0
  8
SAPA_PROFIL
 10
-34.499999999999517
 20
-1.700000000000272
 30
0.0
  0
VERTEX
  5
1FD1
  8
SAPA_PROFIL
 10
-34.499999999999517
 20
1.7000000000007269
 30
0.0
 42
0.4142135623730951
  0
VERTEX
  5
1FD2
  8
SAPA_PROFIL
 10
-35.499999999999517
 20
2.7000000000007272
 30
0.0
  0
VERTEX
  5
1FD3
  8
SAPA_PROFIL
 10
-35.749999999999517
 20
2.7000000000007272
 30
0.0
  0
VERTEX
  5
1FD4
  8
SAPA_PROFIL
 10
-35.749999999999517
 20
2.350000000000477
 30
0.0
 42
-0.5450207774088494
  0
VERTEX
  5
1FD5
  8
SAPA_PROFIL
 10
-36.173765404324513
 20
2.076719695747669
 30
0.0
  0
VERTEX
  5
1FD6
  8
SAPA_PROFIL
 10
-37.549999999999528
 20
2.7000000000007272
 30
0.0
  0
VERTEX
  5
1FD7
  8
SAPA_PROFIL
 10
-37.549999999999528
 20
2.350000000000477
 30
0.0
 42
-0.5450207774088274
  0
VERTEX
  5
1FD8
  8
SAPA_PROFIL
 10
-37.973765404324517
 20
2.076719695747669
 30
0.0
  0
VERTEX
  5
1FD9
  8
SAPA_PROFIL
 10
-39.349999999999511
 20
2.7000000000007272
 30
0.0
  0
VERTEX
  5
1FDA
  8
SAPA_PROFIL
 10
-39.349999999999511
 20
2.350000000000704
 30
0.0
 42
-0.5450207774090874
  0
VERTEX
  5
1FDB
  8
SAPA_PROFIL
 10
-39.773765404324543
 20
2.076719695747669
 30
0.0
  0
VERTEX
  5
1FDC
  8
SAPA_PROFIL
 10
-41.149999999999523
 20
2.7000000000007272
 30
0.0
  0
VERTEX
  5
1FDD
  8
SAPA_PROFIL
 10
-41.149999999999523
 20
2.350000000000477
 30
0.0
 42
-0.5450207774087519
  0
VERTEX
  5
1FDE
  8
SAPA_PROFIL
 10
-41.573765404324512
 20
2.076719695747669
 30
0.0
  0
VERTEX
  5
1FDF
  8
SAPA_PROFIL
 10
-42.949999999999527
 20
2.7000000000007272
 30
0.0
  0
VERTEX
  5
1FE0
  8
SAPA_PROFIL
 10
-42.949999999999527
 20
2.350000000000477
 30
0.0
 42
-0.5450207774088199
  0
VERTEX
  5
1FE1
  8
SAPA_PROFIL
 10
-43.37376540432453
 20
2.076719695747669
 30
0.0
  0
VERTEX
  5
1FE2
  8
SAPA_PROFIL
 10
-44.749999999999538
 20
2.7000000000007272
 30
0.0
  0
VERTEX
  5
1FE3
  8
SAPA_PROFIL
 10
-44.74999999999951
 20
2.350000000000477
 30
0.0
 42
-0.5450207774088308
  0
VERTEX
  5
1FE4
  8
SAPA_PROFIL
 10
-45.173765404324513
 20
2.076719695747669
 30
0.0
  0
VERTEX
  5
1FE5
  8
SAPA_PROFIL
 10
-46.549999999999528
 20
2.7000000000007272
 30
0.0
  0
VERTEX
  5
1FE6
  8
SAPA_PROFIL
 10
-46.549999999999528
 20
2.3500000000008181
 30
0.0
 42
-0.5450207774091407
  0
VERTEX
  5
1FE7
  8
SAPA_PROFIL
 10
-46.973765404324517
 20
2.076719695747669
 30
0.0
  0
VERTEX
  5
1FE8
  8
SAPA_PROFIL
 10
-48.349999999999511
 20
2.7000000000007272
 30
0.0
  0
VERTEX
  5
1FE9
  8
SAPA_PROFIL
 10
-48.349999999999511
 20
2.350000000000477
 30
0.0
 42
-0.5450207774088061
  0
VERTEX
  5
1FEA
  8
SAPA_PROFIL
 10
-48.773765404324543
 20
2.076719695747669
 30
0.0
  0
VERTEX
  5
1FEB
  8
SAPA_PROFIL
 10
-50.149999999999523
 20
2.7000000000007272
 30
0.0
  0
VERTEX
  5
1FEC
  8
SAPA_PROFIL
 10
-50.149999999999523
 20
2.0500000000007499
 30
0.0
  0
VERTEX
  5
1FED
  8
SAPA_PROFIL
 10
-51.34999999999917
 20
2.0499999999997272
 30
0.0
 42
-0.1989123673804354
  0
VERTEX
  5
1FEE
  8
SAPA_PROFIL
 10
-51.562132034355528
 20
2.1378679656446589
 30
0.0
  0
VERTEX
  5
1FEF
  8
SAPA_PROFIL
 10
-52.499999999999538
 20
3.0757359312887038
 30
0.0
  0
VERTEX
  5
1FF0
  8
SAPA_PROFIL
 10
-52.499999999999538
 20
4.6999999999997044
 30
0.0
 42
-0.4142135623731001
  0
VERTEX
  5
1FF1
  8
SAPA_PROFIL
 10
-52.199999999999527
 20
4.9999999999996581
 30
0.0
  0
VERTEX
  5
1FF2
  8
SAPA_PROFIL
 10
-33.499999999999517
 20
4.9999999999996581
 30
0.0
 42
-0.4142135623730909
  0
VERTEX
  5
1FF3
  8
SAPA_PROFIL
 10
-32.499999999999517
 20
3.9999999999996581
 30
0.0
  0
VERTEX
  5
1FF4
  8
SAPA_PROFIL
 10
-32.499999999999517
 20
2.1500000000006589
 30
0.0
 42
0.4142135623730951
  0
VERTEX
  5
1FF5
  8
SAPA_PROFIL
 10
-31.49999999999952
 20
1.1500000000006589
 30
0.0
  0
VERTEX
  5
1FF6
  8
SAPA_PROFIL
 10
-27.99999999999952
 20
1.1500000000006589
 30
0.0
 42
0.4142135623730951
  0
VERTEX
  5
1FF7
  8
SAPA_PROFIL
 10
-26.99999999999952
 20
2.1500000000006589
 30
0.0
  0
VERTEX
  5
1FF8
  8
SAPA_PROFIL
 10
-26.99999999999952
 20
22.229769077457721
 30
0.0
 42
0.4040262258351549
  0
VERTEX
  5
1FF9
  8
SAPA_PROFIL
 10
-27.48255025164827
 20
22.729464490967299
 30
0.0
  0
VERTEX
  5
1FFA
  8
SAPA_PROFIL
 10
-29.482550251647531
 20
22.799306029950689
 30
0.0
 42
0.4244748162096052
  0
VERTEX
  5
1FFB
  8
SAPA_PROFIL
 10
-29.99999999999952
 20
22.299610616440759
 30
0.0
  0
VERTEX
  5
1FFC
  8
SAPA_PROFIL
 10
-29.99999999999952
 20
16.500000000001702
 30
0.0
 42
-0.414213562373102
  0
VERTEX
  5
1FFD
  8
SAPA_PROFIL
 10
-30.299999999999532
 20
16.200000000001751
 30
0.0
  0
VERTEX
  5
1FFE
  8
SAPA_PROFIL
 10
-34.199999999999541
 20
16.200000000000731
 30
0.0
 42
0.2134217652833544
  0
VERTEX
  5
1FFF
  8
SAPA_PROFIL
 10
-34.423606797749471
 20
16.100000000000701
 30
0.0
 42
-0.2134217652833613
  0
VERTEX
  5
2000
  8
SAPA_PROFIL
 10
-34.647213595498528
 20
16.000000000001702
 30
0.0
  0
VERTEX
  5
2001
  8
SAPA_PROFIL
 10
-35.199999999999527
 20
16.000000000001702
 30
0.0
 42
-0.4142135623731089
  0
VERTEX
  5
2002
  8
SAPA_PROFIL
 10
-35.499999999999517
 20
16.30000000000177
 30
0.0
  0
VERTEX
  5
2003
  8
SAPA_PROFIL
 10
-35.499999999999517
 20
18.000000000001702
 30
0.0
  0
VERTEX
  5
2004
  8
SAPA_PROFIL
 10
-35.035076580433532
 20
18.58638401576172
 30
0.0
 42
-0.7105995015649391
  0
VERTEX
  5
2005
  8
SAPA_PROFIL
 10
-34.499999999999517
 20
18.40000000000077
 30
0.0
  0
VERTEX
  5
2006
  8
SAPA_PROFIL
 10
-34.499999999999517
 20
18.000000000001702
 30
0.0
 42
0.4142135623731367
  0
VERTEX
  5
2007
  8
SAPA_PROFIL
 10
-34.199999999999541
 20
17.700000000001751
 30
0.0
  0
VERTEX
  5
2008
  8
SAPA_PROFIL
 10
-31.799999999999532
 20
17.700000000001751
 30
0.0
 42
0.4142135623730916
  0
VERTEX
  5
2009
  8
SAPA_PROFIL
 10
-31.49999999999952
 20
18.000000000001702
 30
0.0
  0
VERTEX
  5
200A
  8
SAPA_PROFIL
 10
-31.49999999999952
 20
22.900000000000659
 30
0.0
 42
0.4142135623730984
  0
VERTEX
  5
200B
  8
SAPA_PROFIL
 10
-31.799999999999532
 20
23.200000000000731
 30
0.0
  0
VERTEX
  5
200C
  8
SAPA_PROFIL
 10
-34.199999999999541
 20
23.200000000001751
 30
0.0
 42
0.4142135623731159
  0
VERTEX
  5
200D
  8
SAPA_PROFIL
 10
-34.499999999999517
 20
22.900000000001679
 30
0.0
  0
VERTEX
  5
200E
  8
SAPA_PROFIL
 10
-34.499999999998522
 20
22.000000000001709
 30
0.0
 42
-0.710599501565102
  0
VERTEX
  5
200F
  8
SAPA_PROFIL
 10
-35.03507658043327
 20
21.813615984240979
 30
0.0
  0
VERTEX
  5
2010
  8
SAPA_PROFIL
 10
-35.499999999999517
 20
22.400000000001679
 30
0.0
  0
VERTEX
  5
2011
  8
SAPA_PROFIL
 10
-35.499999999998522
 20
24.700000000001751
 30
0.0
 42
-0.424474816209507
  0
VERTEX
  5
2012
  8
SAPA_PROFIL
 10
-35.189530150987878
 20
24.99981724810743
 30
0.0
  0
VERTEX
  5
2013
  8
SAPA_PROFIL
 10
-26.93020100659453
 20
24.711395118898739
 30
0.0
 42
-0.4040262258351565
  0
VERTEX
  5
2014
  8
SAPA_PROFIL
 10
-24.99999999999952
 20
22.712613464860741
 30
0.0
  0
VERTEX
  5
2015
  8
SAPA_PROFIL
 10
-24.99999999999952
 20
22.700000000000731
 30
0.0
  0
VERTEX
  5
2016
  8
SAPA_PROFIL
 10
-24.99999999999952
 20
22.712613464860741
 30
0.0
  0
SEQEND
  5
2017
  8
SAPA_PROFIL
  0
POLYLINE
  5
FB7
  8
SAPA_PROFIL
 66
     1
 10
0.0
 20
0.0
 30
0.0
 70
   129
  0
VERTEX
  5
2018
  8
SAPA_PROFIL
 10
59.2000000000005
 20
22.699999999999712
 30
0.0
 42
-0.4142135623730951
  0
VERTEX
  5
2019
  8
SAPA_PROFIL
 10
60.2000000000005
 20
21.699999999999712
 30
0.0
  0
VERTEX
  5
201A
  8
SAPA_PROFIL
 10
60.200000000000443
 20
-21.69999999999936
 30
0.0
 42
-0.4142135623730898
  0
VERTEX
  5
201B
  8
SAPA_PROFIL
 10
59.200000000000443
 20
-22.69999999999925
 30
0.0
  0
VERTEX
  5
201C
  8
SAPA_PROFIL
 10
50.000000000000462
 20
-22.69999999999925
 30
0.0
 42
-0.4142135623731053
  0
VERTEX
  5
201D
  8
SAPA_PROFIL
 10
49.000000000000448
 20
-21.69999999999925
 30
0.0
  0
VERTEX
  5
201E
  8
SAPA_PROFIL
 10
49.000000000000448
 20
-17.799999999999269
 30
0.0
 42
0.4142135623730951
  0
VERTEX
  5
201F
  8
SAPA_PROFIL
 10
48.500000000000483
 20
-17.299999999999269
 30
0.0
  0
VERTEX
  5
2020
  8
SAPA_PROFIL
 10
46.400000000000453
 20
-17.299999999999269
 30
0.0
 42
0.4142135623730951
  0
VERTEX
  5
2021
  8
SAPA_PROFIL
 10
46.100000000000477
 20
-17.599999999999341
 30
0.0
  0
VERTEX
  5
2022
  8
SAPA_PROFIL
 10
46.100000000000477
 20
-18.099999999999341
 30
0.0
 42
0.4142135623729981
  0
VERTEX
  5
2023
  8
SAPA_PROFIL
 10
46.400000000000453
 20
-18.399999999999292
 30
0.0
  0
VERTEX
  5
2024
  8
SAPA_PROFIL
 10
46.736626924635203
 20
-18.399999999999629
 30
0.0
 42
-0.5643553431125428
  0
VERTEX
  5
2025
  8
SAPA_PROFIL
 10
44.87439504323347
 20
-22.72439504323529
 30
0.0
  0
VERTEX
  5
2026
  8
SAPA_PROFIL
 10
44.500000000000483
 20
-22.3500000000023
 30
0.0
  0
VERTEX
  5
2027
  8
SAPA_PROFIL
 10
44.125604956763048
 20
-22.724395043233471
 30
0.0
 42
-0.5643553431119904
  0
VERTEX
  5
2028
  8
SAPA_PROFIL
 10
42.263373075366466
 20
-18.399999999999292
 30
0.0
  0
VERTEX
  5
2029
  8
SAPA_PROFIL
 10
42.60000000000047
 20
-18.399999999999292
 30
0.0
 42
0.4142135623730951
  0
VERTEX
  5
202A
  8
SAPA_PROFIL
 10
42.90000000000046
 20
-18.099999999999341
 30
0.0
  0
VERTEX
  5
202B
  8
SAPA_PROFIL
 10
42.90000000000046
 20
-17.599999999999341
 30
0.0
 42
0.4142135623730951
  0
VERTEX
  5
202C
  8
SAPA_PROFIL
 10
42.60000000000047
 20
-17.299999999999269
 30
0.0
  0
VERTEX
  5
202D
  8
SAPA_PROFIL
 10
40.500000000000483
 20
-17.299999999999269
 30
0.0
 42
0.4142135623730951
  0
VERTEX
  5
202E
  8
SAPA_PROFIL
 10
40.000000000000483
 20
-17.799999999999269
 30
0.0
  0
VERTEX
  5
202F
  8
SAPA_PROFIL
 10
40.000000000000483
 20
-21.69999999999925
 30
0.0
 42
-0.4142135623730951
  0
VERTEX
  5
2030
  8
SAPA_PROFIL
 10
39.000000000000483
 20
-22.69999999999925
 30
0.0
  0
VERTEX
  5
2031
  8
SAPA_PROFIL
 10
9.9999999999994316
 20
-22.69999999999925
 30
0.0
 42
-0.4142135623730951
  0
VERTEX
  5
2032
  8
SAPA_PROFIL
 10
8.9999999999994884
 20
-21.69999999999925
 30
0.0
  0
VERTEX
  5
2033
  8
SAPA_PROFIL
 10
8.9999999999994884
 20
-17.799999999999269
 30
0.0
 42
0.4142135623730951
  0
VERTEX
  5
2034
  8
SAPA_PROFIL
 10
8.4999999999994884
 20
-17.299999999999269
 30
0.0
  0
VERTEX
  5
2035
  8
SAPA_PROFIL
 10
6.3999999999994648
 20
-17.299999999999269
 30
0.0
 42
0.4142135623730951
  0
VERTEX
  5
2036
  8
SAPA_PROFIL
 10
6.0999999999994818
 20
-17.599999999999341
 30
0.0
  0
VERTEX
  5
2037
  8
SAPA_PROFIL
 10
6.0999999999994818
 20
-18.099999999999341
 30
0.0
 42
0.4142135623730389
  0
VERTEX
  5
2038
  8
SAPA_PROFIL
 10
6.3999999999994648
 20
-18.399999999999292
 30
0.0
  0
VERTEX
  5
2039
  8
SAPA_PROFIL
 10
6.736626924635174
 20
-18.399999999999629
 30
0.0
 42
-0.5643553431125485
  0
VERTEX
  5
203A
  8
SAPA_PROFIL
 10
4.8743950432324823
 20
-22.72439504323529
 30
0.0
  0
VERTEX
  5
203B
  8
SAPA_PROFIL
 10
4.4999999999994884
 20
-22.3500000000023
 30
0.0
  0
VERTEX
  5
203C
  8
SAPA_PROFIL
 10
4.1256049567630271
 20
-22.724395043233471
 30
0.0
 42
-0.5643553431119904
  0
VERTEX
  5
203D
  8
SAPA_PROFIL
 10
2.2633730753664731
 20
-18.399999999999292
 30
0.0
  0
VERTEX
  5
203E
  8
SAPA_PROFIL
 10
2.600000000000505
 20
-18.399999999999292
 30
0.0
 42
0.4142135623730592
  0
VERTEX
  5
203F
  8
SAPA_PROFIL
 10
2.90000000000046
 20
-18.099999999999341
 30
0.0
  0
VERTEX
  5
2040
  8
SAPA_PROFIL
 10
2.90000000000046
 20
-17.599999999999341
 30
0.0
 42
0.4142135623730951
  0
VERTEX
  5
2041
  8
SAPA_PROFIL
 10
2.600000000000477
 20
-17.299999999999269
 30
0.0
  0
VERTEX
  5
2042
  8
SAPA_PROFIL
 10
0.4999999999994884
 20
-17.299999999999269
 30
0.0
 42
0.4142135623730951
  0
VERTEX
  5
2043
  8
SAPA_PROFIL
 10
-0.0000000000005116
 20
-17.799999999999269
 30
0.0
  0
VERTEX
  5
2044
  8
SAPA_PROFIL
 10
-0.0000000000005116
 20
-21.69999999999925
 30
0.0
 42
-0.4142135623730951
  0
VERTEX
  5
2045
  8
SAPA_PROFIL
 10
-1.0000000000005109
 20
-22.69999999999925
 30
0.0
  0
VERTEX
  5
2046
  8
SAPA_PROFIL
 10
-19.816261616667472
 20
-22.700000000000269
 30
0.0
 42
-0.3394542588633853
  0
VERTEX
  5
2047
  8
SAPA_PROFIL
 10
-20.782187442956509
 20
-21.958819045103269
 30
0.0
  0
VERTEX
  5
2048
  8
SAPA_PROFIL
 10
-20.812444773245598
 20
-21.845897151161921
 30
0.0
 42
0.3708012337423849
  0
VERTEX
  5
2049
  8
SAPA_PROFIL
 10
-24.366666666666191
 20
-19.42043363300127
 30
0.0
 42
-0.4472135954999589
  0
VERTEX
  5
204A
  8
SAPA_PROFIL
 10
-24.699999999999541
 20
-19.122291236001271
 30
0.0
  0
VERTEX
  5
204B
  8
SAPA_PROFIL
 10
-24.699999999999541
 20
19.122291236001729
 30
0.0
 42
-0.4472135954999537
  0
VERTEX
  5
204C
  8
SAPA_PROFIL
 10
-24.366666666666191
 20
19.420433633001721
 30
0.0
 42
0.3708012337423849
  0
VERTEX
  5
204D
  8
SAPA_PROFIL
 10
-20.812444773245598
 20
21.845897151162379
 30
0.0
  0
VERTEX
  5
204E
  8
SAPA_PROFIL
 10
-20.782187442956509
 20
21.95881904510372
 30
0.0
 42
-0.3394542588633807
  0
VERTEX
  5
204F
  8
SAPA_PROFIL
 10
-19.816261616667472
 20
22.700000000000731
 30
0.0
  0
VERTEX
  5
2050
  8
SAPA_PROFIL
 10
-1.0000000000005109
 20
22.699999999999712
 30
0.0
 42
-0.4142135623730951
  0
VERTEX
  5
2051
  8
SAPA_PROFIL
 10
-0.0000000000005116
 20
21.699999999999712
 30
0.0
  0
VERTEX
  5
2052
  8
SAPA_PROFIL
 10
-0.0000000000005116
 20
17.79999999999972
 30
0.0
 42
0.4142135623730951
  0
VERTEX
  5
2053
  8
SAPA_PROFIL
 10
0.4999999999994884
 20
17.299999999999731
 30
0.0
  0
VERTEX
  5
2054
  8
SAPA_PROFIL
 10
2.600000000000477
 20
17.299999999999731
 30
0.0
 42
0.4142135623730951
  0
VERTEX
  5
2055
  8
SAPA_PROFIL
 10
2.90000000000046
 20
17.599999999999682
 30
0.0
  0
VERTEX
  5
2056
  8
SAPA_PROFIL
 10
2.90000000000046
 20
18.099999999999682
 30
0.0
 42
0.4142135623730951
  0
VERTEX
  5
2057
  8
SAPA_PROFIL
 10
2.600000000000477
 20
18.39999999999975
 30
0.0
  0
VERTEX
  5
2058
  8
SAPA_PROFIL
 10
2.2633730753664731
 20
18.39999999999975
 30
0.0
 42
-0.5643553431119905
  0
VERTEX
  5
2059
  8
SAPA_PROFIL
 10
4.1256049567629702
 20
22.72439504323393
 30
0.0
  0
VERTEX
  5
205A
  8
SAPA_PROFIL
 10
4.4999999999994884
 20
22.350000000002751
 30
0.0
  0
VERTEX
  5
205B
  8
SAPA_PROFIL
 10
4.8743950432324823
 20
22.724395043235749
 30
0.0
 42
-0.5643553431125659
  0
VERTEX
  5
205C
  8
SAPA_PROFIL
 10
6.736626924635118
 20
18.399999999999981
 30
0.0
  0
VERTEX
  5
205D
  8
SAPA_PROFIL
 10
6.3999999999994648
 20
18.39999999999975
 30
0.0
 42
0.4142135623730388
  0
VERTEX
  5
205E
  8
SAPA_PROFIL
 10
6.0999999999994818
 20
18.099999999999682
 30
0.0
  0
VERTEX
  5
205F
  8
SAPA_PROFIL
 10
6.0999999999994818
 20
17.599999999999682
 30
0.0
 42
0.4142135623731053
  0
VERTEX
  5
2060
  8
SAPA_PROFIL
 10
6.3999999999994648
 20
17.299999999999731
 30
0.0
  0
VERTEX
  5
2061
  8
SAPA_PROFIL
 10
8.4999999999994884
 20
17.299999999999731
 30
0.0
 42
0.4142135623730951
  0
VERTEX
  5
2062
  8
SAPA_PROFIL
 10
8.9999999999994884
 20
17.79999999999972
 30
0.0
  0
VERTEX
  5
2063
  8
SAPA_PROFIL
 10
8.9999999999994884
 20
21.699999999999712
 30
0.0
 42
-0.4142135623730951
  0
VERTEX
  5
2064
  8
SAPA_PROFIL
 10
9.9999999999994884
 20
22.699999999999712
 30
0.0
  0
VERTEX
  5
2065
  8
SAPA_PROFIL
 10
39.000000000000483
 20
22.699999999999712
 30
0.0
 42
-0.4142135623730951
  0
VERTEX
  5
2066
  8
SAPA_PROFIL
 10
40.000000000000483
 20
21.699999999999712
 30
0.0
  0
VERTEX
  5
2067
  8
SAPA_PROFIL
 10
40.000000000000483
 20
17.79999999999972
 30
0.0
 42
0.4142135623730951
  0
VERTEX
  5
2068
  8
SAPA_PROFIL
 10
40.500000000000483
 20
17.299999999999731
 30
0.0
  0
VERTEX
  5
2069
  8
SAPA_PROFIL
 10
42.60000000000047
 20
17.299999999999731
 30
0.0
 42
0.4142135623730951
  0
VERTEX
  5
206A
  8
SAPA_PROFIL
 10
42.90000000000046
 20
17.599999999999682
 30
0.0
  0
VERTEX
  5
206B
  8
SAPA_PROFIL
 10
42.90000000000046
 20
18.099999999999682
 30
0.0
 42
0.4142135623730951
  0
VERTEX
  5
206C
  8
SAPA_PROFIL
 10
42.60000000000047
 20
18.39999999999975
 30
0.0
  0
VERTEX
  5
206D
  8
SAPA_PROFIL
 10
42.263373075366466
 20
18.39999999999975
 30
0.0
 42
-0.5643553431119849
  0
VERTEX
  5
206E
  8
SAPA_PROFIL
 10
44.125604956763958
 20
22.72439504323393
 30
0.0
  0
VERTEX
  5
206F
  8
SAPA_PROFIL
 10
44.500000000000483
 20
22.350000000002751
 30
0.0
  0
VERTEX
  5
2070
  8
SAPA_PROFIL
 10
44.87439504323347
 20
22.724395043235749
 30
0.0
 42
-0.5643553431125659
  0
VERTEX
  5
2071
  8
SAPA_PROFIL
 10
46.736626924636141
 20
18.399999999999981
 30
0.0
  0
VERTEX
  5
2072
  8
SAPA_PROFIL
 10
46.400000000000453
 20
18.39999999999975
 30
0.0
 42
0.414213562372998
  0
VERTEX
  5
2073
  8
SAPA_PROFIL
 10
46.100000000000477
 20
18.099999999999682
 30
0.0
  0
VERTEX
  5
2074
  8
SAPA_PROFIL
 10
46.100000000000477
 20
17.599999999999682
 30
0.0
 42
0.4142135623731053
  0
VERTEX
  5
2075
  8
SAPA_PROFIL
 10
46.400000000000453
 20
17.299999999999731
 30
0.0
  0
VERTEX
  5
2076
  8
SAPA_PROFIL
 10
48.500000000000483
 20
17.299999999999731
 30
0.0
 42
0.4142135623730951
  0
VERTEX
  5
2077
  8
SAPA_PROFIL
 10
49.000000000000512
 20
17.79999999999972
 30
0.0
  0
VERTEX
  5
2078
  8
SAPA_PROFIL
 10
49.000000000000512
 20
21.699999999999712
 30
0.0
 42
-0.4142135623730951
  0
VERTEX
  5
2079
  8
SAPA_PROFIL
 10
50.000000000000512
 20
22.699999999999712
 30
0.0
  0
SEQEND
  5
207A
  8
SAPA_PROFIL
  0
ARC
  5
FFD
  8
SAPA_GLAS
 10
-57.499999999997449
 20
-8.4769330888607701
 30
0.0
 40
21.455789953948951
 50
65.199046227935725
 51
114.8009537720615
  0
LINE
  5
FFE
  8
SAPA_GLAS
 10
-49.999999999996028
 20
15.99999999999978
 30
0.0
 11
-64.999999999998636
 21
15.99999999999978
 31
0.0
  0
ARC
  5
FFF
  8
SAPA_GLAS
 10
-49.999999999996028
 20
16.49999999999978
 30
0.0
 40
0.5
 50
270.0
 51
0.0
  0
LINE
  5
1000
  8
SAPA_GLAS
 10
-49.499999999996028
 20
19.49999999999978
 30
0.0
 11
-49.499999999996042
 21
16.49999999999978
 31
0.0
  0
ARC
  5
1001
  8
SAPA_GLAS
 10
-49.999999999996021
 20
19.49999999999978
 30
0.0
 40
0.5
 50
0.0
 51
89.999999999999986
  0
LINE
  5
1002
  8
SAPA_GLAS
 10
-64.999999999998636
 20
19.99999999999978
 30
0.0
 11
-49.999999999996021
 21
19.99999999999978
 31
0.0
  0
ARC
  5
1003
  8
SAPA_GLAS
 10
-64.999999999998636
 20
19.49999999999978
 30
0.0
 40
0.5
 50
89.999999999999986
 51
180.0
  0
LINE
  5
1004
  8
SAPA_GLAS
 10
-65.49999999999865
 20
16.49999999999978
 30
0.0
 11
-65.49999999999865
 21
19.49999999999978
 31
0.0
  0
ARC
  5
1005
  8
SAPA_GLAS
 10
-64.999999999998636
 20
16.49999999999978
 30
0.0
 40
0.5
 50
180.0
 51
270.0
  0
LINE
  5
1006
  8
SAPA_GLAS
 10
-49.499999999996028
 20
24.49999999999978
 30
0.0
 11
-49.499999999996028
 21
21.49999999999979
 31
0.0
  0
ARC
  5
1007
  8
SAPA_GLAS
 10
-49.999999999996021
 20
24.49999999999978
 30
0.0
 40
0.5
 50
0.0
 51
89.999999999999986
  0
LINE
  5
1008
  8
SAPA_GLAS
 10
-64.999999999998636
 20
24.99999999999979
 30
0.0
 11
-49.999999999996021
 21
24.99999999999979
 31
0.0
  0
ARC
  5
1009
  8
SAPA_GLAS
 10
-64.999999999998636
 20
24.49999999999978
 30
0.0
 40
0.5
 50
89.999999999999986
 51
180.0
  0
LINE
  5
100A
  8
SAPA_GLAS
 10
-65.49999999999865
 20
21.49999999999979
 30
0.0
 11
-65.49999999999865
 21
24.49999999999978
 31
0.0
  0
ARC
  5
100B
  8
SAPA_GLAS
 10
-64.999999999998636
 20
21.49999999999979
 30
0.0
 40
0.5
 50
180.0
 51
270.0
  0
LINE
  5
100C
  8
SAPA_GLAS
 10
-49.999999999996021
 20
20.99999999999978
 30
0.0
 11
-64.999999999998636
 21
20.99999999999978
 31
0.0
  0
ARC
  5
100D
  8
SAPA_GLAS
 10
-49.999999999996021
 20
21.49999999999979
 30
0.0
 40
0.5
 50
270.0
 51
0.0
  0
LINE
  5
100E
  8
SAPA_GLAS
 10
-48.499999999996028
 20
10.99999999999978
 30
0.0
 11
-45.499999999996028
 21
10.99999999999978
 31
0.0
  0
LINE
  5
100F
  8
SAPA_GLAS
 10
-72.499999999998636
 20
10.99999999999978
 30
0.0
 11
-66.49999999999865
 21
10.99999999999978
 31
0.0
  0
LINE
  5
1010
  8
SAPA_GLAS
 10
-66.49999999999865
 20
14.99999999999978
 30
0.0
 11
-48.499999999996028
 21
14.99999999999978
 31
0.0
1001
ACAD
1000
ASC_BOUNDS
1002
{
1070
    19
1005
0
1002
}
  0
LINE
  5
1011
  8
SAPA_GLAS
 10
-66.49999999999865
 20
25.99999999999978
 30
0.0
 11
-48.499999999996021
 21
25.99999999999979
 31
0.0
  0
LINE
  5
1012
  8
SAPA_GLAS
 10
-66.49999999999865
 20
25.99999999999978
 30
0.0
 11
-48.499999999996021
 21
25.99999999999979
 31
0.0
1001
ACAD
1000
ASC_BOUNDS
1002
{
1070
    19
1005
0
1002
}
  0
LINE
  5
1013
  8
SAPA_GLAS
 10
-45.499999999996028
 20
10.99999999999978
 30
0.0
 11
-45.499999999996938
 21
50.99999999999978
 31
0.0
  0
LINE
  5
1014
  8
SAPA_GLAS
 10
-72.499999999998636
 20
10.99999999999978
 30
0.0
 11
-72.499999999998636
 21
50.999999999999787
 31
0.0
  0
LINE
  5
1015
  8
SAPA_GLAS
 10
-48.499999999996028
 20
10.99999999999978
 30
0.0
 11
-48.499999999996028
 21
50.99999999999978
 31
0.0
1001
ACAD
1000
ASC_BOUNDS
1002
{
1070
    19
1005
0
1005
0
1002
}
  0
LINE
  5
1016
  8
SAPA_GLAS
 10
-66.49999999999865
 20
10.99999999999978
 30
0.0
 11
-66.499999999998636
 21
50.999999999999787
 31
0.0
1001
ACAD
1000
ASC_BOUNDS
1002
{
1070
    19
1005
0
1005
0
1002
}
  0
POLYLINE
  5
1017
  8
SAPA_GLAS
 66
     1
 10
0.0
 20
0.0
 30
0.0
  0
VERTEX
  5
209A
  8
SAPA_GLAS
 10
100.6009396980177
 20
-89.800000000000026
 30
0.0
  0
VERTEX
  5
209B
  8
SAPA_GLAS
 10
100.6009396980177
 20
-61.000000000000249
 30
0.0
  0
VERTEX
  5
209C
  8
SAPA_GLAS
 10
106.6009396980178
 20
-61.000000000000249
 30
0.0
  0
VERTEX
  5
209D
  8
SAPA_GLAS
 10
106.6009396980175
 20
-89.800000000000026
 30
0.0
  0
SEQEND
  5
209E
  8
SAPA_GLAS
  0
POLYLINE
  5
1018
  8
SAPA_GLAS
 66
     1
 10
0.0
 20
0.0
 30
0.0
 70
     1
  0
VERTEX
  5
209F
  8
SAPA_GLAS
 10
88.600939698017797
 20
-71.000000000000355
 30
0.0
  0
VERTEX
  5
20A0
  8
SAPA_GLAS
 10
100.6009396980177
 20
-71.000000000000355
 30
0.0
  0
VERTEX
  5
20A1
  8
SAPA_GLAS
 10
100.6009396980177
 20
-61.000000000000249
 30
0.0
  0
VERTEX
  5
20A2
  8
SAPA_GLAS
 10
88.600939698017797
 20
-61.000000000000249
 30
0.0
  0
SEQEND
  5
20A3
  8
SAPA_GLAS
  0
POLYLINE
  5
1019
  8
SAPA_GLAS
 66
     1
 10
0.0
 20
0.0
 30
0.0
  0
VERTEX
  5
20A4
  8
SAPA_GLAS
 10
82.600939698017768
 20
-89.800000000000026
 30
0.0
  0
VERTEX
  5
20A5
  8
SAPA_GLAS
 10
82.600939698017768
 20
-61.000000000000242
 30
0.0
  0
VERTEX
  5
20A6
  8
SAPA_GLAS
 10
88.600939698017797
 20
-61.000000000000249
 30
0.0
  0
VERTEX
  5
20A7
  8
SAPA_GLAS
 10
88.600939698017797
 20
-89.800000000000026
 30
0.0
  0
SEQEND
  5
20A8
  8
SAPA_GLAS
  0
INSERT
  5
101F
  8
SAPA_FYLLNING
  6
CONTINUOUS
  2
*X118
 10
0.0
 20
0.0
 30
0.0
1001
ACAD
1000
HATCH
1002
{
1070
    19
1000
ANSI37
1040
1.0
1040
0.0
1000
R14_HATCH_DATA
1000
101F
1011
1.0
1021
0.0
1031
0.0
1021
0.0
1031
0.0
1011
0.0
1021
0.0
1031
0.0
1021
1.0
1031
0.0
1011
0.0
1021
0.0
1031
0.0
1021
0.0
1031
1.0
1040
0.0
1010
0.0
1020
0.0
1030
1.0
1000
ANSI37
1070
     0
1070
     0
1071
        1
1071
        7
1070
     1
1070
     1
1071
       17
1040
65.279240471514925
1040
-35.000000000000369
1040
0.4142135623730951
1040
66.279240471514925
1040
-34.000000000000369
1040
0.0
1040
66.279240471514925
1040
-24.499999999999801
1040
0.0
1040
64.200939698018033
1040
-24.499999999999801
1040
0.0
1040
64.200939698018033
1040
-24.9999999999993
1040
0.0
1040
62.000000000000462
1040
-24.999999999999321
1040
0.0
1040
-22.118242580604541
1040
-25.000000000000231
1040
-0.3394542588633758
1040
-22.408020328490519
1040
-24.777645713531228
1040
0.0
1040
-23.034074173710451
1040
-22.441180954897732
1040
0.8769764629927488
1040
-24.99999999999952
1040
-22.700000000000269
1040
0.0
1040
-24.99999999999952
1040
-22.712613464860279
1040
-0.4040262258351519
1040
-26.93020100659453
1040
-24.711395118898281
1040
0.0
1040
-35.189530150987771
1040
-24.999817248106979
1040
-0.1516904891564101
1040
-35.361198159471449
1040
-24.95301216054407
1040
0.0
1040
-70.499999999998636
1040
-24.953012160544059
1040
0.0
1040
-70.499999999998636
1040
-34.000000000000341
1040
0.4142135623730951
1040
-69.499999999998636
1040
-35.000000000000341
1040
0.0
1071
        0
1070
     0
1070
     1
1040
0.0
1040
1.0
1070
     0
1070
     2
1040
0.7853981633974483
1040
0.0
1040
0.0
1040
-2.2450640302672871
1040
2.245064030267288
1070
     0
1040
2.3561944901923439
1040
0.0
1040
0.0
1040
-2.245064030267288
1040
-2.2450640302672871
1070
     0
1040
0.3204928582683315
1071
        1
1040
-18.785660924963171
1040
-30.304705218337858
1040
0.0
1002
}
  0
POLYLINE
  5
1042
  8
SAPA_FOGBAND
 66
     1
 10
0.0
 20
0.0
 30
0.0
 70
     1
  0
VERTEX
  5
221C
  8
SAPA_FOGBAND
 10
-33.499999999998863
 20
19.57367566877679
 30
0.0
  0
VERTEX
  5
221D
  8
SAPA_FOGBAND
 10
-35.29999999999859
 20
19.57367566877679
 30
0.0
 42
-0.4142135623730951
  0
VERTEX
  5
221E
  8
SAPA_FOGBAND
 10
-35.499999999998401
 20
19.773675668776612
 30
0.0
  0
VERTEX
  5
221F
  8
SAPA_FOGBAND
 10
-35.499999999998401
 20
20.673675668776252
 30
0.0
 42
-0.4142135623730951
  0
VERTEX
  5
2220
  8
SAPA_FOGBAND
 10
-35.29999999999859
 20
20.87367566877607
 30
0.0
  0
VERTEX
  5
2221
  8
SAPA_FOGBAND
 10
-33.499999999998863
 20
20.873675668776521
 30
0.0
 42
-0.9999999999999998
  0
SEQEND
  5
2222
  8
SAPA_FOGBAND
  0
CIRCLE
  5
1043
  8
SAPA_FOGBAND
 10
-36.799999999998583
 20
20.22367566877643
 30
0.0
 40
0.2549509756796394
  0
POLYLINE
  5
1044
  8
SAPA_FOGBAND
 66
     1
 10
0.0
 20
0.0
 30
0.0
 70
     1
  0
VERTEX
  5
2223
  8
SAPA_FOGBAND
 10
-35.499999999998408
 20
16.270085830290789
 30
0.0
 42
0.267949192431121
  0
VERTEX
  5
2224
  8
SAPA_FOGBAND
 10
-35.399999999998961
 20
16.09688074953306
 30
0.0
 42
-0.7673269879789569
  0
VERTEX
  5
2225
  8
SAPA_FOGBAND
 10
-35.499999999998408
 20
15.723675668776879
 30
0.0
  0
VERTEX
  5
2226
  8
SAPA_FOGBAND
 10
-44.69999999999915
 20
15.723675668776879
 30
0.0
 42
-0.4602937089574736
  0
VERTEX
  5
2227
  8
SAPA_FOGBAND
 10
-44.897610691435837
 20
15.95449797611696
 30
0.0
  0
VERTEX
  5
2228
  8
SAPA_FOGBAND
 10
-44.511746230889237
 20
18.428386189851391
 30
0.0
 42
0.6910703998708235
  0
VERTEX
  5
2229
  8
SAPA_FOGBAND
 10
-44.837173697181477
 20
18.613035907186489
 30
0.0
  0
VERTEX
  5
222A
  8
SAPA_FOGBAND
 10
-45.008963529986673
 20
15.83629773875351
 30
0.0
 42
-0.928378177954751
  0
VERTEX
  5
222B
  8
SAPA_FOGBAND
 10
-45.424442128142132
 20
16.266874786287421
 30
0.0
  0
VERTEX
  5
222C
  8
SAPA_FOGBAND
 10
-45.22854255902417
 20
19.476099419057618
 30
0.0
 42
0.6076316918600427
  0
VERTEX
  5
222D
  8
SAPA_FOGBAND
 10
-45.323096729691088
 20
19.725013792520489
 30
0.0
 42
-0.38070580105552
  0
VERTEX
  5
222E
  8
SAPA_FOGBAND
 10
-45.499999999998408
 20
19.923675668776252
 30
0.0
  0
VERTEX
  5
222F
  8
SAPA_FOGBAND
 10
-45.499999999998408
 20
20.22367566877643
 30
0.0
  0
VERTEX
  5
2230
  8
SAPA_FOGBAND
 10
-45.499999999998408
 20
20.523675668776612
 30
0.0
 42
-0.3807058010555201
  0
VERTEX
  5
2231
  8
SAPA_FOGBAND
 10
-45.323096729691088
 20
20.722337545032371
 30
0.0
 42
0.6076316918600374
  0
VERTEX
  5
2232
  8
SAPA_FOGBAND
 10
-45.22854255902417
 20
20.971251918495231
 30
0.0
  0
VERTEX
  5
2233
  8
SAPA_FOGBAND
 10
-45.421865476482942
 20
24.205028688483029
 30
0.0
 42
-0.9283781779547513
  0
VERTEX
  5
2234
  8
SAPA_FOGBAND
 10
-45.006386878327483
 20
24.6356057360174
 30
0.0
  0
VERTEX
  5
2235
  8
SAPA_FOGBAND
 10
-44.837173697181477
 20
21.834315430366821
 30
0.0
 42
0.6910703998708235
  0
VERTEX
  5
2236
  8
SAPA_FOGBAND
 10
-44.511746230890147
 20
22.018965147702382
 30
0.0
  0
VERTEX
  5
2237
  8
SAPA_FOGBAND
 10
-44.89761069143583
 20
24.49285336143635
 30
0.0
 42
-0.4602937089574736
  0
VERTEX
  5
2238
  8
SAPA_FOGBAND
 10
-44.699999999999143
 20
24.72367566877643
 30
0.0
  0
VERTEX
  5
2239
  8
SAPA_FOGBAND
 10
-35.499999999998401
 20
24.72367566877643
 30
0.0
 42
-0.7673269879789572
  0
VERTEX
  5
223A
  8
SAPA_FOGBAND
 10
-35.399999999998947
 20
24.3504705880198
 30
0.0
 42
0.267949192431121
  0
VERTEX
  5
223B
  8
SAPA_FOGBAND
 10
-35.499999999998401
 20
24.17726550726298
 30
0.0
  0
VERTEX
  5
223C
  8
SAPA_FOGBAND
 10
-35.499999999998401
 20
21.673675668776252
 30
0.0
  0
VERTEX
  5
223D
  8
SAPA_FOGBAND
 10
-34.399999999998947
 20
21.673675668776252
 30
0.0
  0
VERTEX
  5
223E
  8
SAPA_FOGBAND
 10
-34.291388579558081
 20
22.181730915002628
 30
0.0
 42
-0.4364998583843341
  0
VERTEX
  5
223F
  8
SAPA_FOGBAND
 10
-34.027676570637823
 20
22.310141004872779
 30
0.0
  0
VERTEX
  5
2240
  8
SAPA_FOGBAND
 10
-32.638382853194571
 20
21.77128221139106
 30
0.0
 42
-0.3095538907669666
  0
VERTEX
  5
2241
  8
SAPA_FOGBAND
 10
-31.999999999998408
 20
20.83895553090975
 30
0.0
  0
VERTEX
  5
2242
  8
SAPA_FOGBAND
 10
-31.99999999999886
 20
19.608395806643109
 30
0.0
 42
-0.3095538907669666
  0
VERTEX
  5
2243
  8
SAPA_FOGBAND
 10
-32.638382853194571
 20
18.676069126161799
 30
0.0
  0
VERTEX
  5
2244
  8
SAPA_FOGBAND
 10
-34.027676570638278
 20
18.137210332680532
 30
0.0
 42
-0.4364998583843338
  0
VERTEX
  5
2245
  8
SAPA_FOGBAND
 10
-34.291388579558088
 20
18.26562042255069
 30
0.0
  0
VERTEX
  5
2246
  8
SAPA_FOGBAND
 10
-34.399999999998961
 20
18.773675668776381
 30
0.0
  0
VERTEX
  5
2247
  8
SAPA_FOGBAND
 10
-35.499999999998408
 20
18.773675668776381
 30
0.0
  0
SEQEND
  5
2248
  8
SAPA_FOGBAND
  0
POLYLINE
  5
1045
  8
SAPA_FOGBAND
 66
     1
 10
0.0
 20
0.0
 30
0.0
 70
     1
  0
VERTEX
  5
2249
  8
SAPA_FOGBAND
 10
-37.99999999999843
 20
18.72367566877643
 30
0.0
 42
-0.3533664767746626
  0
VERTEX
  5
224A
  8
SAPA_FOGBAND
 10
-38.39473684210386
 20
18.23488157348698
 30
0.0
 42
-0.162847186097109
  0
VERTEX
  5
224B
  8
SAPA_FOGBAND
 10
-41.833847743324682
 20
18.286918832692439
 30
0.0
 42
-0.2572150309758587
  0
VERTEX
  5
224C
  8
SAPA_FOGBAND
 10
-42.190466027633889
 20
18.611937220160382
 30
0.0
 42
-0.1655934221057593
  0
VERTEX
  5
224D
  8
SAPA_FOGBAND
 10
-42.190466027633882
 20
21.835414117393391
 30
0.0
 42
-0.2572150309758567
  0
VERTEX
  5
224E
  8
SAPA_FOGBAND
 10
-41.833847743324668
 20
22.160432504860871
 30
0.0
 42
-0.1628471860971115
  0
VERTEX
  5
224F
  8
SAPA_FOGBAND
 10
-38.394736842103853
 20
22.212469764066341
 30
0.0
 42
-0.3533664767746627
  0
VERTEX
  5
2250
  8
SAPA_FOGBAND
 10
-37.999999999998423
 20
21.72367566877643
 30
0.0
  0
SEQEND
  5
2251
  8
SAPA_FOGBAND
  0
POLYLINE
  5
1046
  8
SAPA_FOGBAND
 66
     1
 10
0.0
 20
0.0
 30
0.0
 70
     1
  0
VERTEX
  5
2252
  8
SAPA_FOGBAND
 10
112.70469171079679
 20
-67.497490090368174
 30
0.0
  0
VERTEX
  5
2253
  8
SAPA_FOGBAND
 10
112.70469171079679
 20
-68.697490090368234
 30
0.0
 42
0.4142135623730951
  0
VERTEX
  5
2254
  8
SAPA_FOGBAND
 10
113.00469171079681
 20
-68.997490090368188
 30
0.0
  0
VERTEX
  5
2255
  8
SAPA_FOGBAND
 10
113.9046917107969
 20
-68.997490090368188
 30
0.0
  0
VERTEX
  5
2256
  8
SAPA_FOGBAND
 10
113.9046917107969
 20
-68.647490090368052
 30
0.0
 42
-0.6681786379192988
  0
VERTEX
  5
2257
  8
SAPA_FOGBAND
 10
114.4168237451526
 20
-68.43535805601212
 30
0.0
  0
VERTEX
  5
2258
  8
SAPA_FOGBAND
 10
115.270377135746
 20
-69.28891144660534
 30
0.0
 42
-0.1989123673796552
  0
VERTEX
  5
2259
  8
SAPA_FOGBAND
 10
115.50469171079681
 20
-69.854596871554719
 30
0.0
  0
VERTEX
  5
225A
  8
SAPA_FOGBAND
 10
115.50469171079681
 20
-70.01729199397451
 30
0.0
 42
-0.3394542588633746
  0
VERTEX
  5
225B
  8
SAPA_FOGBAND
 10
115.28233742432759
 20
-70.307069741861284
 30
0.0
  0
VERTEX
  5
225C
  8
SAPA_FOGBAND
 10
113.92704599726611
 20
-70.670218985251182
 30
0.0
 42
0.3394542588633746
  0
VERTEX
  5
225D
  8
SAPA_FOGBAND
 10
113.70469171079679
 20
-70.959996733137956
 30
0.0
  0
VERTEX
  5
225E
  8
SAPA_FOGBAND
 10
113.70469171079679
 20
-73.534983447598421
 30
0.0
 42
0.3394542588633746
  0
VERTEX
  5
225F
  8
SAPA_FOGBAND
 10
113.92704599726611
 20
-73.824761195485195
 30
0.0
  0
VERTEX
  5
2260
  8
SAPA_FOGBAND
 10
115.28233742432759
 20
-74.187910438875093
 30
0.0
 42
-0.3394542588633744
  0
VERTEX
  5
2261
  8
SAPA_FOGBAND
 10
115.50469171079681
 20
-74.477688186761867
 30
0.0
  0
VERTEX
  5
2262
  8
SAPA_FOGBAND
 10
115.50469171079681
 20
-74.640383309181658
 30
0.0
 42
-0.1989123673796526
  0
VERTEX
  5
2263
  8
SAPA_FOGBAND
 10
115.270377135746
 20
-75.20606873413081
 30
0.0
  0
VERTEX
  5
2264
  8
SAPA_FOGBAND
 10
114.4168237451526
 20
-76.059622124724143
 30
0.0
 42
-0.6681786379193474
  0
VERTEX
  5
2265
  8
SAPA_FOGBAND
 10
113.9046917107969
 20
-75.847490090368325
 30
0.0
  0
VERTEX
  5
2266
  8
SAPA_FOGBAND
 10
113.9046917107969
 20
-75.497490090368188
 30
0.0
  0
VERTEX
  5
2267
  8
SAPA_FOGBAND
 10
113.00469171079681
 20
-75.497490090368188
 30
0.0
 42
0.4142135623730951
  0
VERTEX
  5
2268
  8
SAPA_FOGBAND
 10
112.70469171079679
 20
-75.797490090368143
 30
0.0
  0
VERTEX
  5
2269
  8
SAPA_FOGBAND
 10
112.70469171079679
 20
-77.897490090368279
 30
0.0
 42
0.4142135623730951
  0
VERTEX
  5
226A
  8
SAPA_FOGBAND
 10
113.00469171079681
 20
-78.197490090368234
 30
0.0
  0
VERTEX
  5
226B
  8
SAPA_FOGBAND
 10
114.4046917107969
 20
-78.197490090368234
 30
0.0
 42
-0.7754026414786132
  0
VERTEX
  5
226C
  8
SAPA_FOGBAND
 10
114.5493995791028
 20
-78.760282085775913
 30
0.0
 42
0.1137347954614569
  0
VERTEX
  5
226D
  8
SAPA_FOGBAND
 10
107.072911820778
 20
-82.91033024436652
 30
0.0
 42
-0.8680589103334746
  0
VERTEX
  5
226E
  8
SAPA_FOGBAND
 10
106.7160719181163
 20
-82.435406214602963
 30
0.0
  0
VERTEX
  5
226F
  8
SAPA_FOGBAND
 10
109.092277607448
 20
-78.465370817451145
 30
0.0
 42
0.1989123673796536
  0
VERTEX
  5
2270
  8
SAPA_FOGBAND
 10
109.3851708262614
 20
-77.758264036264706
 30
0.0
  0
VERTEX
  5
2271
  8
SAPA_FOGBAND
 10
109.3851708262614
 20
-74.924945071844974
 30
0.0
 42
0.577350269189628
  0
VERTEX
  5
2272
  8
SAPA_FOGBAND
 10
108.9351708262616
 20
-74.665137450709523
 30
0.0
  0
VERTEX
  5
2273
  8
SAPA_FOGBAND
 10
107.0820113547192
 20
-76.803266147121263
 30
0.0
 42
-0.8769764629927301
  0
VERTEX
  5
2274
  8
SAPA_FOGBAND
 10
106.71987932036311
 20
-76.331326491629994
 30
0.0
  0
VERTEX
  5
2275
  8
SAPA_FOGBAND
 10
109.092277607448
 20
-72.365098496725324
 30
0.0
 42
0.198912367379658
  0
VERTEX
  5
2276
  8
SAPA_FOGBAND
 10
109.3851708262614
 20
-71.65799171553877
 30
0.0
  0
VERTEX
  5
2277
  8
SAPA_FOGBAND
 10
109.3851708262614
 20
-69.425717353317083
 30
0.0
 42
0.5773502691896441
  0
VERTEX
  5
2278
  8
SAPA_FOGBAND
 10
108.9351708262616
 20
-69.165909732181859
 30
0.0
  0
VERTEX
  5
2279
  8
SAPA_FOGBAND
 10
107.0828801078996
 20
-71.303536853711108
 30
0.0
 42
-0.87697646299276
  0
VERTEX
  5
227A
  8
SAPA_FOGBAND
 10
106.7207480735435
 20
-70.831597198219839
 30
0.0
  0
VERTEX
  5
227B
  8
SAPA_FOGBAND
 10
109.1681322547617
 20
-66.790383309181635
 30
0.0
 42
-0.198912367379658
  0
VERTEX
  5
227C
  8
SAPA_FOGBAND
 10
109.8752390359482
 20
-66.497490090368188
 30
0.0
  0
VERTEX
  5
227D
  8
SAPA_FOGBAND
 10
111.70469171079679
 20
-66.497490090368188
 30
0.0
  0
VERTEX
  5
227E
  8
SAPA_FOGBAND
 10
111.69475992048361
 20
-66.497490090368188
 30
0.0
  0
SEQEND
  5
227F
  8
SAPA_FOGBAND
  0
POLYLINE
  5
1047
  8
SAPA_FOGBAND
 66
     1
 10
0.0
 20
0.0
 30
0.0
 70
     1
  0
VERTEX
  5
2280
  8
SAPA_FOGBAND
 10
79.623552710782633
 20
-66.437172509477037
 30
0.0
 42
0.4142135623730951
  0
VERTEX
  5
2281
  8
SAPA_FOGBAND
 10
78.623552710782633
 20
-67.437172509477037
 30
0.0
  0
VERTEX
  5
2282
  8
SAPA_FOGBAND
 10
78.623552710782633
 20
-68.637172509477082
 30
0.0
 42
-0.4142135623730951
  0
VERTEX
  5
2283
  8
SAPA_FOGBAND
 10
78.323552710782678
 20
-68.937172509477037
 30
0.0
  0
VERTEX
  5
2284
  8
SAPA_FOGBAND
 10
77.423552710782587
 20
-68.937172509477037
 30
0.0
  0
VERTEX
  5
2285
  8
SAPA_FOGBAND
 10
77.423552710782587
 20
-68.5871725094769
 30
0.0
 42
0.6681786379193472
  0
VERTEX
  5
2286
  8
SAPA_FOGBAND
 10
76.911420676426573
 20
-68.375040475121082
 30
0.0
  0
VERTEX
  5
2287
  8
SAPA_FOGBAND
 10
76.057867285833254
 20
-69.228593865714302
 30
0.0
 42
0.1989123673796526
  0
VERTEX
  5
2288
  8
SAPA_FOGBAND
 10
75.823552710782678
 20
-69.794279290663567
 30
0.0
  0
VERTEX
  5
2289
  8
SAPA_FOGBAND
 10
75.823552710782678
 20
-69.956974413083358
 30
0.0
 42
0.3394542588633746
  0
VERTEX
  5
228A
  8
SAPA_FOGBAND
 10
76.045906997251905
 20
-70.246752160970132
 30
0.0
  0
VERTEX
  5
228B
  8
SAPA_FOGBAND
 10
77.401198424313407
 20
-70.609901404360031
 30
0.0
 42
-0.3394542588633744
  0
VERTEX
  5
228C
  8
SAPA_FOGBAND
 10
77.623552710782633
 20
-70.899679152246804
 30
0.0
  0
VERTEX
  5
228D
  8
SAPA_FOGBAND
 10
77.623552710782633
 20
-73.474665866707255
 30
0.0
 42
-0.3394542588633746
  0
VERTEX
  5
228E
  8
SAPA_FOGBAND
 10
77.401198424313407
 20
-73.764443614594043
 30
0.0
  0
VERTEX
  5
228F
  8
SAPA_FOGBAND
 10
76.045906997251905
 20
-74.127592857983942
 30
0.0
 42
0.3394542588633747
  0
VERTEX
  5
2290
  8
SAPA_FOGBAND
 10
75.823552710782678
 20
-74.417370605870715
 30
0.0
  0
VERTEX
  5
2291
  8
SAPA_FOGBAND
 10
75.823552710782678
 20
-74.580065728290506
 30
0.0
 42
0.1989123673796526
  0
VERTEX
  5
2292
  8
SAPA_FOGBAND
 10
76.057867285833254
 20
-75.145751153239885
 30
0.0
  0
VERTEX
  5
2293
  8
SAPA_FOGBAND
 10
76.911420676426573
 20
-75.999304543832991
 30
0.0
 42
0.6681786379193474
  0
VERTEX
  5
2294
  8
SAPA_FOGBAND
 10
77.423552710782587
 20
-75.787172509477173
 30
0.0
  0
VERTEX
  5
2295
  8
SAPA_FOGBAND
 10
77.423552710782587
 20
-75.437172509477037
 30
0.0
  0
VERTEX
  5
2296
  8
SAPA_FOGBAND
 10
78.323552710782678
 20
-75.437172509477037
 30
0.0
 42
-0.4142135623730951
  0
VERTEX
  5
2297
  8
SAPA_FOGBAND
 10
78.623552710782633
 20
-75.737172509476991
 30
0.0
  0
VERTEX
  5
2298
  8
SAPA_FOGBAND
 10
78.623552710782633
 20
-77.837172509477128
 30
0.0
 42
-0.4142135623730951
  0
VERTEX
  5
2299
  8
SAPA_FOGBAND
 10
78.323552710782678
 20
-78.137172509477082
 30
0.0
  0
VERTEX
  5
229A
  8
SAPA_FOGBAND
 10
76.923552710782587
 20
-78.137172509477082
 30
0.0
 42
0.7754026414785753
  0
VERTEX
  5
229B
  8
SAPA_FOGBAND
 10
76.778844842476701
 20
-78.699964504884761
 30
0.0
  0
VERTEX
  5
229C
  8
SAPA_FOGBAND
 10
82.161950615062551
 20
-82.219667015430119
 30
0.0
 42
0.8680589103334742
  0
VERTEX
  5
229D
  8
SAPA_FOGBAND
 10
82.518790517724256
 20
-81.744742985666576
 30
0.0
  0
VERTEX
  5
229E
  8
SAPA_FOGBAND
 10
80.416445929595966
 20
-78.405053236560221
 30
0.0
 42
-0.198912367379658
  0
VERTEX
  5
229F
  8
SAPA_FOGBAND
 10
80.123552710782633
 20
-77.697946455373554
 30
0.0
  0
VERTEX
  5
22A0
  8
SAPA_FOGBAND
 10
80.123552710782633
 20
-74.864627490953822
 30
0.0
 42
-0.5773502691896282
  0
VERTEX
  5
22A1
  8
SAPA_FOGBAND
 10
80.573552710782678
 20
-74.604819869818598
 30
0.0
  0
VERTEX
  5
22A2
  8
SAPA_FOGBAND
 10
82.152851081121298
 20
-76.112602918184862
 30
0.0
 42
0.8769764629927299
  0
VERTEX
  5
22A3
  8
SAPA_FOGBAND
 10
82.514983115477435
 20
-75.640663262693593
 30
0.0
  0
VERTEX
  5
22A4
  8
SAPA_FOGBAND
 10
80.416445929595966
 20
-72.304780915834286
 30
0.0
 42
-0.198912367379658
  0
VERTEX
  5
22A5
  8
SAPA_FOGBAND
 10
80.123552710782633
 20
-71.597674134647619
 30
0.0
  0
VERTEX
  5
22A6
  8
SAPA_FOGBAND
 10
80.123552710782633
 20
-69.365399772426045
 30
0.0
 42
-0.5773502691896282
  0
VERTEX
  5
22A7
  8
SAPA_FOGBAND
 10
80.573552710782678
 20
-69.105592151290708
 30
0.0
  0
VERTEX
  5
22A8
  8
SAPA_FOGBAND
 10
82.151982327940914
 20
-70.61287362477448
 30
0.0
 42
0.8769764629927299
  0
VERTEX
  5
22A9
  8
SAPA_FOGBAND
 10
82.51411436229705
 20
-70.140933969283211
 30
0.0
  0
VERTEX
  5
22AA
  8
SAPA_FOGBAND
 10
80.340591282282276
 20
-66.730065728290583
 30
0.0
 42
0.198912367379658
  0
VERTEX
  5
22AB
  8
SAPA_FOGBAND
 10
79.633484501095836
 20
-66.437172509477037
 30
0.0
  0
SEQEND
  5
22AC
  8
SAPA_FOGBAND
  0
LINE
  5
1048
  8
SAPA_FOGBAND
 10
66.7914072347683
 20
-7.2385548941587494
 30
0.0
 11
72.767451869675483
 21
-7.1932934510102324
 31
0.0
  0
LINE
  5
1049
  8
SAPA_FOGBAND
 10
66.7914072347683
 20
-7.4533450762107911
 30
0.0
 11
72.790436656732837
 21
-7.9286178197000492
 31
0.0
  0
LINE
  5
104A
  8
SAPA_FOGBAND
 10
66.791407234768329
 20
-7.7438364728218216
 30
0.0
 11
72.790436656732837
 21
-8.8937310536054337
 31
0.0
  0
LINE
  5
104B
  8
SAPA_FOGBAND
 10
66.7914072347683
 20
-6.9948861994771043
 30
0.0
 11
72.836406230847516
 21
-6.228180217104847
 31
0.0
  0
LINE
  5
104C
  8
SAPA_FOGBAND
 10
66.7914072347683
 20
-6.8221289084966186
 30
0.0
 11
72.859391017904855
 21
-5.4239191888503457
 31
0.0
  0
POLYLINE
  5
104D
  8
SAPA_FOGBAND
 66
     1
 10
0.0
 20
0.0
 30
0.0
 70
     1
  0
VERTEX
  5
22AD
  8
SAPA_FOGBAND
 10
66.584544151252302
 20
-4.9413625718976659
 30
0.0
  0
VERTEX
  5
22AE
  8
SAPA_FOGBAND
 10
66.791407234768329
 20
-4.9413625718976659
 30
0.0
  0
VERTEX
  5
22AF
  8
SAPA_FOGBAND
 10
66.791407234768329
 20
-9.5371398762090216
 30
0.0
  0
VERTEX
  5
22B0
  8
SAPA_FOGBAND
 10
66.584544151252302
 20
-9.5371398762090216
 30
0.0
  0
SEQEND
  5
22B1
  8
SAPA_FOGBAND
  0
LINE
  5
104E
  8
SAPA_FOGBAND
 10
-73.499999999998636
 20
-17.599999999999671
 30
0.0
 11
-72.499999999998636
 21
-17.599999999999671
 31
0.0
  0
CIRCLE
  5
104F
  8
SAPA_FOGBAND
 10
-75.057534635653383
 20
-7.999999999999531
 30
0.0
 40
0.25
  0
LINE
  5
1050
  8
SAPA_FOGBAND
 10
-72.499999999998636
 20
-15.099999999999669
 30
0.0
 11
-73.499999999998636
 21
-15.099999999999669
 31
0.0
  0
LINE
  5
1051
  8
SAPA_FOGBAND
 10
-72.499999999998636
 20
-10.099999999999669
 30
0.0
 11
-73.499999999998636
 21
-10.09999999999966
 31
0.0
  0
LINE
  5
1052
  8
SAPA_FOGBAND
 10
-72.999999999998636
 20
-10.09999999999966
 30
0.0
 11
-72.999999999998636
 21
-15.099999999999669
 31
0.0
  0
LINE
  5
1053
  8
SAPA_FOGBAND
 10
-72.499999999998636
 20
-2.5999999999996679
 30
0.0
 11
-73.499999999998636
 21
-2.5999999999996679
 31
0.0
  0
POLYLINE
  5
1054
  8
SAPA_FOGBAND
 66
     1
 10
0.0
 20
0.0
 30
0.0
 70
     1
  0
VERTEX
  5
22B2
  8
SAPA_FOGBAND
 10
-76.557534635653155
 20
-8.1500000000005315
 30
0.0
  0
VERTEX
  5
22B3
  8
SAPA_FOGBAND
 10
-78.357534635653792
 20
-8.1500000000000767
 30
0.0
 42
-0.9999999999999996
  0
VERTEX
  5
22B4
  8
SAPA_FOGBAND
 10
-78.357534635653792
 20
-6.8500000000005761
 30
0.0
  0
VERTEX
  5
22B5
  8
SAPA_FOGBAND
 10
-76.557534635653155
 20
-6.8500000000005761
 30
0.0
 42
-0.4142135623730951
  0
VERTEX
  5
22B6
  8
SAPA_FOGBAND
 10
-76.357534635653323
 20
-7.0500000000003951
 30
0.0
  0
VERTEX
  5
22B7
  8
SAPA_FOGBAND
 10
-76.357534635653323
 20
-7.9499999999995756
 30
0.0
 42
-0.4142135623730951
  0
SEQEND
  5
22B8
  8
SAPA_FOGBAND
  0
CIRCLE
  5
1055
  8
SAPA_FOGBAND
 10
-75.057534635653383
 20
7.9999999999995586
 30
0.0
 40
0.25
  0
POLYLINE
  5
1056
  8
SAPA_FOGBAND
 66
     1
 10
0.0
 20
0.0
 30
0.0
  0
VERTEX
  5
22B9
  8
SAPA_FOGBAND
 10
-76.357534635653323
 20
7.0500000000004226
 30
0.0
  0
VERTEX
  5
22BA
  8
SAPA_FOGBAND
 10
-76.35753463565311
 20
7.9499999999996041
 30
0.0
 42
0.4142135623730951
  0
VERTEX
  5
22BB
  8
SAPA_FOGBAND
 10
-76.557534635653155
 20
8.1500000000005581
 30
0.0
  0
VERTEX
  5
22BC
  8
SAPA_FOGBAND
 10
-78.357534635653792
 20
8.1500000000001052
 30
0.0
 42
0.9999999999999998
  0
VERTEX
  5
22BD
  8
SAPA_FOGBAND
 10
-78.357534635653792
 20
6.8499999999999233
 30
0.0
  0
VERTEX
  5
22BE
  8
SAPA_FOGBAND
 10
-76.557534635653155
 20
6.8500000000006054
 30
0.0
 42
0.4142135623730951
  0
VERTEX
  5
22BF
  8
SAPA_FOGBAND
 10
-76.357534635653323
 20
7.0500000000004226
 30
0.0
  0
VERTEX
  5
22C0
  8
SAPA_FOGBAND
 10
-76.357534635653323
 20
7.7999999999997414
 30
0.0
  0
SEQEND
  5
22C1
  8
SAPA_FOGBAND
  0
LINE
  5
1057
  8
SAPA_FOGBAND
 10
-72.499999999998636
 20
9.9000000000003308
 30
0.0
 11
-73.499999999998636
 21
9.9000000000003325
 31
0.0
  0
LINE
  5
1058
  8
SAPA_FOGBAND
 10
-72.499999999998636
 20
2.4000000000003312
 30
0.0
 11
-73.499999999998636
 21
2.4000000000003312
 31
0.0
  0
LINE
  5
1059
  8
SAPA_FOGBAND
 10
-72.499999999998636
 20
14.900000000000331
 30
0.0
 11
-73.499999999998636
 21
14.900000000000331
 31
0.0
  0
LINE
  5
105A
  8
SAPA_FOGBAND
 10
-72.499999999998636
 20
17.400000000000329
 30
0.0
 11
-73.499999999998636
 21
17.400000000000329
 31
0.0
  0
LINE
  5
105B
  8
SAPA_FOGBAND
 10
-72.999999999998636
 20
14.900000000000331
 30
0.0
 11
-72.999999999998636
 21
9.9000000000003325
 31
0.0
  0
LINE
  5
105C
  8
SAPA_FOGBAND
 10
-72.499999999998636
 20
-17.599999999999671
 30
0.0
 11
-72.499999999998636
 21
17.400000000000329
 31
0.0
  0
LINE
  5
105D
  8
SAPA_FOGBAND
 10
-73.499999999998636
 20
17.400000000000329
 30
0.0
 11
-73.499999999998636
 21
-17.599999999999671
 31
0.0
  0
POLYLINE
  5
105E
  8
SAPA_FOGBAND
 66
     1
 10
0.0
 20
0.0
 30
0.0
 70
     1
  0
VERTEX
  5
22C2
  8
SAPA_FOGBAND
 10
-72.534485185378571
 20
-21.651788769293471
 30
0.0
 42
-0.8497079118398895
  0
VERTEX
  5
22C3
  8
SAPA_FOGBAND
 10
-72.921427446888629
 20
-22.09999999999944
 30
0.0
  0
VERTEX
  5
22C4
  8
SAPA_FOGBAND
 10
-76.404540759853262
 20
-16.558529110705859
 30
0.0
 42
-0.2608822022991484
  0
VERTEX
  5
22C5
  8
SAPA_FOGBAND
 10
-76.499999999998408
 20
-16.388026238211051
 30
0.0
  0
VERTEX
  5
22C6
  8
SAPA_FOGBAND
 10
-76.499999999997954
 20
-9.1700000000002841
 30
0.0
 42
0.4142135623730951
  0
VERTEX
  5
22C7
  8
SAPA_FOGBAND
 10
-76.519999999997935
 20
-9.1499999999996202
 30
0.0
  0
VERTEX
  5
22C8
  8
SAPA_FOGBAND
 10
-77.499999999998636
 20
-9.1499999999996202
 30
0.0
  0
VERTEX
  5
22C9
  8
SAPA_FOGBAND
 10
-77.608611420439274
 20
-9.5080552462263626
 30
0.0
 42
-0.4364998583843544
  0
VERTEX
  5
22CA
  8
SAPA_FOGBAND
 10
-77.872323429359994
 20
-9.636465336096748
 30
0.0
  0
VERTEX
  5
22CB
  8
SAPA_FOGBAND
 10
-79.261617146802564
 20
-9.0976065426150257
 30
0.0
 42
-0.3095538907669633
  0
VERTEX
  5
22CC
  8
SAPA_FOGBAND
 10
-79.899999999998727
 20
-8.1652798621337155
 30
0.0
  0
VERTEX
  5
22CD
  8
SAPA_FOGBAND
 10
-79.899999999998499
 20
-6.8347201378662552
 30
0.0
 42
-0.309553890766963
  0
VERTEX
  5
22CE
  8
SAPA_FOGBAND
 10
-79.261617146803246
 20
-5.902393457384945
 30
0.0
  0
VERTEX
  5
22CF
  8
SAPA_FOGBAND
 10
-77.872323429359312
 20
-5.3635346639043604
 30
0.0
 42
-0.4364998583843053
  0
VERTEX
  5
22D0
  8
SAPA_FOGBAND
 10
-77.608611420439274
 20
-5.491944753774745
 30
0.0
  0
VERTEX
  5
22D1
  8
SAPA_FOGBAND
 10
-77.499999999998636
 20
-5.8500000000003487
 30
0.0
  0
VERTEX
  5
22D2
  8
SAPA_FOGBAND
 10
-76.549999999998363
 20
-5.8500000000003487
 30
0.0
 42
0.4142135623730953
  0
VERTEX
  5
22D3
  8
SAPA_FOGBAND
 10
-76.499999999998408
 20
-5.8000000000003951
 30
0.0
  0
VERTEX
  5
22D4
  8
SAPA_FOGBAND
 10
-76.499999999998408
 20
5.8000000000004226
 30
0.0
 42
0.4142135623730951
  0
VERTEX
  5
22D5
  8
SAPA_FOGBAND
 10
-76.549999999998363
 20
5.850000000000378
 30
0.0
  0
VERTEX
  5
22D6
  8
SAPA_FOGBAND
 10
-77.499999999998636
 20
5.850000000000378
 30
0.0
  0
VERTEX
  5
22D7
  8
SAPA_FOGBAND
 10
-77.608611420439274
 20
5.4919447537747743
 30
0.0
 42
-0.4364998583843054
  0
VERTEX
  5
22D8
  8
SAPA_FOGBAND
 10
-77.872323429359994
 20
5.3635346639043879
 30
0.0
  0
VERTEX
  5
22D9
  8
SAPA_FOGBAND
 10
-79.261617146802564
 20
5.9023934573849743
 30
0.0
 42
-0.309553890766963
  0
VERTEX
  5
22DA
  8
SAPA_FOGBAND
 10
-79.899999999998727
 20
6.8347201378662854
 30
0.0
  0
VERTEX
  5
22DB
  8
SAPA_FOGBAND
 10
-79.899999999998499
 20
8.1652798621337421
 30
0.0
 42
-0.3095538907669633
  0
VERTEX
  5
22DC
  8
SAPA_FOGBAND
 10
-79.261617146803246
 20
9.0976065426150541
 30
0.0
  0
VERTEX
  5
22DD
  8
SAPA_FOGBAND
 10
-77.872323429359312
 20
9.6364653360967765
 30
0.0
 42
-0.4364998583843544
  0
VERTEX
  5
22DE
  8
SAPA_FOGBAND
 10
-77.608611420439274
 20
9.5080552462263892
 30
0.0
  0
VERTEX
  5
22DF
  8
SAPA_FOGBAND
 10
-77.499999999998636
 20
9.1499999999996504
 30
0.0
  0
VERTEX
  5
22E0
  8
SAPA_FOGBAND
 10
-76.519999999997935
 20
9.1500000000003325
 30
0.0
 42
0.4142135623730951
  0
VERTEX
  5
22E1
  8
SAPA_FOGBAND
 10
-76.499999999998408
 20
9.1700000000003143
 30
0.0
  0
VERTEX
  5
22E2
  8
SAPA_FOGBAND
 10
-76.499999999998636
 20
16.388026238211079
 30
0.0
 42
-0.2608822022991486
  0
VERTEX
  5
22E3
  8
SAPA_FOGBAND
 10
-76.404540759852807
 20
16.558529110706122
 30
0.0
  0
VERTEX
  5
22E4
  8
SAPA_FOGBAND
 10
-72.922817216677231
 20
21.90000000000045
 30
0.0
 42
-0.8497079118398893
  0
VERTEX
  5
22E5
  8
SAPA_FOGBAND
 10
-72.535874955167174
 20
21.45178876929414
 30
0.0
  0
VERTEX
  5
22E6
  8
SAPA_FOGBAND
 10
-74.012665285346202
 20
15.274100189337121
 30
0.0
  0
VERTEX
  5
22E7
  8
SAPA_FOGBAND
 10
-73.999999999998408
 20
12.779098228429589
 30
0.0
  0
VERTEX
  5
22E8
  8
SAPA_FOGBAND
 10
-73.848341139642571
 20
13.07089734300054
 30
0.0
 42
-0.767326987978962
  0
VERTEX
  5
22E9
  8
SAPA_FOGBAND
 10
-73.515967214874763
 20
12.596121451851801
 30
0.0
  0
VERTEX
  5
22EA
  8
SAPA_FOGBAND
 10
-73.999999999998408
 20
11.00000000000024
 30
0.0
  0
VERTEX
  5
22EB
  8
SAPA_FOGBAND
 10
-73.999999999998408
 20
8.6000000000001506
 30
0.0
  0
VERTEX
  5
22EC
  8
SAPA_FOGBAND
 10
-73.515967214875204
 20
7.0038785481479078
 30
0.0
 42
-0.7673269879789616
  0
VERTEX
  5
22ED
  8
SAPA_FOGBAND
 10
-73.848341139642343
 20
6.5291026569991697
 30
0.0
  0
VERTEX
  5
22EE
  8
SAPA_FOGBAND
 10
-73.999999999998408
 20
6.820901771570802
 30
0.0
  0
VERTEX
  5
22EF
  8
SAPA_FOGBAND
 10
-73.999999999998408
 20
3.3286724168056159
 30
0.0
 42
0.2679491924311367
  0
VERTEX
  5
22F0
  8
SAPA_FOGBAND
 10
-73.899999999998727
 20
3.1554673360488001
 30
0.0
  0
VERTEX
  5
22F1
  8
SAPA_FOGBAND
 10
-72.617285126167189
 20
2.4148915583498489
 30
0.0
 42
-0.5773502691896298
  0
VERTEX
  5
22F2
  8
SAPA_FOGBAND
 10
-72.617285126168099
 20
2.0684813968355358
 30
0.0
  0
VERTEX
  5
22F3
  8
SAPA_FOGBAND
 10
-75.899999999998954
 20
0.1732050807561476
 30
0.0
  0
VERTEX
  5
22F4
  8
SAPA_FOGBAND
 10
-76.049999999998818
 20
0.0866025403786492
 30
0.0
 42
0.5773502691896253
  0
VERTEX
  5
22F5
  8
SAPA_FOGBAND
 10
-76.049999999998818
 20
-0.0866025403783939
 30
0.0
  0
VERTEX
  5
22F6
  8
SAPA_FOGBAND
 10
-75.899999999998954
 20
-0.1732050807572565
 30
0.0
  0
VERTEX
  5
22F7
  8
SAPA_FOGBAND
 10
-72.617285126167189
 20
-2.0684813968352822
 30
0.0
 42
-0.5773502691896298
  0
VERTEX
  5
22F8
  8
SAPA_FOGBAND
 10
-72.617285126168099
 20
-2.4148915583495949
 30
0.0
  0
VERTEX
  5
22F9
  8
SAPA_FOGBAND
 10
-73.899999999998499
 20
-3.1554673360494552
 30
0.0
 42
0.2679491924311367
  0
VERTEX
  5
22FA
  8
SAPA_FOGBAND
 10
-73.999999999998636
 20
-3.3286724168055879
 30
0.0
  0
VERTEX
  5
22FB
  8
SAPA_FOGBAND
 10
-73.999999999998408
 20
-6.8209017715707754
 30
0.0
  0
VERTEX
  5
22FC
  8
SAPA_FOGBAND
 10
-73.848341139642343
 20
-6.5291026570002799
 30
0.0
 42
-0.7673269879789616
  0
VERTEX
  5
22FD
  8
SAPA_FOGBAND
 10
-73.515967214874536
 20
-7.003878548147882
 30
0.0
  0
VERTEX
  5
22FE
  8
SAPA_FOGBAND
 10
-73.999999999998408
 20
-8.6000000000001222
 30
0.0
  0
VERTEX
  5
22FF
  8
SAPA_FOGBAND
 10
-73.999999999998408
 20
-11.00000000000021
 30
0.0
  0
VERTEX
  5
2300
  8
SAPA_FOGBAND
 10
-73.515967214874763
 20
-12.596121451852451
 30
0.0
 42
-0.767326987978962
  0
VERTEX
  5
2301
  8
SAPA_FOGBAND
 10
-73.848341139641875
 20
-13.07089734300005
 30
0.0
  0
VERTEX
  5
2302
  8
SAPA_FOGBAND
 10
-73.999999999998408
 20
-12.779098228429559
 30
0.0
  0
VERTEX
  5
2303
  8
SAPA_FOGBAND
 10
-73.991785768350155
 20
-15.57544619588019
 30
0.0
  0
SEQEND
  5
2304
  8
SAPA_FOGBAND
  0
LINE
  5
105F
  8
SAPA_FOGBAND
 10
-72.999999999998636
 20
2.4000000000003312
 30
0.0
 11
-72.999999999998636
 21
-2.5999999999996679
 31
0.0
  0
DIMENSION
  5
1067
  8
SAPA_MATT
  2
*D74
 10
124.20093969801771
 20
42.549455477510477
 30
0.0
 11
99.20093969801772
 21
45.049455477510477
 31
0.0
 70
     0
 13
74.200939698017692
 23
-0.3000000000000789
 33
0.0
 14
124.20093969801771
 24
-0.3000000000000789
 34
0.0
1001
ACAD
1000
DSTYLE
1002
{
1070
   287
1070
     4
1070
    40
1040
1.0
1070
   279
1070
     1
1002
}
  0
DIMENSION
  5
1068
  8
SAPA_MATT
  2
*D73
 10
74.200939698017692
 20
42.549455477510477
 30
0.0
 11
69.20093969801772
 21
45.049455477510477
 31
0.0
 70
     0
 13
64.200939698017763
 23
24.50000000000022
 33
0.0
 14
74.200939698017692
 24
-0.3000000000000789
 34
0.0
1001
ACAD
1000
DSTYLE
1002
{
1070
    40
1040
1.0
1002
}
  0
DIMENSION
  5
1069
  8
SAPA_MATT
  2
*D72
 10
-106.8283286202785
 20
-16.000000000000139
 30
0.0
 11
-109.3283286202785
 21
-0.0000000000000216
 31
0.0
 70
     0
 13
-77.046446609404995
 23
16.000000000000131
 33
0.0
 14
-77.046446609434525
 24
-16.000000000000149
 34
0.0
 50
90.0
1001
ACAD
1000
DSTYLE
1002
{
1070
    40
1040
1.0
1002
}
  0
VIEWPORT
  5
C4
 67
     1
  8
0
 10
143.06236603067589
 20
116.00969601843509
 30
0.0
 40
369.98580003443811
 41
256.8421457311839
 68
     1
 69
     1
1001
ACAD
1000
MVIEW
1002
{
1070
    16
1010
0.0
1020
0.0
1030
0.0
1010
0.0
1020
0.0
1030
1.0
1040
0.0
1040
256.8421457311839
1040
99.112914085388169
1040
143.07606935501099
1040
50.0
1040
0.0
1040
0.0
1070
     0
1070
     0
1070
     1
1070
     1
1070
     0
1070
     0
1070
     0
1070
     0
1040
0.0
1040
0.0
1040
0.0
1040
10.0
1040
10.0
1040
10.0
1040
10.0
1070
     0
1002
{
1002
}
1002
}
  0
ENDSEC
  0
EOF
