  0
SECTION
  2
HEADER
  9
$ACADVER
  1
AC1009
  9
$INSBASE
 10
0.0
 20
0.0
 30
0.0
  9
$EXTMIN
 10
-210.17988547077911
 20
-108.3138500465783
 30
0.0
  9
$EXTMAX
 10
40.999999999999773
 20
89.999999999999474
 30
0.1
  9
$LIMMIN
 10
0.0
 20
0.0
  9
$LIMMAX
 10
790.0
 20
790.0
  9
$ORTHOMODE
 70
     0
  9
$REGENMODE
 70
     1
  9
$FILLMODE
 70
     1
  9
$QTEXTMODE
 70
     0
  9
$MIRRTEXT
 70
     1
  9
$DRAGMODE
 70
     2
  9
$LTSCALE
 40
4.0
  9
$OSMODE
 70
   167
  9
$ATTMODE
 70
     1
  9
$TEXTSIZE
 40
3.5
  9
$TRACEWID
 40
0.05
  9
$TEXTSTYLE
  7
ISO
  9
$CLAYER
  8
0
  9
$CELTYPE
  6
BYLAYER
  9
$CECOLOR
 62
   256
  9
$DIMSCALE
 40
0.0
  9
$DIMASZ
 40
3.0
  9
$DIMEXO
 40
1.5
  9
$DIMDLI
 40
10.0
  9
$DIMRND
 40
0.0
  9
$DIMDLE
 40
0.0
  9
$DIMEXE
 40
1.5
  9
$DIMTP
 40
0.0
  9
$DIMTM
 40
0.0
  9
$DIMTXT
 40
3.0
  9
$DIMCEN
 40
-5.0
  9
$DIMTSZ
 40
0.0
  9
$DIMTOL
 70
     0
  9
$DIMLIM
 70
     0
  9
$DIMTIH
 70
     0
  9
$DIMTOH
 70
     0
  9
$DIMSE1
 70
     0
  9
$DIMSE2
 70
     0
  9
$DIMTAD
 70
     1
  9
$DIMZIN
 70
     8
  9
$DIMBLK
  1

  9
$DIMASO
 70
     1
  9
$DIMSHO
 70
     1
  9
$DIMPOST
  1

  9
$DIMAPOST
  1

  9
$DIMALT
 70
     0
  9
$DIMALTD
 70
     0
  9
$DIMALTF
 40
25.399999999999999
  9
$DIMLFAC
 40
-1.0
  9
$DIMTOFL
 70
     1
  9
$DIMTVP
 40
0.0
  9
$DIMTIX
 70
     0
  9
$DIMSOXD
 70
     0
  9
$DIMSAH
 70
     0
  9
$DIMBLK1
  1

  9
$DIMBLK2
  1

  9
$DIMSTYLE
  2
MASKIN
  9
$DIMCLRD
 70
   256
  9
$DIMCLRE
 70
   256
  9
$DIMCLRT
 70
     2
  9
$DIMTFAC
 40
1.0
  9
$DIMGAP
 40
1.0
  9
$LUNITS
 70
     2
  9
$LUPREC
 70
     8
  9
$SKETCHINC
 40
0.1
  9
$FILLETRAD
 40
0.0
  9
$AUNITS
 70
     0
  9
$AUPREC
 70
     8
  9
$MENU
  1
ACAD
  9
$ELEVATION
 40
0.0
  9
$PELEVATION
 40
0.0
  9
$THICKNESS
 40
0.0
  9
$LIMCHECK
 70
     0
  9
$BLIPMODE
 70
     0
  9
$CHAMFERA
 40
0.0
  9
$CHAMFERB
 40
0.0
  9
$SKPOLY
 70
     0
  9
$TDCREATE
 40
2454901.5781186
  9
$TDUPDATE
 40
2458458.341994815
  9
$TDINDWG
 40
0.0821513773
  9
$TDUSRTIMER
 40
0.0821513773
  9
$USRTIMER
 70
     1
  9
$ANGBASE
 50
0.0
  9
$ANGDIR
 70
     0
  9
$PDMODE
 70
     0
  9
$PDSIZE
 40
0.0
  9
$PLINEWID
 40
0.0
  9
$COORDS
 70
     1
  9
$SPLFRAME
 70
     0
  9
$SPLINETYPE
 70
     6
  9
$SPLINESEGS
 70
     8
  9
$ATTDIA
 70
     1
  9
$ATTREQ
 70
     1
  9
$HANDLING
 70
     1
  9
$HANDSEED
  5
2748
  9
$SURFTAB1
 70
     6
  9
$SURFTAB2
 70
     6
  9
$SURFTYPE
 70
     6
  9
$SURFU
 70
     6
  9
$SURFV
 70
     6
  9
$UCSNAME
  2

  9
$UCSORG
 10
0.0
 20
0.0
 30
0.0
  9
$UCSXDIR
 10
1.0
 20
0.0
 30
0.0
  9
$UCSYDIR
 10
0.0
 20
1.0
 30
0.0
  9
$PUCSNAME
  2

  9
$PUCSORG
 10
0.0
 20
0.0
 30
0.0
  9
$PUCSXDIR
 10
1.0
 20
0.0
 30
0.0
  9
$PUCSYDIR
 10
0.0
 20
1.0
 30
0.0
  9
$USERI1
 70
     0
  9
$USERI2
 70
     0
  9
$USERI3
 70
     0
  9
$USERI4
 70
     0
  9
$USERI5
 70
     0
  9
$USERR1
 40
0.0
  9
$USERR2
 40
0.0
  9
$USERR3
 40
0.0
  9
$USERR4
 40
0.0
  9
$USERR5
 40
0.0
  9
$WORLDVIEW
 70
     1
  9
$SHADEDGE
 70
     3
  9
$SHADEDIF
 70
    70
  9
$TILEMODE
 70
     1
  9
$MAXACTVP
 70
    16
  9
$PLIMCHECK
 70
     0
  9
$PEXTMIN
 10
1.0000000000000000E+020
 20
1.0000000000000000E+020
 30
1.0000000000000000E+020
  9
$PEXTMAX
 10
-1.0000000000000000E+020
 20
-1.0000000000000000E+020
 30
-1.0000000000000000E+020
  9
$PLIMMIN
 10
-5.069427490234375
 20
-5.8737497329711914
  9
$PLIMMAX
 10
291.89889526367187
 20
204.0995779037475
  9
$UNITMODE
 70
     0
  9
$VISRETAIN
 70
     1
  9
$PLINEGEN
 70
     0
  9
$PSLTSCALE
 70
     1
  0
ENDSEC
  0
SECTION
  2
TABLES
  0
TABLE
  2
VPORT
 70
     1
  0
VPORT
  2
*ACTIVE
 70
     0
 10
0.0
 20
0.0
 11
1.0
 21
1.0
 12
-5.9270576786711331
 22
105.57768447469201
 13
0.0
 23
0.0
 14
1.0
 24
1.0
 15
0.0
 25
0.0
 16
0.0
 26
0.0
 36
1.0
 17
0.0
 27
0.0
 37
0.0
 40
326.57193208704541
 41
1.7265193370165739
 42
50.0
 43
0.0
 44
0.0
 50
0.0
 51
0.0
 71
     0
 72
   100
 73
     1
 74
     1
 75
     0
 76
     0
 77
     0
 78
     0
  0
ENDTAB
  0
TABLE
  2
LTYPE
 70
    42
  0
LTYPE
  2
CONTINUOUS
 70
     0
  3
Solid line
 72
    65
 73
     0
 40
0.0
  0
LTYPE
  2
BYGG-01472602$0$NEWDOT
 70
     0
  3
____ . ____ . ____ . ____ . ____ . ____ . ____
 72
    65
 73
     4
 40
2.0
 49
1.0
 49
-0.5
 49
0.0
 49
-0.5
  0
LTYPE
  2
BYGG-01472602$0$ZIGZAG
 70
     0
  3
Zig zag /\/\/\/\/\/\/\/\/\/\/\/\/\/\/\/\/\/\/\/\/\/\/\/
 72
    65
 73
     4
 40
20.32254
 49
0.00254
 49
-5.0800000000000001
 49
-10.16
 49
-5.0800000000000001
  0
LTYPE
  2
BYGG-025060$0$NEWDOT
 70
     0
  3
____ . ____ . ____ . ____ . ____ . ____ . ____
 72
    65
 73
     4
 40
2.0
 49
1.0
 49
-0.5
 49
0.0
 49
-0.5
  0
LTYPE
  2
BYGG-012216$0$DASHDOT
 70
     0
  3
__ . __ . __ . __ . __ . __ . __ . __ . __ . __
 72
    65
 73
     4
 40
1.0
 49
0.5
 49
-0.25
 49
0.0
 49
-0.25
  0
LTYPE
  2
BYGG-024800$0$NEWDOT
 70
     0
  3
____ . ____ . ____ . ____ . ____ . ____ . ____
 72
    65
 73
     4
 40
2.0
 49
1.0
 49
-0.5
 49
0.0
 49
-0.5
  0
LTYPE
  2
BYGG-024807$0$NEWDOT
 70
     0
  3
____ . ____ . ____ . ____ . ____ . ____ . ____
 72
    65
 73
     4
 40
2.0
 49
1.0
 49
-0.5
 49
0.0
 49
-0.5
  0
LTYPE
  2
BYGG-024807$0$DASHDOT
 70
     0
  3
__ . __ . __ . __ . __ . __ . __ . __ . __ . __
 72
    65
 73
     4
 40
1.0
 49
0.5
 49
-0.25
 49
0.0
 49
-0.25
  0
LTYPE
  2
BYGG-014353$0$DASHDOT
 70
     0
  3
Dash dot __ . __ . __ . __ . __ . __ . __ . __
 72
    65
 73
     4
 40
1.0
 49
0.5
 49
-0.25
 49
0.0
 49
-0.25
  0
LTYPE
  2
BYGG-033168$0$NEWDOT
 70
     0
  3
____ . ____ . ____ . ____ . ____ . ____ . ____
 72
    65
 73
     4
 40
2.0
 49
1.0
 49
-0.5
 49
0.0
 49
-0.5
  0
LTYPE
  2
BYGG-033168$0$DASHDOT
 70
     0
  3
__ . __ . __ . __ . __ . __ . __ . __ . __ . __
 72
    65
 73
     4
 40
1.0
 49
0.5
 49
-0.25
 49
0.0
 49
-0.25
  0
LTYPE
  2
BYGG-033168$0$DASHED
 70
     0
  3
__ __ __ __ __ __ __ __ __ __ __ __ __ __ __
 72
    65
 73
     2
 40
0.75
 49
0.5
 49
-0.25
  0
LTYPE
  2
BYGG-033168$0$PHANTOM
 70
     0
  3
Phantom ______  __  __  ______  __  __  ______
 72
    65
 73
     6
 40
63.5
 49
31.75
 49
-6.3499999999999988
 49
6.3499999999999988
 49
-6.3499999999999988
 49
6.3499999999999988
 49
-6.3499999999999988
  0
LTYPE
  2
BYGG-027036$0$NEWDOT
 70
     0
  3
____ . ____ . ____ . ____ . ____ . ____ . ____
 72
    65
 73
     4
 40
2.0
 49
1.0
 49
-0.5
 49
0.0
 49
-0.5
  0
LTYPE
  2
BYGG-027036$0$DASHDOT
 70
     0
  3
__ . __ . __ . __ . __ . __ . __ . __ . __ . __
 72
    65
 73
     4
 40
1.0
 49
0.5
 49
-0.25
 49
0.0
 49
-0.25
  0
LTYPE
  2
BYGG-027036$0$DASHED
 70
     0
  3
__ __ __ __ __ __ __ __ __ __ __ __ __ __ __
 72
    65
 73
     2
 40
0.75
 49
0.5
 49
-0.25
  0
LTYPE
  2
BYGG-027036$0$PHANTOM
 70
     0
  3
Phantom ______  __  __  ______  __  __  ______
 72
    65
 73
     6
 40
63.5
 49
31.75
 49
-6.3499999999999988
 49
6.3499999999999988
 49
-6.3499999999999988
 49
6.3499999999999988
 49
-6.3499999999999988
  0
LTYPE
  2
BYGG-027036$0$HIDDEN
 70
     0
  3
_ _ _ _ _ _ _ _ _ _ _ _ _ _ _ _ _ _ _ _ _ _ _
 72
    65
 73
     2
 40
0.375
 49
0.25
 49
-0.125
  0
LTYPE
  2
BYGG-027036$0$DOT
 70
     0
  3
...............................................
 72
    65
 73
     2
 40
0.25
 49
0.0
 49
-0.25
  0
LTYPE
  2
BYGG-027036$0$CENTER
 70
     0
  3
____ _ ____ _ ____ _ ____ _ ____ _ ____ _ ____
 72
    65
 73
     4
 40
0.6
 49
0.375
 49
-0.075
 49
0.075
 49
-0.075
  0
LTYPE
  2
BYGG-033291$0$NEWDOT
 70
     0
  3
____ . ____ . ____ . ____ . ____ . ____ . ____
 72
    65
 73
     4
 40
2.0
 49
1.0
 49
-0.5
 49
0.0
 49
-0.5
  0
LTYPE
  2
BYGG-033291$0$DASHDOT
 70
     0
  3
__ . __ . __ . __ . __ . __ . __ . __ . __ . __
 72
    65
 73
     4
 40
1.0
 49
0.5
 49
-0.25
 49
0.0
 49
-0.25
  0
LTYPE
  2
BYGG-033291$0$DASHED
 70
     0
  3
__ __ __ __ __ __ __ __ __ __ __ __ __ __ __
 72
    65
 73
     2
 40
0.75
 49
0.5
 49
-0.25
  0
LTYPE
  2
BYGG-033291$0$PHANTOM
 70
     0
  3
Phantom ______  __  __  ______  __  __  ______
 72
    65
 73
     6
 40
63.5
 49
31.75
 49
-6.3499999999999988
 49
6.3499999999999988
 49
-6.3499999999999988
 49
6.3499999999999988
 49
-6.3499999999999988
  0
LTYPE
  2
BYGG-029021$0$NEWDOT
 70
     0
  3
____ . ____ . ____ . ____ . ____ . ____ . ____
 72
    65
 73
     4
 40
2.0
 49
1.0
 49
-0.5
 49
0.0
 49
-0.5
  0
LTYPE
  2
BYGG-029021$0$DASHDOT
 70
     0
  3
__ . __ . __ . __ . __ . __ . __ . __ . __ . __
 72
    65
 73
     4
 40
1.0
 49
0.5
 49
-0.25
 49
0.0
 49
-0.25
  0
LTYPE
  2
BYGG-029021$0$DASHED
 70
     0
  3
__ __ __ __ __ __ __ __ __ __ __ __ __ __ __
 72
    65
 73
     2
 40
0.75
 49
0.5
 49
-0.25
  0
LTYPE
  2
BYGG-029021$0$PHANTOM
 70
     0
  3
Phantom ______  __  __  ______  __  __  ______
 72
    65
 73
     6
 40
63.5
 49
31.75
 49
-6.3499999999999988
 49
6.3499999999999988
 49
-6.3499999999999988
 49
6.3499999999999988
 49
-6.3499999999999988
  0
LTYPE
  2
BYGG-029021$0$DASHED2
 70
     0
  3
_ _ _ _ _ _ _ _ _ _ _ _ _ _ _ _ _ _ _ _ _ _ _ _ _ _ _ _ _ _ _
 72
    65
 73
     2
 40
0.375
 49
0.25
 49
-0.125
  0
LTYPE
  2
BYGG-01409101$0$DASHDOT
 70
     0
  3
__ . __ . __ . __ . __ . __ . __ . __ . __ . __
 72
    65
 73
     4
 40
1.0
 49
0.5
 49
-0.25
 49
0.0
 49
-0.25
  0
LTYPE
  2
BYGG-01409101$0$HIDDEN
 70
     0
  3
_ _ _ _ _ _ _ _ _ _ _ _ _ _ _ _ _ _ _ _ _ _ _
 72
    65
 73
     2
 40
0.375
 49
0.25
 49
-0.125
  0
LTYPE
  2
BYGG-030601$0$NEWDOT
 70
     0
  3
____ . ____ . ____ . ____ . ____ . ____ . ____
 72
    65
 73
     4
 40
2.0
 49
1.0
 49
-0.5
 49
0.0
 49
-0.5
  0
LTYPE
  2
BYGG-030601$0$ZIGZAG
 70
     0
  3
Zig zag /\/\/\/\/\/\/\/\/\/\/\/\/\/\/\/\/\/\/\/\/\/\/\/
 72
    65
 73
     4
 40
20.32254
 49
0.00254
 49
-5.0800000000000001
 49
-10.16
 49
-5.0800000000000001
  0
LTYPE
  2
BYGG-025060$0$DASHDOT
 70
     0
  3
__ . __ . __ . __ . __ . __ . __ . __ . __ . __
 72
    65
 73
     4
 40
1.0
 49
0.5
 49
-0.25
 49
0.0
 49
-0.25
  0
LTYPE
  2
BYGG-027036$0$ALF
 70
     0
  3
*alf,- - - - - - - - - - - - -
 72
    65
 73
     2
 40
0.3
 49
0.1
 49
-0.2
  0
LTYPE
  2
BYGG-027036$0$CENTRE2
 70
     0
  3
___ _ ___ _ ___ _ ___ _ ___ _ ___ _ ___ _ ___ _
 72
    65
 73
     4
 40
28.574999999999999
 49
19.050000000000001
 49
-3.1749999999999989
 49
3.1749999999999989
 49
-3.1749999999999989
  0
LTYPE
  2
BYGG-029021$0$PHANTOM2
 70
     0
  3
Phantom (.5x) ___ _ _ ___ _ _ ___ _ _ ___ _ _
 72
    65
 73
     6
 40
1.25
 49
0.625
 49
-0.125
 49
0.125
 49
-0.125
 49
0.125
 49
-0.125
  0
LTYPE
  2
BYGG-024800$0$DASHDOT
 70
     0
  3
__ . __ . __ . __ . __ . __ . __ . __ . __ . __
 72
    65
 73
     4
 40
1.0
 49
0.5
 49
-0.25
 49
0.0
 49
-0.25
  0
LTYPE
  2
BYGG-01409101$0$PHANTOM2
 70
     0
  3
Phantom (.5x) ___ _ _ ___ _ _ ___ _ _ ___ _ _
 72
    65
 73
     6
 40
1.25
 49
0.625
 49
-0.125
 49
0.125
 49
-0.125
 49
0.125
 49
-0.125
  0
LTYPE
  2
BYGG-030601$0$PHANTOM2
 70
     0
  3
Phantom (.5x) ___ _ _ ___ _ _ ___ _ _ ___ _ _
 72
    65
 73
     6
 40
1.25
 49
0.625
 49
-0.125
 49
0.125
 49
-0.125
 49
0.125
 49
-0.125
  0
LTYPE
  2
BYGG-014090$0$PHANTOM2
 70
     0
  3
Phantom (.5x) ___ _ _ ___ _ _ ___ _ _ ___ _ _
 72
    65
 73
     6
 40
1.25
 49
0.625
 49
-0.125
 49
0.125
 49
-0.125
 49
0.125
 49
-0.125
  0
LTYPE
  2
BYGG-01409301$0$PHANTOM2
 70
     0
  3
Phantom (.5x) ___ _ _ ___ _ _ ___ _ _ ___ _ _
 72
    65
 73
     6
 40
1.25
 49
0.625
 49
-0.125
 49
0.125
 49
-0.125
 49
0.125
 49
-0.125
  0
ENDTAB
  0
TABLE
  2
LAYER
 70
   218
  0
LAYER
  2
0
 70
     0
 62
     7
  6
CONTINUOUS
  0
LAYER
  2
DEFPOINTS
 70
     0
 62
     7
  6
CONTINUOUS
  0
LAYER
  2
SAPA_LIGHT
 70
     1
 62
     1
  6
CONTINUOUS
  0
LAYER
  2
SAPA_ARTIKELNR
 70
     0
 62
     4
  6
CONTINUOUS
  0
LAYER
  2
BYGG-027036$0$DIM
 70
     4
 62
     5
  6
CONTINUOUS
  0
LAYER
  2
BYGG-027036$0$KON
 70
     4
 62
     7
  6
CONTINUOUS
  0
LAYER
  2
SAPA_ISOLATOR
 70
     0
 62
     4
  6
CONTINUOUS
  0
LAYER
  2
SAPA_MATT
 70
     0
 62
     1
  6
CONTINUOUS
  0
LAYER
  2
SAPA_GLAS
 70
     0
 62
     4
  6
CONTINUOUS
  0
LAYER
  2
SAPA_FOGBAND
 70
     0
 62
     2
  6
CONTINUOUS
  0
LAYER
  2
SAPA_PROFIL
 70
     0
 62
     7
  6
CONTINUOUS
  0
ENDTAB
  0
TABLE
  2
STYLE
 70
    56
  0
STYLE
  2
STANDARD
 70
     0
 40
0.0
 41
1.0
 50
0.0
 71
     0
 42
0.2
  3
txt
  4

  0
STYLE
  2
ISO
 70
     0
 40
0.0
 41
1.0
 50
0.0
 71
     0
 42
3.5
  3
txt
  4

  0
STYLE
  2

 70
     1
 40
0.0
 41
1.0
 50
0.0
 71
     0
 42
0.2
  3
ltypeshp.shx
  4

  0
STYLE
  2
BYGG-019434$0$STANDARD
 70
     0
 40
0.0
 41
1.0
 50
0.0
 71
     0
 42
0.2
  3
txt
  4

  0
STYLE
  2
BYGG-019434$0$ISO
 70
     0
 40
0.0
 41
1.0
 50
0.0
 71
     0
 42
3.5
  3
txt
  4

  0
STYLE
  2
BYGG-01472602$0$STANDARD
 70
     0
 40
0.0
 41
1.0
 50
0.0
 71
     0
 42
0.2
  3
txt
  4

  0
STYLE
  2
BYGG-01472602$0$ISO
 70
     0
 40
0.0
 41
1.0
 50
0.0
 71
     0
 42
2.5
  3
isocp3.shx
  4

  0
STYLE
  2
BYGG-019437$0$STANDARD
 70
     0
 40
0.0
 41
1.0
 50
0.0
 71
     0
 42
0.2
  3
txt
  4

  0
STYLE
  2
BYGG-019437$0$ISO
 70
     0
 40
0.0
 41
1.0
 50
0.0
 71
     0
 42
3.5
  3
txt
  4

  0
STYLE
  2
BYGG-019436$0$STANDARD
 70
     0
 40
0.0
 41
1.0
 50
0.0
 71
     0
 42
0.2
  3
txt
  4

  0
STYLE
  2
BYGG-019436$0$ISO
 70
     0
 40
0.0
 41
1.0
 50
0.0
 71
     0
 42
3.5
  3
txt
  4

  0
STYLE
  2
BYGG-014353$0$STANDARD
 70
     0
 40
0.0
 41
1.0
 50
0.0
 71
     0
 42
0.2
  3
txt
  4

  0
STYLE
  2
BYGG-014353$0$ISO
 70
     0
 40
0.0
 41
1.0
 50
0.0
 71
     0
 42
3.5
  3
isocp3.shx
  4

  0
STYLE
  2
BYGG-014014$0$STANDARD
 70
     0
 40
0.0
 41
1.0
 50
0.0
 71
     0
 42
0.2
  3
txt
  4

  0
STYLE
  2
BYGG-033291$0$STANDARD
 70
     0
 40
0.0
 41
1.0
 50
0.0
 71
     0
 42
0.2
  3
txt
  4

  0
STYLE
  2
BYGG-033291$0$ISO
 70
     0
 40
0.0
 41
1.0
 50
0.0
 71
     0
 42
3.5
  3
txt
  4

  0
STYLE
  2
BYGG-025060$0$STANDARD
 70
     0
 40
0.0
 41
1.0
 50
0.0
 71
     0
 42
0.2
  3
txt
  4

  0
STYLE
  2
BYGG-025060$0$ISO
 70
     0
 40
0.0
 41
1.0
 50
0.0
 71
     0
 42
3.5
  3
txt
  4

  0
STYLE
  2
BYGG-012216$0$STANDARD
 70
     0
 40
0.0
 41
1.0
 50
0.0
 71
     0
 42
0.2
  3
txt
  4

  0
STYLE
  2
BYGG-012216$0$ISO
 70
     0
 40
0.0
 41
1.0
 50
0.0
 71
     0
 42
3.5
  3
txt
  4

  0
STYLE
  2
BYGG-028980$0$STANDARD
 70
     0
 40
0.0
 41
1.0
 50
0.0
 71
     0
 42
0.2
  3
txt
  4

  0
STYLE
  2
BYGG-028980$0$ISO
 70
     0
 40
0.0
 41
1.0
 50
0.0
 71
     0
 42
3.5
  3
txt
  4

  0
STYLE
  2
BYGG-033168$0$STANDARD
 70
     0
 40
0.0
 41
1.0
 50
0.0
 71
     0
 42
0.2
  3
txt
  4

  0
STYLE
  2
BYGG-033168$0$ISO
 70
     0
 40
0.0
 41
1.0
 50
0.0
 71
     0
 42
3.5
  3
txt
  4

  0
STYLE
  2
BYGG-027036$0$STANDARD
 70
     0
 40
0.0
 41
1.0
 50
0.0
 71
     0
 42
0.2
  3
txt
  4

  0
STYLE
  2
BYGG-027036$0$ISO
 70
     0
 40
0.0
 41
1.0
 50
0.0
 71
     0
 42
3.5
  3
txt
  4

  0
STYLE
  2
BYGG-027036$0$SIMPLEX
 70
     0
 40
0.0
 41
1.0
 50
0.0
 71
     0
 42
0.4
  3
simplex
  4

  0
STYLE
  2
BYGG-027036$0$ITALIC
 70
     0
 40
0.0
 41
1.0
 50
0.0
 71
     0
 42
0.4
  3
ITALIC
  4

  0
STYLE
  2
BYGG-027036$0$SYMBOL1
 70
     0
 40
0.0
 41
1.0
 50
0.0
 71
     0
 42
0.2
  3
SIMPLEX.SHX
  4

  0
STYLE
  2
BYGG-027036$0$MONOTXT
 70
     0
 40
0.2
 41
1.0
 50
0.0
 71
     0
 42
0.2
  3
MONOTXT
  4

  0
STYLE
  2
BYGG-027036$0$TIMES
 70
     0
 40
0.0
 41
1.0
 50
0.0
 71
     0
 42
100.0
  3
txt
  4

  0
STYLE
  2
BYGG-027036$0$ROMANS
 70
     0
 40
0.0
 41
1.0
 50
0.0
 71
     0
 42
5.0
  3
romans
  4

  0
STYLE
  2
BYGG-027036$0$SEACAD_ARIAL
 70
     0
 40
0.0
 41
1.0
 50
0.0
 71
     0
 42
0.2
  3
txt
  4

  0
STYLE
  2
BYGG-027036$0$ANNOTATIVE
 70
     0
 40
0.0
 41
1.0
 50
0.0
 71
     0
 42
0.2
  3
txt
  4

  0
STYLE
  2
BYGG-019610$0$STANDARD
 70
     0
 40
0.0
 41
1.0
 50
0.0
 71
     0
 42
0.2
  3
txt
  4

  0
STYLE
  2
BYGG-019610$0$ISO
 70
     0
 40
0.0
 41
1.0
 50
0.0
 71
     0
 42
3.5
  3
txt
  4

  0
STYLE
  2
BYGG-029021$0$STANDARD
 70
     0
 40
0.0
 41
1.0
 50
0.0
 71
     0
 42
0.2
  3
txt
  4

  0
STYLE
  2
BYGG-029021$0$ISO
 70
     0
 40
0.0
 41
1.0
 50
0.0
 71
     0
 42
3.5
  3
txt
  4

  0
STYLE
  2
BYGG-029021$0$ANNOTATION
 70
     0
 40
0.0
 41
1.0
 50
0.0
 71
     0
 42
0.2
  3
txt
  4

  0
STYLE
  2
BYGG-029021$0$COTATION
 70
     0
 40
0.0
 41
1.0
 50
0.0
 71
     0
 42
0.2
  3
txt
  4

  0
STYLE
  2
BYGG-029021$0$ANNOTATIVE
 70
     0
 40
0.0
 41
1.0
 50
0.0
 71
     0
 42
0.2
  3
txt
  4

  0
STYLE
  2
BYGG-024800$0$STANDARD
 70
     0
 40
0.0
 41
1.0
 50
0.0
 71
     0
 42
0.2
  3
txt
  4

  0
STYLE
  2
BYGG-024800$0$ISO
 70
     0
 40
0.0
 41
1.0
 50
0.0
 71
     0
 42
3.5
  3
txt
  4

  0
STYLE
  2
BYGG-024807$0$STANDARD
 70
     0
 40
0.0
 41
1.0
 50
0.0
 71
     0
 42
0.2
  3
txt
  4

  0
STYLE
  2
BYGG-024807$0$ISO
 70
     0
 40
0.0
 41
1.0
 50
0.0
 71
     0
 42
3.5
  3
txt
  4

  0
STYLE
  2
BYGG-024807$0$ANNOTATIVE
 70
     0
 40
0.0
 41
1.0
 50
0.0
 71
     0
 42
0.2
  3
txt
  4

  0
STYLE
  2
BYGG-01409101$0$STANDARD
 70
     0
 40
0.0
 41
1.0
 50
0.0
 71
     0
 42
0.4
  3
txt
  4

  0
STYLE
  2
BYGG-01409101$0$SIMPLEX
 70
     0
 40
0.0
 41
1.0
 50
0.0
 71
     0
 42
0.2
  3
simplex
  4

  0
STYLE
  2
BYGG-036634$0$STANDARD
 70
     0
 40
0.0
 41
1.0
 50
0.0
 71
     0
 42
0.2
  3
txt
  4

  0
STYLE
  2
BYGG-036634$0$ISO
 70
     0
 40
0.0
 41
1.0
 50
0.0
 71
     0
 42
3.5
  3
txt
  4

  0
STYLE
  2
BYGG-030601$0$STANDARD
 70
     0
 40
0.0
 41
1.0
 50
0.0
 71
     0
 42
0.2
  3
txt
  4

  0
STYLE
  2
BYGG-030601$0$ISO
 70
     0
 40
0.0
 41
1.0
 50
0.0
 71
     0
 42
3.5
  3
txt
  4

  0
STYLE
  2
BYGG-014090$0$STANDARD
 70
     0
 40
0.0
 41
1.0
 50
0.0
 71
     0
 42
0.2
  3
txt
  4

  0
STYLE
  2
BYGG-014090$0$SIMPLEX
 70
     0
 40
0.0
 41
1.0
 50
0.0
 71
     0
 42
0.2
  3
simplex
  4

  0
STYLE
  2
BYGG-01409301$0$STANDARD
 70
     0
 40
0.0
 41
1.0
 50
0.0
 71
     0
 42
0.4
  3
txt
  4

  0
STYLE
  2
BYGG-01409301$0$ANNOTATIVE
 70
     0
 40
0.0
 41
1.0
 50
0.0
 71
     0
 42
0.4
  3
txt
  4

  0
ENDTAB
  0
TABLE
  2
VIEW
 70
     0
  0
ENDTAB
  0
TABLE
  2
UCS
 70
     0
  0
ENDTAB
  0
TABLE
  2
APPID
 70
    52
  0
APPID
  2
ACAD
 70
     0
  0
APPID
  2
ACAD_DSTYLE_DIMTEXT_FILL
 70
     0
  0
APPID
  2
ACAD_DSTYLE_DIMEXT_LENGTH
 70
     0
  0
APPID
  2
ACAD_DSTYLE_DIMEXT_ENABLED
 70
     0
  0
APPID
  2
ACAD_DSTYLE_DIM_LINETYPE
 70
     0
  0
APPID
  2
ACAD_DSTYLE_DIM_EXT1_LINETYPE
 70
     0
  0
APPID
  2
ACAD_DSTYLE_DIM_EXT2_LINETYPE
 70
     0
  0
APPID
  2
ACAD_DSTYLE_DIMJOGGED_JOGA
 70
     0
  0
APPID
  2
ACAD_DSTYLE_DIMARC_LENGTH_
 70
     0
  0
APPID
  2
ACAD_PSEXT
 70
     0
  0
APPID
  2
ACAD_MLEADERVER
 70
     0
  0
APPID
  2
AME_SOL
 70
     0
  0
APPID
  2
AMG_ARCHIVE11
 70
     0
  0
APPID
  2
DCO15
 70
     0
  0
APPID
  2
ACAECLAYERSTANDARD
 70
     0
  0
APPID
  2
ACADANNOTATIVE
 70
     0
  0
APPID
  2
ACAD_EXEMPT_FROM_CAD_STANDARDS
 70
     0
  0
APPID
  2
ACDBDYNAMICBLOCKGUID
 70
     0
  0
APPID
  2
ACDBBLOCKREPETAG
 70
     0
  0
APPID
  2
ACAD_DSTYLE_DIMJAG
 70
     0
  0
APPID
  2
ACAD_DSTYLE_DIMTALN
 70
     0
  0
APPID
  2
RC_PROFILE
 70
     0
  0
APPID
  2
ACAUTHENVIRON
 70
     0
  0
APPID
  2
ACDBDYNAMICBLOCKTRUENAME
 70
     0
  0
APPID
  2
ACAD_NAV_VCDISPLAY
 70
     0
  0
APPID
  2
ACCMTRANSPARENCY
 70
     0
  0
APPID
  2
PE_URL
 70
     0
  0
APPID
  2
ACDBBLOCKREPBTAG
 70
     0
  0
APPID
  2
ACAD_DSTYLE_DIMRADIAL_EXTENSION
 70
     0
  0
APPID
  2
ACLAYERTOOLS
 70
     0
  0
APPID
  2
ACAD_OBJECT_CHANGE_GUID
 70
     0
  0
APPID
  2
AVE_RENDER
 70
     0
  0
APPID
  2
AVE_ENTITY_MATERIAL
 70
     0
  0
APPID
  2
AVE_FINISH
 70
     0
  0
APPID
  2
AVE_MATERIAL
 70
     0
  0
APPID
  2
AVE_GLOBAL
 70
     0
  0
APPID
  2
4M_RENDER
 70
     0
  0
APPID
  2
LIBMAN
 70
     0
  0
APPID
  2
AUTOBUILD
 70
     0
  0
APPID
  2
GRADIENTCOLOR1ACI
 70
     0
  0
APPID
  2
GRADIENTCOLOR2ACI
 70
     0
  0
APPID
  2
GENIUS_GENREC_14
 70
     0
  0
APPID
  2
GENIUS_GENOBJ-N-REC_13
 70
     0
  0
APPID
  2
GENIUS_GENODEF_13
 70
     0
  0
APPID
  2
GENIUS_GENTRA_14
 70
     0
  0
APPID
  2
GENIUS_GENOREF_13
 70
     0
  0
APPID
  2
GENIUS_GENSCREG_15
 70
     0
  0
APPID
  2
GENIUS_GENOBJ-N-SDF_13
 70
     0
  0
APPID
  2
ACADANNOPO
 70
     0
  0
APPID
  2
ACADBPTGRAPHNODEID
 70
     0
  0
APPID
  2
ACDBATTR
 70
     0
  0
APPID
  2
AEC_XDATA_BOUND_SPACE
 70
     0
  0
ENDTAB
  0
TABLE
  2
DIMSTYLE
 70
    48
  0
DIMSTYLE
  2
STANDARD
 70
     0
  3

  4

  5

  6

  7

 40
1.0
 41
0.18
 42
0.0625
 43
0.38
 44
0.18
 45
0.0
 46
0.0
 47
0.0
 48
0.0
140
0.18
141
0.09
142
0.0
143
25.399999999999999
144
1.0
145
0.0
146
1.0
147
0.09
 71
     0
 72
     0
 73
     1
 74
     1
 75
     0
 76
     0
 77
     0
 78
     0
170
     0
171
     2
172
     0
173
     0
174
     0
175
     0
176
     0
177
     0
178
     0
  0
DIMSTYLE
  2
MASKIN
 70
     0
  3

  4

  5

  6

  7

 40
0.0
 41
3.0
 42
1.5
 43
10.0
 44
1.5
 45
0.0
 46
0.0
 47
0.0
 48
0.0
140
3.0
141
-5.0
142
0.0
143
25.399999999999999
144
-1.0
145
0.0
146
1.0
147
1.0
 71
     0
 72
     0
 73
     0
 74
     0
 75
     0
 76
     0
 77
     1
 78
     8
170
     0
171
     0
172
     1
173
     0
174
     0
175
     0
176
   256
177
   256
178
     2
  0
DIMSTYLE
  2
BYGG-019434$0$STANDARD
 70
     0
  3

  4

  5

  6

  7

 40
1.0
 41
0.18
 42
0.0625
 43
0.38
 44
0.18
 45
0.0
 46
0.0
 47
0.0
 48
0.0
140
0.18
141
0.09
142
0.0
143
25.399999999999999
144
1.0
145
0.0
146
1.0
147
0.09
 71
     0
 72
     0
 73
     1
 74
     1
 75
     0
 76
     0
 77
     0
 78
     0
170
     0
171
     2
172
     0
173
     0
174
     0
175
     0
176
     0
177
     0
178
     0
  0
DIMSTYLE
  2
BYGG-019434$0$MASKIN
 70
     0
  3

  4

  5

  6

  7

 40
0.0
 41
3.0
 42
1.5
 43
10.0
 44
1.5
 45
0.0
 46
0.0
 47
0.0
 48
0.0
140
3.0
141
-5.0
142
0.0
143
25.399999999999999
144
-1.0
145
0.0
146
1.0
147
1.0
 71
     0
 72
     0
 73
     0
 74
     0
 75
     0
 76
     0
 77
     1
 78
     8
170
     0
171
     0
172
     1
173
     0
174
     0
175
     0
176
   256
177
   256
178
     2
  0
DIMSTYLE
  2
BYGG-01472602$0$STANDARD
 70
     0
  3

  4

  5

  6

  7

 40
1.0
 41
0.18
 42
0.0625
 43
0.38
 44
0.18
 45
0.0
 46
0.0
 47
0.0
 48
0.0
140
0.18
141
0.09
142
0.0
143
25.399999999999999
144
1.0
145
0.0
146
1.0
147
0.09
 71
     0
 72
     0
 73
     1
 74
     1
 75
     0
 76
     0
 77
     0
 78
     0
170
     0
171
     2
172
     0
173
     0
174
     0
175
     0
176
     0
177
     0
178
     0
  0
DIMSTYLE
  2
BYGG-01472602$0$MASKIN
 70
     0
  3

  4

  5

  6

  7

 40
0.0
 41
3.0
 42
1.5
 43
10.0
 44
1.5
 45
0.0
 46
0.0
 47
0.0
 48
0.0
140
3.0
141
-5.0
142
0.0
143
25.399999999999999
144
-1.0
145
0.0
146
1.0
147
1.0
 71
     0
 72
     0
 73
     0
 74
     1
 75
     0
 76
     0
 77
     1
 78
     8
170
     0
171
     0
172
     1
173
     0
174
     0
175
     0
176
   256
177
   256
178
     2
  0
DIMSTYLE
  2
BYGG-019437$0$STANDARD
 70
     0
  3

  4

  5

  6

  7

 40
1.0
 41
0.18
 42
0.0625
 43
0.38
 44
0.18
 45
0.0
 46
0.0
 47
0.0
 48
0.0
140
0.18
141
0.09
142
0.0
143
25.399999999999999
144
1.0
145
0.0
146
1.0
147
0.09
 71
     0
 72
     0
 73
     1
 74
     1
 75
     0
 76
     0
 77
     0
 78
     0
170
     0
171
     2
172
     0
173
     0
174
     0
175
     0
176
     0
177
     0
178
     0
  0
DIMSTYLE
  2
BYGG-019437$0$MASKIN
 70
     0
  3

  4

  5

  6

  7

 40
0.0
 41
3.0
 42
1.5
 43
10.0
 44
1.5
 45
0.0
 46
0.0
 47
0.0
 48
0.0
140
3.0
141
-5.0
142
0.0
143
25.399999999999999
144
-1.0
145
0.0
146
1.0
147
1.0
 71
     0
 72
     0
 73
     0
 74
     0
 75
     0
 76
     0
 77
     1
 78
     8
170
     0
171
     0
172
     1
173
     0
174
     0
175
     0
176
   256
177
   256
178
     2
  0
DIMSTYLE
  2
BYGG-019436$0$STANDARD
 70
     0
  3

  4

  5

  6

  7

 40
1.0
 41
0.18
 42
0.0625
 43
0.38
 44
0.18
 45
0.0
 46
0.0
 47
0.0
 48
0.0
140
0.18
141
0.09
142
0.0
143
25.399999999999999
144
1.0
145
0.0
146
1.0
147
0.09
 71
     0
 72
     0
 73
     1
 74
     1
 75
     0
 76
     0
 77
     0
 78
     0
170
     0
171
     2
172
     0
173
     0
174
     0
175
     0
176
     0
177
     0
178
     0
  0
DIMSTYLE
  2
BYGG-019436$0$MASKIN
 70
     0
  3

  4

  5

  6

  7

 40
0.0
 41
3.0
 42
1.5
 43
10.0
 44
1.5
 45
0.0
 46
0.0
 47
0.0
 48
0.0
140
3.0
141
-5.0
142
0.0
143
25.399999999999999
144
-1.0
145
0.0
146
1.0
147
1.0
 71
     0
 72
     0
 73
     0
 74
     0
 75
     0
 76
     0
 77
     1
 78
     8
170
     0
171
     0
172
     1
173
     0
174
     0
175
     0
176
   256
177
   256
178
     2
  0
DIMSTYLE
  2
BYGG-014353$0$MASKIN
 70
     0
  3

  4

  5

  6

  7

 40
0.0
 41
3.0
 42
1.5
 43
10.0
 44
1.5
 45
0.0
 46
0.0
 47
0.0
 48
0.0
140
3.0
141
-5.0
142
0.0
143
25.399999999999999
144
-1.0
145
0.0
146
1.0
147
1.0
 71
     0
 72
     0
 73
     0
 74
     0
 75
     0
 76
     0
 77
     1
 78
     8
170
     0
171
     0
172
     1
173
     0
174
     0
175
     0
176
   256
177
   256
178
   256
  0
DIMSTYLE
  2
BYGG-014014$0$STANDARD
 70
     0
  3

  4

  5

  6

  7

 40
1.0
 41
0.18
 42
0.0625
 43
0.38
 44
0.18
 45
0.0
 46
0.0
 47
0.0
 48
0.0
140
0.18
141
0.09
142
0.0
143
25.399999999999999
144
1.0
145
0.0
146
1.0
147
0.09
 71
     0
 72
     0
 73
     1
 74
     1
 75
     0
 76
     0
 77
     0
 78
     0
170
     0
171
     2
172
     0
173
     0
174
     0
175
     0
176
     0
177
     0
178
     0
  0
DIMSTYLE
  2
BYGG-033291$0$STANDARD
 70
     0
  3

  4

  5

  6

  7

 40
1.0
 41
0.18
 42
0.0625
 43
0.38
 44
0.18
 45
0.0
 46
0.0
 47
0.0
 48
0.0
140
0.18
141
0.09
142
0.0
143
25.399999999999999
144
1.0
145
0.0
146
1.0
147
0.09
 71
     0
 72
     0
 73
     1
 74
     1
 75
     0
 76
     0
 77
     0
 78
     0
170
     0
171
     2
172
     0
173
     0
174
     0
175
     0
176
     0
177
     0
178
     0
  0
DIMSTYLE
  2
BYGG-033291$0$MASKIN
 70
     0
  3

  4

  5

  6

  7

 40
0.0
 41
3.0
 42
1.5
 43
10.0
 44
1.5
 45
0.0
 46
0.0
 47
0.0
 48
0.0
140
3.0
141
-5.0
142
0.0
143
25.399999999999999
144
-1.0
145
0.0
146
1.0
147
1.0
 71
     0
 72
     0
 73
     0
 74
     0
 75
     0
 76
     0
 77
     1
 78
     8
170
     0
171
     0
172
     1
173
     0
174
     0
175
     0
176
   256
177
   256
178
     2
  0
DIMSTYLE
  2
BYGG-025060$0$MASKIN
 70
     0
  3

  4

  5

  6

  7

 40
0.0
 41
3.0
 42
1.5
 43
10.0
 44
1.5
 45
0.0
 46
0.0
 47
0.0
 48
0.0
140
3.0
141
-5.0
142
0.0
143
25.399999999999999
144
-1.0
145
0.0
146
1.0
147
1.0
 71
     0
 72
     0
 73
     0
 74
     0
 75
     0
 76
     0
 77
     1
 78
     8
170
     0
171
     0
172
     1
173
     0
174
     0
175
     0
176
   256
177
   256
178
     2
  0
DIMSTYLE
  2
BYGG-025060$0$STANDARD
 70
     0
  3

  4

  5

  6

  7

 40
1.0
 41
0.18
 42
0.0625
 43
0.38
 44
0.18
 45
0.0
 46
0.0
 47
0.0
 48
0.0
140
0.18
141
0.09
142
0.0
143
25.399999999999999
144
1.0
145
0.0
146
1.0
147
0.09
 71
     0
 72
     0
 73
     1
 74
     1
 75
     0
 76
     0
 77
     0
 78
     0
170
     0
171
     2
172
     0
173
     0
174
     0
175
     0
176
     0
177
     0
178
     0
  0
DIMSTYLE
  2
BYGG-012216$0$MASKIN
 70
     0
  3

  4

  5

  6

  7

 40
0.0
 41
3.0
 42
1.5
 43
10.0
 44
1.5
 45
0.0
 46
0.0
 47
0.0
 48
0.0
140
3.0
141
-5.0
142
0.0
143
25.399999999999999
144
-1.0
145
0.0
146
1.0
147
1.0
 71
     0
 72
     0
 73
     0
 74
     0
 75
     0
 76
     0
 77
     1
 78
     8
170
     0
171
     0
172
     1
173
     0
174
     0
175
     0
176
   256
177
   256
178
     2
  0
DIMSTYLE
  2
BYGG-012216$0$STANDARD
 70
     0
  3

  4

  5

  6

  7

 40
1.0
 41
0.18
 42
0.0625
 43
0.38
 44
0.18
 45
0.0
 46
0.0
 47
0.0
 48
0.0
140
0.18
141
0.09
142
0.0
143
25.399999999999999
144
1.0
145
0.0
146
1.0
147
0.09
 71
     0
 72
     0
 73
     1
 74
     1
 75
     0
 76
     0
 77
     0
 78
     0
170
     0
171
     2
172
     0
173
     0
174
     0
175
     0
176
     0
177
     0
178
     0
  0
DIMSTYLE
  2
BYGG-028980$0$STANDARD
 70
     0
  3

  4

  5

  6

  7

 40
1.0
 41
0.18
 42
0.0625
 43
0.38
 44
0.18
 45
0.0
 46
0.0
 47
0.0
 48
0.0
140
0.18
141
0.09
142
0.0
143
25.399999999999999
144
1.0
145
0.0
146
1.0
147
0.09
 71
     0
 72
     0
 73
     1
 74
     1
 75
     0
 76
     0
 77
     0
 78
     0
170
     0
171
     2
172
     0
173
     0
174
     0
175
     0
176
     0
177
     0
178
     0
  0
DIMSTYLE
  2
BYGG-028980$0$MASKIN
 70
     0
  3

  4

  5

  6

  7

 40
0.0
 41
3.0
 42
1.5
 43
10.0
 44
1.5
 45
0.0
 46
0.0
 47
0.0
 48
0.0
140
3.0
141
-5.0
142
0.0
143
25.399999999999999
144
-1.0
145
0.0
146
1.0
147
1.0
 71
     0
 72
     0
 73
     0
 74
     0
 75
     0
 76
     0
 77
     1
 78
     8
170
     0
171
     0
172
     1
173
     0
174
     0
175
     0
176
   256
177
   256
178
     2
  0
DIMSTYLE
  2
BYGG-033168$0$STANDARD
 70
     0
  3

  4

  5

  6

  7

 40
1.0
 41
0.18
 42
0.0625
 43
0.38
 44
0.18
 45
0.0
 46
0.0
 47
0.0
 48
0.0
140
0.18
141
0.09
142
0.0
143
25.399999999999999
144
1.0
145
0.0
146
1.0
147
0.09
 71
     0
 72
     0
 73
     1
 74
     1
 75
     0
 76
     0
 77
     0
 78
     0
170
     0
171
     2
172
     0
173
     0
174
     0
175
     0
176
     0
177
     0
178
     0
  0
DIMSTYLE
  2
BYGG-033168$0$MASKIN
 70
     0
  3

  4

  5

  6

  7

 40
0.0
 41
3.0
 42
1.5
 43
10.0
 44
1.5
 45
0.0
 46
0.0
 47
0.0
 48
0.0
140
3.0
141
-5.0
142
0.0
143
25.399999999999999
144
-1.0
145
0.0
146
1.0
147
1.0
 71
     0
 72
     0
 73
     0
 74
     0
 75
     0
 76
     0
 77
     1
 78
     8
170
     0
171
     0
172
     1
173
     0
174
     0
175
     0
176
   256
177
   256
178
     2
  0
DIMSTYLE
  2
BYGG-027036$0$STANDARD
 70
     0
  3

  4

  5

  6

  7

 40
1.0
 41
0.18
 42
0.0625
 43
0.38
 44
0.18
 45
0.0
 46
0.0
 47
0.0
 48
0.0
140
0.18
141
0.09
142
0.0
143
25.399999999999999
144
1.0
145
0.0
146
1.0
147
0.09
 71
     0
 72
     0
 73
     1
 74
     1
 75
     0
 76
     0
 77
     0
 78
     0
170
     0
171
     2
172
     0
173
     0
174
     0
175
     0
176
     0
177
     0
178
     0
  0
DIMSTYLE
  2
BYGG-027036$0$MASKIN
 70
     0
  3

  4

  5

  6

  7

 40
0.0
 41
3.0
 42
1.5
 43
10.0
 44
1.5
 45
0.0
 46
0.0
 47
0.0
 48
0.0
140
3.0
141
-5.0
142
0.0
143
25.399999999999999
144
-1.0
145
0.0
146
1.0
147
1.0
 71
     0
 72
     0
 73
     0
 74
     0
 75
     0
 76
     0
 77
     1
 78
     8
170
     0
171
     0
172
     1
173
     0
174
     0
175
     0
176
   256
177
   256
178
     2
  0
DIMSTYLE
  2
BYGG-027036$0$STANDARD$4
 70
     0
  3

  4

  5

  6

  7

 40
1.0
 41
2.5
 42
2.0
 43
3.75
 44
1.0
 45
0.0
 46
0.0
 47
0.0
 48
0.0
140
5.0
141
3.0
142
0.0
143
0.0394
144
1.0
145
1.0
146
1.0
147
1.0
 71
     0
 72
     0
 73
     1
 74
     0
 75
     0
 76
     0
 77
     1
 78
     8
170
     0
171
     2
172
     1
173
     0
174
     0
175
     0
176
     5
177
     5
178
     5
  0
DIMSTYLE
  2
BYGG-027036$0$STANDARD$2
 70
     0
  3

  4

  5

  6

  7

 40
1.0
 41
2.5
 42
2.0
 43
3.75
 44
1.0
 45
0.0
 46
0.0
 47
0.0
 48
0.0
140
5.0
141
3.0
142
0.0
143
0.0394
144
1.0
145
1.0
146
1.0
147
1.0
 71
     0
 72
     0
 73
     1
 74
     0
 75
     0
 76
     0
 77
     1
 78
     8
170
     0
171
     2
172
     1
173
     0
174
     0
175
     0
176
     5
177
     5
178
     5
  0
DIMSTYLE
  2
BYGG-027036$0$DMST_1
 70
     0
  3

  4

  5

  6

  7

 40
1.0
 41
0.3500000000000001
 42
0.0
 43
7.0
 44
0.2
 45
0.0
 46
0.0
 47
0.0
 48
0.0
140
0.3500000000000001
141
0.0
142
0.0
143
25.399999999999999
144
1.0
145
0.0
146
1.0
147
0.09
 71
     0
 72
     0
 73
     0
 74
     0
 75
     0
 76
     0
 77
     1
 78
     9
170
     0
171
     2
172
     0
173
     0
174
     0
175
     0
176
     1
177
     1
178
     2
  0
DIMSTYLE
  2
BYGG-027036$0$ANNOTATIVE
 70
     0
  3

  4

  5

  6

  7

 40
1.0
 41
0.18
 42
0.0625
 43
0.38
 44
0.18
 45
0.0
 46
0.0
 47
0.0
 48
0.0
140
0.18
141
0.09
142
0.0
143
25.399999999999999
144
1.0
145
0.0
146
1.0
147
0.09
 71
     0
 72
     0
 73
     1
 74
     1
 75
     0
 76
     0
 77
     0
 78
     0
170
     0
171
     2
172
     0
173
     0
174
     0
175
     0
176
     0
177
     0
178
     0
  0
DIMSTYLE
  2
BYGG-019610$0$STANDARD
 70
     0
  3

  4

  5

  6

  7

 40
1.0
 41
0.18
 42
0.0625
 43
0.38
 44
0.18
 45
0.0
 46
0.0
 47
0.0
 48
0.0
140
0.18
141
0.09
142
0.0
143
25.399999999999999
144
1.0
145
0.0
146
1.0
147
0.09
 71
     0
 72
     0
 73
     1
 74
     1
 75
     0
 76
     0
 77
     0
 78
     0
170
     0
171
     2
172
     0
173
     0
174
     0
175
     0
176
     0
177
     0
178
     0
  0
DIMSTYLE
  2
BYGG-019610$0$MASKIN
 70
     0
  3

  4

  5

  6

  7

 40
0.0
 41
3.0
 42
1.5
 43
10.0
 44
1.5
 45
0.0
 46
0.0
 47
0.0
 48
0.0
140
3.0
141
-5.0
142
0.0
143
25.399999999999999
144
-1.0
145
0.0
146
1.0
147
1.0
 71
     0
 72
     0
 73
     0
 74
     0
 75
     0
 76
     0
 77
     1
 78
     8
170
     0
171
     0
172
     1
173
     0
174
     0
175
     0
176
   256
177
   256
178
     2
  0
DIMSTYLE
  2
BYGG-029021$0$STANDARD
 70
     0
  3

  4

  5

  6

  7

 40
1.0
 41
0.18
 42
0.0625
 43
0.38
 44
0.18
 45
0.0
 46
0.0
 47
0.0
 48
0.0
140
0.18
141
0.09
142
0.0
143
25.399999999999999
144
1.0
145
0.0
146
1.0
147
0.09
 71
     0
 72
     0
 73
     1
 74
     1
 75
     0
 76
     0
 77
     0
 78
     0
170
     0
171
     2
172
     0
173
     0
174
     0
175
     0
176
     0
177
     0
178
     0
  0
DIMSTYLE
  2
BYGG-029021$0$MASKIN
 70
     0
  3

  4

  5

  6

  7

 40
0.0
 41
3.0
 42
1.5
 43
10.0
 44
1.5
 45
0.0
 46
0.0
 47
0.0
 48
0.0
140
3.0
141
-5.0
142
0.0
143
25.399999999999999
144
-1.0
145
0.0
146
1.0
147
1.0
 71
     0
 72
     0
 73
     0
 74
     0
 75
     0
 76
     0
 77
     1
 78
     8
170
     0
171
     0
172
     1
173
     0
174
     0
175
     0
176
   256
177
   256
178
     2
  0
DIMSTYLE
  2
BYGG-029021$0$MASKIN1
 70
     0
  3

  4

  5

  6

  7

 40
0.0
 41
3.0
 42
1.5
 43
10.0
 44
1.5
 45
0.0
 46
0.0
 47
0.0
 48
0.0
140
3.0
141
-5.0
142
0.0
143
25.399999999999999
144
-1.0
145
0.0
146
1.0
147
1.0
 71
     0
 72
     0
 73
     0
 74
     0
 75
     0
 76
     0
 77
     1
 78
     8
170
     0
171
     0
172
     1
173
     0
174
     0
175
     0
176
   256
177
   256
178
   256
  0
DIMSTYLE
  2
BYGG-029021$0$COTATION_HUT
 70
     0
  3

  4

  5

  6

  7

 40
1.0
 41
0.25
 42
0.1
 43
3.75
 44
0.18
 45
0.0
 46
0.0
 47
0.0
 48
0.0
140
0.25
141
2.5
142
0.0
143
25.399999999999999
144
1.0
145
0.05
146
0.7000000000000002
147
0.09
 71
     1
 72
     0
 73
     0
 74
     0
 75
     0
 76
     0
 77
     1
 78
     0
170
     0
171
     2
172
     1
173
     0
174
     0
175
     0
176
     0
177
     0
178
     0
  0
DIMSTYLE
  2
BYGG-029021$0$ANNOTATIVE
 70
     0
  3

  4

  5

  6

  7

 40
1.0
 41
0.18
 42
0.0625
 43
0.38
 44
0.18
 45
0.0
 46
0.0
 47
0.0
 48
0.0
140
0.18
141
0.09
142
0.0
143
25.399999999999999
144
1.0
145
0.0
146
1.0
147
0.09
 71
     0
 72
     0
 73
     1
 74
     1
 75
     0
 76
     0
 77
     0
 78
     0
170
     0
171
     2
172
     0
173
     0
174
     0
175
     0
176
     0
177
     0
178
     0
  0
DIMSTYLE
  2
BYGG-024800$0$MASKIN
 70
     0
  3

  4

  5

  6

  7

 40
0.0
 41
3.0
 42
1.5
 43
10.0
 44
1.5
 45
0.0
 46
0.0
 47
0.0
 48
0.0
140
3.0
141
-5.0
142
0.0
143
25.399999999999999
144
-1.0
145
0.0
146
1.0
147
1.0
 71
     0
 72
     0
 73
     0
 74
     0
 75
     0
 76
     0
 77
     1
 78
     8
170
     0
171
     0
172
     1
173
     0
174
     0
175
     0
176
   256
177
   256
178
     2
  0
DIMSTYLE
  2
BYGG-024800$0$STANDARD
 70
     0
  3

  4

  5

  6

  7

 40
1.0
 41
0.18
 42
0.0625
 43
0.38
 44
0.18
 45
0.0
 46
0.0
 47
0.0
 48
0.0
140
0.18
141
0.09
142
0.0
143
25.399999999999999
144
1.0
145
0.0
146
1.0
147
0.09
 71
     0
 72
     0
 73
     1
 74
     1
 75
     0
 76
     0
 77
     0
 78
     0
170
     0
171
     2
172
     0
173
     0
174
     0
175
     0
176
     0
177
     0
178
     0
  0
DIMSTYLE
  2
BYGG-024807$0$MASKIN
 70
     0
  3

  4

  5

  6

  7

 40
0.0
 41
3.0
 42
1.5
 43
10.0
 44
1.5
 45
0.0
 46
0.0
 47
0.0
 48
0.0
140
3.0
141
-5.0
142
0.0
143
25.399999999999999
144
-1.0
145
0.0
146
1.0
147
1.0
 71
     0
 72
     0
 73
     0
 74
     0
 75
     0
 76
     0
 77
     1
 78
     8
170
     0
171
     0
172
     1
173
     0
174
     0
175
     0
176
   256
177
   256
178
     2
  0
DIMSTYLE
  2
BYGG-024807$0$STANDARD
 70
     0
  3

  4

  5

  6

  7

 40
1.0
 41
0.18
 42
0.0625
 43
0.38
 44
0.18
 45
0.0
 46
0.0
 47
0.0
 48
0.0
140
0.18
141
0.09
142
0.0
143
25.399999999999999
144
1.0
145
0.0
146
1.0
147
0.09
 71
     0
 72
     0
 73
     1
 74
     1
 75
     0
 76
     0
 77
     0
 78
     0
170
     0
171
     2
172
     0
173
     0
174
     0
175
     0
176
     0
177
     0
178
     0
  0
DIMSTYLE
  2
BYGG-024807$0$ANNOTATIVE
 70
     0
  3

  4

  5

  6

  7

 40
1.0
 41
0.18
 42
0.0625
 43
0.38
 44
0.18
 45
0.0
 46
0.0
 47
0.0
 48
0.0
140
0.18
141
0.09
142
0.0
143
25.399999999999999
144
1.0
145
0.0
146
1.0
147
0.09
 71
     0
 72
     0
 73
     1
 74
     1
 75
     0
 76
     0
 77
     0
 78
     0
170
     0
171
     2
172
     0
173
     0
174
     0
175
     0
176
     0
177
     0
178
     0
  0
DIMSTYLE
  2
BYGG-01409101$0$STANDARD
 70
     0
  3

  4

  5

  6

  7

 40
1.0
 41
0.18
 42
0.0625
 43
0.38
 44
0.18
 45
0.0
 46
0.0
 47
0.0
 48
0.0
140
0.18
141
0.09
142
0.0
143
25.399999999999999
144
1.0
145
0.0
146
1.0
147
0.09
 71
     0
 72
     0
 73
     1
 74
     1
 75
     0
 76
     0
 77
     0
 78
     0
170
     0
171
     2
172
     0
173
     0
174
     0
175
     0
176
     0
177
     0
178
     0
  0
DIMSTYLE
  2
BYGG-036634$0$STANDARD
 70
     0
  3

  4

  5

  6

  7

 40
1.0
 41
0.18
 42
0.0625
 43
0.38
 44
0.18
 45
0.0
 46
0.0
 47
0.0
 48
0.0
140
0.18
141
0.09
142
0.0
143
25.399999999999999
144
1.0
145
0.0
146
1.0
147
0.09
 71
     0
 72
     0
 73
     1
 74
     1
 75
     0
 76
     0
 77
     0
 78
     0
170
     0
171
     2
172
     0
173
     0
174
     0
175
     0
176
     0
177
     0
178
     0
  0
DIMSTYLE
  2
BYGG-036634$0$MASKIN
 70
     0
  3

  4

  5

  6

  7

 40
0.0
 41
3.0
 42
1.5
 43
10.0
 44
1.5
 45
0.0
 46
0.0
 47
0.0
 48
0.0
140
3.0
141
-5.0
142
0.0
143
25.399999999999999
144
-1.0
145
0.0
146
1.0
147
1.0
 71
     0
 72
     0
 73
     0
 74
     0
 75
     0
 76
     0
 77
     1
 78
     8
170
     0
171
     0
172
     1
173
     0
174
     0
175
     0
176
   256
177
   256
178
     2
  0
DIMSTYLE
  2
BYGG-030601$0$STANDARD
 70
     0
  3

  4

  5

  6

  7

 40
1.0
 41
0.18
 42
0.0625
 43
0.38
 44
0.18
 45
0.0
 46
0.0
 47
0.0
 48
0.0
140
0.18
141
0.09
142
0.0
143
25.399999999999999
144
1.0
145
0.0
146
1.0
147
0.09
 71
     0
 72
     0
 73
     1
 74
     1
 75
     0
 76
     0
 77
     0
 78
     0
170
     0
171
     2
172
     0
173
     0
174
     0
175
     0
176
     0
177
     0
178
     0
  0
DIMSTYLE
  2
BYGG-030601$0$MASKIN
 70
     0
  3

  4

  5

  6

  7

 40
0.0
 41
3.0
 42
1.5
 43
10.0
 44
1.5
 45
0.0
 46
0.0
 47
0.0
 48
0.0
140
3.0
141
-5.0
142
0.0
143
25.399999999999999
144
-1.0
145
0.0
146
1.0
147
1.0
 71
     0
 72
     0
 73
     0
 74
     0
 75
     0
 76
     0
 77
     1
 78
     8
170
     0
171
     0
172
     1
173
     0
174
     0
175
     0
176
   256
177
   256
178
     2
  0
DIMSTYLE
  2
BYGG-014090$0$STANDARD
 70
     0
  3

  4

  5

  6

  7

 40
1.0
 41
0.18
 42
0.0625
 43
0.38
 44
0.18
 45
0.0
 46
0.0
 47
0.0
 48
0.0
140
0.18
141
0.09
142
0.0
143
25.399999999999999
144
1.0
145
0.0
146
1.0
147
0.09
 71
     0
 72
     0
 73
     1
 74
     1
 75
     0
 76
     0
 77
     0
 78
     0
170
     0
171
     2
172
     0
173
     0
174
     0
175
     0
176
     0
177
     0
178
     0
  0
DIMSTYLE
  2
BYGG-01409301$0$STANDARD
 70
     0
  3

  4

  5

  6

  7

 40
1.0
 41
0.18
 42
0.0625
 43
0.38
 44
0.18
 45
0.0
 46
0.0
 47
0.0
 48
0.0
140
0.18
141
0.09
142
0.0
143
25.399999999999999
144
1.0
145
0.0
146
1.0
147
0.09
 71
     0
 72
     0
 73
     1
 74
     1
 75
     0
 76
     0
 77
     0
 78
     0
170
     0
171
     2
172
     0
173
     0
174
     0
175
     0
176
     0
177
     0
178
     0
  0
DIMSTYLE
  2
BYGG-01409301$0$ANNOTATIVE
 70
     0
  3

  4

  5

  6

  7

 40
1.0
 41
0.18
 42
0.0625
 43
0.38
 44
0.18
 45
0.0
 46
0.0
 47
0.0
 48
0.0
140
0.18
141
0.09
142
0.0
143
25.399999999999999
144
1.0
145
0.0
146
1.0
147
0.09
 71
     0
 72
     0
 73
     1
 74
     1
 75
     0
 76
     0
 77
     0
 78
     0
170
     0
171
     2
172
     0
173
     0
174
     0
175
     0
176
     0
177
     0
178
     0
  0
ENDTAB
  0
ENDSEC
  0
SECTION
  2
BLOCKS
  0
BLOCK
  8
0
  2
$MODEL_SPACE
 70
     0
 10
0.0
 20
0.0
 30
0.0
  3
$MODEL_SPACE
  1

  0
ENDBLK
  5
37
  8
0
  0
BLOCK
 67
     1
  8
0
  2
$PAPER_SPACE
 70
     0
 10
0.0
 20
0.0
 30
0.0
  3
$PAPER_SPACE
  1

  0
ENDBLK
  5
35
 67
     1
  8
0
  0
BLOCK
  8
0
  2
BYGG-027036$0$RH
 70
     2
 10
0.0
 20
0.0
 30
0.0
  3
BYGG-027036$0$RH
  1

  0
ATTDEF
  5
1153
  8
BYGG-027036$0$KON
 10
11.0
 20
2.2999999999999989
 30
0.0
 40
0.4400000000000001
  1

  7
BYGG-027036$0$SIMPLEX
 72
     4
 11
11.0
 21
2.2999999999999989
 31
0.0
  3
Benämning
  2
BENÄMNING
 70
     0
  0
ATTDEF
  5
1155
  8
BYGG-027036$0$KON
 10
11.0
 20
1.5
 30
0.0
 40
0.4400000000000001
  1

  7
BYGG-027036$0$SIMPLEX
 72
     4
 11
11.0
 21
1.5
 31
0.0
  3
Gummi-hårdhet-färg
  2
GUMMI-HÅRDHET-FÄRG
 70
     0
  0
ATTDEF
  5
1156
  8
BYGG-027036$0$KON
 10
11.0
 20
0.7
 30
0.0
 40
0.4400000000000001
  1

  7
BYGG-027036$0$SIMPLEX
 72
     4
 11
11.0
 21
0.7
 31
0.0
  3
Kund
  2
KUND
 70
     0
  0
ATTDEF
  5
1157
  8
BYGG-027036$0$KON
 10
18.399999999999999
 20
0.8
 30
0.0
 40
0.4
  1

  7
BYGG-027036$0$SIMPLEX
 72
     4
 11
18.399999999999999
 21
0.8
 31
0.0
  3
Rit.Nr:
  2
RIT.NR:
 70
     0
  0
ATTDEF
  5
1158
  8
BYGG-027036$0$KON
 10
18.399999999999999
 20
3.2000000000000002
 30
0.0
 40
0.4
  1

  7
BYGG-027036$0$SIMPLEX
 72
     4
 11
18.399999999999999
 21
3.2000000000000002
 31
0.0
  3
Det.Nr:
  2
DET.NR:
 70
     0
  0
ATTDEF
  5
1159
  8
BYGG-027036$0$KON
 10
18.800000000000001
 20
2.0
 30
0.0
 40
0.4
  1

  7
BYGG-027036$0$SIMPLEX
 72
     4
 11
18.800000000000001
 21
2.0
 31
0.0
  3
Skala:
  2
SKALA:
 70
     1
  0
ATTDEF
  5
115A
  8
BYGG-027036$0$KON
 10
3.6000000000000001
 20
1.8999999999999999
 30
0.0
 40
0.3
  1

  7
BYGG-027036$0$SIMPLEX
 72
     4
 11
3.6000000000000001
 21
1.8999999999999999
 31
0.0
  3
Datum
  2
DATUM
 70
     0
  0
ATTDEF
  5
115B
  8
BYGG-027036$0$KON
 10
3.399999999999999
 20
0.9
 30
0.0
 40
0.4
  1

  7
BYGG-027036$0$SIMPLEX
 72
     4
 11
3.399999999999999
 21
0.9
 31
0.0
  3
Ritad av:
  2
RITAD:
 70
     1
  0
ATTDEF
  5
115C
  8
BYGG-027036$0$KON
 10
3.1999999999999988
 20
5.2999999999999989
 30
0.0
 40
0.4
  1

  7
BYGG-027036$0$SIMPLEX
  3
Säljare:
  2
SÄLJARE
 70
     1
  0
ENDBLK
  5
115D
  8
0
  0
BLOCK
  8
0
  2
*D105
 70
     1
 10
0.0
 20
0.0
 30
0.0
  3
*D105
  1

  0
LINE
  5
1747
  8
SAPA_MATT
 10
16.00000000000006
 20
-78.792893218811628
 30
0.0
 11
16.00000000000005
 21
-108.3138500465783
 31
0.0
  0
LINE
  5
1748
  8
SAPA_MATT
 10
-16.000000000000171
 20
-78.54644660940528
 30
0.0
 11
-16.000000000000171
 21
-108.3138500465783
 31
0.0
  0
LINE
  5
1749
  8
SAPA_MATT
 10
13.00000000000005
 20
-106.8138500465783
 30
0.0
 11
-13.000000000000171
 21
-106.8138500465783
 31
0.0
  0
SOLID
  5
174A
  8
SAPA_MATT
 10
13.00000000000005
 20
-106.3138500465783
 30
0.0
 11
13.00000000000005
 21
-107.3138500465783
 31
0.0
 12
16.00000000000005
 22
-106.8138500465783
 32
0.0
 13
16.00000000000005
 23
-106.8138500465783
 33
0.0
  0
SOLID
  5
174B
  8
SAPA_MATT
 10
-13.000000000000171
 20
-106.3138500465783
 30
0.0
 11
-13.000000000000171
 21
-107.3138500465783
 31
0.0
 12
-16.000000000000171
 22
-106.8138500465783
 32
0.0
 13
-16.000000000000171
 23
-106.8138500465783
 33
0.0
  0
INSERT
  5
174C
  8
0
  2
*U117
 10
0.0
 20
0.0
 30
0.0
  0
POINT
  5
174D
  8
DEFPOINTS
 62
     0
 10
16.00000000000006
 20
-77.292893218811628
 30
0.0
  0
POINT
  5
174E
  8
DEFPOINTS
 62
     0
 10
-16.000000000000171
 20
-77.04644660940528
 30
0.0
  0
POINT
  5
174F
  8
DEFPOINTS
 62
     0
 10
-16.000000000000171
 20
-106.8138500465783
 30
0.0
  0
ENDBLK
  5
16EE
  8
0
  0
BLOCK
  8
0
  2
*D106
 70
     1
 10
0.0
 20
0.0
 30
0.0
  3
*D106
  1

  0
LINE
  5
173E
  8
SAPA_MATT
 10
25.0
 20
65.499999999999488
 30
0.0
 11
25.0
 21
85.999999999999488
 31
0.0
  0
LINE
  5
173F
  8
SAPA_MATT
 10
-25.0
 20
65.499999999999488
 30
0.0
 11
-25.0
 21
85.999999999999488
 31
0.0
  0
LINE
  5
1740
  8
SAPA_MATT
 10
22.0
 20
84.499999999999488
 30
0.0
 11
-22.0
 21
84.499999999999488
 31
0.0
  0
SOLID
  5
1741
  8
SAPA_MATT
 10
22.0
 20
84.999999999999474
 30
0.0
 11
22.0
 21
83.999999999999474
 31
0.0
 12
25.0
 22
84.499999999999488
 32
0.0
 13
25.0
 23
84.499999999999488
 33
0.0
  0
SOLID
  5
1742
  8
SAPA_MATT
 10
-22.0
 20
84.999999999999474
 30
0.0
 11
-22.0
 21
83.999999999999474
 31
0.0
 12
-25.0
 22
84.499999999999488
 32
0.0
 13
-25.0
 23
84.499999999999488
 33
0.0
  0
INSERT
  5
1743
  8
0
  2
*U116
 10
0.0
 20
0.0
 30
0.0
  0
POINT
  5
1744
  8
DEFPOINTS
 62
     0
 10
25.0
 20
63.999999999999481
 30
0.0
  0
POINT
  5
1745
  8
DEFPOINTS
 62
     0
 10
-25.0
 20
63.999999999999481
 30
0.0
  0
POINT
  5
1746
  8
DEFPOINTS
 62
     0
 10
-25.0
 20
84.499999999999488
 30
0.0
  0
ENDBLK
  5
16FA
  8
0
  0
BLOCK
  8
0
  2
*D107
 70
     1
 10
0.0
 20
0.0
 30
0.0
  3
*D107
  1

  0
LINE
  5
2625
  8
SAPA_MATT
 10
-76.000000000001194
 20
-65.999946820781531
 30
0.0
 11
-76.000000000001194
 21
-108.3138500465783
 31
0.0
  0
LINE
  5
2626
  8
SAPA_MATT
 10
-81.000000000000995
 20
-70.849948021764106
 30
0.0
 11
-81.000000000000995
 21
-108.3138500465783
 31
0.0
  0
LINE
  5
2627
  8
SAPA_MATT
 10
-73.000000000001194
 20
-106.8138500465783
 30
0.0
 11
-70.000000000001194
 21
-106.8138500465783
 31
0.0
  0
LINE
  5
2628
  8
SAPA_MATT
 10
-84.000000000001009
 20
-106.8138500465783
 30
0.0
 11
-87.000000000000995
 21
-106.8138500465783
 31
0.0
  0
LINE
  5
2629
  8
SAPA_MATT
 10
-76.000000000001194
 20
-106.8138500465783
 30
0.0
 11
-81.000000000000995
 21
-106.8138500465783
 31
0.0
  0
SOLID
  5
262A
  8
SAPA_MATT
 10
-73.000000000001194
 20
-106.3138500465783
 30
0.0
 11
-73.000000000001194
 21
-107.3138500465783
 31
0.0
 12
-76.000000000001194
 22
-106.8138500465783
 32
0.0
 13
-76.000000000001194
 23
-106.8138500465783
 33
0.0
  0
SOLID
  5
262B
  8
SAPA_MATT
 10
-84.000000000001009
 20
-106.3138500465783
 30
0.0
 11
-84.000000000001009
 21
-107.3138500465783
 31
0.0
 12
-81.000000000000995
 22
-106.8138500465783
 32
0.0
 13
-81.000000000000995
 23
-106.8138500465783
 33
0.0
  0
TEXT
  8
SAPA_MATT
  40
3
  5
2641
  62
2
  72
0
  71
0
 10
-84.5000
 20
-109.624
 30
0.000000
  1
5
  7
ISO
  0
POINT
  5
262D
  8
DEFPOINTS
 62
     0
 10
-76.000000000001194
 20
-64.499946820781531
 30
0.0
  0
POINT
  5
262E
  8
DEFPOINTS
 62
     0
 10
-81.000000000000995
 20
-69.349948021764106
 30
0.0
  0
POINT
  5
262F
  8
DEFPOINTS
 62
     0
 10
-81.000000000000995
 20
-106.8138500465783
 30
0.0
  0
ENDBLK
  5
1706
  8
0
  0
BLOCK
  8
0
  2
*D108
 70
     1
 10
0.0
 20
0.0
 30
0.0
  3
*D108
  1

  0
LINE
  5
261C
  8
SAPA_MATT
 10
-81.000000000000995
 20
-70.849948021764106
 30
0.0
 11
-81.000000000000995
 21
-108.3138500465783
 31
0.0
  0
LINE
  5
261D
  8
SAPA_MATT
 10
-169.99999999978931
 20
-73.199947648272314
 30
0.0
 11
-169.99999999978931
 21
-108.3138500465783
 31
0.0
  0
LINE
  5
261E
  8
SAPA_MATT
 10
-84.000000000001009
 20
-106.8138500465783
 30
0.0
 11
-166.99999999978931
 21
-106.8138500465783
 31
0.0
  0
SOLID
  5
261F
  8
SAPA_MATT
 10
-84.000000000001009
 20
-106.3138500465783
 30
0.0
 11
-84.000000000001009
 21
-107.3138500465783
 31
0.0
 12
-81.000000000000995
 22
-106.8138500465783
 32
0.0
 13
-81.000000000000995
 23
-106.8138500465783
 33
0.0
  0
SOLID
  5
2620
  8
SAPA_MATT
 10
-166.99999999978931
 20
-106.3138500465783
 30
0.0
 11
-166.99999999978931
 21
-107.3138500465783
 31
0.0
 12
-169.99999999978931
 22
-106.8138500465783
 32
0.0
 13
-169.99999999978931
 23
-106.8138500465783
 33
0.0
  0
TEXT
  8
SAPA_MATT
  40
3
  5
2642
  62
2
  72
0
  71
0
 10
-131.500
 20
-109.624
 30
0.000000
  1
89
  7
ISO
  0
POINT
  5
2622
  8
DEFPOINTS
 62
     0
 10
-81.000000000000995
 20
-69.349948021764106
 30
0.0
  0
POINT
  5
2623
  8
DEFPOINTS
 62
     0
 10
-169.99999999978931
 20
-71.699947648272314
 30
0.0
  0
POINT
  5
2624
  8
DEFPOINTS
 62
     0
 10
-169.99999999978931
 20
-106.8138500465783
 30
0.0
  0
ENDBLK
  5
1714
  8
0
  0
BLOCK
  8
0
  2
*D109
 70
     1
 10
0.0
 20
0.0
 30
0.0
  3
*D109
  1

  0
LINE
  5
2630
  8
SAPA_MATT
 10
-16.000000000000171
 20
-78.54644660940528
 30
0.0
 11
-16.000000000000171
 21
-108.3138500465783
 31
0.0
  0
LINE
  5
2631
  8
SAPA_MATT
 10
-76.000000000001194
 20
-65.999946820781531
 30
0.0
 11
-76.000000000001194
 21
-108.3138500465783
 31
0.0
  0
LINE
  5
2632
  8
SAPA_MATT
 10
-19.000000000000171
 20
-106.8138500465783
 30
0.0
 11
-73.000000000001194
 21
-106.8138500465783
 31
0.0
  0
SOLID
  5
2633
  8
SAPA_MATT
 10
-19.000000000000171
 20
-106.3138500465783
 30
0.0
 11
-19.000000000000171
 21
-107.3138500465783
 31
0.0
 12
-16.000000000000171
 22
-106.8138500465783
 32
0.0
 13
-16.000000000000171
 23
-106.8138500465783
 33
0.0
  0
SOLID
  5
2634
  8
SAPA_MATT
 10
-73.000000000001194
 20
-106.3138500465783
 30
0.0
 11
-73.000000000001194
 21
-107.3138500465783
 31
0.0
 12
-76.000000000001194
 22
-106.8138500465783
 32
0.0
 13
-76.000000000001194
 23
-106.8138500465783
 33
0.0
  0
TEXT
  8
SAPA_MATT
  40
3
  5
2643
  62
2
  72
0
  71
0
 10
-52.0000
 20
-109.624
 30
0.000000
  1
60
  7
ISO
  0
POINT
  5
2636
  8
DEFPOINTS
 62
     0
 10
-16.000000000000171
 20
-77.04644660940528
 30
0.0
  0
POINT
  5
2637
  8
DEFPOINTS
 62
     0
 10
-76.000000000001194
 20
-64.499946820781531
 30
0.0
  0
POINT
  5
2638
  8
DEFPOINTS
 62
     0
 10
-76.000000000001194
 20
-106.8138500465783
 30
0.0
  0
ENDBLK
  5
1734
  8
0
  0
BLOCK
  8
0
  2
*U110
 70
     1
 10
0.0
 20
0.0
 30
0.0
  3
*U110
  1

  0
TEXT
  5
17B6
  8
SAPA_ARTIKELNR
 10
-5.7895021366381103
 20
-93.758745396285804
 30
0.0
 40
3.5
  1
42653
  7
ISO
  0
ENDBLK
  5
17B8
  8
0
  0
BLOCK
  8
0
  2
*U111
 70
     1
 10
0.0
 20
0.0
 30
0.0
  3
*U111
  1

  0
TEXT
  5
17BA
  8
SAPA_ARTIKELNR
 10
-5.7895021366381103
 20
67.057004625961554
 30
0.0
 40
3.5
  1
68281
  7
ISO
  0
ENDBLK
  5
17BC
  8
0
  0
BLOCK
  8
0
  2
*U112
 70
     1
 10
0.0
 20
0.0
 30
0.0
  3
*U112
  1

  0
TEXT
  5
17F2
  8
SAPA_ARTIKELNR
 10
-66.304870603386604
 20
19.947120488327901
 30
0.0
 40
3.5
  1
86423
  7
ISO
  0
ENDBLK
  5
17F4
  8
0
  0
BLOCK
  8
0
  2
*U113
 70
     1
 10
0.0
 20
0.0
 30
0.0
  3
*U113
  1

  0
TEXT
  5
17F6
  8
SAPA_ARTIKELNR
 10
-136.33035799216131
 20
19.947120488327901
 30
0.0
 40
3.5
  1
86424
  7
ISO
  0
ENDBLK
  5
17F8
  8
0
  0
BLOCK
  8
0
  2
*U114
 70
     1
 10
0.0
 20
0.0
 30
0.0
  3
*U114
  1

  0
SOLID
  5
1A6B
  8
SAPA_PROFIL
  6
CONTINUOUS
 62
     2
 10
-86.831507495362828
 20
-67.067340025555524
 30
0.1
 11
-87.008284190659467
 21
-67.140563330258885
 31
0.1
 12
-86.654730800066176
 22
-67.140563330258885
 32
0.1
 13
-86.654730800066176
 23
-67.140563330258885
 33
0.1
210
0.0
220
0.0
230
1.0
  0
SOLID
  5
1A6C
  8
SAPA_PROFIL
  6
CONTINUOUS
 62
     2
 10
-87.008284190659467
 20
-67.140563330258885
 30
0.1
 11
-87.081507495362828
 21
-67.317340025555524
 31
0.1
 12
-86.581507495362814
 22
-67.317340025555524
 32
0.1
 13
-86.581507495362814
 23
-67.317340025555524
 33
0.1
210
0.0
220
0.0
230
1.0
  0
SOLID
  5
1A6D
  8
SAPA_PROFIL
  6
CONTINUOUS
 62
     2
 10
87.008284190659467
 20
-67.140563330258885
 30
-0.1
 11
86.654730800066176
 21
-67.140563330258885
 31
-0.1
 12
86.581507495362814
 22
-67.317340025555524
 32
-0.1
 13
86.581507495362814
 23
-67.317340025555524
 33
-0.1
210
0.0
220
0.0
230
-1.0
  0
SOLID
  5
1A6E
  8
SAPA_PROFIL
  6
CONTINUOUS
 62
     2
 10
87.008284190659467
 20
-67.494116720852162
 30
-0.1
 11
86.654730800066176
 21
-67.494116720852162
 31
-0.1
 12
86.831507495362828
 22
-67.567340025555524
 32
-0.1
 13
86.831507495362828
 23
-67.567340025555524
 33
-0.1
210
0.0
220
0.0
230
-1.0
  0
SOLID
  5
1A6F
  8
SAPA_PROFIL
  6
CONTINUOUS
 62
     2
 10
-87.081507495362828
 20
-67.317340025555524
 30
0.1
 11
-87.008284190659467
 21
-67.494116720852162
 31
0.1
 12
-86.654730800066176
 22
-67.494116720852162
 32
0.1
 13
-86.654730800066176
 23
-67.494116720852162
 33
0.1
210
0.0
220
0.0
230
1.0
  0
SOLID
  5
1A70
  8
SAPA_PROFIL
  6
CONTINUOUS
 62
     2
 10
87.081507495362828
 20
-67.317340025555524
 30
-0.1
 11
86.581507495362814
 21
-67.317340025555524
 31
-0.1
 12
86.654730800066176
 22
-67.494116720852162
 32
-0.1
 13
86.654730800066176
 23
-67.494116720852162
 33
-0.1
210
0.0
220
0.0
230
-1.0
  0
LINE
  5
1A71
  8
SAPA_PROFIL
  6
CONTINUOUS
 62
     2
 10
-86.831507495362828
 20
-67.067340025555524
 30
0.1
 11
-87.008284190659467
 21
-67.140563330258885
 31
0.1
  0
LINE
  5
1A72
  8
SAPA_PROFIL
  6
CONTINUOUS
 62
     2
 10
-86.654730800066176
 20
-67.140563330258885
 30
0.1
 11
-86.831507495362828
 21
-67.067340025555524
 31
0.1
  0
LINE
  5
1A73
  8
SAPA_PROFIL
  6
CONTINUOUS
 62
     2
 10
-87.008284190659467
 20
-67.140563330258885
 30
0.1
 11
-87.081507495362828
 21
-67.317340025555524
 31
0.1
  0
LINE
  5
1A74
  8
SAPA_PROFIL
  6
CONTINUOUS
 62
     2
 10
-86.654730800066176
 20
-67.140563330258885
 30
0.1
 11
-86.581507495362814
 21
-67.317340025555524
 31
0.1
  0
LINE
  5
1A75
  8
SAPA_PROFIL
  6
CONTINUOUS
 62
     2
 10
-86.654730800066176
 20
-67.494116720852162
 30
0.1
 11
-86.831507495362828
 21
-67.567340025555524
 31
0.1
  0
LINE
  5
1A76
  8
SAPA_PROFIL
  6
CONTINUOUS
 62
     2
 10
-86.831507495362828
 20
-67.567340025555524
 30
0.1
 11
-87.008284190659467
 21
-67.494116720852162
 31
0.1
  0
LINE
  5
1A77
  8
SAPA_PROFIL
  6
CONTINUOUS
 62
     2
 10
-87.081507495362828
 20
-67.317340025555524
 30
0.1
 11
-87.008284190659467
 21
-67.494116720852162
 31
0.1
  0
LINE
  5
1A78
  8
SAPA_PROFIL
  6
CONTINUOUS
 62
     2
 10
-86.581507495362814
 20
-67.317340025555524
 30
0.1
 11
-86.654730800066176
 21
-67.494116720852162
 31
0.1
  0
ENDBLK
  5
1A7A
  8
0
  0
BLOCK
  8
0
  2
*U115
 70
     1
 10
0.0
 20
0.0
 30
0.0
  3
*U115
  1

  0
SOLID
  5
2044
  8
SAPA_PROFIL
  6
CONTINUOUS
 62
     2
 10
-86.831507495362828
 20
-67.067340025555524
 30
0.1
 11
-87.008284190659467
 21
-67.140563330258885
 31
0.1
 12
-86.654730800066176
 22
-67.140563330258885
 32
0.1
 13
-86.654730800066176
 23
-67.140563330258885
 33
0.1
210
0.0
220
0.0
230
1.0
  0
SOLID
  5
2045
  8
SAPA_PROFIL
  6
CONTINUOUS
 62
     2
 10
-87.008284190659467
 20
-67.140563330258885
 30
0.1
 11
-87.081507495362828
 21
-67.317340025555524
 31
0.1
 12
-86.581507495362814
 22
-67.317340025555524
 32
0.1
 13
-86.581507495362814
 23
-67.317340025555524
 33
0.1
210
0.0
220
0.0
230
1.0
  0
SOLID
  5
2046
  8
SAPA_PROFIL
  6
CONTINUOUS
 62
     2
 10
87.008284190659467
 20
-67.140563330258885
 30
-0.1
 11
86.654730800066176
 21
-67.140563330258885
 31
-0.1
 12
86.581507495362814
 22
-67.317340025555524
 32
-0.1
 13
86.581507495362814
 23
-67.317340025555524
 33
-0.1
210
0.0
220
0.0
230
-1.0
  0
SOLID
  5
2047
  8
SAPA_PROFIL
  6
CONTINUOUS
 62
     2
 10
87.008284190659467
 20
-67.494116720852162
 30
-0.1
 11
86.654730800066176
 21
-67.494116720852162
 31
-0.1
 12
86.831507495362828
 22
-67.567340025555524
 32
-0.1
 13
86.831507495362828
 23
-67.567340025555524
 33
-0.1
210
0.0
220
0.0
230
-1.0
  0
SOLID
  5
2048
  8
SAPA_PROFIL
  6
CONTINUOUS
 62
     2
 10
-87.081507495362828
 20
-67.317340025555524
 30
0.1
 11
-87.008284190659467
 21
-67.494116720852162
 31
0.1
 12
-86.654730800066176
 22
-67.494116720852162
 32
0.1
 13
-86.654730800066176
 23
-67.494116720852162
 33
0.1
210
0.0
220
0.0
230
1.0
  0
SOLID
  5
2049
  8
SAPA_PROFIL
  6
CONTINUOUS
 62
     2
 10
87.081507495362828
 20
-67.317340025555524
 30
-0.1
 11
86.581507495362814
 21
-67.317340025555524
 31
-0.1
 12
86.654730800066176
 22
-67.494116720852162
 32
-0.1
 13
86.654730800066176
 23
-67.494116720852162
 33
-0.1
210
0.0
220
0.0
230
-1.0
  0
LINE
  5
204A
  8
SAPA_PROFIL
  6
CONTINUOUS
 62
     2
 10
-86.831507495362828
 20
-67.067340025555524
 30
0.1
 11
-87.008284190659467
 21
-67.140563330258885
 31
0.1
  0
LINE
  5
204B
  8
SAPA_PROFIL
  6
CONTINUOUS
 62
     2
 10
-86.654730800066176
 20
-67.140563330258885
 30
0.1
 11
-86.831507495362828
 21
-67.067340025555524
 31
0.1
  0
LINE
  5
204C
  8
SAPA_PROFIL
  6
CONTINUOUS
 62
     2
 10
-87.008284190659467
 20
-67.140563330258885
 30
0.1
 11
-87.081507495362828
 21
-67.317340025555524
 31
0.1
  0
LINE
  5
204D
  8
SAPA_PROFIL
  6
CONTINUOUS
 62
     2
 10
-86.654730800066176
 20
-67.140563330258885
 30
0.1
 11
-86.581507495362814
 21
-67.317340025555524
 31
0.1
  0
LINE
  5
204E
  8
SAPA_PROFIL
  6
CONTINUOUS
 62
     2
 10
-86.654730800066176
 20
-67.494116720852162
 30
0.1
 11
-86.831507495362828
 21
-67.567340025555524
 31
0.1
  0
LINE
  5
204F
  8
SAPA_PROFIL
  6
CONTINUOUS
 62
     2
 10
-86.831507495362828
 20
-67.567340025555524
 30
0.1
 11
-87.008284190659467
 21
-67.494116720852162
 31
0.1
  0
LINE
  5
2050
  8
SAPA_PROFIL
  6
CONTINUOUS
 62
     2
 10
-87.081507495362828
 20
-67.317340025555524
 30
0.1
 11
-87.008284190659467
 21
-67.494116720852162
 31
0.1
  0
LINE
  5
2051
  8
SAPA_PROFIL
  6
CONTINUOUS
 62
     2
 10
-86.581507495362814
 20
-67.317340025555524
 30
0.1
 11
-86.654730800066176
 21
-67.494116720852162
 31
0.1
  0
ENDBLK
  5
2053
  8
0
  0
BLOCK
  8
0
  2
*U116
 70
     1
 10
0.0
 20
0.0
 30
0.0
  3
*U116
  1

  0
TEXT
  5
263A
  8
SAPA_MATT
 62
     2
 10
-2.0999999999999992
 20
85.499999999999488
 30
0.0
 40
3.0
  1
50
  7
ISO
  0
ENDBLK
  5
263C
  8
0
  0
BLOCK
  8
0
  2
*U117
 70
     1
 10
0.0
 20
0.0
 30
0.0
  3
*U117
  1

  0
TEXT
  5
263E
  8
SAPA_MATT
 62
     2
 10
-2.10000000000006
 20
-105.8138500465783
 30
0.0
 40
3.0
  1
32
  7
ISO
  0
ENDBLK
  5
2640
  8
0
  0
ENDSEC
  0
SECTION
  2
ENTITIES
  0
POLYLINE
  5
6FC
  8
SAPA_LIGHT
 66
     1
 10
0.0
 20
0.0
 30
0.0
  0
VERTEX
  5
17B0
  8
SAPA_LIGHT
 10
40.999999999999773
 20
-72.499999999998636
 30
0.0
  0
VERTEX
  5
17B1
  8
SAPA_LIGHT
 10
10.999999999999771
 20
-72.499999999998636
 30
0.0
  0
VERTEX
  5
17B2
  8
SAPA_LIGHT
 10
10.999999999999771
 20
-45.499999999998629
 30
0.0
  0
VERTEX
  5
17B3
  8
SAPA_LIGHT
 10
40.999999999999773
 20
-45.499999999998629
 30
0.0
  0
SEQEND
  5
17B4
  8
SAPA_LIGHT
  0
INSERT
  5
708
  8
0
  2
*U110
 10
0.0
 20
0.0
 30
0.0
  0
INSERT
  5
709
  8
0
  2
*U111
 10
0.0
 20
0.0
 30
0.0
  0
POLYLINE
  5
A58
  8
SAPA_LIGHT
 66
     1
 10
0.0
 20
0.0
 30
0.0
  0
VERTEX
  5
17BD
  8
SAPA_LIGHT
 10
-183.00000000000119
 20
-63.249947679035238
 30
0.0
  0
VERTEX
  5
17BE
  8
SAPA_LIGHT
 10
-153.00000000000119
 20
-63.249947679035238
 30
0.0
  0
VERTEX
  5
17BF
  8
SAPA_LIGHT
 10
-153.00000000000111
 20
-36.249947679035252
 30
0.0
  0
VERTEX
  5
17C0
  8
SAPA_LIGHT
 10
-183.00000000000119
 20
-36.249947679035252
 30
0.0
  0
SEQEND
  5
17C1
  8
SAPA_LIGHT
  0
POLYLINE
  5
AAC
  8
SAPA_LIGHT
 66
     1
 10
0.0
 20
0.0
 30
0.0
  0
VERTEX
  5
17C2
  8
SAPA_LIGHT
 10
-31.00000000000119
 20
1.800052393359806
 30
0.0
  0
VERTEX
  5
17C3
  8
SAPA_LIGHT
 10
-170.00000000001481
 20
1.800052393359806
 30
0.0
  0
VERTEX
  5
17C4
  8
SAPA_LIGHT
 10
-170.00000000001481
 20
-36.249947679035252
 30
0.0
  0
VERTEX
  5
17C5
  8
SAPA_LIGHT
 10
-148.7887370868213
 20
-36.249947679035238
 30
0.0
  0
VERTEX
  5
17C6
  8
SAPA_LIGHT
 10
-148.78873708682141
 20
-67.749947649157491
 30
0.0
  0
VERTEX
  5
17C7
  8
SAPA_LIGHT
 10
-170.00000000000131
 20
-67.749947649157519
 30
0.0
  0
VERTEX
  5
17C8
  8
SAPA_LIGHT
 10
-170.00000000000139
 20
-72.199947648243267
 30
0.0
  0
VERTEX
  5
17C9
  8
SAPA_LIGHT
 10
-9.0000000001066951
 20
-72.199947648243196
 30
0.0
  0
VERTEX
  5
17CA
  8
SAPA_LIGHT
 10
-9.0000000001066969
 20
-46.853932708651541
 30
0.0
  0
VERTEX
  5
17CB
  8
SAPA_LIGHT
 10
-31.00000000000119
 20
-46.853932708651541
 30
0.0
  0
VERTEX
  5
17CC
  8
SAPA_LIGHT
 10
-31.00000000000119
 20
1.800052393359806
 30
0.0
  0
SEQEND
  5
17CD
  8
SAPA_LIGHT
  0
POLYLINE
  5
AE6
  8
SAPA_LIGHT
 66
     1
 10
0.0
 20
0.0
 30
0.0
 70
     1
  0
VERTEX
  5
17CE
  8
SAPA_LIGHT
 10
5.0000000000003411
 20
-72.499999999998636
 30
0.0
  0
VERTEX
  5
17CF
  8
SAPA_LIGHT
 10
5.0000000000003411
 20
-45.499999999998629
 30
0.0
  0
VERTEX
  5
17D0
  8
SAPA_LIGHT
 10
25.00000000000103
 20
-45.499999999998629
 30
0.0
  0
VERTEX
  5
17D1
  8
SAPA_LIGHT
 10
25.0
 20
64.499999999999474
 30
0.0
  0
VERTEX
  5
17D2
  8
SAPA_LIGHT
 10
-25.0
 20
64.499999999999446
 30
0.0
  0
VERTEX
  5
17D3
  8
SAPA_LIGHT
 10
-25.0
 20
-46.853932708651541
 30
0.0
  0
VERTEX
  5
17D4
  8
SAPA_LIGHT
 10
-4.9999999999999698
 20
-46.853932708651541
 30
0.0
  0
VERTEX
  5
17D5
  8
SAPA_LIGHT
 10
-4.9999999999999698
 20
-72.499999999998636
 30
0.0
  0
VERTEX
  5
17D6
  8
SAPA_LIGHT
 10
-16.000000000000401
 20
-72.499999999998636
 30
0.0
  0
VERTEX
  5
17D7
  8
SAPA_LIGHT
 10
-16.000000000000369
 20
-88.499999999998636
 30
0.0
  0
VERTEX
  5
17D8
  8
SAPA_LIGHT
 10
15.96193976625562
 20
-88.499999999998636
 30
0.0
  0
VERTEX
  5
17D9
  8
SAPA_LIGHT
 10
15.96193976625565
 20
-72.499999999998636
 30
0.0
  0
SEQEND
  5
17DA
  8
SAPA_LIGHT
  0
INSERT
  5
E60
  8
0
  2
*U112
 10
0.0
 20
0.0
 30
0.0
  0
INSERT
  5
E61
  8
0
  2
*U113
 10
0.0
 20
0.0
 30
0.0
  0
INSERT
  5
14A7
  8
BYGG-027036$0$KON
 66
     1
  2
BYGG-027036$0$RH
 10
-559.98359050052272
 20
-386.93657317286142
 30
0.0
 50
180.0
  0
ATTRIB
  5
14A8
  8
BYGG-027036$0$KON
 10
-563.18359050052266
 20
-392.23657317286131
 30
0.0
 40
0.4
  1
GGFJ
 50
180.0
  7
BYGG-027036$0$SIMPLEX
  2
SÄLJARE
 70
     1
  0
ATTRIB
  5
14A9
  8
BYGG-027036$0$KON
 10
-563.58359050052275
 20
-388.83657317286128
 30
0.0
 40
0.3
  1

 50
180.0
  7
BYGG-027036$0$SIMPLEX
 72
     4
 11
-563.58359050052275
 21
-388.83657317286128
 31
0.0
  2
DATUM
 70
     0
  0
ATTRIB
  5
14AA
  8
BYGG-027036$0$KON
 10
-563.38359050052259
 20
-387.83657317286128
 30
0.0
 40
0.4
  1

 50
180.0
  7
BYGG-027036$0$SIMPLEX
 72
     4
 11
-563.38359050052259
 21
-387.83657317286128
 31
0.0
  2
RITAD:
 70
     1
  0
ATTRIB
  5
14AB
  8
BYGG-027036$0$KON
 10
-570.98359050052272
 20
-389.23657317286131
 30
0.0
 40
0.4400000000000001
  1

 50
180.0
  7
BYGG-027036$0$SIMPLEX
 72
     4
 11
-570.98359050052272
 21
-389.23657317286131
 31
0.0
  2
BENÄMNING
 70
     0
  0
ATTRIB
  5
14AC
  8
BYGG-027036$0$KON
 10
-570.98359050052272
 20
-388.43657317286142
 30
0.0
 40
0.4400000000000001
  1

 50
180.0
  7
BYGG-027036$0$SIMPLEX
 72
     4
 11
-570.98359050052272
 21
-388.43657317286142
 31
0.0
  2
GUMMI-HÅRDHET-FÄRG
 70
     0
  0
ATTRIB
  5
14AD
  8
BYGG-027036$0$KON
 10
-570.98359050052272
 20
-387.63657317286129
 30
0.0
 40
0.4400000000000001
  1

 50
180.0
  7
BYGG-027036$0$SIMPLEX
 72
     4
 11
-570.98359050052272
 21
-387.63657317286129
 31
0.0
  2
KUND
 70
     0
  0
ATTRIB
  5
14AE
  8
BYGG-027036$0$KON
 10
-578.78359050052256
 20
-388.93657317286142
 30
0.0
 40
0.4
  1

 50
180.0
  7
BYGG-027036$0$SIMPLEX
 72
     4
 11
-578.78359050052256
 21
-388.93657317286142
 31
0.0
  2
SKALA:
 70
     1
  0
ATTRIB
  5
14AF
  8
BYGG-027036$0$KON
 10
-578.3835905005227
 20
-387.73657317286131
 30
0.0
 40
0.4
  1

 50
180.0
  7
BYGG-027036$0$SIMPLEX
 72
     4
 11
-578.3835905005227
 21
-387.73657317286131
 31
0.0
  2
RIT.NR:
 70
     0
  0
ATTRIB
  5
14B0
  8
BYGG-027036$0$KON
 10
-578.3835905005227
 20
-390.13657317286129
 30
0.0
 40
0.4
  1

 50
180.0
  7
BYGG-027036$0$SIMPLEX
 72
     4
 11
-578.3835905005227
 21
-390.13657317286129
 31
0.0
  2
DET.NR:
 70
     0
  0
SEQEND
  5
14B1
  8
BYGG-027036$0$KON
  0
INSERT
  5
14B2
  8
BYGG-027036$0$KON
 66
     1
  2
BYGG-027036$0$RH
 10
-559.98359050052272
 20
-386.93657317286142
 30
0.0
 50
180.0
  0
ATTRIB
  5
14B3
  8
BYGG-027036$0$KON
 10
-570.98359050052272
 20
-389.23657317286131
 30
0.0
 40
0.4400000000000001
  1

 50
180.0
  7
BYGG-027036$0$SIMPLEX
 72
     4
 11
-570.98359050052272
 21
-389.23657317286131
 31
0.0
  2
BENÄMNING
 70
     0
  0
ATTRIB
  5
14B4
  8
BYGG-027036$0$KON
 10
-570.98359050052272
 20
-388.43657317286142
 30
0.0
 40
0.4400000000000001
  1

 50
180.0
  7
BYGG-027036$0$SIMPLEX
 72
     4
 11
-570.98359050052272
 21
-388.43657317286142
 31
0.0
  2
GUMMI-HÅRDHET-FÄRG
 70
     0
  0
ATTRIB
  5
14B5
  8
BYGG-027036$0$KON
 10
-570.98359050052272
 20
-387.63657317286129
 30
0.0
 40
0.4400000000000001
  1

 50
180.0
  7
BYGG-027036$0$SIMPLEX
 72
     4
 11
-570.98359050052272
 21
-387.63657317286129
 31
0.0
  2
KUND
 70
     0
  0
ATTRIB
  5
14B6
  8
BYGG-027036$0$KON
 10
-578.3835905005227
 20
-387.73657317286131
 30
0.0
 40
0.4
  1

 50
180.0
  7
BYGG-027036$0$SIMPLEX
 72
     4
 11
-578.3835905005227
 21
-387.73657317286131
 31
0.0
  2
RIT.NR:
 70
     0
  0
ATTRIB
  5
14B7
  8
BYGG-027036$0$KON
 10
-578.3835905005227
 20
-390.13657317286129
 30
0.0
 40
0.4
  1

 50
180.0
  7
BYGG-027036$0$SIMPLEX
 72
     4
 11
-578.3835905005227
 21
-390.13657317286129
 31
0.0
  2
DET.NR:
 70
     0
  0
ATTRIB
  5
14B8
  8
BYGG-027036$0$KON
 10
-578.78359050052256
 20
-388.93657317286142
 30
0.0
 40
0.4
  1

 50
180.0
  7
BYGG-027036$0$SIMPLEX
 72
     4
 11
-578.78359050052256
 21
-388.93657317286142
 31
0.0
  2
SKALA:
 70
     1
  0
ATTRIB
  5
14B9
  8
BYGG-027036$0$KON
 10
-563.58359050052275
 20
-388.83657317286128
 30
0.0
 40
0.3
  1

 50
180.0
  7
BYGG-027036$0$SIMPLEX
 72
     4
 11
-563.58359050052275
 21
-388.83657317286128
 31
0.0
  2
DATUM
 70
     0
  0
ATTRIB
  5
14BA
  8
BYGG-027036$0$KON
 10
-563.38359050052259
 20
-387.83657317286128
 30
0.0
 40
0.4
  1

 50
180.0
  7
BYGG-027036$0$SIMPLEX
 72
     4
 11
-563.38359050052259
 21
-387.83657317286128
 31
0.0
  2
RITAD:
 70
     1
  0
ATTRIB
  5
14BB
  8
BYGG-027036$0$KON
 10
-563.18359050052266
 20
-392.23657317286131
 30
0.0
 40
0.4
  1

 50
180.0
  7
BYGG-027036$0$SIMPLEX
  2
SÄLJARE
 70
     1
  0
SEQEND
  5
14BC
  8
BYGG-027036$0$KON
  0
INSERT
  5
14BD
  8
BYGG-027036$0$DIM
 66
     1
  2
BYGG-027036$0$RH
 10
-559.98359050052272
 20
-386.93657317286142
 30
0.0
 50
180.0
  0
ATTRIB
  5
14BE
  8
BYGG-027036$0$KON
 10
-570.98359050052272
 20
-389.23657317286131
 30
0.0
 40
0.4400000000000001
  1

 50
180.0
  7
BYGG-027036$0$SIMPLEX
 72
     4
 11
-570.98359050052272
 21
-389.23657317286131
 31
0.0
  2
BENÄMNING
 70
     0
  0
ATTRIB
  5
14BF
  8
BYGG-027036$0$KON
 10
-570.98359050052272
 20
-388.43657317286142
 30
0.0
 40
0.4400000000000001
  1

 50
180.0
  7
BYGG-027036$0$SIMPLEX
 72
     4
 11
-570.98359050052272
 21
-388.43657317286142
 31
0.0
  2
GUMMI-HÅRDHET-FÄRG
 70
     0
  0
ATTRIB
  5
14C0
  8
BYGG-027036$0$KON
 10
-570.98359050052272
 20
-387.63657317286129
 30
0.0
 40
0.4400000000000001
  1

 50
180.0
  7
BYGG-027036$0$SIMPLEX
 72
     4
 11
-570.98359050052272
 21
-387.63657317286129
 31
0.0
  2
KUND
 70
     0
  0
ATTRIB
  5
14C1
  8
BYGG-027036$0$KON
 10
-578.3835905005227
 20
-387.73657317286131
 30
0.0
 40
0.4
  1

 50
180.0
  7
BYGG-027036$0$SIMPLEX
 72
     4
 11
-578.3835905005227
 21
-387.73657317286131
 31
0.0
  2
RIT.NR:
 70
     0
  0
ATTRIB
  5
14C2
  8
BYGG-027036$0$KON
 10
-578.3835905005227
 20
-390.13657317286129
 30
0.0
 40
0.4
  1

 50
180.0
  7
BYGG-027036$0$SIMPLEX
 72
     4
 11
-578.3835905005227
 21
-390.13657317286129
 31
0.0
  2
DET.NR:
 70
     0
  0
ATTRIB
  5
14C3
  8
BYGG-027036$0$KON
 10
-578.78359050052256
 20
-388.93657317286142
 30
0.0
 40
0.4
  1

 50
180.0
  7
BYGG-027036$0$SIMPLEX
 72
     4
 11
-578.78359050052256
 21
-388.93657317286142
 31
0.0
  2
SKALA:
 70
     1
  0
ATTRIB
  5
14C4
  8
BYGG-027036$0$KON
 10
-563.58359050052275
 20
-388.83657317286128
 30
0.0
 40
0.3
  1

 50
180.0
  7
BYGG-027036$0$SIMPLEX
 72
     4
 11
-563.58359050052275
 21
-388.83657317286128
 31
0.0
  2
DATUM
 70
     0
  0
ATTRIB
  5
14C5
  8
BYGG-027036$0$KON
 10
-563.38359050052259
 20
-387.83657317286128
 30
0.0
 40
0.4
  1

 50
180.0
  7
BYGG-027036$0$SIMPLEX
 72
     4
 11
-563.38359050052259
 21
-387.83657317286128
 31
0.0
  2
RITAD:
 70
     1
  0
ATTRIB
  5
14C6
  8
BYGG-027036$0$KON
 10
-563.18359050052266
 20
-392.23657317286131
 30
0.0
 40
0.4
  1

 50
180.0
  7
BYGG-027036$0$SIMPLEX
  2
SÄLJARE
 70
     1
  0
SEQEND
  5
14C7
  8
BYGG-027036$0$DIM
  0
CIRCLE
  5
164D
  8
SAPA_PROFIL
 62
     2
 10
-166.66796481167279
 20
-69.358006485422663
 30
0.0
 40
0.8999999999999985
  0
POLYLINE
  5
164E
  8
SAPA_PROFIL
 62
     2
 66
     1
 10
0.0
 20
0.0
 30
0.0
  0
VERTEX
  5
1E1B
  8
SAPA_PROFIL
 62
     2
 10
-168.06796481167279
 20
-68.050000073849674
 30
0.0
  0
VERTEX
  5
1E1C
  8
SAPA_PROFIL
 62
     2
 10
-167.87560639168041
 20
-69.140918884002417
 30
0.0
  0
VERTEX
  5
1E1D
  8
SAPA_PROFIL
 62
     2
 10
-168.30740295158199
 20
-69.256618423522411
 30
0.0
 42
0.4430158954262519
  0
VERTEX
  5
1E1E
  8
SAPA_PROFIL
 62
     2
 10
-168.44287999912609
 20
-69.520094851629381
 30
0.0
  0
VERTEX
  5
1E1F
  8
SAPA_PROFIL
 62
     2
 10
-167.96593180590699
 20
-70.79058259954752
 30
0.0
 42
0.3125358528825162
  0
VERTEX
  5
1E20
  8
SAPA_PROFIL
 62
     2
 10
-167.59145009277759
 20
-71.050000073849219
 30
0.0
  0
VERTEX
  5
1E21
  8
SAPA_PROFIL
 62
     2
 10
-165.7212947768673
 20
-71.05000007384956
 30
0.0
 42
0.3125358528825104
  0
VERTEX
  5
1E22
  8
SAPA_PROFIL
 62
     2
 10
-165.3468130637379
 20
-70.790582599547335
 30
0.0
  0
VERTEX
  5
1E23
  8
SAPA_PROFIL
 62
     2
 10
-164.8698648705188
 20
-69.520094851629153
 30
0.0
 42
0.4430158954262519
  0
VERTEX
  5
1E24
  8
SAPA_PROFIL
 62
     2
 10
-165.0053419180629
 20
-69.256618423522298
 30
0.0
  0
VERTEX
  5
1E25
  8
SAPA_PROFIL
 62
     2
 10
-165.43713847796471
 20
-69.140918884002247
 30
0.0
  0
VERTEX
  5
1E26
  8
SAPA_PROFIL
 62
     2
 10
-165.24487243482261
 20
-68.050000073849503
 30
0.0
  0
SEQEND
  5
1E27
  8
SAPA_PROFIL
 62
     2
  0
POLYLINE
  5
164F
  8
SAPA_PROFIL
 62
     2
 66
     1
 10
0.0
 20
0.0
 30
0.0
 70
     1
  0
VERTEX
  5
1E28
  8
SAPA_PROFIL
 62
     2
 10
-168.05637243482249
 20
-68.050000073849674
 30
0.0
 42
-0.285714285714282
  0
VERTEX
  5
1E29
  8
SAPA_PROFIL
 62
     2
 10
-165.25637243482259
 20
-68.050000073849503
 30
0.0
  0
VERTEX
  5
1E2A
  8
SAPA_PROFIL
 62
     2
 10
-163.18259226543469
 20
-68.050000073848935
 30
0.0
 42
0.3882600129940275
  0
VERTEX
  5
1E2B
  8
SAPA_PROFIL
 62
     2
 10
-162.88379076809329
 20
-67.77678934756932
 30
0.0
  0
VERTEX
  5
1E2C
  8
SAPA_PROFIL
 62
     2
 10
-162.41758084416699
 20
-63.876789347569229
 30
0.0
 42
0.4406523138893894
  0
VERTEX
  5
1E2D
  8
SAPA_PROFIL
 62
     2
 10
-162.7163823415089
 20
-63.550000073849333
 30
0.0
  0
VERTEX
  5
1E2E
  8
SAPA_PROFIL
 62
     2
 10
-164.42617433842921
 20
-63.550000073849439
 30
0.0
 42
0.3394542588634375
  0
VERTEX
  5
1E2F
  8
SAPA_PROFIL
 62
     2
 10
-164.71595208631581
 20
-63.772354360318452
 30
0.0
  0
VERTEX
  5
1E30
  8
SAPA_PROFIL
 62
     2
 10
-164.91833181424721
 20
-63.989940142486091
 30
0.0
 42
-0.3394542588633663
  0
VERTEX
  5
1E31
  8
SAPA_PROFIL
 62
     2
 10
-165.20810956213401
 20
-64.21229442895509
 30
0.0
  0
VERTEX
  5
1E32
  8
SAPA_PROFIL
 62
     2
 10
-168.10463530751181
 20
-64.212294428955261
 30
0.0
 42
-0.3394542588634373
  0
VERTEX
  5
1E33
  8
SAPA_PROFIL
 62
     2
 10
-168.39441305539839
 20
-63.989940142486319
 30
0.0
  0
VERTEX
  5
1E34
  8
SAPA_PROFIL
 62
     2
 10
-168.59679278332979
 20
-63.77235436031873
 30
0.0
 42
0.3394542588633662
  0
VERTEX
  5
1E35
  8
SAPA_PROFIL
 62
     2
 10
-168.88657053121659
 20
-63.550000073849731
 30
0.0
  0
VERTEX
  5
1E36
  8
SAPA_PROFIL
 62
     2
 10
-170.59636252813669
 20
-63.550000073849837
 30
0.0
 42
0.4406523138893994
  0
VERTEX
  5
1E37
  8
SAPA_PROFIL
 62
     2
 10
-170.89516402547829
 20
-63.876789347569797
 30
0.0
  0
VERTEX
  5
1E38
  8
SAPA_PROFIL
 62
     2
 10
-170.4289541015518
 20
-67.776789347569832
 30
0.0
 42
0.3882600129940462
  0
VERTEX
  5
1E39
  8
SAPA_PROFIL
 62
     2
 10
-170.13015260421039
 20
-68.050000073849844
 30
0.0
  0
VERTEX
  5
1E3A
  8
SAPA_PROFIL
 62
     2
 10
-168.06796481167279
 20
-68.050000073849674
 30
0.0
  0
SEQEND
  5
1E3B
  8
SAPA_PROFIL
 62
     2
  0
POLYLINE
  5
1650
  8
SAPA_PROFIL
  6
CONTINUOUS
 66
     1
 10
0.0
 20
0.0
 30
0.0
 70
     1
  0
VERTEX
  5
1E3C
  8
SAPA_PROFIL
  6
CONTINUOUS
 10
-165.58311288153871
 20
10.107797028339229
 30
0.0
  0
VERTEX
  5
1E3D
  8
SAPA_PROFIL
  6
CONTINUOUS
 10
-150.44457742493151
 20
10.527360517731241
 30
0.0
 42
-0.2061234514950211
  0
VERTEX
  5
1E3E
  8
SAPA_PROFIL
  6
CONTINUOUS
 10
-150.07717188707019
 20
10.38110582714148
 30
0.0
  0
VERTEX
  5
1E3F
  8
SAPA_PROFIL
  6
CONTINUOUS
 10
-148.1464466073374
 20
8.4503805474083578
 30
0.0
 42
0.1989123673797024
  0
VERTEX
  5
1E40
  8
SAPA_PROFIL
  6
CONTINUOUS
 10
-147.79289321674409
 20
8.3039339380015331
 30
0.0
  0
VERTEX
  5
1E41
  8
SAPA_PROFIL
  6
CONTINUOUS
 10
-143.61211517687909
 20
8.3039339380015331
 30
0.0
 42
0.6681786379193032
  0
VERTEX
  5
1E42
  8
SAPA_PROFIL
  6
CONTINUOUS
 10
-143.43533848158251
 20
8.7307106332981732
 30
0.0
  0
VERTEX
  5
1E43
  8
SAPA_PROFIL
  6
CONTINUOUS
 10
-144.42253752080421
 20
9.7179096725198502
 30
0.0
 42
0.4584832902918763
  0
VERTEX
  5
1E44
  8
SAPA_PROFIL
  6
CONTINUOUS
 10
-145.93373633551909
 20
9.6053077286714768
 30
0.0
 42
-0.2378770156285958
  0
VERTEX
  5
1E45
  8
SAPA_PROFIL
  6
CONTINUOUS
 10
-146.13475934390161
 20
9.5039339380042804
 30
0.0
  0
VERTEX
  5
1E46
  8
SAPA_PROFIL
  6
CONTINUOUS
 10
-147.2958369418958
 20
9.5039339380020493
 30
0.0
 42
-0.1989123673801665
  0
VERTEX
  5
1E47
  8
SAPA_PROFIL
  6
CONTINUOUS
 10
-147.6493903324901
 20
9.6503805474087585
 30
0.0
  0
VERTEX
  5
1E48
  8
SAPA_PROFIL
  6
CONTINUOUS
 10
-147.99999999793059
 20
10.00099021284921
 30
0.0
  0
VERTEX
  5
1E49
  8
SAPA_PROFIL
  6
CONTINUOUS
 10
-148.42680759047661
 20
10.427947040441151
 30
0.0
 42
-0.1988669396406054
  0
VERTEX
  5
1E4A
  8
SAPA_PROFIL
  6
CONTINUOUS
 10
-148.49999999793059
 20
10.604692833087251
 30
0.0
  0
VERTEX
  5
1E4B
  8
SAPA_PROFIL
  6
CONTINUOUS
 10
-148.4999999979307
 20
10.751166039924209
 30
0.0
 42
-0.4142135623733282
  0
VERTEX
  5
1E4C
  8
SAPA_PROFIL
  6
CONTINUOUS
 10
-148.25000099793041
 20
11.00116503992421
 30
0.0
  0
VERTEX
  5
1E4D
  8
SAPA_PROFIL
  6
CONTINUOUS
 10
-148.24999999793079
 20
11.00116503992421
 30
0.0
 42
0.4142135623732616
  0
VERTEX
  5
1E4E
  8
SAPA_PROFIL
  6
CONTINUOUS
 10
-147.99999999793059
 20
11.25116503992416
 30
0.0
  0
VERTEX
  5
1E4F
  8
SAPA_PROFIL
  6
CONTINUOUS
 10
-147.99999999793059
 20
11.7500648463581
 30
0.0
 42
0.4209003450991805
  0
VERTEX
  5
1E50
  8
SAPA_PROFIL
  6
CONTINUOUS
 10
-148.2556935086505
 20
12.00000000582102
 30
0.0
 42
-0.0067990255081984
  0
VERTEX
  5
1E51
  8
SAPA_PROFIL
  6
CONTINUOUS
 10
-169.49779016963791
 20
11.80503094641244
 30
0.0
 42
0.4155086472897409
  0
VERTEX
  5
1E52
  8
SAPA_PROFIL
  6
CONTINUOUS
 10
-169.99999999794409
 20
11.305035829777291
 30
0.0
  0
VERTEX
  5
1E53
  8
SAPA_PROFIL
  6
CONTINUOUS
 10
-169.99999999793059
 20
-26.394621398209349
 30
0.0
 42
0.4142135623716549
  0
VERTEX
  5
1E54
  8
SAPA_PROFIL
  6
CONTINUOUS
 10
-169.6999999979306
 20
-26.694621398210671
 30
0.0
  0
VERTEX
  5
1E55
  8
SAPA_PROFIL
  6
CONTINUOUS
 10
-168.4999999979452
 20
-26.694621398210451
 30
0.0
 42
0.4142135623732907
  0
VERTEX
  5
1E56
  8
SAPA_PROFIL
  6
CONTINUOUS
 10
-168.1999999979453
 20
-26.394621398210258
 30
0.0
  0
VERTEX
  5
1E57
  8
SAPA_PROFIL
  6
CONTINUOUS
 10
-168.19999999794609
 20
-25.194621398210838
 30
0.0
 42
-0.4142135623732116
  0
VERTEX
  5
1E58
  8
SAPA_PROFIL
  6
CONTINUOUS
 10
-167.69999999794609
 20
-24.694621398210639
 30
0.0
  0
VERTEX
  5
1E59
  8
SAPA_PROFIL
  6
CONTINUOUS
 10
-158.79999999793191
 20
-24.694621398210639
 30
0.0
 42
0.4142135623733198
  0
VERTEX
  5
1E5A
  8
SAPA_PROFIL
  6
CONTINUOUS
 10
-158.49999999793201
 20
-24.394621398210461
 30
0.0
  0
VERTEX
  5
1E5B
  8
SAPA_PROFIL
  6
CONTINUOUS
 10
-158.49999999793221
 20
-23.69462139821044
 30
0.0
 42
0.4142135623728995
  0
VERTEX
  5
1E5C
  8
SAPA_PROFIL
  6
CONTINUOUS
 10
-158.79999999793219
 20
-23.394621398210631
 30
0.0
  0
VERTEX
  5
1E5D
  8
SAPA_PROFIL
  6
CONTINUOUS
 10
-167.9999999979355
 20
-23.394621398210742
 30
0.0
 42
-0.4142135623716508
  0
VERTEX
  5
1E5E
  8
SAPA_PROFIL
  6
CONTINUOUS
 10
-168.4999999979307
 20
-22.894621398210731
 30
0.0
  0
VERTEX
  5
1E5F
  8
SAPA_PROFIL
  6
CONTINUOUS
 10
-168.4999999979307
 20
-5.4960660619958608
 30
0.0
 42
-0.41421356237163
  0
VERTEX
  5
1E60
  8
SAPA_PROFIL
  6
CONTINUOUS
 10
-167.99999999793059
 20
-4.9960660619983619
 30
0.0
  0
VERTEX
  5
1E61
  8
SAPA_PROFIL
  6
CONTINUOUS
 10
-146.08582707856621
 20
-4.9960660619983619
 30
0.0
 42
-0.4663076581592616
  0
VERTEX
  5
1E62
  8
SAPA_PROFIL
  6
CONTINUOUS
 10
-145.7903847526625
 20
-5.3481605152983596
 30
0.0
  0
VERTEX
  5
1E63
  8
SAPA_PROFIL
  6
CONTINUOUS
 10
-145.89544232383409
 20
-5.9439716086970398
 30
0.0
 42
0.7332303362587812
  0
VERTEX
  5
1E64
  8
SAPA_PROFIL
  6
CONTINUOUS
 10
-145.38786796357471
 20
-6.2081980963544794
 30
0.0
  0
VERTEX
  5
1E65
  8
SAPA_PROFIL
  6
CONTINUOUS
 10
-143.38786796357729
 20
-4.2081980963569663
 30
0.0
 42
0.6681786379237062
  0
VERTEX
  5
1E66
  8
SAPA_PROFIL
  6
CONTINUOUS
 10
-143.59999999793069
 20
-3.6960660619984789
 30
0.0
  0
VERTEX
  5
1E67
  8
SAPA_PROFIL
  6
CONTINUOUS
 10
-167.99999999793059
 20
-3.6960660619984651
 30
0.0
 42
-0.4142135623716217
  0
VERTEX
  5
1E68
  8
SAPA_PROFIL
  6
CONTINUOUS
 10
-168.4999999979307
 20
-3.1960660619959631
 30
0.0
  0
VERTEX
  5
1E69
  8
SAPA_PROFIL
  6
CONTINUOUS
 10
-168.4999999979307
 20
7.1089485412398403
 30
0.0
 42
-0.40612121347231
  0
SEQEND
  5
1E6A
  8
SAPA_PROFIL
  6
CONTINUOUS
  0
POLYLINE
  5
1651
  8
SAPA_PROFIL
 62
     2
 10
-165.89999999794571
 20
-30.34462141152277
 30
0.0
 66
     1
 70
     8
  0
VERTEX
  8
SAPA_PROFIL
  5
2644
 10
-165.900
 20
-30.3446
 30
0.000000
  70
    32
  0
VERTEX
  8
SAPA_PROFIL
  5
2645
 10
-165.896
 20
-30.4428
 30
0.000000
  70
    32
  0
VERTEX
  8
SAPA_PROFIL
  5
2646
 10
-165.883
 20
-30.5407
 30
0.000000
  70
    32
  0
VERTEX
  8
SAPA_PROFIL
  5
2647
 10
-165.862
 20
-30.6381
 30
0.000000
  70
    32
  0
VERTEX
  8
SAPA_PROFIL
  5
2648
 10
-165.833
 20
-30.7348
 30
0.000000
  70
    32
  0
VERTEX
  8
SAPA_PROFIL
  5
2649
 10
-165.795
 20
-30.8306
 30
0.000000
  70
    32
  0
VERTEX
  8
SAPA_PROFIL
  5
264A
 10
-165.749
 20
-30.9252
 30
0.000000
  70
    32
  0
VERTEX
  8
SAPA_PROFIL
  5
264B
 10
-165.695
 20
-31.0184
 30
0.000000
  70
    32
  0
VERTEX
  8
SAPA_PROFIL
  5
264C
 10
-165.634
 20
-31.1100
 30
0.000000
  70
    32
  0
VERTEX
  8
SAPA_PROFIL
  5
264D
 10
-165.564
 20
-31.1997
 30
0.000000
  70
    32
  0
VERTEX
  8
SAPA_PROFIL
  5
264E
 10
-165.487
 20
-31.2874
 30
0.000000
  70
    32
  0
VERTEX
  8
SAPA_PROFIL
  5
264F
 10
-165.402
 20
-31.3728
 30
0.000000
  70
    32
  0
VERTEX
  8
SAPA_PROFIL
  5
2650
 10
-165.310
 20
-31.4558
 30
0.000000
  70
    32
  0
VERTEX
  8
SAPA_PROFIL
  5
2651
 10
-165.211
 20
-31.5360
 30
0.000000
  70
    32
  0
VERTEX
  8
SAPA_PROFIL
  5
2652
 10
-165.106
 20
-31.6134
 30
0.000000
  70
    32
  0
VERTEX
  8
SAPA_PROFIL
  5
2653
 10
-164.993
 20
-31.6877
 30
0.000000
  70
    32
  0
VERTEX
  8
SAPA_PROFIL
  5
2654
 10
-164.875
 20
-31.7588
 30
0.000000
  70
    32
  0
VERTEX
  8
SAPA_PROFIL
  5
2655
 10
-164.750
 20
-31.8265
 30
0.000000
  70
    32
  0
VERTEX
  8
SAPA_PROFIL
  5
2656
 10
-164.620
 20
-31.8906
 30
0.000000
  70
    32
  0
VERTEX
  8
SAPA_PROFIL
  5
2657
 10
-164.485
 20
-31.9510
 30
0.000000
  70
    32
  0
VERTEX
  8
SAPA_PROFIL
  5
2658
 10
-164.344
 20
-32.0076
 30
0.000000
  70
    32
  0
VERTEX
  8
SAPA_PROFIL
  5
2659
 10
-164.199
 20
-32.0601
 30
0.000000
  70
    32
  0
VERTEX
  8
SAPA_PROFIL
  5
265A
 10
-164.050
 20
-32.1085
 30
0.000000
  70
    32
  0
VERTEX
  8
SAPA_PROFIL
  5
265B
 10
-163.896
 20
-32.1526
 30
0.000000
  70
    32
  0
VERTEX
  8
SAPA_PROFIL
  5
265C
 10
-163.739
 20
-32.1924
 30
0.000000
  70
    32
  0
VERTEX
  8
SAPA_PROFIL
  5
265D
 10
-163.579
 20
-32.2277
 30
0.000000
  70
    32
  0
VERTEX
  8
SAPA_PROFIL
  5
265E
 10
-163.416
 20
-32.2585
 30
0.000000
  70
    32
  0
VERTEX
  8
SAPA_PROFIL
  5
265F
 10
-163.250
 20
-32.2847
 30
0.000000
  70
    32
  0
VERTEX
  8
SAPA_PROFIL
  5
2660
 10
-163.083
 20
-32.3062
 30
0.000000
  70
    32
  0
VERTEX
  8
SAPA_PROFIL
  5
2661
 10
-162.914
 20
-32.3230
 30
0.000000
  70
    32
  0
VERTEX
  8
SAPA_PROFIL
  5
2662
 10
-162.743
 20
-32.3350
 30
0.000000
  70
    32
  0
VERTEX
  8
SAPA_PROFIL
  5
2663
 10
-162.572
 20
-32.3422
 30
0.000000
  70
    32
  0
VERTEX
  8
SAPA_PROFIL
  5
2664
 10
-162.400
 20
-32.3446
 30
0.000000
  70
    32
  0
VERTEX
  8
SAPA_PROFIL
  5
2665
 10
-162.228
 20
-32.3422
 30
0.000000
  70
    32
  0
VERTEX
  8
SAPA_PROFIL
  5
2666
 10
-162.057
 20
-32.3350
 30
0.000000
  70
    32
  0
VERTEX
  8
SAPA_PROFIL
  5
2667
 10
-161.886
 20
-32.3230
 30
0.000000
  70
    32
  0
VERTEX
  8
SAPA_PROFIL
  5
2668
 10
-161.717
 20
-32.3062
 30
0.000000
  70
    32
  0
VERTEX
  8
SAPA_PROFIL
  5
2669
 10
-161.550
 20
-32.2847
 30
0.000000
  70
    32
  0
VERTEX
  8
SAPA_PROFIL
  5
266A
 10
-161.384
 20
-32.2585
 30
0.000000
  70
    32
  0
VERTEX
  8
SAPA_PROFIL
  5
266B
 10
-161.221
 20
-32.2277
 30
0.000000
  70
    32
  0
VERTEX
  8
SAPA_PROFIL
  5
266C
 10
-161.061
 20
-32.1924
 30
0.000000
  70
    32
  0
VERTEX
  8
SAPA_PROFIL
  5
266D
 10
-160.904
 20
-32.1526
 30
0.000000
  70
    32
  0
VERTEX
  8
SAPA_PROFIL
  5
266E
 10
-160.750
 20
-32.1085
 30
0.000000
  70
    32
  0
VERTEX
  8
SAPA_PROFIL
  5
266F
 10
-160.601
 20
-32.0601
 30
0.000000
  70
    32
  0
VERTEX
  8
SAPA_PROFIL
  5
2670
 10
-160.456
 20
-32.0076
 30
0.000000
  70
    32
  0
VERTEX
  8
SAPA_PROFIL
  5
2671
 10
-160.315
 20
-31.9510
 30
0.000000
  70
    32
  0
VERTEX
  8
SAPA_PROFIL
  5
2672
 10
-160.180
 20
-31.8906
 30
0.000000
  70
    32
  0
VERTEX
  8
SAPA_PROFIL
  5
2673
 10
-160.050
 20
-31.8265
 30
0.000000
  70
    32
  0
VERTEX
  8
SAPA_PROFIL
  5
2674
 10
-159.925
 20
-31.7588
 30
0.000000
  70
    32
  0
VERTEX
  8
SAPA_PROFIL
  5
2675
 10
-159.807
 20
-31.6877
 30
0.000000
  70
    32
  0
VERTEX
  8
SAPA_PROFIL
  5
2676
 10
-159.694
 20
-31.6134
 30
0.000000
  70
    32
  0
VERTEX
  8
SAPA_PROFIL
  5
2677
 10
-159.589
 20
-31.5360
 30
0.000000
  70
    32
  0
VERTEX
  8
SAPA_PROFIL
  5
2678
 10
-159.490
 20
-31.4558
 30
0.000000
  70
    32
  0
VERTEX
  8
SAPA_PROFIL
  5
2679
 10
-159.398
 20
-31.3728
 30
0.000000
  70
    32
  0
VERTEX
  8
SAPA_PROFIL
  5
267A
 10
-159.313
 20
-31.2874
 30
0.000000
  70
    32
  0
VERTEX
  8
SAPA_PROFIL
  5
267B
 10
-159.236
 20
-31.1997
 30
0.000000
  70
    32
  0
VERTEX
  8
SAPA_PROFIL
  5
267C
 10
-159.166
 20
-31.1100
 30
0.000000
  70
    32
  0
VERTEX
  8
SAPA_PROFIL
  5
267D
 10
-159.105
 20
-31.0184
 30
0.000000
  70
    32
  0
VERTEX
  8
SAPA_PROFIL
  5
267E
 10
-159.051
 20
-30.9252
 30
0.000000
  70
    32
  0
VERTEX
  8
SAPA_PROFIL
  5
267F
 10
-159.005
 20
-30.8306
 30
0.000000
  70
    32
  0
VERTEX
  8
SAPA_PROFIL
  5
2680
 10
-158.967
 20
-30.7348
 30
0.000000
  70
    32
  0
VERTEX
  8
SAPA_PROFIL
  5
2681
 10
-158.938
 20
-30.6381
 30
0.000000
  70
    32
  0
VERTEX
  8
SAPA_PROFIL
  5
2682
 10
-158.917
 20
-30.5407
 30
0.000000
  70
    32
  0
VERTEX
  8
SAPA_PROFIL
  5
2683
 10
-158.904
 20
-30.4428
 30
0.000000
  70
    32
  0
VERTEX
  8
SAPA_PROFIL
  5
2684
 10
-158.900
 20
-30.3446
 30
0.000000
  70
    32
  0
VERTEX
  8
SAPA_PROFIL
  5
2685
 10
-158.904
 20
-30.2465
 30
0.000000
  70
    32
  0
VERTEX
  8
SAPA_PROFIL
  5
2686
 10
-158.917
 20
-30.1486
 30
0.000000
  70
    32
  0
VERTEX
  8
SAPA_PROFIL
  5
2687
 10
-158.938
 20
-30.0512
 30
0.000000
  70
    32
  0
VERTEX
  8
SAPA_PROFIL
  5
2688
 10
-158.967
 20
-29.9544
 30
0.000000
  70
    32
  0
VERTEX
  8
SAPA_PROFIL
  5
2689
 10
-159.005
 20
-29.8587
 30
0.000000
  70
    32
  0
VERTEX
  8
SAPA_PROFIL
  5
268A
 10
-159.051
 20
-29.7641
 30
0.000000
  70
    32
  0
VERTEX
  8
SAPA_PROFIL
  5
268B
 10
-159.105
 20
-29.6708
 30
0.000000
  70
    32
  0
VERTEX
  8
SAPA_PROFIL
  5
268C
 10
-159.166
 20
-29.5793
 30
0.000000
  70
    32
  0
VERTEX
  8
SAPA_PROFIL
  5
268D
 10
-159.236
 20
-29.4895
 30
0.000000
  70
    32
  0
VERTEX
  8
SAPA_PROFIL
  5
268E
 10
-159.313
 20
-29.4018
 30
0.000000
  70
    32
  0
VERTEX
  8
SAPA_PROFIL
  5
268F
 10
-159.398
 20
-29.3164
 30
0.000000
  70
    32
  0
VERTEX
  8
SAPA_PROFIL
  5
2690
 10
-159.490
 20
-29.2335
 30
0.000000
  70
    32
  0
VERTEX
  8
SAPA_PROFIL
  5
2691
 10
-159.589
 20
-29.1532
 30
0.000000
  70
    32
  0
VERTEX
  8
SAPA_PROFIL
  5
2692
 10
-159.694
 20
-29.0758
 30
0.000000
  70
    32
  0
VERTEX
  8
SAPA_PROFIL
  5
2693
 10
-159.807
 20
-29.0015
 30
0.000000
  70
    32
  0
VERTEX
  8
SAPA_PROFIL
  5
2694
 10
-159.925
 20
-28.9304
 30
0.000000
  70
    32
  0
VERTEX
  8
SAPA_PROFIL
  5
2695
 10
-160.050
 20
-28.8627
 30
0.000000
  70
    32
  0
VERTEX
  8
SAPA_PROFIL
  5
2696
 10
-160.180
 20
-28.7986
 30
0.000000
  70
    32
  0
VERTEX
  8
SAPA_PROFIL
  5
2697
 10
-160.315
 20
-28.7382
 30
0.000000
  70
    32
  0
VERTEX
  8
SAPA_PROFIL
  5
2698
 10
-160.456
 20
-28.6817
 30
0.000000
  70
    32
  0
VERTEX
  8
SAPA_PROFIL
  5
2699
 10
-160.601
 20
-28.6292
 30
0.000000
  70
    32
  0
VERTEX
  8
SAPA_PROFIL
  5
269A
 10
-160.750
 20
-28.5808
 30
0.000000
  70
    32
  0
VERTEX
  8
SAPA_PROFIL
  5
269B
 10
-160.904
 20
-28.5366
 30
0.000000
  70
    32
  0
VERTEX
  8
SAPA_PROFIL
  5
269C
 10
-161.061
 20
-28.4969
 30
0.000000
  70
    32
  0
VERTEX
  8
SAPA_PROFIL
  5
269D
 10
-161.221
 20
-28.4615
 30
0.000000
  70
    32
  0
VERTEX
  8
SAPA_PROFIL
  5
269E
 10
-161.384
 20
-28.4307
 30
0.000000
  70
    32
  0
VERTEX
  8
SAPA_PROFIL
  5
269F
 10
-161.550
 20
-28.4046
 30
0.000000
  70
    32
  0
VERTEX
  8
SAPA_PROFIL
  5
26A0
 10
-161.717
 20
-28.3831
 30
0.000000
  70
    32
  0
VERTEX
  8
SAPA_PROFIL
  5
26A1
 10
-161.886
 20
-28.3663
 30
0.000000
  70
    32
  0
VERTEX
  8
SAPA_PROFIL
  5
26A2
 10
-162.057
 20
-28.3543
 30
0.000000
  70
    32
  0
VERTEX
  8
SAPA_PROFIL
  5
26A3
 10
-162.228
 20
-28.3470
 30
0.000000
  70
    32
  0
VERTEX
  8
SAPA_PROFIL
  5
26A4
 10
-162.400
 20
-28.3446
 30
0.000000
  70
    32
  0
VERTEX
  8
SAPA_PROFIL
  5
26A5
 10
-162.572
 20
-28.3470
 30
0.000000
  70
    32
  0
VERTEX
  8
SAPA_PROFIL
  5
26A6
 10
-162.743
 20
-28.3543
 30
0.000000
  70
    32
  0
VERTEX
  8
SAPA_PROFIL
  5
26A7
 10
-162.914
 20
-28.3663
 30
0.000000
  70
    32
  0
VERTEX
  8
SAPA_PROFIL
  5
26A8
 10
-163.083
 20
-28.3831
 30
0.000000
  70
    32
  0
VERTEX
  8
SAPA_PROFIL
  5
26A9
 10
-163.250
 20
-28.4046
 30
0.000000
  70
    32
  0
VERTEX
  8
SAPA_PROFIL
  5
26AA
 10
-163.416
 20
-28.4307
 30
0.000000
  70
    32
  0
VERTEX
  8
SAPA_PROFIL
  5
26AB
 10
-163.579
 20
-28.4615
 30
0.000000
  70
    32
  0
VERTEX
  8
SAPA_PROFIL
  5
26AC
 10
-163.739
 20
-28.4969
 30
0.000000
  70
    32
  0
VERTEX
  8
SAPA_PROFIL
  5
26AD
 10
-163.896
 20
-28.5366
 30
0.000000
  70
    32
  0
VERTEX
  8
SAPA_PROFIL
  5
26AE
 10
-164.050
 20
-28.5808
 30
0.000000
  70
    32
  0
VERTEX
  8
SAPA_PROFIL
  5
26AF
 10
-164.199
 20
-28.6292
 30
0.000000
  70
    32
  0
VERTEX
  8
SAPA_PROFIL
  5
26B0
 10
-164.344
 20
-28.6817
 30
0.000000
  70
    32
  0
VERTEX
  8
SAPA_PROFIL
  5
26B1
 10
-164.485
 20
-28.7382
 30
0.000000
  70
    32
  0
VERTEX
  8
SAPA_PROFIL
  5
26B2
 10
-164.620
 20
-28.7986
 30
0.000000
  70
    32
  0
VERTEX
  8
SAPA_PROFIL
  5
26B3
 10
-164.750
 20
-28.8627
 30
0.000000
  70
    32
  0
VERTEX
  8
SAPA_PROFIL
  5
26B4
 10
-164.875
 20
-28.9304
 30
0.000000
  70
    32
  0
VERTEX
  8
SAPA_PROFIL
  5
26B5
 10
-164.993
 20
-29.0015
 30
0.000000
  70
    32
  0
VERTEX
  8
SAPA_PROFIL
  5
26B6
 10
-165.106
 20
-29.0758
 30
0.000000
  70
    32
  0
VERTEX
  8
SAPA_PROFIL
  5
26B7
 10
-165.211
 20
-29.1532
 30
0.000000
  70
    32
  0
VERTEX
  8
SAPA_PROFIL
  5
26B8
 10
-165.310
 20
-29.2335
 30
0.000000
  70
    32
  0
VERTEX
  8
SAPA_PROFIL
  5
26B9
 10
-165.402
 20
-29.3164
 30
0.000000
  70
    32
  0
VERTEX
  8
SAPA_PROFIL
  5
26BA
 10
-165.487
 20
-29.4018
 30
0.000000
  70
    32
  0
VERTEX
  8
SAPA_PROFIL
  5
26BB
 10
-165.564
 20
-29.4895
 30
0.000000
  70
    32
  0
VERTEX
  8
SAPA_PROFIL
  5
26BC
 10
-165.634
 20
-29.5793
 30
0.000000
  70
    32
  0
VERTEX
  8
SAPA_PROFIL
  5
26BD
 10
-165.695
 20
-29.6708
 30
0.000000
  70
    32
  0
VERTEX
  8
SAPA_PROFIL
  5
26BE
 10
-165.749
 20
-29.7641
 30
0.000000
  70
    32
  0
VERTEX
  8
SAPA_PROFIL
  5
26BF
 10
-165.795
 20
-29.8587
 30
0.000000
  70
    32
  0
VERTEX
  8
SAPA_PROFIL
  5
26C0
 10
-165.833
 20
-29.9544
 30
0.000000
  70
    32
  0
VERTEX
  8
SAPA_PROFIL
  5
26C1
 10
-165.862
 20
-30.0512
 30
0.000000
  70
    32
  0
VERTEX
  8
SAPA_PROFIL
  5
26C2
 10
-165.883
 20
-30.1486
 30
0.000000
  70
    32
  0
VERTEX
  8
SAPA_PROFIL
  5
26C3
 10
-165.896
 20
-30.2465
 30
0.000000
  70
    32
  0
VERTEX
  8
SAPA_PROFIL
  5
26C4
 10
-165.900
 20
-30.3446
 30
0.000000
  70
    32
  0
SEQEND
  8
SAPA_PROFIL
  5
26C5
  0
POLYLINE
  5
1652
  8
SAPA_PROFIL
 62
     2
 66
     1
 10
0.0
 20
0.0
 30
0.0
 70
     1
  0
VERTEX
  5
1E6B
  8
SAPA_PROFIL
 62
     2
 10
-157.5812192343196
 20
-24.69462139821027
 30
0.0
  0
VERTEX
  5
1E6C
  8
SAPA_PROFIL
 62
     2
 10
-167.89999999794551
 20
-24.69462139821027
 30
0.0
 42
0.4142135623730951
  0
VERTEX
  5
1E6D
  8
SAPA_PROFIL
 62
     2
 10
-168.1999999979455
 20
-24.994621398210271
 30
0.0
  0
VERTEX
  5
1E6E
  8
SAPA_PROFIL
 62
     2
 10
-168.1999999979455
 20
-26.69462139821027
 30
0.0
  0
VERTEX
  5
1E6F
  8
SAPA_PROFIL
 62
     2
 10
-170.01370008986589
 20
-26.69462139821027
 30
0.0
 42
0.4005932428724212
  0
VERTEX
  5
1E70
  8
SAPA_PROFIL
 62
     2
 10
-170.31337265758589
 20
-26.980608826851011
 30
0.0
  0
VERTEX
  5
1E71
  8
SAPA_PROFIL
 62
     2
 10
-170.7996725656655
 20
-36.180608826851021
 30
0.0
 42
0.427966335106886
  0
VERTEX
  5
1E72
  8
SAPA_PROFIL
 62
     2
 10
-170.49999999794551
 20
-36.494621398210271
 30
0.0
  0
VERTEX
  5
1E73
  8
SAPA_PROFIL
 62
     2
 10
-156.81953534864681
 20
-36.494621398210271
 30
0.0
 42
0.0195279011117891
  0
VERTEX
  5
1E74
  8
SAPA_PROFIL
 62
     2
 10
-156.78052419853361
 20
-36.49309720521282
 30
0.0
  0
VERTEX
  5
1E75
  8
SAPA_PROFIL
 62
     2
 10
-148.771977697719
 20
-35.666776174714293
 30
0.0
 42
0.3915187749346392
  0
VERTEX
  5
1E76
  8
SAPA_PROFIL
 62
     2
 10
-147.8499999979455
 20
-34.669824560709188
 30
0.0
  0
VERTEX
  5
1E77
  8
SAPA_PROFIL
 62
     2
 10
-147.8499999979455
 20
-32.375127943545991
 30
0.0
 42
0.2613472755167645
  0
VERTEX
  5
1E78
  8
SAPA_PROFIL
 62
     2
 10
-148.08939084342131
 20
-31.948416250973381
 30
0.0
  0
VERTEX
  5
1E79
  8
SAPA_PROFIL
 62
     2
 10
-157.0600009252712
 20
-24.84119801306505
 30
0.0
 42
0.1379343940649207
  0
SEQEND
  5
1E7A
  8
SAPA_PROFIL
 62
     2
  0
POLYLINE
  5
1653
  8
SAPA_PROFIL
 66
     1
 10
0.0
 20
0.0
 30
0.0
 70
     1
  0
VERTEX
  5
1E7B
  8
SAPA_PROFIL
 10
-97.545009244861376
 20
-8.4999999929727572
 30
0.0
  0
VERTEX
  5
1E7C
  8
SAPA_PROFIL
 10
-101.3977956493615
 20
-8.4999999929727572
 30
0.0
 42
0.4142135623731784
  0
VERTEX
  5
1E7D
  8
SAPA_PROFIL
 10
-101.69779564936169
 20
-8.7999999929728254
 30
0.0
  0
VERTEX
  5
1E7E
  8
SAPA_PROFIL
 10
-101.6977956493615
 20
-9.0999999929731779
 30
0.0
  0
VERTEX
  5
1E7F
  8
SAPA_PROFIL
 10
-100.7740352186581
 20
-10.699999992972799
 30
0.0
 42
-0.5773502691887984
  0
VERTEX
  5
1E80
  8
SAPA_PROFIL
 10
-100.9472402994152
 20
-10.99999999297275
 30
0.0
  0
VERTEX
  5
1E81
  8
SAPA_PROFIL
 10
-102.33288094547009
 20
-10.99999999297275
 30
0.0
 42
-0.2679491924311038
  0
VERTEX
  5
1E82
  8
SAPA_PROFIL
 10
-103.1989063492546
 20
-10.49999999297293
 30
0.0
  0
VERTEX
  5
1E83
  8
SAPA_PROFIL
 10
-104.20926931882769
 20
-8.7499999955859629
 30
0.0
 42
0.2679491932396976
  0
VERTEX
  5
1E84
  8
SAPA_PROFIL
 10
-104.6422820222289
 20
-8.4999999955859344
 30
0.0
  0
VERTEX
  5
1E85
  8
SAPA_PROFIL
 10
-137.28038475566001
 20
-8.4999999955858971
 30
0.0
  0
VERTEX
  5
1E86
  8
SAPA_PROFIL
 10
-137.7999999979306
 20
-8.1999999955859018
 30
0.0
  0
VERTEX
  5
1E87
  8
SAPA_PROFIL
 10
-138.3196152402013
 20
-8.4999999955858971
 30
0.0
  0
VERTEX
  5
1E88
  8
SAPA_PROFIL
 10
-138.6577179736326
 20
-8.4999999955858971
 30
0.0
 42
0.2679491916226445
  0
VERTEX
  5
1E89
  8
SAPA_PROFIL
 10
-139.0907306755249
 20
-8.7499999929728052
 30
0.0
  0
VERTEX
  5
1E8A
  8
SAPA_PROFIL
 10
-140.1010936466069
 20
-10.499999992972811
 30
0.0
 42
-0.2679491924311319
  0
VERTEX
  5
1E8B
  8
SAPA_PROFIL
 10
-140.9671190503912
 20
-10.99999999297275
 30
0.0
  0
VERTEX
  5
1E8C
  8
SAPA_PROFIL
 10
-142.3527596964463
 20
-10.99999999297275
 30
0.0
 42
-0.5773502691893683
  0
VERTEX
  5
1E8D
  8
SAPA_PROFIL
 10
-142.52596477720331
 20
-10.69999999297279
 30
0.0
  0
VERTEX
  5
1E8E
  8
SAPA_PROFIL
 10
-141.60220434649989
 20
-9.0999999929727586
 30
0.0
  0
VERTEX
  5
1E8F
  8
SAPA_PROFIL
 10
-141.60220434649989
 20
-8.7999999929728183
 30
0.0
 42
0.4142135623732059
  0
VERTEX
  5
1E90
  8
SAPA_PROFIL
 10
-141.90220434650001
 20
-8.4999999929727501
 30
0.0
  0
VERTEX
  5
1E91
  8
SAPA_PROFIL
 10
-145.75499075100021
 20
-8.4999999929727501
 30
0.0
 42
-0.2134217652834387
  0
VERTEX
  5
1E92
  8
SAPA_PROFIL
 10
-145.97859754875029
 20
-8.3999999929726261
 30
0.0
 42
0.7625858545243238
  0
VERTEX
  5
1E93
  8
SAPA_PROFIL
 10
-146.30892362976729
 20
-8.5845791951701091
 30
0.0
  0
VERTEX
  5
1E94
  8
SAPA_PROFIL
 10
-146.2508499927782
 20
-8.7759621951638316
 30
0.0
  0
VERTEX
  5
1E95
  8
SAPA_PROFIL
 10
-145.16628554580649
 20
-10.66180588702488
 30
0.0
  0
VERTEX
  5
1E96
  8
SAPA_PROFIL
 10
-144.84452781758819
 20
-10.651244520797899
 30
0.0
 42
-0.5773502691897466
  0
VERTEX
  5
1E97
  8
SAPA_PROFIL
 10
-144.66157407747801
 20
-10.94540082105274
 30
0.0
  0
VERTEX
  5
1E98
  8
SAPA_PROFIL
 10
-144.8137079885868
 20
-11.23008310428439
 30
0.0
 42
-0.221694662643019
  0
VERTEX
  5
1E99
  8
SAPA_PROFIL
 10
-145.35458782006361
 20
-11.63589200943918
 30
0.0
  0
VERTEX
  5
1E9A
  8
SAPA_PROFIL
 10
-147.16781829072181
 20
-12.01733860556689
 30
0.0
 42
-0.476975532698164
  0
VERTEX
  5
1E9B
  8
SAPA_PROFIL
 10
-147.53947516566771
 20
-11.715085781060431
 30
0.0
  0
VERTEX
  5
1E9C
  8
SAPA_PROFIL
 10
-147.53939155778411
 20
-10.211984700298419
 30
0.0
  0
VERTEX
  5
1E9D
  8
SAPA_PROFIL
 10
-147.4915458077856
 20
-10.19746629105132
 30
0.0
 42
0.4142135623730951
  0
VERTEX
  5
1E9E
  8
SAPA_PROFIL
 10
-147.2915817632782
 20
-9.8232813355755049
 30
0.0
  0
VERTEX
  5
1E9F
  8
SAPA_PROFIL
 10
-147.7999999979308
 20
-8.5078676157301238
 30
0.0
  0
VERTEX
  5
1EA0
  8
SAPA_PROFIL
 10
-147.7999999979306
 20
-5.5097167545565808
 30
0.0
 42
-0.2562769736732418
  0
VERTEX
  5
1EA1
  8
SAPA_PROFIL
 10
-147.7074689996152
 20
-5.3410442503452371
 30
0.0
  0
VERTEX
  5
1EA2
  8
SAPA_PROFIL
 10
-146.4612035004574
 20
-4.546991244168626
 30
0.0
 42
-0.5920056181180006
  0
VERTEX
  5
1EA3
  8
SAPA_PROFIL
 10
-145.9999999979307
 20
-4.8000000004856993
 30
0.0
  0
VERTEX
  5
1EA4
  8
SAPA_PROFIL
 10
-145.9999999979307
 20
-6.2000000004856757
 30
0.0
 42
0.4142135623731505
  0
VERTEX
  5
1EA5
  8
SAPA_PROFIL
 10
-145.69999999793069
 20
-6.5000000004857164
 30
0.0
  0
VERTEX
  5
1EA6
  8
SAPA_PROFIL
 10
-143.2999999979308
 20
-6.5000000004855742
 30
0.0
 42
0.4142135623729841
  0
VERTEX
  5
1EA7
  8
SAPA_PROFIL
 10
-142.99999999793079
 20
-6.2000000004856757
 30
0.0
  0
VERTEX
  5
1EA8
  8
SAPA_PROFIL
 10
-142.99999999793079
 20
11.199999999514381
 30
0.0
 42
0.4142135623730882
  0
VERTEX
  5
1EA9
  8
SAPA_PROFIL
 10
-143.2999999979308
 20
11.499999999514401
 30
0.0
  0
VERTEX
  5
1EAA
  8
SAPA_PROFIL
 10
-145.69999999793089
 20
11.499999999514371
 30
0.0
 42
0.4142135623730118
  0
VERTEX
  5
1EAB
  8
SAPA_PROFIL
 10
-145.9999999979307
 20
11.199999999514301
 30
0.0
  0
VERTEX
  5
1EAC
  8
SAPA_PROFIL
 10
-145.9999999979307
 20
9.799999999514295
 30
0.0
 42
-0.5877032589249656
  0
VERTEX
  5
1EAD
  8
SAPA_PROFIL
 10
-146.4579602050583
 20
9.5449537822041854
 30
0.0
  0
VERTEX
  5
1EAE
  8
SAPA_PROFIL
 10
-147.9053068026827
 20
10.44135275944638
 30
0.0
 42
-0.2596812337301635
  0
VERTEX
  5
1EAF
  8
SAPA_PROFIL
 10
-147.99999999793079
 20
10.61138357098649
 30
0.0
  0
VERTEX
  5
1EB0
  8
SAPA_PROFIL
 10
-147.99999999793079
 20
13.300000004345909
 30
0.0
 42
-0.4142135623732095
  0
VERTEX
  5
1EB1
  8
SAPA_PROFIL
 10
-147.7999999979308
 20
13.5000000043459
 30
0.0
  0
VERTEX
  5
1EB2
  8
SAPA_PROFIL
 10
-104.9999985037807
 20
13.500000004345891
 30
0.0
 42
-0.4142135623730067
  0
VERTEX
  5
1EB3
  8
SAPA_PROFIL
 10
-102.9999999979307
 20
11.50000149849639
 30
0.0
  0
VERTEX
  5
1EB4
  8
SAPA_PROFIL
 10
-102.9999999979307
 20
5.7999992572709731
 30
0.0
 42
0.4142135623729993
  0
VERTEX
  5
1EB5
  8
SAPA_PROFIL
 10
-102.00000074500559
 20
4.8000000043458799
 30
0.0
  0
VERTEX
  5
1EB6
  8
SAPA_PROFIL
 10
-94.498980997930573
 20
4.8000000043459776
 30
0.0
 42
-0.4142135623730951
  0
VERTEX
  5
1EB7
  8
SAPA_PROFIL
 10
-93.498980997930673
 20
3.8000000043459639
 30
0.0
  0
VERTEX
  5
1EB8
  8
SAPA_PROFIL
 10
-93.498980997930673
 20
3.3022248549309872
 30
0.0
 42
-0.4142135623729598
  0
VERTEX
  5
1EB9
  8
SAPA_PROFIL
 10
-93.698980848515674
 20
3.1022250043458861
 30
0.0
  0
VERTEX
  5
1EBA
  8
SAPA_PROFIL
 10
-95.296831561109343
 20
3.1022250043459709
 30
0.0
 42
0.414645992438811
  0
VERTEX
  5
1EBB
  8
SAPA_PROFIL
 10
-95.496831343197812
 20
2.901929767885437
 30
0.0
  0
VERTEX
  5
1EBC
  8
SAPA_PROFIL
 10
-95.498387850139665
 20
-8.5036965589548963
 30
0.0
  0
VERTEX
  5
1EBD
  8
SAPA_PROFIL
 10
-96.008418232582983
 20
-9.8232813355754978
 30
0.0
 42
0.4142135623730951
  0
VERTEX
  5
1EBE
  8
SAPA_PROFIL
 10
-95.808454188075586
 20
-10.19746629105131
 30
0.0
  0
VERTEX
  5
1EBF
  8
SAPA_PROFIL
 10
-95.760608438077085
 20
-10.211984700298411
 30
0.0
  0
VERTEX
  5
1EC0
  8
SAPA_PROFIL
 10
-95.760524830193461
 20
-11.71508578106042
 30
0.0
 42
-0.4769755326981641
  0
VERTEX
  5
1EC1
  8
SAPA_PROFIL
 10
-96.132181705139317
 20
-12.01733860556689
 30
0.0
  0
VERTEX
  5
1EC2
  8
SAPA_PROFIL
 10
-97.945412175797571
 20
-11.63589200943917
 30
0.0
 42
-0.2216946626430191
  0
VERTEX
  5
1EC3
  8
SAPA_PROFIL
 10
-98.486292007274372
 20
-11.23008310428437
 30
0.0
  0
VERTEX
  5
1EC4
  8
SAPA_PROFIL
 10
-98.638425918383135
 20
-10.94540082105272
 30
0.0
 42
-0.5773502691897466
  0
VERTEX
  5
1EC5
  8
SAPA_PROFIL
 10
-98.455472178272956
 20
-10.65124452079791
 30
0.0
  0
VERTEX
  5
1EC6
  8
SAPA_PROFIL
 10
-98.133714450054697
 20
-10.66180588702488
 30
0.0
  0
VERTEX
  5
1EC7
  8
SAPA_PROFIL
 10
-97.049150003082971
 20
-8.7759621951638245
 30
0.0
  0
VERTEX
  5
1EC8
  8
SAPA_PROFIL
 10
-96.991076366093878
 20
-8.5845791951701038
 30
0.0
 42
0.7625858545243257
  0
VERTEX
  5
1EC9
  8
SAPA_PROFIL
 10
-97.321402447110884
 20
-8.3999999929726208
 30
0.0
 42
-0.2134217652834391
  0
SEQEND
  5
1ECA
  8
SAPA_PROFIL
  0
POLYLINE
  5
1654
  8
SAPA_PROFIL
 66
     1
 10
0.0
 20
0.0
 30
0.0
 70
     1
  0
VERTEX
  5
1ECB
  8
SAPA_PROFIL
 10
-104.9999999979307
 20
11.500000007564079
 30
0.0
  0
VERTEX
  5
1ECC
  8
SAPA_PROFIL
 10
-106.9999999979307
 20
11.500000007564079
 30
0.0
  0
VERTEX
  5
1ECD
  8
SAPA_PROFIL
 10
-106.9999999979306
 20
11.40000000756417
 30
0.0
 42
-0.4142135623732199
  0
VERTEX
  5
1ECE
  8
SAPA_PROFIL
 10
-107.1999999979306
 20
11.200000007564091
 30
0.0
  0
VERTEX
  5
1ECF
  8
SAPA_PROFIL
 10
-108.7999999979306
 20
11.200000007563981
 30
0.0
 42
-0.4142135623727933
  0
VERTEX
  5
1ED0
  8
SAPA_PROFIL
 10
-108.9999999979307
 20
11.400000007563881
 30
0.0
  0
VERTEX
  5
1ED1
  8
SAPA_PROFIL
 10
-108.9999999979307
 20
11.500000007564079
 30
0.0
  0
VERTEX
  5
1ED2
  8
SAPA_PROFIL
 10
-137.2999999979306
 20
11.500000007564079
 30
0.0
  0
VERTEX
  5
1ED3
  8
SAPA_PROFIL
 10
-137.2999999979308
 20
11.40000000756409
 30
0.0
 42
-0.4142135623730847
  0
VERTEX
  5
1ED4
  8
SAPA_PROFIL
 10
-137.4999999979309
 20
11.200000007564091
 30
0.0
  0
VERTEX
  5
1ED5
  8
SAPA_PROFIL
 10
-139.09999999793089
 20
11.20000000756421
 30
0.0
 42
-0.4142135623730847
  0
VERTEX
  5
1ED6
  8
SAPA_PROFIL
 10
-139.29999999793071
 20
11.40000000756409
 30
0.0
  0
VERTEX
  5
1ED7
  8
SAPA_PROFIL
 10
-139.29999999793071
 20
11.500000007564079
 30
0.0
  0
VERTEX
  5
1ED8
  8
SAPA_PROFIL
 10
-140.99999999793079
 20
11.500000007564079
 30
0.0
 42
0.4142135623730675
  0
VERTEX
  5
1ED9
  8
SAPA_PROFIL
 10
-141.2999999979306
 20
11.200000007564091
 30
0.0
  0
VERTEX
  5
1EDA
  8
SAPA_PROFIL
 10
-141.2999999979306
 20
-6.3999999924358981
 30
0.0
 42
0.4142135623730673
  0
VERTEX
  5
1EDB
  8
SAPA_PROFIL
 10
-140.99999999793079
 20
-6.6999999924358518
 30
0.0
  0
VERTEX
  5
1EDC
  8
SAPA_PROFIL
 10
-139.29999999793051
 20
-6.6999999924358518
 30
0.0
  0
VERTEX
  5
1EDD
  8
SAPA_PROFIL
 10
-139.2999999979308
 20
-6.3999999924358413
 30
0.0
 42
-0.4142135623731367
  0
VERTEX
  5
1EDE
  8
SAPA_PROFIL
 10
-139.09999999793069
 20
-6.1999999924358518
 30
0.0
  0
VERTEX
  5
1EDF
  8
SAPA_PROFIL
 10
-137.4999999979309
 20
-6.1999999924357949
 30
0.0
 42
-0.4142135623732407
  0
VERTEX
  5
1EE0
  8
SAPA_PROFIL
 10
-137.29999999793071
 20
-6.3999999924360109
 30
0.0
  0
VERTEX
  5
1EE1
  8
SAPA_PROFIL
 10
-137.2999999979308
 20
-6.6999999924359086
 30
0.0
  0
VERTEX
  5
1EE2
  8
SAPA_PROFIL
 10
-108.9999999979305
 20
-6.699999992435913
 30
0.0
  0
VERTEX
  5
1EE3
  8
SAPA_PROFIL
 10
-108.9999999979306
 20
-6.3999999924358439
 30
0.0
 42
-0.4142135623732199
  0
VERTEX
  5
1EE4
  8
SAPA_PROFIL
 10
-108.7999999979306
 20
-6.1999999924358562
 30
0.0
  0
VERTEX
  5
1EE5
  8
SAPA_PROFIL
 10
-107.1999999979306
 20
-6.199999992435945
 30
0.0
 42
-0.4142135623733448
  0
VERTEX
  5
1EE6
  8
SAPA_PROFIL
 10
-106.9999999979307
 20
-6.399999992436018
 30
0.0
  0
VERTEX
  5
1EE7
  8
SAPA_PROFIL
 10
-106.9999999979307
 20
-6.6999999924358589
 30
0.0
  0
VERTEX
  5
1EE8
  8
SAPA_PROFIL
 10
-97.499999997930885
 20
-6.6999999924358589
 30
0.0
 42
0.4142135623732061
  0
VERTEX
  5
1EE9
  8
SAPA_PROFIL
 10
-97.199999997930789
 20
-6.3999999924358484
 30
0.0
  0
VERTEX
  5
1EEA
  8
SAPA_PROFIL
 10
-97.199999997930789
 20
2.8000000043459781
 30
0.0
 42
0.4142135623732059
  0
VERTEX
  5
1EEB
  8
SAPA_PROFIL
 10
-97.499999997930885
 20
3.100000004345961
 30
0.0
  0
VERTEX
  5
1EEC
  8
SAPA_PROFIL
 10
-102.00000074500549
 20
3.1000000043459628
 30
0.0
 42
-0.414213562373052
  0
VERTEX
  5
1EED
  8
SAPA_PROFIL
 10
-104.6999999979306
 20
5.7999992572708026
 30
0.0
  0
VERTEX
  5
1EEE
  8
SAPA_PROFIL
 10
-104.6999999979306
 20
11.200000007564091
 30
0.0
 42
0.4142135623732891
  0
SEQEND
  5
1EEF
  8
SAPA_PROFIL
  0
POLYLINE
  5
1655
  8
SAPA_PROFIL
 66
     1
 10
0.0
 20
0.0
 30
0.1
 70
     1
  0
VERTEX
  5
1EF0
  8
SAPA_PROFIL
 10
-103.2003825292544
 20
-48.499999992890338
 30
0.1
 42
-0.2679491924311119
  0
VERTEX
  5
1EF1
  8
SAPA_PROFIL
 10
-102.33435712547011
 20
-47.999999992890437
 30
0.1
  0
VERTEX
  5
1EF2
  8
SAPA_PROFIL
 10
-100.948716479415
 20
-47.999999992890551
 30
0.1
 42
-0.5773502691897603
  0
VERTEX
  5
1EF3
  8
SAPA_PROFIL
 10
-100.7755113986582
 20
-48.299999992890498
 30
0.1
  0
VERTEX
  5
1EF4
  8
SAPA_PROFIL
 10
-101.69927182936151
 20
-49.89999999289018
 30
0.1
  0
VERTEX
  5
1EF5
  8
SAPA_PROFIL
 10
-101.69927182936151
 20
-50.199999992890369
 30
0.1
 42
0.4142135623728995
  0
VERTEX
  5
1EF6
  8
SAPA_PROFIL
 10
-101.3992718293616
 20
-50.499999992890437
 30
0.1
  0
VERTEX
  5
1EF7
  8
SAPA_PROFIL
 10
-97.546485424861515
 20
-50.49999999289038
 30
0.1
 42
-0.2134217652834313
  0
VERTEX
  5
1EF8
  8
SAPA_PROFIL
 10
-97.322878627111436
 20
-50.599999992890503
 30
0.1
 42
0.7625858545243313
  0
VERTEX
  5
1EF9
  8
SAPA_PROFIL
 10
-96.992552546094402
 20
-50.415420790693027
 30
0.1
  0
VERTEX
  5
1EFA
  8
SAPA_PROFIL
 10
-97.050626183083494
 20
-50.224037790699313
 30
0.1
  0
VERTEX
  5
1EFB
  8
SAPA_PROFIL
 10
-98.135190630055234
 20
-48.338194098838258
 30
0.1
  0
VERTEX
  5
1EFC
  8
SAPA_PROFIL
 10
-98.456948358273522
 20
-48.348755465065253
 30
0.1
 42
-0.5773502691897454
  0
VERTEX
  5
1EFD
  8
SAPA_PROFIL
 10
-98.639902098383658
 20
-48.054599164810398
 30
0.1
  0
VERTEX
  5
1EFE
  8
SAPA_PROFIL
 10
-98.487768187274924
 20
-47.769916881578752
 30
0.1
 42
-0.2216946626430149
  0
VERTEX
  5
1EFF
  8
SAPA_PROFIL
 10
-97.946888355798123
 20
-47.364107976423959
 30
0.1
  0
VERTEX
  5
1F00
  8
SAPA_PROFIL
 10
-96.133657885139883
 20
-46.98266138029625
 30
0.1
 42
-0.476975532698164
  0
VERTEX
  5
1F01
  8
SAPA_PROFIL
 10
-95.762001010193984
 20
-47.28491420480271
 30
0.1
  0
VERTEX
  5
1F02
  8
SAPA_PROFIL
 10
-95.762084618077637
 20
-48.788015285564718
 30
0.1
  0
VERTEX
  5
1F03
  8
SAPA_PROFIL
 10
-95.809930368076124
 20
-48.802533694811828
 30
0.1
 42
0.4142135623730875
  0
VERTEX
  5
1F04
  8
SAPA_PROFIL
 10
-96.00989441258352
 20
-49.17671865028764
 30
0.1
  0
VERTEX
  5
1F05
  8
SAPA_PROFIL
 10
-95.499999994019788
 20
-50.495951652049669
 30
0.1
  0
VERTEX
  5
1F06
  8
SAPA_PROFIL
 10
-95.499999994019788
 20
-70.23147838954651
 30
0.1
 42
0.3821712090170728
  0
VERTEX
  5
1F07
  8
SAPA_PROFIL
 10
-95.23311977811403
 20
-70.529644584648423
 30
0.1
  0
VERTEX
  5
1F08
  8
SAPA_PROFIL
 10
-88.655148994019811
 20
-71.055484119613425
 30
0.1
 42
0.4469990000000183
  0
VERTEX
  5
1F09
  8
SAPA_PROFIL
 10
-88.099948994019826
 20
-70.558540119613426
 30
0.1
  0
VERTEX
  5
1F0A
  8
SAPA_PROFIL
 10
-88.099948994019798
 20
-68.79999999289042
 30
0.1
 42
-0.414213999999998
  0
VERTEX
  5
1F0B
  8
SAPA_PROFIL
 10
-87.099948994019826
 20
-67.799999992890406
 30
0.1
  0
VERTEX
  5
1F0C
  8
SAPA_PROFIL
 10
-86.832404994019797
 20
-67.799999992890434
 30
0.1
 42
-0.2896899999999924
  0
VERTEX
  5
1F0D
  8
SAPA_PROFIL
 10
-85.928896994019766
 20
-68.371427992890432
 30
0.1
 42
-0.5507599999999715
  0
VERTEX
  5
1F0E
  8
SAPA_PROFIL
 10
-86.199948994019778
 20
-68.79999999289042
 30
0.1
  0
VERTEX
  5
1F0F
  8
SAPA_PROFIL
 10
-86.499948994019775
 20
-68.799999992890406
 30
0.1
 42
0.4142140000001125
  0
VERTEX
  5
1F10
  8
SAPA_PROFIL
 10
-86.699948994019792
 20
-68.999999992890423
 30
0.1
  0
VERTEX
  5
1F11
  8
SAPA_PROFIL
 10
-86.699948994019792
 20
-70.099999992890446
 30
0.1
 42
0.4142139999999939
  0
VERTEX
  5
1F12
  8
SAPA_PROFIL
 10
-85.699948994019792
 20
-71.099999992890446
 30
0.1
  0
VERTEX
  5
1F13
  8
SAPA_PROFIL
 10
-83.399999994019822
 20
-71.099999992890446
 30
0.1
 42
0.4142139999999918
  0
VERTEX
  5
1F14
  8
SAPA_PROFIL
 10
-82.399999994019822
 20
-70.099999992890446
 30
0.1
  0
VERTEX
  5
1F15
  8
SAPA_PROFIL
 10
-82.399999994019794
 20
-68.999999992890423
 30
0.1
 42
0.4142139999999378
  0
VERTEX
  5
1F16
  8
SAPA_PROFIL
 10
-82.599999994019825
 20
-68.79999999289042
 30
0.1
  0
VERTEX
  5
1F17
  8
SAPA_PROFIL
 10
-82.89994899401978
 20
-68.799999992890392
 30
0.1
 42
-0.5507599999999796
  0
VERTEX
  5
1F18
  8
SAPA_PROFIL
 10
-83.171001994019804
 20
-68.371427992890446
 30
0.1
 42
-0.2896900000000027
  0
VERTEX
  5
1F19
  8
SAPA_PROFIL
 10
-82.267493994019787
 20
-67.799999992890406
 30
0.1
  0
VERTEX
  5
1F1A
  8
SAPA_PROFIL
 10
-81.999999994019788
 20
-67.799999992890434
 30
0.1
 42
-0.4142140000000064
  0
VERTEX
  5
1F1B
  8
SAPA_PROFIL
 10
-80.999999994019774
 20
-68.79999999289042
 30
0.1
  0
VERTEX
  5
1F1C
  8
SAPA_PROFIL
 10
-80.999999994019845
 20
-70.499999992890423
 30
0.1
 42
-0.4142139999999918
  0
VERTEX
  5
1F1D
  8
SAPA_PROFIL
 10
-82.999999994019788
 20
-72.499999992890423
 30
0.1
  0
VERTEX
  5
1F1E
  8
SAPA_PROFIL
 10
-169.4999999940197
 20
-72.499999992890366
 30
0.1
 42
-0.414213999999996
  0
VERTEX
  5
1F1F
  8
SAPA_PROFIL
 10
-169.9999999940197
 20
-71.999999992890395
 30
0.1
  0
VERTEX
  5
1F20
  8
SAPA_PROFIL
 10
-169.99999999401959
 20
-68.299999992890406
 30
0.1
 42
-0.4142139999999107
  0
VERTEX
  5
1F21
  8
SAPA_PROFIL
 10
-169.69999999401981
 20
-67.999999992890423
 30
0.1
  0
VERTEX
  5
1F22
  8
SAPA_PROFIL
 10
-168.93245499401971
 20
-67.999999992890423
 30
0.1
 42
-0.2896899999999864
  0
VERTEX
  5
1F23
  8
SAPA_PROFIL
 10
-168.0289469940198
 20
-68.571427992890392
 30
0.1
 42
-0.5507600000000558
  0
VERTEX
  5
1F24
  8
SAPA_PROFIL
 10
-168.29999999401969
 20
-68.999999992890423
 30
0.1
  0
VERTEX
  5
1F25
  8
SAPA_PROFIL
 10
-168.4999999940197
 20
-68.999999992890423
 30
0.1
 42
0.414214000000073
  0
VERTEX
  5
1F26
  8
SAPA_PROFIL
 10
-168.79999999401969
 20
-69.299999992890406
 30
0.1
  0
VERTEX
  5
1F27
  8
SAPA_PROFIL
 10
-168.79999999401969
 20
-70.799999992890406
 30
0.1
 42
0.414213999999996
  0
VERTEX
  5
1F28
  8
SAPA_PROFIL
 10
-168.29999999401969
 20
-71.299999992890406
 30
0.1
  0
VERTEX
  5
1F29
  8
SAPA_PROFIL
 10
-164.9999999940197
 20
-71.299999992890406
 30
0.1
 42
0.4142140000000002
  0
VERTEX
  5
1F2A
  8
SAPA_PROFIL
 10
-164.4999999940197
 20
-70.799999992890406
 30
0.1
  0
VERTEX
  5
1F2B
  8
SAPA_PROFIL
 10
-164.4999999940197
 20
-69.299999992890406
 30
0.1
 42
0.4142140000000209
  0
VERTEX
  5
1F2C
  8
SAPA_PROFIL
 10
-164.7999999940198
 20
-68.999999992890423
 30
0.1
  0
VERTEX
  5
1F2D
  8
SAPA_PROFIL
 10
-164.9999999940197
 20
-68.99999999289048
 30
0.1
 42
-0.5507600000000054
  0
VERTEX
  5
1F2E
  8
SAPA_PROFIL
 10
-165.27105199401981
 20
-68.571427992890392
 30
0.1
 42
-0.2896899999999876
  0
VERTEX
  5
1F2F
  8
SAPA_PROFIL
 10
-164.3675439940198
 20
-67.999999992890423
 30
0.1
  0
VERTEX
  5
1F30
  8
SAPA_PROFIL
 10
-163.37007299401981
 20
-67.999999992890437
 30
0.1
 42
-0.0436609999999812
  0
VERTEX
  5
1F31
  8
SAPA_PROFIL
 10
-163.2832479940198
 20
-68.00759599289043
 30
0.1
  0
VERTEX
  5
1F32
  8
SAPA_PROFIL
 10
-161.71317599401979
 20
-68.284441992890436
 30
0.1
 42
-0.839099999999979
  0
VERTEX
  5
1F33
  8
SAPA_PROFIL
 10
-161.71317599401979
 20
-69.269249992890423
 30
0.1
  0
VERTEX
  5
1F34
  8
SAPA_PROFIL
 10
-162.88682399401981
 20
-69.476194992890413
 30
0.1
 42
0.363970000000042
  0
VERTEX
  5
1F35
  8
SAPA_PROFIL
 10
-163.2999999940198
 20
-69.968598992890435
 30
0.1
  0
VERTEX
  5
1F36
  8
SAPA_PROFIL
 10
-163.2999999940198
 20
-70.779999992890396
 30
0.1
 42
0.4373279999999794
  0
VERTEX
  5
1F37
  8
SAPA_PROFIL
 10
-162.7609049940198
 20
-71.278468992890424
 30
0.1
  0
VERTEX
  5
1F38
  8
SAPA_PROFIL
 10
-148.2878467206034
 20
-70.711670506494556
 30
0.1
 42
0.4023941355298093
  0
VERTEX
  5
1F39
  8
SAPA_PROFIL
 10
-147.9999999940197
 20
-70.411916777668239
 30
0.1
  0
VERTEX
  5
1F3A
  8
SAPA_PROFIL
 10
-147.9999999940197
 20
-69.611382992890412
 30
0.1
 42
-0.2596810000001062
  0
VERTEX
  5
1F3B
  8
SAPA_PROFIL
 10
-147.9053069940197
 20
-69.441351992890418
 30
0.1
  0
VERTEX
  5
1F3C
  8
SAPA_PROFIL
 10
-146.4579599940198
 20
-68.54495299289033
 30
0.1
 42
-0.5877030000000574
  0
VERTEX
  5
1F3D
  8
SAPA_PROFIL
 10
-145.9999999940197
 20
-68.799999992890463
 30
0.1
  0
VERTEX
  5
1F3E
  8
SAPA_PROFIL
 10
-145.9999999940197
 20
-70.199999992890426
 30
0.1
 42
0.4142139999999773
  0
VERTEX
  5
1F3F
  8
SAPA_PROFIL
 10
-145.69999999401981
 20
-70.499999992890423
 30
0.1
  0
VERTEX
  5
1F40
  8
SAPA_PROFIL
 10
-143.2999999940198
 20
-70.499999992890423
 30
0.1
 42
0.4142140000000855
  0
VERTEX
  5
1F41
  8
SAPA_PROFIL
 10
-142.9999999940197
 20
-70.199999992890426
 30
0.1
  0
VERTEX
  5
1F42
  8
SAPA_PROFIL
 10
-142.9999999940197
 20
-52.799999992890442
 30
0.1
 42
0.4142140000001167
  0
VERTEX
  5
1F43
  8
SAPA_PROFIL
 10
-143.2999999940198
 20
-52.49999999289043
 30
0.1
  0
VERTEX
  5
1F44
  8
SAPA_PROFIL
 10
-145.69999999401981
 20
-52.49999999289043
 30
0.1
 42
0.4142140000000127
  0
VERTEX
  5
1F45
  8
SAPA_PROFIL
 10
-145.9999999940197
 20
-52.799999992890442
 30
0.1
  0
VERTEX
  5
1F46
  8
SAPA_PROFIL
 10
-145.9999999940197
 20
-54.199999992890433
 30
0.1
 42
-0.5920054160710117
  0
VERTEX
  5
1F47
  8
SAPA_PROFIL
 10
-146.4612033321346
 20
-54.453008505648192
 30
0.1
  0
VERTEX
  5
1F48
  8
SAPA_PROFIL
 10
-147.7074689883475
 20
-53.658955475826531
 30
0.1
 42
-0.2562769852931595
  0
VERTEX
  5
1F49
  8
SAPA_PROFIL
 10
-147.79999999401969
 20
-53.490282966927907
 30
0.1
  0
VERTEX
  5
1F4A
  8
SAPA_PROFIL
 10
-147.79999999401969
 20
-50.495951652049378
 30
0.1
  0
VERTEX
  5
1F4B
  8
SAPA_PROFIL
 10
-147.2901055754561
 20
-49.17671865028769
 30
0.1
 42
0.4142135623730875
  0
VERTEX
  5
1F4C
  8
SAPA_PROFIL
 10
-147.49006961996349
 20
-48.802533694811878
 30
0.1
  0
VERTEX
  5
1F4D
  8
SAPA_PROFIL
 10
-147.53791536996201
 20
-48.788015285564782
 30
0.1
  0
VERTEX
  5
1F4E
  8
SAPA_PROFIL
 10
-147.5379989778456
 20
-47.284914204802767
 30
0.1
 42
-0.4769755326981641
  0
VERTEX
  5
1F4F
  8
SAPA_PROFIL
 10
-147.1663421028997
 20
-46.9826613802963
 30
0.1
  0
VERTEX
  5
1F50
  8
SAPA_PROFIL
 10
-145.35311163224139
 20
-47.364107976423988
 30
0.1
 42
-0.2216946626430149
  0
VERTEX
  5
1F51
  8
SAPA_PROFIL
 10
-144.81223180076469
 20
-47.769916881578823
 30
0.1
  0
VERTEX
  5
1F52
  8
SAPA_PROFIL
 10
-144.6600978896559
 20
-48.054599164810448
 30
0.1
 42
-0.5773502691897454
  0
VERTEX
  5
1F53
  8
SAPA_PROFIL
 10
-144.84305162976611
 20
-48.348755465065281
 30
0.1
  0
VERTEX
  5
1F54
  8
SAPA_PROFIL
 10
-145.16480935798441
 20
-48.338194098838308
 30
0.1
  0
VERTEX
  5
1F55
  8
SAPA_PROFIL
 10
-146.24937380495609
 20
-50.224037790699342
 30
0.1
  0
VERTEX
  5
1F56
  8
SAPA_PROFIL
 10
-146.30744744194519
 20
-50.415420790693062
 30
0.1
 42
0.7625858545243333
  0
VERTEX
  5
1F57
  8
SAPA_PROFIL
 10
-145.97712136092821
 20
-50.599999992890538
 30
0.1
 42
-0.2134217652834462
  0
VERTEX
  5
1F58
  8
SAPA_PROFIL
 10
-145.75351456317799
 20
-50.499999992890437
 30
0.1
  0
VERTEX
  5
1F59
  8
SAPA_PROFIL
 10
-141.90072815867791
 20
-50.499999992890437
 30
0.1
 42
0.4142135623729119
  0
VERTEX
  5
1F5A
  8
SAPA_PROFIL
 10
-141.60072815867809
 20
-50.199999992890369
 30
0.1
  0
VERTEX
  5
1F5B
  8
SAPA_PROFIL
 10
-141.60072815867809
 20
-49.89999999289018
 30
0.1
  0
VERTEX
  5
1F5C
  8
SAPA_PROFIL
 10
-142.52448858938149
 20
-48.299999992890562
 30
0.1
 42
-0.5773502691897497
  0
VERTEX
  5
1F5D
  8
SAPA_PROFIL
 10
-142.35128350862459
 20
-47.999999992890437
 30
0.1
  0
VERTEX
  5
1F5E
  8
SAPA_PROFIL
 10
-140.96564286256941
 20
-47.999999992890267
 30
0.1
 42
-0.2679491924311136
  0
VERTEX
  5
1F5F
  8
SAPA_PROFIL
 10
-140.09961745878499
 20
-48.499999992890267
 30
0.1
  0
VERTEX
  5
1F60
  8
SAPA_PROFIL
 10
-139.0892544877029
 20
-50.249999992890473
 30
0.1
 42
0.2679491924310958
  0
VERTEX
  5
1F61
  8
SAPA_PROFIL
 10
-138.65624178581069
 20
-50.499999992890437
 30
0.1
  0
VERTEX
  5
1F62
  8
SAPA_PROFIL
 10
-138.3196152362903
 20
-50.499999992890437
 30
0.1
  0
VERTEX
  5
1F63
  8
SAPA_PROFIL
 10
-137.79999999401969
 20
-50.79999999289042
 30
0.1
  0
VERTEX
  5
1F64
  8
SAPA_PROFIL
 10
-137.28038475174901
 20
-50.499999992890437
 30
0.1
  0
VERTEX
  5
1F65
  8
SAPA_PROFIL
 10
-104.6437582022288
 20
-50.499999992890437
 30
0.1
 42
0.2679491924311033
  0
VERTEX
  5
1F66
  8
SAPA_PROFIL
 10
-104.2107455003366
 20
-50.249999992890473
 30
0.1
  0
SEQEND
  5
1F67
  8
SAPA_PROFIL
  0
POLYLINE
  5
1656
  8
SAPA_PROFIL
 66
     1
 10
0.0
 20
0.0
 30
0.1
 70
     1
  0
VERTEX
  5
1F68
  8
SAPA_PROFIL
 10
-139.09999999401981
 20
-52.799999992890442
 30
0.1
  0
VERTEX
  5
1F69
  8
SAPA_PROFIL
 10
-137.49999999401979
 20
-52.799999992890442
 30
0.1
 42
0.4142135623730951
  0
VERTEX
  5
1F6A
  8
SAPA_PROFIL
 10
-137.2999999940198
 20
-52.599999992890432
 30
0.1
  0
VERTEX
  5
1F6B
  8
SAPA_PROFIL
 10
-137.2999999940198
 20
-52.299999909017103
 30
0.1
  0
VERTEX
  5
1F6C
  8
SAPA_PROFIL
 10
-101.19999999401981
 20
-52.299999909017103
 30
0.1
  0
VERTEX
  5
1F6D
  8
SAPA_PROFIL
 10
-101.19999999401981
 20
-52.599999992890432
 30
0.1
 42
0.4142135623730951
  0
VERTEX
  5
1F6E
  8
SAPA_PROFIL
 10
-100.9999999940198
 20
-52.799999992890442
 30
0.1
  0
VERTEX
  5
1F6F
  8
SAPA_PROFIL
 10
-99.399999994019765
 20
-52.799999992890442
 30
0.1
 42
0.4142135623730951
  0
VERTEX
  5
1F70
  8
SAPA_PROFIL
 10
-99.199999994019777
 20
-52.599999992890432
 30
0.1
  0
VERTEX
  5
1F71
  8
SAPA_PROFIL
 10
-99.199999994019777
 20
-52.299999909017103
 30
0.1
  0
VERTEX
  5
1F72
  8
SAPA_PROFIL
 10
-97.499999994019774
 20
-52.299999909017089
 30
0.1
 42
-0.4142135623730951
  0
VERTEX
  5
1F73
  8
SAPA_PROFIL
 10
-97.199999994019777
 20
-52.5999999090171
 30
0.1
  0
VERTEX
  5
1F74
  8
SAPA_PROFIL
 10
-97.199999994019777
 20
-70.199999992890426
 30
0.1
 42
-0.4142135623730951
  0
VERTEX
  5
1F75
  8
SAPA_PROFIL
 10
-97.499999994019774
 20
-70.499999992890423
 30
0.1
  0
VERTEX
  5
1F76
  8
SAPA_PROFIL
 10
-99.199999994019777
 20
-70.499999992890423
 30
0.1
  0
VERTEX
  5
1F77
  8
SAPA_PROFIL
 10
-99.199999994019777
 20
-70.3999999928904
 30
0.1
 42
0.4142135623730951
  0
VERTEX
  5
1F78
  8
SAPA_PROFIL
 10
-99.399999994019765
 20
-70.199999992890426
 30
0.1
  0
VERTEX
  5
1F79
  8
SAPA_PROFIL
 10
-100.9999999940198
 20
-70.199999992890426
 30
0.1
 42
0.4142135623730951
  0
VERTEX
  5
1F7A
  8
SAPA_PROFIL
 10
-101.19999999401981
 20
-70.3999999928904
 30
0.1
  0
VERTEX
  5
1F7B
  8
SAPA_PROFIL
 10
-101.19999999401981
 20
-70.499999992890423
 30
0.1
  0
VERTEX
  5
1F7C
  8
SAPA_PROFIL
 10
-137.2999999940198
 20
-70.499999992890423
 30
0.1
  0
VERTEX
  5
1F7D
  8
SAPA_PROFIL
 10
-137.2999999940198
 20
-70.3999999928904
 30
0.1
 42
0.4142135623730951
  0
VERTEX
  5
1F7E
  8
SAPA_PROFIL
 10
-137.49999999401979
 20
-70.199999992890426
 30
0.1
  0
VERTEX
  5
1F7F
  8
SAPA_PROFIL
 10
-139.09999999401981
 20
-70.199999992890426
 30
0.1
 42
0.4142135623730951
  0
VERTEX
  5
1F80
  8
SAPA_PROFIL
 10
-139.2999999940198
 20
-70.3999999928904
 30
0.1
  0
VERTEX
  5
1F81
  8
SAPA_PROFIL
 10
-139.2999999940198
 20
-70.499999992890423
 30
0.1
  0
VERTEX
  5
1F82
  8
SAPA_PROFIL
 10
-140.99999999401979
 20
-70.499999992890423
 30
0.1
 42
-0.4142135623730951
  0
VERTEX
  5
1F83
  8
SAPA_PROFIL
 10
-141.2999999940198
 20
-70.199999992890426
 30
0.1
  0
VERTEX
  5
1F84
  8
SAPA_PROFIL
 10
-141.2999999940198
 20
-52.5999999090171
 30
0.1
 42
-0.4142135623730951
  0
VERTEX
  5
1F85
  8
SAPA_PROFIL
 10
-140.99999999401979
 20
-52.299999909017103
 30
0.1
  0
VERTEX
  5
1F86
  8
SAPA_PROFIL
 10
-139.2999999940198
 20
-52.299999909017103
 30
0.1
  0
VERTEX
  5
1F87
  8
SAPA_PROFIL
 10
-139.2999999940198
 20
-52.599999992890432
 30
0.1
 42
0.4142135623730951
  0
SEQEND
  5
1F88
  8
SAPA_PROFIL
  0
POLYLINE
  5
1657
  8
SAPA_PROFIL
 62
     4
 66
     1
 10
0.0
 20
0.0
 30
0.0
  0
VERTEX
  5
1F89
  8
SAPA_PROFIL
 62
     4
 10
-145.0966328846383
 20
-20.45067087061835
 30
0.0
 42
-0.5571646428658034
  0
VERTEX
  5
1F8A
  8
SAPA_PROFIL
 62
     4
 10
-144.22891397048281
 20
-20.987631374755178
 30
0.0
  0
VERTEX
  5
1F8B
  8
SAPA_PROFIL
 62
     4
 10
-144.22891397048321
 20
-38.012368611276379
 30
0.0
 42
-0.5571645048035741
  0
VERTEX
  5
1F8C
  8
SAPA_PROFIL
 62
     4
 10
-145.09663265834939
 20
-38.54932922823744
 30
0.0
  0
VERTEX
  5
1F8D
  8
SAPA_PROFIL
 62
     4
 10
-146.76277331441739
 20
-37.718622140690741
 30
0.0
 42
-0.284385813979063
  0
VERTEX
  5
1F8E
  8
SAPA_PROFIL
 62
     4
 10
-146.92891397048481
 20
-37.450141832210392
 30
0.0
  0
VERTEX
  5
1F8F
  8
SAPA_PROFIL
 62
     4
 10
-146.92891397048481
 20
-21.549858153821081
 30
0.0
 42
-0.2843858139786238
  0
VERTEX
  5
1F90
  8
SAPA_PROFIL
 62
     4
 10
-146.7627733144179
 20
-21.281377845340788
 30
0.0
  0
VERTEX
  5
1F91
  8
SAPA_PROFIL
 62
     4
 10
-145.0966326583486
 20
-20.450670757793631
 30
0.0
  0
SEQEND
  5
1F92
  8
SAPA_PROFIL
 62
     4
  0
POLYLINE
  5
1658
  8
SAPA_PROFIL
 62
     4
 66
     1
 10
0.0
 20
0.0
 30
0.0
 70
     1
  0
VERTEX
  5
1F93
  8
SAPA_PROFIL
 62
     4
 10
-147.28574548498241
 20
-43.917611177683028
 30
0.0
  0
VERTEX
  5
1F94
  8
SAPA_PROFIL
 62
     4
 10
-147.69230568098661
 20
-44.181634456059037
 30
0.0
 42
0.2539676464751066
  0
VERTEX
  5
1F95
  8
SAPA_PROFIL
 62
     4
 10
-147.82891397048269
 20
-44.433235626443746
 30
0.0
  0
VERTEX
  5
1F96
  8
SAPA_PROFIL
 62
     4
 10
-147.82891397048269
 20
-45.814735211649086
 30
0.0
 42
0.3152987888790479
  0
VERTEX
  5
1F97
  8
SAPA_PROFIL
 62
     4
 10
-147.4999240421445
 20
-46.284581522041407
 30
0.0
  0
VERTEX
  5
1F98
  8
SAPA_PROFIL
 62
     4
 10
-145.0390938516932
 20
-47.180250462950013
 30
0.0
 42
-0.2694959974287434
  0
VERTEX
  5
1F99
  8
SAPA_PROFIL
 62
     4
 10
-144.84596187734931
 20
-47.411769509351373
 30
0.0
 42
-0.0612686379508233
  0
VERTEX
  5
1F9A
  8
SAPA_PROFIL
 62
     4
 10
-144.83237850671881
 20
-47.704444942204638
 30
0.0
  0
VERTEX
  5
1F9B
  8
SAPA_PROFIL
 62
     4
 10
-144.63064182798999
 20
-48.053863119512911
 30
0.0
 42
-0.5773502691891679
  0
VERTEX
  5
1F9C
  8
SAPA_PROFIL
 62
     4
 10
-144.8125071627845
 20
-48.368863119512497
 30
0.0
  0
VERTEX
  5
1F9D
  8
SAPA_PROFIL
 62
     4
 10
-145.0796216909109
 20
-48.368863119512739
 30
0.0
  0
VERTEX
  5
1F9E
  8
SAPA_PROFIL
 62
     4
 10
-145.8883051522192
 20
-49.767390820146993
 30
0.0
 42
0.1318219888653519
  0
VERTEX
  5
1F9F
  8
SAPA_PROFIL
 62
     4
 10
-145.92859754875661
 20
-49.91756392261933
 30
0.0
  0
VERTEX
  5
1FA0
  8
SAPA_PROFIL
 62
     4
 10
-145.92859754875019
 20
-50.099999993056123
 30
0.0
 42
0.4142135623724291
  0
VERTEX
  5
1FA1
  8
SAPA_PROFIL
 62
     4
 10
-145.52859754875061
 20
-50.499999993056662
 30
0.0
  0
VERTEX
  5
1FA2
  8
SAPA_PROFIL
 62
     4
 10
-142.12859754874961
 20
-50.499999993055297
 30
0.0
 42
0.4142135623744271
  0
VERTEX
  5
1FA3
  8
SAPA_PROFIL
 62
     4
 10
-141.72859754874861
 20
-50.099999993056123
 30
0.0
  0
VERTEX
  5
1FA4
  8
SAPA_PROFIL
 62
     4
 10
-141.7285975487479
 20
-49.920384750784812
 30
0.0
 42
0.1316524975874005
  0
VERTEX
  5
1FA5
  8
SAPA_PROFIL
 62
     4
 10
-141.76878992761351
 20
-49.77038475078799
 30
0.0
  0
VERTEX
  5
1FA6
  8
SAPA_PROFIL
 62
     4
 10
-142.69493937426611
 20
-48.166246853785736
 30
0.0
 42
-0.1316524975875904
  0
VERTEX
  5
1FA7
  8
SAPA_PROFIL
 62
     4
 10
-142.82891397048081
 20
-47.666246853784031
 30
0.0
  0
VERTEX
  5
1FA8
  8
SAPA_PROFIL
 62
     4
 10
-142.82891397048081
 20
-47.249999993056662
 30
0.0
 42
-0.4142135623730951
  0
VERTEX
  5
1FA9
  8
SAPA_PROFIL
 62
     4
 10
-141.8289139704809
 20
-46.249999993056662
 30
0.0
  0
VERTEX
  5
1FAA
  8
SAPA_PROFIL
 62
     4
 10
-138.8289139704836
 20
-46.249999993056662
 30
0.0
 42
0.9999996830128083
  0
VERTEX
  5
1FAB
  8
SAPA_PROFIL
 62
     4
 10
-138.82891397048181
 20
-45.249999993056647
 30
0.0
  0
VERTEX
  5
1FAC
  8
SAPA_PROFIL
 62
     4
 10
-141.82891397048181
 20
-45.249999993056647
 30
0.0
 42
-0.4142135623730951
  0
VERTEX
  5
1FAD
  8
SAPA_PROFIL
 62
     4
 10
-142.82891397048181
 20
-44.249999993056662
 30
0.0
  0
VERTEX
  5
1FAE
  8
SAPA_PROFIL
 62
     4
 10
-142.82891397048181
 20
-14.74999999297208
 30
0.0
 42
-0.4142135623730951
  0
VERTEX
  5
1FAF
  8
SAPA_PROFIL
 62
     4
 10
-141.82891397048181
 20
-13.74999999297208
 30
0.0
  0
VERTEX
  5
1FB0
  8
SAPA_PROFIL
 62
     4
 10
-138.8289139704836
 20
-13.74999999297208
 30
0.0
 42
0.9999999999999998
  0
VERTEX
  5
1FB1
  8
SAPA_PROFIL
 62
     4
 10
-138.8289139704836
 20
-12.74999999297208
 30
0.0
  0
VERTEX
  5
1FB2
  8
SAPA_PROFIL
 62
     4
 10
-141.82891397048181
 20
-12.74999999297208
 30
0.0
 42
-0.4142135623736278
  0
VERTEX
  5
1FB3
  8
SAPA_PROFIL
 62
     4
 10
-142.82891397048181
 20
-11.74999999297208
 30
0.0
  0
VERTEX
  5
1FB4
  8
SAPA_PROFIL
 62
     4
 10
-142.82891397048181
 20
-11.33375313224562
 30
0.0
 42
-0.1316524975874375
  0
VERTEX
  5
1FB5
  8
SAPA_PROFIL
 62
     4
 10
-142.69493937426569
 20
-10.83375313224542
 30
0.0
  0
VERTEX
  5
1FB6
  8
SAPA_PROFIL
 62
     4
 10
-141.76878992761351
 20
-9.2296152352434717
 30
0.0
 42
0.1316524975874
  0
VERTEX
  5
1FB7
  8
SAPA_PROFIL
 62
     4
 10
-141.7285975487479
 20
-9.0796152352439279
 30
0.0
  0
VERTEX
  5
1FB8
  8
SAPA_PROFIL
 62
     4
 10
-141.72859754874861
 20
-8.8999999929726243
 30
0.0
 42
0.4142135623744271
  0
VERTEX
  5
1FB9
  8
SAPA_PROFIL
 62
     4
 10
-142.12859754874961
 20
-8.4999999929734429
 30
0.0
  0
VERTEX
  5
1FBA
  8
SAPA_PROFIL
 62
     4
 10
-145.52859754875061
 20
-8.4999999929720786
 30
0.0
 42
0.4142135623724291
  0
VERTEX
  5
1FBB
  8
SAPA_PROFIL
 62
     4
 10
-145.92859754875019
 20
-8.8999999929726243
 30
0.0
  0
VERTEX
  5
1FBC
  8
SAPA_PROFIL
 62
     4
 10
-145.92859754875661
 20
-9.0824360634094035
 30
0.0
 42
0.1318219888653524
  0
VERTEX
  5
1FBD
  8
SAPA_PROFIL
 62
     4
 10
-145.8883051522192
 20
-9.2326091658817475
 30
0.0
  0
VERTEX
  5
1FBE
  8
SAPA_PROFIL
 62
     4
 10
-145.07962169099491
 20
-10.6311368663614
 30
0.0
  0
VERTEX
  5
1FBF
  8
SAPA_PROFIL
 62
     4
 10
-144.8125071627818
 20
-10.6311368663614
 30
0.0
 42
-0.577350269189159
  0
VERTEX
  5
1FC0
  8
SAPA_PROFIL
 62
     4
 10
-144.63064182798729
 20
-10.946136866361
 30
0.0
  0
VERTEX
  5
1FC1
  8
SAPA_PROFIL
 62
     4
 10
-144.83237850666441
 20
-11.295555043579659
 30
0.0
 42
-0.0612687673629489
  0
VERTEX
  5
1FC2
  8
SAPA_PROFIL
 62
     4
 10
-144.84596187735059
 20
-11.58823047667987
 30
0.0
 42
-0.2694959974285039
  0
VERTEX
  5
1FC3
  8
SAPA_PROFIL
 62
     4
 10
-145.0390938516945
 20
-11.81974952308039
 30
0.0
  0
VERTEX
  5
1FC4
  8
SAPA_PROFIL
 62
     4
 10
-147.49992404214771
 20
-12.71541846399006
 30
0.0
 42
0.3152987888784035
  0
VERTEX
  5
1FC5
  8
SAPA_PROFIL
 62
     4
 10
-147.82891397048419
 20
-13.185264774383279
 30
0.0
  0
VERTEX
  5
1FC6
  8
SAPA_PROFIL
 62
     4
 10
-147.82891397048269
 20
-14.566764359587721
 30
0.0
 42
0.2539676464741841
  0
VERTEX
  5
1FC7
  8
SAPA_PROFIL
 62
     4
 10
-147.6923056809874
 20
-14.8183655299718
 30
0.0
  0
VERTEX
  5
1FC8
  8
SAPA_PROFIL
 62
     4
 10
-147.28574548498241
 20
-15.082388808348441
 30
0.0
 42
0.5862177598324623
  0
VERTEX
  5
1FC9
  8
SAPA_PROFIL
 62
     4
 10
-146.8289139704859
 20
-14.82664699311009
 30
0.0
  0
VERTEX
  5
1FCA
  8
SAPA_PROFIL
 62
     4
 10
-146.8289139704936
 20
-13.88547231260028
 30
0.0
 42
-0.3152987888813165
  0
VERTEX
  5
1FCB
  8
SAPA_PROFIL
 62
     4
 10
-146.49992404215681
 20
-13.415626002202529
 30
0.0
  0
VERTEX
  5
1FCC
  8
SAPA_PROFIL
 62
     4
 10
-145.29992404214559
 20
-12.97886172107857
 30
0.0
 42
-0.5205670505515651
  0
VERTEX
  5
1FCD
  8
SAPA_PROFIL
 62
     4
 10
-144.6289139704829
 20
-13.44870803147179
 30
0.0
  0
VERTEX
  5
1FCE
  8
SAPA_PROFIL
 62
     4
 10
-144.62891397048281
 20
-18.465148972140639
 30
0.0
 42
-0.3702522326300203
  0
VERTEX
  5
1FCF
  8
SAPA_PROFIL
 62
     4
 10
-144.8833739231485
 20
-18.761672333933969
 30
0.0
 42
-0.0982365330332397
  0
VERTEX
  5
1FD0
  8
SAPA_PROFIL
 62
     4
 10
-146.5710606981435
 20
-18.85212509214492
 30
0.0
 42
-0.3735060174783164
  0
VERTEX
  5
1FD1
  8
SAPA_PROFIL
 62
     4
 10
-146.8289139704836
 20
-18.555100424233931
 30
0.0
  0
VERTEX
  5
1FD2
  8
SAPA_PROFIL
 62
     4
 10
-146.82891397048451
 20
-18.126646993111279
 30
0.0
 42
0.5920056181162531
  0
VERTEX
  5
1FD3
  8
SAPA_PROFIL
 62
     4
 10
-147.2901174730124
 20
-17.87363823679388
 30
0.0
  0
VERTEX
  5
1FD4
  8
SAPA_PROFIL
 62
     4
 10
-147.6923056809907
 20
-18.134822312949581
 30
0.0
 42
0.2539676464746725
  0
VERTEX
  5
1FD5
  8
SAPA_PROFIL
 62
     4
 10
-147.8289139704861
 20
-18.386423483333338
 30
0.0
  0
VERTEX
  5
1FD6
  8
SAPA_PROFIL
 62
     4
 10
-147.82891397048451
 20
-40.613576502699033
 30
0.0
 42
0.2539676464741819
  0
VERTEX
  5
1FD7
  8
SAPA_PROFIL
 62
     4
 10
-147.6923056809907
 20
-40.865177673081888
 30
0.0
  0
VERTEX
  5
1FD8
  8
SAPA_PROFIL
 62
     4
 10
-147.2901174730124
 20
-41.126361749235699
 30
0.0
 42
0.5920055144124249
  0
VERTEX
  5
1FD9
  8
SAPA_PROFIL
 62
     4
 10
-146.82891397048451
 20
-40.873352992920189
 30
0.0
  0
VERTEX
  5
1FDA
  8
SAPA_PROFIL
 62
     4
 10
-146.82891399575951
 20
-40.444899515629963
 30
0.0
 42
-0.3735060174775405
  0
VERTEX
  5
1FDB
  8
SAPA_PROFIL
 62
     4
 10
-146.57106072341941
 20
-40.147874847720267
 30
0.0
 42
-0.0355900683670349
  0
VERTEX
  5
1FDC
  8
SAPA_PROFIL
 62
     4
 10
-145.9551871366196
 20
-40.103981283688029
 30
0.0
 42
-0.0624282003873116
  0
VERTEX
  5
1FDD
  8
SAPA_PROFIL
 62
     4
 10
-144.88337394842449
 20
-40.238327605930969
 30
0.0
 42
-0.3702522326309292
  0
VERTEX
  5
1FDE
  8
SAPA_PROFIL
 62
     4
 10
-144.62891399575881
 20
-40.534850967724338
 30
0.0
  0
VERTEX
  5
1FDF
  8
SAPA_PROFIL
 62
     4
 10
-144.62891397048261
 20
-45.551291954557847
 30
0.0
 42
-0.5205670505515692
  0
VERTEX
  5
1FE0
  8
SAPA_PROFIL
 62
     4
 10
-145.29992404214559
 20
-46.021138264951077
 30
0.0
  0
VERTEX
  5
1FE1
  8
SAPA_PROFIL
 62
     4
 10
-146.4999240421551
 20
-45.584373983826119
 30
0.0
 42
-0.3152987888807539
  0
VERTEX
  5
1FE2
  8
SAPA_PROFIL
 62
     4
 10
-146.82891397049269
 20
-45.114527673430267
 30
0.0
  0
VERTEX
  5
1FE3
  8
SAPA_PROFIL
 62
     4
 10
-146.82891397048579
 20
-44.173352992921181
 30
0.0
 42
0.5862175119221242
  0
VERTEX
  5
1FE4
  8
SAPA_PROFIL
 62
     4
 10
-147.285745296241
 20
-43.917611061939233
 30
0.0
 42
-0.0000002084758573
  0
SEQEND
  5
1FE5
  8
SAPA_PROFIL
 62
     4
  0
POLYLINE
  5
1659
  8
SAPA_PROFIL
 62
     4
 66
     1
 10
0.0
 20
0.0
 30
0.0
  0
VERTEX
  5
1FE6
  8
SAPA_PROFIL
 62
     4
 10
-98.203367111223258
 20
-20.45067087061835
 30
0.0
 42
0.5571646428658034
  0
VERTEX
  5
1FE7
  8
SAPA_PROFIL
 62
     4
 10
-99.071086025378804
 20
-20.987631374755178
 30
0.0
  0
VERTEX
  5
1FE8
  8
SAPA_PROFIL
 62
     4
 10
-99.071086025378349
 20
-38.012368611276379
 30
0.0
 42
0.5571645048035741
  0
VERTEX
  5
1FE9
  8
SAPA_PROFIL
 62
     4
 10
-98.203367337512191
 20
-38.54932922823744
 30
0.0
  0
VERTEX
  5
1FEA
  8
SAPA_PROFIL
 62
     4
 10
-96.537226681444153
 20
-37.718622140690741
 30
0.0
 42
0.284385813979063
  0
VERTEX
  5
1FEB
  8
SAPA_PROFIL
 62
     4
 10
-96.371086025376727
 20
-37.450141832210392
 30
0.0
  0
VERTEX
  5
1FEC
  8
SAPA_PROFIL
 62
     4
 10
-96.371086025376727
 20
-21.549858153821081
 30
0.0
 42
0.2843858139786238
  0
VERTEX
  5
1FED
  8
SAPA_PROFIL
 62
     4
 10
-96.537226681443641
 20
-21.281377845340788
 30
0.0
  0
VERTEX
  5
1FEE
  8
SAPA_PROFIL
 62
     4
 10
-98.203367337512987
 20
-20.450670757793631
 30
0.0
  0
SEQEND
  5
1FEF
  8
SAPA_PROFIL
 62
     4
  0
POLYLINE
  5
165A
  8
SAPA_PROFIL
 62
     4
 66
     1
 10
0.0
 20
0.0
 30
0.0
 70
     1
  0
VERTEX
  5
1FF0
  8
SAPA_PROFIL
 62
     4
 10
-96.014254510879141
 20
-43.917611177683028
 30
0.0
  0
VERTEX
  5
1FF1
  8
SAPA_PROFIL
 62
     4
 10
-95.607694314875005
 20
-44.181634456059037
 30
0.0
 42
-0.2539676464751066
  0
VERTEX
  5
1FF2
  8
SAPA_PROFIL
 62
     4
 10
-95.471086025378895
 20
-44.433235626443746
 30
0.0
  0
VERTEX
  5
1FF3
  8
SAPA_PROFIL
 62
     4
 10
-95.471086025378895
 20
-45.814735211649086
 30
0.0
 42
-0.3152987888790479
  0
VERTEX
  5
1FF4
  8
SAPA_PROFIL
 62
     4
 10
-95.800075953717055
 20
-46.284581522041407
 30
0.0
  0
VERTEX
  5
1FF5
  8
SAPA_PROFIL
 62
     4
 10
-98.260906144168345
 20
-47.180250462950013
 30
0.0
 42
0.2694959974287434
  0
VERTEX
  5
1FF6
  8
SAPA_PROFIL
 62
     4
 10
-98.45403811851223
 20
-47.411769509351373
 30
0.0
 42
0.0612686379508233
  0
VERTEX
  5
1FF7
  8
SAPA_PROFIL
 62
     4
 10
-98.467621489142743
 20
-47.704444942204638
 30
0.0
  0
VERTEX
  5
1FF8
  8
SAPA_PROFIL
 62
     4
 10
-98.669358167871565
 20
-48.053863119512911
 30
0.0
 42
0.5773502691891679
  0
VERTEX
  5
1FF9
  8
SAPA_PROFIL
 62
     4
 10
-98.487492833076999
 20
-48.368863119512497
 30
0.0
  0
VERTEX
  5
1FFA
  8
SAPA_PROFIL
 62
     4
 10
-98.220378304950685
 20
-48.368863119512739
 30
0.0
  0
VERTEX
  5
1FFB
  8
SAPA_PROFIL
 62
     4
 10
-97.411694843642366
 20
-49.767390820146993
 30
0.0
 42
-0.1318219888653519
  0
VERTEX
  5
1FFC
  8
SAPA_PROFIL
 62
     4
 10
-97.37140244710497
 20
-49.91756392261933
 30
0.0
  0
VERTEX
  5
1FFD
  8
SAPA_PROFIL
 62
     4
 10
-97.37140244711135
 20
-50.099999993056123
 30
0.0
 42
-0.4142135623724291
  0
VERTEX
  5
1FFE
  8
SAPA_PROFIL
 62
     4
 10
-97.771402447110987
 20
-50.499999993056662
 30
0.0
  0
VERTEX
  5
1FFF
  8
SAPA_PROFIL
 62
     4
 10
-101.171402447112
 20
-50.499999993055297
 30
0.0
 42
-0.4142135623744271
  0
VERTEX
  5
2000
  8
SAPA_PROFIL
 62
     4
 10
-101.571402447113
 20
-50.099999993056123
 30
0.0
  0
VERTEX
  5
2001
  8
SAPA_PROFIL
 62
     4
 10
-101.5714024471136
 20
-49.920384750784812
 30
0.0
 42
-0.1316524975874005
  0
VERTEX
  5
2002
  8
SAPA_PROFIL
 62
     4
 10
-101.531210068248
 20
-49.77038475078799
 30
0.0
  0
VERTEX
  5
2003
  8
SAPA_PROFIL
 62
     4
 10
-100.6050606215955
 20
-48.166246853785736
 30
0.0
 42
0.1316524975875904
  0
VERTEX
  5
2004
  8
SAPA_PROFIL
 62
     4
 10
-100.4710860253807
 20
-47.666246853784031
 30
0.0
  0
VERTEX
  5
2005
  8
SAPA_PROFIL
 62
     4
 10
-100.4710860253807
 20
-47.249999993056662
 30
0.0
 42
0.4142135623730951
  0
VERTEX
  5
2006
  8
SAPA_PROFIL
 62
     4
 10
-101.4710860253807
 20
-46.249999993056662
 30
0.0
  0
VERTEX
  5
2007
  8
SAPA_PROFIL
 62
     4
 10
-104.471086025378
 20
-46.249999993056662
 30
0.0
 42
-0.9999996830128083
  0
VERTEX
  5
2008
  8
SAPA_PROFIL
 62
     4
 10
-104.4710860253798
 20
-45.249999993056647
 30
0.0
  0
VERTEX
  5
2009
  8
SAPA_PROFIL
 62
     4
 10
-101.4710860253798
 20
-45.249999993056647
 30
0.0
 42
0.4142135623730951
  0
VERTEX
  5
200A
  8
SAPA_PROFIL
 62
     4
 10
-100.4710860253798
 20
-44.249999993056662
 30
0.0
  0
VERTEX
  5
200B
  8
SAPA_PROFIL
 62
     4
 10
-100.4710860253798
 20
-14.74999999297208
 30
0.0
 42
0.4142135623730951
  0
VERTEX
  5
200C
  8
SAPA_PROFIL
 62
     4
 10
-101.4710860253798
 20
-13.74999999297208
 30
0.0
  0
VERTEX
  5
200D
  8
SAPA_PROFIL
 62
     4
 10
-104.471086025378
 20
-13.74999999297208
 30
0.0
 42
-0.9999999999999998
  0
VERTEX
  5
200E
  8
SAPA_PROFIL
 62
     4
 10
-104.471086025378
 20
-12.74999999297208
 30
0.0
  0
VERTEX
  5
200F
  8
SAPA_PROFIL
 62
     4
 10
-101.4710860253798
 20
-12.74999999297208
 30
0.0
 42
0.4142135623736278
  0
VERTEX
  5
2010
  8
SAPA_PROFIL
 62
     4
 10
-100.4710860253798
 20
-11.74999999297208
 30
0.0
  0
VERTEX
  5
2011
  8
SAPA_PROFIL
 62
     4
 10
-100.4710860253798
 20
-11.33375313224562
 30
0.0
 42
0.1316524975874375
  0
VERTEX
  5
2012
  8
SAPA_PROFIL
 62
     4
 10
-100.6050606215958
 20
-10.83375313224542
 30
0.0
  0
VERTEX
  5
2013
  8
SAPA_PROFIL
 62
     4
 10
-101.531210068248
 20
-9.2296152352434717
 30
0.0
 42
-0.1316524975874
  0
VERTEX
  5
2014
  8
SAPA_PROFIL
 62
     4
 10
-101.5714024471136
 20
-9.0796152352439279
 30
0.0
  0
VERTEX
  5
2015
  8
SAPA_PROFIL
 62
     4
 10
-101.571402447113
 20
-8.8999999929726243
 30
0.0
 42
-0.4142135623744271
  0
VERTEX
  5
2016
  8
SAPA_PROFIL
 62
     4
 10
-101.171402447112
 20
-8.4999999929734429
 30
0.0
  0
VERTEX
  5
2017
  8
SAPA_PROFIL
 62
     4
 10
-97.771402447110987
 20
-8.4999999929720786
 30
0.0
 42
-0.4142135623724291
  0
VERTEX
  5
2018
  8
SAPA_PROFIL
 62
     4
 10
-97.37140244711135
 20
-8.8999999929726243
 30
0.0
  0
VERTEX
  5
2019
  8
SAPA_PROFIL
 62
     4
 10
-97.37140244710497
 20
-9.0824360634094035
 30
0.0
 42
-0.1318219888653524
  0
VERTEX
  5
201A
  8
SAPA_PROFIL
 62
     4
 10
-97.411694843642366
 20
-9.2326091658817475
 30
0.0
  0
VERTEX
  5
201B
  8
SAPA_PROFIL
 62
     4
 10
-98.220378304866713
 20
-10.6311368663614
 30
0.0
  0
VERTEX
  5
201C
  8
SAPA_PROFIL
 62
     4
 10
-98.487492833079742
 20
-10.6311368663614
 30
0.0
 42
0.577350269189159
  0
VERTEX
  5
201D
  8
SAPA_PROFIL
 62
     4
 10
-98.669358167874321
 20
-10.946136866361
 30
0.0
  0
VERTEX
  5
201E
  8
SAPA_PROFIL
 62
     4
 10
-98.467621489197214
 20
-11.295555043579659
 30
0.0
 42
0.0612687673629489
  0
VERTEX
  5
201F
  8
SAPA_PROFIL
 62
     4
 10
-98.454038118510994
 20
-11.58823047667987
 30
0.0
 42
0.2694959974285039
  0
VERTEX
  5
2020
  8
SAPA_PROFIL
 62
     4
 10
-98.260906144167038
 20
-11.81974952308039
 30
0.0
  0
VERTEX
  5
2021
  8
SAPA_PROFIL
 62
     4
 10
-95.800075953713872
 20
-12.71541846399006
 30
0.0
 42
-0.3152987888784035
  0
VERTEX
  5
2022
  8
SAPA_PROFIL
 62
     4
 10
-95.471086025377303
 20
-13.185264774383279
 30
0.0
  0
VERTEX
  5
2023
  8
SAPA_PROFIL
 62
     4
 10
-95.471086025378895
 20
-14.566764359587721
 30
0.0
 42
-0.2539676464741841
  0
VERTEX
  5
2024
  8
SAPA_PROFIL
 62
     4
 10
-95.607694314874166
 20
-14.8183655299718
 30
0.0
  0
VERTEX
  5
2025
  8
SAPA_PROFIL
 62
     4
 10
-96.014254510879141
 20
-15.082388808348441
 30
0.0
 42
-0.5862177598324623
  0
VERTEX
  5
2026
  8
SAPA_PROFIL
 62
     4
 10
-96.471086025375655
 20
-14.82664699311009
 30
0.0
  0
VERTEX
  5
2027
  8
SAPA_PROFIL
 62
     4
 10
-96.471086025367981
 20
-13.88547231260028
 30
0.0
 42
0.3152987888813165
  0
VERTEX
  5
2028
  8
SAPA_PROFIL
 62
     4
 10
-96.800075953704734
 20
-13.415626002202529
 30
0.0
  0
VERTEX
  5
2029
  8
SAPA_PROFIL
 62
     4
 10
-98.000075953715964
 20
-12.97886172107857
 30
0.0
 42
0.5205670505515651
  0
VERTEX
  5
202A
  8
SAPA_PROFIL
 62
     4
 10
-98.671086025378713
 20
-13.44870803147179
 30
0.0
  0
VERTEX
  5
202B
  8
SAPA_PROFIL
 62
     4
 10
-98.671086025378756
 20
-18.465148972140639
 30
0.0
 42
0.3702522326300203
  0
VERTEX
  5
202C
  8
SAPA_PROFIL
 62
     4
 10
-98.416626072713015
 20
-18.761672333933969
 30
0.0
 42
0.0982365330332397
  0
VERTEX
  5
202D
  8
SAPA_PROFIL
 62
     4
 10
-96.728939297718014
 20
-18.85212509214492
 30
0.0
 42
0.3735060174783164
  0
VERTEX
  5
202E
  8
SAPA_PROFIL
 62
     4
 10
-96.471086025377986
 20
-18.555100424233931
 30
0.0
  0
VERTEX
  5
202F
  8
SAPA_PROFIL
 62
     4
 10
-96.471086025377076
 20
-18.126646993111279
 30
0.0
 42
-0.5920056181162531
  0
VERTEX
  5
2030
  8
SAPA_PROFIL
 62
     4
 10
-96.009882522849153
 20
-17.87363823679388
 30
0.0
  0
VERTEX
  5
2031
  8
SAPA_PROFIL
 62
     4
 10
-95.607694314870855
 20
-18.134822312949581
 30
0.0
 42
-0.2539676464746725
  0
VERTEX
  5
2032
  8
SAPA_PROFIL
 62
     4
 10
-95.471086025375499
 20
-18.386423483333338
 30
0.0
  0
VERTEX
  5
2033
  8
SAPA_PROFIL
 62
     4
 10
-95.471086025377076
 20
-40.613576502699033
 30
0.0
 42
-0.2539676464741819
  0
VERTEX
  5
2034
  8
SAPA_PROFIL
 62
     4
 10
-95.607694314870855
 20
-40.865177673081888
 30
0.0
  0
VERTEX
  5
2035
  8
SAPA_PROFIL
 62
     4
 10
-96.00988252284921
 20
-41.126361749235699
 30
0.0
 42
-0.5920055144124249
  0
VERTEX
  5
2036
  8
SAPA_PROFIL
 62
     4
 10
-96.471086025377076
 20
-40.873352992920189
 30
0.0
  0
VERTEX
  5
2037
  8
SAPA_PROFIL
 62
     4
 10
-96.471086000102076
 20
-40.444899515629963
 30
0.0
 42
0.3735060174775405
  0
VERTEX
  5
2038
  8
SAPA_PROFIL
 62
     4
 10
-96.728939272442176
 20
-40.147874847720267
 30
0.0
 42
0.0355900683670349
  0
VERTEX
  5
2039
  8
SAPA_PROFIL
 62
     4
 10
-97.344812859241955
 20
-40.103981283688029
 30
0.0
 42
0.0624282003873116
  0
VERTEX
  5
203A
  8
SAPA_PROFIL
 62
     4
 10
-98.416626047437077
 20
-40.238327605930969
 30
0.0
 42
0.3702522326309292
  0
VERTEX
  5
203B
  8
SAPA_PROFIL
 62
     4
 10
-98.671086000102804
 20
-40.534850967724338
 30
0.0
  0
VERTEX
  5
203C
  8
SAPA_PROFIL
 62
     4
 10
-98.671086025378955
 20
-45.551291954557847
 30
0.0
 42
0.5205670505515692
  0
VERTEX
  5
203D
  8
SAPA_PROFIL
 62
     4
 10
-98.000075953715964
 20
-46.021138264951077
 30
0.0
  0
VERTEX
  5
203E
  8
SAPA_PROFIL
 62
     4
 10
-96.800075953706525
 20
-45.584373983826119
 30
0.0
 42
0.3152987888807539
  0
VERTEX
  5
203F
  8
SAPA_PROFIL
 62
     4
 10
-96.471086025368891
 20
-45.114527673430267
 30
0.0
  0
VERTEX
  5
2040
  8
SAPA_PROFIL
 62
     4
 10
-96.471086025375712
 20
-44.173352992921181
 30
0.0
 42
-0.5862175119221242
  0
VERTEX
  5
2041
  8
SAPA_PROFIL
 62
     4
 10
-96.014254699620594
 20
-43.917611061939233
 30
0.0
 42
0.0000002084758573
  0
SEQEND
  5
2042
  8
SAPA_PROFIL
 62
     4
  0
CIRCLE
  5
165B
  8
SAPA_PROFIL
 62
     2
 10
-86.831507495362828
 20
-67.317340025555524
 30
0.1
 40
0.25
  0
INSERT
  5
165C
  8
SAPA_PROFIL
  6
CONTINUOUS
 62
     2
  2
*U115
 10
0.0
 20
0.0
 30
0.0
1001
ACAD
1002
{
1000
R14_HATCH_DATA
1000
165C
1011
1.0
1021
0.0
1031
0.0
1021
0.0
1031
0.0
1011
0.0
1021
0.0
1031
0.0
1021
1.0
1031
0.0
1011
0.0
1021
0.0
1031
0.0
1021
0.0
1031
1.0
1040
0.1
1010
0.0
1020
0.0
1030
1.0
1000
SOLID
1070
     1
1070
     1
1071
        1
1071
        7
1070
     1
1070
     1
1071
        2
1040
-86.831507495362828
1040
-67.067340025555524
1040
-1.0
1040
-86.831507495362828
1040
-67.567340025555524
1040
-1.0
1071
        1
1005
165B
1070
     0
1070
     1
1040
0.0095408196840103
1071
        1
1040
-86.831507495362828
1040
-67.217340025555515
1040
0.1
1002
}
  0
POLYLINE
  5
165D
  8
SAPA_PROFIL
 62
     2
 66
     1
 10
0.0
 20
0.0
 30
0.1
 70
     1
  0
VERTEX
  5
2054
  8
SAPA_PROFIL
 62
     2
 10
-84.499974494019796
 20
-69.991719264421405
 30
0.1
  0
VERTEX
  5
2055
  8
SAPA_PROFIL
 62
     2
 10
-84.399974494019801
 20
-69.991719264421405
 30
0.1
 42
0.4142135623730959
  0
VERTEX
  5
2056
  8
SAPA_PROFIL
 62
     2
 10
-83.699974494019798
 20
-69.291719264421403
 30
0.1
  0
VERTEX
  5
2057
  8
SAPA_PROFIL
 62
     2
 10
-83.699974494019798
 20
-68.191719264421408
 30
0.1
 42
0.4142135623730961
  0
VERTEX
  5
2058
  8
SAPA_PROFIL
 62
     2
 10
-83.899974494019787
 20
-67.991719264421405
 30
0.1
  0
VERTEX
  5
2059
  8
SAPA_PROFIL
 62
     2
 10
-84.999974494019796
 20
-67.991719264421405
 30
0.1
 42
0.4142135623730956
  0
VERTEX
  5
205A
  8
SAPA_PROFIL
 62
     2
 10
-85.199974494019798
 20
-68.191719264421408
 30
0.1
  0
VERTEX
  5
205B
  8
SAPA_PROFIL
 62
     2
 10
-85.199974494019798
 20
-69.291719264421403
 30
0.1
 42
0.4142135623730946
  0
SEQEND
  5
205C
  8
SAPA_PROFIL
 62
     2
  0
POLYLINE
  5
165E
  8
SAPA_PROFIL
 62
     2
 66
     1
 10
0.0
 20
0.0
 30
0.1
  0
VERTEX
  5
205D
  8
SAPA_PROFIL
 62
     2
 10
-85.999974494019796
 20
-68.691719264421408
 30
0.1
  0
VERTEX
  5
205E
  8
SAPA_PROFIL
 62
     2
 10
-85.999974494019796
 20
-68.043953699148318
 30
0.1
 42
0.4416942457848117
  0
VERTEX
  5
205F
  8
SAPA_PROFIL
 62
     2
 10
-86.218528853647726
 20
-67.844816219655385
 30
0.1
  0
VERTEX
  5
2060
  8
SAPA_PROFIL
 62
     2
 10
-87.181420134391885
 20
-67.934532284913416
 30
0.1
 42
-0.4416942457848106
  0
VERTEX
  5
2061
  8
SAPA_PROFIL
 62
     2
 10
-87.399974494019816
 20
-67.735394805420484
 30
0.1
  0
VERTEX
  5
2062
  8
SAPA_PROFIL
 62
     2
 10
-87.399974494019816
 20
-67.185412465828946
 30
0.1
 42
-0.5445962197109637
  0
VERTEX
  5
2063
  8
SAPA_PROFIL
 62
     2
 10
-86.694295448614724
 20
-66.729675556767077
 30
0.1
  0
VERTEX
  5
2064
  8
SAPA_PROFIL
 62
     2
 10
-86.335244295329446
 20
-66.891719264421397
 30
0.1
  0
VERTEX
  5
2065
  8
SAPA_PROFIL
 62
     2
 10
-84.86228505658157
 20
-66.891719264421397
 30
0.1
 42
-0.336437923496554
  0
VERTEX
  5
2066
  8
SAPA_PROFIL
 62
     2
 10
-83.790541326966732
 20
-67.079226082263133
 30
0.1
  0
VERTEX
  5
2067
  8
SAPA_PROFIL
 62
     2
 10
-83.228677691143005
 20
-67.079226082263133
 30
0.1
 42
0.1919812372740513
  0
VERTEX
  5
2068
  8
SAPA_PROFIL
 62
     2
 10
-82.884690643542982
 20
-66.942093704245863
 30
0.1
  0
VERTEX
  5
2069
  8
SAPA_PROFIL
 62
     2
 10
-82.492823713139671
 20
-66.570616227955838
 30
0.1
 42
0.9249153594910841
  0
VERTEX
  5
206A
  8
SAPA_PROFIL
 62
     2
 10
-84.158601641661875
 20
-64.336921412876535
 30
0.1
  0
VERTEX
  5
206B
  8
SAPA_PROFIL
 62
     2
 10
-85.243146581330663
 20
-64.870469468128164
 30
0.1
 42
-0.4184584792862776
  0
VERTEX
  5
206C
  8
SAPA_PROFIL
 62
     2
 10
-85.829848897902096
 20
-64.466717347708453
 30
0.1
 42
-0.3891337693453737
  0
VERTEX
  5
206D
  8
SAPA_PROFIL
 62
     2
 10
-85.684682006361612
 20
-64.238628039765842
 30
0.1
  0
VERTEX
  5
206E
  8
SAPA_PROFIL
 62
     2
 10
-84.598785915796583
 20
-63.675722987277972
 30
0.1
 42
-0.8864286961344978
  0
VERTEX
  5
206F
  8
SAPA_PROFIL
 62
     2
 10
-81.927006013860066
 20
-67.034921742798687
 30
0.1
  0
VERTEX
  5
2070
  8
SAPA_PROFIL
 62
     2
 10
-81.496446875978805
 20
-67.150289716087798
 30
0.1
 42
-0.9163311740174273
  0
VERTEX
  5
2071
  8
SAPA_PROFIL
 62
     2
 10
-81.634836791118872
 20
-67.935137925840138
 30
0.1
  0
VERTEX
  5
2072
  8
SAPA_PROFIL
 62
     2
 10
-82.682543345470265
 20
-67.843475479632573
 30
0.1
 42
0.4400105308918339
  0
VERTEX
  5
2073
  8
SAPA_PROFIL
 62
     2
 10
-82.899974494019801
 20
-68.042714419250913
 30
0.1
  0
VERTEX
  5
2074
  8
SAPA_PROFIL
 62
     2
 10
-82.899974494019801
 20
-68.891719264421397
 30
0.1
  0
VERTEX
  5
2075
  8
SAPA_PROFIL
 62
     2
 10
-82.499974494019796
 20
-68.891719264421397
 30
0.1
 42
-0.569380983920789
  0
VERTEX
  5
2076
  8
SAPA_PROFIL
 62
     2
 10
-82.324420448456209
 20
-69.187535636124053
 30
0.1
  0
VERTEX
  5
2077
  8
SAPA_PROFIL
 62
     2
 10
-83.029386048355278
 20
-70.479168379529355
 30
0.1
 42
-0.274387813087548
  0
VERTEX
  5
2078
  8
SAPA_PROFIL
 62
     2
 10
-83.556048185046023
 20
-70.791719264421403
 30
0.1
  0
VERTEX
  5
2079
  8
SAPA_PROFIL
 62
     2
 10
-85.343900802993574
 20
-70.791719264421403
 30
0.1
 42
-0.274387813087548
  0
VERTEX
  5
207A
  8
SAPA_PROFIL
 62
     2
 10
-85.870562939684319
 20
-70.479168379529355
 30
0.1
  0
VERTEX
  5
207B
  8
SAPA_PROFIL
 62
     2
 10
-86.575528539583388
 20
-69.187535636124053
 30
0.1
 42
-0.5693809839207892
  0
VERTEX
  5
207C
  8
SAPA_PROFIL
 62
     2
 10
-86.399974494019787
 20
-68.891719264421397
 30
0.1
  0
VERTEX
  5
207D
  8
SAPA_PROFIL
 62
     2
 10
-85.999974494019796
 20
-68.891719264421397
 30
0.1
  0
VERTEX
  5
207E
  8
SAPA_PROFIL
 62
     2
 10
-85.999974494019796
 20
-68.042714419250913
 30
0.1
  0
SEQEND
  5
207F
  8
SAPA_PROFIL
 62
     2
  0
POLYLINE
  5
165F
  8
SAPA_PROFIL
 66
     1
 10
0.0
 20
0.0
 30
0.0
 70
     1
  0
VERTEX
  5
2080
  8
SAPA_PROFIL
 10
-81.453514569158656
 20
-8.4999999990103916
 30
0.0
 42
-0.2134217652834387
  0
VERTEX
  5
2081
  8
SAPA_PROFIL
 10
-81.677121366908764
 20
-8.3999999990102836
 30
0.0
 42
0.7625858545243219
  0
VERTEX
  5
2082
  8
SAPA_PROFIL
 10
-82.007447447925784
 20
-8.5845792012077595
 30
0.0
  0
VERTEX
  5
2083
  8
SAPA_PROFIL
 10
-81.949373810936692
 20
-8.7759622012014802
 30
0.0
  0
VERTEX
  5
2084
  8
SAPA_PROFIL
 10
-80.864809363964966
 20
-10.66180589306253
 30
0.0
  0
VERTEX
  5
2085
  8
SAPA_PROFIL
 10
-80.543051635746693
 20
-10.65124452683555
 30
0.0
 42
-0.5773502691897439
  0
VERTEX
  5
2086
  8
SAPA_PROFIL
 10
-80.360097895636528
 20
-10.94540082709039
 30
0.0
  0
VERTEX
  5
2087
  8
SAPA_PROFIL
 10
-80.512231806745277
 20
-11.230083110322029
 30
0.0
 42
-0.2216946626430187
  0
VERTEX
  5
2088
  8
SAPA_PROFIL
 10
-81.053111638222063
 20
-11.63589201547682
 30
0.0
  0
VERTEX
  5
2089
  8
SAPA_PROFIL
 10
-82.866342108880303
 20
-12.01733861160454
 30
0.0
 42
-0.4769755326981641
  0
VERTEX
  5
208A
  8
SAPA_PROFIL
 10
-83.237998983826202
 20
-11.71508578709807
 30
0.0
  0
VERTEX
  5
208B
  8
SAPA_PROFIL
 10
-83.237915375942549
 20
-10.21198470633607
 30
0.0
  0
VERTEX
  5
208C
  8
SAPA_PROFIL
 10
-83.190069625944048
 20
-10.19746629708896
 30
0.0
 42
0.4142135623730944
  0
VERTEX
  5
208D
  8
SAPA_PROFIL
 10
-82.990105581436666
 20
-9.8232813416131535
 30
0.0
  0
VERTEX
  5
208E
  8
SAPA_PROFIL
 10
-83.500000000000156
 20
-8.5040483398517424
 30
0.0
  0
VERTEX
  5
208F
  8
SAPA_PROFIL
 10
-83.500000000000213
 20
11.231478397645761
 30
0.0
 42
0.38217120901707
  0
VERTEX
  5
2090
  8
SAPA_PROFIL
 10
-83.766880215905957
 20
11.52964459274768
 30
0.0
  0
VERTEX
  5
2091
  8
SAPA_PROFIL
 10
-90.344851000000176
 20
12.055484127712671
 30
0.0
 42
0.4469990000000265
  0
VERTEX
  5
2092
  8
SAPA_PROFIL
 10
-90.900051000000303
 20
11.55854012771262
 30
0.0
  0
VERTEX
  5
2093
  8
SAPA_PROFIL
 10
-90.900051000000175
 20
9.8000000009896286
 30
0.0
 42
-0.4142139999999868
  0
VERTEX
  5
2094
  8
SAPA_PROFIL
 10
-91.900051000000119
 20
8.8000000009896571
 30
0.0
  0
VERTEX
  5
2095
  8
SAPA_PROFIL
 10
-92.167595000000233
 20
8.8000000009896144
 30
0.0
 42
-0.2896899999999956
  0
VERTEX
  5
2096
  8
SAPA_PROFIL
 10
-93.071103000000221
 20
9.3714280009896882
 30
0.0
 42
-0.5507599999999603
  0
VERTEX
  5
2097
  8
SAPA_PROFIL
 10
-92.800051000000167
 20
9.8000000009896286
 30
0.0
  0
VERTEX
  5
2098
  8
SAPA_PROFIL
 10
-92.500051000000227
 20
9.8000000009896251
 30
0.0
 42
0.4142140000001095
  0
VERTEX
  5
2099
  8
SAPA_PROFIL
 10
-92.300051000000124
 20
10.000000000989671
 30
0.0
  0
VERTEX
  5
209A
  8
SAPA_PROFIL
 10
-92.300051000000195
 20
11.10000000098964
 30
0.0
 42
0.4142139999999826
  0
VERTEX
  5
209B
  8
SAPA_PROFIL
 10
-93.300051000000167
 20
12.10000000098958
 30
0.0
  0
VERTEX
  5
209C
  8
SAPA_PROFIL
 10
-95.60000000000025
 20
12.100000000989629
 30
0.0
 42
0.4142139999999877
  0
VERTEX
  5
209D
  8
SAPA_PROFIL
 10
-96.600000000000236
 20
11.100000000989681
 30
0.0
  0
VERTEX
  5
209E
  8
SAPA_PROFIL
 10
-96.60000000000025
 20
10.00000000098961
 30
0.0
 42
0.4142139999999481
  0
VERTEX
  5
209F
  8
SAPA_PROFIL
 10
-96.400000000000134
 20
9.8000000009896642
 30
0.0
  0
VERTEX
  5
20A0
  8
SAPA_PROFIL
 10
-96.100051000000235
 20
9.8000000009896215
 30
0.0
 42
-0.5507600000000124
  0
VERTEX
  5
20A1
  8
SAPA_PROFIL
 10
-95.828998000000183
 20
9.3714280009896225
 30
0.0
 42
-0.2896899999999978
  0
VERTEX
  5
20A2
  8
SAPA_PROFIL
 10
-96.732506000000114
 20
8.8000000009896002
 30
0.0
  0
VERTEX
  5
20A3
  8
SAPA_PROFIL
 10
-97.000000000000242
 20
8.8000000009896251
 30
0.0
 42
-0.4142140000000002
  0
VERTEX
  5
20A4
  8
SAPA_PROFIL
 10
-98.000000000000227
 20
9.8000000009896393
 30
0.0
  0
VERTEX
  5
20A5
  8
SAPA_PROFIL
 10
-98.000000000000256
 20
11.500000000989621
 30
0.0
 42
-0.4142139999999887
  0
VERTEX
  5
20A6
  8
SAPA_PROFIL
 10
-96.000000000000199
 20
13.500000000989671
 30
0.0
  0
VERTEX
  5
20A7
  8
SAPA_PROFIL
 10
-31.20000000000028
 20
13.500000000989621
 30
0.0
 42
-0.4142135623730847
  0
VERTEX
  5
20A8
  8
SAPA_PROFIL
 10
-31.00000000000027
 20
13.30000000098962
 30
0.0
  0
VERTEX
  5
20A9
  8
SAPA_PROFIL
 10
-31.000000000000281
 20
10.611383000989649
 30
0.0
 42
-0.2596810000000924
  0
VERTEX
  5
20AA
  8
SAPA_PROFIL
 10
-31.094693000000291
 20
10.44135200098963
 30
0.0
  0
VERTEX
  5
20AB
  8
SAPA_PROFIL
 10
-32.542040000000213
 20
9.5449530009896222
 30
0.0
 42
-0.5877030000000333
  0
VERTEX
  5
20AC
  8
SAPA_PROFIL
 10
-33.000000000000298
 20
9.8000000009896855
 30
0.0
  0
VERTEX
  5
20AD
  8
SAPA_PROFIL
 10
-33.000000000000291
 20
11.20000000098965
 30
0.0
 42
0.4142139999999517
  0
VERTEX
  5
20AE
  8
SAPA_PROFIL
 10
-33.30000000000021
 20
11.50000000098964
 30
0.0
  0
VERTEX
  5
20AF
  8
SAPA_PROFIL
 10
-35.700000000000223
 20
11.5000000009896
 30
0.0
 42
0.4142140000000525
  0
VERTEX
  5
20B0
  8
SAPA_PROFIL
 10
-36.000000000000227
 20
11.200000000989659
 30
0.0
  0
VERTEX
  5
20B1
  8
SAPA_PROFIL
 10
-36.000000000000277
 20
-6.1999999990103207
 30
0.0
 42
0.4142140000001183
  0
VERTEX
  5
20B2
  8
SAPA_PROFIL
 10
-35.700000000000188
 20
-6.4999999990105026
 30
0.0
  0
VERTEX
  5
20B3
  8
SAPA_PROFIL
 10
-33.300000000000182
 20
-6.499999999010396
 30
0.0
 42
0.4142140000000144
  0
VERTEX
  5
20B4
  8
SAPA_PROFIL
 10
-33.000000000000341
 20
-6.1999999990103776
 30
0.0
  0
VERTEX
  5
20B5
  8
SAPA_PROFIL
 10
-33.000000000000291
 20
-4.7999999990103444
 30
0.0
 42
-0.5920054160710128
  0
VERTEX
  5
20B6
  8
SAPA_PROFIL
 10
-32.538796661885378
 20
-4.5469914862526126
 30
0.0
  0
VERTEX
  5
20B7
  8
SAPA_PROFIL
 10
-31.292531005672402
 20
-5.3410445160742261
 30
0.0
 42
-0.2562769852931535
  0
VERTEX
  5
20B8
  8
SAPA_PROFIL
 10
-31.200000000000301
 20
-5.5097170249728489
 30
0.0
  0
VERTEX
  5
20B9
  8
SAPA_PROFIL
 10
-31.200000000000291
 20
-8.5040483398512272
 30
0.0
  0
VERTEX
  5
20BA
  8
SAPA_PROFIL
 10
-31.709894418563959
 20
-9.8232813416131304
 30
0.0
 42
0.4142135623730948
  0
VERTEX
  5
20BB
  8
SAPA_PROFIL
 10
-31.509930374056569
 20
-10.19746629708894
 30
0.0
  0
VERTEX
  5
20BC
  8
SAPA_PROFIL
 10
-31.462084624058079
 20
-10.21198470633604
 30
0.0
  0
VERTEX
  5
20BD
  8
SAPA_PROFIL
 10
-31.46200101617444
 20
-11.715085787098049
 30
0.0
 42
-0.4769755326981646
  0
VERTEX
  5
20BE
  8
SAPA_PROFIL
 10
-31.8336578911203
 20
-12.01733861160452
 30
0.0
  0
VERTEX
  5
20BF
  8
SAPA_PROFIL
 10
-33.646888361778551
 20
-11.63589201547679
 30
0.0
 42
-0.2216946626430189
  0
VERTEX
  5
20C0
  8
SAPA_PROFIL
 10
-34.187768193255337
 20
-11.230083110321999
 30
0.0
  0
VERTEX
  5
20C1
  8
SAPA_PROFIL
 10
-34.339902104364107
 20
-10.94540082709036
 30
0.0
 42
-0.5773502691897443
  0
VERTEX
  5
20C2
  8
SAPA_PROFIL
 10
-34.156948364253921
 20
-10.651244526835541
 30
0.0
  0
VERTEX
  5
20C3
  8
SAPA_PROFIL
 10
-33.835190636035676
 20
-10.66180589306251
 30
0.0
  0
VERTEX
  5
20C4
  8
SAPA_PROFIL
 10
-32.750626189063937
 20
-8.7759622012014571
 30
0.0
  0
VERTEX
  5
20C5
  8
SAPA_PROFIL
 10
-32.692552552074858
 20
-8.5845792012077435
 30
0.0
 42
0.7625858545243274
  0
VERTEX
  5
20C6
  8
SAPA_PROFIL
 10
-33.02287863309185
 20
-8.3999999990102392
 30
0.0
 42
-0.2134217652834391
  0
VERTEX
  5
20C7
  8
SAPA_PROFIL
 10
-33.246485430841972
 20
-8.4999999990103614
 30
0.0
  0
VERTEX
  5
20C8
  8
SAPA_PROFIL
 10
-37.099271835342002
 20
-8.4999999990103827
 30
0.0
 42
0.4142135623729077
  0
VERTEX
  5
20C9
  8
SAPA_PROFIL
 10
-37.399271835341892
 20
-8.799999999010458
 30
0.0
  0
VERTEX
  5
20CA
  8
SAPA_PROFIL
 10
-37.399271835341949
 20
-9.0999999990106382
 30
0.0
  0
VERTEX
  5
20CB
  8
SAPA_PROFIL
 10
-36.475511404638667
 20
-10.699999999010259
 30
0.0
 42
-0.5773502691897674
  0
VERTEX
  5
20CC
  8
SAPA_PROFIL
 10
-36.648716485395433
 20
-10.99999999901039
 30
0.0
  0
VERTEX
  5
20CD
  8
SAPA_PROFIL
 10
-38.034357131450577
 20
-10.99999999901039
 30
0.0
 42
-0.2679491924311062
  0
VERTEX
  5
20CE
  8
SAPA_PROFIL
 10
-38.900382535235011
 20
-10.499999999010569
 30
0.0
  0
VERTEX
  5
20CF
  8
SAPA_PROFIL
 10
-39.910745506317078
 20
-8.7499999990103312
 30
0.0
 42
0.267949192431108
  0
VERTEX
  5
20D0
  8
SAPA_PROFIL
 10
-40.343758208209287
 20
-8.4999999990103827
 30
0.0
  0
VERTEX
  5
20D1
  8
SAPA_PROFIL
 10
-74.356241791791135
 20
-8.4999999990103774
 30
0.0
 42
0.2679491924311069
  0
VERTEX
  5
20D2
  8
SAPA_PROFIL
 10
-74.789254493683359
 20
-8.7499999990103561
 30
0.0
  0
VERTEX
  5
20D3
  8
SAPA_PROFIL
 10
-75.799617464765447
 20
-10.4999999990105
 30
0.0
 42
-0.2679491924311082
  0
VERTEX
  5
20D4
  8
SAPA_PROFIL
 10
-76.665642868549867
 20
-10.99999999901037
 30
0.0
  0
VERTEX
  5
20D5
  8
SAPA_PROFIL
 10
-78.051283514604961
 20
-10.999999999010379
 30
0.0
 42
-0.5773502691897738
  0
VERTEX
  5
20D6
  8
SAPA_PROFIL
 10
-78.224488595361748
 20
-10.699999999010309
 30
0.0
  0
VERTEX
  5
20D7
  8
SAPA_PROFIL
 10
-77.300728164658494
 20
-9.0999999990106346
 30
0.0
  0
VERTEX
  5
20D8
  8
SAPA_PROFIL
 10
-77.300728164658494
 20
-8.7999999990104527
 30
0.0
 42
0.4142135623729009
  0
VERTEX
  5
20D9
  8
SAPA_PROFIL
 10
-77.600728164658364
 20
-8.4999999990103206
 30
0.0
  0
SEQEND
  5
20DA
  8
SAPA_PROFIL
  0
POLYLINE
  5
1660
  8
SAPA_PROFIL
 66
     1
 10
0.0
 20
0.0
 30
0.0
 70
     1
  0
VERTEX
  5
20DB
  8
SAPA_PROFIL
 10
-79.800000000000267
 20
-6.3999999990103609
 30
0.0
 42
-0.4142135623730951
  0
VERTEX
  5
20DC
  8
SAPA_PROFIL
 10
-79.60000000000025
 20
-6.1999999990103163
 30
0.0
  0
VERTEX
  5
20DD
  8
SAPA_PROFIL
 10
-78.000000000000213
 20
-6.1999999990103731
 30
0.0
 42
-0.4142135623730951
  0
VERTEX
  5
20DE
  8
SAPA_PROFIL
 10
-77.800000000000182
 20
-6.3999999990103609
 30
0.0
  0
VERTEX
  5
20DF
  8
SAPA_PROFIL
 10
-77.800000000000182
 20
-6.7000000828836903
 30
0.0
  0
VERTEX
  5
20E0
  8
SAPA_PROFIL
 10
-41.700000000000223
 20
-6.7000000828836939
 30
0.0
  0
VERTEX
  5
20E1
  8
SAPA_PROFIL
 10
-41.700000000000237
 20
-6.3999999990103662
 30
0.0
 42
-0.4142135623730951
  0
VERTEX
  5
20E2
  8
SAPA_PROFIL
 10
-41.50000000000022
 20
-6.1999999990103198
 30
0.0
  0
VERTEX
  5
20E3
  8
SAPA_PROFIL
 10
-39.900000000000212
 20
-6.1999999990103767
 30
0.0
 42
-0.4142135623730951
  0
VERTEX
  5
20E4
  8
SAPA_PROFIL
 10
-39.700000000000223
 20
-6.3999999990103662
 30
0.0
  0
VERTEX
  5
20E5
  8
SAPA_PROFIL
 10
-39.700000000000223
 20
-6.7000000828836939
 30
0.0
  0
VERTEX
  5
20E6
  8
SAPA_PROFIL
 10
-38.000000000000227
 20
-6.700000082883645
 30
0.0
 42
0.4142135623730951
  0
VERTEX
  5
20E7
  8
SAPA_PROFIL
 10
-37.700000000000223
 20
-6.4000000828836843
 30
0.0
  0
VERTEX
  5
20E8
  8
SAPA_PROFIL
 10
-37.700000000000237
 20
11.20000000098965
 30
0.0
 42
0.414213562373095
  0
VERTEX
  5
20E9
  8
SAPA_PROFIL
 10
-38.000000000000227
 20
11.50000000098961
 30
0.0
  0
VERTEX
  5
20EA
  8
SAPA_PROFIL
 10
-39.700000000000223
 20
11.50000000098961
 30
0.0
  0
VERTEX
  5
20EB
  8
SAPA_PROFIL
 10
-39.700000000000223
 20
11.40000000098958
 30
0.0
 42
-0.4142135623730951
  0
VERTEX
  5
20EC
  8
SAPA_PROFIL
 10
-39.900000000000212
 20
11.20000000098965
 30
0.0
  0
VERTEX
  5
20ED
  8
SAPA_PROFIL
 10
-41.50000000000022
 20
11.20000000098959
 30
0.0
 42
-0.4142135623730951
  0
VERTEX
  5
20EE
  8
SAPA_PROFIL
 10
-41.700000000000223
 20
11.40000000098958
 30
0.0
  0
VERTEX
  5
20EF
  8
SAPA_PROFIL
 10
-41.700000000000223
 20
11.50000000098961
 30
0.0
  0
VERTEX
  5
20F0
  8
SAPA_PROFIL
 10
-77.800000000000182
 20
11.50000000098961
 30
0.0
  0
VERTEX
  5
20F1
  8
SAPA_PROFIL
 10
-77.800000000000239
 20
11.400000000989589
 30
0.0
 42
-0.4142135623730951
  0
VERTEX
  5
20F2
  8
SAPA_PROFIL
 10
-78.000000000000213
 20
11.200000000989659
 30
0.0
  0
VERTEX
  5
20F3
  8
SAPA_PROFIL
 10
-79.60000000000025
 20
11.200000000989609
 30
0.0
 42
-0.4142135623730898
  0
VERTEX
  5
20F4
  8
SAPA_PROFIL
 10
-79.800000000000182
 20
11.400000000989589
 30
0.0
  0
VERTEX
  5
20F5
  8
SAPA_PROFIL
 10
-79.800000000000182
 20
11.50000000098961
 30
0.0
  0
VERTEX
  5
20F6
  8
SAPA_PROFIL
 10
-81.500000000000227
 20
11.500000000989671
 30
0.0
 42
0.4142135623730953
  0
VERTEX
  5
20F7
  8
SAPA_PROFIL
 10
-81.800000000000196
 20
11.200000000989659
 30
0.0
  0
VERTEX
  5
20F8
  8
SAPA_PROFIL
 10
-81.800000000000239
 20
-6.4000000828836781
 30
0.0
 42
0.4142135623730951
  0
VERTEX
  5
20F9
  8
SAPA_PROFIL
 10
-81.500000000000227
 20
-6.7000000828836903
 30
0.0
  0
VERTEX
  5
20FA
  8
SAPA_PROFIL
 10
-79.800000000000182
 20
-6.7000000828836903
 30
0.0
  0
SEQEND
  5
20FB
  8
SAPA_PROFIL
  0
POLYLINE
  5
1661
  8
SAPA_PROFIL
 66
     1
 10
0.0
 20
0.0
 30
0.0
 70
     1
  0
VERTEX
  5
20FC
  8
SAPA_PROFIL
 10
-33.246485430841872
 20
-50.499999999010363
 30
0.0
  0
VERTEX
  5
20FD
  8
SAPA_PROFIL
 10
-37.099271835341931
 20
-50.499999999010363
 30
0.0
 42
-0.414213562372901
  0
VERTEX
  5
20FE
  8
SAPA_PROFIL
 10
-37.3992718353418
 20
-50.199999999010281
 30
0.0
  0
VERTEX
  5
20FF
  8
SAPA_PROFIL
 10
-37.39927183534185
 20
-49.899999999010099
 30
0.0
  0
VERTEX
  5
2100
  8
SAPA_PROFIL
 10
-36.475511404638567
 20
-48.299999999010439
 30
0.0
 42
0.5773502691897976
  0
VERTEX
  5
2101
  8
SAPA_PROFIL
 10
-36.648716485395333
 20
-47.999999999010349
 30
0.0
  0
VERTEX
  5
2102
  8
SAPA_PROFIL
 10
-38.034357131450477
 20
-47.999999999010349
 30
0.0
 42
0.2679491924311222
  0
VERTEX
  5
2103
  8
SAPA_PROFIL
 10
-38.900382535234897
 20
-48.499999999010207
 30
0.0
  0
VERTEX
  5
2104
  8
SAPA_PROFIL
 10
-39.910745506316992
 20
-50.249999999010377
 30
0.0
 42
-0.2679491924310994
  0
VERTEX
  5
2105
  8
SAPA_PROFIL
 10
-40.343758208209188
 20
-50.499999999010377
 30
0.0
  0
VERTEX
  5
2106
  8
SAPA_PROFIL
 10
-74.356241791791092
 20
-50.499999999010363
 30
0.0
 42
-0.2679491924311005
  0
VERTEX
  5
2107
  8
SAPA_PROFIL
 10
-74.789254493683302
 20
-50.249999999010377
 30
0.0
  0
VERTEX
  5
2108
  8
SAPA_PROFIL
 10
-75.799617464765362
 20
-48.499999999010193
 30
0.0
 42
0.2679491924311199
  0
VERTEX
  5
2109
  8
SAPA_PROFIL
 10
-76.66564286854981
 20
-47.999999999010349
 30
0.0
  0
VERTEX
  5
210A
  8
SAPA_PROFIL
 10
-78.051283514604933
 20
-47.999999999010342
 30
0.0
 42
0.5773502691897738
  0
VERTEX
  5
210B
  8
SAPA_PROFIL
 10
-78.22448859536172
 20
-48.299999999010417
 30
0.0
  0
VERTEX
  5
210C
  8
SAPA_PROFIL
 10
-77.300728164658409
 20
-49.899999999010099
 30
0.0
  0
VERTEX
  5
210D
  8
SAPA_PROFIL
 10
-77.300728164658409
 20
-50.199999999010281
 30
0.0
 42
-0.414213562372901
  0
VERTEX
  5
210E
  8
SAPA_PROFIL
 10
-77.600728164658335
 20
-50.499999999010413
 30
0.0
  0
VERTEX
  5
210F
  8
SAPA_PROFIL
 10
-81.453514569158415
 20
-50.499999999010363
 30
0.0
 42
0.2134217652834299
  0
VERTEX
  5
2110
  8
SAPA_PROFIL
 10
-81.677121366908494
 20
-50.599999999010478
 30
0.0
 42
-0.7625858545243327
  0
VERTEX
  5
2111
  8
SAPA_PROFIL
 10
-82.007447447925529
 20
-50.415420796813009
 30
0.0
  0
VERTEX
  5
2112
  8
SAPA_PROFIL
 10
-81.949373810936436
 20
-50.224037796819289
 30
0.0
  0
VERTEX
  5
2113
  8
SAPA_PROFIL
 10
-80.864809363964696
 20
-48.338194104958241
 30
0.0
  0
VERTEX
  5
2114
  8
SAPA_PROFIL
 10
-80.543051635746423
 20
-48.348755471185207
 30
0.0
 42
0.5773502691897466
  0
VERTEX
  5
2115
  8
SAPA_PROFIL
 10
-80.360097895636258
 20
-48.054599170930373
 30
0.0
  0
VERTEX
  5
2116
  8
SAPA_PROFIL
 10
-80.512231806745007
 20
-47.76991688769872
 30
0.0
 42
0.221694662643014
  0
VERTEX
  5
2117
  8
SAPA_PROFIL
 10
-81.053111638221822
 20
-47.364107982543942
 30
0.0
  0
VERTEX
  5
2118
  8
SAPA_PROFIL
 10
-82.866342108880048
 20
-46.982661386416218
 30
0.0
 42
0.4769755326981641
  0
VERTEX
  5
2119
  8
SAPA_PROFIL
 10
-83.237998983825946
 20
-47.284914210922693
 30
0.0
  0
VERTEX
  5
211A
  8
SAPA_PROFIL
 10
-83.237915375942293
 20
-48.788015291684701
 30
0.0
  0
VERTEX
  5
211B
  8
SAPA_PROFIL
 10
-83.190069625943806
 20
-48.802533700931797
 30
0.0
 42
-0.4142135623730878
  0
VERTEX
  5
211C
  8
SAPA_PROFIL
 10
-82.990105581436396
 20
-49.176718656407623
 30
0.0
  0
VERTEX
  5
211D
  8
SAPA_PROFIL
 10
-83.500000000000085
 20
-50.495951658169432
 30
0.0
  0
VERTEX
  5
211E
  8
SAPA_PROFIL
 10
-83.500000000000114
 20
-61.899999915162788
 30
0.0
 42
-0.4142135623730847
  0
VERTEX
  5
211F
  8
SAPA_PROFIL
 10
-83.700000000000131
 20
-62.099999915162797
 30
0.0
  0
VERTEX
  5
2120
  8
SAPA_PROFIL
 10
-85.299999997930684
 20
-62.099999915162783
 30
0.0
 42
0.4142135623730951
  0
VERTEX
  5
2121
  8
SAPA_PROFIL
 10
-85.499999997930715
 20
-62.2999999151628
 30
0.0
  0
VERTEX
  5
2122
  8
SAPA_PROFIL
 10
-85.499999997930715
 20
-62.799999915163284
 30
0.0
 42
0.4142135623730951
  0
VERTEX
  5
2123
  8
SAPA_PROFIL
 10
-84.499999997931084
 20
-63.79999991516285
 30
0.0
  0
VERTEX
  5
2124
  8
SAPA_PROFIL
 10
-76.999999250856376
 20
-63.79999991516285
 30
0.0
 42
-0.4142135623730951
  0
VERTEX
  5
2125
  8
SAPA_PROFIL
 10
-75.999999997930786
 20
-64.799999168088448
 30
0.0
  0
VERTEX
  5
2126
  8
SAPA_PROFIL
 10
-75.999999997930644
 20
-70.499999999010356
 30
0.0
 42
0.4142135623730951
  0
VERTEX
  5
2127
  8
SAPA_PROFIL
 10
-73.999999997930644
 20
-72.499999999010356
 30
0.0
  0
VERTEX
  5
2128
  8
SAPA_PROFIL
 10
-9.5000000000001741
 20
-72.499999999010356
 30
0.0
 42
0.4142139999999795
  0
VERTEX
  5
2129
  8
SAPA_PROFIL
 10
-9.0000000000001741
 20
-71.999999999010356
 30
0.0
  0
VERTEX
  5
212A
  8
SAPA_PROFIL
 10
-9.0000000000001883
 20
-68.299999999010325
 30
0.0
 42
0.414213999999917
  0
VERTEX
  5
212B
  8
SAPA_PROFIL
 10
-9.3000000000001144
 20
-67.999999999010356
 30
0.0
  0
VERTEX
  5
212C
  8
SAPA_PROFIL
 10
-10.06754500000015
 20
-67.999999999010356
 30
0.0
 42
0.2896899999999867
  0
VERTEX
  5
212D
  8
SAPA_PROFIL
 10
-10.97105300000011
 20
-68.571427999010353
 30
0.0
 42
0.5507600000000635
  0
VERTEX
  5
212E
  8
SAPA_PROFIL
 10
-10.700000000000159
 20
-68.999999999010356
 30
0.0
  0
VERTEX
  5
212F
  8
SAPA_PROFIL
 10
-10.500000000000171
 20
-68.999999999010356
 30
0.0
 42
-0.4142140000000558
  0
VERTEX
  5
2130
  8
SAPA_PROFIL
 10
-10.200000000000101
 20
-69.299999999010325
 30
0.0
  0
VERTEX
  5
2131
  8
SAPA_PROFIL
 10
-10.20000000000015
 20
-70.799999999010325
 30
0.0
 42
-0.4142139999999795
  0
VERTEX
  5
2132
  8
SAPA_PROFIL
 10
-10.700000000000159
 20
-71.299999999010325
 30
0.0
  0
VERTEX
  5
2133
  8
SAPA_PROFIL
 10
-14.000000000000201
 20
-71.299999999010339
 30
0.0
 42
-0.4142140000000003
  0
VERTEX
  5
2134
  8
SAPA_PROFIL
 10
-14.50000000000024
 20
-70.799999999010325
 30
0.0
  0
VERTEX
  5
2135
  8
SAPA_PROFIL
 10
-14.500000000000201
 20
-69.299999999010339
 30
0.0
 42
-0.4142140000000143
  0
VERTEX
  5
2136
  8
SAPA_PROFIL
 10
-14.200000000000131
 20
-68.999999999010313
 30
0.0
  0
VERTEX
  5
2137
  8
SAPA_PROFIL
 10
-14.000000000000201
 20
-68.999999999010356
 30
0.0
 42
0.5507599999999967
  0
VERTEX
  5
2138
  8
SAPA_PROFIL
 10
-13.7289480000002
 20
-68.571427999010325
 30
0.0
 42
0.2896899999999865
  0
VERTEX
  5
2139
  8
SAPA_PROFIL
 10
-14.63245600000012
 20
-67.999999999010356
 30
0.0
  0
VERTEX
  5
213A
  8
SAPA_PROFIL
 10
-15.62992700000011
 20
-67.999999999010356
 30
0.0
 42
0.0436609999999814
  0
VERTEX
  5
213B
  8
SAPA_PROFIL
 10
-15.71675200000009
 20
-68.007595999010363
 30
0.0
  0
VERTEX
  5
213C
  8
SAPA_PROFIL
 10
-17.286824000000109
 20
-68.284441999010312
 30
0.0
 42
0.839099999999982
  0
VERTEX
  5
213D
  8
SAPA_PROFIL
 10
-17.286824000000109
 20
-69.26924999901037
 30
0.0
  0
VERTEX
  5
213E
  8
SAPA_PROFIL
 10
-16.113176000000109
 20
-69.476194999010346
 30
0.0
 42
-0.3639700000000465
  0
VERTEX
  5
213F
  8
SAPA_PROFIL
 10
-15.70000000000012
 20
-69.968598999010382
 30
0.0
  0
VERTEX
  5
2140
  8
SAPA_PROFIL
 10
-15.70000000000012
 20
-70.779999999010329
 30
0.0
 42
-0.4373279999999983
  0
VERTEX
  5
2141
  8
SAPA_PROFIL
 10
-16.23909500000012
 20
-71.278468999010386
 30
0.0
  0
VERTEX
  5
2142
  8
SAPA_PROFIL
 10
-30.712153273416519
 20
-70.711670512614504
 30
0.0
 42
-0.4023941355297885
  0
VERTEX
  5
2143
  8
SAPA_PROFIL
 10
-31.000000000000242
 20
-70.411916783788172
 30
0.0
  0
VERTEX
  5
2144
  8
SAPA_PROFIL
 10
-31.00000000000021
 20
-69.611382999010345
 30
0.0
 42
0.2596810000001162
  0
VERTEX
  5
2145
  8
SAPA_PROFIL
 10
-31.09469300000022
 20
-69.441351999010351
 30
0.0
  0
VERTEX
  5
2146
  8
SAPA_PROFIL
 10
-32.542040000000121
 20
-68.544952999010349
 30
0.0
 42
0.5877030000000189
  0
VERTEX
  5
2147
  8
SAPA_PROFIL
 10
-33.00000000000022
 20
-68.799999999010367
 30
0.0
  0
VERTEX
  5
2148
  8
SAPA_PROFIL
 10
-33.00000000000022
 20
-70.199999999010345
 30
0.0
 42
-0.4142139999999518
  0
VERTEX
  5
2149
  8
SAPA_PROFIL
 10
-33.300000000000111
 20
-70.499999999010313
 30
0.0
  0
VERTEX
  5
214A
  8
SAPA_PROFIL
 10
-35.700000000000117
 20
-70.499999999010356
 30
0.0
 42
-0.4142140000000629
  0
VERTEX
  5
214B
  8
SAPA_PROFIL
 10
-36.000000000000163
 20
-70.199999999010345
 30
0.0
  0
VERTEX
  5
214C
  8
SAPA_PROFIL
 10
-36.000000000000192
 20
-52.79999999901036
 30
0.0
 42
-0.4142140000001044
  0
VERTEX
  5
214D
  8
SAPA_PROFIL
 10
-35.700000000000117
 20
-52.499999999010271
 30
0.0
  0
VERTEX
  5
214E
  8
SAPA_PROFIL
 10
-33.300000000000111
 20
-52.499999999010349
 30
0.0
 42
-0.4142140000000074
  0
VERTEX
  5
214F
  8
SAPA_PROFIL
 10
-33.000000000000242
 20
-52.79999999901036
 30
0.0
  0
VERTEX
  5
2150
  8
SAPA_PROFIL
 10
-33.000000000000242
 20
-54.199999999010338
 30
0.0
 42
0.5920054160709848
  0
VERTEX
  5
2151
  8
SAPA_PROFIL
 10
-32.538796661885293
 20
-54.453008511768097
 30
0.0
  0
VERTEX
  5
2152
  8
SAPA_PROFIL
 10
-31.29253100567233
 20
-53.658955481946428
 30
0.0
 42
0.2562769852931301
  0
VERTEX
  5
2153
  8
SAPA_PROFIL
 10
-31.200000000000198
 20
-53.49028297304784
 30
0.0
  0
VERTEX
  5
2154
  8
SAPA_PROFIL
 10
-31.200000000000198
 20
-50.495951658168828
 30
0.0
  0
VERTEX
  5
2155
  8
SAPA_PROFIL
 10
-31.709894418563621
 20
-49.176718656407623
 30
0.0
 42
-0.4142135623730872
  0
VERTEX
  5
2156
  8
SAPA_PROFIL
 10
-31.509930374056228
 20
-48.802533700931797
 30
0.0
  0
VERTEX
  5
2157
  8
SAPA_PROFIL
 10
-31.462084624057741
 20
-48.788015291684701
 30
0.0
  0
VERTEX
  5
2158
  8
SAPA_PROFIL
 10
-31.462001016174121
 20
-47.284914210922693
 30
0.0
 42
0.4769755326981643
  0
VERTEX
  5
2159
  8
SAPA_PROFIL
 10
-31.833657891119952
 20
-46.982661386416218
 30
0.0
  0
VERTEX
  5
215A
  8
SAPA_PROFIL
 10
-33.646888361778238
 20
-47.364107982543921
 30
0.0
 42
0.221694662643016
  0
VERTEX
  5
215B
  8
SAPA_PROFIL
 10
-34.187768193255003
 20
-47.769916887698741
 30
0.0
  0
VERTEX
  5
215C
  8
SAPA_PROFIL
 10
-34.339902104363759
 20
-48.054599170930381
 30
0.0
 42
0.5773502691897466
  0
VERTEX
  5
215D
  8
SAPA_PROFIL
 10
-34.15694836425358
 20
-48.3487554711852
 30
0.0
  0
VERTEX
  5
215E
  8
SAPA_PROFIL
 10
-33.835190636035342
 20
-48.338194104958241
 30
0.0
  0
VERTEX
  5
215F
  8
SAPA_PROFIL
 10
-32.750626189063603
 20
-50.224037796819289
 30
0.0
  0
VERTEX
  5
2160
  8
SAPA_PROFIL
 10
-32.692552552074503
 20
-50.415420796813009
 30
0.0
 42
-0.7625858545243331
  0
VERTEX
  5
2161
  8
SAPA_PROFIL
 10
-33.022878633091509
 20
-50.599999999010478
 30
0.0
 42
0.2134217652834442
  0
SEQEND
  5
2162
  8
SAPA_PROFIL
  0
POLYLINE
  5
1662
  8
SAPA_PROFIL
 66
     1
 10
0.0
 20
0.0
 30
0.0
 70
     1
  0
VERTEX
  5
2163
  8
SAPA_PROFIL
 10
-71.999999957930697
 20
-52.59999999901035
 30
0.0
 42
0.4142135623730951
  0
VERTEX
  5
2164
  8
SAPA_PROFIL
 10
-71.79999995793068
 20
-52.79999999901036
 30
0.0
  0
VERTEX
  5
2165
  8
SAPA_PROFIL
 10
-70.199999957930629
 20
-52.799999999010339
 30
0.0
 42
0.4142135623730951
  0
VERTEX
  5
2166
  8
SAPA_PROFIL
 10
-69.99999995793064
 20
-52.59999999901035
 30
0.0
  0
VERTEX
  5
2167
  8
SAPA_PROFIL
 10
-69.99999995793064
 20
-52.29999991513705
 30
0.0
  0
VERTEX
  5
2168
  8
SAPA_PROFIL
 10
-41.700000000000109
 20
-52.29999991513705
 30
0.0
  0
VERTEX
  5
2169
  8
SAPA_PROFIL
 10
-41.700000000000109
 20
-52.59999999901035
 30
0.0
 42
0.4142135623730951
  0
VERTEX
  5
216A
  8
SAPA_PROFIL
 10
-41.500000000000121
 20
-52.79999999901036
 30
0.0
  0
VERTEX
  5
216B
  8
SAPA_PROFIL
 10
-39.900000000000112
 20
-52.799999999010339
 30
0.0
 42
0.4142135623730951
  0
VERTEX
  5
216C
  8
SAPA_PROFIL
 10
-39.700000000000117
 20
-52.59999999901035
 30
0.0
  0
VERTEX
  5
216D
  8
SAPA_PROFIL
 10
-39.700000000000117
 20
-52.29999991513705
 30
0.0
  0
VERTEX
  5
216E
  8
SAPA_PROFIL
 10
-38.000000000000128
 20
-52.29999991513705
 30
0.0
 42
-0.4142135623730951
  0
VERTEX
  5
216F
  8
SAPA_PROFIL
 10
-37.700000000000117
 20
-52.599999915137012
 30
0.0
  0
VERTEX
  5
2170
  8
SAPA_PROFIL
 10
-37.700000000000117
 20
-70.199999999010345
 30
0.0
 42
-0.4142135623730951
  0
VERTEX
  5
2171
  8
SAPA_PROFIL
 10
-38.000000000000128
 20
-70.499999999010356
 30
0.0
  0
VERTEX
  5
2172
  8
SAPA_PROFIL
 10
-39.700000000000117
 20
-70.499999999010356
 30
0.0
  0
VERTEX
  5
2173
  8
SAPA_PROFIL
 10
-39.700000000000117
 20
-70.399999999010333
 30
0.0
 42
0.4142135623730951
  0
VERTEX
  5
2174
  8
SAPA_PROFIL
 10
-39.900000000000112
 20
-70.199999999010345
 30
0.0
  0
VERTEX
  5
2175
  8
SAPA_PROFIL
 10
-41.500000000000121
 20
-70.199999999010345
 30
0.0
 42
0.4142135623730951
  0
VERTEX
  5
2176
  8
SAPA_PROFIL
 10
-41.700000000000109
 20
-70.399999999010333
 30
0.0
  0
VERTEX
  5
2177
  8
SAPA_PROFIL
 10
-41.700000000000109
 20
-70.499999999010356
 30
0.0
  0
VERTEX
  5
2178
  8
SAPA_PROFIL
 10
-69.99999995793064
 20
-70.499999999010356
 30
0.0
  0
VERTEX
  5
2179
  8
SAPA_PROFIL
 10
-69.99999995793064
 20
-70.399999999010333
 30
0.0
 42
0.4142135623730951
  0
VERTEX
  5
217A
  8
SAPA_PROFIL
 10
-70.199999957930629
 20
-70.199999999010345
 30
0.0
  0
VERTEX
  5
217B
  8
SAPA_PROFIL
 10
-71.79999995793068
 20
-70.199999999010359
 30
0.0
 42
0.4142135623730951
  0
VERTEX
  5
217C
  8
SAPA_PROFIL
 10
-71.99999995793064
 20
-70.399999999010333
 30
0.0
  0
VERTEX
  5
217D
  8
SAPA_PROFIL
 10
-71.99999995793064
 20
-70.499999999010356
 30
0.0
  0
VERTEX
  5
217E
  8
SAPA_PROFIL
 10
-73.999999997930672
 20
-70.499999999010356
 30
0.0
 42
-0.4142135623732158
  0
VERTEX
  5
217F
  8
SAPA_PROFIL
 10
-74.299999997930769
 20
-70.199999999010373
 30
0.0
  0
VERTEX
  5
2180
  8
SAPA_PROFIL
 10
-74.299999997930712
 20
-64.799999168088448
 30
0.0
 42
0.4142135623730951
  0
VERTEX
  5
2181
  8
SAPA_PROFIL
 10
-76.999999250856376
 20
-62.099999915162783
 30
0.0
  0
VERTEX
  5
2182
  8
SAPA_PROFIL
 10
-81.500000000000142
 20
-62.099999915162783
 30
0.0
 42
-0.4142135623730951
  0
VERTEX
  5
2183
  8
SAPA_PROFIL
 10
-81.800000000000125
 20
-61.7999999151628
 30
0.0
  0
VERTEX
  5
2184
  8
SAPA_PROFIL
 10
-81.800000000000125
 20
-52.599999915137012
 30
0.0
 42
-0.4142135623730951
  0
VERTEX
  5
2185
  8
SAPA_PROFIL
 10
-81.500000000000114
 20
-52.29999991513705
 30
0.0
  0
VERTEX
  5
2186
  8
SAPA_PROFIL
 10
-71.99999995793064
 20
-52.29999991513705
 30
0.0
  0
SEQEND
  5
2187
  8
SAPA_PROFIL
  0
POLYLINE
  5
1663
  8
SAPA_PROFIL
 62
     4
 66
     1
 10
0.0
 20
0.0
 30
0.0
  0
VERTEX
  5
2188
  8
SAPA_PROFIL
 62
     4
 10
-33.932281085847137
 20
-38.549329121450057
 30
0.0
 42
-0.5571646428658034
  0
VERTEX
  5
2189
  8
SAPA_PROFIL
 62
     4
 10
-34.80000000000269
 20
-38.012368617313228
 30
0.0
  0
VERTEX
  5
218A
  8
SAPA_PROFIL
 62
     4
 10
-34.800000000002228
 20
-20.987631380792031
 30
0.0
 42
-0.5571645048035741
  0
VERTEX
  5
218B
  8
SAPA_PROFIL
 62
     4
 10
-33.932281312136062
 20
-20.450670763830981
 30
0.0
  0
VERTEX
  5
218C
  8
SAPA_PROFIL
 62
     4
 10
-32.266140656068032
 20
-21.28137785137767
 30
0.0
 42
-0.284385813979063
  0
VERTEX
  5
218D
  8
SAPA_PROFIL
 62
     4
 10
-32.100000000000591
 20
-21.549858159858019
 30
0.0
  0
VERTEX
  5
218E
  8
SAPA_PROFIL
 62
     4
 10
-32.100000000000598
 20
-37.450141838247333
 30
0.0
 42
-0.2843858139786238
  0
VERTEX
  5
218F
  8
SAPA_PROFIL
 62
     4
 10
-32.266140656067527
 20
-37.718622146727618
 30
0.0
  0
VERTEX
  5
2190
  8
SAPA_PROFIL
 62
     4
 10
-33.93228131213688
 20
-38.549329234274779
 30
0.0
  0
SEQEND
  5
2191
  8
SAPA_PROFIL
 62
     4
  0
POLYLINE
  5
1664
  8
SAPA_PROFIL
 62
     4
 66
     1
 10
0.0
 20
0.0
 30
0.0
 70
     1
  0
VERTEX
  5
2192
  8
SAPA_PROFIL
 62
     4
 10
-31.74316848550302
 20
-15.08238881438538
 30
0.0
  0
VERTEX
  5
2193
  8
SAPA_PROFIL
 62
     4
 10
-31.33660828949888
 20
-14.81836553600937
 30
0.0
 42
0.2539676464751066
  0
VERTEX
  5
2194
  8
SAPA_PROFIL
 62
     4
 10
-31.200000000002781
 20
-14.56676436562466
 30
0.0
  0
VERTEX
  5
2195
  8
SAPA_PROFIL
 62
     4
 10
-31.200000000002781
 20
-13.18526478041931
 30
0.0
 42
0.3152987888790479
  0
VERTEX
  5
2196
  8
SAPA_PROFIL
 62
     4
 10
-31.528989928340941
 20
-12.715418470027
 30
0.0
  0
VERTEX
  5
2197
  8
SAPA_PROFIL
 62
     4
 10
-33.98982011879221
 20
-11.8197495291184
 30
0.0
 42
-0.2694959974287434
  0
VERTEX
  5
2198
  8
SAPA_PROFIL
 62
     4
 10
-34.182952093136102
 20
-11.588230482717041
 30
0.0
 42
-0.0612686379508233
  0
VERTEX
  5
2199
  8
SAPA_PROFIL
 62
     4
 10
-34.196535463766622
 20
-11.29555504986376
 30
0.0
  0
VERTEX
  5
219A
  8
SAPA_PROFIL
 62
     4
 10
-34.398272142495443
 20
-10.946136872555501
 30
0.0
 42
-0.5773502691891679
  0
VERTEX
  5
219B
  8
SAPA_PROFIL
 62
     4
 10
-34.216406807700878
 20
-10.63113687255591
 30
0.0
  0
VERTEX
  5
219C
  8
SAPA_PROFIL
 62
     4
 10
-33.949292279574557
 20
-10.63113687255567
 30
0.0
  0
VERTEX
  5
219D
  8
SAPA_PROFIL
 62
     4
 10
-33.140608818266251
 20
-9.2326091719214176
 30
0.0
 42
0.1318219888653519
  0
VERTEX
  5
219E
  8
SAPA_PROFIL
 62
     4
 10
-33.100316421728849
 20
-9.0824360694490736
 30
0.0
  0
VERTEX
  5
219F
  8
SAPA_PROFIL
 62
     4
 10
-33.100316421735222
 20
-8.8999999990122944
 30
0.0
 42
0.4142135623724291
  0
VERTEX
  5
21A0
  8
SAPA_PROFIL
 62
     4
 10
-33.500316421734851
 20
-8.4999999990117487
 30
0.0
  0
VERTEX
  5
21A1
  8
SAPA_PROFIL
 62
     4
 10
-36.900316421735852
 20
-8.4999999990131112
 30
0.0
 42
0.4142135623744271
  0
VERTEX
  5
21A2
  8
SAPA_PROFIL
 62
     4
 10
-37.300316421736852
 20
-8.8999999990122944
 30
0.0
  0
VERTEX
  5
21A3
  8
SAPA_PROFIL
 62
     4
 10
-37.300316421737492
 20
-9.0796152412835962
 30
0.0
 42
0.1316524975874005
  0
VERTEX
  5
21A4
  8
SAPA_PROFIL
 62
     4
 10
-37.260124042871887
 20
-9.2296152412804133
 30
0.0
  0
VERTEX
  5
21A5
  8
SAPA_PROFIL
 62
     4
 10
-36.333974596219363
 20
-10.83375313828267
 30
0.0
 42
-0.1316524975875904
  0
VERTEX
  5
21A6
  8
SAPA_PROFIL
 62
     4
 10
-36.200000000004593
 20
-11.333753138284379
 30
0.0
  0
VERTEX
  5
21A7
  8
SAPA_PROFIL
 62
     4
 10
-36.200000000004593
 20
-11.749999999011751
 30
0.0
 42
-0.4142135623730951
  0
VERTEX
  5
21A8
  8
SAPA_PROFIL
 62
     4
 10
-37.200000000004593
 20
-12.749999999011751
 30
0.0
  0
VERTEX
  5
21A9
  8
SAPA_PROFIL
 62
     4
 10
-40.200000000001857
 20
-12.749999999011751
 30
0.0
 42
0.9999996830128083
  0
VERTEX
  5
21AA
  8
SAPA_PROFIL
 62
     4
 10
-40.200000000003683
 20
-13.749999999011751
 30
0.0
  0
VERTEX
  5
21AB
  8
SAPA_PROFIL
 62
     4
 10
-37.200000000003683
 20
-13.749999999011751
 30
0.0
 42
-0.4142135623730951
  0
VERTEX
  5
21AC
  8
SAPA_PROFIL
 62
     4
 10
-36.200000000003691
 20
-14.749999999011751
 30
0.0
  0
VERTEX
  5
21AD
  8
SAPA_PROFIL
 62
     4
 10
-36.200000000003691
 20
-44.249999999096318
 30
0.0
 42
-0.4142135623730951
  0
VERTEX
  5
21AE
  8
SAPA_PROFIL
 62
     4
 10
-37.200000000003691
 20
-45.249999999096332
 30
0.0
  0
VERTEX
  5
21AF
  8
SAPA_PROFIL
 62
     4
 10
-40.200000000001857
 20
-45.249999999096332
 30
0.0
 42
0.9999999999999998
  0
VERTEX
  5
21B0
  8
SAPA_PROFIL
 62
     4
 10
-40.200000000001857
 20
-46.249999999096332
 30
0.0
  0
VERTEX
  5
21B1
  8
SAPA_PROFIL
 62
     4
 10
-37.200000000003691
 20
-46.249999999096332
 30
0.0
 42
-0.4142135623736278
  0
VERTEX
  5
21B2
  8
SAPA_PROFIL
 62
     4
 10
-36.200000000003691
 20
-47.249999999096332
 30
0.0
  0
VERTEX
  5
21B3
  8
SAPA_PROFIL
 62
     4
 10
-36.200000000003691
 20
-47.666246859822792
 30
0.0
 42
-0.1316524975874375
  0
VERTEX
  5
21B4
  8
SAPA_PROFIL
 62
     4
 10
-36.333974596219733
 20
-48.166246859822991
 30
0.0
  0
VERTEX
  5
21B5
  8
SAPA_PROFIL
 62
     4
 10
-37.260124042871901
 20
-49.770384756824939
 30
0.0
 42
0.1316524975874
  0
VERTEX
  5
21B6
  8
SAPA_PROFIL
 62
     4
 10
-37.300316421737492
 20
-49.920384756824483
 30
0.0
  0
VERTEX
  5
21B7
  8
SAPA_PROFIL
 62
     4
 10
-37.300316421736859
 20
-50.099999999095779
 30
0.0
 42
0.4142135623744271
  0
VERTEX
  5
21B8
  8
SAPA_PROFIL
 62
     4
 10
-36.900316421735859
 20
-50.499999999094968
 30
0.0
  0
VERTEX
  5
21B9
  8
SAPA_PROFIL
 62
     4
 10
-33.500316421734858
 20
-50.499999999096332
 30
0.0
 42
0.4142135623724291
  0
VERTEX
  5
21BA
  8
SAPA_PROFIL
 62
     4
 10
-33.100316421735222
 20
-50.099999999095779
 30
0.0
  0
VERTEX
  5
21BB
  8
SAPA_PROFIL
 62
     4
 10
-33.100316421728863
 20
-49.917563928659007
 30
0.0
 42
0.1318219888653524
  0
VERTEX
  5
21BC
  8
SAPA_PROFIL
 62
     4
 10
-33.140608818266251
 20
-49.767390826186663
 30
0.0
  0
VERTEX
  5
21BD
  8
SAPA_PROFIL
 62
     4
 10
-33.949292279490592
 20
-48.368863125707009
 30
0.0
  0
VERTEX
  5
21BE
  8
SAPA_PROFIL
 62
     4
 10
-34.216406807703621
 20
-48.368863125707009
 30
0.0
 42
-0.577350269189159
  0
VERTEX
  5
21BF
  8
SAPA_PROFIL
 62
     4
 10
-34.398272142498193
 20
-48.053863125707409
 30
0.0
  0
VERTEX
  5
21C0
  8
SAPA_PROFIL
 62
     4
 10
-34.196535463821078
 20
-47.704444948488749
 30
0.0
 42
-0.0612687673629489
  0
VERTEX
  5
21C1
  8
SAPA_PROFIL
 62
     4
 10
-34.182952093134872
 20
-47.411769515388528
 30
0.0
 42
-0.2694959974285039
  0
VERTEX
  5
21C2
  8
SAPA_PROFIL
 62
     4
 10
-33.989820118790917
 20
-47.180250468988007
 30
0.0
  0
VERTEX
  5
21C3
  8
SAPA_PROFIL
 62
     4
 10
-31.528989928337761
 20
-46.284581528078348
 30
0.0
 42
0.3152987888784035
  0
VERTEX
  5
21C4
  8
SAPA_PROFIL
 62
     4
 10
-31.200000000001179
 20
-45.814735217685119
 30
0.0
  0
VERTEX
  5
21C5
  8
SAPA_PROFIL
 62
     4
 10
-31.200000000002781
 20
-44.433235632480681
 30
0.0
 42
0.2539676464741841
  0
VERTEX
  5
21C6
  8
SAPA_PROFIL
 62
     4
 10
-31.336608289498059
 20
-44.181634462096611
 30
0.0
  0
VERTEX
  5
21C7
  8
SAPA_PROFIL
 62
     4
 10
-31.74316848550303
 20
-43.91761118371997
 30
0.0
 42
0.5862177598324623
  0
VERTEX
  5
21C8
  8
SAPA_PROFIL
 62
     4
 10
-32.199999999999541
 20
-44.173352998958308
 30
0.0
  0
VERTEX
  5
21C9
  8
SAPA_PROFIL
 62
     4
 10
-32.199999999991867
 20
-45.114527679468132
 30
0.0
 42
-0.3152987888813165
  0
VERTEX
  5
21CA
  8
SAPA_PROFIL
 62
     4
 10
-32.52898992832862
 20
-45.584373989865881
 30
0.0
  0
VERTEX
  5
21CB
  8
SAPA_PROFIL
 62
     4
 10
-33.72898992833985
 20
-46.021138270989837
 30
0.0
 42
-0.5205670505515651
  0
VERTEX
  5
21CC
  8
SAPA_PROFIL
 62
     4
 10
-34.400000000002599
 20
-45.551291960596608
 30
0.0
  0
VERTEX
  5
21CD
  8
SAPA_PROFIL
 62
     4
 10
-34.400000000002628
 20
-40.534851019927757
 30
0.0
 42
-0.3702522326300203
  0
VERTEX
  5
21CE
  8
SAPA_PROFIL
 62
     4
 10
-34.145540047336908
 20
-40.238327658134438
 30
0.0
 42
-0.0982365330332397
  0
VERTEX
  5
21CF
  8
SAPA_PROFIL
 62
     4
 10
-32.457853272341907
 20
-40.147874899923487
 30
0.0
 42
-0.3735060174783164
  0
VERTEX
  5
21D0
  8
SAPA_PROFIL
 62
     4
 10
-32.200000000001879
 20
-40.444899567834469
 30
0.0
  0
VERTEX
  5
21D1
  8
SAPA_PROFIL
 62
     4
 10
-32.200000000000969
 20
-40.873352998957131
 30
0.0
 42
0.5920056181162531
  0
VERTEX
  5
21D2
  8
SAPA_PROFIL
 62
     4
 10
-31.738796497473039
 20
-41.12636175527453
 30
0.0
  0
VERTEX
  5
21D3
  8
SAPA_PROFIL
 62
     4
 10
-31.336608289494741
 20
-40.86517767911883
 30
0.0
 42
0.2539676464746725
  0
VERTEX
  5
21D4
  8
SAPA_PROFIL
 62
     4
 10
-31.199999999999381
 20
-40.613576508735058
 30
0.0
  0
VERTEX
  5
21D5
  8
SAPA_PROFIL
 62
     4
 10
-31.200000000000959
 20
-18.386423489369381
 30
0.0
 42
0.2539676464741819
  0
VERTEX
  5
21D6
  8
SAPA_PROFIL
 62
     4
 10
-31.336608289494741
 20
-18.134822318986519
 30
0.0
  0
VERTEX
  5
21D7
  8
SAPA_PROFIL
 62
     4
 10
-31.738796497473071
 20
-17.873638242832708
 30
0.0
 42
0.5920055144124249
  0
VERTEX
  5
21D8
  8
SAPA_PROFIL
 62
     4
 10
-32.200000000000962
 20
-18.126646999148221
 30
0.0
  0
VERTEX
  5
21D9
  8
SAPA_PROFIL
 62
     4
 10
-32.199999974725948
 20
-18.55510047643844
 30
0.0
 42
-0.3735060174775405
  0
VERTEX
  5
21DA
  8
SAPA_PROFIL
 62
     4
 10
-32.457853247066041
 20
-18.852125144348129
 30
0.0
 42
-0.0355900683670349
  0
VERTEX
  5
21DB
  8
SAPA_PROFIL
 62
     4
 10
-33.073726833865827
 20
-18.896018708380382
 30
0.0
 42
-0.0624282003873116
  0
VERTEX
  5
21DC
  8
SAPA_PROFIL
 62
     4
 10
-34.145540022060963
 20
-18.761672386137441
 30
0.0
 42
-0.3702522326309292
  0
VERTEX
  5
21DD
  8
SAPA_PROFIL
 62
     4
 10
-34.399999974726683
 20
-18.465149024344061
 30
0.0
  0
VERTEX
  5
21DE
  8
SAPA_PROFIL
 62
     4
 10
-34.400000000002812
 20
-13.448708037510549
 30
0.0
 42
-0.5205670505515692
  0
VERTEX
  5
21DF
  8
SAPA_PROFIL
 62
     4
 10
-33.728989928339843
 20
-12.97886172711733
 30
0.0
  0
VERTEX
  5
21E0
  8
SAPA_PROFIL
 62
     4
 10
-32.528989928330397
 20
-13.415626008242279
 30
0.0
 42
-0.3152987888807539
  0
VERTEX
  5
21E1
  8
SAPA_PROFIL
 62
     4
 10
-32.19999999999277
 20
-13.885472318638129
 30
0.0
  0
VERTEX
  5
21E2
  8
SAPA_PROFIL
 62
     4
 10
-32.199999999999591
 20
-14.82664699914722
 30
0.0
 42
0.5862175119221242
  0
VERTEX
  5
21E3
  8
SAPA_PROFIL
 62
     4
 10
-31.743168674244458
 20
-15.082388930129181
 30
0.0
 42
-0.0000002084758573
  0
SEQEND
  5
21E4
  8
SAPA_PROFIL
 62
     4
  0
POLYLINE
  5
1665
  8
SAPA_PROFIL
 62
     4
 66
     1
 10
0.0
 20
0.0
 30
0.0
  0
VERTEX
  5
21E5
  8
SAPA_PROFIL
 62
     4
 10
-80.767718914153235
 20
-38.549329121450057
 30
0.0
 42
0.5571646428658034
  0
VERTEX
  5
21E6
  8
SAPA_PROFIL
 62
     4
 10
-79.899999999997704
 20
-38.012368617313228
 30
0.0
  0
VERTEX
  5
21E7
  8
SAPA_PROFIL
 62
     4
 10
-79.899999999998158
 20
-20.987631380792031
 30
0.0
 42
0.5571645048035741
  0
VERTEX
  5
21E8
  8
SAPA_PROFIL
 62
     4
 10
-80.767718687864331
 20
-20.450670763830981
 30
0.0
  0
VERTEX
  5
21E9
  8
SAPA_PROFIL
 62
     4
 10
-82.433859343932355
 20
-21.28137785137767
 30
0.0
 42
0.284385813979063
  0
VERTEX
  5
21EA
  8
SAPA_PROFIL
 62
     4
 10
-82.599999999999795
 20
-21.549858159858019
 30
0.0
  0
VERTEX
  5
21EB
  8
SAPA_PROFIL
 62
     4
 10
-82.599999999999795
 20
-37.450141838247333
 30
0.0
 42
0.2843858139786238
  0
VERTEX
  5
21EC
  8
SAPA_PROFIL
 62
     4
 10
-82.433859343932866
 20
-37.718622146727618
 30
0.0
  0
VERTEX
  5
21ED
  8
SAPA_PROFIL
 62
     4
 10
-80.767718687863521
 20
-38.549329234274779
 30
0.0
  0
SEQEND
  5
21EE
  8
SAPA_PROFIL
 62
     4
  0
POLYLINE
  5
1666
  8
SAPA_PROFIL
 62
     4
 66
     1
 10
0.0
 20
0.0
 30
0.0
 70
     1
  0
VERTEX
  5
21EF
  8
SAPA_PROFIL
 62
     4
 10
-82.956831514497367
 20
-15.08238881438538
 30
0.0
  0
VERTEX
  5
21F0
  8
SAPA_PROFIL
 62
     4
 10
-83.363391710501517
 20
-14.81836553600937
 30
0.0
 42
-0.2539676464751066
  0
VERTEX
  5
21F1
  8
SAPA_PROFIL
 62
     4
 10
-83.499999999997613
 20
-14.56676436562466
 30
0.0
  0
VERTEX
  5
21F2
  8
SAPA_PROFIL
 62
     4
 10
-83.499999999997613
 20
-13.18526478041931
 30
0.0
 42
-0.3152987888790479
  0
VERTEX
  5
21F3
  8
SAPA_PROFIL
 62
     4
 10
-83.171010071659452
 20
-12.715418470027
 30
0.0
  0
VERTEX
  5
21F4
  8
SAPA_PROFIL
 62
     4
 10
-80.710179881208177
 20
-11.8197495291184
 30
0.0
 42
0.2694959974287434
  0
VERTEX
  5
21F5
  8
SAPA_PROFIL
 62
     4
 10
-80.517047906864292
 20
-11.588230482717041
 30
0.0
 42
0.0612686379508233
  0
VERTEX
  5
21F6
  8
SAPA_PROFIL
 62
     4
 10
-80.503464536233764
 20
-11.29555504986376
 30
0.0
  0
VERTEX
  5
21F7
  8
SAPA_PROFIL
 62
     4
 10
-80.301727857504943
 20
-10.946136872555501
 30
0.0
 42
0.5773502691891679
  0
VERTEX
  5
21F8
  8
SAPA_PROFIL
 62
     4
 10
-80.483593192299494
 20
-10.63113687255591
 30
0.0
  0
VERTEX
  5
21F9
  8
SAPA_PROFIL
 62
     4
 10
-80.750707720425822
 20
-10.63113687255567
 30
0.0
  0
VERTEX
  5
21FA
  8
SAPA_PROFIL
 62
     4
 10
-81.559391181734142
 20
-9.2326091719214176
 30
0.0
 42
-0.1318219888653519
  0
VERTEX
  5
21FB
  8
SAPA_PROFIL
 62
     4
 10
-81.599683578271524
 20
-9.0824360694490736
 30
0.0
  0
VERTEX
  5
21FC
  8
SAPA_PROFIL
 62
     4
 10
-81.599683578265171
 20
-8.8999999990122944
 30
0.0
 42
-0.4142135623724291
  0
VERTEX
  5
21FD
  8
SAPA_PROFIL
 62
     4
 10
-81.199683578265535
 20
-8.4999999990117487
 30
0.0
  0
VERTEX
  5
21FE
  8
SAPA_PROFIL
 62
     4
 10
-77.799683578264535
 20
-8.4999999990131112
 30
0.0
 42
-0.4142135623744271
  0
VERTEX
  5
21FF
  8
SAPA_PROFIL
 62
     4
 10
-77.399683578263534
 20
-8.8999999990122944
 30
0.0
  0
VERTEX
  5
2200
  8
SAPA_PROFIL
 62
     4
 10
-77.399683578262895
 20
-9.0796152412835962
 30
0.0
 42
-0.1316524975874005
  0
VERTEX
  5
2201
  8
SAPA_PROFIL
 62
     4
 10
-77.439875957128493
 20
-9.2296152412804133
 30
0.0
  0
VERTEX
  5
2202
  8
SAPA_PROFIL
 62
     4
 10
-78.366025403781038
 20
-10.83375313828267
 30
0.0
 42
0.1316524975875904
  0
VERTEX
  5
2203
  8
SAPA_PROFIL
 62
     4
 10
-78.499999999995794
 20
-11.333753138284379
 30
0.0
  0
VERTEX
  5
2204
  8
SAPA_PROFIL
 62
     4
 10
-78.499999999995794
 20
-11.749999999011751
 30
0.0
 42
0.4142135623730951
  0
VERTEX
  5
2205
  8
SAPA_PROFIL
 62
     4
 10
-77.499999999995794
 20
-12.749999999011751
 30
0.0
  0
VERTEX
  5
2206
  8
SAPA_PROFIL
 62
     4
 10
-74.499999999998522
 20
-12.749999999011751
 30
0.0
 42
-0.9999996830128083
  0
VERTEX
  5
2207
  8
SAPA_PROFIL
 62
     4
 10
-74.499999999996703
 20
-13.749999999011751
 30
0.0
  0
VERTEX
  5
2208
  8
SAPA_PROFIL
 62
     4
 10
-77.499999999996703
 20
-13.749999999011751
 30
0.0
 42
0.4142135623730951
  0
VERTEX
  5
2209
  8
SAPA_PROFIL
 62
     4
 10
-78.499999999996703
 20
-14.749999999011751
 30
0.0
  0
VERTEX
  5
220A
  8
SAPA_PROFIL
 62
     4
 10
-78.499999999996703
 20
-44.249999999096318
 30
0.0
 42
0.4142135623730951
  0
VERTEX
  5
220B
  8
SAPA_PROFIL
 62
     4
 10
-77.499999999996703
 20
-45.249999999096332
 30
0.0
  0
VERTEX
  5
220C
  8
SAPA_PROFIL
 62
     4
 10
-74.499999999998522
 20
-45.249999999096332
 30
0.0
 42
-0.9999999999999998
  0
VERTEX
  5
220D
  8
SAPA_PROFIL
 62
     4
 10
-74.499999999998522
 20
-46.249999999096332
 30
0.0
  0
VERTEX
  5
220E
  8
SAPA_PROFIL
 62
     4
 10
-77.499999999996703
 20
-46.249999999096332
 30
0.0
 42
0.4142135623736278
  0
VERTEX
  5
220F
  8
SAPA_PROFIL
 62
     4
 10
-78.499999999996703
 20
-47.249999999096332
 30
0.0
  0
VERTEX
  5
2210
  8
SAPA_PROFIL
 62
     4
 10
-78.499999999996703
 20
-47.666246859822792
 30
0.0
 42
0.1316524975874375
  0
VERTEX
  5
2211
  8
SAPA_PROFIL
 62
     4
 10
-78.366025403780654
 20
-48.166246859822991
 30
0.0
  0
VERTEX
  5
2212
  8
SAPA_PROFIL
 62
     4
 10
-77.439875957128493
 20
-49.770384756824939
 30
0.0
 42
-0.1316524975874
  0
VERTEX
  5
2213
  8
SAPA_PROFIL
 62
     4
 10
-77.399683578262909
 20
-49.920384756824483
 30
0.0
  0
VERTEX
  5
2214
  8
SAPA_PROFIL
 62
     4
 10
-77.399683578263534
 20
-50.099999999095779
 30
0.0
 42
-0.4142135623744271
  0
VERTEX
  5
2215
  8
SAPA_PROFIL
 62
     4
 10
-77.799683578264535
 20
-50.499999999094968
 30
0.0
  0
VERTEX
  5
2216
  8
SAPA_PROFIL
 62
     4
 10
-81.199683578265535
 20
-50.499999999096332
 30
0.0
 42
-0.4142135623724291
  0
VERTEX
  5
2217
  8
SAPA_PROFIL
 62
     4
 10
-81.599683578265171
 20
-50.099999999095779
 30
0.0
  0
VERTEX
  5
2218
  8
SAPA_PROFIL
 62
     4
 10
-81.599683578271524
 20
-49.917563928659007
 30
0.0
 42
-0.1318219888653524
  0
VERTEX
  5
2219
  8
SAPA_PROFIL
 62
     4
 10
-81.559391181734156
 20
-49.767390826186663
 30
0.0
  0
VERTEX
  5
221A
  8
SAPA_PROFIL
 62
     4
 10
-80.750707720509808
 20
-48.368863125707009
 30
0.0
  0
VERTEX
  5
221B
  8
SAPA_PROFIL
 62
     4
 10
-80.48359319229678
 20
-48.368863125707009
 30
0.0
 42
0.577350269189159
  0
VERTEX
  5
221C
  8
SAPA_PROFIL
 62
     4
 10
-80.301727857502215
 20
-48.053863125707409
 30
0.0
  0
VERTEX
  5
221D
  8
SAPA_PROFIL
 62
     4
 10
-80.503464536179308
 20
-47.704444948488749
 30
0.0
 42
0.0612687673629489
  0
VERTEX
  5
221E
  8
SAPA_PROFIL
 62
     4
 10
-80.517047906865528
 20
-47.411769515388528
 30
0.0
 42
0.2694959974285039
  0
VERTEX
  5
221F
  8
SAPA_PROFIL
 62
     4
 10
-80.710179881209484
 20
-47.180250468988007
 30
0.0
  0
VERTEX
  5
2220
  8
SAPA_PROFIL
 62
     4
 10
-83.171010071662636
 20
-46.284581528078348
 30
0.0
 42
-0.3152987888784035
  0
VERTEX
  5
2221
  8
SAPA_PROFIL
 62
     4
 10
-83.499999999999204
 20
-45.814735217685119
 30
0.0
  0
VERTEX
  5
2222
  8
SAPA_PROFIL
 62
     4
 10
-83.499999999997613
 20
-44.433235632480681
 30
0.0
 42
-0.2539676464741841
  0
VERTEX
  5
2223
  8
SAPA_PROFIL
 62
     4
 10
-83.363391710502341
 20
-44.181634462096611
 30
0.0
  0
VERTEX
  5
2224
  8
SAPA_PROFIL
 62
     4
 10
-82.956831514497367
 20
-43.91761118371997
 30
0.0
 42
-0.5862177598324623
  0
VERTEX
  5
2225
  8
SAPA_PROFIL
 62
     4
 10
-82.500000000000867
 20
-44.173352998958308
 30
0.0
  0
VERTEX
  5
2226
  8
SAPA_PROFIL
 62
     4
 10
-82.500000000008527
 20
-45.114527679468132
 30
0.0
 42
0.3152987888813165
  0
VERTEX
  5
2227
  8
SAPA_PROFIL
 62
     4
 10
-82.171010071671773
 20
-45.584373989865881
 30
0.0
  0
VERTEX
  5
2228
  8
SAPA_PROFIL
 62
     4
 10
-80.971010071660544
 20
-46.021138270989837
 30
0.0
 42
0.5205670505515651
  0
VERTEX
  5
2229
  8
SAPA_PROFIL
 62
     4
 10
-80.299999999997794
 20
-45.551291960596608
 30
0.0
  0
VERTEX
  5
222A
  8
SAPA_PROFIL
 62
     4
 10
-80.299999999997766
 20
-40.534851019927757
 30
0.0
 42
0.3702522326300203
  0
VERTEX
  5
222B
  8
SAPA_PROFIL
 62
     4
 10
-80.554459952663478
 20
-40.238327658134438
 30
0.0
 42
0.0982365330332397
  0
VERTEX
  5
222C
  8
SAPA_PROFIL
 62
     4
 10
-82.242146727658479
 20
-40.147874899923487
 30
0.0
 42
0.3735060174783164
  0
VERTEX
  5
222D
  8
SAPA_PROFIL
 62
     4
 10
-82.499999999998522
 20
-40.444899567834469
 30
0.0
  0
VERTEX
  5
222E
  8
SAPA_PROFIL
 62
     4
 10
-82.499999999999432
 20
-40.873352998957131
 30
0.0
 42
-0.5920056181162531
  0
VERTEX
  5
222F
  8
SAPA_PROFIL
 62
     4
 10
-82.961203502527354
 20
-41.12636175527453
 30
0.0
  0
VERTEX
  5
2230
  8
SAPA_PROFIL
 62
     4
 10
-83.363391710505667
 20
-40.86517767911883
 30
0.0
 42
-0.2539676464746725
  0
VERTEX
  5
2231
  8
SAPA_PROFIL
 62
     4
 10
-83.500000000001023
 20
-40.613576508735058
 30
0.0
  0
VERTEX
  5
2232
  8
SAPA_PROFIL
 62
     4
 10
-83.499999999999417
 20
-18.386423489369381
 30
0.0
 42
-0.2539676464741819
  0
VERTEX
  5
2233
  8
SAPA_PROFIL
 62
     4
 10
-83.363391710505667
 20
-18.134822318986519
 30
0.0
  0
VERTEX
  5
2234
  8
SAPA_PROFIL
 62
     4
 10
-82.961203502527326
 20
-17.873638242832708
 30
0.0
 42
-0.5920055144124249
  0
VERTEX
  5
2235
  8
SAPA_PROFIL
 62
     4
 10
-82.499999999999432
 20
-18.126646999148221
 30
0.0
  0
VERTEX
  5
2236
  8
SAPA_PROFIL
 62
     4
 10
-82.500000025274446
 20
-18.55510047643844
 30
0.0
 42
0.3735060174775405
  0
VERTEX
  5
2237
  8
SAPA_PROFIL
 62
     4
 10
-82.242146752934346
 20
-18.852125144348129
 30
0.0
 42
0.0355900683670349
  0
VERTEX
  5
2238
  8
SAPA_PROFIL
 62
     4
 10
-81.626273166134567
 20
-18.896018708380382
 30
0.0
 42
0.0624282003873116
  0
VERTEX
  5
2239
  8
SAPA_PROFIL
 62
     4
 10
-80.554459977939445
 20
-18.761672386137441
 30
0.0
 42
0.3702522326309292
  0
VERTEX
  5
223A
  8
SAPA_PROFIL
 62
     4
 10
-80.300000025273704
 20
-18.465149024344061
 30
0.0
  0
VERTEX
  5
223B
  8
SAPA_PROFIL
 62
     4
 10
-80.299999999997567
 20
-13.448708037510549
 30
0.0
 42
0.5205670505515692
  0
VERTEX
  5
223C
  8
SAPA_PROFIL
 62
     4
 10
-80.971010071660544
 20
-12.97886172711733
 30
0.0
  0
VERTEX
  5
223D
  8
SAPA_PROFIL
 62
     4
 10
-82.171010071669997
 20
-13.415626008242279
 30
0.0
 42
0.3152987888807539
  0
VERTEX
  5
223E
  8
SAPA_PROFIL
 62
     4
 10
-82.500000000007617
 20
-13.885472318638129
 30
0.0
  0
VERTEX
  5
223F
  8
SAPA_PROFIL
 62
     4
 10
-82.500000000000796
 20
-14.82664699914722
 30
0.0
 42
-0.5862175119221242
  0
VERTEX
  5
2240
  8
SAPA_PROFIL
 62
     4
 10
-82.956831325755928
 20
-15.082388930129181
 30
0.0
 42
0.0000002084758573
  0
SEQEND
  5
2241
  8
SAPA_PROFIL
 62
     4
  0
POLYLINE
  5
1667
  8
SAPA_PROFIL
 62
     4
 66
     1
 10
0.0
 20
0.0
 30
0.0
 70
     1
  0
VERTEX
  5
2242
  8
SAPA_PROFIL
 62
     4
 10
-14.90000000090231
 20
-58.702943553211782
 30
0.0
  0
VERTEX
  5
2243
  8
SAPA_PROFIL
 62
     4
 10
-14.900000000900491
 20
-62.897056102908692
 30
0.0
 42
0.1989123673786592
  0
VERTEX
  5
2244
  8
SAPA_PROFIL
 62
     4
 10
-14.81213203525704
 20
-63.10918813726451
 30
0.0
  0
VERTEX
  5
2245
  8
SAPA_PROFIL
 62
     4
 10
-12.587867966546129
 20
-65.333452205975419
 30
0.0
 42
-0.1989123673785438
  0
VERTEX
  5
2246
  8
SAPA_PROFIL
 62
     4
 10
-12.50000000090267
 20
-65.545584240331237
 30
0.0
  0
VERTEX
  5
2247
  8
SAPA_PROFIL
 62
     4
 10
-12.500000000904491
 20
-65.9999998280596
 30
0.0
 42
-0.4142135623730951
  0
VERTEX
  5
2248
  8
SAPA_PROFIL
 62
     4
 10
-12.80000000090376
 20
-66.299999828059782
 30
0.0
  0
VERTEX
  5
2249
  8
SAPA_PROFIL
 62
     4
 10
-24.700000000899941
 20
-66.299999828059782
 30
0.0
 42
0.4142135623730951
  0
VERTEX
  5
224A
  8
SAPA_PROFIL
 62
     4
 10
-25.200000000899951
 20
-66.799999828059782
 30
0.0
  0
VERTEX
  5
224B
  8
SAPA_PROFIL
 62
     4
 10
-25.200000000899951
 20
-68.4999998280596
 30
0.0
 42
-0.4142135623739832
  0
VERTEX
  5
224C
  8
SAPA_PROFIL
 62
     4
 10
-25.50000000089922
 20
-68.799999828059782
 30
0.0
  0
VERTEX
  5
224D
  8
SAPA_PROFIL
 62
     4
 10
-29.200000000901579
 20
-68.799999828059782
 30
0.0
 42
-0.414213562375759
  0
VERTEX
  5
224E
  8
SAPA_PROFIL
 62
     4
 10
-29.500000000902681
 20
-68.4999998280596
 30
0.0
  0
VERTEX
  5
224F
  8
SAPA_PROFIL
 62
     4
 10
-29.500000000900851
 20
-52.006576697656577
 30
0.0
 42
-0.4142135623735391
  0
VERTEX
  5
2250
  8
SAPA_PROFIL
 62
     4
 10
-29.200000000901579
 20
-51.70657669765685
 30
0.0
  0
VERTEX
  5
2251
  8
SAPA_PROFIL
 62
     4
 10
-12.80000000090376
 20
-51.70657669765685
 30
0.0
 42
-0.4142135623726511
  0
VERTEX
  5
2252
  8
SAPA_PROFIL
 62
     4
 10
-12.50000000090267
 20
-52.006576697656577
 30
0.0
  0
VERTEX
  5
2253
  8
SAPA_PROFIL
 62
     4
 10
-12.50000000090267
 20
-56.05441541578741
 30
0.0
 42
-0.1989123673785438
  0
VERTEX
  5
2254
  8
SAPA_PROFIL
 62
     4
 10
-12.587867966546129
 20
-56.266547450143243
 30
0.0
  0
VERTEX
  5
2255
  8
SAPA_PROFIL
 62
     4
 10
-14.81213203525885
 20
-58.490811518855963
 30
0.0
 42
0.1989123673798886
  0
SEQEND
  5
2256
  8
SAPA_PROFIL
 62
     4
  0
POLYLINE
  5
1668
  8
SAPA_PROFIL
 62
     4
 66
     1
 10
0.0
 20
0.0
 30
0.0
 70
     1
  0
VERTEX
  5
2257
  8
SAPA_PROFIL
 62
     4
 10
-29.500000000902681
 20
-45.29999982806001
 30
0.0
  0
VERTEX
  5
2258
  8
SAPA_PROFIL
 62
     4
 10
-29.500000000900851
 20
-50.106576697656493
 30
0.0
 42
0.4142135623732061
  0
VERTEX
  5
2259
  8
SAPA_PROFIL
 62
     4
 10
-29.200000000901579
 20
-50.406576697656682
 30
0.0
  0
VERTEX
  5
225A
  8
SAPA_PROFIL
 62
     4
 10
-12.80000000090376
 20
-50.406576697656682
 30
0.0
 42
0.4142135623730951
  0
VERTEX
  5
225B
  8
SAPA_PROFIL
 62
     4
 10
-12.50000000090267
 20
-50.106576697656493
 30
0.0
  0
VERTEX
  5
225C
  8
SAPA_PROFIL
 62
     4
 10
-12.500000000904491
 20
-45.29999982806001
 30
0.0
 42
0.4142135623731173
  0
VERTEX
  5
225D
  8
SAPA_PROFIL
 62
     4
 10
-12.80000000090558
 20
-44.999999828059828
 30
0.0
  0
VERTEX
  5
225E
  8
SAPA_PROFIL
 62
     4
 10
-29.200000000903401
 20
-44.999999828059828
 30
0.0
 42
0.4142135623730951
  0
SEQEND
  5
225F
  8
SAPA_PROFIL
 62
     4
  0
POLYLINE
  5
1669
  8
SAPA_PROFIL
 62
     4
 66
     1
 10
0.0
 20
0.0
 30
0.0
 70
     1
  0
VERTEX
  5
2260
  8
SAPA_PROFIL
 62
     4
 10
-11.00000000090267
 20
-56.675735759347418
 30
0.0
 42
-0.1989123673799838
  0
VERTEX
  5
2261
  8
SAPA_PROFIL
 62
     4
 10
-11.08786796654794
 20
-56.887867793704139
 30
0.0
  0
VERTEX
  5
2262
  8
SAPA_PROFIL
 62
     4
 10
-13.31213203525885
 20
-59.112131862415048
 30
0.0
 42
0.1989123673811189
  0
VERTEX
  5
2263
  8
SAPA_PROFIL
 62
     4
 10
-13.40000000090231
 20
-59.324263896770873
 30
0.0
  0
VERTEX
  5
2264
  8
SAPA_PROFIL
 62
     4
 10
-13.400000000900491
 20
-62.275735759348692
 30
0.0
 42
0.1989123673785447
  0
VERTEX
  5
2265
  8
SAPA_PROFIL
 62
     4
 10
-13.31213203525704
 20
-62.48786779370451
 30
0.0
  0
VERTEX
  5
2266
  8
SAPA_PROFIL
 62
     4
 10
-11.087867966546121
 20
-64.712131862416328
 30
0.0
 42
-0.1989123673785445
  0
VERTEX
  5
2267
  8
SAPA_PROFIL
 62
     4
 10
-11.00000000090267
 20
-64.924263896772146
 30
0.0
  0
VERTEX
  5
2268
  8
SAPA_PROFIL
 62
     4
 10
-11.000000000904491
 20
-67.299999828059782
 30
0.0
 42
-0.4142135623730951
  0
VERTEX
  5
2269
  8
SAPA_PROFIL
 62
     4
 10
-11.500000000904491
 20
-67.799999828059782
 30
0.0
  0
VERTEX
  5
226A
  8
SAPA_PROFIL
 62
     4
 10
-23.400000000900668
 20
-67.799999828059782
 30
0.0
 42
0.4142135623737615
  0
VERTEX
  5
226B
  8
SAPA_PROFIL
 62
     4
 10
-23.700000000899941
 20
-68.099999828059964
 30
0.0
  0
VERTEX
  5
226C
  8
SAPA_PROFIL
 62
     4
 10
-23.700000000899941
 20
-69.799999828059782
 30
0.0
 42
-0.4142135623730951
  0
VERTEX
  5
226D
  8
SAPA_PROFIL
 62
     4
 10
-24.200000000899951
 20
-70.299999828059782
 30
0.0
  0
VERTEX
  5
226E
  8
SAPA_PROFIL
 62
     4
 10
-30.500000000902681
 20
-70.299999828059782
 30
0.0
 42
-0.4142135623730951
  0
VERTEX
  5
226F
  8
SAPA_PROFIL
 62
     4
 10
-31.00000000090267
 20
-69.799999828059782
 30
0.0
  0
VERTEX
  5
2270
  8
SAPA_PROFIL
 62
     4
 10
-31.000000000899039
 20
-68.799999828059413
 30
0.0
 42
0.4142135623735387
  0
VERTEX
  5
2271
  8
SAPA_PROFIL
 62
     4
 10
-31.300000000898311
 20
-68.499999828059458
 30
0.0
  0
VERTEX
  5
2272
  8
SAPA_PROFIL
 62
     4
 10
-32.900000000900491
 20
-68.499999828059913
 30
0.0
 42
0.4142135623735394
  0
VERTEX
  5
2273
  8
SAPA_PROFIL
 62
     4
 10
-33.200000000899763
 20
-68.79999982805964
 30
0.0
  0
VERTEX
  5
2274
  8
SAPA_PROFIL
 62
     4
 10
-33.200000000897951
 20
-69.099999828059282
 30
0.0
 42
-0.5923377296036106
  0
VERTEX
  5
2275
  8
SAPA_PROFIL
 62
     4
 10
-33.661452271639519
 20
-69.352849910663537
 30
0.0
  0
VERTEX
  5
2276
  8
SAPA_PROFIL
 62
     4
 10
-35.361452271640253
 20
-68.075790642366684
 30
0.0
 42
-0.2560149538738703
  0
VERTEX
  5
2277
  8
SAPA_PROFIL
 62
     4
 10
-35.500000000900847
 20
-67.822940559761506
 30
0.0
  0
VERTEX
  5
2278
  8
SAPA_PROFIL
 62
     4
 10
-35.500000000900847
 20
-67.599999828058912
 30
0.0
 42
-0.4142135623733172
  0
VERTEX
  5
2279
  8
SAPA_PROFIL
 62
     4
 10
-35.200000000901589
 20
-67.29999982805964
 30
0.0
  0
VERTEX
  5
227A
  8
SAPA_PROFIL
 62
     4
 10
-31.300000000898311
 20
-67.29999982805964
 30
0.0
 42
0.4142135623735389
  0
VERTEX
  5
227B
  8
SAPA_PROFIL
 62
     4
 10
-31.000000000899039
 20
-66.999999828059686
 30
0.0
  0
VERTEX
  5
227C
  8
SAPA_PROFIL
 62
     4
 10
-31.000000000900862
 20
-55.999999828059501
 30
0.0
 42
0.4142135623735387
  0
VERTEX
  5
227D
  8
SAPA_PROFIL
 62
     4
 10
-31.30000000090013
 20
-55.699999828059553
 30
0.0
  0
VERTEX
  5
227E
  8
SAPA_PROFIL
 62
     4
 10
-35.200000000901589
 20
-55.699999828059553
 30
0.0
 42
-0.4142135623730951
  0
VERTEX
  5
227F
  8
SAPA_PROFIL
 62
     4
 10
-35.500000000900847
 20
-55.399999828060281
 30
0.0
  0
VERTEX
  5
2280
  8
SAPA_PROFIL
 62
     4
 10
-35.500000000900847
 20
-55.177059096357681
 30
0.0
 42
-0.2560149538738701
  0
VERTEX
  5
2281
  8
SAPA_PROFIL
 62
     4
 10
-35.361452271640253
 20
-54.92420901375251
 30
0.0
  0
VERTEX
  5
2282
  8
SAPA_PROFIL
 62
     4
 10
-33.661452271639519
 20
-53.647149745455671
 30
0.0
 42
-0.5923377296036115
  0
VERTEX
  5
2283
  8
SAPA_PROFIL
 62
     4
 10
-33.200000000897951
 20
-53.899999828059919
 30
0.0
  0
VERTEX
  5
2284
  8
SAPA_PROFIL
 62
     4
 10
-33.200000000899763
 20
-54.199999828059553
 30
0.0
 42
0.4142135623735394
  0
VERTEX
  5
2285
  8
SAPA_PROFIL
 62
     4
 10
-32.900000000900491
 20
-54.499999828059281
 30
0.0
  0
VERTEX
  5
2286
  8
SAPA_PROFIL
 62
     4
 10
-31.30000000090013
 20
-54.499999828059728
 30
0.0
 42
0.4142135623735389
  0
VERTEX
  5
2287
  8
SAPA_PROFIL
 62
     4
 10
-31.000000000900862
 20
-54.199999828059781
 30
0.0
  0
VERTEX
  5
2288
  8
SAPA_PROFIL
 62
     4
 10
-31.000000000906311
 20
-43.999999828059821
 30
0.0
 42
-0.4142135623731242
  0
VERTEX
  5
2289
  8
SAPA_PROFIL
 62
     4
 10
-30.500000000906311
 20
-43.499999828059821
 30
0.0
  0
VERTEX
  5
228A
  8
SAPA_PROFIL
 62
     4
 10
-11.500000000904491
 20
-43.499999828059821
 30
0.0
 42
-0.4142135623730951
  0
VERTEX
  5
228B
  8
SAPA_PROFIL
 62
     4
 10
-11.000000000904491
 20
-43.999999828059821
 30
0.0
  0
SEQEND
  5
228C
  8
SAPA_PROFIL
 62
     4
  0
POLYLINE
  5
166A
  8
SAPA_PROFIL
 66
     1
 10
0.0
 20
0.0
 30
0.0
 70
     1
  0
VERTEX
  5
228D
  8
SAPA_PROFIL
 10
15.70000000000107
 20
-76.500000000000455
 30
0.0
 42
-0.4142135623730951
  0
VERTEX
  5
228E
  8
SAPA_PROFIL
 10
16.000000000000341
 20
-76.799999999999727
 30
0.0
  0
VERTEX
  5
228F
  8
SAPA_PROFIL
 10
16.000000000000341
 20
-87.499999999998636
 30
0.0
 42
-0.4142135623730951
  0
VERTEX
  5
2290
  8
SAPA_PROFIL
 10
15.000000000000339
 20
-88.499999999998636
 30
0.0
  0
VERTEX
  5
2291
  8
SAPA_PROFIL
 10
0.7732050807611567
 20
-88.499999999998636
 30
0.0
 42
-0.1316524975869957
  0
VERTEX
  5
2292
  8
SAPA_PROFIL
 10
0.6232050807597015
 20
-88.459807621135496
 30
0.0
  0
VERTEX
  5
2293
  8
SAPA_PROFIL
 10
0.0000000000003391
 20
-88.099999999999014
 30
0.0
  0
VERTEX
  5
2294
  8
SAPA_PROFIL
 10
-0.6232050807590233
 20
-88.459807621135496
 30
0.0
 42
-0.1316524975869957
  0
VERTEX
  5
2295
  8
SAPA_PROFIL
 10
-0.7732050807604785
 20
-88.499999999998636
 30
0.0
  0
VERTEX
  5
2296
  8
SAPA_PROFIL
 10
-14.999999999999661
 20
-88.499999999998636
 30
0.0
 42
-0.4142135623730951
  0
VERTEX
  5
2297
  8
SAPA_PROFIL
 10
-15.999999999999661
 20
-87.499999999998636
 30
0.0
  0
VERTEX
  5
2298
  8
SAPA_PROFIL
 10
-15.999999999999661
 20
-76.799999999997894
 30
0.0
 42
-0.4142135623730951
  0
VERTEX
  5
2299
  8
SAPA_PROFIL
 10
-15.70000000000039
 20
-76.499999999998636
 30
0.0
  0
VERTEX
  5
229A
  8
SAPA_PROFIL
 10
-9.8414213562351751
 20
-76.499999999998636
 30
0.0
 42
-0.1989123673785438
  0
VERTEX
  5
229B
  8
SAPA_PROFIL
 10
-9.6292893218775362
 20
-76.58786796564209
 30
0.0
  0
VERTEX
  5
229C
  8
SAPA_PROFIL
 10
-9.0585786437619635
 20
-77.158578643761302
 30
0.0
 42
-0.6681786379239501
  0
VERTEX
  5
229D
  8
SAPA_PROFIL
 10
-9.1999999999967503
 20
-77.499999999998636
 30
0.0
  0
VERTEX
  5
229E
  8
SAPA_PROFIL
 10
-9.6999999999967503
 20
-77.499999999998636
 30
0.0
 42
0.4142135623730951
  0
VERTEX
  5
229F
  8
SAPA_PROFIL
 10
-9.9999999999960227
 20
-77.799999999997908
 30
0.0
  0
VERTEX
  5
22A0
  8
SAPA_PROFIL
 10
-9.9999999999996607
 20
-80.199999999999363
 30
0.0
 42
0.4142135623695433
  0
VERTEX
  5
22A1
  8
SAPA_PROFIL
 10
-9.6999999999967503
 20
-80.499999999998636
 30
0.0
  0
VERTEX
  5
22A2
  8
SAPA_PROFIL
 10
-5.3000000000025711
 20
-80.499999999998636
 30
0.0
 42
0.4142135623695432
  0
VERTEX
  5
22A3
  8
SAPA_PROFIL
 10
-4.9999999999996598
 20
-80.199999999999363
 30
0.0
  0
VERTEX
  5
22A4
  8
SAPA_PROFIL
 10
-5.0000000000032978
 20
-77.799999999997908
 30
0.0
 42
0.4142135623730951
  0
VERTEX
  5
22A5
  8
SAPA_PROFIL
 10
-5.3000000000025711
 20
-77.499999999998636
 30
0.0
  0
VERTEX
  5
22A6
  8
SAPA_PROFIL
 10
-5.8000000000025711
 20
-77.499999999998636
 30
0.0
 42
-0.6681786379239501
  0
VERTEX
  5
22A7
  8
SAPA_PROFIL
 10
-5.941421356237357
 20
-77.158578643761302
 30
0.0
  0
VERTEX
  5
22A8
  8
SAPA_PROFIL
 10
-5.3707106781217826
 20
-76.58786796564209
 30
0.0
 42
-0.1989123673785438
  0
VERTEX
  5
22A9
  8
SAPA_PROFIL
 10
-5.1585786437641463
 20
-76.499999999998636
 30
0.0
  0
VERTEX
  5
22AA
  8
SAPA_PROFIL
 10
-3.4999999999996598
 20
-76.499999999998636
 30
0.0
 42
-0.4142135623730951
  0
VERTEX
  5
22AB
  8
SAPA_PROFIL
 10
-2.9999999999996598
 20
-76.999999999998636
 30
0.0
  0
VERTEX
  5
22AC
  8
SAPA_PROFIL
 10
-2.9999999999996598
 20
-77.999999999998636
 30
0.0
 42
0.4142135623730951
  0
VERTEX
  5
22AD
  8
SAPA_PROFIL
 10
-2.4999999999996598
 20
-78.499999999998636
 30
0.0
  0
VERTEX
  5
22AE
  8
SAPA_PROFIL
 10
2.5000000000003388
 20
-78.499999999998636
 30
0.0
 42
0.4142135623730951
  0
VERTEX
  5
22AF
  8
SAPA_PROFIL
 10
3.0000000000003388
 20
-77.999999999998636
 30
0.0
  0
VERTEX
  5
22B0
  8
SAPA_PROFIL
 10
3.0000000000003388
 20
-77.000000000000455
 30
0.0
 42
-0.4142135623730951
  0
VERTEX
  5
22B1
  8
SAPA_PROFIL
 10
3.5000000000003388
 20
-76.500000000000455
 30
0.0
  0
VERTEX
  5
22B2
  8
SAPA_PROFIL
 10
5.158578643764824
 20
-76.499999999998636
 30
0.0
 42
-0.198912367379658
  0
VERTEX
  5
22B3
  8
SAPA_PROFIL
 10
5.3707106781188241
 20
-76.58786796564209
 30
0.0
  0
VERTEX
  5
22B4
  8
SAPA_PROFIL
 10
5.9414213562416736
 20
-77.158578643761302
 30
0.0
 42
-0.6681786379169732
  0
VERTEX
  5
22B5
  8
SAPA_PROFIL
 10
5.8000000000032488
 20
-77.499999999998636
 30
0.0
  0
VERTEX
  5
22B6
  8
SAPA_PROFIL
 10
5.3000000000032488
 20
-77.499999999998636
 30
0.0
 42
0.4142135623695433
  0
VERTEX
  5
22B7
  8
SAPA_PROFIL
 10
5.0000000000003393
 20
-77.799999999997908
 30
0.0
  0
VERTEX
  5
22B8
  8
SAPA_PROFIL
 10
5.0000000000039773
 20
-80.199999999999363
 30
0.0
 42
0.4142135623730951
  0
VERTEX
  5
22B9
  8
SAPA_PROFIL
 10
5.3000000000032488
 20
-80.499999999998636
 30
0.0
  0
VERTEX
  5
22BA
  8
SAPA_PROFIL
 10
9.6999999999974271
 20
-80.499999999998636
 30
0.0
 42
0.4142135623695432
  0
VERTEX
  5
22BB
  8
SAPA_PROFIL
 10
10.000000000000339
 20
-80.199999999999363
 30
0.0
  0
VERTEX
  5
22BC
  8
SAPA_PROFIL
 10
9.9999999999967013
 20
-77.799999999997908
 30
0.0
 42
0.4142135623730951
  0
VERTEX
  5
22BD
  8
SAPA_PROFIL
 10
9.6999999999974271
 20
-77.499999999998636
 30
0.0
  0
VERTEX
  5
22BE
  8
SAPA_PROFIL
 10
9.1999999999974271
 20
-77.499999999998636
 30
0.0
 42
-0.6681786379239501
  0
VERTEX
  5
22BF
  8
SAPA_PROFIL
 10
9.0585786437626421
 20
-77.158578643761302
 30
0.0
  0
VERTEX
  5
22C0
  8
SAPA_PROFIL
 10
9.6292893218782165
 20
-76.58786796564209
 30
0.0
 42
-0.1989123673785438
  0
VERTEX
  5
22C1
  8
SAPA_PROFIL
 10
9.8414213562358537
 20
-76.499999999997954
 30
0.0
  0
SEQEND
  5
22C2
  8
SAPA_PROFIL
  0
POLYLINE
  5
166B
  8
SAPA_PROFIL
 62
     4
 66
     1
 10
0.0
 20
0.0
 30
0.0
 70
     1
  0
VERTEX
  5
22C3
  8
SAPA_PROFIL
 62
     4
 10
-1.1499999999996351
 20
-48.849999999999682
 30
0.0
  0
VERTEX
  5
22C4
  8
SAPA_PROFIL
 62
     4
 10
-1.1499999999996351
 20
-46.649999999999629
 30
0.0
 42
-1.0
  0
VERTEX
  5
22C5
  8
SAPA_PROFIL
 62
     4
 10
1.1500000000003181
 20
-46.649999999999629
 30
0.0
  0
VERTEX
  5
22C6
  8
SAPA_PROFIL
 62
     4
 10
1.150000000000432
 20
-48.849999999999682
 30
0.0
 42
-1.0
  0
SEQEND
  5
22C7
  8
SAPA_PROFIL
 62
     4
  0
POLYLINE
  5
166C
  8
SAPA_PROFIL
 62
     4
 66
     1
 10
0.0
 20
0.0
 30
0.0
 70
     1
  0
VERTEX
  5
22C8
  8
SAPA_PROFIL
 62
     4
 10
-3.9999999999996558
 20
-63.999999999999659
 30
0.0
  0
VERTEX
  5
22C9
  8
SAPA_PROFIL
 62
     4
 10
-3.9999999999996558
 20
-67.050832149035898
 30
0.0
  0
VERTEX
  5
22CA
  8
SAPA_PROFIL
 62
     4
 10
-3.9999999999996549
 20
-70.378679656439999
 30
0.0
 42
0.6681786379192966
  0
VERTEX
  5
22CB
  8
SAPA_PROFIL
 62
     4
 10
-3.1464466094064361
 20
-70.732233047033219
 30
0.0
  0
VERTEX
  5
22CC
  8
SAPA_PROFIL
 62
     4
 10
-1.0000000116214629
 20
-68.585786439270123
 30
0.0
 42
-0.1989123679837333
  0
VERTEX
  5
22CD
  8
SAPA_PROFIL
 62
     4
 10
-0.2928932287913539
 20
-68.292893218813106
 30
0.0
  0
VERTEX
  5
22CE
  8
SAPA_PROFIL
 62
     4
 10
0.2928932088355822
 20
-68.292893218813106
 30
0.0
 42
-0.1989123667755704
  0
VERTEX
  5
22CF
  8
SAPA_PROFIL
 62
     4
 10
0.9999999883785508
 20
-68.585786435982982
 30
0.0
  0
VERTEX
  5
22D0
  8
SAPA_PROFIL
 62
     4
 10
3.146446609407124
 20
-70.732233047033219
 30
0.0
 42
0.6681786379192936
  0
VERTEX
  5
22D1
  8
SAPA_PROFIL
 62
     4
 10
4.0000000000003304
 20
-70.378679656439999
 30
0.0
  0
VERTEX
  5
22D2
  8
SAPA_PROFIL
 62
     4
 10
4.0000000000003286
 20
-67.050832149035898
 30
0.0
  0
VERTEX
  5
22D3
  8
SAPA_PROFIL
 62
     4
 10
4.0000000000003428
 20
-63.999999999999659
 30
0.0
 42
0.4142135623730951
  0
VERTEX
  5
22D4
  8
SAPA_PROFIL
 62
     4
 10
3.5000000000003428
 20
-63.499999999999652
 30
0.0
  0
VERTEX
  5
22D5
  8
SAPA_PROFIL
 62
     4
 10
-3.4999999999996558
 20
-63.499999999999652
 30
0.0
 42
0.4142135623730951
  0
SEQEND
  5
22D6
  8
SAPA_PROFIL
 62
     4
  0
POLYLINE
  5
166D
  8
SAPA_PROFIL
 62
     4
 66
     1
 10
0.0
 20
0.0
 30
0.0
 70
     1
  0
VERTEX
  5
22D7
  8
SAPA_PROFIL
 62
     4
 10
2.5857864376271209
 20
-53.459999999999667
 30
0.0
  0
VERTEX
  5
22D8
  8
SAPA_PROFIL
 62
     4
 10
1.1465310628473171
 20
-52.060744625219627
 30
0.0
 42
0.9251773977986363
  0
VERTEX
  5
22D9
  8
SAPA_PROFIL
 62
     4
 10
-1.1465310628465191
 20
-52.060744625219627
 30
0.0
  0
VERTEX
  5
22DA
  8
SAPA_PROFIL
 62
     4
 10
-2.585786437626437
 20
-53.459999999999667
 30
0.0
  0
VERTEX
  5
22DB
  8
SAPA_PROFIL
 62
     4
 10
-3.4999999999996581
 20
-53.459999999999667
 30
0.0
 42
0.4142135623730769
  0
VERTEX
  5
22DC
  8
SAPA_PROFIL
 62
     4
 10
-3.9999999999996572
 20
-53.959999999999667
 30
0.0
  0
VERTEX
  5
22DD
  8
SAPA_PROFIL
 62
     4
 10
-3.9999999999996558
 20
-61.999999999999659
 30
0.0
 42
0.4142135623730951
  0
VERTEX
  5
22DE
  8
SAPA_PROFIL
 62
     4
 10
-3.4999999999996558
 20
-62.499999999999659
 30
0.0
  0
VERTEX
  5
22DF
  8
SAPA_PROFIL
 62
     4
 10
3.5000000000003428
 20
-62.499999999999659
 30
0.0
 42
0.4142135623730951
  0
VERTEX
  5
22E0
  8
SAPA_PROFIL
 62
     4
 10
4.0000000000003419
 20
-61.999999999999659
 30
0.0
  0
VERTEX
  5
22E1
  8
SAPA_PROFIL
 62
     4
 10
4.0000000000003411
 20
-53.959999999999667
 30
0.0
 42
0.4142135623730951
  0
VERTEX
  5
22E2
  8
SAPA_PROFIL
 62
     4
 10
3.5000000000003411
 20
-53.459999999999667
 30
0.0
  0
SEQEND
  5
22E3
  8
SAPA_PROFIL
 62
     4
  0
POLYLINE
  5
166E
  8
SAPA_PROFIL
 62
     4
 66
     1
 10
0.0
 20
0.0
 30
0.0
 70
     1
  0
VERTEX
  5
22E4
  8
SAPA_PROFIL
 62
     4
 10
-4.9999999999995444
 20
-54.109999999999637
 30
0.0
 42
1.0
  0
VERTEX
  5
22E5
  8
SAPA_PROFIL
 62
     4
 10
-6.2999999999996117
 20
-54.109999999999637
 30
0.0
  0
VERTEX
  5
22E6
  8
SAPA_PROFIL
 62
     4
 10
-6.2999999999996117
 20
-54.95999999999966
 30
0.0
  0
VERTEX
  5
22E7
  8
SAPA_PROFIL
 62
     4
 10
-6.2499999999995444
 20
-54.95999999999966
 30
0.0
 42
-1.0
  0
VERTEX
  5
22E8
  8
SAPA_PROFIL
 62
     4
 10
-6.2499999999995426
 20
-55.459999999999667
 30
0.0
  0
VERTEX
  5
22E9
  8
SAPA_PROFIL
 62
     4
 10
-6.6999999999995881
 20
-55.459999999999667
 30
0.0
 42
-0.4142135623730951
  0
VERTEX
  5
22EA
  8
SAPA_PROFIL
 62
     4
 10
-6.9999999999995444
 20
-55.159999999999599
 30
0.0
  0
VERTEX
  5
22EB
  8
SAPA_PROFIL
 62
     4
 10
-6.9999999999995444
 20
-53.459999999999667
 30
0.0
 42
-0.4225789089359373
  0
VERTEX
  5
22EC
  8
SAPA_PROFIL
 62
     4
 10
-5.9999999999995444
 20
-52.499999999999538
 30
0.0
  0
VERTEX
  5
22ED
  8
SAPA_PROFIL
 62
     4
 10
-2.9999999999995439
 20
-52.499999999999538
 30
0.0
  0
VERTEX
  5
22EE
  8
SAPA_PROFIL
 62
     4
 10
-2.1499999999996349
 20
-51.649999999999629
 30
0.0
  0
VERTEX
  5
22EF
  8
SAPA_PROFIL
 62
     4
 10
-2.1499999999996362
 20
-45.499999999999659
 30
0.0
 42
-0.4142135623730951
  0
VERTEX
  5
22F0
  8
SAPA_PROFIL
 62
     4
 10
-1.149999999999636
 20
-44.499999999999659
 30
0.0
  0
VERTEX
  5
22F1
  8
SAPA_PROFIL
 62
     4
 10
1.1500000000003181
 20
-44.499999999999659
 30
0.0
 42
-0.4142135623730951
  0
VERTEX
  5
22F2
  8
SAPA_PROFIL
 62
     4
 10
2.1500000000003179
 20
-45.499999999999659
 30
0.0
  0
VERTEX
  5
22F3
  8
SAPA_PROFIL
 62
     4
 10
2.1500000000003192
 20
-51.649999999999523
 30
0.0
  0
VERTEX
  5
22F4
  8
SAPA_PROFIL
 62
     4
 10
3.0000000000003411
 20
-52.499999999999538
 30
0.0
  0
VERTEX
  5
22F5
  8
SAPA_PROFIL
 62
     4
 10
6.0000000000003411
 20
-52.499999999999538
 30
0.0
 42
-0.4225789089359373
  0
VERTEX
  5
22F6
  8
SAPA_PROFIL
 62
     4
 10
7.0000000000003562
 20
-53.459999999999667
 30
0.0
  0
VERTEX
  5
22F7
  8
SAPA_PROFIL
 62
     4
 10
7.0000000000003562
 20
-55.159999999999599
 30
0.0
 42
-0.4142135623730951
  0
VERTEX
  5
22F8
  8
SAPA_PROFIL
 62
     4
 10
6.7000000000002737
 20
-55.459999999999667
 30
0.0
  0
VERTEX
  5
22F9
  8
SAPA_PROFIL
 62
     4
 10
6.2500000000003419
 20
-55.459999999999667
 30
0.0
 42
-1.0
  0
VERTEX
  5
22FA
  8
SAPA_PROFIL
 62
     4
 10
6.2500000000003411
 20
-54.95999999999966
 30
0.0
  0
VERTEX
  5
22FB
  8
SAPA_PROFIL
 62
     4
 10
6.3000000000004102
 20
-54.95999999999966
 30
0.0
  0
VERTEX
  5
22FC
  8
SAPA_PROFIL
 62
     4
 10
6.3000000000004102
 20
-54.109999999999637
 30
0.0
 42
1.0
  0
VERTEX
  5
22FD
  8
SAPA_PROFIL
 62
     4
 10
5.0000000000003411
 20
-54.109999999999637
 30
0.0
  0
VERTEX
  5
22FE
  8
SAPA_PROFIL
 62
     4
 10
5.0000000000003286
 20
-67.050832149035898
 30
0.0
  0
VERTEX
  5
22FF
  8
SAPA_PROFIL
 62
     4
 10
5.0000000000003304
 20
-72.499999999999659
 30
0.0
  0
VERTEX
  5
2300
  8
SAPA_PROFIL
 62
     4
 10
3.5000000000003442
 20
-72.499999999999659
 30
0.0
  0
VERTEX
  5
2301
  8
SAPA_PROFIL
 62
     4
 10
0.3535533905935639
 20
-69.353553390592879
 30
0.0
 42
0.4142135623730951
  0
VERTEX
  5
2302
  8
SAPA_PROFIL
 62
     4
 10
-0.3535533905928756
 20
-69.353553390592879
 30
0.0
  0
VERTEX
  5
2303
  8
SAPA_PROFIL
 62
     4
 10
-3.4999999999996549
 20
-72.499999999999659
 30
0.0
  0
VERTEX
  5
2304
  8
SAPA_PROFIL
 62
     4
 10
-4.9999999999996829
 20
-72.499999999999659
 30
0.0
  0
VERTEX
  5
2305
  8
SAPA_PROFIL
 62
     4
 10
-4.9999999999996421
 20
-67.050832149035898
 30
0.0
  0
VERTEX
  5
2306
  8
SAPA_PROFIL
 62
     4
 10
-4.9999999999995444
 20
-54.409999999999627
 30
0.0
  0
SEQEND
  5
2307
  8
SAPA_PROFIL
 62
     4
  0
POLYLINE
  5
166F
  8
SAPA_PROFIL
 66
     1
 10
0.0
 20
0.0
 30
0.0
 70
   129
  0
VERTEX
  5
2308
  8
SAPA_PROFIL
 10
-2.9999999999999711
 20
-31.49999999999952
 30
0.0
  0
VERTEX
  5
2309
  8
SAPA_PROFIL
 10
-2.9999999999999711
 20
-14.49999999999952
 30
0.0
 42
-0.4142135623730951
  0
VERTEX
  5
230A
  8
SAPA_PROFIL
 10
-0.9999999999999715
 20
-12.49999999999952
 30
0.0
  0
VERTEX
  5
230B
  8
SAPA_PROFIL
 10
1.000000000000028
 20
-12.49999999999952
 30
0.0
 42
-0.4142135623730951
  0
VERTEX
  5
230C
  8
SAPA_PROFIL
 10
3.000000000000028
 20
-14.49999999999952
 30
0.0
  0
VERTEX
  5
230D
  8
SAPA_PROFIL
 10
3.000000000000028
 20
-31.49999999999952
 30
0.0
 42
-0.4142135623731002
  0
VERTEX
  5
230E
  8
SAPA_PROFIL
 10
2.000000000000028
 20
-32.499999999999517
 30
0.0
  0
VERTEX
  5
230F
  8
SAPA_PROFIL
 10
-1.9999999999999709
 20
-32.499999999999517
 30
0.0
 42
-0.4142135623730951
  0
SEQEND
  5
2310
  8
SAPA_PROFIL
  0
POLYLINE
  5
1670
  8
SAPA_PROFIL
 66
     1
 10
0.0
 20
0.0
 30
0.0
 70
   129
  0
VERTEX
  5
2311
  8
SAPA_PROFIL
 10
20.8180339887499
 20
-14.99999999999952
 30
0.0
 42
0.6482315195103768
  0
VERTEX
  5
2312
  8
SAPA_PROFIL
 10
19.700000000000021
 20
-12.49999999999952
 30
0.0
  0
VERTEX
  5
2313
  8
SAPA_PROFIL
 10
7.0000000000000284
 20
-12.49999999999952
 30
0.0
 42
0.4142135623730951
  0
VERTEX
  5
2314
  8
SAPA_PROFIL
 10
5.0000000000000284
 20
-14.49999999999952
 30
0.0
  0
VERTEX
  5
2315
  8
SAPA_PROFIL
 10
5.0000000000000284
 20
-52.199999999999498
 30
0.0
 42
-0.4142135623730951
  0
VERTEX
  5
2316
  8
SAPA_PROFIL
 10
4.7000000000000171
 20
-52.499999999999517
 30
0.0
  0
VERTEX
  5
2317
  8
SAPA_PROFIL
 10
3.0757359312880221
 20
-52.499999999999517
 30
0.0
  0
VERTEX
  5
2318
  8
SAPA_PROFIL
 10
2.1378679656441468
 20
-51.562132034356161
 30
0.0
 42
-0.1989123673804472
  0
VERTEX
  5
2319
  8
SAPA_PROFIL
 10
2.0500000000000389
 20
-51.349999999999511
 30
0.0
  0
VERTEX
  5
231A
  8
SAPA_PROFIL
 10
2.0500000000000389
 20
-50.149999999999523
 30
0.0
  0
VERTEX
  5
231B
  8
SAPA_PROFIL
 10
2.7000000000000171
 20
-50.149999999999523
 30
0.0
  0
VERTEX
  5
231C
  8
SAPA_PROFIL
 10
2.076719695747812
 20
-48.77376540432482
 30
0.0
 42
-0.5450207774088041
  0
VERTEX
  5
231D
  8
SAPA_PROFIL
 10
2.3500000000000218
 20
-48.349999999999511
 30
0.0
  0
VERTEX
  5
231E
  8
SAPA_PROFIL
 10
2.7000000000000171
 20
-48.349999999999511
 30
0.0
  0
VERTEX
  5
231F
  8
SAPA_PROFIL
 10
2.076719695747812
 20
-46.973765404324858
 30
0.0
 42
-0.545020777408923
  0
VERTEX
  5
2320
  8
SAPA_PROFIL
 10
2.3500000000000218
 20
-46.5499999999995
 30
0.0
  0
VERTEX
  5
2321
  8
SAPA_PROFIL
 10
2.7000000000000171
 20
-46.5499999999995
 30
0.0
  0
VERTEX
  5
2322
  8
SAPA_PROFIL
 10
2.076719695747812
 20
-45.173765404324847
 30
0.0
 42
-0.5450207774088153
  0
VERTEX
  5
2323
  8
SAPA_PROFIL
 10
2.3500000000000218
 20
-44.74999999999951
 30
0.0
  0
VERTEX
  5
2324
  8
SAPA_PROFIL
 10
2.7000000000000171
 20
-44.74999999999951
 30
0.0
  0
VERTEX
  5
2325
  8
SAPA_PROFIL
 10
2.076719695747812
 20
-43.373765404324843
 30
0.0
 42
-0.5450207774088153
  0
VERTEX
  5
2326
  8
SAPA_PROFIL
 10
2.3500000000000218
 20
-42.949999999999513
 30
0.0
  0
VERTEX
  5
2327
  8
SAPA_PROFIL
 10
2.7000000000000171
 20
-42.949999999999513
 30
0.0
  0
VERTEX
  5
2328
  8
SAPA_PROFIL
 10
2.0767196957477552
 20
-41.573765404324767
 30
0.0
 42
-0.5450207774087306
  0
VERTEX
  5
2329
  8
SAPA_PROFIL
 10
2.3500000000000218
 20
-41.149999999999523
 30
0.0
  0
VERTEX
  5
232A
  8
SAPA_PROFIL
 10
2.7000000000000171
 20
-41.149999999999523
 30
0.0
  0
VERTEX
  5
232B
  8
SAPA_PROFIL
 10
2.076719695747812
 20
-39.77376540432482
 30
0.0
 42
-0.5450207774088212
  0
VERTEX
  5
232C
  8
SAPA_PROFIL
 10
2.3500000000000218
 20
-39.349999999999511
 30
0.0
  0
VERTEX
  5
232D
  8
SAPA_PROFIL
 10
2.7000000000000171
 20
-39.349999999999511
 30
0.0
  0
VERTEX
  5
232E
  8
SAPA_PROFIL
 10
2.076719695747812
 20
-37.973765404324837
 30
0.0
 42
-0.5450207774088153
  0
VERTEX
  5
232F
  8
SAPA_PROFIL
 10
2.3500000000000218
 20
-37.5499999999995
 30
0.0
  0
VERTEX
  5
2330
  8
SAPA_PROFIL
 10
2.7000000000000171
 20
-37.5499999999995
 30
0.0
  0
VERTEX
  5
2331
  8
SAPA_PROFIL
 10
2.076719695747812
 20
-36.173765404324861
 30
0.0
 42
-0.5450207774088267
  0
VERTEX
  5
2332
  8
SAPA_PROFIL
 10
2.3500000000000218
 20
-35.749999999999517
 30
0.0
  0
VERTEX
  5
2333
  8
SAPA_PROFIL
 10
2.7000000000000171
 20
-35.749999999999517
 30
0.0
  0
VERTEX
  5
2334
  8
SAPA_PROFIL
 10
2.7000000000000171
 20
-35.499999999999517
 30
0.0
 42
0.4142135623730951
  0
VERTEX
  5
2335
  8
SAPA_PROFIL
 10
1.7000000000000171
 20
-34.499999999999517
 30
0.0
  0
VERTEX
  5
2336
  8
SAPA_PROFIL
 10
-1.69999999999996
 20
-34.499999999999517
 30
0.0
 42
0.4142135623730951
  0
VERTEX
  5
2337
  8
SAPA_PROFIL
 10
-2.6999999999999602
 20
-35.499999999999517
 30
0.0
  0
VERTEX
  5
2338
  8
SAPA_PROFIL
 10
-2.6999999999999602
 20
-36.649999999999523
 30
0.0
  0
VERTEX
  5
2339
  8
SAPA_PROFIL
 10
-2.349999999999937
 20
-36.649999999999523
 30
0.0
 42
-0.5450207774090871
  0
VERTEX
  5
233A
  8
SAPA_PROFIL
 10
-2.0767196957479821
 20
-37.07376540432552
 30
0.0
  0
VERTEX
  5
233B
  8
SAPA_PROFIL
 10
-2.6999999999999602
 20
-38.449999999999513
 30
0.0
  0
VERTEX
  5
233C
  8
SAPA_PROFIL
 10
-2.349999999999937
 20
-38.449999999999513
 30
0.0
 42
-0.5450207774090871
  0
VERTEX
  5
233D
  8
SAPA_PROFIL
 10
-2.0767196957479821
 20
-38.873765404325532
 30
0.0
  0
VERTEX
  5
233E
  8
SAPA_PROFIL
 10
-2.6999999999999602
 20
-40.24999999999951
 30
0.0
  0
VERTEX
  5
233F
  8
SAPA_PROFIL
 10
-2.3500000000000512
 20
-40.24999999999951
 30
0.0
 42
-0.5450207774093415
  0
VERTEX
  5
2340
  8
SAPA_PROFIL
 10
-2.0767196957479821
 20
-40.673765404325501
 30
0.0
  0
VERTEX
  5
2341
  8
SAPA_PROFIL
 10
-2.6999999999999602
 20
-42.0499999999995
 30
0.0
  0
VERTEX
  5
2342
  8
SAPA_PROFIL
 10
-2.3500000000000218
 20
-42.0499999999995
 30
0.0
 42
-0.5450207774092283
  0
VERTEX
  5
2343
  8
SAPA_PROFIL
 10
-2.0767196957479821
 20
-42.473765404325519
 30
0.0
  0
VERTEX
  5
2344
  8
SAPA_PROFIL
 10
-2.6999999999999602
 20
-43.849999999999497
 30
0.0
  0
VERTEX
  5
2345
  8
SAPA_PROFIL
 10
-2.349999999999937
 20
-43.849999999999497
 30
0.0
 42
-0.5450207774090871
  0
VERTEX
  5
2346
  8
SAPA_PROFIL
 10
-2.0767196957479821
 20
-44.273765404325502
 30
0.0
  0
VERTEX
  5
2347
  8
SAPA_PROFIL
 10
-2.6999999999999602
 20
-45.649999999999523
 30
0.0
  0
VERTEX
  5
2348
  8
SAPA_PROFIL
 10
-2.349999999999937
 20
-45.649999999999523
 30
0.0
 42
-0.5450207774090871
  0
VERTEX
  5
2349
  8
SAPA_PROFIL
 10
-2.0767196957479821
 20
-46.073765404325513
 30
0.0
  0
VERTEX
  5
234A
  8
SAPA_PROFIL
 10
-2.6999999999999602
 20
-47.449999999999498
 30
0.0
  0
VERTEX
  5
234B
  8
SAPA_PROFIL
 10
-2.3499999999999939
 20
-47.449999999999498
 30
0.0
 42
-0.5450207774091945
  0
VERTEX
  5
234C
  8
SAPA_PROFIL
 10
-2.0767196957479821
 20
-47.873765404325532
 30
0.0
  0
VERTEX
  5
234D
  8
SAPA_PROFIL
 10
-2.6999999999999602
 20
-49.24999999999951
 30
0.0
  0
VERTEX
  5
234E
  8
SAPA_PROFIL
 10
-2.3500000000000218
 20
-49.24999999999951
 30
0.0
 42
-0.5450207774092962
  0
VERTEX
  5
234F
  8
SAPA_PROFIL
 10
-2.0767196957479821
 20
-49.673765404325501
 30
0.0
  0
VERTEX
  5
2350
  8
SAPA_PROFIL
 10
-2.6999999999999602
 20
-51.0499999999995
 30
0.0
  0
VERTEX
  5
2351
  8
SAPA_PROFIL
 10
-2.3500000000000791
 20
-51.0499999999995
 30
0.0
 42
-0.6681786379194189
  0
VERTEX
  5
2352
  8
SAPA_PROFIL
 10
-2.1378679656439772
 20
-51.5621320343555
 30
0.0
  0
VERTEX
  5
2353
  8
SAPA_PROFIL
 10
-3.0757359312879942
 20
-52.499999999999517
 30
0.0
  0
VERTEX
  5
2354
  8
SAPA_PROFIL
 10
-4.6999999999999602
 20
-52.499999999999517
 30
0.0
 42
-0.4142135623730951
  0
VERTEX
  5
2355
  8
SAPA_PROFIL
 10
-4.9999999999999707
 20
-52.199999999999498
 30
0.0
  0
VERTEX
  5
2356
  8
SAPA_PROFIL
 10
-4.9999999999999707
 20
-14.49999999999952
 30
0.0
 42
0.4142135623730951
  0
VERTEX
  5
2357
  8
SAPA_PROFIL
 10
-7.0
 20
-12.49999999999952
 30
0.0
  0
VERTEX
  5
2358
  8
SAPA_PROFIL
 10
-19.699999999999989
 20
-12.49999999999954
 30
0.0
 42
0.6482315195103831
  0
VERTEX
  5
2359
  8
SAPA_PROFIL
 10
-20.81803398874985
 20
-14.99999999999957
 30
0.0
 42
-0.6482315195103645
  0
VERTEX
  5
235A
  8
SAPA_PROFIL
 10
-21.041640786500011
 20
-15.49999999999954
 30
0.0
  0
VERTEX
  5
235B
  8
SAPA_PROFIL
 10
-22.399999999999981
 20
-15.49999999999954
 30
0.0
 42
0.4142135623730951
  0
VERTEX
  5
235C
  8
SAPA_PROFIL
 10
-22.699999999999989
 20
-15.79999999999953
 30
0.0
  0
VERTEX
  5
235D
  8
SAPA_PROFIL
 10
-22.699999999999989
 20
-29.699999999999541
 30
0.0
 42
0.4142135623731104
  0
VERTEX
  5
235E
  8
SAPA_PROFIL
 10
-22.399999999999981
 20
-29.999999999999549
 30
0.0
  0
VERTEX
  5
235F
  8
SAPA_PROFIL
 10
-16.500000000000959
 20
-29.99999999999952
 30
0.0
 42
-0.4142135623731104
  0
VERTEX
  5
2360
  8
SAPA_PROFIL
 10
-16.20000000000098
 20
-30.2999999999995
 30
0.0
  0
VERTEX
  5
2361
  8
SAPA_PROFIL
 10
-16.20000000000098
 20
-34.199999999999513
 30
0.0
 42
0.2134217652833545
  0
VERTEX
  5
2362
  8
SAPA_PROFIL
 10
-16.100000000000989
 20
-34.423606797749471
 30
0.0
 42
-0.213421765283341
  0
VERTEX
  5
2363
  8
SAPA_PROFIL
 10
-16.000000000000959
 20
-34.647213595499501
 30
0.0
  0
VERTEX
  5
2364
  8
SAPA_PROFIL
 10
-16.000000000000959
 20
-35.199999999999513
 30
0.0
 42
-0.4142135623731104
  0
VERTEX
  5
2365
  8
SAPA_PROFIL
 10
-16.300000000000981
 20
-35.499999999999517
 30
0.0
  0
VERTEX
  5
2366
  8
SAPA_PROFIL
 10
-18.000000000000959
 20
-35.499999999999538
 30
0.0
  0
VERTEX
  5
2367
  8
SAPA_PROFIL
 10
-18.586384015761979
 20
-35.035076580434549
 30
0.0
 42
-0.7105995015649603
  0
VERTEX
  5
2368
  8
SAPA_PROFIL
 10
-18.400000000001
 20
-34.499999999999552
 30
0.0
  0
VERTEX
  5
2369
  8
SAPA_PROFIL
 10
-18.000000000000959
 20
-34.499999999999552
 30
0.0
 42
0.4142135623731359
  0
VERTEX
  5
236A
  8
SAPA_PROFIL
 10
-17.70000000000098
 20
-34.199999999999541
 30
0.0
  0
VERTEX
  5
236B
  8
SAPA_PROFIL
 10
-17.70000000000098
 20
-31.799999999999532
 30
0.0
 42
0.4142135623730951
  0
VERTEX
  5
236C
  8
SAPA_PROFIL
 10
-18.000000000000959
 20
-31.499999999999549
 30
0.0
  0
VERTEX
  5
236D
  8
SAPA_PROFIL
 10
-22.900000000000968
 20
-31.499999999999549
 30
0.0
 42
0.4142135623731104
  0
VERTEX
  5
236E
  8
SAPA_PROFIL
 10
-23.200000000000959
 20
-31.799999999999532
 30
0.0
  0
VERTEX
  5
236F
  8
SAPA_PROFIL
 10
-23.20000000000098
 20
-34.199999999999541
 30
0.0
 42
0.4142135623731258
  0
VERTEX
  5
2370
  8
SAPA_PROFIL
 10
-22.900000000000951
 20
-34.499999999999552
 30
0.0
  0
VERTEX
  5
2371
  8
SAPA_PROFIL
 10
-22.000000000000959
 20
-34.499999999999552
 30
0.0
 42
-0.7105995015650852
  0
VERTEX
  5
2372
  8
SAPA_PROFIL
 10
-21.813615984240219
 20
-35.035076580434271
 30
0.0
  0
VERTEX
  5
2373
  8
SAPA_PROFIL
 10
-22.400000000000968
 20
-35.499999999999538
 30
0.0
  0
VERTEX
  5
2374
  8
SAPA_PROFIL
 10
-24.70000000000098
 20
-35.499999999999538
 30
0.0
 42
-0.4142135623730951
  0
VERTEX
  5
2375
  8
SAPA_PROFIL
 10
-25.00000000000097
 20
-35.199999999999527
 30
0.0
  0
VERTEX
  5
2376
  8
SAPA_PROFIL
 10
-25.0
 20
63.999999999999481
 30
0.0
 42
-0.4142135623730951
  0
VERTEX
  5
2377
  8
SAPA_PROFIL
 10
-24.5
 20
64.499999999999488
 30
0.0
  0
VERTEX
  5
2378
  8
SAPA_PROFIL
 10
24.5
 20
64.499999999999488
 30
0.0
 42
-0.4142135623730951
  0
VERTEX
  5
2379
  8
SAPA_PROFIL
 10
25.0
 20
63.999999999999481
 30
0.0
  0
VERTEX
  5
237A
  8
SAPA_PROFIL
 10
25.00000000000103
 20
-35.199999999999513
 30
0.0
 42
-0.4142135623731258
  0
VERTEX
  5
237B
  8
SAPA_PROFIL
 10
24.700000000001008
 20
-35.499999999999517
 30
0.0
  0
VERTEX
  5
237C
  8
SAPA_PROFIL
 10
22.400000000001029
 20
-35.499999999999517
 30
0.0
  0
VERTEX
  5
237D
  8
SAPA_PROFIL
 10
21.81361598424002
 20
-35.035076580433497
 30
0.0
 42
-0.7105995015650982
  0
VERTEX
  5
237E
  8
SAPA_PROFIL
 10
22.00000000000102
 20
-34.499999999999517
 30
0.0
  0
VERTEX
  5
237F
  8
SAPA_PROFIL
 10
22.900000000001029
 20
-34.499999999999517
 30
0.0
 42
0.4142135623731104
  0
VERTEX
  5
2380
  8
SAPA_PROFIL
 10
23.200000000001008
 20
-34.199999999999513
 30
0.0
  0
VERTEX
  5
2381
  8
SAPA_PROFIL
 10
23.200000000001008
 20
-31.7999999999995
 30
0.0
 42
0.4142135623731001
  0
VERTEX
  5
2382
  8
SAPA_PROFIL
 10
22.900000000001029
 20
-31.49999999999952
 30
0.0
  0
VERTEX
  5
2383
  8
SAPA_PROFIL
 10
18.00000000000102
 20
-31.49999999999952
 30
0.0
 42
0.4142135623730951
  0
VERTEX
  5
2384
  8
SAPA_PROFIL
 10
17.700000000001008
 20
-31.7999999999995
 30
0.0
  0
VERTEX
  5
2385
  8
SAPA_PROFIL
 10
17.700000000001008
 20
-34.199999999999513
 30
0.0
 42
0.4142135623731359
  0
VERTEX
  5
2386
  8
SAPA_PROFIL
 10
18.000000000001052
 20
-34.499999999999517
 30
0.0
  0
VERTEX
  5
2387
  8
SAPA_PROFIL
 10
18.400000000001029
 20
-34.499999999999517
 30
0.0
 42
-0.7105995015649472
  0
VERTEX
  5
2388
  8
SAPA_PROFIL
 10
18.586384015761841
 20
-35.035076580434207
 30
0.0
  0
VERTEX
  5
2389
  8
SAPA_PROFIL
 10
18.00000000000102
 20
-35.499999999999517
 30
0.0
  0
VERTEX
  5
238A
  8
SAPA_PROFIL
 10
16.300000000000999
 20
-35.499999999999517
 30
0.0
 42
-0.4142135623731156
  0
VERTEX
  5
238B
  8
SAPA_PROFIL
 10
16.00000000000102
 20
-35.199999999999513
 30
0.0
  0
VERTEX
  5
238C
  8
SAPA_PROFIL
 10
16.00000000000102
 20
-34.647213595499522
 30
0.0
 42
-0.2134217652833455
  0
VERTEX
  5
238D
  8
SAPA_PROFIL
 10
16.100000000000989
 20
-34.423606797749557
 30
0.0
 42
0.2134217652833592
  0
VERTEX
  5
238E
  8
SAPA_PROFIL
 10
16.200000000001008
 20
-34.199999999999513
 30
0.0
  0
VERTEX
  5
238F
  8
SAPA_PROFIL
 10
16.200000000001008
 20
-30.2999999999995
 30
0.0
 42
-0.4142135623731053
  0
VERTEX
  5
2390
  8
SAPA_PROFIL
 10
16.50000000000102
 20
-29.99999999999952
 30
0.0
  0
VERTEX
  5
2391
  8
SAPA_PROFIL
 10
22.400000000000009
 20
-29.99999999999952
 30
0.0
 42
0.4142135623730951
  0
VERTEX
  5
2392
  8
SAPA_PROFIL
 10
22.700000000000021
 20
-29.699999999999509
 30
0.0
  0
VERTEX
  5
2393
  8
SAPA_PROFIL
 10
22.700000000000021
 20
-15.7999999999995
 30
0.0
 42
0.4142135623730951
  0
VERTEX
  5
2394
  8
SAPA_PROFIL
 10
22.400000000000009
 20
-15.49999999999952
 30
0.0
  0
VERTEX
  5
2395
  8
SAPA_PROFIL
 10
21.041640786500011
 20
-15.49999999999952
 30
0.0
 42
-0.6482315195103644
  0
SEQEND
  5
2396
  8
SAPA_PROFIL
  0
POLYLINE
  5
1671
  8
SAPA_PROFIL
 66
     1
 10
0.0
 20
0.0
 30
0.0
 70
   129
  0
VERTEX
  5
2397
  8
SAPA_PROFIL
 10
-22.399999999999981
 20
62.2000000000005
 30
0.0
 42
0.4142135623730951
  0
VERTEX
  5
2398
  8
SAPA_PROFIL
 10
-22.699999999999989
 20
61.900000000000489
 30
0.0
  0
VERTEX
  5
2399
  8
SAPA_PROFIL
 10
-22.699999999999989
 20
49.299999999999493
 30
0.0
 42
0.4142135623731104
  0
VERTEX
  5
239A
  8
SAPA_PROFIL
 10
-22.399999999999981
 20
48.999999999999481
 30
0.0
  0
VERTEX
  5
239B
  8
SAPA_PROFIL
 10
-18.0
 20
48.999999999999481
 30
0.0
 42
-0.4142135623730951
  0
VERTEX
  5
239C
  8
SAPA_PROFIL
 10
-17.5
 20
48.499999999999488
 30
0.0
  0
VERTEX
  5
239D
  8
SAPA_PROFIL
 10
-17.5
 20
46.399999999999459
 30
0.0
 42
-0.4142135623730951
  0
VERTEX
  5
239E
  8
SAPA_PROFIL
 10
-17.800000000000011
 20
46.099999999999483
 30
0.0
  0
VERTEX
  5
239F
  8
SAPA_PROFIL
 10
-18.300000000000011
 20
46.099999999999483
 30
0.0
 42
-0.4142135623730951
  0
VERTEX
  5
23A0
  8
SAPA_PROFIL
 10
-18.599999999999991
 20
46.399999999999459
 30
0.0
  0
VERTEX
  5
23A1
  8
SAPA_PROFIL
 10
-18.600000000000311
 20
46.736626924635203
 30
0.0
 42
0.5643553431125428
  0
VERTEX
  5
23A2
  8
SAPA_PROFIL
 10
-22.924395043234998
 20
44.874395043232482
 30
0.0
  0
VERTEX
  5
23A3
  8
SAPA_PROFIL
 10
-22.550000000002001
 20
44.499999999999481
 30
0.0
  0
VERTEX
  5
23A4
  8
SAPA_PROFIL
 10
-22.924395043234231
 20
44.125604956763077
 30
0.0
 42
0.5643553431119962
  0
VERTEX
  5
23A5
  8
SAPA_PROFIL
 10
-18.599999999999991
 20
42.263373075365479
 30
0.0
  0
VERTEX
  5
23A6
  8
SAPA_PROFIL
 10
-18.599999999999991
 20
42.599999999999497
 30
0.0
 42
-0.4142135623730644
  0
VERTEX
  5
23A7
  8
SAPA_PROFIL
 10
-18.300000000000011
 20
42.899999999999459
 30
0.0
  0
VERTEX
  5
23A8
  8
SAPA_PROFIL
 10
-17.800000000000011
 20
42.899999999999459
 30
0.0
 42
-0.4142135623730951
  0
VERTEX
  5
23A9
  8
SAPA_PROFIL
 10
-17.5
 20
42.599999999999483
 30
0.0
  0
VERTEX
  5
23AA
  8
SAPA_PROFIL
 10
-17.5
 20
40.499999999999488
 30
0.0
 42
-0.4142135623730951
  0
VERTEX
  5
23AB
  8
SAPA_PROFIL
 10
-18.0
 20
39.999999999999488
 30
0.0
  0
VERTEX
  5
23AC
  8
SAPA_PROFIL
 10
-22.399999999999981
 20
39.999999999999488
 30
0.0
 42
0.4142135623731104
  0
VERTEX
  5
23AD
  8
SAPA_PROFIL
 10
-22.699999999999989
 20
39.699999999999477
 30
0.0
  0
VERTEX
  5
23AE
  8
SAPA_PROFIL
 10
-22.699999999999989
 20
9.2999999999994714
 30
0.0
 42
0.4142135623731104
  0
VERTEX
  5
23AF
  8
SAPA_PROFIL
 10
-22.399999999999981
 20
8.9999999999994582
 30
0.0
  0
VERTEX
  5
23B0
  8
SAPA_PROFIL
 10
-18.0
 20
8.9999999999994582
 30
0.0
 42
-0.4142135623730951
  0
VERTEX
  5
23B1
  8
SAPA_PROFIL
 10
-17.5
 20
8.4999999999994884
 30
0.0
  0
VERTEX
  5
23B2
  8
SAPA_PROFIL
 10
-17.5
 20
6.3999999999994941
 30
0.0
 42
-0.4142135623730951
  0
VERTEX
  5
23B3
  8
SAPA_PROFIL
 10
-17.800000000000011
 20
6.0999999999994543
 30
0.0
  0
VERTEX
  5
23B4
  8
SAPA_PROFIL
 10
-18.300000000000011
 20
6.0999999999994543
 30
0.0
 42
-0.4142135623730389
  0
VERTEX
  5
23B5
  8
SAPA_PROFIL
 10
-18.599999999999991
 20
6.3999999999994648
 30
0.0
  0
VERTEX
  5
23B6
  8
SAPA_PROFIL
 10
-18.600000000000311
 20
6.7366269246341801
 30
0.0
 42
0.5643553431125485
  0
VERTEX
  5
23B7
  8
SAPA_PROFIL
 10
-22.924395043234998
 20
4.874395043232453
 30
0.0
  0
VERTEX
  5
23B8
  8
SAPA_PROFIL
 10
-22.550000000002001
 20
4.4999999999994591
 30
0.0
  0
VERTEX
  5
23B9
  8
SAPA_PROFIL
 10
-22.924395043234199
 20
4.1256049567620323
 30
0.0
 42
0.5643553431119904
  0
VERTEX
  5
23BA
  8
SAPA_PROFIL
 10
-18.599999999999991
 20
2.2633730753654779
 30
0.0
  0
VERTEX
  5
23BB
  8
SAPA_PROFIL
 10
-18.599999999999991
 20
2.5999999999994818
 30
0.0
 42
-0.4142135623730644
  0
VERTEX
  5
23BC
  8
SAPA_PROFIL
 10
-18.300000000000011
 20
2.8999999999994648
 30
0.0
  0
VERTEX
  5
23BD
  8
SAPA_PROFIL
 10
-17.800000000000011
 20
2.8999999999994648
 30
0.0
 42
-0.4142135623730951
  0
VERTEX
  5
23BE
  8
SAPA_PROFIL
 10
-17.5
 20
2.5999999999994818
 30
0.0
  0
VERTEX
  5
23BF
  8
SAPA_PROFIL
 10
-17.5
 20
0.4999999999994884
 30
0.0
 42
-0.4142135623730951
  0
VERTEX
  5
23C0
  8
SAPA_PROFIL
 10
-18.0
 20
-0.00000000000054
 30
0.0
  0
VERTEX
  5
23C1
  8
SAPA_PROFIL
 10
-22.399999999999981
 20
-0.00000000000054
 30
0.0
 42
0.4142135623731104
  0
VERTEX
  5
23C2
  8
SAPA_PROFIL
 10
-22.699999999999989
 20
-0.3000000000005514
 30
0.0
  0
VERTEX
  5
23C3
  8
SAPA_PROFIL
 10
-22.699999999999989
 20
-9.8999999999995492
 30
0.0
 42
0.4142135623730951
  0
VERTEX
  5
23C4
  8
SAPA_PROFIL
 10
-22.399999999999981
 20
-10.19999999999953
 30
0.0
  0
VERTEX
  5
23C5
  8
SAPA_PROFIL
 10
22.400000000000009
 20
-10.1999999999995
 30
0.0
 42
0.4142135623730951
  0
VERTEX
  5
23C6
  8
SAPA_PROFIL
 10
22.700000000000021
 20
-9.8999999999995225
 30
0.0
  0
VERTEX
  5
23C7
  8
SAPA_PROFIL
 10
22.700000000000021
 20
-0.300000000000523
 30
0.0
 42
0.4142135623730951
  0
VERTEX
  5
23C8
  8
SAPA_PROFIL
 10
22.400000000000009
 20
-0.0000000000005116
 30
0.0
  0
VERTEX
  5
23C9
  8
SAPA_PROFIL
 10
18.000000000000028
 20
-0.0000000000005116
 30
0.0
 42
-0.4142135623730951
  0
VERTEX
  5
23CA
  8
SAPA_PROFIL
 10
17.500000000000028
 20
0.4999999999994884
 30
0.0
  0
VERTEX
  5
23CB
  8
SAPA_PROFIL
 10
17.500000000000028
 20
2.5999999999994818
 30
0.0
 42
-0.4142135623730951
  0
VERTEX
  5
23CC
  8
SAPA_PROFIL
 10
17.80000000000004
 20
2.8999999999994941
 30
0.0
  0
VERTEX
  5
23CD
  8
SAPA_PROFIL
 10
18.30000000000004
 20
2.8999999999994941
 30
0.0
 42
-0.4142135623730951
  0
VERTEX
  5
23CE
  8
SAPA_PROFIL
 10
18.600000000000019
 20
2.5999999999994818
 30
0.0
  0
VERTEX
  5
23CF
  8
SAPA_PROFIL
 10
18.600000000000019
 20
2.2633730753655068
 30
0.0
 42
0.5643553431119905
  0
VERTEX
  5
23D0
  8
SAPA_PROFIL
 10
22.924395043234231
 20
4.125604956762003
 30
0.0
  0
VERTEX
  5
23D1
  8
SAPA_PROFIL
 10
22.550000000002029
 20
4.4999999999994884
 30
0.0
  0
VERTEX
  5
23D2
  8
SAPA_PROFIL
 10
22.92439504323502
 20
4.8743950432324823
 30
0.0
 42
0.5643553431125659
  0
VERTEX
  5
23D3
  8
SAPA_PROFIL
 10
18.600000000000222
 20
6.7366269246341508
 30
0.0
  0
VERTEX
  5
23D4
  8
SAPA_PROFIL
 10
18.600000000000019
 20
6.3999999999994941
 30
0.0
 42
-0.4142135623730388
  0
VERTEX
  5
23D5
  8
SAPA_PROFIL
 10
18.30000000000004
 20
6.0999999999994818
 30
0.0
  0
VERTEX
  5
23D6
  8
SAPA_PROFIL
 10
17.80000000000004
 20
6.0999999999994818
 30
0.0
 42
-0.4142135623730951
  0
VERTEX
  5
23D7
  8
SAPA_PROFIL
 10
17.500000000000028
 20
6.3999999999994941
 30
0.0
  0
VERTEX
  5
23D8
  8
SAPA_PROFIL
 10
17.500000000000028
 20
8.4999999999994884
 30
0.0
 42
-0.4142135623730951
  0
VERTEX
  5
23D9
  8
SAPA_PROFIL
 10
18.000000000000028
 20
8.9999999999994884
 30
0.0
  0
VERTEX
  5
23DA
  8
SAPA_PROFIL
 10
22.400000000000009
 20
8.9999999999994884
 30
0.0
 42
0.4142135623730951
  0
VERTEX
  5
23DB
  8
SAPA_PROFIL
 10
22.700000000000021
 20
9.2999999999994998
 30
0.0
  0
VERTEX
  5
23DC
  8
SAPA_PROFIL
 10
22.700000000000021
 20
39.699999999999477
 30
0.0
 42
0.4142135623730951
  0
VERTEX
  5
23DD
  8
SAPA_PROFIL
 10
22.400000000000009
 20
39.999999999999488
 30
0.0
  0
VERTEX
  5
23DE
  8
SAPA_PROFIL
 10
18.000000000000028
 20
39.999999999999488
 30
0.0
 42
-0.4142135623730951
  0
VERTEX
  5
23DF
  8
SAPA_PROFIL
 10
17.500000000000028
 20
40.499999999999488
 30
0.0
  0
VERTEX
  5
23E0
  8
SAPA_PROFIL
 10
17.5
 20
42.599999999999483
 30
0.0
 42
-0.4142135623730951
  0
VERTEX
  5
23E1
  8
SAPA_PROFIL
 10
17.800000000000011
 20
42.899999999999459
 30
0.0
  0
VERTEX
  5
23E2
  8
SAPA_PROFIL
 10
18.300000000000011
 20
42.899999999999459
 30
0.0
 42
-0.4142135623730951
  0
VERTEX
  5
23E3
  8
SAPA_PROFIL
 10
18.599999999999991
 20
42.599999999999483
 30
0.0
  0
VERTEX
  5
23E4
  8
SAPA_PROFIL
 10
18.599999999999991
 20
42.263373075365479
 30
0.0
 42
0.5643553431119905
  0
VERTEX
  5
23E5
  8
SAPA_PROFIL
 10
22.924395043234199
 20
44.125604956762999
 30
0.0
  0
VERTEX
  5
23E6
  8
SAPA_PROFIL
 10
22.550000000002001
 20
44.499999999999481
 30
0.0
  0
VERTEX
  5
23E7
  8
SAPA_PROFIL
 10
22.924395043234998
 20
44.874395043232482
 30
0.0
 42
0.5643553431125659
  0
VERTEX
  5
23E8
  8
SAPA_PROFIL
 10
18.60000000000019
 20
46.736626924635146
 30
0.0
  0
VERTEX
  5
23E9
  8
SAPA_PROFIL
 10
18.599999999999991
 20
46.399999999999459
 30
0.0
 42
-0.4142135623730951
  0
VERTEX
  5
23EA
  8
SAPA_PROFIL
 10
18.300000000000011
 20
46.099999999999483
 30
0.0
  0
VERTEX
  5
23EB
  8
SAPA_PROFIL
 10
17.800000000000011
 20
46.099999999999483
 30
0.0
 42
-0.4142135623730951
  0
VERTEX
  5
23EC
  8
SAPA_PROFIL
 10
17.5
 20
46.399999999999459
 30
0.0
  0
VERTEX
  5
23ED
  8
SAPA_PROFIL
 10
17.5
 20
48.499999999999488
 30
0.0
 42
-0.4142135623730951
  0
VERTEX
  5
23EE
  8
SAPA_PROFIL
 10
18.0
 20
48.999999999999481
 30
0.0
  0
VERTEX
  5
23EF
  8
SAPA_PROFIL
 10
22.399999999999981
 20
48.999999999999481
 30
0.0
 42
0.4142135623730951
  0
VERTEX
  5
23F0
  8
SAPA_PROFIL
 10
22.699999999999989
 20
49.299999999999493
 30
0.0
  0
VERTEX
  5
23F1
  8
SAPA_PROFIL
 10
22.699999999999989
 20
61.899999999999473
 30
0.0
 42
0.4142135623730951
  0
VERTEX
  5
23F2
  8
SAPA_PROFIL
 10
22.399999999999981
 20
62.199999999999477
 30
0.0
  0
SEQEND
  5
23F3
  8
SAPA_PROFIL
  0
TEXT
  5
1677
  8
SAPA_ARTIKELNR
 62
     4
 10
-210.17988547077911
 20
20.051192314696991
 30
0.0
 40
3.0
  1
42762
  7
BYGG-036634$0$STANDARD
 72
     4
 11
-203.17988547077911
 21
21.55119231469698
 31
0.0
  0
POLYLINE
  5
1683
  8
SAPA_GLAS
 66
     1
 10
0.0
 20
0.0
 30
0.0
  0
VERTEX
  5
2409
  8
SAPA_GLAS
 10
40.999999999999773
 20
-66.499999999998636
 30
0.0
  0
VERTEX
  5
240A
  8
SAPA_GLAS
 10
10.999999999999771
 20
-66.499999999998636
 30
0.0
  0
VERTEX
  5
240B
  8
SAPA_GLAS
 10
10.999999999999771
 20
-72.499999999998636
 30
0.0
  0
VERTEX
  5
240C
  8
SAPA_GLAS
 10
40.999999999999773
 20
-72.499999999998636
 30
0.0
  0
SEQEND
  5
240D
  8
SAPA_GLAS
  0
POLYLINE
  5
1684
  8
SAPA_GLAS
 66
     1
 10
0.0
 20
0.0
 30
0.0
  0
VERTEX
  5
240E
  8
SAPA_GLAS
 10
20.999999999999769
 20
-51.499999999998629
 30
0.0
  0
VERTEX
  5
240F
  8
SAPA_GLAS
 10
10.999999999999771
 20
-51.499999999998629
 30
0.0
  0
VERTEX
  5
2410
  8
SAPA_GLAS
 10
10.999999999999771
 20
-66.499999999998636
 30
0.0
  0
VERTEX
  5
2411
  8
SAPA_GLAS
 10
20.999999999999769
 20
-66.499999999998636
 30
0.0
  0
VERTEX
  5
2412
  8
SAPA_GLAS
 10
20.999999999999769
 20
-51.499999999998629
 30
0.0
  0
SEQEND
  5
2413
  8
SAPA_GLAS
  0
POLYLINE
  5
1685
  8
SAPA_GLAS
 66
     1
 10
0.0
 20
0.0
 30
0.0
  0
VERTEX
  5
2414
  8
SAPA_GLAS
 10
40.999999999999773
 20
-45.499999999998629
 30
0.0
  0
VERTEX
  5
2415
  8
SAPA_GLAS
 10
10.999999999999771
 20
-45.499999999998629
 30
0.0
  0
VERTEX
  5
2416
  8
SAPA_GLAS
 10
10.999999999999771
 20
-51.499999999998629
 30
0.0
  0
VERTEX
  5
2417
  8
SAPA_GLAS
 10
40.999999999999773
 20
-51.499999999998629
 30
0.0
  0
SEQEND
  5
2418
  8
SAPA_GLAS
  0
LINE
  5
1686
  8
SAPA_GLAS
 10
-162.99999999793059
 20
-57.550000073849191
 30
0.0
 11
-162.99999999793059
 21
-42.550000073849191
 31
0.0
  0
POLYLINE
  5
1687
  8
SAPA_GLAS
 66
     1
 10
0.0
 20
0.0
 30
0.0
  0
VERTEX
  5
2419
  8
SAPA_GLAS
 10
-182.9999999979307
 20
-36.550000073849191
 30
0.0
  0
VERTEX
  5
241A
  8
SAPA_GLAS
 10
-152.9999999979307
 20
-36.550000073849191
 30
0.0
  0
VERTEX
  5
241B
  8
SAPA_GLAS
 10
-152.9999999979307
 20
-63.550000073849191
 30
0.0
  0
VERTEX
  5
241C
  8
SAPA_GLAS
 10
-182.9999999979307
 20
-63.550000073849191
 30
0.0
  0
SEQEND
  5
241D
  8
SAPA_GLAS
  0
LINE
  5
1688
  8
SAPA_GLAS
 10
-182.9999999979307
 20
-42.550000073849191
 30
0.0
 11
-152.9999999979307
 21
-42.550000073849191
 31
0.0
  0
LINE
  5
1689
  8
SAPA_GLAS
 10
-182.9999999979307
 20
-57.550000073849191
 30
0.0
 11
-152.9999999979307
 21
-57.550000073849191
 31
0.0
  0
LINE
  5
1694
  8
SAPA_ISOLATOR
 10
-25.00001783612641
 20
-7.3369832384362601
 30
0.0
 11
-31.194641603309378
 21
-7.3369832384362601
 31
0.0
  0
LINE
  5
1695
  8
SAPA_ISOLATOR
 10
-25.00001783612641
 20
-42.578680595395241
 30
0.0
 11
-25.00001783612641
 21
-7.3369832384362601
 31
0.0
  0
LINE
  5
1696
  8
SAPA_ISOLATOR
 10
-31.194641603311201
 20
-42.578680595395241
 30
0.0
 11
-25.00001783612641
 21
-42.578680595395241
 31
0.0
  0
LINE
  5
1697
  8
SAPA_ISOLATOR
 10
-31.200017836126449
 20
-7.3369832384362601
 30
0.0
 11
-31.194641603311201
 21
-42.578680595395241
 31
0.0
  0
LINE
  5
1698
  8
SAPA_ISOLATOR
 10
-31.194641603311201
 20
-42.578680595395241
 30
0.0
 11
-25.00001783612641
 21
-7.3369832384362601
 31
0.0
  0
LINE
  5
1699
  8
SAPA_ISOLATOR
 10
-31.2166051390119
 20
-7.3369832384362601
 30
0.0
 11
-25.01122890619661
 21
-42.578680595395241
 31
0.0
  0
POLYLINE
  5
16BC
  8
SAPA_FOGBAND
 66
     1
 10
0.0
 20
0.0
 30
0.0
 70
     1
  0
VERTEX
  5
251D
  8
SAPA_FOGBAND
 10
-16.00339355472715
 20
-36.300000000001063
 30
0.0
  0
VERTEX
  5
251E
  8
SAPA_FOGBAND
 10
-23.303393554727108
 20
-36.300000000001063
 30
0.0
 42
-0.4142135623730951
  0
VERTEX
  5
251F
  8
SAPA_FOGBAND
 10
-23.803393554727108
 20
-35.80000000000107
 30
0.0
  0
VERTEX
  5
2520
  8
SAPA_FOGBAND
 10
-23.803393554727108
 20
-35.500000000001108
 30
0.0
  0
VERTEX
  5
2521
  8
SAPA_FOGBAND
 10
-22.203393554727089
 20
-35.500000000001108
 30
0.0
 42
0.4142135623730951
  0
VERTEX
  5
2522
  8
SAPA_FOGBAND
 10
-21.703393554727089
 20
-35.000000000001108
 30
0.0
  0
VERTEX
  5
2523
  8
SAPA_FOGBAND
 10
-21.703393554727089
 20
-34.058574583119231
 30
0.0
  0
VERTEX
  5
2524
  8
SAPA_FOGBAND
 10
-21.95515736374762
 20
-33.991114673808823
 30
0.0
 42
-0.4740571810232243
  0
VERTEX
  5
2525
  8
SAPA_FOGBAND
 10
-22.082451226111171
 20
-33.708832088170169
 30
0.0
  0
VERTEX
  5
2526
  8
SAPA_FOGBAND
 10
-21.462350723352529
 20
-32.262625951410293
 30
0.0
 42
-0.2846003776496037
  0
VERTEX
  5
2527
  8
SAPA_FOGBAND
 10
-21.01470654489242
 20
-31.985369502362321
 30
0.0
  0
VERTEX
  5
2528
  8
SAPA_FOGBAND
 10
-19.392080564561859
 20
-31.985369502362321
 30
0.0
 42
-0.2846003776496048
  0
VERTEX
  5
2529
  8
SAPA_FOGBAND
 10
-18.944436386101639
 20
-32.262625951410293
 30
0.0
  0
VERTEX
  5
252A
  8
SAPA_FOGBAND
 10
-18.324335883343
 20
-33.708832088170169
 30
0.0
 42
-0.4740571810232242
  0
VERTEX
  5
252B
  8
SAPA_FOGBAND
 10
-18.451629745706668
 20
-33.991114673808823
 30
0.0
  0
VERTEX
  5
252C
  8
SAPA_FOGBAND
 10
-18.703393554727079
 20
-34.058574583119231
 30
0.0
  0
VERTEX
  5
252D
  8
SAPA_FOGBAND
 10
-18.703393554727079
 20
-35.000000000001108
 30
0.0
 42
0.4142135623730951
  0
VERTEX
  5
252E
  8
SAPA_FOGBAND
 10
-18.203393554727079
 20
-35.500000000001108
 30
0.0
  0
VERTEX
  5
252F
  8
SAPA_FOGBAND
 10
-15.503393554727269
 20
-35.500000000001108
 30
0.0
  0
VERTEX
  5
2530
  8
SAPA_FOGBAND
 10
-15.50339355472715
 20
-35.80000000000107
 30
0.0
 42
-0.4142135623730951
  0
SEQEND
  5
2531
  8
SAPA_FOGBAND
  0
POLYLINE
  5
16BD
  8
SAPA_FOGBAND
 66
     1
 10
0.0
 20
0.0
 30
0.0
 70
     1
  0
VERTEX
  5
2532
  8
SAPA_FOGBAND
 10
-19.303393554727108
 20
-34.185369502362363
 30
0.0
  0
VERTEX
  5
2533
  8
SAPA_FOGBAND
 10
-19.303393554727108
 20
-33.58536950236234
 30
0.0
 42
0.9999999999999998
  0
VERTEX
  5
2534
  8
SAPA_FOGBAND
 10
-21.10339355472707
 20
-33.58536950236234
 30
0.0
  0
VERTEX
  5
2535
  8
SAPA_FOGBAND
 10
-21.10339355472707
 20
-34.185369502362363
 30
0.0
 42
0.9999999999999998
  0
SEQEND
  5
2536
  8
SAPA_FOGBAND
  0
POLYLINE
  5
16BE
  8
SAPA_FOGBAND
 66
     1
 10
0.0
 20
0.0
 30
0.0
  0
VERTEX
  5
2537
  8
SAPA_FOGBAND
 10
-23.803393554727108
 20
-35.80000000000107
 30
0.0
  0
VERTEX
  5
2538
  8
SAPA_FOGBAND
 10
-23.803393554727108
 20
-35.500000000001108
 30
0.0
  0
VERTEX
  5
2539
  8
SAPA_FOGBAND
 10
-24.715553718108481
 20
-35.500000000001108
 30
0.0
 42
0.4027293761437522
  0
VERTEX
  5
253A
  8
SAPA_FOGBAND
 10
-25.015321271706512
 20
-35.788192637470253
 30
0.0
  0
VERTEX
  5
253B
  8
SAPA_FOGBAND
 10
-25.635472610187659
 20
-42.423995511554352
 30
0.0
 42
0.4366759199119207
  0
VERTEX
  5
253C
  8
SAPA_FOGBAND
 10
-24.638365134668678
 20
-43.50000000000167
 30
0.0
  0
VERTEX
  5
253D
  8
SAPA_FOGBAND
 10
-12.763165518679671
 20
-43.50000000000167
 30
0.0
 42
0.1134871727417796
  0
VERTEX
  5
253E
  8
SAPA_FOGBAND
 10
-12.32638668306754
 20
-43.399568923854268
 30
0.0
  0
VERTEX
  5
253F
  8
SAPA_FOGBAND
 10
-5.2213249162899507
 20
-40.440889661177472
 30
0.0
 42
0.2866770623134215
  0
VERTEX
  5
2540
  8
SAPA_FOGBAND
 10
-5.002066370208559
 20
-40.090931572825781
 30
0.0
  0
VERTEX
  5
2541
  8
SAPA_FOGBAND
 10
-5.002066370208559
 20
-39.098088390161912
 30
0.0
 42
0.3386584782462731
  0
VERTEX
  5
2542
  8
SAPA_FOGBAND
 10
-5.5928058660858611
 20
-38.325942004160957
 30
0.0
  0
VERTEX
  5
2543
  8
SAPA_FOGBAND
 10
-15.05021068724818
 20
-35.546144059771649
 30
0.0
 42
0.0644539213931785
  0
VERTEX
  5
2544
  8
SAPA_FOGBAND
 10
-15.4066852208482
 20
-35.500000000001108
 30
0.0
  0
VERTEX
  5
2545
  8
SAPA_FOGBAND
 10
-15.503393554727269
 20
-35.500000000001108
 30
0.0
  0
SEQEND
  5
2546
  8
SAPA_FOGBAND
  0
POLYLINE
  5
16BF
  8
SAPA_FOGBAND
 66
     1
 10
0.0
 20
0.0
 30
0.0
 70
     1
  0
VERTEX
  5
2547
  8
SAPA_FOGBAND
 10
-11.88029721313341
 20
-37.60516415342741
 30
0.0
  0
VERTEX
  5
2548
  8
SAPA_FOGBAND
 10
-7.6042180012538898
 20
-39.020702744133047
 30
0.0
 42
-0.444186966527488
  0
VERTEX
  5
2549
  8
SAPA_FOGBAND
 10
-7.5698481632943313
 20
-39.495522529297823
 30
0.0
  0
VERTEX
  5
254A
  8
SAPA_FOGBAND
 10
-11.762261311780319
 20
-41.89042410031734
 30
0.0
 42
-0.5537304554466119
  0
VERTEX
  5
254B
  8
SAPA_FOGBAND
 10
-12.693293997256889
 20
-41.30750343766087
 30
0.0
  0
VERTEX
  5
254C
  8
SAPA_FOGBAND
 10
-12.693293997256889
 20
-38.231806045762227
 30
0.0
 42
-0.4917973357877383
  0
SEQEND
  5
254D
  8
SAPA_FOGBAND
  0
POLYLINE
  5
16C0
  8
SAPA_FOGBAND
 10
-21.926001341734228
 20
-40.020122589264552
 30
0.0
 66
     1
 70
     8
  0
VERTEX
  8
SAPA_FOGBAND
  5
26C6
 10
-21.9260
 20
-40.0201
 30
0.000000
  70
    32
  0
VERTEX
  8
SAPA_FOGBAND
  5
26C7
 10
-21.9213
 20
-40.1350
 30
0.000000
  70
    32
  0
VERTEX
  8
SAPA_FOGBAND
  5
26C8
 10
-21.9094
 20
-40.2495
 30
0.000000
  70
    32
  0
VERTEX
  8
SAPA_FOGBAND
  5
26C9
 10
-21.8905
 20
-40.3634
 30
0.000000
  70
    32
  0
VERTEX
  8
SAPA_FOGBAND
  5
26CA
 10
-21.8644
 20
-40.4765
 30
0.000000
  70
    32
  0
VERTEX
  8
SAPA_FOGBAND
  5
26CB
 10
-21.8314
 20
-40.5883
 30
0.000000
  70
    32
  0
VERTEX
  8
SAPA_FOGBAND
  5
26CC
 10
-21.7914
 20
-40.6987
 30
0.000000
  70
    32
  0
VERTEX
  8
SAPA_FOGBAND
  5
26CD
 10
-21.7446
 20
-40.8074
 30
0.000000
  70
    32
  0
VERTEX
  8
SAPA_FOGBAND
  5
26CE
 10
-21.6911
 20
-40.9141
 30
0.000000
  70
    32
  0
VERTEX
  8
SAPA_FOGBAND
  5
26CF
 10
-21.6310
 20
-41.0186
 30
0.000000
  70
    32
  0
VERTEX
  8
SAPA_FOGBAND
  5
26D0
 10
-21.5645
 20
-41.1206
 30
0.000000
  70
    32
  0
VERTEX
  8
SAPA_FOGBAND
  5
26D1
 10
-21.4917
 20
-41.2199
 30
0.000000
  70
    32
  0
VERTEX
  8
SAPA_FOGBAND
  5
26D2
 10
-21.4128
 20
-41.3163
 30
0.000000
  70
    32
  0
VERTEX
  8
SAPA_FOGBAND
  5
26D3
 10
-21.3279
 20
-41.4094
 30
0.000000
  70
    32
  0
VERTEX
  8
SAPA_FOGBAND
  5
26D4
 10
-21.2374
 20
-41.4992
 30
0.000000
  70
    32
  0
VERTEX
  8
SAPA_FOGBAND
  5
26D5
 10
-21.1414
 20
-41.5852
 30
0.000000
  70
    32
  0
VERTEX
  8
SAPA_FOGBAND
  5
26D6
 10
-21.0401
 20
-41.6675
 30
0.000000
  70
    32
  0
VERTEX
  8
SAPA_FOGBAND
  5
26D7
 10
-20.9338
 20
-41.7457
 30
0.000000
  70
    32
  0
VERTEX
  8
SAPA_FOGBAND
  5
26D8
 10
-20.8227
 20
-41.8197
 30
0.000000
  70
    32
  0
VERTEX
  8
SAPA_FOGBAND
  5
26D9
 10
-20.7071
 20
-41.8893
 30
0.000000
  70
    32
  0
VERTEX
  8
SAPA_FOGBAND
  5
26DA
 10
-20.5874
 20
-41.9543
 30
0.000000
  70
    32
  0
VERTEX
  8
SAPA_FOGBAND
  5
26DB
 10
-20.4636
 20
-42.0146
 30
0.000000
  70
    32
  0
VERTEX
  8
SAPA_FOGBAND
  5
26DC
 10
-20.3363
 20
-42.0699
 30
0.000000
  70
    32
  0
VERTEX
  8
SAPA_FOGBAND
  5
26DD
 10
-20.2057
 20
-42.1203
 30
0.000000
  70
    32
  0
VERTEX
  8
SAPA_FOGBAND
  5
26DE
 10
-20.0720
 20
-42.1656
 30
0.000000
  70
    32
  0
VERTEX
  8
SAPA_FOGBAND
  5
26DF
 10
-19.9356
 20
-42.2056
 30
0.000000
  70
    32
  0
VERTEX
  8
SAPA_FOGBAND
  5
26E0
 10
-19.7969
 20
-42.2403
 30
0.000000
  70
    32
  0
VERTEX
  8
SAPA_FOGBAND
  5
26E1
 10
-19.6562
 20
-42.2696
 30
0.000000
  70
    32
  0
VERTEX
  8
SAPA_FOGBAND
  5
26E2
 10
-19.5138
 20
-42.2933
 30
0.000000
  70
    32
  0
VERTEX
  8
SAPA_FOGBAND
  5
26E3
 10
-19.3701
 20
-42.3115
 30
0.000000
  70
    32
  0
VERTEX
  8
SAPA_FOGBAND
  5
26E4
 10
-19.2253
 20
-42.3242
 30
0.000000
  70
    32
  0
VERTEX
  8
SAPA_FOGBAND
  5
26E5
 10
-19.0799
 20
-42.3312
 30
0.000000
  70
    32
  0
VERTEX
  8
SAPA_FOGBAND
  5
26E6
 10
-18.9342
 20
-42.3326
 30
0.000000
  70
    32
  0
VERTEX
  8
SAPA_FOGBAND
  5
26E7
 10
-18.7886
 20
-42.3283
 30
0.000000
  70
    32
  0
VERTEX
  8
SAPA_FOGBAND
  5
26E8
 10
-18.6434
 20
-42.3184
 30
0.000000
  70
    32
  0
VERTEX
  8
SAPA_FOGBAND
  5
26E9
 10
-18.4989
 20
-42.3029
 30
0.000000
  70
    32
  0
VERTEX
  8
SAPA_FOGBAND
  5
26EA
 10
-18.3556
 20
-42.2818
 30
0.000000
  70
    32
  0
VERTEX
  8
SAPA_FOGBAND
  5
26EB
 10
-18.2137
 20
-42.2552
 30
0.000000
  70
    32
  0
VERTEX
  8
SAPA_FOGBAND
  5
26EC
 10
-18.0736
 20
-42.2231
 30
0.000000
  70
    32
  0
VERTEX
  8
SAPA_FOGBAND
  5
26ED
 10
-17.9356
 20
-42.1857
 30
0.000000
  70
    32
  0
VERTEX
  8
SAPA_FOGBAND
  5
26EE
 10
-17.8001
 20
-42.1430
 30
0.000000
  70
    32
  0
VERTEX
  8
SAPA_FOGBAND
  5
26EF
 10
-17.6673
 20
-42.0951
 30
0.000000
  70
    32
  0
VERTEX
  8
SAPA_FOGBAND
  5
26F0
 10
-17.5377
 20
-42.0421
 30
0.000000
  70
    32
  0
VERTEX
  8
SAPA_FOGBAND
  5
26F1
 10
-17.4115
 20
-41.9842
 30
0.000000
  70
    32
  0
VERTEX
  8
SAPA_FOGBAND
  5
26F2
 10
-17.2890
 20
-41.9214
 30
0.000000
  70
    32
  0
VERTEX
  8
SAPA_FOGBAND
  5
26F3
 10
-17.1705
 20
-41.8541
 30
0.000000
  70
    32
  0
VERTEX
  8
SAPA_FOGBAND
  5
26F4
 10
-17.0564
 20
-41.7822
 30
0.000000
  70
    32
  0
VERTEX
  8
SAPA_FOGBAND
  5
26F5
 10
-16.9468
 20
-41.7060
 30
0.000000
  70
    32
  0
VERTEX
  8
SAPA_FOGBAND
  5
26F6
 10
-16.8421
 20
-41.6257
 30
0.000000
  70
    32
  0
VERTEX
  8
SAPA_FOGBAND
  5
26F7
 10
-16.7424
 20
-41.5415
 30
0.000000
  70
    32
  0
VERTEX
  8
SAPA_FOGBAND
  5
26F8
 10
-16.6481
 20
-41.4535
 30
0.000000
  70
    32
  0
VERTEX
  8
SAPA_FOGBAND
  5
26F9
 10
-16.5594
 20
-41.3620
 30
0.000000
  70
    32
  0
VERTEX
  8
SAPA_FOGBAND
  5
26FA
 10
-16.4764
 20
-41.2671
 30
0.000000
  70
    32
  0
VERTEX
  8
SAPA_FOGBAND
  5
26FB
 10
-16.3995
 20
-41.1693
 30
0.000000
  70
    32
  0
VERTEX
  8
SAPA_FOGBAND
  5
26FC
 10
-16.3286
 20
-41.0685
 30
0.000000
  70
    32
  0
VERTEX
  8
SAPA_FOGBAND
  5
26FD
 10
-16.2642
 20
-40.9652
 30
0.000000
  70
    32
  0
VERTEX
  8
SAPA_FOGBAND
  5
26FE
 10
-16.2062
 20
-40.8595
 30
0.000000
  70
    32
  0
VERTEX
  8
SAPA_FOGBAND
  5
26FF
 10
-16.1548
 20
-40.7517
 30
0.000000
  70
    32
  0
VERTEX
  8
SAPA_FOGBAND
  5
2700
 10
-16.1102
 20
-40.6421
 30
0.000000
  70
    32
  0
VERTEX
  8
SAPA_FOGBAND
  5
2701
 10
-16.0724
 20
-40.5310
 30
0.000000
  70
    32
  0
VERTEX
  8
SAPA_FOGBAND
  5
2702
 10
-16.0416
 20
-40.4185
 30
0.000000
  70
    32
  0
VERTEX
  8
SAPA_FOGBAND
  5
2703
 10
-16.0178
 20
-40.3050
 30
0.000000
  70
    32
  0
VERTEX
  8
SAPA_FOGBAND
  5
2704
 10
-16.0011
 20
-40.1907
 30
0.000000
  70
    32
  0
VERTEX
  8
SAPA_FOGBAND
  5
2705
 10
-15.9916
 20
-40.0760
 30
0.000000
  70
    32
  0
VERTEX
  8
SAPA_FOGBAND
  5
2706
 10
-15.9891
 20
-39.9610
 30
0.000000
  70
    32
  0
VERTEX
  8
SAPA_FOGBAND
  5
2707
 10
-15.9938
 20
-39.8462
 30
0.000000
  70
    32
  0
VERTEX
  8
SAPA_FOGBAND
  5
2708
 10
-16.0057
 20
-39.7316
 30
0.000000
  70
    32
  0
VERTEX
  8
SAPA_FOGBAND
  5
2709
 10
-16.0247
 20
-39.6177
 30
0.000000
  70
    32
  0
VERTEX
  8
SAPA_FOGBAND
  5
270A
 10
-16.0507
 20
-39.5047
 30
0.000000
  70
    32
  0
VERTEX
  8
SAPA_FOGBAND
  5
270B
 10
-16.0837
 20
-39.3929
 30
0.000000
  70
    32
  0
VERTEX
  8
SAPA_FOGBAND
  5
270C
 10
-16.1237
 20
-39.2825
 30
0.000000
  70
    32
  0
VERTEX
  8
SAPA_FOGBAND
  5
270D
 10
-16.1705
 20
-39.1738
 30
0.000000
  70
    32
  0
VERTEX
  8
SAPA_FOGBAND
  5
270E
 10
-16.2240
 20
-39.0670
 30
0.000000
  70
    32
  0
VERTEX
  8
SAPA_FOGBAND
  5
270F
 10
-16.2841
 20
-38.9625
 30
0.000000
  70
    32
  0
VERTEX
  8
SAPA_FOGBAND
  5
2710
 10
-16.3506
 20
-38.8605
 30
0.000000
  70
    32
  0
VERTEX
  8
SAPA_FOGBAND
  5
2711
 10
-16.4234
 20
-38.7612
 30
0.000000
  70
    32
  0
VERTEX
  8
SAPA_FOGBAND
  5
2712
 10
-16.5023
 20
-38.6649
 30
0.000000
  70
    32
  0
VERTEX
  8
SAPA_FOGBAND
  5
2713
 10
-16.5872
 20
-38.5717
 30
0.000000
  70
    32
  0
VERTEX
  8
SAPA_FOGBAND
  5
2714
 10
-16.6777
 20
-38.4820
 30
0.000000
  70
    32
  0
VERTEX
  8
SAPA_FOGBAND
  5
2715
 10
-16.7737
 20
-38.3959
 30
0.000000
  70
    32
  0
VERTEX
  8
SAPA_FOGBAND
  5
2716
 10
-16.8750
 20
-38.3137
 30
0.000000
  70
    32
  0
VERTEX
  8
SAPA_FOGBAND
  5
2717
 10
-16.9813
 20
-38.2354
 30
0.000000
  70
    32
  0
VERTEX
  8
SAPA_FOGBAND
  5
2718
 10
-17.0924
 20
-38.1615
 30
0.000000
  70
    32
  0
VERTEX
  8
SAPA_FOGBAND
  5
2719
 10
-17.2080
 20
-38.0919
 30
0.000000
  70
    32
  0
VERTEX
  8
SAPA_FOGBAND
  5
271A
 10
-17.3278
 20
-38.0269
 30
0.000000
  70
    32
  0
VERTEX
  8
SAPA_FOGBAND
  5
271B
 10
-17.4515
 20
-37.9666
 30
0.000000
  70
    32
  0
VERTEX
  8
SAPA_FOGBAND
  5
271C
 10
-17.5788
 20
-37.9112
 30
0.000000
  70
    32
  0
VERTEX
  8
SAPA_FOGBAND
  5
271D
 10
-17.7095
 20
-37.8608
 30
0.000000
  70
    32
  0
VERTEX
  8
SAPA_FOGBAND
  5
271E
 10
-17.8431
 20
-37.8156
 30
0.000000
  70
    32
  0
VERTEX
  8
SAPA_FOGBAND
  5
271F
 10
-17.9795
 20
-37.7755
 30
0.000000
  70
    32
  0
VERTEX
  8
SAPA_FOGBAND
  5
2720
 10
-18.1182
 20
-37.7409
 30
0.000000
  70
    32
  0
VERTEX
  8
SAPA_FOGBAND
  5
2721
 10
-18.2589
 20
-37.7116
 30
0.000000
  70
    32
  0
VERTEX
  8
SAPA_FOGBAND
  5
2722
 10
-18.4013
 20
-37.6878
 30
0.000000
  70
    32
  0
VERTEX
  8
SAPA_FOGBAND
  5
2723
 10
-18.5451
 20
-37.6696
 30
0.000000
  70
    32
  0
VERTEX
  8
SAPA_FOGBAND
  5
2724
 10
-18.6898
 20
-37.6570
 30
0.000000
  70
    32
  0
VERTEX
  8
SAPA_FOGBAND
  5
2725
 10
-18.8352
 20
-37.6500
 30
0.000000
  70
    32
  0
VERTEX
  8
SAPA_FOGBAND
  5
2726
 10
-18.9809
 20
-37.6486
 30
0.000000
  70
    32
  0
VERTEX
  8
SAPA_FOGBAND
  5
2727
 10
-19.1265
 20
-37.6529
 30
0.000000
  70
    32
  0
VERTEX
  8
SAPA_FOGBAND
  5
2728
 10
-19.2717
 20
-37.6628
 30
0.000000
  70
    32
  0
VERTEX
  8
SAPA_FOGBAND
  5
2729
 10
-19.4162
 20
-37.6783
 30
0.000000
  70
    32
  0
VERTEX
  8
SAPA_FOGBAND
  5
272A
 10
-19.5595
 20
-37.6994
 30
0.000000
  70
    32
  0
VERTEX
  8
SAPA_FOGBAND
  5
272B
 10
-19.7014
 20
-37.7260
 30
0.000000
  70
    32
  0
VERTEX
  8
SAPA_FOGBAND
  5
272C
 10
-19.8416
 20
-37.7580
 30
0.000000
  70
    32
  0
VERTEX
  8
SAPA_FOGBAND
  5
272D
 10
-19.9795
 20
-37.7955
 30
0.000000
  70
    32
  0
VERTEX
  8
SAPA_FOGBAND
  5
272E
 10
-20.1151
 20
-37.8382
 30
0.000000
  70
    32
  0
VERTEX
  8
SAPA_FOGBAND
  5
272F
 10
-20.2478
 20
-37.8861
 30
0.000000
  70
    32
  0
VERTEX
  8
SAPA_FOGBAND
  5
2730
 10
-20.3774
 20
-37.9391
 30
0.000000
  70
    32
  0
VERTEX
  8
SAPA_FOGBAND
  5
2731
 10
-20.5036
 20
-37.9970
 30
0.000000
  70
    32
  0
VERTEX
  8
SAPA_FOGBAND
  5
2732
 10
-20.6261
 20
-38.0597
 30
0.000000
  70
    32
  0
VERTEX
  8
SAPA_FOGBAND
  5
2733
 10
-20.7446
 20
-38.1271
 30
0.000000
  70
    32
  0
VERTEX
  8
SAPA_FOGBAND
  5
2734
 10
-20.8587
 20
-38.1989
 30
0.000000
  70
    32
  0
VERTEX
  8
SAPA_FOGBAND
  5
2735
 10
-20.9683
 20
-38.2751
 30
0.000000
  70
    32
  0
VERTEX
  8
SAPA_FOGBAND
  5
2736
 10
-21.0730
 20
-38.3554
 30
0.000000
  70
    32
  0
VERTEX
  8
SAPA_FOGBAND
  5
2737
 10
-21.1727
 20
-38.4397
 30
0.000000
  70
    32
  0
VERTEX
  8
SAPA_FOGBAND
  5
2738
 10
-21.2670
 20
-38.5277
 30
0.000000
  70
    32
  0
VERTEX
  8
SAPA_FOGBAND
  5
2739
 10
-21.3557
 20
-38.6192
 30
0.000000
  70
    32
  0
VERTEX
  8
SAPA_FOGBAND
  5
273A
 10
-21.4387
 20
-38.7140
 30
0.000000
  70
    32
  0
VERTEX
  8
SAPA_FOGBAND
  5
273B
 10
-21.5157
 20
-38.8119
 30
0.000000
  70
    32
  0
VERTEX
  8
SAPA_FOGBAND
  5
273C
 10
-21.5865
 20
-38.9126
 30
0.000000
  70
    32
  0
VERTEX
  8
SAPA_FOGBAND
  5
273D
 10
-21.6510
 20
-39.0160
 30
0.000000
  70
    32
  0
VERTEX
  8
SAPA_FOGBAND
  5
273E
 10
-21.7090
 20
-39.1216
 30
0.000000
  70
    32
  0
VERTEX
  8
SAPA_FOGBAND
  5
273F
 10
-21.7603
 20
-39.2294
 30
0.000000
  70
    32
  0
VERTEX
  8
SAPA_FOGBAND
  5
2740
 10
-21.8049
 20
-39.3390
 30
0.000000
  70
    32
  0
VERTEX
  8
SAPA_FOGBAND
  5
2741
 10
-21.8427
 20
-39.4502
 30
0.000000
  70
    32
  0
VERTEX
  8
SAPA_FOGBAND
  5
2742
 10
-21.8735
 20
-39.5627
 30
0.000000
  70
    32
  0
VERTEX
  8
SAPA_FOGBAND
  5
2743
 10
-21.8973
 20
-39.6762
 30
0.000000
  70
    32
  0
VERTEX
  8
SAPA_FOGBAND
  5
2744
 10
-21.9140
 20
-39.7904
 30
0.000000
  70
    32
  0
VERTEX
  8
SAPA_FOGBAND
  5
2745
 10
-21.9236
 20
-39.9052
 30
0.000000
  70
    32
  0
VERTEX
  8
SAPA_FOGBAND
  5
2746
 10
-21.9260
 20
-40.0201
 30
0.000000
  70
    32
  0
SEQEND
  8
SAPA_FOGBAND
  5
2747
  0
POLYLINE
  5
16C1
  8
SAPA_FOGBAND
 62
     2
 66
     1
 10
0.0
 20
0.0
 30
0.0000000195376815
 70
     1
  0
VERTEX
  5
254E
  8
SAPA_FOGBAND
 62
     2
 10
-94.415820339269317
 20
10.873016923030351
 30
0.0000000195376815
  0
VERTEX
  5
254F
  8
SAPA_FOGBAND
 62
     2
 10
-94.515820339269325
 20
10.873016923030351
 30
0.0000000195376815
 42
0.4142135623730959
  0
VERTEX
  5
2550
  8
SAPA_FOGBAND
 62
     2
 10
-95.215820339269314
 20
10.17301692303036
 30
0.0000000195376815
  0
VERTEX
  5
2551
  8
SAPA_FOGBAND
 62
     2
 10
-95.215820339269342
 20
9.0730169230303712
 30
0.0000000195376815
 42
0.4142135623730961
  0
VERTEX
  5
2552
  8
SAPA_FOGBAND
 62
     2
 10
-95.015820339269325
 20
8.8730169230303542
 30
0.0000000195376815
  0
VERTEX
  5
2553
  8
SAPA_FOGBAND
 62
     2
 10
-93.915820339269331
 20
8.8730169230303542
 30
0.0000000195376815
 42
0.4142135623730956
  0
VERTEX
  5
2554
  8
SAPA_FOGBAND
 62
     2
 10
-93.715820339269314
 20
9.0730169230303712
 30
0.0000000195376815
  0
VERTEX
  5
2555
  8
SAPA_FOGBAND
 62
     2
 10
-93.715820339269342
 20
10.17301692303036
 30
0.0000000195376815
 42
0.4142135623730946
  0
SEQEND
  5
2556
  8
SAPA_FOGBAND
 62
     2
  0
POLYLINE
  5
16C2
  8
SAPA_FOGBAND
 62
     2
 66
     1
 10
0.0
 20
0.0
 30
0.0000000195376815
 70
     1
  0
VERTEX
  5
2557
  8
SAPA_FOGBAND
 62
     2
 10
-92.915820339269345
 20
9.5730169230303712
 30
0.0000000195376815
  0
VERTEX
  5
2558
  8
SAPA_FOGBAND
 62
     2
 10
-92.915820339269345
 20
8.9252513577572792
 30
0.0000000195376815
 42
0.4416942457848321
  0
VERTEX
  5
2559
  8
SAPA_FOGBAND
 62
     2
 10
-92.697265979641415
 20
8.7261138782643322
 30
0.0000000195376815
  0
VERTEX
  5
255A
  8
SAPA_FOGBAND
 62
     2
 10
-91.734374698897255
 20
8.8158299435223793
 30
0.0000000195376815
 42
-0.441694245784789
  0
VERTEX
  5
255B
  8
SAPA_FOGBAND
 62
     2
 10
-91.515820339269325
 20
8.6166924640294607
 30
0.0000000195376815
  0
VERTEX
  5
255C
  8
SAPA_FOGBAND
 62
     2
 10
-91.515820339269325
 20
8.0667101244378951
 30
0.0000000195376815
 42
-0.5445962197109614
  0
VERTEX
  5
255D
  8
SAPA_FOGBAND
 62
     2
 10
-92.221499384674402
 20
7.6109732153760552
 30
0.0000000195376815
  0
VERTEX
  5
255E
  8
SAPA_FOGBAND
 62
     2
 10
-92.580550537959667
 20
7.773016923030359
 30
0.0000000195376815
  0
VERTEX
  5
255F
  8
SAPA_FOGBAND
 62
     2
 10
-94.053509776707571
 20
7.7730169230303616
 30
0.0000000195376815
 42
-0.3364379234965429
  0
VERTEX
  5
2560
  8
SAPA_FOGBAND
 62
     2
 10
-95.125253506322409
 20
7.9605237408721097
 30
0.0000000195376815
  0
VERTEX
  5
2561
  8
SAPA_FOGBAND
 62
     2
 10
-95.687117142146107
 20
7.9605237408721097
 30
0.0000000195376815
 42
0.1919812372740509
  0
VERTEX
  5
2562
  8
SAPA_FOGBAND
 62
     2
 10
-96.031104189746145
 20
7.8233913628548404
 30
0.0000000195376815
  0
VERTEX
  5
2563
  8
SAPA_FOGBAND
 62
     2
 10
-96.422971120149555
 20
7.4519138865647578
 30
0.0000000195376815
 42
0.7523758382293955
  0
VERTEX
  5
2564
  8
SAPA_FOGBAND
 62
     2
 10
-92.182541309047053
 20
6.4633427131366501
 30
0.0000000195376815
 42
0.020738253891463
  0
VERTEX
  5
2565
  8
SAPA_FOGBAND
 62
     2
 10
-91.936822091096602
 20
6.9665738422072563
 30
0.0000000195376815
 42
-0.910188045100355
  0
VERTEX
  5
2566
  8
SAPA_FOGBAND
 62
     2
 10
-91.479522524415231
 20
6.6148269951935381
 30
0.0000000195376815
 42
-0.8808478876171385
  0
VERTEX
  5
2567
  8
SAPA_FOGBAND
 62
     2
 10
-96.988788819429075
 20
7.916219401407635
 30
0.0000000195376815
  0
VERTEX
  5
2568
  8
SAPA_FOGBAND
 62
     2
 10
-97.419347957310336
 20
8.0315873746967625
 30
0.0000000195376815
 42
-0.9163311740173993
  0
VERTEX
  5
2569
  8
SAPA_FOGBAND
 62
     2
 10
-97.280958042170255
 20
8.8164355844490991
 30
0.0000000195376815
  0
VERTEX
  5
256A
  8
SAPA_FOGBAND
 62
     2
 10
-96.233251487818876
 20
8.7247731382415505
 30
0.0000000195376815
 42
0.4400105308918154
  0
VERTEX
  5
256B
  8
SAPA_FOGBAND
 62
     2
 10
-96.015820339269325
 20
8.9240120778598904
 30
0.0000000195376815
  0
VERTEX
  5
256C
  8
SAPA_FOGBAND
 62
     2
 10
-96.015820339269325
 20
9.7730169230303598
 30
0.0000000195376815
  0
VERTEX
  5
256D
  8
SAPA_FOGBAND
 62
     2
 10
-96.415820339269331
 20
9.7730169230303598
 30
0.0000000195376815
 42
-0.5693809839207589
  0
VERTEX
  5
256E
  8
SAPA_FOGBAND
 62
     2
 10
-96.591374384832903
 20
10.068833294733031
 30
0.0000000195376815
  0
VERTEX
  5
256F
  8
SAPA_FOGBAND
 62
     2
 10
-95.886408784933835
 20
11.3604660381383
 30
0.0000000195376815
 42
-0.2743878130875473
  0
VERTEX
  5
2570
  8
SAPA_FOGBAND
 62
     2
 10
-95.359746648243103
 20
11.67301692303038
 30
0.0000000195376815
  0
VERTEX
  5
2571
  8
SAPA_FOGBAND
 62
     2
 10
-93.571894030295553
 20
11.67301692303036
 30
0.0000000195376815
 42
-0.2743878130875473
  0
VERTEX
  5
2572
  8
SAPA_FOGBAND
 62
     2
 10
-93.045231893604836
 20
11.36046603813829
 30
0.0000000195376815
  0
VERTEX
  5
2573
  8
SAPA_FOGBAND
 62
     2
 10
-92.340266293705724
 20
10.068833294733031
 30
0.0000000195376815
 42
-0.5693809839208268
  0
VERTEX
  5
2574
  8
SAPA_FOGBAND
 62
     2
 10
-92.515820339269325
 20
9.7730169230303279
 30
0.0000000195376815
  0
VERTEX
  5
2575
  8
SAPA_FOGBAND
 62
     2
 10
-92.915820339269345
 20
9.7730169230303598
 30
0.0000000195376815
  0
VERTEX
  5
2576
  8
SAPA_FOGBAND
 62
     2
 10
-92.915820339269345
 20
8.9240120778598904
 30
0.0000000195376815
  0
SEQEND
  5
2577
  8
SAPA_FOGBAND
 62
     2
  0
POLYLINE
  5
16C3
  8
SAPA_FOGBAND
 66
     1
 10
0.0
 20
0.0
 30
0.0
 70
     1
  0
VERTEX
  5
2578
  8
SAPA_FOGBAND
 10
19.573675668776779
 20
-33.499999999998863
 30
0.0
  0
VERTEX
  5
2579
  8
SAPA_FOGBAND
 10
19.573675668776779
 20
-35.29999999999859
 30
0.0
 42
0.4142135623730951
  0
VERTEX
  5
257A
  8
SAPA_FOGBAND
 10
19.773675668776601
 20
-35.499999999998408
 30
0.0
  0
VERTEX
  5
257B
  8
SAPA_FOGBAND
 10
20.673675668776241
 20
-35.499999999998408
 30
0.0
 42
0.4142135623730951
  0
VERTEX
  5
257C
  8
SAPA_FOGBAND
 10
20.873675668776059
 20
-35.29999999999859
 30
0.0
  0
VERTEX
  5
257D
  8
SAPA_FOGBAND
 10
20.87367566877651
 20
-33.499999999998863
 30
0.0
 42
0.9999999999999998
  0
SEQEND
  5
257E
  8
SAPA_FOGBAND
  0
CIRCLE
  5
16C4
  8
SAPA_FOGBAND
 10
20.223675668776419
 20
-36.79999999999859
 30
0.0
 40
0.2549509756796394
  0
POLYLINE
  5
16C5
  8
SAPA_FOGBAND
 66
     1
 10
0.0
 20
0.0
 30
0.0
 70
     1
  0
VERTEX
  5
257F
  8
SAPA_FOGBAND
 10
16.270085830290778
 20
-35.499999999998408
 30
0.0
 42
-0.267949192431121
  0
VERTEX
  5
2580
  8
SAPA_FOGBAND
 10
16.09688074953306
 20
-35.399999999998961
 30
0.0
 42
0.7673269879789569
  0
VERTEX
  5
2581
  8
SAPA_FOGBAND
 10
15.72367566877687
 20
-35.499999999998408
 30
0.0
  0
VERTEX
  5
2582
  8
SAPA_FOGBAND
 10
15.72367566877687
 20
-44.699999999999129
 30
0.0
 42
0.4602937089574736
  0
VERTEX
  5
2583
  8
SAPA_FOGBAND
 10
15.954497976116951
 20
-44.897610691435823
 30
0.0
  0
VERTEX
  5
2584
  8
SAPA_FOGBAND
 10
18.428386189851381
 20
-44.51174623088923
 30
0.0
 42
-0.6910703998708235
  0
VERTEX
  5
2585
  8
SAPA_FOGBAND
 10
18.613035907186479
 20
-44.83717369718147
 30
0.0
  0
VERTEX
  5
2586
  8
SAPA_FOGBAND
 10
15.836297738753499
 20
-45.008963529986652
 30
0.0
 42
0.928378177954751
  0
VERTEX
  5
2587
  8
SAPA_FOGBAND
 10
16.26687478628741
 20
-45.424442128142118
 30
0.0
  0
VERTEX
  5
2588
  8
SAPA_FOGBAND
 10
19.476099419057618
 20
-45.228542559024163
 30
0.0
 42
-0.6076316918600427
  0
VERTEX
  5
2589
  8
SAPA_FOGBAND
 10
19.725013792520478
 20
-45.32309672969108
 30
0.0
 42
0.38070580105552
  0
VERTEX
  5
258A
  8
SAPA_FOGBAND
 10
19.923675668776241
 20
-45.499999999998401
 30
0.0
  0
VERTEX
  5
258B
  8
SAPA_FOGBAND
 10
20.223675668776419
 20
-45.499999999998401
 30
0.0
  0
VERTEX
  5
258C
  8
SAPA_FOGBAND
 10
20.523675668776612
 20
-45.499999999998401
 30
0.0
 42
0.3807058010555201
  0
VERTEX
  5
258D
  8
SAPA_FOGBAND
 10
20.72233754503236
 20
-45.32309672969108
 30
0.0
 42
-0.6076316918600374
  0
VERTEX
  5
258E
  8
SAPA_FOGBAND
 10
20.971251918495231
 20
-45.228542559024163
 30
0.0
  0
VERTEX
  5
258F
  8
SAPA_FOGBAND
 10
24.205028688483029
 20
-45.421865476482928
 30
0.0
 42
0.9283781779547513
  0
VERTEX
  5
2590
  8
SAPA_FOGBAND
 10
24.6356057360174
 20
-45.006386878327469
 30
0.0
  0
VERTEX
  5
2591
  8
SAPA_FOGBAND
 10
21.834315430366811
 20
-44.83717369718147
 30
0.0
 42
-0.6910703998708235
  0
VERTEX
  5
2592
  8
SAPA_FOGBAND
 10
22.018965147702382
 20
-44.511746230890139
 30
0.0
  0
VERTEX
  5
2593
  8
SAPA_FOGBAND
 10
24.49285336143635
 20
-44.897610691435823
 30
0.0
 42
0.4602937089574736
  0
VERTEX
  5
2594
  8
SAPA_FOGBAND
 10
24.723675668776419
 20
-44.699999999999129
 30
0.0
  0
VERTEX
  5
2595
  8
SAPA_FOGBAND
 10
24.723675668776419
 20
-35.499999999998408
 30
0.0
 42
0.7673269879789572
  0
VERTEX
  5
2596
  8
SAPA_FOGBAND
 10
24.350470588019789
 20
-35.399999999998961
 30
0.0
 42
-0.267949192431121
  0
VERTEX
  5
2597
  8
SAPA_FOGBAND
 10
24.17726550726297
 20
-35.499999999998408
 30
0.0
  0
VERTEX
  5
2598
  8
SAPA_FOGBAND
 10
21.673675668776241
 20
-35.499999999998408
 30
0.0
  0
VERTEX
  5
2599
  8
SAPA_FOGBAND
 10
21.673675668776241
 20
-34.399999999998961
 30
0.0
  0
VERTEX
  5
259A
  8
SAPA_FOGBAND
 10
22.181730915002621
 20
-34.291388579558088
 30
0.0
 42
0.4364998583843341
  0
VERTEX
  5
259B
  8
SAPA_FOGBAND
 10
22.310141004872779
 20
-34.027676570637823
 30
0.0
  0
VERTEX
  5
259C
  8
SAPA_FOGBAND
 10
21.77128221139105
 20
-32.638382853194571
 30
0.0
 42
0.3095538907669666
  0
VERTEX
  5
259D
  8
SAPA_FOGBAND
 10
20.83895553090974
 20
-31.999999999998408
 30
0.0
  0
VERTEX
  5
259E
  8
SAPA_FOGBAND
 10
19.608395806643099
 20
-31.99999999999886
 30
0.0
 42
0.3095538907669666
  0
VERTEX
  5
259F
  8
SAPA_FOGBAND
 10
18.676069126161789
 20
-32.638382853194571
 30
0.0
  0
VERTEX
  5
25A0
  8
SAPA_FOGBAND
 10
18.137210332680521
 20
-34.027676570638278
 30
0.0
 42
0.4364998583843338
  0
VERTEX
  5
25A1
  8
SAPA_FOGBAND
 10
18.265620422550679
 20
-34.291388579558088
 30
0.0
  0
VERTEX
  5
25A2
  8
SAPA_FOGBAND
 10
18.77367566877637
 20
-34.399999999998961
 30
0.0
  0
VERTEX
  5
25A3
  8
SAPA_FOGBAND
 10
18.77367566877637
 20
-35.499999999998408
 30
0.0
  0
SEQEND
  5
25A4
  8
SAPA_FOGBAND
  0
POLYLINE
  5
16C6
  8
SAPA_FOGBAND
 66
     1
 10
0.0
 20
0.0
 30
0.0
 70
     1
  0
VERTEX
  5
25A5
  8
SAPA_FOGBAND
 10
18.723675668776419
 20
-37.999999999998408
 30
0.0
 42
0.3533664767746626
  0
VERTEX
  5
25A6
  8
SAPA_FOGBAND
 10
18.23488157348697
 20
-38.394736842103839
 30
0.0
 42
0.162847186097109
  0
VERTEX
  5
25A7
  8
SAPA_FOGBAND
 10
18.286918832692429
 20
-41.833847743324661
 30
0.0
 42
0.2572150309758587
  0
VERTEX
  5
25A8
  8
SAPA_FOGBAND
 10
18.611937220160371
 20
-42.190466027633867
 30
0.0
 42
0.1655934221057593
  0
VERTEX
  5
25A9
  8
SAPA_FOGBAND
 10
21.835414117393391
 20
-42.190466027633867
 30
0.0
 42
0.2572150309758567
  0
VERTEX
  5
25AA
  8
SAPA_FOGBAND
 10
22.160432504860861
 20
-41.833847743324661
 30
0.0
 42
0.1628471860971115
  0
VERTEX
  5
25AB
  8
SAPA_FOGBAND
 10
22.212469764066331
 20
-38.394736842103839
 30
0.0
 42
0.3533664767746627
  0
VERTEX
  5
25AC
  8
SAPA_FOGBAND
 10
21.723675668776419
 20
-37.999999999998408
 30
0.0
  0
SEQEND
  5
25AD
  8
SAPA_FOGBAND
  0
LINE
  5
16C7
  8
SAPA_FOGBAND
 10
-17.499999999999769
 20
-73.499999999998636
 30
0.0
 11
-17.499999999999769
 21
-72.499999999998636
 31
0.0
  0
CIRCLE
  5
16C8
  8
SAPA_FOGBAND
 10
-7.8999999999996353
 20
-75.057534635653383
 30
0.0
 40
0.25
  0
LINE
  5
16C9
  8
SAPA_FOGBAND
 10
-14.999999999999771
 20
-72.499999999998636
 30
0.0
 11
-14.999999999999771
 21
-73.499999999998636
 31
0.0
  0
LINE
  5
16CA
  8
SAPA_FOGBAND
 10
-9.9999999999997726
 20
-72.499999999998636
 30
0.0
 11
-9.9999999999997726
 21
-73.499999999998636
 31
0.0
  0
LINE
  5
16CB
  8
SAPA_FOGBAND
 10
-9.9999999999997726
 20
-72.999999999998636
 30
0.0
 11
-14.999999999999771
 21
-72.999999999998636
 31
0.0
  0
LINE
  5
16CC
  8
SAPA_FOGBAND
 10
-2.4999999999997722
 20
-72.499999999998636
 30
0.0
 11
-2.4999999999997722
 21
-73.499999999998636
 31
0.0
  0
POLYLINE
  5
16CD
  8
SAPA_FOGBAND
 66
     1
 10
0.0
 20
0.0
 30
0.0
 70
     1
  0
VERTEX
  5
25AE
  8
SAPA_FOGBAND
 10
-8.0500000000006366
 20
-76.557534635653155
 30
0.0
  0
VERTEX
  5
25AF
  8
SAPA_FOGBAND
 10
-8.0500000000001801
 20
-78.357534635653792
 30
0.0
 42
0.9999999999999996
  0
VERTEX
  5
25B0
  8
SAPA_FOGBAND
 10
-6.7500000000006812
 20
-78.357534635653792
 30
0.0
  0
VERTEX
  5
25B1
  8
SAPA_FOGBAND
 10
-6.7500000000006812
 20
-76.557534635653155
 30
0.0
 42
0.4142135623730951
  0
VERTEX
  5
25B2
  8
SAPA_FOGBAND
 10
-6.9500000000004993
 20
-76.357534635653323
 30
0.0
  0
VERTEX
  5
25B3
  8
SAPA_FOGBAND
 10
-7.8499999999996799
 20
-76.357534635653323
 30
0.0
 42
0.4142135623730951
  0
SEQEND
  5
25B4
  8
SAPA_FOGBAND
  0
CIRCLE
  5
16CE
  8
SAPA_FOGBAND
 10
8.0999999999994543
 20
-75.057534635653383
 30
0.0
 40
0.25
  0
POLYLINE
  5
16CF
  8
SAPA_FOGBAND
 66
     1
 10
0.0
 20
0.0
 30
0.0
  0
VERTEX
  5
25B5
  8
SAPA_FOGBAND
 10
7.1500000000003192
 20
-76.357534635653323
 30
0.0
  0
VERTEX
  5
25B6
  8
SAPA_FOGBAND
 10
8.0499999999994998
 20
-76.35753463565311
 30
0.0
 42
-0.4142135623730951
  0
VERTEX
  5
25B7
  8
SAPA_FOGBAND
 10
8.2500000000004547
 20
-76.557534635653155
 30
0.0
  0
VERTEX
  5
25B8
  8
SAPA_FOGBAND
 10
8.25
 20
-78.357534635653792
 30
0.0
 42
-0.9999999999999998
  0
VERTEX
  5
25B9
  8
SAPA_FOGBAND
 10
6.9499999999998181
 20
-78.357534635653792
 30
0.0
  0
VERTEX
  5
25BA
  8
SAPA_FOGBAND
 10
6.9500000000005011
 20
-76.557534635653155
 30
0.0
 42
-0.4142135623730951
  0
VERTEX
  5
25BB
  8
SAPA_FOGBAND
 10
7.1500000000003192
 20
-76.357534635653323
 30
0.0
  0
VERTEX
  5
25BC
  8
SAPA_FOGBAND
 10
7.8999999999996371
 20
-76.357534635653323
 30
0.0
  0
SEQEND
  5
25BD
  8
SAPA_FOGBAND
  0
LINE
  5
16D0
  8
SAPA_FOGBAND
 10
10.000000000000229
 20
-72.499999999998636
 30
0.0
 11
10.000000000000229
 21
-73.499999999998636
 31
0.0
  0
LINE
  5
16D1
  8
SAPA_FOGBAND
 10
2.5000000000002269
 20
-72.499999999998636
 30
0.0
 11
2.5000000000002269
 21
-73.499999999998636
 31
0.0
  0
LINE
  5
16D2
  8
SAPA_FOGBAND
 10
15.000000000000229
 20
-72.499999999998636
 30
0.0
 11
15.000000000000229
 21
-73.499999999998636
 31
0.0
  0
LINE
  5
16D3
  8
SAPA_FOGBAND
 10
17.500000000000231
 20
-72.499999999998636
 30
0.0
 11
17.500000000000231
 21
-73.499999999998636
 31
0.0
  0
LINE
  5
16D4
  8
SAPA_FOGBAND
 10
15.000000000000229
 20
-72.999999999998636
 30
0.0
 11
10.000000000000229
 21
-72.999999999998636
 31
0.0
  0
LINE
  5
16D5
  8
SAPA_FOGBAND
 10
-17.499999999999769
 20
-72.499999999998636
 30
0.0
 11
17.500000000000231
 21
-72.499999999998636
 31
0.0
  0
LINE
  5
16D6
  8
SAPA_FOGBAND
 10
17.500000000000231
 20
-73.499999999998636
 30
0.0
 11
-17.499999999999769
 21
-73.499999999998636
 31
0.0
  0
POLYLINE
  5
16D7
  8
SAPA_FOGBAND
 66
     1
 10
0.0
 20
0.0
 30
0.0
 70
     1
  0
VERTEX
  5
25BE
  8
SAPA_FOGBAND
 10
-21.55178876929358
 20
-72.534485185378571
 30
0.0
 42
0.8497079118398895
  0
VERTEX
  5
25BF
  8
SAPA_FOGBAND
 10
-21.999999999999542
 20
-72.921427446888629
 30
0.0
  0
VERTEX
  5
25C0
  8
SAPA_FOGBAND
 10
-16.458529110705971
 20
-76.404540759853262
 30
0.0
 42
0.2608822022991484
  0
VERTEX
  5
25C1
  8
SAPA_FOGBAND
 10
-16.28802623821116
 20
-76.499999999998408
 30
0.0
  0
VERTEX
  5
25C2
  8
SAPA_FOGBAND
 10
-9.0700000000003911
 20
-76.499999999997954
 30
0.0
 42
-0.4142135623730951
  0
VERTEX
  5
25C3
  8
SAPA_FOGBAND
 10
-9.0499999999997272
 20
-76.519999999997935
 30
0.0
  0
VERTEX
  5
25C4
  8
SAPA_FOGBAND
 10
-9.0499999999997272
 20
-77.499999999998636
 30
0.0
  0
VERTEX
  5
25C5
  8
SAPA_FOGBAND
 10
-9.4080552462264677
 20
-77.608611420439274
 30
0.0
 42
0.4364998583843544
  0
VERTEX
  5
25C6
  8
SAPA_FOGBAND
 10
-9.5364653360968532
 20
-77.872323429359994
 30
0.0
  0
VERTEX
  5
25C7
  8
SAPA_FOGBAND
 10
-8.9976065426151308
 20
-79.261617146802564
 30
0.0
 42
0.3095538907669633
  0
VERTEX
  5
25C8
  8
SAPA_FOGBAND
 10
-8.0652798621338206
 20
-79.899999999998727
 30
0.0
  0
VERTEX
  5
25C9
  8
SAPA_FOGBAND
 10
-6.7347201378663604
 20
-79.899999999998499
 30
0.0
 42
0.309553890766963
  0
VERTEX
  5
25CA
  8
SAPA_FOGBAND
 10
-5.8023934573850502
 20
-79.261617146803246
 30
0.0
  0
VERTEX
  5
25CB
  8
SAPA_FOGBAND
 10
-5.2635346639044638
 20
-77.872323429359312
 30
0.0
 42
0.4364998583843053
  0
VERTEX
  5
25CC
  8
SAPA_FOGBAND
 10
-5.3919447537748502
 20
-77.608611420439274
 30
0.0
  0
VERTEX
  5
25CD
  8
SAPA_FOGBAND
 10
-5.750000000000453
 20
-77.499999999998636
 30
0.0
  0
VERTEX
  5
25CE
  8
SAPA_FOGBAND
 10
-5.750000000000453
 20
-76.549999999998363
 30
0.0
 42
-0.4142135623730953
  0
VERTEX
  5
25CF
  8
SAPA_FOGBAND
 10
-5.7000000000004993
 20
-76.499999999998408
 30
0.0
  0
VERTEX
  5
25D0
  8
SAPA_FOGBAND
 10
5.9000000000003192
 20
-76.499999999998408
 30
0.0
 42
-0.4142135623730951
  0
VERTEX
  5
25D1
  8
SAPA_FOGBAND
 10
5.9500000000002728
 20
-76.549999999998363
 30
0.0
  0
VERTEX
  5
25D2
  8
SAPA_FOGBAND
 10
5.9500000000002728
 20
-77.499999999998636
 30
0.0
  0
VERTEX
  5
25D3
  8
SAPA_FOGBAND
 10
5.59194475377467
 20
-77.608611420439274
 30
0.0
 42
0.4364998583843054
  0
VERTEX
  5
25D4
  8
SAPA_FOGBAND
 10
5.4635346639042837
 20
-77.872323429359994
 30
0.0
  0
VERTEX
  5
25D5
  8
SAPA_FOGBAND
 10
6.0023934573848701
 20
-79.261617146802564
 30
0.0
 42
0.309553890766963
  0
VERTEX
  5
25D6
  8
SAPA_FOGBAND
 10
6.9347201378661802
 20
-79.899999999998727
 30
0.0
  0
VERTEX
  5
25D7
  8
SAPA_FOGBAND
 10
8.2652798621336387
 20
-79.899999999998499
 30
0.0
 42
0.3095538907669633
  0
VERTEX
  5
25D8
  8
SAPA_FOGBAND
 10
9.1976065426149471
 20
-79.261617146803246
 30
0.0
  0
VERTEX
  5
25D9
  8
SAPA_FOGBAND
 10
9.7364653360966713
 20
-77.872323429359312
 30
0.0
 42
0.4364998583843544
  0
VERTEX
  5
25DA
  8
SAPA_FOGBAND
 10
9.6080552462262858
 20
-77.608611420439274
 30
0.0
  0
VERTEX
  5
25DB
  8
SAPA_FOGBAND
 10
9.2499999999995453
 20
-77.499999999998636
 30
0.0
  0
VERTEX
  5
25DC
  8
SAPA_FOGBAND
 10
9.2500000000002274
 20
-76.519999999997935
 30
0.0
 42
-0.4142135623730951
  0
VERTEX
  5
25DD
  8
SAPA_FOGBAND
 10
9.2700000000002092
 20
-76.499999999998408
 30
0.0
  0
VERTEX
  5
25DE
  8
SAPA_FOGBAND
 10
16.488026238210971
 20
-76.499999999998636
 30
0.0
 42
0.2608822022991486
  0
VERTEX
  5
25DF
  8
SAPA_FOGBAND
 10
16.658529110706009
 20
-76.404540759852807
 30
0.0
  0
VERTEX
  5
25E0
  8
SAPA_FOGBAND
 10
22.000000000000341
 20
-72.922817216677231
 30
0.0
 42
0.8497079118398893
  0
VERTEX
  5
25E1
  8
SAPA_FOGBAND
 10
21.551788769294038
 20
-72.535874955167174
 30
0.0
  0
VERTEX
  5
25E2
  8
SAPA_FOGBAND
 10
15.37410018933701
 20
-74.012665285346202
 30
0.0
  0
VERTEX
  5
25E3
  8
SAPA_FOGBAND
 10
12.879098228429481
 20
-73.999999999998408
 30
0.0
  0
VERTEX
  5
25E4
  8
SAPA_FOGBAND
 10
13.17089734300043
 20
-73.848341139642571
 30
0.0
 42
0.767326987978962
  0
VERTEX
  5
25E5
  8
SAPA_FOGBAND
 10
12.69612145185169
 20
-73.515967214874763
 30
0.0
  0
VERTEX
  5
25E6
  8
SAPA_FOGBAND
 10
11.100000000000129
 20
-73.999999999998408
 30
0.0
  0
VERTEX
  5
25E7
  8
SAPA_FOGBAND
 10
8.7000000000000455
 20
-73.999999999998408
 30
0.0
  0
VERTEX
  5
25E8
  8
SAPA_FOGBAND
 10
7.1038785481478053
 20
-73.515967214875204
 30
0.0
 42
0.7673269879789616
  0
VERTEX
  5
25E9
  8
SAPA_FOGBAND
 10
6.6291026569990672
 20
-73.848341139642343
 30
0.0
  0
VERTEX
  5
25EA
  8
SAPA_FOGBAND
 10
6.9209017715706977
 20
-73.999999999998408
 30
0.0
  0
VERTEX
  5
25EB
  8
SAPA_FOGBAND
 10
3.428672416805512
 20
-73.999999999998408
 30
0.0
 42
-0.2679491924311367
  0
VERTEX
  5
25EC
  8
SAPA_FOGBAND
 10
3.2554673360486959
 20
-73.899999999998727
 30
0.0
  0
VERTEX
  5
25ED
  8
SAPA_FOGBAND
 10
2.5148915583497451
 20
-72.617285126167189
 30
0.0
 42
0.5773502691896298
  0
VERTEX
  5
25EE
  8
SAPA_FOGBAND
 10
2.168481396835432
 20
-72.617285126168099
 30
0.0
  0
VERTEX
  5
25EF
  8
SAPA_FOGBAND
 10
0.273205080756043
 20
-75.899999999998954
 30
0.0
  0
VERTEX
  5
25F0
  8
SAPA_FOGBAND
 10
0.1866025403785446
 20
-76.049999999998818
 30
0.0
 42
-0.5773502691896253
  0
VERTEX
  5
25F1
  8
SAPA_FOGBAND
 10
0.0133974596215015
 20
-76.049999999998818
 30
0.0
  0
VERTEX
  5
25F2
  8
SAPA_FOGBAND
 10
-0.0732050807573611
 20
-75.899999999998954
 30
0.0
  0
VERTEX
  5
25F3
  8
SAPA_FOGBAND
 10
-1.968481396835386
 20
-72.617285126167189
 30
0.0
 42
0.5773502691896298
  0
VERTEX
  5
25F4
  8
SAPA_FOGBAND
 10
-2.3148915583496992
 20
-72.617285126168099
 30
0.0
  0
VERTEX
  5
25F5
  8
SAPA_FOGBAND
 10
-3.055467336049559
 20
-73.899999999998499
 30
0.0
 42
-0.2679491924311367
  0
VERTEX
  5
25F6
  8
SAPA_FOGBAND
 10
-3.2286724168056931
 20
-73.999999999998636
 30
0.0
  0
VERTEX
  5
25F7
  8
SAPA_FOGBAND
 10
-6.7209017715708779
 20
-73.999999999998408
 30
0.0
  0
VERTEX
  5
25F8
  8
SAPA_FOGBAND
 10
-6.4291026570003842
 20
-73.848341139642343
 30
0.0
 42
0.7673269879789616
  0
VERTEX
  5
25F9
  8
SAPA_FOGBAND
 10
-6.9038785481479854
 20
-73.515967214874536
 30
0.0
  0
VERTEX
  5
25FA
  8
SAPA_FOGBAND
 10
-8.5000000000002274
 20
-73.999999999998408
 30
0.0
  0
VERTEX
  5
25FB
  8
SAPA_FOGBAND
 10
-10.90000000000032
 20
-73.999999999998408
 30
0.0
  0
VERTEX
  5
25FC
  8
SAPA_FOGBAND
 10
-12.496121451852559
 20
-73.515967214874763
 30
0.0
 42
0.767326987978962
  0
VERTEX
  5
25FD
  8
SAPA_FOGBAND
 10
-12.970897343000161
 20
-73.848341139641875
 30
0.0
  0
VERTEX
  5
25FE
  8
SAPA_FOGBAND
 10
-12.679098228429661
 20
-73.999999999998408
 30
0.0
  0
VERTEX
  5
25FF
  8
SAPA_FOGBAND
 10
-15.47544619588029
 20
-73.991785768350155
 30
0.0
  0
SEQEND
  5
2600
  8
SAPA_FOGBAND
  0
LINE
  5
16D8
  8
SAPA_FOGBAND
 10
2.5000000000002269
 20
-72.999999999998636
 30
0.0
 11
-2.4999999999997722
 21
-72.999999999998636
 31
0.0
  0
POLYLINE
  5
16D9
  8
SAPA_FOGBAND
 66
     1
 10
0.0
 20
0.0
 30
0.0
 70
     1
  0
VERTEX
  5
2601
  8
SAPA_FOGBAND
 10
-28.500000000685759
 20
13.06077394688643
 30
0.0
  0
VERTEX
  5
2602
  8
SAPA_FOGBAND
 10
-28.500000000685759
 20
10.227454982466689
 30
0.0
 42
0.577350269189628
  0
VERTEX
  5
2603
  8
SAPA_FOGBAND
 10
-28.050000000685721
 20
9.9676473613312453
 30
0.0
  0
VERTEX
  5
2604
  8
SAPA_FOGBAND
 10
-25.393650503841741
 20
12.10936157181626
 30
0.0
 42
-0.8769764629927237
  0
VERTEX
  5
2605
  8
SAPA_FOGBAND
 10
-25.031518469485832
 20
11.637421916324991
 30
0.0
  0
VERTEX
  5
2606
  8
SAPA_FOGBAND
 10
-28.207106781872199
 20
7.6676084073469317
 30
0.0
 42
0.1989123673796493
  0
VERTEX
  5
2607
  8
SAPA_FOGBAND
 10
-28.500000000685759
 20
6.9605016261604931
 30
0.0
  0
VERTEX
  5
2608
  8
SAPA_FOGBAND
 10
-28.500000000685759
 20
5.2095454967260082
 30
0.0
 42
0.577350269189628
  0
VERTEX
  5
2609
  8
SAPA_FOGBAND
 10
-28.050000000685721
 20
4.9497378755907837
 30
0.0
  0
VERTEX
  5
260A
  8
SAPA_FOGBAND
 10
-25.394519257022129
 20
7.0307859270708093
 30
0.0
 42
-0.8769764629928424
  0
VERTEX
  5
260B
  8
SAPA_FOGBAND
 10
-25.03238722266622
 20
6.5588462715795401
 30
0.0
  0
VERTEX
  5
260C
  8
SAPA_FOGBAND
 10
-29.282961429186109
 20
2.0928932198032442
 30
0.0
 42
-0.1989123673796579
  0
VERTEX
  5
260D
  8
SAPA_FOGBAND
 10
-29.990068210372549
 20
1.8000000009899111
 30
0.0
  0
VERTEX
  5
260E
  8
SAPA_FOGBAND
 10
-30.000000000685759
 20
1.8000000009899111
 30
0.0
 42
-0.4142135623730951
  0
VERTEX
  5
260F
  8
SAPA_FOGBAND
 10
-31.000000000685759
 20
2.8000000009899111
 30
0.0
  0
VERTEX
  5
2610
  8
SAPA_FOGBAND
 10
-32.164084599809257
 20
10.034992501757159
 30
0.0
 42
-0.6261632875160376
  0
VERTEX
  5
2611
  8
SAPA_FOGBAND
 10
-31.722117796382921
 20
10.34484943027584
 30
0.0
  0
VERTEX
  5
2612
  8
SAPA_FOGBAND
 10
-31.445776150396799
 20
10.19121143548702
 30
0.0
 42
0.5719685712689121
  0
VERTEX
  5
2613
  8
SAPA_FOGBAND
 10
-31.000000000685869
 20
10.453412339710409
 30
0.0
  0
VERTEX
  5
2614
  8
SAPA_FOGBAND
 10
-31.000000000685759
 20
13.200000000989769
 30
0.0
 42
0.4142135623730118
  0
VERTEX
  5
2615
  8
SAPA_FOGBAND
 10
-31.300000000685721
 20
13.50000000098996
 30
0.0
  0
VERTEX
  5
2616
  8
SAPA_FOGBAND
 10
-32.700000000685812
 20
13.500000000989729
 30
0.0
 42
-0.7754026414785753
  0
VERTEX
  5
2617
  8
SAPA_FOGBAND
 10
-32.844707868991691
 20
14.06279199639763
 30
0.0
  0
VERTEX
  5
2618
  8
SAPA_FOGBAND
 10
-25.384550969900719
 20
18.216425669061518
 30
0.0
 42
-0.8680589103333867
  0
VERTEX
  5
2619
  8
SAPA_FOGBAND
 10
-25.027711067238791
 20
17.741501639297748
 30
0.0
  0
VERTEX
  5
261A
  8
SAPA_FOGBAND
 10
-28.207106781872199
 20
13.767880728072861
 30
0.0
 42
0.1989123673796493
  0
SEQEND
  5
261B
  8
SAPA_FOGBAND
  0
DIMENSION
  5
16E5
  8
SAPA_MATT
  2
*D108
 10
-169.99999999978931
 20
-106.8138500465783
 30
0.0
 11
-125.49999999989519
 21
-104.3138500465783
 31
0.0
 70
     0
 13
-81.000000000000995
 23
-69.349948021764106
 33
0.0
 14
-169.99999999978931
 24
-71.699947648272314
 34
0.0
 50
180.0
1001
ACAD
1000
DSTYLE
1002
{
1070
   287
1070
     4
1070
    40
1040
1.0
1070
   279
1070
     1
1002
}
  0
DIMENSION
  5
16E6
  8
SAPA_MATT
  2
*D107
 10
-81.000000000000995
 20
-106.8138500465783
 30
0.0
 11
-78.500000000001108
 21
-104.3138500465783
 31
0.0
 70
     0
 13
-76.000000000001194
 23
-64.499946820781531
 33
0.0
 14
-81.000000000000995
 24
-69.349948021764106
 34
0.0
 50
180.0
1001
ACAD
1000
DSTYLE
1002
{
1070
   287
1070
     4
1070
    40
1040
1.0
1070
   279
1070
     1
1002
}
  0
DIMENSION
  5
16E7
  8
SAPA_MATT
  2
*D109
 10
-76.000000000001194
 20
-106.8138500465783
 30
0.0
 11
-46.000000000000682
 21
-104.3138500465783
 31
0.0
 70
     0
 13
-16.000000000000171
 23
-77.04644660940528
 33
0.0
 14
-76.000000000001194
 24
-64.499946820781531
 34
0.0
 50
180.0
1001
ACAD
1000
DSTYLE
1002
{
1070
   287
1070
     4
1070
    40
1040
1.0
1070
   279
1070
     1
1002
}
  0
DIMENSION
  5
16EA
  8
SAPA_MATT
  2
*D106
 10
-25.0
 20
84.499999999999488
 30
0.0
 11
0.0000000000000002
 21
86.999999999999488
 31
0.0
 70
     0
 13
25.0
 23
63.999999999999481
 33
0.0
 14
-25.0
 24
63.999999999999481
 34
0.0
 50
180.0
1001
ACAD
1000
DSTYLE
1002
{
1070
    40
1040
1.0
1002
}
  0
DIMENSION
  5
16EB
  8
SAPA_MATT
  2
*D105
 10
-16.000000000000171
 20
-106.8138500465783
 30
0.0
 11
-0.0000000000000602
 21
-104.3138500465783
 31
0.0
 70
     0
 13
16.00000000000006
 23
-77.292893218811628
 33
0.0
 14
-16.000000000000171
 24
-77.04644660940528
 34
0.0
 50
180.0
1001
ACAD
1000
DSTYLE
1002
{
1070
    40
1040
1.0
1002
}
  0
VIEWPORT
  5
C4
 67
     1
  8
0
 10
143.06236603067589
 20
116.00969601843509
 30
0.0
 40
369.98580003443811
 41
256.8421457311839
 68
     1
 69
     1
1001
ACAD
1000
MVIEW
1002
{
1070
    16
1010
0.0
1020
0.0
1030
0.0
1010
0.0
1020
0.0
1030
1.0
1040
0.0
1040
256.8421457311839
1040
99.112914085388169
1040
143.07606935501099
1040
50.0
1040
0.0
1040
0.0
1070
     0
1070
     0
1070
     1
1070
     1
1070
     0
1070
     0
1070
     0
1070
     0
1040
0.0
1040
0.0
1040
0.0
1040
10.0
1040
10.0
1040
10.0
1040
10.0
1070
     0
1002
{
1002
}
1002
}
  0
ENDSEC
  0
EOF
