  0
SECTION
  2
HEADER
  9
$ACADVER
  1
AC1009
  9
$INSBASE
 10
0.0
 20
0.0
 30
0.0
  9
$EXTMIN
 10
-40.999999999999773
 20
-108.3138500465783
 30
0.0
  9
$EXTMAX
 10
210.17988547077911
 20
89.499999999999488
 30
0.1
  9
$LIMMIN
 10
0.0
 20
0.0
  9
$LIMMAX
 10
790.0
 20
790.0
  9
$ORTHOMODE
 70
     0
  9
$REGENMODE
 70
     1
  9
$FILLMODE
 70
     1
  9
$QTEXTMODE
 70
     0
  9
$MIRRTEXT
 70
     1
  9
$DRAGMODE
 70
     2
  9
$LTSCALE
 40
4.0
  9
$OSMODE
 70
   167
  9
$ATTMODE
 70
     1
  9
$TEXTSIZE
 40
3.5
  9
$TRACEWID
 40
0.05
  9
$TEXTSTYLE
  7
ISO
  9
$CLAYER
  8
0
  9
$CELTYPE
  6
BYLAYER
  9
$CECOLOR
 62
   256
  9
$DIMSCALE
 40
0.0
  9
$DIMASZ
 40
3.0
  9
$DIMEXO
 40
1.5
  9
$DIMDLI
 40
10.0
  9
$DIMRND
 40
0.0
  9
$DIMDLE
 40
0.0
  9
$DIMEXE
 40
1.5
  9
$DIMTP
 40
0.0
  9
$DIMTM
 40
0.0
  9
$DIMTXT
 40
3.0
  9
$DIMCEN
 40
-5.0
  9
$DIMTSZ
 40
0.0
  9
$DIMTOL
 70
     0
  9
$DIMLIM
 70
     0
  9
$DIMTIH
 70
     0
  9
$DIMTOH
 70
     0
  9
$DIMSE1
 70
     0
  9
$DIMSE2
 70
     0
  9
$DIMTAD
 70
     1
  9
$DIMZIN
 70
     8
  9
$DIMBLK
  1

  9
$DIMASO
 70
     1
  9
$DIMSHO
 70
     1
  9
$DIMPOST
  1

  9
$DIMAPOST
  1

  9
$DIMALT
 70
     0
  9
$DIMALTD
 70
     0
  9
$DIMALTF
 40
25.399999999999999
  9
$DIMLFAC
 40
-1.0
  9
$DIMTOFL
 70
     1
  9
$DIMTVP
 40
0.0
  9
$DIMTIX
 70
     0
  9
$DIMSOXD
 70
     0
  9
$DIMSAH
 70
     0
  9
$DIMBLK1
  1

  9
$DIMBLK2
  1

  9
$DIMSTYLE
  2
MASKIN
  9
$DIMCLRD
 70
   256
  9
$DIMCLRE
 70
   256
  9
$DIMCLRT
 70
     2
  9
$DIMTFAC
 40
1.0
  9
$DIMGAP
 40
1.0
  9
$LUNITS
 70
     2
  9
$LUPREC
 70
     8
  9
$SKETCHINC
 40
0.1
  9
$FILLETRAD
 40
0.0
  9
$AUNITS
 70
     0
  9
$AUPREC
 70
     8
  9
$MENU
  1
ACAD
  9
$ELEVATION
 40
0.0
  9
$PELEVATION
 40
0.0
  9
$THICKNESS
 40
0.0
  9
$LIMCHECK
 70
     0
  9
$BLIPMODE
 70
     0
  9
$CHAMFERA
 40
0.0
  9
$CHAMFERB
 40
0.0
  9
$SKPOLY
 70
     0
  9
$TDCREATE
 40
2454901.5781186
  9
$TDUPDATE
 40
2458458.3392289351
  9
$TDINDWG
 40
0.067285544
  9
$TDUSRTIMER
 40
0.067285544
  9
$USRTIMER
 70
     1
  9
$ANGBASE
 50
0.0
  9
$ANGDIR
 70
     0
  9
$PDMODE
 70
     0
  9
$PDSIZE
 40
0.0
  9
$PLINEWID
 40
0.0
  9
$COORDS
 70
     1
  9
$SPLFRAME
 70
     0
  9
$SPLINETYPE
 70
     6
  9
$SPLINESEGS
 70
     8
  9
$ATTDIA
 70
     1
  9
$ATTREQ
 70
     1
  9
$HANDLING
 70
     1
  9
$HANDSEED
  5
2820
  9
$SURFTAB1
 70
     6
  9
$SURFTAB2
 70
     6
  9
$SURFTYPE
 70
     6
  9
$SURFU
 70
     6
  9
$SURFV
 70
     6
  9
$UCSNAME
  2

  9
$UCSORG
 10
0.0
 20
0.0
 30
0.0
  9
$UCSXDIR
 10
1.0
 20
0.0
 30
0.0
  9
$UCSYDIR
 10
0.0
 20
1.0
 30
0.0
  9
$PUCSNAME
  2

  9
$PUCSORG
 10
0.0
 20
0.0
 30
0.0
  9
$PUCSXDIR
 10
1.0
 20
0.0
 30
0.0
  9
$PUCSYDIR
 10
0.0
 20
1.0
 30
0.0
  9
$USERI1
 70
     0
  9
$USERI2
 70
     0
  9
$USERI3
 70
     0
  9
$USERI4
 70
     0
  9
$USERI5
 70
     0
  9
$USERR1
 40
0.0
  9
$USERR2
 40
0.0
  9
$USERR3
 40
0.0
  9
$USERR4
 40
0.0
  9
$USERR5
 40
0.0
  9
$WORLDVIEW
 70
     1
  9
$SHADEDGE
 70
     3
  9
$SHADEDIF
 70
    70
  9
$TILEMODE
 70
     1
  9
$MAXACTVP
 70
    16
  9
$PLIMCHECK
 70
     0
  9
$PEXTMIN
 10
1.0000000000000000E+020
 20
1.0000000000000000E+020
 30
1.0000000000000000E+020
  9
$PEXTMAX
 10
-1.0000000000000000E+020
 20
-1.0000000000000000E+020
 30
-1.0000000000000000E+020
  9
$PLIMMIN
 10
-5.069427490234375
 20
-5.8737497329711914
  9
$PLIMMAX
 10
291.89889526367187
 20
204.0995779037475
  9
$UNITMODE
 70
     0
  9
$VISRETAIN
 70
     1
  9
$PLINEGEN
 70
     0
  9
$PSLTSCALE
 70
     1
  0
ENDSEC
  0
SECTION
  2
TABLES
  0
TABLE
  2
VPORT
 70
     1
  0
VPORT
  2
*ACTIVE
 70
     0
 10
0.0
 20
0.0
 11
1.0
 21
1.0
 12
135.59354075257249
 22
112.0494641826089
 13
0.0
 23
0.0
 14
1.0
 24
1.0
 15
0.0
 25
0.0
 16
0.0
 26
0.0
 36
1.0
 17
0.0
 27
0.0
 37
0.0
 40
326.46659181172367
 41
1.7265193370165739
 42
50.0
 43
0.0
 44
0.0
 50
0.0
 51
0.0
 71
     0
 72
   100
 73
     1
 74
     1
 75
     0
 76
     0
 77
     0
 78
     0
  0
ENDTAB
  0
TABLE
  2
LTYPE
 70
    42
  0
LTYPE
  2
CONTINUOUS
 70
     0
  3
Solid line
 72
    65
 73
     0
 40
0.0
  0
LTYPE
  2
BYGG-01472602$0$NEWDOT
 70
     0
  3
____ . ____ . ____ . ____ . ____ . ____ . ____
 72
    65
 73
     4
 40
2.0
 49
1.0
 49
-0.5
 49
0.0
 49
-0.5
  0
LTYPE
  2
BYGG-020273$0$DASHDOT
 70
     0
  3
__ . __ . __ . __ . __ . __ . __ . __ . __ . __
 72
    65
 73
     4
 40
1.0
 49
0.5
 49
-0.25
 49
0.0
 49
-0.25
  0
LTYPE
  2
BYGG-01472602$0$ZIGZAG
 70
     0
  3
Zig zag /\/\/\/\/\/\/\/\/\/\/\/\/\/\/\/\/\/\/\/\/\/\/\/
 72
    65
 73
     4
 40
20.32254
 49
0.00254
 49
-5.0800000000000001
 49
-10.16
 49
-5.0800000000000001
  0
LTYPE
  2
BYGG-025060$0$NEWDOT
 70
     0
  3
____ . ____ . ____ . ____ . ____ . ____ . ____
 72
    65
 73
     4
 40
2.0
 49
1.0
 49
-0.5
 49
0.0
 49
-0.5
  0
LTYPE
  2
BYGG-012216$0$DASHDOT
 70
     0
  3
__ . __ . __ . __ . __ . __ . __ . __ . __ . __
 72
    65
 73
     4
 40
1.0
 49
0.5
 49
-0.25
 49
0.0
 49
-0.25
  0
LTYPE
  2
BYGG-024800$0$NEWDOT
 70
     0
  3
____ . ____ . ____ . ____ . ____ . ____ . ____
 72
    65
 73
     4
 40
2.0
 49
1.0
 49
-0.5
 49
0.0
 49
-0.5
  0
LTYPE
  2
BYGG-024807$0$NEWDOT
 70
     0
  3
____ . ____ . ____ . ____ . ____ . ____ . ____
 72
    65
 73
     4
 40
2.0
 49
1.0
 49
-0.5
 49
0.0
 49
-0.5
  0
LTYPE
  2
BYGG-024807$0$DASHDOT
 70
     0
  3
__ . __ . __ . __ . __ . __ . __ . __ . __ . __
 72
    65
 73
     4
 40
1.0
 49
0.5
 49
-0.25
 49
0.0
 49
-0.25
  0
LTYPE
  2
BYGG-033168$0$NEWDOT
 70
     0
  3
____ . ____ . ____ . ____ . ____ . ____ . ____
 72
    65
 73
     4
 40
2.0
 49
1.0
 49
-0.5
 49
0.0
 49
-0.5
  0
LTYPE
  2
BYGG-033168$0$DASHDOT
 70
     0
  3
__ . __ . __ . __ . __ . __ . __ . __ . __ . __
 72
    65
 73
     4
 40
1.0
 49
0.5
 49
-0.25
 49
0.0
 49
-0.25
  0
LTYPE
  2
BYGG-033168$0$DASHED
 70
     0
  3
__ __ __ __ __ __ __ __ __ __ __ __ __ __ __
 72
    65
 73
     2
 40
0.75
 49
0.5
 49
-0.25
  0
LTYPE
  2
BYGG-033168$0$PHANTOM
 70
     0
  3
Phantom ______  __  __  ______  __  __  ______
 72
    65
 73
     6
 40
63.5
 49
31.75
 49
-6.3499999999999988
 49
6.3499999999999988
 49
-6.3499999999999988
 49
6.3499999999999988
 49
-6.3499999999999988
  0
LTYPE
  2
BYGG-027036$0$NEWDOT
 70
     0
  3
____ . ____ . ____ . ____ . ____ . ____ . ____
 72
    65
 73
     4
 40
2.0
 49
1.0
 49
-0.5
 49
0.0
 49
-0.5
  0
LTYPE
  2
BYGG-027036$0$DASHDOT
 70
     0
  3
__ . __ . __ . __ . __ . __ . __ . __ . __ . __
 72
    65
 73
     4
 40
1.0
 49
0.5
 49
-0.25
 49
0.0
 49
-0.25
  0
LTYPE
  2
BYGG-027036$0$DASHED
 70
     0
  3
__ __ __ __ __ __ __ __ __ __ __ __ __ __ __
 72
    65
 73
     2
 40
0.75
 49
0.5
 49
-0.25
  0
LTYPE
  2
BYGG-027036$0$PHANTOM
 70
     0
  3
Phantom ______  __  __  ______  __  __  ______
 72
    65
 73
     6
 40
63.5
 49
31.75
 49
-6.3499999999999988
 49
6.3499999999999988
 49
-6.3499999999999988
 49
6.3499999999999988
 49
-6.3499999999999988
  0
LTYPE
  2
BYGG-027036$0$HIDDEN
 70
     0
  3
_ _ _ _ _ _ _ _ _ _ _ _ _ _ _ _ _ _ _ _ _ _ _
 72
    65
 73
     2
 40
0.375
 49
0.25
 49
-0.125
  0
LTYPE
  2
BYGG-027036$0$DOT
 70
     0
  3
...............................................
 72
    65
 73
     2
 40
0.25
 49
0.0
 49
-0.25
  0
LTYPE
  2
BYGG-027036$0$CENTER
 70
     0
  3
____ _ ____ _ ____ _ ____ _ ____ _ ____ _ ____
 72
    65
 73
     4
 40
0.6
 49
0.375
 49
-0.075
 49
0.075
 49
-0.075
  0
LTYPE
  2
BYGG-033291$0$NEWDOT
 70
     0
  3
____ . ____ . ____ . ____ . ____ . ____ . ____
 72
    65
 73
     4
 40
2.0
 49
1.0
 49
-0.5
 49
0.0
 49
-0.5
  0
LTYPE
  2
BYGG-033291$0$DASHDOT
 70
     0
  3
__ . __ . __ . __ . __ . __ . __ . __ . __ . __
 72
    65
 73
     4
 40
1.0
 49
0.5
 49
-0.25
 49
0.0
 49
-0.25
  0
LTYPE
  2
BYGG-033291$0$DASHED
 70
     0
  3
__ __ __ __ __ __ __ __ __ __ __ __ __ __ __
 72
    65
 73
     2
 40
0.75
 49
0.5
 49
-0.25
  0
LTYPE
  2
BYGG-033291$0$PHANTOM
 70
     0
  3
Phantom ______  __  __  ______  __  __  ______
 72
    65
 73
     6
 40
63.5
 49
31.75
 49
-6.3499999999999988
 49
6.3499999999999988
 49
-6.3499999999999988
 49
6.3499999999999988
 49
-6.3499999999999988
  0
LTYPE
  2
BYGG-029021$0$NEWDOT
 70
     0
  3
____ . ____ . ____ . ____ . ____ . ____ . ____
 72
    65
 73
     4
 40
2.0
 49
1.0
 49
-0.5
 49
0.0
 49
-0.5
  0
LTYPE
  2
BYGG-029021$0$DASHDOT
 70
     0
  3
__ . __ . __ . __ . __ . __ . __ . __ . __ . __
 72
    65
 73
     4
 40
1.0
 49
0.5
 49
-0.25
 49
0.0
 49
-0.25
  0
LTYPE
  2
BYGG-029021$0$DASHED
 70
     0
  3
__ __ __ __ __ __ __ __ __ __ __ __ __ __ __
 72
    65
 73
     2
 40
0.75
 49
0.5
 49
-0.25
  0
LTYPE
  2
BYGG-029021$0$PHANTOM
 70
     0
  3
Phantom ______  __  __  ______  __  __  ______
 72
    65
 73
     6
 40
63.5
 49
31.75
 49
-6.3499999999999988
 49
6.3499999999999988
 49
-6.3499999999999988
 49
6.3499999999999988
 49
-6.3499999999999988
  0
LTYPE
  2
BYGG-029021$0$DASHED2
 70
     0
  3
_ _ _ _ _ _ _ _ _ _ _ _ _ _ _ _ _ _ _ _ _ _ _ _ _ _ _ _ _ _ _
 72
    65
 73
     2
 40
0.375
 49
0.25
 49
-0.125
  0
LTYPE
  2
BYGG-01409101$0$DASHDOT
 70
     0
  3
__ . __ . __ . __ . __ . __ . __ . __ . __ . __
 72
    65
 73
     4
 40
1.0
 49
0.5
 49
-0.25
 49
0.0
 49
-0.25
  0
LTYPE
  2
BYGG-01409101$0$HIDDEN
 70
     0
  3
_ _ _ _ _ _ _ _ _ _ _ _ _ _ _ _ _ _ _ _ _ _ _
 72
    65
 73
     2
 40
0.375
 49
0.25
 49
-0.125
  0
LTYPE
  2
BYGG-030601$0$NEWDOT
 70
     0
  3
____ . ____ . ____ . ____ . ____ . ____ . ____
 72
    65
 73
     4
 40
2.0
 49
1.0
 49
-0.5
 49
0.0
 49
-0.5
  0
LTYPE
  2
BYGG-030601$0$ZIGZAG
 70
     0
  3
Zig zag /\/\/\/\/\/\/\/\/\/\/\/\/\/\/\/\/\/\/\/\/\/\/\/
 72
    65
 73
     4
 40
20.32254
 49
0.00254
 49
-5.0800000000000001
 49
-10.16
 49
-5.0800000000000001
  0
LTYPE
  2
BYGG-025060$0$DASHDOT
 70
     0
  3
__ . __ . __ . __ . __ . __ . __ . __ . __ . __
 72
    65
 73
     4
 40
1.0
 49
0.5
 49
-0.25
 49
0.0
 49
-0.25
  0
LTYPE
  2
BYGG-027036$0$ALF
 70
     0
  3
*alf,- - - - - - - - - - - - -
 72
    65
 73
     2
 40
0.3
 49
0.1
 49
-0.2
  0
LTYPE
  2
BYGG-027036$0$CENTRE2
 70
     0
  3
___ _ ___ _ ___ _ ___ _ ___ _ ___ _ ___ _ ___ _
 72
    65
 73
     4
 40
28.574999999999999
 49
19.050000000000001
 49
-3.1749999999999989
 49
3.1749999999999989
 49
-3.1749999999999989
  0
LTYPE
  2
BYGG-029021$0$PHANTOM2
 70
     0
  3
Phantom (.5x) ___ _ _ ___ _ _ ___ _ _ ___ _ _
 72
    65
 73
     6
 40
1.25
 49
0.625
 49
-0.125
 49
0.125
 49
-0.125
 49
0.125
 49
-0.125
  0
LTYPE
  2
BYGG-024800$0$DASHDOT
 70
     0
  3
__ . __ . __ . __ . __ . __ . __ . __ . __ . __
 72
    65
 73
     4
 40
1.0
 49
0.5
 49
-0.25
 49
0.0
 49
-0.25
  0
LTYPE
  2
BYGG-01409101$0$PHANTOM2
 70
     0
  3
Phantom (.5x) ___ _ _ ___ _ _ ___ _ _ ___ _ _
 72
    65
 73
     6
 40
1.25
 49
0.625
 49
-0.125
 49
0.125
 49
-0.125
 49
0.125
 49
-0.125
  0
LTYPE
  2
BYGG-030601$0$PHANTOM2
 70
     0
  3
Phantom (.5x) ___ _ _ ___ _ _ ___ _ _ ___ _ _
 72
    65
 73
     6
 40
1.25
 49
0.625
 49
-0.125
 49
0.125
 49
-0.125
 49
0.125
 49
-0.125
  0
LTYPE
  2
BYGG-014090$0$PHANTOM2
 70
     0
  3
Phantom (.5x) ___ _ _ ___ _ _ ___ _ _ ___ _ _
 72
    65
 73
     6
 40
1.25
 49
0.625
 49
-0.125
 49
0.125
 49
-0.125
 49
0.125
 49
-0.125
  0
LTYPE
  2
BYGG-01409301$0$PHANTOM2
 70
     0
  3
Phantom (.5x) ___ _ _ ___ _ _ ___ _ _ ___ _ _
 72
    65
 73
     6
 40
1.25
 49
0.625
 49
-0.125
 49
0.125
 49
-0.125
 49
0.125
 49
-0.125
  0
ENDTAB
  0
TABLE
  2
LAYER
 70
   220
  0
LAYER
  2
0
 70
     0
 62
     7
  6
CONTINUOUS
  0
LAYER
  2
DEFPOINTS
 70
     0
 62
     7
  6
CONTINUOUS
  0
LAYER
  2
SAPA_LIGHT
 70
     1
 62
     1
  6
CONTINUOUS
  0
LAYER
  2
SAPA_ARTIKELNR
 70
     0
 62
     4
  6
CONTINUOUS
  0
LAYER
  2
BYGG-027036$0$DIM
 70
     4
 62
     5
  6
CONTINUOUS
  0
LAYER
  2
BYGG-027036$0$KON
 70
     4
 62
     7
  6
CONTINUOUS
  0
LAYER
  2
SAPA_ISOLATOR
 70
     0
 62
     4
  6
CONTINUOUS
  0
LAYER
  2
SAPA_MATT
 70
     0
 62
     1
  6
CONTINUOUS
  0
LAYER
  2
SAPA_GLAS
 70
     0
 62
     4
  6
CONTINUOUS
  0
LAYER
  2
SAPA_FOGBAND
 70
     0
 62
     2
  6
CONTINUOUS
  0
LAYER
  2
SAPA_PROFIL
 70
     0
 62
     7
  6
CONTINUOUS
  0
ENDTAB
  0
TABLE
  2
STYLE
 70
    60
  0
STYLE
  2
STANDARD
 70
     0
 40
0.0
 41
1.0
 50
0.0
 71
     0
 42
0.2
  3
txt
  4

  0
STYLE
  2
ISO
 70
     0
 40
0.0
 41
1.0
 50
0.0
 71
     0
 42
3.5
  3
txt
  4

  0
STYLE
  2

 70
     1
 40
0.0
 41
1.0
 50
0.0
 71
     0
 42
0.2
  3
ltypeshp.shx
  4

  0
STYLE
  2
BYGG-019434$0$STANDARD
 70
     0
 40
0.0
 41
1.0
 50
0.0
 71
     0
 42
0.2
  3
txt
  4

  0
STYLE
  2
BYGG-019434$0$ISO
 70
     0
 40
0.0
 41
1.0
 50
0.0
 71
     0
 42
3.5
  3
txt
  4

  0
STYLE
  2
BYGG-01472602$0$STANDARD
 70
     0
 40
0.0
 41
1.0
 50
0.0
 71
     0
 42
0.2
  3
txt
  4

  0
STYLE
  2
BYGG-01472602$0$ISO
 70
     0
 40
0.0
 41
1.0
 50
0.0
 71
     0
 42
2.5
  3
isocp3.shx
  4

  0
STYLE
  2
BYGG-019437$0$STANDARD
 70
     0
 40
0.0
 41
1.0
 50
0.0
 71
     0
 42
0.2
  3
txt
  4

  0
STYLE
  2
BYGG-019437$0$ISO
 70
     0
 40
0.0
 41
1.0
 50
0.0
 71
     0
 42
3.5
  3
txt
  4

  0
STYLE
  2
BYGG-023163$0$STANDARD
 70
     0
 40
0.0
 41
1.0
 50
0.0
 71
     0
 42
0.2
  3
txt
  4

  0
STYLE
  2
BYGG-023163$0$ISO
 70
     0
 40
0.0
 41
1.0
 50
0.0
 71
     0
 42
3.5
  3
txt
  4

  0
STYLE
  2
BYGG-020272$0$STANDARD
 70
     0
 40
0.0
 41
1.0
 50
0.0
 71
     0
 42
0.2
  3
txt
  4

  0
STYLE
  2
BYGG-020272$0$ISO
 70
     0
 40
0.0
 41
1.0
 50
0.0
 71
     0
 42
3.5
  3
isocp3.shx
  4

  0
STYLE
  2
BYGG-014014$0$STANDARD
 70
     0
 40
0.0
 41
1.0
 50
0.0
 71
     0
 42
0.2
  3
txt
  4

  0
STYLE
  2
BYGG-022359$0$STANDARD
 70
     0
 40
0.0
 41
1.0
 50
0.0
 71
     0
 42
0.2
  3
txt
  4

  0
STYLE
  2
BYGG-022359$0$ISO
 70
     0
 40
0.0
 41
1.0
 50
0.0
 71
     0
 42
3.5
  3
isocp3.shx
  4

  0
STYLE
  2
BYGG-020273$0$STANDARD
 70
     0
 40
0.0
 41
1.0
 50
0.0
 71
     0
 42
0.2
  3
txt
  4

  0
STYLE
  2
BYGG-020273$0$ISO
 70
     0
 40
0.0
 41
1.0
 50
0.0
 71
     0
 42
3.5
  3
isocp3.shx
  4

  0
STYLE
  2
BYGG-033291$0$STANDARD
 70
     0
 40
0.0
 41
1.0
 50
0.0
 71
     0
 42
0.2
  3
txt
  4

  0
STYLE
  2
BYGG-033291$0$ISO
 70
     0
 40
0.0
 41
1.0
 50
0.0
 71
     0
 42
3.5
  3
txt
  4

  0
STYLE
  2
BYGG-025060$0$STANDARD
 70
     0
 40
0.0
 41
1.0
 50
0.0
 71
     0
 42
0.2
  3
txt
  4

  0
STYLE
  2
BYGG-025060$0$ISO
 70
     0
 40
0.0
 41
1.0
 50
0.0
 71
     0
 42
3.5
  3
txt
  4

  0
STYLE
  2
BYGG-012216$0$STANDARD
 70
     0
 40
0.0
 41
1.0
 50
0.0
 71
     0
 42
0.2
  3
txt
  4

  0
STYLE
  2
BYGG-012216$0$ISO
 70
     0
 40
0.0
 41
1.0
 50
0.0
 71
     0
 42
3.5
  3
txt
  4

  0
STYLE
  2
BYGG-028980$0$STANDARD
 70
     0
 40
0.0
 41
1.0
 50
0.0
 71
     0
 42
0.2
  3
txt
  4

  0
STYLE
  2
BYGG-028980$0$ISO
 70
     0
 40
0.0
 41
1.0
 50
0.0
 71
     0
 42
3.5
  3
txt
  4

  0
STYLE
  2
BYGG-033168$0$STANDARD
 70
     0
 40
0.0
 41
1.0
 50
0.0
 71
     0
 42
0.2
  3
txt
  4

  0
STYLE
  2
BYGG-033168$0$ISO
 70
     0
 40
0.0
 41
1.0
 50
0.0
 71
     0
 42
3.5
  3
txt
  4

  0
STYLE
  2
BYGG-027036$0$STANDARD
 70
     0
 40
0.0
 41
1.0
 50
0.0
 71
     0
 42
0.2
  3
txt
  4

  0
STYLE
  2
BYGG-027036$0$ISO
 70
     0
 40
0.0
 41
1.0
 50
0.0
 71
     0
 42
3.5
  3
txt
  4

  0
STYLE
  2
BYGG-027036$0$SIMPLEX
 70
     0
 40
0.0
 41
1.0
 50
0.0
 71
     0
 42
0.4
  3
simplex
  4

  0
STYLE
  2
BYGG-027036$0$ITALIC
 70
     0
 40
0.0
 41
1.0
 50
0.0
 71
     0
 42
0.4
  3
ITALIC
  4

  0
STYLE
  2
BYGG-027036$0$SYMBOL1
 70
     0
 40
0.0
 41
1.0
 50
0.0
 71
     0
 42
0.2
  3
SIMPLEX.SHX
  4

  0
STYLE
  2
BYGG-027036$0$MONOTXT
 70
     0
 40
0.2
 41
1.0
 50
0.0
 71
     0
 42
0.2
  3
MONOTXT
  4

  0
STYLE
  2
BYGG-027036$0$TIMES
 70
     0
 40
0.0
 41
1.0
 50
0.0
 71
     0
 42
100.0
  3
txt
  4

  0
STYLE
  2
BYGG-027036$0$ROMANS
 70
     0
 40
0.0
 41
1.0
 50
0.0
 71
     0
 42
5.0
  3
romans
  4

  0
STYLE
  2
BYGG-027036$0$SEACAD_ARIAL
 70
     0
 40
0.0
 41
1.0
 50
0.0
 71
     0
 42
0.2
  3
txt
  4

  0
STYLE
  2
BYGG-027036$0$ANNOTATIVE
 70
     0
 40
0.0
 41
1.0
 50
0.0
 71
     0
 42
0.2
  3
txt
  4

  0
STYLE
  2
BYGG-019610$0$STANDARD
 70
     0
 40
0.0
 41
1.0
 50
0.0
 71
     0
 42
0.2
  3
txt
  4

  0
STYLE
  2
BYGG-019610$0$ISO
 70
     0
 40
0.0
 41
1.0
 50
0.0
 71
     0
 42
3.5
  3
txt
  4

  0
STYLE
  2
BYGG-029021$0$STANDARD
 70
     0
 40
0.0
 41
1.0
 50
0.0
 71
     0
 42
0.2
  3
txt
  4

  0
STYLE
  2
BYGG-029021$0$ISO
 70
     0
 40
0.0
 41
1.0
 50
0.0
 71
     0
 42
3.5
  3
txt
  4

  0
STYLE
  2
BYGG-029021$0$ANNOTATION
 70
     0
 40
0.0
 41
1.0
 50
0.0
 71
     0
 42
0.2
  3
txt
  4

  0
STYLE
  2
BYGG-029021$0$COTATION
 70
     0
 40
0.0
 41
1.0
 50
0.0
 71
     0
 42
0.2
  3
txt
  4

  0
STYLE
  2
BYGG-029021$0$ANNOTATIVE
 70
     0
 40
0.0
 41
1.0
 50
0.0
 71
     0
 42
0.2
  3
txt
  4

  0
STYLE
  2
BYGG-024800$0$STANDARD
 70
     0
 40
0.0
 41
1.0
 50
0.0
 71
     0
 42
0.2
  3
txt
  4

  0
STYLE
  2
BYGG-024800$0$ISO
 70
     0
 40
0.0
 41
1.0
 50
0.0
 71
     0
 42
3.5
  3
txt
  4

  0
STYLE
  2
BYGG-024807$0$STANDARD
 70
     0
 40
0.0
 41
1.0
 50
0.0
 71
     0
 42
0.2
  3
txt
  4

  0
STYLE
  2
BYGG-024807$0$ISO
 70
     0
 40
0.0
 41
1.0
 50
0.0
 71
     0
 42
3.5
  3
txt
  4

  0
STYLE
  2
BYGG-024807$0$ANNOTATIVE
 70
     0
 40
0.0
 41
1.0
 50
0.0
 71
     0
 42
0.2
  3
txt
  4

  0
STYLE
  2
BYGG-01409101$0$STANDARD
 70
     0
 40
0.0
 41
1.0
 50
0.0
 71
     0
 42
0.4
  3
txt
  4

  0
STYLE
  2
BYGG-01409101$0$SIMPLEX
 70
     0
 40
0.0
 41
1.0
 50
0.0
 71
     0
 42
0.2
  3
simplex
  4

  0
STYLE
  2
BYGG-036634$0$STANDARD
 70
     0
 40
0.0
 41
1.0
 50
0.0
 71
     0
 42
0.2
  3
txt
  4

  0
STYLE
  2
BYGG-036634$0$ISO
 70
     0
 40
0.0
 41
1.0
 50
0.0
 71
     0
 42
3.5
  3
txt
  4

  0
STYLE
  2
BYGG-030601$0$STANDARD
 70
     0
 40
0.0
 41
1.0
 50
0.0
 71
     0
 42
0.2
  3
txt
  4

  0
STYLE
  2
BYGG-030601$0$ISO
 70
     0
 40
0.0
 41
1.0
 50
0.0
 71
     0
 42
3.5
  3
txt
  4

  0
STYLE
  2
BYGG-014090$0$STANDARD
 70
     0
 40
0.0
 41
1.0
 50
0.0
 71
     0
 42
0.2
  3
txt
  4

  0
STYLE
  2
BYGG-014090$0$SIMPLEX
 70
     0
 40
0.0
 41
1.0
 50
0.0
 71
     0
 42
0.2
  3
simplex
  4

  0
STYLE
  2
BYGG-01409301$0$STANDARD
 70
     0
 40
0.0
 41
1.0
 50
0.0
 71
     0
 42
0.4
  3
txt
  4

  0
STYLE
  2
BYGG-01409301$0$ANNOTATIVE
 70
     0
 40
0.0
 41
1.0
 50
0.0
 71
     0
 42
0.4
  3
txt
  4

  0
ENDTAB
  0
TABLE
  2
VIEW
 70
     0
  0
ENDTAB
  0
TABLE
  2
UCS
 70
     0
  0
ENDTAB
  0
TABLE
  2
APPID
 70
    52
  0
APPID
  2
ACAD
 70
     0
  0
APPID
  2
ACAD_DSTYLE_DIMTEXT_FILL
 70
     0
  0
APPID
  2
ACAD_DSTYLE_DIMEXT_LENGTH
 70
     0
  0
APPID
  2
ACAD_DSTYLE_DIMEXT_ENABLED
 70
     0
  0
APPID
  2
ACAD_DSTYLE_DIM_LINETYPE
 70
     0
  0
APPID
  2
ACAD_DSTYLE_DIM_EXT1_LINETYPE
 70
     0
  0
APPID
  2
ACAD_DSTYLE_DIM_EXT2_LINETYPE
 70
     0
  0
APPID
  2
ACAD_DSTYLE_DIMJOGGED_JOGA
 70
     0
  0
APPID
  2
ACAD_DSTYLE_DIMARC_LENGTH_
 70
     0
  0
APPID
  2
ACAD_PSEXT
 70
     0
  0
APPID
  2
ACAD_MLEADERVER
 70
     0
  0
APPID
  2
AME_SOL
 70
     0
  0
APPID
  2
AMG_ARCHIVE11
 70
     0
  0
APPID
  2
DCO15
 70
     0
  0
APPID
  2
ACAECLAYERSTANDARD
 70
     0
  0
APPID
  2
ACADANNOTATIVE
 70
     0
  0
APPID
  2
ACAD_EXEMPT_FROM_CAD_STANDARDS
 70
     0
  0
APPID
  2
ACDBDYNAMICBLOCKGUID
 70
     0
  0
APPID
  2
ACDBBLOCKREPETAG
 70
     0
  0
APPID
  2
ACAD_DSTYLE_DIMJAG
 70
     0
  0
APPID
  2
ACAD_DSTYLE_DIMTALN
 70
     0
  0
APPID
  2
RC_PROFILE
 70
     0
  0
APPID
  2
ACAUTHENVIRON
 70
     0
  0
APPID
  2
ACDBDYNAMICBLOCKTRUENAME
 70
     0
  0
APPID
  2
ACAD_NAV_VCDISPLAY
 70
     0
  0
APPID
  2
ACCMTRANSPARENCY
 70
     0
  0
APPID
  2
PE_URL
 70
     0
  0
APPID
  2
ACDBBLOCKREPBTAG
 70
     0
  0
APPID
  2
ACAD_DSTYLE_DIMRADIAL_EXTENSION
 70
     0
  0
APPID
  2
ACLAYERTOOLS
 70
     0
  0
APPID
  2
ACAD_OBJECT_CHANGE_GUID
 70
     0
  0
APPID
  2
AVE_RENDER
 70
     0
  0
APPID
  2
AVE_ENTITY_MATERIAL
 70
     0
  0
APPID
  2
AVE_FINISH
 70
     0
  0
APPID
  2
AVE_MATERIAL
 70
     0
  0
APPID
  2
AVE_GLOBAL
 70
     0
  0
APPID
  2
4M_RENDER
 70
     0
  0
APPID
  2
LIBMAN
 70
     0
  0
APPID
  2
AUTOBUILD
 70
     0
  0
APPID
  2
GRADIENTCOLOR1ACI
 70
     0
  0
APPID
  2
GRADIENTCOLOR2ACI
 70
     0
  0
APPID
  2
GENIUS_GENREC_14
 70
     0
  0
APPID
  2
GENIUS_GENOBJ-N-REC_13
 70
     0
  0
APPID
  2
GENIUS_GENODEF_13
 70
     0
  0
APPID
  2
GENIUS_GENTRA_14
 70
     0
  0
APPID
  2
GENIUS_GENOREF_13
 70
     0
  0
APPID
  2
GENIUS_GENSCREG_15
 70
     0
  0
APPID
  2
GENIUS_GENOBJ-N-SDF_13
 70
     0
  0
APPID
  2
ACADANNOPO
 70
     0
  0
APPID
  2
ACADBPTGRAPHNODEID
 70
     0
  0
APPID
  2
ACDBATTR
 70
     0
  0
APPID
  2
AEC_XDATA_BOUND_SPACE
 70
     0
  0
ENDTAB
  0
TABLE
  2
DIMSTYLE
 70
    52
  0
DIMSTYLE
  2
STANDARD
 70
     0
  3

  4

  5

  6

  7

 40
1.0
 41
0.18
 42
0.0625
 43
0.38
 44
0.18
 45
0.0
 46
0.0
 47
0.0
 48
0.0
140
0.18
141
0.09
142
0.0
143
25.399999999999999
144
1.0
145
0.0
146
1.0
147
0.09
 71
     0
 72
     0
 73
     1
 74
     1
 75
     0
 76
     0
 77
     0
 78
     0
170
     0
171
     2
172
     0
173
     0
174
     0
175
     0
176
     0
177
     0
178
     0
  0
DIMSTYLE
  2
MASKIN
 70
     0
  3

  4

  5

  6

  7

 40
0.0
 41
3.0
 42
1.5
 43
10.0
 44
1.5
 45
0.0
 46
0.0
 47
0.0
 48
0.0
140
3.0
141
-5.0
142
0.0
143
25.399999999999999
144
-1.0
145
0.0
146
1.0
147
1.0
 71
     0
 72
     0
 73
     0
 74
     0
 75
     0
 76
     0
 77
     1
 78
     8
170
     0
171
     0
172
     1
173
     0
174
     0
175
     0
176
   256
177
   256
178
     2
  0
DIMSTYLE
  2
BYGG-019434$0$STANDARD
 70
     0
  3

  4

  5

  6

  7

 40
1.0
 41
0.18
 42
0.0625
 43
0.38
 44
0.18
 45
0.0
 46
0.0
 47
0.0
 48
0.0
140
0.18
141
0.09
142
0.0
143
25.399999999999999
144
1.0
145
0.0
146
1.0
147
0.09
 71
     0
 72
     0
 73
     1
 74
     1
 75
     0
 76
     0
 77
     0
 78
     0
170
     0
171
     2
172
     0
173
     0
174
     0
175
     0
176
     0
177
     0
178
     0
  0
DIMSTYLE
  2
BYGG-019434$0$MASKIN
 70
     0
  3

  4

  5

  6

  7

 40
0.0
 41
3.0
 42
1.5
 43
10.0
 44
1.5
 45
0.0
 46
0.0
 47
0.0
 48
0.0
140
3.0
141
-5.0
142
0.0
143
25.399999999999999
144
-1.0
145
0.0
146
1.0
147
1.0
 71
     0
 72
     0
 73
     0
 74
     0
 75
     0
 76
     0
 77
     1
 78
     8
170
     0
171
     0
172
     1
173
     0
174
     0
175
     0
176
   256
177
   256
178
     2
  0
DIMSTYLE
  2
BYGG-01472602$0$STANDARD
 70
     0
  3

  4

  5

  6

  7

 40
1.0
 41
0.18
 42
0.0625
 43
0.38
 44
0.18
 45
0.0
 46
0.0
 47
0.0
 48
0.0
140
0.18
141
0.09
142
0.0
143
25.399999999999999
144
1.0
145
0.0
146
1.0
147
0.09
 71
     0
 72
     0
 73
     1
 74
     1
 75
     0
 76
     0
 77
     0
 78
     0
170
     0
171
     2
172
     0
173
     0
174
     0
175
     0
176
     0
177
     0
178
     0
  0
DIMSTYLE
  2
BYGG-01472602$0$MASKIN
 70
     0
  3

  4

  5

  6

  7

 40
0.0
 41
3.0
 42
1.5
 43
10.0
 44
1.5
 45
0.0
 46
0.0
 47
0.0
 48
0.0
140
3.0
141
-5.0
142
0.0
143
25.399999999999999
144
-1.0
145
0.0
146
1.0
147
1.0
 71
     0
 72
     0
 73
     0
 74
     1
 75
     0
 76
     0
 77
     1
 78
     8
170
     0
171
     0
172
     1
173
     0
174
     0
175
     0
176
   256
177
   256
178
     2
  0
DIMSTYLE
  2
BYGG-019437$0$STANDARD
 70
     0
  3

  4

  5

  6

  7

 40
1.0
 41
0.18
 42
0.0625
 43
0.38
 44
0.18
 45
0.0
 46
0.0
 47
0.0
 48
0.0
140
0.18
141
0.09
142
0.0
143
25.399999999999999
144
1.0
145
0.0
146
1.0
147
0.09
 71
     0
 72
     0
 73
     1
 74
     1
 75
     0
 76
     0
 77
     0
 78
     0
170
     0
171
     2
172
     0
173
     0
174
     0
175
     0
176
     0
177
     0
178
     0
  0
DIMSTYLE
  2
BYGG-019437$0$MASKIN
 70
     0
  3

  4

  5

  6

  7

 40
0.0
 41
3.0
 42
1.5
 43
10.0
 44
1.5
 45
0.0
 46
0.0
 47
0.0
 48
0.0
140
3.0
141
-5.0
142
0.0
143
25.399999999999999
144
-1.0
145
0.0
146
1.0
147
1.0
 71
     0
 72
     0
 73
     0
 74
     0
 75
     0
 76
     0
 77
     1
 78
     8
170
     0
171
     0
172
     1
173
     0
174
     0
175
     0
176
   256
177
   256
178
     2
  0
DIMSTYLE
  2
BYGG-023163$0$STANDARD
 70
     0
  3

  4

  5

  6

  7

 40
1.0
 41
0.18
 42
0.0625
 43
0.38
 44
0.18
 45
0.0
 46
0.0
 47
0.0
 48
0.0
140
0.18
141
0.09
142
0.0
143
25.399999999999999
144
1.0
145
0.0
146
1.0
147
0.09
 71
     0
 72
     0
 73
     1
 74
     1
 75
     0
 76
     0
 77
     0
 78
     0
170
     0
171
     2
172
     0
173
     0
174
     0
175
     0
176
     0
177
     0
178
     0
  0
DIMSTYLE
  2
BYGG-023163$0$MASKIN
 70
     0
  3

  4

  5

  6

  7

 40
0.0
 41
3.0
 42
1.5
 43
10.0
 44
1.5
 45
0.0
 46
0.0
 47
0.0
 48
0.0
140
3.0
141
-5.0
142
0.0
143
25.399999999999999
144
-1.0
145
0.0
146
1.0
147
1.0
 71
     0
 72
     0
 73
     0
 74
     0
 75
     0
 76
     0
 77
     1
 78
     8
170
     0
171
     0
172
     1
173
     0
174
     0
175
     0
176
   256
177
   256
178
     2
  0
DIMSTYLE
  2
BYGG-020272$0$STANDARD
 70
     0
  3

  4

  5

  6

  7

 40
1.0
 41
0.18
 42
0.0625
 43
0.38
 44
0.18
 45
0.0
 46
0.0
 47
0.0
 48
0.0
140
0.18
141
0.09
142
0.0
143
25.399999999999999
144
1.0
145
0.0
146
1.0
147
0.09
 71
     0
 72
     0
 73
     1
 74
     1
 75
     0
 76
     0
 77
     0
 78
     0
170
     0
171
     2
172
     0
173
     0
174
     0
175
     0
176
     0
177
     0
178
     0
  0
DIMSTYLE
  2
BYGG-020272$0$MASKIN
 70
     0
  3

  4

  5

  6

  7

 40
0.0
 41
3.0
 42
1.5
 43
10.0
 44
1.5
 45
0.0
 46
0.0
 47
0.0
 48
0.0
140
3.0
141
-5.0
142
0.0
143
25.399999999999999
144
-1.0
145
0.0
146
1.0
147
1.0
 71
     0
 72
     0
 73
     0
 74
     0
 75
     0
 76
     0
 77
     1
 78
     8
170
     0
171
     0
172
     1
173
     0
174
     0
175
     0
176
   256
177
   256
178
     2
  0
DIMSTYLE
  2
BYGG-014014$0$STANDARD
 70
     0
  3

  4

  5

  6

  7

 40
1.0
 41
0.18
 42
0.0625
 43
0.38
 44
0.18
 45
0.0
 46
0.0
 47
0.0
 48
0.0
140
0.18
141
0.09
142
0.0
143
25.399999999999999
144
1.0
145
0.0
146
1.0
147
0.09
 71
     0
 72
     0
 73
     1
 74
     1
 75
     0
 76
     0
 77
     0
 78
     0
170
     0
171
     2
172
     0
173
     0
174
     0
175
     0
176
     0
177
     0
178
     0
  0
DIMSTYLE
  2
BYGG-022359$0$MASKIN
 70
     0
  3

  4

  5

  6

  7

 40
0.0
 41
3.0
 42
1.5
 43
10.0
 44
1.5
 45
0.0
 46
0.0
 47
0.0
 48
0.0
140
3.0
141
-5.0
142
0.0
143
25.399999999999999
144
-1.0
145
0.0
146
1.0
147
1.0
 71
     0
 72
     0
 73
     0
 74
     0
 75
     0
 76
     0
 77
     1
 78
     8
170
     0
171
     0
172
     1
173
     0
174
     0
175
     0
176
   256
177
   256
178
   256
  0
DIMSTYLE
  2
BYGG-022359$0$STANDARD
 70
     0
  3

  4

  5

  6

  7

 40
1.0
 41
0.18
 42
0.0625
 43
0.38
 44
0.18
 45
0.0
 46
0.0
 47
0.0
 48
0.0
140
0.18
141
0.09
142
0.0
143
25.399999999999999
144
1.0
145
0.0
146
1.0
147
0.09
 71
     0
 72
     0
 73
     1
 74
     1
 75
     0
 76
     0
 77
     0
 78
     0
170
     0
171
     2
172
     0
173
     0
174
     0
175
     0
176
     0
177
     0
178
     0
  0
DIMSTYLE
  2
BYGG-020273$0$MASKIN
 70
     0
  3

  4

  5

  6

  7

 40
0.0
 41
3.0
 42
1.5
 43
10.0
 44
1.5
 45
0.0
 46
0.0
 47
0.0
 48
0.0
140
3.0
141
-5.0
142
0.0
143
25.399999999999999
144
-1.0
145
0.0
146
1.0
147
1.0
 71
     0
 72
     0
 73
     0
 74
     0
 75
     0
 76
     0
 77
     1
 78
     8
170
     0
171
     0
172
     1
173
     0
174
     0
175
     0
176
   256
177
   256
178
     2
  0
DIMSTYLE
  2
BYGG-033291$0$STANDARD
 70
     0
  3

  4

  5

  6

  7

 40
1.0
 41
0.18
 42
0.0625
 43
0.38
 44
0.18
 45
0.0
 46
0.0
 47
0.0
 48
0.0
140
0.18
141
0.09
142
0.0
143
25.399999999999999
144
1.0
145
0.0
146
1.0
147
0.09
 71
     0
 72
     0
 73
     1
 74
     1
 75
     0
 76
     0
 77
     0
 78
     0
170
     0
171
     2
172
     0
173
     0
174
     0
175
     0
176
     0
177
     0
178
     0
  0
DIMSTYLE
  2
BYGG-033291$0$MASKIN
 70
     0
  3

  4

  5

  6

  7

 40
0.0
 41
3.0
 42
1.5
 43
10.0
 44
1.5
 45
0.0
 46
0.0
 47
0.0
 48
0.0
140
3.0
141
-5.0
142
0.0
143
25.399999999999999
144
-1.0
145
0.0
146
1.0
147
1.0
 71
     0
 72
     0
 73
     0
 74
     0
 75
     0
 76
     0
 77
     1
 78
     8
170
     0
171
     0
172
     1
173
     0
174
     0
175
     0
176
   256
177
   256
178
     2
  0
DIMSTYLE
  2
BYGG-025060$0$MASKIN
 70
     0
  3

  4

  5

  6

  7

 40
0.0
 41
3.0
 42
1.5
 43
10.0
 44
1.5
 45
0.0
 46
0.0
 47
0.0
 48
0.0
140
3.0
141
-5.0
142
0.0
143
25.399999999999999
144
-1.0
145
0.0
146
1.0
147
1.0
 71
     0
 72
     0
 73
     0
 74
     0
 75
     0
 76
     0
 77
     1
 78
     8
170
     0
171
     0
172
     1
173
     0
174
     0
175
     0
176
   256
177
   256
178
     2
  0
DIMSTYLE
  2
BYGG-025060$0$STANDARD
 70
     0
  3

  4

  5

  6

  7

 40
1.0
 41
0.18
 42
0.0625
 43
0.38
 44
0.18
 45
0.0
 46
0.0
 47
0.0
 48
0.0
140
0.18
141
0.09
142
0.0
143
25.399999999999999
144
1.0
145
0.0
146
1.0
147
0.09
 71
     0
 72
     0
 73
     1
 74
     1
 75
     0
 76
     0
 77
     0
 78
     0
170
     0
171
     2
172
     0
173
     0
174
     0
175
     0
176
     0
177
     0
178
     0
  0
DIMSTYLE
  2
BYGG-012216$0$MASKIN
 70
     0
  3

  4

  5

  6

  7

 40
0.0
 41
3.0
 42
1.5
 43
10.0
 44
1.5
 45
0.0
 46
0.0
 47
0.0
 48
0.0
140
3.0
141
-5.0
142
0.0
143
25.399999999999999
144
-1.0
145
0.0
146
1.0
147
1.0
 71
     0
 72
     0
 73
     0
 74
     0
 75
     0
 76
     0
 77
     1
 78
     8
170
     0
171
     0
172
     1
173
     0
174
     0
175
     0
176
   256
177
   256
178
     2
  0
DIMSTYLE
  2
BYGG-012216$0$STANDARD
 70
     0
  3

  4

  5

  6

  7

 40
1.0
 41
0.18
 42
0.0625
 43
0.38
 44
0.18
 45
0.0
 46
0.0
 47
0.0
 48
0.0
140
0.18
141
0.09
142
0.0
143
25.399999999999999
144
1.0
145
0.0
146
1.0
147
0.09
 71
     0
 72
     0
 73
     1
 74
     1
 75
     0
 76
     0
 77
     0
 78
     0
170
     0
171
     2
172
     0
173
     0
174
     0
175
     0
176
     0
177
     0
178
     0
  0
DIMSTYLE
  2
BYGG-028980$0$STANDARD
 70
     0
  3

  4

  5

  6

  7

 40
1.0
 41
0.18
 42
0.0625
 43
0.38
 44
0.18
 45
0.0
 46
0.0
 47
0.0
 48
0.0
140
0.18
141
0.09
142
0.0
143
25.399999999999999
144
1.0
145
0.0
146
1.0
147
0.09
 71
     0
 72
     0
 73
     1
 74
     1
 75
     0
 76
     0
 77
     0
 78
     0
170
     0
171
     2
172
     0
173
     0
174
     0
175
     0
176
     0
177
     0
178
     0
  0
DIMSTYLE
  2
BYGG-028980$0$MASKIN
 70
     0
  3

  4

  5

  6

  7

 40
0.0
 41
3.0
 42
1.5
 43
10.0
 44
1.5
 45
0.0
 46
0.0
 47
0.0
 48
0.0
140
3.0
141
-5.0
142
0.0
143
25.399999999999999
144
-1.0
145
0.0
146
1.0
147
1.0
 71
     0
 72
     0
 73
     0
 74
     0
 75
     0
 76
     0
 77
     1
 78
     8
170
     0
171
     0
172
     1
173
     0
174
     0
175
     0
176
   256
177
   256
178
     2
  0
DIMSTYLE
  2
BYGG-033168$0$STANDARD
 70
     0
  3

  4

  5

  6

  7

 40
1.0
 41
0.18
 42
0.0625
 43
0.38
 44
0.18
 45
0.0
 46
0.0
 47
0.0
 48
0.0
140
0.18
141
0.09
142
0.0
143
25.399999999999999
144
1.0
145
0.0
146
1.0
147
0.09
 71
     0
 72
     0
 73
     1
 74
     1
 75
     0
 76
     0
 77
     0
 78
     0
170
     0
171
     2
172
     0
173
     0
174
     0
175
     0
176
     0
177
     0
178
     0
  0
DIMSTYLE
  2
BYGG-033168$0$MASKIN
 70
     0
  3

  4

  5

  6

  7

 40
0.0
 41
3.0
 42
1.5
 43
10.0
 44
1.5
 45
0.0
 46
0.0
 47
0.0
 48
0.0
140
3.0
141
-5.0
142
0.0
143
25.399999999999999
144
-1.0
145
0.0
146
1.0
147
1.0
 71
     0
 72
     0
 73
     0
 74
     0
 75
     0
 76
     0
 77
     1
 78
     8
170
     0
171
     0
172
     1
173
     0
174
     0
175
     0
176
   256
177
   256
178
     2
  0
DIMSTYLE
  2
BYGG-027036$0$STANDARD
 70
     0
  3

  4

  5

  6

  7

 40
1.0
 41
0.18
 42
0.0625
 43
0.38
 44
0.18
 45
0.0
 46
0.0
 47
0.0
 48
0.0
140
0.18
141
0.09
142
0.0
143
25.399999999999999
144
1.0
145
0.0
146
1.0
147
0.09
 71
     0
 72
     0
 73
     1
 74
     1
 75
     0
 76
     0
 77
     0
 78
     0
170
     0
171
     2
172
     0
173
     0
174
     0
175
     0
176
     0
177
     0
178
     0
  0
DIMSTYLE
  2
BYGG-027036$0$MASKIN
 70
     0
  3

  4

  5

  6

  7

 40
0.0
 41
3.0
 42
1.5
 43
10.0
 44
1.5
 45
0.0
 46
0.0
 47
0.0
 48
0.0
140
3.0
141
-5.0
142
0.0
143
25.399999999999999
144
-1.0
145
0.0
146
1.0
147
1.0
 71
     0
 72
     0
 73
     0
 74
     0
 75
     0
 76
     0
 77
     1
 78
     8
170
     0
171
     0
172
     1
173
     0
174
     0
175
     0
176
   256
177
   256
178
     2
  0
DIMSTYLE
  2
BYGG-027036$0$STANDARD$4
 70
     0
  3

  4

  5

  6

  7

 40
1.0
 41
2.5
 42
2.0
 43
3.75
 44
1.0
 45
0.0
 46
0.0
 47
0.0
 48
0.0
140
5.0
141
3.0
142
0.0
143
0.0394
144
1.0
145
1.0
146
1.0
147
1.0
 71
     0
 72
     0
 73
     1
 74
     0
 75
     0
 76
     0
 77
     1
 78
     8
170
     0
171
     2
172
     1
173
     0
174
     0
175
     0
176
     5
177
     5
178
     5
  0
DIMSTYLE
  2
BYGG-027036$0$STANDARD$2
 70
     0
  3

  4

  5

  6

  7

 40
1.0
 41
2.5
 42
2.0
 43
3.75
 44
1.0
 45
0.0
 46
0.0
 47
0.0
 48
0.0
140
5.0
141
3.0
142
0.0
143
0.0394
144
1.0
145
1.0
146
1.0
147
1.0
 71
     0
 72
     0
 73
     1
 74
     0
 75
     0
 76
     0
 77
     1
 78
     8
170
     0
171
     2
172
     1
173
     0
174
     0
175
     0
176
     5
177
     5
178
     5
  0
DIMSTYLE
  2
BYGG-027036$0$DMST_1
 70
     0
  3

  4

  5

  6

  7

 40
1.0
 41
0.3500000000000001
 42
0.0
 43
7.0
 44
0.2
 45
0.0
 46
0.0
 47
0.0
 48
0.0
140
0.3500000000000001
141
0.0
142
0.0
143
25.399999999999999
144
1.0
145
0.0
146
1.0
147
0.09
 71
     0
 72
     0
 73
     0
 74
     0
 75
     0
 76
     0
 77
     1
 78
     9
170
     0
171
     2
172
     0
173
     0
174
     0
175
     0
176
     1
177
     1
178
     2
  0
DIMSTYLE
  2
BYGG-027036$0$ANNOTATIVE
 70
     0
  3

  4

  5

  6

  7

 40
1.0
 41
0.18
 42
0.0625
 43
0.38
 44
0.18
 45
0.0
 46
0.0
 47
0.0
 48
0.0
140
0.18
141
0.09
142
0.0
143
25.399999999999999
144
1.0
145
0.0
146
1.0
147
0.09
 71
     0
 72
     0
 73
     1
 74
     1
 75
     0
 76
     0
 77
     0
 78
     0
170
     0
171
     2
172
     0
173
     0
174
     0
175
     0
176
     0
177
     0
178
     0
  0
DIMSTYLE
  2
BYGG-019610$0$STANDARD
 70
     0
  3

  4

  5

  6

  7

 40
1.0
 41
0.18
 42
0.0625
 43
0.38
 44
0.18
 45
0.0
 46
0.0
 47
0.0
 48
0.0
140
0.18
141
0.09
142
0.0
143
25.399999999999999
144
1.0
145
0.0
146
1.0
147
0.09
 71
     0
 72
     0
 73
     1
 74
     1
 75
     0
 76
     0
 77
     0
 78
     0
170
     0
171
     2
172
     0
173
     0
174
     0
175
     0
176
     0
177
     0
178
     0
  0
DIMSTYLE
  2
BYGG-019610$0$MASKIN
 70
     0
  3

  4

  5

  6

  7

 40
0.0
 41
3.0
 42
1.5
 43
10.0
 44
1.5
 45
0.0
 46
0.0
 47
0.0
 48
0.0
140
3.0
141
-5.0
142
0.0
143
25.399999999999999
144
-1.0
145
0.0
146
1.0
147
1.0
 71
     0
 72
     0
 73
     0
 74
     0
 75
     0
 76
     0
 77
     1
 78
     8
170
     0
171
     0
172
     1
173
     0
174
     0
175
     0
176
   256
177
   256
178
     2
  0
DIMSTYLE
  2
BYGG-029021$0$STANDARD
 70
     0
  3

  4

  5

  6

  7

 40
1.0
 41
0.18
 42
0.0625
 43
0.38
 44
0.18
 45
0.0
 46
0.0
 47
0.0
 48
0.0
140
0.18
141
0.09
142
0.0
143
25.399999999999999
144
1.0
145
0.0
146
1.0
147
0.09
 71
     0
 72
     0
 73
     1
 74
     1
 75
     0
 76
     0
 77
     0
 78
     0
170
     0
171
     2
172
     0
173
     0
174
     0
175
     0
176
     0
177
     0
178
     0
  0
DIMSTYLE
  2
BYGG-029021$0$MASKIN
 70
     0
  3

  4

  5

  6

  7

 40
0.0
 41
3.0
 42
1.5
 43
10.0
 44
1.5
 45
0.0
 46
0.0
 47
0.0
 48
0.0
140
3.0
141
-5.0
142
0.0
143
25.399999999999999
144
-1.0
145
0.0
146
1.0
147
1.0
 71
     0
 72
     0
 73
     0
 74
     0
 75
     0
 76
     0
 77
     1
 78
     8
170
     0
171
     0
172
     1
173
     0
174
     0
175
     0
176
   256
177
   256
178
     2
  0
DIMSTYLE
  2
BYGG-029021$0$MASKIN1
 70
     0
  3

  4

  5

  6

  7

 40
0.0
 41
3.0
 42
1.5
 43
10.0
 44
1.5
 45
0.0
 46
0.0
 47
0.0
 48
0.0
140
3.0
141
-5.0
142
0.0
143
25.399999999999999
144
-1.0
145
0.0
146
1.0
147
1.0
 71
     0
 72
     0
 73
     0
 74
     0
 75
     0
 76
     0
 77
     1
 78
     8
170
     0
171
     0
172
     1
173
     0
174
     0
175
     0
176
   256
177
   256
178
   256
  0
DIMSTYLE
  2
BYGG-029021$0$COTATION_HUT
 70
     0
  3

  4

  5

  6

  7

 40
1.0
 41
0.25
 42
0.1
 43
3.75
 44
0.18
 45
0.0
 46
0.0
 47
0.0
 48
0.0
140
0.25
141
2.5
142
0.0
143
25.399999999999999
144
1.0
145
0.05
146
0.7000000000000002
147
0.09
 71
     1
 72
     0
 73
     0
 74
     0
 75
     0
 76
     0
 77
     1
 78
     0
170
     0
171
     2
172
     1
173
     0
174
     0
175
     0
176
     0
177
     0
178
     0
  0
DIMSTYLE
  2
BYGG-029021$0$ANNOTATIVE
 70
     0
  3

  4

  5

  6

  7

 40
1.0
 41
0.18
 42
0.0625
 43
0.38
 44
0.18
 45
0.0
 46
0.0
 47
0.0
 48
0.0
140
0.18
141
0.09
142
0.0
143
25.399999999999999
144
1.0
145
0.0
146
1.0
147
0.09
 71
     0
 72
     0
 73
     1
 74
     1
 75
     0
 76
     0
 77
     0
 78
     0
170
     0
171
     2
172
     0
173
     0
174
     0
175
     0
176
     0
177
     0
178
     0
  0
DIMSTYLE
  2
BYGG-024800$0$MASKIN
 70
     0
  3

  4

  5

  6

  7

 40
0.0
 41
3.0
 42
1.5
 43
10.0
 44
1.5
 45
0.0
 46
0.0
 47
0.0
 48
0.0
140
3.0
141
-5.0
142
0.0
143
25.399999999999999
144
-1.0
145
0.0
146
1.0
147
1.0
 71
     0
 72
     0
 73
     0
 74
     0
 75
     0
 76
     0
 77
     1
 78
     8
170
     0
171
     0
172
     1
173
     0
174
     0
175
     0
176
   256
177
   256
178
     2
  0
DIMSTYLE
  2
BYGG-024800$0$STANDARD
 70
     0
  3

  4

  5

  6

  7

 40
1.0
 41
0.18
 42
0.0625
 43
0.38
 44
0.18
 45
0.0
 46
0.0
 47
0.0
 48
0.0
140
0.18
141
0.09
142
0.0
143
25.399999999999999
144
1.0
145
0.0
146
1.0
147
0.09
 71
     0
 72
     0
 73
     1
 74
     1
 75
     0
 76
     0
 77
     0
 78
     0
170
     0
171
     2
172
     0
173
     0
174
     0
175
     0
176
     0
177
     0
178
     0
  0
DIMSTYLE
  2
BYGG-024807$0$MASKIN
 70
     0
  3

  4

  5

  6

  7

 40
0.0
 41
3.0
 42
1.5
 43
10.0
 44
1.5
 45
0.0
 46
0.0
 47
0.0
 48
0.0
140
3.0
141
-5.0
142
0.0
143
25.399999999999999
144
-1.0
145
0.0
146
1.0
147
1.0
 71
     0
 72
     0
 73
     0
 74
     0
 75
     0
 76
     0
 77
     1
 78
     8
170
     0
171
     0
172
     1
173
     0
174
     0
175
     0
176
   256
177
   256
178
     2
  0
DIMSTYLE
  2
BYGG-024807$0$STANDARD
 70
     0
  3

  4

  5

  6

  7

 40
1.0
 41
0.18
 42
0.0625
 43
0.38
 44
0.18
 45
0.0
 46
0.0
 47
0.0
 48
0.0
140
0.18
141
0.09
142
0.0
143
25.399999999999999
144
1.0
145
0.0
146
1.0
147
0.09
 71
     0
 72
     0
 73
     1
 74
     1
 75
     0
 76
     0
 77
     0
 78
     0
170
     0
171
     2
172
     0
173
     0
174
     0
175
     0
176
     0
177
     0
178
     0
  0
DIMSTYLE
  2
BYGG-024807$0$ANNOTATIVE
 70
     0
  3

  4

  5

  6

  7

 40
1.0
 41
0.18
 42
0.0625
 43
0.38
 44
0.18
 45
0.0
 46
0.0
 47
0.0
 48
0.0
140
0.18
141
0.09
142
0.0
143
25.399999999999999
144
1.0
145
0.0
146
1.0
147
0.09
 71
     0
 72
     0
 73
     1
 74
     1
 75
     0
 76
     0
 77
     0
 78
     0
170
     0
171
     2
172
     0
173
     0
174
     0
175
     0
176
     0
177
     0
178
     0
  0
DIMSTYLE
  2
BYGG-01409101$0$STANDARD
 70
     0
  3

  4

  5

  6

  7

 40
1.0
 41
0.18
 42
0.0625
 43
0.38
 44
0.18
 45
0.0
 46
0.0
 47
0.0
 48
0.0
140
0.18
141
0.09
142
0.0
143
25.399999999999999
144
1.0
145
0.0
146
1.0
147
0.09
 71
     0
 72
     0
 73
     1
 74
     1
 75
     0
 76
     0
 77
     0
 78
     0
170
     0
171
     2
172
     0
173
     0
174
     0
175
     0
176
     0
177
     0
178
     0
  0
DIMSTYLE
  2
BYGG-036634$0$STANDARD
 70
     0
  3

  4

  5

  6

  7

 40
1.0
 41
0.18
 42
0.0625
 43
0.38
 44
0.18
 45
0.0
 46
0.0
 47
0.0
 48
0.0
140
0.18
141
0.09
142
0.0
143
25.399999999999999
144
1.0
145
0.0
146
1.0
147
0.09
 71
     0
 72
     0
 73
     1
 74
     1
 75
     0
 76
     0
 77
     0
 78
     0
170
     0
171
     2
172
     0
173
     0
174
     0
175
     0
176
     0
177
     0
178
     0
  0
DIMSTYLE
  2
BYGG-036634$0$MASKIN
 70
     0
  3

  4

  5

  6

  7

 40
0.0
 41
3.0
 42
1.5
 43
10.0
 44
1.5
 45
0.0
 46
0.0
 47
0.0
 48
0.0
140
3.0
141
-5.0
142
0.0
143
25.399999999999999
144
-1.0
145
0.0
146
1.0
147
1.0
 71
     0
 72
     0
 73
     0
 74
     0
 75
     0
 76
     0
 77
     1
 78
     8
170
     0
171
     0
172
     1
173
     0
174
     0
175
     0
176
   256
177
   256
178
     2
  0
DIMSTYLE
  2
BYGG-030601$0$STANDARD
 70
     0
  3

  4

  5

  6

  7

 40
1.0
 41
0.18
 42
0.0625
 43
0.38
 44
0.18
 45
0.0
 46
0.0
 47
0.0
 48
0.0
140
0.18
141
0.09
142
0.0
143
25.399999999999999
144
1.0
145
0.0
146
1.0
147
0.09
 71
     0
 72
     0
 73
     1
 74
     1
 75
     0
 76
     0
 77
     0
 78
     0
170
     0
171
     2
172
     0
173
     0
174
     0
175
     0
176
     0
177
     0
178
     0
  0
DIMSTYLE
  2
BYGG-030601$0$MASKIN
 70
     0
  3

  4

  5

  6

  7

 40
0.0
 41
3.0
 42
1.5
 43
10.0
 44
1.5
 45
0.0
 46
0.0
 47
0.0
 48
0.0
140
3.0
141
-5.0
142
0.0
143
25.399999999999999
144
-1.0
145
0.0
146
1.0
147
1.0
 71
     0
 72
     0
 73
     0
 74
     0
 75
     0
 76
     0
 77
     1
 78
     8
170
     0
171
     0
172
     1
173
     0
174
     0
175
     0
176
   256
177
   256
178
     2
  0
DIMSTYLE
  2
BYGG-014090$0$STANDARD
 70
     0
  3

  4

  5

  6

  7

 40
1.0
 41
0.18
 42
0.0625
 43
0.38
 44
0.18
 45
0.0
 46
0.0
 47
0.0
 48
0.0
140
0.18
141
0.09
142
0.0
143
25.399999999999999
144
1.0
145
0.0
146
1.0
147
0.09
 71
     0
 72
     0
 73
     1
 74
     1
 75
     0
 76
     0
 77
     0
 78
     0
170
     0
171
     2
172
     0
173
     0
174
     0
175
     0
176
     0
177
     0
178
     0
  0
DIMSTYLE
  2
BYGG-01409301$0$STANDARD
 70
     0
  3

  4

  5

  6

  7

 40
1.0
 41
0.18
 42
0.0625
 43
0.38
 44
0.18
 45
0.0
 46
0.0
 47
0.0
 48
0.0
140
0.18
141
0.09
142
0.0
143
25.399999999999999
144
1.0
145
0.0
146
1.0
147
0.09
 71
     0
 72
     0
 73
     1
 74
     1
 75
     0
 76
     0
 77
     0
 78
     0
170
     0
171
     2
172
     0
173
     0
174
     0
175
     0
176
     0
177
     0
178
     0
  0
DIMSTYLE
  2
BYGG-01409301$0$ANNOTATIVE
 70
     0
  3

  4

  5

  6

  7

 40
1.0
 41
0.18
 42
0.0625
 43
0.38
 44
0.18
 45
0.0
 46
0.0
 47
0.0
 48
0.0
140
0.18
141
0.09
142
0.0
143
25.399999999999999
144
1.0
145
0.0
146
1.0
147
0.09
 71
     0
 72
     0
 73
     1
 74
     1
 75
     0
 76
     0
 77
     0
 78
     0
170
     0
171
     2
172
     0
173
     0
174
     0
175
     0
176
     0
177
     0
178
     0
  0
ENDTAB
  0
ENDSEC
  0
SECTION
  2
BLOCKS
  0
BLOCK
  8
0
  2
$MODEL_SPACE
 70
     0
 10
0.0
 20
0.0
 30
0.0
  3
$MODEL_SPACE
  1

  0
ENDBLK
  5
37
  8
0
  0
BLOCK
 67
     1
  8
0
  2
$PAPER_SPACE
 70
     0
 10
0.0
 20
0.0
 30
0.0
  3
$PAPER_SPACE
  1

  0
ENDBLK
  5
35
 67
     1
  8
0
  0
BLOCK
  8
0
  2
BYGG-027036$0$RH
 70
     2
 10
0.0
 20
0.0
 30
0.0
  3
BYGG-027036$0$RH
  1

  0
ATTDEF
  5
1184
  8
BYGG-027036$0$KON
 10
11.0
 20
2.2999999999999989
 30
0.0
 40
0.4400000000000001
  1

  7
BYGG-027036$0$SIMPLEX
 72
     4
 11
11.0
 21
2.2999999999999989
 31
0.0
  3
Benämning
  2
BENÄMNING
 70
     0
  0
ATTDEF
  5
1186
  8
BYGG-027036$0$KON
 10
11.0
 20
1.5
 30
0.0
 40
0.4400000000000001
  1

  7
BYGG-027036$0$SIMPLEX
 72
     4
 11
11.0
 21
1.5
 31
0.0
  3
Gummi-hårdhet-färg
  2
GUMMI-HÅRDHET-FÄRG
 70
     0
  0
ATTDEF
  5
1187
  8
BYGG-027036$0$KON
 10
11.0
 20
0.7
 30
0.0
 40
0.4400000000000001
  1

  7
BYGG-027036$0$SIMPLEX
 72
     4
 11
11.0
 21
0.7
 31
0.0
  3
Kund
  2
KUND
 70
     0
  0
ATTDEF
  5
1188
  8
BYGG-027036$0$KON
 10
18.399999999999999
 20
0.8
 30
0.0
 40
0.4
  1

  7
BYGG-027036$0$SIMPLEX
 72
     4
 11
18.399999999999999
 21
0.8
 31
0.0
  3
Rit.Nr:
  2
RIT.NR:
 70
     0
  0
ATTDEF
  5
1189
  8
BYGG-027036$0$KON
 10
18.399999999999999
 20
3.2000000000000002
 30
0.0
 40
0.4
  1

  7
BYGG-027036$0$SIMPLEX
 72
     4
 11
18.399999999999999
 21
3.2000000000000002
 31
0.0
  3
Det.Nr:
  2
DET.NR:
 70
     0
  0
ATTDEF
  5
118A
  8
BYGG-027036$0$KON
 10
18.800000000000001
 20
2.0
 30
0.0
 40
0.4
  1

  7
BYGG-027036$0$SIMPLEX
 72
     4
 11
18.800000000000001
 21
2.0
 31
0.0
  3
Skala:
  2
SKALA:
 70
     1
  0
ATTDEF
  5
118B
  8
BYGG-027036$0$KON
 10
3.6000000000000001
 20
1.8999999999999999
 30
0.0
 40
0.3
  1

  7
BYGG-027036$0$SIMPLEX
 72
     4
 11
3.6000000000000001
 21
1.8999999999999999
 31
0.0
  3
Datum
  2
DATUM
 70
     0
  0
ATTDEF
  5
118C
  8
BYGG-027036$0$KON
 10
3.399999999999999
 20
0.9
 30
0.0
 40
0.4
  1

  7
BYGG-027036$0$SIMPLEX
 72
     4
 11
3.399999999999999
 21
0.9
 31
0.0
  3
Ritad av:
  2
RITAD:
 70
     1
  0
ATTDEF
  5
118D
  8
BYGG-027036$0$KON
 10
3.1999999999999988
 20
5.2999999999999989
 30
0.0
 40
0.4
  1

  7
BYGG-027036$0$SIMPLEX
  3
Säljare:
  2
SÄLJARE
 70
     1
  0
ENDBLK
  5
118E
  8
0
  0
BLOCK
  8
0
  2
*D111
 70
     1
 10
0.0
 20
0.0
 30
0.0
  3
*D111
  1

  0
LINE
  5
17AE
  8
SAPA_MATT
 10
-16.00000000000006
 20
-78.792893218811628
 30
0.0
 11
-16.00000000000006
 21
-108.3138500465783
 31
0.0
  0
LINE
  5
17AF
  8
SAPA_MATT
 10
16.000000000000171
 20
-78.54644660940528
 30
0.0
 11
16.00000000000016
 21
-108.3138500465783
 31
0.0
  0
LINE
  5
17B0
  8
SAPA_MATT
 10
-13.00000000000006
 20
-106.8138500465783
 30
0.0
 11
13.00000000000016
 21
-106.8138500465783
 31
0.0
  0
SOLID
  5
17B1
  8
SAPA_MATT
 10
-13.00000000000006
 20
-106.3138500465783
 30
0.0
 11
-13.00000000000006
 21
-107.3138500465783
 31
0.0
 12
-16.00000000000006
 22
-106.8138500465783
 32
0.0
 13
-16.00000000000006
 23
-106.8138500465783
 33
0.0
  0
SOLID
  5
17B2
  8
SAPA_MATT
 10
13.00000000000016
 20
-106.3138500465783
 30
0.0
 11
13.00000000000016
 21
-107.3138500465783
 31
0.0
 12
16.00000000000016
 22
-106.8138500465783
 32
0.0
 13
16.00000000000016
 23
-106.8138500465783
 33
0.0
  0
INSERT
  5
17B3
  8
0
  2
*U123
 10
0.0
 20
0.0
 30
0.0
  0
POINT
  5
17B4
  8
DEFPOINTS
 62
     0
 10
-16.00000000000006
 20
-77.292893218811628
 30
0.0
  0
POINT
  5
17B5
  8
DEFPOINTS
 62
     0
 10
16.000000000000171
 20
-77.04644660940528
 30
0.0
  0
POINT
  5
17B6
  8
DEFPOINTS
 62
     0
 10
16.00000000000016
 20
-106.8138500465783
 30
0.0
  0
ENDBLK
  5
1755
  8
0
  0
BLOCK
  8
0
  2
*D112
 70
     1
 10
0.0
 20
0.0
 30
0.0
  3
*D112
  1

  0
LINE
  5
17A5
  8
SAPA_MATT
 10
-25.0
 20
65.499999999999488
 30
0.0
 11
-25.0
 21
85.499999999999488
 31
0.0
  0
LINE
  5
17A6
  8
SAPA_MATT
 10
25.0
 20
65.499999999999488
 30
0.0
 11
25.0
 21
85.499999999999488
 31
0.0
  0
LINE
  5
17A7
  8
SAPA_MATT
 10
-22.0
 20
83.999999999999474
 30
0.0
 11
22.0
 21
83.999999999999474
 31
0.0
  0
SOLID
  5
17A8
  8
SAPA_MATT
 10
-22.0
 20
84.499999999999488
 30
0.0
 11
-22.0
 21
83.499999999999488
 31
0.0
 12
-25.0
 22
83.999999999999474
 32
0.0
 13
-25.0
 23
83.999999999999474
 33
0.0
  0
SOLID
  5
17A9
  8
SAPA_MATT
 10
22.0
 20
84.499999999999488
 30
0.0
 11
22.0
 21
83.499999999999488
 31
0.0
 12
25.0
 22
83.999999999999474
 32
0.0
 13
25.0
 23
83.999999999999474
 33
0.0
  0
INSERT
  5
17AA
  8
0
  2
*U122
 10
0.0
 20
0.0
 30
0.0
  0
POINT
  5
17AB
  8
DEFPOINTS
 62
     0
 10
-25.0
 20
63.999999999999481
 30
0.0
  0
POINT
  5
17AC
  8
DEFPOINTS
 62
     0
 10
25.0
 20
63.999999999999481
 30
0.0
  0
POINT
  5
17AD
  8
DEFPOINTS
 62
     0
 10
25.0
 20
83.999999999999474
 30
0.0
  0
ENDBLK
  5
1761
  8
0
  0
BLOCK
  8
0
  2
*D113
 70
     1
 10
0.0
 20
0.0
 30
0.0
  3
*D113
  1

  0
LINE
  5
26FD
  8
SAPA_MATT
 10
76.000000000001194
 20
-65.999946820781531
 30
0.0
 11
76.000000000001194
 21
-108.3138500465783
 31
0.0
  0
LINE
  5
26FE
  8
SAPA_MATT
 10
81.000000000000995
 20
-70.849948021764106
 30
0.0
 11
81.000000000000995
 21
-108.3138500465783
 31
0.0
  0
LINE
  5
26FF
  8
SAPA_MATT
 10
73.000000000001194
 20
-106.8138500465783
 30
0.0
 11
70.000000000001194
 21
-106.8138500465783
 31
0.0
  0
LINE
  5
2700
  8
SAPA_MATT
 10
84.000000000001009
 20
-106.8138500465783
 30
0.0
 11
87.000000000000995
 21
-106.8138500465783
 31
0.0
  0
LINE
  5
2701
  8
SAPA_MATT
 10
76.000000000001194
 20
-106.8138500465783
 30
0.0
 11
81.000000000000995
 21
-106.8138500465783
 31
0.0
  0
SOLID
  5
2702
  8
SAPA_MATT
 10
73.000000000001194
 20
-106.3138500465783
 30
0.0
 11
73.000000000001194
 21
-107.3138500465783
 31
0.0
 12
76.000000000001194
 22
-106.8138500465783
 32
0.0
 13
76.000000000001194
 23
-106.8138500465783
 33
0.0
  0
SOLID
  5
2703
  8
SAPA_MATT
 10
84.000000000001009
 20
-106.3138500465783
 30
0.0
 11
84.000000000001009
 21
-107.3138500465783
 31
0.0
 12
81.000000000000995
 22
-106.8138500465783
 32
0.0
 13
81.000000000000995
 23
-106.8138500465783
 33
0.0
  0
TEXT
  8
SAPA_MATT
  40
3
  5
2719
  62
2
  72
0
  71
0
 10
72.5000
 20
-109.624
 30
0.000000
  1
5
  7
ISO
  0
POINT
  5
2705
  8
DEFPOINTS
 62
     0
 10
76.000000000001194
 20
-64.499946820781531
 30
0.0
  0
POINT
  5
2706
  8
DEFPOINTS
 62
     0
 10
81.000000000000995
 20
-69.349948021764106
 30
0.0
  0
POINT
  5
2707
  8
DEFPOINTS
 62
     0
 10
81.000000000000995
 20
-106.8138500465783
 30
0.0
  0
ENDBLK
  5
176D
  8
0
  0
BLOCK
  8
0
  2
*D114
 70
     1
 10
0.0
 20
0.0
 30
0.0
  3
*D114
  1

  0
LINE
  5
26F4
  8
SAPA_MATT
 10
81.000000000000995
 20
-70.849948021764106
 30
0.0
 11
81.000000000000995
 21
-108.3138500465783
 31
0.0
  0
LINE
  5
26F5
  8
SAPA_MATT
 10
169.99999999978931
 20
-73.199947648272314
 30
0.0
 11
169.99999999978931
 21
-108.3138500465783
 31
0.0
  0
LINE
  5
26F6
  8
SAPA_MATT
 10
84.000000000001009
 20
-106.8138500465783
 30
0.0
 11
166.99999999978931
 21
-106.8138500465783
 31
0.0
  0
SOLID
  5
26F7
  8
SAPA_MATT
 10
84.000000000001009
 20
-106.3138500465783
 30
0.0
 11
84.000000000001009
 21
-107.3138500465783
 31
0.0
 12
81.000000000000995
 22
-106.8138500465783
 32
0.0
 13
81.000000000000995
 23
-106.8138500465783
 33
0.0
  0
SOLID
  5
26F8
  8
SAPA_MATT
 10
166.99999999978931
 20
-106.3138500465783
 30
0.0
 11
166.99999999978931
 21
-107.3138500465783
 31
0.0
 12
169.99999999978931
 22
-106.8138500465783
 32
0.0
 13
169.99999999978931
 23
-106.8138500465783
 33
0.0
  0
TEXT
  8
SAPA_MATT
  40
3
  5
271A
  62
2
  72
0
  71
0
 10
119.500
 20
-109.624
 30
0.000000
  1
89
  7
ISO
  0
POINT
  5
26FA
  8
DEFPOINTS
 62
     0
 10
81.000000000000995
 20
-69.349948021764106
 30
0.0
  0
POINT
  5
26FB
  8
DEFPOINTS
 62
     0
 10
169.99999999978931
 20
-71.699947648272314
 30
0.0
  0
POINT
  5
26FC
  8
DEFPOINTS
 62
     0
 10
169.99999999978931
 20
-106.8138500465783
 30
0.0
  0
ENDBLK
  5
177B
  8
0
  0
BLOCK
  8
0
  2
*D115
 70
     1
 10
0.0
 20
0.0
 30
0.0
  3
*D115
  1

  0
LINE
  5
2708
  8
SAPA_MATT
 10
16.000000000000171
 20
-78.54644660940528
 30
0.0
 11
16.00000000000016
 21
-108.3138500465783
 31
0.0
  0
LINE
  5
2709
  8
SAPA_MATT
 10
76.000000000001194
 20
-65.999946820781531
 30
0.0
 11
76.000000000001194
 21
-108.3138500465783
 31
0.0
  0
LINE
  5
270A
  8
SAPA_MATT
 10
19.000000000000171
 20
-106.8138500465783
 30
0.0
 11
73.000000000001194
 21
-106.8138500465783
 31
0.0
  0
SOLID
  5
270B
  8
SAPA_MATT
 10
19.000000000000171
 20
-106.3138500465783
 30
0.0
 11
19.000000000000171
 21
-107.3138500465783
 31
0.0
 12
16.00000000000016
 22
-106.8138500465783
 32
0.0
 13
16.00000000000016
 23
-106.8138500465783
 33
0.0
  0
SOLID
  5
270C
  8
SAPA_MATT
 10
73.000000000001194
 20
-106.3138500465783
 30
0.0
 11
73.000000000001194
 21
-107.3138500465783
 31
0.0
 12
76.000000000001194
 22
-106.8138500465783
 32
0.0
 13
76.000000000001194
 23
-106.8138500465783
 33
0.0
  0
TEXT
  8
SAPA_MATT
  40
3
  5
271B
  62
2
  72
0
  71
0
 10
40.0000
 20
-109.624
 30
0.000000
  1
60
  7
ISO
  0
POINT
  5
270E
  8
DEFPOINTS
 62
     0
 10
16.000000000000171
 20
-77.04644660940528
 30
0.0
  0
POINT
  5
270F
  8
DEFPOINTS
 62
     0
 10
76.000000000001194
 20
-64.499946820781531
 30
0.0
  0
POINT
  5
2710
  8
DEFPOINTS
 62
     0
 10
76.000000000001194
 20
-106.8138500465783
 30
0.0
  0
ENDBLK
  5
179B
  8
0
  0
BLOCK
  8
0
  2
*U116
 70
     1
 10
0.0
 20
0.0
 30
0.0
  3
*U116
  1

  0
TEXT
  5
182F
  8
SAPA_ARTIKELNR
 10
-14.18762178014717
 20
-91.758745396285804
 30
0.0
 40
3.5
  1
42844/42845
  7
ISO
  0
ENDBLK
  5
1831
  8
0
  0
BLOCK
  8
0
  2
*U117
 70
     1
 10
0.0
 20
0.0
 30
0.0
  3
*U117
  1

  0
TEXT
  5
1833
  8
SAPA_ARTIKELNR
 10
-5.7895021366381112
 20
67.057004625961554
 30
0.0
 40
3.5
  1
68281
  7
ISO
  0
ENDBLK
  5
1835
  8
0
  0
BLOCK
  8
0
  2
*U118
 70
     1
 10
0.0
 20
0.0
 30
0.0
  3
*U118
  1

  0
TEXT
  5
185E
  8
SAPA_ARTIKELNR
 10
55.242067886933981
 20
19.947120488328348
 30
0.0
 40
3.5
  1
86423
  7
ISO
  0
ENDBLK
  5
1860
  8
0
  0
BLOCK
  8
0
  2
*U119
 70
     1
 10
0.0
 20
0.0
 30
0.0
  3
*U119
  1

  0
TEXT
  5
1862
  8
SAPA_ARTIKELNR
 10
117.241379097847
 20
19.947120488328348
 30
0.0
 40
3.5
  1
86424
  7
ISO
  0
ENDBLK
  5
1864
  8
0
  0
BLOCK
  8
0
  2
*U120
 70
     1
 10
0.0
 20
0.0
 30
0.0
  3
*U120
  1

  0
SOLID
  5
1AE1
  8
SAPA_PROFIL
  6
CONTINUOUS
 62
     2
 10
86.831507495362601
 20
-67.06734002555504
 30
0.1
 11
86.654730800065977
 21
-67.140563330258402
 31
0.1
 12
87.008284190659239
 22
-67.140563330258402
 32
0.1
 13
87.008284190659239
 23
-67.140563330258402
 33
0.1
210
0.0
220
0.0
230
1.0
  0
SOLID
  5
1AE2
  8
SAPA_PROFIL
  6
CONTINUOUS
 62
     2
 10
86.654730800065977
 20
-67.140563330258402
 30
0.1
 11
86.581507495362587
 21
-67.31734002555504
 31
0.1
 12
87.081507495362601
 22
-67.31734002555504
 32
0.1
 13
87.081507495362601
 23
-67.31734002555504
 33
0.1
210
0.0
220
0.0
230
1.0
  0
SOLID
  5
1AE3
  8
SAPA_PROFIL
  6
CONTINUOUS
 62
     2
 10
-86.654730800065977
 20
-67.140563330258402
 30
-0.1
 11
-87.008284190659239
 21
-67.140563330258402
 31
-0.1
 12
-87.081507495362601
 22
-67.31734002555504
 32
-0.1
 13
-87.081507495362601
 23
-67.31734002555504
 33
-0.1
210
0.0
220
0.0
230
-1.0
  0
SOLID
  5
1AE4
  8
SAPA_PROFIL
  6
CONTINUOUS
 62
     2
 10
-86.654730800065977
 20
-67.494116720851679
 30
-0.1
 11
-87.008284190659239
 21
-67.494116720851679
 31
-0.1
 12
-86.831507495362601
 22
-67.56734002555504
 32
-0.1
 13
-86.831507495362601
 23
-67.56734002555504
 33
-0.1
210
0.0
220
0.0
230
-1.0
  0
SOLID
  5
1AE5
  8
SAPA_PROFIL
  6
CONTINUOUS
 62
     2
 10
86.581507495362587
 20
-67.31734002555504
 30
0.1
 11
86.654730800065977
 21
-67.494116720851679
 31
0.1
 12
87.008284190659239
 22
-67.494116720851679
 32
0.1
 13
87.008284190659239
 23
-67.494116720851679
 33
0.1
210
0.0
220
0.0
230
1.0
  0
SOLID
  5
1AE6
  8
SAPA_PROFIL
  6
CONTINUOUS
 62
     2
 10
-86.581507495362587
 20
-67.31734002555504
 30
-0.1
 11
-87.081507495362601
 21
-67.31734002555504
 31
-0.1
 12
-87.008284190659239
 22
-67.494116720851679
 32
-0.1
 13
-87.008284190659239
 23
-67.494116720851679
 33
-0.1
210
0.0
220
0.0
230
-1.0
  0
LINE
  5
1AE7
  8
SAPA_PROFIL
  6
CONTINUOUS
 62
     2
 10
86.831507495362601
 20
-67.06734002555504
 30
0.1
 11
86.654730800065977
 21
-67.140563330258402
 31
0.1
  0
LINE
  5
1AE8
  8
SAPA_PROFIL
  6
CONTINUOUS
 62
     2
 10
87.008284190659239
 20
-67.140563330258402
 30
0.1
 11
86.831507495362601
 21
-67.06734002555504
 31
0.1
  0
LINE
  5
1AE9
  8
SAPA_PROFIL
  6
CONTINUOUS
 62
     2
 10
86.654730800065977
 20
-67.140563330258402
 30
0.1
 11
86.581507495362587
 21
-67.31734002555504
 31
0.1
  0
LINE
  5
1AEA
  8
SAPA_PROFIL
  6
CONTINUOUS
 62
     2
 10
87.008284190659239
 20
-67.140563330258402
 30
0.1
 11
87.081507495362601
 21
-67.31734002555504
 31
0.1
  0
LINE
  5
1AEB
  8
SAPA_PROFIL
  6
CONTINUOUS
 62
     2
 10
87.008284190659239
 20
-67.494116720851679
 30
0.1
 11
86.831507495362601
 21
-67.56734002555504
 31
0.1
  0
LINE
  5
1AEC
  8
SAPA_PROFIL
  6
CONTINUOUS
 62
     2
 10
86.831507495362601
 20
-67.56734002555504
 30
0.1
 11
86.654730800065977
 21
-67.494116720851679
 31
0.1
  0
LINE
  5
1AED
  8
SAPA_PROFIL
  6
CONTINUOUS
 62
     2
 10
86.581507495362587
 20
-67.31734002555504
 30
0.1
 11
86.654730800065977
 21
-67.494116720851679
 31
0.1
  0
LINE
  5
1AEE
  8
SAPA_PROFIL
  6
CONTINUOUS
 62
     2
 10
87.081507495362601
 20
-67.31734002555504
 30
0.1
 11
87.008284190659239
 21
-67.494116720851679
 31
0.1
  0
ENDBLK
  5
1AF0
  8
0
  0
BLOCK
  8
0
  2
*U121
 70
     1
 10
0.0
 20
0.0
 30
0.0
  3
*U121
  1

  0
SOLID
  5
20EB
  8
SAPA_PROFIL
  6
CONTINUOUS
 62
     2
 10
86.831507495362601
 20
-67.06734002555504
 30
0.1
 11
86.654730800065977
 21
-67.140563330258402
 31
0.1
 12
87.008284190659239
 22
-67.140563330258402
 32
0.1
 13
87.008284190659239
 23
-67.140563330258402
 33
0.1
210
0.0
220
0.0
230
1.0
  0
SOLID
  5
20EC
  8
SAPA_PROFIL
  6
CONTINUOUS
 62
     2
 10
86.654730800065977
 20
-67.140563330258402
 30
0.1
 11
86.581507495362587
 21
-67.31734002555504
 31
0.1
 12
87.081507495362601
 22
-67.31734002555504
 32
0.1
 13
87.081507495362601
 23
-67.31734002555504
 33
0.1
210
0.0
220
0.0
230
1.0
  0
SOLID
  5
20ED
  8
SAPA_PROFIL
  6
CONTINUOUS
 62
     2
 10
-86.654730800065977
 20
-67.140563330258402
 30
-0.1
 11
-87.008284190659239
 21
-67.140563330258402
 31
-0.1
 12
-87.081507495362601
 22
-67.31734002555504
 32
-0.1
 13
-87.081507495362601
 23
-67.31734002555504
 33
-0.1
210
0.0
220
0.0
230
-1.0
  0
SOLID
  5
20EE
  8
SAPA_PROFIL
  6
CONTINUOUS
 62
     2
 10
-86.654730800065977
 20
-67.494116720851679
 30
-0.1
 11
-87.008284190659239
 21
-67.494116720851679
 31
-0.1
 12
-86.831507495362601
 22
-67.56734002555504
 32
-0.1
 13
-86.831507495362601
 23
-67.56734002555504
 33
-0.1
210
0.0
220
0.0
230
-1.0
  0
SOLID
  5
20EF
  8
SAPA_PROFIL
  6
CONTINUOUS
 62
     2
 10
86.581507495362587
 20
-67.31734002555504
 30
0.1
 11
86.654730800065977
 21
-67.494116720851679
 31
0.1
 12
87.008284190659239
 22
-67.494116720851679
 32
0.1
 13
87.008284190659239
 23
-67.494116720851679
 33
0.1
210
0.0
220
0.0
230
1.0
  0
SOLID
  5
20F0
  8
SAPA_PROFIL
  6
CONTINUOUS
 62
     2
 10
-86.581507495362587
 20
-67.31734002555504
 30
-0.1
 11
-87.081507495362601
 21
-67.31734002555504
 31
-0.1
 12
-87.008284190659239
 22
-67.494116720851679
 32
-0.1
 13
-87.008284190659239
 23
-67.494116720851679
 33
-0.1
210
0.0
220
0.0
230
-1.0
  0
LINE
  5
20F1
  8
SAPA_PROFIL
  6
CONTINUOUS
 62
     2
 10
86.831507495362601
 20
-67.06734002555504
 30
0.1
 11
86.654730800065977
 21
-67.140563330258402
 31
0.1
  0
LINE
  5
20F2
  8
SAPA_PROFIL
  6
CONTINUOUS
 62
     2
 10
87.008284190659239
 20
-67.140563330258402
 30
0.1
 11
86.831507495362601
 21
-67.06734002555504
 31
0.1
  0
LINE
  5
20F3
  8
SAPA_PROFIL
  6
CONTINUOUS
 62
     2
 10
86.654730800065977
 20
-67.140563330258402
 30
0.1
 11
86.581507495362587
 21
-67.31734002555504
 31
0.1
  0
LINE
  5
20F4
  8
SAPA_PROFIL
  6
CONTINUOUS
 62
     2
 10
87.008284190659239
 20
-67.140563330258402
 30
0.1
 11
87.081507495362601
 21
-67.31734002555504
 31
0.1
  0
LINE
  5
20F5
  8
SAPA_PROFIL
  6
CONTINUOUS
 62
     2
 10
87.008284190659239
 20
-67.494116720851679
 30
0.1
 11
86.831507495362601
 21
-67.56734002555504
 31
0.1
  0
LINE
  5
20F6
  8
SAPA_PROFIL
  6
CONTINUOUS
 62
     2
 10
86.831507495362601
 20
-67.56734002555504
 30
0.1
 11
86.654730800065977
 21
-67.494116720851679
 31
0.1
  0
LINE
  5
20F7
  8
SAPA_PROFIL
  6
CONTINUOUS
 62
     2
 10
86.581507495362587
 20
-67.31734002555504
 30
0.1
 11
86.654730800065977
 21
-67.494116720851679
 31
0.1
  0
LINE
  5
20F8
  8
SAPA_PROFIL
  6
CONTINUOUS
 62
     2
 10
87.081507495362601
 20
-67.31734002555504
 30
0.1
 11
87.008284190659239
 21
-67.494116720851679
 31
0.1
  0
ENDBLK
  5
20FA
  8
0
  0
BLOCK
  8
0
  2
*U122
 70
     1
 10
0.0
 20
0.0
 30
0.0
  3
*U122
  1

  0
TEXT
  5
2712
  8
SAPA_MATT
 62
     2
 10
-2.0999999999999992
 20
84.999999999999474
 30
0.0
 40
3.0
  1
50
  7
ISO
  0
ENDBLK
  5
2714
  8
0
  0
BLOCK
  8
0
  2
*U123
 70
     1
 10
0.0
 20
0.0
 30
0.0
  3
*U123
  1

  0
TEXT
  5
2716
  8
SAPA_MATT
 62
     2
 10
-2.0999999999999459
 20
-105.8138500465783
 30
0.0
 40
3.0
  1
32
  7
ISO
  0
ENDBLK
  5
2718
  8
0
  0
ENDSEC
  0
SECTION
  2
ENTITIES
  0
POLYLINE
  5
6FB
  8
SAPA_LIGHT
 66
     1
 10
0.0
 20
0.0
 30
0.0
  0
VERTEX
  5
1819
  8
SAPA_LIGHT
 10
-25.0
 20
64.499999999999474
 30
0.0
  0
VERTEX
  5
181A
  8
SAPA_LIGHT
 10
25.0
 20
64.499999999999446
 30
0.0
  0
VERTEX
  5
181B
  8
SAPA_LIGHT
 10
25.0
 20
-46.853932708651541
 30
0.0
  0
VERTEX
  5
181C
  8
SAPA_LIGHT
 10
4.9999999999999751
 20
-46.853932708651541
 30
0.0
  0
VERTEX
  5
181D
  8
SAPA_LIGHT
 10
4.9999999999999707
 20
-72.499999999998636
 30
0.0
  0
VERTEX
  5
181E
  8
SAPA_LIGHT
 10
16.000000000000391
 20
-72.499999999998636
 30
0.0
  0
VERTEX
  5
181F
  8
SAPA_LIGHT
 10
16.000000000000391
 20
-77.646446609404535
 30
0.0
  0
VERTEX
  5
1820
  8
SAPA_LIGHT
 10
6.968469869991587
 20
-86.423879532509702
 30
0.0
  0
VERTEX
  5
1821
  8
SAPA_LIGHT
 10
-6.9684698699921572
 20
-86.423879532509702
 30
0.0
  0
VERTEX
  5
1822
  8
SAPA_LIGHT
 10
-15.961939766255661
 20
-77.484234934994149
 30
0.0
  0
VERTEX
  5
1823
  8
SAPA_LIGHT
 10
-15.961939766255661
 20
-72.499999999998636
 30
0.0
  0
VERTEX
  5
1824
  8
SAPA_LIGHT
 10
-5.0000000000003304
 20
-72.499999999998636
 30
0.0
  0
VERTEX
  5
1825
  8
SAPA_LIGHT
 10
-5.0000000000003331
 20
-45.499999999998629
 30
0.0
  0
VERTEX
  5
1826
  8
SAPA_LIGHT
 10
-25.00000000000103
 20
-45.499999999998629
 30
0.0
  0
VERTEX
  5
1827
  8
SAPA_LIGHT
 10
-25.00000000000097
 20
64.499999999999474
 30
0.0
  0
SEQEND
  5
1828
  8
SAPA_LIGHT
  0
POLYLINE
  5
6FC
  8
SAPA_LIGHT
 66
     1
 10
0.0
 20
0.0
 30
0.0
  0
VERTEX
  5
1829
  8
SAPA_LIGHT
 10
-40.999999999999773
 20
-72.499999999998636
 30
0.0
  0
VERTEX
  5
182A
  8
SAPA_LIGHT
 10
-10.999999999999771
 20
-72.499999999998636
 30
0.0
  0
VERTEX
  5
182B
  8
SAPA_LIGHT
 10
-10.999999999999771
 20
-45.499999999998629
 30
0.0
  0
VERTEX
  5
182C
  8
SAPA_LIGHT
 10
-40.999999999999773
 20
-45.499999999998629
 30
0.0
  0
SEQEND
  5
182D
  8
SAPA_LIGHT
  0
INSERT
  5
708
  8
0
  2
*U116
 10
0.0
 20
0.0
 30
0.0
  0
INSERT
  5
709
  8
0
  2
*U117
 10
0.0
 20
0.0
 30
0.0
  0
POLYLINE
  5
A58
  8
SAPA_LIGHT
 66
     1
 10
0.0
 20
0.0
 30
0.0
  0
VERTEX
  5
1836
  8
SAPA_LIGHT
 10
183.00000000000119
 20
-63.249947679035238
 30
0.0
  0
VERTEX
  5
1837
  8
SAPA_LIGHT
 10
153.00000000000119
 20
-63.249947679035238
 30
0.0
  0
VERTEX
  5
1838
  8
SAPA_LIGHT
 10
153.00000000000111
 20
-36.249947679035252
 30
0.0
  0
VERTEX
  5
1839
  8
SAPA_LIGHT
 10
183.00000000000119
 20
-36.249947679035252
 30
0.0
  0
SEQEND
  5
183A
  8
SAPA_LIGHT
  0
POLYLINE
  5
AAC
  8
SAPA_LIGHT
 66
     1
 10
0.0
 20
0.0
 30
0.0
  0
VERTEX
  5
183B
  8
SAPA_LIGHT
 10
31.00000000000119
 20
1.800052393359806
 30
0.0
  0
VERTEX
  5
183C
  8
SAPA_LIGHT
 10
170.00000000001481
 20
1.800052393359806
 30
0.0
  0
VERTEX
  5
183D
  8
SAPA_LIGHT
 10
170.00000000001481
 20
-36.249947679035252
 30
0.0
  0
VERTEX
  5
183E
  8
SAPA_LIGHT
 10
148.7887370868213
 20
-36.249947679035238
 30
0.0
  0
VERTEX
  5
183F
  8
SAPA_LIGHT
 10
148.78873708682141
 20
-67.749947649157491
 30
0.0
  0
VERTEX
  5
1840
  8
SAPA_LIGHT
 10
170.00000000000131
 20
-67.749947649157519
 30
0.0
  0
VERTEX
  5
1841
  8
SAPA_LIGHT
 10
170.00000000000139
 20
-72.199947648243267
 30
0.0
  0
VERTEX
  5
1842
  8
SAPA_LIGHT
 10
9.0000000001066951
 20
-72.199947648243196
 30
0.0
  0
VERTEX
  5
1843
  8
SAPA_LIGHT
 10
9.0000000001066969
 20
-46.853932708651541
 30
0.0
  0
VERTEX
  5
1844
  8
SAPA_LIGHT
 10
31.00000000000119
 20
-46.853932708651541
 30
0.0
  0
VERTEX
  5
1845
  8
SAPA_LIGHT
 10
31.00000000000119
 20
1.800052393359806
 30
0.0
  0
SEQEND
  5
1846
  8
SAPA_LIGHT
  0
INSERT
  5
E58
  8
0
  2
*U118
 10
0.0
 20
0.0
 30
0.0
  0
INSERT
  5
E59
  8
0
  2
*U119
 10
0.0
 20
0.0
 30
0.0
  0
INSERT
  5
1512
  8
BYGG-027036$0$KON
 66
     1
  2
BYGG-027036$0$RH
 10
-559.98359050052272
 20
-386.9365731728609
 30
0.0
 43
-1.0
 50
180.0
210
0.0
220
0.0
230
-1.0
  0
ATTRIB
  5
1513
  8
BYGG-027036$0$KON
 10
563.18359050052266
 20
-392.23657317286091
 30
0.0
 40
0.3999999999999772
  1
GGFJ
  7
BYGG-027036$0$SIMPLEX
 71
     4
  2
SÄLJARE
 70
     1
  0
ATTRIB
  5
1514
  8
BYGG-027036$0$KON
 10
563.58359050052275
 20
-388.83657317286088
 30
0.0
 40
0.2999999999999545
  1

  7
BYGG-027036$0$SIMPLEX
 71
     4
 72
     4
 11
563.58359050052275
 21
-388.83657317286088
 31
0.0
  2
DATUM
 70
     0
  0
ATTRIB
  5
1515
  8
BYGG-027036$0$KON
 10
563.38359050052259
 20
-387.83657317286088
 30
0.0
 40
0.3999999999999772
  1

  7
BYGG-027036$0$SIMPLEX
 71
     4
 72
     4
 11
563.38359050052259
 21
-387.83657317286088
 31
0.0
  2
RITAD:
 70
     1
  0
ATTRIB
  5
1516
  8
BYGG-027036$0$KON
 10
570.98359050052272
 20
-389.23657317286091
 30
0.0
 40
0.4400000000000546
  1

  7
BYGG-027036$0$SIMPLEX
 71
     4
 72
     4
 11
570.98359050052272
 21
-389.23657317286091
 31
0.0
  2
BENÄMNING
 70
     0
  0
ATTRIB
  5
1517
  8
BYGG-027036$0$KON
 10
570.98359050052272
 20
-388.4365731728609
 30
0.0
 40
0.4399999999999409
  1

  7
BYGG-027036$0$SIMPLEX
 71
     4
 72
     4
 11
570.98359050052272
 21
-388.4365731728609
 31
0.0
  2
GUMMI-HÅRDHET-FÄRG
 70
     0
  0
ATTRIB
  5
1518
  8
BYGG-027036$0$KON
 10
570.98359050052272
 20
-387.63657317286089
 30
0.0
 40
0.4400000000000546
  1

  7
BYGG-027036$0$SIMPLEX
 71
     4
 72
     4
 11
570.98359050052272
 21
-387.63657317286089
 31
0.0
  2
KUND
 70
     0
  0
ATTRIB
  5
1519
  8
BYGG-027036$0$KON
 10
578.78359050052256
 20
-388.9365731728609
 30
0.0
 40
0.3999999999999772
  1

  7
BYGG-027036$0$SIMPLEX
 71
     4
 72
     4
 11
578.78359050052256
 21
-388.9365731728609
 31
0.0
  2
SKALA:
 70
     1
  0
ATTRIB
  5
151A
  8
BYGG-027036$0$KON
 10
578.3835905005227
 20
-387.73657317286091
 30
0.0
 40
0.3999999999999772
  1

  7
BYGG-027036$0$SIMPLEX
 71
     4
 72
     4
 11
578.3835905005227
 21
-387.73657317286091
 31
0.0
  2
RIT.NR:
 70
     0
  0
ATTRIB
  5
151B
  8
BYGG-027036$0$KON
 10
578.3835905005227
 20
-390.13657317286078
 30
0.0
 40
0.3999999999999772
  1

  7
BYGG-027036$0$SIMPLEX
 71
     4
 72
     4
 11
578.3835905005227
 21
-390.13657317286078
 31
0.0
  2
DET.NR:
 70
     0
  0
SEQEND
  5
1535
  8
BYGG-027036$0$KON
  0
INSERT
  5
151C
  8
BYGG-027036$0$KON
 66
     1
  2
BYGG-027036$0$RH
 10
-559.98359050052272
 20
-386.9365731728609
 30
0.0
 43
-1.0
 50
180.0
210
0.0
220
0.0
230
-1.0
  0
ATTRIB
  5
151D
  8
BYGG-027036$0$KON
 10
570.98359050052272
 20
-389.23657317286091
 30
0.0
 40
0.4400000000000546
  1

  7
BYGG-027036$0$SIMPLEX
 71
     4
 72
     4
 11
570.98359050052272
 21
-389.23657317286091
 31
0.0
  2
BENÄMNING
 70
     0
  0
ATTRIB
  5
151E
  8
BYGG-027036$0$KON
 10
570.98359050052272
 20
-388.4365731728609
 30
0.0
 40
0.4399999999999409
  1

  7
BYGG-027036$0$SIMPLEX
 71
     4
 72
     4
 11
570.98359050052272
 21
-388.4365731728609
 31
0.0
  2
GUMMI-HÅRDHET-FÄRG
 70
     0
  0
ATTRIB
  5
151F
  8
BYGG-027036$0$KON
 10
570.98359050052272
 20
-387.63657317286089
 30
0.0
 40
0.4400000000000546
  1

  7
BYGG-027036$0$SIMPLEX
 71
     4
 72
     4
 11
570.98359050052272
 21
-387.63657317286089
 31
0.0
  2
KUND
 70
     0
  0
ATTRIB
  5
1520
  8
BYGG-027036$0$KON
 10
578.3835905005227
 20
-387.73657317286091
 30
0.0
 40
0.3999999999999772
  1

  7
BYGG-027036$0$SIMPLEX
 71
     4
 72
     4
 11
578.3835905005227
 21
-387.73657317286091
 31
0.0
  2
RIT.NR:
 70
     0
  0
ATTRIB
  5
1521
  8
BYGG-027036$0$KON
 10
578.3835905005227
 20
-390.13657317286078
 30
0.0
 40
0.3999999999999772
  1

  7
BYGG-027036$0$SIMPLEX
 71
     4
 72
     4
 11
578.3835905005227
 21
-390.13657317286078
 31
0.0
  2
DET.NR:
 70
     0
  0
ATTRIB
  5
1522
  8
BYGG-027036$0$KON
 10
578.78359050052256
 20
-388.9365731728609
 30
0.0
 40
0.3999999999999772
  1

  7
BYGG-027036$0$SIMPLEX
 71
     4
 72
     4
 11
578.78359050052256
 21
-388.9365731728609
 31
0.0
  2
SKALA:
 70
     1
  0
ATTRIB
  5
1523
  8
BYGG-027036$0$KON
 10
563.58359050052275
 20
-388.83657317286088
 30
0.0
 40
0.2999999999999545
  1

  7
BYGG-027036$0$SIMPLEX
 71
     4
 72
     4
 11
563.58359050052275
 21
-388.83657317286088
 31
0.0
  2
DATUM
 70
     0
  0
ATTRIB
  5
1524
  8
BYGG-027036$0$KON
 10
563.38359050052259
 20
-387.83657317286088
 30
0.0
 40
0.3999999999999772
  1

  7
BYGG-027036$0$SIMPLEX
 71
     4
 72
     4
 11
563.38359050052259
 21
-387.83657317286088
 31
0.0
  2
RITAD:
 70
     1
  0
ATTRIB
  5
1525
  8
BYGG-027036$0$KON
 10
563.18359050052266
 20
-392.23657317286091
 30
0.0
 40
0.3999999999999772
  1

  7
BYGG-027036$0$SIMPLEX
 71
     4
  2
SÄLJARE
 70
     1
  0
SEQEND
  5
1536
  8
BYGG-027036$0$KON
  0
INSERT
  5
1526
  8
BYGG-027036$0$DIM
 66
     1
  2
BYGG-027036$0$RH
 10
-559.98359050052272
 20
-386.9365731728609
 30
0.0
 43
-1.0
 50
180.0
210
0.0
220
0.0
230
-1.0
  0
ATTRIB
  5
1527
  8
BYGG-027036$0$KON
 10
570.98359050052272
 20
-389.23657317286091
 30
0.0
 40
0.4400000000000546
  1

  7
BYGG-027036$0$SIMPLEX
 71
     4
 72
     4
 11
570.98359050052272
 21
-389.23657317286091
 31
0.0
  2
BENÄMNING
 70
     0
  0
ATTRIB
  5
1528
  8
BYGG-027036$0$KON
 10
570.98359050052272
 20
-388.4365731728609
 30
0.0
 40
0.4399999999999409
  1

  7
BYGG-027036$0$SIMPLEX
 71
     4
 72
     4
 11
570.98359050052272
 21
-388.4365731728609
 31
0.0
  2
GUMMI-HÅRDHET-FÄRG
 70
     0
  0
ATTRIB
  5
1529
  8
BYGG-027036$0$KON
 10
570.98359050052272
 20
-387.63657317286089
 30
0.0
 40
0.4400000000000546
  1

  7
BYGG-027036$0$SIMPLEX
 71
     4
 72
     4
 11
570.98359050052272
 21
-387.63657317286089
 31
0.0
  2
KUND
 70
     0
  0
ATTRIB
  5
152A
  8
BYGG-027036$0$KON
 10
578.3835905005227
 20
-387.73657317286091
 30
0.0
 40
0.3999999999999772
  1

  7
BYGG-027036$0$SIMPLEX
 71
     4
 72
     4
 11
578.3835905005227
 21
-387.73657317286091
 31
0.0
  2
RIT.NR:
 70
     0
  0
ATTRIB
  5
152B
  8
BYGG-027036$0$KON
 10
578.3835905005227
 20
-390.13657317286078
 30
0.0
 40
0.3999999999999772
  1

  7
BYGG-027036$0$SIMPLEX
 71
     4
 72
     4
 11
578.3835905005227
 21
-390.13657317286078
 31
0.0
  2
DET.NR:
 70
     0
  0
ATTRIB
  5
152C
  8
BYGG-027036$0$KON
 10
578.78359050052256
 20
-388.9365731728609
 30
0.0
 40
0.3999999999999772
  1

  7
BYGG-027036$0$SIMPLEX
 71
     4
 72
     4
 11
578.78359050052256
 21
-388.9365731728609
 31
0.0
  2
SKALA:
 70
     1
  0
ATTRIB
  5
152D
  8
BYGG-027036$0$KON
 10
563.58359050052275
 20
-388.83657317286088
 30
0.0
 40
0.2999999999999545
  1

  7
BYGG-027036$0$SIMPLEX
 71
     4
 72
     4
 11
563.58359050052275
 21
-388.83657317286088
 31
0.0
  2
DATUM
 70
     0
  0
ATTRIB
  5
152E
  8
BYGG-027036$0$KON
 10
563.38359050052259
 20
-387.83657317286088
 30
0.0
 40
0.3999999999999772
  1

  7
BYGG-027036$0$SIMPLEX
 71
     4
 72
     4
 11
563.38359050052259
 21
-387.83657317286088
 31
0.0
  2
RITAD:
 70
     1
  0
ATTRIB
  5
152F
  8
BYGG-027036$0$KON
 10
563.18359050052266
 20
-392.23657317286091
 30
0.0
 40
0.3999999999999772
  1

  7
BYGG-027036$0$SIMPLEX
 71
     4
  2
SÄLJARE
 70
     1
  0
SEQEND
  5
1537
  8
BYGG-027036$0$DIM
  0
CIRCLE
  5
167D
  8
SAPA_PROFIL
 62
     2
 10
166.66796481167819
 20
-69.358006485419764
 30
0.0
 40
0.8999999999999985
  0
POLYLINE
  5
167E
  8
SAPA_PROFIL
 62
     2
 66
     1
 10
0.0
 20
0.0
 30
0.0
  0
VERTEX
  5
1EC2
  8
SAPA_PROFIL
 62
     2
 10
168.06796481167819
 20
-68.050000073846718
 30
0.0
  0
VERTEX
  5
1EC3
  8
SAPA_PROFIL
 62
     2
 10
167.87560639168581
 20
-69.140918883999461
 30
0.0
  0
VERTEX
  5
1EC4
  8
SAPA_PROFIL
 62
     2
 10
168.30740295158739
 20
-69.256618423519399
 30
0.0
 42
-0.4430158954262519
  0
VERTEX
  5
1EC5
  8
SAPA_PROFIL
 62
     2
 10
168.44287999913149
 20
-69.520094851626368
 30
0.0
  0
VERTEX
  5
1EC6
  8
SAPA_PROFIL
 62
     2
 10
167.96593180591259
 20
-70.790582599544564
 30
0.0
 42
-0.3125358528825162
  0
VERTEX
  5
1EC7
  8
SAPA_PROFIL
 62
     2
 10
167.59145009278319
 20
-71.050000073846263
 30
0.0
  0
VERTEX
  5
1EC8
  8
SAPA_PROFIL
 62
     2
 10
165.72129477687281
 20
-71.050000073846704
 30
0.0
 42
-0.3125358528825104
  0
VERTEX
  5
1EC9
  8
SAPA_PROFIL
 62
     2
 10
165.3468130637435
 20
-70.790582599544564
 30
0.0
  0
VERTEX
  5
1ECA
  8
SAPA_PROFIL
 62
     2
 10
164.86986487052431
 20
-69.520094851626368
 30
0.0
 42
-0.4430158954262519
  0
VERTEX
  5
1ECB
  8
SAPA_PROFIL
 62
     2
 10
165.00534191806841
 20
-69.256618423519512
 30
0.0
  0
VERTEX
  5
1ECC
  8
SAPA_PROFIL
 62
     2
 10
165.43713847797019
 20
-69.140918883999461
 30
0.0
  0
VERTEX
  5
1ECD
  8
SAPA_PROFIL
 62
     2
 10
165.24487243482801
 20
-68.050000073846718
 30
0.0
  0
SEQEND
  5
1ECE
  8
SAPA_PROFIL
 62
     2
  0
POLYLINE
  5
167F
  8
SAPA_PROFIL
 62
     2
 66
     1
 10
0.0
 20
0.0
 30
0.0
 70
     1
  0
VERTEX
  5
1ECF
  8
SAPA_PROFIL
 62
     2
 10
168.05637243482789
 20
-68.050000073846718
 30
0.0
 42
0.285714285714282
  0
VERTEX
  5
1ED0
  8
SAPA_PROFIL
 62
     2
 10
165.25637243482791
 20
-68.050000073846718
 30
0.0
  0
VERTEX
  5
1ED1
  8
SAPA_PROFIL
 62
     2
 10
163.18259226544001
 20
-68.050000073846263
 30
0.0
 42
-0.3882600129940275
  0
VERTEX
  5
1ED2
  8
SAPA_PROFIL
 62
     2
 10
162.88379076809861
 20
-67.776789347566705
 30
0.0
  0
VERTEX
  5
1ED3
  8
SAPA_PROFIL
 62
     2
 10
162.41758084417211
 20
-63.876789347566607
 30
0.0
 42
-0.4406523138893894
  0
VERTEX
  5
1ED4
  8
SAPA_PROFIL
 62
     2
 10
162.71638234151399
 20
-63.550000073846711
 30
0.0
  0
VERTEX
  5
1ED5
  8
SAPA_PROFIL
 62
     2
 10
164.42617433843429
 20
-63.550000073846711
 30
0.0
 42
-0.3394542588634375
  0
VERTEX
  5
1ED6
  8
SAPA_PROFIL
 62
     2
 10
164.7159520863209
 20
-63.772354360315717
 30
0.0
  0
VERTEX
  5
1ED7
  8
SAPA_PROFIL
 62
     2
 10
164.9183318142523
 20
-63.989940142483299
 30
0.0
 42
0.3394542588633663
  0
VERTEX
  5
1ED8
  8
SAPA_PROFIL
 62
     2
 10
165.2081095621391
 20
-64.212294428952305
 30
0.0
  0
VERTEX
  5
1ED9
  8
SAPA_PROFIL
 62
     2
 10
168.1046353075169
 20
-64.212294428952305
 30
0.0
 42
0.3394542588634373
  0
VERTEX
  5
1EDA
  8
SAPA_PROFIL
 62
     2
 10
168.3944130554035
 20
-63.989940142483299
 30
0.0
  0
VERTEX
  5
1EDB
  8
SAPA_PROFIL
 62
     2
 10
168.59679278333491
 20
-63.772354360315717
 30
0.0
 42
-0.3394542588633662
  0
VERTEX
  5
1EDC
  8
SAPA_PROFIL
 62
     2
 10
168.88657053122171
 20
-63.550000073846711
 30
0.0
  0
VERTEX
  5
1EDD
  8
SAPA_PROFIL
 62
     2
 10
170.59636252814181
 20
-63.550000073846711
 30
0.0
 42
-0.4406523138893994
  0
VERTEX
  5
1EDE
  8
SAPA_PROFIL
 62
     2
 10
170.89516402548341
 20
-63.876789347566607
 30
0.0
  0
VERTEX
  5
1EDF
  8
SAPA_PROFIL
 62
     2
 10
170.42895410155711
 20
-67.776789347566705
 30
0.0
 42
-0.3882600129940462
  0
VERTEX
  5
1EE0
  8
SAPA_PROFIL
 62
     2
 10
170.13015260421579
 20
-68.050000073846718
 30
0.0
  0
VERTEX
  5
1EE1
  8
SAPA_PROFIL
 62
     2
 10
168.06796481167819
 20
-68.050000073846718
 30
0.0
  0
SEQEND
  5
1EE2
  8
SAPA_PROFIL
 62
     2
  0
POLYLINE
  5
1680
  8
SAPA_PROFIL
  6
CONTINUOUS
 66
     1
 10
0.0
 20
0.0
 30
0.0
 70
     1
  0
VERTEX
  5
1EE3
  8
SAPA_PROFIL
  6
CONTINUOUS
 10
165.58311288153871
 20
10.107797028339689
 30
0.0
  0
VERTEX
  5
1EE4
  8
SAPA_PROFIL
  6
CONTINUOUS
 10
150.44457742493151
 20
10.52736051773169
 30
0.0
 42
0.2061234514950211
  0
VERTEX
  5
1EE5
  8
SAPA_PROFIL
  6
CONTINUOUS
 10
150.07717188707019
 20
10.38110582714193
 30
0.0
  0
VERTEX
  5
1EE6
  8
SAPA_PROFIL
  6
CONTINUOUS
 10
148.1464466073374
 20
8.4503805474088072
 30
0.0
 42
-0.1989123673797024
  0
VERTEX
  5
1EE7
  8
SAPA_PROFIL
  6
CONTINUOUS
 10
147.79289321674409
 20
8.3039339380019861
 30
0.0
  0
VERTEX
  5
1EE8
  8
SAPA_PROFIL
  6
CONTINUOUS
 10
143.61211517687909
 20
8.3039339380019861
 30
0.0
 42
-0.6681786379193032
  0
VERTEX
  5
1EE9
  8
SAPA_PROFIL
  6
CONTINUOUS
 10
143.43533848158251
 20
8.7307106332986244
 30
0.0
  0
VERTEX
  5
1EEA
  8
SAPA_PROFIL
  6
CONTINUOUS
 10
144.42253752080421
 20
9.7179096725203031
 30
0.0
 42
-0.4584832902918763
  0
VERTEX
  5
1EEB
  8
SAPA_PROFIL
  6
CONTINUOUS
 10
145.93373633551909
 20
9.6053077286719262
 30
0.0
 42
0.2378770156285958
  0
VERTEX
  5
1EEC
  8
SAPA_PROFIL
  6
CONTINUOUS
 10
146.13475934390161
 20
9.5039339380047316
 30
0.0
  0
VERTEX
  5
1EED
  8
SAPA_PROFIL
  6
CONTINUOUS
 10
147.2958369418958
 20
9.5039339380025005
 30
0.0
 42
0.1989123673801665
  0
VERTEX
  5
1EEE
  8
SAPA_PROFIL
  6
CONTINUOUS
 10
147.6493903324901
 20
9.6503805474092097
 30
0.0
  0
VERTEX
  5
1EEF
  8
SAPA_PROFIL
  6
CONTINUOUS
 10
147.99999999793059
 20
10.00099021284967
 30
0.0
  0
VERTEX
  5
1EF0
  8
SAPA_PROFIL
  6
CONTINUOUS
 10
148.42680759047661
 20
10.4279470404416
 30
0.0
 42
0.1988669396406054
  0
VERTEX
  5
1EF1
  8
SAPA_PROFIL
  6
CONTINUOUS
 10
148.49999999793059
 20
10.6046928330877
 30
0.0
  0
VERTEX
  5
1EF2
  8
SAPA_PROFIL
  6
CONTINUOUS
 10
148.49999999793059
 20
10.75116603992466
 30
0.0
 42
0.4142135623733282
  0
VERTEX
  5
1EF3
  8
SAPA_PROFIL
  6
CONTINUOUS
 10
148.25000099793041
 20
11.00116503992467
 30
0.0
  0
VERTEX
  5
1EF4
  8
SAPA_PROFIL
  6
CONTINUOUS
 10
148.24999999793079
 20
11.00116503992467
 30
0.0
 42
-0.4142135623732616
  0
VERTEX
  5
1EF5
  8
SAPA_PROFIL
  6
CONTINUOUS
 10
147.99999999793059
 20
11.25116503992461
 30
0.0
  0
VERTEX
  5
1EF6
  8
SAPA_PROFIL
  6
CONTINUOUS
 10
147.99999999793059
 20
11.75006484635855
 30
0.0
 42
-0.4209003450991805
  0
VERTEX
  5
1EF7
  8
SAPA_PROFIL
  6
CONTINUOUS
 10
148.2556935086505
 20
12.00000000582147
 30
0.0
 42
0.0067990255081984
  0
VERTEX
  5
1EF8
  8
SAPA_PROFIL
  6
CONTINUOUS
 10
169.49779016963791
 20
11.8050309464129
 30
0.0
 42
-0.4155086472897409
  0
VERTEX
  5
1EF9
  8
SAPA_PROFIL
  6
CONTINUOUS
 10
169.99999999794409
 20
11.305035829777751
 30
0.0
  0
VERTEX
  5
1EFA
  8
SAPA_PROFIL
  6
CONTINUOUS
 10
169.99999999793059
 20
-26.394621398208891
 30
0.0
 42
-0.4142135623716549
  0
VERTEX
  5
1EFB
  8
SAPA_PROFIL
  6
CONTINUOUS
 10
169.6999999979306
 20
-26.69462139821022
 30
0.0
  0
VERTEX
  5
1EFC
  8
SAPA_PROFIL
  6
CONTINUOUS
 10
168.4999999979452
 20
-26.694621398209989
 30
0.0
 42
-0.4142135623732907
  0
VERTEX
  5
1EFD
  8
SAPA_PROFIL
  6
CONTINUOUS
 10
168.1999999979453
 20
-26.3946213982098
 30
0.0
  0
VERTEX
  5
1EFE
  8
SAPA_PROFIL
  6
CONTINUOUS
 10
168.19999999794609
 20
-25.194621398210391
 30
0.0
 42
0.4142135623732116
  0
VERTEX
  5
1EFF
  8
SAPA_PROFIL
  6
CONTINUOUS
 10
167.69999999794609
 20
-24.694621398210192
 30
0.0
  0
VERTEX
  5
1F00
  8
SAPA_PROFIL
  6
CONTINUOUS
 10
158.79999999793191
 20
-24.694621398210192
 30
0.0
 42
-0.4142135623733198
  0
VERTEX
  5
1F01
  8
SAPA_PROFIL
  6
CONTINUOUS
 10
158.49999999793201
 20
-24.39462139821001
 30
0.0
  0
VERTEX
  5
1F02
  8
SAPA_PROFIL
  6
CONTINUOUS
 10
158.49999999793221
 20
-23.694621398209989
 30
0.0
 42
-0.4142135623728995
  0
VERTEX
  5
1F03
  8
SAPA_PROFIL
  6
CONTINUOUS
 10
158.79999999793219
 20
-23.39462139821018
 30
0.0
  0
VERTEX
  5
1F04
  8
SAPA_PROFIL
  6
CONTINUOUS
 10
167.9999999979355
 20
-23.39462139821029
 30
0.0
 42
0.4142135623716508
  0
VERTEX
  5
1F05
  8
SAPA_PROFIL
  6
CONTINUOUS
 10
168.4999999979307
 20
-22.894621398210269
 30
0.0
  0
VERTEX
  5
1F06
  8
SAPA_PROFIL
  6
CONTINUOUS
 10
168.4999999979307
 20
-5.4960660619954034
 30
0.0
 42
0.41421356237163
  0
VERTEX
  5
1F07
  8
SAPA_PROFIL
  6
CONTINUOUS
 10
167.99999999793059
 20
-4.9960660619979036
 30
0.0
  0
VERTEX
  5
1F08
  8
SAPA_PROFIL
  6
CONTINUOUS
 10
146.08582707856621
 20
-4.9960660619979107
 30
0.0
 42
0.4663076581592616
  0
VERTEX
  5
1F09
  8
SAPA_PROFIL
  6
CONTINUOUS
 10
145.7903847526625
 20
-5.3481605152979093
 30
0.0
  0
VERTEX
  5
1F0A
  8
SAPA_PROFIL
  6
CONTINUOUS
 10
145.89544232383409
 20
-5.9439716086965886
 30
0.0
 42
-0.7332303362587812
  0
VERTEX
  5
1F0B
  8
SAPA_PROFIL
  6
CONTINUOUS
 10
145.38786796357471
 20
-6.2081980963540282
 30
0.0
  0
VERTEX
  5
1F0C
  8
SAPA_PROFIL
  6
CONTINUOUS
 10
143.38786796357729
 20
-4.2081980963565151
 30
0.0
 42
-0.6681786379237062
  0
VERTEX
  5
1F0D
  8
SAPA_PROFIL
  6
CONTINUOUS
 10
143.59999999793069
 20
-3.6960660619980281
 30
0.0
  0
VERTEX
  5
1F0E
  8
SAPA_PROFIL
  6
CONTINUOUS
 10
167.99999999793059
 20
-3.6960660619980059
 30
0.0
 42
0.4142135623716217
  0
VERTEX
  5
1F0F
  8
SAPA_PROFIL
  6
CONTINUOUS
 10
168.49999999793059
 20
-3.1960660619955048
 30
0.0
  0
VERTEX
  5
1F10
  8
SAPA_PROFIL
  6
CONTINUOUS
 10
168.4999999979307
 20
7.1089485412402977
 30
0.0
 42
0.40612121347231
  0
SEQEND
  5
1F11
  8
SAPA_PROFIL
  6
CONTINUOUS
  0
POLYLINE
  5
1681
  8
SAPA_PROFIL
 62
     2
 10
165.89999999794571
 20
-30.344621411522329
 30
0.0
 66
     1
 70
     8
  0
VERTEX
  8
SAPA_PROFIL
  5
271C
 10
165.900
 20
-30.3446
 30
0.000000
  70
    32
  0
VERTEX
  8
SAPA_PROFIL
  5
271D
 10
165.896
 20
-30.4428
 30
0.000000
  70
    32
  0
VERTEX
  8
SAPA_PROFIL
  5
271E
 10
165.883
 20
-30.5407
 30
0.000000
  70
    32
  0
VERTEX
  8
SAPA_PROFIL
  5
271F
 10
165.862
 20
-30.6381
 30
0.000000
  70
    32
  0
VERTEX
  8
SAPA_PROFIL
  5
2720
 10
165.833
 20
-30.7348
 30
0.000000
  70
    32
  0
VERTEX
  8
SAPA_PROFIL
  5
2721
 10
165.795
 20
-30.8306
 30
0.000000
  70
    32
  0
VERTEX
  8
SAPA_PROFIL
  5
2722
 10
165.749
 20
-30.9252
 30
0.000000
  70
    32
  0
VERTEX
  8
SAPA_PROFIL
  5
2723
 10
165.695
 20
-31.0184
 30
0.000000
  70
    32
  0
VERTEX
  8
SAPA_PROFIL
  5
2724
 10
165.634
 20
-31.1100
 30
0.000000
  70
    32
  0
VERTEX
  8
SAPA_PROFIL
  5
2725
 10
165.564
 20
-31.1997
 30
0.000000
  70
    32
  0
VERTEX
  8
SAPA_PROFIL
  5
2726
 10
165.487
 20
-31.2874
 30
0.000000
  70
    32
  0
VERTEX
  8
SAPA_PROFIL
  5
2727
 10
165.402
 20
-31.3728
 30
0.000000
  70
    32
  0
VERTEX
  8
SAPA_PROFIL
  5
2728
 10
165.310
 20
-31.4558
 30
0.000000
  70
    32
  0
VERTEX
  8
SAPA_PROFIL
  5
2729
 10
165.211
 20
-31.5360
 30
0.000000
  70
    32
  0
VERTEX
  8
SAPA_PROFIL
  5
272A
 10
165.106
 20
-31.6134
 30
0.000000
  70
    32
  0
VERTEX
  8
SAPA_PROFIL
  5
272B
 10
164.993
 20
-31.6877
 30
0.000000
  70
    32
  0
VERTEX
  8
SAPA_PROFIL
  5
272C
 10
164.875
 20
-31.7588
 30
0.000000
  70
    32
  0
VERTEX
  8
SAPA_PROFIL
  5
272D
 10
164.750
 20
-31.8265
 30
0.000000
  70
    32
  0
VERTEX
  8
SAPA_PROFIL
  5
272E
 10
164.620
 20
-31.8906
 30
0.000000
  70
    32
  0
VERTEX
  8
SAPA_PROFIL
  5
272F
 10
164.485
 20
-31.9510
 30
0.000000
  70
    32
  0
VERTEX
  8
SAPA_PROFIL
  5
2730
 10
164.344
 20
-32.0076
 30
0.000000
  70
    32
  0
VERTEX
  8
SAPA_PROFIL
  5
2731
 10
164.199
 20
-32.0601
 30
0.000000
  70
    32
  0
VERTEX
  8
SAPA_PROFIL
  5
2732
 10
164.050
 20
-32.1085
 30
0.000000
  70
    32
  0
VERTEX
  8
SAPA_PROFIL
  5
2733
 10
163.896
 20
-32.1526
 30
0.000000
  70
    32
  0
VERTEX
  8
SAPA_PROFIL
  5
2734
 10
163.739
 20
-32.1924
 30
0.000000
  70
    32
  0
VERTEX
  8
SAPA_PROFIL
  5
2735
 10
163.579
 20
-32.2277
 30
0.000000
  70
    32
  0
VERTEX
  8
SAPA_PROFIL
  5
2736
 10
163.416
 20
-32.2585
 30
0.000000
  70
    32
  0
VERTEX
  8
SAPA_PROFIL
  5
2737
 10
163.250
 20
-32.2847
 30
0.000000
  70
    32
  0
VERTEX
  8
SAPA_PROFIL
  5
2738
 10
163.083
 20
-32.3062
 30
0.000000
  70
    32
  0
VERTEX
  8
SAPA_PROFIL
  5
2739
 10
162.914
 20
-32.3230
 30
0.000000
  70
    32
  0
VERTEX
  8
SAPA_PROFIL
  5
273A
 10
162.743
 20
-32.3350
 30
0.000000
  70
    32
  0
VERTEX
  8
SAPA_PROFIL
  5
273B
 10
162.572
 20
-32.3422
 30
0.000000
  70
    32
  0
VERTEX
  8
SAPA_PROFIL
  5
273C
 10
162.400
 20
-32.3446
 30
0.000000
  70
    32
  0
VERTEX
  8
SAPA_PROFIL
  5
273D
 10
162.228
 20
-32.3422
 30
0.000000
  70
    32
  0
VERTEX
  8
SAPA_PROFIL
  5
273E
 10
162.057
 20
-32.3350
 30
0.000000
  70
    32
  0
VERTEX
  8
SAPA_PROFIL
  5
273F
 10
161.886
 20
-32.3230
 30
0.000000
  70
    32
  0
VERTEX
  8
SAPA_PROFIL
  5
2740
 10
161.717
 20
-32.3062
 30
0.000000
  70
    32
  0
VERTEX
  8
SAPA_PROFIL
  5
2741
 10
161.550
 20
-32.2847
 30
0.000000
  70
    32
  0
VERTEX
  8
SAPA_PROFIL
  5
2742
 10
161.384
 20
-32.2585
 30
0.000000
  70
    32
  0
VERTEX
  8
SAPA_PROFIL
  5
2743
 10
161.221
 20
-32.2277
 30
0.000000
  70
    32
  0
VERTEX
  8
SAPA_PROFIL
  5
2744
 10
161.061
 20
-32.1924
 30
0.000000
  70
    32
  0
VERTEX
  8
SAPA_PROFIL
  5
2745
 10
160.904
 20
-32.1526
 30
0.000000
  70
    32
  0
VERTEX
  8
SAPA_PROFIL
  5
2746
 10
160.750
 20
-32.1085
 30
0.000000
  70
    32
  0
VERTEX
  8
SAPA_PROFIL
  5
2747
 10
160.601
 20
-32.0601
 30
0.000000
  70
    32
  0
VERTEX
  8
SAPA_PROFIL
  5
2748
 10
160.456
 20
-32.0076
 30
0.000000
  70
    32
  0
VERTEX
  8
SAPA_PROFIL
  5
2749
 10
160.315
 20
-31.9510
 30
0.000000
  70
    32
  0
VERTEX
  8
SAPA_PROFIL
  5
274A
 10
160.180
 20
-31.8906
 30
0.000000
  70
    32
  0
VERTEX
  8
SAPA_PROFIL
  5
274B
 10
160.050
 20
-31.8265
 30
0.000000
  70
    32
  0
VERTEX
  8
SAPA_PROFIL
  5
274C
 10
159.925
 20
-31.7588
 30
0.000000
  70
    32
  0
VERTEX
  8
SAPA_PROFIL
  5
274D
 10
159.807
 20
-31.6877
 30
0.000000
  70
    32
  0
VERTEX
  8
SAPA_PROFIL
  5
274E
 10
159.694
 20
-31.6134
 30
0.000000
  70
    32
  0
VERTEX
  8
SAPA_PROFIL
  5
274F
 10
159.589
 20
-31.5360
 30
0.000000
  70
    32
  0
VERTEX
  8
SAPA_PROFIL
  5
2750
 10
159.490
 20
-31.4558
 30
0.000000
  70
    32
  0
VERTEX
  8
SAPA_PROFIL
  5
2751
 10
159.398
 20
-31.3728
 30
0.000000
  70
    32
  0
VERTEX
  8
SAPA_PROFIL
  5
2752
 10
159.313
 20
-31.2874
 30
0.000000
  70
    32
  0
VERTEX
  8
SAPA_PROFIL
  5
2753
 10
159.236
 20
-31.1997
 30
0.000000
  70
    32
  0
VERTEX
  8
SAPA_PROFIL
  5
2754
 10
159.166
 20
-31.1100
 30
0.000000
  70
    32
  0
VERTEX
  8
SAPA_PROFIL
  5
2755
 10
159.105
 20
-31.0184
 30
0.000000
  70
    32
  0
VERTEX
  8
SAPA_PROFIL
  5
2756
 10
159.051
 20
-30.9252
 30
0.000000
  70
    32
  0
VERTEX
  8
SAPA_PROFIL
  5
2757
 10
159.005
 20
-30.8306
 30
0.000000
  70
    32
  0
VERTEX
  8
SAPA_PROFIL
  5
2758
 10
158.967
 20
-30.7348
 30
0.000000
  70
    32
  0
VERTEX
  8
SAPA_PROFIL
  5
2759
 10
158.938
 20
-30.6381
 30
0.000000
  70
    32
  0
VERTEX
  8
SAPA_PROFIL
  5
275A
 10
158.917
 20
-30.5407
 30
0.000000
  70
    32
  0
VERTEX
  8
SAPA_PROFIL
  5
275B
 10
158.904
 20
-30.4428
 30
0.000000
  70
    32
  0
VERTEX
  8
SAPA_PROFIL
  5
275C
 10
158.900
 20
-30.3446
 30
0.000000
  70
    32
  0
VERTEX
  8
SAPA_PROFIL
  5
275D
 10
158.904
 20
-30.2465
 30
0.000000
  70
    32
  0
VERTEX
  8
SAPA_PROFIL
  5
275E
 10
158.917
 20
-30.1486
 30
0.000000
  70
    32
  0
VERTEX
  8
SAPA_PROFIL
  5
275F
 10
158.938
 20
-30.0512
 30
0.000000
  70
    32
  0
VERTEX
  8
SAPA_PROFIL
  5
2760
 10
158.967
 20
-29.9544
 30
0.000000
  70
    32
  0
VERTEX
  8
SAPA_PROFIL
  5
2761
 10
159.005
 20
-29.8587
 30
0.000000
  70
    32
  0
VERTEX
  8
SAPA_PROFIL
  5
2762
 10
159.051
 20
-29.7641
 30
0.000000
  70
    32
  0
VERTEX
  8
SAPA_PROFIL
  5
2763
 10
159.105
 20
-29.6708
 30
0.000000
  70
    32
  0
VERTEX
  8
SAPA_PROFIL
  5
2764
 10
159.166
 20
-29.5793
 30
0.000000
  70
    32
  0
VERTEX
  8
SAPA_PROFIL
  5
2765
 10
159.236
 20
-29.4895
 30
0.000000
  70
    32
  0
VERTEX
  8
SAPA_PROFIL
  5
2766
 10
159.313
 20
-29.4018
 30
0.000000
  70
    32
  0
VERTEX
  8
SAPA_PROFIL
  5
2767
 10
159.398
 20
-29.3164
 30
0.000000
  70
    32
  0
VERTEX
  8
SAPA_PROFIL
  5
2768
 10
159.490
 20
-29.2335
 30
0.000000
  70
    32
  0
VERTEX
  8
SAPA_PROFIL
  5
2769
 10
159.589
 20
-29.1532
 30
0.000000
  70
    32
  0
VERTEX
  8
SAPA_PROFIL
  5
276A
 10
159.694
 20
-29.0758
 30
0.000000
  70
    32
  0
VERTEX
  8
SAPA_PROFIL
  5
276B
 10
159.807
 20
-29.0015
 30
0.000000
  70
    32
  0
VERTEX
  8
SAPA_PROFIL
  5
276C
 10
159.925
 20
-28.9304
 30
0.000000
  70
    32
  0
VERTEX
  8
SAPA_PROFIL
  5
276D
 10
160.050
 20
-28.8627
 30
0.000000
  70
    32
  0
VERTEX
  8
SAPA_PROFIL
  5
276E
 10
160.180
 20
-28.7986
 30
0.000000
  70
    32
  0
VERTEX
  8
SAPA_PROFIL
  5
276F
 10
160.315
 20
-28.7382
 30
0.000000
  70
    32
  0
VERTEX
  8
SAPA_PROFIL
  5
2770
 10
160.456
 20
-28.6817
 30
0.000000
  70
    32
  0
VERTEX
  8
SAPA_PROFIL
  5
2771
 10
160.601
 20
-28.6292
 30
0.000000
  70
    32
  0
VERTEX
  8
SAPA_PROFIL
  5
2772
 10
160.750
 20
-28.5808
 30
0.000000
  70
    32
  0
VERTEX
  8
SAPA_PROFIL
  5
2773
 10
160.904
 20
-28.5366
 30
0.000000
  70
    32
  0
VERTEX
  8
SAPA_PROFIL
  5
2774
 10
161.061
 20
-28.4969
 30
0.000000
  70
    32
  0
VERTEX
  8
SAPA_PROFIL
  5
2775
 10
161.221
 20
-28.4615
 30
0.000000
  70
    32
  0
VERTEX
  8
SAPA_PROFIL
  5
2776
 10
161.384
 20
-28.4307
 30
0.000000
  70
    32
  0
VERTEX
  8
SAPA_PROFIL
  5
2777
 10
161.550
 20
-28.4046
 30
0.000000
  70
    32
  0
VERTEX
  8
SAPA_PROFIL
  5
2778
 10
161.717
 20
-28.3831
 30
0.000000
  70
    32
  0
VERTEX
  8
SAPA_PROFIL
  5
2779
 10
161.886
 20
-28.3663
 30
0.000000
  70
    32
  0
VERTEX
  8
SAPA_PROFIL
  5
277A
 10
162.057
 20
-28.3543
 30
0.000000
  70
    32
  0
VERTEX
  8
SAPA_PROFIL
  5
277B
 10
162.228
 20
-28.3470
 30
0.000000
  70
    32
  0
VERTEX
  8
SAPA_PROFIL
  5
277C
 10
162.400
 20
-28.3446
 30
0.000000
  70
    32
  0
VERTEX
  8
SAPA_PROFIL
  5
277D
 10
162.572
 20
-28.3470
 30
0.000000
  70
    32
  0
VERTEX
  8
SAPA_PROFIL
  5
277E
 10
162.743
 20
-28.3543
 30
0.000000
  70
    32
  0
VERTEX
  8
SAPA_PROFIL
  5
277F
 10
162.914
 20
-28.3663
 30
0.000000
  70
    32
  0
VERTEX
  8
SAPA_PROFIL
  5
2780
 10
163.083
 20
-28.3831
 30
0.000000
  70
    32
  0
VERTEX
  8
SAPA_PROFIL
  5
2781
 10
163.250
 20
-28.4046
 30
0.000000
  70
    32
  0
VERTEX
  8
SAPA_PROFIL
  5
2782
 10
163.416
 20
-28.4307
 30
0.000000
  70
    32
  0
VERTEX
  8
SAPA_PROFIL
  5
2783
 10
163.579
 20
-28.4615
 30
0.000000
  70
    32
  0
VERTEX
  8
SAPA_PROFIL
  5
2784
 10
163.739
 20
-28.4969
 30
0.000000
  70
    32
  0
VERTEX
  8
SAPA_PROFIL
  5
2785
 10
163.896
 20
-28.5366
 30
0.000000
  70
    32
  0
VERTEX
  8
SAPA_PROFIL
  5
2786
 10
164.050
 20
-28.5808
 30
0.000000
  70
    32
  0
VERTEX
  8
SAPA_PROFIL
  5
2787
 10
164.199
 20
-28.6292
 30
0.000000
  70
    32
  0
VERTEX
  8
SAPA_PROFIL
  5
2788
 10
164.344
 20
-28.6817
 30
0.000000
  70
    32
  0
VERTEX
  8
SAPA_PROFIL
  5
2789
 10
164.485
 20
-28.7382
 30
0.000000
  70
    32
  0
VERTEX
  8
SAPA_PROFIL
  5
278A
 10
164.620
 20
-28.7986
 30
0.000000
  70
    32
  0
VERTEX
  8
SAPA_PROFIL
  5
278B
 10
164.750
 20
-28.8627
 30
0.000000
  70
    32
  0
VERTEX
  8
SAPA_PROFIL
  5
278C
 10
164.875
 20
-28.9304
 30
0.000000
  70
    32
  0
VERTEX
  8
SAPA_PROFIL
  5
278D
 10
164.993
 20
-29.0015
 30
0.000000
  70
    32
  0
VERTEX
  8
SAPA_PROFIL
  5
278E
 10
165.106
 20
-29.0758
 30
0.000000
  70
    32
  0
VERTEX
  8
SAPA_PROFIL
  5
278F
 10
165.211
 20
-29.1532
 30
0.000000
  70
    32
  0
VERTEX
  8
SAPA_PROFIL
  5
2790
 10
165.310
 20
-29.2335
 30
0.000000
  70
    32
  0
VERTEX
  8
SAPA_PROFIL
  5
2791
 10
165.402
 20
-29.3164
 30
0.000000
  70
    32
  0
VERTEX
  8
SAPA_PROFIL
  5
2792
 10
165.487
 20
-29.4018
 30
0.000000
  70
    32
  0
VERTEX
  8
SAPA_PROFIL
  5
2793
 10
165.564
 20
-29.4895
 30
0.000000
  70
    32
  0
VERTEX
  8
SAPA_PROFIL
  5
2794
 10
165.634
 20
-29.5793
 30
0.000000
  70
    32
  0
VERTEX
  8
SAPA_PROFIL
  5
2795
 10
165.695
 20
-29.6708
 30
0.000000
  70
    32
  0
VERTEX
  8
SAPA_PROFIL
  5
2796
 10
165.749
 20
-29.7641
 30
0.000000
  70
    32
  0
VERTEX
  8
SAPA_PROFIL
  5
2797
 10
165.795
 20
-29.8587
 30
0.000000
  70
    32
  0
VERTEX
  8
SAPA_PROFIL
  5
2798
 10
165.833
 20
-29.9544
 30
0.000000
  70
    32
  0
VERTEX
  8
SAPA_PROFIL
  5
2799
 10
165.862
 20
-30.0512
 30
0.000000
  70
    32
  0
VERTEX
  8
SAPA_PROFIL
  5
279A
 10
165.883
 20
-30.1486
 30
0.000000
  70
    32
  0
VERTEX
  8
SAPA_PROFIL
  5
279B
 10
165.896
 20
-30.2465
 30
0.000000
  70
    32
  0
VERTEX
  8
SAPA_PROFIL
  5
279C
 10
165.900
 20
-30.3446
 30
0.000000
  70
    32
  0
SEQEND
  8
SAPA_PROFIL
  5
279D
  0
POLYLINE
  5
1682
  8
SAPA_PROFIL
 62
     2
 66
     1
 10
0.0
 20
0.0
 30
0.0
 70
     1
  0
VERTEX
  5
1F12
  8
SAPA_PROFIL
 62
     2
 10
157.5812192343196
 20
-24.694621398209819
 30
0.0
  0
VERTEX
  5
1F13
  8
SAPA_PROFIL
 62
     2
 10
167.89999999794551
 20
-24.694621398209819
 30
0.0
 42
-0.4142135623730951
  0
VERTEX
  5
1F14
  8
SAPA_PROFIL
 62
     2
 10
168.1999999979455
 20
-24.99462139820983
 30
0.0
  0
VERTEX
  5
1F15
  8
SAPA_PROFIL
 62
     2
 10
168.1999999979455
 20
-26.694621398209819
 30
0.0
  0
VERTEX
  5
1F16
  8
SAPA_PROFIL
 62
     2
 10
170.01370008986589
 20
-26.694621398209819
 30
0.0
 42
-0.4005932428724212
  0
VERTEX
  5
1F17
  8
SAPA_PROFIL
 62
     2
 10
170.31337265758589
 20
-26.98060882685056
 30
0.0
  0
VERTEX
  5
1F18
  8
SAPA_PROFIL
 62
     2
 10
170.79967256566559
 20
-36.180608826850573
 30
0.0
 42
-0.427966335106886
  0
VERTEX
  5
1F19
  8
SAPA_PROFIL
 62
     2
 10
170.49999999794551
 20
-36.494621398209823
 30
0.0
  0
VERTEX
  5
1F1A
  8
SAPA_PROFIL
 62
     2
 10
156.81953534864681
 20
-36.494621398209823
 30
0.0
 42
-0.0195279011117891
  0
VERTEX
  5
1F1B
  8
SAPA_PROFIL
 62
     2
 10
156.78052419853361
 20
-36.493097205212372
 30
0.0
  0
VERTEX
  5
1F1C
  8
SAPA_PROFIL
 62
     2
 10
148.77197769771911
 20
-35.666776174713839
 30
0.0
 42
-0.3915187749346392
  0
VERTEX
  5
1F1D
  8
SAPA_PROFIL
 62
     2
 10
147.8499999979455
 20
-34.669824560708747
 30
0.0
  0
VERTEX
  5
1F1E
  8
SAPA_PROFIL
 62
     2
 10
147.8499999979455
 20
-32.375127943545543
 30
0.0
 42
-0.2613472755167645
  0
VERTEX
  5
1F1F
  8
SAPA_PROFIL
 62
     2
 10
148.08939084342131
 20
-31.948416250972929
 30
0.0
  0
VERTEX
  5
1F20
  8
SAPA_PROFIL
 62
     2
 10
157.0600009252712
 20
-24.841198013064609
 30
0.0
 42
-0.1379343940649207
  0
SEQEND
  5
1F21
  8
SAPA_PROFIL
 62
     2
  0
POLYLINE
  5
1683
  8
SAPA_PROFIL
 66
     1
 10
0.0
 20
0.0
 30
0.0
 70
     1
  0
VERTEX
  5
1F22
  8
SAPA_PROFIL
 10
97.545009244861305
 20
-8.4999999929723185
 30
0.0
  0
VERTEX
  5
1F23
  8
SAPA_PROFIL
 10
101.3977956493615
 20
-8.4999999929723291
 30
0.0
 42
-0.4142135623731784
  0
VERTEX
  5
1F24
  8
SAPA_PROFIL
 10
101.69779564936159
 20
-8.7999999929723973
 30
0.0
  0
VERTEX
  5
1F25
  8
SAPA_PROFIL
 10
101.6977956493615
 20
-9.0999999929727498
 30
0.0
  0
VERTEX
  5
1F26
  8
SAPA_PROFIL
 10
100.7740352186581
 20
-10.699999992972369
 30
0.0
 42
0.5773502691887984
  0
VERTEX
  5
1F27
  8
SAPA_PROFIL
 10
100.9472402994151
 20
-10.99999999297232
 30
0.0
  0
VERTEX
  5
1F28
  8
SAPA_PROFIL
 10
102.33288094547009
 20
-10.999999992972331
 30
0.0
 42
0.2679491924311038
  0
VERTEX
  5
1F29
  8
SAPA_PROFIL
 10
103.1989063492545
 20
-10.4999999929725
 30
0.0
  0
VERTEX
  5
1F2A
  8
SAPA_PROFIL
 10
104.20926931882769
 20
-8.7499999955855383
 30
0.0
 42
-0.2679491932396976
  0
VERTEX
  5
1F2B
  8
SAPA_PROFIL
 10
104.6422820222289
 20
-8.4999999955855134
 30
0.0
  0
VERTEX
  5
1F2C
  8
SAPA_PROFIL
 10
137.2803847556599
 20
-8.4999999955855525
 30
0.0
  0
VERTEX
  5
1F2D
  8
SAPA_PROFIL
 10
137.7999999979306
 20
-8.1999999955855554
 30
0.0
  0
VERTEX
  5
1F2E
  8
SAPA_PROFIL
 10
138.31961524020119
 20
-8.4999999955855525
 30
0.0
  0
VERTEX
  5
1F2F
  8
SAPA_PROFIL
 10
138.6577179736326
 20
-8.4999999955855561
 30
0.0
 42
-0.2679491916226445
  0
VERTEX
  5
1F30
  8
SAPA_PROFIL
 10
139.09073067552481
 20
-8.7499999929724641
 30
0.0
  0
VERTEX
  5
1F31
  8
SAPA_PROFIL
 10
140.10109364660681
 20
-10.499999992972469
 30
0.0
 42
0.2679491924311319
  0
VERTEX
  5
1F32
  8
SAPA_PROFIL
 10
140.9671190503912
 20
-10.999999992972411
 30
0.0
  0
VERTEX
  5
1F33
  8
SAPA_PROFIL
 10
142.35275969644621
 20
-10.999999992972411
 30
0.0
 42
0.5773502691893683
  0
VERTEX
  5
1F34
  8
SAPA_PROFIL
 10
142.52596477720331
 20
-10.69999999297246
 30
0.0
  0
VERTEX
  5
1F35
  8
SAPA_PROFIL
 10
141.6022043464998
 20
-9.0999999929724193
 30
0.0
  0
VERTEX
  5
1F36
  8
SAPA_PROFIL
 10
141.6022043464998
 20
-8.799999992972479
 30
0.0
 42
-0.4142135623732059
  0
VERTEX
  5
1F37
  8
SAPA_PROFIL
 10
141.90220434650001
 20
-8.4999999929724144
 30
0.0
  0
VERTEX
  5
1F38
  8
SAPA_PROFIL
 10
145.75499075100009
 20
-8.4999999929724215
 30
0.0
 42
0.2134217652834387
  0
VERTEX
  5
1F39
  8
SAPA_PROFIL
 10
145.9785975487502
 20
-8.3999999929722993
 30
0.0
 42
-0.7625858545243238
  0
VERTEX
  5
1F3A
  8
SAPA_PROFIL
 10
146.30892362976721
 20
-8.5845791951697823
 30
0.0
  0
VERTEX
  5
1F3B
  8
SAPA_PROFIL
 10
146.25084999277809
 20
-8.7759621951635012
 30
0.0
  0
VERTEX
  5
1F3C
  8
SAPA_PROFIL
 10
145.1662855458064
 20
-10.66180588702456
 30
0.0
  0
VERTEX
  5
1F3D
  8
SAPA_PROFIL
 10
144.8445278175881
 20
-10.651244520797571
 30
0.0
 42
0.5773502691897466
  0
VERTEX
  5
1F3E
  8
SAPA_PROFIL
 10
144.66157407747789
 20
-10.945400821052409
 30
0.0
  0
VERTEX
  5
1F3F
  8
SAPA_PROFIL
 10
144.81370798858671
 20
-11.230083104284059
 30
0.0
 42
0.221694662643019
  0
VERTEX
  5
1F40
  8
SAPA_PROFIL
 10
145.3545878200635
 20
-11.63589200943885
 30
0.0
  0
VERTEX
  5
1F41
  8
SAPA_PROFIL
 10
147.1678182907217
 20
-12.01733860556657
 30
0.0
 42
0.476975532698164
  0
VERTEX
  5
1F42
  8
SAPA_PROFIL
 10
147.5394751656676
 20
-11.7150857810601
 30
0.0
  0
VERTEX
  5
1F43
  8
SAPA_PROFIL
 10
147.539391557784
 20
-10.211984700298091
 30
0.0
  0
VERTEX
  5
1F44
  8
SAPA_PROFIL
 10
147.49154580778551
 20
-10.19746629105099
 30
0.0
 42
-0.4142135623730951
  0
VERTEX
  5
1F45
  8
SAPA_PROFIL
 10
147.29158176327809
 20
-9.8232813355751798
 30
0.0
  0
VERTEX
  5
1F46
  8
SAPA_PROFIL
 10
147.79999999793071
 20
-8.5078676157297988
 30
0.0
  0
VERTEX
  5
1F47
  8
SAPA_PROFIL
 10
147.79999999793051
 20
-5.5097167545562558
 30
0.0
 42
0.2562769736732418
  0
VERTEX
  5
1F48
  8
SAPA_PROFIL
 10
147.70746899961509
 20
-5.341044250344912
 30
0.0
  0
VERTEX
  5
1F49
  8
SAPA_PROFIL
 10
146.4612035004574
 20
-4.5469912441682983
 30
0.0
 42
0.5920056181180006
  0
VERTEX
  5
1F4A
  8
SAPA_PROFIL
 10
145.9999999979307
 20
-4.8000000004853698
 30
0.0
  0
VERTEX
  5
1F4B
  8
SAPA_PROFIL
 10
145.9999999979307
 20
-6.2000000004853471
 30
0.0
 42
-0.4142135623731505
  0
VERTEX
  5
1F4C
  8
SAPA_PROFIL
 10
145.69999999793069
 20
-6.5000000004853868
 30
0.0
  0
VERTEX
  5
1F4D
  8
SAPA_PROFIL
 10
143.2999999979308
 20
-6.5000000004852376
 30
0.0
 42
-0.4142135623729841
  0
VERTEX
  5
1F4E
  8
SAPA_PROFIL
 10
142.99999999793079
 20
-6.2000000004853399
 30
0.0
  0
VERTEX
  5
1F4F
  8
SAPA_PROFIL
 10
142.99999999793079
 20
11.19999999951472
 30
0.0
 42
-0.4142135623730882
  0
VERTEX
  5
1F50
  8
SAPA_PROFIL
 10
143.2999999979308
 20
11.49999999951473
 30
0.0
  0
VERTEX
  5
1F51
  8
SAPA_PROFIL
 10
145.69999999793089
 20
11.499999999514699
 30
0.0
 42
-0.4142135623730118
  0
VERTEX
  5
1F52
  8
SAPA_PROFIL
 10
145.9999999979307
 20
11.199999999514629
 30
0.0
  0
VERTEX
  5
1F53
  8
SAPA_PROFIL
 10
145.9999999979307
 20
9.7999999995146236
 30
0.0
 42
0.5877032589249656
  0
VERTEX
  5
1F54
  8
SAPA_PROFIL
 10
146.4579602050583
 20
9.5449537822045123
 30
0.0
  0
VERTEX
  5
1F55
  8
SAPA_PROFIL
 10
147.90530680268259
 20
10.44135275944671
 30
0.0
 42
0.2596812337301635
  0
VERTEX
  5
1F56
  8
SAPA_PROFIL
 10
147.99999999793079
 20
10.61138357098681
 30
0.0
  0
VERTEX
  5
1F57
  8
SAPA_PROFIL
 10
147.99999999793079
 20
13.300000004346231
 30
0.0
 42
0.4142135623732095
  0
VERTEX
  5
1F58
  8
SAPA_PROFIL
 10
147.7999999979308
 20
13.500000004346219
 30
0.0
  0
VERTEX
  5
1F59
  8
SAPA_PROFIL
 10
104.9999985037806
 20
13.50000000434631
 30
0.0
 42
0.4142135623730067
  0
VERTEX
  5
1F5A
  8
SAPA_PROFIL
 10
102.9999999979306
 20
11.50000149849682
 30
0.0
  0
VERTEX
  5
1F5B
  8
SAPA_PROFIL
 10
102.9999999979306
 20
5.7999992572713976
 30
0.0
 42
-0.4142135623729993
  0
VERTEX
  5
1F5C
  8
SAPA_PROFIL
 10
102.00000074500559
 20
4.8000000043463071
 30
0.0
  0
VERTEX
  5
1F5D
  8
SAPA_PROFIL
 10
94.498980997930545
 20
4.8000000043464217
 30
0.0
 42
0.4142135623730951
  0
VERTEX
  5
1F5E
  8
SAPA_PROFIL
 10
93.498980997930616
 20
3.8000000043464102
 30
0.0
  0
VERTEX
  5
1F5F
  8
SAPA_PROFIL
 10
93.498980997930616
 20
3.302224854931433
 30
0.0
 42
0.4142135623729598
  0
VERTEX
  5
1F60
  8
SAPA_PROFIL
 10
93.698980848515632
 20
3.1022250043463311
 30
0.0
  0
VERTEX
  5
1F61
  8
SAPA_PROFIL
 10
95.296831561109286
 20
3.1022250043464128
 30
0.0
 42
-0.414645992438811
  0
VERTEX
  5
1F62
  8
SAPA_PROFIL
 10
95.496831343197755
 20
2.9019297678858802
 30
0.0
  0
VERTEX
  5
1F63
  8
SAPA_PROFIL
 10
95.498387850139594
 20
-8.5036965589544522
 30
0.0
  0
VERTEX
  5
1F64
  8
SAPA_PROFIL
 10
96.008418232582926
 20
-9.8232813355750555
 30
0.0
 42
-0.4142135623730951
  0
VERTEX
  5
1F65
  8
SAPA_PROFIL
 10
95.808454188075501
 20
-10.19746629105086
 30
0.0
  0
VERTEX
  5
1F66
  8
SAPA_PROFIL
 10
95.760608438077014
 20
-10.21198470029797
 30
0.0
  0
VERTEX
  5
1F67
  8
SAPA_PROFIL
 10
95.760524830193376
 20
-11.715085781059971
 30
0.0
 42
0.4769755326981641
  0
VERTEX
  5
1F68
  8
SAPA_PROFIL
 10
96.132181705139246
 20
-12.017338605566451
 30
0.0
  0
VERTEX
  5
1F69
  8
SAPA_PROFIL
 10
97.945412175797486
 20
-11.635892009438731
 30
0.0
 42
0.2216946626430191
  0
VERTEX
  5
1F6A
  8
SAPA_PROFIL
 10
98.486292007274287
 20
-11.23008310428393
 30
0.0
  0
VERTEX
  5
1F6B
  8
SAPA_PROFIL
 10
98.638425918383064
 20
-10.94540082105229
 30
0.0
 42
0.5773502691897466
  0
VERTEX
  5
1F6C
  8
SAPA_PROFIL
 10
98.455472178272856
 20
-10.65124452079748
 30
0.0
  0
VERTEX
  5
1F6D
  8
SAPA_PROFIL
 10
98.133714450054612
 20
-10.661805887024441
 30
0.0
  0
VERTEX
  5
1F6E
  8
SAPA_PROFIL
 10
97.0491500030829
 20
-8.7759621951633857
 30
0.0
  0
VERTEX
  5
1F6F
  8
SAPA_PROFIL
 10
96.991076366093807
 20
-8.5845791951696651
 30
0.0
 42
-0.7625858545243257
  0
VERTEX
  5
1F70
  8
SAPA_PROFIL
 10
97.321402447110799
 20
-8.399999992972182
 30
0.0
 42
0.2134217652834391
  0
SEQEND
  5
1F71
  8
SAPA_PROFIL
  0
POLYLINE
  5
1684
  8
SAPA_PROFIL
 66
     1
 10
0.0
 20
0.0
 30
0.0
 70
     1
  0
VERTEX
  5
1F72
  8
SAPA_PROFIL
 10
104.9999999979306
 20
11.5000000075645
 30
0.0
  0
VERTEX
  5
1F73
  8
SAPA_PROFIL
 10
106.9999999979306
 20
11.500000007564489
 30
0.0
  0
VERTEX
  5
1F74
  8
SAPA_PROFIL
 10
106.9999999979305
 20
11.400000007564589
 30
0.0
 42
0.4142135623732199
  0
VERTEX
  5
1F75
  8
SAPA_PROFIL
 10
107.1999999979305
 20
11.20000000756451
 30
0.0
  0
VERTEX
  5
1F76
  8
SAPA_PROFIL
 10
108.7999999979305
 20
11.200000007564389
 30
0.0
 42
0.4142135623727933
  0
VERTEX
  5
1F77
  8
SAPA_PROFIL
 10
108.9999999979306
 20
11.400000007564291
 30
0.0
  0
VERTEX
  5
1F78
  8
SAPA_PROFIL
 10
108.9999999979306
 20
11.500000007564489
 30
0.0
  0
VERTEX
  5
1F79
  8
SAPA_PROFIL
 10
137.2999999979306
 20
11.500000007564431
 30
0.0
  0
VERTEX
  5
1F7A
  8
SAPA_PROFIL
 10
137.2999999979308
 20
11.40000000756444
 30
0.0
 42
0.4142135623730847
  0
VERTEX
  5
1F7B
  8
SAPA_PROFIL
 10
137.49999999793079
 20
11.200000007564441
 30
0.0
  0
VERTEX
  5
1F7C
  8
SAPA_PROFIL
 10
139.09999999793081
 20
11.200000007564549
 30
0.0
 42
0.4142135623730847
  0
VERTEX
  5
1F7D
  8
SAPA_PROFIL
 10
139.29999999793071
 20
11.400000007564429
 30
0.0
  0
VERTEX
  5
1F7E
  8
SAPA_PROFIL
 10
139.29999999793071
 20
11.500000007564431
 30
0.0
  0
VERTEX
  5
1F7F
  8
SAPA_PROFIL
 10
140.99999999793079
 20
11.50000000756442
 30
0.0
 42
-0.4142135623730675
  0
VERTEX
  5
1F80
  8
SAPA_PROFIL
 10
141.2999999979306
 20
11.20000000756443
 30
0.0
  0
VERTEX
  5
1F81
  8
SAPA_PROFIL
 10
141.29999999793051
 20
-6.3999999924355579
 30
0.0
 42
-0.4142135623730673
  0
VERTEX
  5
1F82
  8
SAPA_PROFIL
 10
140.99999999793079
 20
-6.6999999924355134
 30
0.0
  0
VERTEX
  5
1F83
  8
SAPA_PROFIL
 10
139.29999999793051
 20
-6.6999999924355089
 30
0.0
  0
VERTEX
  5
1F84
  8
SAPA_PROFIL
 10
139.29999999793071
 20
-6.3999999924354984
 30
0.0
 42
0.4142135623731367
  0
VERTEX
  5
1F85
  8
SAPA_PROFIL
 10
139.09999999793061
 20
-6.1999999924355089
 30
0.0
  0
VERTEX
  5
1F86
  8
SAPA_PROFIL
 10
137.49999999793079
 20
-6.1999999924354494
 30
0.0
 42
0.4142135623732407
  0
VERTEX
  5
1F87
  8
SAPA_PROFIL
 10
137.2999999979306
 20
-6.3999999924356654
 30
0.0
  0
VERTEX
  5
1F88
  8
SAPA_PROFIL
 10
137.2999999979308
 20
-6.6999999924355631
 30
0.0
  0
VERTEX
  5
1F89
  8
SAPA_PROFIL
 10
108.9999999979304
 20
-6.6999999924355018
 30
0.0
  0
VERTEX
  5
1F8A
  8
SAPA_PROFIL
 10
108.9999999979306
 20
-6.3999999924354336
 30
0.0
 42
0.4142135623732199
  0
VERTEX
  5
1F8B
  8
SAPA_PROFIL
 10
108.7999999979305
 20
-6.199999992435445
 30
0.0
  0
VERTEX
  5
1F8C
  8
SAPA_PROFIL
 10
107.1999999979305
 20
-6.1999999924355267
 30
0.0
 42
0.4142135623733448
  0
VERTEX
  5
1F8D
  8
SAPA_PROFIL
 10
106.9999999979306
 20
-6.3999999924356006
 30
0.0
  0
VERTEX
  5
1F8E
  8
SAPA_PROFIL
 10
106.9999999979306
 20
-6.6999999924354423
 30
0.0
  0
VERTEX
  5
1F8F
  8
SAPA_PROFIL
 10
97.499999997930814
 20
-6.6999999924354201
 30
0.0
 42
-0.4142135623732061
  0
VERTEX
  5
1F90
  8
SAPA_PROFIL
 10
97.199999997930718
 20
-6.3999999924354087
 30
0.0
  0
VERTEX
  5
1F91
  8
SAPA_PROFIL
 10
97.199999997930746
 20
2.8000000043464168
 30
0.0
 42
-0.4142135623732059
  0
VERTEX
  5
1F92
  8
SAPA_PROFIL
 10
97.499999997930814
 20
3.100000004346398
 30
0.0
  0
VERTEX
  5
1F93
  8
SAPA_PROFIL
 10
102.00000074500549
 20
3.1000000043463891
 30
0.0
 42
0.414213562373052
  0
VERTEX
  5
1F94
  8
SAPA_PROFIL
 10
104.6999999979305
 20
5.7999992572712236
 30
0.0
  0
VERTEX
  5
1F95
  8
SAPA_PROFIL
 10
104.6999999979305
 20
11.20000000756451
 30
0.0
 42
-0.4142135623732891
  0
SEQEND
  5
1F96
  8
SAPA_PROFIL
  0
POLYLINE
  5
1685
  8
SAPA_PROFIL
 66
     1
 10
0.0
 20
0.0
 30
0.1
 70
     1
  0
VERTEX
  5
1F97
  8
SAPA_PROFIL
 10
103.2003825292542
 20
-48.499999992889897
 30
0.1
 42
0.2679491924311119
  0
VERTEX
  5
1F98
  8
SAPA_PROFIL
 10
102.33435712546989
 20
-47.999999992889997
 30
0.1
  0
VERTEX
  5
1F99
  8
SAPA_PROFIL
 10
100.9487164794148
 20
-47.99999999289011
 30
0.1
 42
0.5773502691897603
  0
VERTEX
  5
1F9A
  8
SAPA_PROFIL
 10
100.775511398658
 20
-48.299999992890072
 30
0.1
  0
VERTEX
  5
1F9B
  8
SAPA_PROFIL
 10
101.69927182936129
 20
-49.899999992889747
 30
0.1
  0
VERTEX
  5
1F9C
  8
SAPA_PROFIL
 10
101.69927182936129
 20
-50.199999992889929
 30
0.1
 42
-0.4142135623728995
  0
VERTEX
  5
1F9D
  8
SAPA_PROFIL
 10
101.3992718293614
 20
-50.49999999288999
 30
0.1
  0
VERTEX
  5
1F9E
  8
SAPA_PROFIL
 10
97.546485424861331
 20
-50.49999999288994
 30
0.1
 42
0.2134217652834313
  0
VERTEX
  5
1F9F
  8
SAPA_PROFIL
 10
97.322878627111251
 20
-50.599999992890062
 30
0.1
 42
-0.7625858545243313
  0
VERTEX
  5
1FA0
  8
SAPA_PROFIL
 10
96.992552546094217
 20
-50.415420790692593
 30
0.1
  0
VERTEX
  5
1FA1
  8
SAPA_PROFIL
 10
97.050626183083324
 20
-50.224037790698858
 30
0.1
  0
VERTEX
  5
1FA2
  8
SAPA_PROFIL
 10
98.135190630055064
 20
-48.338194098837818
 30
0.1
  0
VERTEX
  5
1FA3
  8
SAPA_PROFIL
 10
98.456948358273323
 20
-48.348755465064812
 30
0.1
 42
0.5773502691897454
  0
VERTEX
  5
1FA4
  8
SAPA_PROFIL
 10
98.639902098383473
 20
-48.05459916480995
 30
0.1
  0
VERTEX
  5
1FA5
  8
SAPA_PROFIL
 10
98.487768187274753
 20
-47.769916881578297
 30
0.1
 42
0.2216946626430149
  0
VERTEX
  5
1FA6
  8
SAPA_PROFIL
 10
97.946888355797938
 20
-47.364107976423519
 30
0.1
  0
VERTEX
  5
1FA7
  8
SAPA_PROFIL
 10
96.133657885139726
 20
-46.982661380295802
 30
0.1
 42
0.476975532698164
  0
VERTEX
  5
1FA8
  8
SAPA_PROFIL
 10
95.762001010193813
 20
-47.28491420480227
 30
0.1
  0
VERTEX
  5
1FA9
  8
SAPA_PROFIL
 10
95.762084618077452
 20
-48.788015285564278
 30
0.1
  0
VERTEX
  5
1FAA
  8
SAPA_PROFIL
 10
95.809930368075939
 20
-48.80253369481138
 30
0.1
 42
-0.4142135623730875
  0
VERTEX
  5
1FAB
  8
SAPA_PROFIL
 10
96.009894412583336
 20
-49.176718650287192
 30
0.1
  0
VERTEX
  5
1FAC
  8
SAPA_PROFIL
 10
95.499999994019589
 20
-50.495951652049222
 30
0.1
  0
VERTEX
  5
1FAD
  8
SAPA_PROFIL
 10
95.499999994019561
 20
-70.231478389546055
 30
0.1
 42
-0.3821712090170728
  0
VERTEX
  5
1FAE
  8
SAPA_PROFIL
 10
95.233119778113789
 20
-70.529644584647983
 30
0.1
  0
VERTEX
  5
1FAF
  8
SAPA_PROFIL
 10
88.655148994019584
 20
-71.05548411961297
 30
0.1
 42
-0.4469990000000183
  0
VERTEX
  5
1FB0
  8
SAPA_PROFIL
 10
88.099948994019599
 20
-70.558540119612957
 30
0.1
  0
VERTEX
  5
1FB1
  8
SAPA_PROFIL
 10
88.099948994019584
 20
-68.799999992889951
 30
0.1
 42
0.414213999999998
  0
VERTEX
  5
1FB2
  8
SAPA_PROFIL
 10
87.099948994019599
 20
-67.799999992889951
 30
0.1
  0
VERTEX
  5
1FB3
  8
SAPA_PROFIL
 10
86.832404994019583
 20
-67.799999992889965
 30
0.1
 42
0.2896899999999924
  0
VERTEX
  5
1FB4
  8
SAPA_PROFIL
 10
85.928896994019567
 20
-68.371427992889963
 30
0.1
 42
0.5507599999999715
  0
VERTEX
  5
1FB5
  8
SAPA_PROFIL
 10
86.199948994019564
 20
-68.799999992889951
 30
0.1
  0
VERTEX
  5
1FB6
  8
SAPA_PROFIL
 10
86.499948994019562
 20
-68.799999992889951
 30
0.1
 42
-0.4142140000001125
  0
VERTEX
  5
1FB7
  8
SAPA_PROFIL
 10
86.699948994019564
 20
-68.999999992889968
 30
0.1
  0
VERTEX
  5
1FB8
  8
SAPA_PROFIL
 10
86.699948994019564
 20
-70.099999992889991
 30
0.1
 42
-0.4142139999999939
  0
VERTEX
  5
1FB9
  8
SAPA_PROFIL
 10
85.699948994019564
 20
-71.099999992889991
 30
0.1
  0
VERTEX
  5
1FBA
  8
SAPA_PROFIL
 10
83.399999994019595
 20
-71.099999992889977
 30
0.1
 42
-0.4142139999999918
  0
VERTEX
  5
1FBB
  8
SAPA_PROFIL
 10
82.399999994019595
 20
-70.099999992889977
 30
0.1
  0
VERTEX
  5
1FBC
  8
SAPA_PROFIL
 10
82.399999994019566
 20
-68.999999992889954
 30
0.1
 42
-0.4142139999999378
  0
VERTEX
  5
1FBD
  8
SAPA_PROFIL
 10
82.599999994019598
 20
-68.799999992889951
 30
0.1
  0
VERTEX
  5
1FBE
  8
SAPA_PROFIL
 10
82.899948994019567
 20
-68.799999992889923
 30
0.1
 42
0.5507599999999796
  0
VERTEX
  5
1FBF
  8
SAPA_PROFIL
 10
83.171001994019591
 20
-68.371427992889977
 30
0.1
 42
0.2896900000000027
  0
VERTEX
  5
1FC0
  8
SAPA_PROFIL
 10
82.267493994019574
 20
-67.799999992889937
 30
0.1
  0
VERTEX
  5
1FC1
  8
SAPA_PROFIL
 10
81.999999994019575
 20
-67.799999992889965
 30
0.1
 42
0.4142140000000064
  0
VERTEX
  5
1FC2
  8
SAPA_PROFIL
 10
80.999999994019575
 20
-68.799999992889937
 30
0.1
  0
VERTEX
  5
1FC3
  8
SAPA_PROFIL
 10
80.999999994019618
 20
-70.49999999288994
 30
0.1
 42
0.4142139999999918
  0
VERTEX
  5
1FC4
  8
SAPA_PROFIL
 10
82.999999994019561
 20
-72.499999992889954
 30
0.1
  0
VERTEX
  5
1FC5
  8
SAPA_PROFIL
 10
169.4999999940195
 20
-72.499999992890054
 30
0.1
 42
0.414213999999996
  0
VERTEX
  5
1FC6
  8
SAPA_PROFIL
 10
169.9999999940195
 20
-71.99999999289011
 30
0.1
  0
VERTEX
  5
1FC7
  8
SAPA_PROFIL
 10
169.99999999401939
 20
-68.299999992890122
 30
0.1
 42
0.4142139999999107
  0
VERTEX
  5
1FC8
  8
SAPA_PROFIL
 10
169.69999999401961
 20
-67.999999992890125
 30
0.1
  0
VERTEX
  5
1FC9
  8
SAPA_PROFIL
 10
168.93245499401951
 20
-67.99999999289011
 30
0.1
 42
0.2896899999999864
  0
VERTEX
  5
1FCA
  8
SAPA_PROFIL
 10
168.02894699401961
 20
-68.571427992890094
 30
0.1
 42
0.5507600000000558
  0
VERTEX
  5
1FCB
  8
SAPA_PROFIL
 10
168.29999999401949
 20
-68.999999992890125
 30
0.1
  0
VERTEX
  5
1FCC
  8
SAPA_PROFIL
 10
168.4999999940195
 20
-68.999999992890125
 30
0.1
 42
-0.414214000000073
  0
VERTEX
  5
1FCD
  8
SAPA_PROFIL
 10
168.79999999401949
 20
-69.299999992890108
 30
0.1
  0
VERTEX
  5
1FCE
  8
SAPA_PROFIL
 10
168.79999999401949
 20
-70.799999992890108
 30
0.1
 42
-0.414213999999996
  0
VERTEX
  5
1FCF
  8
SAPA_PROFIL
 10
168.29999999401949
 20
-71.299999992890108
 30
0.1
  0
VERTEX
  5
1FD0
  8
SAPA_PROFIL
 10
164.9999999940195
 20
-71.299999992890108
 30
0.1
 42
-0.4142140000000002
  0
VERTEX
  5
1FD1
  8
SAPA_PROFIL
 10
164.49999999401939
 20
-70.799999992890108
 30
0.1
  0
VERTEX
  5
1FD2
  8
SAPA_PROFIL
 10
164.49999999401939
 20
-69.299999992890108
 30
0.1
 42
-0.4142140000000209
  0
VERTEX
  5
1FD3
  8
SAPA_PROFIL
 10
164.79999999401949
 20
-68.999999992890125
 30
0.1
  0
VERTEX
  5
1FD4
  8
SAPA_PROFIL
 10
164.9999999940195
 20
-68.999999992890181
 30
0.1
 42
0.5507600000000054
  0
VERTEX
  5
1FD5
  8
SAPA_PROFIL
 10
165.2710519940195
 20
-68.571427992890065
 30
0.1
 42
0.2896899999999876
  0
VERTEX
  5
1FD6
  8
SAPA_PROFIL
 10
164.3675439940196
 20
-67.99999999289011
 30
0.1
  0
VERTEX
  5
1FD7
  8
SAPA_PROFIL
 10
163.37007299401949
 20
-67.999999992890125
 30
0.1
 42
0.0436609999999812
  0
VERTEX
  5
1FD8
  8
SAPA_PROFIL
 10
163.2832479940196
 20
-68.007595992890117
 30
0.1
  0
VERTEX
  5
1FD9
  8
SAPA_PROFIL
 10
161.71317599401959
 20
-68.284441992890123
 30
0.1
 42
0.839099999999979
  0
VERTEX
  5
1FDA
  8
SAPA_PROFIL
 10
161.71317599401959
 20
-69.26924999289011
 30
0.1
  0
VERTEX
  5
1FDB
  8
SAPA_PROFIL
 10
162.88682399401961
 20
-69.4761949928901
 30
0.1
 42
-0.363970000000042
  0
VERTEX
  5
1FDC
  8
SAPA_PROFIL
 10
163.2999999940196
 20
-69.968598992890136
 30
0.1
  0
VERTEX
  5
1FDD
  8
SAPA_PROFIL
 10
163.2999999940196
 20
-70.779999992890083
 30
0.1
 42
-0.4373279999999794
  0
VERTEX
  5
1FDE
  8
SAPA_PROFIL
 10
162.76090499401951
 20
-71.278468992890112
 30
0.1
  0
VERTEX
  5
1FDF
  8
SAPA_PROFIL
 10
148.2878467206032
 20
-70.711670506494215
 30
0.1
 42
-0.4023941355298093
  0
VERTEX
  5
1FE0
  8
SAPA_PROFIL
 10
147.99999999401939
 20
-70.411916777667884
 30
0.1
  0
VERTEX
  5
1FE1
  8
SAPA_PROFIL
 10
147.9999999940195
 20
-69.611382992890071
 30
0.1
 42
0.2596810000001062
  0
VERTEX
  5
1FE2
  8
SAPA_PROFIL
 10
147.9053069940195
 20
-69.441351992890077
 30
0.1
  0
VERTEX
  5
1FE3
  8
SAPA_PROFIL
 10
146.4579599940196
 20
-68.544952992889975
 30
0.1
 42
0.5877030000000574
  0
VERTEX
  5
1FE4
  8
SAPA_PROFIL
 10
145.9999999940195
 20
-68.799999992890122
 30
0.1
  0
VERTEX
  5
1FE5
  8
SAPA_PROFIL
 10
145.99999999401939
 20
-70.199999992890085
 30
0.1
 42
-0.4142139999999773
  0
VERTEX
  5
1FE6
  8
SAPA_PROFIL
 10
145.69999999401961
 20
-70.499999992890082
 30
0.1
  0
VERTEX
  5
1FE7
  8
SAPA_PROFIL
 10
143.29999999401949
 20
-70.499999992890082
 30
0.1
 42
-0.4142140000000855
  0
VERTEX
  5
1FE8
  8
SAPA_PROFIL
 10
142.9999999940195
 20
-70.199999992890071
 30
0.1
  0
VERTEX
  5
1FE9
  8
SAPA_PROFIL
 10
142.9999999940195
 20
-52.799999992890093
 30
0.1
 42
-0.4142140000001167
  0
VERTEX
  5
1FEA
  8
SAPA_PROFIL
 10
143.2999999940196
 20
-52.499999992890082
 30
0.1
  0
VERTEX
  5
1FEB
  8
SAPA_PROFIL
 10
145.69999999401961
 20
-52.499999992890082
 30
0.1
 42
-0.4142140000000127
  0
VERTEX
  5
1FEC
  8
SAPA_PROFIL
 10
145.9999999940195
 20
-52.799999992890093
 30
0.1
  0
VERTEX
  5
1FED
  8
SAPA_PROFIL
 10
145.9999999940195
 20
-54.199999992890071
 30
0.1
 42
0.5920054160710117
  0
VERTEX
  5
1FEE
  8
SAPA_PROFIL
 10
146.4612033321344
 20
-54.453008505647858
 30
0.1
  0
VERTEX
  5
1FEF
  8
SAPA_PROFIL
 10
147.70746898834739
 20
-53.65895547582619
 30
0.1
 42
0.2562769852931595
  0
VERTEX
  5
1FF0
  8
SAPA_PROFIL
 10
147.79999999401949
 20
-53.490282966927573
 30
0.1
  0
VERTEX
  5
1FF1
  8
SAPA_PROFIL
 10
147.79999999401949
 20
-50.495951652049037
 30
0.1
  0
VERTEX
  5
1FF2
  8
SAPA_PROFIL
 10
147.2901055754559
 20
-49.176718650287363
 30
0.1
 42
-0.4142135623730875
  0
VERTEX
  5
1FF3
  8
SAPA_PROFIL
 10
147.49006961996329
 20
-48.802533694811537
 30
0.1
  0
VERTEX
  5
1FF4
  8
SAPA_PROFIL
 10
147.53791536996181
 20
-48.788015285564441
 30
0.1
  0
VERTEX
  5
1FF5
  8
SAPA_PROFIL
 10
147.5379989778454
 20
-47.284914204802433
 30
0.1
 42
0.4769755326981641
  0
VERTEX
  5
1FF6
  8
SAPA_PROFIL
 10
147.16634210289959
 20
-46.982661380295959
 30
0.1
  0
VERTEX
  5
1FF7
  8
SAPA_PROFIL
 10
145.35311163224131
 20
-47.364107976423639
 30
0.1
 42
0.2216946626430149
  0
VERTEX
  5
1FF8
  8
SAPA_PROFIL
 10
144.81223180076449
 20
-47.769916881578467
 30
0.1
  0
VERTEX
  5
1FF9
  8
SAPA_PROFIL
 10
144.66009788965579
 20
-48.054599164810107
 30
0.1
 42
0.5773502691897454
  0
VERTEX
  5
1FFA
  8
SAPA_PROFIL
 10
144.84305162976591
 20
-48.348755465064933
 30
0.1
  0
VERTEX
  5
1FFB
  8
SAPA_PROFIL
 10
145.16480935798421
 20
-48.338194098837967
 30
0.1
  0
VERTEX
  5
1FFC
  8
SAPA_PROFIL
 10
146.24937380495589
 20
-50.224037790698993
 30
0.1
  0
VERTEX
  5
1FFD
  8
SAPA_PROFIL
 10
146.30744744194499
 20
-50.415420790692721
 30
0.1
 42
-0.7625858545243333
  0
VERTEX
  5
1FFE
  8
SAPA_PROFIL
 10
145.97712136092801
 20
-50.59999999289019
 30
0.1
 42
0.2134217652834462
  0
VERTEX
  5
1FFF
  8
SAPA_PROFIL
 10
145.7535145631779
 20
-50.499999992890089
 30
0.1
  0
VERTEX
  5
2000
  8
SAPA_PROFIL
 10
141.90072815867779
 20
-50.499999992890082
 30
0.1
 42
-0.4142135623729119
  0
VERTEX
  5
2001
  8
SAPA_PROFIL
 10
141.6007281586779
 20
-50.199999992890021
 30
0.1
  0
VERTEX
  5
2002
  8
SAPA_PROFIL
 10
141.6007281586779
 20
-49.899999992889832
 30
0.1
  0
VERTEX
  5
2003
  8
SAPA_PROFIL
 10
142.52448858938129
 20
-48.299999992890207
 30
0.1
 42
0.5773502691897497
  0
VERTEX
  5
2004
  8
SAPA_PROFIL
 10
142.35128350862439
 20
-47.999999992890082
 30
0.1
  0
VERTEX
  5
2005
  8
SAPA_PROFIL
 10
140.9656428625693
 20
-47.999999992889911
 30
0.1
 42
0.2679491924311136
  0
VERTEX
  5
2006
  8
SAPA_PROFIL
 10
140.09961745878479
 20
-48.499999992889911
 30
0.1
  0
VERTEX
  5
2007
  8
SAPA_PROFIL
 10
139.0892544877027
 20
-50.249999992890103
 30
0.1
 42
-0.2679491924310958
  0
VERTEX
  5
2008
  8
SAPA_PROFIL
 10
138.65624178581049
 20
-50.499999992890068
 30
0.1
  0
VERTEX
  5
2009
  8
SAPA_PROFIL
 10
138.31961523629019
 20
-50.499999992890068
 30
0.1
  0
VERTEX
  5
200A
  8
SAPA_PROFIL
 10
137.79999999401949
 20
-50.799999992890058
 30
0.1
  0
VERTEX
  5
200B
  8
SAPA_PROFIL
 10
137.28038475174881
 20
-50.499999992890061
 30
0.1
  0
VERTEX
  5
200C
  8
SAPA_PROFIL
 10
104.6437582022287
 20
-50.499999992890011
 30
0.1
 42
-0.2679491924311033
  0
VERTEX
  5
200D
  8
SAPA_PROFIL
 10
104.2107455003364
 20
-50.249999992890039
 30
0.1
  0
SEQEND
  5
200E
  8
SAPA_PROFIL
  0
POLYLINE
  5
1686
  8
SAPA_PROFIL
 66
     1
 10
0.0
 20
0.0
 30
0.1
 70
     1
  0
VERTEX
  5
200F
  8
SAPA_PROFIL
 10
139.09999999401961
 20
-52.799999992890079
 30
0.1
  0
VERTEX
  5
2010
  8
SAPA_PROFIL
 10
137.49999999401959
 20
-52.799999992890079
 30
0.1
 42
-0.4142135623730951
  0
VERTEX
  5
2011
  8
SAPA_PROFIL
 10
137.2999999940196
 20
-52.599999992890062
 30
0.1
  0
VERTEX
  5
2012
  8
SAPA_PROFIL
 10
137.2999999940196
 20
-52.299999909016726
 30
0.1
  0
VERTEX
  5
2013
  8
SAPA_PROFIL
 10
101.19999999401961
 20
-52.299999909016663
 30
0.1
  0
VERTEX
  5
2014
  8
SAPA_PROFIL
 10
101.19999999401961
 20
-52.599999992889991
 30
0.1
 42
-0.4142135623730951
  0
VERTEX
  5
2015
  8
SAPA_PROFIL
 10
100.9999999940196
 20
-52.799999992890001
 30
0.1
  0
VERTEX
  5
2016
  8
SAPA_PROFIL
 10
99.399999994019581
 20
-52.799999992890001
 30
0.1
 42
-0.4142135623730951
  0
VERTEX
  5
2017
  8
SAPA_PROFIL
 10
99.199999994019592
 20
-52.599999992889977
 30
0.1
  0
VERTEX
  5
2018
  8
SAPA_PROFIL
 10
99.199999994019592
 20
-52.299999909016663
 30
0.1
  0
VERTEX
  5
2019
  8
SAPA_PROFIL
 10
97.499999994019603
 20
-52.299999909016648
 30
0.1
 42
0.4142135623730951
  0
VERTEX
  5
201A
  8
SAPA_PROFIL
 10
97.199999994019592
 20
-52.59999990901666
 30
0.1
  0
VERTEX
  5
201B
  8
SAPA_PROFIL
 10
97.199999994019564
 20
-70.199999992889985
 30
0.1
 42
0.4142135623730951
  0
VERTEX
  5
201C
  8
SAPA_PROFIL
 10
97.499999994019575
 20
-70.499999992889983
 30
0.1
  0
VERTEX
  5
201D
  8
SAPA_PROFIL
 10
99.199999994019549
 20
-70.499999992889983
 30
0.1
  0
VERTEX
  5
201E
  8
SAPA_PROFIL
 10
99.199999994019549
 20
-70.39999999288996
 30
0.1
 42
-0.4142135623730951
  0
VERTEX
  5
201F
  8
SAPA_PROFIL
 10
99.399999994019552
 20
-70.199999992889985
 30
0.1
  0
VERTEX
  5
2020
  8
SAPA_PROFIL
 10
100.9999999940195
 20
-70.199999992889985
 30
0.1
 42
-0.4142135623730951
  0
VERTEX
  5
2021
  8
SAPA_PROFIL
 10
101.19999999401951
 20
-70.39999999288996
 30
0.1
  0
VERTEX
  5
2022
  8
SAPA_PROFIL
 10
101.19999999401951
 20
-70.499999992889997
 30
0.1
  0
VERTEX
  5
2023
  8
SAPA_PROFIL
 10
137.2999999940196
 20
-70.499999992890054
 30
0.1
  0
VERTEX
  5
2024
  8
SAPA_PROFIL
 10
137.2999999940196
 20
-70.399999992890031
 30
0.1
 42
-0.4142135623730951
  0
VERTEX
  5
2025
  8
SAPA_PROFIL
 10
137.4999999940195
 20
-70.199999992890056
 30
0.1
  0
VERTEX
  5
2026
  8
SAPA_PROFIL
 10
139.09999999401961
 20
-70.199999992890071
 30
0.1
 42
-0.4142135623730951
  0
VERTEX
  5
2027
  8
SAPA_PROFIL
 10
139.2999999940196
 20
-70.399999992890045
 30
0.1
  0
VERTEX
  5
2028
  8
SAPA_PROFIL
 10
139.2999999940196
 20
-70.499999992890054
 30
0.1
  0
VERTEX
  5
2029
  8
SAPA_PROFIL
 10
140.99999999401959
 20
-70.499999992890054
 30
0.1
 42
0.4142135623730951
  0
VERTEX
  5
202A
  8
SAPA_PROFIL
 10
141.29999999401949
 20
-70.199999992890071
 30
0.1
  0
VERTEX
  5
202B
  8
SAPA_PROFIL
 10
141.2999999940196
 20
-52.599999909016752
 30
0.1
 42
0.4142135623730951
  0
VERTEX
  5
202C
  8
SAPA_PROFIL
 10
140.99999999401959
 20
-52.299999909016741
 30
0.1
  0
VERTEX
  5
202D
  8
SAPA_PROFIL
 10
139.2999999940196
 20
-52.299999909016741
 30
0.1
  0
VERTEX
  5
202E
  8
SAPA_PROFIL
 10
139.2999999940196
 20
-52.599999992890062
 30
0.1
 42
-0.4142135623730951
  0
SEQEND
  5
202F
  8
SAPA_PROFIL
  0
POLYLINE
  5
1687
  8
SAPA_PROFIL
 62
     4
 66
     1
 10
0.0
 20
0.0
 30
0.0
  0
VERTEX
  5
2030
  8
SAPA_PROFIL
 62
     4
 10
145.09663288463821
 20
-20.450670870618019
 30
0.0
 42
0.5571646428658034
  0
VERTEX
  5
2031
  8
SAPA_PROFIL
 62
     4
 10
144.22891397048269
 20
-20.987631374754841
 30
0.0
  0
VERTEX
  5
2032
  8
SAPA_PROFIL
 62
     4
 10
144.22891397048309
 20
-38.012368611276038
 30
0.0
 42
0.5571645048035741
  0
VERTEX
  5
2033
  8
SAPA_PROFIL
 62
     4
 10
145.09663265834931
 20
-38.549329228237099
 30
0.0
  0
VERTEX
  5
2034
  8
SAPA_PROFIL
 62
     4
 10
146.7627733144173
 20
-37.718622140690407
 30
0.0
 42
0.284385813979063
  0
VERTEX
  5
2035
  8
SAPA_PROFIL
 62
     4
 10
146.9289139704847
 20
-37.450141832210058
 30
0.0
  0
VERTEX
  5
2036
  8
SAPA_PROFIL
 62
     4
 10
146.92891397048481
 20
-21.54985815382074
 30
0.0
 42
0.2843858139786238
  0
VERTEX
  5
2037
  8
SAPA_PROFIL
 62
     4
 10
146.76277331441781
 20
-21.281377845340462
 30
0.0
  0
VERTEX
  5
2038
  8
SAPA_PROFIL
 62
     4
 10
145.09663265834851
 20
-20.45067075779329
 30
0.0
  0
SEQEND
  5
2039
  8
SAPA_PROFIL
 62
     4
  0
POLYLINE
  5
1688
  8
SAPA_PROFIL
 62
     4
 66
     1
 10
0.0
 20
0.0
 30
0.0
 70
     1
  0
VERTEX
  5
203A
  8
SAPA_PROFIL
 62
     4
 10
147.2857454849823
 20
-43.917611177682687
 30
0.0
  0
VERTEX
  5
203B
  8
SAPA_PROFIL
 62
     4
 10
147.69230568098641
 20
-44.18163445605871
 30
0.0
 42
-0.2539676464751066
  0
VERTEX
  5
203C
  8
SAPA_PROFIL
 62
     4
 10
147.82891397048249
 20
-44.433235626443413
 30
0.0
  0
VERTEX
  5
203D
  8
SAPA_PROFIL
 62
     4
 10
147.82891397048249
 20
-45.81473521164876
 30
0.0
 42
-0.3152987888790479
  0
VERTEX
  5
203E
  8
SAPA_PROFIL
 62
     4
 10
147.49992404214439
 20
-46.284581522041073
 30
0.0
  0
VERTEX
  5
203F
  8
SAPA_PROFIL
 62
     4
 10
145.03909385169311
 20
-47.180250462949672
 30
0.0
 42
0.2694959974287434
  0
VERTEX
  5
2040
  8
SAPA_PROFIL
 62
     4
 10
144.8459618773492
 20
-47.411769509351032
 30
0.0
 42
0.0612686379508233
  0
VERTEX
  5
2041
  8
SAPA_PROFIL
 62
     4
 10
144.8323785067187
 20
-47.704444942204297
 30
0.0
  0
VERTEX
  5
2042
  8
SAPA_PROFIL
 62
     4
 10
144.6306418279899
 20
-48.05386311951257
 30
0.0
 42
0.5773502691891679
  0
VERTEX
  5
2043
  8
SAPA_PROFIL
 62
     4
 10
144.81250716278441
 20
-48.368863119512149
 30
0.0
  0
VERTEX
  5
2044
  8
SAPA_PROFIL
 62
     4
 10
145.0796216909107
 20
-48.36886311951239
 30
0.0
  0
VERTEX
  5
2045
  8
SAPA_PROFIL
 62
     4
 10
145.88830515221909
 20
-49.767390820146659
 30
0.0
 42
-0.1318219888653519
  0
VERTEX
  5
2046
  8
SAPA_PROFIL
 62
     4
 10
145.92859754875639
 20
-49.917563922619003
 30
0.0
  0
VERTEX
  5
2047
  8
SAPA_PROFIL
 62
     4
 10
145.9285975487501
 20
-50.099999993055782
 30
0.0
 42
-0.4142135623724291
  0
VERTEX
  5
2048
  8
SAPA_PROFIL
 62
     4
 10
145.52859754875041
 20
-50.499999993056321
 30
0.0
  0
VERTEX
  5
2049
  8
SAPA_PROFIL
 62
     4
 10
142.12859754874941
 20
-50.499999993054949
 30
0.0
 42
-0.4142135623744271
  0
VERTEX
  5
204A
  8
SAPA_PROFIL
 62
     4
 10
141.72859754874841
 20
-50.099999993055768
 30
0.0
  0
VERTEX
  5
204B
  8
SAPA_PROFIL
 62
     4
 10
141.72859754874781
 20
-49.920384750784457
 30
0.0
 42
-0.1316524975874005
  0
VERTEX
  5
204C
  8
SAPA_PROFIL
 62
     4
 10
141.7687899276134
 20
-49.770384750787649
 30
0.0
  0
VERTEX
  5
204D
  8
SAPA_PROFIL
 62
     4
 10
142.694939374266
 20
-48.166246853785388
 30
0.0
 42
0.1316524975875904
  0
VERTEX
  5
204E
  8
SAPA_PROFIL
 62
     4
 10
142.8289139704807
 20
-47.66624685378369
 30
0.0
  0
VERTEX
  5
204F
  8
SAPA_PROFIL
 62
     4
 10
142.8289139704807
 20
-47.249999993056321
 30
0.0
 42
0.4142135623730951
  0
VERTEX
  5
2050
  8
SAPA_PROFIL
 62
     4
 10
141.8289139704807
 20
-46.249999993056313
 30
0.0
  0
VERTEX
  5
2051
  8
SAPA_PROFIL
 62
     4
 10
138.8289139704834
 20
-46.249999993056313
 30
0.0
 42
-0.9999996830128083
  0
VERTEX
  5
2052
  8
SAPA_PROFIL
 62
     4
 10
138.82891397048161
 20
-45.249999993056313
 30
0.0
  0
VERTEX
  5
2053
  8
SAPA_PROFIL
 62
     4
 10
141.82891397048161
 20
-45.249999993056313
 30
0.0
 42
0.4142135623730951
  0
VERTEX
  5
2054
  8
SAPA_PROFIL
 62
     4
 10
142.82891397048161
 20
-44.249999993056321
 30
0.0
  0
VERTEX
  5
2055
  8
SAPA_PROFIL
 62
     4
 10
142.82891397048169
 20
-14.749999992971739
 30
0.0
 42
0.4142135623730951
  0
VERTEX
  5
2056
  8
SAPA_PROFIL
 62
     4
 10
141.82891397048169
 20
-13.74999999297173
 30
0.0
  0
VERTEX
  5
2057
  8
SAPA_PROFIL
 62
     4
 10
138.82891397048351
 20
-13.74999999297173
 30
0.0
 42
-0.9999999999999998
  0
VERTEX
  5
2058
  8
SAPA_PROFIL
 62
     4
 10
138.82891397048351
 20
-12.74999999297173
 30
0.0
  0
VERTEX
  5
2059
  8
SAPA_PROFIL
 62
     4
 10
141.82891397048169
 20
-12.74999999297173
 30
0.0
 42
0.4142135623736278
  0
VERTEX
  5
205A
  8
SAPA_PROFIL
 62
     4
 10
142.82891397048169
 20
-11.749999992971739
 30
0.0
  0
VERTEX
  5
205B
  8
SAPA_PROFIL
 62
     4
 10
142.82891397048169
 20
-11.333753132245279
 30
0.0
 42
0.1316524975874375
  0
VERTEX
  5
205C
  8
SAPA_PROFIL
 62
     4
 10
142.69493937426569
 20
-10.83375313224508
 30
0.0
  0
VERTEX
  5
205D
  8
SAPA_PROFIL
 62
     4
 10
141.76878992761351
 20
-9.2296152352431235
 30
0.0
 42
-0.1316524975874
  0
VERTEX
  5
205E
  8
SAPA_PROFIL
 62
     4
 10
141.7285975487479
 20
-9.0796152352435797
 30
0.0
  0
VERTEX
  5
205F
  8
SAPA_PROFIL
 62
     4
 10
141.7285975487485
 20
-8.8999999929722762
 30
0.0
 42
-0.4142135623744271
  0
VERTEX
  5
2060
  8
SAPA_PROFIL
 62
     4
 10
142.1285975487495
 20
-8.4999999929731018
 30
0.0
  0
VERTEX
  5
2061
  8
SAPA_PROFIL
 62
     4
 10
145.5285975487505
 20
-8.4999999929717376
 30
0.0
 42
-0.4142135623724291
  0
VERTEX
  5
2062
  8
SAPA_PROFIL
 62
     4
 10
145.92859754875019
 20
-8.8999999929722904
 30
0.0
  0
VERTEX
  5
2063
  8
SAPA_PROFIL
 62
     4
 10
145.9285975487565
 20
-9.0824360634090695
 30
0.0
 42
-0.1318219888653524
  0
VERTEX
  5
2064
  8
SAPA_PROFIL
 62
     4
 10
145.88830515221909
 20
-9.2326091658814136
 30
0.0
  0
VERTEX
  5
2065
  8
SAPA_PROFIL
 62
     4
 10
145.0796216909948
 20
-10.631136866361061
 30
0.0
  0
VERTEX
  5
2066
  8
SAPA_PROFIL
 62
     4
 10
144.8125071627818
 20
-10.631136866361061
 30
0.0
 42
0.577350269189159
  0
VERTEX
  5
2067
  8
SAPA_PROFIL
 62
     4
 10
144.6306418279872
 20
-10.946136866360661
 30
0.0
  0
VERTEX
  5
2068
  8
SAPA_PROFIL
 62
     4
 10
144.8323785066643
 20
-11.29555504357932
 30
0.0
 42
0.0612687673629489
  0
VERTEX
  5
2069
  8
SAPA_PROFIL
 62
     4
 10
144.8459618773505
 20
-11.588230476679531
 30
0.0
 42
0.2694959974285039
  0
VERTEX
  5
206A
  8
SAPA_PROFIL
 62
     4
 10
145.03909385169439
 20
-11.81974952308005
 30
0.0
  0
VERTEX
  5
206B
  8
SAPA_PROFIL
 62
     4
 10
147.4999240421476
 20
-12.71541846398973
 30
0.0
 42
-0.3152987888784035
  0
VERTEX
  5
206C
  8
SAPA_PROFIL
 62
     4
 10
147.82891397048419
 20
-13.185264774382951
 30
0.0
  0
VERTEX
  5
206D
  8
SAPA_PROFIL
 62
     4
 10
147.8289139704826
 20
-14.56676435958739
 30
0.0
 42
-0.2539676464741841
  0
VERTEX
  5
206E
  8
SAPA_PROFIL
 62
     4
 10
147.69230568098729
 20
-14.818365529971461
 30
0.0
  0
VERTEX
  5
206F
  8
SAPA_PROFIL
 62
     4
 10
147.2857454849823
 20
-15.08238880834811
 30
0.0
 42
-0.5862177598324623
  0
VERTEX
  5
2070
  8
SAPA_PROFIL
 62
     4
 10
146.82891397048579
 20
-14.82664699310976
 30
0.0
  0
VERTEX
  5
2071
  8
SAPA_PROFIL
 62
     4
 10
146.82891397049349
 20
-13.88547231259995
 30
0.0
 42
0.3152987888813165
  0
VERTEX
  5
2072
  8
SAPA_PROFIL
 62
     4
 10
146.49992404215669
 20
-13.41562600220219
 30
0.0
  0
VERTEX
  5
2073
  8
SAPA_PROFIL
 62
     4
 10
145.29992404214551
 20
-12.97886172107823
 30
0.0
 42
0.5205670505515651
  0
VERTEX
  5
2074
  8
SAPA_PROFIL
 62
     4
 10
144.62891397048281
 20
-13.448708031471449
 30
0.0
  0
VERTEX
  5
2075
  8
SAPA_PROFIL
 62
     4
 10
144.6289139704827
 20
-18.465148972140302
 30
0.0
 42
0.3702522326300203
  0
VERTEX
  5
2076
  8
SAPA_PROFIL
 62
     4
 10
144.88337392314841
 20
-18.761672333933639
 30
0.0
 42
0.0982365330332397
  0
VERTEX
  5
2077
  8
SAPA_PROFIL
 62
     4
 10
146.57106069814341
 20
-18.852125092144579
 30
0.0
 42
0.3735060174783164
  0
VERTEX
  5
2078
  8
SAPA_PROFIL
 62
     4
 10
146.82891397048351
 20
-18.555100424233601
 30
0.0
  0
VERTEX
  5
2079
  8
SAPA_PROFIL
 62
     4
 10
146.82891397048439
 20
-18.126646993110938
 30
0.0
 42
-0.5920056181162531
  0
VERTEX
  5
207A
  8
SAPA_PROFIL
 62
     4
 10
147.29011747301229
 20
-17.873638236793539
 30
0.0
  0
VERTEX
  5
207B
  8
SAPA_PROFIL
 62
     4
 10
147.69230568099059
 20
-18.13482231294925
 30
0.0
 42
-0.2539676464746725
  0
VERTEX
  5
207C
  8
SAPA_PROFIL
 62
     4
 10
147.82891397048601
 20
-18.386423483333012
 30
0.0
  0
VERTEX
  5
207D
  8
SAPA_PROFIL
 62
     4
 10
147.82891397048439
 20
-40.613576502698699
 30
0.0
 42
-0.2539676464741819
  0
VERTEX
  5
207E
  8
SAPA_PROFIL
 62
     4
 10
147.69230568099059
 20
-40.865177673081547
 30
0.0
  0
VERTEX
  5
207F
  8
SAPA_PROFIL
 62
     4
 10
147.2901174730122
 20
-41.126361749235357
 30
0.0
 42
-0.5920055144124249
  0
VERTEX
  5
2080
  8
SAPA_PROFIL
 62
     4
 10
146.82891397048439
 20
-40.873352992919848
 30
0.0
  0
VERTEX
  5
2081
  8
SAPA_PROFIL
 62
     4
 10
146.82891399575939
 20
-40.444899515629629
 30
0.0
 42
0.3735060174775405
  0
VERTEX
  5
2082
  8
SAPA_PROFIL
 62
     4
 10
146.57106072341929
 20
-40.147874847719947
 30
0.0
 42
0.0355900683670349
  0
VERTEX
  5
2083
  8
SAPA_PROFIL
 62
     4
 10
145.95518713661949
 20
-40.103981283687688
 30
0.0
 42
0.0624282003873116
  0
VERTEX
  5
2084
  8
SAPA_PROFIL
 62
     4
 10
144.88337394842441
 20
-40.238327605930621
 30
0.0
 42
0.3702522326309292
  0
VERTEX
  5
2085
  8
SAPA_PROFIL
 62
     4
 10
144.62891399575869
 20
-40.534850967723997
 30
0.0
  0
VERTEX
  5
2086
  8
SAPA_PROFIL
 62
     4
 10
144.6289139704825
 20
-45.551291954557513
 30
0.0
 42
0.5205670505515692
  0
VERTEX
  5
2087
  8
SAPA_PROFIL
 62
     4
 10
145.29992404214551
 20
-46.021138264950729
 30
0.0
  0
VERTEX
  5
2088
  8
SAPA_PROFIL
 62
     4
 10
146.4999240421549
 20
-45.584373983825778
 30
0.0
 42
0.3152987888807539
  0
VERTEX
  5
2089
  8
SAPA_PROFIL
 62
     4
 10
146.82891397049249
 20
-45.114527673429933
 30
0.0
  0
VERTEX
  5
208A
  8
SAPA_PROFIL
 62
     4
 10
146.8289139704857
 20
-44.173352992920847
 30
0.0
 42
-0.5862175119221242
  0
VERTEX
  5
208B
  8
SAPA_PROFIL
 62
     4
 10
147.28574529624089
 20
-43.917611061938892
 30
0.0
 42
0.0000002084758573
  0
SEQEND
  5
208C
  8
SAPA_PROFIL
 62
     4
  0
POLYLINE
  5
1689
  8
SAPA_PROFIL
 62
     4
 66
     1
 10
0.0
 20
0.0
 30
0.0
  0
VERTEX
  5
208D
  8
SAPA_PROFIL
 62
     4
 10
98.203367111223145
 20
-20.450670870617909
 30
0.0
 42
-0.5571646428658034
  0
VERTEX
  5
208E
  8
SAPA_PROFIL
 62
     4
 10
99.071086025378705
 20
-20.987631374754741
 30
0.0
  0
VERTEX
  5
208F
  8
SAPA_PROFIL
 62
     4
 10
99.071086025378236
 20
-38.012368611275939
 30
0.0
 42
-0.5571645048035741
  0
VERTEX
  5
2090
  8
SAPA_PROFIL
 62
     4
 10
98.203367337512034
 20
-38.549329228236992
 30
0.0
  0
VERTEX
  5
2091
  8
SAPA_PROFIL
 62
     4
 10
96.537226681444025
 20
-37.7186221406903
 30
0.0
 42
-0.284385813979063
  0
VERTEX
  5
2092
  8
SAPA_PROFIL
 62
     4
 10
96.371086025376584
 20
-37.450141832209951
 30
0.0
  0
VERTEX
  5
2093
  8
SAPA_PROFIL
 62
     4
 10
96.371086025376613
 20
-21.54985815382063
 30
0.0
 42
-0.2843858139786238
  0
VERTEX
  5
2094
  8
SAPA_PROFIL
 62
     4
 10
96.537226681443542
 20
-21.281377845340341
 30
0.0
  0
VERTEX
  5
2095
  8
SAPA_PROFIL
 62
     4
 10
98.203367337512901
 20
-20.450670757793191
 30
0.0
  0
SEQEND
  5
2096
  8
SAPA_PROFIL
 62
     4
  0
POLYLINE
  5
168A
  8
SAPA_PROFIL
 62
     4
 66
     1
 10
0.0
 20
0.0
 30
0.0
 70
     1
  0
VERTEX
  5
2097
  8
SAPA_PROFIL
 62
     4
 10
96.014254510878999
 20
-43.917611177682581
 30
0.0
  0
VERTEX
  5
2098
  8
SAPA_PROFIL
 62
     4
 10
95.607694314874834
 20
-44.181634456058582
 30
0.0
 42
0.2539676464751066
  0
VERTEX
  5
2099
  8
SAPA_PROFIL
 62
     4
 10
95.471086025378753
 20
-44.433235626443292
 30
0.0
  0
VERTEX
  5
209A
  8
SAPA_PROFIL
 62
     4
 10
95.471086025378753
 20
-45.814735211648639
 30
0.0
 42
0.3152987888790479
  0
VERTEX
  5
209B
  8
SAPA_PROFIL
 62
     4
 10
95.800075953716913
 20
-46.284581522040952
 30
0.0
  0
VERTEX
  5
209C
  8
SAPA_PROFIL
 62
     4
 10
98.260906144168175
 20
-47.180250462949573
 30
0.0
 42
-0.2694959974287434
  0
VERTEX
  5
209D
  8
SAPA_PROFIL
 62
     4
 10
98.454038118512074
 20
-47.411769509350918
 30
0.0
 42
-0.0612686379508233
  0
VERTEX
  5
209E
  8
SAPA_PROFIL
 62
     4
 10
98.467621489142573
 20
-47.704444942204198
 30
0.0
  0
VERTEX
  5
209F
  8
SAPA_PROFIL
 62
     4
 10
98.669358167871394
 20
-48.053863119512471
 30
0.0
 42
-0.5773502691891679
  0
VERTEX
  5
20A0
  8
SAPA_PROFIL
 62
     4
 10
98.487492833076843
 20
-48.368863119512049
 30
0.0
  0
VERTEX
  5
20A1
  8
SAPA_PROFIL
 62
     4
 10
98.220378304950529
 20
-48.368863119512291
 30
0.0
  0
VERTEX
  5
20A2
  8
SAPA_PROFIL
 62
     4
 10
97.411694843642195
 20
-49.767390820146538
 30
0.0
 42
0.1318219888653519
  0
VERTEX
  5
20A3
  8
SAPA_PROFIL
 62
     4
 10
97.371402447104813
 20
-49.917563922618889
 30
0.0
  0
VERTEX
  5
20A4
  8
SAPA_PROFIL
 62
     4
 10
97.371402447111194
 20
-50.099999993055661
 30
0.0
 42
0.4142135623724291
  0
VERTEX
  5
20A5
  8
SAPA_PROFIL
 62
     4
 10
97.771402447110816
 20
-50.499999993056221
 30
0.0
  0
VERTEX
  5
20A6
  8
SAPA_PROFIL
 62
     4
 10
101.1714024471118
 20
-50.499999993054857
 30
0.0
 42
0.4142135623744271
  0
VERTEX
  5
20A7
  8
SAPA_PROFIL
 62
     4
 10
101.5714024471128
 20
-50.099999993055683
 30
0.0
  0
VERTEX
  5
20A8
  8
SAPA_PROFIL
 62
     4
 10
101.5714024471134
 20
-49.920384750784372
 30
0.0
 42
0.1316524975874005
  0
VERTEX
  5
20A9
  8
SAPA_PROFIL
 62
     4
 10
101.5312100682478
 20
-49.770384750787571
 30
0.0
  0
VERTEX
  5
20AA
  8
SAPA_PROFIL
 62
     4
 10
100.6050606215953
 20
-48.166246853785303
 30
0.0
 42
-0.1316524975875904
  0
VERTEX
  5
20AB
  8
SAPA_PROFIL
 62
     4
 10
100.4710860253805
 20
-47.666246853783591
 30
0.0
  0
VERTEX
  5
20AC
  8
SAPA_PROFIL
 62
     4
 10
100.4710860253805
 20
-47.249999993056221
 30
0.0
 42
-0.4142135623730951
  0
VERTEX
  5
20AD
  8
SAPA_PROFIL
 62
     4
 10
101.4710860253805
 20
-46.249999993056221
 30
0.0
  0
VERTEX
  5
20AE
  8
SAPA_PROFIL
 62
     4
 10
104.4710860253778
 20
-46.249999993056221
 30
0.0
 42
0.9999996830128083
  0
VERTEX
  5
20AF
  8
SAPA_PROFIL
 62
     4
 10
104.47108602537961
 20
-45.249999993056228
 30
0.0
  0
VERTEX
  5
20B0
  8
SAPA_PROFIL
 62
     4
 10
101.47108602537961
 20
-45.249999993056228
 30
0.0
 42
-0.4142135623730951
  0
VERTEX
  5
20B1
  8
SAPA_PROFIL
 62
     4
 10
100.47108602537961
 20
-44.249999993056207
 30
0.0
  0
VERTEX
  5
20B2
  8
SAPA_PROFIL
 62
     4
 10
100.47108602537971
 20
-14.74999999297164
 30
0.0
 42
-0.4142135623730951
  0
VERTEX
  5
20B3
  8
SAPA_PROFIL
 62
     4
 10
101.47108602537971
 20
-13.74999999297164
 30
0.0
  0
VERTEX
  5
20B4
  8
SAPA_PROFIL
 62
     4
 10
104.4710860253779
 20
-13.74999999297164
 30
0.0
 42
0.9999999999999998
  0
VERTEX
  5
20B5
  8
SAPA_PROFIL
 62
     4
 10
104.4710860253779
 20
-12.74999999297164
 30
0.0
  0
VERTEX
  5
20B6
  8
SAPA_PROFIL
 62
     4
 10
101.47108602537971
 20
-12.74999999297164
 30
0.0
 42
-0.4142135623736278
  0
VERTEX
  5
20B7
  8
SAPA_PROFIL
 62
     4
 10
100.47108602537971
 20
-11.74999999297164
 30
0.0
  0
VERTEX
  5
20B8
  8
SAPA_PROFIL
 62
     4
 10
100.47108602537971
 20
-11.33375313224518
 30
0.0
 42
-0.1316524975874375
  0
VERTEX
  5
20B9
  8
SAPA_PROFIL
 62
     4
 10
100.6050606215957
 20
-10.833753132244979
 30
0.0
  0
VERTEX
  5
20BA
  8
SAPA_PROFIL
 62
     4
 10
101.5312100682479
 20
-9.2296152352430383
 30
0.0
 42
0.1316524975874
  0
VERTEX
  5
20BB
  8
SAPA_PROFIL
 62
     4
 10
101.5714024471135
 20
-9.0796152352434945
 30
0.0
  0
VERTEX
  5
20BC
  8
SAPA_PROFIL
 62
     4
 10
101.5714024471129
 20
-8.8999999929721891
 30
0.0
 42
0.4142135623744271
  0
VERTEX
  5
20BD
  8
SAPA_PROFIL
 62
     4
 10
101.1714024471119
 20
-8.4999999929730023
 30
0.0
  0
VERTEX
  5
20BE
  8
SAPA_PROFIL
 62
     4
 10
97.771402447110916
 20
-8.4999999929716381
 30
0.0
 42
0.4142135623724291
  0
VERTEX
  5
20BF
  8
SAPA_PROFIL
 62
     4
 10
97.371402447111265
 20
-8.8999999929721767
 30
0.0
  0
VERTEX
  5
20C0
  8
SAPA_PROFIL
 62
     4
 10
97.371402447104899
 20
-9.0824360634089558
 30
0.0
 42
0.1318219888653524
  0
VERTEX
  5
20C1
  8
SAPA_PROFIL
 62
     4
 10
97.411694843642294
 20
-9.2326091658812999
 30
0.0
  0
VERTEX
  5
20C2
  8
SAPA_PROFIL
 62
     4
 10
98.220378304866642
 20
-10.63113686636096
 30
0.0
  0
VERTEX
  5
20C3
  8
SAPA_PROFIL
 62
     4
 10
98.487492833079671
 20
-10.63113686636096
 30
0.0
 42
-0.577350269189159
  0
VERTEX
  5
20C4
  8
SAPA_PROFIL
 62
     4
 10
98.669358167874236
 20
-10.946136866360559
 30
0.0
  0
VERTEX
  5
20C5
  8
SAPA_PROFIL
 62
     4
 10
98.467621489197114
 20
-11.29555504357922
 30
0.0
 42
-0.0612687673629489
  0
VERTEX
  5
20C6
  8
SAPA_PROFIL
 62
     4
 10
98.454038118510923
 20
-11.58823047667943
 30
0.0
 42
-0.2694959974285039
  0
VERTEX
  5
20C7
  8
SAPA_PROFIL
 62
     4
 10
98.260906144166967
 20
-11.819749523079951
 30
0.0
  0
VERTEX
  5
20C8
  8
SAPA_PROFIL
 62
     4
 10
95.800075953713801
 20
-12.715418463989611
 30
0.0
 42
0.3152987888784035
  0
VERTEX
  5
20C9
  8
SAPA_PROFIL
 62
     4
 10
95.471086025377218
 20
-13.185264774382841
 30
0.0
  0
VERTEX
  5
20CA
  8
SAPA_PROFIL
 62
     4
 10
95.471086025378796
 20
-14.566764359587269
 30
0.0
 42
0.2539676464741841
  0
VERTEX
  5
20CB
  8
SAPA_PROFIL
 62
     4
 10
95.607694314874081
 20
-14.81836552997135
 30
0.0
  0
VERTEX
  5
20CC
  8
SAPA_PROFIL
 62
     4
 10
96.014254510879056
 20
-15.082388808347989
 30
0.0
 42
0.5862177598324623
  0
VERTEX
  5
20CD
  8
SAPA_PROFIL
 62
     4
 10
96.471086025375556
 20
-14.82664699310965
 30
0.0
  0
VERTEX
  5
20CE
  8
SAPA_PROFIL
 62
     4
 10
96.471086025367896
 20
-13.885472312599839
 30
0.0
 42
-0.3152987888813165
  0
VERTEX
  5
20CF
  8
SAPA_PROFIL
 62
     4
 10
96.800075953704649
 20
-13.41562600220208
 30
0.0
  0
VERTEX
  5
20D0
  8
SAPA_PROFIL
 62
     4
 10
98.000075953715893
 20
-12.978861721078131
 30
0.0
 42
-0.5205670505515651
  0
VERTEX
  5
20D1
  8
SAPA_PROFIL
 62
     4
 10
98.671086025378628
 20
-13.44870803147135
 30
0.0
  0
VERTEX
  5
20D2
  8
SAPA_PROFIL
 62
     4
 10
98.671086025378656
 20
-18.465148972140199
 30
0.0
 42
-0.3702522326300203
  0
VERTEX
  5
20D3
  8
SAPA_PROFIL
 62
     4
 10
98.416626072712944
 20
-18.761672333933529
 30
0.0
 42
-0.0982365330332397
  0
VERTEX
  5
20D4
  8
SAPA_PROFIL
 62
     4
 10
96.728939297717943
 20
-18.852125092144469
 30
0.0
 42
-0.3735060174783164
  0
VERTEX
  5
20D5
  8
SAPA_PROFIL
 62
     4
 10
96.471086025377915
 20
-18.55510042423349
 30
0.0
  0
VERTEX
  5
20D6
  8
SAPA_PROFIL
 62
     4
 10
96.471086025376991
 20
-18.126646993110828
 30
0.0
 42
0.5920056181162531
  0
VERTEX
  5
20D7
  8
SAPA_PROFIL
 62
     4
 10
96.009882522849054
 20
-17.873638236793429
 30
0.0
  0
VERTEX
  5
20D8
  8
SAPA_PROFIL
 62
     4
 10
95.60769431487077
 20
-18.134822312949129
 30
0.0
 42
0.2539676464746725
  0
VERTEX
  5
20D9
  8
SAPA_PROFIL
 62
     4
 10
95.471086025375385
 20
-18.386423483332901
 30
0.0
  0
VERTEX
  5
20DA
  8
SAPA_PROFIL
 62
     4
 10
95.471086025376934
 20
-40.613576502698578
 30
0.0
 42
0.2539676464741819
  0
VERTEX
  5
20DB
  8
SAPA_PROFIL
 62
     4
 10
95.607694314870713
 20
-40.865177673081433
 30
0.0
  0
VERTEX
  5
20DC
  8
SAPA_PROFIL
 62
     4
 10
96.009882522849054
 20
-41.126361749235251
 30
0.0
 42
0.5920055144124249
  0
VERTEX
  5
20DD
  8
SAPA_PROFIL
 62
     4
 10
96.471086025376934
 20
-40.873352992919742
 30
0.0
  0
VERTEX
  5
20DE
  8
SAPA_PROFIL
 62
     4
 10
96.471086000101934
 20
-40.444899515629523
 30
0.0
 42
-0.3735060174775405
  0
VERTEX
  5
20DF
  8
SAPA_PROFIL
 62
     4
 10
96.728939272442034
 20
-40.147874847719827
 30
0.0
 42
-0.0355900683670349
  0
VERTEX
  5
20E0
  8
SAPA_PROFIL
 62
     4
 10
97.344812859241813
 20
-40.103981283687581
 30
0.0
 42
-0.0624282003873116
  0
VERTEX
  5
20E1
  8
SAPA_PROFIL
 62
     4
 10
98.416626047436935
 20
-40.238327605930522
 30
0.0
 42
-0.3702522326309292
  0
VERTEX
  5
20E2
  8
SAPA_PROFIL
 62
     4
 10
98.671086000102676
 20
-40.534850967723898
 30
0.0
  0
VERTEX
  5
20E3
  8
SAPA_PROFIL
 62
     4
 10
98.671086025378784
 20
-45.551291954557414
 30
0.0
 42
-0.5205670505515692
  0
VERTEX
  5
20E4
  8
SAPA_PROFIL
 62
     4
 10
98.000075953715822
 20
-46.021138264950629
 30
0.0
  0
VERTEX
  5
20E5
  8
SAPA_PROFIL
 62
     4
 10
96.800075953706369
 20
-45.584373983825678
 30
0.0
 42
-0.3152987888807539
  0
VERTEX
  5
20E6
  8
SAPA_PROFIL
 62
     4
 10
96.471086025368734
 20
-45.114527673429833
 30
0.0
  0
VERTEX
  5
20E7
  8
SAPA_PROFIL
 62
     4
 10
96.471086025375556
 20
-44.173352992920741
 30
0.0
 42
0.5862175119221242
  0
VERTEX
  5
20E8
  8
SAPA_PROFIL
 62
     4
 10
96.014254699620452
 20
-43.917611061938779
 30
0.0
 42
-0.0000002084758573
  0
SEQEND
  5
20E9
  8
SAPA_PROFIL
 62
     4
  0
CIRCLE
  5
168B
  8
SAPA_PROFIL
 62
     2
 10
86.831507495362601
 20
-67.31734002555504
 30
0.1
 40
0.25
  0
INSERT
  5
168C
  8
SAPA_PROFIL
  6
CONTINUOUS
 62
     2
  2
*U121
 10
0.0
 20
0.0
 30
0.0
1001
ACAD
1002
{
1000
R14_HATCH_DATA
1000
168C
1011
1.0
1021
0.0
1031
0.0
1021
0.0
1031
0.0
1011
0.0
1021
0.0
1031
0.0
1021
1.0
1031
0.0
1011
0.0
1021
0.0
1031
0.0
1021
0.0
1031
1.0
1040
0.1
1010
0.0
1020
0.0
1030
1.0
1000
SOLID
1070
     1
1070
     1
1071
        1
1071
        7
1070
     1
1070
     1
1071
        2
1040
86.831507495362601
1040
-67.06734002555504
1040
1.0
1040
86.831507495362601
1040
-67.56734002555504
1040
1.0
1071
        1
1005
168B
1070
     0
1070
     1
1040
0.0095408196840103
1071
        1
1040
86.831507495362601
1040
-67.217340025555046
1040
0.1
1002
}
  0
POLYLINE
  5
168D
  8
SAPA_PROFIL
 62
     2
 66
     1
 10
0.0
 20
0.0
 30
0.1
 70
     1
  0
VERTEX
  5
20FB
  8
SAPA_PROFIL
 62
     2
 10
84.499974494019568
 20
-69.991719264420936
 30
0.1
  0
VERTEX
  5
20FC
  8
SAPA_PROFIL
 62
     2
 10
84.399974494019574
 20
-69.991719264420936
 30
0.1
 42
-0.4142135623730959
  0
VERTEX
  5
20FD
  8
SAPA_PROFIL
 62
     2
 10
83.699974494019571
 20
-69.291719264420934
 30
0.1
  0
VERTEX
  5
20FE
  8
SAPA_PROFIL
 62
     2
 10
83.699974494019571
 20
-68.191719264420925
 30
0.1
 42
-0.4142135623730961
  0
VERTEX
  5
20FF
  8
SAPA_PROFIL
 62
     2
 10
83.899974494019574
 20
-67.991719264420936
 30
0.1
  0
VERTEX
  5
2100
  8
SAPA_PROFIL
 62
     2
 10
84.999974494019568
 20
-67.991719264420936
 30
0.1
 42
-0.4142135623730956
  0
VERTEX
  5
2101
  8
SAPA_PROFIL
 62
     2
 10
85.199974494019571
 20
-68.191719264420925
 30
0.1
  0
VERTEX
  5
2102
  8
SAPA_PROFIL
 62
     2
 10
85.199974494019571
 20
-69.291719264420934
 30
0.1
 42
-0.4142135623730946
  0
SEQEND
  5
2103
  8
SAPA_PROFIL
 62
     2
  0
POLYLINE
  5
168E
  8
SAPA_PROFIL
 62
     2
 66
     1
 10
0.0
 20
0.0
 30
0.1
  0
VERTEX
  5
2104
  8
SAPA_PROFIL
 62
     2
 10
85.999974494019568
 20
-68.691719264420939
 30
0.1
  0
VERTEX
  5
2105
  8
SAPA_PROFIL
 62
     2
 10
85.999974494019568
 20
-68.043953699147849
 30
0.1
 42
-0.4416942457848117
  0
VERTEX
  5
2106
  8
SAPA_PROFIL
 62
     2
 10
86.218528853647484
 20
-67.844816219654916
 30
0.1
  0
VERTEX
  5
2107
  8
SAPA_PROFIL
 62
     2
 10
87.181420134391658
 20
-67.934532284912933
 30
0.1
 42
0.4416942457848106
  0
VERTEX
  5
2108
  8
SAPA_PROFIL
 62
     2
 10
87.399974494019574
 20
-67.735394805420015
 30
0.1
  0
VERTEX
  5
2109
  8
SAPA_PROFIL
 62
     2
 10
87.399974494019574
 20
-67.185412465828477
 30
0.1
 42
0.5445962197109637
  0
VERTEX
  5
210A
  8
SAPA_PROFIL
 62
     2
 10
86.694295448614497
 20
-66.729675556766608
 30
0.1
  0
VERTEX
  5
210B
  8
SAPA_PROFIL
 62
     2
 10
86.335244295329247
 20
-66.891719264420942
 30
0.1
  0
VERTEX
  5
210C
  8
SAPA_PROFIL
 62
     2
 10
84.862285056581342
 20
-66.891719264420942
 30
0.1
 42
0.336437923496554
  0
VERTEX
  5
210D
  8
SAPA_PROFIL
 62
     2
 10
83.790541326966505
 20
-67.079226082262664
 30
0.1
  0
VERTEX
  5
210E
  8
SAPA_PROFIL
 62
     2
 10
83.228677691142778
 20
-67.079226082262664
 30
0.1
 42
-0.1919812372740513
  0
VERTEX
  5
210F
  8
SAPA_PROFIL
 62
     2
 10
82.884690643542754
 20
-66.942093704245409
 30
0.1
  0
VERTEX
  5
2110
  8
SAPA_PROFIL
 62
     2
 10
82.492823713139444
 20
-66.570616227955369
 30
0.1
 42
-0.9249153594910841
  0
VERTEX
  5
2111
  8
SAPA_PROFIL
 62
     2
 10
84.158601641661676
 20
-64.336921412876066
 30
0.1
  0
VERTEX
  5
2112
  8
SAPA_PROFIL
 62
     2
 10
85.243146581330436
 20
-64.870469468127709
 30
0.1
 42
0.4184584792862776
  0
VERTEX
  5
2113
  8
SAPA_PROFIL
 62
     2
 10
85.829848897901869
 20
-64.466717347707984
 30
0.1
 42
0.3891337693453737
  0
VERTEX
  5
2114
  8
SAPA_PROFIL
 62
     2
 10
85.684682006361385
 20
-64.238628039765374
 30
0.1
  0
VERTEX
  5
2115
  8
SAPA_PROFIL
 62
     2
 10
84.598785915796384
 20
-63.675722987277503
 30
0.1
 42
0.8864286961344978
  0
VERTEX
  5
2116
  8
SAPA_PROFIL
 62
     2
 10
81.927006013859838
 20
-67.034921742798218
 30
0.1
  0
VERTEX
  5
2117
  8
SAPA_PROFIL
 62
     2
 10
81.496446875978577
 20
-67.150289716087343
 30
0.1
 42
0.9163311740174273
  0
VERTEX
  5
2118
  8
SAPA_PROFIL
 62
     2
 10
81.634836791118644
 20
-67.935137925839655
 30
0.1
  0
VERTEX
  5
2119
  8
SAPA_PROFIL
 62
     2
 10
82.682543345470037
 20
-67.843475479632104
 30
0.1
 42
-0.4400105308918339
  0
VERTEX
  5
211A
  8
SAPA_PROFIL
 62
     2
 10
82.899974494019574
 20
-68.042714419250444
 30
0.1
  0
VERTEX
  5
211B
  8
SAPA_PROFIL
 62
     2
 10
82.899974494019574
 20
-68.891719264420942
 30
0.1
  0
VERTEX
  5
211C
  8
SAPA_PROFIL
 62
     2
 10
82.499974494019568
 20
-68.891719264420914
 30
0.1
 42
0.569380983920789
  0
VERTEX
  5
211D
  8
SAPA_PROFIL
 62
     2
 10
82.324420448455982
 20
-69.187535636123584
 30
0.1
  0
VERTEX
  5
211E
  8
SAPA_PROFIL
 62
     2
 10
83.02938604835505
 20
-70.479168379528886
 30
0.1
 42
0.274387813087548
  0
VERTEX
  5
211F
  8
SAPA_PROFIL
 62
     2
 10
83.556048185045796
 20
-70.791719264420934
 30
0.1
  0
VERTEX
  5
2120
  8
SAPA_PROFIL
 62
     2
 10
85.343900802993346
 20
-70.791719264420934
 30
0.1
 42
0.274387813087548
  0
VERTEX
  5
2121
  8
SAPA_PROFIL
 62
     2
 10
85.870562939684092
 20
-70.479168379528886
 30
0.1
  0
VERTEX
  5
2122
  8
SAPA_PROFIL
 62
     2
 10
86.575528539583161
 20
-69.187535636123584
 30
0.1
 42
0.5693809839207892
  0
VERTEX
  5
2123
  8
SAPA_PROFIL
 62
     2
 10
86.399974494019574
 20
-68.891719264420942
 30
0.1
  0
VERTEX
  5
2124
  8
SAPA_PROFIL
 62
     2
 10
85.999974494019597
 20
-68.891719264420942
 30
0.1
  0
VERTEX
  5
2125
  8
SAPA_PROFIL
 62
     2
 10
85.999974494019597
 20
-68.042714419250444
 30
0.1
  0
SEQEND
  5
2126
  8
SAPA_PROFIL
 62
     2
  0
POLYLINE
  5
168F
  8
SAPA_PROFIL
 66
     1
 10
0.0
 20
0.0
 30
0.0
 70
     1
  0
VERTEX
  5
2127
  8
SAPA_PROFIL
 10
81.453514569158656
 20
-8.4999999990099369
 30
0.0
 42
0.2134217652834387
  0
VERTEX
  5
2128
  8
SAPA_PROFIL
 10
81.677121366908764
 20
-8.3999999990098289
 30
0.0
 42
-0.7625858545243219
  0
VERTEX
  5
2129
  8
SAPA_PROFIL
 10
82.007447447925784
 20
-8.5845792012073048
 30
0.0
  0
VERTEX
  5
212A
  8
SAPA_PROFIL
 10
81.949373810936692
 20
-8.7759622012010254
 30
0.0
  0
VERTEX
  5
212B
  8
SAPA_PROFIL
 10
80.864809363964966
 20
-10.66180589306208
 30
0.0
  0
VERTEX
  5
212C
  8
SAPA_PROFIL
 10
80.543051635746693
 20
-10.6512445268351
 30
0.0
 42
0.5773502691897439
  0
VERTEX
  5
212D
  8
SAPA_PROFIL
 10
80.360097895636528
 20
-10.945400827089941
 30
0.0
  0
VERTEX
  5
212E
  8
SAPA_PROFIL
 10
80.512231806745277
 20
-11.230083110321569
 30
0.0
 42
0.2216946626430187
  0
VERTEX
  5
212F
  8
SAPA_PROFIL
 10
81.053111638222063
 20
-11.635892015476371
 30
0.0
  0
VERTEX
  5
2130
  8
SAPA_PROFIL
 10
82.866342108880303
 20
-12.017338611604091
 30
0.0
 42
0.4769755326981641
  0
VERTEX
  5
2131
  8
SAPA_PROFIL
 10
83.237998983826202
 20
-11.715085787097619
 30
0.0
  0
VERTEX
  5
2132
  8
SAPA_PROFIL
 10
83.237915375942549
 20
-10.21198470633561
 30
0.0
  0
VERTEX
  5
2133
  8
SAPA_PROFIL
 10
83.190069625944048
 20
-10.197466297088511
 30
0.0
 42
-0.4142135623730944
  0
VERTEX
  5
2134
  8
SAPA_PROFIL
 10
82.990105581436666
 20
-9.8232813416126987
 30
0.0
  0
VERTEX
  5
2135
  8
SAPA_PROFIL
 10
83.500000000000156
 20
-8.5040483398512876
 30
0.0
  0
VERTEX
  5
2136
  8
SAPA_PROFIL
 10
83.500000000000213
 20
11.23147839764621
 30
0.0
 42
-0.38217120901707
  0
VERTEX
  5
2137
  8
SAPA_PROFIL
 10
83.766880215905957
 20
11.52964459274814
 30
0.0
  0
VERTEX
  5
2138
  8
SAPA_PROFIL
 10
90.344851000000176
 20
12.055484127713131
 30
0.0
 42
-0.4469990000000265
  0
VERTEX
  5
2139
  8
SAPA_PROFIL
 10
90.900051000000303
 20
11.55854012771308
 30
0.0
  0
VERTEX
  5
213A
  8
SAPA_PROFIL
 10
90.900051000000175
 20
9.8000000009900834
 30
0.0
 42
0.4142139999999868
  0
VERTEX
  5
213B
  8
SAPA_PROFIL
 10
91.900051000000119
 20
8.8000000009901118
 30
0.0
  0
VERTEX
  5
213C
  8
SAPA_PROFIL
 10
92.167595000000233
 20
8.8000000009900692
 30
0.0
 42
0.2896899999999956
  0
VERTEX
  5
213D
  8
SAPA_PROFIL
 10
93.071103000000221
 20
9.3714280009901447
 30
0.0
 42
0.5507599999999603
  0
VERTEX
  5
213E
  8
SAPA_PROFIL
 10
92.800051000000167
 20
9.8000000009900834
 30
0.0
  0
VERTEX
  5
213F
  8
SAPA_PROFIL
 10
92.500051000000227
 20
9.8000000009900798
 30
0.0
 42
-0.4142140000001095
  0
VERTEX
  5
2140
  8
SAPA_PROFIL
 10
92.300051000000124
 20
10.000000000990131
 30
0.0
  0
VERTEX
  5
2141
  8
SAPA_PROFIL
 10
92.300051000000195
 20
11.100000000990089
 30
0.0
 42
-0.4142139999999826
  0
VERTEX
  5
2142
  8
SAPA_PROFIL
 10
93.300051000000167
 20
12.100000000990031
 30
0.0
  0
VERTEX
  5
2143
  8
SAPA_PROFIL
 10
95.60000000000025
 20
12.100000000990081
 30
0.0
 42
-0.4142139999999877
  0
VERTEX
  5
2144
  8
SAPA_PROFIL
 10
96.600000000000236
 20
11.100000000990139
 30
0.0
  0
VERTEX
  5
2145
  8
SAPA_PROFIL
 10
96.60000000000025
 20
10.00000000099007
 30
0.0
 42
-0.4142139999999481
  0
VERTEX
  5
2146
  8
SAPA_PROFIL
 10
96.400000000000134
 20
9.8000000009901171
 30
0.0
  0
VERTEX
  5
2147
  8
SAPA_PROFIL
 10
96.100051000000235
 20
9.8000000009900763
 30
0.0
 42
0.5507600000000124
  0
VERTEX
  5
2148
  8
SAPA_PROFIL
 10
95.828998000000183
 20
9.3714280009900772
 30
0.0
 42
0.2896899999999978
  0
VERTEX
  5
2149
  8
SAPA_PROFIL
 10
96.732506000000114
 20
8.8000000009900532
 30
0.0
  0
VERTEX
  5
214A
  8
SAPA_PROFIL
 10
97.000000000000242
 20
8.8000000009900798
 30
0.0
 42
0.4142140000000002
  0
VERTEX
  5
214B
  8
SAPA_PROFIL
 10
98.000000000000227
 20
9.8000000009900941
 30
0.0
  0
VERTEX
  5
214C
  8
SAPA_PROFIL
 10
98.000000000000256
 20
11.50000000099007
 30
0.0
 42
0.4142139999999887
  0
VERTEX
  5
214D
  8
SAPA_PROFIL
 10
96.000000000000199
 20
13.500000000990131
 30
0.0
  0
VERTEX
  5
214E
  8
SAPA_PROFIL
 10
31.20000000000028
 20
13.50000000099007
 30
0.0
 42
0.4142135623730847
  0
VERTEX
  5
214F
  8
SAPA_PROFIL
 10
31.00000000000027
 20
13.300000000990069
 30
0.0
  0
VERTEX
  5
2150
  8
SAPA_PROFIL
 10
31.000000000000281
 20
10.611383000990109
 30
0.0
 42
0.2596810000000924
  0
VERTEX
  5
2151
  8
SAPA_PROFIL
 10
31.094693000000291
 20
10.44135200099009
 30
0.0
  0
VERTEX
  5
2152
  8
SAPA_PROFIL
 10
32.542040000000213
 20
9.5449530009900787
 30
0.0
 42
0.5877030000000333
  0
VERTEX
  5
2153
  8
SAPA_PROFIL
 10
33.000000000000298
 20
9.8000000009901402
 30
0.0
  0
VERTEX
  5
2154
  8
SAPA_PROFIL
 10
33.000000000000291
 20
11.20000000099011
 30
0.0
 42
-0.4142139999999517
  0
VERTEX
  5
2155
  8
SAPA_PROFIL
 10
33.30000000000021
 20
11.50000000099009
 30
0.0
  0
VERTEX
  5
2156
  8
SAPA_PROFIL
 10
35.700000000000223
 20
11.50000000099006
 30
0.0
 42
-0.4142140000000525
  0
VERTEX
  5
2157
  8
SAPA_PROFIL
 10
36.000000000000227
 20
11.200000000990119
 30
0.0
  0
VERTEX
  5
2158
  8
SAPA_PROFIL
 10
36.000000000000277
 20
-6.199999999009866
 30
0.0
 42
-0.4142140000001183
  0
VERTEX
  5
2159
  8
SAPA_PROFIL
 10
35.700000000000188
 20
-6.4999999990100479
 30
0.0
  0
VERTEX
  5
215A
  8
SAPA_PROFIL
 10
33.300000000000182
 20
-6.4999999990099422
 30
0.0
 42
-0.4142140000000144
  0
VERTEX
  5
215B
  8
SAPA_PROFIL
 10
33.000000000000341
 20
-6.1999999990099228
 30
0.0
  0
VERTEX
  5
215C
  8
SAPA_PROFIL
 10
33.000000000000291
 20
-4.7999999990098887
 30
0.0
 42
0.5920054160710128
  0
VERTEX
  5
215D
  8
SAPA_PROFIL
 10
32.538796661885378
 20
-4.5469914862521579
 30
0.0
  0
VERTEX
  5
215E
  8
SAPA_PROFIL
 10
31.292531005672402
 20
-5.3410445160737714
 30
0.0
 42
0.2562769852931535
  0
VERTEX
  5
215F
  8
SAPA_PROFIL
 10
31.200000000000301
 20
-5.509717024972395
 30
0.0
  0
VERTEX
  5
2160
  8
SAPA_PROFIL
 10
31.200000000000291
 20
-8.5040483398507742
 30
0.0
  0
VERTEX
  5
2161
  8
SAPA_PROFIL
 10
31.709894418563959
 20
-9.8232813416126756
 30
0.0
 42
-0.4142135623730948
  0
VERTEX
  5
2162
  8
SAPA_PROFIL
 10
31.509930374056569
 20
-10.197466297088489
 30
0.0
  0
VERTEX
  5
2163
  8
SAPA_PROFIL
 10
31.462084624058079
 20
-10.21198470633559
 30
0.0
  0
VERTEX
  5
2164
  8
SAPA_PROFIL
 10
31.46200101617444
 20
-11.7150857870976
 30
0.0
 42
0.4769755326981646
  0
VERTEX
  5
2165
  8
SAPA_PROFIL
 10
31.8336578911203
 20
-12.01733861160406
 30
0.0
  0
VERTEX
  5
2166
  8
SAPA_PROFIL
 10
33.646888361778551
 20
-11.63589201547633
 30
0.0
 42
0.2216946626430189
  0
VERTEX
  5
2167
  8
SAPA_PROFIL
 10
34.187768193255337
 20
-11.23008311032155
 30
0.0
  0
VERTEX
  5
2168
  8
SAPA_PROFIL
 10
34.339902104364107
 20
-10.9454008270899
 30
0.0
 42
0.5773502691897443
  0
VERTEX
  5
2169
  8
SAPA_PROFIL
 10
34.156948364253921
 20
-10.651244526835089
 30
0.0
  0
VERTEX
  5
216A
  8
SAPA_PROFIL
 10
33.835190636035676
 20
-10.66180589306205
 30
0.0
  0
VERTEX
  5
216B
  8
SAPA_PROFIL
 10
32.750626189063937
 20
-8.7759622012010023
 30
0.0
  0
VERTEX
  5
216C
  8
SAPA_PROFIL
 10
32.692552552074858
 20
-8.5845792012072888
 30
0.0
 42
-0.7625858545243274
  0
VERTEX
  5
216D
  8
SAPA_PROFIL
 10
33.02287863309185
 20
-8.3999999990097844
 30
0.0
 42
0.2134217652834391
  0
VERTEX
  5
216E
  8
SAPA_PROFIL
 10
33.246485430841972
 20
-8.4999999990099067
 30
0.0
  0
VERTEX
  5
216F
  8
SAPA_PROFIL
 10
37.099271835342002
 20
-8.4999999990099262
 30
0.0
 42
-0.4142135623729077
  0
VERTEX
  5
2170
  8
SAPA_PROFIL
 10
37.399271835341892
 20
-8.7999999990100033
 30
0.0
  0
VERTEX
  5
2171
  8
SAPA_PROFIL
 10
37.399271835341949
 20
-9.0999999990101852
 30
0.0
  0
VERTEX
  5
2172
  8
SAPA_PROFIL
 10
36.475511404638667
 20
-10.69999999900981
 30
0.0
 42
0.5773502691897674
  0
VERTEX
  5
2173
  8
SAPA_PROFIL
 10
36.648716485395433
 20
-10.99999999900993
 30
0.0
  0
VERTEX
  5
2174
  8
SAPA_PROFIL
 10
38.034357131450577
 20
-10.99999999900993
 30
0.0
 42
0.2679491924311062
  0
VERTEX
  5
2175
  8
SAPA_PROFIL
 10
38.900382535235011
 20
-10.49999999901012
 30
0.0
  0
VERTEX
  5
2176
  8
SAPA_PROFIL
 10
39.910745506317078
 20
-8.7499999990098782
 30
0.0
 42
-0.267949192431108
  0
VERTEX
  5
2177
  8
SAPA_PROFIL
 10
40.343758208209287
 20
-8.4999999990099262
 30
0.0
  0
VERTEX
  5
2178
  8
SAPA_PROFIL
 10
74.356241791791135
 20
-8.4999999990099226
 30
0.0
 42
-0.2679491924311069
  0
VERTEX
  5
2179
  8
SAPA_PROFIL
 10
74.789254493683359
 20
-8.7499999990099013
 30
0.0
  0
VERTEX
  5
217A
  8
SAPA_PROFIL
 10
75.799617464765447
 20
-10.49999999901004
 30
0.0
 42
0.2679491924311082
  0
VERTEX
  5
217B
  8
SAPA_PROFIL
 10
76.665642868549867
 20
-10.999999999009921
 30
0.0
  0
VERTEX
  5
217C
  8
SAPA_PROFIL
 10
78.051283514604961
 20
-10.99999999900993
 30
0.0
 42
0.5773502691897738
  0
VERTEX
  5
217D
  8
SAPA_PROFIL
 10
78.224488595361748
 20
-10.699999999009851
 30
0.0
  0
VERTEX
  5
217E
  8
SAPA_PROFIL
 10
77.300728164658494
 20
-9.0999999990101799
 30
0.0
  0
VERTEX
  5
217F
  8
SAPA_PROFIL
 10
77.300728164658494
 20
-8.7999999990099962
 30
0.0
 42
-0.4142135623729009
  0
VERTEX
  5
2180
  8
SAPA_PROFIL
 10
77.600728164658364
 20
-8.4999999990098658
 30
0.0
  0
SEQEND
  5
2181
  8
SAPA_PROFIL
  0
POLYLINE
  5
1690
  8
SAPA_PROFIL
 66
     1
 10
0.0
 20
0.0
 30
0.0
 70
     1
  0
VERTEX
  5
2182
  8
SAPA_PROFIL
 10
79.800000000000267
 20
-6.399999999009907
 30
0.0
 42
0.4142135623730951
  0
VERTEX
  5
2183
  8
SAPA_PROFIL
 10
79.60000000000025
 20
-6.1999999990098607
 30
0.0
  0
VERTEX
  5
2184
  8
SAPA_PROFIL
 10
78.000000000000213
 20
-6.1999999990099184
 30
0.0
 42
0.4142135623730951
  0
VERTEX
  5
2185
  8
SAPA_PROFIL
 10
77.800000000000182
 20
-6.399999999009907
 30
0.0
  0
VERTEX
  5
2186
  8
SAPA_PROFIL
 10
77.800000000000182
 20
-6.7000000828832347
 30
0.0
  0
VERTEX
  5
2187
  8
SAPA_PROFIL
 10
41.700000000000223
 20
-6.70000008288324
 30
0.0
  0
VERTEX
  5
2188
  8
SAPA_PROFIL
 10
41.700000000000237
 20
-6.3999999990099106
 30
0.0
 42
0.4142135623730951
  0
VERTEX
  5
2189
  8
SAPA_PROFIL
 10
41.50000000000022
 20
-6.1999999990098651
 30
0.0
  0
VERTEX
  5
218A
  8
SAPA_PROFIL
 10
39.900000000000212
 20
-6.1999999990099219
 30
0.0
 42
0.4142135623730951
  0
VERTEX
  5
218B
  8
SAPA_PROFIL
 10
39.700000000000223
 20
-6.3999999990099106
 30
0.0
  0
VERTEX
  5
218C
  8
SAPA_PROFIL
 10
39.700000000000223
 20
-6.70000008288324
 30
0.0
  0
VERTEX
  5
218D
  8
SAPA_PROFIL
 10
38.000000000000227
 20
-6.7000000828831912
 30
0.0
 42
-0.4142135623730951
  0
VERTEX
  5
218E
  8
SAPA_PROFIL
 10
37.700000000000223
 20
-6.4000000828832286
 30
0.0
  0
VERTEX
  5
218F
  8
SAPA_PROFIL
 10
37.700000000000237
 20
11.20000000099011
 30
0.0
 42
-0.414213562373095
  0
VERTEX
  5
2190
  8
SAPA_PROFIL
 10
38.000000000000227
 20
11.50000000099006
 30
0.0
  0
VERTEX
  5
2191
  8
SAPA_PROFIL
 10
39.700000000000223
 20
11.50000000099006
 30
0.0
  0
VERTEX
  5
2192
  8
SAPA_PROFIL
 10
39.700000000000223
 20
11.40000000099004
 30
0.0
 42
0.4142135623730951
  0
VERTEX
  5
2193
  8
SAPA_PROFIL
 10
39.900000000000212
 20
11.20000000099011
 30
0.0
  0
VERTEX
  5
2194
  8
SAPA_PROFIL
 10
41.50000000000022
 20
11.20000000099005
 30
0.0
 42
0.4142135623730951
  0
VERTEX
  5
2195
  8
SAPA_PROFIL
 10
41.700000000000223
 20
11.40000000099004
 30
0.0
  0
VERTEX
  5
2196
  8
SAPA_PROFIL
 10
41.700000000000223
 20
11.50000000099006
 30
0.0
  0
VERTEX
  5
2197
  8
SAPA_PROFIL
 10
77.800000000000182
 20
11.50000000099007
 30
0.0
  0
VERTEX
  5
2198
  8
SAPA_PROFIL
 10
77.800000000000239
 20
11.40000000099004
 30
0.0
 42
0.4142135623730951
  0
VERTEX
  5
2199
  8
SAPA_PROFIL
 10
78.000000000000213
 20
11.20000000099011
 30
0.0
  0
VERTEX
  5
219A
  8
SAPA_PROFIL
 10
79.60000000000025
 20
11.200000000990061
 30
0.0
 42
0.4142135623730898
  0
VERTEX
  5
219B
  8
SAPA_PROFIL
 10
79.800000000000182
 20
11.40000000099004
 30
0.0
  0
VERTEX
  5
219C
  8
SAPA_PROFIL
 10
79.800000000000182
 20
11.50000000099007
 30
0.0
  0
VERTEX
  5
219D
  8
SAPA_PROFIL
 10
81.500000000000227
 20
11.50000000099012
 30
0.0
 42
-0.4142135623730953
  0
VERTEX
  5
219E
  8
SAPA_PROFIL
 10
81.800000000000196
 20
11.20000000099011
 30
0.0
  0
VERTEX
  5
219F
  8
SAPA_PROFIL
 10
81.800000000000239
 20
-6.4000000828832242
 30
0.0
 42
-0.4142135623730951
  0
VERTEX
  5
21A0
  8
SAPA_PROFIL
 10
81.500000000000227
 20
-6.7000000828832347
 30
0.0
  0
VERTEX
  5
21A1
  8
SAPA_PROFIL
 10
79.800000000000182
 20
-6.7000000828832347
 30
0.0
  0
SEQEND
  5
21A2
  8
SAPA_PROFIL
  0
POLYLINE
  5
1691
  8
SAPA_PROFIL
 66
     1
 10
0.0
 20
0.0
 30
0.0
 70
     1
  0
VERTEX
  5
21A3
  8
SAPA_PROFIL
 10
33.246485430841872
 20
-50.499999999009901
 30
0.0
  0
VERTEX
  5
21A4
  8
SAPA_PROFIL
 10
37.099271835341931
 20
-50.499999999009901
 30
0.0
 42
0.414213562372901
  0
VERTEX
  5
21A5
  8
SAPA_PROFIL
 10
37.3992718353418
 20
-50.199999999009833
 30
0.0
  0
VERTEX
  5
21A6
  8
SAPA_PROFIL
 10
37.39927183534185
 20
-49.899999999009651
 30
0.0
  0
VERTEX
  5
21A7
  8
SAPA_PROFIL
 10
36.475511404638567
 20
-48.299999999009977
 30
0.0
 42
-0.5773502691897976
  0
VERTEX
  5
21A8
  8
SAPA_PROFIL
 10
36.648716485395333
 20
-47.999999999009901
 30
0.0
  0
VERTEX
  5
21A9
  8
SAPA_PROFIL
 10
38.034357131450477
 20
-47.999999999009901
 30
0.0
 42
-0.2679491924311222
  0
VERTEX
  5
21AA
  8
SAPA_PROFIL
 10
38.900382535234897
 20
-48.499999999009759
 30
0.0
  0
VERTEX
  5
21AB
  8
SAPA_PROFIL
 10
39.910745506316992
 20
-50.24999999900993
 30
0.0
 42
0.2679491924310994
  0
VERTEX
  5
21AC
  8
SAPA_PROFIL
 10
40.343758208209188
 20
-50.49999999900993
 30
0.0
  0
VERTEX
  5
21AD
  8
SAPA_PROFIL
 10
74.356241791791092
 20
-50.499999999009901
 30
0.0
 42
0.2679491924311005
  0
VERTEX
  5
21AE
  8
SAPA_PROFIL
 10
74.789254493683302
 20
-50.24999999900993
 30
0.0
  0
VERTEX
  5
21AF
  8
SAPA_PROFIL
 10
75.799617464765362
 20
-48.499999999009731
 30
0.0
 42
-0.2679491924311199
  0
VERTEX
  5
21B0
  8
SAPA_PROFIL
 10
76.66564286854981
 20
-47.999999999009901
 30
0.0
  0
VERTEX
  5
21B1
  8
SAPA_PROFIL
 10
78.051283514604933
 20
-47.999999999009887
 30
0.0
 42
-0.5773502691897738
  0
VERTEX
  5
21B2
  8
SAPA_PROFIL
 10
78.22448859536172
 20
-48.29999999900997
 30
0.0
  0
VERTEX
  5
21B3
  8
SAPA_PROFIL
 10
77.300728164658409
 20
-49.899999999009651
 30
0.0
  0
VERTEX
  5
21B4
  8
SAPA_PROFIL
 10
77.300728164658409
 20
-50.199999999009833
 30
0.0
 42
0.414213562372901
  0
VERTEX
  5
21B5
  8
SAPA_PROFIL
 10
77.600728164658335
 20
-50.499999999009958
 30
0.0
  0
VERTEX
  5
21B6
  8
SAPA_PROFIL
 10
81.453514569158415
 20
-50.499999999009901
 30
0.0
 42
-0.2134217652834299
  0
VERTEX
  5
21B7
  8
SAPA_PROFIL
 10
81.677121366908494
 20
-50.599999999010024
 30
0.0
 42
0.7625858545243327
  0
VERTEX
  5
21B8
  8
SAPA_PROFIL
 10
82.007447447925529
 20
-50.415420796812562
 30
0.0
  0
VERTEX
  5
21B9
  8
SAPA_PROFIL
 10
81.949373810936436
 20
-50.224037796818841
 30
0.0
  0
VERTEX
  5
21BA
  8
SAPA_PROFIL
 10
80.864809363964696
 20
-48.338194104957772
 30
0.0
  0
VERTEX
  5
21BB
  8
SAPA_PROFIL
 10
80.543051635746423
 20
-48.348755471184759
 30
0.0
 42
-0.5773502691897466
  0
VERTEX
  5
21BC
  8
SAPA_PROFIL
 10
80.360097895636258
 20
-48.054599170929919
 30
0.0
  0
VERTEX
  5
21BD
  8
SAPA_PROFIL
 10
80.512231806745007
 20
-47.769916887698272
 30
0.0
 42
-0.221694662643014
  0
VERTEX
  5
21BE
  8
SAPA_PROFIL
 10
81.053111638221822
 20
-47.364107982543487
 30
0.0
  0
VERTEX
  5
21BF
  8
SAPA_PROFIL
 10
82.866342108880048
 20
-46.982661386415771
 30
0.0
 42
-0.4769755326981641
  0
VERTEX
  5
21C0
  8
SAPA_PROFIL
 10
83.237998983825946
 20
-47.284914210922238
 30
0.0
  0
VERTEX
  5
21C1
  8
SAPA_PROFIL
 10
83.237915375942293
 20
-48.788015291684239
 30
0.0
  0
VERTEX
  5
21C2
  8
SAPA_PROFIL
 10
83.190069625943806
 20
-48.802533700931349
 30
0.0
 42
0.4142135623730878
  0
VERTEX
  5
21C3
  8
SAPA_PROFIL
 10
82.990105581436396
 20
-49.176718656407161
 30
0.0
  0
VERTEX
  5
21C4
  8
SAPA_PROFIL
 10
83.500000000000085
 20
-50.495951658168977
 30
0.0
  0
VERTEX
  5
21C5
  8
SAPA_PROFIL
 10
83.500000000000114
 20
-61.89999991516234
 30
0.0
 42
0.4142135623730847
  0
VERTEX
  5
21C6
  8
SAPA_PROFIL
 10
83.700000000000131
 20
-62.099999915162343
 30
0.0
  0
VERTEX
  5
21C7
  8
SAPA_PROFIL
 10
85.299999997930684
 20
-62.099999915162329
 30
0.0
 42
-0.4142135623730951
  0
VERTEX
  5
21C8
  8
SAPA_PROFIL
 10
85.499999997930715
 20
-62.299999915162338
 30
0.0
  0
VERTEX
  5
21C9
  8
SAPA_PROFIL
 10
85.499999997930715
 20
-62.799999915162829
 30
0.0
 42
-0.4142135623730951
  0
VERTEX
  5
21CA
  8
SAPA_PROFIL
 10
84.499999997931084
 20
-63.799999915162402
 30
0.0
  0
VERTEX
  5
21CB
  8
SAPA_PROFIL
 10
76.999999250856376
 20
-63.799999915162402
 30
0.0
 42
0.4142135623730951
  0
VERTEX
  5
21CC
  8
SAPA_PROFIL
 10
75.999999997930786
 20
-64.799999168087993
 30
0.0
  0
VERTEX
  5
21CD
  8
SAPA_PROFIL
 10
75.999999997930644
 20
-70.499999999009901
 30
0.0
 42
-0.4142135623730951
  0
VERTEX
  5
21CE
  8
SAPA_PROFIL
 10
73.999999997930644
 20
-72.499999999009901
 30
0.0
  0
VERTEX
  5
21CF
  8
SAPA_PROFIL
 10
9.5000000000001741
 20
-72.499999999009901
 30
0.0
 42
-0.4142139999999795
  0
VERTEX
  5
21D0
  8
SAPA_PROFIL
 10
9.0000000000001741
 20
-71.999999999009901
 30
0.0
  0
VERTEX
  5
21D1
  8
SAPA_PROFIL
 10
9.0000000000001883
 20
-68.299999999009884
 30
0.0
 42
-0.414213999999917
  0
VERTEX
  5
21D2
  8
SAPA_PROFIL
 10
9.3000000000001144
 20
-67.999999999009901
 30
0.0
  0
VERTEX
  5
21D3
  8
SAPA_PROFIL
 10
10.06754500000015
 20
-67.999999999009901
 30
0.0
 42
-0.2896899999999867
  0
VERTEX
  5
21D4
  8
SAPA_PROFIL
 10
10.97105300000011
 20
-68.571427999009899
 30
0.0
 42
-0.5507600000000635
  0
VERTEX
  5
21D5
  8
SAPA_PROFIL
 10
10.700000000000159
 20
-68.999999999009901
 30
0.0
  0
VERTEX
  5
21D6
  8
SAPA_PROFIL
 10
10.500000000000171
 20
-68.999999999009901
 30
0.0
 42
0.4142140000000558
  0
VERTEX
  5
21D7
  8
SAPA_PROFIL
 10
10.200000000000101
 20
-69.29999999900987
 30
0.0
  0
VERTEX
  5
21D8
  8
SAPA_PROFIL
 10
10.20000000000015
 20
-70.799999999009884
 30
0.0
 42
0.4142139999999795
  0
VERTEX
  5
21D9
  8
SAPA_PROFIL
 10
10.700000000000159
 20
-71.29999999900987
 30
0.0
  0
VERTEX
  5
21DA
  8
SAPA_PROFIL
 10
14.000000000000201
 20
-71.299999999009884
 30
0.0
 42
0.4142140000000003
  0
VERTEX
  5
21DB
  8
SAPA_PROFIL
 10
14.50000000000024
 20
-70.799999999009884
 30
0.0
  0
VERTEX
  5
21DC
  8
SAPA_PROFIL
 10
14.500000000000201
 20
-69.299999999009884
 30
0.0
 42
0.4142140000000143
  0
VERTEX
  5
21DD
  8
SAPA_PROFIL
 10
14.200000000000131
 20
-68.999999999009859
 30
0.0
  0
VERTEX
  5
21DE
  8
SAPA_PROFIL
 10
14.000000000000201
 20
-68.999999999009901
 30
0.0
 42
-0.5507599999999967
  0
VERTEX
  5
21DF
  8
SAPA_PROFIL
 10
13.7289480000002
 20
-68.571427999009885
 30
0.0
 42
-0.2896899999999865
  0
VERTEX
  5
21E0
  8
SAPA_PROFIL
 10
14.63245600000012
 20
-67.999999999009901
 30
0.0
  0
VERTEX
  5
21E1
  8
SAPA_PROFIL
 10
15.62992700000011
 20
-67.999999999009901
 30
0.0
 42
-0.0436609999999814
  0
VERTEX
  5
21E2
  8
SAPA_PROFIL
 10
15.71675200000009
 20
-68.007595999009908
 30
0.0
  0
VERTEX
  5
21E3
  8
SAPA_PROFIL
 10
17.286824000000109
 20
-68.284441999009843
 30
0.0
 42
-0.839099999999982
  0
VERTEX
  5
21E4
  8
SAPA_PROFIL
 10
17.286824000000109
 20
-69.269249999009915
 30
0.0
  0
VERTEX
  5
21E5
  8
SAPA_PROFIL
 10
16.113176000000109
 20
-69.476194999009891
 30
0.0
 42
0.3639700000000465
  0
VERTEX
  5
21E6
  8
SAPA_PROFIL
 10
15.70000000000012
 20
-69.968598999009927
 30
0.0
  0
VERTEX
  5
21E7
  8
SAPA_PROFIL
 10
15.70000000000012
 20
-70.779999999009874
 30
0.0
 42
0.4373279999999983
  0
VERTEX
  5
21E8
  8
SAPA_PROFIL
 10
16.23909500000012
 20
-71.278468999009931
 30
0.0
  0
VERTEX
  5
21E9
  8
SAPA_PROFIL
 10
30.712153273416519
 20
-70.711670512614035
 30
0.0
 42
0.4023941355297885
  0
VERTEX
  5
21EA
  8
SAPA_PROFIL
 10
31.000000000000242
 20
-70.411916783787717
 30
0.0
  0
VERTEX
  5
21EB
  8
SAPA_PROFIL
 10
31.00000000000021
 20
-69.611382999009891
 30
0.0
 42
-0.2596810000001162
  0
VERTEX
  5
21EC
  8
SAPA_PROFIL
 10
31.09469300000022
 20
-69.441351999009896
 30
0.0
  0
VERTEX
  5
21ED
  8
SAPA_PROFIL
 10
32.542040000000121
 20
-68.544952999009894
 30
0.0
 42
-0.5877030000000189
  0
VERTEX
  5
21EE
  8
SAPA_PROFIL
 10
33.00000000000022
 20
-68.799999999009913
 30
0.0
  0
VERTEX
  5
21EF
  8
SAPA_PROFIL
 10
33.00000000000022
 20
-70.199999999009876
 30
0.0
 42
0.4142139999999518
  0
VERTEX
  5
21F0
  8
SAPA_PROFIL
 10
33.300000000000111
 20
-70.499999999009873
 30
0.0
  0
VERTEX
  5
21F1
  8
SAPA_PROFIL
 10
35.700000000000117
 20
-70.499999999009901
 30
0.0
 42
0.4142140000000629
  0
VERTEX
  5
21F2
  8
SAPA_PROFIL
 10
36.000000000000163
 20
-70.199999999009876
 30
0.0
  0
VERTEX
  5
21F3
  8
SAPA_PROFIL
 10
36.000000000000192
 20
-52.799999999009913
 30
0.0
 42
0.4142140000001044
  0
VERTEX
  5
21F4
  8
SAPA_PROFIL
 10
35.700000000000117
 20
-52.499999999009823
 30
0.0
  0
VERTEX
  5
21F5
  8
SAPA_PROFIL
 10
33.300000000000111
 20
-52.499999999009901
 30
0.0
 42
0.4142140000000074
  0
VERTEX
  5
21F6
  8
SAPA_PROFIL
 10
33.000000000000242
 20
-52.799999999009913
 30
0.0
  0
VERTEX
  5
21F7
  8
SAPA_PROFIL
 10
33.000000000000242
 20
-54.19999999900989
 30
0.0
 42
-0.5920054160709848
  0
VERTEX
  5
21F8
  8
SAPA_PROFIL
 10
32.538796661885293
 20
-54.453008511767649
 30
0.0
  0
VERTEX
  5
21F9
  8
SAPA_PROFIL
 10
31.29253100567233
 20
-53.658955481945981
 30
0.0
 42
-0.2562769852931301
  0
VERTEX
  5
21FA
  8
SAPA_PROFIL
 10
31.200000000000198
 20
-53.490282973047378
 30
0.0
  0
VERTEX
  5
21FB
  8
SAPA_PROFIL
 10
31.200000000000198
 20
-50.49595165816838
 30
0.0
  0
VERTEX
  5
21FC
  8
SAPA_PROFIL
 10
31.709894418563621
 20
-49.176718656407161
 30
0.0
 42
0.4142135623730872
  0
VERTEX
  5
21FD
  8
SAPA_PROFIL
 10
31.509930374056228
 20
-48.802533700931349
 30
0.0
  0
VERTEX
  5
21FE
  8
SAPA_PROFIL
 10
31.462084624057741
 20
-48.788015291684239
 30
0.0
  0
VERTEX
  5
21FF
  8
SAPA_PROFIL
 10
31.462001016174121
 20
-47.284914210922238
 30
0.0
 42
-0.4769755326981643
  0
VERTEX
  5
2200
  8
SAPA_PROFIL
 10
31.833657891119952
 20
-46.982661386415771
 30
0.0
  0
VERTEX
  5
2201
  8
SAPA_PROFIL
 10
33.646888361778238
 20
-47.364107982543473
 30
0.0
 42
-0.221694662643016
  0
VERTEX
  5
2202
  8
SAPA_PROFIL
 10
34.187768193255003
 20
-47.76991688769828
 30
0.0
  0
VERTEX
  5
2203
  8
SAPA_PROFIL
 10
34.339902104363759
 20
-48.054599170929933
 30
0.0
 42
-0.5773502691897466
  0
VERTEX
  5
2204
  8
SAPA_PROFIL
 10
34.15694836425358
 20
-48.348755471184752
 30
0.0
  0
VERTEX
  5
2205
  8
SAPA_PROFIL
 10
33.835190636035342
 20
-48.338194104957772
 30
0.0
  0
VERTEX
  5
2206
  8
SAPA_PROFIL
 10
32.750626189063603
 20
-50.224037796818841
 30
0.0
  0
VERTEX
  5
2207
  8
SAPA_PROFIL
 10
32.692552552074503
 20
-50.415420796812562
 30
0.0
 42
0.7625858545243331
  0
VERTEX
  5
2208
  8
SAPA_PROFIL
 10
33.022878633091509
 20
-50.599999999010024
 30
0.0
 42
-0.2134217652834442
  0
SEQEND
  5
2209
  8
SAPA_PROFIL
  0
POLYLINE
  5
1692
  8
SAPA_PROFIL
 66
     1
 10
0.0
 20
0.0
 30
0.0
 70
     1
  0
VERTEX
  5
220A
  8
SAPA_PROFIL
 10
71.999999957930697
 20
-52.599999999009903
 30
0.0
 42
-0.4142135623730951
  0
VERTEX
  5
220B
  8
SAPA_PROFIL
 10
71.79999995793068
 20
-52.799999999009913
 30
0.0
  0
VERTEX
  5
220C
  8
SAPA_PROFIL
 10
70.199999957930629
 20
-52.799999999009877
 30
0.0
 42
-0.4142135623730951
  0
VERTEX
  5
220D
  8
SAPA_PROFIL
 10
69.99999995793064
 20
-52.599999999009903
 30
0.0
  0
VERTEX
  5
220E
  8
SAPA_PROFIL
 10
69.99999995793064
 20
-52.299999915136588
 30
0.0
  0
VERTEX
  5
220F
  8
SAPA_PROFIL
 10
41.700000000000109
 20
-52.299999915136588
 30
0.0
  0
VERTEX
  5
2210
  8
SAPA_PROFIL
 10
41.700000000000109
 20
-52.599999999009903
 30
0.0
 42
-0.4142135623730951
  0
VERTEX
  5
2211
  8
SAPA_PROFIL
 10
41.500000000000121
 20
-52.799999999009913
 30
0.0
  0
VERTEX
  5
2212
  8
SAPA_PROFIL
 10
39.900000000000112
 20
-52.799999999009877
 30
0.0
 42
-0.4142135623730951
  0
VERTEX
  5
2213
  8
SAPA_PROFIL
 10
39.700000000000117
 20
-52.599999999009903
 30
0.0
  0
VERTEX
  5
2214
  8
SAPA_PROFIL
 10
39.700000000000117
 20
-52.299999915136588
 30
0.0
  0
VERTEX
  5
2215
  8
SAPA_PROFIL
 10
38.000000000000128
 20
-52.299999915136588
 30
0.0
 42
0.4142135623730951
  0
VERTEX
  5
2216
  8
SAPA_PROFIL
 10
37.700000000000117
 20
-52.59999991513655
 30
0.0
  0
VERTEX
  5
2217
  8
SAPA_PROFIL
 10
37.700000000000117
 20
-70.199999999009876
 30
0.0
 42
0.4142135623730951
  0
VERTEX
  5
2218
  8
SAPA_PROFIL
 10
38.000000000000128
 20
-70.499999999009901
 30
0.0
  0
VERTEX
  5
2219
  8
SAPA_PROFIL
 10
39.700000000000117
 20
-70.499999999009901
 30
0.0
  0
VERTEX
  5
221A
  8
SAPA_PROFIL
 10
39.700000000000117
 20
-70.399999999009879
 30
0.0
 42
-0.4142135623730951
  0
VERTEX
  5
221B
  8
SAPA_PROFIL
 10
39.900000000000112
 20
-70.199999999009876
 30
0.0
  0
VERTEX
  5
221C
  8
SAPA_PROFIL
 10
41.500000000000121
 20
-70.199999999009876
 30
0.0
 42
-0.4142135623730951
  0
VERTEX
  5
221D
  8
SAPA_PROFIL
 10
41.700000000000109
 20
-70.399999999009879
 30
0.0
  0
VERTEX
  5
221E
  8
SAPA_PROFIL
 10
41.700000000000109
 20
-70.499999999009901
 30
0.0
  0
VERTEX
  5
221F
  8
SAPA_PROFIL
 10
69.99999995793064
 20
-70.499999999009901
 30
0.0
  0
VERTEX
  5
2220
  8
SAPA_PROFIL
 10
69.99999995793064
 20
-70.399999999009879
 30
0.0
 42
-0.4142135623730951
  0
VERTEX
  5
2221
  8
SAPA_PROFIL
 10
70.199999957930629
 20
-70.199999999009876
 30
0.0
  0
VERTEX
  5
2222
  8
SAPA_PROFIL
 10
71.79999995793068
 20
-70.199999999009904
 30
0.0
 42
-0.4142135623730951
  0
VERTEX
  5
2223
  8
SAPA_PROFIL
 10
71.99999995793064
 20
-70.399999999009879
 30
0.0
  0
VERTEX
  5
2224
  8
SAPA_PROFIL
 10
71.99999995793064
 20
-70.499999999009901
 30
0.0
  0
VERTEX
  5
2225
  8
SAPA_PROFIL
 10
73.999999997930672
 20
-70.499999999009901
 30
0.0
 42
0.4142135623732158
  0
VERTEX
  5
2226
  8
SAPA_PROFIL
 10
74.299999997930769
 20
-70.199999999009918
 30
0.0
  0
VERTEX
  5
2227
  8
SAPA_PROFIL
 10
74.299999997930712
 20
-64.799999168087993
 30
0.0
 42
-0.4142135623730951
  0
VERTEX
  5
2228
  8
SAPA_PROFIL
 10
76.999999250856376
 20
-62.099999915162329
 30
0.0
  0
VERTEX
  5
2229
  8
SAPA_PROFIL
 10
81.500000000000142
 20
-62.099999915162329
 30
0.0
 42
0.4142135623730951
  0
VERTEX
  5
222A
  8
SAPA_PROFIL
 10
81.800000000000125
 20
-61.799999915162338
 30
0.0
  0
VERTEX
  5
222B
  8
SAPA_PROFIL
 10
81.800000000000125
 20
-52.59999991513655
 30
0.0
 42
0.4142135623730951
  0
VERTEX
  5
222C
  8
SAPA_PROFIL
 10
81.500000000000114
 20
-52.299999915136588
 30
0.0
  0
VERTEX
  5
222D
  8
SAPA_PROFIL
 10
71.99999995793064
 20
-52.299999915136588
 30
0.0
  0
SEQEND
  5
222E
  8
SAPA_PROFIL
  0
POLYLINE
  5
1693
  8
SAPA_PROFIL
 62
     4
 66
     1
 10
0.0
 20
0.0
 30
0.0
  0
VERTEX
  5
222F
  8
SAPA_PROFIL
 62
     4
 10
33.932281085847137
 20
-38.549329121449603
 30
0.0
 42
0.5571646428658034
  0
VERTEX
  5
2230
  8
SAPA_PROFIL
 62
     4
 10
34.80000000000269
 20
-38.012368617312781
 30
0.0
  0
VERTEX
  5
2231
  8
SAPA_PROFIL
 62
     4
 10
34.800000000002228
 20
-20.98763138079158
 30
0.0
 42
0.5571645048035741
  0
VERTEX
  5
2232
  8
SAPA_PROFIL
 62
     4
 10
33.932281312136062
 20
-20.450670763830519
 30
0.0
  0
VERTEX
  5
2233
  8
SAPA_PROFIL
 62
     4
 10
32.266140656068032
 20
-21.281377851377218
 30
0.0
 42
0.284385813979063
  0
VERTEX
  5
2234
  8
SAPA_PROFIL
 62
     4
 10
32.100000000000591
 20
-21.549858159857571
 30
0.0
  0
VERTEX
  5
2235
  8
SAPA_PROFIL
 62
     4
 10
32.100000000000598
 20
-37.450141838246878
 30
0.0
 42
0.2843858139786238
  0
VERTEX
  5
2236
  8
SAPA_PROFIL
 62
     4
 10
32.266140656067527
 20
-37.718622146727157
 30
0.0
  0
VERTEX
  5
2237
  8
SAPA_PROFIL
 62
     4
 10
33.93228131213688
 20
-38.549329234274317
 30
0.0
  0
SEQEND
  5
2238
  8
SAPA_PROFIL
 62
     4
  0
POLYLINE
  5
1694
  8
SAPA_PROFIL
 62
     4
 66
     1
 10
0.0
 20
0.0
 30
0.0
 70
     1
  0
VERTEX
  5
2239
  8
SAPA_PROFIL
 62
     4
 10
31.74316848550302
 20
-15.082388814384929
 30
0.0
  0
VERTEX
  5
223A
  8
SAPA_PROFIL
 62
     4
 10
31.33660828949888
 20
-14.81836553600891
 30
0.0
 42
-0.2539676464751066
  0
VERTEX
  5
223B
  8
SAPA_PROFIL
 62
     4
 10
31.200000000002781
 20
-14.566764365624209
 30
0.0
  0
VERTEX
  5
223C
  8
SAPA_PROFIL
 62
     4
 10
31.200000000002781
 20
-13.18526478041886
 30
0.0
 42
-0.3152987888790479
  0
VERTEX
  5
223D
  8
SAPA_PROFIL
 62
     4
 10
31.528989928340941
 20
-12.715418470026551
 30
0.0
  0
VERTEX
  5
223E
  8
SAPA_PROFIL
 62
     4
 10
33.98982011879221
 20
-11.81974952911794
 30
0.0
 42
0.2694959974287434
  0
VERTEX
  5
223F
  8
SAPA_PROFIL
 62
     4
 10
34.182952093136102
 20
-11.58823048271659
 30
0.0
 42
0.0612686379508233
  0
VERTEX
  5
2240
  8
SAPA_PROFIL
 62
     4
 10
34.196535463766622
 20
-11.29555504986331
 30
0.0
  0
VERTEX
  5
2241
  8
SAPA_PROFIL
 62
     4
 10
34.398272142495443
 20
-10.946136872555041
 30
0.0
 42
0.5773502691891679
  0
VERTEX
  5
2242
  8
SAPA_PROFIL
 62
     4
 10
34.216406807700878
 20
-10.63113687255546
 30
0.0
  0
VERTEX
  5
2243
  8
SAPA_PROFIL
 62
     4
 10
33.949292279574557
 20
-10.631136872555221
 30
0.0
  0
VERTEX
  5
2244
  8
SAPA_PROFIL
 62
     4
 10
33.140608818266251
 20
-9.2326091719209629
 30
0.0
 42
-0.1318219888653519
  0
VERTEX
  5
2245
  8
SAPA_PROFIL
 62
     4
 10
33.100316421728849
 20
-9.0824360694486188
 30
0.0
  0
VERTEX
  5
2246
  8
SAPA_PROFIL
 62
     4
 10
33.100316421735222
 20
-8.8999999990118397
 30
0.0
 42
-0.4142135623724291
  0
VERTEX
  5
2247
  8
SAPA_PROFIL
 62
     4
 10
33.500316421734851
 20
-8.4999999990112922
 30
0.0
  0
VERTEX
  5
2248
  8
SAPA_PROFIL
 62
     4
 10
36.900316421735852
 20
-8.4999999990126582
 30
0.0
 42
-0.4142135623744271
  0
VERTEX
  5
2249
  8
SAPA_PROFIL
 62
     4
 10
37.300316421736852
 20
-8.8999999990118397
 30
0.0
  0
VERTEX
  5
224A
  8
SAPA_PROFIL
 62
     4
 10
37.300316421737492
 20
-9.0796152412831432
 30
0.0
 42
-0.1316524975874005
  0
VERTEX
  5
224B
  8
SAPA_PROFIL
 62
     4
 10
37.260124042871887
 20
-9.2296152412799586
 30
0.0
  0
VERTEX
  5
224C
  8
SAPA_PROFIL
 62
     4
 10
36.333974596219363
 20
-10.83375313828221
 30
0.0
 42
0.1316524975875904
  0
VERTEX
  5
224D
  8
SAPA_PROFIL
 62
     4
 10
36.200000000004593
 20
-11.333753138283919
 30
0.0
  0
VERTEX
  5
224E
  8
SAPA_PROFIL
 62
     4
 10
36.200000000004593
 20
-11.74999999901129
 30
0.0
 42
0.4142135623730951
  0
VERTEX
  5
224F
  8
SAPA_PROFIL
 62
     4
 10
37.200000000004593
 20
-12.74999999901129
 30
0.0
  0
VERTEX
  5
2250
  8
SAPA_PROFIL
 62
     4
 10
40.200000000001857
 20
-12.74999999901129
 30
0.0
 42
-0.9999996830128083
  0
VERTEX
  5
2251
  8
SAPA_PROFIL
 62
     4
 10
40.200000000003683
 20
-13.74999999901129
 30
0.0
  0
VERTEX
  5
2252
  8
SAPA_PROFIL
 62
     4
 10
37.200000000003683
 20
-13.74999999901129
 30
0.0
 42
0.4142135623730951
  0
VERTEX
  5
2253
  8
SAPA_PROFIL
 62
     4
 10
36.200000000003691
 20
-14.74999999901129
 30
0.0
  0
VERTEX
  5
2254
  8
SAPA_PROFIL
 62
     4
 10
36.200000000003691
 20
-44.24999999909587
 30
0.0
 42
0.4142135623730951
  0
VERTEX
  5
2255
  8
SAPA_PROFIL
 62
     4
 10
37.200000000003691
 20
-45.249999999095877
 30
0.0
  0
VERTEX
  5
2256
  8
SAPA_PROFIL
 62
     4
 10
40.200000000001857
 20
-45.249999999095877
 30
0.0
 42
-0.9999999999999998
  0
VERTEX
  5
2257
  8
SAPA_PROFIL
 62
     4
 10
40.200000000001857
 20
-46.24999999909587
 30
0.0
  0
VERTEX
  5
2258
  8
SAPA_PROFIL
 62
     4
 10
37.200000000003691
 20
-46.24999999909587
 30
0.0
 42
0.4142135623736278
  0
VERTEX
  5
2259
  8
SAPA_PROFIL
 62
     4
 10
36.200000000003691
 20
-47.24999999909587
 30
0.0
  0
VERTEX
  5
225A
  8
SAPA_PROFIL
 62
     4
 10
36.200000000003691
 20
-47.66624685982233
 30
0.0
 42
0.1316524975874375
  0
VERTEX
  5
225B
  8
SAPA_PROFIL
 62
     4
 10
36.333974596219733
 20
-48.166246859822543
 30
0.0
  0
VERTEX
  5
225C
  8
SAPA_PROFIL
 62
     4
 10
37.260124042871901
 20
-49.770384756824477
 30
0.0
 42
-0.1316524975874
  0
VERTEX
  5
225D
  8
SAPA_PROFIL
 62
     4
 10
37.300316421737492
 20
-49.920384756824021
 30
0.0
  0
VERTEX
  5
225E
  8
SAPA_PROFIL
 62
     4
 10
37.300316421736859
 20
-50.099999999095331
 30
0.0
 42
-0.4142135623744271
  0
VERTEX
  5
225F
  8
SAPA_PROFIL
 62
     4
 10
36.900316421735859
 20
-50.499999999094513
 30
0.0
  0
VERTEX
  5
2260
  8
SAPA_PROFIL
 62
     4
 10
33.500316421734858
 20
-50.49999999909587
 30
0.0
 42
-0.4142135623724291
  0
VERTEX
  5
2261
  8
SAPA_PROFIL
 62
     4
 10
33.100316421735222
 20
-50.099999999095331
 30
0.0
  0
VERTEX
  5
2262
  8
SAPA_PROFIL
 62
     4
 10
33.100316421728863
 20
-49.917563928658552
 30
0.0
 42
-0.1318219888653524
  0
VERTEX
  5
2263
  8
SAPA_PROFIL
 62
     4
 10
33.140608818266251
 20
-49.767390826186208
 30
0.0
  0
VERTEX
  5
2264
  8
SAPA_PROFIL
 62
     4
 10
33.949292279490592
 20
-48.368863125706547
 30
0.0
  0
VERTEX
  5
2265
  8
SAPA_PROFIL
 62
     4
 10
34.216406807703621
 20
-48.368863125706547
 30
0.0
 42
0.577350269189159
  0
VERTEX
  5
2266
  8
SAPA_PROFIL
 62
     4
 10
34.398272142498193
 20
-48.053863125706947
 30
0.0
  0
VERTEX
  5
2267
  8
SAPA_PROFIL
 62
     4
 10
34.196535463821078
 20
-47.704444948488288
 30
0.0
 42
0.0612687673629489
  0
VERTEX
  5
2268
  8
SAPA_PROFIL
 62
     4
 10
34.182952093134872
 20
-47.41176951538808
 30
0.0
 42
0.2694959974285039
  0
VERTEX
  5
2269
  8
SAPA_PROFIL
 62
     4
 10
33.989820118790917
 20
-47.180250468987552
 30
0.0
  0
VERTEX
  5
226A
  8
SAPA_PROFIL
 62
     4
 10
31.528989928337761
 20
-46.284581528077887
 30
0.0
 42
-0.3152987888784035
  0
VERTEX
  5
226B
  8
SAPA_PROFIL
 62
     4
 10
31.200000000001179
 20
-45.814735217684671
 30
0.0
  0
VERTEX
  5
226C
  8
SAPA_PROFIL
 62
     4
 10
31.200000000002781
 20
-44.433235632480233
 30
0.0
 42
-0.2539676464741841
  0
VERTEX
  5
226D
  8
SAPA_PROFIL
 62
     4
 10
31.336608289498059
 20
-44.181634462096149
 30
0.0
  0
VERTEX
  5
226E
  8
SAPA_PROFIL
 62
     4
 10
31.74316848550303
 20
-43.917611183719522
 30
0.0
 42
-0.5862177598324623
  0
VERTEX
  5
226F
  8
SAPA_PROFIL
 62
     4
 10
32.199999999999541
 20
-44.173352998957853
 30
0.0
  0
VERTEX
  5
2270
  8
SAPA_PROFIL
 62
     4
 10
32.199999999991867
 20
-45.114527679467663
 30
0.0
 42
0.3152987888813165
  0
VERTEX
  5
2271
  8
SAPA_PROFIL
 62
     4
 10
32.52898992832862
 20
-45.584373989865419
 30
0.0
  0
VERTEX
  5
2272
  8
SAPA_PROFIL
 62
     4
 10
33.72898992833985
 20
-46.021138270989383
 30
0.0
 42
0.5205670505515651
  0
VERTEX
  5
2273
  8
SAPA_PROFIL
 62
     4
 10
34.400000000002599
 20
-45.55129196059616
 30
0.0
  0
VERTEX
  5
2274
  8
SAPA_PROFIL
 62
     4
 10
34.400000000002628
 20
-40.534851019927302
 30
0.0
 42
0.3702522326300203
  0
VERTEX
  5
2275
  8
SAPA_PROFIL
 62
     4
 10
34.145540047336908
 20
-40.238327658133983
 30
0.0
 42
0.0982365330332397
  0
VERTEX
  5
2276
  8
SAPA_PROFIL
 62
     4
 10
32.457853272341907
 20
-40.147874899923032
 30
0.0
 42
0.3735060174783164
  0
VERTEX
  5
2277
  8
SAPA_PROFIL
 62
     4
 10
32.200000000001879
 20
-40.444899567834021
 30
0.0
  0
VERTEX
  5
2278
  8
SAPA_PROFIL
 62
     4
 10
32.200000000000969
 20
-40.873352998956669
 30
0.0
 42
-0.5920056181162531
  0
VERTEX
  5
2279
  8
SAPA_PROFIL
 62
     4
 10
31.738796497473039
 20
-41.126361755274068
 30
0.0
  0
VERTEX
  5
227A
  8
SAPA_PROFIL
 62
     4
 10
31.336608289494741
 20
-40.865177679118368
 30
0.0
 42
-0.2539676464746725
  0
VERTEX
  5
227B
  8
SAPA_PROFIL
 62
     4
 10
31.199999999999381
 20
-40.61357650873461
 30
0.0
  0
VERTEX
  5
227C
  8
SAPA_PROFIL
 62
     4
 10
31.200000000000959
 20
-18.386423489368919
 30
0.0
 42
-0.2539676464741819
  0
VERTEX
  5
227D
  8
SAPA_PROFIL
 62
     4
 10
31.336608289494741
 20
-18.134822318986071
 30
0.0
  0
VERTEX
  5
227E
  8
SAPA_PROFIL
 62
     4
 10
31.738796497473071
 20
-17.87363824283225
 30
0.0
 42
-0.5920055144124249
  0
VERTEX
  5
227F
  8
SAPA_PROFIL
 62
     4
 10
32.200000000000962
 20
-18.126646999147759
 30
0.0
  0
VERTEX
  5
2280
  8
SAPA_PROFIL
 62
     4
 10
32.199999974725948
 20
-18.555100476437978
 30
0.0
 42
0.3735060174775405
  0
VERTEX
  5
2281
  8
SAPA_PROFIL
 62
     4
 10
32.457853247066041
 20
-18.852125144347671
 30
0.0
 42
0.0355900683670349
  0
VERTEX
  5
2282
  8
SAPA_PROFIL
 62
     4
 10
33.073726833865827
 20
-18.89601870837992
 30
0.0
 42
0.0624282003873116
  0
VERTEX
  5
2283
  8
SAPA_PROFIL
 62
     4
 10
34.145540022060963
 20
-18.761672386136979
 30
0.0
 42
0.3702522326309292
  0
VERTEX
  5
2284
  8
SAPA_PROFIL
 62
     4
 10
34.399999974726683
 20
-18.46514902434361
 30
0.0
  0
VERTEX
  5
2285
  8
SAPA_PROFIL
 62
     4
 10
34.400000000002812
 20
-13.4487080375101
 30
0.0
 42
0.5205670505515692
  0
VERTEX
  5
2286
  8
SAPA_PROFIL
 62
     4
 10
33.728989928339843
 20
-12.978861727116881
 30
0.0
  0
VERTEX
  5
2287
  8
SAPA_PROFIL
 62
     4
 10
32.528989928330397
 20
-13.41562600824183
 30
0.0
 42
0.3152987888807539
  0
VERTEX
  5
2288
  8
SAPA_PROFIL
 62
     4
 10
32.19999999999277
 20
-13.88547231863768
 30
0.0
  0
VERTEX
  5
2289
  8
SAPA_PROFIL
 62
     4
 10
32.199999999999591
 20
-14.82664699914676
 30
0.0
 42
-0.5862175119221242
  0
VERTEX
  5
228A
  8
SAPA_PROFIL
 62
     4
 10
31.743168674244458
 20
-15.082388930128721
 30
0.0
 42
0.0000002084758573
  0
SEQEND
  5
228B
  8
SAPA_PROFIL
 62
     4
  0
POLYLINE
  5
1695
  8
SAPA_PROFIL
 62
     4
 66
     1
 10
0.0
 20
0.0
 30
0.0
  0
VERTEX
  5
228C
  8
SAPA_PROFIL
 62
     4
 10
80.767718914153235
 20
-38.549329121449603
 30
0.0
 42
-0.5571646428658034
  0
VERTEX
  5
228D
  8
SAPA_PROFIL
 62
     4
 10
79.899999999997689
 20
-38.012368617312781
 30
0.0
  0
VERTEX
  5
228E
  8
SAPA_PROFIL
 62
     4
 10
79.899999999998158
 20
-20.98763138079158
 30
0.0
 42
-0.5571645048035741
  0
VERTEX
  5
228F
  8
SAPA_PROFIL
 62
     4
 10
80.767718687864331
 20
-20.450670763830519
 30
0.0
  0
VERTEX
  5
2290
  8
SAPA_PROFIL
 62
     4
 10
82.433859343932355
 20
-21.281377851377218
 30
0.0
 42
-0.284385813979063
  0
VERTEX
  5
2291
  8
SAPA_PROFIL
 62
     4
 10
82.599999999999795
 20
-21.549858159857571
 30
0.0
  0
VERTEX
  5
2292
  8
SAPA_PROFIL
 62
     4
 10
82.599999999999795
 20
-37.450141838246878
 30
0.0
 42
-0.2843858139786238
  0
VERTEX
  5
2293
  8
SAPA_PROFIL
 62
     4
 10
82.433859343932866
 20
-37.718622146727157
 30
0.0
  0
VERTEX
  5
2294
  8
SAPA_PROFIL
 62
     4
 10
80.767718687863521
 20
-38.549329234274317
 30
0.0
  0
SEQEND
  5
2295
  8
SAPA_PROFIL
 62
     4
  0
POLYLINE
  5
1696
  8
SAPA_PROFIL
 62
     4
 66
     1
 10
0.0
 20
0.0
 30
0.0
 70
     1
  0
VERTEX
  5
2296
  8
SAPA_PROFIL
 62
     4
 10
82.956831514497367
 20
-15.082388814384929
 30
0.0
  0
VERTEX
  5
2297
  8
SAPA_PROFIL
 62
     4
 10
83.363391710501503
 20
-14.81836553600891
 30
0.0
 42
0.2539676464751066
  0
VERTEX
  5
2298
  8
SAPA_PROFIL
 62
     4
 10
83.499999999997613
 20
-14.566764365624209
 30
0.0
  0
VERTEX
  5
2299
  8
SAPA_PROFIL
 62
     4
 10
83.499999999997613
 20
-13.18526478041886
 30
0.0
 42
0.3152987888790479
  0
VERTEX
  5
229A
  8
SAPA_PROFIL
 62
     4
 10
83.171010071659452
 20
-12.715418470026551
 30
0.0
  0
VERTEX
  5
229B
  8
SAPA_PROFIL
 62
     4
 10
80.710179881208177
 20
-11.81974952911794
 30
0.0
 42
-0.2694959974287434
  0
VERTEX
  5
229C
  8
SAPA_PROFIL
 62
     4
 10
80.517047906864263
 20
-11.58823048271659
 30
0.0
 42
-0.0612686379508233
  0
VERTEX
  5
229D
  8
SAPA_PROFIL
 62
     4
 10
80.503464536233764
 20
-11.29555504986331
 30
0.0
  0
VERTEX
  5
229E
  8
SAPA_PROFIL
 62
     4
 10
80.301727857504943
 20
-10.946136872555041
 30
0.0
 42
-0.5773502691891679
  0
VERTEX
  5
229F
  8
SAPA_PROFIL
 62
     4
 10
80.483593192299494
 20
-10.63113687255546
 30
0.0
  0
VERTEX
  5
22A0
  8
SAPA_PROFIL
 62
     4
 10
80.750707720425822
 20
-10.631136872555221
 30
0.0
  0
VERTEX
  5
22A1
  8
SAPA_PROFIL
 62
     4
 10
81.559391181734142
 20
-9.2326091719209629
 30
0.0
 42
0.1318219888653519
  0
VERTEX
  5
22A2
  8
SAPA_PROFIL
 62
     4
 10
81.599683578271524
 20
-9.0824360694486188
 30
0.0
  0
VERTEX
  5
22A3
  8
SAPA_PROFIL
 62
     4
 10
81.599683578265171
 20
-8.8999999990118397
 30
0.0
 42
0.4142135623724291
  0
VERTEX
  5
22A4
  8
SAPA_PROFIL
 62
     4
 10
81.199683578265535
 20
-8.4999999990112922
 30
0.0
  0
VERTEX
  5
22A5
  8
SAPA_PROFIL
 62
     4
 10
77.799683578264535
 20
-8.4999999990126582
 30
0.0
 42
0.4142135623744271
  0
VERTEX
  5
22A6
  8
SAPA_PROFIL
 62
     4
 10
77.399683578263534
 20
-8.8999999990118397
 30
0.0
  0
VERTEX
  5
22A7
  8
SAPA_PROFIL
 62
     4
 10
77.399683578262895
 20
-9.0796152412831432
 30
0.0
 42
0.1316524975874005
  0
VERTEX
  5
22A8
  8
SAPA_PROFIL
 62
     4
 10
77.439875957128493
 20
-9.2296152412799586
 30
0.0
  0
VERTEX
  5
22A9
  8
SAPA_PROFIL
 62
     4
 10
78.366025403781023
 20
-10.83375313828221
 30
0.0
 42
-0.1316524975875904
  0
VERTEX
  5
22AA
  8
SAPA_PROFIL
 62
     4
 10
78.499999999995794
 20
-11.333753138283919
 30
0.0
  0
VERTEX
  5
22AB
  8
SAPA_PROFIL
 62
     4
 10
78.499999999995794
 20
-11.74999999901129
 30
0.0
 42
-0.4142135623730951
  0
VERTEX
  5
22AC
  8
SAPA_PROFIL
 62
     4
 10
77.499999999995794
 20
-12.74999999901129
 30
0.0
  0
VERTEX
  5
22AD
  8
SAPA_PROFIL
 62
     4
 10
74.499999999998522
 20
-12.74999999901129
 30
0.0
 42
0.9999996830128083
  0
VERTEX
  5
22AE
  8
SAPA_PROFIL
 62
     4
 10
74.499999999996703
 20
-13.74999999901129
 30
0.0
  0
VERTEX
  5
22AF
  8
SAPA_PROFIL
 62
     4
 10
77.499999999996703
 20
-13.74999999901129
 30
0.0
 42
-0.4142135623730951
  0
VERTEX
  5
22B0
  8
SAPA_PROFIL
 62
     4
 10
78.499999999996703
 20
-14.74999999901129
 30
0.0
  0
VERTEX
  5
22B1
  8
SAPA_PROFIL
 62
     4
 10
78.499999999996703
 20
-44.24999999909587
 30
0.0
 42
-0.4142135623730951
  0
VERTEX
  5
22B2
  8
SAPA_PROFIL
 62
     4
 10
77.499999999996703
 20
-45.249999999095877
 30
0.0
  0
VERTEX
  5
22B3
  8
SAPA_PROFIL
 62
     4
 10
74.499999999998522
 20
-45.249999999095877
 30
0.0
 42
0.9999999999999998
  0
VERTEX
  5
22B4
  8
SAPA_PROFIL
 62
     4
 10
74.499999999998522
 20
-46.24999999909587
 30
0.0
  0
VERTEX
  5
22B5
  8
SAPA_PROFIL
 62
     4
 10
77.499999999996703
 20
-46.24999999909587
 30
0.0
 42
-0.4142135623736278
  0
VERTEX
  5
22B6
  8
SAPA_PROFIL
 62
     4
 10
78.499999999996703
 20
-47.24999999909587
 30
0.0
  0
VERTEX
  5
22B7
  8
SAPA_PROFIL
 62
     4
 10
78.499999999996689
 20
-47.66624685982233
 30
0.0
 42
-0.1316524975874375
  0
VERTEX
  5
22B8
  8
SAPA_PROFIL
 62
     4
 10
78.366025403780654
 20
-48.166246859822543
 30
0.0
  0
VERTEX
  5
22B9
  8
SAPA_PROFIL
 62
     4
 10
77.439875957128478
 20
-49.770384756824477
 30
0.0
 42
0.1316524975874
  0
VERTEX
  5
22BA
  8
SAPA_PROFIL
 62
     4
 10
77.399683578262895
 20
-49.920384756824021
 30
0.0
  0
VERTEX
  5
22BB
  8
SAPA_PROFIL
 62
     4
 10
77.39968357826352
 20
-50.099999999095331
 30
0.0
 42
0.4142135623744271
  0
VERTEX
  5
22BC
  8
SAPA_PROFIL
 62
     4
 10
77.799683578264521
 20
-50.499999999094513
 30
0.0
  0
VERTEX
  5
22BD
  8
SAPA_PROFIL
 62
     4
 10
81.199683578265521
 20
-50.49999999909587
 30
0.0
 42
0.4142135623724291
  0
VERTEX
  5
22BE
  8
SAPA_PROFIL
 62
     4
 10
81.599683578265157
 20
-50.099999999095331
 30
0.0
  0
VERTEX
  5
22BF
  8
SAPA_PROFIL
 62
     4
 10
81.599683578271524
 20
-49.917563928658552
 30
0.0
 42
0.1318219888653524
  0
VERTEX
  5
22C0
  8
SAPA_PROFIL
 62
     4
 10
81.559391181734142
 20
-49.767390826186208
 30
0.0
  0
VERTEX
  5
22C1
  8
SAPA_PROFIL
 62
     4
 10
80.750707720509808
 20
-48.368863125706547
 30
0.0
  0
VERTEX
  5
22C2
  8
SAPA_PROFIL
 62
     4
 10
80.483593192296766
 20
-48.368863125706547
 30
0.0
 42
-0.577350269189159
  0
VERTEX
  5
22C3
  8
SAPA_PROFIL
 62
     4
 10
80.3017278575022
 20
-48.053863125706947
 30
0.0
  0
VERTEX
  5
22C4
  8
SAPA_PROFIL
 62
     4
 10
80.503464536179308
 20
-47.704444948488288
 30
0.0
 42
-0.0612687673629489
  0
VERTEX
  5
22C5
  8
SAPA_PROFIL
 62
     4
 10
80.517047906865514
 20
-47.41176951538808
 30
0.0
 42
-0.2694959974285039
  0
VERTEX
  5
22C6
  8
SAPA_PROFIL
 62
     4
 10
80.710179881209456
 20
-47.180250468987552
 30
0.0
  0
VERTEX
  5
22C7
  8
SAPA_PROFIL
 62
     4
 10
83.171010071662636
 20
-46.284581528077887
 30
0.0
 42
0.3152987888784035
  0
VERTEX
  5
22C8
  8
SAPA_PROFIL
 62
     4
 10
83.499999999999204
 20
-45.814735217684671
 30
0.0
  0
VERTEX
  5
22C9
  8
SAPA_PROFIL
 62
     4
 10
83.499999999997613
 20
-44.433235632480233
 30
0.0
 42
0.2539676464741841
  0
VERTEX
  5
22CA
  8
SAPA_PROFIL
 62
     4
 10
83.363391710502341
 20
-44.181634462096149
 30
0.0
  0
VERTEX
  5
22CB
  8
SAPA_PROFIL
 62
     4
 10
82.956831514497367
 20
-43.917611183719522
 30
0.0
 42
0.5862177598324623
  0
VERTEX
  5
22CC
  8
SAPA_PROFIL
 62
     4
 10
82.500000000000853
 20
-44.173352998957853
 30
0.0
  0
VERTEX
  5
22CD
  8
SAPA_PROFIL
 62
     4
 10
82.500000000008527
 20
-45.114527679467663
 30
0.0
 42
-0.3152987888813165
  0
VERTEX
  5
22CE
  8
SAPA_PROFIL
 62
     4
 10
82.171010071671773
 20
-45.584373989865419
 30
0.0
  0
VERTEX
  5
22CF
  8
SAPA_PROFIL
 62
     4
 10
80.971010071660544
 20
-46.021138270989383
 30
0.0
 42
-0.5205670505515651
  0
VERTEX
  5
22D0
  8
SAPA_PROFIL
 62
     4
 10
80.299999999997794
 20
-45.55129196059616
 30
0.0
  0
VERTEX
  5
22D1
  8
SAPA_PROFIL
 62
     4
 10
80.299999999997766
 20
-40.534851019927302
 30
0.0
 42
-0.3702522326300203
  0
VERTEX
  5
22D2
  8
SAPA_PROFIL
 62
     4
 10
80.554459952663464
 20
-40.238327658133983
 30
0.0
 42
-0.0982365330332397
  0
VERTEX
  5
22D3
  8
SAPA_PROFIL
 62
     4
 10
82.242146727658479
 20
-40.147874899923032
 30
0.0
 42
-0.3735060174783164
  0
VERTEX
  5
22D4
  8
SAPA_PROFIL
 62
     4
 10
82.499999999998494
 20
-40.444899567834021
 30
0.0
  0
VERTEX
  5
22D5
  8
SAPA_PROFIL
 62
     4
 10
82.499999999999432
 20
-40.873352998956669
 30
0.0
 42
0.5920056181162531
  0
VERTEX
  5
22D6
  8
SAPA_PROFIL
 62
     4
 10
82.961203502527354
 20
-41.126361755274068
 30
0.0
  0
VERTEX
  5
22D7
  8
SAPA_PROFIL
 62
     4
 10
83.363391710505667
 20
-40.865177679118368
 30
0.0
 42
0.2539676464746725
  0
VERTEX
  5
22D8
  8
SAPA_PROFIL
 62
     4
 10
83.500000000000995
 20
-40.61357650873461
 30
0.0
  0
VERTEX
  5
22D9
  8
SAPA_PROFIL
 62
     4
 10
83.499999999999417
 20
-18.386423489368919
 30
0.0
 42
0.2539676464741819
  0
VERTEX
  5
22DA
  8
SAPA_PROFIL
 62
     4
 10
83.363391710505667
 20
-18.134822318986071
 30
0.0
  0
VERTEX
  5
22DB
  8
SAPA_PROFIL
 62
     4
 10
82.961203502527312
 20
-17.87363824283225
 30
0.0
 42
0.5920055144124249
  0
VERTEX
  5
22DC
  8
SAPA_PROFIL
 62
     4
 10
82.499999999999432
 20
-18.126646999147759
 30
0.0
  0
VERTEX
  5
22DD
  8
SAPA_PROFIL
 62
     4
 10
82.500000025274431
 20
-18.555100476437978
 30
0.0
 42
-0.3735060174775405
  0
VERTEX
  5
22DE
  8
SAPA_PROFIL
 62
     4
 10
82.242146752934346
 20
-18.852125144347671
 30
0.0
 42
-0.0355900683670349
  0
VERTEX
  5
22DF
  8
SAPA_PROFIL
 62
     4
 10
81.626273166134567
 20
-18.89601870837992
 30
0.0
 42
-0.0624282003873116
  0
VERTEX
  5
22E0
  8
SAPA_PROFIL
 62
     4
 10
80.554459977939445
 20
-18.761672386136979
 30
0.0
 42
-0.3702522326309292
  0
VERTEX
  5
22E1
  8
SAPA_PROFIL
 62
     4
 10
80.300000025273704
 20
-18.46514902434361
 30
0.0
  0
VERTEX
  5
22E2
  8
SAPA_PROFIL
 62
     4
 10
80.299999999997567
 20
-13.4487080375101
 30
0.0
 42
-0.5205670505515692
  0
VERTEX
  5
22E3
  8
SAPA_PROFIL
 62
     4
 10
80.971010071660544
 20
-12.978861727116881
 30
0.0
  0
VERTEX
  5
22E4
  8
SAPA_PROFIL
 62
     4
 10
82.171010071669983
 20
-13.41562600824183
 30
0.0
 42
-0.3152987888807539
  0
VERTEX
  5
22E5
  8
SAPA_PROFIL
 62
     4
 10
82.500000000007617
 20
-13.88547231863768
 30
0.0
  0
VERTEX
  5
22E6
  8
SAPA_PROFIL
 62
     4
 10
82.500000000000796
 20
-14.82664699914676
 30
0.0
 42
0.5862175119221242
  0
VERTEX
  5
22E7
  8
SAPA_PROFIL
 62
     4
 10
82.956831325755928
 20
-15.082388930128721
 30
0.0
 42
-0.0000002084758573
  0
SEQEND
  5
22E8
  8
SAPA_PROFIL
 62
     4
  0
POLYLINE
  5
1697
  8
SAPA_PROFIL
 62
     4
 66
     1
 10
0.0
 20
0.0
 30
0.0
 70
     1
  0
VERTEX
  5
22E9
  8
SAPA_PROFIL
 62
     4
 10
14.90000000090231
 20
-58.70294355321132
 30
0.0
  0
VERTEX
  5
22EA
  8
SAPA_PROFIL
 62
     4
 10
14.900000000900491
 20
-62.89705610290823
 30
0.0
 42
-0.1989123673786592
  0
VERTEX
  5
22EB
  8
SAPA_PROFIL
 62
     4
 10
14.81213203525704
 20
-63.109188137264063
 30
0.0
  0
VERTEX
  5
22EC
  8
SAPA_PROFIL
 62
     4
 10
12.587867966546129
 20
-65.333452205974964
 30
0.0
 42
0.1989123673785438
  0
VERTEX
  5
22ED
  8
SAPA_PROFIL
 62
     4
 10
12.50000000090267
 20
-65.545584240330783
 30
0.0
  0
VERTEX
  5
22EE
  8
SAPA_PROFIL
 62
     4
 10
12.500000000904491
 20
-65.999999828059146
 30
0.0
 42
0.4142135623730951
  0
VERTEX
  5
22EF
  8
SAPA_PROFIL
 62
     4
 10
12.80000000090376
 20
-66.299999828059327
 30
0.0
  0
VERTEX
  5
22F0
  8
SAPA_PROFIL
 62
     4
 10
24.700000000899941
 20
-66.299999828059327
 30
0.0
 42
-0.4142135623730951
  0
VERTEX
  5
22F1
  8
SAPA_PROFIL
 62
     4
 10
25.200000000899951
 20
-66.799999828059327
 30
0.0
  0
VERTEX
  5
22F2
  8
SAPA_PROFIL
 62
     4
 10
25.200000000899951
 20
-68.499999828059146
 30
0.0
 42
0.4142135623739832
  0
VERTEX
  5
22F3
  8
SAPA_PROFIL
 62
     4
 10
25.50000000089922
 20
-68.799999828059327
 30
0.0
  0
VERTEX
  5
22F4
  8
SAPA_PROFIL
 62
     4
 10
29.200000000901579
 20
-68.799999828059327
 30
0.0
 42
0.414213562375759
  0
VERTEX
  5
22F5
  8
SAPA_PROFIL
 62
     4
 10
29.500000000902681
 20
-68.499999828059146
 30
0.0
  0
VERTEX
  5
22F6
  8
SAPA_PROFIL
 62
     4
 10
29.500000000900851
 20
-52.006576697656129
 30
0.0
 42
0.4142135623735391
  0
VERTEX
  5
22F7
  8
SAPA_PROFIL
 62
     4
 10
29.200000000901579
 20
-51.706576697656402
 30
0.0
  0
VERTEX
  5
22F8
  8
SAPA_PROFIL
 62
     4
 10
12.80000000090376
 20
-51.706576697656402
 30
0.0
 42
0.4142135623726511
  0
VERTEX
  5
22F9
  8
SAPA_PROFIL
 62
     4
 10
12.50000000090267
 20
-52.006576697656129
 30
0.0
  0
VERTEX
  5
22FA
  8
SAPA_PROFIL
 62
     4
 10
12.50000000090267
 20
-56.054415415786963
 30
0.0
 42
0.1989123673785438
  0
VERTEX
  5
22FB
  8
SAPA_PROFIL
 62
     4
 10
12.587867966546129
 20
-56.266547450142781
 30
0.0
  0
VERTEX
  5
22FC
  8
SAPA_PROFIL
 62
     4
 10
14.81213203525885
 20
-58.490811518855509
 30
0.0
 42
-0.1989123673798886
  0
SEQEND
  5
22FD
  8
SAPA_PROFIL
 62
     4
  0
POLYLINE
  5
1698
  8
SAPA_PROFIL
 62
     4
 66
     1
 10
0.0
 20
0.0
 30
0.0
 70
     1
  0
VERTEX
  5
22FE
  8
SAPA_PROFIL
 62
     4
 10
29.500000000902681
 20
-45.299999828059548
 30
0.0
  0
VERTEX
  5
22FF
  8
SAPA_PROFIL
 62
     4
 10
29.500000000900851
 20
-50.106576697656038
 30
0.0
 42
-0.4142135623732061
  0
VERTEX
  5
2300
  8
SAPA_PROFIL
 62
     4
 10
29.200000000901579
 20
-50.40657669765622
 30
0.0
  0
VERTEX
  5
2301
  8
SAPA_PROFIL
 62
     4
 10
12.80000000090376
 20
-50.40657669765622
 30
0.0
 42
-0.4142135623730951
  0
VERTEX
  5
2302
  8
SAPA_PROFIL
 62
     4
 10
12.50000000090267
 20
-50.106576697656038
 30
0.0
  0
VERTEX
  5
2303
  8
SAPA_PROFIL
 62
     4
 10
12.500000000904491
 20
-45.299999828059548
 30
0.0
 42
-0.4142135623731173
  0
VERTEX
  5
2304
  8
SAPA_PROFIL
 62
     4
 10
12.80000000090558
 20
-44.999999828059373
 30
0.0
  0
VERTEX
  5
2305
  8
SAPA_PROFIL
 62
     4
 10
29.200000000903401
 20
-44.999999828059373
 30
0.0
 42
-0.4142135623730951
  0
SEQEND
  5
2306
  8
SAPA_PROFIL
 62
     4
  0
POLYLINE
  5
1699
  8
SAPA_PROFIL
 62
     4
 66
     1
 10
0.0
 20
0.0
 30
0.0
 70
     1
  0
VERTEX
  5
2307
  8
SAPA_PROFIL
 62
     4
 10
11.00000000090267
 20
-56.675735759346964
 30
0.0
 42
0.1989123673799838
  0
VERTEX
  5
2308
  8
SAPA_PROFIL
 62
     4
 10
11.08786796654794
 20
-56.887867793703691
 30
0.0
  0
VERTEX
  5
2309
  8
SAPA_PROFIL
 62
     4
 10
13.31213203525885
 20
-59.1121318624146
 30
0.0
 42
-0.1989123673811189
  0
VERTEX
  5
230A
  8
SAPA_PROFIL
 62
     4
 10
13.40000000090231
 20
-59.324263896770418
 30
0.0
  0
VERTEX
  5
230B
  8
SAPA_PROFIL
 62
     4
 10
13.400000000900491
 20
-62.27573575934823
 30
0.0
 42
-0.1989123673785447
  0
VERTEX
  5
230C
  8
SAPA_PROFIL
 62
     4
 10
13.31213203525704
 20
-62.487867793704048
 30
0.0
  0
VERTEX
  5
230D
  8
SAPA_PROFIL
 62
     4
 10
11.087867966546121
 20
-64.712131862415873
 30
0.0
 42
0.1989123673785445
  0
VERTEX
  5
230E
  8
SAPA_PROFIL
 62
     4
 10
11.00000000090267
 20
-64.924263896771691
 30
0.0
  0
VERTEX
  5
230F
  8
SAPA_PROFIL
 62
     4
 10
11.000000000904491
 20
-67.299999828059313
 30
0.0
 42
0.4142135623730951
  0
VERTEX
  5
2310
  8
SAPA_PROFIL
 62
     4
 10
11.500000000904491
 20
-67.799999828059313
 30
0.0
  0
VERTEX
  5
2311
  8
SAPA_PROFIL
 62
     4
 10
23.400000000900668
 20
-67.799999828059313
 30
0.0
 42
-0.4142135623737615
  0
VERTEX
  5
2312
  8
SAPA_PROFIL
 62
     4
 10
23.700000000899941
 20
-68.099999828059509
 30
0.0
  0
VERTEX
  5
2313
  8
SAPA_PROFIL
 62
     4
 10
23.700000000899941
 20
-69.799999828059313
 30
0.0
 42
0.4142135623730951
  0
VERTEX
  5
2314
  8
SAPA_PROFIL
 62
     4
 10
24.200000000899951
 20
-70.299999828059313
 30
0.0
  0
VERTEX
  5
2315
  8
SAPA_PROFIL
 62
     4
 10
30.500000000902681
 20
-70.299999828059313
 30
0.0
 42
0.4142135623730951
  0
VERTEX
  5
2316
  8
SAPA_PROFIL
 62
     4
 10
31.00000000090267
 20
-69.799999828059313
 30
0.0
  0
VERTEX
  5
2317
  8
SAPA_PROFIL
 62
     4
 10
31.000000000899039
 20
-68.799999828058944
 30
0.0
 42
-0.4142135623735387
  0
VERTEX
  5
2318
  8
SAPA_PROFIL
 62
     4
 10
31.300000000898311
 20
-68.499999828059003
 30
0.0
  0
VERTEX
  5
2319
  8
SAPA_PROFIL
 62
     4
 10
32.900000000900491
 20
-68.499999828059458
 30
0.0
 42
-0.4142135623735394
  0
VERTEX
  5
231A
  8
SAPA_PROFIL
 62
     4
 10
33.200000000899763
 20
-68.799999828059185
 30
0.0
  0
VERTEX
  5
231B
  8
SAPA_PROFIL
 62
     4
 10
33.200000000897951
 20
-69.099999828058813
 30
0.0
 42
0.5923377296036106
  0
VERTEX
  5
231C
  8
SAPA_PROFIL
 62
     4
 10
33.661452271639519
 20
-69.352849910663082
 30
0.0
  0
VERTEX
  5
231D
  8
SAPA_PROFIL
 62
     4
 10
35.361452271640253
 20
-68.075790642366229
 30
0.0
 42
0.2560149538738703
  0
VERTEX
  5
231E
  8
SAPA_PROFIL
 62
     4
 10
35.500000000900847
 20
-67.822940559761065
 30
0.0
  0
VERTEX
  5
231F
  8
SAPA_PROFIL
 62
     4
 10
35.500000000900847
 20
-67.599999828058458
 30
0.0
 42
0.4142135623733172
  0
VERTEX
  5
2320
  8
SAPA_PROFIL
 62
     4
 10
35.200000000901589
 20
-67.299999828059185
 30
0.0
  0
VERTEX
  5
2321
  8
SAPA_PROFIL
 62
     4
 10
31.300000000898311
 20
-67.299999828059185
 30
0.0
 42
-0.4142135623735389
  0
VERTEX
  5
2322
  8
SAPA_PROFIL
 62
     4
 10
31.000000000899039
 20
-66.999999828059231
 30
0.0
  0
VERTEX
  5
2323
  8
SAPA_PROFIL
 62
     4
 10
31.000000000900862
 20
-55.999999828059053
 30
0.0
 42
-0.4142135623735387
  0
VERTEX
  5
2324
  8
SAPA_PROFIL
 62
     4
 10
31.30000000090013
 20
-55.699999828059099
 30
0.0
  0
VERTEX
  5
2325
  8
SAPA_PROFIL
 62
     4
 10
35.200000000901589
 20
-55.699999828059099
 30
0.0
 42
0.4142135623730951
  0
VERTEX
  5
2326
  8
SAPA_PROFIL
 62
     4
 10
35.500000000900847
 20
-55.399999828059833
 30
0.0
  0
VERTEX
  5
2327
  8
SAPA_PROFIL
 62
     4
 10
35.500000000900847
 20
-55.177059096357219
 30
0.0
 42
0.2560149538738701
  0
VERTEX
  5
2328
  8
SAPA_PROFIL
 62
     4
 10
35.361452271640253
 20
-54.924209013752062
 30
0.0
  0
VERTEX
  5
2329
  8
SAPA_PROFIL
 62
     4
 10
33.661452271639519
 20
-53.647149745455202
 30
0.0
 42
0.5923377296036115
  0
VERTEX
  5
232A
  8
SAPA_PROFIL
 62
     4
 10
33.200000000897951
 20
-53.899999828059457
 30
0.0
  0
VERTEX
  5
232B
  8
SAPA_PROFIL
 62
     4
 10
33.200000000899763
 20
-54.199999828059099
 30
0.0
 42
-0.4142135623735394
  0
VERTEX
  5
232C
  8
SAPA_PROFIL
 62
     4
 10
32.900000000900491
 20
-54.499999828058819
 30
0.0
  0
VERTEX
  5
232D
  8
SAPA_PROFIL
 62
     4
 10
31.30000000090013
 20
-54.499999828059281
 30
0.0
 42
-0.4142135623735389
  0
VERTEX
  5
232E
  8
SAPA_PROFIL
 62
     4
 10
31.000000000900862
 20
-54.199999828059333
 30
0.0
  0
VERTEX
  5
232F
  8
SAPA_PROFIL
 62
     4
 10
31.000000000906311
 20
-43.999999828059373
 30
0.0
 42
0.4142135623731242
  0
VERTEX
  5
2330
  8
SAPA_PROFIL
 62
     4
 10
30.500000000906311
 20
-43.499999828059373
 30
0.0
  0
VERTEX
  5
2331
  8
SAPA_PROFIL
 62
     4
 10
11.500000000904491
 20
-43.499999828059373
 30
0.0
 42
0.4142135623730951
  0
VERTEX
  5
2332
  8
SAPA_PROFIL
 62
     4
 10
11.000000000904491
 20
-43.999999828059373
 30
0.0
  0
SEQEND
  5
2333
  8
SAPA_PROFIL
 62
     4
  0
POLYLINE
  5
169A
  8
SAPA_PROFIL
  6
CONTINUOUS
 66
     1
 10
0.0
 20
0.0
 30
0.0
 70
     1
  0
VERTEX
  5
2334
  8
SAPA_PROFIL
  6
CONTINUOUS
 10
15.99999999999943
 20
-77.299999999998136
 30
0.0
 42
0.4142135623730951
  0
VERTEX
  5
2335
  8
SAPA_PROFIL
  6
CONTINUOUS
 10
15.69999999999936
 20
-76.999999999998181
 30
0.0
  0
VERTEX
  5
2336
  8
SAPA_PROFIL
  6
CONTINUOUS
 10
15.210050506337319
 20
-76.999999999998181
 30
0.0
 42
0.1989123673794033
  0
VERTEX
  5
2337
  8
SAPA_PROFIL
  6
CONTINUOUS
 10
14.99791847198116
 20
-77.087867965642999
 30
0.0
  0
VERTEX
  5
2338
  8
SAPA_PROFIL
  6
CONTINUOUS
 10
14.29930350646236
 20
-77.786482931164528
 30
0.0
 42
-0.2216946626434256
  0
VERTEX
  5
2339
  8
SAPA_PROFIL
  6
CONTINUOUS
 10
14.06102474928173
 20
-77.873209306236504
 30
0.0
  0
VERTEX
  5
233A
  8
SAPA_PROFIL
  6
CONTINUOUS
 10
12.67614672282332
 20
-77.752048178555583
 30
0.0
 42
0.440010530891594
  0
VERTEX
  5
233B
  8
SAPA_PROFIL
  6
CONTINUOUS
 10
12.34999999999923
 20
-78.05090658798315
 30
0.0
  0
VERTEX
  5
233C
  8
SAPA_PROFIL
  6
CONTINUOUS
 10
12.34999999999911
 20
-78.148160139423226
 30
0.0
 42
0.1989123669528273
  0
VERTEX
  5
233D
  8
SAPA_PROFIL
  6
CONTINUOUS
 10
12.43786796529491
 20
-78.360292173430821
 30
0.0
  0
VERTEX
  5
233E
  8
SAPA_PROFIL
  6
CONTINUOUS
 10
12.72812772528084
 20
-78.650551934370242
 30
0.0
 42
-0.4142135619519165
  0
VERTEX
  5
233F
  8
SAPA_PROFIL
  6
CONTINUOUS
 10
12.72812772488896
 20
-79.074816002777084
 30
0.0
  0
VERTEX
  5
2340
  8
SAPA_PROFIL
  6
CONTINUOUS
 10
6.5908116907696694
 20
-85.21213203438856
 30
0.0
 42
-0.1989123673373824
  0
VERTEX
  5
2341
  8
SAPA_PROFIL
  6
CONTINUOUS
 10
6.3786796564482984
 20
-85.299999999998136
 30
0.0
  0
VERTEX
  5
2342
  8
SAPA_PROFIL
  6
CONTINUOUS
 10
-6.3786796564498891
 20
-85.299999999998917
 30
0.0
 42
-0.1989123673373823
  0
VERTEX
  5
2343
  8
SAPA_PROFIL
  6
CONTINUOUS
 10
-6.5908116907718286
 20
-85.212132034389128
 30
0.0
  0
VERTEX
  5
2344
  8
SAPA_PROFIL
  6
CONTINUOUS
 10
-12.72812772489055
 20
-79.074816002777084
 30
0.0
 42
-0.4142135619518105
  0
VERTEX
  5
2345
  8
SAPA_PROFIL
  6
CONTINUOUS
 10
-12.72812772528243
 20
-78.650551934370242
 30
0.0
  0
VERTEX
  5
2346
  8
SAPA_PROFIL
  6
CONTINUOUS
 10
-12.437867965296279
 20
-78.360292173430821
 30
0.0
 42
0.1989123669527856
  0
VERTEX
  5
2347
  8
SAPA_PROFIL
  6
CONTINUOUS
 10
-12.35000000000082
 20
-78.148160139423226
 30
0.0
  0
VERTEX
  5
2348
  8
SAPA_PROFIL
  6
CONTINUOUS
 10
-12.3500000000007
 20
-78.05090658798315
 30
0.0
 42
0.4400105308917307
  0
VERTEX
  5
2349
  8
SAPA_PROFIL
  6
CONTINUOUS
 10
-12.67614672282502
 20
-77.752048178555583
 30
0.0
  0
VERTEX
  5
234A
  8
SAPA_PROFIL
  6
CONTINUOUS
 10
-14.06102474928332
 20
-77.873209306236603
 30
0.0
 42
-0.2216946626434257
  0
VERTEX
  5
234B
  8
SAPA_PROFIL
  6
CONTINUOUS
 10
-14.299303506463961
 20
-77.786482931164528
 30
0.0
  0
VERTEX
  5
234C
  8
SAPA_PROFIL
  6
CONTINUOUS
 10
-14.997918471982871
 20
-77.087867965642999
 30
0.0
 42
0.1989123673793253
  0
VERTEX
  5
234D
  8
SAPA_PROFIL
  6
CONTINUOUS
 10
-15.210050506338799
 20
-76.999999999998181
 30
0.0
  0
VERTEX
  5
234E
  8
SAPA_PROFIL
  6
CONTINUOUS
 10
-15.70000000000061
 20
-76.999999999998181
 30
0.0
 42
0.4142135623731617
  0
VERTEX
  5
234F
  8
SAPA_PROFIL
  6
CONTINUOUS
 10
-16.000000000000789
 20
-77.299999999998136
 30
0.0
  0
VERTEX
  5
2350
  8
SAPA_PROFIL
  6
CONTINUOUS
 10
-16.000000000000789
 20
-77.375735931287181
 30
0.0
 42
0.198912367379543
  0
VERTEX
  5
2351
  8
SAPA_PROFIL
  6
CONTINUOUS
 10
-15.91213203435677
 20
-77.587867965642999
 30
0.0
  0
VERTEX
  5
2352
  8
SAPA_PROFIL
  6
CONTINUOUS
 10
-7.2928932188146973
 20
-86.207106781185075
 30
0.0
 42
0.1989123673796771
  0
VERTEX
  5
2353
  8
SAPA_PROFIL
  6
CONTINUOUS
 10
-6.5857864376276893
 20
-86.499999999998195
 30
0.0
  0
VERTEX
  5
2354
  8
SAPA_PROFIL
  6
CONTINUOUS
 10
6.5857864376263251
 20
-86.499999999998195
 30
0.0
 42
0.1989123673794909
  0
VERTEX
  5
2355
  8
SAPA_PROFIL
  6
CONTINUOUS
 10
7.292893218812309
 20
-86.207106781185075
 30
0.0
  0
VERTEX
  5
2356
  8
SAPA_PROFIL
  6
CONTINUOUS
 10
15.91213203435529
 20
-77.587867965642999
 30
0.0
 42
0.1989123673795744
  0
VERTEX
  5
2357
  8
SAPA_PROFIL
  6
CONTINUOUS
 10
15.99999999999932
 20
-77.375735931287181
 30
0.0
  0
SEQEND
  5
2358
  8
SAPA_PROFIL
  6
CONTINUOUS
  0
POLYLINE
  5
169B
  8
SAPA_PROFIL
  6
CONTINUOUS
 66
     1
 10
0.0
 20
0.0
 30
0.0
 70
     1
  0
VERTEX
  5
2359
  8
SAPA_PROFIL
  6
CONTINUOUS
 10
5.9092893218803431
 20
-76.987867965643161
 30
0.0
 42
-0.6681786379191337
  0
VERTEX
  5
235A
  8
SAPA_PROFIL
  6
CONTINUOUS
 10
5.6971572875243552
 20
-77.499999999999105
 30
0.0
  0
VERTEX
  5
235B
  8
SAPA_PROFIL
  6
CONTINUOUS
 10
5.2999999999991507
 20
-77.499999999998636
 30
0.0
 42
0.414213562374094
  0
VERTEX
  5
235C
  8
SAPA_PROFIL
  6
CONTINUOUS
 10
4.9999999999991971
 20
-77.799999999999613
 30
0.0
  0
VERTEX
  5
235D
  8
SAPA_PROFIL
  6
CONTINUOUS
 10
4.9999999999991971
 20
-80.199999999999605
 30
0.0
 42
0.4142135623730951
  0
VERTEX
  5
235E
  8
SAPA_PROFIL
  6
CONTINUOUS
 10
5.2999999999991507
 20
-80.499999999999559
 30
0.0
  0
VERTEX
  5
235F
  8
SAPA_PROFIL
  6
CONTINUOUS
 10
8.0391854213350413
 20
-80.49999999999865
 30
0.0
 42
0.2216946626429604
  0
VERTEX
  5
2360
  8
SAPA_PROFIL
  6
CONTINUOUS
 10
9.5712743075730984
 20
-79.785575219371609
 30
0.0
  0
VERTEX
  5
2361
  8
SAPA_PROFIL
  6
CONTINUOUS
 10
10.53302222155917
 20
-78.639408687709604
 30
0.0
 42
0.1763269807085765
  0
VERTEX
  5
2362
  8
SAPA_PROFIL
  6
CONTINUOUS
 10
10.650000000000031
 20
-78.318014882865626
 30
0.0
  0
VERTEX
  5
2363
  8
SAPA_PROFIL
  6
CONTINUOUS
 10
10.649999999998149
 20
-77.799999999998604
 30
0.0
 42
0.4142135623733171
  0
VERTEX
  5
2364
  8
SAPA_PROFIL
  6
CONTINUOUS
 10
10.34999999999871
 20
-77.499999999999503
 30
0.0
  0
VERTEX
  5
2365
  8
SAPA_PROFIL
  6
CONTINUOUS
 10
9.2928427124741617
 20
-77.499999999999105
 30
0.0
 42
-0.6681786379192504
  0
VERTEX
  5
2366
  8
SAPA_PROFIL
  6
CONTINUOUS
 10
9.080710678118173
 20
-76.987867965643161
 30
0.0
  0
VERTEX
  5
2367
  8
SAPA_PROFIL
  6
CONTINUOUS
 10
9.4807106781175818
 20
-76.587867965643696
 30
0.0
 42
-0.1989123673796784
  0
VERTEX
  5
2368
  8
SAPA_PROFIL
  6
CONTINUOUS
 10
9.6928427124735705
 20
-76.499999999999616
 30
0.0
  0
VERTEX
  5
2369
  8
SAPA_PROFIL
  6
CONTINUOUS
 10
14.65263912041404
 20
-76.49999999999865
 30
0.0
 42
-0.6808757648994829
  0
VERTEX
  5
236A
  8
SAPA_PROFIL
  6
CONTINUOUS
 10
14.857238628433141
 20
-77.019406110484624
 30
0.0
  0
VERTEX
  5
236B
  8
SAPA_PROFIL
  6
CONTINUOUS
 10
14.428291144423151
 20
-77.419406110484616
 30
0.0
 42
-0.189855932106766
  0
VERTEX
  5
236C
  8
SAPA_PROFIL
  6
CONTINUOUS
 10
14.22369163640405
 20
-77.499999999998636
 30
0.0
  0
VERTEX
  5
236D
  8
SAPA_PROFIL
  6
CONTINUOUS
 10
12.37022832743218
 20
-77.499999999998636
 30
0.0
 42
0.7002075382100549
  0
VERTEX
  5
236E
  8
SAPA_PROFIL
  6
CONTINUOUS
 10
12.114322422670099
 20
-78.203095694838296
 30
0.0
  0
VERTEX
  5
236F
  8
SAPA_PROFIL
  6
CONTINUOUS
 10
12.542836282904879
 20
-78.562661516915412
 30
0.0
 42
-0.2216946626430935
  0
VERTEX
  5
2370
  8
SAPA_PROFIL
  6
CONTINUOUS
 10
12.649999999999171
 20
-78.792474849851203
 30
0.0
  0
VERTEX
  5
2371
  8
SAPA_PROFIL
  6
CONTINUOUS
 10
12.649999999999171
 20
-78.947146456086344
 30
0.0
 42
-0.2079979736432576
  0
VERTEX
  5
2372
  8
SAPA_PROFIL
  6
CONTINUOUS
 10
12.55460146427969
 20
-79.166550742312111
 30
0.0
  0
VERTEX
  5
2373
  8
SAPA_PROFIL
  6
CONTINUOUS
 10
6.59999956124215
 20
-84.719406110485636
 30
0.0
 42
-0.1898559321065746
  0
VERTEX
  5
2374
  8
SAPA_PROFIL
  6
CONTINUOUS
 10
6.3954000532241864
 20
-84.799999999998604
 30
0.0
  0
VERTEX
  5
2375
  8
SAPA_PROFIL
  6
CONTINUOUS
 10
0.7732050807561494
 20
-84.799999999998604
 30
0.0
 42
-0.131652497587957
  0
VERTEX
  5
2376
  8
SAPA_PROFIL
  6
CONTINUOUS
 10
0.6232050807551488
 20
-84.759807621134613
 30
0.0
  0
VERTEX
  5
2377
  8
SAPA_PROFIL
  6
CONTINUOUS
 10
-0.0000000000008029
 20
-84.39999999999965
 30
0.0
  0
VERTEX
  5
2378
  8
SAPA_PROFIL
  6
CONTINUOUS
 10
-0.6232050807579485
 20
-84.759807621134613
 30
0.0
 42
-0.1316524975871203
  0
VERTEX
  5
2379
  8
SAPA_PROFIL
  6
CONTINUOUS
 10
-0.773205080757812
 20
-84.799999999998604
 30
0.0
  0
VERTEX
  5
237A
  8
SAPA_PROFIL
  6
CONTINUOUS
 10
-6.395400053225905
 20
-84.799999999998604
 30
0.0
 42
-0.1898559321066236
  0
VERTEX
  5
237B
  8
SAPA_PROFIL
  6
CONTINUOUS
 10
-6.5999995612439264
 20
-84.719406110485636
 30
0.0
  0
VERTEX
  5
237C
  8
SAPA_PROFIL
  6
CONTINUOUS
 10
-12.55460146428141
 20
-79.166550742312111
 30
0.0
 42
-0.207997973643366
  0
VERTEX
  5
237D
  8
SAPA_PROFIL
  6
CONTINUOUS
 10
-12.650000000000951
 20
-78.947146456086344
 30
0.0
  0
VERTEX
  5
237E
  8
SAPA_PROFIL
  6
CONTINUOUS
 10
-12.65000000000089
 20
-78.792474849851203
 30
0.0
 42
-0.221694662643129
  0
VERTEX
  5
237F
  8
SAPA_PROFIL
  6
CONTINUOUS
 10
-12.542836282906711
 20
-78.562661516915412
 30
0.0
  0
VERTEX
  5
2380
  8
SAPA_PROFIL
  6
CONTINUOUS
 10
-12.11432242267165
 20
-78.20309569483841
 30
0.0
 42
0.7002075382100074
  0
VERTEX
  5
2381
  8
SAPA_PROFIL
  6
CONTINUOUS
 10
-12.370228327433839
 20
-77.499999999998636
 30
0.0
  0
VERTEX
  5
2382
  8
SAPA_PROFIL
  6
CONTINUOUS
 10
-14.22369163640594
 20
-77.499999999998934
 30
0.0
 42
-0.1898559321066891
  0
VERTEX
  5
2383
  8
SAPA_PROFIL
  6
CONTINUOUS
 10
-14.42829114442492
 20
-77.419406110484616
 30
0.0
  0
VERTEX
  5
2384
  8
SAPA_PROFIL
  6
CONTINUOUS
 10
-14.857238628434629
 20
-77.019406110484354
 30
0.0
 42
-0.6808757648995032
  0
VERTEX
  5
2385
  8
SAPA_PROFIL
  6
CONTINUOUS
 10
-14.65263912041593
 20
-76.49999999999865
 30
0.0
  0
VERTEX
  5
2386
  8
SAPA_PROFIL
  6
CONTINUOUS
 10
-9.6928427124751764
 20
-76.499999999999616
 30
0.0
 42
-0.1989123673797132
  0
VERTEX
  5
2387
  8
SAPA_PROFIL
  6
CONTINUOUS
 10
-9.4807106781192445
 20
-76.587867965643696
 30
0.0
  0
VERTEX
  5
2388
  8
SAPA_PROFIL
  6
CONTINUOUS
 10
-9.0807106781197788
 20
-76.987867965643161
 30
0.0
 42
-0.6681786379192504
  0
VERTEX
  5
2389
  8
SAPA_PROFIL
  6
CONTINUOUS
 10
-9.2928427124757675
 20
-77.499999999999105
 30
0.0
  0
VERTEX
  5
238A
  8
SAPA_PROFIL
  6
CONTINUOUS
 10
-10.35000000000179
 20
-77.499999999999616
 30
0.0
 42
0.4142135623719851
  0
VERTEX
  5
238B
  8
SAPA_PROFIL
  6
CONTINUOUS
 10
-10.64999999999975
 20
-77.799999999998604
 30
0.0
  0
VERTEX
  5
238C
  8
SAPA_PROFIL
  6
CONTINUOUS
 10
-10.65000000000078
 20
-78.318014882865626
 30
0.0
 42
0.176326980708563
  0
VERTEX
  5
238D
  8
SAPA_PROFIL
  6
CONTINUOUS
 10
-10.533022221560771
 20
-78.639408687709604
 30
0.0
  0
VERTEX
  5
238E
  8
SAPA_PROFIL
  6
CONTINUOUS
 10
-9.5712743075746474
 20
-79.785575219371552
 30
0.0
 42
0.2216946626429643
  0
VERTEX
  5
238F
  8
SAPA_PROFIL
  6
CONTINUOUS
 10
-8.0391854213366472
 20
-80.49999999999865
 30
0.0
  0
VERTEX
  5
2390
  8
SAPA_PROFIL
  6
CONTINUOUS
 10
-5.3000000000007574
 20
-80.49999999999865
 30
0.0
 42
0.4142135623730951
  0
VERTEX
  5
2391
  8
SAPA_PROFIL
  6
CONTINUOUS
 10
-5.000000000000802
 20
-80.199999999999605
 30
0.0
  0
VERTEX
  5
2392
  8
SAPA_PROFIL
  6
CONTINUOUS
 10
-5.000000000000802
 20
-77.799999999999613
 30
0.0
 42
0.414213562374094
  0
VERTEX
  5
2393
  8
SAPA_PROFIL
  6
CONTINUOUS
 10
-5.3000000000007574
 20
-77.499999999998636
 30
0.0
  0
VERTEX
  5
2394
  8
SAPA_PROFIL
  6
CONTINUOUS
 10
-5.6971572875259611
 20
-77.499999999999105
 30
0.0
 42
-0.6681786379192504
  0
VERTEX
  5
2395
  8
SAPA_PROFIL
  6
CONTINUOUS
 10
-5.9092893218819489
 20
-76.987867965643161
 30
0.0
  0
VERTEX
  5
2396
  8
SAPA_PROFIL
  6
CONTINUOUS
 10
-5.5092893218825401
 20
-76.587867965643696
 30
0.0
 42
-0.1989123673796784
  0
VERTEX
  5
2397
  8
SAPA_PROFIL
  6
CONTINUOUS
 10
-5.2971572875265522
 20
-76.499999999999616
 30
0.0
  0
VERTEX
  5
2398
  8
SAPA_PROFIL
  6
CONTINUOUS
 10
5.2971572875248887
 20
-76.499999999999616
 30
0.0
 42
-0.1989123673796928
  0
VERTEX
  5
2399
  8
SAPA_PROFIL
  6
CONTINUOUS
 10
5.5092893218808783
 20
-76.587867965643696
 30
0.0
  0
SEQEND
  5
239A
  8
SAPA_PROFIL
  6
CONTINUOUS
  0
POLYLINE
  5
169C
  8
SAPA_PROFIL
 62
     4
 66
     1
 10
0.0
 20
0.0
 30
0.0
 70
     1
  0
VERTEX
  5
239B
  8
SAPA_PROFIL
 62
     4
 10
1.1499999999999619
 20
-48.850000000000108
 30
0.0
  0
VERTEX
  5
239C
  8
SAPA_PROFIL
 62
     4
 10
1.1499999999999619
 20
-46.650000000000063
 30
0.0
 42
1.0
  0
VERTEX
  5
239D
  8
SAPA_PROFIL
 62
     4
 10
-1.149999999999991
 20
-46.650000000000063
 30
0.0
  0
VERTEX
  5
239E
  8
SAPA_PROFIL
 62
     4
 10
-1.1500000000001049
 20
-48.850000000000108
 30
0.0
 42
1.0
  0
SEQEND
  5
239F
  8
SAPA_PROFIL
 62
     4
  0
POLYLINE
  5
169D
  8
SAPA_PROFIL
 62
     4
 66
     1
 10
0.0
 20
0.0
 30
0.0
 70
     1
  0
VERTEX
  5
23A0
  8
SAPA_PROFIL
 62
     4
 10
3.9999999999999831
 20
-64.000000000000085
 30
0.0
  0
VERTEX
  5
23A1
  8
SAPA_PROFIL
 62
     4
 10
3.9999999999999831
 20
-67.050832149036324
 30
0.0
  0
VERTEX
  5
23A2
  8
SAPA_PROFIL
 62
     4
 10
3.9999999999999818
 20
-70.378679656440426
 30
0.0
 42
-0.6681786379192966
  0
VERTEX
  5
23A3
  8
SAPA_PROFIL
 62
     4
 10
3.146446609406762
 20
-70.732233047033645
 30
0.0
  0
VERTEX
  5
23A4
  8
SAPA_PROFIL
 62
     4
 10
1.00000001162179
 20
-68.585786439270549
 30
0.0
 42
0.1989123679837333
  0
VERTEX
  5
23A5
  8
SAPA_PROFIL
 62
     4
 10
0.2928932287916808
 20
-68.292893218813532
 30
0.0
  0
VERTEX
  5
23A6
  8
SAPA_PROFIL
 62
     4
 10
-0.2928932088352554
 20
-68.292893218813532
 30
0.0
 42
0.1989123667755704
  0
VERTEX
  5
23A7
  8
SAPA_PROFIL
 62
     4
 10
-0.9999999883782239
 20
-68.585786435983408
 30
0.0
  0
VERTEX
  5
23A8
  8
SAPA_PROFIL
 62
     4
 10
-3.1464466094067971
 20
-70.732233047033645
 30
0.0
 42
-0.6681786379192936
  0
VERTEX
  5
23A9
  8
SAPA_PROFIL
 62
     4
 10
-4.0000000000000027
 20
-70.378679656440426
 30
0.0
  0
VERTEX
  5
23AA
  8
SAPA_PROFIL
 62
     4
 10
-4.0000000000000018
 20
-67.050832149036324
 30
0.0
  0
VERTEX
  5
23AB
  8
SAPA_PROFIL
 62
     4
 10
-4.000000000000016
 20
-64.000000000000085
 30
0.0
 42
-0.4142135623730951
  0
VERTEX
  5
23AC
  8
SAPA_PROFIL
 62
     4
 10
-3.500000000000016
 20
-63.500000000000078
 30
0.0
  0
VERTEX
  5
23AD
  8
SAPA_PROFIL
 62
     4
 10
3.4999999999999831
 20
-63.500000000000078
 30
0.0
 42
-0.4142135623730951
  0
SEQEND
  5
23AE
  8
SAPA_PROFIL
 62
     4
  0
POLYLINE
  5
169E
  8
SAPA_PROFIL
 62
     4
 66
     1
 10
0.0
 20
0.0
 30
0.0
 70
     1
  0
VERTEX
  5
23AF
  8
SAPA_PROFIL
 62
     4
 10
-2.5857864376267941
 20
-53.460000000000093
 30
0.0
  0
VERTEX
  5
23B0
  8
SAPA_PROFIL
 62
     4
 10
-1.14653106284699
 20
-52.060744625220053
 30
0.0
 42
-0.9251773977986363
  0
VERTEX
  5
23B1
  8
SAPA_PROFIL
 62
     4
 10
1.1465310628468459
 20
-52.060744625220053
 30
0.0
  0
VERTEX
  5
23B2
  8
SAPA_PROFIL
 62
     4
 10
2.5857864376267639
 20
-53.460000000000093
 30
0.0
  0
VERTEX
  5
23B3
  8
SAPA_PROFIL
 62
     4
 10
3.499999999999984
 20
-53.460000000000093
 30
0.0
 42
-0.4142135623730769
  0
VERTEX
  5
23B4
  8
SAPA_PROFIL
 62
     4
 10
3.999999999999984
 20
-53.960000000000093
 30
0.0
  0
VERTEX
  5
23B5
  8
SAPA_PROFIL
 62
     4
 10
3.9999999999999831
 20
-62.000000000000092
 30
0.0
 42
-0.4142135623730951
  0
VERTEX
  5
23B6
  8
SAPA_PROFIL
 62
     4
 10
3.4999999999999831
 20
-62.500000000000078
 30
0.0
  0
VERTEX
  5
23B7
  8
SAPA_PROFIL
 62
     4
 10
-3.500000000000016
 20
-62.500000000000078
 30
0.0
 42
-0.4142135623730951
  0
VERTEX
  5
23B8
  8
SAPA_PROFIL
 62
     4
 10
-4.0000000000000151
 20
-62.000000000000092
 30
0.0
  0
VERTEX
  5
23B9
  8
SAPA_PROFIL
 62
     4
 10
-4.0000000000000151
 20
-53.960000000000093
 30
0.0
 42
-0.4142135623730951
  0
VERTEX
  5
23BA
  8
SAPA_PROFIL
 62
     4
 10
-3.5000000000000151
 20
-53.460000000000093
 30
0.0
  0
SEQEND
  5
23BB
  8
SAPA_PROFIL
 62
     4
  0
POLYLINE
  5
169F
  8
SAPA_PROFIL
 62
     4
 66
     1
 10
0.0
 20
0.0
 30
0.0
 70
     1
  0
VERTEX
  5
23BC
  8
SAPA_PROFIL
 62
     4
 10
4.9999999999998712
 20
-54.11000000000007
 30
0.0
 42
-1.0
  0
VERTEX
  5
23BD
  8
SAPA_PROFIL
 62
     4
 10
6.2999999999999394
 20
-54.11000000000007
 30
0.0
  0
VERTEX
  5
23BE
  8
SAPA_PROFIL
 62
     4
 10
6.2999999999999394
 20
-54.960000000000093
 30
0.0
  0
VERTEX
  5
23BF
  8
SAPA_PROFIL
 62
     4
 10
6.2499999999998712
 20
-54.960000000000093
 30
0.0
 42
1.0
  0
VERTEX
  5
23C0
  8
SAPA_PROFIL
 62
     4
 10
6.2499999999998703
 20
-55.4600000000001
 30
0.0
  0
VERTEX
  5
23C1
  8
SAPA_PROFIL
 62
     4
 10
6.6999999999999149
 20
-55.4600000000001
 30
0.0
 42
0.4142135623730951
  0
VERTEX
  5
23C2
  8
SAPA_PROFIL
 62
     4
 10
6.9999999999998712
 20
-55.160000000000018
 30
0.0
  0
VERTEX
  5
23C3
  8
SAPA_PROFIL
 62
     4
 10
6.9999999999998712
 20
-53.460000000000093
 30
0.0
 42
0.4225789089359373
  0
VERTEX
  5
23C4
  8
SAPA_PROFIL
 62
     4
 10
5.9999999999998712
 20
-52.499999999999972
 30
0.0
  0
VERTEX
  5
23C5
  8
SAPA_PROFIL
 62
     4
 10
2.9999999999998712
 20
-52.499999999999972
 30
0.0
  0
VERTEX
  5
23C6
  8
SAPA_PROFIL
 62
     4
 10
2.1499999999999622
 20
-51.650000000000063
 30
0.0
  0
VERTEX
  5
23C7
  8
SAPA_PROFIL
 62
     4
 10
2.1499999999999631
 20
-45.500000000000078
 30
0.0
 42
0.4142135623730951
  0
VERTEX
  5
23C8
  8
SAPA_PROFIL
 62
     4
 10
1.1499999999999631
 20
-44.500000000000092
 30
0.0
  0
VERTEX
  5
23C9
  8
SAPA_PROFIL
 62
     4
 10
-1.149999999999991
 20
-44.500000000000092
 30
0.0
 42
0.4142135623730951
  0
VERTEX
  5
23CA
  8
SAPA_PROFIL
 62
     4
 10
-2.149999999999991
 20
-45.500000000000078
 30
0.0
  0
VERTEX
  5
23CB
  8
SAPA_PROFIL
 62
     4
 10
-2.1499999999999919
 20
-51.649999999999949
 30
0.0
  0
VERTEX
  5
23CC
  8
SAPA_PROFIL
 62
     4
 10
-3.0000000000000151
 20
-52.499999999999972
 30
0.0
  0
VERTEX
  5
23CD
  8
SAPA_PROFIL
 62
     4
 10
-6.0000000000000151
 20
-52.499999999999972
 30
0.0
 42
0.4225789089359373
  0
VERTEX
  5
23CE
  8
SAPA_PROFIL
 62
     4
 10
-7.0000000000000293
 20
-53.460000000000093
 30
0.0
  0
VERTEX
  5
23CF
  8
SAPA_PROFIL
 62
     4
 10
-7.0000000000000293
 20
-55.160000000000018
 30
0.0
 42
0.4142135623730951
  0
VERTEX
  5
23D0
  8
SAPA_PROFIL
 62
     4
 10
-6.6999999999999469
 20
-55.4600000000001
 30
0.0
  0
VERTEX
  5
23D1
  8
SAPA_PROFIL
 62
     4
 10
-6.2500000000000151
 20
-55.4600000000001
 30
0.0
 42
1.0
  0
VERTEX
  5
23D2
  8
SAPA_PROFIL
 62
     4
 10
-6.2500000000000151
 20
-54.960000000000093
 30
0.0
  0
VERTEX
  5
23D3
  8
SAPA_PROFIL
 62
     4
 10
-6.3000000000000833
 20
-54.960000000000093
 30
0.0
  0
VERTEX
  5
23D4
  8
SAPA_PROFIL
 62
     4
 10
-6.3000000000000833
 20
-54.11000000000007
 30
0.0
 42
-1.0
  0
VERTEX
  5
23D5
  8
SAPA_PROFIL
 62
     4
 10
-5.0000000000000151
 20
-54.11000000000007
 30
0.0
  0
VERTEX
  5
23D6
  8
SAPA_PROFIL
 62
     4
 10
-5.0000000000000018
 20
-67.050832149036324
 30
0.0
  0
VERTEX
  5
23D7
  8
SAPA_PROFIL
 62
     4
 10
-5.0000000000000027
 20
-72.500000000000085
 30
0.0
  0
VERTEX
  5
23D8
  8
SAPA_PROFIL
 62
     4
 10
-3.5000000000000169
 20
-72.500000000000085
 30
0.0
  0
VERTEX
  5
23D9
  8
SAPA_PROFIL
 62
     4
 10
-0.353553390593237
 20
-69.353553390593305
 30
0.0
 42
-0.4142135623730951
  0
VERTEX
  5
23DA
  8
SAPA_PROFIL
 62
     4
 10
0.3535533905932025
 20
-69.353553390593305
 30
0.0
  0
VERTEX
  5
23DB
  8
SAPA_PROFIL
 62
     4
 10
3.4999999999999818
 20
-72.500000000000085
 30
0.0
  0
VERTEX
  5
23DC
  8
SAPA_PROFIL
 62
     4
 10
5.0000000000000098
 20
-72.500000000000085
 30
0.0
  0
VERTEX
  5
23DD
  8
SAPA_PROFIL
 62
     4
 10
4.999999999999968
 20
-67.050832149036324
 30
0.0
  0
VERTEX
  5
23DE
  8
SAPA_PROFIL
 62
     4
 10
4.9999999999998712
 20
-54.410000000000061
 30
0.0
  0
SEQEND
  5
23DF
  8
SAPA_PROFIL
 62
     4
  0
POLYLINE
  5
16A0
  8
SAPA_PROFIL
 66
     1
 10
0.0
 20
0.0
 30
0.0
 70
   129
  0
VERTEX
  5
23E0
  8
SAPA_PROFIL
 10
2.9999999999999711
 20
-31.49999999999952
 30
0.0
  0
VERTEX
  5
23E1
  8
SAPA_PROFIL
 10
2.9999999999999711
 20
-14.49999999999952
 30
0.0
 42
0.4142135623730951
  0
VERTEX
  5
23E2
  8
SAPA_PROFIL
 10
0.9999999999999715
 20
-12.49999999999952
 30
0.0
  0
VERTEX
  5
23E3
  8
SAPA_PROFIL
 10
-1.000000000000028
 20
-12.49999999999952
 30
0.0
 42
0.4142135623730951
  0
VERTEX
  5
23E4
  8
SAPA_PROFIL
 10
-3.000000000000028
 20
-14.49999999999952
 30
0.0
  0
VERTEX
  5
23E5
  8
SAPA_PROFIL
 10
-3.000000000000028
 20
-31.49999999999952
 30
0.0
 42
0.4142135623731002
  0
VERTEX
  5
23E6
  8
SAPA_PROFIL
 10
-2.000000000000028
 20
-32.499999999999517
 30
0.0
  0
VERTEX
  5
23E7
  8
SAPA_PROFIL
 10
1.9999999999999709
 20
-32.499999999999517
 30
0.0
 42
0.4142135623730951
  0
SEQEND
  5
23E8
  8
SAPA_PROFIL
  0
POLYLINE
  5
16A1
  8
SAPA_PROFIL
 66
     1
 10
0.0
 20
0.0
 30
0.0
 70
   129
  0
VERTEX
  5
23E9
  8
SAPA_PROFIL
 10
-20.8180339887499
 20
-14.99999999999952
 30
0.0
 42
-0.6482315195103768
  0
VERTEX
  5
23EA
  8
SAPA_PROFIL
 10
-19.700000000000021
 20
-12.49999999999952
 30
0.0
  0
VERTEX
  5
23EB
  8
SAPA_PROFIL
 10
-7.0000000000000284
 20
-12.49999999999952
 30
0.0
 42
-0.4142135623730951
  0
VERTEX
  5
23EC
  8
SAPA_PROFIL
 10
-5.0000000000000284
 20
-14.49999999999952
 30
0.0
  0
VERTEX
  5
23ED
  8
SAPA_PROFIL
 10
-5.0000000000000284
 20
-52.199999999999498
 30
0.0
 42
0.4142135623730951
  0
VERTEX
  5
23EE
  8
SAPA_PROFIL
 10
-4.7000000000000171
 20
-52.499999999999517
 30
0.0
  0
VERTEX
  5
23EF
  8
SAPA_PROFIL
 10
-3.0757359312880221
 20
-52.499999999999517
 30
0.0
  0
VERTEX
  5
23F0
  8
SAPA_PROFIL
 10
-2.1378679656441468
 20
-51.562132034356161
 30
0.0
 42
0.1989123673804472
  0
VERTEX
  5
23F1
  8
SAPA_PROFIL
 10
-2.0500000000000389
 20
-51.349999999999511
 30
0.0
  0
VERTEX
  5
23F2
  8
SAPA_PROFIL
 10
-2.0500000000000389
 20
-50.149999999999523
 30
0.0
  0
VERTEX
  5
23F3
  8
SAPA_PROFIL
 10
-2.7000000000000171
 20
-50.149999999999523
 30
0.0
  0
VERTEX
  5
23F4
  8
SAPA_PROFIL
 10
-2.076719695747812
 20
-48.77376540432482
 30
0.0
 42
0.5450207774088041
  0
VERTEX
  5
23F5
  8
SAPA_PROFIL
 10
-2.3500000000000218
 20
-48.349999999999511
 30
0.0
  0
VERTEX
  5
23F6
  8
SAPA_PROFIL
 10
-2.7000000000000171
 20
-48.349999999999511
 30
0.0
  0
VERTEX
  5
23F7
  8
SAPA_PROFIL
 10
-2.076719695747812
 20
-46.973765404324858
 30
0.0
 42
0.545020777408923
  0
VERTEX
  5
23F8
  8
SAPA_PROFIL
 10
-2.3500000000000218
 20
-46.5499999999995
 30
0.0
  0
VERTEX
  5
23F9
  8
SAPA_PROFIL
 10
-2.7000000000000171
 20
-46.5499999999995
 30
0.0
  0
VERTEX
  5
23FA
  8
SAPA_PROFIL
 10
-2.076719695747812
 20
-45.173765404324847
 30
0.0
 42
0.5450207774088153
  0
VERTEX
  5
23FB
  8
SAPA_PROFIL
 10
-2.3500000000000218
 20
-44.74999999999951
 30
0.0
  0
VERTEX
  5
23FC
  8
SAPA_PROFIL
 10
-2.7000000000000171
 20
-44.74999999999951
 30
0.0
  0
VERTEX
  5
23FD
  8
SAPA_PROFIL
 10
-2.076719695747812
 20
-43.373765404324843
 30
0.0
 42
0.5450207774088153
  0
VERTEX
  5
23FE
  8
SAPA_PROFIL
 10
-2.3500000000000218
 20
-42.949999999999513
 30
0.0
  0
VERTEX
  5
23FF
  8
SAPA_PROFIL
 10
-2.7000000000000171
 20
-42.949999999999513
 30
0.0
  0
VERTEX
  5
2400
  8
SAPA_PROFIL
 10
-2.0767196957477552
 20
-41.573765404324767
 30
0.0
 42
0.5450207774087306
  0
VERTEX
  5
2401
  8
SAPA_PROFIL
 10
-2.3500000000000218
 20
-41.149999999999523
 30
0.0
  0
VERTEX
  5
2402
  8
SAPA_PROFIL
 10
-2.7000000000000171
 20
-41.149999999999523
 30
0.0
  0
VERTEX
  5
2403
  8
SAPA_PROFIL
 10
-2.076719695747812
 20
-39.77376540432482
 30
0.0
 42
0.5450207774088212
  0
VERTEX
  5
2404
  8
SAPA_PROFIL
 10
-2.3500000000000218
 20
-39.349999999999511
 30
0.0
  0
VERTEX
  5
2405
  8
SAPA_PROFIL
 10
-2.7000000000000171
 20
-39.349999999999511
 30
0.0
  0
VERTEX
  5
2406
  8
SAPA_PROFIL
 10
-2.076719695747812
 20
-37.973765404324837
 30
0.0
 42
0.5450207774088153
  0
VERTEX
  5
2407
  8
SAPA_PROFIL
 10
-2.3500000000000218
 20
-37.5499999999995
 30
0.0
  0
VERTEX
  5
2408
  8
SAPA_PROFIL
 10
-2.7000000000000171
 20
-37.5499999999995
 30
0.0
  0
VERTEX
  5
2409
  8
SAPA_PROFIL
 10
-2.076719695747812
 20
-36.173765404324861
 30
0.0
 42
0.5450207774088267
  0
VERTEX
  5
240A
  8
SAPA_PROFIL
 10
-2.3500000000000218
 20
-35.749999999999517
 30
0.0
  0
VERTEX
  5
240B
  8
SAPA_PROFIL
 10
-2.7000000000000171
 20
-35.749999999999517
 30
0.0
  0
VERTEX
  5
240C
  8
SAPA_PROFIL
 10
-2.7000000000000171
 20
-35.499999999999517
 30
0.0
 42
-0.4142135623730951
  0
VERTEX
  5
240D
  8
SAPA_PROFIL
 10
-1.7000000000000171
 20
-34.499999999999517
 30
0.0
  0
VERTEX
  5
240E
  8
SAPA_PROFIL
 10
1.69999999999996
 20
-34.499999999999517
 30
0.0
 42
-0.4142135623730951
  0
VERTEX
  5
240F
  8
SAPA_PROFIL
 10
2.6999999999999602
 20
-35.499999999999517
 30
0.0
  0
VERTEX
  5
2410
  8
SAPA_PROFIL
 10
2.6999999999999602
 20
-36.649999999999523
 30
0.0
  0
VERTEX
  5
2411
  8
SAPA_PROFIL
 10
2.349999999999937
 20
-36.649999999999523
 30
0.0
 42
0.5450207774090871
  0
VERTEX
  5
2412
  8
SAPA_PROFIL
 10
2.0767196957479821
 20
-37.07376540432552
 30
0.0
  0
VERTEX
  5
2413
  8
SAPA_PROFIL
 10
2.6999999999999602
 20
-38.449999999999513
 30
0.0
  0
VERTEX
  5
2414
  8
SAPA_PROFIL
 10
2.349999999999937
 20
-38.449999999999513
 30
0.0
 42
0.5450207774090871
  0
VERTEX
  5
2415
  8
SAPA_PROFIL
 10
2.0767196957479821
 20
-38.873765404325532
 30
0.0
  0
VERTEX
  5
2416
  8
SAPA_PROFIL
 10
2.6999999999999602
 20
-40.24999999999951
 30
0.0
  0
VERTEX
  5
2417
  8
SAPA_PROFIL
 10
2.3500000000000512
 20
-40.24999999999951
 30
0.0
 42
0.5450207774093415
  0
VERTEX
  5
2418
  8
SAPA_PROFIL
 10
2.0767196957479821
 20
-40.673765404325501
 30
0.0
  0
VERTEX
  5
2419
  8
SAPA_PROFIL
 10
2.6999999999999602
 20
-42.0499999999995
 30
0.0
  0
VERTEX
  5
241A
  8
SAPA_PROFIL
 10
2.3500000000000218
 20
-42.0499999999995
 30
0.0
 42
0.5450207774092283
  0
VERTEX
  5
241B
  8
SAPA_PROFIL
 10
2.0767196957479821
 20
-42.473765404325519
 30
0.0
  0
VERTEX
  5
241C
  8
SAPA_PROFIL
 10
2.6999999999999602
 20
-43.849999999999497
 30
0.0
  0
VERTEX
  5
241D
  8
SAPA_PROFIL
 10
2.349999999999937
 20
-43.849999999999497
 30
0.0
 42
0.5450207774090871
  0
VERTEX
  5
241E
  8
SAPA_PROFIL
 10
2.0767196957479821
 20
-44.273765404325502
 30
0.0
  0
VERTEX
  5
241F
  8
SAPA_PROFIL
 10
2.6999999999999602
 20
-45.649999999999523
 30
0.0
  0
VERTEX
  5
2420
  8
SAPA_PROFIL
 10
2.349999999999937
 20
-45.649999999999523
 30
0.0
 42
0.5450207774090871
  0
VERTEX
  5
2421
  8
SAPA_PROFIL
 10
2.0767196957479821
 20
-46.073765404325513
 30
0.0
  0
VERTEX
  5
2422
  8
SAPA_PROFIL
 10
2.6999999999999602
 20
-47.449999999999498
 30
0.0
  0
VERTEX
  5
2423
  8
SAPA_PROFIL
 10
2.3499999999999939
 20
-47.449999999999498
 30
0.0
 42
0.5450207774091945
  0
VERTEX
  5
2424
  8
SAPA_PROFIL
 10
2.0767196957479821
 20
-47.873765404325532
 30
0.0
  0
VERTEX
  5
2425
  8
SAPA_PROFIL
 10
2.6999999999999602
 20
-49.24999999999951
 30
0.0
  0
VERTEX
  5
2426
  8
SAPA_PROFIL
 10
2.3500000000000218
 20
-49.24999999999951
 30
0.0
 42
0.5450207774092962
  0
VERTEX
  5
2427
  8
SAPA_PROFIL
 10
2.0767196957479821
 20
-49.673765404325501
 30
0.0
  0
VERTEX
  5
2428
  8
SAPA_PROFIL
 10
2.6999999999999602
 20
-51.0499999999995
 30
0.0
  0
VERTEX
  5
2429
  8
SAPA_PROFIL
 10
2.3500000000000791
 20
-51.0499999999995
 30
0.0
 42
0.6681786379194189
  0
VERTEX
  5
242A
  8
SAPA_PROFIL
 10
2.1378679656439772
 20
-51.5621320343555
 30
0.0
  0
VERTEX
  5
242B
  8
SAPA_PROFIL
 10
3.0757359312879942
 20
-52.499999999999517
 30
0.0
  0
VERTEX
  5
242C
  8
SAPA_PROFIL
 10
4.6999999999999602
 20
-52.499999999999517
 30
0.0
 42
0.4142135623730951
  0
VERTEX
  5
242D
  8
SAPA_PROFIL
 10
4.9999999999999707
 20
-52.199999999999498
 30
0.0
  0
VERTEX
  5
242E
  8
SAPA_PROFIL
 10
4.9999999999999707
 20
-14.49999999999952
 30
0.0
 42
-0.4142135623730951
  0
VERTEX
  5
242F
  8
SAPA_PROFIL
 10
7.0
 20
-12.49999999999952
 30
0.0
  0
VERTEX
  5
2430
  8
SAPA_PROFIL
 10
19.699999999999989
 20
-12.49999999999954
 30
0.0
 42
-0.6482315195103831
  0
VERTEX
  5
2431
  8
SAPA_PROFIL
 10
20.81803398874985
 20
-14.99999999999957
 30
0.0
 42
0.6482315195103645
  0
VERTEX
  5
2432
  8
SAPA_PROFIL
 10
21.041640786500011
 20
-15.49999999999954
 30
0.0
  0
VERTEX
  5
2433
  8
SAPA_PROFIL
 10
22.399999999999981
 20
-15.49999999999954
 30
0.0
 42
-0.4142135623730951
  0
VERTEX
  5
2434
  8
SAPA_PROFIL
 10
22.699999999999989
 20
-15.79999999999953
 30
0.0
  0
VERTEX
  5
2435
  8
SAPA_PROFIL
 10
22.699999999999989
 20
-29.699999999999541
 30
0.0
 42
-0.4142135623731104
  0
VERTEX
  5
2436
  8
SAPA_PROFIL
 10
22.399999999999981
 20
-29.999999999999549
 30
0.0
  0
VERTEX
  5
2437
  8
SAPA_PROFIL
 10
16.500000000000959
 20
-29.99999999999952
 30
0.0
 42
0.4142135623731104
  0
VERTEX
  5
2438
  8
SAPA_PROFIL
 10
16.20000000000098
 20
-30.2999999999995
 30
0.0
  0
VERTEX
  5
2439
  8
SAPA_PROFIL
 10
16.20000000000098
 20
-34.199999999999513
 30
0.0
 42
-0.2134217652833545
  0
VERTEX
  5
243A
  8
SAPA_PROFIL
 10
16.100000000000989
 20
-34.423606797749471
 30
0.0
 42
0.213421765283341
  0
VERTEX
  5
243B
  8
SAPA_PROFIL
 10
16.000000000000959
 20
-34.647213595499501
 30
0.0
  0
VERTEX
  5
243C
  8
SAPA_PROFIL
 10
16.000000000000959
 20
-35.199999999999513
 30
0.0
 42
0.4142135623731104
  0
VERTEX
  5
243D
  8
SAPA_PROFIL
 10
16.300000000000981
 20
-35.499999999999517
 30
0.0
  0
VERTEX
  5
243E
  8
SAPA_PROFIL
 10
18.000000000000959
 20
-35.499999999999538
 30
0.0
  0
VERTEX
  5
243F
  8
SAPA_PROFIL
 10
18.586384015761979
 20
-35.035076580434549
 30
0.0
 42
0.7105995015649603
  0
VERTEX
  5
2440
  8
SAPA_PROFIL
 10
18.400000000001
 20
-34.499999999999552
 30
0.0
  0
VERTEX
  5
2441
  8
SAPA_PROFIL
 10
18.000000000000959
 20
-34.499999999999552
 30
0.0
 42
-0.4142135623731359
  0
VERTEX
  5
2442
  8
SAPA_PROFIL
 10
17.70000000000098
 20
-34.199999999999541
 30
0.0
  0
VERTEX
  5
2443
  8
SAPA_PROFIL
 10
17.70000000000098
 20
-31.799999999999532
 30
0.0
 42
-0.4142135623730951
  0
VERTEX
  5
2444
  8
SAPA_PROFIL
 10
18.000000000000959
 20
-31.499999999999549
 30
0.0
  0
VERTEX
  5
2445
  8
SAPA_PROFIL
 10
22.900000000000968
 20
-31.499999999999549
 30
0.0
 42
-0.4142135623731104
  0
VERTEX
  5
2446
  8
SAPA_PROFIL
 10
23.200000000000959
 20
-31.799999999999532
 30
0.0
  0
VERTEX
  5
2447
  8
SAPA_PROFIL
 10
23.20000000000098
 20
-34.199999999999541
 30
0.0
 42
-0.4142135623731258
  0
VERTEX
  5
2448
  8
SAPA_PROFIL
 10
22.900000000000951
 20
-34.499999999999552
 30
0.0
  0
VERTEX
  5
2449
  8
SAPA_PROFIL
 10
22.000000000000959
 20
-34.499999999999552
 30
0.0
 42
0.7105995015650852
  0
VERTEX
  5
244A
  8
SAPA_PROFIL
 10
21.813615984240219
 20
-35.035076580434271
 30
0.0
  0
VERTEX
  5
244B
  8
SAPA_PROFIL
 10
22.400000000000968
 20
-35.499999999999538
 30
0.0
  0
VERTEX
  5
244C
  8
SAPA_PROFIL
 10
24.70000000000098
 20
-35.499999999999538
 30
0.0
 42
0.4142135623730951
  0
VERTEX
  5
244D
  8
SAPA_PROFIL
 10
25.00000000000097
 20
-35.199999999999527
 30
0.0
  0
VERTEX
  5
244E
  8
SAPA_PROFIL
 10
25.0
 20
63.999999999999481
 30
0.0
 42
0.4142135623730951
  0
VERTEX
  5
244F
  8
SAPA_PROFIL
 10
24.5
 20
64.499999999999488
 30
0.0
  0
VERTEX
  5
2450
  8
SAPA_PROFIL
 10
-24.5
 20
64.499999999999488
 30
0.0
 42
0.4142135623730951
  0
VERTEX
  5
2451
  8
SAPA_PROFIL
 10
-25.0
 20
63.999999999999481
 30
0.0
  0
VERTEX
  5
2452
  8
SAPA_PROFIL
 10
-25.00000000000103
 20
-35.199999999999513
 30
0.0
 42
0.4142135623731258
  0
VERTEX
  5
2453
  8
SAPA_PROFIL
 10
-24.700000000001008
 20
-35.499999999999517
 30
0.0
  0
VERTEX
  5
2454
  8
SAPA_PROFIL
 10
-22.400000000001029
 20
-35.499999999999517
 30
0.0
  0
VERTEX
  5
2455
  8
SAPA_PROFIL
 10
-21.81361598424002
 20
-35.035076580433497
 30
0.0
 42
0.7105995015650982
  0
VERTEX
  5
2456
  8
SAPA_PROFIL
 10
-22.00000000000102
 20
-34.499999999999517
 30
0.0
  0
VERTEX
  5
2457
  8
SAPA_PROFIL
 10
-22.900000000001029
 20
-34.499999999999517
 30
0.0
 42
-0.4142135623731104
  0
VERTEX
  5
2458
  8
SAPA_PROFIL
 10
-23.200000000001008
 20
-34.199999999999513
 30
0.0
  0
VERTEX
  5
2459
  8
SAPA_PROFIL
 10
-23.200000000001008
 20
-31.7999999999995
 30
0.0
 42
-0.4142135623731001
  0
VERTEX
  5
245A
  8
SAPA_PROFIL
 10
-22.900000000001029
 20
-31.49999999999952
 30
0.0
  0
VERTEX
  5
245B
  8
SAPA_PROFIL
 10
-18.00000000000102
 20
-31.49999999999952
 30
0.0
 42
-0.4142135623730951
  0
VERTEX
  5
245C
  8
SAPA_PROFIL
 10
-17.700000000001008
 20
-31.7999999999995
 30
0.0
  0
VERTEX
  5
245D
  8
SAPA_PROFIL
 10
-17.700000000001008
 20
-34.199999999999513
 30
0.0
 42
-0.4142135623731359
  0
VERTEX
  5
245E
  8
SAPA_PROFIL
 10
-18.000000000001052
 20
-34.499999999999517
 30
0.0
  0
VERTEX
  5
245F
  8
SAPA_PROFIL
 10
-18.400000000001029
 20
-34.499999999999517
 30
0.0
 42
0.7105995015649472
  0
VERTEX
  5
2460
  8
SAPA_PROFIL
 10
-18.586384015761841
 20
-35.035076580434207
 30
0.0
  0
VERTEX
  5
2461
  8
SAPA_PROFIL
 10
-18.00000000000102
 20
-35.499999999999517
 30
0.0
  0
VERTEX
  5
2462
  8
SAPA_PROFIL
 10
-16.300000000000999
 20
-35.499999999999517
 30
0.0
 42
0.4142135623731156
  0
VERTEX
  5
2463
  8
SAPA_PROFIL
 10
-16.00000000000102
 20
-35.199999999999513
 30
0.0
  0
VERTEX
  5
2464
  8
SAPA_PROFIL
 10
-16.00000000000102
 20
-34.647213595499522
 30
0.0
 42
0.2134217652833455
  0
VERTEX
  5
2465
  8
SAPA_PROFIL
 10
-16.100000000000989
 20
-34.423606797749557
 30
0.0
 42
-0.2134217652833592
  0
VERTEX
  5
2466
  8
SAPA_PROFIL
 10
-16.200000000001008
 20
-34.199999999999513
 30
0.0
  0
VERTEX
  5
2467
  8
SAPA_PROFIL
 10
-16.200000000001008
 20
-30.2999999999995
 30
0.0
 42
0.4142135623731053
  0
VERTEX
  5
2468
  8
SAPA_PROFIL
 10
-16.50000000000102
 20
-29.99999999999952
 30
0.0
  0
VERTEX
  5
2469
  8
SAPA_PROFIL
 10
-22.400000000000009
 20
-29.99999999999952
 30
0.0
 42
-0.4142135623730951
  0
VERTEX
  5
246A
  8
SAPA_PROFIL
 10
-22.700000000000021
 20
-29.699999999999509
 30
0.0
  0
VERTEX
  5
246B
  8
SAPA_PROFIL
 10
-22.700000000000021
 20
-15.7999999999995
 30
0.0
 42
-0.4142135623730951
  0
VERTEX
  5
246C
  8
SAPA_PROFIL
 10
-22.400000000000009
 20
-15.49999999999952
 30
0.0
  0
VERTEX
  5
246D
  8
SAPA_PROFIL
 10
-21.041640786500011
 20
-15.49999999999952
 30
0.0
 42
0.6482315195103644
  0
SEQEND
  5
246E
  8
SAPA_PROFIL
  0
POLYLINE
  5
16A2
  8
SAPA_PROFIL
 66
     1
 10
0.0
 20
0.0
 30
0.0
 70
   129
  0
VERTEX
  5
246F
  8
SAPA_PROFIL
 10
22.399999999999981
 20
62.2000000000005
 30
0.0
 42
-0.4142135623730951
  0
VERTEX
  5
2470
  8
SAPA_PROFIL
 10
22.699999999999989
 20
61.900000000000489
 30
0.0
  0
VERTEX
  5
2471
  8
SAPA_PROFIL
 10
22.699999999999989
 20
49.299999999999493
 30
0.0
 42
-0.4142135623731104
  0
VERTEX
  5
2472
  8
SAPA_PROFIL
 10
22.399999999999981
 20
48.999999999999481
 30
0.0
  0
VERTEX
  5
2473
  8
SAPA_PROFIL
 10
18.0
 20
48.999999999999481
 30
0.0
 42
0.4142135623730951
  0
VERTEX
  5
2474
  8
SAPA_PROFIL
 10
17.5
 20
48.499999999999488
 30
0.0
  0
VERTEX
  5
2475
  8
SAPA_PROFIL
 10
17.5
 20
46.399999999999459
 30
0.0
 42
0.4142135623730951
  0
VERTEX
  5
2476
  8
SAPA_PROFIL
 10
17.800000000000011
 20
46.099999999999483
 30
0.0
  0
VERTEX
  5
2477
  8
SAPA_PROFIL
 10
18.300000000000011
 20
46.099999999999483
 30
0.0
 42
0.4142135623730951
  0
VERTEX
  5
2478
  8
SAPA_PROFIL
 10
18.599999999999991
 20
46.399999999999459
 30
0.0
  0
VERTEX
  5
2479
  8
SAPA_PROFIL
 10
18.600000000000311
 20
46.736626924635203
 30
0.0
 42
-0.5643553431125428
  0
VERTEX
  5
247A
  8
SAPA_PROFIL
 10
22.924395043234998
 20
44.874395043232482
 30
0.0
  0
VERTEX
  5
247B
  8
SAPA_PROFIL
 10
22.550000000002001
 20
44.499999999999481
 30
0.0
  0
VERTEX
  5
247C
  8
SAPA_PROFIL
 10
22.924395043234231
 20
44.125604956763077
 30
0.0
 42
-0.5643553431119962
  0
VERTEX
  5
247D
  8
SAPA_PROFIL
 10
18.599999999999991
 20
42.263373075365479
 30
0.0
  0
VERTEX
  5
247E
  8
SAPA_PROFIL
 10
18.599999999999991
 20
42.599999999999497
 30
0.0
 42
0.4142135623730644
  0
VERTEX
  5
247F
  8
SAPA_PROFIL
 10
18.300000000000011
 20
42.899999999999459
 30
0.0
  0
VERTEX
  5
2480
  8
SAPA_PROFIL
 10
17.800000000000011
 20
42.899999999999459
 30
0.0
 42
0.4142135623730951
  0
VERTEX
  5
2481
  8
SAPA_PROFIL
 10
17.5
 20
42.599999999999483
 30
0.0
  0
VERTEX
  5
2482
  8
SAPA_PROFIL
 10
17.5
 20
40.499999999999488
 30
0.0
 42
0.4142135623730951
  0
VERTEX
  5
2483
  8
SAPA_PROFIL
 10
18.0
 20
39.999999999999488
 30
0.0
  0
VERTEX
  5
2484
  8
SAPA_PROFIL
 10
22.399999999999981
 20
39.999999999999488
 30
0.0
 42
-0.4142135623731104
  0
VERTEX
  5
2485
  8
SAPA_PROFIL
 10
22.699999999999989
 20
39.699999999999477
 30
0.0
  0
VERTEX
  5
2486
  8
SAPA_PROFIL
 10
22.699999999999989
 20
9.2999999999994714
 30
0.0
 42
-0.4142135623731104
  0
VERTEX
  5
2487
  8
SAPA_PROFIL
 10
22.399999999999981
 20
8.9999999999994582
 30
0.0
  0
VERTEX
  5
2488
  8
SAPA_PROFIL
 10
18.0
 20
8.9999999999994582
 30
0.0
 42
0.4142135623730951
  0
VERTEX
  5
2489
  8
SAPA_PROFIL
 10
17.5
 20
8.4999999999994884
 30
0.0
  0
VERTEX
  5
248A
  8
SAPA_PROFIL
 10
17.5
 20
6.3999999999994941
 30
0.0
 42
0.4142135623730951
  0
VERTEX
  5
248B
  8
SAPA_PROFIL
 10
17.800000000000011
 20
6.0999999999994543
 30
0.0
  0
VERTEX
  5
248C
  8
SAPA_PROFIL
 10
18.300000000000011
 20
6.0999999999994543
 30
0.0
 42
0.4142135623730389
  0
VERTEX
  5
248D
  8
SAPA_PROFIL
 10
18.599999999999991
 20
6.3999999999994648
 30
0.0
  0
VERTEX
  5
248E
  8
SAPA_PROFIL
 10
18.600000000000311
 20
6.7366269246341801
 30
0.0
 42
-0.5643553431125485
  0
VERTEX
  5
248F
  8
SAPA_PROFIL
 10
22.924395043234998
 20
4.874395043232453
 30
0.0
  0
VERTEX
  5
2490
  8
SAPA_PROFIL
 10
22.550000000002001
 20
4.4999999999994591
 30
0.0
  0
VERTEX
  5
2491
  8
SAPA_PROFIL
 10
22.924395043234199
 20
4.1256049567620323
 30
0.0
 42
-0.5643553431119904
  0
VERTEX
  5
2492
  8
SAPA_PROFIL
 10
18.599999999999991
 20
2.2633730753654779
 30
0.0
  0
VERTEX
  5
2493
  8
SAPA_PROFIL
 10
18.599999999999991
 20
2.5999999999994818
 30
0.0
 42
0.4142135623730644
  0
VERTEX
  5
2494
  8
SAPA_PROFIL
 10
18.300000000000011
 20
2.8999999999994648
 30
0.0
  0
VERTEX
  5
2495
  8
SAPA_PROFIL
 10
17.800000000000011
 20
2.8999999999994648
 30
0.0
 42
0.4142135623730951
  0
VERTEX
  5
2496
  8
SAPA_PROFIL
 10
17.5
 20
2.5999999999994818
 30
0.0
  0
VERTEX
  5
2497
  8
SAPA_PROFIL
 10
17.5
 20
0.4999999999994884
 30
0.0
 42
0.4142135623730951
  0
VERTEX
  5
2498
  8
SAPA_PROFIL
 10
18.0
 20
-0.00000000000054
 30
0.0
  0
VERTEX
  5
2499
  8
SAPA_PROFIL
 10
22.399999999999981
 20
-0.00000000000054
 30
0.0
 42
-0.4142135623731104
  0
VERTEX
  5
249A
  8
SAPA_PROFIL
 10
22.699999999999989
 20
-0.3000000000005514
 30
0.0
  0
VERTEX
  5
249B
  8
SAPA_PROFIL
 10
22.699999999999989
 20
-9.8999999999995492
 30
0.0
 42
-0.4142135623730951
  0
VERTEX
  5
249C
  8
SAPA_PROFIL
 10
22.399999999999981
 20
-10.19999999999953
 30
0.0
  0
VERTEX
  5
249D
  8
SAPA_PROFIL
 10
-22.400000000000009
 20
-10.1999999999995
 30
0.0
 42
-0.4142135623730951
  0
VERTEX
  5
249E
  8
SAPA_PROFIL
 10
-22.700000000000021
 20
-9.8999999999995225
 30
0.0
  0
VERTEX
  5
249F
  8
SAPA_PROFIL
 10
-22.700000000000021
 20
-0.300000000000523
 30
0.0
 42
-0.4142135623730951
  0
VERTEX
  5
24A0
  8
SAPA_PROFIL
 10
-22.400000000000009
 20
-0.0000000000005116
 30
0.0
  0
VERTEX
  5
24A1
  8
SAPA_PROFIL
 10
-18.000000000000028
 20
-0.0000000000005116
 30
0.0
 42
0.4142135623730951
  0
VERTEX
  5
24A2
  8
SAPA_PROFIL
 10
-17.500000000000028
 20
0.4999999999994884
 30
0.0
  0
VERTEX
  5
24A3
  8
SAPA_PROFIL
 10
-17.500000000000028
 20
2.5999999999994818
 30
0.0
 42
0.4142135623730951
  0
VERTEX
  5
24A4
  8
SAPA_PROFIL
 10
-17.80000000000004
 20
2.8999999999994941
 30
0.0
  0
VERTEX
  5
24A5
  8
SAPA_PROFIL
 10
-18.30000000000004
 20
2.8999999999994941
 30
0.0
 42
0.4142135623730951
  0
VERTEX
  5
24A6
  8
SAPA_PROFIL
 10
-18.600000000000019
 20
2.5999999999994818
 30
0.0
  0
VERTEX
  5
24A7
  8
SAPA_PROFIL
 10
-18.600000000000019
 20
2.2633730753655068
 30
0.0
 42
-0.5643553431119905
  0
VERTEX
  5
24A8
  8
SAPA_PROFIL
 10
-22.924395043234231
 20
4.125604956762003
 30
0.0
  0
VERTEX
  5
24A9
  8
SAPA_PROFIL
 10
-22.550000000002029
 20
4.4999999999994884
 30
0.0
  0
VERTEX
  5
24AA
  8
SAPA_PROFIL
 10
-22.92439504323502
 20
4.8743950432324823
 30
0.0
 42
-0.5643553431125659
  0
VERTEX
  5
24AB
  8
SAPA_PROFIL
 10
-18.600000000000222
 20
6.7366269246341508
 30
0.0
  0
VERTEX
  5
24AC
  8
SAPA_PROFIL
 10
-18.600000000000019
 20
6.3999999999994941
 30
0.0
 42
0.4142135623730388
  0
VERTEX
  5
24AD
  8
SAPA_PROFIL
 10
-18.30000000000004
 20
6.0999999999994818
 30
0.0
  0
VERTEX
  5
24AE
  8
SAPA_PROFIL
 10
-17.80000000000004
 20
6.0999999999994818
 30
0.0
 42
0.4142135623730951
  0
VERTEX
  5
24AF
  8
SAPA_PROFIL
 10
-17.500000000000028
 20
6.3999999999994941
 30
0.0
  0
VERTEX
  5
24B0
  8
SAPA_PROFIL
 10
-17.500000000000028
 20
8.4999999999994884
 30
0.0
 42
0.4142135623730951
  0
VERTEX
  5
24B1
  8
SAPA_PROFIL
 10
-18.000000000000028
 20
8.9999999999994884
 30
0.0
  0
VERTEX
  5
24B2
  8
SAPA_PROFIL
 10
-22.400000000000009
 20
8.9999999999994884
 30
0.0
 42
-0.4142135623730951
  0
VERTEX
  5
24B3
  8
SAPA_PROFIL
 10
-22.700000000000021
 20
9.2999999999994998
 30
0.0
  0
VERTEX
  5
24B4
  8
SAPA_PROFIL
 10
-22.700000000000021
 20
39.699999999999477
 30
0.0
 42
-0.4142135623730951
  0
VERTEX
  5
24B5
  8
SAPA_PROFIL
 10
-22.400000000000009
 20
39.999999999999488
 30
0.0
  0
VERTEX
  5
24B6
  8
SAPA_PROFIL
 10
-18.000000000000028
 20
39.999999999999488
 30
0.0
 42
0.4142135623730951
  0
VERTEX
  5
24B7
  8
SAPA_PROFIL
 10
-17.500000000000028
 20
40.499999999999488
 30
0.0
  0
VERTEX
  5
24B8
  8
SAPA_PROFIL
 10
-17.5
 20
42.599999999999483
 30
0.0
 42
0.4142135623730951
  0
VERTEX
  5
24B9
  8
SAPA_PROFIL
 10
-17.800000000000011
 20
42.899999999999459
 30
0.0
  0
VERTEX
  5
24BA
  8
SAPA_PROFIL
 10
-18.300000000000011
 20
42.899999999999459
 30
0.0
 42
0.4142135623730951
  0
VERTEX
  5
24BB
  8
SAPA_PROFIL
 10
-18.599999999999991
 20
42.599999999999483
 30
0.0
  0
VERTEX
  5
24BC
  8
SAPA_PROFIL
 10
-18.599999999999991
 20
42.263373075365479
 30
0.0
 42
-0.5643553431119905
  0
VERTEX
  5
24BD
  8
SAPA_PROFIL
 10
-22.924395043234199
 20
44.125604956762999
 30
0.0
  0
VERTEX
  5
24BE
  8
SAPA_PROFIL
 10
-22.550000000002001
 20
44.499999999999481
 30
0.0
  0
VERTEX
  5
24BF
  8
SAPA_PROFIL
 10
-22.924395043234998
 20
44.874395043232482
 30
0.0
 42
-0.5643553431125659
  0
VERTEX
  5
24C0
  8
SAPA_PROFIL
 10
-18.60000000000019
 20
46.736626924635146
 30
0.0
  0
VERTEX
  5
24C1
  8
SAPA_PROFIL
 10
-18.599999999999991
 20
46.399999999999459
 30
0.0
 42
0.4142135623730951
  0
VERTEX
  5
24C2
  8
SAPA_PROFIL
 10
-18.300000000000011
 20
46.099999999999483
 30
0.0
  0
VERTEX
  5
24C3
  8
SAPA_PROFIL
 10
-17.800000000000011
 20
46.099999999999483
 30
0.0
 42
0.4142135623730951
  0
VERTEX
  5
24C4
  8
SAPA_PROFIL
 10
-17.5
 20
46.399999999999459
 30
0.0
  0
VERTEX
  5
24C5
  8
SAPA_PROFIL
 10
-17.5
 20
48.499999999999488
 30
0.0
 42
0.4142135623730951
  0
VERTEX
  5
24C6
  8
SAPA_PROFIL
 10
-18.0
 20
48.999999999999481
 30
0.0
  0
VERTEX
  5
24C7
  8
SAPA_PROFIL
 10
-22.399999999999981
 20
48.999999999999481
 30
0.0
 42
-0.4142135623730951
  0
VERTEX
  5
24C8
  8
SAPA_PROFIL
 10
-22.699999999999989
 20
49.299999999999493
 30
0.0
  0
VERTEX
  5
24C9
  8
SAPA_PROFIL
 10
-22.699999999999989
 20
61.899999999999473
 30
0.0
 42
-0.4142135623730951
  0
VERTEX
  5
24CA
  8
SAPA_PROFIL
 10
-22.399999999999981
 20
62.199999999999477
 30
0.0
  0
SEQEND
  5
24CB
  8
SAPA_PROFIL
  0
TEXT
  5
16DE
  8
SAPA_ARTIKELNR
 62
     4
 10
210.17988547077911
 20
20.051192314697431
 30
0.0
 40
3.0
  1
42762
 50
180.0
  7
BYGG-036634$0$STANDARD
 71
     4
 72
     4
 11
203.17988547077911
 21
21.551192314697431
 31
0.0
  0
POLYLINE
  5
16EA
  8
SAPA_GLAS
 66
     1
 10
0.0
 20
0.0
 30
0.0
  0
VERTEX
  5
24E1
  8
SAPA_GLAS
 10
-40.999999999999773
 20
-66.499999999998636
 30
0.0
  0
VERTEX
  5
24E2
  8
SAPA_GLAS
 10
-10.999999999999771
 20
-66.499999999998636
 30
0.0
  0
VERTEX
  5
24E3
  8
SAPA_GLAS
 10
-10.999999999999771
 20
-72.499999999998636
 30
0.0
  0
VERTEX
  5
24E4
  8
SAPA_GLAS
 10
-40.999999999999773
 20
-72.499999999998636
 30
0.0
  0
SEQEND
  5
24E5
  8
SAPA_GLAS
  0
POLYLINE
  5
16EB
  8
SAPA_GLAS
 66
     1
 10
0.0
 20
0.0
 30
0.0
  0
VERTEX
  5
24E6
  8
SAPA_GLAS
 10
-20.999999999999769
 20
-51.499999999998629
 30
0.0
  0
VERTEX
  5
24E7
  8
SAPA_GLAS
 10
-10.999999999999771
 20
-51.499999999998629
 30
0.0
  0
VERTEX
  5
24E8
  8
SAPA_GLAS
 10
-10.999999999999771
 20
-66.499999999998636
 30
0.0
  0
VERTEX
  5
24E9
  8
SAPA_GLAS
 10
-20.999999999999769
 20
-66.499999999998636
 30
0.0
  0
VERTEX
  5
24EA
  8
SAPA_GLAS
 10
-20.999999999999769
 20
-51.499999999998629
 30
0.0
  0
SEQEND
  5
24EB
  8
SAPA_GLAS
  0
POLYLINE
  5
16EC
  8
SAPA_GLAS
 66
     1
 10
0.0
 20
0.0
 30
0.0
  0
VERTEX
  5
24EC
  8
SAPA_GLAS
 10
-40.999999999999773
 20
-45.499999999998629
 30
0.0
  0
VERTEX
  5
24ED
  8
SAPA_GLAS
 10
-10.999999999999771
 20
-45.499999999998629
 30
0.0
  0
VERTEX
  5
24EE
  8
SAPA_GLAS
 10
-10.999999999999771
 20
-51.499999999998629
 30
0.0
  0
VERTEX
  5
24EF
  8
SAPA_GLAS
 10
-40.999999999999773
 20
-51.499999999998629
 30
0.0
  0
SEQEND
  5
24F0
  8
SAPA_GLAS
  0
LINE
  5
16ED
  8
SAPA_GLAS
 10
162.99999999793059
 20
-57.550000073848729
 30
0.0
 11
162.99999999793059
 21
-42.550000073848729
 31
0.0
  0
POLYLINE
  5
16EE
  8
SAPA_GLAS
 66
     1
 10
0.0
 20
0.0
 30
0.0
  0
VERTEX
  5
24F1
  8
SAPA_GLAS
 10
182.9999999979307
 20
-36.550000073848743
 30
0.0
  0
VERTEX
  5
24F2
  8
SAPA_GLAS
 10
152.9999999979307
 20
-36.550000073848743
 30
0.0
  0
VERTEX
  5
24F3
  8
SAPA_GLAS
 10
152.9999999979307
 20
-63.550000073848729
 30
0.0
  0
VERTEX
  5
24F4
  8
SAPA_GLAS
 10
182.9999999979307
 20
-63.550000073848729
 30
0.0
  0
SEQEND
  5
24F5
  8
SAPA_GLAS
  0
LINE
  5
16EF
  8
SAPA_GLAS
 10
182.9999999979307
 20
-42.550000073848729
 30
0.0
 11
152.9999999979307
 21
-42.550000073848729
 31
0.0
  0
LINE
  5
16F0
  8
SAPA_GLAS
 10
182.9999999979307
 20
-57.550000073848729
 30
0.0
 11
152.9999999979307
 21
-57.550000073848729
 31
0.0
  0
LINE
  5
16FB
  8
SAPA_ISOLATOR
 10
25.00001783612641
 20
-7.3369832384358062
 30
0.0
 11
31.194641603309378
 21
-7.3369832384358062
 31
0.0
  0
LINE
  5
16FC
  8
SAPA_ISOLATOR
 10
25.00001783612641
 20
-42.578680595394779
 30
0.0
 11
25.00001783612641
 21
-7.3369832384358062
 31
0.0
  0
LINE
  5
16FD
  8
SAPA_ISOLATOR
 10
31.194641603311201
 20
-42.578680595394779
 30
0.0
 11
25.00001783612641
 21
-42.578680595394779
 31
0.0
  0
LINE
  5
16FE
  8
SAPA_ISOLATOR
 10
31.200017836126449
 20
-7.3369832384358062
 30
0.0
 11
31.194641603311201
 21
-42.578680595394779
 31
0.0
  0
LINE
  5
16FF
  8
SAPA_ISOLATOR
 10
31.194641603311201
 20
-42.578680595394779
 30
0.0
 11
25.00001783612641
 21
-7.3369832384358062
 31
0.0
  0
LINE
  5
1700
  8
SAPA_ISOLATOR
 10
31.2166051390119
 20
-7.3369832384358062
 30
0.0
 11
25.01122890619661
 21
-42.578680595394779
 31
0.0
  0
POLYLINE
  5
1723
  8
SAPA_FOGBAND
 66
     1
 10
0.0
 20
0.0
 30
0.0
 70
     1
  0
VERTEX
  5
25F5
  8
SAPA_FOGBAND
 10
16.00339355472715
 20
-36.300000000000608
 30
0.0
  0
VERTEX
  5
25F6
  8
SAPA_FOGBAND
 10
23.303393554727108
 20
-36.300000000000608
 30
0.0
 42
0.4142135623730951
  0
VERTEX
  5
25F7
  8
SAPA_FOGBAND
 10
23.803393554727108
 20
-35.800000000000608
 30
0.0
  0
VERTEX
  5
25F8
  8
SAPA_FOGBAND
 10
23.803393554727108
 20
-35.500000000000647
 30
0.0
  0
VERTEX
  5
25F9
  8
SAPA_FOGBAND
 10
22.203393554727089
 20
-35.500000000000647
 30
0.0
 42
-0.4142135623730951
  0
VERTEX
  5
25FA
  8
SAPA_FOGBAND
 10
21.703393554727089
 20
-35.000000000000661
 30
0.0
  0
VERTEX
  5
25FB
  8
SAPA_FOGBAND
 10
21.703393554727089
 20
-34.058574583118769
 30
0.0
  0
VERTEX
  5
25FC
  8
SAPA_FOGBAND
 10
21.95515736374762
 20
-33.991114673808369
 30
0.0
 42
0.4740571810232243
  0
VERTEX
  5
25FD
  8
SAPA_FOGBAND
 10
22.082451226111171
 20
-33.708832088169721
 30
0.0
  0
VERTEX
  5
25FE
  8
SAPA_FOGBAND
 10
21.462350723352529
 20
-32.262625951409831
 30
0.0
 42
0.2846003776496037
  0
VERTEX
  5
25FF
  8
SAPA_FOGBAND
 10
21.01470654489242
 20
-31.985369502361859
 30
0.0
  0
VERTEX
  5
2600
  8
SAPA_FOGBAND
 10
19.392080564561859
 20
-31.985369502361859
 30
0.0
 42
0.2846003776496048
  0
VERTEX
  5
2601
  8
SAPA_FOGBAND
 10
18.944436386101639
 20
-32.262625951409831
 30
0.0
  0
VERTEX
  5
2602
  8
SAPA_FOGBAND
 10
18.324335883343
 20
-33.708832088169721
 30
0.0
 42
0.4740571810232242
  0
VERTEX
  5
2603
  8
SAPA_FOGBAND
 10
18.451629745706668
 20
-33.991114673808369
 30
0.0
  0
VERTEX
  5
2604
  8
SAPA_FOGBAND
 10
18.703393554727079
 20
-34.058574583118769
 30
0.0
  0
VERTEX
  5
2605
  8
SAPA_FOGBAND
 10
18.703393554727079
 20
-35.000000000000661
 30
0.0
 42
-0.4142135623730951
  0
VERTEX
  5
2606
  8
SAPA_FOGBAND
 10
18.203393554727079
 20
-35.500000000000647
 30
0.0
  0
VERTEX
  5
2607
  8
SAPA_FOGBAND
 10
15.503393554727269
 20
-35.500000000000647
 30
0.0
  0
VERTEX
  5
2608
  8
SAPA_FOGBAND
 10
15.50339355472715
 20
-35.800000000000608
 30
0.0
 42
0.4142135623730951
  0
SEQEND
  5
2609
  8
SAPA_FOGBAND
  0
POLYLINE
  5
1724
  8
SAPA_FOGBAND
 66
     1
 10
0.0
 20
0.0
 30
0.0
 70
     1
  0
VERTEX
  5
260A
  8
SAPA_FOGBAND
 10
19.303393554727108
 20
-34.185369502361908
 30
0.0
  0
VERTEX
  5
260B
  8
SAPA_FOGBAND
 10
19.303393554727108
 20
-33.585369502361893
 30
0.0
 42
-0.9999999999999998
  0
VERTEX
  5
260C
  8
SAPA_FOGBAND
 10
21.10339355472707
 20
-33.585369502361893
 30
0.0
  0
VERTEX
  5
260D
  8
SAPA_FOGBAND
 10
21.10339355472707
 20
-34.185369502361908
 30
0.0
 42
-0.9999999999999998
  0
SEQEND
  5
260E
  8
SAPA_FOGBAND
  0
POLYLINE
  5
1725
  8
SAPA_FOGBAND
 66
     1
 10
0.0
 20
0.0
 30
0.0
  0
VERTEX
  5
260F
  8
SAPA_FOGBAND
 10
23.803393554727108
 20
-35.800000000000608
 30
0.0
  0
VERTEX
  5
2610
  8
SAPA_FOGBAND
 10
23.803393554727108
 20
-35.500000000000647
 30
0.0
  0
VERTEX
  5
2611
  8
SAPA_FOGBAND
 10
24.715553718108481
 20
-35.500000000000647
 30
0.0
 42
-0.4027293761437522
  0
VERTEX
  5
2612
  8
SAPA_FOGBAND
 10
25.015321271706512
 20
-35.788192637469791
 30
0.0
  0
VERTEX
  5
2613
  8
SAPA_FOGBAND
 10
25.635472610187659
 20
-42.42399551155389
 30
0.0
 42
-0.4366759199119207
  0
VERTEX
  5
2614
  8
SAPA_FOGBAND
 10
24.638365134668678
 20
-43.500000000001222
 30
0.0
  0
VERTEX
  5
2615
  8
SAPA_FOGBAND
 10
12.763165518679671
 20
-43.500000000001222
 30
0.0
 42
-0.1134871727417796
  0
VERTEX
  5
2616
  8
SAPA_FOGBAND
 10
12.32638668306754
 20
-43.39956892385382
 30
0.0
  0
VERTEX
  5
2617
  8
SAPA_FOGBAND
 10
5.2213249162899507
 20
-40.44088966117701
 30
0.0
 42
-0.2866770623134215
  0
VERTEX
  5
2618
  8
SAPA_FOGBAND
 10
5.002066370208559
 20
-40.090931572825333
 30
0.0
  0
VERTEX
  5
2619
  8
SAPA_FOGBAND
 10
5.002066370208559
 20
-39.09808839016145
 30
0.0
 42
-0.3386584782462731
  0
VERTEX
  5
261A
  8
SAPA_FOGBAND
 10
5.5928058660858611
 20
-38.32594200416051
 30
0.0
  0
VERTEX
  5
261B
  8
SAPA_FOGBAND
 10
15.05021068724818
 20
-35.546144059771187
 30
0.0
 42
-0.0644539213931785
  0
VERTEX
  5
261C
  8
SAPA_FOGBAND
 10
15.4066852208482
 20
-35.500000000000647
 30
0.0
  0
VERTEX
  5
261D
  8
SAPA_FOGBAND
 10
15.503393554727269
 20
-35.500000000000647
 30
0.0
  0
SEQEND
  5
261E
  8
SAPA_FOGBAND
  0
POLYLINE
  5
1726
  8
SAPA_FOGBAND
 66
     1
 10
0.0
 20
0.0
 30
0.0
 70
     1
  0
VERTEX
  5
261F
  8
SAPA_FOGBAND
 10
11.88029721313341
 20
-37.605164153426962
 30
0.0
  0
VERTEX
  5
2620
  8
SAPA_FOGBAND
 10
7.6042180012538898
 20
-39.020702744132592
 30
0.0
 42
0.444186966527488
  0
VERTEX
  5
2621
  8
SAPA_FOGBAND
 10
7.5698481632943313
 20
-39.495522529297361
 30
0.0
  0
VERTEX
  5
2622
  8
SAPA_FOGBAND
 10
11.762261311780319
 20
-41.890424100316892
 30
0.0
 42
0.5537304554466119
  0
VERTEX
  5
2623
  8
SAPA_FOGBAND
 10
12.693293997256889
 20
-41.307503437660408
 30
0.0
  0
VERTEX
  5
2624
  8
SAPA_FOGBAND
 10
12.693293997256889
 20
-38.231806045761772
 30
0.0
 42
0.4917973357877383
  0
SEQEND
  5
2625
  8
SAPA_FOGBAND
  0
POLYLINE
  5
1727
  8
SAPA_FOGBAND
 10
21.926001341734228
 20
-40.020122589264091
 30
0.0
 66
     1
 70
     8
  0
VERTEX
  8
SAPA_FOGBAND
  5
279E
 10
21.9260
 20
-40.0201
 30
0.000000
  70
    32
  0
VERTEX
  8
SAPA_FOGBAND
  5
279F
 10
21.9213
 20
-40.1350
 30
0.000000
  70
    32
  0
VERTEX
  8
SAPA_FOGBAND
  5
27A0
 10
21.9094
 20
-40.2495
 30
0.000000
  70
    32
  0
VERTEX
  8
SAPA_FOGBAND
  5
27A1
 10
21.8905
 20
-40.3634
 30
0.000000
  70
    32
  0
VERTEX
  8
SAPA_FOGBAND
  5
27A2
 10
21.8644
 20
-40.4765
 30
0.000000
  70
    32
  0
VERTEX
  8
SAPA_FOGBAND
  5
27A3
 10
21.8314
 20
-40.5883
 30
0.000000
  70
    32
  0
VERTEX
  8
SAPA_FOGBAND
  5
27A4
 10
21.7914
 20
-40.6987
 30
0.000000
  70
    32
  0
VERTEX
  8
SAPA_FOGBAND
  5
27A5
 10
21.7446
 20
-40.8074
 30
0.000000
  70
    32
  0
VERTEX
  8
SAPA_FOGBAND
  5
27A6
 10
21.6911
 20
-40.9141
 30
0.000000
  70
    32
  0
VERTEX
  8
SAPA_FOGBAND
  5
27A7
 10
21.6310
 20
-41.0186
 30
0.000000
  70
    32
  0
VERTEX
  8
SAPA_FOGBAND
  5
27A8
 10
21.5645
 20
-41.1206
 30
0.000000
  70
    32
  0
VERTEX
  8
SAPA_FOGBAND
  5
27A9
 10
21.4917
 20
-41.2199
 30
0.000000
  70
    32
  0
VERTEX
  8
SAPA_FOGBAND
  5
27AA
 10
21.4128
 20
-41.3163
 30
0.000000
  70
    32
  0
VERTEX
  8
SAPA_FOGBAND
  5
27AB
 10
21.3279
 20
-41.4094
 30
0.000000
  70
    32
  0
VERTEX
  8
SAPA_FOGBAND
  5
27AC
 10
21.2374
 20
-41.4992
 30
0.000000
  70
    32
  0
VERTEX
  8
SAPA_FOGBAND
  5
27AD
 10
21.1414
 20
-41.5852
 30
0.000000
  70
    32
  0
VERTEX
  8
SAPA_FOGBAND
  5
27AE
 10
21.0401
 20
-41.6675
 30
0.000000
  70
    32
  0
VERTEX
  8
SAPA_FOGBAND
  5
27AF
 10
20.9338
 20
-41.7457
 30
0.000000
  70
    32
  0
VERTEX
  8
SAPA_FOGBAND
  5
27B0
 10
20.8227
 20
-41.8197
 30
0.000000
  70
    32
  0
VERTEX
  8
SAPA_FOGBAND
  5
27B1
 10
20.7071
 20
-41.8893
 30
0.000000
  70
    32
  0
VERTEX
  8
SAPA_FOGBAND
  5
27B2
 10
20.5874
 20
-41.9543
 30
0.000000
  70
    32
  0
VERTEX
  8
SAPA_FOGBAND
  5
27B3
 10
20.4636
 20
-42.0146
 30
0.000000
  70
    32
  0
VERTEX
  8
SAPA_FOGBAND
  5
27B4
 10
20.3363
 20
-42.0699
 30
0.000000
  70
    32
  0
VERTEX
  8
SAPA_FOGBAND
  5
27B5
 10
20.2057
 20
-42.1203
 30
0.000000
  70
    32
  0
VERTEX
  8
SAPA_FOGBAND
  5
27B6
 10
20.0720
 20
-42.1656
 30
0.000000
  70
    32
  0
VERTEX
  8
SAPA_FOGBAND
  5
27B7
 10
19.9356
 20
-42.2056
 30
0.000000
  70
    32
  0
VERTEX
  8
SAPA_FOGBAND
  5
27B8
 10
19.7969
 20
-42.2403
 30
0.000000
  70
    32
  0
VERTEX
  8
SAPA_FOGBAND
  5
27B9
 10
19.6562
 20
-42.2696
 30
0.000000
  70
    32
  0
VERTEX
  8
SAPA_FOGBAND
  5
27BA
 10
19.5138
 20
-42.2933
 30
0.000000
  70
    32
  0
VERTEX
  8
SAPA_FOGBAND
  5
27BB
 10
19.3701
 20
-42.3115
 30
0.000000
  70
    32
  0
VERTEX
  8
SAPA_FOGBAND
  5
27BC
 10
19.2253
 20
-42.3242
 30
0.000000
  70
    32
  0
VERTEX
  8
SAPA_FOGBAND
  5
27BD
 10
19.0799
 20
-42.3312
 30
0.000000
  70
    32
  0
VERTEX
  8
SAPA_FOGBAND
  5
27BE
 10
18.9342
 20
-42.3326
 30
0.000000
  70
    32
  0
VERTEX
  8
SAPA_FOGBAND
  5
27BF
 10
18.7886
 20
-42.3283
 30
0.000000
  70
    32
  0
VERTEX
  8
SAPA_FOGBAND
  5
27C0
 10
18.6434
 20
-42.3184
 30
0.000000
  70
    32
  0
VERTEX
  8
SAPA_FOGBAND
  5
27C1
 10
18.4989
 20
-42.3029
 30
0.000000
  70
    32
  0
VERTEX
  8
SAPA_FOGBAND
  5
27C2
 10
18.3556
 20
-42.2818
 30
0.000000
  70
    32
  0
VERTEX
  8
SAPA_FOGBAND
  5
27C3
 10
18.2137
 20
-42.2552
 30
0.000000
  70
    32
  0
VERTEX
  8
SAPA_FOGBAND
  5
27C4
 10
18.0736
 20
-42.2231
 30
0.000000
  70
    32
  0
VERTEX
  8
SAPA_FOGBAND
  5
27C5
 10
17.9356
 20
-42.1857
 30
0.000000
  70
    32
  0
VERTEX
  8
SAPA_FOGBAND
  5
27C6
 10
17.8001
 20
-42.1430
 30
0.000000
  70
    32
  0
VERTEX
  8
SAPA_FOGBAND
  5
27C7
 10
17.6673
 20
-42.0951
 30
0.000000
  70
    32
  0
VERTEX
  8
SAPA_FOGBAND
  5
27C8
 10
17.5377
 20
-42.0421
 30
0.000000
  70
    32
  0
VERTEX
  8
SAPA_FOGBAND
  5
27C9
 10
17.4115
 20
-41.9842
 30
0.000000
  70
    32
  0
VERTEX
  8
SAPA_FOGBAND
  5
27CA
 10
17.2890
 20
-41.9214
 30
0.000000
  70
    32
  0
VERTEX
  8
SAPA_FOGBAND
  5
27CB
 10
17.1705
 20
-41.8541
 30
0.000000
  70
    32
  0
VERTEX
  8
SAPA_FOGBAND
  5
27CC
 10
17.0564
 20
-41.7822
 30
0.000000
  70
    32
  0
VERTEX
  8
SAPA_FOGBAND
  5
27CD
 10
16.9468
 20
-41.7060
 30
0.000000
  70
    32
  0
VERTEX
  8
SAPA_FOGBAND
  5
27CE
 10
16.8421
 20
-41.6257
 30
0.000000
  70
    32
  0
VERTEX
  8
SAPA_FOGBAND
  5
27CF
 10
16.7424
 20
-41.5415
 30
0.000000
  70
    32
  0
VERTEX
  8
SAPA_FOGBAND
  5
27D0
 10
16.6481
 20
-41.4535
 30
0.000000
  70
    32
  0
VERTEX
  8
SAPA_FOGBAND
  5
27D1
 10
16.5594
 20
-41.3620
 30
0.000000
  70
    32
  0
VERTEX
  8
SAPA_FOGBAND
  5
27D2
 10
16.4764
 20
-41.2671
 30
0.000000
  70
    32
  0
VERTEX
  8
SAPA_FOGBAND
  5
27D3
 10
16.3995
 20
-41.1693
 30
0.000000
  70
    32
  0
VERTEX
  8
SAPA_FOGBAND
  5
27D4
 10
16.3286
 20
-41.0685
 30
0.000000
  70
    32
  0
VERTEX
  8
SAPA_FOGBAND
  5
27D5
 10
16.2642
 20
-40.9652
 30
0.000000
  70
    32
  0
VERTEX
  8
SAPA_FOGBAND
  5
27D6
 10
16.2062
 20
-40.8595
 30
0.000000
  70
    32
  0
VERTEX
  8
SAPA_FOGBAND
  5
27D7
 10
16.1548
 20
-40.7517
 30
0.000000
  70
    32
  0
VERTEX
  8
SAPA_FOGBAND
  5
27D8
 10
16.1102
 20
-40.6421
 30
0.000000
  70
    32
  0
VERTEX
  8
SAPA_FOGBAND
  5
27D9
 10
16.0724
 20
-40.5310
 30
0.000000
  70
    32
  0
VERTEX
  8
SAPA_FOGBAND
  5
27DA
 10
16.0416
 20
-40.4185
 30
0.000000
  70
    32
  0
VERTEX
  8
SAPA_FOGBAND
  5
27DB
 10
16.0178
 20
-40.3050
 30
0.000000
  70
    32
  0
VERTEX
  8
SAPA_FOGBAND
  5
27DC
 10
16.0011
 20
-40.1907
 30
0.000000
  70
    32
  0
VERTEX
  8
SAPA_FOGBAND
  5
27DD
 10
15.9916
 20
-40.0760
 30
0.000000
  70
    32
  0
VERTEX
  8
SAPA_FOGBAND
  5
27DE
 10
15.9891
 20
-39.9610
 30
0.000000
  70
    32
  0
VERTEX
  8
SAPA_FOGBAND
  5
27DF
 10
15.9938
 20
-39.8462
 30
0.000000
  70
    32
  0
VERTEX
  8
SAPA_FOGBAND
  5
27E0
 10
16.0057
 20
-39.7316
 30
0.000000
  70
    32
  0
VERTEX
  8
SAPA_FOGBAND
  5
27E1
 10
16.0247
 20
-39.6177
 30
0.000000
  70
    32
  0
VERTEX
  8
SAPA_FOGBAND
  5
27E2
 10
16.0507
 20
-39.5047
 30
0.000000
  70
    32
  0
VERTEX
  8
SAPA_FOGBAND
  5
27E3
 10
16.0837
 20
-39.3929
 30
0.000000
  70
    32
  0
VERTEX
  8
SAPA_FOGBAND
  5
27E4
 10
16.1237
 20
-39.2825
 30
0.000000
  70
    32
  0
VERTEX
  8
SAPA_FOGBAND
  5
27E5
 10
16.1705
 20
-39.1738
 30
0.000000
  70
    32
  0
VERTEX
  8
SAPA_FOGBAND
  5
27E6
 10
16.2240
 20
-39.0670
 30
0.000000
  70
    32
  0
VERTEX
  8
SAPA_FOGBAND
  5
27E7
 10
16.2841
 20
-38.9625
 30
0.000000
  70
    32
  0
VERTEX
  8
SAPA_FOGBAND
  5
27E8
 10
16.3506
 20
-38.8605
 30
0.000000
  70
    32
  0
VERTEX
  8
SAPA_FOGBAND
  5
27E9
 10
16.4234
 20
-38.7612
 30
0.000000
  70
    32
  0
VERTEX
  8
SAPA_FOGBAND
  5
27EA
 10
16.5023
 20
-38.6649
 30
0.000000
  70
    32
  0
VERTEX
  8
SAPA_FOGBAND
  5
27EB
 10
16.5872
 20
-38.5717
 30
0.000000
  70
    32
  0
VERTEX
  8
SAPA_FOGBAND
  5
27EC
 10
16.6777
 20
-38.4820
 30
0.000000
  70
    32
  0
VERTEX
  8
SAPA_FOGBAND
  5
27ED
 10
16.7737
 20
-38.3959
 30
0.000000
  70
    32
  0
VERTEX
  8
SAPA_FOGBAND
  5
27EE
 10
16.8750
 20
-38.3137
 30
0.000000
  70
    32
  0
VERTEX
  8
SAPA_FOGBAND
  5
27EF
 10
16.9813
 20
-38.2354
 30
0.000000
  70
    32
  0
VERTEX
  8
SAPA_FOGBAND
  5
27F0
 10
17.0924
 20
-38.1615
 30
0.000000
  70
    32
  0
VERTEX
  8
SAPA_FOGBAND
  5
27F1
 10
17.2080
 20
-38.0919
 30
0.000000
  70
    32
  0
VERTEX
  8
SAPA_FOGBAND
  5
27F2
 10
17.3278
 20
-38.0269
 30
0.000000
  70
    32
  0
VERTEX
  8
SAPA_FOGBAND
  5
27F3
 10
17.4515
 20
-37.9666
 30
0.000000
  70
    32
  0
VERTEX
  8
SAPA_FOGBAND
  5
27F4
 10
17.5788
 20
-37.9112
 30
0.000000
  70
    32
  0
VERTEX
  8
SAPA_FOGBAND
  5
27F5
 10
17.7095
 20
-37.8608
 30
0.000000
  70
    32
  0
VERTEX
  8
SAPA_FOGBAND
  5
27F6
 10
17.8431
 20
-37.8156
 30
0.000000
  70
    32
  0
VERTEX
  8
SAPA_FOGBAND
  5
27F7
 10
17.9795
 20
-37.7755
 30
0.000000
  70
    32
  0
VERTEX
  8
SAPA_FOGBAND
  5
27F8
 10
18.1182
 20
-37.7409
 30
0.000000
  70
    32
  0
VERTEX
  8
SAPA_FOGBAND
  5
27F9
 10
18.2589
 20
-37.7116
 30
0.000000
  70
    32
  0
VERTEX
  8
SAPA_FOGBAND
  5
27FA
 10
18.4013
 20
-37.6878
 30
0.000000
  70
    32
  0
VERTEX
  8
SAPA_FOGBAND
  5
27FB
 10
18.5451
 20
-37.6696
 30
0.000000
  70
    32
  0
VERTEX
  8
SAPA_FOGBAND
  5
27FC
 10
18.6898
 20
-37.6570
 30
0.000000
  70
    32
  0
VERTEX
  8
SAPA_FOGBAND
  5
27FD
 10
18.8352
 20
-37.6500
 30
0.000000
  70
    32
  0
VERTEX
  8
SAPA_FOGBAND
  5
27FE
 10
18.9809
 20
-37.6486
 30
0.000000
  70
    32
  0
VERTEX
  8
SAPA_FOGBAND
  5
27FF
 10
19.1265
 20
-37.6529
 30
0.000000
  70
    32
  0
VERTEX
  8
SAPA_FOGBAND
  5
2800
 10
19.2717
 20
-37.6628
 30
0.000000
  70
    32
  0
VERTEX
  8
SAPA_FOGBAND
  5
2801
 10
19.4162
 20
-37.6783
 30
0.000000
  70
    32
  0
VERTEX
  8
SAPA_FOGBAND
  5
2802
 10
19.5595
 20
-37.6994
 30
0.000000
  70
    32
  0
VERTEX
  8
SAPA_FOGBAND
  5
2803
 10
19.7014
 20
-37.7260
 30
0.000000
  70
    32
  0
VERTEX
  8
SAPA_FOGBAND
  5
2804
 10
19.8416
 20
-37.7580
 30
0.000000
  70
    32
  0
VERTEX
  8
SAPA_FOGBAND
  5
2805
 10
19.9795
 20
-37.7955
 30
0.000000
  70
    32
  0
VERTEX
  8
SAPA_FOGBAND
  5
2806
 10
20.1151
 20
-37.8382
 30
0.000000
  70
    32
  0
VERTEX
  8
SAPA_FOGBAND
  5
2807
 10
20.2478
 20
-37.8861
 30
0.000000
  70
    32
  0
VERTEX
  8
SAPA_FOGBAND
  5
2808
 10
20.3774
 20
-37.9391
 30
0.000000
  70
    32
  0
VERTEX
  8
SAPA_FOGBAND
  5
2809
 10
20.5036
 20
-37.9970
 30
0.000000
  70
    32
  0
VERTEX
  8
SAPA_FOGBAND
  5
280A
 10
20.6261
 20
-38.0597
 30
0.000000
  70
    32
  0
VERTEX
  8
SAPA_FOGBAND
  5
280B
 10
20.7446
 20
-38.1271
 30
0.000000
  70
    32
  0
VERTEX
  8
SAPA_FOGBAND
  5
280C
 10
20.8587
 20
-38.1989
 30
0.000000
  70
    32
  0
VERTEX
  8
SAPA_FOGBAND
  5
280D
 10
20.9683
 20
-38.2751
 30
0.000000
  70
    32
  0
VERTEX
  8
SAPA_FOGBAND
  5
280E
 10
21.0730
 20
-38.3554
 30
0.000000
  70
    32
  0
VERTEX
  8
SAPA_FOGBAND
  5
280F
 10
21.1727
 20
-38.4397
 30
0.000000
  70
    32
  0
VERTEX
  8
SAPA_FOGBAND
  5
2810
 10
21.2670
 20
-38.5277
 30
0.000000
  70
    32
  0
VERTEX
  8
SAPA_FOGBAND
  5
2811
 10
21.3557
 20
-38.6192
 30
0.000000
  70
    32
  0
VERTEX
  8
SAPA_FOGBAND
  5
2812
 10
21.4387
 20
-38.7140
 30
0.000000
  70
    32
  0
VERTEX
  8
SAPA_FOGBAND
  5
2813
 10
21.5157
 20
-38.8119
 30
0.000000
  70
    32
  0
VERTEX
  8
SAPA_FOGBAND
  5
2814
 10
21.5865
 20
-38.9126
 30
0.000000
  70
    32
  0
VERTEX
  8
SAPA_FOGBAND
  5
2815
 10
21.6510
 20
-39.0160
 30
0.000000
  70
    32
  0
VERTEX
  8
SAPA_FOGBAND
  5
2816
 10
21.7090
 20
-39.1216
 30
0.000000
  70
    32
  0
VERTEX
  8
SAPA_FOGBAND
  5
2817
 10
21.7603
 20
-39.2294
 30
0.000000
  70
    32
  0
VERTEX
  8
SAPA_FOGBAND
  5
2818
 10
21.8049
 20
-39.3390
 30
0.000000
  70
    32
  0
VERTEX
  8
SAPA_FOGBAND
  5
2819
 10
21.8427
 20
-39.4502
 30
0.000000
  70
    32
  0
VERTEX
  8
SAPA_FOGBAND
  5
281A
 10
21.8735
 20
-39.5627
 30
0.000000
  70
    32
  0
VERTEX
  8
SAPA_FOGBAND
  5
281B
 10
21.8973
 20
-39.6762
 30
0.000000
  70
    32
  0
VERTEX
  8
SAPA_FOGBAND
  5
281C
 10
21.9140
 20
-39.7904
 30
0.000000
  70
    32
  0
VERTEX
  8
SAPA_FOGBAND
  5
281D
 10
21.9236
 20
-39.9052
 30
0.000000
  70
    32
  0
VERTEX
  8
SAPA_FOGBAND
  5
281E
 10
21.9260
 20
-40.0201
 30
0.000000
  70
    32
  0
SEQEND
  8
SAPA_FOGBAND
  5
281F
  0
POLYLINE
  5
1728
  8
SAPA_FOGBAND
 62
     2
 66
     1
 10
0.0
 20
0.0
 30
0.0000000195376815
 70
     1
  0
VERTEX
  5
2626
  8
SAPA_FOGBAND
 62
     2
 10
94.415820339269317
 20
10.873016923030811
 30
0.0000000195376815
  0
VERTEX
  5
2627
  8
SAPA_FOGBAND
 62
     2
 10
94.515820339269325
 20
10.873016923030811
 30
0.0000000195376815
 42
-0.4142135623730959
  0
VERTEX
  5
2628
  8
SAPA_FOGBAND
 62
     2
 10
95.215820339269314
 20
10.17301692303082
 30
0.0000000195376815
  0
VERTEX
  5
2629
  8
SAPA_FOGBAND
 62
     2
 10
95.215820339269342
 20
9.0730169230308242
 30
0.0000000195376815
 42
-0.4142135623730961
  0
VERTEX
  5
262A
  8
SAPA_FOGBAND
 62
     2
 10
95.015820339269325
 20
8.8730169230308071
 30
0.0000000195376815
  0
VERTEX
  5
262B
  8
SAPA_FOGBAND
 62
     2
 10
93.915820339269331
 20
8.8730169230308071
 30
0.0000000195376815
 42
-0.4142135623730956
  0
VERTEX
  5
262C
  8
SAPA_FOGBAND
 62
     2
 10
93.715820339269314
 20
9.0730169230308242
 30
0.0000000195376815
  0
VERTEX
  5
262D
  8
SAPA_FOGBAND
 62
     2
 10
93.715820339269342
 20
10.17301692303082
 30
0.0000000195376815
 42
-0.4142135623730946
  0
SEQEND
  5
262E
  8
SAPA_FOGBAND
 62
     2
  0
POLYLINE
  5
1729
  8
SAPA_FOGBAND
 62
     2
 66
     1
 10
0.0
 20
0.0
 30
0.0000000195376815
 70
     1
  0
VERTEX
  5
262F
  8
SAPA_FOGBAND
 62
     2
 10
92.915820339269345
 20
9.5730169230308242
 30
0.0000000195376815
  0
VERTEX
  5
2630
  8
SAPA_FOGBAND
 62
     2
 10
92.915820339269345
 20
8.9252513577577357
 30
0.0000000195376815
 42
-0.4416942457848321
  0
VERTEX
  5
2631
  8
SAPA_FOGBAND
 62
     2
 10
92.697265979641415
 20
8.7261138782647887
 30
0.0000000195376815
  0
VERTEX
  5
2632
  8
SAPA_FOGBAND
 62
     2
 10
91.734374698897255
 20
8.815829943522834
 30
0.0000000195376815
 42
0.441694245784789
  0
VERTEX
  5
2633
  8
SAPA_FOGBAND
 62
     2
 10
91.515820339269325
 20
8.6166924640299154
 30
0.0000000195376815
  0
VERTEX
  5
2634
  8
SAPA_FOGBAND
 62
     2
 10
91.515820339269325
 20
8.0667101244383481
 30
0.0000000195376815
 42
0.5445962197109614
  0
VERTEX
  5
2635
  8
SAPA_FOGBAND
 62
     2
 10
92.221499384674402
 20
7.6109732153765091
 30
0.0000000195376815
  0
VERTEX
  5
2636
  8
SAPA_FOGBAND
 62
     2
 10
92.580550537959667
 20
7.7730169230308137
 30
0.0000000195376815
  0
VERTEX
  5
2637
  8
SAPA_FOGBAND
 62
     2
 10
94.053509776707557
 20
7.7730169230308173
 30
0.0000000195376815
 42
0.3364379234965429
  0
VERTEX
  5
2638
  8
SAPA_FOGBAND
 62
     2
 10
95.125253506322409
 20
7.9605237408725653
 30
0.0000000195376815
  0
VERTEX
  5
2639
  8
SAPA_FOGBAND
 62
     2
 10
95.687117142146107
 20
7.9605237408725653
 30
0.0000000195376815
 42
-0.1919812372740509
  0
VERTEX
  5
263A
  8
SAPA_FOGBAND
 62
     2
 10
96.031104189746145
 20
7.8233913628552951
 30
0.0000000195376815
  0
VERTEX
  5
263B
  8
SAPA_FOGBAND
 62
     2
 10
96.422971120149555
 20
7.4519138865652126
 30
0.0000000195376815
 42
-0.7523758382293955
  0
VERTEX
  5
263C
  8
SAPA_FOGBAND
 62
     2
 10
92.182541309047053
 20
6.463342713137104
 30
0.0000000195376815
 42
-0.020738253891463
  0
VERTEX
  5
263D
  8
SAPA_FOGBAND
 62
     2
 10
91.936822091096602
 20
6.966573842207711
 30
0.0000000195376815
 42
0.910188045100355
  0
VERTEX
  5
263E
  8
SAPA_FOGBAND
 62
     2
 10
91.479522524415231
 20
6.614826995193992
 30
0.0000000195376815
 42
0.8808478876171385
  0
VERTEX
  5
263F
  8
SAPA_FOGBAND
 62
     2
 10
96.988788819429075
 20
7.9162194014080898
 30
0.0000000195376815
  0
VERTEX
  5
2640
  8
SAPA_FOGBAND
 62
     2
 10
97.419347957310336
 20
8.0315873746972173
 30
0.0000000195376815
 42
0.9163311740173993
  0
VERTEX
  5
2641
  8
SAPA_FOGBAND
 62
     2
 10
97.280958042170255
 20
8.8164355844495557
 30
0.0000000195376815
  0
VERTEX
  5
2642
  8
SAPA_FOGBAND
 62
     2
 10
96.233251487818876
 20
8.7247731382420053
 30
0.0000000195376815
 42
-0.4400105308918154
  0
VERTEX
  5
2643
  8
SAPA_FOGBAND
 62
     2
 10
96.015820339269325
 20
8.9240120778603451
 30
0.0000000195376815
  0
VERTEX
  5
2644
  8
SAPA_FOGBAND
 62
     2
 10
96.015820339269325
 20
9.7730169230308146
 30
0.0000000195376815
  0
VERTEX
  5
2645
  8
SAPA_FOGBAND
 62
     2
 10
96.415820339269331
 20
9.7730169230308146
 30
0.0000000195376815
 42
0.5693809839207589
  0
VERTEX
  5
2646
  8
SAPA_FOGBAND
 62
     2
 10
96.591374384832903
 20
10.06883329473348
 30
0.0000000195376815
  0
VERTEX
  5
2647
  8
SAPA_FOGBAND
 62
     2
 10
95.886408784933835
 20
11.36046603813876
 30
0.0000000195376815
 42
0.2743878130875473
  0
VERTEX
  5
2648
  8
SAPA_FOGBAND
 62
     2
 10
95.359746648243103
 20
11.673016923030829
 30
0.0000000195376815
  0
VERTEX
  5
2649
  8
SAPA_FOGBAND
 62
     2
 10
93.571894030295553
 20
11.67301692303082
 30
0.0000000195376815
 42
0.2743878130875473
  0
VERTEX
  5
264A
  8
SAPA_FOGBAND
 62
     2
 10
93.045231893604836
 20
11.36046603813875
 30
0.0000000195376815
  0
VERTEX
  5
264B
  8
SAPA_FOGBAND
 62
     2
 10
92.340266293705724
 20
10.068833294733491
 30
0.0000000195376815
 42
0.5693809839208268
  0
VERTEX
  5
264C
  8
SAPA_FOGBAND
 62
     2
 10
92.515820339269325
 20
9.7730169230307826
 30
0.0000000195376815
  0
VERTEX
  5
264D
  8
SAPA_FOGBAND
 62
     2
 10
92.915820339269345
 20
9.7730169230308146
 30
0.0000000195376815
  0
VERTEX
  5
264E
  8
SAPA_FOGBAND
 62
     2
 10
92.915820339269345
 20
8.9240120778603451
 30
0.0000000195376815
  0
SEQEND
  5
264F
  8
SAPA_FOGBAND
 62
     2
  0
POLYLINE
  5
172A
  8
SAPA_FOGBAND
 66
     1
 10
0.0
 20
0.0
 30
0.0
 70
     1
  0
VERTEX
  5
2650
  8
SAPA_FOGBAND
 10
-19.573675668776779
 20
-33.499999999998863
 30
0.0
  0
VERTEX
  5
2651
  8
SAPA_FOGBAND
 10
-19.573675668776779
 20
-35.29999999999859
 30
0.0
 42
-0.4142135623730951
  0
VERTEX
  5
2652
  8
SAPA_FOGBAND
 10
-19.773675668776601
 20
-35.499999999998408
 30
0.0
  0
VERTEX
  5
2653
  8
SAPA_FOGBAND
 10
-20.673675668776241
 20
-35.499999999998408
 30
0.0
 42
-0.4142135623730951
  0
VERTEX
  5
2654
  8
SAPA_FOGBAND
 10
-20.873675668776059
 20
-35.29999999999859
 30
0.0
  0
VERTEX
  5
2655
  8
SAPA_FOGBAND
 10
-20.87367566877651
 20
-33.499999999998863
 30
0.0
 42
-0.9999999999999998
  0
SEQEND
  5
2656
  8
SAPA_FOGBAND
  0
CIRCLE
  5
172B
  8
SAPA_FOGBAND
 10
-20.223675668776419
 20
-36.79999999999859
 30
0.0
 40
0.2549509756796394
  0
POLYLINE
  5
172C
  8
SAPA_FOGBAND
 66
     1
 10
0.0
 20
0.0
 30
0.0
 70
     1
  0
VERTEX
  5
2657
  8
SAPA_FOGBAND
 10
-16.270085830290778
 20
-35.499999999998408
 30
0.0
 42
0.267949192431121
  0
VERTEX
  5
2658
  8
SAPA_FOGBAND
 10
-16.09688074953306
 20
-35.399999999998961
 30
0.0
 42
-0.7673269879789569
  0
VERTEX
  5
2659
  8
SAPA_FOGBAND
 10
-15.72367566877687
 20
-35.499999999998408
 30
0.0
  0
VERTEX
  5
265A
  8
SAPA_FOGBAND
 10
-15.72367566877687
 20
-44.699999999999129
 30
0.0
 42
-0.4602937089574736
  0
VERTEX
  5
265B
  8
SAPA_FOGBAND
 10
-15.954497976116951
 20
-44.897610691435823
 30
0.0
  0
VERTEX
  5
265C
  8
SAPA_FOGBAND
 10
-18.428386189851381
 20
-44.51174623088923
 30
0.0
 42
0.6910703998708235
  0
VERTEX
  5
265D
  8
SAPA_FOGBAND
 10
-18.613035907186479
 20
-44.83717369718147
 30
0.0
  0
VERTEX
  5
265E
  8
SAPA_FOGBAND
 10
-15.836297738753499
 20
-45.008963529986652
 30
0.0
 42
-0.928378177954751
  0
VERTEX
  5
265F
  8
SAPA_FOGBAND
 10
-16.26687478628741
 20
-45.424442128142118
 30
0.0
  0
VERTEX
  5
2660
  8
SAPA_FOGBAND
 10
-19.476099419057618
 20
-45.228542559024163
 30
0.0
 42
0.6076316918600427
  0
VERTEX
  5
2661
  8
SAPA_FOGBAND
 10
-19.725013792520478
 20
-45.32309672969108
 30
0.0
 42
-0.38070580105552
  0
VERTEX
  5
2662
  8
SAPA_FOGBAND
 10
-19.923675668776241
 20
-45.499999999998401
 30
0.0
  0
VERTEX
  5
2663
  8
SAPA_FOGBAND
 10
-20.223675668776419
 20
-45.499999999998401
 30
0.0
  0
VERTEX
  5
2664
  8
SAPA_FOGBAND
 10
-20.523675668776612
 20
-45.499999999998401
 30
0.0
 42
-0.3807058010555201
  0
VERTEX
  5
2665
  8
SAPA_FOGBAND
 10
-20.72233754503236
 20
-45.32309672969108
 30
0.0
 42
0.6076316918600374
  0
VERTEX
  5
2666
  8
SAPA_FOGBAND
 10
-20.971251918495231
 20
-45.228542559024163
 30
0.0
  0
VERTEX
  5
2667
  8
SAPA_FOGBAND
 10
-24.205028688483029
 20
-45.421865476482928
 30
0.0
 42
-0.9283781779547513
  0
VERTEX
  5
2668
  8
SAPA_FOGBAND
 10
-24.6356057360174
 20
-45.006386878327469
 30
0.0
  0
VERTEX
  5
2669
  8
SAPA_FOGBAND
 10
-21.834315430366811
 20
-44.83717369718147
 30
0.0
 42
0.6910703998708235
  0
VERTEX
  5
266A
  8
SAPA_FOGBAND
 10
-22.018965147702382
 20
-44.511746230890139
 30
0.0
  0
VERTEX
  5
266B
  8
SAPA_FOGBAND
 10
-24.49285336143635
 20
-44.897610691435823
 30
0.0
 42
-0.4602937089574736
  0
VERTEX
  5
266C
  8
SAPA_FOGBAND
 10
-24.723675668776419
 20
-44.699999999999129
 30
0.0
  0
VERTEX
  5
266D
  8
SAPA_FOGBAND
 10
-24.723675668776419
 20
-35.499999999998408
 30
0.0
 42
-0.7673269879789572
  0
VERTEX
  5
266E
  8
SAPA_FOGBAND
 10
-24.350470588019789
 20
-35.399999999998961
 30
0.0
 42
0.267949192431121
  0
VERTEX
  5
266F
  8
SAPA_FOGBAND
 10
-24.17726550726297
 20
-35.499999999998408
 30
0.0
  0
VERTEX
  5
2670
  8
SAPA_FOGBAND
 10
-21.673675668776241
 20
-35.499999999998408
 30
0.0
  0
VERTEX
  5
2671
  8
SAPA_FOGBAND
 10
-21.673675668776241
 20
-34.399999999998961
 30
0.0
  0
VERTEX
  5
2672
  8
SAPA_FOGBAND
 10
-22.181730915002621
 20
-34.291388579558088
 30
0.0
 42
-0.4364998583843341
  0
VERTEX
  5
2673
  8
SAPA_FOGBAND
 10
-22.310141004872779
 20
-34.027676570637823
 30
0.0
  0
VERTEX
  5
2674
  8
SAPA_FOGBAND
 10
-21.77128221139105
 20
-32.638382853194571
 30
0.0
 42
-0.3095538907669666
  0
VERTEX
  5
2675
  8
SAPA_FOGBAND
 10
-20.83895553090974
 20
-31.999999999998408
 30
0.0
  0
VERTEX
  5
2676
  8
SAPA_FOGBAND
 10
-19.608395806643099
 20
-31.99999999999886
 30
0.0
 42
-0.3095538907669666
  0
VERTEX
  5
2677
  8
SAPA_FOGBAND
 10
-18.676069126161789
 20
-32.638382853194571
 30
0.0
  0
VERTEX
  5
2678
  8
SAPA_FOGBAND
 10
-18.137210332680521
 20
-34.027676570638278
 30
0.0
 42
-0.4364998583843338
  0
VERTEX
  5
2679
  8
SAPA_FOGBAND
 10
-18.265620422550679
 20
-34.291388579558088
 30
0.0
  0
VERTEX
  5
267A
  8
SAPA_FOGBAND
 10
-18.77367566877637
 20
-34.399999999998961
 30
0.0
  0
VERTEX
  5
267B
  8
SAPA_FOGBAND
 10
-18.77367566877637
 20
-35.499999999998408
 30
0.0
  0
SEQEND
  5
267C
  8
SAPA_FOGBAND
  0
POLYLINE
  5
172D
  8
SAPA_FOGBAND
 66
     1
 10
0.0
 20
0.0
 30
0.0
 70
     1
  0
VERTEX
  5
267D
  8
SAPA_FOGBAND
 10
-18.723675668776419
 20
-37.999999999998408
 30
0.0
 42
-0.3533664767746626
  0
VERTEX
  5
267E
  8
SAPA_FOGBAND
 10
-18.23488157348697
 20
-38.394736842103839
 30
0.0
 42
-0.162847186097109
  0
VERTEX
  5
267F
  8
SAPA_FOGBAND
 10
-18.286918832692429
 20
-41.833847743324661
 30
0.0
 42
-0.2572150309758587
  0
VERTEX
  5
2680
  8
SAPA_FOGBAND
 10
-18.611937220160371
 20
-42.190466027633867
 30
0.0
 42
-0.1655934221057593
  0
VERTEX
  5
2681
  8
SAPA_FOGBAND
 10
-21.835414117393391
 20
-42.190466027633867
 30
0.0
 42
-0.2572150309758567
  0
VERTEX
  5
2682
  8
SAPA_FOGBAND
 10
-22.160432504860861
 20
-41.833847743324661
 30
0.0
 42
-0.1628471860971115
  0
VERTEX
  5
2683
  8
SAPA_FOGBAND
 10
-22.212469764066331
 20
-38.394736842103839
 30
0.0
 42
-0.3533664767746627
  0
VERTEX
  5
2684
  8
SAPA_FOGBAND
 10
-21.723675668776419
 20
-37.999999999998408
 30
0.0
  0
SEQEND
  5
2685
  8
SAPA_FOGBAND
  0
LINE
  5
172E
  8
SAPA_FOGBAND
 10
17.599999999999682
 20
-73.499999999999091
 30
0.0
 11
17.599999999999682
 21
-72.499999999999091
 31
0.0
  0
CIRCLE
  5
172F
  8
SAPA_FOGBAND
 10
7.9999999999995453
 20
-75.057534635653823
 30
0.0
 40
0.25
  0
LINE
  5
1730
  8
SAPA_FOGBAND
 10
15.09999999999968
 20
-72.499999999999091
 30
0.0
 11
15.09999999999968
 21
-73.499999999999091
 31
0.0
  0
LINE
  5
1731
  8
SAPA_FOGBAND
 10
10.09999999999968
 20
-72.499999999999091
 30
0.0
 11
10.09999999999968
 21
-73.499999999999091
 31
0.0
  0
LINE
  5
1732
  8
SAPA_FOGBAND
 10
10.09999999999968
 20
-72.999999999999091
 30
0.0
 11
15.09999999999968
 21
-72.999999999999091
 31
0.0
  0
LINE
  5
1733
  8
SAPA_FOGBAND
 10
2.5999999999996808
 20
-72.499999999999091
 30
0.0
 11
2.5999999999996808
 21
-73.499999999999091
 31
0.0
  0
POLYLINE
  5
1734
  8
SAPA_FOGBAND
 66
     1
 10
0.0
 20
0.0
 30
0.0
 70
     1
  0
VERTEX
  5
2686
  8
SAPA_FOGBAND
 10
8.1500000000005457
 20
-76.55753463565361
 30
0.0
  0
VERTEX
  5
2687
  8
SAPA_FOGBAND
 10
8.1500000000000892
 20
-78.357534635654247
 30
0.0
 42
-0.9999999999999996
  0
VERTEX
  5
2688
  8
SAPA_FOGBAND
 10
6.8500000000005912
 20
-78.357534635654247
 30
0.0
  0
VERTEX
  5
2689
  8
SAPA_FOGBAND
 10
6.8500000000005912
 20
-76.55753463565361
 30
0.0
 42
-0.4142135623730951
  0
VERTEX
  5
268A
  8
SAPA_FOGBAND
 10
7.0500000000004093
 20
-76.357534635653792
 30
0.0
  0
VERTEX
  5
268B
  8
SAPA_FOGBAND
 10
7.9499999999995898
 20
-76.357534635653792
 30
0.0
 42
-0.4142135623730951
  0
SEQEND
  5
268C
  8
SAPA_FOGBAND
  0
CIRCLE
  5
1735
  8
SAPA_FOGBAND
 10
-7.9999999999995453
 20
-75.057534635653823
 30
0.0
 40
0.25
  0
POLYLINE
  5
1736
  8
SAPA_FOGBAND
 66
     1
 10
0.0
 20
0.0
 30
0.0
  0
VERTEX
  5
268D
  8
SAPA_FOGBAND
 10
-7.0500000000004093
 20
-76.357534635653792
 30
0.0
  0
VERTEX
  5
268E
  8
SAPA_FOGBAND
 10
-7.9499999999995898
 20
-76.357534635653565
 30
0.0
 42
0.4142135623730951
  0
VERTEX
  5
268F
  8
SAPA_FOGBAND
 10
-8.1500000000005457
 20
-76.55753463565361
 30
0.0
  0
VERTEX
  5
2690
  8
SAPA_FOGBAND
 10
-8.1500000000000892
 20
-78.357534635654247
 30
0.0
 42
0.9999999999999998
  0
VERTEX
  5
2691
  8
SAPA_FOGBAND
 10
-6.8499999999999091
 20
-78.357534635654247
 30
0.0
  0
VERTEX
  5
2692
  8
SAPA_FOGBAND
 10
-6.8500000000005912
 20
-76.55753463565361
 30
0.0
 42
0.4142135623730951
  0
VERTEX
  5
2693
  8
SAPA_FOGBAND
 10
-7.0500000000004093
 20
-76.357534635653792
 30
0.0
  0
VERTEX
  5
2694
  8
SAPA_FOGBAND
 10
-7.7999999999997272
 20
-76.357534635653792
 30
0.0
  0
SEQEND
  5
2695
  8
SAPA_FOGBAND
  0
LINE
  5
1737
  8
SAPA_FOGBAND
 10
-9.9000000000003183
 20
-72.499999999999091
 30
0.0
 11
-9.9000000000003183
 21
-73.499999999999091
 31
0.0
  0
LINE
  5
1738
  8
SAPA_FOGBAND
 10
-2.4000000000003179
 20
-72.499999999999091
 30
0.0
 11
-2.4000000000003179
 21
-73.499999999999091
 31
0.0
  0
LINE
  5
1739
  8
SAPA_FOGBAND
 10
-14.90000000000032
 20
-72.499999999999091
 30
0.0
 11
-14.90000000000032
 21
-73.499999999999091
 31
0.0
  0
LINE
  5
173A
  8
SAPA_FOGBAND
 10
-17.400000000000318
 20
-72.499999999999091
 30
0.0
 11
-17.400000000000318
 21
-73.499999999999091
 31
0.0
  0
LINE
  5
173B
  8
SAPA_FOGBAND
 10
-14.90000000000032
 20
-72.999999999999091
 30
0.0
 11
-9.9000000000003183
 21
-72.999999999999091
 31
0.0
  0
LINE
  5
173C
  8
SAPA_FOGBAND
 10
17.599999999999682
 20
-72.499999999999091
 30
0.0
 11
-17.400000000000318
 21
-72.499999999999091
 31
0.0
  0
LINE
  5
173D
  8
SAPA_FOGBAND
 10
-17.400000000000318
 20
-73.499999999999091
 30
0.0
 11
17.599999999999682
 21
-73.499999999999091
 31
0.0
  0
POLYLINE
  5
173E
  8
SAPA_FOGBAND
 66
     1
 10
0.0
 20
0.0
 30
0.0
 70
     1
  0
VERTEX
  5
2696
  8
SAPA_FOGBAND
 10
21.651788769293489
 20
-72.534485185379026
 30
0.0
 42
-0.8497079118398895
  0
VERTEX
  5
2697
  8
SAPA_FOGBAND
 10
22.099999999999451
 20
-72.921427446889084
 30
0.0
  0
VERTEX
  5
2698
  8
SAPA_FOGBAND
 10
16.55852911070588
 20
-76.404540759853717
 30
0.0
 42
-0.2608822022991484
  0
VERTEX
  5
2699
  8
SAPA_FOGBAND
 10
16.388026238211069
 20
-76.499999999998863
 30
0.0
  0
VERTEX
  5
269A
  8
SAPA_FOGBAND
 10
9.1700000000003001
 20
-76.499999999998408
 30
0.0
 42
0.4142135623730951
  0
VERTEX
  5
269B
  8
SAPA_FOGBAND
 10
9.1499999999996362
 20
-76.51999999999839
 30
0.0
  0
VERTEX
  5
269C
  8
SAPA_FOGBAND
 10
9.1499999999996362
 20
-77.499999999999091
 30
0.0
  0
VERTEX
  5
269D
  8
SAPA_FOGBAND
 10
9.5080552462263768
 20
-77.608611420439729
 30
0.0
 42
-0.4364998583843544
  0
VERTEX
  5
269E
  8
SAPA_FOGBAND
 10
9.6364653360967623
 20
-77.872323429360449
 30
0.0
  0
VERTEX
  5
269F
  8
SAPA_FOGBAND
 10
9.0976065426150399
 20
-79.261617146803019
 30
0.0
 42
-0.3095538907669633
  0
VERTEX
  5
26A0
  8
SAPA_FOGBAND
 10
8.1652798621337297
 20
-79.899999999999181
 30
0.0
  0
VERTEX
  5
26A1
  8
SAPA_FOGBAND
 10
6.8347201378662703
 20
-79.899999999998954
 30
0.0
 42
-0.309553890766963
  0
VERTEX
  5
26A2
  8
SAPA_FOGBAND
 10
5.9023934573849601
 20
-79.261617146803701
 30
0.0
  0
VERTEX
  5
26A3
  8
SAPA_FOGBAND
 10
5.3635346639043737
 20
-77.872323429359767
 30
0.0
 42
-0.4364998583843053
  0
VERTEX
  5
26A4
  8
SAPA_FOGBAND
 10
5.4919447537747601
 20
-77.608611420439729
 30
0.0
  0
VERTEX
  5
26A5
  8
SAPA_FOGBAND
 10
5.8500000000003629
 20
-77.499999999999091
 30
0.0
  0
VERTEX
  5
26A6
  8
SAPA_FOGBAND
 10
5.8500000000003629
 20
-76.549999999998818
 30
0.0
 42
0.4142135623730953
  0
VERTEX
  5
26A7
  8
SAPA_FOGBAND
 10
5.8000000000004093
 20
-76.499999999998863
 30
0.0
  0
VERTEX
  5
26A8
  8
SAPA_FOGBAND
 10
-5.8000000000004093
 20
-76.499999999998863
 30
0.0
 42
0.4142135623730951
  0
VERTEX
  5
26A9
  8
SAPA_FOGBAND
 10
-5.8500000000003629
 20
-76.549999999998818
 30
0.0
  0
VERTEX
  5
26AA
  8
SAPA_FOGBAND
 10
-5.8500000000003629
 20
-77.499999999999091
 30
0.0
  0
VERTEX
  5
26AB
  8
SAPA_FOGBAND
 10
-5.4919447537747601
 20
-77.608611420439729
 30
0.0
 42
-0.4364998583843054
  0
VERTEX
  5
26AC
  8
SAPA_FOGBAND
 10
-5.3635346639043737
 20
-77.872323429360449
 30
0.0
  0
VERTEX
  5
26AD
  8
SAPA_FOGBAND
 10
-5.9023934573849601
 20
-79.261617146803019
 30
0.0
 42
-0.309553890766963
  0
VERTEX
  5
26AE
  8
SAPA_FOGBAND
 10
-6.8347201378662703
 20
-79.899999999999181
 30
0.0
  0
VERTEX
  5
26AF
  8
SAPA_FOGBAND
 10
-8.1652798621337297
 20
-79.899999999998954
 30
0.0
 42
-0.3095538907669633
  0
VERTEX
  5
26B0
  8
SAPA_FOGBAND
 10
-9.0976065426150399
 20
-79.261617146803701
 30
0.0
  0
VERTEX
  5
26B1
  8
SAPA_FOGBAND
 10
-9.6364653360967623
 20
-77.872323429359767
 30
0.0
 42
-0.4364998583843544
  0
VERTEX
  5
26B2
  8
SAPA_FOGBAND
 10
-9.5080552462263768
 20
-77.608611420439729
 30
0.0
  0
VERTEX
  5
26B3
  8
SAPA_FOGBAND
 10
-9.1499999999996362
 20
-77.499999999999091
 30
0.0
  0
VERTEX
  5
26B4
  8
SAPA_FOGBAND
 10
-9.1500000000003183
 20
-76.51999999999839
 30
0.0
 42
0.4142135623730951
  0
VERTEX
  5
26B5
  8
SAPA_FOGBAND
 10
-9.1700000000003001
 20
-76.499999999998863
 30
0.0
  0
VERTEX
  5
26B6
  8
SAPA_FOGBAND
 10
-16.388026238211069
 20
-76.499999999999091
 30
0.0
 42
-0.2608822022991486
  0
VERTEX
  5
26B7
  8
SAPA_FOGBAND
 10
-16.5585291107061
 20
-76.404540759853262
 30
0.0
  0
VERTEX
  5
26B8
  8
SAPA_FOGBAND
 10
-21.900000000000428
 20
-72.922817216677686
 30
0.0
 42
-0.8497079118398893
  0
VERTEX
  5
26B9
  8
SAPA_FOGBAND
 10
-21.451788769294129
 20
-72.535874955167628
 30
0.0
  0
VERTEX
  5
26BA
  8
SAPA_FOGBAND
 10
-15.2741001893371
 20
-74.012665285346657
 30
0.0
  0
VERTEX
  5
26BB
  8
SAPA_FOGBAND
 10
-12.77909822842957
 20
-73.999999999998863
 30
0.0
  0
VERTEX
  5
26BC
  8
SAPA_FOGBAND
 10
-13.070897343000521
 20
-73.848341139643026
 30
0.0
 42
-0.767326987978962
  0
VERTEX
  5
26BD
  8
SAPA_FOGBAND
 10
-12.596121451851779
 20
-73.515967214875204
 30
0.0
  0
VERTEX
  5
26BE
  8
SAPA_FOGBAND
 10
-11.00000000000022
 20
-73.999999999998863
 30
0.0
  0
VERTEX
  5
26BF
  8
SAPA_FOGBAND
 10
-8.6000000000001364
 20
-73.999999999998863
 30
0.0
  0
VERTEX
  5
26C0
  8
SAPA_FOGBAND
 10
-7.0038785481478953
 20
-73.515967214875673
 30
0.0
 42
-0.7673269879789616
  0
VERTEX
  5
26C1
  8
SAPA_FOGBAND
 10
-6.5291026569991573
 20
-73.848341139642798
 30
0.0
  0
VERTEX
  5
26C2
  8
SAPA_FOGBAND
 10
-6.8209017715707878
 20
-73.999999999998863
 30
0.0
  0
VERTEX
  5
26C3
  8
SAPA_FOGBAND
 10
-3.3286724168056021
 20
-73.999999999998863
 30
0.0
 42
0.2679491924311367
  0
VERTEX
  5
26C4
  8
SAPA_FOGBAND
 10
-3.1554673360487859
 20
-73.899999999999181
 30
0.0
  0
VERTEX
  5
26C5
  8
SAPA_FOGBAND
 10
-2.414891558349836
 20
-72.617285126167644
 30
0.0
 42
-0.5773502691896298
  0
VERTEX
  5
26C6
  8
SAPA_FOGBAND
 10
-2.068481396835522
 20
-72.617285126168554
 30
0.0
  0
VERTEX
  5
26C7
  8
SAPA_FOGBAND
 10
-0.1732050807561336
 20
-75.899999999999409
 30
0.0
  0
VERTEX
  5
26C8
  8
SAPA_FOGBAND
 10
-0.0866025403786353
 20
-76.049999999999272
 30
0.0
 42
0.5773502691896253
  0
VERTEX
  5
26C9
  8
SAPA_FOGBAND
 10
0.0866025403784079
 20
-76.049999999999272
 30
0.0
  0
VERTEX
  5
26CA
  8
SAPA_FOGBAND
 10
0.1732050807572705
 20
-75.899999999999409
 30
0.0
  0
VERTEX
  5
26CB
  8
SAPA_FOGBAND
 10
2.0684813968352951
 20
-72.617285126167644
 30
0.0
 42
-0.5773502691896298
  0
VERTEX
  5
26CC
  8
SAPA_FOGBAND
 10
2.4148915583496091
 20
-72.617285126168554
 30
0.0
  0
VERTEX
  5
26CD
  8
SAPA_FOGBAND
 10
3.1554673360494681
 20
-73.899999999998954
 30
0.0
 42
0.2679491924311367
  0
VERTEX
  5
26CE
  8
SAPA_FOGBAND
 10
3.3286724168056021
 20
-73.999999999999091
 30
0.0
  0
VERTEX
  5
26CF
  8
SAPA_FOGBAND
 10
6.8209017715707878
 20
-73.999999999998863
 30
0.0
  0
VERTEX
  5
26D0
  8
SAPA_FOGBAND
 10
6.5291026570002941
 20
-73.848341139642798
 30
0.0
 42
-0.7673269879789616
  0
VERTEX
  5
26D1
  8
SAPA_FOGBAND
 10
7.0038785481478953
 20
-73.515967214874991
 30
0.0
  0
VERTEX
  5
26D2
  8
SAPA_FOGBAND
 10
8.6000000000001364
 20
-73.999999999998863
 30
0.0
  0
VERTEX
  5
26D3
  8
SAPA_FOGBAND
 10
11.00000000000022
 20
-73.999999999998863
 30
0.0
  0
VERTEX
  5
26D4
  8
SAPA_FOGBAND
 10
12.59612145185247
 20
-73.515967214875204
 30
0.0
 42
-0.767326987978962
  0
VERTEX
  5
26D5
  8
SAPA_FOGBAND
 10
13.07089734300007
 20
-73.848341139642343
 30
0.0
  0
VERTEX
  5
26D6
  8
SAPA_FOGBAND
 10
12.77909822842957
 20
-73.999999999998863
 30
0.0
  0
VERTEX
  5
26D7
  8
SAPA_FOGBAND
 10
15.5754461958802
 20
-73.99178576835061
 30
0.0
  0
SEQEND
  5
26D8
  8
SAPA_FOGBAND
  0
LINE
  5
173F
  8
SAPA_FOGBAND
 10
-2.4000000000003179
 20
-72.999999999999091
 30
0.0
 11
2.5999999999996808
 21
-72.999999999999091
 31
0.0
  0
POLYLINE
  5
1740
  8
SAPA_FOGBAND
 66
     1
 10
0.0
 20
0.0
 30
0.0
 70
     1
  0
VERTEX
  5
26D9
  8
SAPA_FOGBAND
 10
28.500000000685759
 20
13.060773946886879
 30
0.0
  0
VERTEX
  5
26DA
  8
SAPA_FOGBAND
 10
28.500000000685759
 20
10.227454982467149
 30
0.0
 42
-0.577350269189628
  0
VERTEX
  5
26DB
  8
SAPA_FOGBAND
 10
28.050000000685721
 20
9.9676473613317
 30
0.0
  0
VERTEX
  5
26DC
  8
SAPA_FOGBAND
 10
25.393650503841741
 20
12.10936157181672
 30
0.0
 42
0.8769764629927237
  0
VERTEX
  5
26DD
  8
SAPA_FOGBAND
 10
25.031518469485832
 20
11.637421916325451
 30
0.0
  0
VERTEX
  5
26DE
  8
SAPA_FOGBAND
 10
28.207106781872199
 20
7.6676084073473874
 30
0.0
 42
-0.1989123673796493
  0
VERTEX
  5
26DF
  8
SAPA_FOGBAND
 10
28.500000000685759
 20
6.9605016261609469
 30
0.0
  0
VERTEX
  5
26E0
  8
SAPA_FOGBAND
 10
28.500000000685759
 20
5.2095454967264621
 30
0.0
 42
-0.577350269189628
  0
VERTEX
  5
26E1
  8
SAPA_FOGBAND
 10
28.050000000685721
 20
4.9497378755912393
 30
0.0
  0
VERTEX
  5
26E2
  8
SAPA_FOGBAND
 10
25.394519257022129
 20
7.030785927071264
 30
0.0
 42
0.8769764629928424
  0
VERTEX
  5
26E3
  8
SAPA_FOGBAND
 10
25.03238722266622
 20
6.558846271579994
 30
0.0
  0
VERTEX
  5
26E4
  8
SAPA_FOGBAND
 10
29.282961429186109
 20
2.092893219803698
 30
0.0
 42
0.1989123673796579
  0
VERTEX
  5
26E5
  8
SAPA_FOGBAND
 10
29.990068210372549
 20
1.8000000009903649
 30
0.0
  0
VERTEX
  5
26E6
  8
SAPA_FOGBAND
 10
30.000000000685759
 20
1.8000000009903649
 30
0.0
 42
0.4142135623730951
  0
VERTEX
  5
26E7
  8
SAPA_FOGBAND
 10
31.000000000685759
 20
2.8000000009903649
 30
0.0
  0
VERTEX
  5
26E8
  8
SAPA_FOGBAND
 10
32.164084599809257
 20
10.03499250175761
 30
0.0
 42
0.6261632875160376
  0
VERTEX
  5
26E9
  8
SAPA_FOGBAND
 10
31.722117796382921
 20
10.3448494302763
 30
0.0
  0
VERTEX
  5
26EA
  8
SAPA_FOGBAND
 10
31.445776150396799
 20
10.191211435487469
 30
0.0
 42
-0.5719685712689121
  0
VERTEX
  5
26EB
  8
SAPA_FOGBAND
 10
31.000000000685869
 20
10.45341233971086
 30
0.0
  0
VERTEX
  5
26EC
  8
SAPA_FOGBAND
 10
31.000000000685759
 20
13.200000000990229
 30
0.0
 42
-0.4142135623730118
  0
VERTEX
  5
26ED
  8
SAPA_FOGBAND
 10
31.300000000685721
 20
13.50000000099041
 30
0.0
  0
VERTEX
  5
26EE
  8
SAPA_FOGBAND
 10
32.700000000685812
 20
13.50000000099018
 30
0.0
 42
0.7754026414785753
  0
VERTEX
  5
26EF
  8
SAPA_FOGBAND
 10
32.844707868991691
 20
14.06279199639809
 30
0.0
  0
VERTEX
  5
26F0
  8
SAPA_FOGBAND
 10
25.384550969900719
 20
18.21642566906198
 30
0.0
 42
0.8680589103333867
  0
VERTEX
  5
26F1
  8
SAPA_FOGBAND
 10
25.027711067238791
 20
17.7415016392982
 30
0.0
  0
VERTEX
  5
26F2
  8
SAPA_FOGBAND
 10
28.207106781872199
 20
13.767880728073321
 30
0.0
 42
-0.1989123673796493
  0
SEQEND
  5
26F3
  8
SAPA_FOGBAND
  0
DIMENSION
  5
174C
  8
SAPA_MATT
  2
*D114
 10
169.99999999978931
 20
-106.8138500465783
 30
0.0
 11
125.49999999989519
 21
-104.3138500465783
 31
0.0
 70
     0
 13
81.000000000000995
 23
-69.349948021764106
 33
0.0
 14
169.99999999978931
 24
-71.699947648272314
 34
0.0
1001
ACAD
1000
DSTYLE
1002
{
1070
   287
1070
     4
1070
    40
1040
1.0
1070
   279
1070
     1
1002
}
  0
DIMENSION
  5
174D
  8
SAPA_MATT
  2
*D113
 10
81.000000000000995
 20
-106.8138500465783
 30
0.0
 11
78.500000000001108
 21
-104.3138500465783
 31
0.0
 70
     0
 13
76.000000000001194
 23
-64.499946820781531
 33
0.0
 14
81.000000000000995
 24
-69.349948021764106
 34
0.0
1001
ACAD
1000
DSTYLE
1002
{
1070
   287
1070
     4
1070
    40
1040
1.0
1070
   279
1070
     1
1002
}
  0
DIMENSION
  5
174E
  8
SAPA_MATT
  2
*D115
 10
76.000000000001194
 20
-106.8138500465783
 30
0.0
 11
46.000000000000682
 21
-104.3138500465783
 31
0.0
 70
     0
 13
16.000000000000171
 23
-77.04644660940528
 33
0.0
 14
76.000000000001194
 24
-64.499946820781531
 34
0.0
1001
ACAD
1000
DSTYLE
1002
{
1070
   287
1070
     4
1070
    40
1040
1.0
1070
   279
1070
     1
1002
}
  0
DIMENSION
  5
1751
  8
SAPA_MATT
  2
*D112
 10
25.0
 20
83.999999999999474
 30
0.0
 11
0.0000000000000002
 21
86.499999999999474
 31
0.0
 70
     0
 13
-25.0
 23
63.999999999999481
 33
0.0
 14
25.0
 24
63.999999999999481
 34
0.0
1001
ACAD
1000
DSTYLE
1002
{
1070
    40
1040
1.0
1002
}
  0
DIMENSION
  5
1752
  8
SAPA_MATT
  2
*D111
 10
16.00000000000016
 20
-106.8138500465783
 30
0.0
 11
0.0000000000000534
 21
-104.3138500465783
 31
0.0
 70
     0
 13
-16.00000000000006
 23
-77.292893218811628
 33
0.0
 14
16.000000000000171
 24
-77.04644660940528
 34
0.0
1001
ACAD
1000
DSTYLE
1002
{
1070
    40
1040
1.0
1002
}
  0
VIEWPORT
  5
C4
 67
     1
  8
0
 10
143.06236603067589
 20
116.00969601843509
 30
0.0
 40
369.98580003443811
 41
256.8421457311839
 68
     1
 69
     1
1001
ACAD
1000
MVIEW
1002
{
1070
    16
1010
0.0
1020
0.0
1030
0.0
1010
0.0
1020
0.0
1030
1.0
1040
0.0
1040
256.8421457311839
1040
99.112914085388169
1040
143.07606935501099
1040
50.0
1040
0.0
1040
0.0
1070
     0
1070
     0
1070
     1
1070
     1
1070
     0
1070
     0
1070
     0
1070
     0
1040
0.0
1040
0.0
1040
0.0
1040
10.0
1040
10.0
1040
10.0
1040
10.0
1070
     0
1002
{
1002
}
1002
}
  0
ENDSEC
  0
EOF
