  0
SECTION
  2
HEADER
  9
$ACADVER
  1
AC1009
  9
$INSBASE
 10
0.0
 20
0.0
 30
0.0
  9
$EXTMIN
 10
-95.240738706925796
 20
-93.291214305875314
 30
0.0
  9
$EXTMAX
 10
122.4493904826834
 20
85.000000373538171
 30
0.0
  9
$LIMMIN
 10
0.0
 20
0.0
  9
$LIMMAX
 10
790.0
 20
790.0
  9
$ORTHOMODE
 70
     1
  9
$REGENMODE
 70
     1
  9
$FILLMODE
 70
     1
  9
$QTEXTMODE
 70
     0
  9
$MIRRTEXT
 70
     1
  9
$DRAGMODE
 70
     2
  9
$LTSCALE
 40
4.0
  9
$OSMODE
 70
   167
  9
$ATTMODE
 70
     1
  9
$TEXTSIZE
 40
3.5
  9
$TRACEWID
 40
0.05
  9
$TEXTSTYLE
  7
ISO
  9
$CLAYER
  8
0
  9
$CELTYPE
  6
BYLAYER
  9
$CECOLOR
 62
   256
  9
$DIMSCALE
 40
0.0
  9
$DIMASZ
 40
3.0
  9
$DIMEXO
 40
1.5
  9
$DIMDLI
 40
10.0
  9
$DIMRND
 40
0.0
  9
$DIMDLE
 40
0.0
  9
$DIMEXE
 40
1.5
  9
$DIMTP
 40
0.0
  9
$DIMTM
 40
0.0
  9
$DIMTXT
 40
3.0
  9
$DIMCEN
 40
-5.0
  9
$DIMTSZ
 40
0.0
  9
$DIMTOL
 70
     0
  9
$DIMLIM
 70
     0
  9
$DIMTIH
 70
     0
  9
$DIMTOH
 70
     0
  9
$DIMSE1
 70
     0
  9
$DIMSE2
 70
     0
  9
$DIMTAD
 70
     1
  9
$DIMZIN
 70
     8
  9
$DIMBLK
  1

  9
$DIMASO
 70
     1
  9
$DIMSHO
 70
     1
  9
$DIMPOST
  1

  9
$DIMAPOST
  1

  9
$DIMALT
 70
     0
  9
$DIMALTD
 70
     0
  9
$DIMALTF
 40
25.399999999999999
  9
$DIMLFAC
 40
-1.0
  9
$DIMTOFL
 70
     1
  9
$DIMTVP
 40
0.0
  9
$DIMTIX
 70
     0
  9
$DIMSOXD
 70
     0
  9
$DIMSAH
 70
     0
  9
$DIMBLK1
  1

  9
$DIMBLK2
  1

  9
$DIMSTYLE
  2
MASKIN
  9
$DIMCLRD
 70
   256
  9
$DIMCLRE
 70
   256
  9
$DIMCLRT
 70
     2
  9
$DIMTFAC
 40
1.0
  9
$DIMGAP
 40
1.0
  9
$LUNITS
 70
     2
  9
$LUPREC
 70
     8
  9
$SKETCHINC
 40
0.1
  9
$FILLETRAD
 40
0.0
  9
$AUNITS
 70
     0
  9
$AUPREC
 70
     8
  9
$MENU
  1
ACAD
  9
$ELEVATION
 40
0.0
  9
$PELEVATION
 40
0.0
  9
$THICKNESS
 40
0.0
  9
$LIMCHECK
 70
     0
  9
$BLIPMODE
 70
     0
  9
$CHAMFERA
 40
0.0
  9
$CHAMFERB
 40
0.0
  9
$SKPOLY
 70
     0
  9
$TDCREATE
 40
2456297.4351949892
  9
$TDUPDATE
 40
2456660.4452878698
  9
$TDINDWG
 40
0.0375721296
  9
$TDUSRTIMER
 40
0.0375721296
  9
$USRTIMER
 70
     1
  9
$ANGBASE
 50
0.0
  9
$ANGDIR
 70
     0
  9
$PDMODE
 70
     0
  9
$PDSIZE
 40
0.0
  9
$PLINEWID
 40
0.0
  9
$COORDS
 70
     1
  9
$SPLFRAME
 70
     0
  9
$SPLINETYPE
 70
     6
  9
$SPLINESEGS
 70
     8
  9
$ATTDIA
 70
     0
  9
$ATTREQ
 70
     1
  9
$HANDLING
 70
     1
  9
$HANDSEED
  5
266D
  9
$SURFTAB1
 70
     6
  9
$SURFTAB2
 70
     6
  9
$SURFTYPE
 70
     6
  9
$SURFU
 70
     6
  9
$SURFV
 70
     6
  9
$UCSNAME
  2

  9
$UCSORG
 10
0.0
 20
0.0
 30
0.0
  9
$UCSXDIR
 10
1.0
 20
0.0
 30
0.0
  9
$UCSYDIR
 10
0.0
 20
1.0
 30
0.0
  9
$PUCSNAME
  2

  9
$PUCSORG
 10
0.0
 20
0.0
 30
0.0
  9
$PUCSXDIR
 10
1.0
 20
0.0
 30
0.0
  9
$PUCSYDIR
 10
0.0
 20
1.0
 30
0.0
  9
$USERI1
 70
     0
  9
$USERI2
 70
     0
  9
$USERI3
 70
     0
  9
$USERI4
 70
     0
  9
$USERI5
 70
     0
  9
$USERR1
 40
0.0
  9
$USERR2
 40
0.0
  9
$USERR3
 40
0.0
  9
$USERR4
 40
0.0
  9
$USERR5
 40
0.0
  9
$WORLDVIEW
 70
     1
  9
$SHADEDGE
 70
     3
  9
$SHADEDIF
 70
    70
  9
$TILEMODE
 70
     1
  9
$MAXACTVP
 70
    16
  9
$PLIMCHECK
 70
     0
  9
$PEXTMIN
 10
1.0000000000000000E+020
 20
1.0000000000000000E+020
 30
1.0000000000000000E+020
  9
$PEXTMAX
 10
-1.0000000000000000E+020
 20
-1.0000000000000000E+020
 30
-1.0000000000000000E+020
  9
$PLIMMIN
 10
-5.069427490234375
 20
-5.8737497329711914
  9
$PLIMMAX
 10
291.89889526367187
 20
204.0995779037475
  9
$UNITMODE
 70
     0
  9
$VISRETAIN
 70
     1
  9
$PLINEGEN
 70
     0
  9
$PSLTSCALE
 70
     1
  0
ENDSEC
  0
SECTION
  2
TABLES
  0
TABLE
  2
VPORT
 70
     1
  0
VPORT
  2
*ACTIVE
 70
     0
 10
0.0
 20
0.0
 11
1.0
 21
1.0
 12
30.266572240350602
 22
56.008184828446012
 13
0.0
 23
0.0
 14
1.0
 24
1.0
 15
0.0
 25
0.0
 16
0.0
 26
0.0
 36
1.0
 17
0.0
 27
0.0
 37
0.0
 40
234.81882582183519
 41
2.112307692307692
 42
50.0
 43
0.0
 44
0.0
 50
0.0
 51
0.0
 71
     0
 72
   100
 73
     1
 74
     1
 75
     0
 76
     0
 77
     0
 78
     0
  0
ENDTAB
  0
TABLE
  2
LTYPE
 70
    57
  0
LTYPE
  2
CONTINUOUS
 70
     0
  3
Solid line
 72
    65
 73
     0
 40
0.0
  0
LTYPE
  2
NEWDOT
 70
     0
  3
____ . ____ . ____ . ____ . ____ . ____ . ____
 72
    65
 73
     4
 40
2.0
 49
1.0
 49
-0.5
 49
0.0
 49
-0.5
  0
LTYPE
  2
BYGG-018516$0$NEWDOT
 70
     0
  3
____ . ____ . ____ . ____ . ____ . ____ . ____
 72
    65
 73
     4
 40
2.0
 49
1.0
 49
-0.5
 49
0.0
 49
-0.5
  0
LTYPE
  2
BYGG-018516$0$ZIGZAG
 70
     0
  3
Zig zag /\/\/\/\/\/\/\/\/\/\/\/\/\/\/\/\/\/\/\/\/\/\/\/
 72
    65
 73
     4
 40
20.32254
 49
0.00254
 49
-5.0800000000000001
 49
-10.16
 49
-5.0800000000000001
  0
LTYPE
  2
BYGG-018731$0$NEWDOT
 70
     0
  3
____ . ____ . ____ . ____ . ____ . ____ . ____
 72
    65
 73
     4
 40
2.0
 49
1.0
 49
-0.5
 49
0.0
 49
-0.5
  0
LTYPE
  2
BYGG-018731$0$DASHDOT
 70
     0
  3
__ . __ . __ . __ . __ . __ . __ . __ . __ . __
 72
    65
 73
     4
 40
1.0
 49
0.5
 49
-0.25
 49
0.0
 49
-0.25
  0
LTYPE
  2
BYGG-018731$0$DASHED
 70
     0
  3
__ __ __ __ __ __ __ __ __ __ __ __ __ __ __
 72
    65
 73
     2
 40
0.75
 49
0.5
 49
-0.25
  0
LTYPE
  2
BYGG-018731$0$PHANTOM
 70
     0
  3
Phantom ______  __  __  ______  __  __  ______
 72
    65
 73
     6
 40
63.5
 49
31.75
 49
-6.3499999999999988
 49
6.3499999999999988
 49
-6.3499999999999988
 49
6.3499999999999988
 49
-6.3499999999999988
  0
LTYPE
  2
BYGG-029261$0$NEWDOT
 70
     0
  3
____ . ____ . ____ . ____ . ____ . ____ . ____
 72
    65
 73
     4
 40
2.0
 49
1.0
 49
-0.5
 49
0.0
 49
-0.5
  0
LTYPE
  2
BYGG-029261$0$DASHDOT
 70
     0
  3
__ . __ . __ . __ . __ . __ . __ . __ . __ . __
 72
    65
 73
     4
 40
1.0
 49
0.5
 49
-0.25
 49
0.0
 49
-0.25
  0
LTYPE
  2
BYGG-029261$0$DASHED
 70
     0
  3
__ __ __ __ __ __ __ __ __ __ __ __ __ __ __
 72
    65
 73
     2
 40
0.75
 49
0.5
 49
-0.25
  0
LTYPE
  2
BYGG-029261$0$PHANTOM
 70
     0
  3
Phantom ______  __  __  ______  __  __  ______
 72
    65
 73
     6
 40
63.5
 49
31.75
 49
-6.3499999999999988
 49
6.3499999999999988
 49
-6.3499999999999988
 49
6.3499999999999988
 49
-6.3499999999999988
  0
LTYPE
  2
BYGG-019653$0$NEWDOT
 70
     0
  3
____ . ____ . ____ . ____ . ____ . ____ . ____
 72
    65
 73
     4
 40
2.0
 49
1.0
 49
-0.5
 49
0.0
 49
-0.5
  0
LTYPE
  2
BYGG-019653$0$DASHDOT
 70
     0
  3
__ . __ . __ . __ . __ . __ . __ . __ . __ . __
 72
    65
 73
     4
 40
1.0
 49
0.5
 49
-0.25
 49
0.0
 49
-0.25
  0
LTYPE
  2
BYGG-019653$0$DASHED
 70
     0
  3
__ __ __ __ __ __ __ __ __ __ __ __ __ __ __
 72
    65
 73
     2
 40
0.75
 49
0.5
 49
-0.25
  0
LTYPE
  2
BYGG-019653$0$PHANTOM
 70
     0
  3
Phantom ______  __  __  ______  __  __  ______
 72
    65
 73
     6
 40
63.5
 49
31.75
 49
-6.3499999999999988
 49
6.3499999999999988
 49
-6.3499999999999988
 49
6.3499999999999988
 49
-6.3499999999999988
  0
LTYPE
  2
BYGG-019652$0$NEWDOT
 70
     0
  3
____ . ____ . ____ . ____ . ____ . ____ . ____
 72
    65
 73
     4
 40
2.0
 49
1.0
 49
-0.5
 49
0.0
 49
-0.5
  0
LTYPE
  2
BYGG-019652$0$DASHDOT
 70
     0
  3
__ . __ . __ . __ . __ . __ . __ . __ . __ . __
 72
    65
 73
     4
 40
1.0
 49
0.5
 49
-0.25
 49
0.0
 49
-0.25
  0
LTYPE
  2
BYGG-019652$0$DASHED
 70
     0
  3
__ __ __ __ __ __ __ __ __ __ __ __ __ __ __
 72
    65
 73
     2
 40
0.75
 49
0.5
 49
-0.25
  0
LTYPE
  2
BYGG-019652$0$PHANTOM
 70
     0
  3
Phantom ______  __  __  ______  __  __  ______
 72
    65
 73
     6
 40
63.5
 49
31.75
 49
-6.3499999999999988
 49
6.3499999999999988
 49
-6.3499999999999988
 49
6.3499999999999988
 49
-6.3499999999999988
  0
LTYPE
  2
BYGG-024894$0$DASHDOT
 70
     0
  3
__ . __ . __ . __ . __ . __ . __ . __ . __ . __
 72
    65
 73
     4
 40
1.0
 49
0.5
 49
-0.25
 49
0.0
 49
-0.25
  0
LTYPE
  2
BYGG-019612$0$NEWDOT
 70
     0
  3
____ . ____ . ____ . ____ . ____ . ____ . ____
 72
    65
 73
     4
 40
2.0
 49
1.0
 49
-0.5
 49
0.0
 49
-0.5
  0
LTYPE
  2
BYGG-019612$0$DASHDOT
 70
     0
  3
__ . __ . __ . __ . __ . __ . __ . __ . __ . __
 72
    65
 73
     4
 40
1.0
 49
0.5
 49
-0.25
 49
0.0
 49
-0.25
  0
LTYPE
  2
BYGG-019612$0$DASHED
 70
     0
  3
__ __ __ __ __ __ __ __ __ __ __ __ __ __ __
 72
    65
 73
     2
 40
0.75
 49
0.5
 49
-0.25
  0
LTYPE
  2
BYGG-019612$0$PHANTOM
 70
     0
  3
Phantom ______  __  __  ______  __  __  ______
 72
    65
 73
     6
 40
63.5
 49
31.75
 49
-6.3499999999999988
 49
6.3499999999999988
 49
-6.3499999999999988
 49
6.3499999999999988
 49
-6.3499999999999988
  0
LTYPE
  2
BYGG-019612$0$ZIGZAG
 70
     0
  3
Zig zag /\/\/\/\/\/\/\/\/\/\/\/\/\/\/\/\/\/\/\/\/\/\/\/
 72
    65
 73
     4
 40
20.32254
 49
0.00254
 49
-5.0800000000000001
 49
-10.16
 49
-5.0800000000000001
  0
LTYPE
  2
BYGG-019716$0$NEWDOT
 70
     0
  3
____ . ____ . ____ . ____ . ____ . ____ . ____
 72
    65
 73
     4
 40
2.0
 49
1.0
 49
-0.5
 49
0.0
 49
-0.5
  0
LTYPE
  2
BYGG-019716$0$DASHDOT
 70
     0
  3
__ . __ . __ . __ . __ . __ . __ . __ . __ . __
 72
    65
 73
     4
 40
1.0
 49
0.5
 49
-0.25
 49
0.0
 49
-0.25
  0
LTYPE
  2
BYGG-019716$0$DASHED
 70
     0
  3
__ __ __ __ __ __ __ __ __ __ __ __ __ __ __
 72
    65
 73
     2
 40
0.75
 49
0.5
 49
-0.25
  0
LTYPE
  2
BYGG-019716$0$PHANTOM
 70
     0
  3
Phantom ______  __  __  ______  __  __  ______
 72
    65
 73
     6
 40
63.5
 49
31.75
 49
-6.3499999999999988
 49
6.3499999999999988
 49
-6.3499999999999988
 49
6.3499999999999988
 49
-6.3499999999999988
  0
LTYPE
  2
BYGG-019705$0$NEWDOT
 70
     0
  3
____ . ____ . ____ . ____ . ____ . ____ . ____
 72
    65
 73
     4
 40
2.0
 49
1.0
 49
-0.5
 49
0.0
 49
-0.5
  0
LTYPE
  2
BYGG-019705$0$DASHDOT
 70
     0
  3
__ . __ . __ . __ . __ . __ . __ . __ . __ . __
 72
    65
 73
     4
 40
1.0
 49
0.5
 49
-0.25
 49
0.0
 49
-0.25
  0
LTYPE
  2
BYGG-019705$0$DASHED
 70
     0
  3
__ __ __ __ __ __ __ __ __ __ __ __ __ __ __
 72
    65
 73
     2
 40
0.75
 49
0.5
 49
-0.25
  0
LTYPE
  2
BYGG-019705$0$PHANTOM
 70
     0
  3
Phantom ______  __  __  ______  __  __  ______
 72
    65
 73
     6
 40
63.5
 49
31.75
 49
-6.3499999999999988
 49
6.3499999999999988
 49
-6.3499999999999988
 49
6.3499999999999988
 49
-6.3499999999999988
  0
LTYPE
  2
BYGG-022089$0$NEWDOT
 70
     0
  3
____ . ____ . ____ . ____ . ____ . ____ . ____
 72
    65
 73
     4
 40
2.0
 49
1.0
 49
-0.5
 49
0.0
 49
-0.5
  0
LTYPE
  2
BYGG-022089$0$DASHDOT
 70
     0
  3
__ . __ . __ . __ . __ . __ . __ . __ . __ . __
 72
    65
 73
     4
 40
1.0
 49
0.5
 49
-0.25
 49
0.0
 49
-0.25
  0
LTYPE
  2
BYGG-022089$0$DASHED
 70
     0
  3
__ __ __ __ __ __ __ __ __ __ __ __ __ __ __
 72
    65
 73
     2
 40
0.75
 49
0.5
 49
-0.25
  0
LTYPE
  2
BYGG-022089$0$PHANTOM
 70
     0
  3
Phantom ______  __  __  ______  __  __  ______
 72
    65
 73
     6
 40
63.5
 49
31.75
 49
-6.3499999999999988
 49
6.3499999999999988
 49
-6.3499999999999988
 49
6.3499999999999988
 49
-6.3499999999999988
  0
LTYPE
  2
BYGG-019718$0$NEWDOT
 70
     0
  3
____ . ____ . ____ . ____ . ____ . ____ . ____
 72
    65
 73
     4
 40
2.0
 49
1.0
 49
-0.5
 49
0.0
 49
-0.5
  0
LTYPE
  2
BYGG-019718$0$DASHDOT
 70
     0
  3
__ . __ . __ . __ . __ . __ . __ . __ . __ . __
 72
    65
 73
     4
 40
1.0
 49
0.5
 49
-0.25
 49
0.0
 49
-0.25
  0
LTYPE
  2
BYGG-019718$0$DASHED
 70
     0
  3
__ __ __ __ __ __ __ __ __ __ __ __ __ __ __
 72
    65
 73
     2
 40
0.75
 49
0.5
 49
-0.25
  0
LTYPE
  2
BYGG-019718$0$PHANTOM
 70
     0
  3
Phantom ______  __  __  ______  __  __  ______
 72
    65
 73
     6
 40
63.5
 49
31.75
 49
-6.3499999999999988
 49
6.3499999999999988
 49
-6.3499999999999988
 49
6.3499999999999988
 49
-6.3499999999999988
  0
LTYPE
  2
BYGG-022120$0$NEWDOT
 70
     0
  3
____ . ____ . ____ . ____ . ____ . ____ . ____
 72
    65
 73
     4
 40
2.0
 49
1.0
 49
-0.5
 49
0.0
 49
-0.5
  0
LTYPE
  2
BYGG-022120$0$DASHDOT
 70
     0
  3
__ . __ . __ . __ . __ . __ . __ . __ . __ . __
 72
    65
 73
     4
 40
1.0
 49
0.5
 49
-0.25
 49
0.0
 49
-0.25
  0
LTYPE
  2
BYGG-022120$0$DASHED
 70
     0
  3
__ __ __ __ __ __ __ __ __ __ __ __ __ __ __
 72
    65
 73
     2
 40
0.75
 49
0.5
 49
-0.25
  0
LTYPE
  2
BYGG-022120$0$PHANTOM
 70
     0
  3
Phantom ______  __  __  ______  __  __  ______
 72
    65
 73
     6
 40
63.5
 49
31.75
 49
-6.3499999999999988
 49
6.3499999999999988
 49
-6.3499999999999988
 49
6.3499999999999988
 49
-6.3499999999999988
  0
LTYPE
  2
BYGG-01457801$0$NEWDOT
 70
     0
  3
____ . ____ . ____ . ____ . ____ . ____ . ____
 72
    65
 73
     4
 40
2.0
 49
1.0
 49
-0.5
 49
0.0
 49
-0.5
  0
LTYPE
  2
BYGG-01457801$0$ZIGZAG
 70
     0
  3
Zig zag /\/\/\/\/\/\/\/\/\/\/\/\/\/\/\/\/\/\/\/\/\/\/\/
 72
    65
 73
     4
 40
20.32254
 49
0.00254
 49
-5.0800000000000001
 49
-10.16
 49
-5.0800000000000001
  0
LTYPE
  2
BYGG-014198$0$ZIGZAG
 70
     0
  3
Zig zag /\/\/\/\/\/\/\/\/\/\/\/\/\/\/\/\/\/\/\/\/\/\/\/
 72
    65
 73
     4
 40
20.32254
 49
0.00254
 49
-5.0800000000000001
 49
-10.16
 49
-5.0800000000000001
  0
LTYPE
  2
BYGG-014198$0$NEWDOT
 70
     0
  3
____ . ____ . ____ . ____ . ____ . ____ . ____
 72
    65
 73
     4
 40
2.0
 49
1.0
 49
-0.5
 49
0.0
 49
-0.5
  0
LTYPE
  2
BYGG-014495$0$DASHDOT
 70
     0
  3
__ . __ . __ . __ . __ . __ . __ . __ . __ . __
 72
    65
 73
     4
 40
1.0
 49
0.5
 49
-0.25
 49
0.0
 49
-0.25
  0
LTYPE
  2
BYGG-019716$0$PHANTOM2
 70
     0
  3
Phantom (.5x) ___ _ _ ___ _ _ ___ _ _ ___ _ _
 72
    65
 73
     6
 40
1.25
 49
0.625
 49
-0.125
 49
0.125
 49
-0.125
 49
0.125
 49
-0.125
  0
LTYPE
  2
BYGG-019653$0$DOT_CENTER
 70
     0
  3
Dot_Center
 72
    65
 73
     4
 40
14.0
 49
12.0
 49
-1.0
 49
0.0
 49
-1.0
  0
LTYPE
  2
BYGG-019653$0$DASH_CENTER
 70
     0
  3
Dash_Center
 72
    65
 73
     4
 40
14.0
 49
11.0
 49
-1.0
 49
1.0
 49
-1.0
  0
LTYPE
  2
BYGG-019652$0$DOT_CENTER
 70
     0
  3
Dot_Center
 72
    65
 73
     4
 40
14.0
 49
12.0
 49
-1.0
 49
0.0
 49
-1.0
  0
LTYPE
  2
BYGG-019652$0$DASH_CENTER
 70
     0
  3
Dash_Center
 72
    65
 73
     4
 40
14.0
 49
11.0
 49
-1.0
 49
1.0
 49
-1.0
  0
LTYPE
  2
BYGG-022089$0$PHANTOM2
 70
     0
  3
Phantom (.5x) ___ _ _ ___ _ _ ___ _ _ ___ _ _
 72
    65
 73
     6
 40
1.25
 49
0.625
 49
-0.125
 49
0.125
 49
-0.125
 49
0.125
 49
-0.125
  0
ENDTAB
  0
TABLE
  2
LAYER
 70
   311
  0
LAYER
  2
0
 70
     0
 62
     7
  6
CONTINUOUS
  0
LAYER
  2
DEFPOINTS
 70
     0
 62
     7
  6
CONTINUOUS
  0
LAYER
  2
SAPA_ANSLUTNING
 70
     0
 62
     6
  6
CONTINUOUS
  0
LAYER
  2
SAPA_ARTIKELNR
 70
     0
 62
     4
  6
CONTINUOUS
  0
LAYER
  2
BYGG-023125$0$LIST
 70
     0
 62
     2
  6
CONTINUOUS
  0
LAYER
  2
SAPA_FYLLNING
 70
     0
 62
     4
  6
CONTINUOUS
  0
LAYER
  2
SAPA_ISOLATOR
 70
     0
 62
     4
  6
CONTINUOUS
  0
LAYER
  2
SAPA_MATT
 70
     0
 62
     1
  6
CONTINUOUS
  0
LAYER
  2
SAPA_GLAS
 70
     0
 62
     4
  6
CONTINUOUS
  0
LAYER
  2
SAPA_FOGBAND
 70
     0
 62
     2
  6
CONTINUOUS
  0
LAYER
  2
SAPA_PROFIL
 70
     0
 62
     7
  6
CONTINUOUS
  0
ENDTAB
  0
TABLE
  2
STYLE
 70
    45
  0
STYLE
  2
STANDARD
 70
     0
 40
0.0
 41
1.0
 50
0.0
 71
     0
 42
0.2
  3
txt
  4

  0
STYLE
  2
ISO
 70
     0
 40
0.0
 41
1.0
 50
0.0
 71
     0
 42
3.5
  3
txt
  4

  0
STYLE
  2

 70
     1
 40
0.0
 41
1.0
 50
0.0
 71
     0
 42
0.2
  3
ltypeshp.shx
  4

  0
STYLE
  2
BYGG-021665$0$STANDARD
 70
     0
 40
0.0
 41
1.0
 50
0.0
 71
     0
 42
0.2
  3
txt
  4

  0
STYLE
  2
BYGG-021665$0$ISO
 70
     0
 40
0.0
 41
1.0
 50
0.0
 71
     0
 42
3.5
  3
isocp3.shx
  4

  0
STYLE
  2
BYGG-018516$0$STANDARD
 70
     0
 40
0.0
 41
1.0
 50
0.0
 71
     0
 42
0.2
  3
txt
  4

  0
STYLE
  2
BYGG-018516$0$ISO
 70
     0
 40
0.0
 41
1.0
 50
0.0
 71
     0
 42
3.5
  3
isocp3.shx
  4

  0
STYLE
  2
BYGG-019716$0$STANDARD
 70
     0
 40
0.0
 41
1.0
 50
0.0
 71
     0
 42
0.2
  3
txt
  4

  0
STYLE
  2
BYGG-019716$0$ISO
 70
     0
 40
0.0
 41
1.0
 50
0.0
 71
     0
 42
3.5
  3
txt
  4

  0
STYLE
  2
BYGG-019716$0$ANNOTATIVE
 70
     0
 40
0.0
 41
1.0
 50
0.0
 71
     0
 42
0.2
  3
txt
  4

  0
STYLE
  2
BYGG-019653$0$STANDARD
 70
     0
 40
0.0
 41
1.0
 50
0.0
 71
     0
 42
0.2
  3
txt
  4

  0
STYLE
  2
BYGG-019653$0$ISO
 70
     0
 40
0.0
 41
1.0
 50
0.0
 71
     0
 42
3.5
  3
txt
  4

  0
STYLE
  2
BYGG-019653$0$CONVERTER_11
 70
     0
 40
0.0
 41
0.72
 50
0.0
 71
     0
 42
0.2
  3
txt.shx
  4

  0
STYLE
  2
BYGG-019652$0$STANDARD
 70
     0
 40
0.0
 41
1.0
 50
0.0
 71
     0
 42
0.2
  3
txt
  4

  0
STYLE
  2
BYGG-019652$0$ISO
 70
     0
 40
0.0
 41
1.0
 50
0.0
 71
     0
 42
3.5
  3
txt
  4

  0
STYLE
  2
BYGG-019652$0$CONVERTER_11
 70
     0
 40
0.0
 41
0.72
 50
0.0
 71
     0
 42
0.2
  3
txt.shx
  4

  0
STYLE
  2
BYGG-019705$0$STANDARD
 70
     0
 40
0.0
 41
1.0
 50
0.0
 71
     0
 42
0.2
  3
txt
  4

  0
STYLE
  2
BYGG-019705$0$ISO
 70
     0
 40
0.0
 41
1.0
 50
0.0
 71
     0
 42
3.5
  3
txt
  4

  0
STYLE
  2
BYGG-022089$0$STANDARD
 70
     0
 40
0.0
 41
1.0
 50
0.0
 71
     0
 42
0.2
  3
txt
  4

  0
STYLE
  2
BYGG-022089$0$ISO
 70
     0
 40
0.0
 41
1.0
 50
0.0
 71
     0
 42
3.5
  3
txt
  4

  0
STYLE
  2
BYGG-022089$0$ANNOTATIVE
 70
     0
 40
0.0
 41
1.0
 50
0.0
 71
     0
 42
0.2
  3
txt
  4

  0
STYLE
  2
BYGG-018731$0$STANDARD
 70
     0
 40
0.0
 41
1.0
 50
0.0
 71
     0
 42
0.2
  3
txt
  4

  0
STYLE
  2
BYGG-018731$0$ISO
 70
     0
 40
0.0
 41
1.0
 50
0.0
 71
     0
 42
3.5
  3
txt
  4

  0
STYLE
  2
BYGG-029261$0$STANDARD
 70
     0
 40
0.0
 41
1.0
 50
0.0
 71
     0
 42
0.2
  3
txt
  4

  0
STYLE
  2
BYGG-029261$0$ISO
 70
     0
 40
0.0
 41
1.0
 50
0.0
 71
     0
 42
3.5
  3
txt
  4

  0
STYLE
  2
BYGG-019718$0$STANDARD
 70
     0
 40
0.0
 41
1.0
 50
0.0
 71
     0
 42
0.2
  3
txt
  4

  0
STYLE
  2
BYGG-019718$0$ISO
 70
     0
 40
0.0
 41
1.0
 50
0.0
 71
     0
 42
3.5
  3
txt
  4

  0
STYLE
  2
BYGG-024973$0$STANDARD
 70
     0
 40
0.0
 41
1.0
 50
0.0
 71
     0
 42
0.2
  3
txt
  4

  0
STYLE
  2
BYGG-024973$0$ISO
 70
     0
 40
0.0
 41
1.0
 50
0.0
 71
     0
 42
3.5
  3
txt
  4

  0
STYLE
  2
BYGG-024894$0$STANDARD
 70
     0
 40
0.0
 41
1.0
 50
0.0
 71
     0
 42
0.2
  3
txt
  4

  0
STYLE
  2
BYGG-024894$0$ISO
 70
     0
 40
0.0
 41
1.0
 50
0.0
 71
     0
 42
3.5
  3
txt
  4

  0
STYLE
  2
BYGG-019612$0$STANDARD
 70
     0
 40
0.0
 41
1.0
 50
0.0
 71
     0
 42
0.2
  3
txt
  4

  0
STYLE
  2
BYGG-019612$0$ISO
 70
     0
 40
0.0
 41
1.0
 50
0.0
 71
     0
 42
3.5
  3
txt
  4

  0
STYLE
  2
BYGG-022120$0$STANDARD
 70
     0
 40
0.0
 41
1.0
 50
0.0
 71
     0
 42
0.2
  3
txt
  4

  0
STYLE
  2
BYGG-022120$0$ISO
 70
     0
 40
0.0
 41
1.0
 50
0.0
 71
     0
 42
3.5
  3
txt
  4

  0
STYLE
  2
BYGG-01457801$0$STANDARD
 70
     0
 40
0.0
 41
1.0
 50
0.0
 71
     0
 42
0.2
  3
txt
  4

  0
STYLE
  2
BYGG-01457801$0$ISO
 70
     0
 40
0.0
 41
1.0
 50
0.0
 71
     0
 42
2.5
  3
isocp3.shx
  4

  0
STYLE
  2
BYGG-022709$0$STANDARD
 70
     0
 40
0.0
 41
1.0
 50
0.0
 71
     0
 42
0.2
  3
txt
  4

  0
STYLE
  2
BYGG-022709$0$ISO
 70
     0
 40
0.0
 41
1.0
 50
0.0
 71
     0
 42
3.5
  3
txt
  4

  0
STYLE
  2
BYGG-014198$0$STANDARD
 70
     0
 40
0.0
 41
1.0
 50
0.0
 71
     0
 42
0.2
  3
txt
  4

  0
STYLE
  2
BYGG-014198$0$ISO
 70
     0
 40
0.0
 41
1.0
 50
0.0
 71
     0
 42
3.5
  3
isocp3.shx
  4

  0
STYLE
  2
BYGG-023125$0$STANDARD
 70
     0
 40
0.0
 41
1.0
 50
0.0
 71
     0
 42
0.2
  3
txt
  4

  0
STYLE
  2
BYGG-023125$0$ISO
 70
     0
 40
0.0
 41
1.0
 50
0.0
 71
     0
 42
3.5
  3
txt
  4

  0
STYLE
  2
BYGG-014495$0$STANDARD
 70
     0
 40
0.0
 41
1.0
 50
0.0
 71
     0
 42
0.2
  3
txt
  4

  0
STYLE
  2
BYGG-014495$0$ISO
 70
     0
 40
0.0
 41
1.0
 50
0.0
 71
     0
 42
3.5
  3
isocp3.shx
  4

  0
ENDTAB
  0
TABLE
  2
VIEW
 70
     0
  0
ENDTAB
  0
TABLE
  2
UCS
 70
     0
  0
ENDTAB
  0
TABLE
  2
APPID
 70
    23
  0
APPID
  2
ACAD
 70
     0
  0
APPID
  2
ACAD_DSTYLE_DIMTEXT_FILL
 70
     0
  0
APPID
  2
ACAD_DSTYLE_DIMEXT_LENGTH
 70
     0
  0
APPID
  2
ACAD_DSTYLE_DIMEXT_ENABLED
 70
     0
  0
APPID
  2
ACAD_DSTYLE_DIM_LINETYPE
 70
     0
  0
APPID
  2
ACAD_DSTYLE_DIM_EXT1_LINETYPE
 70
     0
  0
APPID
  2
ACAD_DSTYLE_DIM_EXT2_LINETYPE
 70
     0
  0
APPID
  2
ACAD_DSTYLE_DIMJOGGED_JOGA
 70
     0
  0
APPID
  2
ACAD_DSTYLE_DIMARC_LENGTH_
 70
     0
  0
APPID
  2
ACAD_PSEXT
 70
     0
  0
APPID
  2
ACAD_MLEADERVER
 70
     0
  0
APPID
  2
ACAD_NAV_VCDISPLAY
 70
     0
  0
APPID
  2
ACAD_EXEMPT_FROM_CAD_STANDARDS
 70
     0
  0
APPID
  2
ACAECLAYERSTANDARD
 70
     0
  0
APPID
  2
ACADANNOTATIVE
 70
     0
  0
APPID
  2
AMG_ARCHIVE11
 70
     0
  0
APPID
  2
GRADIENTCOLOR1ACI
 70
     0
  0
APPID
  2
GRADIENTCOLOR2ACI
 70
     0
  0
APPID
  2
ACDBDYNAMICBLOCKGUID
 70
     0
  0
APPID
  2
ACDBBLOCKREPETAG
 70
     0
  0
APPID
  2
AEC_XDATA_BOUND_SPACE
 70
     0
  0
APPID
  2
ACCMTRANSPARENCY
 70
     0
  0
APPID
  2
CONTENTBLOCKICON
 70
     0
  0
ENDTAB
  0
TABLE
  2
DIMSTYLE
 70
    75
  0
DIMSTYLE
  2
STANDARD
 70
     0
  3

  4

  5

  6

  7

 40
1.0
 41
0.18
 42
0.0625
 43
0.38
 44
0.18
 45
0.0
 46
0.0
 47
0.0
 48
0.0
140
0.18
141
0.09
142
0.0
143
25.399999999999999
144
1.0
145
0.0
146
1.0
147
0.09
 71
     0
 72
     0
 73
     1
 74
     1
 75
     0
 76
     0
 77
     0
 78
     0
170
     0
171
     2
172
     0
173
     0
174
     0
175
     0
176
     0
177
     0
178
     0
  0
DIMSTYLE
  2
MASKIN
 70
     0
  3

  4

  5

  6

  7

 40
0.0
 41
3.0
 42
1.5
 43
10.0
 44
1.5
 45
0.0
 46
0.0
 47
0.0
 48
0.0
140
3.0
141
-5.0
142
0.0
143
25.399999999999999
144
-1.0
145
0.0
146
1.0
147
1.0
 71
     0
 72
     0
 73
     0
 74
     0
 75
     0
 76
     0
 77
     1
 78
     8
170
     0
171
     0
172
     1
173
     0
174
     0
175
     0
176
   256
177
   256
178
     2
  0
DIMSTYLE
  2
BYGG-021665$0$MASKIN
 70
     0
  3

  4

  5

  6

  7

 40
0.0
 41
3.0
 42
1.5
 43
10.0
 44
1.5
 45
0.0
 46
0.0
 47
0.0
 48
0.0
140
3.0
141
-5.0
142
0.0
143
25.399999999999999
144
-1.0
145
0.0
146
1.0
147
1.0
 71
     0
 72
     0
 73
     0
 74
     0
 75
     0
 76
     0
 77
     1
 78
     8
170
     0
171
     0
172
     1
173
     0
174
     0
175
     0
176
   256
177
   256
178
   256
  0
DIMSTYLE
  2
BYGG-018516$0$STANDARD
 70
     0
  3

  4

  5

  6

  7

 40
1.0
 41
0.18
 42
0.0625
 43
0.38
 44
0.18
 45
0.0
 46
0.0
 47
0.0
 48
0.0
140
0.18
141
0.09
142
0.0
143
25.399999999999999
144
1.0
145
0.0
146
1.0
147
0.09
 71
     0
 72
     0
 73
     1
 74
     1
 75
     0
 76
     0
 77
     0
 78
     0
170
     0
171
     2
172
     0
173
     0
174
     0
175
     0
176
     0
177
     0
178
     0
  0
DIMSTYLE
  2
BYGG-018516$0$MASKIN
 70
     0
  3

  4

  5

  6

  7

 40
0.0
 41
3.0
 42
1.5
 43
10.0
 44
1.5
 45
0.0
 46
0.0
 47
0.0
 48
0.0
140
3.0
141
-5.0
142
0.0
143
25.399999999999999
144
-1.0
145
0.0
146
1.0
147
1.0
 71
     0
 72
     0
 73
     0
 74
     0
 75
     0
 76
     0
 77
     1
 78
     8
170
     0
171
     0
172
     1
173
     0
174
     0
175
     0
176
   256
177
   256
178
     2
  0
DIMSTYLE
  2
BYGG-019716$0$STANDARD
 70
     0
  3

  4

  5

  6

  7

 40
1.0
 41
0.18
 42
0.0625
 43
0.38
 44
0.18
 45
0.0
 46
0.0
 47
0.0
 48
0.0
140
0.18
141
0.09
142
0.0
143
25.399999999999999
144
1.0
145
0.0
146
1.0
147
0.09
 71
     0
 72
     0
 73
     1
 74
     1
 75
     0
 76
     0
 77
     0
 78
     0
170
     0
171
     2
172
     0
173
     0
174
     0
175
     0
176
     0
177
     0
178
     0
  0
DIMSTYLE
  2
BYGG-019716$0$MASKIN
 70
     0
  3

  4

  5

  6

  7

 40
0.0
 41
3.0
 42
1.5
 43
10.0
 44
1.5
 45
0.0
 46
0.0
 47
0.0
 48
0.0
140
3.0
141
-5.0
142
0.0
143
25.399999999999999
144
-1.0
145
0.0
146
1.0
147
1.0
 71
     0
 72
     0
 73
     0
 74
     0
 75
     0
 76
     0
 77
     1
 78
     8
170
     0
171
     0
172
     1
173
     0
174
     0
175
     0
176
   256
177
   256
178
     2
  0
DIMSTYLE
  2
BYGG-019716$0$ANNOTATIVE
 70
     0
  3

  4

  5

  6

  7

 40
1.0
 41
0.18
 42
0.0625
 43
0.38
 44
0.18
 45
0.0
 46
0.0
 47
0.0
 48
0.0
140
0.18
141
0.09
142
0.0
143
25.399999999999999
144
1.0
145
0.0
146
1.0
147
0.09
 71
     0
 72
     0
 73
     1
 74
     1
 75
     0
 76
     0
 77
     0
 78
     0
170
     0
171
     2
172
     0
173
     0
174
     0
175
     0
176
     0
177
     0
178
     0
  0
DIMSTYLE
  2
BYGG-019653$0$STANDARD
 70
     0
  3

  4

  5

  6

  7

 40
1.0
 41
0.18
 42
0.0625
 43
0.38
 44
0.18
 45
0.0
 46
0.0
 47
0.0
 48
0.0
140
0.18
141
0.09
142
0.0
143
25.399999999999999
144
1.0
145
0.0
146
1.0
147
0.09
 71
     0
 72
     0
 73
     1
 74
     1
 75
     0
 76
     0
 77
     0
 78
     0
170
     0
171
     2
172
     0
173
     0
174
     0
175
     0
176
     0
177
     0
178
     0
  0
DIMSTYLE
  2
BYGG-019653$0$MASKIN
 70
     0
  3

  4

  5

  6

  7

 40
0.0
 41
3.0
 42
1.5
 43
10.0
 44
1.5
 45
0.0
 46
0.0
 47
0.0
 48
0.0
140
3.0
141
-5.0
142
0.0
143
25.399999999999999
144
-1.0
145
0.0
146
1.0
147
1.0
 71
     0
 72
     0
 73
     0
 74
     0
 75
     0
 76
     0
 77
     1
 78
     8
170
     0
171
     0
172
     1
173
     0
174
     0
175
     0
176
   256
177
   256
178
     2
  0
DIMSTYLE
  2
BYGG-019653$0$ME10_DIM_10
 70
     0
  3

  4

  5

  6

  7

 40
1.0
 41
0.7
 42
0.0
 43
0.38
 44
0.4
 45
0.0
 46
0.0
 47
0.0
 48
0.0
140
0.7
141
0.09
142
0.0
143
25.399999999999999
144
1.0
145
0.0
146
1.0
147
0.4
 71
     0
 72
     0
 73
     0
 74
     0
 75
     0
 76
     0
 77
     1
 78
     8
170
     0
171
     2
172
     1
173
     1
174
     0
175
     0
176
     1
177
     1
178
     2
  0
DIMSTYLE
  2
BYGG-019653$0$ME10_DIM_11
 70
     0
  3

  4

  5

  6

  7

 40
1.0
 41
0.7
 42
0.0
 43
0.38
 44
0.4
 45
0.0
 46
0.0
 47
0.0
 48
0.0
140
0.7
141
0.09
142
0.0
143
25.399999999999999
144
1.0
145
0.0
146
1.0
147
0.4
 71
     0
 72
     0
 73
     0
 74
     0
 75
     0
 76
     0
 77
     1
 78
     8
170
     0
171
     2
172
     1
173
     1
174
     0
175
     0
176
     1
177
     1
178
     2
  0
DIMSTYLE
  2
BYGG-019653$0$ME10_DIM_12
 70
     0
  3
(<>)
  4

  5

  6

  7

 40
1.0
 41
0.7
 42
0.0
 43
0.38
 44
0.4
 45
0.0
 46
0.0
 47
0.0
 48
0.0
140
0.7
141
0.09
142
0.0
143
25.399999999999999
144
1.0
145
0.0
146
1.0
147
0.4
 71
     0
 72
     0
 73
     0
 74
     0
 75
     0
 76
     0
 77
     1
 78
     8
170
     0
171
     2
172
     1
173
     1
174
     0
175
     0
176
     1
177
     1
178
     2
  0
DIMSTYLE
  2
BYGG-019653$0$ME10_DIM_13
 70
     0
  3

  4

  5

  6

  7

 40
1.0
 41
0.7
 42
0.0
 43
0.38
 44
0.4
 45
0.0
 46
0.0
 47
0.0
 48
0.0
140
0.7
141
0.09
142
0.0
143
25.399999999999999
144
1.0
145
0.0
146
1.0
147
0.4
 71
     0
 72
     0
 73
     0
 74
     0
 75
     0
 76
     0
 77
     1
 78
     8
170
     0
171
     2
172
     1
173
     1
174
     0
175
     0
176
     1
177
     1
178
     2
  0
DIMSTYLE
  2
BYGG-019653$0$ME10_DIM_14
 70
     0
  3

  4

  5

  6

  7

 40
1.0
 41
0.7
 42
0.0
 43
0.38
 44
0.4
 45
0.0
 46
0.0
 47
0.0
 48
0.0
140
0.7
141
0.09
142
0.0
143
25.399999999999999
144
1.0
145
0.0
146
1.0
147
0.4
 71
     0
 72
     0
 73
     0
 74
     0
 75
     0
 76
     0
 77
     1
 78
     8
170
     0
171
     2
172
     1
173
     1
174
     0
175
     0
176
     1
177
     1
178
     2
  0
DIMSTYLE
  2
BYGG-019653$0$ME10_DIM_15
 70
     0
  3

  4

  5

  6

  7

 40
1.0
 41
0.7
 42
0.0
 43
0.38
 44
0.4
 45
0.0
 46
0.0
 47
0.0
 48
0.0
140
0.7
141
0.09
142
0.0
143
25.399999999999999
144
1.0
145
0.0
146
1.0
147
0.4
 71
     0
 72
     0
 73
     0
 74
     0
 75
     0
 76
     0
 77
     1
 78
     8
170
     0
171
     2
172
     1
173
     1
174
     0
175
     0
176
     1
177
     1
178
     2
  0
DIMSTYLE
  2
BYGG-019653$0$ME10_DIM_16
 70
     0
  3

  4

  5

  6

  7

 40
1.0
 41
0.7
 42
0.0
 43
0.38
 44
0.4
 45
0.0
 46
0.0
 47
0.3
 48
0.3
140
0.7
141
0.09
142
0.0
143
25.399999999999999
144
1.0
145
0.0
146
0.6
147
0.4
 71
     1
 72
     0
 73
     0
 74
     0
 75
     0
 76
     0
 77
     1
 78
     8
170
     0
171
     2
172
     1
173
     1
174
     0
175
     0
176
     1
177
     1
178
     2
  0
DIMSTYLE
  2
BYGG-019653$0$ME10_DIM_17
 70
     0
  3

  4

  5

  6

  7

 40
1.0
 41
0.7
 42
0.0
 43
0.38
 44
0.4
 45
0.0
 46
0.0
 47
0.0
 48
0.0
140
0.7
141
0.09
142
0.0
143
25.399999999999999
144
1.0
145
0.0
146
1.0
147
0.4
 71
     0
 72
     0
 73
     0
 74
     0
 75
     0
 76
     0
 77
     1
 78
     8
170
     0
171
     2
172
     1
173
     1
174
     0
175
     0
176
     1
177
     1
178
     2
  0
DIMSTYLE
  2
BYGG-019653$0$ME10_DIM_18
 70
     0
  3

  4

  5

  6

  7

 40
1.0
 41
0.7
 42
0.0
 43
0.38
 44
0.4
 45
0.0
 46
0.0
 47
0.3
 48
0.3
140
0.7
141
0.09
142
0.0
143
25.399999999999999
144
1.0
145
0.0
146
0.6
147
0.4
 71
     1
 72
     0
 73
     0
 74
     0
 75
     0
 76
     0
 77
     1
 78
     8
170
     0
171
     2
172
     1
173
     1
174
     0
175
     0
176
     1
177
     1
178
     2
  0
DIMSTYLE
  2
BYGG-019653$0$ME10_DIM_19
 70
     0
  3

  4

  5

  6

  7

 40
1.0
 41
0.7
 42
0.0
 43
0.38
 44
0.4
 45
0.0
 46
0.0
 47
0.0
 48
0.0
140
0.7
141
0.09
142
0.0
143
25.399999999999999
144
1.0
145
0.0
146
1.0
147
0.4
 71
     0
 72
     0
 73
     0
 74
     0
 75
     0
 76
     0
 77
     1
 78
     8
170
     0
171
     2
172
     1
173
     1
174
     0
175
     0
176
     1
177
     1
178
     2
  0
DIMSTYLE
  2
BYGG-019653$0$ME10_DIM_20
 70
     0
  3

  4

  5

  6

  7

 40
1.0
 41
0.7
 42
0.0
 43
0.38
 44
0.4
 45
0.0
 46
0.0
 47
0.0
 48
0.0
140
0.7
141
0.09
142
0.0
143
25.399999999999999
144
1.0
145
0.0
146
1.0
147
0.4
 71
     0
 72
     0
 73
     0
 74
     0
 75
     0
 76
     0
 77
     1
 78
     8
170
     0
171
     2
172
     1
173
     1
174
     0
175
     0
176
     1
177
     1
178
     2
  0
DIMSTYLE
  2
BYGG-019653$0$ME10_DIM_21
 70
     0
  3
(<>)
  4

  5

  6

  7

 40
1.0
 41
0.7
 42
0.0
 43
0.38
 44
0.4
 45
0.0
 46
0.0
 47
0.0
 48
0.0
140
0.7
141
0.09
142
0.0
143
25.399999999999999
144
1.0
145
0.0
146
1.0
147
0.4
 71
     0
 72
     0
 73
     0
 74
     0
 75
     0
 76
     0
 77
     1
 78
     8
170
     0
171
     2
172
     1
173
     1
174
     0
175
     0
176
     1
177
     1
178
     2
  0
DIMSTYLE
  2
BYGG-019653$0$ME10_DIM_22
 70
     0
  3

  4

  5

  6

  7

 40
1.0
 41
0.7
 42
0.0
 43
0.38
 44
0.4
 45
0.0
 46
0.0
 47
0.0
 48
0.0
140
0.7
141
0.09
142
0.0
143
25.399999999999999
144
1.0
145
0.0
146
1.0
147
0.4
 71
     0
 72
     0
 73
     0
 74
     0
 75
     0
 76
     0
 77
     1
 78
     8
170
     0
171
     2
172
     1
173
     1
174
     0
175
     0
176
     1
177
     1
178
     2
  0
DIMSTYLE
  2
BYGG-019653$0$ME10_DIM_23
 70
     0
  3

  4

  5

  6

  7

 40
1.0
 41
0.7
 42
0.0
 43
0.38
 44
0.4
 45
0.0
 46
0.0
 47
0.0
 48
0.0
140
0.7
141
0.09
142
0.0
143
25.399999999999999
144
1.0
145
0.0
146
1.0
147
0.4
 71
     0
 72
     0
 73
     0
 74
     0
 75
     0
 76
     0
 77
     1
 78
     8
170
     0
171
     2
172
     1
173
     1
174
     0
175
     0
176
     1
177
     1
178
     2
  0
DIMSTYLE
  2
BYGG-019652$0$STANDARD
 70
     0
  3

  4

  5

  6

  7

 40
1.0
 41
0.18
 42
0.0625
 43
0.38
 44
0.18
 45
0.0
 46
0.0
 47
0.0
 48
0.0
140
0.18
141
0.09
142
0.0
143
25.399999999999999
144
1.0
145
0.0
146
1.0
147
0.09
 71
     0
 72
     0
 73
     1
 74
     1
 75
     0
 76
     0
 77
     0
 78
     0
170
     0
171
     2
172
     0
173
     0
174
     0
175
     0
176
     0
177
     0
178
     0
  0
DIMSTYLE
  2
BYGG-019652$0$MASKIN
 70
     0
  3

  4

  5

  6

  7

 40
0.0
 41
3.0
 42
1.5
 43
10.0
 44
1.5
 45
0.0
 46
0.0
 47
0.0
 48
0.0
140
3.0
141
-5.0
142
0.0
143
25.399999999999999
144
-1.0
145
0.0
146
1.0
147
1.0
 71
     0
 72
     0
 73
     0
 74
     0
 75
     0
 76
     0
 77
     1
 78
     8
170
     0
171
     0
172
     1
173
     0
174
     0
175
     0
176
   256
177
   256
178
     2
  0
DIMSTYLE
  2
BYGG-019652$0$ME10_DIM_10
 70
     0
  3

  4

  5

  6

  7

 40
1.0
 41
0.35
 42
0.0
 43
0.38
 44
0.2
 45
0.0
 46
0.0
 47
0.0
 48
0.0
140
0.35
141
0.09
142
0.0
143
25.399999999999999
144
1.0
145
0.0
146
1.0
147
0.2
 71
     0
 72
     0
 73
     0
 74
     0
 75
     0
 76
     0
 77
     1
 78
     8
170
     0
171
     2
172
     1
173
     1
174
     0
175
     0
176
     1
177
     1
178
     2
  0
DIMSTYLE
  2
BYGG-019652$0$ME10_DIM_11
 70
     0
  3

  4

  5

  6

  7

 40
1.0
 41
0.35
 42
0.0
 43
0.38
 44
0.2
 45
0.0
 46
0.0
 47
0.0
 48
0.0
140
0.35
141
0.09
142
0.0
143
25.399999999999999
144
1.0
145
0.0
146
1.0
147
0.2
 71
     0
 72
     0
 73
     0
 74
     0
 75
     0
 76
     0
 77
     1
 78
     8
170
     0
171
     2
172
     1
173
     1
174
     0
175
     0
176
     1
177
     1
178
     2
  0
DIMSTYLE
  2
BYGG-019652$0$ME10_DIM_12
 70
     0
  3

  4

  5

  6

  7

 40
1.0
 41
0.35
 42
0.0
 43
0.38
 44
0.2
 45
0.0
 46
0.0
 47
0.0
 48
0.0
140
0.35
141
0.09
142
0.0
143
25.399999999999999
144
1.0
145
0.0
146
1.0
147
0.2
 71
     0
 72
     0
 73
     0
 74
     0
 75
     0
 76
     0
 77
     1
 78
     8
170
     0
171
     2
172
     1
173
     1
174
     0
175
     0
176
     1
177
     1
178
     2
  0
DIMSTYLE
  2
BYGG-019652$0$ME10_DIM_13
 70
     0
  3

  4

  5

  6

  7

 40
1.0
 41
0.35
 42
0.0
 43
0.38
 44
0.2
 45
0.0
 46
0.0
 47
0.0
 48
0.0
140
0.35
141
0.09
142
0.0
143
25.399999999999999
144
1.0
145
0.0
146
1.0
147
0.2
 71
     0
 72
     0
 73
     0
 74
     0
 75
     0
 76
     0
 77
     1
 78
     8
170
     0
171
     2
172
     1
173
     1
174
     0
175
     0
176
     1
177
     1
178
     2
  0
DIMSTYLE
  2
BYGG-019652$0$ME10_DIM_14
 70
     0
  3

  4

  5

  6

  7

 40
1.0
 41
0.35
 42
0.0
 43
0.38
 44
0.2
 45
0.0
 46
0.0
 47
0.0
 48
0.0
140
0.35
141
0.09
142
0.0
143
25.399999999999999
144
1.0
145
0.0
146
1.0
147
0.2
 71
     0
 72
     0
 73
     0
 74
     0
 75
     0
 76
     0
 77
     1
 78
     8
170
     0
171
     2
172
     1
173
     1
174
     0
175
     0
176
     1
177
     1
178
     2
  0
DIMSTYLE
  2
BYGG-019652$0$ME10_DIM_15
 70
     0
  3

  4

  5

  6

  7

 40
1.0
 41
0.35
 42
0.0
 43
0.38
 44
0.2
 45
0.0
 46
0.0
 47
0.0
 48
0.0
140
0.35
141
0.09
142
0.0
143
25.399999999999999
144
1.0
145
0.0
146
1.0
147
0.2
 71
     0
 72
     0
 73
     0
 74
     0
 75
     0
 76
     0
 77
     1
 78
     8
170
     0
171
     2
172
     1
173
     1
174
     0
175
     0
176
     1
177
     1
178
     2
  0
DIMSTYLE
  2
BYGG-019652$0$ME10_DIM_16
 70
     0
  3

  4

  5

  6

  7

 40
1.0
 41
0.35
 42
0.0
 43
0.38
 44
0.2
 45
0.0
 46
0.0
 47
0.0
 48
0.0
140
0.35
141
0.09
142
0.0
143
25.399999999999999
144
1.0
145
0.0
146
1.0
147
0.2
 71
     0
 72
     0
 73
     0
 74
     0
 75
     0
 76
     0
 77
     1
 78
     8
170
     0
171
     2
172
     1
173
     1
174
     0
175
     0
176
     1
177
     1
178
     2
  0
DIMSTYLE
  2
BYGG-019652$0$ME10_DIM_17
 70
     0
  3

  4

  5

  6

  7

 40
1.0
 41
0.7
 42
0.0
 43
0.38
 44
0.4
 45
0.0
 46
0.0
 47
0.0
 48
0.0
140
0.7
141
0.09
142
0.0
143
25.399999999999999
144
1.0
145
0.0
146
1.0
147
0.4
 71
     0
 72
     0
 73
     0
 74
     0
 75
     0
 76
     0
 77
     1
 78
     8
170
     0
171
     2
172
     1
173
     1
174
     0
175
     0
176
     1
177
     1
178
     2
  0
DIMSTYLE
  2
BYGG-019652$0$ME10_DIM_18
 70
     0
  3

  4

  5

  6

  7

 40
1.0
 41
0.7
 42
0.0
 43
0.38
 44
0.4
 45
0.0
 46
0.0
 47
0.0
 48
0.0
140
0.7
141
0.09
142
0.0
143
25.399999999999999
144
1.0
145
0.0
146
1.0
147
0.4
 71
     0
 72
     0
 73
     0
 74
     0
 75
     0
 76
     0
 77
     1
 78
     8
170
     0
171
     2
172
     1
173
     1
174
     0
175
     0
176
     1
177
     1
178
     2
  0
DIMSTYLE
  2
BYGG-019652$0$ME10_DIM_19
 70
     0
  3

  4

  5

  6

  7

 40
1.0
 41
0.7
 42
0.0
 43
0.38
 44
0.4
 45
0.0
 46
0.0
 47
0.0
 48
0.0
140
0.7
141
0.09
142
0.0
143
25.399999999999999
144
1.0
145
0.0
146
1.0
147
0.4
 71
     0
 72
     0
 73
     0
 74
     0
 75
     0
 76
     0
 77
     1
 78
     8
170
     0
171
     2
172
     1
173
     1
174
     0
175
     0
176
     1
177
     1
178
     2
  0
DIMSTYLE
  2
BYGG-019652$0$ME10_DIM_20
 70
     0
  3

  4

  5

  6

  7

 40
1.0
 41
0.7
 42
0.0
 43
0.38
 44
0.4
 45
0.0
 46
0.0
 47
0.0
 48
0.0
140
0.7
141
0.09
142
0.0
143
25.399999999999999
144
1.0
145
0.0
146
1.0
147
0.4
 71
     0
 72
     0
 73
     0
 74
     0
 75
     0
 76
     0
 77
     1
 78
     8
170
     0
171
     2
172
     1
173
     1
174
     0
175
     0
176
     1
177
     1
178
     2
  0
DIMSTYLE
  2
BYGG-019652$0$ME10_DIM_21
 70
     0
  3

  4

  5

  6

  7

 40
1.0
 41
0.7
 42
0.0
 43
0.38
 44
0.4
 45
0.0
 46
0.0
 47
0.0
 48
0.0
140
0.7
141
0.09
142
0.0
143
25.399999999999999
144
1.0
145
0.0
146
1.0
147
0.4
 71
     0
 72
     0
 73
     0
 74
     0
 75
     0
 76
     0
 77
     1
 78
     8
170
     0
171
     2
172
     1
173
     1
174
     0
175
     0
176
     1
177
     1
178
     2
  0
DIMSTYLE
  2
BYGG-019652$0$ME10_DIM_22
 70
     0
  3

  4

  5

  6

  7

 40
1.0
 41
0.7
 42
0.0
 43
0.38
 44
0.4
 45
0.0
 46
0.0
 47
0.0
 48
0.0
140
0.7
141
0.09
142
0.0
143
25.399999999999999
144
1.0
145
0.0
146
1.0
147
0.4
 71
     0
 72
     0
 73
     0
 74
     0
 75
     0
 76
     0
 77
     1
 78
     8
170
     0
171
     2
172
     1
173
     1
174
     0
175
     0
176
     1
177
     1
178
     2
  0
DIMSTYLE
  2
BYGG-019652$0$ME10_DIM_23
 70
     0
  3

  4

  5

  6

  7

 40
1.0
 41
0.7
 42
0.0
 43
0.38
 44
0.4
 45
0.0
 46
0.0
 47
0.0
 48
0.0
140
0.7
141
0.09
142
0.0
143
25.399999999999999
144
1.0
145
0.0
146
1.0
147
0.4
 71
     0
 72
     0
 73
     0
 74
     0
 75
     0
 76
     0
 77
     1
 78
     8
170
     0
171
     2
172
     1
173
     1
174
     0
175
     0
176
     1
177
     1
178
     2
  0
DIMSTYLE
  2
BYGG-019652$0$ME10_DIM_24
 70
     0
  3

  4

  5

  6

  7

 40
1.0
 41
0.7
 42
0.0
 43
0.38
 44
0.4
 45
0.0
 46
0.0
 47
0.0
 48
0.0
140
0.7
141
0.09
142
0.0
143
25.399999999999999
144
1.0
145
0.0
146
1.0
147
0.4
 71
     0
 72
     0
 73
     0
 74
     0
 75
     0
 76
     0
 77
     1
 78
     8
170
     0
171
     2
172
     1
173
     1
174
     0
175
     0
176
     1
177
     1
178
     2
  0
DIMSTYLE
  2
BYGG-019652$0$ME10_DIM_25
 70
     0
  3

  4

  5

  6

  7

 40
1.0
 41
0.7
 42
0.0
 43
0.38
 44
0.4
 45
0.0
 46
0.0
 47
0.0
 48
0.0
140
0.7
141
0.09
142
0.0
143
25.399999999999999
144
1.0
145
0.0
146
1.0
147
0.4
 71
     0
 72
     0
 73
     0
 74
     0
 75
     0
 76
     0
 77
     1
 78
     8
170
     0
171
     2
172
     1
173
     1
174
     0
175
     0
176
     1
177
     1
178
     2
  0
DIMSTYLE
  2
BYGG-019652$0$ME10_DIM_26
 70
     0
  3

  4

  5

  6

  7

 40
1.0
 41
0.7
 42
0.0
 43
0.38
 44
0.4
 45
0.0
 46
0.0
 47
0.0
 48
0.0
140
0.7
141
0.09
142
0.0
143
25.399999999999999
144
1.0
145
0.0
146
1.0
147
0.4
 71
     0
 72
     0
 73
     0
 74
     0
 75
     0
 76
     0
 77
     1
 78
     8
170
     0
171
     2
172
     1
173
     1
174
     0
175
     0
176
     1
177
     1
178
     2
  0
DIMSTYLE
  2
BYGG-019652$0$ME10_DIM_27
 70
     0
  3

  4

  5

  6

  7

 40
1.0
 41
0.7
 42
0.0
 43
0.38
 44
0.4
 45
0.0
 46
0.0
 47
0.0
 48
0.0
140
0.7
141
0.09
142
0.0
143
25.399999999999999
144
1.0
145
0.0
146
1.0
147
0.4
 71
     0
 72
     0
 73
     0
 74
     0
 75
     0
 76
     0
 77
     1
 78
     8
170
     0
171
     2
172
     1
173
     1
174
     0
175
     0
176
     1
177
     1
178
     2
  0
DIMSTYLE
  2
BYGG-019652$0$ME10_DIM_28
 70
     0
  3

  4

  5

  6

  7

 40
1.0
 41
0.7
 42
0.0
 43
0.38
 44
0.4
 45
0.0
 46
0.0
 47
0.0
 48
0.0
140
0.7
141
0.09
142
0.0
143
25.399999999999999
144
1.0
145
0.0
146
1.0
147
0.4
 71
     0
 72
     0
 73
     0
 74
     0
 75
     0
 76
     0
 77
     1
 78
     8
170
     0
171
     2
172
     1
173
     1
174
     0
175
     0
176
     1
177
     1
178
     2
  0
DIMSTYLE
  2
BYGG-019652$0$ME10_DIM_29
 70
     0
  3

  4

  5

  6

  7

 40
1.0
 41
0.7
 42
0.0
 43
0.38
 44
0.4
 45
0.0
 46
0.0
 47
0.0
 48
0.0
140
0.7
141
0.09
142
0.0
143
25.399999999999999
144
1.0
145
0.0
146
1.0
147
0.4
 71
     0
 72
     0
 73
     0
 74
     0
 75
     0
 76
     0
 77
     1
 78
     8
170
     0
171
     2
172
     1
173
     1
174
     0
175
     0
176
     1
177
     1
178
     2
  0
DIMSTYLE
  2
BYGG-019705$0$STANDARD
 70
     0
  3

  4

  5

  6

  7

 40
1.0
 41
0.18
 42
0.0625
 43
0.38
 44
0.18
 45
0.0
 46
0.0
 47
0.0
 48
0.0
140
0.18
141
0.09
142
0.0
143
25.399999999999999
144
1.0
145
0.0
146
1.0
147
0.09
 71
     0
 72
     0
 73
     1
 74
     1
 75
     0
 76
     0
 77
     0
 78
     0
170
     0
171
     2
172
     0
173
     0
174
     0
175
     0
176
     0
177
     0
178
     0
  0
DIMSTYLE
  2
BYGG-019705$0$MASKIN
 70
     0
  3

  4

  5

  6

  7

 40
0.0
 41
3.0
 42
1.5
 43
10.0
 44
1.5
 45
0.0
 46
0.0
 47
0.0
 48
0.0
140
3.0
141
-5.0
142
0.0
143
25.399999999999999
144
-1.0
145
0.0
146
1.0
147
1.0
 71
     0
 72
     0
 73
     0
 74
     0
 75
     0
 76
     0
 77
     1
 78
     8
170
     0
171
     0
172
     1
173
     0
174
     0
175
     0
176
   256
177
   256
178
     2
  0
DIMSTYLE
  2
BYGG-022089$0$STANDARD
 70
     0
  3

  4

  5

  6

  7

 40
1.0
 41
0.18
 42
0.0625
 43
0.38
 44
0.18
 45
0.0
 46
0.0
 47
0.0
 48
0.0
140
0.18
141
0.09
142
0.0
143
25.399999999999999
144
1.0
145
0.0
146
1.0
147
0.09
 71
     0
 72
     0
 73
     1
 74
     1
 75
     0
 76
     0
 77
     0
 78
     0
170
     0
171
     2
172
     0
173
     0
174
     0
175
     0
176
     0
177
     0
178
     0
  0
DIMSTYLE
  2
BYGG-022089$0$MASKIN
 70
     0
  3

  4

  5

  6

  7

 40
0.0
 41
3.0
 42
1.5
 43
10.0
 44
1.5
 45
0.0
 46
0.0
 47
0.0
 48
0.0
140
3.0
141
-5.0
142
0.0
143
25.399999999999999
144
-1.0
145
0.0
146
1.0
147
1.0
 71
     0
 72
     0
 73
     0
 74
     0
 75
     0
 76
     0
 77
     1
 78
     8
170
     0
171
     0
172
     1
173
     0
174
     0
175
     0
176
   256
177
   256
178
     2
  0
DIMSTYLE
  2
BYGG-022089$0$ANNOTATIVE
 70
     0
  3

  4

  5

  6

  7

 40
1.0
 41
0.18
 42
0.0625
 43
0.38
 44
0.18
 45
0.0
 46
0.0
 47
0.0
 48
0.0
140
0.18
141
0.09
142
0.0
143
25.399999999999999
144
1.0
145
0.0
146
1.0
147
0.09
 71
     0
 72
     0
 73
     1
 74
     1
 75
     0
 76
     0
 77
     0
 78
     0
170
     0
171
     2
172
     0
173
     0
174
     0
175
     0
176
     0
177
     0
178
     0
  0
DIMSTYLE
  2
BYGG-018731$0$STANDARD
 70
     0
  3

  4

  5

  6

  7

 40
1.0
 41
0.18
 42
0.0625
 43
0.38
 44
0.18
 45
0.0
 46
0.0
 47
0.0
 48
0.0
140
0.18
141
0.09
142
0.0
143
25.399999999999999
144
1.0
145
0.0
146
1.0
147
0.09
 71
     0
 72
     0
 73
     1
 74
     1
 75
     0
 76
     0
 77
     0
 78
     0
170
     0
171
     2
172
     0
173
     0
174
     0
175
     0
176
     0
177
     0
178
     0
  0
DIMSTYLE
  2
BYGG-018731$0$MASKIN
 70
     0
  3

  4

  5

  6

  7

 40
0.0
 41
3.0
 42
1.5
 43
10.0
 44
1.5
 45
0.0
 46
0.0
 47
0.0
 48
0.0
140
3.0
141
-5.0
142
0.0
143
25.399999999999999
144
-1.0
145
0.0
146
1.0
147
1.0
 71
     0
 72
     0
 73
     0
 74
     0
 75
     0
 76
     0
 77
     1
 78
     8
170
     0
171
     0
172
     1
173
     0
174
     0
175
     0
176
   256
177
   256
178
     2
  0
DIMSTYLE
  2
BYGG-029261$0$STANDARD
 70
     0
  3

  4

  5

  6

  7

 40
1.0
 41
0.18
 42
0.0625
 43
0.38
 44
0.18
 45
0.0
 46
0.0
 47
0.0
 48
0.0
140
0.18
141
0.09
142
0.0
143
25.399999999999999
144
1.0
145
0.0
146
1.0
147
0.09
 71
     0
 72
     0
 73
     1
 74
     1
 75
     0
 76
     0
 77
     0
 78
     0
170
     0
171
     2
172
     0
173
     0
174
     0
175
     0
176
     0
177
     0
178
     0
  0
DIMSTYLE
  2
BYGG-029261$0$MASKIN
 70
     0
  3

  4

  5

  6

  7

 40
0.0
 41
3.0
 42
1.5
 43
10.0
 44
1.5
 45
0.0
 46
0.0
 47
0.0
 48
0.0
140
3.0
141
-5.0
142
0.0
143
25.399999999999999
144
-1.0
145
0.0
146
1.0
147
1.0
 71
     0
 72
     0
 73
     0
 74
     0
 75
     0
 76
     0
 77
     1
 78
     8
170
     0
171
     0
172
     1
173
     0
174
     0
175
     0
176
   256
177
   256
178
     2
  0
DIMSTYLE
  2
BYGG-029261$0$ISO-25
 70
     0
  3

  4

  5

  6

  7

 40
1.0
 41
2.5
 42
0.625
 43
3.75
 44
1.25
 45
0.0
 46
0.0
 47
0.0
 48
0.0
140
2.5
141
2.5
142
0.0
143
0.03937007874016
144
1.0
145
0.0
146
1.0
147
0.625
 71
     0
 72
     0
 73
     0
 74
     0
 75
     0
 76
     0
 77
     1
 78
     8
170
     0
171
     3
172
     1
173
     0
174
     0
175
     0
176
     0
177
     0
178
     0
  0
DIMSTYLE
  2
BYGG-019718$0$STANDARD
 70
     0
  3

  4

  5

  6

  7

 40
1.0
 41
0.18
 42
0.0625
 43
0.38
 44
0.18
 45
0.0
 46
0.0
 47
0.0
 48
0.0
140
0.18
141
0.09
142
0.0
143
25.399999999999999
144
1.0
145
0.0
146
1.0
147
0.09
 71
     0
 72
     0
 73
     1
 74
     1
 75
     0
 76
     0
 77
     0
 78
     0
170
     0
171
     2
172
     0
173
     0
174
     0
175
     0
176
     0
177
     0
178
     0
  0
DIMSTYLE
  2
BYGG-019718$0$MASKIN
 70
     0
  3

  4

  5

  6

  7

 40
0.0
 41
3.0
 42
1.5
 43
10.0
 44
1.5
 45
0.0
 46
0.0
 47
0.0
 48
0.0
140
3.0
141
-5.0
142
0.0
143
25.399999999999999
144
-1.0
145
0.0
146
1.0
147
1.0
 71
     0
 72
     0
 73
     0
 74
     0
 75
     0
 76
     0
 77
     1
 78
     8
170
     0
171
     0
172
     1
173
     0
174
     0
175
     0
176
   256
177
   256
178
     2
  0
DIMSTYLE
  2
BYGG-024973$0$STANDARD
 70
     0
  3

  4

  5

  6

  7

 40
1.0
 41
0.18
 42
0.0625
 43
0.38
 44
0.18
 45
0.0
 46
0.0
 47
0.0
 48
0.0
140
0.18
141
0.09
142
0.0
143
25.399999999999999
144
1.0
145
0.0
146
1.0
147
0.09
 71
     0
 72
     0
 73
     1
 74
     1
 75
     0
 76
     0
 77
     0
 78
     0
170
     0
171
     2
172
     0
173
     0
174
     0
175
     0
176
     0
177
     0
178
     0
  0
DIMSTYLE
  2
BYGG-024973$0$MASKIN
 70
     0
  3

  4

  5

  6

  7

 40
0.0
 41
3.0
 42
1.5
 43
10.0
 44
1.5
 45
0.0
 46
0.0
 47
0.0
 48
0.0
140
3.0
141
-5.0
142
0.0
143
25.399999999999999
144
-1.0
145
0.0
146
1.0
147
1.0
 71
     0
 72
     0
 73
     0
 74
     0
 75
     0
 76
     0
 77
     1
 78
     8
170
     0
171
     0
172
     1
173
     0
174
     0
175
     0
176
   256
177
   256
178
     2
  0
DIMSTYLE
  2
BYGG-024894$0$STANDARD
 70
     0
  3

  4

  5

  6

  7

 40
1.0
 41
0.18
 42
0.0625
 43
0.38
 44
0.18
 45
0.0
 46
0.0
 47
0.0
 48
0.0
140
0.18
141
0.09
142
0.0
143
25.399999999999999
144
1.0
145
0.0
146
1.0
147
0.09
 71
     0
 72
     0
 73
     1
 74
     1
 75
     0
 76
     0
 77
     0
 78
     0
170
     0
171
     2
172
     0
173
     0
174
     0
175
     0
176
     0
177
     0
178
     0
  0
DIMSTYLE
  2
BYGG-024894$0$MASKIN
 70
     0
  3

  4

  5

  6

  7

 40
0.0
 41
3.0
 42
1.5
 43
10.0
 44
1.5
 45
0.0
 46
0.0
 47
0.0
 48
0.0
140
3.0
141
-5.0
142
0.0
143
25.399999999999999
144
-1.0
145
0.0
146
1.0
147
1.0
 71
     0
 72
     0
 73
     0
 74
     0
 75
     0
 76
     0
 77
     1
 78
     8
170
     0
171
     0
172
     1
173
     0
174
     0
175
     0
176
   256
177
   256
178
     2
  0
DIMSTYLE
  2
BYGG-019612$0$STANDARD
 70
     0
  3

  4

  5

  6

  7

 40
1.0
 41
0.18
 42
0.0625
 43
0.38
 44
0.18
 45
0.0
 46
0.0
 47
0.0
 48
0.0
140
0.18
141
0.09
142
0.0
143
25.399999999999999
144
1.0
145
0.0
146
1.0
147
0.09
 71
     0
 72
     0
 73
     1
 74
     1
 75
     0
 76
     0
 77
     0
 78
     0
170
     0
171
     2
172
     0
173
     0
174
     0
175
     0
176
     0
177
     0
178
     0
  0
DIMSTYLE
  2
BYGG-019612$0$MASKIN
 70
     0
  3

  4

  5

  6

  7

 40
0.0
 41
3.0
 42
1.5
 43
10.0
 44
1.5
 45
0.0
 46
0.0
 47
0.0
 48
0.0
140
3.0
141
-5.0
142
0.0
143
25.399999999999999
144
-1.0
145
0.0
146
1.0
147
1.0
 71
     0
 72
     0
 73
     0
 74
     0
 75
     0
 76
     0
 77
     1
 78
     8
170
     0
171
     0
172
     1
173
     0
174
     0
175
     0
176
   256
177
   256
178
     2
  0
DIMSTYLE
  2
BYGG-022120$0$STANDARD
 70
     0
  3

  4

  5

  6

  7

 40
1.0
 41
0.18
 42
0.0625
 43
0.38
 44
0.18
 45
0.0
 46
0.0
 47
0.0
 48
0.0
140
0.18
141
0.09
142
0.0
143
25.399999999999999
144
1.0
145
0.0
146
1.0
147
0.09
 71
     0
 72
     0
 73
     1
 74
     1
 75
     0
 76
     0
 77
     0
 78
     0
170
     0
171
     2
172
     0
173
     0
174
     0
175
     0
176
     0
177
     0
178
     0
  0
DIMSTYLE
  2
BYGG-022120$0$MASKIN
 70
     0
  3

  4

  5

  6

  7

 40
0.0
 41
3.0
 42
1.5
 43
10.0
 44
1.5
 45
0.0
 46
0.0
 47
0.0
 48
0.0
140
3.0
141
-5.0
142
0.0
143
25.399999999999999
144
-1.0
145
0.0
146
1.0
147
1.0
 71
     0
 72
     0
 73
     0
 74
     0
 75
     0
 76
     0
 77
     1
 78
     8
170
     0
171
     0
172
     1
173
     0
174
     0
175
     0
176
   256
177
   256
178
     2
  0
DIMSTYLE
  2
BYGG-01457801$0$STANDARD
 70
     0
  3

  4

  5

  6

  7

 40
1.0
 41
0.18
 42
0.0625
 43
0.38
 44
0.18
 45
0.0
 46
0.0
 47
0.0
 48
0.0
140
0.18
141
0.09
142
0.0
143
25.399999999999999
144
1.0
145
0.0
146
1.0
147
0.09
 71
     0
 72
     0
 73
     1
 74
     1
 75
     0
 76
     0
 77
     0
 78
     0
170
     0
171
     2
172
     0
173
     0
174
     0
175
     0
176
     0
177
     0
178
     0
  0
DIMSTYLE
  2
BYGG-01457801$0$MASKIN
 70
     0
  3

  4

  5

  6

  7

 40
0.0
 41
3.0
 42
1.5
 43
10.0
 44
1.5
 45
0.0
 46
0.0
 47
0.0
 48
0.0
140
3.0
141
-5.0
142
0.0
143
25.399999999999999
144
-1.0
145
0.0
146
1.0
147
1.0
 71
     0
 72
     0
 73
     0
 74
     1
 75
     0
 76
     0
 77
     1
 78
     8
170
     0
171
     0
172
     1
173
     0
174
     0
175
     0
176
   256
177
   256
178
     2
  0
DIMSTYLE
  2
BYGG-022709$0$STANDARD
 70
     0
  3

  4

  5

  6

  7

 40
1.0
 41
0.18
 42
0.0625
 43
0.38
 44
0.18
 45
0.0
 46
0.0
 47
0.0
 48
0.0
140
0.18
141
0.09
142
0.0
143
25.399999999999999
144
1.0
145
0.0
146
1.0
147
0.09
 71
     0
 72
     0
 73
     1
 74
     1
 75
     0
 76
     0
 77
     0
 78
     0
170
     0
171
     2
172
     0
173
     0
174
     0
175
     0
176
     0
177
     0
178
     0
  0
DIMSTYLE
  2
BYGG-022709$0$MASKIN
 70
     0
  3

  4

  5

  6

  7

 40
0.0
 41
3.0
 42
1.5
 43
10.0
 44
1.5
 45
0.0
 46
0.0
 47
0.0
 48
0.0
140
3.0
141
-5.0
142
0.0
143
25.399999999999999
144
-1.0
145
0.0
146
1.0
147
1.0
 71
     0
 72
     0
 73
     0
 74
     0
 75
     0
 76
     0
 77
     1
 78
     8
170
     0
171
     0
172
     1
173
     0
174
     0
175
     0
176
   256
177
   256
178
     2
  0
DIMSTYLE
  2
BYGG-014198$0$STANDARD
 70
     0
  3

  4

  5

  6

  7

 40
1.0
 41
0.18
 42
0.0625
 43
0.38
 44
0.18
 45
0.0
 46
0.0
 47
0.0
 48
0.0
140
0.18
141
0.09
142
0.0
143
25.399999999999999
144
1.0
145
0.0
146
1.0
147
0.09
 71
     0
 72
     0
 73
     1
 74
     1
 75
     0
 76
     0
 77
     0
 78
     0
170
     0
171
     2
172
     0
173
     0
174
     0
175
     0
176
     0
177
     0
178
     0
  0
DIMSTYLE
  2
BYGG-014198$0$MASKIN
 70
     0
  3

  4

  5

  6

  7

 40
0.0
 41
3.0
 42
1.5
 43
10.0
 44
1.5
 45
0.0
 46
0.0
 47
0.0
 48
0.0
140
3.0
141
-5.0
142
0.0
143
25.399999999999999
144
-1.0
145
0.0
146
1.0
147
1.0
 71
     0
 72
     0
 73
     0
 74
     0
 75
     0
 76
     0
 77
     1
 78
     8
170
     0
171
     0
172
     1
173
     0
174
     0
175
     0
176
   256
177
   256
178
   256
  0
DIMSTYLE
  2
BYGG-023125$0$STANDARD
 70
     0
  3

  4

  5

  6

  7

 40
1.0
 41
0.18
 42
0.0625
 43
0.38
 44
0.18
 45
0.0
 46
0.0
 47
0.0
 48
0.0
140
0.18
141
0.09
142
0.0
143
25.399999999999999
144
1.0
145
0.0
146
1.0
147
0.09
 71
     0
 72
     0
 73
     1
 74
     1
 75
     0
 76
     0
 77
     0
 78
     0
170
     0
171
     2
172
     0
173
     0
174
     0
175
     0
176
     0
177
     0
178
     0
  0
DIMSTYLE
  2
BYGG-023125$0$MASKIN
 70
     0
  3

  4

  5

  6

  7

 40
0.0
 41
3.0
 42
1.5
 43
10.0
 44
1.5
 45
0.0
 46
0.0
 47
0.0
 48
0.0
140
3.0
141
-5.0
142
0.0
143
25.399999999999999
144
-1.0
145
0.0
146
1.0
147
1.0
 71
     0
 72
     0
 73
     0
 74
     0
 75
     0
 76
     0
 77
     1
 78
     8
170
     0
171
     0
172
     1
173
     0
174
     0
175
     0
176
   256
177
   256
178
     2
  0
DIMSTYLE
  2
BYGG-014495$0$MASKIN
 70
     0
  3

  4

  5

  6

  7

 40
0.0
 41
3.0
 42
1.5
 43
10.0
 44
1.5
 45
0.0
 46
0.0
 47
0.0
 48
0.0
140
3.0
141
-5.0
142
0.0
143
25.399999999999999
144
-1.0
145
0.0
146
1.0
147
1.0
 71
     0
 72
     0
 73
     0
 74
     0
 75
     0
 76
     0
 77
     1
 78
     8
170
     0
171
     0
172
     1
173
     0
174
     0
175
     0
176
   256
177
   256
178
     2
  0
ENDTAB
  0
ENDSEC
  0
SECTION
  2
BLOCKS
  0
BLOCK
  8
0
  2
$MODEL_SPACE
 70
     0
 10
0.0
 20
0.0
 30
0.0
  3
$MODEL_SPACE
  1

  0
ENDBLK
  5
37
  8
0
  0
BLOCK
 67
     1
  8
0
  2
$PAPER_SPACE
 70
     0
 10
0.0
 20
0.0
 30
0.0
  3
$PAPER_SPACE
  1

  0
ENDBLK
  5
35
 67
     1
  8
0
  0
BLOCK
  8
0
  2
BYGG-023125$0$BORST_9
 70
     0
 10
0.0
 20
0.0
 30
0.0
  3
BYGG-023125$0$BORST_9
  1

  0
POLYLINE
  5
176E
  8
BYGG-023125$0$LIST
 66
     1
 10
0.0
 20
0.0
 30
0.0
 70
     1
  0
VERTEX
  5
1A92
  8
BYGG-023125$0$LIST
 10
32.117949192431162
 20
1.9000000000000901
 30
0.0
  0
VERTEX
  5
1A93
  8
BYGG-023125$0$LIST
 10
32.117949192431162
 20
2.7000000000000912
 30
0.0
  0
VERTEX
  5
1A94
  8
BYGG-023125$0$LIST
 10
25.417949192431159
 20
2.7000000000000912
 30
0.0
  0
VERTEX
  5
1A95
  8
BYGG-023125$0$LIST
 10
25.417949192431159
 20
1.9000000000000901
 30
0.0
  0
SEQEND
  5
1A96
  8
BYGG-023125$0$LIST
  0
POLYLINE
  5
176F
  8
BYGG-023125$0$LIST
 66
     1
 10
0.0
 20
0.0
 30
0.0
  0
VERTEX
  5
1A97
  8
BYGG-023125$0$LIST
 10
28.263363943662679
 20
2.7000000000000912
 30
0.0
  0
VERTEX
  5
1A98
  8
BYGG-023125$0$LIST
 10
26.769574652555221
 20
10.03407417371101
 30
0.0
  0
SEQEND
  5
1A99
  8
BYGG-023125$0$LIST
  0
POLYLINE
  5
1770
  8
BYGG-023125$0$LIST
 66
     1
 10
0.0
 20
0.0
 30
0.0
  0
VERTEX
  5
1A9A
  8
BYGG-023125$0$LIST
 10
28.553855340273739
 20
2.7000000000000339
 30
0.0
  0
VERTEX
  5
1A9B
  8
BYGG-023125$0$LIST
 10
27.93644453893258
 20
10.03407417371101
 30
0.0
  0
SEQEND
  5
1A9C
  8
BYGG-023125$0$LIST
  0
POLYLINE
  5
1771
  8
BYGG-023125$0$LIST
 66
     1
 10
0.0
 20
0.0
 30
0.0
  0
VERTEX
  5
1A9D
  8
BYGG-023125$0$LIST
 10
29.012314217007489
 20
2.7000000000000339
 30
0.0
  0
VERTEX
  5
1A9E
  8
BYGG-023125$0$LIST
 10
30.000741956894529
 20
10.03407417371101
 30
0.0
  0
SEQEND
  5
1A9F
  8
BYGG-023125$0$LIST
  0
POLYLINE
  5
1772
  8
BYGG-023125$0$LIST
 66
     1
 10
0.0
 20
0.0
 30
0.0
  0
VERTEX
  5
1AA0
  8
BYGG-023125$0$LIST
 10
29.18507150798786
 20
2.7000000000000339
 30
0.0
  0
VERTEX
  5
1AA1
  8
BYGG-023125$0$LIST
 10
30.980798090752462
 20
10.03407417371101
 30
0.0
  0
SEQEND
  5
1AA2
  8
BYGG-023125$0$LIST
  0
LINE
  5
1773
  8
0
 10
28.667949192431159
 20
10.03407417371101
 30
0.0
 11
28.867949192431169
 21
10.03407417371101
 31
0.0
  0
LINE
  5
1774
  8
0
 10
28.867949192431158
 20
2.7000000000000912
 30
0.0
 11
28.867949192431169
 21
10.03407417371101
 31
0.0
  0
LINE
  5
1775
  8
0
 10
28.667949192431159
 20
2.7000000000000912
 30
0.0
 11
28.667949192431159
 21
10.03407417371101
 31
0.0
  0
ENDBLK
  5
1776
  8
0
  0
BLOCK
  8
0
  2
*D105
 70
     1
 10
0.0
 20
0.0
 30
0.0
  3
*D105
  1

  0
LINE
  5
1A18
  8
SAPA_MATT
 10
44.499999999996362
 20
26.000000373538121
 30
0.0
 11
44.499999999996362
 21
46.500000373538278
 31
0.0
  0
LINE
  5
1A19
  8
SAPA_MATT
 10
-35.499999999999893
 20
25.774999999997021
 30
0.0
 11
-35.499999999999893
 21
46.500000373538278
 31
0.0
  0
LINE
  5
1A1A
  8
SAPA_MATT
 10
41.499999999996362
 20
45.000000373538278
 30
0.0
 11
-32.499999999999893
 21
45.000000373538278
 31
0.0
  0
SOLID
  5
1A1B
  8
SAPA_MATT
 10
41.499999999996362
 20
45.500000373538278
 30
0.0
 11
41.499999999996362
 21
44.500000373538278
 31
0.0
 12
44.499999999996362
 22
45.000000373538278
 32
0.0
 13
44.499999999996362
 23
45.000000373538278
 33
0.0
  0
SOLID
  5
1A1C
  8
SAPA_MATT
 10
-32.499999999999893
 20
45.500000373538278
 30
0.0
 11
-32.499999999999893
 21
44.500000373538278
 31
0.0
 12
-35.499999999999893
 22
45.000000373538278
 32
0.0
 13
-35.499999999999893
 23
45.000000373538278
 33
0.0
  0
INSERT
  5
1A1D
  8
0
  2
*U123
 10
0.0
 20
0.0
 30
0.0
  0
POINT
  5
1A1E
  8
DEFPOINTS
 62
     0
 10
44.499999999996362
 20
24.500000373538121
 30
0.0
  0
POINT
  5
1A1F
  8
DEFPOINTS
 62
     0
 10
-35.499999999999893
 20
24.274999999997021
 30
0.0
  0
POINT
  5
1A20
  8
DEFPOINTS
 62
     0
 10
-35.499999999999893
 20
45.000000373538278
 30
0.0
  0
ENDBLK
  5
19E4
  8
0
  0
BLOCK
  8
0
  2
*D106
 70
     1
 10
0.0
 20
0.0
 30
0.0
  3
*D106
  1

  0
LINE
  5
1A0F
  8
SAPA_MATT
 10
44.499999999996433
 20
26.000000373538111
 30
0.0
 11
44.499999999996433
 21
46.500000373538271
 31
0.0
  0
LINE
  5
1A10
  8
SAPA_MATT
 10
54.499999999996362
 20
1.2000003735378111
 30
0.0
 11
54.499999999996362
 21
46.500000373538271
 31
0.0
  0
LINE
  5
1A11
  8
SAPA_MATT
 10
47.499999999996419
 20
45.000000373538271
 30
0.0
 11
51.499999999996369
 21
45.000000373538271
 31
0.0
  0
SOLID
  5
1A12
  8
SAPA_MATT
 10
47.499999999996419
 20
45.500000373538278
 30
0.0
 11
47.499999999996419
 21
44.500000373538271
 31
0.0
 12
44.499999999996433
 22
45.000000373538271
 32
0.0
 13
44.499999999996433
 23
45.000000373538271
 33
0.0
  0
SOLID
  5
1A13
  8
SAPA_MATT
 10
51.499999999996369
 20
45.500000373538278
 30
0.0
 11
51.499999999996369
 21
44.500000373538271
 31
0.0
 12
54.499999999996362
 22
45.000000373538271
 32
0.0
 13
54.499999999996362
 23
45.000000373538271
 33
0.0
  0
INSERT
  5
1A14
  8
0
  2
*U122
 10
0.0
 20
0.0
 30
0.0
  0
POINT
  5
1A15
  8
DEFPOINTS
 62
     0
 10
44.499999999996433
 20
24.500000373538111
 30
0.0
  0
POINT
  5
1A16
  8
DEFPOINTS
 62
     0
 10
54.499999999996362
 20
-0.2999996264621885
 30
0.0
  0
POINT
  5
1A17
  8
DEFPOINTS
 62
     0
 10
54.499999999996362
 20
45.000000373538271
 30
0.0
  0
ENDBLK
  5
19F0
  8
0
  0
BLOCK
  8
0
  2
*D107
 70
     1
 10
0.0
 20
0.0
 30
0.0
  3
*D107
  1

  0
LINE
  5
2557
  8
SAPA_MATT
 10
54.499999999996362
 20
1.2000003735378111
 30
0.0
 11
54.499999999996362
 21
46.515680300981693
 31
0.0
  0
LINE
  5
2558
  8
SAPA_MATT
 10
104.4999999999964
 20
1.2000003735378111
 30
0.0
 11
104.4999999999964
 21
46.515680300981693
 31
0.0
  0
LINE
  5
2559
  8
SAPA_MATT
 10
57.499999999996369
 20
45.015680300981693
 30
0.0
 11
101.4999999999964
 21
45.015680300981693
 31
0.0
  0
SOLID
  5
255A
  8
SAPA_MATT
 10
57.499999999996369
 20
45.515680300981693
 30
0.0
 11
57.499999999996369
 21
44.515680300981693
 31
0.0
 12
54.499999999996362
 22
45.015680300981693
 32
0.0
 13
54.499999999996362
 23
45.015680300981693
 33
0.0
  0
SOLID
  5
255B
  8
SAPA_MATT
 10
101.4999999999964
 20
45.515680300981693
 30
0.0
 11
101.4999999999964
 21
44.515680300981693
 31
0.0
 12
104.4999999999964
 22
45.015680300981693
 32
0.0
 13
104.4999999999964
 23
45.015680300981693
 33
0.0
  0
TEXT
  8
SAPA_MATT
  40
3
  5
2568
  62
2
  72
0
  71
0
 10
73.5000
 20
42.2057
 30
0.000000
  1
50
  7
ISO
  0
POINT
  5
255D
  8
DEFPOINTS
 62
     0
 10
54.499999999996362
 20
-0.2999996264621885
 30
0.0
  0
POINT
  5
255E
  8
DEFPOINTS
 62
     0
 10
104.4999999999964
 20
-0.2999996264621885
 30
0.0
  0
POINT
  5
255F
  8
DEFPOINTS
 62
     0
 10
104.4999999999964
 20
45.015680300981693
 30
0.0
  0
ENDBLK
  5
19FC
  8
0
  0
BLOCK
  8
0
  2
*U108
 70
     1
 10
0.0
 20
0.0
 30
0.0
  3
*U108
  1

  0
TEXT
  5
1A71
  8
SAPA_ARTIKELNR
 10
38.286626583835528
 20
-7.0216004497589548
 30
0.0
 40
3.5
  1
68653
 50
89.999999999999986
  7
ISO
  0
ENDBLK
  5
1A73
  8
0
  0
BLOCK
  8
0
  2
*U109
 70
     1
 10
0.0
 20
0.0
 30
0.0
  3
*U109
  1

  0
TEXT
  5
1A75
  8
SAPA_ARTIKELNR
 10
52.582217353689721
 20
-2.783368823310282
 30
0.0
 40
3.5
  1
52070
 50
89.999999999999986
  7
ISO
  0
ENDBLK
  5
1A77
  8
0
  0
BLOCK
  8
0
  2
*U110
 70
     1
 10
0.0
 20
0.0
 30
0.0
  3
*U110
  1

  0
TEXT
  5
1A79
  8
SAPA_ARTIKELNR
 10
109.8472202149028
 20
-32.196907918364928
 30
0.0
 40
3.5
  1
68074
 50
89.999999999999986
  7
ISO
  0
ENDBLK
  5
1A7B
  8
0
  0
BLOCK
  8
0
  2
*U111
 70
     1
 10
0.0
 20
0.0
 30
0.0
  3
*U111
  1

  0
TEXT
  5
1A7D
  8
SAPA_ARTIKELNR
 10
110.20121674069929
 20
-75.283351000033122
 30
0.0
 40
3.5
  1
42072
 50
89.999999999999986
  7
ISO
  0
ENDBLK
  5
1A7F
  8
0
  0
BLOCK
  8
0
  2
*X112
 70
     1
 10
0.0
 20
0.0
 30
0.0
  3
*X112
  1

  0
LINE
  5
21DB
  8
0
 62
     0
 10
-69.822305089622773
 20
10.999999999999609
 30
0.0
 11
-68.999999999999474
 21
11.82230508962291
 31
0.0
  0
LINE
  5
21DC
  8
0
 62
     0
 10
-70.944837104756417
 20
10.99999999999962
 30
0.0
 11
-68.999999999999474
 21
12.94483710475656
 31
0.0
  0
LINE
  5
21DD
  8
0
 62
     0
 10
-71.999999999999488
 20
11.06736911989019
 30
0.0
 11
-68.999999999999474
 21
14.0673691198902
 31
0.0
  0
LINE
  5
21DE
  8
0
 62
     0
 10
-71.999999999999488
 20
12.189901135023829
 30
0.0
 11
-68.999999999999474
 21
15.18990113502384
 31
0.0
  0
LINE
  5
21DF
  8
0
 62
     0
 10
-71.999999999999488
 20
13.31243315015748
 30
0.0
 11
-68.999999999999474
 21
16.312433150157482
 31
0.0
  0
LINE
  5
21E0
  8
0
 62
     0
 10
-71.999999999999488
 20
14.43496516529112
 30
0.0
 11
-68.999999999999474
 21
17.434965165291128
 31
0.0
  0
LINE
  5
21E1
  8
0
 62
     0
 10
-71.999999999999488
 20
15.557497180424759
 30
0.0
 11
-68.999999999999474
 21
18.557497180424772
 31
0.0
  0
LINE
  5
21E2
  8
0
 62
     0
 10
-71.999999999999488
 20
16.680029195558401
 30
0.0
 11
-68.999999999999474
 21
19.680029195558411
 31
0.0
  0
LINE
  5
21E3
  8
0
 62
     0
 10
-71.999999999999488
 20
17.802561210692051
 30
0.0
 11
-68.999999999999474
 21
20.802561210692058
 31
0.0
  0
LINE
  5
21E4
  8
0
 62
     0
 10
-71.999999999999488
 20
18.925093225825691
 30
0.0
 11
-68.999999999999474
 21
21.925093225825702
 31
0.0
  0
LINE
  5
21E5
  8
0
 62
     0
 10
-71.999999999999488
 20
20.047625240959341
 30
0.0
 11
-68.999999999999474
 21
23.047625240959349
 31
0.0
  0
LINE
  5
21E6
  8
0
 62
     0
 10
-72.190755116731424
 20
20.979402139361049
 30
0.0
 11
-68.999999999999474
 21
24.170157256092988
 31
0.0
  0
LINE
  5
21E7
  8
0
 62
     0
 10
-82.170157256092864
 20
10.999999999999609
 30
0.0
 11
-81.999999999999488
 21
11.17015725609299
 31
0.0
  0
LINE
  5
21E8
  8
0
 62
     0
 10
-73.292689271226493
 20
20.999999999999631
 30
0.0
 11
-68.999999999999474
 21
25.292689271226639
 31
0.0
  0
LINE
  5
21E9
  8
0
 62
     0
 10
-83.292689271226493
 20
10.99999999999962
 30
0.0
 11
-81.999999999999488
 21
12.29268927122664
 31
0.0
  0
LINE
  5
21EA
  8
0
 62
     0
 10
-74.415221286360151
 20
20.99999999999962
 30
0.0
 11
-69.415221286360151
 21
25.99999999999962
 31
0.0
  0
LINE
  5
21EB
  8
0
 62
     0
 10
-84.415221286360136
 20
10.99999999999962
 30
0.0
 11
-81.999999999999488
 21
13.41522128636028
 31
0.0
  0
LINE
  5
21EC
  8
0
 62
     0
 10
-75.537753301493765
 20
20.99999999999962
 30
0.0
 11
-70.537753301493765
 21
25.99999999999962
 31
0.0
  0
LINE
  5
21ED
  8
0
 62
     0
 10
-84.999999999999474
 20
11.53775330149392
 30
0.0
 11
-81.999999999999488
 21
14.537753301493931
 31
0.0
  0
LINE
  5
21EE
  8
0
 62
     0
 10
-76.660285316627423
 20
20.99999999999962
 30
0.0
 11
-71.660285316627423
 21
25.99999999999962
 31
0.0
  0
LINE
  5
21EF
  8
0
 62
     0
 10
-84.999999999999474
 20
12.66028531662756
 30
0.0
 11
-81.999999999999488
 21
15.66028531662757
 31
0.0
  0
LINE
  5
21F0
  8
0
 62
     0
 10
-77.78281733176108
 20
20.99999999999962
 30
0.0
 11
-72.78281733176108
 21
25.99999999999962
 31
0.0
  0
LINE
  5
21F1
  8
0
 62
     0
 10
-84.999999999999474
 20
13.78281733176121
 30
0.0
 11
-81.999999999999488
 21
16.782817331761208
 31
0.0
  0
LINE
  5
21F2
  8
0
 62
     0
 10
-78.905349346894724
 20
20.99999999999962
 30
0.0
 11
-73.905349346894724
 21
25.99999999999962
 31
0.0
  0
LINE
  5
21F3
  8
0
 62
     0
 10
-84.999999999999474
 20
14.90534934689485
 30
0.0
 11
-81.999999999999488
 21
17.905349346894859
 31
0.0
  0
LINE
  5
21F4
  8
0
 62
     0
 10
-80.027881362028353
 20
20.99999999999962
 30
0.0
 11
-75.027881362028367
 21
25.999999999999609
 31
0.0
  0
LINE
  5
21F5
  8
0
 62
     0
 10
-84.999999999999474
 20
16.027881362028499
 30
0.0
 11
-81.999999999999488
 21
19.027881362028499
 31
0.0
  0
LINE
  5
21F6
  8
0
 62
     0
 10
-81.15041337716201
 20
20.99999999999962
 30
0.0
 11
-76.15041337716201
 21
25.999999999999609
 31
0.0
  0
LINE
  5
21F7
  8
0
 62
     0
 10
-84.999999999999474
 20
17.150413377162138
 30
0.0
 11
-81.999999999999488
 21
20.150413377162149
 31
0.0
  0
LINE
  5
21F8
  8
0
 62
     0
 10
-84.999999999999474
 20
18.272945392295789
 30
0.0
 11
-77.272945392295668
 21
25.999999999999609
 31
0.0
  0
LINE
  5
21F9
  8
0
 62
     0
 10
-84.999999999999474
 20
19.395477407429428
 30
0.0
 11
-78.395477407429297
 21
25.99999999999962
 31
0.0
  0
LINE
  5
21FA
  8
0
 62
     0
 10
-84.999999999999474
 20
20.518009422563079
 30
0.0
 11
-79.51800942256294
 21
25.999999999999609
 31
0.0
  0
LINE
  5
21FB
  8
0
 62
     0
 10
-84.999999999999474
 20
21.640541437696719
 30
0.0
 11
-80.640541437696584
 21
25.999999999999609
 31
0.0
  0
LINE
  5
21FC
  8
0
 62
     0
 10
-84.999999999999474
 20
22.763073452830358
 30
0.0
 11
-81.763073452830241
 21
25.99999999999962
 31
0.0
  0
LINE
  5
21FD
  8
0
 62
     0
 10
-84.999999999999474
 20
23.885605467964009
 30
0.0
 11
-82.885605467963885
 21
25.999999999999609
 31
0.0
  0
LINE
  5
21FE
  8
0
 62
     0
 10
-84.999999999999474
 20
25.008137483097659
 30
0.0
 11
-84.008137483097514
 21
25.99999999999962
 31
0.0
  0
LINE
  5
21FF
  8
0
 62
     0
 10
-84.999999999999474
 20
12.03541901631265
 30
0.0
 11
-83.964580983686446
 21
10.99999999999962
 31
0.0
  0
LINE
  5
2200
  8
0
 62
     0
 10
-84.999999999999474
 20
13.15795103144629
 30
0.0
 11
-82.842048968552817
 21
10.999999999999609
 31
0.0
  0
LINE
  5
2201
  8
0
 62
     0
 10
-84.999999999999474
 20
14.28048304657994
 30
0.0
 11
-81.999999999999488
 21
11.28048304657993
 31
0.0
  0
LINE
  5
2202
  8
0
 62
     0
 10
-84.999999999999474
 20
15.40301506171358
 30
0.0
 11
-81.999999999999488
 21
12.403015061713569
 31
0.0
  0
LINE
  5
2203
  8
0
 62
     0
 10
-84.999999999999474
 20
16.525547076847221
 30
0.0
 11
-81.999999999999488
 21
13.52554707684722
 31
0.0
  0
LINE
  5
2204
  8
0
 62
     0
 10
-84.999999999999474
 20
17.648079091980868
 30
0.0
 11
-81.999999999999488
 21
14.64807909198087
 31
0.0
  0
LINE
  5
2205
  8
0
 62
     0
 10
-84.999999999999474
 20
18.770611107114512
 30
0.0
 11
-81.999999999999488
 21
15.770611107114499
 31
0.0
  0
LINE
  5
2206
  8
0
 62
     0
 10
-84.999999999999474
 20
19.893143122248151
 30
0.0
 11
-81.999999999999488
 21
16.893143122248151
 31
0.0
  0
LINE
  5
2207
  8
0
 62
     0
 10
-84.999999999999474
 20
21.015675137381798
 30
0.0
 11
-81.999999999999488
 21
18.015675137381798
 31
0.0
  0
LINE
  5
2208
  8
0
 62
     0
 10
-84.999999999999474
 20
22.138207152515449
 30
0.0
 11
-81.999999999999488
 21
19.138207152515442
 31
0.0
  0
LINE
  5
2209
  8
0
 62
     0
 10
-84.999999999999474
 20
23.260739167649099
 30
0.0
 11
-81.999999999999488
 21
20.260739167649088
 31
0.0
  0
LINE
  5
220A
  8
0
 62
     0
 10
-71.999999999999488
 20
11.38327118278273
 30
0.0
 11
-71.616728817216369
 21
10.999999999999609
 31
0.0
  0
LINE
  5
220B
  8
0
 62
     0
 10
-84.999999999999474
 20
24.383271182782732
 30
0.0
 11
-81.616728817216369
 21
20.99999999999962
 31
0.0
  0
LINE
  5
220C
  8
0
 62
     0
 10
-71.999999999999488
 20
12.50580319791637
 30
0.0
 11
-70.49419680208274
 21
10.99999999999962
 31
0.0
  0
LINE
  5
220D
  8
0
 62
     0
 10
-84.999999999999474
 20
25.505803197916389
 30
0.0
 11
-80.494196802082726
 21
20.99999999999962
 31
0.0
  0
LINE
  5
220E
  8
0
 62
     0
 10
-71.999999999999488
 20
13.62833521305002
 30
0.0
 11
-69.371664786949097
 21
10.99999999999962
 31
0.0
  0
LINE
  5
220F
  8
0
 62
     0
 10
-84.371664786949083
 20
25.999999999999609
 30
0.0
 11
-79.371664786949083
 21
20.999999999999609
 31
0.0
  0
LINE
  5
2210
  8
0
 62
     0
 10
-71.999999999999488
 20
14.75086722818366
 30
0.0
 11
-68.999999999999474
 21
11.750867228183649
 31
0.0
  0
LINE
  5
2211
  8
0
 62
     0
 10
-83.249132771815425
 20
25.999999999999609
 30
0.0
 11
-78.249132771815454
 21
20.99999999999962
 31
0.0
  0
LINE
  5
2212
  8
0
 62
     0
 10
-71.999999999999488
 20
15.8733992433173
 30
0.0
 11
-68.999999999999474
 21
12.8733992433173
 31
0.0
  0
LINE
  5
2213
  8
0
 62
     0
 10
-82.126600756681796
 20
25.99999999999962
 30
0.0
 11
-77.126600756681796
 21
20.99999999999962
 31
0.0
  0
LINE
  5
2214
  8
0
 62
     0
 10
-71.999999999999488
 20
16.995931258450948
 30
0.0
 11
-68.999999999999474
 21
13.99593125845095
 31
0.0
  0
LINE
  5
2215
  8
0
 62
     0
 10
-81.004068741548153
 20
25.99999999999962
 30
0.0
 11
-76.004068741548153
 21
20.99999999999962
 31
0.0
  0
LINE
  5
2216
  8
0
 62
     0
 10
-71.999999999999488
 20
18.118463273584592
 30
0.0
 11
-68.999999999999474
 21
15.11846327358459
 31
0.0
  0
LINE
  5
2217
  8
0
 62
     0
 10
-79.88153672641451
 20
25.999999999999609
 30
0.0
 11
-74.88153672641451
 21
20.999999999999609
 31
0.0
  0
LINE
  5
2218
  8
0
 62
     0
 10
-71.999999999999488
 20
19.240995288718231
 30
0.0
 11
-68.999999999999474
 21
16.240995288718231
 31
0.0
  0
LINE
  5
2219
  8
0
 62
     0
 10
-78.759004711280866
 20
25.999999999999609
 30
0.0
 11
-73.759004711280866
 21
20.99999999999962
 31
0.0
  0
LINE
  5
221A
  8
0
 62
     0
 10
-71.999999999999488
 20
20.363527303851878
 30
0.0
 11
-68.999999999999474
 21
17.363527303851878
 31
0.0
  0
LINE
  5
221B
  8
0
 62
     0
 10
-77.636472696147223
 20
25.99999999999962
 30
0.0
 11
-72.636472696147223
 21
20.99999999999962
 31
0.0
  0
LINE
  5
221C
  8
0
 62
     0
 10
-76.51394068101358
 20
25.99999999999962
 30
0.0
 11
-68.999999999999474
 21
18.486059318985522
 31
0.0
  0
LINE
  5
221D
  8
0
 62
     0
 10
-75.391408665879936
 20
25.999999999999609
 30
0.0
 11
-68.999999999999474
 21
19.608591334119161
 31
0.0
  0
LINE
  5
221E
  8
0
 62
     0
 10
-74.268876650746293
 20
25.99999999999962
 30
0.0
 11
-68.999999999999474
 21
20.731123349252819
 31
0.0
  0
LINE
  5
221F
  8
0
 62
     0
 10
-73.14634463561265
 20
25.99999999999962
 30
0.0
 11
-68.999999999999474
 21
21.853655364386459
 31
0.0
  0
LINE
  5
2220
  8
0
 62
     0
 10
-72.023812620478992
 20
25.99999999999962
 30
0.0
 11
-68.999999999999474
 21
22.976187379520098
 31
0.0
  0
LINE
  5
2221
  8
0
 62
     0
 10
-70.901280605345363
 20
25.99999999999962
 30
0.0
 11
-68.999999999999474
 21
24.098719394653749
 31
0.0
  0
LINE
  5
2222
  8
0
 62
     0
 10
-69.77874859021172
 20
25.99999999999962
 30
0.0
 11
-68.999999999999474
 21
25.221251409787389
 31
0.0
  0
ENDBLK
  5
2224
  8
0
  0
BLOCK
  8
0
  2
*X113
 70
     1
 10
0.0
 20
0.0
 30
0.0
  3
*X113
  1

  0
LINE
  5
224C
  8
0
 62
     0
 10
-69.822305089622773
 20
10.999999999999609
 30
0.0
 11
-68.999999999999474
 21
11.82230508962291
 31
0.0
  0
LINE
  5
224D
  8
0
 62
     0
 10
-70.944837104756417
 20
10.99999999999962
 30
0.0
 11
-68.999999999999474
 21
12.94483710475656
 31
0.0
  0
LINE
  5
224E
  8
0
 62
     0
 10
-71.999999999999488
 20
11.06736911989019
 30
0.0
 11
-68.999999999999474
 21
14.0673691198902
 31
0.0
  0
LINE
  5
224F
  8
0
 62
     0
 10
-71.999999999999488
 20
12.189901135023829
 30
0.0
 11
-68.999999999999474
 21
15.18990113502384
 31
0.0
  0
LINE
  5
2250
  8
0
 62
     0
 10
-71.999999999999488
 20
13.31243315015748
 30
0.0
 11
-68.999999999999474
 21
16.312433150157482
 31
0.0
  0
LINE
  5
2251
  8
0
 62
     0
 10
-71.999999999999488
 20
14.43496516529112
 30
0.0
 11
-68.999999999999474
 21
17.434965165291128
 31
0.0
  0
LINE
  5
2252
  8
0
 62
     0
 10
-71.999999999999488
 20
15.557497180424759
 30
0.0
 11
-68.999999999999474
 21
18.557497180424772
 31
0.0
  0
LINE
  5
2253
  8
0
 62
     0
 10
-71.999999999999488
 20
16.680029195558401
 30
0.0
 11
-68.999999999999474
 21
19.680029195558411
 31
0.0
  0
LINE
  5
2254
  8
0
 62
     0
 10
-71.999999999999488
 20
17.802561210692051
 30
0.0
 11
-68.999999999999474
 21
20.802561210692058
 31
0.0
  0
LINE
  5
2255
  8
0
 62
     0
 10
-71.999999999999488
 20
18.925093225825691
 30
0.0
 11
-68.999999999999474
 21
21.925093225825702
 31
0.0
  0
LINE
  5
2256
  8
0
 62
     0
 10
-71.999999999999488
 20
20.047625240959341
 30
0.0
 11
-68.999999999999474
 21
23.047625240959349
 31
0.0
  0
LINE
  5
2257
  8
0
 62
     0
 10
-72.190755116731424
 20
20.979402139361049
 30
0.0
 11
-68.999999999999474
 21
24.170157256092988
 31
0.0
  0
LINE
  5
2258
  8
0
 62
     0
 10
-82.170157256092864
 20
10.999999999999609
 30
0.0
 11
-81.999999999999488
 21
11.17015725609299
 31
0.0
  0
LINE
  5
2259
  8
0
 62
     0
 10
-73.292689271226493
 20
20.999999999999631
 30
0.0
 11
-68.999999999999474
 21
25.292689271226639
 31
0.0
  0
LINE
  5
225A
  8
0
 62
     0
 10
-83.292689271226493
 20
10.99999999999962
 30
0.0
 11
-81.999999999999488
 21
12.29268927122664
 31
0.0
  0
LINE
  5
225B
  8
0
 62
     0
 10
-74.415221286360151
 20
20.99999999999962
 30
0.0
 11
-69.415221286360151
 21
25.99999999999962
 31
0.0
  0
LINE
  5
225C
  8
0
 62
     0
 10
-84.415221286360136
 20
10.99999999999962
 30
0.0
 11
-81.999999999999488
 21
13.41522128636028
 31
0.0
  0
LINE
  5
225D
  8
0
 62
     0
 10
-75.537753301493765
 20
20.99999999999962
 30
0.0
 11
-70.537753301493765
 21
25.99999999999962
 31
0.0
  0
LINE
  5
225E
  8
0
 62
     0
 10
-84.999999999999474
 20
11.53775330149392
 30
0.0
 11
-81.999999999999488
 21
14.537753301493931
 31
0.0
  0
LINE
  5
225F
  8
0
 62
     0
 10
-76.660285316627423
 20
20.99999999999962
 30
0.0
 11
-71.660285316627423
 21
25.99999999999962
 31
0.0
  0
LINE
  5
2260
  8
0
 62
     0
 10
-84.999999999999474
 20
12.66028531662756
 30
0.0
 11
-81.999999999999488
 21
15.66028531662757
 31
0.0
  0
LINE
  5
2261
  8
0
 62
     0
 10
-77.78281733176108
 20
20.99999999999962
 30
0.0
 11
-72.78281733176108
 21
25.99999999999962
 31
0.0
  0
LINE
  5
2262
  8
0
 62
     0
 10
-84.999999999999474
 20
13.78281733176121
 30
0.0
 11
-81.999999999999488
 21
16.782817331761208
 31
0.0
  0
LINE
  5
2263
  8
0
 62
     0
 10
-78.905349346894724
 20
20.99999999999962
 30
0.0
 11
-73.905349346894724
 21
25.99999999999962
 31
0.0
  0
LINE
  5
2264
  8
0
 62
     0
 10
-84.999999999999474
 20
14.90534934689485
 30
0.0
 11
-81.999999999999488
 21
17.905349346894859
 31
0.0
  0
LINE
  5
2265
  8
0
 62
     0
 10
-80.027881362028353
 20
20.99999999999962
 30
0.0
 11
-75.027881362028367
 21
25.999999999999609
 31
0.0
  0
LINE
  5
2266
  8
0
 62
     0
 10
-84.999999999999474
 20
16.027881362028499
 30
0.0
 11
-81.999999999999488
 21
19.027881362028499
 31
0.0
  0
LINE
  5
2267
  8
0
 62
     0
 10
-81.15041337716201
 20
20.99999999999962
 30
0.0
 11
-76.15041337716201
 21
25.999999999999609
 31
0.0
  0
LINE
  5
2268
  8
0
 62
     0
 10
-84.999999999999474
 20
17.150413377162138
 30
0.0
 11
-81.999999999999488
 21
20.150413377162149
 31
0.0
  0
LINE
  5
2269
  8
0
 62
     0
 10
-84.999999999999474
 20
18.272945392295789
 30
0.0
 11
-77.272945392295668
 21
25.999999999999609
 31
0.0
  0
LINE
  5
226A
  8
0
 62
     0
 10
-84.999999999999474
 20
19.395477407429428
 30
0.0
 11
-78.395477407429297
 21
25.99999999999962
 31
0.0
  0
LINE
  5
226B
  8
0
 62
     0
 10
-84.999999999999474
 20
20.518009422563079
 30
0.0
 11
-79.51800942256294
 21
25.999999999999609
 31
0.0
  0
LINE
  5
226C
  8
0
 62
     0
 10
-84.999999999999474
 20
21.640541437696719
 30
0.0
 11
-80.640541437696584
 21
25.999999999999609
 31
0.0
  0
LINE
  5
226D
  8
0
 62
     0
 10
-84.999999999999474
 20
22.763073452830358
 30
0.0
 11
-81.763073452830241
 21
25.99999999999962
 31
0.0
  0
LINE
  5
226E
  8
0
 62
     0
 10
-84.999999999999474
 20
23.885605467964009
 30
0.0
 11
-82.885605467963885
 21
25.999999999999609
 31
0.0
  0
LINE
  5
226F
  8
0
 62
     0
 10
-84.999999999999474
 20
25.008137483097659
 30
0.0
 11
-84.008137483097514
 21
25.99999999999962
 31
0.0
  0
LINE
  5
2270
  8
0
 62
     0
 10
-84.999999999999474
 20
12.03541901631265
 30
0.0
 11
-83.964580983686446
 21
10.99999999999962
 31
0.0
  0
LINE
  5
2271
  8
0
 62
     0
 10
-84.999999999999474
 20
13.15795103144629
 30
0.0
 11
-82.842048968552817
 21
10.999999999999609
 31
0.0
  0
LINE
  5
2272
  8
0
 62
     0
 10
-84.999999999999474
 20
14.28048304657994
 30
0.0
 11
-81.999999999999488
 21
11.28048304657993
 31
0.0
  0
LINE
  5
2273
  8
0
 62
     0
 10
-84.999999999999474
 20
15.40301506171358
 30
0.0
 11
-81.999999999999488
 21
12.403015061713569
 31
0.0
  0
LINE
  5
2274
  8
0
 62
     0
 10
-84.999999999999474
 20
16.525547076847221
 30
0.0
 11
-81.999999999999488
 21
13.52554707684722
 31
0.0
  0
LINE
  5
2275
  8
0
 62
     0
 10
-84.999999999999474
 20
17.648079091980868
 30
0.0
 11
-81.999999999999488
 21
14.64807909198087
 31
0.0
  0
LINE
  5
2276
  8
0
 62
     0
 10
-84.999999999999474
 20
18.770611107114512
 30
0.0
 11
-81.999999999999488
 21
15.770611107114499
 31
0.0
  0
LINE
  5
2277
  8
0
 62
     0
 10
-84.999999999999474
 20
19.893143122248151
 30
0.0
 11
-81.999999999999488
 21
16.893143122248151
 31
0.0
  0
LINE
  5
2278
  8
0
 62
     0
 10
-84.999999999999474
 20
21.015675137381798
 30
0.0
 11
-81.999999999999488
 21
18.015675137381798
 31
0.0
  0
LINE
  5
2279
  8
0
 62
     0
 10
-84.999999999999474
 20
22.138207152515449
 30
0.0
 11
-81.999999999999488
 21
19.138207152515442
 31
0.0
  0
LINE
  5
227A
  8
0
 62
     0
 10
-84.999999999999474
 20
23.260739167649099
 30
0.0
 11
-81.999999999999488
 21
20.260739167649088
 31
0.0
  0
LINE
  5
227B
  8
0
 62
     0
 10
-71.999999999999488
 20
11.38327118278273
 30
0.0
 11
-71.616728817216369
 21
10.999999999999609
 31
0.0
  0
LINE
  5
227C
  8
0
 62
     0
 10
-84.999999999999474
 20
24.383271182782732
 30
0.0
 11
-81.616728817216369
 21
20.99999999999962
 31
0.0
  0
LINE
  5
227D
  8
0
 62
     0
 10
-71.999999999999488
 20
12.50580319791637
 30
0.0
 11
-70.49419680208274
 21
10.99999999999962
 31
0.0
  0
LINE
  5
227E
  8
0
 62
     0
 10
-84.999999999999474
 20
25.505803197916389
 30
0.0
 11
-80.494196802082726
 21
20.99999999999962
 31
0.0
  0
LINE
  5
227F
  8
0
 62
     0
 10
-71.999999999999488
 20
13.62833521305002
 30
0.0
 11
-69.371664786949097
 21
10.99999999999962
 31
0.0
  0
LINE
  5
2280
  8
0
 62
     0
 10
-84.371664786949083
 20
25.999999999999609
 30
0.0
 11
-79.371664786949083
 21
20.999999999999609
 31
0.0
  0
LINE
  5
2281
  8
0
 62
     0
 10
-71.999999999999488
 20
14.75086722818366
 30
0.0
 11
-68.999999999999474
 21
11.750867228183649
 31
0.0
  0
LINE
  5
2282
  8
0
 62
     0
 10
-83.249132771815425
 20
25.999999999999609
 30
0.0
 11
-78.249132771815454
 21
20.99999999999962
 31
0.0
  0
LINE
  5
2283
  8
0
 62
     0
 10
-71.999999999999488
 20
15.8733992433173
 30
0.0
 11
-68.999999999999474
 21
12.8733992433173
 31
0.0
  0
LINE
  5
2284
  8
0
 62
     0
 10
-82.126600756681796
 20
25.99999999999962
 30
0.0
 11
-77.126600756681796
 21
20.99999999999962
 31
0.0
  0
LINE
  5
2285
  8
0
 62
     0
 10
-71.999999999999488
 20
16.995931258450948
 30
0.0
 11
-68.999999999999474
 21
13.99593125845095
 31
0.0
  0
LINE
  5
2286
  8
0
 62
     0
 10
-81.004068741548153
 20
25.99999999999962
 30
0.0
 11
-76.004068741548153
 21
20.99999999999962
 31
0.0
  0
LINE
  5
2287
  8
0
 62
     0
 10
-71.999999999999488
 20
18.118463273584592
 30
0.0
 11
-68.999999999999474
 21
15.11846327358459
 31
0.0
  0
LINE
  5
2288
  8
0
 62
     0
 10
-79.88153672641451
 20
25.999999999999609
 30
0.0
 11
-74.88153672641451
 21
20.999999999999609
 31
0.0
  0
LINE
  5
2289
  8
0
 62
     0
 10
-71.999999999999488
 20
19.240995288718231
 30
0.0
 11
-68.999999999999474
 21
16.240995288718231
 31
0.0
  0
LINE
  5
228A
  8
0
 62
     0
 10
-78.759004711280866
 20
25.999999999999609
 30
0.0
 11
-73.759004711280866
 21
20.99999999999962
 31
0.0
  0
LINE
  5
228B
  8
0
 62
     0
 10
-71.999999999999488
 20
20.363527303851878
 30
0.0
 11
-68.999999999999474
 21
17.363527303851878
 31
0.0
  0
LINE
  5
228C
  8
0
 62
     0
 10
-77.636472696147223
 20
25.99999999999962
 30
0.0
 11
-72.636472696147223
 21
20.99999999999962
 31
0.0
  0
LINE
  5
228D
  8
0
 62
     0
 10
-76.51394068101358
 20
25.99999999999962
 30
0.0
 11
-68.999999999999474
 21
18.486059318985522
 31
0.0
  0
LINE
  5
228E
  8
0
 62
     0
 10
-75.391408665879936
 20
25.999999999999609
 30
0.0
 11
-68.999999999999474
 21
19.608591334119161
 31
0.0
  0
LINE
  5
228F
  8
0
 62
     0
 10
-74.268876650746293
 20
25.99999999999962
 30
0.0
 11
-68.999999999999474
 21
20.731123349252819
 31
0.0
  0
LINE
  5
2290
  8
0
 62
     0
 10
-73.14634463561265
 20
25.99999999999962
 30
0.0
 11
-68.999999999999474
 21
21.853655364386459
 31
0.0
  0
LINE
  5
2291
  8
0
 62
     0
 10
-72.023812620478992
 20
25.99999999999962
 30
0.0
 11
-68.999999999999474
 21
22.976187379520098
 31
0.0
  0
LINE
  5
2292
  8
0
 62
     0
 10
-70.901280605345363
 20
25.99999999999962
 30
0.0
 11
-68.999999999999474
 21
24.098719394653749
 31
0.0
  0
LINE
  5
2293
  8
0
 62
     0
 10
-69.77874859021172
 20
25.99999999999962
 30
0.0
 11
-68.999999999999474
 21
25.221251409787389
 31
0.0
  0
ENDBLK
  5
2295
  8
0
  0
BLOCK
  8
0
  2
*X114
 70
     1
 10
0.0
 20
0.0
 30
0.0
  3
*X114
  1

  0
LINE
  5
22A6
  8
0
 62
     0
 10
-82.772121137541816
 20
-11.000000000031481
 30
0.0
 11
-82.637650450015926
 21
-10.86552931250559
 31
0.0
  0
LINE
  5
22A7
  8
0
 62
     0
 10
-83.894653152673527
 20
-11.00000000002955
 30
0.0
 11
-82.883197493681365
 21
-9.9885443410373789
 31
0.0
  0
LINE
  5
22A8
  8
0
 62
     0
 10
-85.01718516780528
 20
-11.000000000027651
 30
0.0
 11
-83.12874453734679
 21
-9.1115593695691643
 31
0.0
  0
LINE
  5
22A9
  8
0
 62
     0
 10
-86.139717182937005
 20
-11.000000000025731
 30
0.0
 11
-83.374291581012216
 21
-8.2345743981009534
 31
0.0
  0
LINE
  5
22AA
  8
0
 62
     0
 10
-87.262249198068716
 20
-11.00000000002381
 30
0.0
 11
-83.528578936912311
 21
-7.2663297388674053
 31
0.0
  0
LINE
  5
22AB
  8
0
 62
     0
 10
-88.384781213200455
 20
-11.000000000021901
 30
0.0
 11
-83.657848360702218
 21
-6.2730671475236539
 31
0.0
  0
LINE
  5
22AC
  8
0
 62
     0
 10
-89.507313228332194
 20
-11.000000000019989
 30
0.0
 11
-83.769661015480963
 21
-5.2623477871687783
 31
0.0
  0
LINE
  5
22AD
  8
0
 62
     0
 10
-90.629845243463933
 20
-11.00000000001809
 30
0.0
 11
-83.863183995404754
 21
-4.2333387519589252
 31
0.0
  0
LINE
  5
22AE
  8
0
 62
     0
 10
-91.752377258595644
 20
-11.00000000001617
 30
0.0
 11
-83.937493222386266
 21
-3.1851159638067861
 31
0.0
  0
LINE
  5
22AF
  8
0
 62
     0
 10
-92.63859575423426
 20
-10.76368648052112
 30
0.0
 11
-83.991559255009705
 21
-2.1166499812965749
 31
0.0
  0
LINE
  5
22B0
  8
0
 62
     0
 10
-92.275096537494022
 20
-9.2776552486472426
 30
0.0
 11
-84.024230077429664
 21
-1.0267887885829119
 31
0.0
  0
LINE
  5
22B1
  8
0
 62
     0
 10
-91.960181762782625
 20
-7.8402084588022163
 30
0.0
 11
-84.034210042228665
 21
0.0857632617517652
 31
0.0
  0
LINE
  5
22B2
  8
0
 62
     0
 10
-91.68872101207478
 20
-6.4462156929607062
 30
0.0
 11
-84.020033859507151
 21
1.2224714596069071
 31
0.0
  0
LINE
  5
22B3
  8
0
 62
     0
 10
-91.456488003482917
 20
-5.0914506692352068
 30
0.0
 11
-83.980034125615205
 21
2.3850032086324968
 31
0.0
  0
LINE
  5
22B4
  8
0
 62
     0
 10
-91.259951454389963
 20
-3.7723821050086239
 30
0.0
 11
-83.912300310358333
 21
3.5752690390230191
 31
0.0
  0
LINE
  5
22B5
  8
0
 62
     0
 10
-91.096124457974412
 20
-2.4860230934594152
 30
0.0
 11
-83.814626277909795
 21
4.7954750866051929
 31
0.0
  0
LINE
  5
22B6
  8
0
 62
     0
 10
-90.962453508954908
 20
-1.229820129306276
 30
0.0
 11
-83.684442151563559
 21
6.0481912280850869
 31
0.0
  0
LINE
  5
22B7
  8
0
 62
     0
 10
-90.856735110016473
 20
-0.00156971523419
 30
0.0
 11
-83.518724389807289
 21
7.3364410049749997
 31
0.0
  0
LINE
  5
22B8
  8
0
 62
     0
 10
-90.777052007897765
 20
1.2006454020181601
 30
0.0
 11
-83.245795453519705
 21
8.7319019563962144
 31
0.0
  0
LINE
  5
22B9
  8
0
 62
     0
 10
-90.721723684539967
 20
2.3785057405096022
 30
0.0
 11
-82.848640955647866
 21
10.2515884694017
 31
0.0
  0
LINE
  5
22BA
  8
0
 62
     0
 10
-90.689267386962655
 20
3.533494053220557
 30
0.0
 11
-83.222761440183604
 21
10.9999999999996
 31
0.0
  0
LINE
  5
22BB
  8
0
 62
     0
 10
-90.678367073829506
 20
4.6669263814873432
 30
0.0
 11
-84.345293455317275
 21
10.99999999999959
 31
0.0
  0
LINE
  5
22BC
  8
0
 62
     0
 10
-90.687848395042096
 20
5.7799770754083957
 30
0.0
 11
-85.467825470450876
 21
10.999999999999609
 31
0.0
  0
LINE
  5
22BD
  8
0
 62
     0
 10
-90.716658328964854
 20
6.8736991566192813
 30
0.0
 11
-86.590357485584548
 21
10.9999999999996
 31
0.0
  0
LINE
  5
22BE
  8
0
 62
     0
 10
-90.763848458107532
 20
7.9490410426102613
 30
0.0
 11
-87.712889500718177
 21
10.9999999999996
 31
0.0
  0
LINE
  5
22BF
  8
0
 62
     0
 10
-90.828561117867935
 20
9.0068603979835018
 30
0.0
 11
-88.835421515851834
 21
10.999999999999609
 31
0.0
  0
LINE
  5
22C0
  8
0
 62
     0
 10
-90.910017836441313
 20
10.047935694543771
 30
0.0
 11
-89.957953530985463
 21
10.999999999999609
 31
0.0
  0
LINE
  5
22C1
  8
0
 62
     0
 10
-92.626437273703544
 20
-10.716435949634651
 30
0.0
 11
-92.342873223323039
 21
-11.000000000015159
 31
0.0
  0
LINE
  5
22C2
  8
0
 62
     0
 10
-92.402689686617322
 20
-9.8176515215872371
 30
0.0
 11
-91.220341208187477
 21
-11.00000000001709
 31
0.0
  0
LINE
  5
22C3
  8
0
 62
     0
 10
-92.190528123500485
 20
-8.9072810695704305
 30
0.0
 11
-90.097809193051916
 21
-11.000000000018989
 31
0.0
  0
LINE
  5
22C4
  8
0
 62
     0
 10
-91.990283618829395
 20
-7.9849935591078767
 30
0.0
 11
-88.975277177916354
 21
-11.00000000002092
 31
0.0
  0
LINE
  5
22C5
  8
0
 62
     0
 10
-91.802311911127234
 20
-7.0504332516763659
 30
0.0
 11
-87.852745162780806
 21
-11.00000000002281
 31
0.0
  0
LINE
  5
22C6
  8
0
 62
     0
 10
-91.626995885123804
 20
-6.1032172625461882
 30
0.0
 11
-86.730213147645244
 21
-11.00000000002472
 31
0.0
  0
LINE
  5
22C7
  8
0
 62
     0
 10
-91.464748345042153
 20
-5.1429327874941739
 30
0.0
 11
-85.607681132509697
 21
-11.00000000002664
 31
0.0
  0
LINE
  5
22C8
  8
0
 62
     0
 10
-91.316015175377856
 20
-4.1691339420248283
 30
0.0
 11
-84.485149117374135
 21
-11.00000000002855
 31
0.0
  0
LINE
  5
22C9
  8
0
 62
     0
 10
-91.18127895728523
 20
-3.1813381449838261
 30
0.0
 11
-83.362617102238559
 21
-11.00000000003047
 31
0.0
  0
LINE
  5
22CA
  8
0
 62
     0
 10
-91.061063123362629
 20
-2.1790219637727608
 30
0.0
 11
-82.739959983385233
 21
-10.500125103750159
 31
0.0
  0
LINE
  5
22CB
  8
0
 62
     0
 10
-90.955936752078216
 20
-1.161616319923545
 30
0.0
 11
-83.176478611106873
 21
-8.9410744608948889
 31
0.0
  0
LINE
  5
22CC
  8
0
 62
     0
 10
-90.866520126449274
 20
-0.1285009304188449
 30
0.0
 11
-83.495417090172481
 21
-7.4996039666956369
 31
0.0
  0
LINE
  5
22CD
  8
0
 62
     0
 10
-90.793491211420559
 20
0.9210021696860763
 30
0.0
 11
-83.66580071150409
 21
-6.206688330230385
 31
0.0
  0
LINE
  5
22CE
  8
0
 62
     0
 10
-90.737593242786488
 20
1.9876362161856631
 30
0.0
 11
-83.80023663410563
 21
-4.9497203924951938
 31
0.0
  0
LINE
  5
22CF
  8
0
 62
     0
 10
-90.699643670369383
 20
3.0722186589022078
 30
0.0
 11
-83.901812630159526
 21
-3.7256123813076618
 31
0.0
  0
LINE
  5
22D0
  8
0
 62
     0
 10
-90.680544763549904
 20
4.1756517672163787
 30
0.0
 11
-83.973149664723195
 21
-2.5317433316103362
 31
0.0
  0
LINE
  5
22D1
  8
0
 62
     0
 10
-90.681296273859431
 20
5.298935292659535
 30
0.0
 11
-84.016495099402206
 21
-1.3658658817976881
 31
0.0
  0
LINE
  5
22D2
  8
0
 62
     0
 10
-90.703010665362498
 20
6.443181699296253
 30
0.0
 11
-84.033793158281142
 21
-0.2260358077851023
 31
0.0
  0
LINE
  5
22D3
  8
0
 62
     0
 10
-90.746931580842954
 20
7.6096346299103521
 30
0.0
 11
-84.026739097239656
 21
0.8894421463070472
 31
0.0
  0
LINE
  5
22D4
  8
0
 62
     0
 10
-90.814456427842316
 20
8.7996914920433724
 30
0.0
 11
-83.99682146479536
 21
1.9820565289964021
 31
0.0
  0
LINE
  5
22D5
  8
0
 62
     0
 10
-90.907164269586787
 20
10.01493134892147
 30
0.0
 11
-83.945355509874133
 21
3.0531225892088041
 31
0.0
  0
LINE
  5
22D6
  8
0
 62
     0
 10
-90.769700905531266
 20
10.9999999999996
 30
0.0
 11
-83.873509905687854
 21
4.1038090001561818
 31
0.0
  0
LINE
  5
22D7
  8
0
 62
     0
 10
-89.647168890397623
 20
10.9999999999996
 30
0.0
 11
-83.782328356813679
 21
5.1351594664156499
 31
0.0
  0
LINE
  5
22D8
  8
0
 62
     0
 10
-88.52463687526398
 20
10.999999999999609
 30
0.0
 11
-83.672747239552137
 21
6.1481103642877448
 31
0.0
  0
LINE
  5
22D9
  8
0
 62
     0
 10
-87.402104860130351
 20
10.99999999999959
 30
0.0
 11
-83.545610131725965
 21
7.1435052715952301
 31
0.0
  0
LINE
  5
22DA
  8
0
 62
     0
 10
-86.279572844996693
 20
10.9999999999996
 30
0.0
 11
-83.401679877621433
 21
8.1221070326243492
 31
0.0
  0
LINE
  5
22DB
  8
0
 62
     0
 10
-85.157040829863064
 20
10.9999999999996
 30
0.0
 11
-83.171858365844898
 21
9.0148175359814573
 31
0.0
  0
LINE
  5
22DC
  8
0
 62
     0
 10
-84.034508814729406
 20
10.999999999999609
 30
0.0
 11
-82.939278492873896
 21
9.9047696781441061
 31
0.0
  0
LINE
  5
22DD
  8
0
 62
     0
 10
-82.911976799595763
 20
10.99999999999959
 30
0.0
 11
-82.706698619902895
 21
10.794721820306719
 31
0.0
  0
ENDBLK
  5
22DF
  8
0
  0
BLOCK
  8
0
  2
*X115
 70
     1
 10
0.0
 20
0.0
 30
0.0
  3
*X115
  1

  0
LINE
  5
22E1
  8
0
 62
     0
 10
-82.772121137541816
 20
-11.000000000031481
 30
0.0
 11
-82.637650450015926
 21
-10.86552931250559
 31
0.0
  0
LINE
  5
22E2
  8
0
 62
     0
 10
-83.894653152673527
 20
-11.00000000002955
 30
0.0
 11
-82.883197493681365
 21
-9.9885443410373789
 31
0.0
  0
LINE
  5
22E3
  8
0
 62
     0
 10
-85.01718516780528
 20
-11.000000000027651
 30
0.0
 11
-83.12874453734679
 21
-9.1115593695691643
 31
0.0
  0
LINE
  5
22E4
  8
0
 62
     0
 10
-86.139717182937005
 20
-11.000000000025731
 30
0.0
 11
-83.374291581012216
 21
-8.2345743981009534
 31
0.0
  0
LINE
  5
22E5
  8
0
 62
     0
 10
-87.262249198068716
 20
-11.00000000002381
 30
0.0
 11
-83.528578936912311
 21
-7.2663297388674053
 31
0.0
  0
LINE
  5
22E6
  8
0
 62
     0
 10
-88.384781213200455
 20
-11.000000000021901
 30
0.0
 11
-83.657848360702218
 21
-6.2730671475236539
 31
0.0
  0
LINE
  5
22E7
  8
0
 62
     0
 10
-89.507313228332194
 20
-11.000000000019989
 30
0.0
 11
-83.769661015480963
 21
-5.2623477871687783
 31
0.0
  0
LINE
  5
22E8
  8
0
 62
     0
 10
-90.629845243463933
 20
-11.00000000001809
 30
0.0
 11
-83.863183995404754
 21
-4.2333387519589252
 31
0.0
  0
LINE
  5
22E9
  8
0
 62
     0
 10
-91.752377258595644
 20
-11.00000000001617
 30
0.0
 11
-83.937493222386266
 21
-3.1851159638067861
 31
0.0
  0
LINE
  5
22EA
  8
0
 62
     0
 10
-92.63859575423426
 20
-10.76368648052112
 30
0.0
 11
-83.991559255009705
 21
-2.1166499812965749
 31
0.0
  0
LINE
  5
22EB
  8
0
 62
     0
 10
-92.275096537494022
 20
-9.2776552486472426
 30
0.0
 11
-84.024230077429664
 21
-1.0267887885829119
 31
0.0
  0
LINE
  5
22EC
  8
0
 62
     0
 10
-91.960181762782625
 20
-7.8402084588022163
 30
0.0
 11
-84.034210042228665
 21
0.0857632617517652
 31
0.0
  0
LINE
  5
22ED
  8
0
 62
     0
 10
-91.68872101207478
 20
-6.4462156929607062
 30
0.0
 11
-84.020033859507151
 21
1.2224714596069071
 31
0.0
  0
LINE
  5
22EE
  8
0
 62
     0
 10
-91.456488003482917
 20
-5.0914506692352068
 30
0.0
 11
-83.980034125615205
 21
2.3850032086324968
 31
0.0
  0
LINE
  5
22EF
  8
0
 62
     0
 10
-91.259951454389963
 20
-3.7723821050086239
 30
0.0
 11
-83.912300310358333
 21
3.5752690390230191
 31
0.0
  0
LINE
  5
22F0
  8
0
 62
     0
 10
-91.096124457974412
 20
-2.4860230934594152
 30
0.0
 11
-83.814626277909795
 21
4.7954750866051929
 31
0.0
  0
LINE
  5
22F1
  8
0
 62
     0
 10
-90.962453508954908
 20
-1.229820129306276
 30
0.0
 11
-83.684442151563559
 21
6.0481912280850869
 31
0.0
  0
LINE
  5
22F2
  8
0
 62
     0
 10
-90.856735110016473
 20
-0.00156971523419
 30
0.0
 11
-83.518724389807289
 21
7.3364410049749997
 31
0.0
  0
LINE
  5
22F3
  8
0
 62
     0
 10
-90.777052007897765
 20
1.2006454020181601
 30
0.0
 11
-83.245795453519705
 21
8.7319019563962144
 31
0.0
  0
LINE
  5
22F4
  8
0
 62
     0
 10
-90.721723684539967
 20
2.3785057405096022
 30
0.0
 11
-82.848640955647866
 21
10.2515884694017
 31
0.0
  0
LINE
  5
22F5
  8
0
 62
     0
 10
-90.689267386962655
 20
3.533494053220557
 30
0.0
 11
-83.222761440183604
 21
10.9999999999996
 31
0.0
  0
LINE
  5
22F6
  8
0
 62
     0
 10
-90.678367073829506
 20
4.6669263814873432
 30
0.0
 11
-84.345293455317275
 21
10.99999999999959
 31
0.0
  0
LINE
  5
22F7
  8
0
 62
     0
 10
-90.687848395042096
 20
5.7799770754083957
 30
0.0
 11
-85.467825470450876
 21
10.999999999999609
 31
0.0
  0
LINE
  5
22F8
  8
0
 62
     0
 10
-90.716658328964854
 20
6.8736991566192813
 30
0.0
 11
-86.590357485584548
 21
10.9999999999996
 31
0.0
  0
LINE
  5
22F9
  8
0
 62
     0
 10
-90.763848458107532
 20
7.9490410426102613
 30
0.0
 11
-87.712889500718177
 21
10.9999999999996
 31
0.0
  0
LINE
  5
22FA
  8
0
 62
     0
 10
-90.828561117867935
 20
9.0068603979835018
 30
0.0
 11
-88.835421515851834
 21
10.999999999999609
 31
0.0
  0
LINE
  5
22FB
  8
0
 62
     0
 10
-90.910017836441313
 20
10.047935694543771
 30
0.0
 11
-89.957953530985463
 21
10.999999999999609
 31
0.0
  0
LINE
  5
22FC
  8
0
 62
     0
 10
-92.626437273703544
 20
-10.716435949634651
 30
0.0
 11
-92.342873223323039
 21
-11.000000000015159
 31
0.0
  0
LINE
  5
22FD
  8
0
 62
     0
 10
-92.402689686617322
 20
-9.8176515215872371
 30
0.0
 11
-91.220341208187477
 21
-11.00000000001709
 31
0.0
  0
LINE
  5
22FE
  8
0
 62
     0
 10
-92.190528123500485
 20
-8.9072810695704305
 30
0.0
 11
-90.097809193051916
 21
-11.000000000018989
 31
0.0
  0
LINE
  5
22FF
  8
0
 62
     0
 10
-91.990283618829395
 20
-7.9849935591078767
 30
0.0
 11
-88.975277177916354
 21
-11.00000000002092
 31
0.0
  0
LINE
  5
2300
  8
0
 62
     0
 10
-91.802311911127234
 20
-7.0504332516763659
 30
0.0
 11
-87.852745162780806
 21
-11.00000000002281
 31
0.0
  0
LINE
  5
2301
  8
0
 62
     0
 10
-91.626995885123804
 20
-6.1032172625461882
 30
0.0
 11
-86.730213147645244
 21
-11.00000000002472
 31
0.0
  0
LINE
  5
2302
  8
0
 62
     0
 10
-91.464748345042153
 20
-5.1429327874941739
 30
0.0
 11
-85.607681132509697
 21
-11.00000000002664
 31
0.0
  0
LINE
  5
2303
  8
0
 62
     0
 10
-91.316015175377856
 20
-4.1691339420248283
 30
0.0
 11
-84.485149117374135
 21
-11.00000000002855
 31
0.0
  0
LINE
  5
2304
  8
0
 62
     0
 10
-91.18127895728523
 20
-3.1813381449838261
 30
0.0
 11
-83.362617102238559
 21
-11.00000000003047
 31
0.0
  0
LINE
  5
2305
  8
0
 62
     0
 10
-91.061063123362629
 20
-2.1790219637727608
 30
0.0
 11
-82.739959983385233
 21
-10.500125103750159
 31
0.0
  0
LINE
  5
2306
  8
0
 62
     0
 10
-90.955936752078216
 20
-1.161616319923545
 30
0.0
 11
-83.176478611106873
 21
-8.9410744608948889
 31
0.0
  0
LINE
  5
2307
  8
0
 62
     0
 10
-90.866520126449274
 20
-0.1285009304188449
 30
0.0
 11
-83.495417090172481
 21
-7.4996039666956369
 31
0.0
  0
LINE
  5
2308
  8
0
 62
     0
 10
-90.793491211420559
 20
0.9210021696860763
 30
0.0
 11
-83.66580071150409
 21
-6.206688330230385
 31
0.0
  0
LINE
  5
2309
  8
0
 62
     0
 10
-90.737593242786488
 20
1.9876362161856631
 30
0.0
 11
-83.80023663410563
 21
-4.9497203924951938
 31
0.0
  0
LINE
  5
230A
  8
0
 62
     0
 10
-90.699643670369383
 20
3.0722186589022078
 30
0.0
 11
-83.901812630159526
 21
-3.7256123813076618
 31
0.0
  0
LINE
  5
230B
  8
0
 62
     0
 10
-90.680544763549904
 20
4.1756517672163787
 30
0.0
 11
-83.973149664723195
 21
-2.5317433316103362
 31
0.0
  0
LINE
  5
230C
  8
0
 62
     0
 10
-90.681296273859431
 20
5.298935292659535
 30
0.0
 11
-84.016495099402206
 21
-1.3658658817976881
 31
0.0
  0
LINE
  5
230D
  8
0
 62
     0
 10
-90.703010665362498
 20
6.443181699296253
 30
0.0
 11
-84.033793158281142
 21
-0.2260358077851023
 31
0.0
  0
LINE
  5
230E
  8
0
 62
     0
 10
-90.746931580842954
 20
7.6096346299103521
 30
0.0
 11
-84.026739097239656
 21
0.8894421463070472
 31
0.0
  0
LINE
  5
230F
  8
0
 62
     0
 10
-90.814456427842316
 20
8.7996914920433724
 30
0.0
 11
-83.99682146479536
 21
1.9820565289964021
 31
0.0
  0
LINE
  5
2310
  8
0
 62
     0
 10
-90.907164269586787
 20
10.01493134892147
 30
0.0
 11
-83.945355509874133
 21
3.0531225892088041
 31
0.0
  0
LINE
  5
2311
  8
0
 62
     0
 10
-90.769700905531266
 20
10.9999999999996
 30
0.0
 11
-83.873509905687854
 21
4.1038090001561818
 31
0.0
  0
LINE
  5
2312
  8
0
 62
     0
 10
-89.647168890397623
 20
10.9999999999996
 30
0.0
 11
-83.782328356813679
 21
5.1351594664156499
 31
0.0
  0
LINE
  5
2313
  8
0
 62
     0
 10
-88.52463687526398
 20
10.999999999999609
 30
0.0
 11
-83.672747239552137
 21
6.1481103642877448
 31
0.0
  0
LINE
  5
2314
  8
0
 62
     0
 10
-87.402104860130351
 20
10.99999999999959
 30
0.0
 11
-83.545610131725965
 21
7.1435052715952301
 31
0.0
  0
LINE
  5
2315
  8
0
 62
     0
 10
-86.279572844996693
 20
10.9999999999996
 30
0.0
 11
-83.401679877621433
 21
8.1221070326243492
 31
0.0
  0
LINE
  5
2316
  8
0
 62
     0
 10
-85.157040829863064
 20
10.9999999999996
 30
0.0
 11
-83.171858365844898
 21
9.0148175359814573
 31
0.0
  0
LINE
  5
2317
  8
0
 62
     0
 10
-84.034508814729406
 20
10.999999999999609
 30
0.0
 11
-82.939278492873896
 21
9.9047696781441061
 31
0.0
  0
LINE
  5
2318
  8
0
 62
     0
 10
-82.911976799595763
 20
10.99999999999959
 30
0.0
 11
-82.706698619902895
 21
10.794721820306719
 31
0.0
  0
ENDBLK
  5
231A
  8
0
  0
BLOCK
  8
0
  2
*X116
 70
     1
 10
0.0
 20
0.0
 30
0.0
  3
*X116
  1

  0
LINE
  5
231C
  8
0
 62
     0
 10
-63.372123264221607
 20
-24.447500000000002
 30
0.0
 11
-41.627876733616148
 21
-24.447500000000002
 31
0.0
  0
LINE
  5
231D
  8
0
 62
     0
 10
-63.776585187049918
 20
-23.33625
 30
0.0
 11
-41.22341481078783
 21
-23.33625
 31
0.0
  0
LINE
  5
231E
  8
0
 62
     0
 10
-42.947308432911299
 20
-22.225000000000001
 30
0.0
 11
-40.818952887959533
 21
-22.225000000000001
 31
0.0
  0
LINE
  5
231F
  8
0
 62
     0
 10
-64.181047109878222
 20
-22.225000000000001
 30
0.0
 11
-62.05269156492642
 21
-22.225000000000001
 31
0.0
  0
LINE
  5
2320
  8
0
 62
     0
 10
-39.631136872385092
 20
-22.225000000000001
 30
0.0
 11
-37.499999998918888
 21
-22.225000000000001
 31
0.0
  0
LINE
  5
2321
  8
0
 62
     0
 10
-67.499999998918895
 20
-22.225000000000001
 30
0.0
 11
-65.368863125452592
 21
-22.225000000000001
 31
0.0
  0
LINE
  5
2322
  8
0
 62
     0
 10
-42.542846510082988
 20
-21.11375
 30
0.0
 11
-37.499999998918867
 21
-21.11375
 31
0.0
  0
LINE
  5
2323
  8
0
 62
     0
 10
-67.499999998918895
 20
-21.11375
 30
0.0
 11
-62.457153487754731
 21
-21.11375
 31
0.0
  0
LINE
  5
2324
  8
0
 62
     0
 10
-40.260096422327848
 20
-20.002500000000001
 30
0.0
 11
-37.499999998918859
 21
-20.002500000000001
 31
0.0
  0
LINE
  5
2325
  8
0
 62
     0
 10
-67.499999998918895
 20
-20.002500000000001
 30
0.0
 11
-64.739903575513836
 21
-20.002500000000001
 31
0.0
  0
ENDBLK
  5
2327
  8
0
  0
BLOCK
  8
0
  2
*X117
 70
     1
 10
0.0
 20
0.0
 30
0.0
  3
*X117
  1

  0
LINE
  5
2329
  8
0
 62
     0
 10
-66.388750149734662
 20
-7.0736521207108618
 30
0.0
 11
-66.388750149734662
 21
-10.87613020762053
 31
0.0
  0
LINE
  5
232A
  8
0
 62
     0
 10
-65.277500149734664
 20
-8.106728331474498
 30
0.0
 11
-65.277500149734664
 21
-10.23454972098358
 31
0.0
  0
LINE
  5
232B
  8
0
 62
     0
 10
-64.166250149734665
 20
-7.7343456861231177
 30
0.0
 11
-64.166250149734665
 21
-9.9743349342099776
 31
0.0
  0
LINE
  5
232C
  8
0
 62
     0
 10
-63.05500014973466
 20
-5.1030948324285408
 30
0.0
 11
-63.05500014973466
 21
-9.8412870711687752
 31
0.0
  0
LINE
  5
232D
  8
0
 62
     0
 10
-61.943750149734662
 20
-5.0795952152120547
 30
0.0
 11
-61.943750149734662
 21
-7.4756859217113076
 31
0.0
  0
LINE
  5
232E
  8
0
 62
     0
 10
-60.832500149734663
 20
-5.0795952152120591
 30
0.0
 11
-60.832500149734663
 21
-6.879595215212011
 31
0.0
  0
LINE
  5
232F
  8
0
 62
     0
 10
-59.721250149734658
 20
-5.0795952152120609
 30
0.0
 11
-59.721250149734658
 21
-6.8795952152120181
 31
0.0
  0
LINE
  5
2330
  8
0
 62
     0
 10
-58.61000014973466
 20
-5.0795952152120654
 30
0.0
 11
-58.61000014973466
 21
-6.8795952152120261
 31
0.0
  0
LINE
  5
2331
  8
0
 62
     0
 10
-57.498750149734661
 20
-5.079595215212068
 30
0.0
 11
-57.498750149734661
 21
-6.8795952152120332
 31
0.0
  0
LINE
  5
2332
  8
0
 62
     0
 10
-56.387500149734663
 20
-5.0795952152120707
 30
0.0
 11
-56.387500149734663
 21
-6.8795952152120403
 31
0.0
  0
LINE
  5
2333
  8
0
 62
     0
 10
-55.276250149734658
 20
-5.0795952152120751
 30
0.0
 11
-55.276250149734658
 21
-6.8795952152120492
 31
0.0
  0
LINE
  5
2334
  8
0
 62
     0
 10
-54.165000149734666
 20
-5.0795952152120778
 30
0.0
 11
-54.165000149734666
 21
-6.8795952152120554
 31
0.0
  0
LINE
  5
2335
  8
0
 62
     0
 10
-53.053750149734661
 20
-5.0795952152120813
 30
0.0
 11
-53.053750149734661
 21
-6.8795952152120616
 31
0.0
  0
LINE
  5
2336
  8
0
 62
     0
 10
-51.942500149734663
 20
-5.0795952152120858
 30
0.0
 11
-51.942500149734663
 21
-6.8795952152120643
 31
0.0
  0
LINE
  5
2337
  8
0
 62
     0
 10
-50.83125014973465
 20
-5.079595215212092
 30
0.0
 11
-50.83125014973465
 21
-6.8795952152120652
 31
0.0
  0
LINE
  5
2338
  8
0
 62
     0
 10
-49.720000149734659
 20
-5.0795952152120991
 30
0.0
 11
-49.720000149734659
 21
-6.8795952152120652
 31
0.0
  0
LINE
  5
2339
  8
0
 62
     0
 10
-48.608750149734661
 20
-5.0795952152121053
 30
0.0
 11
-48.608750149734661
 21
-6.8795952152120661
 31
0.0
  0
LINE
  5
233A
  8
0
 62
     0
 10
-47.497500149734663
 20
-5.0795952152121107
 30
0.0
 11
-47.497500149734663
 21
-6.8795952152120661
 31
0.0
  0
LINE
  5
233B
  8
0
 62
     0
 10
-46.386250149734657
 20
-5.0795952152121169
 30
0.0
 11
-46.386250149734657
 21
-6.8795952152120661
 31
0.0
  0
LINE
  5
233C
  8
0
 62
     0
 10
-45.275000149734659
 20
-5.0795952152121231
 30
0.0
 11
-45.275000149734659
 21
-6.8795952152120661
 31
0.0
  0
LINE
  5
233D
  8
0
 62
     0
 10
-44.163750149734668
 20
-5.0795952152121311
 30
0.0
 11
-44.163750149734668
 21
-6.879595215212067
 31
0.0
  0
LINE
  5
233E
  8
0
 62
     0
 10
-43.052500149734662
 20
-5.0795952152121373
 30
0.0
 11
-43.052500149734662
 21
-7.4859881333082914
 31
0.0
  0
LINE
  5
233F
  8
0
 62
     0
 10
-41.941250149734657
 20
-5.1044613247894821
 30
0.0
 11
-41.941250149734657
 21
-9.8434319267387629
 31
0.0
  0
LINE
  5
2340
  8
0
 62
     0
 10
-40.830000149734673
 20
-7.7446478977201378
 30
0.0
 11
-40.830000149734673
 21
-9.9743349342101197
 31
0.0
  0
LINE
  5
2341
  8
0
 62
     0
 10
-39.71875014973466
 20
-8.1041005550305272
 30
0.0
 11
-39.71875014973466
 21
-10.23671461034597
 31
0.0
  0
LINE
  5
2342
  8
0
 62
     0
 10
-38.607500149734662
 20
-7.0703522992450836
 30
0.0
 11
-38.607500149734662
 21
-10.878295096982979
 31
0.0
  0
ENDBLK
  5
2344
  8
0
  0
BLOCK
  8
0
  2
*X118
 70
     1
 10
0.0
 20
0.0
 30
0.0
  3
*X118
  1

  0
LINE
  5
238C
  8
0
 62
     0
 10
-63.372123264221607
 20
-24.447500000000002
 30
0.0
 11
-41.627876733616148
 21
-24.447500000000002
 31
0.0
  0
LINE
  5
238D
  8
0
 62
     0
 10
-63.776585187049918
 20
-23.33625
 30
0.0
 11
-41.22341481078783
 21
-23.33625
 31
0.0
  0
LINE
  5
238E
  8
0
 62
     0
 10
-42.947308432911299
 20
-22.225000000000001
 30
0.0
 11
-40.818952887959533
 21
-22.225000000000001
 31
0.0
  0
LINE
  5
238F
  8
0
 62
     0
 10
-64.181047109878222
 20
-22.225000000000001
 30
0.0
 11
-62.05269156492642
 21
-22.225000000000001
 31
0.0
  0
LINE
  5
2390
  8
0
 62
     0
 10
-39.631136872385092
 20
-22.225000000000001
 30
0.0
 11
-37.499999998918888
 21
-22.225000000000001
 31
0.0
  0
LINE
  5
2391
  8
0
 62
     0
 10
-67.499999998918895
 20
-22.225000000000001
 30
0.0
 11
-65.368863125452592
 21
-22.225000000000001
 31
0.0
  0
LINE
  5
2392
  8
0
 62
     0
 10
-42.542846510082988
 20
-21.11375
 30
0.0
 11
-37.499999998918867
 21
-21.11375
 31
0.0
  0
LINE
  5
2393
  8
0
 62
     0
 10
-67.499999998918895
 20
-21.11375
 30
0.0
 11
-62.457153487754731
 21
-21.11375
 31
0.0
  0
LINE
  5
2394
  8
0
 62
     0
 10
-40.260096422327848
 20
-20.002500000000001
 30
0.0
 11
-37.499999998918859
 21
-20.002500000000001
 31
0.0
  0
LINE
  5
2395
  8
0
 62
     0
 10
-67.499999998918895
 20
-20.002500000000001
 30
0.0
 11
-64.739903575513836
 21
-20.002500000000001
 31
0.0
  0
ENDBLK
  5
2397
  8
0
  0
BLOCK
  8
0
  2
*X119
 70
     1
 10
0.0
 20
0.0
 30
0.0
  3
*X119
  1

  0
LINE
  5
2399
  8
0
 62
     0
 10
-66.388750149734662
 20
-7.0736521207108618
 30
0.0
 11
-66.388750149734662
 21
-10.87613020762053
 31
0.0
  0
LINE
  5
239A
  8
0
 62
     0
 10
-65.277500149734664
 20
-8.106728331474498
 30
0.0
 11
-65.277500149734664
 21
-10.23454972098358
 31
0.0
  0
LINE
  5
239B
  8
0
 62
     0
 10
-64.166250149734665
 20
-7.7343456861231177
 30
0.0
 11
-64.166250149734665
 21
-9.9743349342099776
 31
0.0
  0
LINE
  5
239C
  8
0
 62
     0
 10
-63.05500014973466
 20
-5.1030948324285408
 30
0.0
 11
-63.05500014973466
 21
-9.8412870711687752
 31
0.0
  0
LINE
  5
239D
  8
0
 62
     0
 10
-61.943750149734662
 20
-5.0795952152120547
 30
0.0
 11
-61.943750149734662
 21
-7.4756859217113076
 31
0.0
  0
LINE
  5
239E
  8
0
 62
     0
 10
-60.832500149734663
 20
-5.0795952152120591
 30
0.0
 11
-60.832500149734663
 21
-6.879595215212011
 31
0.0
  0
LINE
  5
239F
  8
0
 62
     0
 10
-59.721250149734658
 20
-5.0795952152120609
 30
0.0
 11
-59.721250149734658
 21
-6.8795952152120181
 31
0.0
  0
LINE
  5
23A0
  8
0
 62
     0
 10
-58.61000014973466
 20
-5.0795952152120654
 30
0.0
 11
-58.61000014973466
 21
-6.8795952152120261
 31
0.0
  0
LINE
  5
23A1
  8
0
 62
     0
 10
-57.498750149734661
 20
-5.079595215212068
 30
0.0
 11
-57.498750149734661
 21
-6.8795952152120332
 31
0.0
  0
LINE
  5
23A2
  8
0
 62
     0
 10
-56.387500149734663
 20
-5.0795952152120707
 30
0.0
 11
-56.387500149734663
 21
-6.8795952152120403
 31
0.0
  0
LINE
  5
23A3
  8
0
 62
     0
 10
-55.276250149734658
 20
-5.0795952152120751
 30
0.0
 11
-55.276250149734658
 21
-6.8795952152120492
 31
0.0
  0
LINE
  5
23A4
  8
0
 62
     0
 10
-54.165000149734666
 20
-5.0795952152120778
 30
0.0
 11
-54.165000149734666
 21
-6.8795952152120554
 31
0.0
  0
LINE
  5
23A5
  8
0
 62
     0
 10
-53.053750149734661
 20
-5.0795952152120813
 30
0.0
 11
-53.053750149734661
 21
-6.8795952152120616
 31
0.0
  0
LINE
  5
23A6
  8
0
 62
     0
 10
-51.942500149734663
 20
-5.0795952152120858
 30
0.0
 11
-51.942500149734663
 21
-6.8795952152120643
 31
0.0
  0
LINE
  5
23A7
  8
0
 62
     0
 10
-50.83125014973465
 20
-5.079595215212092
 30
0.0
 11
-50.83125014973465
 21
-6.8795952152120652
 31
0.0
  0
LINE
  5
23A8
  8
0
 62
     0
 10
-49.720000149734659
 20
-5.0795952152120991
 30
0.0
 11
-49.720000149734659
 21
-6.8795952152120652
 31
0.0
  0
LINE
  5
23A9
  8
0
 62
     0
 10
-48.608750149734661
 20
-5.0795952152121053
 30
0.0
 11
-48.608750149734661
 21
-6.8795952152120661
 31
0.0
  0
LINE
  5
23AA
  8
0
 62
     0
 10
-47.497500149734663
 20
-5.0795952152121107
 30
0.0
 11
-47.497500149734663
 21
-6.8795952152120661
 31
0.0
  0
LINE
  5
23AB
  8
0
 62
     0
 10
-46.386250149734657
 20
-5.0795952152121169
 30
0.0
 11
-46.386250149734657
 21
-6.8795952152120661
 31
0.0
  0
LINE
  5
23AC
  8
0
 62
     0
 10
-45.275000149734659
 20
-5.0795952152121231
 30
0.0
 11
-45.275000149734659
 21
-6.8795952152120661
 31
0.0
  0
LINE
  5
23AD
  8
0
 62
     0
 10
-44.163750149734668
 20
-5.0795952152121311
 30
0.0
 11
-44.163750149734668
 21
-6.879595215212067
 31
0.0
  0
LINE
  5
23AE
  8
0
 62
     0
 10
-43.052500149734662
 20
-5.0795952152121373
 30
0.0
 11
-43.052500149734662
 21
-7.4859881333082914
 31
0.0
  0
LINE
  5
23AF
  8
0
 62
     0
 10
-41.941250149734657
 20
-5.1044613247894821
 30
0.0
 11
-41.941250149734657
 21
-9.8434319267387629
 31
0.0
  0
LINE
  5
23B0
  8
0
 62
     0
 10
-40.830000149734673
 20
-7.7446478977201378
 30
0.0
 11
-40.830000149734673
 21
-9.9743349342101197
 31
0.0
  0
LINE
  5
23B1
  8
0
 62
     0
 10
-39.71875014973466
 20
-8.1041005550305272
 30
0.0
 11
-39.71875014973466
 21
-10.23671461034597
 31
0.0
  0
LINE
  5
23B2
  8
0
 62
     0
 10
-38.607500149734662
 20
-7.0703522992450836
 30
0.0
 11
-38.607500149734662
 21
-10.878295096982979
 31
0.0
  0
ENDBLK
  5
23B4
  8
0
  0
BLOCK
  8
0
  2
*X120
 70
     1
 10
0.0
 20
0.0
 30
0.0
  3
*X120
  1

  0
LINE
  5
240F
  8
0
 62
     0
 10
-40.422504033822307
 20
22.109570128551731
 30
0.0
 11
-38.267489994908857
 21
19.954556089638281
 31
0.0
  0
LINE
  5
2410
  8
0
 62
     0
 10
-39.942633318595171
 20
22.75223142845822
 30
0.0
 11
-37.110071828622452
 21
19.919669938485491
 31
0.0
  0
LINE
  5
2411
  8
0
 62
     0
 10
-39.241699388857747
 20
23.173829513854439
 30
0.0
 11
-36.173716876846321
 21
20.105847001842999
 31
0.0
  0
LINE
  5
2412
  8
0
 62
     0
 10
-38.373265649925507
 20
23.427927790055818
 30
0.0
 11
-35.404861734265012
 21
20.45952387439532
 31
0.0
  0
LINE
  5
2413
  8
0
 62
     0
 10
-37.31742766470007
 20
23.49462181996401
 30
0.0
 11
-34.823410837976908
 21
21.000604993240849
 31
0.0
  0
LINE
  5
2414
  8
0
 62
     0
 10
-35.89181603394492
 20
23.191542204342479
 30
0.0
 11
-34.61333100838273
 21
21.913057178780289
 31
0.0
  0
LINE
  5
2415
  8
0
 62
     0
 10
-36.624848162348087
 20
19.989658054542701
 30
0.0
 11
-34.63431398219609
 21
21.980192234694702
 31
0.0
  0
LINE
  5
2416
  8
0
 62
     0
 10
-37.828754144530308
 20
19.908284087494049
 30
0.0
 11
-35.062127082003542
 21
22.674911150020868
 31
0.0
  0
LINE
  5
2417
  8
0
 62
     0
 10
-38.791649497959327
 20
20.06792074919872
 30
0.0
 11
-35.73652061008778
 21
23.12304963707021
 31
0.0
  0
LINE
  5
2418
  8
0
 62
     0
 10
-39.58466098064082
 20
20.39744128165086
 30
0.0
 11
-36.580798008919537
 21
23.401304253372128
 31
0.0
  0
LINE
  5
2419
  8
0
 62
     0
 10
-40.197750230948543
 20
20.906884046476758
 30
0.0
 11
-37.604997640125077
 21
23.499636637300171
 31
0.0
  0
LINE
  5
241A
  8
0
 62
     0
 10
-40.499654870843422
 20
21.727511421715569
 30
0.0
 11
-38.940381881743463
 21
23.286784410815471
 31
0.0
  0
ENDBLK
  5
241C
  8
0
  0
BLOCK
  8
0
  2
*X121
 70
     1
 10
0.0
 20
0.0
 30
0.0
  3
*X121
  1

  0
LINE
  5
24BD
  8
0
 62
     0
 10
-40.422504033822307
 20
22.109570128551731
 30
0.0
 11
-38.267489994908857
 21
19.954556089638281
 31
0.0
  0
LINE
  5
24BE
  8
0
 62
     0
 10
-39.942633318595171
 20
22.75223142845822
 30
0.0
 11
-37.110071828622452
 21
19.919669938485491
 31
0.0
  0
LINE
  5
24BF
  8
0
 62
     0
 10
-39.241699388857747
 20
23.173829513854439
 30
0.0
 11
-36.173716876846321
 21
20.105847001842999
 31
0.0
  0
LINE
  5
24C0
  8
0
 62
     0
 10
-38.373265649925507
 20
23.427927790055818
 30
0.0
 11
-35.404861734265012
 21
20.45952387439532
 31
0.0
  0
LINE
  5
24C1
  8
0
 62
     0
 10
-37.31742766470007
 20
23.49462181996401
 30
0.0
 11
-34.823410837976908
 21
21.000604993240849
 31
0.0
  0
LINE
  5
24C2
  8
0
 62
     0
 10
-35.89181603394492
 20
23.191542204342479
 30
0.0
 11
-34.61333100838273
 21
21.913057178780289
 31
0.0
  0
LINE
  5
24C3
  8
0
 62
     0
 10
-36.624848162348087
 20
19.989658054542701
 30
0.0
 11
-34.63431398219609
 21
21.980192234694702
 31
0.0
  0
LINE
  5
24C4
  8
0
 62
     0
 10
-37.828754144530308
 20
19.908284087494049
 30
0.0
 11
-35.062127082003542
 21
22.674911150020868
 31
0.0
  0
LINE
  5
24C5
  8
0
 62
     0
 10
-38.791649497959327
 20
20.06792074919872
 30
0.0
 11
-35.73652061008778
 21
23.12304963707021
 31
0.0
  0
LINE
  5
24C6
  8
0
 62
     0
 10
-39.58466098064082
 20
20.39744128165086
 30
0.0
 11
-36.580798008919537
 21
23.401304253372128
 31
0.0
  0
LINE
  5
24C7
  8
0
 62
     0
 10
-40.197750230948543
 20
20.906884046476758
 30
0.0
 11
-37.604997640125077
 21
23.499636637300171
 31
0.0
  0
LINE
  5
24C8
  8
0
 62
     0
 10
-40.499654870843422
 20
21.727511421715569
 30
0.0
 11
-38.940381881743463
 21
23.286784410815471
 31
0.0
  0
ENDBLK
  5
24CA
  8
0
  0
BLOCK
  8
0
  2
*U122
 70
     1
 10
0.0
 20
0.0
 30
0.0
  3
*U122
  1

  0
TEXT
  5
2561
  8
SAPA_MATT
 62
     2
 10
47.699999999996393
 20
46.000000373538278
 30
0.0
 40
3.0
  1
10
  7
ISO
  0
ENDBLK
  5
2563
  8
0
  0
BLOCK
  8
0
  2
*U123
 70
     1
 10
0.0
 20
0.0
 30
0.0
  3
*U123
  1

  0
TEXT
  5
2565
  8
SAPA_MATT
 62
     2
 10
2.3999999999982382
 20
46.000000373538292
 30
0.0
 40
3.0
  1
80
  7
ISO
  0
ENDBLK
  5
2567
  8
0
  0
ENDSEC
  0
SECTION
  2
ENTITIES
  0
POLYLINE
  5
7BD
  8
SAPA_ANSLUTNING
 66
     1
 10
0.0
 20
0.0
 30
0.0
 70
     1
  0
VERTEX
  5
1A4F
  8
SAPA_ANSLUTNING
 10
44.034351585444639
 20
-25.000000000044391
 30
0.0
  0
VERTEX
  5
1A50
  8
SAPA_ANSLUTNING
 10
44.034351585444639
 20
-35.000000000044388
 30
0.0
  0
VERTEX
  5
1A51
  8
SAPA_ANSLUTNING
 10
-87.870947344014368
 20
-35.000000000010857
 30
0.0
  0
VERTEX
  5
1A52
  8
SAPA_ANSLUTNING
 10
-87.870947344014368
 20
-25.000000000011308
 30
0.0
  0
SEQEND
  5
1A53
  8
SAPA_ANSLUTNING
  0
POLYLINE
  5
7BE
  8
SAPA_ANSLUTNING
 66
     1
 10
0.0
 20
0.0
 30
0.0
 70
     1
  0
VERTEX
  5
1A54
  8
SAPA_ANSLUTNING
 10
-89.503444366294474
 20
-13.732332399362519
 30
0.0
  0
VERTEX
  5
1A55
  8
SAPA_ANSLUTNING
 10
-91.003444366294474
 20
-13.732332399362519
 30
0.0
  0
VERTEX
  5
1A56
  8
SAPA_ANSLUTNING
 10
-91.003444366294474
 20
-35.749999626460699
 30
0.0
 42
0.4142135623730506
  0
VERTEX
  5
1A57
  8
SAPA_ANSLUTNING
 10
-90.253444366294488
 20
-36.499999626460813
 30
0.0
  0
VERTEX
  5
1A58
  8
SAPA_ANSLUTNING
 10
44.249999999996177
 20
-36.499999626461822
 30
0.0
 42
0.4142135623730189
  0
VERTEX
  5
1A59
  8
SAPA_ANSLUTNING
 10
45.999999999996177
 20
-34.749999626461822
 30
0.0
  0
VERTEX
  5
1A5A
  8
SAPA_ANSLUTNING
 10
45.999999999996412
 20
-21.45158854476113
 30
0.0
  0
VERTEX
  5
1A5B
  8
SAPA_ANSLUTNING
 10
44.499999999996412
 20
-21.45158854476113
 30
0.0
  0
VERTEX
  5
1A5C
  8
SAPA_ANSLUTNING
 10
44.499999999996177
 20
-33.749999626461481
 30
0.0
 42
-0.4337532997814958
  0
VERTEX
  5
1A5D
  8
SAPA_ANSLUTNING
 10
43.36541136350052
 20
-34.999999626461481
 30
0.0
  0
VERTEX
  5
1A5E
  8
SAPA_ANSLUTNING
 10
-88.253444366294474
 20
-34.999999626460692
 30
0.0
 42
-0.4142135623731483
  0
VERTEX
  5
1A5F
  8
SAPA_ANSLUTNING
 10
-89.503444366294474
 20
-33.749999626460692
 30
0.0
  0
SEQEND
  5
1A60
  8
SAPA_ANSLUTNING
  0
POLYLINE
  5
7C7
  8
SAPA_ANSLUTNING
 66
     1
 10
0.0
 20
0.0
 30
0.0
  0
VERTEX
  5
1A61
  8
SAPA_ANSLUTNING
 10
-86.999998427363835
 20
-25.000000000010751
 30
0.0
  0
VERTEX
  5
1A62
  8
SAPA_ANSLUTNING
 10
-75.990813080901432
 20
-35.00918534647321
 30
0.0
  0
VERTEX
  5
1A63
  8
SAPA_ANSLUTNING
 10
-65.98162773443903
 20
-25.000000000010751
 30
0.0
  0
VERTEX
  5
1A64
  8
SAPA_ANSLUTNING
 10
-55.972442387976628
 20
-35.00918534647321
 30
0.0
  0
VERTEX
  5
1A65
  8
SAPA_ANSLUTNING
 10
-45.972442387984593
 20
-25.009185346481161
 30
0.0
  0
VERTEX
  5
1A66
  8
SAPA_ANSLUTNING
 10
-35.972442387992537
 20
-35.00918534647321
 30
0.0
  0
VERTEX
  5
1A67
  8
SAPA_ANSLUTNING
 10
-25.963257041530142
 20
-25.000000000010751
 30
0.0
  0
VERTEX
  5
1A68
  8
SAPA_ANSLUTNING
 10
-15.954071695067739
 20
-35.00918534647321
 30
0.0
  0
VERTEX
  5
1A69
  8
SAPA_ANSLUTNING
 10
-5.954071695085644
 20
-25.009185346491162
 30
0.0
  0
VERTEX
  5
1A6A
  8
SAPA_ANSLUTNING
 10
4.0459283048964494
 20
-35.00918534647321
 30
0.0
  0
VERTEX
  5
1A6B
  8
SAPA_ANSLUTNING
 10
14.05511365135885
 20
-25.000000000010751
 30
0.0
  0
VERTEX
  5
1A6C
  8
SAPA_ANSLUTNING
 10
24.06429899782125
 20
-35.00918534647321
 30
0.0
  0
VERTEX
  5
1A6D
  8
SAPA_ANSLUTNING
 10
34.064298997813239
 20
-25.009185346481161
 30
0.0
  0
VERTEX
  5
1A6E
  8
SAPA_ANSLUTNING
 10
44.064298997805281
 20
-35.00918534647321
 30
0.0
  0
SEQEND
  5
1A6F
  8
SAPA_ANSLUTNING
  0
INSERT
  5
7CE
  8
0
  2
*U108
 10
0.0
 20
0.0
 30
0.0
  0
INSERT
  5
1212
  8
0
  2
*U109
 10
0.0
 20
0.0
 30
0.0
  0
INSERT
  5
1217
  8
0
  2
*U110
 10
0.0
 20
0.0
 30
0.0
  0
INSERT
  5
1218
  8
0
  2
*U111
 10
0.0
 20
0.0
 30
0.0
  0
POLYLINE
  5
1952
  8
SAPA_PROFIL
 66
     1
 10
0.0
 20
0.0
 30
0.0
 70
     1
  0
VERTEX
  5
1E34
  8
SAPA_PROFIL
 10
48.499999999996383
 20
10.6909533232689
 30
0.0
  0
VERTEX
  5
1E35
  8
SAPA_PROFIL
 10
47.499999999996369
 20
9.6909533232689
 30
0.0
  0
VERTEX
  5
1E36
  8
SAPA_PROFIL
 10
47.499999999996362
 20
-1.3090466767310991
 30
0.0
  0
VERTEX
  5
1E37
  8
SAPA_PROFIL
 10
48.499999999996362
 20
-2.3090466767310991
 30
0.0
  0
VERTEX
  5
1E38
  8
SAPA_PROFIL
 10
48.499999999996362
 20
-4.8090459346592516
 30
0.0
 42
-1.0000014841447959
  0
VERTEX
  5
1E39
  8
SAPA_PROFIL
 10
47.49999999999693
 20
-4.8090459346592516
 30
0.0
  0
VERTEX
  5
1E3A
  8
SAPA_PROFIL
 10
47.499999999996362
 20
-3.5590466767310991
 30
0.0
  0
VERTEX
  5
1E3B
  8
SAPA_PROFIL
 10
46.399999999996332
 20
-3.5590466767310991
 30
0.0
  0
VERTEX
  5
1E3C
  8
SAPA_PROFIL
 10
46.399999999996332
 20
-11.0590466767311
 30
0.0
  0
VERTEX
  5
1E3D
  8
SAPA_PROFIL
 10
47.499999999996362
 20
-11.0590466767311
 30
0.0
  0
VERTEX
  5
1E3E
  8
SAPA_PROFIL
 10
47.499999999996362
 20
-9.8090447739281217
 30
0.0
 42
-0.9999967549392536
  0
VERTEX
  5
1E3F
  8
SAPA_PROFIL
 10
48.499999999994543
 20
-9.8090453344681237
 30
0.0
  0
VERTEX
  5
1E40
  8
SAPA_PROFIL
 10
48.499999999996362
 20
-11.844945061593419
 30
0.0
  0
VERTEX
  5
1E41
  8
SAPA_PROFIL
 10
47.366025403780782
 20
-13.8090466767311
 30
0.0
 42
-0.577350269189629
  0
VERTEX
  5
1E42
  8
SAPA_PROFIL
 10
45.633974596211878
 20
-13.8090466767311
 30
0.0
  0
VERTEX
  5
1E43
  8
SAPA_PROFIL
 10
44.633974596211942
 20
-12.076995869162371
 30
0.0
 42
-0.4142135623730394
  0
VERTEX
  5
1E44
  8
SAPA_PROFIL
 10
44.999999999996177
 20
-10.710970465377949
 30
0.0
  0
VERTEX
  5
1E45
  8
SAPA_PROFIL
 10
44.999999999996199
 20
19.092877111915751
 30
0.0
 42
-0.4142135623730394
  0
VERTEX
  5
1E46
  8
SAPA_PROFIL
 10
44.633974596211949
 20
20.458902515700061
 30
0.0
  0
VERTEX
  5
1E47
  8
SAPA_PROFIL
 10
45.6339745962119
 20
22.1909533232689
 30
0.0
 42
-0.5773502691896291
  0
VERTEX
  5
1E48
  8
SAPA_PROFIL
 10
47.366025403780789
 20
22.1909533232689
 30
0.0
  0
VERTEX
  5
1E49
  8
SAPA_PROFIL
 10
48.499999999996383
 20
20.226851708131111
 30
0.0
  0
VERTEX
  5
1E4A
  8
SAPA_PROFIL
 10
48.499999999994557
 20
18.19095198100587
 30
0.0
 42
-0.9999967549392536
  0
VERTEX
  5
1E4B
  8
SAPA_PROFIL
 10
47.499999999996369
 20
18.190951420465861
 30
0.0
  0
VERTEX
  5
1E4C
  8
SAPA_PROFIL
 10
47.499999999996369
 20
19.4409533232689
 30
0.0
  0
VERTEX
  5
1E4D
  8
SAPA_PROFIL
 10
46.399999999996353
 20
19.4409533232689
 30
0.0
  0
VERTEX
  5
1E4E
  8
SAPA_PROFIL
 10
46.399999999996353
 20
11.9409533232689
 30
0.0
  0
VERTEX
  5
1E4F
  8
SAPA_PROFIL
 10
47.499999999996369
 20
11.9409533232689
 30
0.0
  0
VERTEX
  5
1E50
  8
SAPA_PROFIL
 10
47.499999999996938
 20
13.190952581197051
 30
0.0
 42
-1.0000014841447959
  0
VERTEX
  5
1E51
  8
SAPA_PROFIL
 10
48.499999999996383
 20
13.190952581197051
 30
0.0
  0
SEQEND
  5
1E52
  8
SAPA_PROFIL
  0
POLYLINE
  5
1953
  8
SAPA_PROFIL
 66
     1
 10
0.0
 20
0.0
 30
0.0
 70
     1
  0
VERTEX
  5
1E53
  8
SAPA_PROFIL
 10
93.299999999996317
 20
-77.999999626462227
 30
0.0
 42
-0.4142135623730951
  0
VERTEX
  5
1E54
  8
SAPA_PROFIL
 10
92.999999999996362
 20
-77.699999626462215
 30
0.0
  0
VERTEX
  5
1E55
  8
SAPA_PROFIL
 10
92.999999999996362
 20
-76.489999626462293
 30
0.0
 42
-0.4142135623730951
  0
VERTEX
  5
1E56
  8
SAPA_PROFIL
 10
93.989999999996357
 20
-75.499999626462284
 30
0.0
  0
VERTEX
  5
1E57
  8
SAPA_PROFIL
 10
94.199999999996407
 20
-75.499999626462284
 30
0.0
  0
VERTEX
  5
1E58
  8
SAPA_PROFIL
 10
94.199999999996407
 20
-76.749999626462284
 30
0.0
  0
VERTEX
  5
1E59
  8
SAPA_PROFIL
 10
95.499999999996362
 20
-76.749999626462284
 30
0.0
 42
0.4142135623730951
  0
VERTEX
  5
1E5A
  8
SAPA_PROFIL
 10
95.999999999996376
 20
-76.249999626462284
 30
0.0
  0
VERTEX
  5
1E5B
  8
SAPA_PROFIL
 10
95.999999999996376
 20
-68.249999626462284
 30
0.0
 42
0.4142135623730951
  0
VERTEX
  5
1E5C
  8
SAPA_PROFIL
 10
95.499999999996362
 20
-67.749999626462284
 30
0.0
  0
VERTEX
  5
1E5D
  8
SAPA_PROFIL
 10
94.199999999996407
 20
-67.749999626462284
 30
0.0
  0
VERTEX
  5
1E5E
  8
SAPA_PROFIL
 10
94.199999999996407
 20
-68.999999626462284
 30
0.0
  0
VERTEX
  5
1E5F
  8
SAPA_PROFIL
 10
93.989999999996357
 20
-68.999999626462284
 30
0.0
 42
-0.4142135623730867
  0
VERTEX
  5
1E60
  8
SAPA_PROFIL
 10
92.999999999996362
 20
-68.009999626462275
 30
0.0
  0
VERTEX
  5
1E61
  8
SAPA_PROFIL
 10
92.999999999996362
 20
-67.489999626462293
 30
0.0
 42
-0.4142135623730951
  0
VERTEX
  5
1E62
  8
SAPA_PROFIL
 10
93.989999999996357
 20
-66.499999626462284
 30
0.0
  0
VERTEX
  5
1E63
  8
SAPA_PROFIL
 10
96.199999999996422
 20
-66.499999626462284
 30
0.0
 42
-0.4142135623730951
  0
VERTEX
  5
1E64
  8
SAPA_PROFIL
 10
97.699999999996393
 20
-67.999999626462284
 30
0.0
  0
VERTEX
  5
1E65
  8
SAPA_PROFIL
 10
97.699999999996393
 20
-75.999999626462284
 30
0.0
 42
0.4142135623730951
  0
VERTEX
  5
1E66
  8
SAPA_PROFIL
 10
98.199999999996407
 20
-76.499999626462284
 30
0.0
  0
VERTEX
  5
1E67
  8
SAPA_PROFIL
 10
102.49999999999631
 20
-76.499999626462284
 30
0.0
 42
0.4142135623730951
  0
VERTEX
  5
1E68
  8
SAPA_PROFIL
 10
102.99999999999631
 20
-75.999999626462284
 30
0.0
  0
VERTEX
  5
1E69
  8
SAPA_PROFIL
 10
102.99999999999631
 20
-63.258153005208442
 30
0.0
 42
0.493145426031308
  0
VERTEX
  5
1E6A
  8
SAPA_PROFIL
 10
102.37059047744501
 20
-62.775190092063902
 30
0.0
  0
VERTEX
  5
1E6B
  8
SAPA_PROFIL
 10
100.6315755089949
 20
-63.241157748485762
 30
0.0
 42
-0.9999999999999452
  0
VERTEX
  5
1E6C
  8
SAPA_PROFIL
 10
100.3727564638924
 20
-62.275231922196667
 30
0.0
  0
VERTEX
  5
1E6D
  8
SAPA_PROFIL
 10
101.7197508390492
 20
-61.914305867164209
 30
0.0
 42
0.6613727838043239
  0
VERTEX
  5
1E6E
  8
SAPA_PROFIL
 10
101.9766115300261
 20
-59.98041052975492
 30
0.0
  0
VERTEX
  5
1E6F
  8
SAPA_PROFIL
 10
96.24500185047772
 20
-56.671264138377751
 30
0.0
  0
VERTEX
  5
1E70
  8
SAPA_PROFIL
 10
91.956921938161713
 20
-56.671264138377751
 30
0.0
  0
VERTEX
  5
1E71
  8
SAPA_PROFIL
 10
87.799999999996359
 20
-53.078483054961403
 30
0.0
  0
VERTEX
  5
1E72
  8
SAPA_PROFIL
 10
85.800000454909082
 20
-53.078483054961339
 30
0.0
 42
-1.0
  0
VERTEX
  5
1E73
  8
SAPA_PROFIL
 10
85.799999999996373
 20
-52.078483054961389
 30
0.0
  0
VERTEX
  5
1E74
  8
SAPA_PROFIL
 10
87.999999999996362
 20
-52.078483054961389
 30
0.0
  0
VERTEX
  5
1E75
  8
SAPA_PROFIL
 10
92.074563148964558
 20
-55.171264138377751
 30
0.0
  0
VERTEX
  5
1E76
  8
SAPA_PROFIL
 10
96.646925639124461
 20
-55.171264138377751
 30
0.0
  0
VERTEX
  5
1E77
  8
SAPA_PROFIL
 10
96.995001850477706
 20
-55.372226032701121
 30
0.0
  0
VERTEX
  5
1E78
  8
SAPA_PROFIL
 10
98.249999999996362
 20
-56.346952739793103
 30
0.0
 42
0.5773502691896074
  0
VERTEX
  5
1E79
  8
SAPA_PROFIL
 10
98.999999999996362
 20
-55.913940037900943
 30
0.0
  0
VERTEX
  5
1E7A
  8
SAPA_PROFIL
 10
98.999999999996362
 20
-55.729298172332733
 30
0.0
  0
VERTEX
  5
1E7B
  8
SAPA_PROFIL
 10
100.49999999999631
 20
-55.729298172332733
 30
0.0
  0
VERTEX
  5
1E7C
  8
SAPA_PROFIL
 10
100.49999999999631
 20
-57.107162523240042
 30
0.0
 42
0.2679491924311161
  0
VERTEX
  5
1E7D
  8
SAPA_PROFIL
 10
100.74999999999631
 20
-57.540175225132202
 30
0.0
  0
VERTEX
  5
1E7E
  8
SAPA_PROFIL
 10
102.24999999999631
 20
-58.406200628916622
 30
0.0
 42
0.3494280882832233
  0
VERTEX
  5
1E7F
  8
SAPA_PROFIL
 10
102.99999999999631
 20
-57.18759395161976
 30
0.0
  0
VERTEX
  5
1E80
  8
SAPA_PROFIL
 10
102.99999999999631
 20
-56.928428870122389
 30
0.0
  0
VERTEX
  5
1E81
  8
SAPA_PROFIL
 10
103.21031506146259
 20
-56.928428870122389
 30
0.0
  0
VERTEX
  5
1E82
  8
SAPA_PROFIL
 10
104.49999999999631
 20
-56.928428870122389
 30
0.0
  0
VERTEX
  5
1E83
  8
SAPA_PROFIL
 10
104.49999999999631
 20
-77.699999626462215
 30
0.0
 42
-0.4142135623730951
  0
VERTEX
  5
1E84
  8
SAPA_PROFIL
 10
104.19999999999629
 20
-77.999999626462227
 30
0.0
  0
SEQEND
  5
1E85
  8
SAPA_PROFIL
  0
POLYLINE
  5
1954
  8
SAPA_PROFIL
 66
     1
 10
0.0
 20
0.0
 30
0.0
 70
     1
  0
VERTEX
  5
1E86
  8
SAPA_PROFIL
 10
87.299999999996373
 20
-5.2999996264621814
 30
0.0
  0
VERTEX
  5
1E87
  8
SAPA_PROFIL
 10
94.774999999996496
 20
-5.2999996264621814
 30
0.0
 42
-0.4142135623730951
  0
VERTEX
  5
1E88
  8
SAPA_PROFIL
 10
95.27499999999651
 20
-5.7999996264621814
 30
0.0
  0
VERTEX
  5
1E89
  8
SAPA_PROFIL
 10
95.274999999996396
 20
-7.4999996264621132
 30
0.0
 42
0.4142135623730951
  0
VERTEX
  5
1E8A
  8
SAPA_PROFIL
 10
99.874999999996405
 20
-12.099999626462131
 30
0.0
  0
VERTEX
  5
1E8B
  8
SAPA_PROFIL
 10
101.69999999999639
 20
-12.099999626462131
 30
0.0
 42
-0.4142135623730951
  0
VERTEX
  5
1E8C
  8
SAPA_PROFIL
 10
102.69999999999639
 20
-13.099999626462131
 30
0.0
  0
VERTEX
  5
1E8D
  8
SAPA_PROFIL
 10
102.69999999999629
 20
-47.499999626462341
 30
0.0
 42
-0.4142135623730951
  0
VERTEX
  5
1E8E
  8
SAPA_PROFIL
 10
101.69999999999629
 20
-48.499999626462341
 30
0.0
  0
VERTEX
  5
1E8F
  8
SAPA_PROFIL
 10
81.599999999996314
 20
-48.499999626462341
 30
0.0
 42
0.4142135623730951
  0
VERTEX
  5
1E90
  8
SAPA_PROFIL
 10
81.099999999996328
 20
-48.999999626462341
 30
0.0
  0
VERTEX
  5
1E91
  8
SAPA_PROFIL
 10
81.099999999996328
 20
-49.699999626462272
 30
0.0
 42
0.4150844288340716
  0
VERTEX
  5
1E92
  8
SAPA_PROFIL
 10
81.601486201976343
 20
-50.199997417661052
 30
0.0
 42
-0.3121484461588222
  0
VERTEX
  5
1E93
  8
SAPA_PROFIL
 10
82.070299604836237
 20
-50.522216449392651
 30
0.0
 42
-0.482358125222547
  0
VERTEX
  5
1E94
  8
SAPA_PROFIL
 10
79.87439504323288
 20
-54.224394669698313
 30
0.0
  0
VERTEX
  5
1E95
  8
SAPA_PROFIL
 10
79.499999999996419
 20
-53.849999626461802
 30
0.0
  0
VERTEX
  5
1E96
  8
SAPA_PROFIL
 10
79.125604956759958
 20
-54.224394669698313
 30
0.0
 42
-0.4823574778722663
  0
VERTEX
  5
1E97
  8
SAPA_PROFIL
 10
76.929698341185087
 20
-50.52222184868458
 30
0.0
 42
-0.311333703729445
  0
VERTEX
  5
1E98
  8
SAPA_PROFIL
 10
77.397025915514334
 20
-50.199999626462272
 30
0.0
  0
VERTEX
  5
1E99
  8
SAPA_PROFIL
 10
77.399999999996396
 20
-50.199999626462272
 30
0.0
 42
0.4142135623730951
  0
VERTEX
  5
1E9A
  8
SAPA_PROFIL
 10
77.899999999996396
 20
-49.699999626462272
 30
0.0
  0
VERTEX
  5
1E9B
  8
SAPA_PROFIL
 10
77.899999999996396
 20
-48.999999626462341
 30
0.0
 42
0.4142135623731117
  0
VERTEX
  5
1E9C
  8
SAPA_PROFIL
 10
77.399999999996396
 20
-48.49999962646222
 30
0.0
  0
VERTEX
  5
1E9D
  8
SAPA_PROFIL
 10
57.29999999999643
 20
-48.49999962646222
 30
0.0
 42
-0.4142135623730951
  0
VERTEX
  5
1E9E
  8
SAPA_PROFIL
 10
56.29999999999643
 20
-47.499999626462227
 30
0.0
  0
VERTEX
  5
1E9F
  8
SAPA_PROFIL
 10
56.29999999999643
 20
-13.09999962646225
 30
0.0
 42
-0.4142135623730951
  0
VERTEX
  5
1EA0
  8
SAPA_PROFIL
 10
57.29999999999643
 20
-12.09999962646225
 30
0.0
  0
VERTEX
  5
1EA1
  8
SAPA_PROFIL
 10
59.124999999996419
 20
-12.09999962646225
 30
0.0
 42
0.4142135623730914
  0
VERTEX
  5
1EA2
  8
SAPA_PROFIL
 10
63.724999999996392
 20
-7.499999626462226
 30
0.0
  0
VERTEX
  5
1EA3
  8
SAPA_PROFIL
 10
63.724999999996321
 20
-5.7999996264622951
 30
0.0
 42
-0.4142135623730951
  0
VERTEX
  5
1EA4
  8
SAPA_PROFIL
 10
64.224999999996328
 20
-5.2999996264622951
 30
0.0
  0
VERTEX
  5
1EA5
  8
SAPA_PROFIL
 10
71.699999999996407
 20
-5.2999996264621814
 30
0.0
 42
-0.4142135623730951
  0
VERTEX
  5
1EA6
  8
SAPA_PROFIL
 10
71.999999999996305
 20
-5.5999996264622487
 30
0.0
  0
VERTEX
  5
1EA7
  8
SAPA_PROFIL
 10
71.999999999996419
 20
-5.6999996264622723
 30
0.0
 42
0.4142135623730951
  0
VERTEX
  5
1EA8
  8
SAPA_PROFIL
 10
72.299999999996373
 20
-5.999999626462226
 30
0.0
  0
VERTEX
  5
1EA9
  8
SAPA_PROFIL
 10
86.699999999996351
 20
-5.999999626462226
 30
0.0
 42
0.4142135623730951
  0
VERTEX
  5
1EAA
  8
SAPA_PROFIL
 10
86.999999999996305
 20
-5.6999996264622723
 30
0.0
  0
VERTEX
  5
1EAB
  8
SAPA_PROFIL
 10
86.999999999996419
 20
-5.5999996264622487
 30
0.0
 42
-0.4142135623730951
  0
SEQEND
  5
1EAC
  8
SAPA_PROFIL
  0
POLYLINE
  5
1955
  8
SAPA_PROFIL
 66
     1
 10
0.0
 20
0.0
 30
0.0
 70
     1
  0
VERTEX
  5
1EAD
  8
SAPA_PROFIL
 10
100.4999999999964
 20
-54.999999626462113
 30
0.0
  0
VERTEX
  5
1EAE
  8
SAPA_PROFIL
 10
100.4999999999964
 20
-53.999999626462113
 30
0.0
  0
VERTEX
  5
1EAF
  8
SAPA_PROFIL
 10
102.69999999999639
 20
-53.999999626462113
 30
0.0
  0
VERTEX
  5
1EB0
  8
SAPA_PROFIL
 10
102.69999999999639
 20
-50.99999962646212
 30
0.0
  0
VERTEX
  5
1EB1
  8
SAPA_PROFIL
 10
83.999999999996405
 20
-50.99999962646222
 30
0.0
  0
VERTEX
  5
1EB2
  8
SAPA_PROFIL
 10
83.999999999996405
 20
-53.999999626462227
 30
0.0
  0
VERTEX
  5
1EB3
  8
SAPA_PROFIL
 10
86.499999999996405
 20
-53.999999626462227
 30
0.0
  0
VERTEX
  5
1EB4
  8
SAPA_PROFIL
 10
86.499999999996405
 20
-54.999999626462227
 30
0.0
  0
VERTEX
  5
1EB5
  8
SAPA_PROFIL
 10
85.699999999996365
 20
-55.799999626462181
 30
0.0
  0
VERTEX
  5
1EB6
  8
SAPA_PROFIL
 10
80.01961524226715
 20
-55.799999626462181
 30
0.0
  0
VERTEX
  5
1EB7
  8
SAPA_PROFIL
 10
79.499999999996476
 20
-55.49999962646222
 30
0.0
  0
VERTEX
  5
1EB8
  8
SAPA_PROFIL
 10
78.980384757725801
 20
-55.799999626462181
 30
0.0
  0
VERTEX
  5
1EB9
  8
SAPA_PROFIL
 10
73.29999999999643
 20
-55.799999626462181
 30
0.0
  0
VERTEX
  5
1EBA
  8
SAPA_PROFIL
 10
72.499999999996476
 20
-54.999999626462227
 30
0.0
  0
VERTEX
  5
1EBB
  8
SAPA_PROFIL
 10
72.499999999996476
 20
-53.999999626462227
 30
0.0
  0
VERTEX
  5
1EBC
  8
SAPA_PROFIL
 10
74.999999999996476
 20
-53.999999626462227
 30
0.0
  0
VERTEX
  5
1EBD
  8
SAPA_PROFIL
 10
74.999999999996419
 20
-50.99999962646222
 30
0.0
  0
VERTEX
  5
1EBE
  8
SAPA_PROFIL
 10
56.29999999999643
 20
-50.99999962646222
 30
0.0
  0
VERTEX
  5
1EBF
  8
SAPA_PROFIL
 10
56.299999999996487
 20
-53.999999626462227
 30
0.0
  0
VERTEX
  5
1EC0
  8
SAPA_PROFIL
 10
58.499999999996469
 20
-53.999999626462227
 30
0.0
  0
VERTEX
  5
1EC1
  8
SAPA_PROFIL
 10
58.499999999996469
 20
-54.999999626462227
 30
0.0
  0
VERTEX
  5
1EC2
  8
SAPA_PROFIL
 10
57.499999999996483
 20
-55.99999962646222
 30
0.0
  0
VERTEX
  5
1EC3
  8
SAPA_PROFIL
 10
56.299999999996487
 20
-55.99999962646222
 30
0.0
  0
VERTEX
  5
1EC4
  8
SAPA_PROFIL
 10
56.299999999996537
 20
-65.999999626462227
 30
0.0
 42
0.4142135623730951
  0
VERTEX
  5
1EC5
  8
SAPA_PROFIL
 10
56.799999999996551
 20
-66.499999626462227
 30
0.0
  0
VERTEX
  5
1EC6
  8
SAPA_PROFIL
 10
58.009999999996523
 20
-66.499999626462227
 30
0.0
 42
-0.4142135623730951
  0
VERTEX
  5
1EC7
  8
SAPA_PROFIL
 10
58.999999999996469
 20
-67.489999626462236
 30
0.0
  0
VERTEX
  5
1EC8
  8
SAPA_PROFIL
 10
58.999999999996533
 20
-68.009999626462218
 30
0.0
 42
-0.4142135623730951
  0
VERTEX
  5
1EC9
  8
SAPA_PROFIL
 10
58.009999999996523
 20
-68.999999626462227
 30
0.0
  0
VERTEX
  5
1ECA
  8
SAPA_PROFIL
 10
57.999999999996533
 20
-68.999999626462227
 30
0.0
  0
VERTEX
  5
1ECB
  8
SAPA_PROFIL
 10
57.999999999996533
 20
-67.749999626462227
 30
0.0
  0
VERTEX
  5
1ECC
  8
SAPA_PROFIL
 10
56.499999999996533
 20
-67.749999626462227
 30
0.0
 42
0.4142135623730951
  0
VERTEX
  5
1ECD
  8
SAPA_PROFIL
 10
55.999999999996533
 20
-68.249999626462227
 30
0.0
  0
VERTEX
  5
1ECE
  8
SAPA_PROFIL
 10
55.999999999996533
 20
-76.249999626462227
 30
0.0
 42
0.4142135623730951
  0
VERTEX
  5
1ECF
  8
SAPA_PROFIL
 10
56.499999999996533
 20
-76.749999626462227
 30
0.0
  0
VERTEX
  5
1ED0
  8
SAPA_PROFIL
 10
57.999999999996533
 20
-76.749999626462227
 30
0.0
  0
VERTEX
  5
1ED1
  8
SAPA_PROFIL
 10
57.999999999996533
 20
-75.499999626462227
 30
0.0
  0
VERTEX
  5
1ED2
  8
SAPA_PROFIL
 10
58.009999999996523
 20
-75.499999626462227
 30
0.0
 42
-0.4142135623730951
  0
VERTEX
  5
1ED3
  8
SAPA_PROFIL
 10
58.999999999996469
 20
-76.489999626462236
 30
0.0
  0
VERTEX
  5
1ED4
  8
SAPA_PROFIL
 10
58.999999999996533
 20
-77.699999626462159
 30
0.0
 42
-0.4142135623731229
  0
VERTEX
  5
1ED5
  8
SAPA_PROFIL
 10
58.699999999996521
 20
-77.999999626462227
 30
0.0
  0
VERTEX
  5
1ED6
  8
SAPA_PROFIL
 10
54.799999999996537
 20
-77.999999626462227
 30
0.0
 42
-0.4142135623730675
  0
VERTEX
  5
1ED7
  8
SAPA_PROFIL
 10
54.499999999996533
 20
-77.699999626462159
 30
0.0
  0
VERTEX
  5
1ED8
  8
SAPA_PROFIL
 10
54.499999999996419
 20
-0.2999996264621814
 30
0.0
 42
-0.4142135623731227
  0
VERTEX
  5
1ED9
  8
SAPA_PROFIL
 10
54.79999999999643
 20
0.0000003735377732
 30
0.0
  0
VERTEX
  5
1EDA
  8
SAPA_PROFIL
 10
56.29999999999643
 20
0.0000003735377732
 30
0.0
 42
-0.4142135623730951
  0
VERTEX
  5
1EDB
  8
SAPA_PROFIL
 10
57.79999999999643
 20
-1.499999626462226
 30
0.0
  0
VERTEX
  5
1EDC
  8
SAPA_PROFIL
 10
57.79999999999643
 20
-1.999999626462226
 30
0.0
  0
VERTEX
  5
1EDD
  8
SAPA_PROFIL
 10
56.524999999996403
 20
-1.999999626462226
 30
0.0
  0
VERTEX
  5
1EDE
  8
SAPA_PROFIL
 10
56.524999999996403
 20
-3.0999996264622491
 30
0.0
  0
VERTEX
  5
1EDF
  8
SAPA_PROFIL
 10
57.499999999996419
 20
-3.0999996264622491
 30
0.0
 42
-0.4142135623731227
  0
VERTEX
  5
1EE0
  8
SAPA_PROFIL
 10
57.799999999996373
 20
-3.3999996264622041
 30
0.0
  0
VERTEX
  5
1EE1
  8
SAPA_PROFIL
 10
57.799999999996373
 20
-4.3999996264622041
 30
0.0
  0
VERTEX
  5
1EE2
  8
SAPA_PROFIL
 10
56.524999999996403
 20
-4.3999996264622041
 30
0.0
  0
VERTEX
  5
1EE3
  8
SAPA_PROFIL
 10
56.524999999996403
 20
-7.499999626462226
 30
0.0
 42
1.0
  0
VERTEX
  5
1EE4
  8
SAPA_PROFIL
 10
61.724999999996378
 20
-7.499999626462226
 30
0.0
  0
VERTEX
  5
1EE5
  8
SAPA_PROFIL
 10
61.724999999996442
 20
-4.3999996264623169
 30
0.0
  0
VERTEX
  5
1EE6
  8
SAPA_PROFIL
 10
60.499999999996362
 20
-4.3999996264623169
 30
0.0
  0
VERTEX
  5
1EE7
  8
SAPA_PROFIL
 10
60.499999999996362
 20
-3.3999996264622041
 30
0.0
 42
-0.4142135623730673
  0
VERTEX
  5
1EE8
  8
SAPA_PROFIL
 10
60.799999999996373
 20
-3.0999996264622491
 30
0.0
  0
VERTEX
  5
1EE9
  8
SAPA_PROFIL
 10
61.724999999996442
 20
-3.0999996264622491
 30
0.0
  0
VERTEX
  5
1EEA
  8
SAPA_PROFIL
 10
61.724999999996442
 20
-1.999999626462226
 30
0.0
  0
VERTEX
  5
1EEB
  8
SAPA_PROFIL
 10
60.499999999996412
 20
-1.999999626462226
 30
0.0
  0
VERTEX
  5
1EEC
  8
SAPA_PROFIL
 10
60.499999999996412
 20
-1.499999626462226
 30
0.0
 42
-0.4142135623730951
  0
VERTEX
  5
1EED
  8
SAPA_PROFIL
 10
61.999999999996419
 20
0.0000003735377732
 30
0.0
  0
VERTEX
  5
1EEE
  8
SAPA_PROFIL
 10
63.4499999999964
 20
0.0000003735377732
 30
0.0
 42
-0.4142135623731227
  0
VERTEX
  5
1EEF
  8
SAPA_PROFIL
 10
63.749999999996419
 20
-0.2999996264621814
 30
0.0
  0
VERTEX
  5
1EF0
  8
SAPA_PROFIL
 10
63.749999999996419
 20
-2.7999996264621809
 30
0.0
  0
VERTEX
  5
1EF1
  8
SAPA_PROFIL
 10
78.980384757725744
 20
-2.7999996264621809
 30
0.0
  0
VERTEX
  5
1EF2
  8
SAPA_PROFIL
 10
79.499999999996419
 20
-3.099999626462135
 30
0.0
  0
VERTEX
  5
1EF3
  8
SAPA_PROFIL
 10
80.019615242266994
 20
-2.7999996264621809
 30
0.0
  0
VERTEX
  5
1EF4
  8
SAPA_PROFIL
 10
95.249999999996405
 20
-2.7999996264621809
 30
0.0
  0
VERTEX
  5
1EF5
  8
SAPA_PROFIL
 10
95.249999999996405
 20
-0.2999996264621814
 30
0.0
 42
-0.4142135623730951
  0
VERTEX
  5
1EF6
  8
SAPA_PROFIL
 10
95.549999999996487
 20
0.0000003735378868
 30
0.0
  0
VERTEX
  5
1EF7
  8
SAPA_PROFIL
 10
96.999999999996419
 20
0.0000003735378868
 30
0.0
 42
-0.4142135623730951
  0
VERTEX
  5
1EF8
  8
SAPA_PROFIL
 10
98.499999999996419
 20
-1.4999996264621129
 30
0.0
  0
VERTEX
  5
1EF9
  8
SAPA_PROFIL
 10
98.499999999996419
 20
-1.9999996264621129
 30
0.0
  0
VERTEX
  5
1EFA
  8
SAPA_PROFIL
 10
97.274999999996396
 20
-1.9999996264621129
 30
0.0
  0
VERTEX
  5
1EFB
  8
SAPA_PROFIL
 10
97.274999999996396
 20
-3.099999626462135
 30
0.0
  0
VERTEX
  5
1EFC
  8
SAPA_PROFIL
 10
98.199999999996464
 20
-3.099999626462135
 30
0.0
 42
-0.4142135623730951
  0
VERTEX
  5
1EFD
  8
SAPA_PROFIL
 10
98.499999999996419
 20
-3.39999962646209
 30
0.0
  0
VERTEX
  5
1EFE
  8
SAPA_PROFIL
 10
98.499999999996419
 20
-4.3999996264622041
 30
0.0
  0
VERTEX
  5
1EFF
  8
SAPA_PROFIL
 10
97.274999999996396
 20
-4.3999996264622041
 30
0.0
  0
VERTEX
  5
1F00
  8
SAPA_PROFIL
 10
97.274999999996396
 20
-7.4999996264621132
 30
0.0
 42
1.0
  0
VERTEX
  5
1F01
  8
SAPA_PROFIL
 10
102.4749999999964
 20
-7.4999996264621132
 30
0.0
  0
VERTEX
  5
1F02
  8
SAPA_PROFIL
 10
102.4749999999964
 20
-4.3999996264622041
 30
0.0
  0
VERTEX
  5
1F03
  8
SAPA_PROFIL
 10
101.19999999999639
 20
-4.3999996264622041
 30
0.0
  0
VERTEX
  5
1F04
  8
SAPA_PROFIL
 10
101.19999999999639
 20
-3.3999996264622041
 30
0.0
 42
-0.4142135623730951
  0
VERTEX
  5
1F05
  8
SAPA_PROFIL
 10
101.4999999999964
 20
-3.099999626462135
 30
0.0
  0
VERTEX
  5
1F06
  8
SAPA_PROFIL
 10
102.4749999999964
 20
-3.099999626462135
 30
0.0
  0
VERTEX
  5
1F07
  8
SAPA_PROFIL
 10
102.4749999999964
 20
-1.9999996264621129
 30
0.0
  0
VERTEX
  5
1F08
  8
SAPA_PROFIL
 10
101.19999999999639
 20
-1.9999996264621129
 30
0.0
  0
VERTEX
  5
1F09
  8
SAPA_PROFIL
 10
101.19999999999639
 20
-1.4999996264621129
 30
0.0
 42
-0.4142135623730951
  0
VERTEX
  5
1F0A
  8
SAPA_PROFIL
 10
102.69999999999639
 20
0.0000003735378868
 30
0.0
  0
VERTEX
  5
1F0B
  8
SAPA_PROFIL
 10
104.19999999999639
 20
0.0000003735378868
 30
0.0
 42
-0.4142135623730951
  0
VERTEX
  5
1F0C
  8
SAPA_PROFIL
 10
104.4999999999964
 20
-0.2999996264621814
 30
0.0
  0
VERTEX
  5
1F0D
  8
SAPA_PROFIL
 10
104.4999999999964
 20
-55.99999962646212
 30
0.0
  0
VERTEX
  5
1F0E
  8
SAPA_PROFIL
 10
101.4999999999964
 20
-55.99999962646212
 30
0.0
  0
SEQEND
  5
1F0F
  8
SAPA_PROFIL
  0
POLYLINE
  5
1956
  8
SAPA_PROFIL
  6
CONTINUOUS
 62
     7
 66
     1
 10
0.0
 20
0.0
 30
0.0
 70
     1
  0
VERTEX
  5
1F10
  8
SAPA_PROFIL
  6
CONTINUOUS
 62
     7
 10
-74.000000000957144
 20
-16.499999999998192
 30
0.0
  0
VERTEX
  5
1F11
  8
SAPA_PROFIL
  6
CONTINUOUS
 62
     7
 10
-77.000000000003354
 20
-16.499999999998192
 30
0.0
 42
-0.4142135623732074
  0
VERTEX
  5
1F12
  8
SAPA_PROFIL
  6
CONTINUOUS
 62
     7
 10
-77.500000000003368
 20
-15.999999999997989
 30
0.0
  0
VERTEX
  5
1F13
  8
SAPA_PROFIL
  6
CONTINUOUS
 62
     7
 10
-77.499999999999545
 20
-7.3999999999978954
 30
0.0
 42
0.4142135623730951
  0
VERTEX
  5
1F14
  8
SAPA_PROFIL
  6
CONTINUOUS
 62
     7
 10
-77.999999999999545
 20
-6.8999999999978954
 30
0.0
  0
VERTEX
  5
1F15
  8
SAPA_PROFIL
  6
CONTINUOUS
 62
     7
 10
-80.300000000000196
 20
-6.8999999999978954
 30
0.0
 42
-0.4142135623730951
  0
VERTEX
  5
1F16
  8
SAPA_PROFIL
  6
CONTINUOUS
 62
     7
 10
-81.300000000000225
 20
-5.8999999999978954
 30
0.0
  0
VERTEX
  5
1F17
  8
SAPA_PROFIL
  6
CONTINUOUS
 62
     7
 10
-81.300000000000225
 20
-5.0873697418224921
 30
0.0
 42
-0.2216946626429368
  0
VERTEX
  5
1F18
  8
SAPA_PROFIL
  6
CONTINUOUS
 62
     7
 10
-81.192836282906171
 20
-4.8575564088867997
 30
0.0
  0
VERTEX
  5
1F19
  8
SAPA_PROFIL
  6
CONTINUOUS
 62
     7
 10
-80.492836282905628
 20
-4.270186667062247
 30
0.0
 42
-0.6370702608061857
  0
VERTEX
  5
1F1A
  8
SAPA_PROFIL
  6
CONTINUOUS
 62
     7
 10
-80.000000000000014
 20
-4.4999999999981881
 30
0.0
  0
VERTEX
  5
1F1B
  8
SAPA_PROFIL
  6
CONTINUOUS
 62
     7
 10
-80.000000000000014
 20
-5.2999999999983842
 30
0.0
 42
0.4142135623730951
  0
VERTEX
  5
1F1C
  8
SAPA_PROFIL
  6
CONTINUOUS
 62
     7
 10
-79.699999999999804
 20
-5.5999999999985803
 30
0.0
  0
VERTEX
  5
1F1D
  8
SAPA_PROFIL
  6
CONTINUOUS
 62
     7
 10
-75.299999999999272
 20
-5.5999999999976398
 30
0.0
 42
0.4142135623730504
  0
VERTEX
  5
1F1E
  8
SAPA_PROFIL
  6
CONTINUOUS
 62
     7
 10
-74.999999999999545
 20
-5.2999999999974872
 30
0.0
  0
VERTEX
  5
1F1F
  8
SAPA_PROFIL
  6
CONTINUOUS
 62
     7
 10
-74.999999999999559
 20
5.3000000000019583
 30
0.0
 42
0.4142135623730878
  0
VERTEX
  5
1F20
  8
SAPA_PROFIL
  6
CONTINUOUS
 62
     7
 10
-75.299999999999258
 20
5.600000000002133
 30
0.0
  0
VERTEX
  5
1F21
  8
SAPA_PROFIL
  6
CONTINUOUS
 62
     7
 10
-79.699999999999804
 20
5.6000000000020611
 30
0.0
 42
0.4142135623735842
  0
VERTEX
  5
1F22
  8
SAPA_PROFIL
  6
CONTINUOUS
 62
     7
 10
-79.999999999999517
 20
5.3000000000028598
 30
0.0
  0
VERTEX
  5
1F23
  8
SAPA_PROFIL
  6
CONTINUOUS
 62
     7
 10
-80.000000000000014
 20
4.5000000000008731
 30
0.0
 42
-0.6370702608069853
  0
VERTEX
  5
1F24
  8
SAPA_PROFIL
  6
CONTINUOUS
 62
     7
 10
-80.492836282905628
 20
4.2701866670657864
 30
0.0
  0
VERTEX
  5
1F25
  8
SAPA_PROFIL
  6
CONTINUOUS
 62
     7
 10
-81.192836282906171
 20
4.8575564088903462
 30
0.0
 42
-0.2216946626431
  0
VERTEX
  5
1F26
  8
SAPA_PROFIL
  6
CONTINUOUS
 62
     7
 10
-81.300000000000225
 20
5.0873697418262287
 30
0.0
  0
VERTEX
  5
1F27
  8
SAPA_PROFIL
  6
CONTINUOUS
 62
     7
 10
-81.299999999999713
 20
5.9000000000032244
 30
0.0
 42
-0.4142135623730951
  0
VERTEX
  5
1F28
  8
SAPA_PROFIL
  6
CONTINUOUS
 62
     7
 10
-80.299999999999713
 20
6.9000000000032244
 30
0.0
  0
VERTEX
  5
1F29
  8
SAPA_PROFIL
  6
CONTINUOUS
 62
     7
 10
-72.799999999999969
 20
6.9000000000023318
 30
0.0
 42
-0.3178372451964626
  0
VERTEX
  5
1F2A
  8
SAPA_PROFIL
  6
CONTINUOUS
 62
     7
 10
-72.517157287525123
 20
6.7000000000016051
 30
0.0
 42
0.3178372451966722
  0
VERTEX
  5
1F2B
  8
SAPA_PROFIL
  6
CONTINUOUS
 62
     7
 10
-72.23431457505005
 20
6.5000000000008766
 30
0.0
  0
VERTEX
  5
1F2C
  8
SAPA_PROFIL
  6
CONTINUOUS
 62
     7
 10
-70.799999999999727
 20
6.500000000001779
 30
0.0
 42
-0.4142135623726539
  0
VERTEX
  5
1F2D
  8
SAPA_PROFIL
  6
CONTINUOUS
 62
     7
 10
-70.5
 20
6.200000000001598
 30
0.0
  0
VERTEX
  5
1F2E
  8
SAPA_PROFIL
  6
CONTINUOUS
 62
     7
 10
-70.500000000000014
 20
5.6000000000010486
 30
0.0
 42
-0.4142135623730836
  0
VERTEX
  5
1F2F
  8
SAPA_PROFIL
  6
CONTINUOUS
 62
     7
 10
-70.799999999999727
 20
5.3000000000017842
 30
0.0
  0
VERTEX
  5
1F30
  8
SAPA_PROFIL
  6
CONTINUOUS
 62
     7
 10
-72.199999999999804
 20
5.3000000000017771
 30
0.0
 42
0.4142135623730951
  0
VERTEX
  5
1F31
  8
SAPA_PROFIL
  6
CONTINUOUS
 62
     7
 10
-72.499999999999986
 20
5.0000000000016023
 30
0.0
  0
VERTEX
  5
1F32
  8
SAPA_PROFIL
  6
CONTINUOUS
 62
     7
 10
-72.499999999999986
 20
-4.9999999999989821
 30
0.0
 42
0.4142135623730743
  0
VERTEX
  5
1F33
  8
SAPA_PROFIL
  6
CONTINUOUS
 62
     7
 10
-72.199999999999804
 20
-5.2999999999981897
 30
0.0
  0
VERTEX
  5
1F34
  8
SAPA_PROFIL
  6
CONTINUOUS
 62
     7
 10
-70.799999999999727
 20
-5.2999999999990779
 30
0.0
 42
-0.4142135623721762
  0
VERTEX
  5
1F35
  8
SAPA_PROFIL
  6
CONTINUOUS
 62
     7
 10
-70.499999999999957
 20
-5.5999999999983858
 30
0.0
  0
VERTEX
  5
1F36
  8
SAPA_PROFIL
  6
CONTINUOUS
 62
     7
 10
-70.499999999999545
 20
-6.1999999999989992
 30
0.0
 42
-0.4142135623730534
  0
VERTEX
  5
1F37
  8
SAPA_PROFIL
  6
CONTINUOUS
 62
     7
 10
-70.799999999999713
 20
-6.4999999999982139
 30
0.0
  0
VERTEX
  5
1F38
  8
SAPA_PROFIL
  6
CONTINUOUS
 62
     7
 10
-72.234314575050433
 20
-6.4999999999991021
 30
0.0
 42
0.3178372451963242
  0
VERTEX
  5
1F39
  8
SAPA_PROFIL
  6
CONTINUOUS
 62
     7
 10
-72.517157287525123
 20
-6.6999999999980471
 30
0.0
 42
-0.3178372451964607
  0
VERTEX
  5
1F3A
  8
SAPA_PROFIL
  6
CONTINUOUS
 62
     7
 10
-72.799999999999955
 20
-6.8999999999987596
 30
0.0
  0
VERTEX
  5
1F3B
  8
SAPA_PROFIL
  6
CONTINUOUS
 62
     7
 10
-74.500000000000043
 20
-6.8999999999989798
 30
0.0
 42
0.4142135623730597
  0
VERTEX
  5
1F3C
  8
SAPA_PROFIL
  6
CONTINUOUS
 62
     7
 10
-74.999999999999986
 20
-7.3999999999989798
 30
0.0
  0
VERTEX
  5
1F3D
  8
SAPA_PROFIL
  6
CONTINUOUS
 62
     7
 10
-74.999999999999986
 20
-12.40192378920619
 30
0.0
 42
0.2679491923306345
  0
VERTEX
  5
1F3E
  8
SAPA_PROFIL
  6
CONTINUOUS
 62
     7
 10
-74.750000000156874
 20
-12.83493649099549
 30
0.0
 42
-0.2679491923317589
  0
VERTEX
  5
1F3F
  8
SAPA_PROFIL
  6
CONTINUOUS
 62
     7
 10
-73.500000000957129
 20
-14.999999999998179
 30
0.0
  0
VERTEX
  5
1F40
  8
SAPA_PROFIL
  6
CONTINUOUS
 62
     7
 10
-73.500000000957925
 20
-15.999999999998179
 30
0.0
 42
-0.4142135623730951
  0
SEQEND
  5
1F41
  8
SAPA_PROFIL
  6
CONTINUOUS
 62
     7
  0
POLYLINE
  5
1957
  8
SAPA_PROFIL
 62
     4
 66
     1
 10
0.0
 20
0.0
 30
0.0
 70
     1
  0
VERTEX
  5
1F42
  8
SAPA_PROFIL
 62
     4
 10
-64.462221528366854
 20
-22.0267571950349
 30
0.0
 42
-0.3137019356282051
  0
VERTEX
  5
1F43
  8
SAPA_PROFIL
 62
     4
 10
-64.181271744820549
 20
-22.224382820568319
 30
0.0
  0
VERTEX
  5
1F44
  8
SAPA_PROFIL
 62
     4
 10
-63.295794031949349
 20
-24.65721284211234
 30
0.0
 42
0.3152987888779321
  0
VERTEX
  5
1F45
  8
SAPA_PROFIL
 62
     4
 10
-62.919916983632959
 20
-24.920404784782072
 30
0.0
  0
VERTEX
  5
1F46
  8
SAPA_PROFIL
 62
     4
 10
-52.499999998918831
 20
-24.920404784782029
 30
0.0
  0
VERTEX
  5
1F47
  8
SAPA_PROFIL
 62
     4
 10
-42.080083014200738
 20
-24.920404784781969
 30
0.0
 42
0.3152987888779395
  0
VERTEX
  5
1F48
  8
SAPA_PROFIL
 62
     4
 10
-41.70420596588837
 20
-24.657212842112251
 30
0.0
  0
VERTEX
  5
1F49
  8
SAPA_PROFIL
 62
     4
 10
-40.818728253020197
 20
-22.224382820576562
 30
0.0
 42
-0.3138982169096283
  0
VERTEX
  5
1F4A
  8
SAPA_PROFIL
 62
     4
 10
-40.537778469506009
 20
-22.0267571950362
 30
0.0
 42
-0.0157923906855865
  0
VERTEX
  5
1F4B
  8
SAPA_PROFIL
 62
     4
 10
-40.186319937167163
 20
-22.02335406539661
 30
0.0
  0
VERTEX
  5
1F4C
  8
SAPA_PROFIL
 62
     4
 10
-39.946136872384869
 20
-21.88468430829008
 30
0.0
 42
-0.5773502691889272
  0
VERTEX
  5
1F4D
  8
SAPA_PROFIL
 62
     4
 10
-39.631136872385163
 20
-22.06654964308488
 30
0.0
  0
VERTEX
  5
1F4E
  8
SAPA_PROFIL
 62
     4
 10
-39.631136872385042
 20
-22.333664171297791
 30
0.0
  0
VERTEX
  5
1F4F
  8
SAPA_PROFIL
 62
     4
 10
-39.29999999891885
 20
-22.529886237082088
 30
0.0
  0
VERTEX
  5
1F50
  8
SAPA_PROFIL
 62
     4
 10
-38.316679860938329
 20
-23.09753040057954
 30
0.0
 42
0.1316524975869703
  0
VERTEX
  5
1F51
  8
SAPA_PROFIL
 62
     4
 10
-38.211679860939512
 20
-23.125665065784101
 30
0.0
  0
VERTEX
  5
1F52
  8
SAPA_PROFIL
 62
     4
 10
-37.89999999891694
 20
-23.125665065784212
 30
0.0
 42
0.4142135623775584
  0
VERTEX
  5
1F53
  8
SAPA_PROFIL
 62
     4
 10
-37.499999998918902
 20
-22.72566506578389
 30
0.0
  0
VERTEX
  5
1F54
  8
SAPA_PROFIL
 62
     4
 10
-37.499999998918838
 20
-19.32566506578414
 30
0.0
 42
0.4142135623773978
  0
VERTEX
  5
1F55
  8
SAPA_PROFIL
 62
     4
 10
-37.899999998918872
 20
-18.925665065784159
 30
0.0
  0
VERTEX
  5
1F56
  8
SAPA_PROFIL
 62
     4
 10
-38.211679860942517
 20
-18.925665065784159
 30
0.0
 42
0.1316524975869708
  0
VERTEX
  5
1F57
  8
SAPA_PROFIL
 62
     4
 10
-38.316679860939473
 20
-18.95379973098941
 30
0.0
  0
VERTEX
  5
1F58
  8
SAPA_PROFIL
 62
     4
 10
-39.29999999891885
 20
-19.521519877351441
 30
0.0
  0
VERTEX
  5
1F59
  8
SAPA_PROFIL
 62
     4
 10
-39.894744110589727
 20
-19.86489555032356
 30
0.0
 42
-0.1316524975869772
  0
VERTEX
  5
1F5A
  8
SAPA_PROFIL
 62
     4
 10
-40.494744110593103
 20
-20.025665065784072
 30
0.0
  0
VERTEX
  5
1F5B
  8
SAPA_PROFIL
 62
     4
 10
-41.446608443479533
 20
-20.025665065783851
 30
0.0
 42
0.3152987888780149
  0
VERTEX
  5
1F5C
  8
SAPA_PROFIL
 62
     4
 10
-42.386301064251029
 20
-20.683644922458232
 30
0.0
  0
VERTEX
  5
1F5D
  8
SAPA_PROFIL
 62
     4
 10
-43.177415089160881
 20
-22.857212842111931
 30
0.0
 42
-0.3152987888779391
  0
VERTEX
  5
1F5E
  8
SAPA_PROFIL
 62
     4
 10
-43.553292137475403
 20
-23.12040478478205
 30
0.0
  0
VERTEX
  5
1F5F
  8
SAPA_PROFIL
 62
     4
 10
-52.499999998918831
 20
-23.12040478478205
 30
0.0
  0
VERTEX
  5
1F60
  8
SAPA_PROFIL
 62
     4
 10
-61.446707860362331
 20
-23.12040478478211
 30
0.0
 42
-0.3152987888779318
  0
VERTEX
  5
1F61
  8
SAPA_PROFIL
 62
     4
 10
-61.822584908675481
 20
-22.85721284211569
 30
0.0
  0
VERTEX
  5
1F62
  8
SAPA_PROFIL
 62
     4
 10
-62.613698933586591
 20
-20.68364492245847
 30
0.0
 42
0.3152987888779361
  0
VERTEX
  5
1F63
  8
SAPA_PROFIL
 62
     4
 10
-63.55339155438719
 20
-20.025665065784139
 30
0.0
  0
VERTEX
  5
1F64
  8
SAPA_PROFIL
 62
     4
 10
-64.505255887244687
 20
-20.025665065784139
 30
0.0
 42
-0.1316524975869766
  0
VERTEX
  5
1F65
  8
SAPA_PROFIL
 62
     4
 10
-65.105255887237888
 20
-19.864895550329418
 30
0.0
  0
VERTEX
  5
1F66
  8
SAPA_PROFIL
 62
     4
 10
-65.692820321946385
 20
-19.525665065784189
 30
0.0
  0
VERTEX
  5
1F67
  8
SAPA_PROFIL
 62
     4
 10
-66.683320136898317
 20
-18.95379973098947
 30
0.0
 42
0.1316524975869832
  0
VERTEX
  5
1F68
  8
SAPA_PROFIL
 62
     4
 10
-66.788320136901405
 20
-18.92566506578423
 30
0.0
  0
VERTEX
  5
1F69
  8
SAPA_PROFIL
 62
     4
 10
-67.099999998918904
 20
-18.92566506578417
 30
0.0
 42
0.414213562371655
  0
VERTEX
  5
1F6A
  8
SAPA_PROFIL
 62
     4
 10
-67.499999998918895
 20
-19.325665065788129
 30
0.0
  0
VERTEX
  5
1F6B
  8
SAPA_PROFIL
 62
     4
 10
-67.499999998918895
 20
-22.725665065784192
 30
0.0
 42
0.4142135623716633
  0
VERTEX
  5
1F6C
  8
SAPA_PROFIL
 62
     4
 10
-67.099999998916871
 20
-23.125665065784158
 30
0.0
  0
VERTEX
  5
1F6D
  8
SAPA_PROFIL
 62
     4
 10
-66.788320136898221
 20
-23.125665065784158
 30
0.0
 42
0.1316524975869709
  0
VERTEX
  5
1F6E
  8
SAPA_PROFIL
 62
     4
 10
-66.683320136897635
 20
-23.097530400578581
 30
0.0
  0
VERTEX
  5
1F6F
  8
SAPA_PROFIL
 62
     4
 10
-65.368863125452634
 20
-22.333664171297801
 30
0.0
  0
VERTEX
  5
1F70
  8
SAPA_PROFIL
 62
     4
 10
-65.368863125452521
 20
-22.06654964308488
 30
0.0
 42
-0.5773502691889269
  0
VERTEX
  5
1F71
  8
SAPA_PROFIL
 62
     4
 10
-65.053863125452807
 20
-21.88468430829009
 30
0.0
  0
VERTEX
  5
1F72
  8
SAPA_PROFIL
 62
     4
 10
-64.813680060670507
 20
-22.023354065396621
 30
0.0
 42
-0.015792390685586
  0
SEQEND
  5
1F73
  8
SAPA_PROFIL
 62
     4
  0
POLYLINE
  5
1958
  8
SAPA_PROFIL
 66
     1
 10
0.0
 20
0.0
 30
0.0
 70
     1
  0
VERTEX
  5
1F74
  8
SAPA_PROFIL
 10
-37.499999998918867
 20
-22.952058268065279
 30
0.0
 42
0.2134217652834366
  0
VERTEX
  5
1F75
  8
SAPA_PROFIL
 10
-37.39999999891868
 20
-23.17566506581538
 30
0.0
 42
-0.7625858545243175
  0
VERTEX
  5
1F76
  8
SAPA_PROFIL
 10
-37.584579201116171
 20
-23.50599114683239
 30
0.0
  0
VERTEX
  5
1F77
  8
SAPA_PROFIL
 10
-37.775962201109877
 20
-23.4479175098433
 30
0.0
  0
VERTEX
  5
1F78
  8
SAPA_PROFIL
 10
-39.661805892970939
 20
-22.36335306287156
 30
0.0
  0
VERTEX
  5
1F79
  8
SAPA_PROFIL
 10
-39.651244526743973
 20
-22.041595334653309
 30
0.0
 42
0.5773502691897529
  0
VERTEX
  5
1F7A
  8
SAPA_PROFIL
 10
-39.945400826998799
 20
-21.85864159454313
 30
0.0
  0
VERTEX
  5
1F7B
  8
SAPA_PROFIL
 10
-40.230083110230488
 20
-22.0107755056519
 30
0.0
 42
0.2216946626430025
  0
VERTEX
  5
1F7C
  8
SAPA_PROFIL
 10
-40.635892015385231
 20
-22.551655337128679
 30
0.0
  0
VERTEX
  5
1F7D
  8
SAPA_PROFIL
 10
-41.01733861151294
 20
-24.364885807786941
 30
0.0
 42
0.4769755326981438
  0
VERTEX
  5
1F7E
  8
SAPA_PROFIL
 10
-40.715085787006473
 20
-24.736542682732811
 30
0.0
  0
VERTEX
  5
1F7F
  8
SAPA_PROFIL
 10
-39.211984706244472
 20
-24.736459074849151
 30
0.0
  0
VERTEX
  5
1F80
  8
SAPA_PROFIL
 10
-39.197466296997369
 20
-24.688613324850671
 30
0.0
 42
-0.4142135623731001
  0
VERTEX
  5
1F81
  8
SAPA_PROFIL
 10
-38.823281341521557
 20
-24.488649280343271
 30
0.0
  0
VERTEX
  5
1F82
  8
SAPA_PROFIL
 10
-37.500280500000287
 20
-25.000000000000728
 30
0.0
  0
VERTEX
  5
1F83
  8
SAPA_PROFIL
 10
-35.800000000001809
 20
-25.000000000000728
 30
0.0
 42
0.4142135623730951
  0
VERTEX
  5
1F84
  8
SAPA_PROFIL
 10
-35.500000000001847
 20
-24.700000000000539
 30
0.0
  0
VERTEX
  5
1F85
  8
SAPA_PROFIL
 10
-35.500000000001741
 20
-21.699999999999861
 30
0.0
 42
-0.4142135623730951
  0
VERTEX
  5
1F86
  8
SAPA_PROFIL
 10
-35.200000000001793
 20
-21.39999999999991
 30
0.0
  0
VERTEX
  5
1F87
  8
SAPA_PROFIL
 10
-34.80000000000198
 20
-21.39999999999991
 30
0.0
 42
0.4142135623731506
  0
VERTEX
  5
1F88
  8
SAPA_PROFIL
 10
-34.500000000001968
 20
-21.099999999999952
 30
0.0
  0
VERTEX
  5
1F89
  8
SAPA_PROFIL
 10
-34.500000000002082
 20
-19.700000000000198
 30
0.0
 42
0.4142135623731505
  0
VERTEX
  5
1F8A
  8
SAPA_PROFIL
 10
-34.8000000000021
 20
-19.400000000000251
 30
0.0
  0
VERTEX
  5
1F8B
  8
SAPA_PROFIL
 10
-35.200000000001843
 20
-19.400000000000251
 30
0.0
 42
-0.4142135623731506
  0
VERTEX
  5
1F8C
  8
SAPA_PROFIL
 10
-35.500000000001847
 20
-19.100000000000289
 30
0.0
  0
VERTEX
  5
1F8D
  8
SAPA_PROFIL
 10
-35.500000000001862
 20
-10.899999999993881
 30
0.0
 42
-0.4142135623731506
  0
VERTEX
  5
1F8E
  8
SAPA_PROFIL
 10
-35.20000000000185
 20
-10.599999999993919
 30
0.0
  0
VERTEX
  5
1F8F
  8
SAPA_PROFIL
 10
-34.800000000002051
 20
-10.599999999993869
 30
0.0
 42
0.4142135623730951
  0
VERTEX
  5
1F90
  8
SAPA_PROFIL
 10
-34.500000000002039
 20
-10.29999999999397
 30
0.0
  0
VERTEX
  5
1F91
  8
SAPA_PROFIL
 10
-34.500000000001862
 20
-8.8999999999942219
 30
0.0
 42
0.4142135623731505
  0
VERTEX
  5
1F92
  8
SAPA_PROFIL
 10
-34.800000000001873
 20
-8.5999999999942673
 30
0.0
  0
VERTEX
  5
1F93
  8
SAPA_PROFIL
 10
-35.200000000001793
 20
-8.5999999999942105
 30
0.0
 42
-0.4142135623730951
  0
VERTEX
  5
1F94
  8
SAPA_PROFIL
 10
-35.500000000001812
 20
-8.2999999999943128
 30
0.0
  0
VERTEX
  5
1F95
  8
SAPA_PROFIL
 10
-35.500000000001918
 20
-5.299999999993573
 30
0.0
 42
0.4142135623743715
  0
VERTEX
  5
1F96
  8
SAPA_PROFIL
 10
-35.800000000001823
 20
-4.9999999999933911
 30
0.0
  0
VERTEX
  5
1F97
  8
SAPA_PROFIL
 10
-37.500280500035089
 20
-4.9999999999933946
 30
0.0
  0
VERTEX
  5
1F98
  8
SAPA_PROFIL
 10
-38.823281341521572
 20
-5.5113507196373241
 30
0.0
 42
-0.4142135623730744
  0
VERTEX
  5
1F99
  8
SAPA_PROFIL
 10
-39.197466296997369
 20
-5.3113866751299268
 30
0.0
  0
VERTEX
  5
1F9A
  8
SAPA_PROFIL
 10
-39.211984706244479
 20
-5.2635409251314398
 30
0.0
  0
VERTEX
  5
1F9B
  8
SAPA_PROFIL
 10
-40.71508578700648
 20
-5.263457317247787
 30
0.0
 42
0.4769755326981443
  0
VERTEX
  5
1F9C
  8
SAPA_PROFIL
 10
-41.017338611512947
 20
-5.6351141921936581
 30
0.0
  0
VERTEX
  5
1F9D
  8
SAPA_PROFIL
 10
-40.635892015385288
 20
-7.4483446628519117
 30
0.0
 42
0.2216946626430325
  0
VERTEX
  5
1F9E
  8
SAPA_PROFIL
 10
-40.230083110230431
 20
-7.9892244943286981
 30
0.0
  0
VERTEX
  5
1F9F
  8
SAPA_PROFIL
 10
-39.945400826998807
 20
-8.1413584054374617
 30
0.0
 42
0.5773502691897529
  0
VERTEX
  5
1FA0
  8
SAPA_PROFIL
 10
-39.65124452674398
 20
-7.958404665327282
 30
0.0
  0
VERTEX
  5
1FA1
  8
SAPA_PROFIL
 10
-39.661805892970953
 20
-7.6366469371090382
 30
0.0
  0
VERTEX
  5
1FA2
  8
SAPA_PROFIL
 10
-37.775962201109891
 20
-6.5520824901372983
 30
0.0
  0
VERTEX
  5
1FA3
  8
SAPA_PROFIL
 10
-37.584579201116171
 20
-6.4940088531483191
 30
0.0
 42
-0.7625858545243173
  0
VERTEX
  5
1FA4
  8
SAPA_PROFIL
 10
-37.399999998918751
 20
-6.8243349341652113
 30
0.0
 42
0.2134217652834366
  0
VERTEX
  5
1FA5
  8
SAPA_PROFIL
 10
-37.499999998918881
 20
-7.0479417319153193
 30
0.0
  0
VERTEX
  5
1FA6
  8
SAPA_PROFIL
 10
-37.499999998918881
 20
-10.90072813649134
 30
0.0
 42
-0.4142135623730951
  0
VERTEX
  5
1FA7
  8
SAPA_PROFIL
 10
-37.799999998918842
 20
-11.200728136491289
 30
0.0
  0
VERTEX
  5
1FA8
  8
SAPA_PROFIL
 10
-38.099999998919252
 20
-11.200728136491289
 30
0.0
  0
VERTEX
  5
1FA9
  8
SAPA_PROFIL
 10
-39.699999998918699
 20
-10.276967705787669
 30
0.0
 42
0.577350269189529
  0
VERTEX
  5
1FAA
  8
SAPA_PROFIL
 10
-39.999999998918881
 20
-10.45017278654471
 30
0.0
  0
VERTEX
  5
1FAB
  8
SAPA_PROFIL
 10
-39.999999998918867
 20
-19.549827213449412
 30
0.0
 42
0.577350269189529
  0
VERTEX
  5
1FAC
  8
SAPA_PROFIL
 10
-39.699999998918692
 20
-19.723032294206451
 30
0.0
  0
VERTEX
  5
1FAD
  8
SAPA_PROFIL
 10
-38.099999998919237
 20
-18.799271863502831
 30
0.0
  0
VERTEX
  5
1FAE
  8
SAPA_PROFIL
 10
-37.799999998918828
 20
-18.79927186350282
 30
0.0
 42
-0.4142135623730951
  0
VERTEX
  5
1FAF
  8
SAPA_PROFIL
 10
-37.499999998918867
 20
-19.099271863502779
 30
0.0
  0
SEQEND
  5
1FB0
  8
SAPA_PROFIL
  0
POLYLINE
  5
1959
  8
SAPA_PROFIL
  6
CONTINUOUS
 62
     7
 66
     1
 10
0.0
 20
0.0
 30
0.0
 70
     1
  0
VERTEX
  5
1FB1
  8
SAPA_PROFIL
  6
CONTINUOUS
 62
     7
 10
-87.300003047092844
 20
-23.000000000035481
 30
0.0
  0
VERTEX
  5
1FB2
  8
SAPA_PROFIL
  6
CONTINUOUS
 62
     7
 10
-87.300003047092844
 20
-21.350000000043121
 30
0.0
 42
-0.4142135623729003
  0
VERTEX
  5
1FB3
  8
SAPA_PROFIL
  6
CONTINUOUS
 62
     7
 10
-87.000003047092889
 20
-21.050000000042932
 30
0.0
  0
VERTEX
  5
1FB4
  8
SAPA_PROFIL
  6
CONTINUOUS
 62
     7
 10
-85.400000001070865
 20
-21.050000000042932
 30
0.0
 42
0.1806877882261281
  0
VERTEX
  5
1FB5
  8
SAPA_PROFIL
  6
CONTINUOUS
 62
     7
 10
-83.400283406662723
 20
-20.302961906125269
 30
0.0
 42
0.9538213995949648
  0
VERTEX
  5
1FB6
  8
SAPA_PROFIL
  6
CONTINUOUS
 62
     7
 10
-84.328106923347434
 20
-19.126474928900279
 30
0.0
  0
VERTEX
  5
1FB7
  8
SAPA_PROFIL
  6
CONTINUOUS
 62
     7
 10
-84.585303985957879
 20
-19.057559183678681
 30
0.0
 42
0.4142135623719595
  0
VERTEX
  5
1FB8
  8
SAPA_PROFIL
  6
CONTINUOUS
 62
     7
 10
-84.891481088747057
 20
-19.234330616393891
 30
0.0
  0
VERTEX
  5
1FB9
  8
SAPA_PROFIL
  6
CONTINUOUS
 62
     7
 10
-84.958891075394575
 20
-19.485908111498301
 30
0.0
 42
-0.4299878773908156
  0
VERTEX
  5
1FBA
  8
SAPA_PROFIL
  6
CONTINUOUS
 62
     7
 10
-86.907390018256649
 20
-18.360936748081262
 30
0.0
  0
VERTEX
  5
1FBB
  8
SAPA_PROFIL
  6
CONTINUOUS
 62
     7
 10
-86.723221125915671
 20
-18.176767855739829
 30
0.0
 42
0.4142135623718706
  0
VERTEX
  5
1FBC
  8
SAPA_PROFIL
  6
CONTINUOUS
 62
     7
 10
-86.723221125915714
 20
-17.823224990309431
 30
0.0
  0
VERTEX
  5
1FBD
  8
SAPA_PROFIL
  6
CONTINUOUS
 62
     7
 10
-86.907388636179277
 20
-17.639057480044759
 30
0.0
 42
-0.429987877699598
  0
VERTEX
  5
1FBE
  8
SAPA_PROFIL
  6
CONTINUOUS
 62
     7
 10
-84.958885384142661
 20
-16.51409357811281
 30
0.0
  0
VERTEX
  5
1FBF
  8
SAPA_PROFIL
  6
CONTINUOUS
 62
     7
 10
-84.891474890507965
 20
-16.76567296531892
 30
0.0
 42
0.4142135623733942
  0
VERTEX
  5
1FC0
  8
SAPA_PROFIL
  6
CONTINUOUS
 62
     7
 10
-84.585297787718744
 20
-16.942444398034251
 30
0.0
  0
VERTEX
  5
1FC1
  8
SAPA_PROFIL
  6
CONTINUOUS
 62
     7
 10
-84.328101588455098
 20
-16.87352888414636
 30
0.0
 42
0.9538172250823233
  0
VERTEX
  5
1FC2
  8
SAPA_PROFIL
  6
CONTINUOUS
 62
     7
 10
-83.400283406534726
 20
-15.69703809381471
 30
0.0
 42
0.1806877881352354
  0
VERTEX
  5
1FC3
  8
SAPA_PROFIL
  6
CONTINUOUS
 62
     7
 10
-85.40000000107085
 20
-14.950000000043479
 30
0.0
  0
VERTEX
  5
1FC4
  8
SAPA_PROFIL
  6
CONTINUOUS
 62
     7
 10
-87.300000003219836
 20
-14.950000000043479
 30
0.0
 42
-0.4142135623728949
  0
VERTEX
  5
1FC5
  8
SAPA_PROFIL
  6
CONTINUOUS
 62
     7
 10
-87.600000003220714
 20
-14.65000000004239
 30
0.0
  0
VERTEX
  5
1FC6
  8
SAPA_PROFIL
  6
CONTINUOUS
 62
     7
 10
-87.600000003219805
 20
-13.000000000045389
 30
0.0
 42
-0.4142135623747599
  0
VERTEX
  5
1FC7
  8
SAPA_PROFIL
  6
CONTINUOUS
 62
     7
 10
-87.300000003218699
 20
-12.7000000000453
 30
0.0
  0
VERTEX
  5
1FC8
  8
SAPA_PROFIL
  6
CONTINUOUS
 62
     7
 10
-82.599999998920154
 20
-12.700000000056519
 30
0.0
 42
0.414213562374087
  0
VERTEX
  5
1FC9
  8
SAPA_PROFIL
  6
CONTINUOUS
 62
     7
 10
-82.299999998920214
 20
-12.400000000056339
 30
0.0
  0
VERTEX
  5
1FCA
  8
SAPA_PROFIL
  6
CONTINUOUS
 62
     7
 10
-82.299999998919077
 20
-11.300000000024969
 30
0.0
 42
0.4142135623632305
  0
VERTEX
  5
1FCB
  8
SAPA_PROFIL
  6
CONTINUOUS
 62
     7
 10
-82.599999998918165
 20
-11.000000000031759
 30
0.0
  0
VERTEX
  5
1FCC
  8
SAPA_PROFIL
  6
CONTINUOUS
 62
     7
 10
-92.700000003219714
 20
-11.000000000014561
 30
0.0
 42
0.4142135623563092
  0
VERTEX
  5
1FCD
  8
SAPA_PROFIL
  6
CONTINUOUS
 62
     7
 10
-93.000000003220805
 20
-11.300000000014739
 30
0.0
  0
VERTEX
  5
1FCE
  8
SAPA_PROFIL
  6
CONTINUOUS
 62
     7
 10
-93.000000003221714
 20
-19.200000000013379
 30
0.0
 42
0.414213562392466
  0
VERTEX
  5
1FCF
  8
SAPA_PROFIL
  6
CONTINUOUS
 62
     7
 10
-92.70000000322085
 20
-19.500000000014559
 30
0.0
  0
VERTEX
  5
1FD0
  8
SAPA_PROFIL
  6
CONTINUOUS
 62
     7
 10
-91.600000003220714
 20
-19.500000000035481
 30
0.0
 42
0.4142135623952085
  0
VERTEX
  5
1FD1
  8
SAPA_PROFIL
  6
CONTINUOUS
 62
     7
 10
-91.300000003220745
 20
-19.200000000013471
 30
0.0
  0
VERTEX
  5
1FD2
  8
SAPA_PROFIL
  6
CONTINUOUS
 62
     7
 10
-91.300000003219836
 20
-13.70000000003802
 30
0.0
 42
-0.9999999999999998
  0
VERTEX
  5
1FD3
  8
SAPA_PROFIL
  6
CONTINUOUS
 62
     7
 10
-89.30000000321985
 20
-13.70000000003802
 30
0.0
  0
VERTEX
  5
1FD4
  8
SAPA_PROFIL
  6
CONTINUOUS
 62
     7
 10
-89.30000000321985
 20
-15.60541036337418
 30
0.0
 42
0.1539147210606419
  0
VERTEX
  5
1FD5
  8
SAPA_PROFIL
  6
CONTINUOUS
 62
     7
 10
-89.245745616505758
 20
-15.777483294280501
 30
0.0
  0
VERTEX
  5
1FD6
  8
SAPA_PROFIL
  6
CONTINUOUS
 62
     7
 10
-88.354254389933772
 20
-17.050664712538431
 30
0.0
 42
-0.1539147210594121
  0
VERTEX
  5
1FD7
  8
SAPA_PROFIL
  6
CONTINUOUS
 62
     7
 10
-88.300000003220305
 20
-17.222737643443001
 30
0.0
  0
VERTEX
  5
1FD8
  8
SAPA_PROFIL
  6
CONTINUOUS
 62
     7
 10
-88.300000003219864
 20
-19.989341626523132
 30
0.0
 42
-0.1872522264746358
  0
VERTEX
  5
1FD9
  8
SAPA_PROFIL
  6
CONTINUOUS
 62
     7
 10
-88.378547314063383
 20
-20.191724201034059
 30
0.0
  0
VERTEX
  5
1FDA
  8
SAPA_PROFIL
  6
CONTINUOUS
 62
     7
 10
-89.221452692375919
 20
-21.11405490655131
 30
0.0
 42
0.1872522264746339
  0
VERTEX
  5
1FDB
  8
SAPA_PROFIL
  6
CONTINUOUS
 62
     7
 10
-89.30000000321985
 20
-21.316437481061261
 30
0.0
  0
VERTEX
  5
1FDC
  8
SAPA_PROFIL
  6
CONTINUOUS
 62
     7
 10
-89.30000000321985
 20
-24.700000000013549
 30
0.0
 42
0.4142135623952092
  0
VERTEX
  5
1FDD
  8
SAPA_PROFIL
  6
CONTINUOUS
 62
     7
 10
-89.000000003219967
 20
-25.000000000033321
 30
0.0
  0
VERTEX
  5
1FDE
  8
SAPA_PROFIL
  6
CONTINUOUS
 62
     7
 10
-86.08038780482218
 20
-25.000000000033332
 30
0.0
 42
0.131652497587394
  0
VERTEX
  5
1FDF
  8
SAPA_PROFIL
  6
CONTINUOUS
 62
     7
 10
-85.930387804822189
 20
-24.959807621168661
 30
0.0
  0
VERTEX
  5
1FE0
  8
SAPA_PROFIL
  6
CONTINUOUS
 62
     7
 10
-85.550003047092858
 20
-24.740192378898001
 30
0.0
 42
-0.2679491924311264
  0
VERTEX
  5
1FE1
  8
SAPA_PROFIL
  6
CONTINUOUS
 62
     7
 10
-85.250003047092846
 20
-24.740192378898008
 30
0.0
  0
VERTEX
  5
1FE2
  8
SAPA_PROFIL
  6
CONTINUOUS
 62
     7
 10
-84.869618289367963
 20
-24.95980762116611
 30
0.0
 42
0.1316524975876173
  0
VERTEX
  5
1FE3
  8
SAPA_PROFIL
  6
CONTINUOUS
 62
     7
 10
-84.719618289367716
 20
-25.00000000003077
 30
0.0
  0
VERTEX
  5
1FE4
  8
SAPA_PROFIL
  6
CONTINUOUS
 62
     7
 10
-67.499719497750803
 20
-25.000000000015451
 30
0.0
  0
VERTEX
  5
1FE5
  8
SAPA_PROFIL
  6
CONTINUOUS
 62
     7
 10
-66.176718656316211
 20
-24.48864928039157
 30
0.0
 42
-0.4142135623730732
  0
VERTEX
  5
1FE6
  8
SAPA_PROFIL
  6
CONTINUOUS
 62
     7
 10
-65.802533700840399
 20
-24.68861332489897
 30
0.0
  0
VERTEX
  5
1FE7
  8
SAPA_PROFIL
  6
CONTINUOUS
 62
     7
 10
-65.788015291593297
 20
-24.73645907489745
 30
0.0
  0
VERTEX
  5
1FE8
  8
SAPA_PROFIL
  6
CONTINUOUS
 62
     7
 10
-64.284914210831289
 20
-24.73654268278111
 30
0.0
 42
0.4769755326981473
  0
VERTEX
  5
1FE9
  8
SAPA_PROFIL
  6
CONTINUOUS
 62
     7
 10
-63.982661386324821
 20
-24.36488580783524
 30
0.0
  0
VERTEX
  5
1FEA
  8
SAPA_PROFIL
  6
CONTINUOUS
 62
     7
 10
-64.364107982452481
 20
-22.551655337176982
 30
0.0
 42
0.2216946626430328
  0
VERTEX
  5
1FEB
  8
SAPA_PROFIL
  6
CONTINUOUS
 62
     7
 10
-64.769916887607323
 20
-22.010775505700192
 30
0.0
  0
VERTEX
  5
1FEC
  8
SAPA_PROFIL
  6
CONTINUOUS
 62
     7
 10
-65.054599170838955
 20
-21.858641594591429
 30
0.0
 42
0.5773502691897292
  0
VERTEX
  5
1FED
  8
SAPA_PROFIL
  6
CONTINUOUS
 62
     7
 10
-65.348755471093796
 20
-22.041595334701611
 30
0.0
  0
VERTEX
  5
1FEE
  8
SAPA_PROFIL
  6
CONTINUOUS
 62
     7
 10
-65.33819410486683
 20
-22.363353062919849
 30
0.0
  0
VERTEX
  5
1FEF
  8
SAPA_PROFIL
  6
CONTINUOUS
 62
     7
 10
-67.224037796727885
 20
-23.4479175098916
 30
0.0
  0
VERTEX
  5
1FF0
  8
SAPA_PROFIL
  6
CONTINUOUS
 62
     7
 10
-67.415420796721605
 20
-23.505991146880579
 30
0.0
 42
-0.7625858545243111
  0
VERTEX
  5
1FF1
  8
SAPA_PROFIL
  6
CONTINUOUS
 62
     7
 10
-67.599999998919031
 20
-23.175665065863679
 30
0.0
 42
0.2134217652834384
  0
VERTEX
  5
1FF2
  8
SAPA_PROFIL
  6
CONTINUOUS
 62
     7
 10
-67.499999998918895
 20
-22.952058268077959
 30
0.0
  0
VERTEX
  5
1FF3
  8
SAPA_PROFIL
  6
CONTINUOUS
 62
     7
 10
-67.499999998918895
 20
-19.099271863494319
 30
0.0
 42
-0.4142135623719642
  0
VERTEX
  5
1FF4
  8
SAPA_PROFIL
  6
CONTINUOUS
 62
     7
 10
-67.199999998918955
 20
-18.799271863493232
 30
0.0
  0
VERTEX
  5
1FF5
  8
SAPA_PROFIL
  6
CONTINUOUS
 62
     7
 10
-66.899999998918759
 20
-18.799271863494141
 30
0.0
  0
VERTEX
  5
1FF6
  8
SAPA_PROFIL
  6
CONTINUOUS
 62
     7
 10
-65.299999998918878
 20
-19.72303229419866
 30
0.0
 42
0.5773502691885648
  0
VERTEX
  5
1FF7
  8
SAPA_PROFIL
  6
CONTINUOUS
 62
     7
 10
-64.999999998918895
 20
-19.549827213440949
 30
0.0
  0
VERTEX
  5
1FF8
  8
SAPA_PROFIL
  6
CONTINUOUS
 62
     7
 10
-64.999999998918895
 20
-10.450172786622719
 30
0.0
 42
0.5773502691885171
  0
VERTEX
  5
1FF9
  8
SAPA_PROFIL
  6
CONTINUOUS
 62
     7
 10
-65.299999998918835
 20
-10.27696770586499
 30
0.0
  0
VERTEX
  5
1FFA
  8
SAPA_PROFIL
  6
CONTINUOUS
 62
     7
 10
-66.899999998918759
 20
-11.20072813656952
 30
0.0
  0
VERTEX
  5
1FFB
  8
SAPA_PROFIL
  6
CONTINUOUS
 62
     7
 10
-67.199999998918955
 20
-11.20072813656952
 30
0.0
 42
-0.4142135623719644
  0
VERTEX
  5
1FFC
  8
SAPA_PROFIL
  6
CONTINUOUS
 62
     7
 10
-67.499999998917986
 20
-10.90072813656934
 30
0.0
  0
VERTEX
  5
1FFD
  8
SAPA_PROFIL
  6
CONTINUOUS
 62
     7
 10
-67.499999998918895
 20
-7.0479417319636184
 30
0.0
 42
0.2134217652834359
  0
VERTEX
  5
1FFE
  8
SAPA_PROFIL
  6
CONTINUOUS
 62
     7
 10
-67.599999998919088
 20
-6.8243349342135096
 30
0.0
 42
-0.7625858545243172
  0
VERTEX
  5
1FFF
  8
SAPA_PROFIL
  6
CONTINUOUS
 62
     7
 10
-67.415420796721605
 20
-6.4940088531965037
 30
0.0
  0
VERTEX
  5
2000
  8
SAPA_PROFIL
  6
CONTINUOUS
 62
     7
 10
-67.224037796727885
 20
-6.5520824901855974
 30
0.0
  0
VERTEX
  5
2001
  8
SAPA_PROFIL
  6
CONTINUOUS
 62
     7
 10
-65.33819410486683
 20
-7.6366469371573373
 30
0.0
  0
VERTEX
  5
2002
  8
SAPA_PROFIL
  6
CONTINUOUS
 62
     7
 10
-65.348755471093796
 20
-7.9584046653755811
 30
0.0
 42
0.5773502691897293
  0
VERTEX
  5
2003
  8
SAPA_PROFIL
  6
CONTINUOUS
 62
     7
 10
-65.054599170838955
 20
-8.1413584054857608
 30
0.0
  0
VERTEX
  5
2004
  8
SAPA_PROFIL
  6
CONTINUOUS
 62
     7
 10
-64.76991688760728
 20
-7.9892244943769981
 30
0.0
 42
0.2216946626430043
  0
VERTEX
  5
2005
  8
SAPA_PROFIL
  6
CONTINUOUS
 62
     7
 10
-64.364107982452538
 20
-7.4483446629002108
 30
0.0
  0
VERTEX
  5
2006
  8
SAPA_PROFIL
  6
CONTINUOUS
 62
     7
 10
-63.982661386324821
 20
-5.6351141922419572
 30
0.0
 42
0.4769755326981317
  0
VERTEX
  5
2007
  8
SAPA_PROFIL
  6
CONTINUOUS
 62
     7
 10
-64.284914210831289
 20
-5.263457317296087
 30
0.0
  0
VERTEX
  5
2008
  8
SAPA_PROFIL
  6
CONTINUOUS
 62
     7
 10
-65.788015291593297
 20
-5.2635409251797389
 30
0.0
  0
VERTEX
  5
2009
  8
SAPA_PROFIL
  6
CONTINUOUS
 62
     7
 10
-65.802533700840399
 20
-5.3113866751782259
 30
0.0
 42
-0.4142135623730951
  0
VERTEX
  5
200A
  8
SAPA_PROFIL
  6
CONTINUOUS
 62
     7
 10
-66.176718656316211
 20
-5.5113507196856233
 30
0.0
  0
VERTEX
  5
200B
  8
SAPA_PROFIL
  6
CONTINUOUS
 62
     7
 10
-67.499719497766961
 20
-5.0000000000554223
 30
0.0
  0
VERTEX
  5
200C
  8
SAPA_PROFIL
  6
CONTINUOUS
 62
     7
 10
-69.699999998919864
 20
-5.0000000000671916
 30
0.0
 42
0.4142135623531162
  0
VERTEX
  5
200D
  8
SAPA_PROFIL
  6
CONTINUOUS
 62
     7
 10
-69.999999998919108
 20
-5.3000000000468823
 30
0.0
  0
VERTEX
  5
200E
  8
SAPA_PROFIL
  6
CONTINUOUS
 62
     7
 10
-69.999999998919108
 20
-10.00000000003118
 30
0.0
 42
-0.4142135623737027
  0
VERTEX
  5
200F
  8
SAPA_PROFIL
  6
CONTINUOUS
 62
     7
 10
-70.999999998921183
 20
-11.00000000003118
 30
0.0
  0
VERTEX
  5
2010
  8
SAPA_PROFIL
  6
CONTINUOUS
 62
     7
 10
-73.99999999891844
 20
-11.00000000002496
 30
0.0
 42
0.4142135623737057
  0
VERTEX
  5
2011
  8
SAPA_PROFIL
  6
CONTINUOUS
 62
     7
 10
-74.299999998919063
 20
-11.300000000024969
 30
0.0
  0
VERTEX
  5
2012
  8
SAPA_PROFIL
  6
CONTINUOUS
 62
     7
 10
-74.299999998919063
 20
-12.573438483802819
 30
0.0
 42
0.1962615682814401
  0
VERTEX
  5
2013
  8
SAPA_PROFIL
  6
CONTINUOUS
 62
     7
 10
-74.214285713204774
 20
-12.78339474747051
 30
0.0
 42
-0.1962615682813938
  0
VERTEX
  5
2014
  8
SAPA_PROFIL
  6
CONTINUOUS
 62
     7
 10
-73.499999998919094
 20
-14.53303027802971
 30
0.0
  0
VERTEX
  5
2015
  8
SAPA_PROFIL
  6
CONTINUOUS
 62
     7
 10
-73.499999998919094
 20
-23.000000000034959
 30
0.0
 42
-0.414213562373709
  0
VERTEX
  5
2016
  8
SAPA_PROFIL
  6
CONTINUOUS
 62
     7
 10
-73.799999998919063
 20
-23.300000000036
 30
0.0
  0
VERTEX
  5
2017
  8
SAPA_PROFIL
  6
CONTINUOUS
 62
     7
 10
-87.000003047092875
 20
-23.300000000035659
 30
0.0
 42
-0.4142135623728949
  0
SEQEND
  5
2018
  8
SAPA_PROFIL
  6
CONTINUOUS
 62
     7
  0
POLYLINE
  5
195A
  8
SAPA_PROFIL
 62
     4
 66
     1
 10
0.0
 20
0.0
 30
0.0
 70
     1
  0
VERTEX
  5
2019
  8
SAPA_PROFIL
 62
     4
 10
-64.462221528366854
 20
-7.973242804959213
 30
0.0
 42
0.3137019356282051
  0
VERTEX
  5
201A
  8
SAPA_PROFIL
 62
     4
 10
-64.181271744820549
 20
-7.7756171794257929
 30
0.0
  0
VERTEX
  5
201B
  8
SAPA_PROFIL
 62
     4
 10
-63.295794031949349
 20
-5.3427871578817729
 30
0.0
 42
-0.3152987888779321
  0
VERTEX
  5
201C
  8
SAPA_PROFIL
 62
     4
 10
-62.919916983632959
 20
-5.079595215212052
 30
0.0
  0
VERTEX
  5
201D
  8
SAPA_PROFIL
 62
     4
 10
-52.499999998918831
 20
-5.0795952152120831
 30
0.0
  0
VERTEX
  5
201E
  8
SAPA_PROFIL
 62
     4
 10
-42.080083014200738
 20
-5.0795952152121409
 30
0.0
 42
-0.3152987888779395
  0
VERTEX
  5
201F
  8
SAPA_PROFIL
 62
     4
 10
-41.70420596588837
 20
-5.3427871578818618
 30
0.0
  0
VERTEX
  5
2020
  8
SAPA_PROFIL
 62
     4
 10
-40.818728253020197
 20
-7.7756171794175559
 30
0.0
 42
0.3138982169096283
  0
VERTEX
  5
2021
  8
SAPA_PROFIL
 62
     4
 10
-40.537778469506009
 20
-7.97324280495791
 30
0.0
 42
0.0157923906855865
  0
VERTEX
  5
2022
  8
SAPA_PROFIL
 62
     4
 10
-40.186319937167163
 20
-7.9766459345975056
 30
0.0
  0
VERTEX
  5
2023
  8
SAPA_PROFIL
 62
     4
 10
-39.946136872384869
 20
-8.1153156917040317
 30
0.0
 42
0.5773502691889272
  0
VERTEX
  5
2024
  8
SAPA_PROFIL
 62
     4
 10
-39.631136872385163
 20
-7.9334503569092378
 30
0.0
  0
VERTEX
  5
2025
  8
SAPA_PROFIL
 62
     4
 10
-39.631136872385042
 20
-7.6663358286963241
 30
0.0
  0
VERTEX
  5
2026
  8
SAPA_PROFIL
 62
     4
 10
-39.29999999891885
 20
-7.4701137629120256
 30
0.0
  0
VERTEX
  5
2027
  8
SAPA_PROFIL
 62
     4
 10
-38.316679860938329
 20
-6.9024695994145784
 30
0.0
 42
-0.1316524975869703
  0
VERTEX
  5
2028
  8
SAPA_PROFIL
 62
     4
 10
-38.211679860939512
 20
-6.8743349342100171
 30
0.0
  0
VERTEX
  5
2029
  8
SAPA_PROFIL
 62
     4
 10
-37.89999999891694
 20
-6.8743349342099034
 30
0.0
 42
-0.4142135623775584
  0
VERTEX
  5
202A
  8
SAPA_PROFIL
 62
     4
 10
-37.499999998918902
 20
-7.2743349342102208
 30
0.0
  0
VERTEX
  5
202B
  8
SAPA_PROFIL
 62
     4
 10
-37.499999998918838
 20
-10.67433493420997
 30
0.0
 42
-0.4142135623773978
  0
VERTEX
  5
202C
  8
SAPA_PROFIL
 62
     4
 10
-37.899999998918872
 20
-11.074334934209951
 30
0.0
  0
VERTEX
  5
202D
  8
SAPA_PROFIL
 62
     4
 10
-38.211679860942517
 20
-11.074334934209951
 30
0.0
 42
-0.1316524975869708
  0
VERTEX
  5
202E
  8
SAPA_PROFIL
 62
     4
 10
-38.316679860939473
 20
-11.0462002690047
 30
0.0
  0
VERTEX
  5
202F
  8
SAPA_PROFIL
 62
     4
 10
-39.29999999891885
 20
-10.47848012264267
 30
0.0
  0
VERTEX
  5
2030
  8
SAPA_PROFIL
 62
     4
 10
-39.894744110589727
 20
-10.13510444967055
 30
0.0
 42
0.1316524975869772
  0
VERTEX
  5
2031
  8
SAPA_PROFIL
 62
     4
 10
-40.494744110593103
 20
-9.9743349342100398
 30
0.0
  0
VERTEX
  5
2032
  8
SAPA_PROFIL
 62
     4
 10
-41.446608443479533
 20
-9.9743349342102654
 30
0.0
 42
-0.3152987888780149
  0
VERTEX
  5
2033
  8
SAPA_PROFIL
 62
     4
 10
-42.386301064251029
 20
-9.3163550775358779
 30
0.0
  0
VERTEX
  5
2034
  8
SAPA_PROFIL
 62
     4
 10
-43.177415089160881
 20
-7.1427871578821858
 30
0.0
 42
0.3152987888779391
  0
VERTEX
  5
2035
  8
SAPA_PROFIL
 62
     4
 10
-43.553292137475403
 20
-6.879595215212067
 30
0.0
  0
VERTEX
  5
2036
  8
SAPA_PROFIL
 62
     4
 10
-52.499999998918831
 20
-6.8795952152120661
 30
0.0
  0
VERTEX
  5
2037
  8
SAPA_PROFIL
 62
     4
 10
-61.446707860362331
 20
-6.8795952152120066
 30
0.0
 42
0.3152987888779318
  0
VERTEX
  5
2038
  8
SAPA_PROFIL
 62
     4
 10
-61.822584908675481
 20
-7.1427871578784314
 30
0.0
  0
VERTEX
  5
2039
  8
SAPA_PROFIL
 62
     4
 10
-62.613698933586591
 20
-9.3163550775356452
 30
0.0
 42
-0.3152987888779361
  0
VERTEX
  5
203A
  8
SAPA_PROFIL
 62
     4
 10
-63.55339155438719
 20
-9.9743349342099776
 30
0.0
  0
VERTEX
  5
203B
  8
SAPA_PROFIL
 62
     4
 10
-64.505255887244687
 20
-9.9743349342099776
 30
0.0
 42
0.1316524975869766
  0
VERTEX
  5
203C
  8
SAPA_PROFIL
 62
     4
 10
-65.105255887237888
 20
-10.13510444966469
 30
0.0
  0
VERTEX
  5
203D
  8
SAPA_PROFIL
 62
     4
 10
-65.692820321946385
 20
-10.474334934209921
 30
0.0
  0
VERTEX
  5
203E
  8
SAPA_PROFIL
 62
     4
 10
-66.683320136898317
 20
-11.04620026900464
 30
0.0
 42
-0.1316524975869832
  0
VERTEX
  5
203F
  8
SAPA_PROFIL
 62
     4
 10
-66.788320136901405
 20
-11.07433493420988
 30
0.0
  0
VERTEX
  5
2040
  8
SAPA_PROFIL
 62
     4
 10
-67.099999998918904
 20
-11.07433493420994
 30
0.0
 42
-0.414213562371655
  0
VERTEX
  5
2041
  8
SAPA_PROFIL
 62
     4
 10
-67.499999998918895
 20
-10.67433493420598
 30
0.0
  0
VERTEX
  5
2042
  8
SAPA_PROFIL
 62
     4
 10
-67.499999998918895
 20
-7.2743349342099322
 30
0.0
 42
-0.4142135623716633
  0
VERTEX
  5
2043
  8
SAPA_PROFIL
 62
     4
 10
-67.099999998916871
 20
-6.874334934209954
 30
0.0
  0
VERTEX
  5
2044
  8
SAPA_PROFIL
 62
     4
 10
-66.788320136898221
 20
-6.874334934209954
 30
0.0
 42
-0.1316524975869709
  0
VERTEX
  5
2045
  8
SAPA_PROFIL
 62
     4
 10
-66.683320136897635
 20
-6.9024695994155394
 30
0.0
  0
VERTEX
  5
2046
  8
SAPA_PROFIL
 62
     4
 10
-65.368863125452634
 20
-7.6663358286963179
 30
0.0
  0
VERTEX
  5
2047
  8
SAPA_PROFIL
 62
     4
 10
-65.368863125452521
 20
-7.9334503569092334
 30
0.0
 42
0.5773502691889269
  0
VERTEX
  5
2048
  8
SAPA_PROFIL
 62
     4
 10
-65.053863125452807
 20
-8.1153156917040263
 30
0.0
  0
VERTEX
  5
2049
  8
SAPA_PROFIL
 62
     4
 10
-64.813680060670507
 20
-7.976645934597502
 30
0.0
 42
0.015792390685586
  0
SEQEND
  5
204A
  8
SAPA_PROFIL
 62
     4
  0
POLYLINE
  5
195B
  8
SAPA_PROFIL
  6
CONTINUOUS
 62
     7
 66
     1
 10
0.0
 20
0.0
 30
0.0
 70
     1
  0
VERTEX
  5
204B
  8
SAPA_PROFIL
  6
CONTINUOUS
 62
     7
 10
-74.000000000956746
 20
16.499999999997019
 30
0.0
  0
VERTEX
  5
204C
  8
SAPA_PROFIL
  6
CONTINUOUS
 62
     7
 10
-77.00000000000297
 20
16.499999999997019
 30
0.0
 42
0.4142135623732074
  0
VERTEX
  5
204D
  8
SAPA_PROFIL
  6
CONTINUOUS
 62
     7
 10
-77.50000000000297
 20
15.999999999996829
 30
0.0
  0
VERTEX
  5
204E
  8
SAPA_PROFIL
  6
CONTINUOUS
 62
     7
 10
-77.499999999999133
 20
7.3999999999967327
 30
0.0
 42
-0.4142135623730951
  0
VERTEX
  5
204F
  8
SAPA_PROFIL
  6
CONTINUOUS
 62
     7
 10
-77.999999999999147
 20
6.8999999999967327
 30
0.0
  0
VERTEX
  5
2050
  8
SAPA_PROFIL
  6
CONTINUOUS
 62
     7
 10
-80.299999999999812
 20
6.8999999999967327
 30
0.0
 42
0.4142135623730951
  0
VERTEX
  5
2051
  8
SAPA_PROFIL
  6
CONTINUOUS
 62
     7
 10
-81.299999999999812
 20
5.8999999999967327
 30
0.0
  0
VERTEX
  5
2052
  8
SAPA_PROFIL
  6
CONTINUOUS
 62
     7
 10
-81.299999999999812
 20
5.0873697418213304
 30
0.0
 42
0.2216946626429368
  0
VERTEX
  5
2053
  8
SAPA_PROFIL
  6
CONTINUOUS
 62
     7
 10
-81.192836282905773
 20
4.857556408885638
 30
0.0
  0
VERTEX
  5
2054
  8
SAPA_PROFIL
  6
CONTINUOUS
 62
     7
 10
-80.492836282905216
 20
4.2701866670610862
 30
0.0
 42
0.6370702608061857
  0
VERTEX
  5
2055
  8
SAPA_PROFIL
  6
CONTINUOUS
 62
     7
 10
-79.999999999999616
 20
4.4999999999970264
 30
0.0
  0
VERTEX
  5
2056
  8
SAPA_PROFIL
  6
CONTINUOUS
 62
     7
 10
-79.999999999999616
 20
5.2999999999972216
 30
0.0
 42
-0.4142135623730951
  0
VERTEX
  5
2057
  8
SAPA_PROFIL
  6
CONTINUOUS
 62
     7
 10
-79.699999999999406
 20
5.5999999999974177
 30
0.0
  0
VERTEX
  5
2058
  8
SAPA_PROFIL
  6
CONTINUOUS
 62
     7
 10
-75.299999999998875
 20
5.599999999996478
 30
0.0
 42
-0.4142135623730504
  0
VERTEX
  5
2059
  8
SAPA_PROFIL
  6
CONTINUOUS
 62
     7
 10
-74.999999999999133
 20
5.2999999999963254
 30
0.0
  0
VERTEX
  5
205A
  8
SAPA_PROFIL
  6
CONTINUOUS
 62
     7
 10
-74.999999999999162
 20
-5.3000000000031191
 30
0.0
 42
-0.4142135623730878
  0
VERTEX
  5
205B
  8
SAPA_PROFIL
  6
CONTINUOUS
 62
     7
 10
-75.29999999999886
 20
-5.6000000000032939
 30
0.0
  0
VERTEX
  5
205C
  8
SAPA_PROFIL
  6
CONTINUOUS
 62
     7
 10
-79.69999999999942
 20
-5.6000000000032228
 30
0.0
 42
-0.4142135623735842
  0
VERTEX
  5
205D
  8
SAPA_PROFIL
  6
CONTINUOUS
 62
     7
 10
-79.999999999999119
 20
-5.3000000000040224
 30
0.0
  0
VERTEX
  5
205E
  8
SAPA_PROFIL
  6
CONTINUOUS
 62
     7
 10
-79.999999999999616
 20
-4.5000000000020348
 30
0.0
 42
0.6370702608069853
  0
VERTEX
  5
205F
  8
SAPA_PROFIL
  6
CONTINUOUS
 62
     7
 10
-80.492836282905216
 20
-4.2701866670669482
 30
0.0
  0
VERTEX
  5
2060
  8
SAPA_PROFIL
  6
CONTINUOUS
 62
     7
 10
-81.192836282905773
 20
-4.8575564088915071
 30
0.0
 42
0.2216946626431
  0
VERTEX
  5
2061
  8
SAPA_PROFIL
  6
CONTINUOUS
 62
     7
 10
-81.299999999999812
 20
-5.0873697418273913
 30
0.0
  0
VERTEX
  5
2062
  8
SAPA_PROFIL
  6
CONTINUOUS
 62
     7
 10
-81.299999999999329
 20
-5.9000000000043862
 30
0.0
 42
0.4142135623730951
  0
VERTEX
  5
2063
  8
SAPA_PROFIL
  6
CONTINUOUS
 62
     7
 10
-80.299999999999329
 20
-6.9000000000043862
 30
0.0
  0
VERTEX
  5
2064
  8
SAPA_PROFIL
  6
CONTINUOUS
 62
     7
 10
-72.799999999999571
 20
-6.90000000000349
 30
0.0
 42
0.3178372451964626
  0
VERTEX
  5
2065
  8
SAPA_PROFIL
  6
CONTINUOUS
 62
     7
 10
-72.517157287524725
 20
-6.7000000000027633
 30
0.0
 42
-0.3178372451966722
  0
VERTEX
  5
2066
  8
SAPA_PROFIL
  6
CONTINUOUS
 62
     7
 10
-72.234314575049652
 20
-6.5000000000020348
 30
0.0
  0
VERTEX
  5
2067
  8
SAPA_PROFIL
  6
CONTINUOUS
 62
     7
 10
-70.799999999999329
 20
-6.5000000000029408
 30
0.0
 42
0.4142135623726539
  0
VERTEX
  5
2068
  8
SAPA_PROFIL
  6
CONTINUOUS
 62
     7
 10
-70.499999999999602
 20
-6.2000000000027589
 30
0.0
  0
VERTEX
  5
2069
  8
SAPA_PROFIL
  6
CONTINUOUS
 62
     7
 10
-70.499999999999616
 20
-5.6000000000022112
 30
0.0
 42
0.4142135623730836
  0
VERTEX
  5
206A
  8
SAPA_PROFIL
  6
CONTINUOUS
 62
     7
 10
-70.799999999999329
 20
-5.300000000002945
 30
0.0
  0
VERTEX
  5
206B
  8
SAPA_PROFIL
  6
CONTINUOUS
 62
     7
 10
-72.19999999999942
 20
-5.3000000000029353
 30
0.0
 42
-0.4142135623730951
  0
VERTEX
  5
206C
  8
SAPA_PROFIL
  6
CONTINUOUS
 62
     7
 10
-72.499999999999588
 20
-5.0000000000027596
 30
0.0
  0
VERTEX
  5
206D
  8
SAPA_PROFIL
  6
CONTINUOUS
 62
     7
 10
-72.499999999999588
 20
4.9999999999978204
 30
0.0
 42
-0.4142135623730743
  0
VERTEX
  5
206E
  8
SAPA_PROFIL
  6
CONTINUOUS
 62
     7
 10
-72.19999999999942
 20
5.299999999997028
 30
0.0
  0
VERTEX
  5
206F
  8
SAPA_PROFIL
  6
CONTINUOUS
 62
     7
 10
-70.799999999999329
 20
5.299999999997917
 30
0.0
 42
0.4142135623721762
  0
VERTEX
  5
2070
  8
SAPA_PROFIL
  6
CONTINUOUS
 62
     7
 10
-70.499999999999559
 20
5.5999999999972241
 30
0.0
  0
VERTEX
  5
2071
  8
SAPA_PROFIL
  6
CONTINUOUS
 62
     7
 10
-70.499999999999147
 20
6.1999999999978366
 30
0.0
 42
0.4142135623730534
  0
VERTEX
  5
2072
  8
SAPA_PROFIL
  6
CONTINUOUS
 62
     7
 10
-70.799999999999315
 20
6.499999999997053
 30
0.0
  0
VERTEX
  5
2073
  8
SAPA_PROFIL
  6
CONTINUOUS
 62
     7
 10
-72.234314575050036
 20
6.4999999999979412
 30
0.0
 42
-0.3178372451963242
  0
VERTEX
  5
2074
  8
SAPA_PROFIL
  6
CONTINUOUS
 62
     7
 10
-72.517157287524725
 20
6.6999999999968853
 30
0.0
 42
0.3178372451964607
  0
VERTEX
  5
2075
  8
SAPA_PROFIL
  6
CONTINUOUS
 62
     7
 10
-72.799999999999557
 20
6.8999999999975978
 30
0.0
  0
VERTEX
  5
2076
  8
SAPA_PROFIL
  6
CONTINUOUS
 62
     7
 10
-74.499999999999645
 20
6.8999999999978181
 30
0.0
 42
-0.4142135623730597
  0
VERTEX
  5
2077
  8
SAPA_PROFIL
  6
CONTINUOUS
 62
     7
 10
-74.999999999999588
 20
7.3999999999978181
 30
0.0
  0
VERTEX
  5
2078
  8
SAPA_PROFIL
  6
CONTINUOUS
 62
     7
 10
-74.999999999999588
 20
12.40192378920503
 30
0.0
 42
-0.2679491923306345
  0
VERTEX
  5
2079
  8
SAPA_PROFIL
  6
CONTINUOUS
 62
     7
 10
-74.750000000156476
 20
12.83493649099432
 30
0.0
 42
0.2679491923317589
  0
VERTEX
  5
207A
  8
SAPA_PROFIL
  6
CONTINUOUS
 62
     7
 10
-73.500000000956732
 20
14.999999999997019
 30
0.0
  0
VERTEX
  5
207B
  8
SAPA_PROFIL
  6
CONTINUOUS
 62
     7
 10
-73.500000000957527
 20
15.999999999997019
 30
0.0
 42
0.4142135623730951
  0
SEQEND
  5
207C
  8
SAPA_PROFIL
  6
CONTINUOUS
 62
     7
  0
POLYLINE
  5
195C
  8
SAPA_PROFIL
  6
CONTINUOUS
 62
     7
 66
     1
 10
0.0
 20
0.0
 30
0.0
 70
     1
  0
VERTEX
  5
207D
  8
SAPA_PROFIL
  6
CONTINUOUS
 62
     7
 10
-43.000000000000441
 20
23.20000000000174
 30
0.0
  0
VERTEX
  5
207E
  8
SAPA_PROFIL
  6
CONTINUOUS
 62
     7
 10
-43.000000000000441
 20
20.499999999991331
 30
0.0
 42
-0.4142135623730951
  0
VERTEX
  5
207F
  8
SAPA_PROFIL
  6
CONTINUOUS
 62
     7
 10
-43.300000000000431
 20
20.199999999991341
 30
0.0
  0
VERTEX
  5
2080
  8
SAPA_PROFIL
  6
CONTINUOUS
 62
     7
 10
-44.500000000000838
 20
20.199999999991341
 30
0.0
 42
0.4142135623730931
  0
VERTEX
  5
2081
  8
SAPA_PROFIL
  6
CONTINUOUS
 62
     7
 10
-45.500000000000853
 20
19.199999999991359
 30
0.0
  0
VERTEX
  5
2082
  8
SAPA_PROFIL
  6
CONTINUOUS
 62
     7
 10
-45.500000000000881
 20
16.700000000001591
 30
0.0
 42
-0.4142135623739343
  0
VERTEX
  5
2083
  8
SAPA_PROFIL
  6
CONTINUOUS
 62
     7
 10
-45.800000000000843
 20
16.40000000000072
 30
0.0
  0
VERTEX
  5
2084
  8
SAPA_PROFIL
  6
CONTINUOUS
 62
     7
 10
-50.20000000000087
 20
16.40000000000072
 30
0.0
 42
-0.4142135623730951
  0
VERTEX
  5
2085
  8
SAPA_PROFIL
  6
CONTINUOUS
 62
     7
 10
-50.500000000000881
 20
16.70000000000174
 30
0.0
  0
VERTEX
  5
2086
  8
SAPA_PROFIL
  6
CONTINUOUS
 62
     7
 10
-50.500000000000462
 20
18.40000000000072
 30
0.0
 42
0.7105995015650853
  0
VERTEX
  5
2087
  8
SAPA_PROFIL
  6
CONTINUOUS
 62
     7
 10
-51.035076580435849
 20
18.586384015761698
 30
0.0
  0
VERTEX
  5
2088
  8
SAPA_PROFIL
  6
CONTINUOUS
 62
     7
 10
-51.44589715036318
 20
18.068237143795979
 30
0.0
 42
0.1691807452123823
  0
VERTEX
  5
2089
  8
SAPA_PROFIL
  6
CONTINUOUS
 62
     7
 10
-51.500000000000817
 20
17.912917130662098
 30
0.0
  0
VERTEX
  5
208A
  8
SAPA_PROFIL
  6
CONTINUOUS
 62
     7
 10
-51.500000000000881
 20
10.099999999992731
 30
0.0
 42
0.4142135623760433
  0
VERTEX
  5
208B
  8
SAPA_PROFIL
  6
CONTINUOUS
 62
     7
 10
-51.199999999997857
 20
9.7999999999927176
 30
0.0
  0
VERTEX
  5
208C
  8
SAPA_PROFIL
  6
CONTINUOUS
 62
     7
 10
-33.000000000004242
 20
9.7999999999911296
 30
0.0
 42
0.5773502691893336
  0
VERTEX
  5
208D
  8
SAPA_PROFIL
  6
CONTINUOUS
 62
     7
 10
-32.740192378868279
 20
10.249999999991751
 30
0.0
  0
VERTEX
  5
208E
  8
SAPA_PROFIL
  6
CONTINUOUS
 62
     7
 10
-33.317542648061419
 20
11.24999999999465
 30
0.0
 42
0.6629740412223103
  0
VERTEX
  5
208F
  8
SAPA_PROFIL
  6
CONTINUOUS
 62
     7
 10
-33.865977684948867
 20
11.181818181812179
 30
0.0
 42
-0.3354367396460152
  0
VERTEX
  5
2090
  8
SAPA_PROFIL
  6
CONTINUOUS
 62
     7
 10
-34.106500531409431
 20
10.99999999999179
 30
0.0
  0
VERTEX
  5
2091
  8
SAPA_PROFIL
  6
CONTINUOUS
 62
     7
 10
-35.199999999994951
 20
10.99999999999168
 30
0.0
 42
-0.4142135623741014
  0
VERTEX
  5
2092
  8
SAPA_PROFIL
  6
CONTINUOUS
 62
     7
 10
-35.499999999995993
 20
11.2999999999917
 30
0.0
  0
VERTEX
  5
2093
  8
SAPA_PROFIL
  6
CONTINUOUS
 62
     7
 10
-35.499999999996007
 20
11.799999999992711
 30
0.0
 42
0.4142135623730466
  0
VERTEX
  5
2094
  8
SAPA_PROFIL
  6
CONTINUOUS
 62
     7
 10
-35.799999999995961
 20
12.09999999999272
 30
0.0
  0
VERTEX
  5
2095
  8
SAPA_PROFIL
  6
CONTINUOUS
 62
     7
 10
-36.399999999997007
 20
12.099999999991679
 30
0.0
 42
0.4142135623730951
  0
VERTEX
  5
2096
  8
SAPA_PROFIL
  6
CONTINUOUS
 62
     7
 10
-36.699999999995967
 20
11.799999999992719
 30
0.0
  0
VERTEX
  5
2097
  8
SAPA_PROFIL
  6
CONTINUOUS
 62
     7
 10
-36.699999999994972
 20
11.39999999999149
 30
0.0
 42
-0.4142135623731088
  0
VERTEX
  5
2098
  8
SAPA_PROFIL
  6
CONTINUOUS
 62
     7
 10
-36.999999999994969
 20
11.0999999999915
 30
0.0
  0
VERTEX
  5
2099
  8
SAPA_PROFIL
  6
CONTINUOUS
 62
     7
 10
-49.699999999995342
 20
11.0999999999915
 30
0.0
 42
-0.4142135623730847
  0
VERTEX
  5
209A
  8
SAPA_PROFIL
  6
CONTINUOUS
 62
     7
 10
-49.999999999996028
 20
11.39999999999149
 30
0.0
  0
VERTEX
  5
209B
  8
SAPA_PROFIL
  6
CONTINUOUS
 62
     7
 10
-49.999999999996028
 20
14.60000000000073
 30
0.0
 42
-0.4142135623730951
  0
VERTEX
  5
209C
  8
SAPA_PROFIL
  6
CONTINUOUS
 62
     7
 10
-49.699999999995327
 20
14.90000000000097
 30
0.0
  0
VERTEX
  5
209D
  8
SAPA_PROFIL
  6
CONTINUOUS
 62
     7
 10
-45.500000000000931
 20
14.9000000000008
 30
0.0
 42
0.4142135623731122
  0
VERTEX
  5
209E
  8
SAPA_PROFIL
  6
CONTINUOUS
 62
     7
 10
-44.000000000000881
 20
16.400000000000819
 30
0.0
  0
VERTEX
  5
209F
  8
SAPA_PROFIL
  6
CONTINUOUS
 62
     7
 10
-44.000000000000917
 20
18.399999999991721
 30
0.0
 42
-0.4142135623730951
  0
VERTEX
  5
20A0
  8
SAPA_PROFIL
  6
CONTINUOUS
 62
     7
 10
-43.700000000000919
 20
18.699999999991729
 30
0.0
  0
VERTEX
  5
20A1
  8
SAPA_PROFIL
  6
CONTINUOUS
 62
     7
 10
-36.999999999998842
 20
18.699999999991739
 30
0.0
 42
-0.4142135623731017
  0
VERTEX
  5
20A2
  8
SAPA_PROFIL
  6
CONTINUOUS
 62
     7
 10
-36.699999999999783
 20
18.39999999999268
 30
0.0
  0
VERTEX
  5
20A3
  8
SAPA_PROFIL
  6
CONTINUOUS
 62
     7
 10
-36.699999999997871
 20
17.79999999999573
 30
0.0
 42
0.4142135623730951
  0
VERTEX
  5
20A4
  8
SAPA_PROFIL
  6
CONTINUOUS
 62
     7
 10
-36.399999999997888
 20
17.49999999999573
 30
0.0
  0
VERTEX
  5
20A5
  8
SAPA_PROFIL
  6
CONTINUOUS
 62
     7
 10
-35.79999999999886
 20
17.499999999994689
 30
0.0
 42
0.4142135623740693
  0
VERTEX
  5
20A6
  8
SAPA_PROFIL
  6
CONTINUOUS
 62
     7
 10
-35.499999999998828
 20
17.799999999993691
 30
0.0
  0
VERTEX
  5
20A7
  8
SAPA_PROFIL
  6
CONTINUOUS
 62
     7
 10
-35.499999999998828
 20
18.399999999994701
 30
0.0
 42
-0.4142135623730951
  0
VERTEX
  5
20A8
  8
SAPA_PROFIL
  6
CONTINUOUS
 62
     7
 10
-35.199999999998838
 20
18.699999999994692
 30
0.0
  0
VERTEX
  5
20A9
  8
SAPA_PROFIL
  6
CONTINUOUS
 62
     7
 10
-34.239949493650208
 20
18.699999999993612
 30
0.0
 42
-0.2360679774982354
  0
VERTEX
  5
20AA
  8
SAPA_PROFIL
  6
CONTINUOUS
 62
     7
 10
-34.039949493651193
 20
18.599999999994569
 30
0.0
 42
0.4564120107634379
  0
VERTEX
  5
20AB
  8
SAPA_PROFIL
  6
CONTINUOUS
 62
     7
 10
-32.532842712472487
 20
18.492893218808099
 30
0.0
  0
VERTEX
  5
20AC
  8
SAPA_PROFIL
  6
CONTINUOUS
 62
     7
 10
-31.637867965644851
 20
19.38786796563571
 30
0.0
 42
0.6681786379193021
  0
VERTEX
  5
20AD
  8
SAPA_PROFIL
  6
CONTINUOUS
 62
     7
 10
-31.85000000000084
 20
19.89999999999171
 30
0.0
  0
VERTEX
  5
20AE
  8
SAPA_PROFIL
  6
CONTINUOUS
 62
     7
 10
-40.199999999999939
 20
19.899999999994701
 30
0.0
 42
-0.4142135623730951
  0
VERTEX
  5
20AF
  8
SAPA_PROFIL
  6
CONTINUOUS
 62
     7
 10
-40.499999999999929
 20
20.199999999994699
 30
0.0
  0
VERTEX
  5
20B0
  8
SAPA_PROFIL
  6
CONTINUOUS
 62
     7
 10
-40.500000000000973
 20
23.199999999994709
 30
0.0
 42
-0.4142135623730951
  0
VERTEX
  5
20B1
  8
SAPA_PROFIL
  6
CONTINUOUS
 62
     7
 10
-40.200000000000969
 20
23.49999999999471
 30
0.0
  0
VERTEX
  5
20B2
  8
SAPA_PROFIL
  6
CONTINUOUS
 62
     7
 10
-35.80000000000166
 20
23.499999999994721
 30
0.0
 42
0.4142135623730951
  0
VERTEX
  5
20B3
  8
SAPA_PROFIL
  6
CONTINUOUS
 62
     7
 10
-35.50000000000167
 20
23.7999999999947
 30
0.0
  0
VERTEX
  5
20B4
  8
SAPA_PROFIL
  6
CONTINUOUS
 62
     7
 10
-35.500000000001663
 20
24.750000000000721
 30
0.0
 42
0.4142135623730951
  0
VERTEX
  5
20B5
  8
SAPA_PROFIL
  6
CONTINUOUS
 62
     7
 10
-35.750000000001663
 20
25.000000000000721
 30
0.0
  0
VERTEX
  5
20B6
  8
SAPA_PROFIL
  6
CONTINUOUS
 62
     7
 10
-51.19999999999785
 20
25.000000000000721
 30
0.0
 42
0.4142135623750965
  0
VERTEX
  5
20B7
  8
SAPA_PROFIL
  6
CONTINUOUS
 62
     7
 10
-51.500000000001847
 20
24.699999999994692
 30
0.0
  0
VERTEX
  5
20B8
  8
SAPA_PROFIL
  6
CONTINUOUS
 62
     7
 10
-51.50000000000086
 20
22.487082869339378
 30
0.0
 42
0.1691807452124803
  0
VERTEX
  5
20B9
  8
SAPA_PROFIL
  6
CONTINUOUS
 62
     7
 10
-51.445897150363102
 20
22.331762856205462
 30
0.0
  0
VERTEX
  5
20BA
  8
SAPA_PROFIL
  6
CONTINUOUS
 62
     7
 10
-51.035076580435849
 20
21.813615984240741
 30
0.0
 42
0.7105995015660667
  0
VERTEX
  5
20BB
  8
SAPA_PROFIL
  6
CONTINUOUS
 62
     7
 10
-50.500000000000817
 20
22.000000000000721
 30
0.0
  0
VERTEX
  5
20BC
  8
SAPA_PROFIL
  6
CONTINUOUS
 62
     7
 10
-50.500000000000881
 20
23.200000000000738
 30
0.0
 42
-0.4142135623730951
  0
VERTEX
  5
20BD
  8
SAPA_PROFIL
  6
CONTINUOUS
 62
     7
 10
-50.20000000000087
 20
23.50000000000075
 30
0.0
  0
VERTEX
  5
20BE
  8
SAPA_PROFIL
  6
CONTINUOUS
 62
     7
 10
-43.300000000000452
 20
23.500000000000721
 30
0.0
 42
-0.4142135623731053
  0
SEQEND
  5
20BF
  8
SAPA_PROFIL
  6
CONTINUOUS
 62
     7
  0
POLYLINE
  5
195D
  8
SAPA_PROFIL
 66
     1
 10
0.0
 20
0.0
 30
0.0
 70
     1
  0
VERTEX
  5
20C0
  8
SAPA_PROFIL
 10
-25.000000000002888
 20
22.600000373537799
 30
0.0
 42
-0.767326987974136
  0
VERTEX
  5
20C1
  8
SAPA_PROFIL
 10
-24.849999999999731
 20
22.04019275240433
 30
0.0
 42
0.2679491924279902
  0
VERTEX
  5
20C2
  8
SAPA_PROFIL
 10
-25.000000000002441
 20
21.78038513128082
 30
0.0
  0
VERTEX
  5
20C3
  8
SAPA_PROFIL
 10
-25.000000000001808
 20
18.800000373537561
 30
0.0
 42
0.4142135623730395
  0
VERTEX
  5
20C4
  8
SAPA_PROFIL
 10
-23.500000000001751
 20
17.300000373537848
 30
0.0
  0
VERTEX
  5
20C5
  8
SAPA_PROFIL
 10
-22.400000000002361
 20
17.300000373537848
 30
0.0
 42
0.4142135623730951
  0
VERTEX
  5
20C6
  8
SAPA_PROFIL
 10
-22.1000000000024
 20
17.600000373537569
 30
0.0
  0
VERTEX
  5
20C7
  8
SAPA_PROFIL
 10
-22.1000000000024
 20
18.100000373537569
 30
0.0
 42
0.4142135623730948
  0
VERTEX
  5
20C8
  8
SAPA_PROFIL
 10
-22.400000000002361
 20
18.400000373537761
 30
0.0
  0
VERTEX
  5
20C9
  8
SAPA_PROFIL
 10
-22.736626924636528
 20
18.400000373537761
 30
0.0
 42
-0.5643553431119927
  0
VERTEX
  5
20CA
  8
SAPA_PROFIL
 10
-20.87439504323947
 20
22.724395416772051
 30
0.0
  0
VERTEX
  5
20CB
  8
SAPA_PROFIL
 10
-20.50000000000249
 20
22.350000373539849
 30
0.0
  0
VERTEX
  5
20CC
  8
SAPA_PROFIL
 10
-20.12560495676961
 20
22.72439541677296
 30
0.0
 42
-0.564355343112654
  0
VERTEX
  5
20CD
  8
SAPA_PROFIL
 10
-18.263373075367092
 20
18.400000373537761
 30
0.0
  0
VERTEX
  5
20CE
  8
SAPA_PROFIL
 10
-18.60000000000263
 20
18.400000373537761
 30
0.0
 42
0.4142135623729843
  0
VERTEX
  5
20CF
  8
SAPA_PROFIL
 10
-18.900000000002699
 20
18.10000037353803
 30
0.0
  0
VERTEX
  5
20D0
  8
SAPA_PROFIL
 10
-18.900000000002581
 20
17.600000373537569
 30
0.0
 42
0.4142135623730951
  0
VERTEX
  5
20D1
  8
SAPA_PROFIL
 10
-18.60000000000263
 20
17.300000373537848
 30
0.0
  0
VERTEX
  5
20D2
  8
SAPA_PROFIL
 10
-16.300000000002669
 20
17.300000373537848
 30
0.0
 42
0.4142135623732062
  0
VERTEX
  5
20D3
  8
SAPA_PROFIL
 10
-16.00000000000238
 20
17.600000373537569
 30
0.0
  0
VERTEX
  5
20D4
  8
SAPA_PROFIL
 10
-16.00000000000249
 20
22.00000037353772
 30
0.0
 42
-0.4142135623731117
  0
VERTEX
  5
20D5
  8
SAPA_PROFIL
 10
-15.00000000000249
 20
23.000000373537841
 30
0.0
  0
VERTEX
  5
20D6
  8
SAPA_PROFIL
 10
19.99999999999557
 20
23.000000373538061
 30
0.0
 42
-0.7673269879789009
  0
VERTEX
  5
20D7
  8
SAPA_PROFIL
 10
20.24999999999574
 20
22.066987671645901
 30
0.0
 42
0.2679491924311131
  0
VERTEX
  5
20D8
  8
SAPA_PROFIL
 10
19.999999999995861
 20
21.633974969753641
 30
0.0
  0
VERTEX
  5
20D9
  8
SAPA_PROFIL
 10
19.99999999999665
 20
18.800000373537781
 30
0.0
 42
0.4142135623730395
  0
VERTEX
  5
20DA
  8
SAPA_PROFIL
 10
21.49999999999671
 20
17.300000373538069
 30
0.0
  0
VERTEX
  5
20DB
  8
SAPA_PROFIL
 10
22.599999999996111
 20
17.300000373538069
 30
0.0
 42
0.4142135623730951
  0
VERTEX
  5
20DC
  8
SAPA_PROFIL
 10
22.899999999996059
 20
17.600000373537789
 30
0.0
  0
VERTEX
  5
20DD
  8
SAPA_PROFIL
 10
22.899999999996059
 20
18.100000373537789
 30
0.0
 42
0.4142135623730948
  0
VERTEX
  5
20DE
  8
SAPA_PROFIL
 10
22.599999999996111
 20
18.400000373537981
 30
0.0
  0
VERTEX
  5
20DF
  8
SAPA_PROFIL
 10
22.26337307536193
 20
18.400000373537981
 30
0.0
 42
-0.5643553431119927
  0
VERTEX
  5
20E0
  8
SAPA_PROFIL
 10
24.125604956758998
 20
22.724395416772271
 30
0.0
  0
VERTEX
  5
20E1
  8
SAPA_PROFIL
 10
24.499999999995971
 20
22.35000037354007
 30
0.0
  0
VERTEX
  5
20E2
  8
SAPA_PROFIL
 10
24.874395043228851
 20
22.724395416773181
 30
0.0
 42
-0.564355343112654
  0
VERTEX
  5
20E3
  8
SAPA_PROFIL
 10
26.736626924631381
 20
18.400000373537981
 30
0.0
  0
VERTEX
  5
20E4
  8
SAPA_PROFIL
 10
26.399999999995838
 20
18.400000373537981
 30
0.0
 42
0.4142135623729843
  0
VERTEX
  5
20E5
  8
SAPA_PROFIL
 10
26.09999999999577
 20
18.100000373538251
 30
0.0
  0
VERTEX
  5
20E6
  8
SAPA_PROFIL
 10
26.09999999999588
 20
17.600000373537789
 30
0.0
 42
0.4142135623730951
  0
VERTEX
  5
20E7
  8
SAPA_PROFIL
 10
26.399999999995838
 20
17.300000373538069
 30
0.0
  0
VERTEX
  5
20E8
  8
SAPA_PROFIL
 10
28.699999999995789
 20
17.300000373538069
 30
0.0
 42
0.4142135623732062
  0
VERTEX
  5
20E9
  8
SAPA_PROFIL
 10
28.999999999996088
 20
17.600000373537789
 30
0.0
  0
VERTEX
  5
20EA
  8
SAPA_PROFIL
 10
28.999999999995971
 20
22.00000037353794
 30
0.0
 42
-0.4142135623730951
  0
VERTEX
  5
20EB
  8
SAPA_PROFIL
 10
29.999999999995971
 20
23.00000037353794
 30
0.0
  0
VERTEX
  5
20EC
  8
SAPA_PROFIL
 10
34.699999999996358
 20
23.000000373538111
 30
0.0
 42
-0.4142135623730984
  0
VERTEX
  5
20ED
  8
SAPA_PROFIL
 10
34.999999999996369
 20
22.700000373538099
 30
0.0
  0
VERTEX
  5
20EE
  8
SAPA_PROFIL
 10
34.999999999996369
 20
21.400000373538091
 30
0.0
 42
0.4142135623730951
  0
VERTEX
  5
20EF
  8
SAPA_PROFIL
 10
35.29999999999638
 20
21.10000037353808
 30
0.0
  0
VERTEX
  5
20F0
  8
SAPA_PROFIL
 10
35.875735931284403
 20
21.10000037353808
 30
0.0
 42
0.198912367379637
  0
VERTEX
  5
20F1
  8
SAPA_PROFIL
 10
36.087867965640392
 20
21.187868339182099
 30
0.0
  0
VERTEX
  5
20F2
  8
SAPA_PROFIL
 10
37.812132034352153
 20
22.912132407893981
 30
0.0
 42
-0.1989123673796579
  0
VERTEX
  5
20F3
  8
SAPA_PROFIL
 10
38.024264068708142
 20
23.000000373538001
 30
0.0
  0
VERTEX
  5
20F4
  8
SAPA_PROFIL
 10
41.499999999996483
 20
23.000000373538061
 30
0.0
 42
-0.4142135623730951
  0
VERTEX
  5
20F5
  8
SAPA_PROFIL
 10
42.499999999996483
 20
22.00000037353805
 30
0.0
  0
VERTEX
  5
20F6
  8
SAPA_PROFIL
 10
42.499999999996469
 20
-21.99999962646184
 30
0.0
 42
-0.4142135623730951
  0
VERTEX
  5
20F7
  8
SAPA_PROFIL
 10
41.499999999996461
 20
-22.99999962646184
 30
0.0
  0
VERTEX
  5
20F8
  8
SAPA_PROFIL
 10
38.024264068708071
 20
-22.999999626461779
 30
0.0
 42
-0.1989123673796579
  0
VERTEX
  5
20F9
  8
SAPA_PROFIL
 10
37.812132034352082
 20
-22.91213166081776
 30
0.0
  0
VERTEX
  5
20FA
  8
SAPA_PROFIL
 10
36.087867965640427
 20
-21.187867592105931
 30
0.0
 42
0.198912367379658
  0
VERTEX
  5
20FB
  8
SAPA_PROFIL
 10
35.875735931284453
 20
-21.099999626461909
 30
0.0
  0
VERTEX
  5
20FC
  8
SAPA_PROFIL
 10
35.299999999996373
 20
-21.099999626461909
 30
0.0
 42
0.4142135623730951
  0
VERTEX
  5
20FD
  8
SAPA_PROFIL
 10
34.999999999996362
 20
-21.39999962646192
 30
0.0
  0
VERTEX
  5
20FE
  8
SAPA_PROFIL
 10
34.999999999996362
 20
-22.699999626461821
 30
0.0
 42
-0.4142135623730984
  0
VERTEX
  5
20FF
  8
SAPA_PROFIL
 10
34.699999999996351
 20
-22.999999626461829
 30
0.0
  0
VERTEX
  5
2100
  8
SAPA_PROFIL
 10
29.999999999995961
 20
-22.999999626461719
 30
0.0
 42
-0.4142135623730951
  0
VERTEX
  5
2101
  8
SAPA_PROFIL
 10
28.999999999995961
 20
-21.999999626461719
 30
0.0
  0
VERTEX
  5
2102
  8
SAPA_PROFIL
 10
28.999999999996071
 20
-17.599999626461571
 30
0.0
 42
0.4142135623732062
  0
VERTEX
  5
2103
  8
SAPA_PROFIL
 10
28.699999999995779
 20
-17.29999962646184
 30
0.0
  0
VERTEX
  5
2104
  8
SAPA_PROFIL
 10
26.399999999995821
 20
-17.29999962646184
 30
0.0
 42
0.4142135623730951
  0
VERTEX
  5
2105
  8
SAPA_PROFIL
 10
26.09999999999587
 20
-17.599999626461571
 30
0.0
  0
VERTEX
  5
2106
  8
SAPA_PROFIL
 10
26.099999999995749
 20
-18.099999626462019
 30
0.0
 42
0.414213562372984
  0
VERTEX
  5
2107
  8
SAPA_PROFIL
 10
26.399999999995821
 20
-18.399999626461749
 30
0.0
  0
VERTEX
  5
2108
  8
SAPA_PROFIL
 10
26.736626924631359
 20
-18.399999626461749
 30
0.0
 42
-0.5643553431126542
  0
VERTEX
  5
2109
  8
SAPA_PROFIL
 10
24.874395043228841
 20
-22.724394669696949
 30
0.0
  0
VERTEX
  5
210A
  8
SAPA_PROFIL
 10
24.499999999995961
 20
-22.349999626463841
 30
0.0
  0
VERTEX
  5
210B
  8
SAPA_PROFIL
 10
24.125604956758991
 20
-22.724394669696039
 30
0.0
 42
-0.5643553431119927
  0
VERTEX
  5
210C
  8
SAPA_PROFIL
 10
22.263373075361919
 20
-18.399999626461749
 30
0.0
  0
VERTEX
  5
210D
  8
SAPA_PROFIL
 10
22.59999999999609
 20
-18.399999626461749
 30
0.0
 42
0.414213562373095
  0
VERTEX
  5
210E
  8
SAPA_PROFIL
 10
22.899999999996052
 20
-18.099999626461571
 30
0.0
  0
VERTEX
  5
210F
  8
SAPA_PROFIL
 10
22.899999999996052
 20
-17.599999626461571
 30
0.0
 42
0.4142135623730953
  0
VERTEX
  5
2110
  8
SAPA_PROFIL
 10
22.59999999999609
 20
-17.29999962646184
 30
0.0
  0
VERTEX
  5
2111
  8
SAPA_PROFIL
 10
21.499999999996689
 20
-17.299999626461609
 30
0.0
 42
0.4142135623730508
  0
VERTEX
  5
2112
  8
SAPA_PROFIL
 10
19.999999999996639
 20
-18.799999626461329
 30
0.0
  0
VERTEX
  5
2113
  8
SAPA_PROFIL
 10
19.9999999999959
 20
-21.633974222677178
 30
0.0
 42
0.2679491924311283
  0
VERTEX
  5
2114
  8
SAPA_PROFIL
 10
20.24999999999573
 20
-22.066986924569449
 30
0.0
 42
-0.7673269879788167
  0
VERTEX
  5
2115
  8
SAPA_PROFIL
 10
19.999999999995559
 20
-22.999999626461602
 30
0.0
  0
VERTEX
  5
2116
  8
SAPA_PROFIL
 10
-15.000000000002499
 20
-22.999999626461371
 30
0.0
 42
-0.4142135623730951
  0
VERTEX
  5
2117
  8
SAPA_PROFIL
 10
-16.000000000002501
 20
-21.999999626461371
 30
0.0
  0
VERTEX
  5
2118
  8
SAPA_PROFIL
 10
-16.000000000002391
 20
-17.599999626461219
 30
0.0
 42
0.4142135623732062
  0
VERTEX
  5
2119
  8
SAPA_PROFIL
 10
-16.300000000002679
 20
-17.299999626461489
 30
0.0
  0
VERTEX
  5
211A
  8
SAPA_PROFIL
 10
-18.600000000002641
 20
-17.299999626461489
 30
0.0
 42
0.4142135623730951
  0
VERTEX
  5
211B
  8
SAPA_PROFIL
 10
-18.900000000002589
 20
-17.599999626461219
 30
0.0
  0
VERTEX
  5
211C
  8
SAPA_PROFIL
 10
-18.900000000002699
 20
-18.09999962646167
 30
0.0
 42
0.414213562372984
  0
VERTEX
  5
211D
  8
SAPA_PROFIL
 10
-18.600000000002641
 20
-18.399999626461401
 30
0.0
  0
VERTEX
  5
211E
  8
SAPA_PROFIL
 10
-18.263373075367099
 20
-18.399999626461401
 30
0.0
 42
-0.5643553431126542
  0
VERTEX
  5
211F
  8
SAPA_PROFIL
 10
-20.125604956769621
 20
-22.724394669696601
 30
0.0
  0
VERTEX
  5
2120
  8
SAPA_PROFIL
 10
-20.500000000002501
 20
-22.349999626463489
 30
0.0
  0
VERTEX
  5
2121
  8
SAPA_PROFIL
 10
-20.87439504323947
 20
-22.724394669695691
 30
0.0
 42
-0.5643553431119927
  0
VERTEX
  5
2122
  8
SAPA_PROFIL
 10
-22.736626924636539
 20
-18.399999626461401
 30
0.0
  0
VERTEX
  5
2123
  8
SAPA_PROFIL
 10
-22.400000000002361
 20
-18.399999626461401
 30
0.0
 42
0.414213562373095
  0
VERTEX
  5
2124
  8
SAPA_PROFIL
 10
-22.10000000000241
 20
-18.099999626461219
 30
0.0
  0
VERTEX
  5
2125
  8
SAPA_PROFIL
 10
-22.10000000000241
 20
-17.599999626461219
 30
0.0
 42
0.4142135623730951
  0
VERTEX
  5
2126
  8
SAPA_PROFIL
 10
-22.400000000002361
 20
-17.299999626461378
 30
0.0
  0
VERTEX
  5
2127
  8
SAPA_PROFIL
 10
-23.500000000001759
 20
-17.299999626461378
 30
0.0
 42
0.4142135623730508
  0
VERTEX
  5
2128
  8
SAPA_PROFIL
 10
-25.000000000001819
 20
-18.799999626461091
 30
0.0
  0
VERTEX
  5
2129
  8
SAPA_PROFIL
 10
-25.000000000002451
 20
-21.780384384204339
 30
0.0
 42
0.2679491924279903
  0
VERTEX
  5
212A
  8
SAPA_PROFIL
 10
-24.849999999999739
 20
-22.04019200532786
 30
0.0
 42
-0.767326987974136
  0
VERTEX
  5
212B
  8
SAPA_PROFIL
 10
-25.000000000002899
 20
-22.59999962646139
 30
0.0
  0
VERTEX
  5
212C
  8
SAPA_PROFIL
 10
-27.000000000001819
 20
-22.59999962646134
 30
0.0
 42
-0.4142135623730951
  0
VERTEX
  5
212D
  8
SAPA_PROFIL
 10
-28.000000000001819
 20
-21.599999626461329
 30
0.0
  0
VERTEX
  5
212E
  8
SAPA_PROFIL
 10
-28.000000000001808
 20
21.600000373537799
 30
0.0
 42
-0.4142135623731284
  0
VERTEX
  5
212F
  8
SAPA_PROFIL
 10
-27.000000000001808
 20
22.60000037353792
 30
0.0
  0
SEQEND
  5
2130
  8
SAPA_PROFIL
  0
POLYLINE
  5
195E
  8
SAPA_PROFIL
 66
     1
 10
0.0
 20
0.0
 30
0.0
 70
     1
  0
VERTEX
  5
2131
  8
SAPA_PROFIL
 10
-30.999999999011781
 20
-2.6999996264622652
 30
0.0
  0
VERTEX
  5
2132
  8
SAPA_PROFIL
 10
-31.249999999011781
 20
-2.6999996264622652
 30
0.0
  0
VERTEX
  5
2133
  8
SAPA_PROFIL
 10
-31.24999999901183
 20
-2.3499996264623562
 30
0.0
 42
0.5450207774094042
  0
VERTEX
  5
2134
  8
SAPA_PROFIL
 10
-31.67376540333731
 20
-2.0767193222103439
 30
0.0
  0
VERTEX
  5
2135
  8
SAPA_PROFIL
 10
-33.049999999011959
 20
-2.6999996264622652
 30
0.0
  0
VERTEX
  5
2136
  8
SAPA_PROFIL
 10
-33.04999999901208
 20
-2.3499996264623562
 30
0.0
 42
0.5450207774090177
  0
VERTEX
  5
2137
  8
SAPA_PROFIL
 10
-33.473765403337161
 20
-2.0767193222102298
 30
0.0
  0
VERTEX
  5
2138
  8
SAPA_PROFIL
 10
-34.849999999011906
 20
-2.6999996264622652
 30
0.0
  0
VERTEX
  5
2139
  8
SAPA_PROFIL
 10
-34.84999999901197
 20
-2.3499996264623562
 30
0.0
 42
0.5450207774094042
  0
VERTEX
  5
213A
  8
SAPA_PROFIL
 10
-35.27376540333745
 20
-2.0767193222103439
 30
0.0
  0
VERTEX
  5
213B
  8
SAPA_PROFIL
 10
-36.649999999011868
 20
-2.6999996264622652
 30
0.0
  0
VERTEX
  5
213C
  8
SAPA_PROFIL
 10
-36.649999999011868
 20
-2.3499996264623562
 30
0.0
 42
0.545020777409516
  0
VERTEX
  5
213D
  8
SAPA_PROFIL
 10
-37.073765403337518
 20
-2.0767193222103439
 30
0.0
  0
VERTEX
  5
213E
  8
SAPA_PROFIL
 10
-38.44999999901205
 20
-2.6999996264622652
 30
0.0
  0
VERTEX
  5
213F
  8
SAPA_PROFIL
 10
-38.44999999901205
 20
-2.3499996264623562
 30
0.0
 42
0.545020777409516
  0
VERTEX
  5
2140
  8
SAPA_PROFIL
 10
-38.8737654033377
 20
-2.0767193222103439
 30
0.0
  0
VERTEX
  5
2141
  8
SAPA_PROFIL
 10
-40.249999999012232
 20
-2.6999996264622652
 30
0.0
  0
VERTEX
  5
2142
  8
SAPA_PROFIL
 10
-40.249999999012232
 20
-2.3499996264623562
 30
0.0
 42
0.5450207774090177
  0
VERTEX
  5
2143
  8
SAPA_PROFIL
 10
-40.67376540333742
 20
-2.0767193222102298
 30
0.0
  0
VERTEX
  5
2144
  8
SAPA_PROFIL
 10
-41.449999999012043
 20
-2.4282667520476902
 30
0.0
  0
VERTEX
  5
2145
  8
SAPA_PROFIL
 10
-41.449999999012107
 20
1.0006707898188649
 30
0.0
  0
VERTEX
  5
2146
  8
SAPA_PROFIL
 10
-41.449999999012107
 20
2.7000003735378288
 30
0.0
  0
VERTEX
  5
2147
  8
SAPA_PROFIL
 10
-41.149999999012088
 20
2.7000003735378288
 30
0.0
  0
VERTEX
  5
2148
  8
SAPA_PROFIL
 10
-39.773765403337791
 20
2.0767200692854528
 30
0.0
 42
0.5450207774093642
  0
VERTEX
  5
2149
  8
SAPA_PROFIL
 10
-39.349999999012368
 20
2.350000373537692
 30
0.0
  0
VERTEX
  5
214A
  8
SAPA_PROFIL
 10
-39.349999999012141
 20
2.7000003735378288
 30
0.0
  0
VERTEX
  5
214B
  8
SAPA_PROFIL
 10
-37.973765403337609
 20
2.0767200692856238
 30
0.0
 42
0.5450207774088696
  0
VERTEX
  5
214C
  8
SAPA_PROFIL
 10
-37.549999999012421
 20
2.350000373537692
 30
0.0
  0
VERTEX
  5
214D
  8
SAPA_PROFIL
 10
-37.549999999012194
 20
2.7000003735378288
 30
0.0
  0
VERTEX
  5
214E
  8
SAPA_PROFIL
 10
-36.173765403337647
 20
2.0767200692856238
 30
0.0
 42
0.5450207774094402
  0
VERTEX
  5
214F
  8
SAPA_PROFIL
 10
-35.749999999012353
 20
2.350000373537692
 30
0.0
  0
VERTEX
  5
2150
  8
SAPA_PROFIL
 10
-35.749999999012232
 20
2.7000003735378288
 30
0.0
  0
VERTEX
  5
2151
  8
SAPA_PROFIL
 10
-34.373765403337927
 20
2.0767200692854528
 30
0.0
 42
0.5450207774093642
  0
VERTEX
  5
2152
  8
SAPA_PROFIL
 10
-33.949999999012512
 20
2.350000373537692
 30
0.0
  0
VERTEX
  5
2153
  8
SAPA_PROFIL
 10
-33.949999999012277
 20
2.7000003735378288
 30
0.0
  0
VERTEX
  5
2154
  8
SAPA_PROFIL
 10
-32.573765403337752
 20
2.0767200692856238
 30
0.0
 42
0.5450207774088696
  0
VERTEX
  5
2155
  8
SAPA_PROFIL
 10
-32.149999999012607
 20
2.350000373537692
 30
0.0
  0
VERTEX
  5
2156
  8
SAPA_PROFIL
 10
-32.149999999011868
 20
2.7000003735378288
 30
0.0
  0
VERTEX
  5
2157
  8
SAPA_PROFIL
 10
-30.999999999011781
 20
2.7000003735378248
 30
0.0
 42
-0.4142135623730951
  0
VERTEX
  5
2158
  8
SAPA_PROFIL
 10
-29.999999999011781
 20
1.7000003735378251
 30
0.0
  0
VERTEX
  5
2159
  8
SAPA_PROFIL
 10
-29.999999999011781
 20
-1.699999626462265
 30
0.0
 42
-0.4142135623730951
  0
SEQEND
  5
215A
  8
SAPA_PROFIL
  0
POLYLINE
  5
195F
  8
SAPA_PROFIL
 66
     1
 10
0.0
 20
0.0
 30
0.0
 70
     1
  0
VERTEX
  5
215B
  8
SAPA_PROFIL
 10
-30.000000000001759
 20
16.700000373538678
 30
0.0
  0
VERTEX
  5
215C
  8
SAPA_PROFIL
 10
-30.000000000001759
 20
23.200000373538341
 30
0.0
 42
0.4142135623732062
  0
VERTEX
  5
215D
  8
SAPA_PROFIL
 10
-30.30000000000182
 20
23.500000373538288
 30
0.0
  0
VERTEX
  5
215E
  8
SAPA_PROFIL
 10
-34.20000000000158
 20
23.500000373538288
 30
0.0
 42
0.4142135623730951
  0
VERTEX
  5
215F
  8
SAPA_PROFIL
 10
-34.500000000001528
 20
23.200000373538341
 30
0.0
  0
VERTEX
  5
2160
  8
SAPA_PROFIL
 10
-34.500000000001648
 20
22.000000373538459
 30
0.0
 42
-0.7105995015650612
  0
VERTEX
  5
2161
  8
SAPA_PROFIL
 10
-35.03507658043651
 20
21.813616357777629
 30
0.0
  0
VERTEX
  5
2162
  8
SAPA_PROFIL
 10
-35.283588601450958
 20
22.12705179835735
 30
0.0
 42
-0.169180745212488
  0
VERTEX
  5
2163
  8
SAPA_PROFIL
 10
-35.500000000001762
 20
22.748331850893241
 30
0.0
  0
VERTEX
  5
2164
  8
SAPA_PROFIL
 10
-35.500000000001641
 20
24.700000373538511
 30
0.0
 42
-0.4142135623730951
  0
VERTEX
  5
2165
  8
SAPA_PROFIL
 10
-35.200000000001687
 20
25.000000373538469
 30
0.0
  0
VERTEX
  5
2166
  8
SAPA_PROFIL
 10
43.999999999996419
 20
25.000000373538111
 30
0.0
 42
-0.4142135623730951
  0
VERTEX
  5
2167
  8
SAPA_PROFIL
 10
44.499999999996433
 20
24.500000373538111
 30
0.0
  0
VERTEX
  5
2168
  8
SAPA_PROFIL
 10
44.499999999996412
 20
-24.499999626461889
 30
0.0
 42
-0.4142135623730951
  0
VERTEX
  5
2169
  8
SAPA_PROFIL
 10
43.999999999996412
 20
-24.999999626461889
 30
0.0
  0
VERTEX
  5
216A
  8
SAPA_PROFIL
 10
-35.200000000001808
 20
-24.999999626461989
 30
0.0
 42
-0.4142135623730951
  0
VERTEX
  5
216B
  8
SAPA_PROFIL
 10
-35.500000000001769
 20
-24.699999626462041
 30
0.0
  0
VERTEX
  5
216C
  8
SAPA_PROFIL
 10
-35.500000000001769
 20
-22.748331103816948
 30
0.0
 42
-0.1691807452125303
  0
VERTEX
  5
216D
  8
SAPA_PROFIL
 10
-35.283588601450852
 20
-22.12705105128094
 30
0.0
  0
VERTEX
  5
216E
  8
SAPA_PROFIL
 10
-35.035076580436403
 20
-21.81361561070127
 30
0.0
 42
-0.7105995015650845
  0
VERTEX
  5
216F
  8
SAPA_PROFIL
 10
-34.500000000001762
 20
-21.999999626461989
 30
0.0
  0
VERTEX
  5
2170
  8
SAPA_PROFIL
 10
-34.500000000001762
 20
-23.199999626461931
 30
0.0
 42
0.4142135623732061
  0
VERTEX
  5
2171
  8
SAPA_PROFIL
 10
-34.200000000001701
 20
-23.499999626461879
 30
0.0
  0
VERTEX
  5
2172
  8
SAPA_PROFIL
 10
-30.300000000001951
 20
-23.499999626461879
 30
0.0
 42
0.4142135623732061
  0
VERTEX
  5
2173
  8
SAPA_PROFIL
 10
-30.000000000001879
 20
-23.199999626461931
 30
0.0
  0
VERTEX
  5
2174
  8
SAPA_PROFIL
 10
-30.000000000001769
 20
-16.699999626461981
 30
0.0
 42
0.4142135623730951
  0
VERTEX
  5
2175
  8
SAPA_PROFIL
 10
-30.500000000001769
 20
-16.199999626461981
 30
0.0
  0
VERTEX
  5
2176
  8
SAPA_PROFIL
 10
-34.20000000000158
 20
-16.19999962646186
 30
0.0
 42
0.4142135623733172
  0
VERTEX
  5
2177
  8
SAPA_PROFIL
 10
-34.500000000001762
 20
-16.499999626462049
 30
0.0
  0
VERTEX
  5
2178
  8
SAPA_PROFIL
 10
-34.500000000001542
 20
-18.39999962646197
 30
0.0
 42
-0.7105995015650612
  0
VERTEX
  5
2179
  8
SAPA_PROFIL
 10
-35.035076580436403
 20
-18.586383642222799
 30
0.0
  0
VERTEX
  5
217A
  8
SAPA_PROFIL
 10
-35.283588601450852
 20
-18.272948201643249
 30
0.0
 42
-0.1691807452125303
  0
VERTEX
  5
217B
  8
SAPA_PROFIL
 10
-35.500000000001769
 20
-17.651668149107241
 30
0.0
  0
VERTEX
  5
217C
  8
SAPA_PROFIL
 10
-35.500000000001769
 20
-11.29999962646194
 30
0.0
 42
-0.4142135623728731
  0
VERTEX
  5
217D
  8
SAPA_PROFIL
 10
-35.200000000001808
 20
-10.999999626461991
 30
0.0
  0
VERTEX
  5
217E
  8
SAPA_PROFIL
 10
-34.500000000001542
 20
-10.99999962646222
 30
0.0
 42
-0.4142135623730951
  0
VERTEX
  5
217F
  8
SAPA_PROFIL
 10
-34.20000000000158
 20
-11.299999626462171
 30
0.0
  0
VERTEX
  5
2180
  8
SAPA_PROFIL
 10
-34.20000000000158
 20
-14.19999962646175
 30
0.0
 42
0.4142135623730951
  0
VERTEX
  5
2181
  8
SAPA_PROFIL
 10
-33.70000000000158
 20
-14.69999962646175
 30
0.0
  0
VERTEX
  5
2182
  8
SAPA_PROFIL
 10
-30.500000000001769
 20
-14.699999626461979
 30
0.0
 42
0.4142135623731617
  0
VERTEX
  5
2183
  8
SAPA_PROFIL
 10
-30.000000000001759
 20
-14.199999626461979
 30
0.0
  0
VERTEX
  5
2184
  8
SAPA_PROFIL
 10
-30.00000000000199
 20
-5.9999996264625599
 30
0.0
 42
0.4142135623730951
  0
VERTEX
  5
2185
  8
SAPA_PROFIL
 10
-31.00000000000199
 20
-4.9999996264625599
 30
0.0
  0
VERTEX
  5
2186
  8
SAPA_PROFIL
 10
-52.199999999011879
 20
-4.9999996264623263
 30
0.0
 42
-0.4142135623730951
  0
VERTEX
  5
2187
  8
SAPA_PROFIL
 10
-52.499999999011891
 20
-4.6999996264623141
 30
0.0
  0
VERTEX
  5
2188
  8
SAPA_PROFIL
 10
-52.499999999011827
 20
-3.075010156175594
 30
0.0
  0
VERTEX
  5
2189
  8
SAPA_PROFIL
 10
-51.535790539647849
 20
-2.2144747773913158
 30
0.0
 42
-0.6264792893017398
  0
VERTEX
  5
218A
  8
SAPA_PROFIL
 10
-51.049999999012421
 20
-2.4500206858893838
 30
0.0
  0
VERTEX
  5
218B
  8
SAPA_PROFIL
 10
-51.049999999012179
 20
-2.6999996264623141
 30
0.0
  0
VERTEX
  5
218C
  8
SAPA_PROFIL
 10
-49.673765403337882
 20
-2.176719322210189
 30
0.0
 42
-0.5450207774090681
  0
VERTEX
  5
218D
  8
SAPA_PROFIL
 10
-49.249999999012353
 20
-2.4499996264623141
 30
0.0
  0
VERTEX
  5
218E
  8
SAPA_PROFIL
 10
-49.249999999012232
 20
-2.6999996264622581
 30
0.0
  0
VERTEX
  5
218F
  8
SAPA_PROFIL
 10
-47.87376540333792
 20
-2.1767193222103032
 30
0.0
 42
-0.545020777409516
  0
VERTEX
  5
2190
  8
SAPA_PROFIL
 10
-47.44999999901227
 20
-2.4499996264623141
 30
0.0
  0
VERTEX
  5
2191
  8
SAPA_PROFIL
 10
-47.44999999901227
 20
-2.6999996264622581
 30
0.0
  0
VERTEX
  5
2192
  8
SAPA_PROFIL
 10
-46.073765403337617
 20
-2.176719322210189
 30
0.0
 42
-0.5450207774091295
  0
VERTEX
  5
2193
  8
SAPA_PROFIL
 10
-45.64999999901238
 20
-2.4499996264623141
 30
0.0
  0
VERTEX
  5
2194
  8
SAPA_PROFIL
 10
-45.649999999012323
 20
-2.6999996264622581
 30
0.0
  0
VERTEX
  5
2195
  8
SAPA_PROFIL
 10
-44.273765403337791
 20
-2.1767193222103032
 30
0.0
 42
-0.545020777409516
  0
VERTEX
  5
2196
  8
SAPA_PROFIL
 10
-43.849999999012127
 20
-2.4499996264623141
 30
0.0
  0
VERTEX
  5
2197
  8
SAPA_PROFIL
 10
-43.849999999012127
 20
-2.6999996264622581
 30
0.0
  0
VERTEX
  5
2198
  8
SAPA_PROFIL
 10
-43.182570825615642
 20
-2.4460464742920029
 30
0.0
 42
0.3492695052203141
  0
VERTEX
  5
2199
  8
SAPA_PROFIL
 10
-42.949999999012221
 20
-2.153722498923841
 30
0.0
  0
VERTEX
  5
219A
  8
SAPA_PROFIL
 10
-42.949999999012221
 20
-1.2649106905293901
 30
0.0
 42
-0.3475404855924057
  0
VERTEX
  5
219B
  8
SAPA_PROFIL
 10
-42.71923076824293
 20
-0.9730081372830312
 30
0.0
 42
0.7905694150422074
  0
VERTEX
  5
219C
  8
SAPA_PROFIL
 10
-42.719230768243101
 20
0.9730088843599666
 30
0.0
 42
-0.3475404855923888
  0
VERTEX
  5
219D
  8
SAPA_PROFIL
 10
-42.949999999012221
 20
1.2649114376071779
 30
0.0
  0
VERTEX
  5
219E
  8
SAPA_PROFIL
 10
-42.9499999990121
 20
1.876720069285692
 30
0.0
 42
0.4142135623730951
  0
VERTEX
  5
219F
  8
SAPA_PROFIL
 10
-43.249999999012111
 20
2.1767200692857029
 30
0.0
  0
VERTEX
  5
21A0
  8
SAPA_PROFIL
 10
-43.3737654033377
 20
2.1767200692856461
 30
0.0
  0
VERTEX
  5
21A1
  8
SAPA_PROFIL
 10
-44.749999999012232
 20
2.7000003735378288
 30
0.0
  0
VERTEX
  5
21A2
  8
SAPA_PROFIL
 10
-44.749999999012452
 20
2.4500003735376579
 30
0.0
 42
-0.5450207774088696
  0
VERTEX
  5
21A3
  8
SAPA_PROFIL
 10
-45.173765403337647
 20
2.1767200692855901
 30
0.0
  0
VERTEX
  5
21A4
  8
SAPA_PROFIL
 10
-46.549999999012179
 20
2.7000003735378288
 30
0.0
  0
VERTEX
  5
21A5
  8
SAPA_PROFIL
 10
-46.549999999012407
 20
2.4500003735376579
 30
0.0
 42
-0.5450207774091855
  0
VERTEX
  5
21A6
  8
SAPA_PROFIL
 10
-46.973765403337772
 20
2.1767200692855329
 30
0.0
  0
VERTEX
  5
21A7
  8
SAPA_PROFIL
 10
-48.349999999012141
 20
2.7000003735378288
 30
0.0
  0
VERTEX
  5
21A8
  8
SAPA_PROFIL
 10
-48.349999999012141
 20
2.4500003735376579
 30
0.0
 42
-0.5450207774093374
  0
VERTEX
  5
21A9
  8
SAPA_PROFIL
 10
-48.773765403337741
 20
2.1767200692857598
 30
0.0
  0
VERTEX
  5
21AA
  8
SAPA_PROFIL
 10
-50.149999999012323
 20
2.7000003735378288
 30
0.0
  0
VERTEX
  5
21AB
  8
SAPA_PROFIL
 10
-50.149999999011918
 20
2.149979314110634
 30
0.0
  0
VERTEX
  5
21AC
  8
SAPA_PROFIL
 10
-51.347075010161461
 20
2.1499793141105812
 30
0.0
 42
-0.1681572645226206
  0
VERTEX
  5
21AD
  8
SAPA_PROFIL
 10
-51.532521788160693
 20
2.2141626638721301
 30
0.0
  0
VERTEX
  5
21AE
  8
SAPA_PROFIL
 10
-52.49999999901177
 20
3.0749898438243828
 30
0.0
  0
VERTEX
  5
21AF
  8
SAPA_PROFIL
 10
-52.499999999011827
 20
4.7000003735403331
 30
0.0
 42
-0.4142135623730951
  0
VERTEX
  5
21B0
  8
SAPA_PROFIL
 10
-52.199999999011823
 20
5.0000003735403453
 30
0.0
  0
VERTEX
  5
21B1
  8
SAPA_PROFIL
 10
-31.000000000001869
 20
5.0000003735401668
 30
0.0
 42
0.4142135623730951
  0
VERTEX
  5
21B2
  8
SAPA_PROFIL
 10
-30.000000000001869
 20
6.0000003735401668
 30
0.0
  0
VERTEX
  5
21B3
  8
SAPA_PROFIL
 10
-30.000000000001759
 20
14.200000373538559
 30
0.0
 42
0.4142135623730951
  0
VERTEX
  5
21B4
  8
SAPA_PROFIL
 10
-30.500000000001759
 20
14.700000373538559
 30
0.0
  0
VERTEX
  5
21B5
  8
SAPA_PROFIL
 10
-33.700000000001808
 20
14.70000037353857
 30
0.0
 42
0.4142135623730951
  0
VERTEX
  5
21B6
  8
SAPA_PROFIL
 10
-34.200000000001808
 20
14.20000037353857
 30
0.0
  0
VERTEX
  5
21B7
  8
SAPA_PROFIL
 10
-34.20000000000158
 20
11.30000037353865
 30
0.0
 42
-0.4142135623730951
  0
VERTEX
  5
21B8
  8
SAPA_PROFIL
 10
-34.500000000001542
 20
11.00000037353869
 30
0.0
  0
VERTEX
  5
21B9
  8
SAPA_PROFIL
 10
-35.200000000001701
 20
11.00000037353858
 30
0.0
 42
-0.4142135623730951
  0
VERTEX
  5
21BA
  8
SAPA_PROFIL
 10
-35.500000000001769
 20
11.30000037353842
 30
0.0
  0
VERTEX
  5
21BB
  8
SAPA_PROFIL
 10
-35.500000000001648
 20
17.651668896183711
 30
0.0
 42
-0.1691807452124953
  0
VERTEX
  5
21BC
  8
SAPA_PROFIL
 10
-35.283588601450788
 20
18.272948948719609
 30
0.0
  0
VERTEX
  5
21BD
  8
SAPA_PROFIL
 10
-35.035076580436403
 20
18.586384389299269
 30
0.0
 42
-0.7105995015650612
  0
VERTEX
  5
21BE
  8
SAPA_PROFIL
 10
-34.500000000001542
 20
18.40000037353844
 30
0.0
  0
VERTEX
  5
21BF
  8
SAPA_PROFIL
 10
-34.500000000001762
 20
16.500000373538629
 30
0.0
 42
0.4142135623732061
  0
VERTEX
  5
21C0
  8
SAPA_PROFIL
 10
-34.20000000000158
 20
16.200000373538561
 30
0.0
  0
VERTEX
  5
21C1
  8
SAPA_PROFIL
 10
-30.500000000001759
 20
16.200000373538678
 30
0.0
 42
0.4142135623730951
  0
SEQEND
  5
21C2
  8
SAPA_PROFIL
  0
LINE
  5
1960
  8
SAPA_PROFIL
 10
-15.50000000000364
 20
31.000000373538171
 30
0.0
 11
-15.50000000000364
 21
25.000000373538171
 31
0.0
  0
LINE
  5
1961
  8
SAPA_PROFIL
 10
38.499999999996362
 20
31.000000373538171
 30
0.0
 11
-15.50000000000364
 21
31.000000373538171
 31
0.0
  0
LINE
  5
1962
  8
SAPA_PROFIL
 10
38.499999999996362
 20
85.000000373538171
 30
0.0
 11
38.499999999996362
 21
31.000000373538171
 31
0.0
  0
LINE
  5
1963
  8
SAPA_PROFIL
 10
44.499999999996362
 20
85.000000373538171
 30
0.0
 11
38.499999999996362
 21
85.000000373538171
 31
0.0
  0
LINE
  5
1964
  8
SAPA_PROFIL
 10
44.499999999996362
 20
25.000000373538171
 30
0.0
 11
44.499999999996362
 21
85.000000373538171
 31
0.0
  0
LINE
  5
1965
  8
SAPA_PROFIL
 10
-15.50000000000364
 20
25.000000373538171
 30
0.0
 11
44.499999999996362
 21
25.000000373538171
 31
0.0
  0
ARC
  5
1966
  8
SAPA_PROFIL
 10
-31.577137293194198
 20
-0.0000000000026112
 30
0.0
 40
52.457142857141569
 50
171.05599162060551
 51
188.9440083793944
  0
ARC
  5
1967
  8
SAPA_PROFIL
 10
-152.73081917898909
 20
5.1212757663688571
 30
0.0
 40
62.010107523888337
 50
344.93123173916041
 51
5.4399628158935647
  0
LINE
  5
1989
  8
SAPA_GLAS
 10
-84.999999999999474
 20
37.999999999999623
 30
0.0
 11
-68.999999999999474
 21
37.999999999999623
 31
0.0
  0
LINE
  5
198A
  8
SAPA_GLAS
 10
-84.999999999999474
 20
25.99999999999962
 30
0.0
 11
-68.999999999999474
 21
25.99999999999962
 31
0.0
1001
ACAD
1000
ASC_BOUNDS
1002
{
1070
    19
1005
1990
1002
}
  0
LINE
  5
198B
  8
SAPA_GLAS
 10
-81.999999999999488
 20
10.999999999999609
 30
0.0
 11
-84.999999999999474
 21
10.99999999999962
 31
0.0
1001
ACAD
1000
ASC_BOUNDS
1002
{
1070
    19
1005
1990
1002
}
  0
LINE
  5
198C
  8
SAPA_GLAS
 10
-68.999999999999474
 20
10.999999999999609
 30
0.0
 11
-71.999999999999488
 21
10.999999999999609
 31
0.0
1001
ACAD
1000
ASC_BOUNDS
1002
{
1070
    19
1005
1990
1002
}
  0
POLYLINE
  5
198D
  8
SAPA_GLAS
 66
     1
 10
0.0
 20
0.0
 30
0.0
1001
ACAD
1000
ASC_BOUNDS
1002
{
1070
    19
1005
1990
1002
}
  0
VERTEX
  5
2234
  8
SAPA_GLAS
 10
-90.999999999999474
 20
40.999999999999609
 30
0.0
  0
VERTEX
  5
2235
  8
SAPA_GLAS
 10
-90.999999999999488
 20
10.99999999999962
 30
0.0
  0
VERTEX
  5
2236
  8
SAPA_GLAS
 10
-84.999999999999474
 20
10.99999999999962
 30
0.0
  0
VERTEX
  5
2237
  8
SAPA_GLAS
 10
-84.999999999999474
 20
40.999999999999609
 30
0.0
  0
SEQEND
  5
2238
  8
SAPA_GLAS
  0
POLYLINE
  5
198E
  8
SAPA_GLAS
 66
     1
 10
0.0
 20
0.0
 30
0.0
1001
ACAD
1000
ASC_BOUNDS
1002
{
1070
    19
1005
1990
1002
}
  0
VERTEX
  5
2239
  8
SAPA_GLAS
 10
-68.999999999999474
 20
40.999999999999609
 30
0.0
  0
VERTEX
  5
223A
  8
SAPA_GLAS
 10
-68.999999999999474
 20
10.999999999999609
 30
0.0
  0
VERTEX
  5
223B
  8
SAPA_GLAS
 10
-62.999999999999488
 20
10.999999999999609
 30
0.0
  0
VERTEX
  5
223C
  8
SAPA_GLAS
 10
-62.999999999999481
 20
40.999999999999609
 30
0.0
  0
SEQEND
  5
223D
  8
SAPA_GLAS
  0
POLYLINE
  5
198F
  8
SAPA_GLAS
 66
     1
 10
0.0
 20
0.0
 30
0.0
 70
     1
1001
ACAD
1000
ASC_BOUNDS
1002
{
1070
    19
1005
1990
1002
}
  0
VERTEX
  5
223E
  8
SAPA_GLAS
 10
-80.199999999999477
 20
18.999999999999609
 30
0.0
  0
VERTEX
  5
223F
  8
SAPA_GLAS
 10
-73.7999999999995
 20
18.999999999999609
 30
0.0
 42
-0.4142135623730951
  0
VERTEX
  5
2240
  8
SAPA_GLAS
 10
-73.499999999999488
 20
18.699999999999601
 30
0.0
  0
VERTEX
  5
2241
  8
SAPA_GLAS
 10
-73.499999999999488
 20
10.999999999999609
 30
0.0
  0
VERTEX
  5
2242
  8
SAPA_GLAS
 10
-71.999999999999488
 20
10.999999999999609
 30
0.0
  0
VERTEX
  5
2243
  8
SAPA_GLAS
 10
-71.999999999999488
 20
20.699999999999608
 30
0.0
 42
0.4142135623730951
  0
VERTEX
  5
2244
  8
SAPA_GLAS
 10
-72.2999999999995
 20
20.99999999999962
 30
0.0
  0
VERTEX
  5
2245
  8
SAPA_GLAS
 10
-81.699999999999477
 20
20.99999999999962
 30
0.0
 42
0.4142135623730951
  0
VERTEX
  5
2246
  8
SAPA_GLAS
 10
-81.999999999999488
 20
20.699999999999608
 30
0.0
  0
VERTEX
  5
2247
  8
SAPA_GLAS
 10
-81.999999999999488
 20
10.999999999999609
 30
0.0
  0
VERTEX
  5
2248
  8
SAPA_GLAS
 10
-80.499999999999488
 20
10.999999999999609
 30
0.0
  0
VERTEX
  5
2249
  8
SAPA_GLAS
 10
-80.499999999999488
 20
18.699999999999601
 30
0.0
 42
-0.4142135623730951
  0
SEQEND
  5
224A
  8
SAPA_GLAS
  0
INSERT
  5
1990
  8
SAPA_GLAS
  6
CONTINUOUS
  2
*X113
 10
0.0
 20
0.0
 30
0.0
1001
GRADIENTCOLOR1ACI
1070
     5
1001
GRADIENTCOLOR2ACI
1070
     2
1001
ACAD
1000
HATCH
1002
{
1070
    19
1000
ANSI37
1040
0.25
1040
-1.5707963267948959
1000
ASC_BOUNDS
1070
     1
1070
     1
1070
     6
1005
198B
1005
198D
1005
198A
1005
198E
1005
198C
1005
198F
1000
ASC_SEEDPOINT
1011
-79.450586921254398
1021
0.0
1031
0.0
1021
21.804617272266128
1031
0.0
1000
R14_HATCH_DATA
1000
1990
1011
1.0
1021
0.0
1031
0.0
1021
0.0
1031
0.0
1011
0.0
1021
0.0
1031
0.0
1021
1.0
1031
0.0
1011
0.0
1021
0.0
1031
0.0
1021
0.0
1031
1.0
1040
0.0
1010
0.0
1020
0.0
1030
1.0
1000
ANSI37
1070
     0
1070
     1
1071
        1
1071
        7
1070
     1
1070
     1
1071
       10
1040
-72.2999999999995
1040
20.99999999999962
1040
-0.4142135623730951
1040
-71.999999999999488
1040
20.699999999999608
1040
0.0
1040
-71.999999999999488
1040
10.999999999999609
1040
0.0
1040
-68.999999999999474
1040
10.999999999999609
1040
0.0
1040
-68.999999999999474
1040
25.99999999999962
1040
0.0
1040
-84.999999999999474
1040
25.99999999999962
1040
0.0
1040
-84.999999999999474
1040
10.99999999999962
1040
0.0
1040
-81.999999999999488
1040
10.999999999999609
1040
0.0
1040
-81.999999999999488
1040
20.699999999999608
1040
-0.4142135623730951
1040
-81.699999999999477
1040
20.99999999999962
1040
0.0
1071
        6
1005
198F
1005
198C
1005
198E
1005
198A
1005
198D
1005
198B
1070
     1
1070
     1
1040
-1.5707963267948959
1040
0.25
1070
     0
1070
     2
1040
5.4977871437821371
1040
0.0
1040
0.0
1040
0.5612660075668222
1040
0.5612660075668219
1070
     0
1040
0.7853981633974481
1040
0.0
1040
0.0
1040
-0.5612660075668219
1040
0.5612660075668222
1070
     0
1040
0.1332406017304326
1071
        1
1040
-79.450586921254398
1040
21.804617272266128
1040
0.0
1002
}
  0
POLYLINE
  5
1991
  8
SAPA_GLAS
 66
     1
 10
0.0
 20
0.0
 30
0.0
  0
VERTEX
  5
2296
  8
SAPA_GLAS
 10
80.899999999996453
 20
-89.799999626462153
 30
0.0
  0
VERTEX
  5
2297
  8
SAPA_GLAS
 10
80.899999999996453
 20
-60.999999626462362
 30
0.0
  0
VERTEX
  5
2298
  8
SAPA_GLAS
 10
86.899999999996453
 20
-60.999999626462362
 30
0.0
  0
VERTEX
  5
2299
  8
SAPA_GLAS
 10
86.899999999996226
 20
-89.799999626462153
 30
0.0
  0
SEQEND
  5
229A
  8
SAPA_GLAS
  0
POLYLINE
  5
1992
  8
SAPA_GLAS
 66
     1
 10
0.0
 20
0.0
 30
0.0
 70
     1
  0
VERTEX
  5
229B
  8
SAPA_GLAS
 10
68.899999999996453
 20
-70.999999626462468
 30
0.0
  0
VERTEX
  5
229C
  8
SAPA_GLAS
 10
80.899999999996453
 20
-70.999999626462483
 30
0.0
  0
VERTEX
  5
229D
  8
SAPA_GLAS
 10
80.899999999996453
 20
-60.999999626462362
 30
0.0
  0
VERTEX
  5
229E
  8
SAPA_GLAS
 10
68.899999999996453
 20
-60.999999626462362
 30
0.0
  0
SEQEND
  5
229F
  8
SAPA_GLAS
  0
POLYLINE
  5
1993
  8
SAPA_GLAS
 66
     1
 10
0.0
 20
0.0
 30
0.0
  0
VERTEX
  5
22A0
  8
SAPA_GLAS
 10
62.899999999996439
 20
-89.799999626462139
 30
0.0
  0
VERTEX
  5
22A1
  8
SAPA_GLAS
 10
62.899999999996453
 20
-60.999999626462362
 30
0.0
  0
VERTEX
  5
22A2
  8
SAPA_GLAS
 10
68.899999999996453
 20
-60.999999626462362
 30
0.0
  0
VERTEX
  5
22A3
  8
SAPA_GLAS
 10
68.899999999996453
 20
-89.799999626462153
 30
0.0
  0
SEQEND
  5
22A4
  8
SAPA_GLAS
  0
INSERT
  5
199B
  8
SAPA_FYLLNING
  6
CONTINUOUS
  2
*X115
 10
0.0
 20
0.0
 30
0.0
1001
GRADIENTCOLOR1ACI
1070
     5
1001
GRADIENTCOLOR2ACI
1070
     2
1001
ACAD
1000
HATCH
1002
{
1070
    19
1000
ANSI37
1040
0.25
1040
-1.5707963267948959
1000
R14_HATCH_DATA
1000
199B
1011
1.0
1021
0.0
1031
0.0
1021
0.0
1031
0.0
1011
0.0
1021
0.0
1031
0.0
1021
1.0
1031
0.0
1011
0.0
1021
0.0
1031
0.0
1021
0.0
1031
1.0
1040
0.0
1010
0.0
1020
0.0
1030
1.0
1000
ANSI37
1070
     0
1070
     0
1071
        1
1071
        1
1071
        7
1070
     1
1040
-90.999999999999488
1040
10.9999999999996
1040
-84.999999999999474
1040
10.9999999999996
1070
     1
1040
-84.999999999999474
1040
10.9999999999996
1040
-82.653051271135723
1040
10.9999999999996
1070
     1
1040
-82.653051271135723
1040
10.9999999999996
1040
-83.396440251906995
1040
8.1554691837842501
1070
     2
1040
-31.57713729319423
1040
-0.0000000000026112
1040
52.457142857141548
1040
2.9854902590434129
1040
3.2976950481361702
1070
     1
1070
     1
1040
-83.396440251907023
1040
-8.1554691837893607
1040
-82.599999998918193
1040
-11.000000000031781
1070
     1
1040
-82.599999998918165
1040
-11.00000000003177
1040
-92.700000003219714
1040
-11.000000000014561
1070
     2
1040
-152.61988178597809
1040
4.6958545104039926
1040
61.941521467203003
1040
-0.2561912406135349
1040
0.1019522892326825
1070
     1
1071
        0
1070
     1
1070
     1
1040
-1.5707963267948959
1040
0.25
1070
     0
1070
     2
1040
5.4977871437821371
1040
-0.0000000000000284
1040
-9.0501839521120893
1040
0.5612660075668222
1040
0.5612660075668219
1070
     0
1040
0.7853981633974481
1040
-0.0000000000000284
1040
-9.0501839521120893
1040
-0.5612660075668219
1040
0.5612660075668222
1070
     0
1071
        1
1040
-87.785864515288836
1040
-1.246128712248147
1040
0.0
1002
}
  0
LINE
  5
199C
  8
SAPA_FYLLNING
 10
-83.332392354088157
 20
-8.1554691837893323
 30
0.0
 11
-82.599999998918165
 21
-11.00000000003177
 31
0.0
  0
LINE
  5
199D
  8
SAPA_FYLLNING
 10
-83.332392354088157
 20
-8.1554691837893252
 30
0.0
 11
-82.350409106102603
 21
-11.000000000031751
 31
0.0
  0
INSERT
  5
19A7
  8
SAPA_ISOLATOR
  6
CONTINUOUS
  2
*X118
 10
0.0
 20
0.0
 30
0.0
1001
ACAD
1000
HATCH
1002
{
1070
    19
1000
ANSI31
1040
0.35
1040
5.4977871437821371
1000
R14_HATCH_DATA
1000
19A7
1011
1.0
1021
0.0
1031
0.0
1021
0.0
1031
0.0
1011
0.0
1021
0.0
1031
0.0
1021
1.0
1031
0.0
1011
0.0
1021
0.0
1031
0.0
1021
0.0
1031
1.0
1040
0.0
1010
0.0
1020
0.0
1030
1.0
1000
ANSI31
1070
     0
1070
     0
1071
        1
1071
        1
1071
       49
1070
     2
1040
-64.463742496360354
1040
-22.327435054190399
1040
0.3006817060114675
1040
-1.5657379063807291
1040
-0.3498199254894492
1070
     0
1070
     1
1040
-64.181271744820549
1040
-22.224382820568319
1040
-63.295794031949349
1040
-24.65721284211234
1070
     2
1040
-62.919916983633222
1040
-24.520404784779529
1040
0.400000000002539
1040
3.490658503993135
1040
4.7123889803853398
1070
     1
1070
     1
1040
-62.919916983632959
1040
-24.920404784782072
1040
-52.499999998918831
1040
-24.920404784782029
1070
     1
1040
-52.499999998918831
1040
-24.920404784782029
1040
-42.080083014200738
1040
-24.920404784781969
1070
     2
1040
-42.080083014202494
1040
-24.520404784782318
1040
0.3999999999996488
1040
4.7123889803890684
1040
5.9341194567812998
1070
     1
1070
     1
1040
-41.70420596588837
1040
-24.657212842112251
1040
-40.818728253020197
1040
-22.224382820576562
1070
     2
1040
-40.53636568087277
1040
-22.327281263520302
1040
0.3005273892841634
1040
3.4910552070390422
1040
4.7076879318700922
1070
     0
1070
     2
1040
-40.308189705934488
1040
-27.587400270045229
1040
5.5653807064749881
1040
4.6711242502471872
1040
4.7342885622872561
1070
     0
1070
     1
1040
-40.186319937167163
1040
-22.02335406539661
1040
-39.946136872384869
1040
-21.88468430829009
1070
     2
1040
-39.841136872385157
1040
-22.06654964308499
1040
0.2100000000000017
1040
4.188790204787975
1040
6.2831853071790738
1070
     0
1070
     1
1040
-39.631136872385163
1040
-22.06654964308488
1040
-39.631136872385042
1040
-22.333664171297791
1070
     1
1040
-39.631136872385042
1040
-22.333664171297791
1040
-39.29999999891885
1040
-22.529886237082088
1070
     1
1040
-39.29999999891885
1040
-22.529886237082088
1040
-38.316679860938329
1040
-23.09753040057954
1070
     2
1040
-38.211679860940073
1040
-22.915665065785991
1040
0.209999999998109
1040
4.1887902047907026
1040
4.7123889803873293
1070
     1
1070
     1
1040
-38.211679860939512
1040
-23.125665065784101
1040
-37.89999999891694
1040
-23.125665065784212
1070
     2
1040
-37.899999998915028
1040
-22.725665065788078
1040
0.3999999999961332
1040
4.7123889803799113
1040
6.2831853071900472
1070
     1
1070
     1
1040
-37.499999998918902
1040
-22.72566506578389
1040
-37.499999998918838
1040
-19.32566506578414
1070
     2
1040
-37.899999998915902
1040
-19.32566506578123
1040
0.3999999999970676
1040
6.2831853071723121
1040
7.8539816339818991
1070
     1
1070
     1
1040
-37.899999998918872
1040
-18.925665065784159
1040
-38.211679860942517
1040
-18.925665065784159
1070
     2
1040
-38.211679860940869
1040
-19.135665065779111
1040
0.2099999999949489
1040
1.57079632680278
1040
2.0943951023994072
1070
     1
1070
     1
1040
-38.316679860939473
1040
-18.95379973098941
1040
-39.29999999891885
1040
-19.521519877351441
1070
     1
1040
-39.29999999891885
1040
-19.521519877351441
1040
-39.894744110589727
1040
-19.86489555032356
1070
     2
1040
-40.494744110595832
1040
-18.825665065773169
1040
1.2000000000109059
1040
1.047197551195963
1040
1.5707963267926159
1070
     0
1070
     1
1040
-40.494744110593103
1040
-20.025665065784072
1040
-41.446608443479533
1040
-20.025665065783851
1070
     2
1040
-41.446608443470517
1040
-21.025665065776099
1040
0.9999999999922533
1040
1.570796326803906
1040
2.7925268031964121
1070
     1
1070
     1
1040
-42.386301064251029
1040
-20.683644922458232
1040
-43.177415089160881
1040
-22.857212842111931
1070
     2
1040
-43.553292137476362
1040
-22.720404784780659
1040
0.4000000000013905
1040
0.3490658504002764
1040
1.5707963267925069
1070
     0
1070
     1
1040
-43.553292137475403
1040
-23.12040478478205
1040
-52.499999998918831
1040
-23.12040478478205
1070
     1
1040
-52.499999998918831
1040
-23.12040478478205
1040
-61.446707860362331
1040
-23.12040478478211
1070
     2
1040
-61.446707860363318
1040
-22.720404784783529
1040
0.3999999999985775
1040
1.570796326792411
1040
2.7925268031846149
1070
     0
1070
     1
1040
-61.822584908675481
1040
-22.85721284211569
1040
-62.613698933586591
1040
-20.68364492245847
1070
     2
1040
-63.553391554381747
1040
-21.025665065797352
1040
1.000000000013211
1040
6.632251157587703
1040
7.853981633979922
1070
     1
1070
     1
1040
-63.55339155438719
1040
-20.025665065784139
1040
-64.505255887244687
1040
-20.025665065784139
1070
     2
1040
-64.505255887247685
1040
-18.825665065795111
1040
1.1999999999890261
1040
1.570796326792401
1040
2.094395102389051
1070
     0
1070
     1
1040
-65.105255887237888
1040
-19.864895550329418
1040
-65.692820321946385
1040
-19.525665065784189
1070
     1
1040
-65.692820321946385
1040
-19.525665065784189
1040
-66.683320136898317
1040
-18.95379973098947
1070
     2
1040
-66.788320136899983
1040
-19.135665065790612
1040
0.2100000000063851
1040
7.3303828583845627
1040
7.8539816339812401
1070
     1
1070
     1
1040
-66.788320136901405
1040
-18.92566506578423
1040
-67.099999998918904
1040
-18.92566506578417
1070
     2
1040
-67.099999998915948
1040
-19.325665065787121
1040
0.40000000000295
1040
1.5707963268023291
1040
3.141592653592308
1070
     1
1070
     1
1040
-67.499999998918895
1040
-19.325665065788129
1040
-67.499999998918895
1040
-22.725665065784192
1070
     2
1040
-67.099999998916914
1040
-22.725665065782181
1040
0.4000000000019782
1040
3.1415926535947949
1040
4.7123889803848034
1070
     1
1070
     1
1040
-67.099999998916871
1040
-23.125665065784158
1040
-66.788320136898221
1040
-23.125665065784158
1070
     2
1040
-66.78832013689869
1040
-22.91566506578226
1040
0.2100000000019078
1040
4.7123889803869421
1040
5.2359877559835688
1070
     1
1070
     1
1040
-66.683320136897635
1040
-23.097530400578581
1040
-65.368863125452634
1040
-22.333664171297801
1070
     1
1040
-65.368863125452634
1040
-22.333664171297801
1040
-65.368863125452521
1040
-22.06654964308488
1070
     2
1040
-65.158863125452513
1040
-22.06654964308499
1040
0.2100000000000017
1040
3.1415926535902998
1040
5.235987755981399
1070
     0
1070
     1
1040
-65.053863125452807
1040
-21.88468430829009
1040
-64.813680060670507
1040
-22.023354065396621
1070
     2
1040
-64.691810291900111
1040
-27.58740026948773
1040
5.5653807059176952
1040
4.6904893984793761
1040
4.7536537105194441
1070
     0
1071
        0
1070
     0
1070
     1
1040
5.4977871437821371
1040
0.35
1070
     0
1070
     1
1040
0.0
1040
0.0
1040
0.0
1040
0.0000000000000003
1040
1.111249999999999
1070
     0
1071
        1
1040
-67.50000014973466
1040
-24.920404977802249
1040
0.0
1002
}
  0
INSERT
  5
19A8
  8
SAPA_ISOLATOR
  6
CONTINUOUS
  2
*X119
 10
0.0
 20
0.0
 30
0.0
1001
ACAD
1000
HATCH
1002
{
1070
    19
1000
ANSI31
1040
0.35
1040
3.926990816987241
1000
R14_HATCH_DATA
1000
19A8
1011
1.0
1021
0.0
1031
0.0
1021
0.0
1031
0.0
1011
0.0
1021
0.0
1031
0.0
1021
1.0
1031
0.0
1011
0.0
1021
0.0
1031
0.0
1021
0.0
1031
1.0
1040
0.0
1010
0.0
1020
0.0
1030
1.0
1000
ANSI31
1070
     0
1070
     0
1071
        1
1071
        1
1071
       49
1070
     2
1040
-64.463742496360354
1040
-7.6725649458037211
1040
0.3006817060114675
1040
-1.5657379063807291
1040
-0.3498199254894492
1070
     1
1070
     1
1040
-64.181271744820549
1040
-7.7756171794257929
1040
-63.295794031949349
1040
-5.3427871578817721
1070
     2
1040
-62.919916983633222
1040
-5.4795952152145908
1040
0.400000000002539
1040
3.490658503993135
1040
4.7123889803853398
1070
     0
1070
     1
1040
-62.919916983632959
1040
-5.079595215212052
1040
-52.499999998918831
1040
-5.0795952152120831
1070
     1
1040
-52.499999998918831
1040
-5.0795952152120831
1040
-42.080083014200738
1040
-5.0795952152121417
1070
     2
1040
-42.080083014202494
1040
-5.4795952152117922
1040
0.3999999999996488
1040
4.7123889803890684
1040
5.9341194567812998
1070
     0
1070
     1
1040
-41.70420596588837
1040
-5.3427871578818618
1040
-40.818728253020197
1040
-7.7756171794175559
1070
     2
1040
-40.53636568087277
1040
-7.6727187364738159
1040
0.3005273892841634
1040
3.4910552070390422
1040
4.7076879318700922
1070
     1
1070
     2
1040
-40.308189705934488
1040
-2.4125997299488922
1040
5.5653807064749881
1040
4.6711242502471872
1040
4.7342885622872561
1070
     1
1070
     1
1040
-40.186319937167163
1040
-7.9766459345975056
1040
-39.946136872384869
1040
-8.1153156917040299
1070
     2
1040
-39.841136872385157
1040
-7.9334503569091304
1040
0.2100000000000017
1040
4.188790204787975
1040
6.2831853071790738
1070
     1
1070
     1
1040
-39.631136872385163
1040
-7.9334503569092378
1040
-39.631136872385042
1040
-7.6663358286963241
1070
     1
1040
-39.631136872385042
1040
-7.6663358286963241
1040
-39.29999999891885
1040
-7.4701137629120256
1070
     1
1040
-39.29999999891885
1040
-7.4701137629120256
1040
-38.316679860938329
1040
-6.9024695994145784
1070
     2
1040
-38.211679860940073
1040
-7.0843349342081243
1040
0.209999999998109
1040
4.1887902047907026
1040
4.7123889803873293
1070
     0
1070
     1
1040
-38.211679860939512
1040
-6.8743349342100171
1040
-37.89999999891694
1040
-6.8743349342099052
1070
     2
1040
-37.899999998915028
1040
-7.2743349342060357
1040
0.3999999999961332
1040
4.7123889803799113
1040
6.2831853071900472
1070
     0
1070
     1
1040
-37.499999998918902
1040
-7.2743349342102208
1040
-37.499999998918838
1040
-10.67433493420997
1070
     2
1040
-37.899999998915902
1040
-10.674334934212879
1040
0.3999999999970676
1040
6.2831853071723121
1040
7.8539816339818991
1070
     0
1070
     1
1040
-37.899999998918872
1040
-11.074334934209951
1040
-38.211679860942517
1040
-11.074334934209951
1070
     2
1040
-38.211679860940869
1040
-10.864334934215
1040
0.2099999999949489
1040
1.57079632680278
1040
2.0943951023994072
1070
     0
1070
     1
1040
-38.316679860939473
1040
-11.0462002690047
1040
-39.29999999891885
1040
-10.47848012264267
1070
     1
1040
-39.29999999891885
1040
-10.47848012264267
1040
-39.894744110589727
1040
-10.13510444967055
1070
     2
1040
-40.494744110595832
1040
-11.174334934220941
1040
1.2000000000109059
1040
1.047197551195963
1040
1.5707963267926159
1070
     1
1070
     1
1040
-40.494744110593103
1040
-9.9743349342100398
1040
-41.446608443479533
1040
-9.9743349342102672
1070
     2
1040
-41.446608443470517
1040
-8.9743349342180156
1040
0.9999999999922533
1040
1.570796326803906
1040
2.7925268031964121
1070
     0
1070
     1
1040
-42.386301064251029
1040
-9.3163550775358779
1040
-43.177415089160881
1040
-7.1427871578821858
1070
     2
1040
-43.553292137476362
1040
-7.2795952152134591
1040
0.4000000000013905
1040
0.3490658504002764
1040
1.5707963267925069
1070
     1
1070
     1
1040
-43.553292137475403
1040
-6.879595215212067
1040
-52.499999998918831
1040
-6.8795952152120643
1070
     1
1040
-52.499999998918831
1040
-6.8795952152120661
1040
-61.446707860362331
1040
-6.8795952152120066
1070
     2
1040
-61.446707860363318
1040
-7.2795952152105849
1040
0.3999999999985775
1040
1.570796326792411
1040
2.7925268031846149
1070
     1
1070
     1
1040
-61.822584908675481
1040
-7.1427871578784314
1040
-62.613698933586591
1040
-9.3163550775356452
1070
     2
1040
-63.553391554381747
1040
-8.9743349341967686
1040
1.000000000013211
1040
6.632251157587703
1040
7.853981633979922
1070
     0
1070
     1
1040
-63.55339155438719
1040
-9.9743349342099776
1040
-64.505255887244687
1040
-9.9743349342099776
1070
     2
1040
-64.505255887247685
1040
-11.174334934199001
1040
1.1999999999890261
1040
1.570796326792401
1040
2.094395102389051
1070
     1
1070
     1
1040
-65.105255887237888
1040
-10.13510444966469
1040
-65.692820321946385
1040
-10.474334934209921
1070
     1
1040
-65.692820321946385
1040
-10.474334934209921
1040
-66.683320136898317
1040
-11.04620026900464
1070
     2
1040
-66.788320136899983
1040
-10.8643349342035
1040
0.2100000000063851
1040
7.3303828583845627
1040
7.8539816339812401
1070
     0
1070
     1
1040
-66.788320136901405
1040
-11.07433493420988
1040
-67.099999998918904
1040
-11.07433493420994
1070
     2
1040
-67.099999998915948
1040
-10.674334934206991
1040
0.40000000000295
1040
1.5707963268023291
1040
3.141592653592308
1070
     0
1070
     1
1040
-67.499999998918895
1040
-10.67433493420598
1040
-67.499999998918895
1040
-7.2743349342099322
1070
     2
1040
-67.099999998916914
1040
-7.2743349342119323
1040
0.4000000000019782
1040
3.1415926535947949
1040
4.7123889803848034
1070
     0
1070
     1
1040
-67.099999998916871
1040
-6.874334934209954
1040
-66.788320136898221
1040
-6.874334934209954
1070
     2
1040
-66.78832013689869
1040
-7.0843349342118627
1040
0.2100000000019078
1040
4.7123889803869421
1040
5.2359877559835688
1070
     0
1070
     1
1040
-66.683320136897635
1040
-6.9024695994155394
1040
-65.368863125452634
1040
-7.6663358286963179
1070
     1
1040
-65.368863125452634
1040
-7.6663358286963179
1040
-65.368863125452521
1040
-7.9334503569092334
1070
     2
1040
-65.158863125452513
1040
-7.9334503569091259
1040
0.2100000000000017
1040
3.1415926535902998
1040
5.235987755981399
1070
     1
1070
     1
1040
-65.053863125452807
1040
-8.1153156917040263
1040
-64.813680060670507
1040
-7.976645934597502
1070
     2
1040
-64.691810291900111
1040
-2.4125997305063831
1040
5.5653807059176952
1040
4.6904893984793761
1040
4.7536537105194441
1070
     1
1071
        0
1070
     0
1070
     1
1040
3.926990816987241
1040
0.35
1070
     0
1070
     1
1040
4.7123889803846888
1040
-67.50000014973466
1040
-5.0795950221918673
1040
1.111249999999999
1040
-0.0000000000000005
1070
     0
1071
        1
1040
-67.50000014973466
1040
-5.0795950221918673
1040
0.0
1002
}
  0
POLYLINE
  5
19A9
  8
SAPA_ISOLATOR
 66
     1
 10
0.0
 20
0.0
 30
0.0
 70
     1
  0
VERTEX
  5
23B5
  8
SAPA_ISOLATOR
 10
-53.699999999999818
 20
3.5
 30
0.0
  0
VERTEX
  5
23B6
  8
SAPA_ISOLATOR
 10
-53.699999999999818
 20
2.6029440986901591
 30
0.0
  0
VERTEX
  5
23B7
  8
SAPA_ISOLATOR
 10
-52.197055901308431
 20
1.099999999998772
 30
0.0
  0
VERTEX
  5
23B8
  8
SAPA_ISOLATOR
 10
-46.478136728428119
 20
1.0999999999989989
 30
0.0
 42
-0.0502608893789828
  0
VERTEX
  5
23B9
  8
SAPA_ISOLATOR
 10
-45.495019712916701
 20
0.4230777223442601
 30
0.0
 42
-0.460955221230658
  0
VERTEX
  5
23BA
  8
SAPA_ISOLATOR
 10
-45.495019712917383
 20
-0.4230769752680317
 30
0.0
 42
-0.0502609546985642
  0
VERTEX
  5
23BB
  8
SAPA_ISOLATOR
 10
-46.478138087674779
 20
-1.1000000000012731
 30
0.0
  0
VERTEX
  5
23BC
  8
SAPA_ISOLATOR
 10
-52.197056648386933
 20
-1.1000000000012731
 30
0.0
  0
VERTEX
  5
23BD
  8
SAPA_ISOLATOR
 10
-53.700000000000038
 20
-2.6029433516139302
 30
0.0
  0
VERTEX
  5
23BE
  8
SAPA_ISOLATOR
 10
-53.700000000000038
 20
-3.5
 30
0.0
 42
-0.4142135623728733
  0
VERTEX
  5
23BF
  8
SAPA_ISOLATOR
 10
-54.0
 20
-3.7999999999999541
 30
0.0
  0
VERTEX
  5
23C0
  8
SAPA_ISOLATOR
 10
-61.099999999999959
 20
-3.8000000000009768
 30
0.0
 42
-0.4142135623731387
  0
VERTEX
  5
23C1
  8
SAPA_ISOLATOR
 10
-61.600000000000023
 20
-3.3000000000009768
 30
0.0
  0
VERTEX
  5
23C2
  8
SAPA_ISOLATOR
 10
-61.60000000000008
 20
3.2999999999988172
 30
0.0
 42
-0.4142135623730469
  0
VERTEX
  5
23C3
  8
SAPA_ISOLATOR
 10
-61.100000000000129
 20
3.7999999999988172
 30
0.0
  0
VERTEX
  5
23C4
  8
SAPA_ISOLATOR
 10
-54.0
 20
3.7999999999999541
 30
0.0
 42
-0.4142135623733169
  0
SEQEND
  5
23C5
  8
SAPA_ISOLATOR
  0
POLYLINE
  5
19AA
  8
SAPA_ISOLATOR
 66
     1
 10
0.0
 20
0.0
 30
0.0
 70
     1
  0
VERTEX
  5
23C6
  8
SAPA_ISOLATOR
 10
-71.499999999998053
 20
6.7999999999974534
 30
0.0
 42
-0.4142135623731284
  0
VERTEX
  5
23C7
  8
SAPA_ISOLATOR
 10
-70.999999999997954
 20
6.2999999999974534
 30
0.0
  0
VERTEX
  5
23C8
  8
SAPA_ISOLATOR
 10
-70.999999999997954
 20
5.5
 30
0.0
 42
0.4142135623730951
  0
VERTEX
  5
23C9
  8
SAPA_ISOLATOR
 10
-70.499999999997954
 20
5.0
 30
0.0
  0
VERTEX
  5
23CA
  8
SAPA_ISOLATOR
 10
-53.0
 20
4.9999999999997717
 30
0.0
 42
-0.4142135623730951
  0
VERTEX
  5
23CB
  8
SAPA_ISOLATOR
 10
-52.5
 20
4.4999999999997717
 30
0.0
  0
VERTEX
  5
23CC
  8
SAPA_ISOLATOR
 10
-52.5
 20
3.1000003735380228
 30
0.0
  0
VERTEX
  5
23CD
  8
SAPA_ISOLATOR
 10
-51.69999962646056
 20
2.2999999999985898
 30
0.0
  0
VERTEX
  5
23CE
  8
SAPA_ISOLATOR
 10
-47.241778772773273
 20
2.3000000000004088
 30
0.0
 42
-0.0970774689087859
  0
VERTEX
  5
23CF
  8
SAPA_ISOLATOR
 10
-44.975410008182727
 20
1.031358705728052
 30
0.0
 42
-0.4609552212306134
  0
VERTEX
  5
23D0
  8
SAPA_ISOLATOR
 10
-44.975410008182607
 20
-1.0313579586517101
 30
0.0
 42
-0.0970775585520922
  0
VERTEX
  5
23D1
  8
SAPA_ISOLATOR
 10
-47.241781051835908
 20
-2.3000000000013179
 30
0.0
  0
VERTEX
  5
23D2
  8
SAPA_ISOLATOR
 10
-51.700000373539517
 20
-2.3000000000013179
 30
0.0
  0
VERTEX
  5
23D3
  8
SAPA_ISOLATOR
 10
-52.5
 20
-3.099999626461567
 30
0.0
  0
VERTEX
  5
23D4
  8
SAPA_ISOLATOR
 10
-52.5
 20
-4.4999999999997717
 30
0.0
 42
-0.4142135623730951
  0
VERTEX
  5
23D5
  8
SAPA_ISOLATOR
 10
-53.0
 20
-4.9999999999997717
 30
0.0
  0
VERTEX
  5
23D6
  8
SAPA_ISOLATOR
 10
-70.499999999997954
 20
-5.0000000000050022
 30
0.0
 42
0.4142135623730951
  0
VERTEX
  5
23D7
  8
SAPA_ISOLATOR
 10
-70.999999999997954
 20
-5.5000000000050022
 30
0.0
  0
VERTEX
  5
23D8
  8
SAPA_ISOLATOR
 10
-70.999999999997954
 20
-6.3000000000024547
 30
0.0
 42
-0.4142135623731617
  0
VERTEX
  5
23D9
  8
SAPA_ISOLATOR
 10
-71.499999999998522
 20
-6.8000000000023979
 30
0.0
  0
VERTEX
  5
23DA
  8
SAPA_ISOLATOR
 10
-80.299999999998477
 20
-6.8000000000026262
 30
0.0
 42
-0.4142135623730951
  0
VERTEX
  5
23DB
  8
SAPA_ISOLATOR
 10
-81.299999999998477
 20
-5.800000000002683
 30
0.0
  0
VERTEX
  5
23DC
  8
SAPA_ISOLATOR
 10
-81.299999999998477
 20
-5.0873719966523359
 30
0.0
 42
-0.221694662643068
  0
VERTEX
  5
23DD
  8
SAPA_ISOLATOR
 10
-81.192836282904295
 20
-4.8575586637166452
 30
0.0
  0
VERTEX
  5
23DE
  8
SAPA_ISOLATOR
 10
-80.492055319897077
 20
-4.269533616121179
 30
0.0
 42
-0.6358782360467221
  0
VERTEX
  5
23DF
  8
SAPA_ISOLATOR
 10
-79.999999999998522
 20
-4.5000000000018181
 30
0.0
  0
VERTEX
  5
23E0
  8
SAPA_ISOLATOR
 10
-79.999999999998295
 20
-5.300000000002683
 30
0.0
 42
0.4142135623730951
  0
VERTEX
  5
23E1
  8
SAPA_ISOLATOR
 10
-79.699999999998113
 20
-5.6000000000024102
 30
0.0
  0
VERTEX
  5
23E2
  8
SAPA_ISOLATOR
 10
-72.499999999998522
 20
-5.6000000000026366
 30
0.0
 42
0.9995465490080238
  0
VERTEX
  5
23E3
  8
SAPA_ISOLATOR
 10
-72.499999999998295
 20
-4.9993422943207397
 30
0.0
  0
VERTEX
  5
23E4
  8
SAPA_ISOLATOR
 10
-72.49999999999801
 20
-0.8660254037865797
 30
0.0
  0
VERTEX
  5
23E5
  8
SAPA_ISOLATOR
 10
-71.999999999998124
 20
-0.0000000000022737
 30
0.0
  0
VERTEX
  5
23E6
  8
SAPA_ISOLATOR
 10
-72.499999999998238
 20
0.8660254037823733
 30
0.0
  0
VERTEX
  5
23E7
  8
SAPA_ISOLATOR
 10
-72.499999999998295
 20
4.9993422943157384
 30
0.0
 42
0.9995465490087907
  0
VERTEX
  5
23E8
  8
SAPA_ISOLATOR
 10
-72.499999999998522
 20
5.5999999999971797
 30
0.0
  0
VERTEX
  5
23E9
  8
SAPA_ISOLATOR
 10
-79.699999999998113
 20
5.5999999999974071
 30
0.0
 42
0.4142135623735446
  0
VERTEX
  5
23EA
  8
SAPA_ISOLATOR
 10
-79.999999999998067
 20
5.2999999999976799
 30
0.0
  0
VERTEX
  5
23EB
  8
SAPA_ISOLATOR
 10
-79.999999999998522
 20
4.4999999999977263
 30
0.0
 42
-0.6358782360470147
  0
VERTEX
  5
23EC
  8
SAPA_ISOLATOR
 10
-80.492055319897077
 20
4.2695336161186779
 30
0.0
  0
VERTEX
  5
23ED
  8
SAPA_ISOLATOR
 10
-81.192836282904295
 20
4.8575586637143706
 30
0.0
 42
-0.2216946626430204
  0
VERTEX
  5
23EE
  8
SAPA_ISOLATOR
 10
-81.299999999998477
 20
5.0873719966498347
 30
0.0
  0
VERTEX
  5
23EF
  8
SAPA_ISOLATOR
 10
-81.299999999998477
 20
5.7999999999981346
 30
0.0
 42
-0.4142135623731617
  0
VERTEX
  5
23F0
  8
SAPA_ISOLATOR
 10
-80.299999999998249
 20
6.7999999999981346
 30
0.0
  0
SEQEND
  5
23F1
  8
SAPA_ISOLATOR
  0
POLYLINE
  5
19AB
  8
SAPA_ISOLATOR
 66
     1
 10
0.0
 20
0.0
 30
0.0
 70
     1
  0
VERTEX
  5
23F2
  8
SAPA_ISOLATOR
 10
-63.1000000000002
 20
3.7999999999984762
 30
0.0
 42
-0.4142135623731387
  0
VERTEX
  5
23F3
  8
SAPA_ISOLATOR
 10
-62.600000000000129
 20
3.2999999999984762
 30
0.0
  0
VERTEX
  5
23F4
  8
SAPA_ISOLATOR
 10
-62.60000000000008
 20
-3.300000000001432
 30
0.0
 42
-0.4142135623730514
  0
VERTEX
  5
23F5
  8
SAPA_ISOLATOR
 10
-63.100000000000023
 20
-3.800000000001432
 30
0.0
  0
VERTEX
  5
23F6
  8
SAPA_ISOLATOR
 10
-70.200000000000159
 20
-3.8000000000024552
 30
0.0
 42
-0.4142135623730951
  0
VERTEX
  5
23F7
  8
SAPA_ISOLATOR
 10
-70.700000000000159
 20
-3.3000000000024552
 30
0.0
  0
VERTEX
  5
23F8
  8
SAPA_ISOLATOR
 10
-70.700000000000159
 20
3.299999999997453
 30
0.0
 42
-0.4142135623730951
  0
VERTEX
  5
23F9
  8
SAPA_ISOLATOR
 10
-70.200000000000159
 20
3.799999999997453
 30
0.0
  0
SEQEND
  5
23FA
  8
SAPA_ISOLATOR
  0
POLYLINE
  5
19CD
  8
SAPA_FOGBAND
 66
     1
 10
0.0
 20
0.0
 30
0.0
 70
     1
  0
VERTEX
  5
24A9
  8
SAPA_FOGBAND
 10
-80.768193081411013
 20
-4.1787401792169874
 30
0.0
  0
VERTEX
  5
24AA
  8
SAPA_FOGBAND
 10
-80.544896306152935
 20
-4.1787401792169732
 30
0.0
 42
-0.3500011104185251
  0
VERTEX
  5
24AB
  8
SAPA_FOGBAND
 10
-79.764899471718081
 20
-4.8009624014392074
 30
0.0
 42
0.3500011104185275
  0
VERTEX
  5
24AC
  8
SAPA_FOGBAND
 10
-78.789903428674506
 20
-5.578740179216978
 30
0.0
  0
VERTEX
  5
24AD
  8
SAPA_FOGBAND
 10
-78.46489947171807
 20
-5.5787401792169797
 30
0.0
 42
0.4142135623730992
  0
VERTEX
  5
24AE
  8
SAPA_FOGBAND
 10
-77.46489947171807
 20
-4.5787401792169797
 30
0.0
  0
VERTEX
  5
24AF
  8
SAPA_FOGBAND
 10
-77.46489947171807
 20
4.6212598207830391
 30
0.0
 42
0.4142135623730909
  0
VERTEX
  5
24B0
  8
SAPA_FOGBAND
 10
-78.46489947171807
 20
5.621259820783024
 30
0.0
  0
VERTEX
  5
24B1
  8
SAPA_FOGBAND
 10
-78.789903428674506
 20
5.6212598207830391
 30
0.0
 42
0.3500011104185275
  0
VERTEX
  5
24B2
  8
SAPA_FOGBAND
 10
-79.764899471718053
 20
4.8434820430052667
 30
0.0
 42
-0.3500011104185328
  0
VERTEX
  5
24B3
  8
SAPA_FOGBAND
 10
-80.544896306152935
 20
4.2212598207830192
 30
0.0
  0
VERTEX
  5
24B4
  8
SAPA_FOGBAND
 10
-80.768193081411013
 20
4.2212598207830192
 30
0.0
 42
-0.380963100045198
  0
VERTEX
  5
24B5
  8
SAPA_FOGBAND
 10
-81.264899471718081
 20
4.6639644297978728
 30
0.0
 42
-0.0458039546811979
  0
VERTEX
  5
24B6
  8
SAPA_FOGBAND
 10
-81.341546602805465
 20
7.9530679894324399
 30
0.0
 42
0.9570085662280619
  0
VERTEX
  5
24B7
  8
SAPA_FOGBAND
 10
-83.327059573289304
 20
8.1767290045698076
 30
0.0
 42
0.0782100801382191
  0
VERTEX
  5
24B8
  8
SAPA_FOGBAND
 10
-83.327059573289347
 20
-8.1342093630037482
 30
0.0
 42
0.9570085662280891
  0
VERTEX
  5
24B9
  8
SAPA_FOGBAND
 10
-81.341546602805465
 20
-7.9105483478663521
 30
0.0
 42
-0.0458039546811975
  0
VERTEX
  5
24BA
  8
SAPA_FOGBAND
 10
-81.264899471718081
 20
-4.6214447882318392
 30
0.0
 42
-0.380963100045198
  0
SEQEND
  5
24BB
  8
SAPA_FOGBAND
  0
POLYLINE
  5
19CE
  8
SAPA_FOGBAND
 10
-40.499999966998281
 20
21.699999999993125
 30
0.0
 66
     1
 70
     8
  0
VERTEX
  8
SAPA_FOGBAND
  5
2569
 10
-40.5000
 20
21.7000
 30
0.000000
  70
    32
  0
VERTEX
  8
SAPA_FOGBAND
  5
256A
 10
-40.4964
 20
21.6117
 30
0.000000
  70
    32
  0
VERTEX
  8
SAPA_FOGBAND
  5
256B
 10
-40.4858
 20
21.5236
 30
0.000000
  70
    32
  0
VERTEX
  8
SAPA_FOGBAND
  5
256C
 10
-40.4680
 20
21.4359
 30
0.000000
  70
    32
  0
VERTEX
  8
SAPA_FOGBAND
  5
256D
 10
-40.4432
 20
21.3488
 30
0.000000
  70
    32
  0
VERTEX
  8
SAPA_FOGBAND
  5
256E
 10
-40.4115
 20
21.2626
 30
0.000000
  70
    32
  0
VERTEX
  8
SAPA_FOGBAND
  5
256F
 10
-40.3728
 20
21.1775
 30
0.000000
  70
    32
  0
VERTEX
  8
SAPA_FOGBAND
  5
2570
 10
-40.3273
 20
21.0936
 30
0.000000
  70
    32
  0
VERTEX
  8
SAPA_FOGBAND
  5
2571
 10
-40.2751
 20
21.0112
 30
0.000000
  70
    32
  0
VERTEX
  8
SAPA_FOGBAND
  5
2572
 10
-40.2163
 20
20.9304
 30
0.000000
  70
    32
  0
VERTEX
  8
SAPA_FOGBAND
  5
2573
 10
-40.1512
 20
20.8515
 30
0.000000
  70
    32
  0
VERTEX
  8
SAPA_FOGBAND
  5
2574
 10
-40.0797
 20
20.7746
 30
0.000000
  70
    32
  0
VERTEX
  8
SAPA_FOGBAND
  5
2575
 10
-40.0021
 20
20.7000
 30
0.000000
  70
    32
  0
VERTEX
  8
SAPA_FOGBAND
  5
2576
 10
-39.9186
 20
20.6277
 30
0.000000
  70
    32
  0
VERTEX
  8
SAPA_FOGBAND
  5
2577
 10
-39.8294
 20
20.5581
 30
0.000000
  70
    32
  0
VERTEX
  8
SAPA_FOGBAND
  5
2578
 10
-39.7347
 20
20.4912
 30
0.000000
  70
    32
  0
VERTEX
  8
SAPA_FOGBAND
  5
2579
 10
-39.6347
 20
20.4272
 30
0.000000
  70
    32
  0
VERTEX
  8
SAPA_FOGBAND
  5
257A
 10
-39.5297
 20
20.3663
 30
0.000000
  70
    32
  0
VERTEX
  8
SAPA_FOGBAND
  5
257B
 10
-39.4199
 20
20.3086
 30
0.000000
  70
    32
  0
VERTEX
  8
SAPA_FOGBAND
  5
257C
 10
-39.3055
 20
20.2542
 30
0.000000
  70
    32
  0
VERTEX
  8
SAPA_FOGBAND
  5
257D
 10
-39.1870
 20
20.2034
 30
0.000000
  70
    32
  0
VERTEX
  8
SAPA_FOGBAND
  5
257E
 10
-39.0645
 20
20.1561
 30
0.000000
  70
    32
  0
VERTEX
  8
SAPA_FOGBAND
  5
257F
 10
-38.9383
 20
20.1125
 30
0.000000
  70
    32
  0
VERTEX
  8
SAPA_FOGBAND
  5
2580
 10
-38.8088
 20
20.0728
 30
0.000000
  70
    32
  0
VERTEX
  8
SAPA_FOGBAND
  5
2581
 10
-38.6762
 20
20.0370
 30
0.000000
  70
    32
  0
VERTEX
  8
SAPA_FOGBAND
  5
2582
 10
-38.5409
 20
20.0052
 30
0.000000
  70
    32
  0
VERTEX
  8
SAPA_FOGBAND
  5
2583
 10
-38.4032
 20
19.9775
 30
0.000000
  70
    32
  0
VERTEX
  8
SAPA_FOGBAND
  5
2584
 10
-38.2635
 20
19.9539
 30
0.000000
  70
    32
  0
VERTEX
  8
SAPA_FOGBAND
  5
2585
 10
-38.1220
 20
19.9346
 30
0.000000
  70
    32
  0
VERTEX
  8
SAPA_FOGBAND
  5
2586
 10
-37.9791
 20
19.9195
 30
0.000000
  70
    32
  0
VERTEX
  8
SAPA_FOGBAND
  5
2587
 10
-37.8352
 20
19.9087
 30
0.000000
  70
    32
  0
VERTEX
  8
SAPA_FOGBAND
  5
2588
 10
-37.6906
 20
19.9022
 30
0.000000
  70
    32
  0
VERTEX
  8
SAPA_FOGBAND
  5
2589
 10
-37.5456
 20
19.9000
 30
0.000000
  70
    32
  0
VERTEX
  8
SAPA_FOGBAND
  5
258A
 10
-37.4007
 20
19.9022
 30
0.000000
  70
    32
  0
VERTEX
  8
SAPA_FOGBAND
  5
258B
 10
-37.2561
 20
19.9087
 30
0.000000
  70
    32
  0
VERTEX
  8
SAPA_FOGBAND
  5
258C
 10
-37.1121
 20
19.9195
 30
0.000000
  70
    32
  0
VERTEX
  8
SAPA_FOGBAND
  5
258D
 10
-36.9693
 20
19.9346
 30
0.000000
  70
    32
  0
VERTEX
  8
SAPA_FOGBAND
  5
258E
 10
-36.8278
 20
19.9539
 30
0.000000
  70
    32
  0
VERTEX
  8
SAPA_FOGBAND
  5
258F
 10
-36.6880
 20
19.9775
 30
0.000000
  70
    32
  0
VERTEX
  8
SAPA_FOGBAND
  5
2590
 10
-36.5503
 20
20.0052
 30
0.000000
  70
    32
  0
VERTEX
  8
SAPA_FOGBAND
  5
2591
 10
-36.4151
 20
20.0370
 30
0.000000
  70
    32
  0
VERTEX
  8
SAPA_FOGBAND
  5
2592
 10
-36.2825
 20
20.0728
 30
0.000000
  70
    32
  0
VERTEX
  8
SAPA_FOGBAND
  5
2593
 10
-36.1530
 20
20.1125
 30
0.000000
  70
    32
  0
VERTEX
  8
SAPA_FOGBAND
  5
2594
 10
-36.0268
 20
20.1561
 30
0.000000
  70
    32
  0
VERTEX
  8
SAPA_FOGBAND
  5
2595
 10
-35.9043
 20
20.2034
 30
0.000000
  70
    32
  0
VERTEX
  8
SAPA_FOGBAND
  5
2596
 10
-35.7857
 20
20.2542
 30
0.000000
  70
    32
  0
VERTEX
  8
SAPA_FOGBAND
  5
2597
 10
-35.6714
 20
20.3086
 30
0.000000
  70
    32
  0
VERTEX
  8
SAPA_FOGBAND
  5
2598
 10
-35.5616
 20
20.3663
 30
0.000000
  70
    32
  0
VERTEX
  8
SAPA_FOGBAND
  5
2599
 10
-35.4566
 20
20.4272
 30
0.000000
  70
    32
  0
VERTEX
  8
SAPA_FOGBAND
  5
259A
 10
-35.3566
 20
20.4912
 30
0.000000
  70
    32
  0
VERTEX
  8
SAPA_FOGBAND
  5
259B
 10
-35.2619
 20
20.5581
 30
0.000000
  70
    32
  0
VERTEX
  8
SAPA_FOGBAND
  5
259C
 10
-35.1727
 20
20.6277
 30
0.000000
  70
    32
  0
VERTEX
  8
SAPA_FOGBAND
  5
259D
 10
-35.0892
 20
20.7000
 30
0.000000
  70
    32
  0
VERTEX
  8
SAPA_FOGBAND
  5
259E
 10
-35.0116
 20
20.7746
 30
0.000000
  70
    32
  0
VERTEX
  8
SAPA_FOGBAND
  5
259F
 10
-34.9401
 20
20.8515
 30
0.000000
  70
    32
  0
VERTEX
  8
SAPA_FOGBAND
  5
25A0
 10
-34.8749
 20
20.9304
 30
0.000000
  70
    32
  0
VERTEX
  8
SAPA_FOGBAND
  5
25A1
 10
-34.8162
 20
21.0112
 30
0.000000
  70
    32
  0
VERTEX
  8
SAPA_FOGBAND
  5
25A2
 10
-34.7640
 20
21.0936
 30
0.000000
  70
    32
  0
VERTEX
  8
SAPA_FOGBAND
  5
25A3
 10
-34.7185
 20
21.1775
 30
0.000000
  70
    32
  0
VERTEX
  8
SAPA_FOGBAND
  5
25A4
 10
-34.6798
 20
21.2626
 30
0.000000
  70
    32
  0
VERTEX
  8
SAPA_FOGBAND
  5
25A5
 10
-34.6480
 20
21.3488
 30
0.000000
  70
    32
  0
VERTEX
  8
SAPA_FOGBAND
  5
25A6
 10
-34.6233
 20
21.4359
 30
0.000000
  70
    32
  0
VERTEX
  8
SAPA_FOGBAND
  5
25A7
 10
-34.6055
 20
21.5236
 30
0.000000
  70
    32
  0
VERTEX
  8
SAPA_FOGBAND
  5
25A8
 10
-34.5948
 20
21.6117
 30
0.000000
  70
    32
  0
VERTEX
  8
SAPA_FOGBAND
  5
25A9
 10
-34.5913
 20
21.7000
 30
0.000000
  70
    32
  0
VERTEX
  8
SAPA_FOGBAND
  5
25AA
 10
-34.5948
 20
21.7883
 30
0.000000
  70
    32
  0
VERTEX
  8
SAPA_FOGBAND
  5
25AB
 10
-34.6055
 20
21.8764
 30
0.000000
  70
    32
  0
VERTEX
  8
SAPA_FOGBAND
  5
25AC
 10
-34.6233
 20
21.9641
 30
0.000000
  70
    32
  0
VERTEX
  8
SAPA_FOGBAND
  5
25AD
 10
-34.6480
 20
22.0512
 30
0.000000
  70
    32
  0
VERTEX
  8
SAPA_FOGBAND
  5
25AE
 10
-34.6798
 20
22.1374
 30
0.000000
  70
    32
  0
VERTEX
  8
SAPA_FOGBAND
  5
25AF
 10
-34.7185
 20
22.2225
 30
0.000000
  70
    32
  0
VERTEX
  8
SAPA_FOGBAND
  5
25B0
 10
-34.7640
 20
22.3064
 30
0.000000
  70
    32
  0
VERTEX
  8
SAPA_FOGBAND
  5
25B1
 10
-34.8162
 20
22.3888
 30
0.000000
  70
    32
  0
VERTEX
  8
SAPA_FOGBAND
  5
25B2
 10
-34.8749
 20
22.4696
 30
0.000000
  70
    32
  0
VERTEX
  8
SAPA_FOGBAND
  5
25B3
 10
-34.9401
 20
22.5485
 30
0.000000
  70
    32
  0
VERTEX
  8
SAPA_FOGBAND
  5
25B4
 10
-35.0116
 20
22.6254
 30
0.000000
  70
    32
  0
VERTEX
  8
SAPA_FOGBAND
  5
25B5
 10
-35.0892
 20
22.7000
 30
0.000000
  70
    32
  0
VERTEX
  8
SAPA_FOGBAND
  5
25B6
 10
-35.1727
 20
22.7723
 30
0.000000
  70
    32
  0
VERTEX
  8
SAPA_FOGBAND
  5
25B7
 10
-35.2619
 20
22.8419
 30
0.000000
  70
    32
  0
VERTEX
  8
SAPA_FOGBAND
  5
25B8
 10
-35.3566
 20
22.9088
 30
0.000000
  70
    32
  0
VERTEX
  8
SAPA_FOGBAND
  5
25B9
 10
-35.4566
 20
22.9728
 30
0.000000
  70
    32
  0
VERTEX
  8
SAPA_FOGBAND
  5
25BA
 10
-35.5616
 20
23.0337
 30
0.000000
  70
    32
  0
VERTEX
  8
SAPA_FOGBAND
  5
25BB
 10
-35.6714
 20
23.0914
 30
0.000000
  70
    32
  0
VERTEX
  8
SAPA_FOGBAND
  5
25BC
 10
-35.7857
 20
23.1458
 30
0.000000
  70
    32
  0
VERTEX
  8
SAPA_FOGBAND
  5
25BD
 10
-35.9043
 20
23.1966
 30
0.000000
  70
    32
  0
VERTEX
  8
SAPA_FOGBAND
  5
25BE
 10
-36.0268
 20
23.2439
 30
0.000000
  70
    32
  0
VERTEX
  8
SAPA_FOGBAND
  5
25BF
 10
-36.1530
 20
23.2875
 30
0.000000
  70
    32
  0
VERTEX
  8
SAPA_FOGBAND
  5
25C0
 10
-36.2825
 20
23.3272
 30
0.000000
  70
    32
  0
VERTEX
  8
SAPA_FOGBAND
  5
25C1
 10
-36.4151
 20
23.3630
 30
0.000000
  70
    32
  0
VERTEX
  8
SAPA_FOGBAND
  5
25C2
 10
-36.5503
 20
23.3948
 30
0.000000
  70
    32
  0
VERTEX
  8
SAPA_FOGBAND
  5
25C3
 10
-36.6880
 20
23.4225
 30
0.000000
  70
    32
  0
VERTEX
  8
SAPA_FOGBAND
  5
25C4
 10
-36.8278
 20
23.4461
 30
0.000000
  70
    32
  0
VERTEX
  8
SAPA_FOGBAND
  5
25C5
 10
-36.9693
 20
23.4654
 30
0.000000
  70
    32
  0
VERTEX
  8
SAPA_FOGBAND
  5
25C6
 10
-37.1121
 20
23.4805
 30
0.000000
  70
    32
  0
VERTEX
  8
SAPA_FOGBAND
  5
25C7
 10
-37.2561
 20
23.4913
 30
0.000000
  70
    32
  0
VERTEX
  8
SAPA_FOGBAND
  5
25C8
 10
-37.4007
 20
23.4978
 30
0.000000
  70
    32
  0
VERTEX
  8
SAPA_FOGBAND
  5
25C9
 10
-37.5456
 20
23.5000
 30
0.000000
  70
    32
  0
VERTEX
  8
SAPA_FOGBAND
  5
25CA
 10
-37.6906
 20
23.4978
 30
0.000000
  70
    32
  0
VERTEX
  8
SAPA_FOGBAND
  5
25CB
 10
-37.8352
 20
23.4913
 30
0.000000
  70
    32
  0
VERTEX
  8
SAPA_FOGBAND
  5
25CC
 10
-37.9791
 20
23.4805
 30
0.000000
  70
    32
  0
VERTEX
  8
SAPA_FOGBAND
  5
25CD
 10
-38.1220
 20
23.4654
 30
0.000000
  70
    32
  0
VERTEX
  8
SAPA_FOGBAND
  5
25CE
 10
-38.2635
 20
23.4461
 30
0.000000
  70
    32
  0
VERTEX
  8
SAPA_FOGBAND
  5
25CF
 10
-38.4032
 20
23.4225
 30
0.000000
  70
    32
  0
VERTEX
  8
SAPA_FOGBAND
  5
25D0
 10
-38.5409
 20
23.3948
 30
0.000000
  70
    32
  0
VERTEX
  8
SAPA_FOGBAND
  5
25D1
 10
-38.6762
 20
23.3630
 30
0.000000
  70
    32
  0
VERTEX
  8
SAPA_FOGBAND
  5
25D2
 10
-38.8088
 20
23.3272
 30
0.000000
  70
    32
  0
VERTEX
  8
SAPA_FOGBAND
  5
25D3
 10
-38.9383
 20
23.2875
 30
0.000000
  70
    32
  0
VERTEX
  8
SAPA_FOGBAND
  5
25D4
 10
-39.0645
 20
23.2439
 30
0.000000
  70
    32
  0
VERTEX
  8
SAPA_FOGBAND
  5
25D5
 10
-39.1870
 20
23.1966
 30
0.000000
  70
    32
  0
VERTEX
  8
SAPA_FOGBAND
  5
25D6
 10
-39.3055
 20
23.1458
 30
0.000000
  70
    32
  0
VERTEX
  8
SAPA_FOGBAND
  5
25D7
 10
-39.4199
 20
23.0914
 30
0.000000
  70
    32
  0
VERTEX
  8
SAPA_FOGBAND
  5
25D8
 10
-39.5297
 20
23.0337
 30
0.000000
  70
    32
  0
VERTEX
  8
SAPA_FOGBAND
  5
25D9
 10
-39.6347
 20
22.9728
 30
0.000000
  70
    32
  0
VERTEX
  8
SAPA_FOGBAND
  5
25DA
 10
-39.7347
 20
22.9088
 30
0.000000
  70
    32
  0
VERTEX
  8
SAPA_FOGBAND
  5
25DB
 10
-39.8294
 20
22.8419
 30
0.000000
  70
    32
  0
VERTEX
  8
SAPA_FOGBAND
  5
25DC
 10
-39.9186
 20
22.7723
 30
0.000000
  70
    32
  0
VERTEX
  8
SAPA_FOGBAND
  5
25DD
 10
-40.0021
 20
22.7000
 30
0.000000
  70
    32
  0
VERTEX
  8
SAPA_FOGBAND
  5
25DE
 10
-40.0797
 20
22.6254
 30
0.000000
  70
    32
  0
VERTEX
  8
SAPA_FOGBAND
  5
25DF
 10
-40.1512
 20
22.5485
 30
0.000000
  70
    32
  0
VERTEX
  8
SAPA_FOGBAND
  5
25E0
 10
-40.2163
 20
22.4696
 30
0.000000
  70
    32
  0
VERTEX
  8
SAPA_FOGBAND
  5
25E1
 10
-40.2751
 20
22.3888
 30
0.000000
  70
    32
  0
VERTEX
  8
SAPA_FOGBAND
  5
25E2
 10
-40.3273
 20
22.3064
 30
0.000000
  70
    32
  0
VERTEX
  8
SAPA_FOGBAND
  5
25E3
 10
-40.3728
 20
22.2225
 30
0.000000
  70
    32
  0
VERTEX
  8
SAPA_FOGBAND
  5
25E4
 10
-40.4115
 20
22.1374
 30
0.000000
  70
    32
  0
VERTEX
  8
SAPA_FOGBAND
  5
25E5
 10
-40.4432
 20
22.0512
 30
0.000000
  70
    32
  0
VERTEX
  8
SAPA_FOGBAND
  5
25E6
 10
-40.4680
 20
21.9641
 30
0.000000
  70
    32
  0
VERTEX
  8
SAPA_FOGBAND
  5
25E7
 10
-40.4858
 20
21.8764
 30
0.000000
  70
    32
  0
VERTEX
  8
SAPA_FOGBAND
  5
25E8
 10
-40.4964
 20
21.7883
 30
0.000000
  70
    32
  0
VERTEX
  8
SAPA_FOGBAND
  5
25E9
 10
-40.5000
 20
21.7000
 30
0.000000
  70
    32
  0
SEQEND
  8
SAPA_FOGBAND
  5
25EA
  0
INSERT
  5
19CF
  8
SAPA_FOGBAND
  6
CONTINUOUS
  2
*X121
 10
0.0
 20
0.0
 30
0.0
1001
ACAD
1000
HATCH
1002
{
1070
    19
1000
ANSI37
1040
0.25
1040
-1.570796326794897
1000
R14_HATCH_DATA
1000
19CF
1011
1.0
1021
0.0
1031
0.0
1021
0.0
1031
0.0
1011
0.0
1021
0.0
1031
0.0
1021
1.0
1031
0.0
1011
0.0
1021
0.0
1031
0.0
1021
0.0
1031
1.0
1040
0.0
1010
0.0
1020
0.0
1030
1.0
1000
ANSI37
1070
     0
1070
     0
1071
        1
1071
        1
1071
        3
1070
     3
1040
-37.54563807831628
1040
21.69999999999219
1040
-2.9543618886820009
1040
0.0000000000009328
1040
0.6092686230810487
1040
3.0288543565674959
1040
8.8961375621551824
1070
     0
1070
     2
1040
-36.097247745463847
1040
21.528106314816711
1040
1.5432917594600579
1040
5.5082984255660516
1040
5.8549249879456822
1070
     0
1070
     1
1040
-34.693331288384861
1040
22.169018193595779
1040
-34.610031169442699
1040
21.90249933918561
1071
        0
1070
     0
1070
     1
1040
-1.570796326794897
1040
0.25
1070
     0
1070
     2
1040
0.7853981633974481
1040
-403.4091569946487
1040
-420.88176377657828
1040
0.5612660075668221
1040
-0.5612660075668221
1070
     0
1040
5.4977871437821371
1040
-403.4091569946487
1040
-420.88176377657828
1040
-0.5612660075668221
1040
-0.5612660075668221
1070
     0
1071
        1
1040
-37.788408381380329
1040
21.851617139245938
1040
0.0
1002
}
  0
POLYLINE
  5
19D0
  8
SAPA_FOGBAND
 10
-58.646125407834958
 20
15.182155401672935
 30
0.0
 66
     1
 70
     8
  0
VERTEX
  8
SAPA_FOGBAND
  5
25EB
 10
-58.6461
 20
15.1822
 30
0.000000
  70
    32
  0
VERTEX
  8
SAPA_FOGBAND
  5
25EC
 10
-58.7402
 20
15.1866
 30
0.000000
  70
    32
  0
VERTEX
  8
SAPA_FOGBAND
  5
25ED
 10
-58.8340
 20
15.2001
 30
0.000000
  70
    32
  0
VERTEX
  8
SAPA_FOGBAND
  5
25EE
 10
-58.9274
 20
15.2225
 30
0.000000
  70
    32
  0
VERTEX
  8
SAPA_FOGBAND
  5
25EF
 10
-59.0201
 20
15.2539
 30
0.000000
  70
    32
  0
VERTEX
  8
SAPA_FOGBAND
  5
25F0
 10
-59.1118
 20
15.2940
 30
0.000000
  70
    32
  0
VERTEX
  8
SAPA_FOGBAND
  5
25F1
 10
-59.2025
 20
15.3428
 30
0.000000
  70
    32
  0
VERTEX
  8
SAPA_FOGBAND
  5
25F2
 10
-59.2918
 20
15.4003
 30
0.000000
  70
    32
  0
VERTEX
  8
SAPA_FOGBAND
  5
25F3
 10
-59.3796
 20
15.4662
 30
0.000000
  70
    32
  0
VERTEX
  8
SAPA_FOGBAND
  5
25F4
 10
-59.4656
 20
15.5404
 30
0.000000
  70
    32
  0
VERTEX
  8
SAPA_FOGBAND
  5
25F5
 10
-59.5496
 20
15.6227
 30
0.000000
  70
    32
  0
VERTEX
  8
SAPA_FOGBAND
  5
25F6
 10
-59.6315
 20
15.7130
 30
0.000000
  70
    32
  0
VERTEX
  8
SAPA_FOGBAND
  5
25F7
 10
-59.7110
 20
15.8110
 30
0.000000
  70
    32
  0
VERTEX
  8
SAPA_FOGBAND
  5
25F8
 10
-59.7879
 20
15.9165
 30
0.000000
  70
    32
  0
VERTEX
  8
SAPA_FOGBAND
  5
25F9
 10
-59.8621
 20
16.0291
 30
0.000000
  70
    32
  0
VERTEX
  8
SAPA_FOGBAND
  5
25FA
 10
-59.9333
 20
16.1487
 30
0.000000
  70
    32
  0
VERTEX
  8
SAPA_FOGBAND
  5
25FB
 10
-60.0014
 20
16.2750
 30
0.000000
  70
    32
  0
VERTEX
  8
SAPA_FOGBAND
  5
25FC
 10
-60.0663
 20
16.4077
 30
0.000000
  70
    32
  0
VERTEX
  8
SAPA_FOGBAND
  5
25FD
 10
-60.1277
 20
16.5463
 30
0.000000
  70
    32
  0
VERTEX
  8
SAPA_FOGBAND
  5
25FE
 10
-60.1856
 20
16.6907
 30
0.000000
  70
    32
  0
VERTEX
  8
SAPA_FOGBAND
  5
25FF
 10
-60.2398
 20
16.8405
 30
0.000000
  70
    32
  0
VERTEX
  8
SAPA_FOGBAND
  5
2600
 10
-60.2901
 20
16.9952
 30
0.000000
  70
    32
  0
VERTEX
  8
SAPA_FOGBAND
  5
2601
 10
-60.3365
 20
17.1545
 30
0.000000
  70
    32
  0
VERTEX
  8
SAPA_FOGBAND
  5
2602
 10
-60.3788
 20
17.3181
 30
0.000000
  70
    32
  0
VERTEX
  8
SAPA_FOGBAND
  5
2603
 10
-60.4169
 20
17.4856
 30
0.000000
  70
    32
  0
VERTEX
  8
SAPA_FOGBAND
  5
2604
 10
-60.4508
 20
17.6564
 30
0.000000
  70
    32
  0
VERTEX
  8
SAPA_FOGBAND
  5
2605
 10
-60.4803
 20
17.8303
 30
0.000000
  70
    32
  0
VERTEX
  8
SAPA_FOGBAND
  5
2606
 10
-60.5054
 20
18.0068
 30
0.000000
  70
    32
  0
VERTEX
  8
SAPA_FOGBAND
  5
2607
 10
-60.5260
 20
18.1855
 30
0.000000
  70
    32
  0
VERTEX
  8
SAPA_FOGBAND
  5
2608
 10
-60.5421
 20
18.3660
 30
0.000000
  70
    32
  0
VERTEX
  8
SAPA_FOGBAND
  5
2609
 10
-60.5536
 20
18.5477
 30
0.000000
  70
    32
  0
VERTEX
  8
SAPA_FOGBAND
  5
260A
 10
-60.5605
 20
18.7304
 30
0.000000
  70
    32
  0
VERTEX
  8
SAPA_FOGBAND
  5
260B
 10
-60.5628
 20
18.9135
 30
0.000000
  70
    32
  0
VERTEX
  8
SAPA_FOGBAND
  5
260C
 10
-60.5605
 20
19.0966
 30
0.000000
  70
    32
  0
VERTEX
  8
SAPA_FOGBAND
  5
260D
 10
-60.5536
 20
19.2792
 30
0.000000
  70
    32
  0
VERTEX
  8
SAPA_FOGBAND
  5
260E
 10
-60.5421
 20
19.4610
 30
0.000000
  70
    32
  0
VERTEX
  8
SAPA_FOGBAND
  5
260F
 10
-60.5260
 20
19.6414
 30
0.000000
  70
    32
  0
VERTEX
  8
SAPA_FOGBAND
  5
2610
 10
-60.5054
 20
19.8201
 30
0.000000
  70
    32
  0
VERTEX
  8
SAPA_FOGBAND
  5
2611
 10
-60.4803
 20
19.9966
 30
0.000000
  70
    32
  0
VERTEX
  8
SAPA_FOGBAND
  5
2612
 10
-60.4508
 20
20.1705
 30
0.000000
  70
    32
  0
VERTEX
  8
SAPA_FOGBAND
  5
2613
 10
-60.4169
 20
20.3414
 30
0.000000
  70
    32
  0
VERTEX
  8
SAPA_FOGBAND
  5
2614
 10
-60.3788
 20
20.5088
 30
0.000000
  70
    32
  0
VERTEX
  8
SAPA_FOGBAND
  5
2615
 10
-60.3365
 20
20.6724
 30
0.000000
  70
    32
  0
VERTEX
  8
SAPA_FOGBAND
  5
2616
 10
-60.2901
 20
20.8318
 30
0.000000
  70
    32
  0
VERTEX
  8
SAPA_FOGBAND
  5
2617
 10
-60.2398
 20
20.9865
 30
0.000000
  70
    32
  0
VERTEX
  8
SAPA_FOGBAND
  5
2618
 10
-60.1856
 20
21.1362
 30
0.000000
  70
    32
  0
VERTEX
  8
SAPA_FOGBAND
  5
2619
 10
-60.1277
 20
21.2806
 30
0.000000
  70
    32
  0
VERTEX
  8
SAPA_FOGBAND
  5
261A
 10
-60.0663
 20
21.4193
 30
0.000000
  70
    32
  0
VERTEX
  8
SAPA_FOGBAND
  5
261B
 10
-60.0014
 20
21.5519
 30
0.000000
  70
    32
  0
VERTEX
  8
SAPA_FOGBAND
  5
261C
 10
-59.9333
 20
21.6782
 30
0.000000
  70
    32
  0
VERTEX
  8
SAPA_FOGBAND
  5
261D
 10
-59.8621
 20
21.7978
 30
0.000000
  70
    32
  0
VERTEX
  8
SAPA_FOGBAND
  5
261E
 10
-59.7879
 20
21.9105
 30
0.000000
  70
    32
  0
VERTEX
  8
SAPA_FOGBAND
  5
261F
 10
-59.7110
 20
22.0159
 30
0.000000
  70
    32
  0
VERTEX
  8
SAPA_FOGBAND
  5
2620
 10
-59.6315
 20
22.1139
 30
0.000000
  70
    32
  0
VERTEX
  8
SAPA_FOGBAND
  5
2621
 10
-59.5496
 20
22.2042
 30
0.000000
  70
    32
  0
VERTEX
  8
SAPA_FOGBAND
  5
2622
 10
-59.4656
 20
22.2865
 30
0.000000
  70
    32
  0
VERTEX
  8
SAPA_FOGBAND
  5
2623
 10
-59.3796
 20
22.3608
 30
0.000000
  70
    32
  0
VERTEX
  8
SAPA_FOGBAND
  5
2624
 10
-59.2918
 20
22.4267
 30
0.000000
  70
    32
  0
VERTEX
  8
SAPA_FOGBAND
  5
2625
 10
-59.2025
 20
22.4841
 30
0.000000
  70
    32
  0
VERTEX
  8
SAPA_FOGBAND
  5
2626
 10
-59.1118
 20
22.5330
 30
0.000000
  70
    32
  0
VERTEX
  8
SAPA_FOGBAND
  5
2627
 10
-59.0201
 20
22.5731
 30
0.000000
  70
    32
  0
VERTEX
  8
SAPA_FOGBAND
  5
2628
 10
-58.9274
 20
22.6044
 30
0.000000
  70
    32
  0
VERTEX
  8
SAPA_FOGBAND
  5
2629
 10
-58.8340
 20
22.6268
 30
0.000000
  70
    32
  0
VERTEX
  8
SAPA_FOGBAND
  5
262A
 10
-58.7402
 20
22.6403
 30
0.000000
  70
    32
  0
VERTEX
  8
SAPA_FOGBAND
  5
262B
 10
-58.6461
 20
22.6448
 30
0.000000
  70
    32
  0
VERTEX
  8
SAPA_FOGBAND
  5
262C
 10
-58.5521
 20
22.6403
 30
0.000000
  70
    32
  0
VERTEX
  8
SAPA_FOGBAND
  5
262D
 10
-58.4583
 20
22.6268
 30
0.000000
  70
    32
  0
VERTEX
  8
SAPA_FOGBAND
  5
262E
 10
-58.3649
 20
22.6044
 30
0.000000
  70
    32
  0
VERTEX
  8
SAPA_FOGBAND
  5
262F
 10
-58.2722
 20
22.5731
 30
0.000000
  70
    32
  0
VERTEX
  8
SAPA_FOGBAND
  5
2630
 10
-58.1804
 20
22.5330
 30
0.000000
  70
    32
  0
VERTEX
  8
SAPA_FOGBAND
  5
2631
 10
-58.0897
 20
22.4841
 30
0.000000
  70
    32
  0
VERTEX
  8
SAPA_FOGBAND
  5
2632
 10
-58.0004
 20
22.4267
 30
0.000000
  70
    32
  0
VERTEX
  8
SAPA_FOGBAND
  5
2633
 10
-57.9126
 20
22.3608
 30
0.000000
  70
    32
  0
VERTEX
  8
SAPA_FOGBAND
  5
2634
 10
-57.8266
 20
22.2865
 30
0.000000
  70
    32
  0
VERTEX
  8
SAPA_FOGBAND
  5
2635
 10
-57.7426
 20
22.2042
 30
0.000000
  70
    32
  0
VERTEX
  8
SAPA_FOGBAND
  5
2636
 10
-57.6607
 20
22.1139
 30
0.000000
  70
    32
  0
VERTEX
  8
SAPA_FOGBAND
  5
2637
 10
-57.5813
 20
22.0159
 30
0.000000
  70
    32
  0
VERTEX
  8
SAPA_FOGBAND
  5
2638
 10
-57.5044
 20
21.9105
 30
0.000000
  70
    32
  0
VERTEX
  8
SAPA_FOGBAND
  5
2639
 10
-57.4302
 20
21.7978
 30
0.000000
  70
    32
  0
VERTEX
  8
SAPA_FOGBAND
  5
263A
 10
-57.3590
 20
21.6782
 30
0.000000
  70
    32
  0
VERTEX
  8
SAPA_FOGBAND
  5
263B
 10
-57.2908
 20
21.5519
 30
0.000000
  70
    32
  0
VERTEX
  8
SAPA_FOGBAND
  5
263C
 10
-57.2260
 20
21.4193
 30
0.000000
  70
    32
  0
VERTEX
  8
SAPA_FOGBAND
  5
263D
 10
-57.1645
 20
21.2806
 30
0.000000
  70
    32
  0
VERTEX
  8
SAPA_FOGBAND
  5
263E
 10
-57.1066
 20
21.1362
 30
0.000000
  70
    32
  0
VERTEX
  8
SAPA_FOGBAND
  5
263F
 10
-57.0525
 20
20.9865
 30
0.000000
  70
    32
  0
VERTEX
  8
SAPA_FOGBAND
  5
2640
 10
-57.0021
 20
20.8318
 30
0.000000
  70
    32
  0
VERTEX
  8
SAPA_FOGBAND
  5
2641
 10
-56.9558
 20
20.6724
 30
0.000000
  70
    32
  0
VERTEX
  8
SAPA_FOGBAND
  5
2642
 10
-56.9135
 20
20.5088
 30
0.000000
  70
    32
  0
VERTEX
  8
SAPA_FOGBAND
  5
2643
 10
-56.8753
 20
20.3414
 30
0.000000
  70
    32
  0
VERTEX
  8
SAPA_FOGBAND
  5
2644
 10
-56.8415
 20
20.1705
 30
0.000000
  70
    32
  0
VERTEX
  8
SAPA_FOGBAND
  5
2645
 10
-56.8120
 20
19.9966
 30
0.000000
  70
    32
  0
VERTEX
  8
SAPA_FOGBAND
  5
2646
 10
-56.7869
 20
19.8201
 30
0.000000
  70
    32
  0
VERTEX
  8
SAPA_FOGBAND
  5
2647
 10
-56.7663
 20
19.6414
 30
0.000000
  70
    32
  0
VERTEX
  8
SAPA_FOGBAND
  5
2648
 10
-56.7502
 20
19.4610
 30
0.000000
  70
    32
  0
VERTEX
  8
SAPA_FOGBAND
  5
2649
 10
-56.7387
 20
19.2792
 30
0.000000
  70
    32
  0
VERTEX
  8
SAPA_FOGBAND
  5
264A
 10
-56.7317
 20
19.0966
 30
0.000000
  70
    32
  0
VERTEX
  8
SAPA_FOGBAND
  5
264B
 10
-56.7294
 20
18.9135
 30
0.000000
  70
    32
  0
VERTEX
  8
SAPA_FOGBAND
  5
264C
 10
-56.7317
 20
18.7304
 30
0.000000
  70
    32
  0
VERTEX
  8
SAPA_FOGBAND
  5
264D
 10
-56.7387
 20
18.5477
 30
0.000000
  70
    32
  0
VERTEX
  8
SAPA_FOGBAND
  5
264E
 10
-56.7502
 20
18.3660
 30
0.000000
  70
    32
  0
VERTEX
  8
SAPA_FOGBAND
  5
264F
 10
-56.7663
 20
18.1855
 30
0.000000
  70
    32
  0
VERTEX
  8
SAPA_FOGBAND
  5
2650
 10
-56.7869
 20
18.0068
 30
0.000000
  70
    32
  0
VERTEX
  8
SAPA_FOGBAND
  5
2651
 10
-56.8120
 20
17.8303
 30
0.000000
  70
    32
  0
VERTEX
  8
SAPA_FOGBAND
  5
2652
 10
-56.8415
 20
17.6564
 30
0.000000
  70
    32
  0
VERTEX
  8
SAPA_FOGBAND
  5
2653
 10
-56.8753
 20
17.4856
 30
0.000000
  70
    32
  0
VERTEX
  8
SAPA_FOGBAND
  5
2654
 10
-56.9135
 20
17.3181
 30
0.000000
  70
    32
  0
VERTEX
  8
SAPA_FOGBAND
  5
2655
 10
-56.9558
 20
17.1545
 30
0.000000
  70
    32
  0
VERTEX
  8
SAPA_FOGBAND
  5
2656
 10
-57.0021
 20
16.9952
 30
0.000000
  70
    32
  0
VERTEX
  8
SAPA_FOGBAND
  5
2657
 10
-57.0525
 20
16.8405
 30
0.000000
  70
    32
  0
VERTEX
  8
SAPA_FOGBAND
  5
2658
 10
-57.1066
 20
16.6907
 30
0.000000
  70
    32
  0
VERTEX
  8
SAPA_FOGBAND
  5
2659
 10
-57.1645
 20
16.5463
 30
0.000000
  70
    32
  0
VERTEX
  8
SAPA_FOGBAND
  5
265A
 10
-57.2260
 20
16.4077
 30
0.000000
  70
    32
  0
VERTEX
  8
SAPA_FOGBAND
  5
265B
 10
-57.2908
 20
16.2750
 30
0.000000
  70
    32
  0
VERTEX
  8
SAPA_FOGBAND
  5
265C
 10
-57.3590
 20
16.1487
 30
0.000000
  70
    32
  0
VERTEX
  8
SAPA_FOGBAND
  5
265D
 10
-57.4302
 20
16.0291
 30
0.000000
  70
    32
  0
VERTEX
  8
SAPA_FOGBAND
  5
265E
 10
-57.5044
 20
15.9165
 30
0.000000
  70
    32
  0
VERTEX
  8
SAPA_FOGBAND
  5
265F
 10
-57.5813
 20
15.8110
 30
0.000000
  70
    32
  0
VERTEX
  8
SAPA_FOGBAND
  5
2660
 10
-57.6607
 20
15.7130
 30
0.000000
  70
    32
  0
VERTEX
  8
SAPA_FOGBAND
  5
2661
 10
-57.7426
 20
15.6227
 30
0.000000
  70
    32
  0
VERTEX
  8
SAPA_FOGBAND
  5
2662
 10
-57.8266
 20
15.5404
 30
0.000000
  70
    32
  0
VERTEX
  8
SAPA_FOGBAND
  5
2663
 10
-57.9126
 20
15.4662
 30
0.000000
  70
    32
  0
VERTEX
  8
SAPA_FOGBAND
  5
2664
 10
-58.0004
 20
15.4003
 30
0.000000
  70
    32
  0
VERTEX
  8
SAPA_FOGBAND
  5
2665
 10
-58.0897
 20
15.3428
 30
0.000000
  70
    32
  0
VERTEX
  8
SAPA_FOGBAND
  5
2666
 10
-58.1804
 20
15.2940
 30
0.000000
  70
    32
  0
VERTEX
  8
SAPA_FOGBAND
  5
2667
 10
-58.2722
 20
15.2539
 30
0.000000
  70
    32
  0
VERTEX
  8
SAPA_FOGBAND
  5
2668
 10
-58.3649
 20
15.2225
 30
0.000000
  70
    32
  0
VERTEX
  8
SAPA_FOGBAND
  5
2669
 10
-58.4583
 20
15.2001
 30
0.000000
  70
    32
  0
VERTEX
  8
SAPA_FOGBAND
  5
266A
 10
-58.5521
 20
15.1866
 30
0.000000
  70
    32
  0
VERTEX
  8
SAPA_FOGBAND
  5
266B
 10
-58.6461
 20
15.1822
 30
0.000000
  70
    32
  0
SEQEND
  8
SAPA_FOGBAND
  5
266C
  0
POLYLINE
  5
19D1
  8
SAPA_FOGBAND
 66
     1
 10
0.0
 20
0.0
 30
0.0
  0
VERTEX
  5
24CB
  8
SAPA_FOGBAND
 10
-51.800000000001802
 20
23.787839836612122
 30
0.0
  0
VERTEX
  5
24CC
  8
SAPA_FOGBAND
 10
-51.500000000001847
 20
23.787839836612122
 30
0.0
  0
VERTEX
  5
24CD
  8
SAPA_FOGBAND
 10
-51.800000000001802
 20
23.787839836612122
 30
0.0
 42
0.4142135623730951
  0
VERTEX
  5
24CE
  8
SAPA_FOGBAND
 10
-52.300000000001802
 20
23.287839836612122
 30
0.0
  0
VERTEX
  5
24CF
  8
SAPA_FOGBAND
 10
-52.300000000001859
 20
15.98783983661216
 30
0.0
 42
0.4142135623730951
  0
VERTEX
  5
24D0
  8
SAPA_FOGBAND
 10
-51.800000000001873
 20
15.48783983661216
 30
0.0
  0
VERTEX
  5
24D1
  8
SAPA_FOGBAND
 10
-51.500000000001847
 20
15.48783983661216
 30
0.0
  0
SEQEND
  5
24D2
  8
SAPA_FOGBAND
  0
POLYLINE
  5
19D2
  8
SAPA_FOGBAND
 66
     1
 10
0.0
 20
0.0
 30
0.0
 70
     1
  0
VERTEX
  5
24D3
  8
SAPA_FOGBAND
 10
-49.585369502363072
 20
21.08783983661213
 30
0.0
  0
VERTEX
  5
24D4
  8
SAPA_FOGBAND
 10
-50.185369502363038
 20
21.08783983661213
 30
0.0
 42
0.9999999999999998
  0
VERTEX
  5
24D5
  8
SAPA_FOGBAND
 10
-50.185369502363052
 20
19.287839836612171
 30
0.0
  0
VERTEX
  5
24D6
  8
SAPA_FOGBAND
 10
-49.585369502363079
 20
19.287839836612122
 30
0.0
 42
0.9999999999999998
  0
SEQEND
  5
24D7
  8
SAPA_FOGBAND
  0
POLYLINE
  5
19D3
  8
SAPA_FOGBAND
 66
     1
 10
0.0
 20
0.0
 30
0.0
 70
     1
  0
VERTEX
  5
24D8
  8
SAPA_FOGBAND
 10
-56.418068725706668
 20
11.498975242774391
 30
0.0
 42
0.646356061736289
  0
VERTEX
  5
24D9
  8
SAPA_FOGBAND
 10
-57.166938780872357
 20
13.16169210575292
 30
0.0
  0
VERTEX
  5
24DA
  8
SAPA_FOGBAND
 10
-60.64591139233243
 20
13.16169210575292
 30
0.0
 42
0.4879283649264857
  0
VERTEX
  5
24DB
  8
SAPA_FOGBAND
 10
-61.61605389247778
 20
11.91915648071657
 30
0.0
  0
VERTEX
  5
24DC
  8
SAPA_FOGBAND
 10
-60.896604538392843
 20
9.0413590643768096
 30
0.0
 42
0.3441507314089108
  0
VERTEX
  5
24DD
  8
SAPA_FOGBAND
 10
-59.926462038247507
 20
8.2838946894131418
 30
0.0
  0
VERTEX
  5
24DE
  8
SAPA_FOGBAND
 10
-59.713662158164219
 20
8.2838946894131276
 30
0.0
 42
0.214804042991016
  0
VERTEX
  5
24DF
  8
SAPA_FOGBAND
 10
-58.964792102998508
 20
8.6211778264346144
 30
0.0
  0
SEQEND
  5
24E0
  8
SAPA_FOGBAND
  0
POLYLINE
  5
19D4
  8
SAPA_FOGBAND
 66
     1
 10
0.0
 20
0.0
 30
0.0
 70
     1
  0
VERTEX
  5
24E1
  8
SAPA_FOGBAND
 10
-51.500000000001847
 20
18.187839836612149
 30
0.0
 42
-0.4142135623730951
  0
VERTEX
  5
24E2
  8
SAPA_FOGBAND
 10
-51.000000000001862
 20
18.687839836612149
 30
0.0
  0
VERTEX
  5
24E3
  8
SAPA_FOGBAND
 10
-50.05857458311997
 20
18.687839836612149
 30
0.0
  0
VERTEX
  5
24E4
  8
SAPA_FOGBAND
 10
-49.991114673809513
 20
18.436076027591682
 30
0.0
 42
0.474057181023226
  0
VERTEX
  5
24E5
  8
SAPA_FOGBAND
 10
-49.708832088170922
 20
18.30878216522806
 30
0.0
  0
VERTEX
  5
24E6
  8
SAPA_FOGBAND
 10
-48.262625951411032
 20
18.928882667986699
 30
0.0
 42
0.2846003776496053
  0
VERTEX
  5
24E7
  8
SAPA_FOGBAND
 10
-47.985369502363049
 20
19.376526846446811
 30
0.0
  0
VERTEX
  5
24E8
  8
SAPA_FOGBAND
 10
-47.985369502363049
 20
20.999152826777419
 30
0.0
 42
0.2846003776496055
  0
VERTEX
  5
24E9
  8
SAPA_FOGBAND
 10
-48.262625951411017
 20
21.446797005237588
 30
0.0
  0
VERTEX
  5
24EA
  8
SAPA_FOGBAND
 10
-49.708832088170851
 20
22.066897507996181
 30
0.0
 42
0.474057181023226
  0
VERTEX
  5
24EB
  8
SAPA_FOGBAND
 10
-49.991114673809498
 20
21.93960364563263
 30
0.0
  0
VERTEX
  5
24EC
  8
SAPA_FOGBAND
 10
-50.05857458311997
 20
21.687839836612149
 30
0.0
  0
VERTEX
  5
24ED
  8
SAPA_FOGBAND
 10
-51.000000000001847
 20
21.687839836612149
 30
0.0
 42
-0.4142135623730951
  0
VERTEX
  5
24EE
  8
SAPA_FOGBAND
 10
-51.500000000001847
 20
22.187839836612149
 30
0.0
  0
VERTEX
  5
24EF
  8
SAPA_FOGBAND
 10
-51.500000000001791
 20
24.699999999993612
 30
0.0
 42
0.4052499559557504
  0
VERTEX
  5
24F0
  8
SAPA_FOGBAND
 10
-51.790791339129129
 20
24.999858634294739
 30
0.0
  0
VERTEX
  5
24F1
  8
SAPA_FOGBAND
 10
-62.69079133912917
 20
25.48769844896416
 30
0.0
 42
0.4232343445545565
  0
VERTEX
  5
24F2
  8
SAPA_FOGBAND
 10
-63.000000000001847
 20
25.187839814663029
 30
0.0
  0
VERTEX
  5
24F3
  8
SAPA_FOGBAND
 10
-63.000000000001862
 20
11.549392649420991
 30
0.0
 42
0.0613213552369726
  0
VERTEX
  5
24F4
  8
SAPA_FOGBAND
 10
-62.98507125007454
 20
11.428124836902819
 30
0.0
  0
VERTEX
  5
24F5
  8
SAPA_FOGBAND
 10
-62.414366093742721
 20
5.945304211575813
 30
0.0
 42
0.3441507314089092
  0
VERTEX
  5
24F6
  8
SAPA_FOGBAND
 10
-61.444223593597393
 20
5.1878398366121532
 30
0.0
  0
VERTEX
  5
24F7
  8
SAPA_FOGBAND
 10
-60.206139425069189
 20
5.1878398366121523
 30
0.0
 42
0.2148040429910146
  0
VERTEX
  5
24F8
  8
SAPA_FOGBAND
 10
-59.831704397486327
 20
5.3564814051228877
 30
0.0
  0
VERTEX
  5
24F9
  8
SAPA_FOGBAND
 10
-51.751129944836102
 20
14.48753053661753
 30
0.0
 42
0.1831167524995932
  0
VERTEX
  5
24FA
  8
SAPA_FOGBAND
 10
-51.500000000001847
 20
15.15024739959606
 30
0.0
  0
SEQEND
  5
24FB
  8
SAPA_FOGBAND
  0
POLYLINE
  5
19D5
  8
SAPA_FOGBAND
 66
     1
 10
0.0
 20
0.0
 30
0.0
 70
     1
  0
VERTEX
  5
24FC
  8
SAPA_FOGBAND
 10
93.003752012775507
 20
-67.497489716830302
 30
0.0
  0
VERTEX
  5
24FD
  8
SAPA_FOGBAND
 10
93.003752012775507
 20
-68.697489716830333
 30
0.0
 42
0.4142135623730951
  0
VERTEX
  5
24FE
  8
SAPA_FOGBAND
 10
93.303752012775476
 20
-68.997489716830302
 30
0.0
  0
VERTEX
  5
24FF
  8
SAPA_FOGBAND
 10
94.203752012775567
 20
-68.997489716830302
 30
0.0
  0
VERTEX
  5
2500
  8
SAPA_FOGBAND
 10
94.203752012775567
 20
-68.647489716830165
 30
0.0
 42
-0.6681786379192988
  0
VERTEX
  5
2501
  8
SAPA_FOGBAND
 10
94.71588404713134
 20
-68.435357682474233
 30
0.0
  0
VERTEX
  5
2502
  8
SAPA_FOGBAND
 10
95.569437437724673
 20
-69.288911073067453
 30
0.0
 42
-0.1989123673796552
  0
VERTEX
  5
2503
  8
SAPA_FOGBAND
 10
95.803752012775476
 20
-69.854596498016832
 30
0.0
  0
VERTEX
  5
2504
  8
SAPA_FOGBAND
 10
95.803752012775476
 20
-70.017291620436623
 30
0.0
 42
-0.3394542588633746
  0
VERTEX
  5
2505
  8
SAPA_FOGBAND
 10
95.581397726306236
 20
-70.307069368323397
 30
0.0
  0
VERTEX
  5
2506
  8
SAPA_FOGBAND
 10
94.226106299244748
 20
-70.670218611713295
 30
0.0
 42
0.3394542588633746
  0
VERTEX
  5
2507
  8
SAPA_FOGBAND
 10
94.003752012775536
 20
-70.959996359600069
 30
0.0
  0
VERTEX
  5
2508
  8
SAPA_FOGBAND
 10
94.003752012775536
 20
-73.534983074060534
 30
0.0
 42
0.3394542588633746
  0
VERTEX
  5
2509
  8
SAPA_FOGBAND
 10
94.226106299244748
 20
-73.824760821947308
 30
0.0
  0
VERTEX
  5
250A
  8
SAPA_FOGBAND
 10
95.581397726306236
 20
-74.187910065337206
 30
0.0
 42
-0.3394542588633744
  0
VERTEX
  5
250B
  8
SAPA_FOGBAND
 10
95.803752012775476
 20
-74.47768781322398
 30
0.0
  0
VERTEX
  5
250C
  8
SAPA_FOGBAND
 10
95.803752012775476
 20
-74.640382935643771
 30
0.0
 42
-0.1989123673796526
  0
VERTEX
  5
250D
  8
SAPA_FOGBAND
 10
95.569437437724673
 20
-75.206068360592923
 30
0.0
  0
VERTEX
  5
250E
  8
SAPA_FOGBAND
 10
94.71588404713134
 20
-76.059621751186256
 30
0.0
 42
-0.6681786379193474
  0
VERTEX
  5
250F
  8
SAPA_FOGBAND
 10
94.203752012775567
 20
-75.847489716830438
 30
0.0
  0
VERTEX
  5
2510
  8
SAPA_FOGBAND
 10
94.203752012775567
 20
-75.497489716830302
 30
0.0
  0
VERTEX
  5
2511
  8
SAPA_FOGBAND
 10
93.303752012775476
 20
-75.497489716830302
 30
0.0
 42
0.4142135623730951
  0
VERTEX
  5
2512
  8
SAPA_FOGBAND
 10
93.003752012775507
 20
-75.797489716830256
 30
0.0
  0
VERTEX
  5
2513
  8
SAPA_FOGBAND
 10
93.003752012775507
 20
-77.897489716830393
 30
0.0
 42
0.4142135623730951
  0
VERTEX
  5
2514
  8
SAPA_FOGBAND
 10
93.303752012775476
 20
-78.197489716830347
 30
0.0
  0
VERTEX
  5
2515
  8
SAPA_FOGBAND
 10
94.703752012775567
 20
-78.197489716830347
 30
0.0
 42
-0.7754026414786132
  0
VERTEX
  5
2516
  8
SAPA_FOGBAND
 10
94.848459881081453
 20
-78.760281712238026
 30
0.0
 42
0.1137347954614569
  0
VERTEX
  5
2517
  8
SAPA_FOGBAND
 10
87.371972122756688
 20
-82.910329870828619
 30
0.0
 42
-0.8680589103334746
  0
VERTEX
  5
2518
  8
SAPA_FOGBAND
 10
87.015132220094983
 20
-82.435405841065105
 30
0.0
  0
VERTEX
  5
2519
  8
SAPA_FOGBAND
 10
89.391337909426738
 20
-78.465370443913244
 30
0.0
 42
0.1989123673796536
  0
VERTEX
  5
251A
  8
SAPA_FOGBAND
 10
89.684231128240071
 20
-77.758263662726804
 30
0.0
  0
VERTEX
  5
251B
  8
SAPA_FOGBAND
 10
89.684231128240071
 20
-74.924944698307087
 30
0.0
 42
0.577350269189628
  0
VERTEX
  5
251C
  8
SAPA_FOGBAND
 10
89.234231128240253
 20
-74.665137077171636
 30
0.0
  0
VERTEX
  5
251D
  8
SAPA_FOGBAND
 10
87.381071656697927
 20
-76.803265773583377
 30
0.0
 42
-0.8769764629927301
  0
VERTEX
  5
251E
  8
SAPA_FOGBAND
 10
87.018939622341804
 20
-76.331326118092107
 30
0.0
  0
VERTEX
  5
251F
  8
SAPA_FOGBAND
 10
89.391337909426738
 20
-72.365098123187437
 30
0.0
 42
0.198912367379658
  0
VERTEX
  5
2520
  8
SAPA_FOGBAND
 10
89.684231128240071
 20
-71.657991342000884
 30
0.0
  0
VERTEX
  5
2521
  8
SAPA_FOGBAND
 10
89.684231128240071
 20
-69.425716979779196
 30
0.0
 42
0.5773502691896441
  0
VERTEX
  5
2522
  8
SAPA_FOGBAND
 10
89.234231128240253
 20
-69.165909358643972
 30
0.0
  0
VERTEX
  5
2523
  8
SAPA_FOGBAND
 10
87.381940409878325
 20
-71.303536480173221
 30
0.0
 42
-0.87697646299276
  0
VERTEX
  5
2524
  8
SAPA_FOGBAND
 10
87.019808375522175
 20
-70.831596824681952
 30
0.0
  0
VERTEX
  5
2525
  8
SAPA_FOGBAND
 10
89.467192556740429
 20
-66.790382935643734
 30
0.0
 42
-0.198912367379658
  0
VERTEX
  5
2526
  8
SAPA_FOGBAND
 10
90.174299337926868
 20
-66.497489716830302
 30
0.0
  0
VERTEX
  5
2527
  8
SAPA_FOGBAND
 10
92.003752012775522
 20
-66.497489716830302
 30
0.0
  0
VERTEX
  5
2528
  8
SAPA_FOGBAND
 10
91.993820222462304
 20
-66.497489716830302
 30
0.0
  0
SEQEND
  5
2529
  8
SAPA_FOGBAND
  0
POLYLINE
  5
19D6
  8
SAPA_FOGBAND
 66
     1
 10
0.0
 20
0.0
 30
0.0
 70
     1
  0
VERTEX
  5
252A
  8
SAPA_FOGBAND
 10
59.922613012761303
 20
-66.43717213593915
 30
0.0
 42
0.4142135623730951
  0
VERTEX
  5
252B
  8
SAPA_FOGBAND
 10
58.922613012761303
 20
-67.43717213593915
 30
0.0
  0
VERTEX
  5
252C
  8
SAPA_FOGBAND
 10
58.922613012761303
 20
-68.637172135939196
 30
0.0
 42
-0.4142135623730951
  0
VERTEX
  5
252D
  8
SAPA_FOGBAND
 10
58.622613012761342
 20
-68.93717213593915
 30
0.0
  0
VERTEX
  5
252E
  8
SAPA_FOGBAND
 10
57.722613012761258
 20
-68.93717213593915
 30
0.0
  0
VERTEX
  5
252F
  8
SAPA_FOGBAND
 10
57.722613012761258
 20
-68.587172135939014
 30
0.0
 42
0.6681786379193472
  0
VERTEX
  5
2530
  8
SAPA_FOGBAND
 10
57.210480978405258
 20
-68.375040101583195
 30
0.0
  0
VERTEX
  5
2531
  8
SAPA_FOGBAND
 10
56.356927587811931
 20
-69.228593492176415
 30
0.0
 42
0.1989123673796526
  0
VERTEX
  5
2532
  8
SAPA_FOGBAND
 10
56.122613012761342
 20
-69.794278917125681
 30
0.0
  0
VERTEX
  5
2533
  8
SAPA_FOGBAND
 10
56.122613012761342
 20
-69.956974039545472
 30
0.0
 42
0.3394542588633746
  0
VERTEX
  5
2534
  8
SAPA_FOGBAND
 10
56.344967299230568
 20
-70.246751787432245
 30
0.0
  0
VERTEX
  5
2535
  8
SAPA_FOGBAND
 10
57.700258726292077
 20
-70.609901030822144
 30
0.0
 42
-0.3394542588633744
  0
VERTEX
  5
2536
  8
SAPA_FOGBAND
 10
57.92261301276131
 20
-70.899678778708918
 30
0.0
  0
VERTEX
  5
2537
  8
SAPA_FOGBAND
 10
57.922613012761303
 20
-73.474665493169383
 30
0.0
 42
-0.3394542588633746
  0
VERTEX
  5
2538
  8
SAPA_FOGBAND
 10
57.70025872629207
 20
-73.764443241056156
 30
0.0
  0
VERTEX
  5
2539
  8
SAPA_FOGBAND
 10
56.344967299230568
 20
-74.127592484446055
 30
0.0
 42
0.3394542588633747
  0
VERTEX
  5
253A
  8
SAPA_FOGBAND
 10
56.122613012761342
 20
-74.417370232332829
 30
0.0
  0
VERTEX
  5
253B
  8
SAPA_FOGBAND
 10
56.122613012761342
 20
-74.58006535475262
 30
0.0
 42
0.1989123673796526
  0
VERTEX
  5
253C
  8
SAPA_FOGBAND
 10
56.356927587811917
 20
-75.145750779701984
 30
0.0
  0
VERTEX
  5
253D
  8
SAPA_FOGBAND
 10
57.210480978405251
 20
-75.999304170295105
 30
0.0
 42
0.6681786379193474
  0
VERTEX
  5
253E
  8
SAPA_FOGBAND
 10
57.722613012761251
 20
-75.787172135939286
 30
0.0
  0
VERTEX
  5
253F
  8
SAPA_FOGBAND
 10
57.722613012761251
 20
-75.43717213593915
 30
0.0
  0
VERTEX
  5
2540
  8
SAPA_FOGBAND
 10
58.622613012761342
 20
-75.43717213593915
 30
0.0
 42
-0.4142135623730951
  0
VERTEX
  5
2541
  8
SAPA_FOGBAND
 10
58.922613012761289
 20
-75.737172135939105
 30
0.0
  0
VERTEX
  5
2542
  8
SAPA_FOGBAND
 10
58.922613012761289
 20
-77.837172135939241
 30
0.0
 42
-0.4142135623730951
  0
VERTEX
  5
2543
  8
SAPA_FOGBAND
 10
58.622613012761342
 20
-78.137172135939196
 30
0.0
  0
VERTEX
  5
2544
  8
SAPA_FOGBAND
 10
57.222613012761251
 20
-78.137172135939196
 30
0.0
 42
0.7754026414785753
  0
VERTEX
  5
2545
  8
SAPA_FOGBAND
 10
57.077905144455357
 20
-78.699964131346874
 30
0.0
  0
VERTEX
  5
2546
  8
SAPA_FOGBAND
 10
62.461010917041207
 20
-82.219666641892218
 30
0.0
 42
0.8680589103334742
  0
VERTEX
  5
2547
  8
SAPA_FOGBAND
 10
62.817850819702919
 20
-81.744742612128704
 30
0.0
  0
VERTEX
  5
2548
  8
SAPA_FOGBAND
 10
60.715506231574629
 20
-78.405052863022334
 30
0.0
 42
-0.198912367379658
  0
VERTEX
  5
2549
  8
SAPA_FOGBAND
 10
60.422613012761303
 20
-77.697946081835667
 30
0.0
  0
VERTEX
  5
254A
  8
SAPA_FOGBAND
 10
60.422613012761303
 20
-74.864627117415935
 30
0.0
 42
-0.5773502691896282
  0
VERTEX
  5
254B
  8
SAPA_FOGBAND
 10
60.872613012761342
 20
-74.604819496280712
 30
0.0
  0
VERTEX
  5
254C
  8
SAPA_FOGBAND
 10
62.451911383099961
 20
-76.112602544646975
 30
0.0
 42
0.8769764629927299
  0
VERTEX
  5
254D
  8
SAPA_FOGBAND
 10
62.814043417456091
 20
-75.640662889155706
 30
0.0
  0
VERTEX
  5
254E
  8
SAPA_FOGBAND
 10
60.715506231574629
 20
-72.304780542296399
 30
0.0
 42
-0.198912367379658
  0
VERTEX
  5
254F
  8
SAPA_FOGBAND
 10
60.42261301276131
 20
-71.597673761109732
 30
0.0
  0
VERTEX
  5
2550
  8
SAPA_FOGBAND
 10
60.42261301276131
 20
-69.365399398888158
 30
0.0
 42
-0.5773502691896282
  0
VERTEX
  5
2551
  8
SAPA_FOGBAND
 10
60.872613012761349
 20
-69.105591777752821
 30
0.0
  0
VERTEX
  5
2552
  8
SAPA_FOGBAND
 10
62.451042629919577
 20
-70.612873251236593
 30
0.0
 42
0.8769764629927299
  0
VERTEX
  5
2553
  8
SAPA_FOGBAND
 10
62.813174664275721
 20
-70.140933595745324
 30
0.0
  0
VERTEX
  5
2554
  8
SAPA_FOGBAND
 10
60.639651584260939
 20
-66.730065354752711
 30
0.0
 42
0.198912367379658
  0
VERTEX
  5
2555
  8
SAPA_FOGBAND
 10
59.932544803074506
 20
-66.43717213593915
 30
0.0
  0
SEQEND
  5
2556
  8
SAPA_FOGBAND
  0
INSERT
  5
19D7
  8
SAPA_FOGBAND
  2
BYGG-023125$0$BORST_9
 10
44.499999999996248
 20
21.458902515700061
 30
0.0
 50
270.0
  0
DIMENSION
  5
19DF
  8
SAPA_MATT
  2
*D107
 10
104.4999999999964
 20
45.015680300981693
 30
0.0
 11
79.49999999999639
 21
47.515680300981693
 31
0.0
 70
     0
 13
54.499999999996362
 23
-0.2999996264621885
 33
0.0
 14
104.4999999999964
 24
-0.2999996264621885
 34
0.0
1001
ACAD
1000
DSTYLE
1002
{
1070
   287
1070
     4
1070
    40
1040
1.0
1070
   279
1070
     1
1002
}
  0
DIMENSION
  5
19E0
  8
SAPA_MATT
  2
*D106
 10
54.499999999996362
 20
45.000000373538271
 30
0.0
 11
49.499999999996398
 21
47.500000373538271
 31
0.0
 70
     0
 13
44.499999999996433
 23
24.500000373538111
 33
0.0
 14
54.499999999996362
 24
-0.2999996264621885
 34
0.0
1001
ACAD
1000
DSTYLE
1002
{
1070
    40
1040
1.0
1002
}
  0
DIMENSION
  5
19E1
  8
SAPA_MATT
  2
*D105
 10
-35.499999999999893
 20
45.000000373538278
 30
0.0
 11
4.499999999998237
 21
47.500000373538278
 31
0.0
 70
     0
 13
44.499999999996362
 23
24.500000373538121
 33
0.0
 14
-35.499999999999893
 24
24.274999999997021
 34
0.0
1001
ACAD
1000
DSTYLE
1002
{
1070
    40
1040
1.0
1002
}
  0
VIEWPORT
  5
C4
 67
     1
  8
0
 10
160.5543545598442
 20
116.00969601843509
 30
0.0
 40
404.96977709277462
 41
256.8421457311839
 68
     1
 69
     1
1001
ACAD
1000
MVIEW
1002
{
1070
    16
1010
0.0
1020
0.0
1030
0.0
1010
0.0
1020
0.0
1030
1.0
1040
0.0
1040
256.8421457311839
1040
99.206250190734863
1040
130.70624923706049
1040
50.0
1040
0.0
1040
0.0
1070
     0
1070
     0
1070
     1
1070
     1
1070
     0
1070
     0
1070
     0
1070
     0
1040
0.0
1040
0.0
1040
0.0
1040
10.0
1040
10.0
1040
10.0
1040
10.0
1070
     0
1002
{
1002
}
1002
}
  0
ENDSEC
  0
EOF
