  0
SECTION
  2
HEADER
  9
$ACADVER
  1
AC1009
  9
$INSBASE
 10
0.0
 20
0.0
 30
0.0
  9
$EXTMIN
 10
-95.240738706925796
 20
-93.291214305875314
 30
0.0
  9
$EXTMAX
 10
122.4493904826834
 20
60.957152116740907
 30
0.0
  9
$LIMMIN
 10
0.0
 20
0.0
  9
$LIMMAX
 10
790.0
 20
790.0
  9
$ORTHOMODE
 70
     1
  9
$REGENMODE
 70
     1
  9
$FILLMODE
 70
     1
  9
$QTEXTMODE
 70
     0
  9
$MIRRTEXT
 70
     1
  9
$DRAGMODE
 70
     2
  9
$LTSCALE
 40
4.0
  9
$OSMODE
 70
   167
  9
$ATTMODE
 70
     1
  9
$TEXTSIZE
 40
3.5
  9
$TRACEWID
 40
0.05
  9
$TEXTSTYLE
  7
ISO
  9
$CLAYER
  8
0
  9
$CELTYPE
  6
BYLAYER
  9
$CECOLOR
 62
   256
  9
$DIMSCALE
 40
0.0
  9
$DIMASZ
 40
3.0
  9
$DIMEXO
 40
1.5
  9
$DIMDLI
 40
10.0
  9
$DIMRND
 40
0.0
  9
$DIMDLE
 40
0.0
  9
$DIMEXE
 40
1.5
  9
$DIMTP
 40
0.0
  9
$DIMTM
 40
0.0
  9
$DIMTXT
 40
3.0
  9
$DIMCEN
 40
-5.0
  9
$DIMTSZ
 40
0.0
  9
$DIMTOL
 70
     0
  9
$DIMLIM
 70
     0
  9
$DIMTIH
 70
     0
  9
$DIMTOH
 70
     0
  9
$DIMSE1
 70
     0
  9
$DIMSE2
 70
     0
  9
$DIMTAD
 70
     1
  9
$DIMZIN
 70
     8
  9
$DIMBLK
  1

  9
$DIMASO
 70
     1
  9
$DIMSHO
 70
     1
  9
$DIMPOST
  1

  9
$DIMAPOST
  1

  9
$DIMALT
 70
     0
  9
$DIMALTD
 70
     0
  9
$DIMALTF
 40
25.399999999999999
  9
$DIMLFAC
 40
-1.0
  9
$DIMTOFL
 70
     1
  9
$DIMTVP
 40
0.0
  9
$DIMTIX
 70
     0
  9
$DIMSOXD
 70
     0
  9
$DIMSAH
 70
     0
  9
$DIMBLK1
  1

  9
$DIMBLK2
  1

  9
$DIMSTYLE
  2
MASKIN
  9
$DIMCLRD
 70
   256
  9
$DIMCLRE
 70
   256
  9
$DIMCLRT
 70
     2
  9
$DIMTFAC
 40
1.0
  9
$DIMGAP
 40
1.0
  9
$LUNITS
 70
     2
  9
$LUPREC
 70
     8
  9
$SKETCHINC
 40
0.1
  9
$FILLETRAD
 40
0.0
  9
$AUNITS
 70
     0
  9
$AUPREC
 70
     8
  9
$MENU
  1
ACAD
  9
$ELEVATION
 40
0.0
  9
$PELEVATION
 40
0.0
  9
$THICKNESS
 40
0.0
  9
$LIMCHECK
 70
     0
  9
$BLIPMODE
 70
     0
  9
$CHAMFERA
 40
0.0
  9
$CHAMFERB
 40
0.0
  9
$SKPOLY
 70
     0
  9
$TDCREATE
 40
2456297.4351949892
  9
$TDUPDATE
 40
2456647.493342327
  9
$TDINDWG
 40
0.0254256944
  9
$TDUSRTIMER
 40
0.0254256944
  9
$USRTIMER
 70
     1
  9
$ANGBASE
 50
0.0
  9
$ANGDIR
 70
     0
  9
$PDMODE
 70
     0
  9
$PDSIZE
 40
0.0
  9
$PLINEWID
 40
0.0
  9
$COORDS
 70
     1
  9
$SPLFRAME
 70
     0
  9
$SPLINETYPE
 70
     6
  9
$SPLINESEGS
 70
     8
  9
$ATTDIA
 70
     0
  9
$ATTREQ
 70
     1
  9
$HANDLING
 70
     1
  9
$HANDSEED
  5
27E0
  9
$SURFTAB1
 70
     6
  9
$SURFTAB2
 70
     6
  9
$SURFTYPE
 70
     6
  9
$SURFU
 70
     6
  9
$SURFV
 70
     6
  9
$UCSNAME
  2

  9
$UCSORG
 10
0.0
 20
0.0
 30
0.0
  9
$UCSXDIR
 10
1.0
 20
0.0
 30
0.0
  9
$UCSYDIR
 10
0.0
 20
1.0
 30
0.0
  9
$PUCSNAME
  2

  9
$PUCSORG
 10
0.0
 20
0.0
 30
0.0
  9
$PUCSXDIR
 10
1.0
 20
0.0
 30
0.0
  9
$PUCSYDIR
 10
0.0
 20
1.0
 30
0.0
  9
$USERI1
 70
     0
  9
$USERI2
 70
     0
  9
$USERI3
 70
     0
  9
$USERI4
 70
     0
  9
$USERI5
 70
     0
  9
$USERR1
 40
0.0
  9
$USERR2
 40
0.0
  9
$USERR3
 40
0.0
  9
$USERR4
 40
0.0
  9
$USERR5
 40
0.0
  9
$WORLDVIEW
 70
     1
  9
$SHADEDGE
 70
     3
  9
$SHADEDIF
 70
    70
  9
$TILEMODE
 70
     1
  9
$MAXACTVP
 70
    16
  9
$PLIMCHECK
 70
     0
  9
$PEXTMIN
 10
1.0000000000000000E+020
 20
1.0000000000000000E+020
 30
1.0000000000000000E+020
  9
$PEXTMAX
 10
-1.0000000000000000E+020
 20
-1.0000000000000000E+020
 30
-1.0000000000000000E+020
  9
$PLIMMIN
 10
-5.069427490234375
 20
-5.8737497329711914
  9
$PLIMMAX
 10
291.89889526367187
 20
204.0995779037475
  9
$UNITMODE
 70
     0
  9
$VISRETAIN
 70
     1
  9
$PLINEGEN
 70
     0
  9
$PSLTSCALE
 70
     1
  0
ENDSEC
  0
SECTION
  2
TABLES
  0
TABLE
  2
VPORT
 70
     1
  0
VPORT
  2
*ACTIVE
 70
     0
 10
0.0
 20
0.0
 11
1.0
 21
1.0
 12
13.60432327599025
 22
17.67079001346341
 13
0.0
 23
0.0
 14
1.0
 24
1.0
 15
0.0
 25
0.0
 16
0.0
 26
0.0
 36
1.0
 17
0.0
 27
0.0
 37
0.0
 40
164.54990122763809
 41
2.112307692307692
 42
50.0
 43
0.0
 44
0.0
 50
0.0
 51
0.0
 71
     0
 72
   100
 73
     1
 74
     1
 75
     0
 76
     0
 77
     0
 78
     0
  0
ENDTAB
  0
TABLE
  2
LTYPE
 70
    59
  0
LTYPE
  2
CONTINUOUS
 70
     0
  3
Solid line
 72
    65
 73
     0
 40
0.0
  0
LTYPE
  2
DASHDOT
 70
     0
  3
__ . __ . __ . __ . __ . __ . __ . __ . __ . __
 72
    65
 73
     4
 40
1.0
 49
0.5
 49
-0.25
 49
0.0
 49
-0.25
  0
LTYPE
  2
BYGG-018516$0$NEWDOT
 70
     0
  3
____ . ____ . ____ . ____ . ____ . ____ . ____
 72
    65
 73
     4
 40
2.0
 49
1.0
 49
-0.5
 49
0.0
 49
-0.5
  0
LTYPE
  2
BYGG-018516$0$ZIGZAG
 70
     0
  3
Zig zag /\/\/\/\/\/\/\/\/\/\/\/\/\/\/\/\/\/\/\/\/\/\/\/
 72
    65
 73
     4
 40
20.32254
 49
0.00254
 49
-5.0800000000000001
 49
-10.16
 49
-5.0800000000000001
  0
LTYPE
  2
BYGG-014495$0$DASHDOT
 70
     0
  3
__ . __ . __ . __ . __ . __ . __ . __ . __ . __
 72
    65
 73
     4
 40
1.0
 49
0.5
 49
-0.25
 49
0.0
 49
-0.25
  0
LTYPE
  2
BYGG-018731$0$NEWDOT
 70
     0
  3
____ . ____ . ____ . ____ . ____ . ____ . ____
 72
    65
 73
     4
 40
2.0
 49
1.0
 49
-0.5
 49
0.0
 49
-0.5
  0
LTYPE
  2
BYGG-018731$0$DASHDOT
 70
     0
  3
__ . __ . __ . __ . __ . __ . __ . __ . __ . __
 72
    65
 73
     4
 40
1.0
 49
0.5
 49
-0.25
 49
0.0
 49
-0.25
  0
LTYPE
  2
BYGG-018731$0$DASHED
 70
     0
  3
__ __ __ __ __ __ __ __ __ __ __ __ __ __ __
 72
    65
 73
     2
 40
0.75
 49
0.5
 49
-0.25
  0
LTYPE
  2
BYGG-018731$0$PHANTOM
 70
     0
  3
Phantom ______  __  __  ______  __  __  ______
 72
    65
 73
     6
 40
63.5
 49
31.75
 49
-6.3499999999999988
 49
6.3499999999999988
 49
-6.3499999999999988
 49
6.3499999999999988
 49
-6.3499999999999988
  0
LTYPE
  2
BYGG-029261$0$NEWDOT
 70
     0
  3
____ . ____ . ____ . ____ . ____ . ____ . ____
 72
    65
 73
     4
 40
2.0
 49
1.0
 49
-0.5
 49
0.0
 49
-0.5
  0
LTYPE
  2
BYGG-029261$0$DASHDOT
 70
     0
  3
__ . __ . __ . __ . __ . __ . __ . __ . __ . __
 72
    65
 73
     4
 40
1.0
 49
0.5
 49
-0.25
 49
0.0
 49
-0.25
  0
LTYPE
  2
BYGG-029261$0$DASHED
 70
     0
  3
__ __ __ __ __ __ __ __ __ __ __ __ __ __ __
 72
    65
 73
     2
 40
0.75
 49
0.5
 49
-0.25
  0
LTYPE
  2
BYGG-029261$0$PHANTOM
 70
     0
  3
Phantom ______  __  __  ______  __  __  ______
 72
    65
 73
     6
 40
63.5
 49
31.75
 49
-6.3499999999999988
 49
6.3499999999999988
 49
-6.3499999999999988
 49
6.3499999999999988
 49
-6.3499999999999988
  0
LTYPE
  2
BYGG-019653$0$NEWDOT
 70
     0
  3
____ . ____ . ____ . ____ . ____ . ____ . ____
 72
    65
 73
     4
 40
2.0
 49
1.0
 49
-0.5
 49
0.0
 49
-0.5
  0
LTYPE
  2
BYGG-019653$0$DASHDOT
 70
     0
  3
__ . __ . __ . __ . __ . __ . __ . __ . __ . __
 72
    65
 73
     4
 40
1.0
 49
0.5
 49
-0.25
 49
0.0
 49
-0.25
  0
LTYPE
  2
BYGG-019653$0$DASHED
 70
     0
  3
__ __ __ __ __ __ __ __ __ __ __ __ __ __ __
 72
    65
 73
     2
 40
0.75
 49
0.5
 49
-0.25
  0
LTYPE
  2
BYGG-019653$0$PHANTOM
 70
     0
  3
Phantom ______  __  __  ______  __  __  ______
 72
    65
 73
     6
 40
63.5
 49
31.75
 49
-6.3499999999999988
 49
6.3499999999999988
 49
-6.3499999999999988
 49
6.3499999999999988
 49
-6.3499999999999988
  0
LTYPE
  2
BYGG-024894$0$DASHDOT
 70
     0
  3
__ . __ . __ . __ . __ . __ . __ . __ . __ . __
 72
    65
 73
     4
 40
1.0
 49
0.5
 49
-0.25
 49
0.0
 49
-0.25
  0
LTYPE
  2
BYGG-019612$0$NEWDOT
 70
     0
  3
____ . ____ . ____ . ____ . ____ . ____ . ____
 72
    65
 73
     4
 40
2.0
 49
1.0
 49
-0.5
 49
0.0
 49
-0.5
  0
LTYPE
  2
BYGG-019612$0$DASHDOT
 70
     0
  3
__ . __ . __ . __ . __ . __ . __ . __ . __ . __
 72
    65
 73
     4
 40
1.0
 49
0.5
 49
-0.25
 49
0.0
 49
-0.25
  0
LTYPE
  2
BYGG-019612$0$DASHED
 70
     0
  3
__ __ __ __ __ __ __ __ __ __ __ __ __ __ __
 72
    65
 73
     2
 40
0.75
 49
0.5
 49
-0.25
  0
LTYPE
  2
BYGG-019612$0$PHANTOM
 70
     0
  3
Phantom ______  __  __  ______  __  __  ______
 72
    65
 73
     6
 40
63.5
 49
31.75
 49
-6.3499999999999988
 49
6.3499999999999988
 49
-6.3499999999999988
 49
6.3499999999999988
 49
-6.3499999999999988
  0
LTYPE
  2
BYGG-019612$0$ZIGZAG
 70
     0
  3
Zig zag /\/\/\/\/\/\/\/\/\/\/\/\/\/\/\/\/\/\/\/\/\/\/\/
 72
    65
 73
     4
 40
20.32254
 49
0.00254
 49
-5.0800000000000001
 49
-10.16
 49
-5.0800000000000001
  0
LTYPE
  2
BYGG-022089$0$NEWDOT
 70
     0
  3
____ . ____ . ____ . ____ . ____ . ____ . ____
 72
    65
 73
     4
 40
2.0
 49
1.0
 49
-0.5
 49
0.0
 49
-0.5
  0
LTYPE
  2
BYGG-022089$0$DASHDOT
 70
     0
  3
__ . __ . __ . __ . __ . __ . __ . __ . __ . __
 72
    65
 73
     4
 40
1.0
 49
0.5
 49
-0.25
 49
0.0
 49
-0.25
  0
LTYPE
  2
BYGG-022089$0$DASHED
 70
     0
  3
__ __ __ __ __ __ __ __ __ __ __ __ __ __ __
 72
    65
 73
     2
 40
0.75
 49
0.5
 49
-0.25
  0
LTYPE
  2
BYGG-022089$0$PHANTOM
 70
     0
  3
Phantom ______  __  __  ______  __  __  ______
 72
    65
 73
     6
 40
63.5
 49
31.75
 49
-6.3499999999999988
 49
6.3499999999999988
 49
-6.3499999999999988
 49
6.3499999999999988
 49
-6.3499999999999988
  0
LTYPE
  2
BYGG-019718$0$NEWDOT
 70
     0
  3
____ . ____ . ____ . ____ . ____ . ____ . ____
 72
    65
 73
     4
 40
2.0
 49
1.0
 49
-0.5
 49
0.0
 49
-0.5
  0
LTYPE
  2
BYGG-019718$0$DASHDOT
 70
     0
  3
__ . __ . __ . __ . __ . __ . __ . __ . __ . __
 72
    65
 73
     4
 40
1.0
 49
0.5
 49
-0.25
 49
0.0
 49
-0.25
  0
LTYPE
  2
BYGG-019718$0$DASHED
 70
     0
  3
__ __ __ __ __ __ __ __ __ __ __ __ __ __ __
 72
    65
 73
     2
 40
0.75
 49
0.5
 49
-0.25
  0
LTYPE
  2
BYGG-019718$0$PHANTOM
 70
     0
  3
Phantom ______  __  __  ______  __  __  ______
 72
    65
 73
     6
 40
63.5
 49
31.75
 49
-6.3499999999999988
 49
6.3499999999999988
 49
-6.3499999999999988
 49
6.3499999999999988
 49
-6.3499999999999988
  0
LTYPE
  2
BYGG-014269$0$NEWDOT
 70
     0
  3
____ . ____ . ____ . ____ . ____ . ____ . ____
 72
    65
 73
     4
 40
2.0
 49
1.0
 49
-0.5
 49
0.0
 49
-0.5
  0
LTYPE
  2
BYGG-014269$0$ZIGZAG
 70
     0
  3
Zig zag /\/\/\/\/\/\/\/\/\/\/\/\/\/\/\/\/\/\/\/\/\/\/\/
 72
    65
 73
     4
 40
20.32254
 49
0.00254
 49
-5.0800000000000001
 49
-10.16
 49
-5.0800000000000001
  0
LTYPE
  2
BYGG-020945$0$NEWDOT
 70
     0
  3
____ . ____ . ____ . ____ . ____ . ____ . ____
 72
    65
 73
     4
 40
2.0
 49
1.0
 49
-0.5
 49
0.0
 49
-0.5
  0
LTYPE
  2
BYGG-020945$0$DASHDOT
 70
     0
  3
__ . __ . __ . __ . __ . __ . __ . __ . __ . __
 72
    65
 73
     4
 40
1.0
 49
0.5
 49
-0.25
 49
0.0
 49
-0.25
  0
LTYPE
  2
BYGG-020945$0$DASHED
 70
     0
  3
__ __ __ __ __ __ __ __ __ __ __ __ __ __ __
 72
    65
 73
     2
 40
0.75
 49
0.5
 49
-0.25
  0
LTYPE
  2
BYGG-020945$0$PHANTOM
 70
     0
  3
Phantom ______  __  __  ______  __  __  ______
 72
    65
 73
     6
 40
63.5
 49
31.75
 49
-6.3499999999999988
 49
6.3499999999999988
 49
-6.3499999999999988
 49
6.3499999999999988
 49
-6.3499999999999988
  0
LTYPE
  2
BYGG-014113$0$NEWDOT
 70
     0
  3
____ . ____ . ____ . ____ . ____ . ____ . ____
 72
    65
 73
     4
 40
2.0
 49
1.0
 49
-0.5
 49
0.0
 49
-0.5
  0
LTYPE
  2
BYGG-014113$0$DASHDOT
 70
     0
  3
__ . __ . __ . __ . __ . __ . __ . __ . __ . __
 72
    65
 73
     4
 40
1.0
 49
0.5
 49
-0.25
 49
0.0
 49
-0.25
  0
LTYPE
  2
BYGG-014113$0$DASHED
 70
     0
  3
__ __ __ __ __ __ __ __ __ __ __ __ __ __ __
 72
    65
 73
     2
 40
0.75
 49
0.5
 49
-0.25
  0
LTYPE
  2
BYGG-028959$0$NEWDOT
 70
     0
  3
____ . ____ . ____ . ____ . ____ . ____ . ____
 72
    65
 73
     4
 40
2.0
 49
1.0
 49
-0.5
 49
0.0
 49
-0.5
  0
LTYPE
  2
BYGG-028959$0$DASHDOT
 70
     0
  3
__ . __ . __ . __ . __ . __ . __ . __ . __ . __
 72
    65
 73
     4
 40
1.0
 49
0.5
 49
-0.25
 49
0.0
 49
-0.25
  0
LTYPE
  2
BYGG-028959$0$DASHED
 70
     0
  3
__ __ __ __ __ __ __ __ __ __ __ __ __ __ __
 72
    65
 73
     2
 40
0.75
 49
0.5
 49
-0.25
  0
LTYPE
  2
BYGG-028959$0$PHANTOM
 70
     0
  3
Phantom ______  __  __  ______  __  __  ______
 72
    65
 73
     6
 40
63.5
 49
31.75
 49
-6.3499999999999988
 49
6.3499999999999988
 49
-6.3499999999999988
 49
6.3499999999999988
 49
-6.3499999999999988
  0
LTYPE
  2
BYGG-025538$0$NEWDOT
 70
     0
  3
____ . ____ . ____ . ____ . ____ . ____ . ____
 72
    65
 73
     4
 40
2.0
 49
1.0
 49
-0.5
 49
0.0
 49
-0.5
  0
LTYPE
  2
BYGG-025538$0$DASHDOT
 70
     0
  3
__ . __ . __ . __ . __ . __ . __ . __ . __ . __
 72
    65
 73
     4
 40
1.0
 49
0.5
 49
-0.25
 49
0.0
 49
-0.25
  0
LTYPE
  2
BYGG-025538$0$DASHED
 70
     0
  3
__ __ __ __ __ __ __ __ __ __ __ __ __ __ __
 72
    65
 73
     2
 40
0.75
 49
0.5
 49
-0.25
  0
LTYPE
  2
BYGG-025538$0$PHANTOM
 70
     0
  3
Phantom ______  __  __  ______  __  __  ______
 72
    65
 73
     6
 40
63.5
 49
31.75
 49
-6.3499999999999988
 49
6.3499999999999988
 49
-6.3499999999999988
 49
6.3499999999999988
 49
-6.3499999999999988
  0
LTYPE
  2
BYGG-022120$0$NEWDOT
 70
     0
  3
____ . ____ . ____ . ____ . ____ . ____ . ____
 72
    65
 73
     4
 40
2.0
 49
1.0
 49
-0.5
 49
0.0
 49
-0.5
  0
LTYPE
  2
BYGG-022120$0$DASHDOT
 70
     0
  3
__ . __ . __ . __ . __ . __ . __ . __ . __ . __
 72
    65
 73
     4
 40
1.0
 49
0.5
 49
-0.25
 49
0.0
 49
-0.25
  0
LTYPE
  2
BYGG-022120$0$DASHED
 70
     0
  3
__ __ __ __ __ __ __ __ __ __ __ __ __ __ __
 72
    65
 73
     2
 40
0.75
 49
0.5
 49
-0.25
  0
LTYPE
  2
BYGG-022120$0$PHANTOM
 70
     0
  3
Phantom ______  __  __  ______  __  __  ______
 72
    65
 73
     6
 40
63.5
 49
31.75
 49
-6.3499999999999988
 49
6.3499999999999988
 49
-6.3499999999999988
 49
6.3499999999999988
 49
-6.3499999999999988
  0
LTYPE
  2
BYGG-01457801$0$NEWDOT
 70
     0
  3
____ . ____ . ____ . ____ . ____ . ____ . ____
 72
    65
 73
     4
 40
2.0
 49
1.0
 49
-0.5
 49
0.0
 49
-0.5
  0
LTYPE
  2
BYGG-01457801$0$ZIGZAG
 70
     0
  3
Zig zag /\/\/\/\/\/\/\/\/\/\/\/\/\/\/\/\/\/\/\/\/\/\/\/
 72
    65
 73
     4
 40
20.32254
 49
0.00254
 49
-5.0800000000000001
 49
-10.16
 49
-5.0800000000000001
  0
LTYPE
  2
BYGG-014198$0$ZIGZAG
 70
     0
  3
Zig zag /\/\/\/\/\/\/\/\/\/\/\/\/\/\/\/\/\/\/\/\/\/\/\/
 72
    65
 73
     4
 40
20.32254
 49
0.00254
 49
-5.0800000000000001
 49
-10.16
 49
-5.0800000000000001
  0
LTYPE
  2
BYGG-014198$0$NEWDOT
 70
     0
  3
____ . ____ . ____ . ____ . ____ . ____ . ____
 72
    65
 73
     4
 40
2.0
 49
1.0
 49
-0.5
 49
0.0
 49
-0.5
  0
LTYPE
  2
BYGG-019653$0$DOT_CENTER
 70
     0
  3
Dot_Center
 72
    65
 73
     4
 40
14.0
 49
12.0
 49
-1.0
 49
0.0
 49
-1.0
  0
LTYPE
  2
BYGG-019653$0$DASH_CENTER
 70
     0
  3
Dash_Center
 72
    65
 73
     4
 40
14.0
 49
11.0
 49
-1.0
 49
1.0
 49
-1.0
  0
LTYPE
  2
BYGG-022089$0$PHANTOM2
 70
     0
  3
Phantom (.5x) ___ _ _ ___ _ _ ___ _ _ ___ _ _
 72
    65
 73
     6
 40
1.25
 49
0.625
 49
-0.125
 49
0.125
 49
-0.125
 49
0.125
 49
-0.125
  0
ENDTAB
  0
TABLE
  2
LAYER
 70
   336
  0
LAYER
  2
0
 70
     0
 62
     7
  6
CONTINUOUS
  0
LAYER
  2
DEFPOINTS
 70
     0
 62
     7
  6
CONTINUOUS
  0
LAYER
  2
SAPA_ANSLUTNING
 70
     0
 62
     6
  6
CONTINUOUS
  0
LAYER
  2
SAPA_ARTIKELNR
 70
     0
 62
     4
  6
CONTINUOUS
  0
LAYER
  2
BYGG-023125$0$LIST
 70
     0
 62
     2
  6
CONTINUOUS
  0
LAYER
  2
SAPA_GLAS
 70
     0
 62
     4
  6
CONTINUOUS
  0
LAYER
  2
SAPA_ISOLATOR
 70
     0
 62
     4
  6
CONTINUOUS
  0
LAYER
  2
SAPA_MATT
 70
     0
 62
     1
  6
CONTINUOUS
  0
LAYER
  2
SAPA_FOGBAND
 70
     0
 62
     2
  6
CONTINUOUS
  0
LAYER
  2
SAPA_PROFIL
 70
     0
 62
     7
  6
CONTINUOUS
  0
ENDTAB
  0
TABLE
  2
STYLE
 70
    49
  0
STYLE
  2
STANDARD
 70
     0
 40
0.0
 41
1.0
 50
0.0
 71
     0
 42
0.2
  3
txt
  4

  0
STYLE
  2
ISO
 70
     0
 40
0.0
 41
1.0
 50
0.0
 71
     0
 42
3.5
  3
txt
  4

  0
STYLE
  2

 70
     1
 40
0.0
 41
1.0
 50
0.0
 71
     0
 42
0.2
  3
ltypeshp.shx
  4

  0
STYLE
  2
BYGG-021665$0$STANDARD
 70
     0
 40
0.0
 41
1.0
 50
0.0
 71
     0
 42
0.2
  3
txt
  4

  0
STYLE
  2
BYGG-021665$0$ISO
 70
     0
 40
0.0
 41
1.0
 50
0.0
 71
     0
 42
3.5
  3
isocp3.shx
  4

  0
STYLE
  2
BYGG-018516$0$STANDARD
 70
     0
 40
0.0
 41
1.0
 50
0.0
 71
     0
 42
0.2
  3
txt
  4

  0
STYLE
  2
BYGG-018516$0$ISO
 70
     0
 40
0.0
 41
1.0
 50
0.0
 71
     0
 42
3.5
  3
isocp3.shx
  4

  0
STYLE
  2
BYGG-019653$0$STANDARD
 70
     0
 40
0.0
 41
1.0
 50
0.0
 71
     0
 42
0.2
  3
txt
  4

  0
STYLE
  2
BYGG-019653$0$ISO
 70
     0
 40
0.0
 41
1.0
 50
0.0
 71
     0
 42
3.5
  3
txt
  4

  0
STYLE
  2
BYGG-019653$0$CONVERTER_11
 70
     0
 40
0.0
 41
0.72
 50
0.0
 71
     0
 42
0.2
  3
txt.shx
  4

  0
STYLE
  2
BYGG-023125$0$STANDARD
 70
     0
 40
0.0
 41
1.0
 50
0.0
 71
     0
 42
0.2
  3
txt
  4

  0
STYLE
  2
BYGG-023125$0$ISO
 70
     0
 40
0.0
 41
1.0
 50
0.0
 71
     0
 42
3.5
  3
txt
  4

  0
STYLE
  2
BYGG-014495$0$STANDARD
 70
     0
 40
0.0
 41
1.0
 50
0.0
 71
     0
 42
0.2
  3
txt
  4

  0
STYLE
  2
BYGG-014495$0$ISO
 70
     0
 40
0.0
 41
1.0
 50
0.0
 71
     0
 42
3.5
  3
isocp3.shx
  4

  0
STYLE
  2
BYGG-022089$0$STANDARD
 70
     0
 40
0.0
 41
1.0
 50
0.0
 71
     0
 42
0.2
  3
txt
  4

  0
STYLE
  2
BYGG-022089$0$ISO
 70
     0
 40
0.0
 41
1.0
 50
0.0
 71
     0
 42
3.5
  3
txt
  4

  0
STYLE
  2
BYGG-022089$0$ANNOTATIVE
 70
     0
 40
0.0
 41
1.0
 50
0.0
 71
     0
 42
0.2
  3
txt
  4

  0
STYLE
  2
BYGG-018731$0$STANDARD
 70
     0
 40
0.0
 41
1.0
 50
0.0
 71
     0
 42
0.2
  3
txt
  4

  0
STYLE
  2
BYGG-018731$0$ISO
 70
     0
 40
0.0
 41
1.0
 50
0.0
 71
     0
 42
3.5
  3
txt
  4

  0
STYLE
  2
BYGG-029261$0$STANDARD
 70
     0
 40
0.0
 41
1.0
 50
0.0
 71
     0
 42
0.2
  3
txt
  4

  0
STYLE
  2
BYGG-029261$0$ISO
 70
     0
 40
0.0
 41
1.0
 50
0.0
 71
     0
 42
3.5
  3
txt
  4

  0
STYLE
  2
BYGG-019718$0$STANDARD
 70
     0
 40
0.0
 41
1.0
 50
0.0
 71
     0
 42
0.2
  3
txt
  4

  0
STYLE
  2
BYGG-019718$0$ISO
 70
     0
 40
0.0
 41
1.0
 50
0.0
 71
     0
 42
3.5
  3
txt
  4

  0
STYLE
  2
BYGG-024973$0$STANDARD
 70
     0
 40
0.0
 41
1.0
 50
0.0
 71
     0
 42
0.2
  3
txt
  4

  0
STYLE
  2
BYGG-024973$0$ISO
 70
     0
 40
0.0
 41
1.0
 50
0.0
 71
     0
 42
3.5
  3
txt
  4

  0
STYLE
  2
BYGG-024894$0$STANDARD
 70
     0
 40
0.0
 41
1.0
 50
0.0
 71
     0
 42
0.2
  3
txt
  4

  0
STYLE
  2
BYGG-024894$0$ISO
 70
     0
 40
0.0
 41
1.0
 50
0.0
 71
     0
 42
3.5
  3
txt
  4

  0
STYLE
  2
BYGG-019612$0$STANDARD
 70
     0
 40
0.0
 41
1.0
 50
0.0
 71
     0
 42
0.2
  3
txt
  4

  0
STYLE
  2
BYGG-019612$0$ISO
 70
     0
 40
0.0
 41
1.0
 50
0.0
 71
     0
 42
3.5
  3
txt
  4

  0
STYLE
  2
BYGG-021581$0$STANDARD
 70
     0
 40
0.0
 41
1.0
 50
0.0
 71
     0
 42
0.2
  3
txt
  4

  0
STYLE
  2
BYGG-014269$0$STANDARD
 70
     0
 40
0.0
 41
1.0
 50
0.0
 71
     0
 42
0.2
  3
txt
  4

  0
STYLE
  2
BYGG-014269$0$ISO
 70
     0
 40
0.0
 41
1.0
 50
0.0
 71
     0
 42
2.5
  3
isocp3.shx
  4

  0
STYLE
  2
BYGG-020945$0$STANDARD
 70
     0
 40
0.0
 41
1.0
 50
0.0
 71
     0
 42
0.2
  3
txt
  4

  0
STYLE
  2
BYGG-020945$0$ISO
 70
     0
 40
0.0
 41
1.0
 50
0.0
 71
     0
 42
3.5
  3
txt
  4

  0
STYLE
  2
BYGG-014113$0$STANDARD
 70
     0
 40
0.0
 41
1.0
 50
0.0
 71
     0
 42
0.2
  3
txt
  4

  0
STYLE
  2
BYGG-014113$0$ISO
 70
     0
 40
0.0
 41
1.0
 50
0.0
 71
     0
 42
3.5
  3
isocp3.shx
  4

  0
STYLE
  2
BYGG-014113$0$SIMPLEX
 70
     0
 40
0.0
 41
1.0
 50
0.0
 71
     0
 42
0.4
  3
simplex
  4

  0
STYLE
  2
BYGG-028959$0$STANDARD
 70
     0
 40
0.0
 41
1.0
 50
0.0
 71
     0
 42
0.2
  3
txt
  4

  0
STYLE
  2
BYGG-028959$0$ISO
 70
     0
 40
0.0
 41
1.0
 50
0.0
 71
     0
 42
3.5
  3
txt
  4

  0
STYLE
  2
BYGG-025538$0$STANDARD
 70
     0
 40
0.0
 41
1.0
 50
0.0
 71
     0
 42
0.2
  3
txt
  4

  0
STYLE
  2
BYGG-025538$0$ISO
 70
     0
 40
0.0
 41
1.0
 50
0.0
 71
     0
 42
3.5
  3
txt
  4

  0
STYLE
  2
BYGG-022120$0$STANDARD
 70
     0
 40
0.0
 41
1.0
 50
0.0
 71
     0
 42
0.2
  3
txt
  4

  0
STYLE
  2
BYGG-022120$0$ISO
 70
     0
 40
0.0
 41
1.0
 50
0.0
 71
     0
 42
3.5
  3
txt
  4

  0
STYLE
  2
BYGG-01457801$0$STANDARD
 70
     0
 40
0.0
 41
1.0
 50
0.0
 71
     0
 42
0.2
  3
txt
  4

  0
STYLE
  2
BYGG-01457801$0$ISO
 70
     0
 40
0.0
 41
1.0
 50
0.0
 71
     0
 42
2.5
  3
isocp3.shx
  4

  0
STYLE
  2
BYGG-022709$0$STANDARD
 70
     0
 40
0.0
 41
1.0
 50
0.0
 71
     0
 42
0.2
  3
txt
  4

  0
STYLE
  2
BYGG-022709$0$ISO
 70
     0
 40
0.0
 41
1.0
 50
0.0
 71
     0
 42
3.5
  3
txt
  4

  0
STYLE
  2
BYGG-014198$0$STANDARD
 70
     0
 40
0.0
 41
1.0
 50
0.0
 71
     0
 42
0.2
  3
txt
  4

  0
STYLE
  2
BYGG-014198$0$ISO
 70
     0
 40
0.0
 41
1.0
 50
0.0
 71
     0
 42
3.5
  3
isocp3.shx
  4

  0
ENDTAB
  0
TABLE
  2
VIEW
 70
     0
  0
ENDTAB
  0
TABLE
  2
UCS
 70
     0
  0
ENDTAB
  0
TABLE
  2
APPID
 70
    23
  0
APPID
  2
ACAD
 70
     0
  0
APPID
  2
ACAD_DSTYLE_DIMTEXT_FILL
 70
     0
  0
APPID
  2
ACAD_DSTYLE_DIMEXT_LENGTH
 70
     0
  0
APPID
  2
ACAD_DSTYLE_DIMEXT_ENABLED
 70
     0
  0
APPID
  2
ACAD_DSTYLE_DIM_LINETYPE
 70
     0
  0
APPID
  2
ACAD_DSTYLE_DIM_EXT1_LINETYPE
 70
     0
  0
APPID
  2
ACAD_DSTYLE_DIM_EXT2_LINETYPE
 70
     0
  0
APPID
  2
ACAD_DSTYLE_DIMJOGGED_JOGA
 70
     0
  0
APPID
  2
ACAD_DSTYLE_DIMARC_LENGTH_
 70
     0
  0
APPID
  2
ACAD_PSEXT
 70
     0
  0
APPID
  2
ACAD_MLEADERVER
 70
     0
  0
APPID
  2
ACAD_NAV_VCDISPLAY
 70
     0
  0
APPID
  2
ACAD_EXEMPT_FROM_CAD_STANDARDS
 70
     0
  0
APPID
  2
ACAECLAYERSTANDARD
 70
     0
  0
APPID
  2
ACADANNOTATIVE
 70
     0
  0
APPID
  2
AMG_ARCHIVE11
 70
     0
  0
APPID
  2
GRADIENTCOLOR1ACI
 70
     0
  0
APPID
  2
GRADIENTCOLOR2ACI
 70
     0
  0
APPID
  2
ACDBDYNAMICBLOCKGUID
 70
     0
  0
APPID
  2
ACDBBLOCKREPETAG
 70
     0
  0
APPID
  2
AEC_XDATA_BOUND_SPACE
 70
     0
  0
APPID
  2
ACCMTRANSPARENCY
 70
     0
  0
APPID
  2
CONTENTBLOCKICON
 70
     0
  0
ENDTAB
  0
TABLE
  2
DIMSTYLE
 70
    62
  0
DIMSTYLE
  2
STANDARD
 70
     0
  3

  4

  5

  6

  7

 40
1.0
 41
0.18
 42
0.0625
 43
0.38
 44
0.18
 45
0.0
 46
0.0
 47
0.0
 48
0.0
140
0.18
141
0.09
142
0.0
143
25.399999999999999
144
1.0
145
0.0
146
1.0
147
0.09
 71
     0
 72
     0
 73
     1
 74
     1
 75
     0
 76
     0
 77
     0
 78
     0
170
     0
171
     2
172
     0
173
     0
174
     0
175
     0
176
     0
177
     0
178
     0
  0
DIMSTYLE
  2
MASKIN
 70
     0
  3

  4

  5

  6

  7

 40
0.0
 41
3.0
 42
1.5
 43
10.0
 44
1.5
 45
0.0
 46
0.0
 47
0.0
 48
0.0
140
3.0
141
-5.0
142
0.0
143
25.399999999999999
144
-1.0
145
0.0
146
1.0
147
1.0
 71
     0
 72
     0
 73
     0
 74
     0
 75
     0
 76
     0
 77
     1
 78
     8
170
     0
171
     0
172
     1
173
     0
174
     0
175
     0
176
   256
177
   256
178
     2
  0
DIMSTYLE
  2
BYGG-021665$0$MASKIN
 70
     0
  3

  4

  5

  6

  7

 40
0.0
 41
3.0
 42
1.5
 43
10.0
 44
1.5
 45
0.0
 46
0.0
 47
0.0
 48
0.0
140
3.0
141
-5.0
142
0.0
143
25.399999999999999
144
-1.0
145
0.0
146
1.0
147
1.0
 71
     0
 72
     0
 73
     0
 74
     0
 75
     0
 76
     0
 77
     1
 78
     8
170
     0
171
     0
172
     1
173
     0
174
     0
175
     0
176
   256
177
   256
178
   256
  0
DIMSTYLE
  2
BYGG-018516$0$STANDARD
 70
     0
  3

  4

  5

  6

  7

 40
1.0
 41
0.18
 42
0.0625
 43
0.38
 44
0.18
 45
0.0
 46
0.0
 47
0.0
 48
0.0
140
0.18
141
0.09
142
0.0
143
25.399999999999999
144
1.0
145
0.0
146
1.0
147
0.09
 71
     0
 72
     0
 73
     1
 74
     1
 75
     0
 76
     0
 77
     0
 78
     0
170
     0
171
     2
172
     0
173
     0
174
     0
175
     0
176
     0
177
     0
178
     0
  0
DIMSTYLE
  2
BYGG-018516$0$MASKIN
 70
     0
  3

  4

  5

  6

  7

 40
0.0
 41
3.0
 42
1.5
 43
10.0
 44
1.5
 45
0.0
 46
0.0
 47
0.0
 48
0.0
140
3.0
141
-5.0
142
0.0
143
25.399999999999999
144
-1.0
145
0.0
146
1.0
147
1.0
 71
     0
 72
     0
 73
     0
 74
     0
 75
     0
 76
     0
 77
     1
 78
     8
170
     0
171
     0
172
     1
173
     0
174
     0
175
     0
176
   256
177
   256
178
     2
  0
DIMSTYLE
  2
BYGG-019653$0$STANDARD
 70
     0
  3

  4

  5

  6

  7

 40
1.0
 41
0.18
 42
0.0625
 43
0.38
 44
0.18
 45
0.0
 46
0.0
 47
0.0
 48
0.0
140
0.18
141
0.09
142
0.0
143
25.399999999999999
144
1.0
145
0.0
146
1.0
147
0.09
 71
     0
 72
     0
 73
     1
 74
     1
 75
     0
 76
     0
 77
     0
 78
     0
170
     0
171
     2
172
     0
173
     0
174
     0
175
     0
176
     0
177
     0
178
     0
  0
DIMSTYLE
  2
BYGG-019653$0$MASKIN
 70
     0
  3

  4

  5

  6

  7

 40
0.0
 41
3.0
 42
1.5
 43
10.0
 44
1.5
 45
0.0
 46
0.0
 47
0.0
 48
0.0
140
3.0
141
-5.0
142
0.0
143
25.399999999999999
144
-1.0
145
0.0
146
1.0
147
1.0
 71
     0
 72
     0
 73
     0
 74
     0
 75
     0
 76
     0
 77
     1
 78
     8
170
     0
171
     0
172
     1
173
     0
174
     0
175
     0
176
   256
177
   256
178
     2
  0
DIMSTYLE
  2
BYGG-019653$0$ME10_DIM_10
 70
     0
  3

  4

  5

  6

  7

 40
1.0
 41
0.7
 42
0.0
 43
0.38
 44
0.4
 45
0.0
 46
0.0
 47
0.0
 48
0.0
140
0.7
141
0.09
142
0.0
143
25.399999999999999
144
1.0
145
0.0
146
1.0
147
0.4
 71
     0
 72
     0
 73
     0
 74
     0
 75
     0
 76
     0
 77
     1
 78
     8
170
     0
171
     2
172
     1
173
     1
174
     0
175
     0
176
     1
177
     1
178
     2
  0
DIMSTYLE
  2
BYGG-019653$0$ME10_DIM_11
 70
     0
  3

  4

  5

  6

  7

 40
1.0
 41
0.7
 42
0.0
 43
0.38
 44
0.4
 45
0.0
 46
0.0
 47
0.0
 48
0.0
140
0.7
141
0.09
142
0.0
143
25.399999999999999
144
1.0
145
0.0
146
1.0
147
0.4
 71
     0
 72
     0
 73
     0
 74
     0
 75
     0
 76
     0
 77
     1
 78
     8
170
     0
171
     2
172
     1
173
     1
174
     0
175
     0
176
     1
177
     1
178
     2
  0
DIMSTYLE
  2
BYGG-019653$0$ME10_DIM_12
 70
     0
  3
(<>)
  4

  5

  6

  7

 40
1.0
 41
0.7
 42
0.0
 43
0.38
 44
0.4
 45
0.0
 46
0.0
 47
0.0
 48
0.0
140
0.7
141
0.09
142
0.0
143
25.399999999999999
144
1.0
145
0.0
146
1.0
147
0.4
 71
     0
 72
     0
 73
     0
 74
     0
 75
     0
 76
     0
 77
     1
 78
     8
170
     0
171
     2
172
     1
173
     1
174
     0
175
     0
176
     1
177
     1
178
     2
  0
DIMSTYLE
  2
BYGG-019653$0$ME10_DIM_13
 70
     0
  3

  4

  5

  6

  7

 40
1.0
 41
0.7
 42
0.0
 43
0.38
 44
0.4
 45
0.0
 46
0.0
 47
0.0
 48
0.0
140
0.7
141
0.09
142
0.0
143
25.399999999999999
144
1.0
145
0.0
146
1.0
147
0.4
 71
     0
 72
     0
 73
     0
 74
     0
 75
     0
 76
     0
 77
     1
 78
     8
170
     0
171
     2
172
     1
173
     1
174
     0
175
     0
176
     1
177
     1
178
     2
  0
DIMSTYLE
  2
BYGG-019653$0$ME10_DIM_14
 70
     0
  3

  4

  5

  6

  7

 40
1.0
 41
0.7
 42
0.0
 43
0.38
 44
0.4
 45
0.0
 46
0.0
 47
0.0
 48
0.0
140
0.7
141
0.09
142
0.0
143
25.399999999999999
144
1.0
145
0.0
146
1.0
147
0.4
 71
     0
 72
     0
 73
     0
 74
     0
 75
     0
 76
     0
 77
     1
 78
     8
170
     0
171
     2
172
     1
173
     1
174
     0
175
     0
176
     1
177
     1
178
     2
  0
DIMSTYLE
  2
BYGG-019653$0$ME10_DIM_15
 70
     0
  3

  4

  5

  6

  7

 40
1.0
 41
0.7
 42
0.0
 43
0.38
 44
0.4
 45
0.0
 46
0.0
 47
0.0
 48
0.0
140
0.7
141
0.09
142
0.0
143
25.399999999999999
144
1.0
145
0.0
146
1.0
147
0.4
 71
     0
 72
     0
 73
     0
 74
     0
 75
     0
 76
     0
 77
     1
 78
     8
170
     0
171
     2
172
     1
173
     1
174
     0
175
     0
176
     1
177
     1
178
     2
  0
DIMSTYLE
  2
BYGG-019653$0$ME10_DIM_16
 70
     0
  3

  4

  5

  6

  7

 40
1.0
 41
0.7
 42
0.0
 43
0.38
 44
0.4
 45
0.0
 46
0.0
 47
0.3
 48
0.3
140
0.7
141
0.09
142
0.0
143
25.399999999999999
144
1.0
145
0.0
146
0.6
147
0.4
 71
     1
 72
     0
 73
     0
 74
     0
 75
     0
 76
     0
 77
     1
 78
     8
170
     0
171
     2
172
     1
173
     1
174
     0
175
     0
176
     1
177
     1
178
     2
  0
DIMSTYLE
  2
BYGG-019653$0$ME10_DIM_17
 70
     0
  3

  4

  5

  6

  7

 40
1.0
 41
0.7
 42
0.0
 43
0.38
 44
0.4
 45
0.0
 46
0.0
 47
0.0
 48
0.0
140
0.7
141
0.09
142
0.0
143
25.399999999999999
144
1.0
145
0.0
146
1.0
147
0.4
 71
     0
 72
     0
 73
     0
 74
     0
 75
     0
 76
     0
 77
     1
 78
     8
170
     0
171
     2
172
     1
173
     1
174
     0
175
     0
176
     1
177
     1
178
     2
  0
DIMSTYLE
  2
BYGG-019653$0$ME10_DIM_18
 70
     0
  3

  4

  5

  6

  7

 40
1.0
 41
0.7
 42
0.0
 43
0.38
 44
0.4
 45
0.0
 46
0.0
 47
0.3
 48
0.3
140
0.7
141
0.09
142
0.0
143
25.399999999999999
144
1.0
145
0.0
146
0.6
147
0.4
 71
     1
 72
     0
 73
     0
 74
     0
 75
     0
 76
     0
 77
     1
 78
     8
170
     0
171
     2
172
     1
173
     1
174
     0
175
     0
176
     1
177
     1
178
     2
  0
DIMSTYLE
  2
BYGG-019653$0$ME10_DIM_19
 70
     0
  3

  4

  5

  6

  7

 40
1.0
 41
0.7
 42
0.0
 43
0.38
 44
0.4
 45
0.0
 46
0.0
 47
0.0
 48
0.0
140
0.7
141
0.09
142
0.0
143
25.399999999999999
144
1.0
145
0.0
146
1.0
147
0.4
 71
     0
 72
     0
 73
     0
 74
     0
 75
     0
 76
     0
 77
     1
 78
     8
170
     0
171
     2
172
     1
173
     1
174
     0
175
     0
176
     1
177
     1
178
     2
  0
DIMSTYLE
  2
BYGG-019653$0$ME10_DIM_20
 70
     0
  3

  4

  5

  6

  7

 40
1.0
 41
0.7
 42
0.0
 43
0.38
 44
0.4
 45
0.0
 46
0.0
 47
0.0
 48
0.0
140
0.7
141
0.09
142
0.0
143
25.399999999999999
144
1.0
145
0.0
146
1.0
147
0.4
 71
     0
 72
     0
 73
     0
 74
     0
 75
     0
 76
     0
 77
     1
 78
     8
170
     0
171
     2
172
     1
173
     1
174
     0
175
     0
176
     1
177
     1
178
     2
  0
DIMSTYLE
  2
BYGG-019653$0$ME10_DIM_21
 70
     0
  3
(<>)
  4

  5

  6

  7

 40
1.0
 41
0.7
 42
0.0
 43
0.38
 44
0.4
 45
0.0
 46
0.0
 47
0.0
 48
0.0
140
0.7
141
0.09
142
0.0
143
25.399999999999999
144
1.0
145
0.0
146
1.0
147
0.4
 71
     0
 72
     0
 73
     0
 74
     0
 75
     0
 76
     0
 77
     1
 78
     8
170
     0
171
     2
172
     1
173
     1
174
     0
175
     0
176
     1
177
     1
178
     2
  0
DIMSTYLE
  2
BYGG-019653$0$ME10_DIM_22
 70
     0
  3

  4

  5

  6

  7

 40
1.0
 41
0.7
 42
0.0
 43
0.38
 44
0.4
 45
0.0
 46
0.0
 47
0.0
 48
0.0
140
0.7
141
0.09
142
0.0
143
25.399999999999999
144
1.0
145
0.0
146
1.0
147
0.4
 71
     0
 72
     0
 73
     0
 74
     0
 75
     0
 76
     0
 77
     1
 78
     8
170
     0
171
     2
172
     1
173
     1
174
     0
175
     0
176
     1
177
     1
178
     2
  0
DIMSTYLE
  2
BYGG-019653$0$ME10_DIM_23
 70
     0
  3

  4

  5

  6

  7

 40
1.0
 41
0.7
 42
0.0
 43
0.38
 44
0.4
 45
0.0
 46
0.0
 47
0.0
 48
0.0
140
0.7
141
0.09
142
0.0
143
25.399999999999999
144
1.0
145
0.0
146
1.0
147
0.4
 71
     0
 72
     0
 73
     0
 74
     0
 75
     0
 76
     0
 77
     1
 78
     8
170
     0
171
     2
172
     1
173
     1
174
     0
175
     0
176
     1
177
     1
178
     2
  0
DIMSTYLE
  2
BYGG-023125$0$STANDARD
 70
     0
  3

  4

  5

  6

  7

 40
1.0
 41
0.18
 42
0.0625
 43
0.38
 44
0.18
 45
0.0
 46
0.0
 47
0.0
 48
0.0
140
0.18
141
0.09
142
0.0
143
25.399999999999999
144
1.0
145
0.0
146
1.0
147
0.09
 71
     0
 72
     0
 73
     1
 74
     1
 75
     0
 76
     0
 77
     0
 78
     0
170
     0
171
     2
172
     0
173
     0
174
     0
175
     0
176
     0
177
     0
178
     0
  0
DIMSTYLE
  2
BYGG-023125$0$MASKIN
 70
     0
  3

  4

  5

  6

  7

 40
0.0
 41
3.0
 42
1.5
 43
10.0
 44
1.5
 45
0.0
 46
0.0
 47
0.0
 48
0.0
140
3.0
141
-5.0
142
0.0
143
25.399999999999999
144
-1.0
145
0.0
146
1.0
147
1.0
 71
     0
 72
     0
 73
     0
 74
     0
 75
     0
 76
     0
 77
     1
 78
     8
170
     0
171
     0
172
     1
173
     0
174
     0
175
     0
176
   256
177
   256
178
     2
  0
DIMSTYLE
  2
BYGG-014495$0$MASKIN
 70
     0
  3

  4

  5

  6

  7

 40
0.0
 41
3.0
 42
1.5
 43
10.0
 44
1.5
 45
0.0
 46
0.0
 47
0.0
 48
0.0
140
3.0
141
-5.0
142
0.0
143
25.399999999999999
144
-1.0
145
0.0
146
1.0
147
1.0
 71
     0
 72
     0
 73
     0
 74
     0
 75
     0
 76
     0
 77
     1
 78
     8
170
     0
171
     0
172
     1
173
     0
174
     0
175
     0
176
   256
177
   256
178
     2
  0
DIMSTYLE
  2
BYGG-022089$0$STANDARD
 70
     0
  3

  4

  5

  6

  7

 40
1.0
 41
0.18
 42
0.0625
 43
0.38
 44
0.18
 45
0.0
 46
0.0
 47
0.0
 48
0.0
140
0.18
141
0.09
142
0.0
143
25.399999999999999
144
1.0
145
0.0
146
1.0
147
0.09
 71
     0
 72
     0
 73
     1
 74
     1
 75
     0
 76
     0
 77
     0
 78
     0
170
     0
171
     2
172
     0
173
     0
174
     0
175
     0
176
     0
177
     0
178
     0
  0
DIMSTYLE
  2
BYGG-022089$0$MASKIN
 70
     0
  3

  4

  5

  6

  7

 40
0.0
 41
3.0
 42
1.5
 43
10.0
 44
1.5
 45
0.0
 46
0.0
 47
0.0
 48
0.0
140
3.0
141
-5.0
142
0.0
143
25.399999999999999
144
-1.0
145
0.0
146
1.0
147
1.0
 71
     0
 72
     0
 73
     0
 74
     0
 75
     0
 76
     0
 77
     1
 78
     8
170
     0
171
     0
172
     1
173
     0
174
     0
175
     0
176
   256
177
   256
178
     2
  0
DIMSTYLE
  2
BYGG-022089$0$ANNOTATIVE
 70
     0
  3

  4

  5

  6

  7

 40
1.0
 41
0.18
 42
0.0625
 43
0.38
 44
0.18
 45
0.0
 46
0.0
 47
0.0
 48
0.0
140
0.18
141
0.09
142
0.0
143
25.399999999999999
144
1.0
145
0.0
146
1.0
147
0.09
 71
     0
 72
     0
 73
     1
 74
     1
 75
     0
 76
     0
 77
     0
 78
     0
170
     0
171
     2
172
     0
173
     0
174
     0
175
     0
176
     0
177
     0
178
     0
  0
DIMSTYLE
  2
BYGG-018731$0$STANDARD
 70
     0
  3

  4

  5

  6

  7

 40
1.0
 41
0.18
 42
0.0625
 43
0.38
 44
0.18
 45
0.0
 46
0.0
 47
0.0
 48
0.0
140
0.18
141
0.09
142
0.0
143
25.399999999999999
144
1.0
145
0.0
146
1.0
147
0.09
 71
     0
 72
     0
 73
     1
 74
     1
 75
     0
 76
     0
 77
     0
 78
     0
170
     0
171
     2
172
     0
173
     0
174
     0
175
     0
176
     0
177
     0
178
     0
  0
DIMSTYLE
  2
BYGG-018731$0$MASKIN
 70
     0
  3

  4

  5

  6

  7

 40
0.0
 41
3.0
 42
1.5
 43
10.0
 44
1.5
 45
0.0
 46
0.0
 47
0.0
 48
0.0
140
3.0
141
-5.0
142
0.0
143
25.399999999999999
144
-1.0
145
0.0
146
1.0
147
1.0
 71
     0
 72
     0
 73
     0
 74
     0
 75
     0
 76
     0
 77
     1
 78
     8
170
     0
171
     0
172
     1
173
     0
174
     0
175
     0
176
   256
177
   256
178
     2
  0
DIMSTYLE
  2
BYGG-029261$0$STANDARD
 70
     0
  3

  4

  5

  6

  7

 40
1.0
 41
0.18
 42
0.0625
 43
0.38
 44
0.18
 45
0.0
 46
0.0
 47
0.0
 48
0.0
140
0.18
141
0.09
142
0.0
143
25.399999999999999
144
1.0
145
0.0
146
1.0
147
0.09
 71
     0
 72
     0
 73
     1
 74
     1
 75
     0
 76
     0
 77
     0
 78
     0
170
     0
171
     2
172
     0
173
     0
174
     0
175
     0
176
     0
177
     0
178
     0
  0
DIMSTYLE
  2
BYGG-029261$0$MASKIN
 70
     0
  3

  4

  5

  6

  7

 40
0.0
 41
3.0
 42
1.5
 43
10.0
 44
1.5
 45
0.0
 46
0.0
 47
0.0
 48
0.0
140
3.0
141
-5.0
142
0.0
143
25.399999999999999
144
-1.0
145
0.0
146
1.0
147
1.0
 71
     0
 72
     0
 73
     0
 74
     0
 75
     0
 76
     0
 77
     1
 78
     8
170
     0
171
     0
172
     1
173
     0
174
     0
175
     0
176
   256
177
   256
178
     2
  0
DIMSTYLE
  2
BYGG-029261$0$ISO-25
 70
     0
  3

  4

  5

  6

  7

 40
1.0
 41
2.5
 42
0.625
 43
3.75
 44
1.25
 45
0.0
 46
0.0
 47
0.0
 48
0.0
140
2.5
141
2.5
142
0.0
143
0.03937007874016
144
1.0
145
0.0
146
1.0
147
0.625
 71
     0
 72
     0
 73
     0
 74
     0
 75
     0
 76
     0
 77
     1
 78
     8
170
     0
171
     3
172
     1
173
     0
174
     0
175
     0
176
     0
177
     0
178
     0
  0
DIMSTYLE
  2
BYGG-019718$0$STANDARD
 70
     0
  3

  4

  5

  6

  7

 40
1.0
 41
0.18
 42
0.0625
 43
0.38
 44
0.18
 45
0.0
 46
0.0
 47
0.0
 48
0.0
140
0.18
141
0.09
142
0.0
143
25.399999999999999
144
1.0
145
0.0
146
1.0
147
0.09
 71
     0
 72
     0
 73
     1
 74
     1
 75
     0
 76
     0
 77
     0
 78
     0
170
     0
171
     2
172
     0
173
     0
174
     0
175
     0
176
     0
177
     0
178
     0
  0
DIMSTYLE
  2
BYGG-019718$0$MASKIN
 70
     0
  3

  4

  5

  6

  7

 40
0.0
 41
3.0
 42
1.5
 43
10.0
 44
1.5
 45
0.0
 46
0.0
 47
0.0
 48
0.0
140
3.0
141
-5.0
142
0.0
143
25.399999999999999
144
-1.0
145
0.0
146
1.0
147
1.0
 71
     0
 72
     0
 73
     0
 74
     0
 75
     0
 76
     0
 77
     1
 78
     8
170
     0
171
     0
172
     1
173
     0
174
     0
175
     0
176
   256
177
   256
178
     2
  0
DIMSTYLE
  2
BYGG-024973$0$STANDARD
 70
     0
  3

  4

  5

  6

  7

 40
1.0
 41
0.18
 42
0.0625
 43
0.38
 44
0.18
 45
0.0
 46
0.0
 47
0.0
 48
0.0
140
0.18
141
0.09
142
0.0
143
25.399999999999999
144
1.0
145
0.0
146
1.0
147
0.09
 71
     0
 72
     0
 73
     1
 74
     1
 75
     0
 76
     0
 77
     0
 78
     0
170
     0
171
     2
172
     0
173
     0
174
     0
175
     0
176
     0
177
     0
178
     0
  0
DIMSTYLE
  2
BYGG-024973$0$MASKIN
 70
     0
  3

  4

  5

  6

  7

 40
0.0
 41
3.0
 42
1.5
 43
10.0
 44
1.5
 45
0.0
 46
0.0
 47
0.0
 48
0.0
140
3.0
141
-5.0
142
0.0
143
25.399999999999999
144
-1.0
145
0.0
146
1.0
147
1.0
 71
     0
 72
     0
 73
     0
 74
     0
 75
     0
 76
     0
 77
     1
 78
     8
170
     0
171
     0
172
     1
173
     0
174
     0
175
     0
176
   256
177
   256
178
     2
  0
DIMSTYLE
  2
BYGG-024894$0$STANDARD
 70
     0
  3

  4

  5

  6

  7

 40
1.0
 41
0.18
 42
0.0625
 43
0.38
 44
0.18
 45
0.0
 46
0.0
 47
0.0
 48
0.0
140
0.18
141
0.09
142
0.0
143
25.399999999999999
144
1.0
145
0.0
146
1.0
147
0.09
 71
     0
 72
     0
 73
     1
 74
     1
 75
     0
 76
     0
 77
     0
 78
     0
170
     0
171
     2
172
     0
173
     0
174
     0
175
     0
176
     0
177
     0
178
     0
  0
DIMSTYLE
  2
BYGG-024894$0$MASKIN
 70
     0
  3

  4

  5

  6

  7

 40
0.0
 41
3.0
 42
1.5
 43
10.0
 44
1.5
 45
0.0
 46
0.0
 47
0.0
 48
0.0
140
3.0
141
-5.0
142
0.0
143
25.399999999999999
144
-1.0
145
0.0
146
1.0
147
1.0
 71
     0
 72
     0
 73
     0
 74
     0
 75
     0
 76
     0
 77
     1
 78
     8
170
     0
171
     0
172
     1
173
     0
174
     0
175
     0
176
   256
177
   256
178
     2
  0
DIMSTYLE
  2
BYGG-019612$0$STANDARD
 70
     0
  3

  4

  5

  6

  7

 40
1.0
 41
0.18
 42
0.0625
 43
0.38
 44
0.18
 45
0.0
 46
0.0
 47
0.0
 48
0.0
140
0.18
141
0.09
142
0.0
143
25.399999999999999
144
1.0
145
0.0
146
1.0
147
0.09
 71
     0
 72
     0
 73
     1
 74
     1
 75
     0
 76
     0
 77
     0
 78
     0
170
     0
171
     2
172
     0
173
     0
174
     0
175
     0
176
     0
177
     0
178
     0
  0
DIMSTYLE
  2
BYGG-019612$0$MASKIN
 70
     0
  3

  4

  5

  6

  7

 40
0.0
 41
3.0
 42
1.5
 43
10.0
 44
1.5
 45
0.0
 46
0.0
 47
0.0
 48
0.0
140
3.0
141
-5.0
142
0.0
143
25.399999999999999
144
-1.0
145
0.0
146
1.0
147
1.0
 71
     0
 72
     0
 73
     0
 74
     0
 75
     0
 76
     0
 77
     1
 78
     8
170
     0
171
     0
172
     1
173
     0
174
     0
175
     0
176
   256
177
   256
178
     2
  0
DIMSTYLE
  2
BYGG-021581$0$STANDARD
 70
     0
  3

  4

  5

  6

  7

 40
1.0
 41
0.18
 42
0.0625
 43
0.38
 44
0.18
 45
0.0
 46
0.0
 47
0.0
 48
0.0
140
0.18
141
0.09
142
0.0
143
25.399999999999999
144
1.0
145
0.0
146
1.0
147
0.09
 71
     0
 72
     0
 73
     1
 74
     1
 75
     0
 76
     0
 77
     0
 78
     0
170
     0
171
     2
172
     0
173
     0
174
     0
175
     0
176
     0
177
     0
178
     0
  0
DIMSTYLE
  2
BYGG-014269$0$STANDARD
 70
     0
  3

  4

  5

  6

  7

 40
1.0
 41
0.18
 42
0.0625
 43
0.38
 44
0.18
 45
0.0
 46
0.0
 47
0.0
 48
0.0
140
0.18
141
0.09
142
0.0
143
25.399999999999999
144
1.0
145
0.0
146
1.0
147
0.09
 71
     0
 72
     0
 73
     1
 74
     1
 75
     0
 76
     0
 77
     0
 78
     0
170
     0
171
     2
172
     0
173
     0
174
     0
175
     0
176
     0
177
     0
178
     0
  0
DIMSTYLE
  2
BYGG-014269$0$MASKIN
 70
     0
  3

  4

  5

  6

  7

 40
0.0
 41
3.0
 42
1.5
 43
10.0
 44
1.5
 45
0.0
 46
0.0
 47
0.0
 48
0.0
140
3.0
141
-5.0
142
0.0
143
25.399999999999999
144
-1.0
145
0.0
146
1.0
147
1.0
 71
     0
 72
     0
 73
     0
 74
     1
 75
     0
 76
     0
 77
     1
 78
     8
170
     0
171
     0
172
     1
173
     0
174
     0
175
     0
176
   256
177
   256
178
     2
  0
DIMSTYLE
  2
BYGG-020945$0$STANDARD
 70
     0
  3

  4

  5

  6

  7

 40
1.0
 41
0.18
 42
0.0625
 43
0.38
 44
0.18
 45
0.0
 46
0.0
 47
0.0
 48
0.0
140
0.18
141
0.09
142
0.0
143
25.399999999999999
144
1.0
145
0.0
146
1.0
147
0.09
 71
     0
 72
     0
 73
     1
 74
     1
 75
     0
 76
     0
 77
     0
 78
     0
170
     0
171
     2
172
     0
173
     0
174
     0
175
     0
176
     0
177
     0
178
     0
  0
DIMSTYLE
  2
BYGG-020945$0$MASKIN
 70
     0
  3

  4

  5

  6

  7

 40
0.0
 41
3.0
 42
1.5
 43
10.0
 44
1.5
 45
0.0
 46
0.0
 47
0.0
 48
0.0
140
3.0
141
-5.0
142
0.0
143
25.399999999999999
144
-1.0
145
0.0
146
1.0
147
1.0
 71
     0
 72
     0
 73
     0
 74
     0
 75
     0
 76
     0
 77
     1
 78
     8
170
     0
171
     0
172
     1
173
     0
174
     0
175
     0
176
   256
177
   256
178
     2
  0
DIMSTYLE
  2
BYGG-014113$0$MASKIN
 70
     0
  3

  4

  5

  6

  7

 40
0.0
 41
3.0
 42
1.5
 43
10.0
 44
1.5
 45
0.0
 46
0.0
 47
0.0
 48
0.0
140
3.0
141
-5.0
142
0.0
143
25.399999999999999
144
-1.0
145
0.0
146
1.0
147
1.0
 71
     0
 72
     0
 73
     0
 74
     0
 75
     0
 76
     0
 77
     1
 78
     8
170
     0
171
     0
172
     1
173
     0
174
     0
175
     0
176
   256
177
   256
178
   256
  0
DIMSTYLE
  2
BYGG-014113$0$MASKIN1
 70
     0
  3

  4

  5

  6

  7

 40
1.0
 41
3.0
 42
1.5
 43
10.0
 44
1.5
 45
0.0
 46
0.0
 47
0.0
 48
0.0
140
3.0
141
-5.0
142
0.0
143
25.399999999999999
144
1.0
145
0.0
146
1.0
147
0.9
 71
     0
 72
     0
 73
     0
 74
     0
 75
     0
 76
     0
 77
     1
 78
     8
170
     0
171
     0
172
     1
173
     0
174
     0
175
     0
176
   256
177
   256
178
   256
  0
DIMSTYLE
  2
BYGG-014113$0$MASKIN2
 70
     0
  3

  4

  5

  6

  7

 40
1.0
 41
3.0
 42
1.5
 43
10.0
 44
1.5
 45
0.0
 46
0.0
 47
0.0
 48
0.0
140
3.0
141
-5.0
142
0.0
143
25.399999999999999
144
1.0
145
0.0
146
1.0
147
0.9
 71
     0
 72
     0
 73
     0
 74
     0
 75
     0
 76
     0
 77
     1
 78
     8
170
     0
171
     0
172
     1
173
     0
174
     0
175
     0
176
   256
177
   256
178
   256
  0
DIMSTYLE
  2
BYGG-014113$0$MASKIN3
 70
     0
  3

  4

  5

  6

  7

 40
1.0
 41
3.0
 42
1.5
 43
10.0
 44
1.5
 45
0.0
 46
0.0
 47
0.0
 48
0.0
140
3.0
141
-5.0
142
0.0
143
25.399999999999999
144
1.0
145
0.0
146
1.0
147
0.9
 71
     0
 72
     0
 73
     0
 74
     0
 75
     0
 76
     0
 77
     1
 78
     8
170
     0
171
     0
172
     1
173
     0
174
     0
175
     0
176
   256
177
   256
178
   256
  0
DIMSTYLE
  2
BYGG-014113$0$STANDARD
 70
     0
  3

  4

  5

  6

  7

 40
1.0
 41
0.18
 42
0.0625
 43
0.38
 44
0.18
 45
0.0
 46
0.0
 47
0.0
 48
0.0
140
0.18
141
0.09
142
0.0
143
25.399999999999999
144
1.0
145
0.0
146
1.0
147
0.09
 71
     0
 72
     0
 73
     1
 74
     1
 75
     0
 76
     0
 77
     0
 78
     0
170
     0
171
     2
172
     0
173
     0
174
     0
175
     0
176
     0
177
     0
178
     0
  0
DIMSTYLE
  2
BYGG-028959$0$STANDARD
 70
     0
  3

  4

  5

  6

  7

 40
1.0
 41
0.18
 42
0.0625
 43
0.38
 44
0.18
 45
0.0
 46
0.0
 47
0.0
 48
0.0
140
0.18
141
0.09
142
0.0
143
25.399999999999999
144
1.0
145
0.0
146
1.0
147
0.09
 71
     0
 72
     0
 73
     1
 74
     1
 75
     0
 76
     0
 77
     0
 78
     0
170
     0
171
     2
172
     0
173
     0
174
     0
175
     0
176
     0
177
     0
178
     0
  0
DIMSTYLE
  2
BYGG-028959$0$MASKIN
 70
     0
  3

  4

  5

  6

  7

 40
0.0
 41
3.0
 42
1.5
 43
10.0
 44
1.5
 45
0.0
 46
0.0
 47
0.0
 48
0.0
140
3.0
141
-5.0
142
0.0
143
25.399999999999999
144
-1.0
145
0.0
146
1.0
147
1.0
 71
     0
 72
     0
 73
     0
 74
     0
 75
     0
 76
     0
 77
     1
 78
     8
170
     0
171
     0
172
     1
173
     0
174
     0
175
     0
176
   256
177
   256
178
     2
  0
DIMSTYLE
  2
BYGG-025538$0$STANDARD
 70
     0
  3

  4

  5

  6

  7

 40
1.0
 41
0.18
 42
0.0625
 43
0.38
 44
0.18
 45
0.0
 46
0.0
 47
0.0
 48
0.0
140
0.18
141
0.09
142
0.0
143
25.399999999999999
144
1.0
145
0.0
146
1.0
147
0.09
 71
     0
 72
     0
 73
     1
 74
     1
 75
     0
 76
     0
 77
     0
 78
     0
170
     0
171
     2
172
     0
173
     0
174
     0
175
     0
176
     0
177
     0
178
     0
  0
DIMSTYLE
  2
BYGG-025538$0$MASKIN
 70
     0
  3

  4

  5

  6

  7

 40
0.0
 41
3.0
 42
1.5
 43
10.0
 44
1.5
 45
0.0
 46
0.0
 47
0.0
 48
0.0
140
3.0
141
-5.0
142
0.0
143
25.399999999999999
144
-1.0
145
0.0
146
1.0
147
1.0
 71
     0
 72
     0
 73
     0
 74
     0
 75
     0
 76
     0
 77
     1
 78
     8
170
     0
171
     0
172
     1
173
     0
174
     0
175
     0
176
   256
177
   256
178
     2
  0
DIMSTYLE
  2
BYGG-022120$0$STANDARD
 70
     0
  3

  4

  5

  6

  7

 40
1.0
 41
0.18
 42
0.0625
 43
0.38
 44
0.18
 45
0.0
 46
0.0
 47
0.0
 48
0.0
140
0.18
141
0.09
142
0.0
143
25.399999999999999
144
1.0
145
0.0
146
1.0
147
0.09
 71
     0
 72
     0
 73
     1
 74
     1
 75
     0
 76
     0
 77
     0
 78
     0
170
     0
171
     2
172
     0
173
     0
174
     0
175
     0
176
     0
177
     0
178
     0
  0
DIMSTYLE
  2
BYGG-022120$0$MASKIN
 70
     0
  3

  4

  5

  6

  7

 40
0.0
 41
3.0
 42
1.5
 43
10.0
 44
1.5
 45
0.0
 46
0.0
 47
0.0
 48
0.0
140
3.0
141
-5.0
142
0.0
143
25.399999999999999
144
-1.0
145
0.0
146
1.0
147
1.0
 71
     0
 72
     0
 73
     0
 74
     0
 75
     0
 76
     0
 77
     1
 78
     8
170
     0
171
     0
172
     1
173
     0
174
     0
175
     0
176
   256
177
   256
178
     2
  0
DIMSTYLE
  2
BYGG-01457801$0$STANDARD
 70
     0
  3

  4

  5

  6

  7

 40
1.0
 41
0.18
 42
0.0625
 43
0.38
 44
0.18
 45
0.0
 46
0.0
 47
0.0
 48
0.0
140
0.18
141
0.09
142
0.0
143
25.399999999999999
144
1.0
145
0.0
146
1.0
147
0.09
 71
     0
 72
     0
 73
     1
 74
     1
 75
     0
 76
     0
 77
     0
 78
     0
170
     0
171
     2
172
     0
173
     0
174
     0
175
     0
176
     0
177
     0
178
     0
  0
DIMSTYLE
  2
BYGG-01457801$0$MASKIN
 70
     0
  3

  4

  5

  6

  7

 40
0.0
 41
3.0
 42
1.5
 43
10.0
 44
1.5
 45
0.0
 46
0.0
 47
0.0
 48
0.0
140
3.0
141
-5.0
142
0.0
143
25.399999999999999
144
-1.0
145
0.0
146
1.0
147
1.0
 71
     0
 72
     0
 73
     0
 74
     1
 75
     0
 76
     0
 77
     1
 78
     8
170
     0
171
     0
172
     1
173
     0
174
     0
175
     0
176
   256
177
   256
178
     2
  0
DIMSTYLE
  2
BYGG-022709$0$STANDARD
 70
     0
  3

  4

  5

  6

  7

 40
1.0
 41
0.18
 42
0.0625
 43
0.38
 44
0.18
 45
0.0
 46
0.0
 47
0.0
 48
0.0
140
0.18
141
0.09
142
0.0
143
25.399999999999999
144
1.0
145
0.0
146
1.0
147
0.09
 71
     0
 72
     0
 73
     1
 74
     1
 75
     0
 76
     0
 77
     0
 78
     0
170
     0
171
     2
172
     0
173
     0
174
     0
175
     0
176
     0
177
     0
178
     0
  0
DIMSTYLE
  2
BYGG-022709$0$MASKIN
 70
     0
  3

  4

  5

  6

  7

 40
0.0
 41
3.0
 42
1.5
 43
10.0
 44
1.5
 45
0.0
 46
0.0
 47
0.0
 48
0.0
140
3.0
141
-5.0
142
0.0
143
25.399999999999999
144
-1.0
145
0.0
146
1.0
147
1.0
 71
     0
 72
     0
 73
     0
 74
     0
 75
     0
 76
     0
 77
     1
 78
     8
170
     0
171
     0
172
     1
173
     0
174
     0
175
     0
176
   256
177
   256
178
     2
  0
DIMSTYLE
  2
BYGG-014198$0$STANDARD
 70
     0
  3

  4

  5

  6

  7

 40
1.0
 41
0.18
 42
0.0625
 43
0.38
 44
0.18
 45
0.0
 46
0.0
 47
0.0
 48
0.0
140
0.18
141
0.09
142
0.0
143
25.399999999999999
144
1.0
145
0.0
146
1.0
147
0.09
 71
     0
 72
     0
 73
     1
 74
     1
 75
     0
 76
     0
 77
     0
 78
     0
170
     0
171
     2
172
     0
173
     0
174
     0
175
     0
176
     0
177
     0
178
     0
  0
DIMSTYLE
  2
BYGG-014198$0$MASKIN
 70
     0
  3

  4

  5

  6

  7

 40
0.0
 41
3.0
 42
1.5
 43
10.0
 44
1.5
 45
0.0
 46
0.0
 47
0.0
 48
0.0
140
3.0
141
-5.0
142
0.0
143
25.399999999999999
144
-1.0
145
0.0
146
1.0
147
1.0
 71
     0
 72
     0
 73
     0
 74
     0
 75
     0
 76
     0
 77
     1
 78
     8
170
     0
171
     0
172
     1
173
     0
174
     0
175
     0
176
   256
177
   256
178
   256
  0
ENDTAB
  0
ENDSEC
  0
SECTION
  2
BLOCKS
  0
BLOCK
  8
0
  2
$MODEL_SPACE
 70
     0
 10
0.0
 20
0.0
 30
0.0
  3
$MODEL_SPACE
  1

  0
ENDBLK
  5
37
  8
0
  0
BLOCK
 67
     1
  8
0
  2
$PAPER_SPACE
 70
     0
 10
0.0
 20
0.0
 30
0.0
  3
$PAPER_SPACE
  1

  0
ENDBLK
  5
35
 67
     1
  8
0
  0
BLOCK
  8
0
  2
BYGG-023125$0$BORST_9
 70
     0
 10
0.0
 20
0.0
 30
0.0
  3
BYGG-023125$0$BORST_9
  1

  0
POLYLINE
  5
1652
  8
BYGG-023125$0$LIST
 66
     1
 10
0.0
 20
0.0
 30
0.0
 70
     1
  0
VERTEX
  5
1E20
  8
BYGG-023125$0$LIST
 10
32.117949192431162
 20
1.9000000000000901
 30
0.0
  0
VERTEX
  5
1E21
  8
BYGG-023125$0$LIST
 10
32.117949192431162
 20
2.7000000000000912
 30
0.0
  0
VERTEX
  5
1E22
  8
BYGG-023125$0$LIST
 10
25.417949192431159
 20
2.7000000000000912
 30
0.0
  0
VERTEX
  5
1E23
  8
BYGG-023125$0$LIST
 10
25.417949192431159
 20
1.9000000000000901
 30
0.0
  0
SEQEND
  5
1E24
  8
BYGG-023125$0$LIST
  0
POLYLINE
  5
1653
  8
BYGG-023125$0$LIST
 66
     1
 10
0.0
 20
0.0
 30
0.0
  0
VERTEX
  5
1E25
  8
BYGG-023125$0$LIST
 10
28.263363943662679
 20
2.7000000000000912
 30
0.0
  0
VERTEX
  5
1E26
  8
BYGG-023125$0$LIST
 10
26.769574652555221
 20
10.03407417371101
 30
0.0
  0
SEQEND
  5
1E27
  8
BYGG-023125$0$LIST
  0
POLYLINE
  5
1654
  8
BYGG-023125$0$LIST
 66
     1
 10
0.0
 20
0.0
 30
0.0
  0
VERTEX
  5
1E28
  8
BYGG-023125$0$LIST
 10
28.553855340273739
 20
2.7000000000000339
 30
0.0
  0
VERTEX
  5
1E29
  8
BYGG-023125$0$LIST
 10
27.93644453893258
 20
10.03407417371101
 30
0.0
  0
SEQEND
  5
1E2A
  8
BYGG-023125$0$LIST
  0
POLYLINE
  5
1655
  8
BYGG-023125$0$LIST
 66
     1
 10
0.0
 20
0.0
 30
0.0
  0
VERTEX
  5
1E2B
  8
BYGG-023125$0$LIST
 10
29.012314217007489
 20
2.7000000000000339
 30
0.0
  0
VERTEX
  5
1E2C
  8
BYGG-023125$0$LIST
 10
30.000741956894529
 20
10.03407417371101
 30
0.0
  0
SEQEND
  5
1E2D
  8
BYGG-023125$0$LIST
  0
POLYLINE
  5
1656
  8
BYGG-023125$0$LIST
 66
     1
 10
0.0
 20
0.0
 30
0.0
  0
VERTEX
  5
1E2E
  8
BYGG-023125$0$LIST
 10
29.18507150798786
 20
2.7000000000000339
 30
0.0
  0
VERTEX
  5
1E2F
  8
BYGG-023125$0$LIST
 10
30.980798090752462
 20
10.03407417371101
 30
0.0
  0
SEQEND
  5
1E30
  8
BYGG-023125$0$LIST
  0
LINE
  5
1657
  8
0
 10
28.667949192431159
 20
10.03407417371101
 30
0.0
 11
28.867949192431169
 21
10.03407417371101
 31
0.0
  0
LINE
  5
1658
  8
0
 10
28.867949192431158
 20
2.7000000000000912
 30
0.0
 11
28.867949192431169
 21
10.03407417371101
 31
0.0
  0
LINE
  5
1659
  8
0
 10
28.667949192431159
 20
2.7000000000000912
 30
0.0
 11
28.667949192431159
 21
10.03407417371101
 31
0.0
  0
ENDBLK
  5
165A
  8
0
  0
BLOCK
  8
0
  2
*D101
 70
     1
 10
0.0
 20
0.0
 30
0.0
  3
*D101
  1

  0
LINE
  5
1DAA
  8
SAPA_MATT
 10
44.499999999996419
 20
26.000000373538111
 30
0.0
 11
44.499999999996419
 21
44.049455851048371
 31
0.0
  0
LINE
  5
1DAB
  8
SAPA_MATT
 10
54.499999999996362
 20
1.2000003735378111
 30
0.0
 11
54.499999999996362
 21
44.049455851048371
 31
0.0
  0
LINE
  5
1DAC
  8
SAPA_MATT
 10
47.499999999996419
 20
42.549455851048371
 30
0.0
 11
51.499999999996362
 21
42.549455851048371
 31
0.0
  0
SOLID
  5
1DAD
  8
SAPA_MATT
 10
47.499999999996419
 20
43.049455851048371
 30
0.0
 11
47.499999999996419
 21
42.049455851048357
 31
0.0
 12
44.499999999996419
 22
42.549455851048371
 32
0.0
 13
44.499999999996419
 23
42.549455851048371
 33
0.0
  0
SOLID
  5
1DAE
  8
SAPA_MATT
 10
51.499999999996362
 20
43.049455851048371
 30
0.0
 11
51.499999999996362
 21
42.049455851048357
 31
0.0
 12
54.499999999996362
 22
42.549455851048371
 32
0.0
 13
54.499999999996362
 23
42.549455851048371
 33
0.0
  0
INSERT
  5
1DAF
  8
0
  2
*U111
 10
0.0
 20
0.0
 30
0.0
  0
POINT
  5
1DB0
  8
DEFPOINTS
 62
     0
 10
44.499999999996419
 20
24.500000373538111
 30
0.0
  0
POINT
  5
1DB1
  8
DEFPOINTS
 62
     0
 10
54.499999999996362
 20
-0.2999996264621885
 30
0.0
  0
POINT
  5
1DB2
  8
DEFPOINTS
 62
     0
 10
54.499999999996362
 20
42.549455851048371
 30
0.0
  0
ENDBLK
  5
1D8B
  8
0
  0
BLOCK
  8
0
  2
*D102
 70
     1
 10
0.0
 20
0.0
 30
0.0
  3
*D102
  1

  0
LINE
  5
2750
  8
SAPA_MATT
 10
54.499999999996362
 20
1.2000003735378111
 30
0.0
 11
54.499999999996362
 21
44.065135778491779
 31
0.0
  0
LINE
  5
2751
  8
SAPA_MATT
 10
104.4999999999964
 20
1.2000003735378111
 30
0.0
 11
104.4999999999964
 21
44.065135778491779
 31
0.0
  0
LINE
  5
2752
  8
SAPA_MATT
 10
57.499999999996362
 20
42.565135778491793
 30
0.0
 11
101.4999999999964
 21
42.565135778491793
 31
0.0
  0
SOLID
  5
2753
  8
SAPA_MATT
 10
57.499999999996362
 20
43.065135778491779
 30
0.0
 11
57.499999999996362
 21
42.065135778491779
 31
0.0
 12
54.499999999996362
 22
42.565135778491793
 32
0.0
 13
54.499999999996362
 23
42.565135778491793
 33
0.0
  0
SOLID
  5
2754
  8
SAPA_MATT
 10
101.4999999999964
 20
43.065135778491779
 30
0.0
 11
101.4999999999964
 21
42.065135778491779
 31
0.0
 12
104.4999999999964
 22
42.565135778491793
 32
0.0
 13
104.4999999999964
 23
42.565135778491793
 33
0.0
  0
TEXT
  8
SAPA_MATT
  40
3
  5
275D
  62
2
  72
0
  71
0
 10
73.5000
 20
39.7551
 30
0.000000
  1
50
  7
ISO
  0
POINT
  5
2756
  8
DEFPOINTS
 62
     0
 10
54.499999999996362
 20
-0.2999996264621885
 30
0.0
  0
POINT
  5
2757
  8
DEFPOINTS
 62
     0
 10
104.4999999999964
 20
-0.2999996264621885
 30
0.0
  0
POINT
  5
2758
  8
DEFPOINTS
 62
     0
 10
104.4999999999964
 20
42.565135778491793
 30
0.0
  0
ENDBLK
  5
1D97
  8
0
  0
BLOCK
  8
0
  2
*U103
 70
     1
 10
0.0
 20
0.0
 30
0.0
  3
*U103
  1

  0
TEXT
  5
1E07
  8
SAPA_ARTIKELNR
 10
38.286626583835528
 20
-7.0216004497589548
 30
0.0
 40
3.5
  1
68653
 50
89.999999999999986
  7
ISO
  0
ENDBLK
  5
1E09
  8
0
  0
BLOCK
  8
0
  2
*U104
 70
     1
 10
0.0
 20
0.0
 30
0.0
  3
*U104
  1

  0
TEXT
  5
1E0B
  8
SAPA_ARTIKELNR
 10
52.582217353689707
 20
-2.7833688233102678
 30
0.0
 40
3.5
  1
52070
 50
89.999999999999986
  7
ISO
  0
ENDBLK
  5
1E0D
  8
0
  0
BLOCK
  8
0
  2
*U105
 70
     1
 10
0.0
 20
0.0
 30
0.0
  3
*U105
  1

  0
TEXT
  5
1E0F
  8
SAPA_ARTIKELNR
 10
109.8472202149028
 20
-32.196907918364921
 30
0.0
 40
3.5
  1
68074
 50
89.999999999999986
  7
ISO
  0
ENDBLK
  5
1E11
  8
0
  0
BLOCK
  8
0
  2
*U106
 70
     1
 10
0.0
 20
0.0
 30
0.0
  3
*U106
  1

  0
TEXT
  5
1E13
  8
SAPA_ARTIKELNR
 10
110.20121674069929
 20
-75.283351000033122
 30
0.0
 40
3.5
  1
42072
 50
89.999999999999986
  7
ISO
  0
ENDBLK
  5
1E15
  8
0
  0
BLOCK
  8
0
  2
*X107
 70
     1
 10
0.0
 20
0.0
 30
0.0
  3
*X107
  1

  0
LINE
  5
24C5
  8
0
 62
     0
 10
-63.372123264221607
 20
-24.447500000000002
 30
0.0
 11
-41.627876733616148
 21
-24.447500000000002
 31
0.0
  0
LINE
  5
24C6
  8
0
 62
     0
 10
-63.776585187049918
 20
-23.33625
 30
0.0
 11
-41.22341481078783
 21
-23.33625
 31
0.0
  0
LINE
  5
24C7
  8
0
 62
     0
 10
-42.947308432911299
 20
-22.225000000000001
 30
0.0
 11
-40.818952887959533
 21
-22.225000000000001
 31
0.0
  0
LINE
  5
24C8
  8
0
 62
     0
 10
-64.181047109878222
 20
-22.225000000000001
 30
0.0
 11
-62.05269156492642
 21
-22.225000000000001
 31
0.0
  0
LINE
  5
24C9
  8
0
 62
     0
 10
-39.631136872385092
 20
-22.225000000000001
 30
0.0
 11
-37.499999998918888
 21
-22.225000000000001
 31
0.0
  0
LINE
  5
24CA
  8
0
 62
     0
 10
-67.499999998918895
 20
-22.225000000000001
 30
0.0
 11
-65.368863125452592
 21
-22.225000000000001
 31
0.0
  0
LINE
  5
24CB
  8
0
 62
     0
 10
-42.542846510082988
 20
-21.11375
 30
0.0
 11
-37.499999998918867
 21
-21.11375
 31
0.0
  0
LINE
  5
24CC
  8
0
 62
     0
 10
-67.499999998918895
 20
-21.11375
 30
0.0
 11
-62.457153487754731
 21
-21.11375
 31
0.0
  0
LINE
  5
24CD
  8
0
 62
     0
 10
-40.260096422327848
 20
-20.002500000000001
 30
0.0
 11
-37.499999998918859
 21
-20.002500000000001
 31
0.0
  0
LINE
  5
24CE
  8
0
 62
     0
 10
-67.499999998918895
 20
-20.002500000000001
 30
0.0
 11
-64.739903575513836
 21
-20.002500000000001
 31
0.0
  0
ENDBLK
  5
24D0
  8
0
  0
BLOCK
  8
0
  2
*X108
 70
     1
 10
0.0
 20
0.0
 30
0.0
  3
*X108
  1

  0
LINE
  5
24D2
  8
0
 62
     0
 10
-66.388750149734662
 20
-7.0736521207108618
 30
0.0
 11
-66.388750149734662
 21
-10.87613020762053
 31
0.0
  0
LINE
  5
24D3
  8
0
 62
     0
 10
-65.277500149734664
 20
-8.106728331474498
 30
0.0
 11
-65.277500149734664
 21
-10.23454972098358
 31
0.0
  0
LINE
  5
24D4
  8
0
 62
     0
 10
-64.166250149734665
 20
-7.7343456861231177
 30
0.0
 11
-64.166250149734665
 21
-9.9743349342099776
 31
0.0
  0
LINE
  5
24D5
  8
0
 62
     0
 10
-63.05500014973466
 20
-5.1030948324285408
 30
0.0
 11
-63.05500014973466
 21
-9.8412870711687752
 31
0.0
  0
LINE
  5
24D6
  8
0
 62
     0
 10
-61.943750149734662
 20
-5.0795952152120547
 30
0.0
 11
-61.943750149734662
 21
-7.4756859217113076
 31
0.0
  0
LINE
  5
24D7
  8
0
 62
     0
 10
-60.832500149734663
 20
-5.0795952152120591
 30
0.0
 11
-60.832500149734663
 21
-6.879595215212011
 31
0.0
  0
LINE
  5
24D8
  8
0
 62
     0
 10
-59.721250149734658
 20
-5.0795952152120609
 30
0.0
 11
-59.721250149734658
 21
-6.8795952152120181
 31
0.0
  0
LINE
  5
24D9
  8
0
 62
     0
 10
-58.61000014973466
 20
-5.0795952152120654
 30
0.0
 11
-58.61000014973466
 21
-6.8795952152120261
 31
0.0
  0
LINE
  5
24DA
  8
0
 62
     0
 10
-57.498750149734661
 20
-5.079595215212068
 30
0.0
 11
-57.498750149734661
 21
-6.8795952152120332
 31
0.0
  0
LINE
  5
24DB
  8
0
 62
     0
 10
-56.387500149734663
 20
-5.0795952152120707
 30
0.0
 11
-56.387500149734663
 21
-6.8795952152120403
 31
0.0
  0
LINE
  5
24DC
  8
0
 62
     0
 10
-55.276250149734658
 20
-5.0795952152120751
 30
0.0
 11
-55.276250149734658
 21
-6.8795952152120492
 31
0.0
  0
LINE
  5
24DD
  8
0
 62
     0
 10
-54.165000149734666
 20
-5.0795952152120778
 30
0.0
 11
-54.165000149734666
 21
-6.8795952152120554
 31
0.0
  0
LINE
  5
24DE
  8
0
 62
     0
 10
-53.053750149734661
 20
-5.0795952152120813
 30
0.0
 11
-53.053750149734661
 21
-6.8795952152120616
 31
0.0
  0
LINE
  5
24DF
  8
0
 62
     0
 10
-51.942500149734663
 20
-5.0795952152120858
 30
0.0
 11
-51.942500149734663
 21
-6.8795952152120643
 31
0.0
  0
LINE
  5
24E0
  8
0
 62
     0
 10
-50.83125014973465
 20
-5.079595215212092
 30
0.0
 11
-50.83125014973465
 21
-6.8795952152120652
 31
0.0
  0
LINE
  5
24E1
  8
0
 62
     0
 10
-49.720000149734659
 20
-5.0795952152120991
 30
0.0
 11
-49.720000149734659
 21
-6.8795952152120652
 31
0.0
  0
LINE
  5
24E2
  8
0
 62
     0
 10
-48.608750149734661
 20
-5.0795952152121053
 30
0.0
 11
-48.608750149734661
 21
-6.8795952152120661
 31
0.0
  0
LINE
  5
24E3
  8
0
 62
     0
 10
-47.497500149734663
 20
-5.0795952152121107
 30
0.0
 11
-47.497500149734663
 21
-6.8795952152120661
 31
0.0
  0
LINE
  5
24E4
  8
0
 62
     0
 10
-46.386250149734657
 20
-5.0795952152121169
 30
0.0
 11
-46.386250149734657
 21
-6.8795952152120661
 31
0.0
  0
LINE
  5
24E5
  8
0
 62
     0
 10
-45.275000149734659
 20
-5.0795952152121231
 30
0.0
 11
-45.275000149734659
 21
-6.8795952152120661
 31
0.0
  0
LINE
  5
24E6
  8
0
 62
     0
 10
-44.163750149734668
 20
-5.0795952152121311
 30
0.0
 11
-44.163750149734668
 21
-6.879595215212067
 31
0.0
  0
LINE
  5
24E7
  8
0
 62
     0
 10
-43.052500149734662
 20
-5.0795952152121373
 30
0.0
 11
-43.052500149734662
 21
-7.4859881333082914
 31
0.0
  0
LINE
  5
24E8
  8
0
 62
     0
 10
-41.941250149734657
 20
-5.1044613247894821
 30
0.0
 11
-41.941250149734657
 21
-9.8434319267387629
 31
0.0
  0
LINE
  5
24E9
  8
0
 62
     0
 10
-40.830000149734673
 20
-7.7446478977201378
 30
0.0
 11
-40.830000149734673
 21
-9.9743349342101197
 31
0.0
  0
LINE
  5
24EA
  8
0
 62
     0
 10
-39.71875014973466
 20
-8.1041005550305272
 30
0.0
 11
-39.71875014973466
 21
-10.23671461034597
 31
0.0
  0
LINE
  5
24EB
  8
0
 62
     0
 10
-38.607500149734662
 20
-7.0703522992450836
 30
0.0
 11
-38.607500149734662
 21
-10.878295096982979
 31
0.0
  0
ENDBLK
  5
24ED
  8
0
  0
BLOCK
  8
0
  2
*X109
 70
     1
 10
0.0
 20
0.0
 30
0.0
  3
*X109
  1

  0
LINE
  5
2535
  8
0
 62
     0
 10
-63.372123264221607
 20
-24.447500000000002
 30
0.0
 11
-41.627876733616148
 21
-24.447500000000002
 31
0.0
  0
LINE
  5
2536
  8
0
 62
     0
 10
-63.776585187049918
 20
-23.33625
 30
0.0
 11
-41.22341481078783
 21
-23.33625
 31
0.0
  0
LINE
  5
2537
  8
0
 62
     0
 10
-42.947308432911299
 20
-22.225000000000001
 30
0.0
 11
-40.818952887959533
 21
-22.225000000000001
 31
0.0
  0
LINE
  5
2538
  8
0
 62
     0
 10
-64.181047109878222
 20
-22.225000000000001
 30
0.0
 11
-62.05269156492642
 21
-22.225000000000001
 31
0.0
  0
LINE
  5
2539
  8
0
 62
     0
 10
-39.631136872385092
 20
-22.225000000000001
 30
0.0
 11
-37.499999998918888
 21
-22.225000000000001
 31
0.0
  0
LINE
  5
253A
  8
0
 62
     0
 10
-67.499999998918895
 20
-22.225000000000001
 30
0.0
 11
-65.368863125452592
 21
-22.225000000000001
 31
0.0
  0
LINE
  5
253B
  8
0
 62
     0
 10
-42.542846510082988
 20
-21.11375
 30
0.0
 11
-37.499999998918867
 21
-21.11375
 31
0.0
  0
LINE
  5
253C
  8
0
 62
     0
 10
-67.499999998918895
 20
-21.11375
 30
0.0
 11
-62.457153487754731
 21
-21.11375
 31
0.0
  0
LINE
  5
253D
  8
0
 62
     0
 10
-40.260096422327848
 20
-20.002500000000001
 30
0.0
 11
-37.499999998918859
 21
-20.002500000000001
 31
0.0
  0
LINE
  5
253E
  8
0
 62
     0
 10
-67.499999998918895
 20
-20.002500000000001
 30
0.0
 11
-64.739903575513836
 21
-20.002500000000001
 31
0.0
  0
ENDBLK
  5
2540
  8
0
  0
BLOCK
  8
0
  2
*X110
 70
     1
 10
0.0
 20
0.0
 30
0.0
  3
*X110
  1

  0
LINE
  5
2542
  8
0
 62
     0
 10
-66.388750149734662
 20
-7.0736521207108618
 30
0.0
 11
-66.388750149734662
 21
-10.87613020762053
 31
0.0
  0
LINE
  5
2543
  8
0
 62
     0
 10
-65.277500149734664
 20
-8.106728331474498
 30
0.0
 11
-65.277500149734664
 21
-10.23454972098358
 31
0.0
  0
LINE
  5
2544
  8
0
 62
     0
 10
-64.166250149734665
 20
-7.7343456861231177
 30
0.0
 11
-64.166250149734665
 21
-9.9743349342099776
 31
0.0
  0
LINE
  5
2545
  8
0
 62
     0
 10
-63.05500014973466
 20
-5.1030948324285408
 30
0.0
 11
-63.05500014973466
 21
-9.8412870711687752
 31
0.0
  0
LINE
  5
2546
  8
0
 62
     0
 10
-61.943750149734662
 20
-5.0795952152120547
 30
0.0
 11
-61.943750149734662
 21
-7.4756859217113076
 31
0.0
  0
LINE
  5
2547
  8
0
 62
     0
 10
-60.832500149734663
 20
-5.0795952152120591
 30
0.0
 11
-60.832500149734663
 21
-6.879595215212011
 31
0.0
  0
LINE
  5
2548
  8
0
 62
     0
 10
-59.721250149734658
 20
-5.0795952152120609
 30
0.0
 11
-59.721250149734658
 21
-6.8795952152120181
 31
0.0
  0
LINE
  5
2549
  8
0
 62
     0
 10
-58.61000014973466
 20
-5.0795952152120654
 30
0.0
 11
-58.61000014973466
 21
-6.8795952152120261
 31
0.0
  0
LINE
  5
254A
  8
0
 62
     0
 10
-57.498750149734661
 20
-5.079595215212068
 30
0.0
 11
-57.498750149734661
 21
-6.8795952152120332
 31
0.0
  0
LINE
  5
254B
  8
0
 62
     0
 10
-56.387500149734663
 20
-5.0795952152120707
 30
0.0
 11
-56.387500149734663
 21
-6.8795952152120403
 31
0.0
  0
LINE
  5
254C
  8
0
 62
     0
 10
-55.276250149734658
 20
-5.0795952152120751
 30
0.0
 11
-55.276250149734658
 21
-6.8795952152120492
 31
0.0
  0
LINE
  5
254D
  8
0
 62
     0
 10
-54.165000149734666
 20
-5.0795952152120778
 30
0.0
 11
-54.165000149734666
 21
-6.8795952152120554
 31
0.0
  0
LINE
  5
254E
  8
0
 62
     0
 10
-53.053750149734661
 20
-5.0795952152120813
 30
0.0
 11
-53.053750149734661
 21
-6.8795952152120616
 31
0.0
  0
LINE
  5
254F
  8
0
 62
     0
 10
-51.942500149734663
 20
-5.0795952152120858
 30
0.0
 11
-51.942500149734663
 21
-6.8795952152120643
 31
0.0
  0
LINE
  5
2550
  8
0
 62
     0
 10
-50.83125014973465
 20
-5.079595215212092
 30
0.0
 11
-50.83125014973465
 21
-6.8795952152120652
 31
0.0
  0
LINE
  5
2551
  8
0
 62
     0
 10
-49.720000149734659
 20
-5.0795952152120991
 30
0.0
 11
-49.720000149734659
 21
-6.8795952152120652
 31
0.0
  0
LINE
  5
2552
  8
0
 62
     0
 10
-48.608750149734661
 20
-5.0795952152121053
 30
0.0
 11
-48.608750149734661
 21
-6.8795952152120661
 31
0.0
  0
LINE
  5
2553
  8
0
 62
     0
 10
-47.497500149734663
 20
-5.0795952152121107
 30
0.0
 11
-47.497500149734663
 21
-6.8795952152120661
 31
0.0
  0
LINE
  5
2554
  8
0
 62
     0
 10
-46.386250149734657
 20
-5.0795952152121169
 30
0.0
 11
-46.386250149734657
 21
-6.8795952152120661
 31
0.0
  0
LINE
  5
2555
  8
0
 62
     0
 10
-45.275000149734659
 20
-5.0795952152121231
 30
0.0
 11
-45.275000149734659
 21
-6.8795952152120661
 31
0.0
  0
LINE
  5
2556
  8
0
 62
     0
 10
-44.163750149734668
 20
-5.0795952152121311
 30
0.0
 11
-44.163750149734668
 21
-6.879595215212067
 31
0.0
  0
LINE
  5
2557
  8
0
 62
     0
 10
-43.052500149734662
 20
-5.0795952152121373
 30
0.0
 11
-43.052500149734662
 21
-7.4859881333082914
 31
0.0
  0
LINE
  5
2558
  8
0
 62
     0
 10
-41.941250149734657
 20
-5.1044613247894821
 30
0.0
 11
-41.941250149734657
 21
-9.8434319267387629
 31
0.0
  0
LINE
  5
2559
  8
0
 62
     0
 10
-40.830000149734673
 20
-7.7446478977201378
 30
0.0
 11
-40.830000149734673
 21
-9.9743349342101197
 31
0.0
  0
LINE
  5
255A
  8
0
 62
     0
 10
-39.71875014973466
 20
-8.1041005550305272
 30
0.0
 11
-39.71875014973466
 21
-10.23671461034597
 31
0.0
  0
LINE
  5
255B
  8
0
 62
     0
 10
-38.607500149734662
 20
-7.0703522992450836
 30
0.0
 11
-38.607500149734662
 21
-10.878295096982979
 31
0.0
  0
ENDBLK
  5
255D
  8
0
  0
BLOCK
  8
0
  2
*U111
 70
     1
 10
0.0
 20
0.0
 30
0.0
  3
*U111
  1

  0
TEXT
  5
275A
  8
SAPA_MATT
 62
     2
 10
47.699999999996393
 20
43.549455851048371
 30
0.0
 40
3.0
  1
10
  7
ISO
  0
ENDBLK
  5
275C
  8
0
  0
ENDSEC
  0
SECTION
  2
ENTITIES
  0
POLYLINE
  5
7BD
  8
SAPA_ANSLUTNING
 66
     1
 10
0.0
 20
0.0
 30
0.0
 70
     1
  0
VERTEX
  5
1DE5
  8
SAPA_ANSLUTNING
 10
44.034351585444668
 20
-25.000000000044391
 30
0.0
  0
VERTEX
  5
1DE6
  8
SAPA_ANSLUTNING
 10
44.034351585444668
 20
-35.000000000044402
 30
0.0
  0
VERTEX
  5
1DE7
  8
SAPA_ANSLUTNING
 10
-87.870947344014368
 20
-35.000000000010857
 30
0.0
  0
VERTEX
  5
1DE8
  8
SAPA_ANSLUTNING
 10
-87.870947344014368
 20
-25.000000000011308
 30
0.0
  0
SEQEND
  5
1DE9
  8
SAPA_ANSLUTNING
  0
POLYLINE
  5
7BE
  8
SAPA_ANSLUTNING
 66
     1
 10
0.0
 20
0.0
 30
0.0
 70
     1
  0
VERTEX
  5
1DEA
  8
SAPA_ANSLUTNING
 10
-89.503444366294474
 20
-13.732332399362519
 30
0.0
  0
VERTEX
  5
1DEB
  8
SAPA_ANSLUTNING
 10
-91.003444366294474
 20
-13.732332399362519
 30
0.0
  0
VERTEX
  5
1DEC
  8
SAPA_ANSLUTNING
 10
-91.003444366294474
 20
-35.749999626460699
 30
0.0
 42
0.4142135623730506
  0
VERTEX
  5
1DED
  8
SAPA_ANSLUTNING
 10
-90.253444366294488
 20
-36.499999626460813
 30
0.0
  0
VERTEX
  5
1DEE
  8
SAPA_ANSLUTNING
 10
44.249999999996199
 20
-36.499999626461829
 30
0.0
 42
0.4142135623730189
  0
VERTEX
  5
1DEF
  8
SAPA_ANSLUTNING
 10
45.999999999996199
 20
-34.749999626461829
 30
0.0
  0
VERTEX
  5
1DF0
  8
SAPA_ANSLUTNING
 10
45.999999999996433
 20
-21.45158854476113
 30
0.0
  0
VERTEX
  5
1DF1
  8
SAPA_ANSLUTNING
 10
44.499999999996433
 20
-21.45158854476113
 30
0.0
  0
VERTEX
  5
1DF2
  8
SAPA_ANSLUTNING
 10
44.499999999996199
 20
-33.749999626461488
 30
0.0
 42
-0.5023077262434882
  0
VERTEX
  5
1DF3
  8
SAPA_ANSLUTNING
 10
43.749999999996199
 20
-34.999999626461488
 30
0.0
  0
VERTEX
  5
1DF4
  8
SAPA_ANSLUTNING
 10
-88.253444366294474
 20
-34.999999626460692
 30
0.0
 42
-0.4142135623731483
  0
VERTEX
  5
1DF5
  8
SAPA_ANSLUTNING
 10
-89.503444366294474
 20
-33.749999626460692
 30
0.0
  0
SEQEND
  5
1DF6
  8
SAPA_ANSLUTNING
  0
POLYLINE
  5
7C7
  8
SAPA_ANSLUTNING
 66
     1
 10
0.0
 20
0.0
 30
0.0
  0
VERTEX
  5
1DF7
  8
SAPA_ANSLUTNING
 10
-86.999998427363835
 20
-25.000000000010751
 30
0.0
  0
VERTEX
  5
1DF8
  8
SAPA_ANSLUTNING
 10
-75.990813080901432
 20
-35.00918534647321
 30
0.0
  0
VERTEX
  5
1DF9
  8
SAPA_ANSLUTNING
 10
-65.98162773443903
 20
-25.000000000010751
 30
0.0
  0
VERTEX
  5
1DFA
  8
SAPA_ANSLUTNING
 10
-55.972442387976628
 20
-35.00918534647321
 30
0.0
  0
VERTEX
  5
1DFB
  8
SAPA_ANSLUTNING
 10
-45.972442387984593
 20
-25.009185346481161
 30
0.0
  0
VERTEX
  5
1DFC
  8
SAPA_ANSLUTNING
 10
-35.972442387992537
 20
-35.00918534647321
 30
0.0
  0
VERTEX
  5
1DFD
  8
SAPA_ANSLUTNING
 10
-25.963257041530142
 20
-25.000000000010751
 30
0.0
  0
VERTEX
  5
1DFE
  8
SAPA_ANSLUTNING
 10
-15.954071695067739
 20
-35.00918534647321
 30
0.0
  0
VERTEX
  5
1DFF
  8
SAPA_ANSLUTNING
 10
-5.954071695085644
 20
-25.009185346491162
 30
0.0
  0
VERTEX
  5
1E00
  8
SAPA_ANSLUTNING
 10
4.0459283048964494
 20
-35.00918534647321
 30
0.0
  0
VERTEX
  5
1E01
  8
SAPA_ANSLUTNING
 10
14.05511365135885
 20
-25.000000000010751
 30
0.0
  0
VERTEX
  5
1E02
  8
SAPA_ANSLUTNING
 10
24.06429899782125
 20
-35.00918534647321
 30
0.0
  0
VERTEX
  5
1E03
  8
SAPA_ANSLUTNING
 10
34.064298997813239
 20
-25.009185346481161
 30
0.0
  0
VERTEX
  5
1E04
  8
SAPA_ANSLUTNING
 10
44.064298997805281
 20
-35.00918534647321
 30
0.0
  0
SEQEND
  5
1E05
  8
SAPA_ANSLUTNING
  0
INSERT
  5
7CE
  8
0
  2
*U103
 10
0.0
 20
0.0
 30
0.0
  0
LINE
  5
A84
  8
SAPA_GLAS
 10
-83.332392354088157
 20
8.1554691837863693
 30
0.0
 11
-82.350409106102603
 21
11.0000000000288
 31
0.0
  0
LINE
  5
F78
  8
SAPA_GLAS
 10
-83.332392354088157
 20
-8.1554691837893323
 30
0.0
 11
-82.599999998918165
 21
-11.00000000003177
 31
0.0
  0
ARC
  5
F7F
  8
SAPA_GLAS
 10
-152.73081917898909
 20
5.1212757663688571
 30
0.0
 40
62.010107523888337
 50
344.93123173916041
 51
5.4399628158935656
  0
ARC
  5
F80
  8
SAPA_GLAS
 10
-31.577137293194198
 20
-0.0000000000026112
 30
0.0
 40
52.457142857141569
 50
171.05599162060551
 51
188.9440083793944
  0
LINE
  5
12A0
  8
SAPA_GLAS
 10
-85.000000000480981
 20
11.00000074707277
 30
0.0
 11
-81.900000000983397
 21
11.00000074707277
 31
0.0
  0
LINE
  5
12A1
  8
SAPA_GLAS
 10
-81.900000000983397
 20
11.00000074707277
 30
0.0
 11
-81.900000000983354
 21
20.000000747076559
 31
0.0
  0
LINE
  5
12A2
  8
SAPA_GLAS
 10
-81.900000000983354
 20
20.000000747076559
 30
0.0
 11
-85.000000000480981
 21
20.000000747076559
 31
0.0
  0
ARC
  5
12A3
  8
SAPA_GLAS
 10
-81.927472822962656
 20
44.384362071676847
 30
0.0
 40
8.2592372925440731
 50
248.16030517098099
 51
291.50337180106641
  0
INSERT
  5
13C7
  8
0
  2
*U104
 10
0.0
 20
0.0
 30
0.0
  0
INSERT
  5
13CC
  8
0
  2
*U105
 10
0.0
 20
0.0
 30
0.0
  0
INSERT
  5
13CD
  8
0
  2
*U106
 10
0.0
 20
0.0
 30
0.0
  0
LINE
  5
1886
  8
SAPA_GLAS
 10
-50.910857607580581
 20
54.271211129458941
 30
0.0
 11
-50.910857607580581
 21
13.00000074707277
 31
0.0
  0
LINE
  5
1887
  8
SAPA_GLAS
 10
-50.910857607580581
 20
13.00000074707277
 30
0.0
 11
-42.910857607580589
 21
13.00000074707277
 31
0.0
  0
LINE
  5
1888
  8
SAPA_GLAS
 10
-42.910857607580589
 20
13.00000074707277
 30
0.0
 11
-42.910857607580589
 21
54.271211129458941
 31
0.0
  0
LINE
  5
18A9
  8
SAPA_GLAS
 10
-91.000000000480981
 20
52.271211129458933
 30
0.0
 11
-91.000000000480981
 21
11.00000074707277
 31
0.0
  0
LINE
  5
18AA
  8
SAPA_GLAS
 10
-91.000000000480981
 20
11.00000074707277
 30
0.0
 11
-85.000000000480981
 21
11.00000074707277
 31
0.0
  0
LINE
  5
18AB
  8
SAPA_GLAS
 10
-85.000000000480981
 20
11.00000074707277
 30
0.0
 11
-85.000000000480981
 21
52.271211129458933
 31
0.0
  0
LINE
  5
18AC
  8
SAPA_GLAS
 10
-85.000000000480981
 20
19.24741460389998
 30
0.0
 11
-84.931250000000361
 21
19.24741460389998
 31
0.0
1001
GRADIENTCOLOR1ACI
1070
     5
1001
GRADIENTCOLOR2ACI
1070
     2
1001
ACAD
1010
0.0
1020
0.0
1030
0.0
  0
LINE
  5
18AD
  8
SAPA_GLAS
 10
-83.343750000000355
 20
19.24741460389998
 30
0.0
 11
-82.550000000000367
 21
19.24741460389998
 31
0.0
1001
GRADIENTCOLOR1ACI
1070
     5
1001
GRADIENTCOLOR2ACI
1070
     2
1001
ACAD
1010
0.0
1020
0.0
1030
0.0
  0
LINE
  5
18AE
  8
SAPA_GLAS
 10
-85.000000000480981
 20
17.872599275049978
 30
0.0
 11
-84.931250000000361
 21
17.872599275049978
 31
0.0
1001
GRADIENTCOLOR1ACI
1070
     5
1001
GRADIENTCOLOR2ACI
1070
     2
1001
ACAD
1010
0.0
1020
0.0
1030
0.0
  0
LINE
  5
18AF
  8
SAPA_GLAS
 10
-83.343750000000355
 20
17.872599275049978
 30
0.0
 11
-82.550000000000367
 21
17.872599275049978
 31
0.0
1001
GRADIENTCOLOR1ACI
1070
     5
1001
GRADIENTCOLOR2ACI
1070
     2
1001
ACAD
1010
0.0
1020
0.0
1030
0.0
  0
LINE
  5
18B0
  8
SAPA_GLAS
 10
-85.000000000480981
 20
16.497783946199981
 30
0.0
 11
-84.931250000000361
 21
16.497783946199981
 31
0.0
1001
GRADIENTCOLOR1ACI
1070
     5
1001
GRADIENTCOLOR2ACI
1070
     2
1001
ACAD
1010
0.0
1020
0.0
1030
0.0
  0
LINE
  5
18B1
  8
SAPA_GLAS
 10
-83.343750000000355
 20
16.497783946199981
 30
0.0
 11
-82.550000000000367
 21
16.497783946199981
 31
0.0
1001
GRADIENTCOLOR1ACI
1070
     5
1001
GRADIENTCOLOR2ACI
1070
     2
1001
ACAD
1010
0.0
1020
0.0
1030
0.0
  0
LINE
  5
18B2
  8
SAPA_GLAS
 10
-85.000000000480981
 20
15.122968617349979
 30
0.0
 11
-84.931250000000361
 21
15.122968617349979
 31
0.0
1001
GRADIENTCOLOR1ACI
1070
     5
1001
GRADIENTCOLOR2ACI
1070
     2
1001
ACAD
1010
0.0
1020
0.0
1030
0.0
  0
LINE
  5
18B3
  8
SAPA_GLAS
 10
-83.343750000000355
 20
15.122968617349979
 30
0.0
 11
-82.550000000000367
 21
15.122968617349979
 31
0.0
1001
GRADIENTCOLOR1ACI
1070
     5
1001
GRADIENTCOLOR2ACI
1070
     2
1001
ACAD
1010
0.0
1020
0.0
1030
0.0
  0
LINE
  5
18B4
  8
SAPA_GLAS
 10
-85.000000000480981
 20
13.74815328849998
 30
0.0
 11
-84.931250000000361
 21
13.74815328849998
 31
0.0
1001
GRADIENTCOLOR1ACI
1070
     5
1001
GRADIENTCOLOR2ACI
1070
     2
1001
ACAD
1010
0.0
1020
0.0
1030
0.0
  0
LINE
  5
18B5
  8
SAPA_GLAS
 10
-83.343750000000355
 20
13.74815328849998
 30
0.0
 11
-82.550000000000367
 21
13.74815328849998
 31
0.0
1001
GRADIENTCOLOR1ACI
1070
     5
1001
GRADIENTCOLOR2ACI
1070
     2
1001
ACAD
1010
0.0
1020
0.0
1030
0.0
  0
LINE
  5
18B6
  8
SAPA_GLAS
 10
-85.000000000480981
 20
12.37333795964998
 30
0.0
 11
-84.931250000000361
 21
12.37333795964998
 31
0.0
1001
GRADIENTCOLOR1ACI
1070
     5
1001
GRADIENTCOLOR2ACI
1070
     2
1001
ACAD
1010
0.0
1020
0.0
1030
0.0
  0
LINE
  5
18B7
  8
SAPA_GLAS
 10
-83.343750000000355
 20
12.37333795964998
 30
0.0
 11
-82.550000000000367
 21
12.37333795964998
 31
0.0
1001
GRADIENTCOLOR1ACI
1070
     5
1001
GRADIENTCOLOR2ACI
1070
     2
1001
ACAD
1010
0.0
1020
0.0
1030
0.0
  0
LINE
  5
18B8
  8
SAPA_GLAS
 10
-84.534375014521828
 20
11.68593028393226
 30
0.0
 11
-84.931250014521837
 21
12.37333794818616
 31
0.0
1001
GRADIENTCOLOR1ACI
1070
     5
1001
GRADIENTCOLOR2ACI
1070
     2
1001
ACAD
1010
0.0
1020
0.0
1030
0.0
  0
LINE
  5
18B9
  8
SAPA_GLAS
 10
-83.343750014225478
 20
12.373337948357269
 30
0.0
 11
-83.740625014225486
 21
13.06074561261117
 31
0.0
1001
GRADIENTCOLOR1ACI
1070
     5
1001
GRADIENTCOLOR2ACI
1070
     2
1001
ACAD
1010
0.0
1020
0.0
1030
0.0
  0
LINE
  5
18BA
  8
SAPA_GLAS
 10
-84.534375014225475
 20
14.435560941118959
 30
0.0
 11
-84.931250014225455
 21
15.12296860537286
 31
0.0
1001
GRADIENTCOLOR1ACI
1070
     5
1001
GRADIENTCOLOR2ACI
1070
     2
1001
ACAD
1010
0.0
1020
0.0
1030
0.0
  0
LINE
  5
18BB
  8
SAPA_GLAS
 10
-82.153125013929127
 20
13.060745612782259
 30
0.0
 11
-82.550000013929136
 21
13.74815327703616
 31
0.0
1001
GRADIENTCOLOR1ACI
1070
     5
1001
GRADIENTCOLOR2ACI
1070
     2
1001
ACAD
1010
0.0
1020
0.0
1030
0.0
  0
LINE
  5
18BC
  8
SAPA_GLAS
 10
-83.343750013929125
 20
15.12296860554396
 30
0.0
 11
-83.740625013929105
 21
15.81037626979785
 31
0.0
1001
GRADIENTCOLOR1ACI
1070
     5
1001
GRADIENTCOLOR2ACI
1070
     2
1001
ACAD
1010
0.0
1020
0.0
1030
0.0
  0
LINE
  5
18BD
  8
SAPA_GLAS
 10
-84.534375013929122
 20
17.18519159830565
 30
0.0
 11
-84.931250013929116
 21
17.87259926255955
 31
0.0
1001
GRADIENTCOLOR1ACI
1070
     5
1001
GRADIENTCOLOR2ACI
1070
     2
1001
ACAD
1010
0.0
1020
0.0
1030
0.0
  0
LINE
  5
18BE
  8
SAPA_GLAS
 10
-82.153125013632746
 20
15.81037626996895
 30
0.0
 11
-82.55000001363274
 21
16.497783934222849
 31
0.0
1001
GRADIENTCOLOR1ACI
1070
     5
1001
GRADIENTCOLOR2ACI
1070
     2
1001
ACAD
1010
0.0
1020
0.0
1030
0.0
  0
LINE
  5
18BF
  8
SAPA_GLAS
 10
-83.343750013632743
 20
17.872599262730649
 30
0.0
 11
-83.740625013632737
 21
18.560006926984538
 31
0.0
1001
GRADIENTCOLOR1ACI
1070
     5
1001
GRADIENTCOLOR2ACI
1070
     2
1001
ACAD
1010
0.0
1020
0.0
1030
0.0
  0
LINE
  5
18C0
  8
SAPA_GLAS
 10
-84.534375013632726
 20
19.934822255492339
 30
0.0
 11
-84.57200583329427
 21
20.00000074707658
 31
0.0
1001
GRADIENTCOLOR1ACI
1070
     5
1001
GRADIENTCOLOR2ACI
1070
     2
1001
ACAD
1010
0.0
1020
0.0
1030
0.0
  0
LINE
  5
18C1
  8
SAPA_GLAS
 10
-82.153125013336407
 20
18.560006927155651
 30
0.0
 11
-82.550000013336387
 21
19.247414591409552
 31
0.0
1001
GRADIENTCOLOR1ACI
1070
     5
1001
GRADIENTCOLOR2ACI
1070
     2
1001
ACAD
1010
0.0
1020
0.0
1030
0.0
  0
LINE
  5
18C2
  8
SAPA_GLAS
 10
-84.931250018078131
 20
19.24741460954635
 30
0.0
 11
-84.534375018078137
 21
19.934822273800251
 31
0.0
1001
GRADIENTCOLOR1ACI
1070
     5
1001
GRADIENTCOLOR2ACI
1070
     2
1001
ACAD
1010
0.0
1020
0.0
1030
0.0
  0
LINE
  5
18C3
  8
SAPA_GLAS
 10
-84.931250017781778
 20
16.497783952359651
 30
0.0
 11
-84.534375017781784
 21
17.185191616613551
 31
0.0
1001
GRADIENTCOLOR1ACI
1070
     5
1001
GRADIENTCOLOR2ACI
1070
     2
1001
ACAD
1010
0.0
1020
0.0
1030
0.0
  0
LINE
  5
18C4
  8
SAPA_GLAS
 10
-83.740625017781781
 20
18.560006945121341
 30
0.0
 11
-83.343750017781787
 21
19.247414609375241
 31
0.0
1001
GRADIENTCOLOR1ACI
1070
     5
1001
GRADIENTCOLOR2ACI
1070
     2
1001
ACAD
1010
0.0
1020
0.0
1030
0.0
  0
LINE
  5
18C5
  8
SAPA_GLAS
 10
-84.931250017485397
 20
13.74815329517296
 30
0.0
 11
-84.534375017485402
 21
14.43556095942686
 31
0.0
1001
GRADIENTCOLOR1ACI
1070
     5
1001
GRADIENTCOLOR2ACI
1070
     2
1001
ACAD
1010
0.0
1020
0.0
1030
0.0
  0
LINE
  5
18C6
  8
SAPA_GLAS
 10
-83.740625017485385
 20
15.810376287934661
 30
0.0
 11
-83.343750017485405
 21
16.497783952188559
 31
0.0
1001
GRADIENTCOLOR1ACI
1070
     5
1001
GRADIENTCOLOR2ACI
1070
     2
1001
ACAD
1010
0.0
1020
0.0
1030
0.0
  0
LINE
  5
18C7
  8
SAPA_GLAS
 10
-82.550000017485388
 20
17.872599280696349
 30
0.0
 11
-82.153125017485394
 21
18.560006944950249
 31
0.0
1001
GRADIENTCOLOR1ACI
1070
     5
1001
GRADIENTCOLOR2ACI
1070
     2
1001
ACAD
1010
0.0
1020
0.0
1030
0.0
  0
LINE
  5
18C8
  8
SAPA_GLAS
 10
-84.930396630510046
 20
11.00000074707277
 30
0.0
 11
-84.534375017189049
 21
11.685930302240161
 31
0.0
1001
GRADIENTCOLOR1ACI
1070
     5
1001
GRADIENTCOLOR2ACI
1070
     2
1001
ACAD
1010
0.0
1020
0.0
1030
0.0
  0
LINE
  5
18C9
  8
SAPA_GLAS
 10
-83.740625017189046
 20
13.060745630747959
 30
0.0
 11
-83.343750017189052
 21
13.74815329500186
 31
0.0
1001
GRADIENTCOLOR1ACI
1070
     5
1001
GRADIENTCOLOR2ACI
1070
     2
1001
ACAD
1010
0.0
1020
0.0
1030
0.0
  0
LINE
  5
18CA
  8
SAPA_GLAS
 10
-82.550000017189035
 20
15.12296862350966
 30
0.0
 11
-82.153125017189055
 21
15.81037628776355
 31
0.0
1001
GRADIENTCOLOR1ACI
1070
     5
1001
GRADIENTCOLOR2ACI
1070
     2
1001
ACAD
1010
0.0
1020
0.0
1030
0.0
  0
LINE
  5
18CB
  8
SAPA_GLAS
 10
-82.55000001689271
 20
12.373337966322961
 30
0.0
 11
-82.153125016892716
 21
13.060745630576861
 31
0.0
1001
GRADIENTCOLOR1ACI
1070
     5
1001
GRADIENTCOLOR2ACI
1070
     2
1001
ACAD
1010
0.0
1020
0.0
1030
0.0
  0
LINE
  5
18EC
  8
SAPA_GLAS
 10
-85.000000000480981
 20
36.233457633952938
 30
0.0
 11
-84.647563746946332
 21
36.585893887487593
 31
0.0
1001
GRADIENTCOLOR1ACI
1070
     5
1001
GRADIENTCOLOR2ACI
1070
     2
1001
ACAD
1010
0.0
1020
0.0
1030
0.0
  0
LINE
  5
18ED
  8
SAPA_GLAS
 10
-85.000000000480981
 20
35.110925618819287
 30
0.0
 11
-83.776228361374493
 21
36.334697257925782
 31
0.0
1001
GRADIENTCOLOR1ACI
1070
     5
1001
GRADIENTCOLOR2ACI
1070
     2
1001
ACAD
1010
0.0
1020
0.0
1030
0.0
  0
LINE
  5
18EE
  8
SAPA_GLAS
 10
-85.000000000480981
 20
33.988393603685651
 30
0.0
 11
-82.815400762345092
 21
36.172992841821532
 31
0.0
1001
GRADIENTCOLOR1ACI
1070
     5
1001
GRADIENTCOLOR2ACI
1070
     2
1001
ACAD
1010
0.0
1020
0.0
1030
0.0
  0
LINE
  5
18EF
  8
SAPA_GLAS
 10
-85.000000000480981
 20
32.865861588552008
 30
0.0
 11
-81.738576409298929
 21
36.127285179734059
 31
0.0
1001
GRADIENTCOLOR1ACI
1070
     5
1001
GRADIENTCOLOR2ACI
1070
     2
1001
ACAD
1010
0.0
1020
0.0
1030
0.0
  0
LINE
  5
18F0
  8
SAPA_GLAS
 10
-85.000000000480981
 20
31.743329573418361
 30
0.0
 11
-80.492612168467247
 21
36.250717405432091
 31
0.0
1001
GRADIENTCOLOR1ACI
1070
     5
1001
GRADIENTCOLOR2ACI
1070
     2
1001
ACAD
1010
0.0
1020
0.0
1030
0.0
  0
LINE
  5
18F1
  8
SAPA_GLAS
 10
-85.000000000480981
 20
30.620797558284711
 30
0.0
 11
-78.934172363018689
 21
36.686625195747013
 31
0.0
1001
GRADIENTCOLOR1ACI
1070
     5
1001
GRADIENTCOLOR2ACI
1070
     2
1001
ACAD
1010
0.0
1020
0.0
1030
0.0
  0
LINE
  5
18F2
  8
SAPA_GLAS
 10
-85.000000000480981
 20
29.498265543151071
 30
0.0
 11
-78.90000000105077
 21
35.598265542581281
 31
0.0
1001
GRADIENTCOLOR1ACI
1070
     5
1001
GRADIENTCOLOR2ACI
1070
     2
1001
ACAD
1010
0.0
1020
0.0
1030
0.0
  0
LINE
  5
18F3
  8
SAPA_GLAS
 10
-85.000000000480981
 20
28.37573352801742
 30
0.0
 11
-78.900000001119807
 21
34.475733527378601
 31
0.0
1001
GRADIENTCOLOR1ACI
1070
     5
1001
GRADIENTCOLOR2ACI
1070
     2
1001
ACAD
1010
0.0
1020
0.0
1030
0.0
  0
LINE
  5
18F4
  8
SAPA_GLAS
 10
-85.000000000480981
 20
27.253201512883781
 30
0.0
 11
-78.900000001188872
 21
33.353201512175893
 31
0.0
1001
GRADIENTCOLOR1ACI
1070
     5
1001
GRADIENTCOLOR2ACI
1070
     2
1001
ACAD
1010
0.0
1020
0.0
1030
0.0
  0
LINE
  5
18F5
  8
SAPA_GLAS
 10
-85.000000000480981
 20
26.130669497750141
 30
0.0
 11
-78.900000001257922
 21
32.230669496973213
 31
0.0
1001
GRADIENTCOLOR1ACI
1070
     5
1001
GRADIENTCOLOR2ACI
1070
     2
1001
ACAD
1010
0.0
1020
0.0
1030
0.0
  0
LINE
  5
18F6
  8
SAPA_GLAS
 10
-85.000000000480981
 20
25.008137482616501
 30
0.0
 11
-78.900000001326973
 21
31.108137481770498
 31
0.0
1001
GRADIENTCOLOR1ACI
1070
     5
1001
GRADIENTCOLOR2ACI
1070
     2
1001
ACAD
1010
0.0
1020
0.0
1030
0.0
  0
LINE
  5
18F7
  8
SAPA_GLAS
 10
-85.000000000480981
 20
23.885605467482851
 30
0.0
 11
-78.900000001396023
 21
29.985605466567812
 31
0.0
1001
GRADIENTCOLOR1ACI
1070
     5
1001
GRADIENTCOLOR2ACI
1070
     2
1001
ACAD
1010
0.0
1020
0.0
1030
0.0
  0
LINE
  5
18F8
  8
SAPA_GLAS
 10
-85.000000000480981
 20
22.763073452349211
 30
0.0
 11
-78.900000001465074
 21
28.863073451365111
 31
0.0
1001
GRADIENTCOLOR1ACI
1070
     5
1001
GRADIENTCOLOR2ACI
1070
     2
1001
ACAD
1010
0.0
1020
0.0
1030
0.0
  0
LINE
  5
18F9
  8
SAPA_GLAS
 10
-85.000000000480981
 20
21.640541437215571
 30
0.0
 11
-78.900000001534124
 21
27.74054143616241
 31
0.0
1001
GRADIENTCOLOR1ACI
1070
     5
1001
GRADIENTCOLOR2ACI
1070
     2
1001
ACAD
1010
0.0
1020
0.0
1030
0.0
  0
LINE
  5
18FA
  8
SAPA_GLAS
 10
-85.000000000480981
 20
20.518009422081921
 30
0.0
 11
-78.900000001603175
 21
26.618009420959719
 31
0.0
1001
GRADIENTCOLOR1ACI
1070
     5
1001
GRADIENTCOLOR2ACI
1070
     2
1001
ACAD
1010
0.0
1020
0.0
1030
0.0
  0
LINE
  5
18FB
  8
SAPA_GLAS
 10
-84.395476660352685
 20
20.000000747076559
 30
0.0
 11
-78.900000001672225
 21
25.495477405757018
 31
0.0
1001
GRADIENTCOLOR1ACI
1070
     5
1001
GRADIENTCOLOR2ACI
1070
     2
1001
ACAD
1010
0.0
1020
0.0
1030
0.0
  0
LINE
  5
18FC
  8
SAPA_GLAS
 10
-83.272944645219056
 20
20.000000747076559
 30
0.0
 11
-78.900000001741276
 21
24.372945390554332
 31
0.0
1001
GRADIENTCOLOR1ACI
1070
     5
1001
GRADIENTCOLOR2ACI
1070
     2
1001
ACAD
1010
0.0
1020
0.0
1030
0.0
  0
LINE
  5
18FD
  8
SAPA_GLAS
 10
-82.150412630085398
 20
20.000000747076559
 30
0.0
 11
-78.900000001810326
 21
23.250413375351631
 31
0.0
1001
GRADIENTCOLOR1ACI
1070
     5
1001
GRADIENTCOLOR2ACI
1070
     2
1001
ACAD
1010
0.0
1020
0.0
1030
0.0
  0
LINE
  5
18FE
  8
SAPA_GLAS
 10
-81.027880614952167
 20
20.00000074707615
 30
0.0
 11
-78.900000001879377
 21
22.127881360148951
 31
0.0
1001
GRADIENTCOLOR1ACI
1070
     5
1001
GRADIENTCOLOR2ACI
1070
     2
1001
ACAD
1010
0.0
1020
0.0
1030
0.0
  0
LINE
  5
18FF
  8
SAPA_GLAS
 10
-79.763702618352696
 20
20.141646728541978
 30
0.0
 11
-79.04164598338383
 21
20.863703363510851
 31
0.0
1001
GRADIENTCOLOR1ACI
1070
     5
1001
GRADIENTCOLOR2ACI
1070
     2
1001
ACAD
1010
0.0
1020
0.0
1030
0.0
  0
LINE
  5
1900
  8
SAPA_GLAS
 10
-83.984325609694636
 20
20.000000747076559
 30
0.0
 11
-85.000000000480981
 21
21.01567513786291
 31
0.0
1001
GRADIENTCOLOR1ACI
1070
     5
1001
GRADIENTCOLOR2ACI
1070
     2
1001
ACAD
1010
0.0
1020
0.0
1030
0.0
  0
LINE
  5
1901
  8
SAPA_GLAS
 10
-82.861793594560993
 20
20.000000747076552
 30
0.0
 11
-85.000000000480981
 21
22.13820715299655
 31
0.0
1001
GRADIENTCOLOR1ACI
1070
     5
1001
GRADIENTCOLOR2ACI
1070
     2
1001
ACAD
1010
0.0
1020
0.0
1030
0.0
  0
LINE
  5
1902
  8
SAPA_GLAS
 10
-81.71594887383182
 20
19.97668804148103
 30
0.0
 11
-85.000000000480981
 21
23.26073916813019
 31
0.0
1001
GRADIENTCOLOR1ACI
1070
     5
1001
GRADIENTCOLOR2ACI
1070
     2
1001
ACAD
1010
0.0
1020
0.0
1030
0.0
  0
LINE
  5
1903
  8
SAPA_GLAS
 10
-80.616729564293308
 20
20.000000747076161
 30
0.0
 11
-85.000000000480981
 21
24.38327118326383
 31
0.0
1001
GRADIENTCOLOR1ACI
1070
     5
1001
GRADIENTCOLOR2ACI
1070
     2
1001
ACAD
1010
0.0
1020
0.0
1030
0.0
  0
LINE
  5
1904
  8
SAPA_GLAS
 10
-79.678898245823305
 20
20.184701443739801
 30
0.0
 11
-85.000000000480981
 21
25.50580319839748
 31
0.0
1001
GRADIENTCOLOR1ACI
1070
     5
1001
GRADIENTCOLOR2ACI
1070
     2
1001
ACAD
1010
0.0
1020
0.0
1030
0.0
  0
LINE
  5
1905
  8
SAPA_GLAS
 10
-79.108595856393521
 20
20.736931069443649
 30
0.0
 11
-85.000000000480981
 21
26.62833521353112
 31
0.0
1001
GRADIENTCOLOR1ACI
1070
     5
1001
GRADIENTCOLOR2ACI
1070
     2
1001
ACAD
1010
0.0
1020
0.0
1030
0.0
  0
LINE
  5
1906
  8
SAPA_GLAS
 10
-78.900000001908751
 20
21.650867230092519
 30
0.0
 11
-85.000000000480981
 21
27.75086722866476
 31
0.0
1001
GRADIENTCOLOR1ACI
1070
     5
1001
GRADIENTCOLOR2ACI
1070
     2
1001
ACAD
1010
0.0
1020
0.0
1030
0.0
  0
LINE
  5
1907
  8
SAPA_GLAS
 10
-78.900000001839686
 20
22.773399245157108
 30
0.0
 11
-85.000000000480981
 21
28.87339924379841
 31
0.0
1001
GRADIENTCOLOR1ACI
1070
     5
1001
GRADIENTCOLOR2ACI
1070
     2
1001
ACAD
1010
0.0
1020
0.0
1030
0.0
  0
LINE
  5
1908
  8
SAPA_GLAS
 10
-78.90000000177065
 20
23.895931260221712
 30
0.0
 11
-85.000000000480981
 21
29.99593125893205
 31
0.0
1001
GRADIENTCOLOR1ACI
1070
     5
1001
GRADIENTCOLOR2ACI
1070
     2
1001
ACAD
1010
0.0
1020
0.0
1030
0.0
  0
LINE
  5
1909
  8
SAPA_GLAS
 10
-78.900000001701585
 20
25.018463275286301
 30
0.0
 11
-85.000000000480981
 21
31.1184632740657
 31
0.0
1001
GRADIENTCOLOR1ACI
1070
     5
1001
GRADIENTCOLOR2ACI
1070
     2
1001
ACAD
1010
0.0
1020
0.0
1030
0.0
  0
LINE
  5
190A
  8
SAPA_GLAS
 10
-78.900000001632534
 20
26.140995290350901
 30
0.0
 11
-85.000000000480981
 21
32.24099528919934
 31
0.0
1001
GRADIENTCOLOR1ACI
1070
     5
1001
GRADIENTCOLOR2ACI
1070
     2
1001
ACAD
1010
0.0
1020
0.0
1030
0.0
  0
LINE
  5
190B
  8
SAPA_GLAS
 10
-78.900000001563484
 20
27.263527305415479
 30
0.0
 11
-85.000000000480981
 21
33.36352730433299
 31
0.0
1001
GRADIENTCOLOR1ACI
1070
     5
1001
GRADIENTCOLOR2ACI
1070
     2
1001
ACAD
1010
0.0
1020
0.0
1030
0.0
  0
LINE
  5
190C
  8
SAPA_GLAS
 10
-78.900000001494405
 20
28.386059320480062
 30
0.0
 11
-85.000000000480981
 21
34.486059319466627
 31
0.0
1001
GRADIENTCOLOR1ACI
1070
     5
1001
GRADIENTCOLOR2ACI
1070
     2
1001
ACAD
1010
0.0
1020
0.0
1030
0.0
  0
LINE
  5
190D
  8
SAPA_GLAS
 10
-78.900000001425383
 20
29.508591335544661
 30
0.0
 11
-85.000000000480981
 21
35.60859133460027
 31
0.0
1001
GRADIENTCOLOR1ACI
1070
     5
1001
GRADIENTCOLOR2ACI
1070
     2
1001
ACAD
1010
0.0
1020
0.0
1030
0.0
  0
LINE
  5
190E
  8
SAPA_GLAS
 10
-78.900000001356304
 20
30.631123350609251
 30
0.0
 11
-84.978000524301777
 21
36.709123873554709
 31
0.0
1001
GRADIENTCOLOR1ACI
1070
     5
1001
GRADIENTCOLOR2ACI
1070
     2
1001
ACAD
1010
0.0
1020
0.0
1030
0.0
  0
LINE
  5
190F
  8
SAPA_GLAS
 10
-78.900000001287253
 20
31.75365536567384
 30
0.0
 11
-83.404638672389382
 21
36.258294036775972
 31
0.0
1001
GRADIENTCOLOR1ACI
1070
     5
1001
GRADIENTCOLOR2ACI
1070
     2
1001
ACAD
1010
0.0
1020
0.0
1030
0.0
  0
LINE
  5
1910
  8
SAPA_GLAS
 10
-78.900000001218217
 20
32.876187380738443
 30
0.0
 11
-82.151989562932329
 21
36.128176942452569
 31
0.0
1001
GRADIENTCOLOR1ACI
1070
     5
1001
GRADIENTCOLOR2ACI
1070
     2
1001
ACAD
1010
0.0
1020
0.0
1030
0.0
  0
LINE
  5
1911
  8
SAPA_GLAS
 10
-78.900000001149166
 20
33.998719395803043
 30
0.0
 11
-81.070939332734284
 21
36.169658727388153
 31
0.0
1001
GRADIENTCOLOR1ACI
1070
     5
1001
GRADIENTCOLOR2ACI
1070
     2
1001
ACAD
1010
0.0
1020
0.0
1030
0.0
  0
LINE
  5
1912
  8
SAPA_GLAS
 10
-78.900000001080116
 20
35.121251410867622
 30
0.0
 11
-80.107002006828068
 21
36.328253416615581
 31
0.0
1001
GRADIENTCOLOR1ACI
1070
     5
1001
GRADIENTCOLOR2ACI
1070
     2
1001
ACAD
1010
0.0
1020
0.0
1030
0.0
  0
LINE
  5
1913
  8
SAPA_GLAS
 10
-78.900000001011065
 20
36.243783425932222
 30
0.0
 11
-79.233165087693905
 21
36.576948512615068
 31
0.0
1001
GRADIENTCOLOR1ACI
1070
     5
1001
GRADIENTCOLOR2ACI
1070
     2
1001
ACAD
1010
0.0
1020
0.0
1030
0.0
  0
LINE
  5
1947
  8
SAPA_GLAS
 10
-82.911976799595763
 20
10.99999999999959
 30
0.0
 11
-82.706698619902895
 21
10.794721820306719
 31
0.0
1001
GRADIENTCOLOR1ACI
1070
     5
1001
GRADIENTCOLOR2ACI
1070
     2
1001
ACAD
1010
0.0
1020
0.0
1030
0.0
  0
LINE
  5
1948
  8
SAPA_GLAS
 10
-84.034508814729406
 20
10.999999999999609
 30
0.0
 11
-82.939278492873896
 21
9.9047696781441061
 31
0.0
1001
GRADIENTCOLOR1ACI
1070
     5
1001
GRADIENTCOLOR2ACI
1070
     2
1001
ACAD
1010
0.0
1020
0.0
1030
0.0
  0
LINE
  5
1949
  8
SAPA_GLAS
 10
-85.157040829863064
 20
10.9999999999996
 30
0.0
 11
-83.171858365844898
 21
9.0148175359814573
 31
0.0
1001
GRADIENTCOLOR1ACI
1070
     5
1001
GRADIENTCOLOR2ACI
1070
     2
1001
ACAD
1010
0.0
1020
0.0
1030
0.0
  0
LINE
  5
194A
  8
SAPA_GLAS
 10
-86.279572844996693
 20
10.9999999999996
 30
0.0
 11
-83.401679877621433
 21
8.1221070326243492
 31
0.0
1001
GRADIENTCOLOR1ACI
1070
     5
1001
GRADIENTCOLOR2ACI
1070
     2
1001
ACAD
1010
0.0
1020
0.0
1030
0.0
  0
LINE
  5
194B
  8
SAPA_GLAS
 10
-87.402104860130351
 20
10.99999999999959
 30
0.0
 11
-83.545610131725965
 21
7.1435052715952301
 31
0.0
1001
GRADIENTCOLOR1ACI
1070
     5
1001
GRADIENTCOLOR2ACI
1070
     2
1001
ACAD
1010
0.0
1020
0.0
1030
0.0
  0
LINE
  5
194C
  8
SAPA_GLAS
 10
-88.52463687526398
 20
10.999999999999609
 30
0.0
 11
-83.672747239552137
 21
6.1481103642877448
 31
0.0
1001
GRADIENTCOLOR1ACI
1070
     5
1001
GRADIENTCOLOR2ACI
1070
     2
1001
ACAD
1010
0.0
1020
0.0
1030
0.0
  0
LINE
  5
194D
  8
SAPA_GLAS
 10
-89.647168890397623
 20
10.9999999999996
 30
0.0
 11
-83.782328356813679
 21
5.1351594664156499
 31
0.0
1001
GRADIENTCOLOR1ACI
1070
     5
1001
GRADIENTCOLOR2ACI
1070
     2
1001
ACAD
1010
0.0
1020
0.0
1030
0.0
  0
LINE
  5
194E
  8
SAPA_GLAS
 10
-90.769700905531266
 20
10.9999999999996
 30
0.0
 11
-83.873509905687854
 21
4.1038090001561818
 31
0.0
1001
GRADIENTCOLOR1ACI
1070
     5
1001
GRADIENTCOLOR2ACI
1070
     2
1001
ACAD
1010
0.0
1020
0.0
1030
0.0
  0
LINE
  5
194F
  8
SAPA_GLAS
 10
-90.907164269586787
 20
10.01493134892147
 30
0.0
 11
-83.945355509874133
 21
3.0531225892088041
 31
0.0
1001
GRADIENTCOLOR1ACI
1070
     5
1001
GRADIENTCOLOR2ACI
1070
     2
1001
ACAD
1010
0.0
1020
0.0
1030
0.0
  0
LINE
  5
1950
  8
SAPA_GLAS
 10
-90.814456427842316
 20
8.7996914920433724
 30
0.0
 11
-83.99682146479536
 21
1.9820565289964021
 31
0.0
1001
GRADIENTCOLOR1ACI
1070
     5
1001
GRADIENTCOLOR2ACI
1070
     2
1001
ACAD
1010
0.0
1020
0.0
1030
0.0
  0
LINE
  5
1951
  8
SAPA_GLAS
 10
-90.746931580842954
 20
7.6096346299103521
 30
0.0
 11
-84.026739097239656
 21
0.8894421463070472
 31
0.0
1001
GRADIENTCOLOR1ACI
1070
     5
1001
GRADIENTCOLOR2ACI
1070
     2
1001
ACAD
1010
0.0
1020
0.0
1030
0.0
  0
LINE
  5
1952
  8
SAPA_GLAS
 10
-90.703010665362498
 20
6.443181699296253
 30
0.0
 11
-84.033793158281142
 21
-0.2260358077851023
 31
0.0
1001
GRADIENTCOLOR1ACI
1070
     5
1001
GRADIENTCOLOR2ACI
1070
     2
1001
ACAD
1010
0.0
1020
0.0
1030
0.0
  0
LINE
  5
1953
  8
SAPA_GLAS
 10
-90.681296273859431
 20
5.298935292659535
 30
0.0
 11
-84.016495099402206
 21
-1.3658658817976881
 31
0.0
1001
GRADIENTCOLOR1ACI
1070
     5
1001
GRADIENTCOLOR2ACI
1070
     2
1001
ACAD
1010
0.0
1020
0.0
1030
0.0
  0
LINE
  5
1954
  8
SAPA_GLAS
 10
-90.680544763549904
 20
4.1756517672163787
 30
0.0
 11
-83.973149664723195
 21
-2.5317433316103362
 31
0.0
1001
GRADIENTCOLOR1ACI
1070
     5
1001
GRADIENTCOLOR2ACI
1070
     2
1001
ACAD
1010
0.0
1020
0.0
1030
0.0
  0
LINE
  5
1955
  8
SAPA_GLAS
 10
-90.699643670369383
 20
3.0722186589022078
 30
0.0
 11
-83.901812630159526
 21
-3.7256123813076618
 31
0.0
1001
GRADIENTCOLOR1ACI
1070
     5
1001
GRADIENTCOLOR2ACI
1070
     2
1001
ACAD
1010
0.0
1020
0.0
1030
0.0
  0
LINE
  5
1956
  8
SAPA_GLAS
 10
-90.737593242786488
 20
1.9876362161856631
 30
0.0
 11
-83.80023663410563
 21
-4.9497203924951938
 31
0.0
1001
GRADIENTCOLOR1ACI
1070
     5
1001
GRADIENTCOLOR2ACI
1070
     2
1001
ACAD
1010
0.0
1020
0.0
1030
0.0
  0
LINE
  5
1957
  8
SAPA_GLAS
 10
-90.793491211420559
 20
0.9210021696860763
 30
0.0
 11
-83.66580071150409
 21
-6.206688330230385
 31
0.0
1001
GRADIENTCOLOR1ACI
1070
     5
1001
GRADIENTCOLOR2ACI
1070
     2
1001
ACAD
1010
0.0
1020
0.0
1030
0.0
  0
LINE
  5
1958
  8
SAPA_GLAS
 10
-90.866520126449274
 20
-0.1285009304188449
 30
0.0
 11
-83.495417090172481
 21
-7.4996039666956369
 31
0.0
1001
GRADIENTCOLOR1ACI
1070
     5
1001
GRADIENTCOLOR2ACI
1070
     2
1001
ACAD
1010
0.0
1020
0.0
1030
0.0
  0
LINE
  5
1959
  8
SAPA_GLAS
 10
-90.955936752078216
 20
-1.161616319923545
 30
0.0
 11
-83.176478611106873
 21
-8.9410744608948889
 31
0.0
1001
GRADIENTCOLOR1ACI
1070
     5
1001
GRADIENTCOLOR2ACI
1070
     2
1001
ACAD
1010
0.0
1020
0.0
1030
0.0
  0
LINE
  5
195A
  8
SAPA_GLAS
 10
-91.061063123362629
 20
-2.1790219637727608
 30
0.0
 11
-82.739959983385233
 21
-10.500125103750159
 31
0.0
1001
GRADIENTCOLOR1ACI
1070
     5
1001
GRADIENTCOLOR2ACI
1070
     2
1001
ACAD
1010
0.0
1020
0.0
1030
0.0
  0
LINE
  5
195B
  8
SAPA_GLAS
 10
-91.18127895728523
 20
-3.1813381449838261
 30
0.0
 11
-83.362617102238559
 21
-11.00000000003047
 31
0.0
1001
GRADIENTCOLOR1ACI
1070
     5
1001
GRADIENTCOLOR2ACI
1070
     2
1001
ACAD
1010
0.0
1020
0.0
1030
0.0
  0
LINE
  5
195C
  8
SAPA_GLAS
 10
-91.316015175377856
 20
-4.1691339420248283
 30
0.0
 11
-84.485149117374135
 21
-11.00000000002855
 31
0.0
1001
GRADIENTCOLOR1ACI
1070
     5
1001
GRADIENTCOLOR2ACI
1070
     2
1001
ACAD
1010
0.0
1020
0.0
1030
0.0
  0
LINE
  5
195D
  8
SAPA_GLAS
 10
-91.464748345042153
 20
-5.1429327874941739
 30
0.0
 11
-85.607681132509697
 21
-11.00000000002664
 31
0.0
1001
GRADIENTCOLOR1ACI
1070
     5
1001
GRADIENTCOLOR2ACI
1070
     2
1001
ACAD
1010
0.0
1020
0.0
1030
0.0
  0
LINE
  5
195E
  8
SAPA_GLAS
 10
-91.626995885123804
 20
-6.1032172625461882
 30
0.0
 11
-86.730213147645244
 21
-11.00000000002472
 31
0.0
1001
GRADIENTCOLOR1ACI
1070
     5
1001
GRADIENTCOLOR2ACI
1070
     2
1001
ACAD
1010
0.0
1020
0.0
1030
0.0
  0
LINE
  5
195F
  8
SAPA_GLAS
 10
-91.802311911127234
 20
-7.0504332516763659
 30
0.0
 11
-87.852745162780806
 21
-11.00000000002281
 31
0.0
1001
GRADIENTCOLOR1ACI
1070
     5
1001
GRADIENTCOLOR2ACI
1070
     2
1001
ACAD
1010
0.0
1020
0.0
1030
0.0
  0
LINE
  5
1960
  8
SAPA_GLAS
 10
-91.990283618829395
 20
-7.9849935591078767
 30
0.0
 11
-88.975277177916354
 21
-11.00000000002092
 31
0.0
1001
GRADIENTCOLOR1ACI
1070
     5
1001
GRADIENTCOLOR2ACI
1070
     2
1001
ACAD
1010
0.0
1020
0.0
1030
0.0
  0
LINE
  5
1961
  8
SAPA_GLAS
 10
-92.190528123500485
 20
-8.9072810695704305
 30
0.0
 11
-90.097809193051916
 21
-11.000000000018989
 31
0.0
1001
GRADIENTCOLOR1ACI
1070
     5
1001
GRADIENTCOLOR2ACI
1070
     2
1001
ACAD
1010
0.0
1020
0.0
1030
0.0
  0
LINE
  5
1962
  8
SAPA_GLAS
 10
-92.402689686617322
 20
-9.8176515215872371
 30
0.0
 11
-91.220341208187477
 21
-11.00000000001709
 31
0.0
1001
GRADIENTCOLOR1ACI
1070
     5
1001
GRADIENTCOLOR2ACI
1070
     2
1001
ACAD
1010
0.0
1020
0.0
1030
0.0
  0
LINE
  5
1963
  8
SAPA_GLAS
 10
-92.626437273703544
 20
-10.716435949634651
 30
0.0
 11
-92.342873223323039
 21
-11.000000000015159
 31
0.0
1001
GRADIENTCOLOR1ACI
1070
     5
1001
GRADIENTCOLOR2ACI
1070
     2
1001
ACAD
1010
0.0
1020
0.0
1030
0.0
  0
LINE
  5
1964
  8
SAPA_GLAS
 10
-90.910017836441313
 20
10.047935694543771
 30
0.0
 11
-89.957953530985463
 21
10.999999999999609
 31
0.0
1001
GRADIENTCOLOR1ACI
1070
     5
1001
GRADIENTCOLOR2ACI
1070
     2
1001
ACAD
1010
0.0
1020
0.0
1030
0.0
  0
LINE
  5
1965
  8
SAPA_GLAS
 10
-90.828561117867935
 20
9.0068603979835018
 30
0.0
 11
-88.835421515851834
 21
10.999999999999609
 31
0.0
1001
GRADIENTCOLOR1ACI
1070
     5
1001
GRADIENTCOLOR2ACI
1070
     2
1001
ACAD
1010
0.0
1020
0.0
1030
0.0
  0
LINE
  5
1966
  8
SAPA_GLAS
 10
-90.763848458107532
 20
7.9490410426102613
 30
0.0
 11
-87.712889500718177
 21
10.9999999999996
 31
0.0
1001
GRADIENTCOLOR1ACI
1070
     5
1001
GRADIENTCOLOR2ACI
1070
     2
1001
ACAD
1010
0.0
1020
0.0
1030
0.0
  0
LINE
  5
1967
  8
SAPA_GLAS
 10
-90.716658328964854
 20
6.8736991566192813
 30
0.0
 11
-86.590357485584548
 21
10.9999999999996
 31
0.0
1001
GRADIENTCOLOR1ACI
1070
     5
1001
GRADIENTCOLOR2ACI
1070
     2
1001
ACAD
1010
0.0
1020
0.0
1030
0.0
  0
LINE
  5
1968
  8
SAPA_GLAS
 10
-90.687848395042096
 20
5.7799770754083957
 30
0.0
 11
-85.467825470450876
 21
10.999999999999609
 31
0.0
1001
GRADIENTCOLOR1ACI
1070
     5
1001
GRADIENTCOLOR2ACI
1070
     2
1001
ACAD
1010
0.0
1020
0.0
1030
0.0
  0
LINE
  5
1969
  8
SAPA_GLAS
 10
-90.678367073829506
 20
4.6669263814873432
 30
0.0
 11
-84.345293455317275
 21
10.99999999999959
 31
0.0
1001
GRADIENTCOLOR1ACI
1070
     5
1001
GRADIENTCOLOR2ACI
1070
     2
1001
ACAD
1010
0.0
1020
0.0
1030
0.0
  0
LINE
  5
196A
  8
SAPA_GLAS
 10
-90.689267386962655
 20
3.533494053220557
 30
0.0
 11
-83.222761440183604
 21
10.9999999999996
 31
0.0
1001
GRADIENTCOLOR1ACI
1070
     5
1001
GRADIENTCOLOR2ACI
1070
     2
1001
ACAD
1010
0.0
1020
0.0
1030
0.0
  0
LINE
  5
196B
  8
SAPA_GLAS
 10
-90.721723684539967
 20
2.3785057405096022
 30
0.0
 11
-82.848640955647866
 21
10.2515884694017
 31
0.0
1001
GRADIENTCOLOR1ACI
1070
     5
1001
GRADIENTCOLOR2ACI
1070
     2
1001
ACAD
1010
0.0
1020
0.0
1030
0.0
  0
LINE
  5
196C
  8
SAPA_GLAS
 10
-90.777052007897765
 20
1.2006454020181601
 30
0.0
 11
-83.245795453519705
 21
8.7319019563962144
 31
0.0
1001
GRADIENTCOLOR1ACI
1070
     5
1001
GRADIENTCOLOR2ACI
1070
     2
1001
ACAD
1010
0.0
1020
0.0
1030
0.0
  0
LINE
  5
196D
  8
SAPA_GLAS
 10
-90.856735110016473
 20
-0.00156971523419
 30
0.0
 11
-83.518724389807289
 21
7.3364410049749997
 31
0.0
1001
GRADIENTCOLOR1ACI
1070
     5
1001
GRADIENTCOLOR2ACI
1070
     2
1001
ACAD
1010
0.0
1020
0.0
1030
0.0
  0
LINE
  5
196E
  8
SAPA_GLAS
 10
-90.962453508954908
 20
-1.229820129306276
 30
0.0
 11
-83.684442151563559
 21
6.0481912280850869
 31
0.0
1001
GRADIENTCOLOR1ACI
1070
     5
1001
GRADIENTCOLOR2ACI
1070
     2
1001
ACAD
1010
0.0
1020
0.0
1030
0.0
  0
LINE
  5
196F
  8
SAPA_GLAS
 10
-91.096124457974412
 20
-2.4860230934594152
 30
0.0
 11
-83.814626277909795
 21
4.7954750866051929
 31
0.0
1001
GRADIENTCOLOR1ACI
1070
     5
1001
GRADIENTCOLOR2ACI
1070
     2
1001
ACAD
1010
0.0
1020
0.0
1030
0.0
  0
LINE
  5
1970
  8
SAPA_GLAS
 10
-91.259951454389963
 20
-3.7723821050086239
 30
0.0
 11
-83.912300310358333
 21
3.5752690390230191
 31
0.0
1001
GRADIENTCOLOR1ACI
1070
     5
1001
GRADIENTCOLOR2ACI
1070
     2
1001
ACAD
1010
0.0
1020
0.0
1030
0.0
  0
LINE
  5
1971
  8
SAPA_GLAS
 10
-91.456488003482917
 20
-5.0914506692352068
 30
0.0
 11
-83.980034125615205
 21
2.3850032086324968
 31
0.0
1001
GRADIENTCOLOR1ACI
1070
     5
1001
GRADIENTCOLOR2ACI
1070
     2
1001
ACAD
1010
0.0
1020
0.0
1030
0.0
  0
LINE
  5
1972
  8
SAPA_GLAS
 10
-91.68872101207478
 20
-6.4462156929607062
 30
0.0
 11
-84.020033859507151
 21
1.2224714596069071
 31
0.0
1001
GRADIENTCOLOR1ACI
1070
     5
1001
GRADIENTCOLOR2ACI
1070
     2
1001
ACAD
1010
0.0
1020
0.0
1030
0.0
  0
LINE
  5
1973
  8
SAPA_GLAS
 10
-91.960181762782625
 20
-7.8402084588022163
 30
0.0
 11
-84.034210042228665
 21
0.0857632617517652
 31
0.0
1001
GRADIENTCOLOR1ACI
1070
     5
1001
GRADIENTCOLOR2ACI
1070
     2
1001
ACAD
1010
0.0
1020
0.0
1030
0.0
  0
LINE
  5
1974
  8
SAPA_GLAS
 10
-92.275096537494022
 20
-9.2776552486472426
 30
0.0
 11
-84.024230077429664
 21
-1.0267887885829119
 31
0.0
1001
GRADIENTCOLOR1ACI
1070
     5
1001
GRADIENTCOLOR2ACI
1070
     2
1001
ACAD
1010
0.0
1020
0.0
1030
0.0
  0
LINE
  5
1975
  8
SAPA_GLAS
 10
-92.63859575423426
 20
-10.76368648052112
 30
0.0
 11
-83.991559255009705
 21
-2.1166499812965749
 31
0.0
1001
GRADIENTCOLOR1ACI
1070
     5
1001
GRADIENTCOLOR2ACI
1070
     2
1001
ACAD
1010
0.0
1020
0.0
1030
0.0
  0
LINE
  5
1976
  8
SAPA_GLAS
 10
-91.752377258595644
 20
-11.00000000001617
 30
0.0
 11
-83.937493222386266
 21
-3.1851159638067861
 31
0.0
1001
GRADIENTCOLOR1ACI
1070
     5
1001
GRADIENTCOLOR2ACI
1070
     2
1001
ACAD
1010
0.0
1020
0.0
1030
0.0
  0
LINE
  5
1977
  8
SAPA_GLAS
 10
-90.629845243463933
 20
-11.00000000001809
 30
0.0
 11
-83.863183995404754
 21
-4.2333387519589252
 31
0.0
1001
GRADIENTCOLOR1ACI
1070
     5
1001
GRADIENTCOLOR2ACI
1070
     2
1001
ACAD
1010
0.0
1020
0.0
1030
0.0
  0
LINE
  5
1978
  8
SAPA_GLAS
 10
-89.507313228332194
 20
-11.000000000019989
 30
0.0
 11
-83.769661015480963
 21
-5.2623477871687783
 31
0.0
1001
GRADIENTCOLOR1ACI
1070
     5
1001
GRADIENTCOLOR2ACI
1070
     2
1001
ACAD
1010
0.0
1020
0.0
1030
0.0
  0
LINE
  5
1979
  8
SAPA_GLAS
 10
-88.384781213200455
 20
-11.000000000021901
 30
0.0
 11
-83.657848360702218
 21
-6.2730671475236539
 31
0.0
1001
GRADIENTCOLOR1ACI
1070
     5
1001
GRADIENTCOLOR2ACI
1070
     2
1001
ACAD
1010
0.0
1020
0.0
1030
0.0
  0
LINE
  5
197A
  8
SAPA_GLAS
 10
-87.262249198068716
 20
-11.00000000002381
 30
0.0
 11
-83.528578936912311
 21
-7.2663297388674053
 31
0.0
1001
GRADIENTCOLOR1ACI
1070
     5
1001
GRADIENTCOLOR2ACI
1070
     2
1001
ACAD
1010
0.0
1020
0.0
1030
0.0
  0
LINE
  5
197B
  8
SAPA_GLAS
 10
-86.139717182937005
 20
-11.000000000025731
 30
0.0
 11
-83.374291581012216
 21
-8.2345743981009534
 31
0.0
1001
GRADIENTCOLOR1ACI
1070
     5
1001
GRADIENTCOLOR2ACI
1070
     2
1001
ACAD
1010
0.0
1020
0.0
1030
0.0
  0
LINE
  5
197C
  8
SAPA_GLAS
 10
-85.01718516780528
 20
-11.000000000027651
 30
0.0
 11
-83.12874453734679
 21
-9.1115593695691643
 31
0.0
1001
GRADIENTCOLOR1ACI
1070
     5
1001
GRADIENTCOLOR2ACI
1070
     2
1001
ACAD
1010
0.0
1020
0.0
1030
0.0
  0
LINE
  5
197D
  8
SAPA_GLAS
 10
-83.894653152673527
 20
-11.00000000002955
 30
0.0
 11
-82.883197493681365
 21
-9.9885443410373789
 31
0.0
1001
GRADIENTCOLOR1ACI
1070
     5
1001
GRADIENTCOLOR2ACI
1070
     2
1001
ACAD
1010
0.0
1020
0.0
1030
0.0
  0
LINE
  5
197E
  8
SAPA_GLAS
 10
-82.772121137541816
 20
-11.000000000031481
 30
0.0
 11
-82.637650450015926
 21
-10.86552931250559
 31
0.0
1001
GRADIENTCOLOR1ACI
1070
     5
1001
GRADIENTCOLOR2ACI
1070
     2
1001
ACAD
1010
0.0
1020
0.0
1030
0.0
  0
POLYLINE
  5
1C48
  8
SAPA_PROFIL
 66
     1
 10
0.0
 20
0.0
 30
0.0
 70
     1
  0
VERTEX
  5
2172
  8
SAPA_PROFIL
 10
93.299999999996317
 20
-77.999999626462227
 30
0.0
 42
-0.4142135623730951
  0
VERTEX
  5
2173
  8
SAPA_PROFIL
 10
92.999999999996362
 20
-77.699999626462215
 30
0.0
  0
VERTEX
  5
2174
  8
SAPA_PROFIL
 10
92.999999999996362
 20
-76.489999626462293
 30
0.0
 42
-0.4142135623730951
  0
VERTEX
  5
2175
  8
SAPA_PROFIL
 10
93.989999999996357
 20
-75.499999626462284
 30
0.0
  0
VERTEX
  5
2176
  8
SAPA_PROFIL
 10
94.199999999996407
 20
-75.499999626462284
 30
0.0
  0
VERTEX
  5
2177
  8
SAPA_PROFIL
 10
94.199999999996407
 20
-76.749999626462284
 30
0.0
  0
VERTEX
  5
2178
  8
SAPA_PROFIL
 10
95.499999999996362
 20
-76.749999626462284
 30
0.0
 42
0.4142135623730951
  0
VERTEX
  5
2179
  8
SAPA_PROFIL
 10
95.999999999996376
 20
-76.249999626462284
 30
0.0
  0
VERTEX
  5
217A
  8
SAPA_PROFIL
 10
95.999999999996376
 20
-68.249999626462284
 30
0.0
 42
0.4142135623730951
  0
VERTEX
  5
217B
  8
SAPA_PROFIL
 10
95.499999999996362
 20
-67.749999626462284
 30
0.0
  0
VERTEX
  5
217C
  8
SAPA_PROFIL
 10
94.199999999996407
 20
-67.749999626462284
 30
0.0
  0
VERTEX
  5
217D
  8
SAPA_PROFIL
 10
94.199999999996407
 20
-68.999999626462284
 30
0.0
  0
VERTEX
  5
217E
  8
SAPA_PROFIL
 10
93.989999999996357
 20
-68.999999626462284
 30
0.0
 42
-0.4142135623730867
  0
VERTEX
  5
217F
  8
SAPA_PROFIL
 10
92.999999999996362
 20
-68.009999626462275
 30
0.0
  0
VERTEX
  5
2180
  8
SAPA_PROFIL
 10
92.999999999996362
 20
-67.489999626462293
 30
0.0
 42
-0.4142135623730951
  0
VERTEX
  5
2181
  8
SAPA_PROFIL
 10
93.989999999996357
 20
-66.499999626462284
 30
0.0
  0
VERTEX
  5
2182
  8
SAPA_PROFIL
 10
96.199999999996422
 20
-66.499999626462284
 30
0.0
 42
-0.4142135623730951
  0
VERTEX
  5
2183
  8
SAPA_PROFIL
 10
97.699999999996393
 20
-67.999999626462284
 30
0.0
  0
VERTEX
  5
2184
  8
SAPA_PROFIL
 10
97.699999999996393
 20
-75.999999626462284
 30
0.0
 42
0.4142135623730951
  0
VERTEX
  5
2185
  8
SAPA_PROFIL
 10
98.199999999996407
 20
-76.499999626462284
 30
0.0
  0
VERTEX
  5
2186
  8
SAPA_PROFIL
 10
102.49999999999631
 20
-76.499999626462284
 30
0.0
 42
0.4142135623730951
  0
VERTEX
  5
2187
  8
SAPA_PROFIL
 10
102.99999999999631
 20
-75.999999626462284
 30
0.0
  0
VERTEX
  5
2188
  8
SAPA_PROFIL
 10
102.99999999999631
 20
-63.258153005208442
 30
0.0
 42
0.493145426031308
  0
VERTEX
  5
2189
  8
SAPA_PROFIL
 10
102.37059047744501
 20
-62.775190092063902
 30
0.0
  0
VERTEX
  5
218A
  8
SAPA_PROFIL
 10
100.6315755089949
 20
-63.241157748485762
 30
0.0
 42
-0.9999999999999452
  0
VERTEX
  5
218B
  8
SAPA_PROFIL
 10
100.3727564638924
 20
-62.275231922196667
 30
0.0
  0
VERTEX
  5
218C
  8
SAPA_PROFIL
 10
101.7197508390492
 20
-61.914305867164209
 30
0.0
 42
0.6613727838043239
  0
VERTEX
  5
218D
  8
SAPA_PROFIL
 10
101.9766115300261
 20
-59.98041052975492
 30
0.0
  0
VERTEX
  5
218E
  8
SAPA_PROFIL
 10
96.24500185047772
 20
-56.671264138377751
 30
0.0
  0
VERTEX
  5
218F
  8
SAPA_PROFIL
 10
91.956921938161713
 20
-56.671264138377751
 30
0.0
  0
VERTEX
  5
2190
  8
SAPA_PROFIL
 10
87.799999999996359
 20
-53.078483054961403
 30
0.0
  0
VERTEX
  5
2191
  8
SAPA_PROFIL
 10
85.800000454909082
 20
-53.078483054961339
 30
0.0
 42
-1.0
  0
VERTEX
  5
2192
  8
SAPA_PROFIL
 10
85.799999999996373
 20
-52.078483054961389
 30
0.0
  0
VERTEX
  5
2193
  8
SAPA_PROFIL
 10
87.999999999996362
 20
-52.078483054961389
 30
0.0
  0
VERTEX
  5
2194
  8
SAPA_PROFIL
 10
92.074563148964558
 20
-55.171264138377751
 30
0.0
  0
VERTEX
  5
2195
  8
SAPA_PROFIL
 10
96.646925639124461
 20
-55.171264138377751
 30
0.0
  0
VERTEX
  5
2196
  8
SAPA_PROFIL
 10
96.995001850477706
 20
-55.372226032701121
 30
0.0
  0
VERTEX
  5
2197
  8
SAPA_PROFIL
 10
98.249999999996362
 20
-56.346952739793103
 30
0.0
 42
0.5773502691896074
  0
VERTEX
  5
2198
  8
SAPA_PROFIL
 10
98.999999999996362
 20
-55.913940037900943
 30
0.0
  0
VERTEX
  5
2199
  8
SAPA_PROFIL
 10
98.999999999996362
 20
-55.729298172332733
 30
0.0
  0
VERTEX
  5
219A
  8
SAPA_PROFIL
 10
100.49999999999631
 20
-55.729298172332733
 30
0.0
  0
VERTEX
  5
219B
  8
SAPA_PROFIL
 10
100.49999999999631
 20
-57.107162523240042
 30
0.0
 42
0.2679491924311161
  0
VERTEX
  5
219C
  8
SAPA_PROFIL
 10
100.74999999999631
 20
-57.540175225132202
 30
0.0
  0
VERTEX
  5
219D
  8
SAPA_PROFIL
 10
102.24999999999631
 20
-58.406200628916622
 30
0.0
 42
0.3494280882832233
  0
VERTEX
  5
219E
  8
SAPA_PROFIL
 10
102.99999999999631
 20
-57.18759395161976
 30
0.0
  0
VERTEX
  5
219F
  8
SAPA_PROFIL
 10
102.99999999999631
 20
-56.928428870122389
 30
0.0
  0
VERTEX
  5
21A0
  8
SAPA_PROFIL
 10
103.21031506146259
 20
-56.928428870122389
 30
0.0
  0
VERTEX
  5
21A1
  8
SAPA_PROFIL
 10
104.49999999999631
 20
-56.928428870122389
 30
0.0
  0
VERTEX
  5
21A2
  8
SAPA_PROFIL
 10
104.49999999999631
 20
-77.699999626462215
 30
0.0
 42
-0.4142135623730951
  0
VERTEX
  5
21A3
  8
SAPA_PROFIL
 10
104.19999999999629
 20
-77.999999626462227
 30
0.0
  0
SEQEND
  5
21A4
  8
SAPA_PROFIL
  0
POLYLINE
  5
1C49
  8
SAPA_PROFIL
 66
     1
 10
0.0
 20
0.0
 30
0.0
 70
     1
  0
VERTEX
  5
21A5
  8
SAPA_PROFIL
 10
87.299999999996373
 20
-5.2999996264621814
 30
0.0
  0
VERTEX
  5
21A6
  8
SAPA_PROFIL
 10
94.774999999996496
 20
-5.2999996264621814
 30
0.0
 42
-0.4142135623730951
  0
VERTEX
  5
21A7
  8
SAPA_PROFIL
 10
95.27499999999651
 20
-5.7999996264621814
 30
0.0
  0
VERTEX
  5
21A8
  8
SAPA_PROFIL
 10
95.274999999996396
 20
-7.4999996264621132
 30
0.0
 42
0.4142135623730951
  0
VERTEX
  5
21A9
  8
SAPA_PROFIL
 10
99.874999999996405
 20
-12.099999626462131
 30
0.0
  0
VERTEX
  5
21AA
  8
SAPA_PROFIL
 10
101.69999999999639
 20
-12.099999626462131
 30
0.0
 42
-0.4142135623730951
  0
VERTEX
  5
21AB
  8
SAPA_PROFIL
 10
102.69999999999639
 20
-13.099999626462131
 30
0.0
  0
VERTEX
  5
21AC
  8
SAPA_PROFIL
 10
102.69999999999629
 20
-47.499999626462341
 30
0.0
 42
-0.4142135623730951
  0
VERTEX
  5
21AD
  8
SAPA_PROFIL
 10
101.69999999999629
 20
-48.499999626462341
 30
0.0
  0
VERTEX
  5
21AE
  8
SAPA_PROFIL
 10
81.599999999996314
 20
-48.499999626462341
 30
0.0
 42
0.4142135623730951
  0
VERTEX
  5
21AF
  8
SAPA_PROFIL
 10
81.099999999996328
 20
-48.999999626462341
 30
0.0
  0
VERTEX
  5
21B0
  8
SAPA_PROFIL
 10
81.099999999996328
 20
-49.699999626462272
 30
0.0
 42
0.4150844288340716
  0
VERTEX
  5
21B1
  8
SAPA_PROFIL
 10
81.601486201976343
 20
-50.199997417661052
 30
0.0
 42
-0.3121484461588222
  0
VERTEX
  5
21B2
  8
SAPA_PROFIL
 10
82.070299604836237
 20
-50.522216449392651
 30
0.0
 42
-0.482358125222547
  0
VERTEX
  5
21B3
  8
SAPA_PROFIL
 10
79.87439504323288
 20
-54.224394669698313
 30
0.0
  0
VERTEX
  5
21B4
  8
SAPA_PROFIL
 10
79.499999999996419
 20
-53.849999626461802
 30
0.0
  0
VERTEX
  5
21B5
  8
SAPA_PROFIL
 10
79.125604956759958
 20
-54.224394669698313
 30
0.0
 42
-0.4823574778722663
  0
VERTEX
  5
21B6
  8
SAPA_PROFIL
 10
76.929698341185087
 20
-50.52222184868458
 30
0.0
 42
-0.311333703729445
  0
VERTEX
  5
21B7
  8
SAPA_PROFIL
 10
77.397025915514334
 20
-50.199999626462272
 30
0.0
  0
VERTEX
  5
21B8
  8
SAPA_PROFIL
 10
77.399999999996396
 20
-50.199999626462272
 30
0.0
 42
0.4142135623730951
  0
VERTEX
  5
21B9
  8
SAPA_PROFIL
 10
77.899999999996396
 20
-49.699999626462272
 30
0.0
  0
VERTEX
  5
21BA
  8
SAPA_PROFIL
 10
77.899999999996396
 20
-48.999999626462341
 30
0.0
 42
0.4142135623731117
  0
VERTEX
  5
21BB
  8
SAPA_PROFIL
 10
77.399999999996396
 20
-48.49999962646222
 30
0.0
  0
VERTEX
  5
21BC
  8
SAPA_PROFIL
 10
57.29999999999643
 20
-48.49999962646222
 30
0.0
 42
-0.4142135623730951
  0
VERTEX
  5
21BD
  8
SAPA_PROFIL
 10
56.29999999999643
 20
-47.499999626462227
 30
0.0
  0
VERTEX
  5
21BE
  8
SAPA_PROFIL
 10
56.29999999999643
 20
-13.09999962646225
 30
0.0
 42
-0.4142135623730951
  0
VERTEX
  5
21BF
  8
SAPA_PROFIL
 10
57.29999999999643
 20
-12.09999962646225
 30
0.0
  0
VERTEX
  5
21C0
  8
SAPA_PROFIL
 10
59.124999999996419
 20
-12.09999962646225
 30
0.0
 42
0.4142135623730914
  0
VERTEX
  5
21C1
  8
SAPA_PROFIL
 10
63.724999999996392
 20
-7.499999626462226
 30
0.0
  0
VERTEX
  5
21C2
  8
SAPA_PROFIL
 10
63.724999999996321
 20
-5.7999996264622951
 30
0.0
 42
-0.4142135623730951
  0
VERTEX
  5
21C3
  8
SAPA_PROFIL
 10
64.224999999996328
 20
-5.2999996264622951
 30
0.0
  0
VERTEX
  5
21C4
  8
SAPA_PROFIL
 10
71.699999999996407
 20
-5.2999996264621814
 30
0.0
 42
-0.4142135623730951
  0
VERTEX
  5
21C5
  8
SAPA_PROFIL
 10
71.999999999996305
 20
-5.5999996264622487
 30
0.0
  0
VERTEX
  5
21C6
  8
SAPA_PROFIL
 10
71.999999999996419
 20
-5.6999996264622723
 30
0.0
 42
0.4142135623730951
  0
VERTEX
  5
21C7
  8
SAPA_PROFIL
 10
72.299999999996373
 20
-5.999999626462226
 30
0.0
  0
VERTEX
  5
21C8
  8
SAPA_PROFIL
 10
86.699999999996351
 20
-5.999999626462226
 30
0.0
 42
0.4142135623730951
  0
VERTEX
  5
21C9
  8
SAPA_PROFIL
 10
86.999999999996305
 20
-5.6999996264622723
 30
0.0
  0
VERTEX
  5
21CA
  8
SAPA_PROFIL
 10
86.999999999996419
 20
-5.5999996264622487
 30
0.0
 42
-0.4142135623730951
  0
SEQEND
  5
21CB
  8
SAPA_PROFIL
  0
POLYLINE
  5
1C4A
  8
SAPA_PROFIL
 66
     1
 10
0.0
 20
0.0
 30
0.0
 70
     1
  0
VERTEX
  5
21CC
  8
SAPA_PROFIL
 10
100.4999999999964
 20
-54.999999626462113
 30
0.0
  0
VERTEX
  5
21CD
  8
SAPA_PROFIL
 10
100.4999999999964
 20
-53.999999626462113
 30
0.0
  0
VERTEX
  5
21CE
  8
SAPA_PROFIL
 10
102.69999999999639
 20
-53.999999626462113
 30
0.0
  0
VERTEX
  5
21CF
  8
SAPA_PROFIL
 10
102.69999999999639
 20
-50.99999962646212
 30
0.0
  0
VERTEX
  5
21D0
  8
SAPA_PROFIL
 10
83.999999999996405
 20
-50.99999962646222
 30
0.0
  0
VERTEX
  5
21D1
  8
SAPA_PROFIL
 10
83.999999999996405
 20
-53.999999626462227
 30
0.0
  0
VERTEX
  5
21D2
  8
SAPA_PROFIL
 10
86.499999999996405
 20
-53.999999626462227
 30
0.0
  0
VERTEX
  5
21D3
  8
SAPA_PROFIL
 10
86.499999999996405
 20
-54.999999626462227
 30
0.0
  0
VERTEX
  5
21D4
  8
SAPA_PROFIL
 10
85.699999999996365
 20
-55.799999626462181
 30
0.0
  0
VERTEX
  5
21D5
  8
SAPA_PROFIL
 10
80.01961524226715
 20
-55.799999626462181
 30
0.0
  0
VERTEX
  5
21D6
  8
SAPA_PROFIL
 10
79.499999999996476
 20
-55.49999962646222
 30
0.0
  0
VERTEX
  5
21D7
  8
SAPA_PROFIL
 10
78.980384757725801
 20
-55.799999626462181
 30
0.0
  0
VERTEX
  5
21D8
  8
SAPA_PROFIL
 10
73.29999999999643
 20
-55.799999626462181
 30
0.0
  0
VERTEX
  5
21D9
  8
SAPA_PROFIL
 10
72.499999999996476
 20
-54.999999626462227
 30
0.0
  0
VERTEX
  5
21DA
  8
SAPA_PROFIL
 10
72.499999999996476
 20
-53.999999626462227
 30
0.0
  0
VERTEX
  5
21DB
  8
SAPA_PROFIL
 10
74.999999999996476
 20
-53.999999626462227
 30
0.0
  0
VERTEX
  5
21DC
  8
SAPA_PROFIL
 10
74.999999999996419
 20
-50.99999962646222
 30
0.0
  0
VERTEX
  5
21DD
  8
SAPA_PROFIL
 10
56.29999999999643
 20
-50.99999962646222
 30
0.0
  0
VERTEX
  5
21DE
  8
SAPA_PROFIL
 10
56.299999999996487
 20
-53.999999626462227
 30
0.0
  0
VERTEX
  5
21DF
  8
SAPA_PROFIL
 10
58.499999999996469
 20
-53.999999626462227
 30
0.0
  0
VERTEX
  5
21E0
  8
SAPA_PROFIL
 10
58.499999999996469
 20
-54.999999626462227
 30
0.0
  0
VERTEX
  5
21E1
  8
SAPA_PROFIL
 10
57.499999999996483
 20
-55.99999962646222
 30
0.0
  0
VERTEX
  5
21E2
  8
SAPA_PROFIL
 10
56.299999999996487
 20
-55.99999962646222
 30
0.0
  0
VERTEX
  5
21E3
  8
SAPA_PROFIL
 10
56.299999999996537
 20
-65.999999626462227
 30
0.0
 42
0.4142135623730951
  0
VERTEX
  5
21E4
  8
SAPA_PROFIL
 10
56.799999999996551
 20
-66.499999626462227
 30
0.0
  0
VERTEX
  5
21E5
  8
SAPA_PROFIL
 10
58.009999999996523
 20
-66.499999626462227
 30
0.0
 42
-0.4142135623730951
  0
VERTEX
  5
21E6
  8
SAPA_PROFIL
 10
58.999999999996469
 20
-67.489999626462236
 30
0.0
  0
VERTEX
  5
21E7
  8
SAPA_PROFIL
 10
58.999999999996533
 20
-68.009999626462218
 30
0.0
 42
-0.4142135623730951
  0
VERTEX
  5
21E8
  8
SAPA_PROFIL
 10
58.009999999996523
 20
-68.999999626462227
 30
0.0
  0
VERTEX
  5
21E9
  8
SAPA_PROFIL
 10
57.999999999996533
 20
-68.999999626462227
 30
0.0
  0
VERTEX
  5
21EA
  8
SAPA_PROFIL
 10
57.999999999996533
 20
-67.749999626462227
 30
0.0
  0
VERTEX
  5
21EB
  8
SAPA_PROFIL
 10
56.499999999996533
 20
-67.749999626462227
 30
0.0
 42
0.4142135623730951
  0
VERTEX
  5
21EC
  8
SAPA_PROFIL
 10
55.999999999996533
 20
-68.249999626462227
 30
0.0
  0
VERTEX
  5
21ED
  8
SAPA_PROFIL
 10
55.999999999996533
 20
-76.249999626462227
 30
0.0
 42
0.4142135623730951
  0
VERTEX
  5
21EE
  8
SAPA_PROFIL
 10
56.499999999996533
 20
-76.749999626462227
 30
0.0
  0
VERTEX
  5
21EF
  8
SAPA_PROFIL
 10
57.999999999996533
 20
-76.749999626462227
 30
0.0
  0
VERTEX
  5
21F0
  8
SAPA_PROFIL
 10
57.999999999996533
 20
-75.499999626462227
 30
0.0
  0
VERTEX
  5
21F1
  8
SAPA_PROFIL
 10
58.009999999996523
 20
-75.499999626462227
 30
0.0
 42
-0.4142135623730951
  0
VERTEX
  5
21F2
  8
SAPA_PROFIL
 10
58.999999999996469
 20
-76.489999626462236
 30
0.0
  0
VERTEX
  5
21F3
  8
SAPA_PROFIL
 10
58.999999999996533
 20
-77.699999626462159
 30
0.0
 42
-0.4142135623731229
  0
VERTEX
  5
21F4
  8
SAPA_PROFIL
 10
58.699999999996521
 20
-77.999999626462227
 30
0.0
  0
VERTEX
  5
21F5
  8
SAPA_PROFIL
 10
54.799999999996537
 20
-77.999999626462227
 30
0.0
 42
-0.4142135623730675
  0
VERTEX
  5
21F6
  8
SAPA_PROFIL
 10
54.499999999996533
 20
-77.699999626462159
 30
0.0
  0
VERTEX
  5
21F7
  8
SAPA_PROFIL
 10
54.499999999996419
 20
-0.2999996264621814
 30
0.0
 42
-0.4142135623731227
  0
VERTEX
  5
21F8
  8
SAPA_PROFIL
 10
54.79999999999643
 20
0.0000003735377732
 30
0.0
  0
VERTEX
  5
21F9
  8
SAPA_PROFIL
 10
56.29999999999643
 20
0.0000003735377732
 30
0.0
 42
-0.4142135623730951
  0
VERTEX
  5
21FA
  8
SAPA_PROFIL
 10
57.79999999999643
 20
-1.499999626462226
 30
0.0
  0
VERTEX
  5
21FB
  8
SAPA_PROFIL
 10
57.79999999999643
 20
-1.999999626462226
 30
0.0
  0
VERTEX
  5
21FC
  8
SAPA_PROFIL
 10
56.524999999996403
 20
-1.999999626462226
 30
0.0
  0
VERTEX
  5
21FD
  8
SAPA_PROFIL
 10
56.524999999996403
 20
-3.0999996264622491
 30
0.0
  0
VERTEX
  5
21FE
  8
SAPA_PROFIL
 10
57.499999999996419
 20
-3.0999996264622491
 30
0.0
 42
-0.4142135623731227
  0
VERTEX
  5
21FF
  8
SAPA_PROFIL
 10
57.799999999996373
 20
-3.3999996264622041
 30
0.0
  0
VERTEX
  5
2200
  8
SAPA_PROFIL
 10
57.799999999996373
 20
-4.3999996264622041
 30
0.0
  0
VERTEX
  5
2201
  8
SAPA_PROFIL
 10
56.524999999996403
 20
-4.3999996264622041
 30
0.0
  0
VERTEX
  5
2202
  8
SAPA_PROFIL
 10
56.524999999996403
 20
-7.499999626462226
 30
0.0
 42
1.0
  0
VERTEX
  5
2203
  8
SAPA_PROFIL
 10
61.724999999996378
 20
-7.499999626462226
 30
0.0
  0
VERTEX
  5
2204
  8
SAPA_PROFIL
 10
61.724999999996442
 20
-4.3999996264623169
 30
0.0
  0
VERTEX
  5
2205
  8
SAPA_PROFIL
 10
60.499999999996362
 20
-4.3999996264623169
 30
0.0
  0
VERTEX
  5
2206
  8
SAPA_PROFIL
 10
60.499999999996362
 20
-3.3999996264622041
 30
0.0
 42
-0.4142135623730673
  0
VERTEX
  5
2207
  8
SAPA_PROFIL
 10
60.799999999996373
 20
-3.0999996264622491
 30
0.0
  0
VERTEX
  5
2208
  8
SAPA_PROFIL
 10
61.724999999996442
 20
-3.0999996264622491
 30
0.0
  0
VERTEX
  5
2209
  8
SAPA_PROFIL
 10
61.724999999996442
 20
-1.999999626462226
 30
0.0
  0
VERTEX
  5
220A
  8
SAPA_PROFIL
 10
60.499999999996412
 20
-1.999999626462226
 30
0.0
  0
VERTEX
  5
220B
  8
SAPA_PROFIL
 10
60.499999999996412
 20
-1.499999626462226
 30
0.0
 42
-0.4142135623730951
  0
VERTEX
  5
220C
  8
SAPA_PROFIL
 10
61.999999999996419
 20
0.0000003735377732
 30
0.0
  0
VERTEX
  5
220D
  8
SAPA_PROFIL
 10
63.4499999999964
 20
0.0000003735377732
 30
0.0
 42
-0.4142135623731227
  0
VERTEX
  5
220E
  8
SAPA_PROFIL
 10
63.749999999996419
 20
-0.2999996264621814
 30
0.0
  0
VERTEX
  5
220F
  8
SAPA_PROFIL
 10
63.749999999996419
 20
-2.7999996264621809
 30
0.0
  0
VERTEX
  5
2210
  8
SAPA_PROFIL
 10
78.980384757725744
 20
-2.7999996264621809
 30
0.0
  0
VERTEX
  5
2211
  8
SAPA_PROFIL
 10
79.499999999996419
 20
-3.099999626462135
 30
0.0
  0
VERTEX
  5
2212
  8
SAPA_PROFIL
 10
80.019615242266994
 20
-2.7999996264621809
 30
0.0
  0
VERTEX
  5
2213
  8
SAPA_PROFIL
 10
95.249999999996405
 20
-2.7999996264621809
 30
0.0
  0
VERTEX
  5
2214
  8
SAPA_PROFIL
 10
95.249999999996405
 20
-0.2999996264621814
 30
0.0
 42
-0.4142135623730951
  0
VERTEX
  5
2215
  8
SAPA_PROFIL
 10
95.549999999996487
 20
0.0000003735378868
 30
0.0
  0
VERTEX
  5
2216
  8
SAPA_PROFIL
 10
96.999999999996419
 20
0.0000003735378868
 30
0.0
 42
-0.4142135623730951
  0
VERTEX
  5
2217
  8
SAPA_PROFIL
 10
98.499999999996419
 20
-1.4999996264621129
 30
0.0
  0
VERTEX
  5
2218
  8
SAPA_PROFIL
 10
98.499999999996419
 20
-1.9999996264621129
 30
0.0
  0
VERTEX
  5
2219
  8
SAPA_PROFIL
 10
97.274999999996396
 20
-1.9999996264621129
 30
0.0
  0
VERTEX
  5
221A
  8
SAPA_PROFIL
 10
97.274999999996396
 20
-3.099999626462135
 30
0.0
  0
VERTEX
  5
221B
  8
SAPA_PROFIL
 10
98.199999999996464
 20
-3.099999626462135
 30
0.0
 42
-0.4142135623730951
  0
VERTEX
  5
221C
  8
SAPA_PROFIL
 10
98.499999999996419
 20
-3.39999962646209
 30
0.0
  0
VERTEX
  5
221D
  8
SAPA_PROFIL
 10
98.499999999996419
 20
-4.3999996264622041
 30
0.0
  0
VERTEX
  5
221E
  8
SAPA_PROFIL
 10
97.274999999996396
 20
-4.3999996264622041
 30
0.0
  0
VERTEX
  5
221F
  8
SAPA_PROFIL
 10
97.274999999996396
 20
-7.4999996264621132
 30
0.0
 42
1.0
  0
VERTEX
  5
2220
  8
SAPA_PROFIL
 10
102.4749999999964
 20
-7.4999996264621132
 30
0.0
  0
VERTEX
  5
2221
  8
SAPA_PROFIL
 10
102.4749999999964
 20
-4.3999996264622041
 30
0.0
  0
VERTEX
  5
2222
  8
SAPA_PROFIL
 10
101.19999999999639
 20
-4.3999996264622041
 30
0.0
  0
VERTEX
  5
2223
  8
SAPA_PROFIL
 10
101.19999999999639
 20
-3.3999996264622041
 30
0.0
 42
-0.4142135623730951
  0
VERTEX
  5
2224
  8
SAPA_PROFIL
 10
101.4999999999964
 20
-3.099999626462135
 30
0.0
  0
VERTEX
  5
2225
  8
SAPA_PROFIL
 10
102.4749999999964
 20
-3.099999626462135
 30
0.0
  0
VERTEX
  5
2226
  8
SAPA_PROFIL
 10
102.4749999999964
 20
-1.9999996264621129
 30
0.0
  0
VERTEX
  5
2227
  8
SAPA_PROFIL
 10
101.19999999999639
 20
-1.9999996264621129
 30
0.0
  0
VERTEX
  5
2228
  8
SAPA_PROFIL
 10
101.19999999999639
 20
-1.4999996264621129
 30
0.0
 42
-0.4142135623730951
  0
VERTEX
  5
2229
  8
SAPA_PROFIL
 10
102.69999999999639
 20
0.0000003735378868
 30
0.0
  0
VERTEX
  5
222A
  8
SAPA_PROFIL
 10
104.19999999999639
 20
0.0000003735378868
 30
0.0
 42
-0.4142135623730951
  0
VERTEX
  5
222B
  8
SAPA_PROFIL
 10
104.4999999999964
 20
-0.2999996264621814
 30
0.0
  0
VERTEX
  5
222C
  8
SAPA_PROFIL
 10
104.4999999999964
 20
-55.99999962646212
 30
0.0
  0
VERTEX
  5
222D
  8
SAPA_PROFIL
 10
101.4999999999964
 20
-55.99999962646212
 30
0.0
  0
SEQEND
  5
222E
  8
SAPA_PROFIL
  0
POLYLINE
  5
1C4B
  8
SAPA_PROFIL
 66
     1
 10
0.0
 20
0.0
 30
0.0
 70
     1
  0
VERTEX
  5
222F
  8
SAPA_PROFIL
 10
48.494881179554412
 20
10.6909533232689
 30
0.0
  0
VERTEX
  5
2230
  8
SAPA_PROFIL
 10
47.494881179554412
 20
9.6909533232689
 30
0.0
  0
VERTEX
  5
2231
  8
SAPA_PROFIL
 10
47.49488117955439
 20
-1.3090466767310991
 30
0.0
  0
VERTEX
  5
2232
  8
SAPA_PROFIL
 10
48.494881179554397
 20
-2.3090466767310991
 30
0.0
  0
VERTEX
  5
2233
  8
SAPA_PROFIL
 10
48.494881179554397
 20
-4.8090459346592516
 30
0.0
 42
-1.0000014841447959
  0
VERTEX
  5
2234
  8
SAPA_PROFIL
 10
47.494881179554959
 20
-4.8090459346592516
 30
0.0
  0
VERTEX
  5
2235
  8
SAPA_PROFIL
 10
47.49488117955439
 20
-3.5590466767310991
 30
0.0
  0
VERTEX
  5
2236
  8
SAPA_PROFIL
 10
46.394881179554368
 20
-3.5590466767310991
 30
0.0
  0
VERTEX
  5
2237
  8
SAPA_PROFIL
 10
46.394881179554368
 20
-11.0590466767311
 30
0.0
  0
VERTEX
  5
2238
  8
SAPA_PROFIL
 10
47.49488117955439
 20
-11.0590466767311
 30
0.0
  0
VERTEX
  5
2239
  8
SAPA_PROFIL
 10
47.49488117955439
 20
-9.8090447739281217
 30
0.0
 42
-0.9999967549392536
  0
VERTEX
  5
223A
  8
SAPA_PROFIL
 10
48.494881179552578
 20
-9.8090453344681237
 30
0.0
  0
VERTEX
  5
223B
  8
SAPA_PROFIL
 10
48.494881179554397
 20
-11.844945061593419
 30
0.0
  0
VERTEX
  5
223C
  8
SAPA_PROFIL
 10
47.36090658333881
 20
-13.8090466767311
 30
0.0
 42
-0.577350269189629
  0
VERTEX
  5
223D
  8
SAPA_PROFIL
 10
45.628855775769921
 20
-13.8090466767311
 30
0.0
  0
VERTEX
  5
223E
  8
SAPA_PROFIL
 10
44.628855775769971
 20
-12.076995869162371
 30
0.0
 42
-0.4142135623730394
  0
VERTEX
  5
223F
  8
SAPA_PROFIL
 10
44.99488117955422
 20
-10.710970465377949
 30
0.0
  0
VERTEX
  5
2240
  8
SAPA_PROFIL
 10
44.994881179554241
 20
19.092877111915751
 30
0.0
 42
-0.4142135623730394
  0
VERTEX
  5
2241
  8
SAPA_PROFIL
 10
44.628855775769992
 20
20.458902515700061
 30
0.0
  0
VERTEX
  5
2242
  8
SAPA_PROFIL
 10
45.628855775769928
 20
22.1909533232689
 30
0.0
 42
-0.5773502691896291
  0
VERTEX
  5
2243
  8
SAPA_PROFIL
 10
47.360906583338831
 20
22.1909533232689
 30
0.0
  0
VERTEX
  5
2244
  8
SAPA_PROFIL
 10
48.494881179554412
 20
20.226851708131111
 30
0.0
  0
VERTEX
  5
2245
  8
SAPA_PROFIL
 10
48.494881179552593
 20
18.19095198100587
 30
0.0
 42
-0.9999967549392536
  0
VERTEX
  5
2246
  8
SAPA_PROFIL
 10
47.494881179554412
 20
18.190951420465861
 30
0.0
  0
VERTEX
  5
2247
  8
SAPA_PROFIL
 10
47.494881179554412
 20
19.4409533232689
 30
0.0
  0
VERTEX
  5
2248
  8
SAPA_PROFIL
 10
46.394881179554389
 20
19.4409533232689
 30
0.0
  0
VERTEX
  5
2249
  8
SAPA_PROFIL
 10
46.394881179554389
 20
11.9409533232689
 30
0.0
  0
VERTEX
  5
224A
  8
SAPA_PROFIL
 10
47.494881179554412
 20
11.9409533232689
 30
0.0
  0
VERTEX
  5
224B
  8
SAPA_PROFIL
 10
47.49488117955498
 20
13.190952581197051
 30
0.0
 42
-1.0000014841447959
  0
VERTEX
  5
224C
  8
SAPA_PROFIL
 10
48.494881179554412
 20
13.190952581197051
 30
0.0
  0
SEQEND
  5
224D
  8
SAPA_PROFIL
  0
ARC
  5
1C4C
  8
SAPA_PROFIL
 10
-33.900000000001832
 20
12.288211253245951
 30
0.0
 40
0.2999999999998626
 50
45.784666420770662
 51
181.55442622518859
  0
LINE
  5
1C4D
  8
SAPA_PROFIL
 10
-31.430030478058029
 20
10.3035555518951
 30
0.0
 11
-33.690792918440479
 21
12.50322845494037
 31
0.0
  0
ARC
  5
1C4E
  8
SAPA_PROFIL
 10
-31.59187988339287
 20
10.050959490974209
 30
0.0
 40
0.2999999999999829
 50
359.9999999999888
 51
57.350526721836623
  0
LINE
  5
1C4F
  8
SAPA_PROFIL
 10
-31.29187988339288
 20
9.5000003735377732
 30
0.0
 11
-31.29187988339288
 21
10.050959490974151
 31
0.0
  0
ARC
  5
1C50
  8
SAPA_PROFIL
 10
-31.591879883392721
 20
9.5000003735378868
 30
0.0
 40
0.2999999999998408
 50
269.99999999997829
 51
359.99999999997829
  0
LINE
  5
1C51
  8
SAPA_PROFIL
 10
-56.693485944234958
 20
9.2000003735381028
 30
0.0
 11
-31.591879883392831
 21
9.200000373538046
 31
0.0
  0
ARC
  5
1C52
  8
SAPA_PROFIL
 10
-56.693485944234951
 20
8.7000003735380904
 30
0.0
 40
0.5000000000000142
 50
90.000000000001606
 51
179.99999999999861
  0
LINE
  5
1C53
  8
SAPA_PROFIL
 10
-57.193485944234972
 20
7.0000003735380574
 30
0.0
 11
-57.193485944234972
 21
8.7000003735381028
 31
0.0
  0
ARC
  5
1C54
  8
SAPA_PROFIL
 10
-56.693485944234993
 20
7.0000003735380343
 30
0.0
 40
0.4999999999999769
 50
179.9999999999973
 51
270.0000000000025
  0
LINE
  5
1C55
  8
SAPA_PROFIL
 10
-43.991879883392407
 20
6.5000003735385121
 30
0.0
 11
-56.693485944234958
 21
6.5000003735380574
 31
0.0
  0
ARC
  5
1C56
  8
SAPA_PROFIL
 10
-43.991879883392407
 20
6.2000003735385567
 30
0.0
 40
0.2999999999999545
 50
359.99999999995657
 51
90.0
  0
LINE
  5
1C57
  8
SAPA_PROFIL
 10
-43.69187988339246
 20
5.3000003735382393
 30
0.0
 11
-43.69187988339246
 21
6.2000003735383302
 31
0.0
  0
ARC
  5
1C58
  8
SAPA_PROFIL
 10
-43.991879883392642
 20
5.3000003735382393
 30
0.0
 40
0.3000000000001819
 50
270.0
 51
0.0
  0
LINE
  5
1C59
  8
SAPA_PROFIL
 10
-58.393485944235231
 20
5.000000373538966
 30
0.0
 11
-43.991879883392642
 21
5.0000003735380574
 31
0.0
  0
ARC
  5
1C5A
  8
SAPA_PROFIL
 10
-58.393485944235238
 20
5.300000373538686
 30
0.0
 40
0.29999999999972
 50
179.99999999999861
 51
270.00000000000131
  0
LINE
  5
1C5B
  8
SAPA_PROFIL
 10
-58.69348594423451
 20
14.400000373537461
 30
0.0
 11
-58.693485944234958
 21
5.300000373538694
 31
0.0
  0
ARC
  5
1C5C
  8
SAPA_PROFIL
 10
-71.454205507059442
 20
14.550000373547
 30
0.0
 40
12.76160114409887
 50
359.32652927028761
 51
0.6734707296255361
  0
ARC
  5
1C5D
  8
SAPA_PROFIL
 10
-48.309870737645902
 20
14.85000037352941
 30
0.0
 40
10.38469858775357
 50
179.17237214583739
 51
180.82762785407559
  0
LINE
  5
1C5E
  8
SAPA_PROFIL
 10
-58.693485944234062
 20
17.800000373537099
 30
0.0
 11
-58.693485944234062
 21
15.00000037353737
 31
0.0
  0
LINE
  5
1C5F
  8
SAPA_PROFIL
 10
-58.228562524668689
 20
18.386384389297909
 30
0.0
 11
-58.693485944234062
 21
17.800000373537099
 31
0.0
  0
ARC
  5
1C60
  8
SAPA_PROFIL
 10
-57.993485944233868
 20
18.200000373537179
 30
0.0
 40
0.3000000000000398
 50
0.000000000001357
 51
141.5903289366027
  0
LINE
  5
1C61
  8
SAPA_PROFIL
 10
-57.693485944234048
 20
16.500000373537372
 30
0.0
 11
-57.693485944233828
 21
18.20000037353719
 31
0.0
  0
ARC
  5
1C62
  8
SAPA_PROFIL
 10
-57.393485944233873
 20
16.500000373537372
 30
0.0
 40
0.3000000000001819
 50
180.0
 51
270.0
  0
LINE
  5
1C63
  8
SAPA_PROFIL
 10
-53.193485944234062
 20
16.20000037353719
 30
0.0
 11
-57.393485944233873
 21
16.20000037353719
 31
0.0
  0
ARC
  5
1C64
  8
SAPA_PROFIL
 10
-53.193485944234283
 20
16.500000373537151
 30
0.0
 40
0.2999999999999545
 50
270.00000000004343
 51
0.0000000000434252
  0
LINE
  5
1C65
  8
SAPA_PROFIL
 10
-52.893485944234101
 20
23.000000373537379
 30
0.0
 11
-52.893485944234328
 21
16.500000373537372
 31
0.0
  0
ARC
  5
1C66
  8
SAPA_PROFIL
 10
-53.193485944233828
 20
23.000000373537379
 30
0.0
 40
0.2999999999997271
 50
0.0
 51
90.000000000043414
  0
LINE
  5
1C67
  8
SAPA_PROFIL
 10
-57.393485944234101
 20
23.300000373537099
 30
0.0
 11
-53.193485944234062
 21
23.300000373537099
 31
0.0
  0
ARC
  5
1C68
  8
SAPA_PROFIL
 10
-57.393485944234151
 20
23.000000373537429
 30
0.0
 40
0.2999999999996703
 50
89.999999999989143
 51
180.0000000000108
  0
LINE
  5
1C69
  8
SAPA_PROFIL
 10
-57.693485944234048
 20
21.800000373537099
 30
0.0
 11
-57.693485944233828
 21
23.000000373537379
 31
0.0
  0
ARC
  5
1C6A
  8
SAPA_PROFIL
 10
-57.993485944233989
 20
21.80000037353711
 30
0.0
 40
0.2999999999999416
 50
218.4096710634125
 51
359.99999999999858
  0
LINE
  5
1C6B
  8
SAPA_PROFIL
 10
-58.693485944234062
 20
22.20000037353719
 30
0.0
 11
-58.228562524668689
 21
21.61361635777638
 31
0.0
  0
LINE
  5
1C6C
  8
SAPA_PROFIL
 10
-58.693485944234062
 20
24.500000373537379
 30
0.0
 11
-58.693485944234062
 21
22.20000037353719
 31
0.0
  0
ARC
  5
1C6D
  8
SAPA_PROFIL
 10
-58.393485944234101
 20
24.500000373537151
 30
0.0
 40
0.2999999999999545
 50
89.999999999956557
 51
179.99999999995649
  0
LINE
  5
1C6E
  8
SAPA_PROFIL
 10
-51.193485944234062
 20
24.800000373537099
 30
0.0
 11
-58.393485944233881
 21
24.800000373537099
 31
0.0
  0
ARC
  5
1C6F
  8
SAPA_PROFIL
 10
-51.193485944234062
 20
24.500000373537151
 30
0.0
 40
0.2999999999999545
 50
359.99999999995657
 51
90.0
  0
LINE
  5
1C70
  8
SAPA_PROFIL
 10
-50.893485944234101
 20
22.70000037353719
 30
0.0
 11
-50.893485944234101
 21
24.500000373536921
 31
0.0
  0
LINE
  5
1C71
  8
SAPA_PROFIL
 10
-51.093485944233919
 20
22.70000037353719
 30
0.0
 11
-50.893485944234101
 21
22.70000037353719
 31
0.0
  0
ARC
  5
1C72
  8
SAPA_PROFIL
 10
-51.093485944234153
 20
22.400000373537459
 30
0.0
 40
0.2999999999997271
 50
89.999999999956557
 51
180.0
  0
LINE
  5
1C73
  8
SAPA_PROFIL
 10
-51.393485944233873
 20
15.00000037353737
 30
0.0
 11
-51.393485944233873
 21
22.400000373537459
 31
0.0
  0
ARC
  5
1C74
  8
SAPA_PROFIL
 10
-51.693485944234048
 20
15.00000037353737
 30
0.0
 40
0.3000000000001819
 50
270.0
 51
0.0
  0
LINE
  5
1C75
  8
SAPA_PROFIL
 10
-56.69348594423451
 20
14.70000037353719
 30
0.0
 11
-51.693485944234048
 21
14.70000037353719
 31
0.0
  0
ARC
  5
1C76
  8
SAPA_PROFIL
 10
-56.693485944234503
 20
14.200000373537179
 30
0.0
 40
0.5000000000000142
 50
90.000000000001606
 51
179.99999999999861
  0
LINE
  5
1C77
  8
SAPA_PROFIL
 10
-57.193485944234737
 20
11.20000037353719
 30
0.0
 11
-57.19348594423451
 21
14.20000037353719
 31
0.0
  0
ARC
  5
1C78
  8
SAPA_PROFIL
 10
-56.693485944234652
 20
11.200000373537049
 30
0.0
 40
0.5000000000000853
 50
179.99999999998369
 51
269.99999999999022
  0
LINE
  5
1C79
  8
SAPA_PROFIL
 10
-34.500000000001712
 20
10.700000373538099
 30
0.0
 11
-56.693485944234737
 21
10.700000373536961
 31
0.0
  0
ARC
  5
1C7A
  8
SAPA_PROFIL
 10
-34.50000000000172
 20
11.00000037353807
 30
0.0
 40
0.2999999999999687
 50
270.00000000000267
 51
359.99999999999801
  0
LINE
  5
1C7B
  8
SAPA_PROFIL
 10
-34.200000000001751
 20
12.288211253246059
 30
0.0
 11
-34.200000000001751
 21
11.00000037353805
 31
0.0
  0
ARC
  5
1C7C
  8
SAPA_PROFIL
  6
CONTINUOUS
 62
     7
 10
-74.000000000957499
 20
16.000000747073361
 30
0.0
 40
0.4999999999996021
 50
359.99999999995521
 51
89.999999999956032
  0
LINE
  5
1C7D
  8
SAPA_PROFIL
  6
CONTINUOUS
 62
     7
 10
-73.500000000957101
 20
15.00000074707296
 30
0.0
 11
-73.500000000957897
 21
16.000000747072971
 31
0.0
  0
ARC
  5
1C7E
  8
SAPA_PROFIL
  6
CONTINUOUS
 62
     7
 10
-76.000000000962856
 20
15.00000074707266
 30
0.0
 40
2.5000000000057541
 50
300.00000002125398
 51
0.0000000000069209
  0
ARC
  5
1C7F
  8
SAPA_PROFIL
  6
CONTINUOUS
 62
     7
 10
-74.500000000005144
 20
12.40192453627162
 30
0.0
 40
0.4999999999948131
 50
120.0000000204161
 51
179.9999999989285
  0
LINE
  5
1C80
  8
SAPA_PROFIL
  6
CONTINUOUS
 62
     7
 10
-74.999999999999957
 20
7.4000007470737632
 30
0.0
 11
-74.999999999999957
 21
12.401924536280969
 31
0.0
  0
ARC
  5
1C81
  8
SAPA_PROFIL
  6
CONTINUOUS
 62
     7
 10
-74.499999999999943
 20
7.4000007470737641
 30
0.0
 40
0.5000000000000018
 50
180.0000000000002
 51
269.99999999999352
  0
LINE
  5
1C82
  8
SAPA_PROFIL
  6
CONTINUOUS
 62
     7
 10
-72.799999999999926
 20
6.9000007470735421
 30
0.0
 11
-74.500000000000014
 21
6.9000007470737632
 31
0.0
  0
ARC
  5
1C83
  8
SAPA_PROFIL
  6
CONTINUOUS
 62
     7
 10
-72.799999999999955
 20
6.6000007470735591
 30
0.0
 40
0.2999999999999841
 50
19.471220634343979
 51
89.999999999994586
  0
ARC
  5
1C84
  8
SAPA_PROFIL
  6
CONTINUOUS
 62
     7
 10
-72.234314575051485
 20
6.8000007470729891
 30
0.0
 40
0.2999999999991045
 50
199.4712206345838
 51
270.00000000020623
  0
LINE
  5
1C85
  8
SAPA_PROFIL
  6
CONTINUOUS
 62
     7
 10
-70.799999999999685
 20
6.5000007470729972
 30
0.0
 11
-72.234314575050405
 21
6.5000007470738854
 31
0.0
  0
ARC
  5
1C86
  8
SAPA_PROFIL
  6
CONTINUOUS
 62
     7
 10
-70.799999999999244
 20
6.2000007470732843
 30
0.0
 40
0.2999999999997271
 50
0.0000000000949926
 51
90.000000000084114
  0
LINE
  5
1C87
  8
SAPA_PROFIL
  6
CONTINUOUS
 62
     7
 10
-70.499999999999929
 20
5.6000007470731692
 30
0.0
 11
-70.499999999999517
 21
6.2000007470737808
 31
0.0
  0
ARC
  5
1C88
  8
SAPA_PROFIL
  6
CONTINUOUS
 62
     7
 10
-70.799999999999926
 20
5.60000074707387
 30
0.0
 40
0.3000000000000096
 50
270.00000000004343
 51
359.99999999986602
  0
LINE
  5
1C89
  8
SAPA_PROFIL
  6
CONTINUOUS
 62
     7
 10
-72.19999999999979
 20
5.3000007470729731
 30
0.0
 11
-70.799999999999685
 21
5.3000007470738613
 31
0.0
  0
ARC
  5
1C8A
  8
SAPA_PROFIL
  6
CONTINUOUS
 62
     7
 10
-72.200000000000259
 20
5.0000007470732744
 30
0.0
 40
0.2999999999996987
 50
89.999999999910429
 51
179.99999999990629
  0
LINE
  5
1C8B
  8
SAPA_PROFIL
  6
CONTINUOUS
 62
     7
 10
-72.499999999999957
 20
-4.9999992529268162
 30
0.0
 11
-72.499999999999957
 21
5.0000007470737637
 31
0.0
  0
ARC
  5
1C8C
  8
SAPA_PROFIL
  6
CONTINUOUS
 62
     7
 10
-72.19999999999979
 20
-4.9999992529268189
 30
0.0
 40
0.3000000000001712
 50
179.99999999999929
 51
270.0
  0
LINE
  5
1C8D
  8
SAPA_PROFIL
  6
CONTINUOUS
 62
     7
 10
-70.799999999999685
 20
-5.2999992529270008
 30
0.0
 11
-72.19999999999979
 21
-5.299999252926991
 31
0.0
  0
ARC
  5
1C8E
  8
SAPA_PROFIL
  6
CONTINUOUS
 62
     7
 10
-70.799999999999471
 20
-5.599999252926497
 30
0.0
 40
0.2999999999994856
 50
0.0000000000439341
 51
90.000000000043414
  0
LINE
  5
1C8F
  8
SAPA_PROFIL
  6
CONTINUOUS
 62
     7
 10
-70.499999999999972
 20
-6.1999992529268146
 30
0.0
 11
-70.499999999999986
 21
-5.5999992529262661
 31
0.0
  0
ARC
  5
1C90
  8
SAPA_PROFIL
  6
CONTINUOUS
 62
     7
 10
-70.800000000000153
 20
-6.1999992529268173
 30
0.0
 40
0.3000000000001801
 50
270.0000000000868
 51
0.0000000000003393
  0
LINE
  5
1C91
  8
SAPA_PROFIL
  6
CONTINUOUS
 62
     7
 10
-72.234314575050021
 20
-6.4999992529260906
 30
0.0
 11
-70.799999999999685
 21
-6.4999992529269974
 31
0.0
  0
ARC
  5
1C92
  8
SAPA_PROFIL
  6
CONTINUOUS
 62
     7
 10
-72.234314575050206
 20
-6.7999992529260904
 30
0.0
 40
0.3000000000000111
 50
89.999999999964714
 51
160.52877936565761
  0
ARC
  5
1C93
  8
SAPA_PROFIL
  6
CONTINUOUS
 62
     7
 10
-72.799999999999983
 20
-6.599999252927546
 30
0.0
 40
0.2999999999999998
 50
270.00000000000807
 51
340.5287793656575
  0
LINE
  5
1C94
  8
SAPA_PROFIL
  6
CONTINUOUS
 62
     7
 10
-80.299999999999699
 20
-6.8999992529284411
 30
0.0
 11
-72.79999999999994
 21
-6.8999992529275458
 31
0.0
  0
ARC
  5
1C95
  8
SAPA_PROFIL
  6
CONTINUOUS
 62
     7
 10
-80.299999999999699
 20
-5.8999992529284411
 30
0.0
 40
1.0
 50
180.0
 51
270.0
  0
LINE
  5
1C96
  8
SAPA_PROFIL
  6
CONTINUOUS
 62
     7
 10
-81.300000000000182
 20
-5.0873689947514471
 30
0.0
 11
-81.299999999999699
 21
-5.8999992529284411
 31
0.0
  0
ARC
  5
1C97
  8
SAPA_PROFIL
  6
CONTINUOUS
 62
     7
 10
-81.000000000000171
 20
-5.0873689947512606
 30
0.0
 40
0.30000000000001
 50
130.00000000000099
 51
180.00000000003541
  0
LINE
  5
1C98
  8
SAPA_PROFIL
  6
CONTINUOUS
 62
     7
 10
-80.492836282905586
 20
-4.2701859199910031
 30
0.0
 11
-81.192836282906157
 21
-4.8575556618155629
 31
0.0
  0
ARC
  5
1C99
  8
SAPA_PROFIL
  6
CONTINUOUS
 62
     7
 10
-80.299999999999784
 20
-4.4999992529265302
 30
0.0
 40
0.299999999999784
 50
0.000000000083797
 51
130.00000000000119
  0
LINE
  5
1C9A
  8
SAPA_PROFIL
  6
CONTINUOUS
 62
     7
 10
-79.999999999999488
 20
-5.2999992529280782
 30
0.0
 11
-79.999999999999986
 21
-4.4999992529260906
 31
0.0
  0
ARC
  5
1C9B
  8
SAPA_PROFIL
  6
CONTINUOUS
 62
     7
 10
-79.700000000000287
 20
-5.2999992529280791
 30
0.0
 40
0.2999999999991996
 50
179.9999999999996
 51
270.00000000009499
  0
LINE
  5
1C9C
  8
SAPA_PROFIL
  6
CONTINUOUS
 62
     7
 10
-75.299999999999216
 20
-5.5999992529273497
 30
0.0
 11
-79.69999999999979
 21
-5.5999992529272786
 31
0.0
  0
ARC
  5
1C9D
  8
SAPA_PROFIL
  6
CONTINUOUS
 62
     7
 10
-75.299999999999471
 20
-5.2999992529274103
 30
0.0
 40
0.2999999999999403
 50
270.0000000000461
 51
0.0000000000447822
  0
LINE
  5
1C9E
  8
SAPA_PROFIL
  6
CONTINUOUS
 62
     7
 10
-74.999999999999517
 20
5.3000007470722688
 30
0.0
 11
-74.999999999999531
 21
-5.2999992529271749
 31
0.0
  0
ARC
  5
1C9F
  8
SAPA_PROFIL
  6
CONTINUOUS
 62
     7
 10
-75.299999999999486
 20
5.3000007470724588
 30
0.0
 40
0.2999999999999634
 50
359.99999999996368
 51
89.999999999953857
  0
LINE
  5
1CA0
  8
SAPA_PROFIL
  6
CONTINUOUS
 62
     7
 10
-79.699999999999775
 20
5.6000007470733619
 30
0.0
 11
-75.299999999999244
 21
5.6000007470724231
 31
0.0
  0
ARC
  5
1CA1
  8
SAPA_PROFIL
  6
CONTINUOUS
 62
     7
 10
-79.69999999999979
 20
5.3000007470731587
 30
0.0
 40
0.3000000000001961
 50
89.999999999997286
 51
179.99999999999861
  0
LINE
  5
1CA2
  8
SAPA_PROFIL
  6
CONTINUOUS
 62
     7
 10
-79.999999999999986
 20
4.5000007470729697
 30
0.0
 11
-79.999999999999986
 21
5.3000007470731658
 31
0.0
  0
ARC
  5
1CA3
  8
SAPA_PROFIL
  6
CONTINUOUS
 62
     7
 10
-80.300000000000125
 20
4.5000007470733241
 30
0.0
 40
0.3000000000001468
 50
230.00000000014489
 51
359.99999999993253
  0
LINE
  5
1CA4
  8
SAPA_PROFIL
  6
CONTINUOUS
 62
     7
 10
-81.192836282906157
 20
4.8575571559615831
 30
0.0
 11
-80.492836282905586
 21
4.2701874141370304
 31
0.0
  0
ARC
  5
1CA5
  8
SAPA_PROFIL
  6
CONTINUOUS
 62
     7
 10
-81.000000000000185
 20
5.0873704888972782
 30
0.0
 40
0.2999999999999971
 50
180.00000000000071
 51
230.0000000000008
  0
LINE
  5
1CA6
  8
SAPA_PROFIL
  6
CONTINUOUS
 62
     7
 10
-81.300000000000182
 20
5.900000747072677
 30
0.0
 11
-81.300000000000182
 21
5.0873704888972737
 31
0.0
  0
ARC
  5
1CA7
  8
SAPA_PROFIL
  6
CONTINUOUS
 62
     7
 10
-80.300000000000182
 20
5.900000747072677
 30
0.0
 40
1.0
 50
90.0
 51
180.0
  0
LINE
  5
1CA8
  8
SAPA_PROFIL
  6
CONTINUOUS
 62
     7
 10
-77.999999999999517
 20
6.900000747072677
 30
0.0
 11
-80.300000000000182
 21
6.900000747072677
 31
0.0
  0
ARC
  5
1CA9
  8
SAPA_PROFIL
  6
CONTINUOUS
 62
     7
 10
-77.999999999999517
 20
7.400000747072677
 30
0.0
 40
0.5
 50
270.0
 51
0.0
  0
LINE
  5
1CAA
  8
SAPA_PROFIL
  6
CONTINUOUS
 62
     7
 10
-77.500000000003325
 20
16.000000747072772
 30
0.0
 11
-77.499999999999517
 21
7.400000747072677
 31
0.0
  0
ARC
  5
1CAB
  8
SAPA_PROFIL
  6
CONTINUOUS
 62
     7
 10
-77.00000000000334
 20
16.000000747072971
 30
0.0
 40
0.5000000000000036
 50
90.0
 51
180.0000000000224
  0
LINE
  5
1CAC
  8
SAPA_PROFIL
  6
CONTINUOUS
 62
     7
 10
-74.000000000957115
 20
16.500000747072971
 30
0.0
 11
-77.00000000000334
 21
16.500000747072971
 31
0.0
  0
LINE
  5
1CAD
  8
SAPA_PROFIL
 10
-71.000000000000256
 20
24.10000074707629
 30
0.0
 11
-70.20000000095709
 21
24.10000074707629
 31
0.0
  0
ARC
  5
1CAE
  8
SAPA_PROFIL
 10
-71.000000000000284
 20
23.800000747076311
 30
0.0
 40
0.2999999999999829
 50
89.999999999994586
 51
179.9999999999952
  0
LINE
  5
1CAF
  8
SAPA_PROFIL
 10
-71.300000000000267
 20
22.400000747076241
 30
0.0
 11
-71.300000000000267
 21
23.800000747076329
 31
0.0
  0
ARC
  5
1CB0
  8
SAPA_PROFIL
 10
-71.600000000000392
 20
22.400000747076302
 30
0.0
 40
0.3000000000001286
 50
270.0000000000108
 51
359.99999999998909
  0
LINE
  5
1CB1
  8
SAPA_PROFIL
 10
-76.90000000000029
 20
22.10000074707629
 30
0.0
 11
-71.600000000000335
 21
22.100000747076169
 31
0.0
  0
ARC
  5
1CB2
  8
SAPA_PROFIL
 10
-76.90000000000029
 20
22.400000747076241
 30
0.0
 40
0.2999999999999545
 50
180.0
 51
270.0
  0
LINE
  5
1CB3
  8
SAPA_PROFIL
 10
-77.200000000000244
 20
33.200000747076203
 30
0.0
 11
-77.200000000000244
 21
22.400000747076241
 31
0.0
  0
ARC
  5
1CB4
  8
SAPA_PROFIL
 10
-76.900000000000205
 20
33.200000747076231
 30
0.0
 40
0.3000000000000398
 50
90.000000000016271
 51
180.0000000000054
  0
LINE
  5
1CB5
  8
SAPA_PROFIL
 10
-71.600000000000335
 20
33.500000747076257
 30
0.0
 11
-76.90000000000029
 21
33.500000747076257
 31
0.0
  0
ARC
  5
1CB6
  8
SAPA_PROFIL
 10
-71.600000000000392
 20
33.200000747076139
 30
0.0
 40
0.300000000000125
 50
0.0000000000108563
 51
89.999999999989143
  0
LINE
  5
1CB7
  8
SAPA_PROFIL
 10
-71.300000000000267
 20
31.800000747076218
 30
0.0
 11
-71.300000000000267
 21
33.200000747076203
 31
0.0
  0
ARC
  5
1CB8
  8
SAPA_PROFIL
 10
-71.000000000000284
 20
31.80000074707625
 30
0.0
 40
0.2999999999999829
 50
180.0000000000054
 51
270.0000000000054
  0
LINE
  5
1CB9
  8
SAPA_PROFIL
 10
-70.20000000095709
 20
31.500000747076271
 30
0.0
 11
-71.000000000000256
 21
31.500000747076271
 31
0.0
  0
ARC
  5
1CBA
  8
SAPA_PROFIL
 10
-70.200000000957061
 20
31.80000074707625
 30
0.0
 40
0.2999999999999829
 50
269.9999999999946
 51
359.99999999999449
  0
LINE
  5
1CBB
  8
SAPA_PROFIL
 10
-69.900000000957078
 20
33.200000747076309
 30
0.0
 11
-69.900000000957078
 21
31.800000747076218
 31
0.0
  0
ARC
  5
1CBC
  8
SAPA_PROFIL
 10
-69.600000000957095
 20
33.200000747076281
 30
0.0
 40
0.2999999999999829
 50
89.999999999994586
 51
179.99999999999449
  0
LINE
  5
1CBD
  8
SAPA_PROFIL
 10
-67.600000000957067
 20
33.500000747076257
 30
0.0
 11
-69.600000000957067
 21
33.500000747076257
 31
0.0
  0
ARC
  5
1CBE
  8
SAPA_PROFIL
 10
-67.600000000957039
 20
33.200000747076281
 30
0.0
 40
0.2999999999999829
 50
0.0000000000054281
 51
90.000000000005414
  0
LINE
  5
1CBF
  8
SAPA_PROFIL
 10
-67.300000000957056
 20
22.40000074707612
 30
0.0
 11
-67.300000000957056
 21
33.200000747076309
 31
0.0
  0
ARC
  5
1CC0
  8
SAPA_PROFIL
 10
-67.600000000957039
 20
22.400000747076149
 30
0.0
 40
0.2999999999999829
 50
269.9999999999946
 51
359.99999999999449
  0
LINE
  5
1CC1
  8
SAPA_PROFIL
 10
-69.600000000957067
 20
22.100000747076169
 30
0.0
 11
-67.600000000957067
 21
22.100000747076169
 31
0.0
  0
ARC
  5
1CC2
  8
SAPA_PROFIL
 10
-69.600000000957095
 20
22.40000074707616
 30
0.0
 40
0.2999999999999829
 50
180.00000000000611
 51
270.0000000000054
  0
LINE
  5
1CC3
  8
SAPA_PROFIL
 10
-69.900000000957078
 20
23.800000747076329
 30
0.0
 11
-69.900000000957078
 21
22.400000747076131
 31
0.0
  0
ARC
  5
1CC4
  8
SAPA_PROFIL
 10
-70.200000000957061
 20
23.8000007470763
 30
0.0
 40
0.2999999999999865
 50
0.0000000000061067
 51
90.000000000005414
  0
ARC
  5
1CC5
  8
SAPA_PROFIL
  6
CONTINUOUS
 62
     7
 10
-80.199999999999505
 20
18.30625686266275
 30
0.0
 40
0.2999999999995566
 50
93.583321732830768
 51
179.9999999999097
  0
LINE
  5
1CC6
  8
SAPA_PROFIL
  6
CONTINUOUS
 62
     7
 10
-80.499999999998948
 20
11.30000074707622
 30
0.0
 11
-80.499999999999062
 21
18.306256862663218
 31
0.0
  0
ARC
  5
1CC7
  8
SAPA_PROFIL
  6
CONTINUOUS
 62
     7
 10
-80.799999999999017
 20
11.30000074707622
 30
0.0
 40
0.3000000000000682
 50
270.0
 51
0.0
  0
LINE
  5
1CC8
  8
SAPA_PROFIL
  6
CONTINUOUS
 62
     7
 10
-81.600000000983044
 20
11.00000074707615
 30
0.0
 11
-80.799999999999017
 21
11.00000074707615
 31
0.0
  0
ARC
  5
1CC9
  8
SAPA_PROFIL
  6
CONTINUOUS
 62
     7
 10
-81.600000000983016
 20
11.30000074707619
 30
0.0
 40
0.3000000000000398
 50
179.99999999999449
 51
269.9999999999946
  0
LINE
  5
1CCA
  8
SAPA_PROFIL
  6
CONTINUOUS
 62
     7
 10
-81.900000000982985
 20
19.700000747076189
 30
0.0
 11
-81.900000000983056
 21
11.30000074707622
 31
0.0
  0
ARC
  5
1CCB
  8
SAPA_PROFIL
  6
CONTINUOUS
 62
     7
 10
-81.600000000983044
 20
19.700000747076189
 30
0.0
 40
0.2999999999999545
 50
90.0
 51
180.0
  0
LINE
  5
1CCC
  8
SAPA_PROFIL
  6
CONTINUOUS
 62
     7
 10
-80.400000001918016
 20
20.00000074707615
 30
0.0
 11
-81.600000000983044
 21
20.00000074707615
 31
0.0
  0
ARC
  5
1CCD
  8
SAPA_PROFIL
  6
CONTINUOUS
 62
     7
 10
-80.400000001918016
 20
21.50000074707615
 30
0.0
 40
1.5
 50
270.0
 51
359.99999999671712
  0
LINE
  5
1CCE
  8
SAPA_PROFIL
  6
CONTINUOUS
 62
     7
 10
-78.900000000982999
 20
36.70000074710223
 30
0.0
 11
-78.900000001918016
 21
21.500000746990199
 31
0.0
  0
ARC
  5
1CCF
  8
SAPA_PROFIL
  6
CONTINUOUS
 62
     7
 10
-78.600000000983044
 20
36.700000747076203
 30
0.0
 40
0.2999999999999545
 50
90.0
 51
179.99999999502779
  0
LINE
  5
1CD0
  8
SAPA_PROFIL
  6
CONTINUOUS
 62
     7
 10
-77.500000000000028
 20
37.00000074707615
 30
0.0
 11
-78.600000000983044
 21
37.00000074707615
 31
0.0
  0
ARC
  5
1CD1
  8
SAPA_PROFIL
  6
CONTINUOUS
 62
     7
 10
-77.5
 20
36.700000747076167
 30
0.0
 40
0.2999999999999829
 50
0.0000000000054281
 51
90.000000000005414
  0
LINE
  5
1CD2
  8
SAPA_PROFIL
  6
CONTINUOUS
 62
     7
 10
-77.200000000000017
 20
35.200000747076203
 30
0.0
 11
-77.200000000000017
 21
36.700000747076203
 31
0.0
  0
ARC
  5
1CD3
  8
SAPA_PROFIL
  6
CONTINUOUS
 62
     7
 10
-76.900000000000006
 20
35.200000747076139
 30
0.0
 40
0.3000000000000114
 50
179.99999999998909
 51
269.99999999998909
  0
LINE
  5
1CD4
  8
SAPA_PROFIL
  6
CONTINUOUS
 62
     7
 10
-66.200000000957033
 20
34.900000747076128
 30
0.0
 11
-76.900000000000063
 21
34.900000747076128
 31
0.0
  0
ARC
  5
1CD5
  8
SAPA_PROFIL
  6
CONTINUOUS
 62
     7
 10
-66.200000000957004
 20
34.600000747076152
 30
0.0
 40
0.2999999999999829
 50
0.0000000000054281
 51
90.000000000005414
  0
LINE
  5
1CD6
  8
SAPA_PROFIL
  6
CONTINUOUS
 62
     7
 10
-65.900000000957021
 20
11.30000074707621
 30
0.0
 11
-65.900000000957021
 21
34.600000747076173
 31
0.0
  0
ARC
  5
1CD7
  8
SAPA_PROFIL
  6
CONTINUOUS
 62
     7
 10
-66.20000000095655
 20
11.30000074707568
 30
0.0
 40
0.29999999999953
 50
269.99999999990769
 51
0.0000000001027955
  0
LINE
  5
1CD8
  8
SAPA_PROFIL
  6
CONTINUOUS
 62
     7
 10
-73.199999999999051
 20
11.00000074707615
 30
0.0
 11
-66.200000000957033
 21
11.00000074707614
 31
0.0
  0
ARC
  5
1CD9
  8
SAPA_PROFIL
  6
CONTINUOUS
 62
     7
 10
-73.199999999999022
 20
11.30000074707619
 30
0.0
 40
0.3000000000000398
 50
179.99999999999449
 51
269.9999999999946
  0
LINE
  5
1CDA
  8
SAPA_PROFIL
  6
CONTINUOUS
 62
     7
 10
-73.499999999999062
 20
20.300000747076218
 30
0.0
 11
-73.499999999999062
 21
11.30000074707622
 31
0.0
  0
ARC
  5
1CDB
  8
SAPA_PROFIL
  6
CONTINUOUS
 62
     7
 10
-73.80000000000004
 20
20.300000747076218
 30
0.0
 40
0.3000000000009741
 50
359.99999999999932
 51
89.999999999804587
  0
LINE
  5
1CDC
  8
SAPA_PROFIL
  6
CONTINUOUS
 62
     7
 10
-74.919615242269714
 20
20.600000747076169
 30
0.0
 11
-73.799999999999017
 21
20.6000007470772
 31
0.0
  0
ARC
  5
1CDD
  8
SAPA_PROFIL
  6
CONTINUOUS
 62
     7
 10
-74.919615242269785
 20
20.90000074707611
 30
0.0
 40
0.2999999999999325
 50
240.0000000000164
 51
270.00000000001631
  0
LINE
  5
1CDE
  8
SAPA_PROFIL
  6
CONTINUOUS
 62
     7
 10
-75.449999999999051
 20
20.85980836821151
 30
0.0
 11
-75.069615242269691
 21
20.64019312594079
 31
0.0
  0
ARC
  5
1CDF
  8
SAPA_PROFIL
  6
CONTINUOUS
 62
     7
 10
-75.599999999999014
 20
20.600000747076209
 30
0.0
 40
0.2999999999999598
 50
60.000000000000561
 51
119.9999999999994
  0
LINE
  5
1CE0
  8
SAPA_PROFIL
  6
CONTINUOUS
 62
     7
 10
-76.130384757728365
 20
20.64019312594079
 30
0.0
 11
-75.749999999999005
 21
20.85980836821151
 31
0.0
  0
ARC
  5
1CE1
  8
SAPA_PROFIL
  6
CONTINUOUS
 62
     7
 10
-76.280384757728257
 20
20.900000747076099
 30
0.0
 40
0.2999999999999261
 50
269.9999999999838
 51
299.99999999998431
  0
LINE
  5
1CE2
  8
SAPA_PROFIL
  6
CONTINUOUS
 62
     7
 10
-77.433520607081022
 20
20.600000747076169
 30
0.0
 11
-76.280384757728342
 21
20.600000747076169
 31
0.0
  0
ARC
  5
1CE3
  8
SAPA_PROFIL
  6
CONTINUOUS
 62
     7
 10
-77.433520607081007
 20
20.300000747076229
 30
0.0
 40
0.2999999999999472
 50
90.000000000002728
 51
157.97568716296459
  0
ARC
  5
1CE4
  8
SAPA_PROFIL
  6
CONTINUOUS
 62
     7
 10
-80.40000000191867
 20
21.500000747075681
 30
0.0
 40
2.899999999999296
 50
273.58332173291052
 51
337.97568716296257
  0
POLYLINE
  5
1CE5
  8
SAPA_PROFIL
 66
     1
 10
0.0
 20
0.0
 30
0.0
 70
     1
  0
VERTEX
  5
224E
  8
SAPA_PROFIL
 10
24.299999999996039
 20
28.70000037353828
 30
0.0
  0
VERTEX
  5
224F
  8
SAPA_PROFIL
 10
31.199999999995899
 20
28.70000037353828
 30
0.0
  0
VERTEX
  5
2250
  8
SAPA_PROFIL
 10
31.499999999995971
 20
28.400000373538319
 30
0.0
  0
VERTEX
  5
2251
  8
SAPA_PROFIL
 10
31.799999999996039
 20
28.70000037353828
 30
0.0
  0
VERTEX
  5
2252
  8
SAPA_PROFIL
 10
41.499999999995957
 20
28.70000037353828
 30
0.0
 42
0.4142135623730951
  0
VERTEX
  5
2253
  8
SAPA_PROFIL
 10
42.499999999995957
 20
29.70000037353827
 30
0.0
  0
VERTEX
  5
2254
  8
SAPA_PROFIL
 10
42.499999999995957
 20
42.500000373538228
 30
0.0
  0
VERTEX
  5
2255
  8
SAPA_PROFIL
 10
41.59999999999598
 20
42.500000373538228
 30
0.0
 42
-0.4142135623730951
  0
VERTEX
  5
2256
  8
SAPA_PROFIL
 10
40.999999999995957
 20
43.10000037353813
 30
0.0
  0
VERTEX
  5
2257
  8
SAPA_PROFIL
 10
40.999999999995957
 20
44.700000373538273
 30
0.0
 42
-0.4142135623730951
  0
VERTEX
  5
2258
  8
SAPA_PROFIL
 10
41.299999999996032
 20
45.000000373538228
 30
0.0
  0
VERTEX
  5
2259
  8
SAPA_PROFIL
 10
43.699999999995889
 20
45.000000373538228
 30
0.0
 42
-0.4142135623730951
  0
VERTEX
  5
225A
  8
SAPA_PROFIL
 10
43.999999999995957
 20
44.700000373538273
 30
0.0
  0
VERTEX
  5
225B
  8
SAPA_PROFIL
 10
43.999999999995957
 20
25.000000373538231
 30
0.0
  0
VERTEX
  5
225C
  8
SAPA_PROFIL
 10
41.499999999995957
 20
25.000000373538231
 30
0.0
  0
VERTEX
  5
225D
  8
SAPA_PROFIL
 10
41.499999999995957
 20
26.70000037353827
 30
0.0
 42
0.4142135623730951
  0
VERTEX
  5
225E
  8
SAPA_PROFIL
 10
40.999999999995957
 20
27.20000037353827
 30
0.0
  0
VERTEX
  5
225F
  8
SAPA_PROFIL
 10
20.999999999995961
 20
27.20000037353827
 30
0.0
 42
0.4142135623730951
  0
VERTEX
  5
2260
  8
SAPA_PROFIL
 10
20.499999999995971
 20
26.70000037353827
 30
0.0
  0
VERTEX
  5
2261
  8
SAPA_PROFIL
 10
20.499999999995971
 20
25.000000373538231
 30
0.0
  0
VERTEX
  5
2262
  8
SAPA_PROFIL
 10
18.999999999995961
 20
25.000000373538231
 30
0.0
  0
VERTEX
  5
2263
  8
SAPA_PROFIL
 10
18.999999999995961
 20
28.20000037353827
 30
0.0
 42
-0.4142135623730951
  0
VERTEX
  5
2264
  8
SAPA_PROFIL
 10
19.499999999995961
 20
28.70000037353828
 30
0.0
  0
VERTEX
  5
2265
  8
SAPA_PROFIL
 10
23.69999999999601
 20
28.70000037353828
 30
0.0
  0
VERTEX
  5
2266
  8
SAPA_PROFIL
 10
23.999999999995971
 20
28.400000373538319
 30
0.0
  0
SEQEND
  5
2267
  8
SAPA_PROFIL
  0
POLYLINE
  5
1CE6
  8
SAPA_PROFIL
  6
CONTINUOUS
 62
     7
 66
     1
 10
0.0
 20
0.0
 30
0.0
 70
     1
  0
VERTEX
  5
2268
  8
SAPA_PROFIL
  6
CONTINUOUS
 62
     7
 10
-74.000000000957144
 20
-16.499999999998192
 30
0.0
  0
VERTEX
  5
2269
  8
SAPA_PROFIL
  6
CONTINUOUS
 62
     7
 10
-77.000000000003354
 20
-16.499999999998192
 30
0.0
 42
-0.4142135623732074
  0
VERTEX
  5
226A
  8
SAPA_PROFIL
  6
CONTINUOUS
 62
     7
 10
-77.500000000003368
 20
-15.999999999997989
 30
0.0
  0
VERTEX
  5
226B
  8
SAPA_PROFIL
  6
CONTINUOUS
 62
     7
 10
-77.499999999999545
 20
-7.3999999999978954
 30
0.0
 42
0.4142135623730951
  0
VERTEX
  5
226C
  8
SAPA_PROFIL
  6
CONTINUOUS
 62
     7
 10
-77.999999999999545
 20
-6.8999999999978954
 30
0.0
  0
VERTEX
  5
226D
  8
SAPA_PROFIL
  6
CONTINUOUS
 62
     7
 10
-80.300000000000196
 20
-6.8999999999978954
 30
0.0
 42
-0.4142135623730951
  0
VERTEX
  5
226E
  8
SAPA_PROFIL
  6
CONTINUOUS
 62
     7
 10
-81.300000000000225
 20
-5.8999999999978954
 30
0.0
  0
VERTEX
  5
226F
  8
SAPA_PROFIL
  6
CONTINUOUS
 62
     7
 10
-81.300000000000225
 20
-5.0873697418224921
 30
0.0
 42
-0.2216946626429368
  0
VERTEX
  5
2270
  8
SAPA_PROFIL
  6
CONTINUOUS
 62
     7
 10
-81.192836282906171
 20
-4.8575564088867997
 30
0.0
  0
VERTEX
  5
2271
  8
SAPA_PROFIL
  6
CONTINUOUS
 62
     7
 10
-80.492836282905628
 20
-4.270186667062247
 30
0.0
 42
-0.6370702608061857
  0
VERTEX
  5
2272
  8
SAPA_PROFIL
  6
CONTINUOUS
 62
     7
 10
-80.000000000000014
 20
-4.4999999999981881
 30
0.0
  0
VERTEX
  5
2273
  8
SAPA_PROFIL
  6
CONTINUOUS
 62
     7
 10
-80.000000000000014
 20
-5.2999999999983842
 30
0.0
 42
0.4142135623730951
  0
VERTEX
  5
2274
  8
SAPA_PROFIL
  6
CONTINUOUS
 62
     7
 10
-79.699999999999804
 20
-5.5999999999985803
 30
0.0
  0
VERTEX
  5
2275
  8
SAPA_PROFIL
  6
CONTINUOUS
 62
     7
 10
-75.299999999999272
 20
-5.5999999999976398
 30
0.0
 42
0.4142135623730504
  0
VERTEX
  5
2276
  8
SAPA_PROFIL
  6
CONTINUOUS
 62
     7
 10
-74.999999999999545
 20
-5.2999999999974872
 30
0.0
  0
VERTEX
  5
2277
  8
SAPA_PROFIL
  6
CONTINUOUS
 62
     7
 10
-74.999999999999559
 20
5.3000000000019583
 30
0.0
 42
0.4142135623730878
  0
VERTEX
  5
2278
  8
SAPA_PROFIL
  6
CONTINUOUS
 62
     7
 10
-75.299999999999258
 20
5.600000000002133
 30
0.0
  0
VERTEX
  5
2279
  8
SAPA_PROFIL
  6
CONTINUOUS
 62
     7
 10
-79.699999999999804
 20
5.6000000000020611
 30
0.0
 42
0.4142135623735842
  0
VERTEX
  5
227A
  8
SAPA_PROFIL
  6
CONTINUOUS
 62
     7
 10
-79.999999999999517
 20
5.3000000000028598
 30
0.0
  0
VERTEX
  5
227B
  8
SAPA_PROFIL
  6
CONTINUOUS
 62
     7
 10
-80.000000000000014
 20
4.5000000000008731
 30
0.0
 42
-0.6370702608069853
  0
VERTEX
  5
227C
  8
SAPA_PROFIL
  6
CONTINUOUS
 62
     7
 10
-80.492836282905628
 20
4.2701866670657864
 30
0.0
  0
VERTEX
  5
227D
  8
SAPA_PROFIL
  6
CONTINUOUS
 62
     7
 10
-81.192836282906171
 20
4.8575564088903462
 30
0.0
 42
-0.2216946626431
  0
VERTEX
  5
227E
  8
SAPA_PROFIL
  6
CONTINUOUS
 62
     7
 10
-81.300000000000225
 20
5.0873697418262287
 30
0.0
  0
VERTEX
  5
227F
  8
SAPA_PROFIL
  6
CONTINUOUS
 62
     7
 10
-81.299999999999713
 20
5.9000000000032244
 30
0.0
 42
-0.4142135623730951
  0
VERTEX
  5
2280
  8
SAPA_PROFIL
  6
CONTINUOUS
 62
     7
 10
-80.299999999999713
 20
6.9000000000032244
 30
0.0
  0
VERTEX
  5
2281
  8
SAPA_PROFIL
  6
CONTINUOUS
 62
     7
 10
-72.799999999999969
 20
6.9000000000023318
 30
0.0
 42
-0.3178372451964626
  0
VERTEX
  5
2282
  8
SAPA_PROFIL
  6
CONTINUOUS
 62
     7
 10
-72.517157287525123
 20
6.7000000000016051
 30
0.0
 42
0.3178372451966722
  0
VERTEX
  5
2283
  8
SAPA_PROFIL
  6
CONTINUOUS
 62
     7
 10
-72.23431457505005
 20
6.5000000000008766
 30
0.0
  0
VERTEX
  5
2284
  8
SAPA_PROFIL
  6
CONTINUOUS
 62
     7
 10
-70.799999999999727
 20
6.500000000001779
 30
0.0
 42
-0.4142135623726539
  0
VERTEX
  5
2285
  8
SAPA_PROFIL
  6
CONTINUOUS
 62
     7
 10
-70.5
 20
6.200000000001598
 30
0.0
  0
VERTEX
  5
2286
  8
SAPA_PROFIL
  6
CONTINUOUS
 62
     7
 10
-70.500000000000014
 20
5.6000000000010486
 30
0.0
 42
-0.4142135623730836
  0
VERTEX
  5
2287
  8
SAPA_PROFIL
  6
CONTINUOUS
 62
     7
 10
-70.799999999999727
 20
5.3000000000017842
 30
0.0
  0
VERTEX
  5
2288
  8
SAPA_PROFIL
  6
CONTINUOUS
 62
     7
 10
-72.199999999999804
 20
5.3000000000017771
 30
0.0
 42
0.4142135623730951
  0
VERTEX
  5
2289
  8
SAPA_PROFIL
  6
CONTINUOUS
 62
     7
 10
-72.499999999999986
 20
5.0000000000016023
 30
0.0
  0
VERTEX
  5
228A
  8
SAPA_PROFIL
  6
CONTINUOUS
 62
     7
 10
-72.499999999999986
 20
-4.9999999999989821
 30
0.0
 42
0.4142135623730743
  0
VERTEX
  5
228B
  8
SAPA_PROFIL
  6
CONTINUOUS
 62
     7
 10
-72.199999999999804
 20
-5.2999999999981897
 30
0.0
  0
VERTEX
  5
228C
  8
SAPA_PROFIL
  6
CONTINUOUS
 62
     7
 10
-70.799999999999727
 20
-5.2999999999990779
 30
0.0
 42
-0.4142135623721762
  0
VERTEX
  5
228D
  8
SAPA_PROFIL
  6
CONTINUOUS
 62
     7
 10
-70.499999999999957
 20
-5.5999999999983858
 30
0.0
  0
VERTEX
  5
228E
  8
SAPA_PROFIL
  6
CONTINUOUS
 62
     7
 10
-70.499999999999545
 20
-6.1999999999989992
 30
0.0
 42
-0.4142135623730534
  0
VERTEX
  5
228F
  8
SAPA_PROFIL
  6
CONTINUOUS
 62
     7
 10
-70.799999999999713
 20
-6.4999999999982139
 30
0.0
  0
VERTEX
  5
2290
  8
SAPA_PROFIL
  6
CONTINUOUS
 62
     7
 10
-72.234314575050433
 20
-6.4999999999991021
 30
0.0
 42
0.3178372451963242
  0
VERTEX
  5
2291
  8
SAPA_PROFIL
  6
CONTINUOUS
 62
     7
 10
-72.517157287525123
 20
-6.6999999999980471
 30
0.0
 42
-0.3178372451964607
  0
VERTEX
  5
2292
  8
SAPA_PROFIL
  6
CONTINUOUS
 62
     7
 10
-72.799999999999955
 20
-6.8999999999987596
 30
0.0
  0
VERTEX
  5
2293
  8
SAPA_PROFIL
  6
CONTINUOUS
 62
     7
 10
-74.500000000000043
 20
-6.8999999999989798
 30
0.0
 42
0.4142135623730597
  0
VERTEX
  5
2294
  8
SAPA_PROFIL
  6
CONTINUOUS
 62
     7
 10
-74.999999999999986
 20
-7.3999999999989798
 30
0.0
  0
VERTEX
  5
2295
  8
SAPA_PROFIL
  6
CONTINUOUS
 62
     7
 10
-74.999999999999986
 20
-12.40192378920619
 30
0.0
 42
0.2679491923306345
  0
VERTEX
  5
2296
  8
SAPA_PROFIL
  6
CONTINUOUS
 62
     7
 10
-74.750000000156874
 20
-12.83493649099549
 30
0.0
 42
-0.2679491923317589
  0
VERTEX
  5
2297
  8
SAPA_PROFIL
  6
CONTINUOUS
 62
     7
 10
-73.500000000957129
 20
-14.999999999998179
 30
0.0
  0
VERTEX
  5
2298
  8
SAPA_PROFIL
  6
CONTINUOUS
 62
     7
 10
-73.500000000957925
 20
-15.999999999998179
 30
0.0
 42
-0.4142135623730951
  0
SEQEND
  5
2299
  8
SAPA_PROFIL
  6
CONTINUOUS
 62
     7
  0
POLYLINE
  5
1CE7
  8
SAPA_PROFIL
 62
     4
 66
     1
 10
0.0
 20
0.0
 30
0.0
 70
     1
  0
VERTEX
  5
229A
  8
SAPA_PROFIL
 62
     4
 10
-64.462221528366854
 20
-22.0267571950349
 30
0.0
 42
-0.3137019356282051
  0
VERTEX
  5
229B
  8
SAPA_PROFIL
 62
     4
 10
-64.181271744820549
 20
-22.224382820568319
 30
0.0
  0
VERTEX
  5
229C
  8
SAPA_PROFIL
 62
     4
 10
-63.295794031949349
 20
-24.65721284211234
 30
0.0
 42
0.3152987888779321
  0
VERTEX
  5
229D
  8
SAPA_PROFIL
 62
     4
 10
-62.919916983632959
 20
-24.920404784782072
 30
0.0
  0
VERTEX
  5
229E
  8
SAPA_PROFIL
 62
     4
 10
-52.499999998918831
 20
-24.920404784782029
 30
0.0
  0
VERTEX
  5
229F
  8
SAPA_PROFIL
 62
     4
 10
-42.080083014200738
 20
-24.920404784781969
 30
0.0
 42
0.3152987888779395
  0
VERTEX
  5
22A0
  8
SAPA_PROFIL
 62
     4
 10
-41.70420596588837
 20
-24.657212842112251
 30
0.0
  0
VERTEX
  5
22A1
  8
SAPA_PROFIL
 62
     4
 10
-40.818728253020197
 20
-22.224382820576562
 30
0.0
 42
-0.3138982169096283
  0
VERTEX
  5
22A2
  8
SAPA_PROFIL
 62
     4
 10
-40.537778469506009
 20
-22.0267571950362
 30
0.0
 42
-0.0157923906855865
  0
VERTEX
  5
22A3
  8
SAPA_PROFIL
 62
     4
 10
-40.186319937167163
 20
-22.02335406539661
 30
0.0
  0
VERTEX
  5
22A4
  8
SAPA_PROFIL
 62
     4
 10
-39.946136872384869
 20
-21.88468430829008
 30
0.0
 42
-0.5773502691889272
  0
VERTEX
  5
22A5
  8
SAPA_PROFIL
 62
     4
 10
-39.631136872385163
 20
-22.06654964308488
 30
0.0
  0
VERTEX
  5
22A6
  8
SAPA_PROFIL
 62
     4
 10
-39.631136872385042
 20
-22.333664171297791
 30
0.0
  0
VERTEX
  5
22A7
  8
SAPA_PROFIL
 62
     4
 10
-39.29999999891885
 20
-22.529886237082088
 30
0.0
  0
VERTEX
  5
22A8
  8
SAPA_PROFIL
 62
     4
 10
-38.316679860938329
 20
-23.09753040057954
 30
0.0
 42
0.1316524975869703
  0
VERTEX
  5
22A9
  8
SAPA_PROFIL
 62
     4
 10
-38.211679860939512
 20
-23.125665065784101
 30
0.0
  0
VERTEX
  5
22AA
  8
SAPA_PROFIL
 62
     4
 10
-37.89999999891694
 20
-23.125665065784212
 30
0.0
 42
0.4142135623775584
  0
VERTEX
  5
22AB
  8
SAPA_PROFIL
 62
     4
 10
-37.499999998918902
 20
-22.72566506578389
 30
0.0
  0
VERTEX
  5
22AC
  8
SAPA_PROFIL
 62
     4
 10
-37.499999998918838
 20
-19.32566506578414
 30
0.0
 42
0.4142135623773978
  0
VERTEX
  5
22AD
  8
SAPA_PROFIL
 62
     4
 10
-37.899999998918872
 20
-18.925665065784159
 30
0.0
  0
VERTEX
  5
22AE
  8
SAPA_PROFIL
 62
     4
 10
-38.211679860942517
 20
-18.925665065784159
 30
0.0
 42
0.1316524975869708
  0
VERTEX
  5
22AF
  8
SAPA_PROFIL
 62
     4
 10
-38.316679860939473
 20
-18.95379973098941
 30
0.0
  0
VERTEX
  5
22B0
  8
SAPA_PROFIL
 62
     4
 10
-39.29999999891885
 20
-19.521519877351441
 30
0.0
  0
VERTEX
  5
22B1
  8
SAPA_PROFIL
 62
     4
 10
-39.894744110589727
 20
-19.86489555032356
 30
0.0
 42
-0.1316524975869772
  0
VERTEX
  5
22B2
  8
SAPA_PROFIL
 62
     4
 10
-40.494744110593103
 20
-20.025665065784072
 30
0.0
  0
VERTEX
  5
22B3
  8
SAPA_PROFIL
 62
     4
 10
-41.446608443479533
 20
-20.025665065783851
 30
0.0
 42
0.3152987888780149
  0
VERTEX
  5
22B4
  8
SAPA_PROFIL
 62
     4
 10
-42.386301064251029
 20
-20.683644922458232
 30
0.0
  0
VERTEX
  5
22B5
  8
SAPA_PROFIL
 62
     4
 10
-43.177415089160881
 20
-22.857212842111931
 30
0.0
 42
-0.3152987888779391
  0
VERTEX
  5
22B6
  8
SAPA_PROFIL
 62
     4
 10
-43.553292137475403
 20
-23.12040478478205
 30
0.0
  0
VERTEX
  5
22B7
  8
SAPA_PROFIL
 62
     4
 10
-52.499999998918831
 20
-23.12040478478205
 30
0.0
  0
VERTEX
  5
22B8
  8
SAPA_PROFIL
 62
     4
 10
-61.446707860362331
 20
-23.12040478478211
 30
0.0
 42
-0.3152987888779318
  0
VERTEX
  5
22B9
  8
SAPA_PROFIL
 62
     4
 10
-61.822584908675481
 20
-22.85721284211569
 30
0.0
  0
VERTEX
  5
22BA
  8
SAPA_PROFIL
 62
     4
 10
-62.613698933586591
 20
-20.68364492245847
 30
0.0
 42
0.3152987888779361
  0
VERTEX
  5
22BB
  8
SAPA_PROFIL
 62
     4
 10
-63.55339155438719
 20
-20.025665065784139
 30
0.0
  0
VERTEX
  5
22BC
  8
SAPA_PROFIL
 62
     4
 10
-64.505255887244687
 20
-20.025665065784139
 30
0.0
 42
-0.1316524975869766
  0
VERTEX
  5
22BD
  8
SAPA_PROFIL
 62
     4
 10
-65.105255887237888
 20
-19.864895550329418
 30
0.0
  0
VERTEX
  5
22BE
  8
SAPA_PROFIL
 62
     4
 10
-65.692820321946385
 20
-19.525665065784189
 30
0.0
  0
VERTEX
  5
22BF
  8
SAPA_PROFIL
 62
     4
 10
-66.683320136898317
 20
-18.95379973098947
 30
0.0
 42
0.1316524975869832
  0
VERTEX
  5
22C0
  8
SAPA_PROFIL
 62
     4
 10
-66.788320136901405
 20
-18.92566506578423
 30
0.0
  0
VERTEX
  5
22C1
  8
SAPA_PROFIL
 62
     4
 10
-67.099999998918904
 20
-18.92566506578417
 30
0.0
 42
0.414213562371655
  0
VERTEX
  5
22C2
  8
SAPA_PROFIL
 62
     4
 10
-67.499999998918895
 20
-19.325665065788129
 30
0.0
  0
VERTEX
  5
22C3
  8
SAPA_PROFIL
 62
     4
 10
-67.499999998918895
 20
-22.725665065784192
 30
0.0
 42
0.4142135623716633
  0
VERTEX
  5
22C4
  8
SAPA_PROFIL
 62
     4
 10
-67.099999998916871
 20
-23.125665065784158
 30
0.0
  0
VERTEX
  5
22C5
  8
SAPA_PROFIL
 62
     4
 10
-66.788320136898221
 20
-23.125665065784158
 30
0.0
 42
0.1316524975869709
  0
VERTEX
  5
22C6
  8
SAPA_PROFIL
 62
     4
 10
-66.683320136897635
 20
-23.097530400578581
 30
0.0
  0
VERTEX
  5
22C7
  8
SAPA_PROFIL
 62
     4
 10
-65.368863125452634
 20
-22.333664171297801
 30
0.0
  0
VERTEX
  5
22C8
  8
SAPA_PROFIL
 62
     4
 10
-65.368863125452521
 20
-22.06654964308488
 30
0.0
 42
-0.5773502691889269
  0
VERTEX
  5
22C9
  8
SAPA_PROFIL
 62
     4
 10
-65.053863125452807
 20
-21.88468430829009
 30
0.0
  0
VERTEX
  5
22CA
  8
SAPA_PROFIL
 62
     4
 10
-64.813680060670507
 20
-22.023354065396621
 30
0.0
 42
-0.015792390685586
  0
SEQEND
  5
22CB
  8
SAPA_PROFIL
 62
     4
  0
POLYLINE
  5
1CE8
  8
SAPA_PROFIL
 66
     1
 10
0.0
 20
0.0
 30
0.0
 70
     1
  0
VERTEX
  5
22CC
  8
SAPA_PROFIL
 10
-37.499999998918867
 20
-22.952058268065279
 30
0.0
 42
0.2134217652834366
  0
VERTEX
  5
22CD
  8
SAPA_PROFIL
 10
-37.39999999891868
 20
-23.17566506581538
 30
0.0
 42
-0.7625858545243175
  0
VERTEX
  5
22CE
  8
SAPA_PROFIL
 10
-37.584579201116171
 20
-23.50599114683239
 30
0.0
  0
VERTEX
  5
22CF
  8
SAPA_PROFIL
 10
-37.775962201109877
 20
-23.4479175098433
 30
0.0
  0
VERTEX
  5
22D0
  8
SAPA_PROFIL
 10
-39.661805892970939
 20
-22.36335306287156
 30
0.0
  0
VERTEX
  5
22D1
  8
SAPA_PROFIL
 10
-39.651244526743973
 20
-22.041595334653309
 30
0.0
 42
0.5773502691897529
  0
VERTEX
  5
22D2
  8
SAPA_PROFIL
 10
-39.945400826998799
 20
-21.85864159454313
 30
0.0
  0
VERTEX
  5
22D3
  8
SAPA_PROFIL
 10
-40.230083110230488
 20
-22.0107755056519
 30
0.0
 42
0.2216946626430025
  0
VERTEX
  5
22D4
  8
SAPA_PROFIL
 10
-40.635892015385231
 20
-22.551655337128679
 30
0.0
  0
VERTEX
  5
22D5
  8
SAPA_PROFIL
 10
-41.01733861151294
 20
-24.364885807786941
 30
0.0
 42
0.4769755326981438
  0
VERTEX
  5
22D6
  8
SAPA_PROFIL
 10
-40.715085787006473
 20
-24.736542682732811
 30
0.0
  0
VERTEX
  5
22D7
  8
SAPA_PROFIL
 10
-39.211984706244472
 20
-24.736459074849151
 30
0.0
  0
VERTEX
  5
22D8
  8
SAPA_PROFIL
 10
-39.197466296997369
 20
-24.688613324850671
 30
0.0
 42
-0.4142135623731001
  0
VERTEX
  5
22D9
  8
SAPA_PROFIL
 10
-38.823281341521557
 20
-24.488649280343271
 30
0.0
  0
VERTEX
  5
22DA
  8
SAPA_PROFIL
 10
-37.500280500000287
 20
-25.000000000000728
 30
0.0
  0
VERTEX
  5
22DB
  8
SAPA_PROFIL
 10
-35.800000000001809
 20
-25.000000000000728
 30
0.0
 42
0.4142135623730951
  0
VERTEX
  5
22DC
  8
SAPA_PROFIL
 10
-35.500000000001847
 20
-24.700000000000539
 30
0.0
  0
VERTEX
  5
22DD
  8
SAPA_PROFIL
 10
-35.500000000001741
 20
-21.699999999999861
 30
0.0
 42
-0.4142135623730951
  0
VERTEX
  5
22DE
  8
SAPA_PROFIL
 10
-35.200000000001793
 20
-21.39999999999991
 30
0.0
  0
VERTEX
  5
22DF
  8
SAPA_PROFIL
 10
-34.80000000000198
 20
-21.39999999999991
 30
0.0
 42
0.4142135623731506
  0
VERTEX
  5
22E0
  8
SAPA_PROFIL
 10
-34.500000000001968
 20
-21.099999999999952
 30
0.0
  0
VERTEX
  5
22E1
  8
SAPA_PROFIL
 10
-34.500000000002082
 20
-19.700000000000198
 30
0.0
 42
0.4142135623731505
  0
VERTEX
  5
22E2
  8
SAPA_PROFIL
 10
-34.8000000000021
 20
-19.400000000000251
 30
0.0
  0
VERTEX
  5
22E3
  8
SAPA_PROFIL
 10
-35.200000000001843
 20
-19.400000000000251
 30
0.0
 42
-0.4142135623731506
  0
VERTEX
  5
22E4
  8
SAPA_PROFIL
 10
-35.500000000001847
 20
-19.100000000000289
 30
0.0
  0
VERTEX
  5
22E5
  8
SAPA_PROFIL
 10
-35.500000000001862
 20
-10.899999999993881
 30
0.0
 42
-0.4142135623731506
  0
VERTEX
  5
22E6
  8
SAPA_PROFIL
 10
-35.20000000000185
 20
-10.599999999993919
 30
0.0
  0
VERTEX
  5
22E7
  8
SAPA_PROFIL
 10
-34.800000000002051
 20
-10.599999999993869
 30
0.0
 42
0.4142135623730951
  0
VERTEX
  5
22E8
  8
SAPA_PROFIL
 10
-34.500000000002039
 20
-10.29999999999397
 30
0.0
  0
VERTEX
  5
22E9
  8
SAPA_PROFIL
 10
-34.500000000001862
 20
-8.8999999999942219
 30
0.0
 42
0.4142135623731505
  0
VERTEX
  5
22EA
  8
SAPA_PROFIL
 10
-34.800000000001873
 20
-8.5999999999942673
 30
0.0
  0
VERTEX
  5
22EB
  8
SAPA_PROFIL
 10
-35.200000000001793
 20
-8.5999999999942105
 30
0.0
 42
-0.4142135623730951
  0
VERTEX
  5
22EC
  8
SAPA_PROFIL
 10
-35.500000000001812
 20
-8.2999999999943128
 30
0.0
  0
VERTEX
  5
22ED
  8
SAPA_PROFIL
 10
-35.500000000001918
 20
-5.299999999993573
 30
0.0
 42
0.4142135623743715
  0
VERTEX
  5
22EE
  8
SAPA_PROFIL
 10
-35.800000000001823
 20
-4.9999999999933911
 30
0.0
  0
VERTEX
  5
22EF
  8
SAPA_PROFIL
 10
-37.500280500035089
 20
-4.9999999999933946
 30
0.0
  0
VERTEX
  5
22F0
  8
SAPA_PROFIL
 10
-38.823281341521572
 20
-5.5113507196373241
 30
0.0
 42
-0.4142135623730744
  0
VERTEX
  5
22F1
  8
SAPA_PROFIL
 10
-39.197466296997369
 20
-5.3113866751299268
 30
0.0
  0
VERTEX
  5
22F2
  8
SAPA_PROFIL
 10
-39.211984706244479
 20
-5.2635409251314398
 30
0.0
  0
VERTEX
  5
22F3
  8
SAPA_PROFIL
 10
-40.71508578700648
 20
-5.263457317247787
 30
0.0
 42
0.4769755326981443
  0
VERTEX
  5
22F4
  8
SAPA_PROFIL
 10
-41.017338611512947
 20
-5.6351141921936581
 30
0.0
  0
VERTEX
  5
22F5
  8
SAPA_PROFIL
 10
-40.635892015385288
 20
-7.4483446628519117
 30
0.0
 42
0.2216946626430325
  0
VERTEX
  5
22F6
  8
SAPA_PROFIL
 10
-40.230083110230431
 20
-7.9892244943286981
 30
0.0
  0
VERTEX
  5
22F7
  8
SAPA_PROFIL
 10
-39.945400826998807
 20
-8.1413584054374617
 30
0.0
 42
0.5773502691897529
  0
VERTEX
  5
22F8
  8
SAPA_PROFIL
 10
-39.65124452674398
 20
-7.958404665327282
 30
0.0
  0
VERTEX
  5
22F9
  8
SAPA_PROFIL
 10
-39.661805892970953
 20
-7.6366469371090382
 30
0.0
  0
VERTEX
  5
22FA
  8
SAPA_PROFIL
 10
-37.775962201109891
 20
-6.5520824901372983
 30
0.0
  0
VERTEX
  5
22FB
  8
SAPA_PROFIL
 10
-37.584579201116171
 20
-6.4940088531483191
 30
0.0
 42
-0.7625858545243173
  0
VERTEX
  5
22FC
  8
SAPA_PROFIL
 10
-37.399999998918751
 20
-6.8243349341652113
 30
0.0
 42
0.2134217652834366
  0
VERTEX
  5
22FD
  8
SAPA_PROFIL
 10
-37.499999998918881
 20
-7.0479417319153193
 30
0.0
  0
VERTEX
  5
22FE
  8
SAPA_PROFIL
 10
-37.499999998918881
 20
-10.90072813649134
 30
0.0
 42
-0.4142135623730951
  0
VERTEX
  5
22FF
  8
SAPA_PROFIL
 10
-37.799999998918842
 20
-11.200728136491289
 30
0.0
  0
VERTEX
  5
2300
  8
SAPA_PROFIL
 10
-38.099999998919252
 20
-11.200728136491289
 30
0.0
  0
VERTEX
  5
2301
  8
SAPA_PROFIL
 10
-39.699999998918699
 20
-10.276967705787669
 30
0.0
 42
0.577350269189529
  0
VERTEX
  5
2302
  8
SAPA_PROFIL
 10
-39.999999998918881
 20
-10.45017278654471
 30
0.0
  0
VERTEX
  5
2303
  8
SAPA_PROFIL
 10
-39.999999998918867
 20
-19.549827213449412
 30
0.0
 42
0.577350269189529
  0
VERTEX
  5
2304
  8
SAPA_PROFIL
 10
-39.699999998918692
 20
-19.723032294206451
 30
0.0
  0
VERTEX
  5
2305
  8
SAPA_PROFIL
 10
-38.099999998919237
 20
-18.799271863502831
 30
0.0
  0
VERTEX
  5
2306
  8
SAPA_PROFIL
 10
-37.799999998918828
 20
-18.79927186350282
 30
0.0
 42
-0.4142135623730951
  0
VERTEX
  5
2307
  8
SAPA_PROFIL
 10
-37.499999998918867
 20
-19.099271863502779
 30
0.0
  0
SEQEND
  5
2308
  8
SAPA_PROFIL
  0
POLYLINE
  5
1CE9
  8
SAPA_PROFIL
  6
CONTINUOUS
 62
     7
 66
     1
 10
0.0
 20
0.0
 30
0.0
 70
     1
  0
VERTEX
  5
2309
  8
SAPA_PROFIL
  6
CONTINUOUS
 62
     7
 10
-87.300003047092844
 20
-23.000000000035481
 30
0.0
  0
VERTEX
  5
230A
  8
SAPA_PROFIL
  6
CONTINUOUS
 62
     7
 10
-87.300003047092844
 20
-21.350000000043121
 30
0.0
 42
-0.4142135623729003
  0
VERTEX
  5
230B
  8
SAPA_PROFIL
  6
CONTINUOUS
 62
     7
 10
-87.000003047092889
 20
-21.050000000042932
 30
0.0
  0
VERTEX
  5
230C
  8
SAPA_PROFIL
  6
CONTINUOUS
 62
     7
 10
-85.400000001070865
 20
-21.050000000042932
 30
0.0
 42
0.1806877882261281
  0
VERTEX
  5
230D
  8
SAPA_PROFIL
  6
CONTINUOUS
 62
     7
 10
-83.400283406662723
 20
-20.302961906125269
 30
0.0
 42
0.9538213995949648
  0
VERTEX
  5
230E
  8
SAPA_PROFIL
  6
CONTINUOUS
 62
     7
 10
-84.328106923347434
 20
-19.126474928900279
 30
0.0
  0
VERTEX
  5
230F
  8
SAPA_PROFIL
  6
CONTINUOUS
 62
     7
 10
-84.585303985957879
 20
-19.057559183678681
 30
0.0
 42
0.4142135623719595
  0
VERTEX
  5
2310
  8
SAPA_PROFIL
  6
CONTINUOUS
 62
     7
 10
-84.891481088747057
 20
-19.234330616393891
 30
0.0
  0
VERTEX
  5
2311
  8
SAPA_PROFIL
  6
CONTINUOUS
 62
     7
 10
-84.958891075394575
 20
-19.485908111498301
 30
0.0
 42
-0.4299878773908156
  0
VERTEX
  5
2312
  8
SAPA_PROFIL
  6
CONTINUOUS
 62
     7
 10
-86.907390018256649
 20
-18.360936748081262
 30
0.0
  0
VERTEX
  5
2313
  8
SAPA_PROFIL
  6
CONTINUOUS
 62
     7
 10
-86.723221125915671
 20
-18.176767855739829
 30
0.0
 42
0.4142135623718706
  0
VERTEX
  5
2314
  8
SAPA_PROFIL
  6
CONTINUOUS
 62
     7
 10
-86.723221125915714
 20
-17.823224990309431
 30
0.0
  0
VERTEX
  5
2315
  8
SAPA_PROFIL
  6
CONTINUOUS
 62
     7
 10
-86.907388636179277
 20
-17.639057480044759
 30
0.0
 42
-0.429987877699598
  0
VERTEX
  5
2316
  8
SAPA_PROFIL
  6
CONTINUOUS
 62
     7
 10
-84.958885384142661
 20
-16.51409357811281
 30
0.0
  0
VERTEX
  5
2317
  8
SAPA_PROFIL
  6
CONTINUOUS
 62
     7
 10
-84.891474890507965
 20
-16.76567296531892
 30
0.0
 42
0.4142135623733942
  0
VERTEX
  5
2318
  8
SAPA_PROFIL
  6
CONTINUOUS
 62
     7
 10
-84.585297787718744
 20
-16.942444398034251
 30
0.0
  0
VERTEX
  5
2319
  8
SAPA_PROFIL
  6
CONTINUOUS
 62
     7
 10
-84.328101588455098
 20
-16.87352888414636
 30
0.0
 42
0.9538172250823233
  0
VERTEX
  5
231A
  8
SAPA_PROFIL
  6
CONTINUOUS
 62
     7
 10
-83.400283406534726
 20
-15.69703809381471
 30
0.0
 42
0.1806877881352354
  0
VERTEX
  5
231B
  8
SAPA_PROFIL
  6
CONTINUOUS
 62
     7
 10
-85.40000000107085
 20
-14.950000000043479
 30
0.0
  0
VERTEX
  5
231C
  8
SAPA_PROFIL
  6
CONTINUOUS
 62
     7
 10
-87.300000003219836
 20
-14.950000000043479
 30
0.0
 42
-0.4142135623728949
  0
VERTEX
  5
231D
  8
SAPA_PROFIL
  6
CONTINUOUS
 62
     7
 10
-87.600000003220714
 20
-14.65000000004239
 30
0.0
  0
VERTEX
  5
231E
  8
SAPA_PROFIL
  6
CONTINUOUS
 62
     7
 10
-87.600000003219805
 20
-13.000000000045389
 30
0.0
 42
-0.4142135623747599
  0
VERTEX
  5
231F
  8
SAPA_PROFIL
  6
CONTINUOUS
 62
     7
 10
-87.300000003218699
 20
-12.7000000000453
 30
0.0
  0
VERTEX
  5
2320
  8
SAPA_PROFIL
  6
CONTINUOUS
 62
     7
 10
-82.599999998920154
 20
-12.700000000056519
 30
0.0
 42
0.414213562374087
  0
VERTEX
  5
2321
  8
SAPA_PROFIL
  6
CONTINUOUS
 62
     7
 10
-82.299999998920214
 20
-12.400000000056339
 30
0.0
  0
VERTEX
  5
2322
  8
SAPA_PROFIL
  6
CONTINUOUS
 62
     7
 10
-82.299999998919077
 20
-11.300000000024969
 30
0.0
 42
0.4142135623632305
  0
VERTEX
  5
2323
  8
SAPA_PROFIL
  6
CONTINUOUS
 62
     7
 10
-82.599999998918165
 20
-11.000000000031759
 30
0.0
  0
VERTEX
  5
2324
  8
SAPA_PROFIL
  6
CONTINUOUS
 62
     7
 10
-92.700000003219714
 20
-11.000000000014561
 30
0.0
 42
0.4142135623563092
  0
VERTEX
  5
2325
  8
SAPA_PROFIL
  6
CONTINUOUS
 62
     7
 10
-93.000000003220805
 20
-11.300000000014739
 30
0.0
  0
VERTEX
  5
2326
  8
SAPA_PROFIL
  6
CONTINUOUS
 62
     7
 10
-93.000000003221714
 20
-19.200000000013379
 30
0.0
 42
0.414213562392466
  0
VERTEX
  5
2327
  8
SAPA_PROFIL
  6
CONTINUOUS
 62
     7
 10
-92.70000000322085
 20
-19.500000000014559
 30
0.0
  0
VERTEX
  5
2328
  8
SAPA_PROFIL
  6
CONTINUOUS
 62
     7
 10
-91.600000003220714
 20
-19.500000000035481
 30
0.0
 42
0.4142135623952085
  0
VERTEX
  5
2329
  8
SAPA_PROFIL
  6
CONTINUOUS
 62
     7
 10
-91.300000003220745
 20
-19.200000000013471
 30
0.0
  0
VERTEX
  5
232A
  8
SAPA_PROFIL
  6
CONTINUOUS
 62
     7
 10
-91.300000003219836
 20
-13.70000000003802
 30
0.0
 42
-0.9999999999999998
  0
VERTEX
  5
232B
  8
SAPA_PROFIL
  6
CONTINUOUS
 62
     7
 10
-89.30000000321985
 20
-13.70000000003802
 30
0.0
  0
VERTEX
  5
232C
  8
SAPA_PROFIL
  6
CONTINUOUS
 62
     7
 10
-89.30000000321985
 20
-15.60541036337418
 30
0.0
 42
0.1539147210606419
  0
VERTEX
  5
232D
  8
SAPA_PROFIL
  6
CONTINUOUS
 62
     7
 10
-89.245745616505758
 20
-15.777483294280501
 30
0.0
  0
VERTEX
  5
232E
  8
SAPA_PROFIL
  6
CONTINUOUS
 62
     7
 10
-88.354254389933772
 20
-17.050664712538431
 30
0.0
 42
-0.1539147210594121
  0
VERTEX
  5
232F
  8
SAPA_PROFIL
  6
CONTINUOUS
 62
     7
 10
-88.300000003220305
 20
-17.222737643443001
 30
0.0
  0
VERTEX
  5
2330
  8
SAPA_PROFIL
  6
CONTINUOUS
 62
     7
 10
-88.300000003219864
 20
-19.989341626523132
 30
0.0
 42
-0.1872522264746358
  0
VERTEX
  5
2331
  8
SAPA_PROFIL
  6
CONTINUOUS
 62
     7
 10
-88.378547314063383
 20
-20.191724201034059
 30
0.0
  0
VERTEX
  5
2332
  8
SAPA_PROFIL
  6
CONTINUOUS
 62
     7
 10
-89.221452692375919
 20
-21.11405490655131
 30
0.0
 42
0.1872522264746339
  0
VERTEX
  5
2333
  8
SAPA_PROFIL
  6
CONTINUOUS
 62
     7
 10
-89.30000000321985
 20
-21.316437481061261
 30
0.0
  0
VERTEX
  5
2334
  8
SAPA_PROFIL
  6
CONTINUOUS
 62
     7
 10
-89.30000000321985
 20
-24.700000000013549
 30
0.0
 42
0.4142135623952092
  0
VERTEX
  5
2335
  8
SAPA_PROFIL
  6
CONTINUOUS
 62
     7
 10
-89.000000003219967
 20
-25.000000000033321
 30
0.0
  0
VERTEX
  5
2336
  8
SAPA_PROFIL
  6
CONTINUOUS
 62
     7
 10
-86.08038780482218
 20
-25.000000000033332
 30
0.0
 42
0.131652497587394
  0
VERTEX
  5
2337
  8
SAPA_PROFIL
  6
CONTINUOUS
 62
     7
 10
-85.930387804822189
 20
-24.959807621168661
 30
0.0
  0
VERTEX
  5
2338
  8
SAPA_PROFIL
  6
CONTINUOUS
 62
     7
 10
-85.550003047092858
 20
-24.740192378898001
 30
0.0
 42
-0.2679491924311264
  0
VERTEX
  5
2339
  8
SAPA_PROFIL
  6
CONTINUOUS
 62
     7
 10
-85.250003047092846
 20
-24.740192378898008
 30
0.0
  0
VERTEX
  5
233A
  8
SAPA_PROFIL
  6
CONTINUOUS
 62
     7
 10
-84.869618289367963
 20
-24.95980762116611
 30
0.0
 42
0.1316524975876173
  0
VERTEX
  5
233B
  8
SAPA_PROFIL
  6
CONTINUOUS
 62
     7
 10
-84.719618289367716
 20
-25.00000000003077
 30
0.0
  0
VERTEX
  5
233C
  8
SAPA_PROFIL
  6
CONTINUOUS
 62
     7
 10
-67.499719497750803
 20
-25.000000000015451
 30
0.0
  0
VERTEX
  5
233D
  8
SAPA_PROFIL
  6
CONTINUOUS
 62
     7
 10
-66.176718656316211
 20
-24.48864928039157
 30
0.0
 42
-0.4142135623730732
  0
VERTEX
  5
233E
  8
SAPA_PROFIL
  6
CONTINUOUS
 62
     7
 10
-65.802533700840399
 20
-24.68861332489897
 30
0.0
  0
VERTEX
  5
233F
  8
SAPA_PROFIL
  6
CONTINUOUS
 62
     7
 10
-65.788015291593297
 20
-24.73645907489745
 30
0.0
  0
VERTEX
  5
2340
  8
SAPA_PROFIL
  6
CONTINUOUS
 62
     7
 10
-64.284914210831289
 20
-24.73654268278111
 30
0.0
 42
0.4769755326981473
  0
VERTEX
  5
2341
  8
SAPA_PROFIL
  6
CONTINUOUS
 62
     7
 10
-63.982661386324821
 20
-24.36488580783524
 30
0.0
  0
VERTEX
  5
2342
  8
SAPA_PROFIL
  6
CONTINUOUS
 62
     7
 10
-64.364107982452481
 20
-22.551655337176982
 30
0.0
 42
0.2216946626430328
  0
VERTEX
  5
2343
  8
SAPA_PROFIL
  6
CONTINUOUS
 62
     7
 10
-64.769916887607323
 20
-22.010775505700192
 30
0.0
  0
VERTEX
  5
2344
  8
SAPA_PROFIL
  6
CONTINUOUS
 62
     7
 10
-65.054599170838955
 20
-21.858641594591429
 30
0.0
 42
0.5773502691897292
  0
VERTEX
  5
2345
  8
SAPA_PROFIL
  6
CONTINUOUS
 62
     7
 10
-65.348755471093796
 20
-22.041595334701611
 30
0.0
  0
VERTEX
  5
2346
  8
SAPA_PROFIL
  6
CONTINUOUS
 62
     7
 10
-65.33819410486683
 20
-22.363353062919849
 30
0.0
  0
VERTEX
  5
2347
  8
SAPA_PROFIL
  6
CONTINUOUS
 62
     7
 10
-67.224037796727885
 20
-23.4479175098916
 30
0.0
  0
VERTEX
  5
2348
  8
SAPA_PROFIL
  6
CONTINUOUS
 62
     7
 10
-67.415420796721605
 20
-23.505991146880579
 30
0.0
 42
-0.7625858545243111
  0
VERTEX
  5
2349
  8
SAPA_PROFIL
  6
CONTINUOUS
 62
     7
 10
-67.599999998919031
 20
-23.175665065863679
 30
0.0
 42
0.2134217652834384
  0
VERTEX
  5
234A
  8
SAPA_PROFIL
  6
CONTINUOUS
 62
     7
 10
-67.499999998918895
 20
-22.952058268077959
 30
0.0
  0
VERTEX
  5
234B
  8
SAPA_PROFIL
  6
CONTINUOUS
 62
     7
 10
-67.499999998918895
 20
-19.099271863494319
 30
0.0
 42
-0.4142135623719642
  0
VERTEX
  5
234C
  8
SAPA_PROFIL
  6
CONTINUOUS
 62
     7
 10
-67.199999998918955
 20
-18.799271863493232
 30
0.0
  0
VERTEX
  5
234D
  8
SAPA_PROFIL
  6
CONTINUOUS
 62
     7
 10
-66.899999998918759
 20
-18.799271863494141
 30
0.0
  0
VERTEX
  5
234E
  8
SAPA_PROFIL
  6
CONTINUOUS
 62
     7
 10
-65.299999998918878
 20
-19.72303229419866
 30
0.0
 42
0.5773502691885648
  0
VERTEX
  5
234F
  8
SAPA_PROFIL
  6
CONTINUOUS
 62
     7
 10
-64.999999998918895
 20
-19.549827213440949
 30
0.0
  0
VERTEX
  5
2350
  8
SAPA_PROFIL
  6
CONTINUOUS
 62
     7
 10
-64.999999998918895
 20
-10.450172786622719
 30
0.0
 42
0.5773502691885171
  0
VERTEX
  5
2351
  8
SAPA_PROFIL
  6
CONTINUOUS
 62
     7
 10
-65.299999998918835
 20
-10.27696770586499
 30
0.0
  0
VERTEX
  5
2352
  8
SAPA_PROFIL
  6
CONTINUOUS
 62
     7
 10
-66.899999998918759
 20
-11.20072813656952
 30
0.0
  0
VERTEX
  5
2353
  8
SAPA_PROFIL
  6
CONTINUOUS
 62
     7
 10
-67.199999998918955
 20
-11.20072813656952
 30
0.0
 42
-0.4142135623719644
  0
VERTEX
  5
2354
  8
SAPA_PROFIL
  6
CONTINUOUS
 62
     7
 10
-67.499999998917986
 20
-10.90072813656934
 30
0.0
  0
VERTEX
  5
2355
  8
SAPA_PROFIL
  6
CONTINUOUS
 62
     7
 10
-67.499999998918895
 20
-7.0479417319636184
 30
0.0
 42
0.2134217652834359
  0
VERTEX
  5
2356
  8
SAPA_PROFIL
  6
CONTINUOUS
 62
     7
 10
-67.599999998919088
 20
-6.8243349342135096
 30
0.0
 42
-0.7625858545243172
  0
VERTEX
  5
2357
  8
SAPA_PROFIL
  6
CONTINUOUS
 62
     7
 10
-67.415420796721605
 20
-6.4940088531965037
 30
0.0
  0
VERTEX
  5
2358
  8
SAPA_PROFIL
  6
CONTINUOUS
 62
     7
 10
-67.224037796727885
 20
-6.5520824901855974
 30
0.0
  0
VERTEX
  5
2359
  8
SAPA_PROFIL
  6
CONTINUOUS
 62
     7
 10
-65.33819410486683
 20
-7.6366469371573373
 30
0.0
  0
VERTEX
  5
235A
  8
SAPA_PROFIL
  6
CONTINUOUS
 62
     7
 10
-65.348755471093796
 20
-7.9584046653755811
 30
0.0
 42
0.5773502691897293
  0
VERTEX
  5
235B
  8
SAPA_PROFIL
  6
CONTINUOUS
 62
     7
 10
-65.054599170838955
 20
-8.1413584054857608
 30
0.0
  0
VERTEX
  5
235C
  8
SAPA_PROFIL
  6
CONTINUOUS
 62
     7
 10
-64.76991688760728
 20
-7.9892244943769981
 30
0.0
 42
0.2216946626430043
  0
VERTEX
  5
235D
  8
SAPA_PROFIL
  6
CONTINUOUS
 62
     7
 10
-64.364107982452538
 20
-7.4483446629002108
 30
0.0
  0
VERTEX
  5
235E
  8
SAPA_PROFIL
  6
CONTINUOUS
 62
     7
 10
-63.982661386324821
 20
-5.6351141922419572
 30
0.0
 42
0.4769755326981317
  0
VERTEX
  5
235F
  8
SAPA_PROFIL
  6
CONTINUOUS
 62
     7
 10
-64.284914210831289
 20
-5.263457317296087
 30
0.0
  0
VERTEX
  5
2360
  8
SAPA_PROFIL
  6
CONTINUOUS
 62
     7
 10
-65.788015291593297
 20
-5.2635409251797389
 30
0.0
  0
VERTEX
  5
2361
  8
SAPA_PROFIL
  6
CONTINUOUS
 62
     7
 10
-65.802533700840399
 20
-5.3113866751782259
 30
0.0
 42
-0.4142135623730951
  0
VERTEX
  5
2362
  8
SAPA_PROFIL
  6
CONTINUOUS
 62
     7
 10
-66.176718656316211
 20
-5.5113507196856233
 30
0.0
  0
VERTEX
  5
2363
  8
SAPA_PROFIL
  6
CONTINUOUS
 62
     7
 10
-67.499719497766961
 20
-5.0000000000554223
 30
0.0
  0
VERTEX
  5
2364
  8
SAPA_PROFIL
  6
CONTINUOUS
 62
     7
 10
-69.699999998919864
 20
-5.0000000000671916
 30
0.0
 42
0.4142135623531162
  0
VERTEX
  5
2365
  8
SAPA_PROFIL
  6
CONTINUOUS
 62
     7
 10
-69.999999998919108
 20
-5.3000000000468823
 30
0.0
  0
VERTEX
  5
2366
  8
SAPA_PROFIL
  6
CONTINUOUS
 62
     7
 10
-69.999999998919108
 20
-10.00000000003118
 30
0.0
 42
-0.4142135623737027
  0
VERTEX
  5
2367
  8
SAPA_PROFIL
  6
CONTINUOUS
 62
     7
 10
-70.999999998921183
 20
-11.00000000003118
 30
0.0
  0
VERTEX
  5
2368
  8
SAPA_PROFIL
  6
CONTINUOUS
 62
     7
 10
-73.99999999891844
 20
-11.00000000002496
 30
0.0
 42
0.4142135623737057
  0
VERTEX
  5
2369
  8
SAPA_PROFIL
  6
CONTINUOUS
 62
     7
 10
-74.299999998919063
 20
-11.300000000024969
 30
0.0
  0
VERTEX
  5
236A
  8
SAPA_PROFIL
  6
CONTINUOUS
 62
     7
 10
-74.299999998919063
 20
-12.573438483802819
 30
0.0
 42
0.1962615682814401
  0
VERTEX
  5
236B
  8
SAPA_PROFIL
  6
CONTINUOUS
 62
     7
 10
-74.214285713204774
 20
-12.78339474747051
 30
0.0
 42
-0.1962615682813938
  0
VERTEX
  5
236C
  8
SAPA_PROFIL
  6
CONTINUOUS
 62
     7
 10
-73.499999998919094
 20
-14.53303027802971
 30
0.0
  0
VERTEX
  5
236D
  8
SAPA_PROFIL
  6
CONTINUOUS
 62
     7
 10
-73.499999998919094
 20
-23.000000000034959
 30
0.0
 42
-0.414213562373709
  0
VERTEX
  5
236E
  8
SAPA_PROFIL
  6
CONTINUOUS
 62
     7
 10
-73.799999998919063
 20
-23.300000000036
 30
0.0
  0
VERTEX
  5
236F
  8
SAPA_PROFIL
  6
CONTINUOUS
 62
     7
 10
-87.000003047092875
 20
-23.300000000035659
 30
0.0
 42
-0.4142135623728949
  0
SEQEND
  5
2370
  8
SAPA_PROFIL
  6
CONTINUOUS
 62
     7
  0
POLYLINE
  5
1CEA
  8
SAPA_PROFIL
 62
     4
 66
     1
 10
0.0
 20
0.0
 30
0.0
 70
     1
  0
VERTEX
  5
2371
  8
SAPA_PROFIL
 62
     4
 10
-64.462221528366854
 20
-7.973242804959213
 30
0.0
 42
0.3137019356282051
  0
VERTEX
  5
2372
  8
SAPA_PROFIL
 62
     4
 10
-64.181271744820549
 20
-7.7756171794257929
 30
0.0
  0
VERTEX
  5
2373
  8
SAPA_PROFIL
 62
     4
 10
-63.295794031949349
 20
-5.3427871578817729
 30
0.0
 42
-0.3152987888779321
  0
VERTEX
  5
2374
  8
SAPA_PROFIL
 62
     4
 10
-62.919916983632959
 20
-5.079595215212052
 30
0.0
  0
VERTEX
  5
2375
  8
SAPA_PROFIL
 62
     4
 10
-52.499999998918831
 20
-5.0795952152120831
 30
0.0
  0
VERTEX
  5
2376
  8
SAPA_PROFIL
 62
     4
 10
-42.080083014200738
 20
-5.0795952152121409
 30
0.0
 42
-0.3152987888779395
  0
VERTEX
  5
2377
  8
SAPA_PROFIL
 62
     4
 10
-41.70420596588837
 20
-5.3427871578818618
 30
0.0
  0
VERTEX
  5
2378
  8
SAPA_PROFIL
 62
     4
 10
-40.818728253020197
 20
-7.7756171794175559
 30
0.0
 42
0.3138982169096283
  0
VERTEX
  5
2379
  8
SAPA_PROFIL
 62
     4
 10
-40.537778469506009
 20
-7.97324280495791
 30
0.0
 42
0.0157923906855865
  0
VERTEX
  5
237A
  8
SAPA_PROFIL
 62
     4
 10
-40.186319937167163
 20
-7.9766459345975056
 30
0.0
  0
VERTEX
  5
237B
  8
SAPA_PROFIL
 62
     4
 10
-39.946136872384869
 20
-8.1153156917040317
 30
0.0
 42
0.5773502691889272
  0
VERTEX
  5
237C
  8
SAPA_PROFIL
 62
     4
 10
-39.631136872385163
 20
-7.9334503569092378
 30
0.0
  0
VERTEX
  5
237D
  8
SAPA_PROFIL
 62
     4
 10
-39.631136872385042
 20
-7.6663358286963241
 30
0.0
  0
VERTEX
  5
237E
  8
SAPA_PROFIL
 62
     4
 10
-39.29999999891885
 20
-7.4701137629120256
 30
0.0
  0
VERTEX
  5
237F
  8
SAPA_PROFIL
 62
     4
 10
-38.316679860938329
 20
-6.9024695994145784
 30
0.0
 42
-0.1316524975869703
  0
VERTEX
  5
2380
  8
SAPA_PROFIL
 62
     4
 10
-38.211679860939512
 20
-6.8743349342100171
 30
0.0
  0
VERTEX
  5
2381
  8
SAPA_PROFIL
 62
     4
 10
-37.89999999891694
 20
-6.8743349342099034
 30
0.0
 42
-0.4142135623775584
  0
VERTEX
  5
2382
  8
SAPA_PROFIL
 62
     4
 10
-37.499999998918902
 20
-7.2743349342102208
 30
0.0
  0
VERTEX
  5
2383
  8
SAPA_PROFIL
 62
     4
 10
-37.499999998918838
 20
-10.67433493420997
 30
0.0
 42
-0.4142135623773978
  0
VERTEX
  5
2384
  8
SAPA_PROFIL
 62
     4
 10
-37.899999998918872
 20
-11.074334934209951
 30
0.0
  0
VERTEX
  5
2385
  8
SAPA_PROFIL
 62
     4
 10
-38.211679860942517
 20
-11.074334934209951
 30
0.0
 42
-0.1316524975869708
  0
VERTEX
  5
2386
  8
SAPA_PROFIL
 62
     4
 10
-38.316679860939473
 20
-11.0462002690047
 30
0.0
  0
VERTEX
  5
2387
  8
SAPA_PROFIL
 62
     4
 10
-39.29999999891885
 20
-10.47848012264267
 30
0.0
  0
VERTEX
  5
2388
  8
SAPA_PROFIL
 62
     4
 10
-39.894744110589727
 20
-10.13510444967055
 30
0.0
 42
0.1316524975869772
  0
VERTEX
  5
2389
  8
SAPA_PROFIL
 62
     4
 10
-40.494744110593103
 20
-9.9743349342100398
 30
0.0
  0
VERTEX
  5
238A
  8
SAPA_PROFIL
 62
     4
 10
-41.446608443479533
 20
-9.9743349342102654
 30
0.0
 42
-0.3152987888780149
  0
VERTEX
  5
238B
  8
SAPA_PROFIL
 62
     4
 10
-42.386301064251029
 20
-9.3163550775358779
 30
0.0
  0
VERTEX
  5
238C
  8
SAPA_PROFIL
 62
     4
 10
-43.177415089160881
 20
-7.1427871578821858
 30
0.0
 42
0.3152987888779391
  0
VERTEX
  5
238D
  8
SAPA_PROFIL
 62
     4
 10
-43.553292137475403
 20
-6.879595215212067
 30
0.0
  0
VERTEX
  5
238E
  8
SAPA_PROFIL
 62
     4
 10
-52.499999998918831
 20
-6.8795952152120661
 30
0.0
  0
VERTEX
  5
238F
  8
SAPA_PROFIL
 62
     4
 10
-61.446707860362331
 20
-6.8795952152120066
 30
0.0
 42
0.3152987888779318
  0
VERTEX
  5
2390
  8
SAPA_PROFIL
 62
     4
 10
-61.822584908675481
 20
-7.1427871578784314
 30
0.0
  0
VERTEX
  5
2391
  8
SAPA_PROFIL
 62
     4
 10
-62.613698933586591
 20
-9.3163550775356452
 30
0.0
 42
-0.3152987888779361
  0
VERTEX
  5
2392
  8
SAPA_PROFIL
 62
     4
 10
-63.55339155438719
 20
-9.9743349342099776
 30
0.0
  0
VERTEX
  5
2393
  8
SAPA_PROFIL
 62
     4
 10
-64.505255887244687
 20
-9.9743349342099776
 30
0.0
 42
0.1316524975869766
  0
VERTEX
  5
2394
  8
SAPA_PROFIL
 62
     4
 10
-65.105255887237888
 20
-10.13510444966469
 30
0.0
  0
VERTEX
  5
2395
  8
SAPA_PROFIL
 62
     4
 10
-65.692820321946385
 20
-10.474334934209921
 30
0.0
  0
VERTEX
  5
2396
  8
SAPA_PROFIL
 62
     4
 10
-66.683320136898317
 20
-11.04620026900464
 30
0.0
 42
-0.1316524975869832
  0
VERTEX
  5
2397
  8
SAPA_PROFIL
 62
     4
 10
-66.788320136901405
 20
-11.07433493420988
 30
0.0
  0
VERTEX
  5
2398
  8
SAPA_PROFIL
 62
     4
 10
-67.099999998918904
 20
-11.07433493420994
 30
0.0
 42
-0.414213562371655
  0
VERTEX
  5
2399
  8
SAPA_PROFIL
 62
     4
 10
-67.499999998918895
 20
-10.67433493420598
 30
0.0
  0
VERTEX
  5
239A
  8
SAPA_PROFIL
 62
     4
 10
-67.499999998918895
 20
-7.2743349342099322
 30
0.0
 42
-0.4142135623716633
  0
VERTEX
  5
239B
  8
SAPA_PROFIL
 62
     4
 10
-67.099999998916871
 20
-6.874334934209954
 30
0.0
  0
VERTEX
  5
239C
  8
SAPA_PROFIL
 62
     4
 10
-66.788320136898221
 20
-6.874334934209954
 30
0.0
 42
-0.1316524975869709
  0
VERTEX
  5
239D
  8
SAPA_PROFIL
 62
     4
 10
-66.683320136897635
 20
-6.9024695994155394
 30
0.0
  0
VERTEX
  5
239E
  8
SAPA_PROFIL
 62
     4
 10
-65.368863125452634
 20
-7.6663358286963179
 30
0.0
  0
VERTEX
  5
239F
  8
SAPA_PROFIL
 62
     4
 10
-65.368863125452521
 20
-7.9334503569092334
 30
0.0
 42
0.5773502691889269
  0
VERTEX
  5
23A0
  8
SAPA_PROFIL
 62
     4
 10
-65.053863125452807
 20
-8.1153156917040263
 30
0.0
  0
VERTEX
  5
23A1
  8
SAPA_PROFIL
 62
     4
 10
-64.813680060670507
 20
-7.976645934597502
 30
0.0
 42
0.015792390685586
  0
SEQEND
  5
23A2
  8
SAPA_PROFIL
 62
     4
  0
POLYLINE
  5
1CEB
  8
SAPA_PROFIL
 66
     1
 10
0.0
 20
0.0
 30
0.0
 70
     1
  0
VERTEX
  5
23A3
  8
SAPA_PROFIL
 10
-25.000000000002888
 20
22.600000373537799
 30
0.0
 42
-0.767326987974136
  0
VERTEX
  5
23A4
  8
SAPA_PROFIL
 10
-24.849999999999731
 20
22.04019275240433
 30
0.0
 42
0.2679491924279902
  0
VERTEX
  5
23A5
  8
SAPA_PROFIL
 10
-25.000000000002441
 20
21.78038513128082
 30
0.0
  0
VERTEX
  5
23A6
  8
SAPA_PROFIL
 10
-25.000000000001808
 20
18.800000373537561
 30
0.0
 42
0.4142135623730395
  0
VERTEX
  5
23A7
  8
SAPA_PROFIL
 10
-23.500000000001751
 20
17.300000373537848
 30
0.0
  0
VERTEX
  5
23A8
  8
SAPA_PROFIL
 10
-22.400000000002361
 20
17.300000373537848
 30
0.0
 42
0.4142135623730951
  0
VERTEX
  5
23A9
  8
SAPA_PROFIL
 10
-22.1000000000024
 20
17.600000373537569
 30
0.0
  0
VERTEX
  5
23AA
  8
SAPA_PROFIL
 10
-22.1000000000024
 20
18.100000373537569
 30
0.0
 42
0.4142135623730948
  0
VERTEX
  5
23AB
  8
SAPA_PROFIL
 10
-22.400000000002361
 20
18.400000373537761
 30
0.0
  0
VERTEX
  5
23AC
  8
SAPA_PROFIL
 10
-22.736626924636528
 20
18.400000373537761
 30
0.0
 42
-0.5643553431119927
  0
VERTEX
  5
23AD
  8
SAPA_PROFIL
 10
-20.87439504323947
 20
22.724395416772051
 30
0.0
  0
VERTEX
  5
23AE
  8
SAPA_PROFIL
 10
-20.50000000000249
 20
22.350000373539849
 30
0.0
  0
VERTEX
  5
23AF
  8
SAPA_PROFIL
 10
-20.12560495676961
 20
22.72439541677296
 30
0.0
 42
-0.564355343112654
  0
VERTEX
  5
23B0
  8
SAPA_PROFIL
 10
-18.263373075367092
 20
18.400000373537761
 30
0.0
  0
VERTEX
  5
23B1
  8
SAPA_PROFIL
 10
-18.60000000000263
 20
18.400000373537761
 30
0.0
 42
0.4142135623729843
  0
VERTEX
  5
23B2
  8
SAPA_PROFIL
 10
-18.900000000002699
 20
18.10000037353803
 30
0.0
  0
VERTEX
  5
23B3
  8
SAPA_PROFIL
 10
-18.900000000002581
 20
17.600000373537569
 30
0.0
 42
0.4142135623730951
  0
VERTEX
  5
23B4
  8
SAPA_PROFIL
 10
-18.60000000000263
 20
17.300000373537848
 30
0.0
  0
VERTEX
  5
23B5
  8
SAPA_PROFIL
 10
-16.300000000002669
 20
17.300000373537848
 30
0.0
 42
0.4142135623732062
  0
VERTEX
  5
23B6
  8
SAPA_PROFIL
 10
-16.00000000000238
 20
17.600000373537569
 30
0.0
  0
VERTEX
  5
23B7
  8
SAPA_PROFIL
 10
-16.00000000000249
 20
22.00000037353772
 30
0.0
 42
-0.4142135623731117
  0
VERTEX
  5
23B8
  8
SAPA_PROFIL
 10
-15.00000000000249
 20
23.000000373537841
 30
0.0
  0
VERTEX
  5
23B9
  8
SAPA_PROFIL
 10
19.99999999999557
 20
23.000000373538061
 30
0.0
 42
-0.7673269879789009
  0
VERTEX
  5
23BA
  8
SAPA_PROFIL
 10
20.24999999999574
 20
22.066987671645901
 30
0.0
 42
0.2679491924311131
  0
VERTEX
  5
23BB
  8
SAPA_PROFIL
 10
19.999999999995861
 20
21.633974969753641
 30
0.0
  0
VERTEX
  5
23BC
  8
SAPA_PROFIL
 10
19.99999999999665
 20
18.800000373537781
 30
0.0
 42
0.4142135623730395
  0
VERTEX
  5
23BD
  8
SAPA_PROFIL
 10
21.49999999999671
 20
17.300000373538069
 30
0.0
  0
VERTEX
  5
23BE
  8
SAPA_PROFIL
 10
22.599999999996111
 20
17.300000373538069
 30
0.0
 42
0.4142135623730951
  0
VERTEX
  5
23BF
  8
SAPA_PROFIL
 10
22.899999999996059
 20
17.600000373537789
 30
0.0
  0
VERTEX
  5
23C0
  8
SAPA_PROFIL
 10
22.899999999996059
 20
18.100000373537789
 30
0.0
 42
0.4142135623730948
  0
VERTEX
  5
23C1
  8
SAPA_PROFIL
 10
22.599999999996111
 20
18.400000373537981
 30
0.0
  0
VERTEX
  5
23C2
  8
SAPA_PROFIL
 10
22.26337307536193
 20
18.400000373537981
 30
0.0
 42
-0.5643553431119927
  0
VERTEX
  5
23C3
  8
SAPA_PROFIL
 10
24.125604956758998
 20
22.724395416772271
 30
0.0
  0
VERTEX
  5
23C4
  8
SAPA_PROFIL
 10
24.499999999995971
 20
22.35000037354007
 30
0.0
  0
VERTEX
  5
23C5
  8
SAPA_PROFIL
 10
24.874395043228851
 20
22.724395416773181
 30
0.0
 42
-0.564355343112654
  0
VERTEX
  5
23C6
  8
SAPA_PROFIL
 10
26.736626924631381
 20
18.400000373537981
 30
0.0
  0
VERTEX
  5
23C7
  8
SAPA_PROFIL
 10
26.399999999995838
 20
18.400000373537981
 30
0.0
 42
0.4142135623729843
  0
VERTEX
  5
23C8
  8
SAPA_PROFIL
 10
26.09999999999577
 20
18.100000373538251
 30
0.0
  0
VERTEX
  5
23C9
  8
SAPA_PROFIL
 10
26.09999999999588
 20
17.600000373537789
 30
0.0
 42
0.4142135623730951
  0
VERTEX
  5
23CA
  8
SAPA_PROFIL
 10
26.399999999995838
 20
17.300000373538069
 30
0.0
  0
VERTEX
  5
23CB
  8
SAPA_PROFIL
 10
28.699999999995789
 20
17.300000373538069
 30
0.0
 42
0.4142135623732062
  0
VERTEX
  5
23CC
  8
SAPA_PROFIL
 10
28.999999999996088
 20
17.600000373537789
 30
0.0
  0
VERTEX
  5
23CD
  8
SAPA_PROFIL
 10
28.999999999995971
 20
22.00000037353794
 30
0.0
 42
-0.4142135623730951
  0
VERTEX
  5
23CE
  8
SAPA_PROFIL
 10
29.999999999995971
 20
23.00000037353794
 30
0.0
  0
VERTEX
  5
23CF
  8
SAPA_PROFIL
 10
34.699999999996358
 20
23.000000373538111
 30
0.0
 42
-0.4142135623730984
  0
VERTEX
  5
23D0
  8
SAPA_PROFIL
 10
34.999999999996369
 20
22.700000373538099
 30
0.0
  0
VERTEX
  5
23D1
  8
SAPA_PROFIL
 10
34.999999999996369
 20
21.400000373538091
 30
0.0
 42
0.4142135623730951
  0
VERTEX
  5
23D2
  8
SAPA_PROFIL
 10
35.29999999999638
 20
21.10000037353808
 30
0.0
  0
VERTEX
  5
23D3
  8
SAPA_PROFIL
 10
35.875735931284403
 20
21.10000037353808
 30
0.0
 42
0.198912367379637
  0
VERTEX
  5
23D4
  8
SAPA_PROFIL
 10
36.087867965640392
 20
21.187868339182099
 30
0.0
  0
VERTEX
  5
23D5
  8
SAPA_PROFIL
 10
37.812132034352153
 20
22.912132407893981
 30
0.0
 42
-0.1989123673796579
  0
VERTEX
  5
23D6
  8
SAPA_PROFIL
 10
38.024264068708142
 20
23.000000373538001
 30
0.0
  0
VERTEX
  5
23D7
  8
SAPA_PROFIL
 10
41.499999999996483
 20
23.000000373538061
 30
0.0
 42
-0.4142135623730951
  0
VERTEX
  5
23D8
  8
SAPA_PROFIL
 10
42.499999999996483
 20
22.00000037353805
 30
0.0
  0
VERTEX
  5
23D9
  8
SAPA_PROFIL
 10
42.499999999996469
 20
-21.99999962646184
 30
0.0
 42
-0.4142135623730951
  0
VERTEX
  5
23DA
  8
SAPA_PROFIL
 10
41.499999999996461
 20
-22.99999962646184
 30
0.0
  0
VERTEX
  5
23DB
  8
SAPA_PROFIL
 10
38.024264068708071
 20
-22.999999626461779
 30
0.0
 42
-0.1989123673796579
  0
VERTEX
  5
23DC
  8
SAPA_PROFIL
 10
37.812132034352082
 20
-22.91213166081776
 30
0.0
  0
VERTEX
  5
23DD
  8
SAPA_PROFIL
 10
36.087867965640427
 20
-21.187867592105931
 30
0.0
 42
0.198912367379658
  0
VERTEX
  5
23DE
  8
SAPA_PROFIL
 10
35.875735931284453
 20
-21.099999626461909
 30
0.0
  0
VERTEX
  5
23DF
  8
SAPA_PROFIL
 10
35.299999999996373
 20
-21.099999626461909
 30
0.0
 42
0.4142135623730951
  0
VERTEX
  5
23E0
  8
SAPA_PROFIL
 10
34.999999999996362
 20
-21.39999962646192
 30
0.0
  0
VERTEX
  5
23E1
  8
SAPA_PROFIL
 10
34.999999999996362
 20
-22.699999626461821
 30
0.0
 42
-0.4142135623730984
  0
VERTEX
  5
23E2
  8
SAPA_PROFIL
 10
34.699999999996351
 20
-22.999999626461829
 30
0.0
  0
VERTEX
  5
23E3
  8
SAPA_PROFIL
 10
29.999999999995961
 20
-22.999999626461719
 30
0.0
 42
-0.4142135623730951
  0
VERTEX
  5
23E4
  8
SAPA_PROFIL
 10
28.999999999995961
 20
-21.999999626461719
 30
0.0
  0
VERTEX
  5
23E5
  8
SAPA_PROFIL
 10
28.999999999996071
 20
-17.599999626461571
 30
0.0
 42
0.4142135623732062
  0
VERTEX
  5
23E6
  8
SAPA_PROFIL
 10
28.699999999995779
 20
-17.29999962646184
 30
0.0
  0
VERTEX
  5
23E7
  8
SAPA_PROFIL
 10
26.399999999995821
 20
-17.29999962646184
 30
0.0
 42
0.4142135623730951
  0
VERTEX
  5
23E8
  8
SAPA_PROFIL
 10
26.09999999999587
 20
-17.599999626461571
 30
0.0
  0
VERTEX
  5
23E9
  8
SAPA_PROFIL
 10
26.099999999995749
 20
-18.099999626462019
 30
0.0
 42
0.414213562372984
  0
VERTEX
  5
23EA
  8
SAPA_PROFIL
 10
26.399999999995821
 20
-18.399999626461749
 30
0.0
  0
VERTEX
  5
23EB
  8
SAPA_PROFIL
 10
26.736626924631359
 20
-18.399999626461749
 30
0.0
 42
-0.5643553431126542
  0
VERTEX
  5
23EC
  8
SAPA_PROFIL
 10
24.874395043228841
 20
-22.724394669696949
 30
0.0
  0
VERTEX
  5
23ED
  8
SAPA_PROFIL
 10
24.499999999995961
 20
-22.349999626463841
 30
0.0
  0
VERTEX
  5
23EE
  8
SAPA_PROFIL
 10
24.125604956758991
 20
-22.724394669696039
 30
0.0
 42
-0.5643553431119927
  0
VERTEX
  5
23EF
  8
SAPA_PROFIL
 10
22.263373075361919
 20
-18.399999626461749
 30
0.0
  0
VERTEX
  5
23F0
  8
SAPA_PROFIL
 10
22.59999999999609
 20
-18.399999626461749
 30
0.0
 42
0.414213562373095
  0
VERTEX
  5
23F1
  8
SAPA_PROFIL
 10
22.899999999996052
 20
-18.099999626461571
 30
0.0
  0
VERTEX
  5
23F2
  8
SAPA_PROFIL
 10
22.899999999996052
 20
-17.599999626461571
 30
0.0
 42
0.4142135623730953
  0
VERTEX
  5
23F3
  8
SAPA_PROFIL
 10
22.59999999999609
 20
-17.29999962646184
 30
0.0
  0
VERTEX
  5
23F4
  8
SAPA_PROFIL
 10
21.499999999996689
 20
-17.299999626461609
 30
0.0
 42
0.4142135623730508
  0
VERTEX
  5
23F5
  8
SAPA_PROFIL
 10
19.999999999996639
 20
-18.799999626461329
 30
0.0
  0
VERTEX
  5
23F6
  8
SAPA_PROFIL
 10
19.9999999999959
 20
-21.633974222677178
 30
0.0
 42
0.2679491924311283
  0
VERTEX
  5
23F7
  8
SAPA_PROFIL
 10
20.24999999999573
 20
-22.066986924569449
 30
0.0
 42
-0.7673269879788167
  0
VERTEX
  5
23F8
  8
SAPA_PROFIL
 10
19.999999999995559
 20
-22.999999626461602
 30
0.0
  0
VERTEX
  5
23F9
  8
SAPA_PROFIL
 10
-15.000000000002499
 20
-22.999999626461371
 30
0.0
 42
-0.4142135623730951
  0
VERTEX
  5
23FA
  8
SAPA_PROFIL
 10
-16.000000000002501
 20
-21.999999626461371
 30
0.0
  0
VERTEX
  5
23FB
  8
SAPA_PROFIL
 10
-16.000000000002391
 20
-17.599999626461219
 30
0.0
 42
0.4142135623732062
  0
VERTEX
  5
23FC
  8
SAPA_PROFIL
 10
-16.300000000002679
 20
-17.299999626461489
 30
0.0
  0
VERTEX
  5
23FD
  8
SAPA_PROFIL
 10
-18.600000000002641
 20
-17.299999626461489
 30
0.0
 42
0.4142135623730951
  0
VERTEX
  5
23FE
  8
SAPA_PROFIL
 10
-18.900000000002589
 20
-17.599999626461219
 30
0.0
  0
VERTEX
  5
23FF
  8
SAPA_PROFIL
 10
-18.900000000002699
 20
-18.09999962646167
 30
0.0
 42
0.414213562372984
  0
VERTEX
  5
2400
  8
SAPA_PROFIL
 10
-18.600000000002641
 20
-18.399999626461401
 30
0.0
  0
VERTEX
  5
2401
  8
SAPA_PROFIL
 10
-18.263373075367099
 20
-18.399999626461401
 30
0.0
 42
-0.5643553431126542
  0
VERTEX
  5
2402
  8
SAPA_PROFIL
 10
-20.125604956769621
 20
-22.724394669696601
 30
0.0
  0
VERTEX
  5
2403
  8
SAPA_PROFIL
 10
-20.500000000002501
 20
-22.349999626463489
 30
0.0
  0
VERTEX
  5
2404
  8
SAPA_PROFIL
 10
-20.87439504323947
 20
-22.724394669695691
 30
0.0
 42
-0.5643553431119927
  0
VERTEX
  5
2405
  8
SAPA_PROFIL
 10
-22.736626924636539
 20
-18.399999626461401
 30
0.0
  0
VERTEX
  5
2406
  8
SAPA_PROFIL
 10
-22.400000000002361
 20
-18.399999626461401
 30
0.0
 42
0.414213562373095
  0
VERTEX
  5
2407
  8
SAPA_PROFIL
 10
-22.10000000000241
 20
-18.099999626461219
 30
0.0
  0
VERTEX
  5
2408
  8
SAPA_PROFIL
 10
-22.10000000000241
 20
-17.599999626461219
 30
0.0
 42
0.4142135623730951
  0
VERTEX
  5
2409
  8
SAPA_PROFIL
 10
-22.400000000002361
 20
-17.299999626461378
 30
0.0
  0
VERTEX
  5
240A
  8
SAPA_PROFIL
 10
-23.500000000001759
 20
-17.299999626461378
 30
0.0
 42
0.4142135623730508
  0
VERTEX
  5
240B
  8
SAPA_PROFIL
 10
-25.000000000001819
 20
-18.799999626461091
 30
0.0
  0
VERTEX
  5
240C
  8
SAPA_PROFIL
 10
-25.000000000002451
 20
-21.780384384204339
 30
0.0
 42
0.2679491924279903
  0
VERTEX
  5
240D
  8
SAPA_PROFIL
 10
-24.849999999999739
 20
-22.04019200532786
 30
0.0
 42
-0.767326987974136
  0
VERTEX
  5
240E
  8
SAPA_PROFIL
 10
-25.000000000002899
 20
-22.59999962646139
 30
0.0
  0
VERTEX
  5
240F
  8
SAPA_PROFIL
 10
-27.000000000001819
 20
-22.59999962646134
 30
0.0
 42
-0.4142135623730951
  0
VERTEX
  5
2410
  8
SAPA_PROFIL
 10
-28.000000000001819
 20
-21.599999626461329
 30
0.0
  0
VERTEX
  5
2411
  8
SAPA_PROFIL
 10
-28.000000000001808
 20
21.600000373537799
 30
0.0
 42
-0.4142135623731284
  0
VERTEX
  5
2412
  8
SAPA_PROFIL
 10
-27.000000000001808
 20
22.60000037353792
 30
0.0
  0
SEQEND
  5
2413
  8
SAPA_PROFIL
  0
POLYLINE
  5
1CEC
  8
SAPA_PROFIL
 66
     1
 10
0.0
 20
0.0
 30
0.0
 70
     1
  0
VERTEX
  5
2414
  8
SAPA_PROFIL
 10
-30.999999999011781
 20
-2.6999996264622652
 30
0.0
  0
VERTEX
  5
2415
  8
SAPA_PROFIL
 10
-31.249999999011781
 20
-2.6999996264622652
 30
0.0
  0
VERTEX
  5
2416
  8
SAPA_PROFIL
 10
-31.24999999901183
 20
-2.3499996264623562
 30
0.0
 42
0.5450207774094042
  0
VERTEX
  5
2417
  8
SAPA_PROFIL
 10
-31.67376540333731
 20
-2.0767193222103439
 30
0.0
  0
VERTEX
  5
2418
  8
SAPA_PROFIL
 10
-33.049999999011959
 20
-2.6999996264622652
 30
0.0
  0
VERTEX
  5
2419
  8
SAPA_PROFIL
 10
-33.04999999901208
 20
-2.3499996264623562
 30
0.0
 42
0.5450207774090177
  0
VERTEX
  5
241A
  8
SAPA_PROFIL
 10
-33.473765403337161
 20
-2.0767193222102298
 30
0.0
  0
VERTEX
  5
241B
  8
SAPA_PROFIL
 10
-34.849999999011906
 20
-2.6999996264622652
 30
0.0
  0
VERTEX
  5
241C
  8
SAPA_PROFIL
 10
-34.84999999901197
 20
-2.3499996264623562
 30
0.0
 42
0.5450207774094042
  0
VERTEX
  5
241D
  8
SAPA_PROFIL
 10
-35.27376540333745
 20
-2.0767193222103439
 30
0.0
  0
VERTEX
  5
241E
  8
SAPA_PROFIL
 10
-36.649999999011868
 20
-2.6999996264622652
 30
0.0
  0
VERTEX
  5
241F
  8
SAPA_PROFIL
 10
-36.649999999011868
 20
-2.3499996264623562
 30
0.0
 42
0.545020777409516
  0
VERTEX
  5
2420
  8
SAPA_PROFIL
 10
-37.073765403337518
 20
-2.0767193222103439
 30
0.0
  0
VERTEX
  5
2421
  8
SAPA_PROFIL
 10
-38.44999999901205
 20
-2.6999996264622652
 30
0.0
  0
VERTEX
  5
2422
  8
SAPA_PROFIL
 10
-38.44999999901205
 20
-2.3499996264623562
 30
0.0
 42
0.545020777409516
  0
VERTEX
  5
2423
  8
SAPA_PROFIL
 10
-38.8737654033377
 20
-2.0767193222103439
 30
0.0
  0
VERTEX
  5
2424
  8
SAPA_PROFIL
 10
-40.249999999012232
 20
-2.6999996264622652
 30
0.0
  0
VERTEX
  5
2425
  8
SAPA_PROFIL
 10
-40.249999999012232
 20
-2.3499996264623562
 30
0.0
 42
0.5450207774090177
  0
VERTEX
  5
2426
  8
SAPA_PROFIL
 10
-40.67376540333742
 20
-2.0767193222102298
 30
0.0
  0
VERTEX
  5
2427
  8
SAPA_PROFIL
 10
-41.449999999012043
 20
-2.4282667520476902
 30
0.0
  0
VERTEX
  5
2428
  8
SAPA_PROFIL
 10
-41.449999999012107
 20
1.0006707898188649
 30
0.0
  0
VERTEX
  5
2429
  8
SAPA_PROFIL
 10
-41.449999999012107
 20
2.7000003735378288
 30
0.0
  0
VERTEX
  5
242A
  8
SAPA_PROFIL
 10
-41.149999999012088
 20
2.7000003735378288
 30
0.0
  0
VERTEX
  5
242B
  8
SAPA_PROFIL
 10
-39.773765403337791
 20
2.0767200692854528
 30
0.0
 42
0.5450207774093642
  0
VERTEX
  5
242C
  8
SAPA_PROFIL
 10
-39.349999999012368
 20
2.350000373537692
 30
0.0
  0
VERTEX
  5
242D
  8
SAPA_PROFIL
 10
-39.349999999012141
 20
2.7000003735378288
 30
0.0
  0
VERTEX
  5
242E
  8
SAPA_PROFIL
 10
-37.973765403337609
 20
2.0767200692856238
 30
0.0
 42
0.5450207774088696
  0
VERTEX
  5
242F
  8
SAPA_PROFIL
 10
-37.549999999012421
 20
2.350000373537692
 30
0.0
  0
VERTEX
  5
2430
  8
SAPA_PROFIL
 10
-37.549999999012194
 20
2.7000003735378288
 30
0.0
  0
VERTEX
  5
2431
  8
SAPA_PROFIL
 10
-36.173765403337647
 20
2.0767200692856238
 30
0.0
 42
0.5450207774094402
  0
VERTEX
  5
2432
  8
SAPA_PROFIL
 10
-35.749999999012353
 20
2.350000373537692
 30
0.0
  0
VERTEX
  5
2433
  8
SAPA_PROFIL
 10
-35.749999999012232
 20
2.7000003735378288
 30
0.0
  0
VERTEX
  5
2434
  8
SAPA_PROFIL
 10
-34.373765403337927
 20
2.0767200692854528
 30
0.0
 42
0.5450207774093642
  0
VERTEX
  5
2435
  8
SAPA_PROFIL
 10
-33.949999999012512
 20
2.350000373537692
 30
0.0
  0
VERTEX
  5
2436
  8
SAPA_PROFIL
 10
-33.949999999012277
 20
2.7000003735378288
 30
0.0
  0
VERTEX
  5
2437
  8
SAPA_PROFIL
 10
-32.573765403337752
 20
2.0767200692856238
 30
0.0
 42
0.5450207774088696
  0
VERTEX
  5
2438
  8
SAPA_PROFIL
 10
-32.149999999012607
 20
2.350000373537692
 30
0.0
  0
VERTEX
  5
2439
  8
SAPA_PROFIL
 10
-32.149999999011868
 20
2.7000003735378288
 30
0.0
  0
VERTEX
  5
243A
  8
SAPA_PROFIL
 10
-30.999999999011781
 20
2.7000003735378248
 30
0.0
 42
-0.4142135623730951
  0
VERTEX
  5
243B
  8
SAPA_PROFIL
 10
-29.999999999011781
 20
1.7000003735378251
 30
0.0
  0
VERTEX
  5
243C
  8
SAPA_PROFIL
 10
-29.999999999011781
 20
-1.699999626462265
 30
0.0
 42
-0.4142135623730951
  0
SEQEND
  5
243D
  8
SAPA_PROFIL
  0
POLYLINE
  5
1CED
  8
SAPA_PROFIL
 66
     1
 10
0.0
 20
0.0
 30
0.0
 70
     1
  0
VERTEX
  5
243E
  8
SAPA_PROFIL
 10
-30.000000000001759
 20
16.700000373538678
 30
0.0
  0
VERTEX
  5
243F
  8
SAPA_PROFIL
 10
-30.000000000001759
 20
23.200000373538341
 30
0.0
 42
0.4142135623732062
  0
VERTEX
  5
2440
  8
SAPA_PROFIL
 10
-30.30000000000182
 20
23.500000373538288
 30
0.0
  0
VERTEX
  5
2441
  8
SAPA_PROFIL
 10
-34.20000000000158
 20
23.500000373538288
 30
0.0
 42
0.4142135623730951
  0
VERTEX
  5
2442
  8
SAPA_PROFIL
 10
-34.500000000001528
 20
23.200000373538341
 30
0.0
  0
VERTEX
  5
2443
  8
SAPA_PROFIL
 10
-34.500000000001648
 20
22.000000373538459
 30
0.0
 42
-0.7105995015650612
  0
VERTEX
  5
2444
  8
SAPA_PROFIL
 10
-35.03507658043651
 20
21.813616357777629
 30
0.0
  0
VERTEX
  5
2445
  8
SAPA_PROFIL
 10
-35.283588601450958
 20
22.12705179835735
 30
0.0
 42
-0.169180745212488
  0
VERTEX
  5
2446
  8
SAPA_PROFIL
 10
-35.500000000001762
 20
22.748331850893241
 30
0.0
  0
VERTEX
  5
2447
  8
SAPA_PROFIL
 10
-35.500000000001641
 20
24.700000373538511
 30
0.0
 42
-0.4142135623730951
  0
VERTEX
  5
2448
  8
SAPA_PROFIL
 10
-35.200000000001687
 20
25.000000373538469
 30
0.0
  0
VERTEX
  5
2449
  8
SAPA_PROFIL
 10
43.999999999996419
 20
25.000000373538111
 30
0.0
 42
-0.4142135623730951
  0
VERTEX
  5
244A
  8
SAPA_PROFIL
 10
44.499999999996433
 20
24.500000373538111
 30
0.0
  0
VERTEX
  5
244B
  8
SAPA_PROFIL
 10
44.499999999996412
 20
-24.499999626461889
 30
0.0
 42
-0.4142135623730951
  0
VERTEX
  5
244C
  8
SAPA_PROFIL
 10
43.999999999996412
 20
-24.999999626461889
 30
0.0
  0
VERTEX
  5
244D
  8
SAPA_PROFIL
 10
-35.200000000001808
 20
-24.999999626461989
 30
0.0
 42
-0.4142135623730951
  0
VERTEX
  5
244E
  8
SAPA_PROFIL
 10
-35.500000000001769
 20
-24.699999626462041
 30
0.0
  0
VERTEX
  5
244F
  8
SAPA_PROFIL
 10
-35.500000000001769
 20
-22.748331103816948
 30
0.0
 42
-0.1691807452125303
  0
VERTEX
  5
2450
  8
SAPA_PROFIL
 10
-35.283588601450852
 20
-22.12705105128094
 30
0.0
  0
VERTEX
  5
2451
  8
SAPA_PROFIL
 10
-35.035076580436403
 20
-21.81361561070127
 30
0.0
 42
-0.7105995015650845
  0
VERTEX
  5
2452
  8
SAPA_PROFIL
 10
-34.500000000001762
 20
-21.999999626461989
 30
0.0
  0
VERTEX
  5
2453
  8
SAPA_PROFIL
 10
-34.500000000001762
 20
-23.199999626461931
 30
0.0
 42
0.4142135623732061
  0
VERTEX
  5
2454
  8
SAPA_PROFIL
 10
-34.200000000001701
 20
-23.499999626461879
 30
0.0
  0
VERTEX
  5
2455
  8
SAPA_PROFIL
 10
-30.300000000001951
 20
-23.499999626461879
 30
0.0
 42
0.4142135623732061
  0
VERTEX
  5
2456
  8
SAPA_PROFIL
 10
-30.000000000001879
 20
-23.199999626461931
 30
0.0
  0
VERTEX
  5
2457
  8
SAPA_PROFIL
 10
-30.000000000001769
 20
-16.699999626461981
 30
0.0
 42
0.4142135623730951
  0
VERTEX
  5
2458
  8
SAPA_PROFIL
 10
-30.500000000001769
 20
-16.199999626461981
 30
0.0
  0
VERTEX
  5
2459
  8
SAPA_PROFIL
 10
-34.20000000000158
 20
-16.19999962646186
 30
0.0
 42
0.4142135623733172
  0
VERTEX
  5
245A
  8
SAPA_PROFIL
 10
-34.500000000001762
 20
-16.499999626462049
 30
0.0
  0
VERTEX
  5
245B
  8
SAPA_PROFIL
 10
-34.500000000001542
 20
-18.39999962646197
 30
0.0
 42
-0.7105995015650612
  0
VERTEX
  5
245C
  8
SAPA_PROFIL
 10
-35.035076580436403
 20
-18.586383642222799
 30
0.0
  0
VERTEX
  5
245D
  8
SAPA_PROFIL
 10
-35.283588601450852
 20
-18.272948201643249
 30
0.0
 42
-0.1691807452125303
  0
VERTEX
  5
245E
  8
SAPA_PROFIL
 10
-35.500000000001769
 20
-17.651668149107241
 30
0.0
  0
VERTEX
  5
245F
  8
SAPA_PROFIL
 10
-35.500000000001769
 20
-11.29999962646194
 30
0.0
 42
-0.4142135623728731
  0
VERTEX
  5
2460
  8
SAPA_PROFIL
 10
-35.200000000001808
 20
-10.999999626461991
 30
0.0
  0
VERTEX
  5
2461
  8
SAPA_PROFIL
 10
-34.500000000001542
 20
-10.99999962646222
 30
0.0
 42
-0.4142135623730951
  0
VERTEX
  5
2462
  8
SAPA_PROFIL
 10
-34.20000000000158
 20
-11.299999626462171
 30
0.0
  0
VERTEX
  5
2463
  8
SAPA_PROFIL
 10
-34.20000000000158
 20
-14.19999962646175
 30
0.0
 42
0.4142135623730951
  0
VERTEX
  5
2464
  8
SAPA_PROFIL
 10
-33.70000000000158
 20
-14.69999962646175
 30
0.0
  0
VERTEX
  5
2465
  8
SAPA_PROFIL
 10
-30.500000000001769
 20
-14.699999626461979
 30
0.0
 42
0.4142135623731617
  0
VERTEX
  5
2466
  8
SAPA_PROFIL
 10
-30.000000000001759
 20
-14.199999626461979
 30
0.0
  0
VERTEX
  5
2467
  8
SAPA_PROFIL
 10
-30.00000000000199
 20
-5.9999996264625599
 30
0.0
 42
0.4142135623730951
  0
VERTEX
  5
2468
  8
SAPA_PROFIL
 10
-31.00000000000199
 20
-4.9999996264625599
 30
0.0
  0
VERTEX
  5
2469
  8
SAPA_PROFIL
 10
-52.199999999011879
 20
-4.9999996264623263
 30
0.0
 42
-0.4142135623730951
  0
VERTEX
  5
246A
  8
SAPA_PROFIL
 10
-52.499999999011891
 20
-4.6999996264623141
 30
0.0
  0
VERTEX
  5
246B
  8
SAPA_PROFIL
 10
-52.499999999011827
 20
-3.075010156175594
 30
0.0
  0
VERTEX
  5
246C
  8
SAPA_PROFIL
 10
-51.535790539647849
 20
-2.2144747773913158
 30
0.0
 42
-0.6264792893017398
  0
VERTEX
  5
246D
  8
SAPA_PROFIL
 10
-51.049999999012421
 20
-2.4500206858893838
 30
0.0
  0
VERTEX
  5
246E
  8
SAPA_PROFIL
 10
-51.049999999012179
 20
-2.6999996264623141
 30
0.0
  0
VERTEX
  5
246F
  8
SAPA_PROFIL
 10
-49.673765403337882
 20
-2.176719322210189
 30
0.0
 42
-0.5450207774090681
  0
VERTEX
  5
2470
  8
SAPA_PROFIL
 10
-49.249999999012353
 20
-2.4499996264623141
 30
0.0
  0
VERTEX
  5
2471
  8
SAPA_PROFIL
 10
-49.249999999012232
 20
-2.6999996264622581
 30
0.0
  0
VERTEX
  5
2472
  8
SAPA_PROFIL
 10
-47.87376540333792
 20
-2.1767193222103032
 30
0.0
 42
-0.545020777409516
  0
VERTEX
  5
2473
  8
SAPA_PROFIL
 10
-47.44999999901227
 20
-2.4499996264623141
 30
0.0
  0
VERTEX
  5
2474
  8
SAPA_PROFIL
 10
-47.44999999901227
 20
-2.6999996264622581
 30
0.0
  0
VERTEX
  5
2475
  8
SAPA_PROFIL
 10
-46.073765403337617
 20
-2.176719322210189
 30
0.0
 42
-0.5450207774091295
  0
VERTEX
  5
2476
  8
SAPA_PROFIL
 10
-45.64999999901238
 20
-2.4499996264623141
 30
0.0
  0
VERTEX
  5
2477
  8
SAPA_PROFIL
 10
-45.649999999012323
 20
-2.6999996264622581
 30
0.0
  0
VERTEX
  5
2478
  8
SAPA_PROFIL
 10
-44.273765403337791
 20
-2.1767193222103032
 30
0.0
 42
-0.545020777409516
  0
VERTEX
  5
2479
  8
SAPA_PROFIL
 10
-43.849999999012127
 20
-2.4499996264623141
 30
0.0
  0
VERTEX
  5
247A
  8
SAPA_PROFIL
 10
-43.849999999012127
 20
-2.6999996264622581
 30
0.0
  0
VERTEX
  5
247B
  8
SAPA_PROFIL
 10
-43.182570825615642
 20
-2.4460464742920029
 30
0.0
 42
0.3492695052203141
  0
VERTEX
  5
247C
  8
SAPA_PROFIL
 10
-42.949999999012221
 20
-2.153722498923841
 30
0.0
  0
VERTEX
  5
247D
  8
SAPA_PROFIL
 10
-42.949999999012221
 20
-1.2649106905293901
 30
0.0
 42
-0.3475404855924057
  0
VERTEX
  5
247E
  8
SAPA_PROFIL
 10
-42.71923076824293
 20
-0.9730081372830312
 30
0.0
 42
0.7905694150422074
  0
VERTEX
  5
247F
  8
SAPA_PROFIL
 10
-42.719230768243101
 20
0.9730088843599666
 30
0.0
 42
-0.3475404855923888
  0
VERTEX
  5
2480
  8
SAPA_PROFIL
 10
-42.949999999012221
 20
1.2649114376071779
 30
0.0
  0
VERTEX
  5
2481
  8
SAPA_PROFIL
 10
-42.9499999990121
 20
1.876720069285692
 30
0.0
 42
0.4142135623730951
  0
VERTEX
  5
2482
  8
SAPA_PROFIL
 10
-43.249999999012111
 20
2.1767200692857029
 30
0.0
  0
VERTEX
  5
2483
  8
SAPA_PROFIL
 10
-43.3737654033377
 20
2.1767200692856461
 30
0.0
  0
VERTEX
  5
2484
  8
SAPA_PROFIL
 10
-44.749999999012232
 20
2.7000003735378288
 30
0.0
  0
VERTEX
  5
2485
  8
SAPA_PROFIL
 10
-44.749999999012452
 20
2.4500003735376579
 30
0.0
 42
-0.5450207774088696
  0
VERTEX
  5
2486
  8
SAPA_PROFIL
 10
-45.173765403337647
 20
2.1767200692855901
 30
0.0
  0
VERTEX
  5
2487
  8
SAPA_PROFIL
 10
-46.549999999012179
 20
2.7000003735378288
 30
0.0
  0
VERTEX
  5
2488
  8
SAPA_PROFIL
 10
-46.549999999012407
 20
2.4500003735376579
 30
0.0
 42
-0.5450207774091855
  0
VERTEX
  5
2489
  8
SAPA_PROFIL
 10
-46.973765403337772
 20
2.1767200692855329
 30
0.0
  0
VERTEX
  5
248A
  8
SAPA_PROFIL
 10
-48.349999999012141
 20
2.7000003735378288
 30
0.0
  0
VERTEX
  5
248B
  8
SAPA_PROFIL
 10
-48.349999999012141
 20
2.4500003735376579
 30
0.0
 42
-0.5450207774093374
  0
VERTEX
  5
248C
  8
SAPA_PROFIL
 10
-48.773765403337741
 20
2.1767200692857598
 30
0.0
  0
VERTEX
  5
248D
  8
SAPA_PROFIL
 10
-50.149999999012323
 20
2.7000003735378288
 30
0.0
  0
VERTEX
  5
248E
  8
SAPA_PROFIL
 10
-50.149999999011918
 20
2.149979314110634
 30
0.0
  0
VERTEX
  5
248F
  8
SAPA_PROFIL
 10
-51.347075010161461
 20
2.1499793141105812
 30
0.0
 42
-0.1681572645226206
  0
VERTEX
  5
2490
  8
SAPA_PROFIL
 10
-51.532521788160693
 20
2.2141626638721301
 30
0.0
  0
VERTEX
  5
2491
  8
SAPA_PROFIL
 10
-52.49999999901177
 20
3.0749898438243828
 30
0.0
  0
VERTEX
  5
2492
  8
SAPA_PROFIL
 10
-52.499999999011827
 20
4.7000003735403331
 30
0.0
 42
-0.4142135623730951
  0
VERTEX
  5
2493
  8
SAPA_PROFIL
 10
-52.199999999011823
 20
5.0000003735403453
 30
0.0
  0
VERTEX
  5
2494
  8
SAPA_PROFIL
 10
-31.000000000001869
 20
5.0000003735401668
 30
0.0
 42
0.4142135623730951
  0
VERTEX
  5
2495
  8
SAPA_PROFIL
 10
-30.000000000001869
 20
6.0000003735401668
 30
0.0
  0
VERTEX
  5
2496
  8
SAPA_PROFIL
 10
-30.000000000001759
 20
14.200000373538559
 30
0.0
 42
0.4142135623730951
  0
VERTEX
  5
2497
  8
SAPA_PROFIL
 10
-30.500000000001759
 20
14.700000373538559
 30
0.0
  0
VERTEX
  5
2498
  8
SAPA_PROFIL
 10
-33.700000000001808
 20
14.70000037353857
 30
0.0
 42
0.4142135623730951
  0
VERTEX
  5
2499
  8
SAPA_PROFIL
 10
-34.200000000001808
 20
14.20000037353857
 30
0.0
  0
VERTEX
  5
249A
  8
SAPA_PROFIL
 10
-34.20000000000158
 20
11.30000037353865
 30
0.0
 42
-0.4142135623730951
  0
VERTEX
  5
249B
  8
SAPA_PROFIL
 10
-34.500000000001542
 20
11.00000037353869
 30
0.0
  0
VERTEX
  5
249C
  8
SAPA_PROFIL
 10
-35.200000000001701
 20
11.00000037353858
 30
0.0
 42
-0.4142135623730951
  0
VERTEX
  5
249D
  8
SAPA_PROFIL
 10
-35.500000000001769
 20
11.30000037353842
 30
0.0
  0
VERTEX
  5
249E
  8
SAPA_PROFIL
 10
-35.500000000001648
 20
17.651668896183711
 30
0.0
 42
-0.1691807452124953
  0
VERTEX
  5
249F
  8
SAPA_PROFIL
 10
-35.283588601450788
 20
18.272948948719609
 30
0.0
  0
VERTEX
  5
24A0
  8
SAPA_PROFIL
 10
-35.035076580436403
 20
18.586384389299269
 30
0.0
 42
-0.7105995015650612
  0
VERTEX
  5
24A1
  8
SAPA_PROFIL
 10
-34.500000000001542
 20
18.40000037353844
 30
0.0
  0
VERTEX
  5
24A2
  8
SAPA_PROFIL
 10
-34.500000000001762
 20
16.500000373538629
 30
0.0
 42
0.4142135623732061
  0
VERTEX
  5
24A3
  8
SAPA_PROFIL
 10
-34.20000000000158
 20
16.200000373538561
 30
0.0
  0
VERTEX
  5
24A4
  8
SAPA_PROFIL
 10
-30.500000000001759
 20
16.200000373538678
 30
0.0
 42
0.4142135623730951
  0
SEQEND
  5
24A5
  8
SAPA_PROFIL
  0
LINE
  5
1CEE
  8
SAPA_PROFIL
 62
     0
 10
41.387268607697017
 20
26.696374173179471
 30
0.0
 11
40.903121456642282
 21
27.180521324234231
 31
0.0
  0
LINE
  5
1CEF
  8
SAPA_PROFIL
 62
     0
 10
41.306491262576337
 20
25.009384565333821
 30
0.0
 11
39.135354503675899
 21
27.180521324234231
 31
0.0
  0
LINE
  5
1CF0
  8
SAPA_PROFIL
 62
     0
 10
39.538724309609961
 20
25.009384565333821
 30
0.0
 11
37.367587550709523
 21
27.180521324234231
 31
0.0
  0
LINE
  5
1CF1
  8
SAPA_PROFIL
 62
     0
 10
37.770957356643578
 20
25.009384565333821
 30
0.0
 11
35.599820597743189
 21
27.180521324234231
 31
0.0
  0
LINE
  5
1CF2
  8
SAPA_PROFIL
 62
     0
 10
36.003190403677202
 20
25.009384565333821
 30
0.0
 11
33.832053644776813
 21
27.180521324234231
 31
0.0
  0
LINE
  5
1CF3
  8
SAPA_PROFIL
 62
     0
 10
27.1643556388454
 20
25.009384565333821
 30
0.0
 11
26.430548713049749
 21
25.743191491129469
 31
0.0
  0
LINE
  5
1CF4
  8
SAPA_PROFIL
 62
     0
 10
28.932122591811719
 20
25.009384565333821
 30
0.0
 11
26.760985832911331
 21
27.180521324234231
 31
0.0
  0
LINE
  5
1CF5
  8
SAPA_PROFIL
 62
     0
 10
30.699889544778099
 20
25.009384565333821
 30
0.0
 11
28.528752785877721
 21
27.180521324234231
 31
0.0
  0
LINE
  5
1CF6
  8
SAPA_PROFIL
 62
     0
 10
32.467656497744493
 20
25.009384565333821
 30
0.0
 11
30.29651973884404
 21
27.180521324234231
 31
0.0
  0
LINE
  5
1CF7
  8
SAPA_PROFIL
 62
     0
 10
34.235423450710869
 20
25.009384565333821
 30
0.0
 11
32.064286691810423
 21
27.180521324234231
 31
0.0
  0
LINE
  5
1CF8
  8
SAPA_PROFIL
 62
     0
 10
40.15820598116926
 20
25.009384565333821
 30
0.0
 11
41.387268607697017
 21
26.238447191861638
 31
0.0
  0
LINE
  5
1CF9
  8
SAPA_PROFIL
 62
     0
 10
38.390439028202877
 20
25.009384565333821
 30
0.0
 11
40.561575787103322
 21
27.180521324234231
 31
0.0
  0
LINE
  5
1CFA
  8
SAPA_PROFIL
 62
     0
 10
36.622672075236501
 20
25.009384565333821
 30
0.0
 11
38.793808834136939
 21
27.180521324234231
 31
0.0
  0
LINE
  5
1CFB
  8
SAPA_PROFIL
 62
     0
 10
34.854905122270168
 20
25.009384565333821
 30
0.0
 11
37.026041881170563
 21
27.180521324234231
 31
0.0
  0
LINE
  5
1CFC
  8
SAPA_PROFIL
 62
     0
 10
33.087138169303778
 20
25.009384565333821
 30
0.0
 11
35.258274928204173
 21
27.180521324234231
 31
0.0
  0
LINE
  5
1CFD
  8
SAPA_PROFIL
 62
     0
 10
26.430548713049749
 20
25.42386292094529
 30
0.0
 11
28.187207116338701
 21
27.180521324234231
 31
0.0
  0
LINE
  5
1CFE
  8
SAPA_PROFIL
 62
     0
 10
27.783837310404689
 20
25.009384565333821
 30
0.0
 11
29.954974069305081
 21
27.180521324234231
 31
0.0
  0
LINE
  5
1CFF
  8
SAPA_PROFIL
 62
     0
 10
29.551604263371019
 20
25.009384565333821
 30
0.0
 11
31.722741022271471
 21
27.180521324234231
 31
0.0
  0
LINE
  5
1D00
  8
SAPA_PROFIL
 62
     0
 10
31.319371216337402
 20
25.009384565333821
 30
0.0
 11
33.490507975237847
 21
27.180521324234231
 31
0.0
  0
LINE
  5
1D01
  8
SAPA_PROFIL
 62
     0
 10
42.368339987301567
 20
41.101220568616611
 30
0.0
 11
41.100466111176672
 21
42.369094444741563
 31
0.0
  0
LINE
  5
1D02
  8
SAPA_PROFIL
 62
     0
 10
42.368339987301567
 20
39.333453615650228
 30
0.0
 11
41.017410448430212
 21
40.684383154521583
 31
0.0
  0
LINE
  5
1D03
  8
SAPA_PROFIL
 62
     0
 10
42.368339987301567
 20
37.565686662683902
 30
0.0
 11
41.017410448430212
 21
38.916616201555257
 31
0.0
  0
LINE
  5
1D04
  8
SAPA_PROFIL
 62
     0
 10
42.368339987301567
 20
35.797919709717519
 30
0.0
 11
41.017410448430212
 21
37.148849248588881
 31
0.0
  0
LINE
  5
1D05
  8
SAPA_PROFIL
 62
     0
 10
41.814302157073307
 20
29.280889728080329
 30
0.0
 11
41.017410448430212
 21
30.077781436723399
 31
0.0
  0
LINE
  5
1D06
  8
SAPA_PROFIL
 62
     0
 10
42.368339987301567
 20
30.494618850818402
 30
0.0
 11
41.017410448430212
 21
31.84554838968975
 31
0.0
  0
LINE
  5
1D07
  8
SAPA_PROFIL
 62
     0
 10
42.368339987301567
 20
32.262385803784781
 30
0.0
 11
41.017410448430212
 21
33.613315342656144
 31
0.0
  0
LINE
  5
1D08
  8
SAPA_PROFIL
 62
     0
 10
42.368339987301567
 20
34.030152756751143
 30
0.0
 11
41.017410448430212
 21
35.381082295622491
 31
0.0
  0
LINE
  5
1D09
  8
SAPA_PROFIL
 62
     0
 10
41.017410448430212
 20
29.812844389529861
 30
0.0
 11
42.368339987301567
 21
31.163773928401191
 31
0.0
  0
LINE
  5
1D0A
  8
SAPA_PROFIL
 62
     0
 10
41.017410448430212
 20
31.580611342496208
 30
0.0
 11
42.368339987301567
 21
32.931540881367567
 31
0.0
  0
LINE
  5
1D0B
  8
SAPA_PROFIL
 62
     0
 10
41.017410448430212
 20
33.348378295462588
 30
0.0
 11
42.368339987301567
 21
34.699307834333929
 31
0.0
  0
LINE
  5
1D0C
  8
SAPA_PROFIL
 62
     0
 10
41.017410448430212
 20
42.187213060294432
 30
0.0
 11
41.19929183287735
 21
42.369094444741563
 31
0.0
  0
LINE
  5
1D0D
  8
SAPA_PROFIL
 62
     0
 10
41.017410448430212
 20
40.419446107328042
 30
0.0
 11
42.368339987301567
 21
41.77037564619939
 31
0.0
  0
LINE
  5
1D0E
  8
SAPA_PROFIL
 62
     0
 10
41.017410448430212
 20
38.651679154361723
 30
0.0
 11
42.368339987301567
 21
40.002608693233007
 31
0.0
  0
LINE
  5
1D0F
  8
SAPA_PROFIL
 62
     0
 10
41.017410448430212
 20
36.883912201395333
 30
0.0
 11
42.368339987301567
 21
38.234841740266688
 31
0.0
  0
LINE
  5
1D10
  8
SAPA_PROFIL
 62
     0
 10
41.017410448430212
 20
35.11614524842895
 30
0.0
 11
42.368339987301567
 21
36.467074787300312
 31
0.0
  0
LINE
  5
1D11
  8
SAPA_PROFIL
 10
31.199999999996049
 20
28.700000373538259
 30
0.0
 11
31.199999999996049
 21
60.957152116740858
 31
0.0
  0
LINE
  5
1D12
  8
SAPA_PROFIL
 10
30.44179137479555
 20
28.75763204886492
 30
0.0
 11
30.441791374795489
 21
60.957152116740858
 31
0.0
  0
LINE
  5
1D13
  8
SAPA_PROFIL
 10
29.741791374795511
 20
28.75763204886492
 30
0.0
 11
29.741791374795451
 21
60.957152116740858
 31
0.0
  0
LINE
  5
1D14
  8
SAPA_PROFIL
 10
40.975438248466368
 20
28.82269299792198
 30
0.0
 11
40.975438248466418
 21
60.957152116740907
 31
0.0
  0
POLYLINE
  5
1D40
  8
SAPA_GLAS
 66
     1
 10
0.0
 20
0.0
 30
0.0
  0
VERTEX
  5
24B5
  8
SAPA_GLAS
 10
80.899999999996453
 20
-89.799999626462139
 30
0.0
  0
VERTEX
  5
24B6
  8
SAPA_GLAS
 10
80.899999999996453
 20
-60.999999626462362
 30
0.0
  0
VERTEX
  5
24B7
  8
SAPA_GLAS
 10
86.899999999996453
 20
-60.999999626462362
 30
0.0
  0
VERTEX
  5
24B8
  8
SAPA_GLAS
 10
86.899999999996226
 20
-89.799999626462139
 30
0.0
  0
SEQEND
  5
24B9
  8
SAPA_GLAS
  0
POLYLINE
  5
1D41
  8
SAPA_GLAS
 66
     1
 10
0.0
 20
0.0
 30
0.0
 70
     1
  0
VERTEX
  5
24BA
  8
SAPA_GLAS
 10
68.899999999996453
 20
-70.999999626462468
 30
0.0
  0
VERTEX
  5
24BB
  8
SAPA_GLAS
 10
80.899999999996453
 20
-70.999999626462468
 30
0.0
  0
VERTEX
  5
24BC
  8
SAPA_GLAS
 10
80.899999999996453
 20
-60.999999626462362
 30
0.0
  0
VERTEX
  5
24BD
  8
SAPA_GLAS
 10
68.899999999996453
 20
-60.999999626462362
 30
0.0
  0
SEQEND
  5
24BE
  8
SAPA_GLAS
  0
POLYLINE
  5
1D42
  8
SAPA_GLAS
 66
     1
 10
0.0
 20
0.0
 30
0.0
  0
VERTEX
  5
24BF
  8
SAPA_GLAS
 10
62.899999999996439
 20
-89.799999626462125
 30
0.0
  0
VERTEX
  5
24C0
  8
SAPA_GLAS
 10
62.899999999996453
 20
-60.999999626462348
 30
0.0
  0
VERTEX
  5
24C1
  8
SAPA_GLAS
 10
68.899999999996453
 20
-60.999999626462362
 30
0.0
  0
VERTEX
  5
24C2
  8
SAPA_GLAS
 10
68.899999999996453
 20
-89.799999626462139
 30
0.0
  0
SEQEND
  5
24C3
  8
SAPA_GLAS
  0
INSERT
  5
1D4C
  8
SAPA_ISOLATOR
  6
CONTINUOUS
  2
*X109
 10
0.0
 20
0.0
 30
0.0
1001
ACAD
1000
HATCH
1002
{
1070
    19
1000
ANSI31
1040
0.35
1040
5.4977871437821371
1000
R14_HATCH_DATA
1000
1D4C
1011
1.0
1021
0.0
1031
0.0
1021
0.0
1031
0.0
1011
0.0
1021
0.0
1031
0.0
1021
1.0
1031
0.0
1011
0.0
1021
0.0
1031
0.0
1021
0.0
1031
1.0
1040
0.0
1010
0.0
1020
0.0
1030
1.0
1000
ANSI31
1070
     0
1070
     0
1071
        1
1071
        1
1071
       49
1070
     2
1040
-64.463742496360354
1040
-22.327435054190399
1040
0.3006817060114675
1040
-1.5657379063807291
1040
-0.3498199254894492
1070
     0
1070
     1
1040
-64.181271744820549
1040
-22.224382820568319
1040
-63.295794031949349
1040
-24.65721284211234
1070
     2
1040
-62.919916983633222
1040
-24.520404784779529
1040
0.400000000002539
1040
3.490658503993135
1040
4.7123889803853398
1070
     1
1070
     1
1040
-62.919916983632959
1040
-24.920404784782072
1040
-52.499999998918831
1040
-24.920404784782029
1070
     1
1040
-52.499999998918831
1040
-24.920404784782029
1040
-42.080083014200738
1040
-24.920404784781969
1070
     2
1040
-42.080083014202494
1040
-24.520404784782318
1040
0.3999999999996488
1040
4.7123889803890684
1040
5.9341194567812998
1070
     1
1070
     1
1040
-41.70420596588837
1040
-24.657212842112251
1040
-40.818728253020197
1040
-22.224382820576562
1070
     2
1040
-40.53636568087277
1040
-22.327281263520302
1040
0.3005273892841634
1040
3.4910552070390422
1040
4.7076879318700922
1070
     0
1070
     2
1040
-40.308189705934488
1040
-27.587400270045229
1040
5.5653807064749881
1040
4.6711242502471872
1040
4.7342885622872561
1070
     0
1070
     1
1040
-40.186319937167163
1040
-22.02335406539661
1040
-39.946136872384869
1040
-21.88468430829009
1070
     2
1040
-39.841136872385157
1040
-22.06654964308499
1040
0.2100000000000017
1040
4.188790204787975
1040
6.2831853071790738
1070
     0
1070
     1
1040
-39.631136872385163
1040
-22.06654964308488
1040
-39.631136872385042
1040
-22.333664171297791
1070
     1
1040
-39.631136872385042
1040
-22.333664171297791
1040
-39.29999999891885
1040
-22.529886237082088
1070
     1
1040
-39.29999999891885
1040
-22.529886237082088
1040
-38.316679860938329
1040
-23.09753040057954
1070
     2
1040
-38.211679860940073
1040
-22.915665065785991
1040
0.209999999998109
1040
4.1887902047907026
1040
4.7123889803873293
1070
     1
1070
     1
1040
-38.211679860939512
1040
-23.125665065784101
1040
-37.89999999891694
1040
-23.125665065784212
1070
     2
1040
-37.899999998915028
1040
-22.725665065788078
1040
0.3999999999961332
1040
4.7123889803799113
1040
6.2831853071900472
1070
     1
1070
     1
1040
-37.499999998918902
1040
-22.72566506578389
1040
-37.499999998918838
1040
-19.32566506578414
1070
     2
1040
-37.899999998915902
1040
-19.32566506578123
1040
0.3999999999970676
1040
6.2831853071723121
1040
7.8539816339818991
1070
     1
1070
     1
1040
-37.899999998918872
1040
-18.925665065784159
1040
-38.211679860942517
1040
-18.925665065784159
1070
     2
1040
-38.211679860940869
1040
-19.135665065779111
1040
0.2099999999949489
1040
1.57079632680278
1040
2.0943951023994072
1070
     1
1070
     1
1040
-38.316679860939473
1040
-18.95379973098941
1040
-39.29999999891885
1040
-19.521519877351441
1070
     1
1040
-39.29999999891885
1040
-19.521519877351441
1040
-39.894744110589727
1040
-19.86489555032356
1070
     2
1040
-40.494744110595832
1040
-18.825665065773169
1040
1.2000000000109059
1040
1.047197551195963
1040
1.5707963267926159
1070
     0
1070
     1
1040
-40.494744110593103
1040
-20.025665065784072
1040
-41.446608443479533
1040
-20.025665065783851
1070
     2
1040
-41.446608443470517
1040
-21.025665065776099
1040
0.9999999999922533
1040
1.570796326803906
1040
2.7925268031964121
1070
     1
1070
     1
1040
-42.386301064251029
1040
-20.683644922458232
1040
-43.177415089160881
1040
-22.857212842111931
1070
     2
1040
-43.553292137476362
1040
-22.720404784780659
1040
0.4000000000013905
1040
0.3490658504002764
1040
1.5707963267925069
1070
     0
1070
     1
1040
-43.553292137475403
1040
-23.12040478478205
1040
-52.499999998918831
1040
-23.12040478478205
1070
     1
1040
-52.499999998918831
1040
-23.12040478478205
1040
-61.446707860362331
1040
-23.12040478478211
1070
     2
1040
-61.446707860363318
1040
-22.720404784783529
1040
0.3999999999985775
1040
1.570796326792411
1040
2.7925268031846149
1070
     0
1070
     1
1040
-61.822584908675481
1040
-22.85721284211569
1040
-62.613698933586591
1040
-20.68364492245847
1070
     2
1040
-63.553391554381747
1040
-21.025665065797352
1040
1.000000000013211
1040
6.632251157587703
1040
7.853981633979922
1070
     1
1070
     1
1040
-63.55339155438719
1040
-20.025665065784139
1040
-64.505255887244687
1040
-20.025665065784139
1070
     2
1040
-64.505255887247685
1040
-18.825665065795111
1040
1.1999999999890261
1040
1.570796326792401
1040
2.094395102389051
1070
     0
1070
     1
1040
-65.105255887237888
1040
-19.864895550329418
1040
-65.692820321946385
1040
-19.525665065784189
1070
     1
1040
-65.692820321946385
1040
-19.525665065784189
1040
-66.683320136898317
1040
-18.95379973098947
1070
     2
1040
-66.788320136899983
1040
-19.135665065790612
1040
0.2100000000063851
1040
7.3303828583845627
1040
7.8539816339812401
1070
     1
1070
     1
1040
-66.788320136901405
1040
-18.92566506578423
1040
-67.099999998918904
1040
-18.92566506578417
1070
     2
1040
-67.099999998915948
1040
-19.325665065787121
1040
0.40000000000295
1040
1.5707963268023291
1040
3.141592653592308
1070
     1
1070
     1
1040
-67.499999998918895
1040
-19.325665065788129
1040
-67.499999998918895
1040
-22.725665065784192
1070
     2
1040
-67.099999998916914
1040
-22.725665065782181
1040
0.4000000000019782
1040
3.1415926535947949
1040
4.7123889803848034
1070
     1
1070
     1
1040
-67.099999998916871
1040
-23.125665065784158
1040
-66.788320136898221
1040
-23.125665065784158
1070
     2
1040
-66.78832013689869
1040
-22.91566506578226
1040
0.2100000000019078
1040
4.7123889803869421
1040
5.2359877559835688
1070
     1
1070
     1
1040
-66.683320136897635
1040
-23.097530400578581
1040
-65.368863125452634
1040
-22.333664171297801
1070
     1
1040
-65.368863125452634
1040
-22.333664171297801
1040
-65.368863125452521
1040
-22.06654964308488
1070
     2
1040
-65.158863125452513
1040
-22.06654964308499
1040
0.2100000000000017
1040
3.1415926535902998
1040
5.235987755981399
1070
     0
1070
     1
1040
-65.053863125452807
1040
-21.88468430829009
1040
-64.813680060670507
1040
-22.023354065396621
1070
     2
1040
-64.691810291900111
1040
-27.58740026948773
1040
5.5653807059176952
1040
4.6904893984793761
1040
4.7536537105194441
1070
     0
1071
        0
1070
     0
1070
     1
1040
5.4977871437821371
1040
0.35
1070
     0
1070
     1
1040
0.0
1040
0.0
1040
0.0
1040
0.0000000000000003
1040
1.111249999999999
1070
     0
1071
        1
1040
-67.50000014973466
1040
-24.920404977802249
1040
0.0
1002
}
  0
INSERT
  5
1D4D
  8
SAPA_ISOLATOR
  6
CONTINUOUS
  2
*X110
 10
0.0
 20
0.0
 30
0.0
1001
ACAD
1000
HATCH
1002
{
1070
    19
1000
ANSI31
1040
0.35
1040
3.926990816987241
1000
R14_HATCH_DATA
1000
1D4D
1011
1.0
1021
0.0
1031
0.0
1021
0.0
1031
0.0
1011
0.0
1021
0.0
1031
0.0
1021
1.0
1031
0.0
1011
0.0
1021
0.0
1031
0.0
1021
0.0
1031
1.0
1040
0.0
1010
0.0
1020
0.0
1030
1.0
1000
ANSI31
1070
     0
1070
     0
1071
        1
1071
        1
1071
       49
1070
     2
1040
-64.463742496360354
1040
-7.6725649458037211
1040
0.3006817060114675
1040
-1.5657379063807291
1040
-0.3498199254894492
1070
     1
1070
     1
1040
-64.181271744820549
1040
-7.7756171794257929
1040
-63.295794031949349
1040
-5.3427871578817721
1070
     2
1040
-62.919916983633222
1040
-5.4795952152145908
1040
0.400000000002539
1040
3.490658503993135
1040
4.7123889803853398
1070
     0
1070
     1
1040
-62.919916983632959
1040
-5.079595215212052
1040
-52.499999998918831
1040
-5.0795952152120831
1070
     1
1040
-52.499999998918831
1040
-5.0795952152120831
1040
-42.080083014200738
1040
-5.0795952152121417
1070
     2
1040
-42.080083014202494
1040
-5.4795952152117922
1040
0.3999999999996488
1040
4.7123889803890684
1040
5.9341194567812998
1070
     0
1070
     1
1040
-41.70420596588837
1040
-5.3427871578818618
1040
-40.818728253020197
1040
-7.7756171794175559
1070
     2
1040
-40.53636568087277
1040
-7.6727187364738159
1040
0.3005273892841634
1040
3.4910552070390422
1040
4.7076879318700922
1070
     1
1070
     2
1040
-40.308189705934488
1040
-2.4125997299488922
1040
5.5653807064749881
1040
4.6711242502471872
1040
4.7342885622872561
1070
     1
1070
     1
1040
-40.186319937167163
1040
-7.9766459345975056
1040
-39.946136872384869
1040
-8.1153156917040299
1070
     2
1040
-39.841136872385157
1040
-7.9334503569091304
1040
0.2100000000000017
1040
4.188790204787975
1040
6.2831853071790738
1070
     1
1070
     1
1040
-39.631136872385163
1040
-7.9334503569092378
1040
-39.631136872385042
1040
-7.6663358286963241
1070
     1
1040
-39.631136872385042
1040
-7.6663358286963241
1040
-39.29999999891885
1040
-7.4701137629120256
1070
     1
1040
-39.29999999891885
1040
-7.4701137629120256
1040
-38.316679860938329
1040
-6.9024695994145784
1070
     2
1040
-38.211679860940073
1040
-7.0843349342081243
1040
0.209999999998109
1040
4.1887902047907026
1040
4.7123889803873293
1070
     0
1070
     1
1040
-38.211679860939512
1040
-6.8743349342100171
1040
-37.89999999891694
1040
-6.8743349342099052
1070
     2
1040
-37.899999998915028
1040
-7.2743349342060357
1040
0.3999999999961332
1040
4.7123889803799113
1040
6.2831853071900472
1070
     0
1070
     1
1040
-37.499999998918902
1040
-7.2743349342102208
1040
-37.499999998918838
1040
-10.67433493420997
1070
     2
1040
-37.899999998915902
1040
-10.674334934212879
1040
0.3999999999970676
1040
6.2831853071723121
1040
7.8539816339818991
1070
     0
1070
     1
1040
-37.899999998918872
1040
-11.074334934209951
1040
-38.211679860942517
1040
-11.074334934209951
1070
     2
1040
-38.211679860940869
1040
-10.864334934215
1040
0.2099999999949489
1040
1.57079632680278
1040
2.0943951023994072
1070
     0
1070
     1
1040
-38.316679860939473
1040
-11.0462002690047
1040
-39.29999999891885
1040
-10.47848012264267
1070
     1
1040
-39.29999999891885
1040
-10.47848012264267
1040
-39.894744110589727
1040
-10.13510444967055
1070
     2
1040
-40.494744110595832
1040
-11.174334934220941
1040
1.2000000000109059
1040
1.047197551195963
1040
1.5707963267926159
1070
     1
1070
     1
1040
-40.494744110593103
1040
-9.9743349342100398
1040
-41.446608443479533
1040
-9.9743349342102672
1070
     2
1040
-41.446608443470517
1040
-8.9743349342180156
1040
0.9999999999922533
1040
1.570796326803906
1040
2.7925268031964121
1070
     0
1070
     1
1040
-42.386301064251029
1040
-9.3163550775358779
1040
-43.177415089160881
1040
-7.1427871578821858
1070
     2
1040
-43.553292137476362
1040
-7.2795952152134591
1040
0.4000000000013905
1040
0.3490658504002764
1040
1.5707963267925069
1070
     1
1070
     1
1040
-43.553292137475403
1040
-6.879595215212067
1040
-52.499999998918831
1040
-6.8795952152120643
1070
     1
1040
-52.499999998918831
1040
-6.8795952152120661
1040
-61.446707860362331
1040
-6.8795952152120066
1070
     2
1040
-61.446707860363318
1040
-7.2795952152105849
1040
0.3999999999985775
1040
1.570796326792411
1040
2.7925268031846149
1070
     1
1070
     1
1040
-61.822584908675481
1040
-7.1427871578784314
1040
-62.613698933586591
1040
-9.3163550775356452
1070
     2
1040
-63.553391554381747
1040
-8.9743349341967686
1040
1.000000000013211
1040
6.632251157587703
1040
7.853981633979922
1070
     0
1070
     1
1040
-63.55339155438719
1040
-9.9743349342099776
1040
-64.505255887244687
1040
-9.9743349342099776
1070
     2
1040
-64.505255887247685
1040
-11.174334934199001
1040
1.1999999999890261
1040
1.570796326792401
1040
2.094395102389051
1070
     1
1070
     1
1040
-65.105255887237888
1040
-10.13510444966469
1040
-65.692820321946385
1040
-10.474334934209921
1070
     1
1040
-65.692820321946385
1040
-10.474334934209921
1040
-66.683320136898317
1040
-11.04620026900464
1070
     2
1040
-66.788320136899983
1040
-10.8643349342035
1040
0.2100000000063851
1040
7.3303828583845627
1040
7.8539816339812401
1070
     0
1070
     1
1040
-66.788320136901405
1040
-11.07433493420988
1040
-67.099999998918904
1040
-11.07433493420994
1070
     2
1040
-67.099999998915948
1040
-10.674334934206991
1040
0.40000000000295
1040
1.5707963268023291
1040
3.141592653592308
1070
     0
1070
     1
1040
-67.499999998918895
1040
-10.67433493420598
1040
-67.499999998918895
1040
-7.2743349342099322
1070
     2
1040
-67.099999998916914
1040
-7.2743349342119323
1040
0.4000000000019782
1040
3.1415926535947949
1040
4.7123889803848034
1070
     0
1070
     1
1040
-67.099999998916871
1040
-6.874334934209954
1040
-66.788320136898221
1040
-6.874334934209954
1070
     2
1040
-66.78832013689869
1040
-7.0843349342118627
1040
0.2100000000019078
1040
4.7123889803869421
1040
5.2359877559835688
1070
     0
1070
     1
1040
-66.683320136897635
1040
-6.9024695994155394
1040
-65.368863125452634
1040
-7.6663358286963179
1070
     1
1040
-65.368863125452634
1040
-7.6663358286963179
1040
-65.368863125452521
1040
-7.9334503569092334
1070
     2
1040
-65.158863125452513
1040
-7.9334503569091259
1040
0.2100000000000017
1040
3.1415926535902998
1040
5.235987755981399
1070
     1
1070
     1
1040
-65.053863125452807
1040
-8.1153156917040263
1040
-64.813680060670507
1040
-7.976645934597502
1070
     2
1040
-64.691810291900111
1040
-2.4125997305063831
1040
5.5653807059176952
1040
4.6904893984793761
1040
4.7536537105194441
1070
     1
1071
        0
1070
     0
1070
     1
1040
3.926990816987241
1040
0.35
1070
     0
1070
     1
1040
4.7123889803846888
1040
-67.50000014973466
1040
-5.0795950221918673
1040
1.111249999999999
1040
-0.0000000000000005
1070
     0
1071
        1
1040
-67.50000014973466
1040
-5.0795950221918673
1040
0.0
1002
}
  0
POLYLINE
  5
1D4E
  8
SAPA_ISOLATOR
 66
     1
 10
0.0
 20
0.0
 30
0.0
 70
     1
  0
VERTEX
  5
255E
  8
SAPA_ISOLATOR
 10
-53.699999999999818
 20
3.5
 30
0.0
  0
VERTEX
  5
255F
  8
SAPA_ISOLATOR
 10
-53.699999999999818
 20
2.6029440986901591
 30
0.0
  0
VERTEX
  5
2560
  8
SAPA_ISOLATOR
 10
-52.197055901308431
 20
1.099999999998772
 30
0.0
  0
VERTEX
  5
2561
  8
SAPA_ISOLATOR
 10
-46.478136728428119
 20
1.0999999999989989
 30
0.0
 42
-0.0502608893789828
  0
VERTEX
  5
2562
  8
SAPA_ISOLATOR
 10
-45.495019712916701
 20
0.4230777223442601
 30
0.0
 42
-0.460955221230658
  0
VERTEX
  5
2563
  8
SAPA_ISOLATOR
 10
-45.495019712917383
 20
-0.4230769752680317
 30
0.0
 42
-0.0502609546985642
  0
VERTEX
  5
2564
  8
SAPA_ISOLATOR
 10
-46.478138087674779
 20
-1.1000000000012731
 30
0.0
  0
VERTEX
  5
2565
  8
SAPA_ISOLATOR
 10
-52.197056648386933
 20
-1.1000000000012731
 30
0.0
  0
VERTEX
  5
2566
  8
SAPA_ISOLATOR
 10
-53.700000000000038
 20
-2.6029433516139302
 30
0.0
  0
VERTEX
  5
2567
  8
SAPA_ISOLATOR
 10
-53.700000000000038
 20
-3.5
 30
0.0
 42
-0.4142135623728733
  0
VERTEX
  5
2568
  8
SAPA_ISOLATOR
 10
-54.0
 20
-3.7999999999999541
 30
0.0
  0
VERTEX
  5
2569
  8
SAPA_ISOLATOR
 10
-61.099999999999959
 20
-3.8000000000009768
 30
0.0
 42
-0.4142135623731387
  0
VERTEX
  5
256A
  8
SAPA_ISOLATOR
 10
-61.600000000000023
 20
-3.3000000000009768
 30
0.0
  0
VERTEX
  5
256B
  8
SAPA_ISOLATOR
 10
-61.60000000000008
 20
3.2999999999988172
 30
0.0
 42
-0.4142135623730469
  0
VERTEX
  5
256C
  8
SAPA_ISOLATOR
 10
-61.100000000000129
 20
3.7999999999988172
 30
0.0
  0
VERTEX
  5
256D
  8
SAPA_ISOLATOR
 10
-54.0
 20
3.7999999999999541
 30
0.0
 42
-0.4142135623733169
  0
SEQEND
  5
256E
  8
SAPA_ISOLATOR
  0
POLYLINE
  5
1D4F
  8
SAPA_ISOLATOR
 66
     1
 10
0.0
 20
0.0
 30
0.0
 70
     1
  0
VERTEX
  5
256F
  8
SAPA_ISOLATOR
 10
-71.499999999998053
 20
6.7999999999974534
 30
0.0
 42
-0.4142135623731284
  0
VERTEX
  5
2570
  8
SAPA_ISOLATOR
 10
-70.999999999997954
 20
6.2999999999974534
 30
0.0
  0
VERTEX
  5
2571
  8
SAPA_ISOLATOR
 10
-70.999999999997954
 20
5.5
 30
0.0
 42
0.4142135623730951
  0
VERTEX
  5
2572
  8
SAPA_ISOLATOR
 10
-70.499999999997954
 20
5.0
 30
0.0
  0
VERTEX
  5
2573
  8
SAPA_ISOLATOR
 10
-53.0
 20
4.9999999999997717
 30
0.0
 42
-0.4142135623730951
  0
VERTEX
  5
2574
  8
SAPA_ISOLATOR
 10
-52.5
 20
4.4999999999997717
 30
0.0
  0
VERTEX
  5
2575
  8
SAPA_ISOLATOR
 10
-52.5
 20
3.1000003735380228
 30
0.0
  0
VERTEX
  5
2576
  8
SAPA_ISOLATOR
 10
-51.69999962646056
 20
2.2999999999985898
 30
0.0
  0
VERTEX
  5
2577
  8
SAPA_ISOLATOR
 10
-47.241778772773273
 20
2.3000000000004088
 30
0.0
 42
-0.0970774689087859
  0
VERTEX
  5
2578
  8
SAPA_ISOLATOR
 10
-44.975410008182727
 20
1.031358705728052
 30
0.0
 42
-0.4609552212306134
  0
VERTEX
  5
2579
  8
SAPA_ISOLATOR
 10
-44.975410008182607
 20
-1.0313579586517101
 30
0.0
 42
-0.0970775585520922
  0
VERTEX
  5
257A
  8
SAPA_ISOLATOR
 10
-47.241781051835908
 20
-2.3000000000013179
 30
0.0
  0
VERTEX
  5
257B
  8
SAPA_ISOLATOR
 10
-51.700000373539517
 20
-2.3000000000013179
 30
0.0
  0
VERTEX
  5
257C
  8
SAPA_ISOLATOR
 10
-52.5
 20
-3.099999626461567
 30
0.0
  0
VERTEX
  5
257D
  8
SAPA_ISOLATOR
 10
-52.5
 20
-4.4999999999997717
 30
0.0
 42
-0.4142135623730951
  0
VERTEX
  5
257E
  8
SAPA_ISOLATOR
 10
-53.0
 20
-4.9999999999997717
 30
0.0
  0
VERTEX
  5
257F
  8
SAPA_ISOLATOR
 10
-70.499999999997954
 20
-5.0000000000050022
 30
0.0
 42
0.4142135623730951
  0
VERTEX
  5
2580
  8
SAPA_ISOLATOR
 10
-70.999999999997954
 20
-5.5000000000050022
 30
0.0
  0
VERTEX
  5
2581
  8
SAPA_ISOLATOR
 10
-70.999999999997954
 20
-6.3000000000024547
 30
0.0
 42
-0.4142135623731617
  0
VERTEX
  5
2582
  8
SAPA_ISOLATOR
 10
-71.499999999998522
 20
-6.8000000000023979
 30
0.0
  0
VERTEX
  5
2583
  8
SAPA_ISOLATOR
 10
-80.299999999998477
 20
-6.8000000000026262
 30
0.0
 42
-0.4142135623730951
  0
VERTEX
  5
2584
  8
SAPA_ISOLATOR
 10
-81.299999999998477
 20
-5.800000000002683
 30
0.0
  0
VERTEX
  5
2585
  8
SAPA_ISOLATOR
 10
-81.299999999998477
 20
-5.0873719966523359
 30
0.0
 42
-0.221694662643068
  0
VERTEX
  5
2586
  8
SAPA_ISOLATOR
 10
-81.192836282904295
 20
-4.8575586637166452
 30
0.0
  0
VERTEX
  5
2587
  8
SAPA_ISOLATOR
 10
-80.492055319897077
 20
-4.269533616121179
 30
0.0
 42
-0.6358782360467221
  0
VERTEX
  5
2588
  8
SAPA_ISOLATOR
 10
-79.999999999998522
 20
-4.5000000000018181
 30
0.0
  0
VERTEX
  5
2589
  8
SAPA_ISOLATOR
 10
-79.999999999998295
 20
-5.300000000002683
 30
0.0
 42
0.4142135623730951
  0
VERTEX
  5
258A
  8
SAPA_ISOLATOR
 10
-79.699999999998113
 20
-5.6000000000024102
 30
0.0
  0
VERTEX
  5
258B
  8
SAPA_ISOLATOR
 10
-72.499999999998522
 20
-5.6000000000026366
 30
0.0
 42
0.9995465490080238
  0
VERTEX
  5
258C
  8
SAPA_ISOLATOR
 10
-72.499999999998295
 20
-4.9993422943207397
 30
0.0
  0
VERTEX
  5
258D
  8
SAPA_ISOLATOR
 10
-72.49999999999801
 20
-0.8660254037865797
 30
0.0
  0
VERTEX
  5
258E
  8
SAPA_ISOLATOR
 10
-71.999999999998124
 20
-0.0000000000022737
 30
0.0
  0
VERTEX
  5
258F
  8
SAPA_ISOLATOR
 10
-72.499999999998238
 20
0.8660254037823733
 30
0.0
  0
VERTEX
  5
2590
  8
SAPA_ISOLATOR
 10
-72.499999999998295
 20
4.9993422943157384
 30
0.0
 42
0.9995465490087907
  0
VERTEX
  5
2591
  8
SAPA_ISOLATOR
 10
-72.499999999998522
 20
5.5999999999971797
 30
0.0
  0
VERTEX
  5
2592
  8
SAPA_ISOLATOR
 10
-79.699999999998113
 20
5.5999999999974071
 30
0.0
 42
0.4142135623735446
  0
VERTEX
  5
2593
  8
SAPA_ISOLATOR
 10
-79.999999999998067
 20
5.2999999999976799
 30
0.0
  0
VERTEX
  5
2594
  8
SAPA_ISOLATOR
 10
-79.999999999998522
 20
4.4999999999977263
 30
0.0
 42
-0.6358782360470147
  0
VERTEX
  5
2595
  8
SAPA_ISOLATOR
 10
-80.492055319897077
 20
4.2695336161186779
 30
0.0
  0
VERTEX
  5
2596
  8
SAPA_ISOLATOR
 10
-81.192836282904295
 20
4.8575586637143706
 30
0.0
 42
-0.2216946626430204
  0
VERTEX
  5
2597
  8
SAPA_ISOLATOR
 10
-81.299999999998477
 20
5.0873719966498347
 30
0.0
  0
VERTEX
  5
2598
  8
SAPA_ISOLATOR
 10
-81.299999999998477
 20
5.7999999999981346
 30
0.0
 42
-0.4142135623731617
  0
VERTEX
  5
2599
  8
SAPA_ISOLATOR
 10
-80.299999999998249
 20
6.7999999999981346
 30
0.0
  0
SEQEND
  5
259A
  8
SAPA_ISOLATOR
  0
POLYLINE
  5
1D50
  8
SAPA_ISOLATOR
 66
     1
 10
0.0
 20
0.0
 30
0.0
 70
     1
  0
VERTEX
  5
259B
  8
SAPA_ISOLATOR
 10
-63.1000000000002
 20
3.7999999999984762
 30
0.0
 42
-0.4142135623731387
  0
VERTEX
  5
259C
  8
SAPA_ISOLATOR
 10
-62.600000000000129
 20
3.2999999999984762
 30
0.0
  0
VERTEX
  5
259D
  8
SAPA_ISOLATOR
 10
-62.60000000000008
 20
-3.300000000001432
 30
0.0
 42
-0.4142135623730514
  0
VERTEX
  5
259E
  8
SAPA_ISOLATOR
 10
-63.100000000000023
 20
-3.800000000001432
 30
0.0
  0
VERTEX
  5
259F
  8
SAPA_ISOLATOR
 10
-70.200000000000159
 20
-3.8000000000024552
 30
0.0
 42
-0.4142135623730951
  0
VERTEX
  5
25A0
  8
SAPA_ISOLATOR
 10
-70.700000000000159
 20
-3.3000000000024552
 30
0.0
  0
VERTEX
  5
25A1
  8
SAPA_ISOLATOR
 10
-70.700000000000159
 20
3.299999999997453
 30
0.0
 42
-0.4142135623730951
  0
VERTEX
  5
25A2
  8
SAPA_ISOLATOR
 10
-70.200000000000159
 20
3.799999999997453
 30
0.0
  0
SEQEND
  5
25A3
  8
SAPA_ISOLATOR
  0
POLYLINE
  5
1D74
  8
SAPA_FOGBAND
 66
     1
 10
0.0
 20
0.0
 30
0.0
 70
     1
  0
VERTEX
  5
267A
  8
SAPA_FOGBAND
 10
-80.768193081411013
 20
-4.1787401792169874
 30
0.0
  0
VERTEX
  5
267B
  8
SAPA_FOGBAND
 10
-80.544896306152935
 20
-4.1787401792169732
 30
0.0
 42
-0.3500011104185251
  0
VERTEX
  5
267C
  8
SAPA_FOGBAND
 10
-79.764899471718081
 20
-4.8009624014392074
 30
0.0
 42
0.3500011104185275
  0
VERTEX
  5
267D
  8
SAPA_FOGBAND
 10
-78.789903428674506
 20
-5.578740179216978
 30
0.0
  0
VERTEX
  5
267E
  8
SAPA_FOGBAND
 10
-78.46489947171807
 20
-5.5787401792169797
 30
0.0
 42
0.4142135623730992
  0
VERTEX
  5
267F
  8
SAPA_FOGBAND
 10
-77.46489947171807
 20
-4.5787401792169797
 30
0.0
  0
VERTEX
  5
2680
  8
SAPA_FOGBAND
 10
-77.46489947171807
 20
4.6212598207830391
 30
0.0
 42
0.4142135623730909
  0
VERTEX
  5
2681
  8
SAPA_FOGBAND
 10
-78.46489947171807
 20
5.621259820783024
 30
0.0
  0
VERTEX
  5
2682
  8
SAPA_FOGBAND
 10
-78.789903428674506
 20
5.6212598207830391
 30
0.0
 42
0.3500011104185275
  0
VERTEX
  5
2683
  8
SAPA_FOGBAND
 10
-79.764899471718053
 20
4.8434820430052667
 30
0.0
 42
-0.3500011104185328
  0
VERTEX
  5
2684
  8
SAPA_FOGBAND
 10
-80.544896306152935
 20
4.2212598207830192
 30
0.0
  0
VERTEX
  5
2685
  8
SAPA_FOGBAND
 10
-80.768193081411013
 20
4.2212598207830192
 30
0.0
 42
-0.380963100045198
  0
VERTEX
  5
2686
  8
SAPA_FOGBAND
 10
-81.264899471718081
 20
4.6639644297978728
 30
0.0
 42
-0.0458039546811979
  0
VERTEX
  5
2687
  8
SAPA_FOGBAND
 10
-81.341546602805465
 20
7.9530679894324399
 30
0.0
 42
0.9570085662280619
  0
VERTEX
  5
2688
  8
SAPA_FOGBAND
 10
-83.327059573289304
 20
8.1767290045698076
 30
0.0
 42
0.0782100801382191
  0
VERTEX
  5
2689
  8
SAPA_FOGBAND
 10
-83.327059573289347
 20
-8.1342093630037482
 30
0.0
 42
0.9570085662280891
  0
VERTEX
  5
268A
  8
SAPA_FOGBAND
 10
-81.341546602805465
 20
-7.9105483478663521
 30
0.0
 42
-0.0458039546811975
  0
VERTEX
  5
268B
  8
SAPA_FOGBAND
 10
-81.264899471718081
 20
-4.6214447882318392
 30
0.0
 42
-0.380963100045198
  0
SEQEND
  5
268C
  8
SAPA_FOGBAND
  0
CIRCLE
  5
1D75
  8
SAPA_FOGBAND
 10
-36.800000000002143
 20
23.106097556107599
 30
0.0
 40
0.2549509756796394
  0
POLYLINE
  5
1D76
  8
SAPA_FOGBAND
 66
     1
 10
0.0
 20
0.0
 30
0.0
 70
     1
  0
VERTEX
  5
268D
  8
SAPA_FOGBAND
 10
-35.500000000002117
 20
20.75609755610763
 30
0.0
 42
-0.4142135623730951
  0
VERTEX
  5
268E
  8
SAPA_FOGBAND
 10
-35.300000000002143
 20
20.956097556107618
 30
0.0
  0
VERTEX
  5
268F
  8
SAPA_FOGBAND
 10
-33.500000000002132
 20
20.956097556107618
 30
0.0
 42
-0.9999999999999998
  0
VERTEX
  5
2690
  8
SAPA_FOGBAND
 10
-33.500000000002132
 20
19.656097556107611
 30
0.0
  0
VERTEX
  5
2691
  8
SAPA_FOGBAND
 10
-35.300000000002143
 20
19.656097556107611
 30
0.0
 42
-0.4142135623730951
  0
VERTEX
  5
2692
  8
SAPA_FOGBAND
 10
-35.500000000002117
 20
19.856097556107599
 30
0.0
  0
VERTEX
  5
2693
  8
SAPA_FOGBAND
 10
-35.500000000002117
 20
20.606097556107599
 30
0.0
  0
SEQEND
  5
2694
  8
SAPA_FOGBAND
  0
POLYLINE
  5
1D77
  8
SAPA_FOGBAND
 66
     1
 10
0.0
 20
0.0
 30
0.0
 70
     1
  0
VERTEX
  5
2695
  8
SAPA_FOGBAND
 10
-35.500000000002117
 20
16.352507717621378
 30
0.0
 42
0.267949192431121
  0
VERTEX
  5
2696
  8
SAPA_FOGBAND
 10
-35.400000000002102
 20
16.179302636864499
 30
0.0
 42
-0.7673269879789569
  0
VERTEX
  5
2697
  8
SAPA_FOGBAND
 10
-35.500000000002117
 20
15.806097556107639
 30
0.0
  0
VERTEX
  5
2698
  8
SAPA_FOGBAND
 10
-42.782887030406378
 20
15.80609755610765
 30
0.0
 42
-0.4602937089574736
  0
VERTEX
  5
2699
  8
SAPA_FOGBAND
 10
-42.980497721843413
 20
16.036919863448009
 30
0.0
  0
VERTEX
  5
269A
  8
SAPA_FOGBAND
 10
-42.387406737847947
 20
18.49625599497471
 30
0.0
 42
0.6910703998708235
  0
VERTEX
  5
269B
  8
SAPA_FOGBAND
 10
-42.712834204139682
 20
18.680905712309979
 30
0.0
  0
VERTEX
  5
269C
  8
SAPA_FOGBAND
 10
-43.008274837720087
 20
15.982704989567241
 30
0.0
 42
-0.928378177954751
  0
VERTEX
  5
269D
  8
SAPA_FOGBAND
 10
-43.423753435875497
 20
16.413282037101439
 30
0.0
  0
VERTEX
  5
269E
  8
SAPA_FOGBAND
 10
-43.228542559027531
 20
19.558521306388961
 30
0.0
 42
0.6076316918600427
  0
VERTEX
  5
269F
  8
SAPA_FOGBAND
 10
-43.323096729694747
 20
19.807435679851771
 30
0.0
 42
-0.38070580105552
  0
VERTEX
  5
26A0
  8
SAPA_FOGBAND
 10
-43.500000000002061
 20
20.00609755610764
 30
0.0
  0
VERTEX
  5
26A1
  8
SAPA_FOGBAND
 10
-43.500000000002061
 20
20.306097556107652
 30
0.0
  0
VERTEX
  5
26A2
  8
SAPA_FOGBAND
 10
-43.500000000002061
 20
20.606097556107599
 30
0.0
 42
-0.3807058010555201
  0
VERTEX
  5
26A3
  8
SAPA_FOGBAND
 10
-43.32309672969469
 20
20.804759432363419
 30
0.0
 42
0.6076316918600374
  0
VERTEX
  5
26A4
  8
SAPA_FOGBAND
 10
-43.228542559027531
 20
21.053673805826278
 30
0.0
  0
VERTEX
  5
26A5
  8
SAPA_FOGBAND
 10
-43.42375343587539
 20
24.307288722534949
 30
0.0
 42
-0.9283781779547513
  0
VERTEX
  5
26A6
  8
SAPA_FOGBAND
 10
-43.008274837719931
 20
24.73786577006916
 30
0.0
  0
VERTEX
  5
26A7
  8
SAPA_FOGBAND
 10
-42.709922924871783
 20
21.90135154659264
 30
0.0
 42
0.6910703998708235
  0
VERTEX
  5
26A8
  8
SAPA_FOGBAND
 10
-42.384495458580062
 20
22.086001263927908
 30
0.0
  0
VERTEX
  5
26A9
  8
SAPA_FOGBAND
 10
-42.980497721843413
 20
24.57527524876723
 30
0.0
 42
-0.4602937089574736
  0
VERTEX
  5
26AA
  8
SAPA_FOGBAND
 10
-42.782887030406378
 20
24.806097556107652
 30
0.0
  0
VERTEX
  5
26AB
  8
SAPA_FOGBAND
 10
-35.500000000002117
 20
24.806097556107641
 30
0.0
 42
-0.7673269879789572
  0
VERTEX
  5
26AC
  8
SAPA_FOGBAND
 10
-35.400000000002102
 20
24.43289247535073
 30
0.0
 42
0.267949192431121
  0
VERTEX
  5
26AD
  8
SAPA_FOGBAND
 10
-35.500000000002117
 20
24.25968739459385
 30
0.0
  0
VERTEX
  5
26AE
  8
SAPA_FOGBAND
 10
-35.500000000002117
 20
22.056097556107641
 30
0.0
 42
0.4142135623730946
  0
VERTEX
  5
26AF
  8
SAPA_FOGBAND
 10
-35.400000000002102
 20
21.956097556107618
 30
0.0
  0
VERTEX
  5
26B0
  8
SAPA_FOGBAND
 10
-34.400000000002102
 20
21.956097556107618
 30
0.0
  0
VERTEX
  5
26B1
  8
SAPA_FOGBAND
 10
-34.291388579561243
 20
22.31415280233346
 30
0.0
 42
-0.4364998583843341
  0
VERTEX
  5
26B2
  8
SAPA_FOGBAND
 10
-34.027676570641312
 20
22.442562892203888
 30
0.0
  0
VERTEX
  5
26B3
  8
SAPA_FOGBAND
 10
-32.638382853197953
 20
21.90370409872229
 30
0.0
 42
-0.3095538907669666
  0
VERTEX
  5
26B4
  8
SAPA_FOGBAND
 10
-32.000000000002117
 20
20.97137741824103
 30
0.0
  0
VERTEX
  5
26B5
  8
SAPA_FOGBAND
 10
-32.000000000002117
 20
19.640817693974199
 30
0.0
 42
-0.3095538907669666
  0
VERTEX
  5
26B6
  8
SAPA_FOGBAND
 10
-32.638382853197953
 20
18.708491013492939
 30
0.0
  0
VERTEX
  5
26B7
  8
SAPA_FOGBAND
 10
-34.027676570641312
 20
18.16963222001139
 30
0.0
 42
-0.4364998583843343
  0
VERTEX
  5
26B8
  8
SAPA_FOGBAND
 10
-34.291388579561243
 20
18.298042309881829
 30
0.0
  0
VERTEX
  5
26B9
  8
SAPA_FOGBAND
 10
-34.400000000002102
 20
18.656097556107611
 30
0.0
  0
VERTEX
  5
26BA
  8
SAPA_FOGBAND
 10
-35.400000000002102
 20
18.656097556107611
 30
0.0
 42
0.4142135623730946
  0
VERTEX
  5
26BB
  8
SAPA_FOGBAND
 10
-35.500000000002117
 20
18.556097556107641
 30
0.0
  0
SEQEND
  5
26BC
  8
SAPA_FOGBAND
  0
POLYLINE
  5
1D78
  8
SAPA_FOGBAND
 66
     1
 10
0.0
 20
0.0
 30
0.0
 70
     1
  0
VERTEX
  5
26BD
  8
SAPA_FOGBAND
 10
-37.800000000002143
 20
18.482229998629389
 30
0.0
 42
-0.3042268896177264
  0
VERTEX
  5
26BE
  8
SAPA_FOGBAND
 10
-37.986088961918448
 20
18.204697522326718
 30
0.0
 42
-0.2901372376591382
  0
VERTEX
  5
26BF
  8
SAPA_FOGBAND
 10
-40.21394540255541
 20
18.254982816544938
 30
0.0
 42
-0.1927175523564936
  0
VERTEX
  5
26C0
  8
SAPA_FOGBAND
 10
-40.368941574663971
 20
18.415282796532018
 30
0.0
 42
-0.1963728951991371
  0
VERTEX
  5
26C1
  8
SAPA_FOGBAND
 10
-40.368941574663971
 20
22.19691231568321
 30
0.0
 42
-0.1927175523564951
  0
VERTEX
  5
26C2
  8
SAPA_FOGBAND
 10
-40.21394540255541
 20
22.357212295670301
 30
0.0
 42
-0.2901372376591384
  0
VERTEX
  5
26C3
  8
SAPA_FOGBAND
 10
-37.986088961918448
 20
22.40749758988856
 30
0.0
 42
-0.3042268896177278
  0
VERTEX
  5
26C4
  8
SAPA_FOGBAND
 10
-37.800000000002143
 20
22.12996511358584
 30
0.0
  0
SEQEND
  5
26C5
  8
SAPA_FOGBAND
  0
POLYLINE
  5
1D79
  8
SAPA_FOGBAND
 66
     1
 10
0.0
 20
0.0
 30
0.0
 70
     1
  0
VERTEX
  5
26C6
  8
SAPA_FOGBAND
 10
-64.360800493659923
 20
8.6651519732758686
 30
0.0
  0
VERTEX
  5
26C7
  8
SAPA_FOGBAND
 10
-64.852752833549772
 20
11.66647913584435
 30
0.0
 42
-0.4464785874932524
  0
VERTEX
  5
26C8
  8
SAPA_FOGBAND
 10
-63.858675528444017
 20
12.775154392796111
 30
0.0
  0
VERTEX
  5
26C9
  8
SAPA_FOGBAND
 10
-62.313435434751142
 20
12.775154392796111
 30
0.0
 42
-0.622676997742357
  0
VERTEX
  5
26CA
  8
SAPA_FOGBAND
 10
-61.521553706587753
 20
11.16447990618232
 30
0.0
  0
VERTEX
  5
26CB
  8
SAPA_FOGBAND
 10
-62.440776968640328
 20
8.1631527436129261
 30
0.0
 42
-0.232531183213058
  0
VERTEX
  5
26CC
  8
SAPA_FOGBAND
 10
-63.232658696804179
 20
7.7738272302258054
 30
0.0
  0
VERTEX
  5
26CD
  8
SAPA_FOGBAND
 10
-63.366723188554168
 20
7.773827230226714
 30
0.0
 42
-0.3826682380870913
  0
SEQEND
  5
26CE
  8
SAPA_FOGBAND
  0
POLYLINE
  5
1D7A
  8
SAPA_FOGBAND
 66
     1
 10
0.0
 20
0.0
 30
0.0
 70
     1
  0
VERTEX
  5
26CF
  8
SAPA_FOGBAND
 10
-57.29620144546098
 20
21.76213762956829
 30
0.0
 42
-0.4740571810231764
  0
VERTEX
  5
26D0
  8
SAPA_FOGBAND
 10
-57.013918859822667
 20
21.889431491931621
 30
0.0
  0
VERTEX
  5
26D1
  8
SAPA_FOGBAND
 10
-55.567712723062328
 20
21.269330989173771
 30
0.0
 42
-0.2846003776496257
  0
VERTEX
  5
26D2
  8
SAPA_FOGBAND
 10
-55.290456274014481
 20
20.821686810712858
 30
0.0
  0
VERTEX
  5
26D3
  8
SAPA_FOGBAND
 10
-55.290456274014481
 20
19.1990608303831
 30
0.0
 42
-0.2846003776496159
  0
VERTEX
  5
26D4
  8
SAPA_FOGBAND
 10
-55.567712723062783
 20
18.751416651922199
 30
0.0
  0
VERTEX
  5
26D5
  8
SAPA_FOGBAND
 10
-57.013918859822667
 20
18.131316149164348
 30
0.0
 42
-0.4740571810232354
  0
VERTEX
  5
26D6
  8
SAPA_FOGBAND
 10
-57.29620144546098
 20
18.25861001152677
 30
0.0
  0
VERTEX
  5
26D7
  8
SAPA_FOGBAND
 10
-57.363661354771381
 20
18.510373820547979
 30
0.0
  0
VERTEX
  5
26D8
  8
SAPA_FOGBAND
 10
-58.30508677165372
 20
18.510373820547979
 30
0.0
 42
0.4142135623730951
  0
VERTEX
  5
26D9
  8
SAPA_FOGBAND
 10
-58.80508677165372
 20
18.010373820547979
 30
0.0
  0
VERTEX
  5
26DA
  8
SAPA_FOGBAND
 10
-58.805086771653272
 20
14.98227426981336
 30
0.0
 42
-0.1657205760184635
  0
VERTEX
  5
26DB
  8
SAPA_FOGBAND
 10
-59.013205043489869
 20
14.371599783199571
 30
0.0
  0
VERTEX
  5
26DC
  8
SAPA_FOGBAND
 10
-62.407790128345738
 20
5.0037093927230378
 30
0.0
 42
-0.2325311832130358
  0
VERTEX
  5
26DD
  8
SAPA_FOGBAND
 10
-62.803730992427887
 20
4.8090466360290227
 30
0.0
  0
VERTEX
  5
26DE
  8
SAPA_FOGBAND
 10
-64.034474548865461
 20
4.8090466360290227
 30
0.0
 42
-0.3826682380870913
  0
VERTEX
  5
26DF
  8
SAPA_FOGBAND
 10
-65.028551853971209
 20
5.700371379079086
 30
0.0
  0
VERTEX
  5
26E0
  8
SAPA_FOGBAND
 10
-65.80508677165372
 20
11.304840139375271
 30
0.0
  0
VERTEX
  5
26E1
  8
SAPA_FOGBAND
 10
-65.80508677165372
 20
25.010373798598241
 30
0.0
 42
-0.4257917699693507
  0
VERTEX
  5
26E2
  8
SAPA_FOGBAND
 10
-65.493279409123176
 20
25.310141352197181
 30
0.0
  0
VERTEX
  5
26E3
  8
SAPA_FOGBAND
 10
-59.093279409122623
 20
24.82230153752695
 30
0.0
 42
-0.4027293761437475
  0
VERTEX
  5
26E4
  8
SAPA_FOGBAND
 10
-58.805086771653272
 20
24.522533983929829
 30
0.0
  0
VERTEX
  5
26E5
  8
SAPA_FOGBAND
 10
-58.80508677165372
 20
22.010373820547979
 30
0.0
 42
0.4142135623730951
  0
VERTEX
  5
26E6
  8
SAPA_FOGBAND
 10
-58.30508677165372
 20
21.510373820547979
 30
0.0
  0
VERTEX
  5
26E7
  8
SAPA_FOGBAND
 10
-57.363661354771381
 20
21.510373820547979
 30
0.0
  0
SEQEND
  5
26E8
  8
SAPA_FOGBAND
  0
POLYLINE
  5
1D7B
  8
SAPA_FOGBAND
 66
     1
 10
0.0
 20
0.0
 30
0.0
 70
     1
  0
VERTEX
  5
26E9
  8
SAPA_FOGBAND
 10
-56.890456274014831
 20
19.11037382054835
 30
0.0
  0
VERTEX
  5
26EA
  8
SAPA_FOGBAND
 10
-57.490456274014747
 20
19.11037382054835
 30
0.0
 42
-0.9999999999999998
  0
VERTEX
  5
26EB
  8
SAPA_FOGBAND
 10
-57.490456274014747
 20
20.910373820547619
 30
0.0
  0
VERTEX
  5
26EC
  8
SAPA_FOGBAND
 10
-56.890456274014831
 20
20.910373820547619
 30
0.0
 42
-0.9999999999999998
  0
SEQEND
  5
26ED
  8
SAPA_FOGBAND
  0
POLYLINE
  5
1D7C
  8
SAPA_FOGBAND
 66
     1
 10
0.0
 20
0.0
 30
0.0
  0
VERTEX
  5
26EE
  8
SAPA_FOGBAND
 10
-58.805086771653272
 20
23.61037382054835
 30
0.0
  0
VERTEX
  5
26EF
  8
SAPA_FOGBAND
 10
-59.105086771653447
 20
23.61037382054835
 30
0.0
 42
0.4142135623730951
  0
VERTEX
  5
26F0
  8
SAPA_FOGBAND
 10
-59.605086771653447
 20
23.11037382054835
 30
0.0
  0
VERTEX
  5
26F1
  8
SAPA_FOGBAND
 10
-59.605086771653447
 20
15.81037382054725
 30
0.0
 42
0.4142135623730951
  0
VERTEX
  5
26F2
  8
SAPA_FOGBAND
 10
-59.105086771653447
 20
15.31037382054725
 30
0.0
  0
VERTEX
  5
26F3
  8
SAPA_FOGBAND
 10
-58.805086771653272
 20
15.310373820548159
 30
0.0
  0
SEQEND
  5
26F4
  8
SAPA_FOGBAND
  0
POLYLINE
  5
1D7D
  8
SAPA_FOGBAND
 10
-62.826656685503188
 20
22.073620954385191
 30
0.0
 66
     1
 70
     8
  0
VERTEX
  8
SAPA_FOGBAND
  5
275E
 10
-62.8267
 20
22.0736
 30
0.000000
  70
    32
  0
VERTEX
  8
SAPA_FOGBAND
  5
275F
 10
-62.7660
 20
22.0703
 30
0.000000
  70
    32
  0
VERTEX
  8
SAPA_FOGBAND
  5
2760
 10
-62.7055
 20
22.0589
 30
0.000000
  70
    32
  0
VERTEX
  8
SAPA_FOGBAND
  5
2761
 10
-62.6451
 20
22.0397
 30
0.000000
  70
    32
  0
VERTEX
  8
SAPA_FOGBAND
  5
2762
 10
-62.5851
 20
22.0126
 30
0.000000
  70
    32
  0
VERTEX
  8
SAPA_FOGBAND
  5
2763
 10
-62.5256
 20
21.9778
 30
0.000000
  70
    32
  0
VERTEX
  8
SAPA_FOGBAND
  5
2764
 10
-62.4668
 20
21.9352
 30
0.000000
  70
    32
  0
VERTEX
  8
SAPA_FOGBAND
  5
2765
 10
-62.4087
 20
21.8850
 30
0.000000
  70
    32
  0
VERTEX
  8
SAPA_FOGBAND
  5
2766
 10
-62.3516
 20
21.8273
 30
0.000000
  70
    32
  0
VERTEX
  8
SAPA_FOGBAND
  5
2767
 10
-62.2955
 20
21.7622
 30
0.000000
  70
    32
  0
VERTEX
  8
SAPA_FOGBAND
  5
2768
 10
-62.2406
 20
21.6900
 30
0.000000
  70
    32
  0
VERTEX
  8
SAPA_FOGBAND
  5
2769
 10
-62.1871
 20
21.6107
 30
0.000000
  70
    32
  0
VERTEX
  8
SAPA_FOGBAND
  5
276A
 10
-62.1350
 20
21.5246
 30
0.000000
  70
    32
  0
VERTEX
  8
SAPA_FOGBAND
  5
276B
 10
-62.0846
 20
21.4319
 30
0.000000
  70
    32
  0
VERTEX
  8
SAPA_FOGBAND
  5
276C
 10
-62.0358
 20
21.3327
 30
0.000000
  70
    32
  0
VERTEX
  8
SAPA_FOGBAND
  5
276D
 10
-61.9888
 20
21.2275
 30
0.000000
  70
    32
  0
VERTEX
  8
SAPA_FOGBAND
  5
276E
 10
-61.9438
 20
21.1163
 30
0.000000
  70
    32
  0
VERTEX
  8
SAPA_FOGBAND
  5
276F
 10
-61.9009
 20
20.9994
 30
0.000000
  70
    32
  0
VERTEX
  8
SAPA_FOGBAND
  5
2770
 10
-61.8601
 20
20.8773
 30
0.000000
  70
    32
  0
VERTEX
  8
SAPA_FOGBAND
  5
2771
 10
-61.8215
 20
20.7500
 30
0.000000
  70
    32
  0
VERTEX
  8
SAPA_FOGBAND
  5
2772
 10
-61.7853
 20
20.6180
 30
0.000000
  70
    32
  0
VERTEX
  8
SAPA_FOGBAND
  5
2773
 10
-61.7515
 20
20.4815
 30
0.000000
  70
    32
  0
VERTEX
  8
SAPA_FOGBAND
  5
2774
 10
-61.7202
 20
20.3410
 30
0.000000
  70
    32
  0
VERTEX
  8
SAPA_FOGBAND
  5
2775
 10
-61.6915
 20
20.1967
 30
0.000000
  70
    32
  0
VERTEX
  8
SAPA_FOGBAND
  5
2776
 10
-61.6655
 20
20.0489
 30
0.000000
  70
    32
  0
VERTEX
  8
SAPA_FOGBAND
  5
2777
 10
-61.6422
 20
19.8981
 30
0.000000
  70
    32
  0
VERTEX
  8
SAPA_FOGBAND
  5
2778
 10
-61.6216
 20
19.7446
 30
0.000000
  70
    32
  0
VERTEX
  8
SAPA_FOGBAND
  5
2779
 10
-61.6039
 20
19.5887
 30
0.000000
  70
    32
  0
VERTEX
  8
SAPA_FOGBAND
  5
277A
 10
-61.5891
 20
19.4309
 30
0.000000
  70
    32
  0
VERTEX
  8
SAPA_FOGBAND
  5
277B
 10
-61.5771
 20
19.2715
 30
0.000000
  70
    32
  0
VERTEX
  8
SAPA_FOGBAND
  5
277C
 10
-61.5681
 20
19.1109
 30
0.000000
  70
    32
  0
VERTEX
  8
SAPA_FOGBAND
  5
277D
 10
-61.5620
 20
18.9495
 30
0.000000
  70
    32
  0
VERTEX
  8
SAPA_FOGBAND
  5
277E
 10
-61.5589
 20
18.7876
 30
0.000000
  70
    32
  0
VERTEX
  8
SAPA_FOGBAND
  5
277F
 10
-61.5588
 20
18.6258
 30
0.000000
  70
    32
  0
VERTEX
  8
SAPA_FOGBAND
  5
2780
 10
-61.5616
 20
18.4643
 30
0.000000
  70
    32
  0
VERTEX
  8
SAPA_FOGBAND
  5
2781
 10
-61.5675
 20
18.3036
 30
0.000000
  70
    32
  0
VERTEX
  8
SAPA_FOGBAND
  5
2782
 10
-61.5762
 20
18.1439
 30
0.000000
  70
    32
  0
VERTEX
  8
SAPA_FOGBAND
  5
2783
 10
-61.5879
 20
17.9859
 30
0.000000
  70
    32
  0
VERTEX
  8
SAPA_FOGBAND
  5
2784
 10
-61.6026
 20
17.8297
 30
0.000000
  70
    32
  0
VERTEX
  8
SAPA_FOGBAND
  5
2785
 10
-61.6200
 20
17.6758
 30
0.000000
  70
    32
  0
VERTEX
  8
SAPA_FOGBAND
  5
2786
 10
-61.6404
 20
17.5245
 30
0.000000
  70
    32
  0
VERTEX
  8
SAPA_FOGBAND
  5
2787
 10
-61.6634
 20
17.3763
 30
0.000000
  70
    32
  0
VERTEX
  8
SAPA_FOGBAND
  5
2788
 10
-61.6893
 20
17.2314
 30
0.000000
  70
    32
  0
VERTEX
  8
SAPA_FOGBAND
  5
2789
 10
-61.7177
 20
17.0902
 30
0.000000
  70
    32
  0
VERTEX
  8
SAPA_FOGBAND
  5
278A
 10
-61.7488
 20
16.9532
 30
0.000000
  70
    32
  0
VERTEX
  8
SAPA_FOGBAND
  5
278B
 10
-61.7824
 20
16.8204
 30
0.000000
  70
    32
  0
VERTEX
  8
SAPA_FOGBAND
  5
278C
 10
-61.8184
 20
16.6925
 30
0.000000
  70
    32
  0
VERTEX
  8
SAPA_FOGBAND
  5
278D
 10
-61.8568
 20
16.5695
 30
0.000000
  70
    32
  0
VERTEX
  8
SAPA_FOGBAND
  5
278E
 10
-61.8974
 20
16.4518
 30
0.000000
  70
    32
  0
VERTEX
  8
SAPA_FOGBAND
  5
278F
 10
-61.9402
 20
16.3398
 30
0.000000
  70
    32
  0
VERTEX
  8
SAPA_FOGBAND
  5
2790
 10
-61.9850
 20
16.2336
 30
0.000000
  70
    32
  0
VERTEX
  8
SAPA_FOGBAND
  5
2791
 10
-62.0318
 20
16.1335
 30
0.000000
  70
    32
  0
VERTEX
  8
SAPA_FOGBAND
  5
2792
 10
-62.0805
 20
16.0398
 30
0.000000
  70
    32
  0
VERTEX
  8
SAPA_FOGBAND
  5
2793
 10
-62.1308
 20
15.9527
 30
0.000000
  70
    32
  0
VERTEX
  8
SAPA_FOGBAND
  5
2794
 10
-62.1827
 20
15.8723
 30
0.000000
  70
    32
  0
VERTEX
  8
SAPA_FOGBAND
  5
2795
 10
-62.2362
 20
15.7990
 30
0.000000
  70
    32
  0
VERTEX
  8
SAPA_FOGBAND
  5
2796
 10
-62.2909
 20
15.7329
 30
0.000000
  70
    32
  0
VERTEX
  8
SAPA_FOGBAND
  5
2797
 10
-62.3469
 20
15.6740
 30
0.000000
  70
    32
  0
VERTEX
  8
SAPA_FOGBAND
  5
2798
 10
-62.4039
 20
15.6227
 30
0.000000
  70
    32
  0
VERTEX
  8
SAPA_FOGBAND
  5
2799
 10
-62.4619
 20
15.5789
 30
0.000000
  70
    32
  0
VERTEX
  8
SAPA_FOGBAND
  5
279A
 10
-62.5207
 20
15.5429
 30
0.000000
  70
    32
  0
VERTEX
  8
SAPA_FOGBAND
  5
279B
 10
-62.5802
 20
15.5146
 30
0.000000
  70
    32
  0
VERTEX
  8
SAPA_FOGBAND
  5
279C
 10
-62.6401
 20
15.4942
 30
0.000000
  70
    32
  0
VERTEX
  8
SAPA_FOGBAND
  5
279D
 10
-62.7004
 20
15.4817
 30
0.000000
  70
    32
  0
VERTEX
  8
SAPA_FOGBAND
  5
279E
 10
-62.7610
 20
15.4771
 30
0.000000
  70
    32
  0
VERTEX
  8
SAPA_FOGBAND
  5
279F
 10
-62.8216
 20
15.4805
 30
0.000000
  70
    32
  0
VERTEX
  8
SAPA_FOGBAND
  5
27A0
 10
-62.8822
 20
15.4918
 30
0.000000
  70
    32
  0
VERTEX
  8
SAPA_FOGBAND
  5
27A1
 10
-62.9426
 20
15.5110
 30
0.000000
  70
    32
  0
VERTEX
  8
SAPA_FOGBAND
  5
27A2
 10
-63.0025
 20
15.5381
 30
0.000000
  70
    32
  0
VERTEX
  8
SAPA_FOGBAND
  5
27A3
 10
-63.0620
 20
15.5729
 30
0.000000
  70
    32
  0
VERTEX
  8
SAPA_FOGBAND
  5
27A4
 10
-63.1209
 20
15.6155
 30
0.000000
  70
    32
  0
VERTEX
  8
SAPA_FOGBAND
  5
27A5
 10
-63.1789
 20
15.6657
 30
0.000000
  70
    32
  0
VERTEX
  8
SAPA_FOGBAND
  5
27A6
 10
-63.2361
 20
15.7234
 30
0.000000
  70
    32
  0
VERTEX
  8
SAPA_FOGBAND
  5
27A7
 10
-63.2921
 20
15.7885
 30
0.000000
  70
    32
  0
VERTEX
  8
SAPA_FOGBAND
  5
27A8
 10
-63.3470
 20
15.8607
 30
0.000000
  70
    32
  0
VERTEX
  8
SAPA_FOGBAND
  5
27A9
 10
-63.4005
 20
15.9400
 30
0.000000
  70
    32
  0
VERTEX
  8
SAPA_FOGBAND
  5
27AA
 10
-63.4526
 20
16.0261
 30
0.000000
  70
    32
  0
VERTEX
  8
SAPA_FOGBAND
  5
27AB
 10
-63.5031
 20
16.1188
 30
0.000000
  70
    32
  0
VERTEX
  8
SAPA_FOGBAND
  5
27AC
 10
-63.5519
 20
16.2180
 30
0.000000
  70
    32
  0
VERTEX
  8
SAPA_FOGBAND
  5
27AD
 10
-63.5988
 20
16.3232
 30
0.000000
  70
    32
  0
VERTEX
  8
SAPA_FOGBAND
  5
27AE
 10
-63.6438
 20
16.4344
 30
0.000000
  70
    32
  0
VERTEX
  8
SAPA_FOGBAND
  5
27AF
 10
-63.6868
 20
16.5513
 30
0.000000
  70
    32
  0
VERTEX
  8
SAPA_FOGBAND
  5
27B0
 10
-63.7276
 20
16.6735
 30
0.000000
  70
    32
  0
VERTEX
  8
SAPA_FOGBAND
  5
27B1
 10
-63.7662
 20
16.8007
 30
0.000000
  70
    32
  0
VERTEX
  8
SAPA_FOGBAND
  5
27B2
 10
-63.8024
 20
16.9327
 30
0.000000
  70
    32
  0
VERTEX
  8
SAPA_FOGBAND
  5
27B3
 10
-63.8362
 20
17.0692
 30
0.000000
  70
    32
  0
VERTEX
  8
SAPA_FOGBAND
  5
27B4
 10
-63.8674
 20
17.2097
 30
0.000000
  70
    32
  0
VERTEX
  8
SAPA_FOGBAND
  5
27B5
 10
-63.8961
 20
17.3540
 30
0.000000
  70
    32
  0
VERTEX
  8
SAPA_FOGBAND
  5
27B6
 10
-63.9222
 20
17.5018
 30
0.000000
  70
    32
  0
VERTEX
  8
SAPA_FOGBAND
  5
27B7
 10
-63.9455
 20
17.6526
 30
0.000000
  70
    32
  0
VERTEX
  8
SAPA_FOGBAND
  5
27B8
 10
-63.9660
 20
17.8062
 30
0.000000
  70
    32
  0
VERTEX
  8
SAPA_FOGBAND
  5
27B9
 10
-63.9838
 20
17.9620
 30
0.000000
  70
    32
  0
VERTEX
  8
SAPA_FOGBAND
  5
27BA
 10
-63.9986
 20
18.1198
 30
0.000000
  70
    32
  0
VERTEX
  8
SAPA_FOGBAND
  5
27BB
 10
-64.0106
 20
18.2792
 30
0.000000
  70
    32
  0
VERTEX
  8
SAPA_FOGBAND
  5
27BC
 10
-64.0196
 20
18.4398
 30
0.000000
  70
    32
  0
VERTEX
  8
SAPA_FOGBAND
  5
27BD
 10
-64.0256
 20
18.6012
 30
0.000000
  70
    32
  0
VERTEX
  8
SAPA_FOGBAND
  5
27BE
 10
-64.0287
 20
18.7631
 30
0.000000
  70
    32
  0
VERTEX
  8
SAPA_FOGBAND
  5
27BF
 10
-64.0289
 20
18.9249
 30
0.000000
  70
    32
  0
VERTEX
  8
SAPA_FOGBAND
  5
27C0
 10
-64.0260
 20
19.0864
 30
0.000000
  70
    32
  0
VERTEX
  8
SAPA_FOGBAND
  5
27C1
 10
-64.0202
 20
19.2472
 30
0.000000
  70
    32
  0
VERTEX
  8
SAPA_FOGBAND
  5
27C2
 10
-64.0114
 20
19.4068
 30
0.000000
  70
    32
  0
VERTEX
  8
SAPA_FOGBAND
  5
27C3
 10
-63.9997
 20
19.5648
 30
0.000000
  70
    32
  0
VERTEX
  8
SAPA_FOGBAND
  5
27C4
 10
-63.9851
 20
19.7210
 30
0.000000
  70
    32
  0
VERTEX
  8
SAPA_FOGBAND
  5
27C5
 10
-63.9676
 20
19.8749
 30
0.000000
  70
    32
  0
VERTEX
  8
SAPA_FOGBAND
  5
27C6
 10
-63.9473
 20
20.0262
 30
0.000000
  70
    32
  0
VERTEX
  8
SAPA_FOGBAND
  5
27C7
 10
-63.9242
 20
20.1744
 30
0.000000
  70
    32
  0
VERTEX
  8
SAPA_FOGBAND
  5
27C8
 10
-63.8984
 20
20.3193
 30
0.000000
  70
    32
  0
VERTEX
  8
SAPA_FOGBAND
  5
27C9
 10
-63.8699
 20
20.4605
 30
0.000000
  70
    32
  0
VERTEX
  8
SAPA_FOGBAND
  5
27CA
 10
-63.8389
 20
20.5976
 30
0.000000
  70
    32
  0
VERTEX
  8
SAPA_FOGBAND
  5
27CB
 10
-63.8053
 20
20.7303
 30
0.000000
  70
    32
  0
VERTEX
  8
SAPA_FOGBAND
  5
27CC
 10
-63.7693
 20
20.8583
 30
0.000000
  70
    32
  0
VERTEX
  8
SAPA_FOGBAND
  5
27CD
 10
-63.7309
 20
20.9812
 30
0.000000
  70
    32
  0
VERTEX
  8
SAPA_FOGBAND
  5
27CE
 10
-63.6903
 20
21.0989
 30
0.000000
  70
    32
  0
VERTEX
  8
SAPA_FOGBAND
  5
27CF
 10
-63.6475
 20
21.2110
 30
0.000000
  70
    32
  0
VERTEX
  8
SAPA_FOGBAND
  5
27D0
 10
-63.6026
 20
21.3172
 30
0.000000
  70
    32
  0
VERTEX
  8
SAPA_FOGBAND
  5
27D1
 10
-63.5558
 20
21.4172
 30
0.000000
  70
    32
  0
VERTEX
  8
SAPA_FOGBAND
  5
27D2
 10
-63.5072
 20
21.5109
 30
0.000000
  70
    32
  0
VERTEX
  8
SAPA_FOGBAND
  5
27D3
 10
-63.4569
 20
21.5981
 30
0.000000
  70
    32
  0
VERTEX
  8
SAPA_FOGBAND
  5
27D4
 10
-63.4049
 20
21.6784
 30
0.000000
  70
    32
  0
VERTEX
  8
SAPA_FOGBAND
  5
27D5
 10
-63.3515
 20
21.7517
 30
0.000000
  70
    32
  0
VERTEX
  8
SAPA_FOGBAND
  5
27D6
 10
-63.2967
 20
21.8179
 30
0.000000
  70
    32
  0
VERTEX
  8
SAPA_FOGBAND
  5
27D7
 10
-63.2408
 20
21.8767
 30
0.000000
  70
    32
  0
VERTEX
  8
SAPA_FOGBAND
  5
27D8
 10
-63.1837
 20
21.9280
 30
0.000000
  70
    32
  0
VERTEX
  8
SAPA_FOGBAND
  5
27D9
 10
-63.1257
 20
21.9718
 30
0.000000
  70
    32
  0
VERTEX
  8
SAPA_FOGBAND
  5
27DA
 10
-63.0669
 20
22.0078
 30
0.000000
  70
    32
  0
VERTEX
  8
SAPA_FOGBAND
  5
27DB
 10
-63.0075
 20
22.0361
 30
0.000000
  70
    32
  0
VERTEX
  8
SAPA_FOGBAND
  5
27DC
 10
-62.9475
 20
22.0565
 30
0.000000
  70
    32
  0
VERTEX
  8
SAPA_FOGBAND
  5
27DD
 10
-62.8872
 20
22.0690
 30
0.000000
  70
    32
  0
VERTEX
  8
SAPA_FOGBAND
  5
27DE
 10
-62.8267
 20
22.0736
 30
0.000000
  70
    32
  0
SEQEND
  8
SAPA_FOGBAND
  5
27DF
  0
INSERT
  5
1D7E
  8
SAPA_FOGBAND
  2
BYGG-023125$0$BORST_9
 10
44.49488117955427
 20
21.45890251570005
 30
0.0
 50
270.0
  0
POLYLINE
  5
1D7F
  8
SAPA_FOGBAND
 66
     1
 10
0.0
 20
0.0
 30
0.0
 70
     1
  0
VERTEX
  5
26F5
  8
SAPA_FOGBAND
 10
93.003752012775507
 20
-67.497489716830287
 30
0.0
  0
VERTEX
  5
26F6
  8
SAPA_FOGBAND
 10
93.003752012775507
 20
-68.697489716830333
 30
0.0
 42
0.4142135623730951
  0
VERTEX
  5
26F7
  8
SAPA_FOGBAND
 10
93.303752012775476
 20
-68.997489716830273
 30
0.0
  0
VERTEX
  5
26F8
  8
SAPA_FOGBAND
 10
94.203752012775567
 20
-68.997489716830273
 30
0.0
  0
VERTEX
  5
26F9
  8
SAPA_FOGBAND
 10
94.203752012775567
 20
-68.647489716830151
 30
0.0
 42
-0.6681786379192988
  0
VERTEX
  5
26FA
  8
SAPA_FOGBAND
 10
94.71588404713134
 20
-68.435357682474219
 30
0.0
  0
VERTEX
  5
26FB
  8
SAPA_FOGBAND
 10
95.569437437724673
 20
-69.288911073067439
 30
0.0
 42
-0.1989123673796552
  0
VERTEX
  5
26FC
  8
SAPA_FOGBAND
 10
95.803752012775476
 20
-69.854596498016818
 30
0.0
  0
VERTEX
  5
26FD
  8
SAPA_FOGBAND
 10
95.803752012775476
 20
-70.017291620436609
 30
0.0
 42
-0.3394542588633746
  0
VERTEX
  5
26FE
  8
SAPA_FOGBAND
 10
95.581397726306236
 20
-70.307069368323383
 30
0.0
  0
VERTEX
  5
26FF
  8
SAPA_FOGBAND
 10
94.226106299244748
 20
-70.670218611713281
 30
0.0
 42
0.3394542588633746
  0
VERTEX
  5
2700
  8
SAPA_FOGBAND
 10
94.003752012775536
 20
-70.959996359600055
 30
0.0
  0
VERTEX
  5
2701
  8
SAPA_FOGBAND
 10
94.003752012775536
 20
-73.53498307406052
 30
0.0
 42
0.3394542588633746
  0
VERTEX
  5
2702
  8
SAPA_FOGBAND
 10
94.226106299244748
 20
-73.824760821947294
 30
0.0
  0
VERTEX
  5
2703
  8
SAPA_FOGBAND
 10
95.581397726306236
 20
-74.187910065337192
 30
0.0
 42
-0.3394542588633744
  0
VERTEX
  5
2704
  8
SAPA_FOGBAND
 10
95.803752012775476
 20
-74.477687813223966
 30
0.0
  0
VERTEX
  5
2705
  8
SAPA_FOGBAND
 10
95.803752012775476
 20
-74.640382935643757
 30
0.0
 42
-0.1989123673796526
  0
VERTEX
  5
2706
  8
SAPA_FOGBAND
 10
95.569437437724673
 20
-75.206068360592909
 30
0.0
  0
VERTEX
  5
2707
  8
SAPA_FOGBAND
 10
94.71588404713134
 20
-76.059621751186242
 30
0.0
 42
-0.6681786379193474
  0
VERTEX
  5
2708
  8
SAPA_FOGBAND
 10
94.203752012775567
 20
-75.847489716830424
 30
0.0
  0
VERTEX
  5
2709
  8
SAPA_FOGBAND
 10
94.203752012775567
 20
-75.497489716830287
 30
0.0
  0
VERTEX
  5
270A
  8
SAPA_FOGBAND
 10
93.303752012775476
 20
-75.497489716830287
 30
0.0
 42
0.4142135623730951
  0
VERTEX
  5
270B
  8
SAPA_FOGBAND
 10
93.003752012775507
 20
-75.797489716830242
 30
0.0
  0
VERTEX
  5
270C
  8
SAPA_FOGBAND
 10
93.003752012775507
 20
-77.897489716830378
 30
0.0
 42
0.4142135623730951
  0
VERTEX
  5
270D
  8
SAPA_FOGBAND
 10
93.303752012775476
 20
-78.197489716830333
 30
0.0
  0
VERTEX
  5
270E
  8
SAPA_FOGBAND
 10
94.703752012775567
 20
-78.197489716830333
 30
0.0
 42
-0.7754026414786132
  0
VERTEX
  5
270F
  8
SAPA_FOGBAND
 10
94.848459881081453
 20
-78.760281712238012
 30
0.0
 42
0.1137347954614569
  0
VERTEX
  5
2710
  8
SAPA_FOGBAND
 10
87.371972122756688
 20
-82.910329870828619
 30
0.0
 42
-0.8680589103334746
  0
VERTEX
  5
2711
  8
SAPA_FOGBAND
 10
87.015132220094983
 20
-82.435405841065077
 30
0.0
  0
VERTEX
  5
2712
  8
SAPA_FOGBAND
 10
89.391337909426738
 20
-78.465370443913244
 30
0.0
 42
0.1989123673796536
  0
VERTEX
  5
2713
  8
SAPA_FOGBAND
 10
89.684231128240071
 20
-77.758263662726804
 30
0.0
  0
VERTEX
  5
2714
  8
SAPA_FOGBAND
 10
89.684231128240071
 20
-74.924944698307073
 30
0.0
 42
0.577350269189628
  0
VERTEX
  5
2715
  8
SAPA_FOGBAND
 10
89.234231128240253
 20
-74.665137077171622
 30
0.0
  0
VERTEX
  5
2716
  8
SAPA_FOGBAND
 10
87.381071656697927
 20
-76.803265773583362
 30
0.0
 42
-0.8769764629927301
  0
VERTEX
  5
2717
  8
SAPA_FOGBAND
 10
87.018939622341804
 20
-76.331326118092093
 30
0.0
  0
VERTEX
  5
2718
  8
SAPA_FOGBAND
 10
89.391337909426738
 20
-72.365098123187423
 30
0.0
 42
0.198912367379658
  0
VERTEX
  5
2719
  8
SAPA_FOGBAND
 10
89.684231128240071
 20
-71.657991342000869
 30
0.0
  0
VERTEX
  5
271A
  8
SAPA_FOGBAND
 10
89.684231128240071
 20
-69.425716979779182
 30
0.0
 42
0.5773502691896441
  0
VERTEX
  5
271B
  8
SAPA_FOGBAND
 10
89.234231128240253
 20
-69.165909358643944
 30
0.0
  0
VERTEX
  5
271C
  8
SAPA_FOGBAND
 10
87.381940409878325
 20
-71.303536480173207
 30
0.0
 42
-0.87697646299276
  0
VERTEX
  5
271D
  8
SAPA_FOGBAND
 10
87.019808375522175
 20
-70.831596824681938
 30
0.0
  0
VERTEX
  5
271E
  8
SAPA_FOGBAND
 10
89.467192556740429
 20
-66.790382935643734
 30
0.0
 42
-0.198912367379658
  0
VERTEX
  5
271F
  8
SAPA_FOGBAND
 10
90.174299337926868
 20
-66.497489716830273
 30
0.0
  0
VERTEX
  5
2720
  8
SAPA_FOGBAND
 10
92.003752012775522
 20
-66.497489716830273
 30
0.0
  0
VERTEX
  5
2721
  8
SAPA_FOGBAND
 10
91.993820222462304
 20
-66.497489716830273
 30
0.0
  0
SEQEND
  5
2722
  8
SAPA_FOGBAND
  0
POLYLINE
  5
1D80
  8
SAPA_FOGBAND
 66
     1
 10
0.0
 20
0.0
 30
0.0
 70
     1
  0
VERTEX
  5
2723
  8
SAPA_FOGBAND
 10
59.922613012761303
 20
-66.43717213593915
 30
0.0
 42
0.4142135623730951
  0
VERTEX
  5
2724
  8
SAPA_FOGBAND
 10
58.922613012761303
 20
-67.43717213593915
 30
0.0
  0
VERTEX
  5
2725
  8
SAPA_FOGBAND
 10
58.922613012761303
 20
-68.637172135939196
 30
0.0
 42
-0.4142135623730951
  0
VERTEX
  5
2726
  8
SAPA_FOGBAND
 10
58.622613012761342
 20
-68.93717213593915
 30
0.0
  0
VERTEX
  5
2727
  8
SAPA_FOGBAND
 10
57.722613012761258
 20
-68.93717213593915
 30
0.0
  0
VERTEX
  5
2728
  8
SAPA_FOGBAND
 10
57.722613012761258
 20
-68.587172135939014
 30
0.0
 42
0.6681786379193472
  0
VERTEX
  5
2729
  8
SAPA_FOGBAND
 10
57.210480978405258
 20
-68.375040101583195
 30
0.0
  0
VERTEX
  5
272A
  8
SAPA_FOGBAND
 10
56.356927587811931
 20
-69.228593492176415
 30
0.0
 42
0.1989123673796526
  0
VERTEX
  5
272B
  8
SAPA_FOGBAND
 10
56.122613012761342
 20
-69.794278917125681
 30
0.0
  0
VERTEX
  5
272C
  8
SAPA_FOGBAND
 10
56.122613012761342
 20
-69.956974039545472
 30
0.0
 42
0.3394542588633746
  0
VERTEX
  5
272D
  8
SAPA_FOGBAND
 10
56.344967299230568
 20
-70.246751787432245
 30
0.0
  0
VERTEX
  5
272E
  8
SAPA_FOGBAND
 10
57.700258726292077
 20
-70.609901030822144
 30
0.0
 42
-0.3394542588633744
  0
VERTEX
  5
272F
  8
SAPA_FOGBAND
 10
57.92261301276131
 20
-70.899678778708918
 30
0.0
  0
VERTEX
  5
2730
  8
SAPA_FOGBAND
 10
57.922613012761303
 20
-73.474665493169383
 30
0.0
 42
-0.3394542588633746
  0
VERTEX
  5
2731
  8
SAPA_FOGBAND
 10
57.70025872629207
 20
-73.764443241056156
 30
0.0
  0
VERTEX
  5
2732
  8
SAPA_FOGBAND
 10
56.344967299230568
 20
-74.127592484446041
 30
0.0
 42
0.3394542588633747
  0
VERTEX
  5
2733
  8
SAPA_FOGBAND
 10
56.122613012761342
 20
-74.417370232332814
 30
0.0
  0
VERTEX
  5
2734
  8
SAPA_FOGBAND
 10
56.122613012761342
 20
-74.580065354752605
 30
0.0
 42
0.1989123673796526
  0
VERTEX
  5
2735
  8
SAPA_FOGBAND
 10
56.356927587811917
 20
-75.145750779701984
 30
0.0
  0
VERTEX
  5
2736
  8
SAPA_FOGBAND
 10
57.210480978405251
 20
-75.99930417029509
 30
0.0
 42
0.6681786379193474
  0
VERTEX
  5
2737
  8
SAPA_FOGBAND
 10
57.722613012761251
 20
-75.787172135939286
 30
0.0
  0
VERTEX
  5
2738
  8
SAPA_FOGBAND
 10
57.722613012761251
 20
-75.43717213593915
 30
0.0
  0
VERTEX
  5
2739
  8
SAPA_FOGBAND
 10
58.622613012761342
 20
-75.43717213593915
 30
0.0
 42
-0.4142135623730951
  0
VERTEX
  5
273A
  8
SAPA_FOGBAND
 10
58.922613012761289
 20
-75.737172135939105
 30
0.0
  0
VERTEX
  5
273B
  8
SAPA_FOGBAND
 10
58.922613012761289
 20
-77.837172135939241
 30
0.0
 42
-0.4142135623730951
  0
VERTEX
  5
273C
  8
SAPA_FOGBAND
 10
58.622613012761342
 20
-78.137172135939196
 30
0.0
  0
VERTEX
  5
273D
  8
SAPA_FOGBAND
 10
57.222613012761251
 20
-78.137172135939181
 30
0.0
 42
0.7754026414785753
  0
VERTEX
  5
273E
  8
SAPA_FOGBAND
 10
57.077905144455357
 20
-78.69996413134686
 30
0.0
  0
VERTEX
  5
273F
  8
SAPA_FOGBAND
 10
62.461010917041207
 20
-82.219666641892218
 30
0.0
 42
0.8680589103334742
  0
VERTEX
  5
2740
  8
SAPA_FOGBAND
 10
62.817850819702919
 20
-81.744742612128704
 30
0.0
  0
VERTEX
  5
2741
  8
SAPA_FOGBAND
 10
60.715506231574629
 20
-78.405052863022334
 30
0.0
 42
-0.198912367379658
  0
VERTEX
  5
2742
  8
SAPA_FOGBAND
 10
60.422613012761303
 20
-77.697946081835667
 30
0.0
  0
VERTEX
  5
2743
  8
SAPA_FOGBAND
 10
60.422613012761303
 20
-74.864627117415935
 30
0.0
 42
-0.5773502691896282
  0
VERTEX
  5
2744
  8
SAPA_FOGBAND
 10
60.872613012761342
 20
-74.604819496280712
 30
0.0
  0
VERTEX
  5
2745
  8
SAPA_FOGBAND
 10
62.451911383099961
 20
-76.112602544646975
 30
0.0
 42
0.8769764629927299
  0
VERTEX
  5
2746
  8
SAPA_FOGBAND
 10
62.814043417456091
 20
-75.640662889155706
 30
0.0
  0
VERTEX
  5
2747
  8
SAPA_FOGBAND
 10
60.715506231574629
 20
-72.304780542296399
 30
0.0
 42
-0.198912367379658
  0
VERTEX
  5
2748
  8
SAPA_FOGBAND
 10
60.42261301276131
 20
-71.597673761109732
 30
0.0
  0
VERTEX
  5
2749
  8
SAPA_FOGBAND
 10
60.42261301276131
 20
-69.365399398888158
 30
0.0
 42
-0.5773502691896282
  0
VERTEX
  5
274A
  8
SAPA_FOGBAND
 10
60.872613012761349
 20
-69.105591777752821
 30
0.0
  0
VERTEX
  5
274B
  8
SAPA_FOGBAND
 10
62.451042629919577
 20
-70.612873251236593
 30
0.0
 42
0.8769764629927299
  0
VERTEX
  5
274C
  8
SAPA_FOGBAND
 10
62.813174664275721
 20
-70.140933595745324
 30
0.0
  0
VERTEX
  5
274D
  8
SAPA_FOGBAND
 10
60.639651584260939
 20
-66.730065354752711
 30
0.0
 42
0.198912367379658
  0
VERTEX
  5
274E
  8
SAPA_FOGBAND
 10
59.932544803074506
 20
-66.43717213593915
 30
0.0
  0
SEQEND
  5
274F
  8
SAPA_FOGBAND
  0
DIMENSION
  5
1D87
  8
SAPA_MATT
  2
*D102
 10
104.4999999999964
 20
42.565135778491793
 30
0.0
 11
79.49999999999639
 21
45.065135778491793
 31
0.0
 70
     0
 13
54.499999999996362
 23
-0.2999996264621885
 33
0.0
 14
104.4999999999964
 24
-0.2999996264621885
 34
0.0
1001
ACAD
1000
DSTYLE
1002
{
1070
   287
1070
     4
1070
    40
1040
1.0
1070
   279
1070
     1
1002
}
  0
DIMENSION
  5
1D88
  8
SAPA_MATT
  2
*D101
 10
54.499999999996362
 20
42.549455851048371
 30
0.0
 11
49.49999999999639
 21
45.049455851048371
 31
0.0
 70
     0
 13
44.499999999996419
 23
24.500000373538111
 33
0.0
 14
54.499999999996362
 24
-0.2999996264621885
 34
0.0
1001
ACAD
1000
DSTYLE
1002
{
1070
    40
1040
1.0
1002
}
  0
VIEWPORT
  5
C4
 67
     1
  8
0
 10
160.5543545598442
 20
116.00969601843509
 30
0.0
 40
404.96977709277462
 41
256.8421457311839
 68
     1
 69
     1
1001
ACAD
1000
MVIEW
1002
{
1070
    16
1010
0.0
1020
0.0
1030
0.0
1010
0.0
1020
0.0
1030
1.0
1040
0.0
1040
256.8421457311839
1040
99.206250190734863
1040
130.70624923706049
1040
50.0
1040
0.0
1040
0.0
1070
     0
1070
     0
1070
     1
1070
     1
1070
     0
1070
     0
1070
     0
1070
     0
1040
0.0
1040
0.0
1040
0.0
1040
10.0
1040
10.0
1040
10.0
1040
10.0
1070
     0
1002
{
1002
}
1002
}
  0
ENDSEC
  0
EOF
