  0
SECTION
  2
HEADER
  9
$ACADVER
  1
AC1009
  9
$INSBASE
 10
0.0
 20
0.0
 30
0.0
  9
$EXTMIN
 10
-140.1199098731158
 20
-87.999999999986755
 30
0.0
  9
$EXTMAX
 10
167.85273728745341
 20
75.585729413463525
 30
0.0
  9
$LIMMIN
 10
0.0
 20
0.0
  9
$LIMMAX
 10
790.0
 20
790.0
  9
$ORTHOMODE
 70
     1
  9
$REGENMODE
 70
     1
  9
$FILLMODE
 70
     1
  9
$QTEXTMODE
 70
     0
  9
$MIRRTEXT
 70
     1
  9
$DRAGMODE
 70
     2
  9
$LTSCALE
 40
4.0
  9
$OSMODE
 70
   167
  9
$ATTMODE
 70
     1
  9
$TEXTSIZE
 40
3.5
  9
$TRACEWID
 40
0.05
  9
$TEXTSTYLE
  7
ISO
  9
$CLAYER
  8
0
  9
$CELTYPE
  6
BYLAYER
  9
$CECOLOR
 62
   256
  9
$DIMSCALE
 40
0.0
  9
$DIMASZ
 40
3.0
  9
$DIMEXO
 40
1.5
  9
$DIMDLI
 40
10.0
  9
$DIMRND
 40
0.0
  9
$DIMDLE
 40
0.0
  9
$DIMEXE
 40
1.5
  9
$DIMTP
 40
0.0
  9
$DIMTM
 40
0.0
  9
$DIMTXT
 40
3.5
  9
$DIMCEN
 40
-5.0
  9
$DIMTSZ
 40
0.0
  9
$DIMTOL
 70
     0
  9
$DIMLIM
 70
     0
  9
$DIMTIH
 70
     0
  9
$DIMTOH
 70
     0
  9
$DIMSE1
 70
     0
  9
$DIMSE2
 70
     0
  9
$DIMTAD
 70
     1
  9
$DIMZIN
 70
     8
  9
$DIMBLK
  1

  9
$DIMASO
 70
     1
  9
$DIMSHO
 70
     1
  9
$DIMPOST
  1

  9
$DIMAPOST
  1

  9
$DIMALT
 70
     0
  9
$DIMALTD
 70
     0
  9
$DIMALTF
 40
25.399999999999999
  9
$DIMLFAC
 40
-1.0
  9
$DIMTOFL
 70
     1
  9
$DIMTVP
 40
0.0
  9
$DIMTIX
 70
     0
  9
$DIMSOXD
 70
     0
  9
$DIMSAH
 70
     0
  9
$DIMBLK1
  1

  9
$DIMBLK2
  1

  9
$DIMSTYLE
  2
MASKIN
  9
$DIMCLRD
 70
   256
  9
$DIMCLRE
 70
   256
  9
$DIMCLRT
 70
     2
  9
$DIMTFAC
 40
1.0
  9
$DIMGAP
 40
1.0
  9
$LUNITS
 70
     2
  9
$LUPREC
 70
     8
  9
$SKETCHINC
 40
0.1
  9
$FILLETRAD
 40
0.0
  9
$AUNITS
 70
     0
  9
$AUPREC
 70
     8
  9
$MENU
  1
ACAD
  9
$ELEVATION
 40
0.0
  9
$PELEVATION
 40
0.0
  9
$THICKNESS
 40
0.0
  9
$LIMCHECK
 70
     0
  9
$BLIPMODE
 70
     0
  9
$CHAMFERA
 40
0.0
  9
$CHAMFERB
 40
0.0
  9
$SKPOLY
 70
     0
  9
$TDCREATE
 40
2454979.6812964352
  9
$TDUPDATE
 40
2456517.6793220262
  9
$TDINDWG
 40
0.0227997106
  9
$TDUSRTIMER
 40
0.0227997106
  9
$USRTIMER
 70
     1
  9
$ANGBASE
 50
0.0
  9
$ANGDIR
 70
     0
  9
$PDMODE
 70
     0
  9
$PDSIZE
 40
0.0
  9
$PLINEWID
 40
0.0
  9
$COORDS
 70
     1
  9
$SPLFRAME
 70
     0
  9
$SPLINETYPE
 70
     6
  9
$SPLINESEGS
 70
     8
  9
$ATTDIA
 70
     0
  9
$ATTREQ
 70
     1
  9
$HANDLING
 70
     1
  9
$HANDSEED
  5
2148
  9
$SURFTAB1
 70
     6
  9
$SURFTAB2
 70
     6
  9
$SURFTYPE
 70
     6
  9
$SURFU
 70
     6
  9
$SURFV
 70
     6
  9
$UCSNAME
  2

  9
$UCSORG
 10
0.0
 20
0.0
 30
0.0
  9
$UCSXDIR
 10
1.0
 20
0.0
 30
0.0
  9
$UCSYDIR
 10
0.0
 20
1.0
 30
0.0
  9
$PUCSNAME
  2

  9
$PUCSORG
 10
0.0
 20
0.0
 30
0.0
  9
$PUCSXDIR
 10
1.0
 20
0.0
 30
0.0
  9
$PUCSYDIR
 10
0.0
 20
1.0
 30
0.0
  9
$USERI1
 70
     0
  9
$USERI2
 70
     0
  9
$USERI3
 70
     0
  9
$USERI4
 70
     0
  9
$USERI5
 70
     0
  9
$USERR1
 40
0.0
  9
$USERR2
 40
0.0
  9
$USERR3
 40
0.0
  9
$USERR4
 40
0.0
  9
$USERR5
 40
0.0
  9
$WORLDVIEW
 70
     1
  9
$SHADEDGE
 70
     3
  9
$SHADEDIF
 70
    70
  9
$TILEMODE
 70
     1
  9
$MAXACTVP
 70
    16
  9
$PLIMCHECK
 70
     0
  9
$PEXTMIN
 10
1.0000000000000000E+020
 20
1.0000000000000000E+020
 30
1.0000000000000000E+020
  9
$PEXTMAX
 10
-1.0000000000000000E+020
 20
-1.0000000000000000E+020
 30
-1.0000000000000000E+020
  9
$PLIMMIN
 10
-5.069427490234375
 20
-5.8737497329711914
  9
$PLIMMAX
 10
291.89889526367187
 20
204.0995779037475
  9
$UNITMODE
 70
     0
  9
$VISRETAIN
 70
     1
  9
$PLINEGEN
 70
     0
  9
$PSLTSCALE
 70
     1
  0
ENDSEC
  0
SECTION
  2
TABLES
  0
TABLE
  2
VPORT
 70
     1
  0
VPORT
  2
*ACTIVE
 70
     0
 10
0.0
 20
0.0
 11
1.0
 21
1.0
 12
14.45074643571138
 22
39.193045020900612
 13
0.0
 23
0.0
 14
1.0
 24
1.0
 15
0.0
 25
0.0
 16
0.0
 26
0.0
 36
1.0
 17
0.0
 27
0.0
 37
0.0
 40
187.796579954734
 41
2.112307692307692
 42
50.0
 43
0.0
 44
0.0
 50
0.0
 51
0.0
 71
     0
 72
   100
 73
     1
 74
     1
 75
     0
 76
     0
 77
     0
 78
     0
  0
ENDTAB
  0
TABLE
  2
LTYPE
 70
    45
  0
LTYPE
  2
CONTINUOUS
 70
     0
  3
Solid line
 72
    65
 73
     0
 40
0.0
  0
LTYPE
  2
BYGG-01482201$0$NEWDOT
 70
     0
  3
____ . ____ . ____ . ____ . ____ . ____ . ____
 72
    65
 73
     4
 40
2.0
 49
1.0
 49
-0.5
 49
0.0
 49
-0.5
  0
LTYPE
  2
BYGG-023714$0$NEWDOT
 70
     0
  3
____ . ____ . ____ . ____ . ____ . ____ . ____
 72
    65
 73
     4
 40
2.0
 49
1.0
 49
-0.5
 49
0.0
 49
-0.5
  0
LTYPE
  2
BYGG-023714$0$DASHDOT
 70
     0
  3
__ . __ . __ . __ . __ . __ . __ . __ . __ . __
 72
    65
 73
     4
 40
1.0
 49
0.5
 49
-0.25
 49
0.0
 49
-0.25
  0
LTYPE
  2
BYGG-023714$0$DASHED
 70
     0
  3
__ __ __ __ __ __ __ __ __ __ __ __ __ __ __
 72
    65
 73
     2
 40
0.75
 49
0.5
 49
-0.25
  0
LTYPE
  2
BYGG-023714$0$PHANTOM
 70
     0
  3
Phantom ______  __  __  ______  __  __  ______
 72
    65
 73
     6
 40
63.5
 49
31.75
 49
-6.3499999999999988
 49
6.3499999999999988
 49
-6.3499999999999988
 49
6.3499999999999988
 49
-6.3499999999999988
  0
LTYPE
  2
BYGG-014279$0$NEWDOT
 70
     0
  3
____ . ____ . ____ . ____ . ____ . ____ . ____
 72
    65
 73
     4
 40
2.0
 49
1.0
 49
-0.5
 49
0.0
 49
-0.5
  0
LTYPE
  2
BYGG-01482201$0$ZIGZAG
 70
     0
  3
Zig zag /\/\/\/\/\/\/\/\/\/\/\/\/\/\/\/\/\/\/\/\/\/\/\/
 72
    65
 73
     4
 40
20.32254
 49
0.00254
 49
-5.0800000000000001
 49
-10.16
 49
-5.0800000000000001
  0
LTYPE
  2
BYGG-023714$0$ZIGZAG
 70
     0
  3
Zig zag /\/\/\/\/\/\/\/\/\/\/\/\/\/\/\/\/\/\/\/\/\/\/\/
 72
    65
 73
     4
 40
20.32254
 49
0.00254
 49
-5.0800000000000001
 49
-10.16
 49
-5.0800000000000001
  0
LTYPE
  2
BYGG-020805$0$NEWDOT
 70
     0
  3
____ . ____ . ____ . ____ . ____ . ____ . ____
 72
    65
 73
     4
 40
2.0
 49
1.0
 49
-0.5
 49
0.0
 49
-0.5
  0
LTYPE
  2
BYGG-020805$0$DASHDOT
 70
     0
  3
__ . __ . __ . __ . __ . __ . __ . __ . __ . __
 72
    65
 73
     4
 40
1.0
 49
0.5
 49
-0.25
 49
0.0
 49
-0.25
  0
LTYPE
  2
BYGG-020805$0$DASHED
 70
     0
  3
__ __ __ __ __ __ __ __ __ __ __ __ __ __ __
 72
    65
 73
     2
 40
0.75
 49
0.5
 49
-0.25
  0
LTYPE
  2
BYGG-020805$0$PHANTOM
 70
     0
  3
Phantom ______  __  __  ______  __  __  ______
 72
    65
 73
     6
 40
63.5
 49
31.75
 49
-6.3499999999999988
 49
6.3499999999999988
 49
-6.3499999999999988
 49
6.3499999999999988
 49
-6.3499999999999988
  0
LTYPE
  2
BYGG-014279$0$ZIGZAG
 70
     0
  3
Zig zag /\/\/\/\/\/\/\/\/\/\/\/\/\/\/\/\/\/\/\/\/\/\/\/
 72
    65
 73
     4
 40
20.32254
 49
0.00254
 49
-5.0800000000000001
 49
-10.16
 49
-5.0800000000000001
  0
LTYPE
  2
BYGG-014495$0$DASHDOT
 70
     0
  3
__ . __ . __ . __ . __ . __ . __ . __ . __ . __
 72
    65
 73
     4
 40
1.0
 49
0.5
 49
-0.25
 49
0.0
 49
-0.25
  0
LTYPE
  2
BYGG-028025$0$NEWDOT
 70
     0
  3
____ . ____ . ____ . ____ . ____ . ____ . ____
 72
    65
 73
     4
 40
2.0
 49
1.0
 49
-0.5
 49
0.0
 49
-0.5
  0
LTYPE
  2
BYGG-028025$0$DASHDOT
 70
     0
  3
__ . __ . __ . __ . __ . __ . __ . __ . __ . __
 72
    65
 73
     4
 40
1.0
 49
0.5
 49
-0.25
 49
0.0
 49
-0.25
  0
LTYPE
  2
BYGG-028025$0$DASHED
 70
     0
  3
__ __ __ __ __ __ __ __ __ __ __ __ __ __ __
 72
    65
 73
     2
 40
0.75
 49
0.5
 49
-0.25
  0
LTYPE
  2
BYGG-028025$0$PHANTOM
 70
     0
  3
Phantom ______  __  __  ______  __  __  ______
 72
    65
 73
     6
 40
63.5
 49
31.75
 49
-6.3499999999999988
 49
6.3499999999999988
 49
-6.3499999999999988
 49
6.3499999999999988
 49
-6.3499999999999988
  0
LTYPE
  2
BYGG-028946$0$NEWDOT
 70
     0
  3
____ . ____ . ____ . ____ . ____ . ____ . ____
 72
    65
 73
     4
 40
2.0
 49
1.0
 49
-0.5
 49
0.0
 49
-0.5
  0
LTYPE
  2
BYGG-028946$0$DASHDOT
 70
     0
  3
__ . __ . __ . __ . __ . __ . __ . __ . __ . __
 72
    65
 73
     4
 40
1.0
 49
0.5
 49
-0.25
 49
0.0
 49
-0.25
  0
LTYPE
  2
BYGG-028946$0$DASHED
 70
     0
  3
__ __ __ __ __ __ __ __ __ __ __ __ __ __ __
 72
    65
 73
     2
 40
0.75
 49
0.5
 49
-0.25
  0
LTYPE
  2
BYGG-028946$0$PHANTOM
 70
     0
  3
Phantom ______  __  __  ______  __  __  ______
 72
    65
 73
     6
 40
63.5
 49
31.75
 49
-6.3499999999999988
 49
6.3499999999999988
 49
-6.3499999999999988
 49
6.3499999999999988
 49
-6.3499999999999988
  0
LTYPE
  2
BYGG-028946$0$ZIGZAG
 70
     0
  3
Zig zag /\/\/\/\/\/\/\/\/\/\/\/\/\/\/\/\/\/\/\/\/\/\/\/
 72
    65
 73
     4
 40
20.32254
 49
0.00254
 49
-5.0800000000000001
 49
-10.16
 49
-5.0800000000000001
  0
LTYPE
  2
BYGG-028947$0$NEWDOT
 70
     0
  3
____ . ____ . ____ . ____ . ____ . ____ . ____
 72
    65
 73
     4
 40
2.0
 49
1.0
 49
-0.5
 49
0.0
 49
-0.5
  0
LTYPE
  2
BYGG-028947$0$DASHDOT
 70
     0
  3
__ . __ . __ . __ . __ . __ . __ . __ . __ . __
 72
    65
 73
     4
 40
1.0
 49
0.5
 49
-0.25
 49
0.0
 49
-0.25
  0
LTYPE
  2
BYGG-028947$0$DASHED
 70
     0
  3
__ __ __ __ __ __ __ __ __ __ __ __ __ __ __
 72
    65
 73
     2
 40
0.75
 49
0.5
 49
-0.25
  0
LTYPE
  2
BYGG-028947$0$PHANTOM
 70
     0
  3
Phantom ______  __  __  ______  __  __  ______
 72
    65
 73
     6
 40
63.5
 49
31.75
 49
-6.3499999999999988
 49
6.3499999999999988
 49
-6.3499999999999988
 49
6.3499999999999988
 49
-6.3499999999999988
  0
LTYPE
  2
BYGG-028947$0$ZIGZAG
 70
     0
  3
Zig zag /\/\/\/\/\/\/\/\/\/\/\/\/\/\/\/\/\/\/\/\/\/\/\/
 72
    65
 73
     4
 40
20.32254
 49
0.00254
 49
-5.0800000000000001
 49
-10.16
 49
-5.0800000000000001
  0
LTYPE
  2
BYGG-014413$0$NEWDOT
 70
     0
  3
____ . ____ . ____ . ____ . ____ . ____ . ____
 72
    65
 73
     4
 40
2.0
 49
1.0
 49
-0.5
 49
0.0
 49
-0.5
  0
LTYPE
  2
BYGG-014413$0$ZIGZAG
 70
     0
  3
Zig zag /\/\/\/\/\/\/\/\/\/\/\/\/\/\/\/\/\/\/\/\/\/\/\/
 72
    65
 73
     4
 40
20.32254
 49
0.00254
 49
-5.0800000000000001
 49
-10.16
 49
-5.0800000000000001
  0
LTYPE
  2
BYGG-025725$0$NEWDOT
 70
     0
  3
____ . ____ . ____ . ____ . ____ . ____ . ____
 72
    65
 73
     4
 40
2.0
 49
1.0
 49
-0.5
 49
0.0
 49
-0.5
  0
LTYPE
  2
BYGG-025725$0$DASHDOT
 70
     0
  3
__ . __ . __ . __ . __ . __ . __ . __ . __ . __
 72
    65
 73
     4
 40
1.0
 49
0.5
 49
-0.25
 49
0.0
 49
-0.25
  0
LTYPE
  2
BYGG-025725$0$DASHED
 70
     0
  3
__ __ __ __ __ __ __ __ __ __ __ __ __ __ __
 72
    65
 73
     2
 40
0.75
 49
0.5
 49
-0.25
  0
LTYPE
  2
BYGG-025725$0$PHANTOM
 70
     0
  3
Phantom ______  __  __  ______  __  __  ______
 72
    65
 73
     6
 40
63.5
 49
31.75
 49
-6.3499999999999988
 49
6.3499999999999988
 49
-6.3499999999999988
 49
6.3499999999999988
 49
-6.3499999999999988
  0
LTYPE
  2
BYGG-025114$0$NEWDOT
 70
     0
  3
____ . ____ . ____ . ____ . ____ . ____ . ____
 72
    65
 73
     4
 40
2.0
 49
1.0
 49
-0.5
 49
0.0
 49
-0.5
  0
LTYPE
  2
BYGG-025114$0$DASHDOT
 70
     0
  3
__ . __ . __ . __ . __ . __ . __ . __ . __ . __
 72
    65
 73
     4
 40
1.0
 49
0.5
 49
-0.25
 49
0.0
 49
-0.25
  0
LTYPE
  2
BYGG-025114$0$DASHED
 70
     0
  3
__ __ __ __ __ __ __ __ __ __ __ __ __ __ __
 72
    65
 73
     2
 40
0.75
 49
0.5
 49
-0.25
  0
LTYPE
  2
BYGG-025114$0$PHANTOM
 70
     0
  3
Phantom ______  __  __  ______  __  __  ______
 72
    65
 73
     6
 40
63.5
 49
31.75
 49
-6.3499999999999988
 49
6.3499999999999988
 49
-6.3499999999999988
 49
6.3499999999999988
 49
-6.3499999999999988
  0
LTYPE
  2
BYGG-028946$0$PHANTOM2
 70
     0
  3
Phantom (.5x) ___ _ _ ___ _ _ ___ _ _ ___ _ _
 72
    65
 73
     6
 40
1.25
 49
0.625
 49
-0.125
 49
0.125
 49
-0.125
 49
0.125
 49
-0.125
  0
ENDTAB
  0
TABLE
  2
LAYER
 70
   272
  0
LAYER
  2
0
 70
     0
 62
     7
  6
CONTINUOUS
  0
LAYER
  2
DEFPOINTS
 70
     0
 62
     7
  6
CONTINUOUS
  0
LAYER
  2
SAPA_FYLLNING
 70
     0
 62
     4
  6
CONTINUOUS
  0
LAYER
  2
SAPA_LIGHT
 70
     1
 62
     1
  6
CONTINUOUS
  0
LAYER
  2
SAPA_ARTIKELNR
 70
     0
 62
     4
  6
CONTINUOUS
  0
LAYER
  2
SAPA_ANSLUTNING
 70
     0
 62
     6
  6
CONTINUOUS
  0
LAYER
  2
SAPA_PROFIL
 70
     0
 62
     7
  6
CONTINUOUS
  0
LAYER
  2
BYGG-023125$0$LIST
 70
     0
 62
     2
  6
CONTINUOUS
  0
LAYER
  2
SAPA_ISOLATOR
 70
     0
 62
     4
  6
CONTINUOUS
  0
LAYER
  2
SAPA_MATT
 70
     0
 62
     1
  6
CONTINUOUS
  0
LAYER
  2
SAPA_GLAS
 70
     0
 62
     4
  6
CONTINUOUS
  0
LAYER
  2
SAPA_FOGBAND
 70
     0
 62
     2
  6
CONTINUOUS
  0
ENDTAB
  0
TABLE
  2
STYLE
 70
    53
  0
STYLE
  2
STANDARD
 70
     0
 40
0.0
 41
1.0
 50
0.0
 71
     0
 42
0.2
  3
txt
  4

  0
STYLE
  2
ISO
 70
     0
 40
0.0
 41
1.0
 50
0.0
 71
     0
 42
3.5
  3
txt
  4

  0
STYLE
  2

 70
     1
 40
0.0
 41
1.0
 50
0.0
 71
     0
 42
0.2
  3
ltypeshp.shx
  4

  0
STYLE
  2
BYGG-021589$0$STANDARD
 70
     0
 40
0.0
 41
1.0
 50
0.0
 71
     0
 42
0.2
  3
txt
  4

  0
STYLE
  2
BYGG-021589$0$ISO
 70
     0
 40
0.0
 41
1.0
 50
0.0
 71
     0
 42
3.5
  3
isocp3.shx
  4

  0
STYLE
  2
BYGG-01482201$0$STANDARD
 70
     0
 40
0.0
 41
1.0
 50
0.0
 71
     0
 42
0.2
  3
txt
  4

  0
STYLE
  2
BYGG-01482201$0$ISO
 70
     0
 40
0.0
 41
1.0
 50
0.0
 71
     0
 42
3.5
  3
isocp3.shx
  4

  0
STYLE
  2
BYGG-023940$0$STANDARD
 70
     0
 40
0.0
 41
1.0
 50
0.0
 71
     0
 42
0.2
  3
txt
  4

  0
STYLE
  2
BYGG-023940$0$ISO
 70
     0
 40
0.0
 41
1.0
 50
0.0
 71
     0
 42
3.5
  3
txt
  4

  0
STYLE
  2
BYGG-025110$0$STANDARD
 70
     0
 40
0.0
 41
1.0
 50
0.0
 71
     0
 42
0.2
  3
txt
  4

  0
STYLE
  2
BYGG-025110$0$ISO
 70
     0
 40
0.0
 41
1.0
 50
0.0
 71
     0
 42
3.5
  3
txt
  4

  0
STYLE
  2
BYGG-014117$0$STANDARD
 70
     0
 40
0.0
 41
1.0
 50
0.0
 71
     0
 42
0.2
  3
txt
  4

  0
STYLE
  2
BYGG-014117$0$ISO
 70
     0
 40
0.0
 41
1.0
 50
0.0
 71
     0
 42
3.5
  3
isocp3.shx
  4

  0
STYLE
  2
BYGG-022681$0$STANDARD
 70
     0
 40
0.0
 41
1.0
 50
0.0
 71
     0
 42
0.2
  3
txt
  4

  0
STYLE
  2
BYGG-022681$0$ISO
 70
     0
 40
0.0
 41
1.0
 50
0.0
 71
     0
 42
3.5
  3
txt
  4

  0
STYLE
  2
BYGG-014306$0$STANDARD
 70
     0
 40
0.0
 41
1.0
 50
0.0
 71
     0
 42
0.2
  3
txt
  4

  0
STYLE
  2
BYGG-021582$0$STANDARD
 70
     0
 40
0.0
 41
1.0
 50
0.0
 71
     0
 42
0.2
  3
txt
  4

  0
STYLE
  2
BYGG-021582$0$ISO
 70
     0
 40
0.0
 41
1.0
 50
0.0
 71
     0
 42
3.5
  3
isocp3.shx
  4

  0
STYLE
  2
BYGG-014279$0$STANDARD
 70
     0
 40
0.0
 41
1.0
 50
0.0
 71
     0
 42
0.2
  3
TXT.shx
  4

  0
STYLE
  2
BYGG-014279$0$ISO
 70
     0
 40
0.0
 41
1.0
 50
0.0
 71
     0
 42
3.5
  3
iso
  4

  0
STYLE
  2
BYGG-020805$0$STANDARD
 70
     0
 40
0.0
 41
1.0
 50
0.0
 71
     0
 42
0.2
  3
txt
  4

  0
STYLE
  2
BYGG-020805$0$ISO
 70
     0
 40
0.0
 41
1.0
 50
0.0
 71
     0
 42
3.5
  3
txt
  4

  0
STYLE
  2
BYGG-023717$0$STANDARD
 70
     0
 40
0.0
 41
1.0
 50
0.0
 71
     0
 42
0.2
  3
txt
  4

  0
STYLE
  2
BYGG-023717$0$ISO
 70
     0
 40
0.0
 41
1.0
 50
0.0
 71
     0
 42
3.5
  3
txt
  4

  0
STYLE
  2
BYGG-023714$0$STANDARD
 70
     0
 40
0.0
 41
1.0
 50
0.0
 71
     0
 42
0.2
  3
txt
  4

  0
STYLE
  2
BYGG-023714$0$ISO
 70
     0
 40
0.0
 41
1.0
 50
0.0
 71
     0
 42
3.5
  3
txt
  4

  0
STYLE
  2
BYGG-019338$0$STANDARD
 70
     0
 40
0.0
 41
1.0
 50
0.0
 71
     0
 42
0.2
  3
txt
  4

  0
STYLE
  2
BYGG-019338$0$ISO
 70
     0
 40
0.0
 41
1.0
 50
0.0
 71
     0
 42
3.5
  3
txt
  4

  0
STYLE
  2
BYGG-023125$0$STANDARD
 70
     0
 40
0.0
 41
1.0
 50
0.0
 71
     0
 42
0.2
  3
txt
  4

  0
STYLE
  2
BYGG-023125$0$ISO
 70
     0
 40
0.0
 41
1.0
 50
0.0
 71
     0
 42
3.5
  3
txt
  4

  0
STYLE
  2
BYGG-014495$0$STANDARD
 70
     0
 40
0.0
 41
1.0
 50
0.0
 71
     0
 42
0.2
  3
txt
  4

  0
STYLE
  2
BYGG-014495$0$ISO
 70
     0
 40
0.0
 41
1.0
 50
0.0
 71
     0
 42
3.5
  3
isocp3.shx
  4

  0
STYLE
  2
BYGG-029016$0$STANDARD
 70
     0
 40
0.0
 41
1.0
 50
0.0
 71
     0
 42
0.2
  3
txt
  4

  0
STYLE
  2
BYGG-029016$0$ISO
 70
     0
 40
0.0
 41
1.0
 50
0.0
 71
     0
 42
3.5
  3
txt
  4

  0
STYLE
  2
BYGG-028946$0$STANDARD
 70
     0
 40
0.0
 41
1.0
 50
0.0
 71
     0
 42
0.2
  3
txt
  4

  0
STYLE
  2
BYGG-028946$0$ISO
 70
     0
 40
0.0
 41
1.0
 50
0.0
 71
     0
 42
3.5
  3
txt
  4

  0
STYLE
  2
BYGG-028946$0$ANNOTATIVE
 70
     0
 40
0.0
 41
1.0
 50
0.0
 71
     0
 42
0.2
  3
txt
  4

  0
STYLE
  2
BYGG-028947$0$STANDARD
 70
     0
 40
0.0
 41
1.0
 50
0.0
 71
     0
 42
0.2
  3
txt
  4

  0
STYLE
  2
BYGG-028947$0$ISO
 70
     0
 40
0.0
 41
1.0
 50
0.0
 71
     0
 42
3.5
  3
txt
  4

  0
STYLE
  2
BYGG-024973$0$STANDARD
 70
     0
 40
0.0
 41
1.0
 50
0.0
 71
     0
 42
0.2
  3
txt
  4

  0
STYLE
  2
BYGG-024973$0$ISO
 70
     0
 40
0.0
 41
1.0
 50
0.0
 71
     0
 42
3.5
  3
txt
  4

  0
STYLE
  2
BYGG-025081$0$STANDARD
 70
     0
 40
0.0
 41
1.0
 50
0.0
 71
     0
 42
0.2
  3
txt
  4

  0
STYLE
  2
BYGG-025081$0$ISO
 70
     0
 40
0.0
 41
1.0
 50
0.0
 71
     0
 42
3.5
  3
txt
  4

  0
STYLE
  2
BYGG-028025$0$STANDARD
 70
     0
 40
0.0
 41
1.0
 50
0.0
 71
     0
 42
0.2
  3
txt
  4

  0
STYLE
  2
BYGG-028025$0$ISO
 70
     0
 40
0.0
 41
1.0
 50
0.0
 71
     0
 42
3.5
  3
txt
  4

  0
STYLE
  2
BYGG-021409$0$STANDARD
 70
     0
 40
0.0
 41
1.0
 50
0.0
 71
     0
 42
0.2
  3
txt
  4

  0
STYLE
  2
BYGG-021409$0$ISO
 70
     0
 40
0.0
 41
1.0
 50
0.0
 71
     0
 42
3.5
  3
txt
  4

  0
STYLE
  2
BYGG-014413$0$STANDARD
 70
     0
 40
0.0
 41
1.0
 50
0.0
 71
     0
 42
0.2
  3
txt
  4

  0
STYLE
  2
BYGG-014413$0$ISO
 70
     0
 40
0.0
 41
1.0
 50
0.0
 71
     0
 42
3.5
  3
isocp3.shx
  4

  0
STYLE
  2
BYGG-025725$0$STANDARD
 70
     0
 40
0.0
 41
1.0
 50
0.0
 71
     0
 42
0.2
  3
txt
  4

  0
STYLE
  2
BYGG-025725$0$ISO
 70
     0
 40
0.0
 41
1.0
 50
0.0
 71
     0
 42
3.5
  3
txt
  4

  0
STYLE
  2
BYGG-025114$0$STANDARD
 70
     0
 40
0.0
 41
1.0
 50
0.0
 71
     0
 42
0.2
  3
txt
  4

  0
STYLE
  2
BYGG-025114$0$ISO
 70
     0
 40
0.0
 41
1.0
 50
0.0
 71
     0
 42
3.5
  3
txt
  4

  0
ENDTAB
  0
TABLE
  2
VIEW
 70
     0
  0
ENDTAB
  0
TABLE
  2
UCS
 70
     0
  0
ENDTAB
  0
TABLE
  2
APPID
 70
    25
  0
APPID
  2
ACAD
 70
     0
  0
APPID
  2
ACAD_DSTYLE_DIMTEXT_FILL
 70
     0
  0
APPID
  2
ACAD_DSTYLE_DIMEXT_LENGTH
 70
     0
  0
APPID
  2
ACAD_DSTYLE_DIMEXT_ENABLED
 70
     0
  0
APPID
  2
ACAD_DSTYLE_DIM_LINETYPE
 70
     0
  0
APPID
  2
ACAD_DSTYLE_DIM_EXT1_LINETYPE
 70
     0
  0
APPID
  2
ACAD_DSTYLE_DIM_EXT2_LINETYPE
 70
     0
  0
APPID
  2
ACAD_DSTYLE_DIMJOGGED_JOGA
 70
     0
  0
APPID
  2
ACAD_DSTYLE_DIMARC_LENGTH_
 70
     0
  0
APPID
  2
ACAD_PSEXT
 70
     0
  0
APPID
  2
ACAD_MLEADERVER
 70
     0
  0
APPID
  2
AMG_ARCHIVE11
 70
     0
  0
APPID
  2
ACADANNOTATIVE
 70
     0
  0
APPID
  2
ACAECLAYERSTANDARD
 70
     0
  0
APPID
  2
ACAD_EXEMPT_FROM_CAD_STANDARDS
 70
     0
  0
APPID
  2
ACAD_DSTYLE_DIMJAG
 70
     0
  0
APPID
  2
ACAD_DSTYLE_DIMTALN
 70
     0
  0
APPID
  2
ACDBDYNAMICBLOCKGUID
 70
     0
  0
APPID
  2
ACDBBLOCKREPETAG
 70
     0
  0
APPID
  2
AME_SOL
 70
     0
  0
APPID
  2
ACAD_NAV_VCDISPLAY
 70
     0
  0
APPID
  2
DCO15
 70
     0
  0
APPID
  2
AEC_XDATA_BOUND_SPACE
 70
     0
  0
APPID
  2
ACCMTRANSPARENCY
 70
     0
  0
APPID
  2
CONTENTBLOCKICON
 70
     0
  0
ENDTAB
  0
TABLE
  2
DIMSTYLE
 70
    48
  0
DIMSTYLE
  2
MASKIN
 70
     0
  3

  4

  5

  6

  7

 40
0.0
 41
3.0
 42
1.5
 43
10.0
 44
1.5
 45
0.0
 46
0.0
 47
0.0
 48
0.0
140
3.5
141
-5.0
142
0.0
143
25.399999999999999
144
-1.0
145
0.0
146
1.0
147
1.0
 71
     0
 72
     0
 73
     0
 74
     0
 75
     0
 76
     0
 77
     1
 78
     8
170
     0
171
     0
172
     1
173
     0
174
     0
175
     0
176
   256
177
   256
178
     2
  0
DIMSTYLE
  2
BYGG-021589$0$MASKIN
 70
     0
  3

  4

  5

  6

  7

 40
0.0
 41
3.0
 42
1.5
 43
10.0
 44
1.5
 45
0.0
 46
0.0
 47
0.0
 48
0.0
140
3.0
141
-5.0
142
0.0
143
25.399999999999999
144
-1.0
145
0.0
146
1.0
147
1.0
 71
     0
 72
     0
 73
     0
 74
     0
 75
     0
 76
     0
 77
     1
 78
     8
170
     0
171
     0
172
     1
173
     0
174
     0
175
     0
176
   256
177
   256
178
   256
  0
DIMSTYLE
  2
BYGG-01482201$0$STANDARD
 70
     0
  3

  4

  5

  6

  7

 40
1.0
 41
0.18
 42
0.0625
 43
0.38
 44
0.18
 45
0.0
 46
0.0
 47
0.0
 48
0.0
140
0.18
141
0.09
142
0.0
143
25.399999999999999
144
1.0
145
0.0
146
1.0
147
0.09
 71
     0
 72
     0
 73
     1
 74
     1
 75
     0
 76
     0
 77
     0
 78
     0
170
     0
171
     2
172
     0
173
     0
174
     0
175
     0
176
     0
177
     0
178
     0
  0
DIMSTYLE
  2
BYGG-01482201$0$MASKIN
 70
     0
  3

  4

  5

  6

  7

 40
0.0
 41
3.0
 42
1.5
 43
10.0
 44
1.5
 45
0.0
 46
0.0
 47
0.0
 48
0.0
140
3.0
141
-5.0
142
0.0
143
25.399999999999999
144
-1.0
145
0.0
146
1.0
147
1.0
 71
     0
 72
     0
 73
     0
 74
     1
 75
     0
 76
     0
 77
     1
 78
     8
170
     0
171
     0
172
     1
173
     0
174
     0
175
     0
176
   256
177
   256
178
     2
  0
DIMSTYLE
  2
BYGG-023940$0$STANDARD
 70
     0
  3

  4

  5

  6

  7

 40
1.0
 41
0.18
 42
0.0625
 43
0.38
 44
0.18
 45
0.0
 46
0.0
 47
0.0
 48
0.0
140
0.18
141
0.09
142
0.0
143
25.399999999999999
144
1.0
145
0.0
146
1.0
147
0.09
 71
     0
 72
     0
 73
     1
 74
     1
 75
     0
 76
     0
 77
     0
 78
     0
170
     0
171
     2
172
     0
173
     0
174
     0
175
     0
176
     0
177
     0
178
     0
  0
DIMSTYLE
  2
BYGG-023940$0$MASKIN
 70
     0
  3

  4

  5

  6

  7

 40
0.0
 41
3.0
 42
1.5
 43
10.0
 44
1.5
 45
0.0
 46
0.0
 47
0.0
 48
0.0
140
3.0
141
-5.0
142
0.0
143
25.399999999999999
144
-1.0
145
0.0
146
1.0
147
1.0
 71
     0
 72
     0
 73
     0
 74
     0
 75
     0
 76
     0
 77
     1
 78
     8
170
     0
171
     0
172
     1
173
     0
174
     0
175
     0
176
   256
177
   256
178
     2
  0
DIMSTYLE
  2
BYGG-025110$0$STANDARD
 70
     0
  3

  4

  5

  6

  7

 40
1.0
 41
0.18
 42
0.0625
 43
0.38
 44
0.18
 45
0.0
 46
0.0
 47
0.0
 48
0.0
140
0.18
141
0.09
142
0.0
143
25.399999999999999
144
1.0
145
0.0
146
1.0
147
0.09
 71
     0
 72
     0
 73
     1
 74
     1
 75
     0
 76
     0
 77
     0
 78
     0
170
     0
171
     2
172
     0
173
     0
174
     0
175
     0
176
     0
177
     0
178
     0
  0
DIMSTYLE
  2
BYGG-025110$0$MASKIN
 70
     0
  3

  4

  5

  6

  7

 40
0.0
 41
3.0
 42
1.5
 43
10.0
 44
1.5
 45
0.0
 46
0.0
 47
0.0
 48
0.0
140
3.0
141
-5.0
142
0.0
143
25.399999999999999
144
-1.0
145
0.0
146
1.0
147
1.0
 71
     0
 72
     0
 73
     0
 74
     0
 75
     0
 76
     0
 77
     1
 78
     8
170
     0
171
     0
172
     1
173
     0
174
     0
175
     0
176
   256
177
   256
178
     2
  0
DIMSTYLE
  2
BYGG-014117$0$MASKIN
 70
     0
  3

  4

  5

  6

  7

 40
0.0
 41
3.0
 42
1.5
 43
10.0
 44
1.5
 45
0.0
 46
0.0
 47
0.0
 48
0.0
140
3.0
141
-5.0
142
0.0
143
25.399999999999999
144
-1.0
145
0.0
146
1.0
147
1.0
 71
     0
 72
     0
 73
     0
 74
     0
 75
     0
 76
     0
 77
     1
 78
     8
170
     0
171
     0
172
     1
173
     0
174
     0
175
     0
176
   256
177
   256
178
   256
  0
DIMSTYLE
  2
BYGG-022681$0$STANDARD
 70
     0
  3

  4

  5

  6

  7

 40
1.0
 41
0.18
 42
0.0625
 43
0.38
 44
0.18
 45
0.0
 46
0.0
 47
0.0
 48
0.0
140
0.18
141
0.09
142
0.0
143
25.399999999999999
144
1.0
145
0.0
146
1.0
147
0.09
 71
     0
 72
     0
 73
     1
 74
     1
 75
     0
 76
     0
 77
     0
 78
     0
170
     0
171
     2
172
     0
173
     0
174
     0
175
     0
176
     0
177
     0
178
     0
  0
DIMSTYLE
  2
BYGG-022681$0$MASKIN
 70
     0
  3

  4

  5

  6

  7

 40
0.0
 41
3.0
 42
1.5
 43
10.0
 44
1.5
 45
0.0
 46
0.0
 47
0.0
 48
0.0
140
3.0
141
-5.0
142
0.0
143
25.399999999999999
144
-1.0
145
0.0
146
1.0
147
1.0
 71
     0
 72
     0
 73
     0
 74
     0
 75
     0
 76
     0
 77
     1
 78
     8
170
     0
171
     0
172
     1
173
     0
174
     0
175
     0
176
   256
177
   256
178
     2
  0
DIMSTYLE
  2
BYGG-014306$0$STANDARD
 70
     0
  3

  4

  5

  6

  7

 40
1.0
 41
0.18
 42
0.0625
 43
0.38
 44
0.18
 45
0.0
 46
0.0
 47
0.0
 48
0.0
140
0.18
141
0.09
142
0.0
143
25.399999999999999
144
1.0
145
0.0
146
1.0
147
0.09
 71
     0
 72
     0
 73
     1
 74
     1
 75
     0
 76
     0
 77
     0
 78
     0
170
     0
171
     2
172
     0
173
     0
174
     0
175
     0
176
     0
177
     0
178
     0
  0
DIMSTYLE
  2
BYGG-021582$0$MASKIN
 70
     0
  3

  4

  5

  6

  7

 40
0.0
 41
3.0
 42
1.5
 43
10.0
 44
1.5
 45
0.0
 46
0.0
 47
0.0
 48
0.0
140
3.0
141
-5.0
142
0.0
143
25.399999999999999
144
-1.0
145
0.0
146
1.0
147
1.0
 71
     0
 72
     0
 73
     0
 74
     0
 75
     0
 76
     0
 77
     1
 78
     8
170
     0
171
     0
172
     1
173
     0
174
     0
175
     0
176
   256
177
   256
178
   256
  0
DIMSTYLE
  2
BYGG-014279$0$STANDARD
 70
     0
  3

  4

  5

  6

  7

 40
1.0
 41
0.18
 42
0.0625
 43
0.38
 44
0.18
 45
0.0
 46
0.0
 47
0.0
 48
0.0
140
0.18
141
0.09
142
0.0
143
25.399999999999999
144
1.0
145
0.0
146
1.0
147
0.09
 71
     0
 72
     0
 73
     1
 74
     1
 75
     0
 76
     0
 77
     0
 78
     0
170
     0
171
     2
172
     0
173
     0
174
     0
175
     0
176
     0
177
     0
178
     0
  0
DIMSTYLE
  2
BYGG-014279$0$MASKIN
 70
     0
  3

  4

  5

  6

  7

 40
0.0
 41
3.0
 42
1.5
 43
10.0
 44
1.5
 45
0.0
 46
0.0
 47
0.0
 48
0.0
140
3.0
141
-5.0
142
0.0
143
25.399999999999999
144
-1.0
145
0.0
146
1.0
147
1.0
 71
     0
 72
     0
 73
     0
 74
     1
 75
     0
 76
     0
 77
     1
 78
     8
170
     0
171
     0
172
     1
173
     0
174
     0
175
     0
176
   256
177
   256
178
     2
  0
DIMSTYLE
  2
BYGG-020805$0$STANDARD
 70
     0
  3

  4

  5

  6

  7

 40
1.0
 41
0.18
 42
0.0625
 43
0.38
 44
0.18
 45
0.0
 46
0.0
 47
0.0
 48
0.0
140
0.18
141
0.09
142
0.0
143
25.399999999999999
144
1.0
145
0.0
146
1.0
147
0.09
 71
     0
 72
     0
 73
     1
 74
     1
 75
     0
 76
     0
 77
     0
 78
     0
170
     0
171
     2
172
     0
173
     0
174
     0
175
     0
176
     0
177
     0
178
     0
  0
DIMSTYLE
  2
BYGG-020805$0$MASKIN
 70
     0
  3

  4

  5

  6

  7

 40
0.0
 41
3.0
 42
1.5
 43
10.0
 44
1.5
 45
0.0
 46
0.0
 47
0.0
 48
0.0
140
3.0
141
-5.0
142
0.0
143
25.399999999999999
144
-1.0
145
0.0
146
1.0
147
1.0
 71
     0
 72
     0
 73
     0
 74
     0
 75
     0
 76
     0
 77
     1
 78
     8
170
     0
171
     0
172
     1
173
     0
174
     0
175
     0
176
   256
177
   256
178
     2
  0
DIMSTYLE
  2
BYGG-023717$0$STANDARD
 70
     0
  3

  4

  5

  6

  7

 40
1.0
 41
0.18
 42
0.0625
 43
0.38
 44
0.18
 45
0.0
 46
0.0
 47
0.0
 48
0.0
140
0.18
141
0.09
142
0.0
143
25.399999999999999
144
1.0
145
0.0
146
1.0
147
0.09
 71
     0
 72
     0
 73
     1
 74
     1
 75
     0
 76
     0
 77
     0
 78
     0
170
     0
171
     2
172
     0
173
     0
174
     0
175
     0
176
     0
177
     0
178
     0
  0
DIMSTYLE
  2
BYGG-023717$0$MASKIN
 70
     0
  3

  4

  5

  6

  7

 40
0.0
 41
3.0
 42
1.5
 43
10.0
 44
1.5
 45
0.0
 46
0.0
 47
0.0
 48
0.0
140
3.0
141
-5.0
142
0.0
143
25.399999999999999
144
-1.0
145
0.0
146
1.0
147
1.0
 71
     0
 72
     0
 73
     0
 74
     0
 75
     0
 76
     0
 77
     1
 78
     8
170
     0
171
     0
172
     1
173
     0
174
     0
175
     0
176
   256
177
   256
178
     2
  0
DIMSTYLE
  2
BYGG-023714$0$STANDARD
 70
     0
  3

  4

  5

  6

  7

 40
1.0
 41
0.18
 42
0.0625
 43
0.38
 44
0.18
 45
0.0
 46
0.0
 47
0.0
 48
0.0
140
0.18
141
0.09
142
0.0
143
25.399999999999999
144
1.0
145
0.0
146
1.0
147
0.09
 71
     0
 72
     0
 73
     1
 74
     1
 75
     0
 76
     0
 77
     0
 78
     0
170
     0
171
     2
172
     0
173
     0
174
     0
175
     0
176
     0
177
     0
178
     0
  0
DIMSTYLE
  2
BYGG-023714$0$MASKIN
 70
     0
  3

  4

  5

  6

  7

 40
0.0
 41
3.0
 42
1.5
 43
10.0
 44
1.5
 45
0.0
 46
0.0
 47
0.0
 48
0.0
140
3.0
141
-5.0
142
0.0
143
25.399999999999999
144
-1.0
145
0.0
146
1.0
147
1.0
 71
     0
 72
     0
 73
     0
 74
     0
 75
     0
 76
     0
 77
     1
 78
     8
170
     0
171
     0
172
     1
173
     0
174
     0
175
     0
176
   256
177
   256
178
     2
  0
DIMSTYLE
  2
BYGG-019338$0$STANDARD
 70
     0
  3

  4

  5

  6

  7

 40
1.0
 41
0.18
 42
0.0625
 43
0.38
 44
0.18
 45
0.0
 46
0.0
 47
0.0
 48
0.0
140
0.18
141
0.09
142
0.0
143
25.399999999999999
144
1.0
145
0.0
146
1.0
147
0.09
 71
     0
 72
     0
 73
     1
 74
     1
 75
     0
 76
     0
 77
     0
 78
     0
170
     0
171
     2
172
     0
173
     0
174
     0
175
     0
176
     0
177
     0
178
     0
  0
DIMSTYLE
  2
BYGG-019338$0$MASKIN
 70
     0
  3

  4

  5

  6

  7

 40
0.0
 41
3.0
 42
1.5
 43
10.0
 44
1.5
 45
0.0
 46
0.0
 47
0.0
 48
0.0
140
3.0
141
-5.0
142
0.0
143
25.399999999999999
144
-1.0
145
0.0
146
1.0
147
1.0
 71
     0
 72
     0
 73
     0
 74
     0
 75
     0
 76
     0
 77
     1
 78
     8
170
     0
171
     0
172
     1
173
     0
174
     0
175
     0
176
   256
177
   256
178
     2
  0
DIMSTYLE
  2
BYGG-023125$0$STANDARD
 70
     0
  3

  4

  5

  6

  7

 40
1.0
 41
0.18
 42
0.0625
 43
0.38
 44
0.18
 45
0.0
 46
0.0
 47
0.0
 48
0.0
140
0.18
141
0.09
142
0.0
143
25.399999999999999
144
1.0
145
0.0
146
1.0
147
0.09
 71
     0
 72
     0
 73
     1
 74
     1
 75
     0
 76
     0
 77
     0
 78
     0
170
     0
171
     2
172
     0
173
     0
174
     0
175
     0
176
     0
177
     0
178
     0
  0
DIMSTYLE
  2
BYGG-023125$0$MASKIN
 70
     0
  3

  4

  5

  6

  7

 40
0.0
 41
3.0
 42
1.5
 43
10.0
 44
1.5
 45
0.0
 46
0.0
 47
0.0
 48
0.0
140
3.0
141
-5.0
142
0.0
143
25.399999999999999
144
-1.0
145
0.0
146
1.0
147
1.0
 71
     0
 72
     0
 73
     0
 74
     0
 75
     0
 76
     0
 77
     1
 78
     8
170
     0
171
     0
172
     1
173
     0
174
     0
175
     0
176
   256
177
   256
178
     2
  0
DIMSTYLE
  2
BYGG-014495$0$MASKIN
 70
     0
  3

  4

  5

  6

  7

 40
0.0
 41
3.0
 42
1.5
 43
10.0
 44
1.5
 45
0.0
 46
0.0
 47
0.0
 48
0.0
140
3.0
141
-5.0
142
0.0
143
25.399999999999999
144
-1.0
145
0.0
146
1.0
147
1.0
 71
     0
 72
     0
 73
     0
 74
     0
 75
     0
 76
     0
 77
     1
 78
     8
170
     0
171
     0
172
     1
173
     0
174
     0
175
     0
176
   256
177
   256
178
     2
  0
DIMSTYLE
  2
BYGG-029016$0$STANDARD
 70
     0
  3

  4

  5

  6

  7

 40
1.0
 41
0.18
 42
0.0625
 43
0.38
 44
0.18
 45
0.0
 46
0.0
 47
0.0
 48
0.0
140
0.18
141
0.09
142
0.0
143
25.399999999999999
144
1.0
145
0.0
146
1.0
147
0.09
 71
     0
 72
     0
 73
     1
 74
     1
 75
     0
 76
     0
 77
     0
 78
     0
170
     0
171
     2
172
     0
173
     0
174
     0
175
     0
176
     0
177
     0
178
     0
  0
DIMSTYLE
  2
BYGG-029016$0$MASKIN
 70
     0
  3

  4

  5

  6

  7

 40
0.0
 41
3.0
 42
1.5
 43
10.0
 44
1.5
 45
0.0
 46
0.0
 47
0.0
 48
0.0
140
3.0
141
-5.0
142
0.0
143
25.399999999999999
144
-1.0
145
0.0
146
1.0
147
1.0
 71
     0
 72
     0
 73
     0
 74
     0
 75
     0
 76
     0
 77
     1
 78
     8
170
     0
171
     0
172
     1
173
     0
174
     0
175
     0
176
   256
177
   256
178
     2
  0
DIMSTYLE
  2
BYGG-028946$0$STANDARD
 70
     0
  3

  4

  5

  6

  7

 40
1.0
 41
0.18
 42
0.0625
 43
0.38
 44
0.18
 45
0.0
 46
0.0
 47
0.0
 48
0.0
140
0.18
141
0.09
142
0.0
143
25.399999999999999
144
1.0
145
0.0
146
1.0
147
0.09
 71
     0
 72
     0
 73
     1
 74
     1
 75
     0
 76
     0
 77
     0
 78
     0
170
     0
171
     2
172
     0
173
     0
174
     0
175
     0
176
     0
177
     0
178
     0
  0
DIMSTYLE
  2
BYGG-028946$0$MASKIN
 70
     0
  3

  4

  5

  6

  7

 40
0.0
 41
3.0
 42
1.5
 43
10.0
 44
1.5
 45
0.0
 46
0.0
 47
0.0
 48
0.0
140
3.0
141
-5.0
142
0.0
143
25.399999999999999
144
-1.0
145
0.0
146
1.0
147
1.0
 71
     0
 72
     0
 73
     0
 74
     0
 75
     0
 76
     0
 77
     1
 78
     8
170
     0
171
     0
172
     1
173
     0
174
     0
175
     0
176
   256
177
   256
178
     2
  0
DIMSTYLE
  2
BYGG-028946$0$ANNOTATIVE
 70
     0
  3

  4

  5

  6

  7

 40
1.0
 41
0.18
 42
0.0625
 43
0.38
 44
0.18
 45
0.0
 46
0.0
 47
0.0
 48
0.0
140
0.18
141
0.09
142
0.0
143
25.399999999999999
144
1.0
145
0.0
146
1.0
147
0.09
 71
     0
 72
     0
 73
     1
 74
     1
 75
     0
 76
     0
 77
     0
 78
     0
170
     0
171
     2
172
     0
173
     0
174
     0
175
     0
176
     0
177
     0
178
     0
  0
DIMSTYLE
  2
BYGG-028947$0$STANDARD
 70
     0
  3

  4

  5

  6

  7

 40
1.0
 41
0.18
 42
0.0625
 43
0.38
 44
0.18
 45
0.0
 46
0.0
 47
0.0
 48
0.0
140
0.18
141
0.09
142
0.0
143
25.399999999999999
144
1.0
145
0.0
146
1.0
147
0.09
 71
     0
 72
     0
 73
     1
 74
     1
 75
     0
 76
     0
 77
     0
 78
     0
170
     0
171
     2
172
     0
173
     0
174
     0
175
     0
176
     0
177
     0
178
     0
  0
DIMSTYLE
  2
BYGG-028947$0$MASKIN
 70
     0
  3

  4

  5

  6

  7

 40
0.0
 41
3.0
 42
1.5
 43
10.0
 44
1.5
 45
0.0
 46
0.0
 47
0.0
 48
0.0
140
3.0
141
-5.0
142
0.0
143
25.399999999999999
144
-1.0
145
0.0
146
1.0
147
1.0
 71
     0
 72
     0
 73
     0
 74
     0
 75
     0
 76
     0
 77
     1
 78
     8
170
     0
171
     0
172
     1
173
     0
174
     0
175
     0
176
   256
177
   256
178
     2
  0
DIMSTYLE
  2
BYGG-024973$0$STANDARD
 70
     0
  3

  4

  5

  6

  7

 40
1.0
 41
0.18
 42
0.0625
 43
0.38
 44
0.18
 45
0.0
 46
0.0
 47
0.0
 48
0.0
140
0.18
141
0.09
142
0.0
143
25.399999999999999
144
1.0
145
0.0
146
1.0
147
0.09
 71
     0
 72
     0
 73
     1
 74
     1
 75
     0
 76
     0
 77
     0
 78
     0
170
     0
171
     2
172
     0
173
     0
174
     0
175
     0
176
     0
177
     0
178
     0
  0
DIMSTYLE
  2
BYGG-024973$0$MASKIN
 70
     0
  3

  4

  5

  6

  7

 40
0.0
 41
3.0
 42
1.5
 43
10.0
 44
1.5
 45
0.0
 46
0.0
 47
0.0
 48
0.0
140
3.0
141
-5.0
142
0.0
143
25.399999999999999
144
-1.0
145
0.0
146
1.0
147
1.0
 71
     0
 72
     0
 73
     0
 74
     0
 75
     0
 76
     0
 77
     1
 78
     8
170
     0
171
     0
172
     1
173
     0
174
     0
175
     0
176
   256
177
   256
178
     2
  0
DIMSTYLE
  2
BYGG-025081$0$STANDARD
 70
     0
  3

  4

  5

  6

  7

 40
1.0
 41
0.18
 42
0.0625
 43
0.38
 44
0.18
 45
0.0
 46
0.0
 47
0.0
 48
0.0
140
0.18
141
0.09
142
0.0
143
25.399999999999999
144
1.0
145
0.0
146
1.0
147
0.09
 71
     0
 72
     0
 73
     1
 74
     1
 75
     0
 76
     0
 77
     0
 78
     0
170
     0
171
     2
172
     0
173
     0
174
     0
175
     0
176
     0
177
     0
178
     0
  0
DIMSTYLE
  2
BYGG-025081$0$MASKIN
 70
     0
  3

  4

  5

  6

  7

 40
0.0
 41
3.0
 42
1.5
 43
10.0
 44
1.5
 45
0.0
 46
0.0
 47
0.0
 48
0.0
140
3.0
141
-5.0
142
0.0
143
25.399999999999999
144
-1.0
145
0.0
146
1.0
147
1.0
 71
     0
 72
     0
 73
     0
 74
     0
 75
     0
 76
     0
 77
     1
 78
     8
170
     0
171
     0
172
     1
173
     0
174
     0
175
     0
176
   256
177
   256
178
     2
  0
DIMSTYLE
  2
BYGG-028025$0$STANDARD
 70
     0
  3

  4

  5

  6

  7

 40
1.0
 41
0.18
 42
0.0625
 43
0.38
 44
0.18
 45
0.0
 46
0.0
 47
0.0
 48
0.0
140
0.18
141
0.09
142
0.0
143
25.399999999999999
144
1.0
145
0.0
146
1.0
147
0.09
 71
     0
 72
     0
 73
     1
 74
     1
 75
     0
 76
     0
 77
     0
 78
     0
170
     0
171
     2
172
     0
173
     0
174
     0
175
     0
176
     0
177
     0
178
     0
  0
DIMSTYLE
  2
BYGG-028025$0$MASKIN
 70
     0
  3

  4

  5

  6

  7

 40
0.0
 41
3.0
 42
1.5
 43
10.0
 44
1.5
 45
0.0
 46
0.0
 47
0.0
 48
0.0
140
3.0
141
-5.0
142
0.0
143
25.399999999999999
144
-1.0
145
0.0
146
1.0
147
1.0
 71
     0
 72
     0
 73
     0
 74
     0
 75
     0
 76
     0
 77
     1
 78
     8
170
     0
171
     0
172
     1
173
     0
174
     0
175
     0
176
   256
177
   256
178
     2
  0
DIMSTYLE
  2
BYGG-021409$0$STANDARD
 70
     0
  3

  4

  5

  6

  7

 40
1.0
 41
0.18
 42
0.0625
 43
0.38
 44
0.18
 45
0.0
 46
0.0
 47
0.0
 48
0.0
140
0.18
141
0.09
142
0.0
143
25.399999999999999
144
1.0
145
0.0
146
1.0
147
0.09
 71
     0
 72
     0
 73
     1
 74
     1
 75
     0
 76
     0
 77
     0
 78
     0
170
     0
171
     2
172
     0
173
     0
174
     0
175
     0
176
     0
177
     0
178
     0
  0
DIMSTYLE
  2
BYGG-021409$0$MASKIN
 70
     0
  3

  4

  5

  6

  7

 40
0.0
 41
3.0
 42
1.5
 43
10.0
 44
1.5
 45
0.0
 46
0.0
 47
0.0
 48
0.0
140
3.0
141
-5.0
142
0.0
143
25.399999999999999
144
-1.0
145
0.0
146
1.0
147
1.0
 71
     0
 72
     0
 73
     0
 74
     0
 75
     0
 76
     0
 77
     1
 78
     8
170
     0
171
     0
172
     1
173
     0
174
     0
175
     0
176
   256
177
   256
178
     2
  0
DIMSTYLE
  2
BYGG-021409$0$MASKINX
 70
     0
  3

  4

  5

  6

  7

 40
0.0
 41
3.0
 42
1.5
 43
10.0
 44
1.5
 45
0.0
 46
0.0
 47
0.0
 48
0.0
140
3.0
141
-5.0
142
0.0
143
25.399999999999999
144
-1.0
145
0.0
146
1.0
147
1.0
 71
     0
 72
     0
 73
     0
 74
     0
 75
     0
 76
     0
 77
     1
 78
     8
170
     0
171
     0
172
     1
173
     0
174
     0
175
     0
176
   256
177
   256
178
   256
  0
DIMSTYLE
  2
BYGG-014413$0$MASKIN
 70
     0
  3

  4

  5

  6

  7

 40
0.0
 41
3.0
 42
1.5
 43
10.0
 44
1.5
 45
0.0
 46
0.0
 47
0.0
 48
0.0
140
3.0
141
-5.0
142
0.0
143
25.399999999999999
144
-1.0
145
0.0
146
1.0
147
1.0
 71
     0
 72
     0
 73
     0
 74
     0
 75
     0
 76
     0
 77
     1
 78
     8
170
     0
171
     0
172
     1
173
     0
174
     0
175
     0
176
   256
177
   256
178
   256
  0
DIMSTYLE
  2
BYGG-014413$0$STANDARD
 70
     0
  3

  4

  5

  6

  7

 40
1.0
 41
0.18
 42
0.0625
 43
0.38
 44
0.18
 45
0.0
 46
0.0
 47
0.0
 48
0.0
140
0.18
141
0.09
142
0.0
143
25.399999999999999
144
1.0
145
0.0
146
1.0
147
0.09
 71
     0
 72
     0
 73
     1
 74
     1
 75
     0
 76
     0
 77
     0
 78
     0
170
     0
171
     2
172
     0
173
     0
174
     0
175
     0
176
     0
177
     0
178
     0
  0
DIMSTYLE
  2
BYGG-025725$0$STANDARD
 70
     0
  3

  4

  5

  6

  7

 40
1.0
 41
0.18
 42
0.0625
 43
0.38
 44
0.18
 45
0.0
 46
0.0
 47
0.0
 48
0.0
140
0.18
141
0.09
142
0.0
143
25.399999999999999
144
1.0
145
0.0
146
1.0
147
0.09
 71
     0
 72
     0
 73
     1
 74
     1
 75
     0
 76
     0
 77
     0
 78
     0
170
     0
171
     2
172
     0
173
     0
174
     0
175
     0
176
     0
177
     0
178
     0
  0
DIMSTYLE
  2
BYGG-025725$0$MASKIN
 70
     0
  3

  4

  5

  6

  7

 40
0.0
 41
3.0
 42
1.5
 43
10.0
 44
1.5
 45
0.0
 46
0.0
 47
0.0
 48
0.0
140
3.0
141
-5.0
142
0.0
143
25.399999999999999
144
-1.0
145
0.0
146
1.0
147
1.0
 71
     0
 72
     0
 73
     0
 74
     0
 75
     0
 76
     0
 77
     1
 78
     8
170
     0
171
     0
172
     1
173
     0
174
     0
175
     0
176
   256
177
   256
178
     2
  0
DIMSTYLE
  2
BYGG-025114$0$STANDARD
 70
     0
  3

  4

  5

  6

  7

 40
1.0
 41
0.18
 42
0.0625
 43
0.38
 44
0.18
 45
0.0
 46
0.0
 47
0.0
 48
0.0
140
0.18
141
0.09
142
0.0
143
25.399999999999999
144
1.0
145
0.0
146
1.0
147
0.09
 71
     0
 72
     0
 73
     1
 74
     1
 75
     0
 76
     0
 77
     0
 78
     0
170
     0
171
     2
172
     0
173
     0
174
     0
175
     0
176
     0
177
     0
178
     0
  0
DIMSTYLE
  2
BYGG-025114$0$MASKIN
 70
     0
  3

  4

  5

  6

  7

 40
0.0
 41
3.0
 42
1.5
 43
10.0
 44
1.5
 45
0.0
 46
0.0
 47
0.0
 48
0.0
140
3.0
141
-5.0
142
0.0
143
25.399999999999999
144
-1.0
145
0.0
146
1.0
147
1.0
 71
     0
 72
     0
 73
     0
 74
     0
 75
     0
 76
     0
 77
     1
 78
     8
170
     0
171
     0
172
     1
173
     0
174
     0
175
     0
176
   256
177
   256
178
     2
  0
ENDTAB
  0
ENDSEC
  0
SECTION
  2
BLOCKS
  0
BLOCK
  8
0
  2
$MODEL_SPACE
 70
     0
 10
0.0
 20
0.0
 30
0.0
  3
$MODEL_SPACE
  1

  0
ENDBLK
  5
37
  8
0
  0
BLOCK
 67
     1
  8
0
  2
$PAPER_SPACE
 70
     0
 10
0.0
 20
0.0
 30
0.0
  3
$PAPER_SPACE
  1

  0
ENDBLK
  5
35
 67
     1
  8
0
  0
BLOCK
  8
0
  2
BYGG-023125$0$BORST_9
 70
     0
 10
0.0
 20
0.0
 30
0.0
  3
BYGG-023125$0$BORST_9
  1

  0
POLYLINE
  5
F5F
  8
BYGG-023125$0$LIST
 66
     1
 10
0.0
 20
0.0
 30
0.0
 70
     1
  0
VERTEX
  5
14A9
  8
BYGG-023125$0$LIST
 10
32.117949192431162
 20
1.9000000000000901
 30
0.0
  0
VERTEX
  5
14AA
  8
BYGG-023125$0$LIST
 10
32.117949192431162
 20
2.7000000000000912
 30
0.0
  0
VERTEX
  5
14AB
  8
BYGG-023125$0$LIST
 10
25.417949192431159
 20
2.7000000000000912
 30
0.0
  0
VERTEX
  5
14AC
  8
BYGG-023125$0$LIST
 10
25.417949192431159
 20
1.9000000000000901
 30
0.0
  0
SEQEND
  5
14AD
  8
BYGG-023125$0$LIST
  0
POLYLINE
  5
F60
  8
BYGG-023125$0$LIST
 66
     1
 10
0.0
 20
0.0
 30
0.0
  0
VERTEX
  5
14AE
  8
BYGG-023125$0$LIST
 10
28.263363943662679
 20
2.7000000000000912
 30
0.0
  0
VERTEX
  5
14AF
  8
BYGG-023125$0$LIST
 10
26.769574652555221
 20
10.03407417371101
 30
0.0
  0
SEQEND
  5
14B0
  8
BYGG-023125$0$LIST
  0
POLYLINE
  5
F61
  8
BYGG-023125$0$LIST
 66
     1
 10
0.0
 20
0.0
 30
0.0
  0
VERTEX
  5
14B1
  8
BYGG-023125$0$LIST
 10
28.553855340273739
 20
2.7000000000000339
 30
0.0
  0
VERTEX
  5
14B2
  8
BYGG-023125$0$LIST
 10
27.93644453893258
 20
10.03407417371101
 30
0.0
  0
SEQEND
  5
14B3
  8
BYGG-023125$0$LIST
  0
POLYLINE
  5
F62
  8
BYGG-023125$0$LIST
 66
     1
 10
0.0
 20
0.0
 30
0.0
  0
VERTEX
  5
14B4
  8
BYGG-023125$0$LIST
 10
29.012314217007489
 20
2.7000000000000339
 30
0.0
  0
VERTEX
  5
14B5
  8
BYGG-023125$0$LIST
 10
30.000741956894529
 20
10.03407417371101
 30
0.0
  0
SEQEND
  5
14B6
  8
BYGG-023125$0$LIST
  0
POLYLINE
  5
F63
  8
BYGG-023125$0$LIST
 66
     1
 10
0.0
 20
0.0
 30
0.0
  0
VERTEX
  5
14B7
  8
BYGG-023125$0$LIST
 10
29.18507150798786
 20
2.7000000000000339
 30
0.0
  0
VERTEX
  5
14B8
  8
BYGG-023125$0$LIST
 10
30.980798090752462
 20
10.03407417371101
 30
0.0
  0
SEQEND
  5
14B9
  8
BYGG-023125$0$LIST
  0
LINE
  5
F64
  8
0
 10
28.667949192431159
 20
10.03407417371101
 30
0.0
 11
28.867949192431169
 21
10.03407417371101
 31
0.0
  0
LINE
  5
F65
  8
0
 10
28.867949192431158
 20
2.7000000000000912
 30
0.0
 11
28.867949192431169
 21
10.03407417371101
 31
0.0
  0
LINE
  5
F66
  8
0
 10
28.667949192431159
 20
2.7000000000000912
 30
0.0
 11
28.667949192431159
 21
10.03407417371101
 31
0.0
  0
ENDBLK
  5
F67
  8
0
  0
BLOCK
  8
0
  2
*D81
 70
     1
 10
0.0
 20
0.0
 30
0.0
  3
*D81
  1

  0
LINE
  5
1422
  8
SAPA_MATT
 10
-115.4999999990108
 20
24.99999999999962
 30
0.0
 11
-135.3699098731158
 21
24.99999999999962
 31
0.0
  0
LINE
  5
1423
  8
SAPA_MATT
 10
-115.4999999990108
 20
-25.000000000000401
 30
0.0
 11
-135.3699098731158
 21
-25.000000000000391
 31
0.0
  0
LINE
  5
1424
  8
SAPA_MATT
 10
-133.8699098731158
 20
21.99999999999962
 30
0.0
 11
-133.8699098731158
 21
-22.000000000000401
 31
0.0
  0
SOLID
  5
1425
  8
SAPA_MATT
 10
-134.3699098731158
 20
21.99999999999962
 30
0.0
 11
-133.3699098731158
 21
21.99999999999962
 31
0.0
 12
-133.8699098731158
 22
24.99999999999962
 32
0.0
 13
-133.8699098731158
 23
24.99999999999962
 33
0.0
  0
SOLID
  5
1426
  8
SAPA_MATT
 10
-134.3699098731158
 20
-22.000000000000401
 30
0.0
 11
-133.3699098731158
 21
-22.000000000000401
 31
0.0
 12
-133.8699098731158
 22
-25.000000000000391
 32
0.0
 13
-133.8699098731158
 23
-25.000000000000391
 33
0.0
  0
INSERT
  5
1427
  8
0
  2
*U101
 10
0.0
 20
0.0
 30
0.0
  0
POINT
  5
1428
  8
DEFPOINTS
 62
     0
 10
-113.9999999990108
 20
24.99999999999962
 30
0.0
  0
POINT
  5
1429
  8
DEFPOINTS
 62
     0
 10
-113.9999999990108
 20
-25.000000000000401
 30
0.0
  0
POINT
  5
142A
  8
DEFPOINTS
 62
     0
 10
-133.8699098731158
 20
-25.000000000000391
 30
0.0
  0
ENDBLK
  5
13D9
  8
0
  0
BLOCK
  8
0
  2
*D82
 70
     1
 10
0.0
 20
0.0
 30
0.0
  3
*D82
  1

  0
LINE
  5
2135
  8
SAPA_MATT
 10
-115.4999999990108
 20
-25.000000000000401
 30
0.0
 11
-135.35639635960229
 21
-25.000000000000391
 31
0.0
  0
LINE
  5
2136
  8
SAPA_MATT
 10
-91.000000000001336
 20
-37.000000000000398
 30
0.0
 11
-135.35639635960229
 21
-37.000000000000391
 31
0.0
  0
LINE
  5
2137
  8
SAPA_MATT
 10
-133.85639635960229
 20
-28.000000000000401
 30
0.0
 11
-133.85639635960229
 21
-34.000000000000391
 31
0.0
  0
SOLID
  5
2138
  8
SAPA_MATT
 10
-134.35639635960229
 20
-28.000000000000401
 30
0.0
 11
-133.35639635960229
 21
-28.000000000000401
 31
0.0
 12
-133.85639635960229
 22
-25.000000000000391
 32
0.0
 13
-133.85639635960229
 23
-25.000000000000391
 33
0.0
  0
SOLID
  5
2139
  8
SAPA_MATT
 10
-134.35639635960229
 20
-34.000000000000391
 30
0.0
 11
-133.35639635960229
 21
-34.000000000000391
 31
0.0
 12
-133.85639635960229
 22
-37.000000000000391
 32
0.0
 13
-133.85639635960229
 23
-37.000000000000391
 33
0.0
  0
TEXT
  8
SAPA_MATT
  40
3.5
  5
2146
  62
2
  72
0
  71
0
 10
-143.606
 20
-37.1950
 30
0.000000
  1
12
  7
ISO
  0
POINT
  5
213B
  8
DEFPOINTS
 62
     0
 10
-113.9999999990108
 20
-25.000000000000401
 30
0.0
  0
POINT
  5
213C
  8
DEFPOINTS
 62
     0
 10
-89.500000000001336
 20
-37.000000000000398
 30
0.0
  0
POINT
  5
213D
  8
DEFPOINTS
 62
     0
 10
-133.85639635960229
 20
-37.000000000000391
 30
0.0
  0
ENDBLK
  5
13E5
  8
0
  0
BLOCK
  8
0
  2
*D83
 70
     1
 10
0.0
 20
0.0
 30
0.0
  3
*D83
  1

  0
LINE
  5
1410
  8
SAPA_MATT
 10
64.499999999998977
 20
26.0
 30
0.0
 11
64.499999999998977
 21
44.049455477510257
 31
0.0
  0
LINE
  5
1411
  8
SAPA_MATT
 10
74.499999999999034
 20
3.8999999999988968
 30
0.0
 11
74.499999999999034
 21
44.049455477510257
 31
0.0
  0
LINE
  5
1412
  8
SAPA_MATT
 10
67.499999999998977
 20
42.549455477510257
 30
0.0
 11
71.499999999999034
 21
42.549455477510257
 31
0.0
  0
SOLID
  5
1413
  8
SAPA_MATT
 10
67.499999999998977
 20
43.049455477510257
 30
0.0
 11
67.499999999998977
 21
42.049455477510257
 31
0.0
 12
64.499999999998977
 22
42.549455477510257
 32
0.0
 13
64.499999999998977
 23
42.549455477510257
 33
0.0
  0
SOLID
  5
1414
  8
SAPA_MATT
 10
71.499999999999034
 20
43.049455477510257
 30
0.0
 11
71.499999999999034
 21
42.049455477510257
 31
0.0
 12
74.499999999999034
 22
42.549455477510257
 32
0.0
 13
74.499999999999034
 23
42.549455477510257
 33
0.0
  0
INSERT
  5
1415
  8
0
  2
*U100
 10
0.0
 20
0.0
 30
0.0
  0
POINT
  5
1416
  8
DEFPOINTS
 62
     0
 10
64.499999999998977
 20
24.5
 30
0.0
  0
POINT
  5
1417
  8
DEFPOINTS
 62
     0
 10
74.499999999999034
 20
2.3999999999988968
 30
0.0
  0
POINT
  5
1418
  8
DEFPOINTS
 62
     0
 10
74.499999999999034
 20
42.549455477510257
 30
0.0
  0
ENDBLK
  5
13F1
  8
0
  0
BLOCK
  8
0
  2
*D84
 70
     1
 10
0.0
 20
0.0
 30
0.0
  3
*D84
  1

  0
LINE
  5
212C
  8
SAPA_MATT
 10
74.499999999999034
 20
3.8999999999988968
 30
0.0
 11
74.499999999999034
 21
44.049455477510257
 31
0.0
  0
LINE
  5
212D
  8
SAPA_MATT
 10
148.49999999999901
 20
-1.100000000001728
 30
0.0
 11
148.49999999999901
 21
44.049455477510257
 31
0.0
  0
LINE
  5
212E
  8
SAPA_MATT
 10
77.499999999999034
 20
42.549455477510257
 30
0.0
 11
145.49999999999901
 21
42.549455477510257
 31
0.0
  0
SOLID
  5
212F
  8
SAPA_MATT
 10
77.499999999999034
 20
43.049455477510257
 30
0.0
 11
77.499999999999034
 21
42.049455477510257
 31
0.0
 12
74.499999999999034
 22
42.549455477510257
 32
0.0
 13
74.499999999999034
 23
42.549455477510257
 33
0.0
  0
SOLID
  5
2130
  8
SAPA_MATT
 10
145.49999999999901
 20
43.049455477510257
 30
0.0
 11
145.49999999999901
 21
42.049455477510257
 31
0.0
 12
148.49999999999901
 22
42.549455477510257
 32
0.0
 13
148.49999999999901
 23
42.549455477510257
 33
0.0
  0
TEXT
  8
SAPA_MATT
  40
3.5
  5
2147
  62
2
  72
0
  71
0
 10
104.500
 20
39.1045
 30
0.000000
  1
74
  7
ISO
  0
POINT
  5
2132
  8
DEFPOINTS
 62
     0
 10
74.499999999999034
 20
2.3999999999988968
 30
0.0
  0
POINT
  5
2133
  8
DEFPOINTS
 62
     0
 10
148.49999999999901
 20
-2.600000000001728
 30
0.0
  0
POINT
  5
2134
  8
DEFPOINTS
 62
     0
 10
148.49999999999901
 20
42.549455477510257
 30
0.0
  0
ENDBLK
  5
13FD
  8
0
  0
BLOCK
  8
0
  2
*U85
 70
     1
 10
0.0
 20
0.0
 30
0.0
  3
*U85
  1

  0
TEXT
  5
147B
  8
SAPA_ARTIKELNR
 10
-97.617694564236004
 20
-6.4924527988019687
 30
0.0
 40
3.5
  1
42848
 50
89.999999999999986
  7
ISO
  0
ENDBLK
  5
147D
  8
0
  0
BLOCK
  8
0
  2
*U86
 70
     1
 10
0.0
 20
0.0
 30
0.0
  3
*U86
  1

  0
TEXT
  5
147F
  8
SAPA_ARTIKELNR
 10
-117.71057797651871
 20
-6.385074518911642
 30
0.0
 40
3.5
  1
42227
 50
89.999999999999986
  7
ISO
  0
ENDBLK
  5
1481
  8
0
  0
BLOCK
  8
0
  2
*U87
 70
     1
 10
0.0
 20
0.0
 30
0.0
  3
*U87
  1

  0
TEXT
  5
1488
  8
SAPA_ARTIKELNR
 10
72.582217353692272
 20
2.2561977008707932
 30
0.0
 40
3.5
  1
52070
 50
89.999999999999986
  7
ISO
  0
ENDBLK
  5
148A
  8
0
  0
BLOCK
  8
0
  2
*U88
 70
     1
 10
0.0
 20
0.0
 30
0.0
  3
*U88
  1

  0
TEXT
  5
148C
  8
SAPA_ARTIKELNR
 10
59.56573494920724
 20
-6.9215564773047253
 30
0.0
 40
3.5
  1
68654
 50
89.999999999999986
  7
ISO
  0
ENDBLK
  5
148E
  8
0
  0
BLOCK
  8
0
  2
*U89
 70
     1
 10
0.0
 20
0.0
 30
0.0
  3
*U89
  1

  0
TEXT
  5
1490
  8
SAPA_ARTIKELNR
 10
154.97955526092329
 20
-32.476866954447942
 30
0.0
 40
3.5
  1
74457
 50
89.999999999999986
  7
ISO
  0
ENDBLK
  5
1492
  8
0
  0
BLOCK
  8
0
  2
*U90
 70
     1
 10
0.0
 20
0.0
 30
0.0
  3
*U90
  1

  0
TEXT
  5
1494
  8
SAPA_ARTIKELNR
 10
155.19841419041981
 20
-71.458155128311404
 30
0.0
 40
3.5
  1
42730
 50
89.999999999999986
  7
ISO
  0
ENDBLK
  5
1496
  8
0
  0
BLOCK
  8
0
  2
*U91
 70
     1
 10
0.0
 20
0.0
 30
0.0
  3
*U91
  1

  0
TEXT
  5
1498
  8
SAPA_ARTIKELNR
 10
87.149602860753561
 20
9.0072994396107742
 30
0.0
 40
3.5
  1
42770
 50
360.0
  7
ISO
  0
ENDBLK
  5
149A
  8
0
  0
BLOCK
  8
0
  2
*X92
 70
     1
 10
0.0
 20
0.0
 30
0.0
  3
*X92
  1

  0
LINE
  5
1D75
  8
0
 62
     0
 10
100.6207872728112
 20
-52.228749999999991
 30
0.0
 11
122.37921272718989
 21
-52.228749999999991
 31
0.0
  0
LINE
  5
1D76
  8
0
 62
     0
 10
100.2163253499829
 20
-51.117499999999993
 30
0.0
 11
122.7836746500182
 21
-51.117499999999993
 31
0.0
  0
LINE
  5
1D77
  8
0
 62
     0
 10
121.0597810278947
 20
-50.006249999999987
 30
0.0
 11
123.18887740688891
 21
-50.006249999999987
 31
0.0
  0
LINE
  5
1D78
  8
0
 62
     0
 10
99.811115033432785
 20
-50.006249999999987
 30
0.0
 11
101.94021897210639
 21
-50.006249999999987
 31
0.0
  0
LINE
  5
1D79
  8
0
 62
     0
 10
124.36886312653429
 20
-50.006249999999987
 30
0.0
 11
126.5000000000006
 21
-50.006249999999987
 31
0.0
  0
LINE
  5
1D7A
  8
0
 62
     0
 10
96.500000000000568
 20
-50.006249999999987
 30
0.0
 11
98.6311368734669
 21
-50.006249999999987
 31
0.0
  0
LINE
  5
1D7B
  8
0
 62
     0
 10
121.464242950723
 20
-48.894999999999989
 30
0.0
 11
126.5000000000006
 21
-48.894999999999989
 31
0.0
  0
LINE
  5
1D7C
  8
0
 62
     0
 10
96.500000000000568
 20
-48.894999999999989
 30
0.0
 11
101.5357570492781
 21
-48.894999999999989
 31
0.0
  0
LINE
  5
1D7D
  8
0
 62
     0
 10
123.8223130482565
 20
-47.783749999999991
 30
0.0
 11
126.5000000000006
 21
-47.783749999999991
 31
0.0
  0
LINE
  5
1D7E
  8
0
 62
     0
 10
96.500000000000568
 20
-47.783749999999991
 30
0.0
 11
99.177686951741634
 21
-47.783749999999991
 31
0.0
  0
ENDBLK
  5
1D80
  8
0
  0
BLOCK
  8
0
  2
*X93
 70
     1
 10
0.0
 20
0.0
 30
0.0
  3
*X93
  1

  0
LINE
  5
1D82
  8
0
 62
     0
 10
101.11076696680939
 20
-20.873606797754629
 30
0.0
 11
101.11076696680939
 21
-25.073606797754611
 31
0.0
  0
LINE
  5
1D83
  8
0
 62
     0
 10
102.22201696680941
 20
-21.424438084117568
 30
0.0
 11
102.22201696680941
 21
-24.522775511391551
 31
0.0
  0
LINE
  5
1D84
  8
0
 62
     0
 10
103.3332669668094
 20
-21.9772493393322
 30
0.0
 11
103.3332669668094
 21
-23.98452095910066
 31
0.0
  0
LINE
  5
1D85
  8
0
 62
     0
 10
104.4445169668094
 20
-20.54584579496877
 30
0.0
 11
104.4445169668094
 21
-23.973606797754599
 31
0.0
  0
LINE
  5
1D86
  8
0
 62
     0
 10
105.5557669668094
 20
-19.073606797754501
 30
0.0
 11
105.5557669668094
 21
-22.955968401164309
 31
0.0
  0
LINE
  5
1D87
  8
0
 62
     0
 10
106.6670169668094
 20
-19.073606797754501
 30
0.0
 11
106.6670169668094
 21
-20.895182693901031
 31
0.0
  0
LINE
  5
1D88
  8
0
 62
     0
 10
107.7782669668094
 20
-19.07360679775449
 30
0.0
 11
107.7782669668094
 21
-20.873606797754409
 31
0.0
  0
LINE
  5
1D89
  8
0
 62
     0
 10
108.8895169668094
 20
-19.073606797754479
 30
0.0
 11
108.8895169668094
 21
-20.873606797754409
 31
0.0
  0
LINE
  5
1D8A
  8
0
 62
     0
 10
110.00076696680939
 20
-19.073606797754479
 30
0.0
 11
110.00076696680939
 21
-20.873606797754409
 31
0.0
  0
LINE
  5
1D8B
  8
0
 62
     0
 10
111.11201696680941
 20
-19.073606797754469
 30
0.0
 11
111.11201696680941
 21
-20.873606797754409
 31
0.0
  0
LINE
  5
1D8C
  8
0
 62
     0
 10
112.2232669668094
 20
-19.073606797754461
 30
0.0
 11
112.2232669668094
 21
-20.873606797754409
 31
0.0
  0
LINE
  5
1D8D
  8
0
 62
     0
 10
113.3345169668094
 20
-19.073606797754461
 30
0.0
 11
113.3345169668094
 21
-20.873606797754409
 31
0.0
  0
LINE
  5
1D8E
  8
0
 62
     0
 10
114.4457669668094
 20
-19.073606797754501
 30
0.0
 11
114.4457669668094
 21
-20.873606797754409
 31
0.0
  0
LINE
  5
1D8F
  8
0
 62
     0
 10
115.5570169668094
 20
-19.07360679775454
 30
0.0
 11
115.5570169668094
 21
-20.873606797754409
 31
0.0
  0
LINE
  5
1D90
  8
0
 62
     0
 10
116.6682669668094
 20
-19.073606797754579
 30
0.0
 11
116.6682669668094
 21
-21.22427578072654
 31
0.0
  0
LINE
  5
1D91
  8
0
 62
     0
 10
117.7795169668094
 20
-19.082963241681021
 30
0.0
 11
117.7795169668094
 21
-23.720184145727661
 31
0.0
  0
LINE
  5
1D92
  8
0
 62
     0
 10
118.89076696680939
 20
-21.298905839580389
 30
0.0
 11
118.89076696680939
 21
-23.973606797754599
 31
0.0
  0
LINE
  5
1D93
  8
0
 62
     0
 10
120.00201696680941
 20
-22.084654160975688
 30
0.0
 11
120.00201696680941
 21
-24.081256839681579
 31
0.0
  0
LINE
  5
1D94
  8
0
 62
     0
 10
121.11326696680941
 20
-21.230861814786788
 30
0.0
 11
121.11326696680941
 21
-24.71635178072242
 31
0.0
  0
LINE
  5
1D95
  8
0
 62
     0
 10
122.2245169668094
 20
-20.893481127776461
 30
0.0
 11
122.2245169668094
 21
-25.05373246773356
 31
0.0
  0
ENDBLK
  5
1D97
  8
0
  0
BLOCK
  8
0
  2
*X94
 70
     1
 10
0.0
 20
0.0
 30
0.0
  3
*X94
  1

  0
LINE
  5
1E11
  8
0
 62
     0
 10
100.6207872728112
 20
-52.228749999999991
 30
0.0
 11
122.37921272718989
 21
-52.228749999999991
 31
0.0
  0
LINE
  5
1E12
  8
0
 62
     0
 10
100.2163253499829
 20
-51.117499999999993
 30
0.0
 11
122.7836746500182
 21
-51.117499999999993
 31
0.0
  0
LINE
  5
1E13
  8
0
 62
     0
 10
121.0597810278947
 20
-50.006249999999987
 30
0.0
 11
123.18887740688891
 21
-50.006249999999987
 31
0.0
  0
LINE
  5
1E14
  8
0
 62
     0
 10
99.811115033432785
 20
-50.006249999999987
 30
0.0
 11
101.94021897210639
 21
-50.006249999999987
 31
0.0
  0
LINE
  5
1E15
  8
0
 62
     0
 10
124.36886312653429
 20
-50.006249999999987
 30
0.0
 11
126.5000000000006
 21
-50.006249999999987
 31
0.0
  0
LINE
  5
1E16
  8
0
 62
     0
 10
96.500000000000568
 20
-50.006249999999987
 30
0.0
 11
98.6311368734669
 21
-50.006249999999987
 31
0.0
  0
LINE
  5
1E17
  8
0
 62
     0
 10
121.464242950723
 20
-48.894999999999989
 30
0.0
 11
126.5000000000006
 21
-48.894999999999989
 31
0.0
  0
LINE
  5
1E18
  8
0
 62
     0
 10
96.500000000000568
 20
-48.894999999999989
 30
0.0
 11
101.5357570492781
 21
-48.894999999999989
 31
0.0
  0
LINE
  5
1E19
  8
0
 62
     0
 10
123.8223130482565
 20
-47.783749999999991
 30
0.0
 11
126.5000000000006
 21
-47.783749999999991
 31
0.0
  0
LINE
  5
1E1A
  8
0
 62
     0
 10
96.500000000000568
 20
-47.783749999999991
 30
0.0
 11
99.177686951741634
 21
-47.783749999999991
 31
0.0
  0
ENDBLK
  5
1E1C
  8
0
  0
BLOCK
  8
0
  2
*X95
 70
     1
 10
0.0
 20
0.0
 30
0.0
  3
*X95
  1

  0
LINE
  5
1E1E
  8
0
 62
     0
 10
101.11076696680939
 20
-20.873606797754629
 30
0.0
 11
101.11076696680939
 21
-25.073606797754611
 31
0.0
  0
LINE
  5
1E1F
  8
0
 62
     0
 10
102.22201696680941
 20
-21.424438084117568
 30
0.0
 11
102.22201696680941
 21
-24.522775511391551
 31
0.0
  0
LINE
  5
1E20
  8
0
 62
     0
 10
103.3332669668094
 20
-21.9772493393322
 30
0.0
 11
103.3332669668094
 21
-23.98452095910066
 31
0.0
  0
LINE
  5
1E21
  8
0
 62
     0
 10
104.4445169668094
 20
-20.54584579496877
 30
0.0
 11
104.4445169668094
 21
-23.973606797754599
 31
0.0
  0
LINE
  5
1E22
  8
0
 62
     0
 10
105.5557669668094
 20
-19.073606797754501
 30
0.0
 11
105.5557669668094
 21
-22.955968401164309
 31
0.0
  0
LINE
  5
1E23
  8
0
 62
     0
 10
106.6670169668094
 20
-19.073606797754501
 30
0.0
 11
106.6670169668094
 21
-20.895182693901031
 31
0.0
  0
LINE
  5
1E24
  8
0
 62
     0
 10
107.7782669668094
 20
-19.07360679775449
 30
0.0
 11
107.7782669668094
 21
-20.873606797754409
 31
0.0
  0
LINE
  5
1E25
  8
0
 62
     0
 10
108.8895169668094
 20
-19.073606797754479
 30
0.0
 11
108.8895169668094
 21
-20.873606797754409
 31
0.0
  0
LINE
  5
1E26
  8
0
 62
     0
 10
110.00076696680939
 20
-19.073606797754479
 30
0.0
 11
110.00076696680939
 21
-20.873606797754409
 31
0.0
  0
LINE
  5
1E27
  8
0
 62
     0
 10
111.11201696680941
 20
-19.073606797754469
 30
0.0
 11
111.11201696680941
 21
-20.873606797754409
 31
0.0
  0
LINE
  5
1E28
  8
0
 62
     0
 10
112.2232669668094
 20
-19.073606797754461
 30
0.0
 11
112.2232669668094
 21
-20.873606797754409
 31
0.0
  0
LINE
  5
1E29
  8
0
 62
     0
 10
113.3345169668094
 20
-19.073606797754461
 30
0.0
 11
113.3345169668094
 21
-20.873606797754409
 31
0.0
  0
LINE
  5
1E2A
  8
0
 62
     0
 10
114.4457669668094
 20
-19.073606797754501
 30
0.0
 11
114.4457669668094
 21
-20.873606797754409
 31
0.0
  0
LINE
  5
1E2B
  8
0
 62
     0
 10
115.5570169668094
 20
-19.07360679775454
 30
0.0
 11
115.5570169668094
 21
-20.873606797754409
 31
0.0
  0
LINE
  5
1E2C
  8
0
 62
     0
 10
116.6682669668094
 20
-19.073606797754579
 30
0.0
 11
116.6682669668094
 21
-21.22427578072654
 31
0.0
  0
LINE
  5
1E2D
  8
0
 62
     0
 10
117.7795169668094
 20
-19.082963241681021
 30
0.0
 11
117.7795169668094
 21
-23.720184145727661
 31
0.0
  0
LINE
  5
1E2E
  8
0
 62
     0
 10
118.89076696680939
 20
-21.298905839580389
 30
0.0
 11
118.89076696680939
 21
-23.973606797754599
 31
0.0
  0
LINE
  5
1E2F
  8
0
 62
     0
 10
120.00201696680941
 20
-22.084654160975688
 30
0.0
 11
120.00201696680941
 21
-24.081256839681579
 31
0.0
  0
LINE
  5
1E30
  8
0
 62
     0
 10
121.11326696680941
 20
-21.230861814786788
 30
0.0
 11
121.11326696680941
 21
-24.71635178072242
 31
0.0
  0
LINE
  5
1E31
  8
0
 62
     0
 10
122.2245169668094
 20
-20.893481127776461
 30
0.0
 11
122.2245169668094
 21
-25.05373246773356
 31
0.0
  0
ENDBLK
  5
1E33
  8
0
  0
BLOCK
  8
0
  2
*U96
 70
     1
 10
0.0
 20
0.0
 30
0.0
  3
*U96
  1

  0
SOLID
  5
1EAD
  8
SAPA_FOGBAND
  6
CONTINUOUS
 10
-92.637568219765683
 20
18.895903570166499
 30
0.0
 11
-92.817845783538885
 21
18.821230158260061
 31
0.0
 12
-92.457290655992466
 22
18.821230158260061
 32
0.0
 13
-92.457290655992466
 23
18.821230158260061
 33
0.0
210
0.0
220
0.0
230
1.0
  0
SOLID
  5
1EAE
  8
SAPA_FOGBAND
  6
CONTINUOUS
 10
-92.817845783538885
 20
18.821230158260061
 30
0.0
 11
-92.892519195445317
 21
18.640952594486858
 31
0.0
 12
-92.382617244086049
 22
18.640952594486858
 32
0.0
 13
-92.382617244086049
 23
18.640952594486858
 33
0.0
210
0.0
220
0.0
230
1.0
  0
SOLID
  5
1EAF
  8
SAPA_FOGBAND
  6
CONTINUOUS
 10
92.817845783538885
 20
18.821230158260061
 30
0.0
 11
92.457290655992466
 21
18.821230158260061
 31
0.0
 12
92.382617244086049
 22
18.640952594486858
 32
0.0
 13
92.382617244086049
 23
18.640952594486858
 33
0.0
210
0.0
220
0.0
230
-1.0
  0
SOLID
  5
1EB0
  8
SAPA_FOGBAND
  6
CONTINUOUS
 10
92.817845783538885
 20
18.460675030713659
 30
0.0
 11
92.457290655992466
 21
18.460675030713659
 31
0.0
 12
92.637568219765683
 22
18.386001618807221
 32
0.0
 13
92.637568219765683
 23
18.386001618807221
 33
0.0
210
0.0
220
0.0
230
-1.0
  0
SOLID
  5
1EB1
  8
SAPA_FOGBAND
  6
CONTINUOUS
 10
-92.892519195445317
 20
18.640952594486858
 30
0.0
 11
-92.817845783538885
 21
18.460675030713659
 31
0.0
 12
-92.457290655992466
 22
18.460675030713659
 32
0.0
 13
-92.457290655992466
 23
18.460675030713659
 33
0.0
210
0.0
220
0.0
230
1.0
  0
SOLID
  5
1EB2
  8
SAPA_FOGBAND
  6
CONTINUOUS
 10
92.892519195445317
 20
18.640952594486858
 30
0.0
 11
92.382617244086049
 21
18.640952594486858
 31
0.0
 12
92.457290655992466
 22
18.460675030713659
 32
0.0
 13
92.457290655992466
 23
18.460675030713659
 33
0.0
210
0.0
220
0.0
230
-1.0
  0
LINE
  5
1EB3
  8
SAPA_FOGBAND
  6
CONTINUOUS
 10
-92.637568219765683
 20
18.895903570166499
 30
0.0
 11
-92.817845783538885
 21
18.821230158260061
 31
0.0
  0
LINE
  5
1EB4
  8
SAPA_FOGBAND
  6
CONTINUOUS
 10
-92.457290655992466
 20
18.821230158260061
 30
0.0
 11
-92.637568219765683
 21
18.895903570166499
 31
0.0
  0
LINE
  5
1EB5
  8
SAPA_FOGBAND
  6
CONTINUOUS
 10
-92.817845783538885
 20
18.821230158260061
 30
0.0
 11
-92.892519195445317
 21
18.640952594486858
 31
0.0
  0
LINE
  5
1EB6
  8
SAPA_FOGBAND
  6
CONTINUOUS
 10
-92.457290655992466
 20
18.821230158260061
 30
0.0
 11
-92.382617244086049
 21
18.640952594486858
 31
0.0
  0
LINE
  5
1EB7
  8
SAPA_FOGBAND
  6
CONTINUOUS
 10
-92.457290655992466
 20
18.460675030713659
 30
0.0
 11
-92.637568219765683
 21
18.386001618807221
 31
0.0
  0
LINE
  5
1EB8
  8
SAPA_FOGBAND
  6
CONTINUOUS
 10
-92.637568219765683
 20
18.386001618807221
 30
0.0
 11
-92.817845783538885
 21
18.460675030713659
 31
0.0
  0
LINE
  5
1EB9
  8
SAPA_FOGBAND
  6
CONTINUOUS
 10
-92.892519195445317
 20
18.640952594486858
 30
0.0
 11
-92.817845783538885
 21
18.460675030713659
 31
0.0
  0
LINE
  5
1EBA
  8
SAPA_FOGBAND
  6
CONTINUOUS
 10
-92.382617244086049
 20
18.640952594486858
 30
0.0
 11
-92.457290655992466
 21
18.460675030713659
 31
0.0
  0
ENDBLK
  5
1EBC
  8
0
  0
BLOCK
  8
0
  2
*U97
 70
     1
 10
0.0
 20
0.0
 30
0.0
  3
*U97
  1

  0
SOLID
  5
1FA2
  8
SAPA_FOGBAND
  6
CONTINUOUS
 10
-92.637568219766194
 20
-18.374405819934069
 30
0.0
 11
-92.817845783539397
 21
-18.449079231840521
 31
0.0
 12
-92.457290655992992
 22
-18.449079231840521
 32
0.0
 13
-92.457290655992992
 23
-18.449079231840521
 33
0.0
210
0.0
220
0.0
230
1.0
  0
SOLID
  5
1FA3
  8
SAPA_FOGBAND
  6
CONTINUOUS
 10
-92.817845783539397
 20
-18.449079231840521
 30
0.0
 11
-92.892519195445814
 21
-18.62935679561372
 31
0.0
 12
-92.382617244086575
 22
-18.62935679561372
 32
0.0
 13
-92.382617244086575
 23
-18.62935679561372
 33
0.0
210
0.0
220
0.0
230
1.0
  0
SOLID
  5
1FA4
  8
SAPA_FOGBAND
  6
CONTINUOUS
 10
92.817845783539397
 20
-18.449079231840521
 30
0.0
 11
92.457290655992992
 21
-18.449079231840521
 31
0.0
 12
92.382617244086575
 22
-18.62935679561372
 32
0.0
 13
92.382617244086575
 23
-18.62935679561372
 33
0.0
210
0.0
220
0.0
230
-1.0
  0
SOLID
  5
1FA5
  8
SAPA_FOGBAND
  6
CONTINUOUS
 10
92.817845783539397
 20
-18.809634359386909
 30
0.0
 11
92.457290655992992
 21
-18.809634359386909
 31
0.0
 12
92.637568219766194
 22
-18.884307771293361
 32
0.0
 13
92.637568219766194
 23
-18.884307771293361
 33
0.0
210
0.0
220
0.0
230
-1.0
  0
SOLID
  5
1FA6
  8
SAPA_FOGBAND
  6
CONTINUOUS
 10
-92.892519195445814
 20
-18.62935679561372
 30
0.0
 11
-92.817845783539397
 21
-18.809634359386909
 31
0.0
 12
-92.457290655992992
 22
-18.809634359386909
 32
0.0
 13
-92.457290655992992
 23
-18.809634359386909
 33
0.0
210
0.0
220
0.0
230
1.0
  0
SOLID
  5
1FA7
  8
SAPA_FOGBAND
  6
CONTINUOUS
 10
92.892519195445814
 20
-18.62935679561372
 30
0.0
 11
92.382617244086575
 21
-18.62935679561372
 31
0.0
 12
92.457290655992992
 22
-18.809634359386909
 32
0.0
 13
92.457290655992992
 23
-18.809634359386909
 33
0.0
210
0.0
220
0.0
230
-1.0
  0
LINE
  5
1FA8
  8
SAPA_FOGBAND
  6
CONTINUOUS
 10
-92.637568219766194
 20
-18.374405819934069
 30
0.0
 11
-92.817845783539397
 21
-18.449079231840521
 31
0.0
  0
LINE
  5
1FA9
  8
SAPA_FOGBAND
  6
CONTINUOUS
 10
-92.457290655992992
 20
-18.449079231840521
 30
0.0
 11
-92.637568219766194
 21
-18.374405819934069
 31
0.0
  0
LINE
  5
1FAA
  8
SAPA_FOGBAND
  6
CONTINUOUS
 10
-92.817845783539397
 20
-18.449079231840521
 30
0.0
 11
-92.892519195445814
 21
-18.62935679561372
 31
0.0
  0
LINE
  5
1FAB
  8
SAPA_FOGBAND
  6
CONTINUOUS
 10
-92.457290655992992
 20
-18.449079231840521
 30
0.0
 11
-92.382617244086575
 21
-18.62935679561372
 31
0.0
  0
LINE
  5
1FAC
  8
SAPA_FOGBAND
  6
CONTINUOUS
 10
-92.457290655992992
 20
-18.809634359386909
 30
0.0
 11
-92.637568219766194
 21
-18.884307771293361
 31
0.0
  0
LINE
  5
1FAD
  8
SAPA_FOGBAND
  6
CONTINUOUS
 10
-92.637568219766194
 20
-18.884307771293361
 30
0.0
 11
-92.817845783539397
 21
-18.809634359386909
 31
0.0
  0
LINE
  5
1FAE
  8
SAPA_FOGBAND
  6
CONTINUOUS
 10
-92.892519195445814
 20
-18.62935679561372
 30
0.0
 11
-92.817845783539397
 21
-18.809634359386909
 31
0.0
  0
LINE
  5
1FAF
  8
SAPA_FOGBAND
  6
CONTINUOUS
 10
-92.382617244086575
 20
-18.62935679561372
 30
0.0
 11
-92.457290655992992
 21
-18.809634359386909
 31
0.0
  0
ENDBLK
  5
1FB1
  8
0
  0
BLOCK
  8
0
  2
*U98
 70
     1
 10
0.0
 20
0.0
 30
0.0
  3
*U98
  1

  0
SOLID
  5
1FED
  8
SAPA_FOGBAND
  6
CONTINUOUS
 10
-92.637568219765683
 20
18.895903570166499
 30
0.0
 11
-92.817845783538885
 21
18.821230158260061
 31
0.0
 12
-92.457290655992466
 22
18.821230158260061
 32
0.0
 13
-92.457290655992466
 23
18.821230158260061
 33
0.0
210
0.0
220
0.0
230
1.0
  0
SOLID
  5
1FEE
  8
SAPA_FOGBAND
  6
CONTINUOUS
 10
-92.817845783538885
 20
18.821230158260061
 30
0.0
 11
-92.892519195445317
 21
18.640952594486858
 31
0.0
 12
-92.382617244086049
 22
18.640952594486858
 32
0.0
 13
-92.382617244086049
 23
18.640952594486858
 33
0.0
210
0.0
220
0.0
230
1.0
  0
SOLID
  5
1FEF
  8
SAPA_FOGBAND
  6
CONTINUOUS
 10
92.817845783538885
 20
18.821230158260061
 30
0.0
 11
92.457290655992466
 21
18.821230158260061
 31
0.0
 12
92.382617244086049
 22
18.640952594486858
 32
0.0
 13
92.382617244086049
 23
18.640952594486858
 33
0.0
210
0.0
220
0.0
230
-1.0
  0
SOLID
  5
1FF0
  8
SAPA_FOGBAND
  6
CONTINUOUS
 10
92.817845783538885
 20
18.460675030713659
 30
0.0
 11
92.457290655992466
 21
18.460675030713659
 31
0.0
 12
92.637568219765683
 22
18.386001618807221
 32
0.0
 13
92.637568219765683
 23
18.386001618807221
 33
0.0
210
0.0
220
0.0
230
-1.0
  0
SOLID
  5
1FF1
  8
SAPA_FOGBAND
  6
CONTINUOUS
 10
-92.892519195445317
 20
18.640952594486858
 30
0.0
 11
-92.817845783538885
 21
18.460675030713659
 31
0.0
 12
-92.457290655992466
 22
18.460675030713659
 32
0.0
 13
-92.457290655992466
 23
18.460675030713659
 33
0.0
210
0.0
220
0.0
230
1.0
  0
SOLID
  5
1FF2
  8
SAPA_FOGBAND
  6
CONTINUOUS
 10
92.892519195445317
 20
18.640952594486858
 30
0.0
 11
92.382617244086049
 21
18.640952594486858
 31
0.0
 12
92.457290655992466
 22
18.460675030713659
 32
0.0
 13
92.457290655992466
 23
18.460675030713659
 33
0.0
210
0.0
220
0.0
230
-1.0
  0
LINE
  5
1FF3
  8
SAPA_FOGBAND
  6
CONTINUOUS
 10
-92.637568219765683
 20
18.895903570166499
 30
0.0
 11
-92.817845783538885
 21
18.821230158260061
 31
0.0
  0
LINE
  5
1FF4
  8
SAPA_FOGBAND
  6
CONTINUOUS
 10
-92.457290655992466
 20
18.821230158260061
 30
0.0
 11
-92.637568219765683
 21
18.895903570166499
 31
0.0
  0
LINE
  5
1FF5
  8
SAPA_FOGBAND
  6
CONTINUOUS
 10
-92.817845783538885
 20
18.821230158260061
 30
0.0
 11
-92.892519195445317
 21
18.640952594486858
 31
0.0
  0
LINE
  5
1FF6
  8
SAPA_FOGBAND
  6
CONTINUOUS
 10
-92.457290655992466
 20
18.821230158260061
 30
0.0
 11
-92.382617244086049
 21
18.640952594486858
 31
0.0
  0
LINE
  5
1FF7
  8
SAPA_FOGBAND
  6
CONTINUOUS
 10
-92.457290655992466
 20
18.460675030713659
 30
0.0
 11
-92.637568219765683
 21
18.386001618807221
 31
0.0
  0
LINE
  5
1FF8
  8
SAPA_FOGBAND
  6
CONTINUOUS
 10
-92.637568219765683
 20
18.386001618807221
 30
0.0
 11
-92.817845783538885
 21
18.460675030713659
 31
0.0
  0
LINE
  5
1FF9
  8
SAPA_FOGBAND
  6
CONTINUOUS
 10
-92.892519195445317
 20
18.640952594486858
 30
0.0
 11
-92.817845783538885
 21
18.460675030713659
 31
0.0
  0
LINE
  5
1FFA
  8
SAPA_FOGBAND
  6
CONTINUOUS
 10
-92.382617244086049
 20
18.640952594486858
 30
0.0
 11
-92.457290655992466
 21
18.460675030713659
 31
0.0
  0
ENDBLK
  5
1FFC
  8
0
  0
BLOCK
  8
0
  2
*U99
 70
     1
 10
0.0
 20
0.0
 30
0.0
  3
*U99
  1

  0
SOLID
  5
20E2
  8
SAPA_FOGBAND
  6
CONTINUOUS
 10
-92.637568219766194
 20
-18.374405819934069
 30
0.0
 11
-92.817845783539397
 21
-18.449079231840521
 31
0.0
 12
-92.457290655992992
 22
-18.449079231840521
 32
0.0
 13
-92.457290655992992
 23
-18.449079231840521
 33
0.0
210
0.0
220
0.0
230
1.0
  0
SOLID
  5
20E3
  8
SAPA_FOGBAND
  6
CONTINUOUS
 10
-92.817845783539397
 20
-18.449079231840521
 30
0.0
 11
-92.892519195445814
 21
-18.62935679561372
 31
0.0
 12
-92.382617244086575
 22
-18.62935679561372
 32
0.0
 13
-92.382617244086575
 23
-18.62935679561372
 33
0.0
210
0.0
220
0.0
230
1.0
  0
SOLID
  5
20E4
  8
SAPA_FOGBAND
  6
CONTINUOUS
 10
92.817845783539397
 20
-18.449079231840521
 30
0.0
 11
92.457290655992992
 21
-18.449079231840521
 31
0.0
 12
92.382617244086575
 22
-18.62935679561372
 32
0.0
 13
92.382617244086575
 23
-18.62935679561372
 33
0.0
210
0.0
220
0.0
230
-1.0
  0
SOLID
  5
20E5
  8
SAPA_FOGBAND
  6
CONTINUOUS
 10
92.817845783539397
 20
-18.809634359386909
 30
0.0
 11
92.457290655992992
 21
-18.809634359386909
 31
0.0
 12
92.637568219766194
 22
-18.884307771293361
 32
0.0
 13
92.637568219766194
 23
-18.884307771293361
 33
0.0
210
0.0
220
0.0
230
-1.0
  0
SOLID
  5
20E6
  8
SAPA_FOGBAND
  6
CONTINUOUS
 10
-92.892519195445814
 20
-18.62935679561372
 30
0.0
 11
-92.817845783539397
 21
-18.809634359386909
 31
0.0
 12
-92.457290655992992
 22
-18.809634359386909
 32
0.0
 13
-92.457290655992992
 23
-18.809634359386909
 33
0.0
210
0.0
220
0.0
230
1.0
  0
SOLID
  5
20E7
  8
SAPA_FOGBAND
  6
CONTINUOUS
 10
92.892519195445814
 20
-18.62935679561372
 30
0.0
 11
92.382617244086575
 21
-18.62935679561372
 31
0.0
 12
92.457290655992992
 22
-18.809634359386909
 32
0.0
 13
92.457290655992992
 23
-18.809634359386909
 33
0.0
210
0.0
220
0.0
230
-1.0
  0
LINE
  5
20E8
  8
SAPA_FOGBAND
  6
CONTINUOUS
 10
-92.637568219766194
 20
-18.374405819934069
 30
0.0
 11
-92.817845783539397
 21
-18.449079231840521
 31
0.0
  0
LINE
  5
20E9
  8
SAPA_FOGBAND
  6
CONTINUOUS
 10
-92.457290655992992
 20
-18.449079231840521
 30
0.0
 11
-92.637568219766194
 21
-18.374405819934069
 31
0.0
  0
LINE
  5
20EA
  8
SAPA_FOGBAND
  6
CONTINUOUS
 10
-92.817845783539397
 20
-18.449079231840521
 30
0.0
 11
-92.892519195445814
 21
-18.62935679561372
 31
0.0
  0
LINE
  5
20EB
  8
SAPA_FOGBAND
  6
CONTINUOUS
 10
-92.457290655992992
 20
-18.449079231840521
 30
0.0
 11
-92.382617244086575
 21
-18.62935679561372
 31
0.0
  0
LINE
  5
20EC
  8
SAPA_FOGBAND
  6
CONTINUOUS
 10
-92.457290655992992
 20
-18.809634359386909
 30
0.0
 11
-92.637568219766194
 21
-18.884307771293361
 31
0.0
  0
LINE
  5
20ED
  8
SAPA_FOGBAND
  6
CONTINUOUS
 10
-92.637568219766194
 20
-18.884307771293361
 30
0.0
 11
-92.817845783539397
 21
-18.809634359386909
 31
0.0
  0
LINE
  5
20EE
  8
SAPA_FOGBAND
  6
CONTINUOUS
 10
-92.892519195445814
 20
-18.62935679561372
 30
0.0
 11
-92.817845783539397
 21
-18.809634359386909
 31
0.0
  0
LINE
  5
20EF
  8
SAPA_FOGBAND
  6
CONTINUOUS
 10
-92.382617244086575
 20
-18.62935679561372
 30
0.0
 11
-92.457290655992992
 21
-18.809634359386909
 31
0.0
  0
ENDBLK
  5
20F1
  8
0
  0
BLOCK
  8
0
  2
*U100
 70
     1
 10
0.0
 20
0.0
 30
0.0
  3
*U100
  1

  0
TEXT
  5
213F
  8
SAPA_MATT
 62
     2
 10
67.399999999999011
 20
43.549455477510257
 30
0.0
 40
3.5
  1
10
  7
ISO
  0
ENDBLK
  5
2141
  8
0
  0
BLOCK
  8
0
  2
*U101
 70
     1
 10
0.0
 20
0.0
 30
0.0
  3
*U101
  1

  0
TEXT
  5
2143
  8
SAPA_MATT
 62
     2
 10
-134.8699098731158
 20
-2.450000000000407
 30
0.0
 40
3.5
  1
50
 50
90.0
  7
ISO
  0
ENDBLK
  5
2145
  8
0
  0
ENDSEC
  0
SECTION
  2
ENTITIES
  0
POLYLINE
  5
76C
  8
SAPA_LIGHT
 66
     1
 10
0.0
 20
0.0
 30
0.0
 70
     1
  0
VERTEX
  5
145E
  8
SAPA_LIGHT
 10
-114.4999999990103
 20
24.999999999999051
 30
0.0
  0
VERTEX
  5
145F
  8
SAPA_LIGHT
 10
-114.4999999990103
 20
-25.000000000000949
 30
0.0
  0
VERTEX
  5
1460
  8
SAPA_LIGHT
 10
-90.499999999011834
 20
-24.999999999999879
 30
0.0
  0
VERTEX
  5
1461
  8
SAPA_LIGHT
 10
-90.499999999011834
 20
-5.0000000000000417
 30
0.0
  0
VERTEX
  5
1462
  8
SAPA_LIGHT
 10
-48.499999999011827
 20
-5.0000000000000417
 30
0.0
  0
VERTEX
  5
1463
  8
SAPA_LIGHT
 10
-48.499999999011827
 20
-24.999999999999879
 30
0.0
  0
VERTEX
  5
1464
  8
SAPA_LIGHT
 10
64.499999999998863
 20
-25.00000000000021
 30
0.0
  0
VERTEX
  5
1465
  8
SAPA_LIGHT
 10
64.499999999998863
 20
24.99999999999979
 30
0.0
  0
VERTEX
  5
1466
  8
SAPA_LIGHT
 10
-35.500000000001137
 20
24.99999999999968
 30
0.0
  0
VERTEX
  5
1467
  8
SAPA_LIGHT
 10
-35.500000000001137
 20
4.9999999999996732
 30
0.0
  0
VERTEX
  5
1468
  8
SAPA_LIGHT
 10
-87.499999999009958
 20
4.9999999999995017
 30
0.0
  0
VERTEX
  5
1469
  8
SAPA_LIGHT
 10
-87.499999999009958
 20
25.000000000000298
 30
0.0
  0
SEQEND
  5
146A
  8
SAPA_LIGHT
  0
POLYLINE
  5
76D
  8
SAPA_LIGHT
 66
     1
 10
0.0
 20
0.0
 30
0.0
  0
VERTEX
  5
146B
  8
SAPA_LIGHT
 10
62.499999999998863
 20
75.000000000000242
 30
0.0
  0
VERTEX
  5
146C
  8
SAPA_LIGHT
 10
62.499999999998863
 20
26.000000000000242
 30
0.0
  0
VERTEX
  5
146D
  8
SAPA_LIGHT
 10
50.999999999998749
 20
26.000000000000242
 30
0.0
  0
VERTEX
  5
146E
  8
SAPA_LIGHT
 10
50.999999999998749
 20
75.000000000000242
 30
0.0
  0
SEQEND
  5
146F
  8
SAPA_LIGHT
  0
POLYLINE
  5
76E
  8
SAPA_LIGHT
 66
     1
 10
0.0
 20
0.0
 30
0.0
  0
VERTEX
  5
1470
  8
SAPA_LIGHT
 10
-35.500000000001023
 20
75.522593981593801
 30
0.0
  0
VERTEX
  5
1471
  8
SAPA_LIGHT
 10
-35.506403657189082
 20
14.0351138991124
 30
0.0
  0
VERTEX
  5
1472
  8
SAPA_LIGHT
 10
-43.500000000001023
 20
14.03511389911246
 30
0.0
  0
VERTEX
  5
1473
  8
SAPA_LIGHT
 10
-43.500000000001023
 20
75.522593981593843
 30
0.0
  0
SEQEND
  5
1474
  8
SAPA_LIGHT
  0
POLYLINE
  5
76F
  8
SAPA_LIGHT
 66
     1
 10
0.0
 20
0.0
 30
0.0
  0
VERTEX
  5
1475
  8
SAPA_LIGHT
 10
-79.499999999009503
 20
75.522593981594824
 30
0.0
  0
VERTEX
  5
1476
  8
SAPA_LIGHT
 10
-79.499999999009944
 20
11.00000000000024
 30
0.0
  0
VERTEX
  5
1477
  8
SAPA_LIGHT
 10
-87.499999999009958
 20
11.000000000000179
 30
0.0
  0
VERTEX
  5
1478
  8
SAPA_LIGHT
 10
-87.499999999009958
 20
75.522593981594767
 30
0.0
  0
SEQEND
  5
1479
  8
SAPA_LIGHT
  0
INSERT
  5
771
  8
0
  2
*U85
 10
0.0
 20
0.0
 30
0.0
  0
INSERT
  5
772
  8
0
  2
*U86
 10
0.0
 20
0.0
 30
0.0
  0
POLYLINE
  5
773
  8
SAPA_LIGHT
 66
     1
 10
0.0
 20
0.0
 30
0.0
  0
VERTEX
  5
1482
  8
SAPA_LIGHT
 10
-90.499999999010228
 20
-40.999999999995723
 30
0.0
  0
VERTEX
  5
1483
  8
SAPA_LIGHT
 10
-90.499999999010228
 20
-10.999999999995721
 30
0.0
  0
VERTEX
  5
1484
  8
SAPA_LIGHT
 10
-48.499999999010242
 20
-10.999999999995721
 30
0.0
  0
VERTEX
  5
1485
  8
SAPA_LIGHT
 10
-48.499999999010242
 20
-40.999999999995723
 30
0.0
  0
SEQEND
  5
1486
  8
SAPA_LIGHT
  0
LINE
  5
D20
  8
SAPA_ANSLUTNING
 10
-89.000000000001364
 20
-24.99999999999995
 30
0.0
 11
-35.500000000001393
 21
-24.99999999999995
 31
0.0
  0
LINE
  5
D21
  8
SAPA_ANSLUTNING
 10
-78.629051083350816
 20
-24.99999999999995
 30
0.0
 11
-67.619865736888414
 21
-35.500000000000647
 31
0.0
  0
LINE
  5
D22
  8
SAPA_ANSLUTNING
 10
-67.619865736888414
 20
-35.500000000000647
 30
0.0
 11
-57.610680390426012
 21
-24.99999999999995
 31
0.0
  0
LINE
  5
D23
  8
SAPA_ANSLUTNING
 10
-57.610680390426012
 20
-24.99999999999995
 30
0.0
 11
-47.60149504396361
 21
-35.500000000000647
 31
0.0
  0
LINE
  5
D24
  8
SAPA_ANSLUTNING
 10
-47.60149504396361
 20
-35.500000000000647
 30
0.0
 11
-37.601495043971568
 21
-24.99999999999995
 31
0.0
  0
LINE
  5
D25
  8
SAPA_ANSLUTNING
 10
-37.601495043971568
 20
-24.99999999999995
 30
0.0
 11
-27.601495043979529
 21
-35.500000000000647
 31
0.0
  0
LINE
  5
D26
  8
SAPA_ANSLUTNING
 10
-27.601495043979529
 20
-35.500000000000647
 30
0.0
 11
-17.59230969751712
 21
-24.99081465352976
 31
0.0
  0
LINE
  5
D27
  8
SAPA_ANSLUTNING
 10
-17.59230969751712
 20
-24.99081465352976
 30
0.0
 11
-7.5831243510546917
 21
-35.500000000000682
 31
0.0
  0
LINE
  5
D28
  8
SAPA_ANSLUTNING
 10
-7.5831243510546917
 20
-35.500000000000682
 30
0.0
 11
2.4168756489273728
 21
-25.000000000010179
 31
0.0
  0
LINE
  5
D29
  8
SAPA_ANSLUTNING
 10
2.4168756489273728
 20
-25.000000000010179
 30
0.0
 11
12.4168756489095
 21
-35.500000000000682
 31
0.0
  0
LINE
  5
D2A
  8
SAPA_ANSLUTNING
 10
12.4168756489095
 20
-35.500000000000682
 30
0.0
 11
22.42606099537187
 21
-24.99081465352976
 31
0.0
  0
LINE
  5
D2B
  8
SAPA_ANSLUTNING
 10
22.42606099537187
 20
-24.99081465352976
 30
0.0
 11
32.435246341834301
 21
-35.500000000000682
 31
0.0
  0
LINE
  5
D2C
  8
SAPA_ANSLUTNING
 10
32.435246341834301
 20
-35.500000000000682
 30
0.0
 11
42.435246341826257
 21
-25.000000000000199
 31
0.0
  0
LINE
  5
D2D
  8
SAPA_ANSLUTNING
 10
42.435246341826257
 20
-25.000000000000199
 30
0.0
 11
52.435246341818342
 21
-35.500000000000682
 31
0.0
  0
LINE
  5
D2E
  8
SAPA_ANSLUTNING
 10
52.435246341818342
 20
-35.500000000000682
 30
0.0
 11
62.435246341810348
 21
-25.000000000000199
 31
0.0
  0
LINE
  5
D2F
  8
SAPA_ANSLUTNING
 10
62.435246341810348
 20
-25.000000000000199
 30
0.0
 11
69.034178867204787
 21
-31.561130032408499
 31
0.0
  0
LINE
  5
D31
  8
SAPA_ANSLUTNING
 10
69.034178867204744
 20
-24.999999999999972
 30
0.0
 11
-41.500000000001357
 21
-24.99999999999995
 31
0.0
  0
LINE
  5
D32
  8
SAPA_ANSLUTNING
 10
69.034178867204787
 20
-26.000000000000881
 30
0.0
 11
69.034178867204787
 21
-25.021238481693871
 31
0.0
  0
LINE
  5
D33
  8
SAPA_ANSLUTNING
 10
-78.629051083350816
 20
-24.99999999999995
 30
0.0
 11
-89.000000000001336
 21
-34.891282615187208
 31
0.0
  0
INSERT
  5
D5F
  8
0
  2
*U87
 10
0.0
 20
0.0
 30
0.0
  0
INSERT
  5
D60
  8
0
  2
*U88
 10
0.0
 20
0.0
 30
0.0
  0
INSERT
  5
D61
  8
0
  2
*U89
 10
0.0
 20
0.0
 30
0.0
  0
INSERT
  5
D62
  8
0
  2
*U90
 10
0.0
 20
0.0
 30
0.0
  0
INSERT
  5
D68
  8
0
  2
*U91
 10
0.0
 20
0.0
 30
0.0
  0
LINE
  5
1188
  8
SAPA_PROFIL
 10
68.534178867204787
 20
-35.500000000000767
 30
0.0
 11
-89.000000000001336
 21
-35.500000000000398
 31
0.0
  0
LINE
  5
1189
  8
SAPA_PROFIL
 10
-89.000000000001336
 20
-35.500000000000398
 30
0.0
 11
-89.000000000001336
 21
-6.000000000000397
 31
0.0
  0
LINE
  5
118A
  8
SAPA_PROFIL
 10
-89.000000000001336
 20
-6.000000000000397
 30
0.0
 11
-90.500000000001336
 21
-6.000000000000397
 31
0.0
  0
LINE
  5
118B
  8
SAPA_PROFIL
 10
-90.500000000001336
 20
-6.000000000000397
 30
0.0
 11
-90.500000000001336
 21
-36.000000000000398
 31
0.0
  0
ARC
  5
118C
  8
SAPA_PROFIL
 10
-89.500000000001336
 20
-36.000000000000398
 30
0.0
 40
1.0
 50
180.0
 51
270.0
  0
LINE
  5
118D
  8
SAPA_PROFIL
 10
-89.500000000001336
 20
-37.000000000000398
 30
0.0
 11
68.534178867204787
 21
-37.000000000000767
 31
0.0
  0
ARC
  5
118E
  8
SAPA_PROFIL
 10
68.53417886720473
 20
-35.000000000000711
 30
0.0
 40
2.000000000000056
 50
270.00000000000171
 51
0.0000000000016284
  0
LINE
  5
118F
  8
SAPA_PROFIL
 10
70.534178867204787
 20
-35.000000000000661
 30
0.0
 11
70.534178867204787
 21
-26.000000000000881
 31
0.0
  0
LINE
  5
1190
  8
SAPA_PROFIL
 10
70.534178867204787
 20
-26.000000000000881
 30
0.0
 11
69.034178867204787
 21
-26.000000000000881
 31
0.0
  0
LINE
  5
1191
  8
SAPA_PROFIL
 10
69.034178867204787
 20
-26.000000000000881
 30
0.0
 11
69.034178867204787
 21
-35.000000000000661
 31
0.0
  0
ARC
  5
1192
  8
SAPA_PROFIL
 10
68.534178867204716
 20
-35.000000000000703
 30
0.0
 40
0.5000000000000711
 50
270.00000000000807
 51
0.0000000000048853
  0
LINE
  5
11A0
  8
SAPA_FYLLNING
 10
-29.500000000001929
 20
31.3484674857831
 30
0.0
 11
42.799999999999272
 21
31.348467485783161
 31
0.0
  0
ARC
  5
11A1
  8
SAPA_FYLLNING
 10
42.799999999999272
 20
37.348467485783161
 30
0.0
 40
6.0
 50
270.0
 51
90.0
  0
LINE
  5
11A2
  8
SAPA_FYLLNING
 10
42.799999999999272
 20
43.348467485783161
 30
0.0
 11
-29.500000000001929
 21
43.348467485784923
 31
0.0
  0
ARC
  5
11A3
  8
SAPA_FYLLNING
 10
-29.500000000002021
 20
49.3484674857839
 30
0.0
 40
5.9999999999989759
 50
90.00000000000081
 51
270.0000000000008
  0
LINE
  5
11A4
  8
SAPA_FYLLNING
 10
-29.50000000000211
 20
55.348467485782876
 30
0.0
 11
44.999999999998167
 21
55.34846748578498
 31
0.0
  0
ARC
  5
11A5
  8
SAPA_FYLLNING
 10
44.999999999998167
 20
61.34846748578407
 30
0.0
 40
5.9999999999990896
 50
270.0
 51
90.0
  0
LINE
  5
11A6
  8
SAPA_FYLLNING
 10
44.999999999998167
 20
67.348467485783161
 30
0.0
 11
-29.500000000001929
 21
67.348467485783104
 31
0.0
  0
POLYLINE
  5
1335
  8
SAPA_PROFIL
 66
     1
 10
0.0
 20
0.0
 30
0.0
 70
     1
  0
VERTEX
  5
1909
  8
SAPA_PROFIL
 10
131.30276762106229
 20
-72.999999999986812
 30
0.0
  0
VERTEX
  5
190A
  8
SAPA_PROFIL
 10
131.95855574853849
 20
-48.599999999986721
 30
0.0
 42
0.6681786379237078
  0
VERTEX
  5
190B
  8
SAPA_PROFIL
 10
131.44642371418021
 20
-48.387867965633632
 30
0.0
  0
VERTEX
  5
190C
  8
SAPA_PROFIL
 10
129.44642371418249
 20
-50.38786796563091
 30
0.0
 42
0.733230336258869
  0
VERTEX
  5
190D
  8
SAPA_PROFIL
 10
129.71065020184011
 20
-50.895442325890137
 30
0.0
  0
VERTEX
  5
190E
  8
SAPA_PROFIL
 10
130.30646129523859
 20
-50.790384754718609
 30
0.0
 42
-0.4663076581593259
  0
VERTEX
  5
190F
  8
SAPA_PROFIL
 10
130.65855574853879
 20
-51.085827080622039
 30
0.0
  0
VERTEX
  5
1910
  8
SAPA_PROFIL
 10
130.00276762106259
 20
-72.999999999986812
 30
0.0
 42
-0.41421356237163
  0
VERTEX
  5
1911
  8
SAPA_PROFIL
 10
129.50276762106489
 20
-73.499999999986812
 30
0.0
  0
VERTEX
  5
1912
  8
SAPA_PROFIL
 10
120.3000000022176
 20
-73.499999999986812
 30
0.0
 42
-0.4142135623716965
  0
VERTEX
  5
1913
  8
SAPA_PROFIL
 10
119.8000000022176
 20
-72.999999999991815
 30
0.0
  0
VERTEX
  5
1914
  8
SAPA_PROFIL
 10
119.8000000022176
 20
-61.299999999988358
 30
0.0
 42
0.4142135623729286
  0
VERTEX
  5
1915
  8
SAPA_PROFIL
 10
119.5000000022179
 20
-60.999999999988177
 30
0.0
  0
VERTEX
  5
1916
  8
SAPA_PROFIL
 10
118.8000000022176
 20
-60.999999999988177
 30
0.0
 42
0.414213562373206
  0
VERTEX
  5
1917
  8
SAPA_PROFIL
 10
118.5000000022174
 20
-61.299999999988358
 30
0.0
  0
VERTEX
  5
1918
  8
SAPA_PROFIL
 10
118.5000000022174
 20
-72.700000000002547
 30
0.0
 42
-0.4142135623732283
  0
VERTEX
  5
1919
  8
SAPA_PROFIL
 10
118.0000000022174
 20
-73.200000000002547
 30
0.0
  0
VERTEX
  5
191A
  8
SAPA_PROFIL
 10
116.8000000022181
 20
-73.200000000001637
 30
0.0
 42
0.4142135623732616
  0
VERTEX
  5
191B
  8
SAPA_PROFIL
 10
116.5000000022179
 20
-73.500000000001364
 30
0.0
  0
VERTEX
  5
191C
  8
SAPA_PROFIL
 10
116.5000000022174
 20
-74.699999999987085
 30
0.0
 42
0.4142135623717076
  0
VERTEX
  5
191D
  8
SAPA_PROFIL
 10
116.80000000221899
 20
-74.999999999986812
 30
0.0
  0
VERTEX
  5
191E
  8
SAPA_PROFIL
 10
146.70000000221731
 20
-75.000000000000455
 30
0.0
 42
0.4142135623732531
  0
VERTEX
  5
191F
  8
SAPA_PROFIL
 10
147.0000000022174
 20
-74.700000000000273
 30
0.0
  0
VERTEX
  5
1920
  8
SAPA_PROFIL
 10
147.0000000022174
 20
-53.204567898555972
 30
0.0
 42
0.4209196114694233
  0
VERTEX
  5
1921
  8
SAPA_PROFIL
 10
146.8000521732653
 20
-52.999999999986812
 30
0.0
  0
VERTEX
  5
1922
  8
SAPA_PROFIL
 10
145.99999872298491
 20
-52.999999999986812
 30
0.0
  0
VERTEX
  5
1923
  8
SAPA_PROFIL
 10
145.99999872298491
 20
-53.299999999986539
 30
0.0
 42
-0.4142135623730117
  0
VERTEX
  5
1924
  8
SAPA_PROFIL
 10
145.79999872298509
 20
-53.499999999986812
 30
0.0
  0
VERTEX
  5
1925
  8
SAPA_PROFIL
 10
145.58282095751531
 20
-53.499999999986812
 30
0.0
 42
-0.1988669396405999
  0
VERTEX
  5
1926
  8
SAPA_PROFIL
 10
145.44142432339879
 20
-53.441446074023588
 30
0.0
  0
VERTEX
  5
1927
  8
SAPA_PROFIL
 10
144.9998238959102
 20
-52.999999999986812
 30
0.0
  0
VERTEX
  5
1928
  8
SAPA_PROFIL
 10
144.50276762106259
 20
-52.502943725139168
 30
0.0
  0
VERTEX
  5
1929
  8
SAPA_PROFIL
 10
144.50276762106529
 20
-50.99959934358003
 30
0.0
 42
0.4956073595117196
  0
VERTEX
  5
192A
  8
SAPA_PROFIL
 10
144.7167433555806
 20
-49.422537522860239
 30
0.0
  0
VERTEX
  5
192B
  8
SAPA_PROFIL
 10
143.65456466263331
 20
-48.360358829912911
 30
0.0
 42
0.6681786379165803
  0
VERTEX
  5
192C
  8
SAPA_PROFIL
 10
143.30276762106229
 20
-48.506077935737721
 30
0.0
  0
VERTEX
  5
192D
  8
SAPA_PROFIL
 10
143.30276762106229
 20
-52.999999999986812
 30
0.0
  0
VERTEX
  5
192E
  8
SAPA_PROFIL
 10
145.37993951020241
 20
-55.077171889126468
 30
0.0
 42
-0.2061234514950363
  0
VERTEX
  5
192F
  8
SAPA_PROFIL
 10
145.52619420079199
 20
-55.4445774269875
 30
0.0
  0
VERTEX
  5
1930
  8
SAPA_PROFIL
 10
145.10663071140019
 20
-70.583112883594822
 30
0.0
 42
-0.4061212134723014
  0
VERTEX
  5
1931
  8
SAPA_PROFIL
 10
142.10778222430059
 20
-73.499999999986812
 30
0.0
  0
VERTEX
  5
1932
  8
SAPA_PROFIL
 10
131.80276762106499
 20
-73.499999999986812
 30
0.0
 42
-0.41421356237163
  0
SEQEND
  5
1933
  8
SAPA_PROFIL
  0
POLYLINE
  5
1336
  8
SAPA_PROFIL
  6
CONTINUOUS
 62
     7
 66
     1
 10
0.0
 20
0.0
 30
0.0
 70
     1
  0
VERTEX
  5
1934
  8
SAPA_PROFIL
  6
CONTINUOUS
 62
     7
 10
119.08786796564
 20
2.0878679656457839
 30
0.0
  0
VERTEX
  5
1935
  8
SAPA_PROFIL
  6
CONTINUOUS
 62
     7
 10
120.5355339059292
 20
3.5355339059345279
 30
0.0
 42
-0.198912367379658
  0
VERTEX
  5
1936
  8
SAPA_PROFIL
  6
CONTINUOUS
 62
     7
 10
124.07106781186189
 20
5.0000000000017621
 30
0.0
  0
VERTEX
  5
1937
  8
SAPA_PROFIL
  6
CONTINUOUS
 62
     7
 10
141.23873016277599
 20
5.0000000000017621
 30
0.0
 42
-0.1989123673795848
  0
VERTEX
  5
1938
  8
SAPA_PROFIL
  6
CONTINUOUS
 62
     7
 10
141.4508621971319
 20
4.9121320343577386
 30
0.0
  0
VERTEX
  5
1939
  8
SAPA_PROFIL
  6
CONTINUOUS
 62
     7
 10
141.76213203435299
 20
4.600862197136677
 30
0.0
 42
-0.1989123673795849
  0
VERTEX
  5
193A
  8
SAPA_PROFIL
  6
CONTINUOUS
 62
     7
 10
141.84999999999701
 20
4.388730162780746
 30
0.0
  0
VERTEX
  5
193B
  8
SAPA_PROFIL
  6
CONTINUOUS
 62
     7
 10
141.84999999999599
 20
2.5000000000017621
 30
0.0
 42
0.4142135623730951
  0
VERTEX
  5
193C
  8
SAPA_PROFIL
  6
CONTINUOUS
 62
     7
 10
142.3499999999959
 20
2.0000000000017621
 30
0.0
  0
VERTEX
  5
193D
  8
SAPA_PROFIL
  6
CONTINUOUS
 62
     7
 10
143.24999999999591
 20
2.0000000000017621
 30
0.0
 42
0.4142135623730951
  0
VERTEX
  5
193E
  8
SAPA_PROFIL
  6
CONTINUOUS
 62
     7
 10
143.74999999999591
 20
2.5000000000017621
 30
0.0
  0
VERTEX
  5
193F
  8
SAPA_PROFIL
  6
CONTINUOUS
 62
     7
 10
143.74999999999801
 20
5.1757359312886697
 30
0.0
 42
0.1989123673811711
  0
VERTEX
  5
1940
  8
SAPA_PROFIL
  6
CONTINUOUS
 62
     7
 10
143.66213203435291
 20
5.3878679656457393
 30
0.0
  0
VERTEX
  5
1941
  8
SAPA_PROFIL
  6
CONTINUOUS
 62
     7
 10
141.13786796563991
 20
7.9121320343577386
 30
0.0
 42
0.1989123673795848
  0
VERTEX
  5
1942
  8
SAPA_PROFIL
  6
CONTINUOUS
 62
     7
 10
140.92573593128401
 20
8.0000000000017621
 30
0.0
  0
VERTEX
  5
1943
  8
SAPA_PROFIL
  6
CONTINUOUS
 62
     7
 10
134.69999999999601
 20
8.0000000000007372
 30
0.0
 42
0.1316524975871777
  0
VERTEX
  5
1944
  8
SAPA_PROFIL
  6
CONTINUOUS
 62
     7
 10
134.54999999999589
 20
7.9598076211366902
 30
0.0
  0
VERTEX
  5
1945
  8
SAPA_PROFIL
  6
CONTINUOUS
 62
     7
 10
133.649999999996
 20
7.4401923788654472
 30
0.0
 42
-0.1316524975875274
  0
VERTEX
  5
1946
  8
SAPA_PROFIL
  6
CONTINUOUS
 62
     7
 10
133.49999999999591
 20
7.4000000000009427
 30
0.0
 42
-0.1316524975875274
  0
VERTEX
  5
1947
  8
SAPA_PROFIL
  6
CONTINUOUS
 62
     7
 10
133.34999999999599
 20
7.4401923788656736
 30
0.0
  0
VERTEX
  5
1948
  8
SAPA_PROFIL
  6
CONTINUOUS
 62
     7
 10
132.44999999999601
 20
7.9598076211366902
 30
0.0
 42
0.1316524975870712
  0
VERTEX
  5
1949
  8
SAPA_PROFIL
  6
CONTINUOUS
 62
     7
 10
132.29999999999589
 20
8.0000000000007372
 30
0.0
  0
VERTEX
  5
194A
  8
SAPA_PROFIL
  6
CONTINUOUS
 62
     7
 10
112.699999999996
 20
8.0000000000007372
 30
0.0
 42
0.1316524975871777
  0
VERTEX
  5
194B
  8
SAPA_PROFIL
  6
CONTINUOUS
 62
     7
 10
112.5499999999959
 20
7.9598076211366902
 30
0.0
  0
VERTEX
  5
194C
  8
SAPA_PROFIL
  6
CONTINUOUS
 62
     7
 10
111.649999999996
 20
7.4401923788654472
 30
0.0
 42
-0.1316524975875274
  0
VERTEX
  5
194D
  8
SAPA_PROFIL
  6
CONTINUOUS
 62
     7
 10
111.49999999999589
 20
7.4000000000009427
 30
0.0
 42
-0.1316524975875274
  0
VERTEX
  5
194E
  8
SAPA_PROFIL
  6
CONTINUOUS
 62
     7
 10
111.349999999996
 20
7.4401923788656736
 30
0.0
  0
VERTEX
  5
194F
  8
SAPA_PROFIL
  6
CONTINUOUS
 62
     7
 10
110.449999999996
 20
7.9598076211366902
 30
0.0
 42
0.1316524975870712
  0
VERTEX
  5
1950
  8
SAPA_PROFIL
  6
CONTINUOUS
 62
     7
 10
110.2999999999959
 20
8.0000000000007372
 30
0.0
  0
VERTEX
  5
1951
  8
SAPA_PROFIL
  6
CONTINUOUS
 62
     7
 10
90.699999999995896
 20
8.0000000000007372
 30
0.0
 42
0.1316524975871006
  0
VERTEX
  5
1952
  8
SAPA_PROFIL
  6
CONTINUOUS
 62
     7
 10
90.549999999996146
 20
7.9598076211362354
 30
0.0
  0
VERTEX
  5
1953
  8
SAPA_PROFIL
  6
CONTINUOUS
 62
     7
 10
89.649999999995941
 20
7.4401923788656736
 30
0.0
 42
-0.1316524975875669
  0
VERTEX
  5
1954
  8
SAPA_PROFIL
  6
CONTINUOUS
 62
     7
 10
89.499999999995964
 20
7.4000000000007162
 30
0.0
 42
-0.1316524975875274
  0
VERTEX
  5
1955
  8
SAPA_PROFIL
  6
CONTINUOUS
 62
     7
 10
89.349999999995987
 20
7.4401923788656736
 30
0.0
  0
VERTEX
  5
1956
  8
SAPA_PROFIL
  6
CONTINUOUS
 62
     7
 10
88.449999999995896
 20
7.9598076211366902
 30
0.0
 42
0.1316524975869701
  0
VERTEX
  5
1957
  8
SAPA_PROFIL
  6
CONTINUOUS
 62
     7
 10
88.299999999996032
 20
8.0000000000017621
 30
0.0
  0
VERTEX
  5
1958
  8
SAPA_PROFIL
  6
CONTINUOUS
 62
     7
 10
82.074264068707919
 20
8.0000000000017621
 30
0.0
 42
0.1989123673796162
  0
VERTEX
  5
1959
  8
SAPA_PROFIL
  6
CONTINUOUS
 62
     7
 10
81.862132034351987
 20
7.9121320343577386
 30
0.0
  0
VERTEX
  5
195A
  8
SAPA_PROFIL
  6
CONTINUOUS
 62
     7
 10
79.337867965638054
 20
5.3878679656457393
 30
0.0
 42
0.1989123673805862
  0
VERTEX
  5
195B
  8
SAPA_PROFIL
  6
CONTINUOUS
 62
     7
 10
79.249999999993918
 20
5.1757359312886697
 30
0.0
  0
VERTEX
  5
195C
  8
SAPA_PROFIL
  6
CONTINUOUS
 62
     7
 10
79.249999999995964
 20
2.5000000000017621
 30
0.0
 42
0.4142135623730951
  0
VERTEX
  5
195D
  8
SAPA_PROFIL
  6
CONTINUOUS
 62
     7
 10
79.749999999995964
 20
2.0000000000017621
 30
0.0
  0
VERTEX
  5
195E
  8
SAPA_PROFIL
  6
CONTINUOUS
 62
     7
 10
80.649999999996055
 20
2.0000000000017621
 30
0.0
 42
0.4142135623730951
  0
VERTEX
  5
195F
  8
SAPA_PROFIL
  6
CONTINUOUS
 62
     7
 10
81.149999999996055
 20
2.5000000000017621
 30
0.0
  0
VERTEX
  5
1960
  8
SAPA_PROFIL
  6
CONTINUOUS
 62
     7
 10
81.149999999994918
 20
4.388730162780746
 30
0.0
 42
-0.1989123673796162
  0
VERTEX
  5
1961
  8
SAPA_PROFIL
  6
CONTINUOUS
 62
     7
 10
81.237867965639055
 20
4.600862197136677
 30
0.0
  0
VERTEX
  5
1962
  8
SAPA_PROFIL
  6
CONTINUOUS
 62
     7
 10
81.549137802859988
 20
4.9121320343577386
 30
0.0
 42
-0.1989123673796162
  0
VERTEX
  5
1963
  8
SAPA_PROFIL
  6
CONTINUOUS
 62
     7
 10
81.761269837215934
 20
5.0000000000017621
 30
0.0
  0
VERTEX
  5
1964
  8
SAPA_PROFIL
  6
CONTINUOUS
 62
     7
 10
98.928932188129977
 20
5.0000000000017621
 30
0.0
 42
-0.198912367379658
  0
VERTEX
  5
1965
  8
SAPA_PROFIL
  6
CONTINUOUS
 62
     7
 10
102.4644660940629
 20
3.5355339059347548
 30
0.0
  0
VERTEX
  5
1966
  8
SAPA_PROFIL
  6
CONTINUOUS
 62
     7
 10
103.9121320343519
 20
2.0878679656457839
 30
0.0
 42
0.198912367379658
  0
VERTEX
  5
1967
  8
SAPA_PROFIL
  6
CONTINUOUS
 62
     7
 10
104.1242640687078
 20
2.0000000000017621
 30
0.0
  0
VERTEX
  5
1968
  8
SAPA_PROFIL
  6
CONTINUOUS
 62
     7
 10
111.49999999999589
 20
2.0000000000017621
 30
0.0
  0
VERTEX
  5
1969
  8
SAPA_PROFIL
  6
CONTINUOUS
 62
     7
 10
118.875735931284
 20
2.0000000000017621
 30
0.0
 42
0.198912367379658
  0
SEQEND
  5
196A
  8
SAPA_PROFIL
  6
CONTINUOUS
 62
     7
  0
POLYLINE
  5
1337
  8
SAPA_PROFIL
  6
CONTINUOUS
 66
     1
 10
0.0
 20
0.0
 30
0.0
 70
     1
  0
VERTEX
  5
196B
  8
SAPA_PROFIL
  6
CONTINUOUS
 10
78.500000004083915
 20
-40.799999999997141
 30
0.0
 42
-0.414213562374094
  0
VERTEX
  5
196C
  8
SAPA_PROFIL
  6
CONTINUOUS
 10
78.800000004082975
 20
-41.099999999997209
 30
0.0
  0
VERTEX
  5
196D
  8
SAPA_PROFIL
  6
CONTINUOUS
 10
78.800000004083884
 20
-41.999999999997179
 30
0.0
 42
-0.4142135623730951
  0
VERTEX
  5
196E
  8
SAPA_PROFIL
  6
CONTINUOUS
 10
78.500000004083915
 20
-42.299999999997141
 30
0.0
  0
VERTEX
  5
196F
  8
SAPA_PROFIL
  6
CONTINUOUS
 10
77.00000000408393
 20
-42.299999999997141
 30
0.0
 42
0.4142135623730951
  0
VERTEX
  5
1970
  8
SAPA_PROFIL
  6
CONTINUOUS
 10
76.50000000408393
 20
-42.799999999997141
 30
0.0
  0
VERTEX
  5
1971
  8
SAPA_PROFIL
  6
CONTINUOUS
 10
76.500000004051984
 20
-45.799999999983157
 30
0.0
 42
0.4142135623760252
  0
VERTEX
  5
1972
  8
SAPA_PROFIL
  6
CONTINUOUS
 10
77.000000004051984
 20
-46.299999999988152
 30
0.0
  0
VERTEX
  5
1973
  8
SAPA_PROFIL
  6
CONTINUOUS
 10
93.700000000013986
 20
-46.299999999988152
 30
0.0
 42
0.4142135623760253
  0
VERTEX
  5
1974
  8
SAPA_PROFIL
  6
CONTINUOUS
 10
94.200000000013986
 20
-45.799999999983157
 30
0.0
  0
VERTEX
  5
1975
  8
SAPA_PROFIL
  6
CONTINUOUS
 10
94.199999999981955
 20
-42.799999999997141
 30
0.0
 42
0.4142135623730951
  0
VERTEX
  5
1976
  8
SAPA_PROFIL
  6
CONTINUOUS
 10
93.699999999981941
 20
-42.299999999997141
 30
0.0
  0
VERTEX
  5
1977
  8
SAPA_PROFIL
  6
CONTINUOUS
 10
92.499999999983032
 20
-42.299999999996217
 30
0.0
 42
-0.414213562374094
  0
VERTEX
  5
1978
  8
SAPA_PROFIL
  6
CONTINUOUS
 10
92.199999999982964
 20
-41.999999999997179
 30
0.0
  0
VERTEX
  5
1979
  8
SAPA_PROFIL
  6
CONTINUOUS
 10
92.199999999982964
 20
-41.099999999997209
 30
0.0
 42
-0.414213562375093
  0
VERTEX
  5
197A
  8
SAPA_PROFIL
  6
CONTINUOUS
 10
92.499999999983032
 20
-40.799999999997141
 30
0.0
  0
VERTEX
  5
197B
  8
SAPA_PROFIL
  6
CONTINUOUS
 10
93.899999999982995
 20
-40.799999999998157
 30
0.0
 42
0.414213562374094
  0
VERTEX
  5
197C
  8
SAPA_PROFIL
  6
CONTINUOUS
 10
94.199999999982964
 20
-40.499999999997193
 30
0.0
  0
VERTEX
  5
197D
  8
SAPA_PROFIL
  6
CONTINUOUS
 10
94.199999999998198
 20
-30.622258092415251
 30
0.0
 42
-0.267949192430926
  0
VERTEX
  5
197E
  8
SAPA_PROFIL
  6
CONTINUOUS
 10
95.450000000000017
 20
-28.457194582957221
 30
0.0
  0
VERTEX
  5
197F
  8
SAPA_PROFIL
  6
CONTINUOUS
 10
98.250000000059984
 20
-26.840613829194162
 30
0.0
 42
0.2679491924363432
  0
VERTEX
  5
1980
  8
SAPA_PROFIL
  6
CONTINUOUS
 10
98.500000000061036
 20
-26.407601127293251
 30
0.0
  0
VERTEX
  5
1981
  8
SAPA_PROFIL
  6
CONTINUOUS
 10
98.499999999969049
 20
-21.299999999994188
 30
0.0
 42
0.4142135623682002
  0
VERTEX
  5
1982
  8
SAPA_PROFIL
  6
CONTINUOUS
 10
98.199999999969037
 20
-20.99999999999924
 30
0.0
  0
VERTEX
  5
1983
  8
SAPA_PROFIL
  6
CONTINUOUS
 10
97.799999996326932
 20
-20.99999999999924
 30
0.0
 42
-0.4142135623730784
  0
VERTEX
  5
1984
  8
SAPA_PROFIL
  6
CONTINUOUS
 10
97.299999996326989
 20
-20.49999999999924
 30
0.0
  0
VERTEX
  5
1985
  8
SAPA_PROFIL
  6
CONTINUOUS
 10
97.299999996326989
 20
-9.0000000000001457
 30
0.0
 42
0.4142135623730951
  0
VERTEX
  5
1986
  8
SAPA_PROFIL
  6
CONTINUOUS
 10
96.999999996326977
 20
-8.7000000000000774
 30
0.0
  0
VERTEX
  5
1987
  8
SAPA_PROFIL
  6
CONTINUOUS
 10
96.799999996327045
 20
-8.7000000000001911
 30
0.0
 42
-0.4142135623730951
  0
VERTEX
  5
1988
  8
SAPA_PROFIL
  6
CONTINUOUS
 10
96.499999996327034
 20
-8.4000000000002366
 30
0.0
  0
VERTEX
  5
1989
  8
SAPA_PROFIL
  6
CONTINUOUS
 10
96.499999996326963
 20
-5.9999999999842286
 30
0.0
 42
0.4142135623730951
  0
VERTEX
  5
198A
  8
SAPA_PROFIL
  6
CONTINUOUS
 10
96.199999996326966
 20
-5.6999999999841613
 30
0.0
  0
VERTEX
  5
198B
  8
SAPA_PROFIL
  6
CONTINUOUS
 10
94.700000000032986
 20
-5.7000000000531692
 30
0.0
 42
-0.4142135623730951
  0
VERTEX
  5
198C
  8
SAPA_PROFIL
  6
CONTINUOUS
 10
94.200000000032986
 20
-5.2000000000531692
 30
0.0
  0
VERTEX
  5
198D
  8
SAPA_PROFIL
  6
CONTINUOUS
 10
94.200000000032986
 20
2.9999999999358482
 30
0.0
 42
0.4142135623730951
  0
VERTEX
  5
198E
  8
SAPA_PROFIL
  6
CONTINUOUS
 10
93.900000000033017
 20
3.299999999935916
 30
0.0
  0
VERTEX
  5
198F
  8
SAPA_PROFIL
  6
CONTINUOUS
 10
85.200000000035942
 20
3.3000000000077678
 30
0.0
 42
0.4142135623711971
  0
VERTEX
  5
1990
  8
SAPA_PROFIL
  6
CONTINUOUS
 10
84.900000000033046
 20
3.000000000006791
 30
0.0
  0
VERTEX
  5
1991
  8
SAPA_PROFIL
  6
CONTINUOUS
 10
84.899999999999039
 20
-1.499999999985137
 30
0.0
 42
-0.4142135623686664
  0
VERTEX
  5
1992
  8
SAPA_PROFIL
  6
CONTINUOUS
 10
82.200000000019017
 20
-4.1999999999641497
 30
0.0
  0
VERTEX
  5
1993
  8
SAPA_PROFIL
  6
CONTINUOUS
 10
77.099999998221023
 20
-4.2000000000022331
 30
0.0
 42
0.414213562636633
  0
VERTEX
  5
1994
  8
SAPA_PROFIL
  6
CONTINUOUS
 10
76.799999998224024
 20
-4.5000000002751497
 30
0.0
  0
VERTEX
  5
1995
  8
SAPA_PROFIL
  6
CONTINUOUS
 10
76.800000001681127
 20
-9.0757359311512857
 30
0.0
 42
-0.1989123675764697
  0
VERTEX
  5
1996
  8
SAPA_PROFIL
  6
CONTINUOUS
 10
76.71213203603665
 20
-9.2878679657342502
 30
0.0
  0
VERTEX
  5
1997
  8
SAPA_PROFIL
  6
CONTINUOUS
 10
76.587867969731377
 20
-9.412132032039068
 30
0.0
 42
0.1989123673801594
  0
VERTEX
  5
1998
  8
SAPA_PROFIL
  6
CONTINUOUS
 10
76.5000000040869
 20
-9.6242640663954546
 30
0.0
  0
VERTEX
  5
1999
  8
SAPA_PROFIL
  6
CONTINUOUS
 10
76.500000004086047
 20
-33.375735931312107
 30
0.0
 42
0.1989123673800758
  0
VERTEX
  5
199A
  8
SAPA_PROFIL
  6
CONTINUOUS
 10
76.587867969730411
 20
-33.58786796566838
 30
0.0
  0
VERTEX
  5
199B
  8
SAPA_PROFIL
  6
CONTINUOUS
 10
76.7121320384081
 20
-33.712132034345728
 30
0.0
 42
-0.1989123673789671
  0
VERTEX
  5
199C
  8
SAPA_PROFIL
  6
CONTINUOUS
 10
76.800000004052563
 20
-33.924264068700637
 30
0.0
  0
VERTEX
  5
199D
  8
SAPA_PROFIL
  6
CONTINUOUS
 10
76.800000004082975
 20
-40.499999999997193
 30
0.0
 42
0.414213562374094
  0
VERTEX
  5
199E
  8
SAPA_PROFIL
  6
CONTINUOUS
 10
77.100000004082915
 20
-40.799999999998157
 30
0.0
  0
SEQEND
  5
199F
  8
SAPA_PROFIL
  6
CONTINUOUS
  0
ARC
  5
1338
  8
SAPA_PROFIL
  6
CONTINUOUS
 62
     7
 10
77.360770535658958
 20
-52.749999999988177
 30
0.0
 40
0.2500000000000284
 50
270.0000000000033
 51
328.2284295005291
  0
LINE
  5
1339
  8
SAPA_PROFIL
  6
CONTINUOUS
 62
     7
 10
76.588083210164044
 20
-52.999999999988212
 30
0.0
 11
77.360770535658972
 21
-52.999999999988212
 31
0.0
  0
POLYLINE
  5
133A
  8
SAPA_PROFIL
  6
CONTINUOUS
 66
     1
 10
0.0
 20
0.0
 30
0.0
  0
VERTEX
  5
19A0
  8
SAPA_PROFIL
  6
CONTINUOUS
 10
96.499999999966946
 20
-50.757620842457129
 30
0.0
 42
-0.2134217652834428
  0
VERTEX
  5
19A1
  8
SAPA_PROFIL
  6
CONTINUOUS
 10
96.399999999966838
 20
-50.981227640207223
 30
0.0
 42
0.7625858545243283
  0
VERTEX
  5
19A2
  8
SAPA_PROFIL
  6
CONTINUOUS
 10
96.584579202164335
 20
-51.31155372122425
 30
0.0
  0
VERTEX
  5
19A3
  8
SAPA_PROFIL
  6
CONTINUOUS
 10
96.775962202158041
 20
-51.25348008423515
 30
0.0
  0
VERTEX
  5
19A4
  8
SAPA_PROFIL
  6
CONTINUOUS
 10
98.661805894019096
 20
-50.168915637263417
 30
0.0
  0
VERTEX
  5
19A5
  8
SAPA_PROFIL
  6
CONTINUOUS
 10
98.65124452779213
 20
-49.847157909045137
 30
0.0
 42
-0.577350269189743
  0
VERTEX
  5
19A6
  8
SAPA_PROFIL
  6
CONTINUOUS
 10
98.945400828046957
 20
-49.664204168934987
 30
0.0
  0
VERTEX
  5
19A7
  8
SAPA_PROFIL
  6
CONTINUOUS
 10
99.230083111278574
 20
-49.816338080043749
 30
0.0
 42
-0.2216946626430171
  0
VERTEX
  5
19A8
  8
SAPA_PROFIL
  6
CONTINUOUS
 10
99.635892016433388
 20
-50.357217911520543
 30
0.0
  0
VERTEX
  5
19A9
  8
SAPA_PROFIL
  6
CONTINUOUS
 10
100.0173386125611
 20
-52.170448382178762
 30
0.0
 42
-0.4769755326981872
  0
VERTEX
  5
19AA
  8
SAPA_PROFIL
  6
CONTINUOUS
 10
99.715085788054637
 20
-52.542105257124661
 30
0.0
  0
VERTEX
  5
19AB
  8
SAPA_PROFIL
  6
CONTINUOUS
 10
98.211984707292643
 20
-52.542021649241022
 30
0.0
  0
VERTEX
  5
19AC
  8
SAPA_PROFIL
  6
CONTINUOUS
 10
98.197466298045526
 20
-52.494175899242521
 30
0.0
 42
0.4142135623730953
  0
VERTEX
  5
19AD
  8
SAPA_PROFIL
  6
CONTINUOUS
 10
97.823281342569715
 20
-52.294211854735131
 30
0.0
  0
VERTEX
  5
19AE
  8
SAPA_PROFIL
  6
CONTINUOUS
 10
96.514672366230428
 20
-52.799999999988167
 30
0.0
  0
VERTEX
  5
19AF
  8
SAPA_PROFIL
  6
CONTINUOUS
 10
93.515361556166965
 20
-52.79999999998816
 30
0.0
 42
-0.259681233730092
  0
VERTEX
  5
19B0
  8
SAPA_PROFIL
  6
CONTINUOUS
 10
93.302823041741945
 20
-52.681633505927969
 30
0.0
  0
VERTEX
  5
19B1
  8
SAPA_PROFIL
  6
CONTINUOUS
 10
92.544953782689007
 20
-51.457960207116031
 30
0.0
 42
-0.5877032589253041
  0
VERTEX
  5
19B2
  8
SAPA_PROFIL
  6
CONTINUOUS
 10
92.799999999998988
 20
-50.999999999988212
 30
0.0
  0
VERTEX
  5
19B3
  8
SAPA_PROFIL
  6
CONTINUOUS
 10
94.234178786390046
 20
-50.999999999984112
 30
0.0
 42
0.4683749459836498
  0
VERTEX
  5
19B4
  8
SAPA_PROFIL
  6
CONTINUOUS
 10
94.499999999998764
 20
-50.699999999984051
 30
0.0
  0
VERTEX
  5
19B5
  8
SAPA_PROFIL
  6
CONTINUOUS
 10
94.499999999999048
 20
-48.299999999985197
 30
0.0
 42
0.4683749459834663
  0
VERTEX
  5
19B6
  8
SAPA_PROFIL
  6
CONTINUOUS
 10
94.234178786389975
 20
-47.999999999985022
 30
0.0
  0
VERTEX
  5
19B7
  8
SAPA_PROFIL
  6
CONTINUOUS
 10
76.799999999999002
 20
-47.999999999988198
 30
0.0
 42
0.4142135623730951
  0
VERTEX
  5
19B8
  8
SAPA_PROFIL
  6
CONTINUOUS
 10
76.499999999999048
 20
-48.29999999998816
 30
0.0
  0
VERTEX
  5
19B9
  8
SAPA_PROFIL
  6
CONTINUOUS
 10
76.499999999998991
 20
-50.69999999998803
 30
0.0
 42
0.4142135623712111
  0
VERTEX
  5
19BA
  8
SAPA_PROFIL
  6
CONTINUOUS
 10
76.799999999999002
 20
-50.999999999988212
 30
0.0
  0
VERTEX
  5
19BB
  8
SAPA_PROFIL
  6
CONTINUOUS
 10
78.199999999999093
 20
-50.999999999988212
 30
0.0
 42
-0.5877032589253028
  0
VERTEX
  5
19BC
  8
SAPA_PROFIL
  6
CONTINUOUS
 10
78.455046217309089
 20
-51.457960207116137
 30
0.0
  0
VERTEX
  5
19BD
  8
SAPA_PROFIL
  6
CONTINUOUS
 10
77.57330905008412
 20
-52.881633505927908
 30
0.0
 42
-0.2596812337301845
  0
VERTEX
  5
19BE
  8
SAPA_PROFIL
  6
CONTINUOUS
 10
77.360770535659029
 20
-52.999999999988212
 30
0.0
  0
VERTEX
  5
19BF
  8
SAPA_PROFIL
  6
CONTINUOUS
 10
76.588083210164044
 20
-52.999999999988212
 30
0.0
 42
0.4023941304328035
  0
VERTEX
  5
19C0
  8
SAPA_PROFIL
  6
CONTINUOUS
 10
76.28832948155106
 20
-53.28784672131215
 30
0.0
  0
VERTEX
  5
19C1
  8
SAPA_PROFIL
  6
CONTINUOUS
 10
75.701530718548057
 20
-67.760905542703114
 30
0.0
 42
0.4373282586278326
  0
VERTEX
  5
19C2
  8
SAPA_PROFIL
  6
CONTINUOUS
 10
76.199999998853016
 20
-68.300000000025094
 30
0.0
  0
VERTEX
  5
19C3
  8
SAPA_PROFIL
  6
CONTINUOUS
 10
77.031400236762991
 20
-68.300000000024198
 30
0.0
 42
0.3639702342660269
  0
VERTEX
  5
19C4
  8
SAPA_PROFIL
  6
CONTINUOUS
 10
77.523804113267389
 20
-67.886824088856002
 30
0.0
  0
VERTEX
  5
19C5
  8
SAPA_PROFIL
  6
CONTINUOUS
 10
77.730749952849038
 20
-66.713175911189211
 30
0.0
 42
-0.8390996311771544
  0
VERTEX
  5
19C6
  8
SAPA_PROFIL
  6
CONTINUOUS
 10
78.715557705859979
 20
-66.713175911188173
 30
0.0
  0
VERTEX
  5
19C7
  8
SAPA_PROFIL
  6
CONTINUOUS
 10
78.992403876786014
 20
-68.283248567172123
 30
0.0
 42
-0.04366094290841
  0
VERTEX
  5
19C8
  8
SAPA_PROFIL
  6
CONTINUOUS
 10
79.000000000279002
 20
-68.370072656005192
 30
0.0
  0
VERTEX
  5
19C9
  8
SAPA_PROFIL
  6
CONTINUOUS
 10
79.000000000279968
 20
-69.367544468069156
 30
0.0
 42
-0.2896898633204923
  0
VERTEX
  5
19CA
  8
SAPA_PROFIL
  6
CONTINUOUS
 10
78.428571428794001
 20
-70.271052371003208
 30
0.0
 42
-0.5507604245835917
  0
VERTEX
  5
19CB
  8
SAPA_PROFIL
  6
CONTINUOUS
 10
78.00000000024103
 20
-70.000000000106212
 30
0.0
  0
VERTEX
  5
19CC
  8
SAPA_PROFIL
  6
CONTINUOUS
 10
78.000000000252001
 20
-69.800000000129131
 30
0.0
 42
0.4142135623779357
  0
VERTEX
  5
19CD
  8
SAPA_PROFIL
  6
CONTINUOUS
 10
77.700000000264041
 20
-69.500000000112124
 30
0.0
  0
VERTEX
  5
19CE
  8
SAPA_PROFIL
  6
CONTINUOUS
 10
76.199999998874034
 20
-69.500000000054143
 30
0.0
 42
0.414213562384816
  0
VERTEX
  5
19CF
  8
SAPA_PROFIL
  6
CONTINUOUS
 10
75.699999998855063
 20
-70.000000000055167
 30
0.0
  0
VERTEX
  5
19D0
  8
SAPA_PROFIL
  6
CONTINUOUS
 10
75.699999998860065
 20
-73.30000000004614
 30
0.0
 42
0.4142135623613409
  0
VERTEX
  5
19D1
  8
SAPA_PROFIL
  6
CONTINUOUS
 10
76.199999998851027
 20
-73.800000000055121
 30
0.0
  0
VERTEX
  5
19D2
  8
SAPA_PROFIL
  6
CONTINUOUS
 10
77.700000000031039
 20
-73.800000000112192
 30
0.0
 42
0.4142135623672138
  0
VERTEX
  5
19D3
  8
SAPA_PROFIL
  6
CONTINUOUS
 10
78.000000000042078
 20
-73.500000000129177
 30
0.0
  0
VERTEX
  5
19D4
  8
SAPA_PROFIL
  6
CONTINUOUS
 10
78.000000000053745
 20
-73.30000000010719
 30
0.0
 42
-0.5507604245886322
  0
VERTEX
  5
19D5
  8
SAPA_PROFIL
  6
CONTINUOUS
 10
78.428571428642286
 20
-73.028947629258511
 30
0.0
 42
-0.2896898632851459
  0
VERTEX
  5
19D6
  8
SAPA_PROFIL
  6
CONTINUOUS
 10
79.000000000013998
 20
-73.932455532137197
 30
0.0
  0
VERTEX
  5
19D7
  8
SAPA_PROFIL
  6
CONTINUOUS
 10
79.00000000001404
 20
-74.700000000164124
 30
0.0
 42
-0.4142135623906921
  0
VERTEX
  5
19D8
  8
SAPA_PROFIL
  6
CONTINUOUS
 10
78.699999999998013
 20
-75.000000000164192
 30
0.0
  0
VERTEX
  5
19D9
  8
SAPA_PROFIL
  6
CONTINUOUS
 10
74.999999999985917
 20
-74.999999999973312
 30
0.0
 42
-0.4142135623566291
  0
VERTEX
  5
19DA
  8
SAPA_PROFIL
  6
CONTINUOUS
 10
74.499999999998963
 20
-74.499999999958206
 30
0.0
  0
VERTEX
  5
19DB
  8
SAPA_PROFIL
  6
CONTINUOUS
 10
74.499999999999062
 20
2.3999999999989261
 30
0.0
 42
-0.4142135623725956
  0
VERTEX
  5
19DC
  8
SAPA_PROFIL
  6
CONTINUOUS
 10
77.099999999994523
 20
4.9999999999990621
 30
0.0
  0
VERTEX
  5
19DD
  8
SAPA_PROFIL
  6
CONTINUOUS
 10
77.599999999998005
 20
5.000000000000993
 30
0.0
 42
-0.4142135623728287
  0
VERTEX
  5
19DE
  8
SAPA_PROFIL
  6
CONTINUOUS
 10
78.599999999999085
 20
4.0000000000008802
 30
0.0
  0
VERTEX
  5
19DF
  8
SAPA_PROFIL
  6
CONTINUOUS
 10
78.599999999998971
 20
3.7999999999999252
 30
0.0
 42
-0.4142135623730951
  0
VERTEX
  5
19E0
  8
SAPA_PROFIL
  6
CONTINUOUS
 10
78.299999999999017
 20
3.4999999999999711
 30
0.0
  0
VERTEX
  5
19E1
  8
SAPA_PROFIL
  6
CONTINUOUS
 10
76.799999996783043
 20
3.499999999999857
 30
0.0
 42
0.4142135623722084
  0
VERTEX
  5
19E2
  8
SAPA_PROFIL
  6
CONTINUOUS
 10
76.500000004087013
 20
3.200000000000812
 30
0.0
  0
VERTEX
  5
19E3
  8
SAPA_PROFIL
  6
CONTINUOUS
 10
76.500000004087013
 20
2.5000000000007661
 30
0.0
 42
0.4142135623731094
  0
VERTEX
  5
19E4
  8
SAPA_PROFIL
  6
CONTINUOUS
 10
76.799999996783043
 20
2.200000000000812
 30
0.0
  0
VERTEX
  5
19E5
  8
SAPA_PROFIL
  6
CONTINUOUS
 10
78.299999999999017
 20
2.199999999999902
 30
0.0
 42
-0.4142135623720961
  0
VERTEX
  5
19E6
  8
SAPA_PROFIL
  6
CONTINUOUS
 10
78.599999999999085
 20
1.9000000000009709
 30
0.0
  0
VERTEX
  5
19E7
  8
SAPA_PROFIL
  6
CONTINUOUS
 10
78.599999999998971
 20
1.199999999999789
 30
0.0
 42
-0.4142135623730951
  0
VERTEX
  5
19E8
  8
SAPA_PROFIL
  6
CONTINUOUS
 10
78.299999999999017
 20
0.8999999999998347
 30
0.0
  0
VERTEX
  5
19E9
  8
SAPA_PROFIL
  6
CONTINUOUS
 10
76.800000004087082
 20
0.8999999999998347
 30
0.0
 42
0.4142135623740939
  0
VERTEX
  5
19EA
  8
SAPA_PROFIL
  6
CONTINUOUS
 10
76.500000004087013
 20
0.5999999999998802
 30
0.0
  0
VERTEX
  5
19EB
  8
SAPA_PROFIL
  6
CONTINUOUS
 10
76.500000004087013
 20
-1.5000000000011651
 30
0.0
 42
0.4142135623730951
  0
VERTEX
  5
19EC
  8
SAPA_PROFIL
  6
CONTINUOUS
 10
77.500000004087013
 20
-2.5000000000011648
 30
0.0
  0
VERTEX
  5
19ED
  8
SAPA_PROFIL
  6
CONTINUOUS
 10
82.199999999999108
 20
-2.500000000001052
 30
0.0
 42
0.4142135623619735
  0
VERTEX
  5
19EE
  8
SAPA_PROFIL
  6
CONTINUOUS
 10
83.199999999999108
 20
-1.5000000000020759
 30
0.0
  0
VERTEX
  5
19EF
  8
SAPA_PROFIL
  6
CONTINUOUS
 10
83.200000000000074
 20
0.5999999999998793
 30
0.0
 42
0.4142135623730951
  0
VERTEX
  5
19F0
  8
SAPA_PROFIL
  6
CONTINUOUS
 10
82.900000000000063
 20
0.8999999999998337
 30
0.0
  0
VERTEX
  5
19F1
  8
SAPA_PROFIL
  6
CONTINUOUS
 10
82.099999999999085
 20
0.89999999999972
 30
0.0
 42
-0.4142135623730951
  0
VERTEX
  5
19F2
  8
SAPA_PROFIL
  6
CONTINUOUS
 10
81.799999999999017
 20
1.1999999999997879
 30
0.0
  0
VERTEX
  5
19F3
  8
SAPA_PROFIL
  6
CONTINUOUS
 10
81.799999999999116
 20
1.8999999999998329
 30
0.0
 42
-0.4142135623730951
  0
VERTEX
  5
19F4
  8
SAPA_PROFIL
  6
CONTINUOUS
 10
82.099999999999085
 20
2.1999999999997879
 30
0.0
  0
VERTEX
  5
19F5
  8
SAPA_PROFIL
  6
CONTINUOUS
 10
82.900000000002052
 20
2.2000000000009252
 30
0.0
 42
0.4142135623721503
  0
VERTEX
  5
19F6
  8
SAPA_PROFIL
  6
CONTINUOUS
 10
83.200000000001054
 20
2.5000000000008789
 30
0.0
  0
VERTEX
  5
19F7
  8
SAPA_PROFIL
  6
CONTINUOUS
 10
83.200000000001097
 20
3.2000000000008111
 30
0.0
 42
0.4142135623740942
  0
VERTEX
  5
19F8
  8
SAPA_PROFIL
  6
CONTINUOUS
 10
82.900000000000063
 20
3.5000000000008789
 30
0.0
  0
VERTEX
  5
19F9
  8
SAPA_PROFIL
  6
CONTINUOUS
 10
82.099999999999085
 20
3.4999999999998561
 30
0.0
 42
-0.4142135623730951
  0
VERTEX
  5
19FA
  8
SAPA_PROFIL
  6
CONTINUOUS
 10
81.799999999999017
 20
3.7999999999999239
 30
0.0
  0
VERTEX
  5
19FB
  8
SAPA_PROFIL
  6
CONTINUOUS
 10
81.799999999999017
 20
4.0000000000008802
 30
0.0
 42
-0.4142135623728287
  0
VERTEX
  5
19FC
  8
SAPA_PROFIL
  6
CONTINUOUS
 10
82.799999999999017
 20
4.9999999999999689
 30
0.0
  0
VERTEX
  5
19FD
  8
SAPA_PROFIL
  6
CONTINUOUS
 10
98.199999996327023
 20
5.0000000000008757
 30
0.0
 42
-0.4142135623730951
  0
VERTEX
  5
19FE
  8
SAPA_PROFIL
  6
CONTINUOUS
 10
98.499999996327091
 20
4.7000000000008084
 30
0.0
  0
VERTEX
  5
19FF
  8
SAPA_PROFIL
  6
CONTINUOUS
 10
98.499999996326977
 20
0.6294114367969668
 30
0.0
 42
-0.5486187866264207
  0
VERTEX
  5
1A00
  8
SAPA_PROFIL
  6
CONTINUOUS
 10
98.073214517805084
 20
0.3575191006858307
 30
0.0
  0
VERTEX
  5
1A01
  8
SAPA_PROFIL
  6
CONTINUOUS
 10
96.326785478556104
 20
1.1718923361118769
 30
0.0
 42
0.5486187866274888
  0
VERTEX
  5
1A02
  8
SAPA_PROFIL
  6
CONTINUOUS
 10
95.900000000033089
 20
0.9000000000009681
 30
0.0
  0
VERTEX
  5
1A03
  8
SAPA_PROFIL
  6
CONTINUOUS
 10
95.900000000033089
 20
-3.499999999999122
 30
0.0
 42
0.5486187866274777
  0
VERTEX
  5
1A04
  8
SAPA_PROFIL
  6
CONTINUOUS
 10
96.326785478556033
 20
-3.7718923361100312
 30
0.0
  0
VERTEX
  5
1A05
  8
SAPA_PROFIL
  6
CONTINUOUS
 10
98.073214517804985
 20
-2.957519100683986
 30
0.0
 42
-0.5486187866264464
  0
VERTEX
  5
1A06
  8
SAPA_PROFIL
  6
CONTINUOUS
 10
98.499999996327091
 20
-3.2294114367951221
 30
0.0
  0
VERTEX
  5
1A07
  8
SAPA_PROFIL
  6
CONTINUOUS
 10
98.49999999632702
 20
-6.400000000000122
 30
0.0
 42
0.4142135623730953
  0
VERTEX
  5
1A08
  8
SAPA_PROFIL
  6
CONTINUOUS
 10
98.799999996327031
 20
-6.7000000000000766
 30
0.0
  0
VERTEX
  5
1A09
  8
SAPA_PROFIL
  6
CONTINUOUS
 10
98.999999996327034
 20
-6.6999999999999629
 30
0.0
 42
-0.4142135623730951
  0
VERTEX
  5
1A0A
  8
SAPA_PROFIL
  6
CONTINUOUS
 10
99.299999996327045
 20
-7.0000000000000311
 30
0.0
  0
VERTEX
  5
1A0B
  8
SAPA_PROFIL
  6
CONTINUOUS
 10
99.299999996327045
 20
-18.699999999999172
 30
0.0
 42
0.4142135623730948
  0
VERTEX
  5
1A0C
  8
SAPA_PROFIL
  6
CONTINUOUS
 10
99.599999996327057
 20
-18.999999999999229
 30
0.0
  0
VERTEX
  5
1A0D
  8
SAPA_PROFIL
  6
CONTINUOUS
 10
100.50216438463239
 20
-18.999999999999179
 30
0.0
  0
VERTEX
  5
1A0E
  8
SAPA_PROFIL
  6
CONTINUOUS
 10
101.8232813425668
 20
-19.510622583137181
 30
0.0
 42
0.4142135623730951
  0
VERTEX
  5
1A0F
  8
SAPA_PROFIL
  6
CONTINUOUS
 10
102.1974662980426
 20
-19.310658538629781
 30
0.0
  0
VERTEX
  5
1A10
  8
SAPA_PROFIL
  6
CONTINUOUS
 10
102.2119847072897
 20
-19.262812788631301
 30
0.0
  0
VERTEX
  5
1A11
  8
SAPA_PROFIL
  6
CONTINUOUS
 10
103.7150857880517
 20
-19.262729180747669
 30
0.0
 42
-0.4769755326981695
  0
VERTEX
  5
1A12
  8
SAPA_PROFIL
  6
CONTINUOUS
 10
104.01733861255821
 20
-19.634386055693511
 30
0.0
  0
VERTEX
  5
1A13
  8
SAPA_PROFIL
  6
CONTINUOUS
 10
103.6358920164304
 20
-21.447616526351769
 30
0.0
 42
-0.22169466264302
  0
VERTEX
  5
1A14
  8
SAPA_PROFIL
  6
CONTINUOUS
 10
103.2300831112757
 20
-21.988496357828549
 30
0.0
  0
VERTEX
  5
1A15
  8
SAPA_PROFIL
  6
CONTINUOUS
 10
102.945400828044
 20
-22.140630268937318
 30
0.0
 42
-0.5773502691897348
  0
VERTEX
  5
1A16
  8
SAPA_PROFIL
  6
CONTINUOUS
 10
102.6512445277892
 20
-21.95767652882714
 30
0.0
  0
VERTEX
  5
1A17
  8
SAPA_PROFIL
  6
CONTINUOUS
 10
102.6618058940162
 20
-21.635918800608898
 30
0.0
  0
VERTEX
  5
1A18
  8
SAPA_PROFIL
  6
CONTINUOUS
 10
100.7759622021551
 20
-20.551354353637159
 30
0.0
  0
VERTEX
  5
1A19
  8
SAPA_PROFIL
  6
CONTINUOUS
 10
100.58457920216139
 20
-20.493280716648059
 30
0.0
 42
0.7625858545243229
  0
VERTEX
  5
1A1A
  8
SAPA_PROFIL
  6
CONTINUOUS
 10
100.3999999999639
 20
-20.823606797665061
 30
0.0
 42
-0.2134217652834286
  0
VERTEX
  5
1A1B
  8
SAPA_PROFIL
  6
CONTINUOUS
 10
100.499999999964
 20
-21.04721359549913
 30
0.0
  0
VERTEX
  5
1A1C
  8
SAPA_PROFIL
  6
CONTINUOUS
 10
100.50000000003401
 20
-24.900000000006148
 30
0.0
 42
0.4142135623643546
  0
VERTEX
  5
1A1D
  8
SAPA_PROFIL
  6
CONTINUOUS
 10
100.80000000003101
 20
-25.200000000000191
 30
0.0
  0
VERTEX
  5
1A1E
  8
SAPA_PROFIL
  6
CONTINUOUS
 10
101.091626507827
 20
-25.20000000000303
 30
0.0
  0
VERTEX
  5
1A1F
  8
SAPA_PROFIL
  6
CONTINUOUS
 10
102.7000000000331
 20
-24.271405131321249
 30
0.0
 42
-0.5773502691895335
  0
VERTEX
  5
1A20
  8
SAPA_PROFIL
  6
CONTINUOUS
 10
103.0000000000329
 20
-24.444610212078182
 30
0.0
  0
VERTEX
  5
1A21
  8
SAPA_PROFIL
  6
CONTINUOUS
 10
103.000000000033
 20
-25.830250858132128
 30
0.0
 42
-0.267949192431441
  0
VERTEX
  5
1A22
  8
SAPA_PROFIL
  6
CONTINUOUS
 10
102.500000000033
 20
-26.69627626191712
 30
0.0
  0
VERTEX
  5
1A23
  8
SAPA_PROFIL
  6
CONTINUOUS
 10
96.449999999999093
 20
-30.189245390526182
 30
0.0
 42
0.2679491924318235
  0
VERTEX
  5
1A24
  8
SAPA_PROFIL
  6
CONTINUOUS
 10
96.199999999997843
 20
-30.62225809241912
 30
0.0
  0
VERTEX
  5
1A25
  8
SAPA_PROFIL
  6
CONTINUOUS
 10
96.199999999999122
 20
-43.487142984322233
 30
0.0
 42
0.2679491924310522
  0
VERTEX
  5
1A26
  8
SAPA_PROFIL
  6
CONTINUOUS
 10
96.449999999998994
 20
-43.920155686214372
 30
0.0
  0
VERTEX
  5
1A27
  8
SAPA_PROFIL
  6
CONTINUOUS
 10
98.500000000034063
 20
-45.103723738071068
 30
0.0
 42
-0.2679491924312968
  0
VERTEX
  5
1A28
  8
SAPA_PROFIL
  6
CONTINUOUS
 10
99.000000000035044
 20
-45.969749141855146
 30
0.0
  0
VERTEX
  5
1A29
  8
SAPA_PROFIL
  6
CONTINUOUS
 10
99.000000000035087
 20
-47.355389787909111
 30
0.0
 42
-0.5773502691895323
  0
VERTEX
  5
1A2A
  8
SAPA_PROFIL
  6
CONTINUOUS
 10
98.700000000035018
 20
-47.528594868666033
 30
0.0
  0
VERTEX
  5
1A2B
  8
SAPA_PROFIL
  6
CONTINUOUS
 10
97.091626507828053
 20
-46.599999999984028
 30
0.0
  0
VERTEX
  5
1A2C
  8
SAPA_PROFIL
  6
CONTINUOUS
 10
96.800000000032995
 20
-46.599999999987212
 30
0.0
 42
0.4142135623662692
  0
VERTEX
  5
1A2D
  8
SAPA_PROFIL
  6
CONTINUOUS
 10
96.50000000003503
 20
-46.89999999998205
 30
0.0
  0
VERTEX
  5
1A2E
  8
SAPA_PROFIL
  6
CONTINUOUS
 10
96.499999999966093
 20
-50.752786404489171
 30
0.0
  0
SEQEND
  5
1A2F
  8
SAPA_PROFIL
  6
CONTINUOUS
  0
POLYLINE
  5
133B
  8
SAPA_PROFIL
  6
CONTINUOUS
 66
     1
 10
0.0
 20
0.0
 30
0.0
 70
     1
  0
VERTEX
  5
1A30
  8
SAPA_PROFIL
  6
CONTINUOUS
 10
145.9999999959141
 20
-41.936781123696193
 30
0.0
 42
-0.4142135623730951
  0
VERTEX
  5
1A31
  8
SAPA_PROFIL
  6
CONTINUOUS
 10
146.4999999959141
 20
-42.436781123696193
 30
0.0
  0
VERTEX
  5
1A32
  8
SAPA_PROFIL
  6
CONTINUOUS
 10
146.4999999959461
 20
-45.436781123682323
 30
0.0
 42
-0.4142135623760252
  0
VERTEX
  5
1A33
  8
SAPA_PROFIL
  6
CONTINUOUS
 10
145.9999999959461
 20
-45.936781123687318
 30
0.0
  0
VERTEX
  5
1A34
  8
SAPA_PROFIL
  6
CONTINUOUS
 10
129.2999999999841
 20
-45.936781123687318
 30
0.0
 42
-0.4142135623760253
  0
VERTEX
  5
1A35
  8
SAPA_PROFIL
  6
CONTINUOUS
 10
128.7999999999841
 20
-45.436781123682209
 30
0.0
  0
VERTEX
  5
1A36
  8
SAPA_PROFIL
  6
CONTINUOUS
 10
128.80000000001601
 20
-42.436781123696193
 30
0.0
 42
-0.4142135623730951
  0
VERTEX
  5
1A37
  8
SAPA_PROFIL
  6
CONTINUOUS
 10
129.30000000001601
 20
-41.936781123696193
 30
0.0
  0
VERTEX
  5
1A38
  8
SAPA_PROFIL
  6
CONTINUOUS
 10
130.50000000001501
 20
-41.936781123695283
 30
0.0
 42
0.414213562374094
  0
VERTEX
  5
1A39
  8
SAPA_PROFIL
  6
CONTINUOUS
 10
130.80000000001499
 20
-41.636781123696231
 30
0.0
  0
VERTEX
  5
1A3A
  8
SAPA_PROFIL
  6
CONTINUOUS
 10
130.8000000000151
 20
-40.736781123696261
 30
0.0
 42
0.414213562375093
  0
VERTEX
  5
1A3B
  8
SAPA_PROFIL
  6
CONTINUOUS
 10
130.50000000001501
 20
-40.436781123696193
 30
0.0
  0
VERTEX
  5
1A3C
  8
SAPA_PROFIL
  6
CONTINUOUS
 10
129.10000000001509
 20
-40.436781123697209
 30
0.0
 42
-0.414213562374094
  0
VERTEX
  5
1A3D
  8
SAPA_PROFIL
  6
CONTINUOUS
 10
128.80000000001499
 20
-40.136781123696238
 30
0.0
  0
VERTEX
  5
1A3E
  8
SAPA_PROFIL
  6
CONTINUOUS
 10
128.79999999999981
 20
-30.259039216114189
 30
0.0
 42
0.2679491924309108
  0
VERTEX
  5
1A3F
  8
SAPA_PROFIL
  6
CONTINUOUS
 10
127.54999999999809
 20
-28.09397570665638
 30
0.0
  0
VERTEX
  5
1A40
  8
SAPA_PROFIL
  6
CONTINUOUS
 10
124.7499999999381
 20
-26.47739495289321
 30
0.0
 42
-0.2679491924363356
  0
VERTEX
  5
1A41
  8
SAPA_PROFIL
  6
CONTINUOUS
 10
124.4999999999371
 20
-26.04438225099241
 30
0.0
  0
VERTEX
  5
1A42
  8
SAPA_PROFIL
  6
CONTINUOUS
 10
124.500000000029
 20
-20.93678112369324
 30
0.0
 42
-0.4142135623682168
  0
VERTEX
  5
1A43
  8
SAPA_PROFIL
  6
CONTINUOUS
 10
124.800000000029
 20
-20.636781123698281
 30
0.0
  0
VERTEX
  5
1A44
  8
SAPA_PROFIL
  6
CONTINUOUS
 10
125.20000000367109
 20
-20.636781123698281
 30
0.0
 42
0.4142135623730784
  0
VERTEX
  5
1A45
  8
SAPA_PROFIL
  6
CONTINUOUS
 10
125.70000000367099
 20
-20.136781123698292
 30
0.0
  0
VERTEX
  5
1A46
  8
SAPA_PROFIL
  6
CONTINUOUS
 10
125.70000000367099
 20
-8.636781123699194
 30
0.0
 42
-0.4142135623730951
  0
VERTEX
  5
1A47
  8
SAPA_PROFIL
  6
CONTINUOUS
 10
126.0000000036711
 20
-8.3367811236992395
 30
0.0
  0
VERTEX
  5
1A48
  8
SAPA_PROFIL
  6
CONTINUOUS
 10
126.20000000367109
 20
-8.3367811236993532
 30
0.0
 42
0.4142135623730951
  0
VERTEX
  5
1A49
  8
SAPA_PROFIL
  6
CONTINUOUS
 10
126.500000003671
 20
-8.0367811236992832
 30
0.0
  0
VERTEX
  5
1A4A
  8
SAPA_PROFIL
  6
CONTINUOUS
 10
126.500000003671
 20
-5.636781123683277
 30
0.0
 42
-0.4142135623730951
  0
VERTEX
  5
1A4B
  8
SAPA_PROFIL
  6
CONTINUOUS
 10
126.8000000036711
 20
-5.3367811236832088
 30
0.0
  0
VERTEX
  5
1A4C
  8
SAPA_PROFIL
  6
CONTINUOUS
 10
128.299999999965
 20
-5.3367811237522167
 30
0.0
 42
0.4142135623730951
  0
VERTEX
  5
1A4D
  8
SAPA_PROFIL
  6
CONTINUOUS
 10
128.799999999965
 20
-4.8367811237522167
 30
0.0
  0
VERTEX
  5
1A4E
  8
SAPA_PROFIL
  6
CONTINUOUS
 10
128.799999999965
 20
3.3632188762366861
 30
0.0
 42
-0.4142135623730951
  0
VERTEX
  5
1A4F
  8
SAPA_PROFIL
  6
CONTINUOUS
 10
129.09999999996501
 20
3.6632188762367539
 30
0.0
  0
VERTEX
  5
1A50
  8
SAPA_PROFIL
  6
CONTINUOUS
 10
137.7999999999621
 20
3.663218876308711
 30
0.0
 42
-0.4142135623712137
  0
VERTEX
  5
1A51
  8
SAPA_PROFIL
  6
CONTINUOUS
 10
138.09999999996501
 20
3.3632188763077329
 30
0.0
  0
VERTEX
  5
1A52
  8
SAPA_PROFIL
  6
CONTINUOUS
 10
138.09999999999911
 20
-1.136781123684194
 30
0.0
 42
0.4142135623686664
  0
VERTEX
  5
1A53
  8
SAPA_PROFIL
  6
CONTINUOUS
 10
140.79999999997901
 20
-3.836781123663207
 30
0.0
  0
VERTEX
  5
1A54
  8
SAPA_PROFIL
  6
CONTINUOUS
 10
145.90000000177699
 20
-3.8367811237014058
 30
0.0
 42
-0.414213562636633
  0
VERTEX
  5
1A55
  8
SAPA_PROFIL
  6
CONTINUOUS
 10
146.20000000177399
 20
-4.1367811239742087
 30
0.0
  0
VERTEX
  5
1A56
  8
SAPA_PROFIL
  6
CONTINUOUS
 10
146.19999999831691
 20
-8.7125170548504585
 30
0.0
 42
0.1989123675764549
  0
VERTEX
  5
1A57
  8
SAPA_PROFIL
  6
CONTINUOUS
 10
146.2878679639613
 20
-8.9246490894334212
 30
0.0
  0
VERTEX
  5
1A58
  8
SAPA_PROFIL
  6
CONTINUOUS
 10
146.4121320302666
 20
-9.048913155738127
 30
0.0
 42
-0.198912367380149
  0
VERTEX
  5
1A59
  8
SAPA_PROFIL
  6
CONTINUOUS
 10
146.499999995911
 20
-9.2610451900946273
 30
0.0
  0
VERTEX
  5
1A5A
  8
SAPA_PROFIL
  6
CONTINUOUS
 10
146.49999999591199
 20
-33.012517055011273
 30
0.0
 42
-0.1989123673800758
  0
VERTEX
  5
1A5B
  8
SAPA_PROFIL
  6
CONTINUOUS
 10
146.41213203026771
 20
-33.224649089367553
 30
0.0
  0
VERTEX
  5
1A5C
  8
SAPA_PROFIL
  6
CONTINUOUS
 10
146.28786796158991
 20
-33.34891315804478
 30
0.0
 42
0.1989123673789567
  0
VERTEX
  5
1A5D
  8
SAPA_PROFIL
  6
CONTINUOUS
 10
146.19999999594549
 20
-33.561045192399689
 30
0.0
  0
VERTEX
  5
1A5E
  8
SAPA_PROFIL
  6
CONTINUOUS
 10
146.19999999591499
 20
-40.136781123696238
 30
0.0
 42
-0.414213562374094
  0
VERTEX
  5
1A5F
  8
SAPA_PROFIL
  6
CONTINUOUS
 10
145.89999999591501
 20
-40.436781123697209
 30
0.0
  0
VERTEX
  5
1A60
  8
SAPA_PROFIL
  6
CONTINUOUS
 10
144.4999999959141
 20
-40.436781123696193
 30
0.0
 42
0.414213562374094
  0
VERTEX
  5
1A61
  8
SAPA_PROFIL
  6
CONTINUOUS
 10
144.19999999591499
 20
-40.736781123696261
 30
0.0
  0
VERTEX
  5
1A62
  8
SAPA_PROFIL
  6
CONTINUOUS
 10
144.19999999591499
 20
-41.636781123696231
 30
0.0
 42
0.4142135623730951
  0
VERTEX
  5
1A63
  8
SAPA_PROFIL
  6
CONTINUOUS
 10
144.4999999959141
 20
-41.936781123696193
 30
0.0
  0
SEQEND
  5
1A64
  8
SAPA_PROFIL
  6
CONTINUOUS
  0
POLYLINE
  5
133C
  8
SAPA_PROFIL
  6
CONTINUOUS
 66
     1
 10
0.0
 20
0.0
 30
0.0
  0
VERTEX
  5
1A65
  8
SAPA_PROFIL
  6
CONTINUOUS
 10
126.50000000003109
 20
-50.757620842455758
 30
0.0
 42
0.2134217652834423
  0
VERTEX
  5
1A66
  8
SAPA_PROFIL
  6
CONTINUOUS
 10
126.6000000000312
 20
-50.981227640205837
 30
0.0
 42
-0.7625858545243283
  0
VERTEX
  5
1A67
  8
SAPA_PROFIL
  6
CONTINUOUS
 10
126.4154207978338
 20
-51.311553721222879
 30
0.0
  0
VERTEX
  5
1A68
  8
SAPA_PROFIL
  6
CONTINUOUS
 10
126.22403779784
 20
-51.253480084233793
 30
0.0
  0
VERTEX
  5
1A69
  8
SAPA_PROFIL
  6
CONTINUOUS
 10
124.338194105979
 20
-50.168915637262039
 30
0.0
  0
VERTEX
  5
1A6A
  8
SAPA_PROFIL
  6
CONTINUOUS
 10
124.34875547220589
 20
-49.847157909043773
 30
0.0
 42
0.577350269189743
  0
VERTEX
  5
1A6B
  8
SAPA_PROFIL
  6
CONTINUOUS
 10
124.0545991719511
 20
-49.664204168933622
 30
0.0
  0
VERTEX
  5
1A6C
  8
SAPA_PROFIL
  6
CONTINUOUS
 10
123.76991688871949
 20
-49.816338080042392
 30
0.0
 42
0.2216946626430171
  0
VERTEX
  5
1A6D
  8
SAPA_PROFIL
  6
CONTINUOUS
 10
123.36410798356469
 20
-50.357217911519172
 30
0.0
  0
VERTEX
  5
1A6E
  8
SAPA_PROFIL
  6
CONTINUOUS
 10
122.98266138743701
 20
-52.170448382177398
 30
0.0
 42
0.4769755326981872
  0
VERTEX
  5
1A6F
  8
SAPA_PROFIL
  6
CONTINUOUS
 10
123.2849142119434
 20
-52.542105257123303
 30
0.0
  0
VERTEX
  5
1A70
  8
SAPA_PROFIL
  6
CONTINUOUS
 10
124.7880152927054
 20
-52.542021649239643
 30
0.0
  0
VERTEX
  5
1A71
  8
SAPA_PROFIL
  6
CONTINUOUS
 10
124.8025337019526
 20
-52.494175899241156
 30
0.0
 42
-0.4142135623730953
  0
VERTEX
  5
1A72
  8
SAPA_PROFIL
  6
CONTINUOUS
 10
125.1767186574284
 20
-52.29421185473376
 30
0.0
  0
VERTEX
  5
1A73
  8
SAPA_PROFIL
  6
CONTINUOUS
 10
126.4853276337676
 20
-52.799999999986788
 30
0.0
  0
VERTEX
  5
1A74
  8
SAPA_PROFIL
  6
CONTINUOUS
 10
129.4846384438311
 20
-52.799999999986788
 30
0.0
 42
0.259681233730092
  0
VERTEX
  5
1A75
  8
SAPA_PROFIL
  6
CONTINUOUS
 10
129.69717695825611
 20
-52.681633505926612
 30
0.0
  0
VERTEX
  5
1A76
  8
SAPA_PROFIL
  6
CONTINUOUS
 10
130.4550462173091
 20
-51.457960207114667
 30
0.0
 42
0.5877032589253041
  0
VERTEX
  5
1A77
  8
SAPA_PROFIL
  6
CONTINUOUS
 10
130.19999999999899
 20
-50.999999999986841
 30
0.0
  0
VERTEX
  5
1A78
  8
SAPA_PROFIL
  6
CONTINUOUS
 10
128.76582121360801
 20
-50.999999999982741
 30
0.0
 42
-0.4683749459836498
  0
VERTEX
  5
1A79
  8
SAPA_PROFIL
  6
CONTINUOUS
 10
128.49999999999929
 20
-50.69999999998268
 30
0.0
  0
VERTEX
  5
1A7A
  8
SAPA_PROFIL
  6
CONTINUOUS
 10
128.49999999999901
 20
-48.299999999983839
 30
0.0
 42
-0.4683749459834663
  0
VERTEX
  5
1A7B
  8
SAPA_PROFIL
  6
CONTINUOUS
 10
128.76582121360809
 20
-47.99999999998365
 30
0.0
  0
VERTEX
  5
1A7C
  8
SAPA_PROFIL
  6
CONTINUOUS
 10
146.19999999999911
 20
-47.999999999986841
 30
0.0
 42
-0.4142135623730951
  0
VERTEX
  5
1A7D
  8
SAPA_PROFIL
  6
CONTINUOUS
 10
146.49999999999901
 20
-48.299999999986802
 30
0.0
  0
VERTEX
  5
1A7E
  8
SAPA_PROFIL
  6
CONTINUOUS
 10
146.49999999999909
 20
-50.699999999986659
 30
0.0
 42
-0.4142135623712111
  0
VERTEX
  5
1A7F
  8
SAPA_PROFIL
  6
CONTINUOUS
 10
146.19999999999911
 20
-50.999999999986841
 30
0.0
  0
VERTEX
  5
1A80
  8
SAPA_PROFIL
  6
CONTINUOUS
 10
144.79999999999899
 20
-50.999999999986841
 30
0.0
 42
0.5877032589253028
  0
VERTEX
  5
1A81
  8
SAPA_PROFIL
  6
CONTINUOUS
 10
144.54495378268899
 20
-51.45796020711478
 30
0.0
  0
VERTEX
  5
1A82
  8
SAPA_PROFIL
  6
CONTINUOUS
 10
145.4266909499139
 20
-52.881633505926537
 30
0.0
 42
0.2596812337301845
  0
VERTEX
  5
1A83
  8
SAPA_PROFIL
  6
CONTINUOUS
 10
145.639229464339
 20
-52.999999999986841
 30
0.0
  0
VERTEX
  5
1A84
  8
SAPA_PROFIL
  6
CONTINUOUS
 10
148.19999999999999
 20
-52.99999999998672
 30
0.0
 42
0.4142135623721487
  0
VERTEX
  5
1A85
  8
SAPA_PROFIL
  6
CONTINUOUS
 10
148.49999999999909
 20
-52.699999999986659
 30
0.0
  0
VERTEX
  5
1A86
  8
SAPA_PROFIL
  6
CONTINUOUS
 10
148.49999999999901
 20
2.4000000000002819
 30
0.0
 42
0.4142135623725956
  0
VERTEX
  5
1A87
  8
SAPA_PROFIL
  6
CONTINUOUS
 10
145.9000000000035
 20
5.0000000000004192
 30
0.0
  0
VERTEX
  5
1A88
  8
SAPA_PROFIL
  6
CONTINUOUS
 10
145.40000000000009
 20
5.000000000002351
 30
0.0
 42
0.4142135623728287
  0
VERTEX
  5
1A89
  8
SAPA_PROFIL
  6
CONTINUOUS
 10
144.39999999999901
 20
4.0000000000022382
 30
0.0
  0
VERTEX
  5
1A8A
  8
SAPA_PROFIL
  6
CONTINUOUS
 10
144.3999999999991
 20
3.8000000000012828
 30
0.0
 42
0.4142135623730951
  0
VERTEX
  5
1A8B
  8
SAPA_PROFIL
  6
CONTINUOUS
 10
144.69999999999911
 20
3.5000000000013278
 30
0.0
  0
VERTEX
  5
1A8C
  8
SAPA_PROFIL
  6
CONTINUOUS
 10
146.200000003215
 20
3.500000000001215
 30
0.0
 42
-0.41421356237221
  0
VERTEX
  5
1A8D
  8
SAPA_PROFIL
  6
CONTINUOUS
 10
146.499999995911
 20
3.2000000000021691
 30
0.0
  0
VERTEX
  5
1A8E
  8
SAPA_PROFIL
  6
CONTINUOUS
 10
146.499999995911
 20
2.5000000000021241
 30
0.0
 42
-0.4142135623731102
  0
VERTEX
  5
1A8F
  8
SAPA_PROFIL
  6
CONTINUOUS
 10
146.200000003215
 20
2.2000000000021691
 30
0.0
  0
VERTEX
  5
1A90
  8
SAPA_PROFIL
  6
CONTINUOUS
 10
144.69999999999911
 20
2.2000000000012601
 30
0.0
 42
0.4142135623720961
  0
VERTEX
  5
1A91
  8
SAPA_PROFIL
  6
CONTINUOUS
 10
144.39999999999901
 20
1.9000000000023289
 30
0.0
  0
VERTEX
  5
1A92
  8
SAPA_PROFIL
  6
CONTINUOUS
 10
144.3999999999991
 20
1.2000000000011459
 30
0.0
 42
0.4142135623730951
  0
VERTEX
  5
1A93
  8
SAPA_PROFIL
  6
CONTINUOUS
 10
144.69999999999911
 20
0.9000000000011922
 30
0.0
  0
VERTEX
  5
1A94
  8
SAPA_PROFIL
  6
CONTINUOUS
 10
146.19999999591101
 20
0.9000000000011922
 30
0.0
 42
-0.4142135623740939
  0
VERTEX
  5
1A95
  8
SAPA_PROFIL
  6
CONTINUOUS
 10
146.499999995911
 20
0.6000000000012378
 30
0.0
  0
VERTEX
  5
1A96
  8
SAPA_PROFIL
  6
CONTINUOUS
 10
146.499999995911
 20
-1.4999999999998079
 30
0.0
 42
-0.4142135623730951
  0
VERTEX
  5
1A97
  8
SAPA_PROFIL
  6
CONTINUOUS
 10
145.49999999591111
 20
-2.4999999999998082
 30
0.0
  0
VERTEX
  5
1A98
  8
SAPA_PROFIL
  6
CONTINUOUS
 10
140.79999999999899
 20
-2.499999999999694
 30
0.0
 42
-0.4142135623619735
  0
VERTEX
  5
1A99
  8
SAPA_PROFIL
  6
CONTINUOUS
 10
139.79999999999899
 20
-1.500000000000717
 30
0.0
  0
VERTEX
  5
1A9A
  8
SAPA_PROFIL
  6
CONTINUOUS
 10
139.79999999999799
 20
0.6000000000012378
 30
0.0
 42
-0.4142135623730951
  0
VERTEX
  5
1A9B
  8
SAPA_PROFIL
  6
CONTINUOUS
 10
140.099999999998
 20
0.9000000000011922
 30
0.0
  0
VERTEX
  5
1A9C
  8
SAPA_PROFIL
  6
CONTINUOUS
 10
140.89999999999901
 20
0.9000000000010786
 30
0.0
 42
0.4142135623730951
  0
VERTEX
  5
1A9D
  8
SAPA_PROFIL
  6
CONTINUOUS
 10
141.19999999999911
 20
1.2000000000011459
 30
0.0
  0
VERTEX
  5
1A9E
  8
SAPA_PROFIL
  6
CONTINUOUS
 10
141.19999999999891
 20
1.9000000000011921
 30
0.0
 42
0.4142135623730951
  0
VERTEX
  5
1A9F
  8
SAPA_PROFIL
  6
CONTINUOUS
 10
140.89999999999901
 20
2.2000000000011459
 30
0.0
  0
VERTEX
  5
1AA0
  8
SAPA_PROFIL
  6
CONTINUOUS
 10
140.09999999999599
 20
2.2000000000022828
 30
0.0
 42
-0.414213562372149
  0
VERTEX
  5
1AA1
  8
SAPA_PROFIL
  6
CONTINUOUS
 10
139.799999999997
 20
2.5000000000022382
 30
0.0
  0
VERTEX
  5
1AA2
  8
SAPA_PROFIL
  6
CONTINUOUS
 10
139.799999999997
 20
3.2000000000021691
 30
0.0
 42
-0.4142135623740942
  0
VERTEX
  5
1AA3
  8
SAPA_PROFIL
  6
CONTINUOUS
 10
140.099999999998
 20
3.5000000000022382
 30
0.0
  0
VERTEX
  5
1AA4
  8
SAPA_PROFIL
  6
CONTINUOUS
 10
140.89999999999901
 20
3.500000000001215
 30
0.0
 42
0.4142135623730951
  0
VERTEX
  5
1AA5
  8
SAPA_PROFIL
  6
CONTINUOUS
 10
141.19999999999911
 20
3.8000000000012828
 30
0.0
  0
VERTEX
  5
1AA6
  8
SAPA_PROFIL
  6
CONTINUOUS
 10
141.19999999999911
 20
4.0000000000022382
 30
0.0
 42
0.4142135623728287
  0
VERTEX
  5
1AA7
  8
SAPA_PROFIL
  6
CONTINUOUS
 10
140.19999999999911
 20
5.0000000000013278
 30
0.0
  0
VERTEX
  5
1AA8
  8
SAPA_PROFIL
  6
CONTINUOUS
 10
124.8000000036711
 20
5.0000000000022453
 30
0.0
 42
0.4142135623730951
  0
VERTEX
  5
1AA9
  8
SAPA_PROFIL
  6
CONTINUOUS
 10
124.500000003671
 20
4.7000000000021771
 30
0.0
  0
VERTEX
  5
1AAA
  8
SAPA_PROFIL
  6
CONTINUOUS
 10
124.5000000036711
 20
0.6294114367983356
 30
0.0
 42
0.5486187866264242
  0
VERTEX
  5
1AAB
  8
SAPA_PROFIL
  6
CONTINUOUS
 10
124.926785482193
 20
0.3575191006871989
 30
0.0
  0
VERTEX
  5
1AAC
  8
SAPA_PROFIL
  6
CONTINUOUS
 10
126.67321452144201
 20
1.1718923361132449
 30
0.0
 42
-0.5486187866274858
  0
VERTEX
  5
1AAD
  8
SAPA_PROFIL
  6
CONTINUOUS
 10
127.09999999996499
 20
0.9000000000023362
 30
0.0
  0
VERTEX
  5
1AAE
  8
SAPA_PROFIL
  6
CONTINUOUS
 10
127.09999999996499
 20
-3.4999999999977538
 30
0.0
 42
-0.5486187866274797
  0
VERTEX
  5
1AAF
  8
SAPA_PROFIL
  6
CONTINUOUS
 10
126.67321452144201
 20
-3.7718923361086629
 30
0.0
  0
VERTEX
  5
1AB0
  8
SAPA_PROFIL
  6
CONTINUOUS
 10
124.9267854821931
 20
-2.9575191006826169
 30
0.0
 42
0.5486187866264408
  0
VERTEX
  5
1AB1
  8
SAPA_PROFIL
  6
CONTINUOUS
 10
124.500000003671
 20
-3.229411436793753
 30
0.0
  0
VERTEX
  5
1AB2
  8
SAPA_PROFIL
  6
CONTINUOUS
 10
124.500000003671
 20
-6.3999999999987551
 30
0.0
 42
-0.4142135623730953
  0
VERTEX
  5
1AB3
  8
SAPA_PROFIL
  6
CONTINUOUS
 10
124.20000000367099
 20
-6.6999999999987088
 30
0.0
  0
VERTEX
  5
1AB4
  8
SAPA_PROFIL
  6
CONTINUOUS
 10
124.0000000036711
 20
-6.6999999999985951
 30
0.0
 42
0.4142135623730951
  0
VERTEX
  5
1AB5
  8
SAPA_PROFIL
  6
CONTINUOUS
 10
123.70000000367099
 20
-6.9999999999986642
 30
0.0
  0
VERTEX
  5
1AB6
  8
SAPA_PROFIL
  6
CONTINUOUS
 10
123.70000000367099
 20
-18.6999999999978
 30
0.0
 42
-0.4142135623730948
  0
VERTEX
  5
1AB7
  8
SAPA_PROFIL
  6
CONTINUOUS
 10
123.400000003671
 20
-18.999999999997868
 30
0.0
  0
VERTEX
  5
1AB8
  8
SAPA_PROFIL
  6
CONTINUOUS
 10
122.4978356153656
 20
-18.999999999997812
 30
0.0
  0
VERTEX
  5
1AB9
  8
SAPA_PROFIL
  6
CONTINUOUS
 10
121.17671865743129
 20
-19.51062258313581
 30
0.0
 42
-0.4142135623730953
  0
VERTEX
  5
1ABA
  8
SAPA_PROFIL
  6
CONTINUOUS
 10
120.8025337019555
 20
-19.31065853862842
 30
0.0
  0
VERTEX
  5
1ABB
  8
SAPA_PROFIL
  6
CONTINUOUS
 10
120.78801529270829
 20
-19.26281278862993
 30
0.0
  0
VERTEX
  5
1ABC
  8
SAPA_PROFIL
  6
CONTINUOUS
 10
119.2849142119464
 20
-19.262729180746302
 30
0.0
 42
0.4769755326981663
  0
VERTEX
  5
1ABD
  8
SAPA_PROFIL
  6
CONTINUOUS
 10
118.9826613874399
 20
-19.634386055692151
 30
0.0
  0
VERTEX
  5
1ABE
  8
SAPA_PROFIL
  6
CONTINUOUS
 10
119.36410798356761
 20
-21.447616526350402
 30
0.0
 42
0.2216946626430184
  0
VERTEX
  5
1ABF
  8
SAPA_PROFIL
  6
CONTINUOUS
 10
119.76991688872241
 20
-21.988496357827191
 30
0.0
  0
VERTEX
  5
1AC0
  8
SAPA_PROFIL
  6
CONTINUOUS
 10
120.054599171954
 20
-22.140630268935951
 30
0.0
 42
0.5773502691897339
  0
VERTEX
  5
1AC1
  8
SAPA_PROFIL
  6
CONTINUOUS
 10
120.34875547220889
 20
-21.957676528825768
 30
0.0
  0
VERTEX
  5
1AC2
  8
SAPA_PROFIL
  6
CONTINUOUS
 10
120.3381941059819
 20
-21.635918800607531
 30
0.0
  0
VERTEX
  5
1AC3
  8
SAPA_PROFIL
  6
CONTINUOUS
 10
122.2240377978429
 20
-20.551354353635791
 30
0.0
  0
VERTEX
  5
1AC4
  8
SAPA_PROFIL
  6
CONTINUOUS
 10
122.4154207978367
 20
-20.493280716646691
 30
0.0
 42
-0.7625858545243346
  0
VERTEX
  5
1AC5
  8
SAPA_PROFIL
  6
CONTINUOUS
 10
122.6000000000342
 20
-20.82360679766369
 30
0.0
 42
0.2134217652834345
  0
VERTEX
  5
1AC6
  8
SAPA_PROFIL
  6
CONTINUOUS
 10
122.50000000003401
 20
-21.047213595497769
 30
0.0
  0
VERTEX
  5
1AC7
  8
SAPA_PROFIL
  6
CONTINUOUS
 10
122.499999999964
 20
-24.900000000004781
 30
0.0
 42
-0.4142135623643546
  0
VERTEX
  5
1AC8
  8
SAPA_PROFIL
  6
CONTINUOUS
 10
122.19999999996701
 20
-25.19999999999882
 30
0.0
  0
VERTEX
  5
1AC9
  8
SAPA_PROFIL
  6
CONTINUOUS
 10
121.90837349217099
 20
-25.200000000001658
 30
0.0
  0
VERTEX
  5
1ACA
  8
SAPA_PROFIL
  6
CONTINUOUS
 10
120.299999999965
 20
-24.271405131319881
 30
0.0
 42
0.5773502691895283
  0
VERTEX
  5
1ACB
  8
SAPA_PROFIL
  6
CONTINUOUS
 10
119.9999999999651
 20
-24.44461021207681
 30
0.0
  0
VERTEX
  5
1ACC
  8
SAPA_PROFIL
  6
CONTINUOUS
 10
119.999999999965
 20
-25.830250858130771
 30
0.0
 42
0.267949192431441
  0
VERTEX
  5
1ACD
  8
SAPA_PROFIL
  6
CONTINUOUS
 10
120.499999999965
 20
-26.696276261915759
 30
0.0
  0
VERTEX
  5
1ACE
  8
SAPA_PROFIL
  6
CONTINUOUS
 10
126.549999999999
 20
-30.18924539052481
 30
0.0
 42
-0.2679491924318217
  0
VERTEX
  5
1ACF
  8
SAPA_PROFIL
  6
CONTINUOUS
 10
126.8000000000002
 20
-30.622258092417759
 30
0.0
  0
VERTEX
  5
1AD0
  8
SAPA_PROFIL
  6
CONTINUOUS
 10
126.799999999999
 20
-43.487142984320847
 30
0.0
 42
-0.2679491924310522
  0
VERTEX
  5
1AD1
  8
SAPA_PROFIL
  6
CONTINUOUS
 10
126.5499999999991
 20
-43.920155686213
 30
0.0
  0
VERTEX
  5
1AD2
  8
SAPA_PROFIL
  6
CONTINUOUS
 10
124.499999999964
 20
-45.103723738069696
 30
0.0
 42
0.267949192431297
  0
VERTEX
  5
1AD3
  8
SAPA_PROFIL
  6
CONTINUOUS
 10
123.99999999996299
 20
-45.969749141853782
 30
0.0
  0
VERTEX
  5
1AD4
  8
SAPA_PROFIL
  6
CONTINUOUS
 10
123.99999999996299
 20
-47.355389787907733
 30
0.0
 42
0.5773502691895273
  0
VERTEX
  5
1AD5
  8
SAPA_PROFIL
  6
CONTINUOUS
 10
124.29999999996301
 20
-47.528594868664669
 30
0.0
  0
VERTEX
  5
1AD6
  8
SAPA_PROFIL
  6
CONTINUOUS
 10
125.90837349217
 20
-46.59999999998265
 30
0.0
  0
VERTEX
  5
1AD7
  8
SAPA_PROFIL
  6
CONTINUOUS
 10
126.1999999999651
 20
-46.59999999998584
 30
0.0
 42
-0.4142135623662692
  0
VERTEX
  5
1AD8
  8
SAPA_PROFIL
  6
CONTINUOUS
 10
126.49999999996299
 20
-46.899999999980672
 30
0.0
  0
VERTEX
  5
1AD9
  8
SAPA_PROFIL
  6
CONTINUOUS
 10
126.500000000032
 20
-50.752786404487807
 30
0.0
  0
SEQEND
  5
1ADA
  8
SAPA_PROFIL
  6
CONTINUOUS
  0
POLYLINE
  5
133D
  8
SAPA_PROFIL
 62
     4
 66
     1
 10
0.0
 20
0.0
 30
0.0
 70
     1
  0
VERTEX
  5
1ADB
  8
SAPA_PROFIL
 62
     4
 10
99.537778470552624
 20
-49.827485331484347
 30
0.0
 42
-0.3137019356282051
  0
VERTEX
  5
1ADC
  8
SAPA_PROFIL
 62
     4
 10
99.818728254098914
 20
-50.025110957017773
 30
0.0
  0
VERTEX
  5
1ADD
  8
SAPA_PROFIL
 62
     4
 10
100.70420596697009
 20
-52.457940978561801
 30
0.0
 42
0.3152987888779321
  0
VERTEX
  5
1ADE
  8
SAPA_PROFIL
 62
     4
 10
101.0800830152865
 20
-52.721132921231508
 30
0.0
  0
VERTEX
  5
1ADF
  8
SAPA_PROFIL
 62
     4
 10
111.5000000000006
 20
-52.721132921231479
 30
0.0
  0
VERTEX
  5
1AE0
  8
SAPA_PROFIL
 62
     4
 10
121.9199169847187
 20
-52.721132921231437
 30
0.0
 42
0.3152987888779395
  0
VERTEX
  5
1AE1
  8
SAPA_PROFIL
 62
     4
 10
122.2957940330311
 20
-52.457940978561723
 30
0.0
  0
VERTEX
  5
1AE2
  8
SAPA_PROFIL
 62
     4
 10
123.18127174589929
 20
-50.025110957026023
 30
0.0
 42
-0.3138982169096283
  0
VERTEX
  5
1AE3
  8
SAPA_PROFIL
 62
     4
 10
123.4622215294134
 20
-49.827485331485668
 30
0.0
 42
-0.0157923906855865
  0
VERTEX
  5
1AE4
  8
SAPA_PROFIL
 62
     4
 10
123.81368006175229
 20
-49.824082201846068
 30
0.0
  0
VERTEX
  5
1AE5
  8
SAPA_PROFIL
 62
     4
 10
124.05386312653459
 20
-49.685412444739541
 30
0.0
 42
-0.5773502691889272
  0
VERTEX
  5
1AE6
  8
SAPA_PROFIL
 62
     4
 10
124.36886312653429
 20
-49.867277779534341
 30
0.0
  0
VERTEX
  5
1AE7
  8
SAPA_PROFIL
 62
     4
 10
124.36886312653439
 20
-50.134392307747248
 30
0.0
  0
VERTEX
  5
1AE8
  8
SAPA_PROFIL
 62
     4
 10
124.7000000000006
 20
-50.330614373531553
 30
0.0
  0
VERTEX
  5
1AE9
  8
SAPA_PROFIL
 62
     4
 10
125.6833201379811
 20
-50.898258537029001
 30
0.0
 42
0.1316524975869703
  0
VERTEX
  5
1AEA
  8
SAPA_PROFIL
 62
     4
 10
125.78832013797989
 20
-50.926393202233562
 30
0.0
  0
VERTEX
  5
1AEB
  8
SAPA_PROFIL
 62
     4
 10
126.1000000000025
 20
-50.926393202233669
 30
0.0
 42
0.4142135623775584
  0
VERTEX
  5
1AEC
  8
SAPA_PROFIL
 62
     4
 10
126.5000000000005
 20
-50.526393202233351
 30
0.0
  0
VERTEX
  5
1AED
  8
SAPA_PROFIL
 62
     4
 10
126.5000000000006
 20
-47.126393202233601
 30
0.0
 42
0.4142135623773978
  0
VERTEX
  5
1AEE
  8
SAPA_PROFIL
 62
     4
 10
126.10000000000061
 20
-46.726393202233631
 30
0.0
  0
VERTEX
  5
1AEF
  8
SAPA_PROFIL
 62
     4
 10
125.7883201379769
 20
-46.726393202233631
 30
0.0
 42
0.1316524975869708
  0
VERTEX
  5
1AF0
  8
SAPA_PROFIL
 62
     4
 10
125.68332013798
 20
-46.754527867438867
 30
0.0
  0
VERTEX
  5
1AF1
  8
SAPA_PROFIL
 62
     4
 10
124.7000000000006
 20
-47.322248013800902
 30
0.0
  0
VERTEX
  5
1AF2
  8
SAPA_PROFIL
 62
     4
 10
124.10525588832969
 20
-47.665623686773017
 30
0.0
 42
-0.1316524975869772
  0
VERTEX
  5
1AF3
  8
SAPA_PROFIL
 62
     4
 10
123.5052558883263
 20
-47.82639320223354
 30
0.0
  0
VERTEX
  5
1AF4
  8
SAPA_PROFIL
 62
     4
 10
122.5533915554399
 20
-47.826393202233312
 30
0.0
 42
0.3152987888780149
  0
VERTEX
  5
1AF5
  8
SAPA_PROFIL
 62
     4
 10
121.61369893466841
 20
-48.4843730589077
 30
0.0
  0
VERTEX
  5
1AF6
  8
SAPA_PROFIL
 62
     4
 10
120.8225849097585
 20
-50.657940978561392
 30
0.0
 42
-0.3152987888779391
  0
VERTEX
  5
1AF7
  8
SAPA_PROFIL
 62
     4
 10
120.446707861444
 20
-50.921132921231511
 30
0.0
  0
VERTEX
  5
1AF8
  8
SAPA_PROFIL
 62
     4
 10
111.5000000000006
 20
-50.921132921231496
 30
0.0
  0
VERTEX
  5
1AF9
  8
SAPA_PROFIL
 62
     4
 10
102.5532921385571
 20
-50.92113292123156
 30
0.0
 42
-0.3152987888779318
  0
VERTEX
  5
1AFA
  8
SAPA_PROFIL
 62
     4
 10
102.177415090244
 20
-50.657940978565136
 30
0.0
  0
VERTEX
  5
1AFB
  8
SAPA_PROFIL
 62
     4
 10
101.3863010653329
 20
-48.48437305890792
 30
0.0
 42
0.3152987888779361
  0
VERTEX
  5
1AFC
  8
SAPA_PROFIL
 62
     4
 10
100.4466084445323
 20
-47.826393202233589
 30
0.0
  0
VERTEX
  5
1AFD
  8
SAPA_PROFIL
 62
     4
 10
99.494744111674791
 20
-47.826393202233589
 30
0.0
 42
-0.1316524975869766
  0
VERTEX
  5
1AFE
  8
SAPA_PROFIL
 62
     4
 10
98.894744111681575
 20
-47.665623686778872
 30
0.0
  0
VERTEX
  5
1AFF
  8
SAPA_PROFIL
 62
     4
 10
98.307179676973078
 20
-47.326393202233639
 30
0.0
  0
VERTEX
  5
1B00
  8
SAPA_PROFIL
 62
     4
 10
97.316679862021147
 20
-46.754527867438917
 30
0.0
 42
0.1316524975869832
  0
VERTEX
  5
1B01
  8
SAPA_PROFIL
 62
     4
 10
97.211679862018045
 20
-46.72639320223368
 30
0.0
  0
VERTEX
  5
1B02
  8
SAPA_PROFIL
 62
     4
 10
96.900000000000546
 20
-46.726393202233623
 30
0.0
 42
0.414213562371655
  0
VERTEX
  5
1B03
  8
SAPA_PROFIL
 62
     4
 10
96.500000000000568
 20
-47.126393202237573
 30
0.0
  0
VERTEX
  5
1B04
  8
SAPA_PROFIL
 62
     4
 10
96.500000000000568
 20
-50.526393202233628
 30
0.0
 42
0.4142135623716633
  0
VERTEX
  5
1B05
  8
SAPA_PROFIL
 62
     4
 10
96.900000000002606
 20
-50.926393202233612
 30
0.0
  0
VERTEX
  5
1B06
  8
SAPA_PROFIL
 62
     4
 10
97.211679862021256
 20
-50.926393202233612
 30
0.0
 42
0.1316524975869709
  0
VERTEX
  5
1B07
  8
SAPA_PROFIL
 62
     4
 10
97.316679862021815
 20
-50.89825853702802
 30
0.0
  0
VERTEX
  5
1B08
  8
SAPA_PROFIL
 62
     4
 10
98.631136873466815
 20
-50.134392307747248
 30
0.0
  0
VERTEX
  5
1B09
  8
SAPA_PROFIL
 62
     4
 10
98.631136873466943
 20
-49.867277779534326
 30
0.0
 42
-0.5773502691889269
  0
VERTEX
  5
1B0A
  8
SAPA_PROFIL
 62
     4
 10
98.946136873466656
 20
-49.685412444739541
 30
0.0
  0
VERTEX
  5
1B0B
  8
SAPA_PROFIL
 62
     4
 10
99.186319938248957
 20
-49.824082201846061
 30
0.0
 42
-0.015792390685586
  0
SEQEND
  5
1B0C
  8
SAPA_PROFIL
 62
     4
  0
POLYLINE
  5
133E
  8
SAPA_PROFIL
 62
     4
 66
     1
 10
0.0
 20
0.0
 30
0.0
 70
     1
  0
VERTEX
  5
1B0D
  8
SAPA_PROFIL
 62
     4
 10
103.49474411165561
 20
-21.973606797754599
 30
0.0
 42
-0.0158087792519252
  0
VERTEX
  5
1B0E
  8
SAPA_PROFIL
 62
     4
 10
103.18631993824739
 20
-21.97591779814201
 30
0.0
  0
VERTEX
  5
1B0F
  8
SAPA_PROFIL
 62
     4
 10
102.94613687346509
 20
-22.11458755524853
 30
0.0
 42
-0.5773502691889283
  0
VERTEX
  5
1B10
  8
SAPA_PROFIL
 62
     4
 10
102.63113687346539
 20
-21.932722220453741
 30
0.0
  0
VERTEX
  5
1B11
  8
SAPA_PROFIL
 62
     4
 10
102.6332864004291
 20
-21.661884602327351
 30
0.0
  0
VERTEX
  5
1B12
  8
SAPA_PROFIL
 62
     4
 10
101.3375644347017
 20
-20.913799176619762
 30
0.0
 42
0.1316524975870228
  0
VERTEX
  5
1B13
  8
SAPA_PROFIL
 62
     4
 10
101.1875644347008
 20
-20.873606797754629
 30
0.0
  0
VERTEX
  5
1B14
  8
SAPA_PROFIL
 62
     4
 10
100.900000000001
 20
-20.873606797754629
 30
0.0
 42
0.4142135623716466
  0
VERTEX
  5
1B15
  8
SAPA_PROFIL
 62
     4
 10
100.49999999999901
 20
-21.27360679775461
 30
0.0
  0
VERTEX
  5
1B16
  8
SAPA_PROFIL
 62
     4
 10
100.49999999999901
 20
-24.673606797750669
 30
0.0
 42
0.4142135623716799
  0
VERTEX
  5
1B17
  8
SAPA_PROFIL
 62
     4
 10
100.8999999999991
 20
-25.073606797754572
 30
0.0
  0
VERTEX
  5
1B18
  8
SAPA_PROFIL
 62
     4
 10
101.1875644346965
 20
-25.073606797754621
 30
0.0
 42
0.1316524975869177
  0
VERTEX
  5
1B19
  8
SAPA_PROFIL
 62
     4
 10
101.33756443470079
 20
-25.03341441888989
 30
0.0
  0
VERTEX
  5
1B1A
  8
SAPA_PROFIL
 62
     4
 10
102.89474411168
 20
-24.134376313209319
 30
0.0
 42
-0.1316524975869702
  0
VERTEX
  5
1B1B
  8
SAPA_PROFIL
 62
     4
 10
103.4947441116732
 20
-23.973606797754599
 30
0.0
  0
VERTEX
  5
1B1C
  8
SAPA_PROFIL
 62
     4
 10
104.9056465456208
 20
-23.973606797754599
 30
0.0
 42
0.2956153501796054
  0
VERTEX
  5
1B1D
  8
SAPA_PROFIL
 62
     4
 10
105.1794410810089
 20
-23.79623041861953
 30
0.0
  0
VERTEX
  5
1B1E
  8
SAPA_PROFIL
 62
     4
 10
106.3559868458433
 20
-21.16923409630903
 30
0.0
 42
-0.2956153501796242
  0
VERTEX
  5
1B1F
  8
SAPA_PROFIL
 62
     4
 10
106.8123110714811
 20
-20.873606797754409
 30
0.0
  0
VERTEX
  5
1B20
  8
SAPA_PROFIL
 62
     4
 10
116.1874352799434
 20
-20.873606797754409
 30
0.0
 42
-0.2962134949611152
  0
VERTEX
  5
1B21
  8
SAPA_PROFIL
 62
     4
 10
116.64420800876501
 20
-21.170238476217101
 30
0.0
  0
VERTEX
  5
1B22
  8
SAPA_PROFIL
 62
     4
 10
117.8131066416652
 20
-23.795627790677258
 30
0.0
 42
0.2962134949611341
  0
VERTEX
  5
1B23
  8
SAPA_PROFIL
 62
     4
 10
118.08717027895359
 20
-23.973606797754599
 30
0.0
  0
VERTEX
  5
1B24
  8
SAPA_PROFIL
 62
     4
 10
119.5052558883248
 20
-23.973606797754599
 30
0.0
 42
-0.1316524975869708
  0
VERTEX
  5
1B25
  8
SAPA_PROFIL
 62
     4
 10
120.1052558883281
 20
-24.134376313215292
 30
0.0
  0
VERTEX
  5
1B26
  8
SAPA_PROFIL
 62
     4
 10
120.69999999999909
 20
-24.47775198618729
 30
0.0
  0
VERTEX
  5
1B27
  8
SAPA_PROFIL
 62
     4
 10
121.6624355652972
 20
-25.033414418889901
 30
0.0
 42
0.1316524975870234
  0
VERTEX
  5
1B28
  8
SAPA_PROFIL
 62
     4
 10
121.8124355652929
 20
-25.073606797754628
 30
0.0
  0
VERTEX
  5
1B29
  8
SAPA_PROFIL
 62
     4
 10
122.0999999999991
 20
-25.073606797754572
 30
0.0
 42
0.4142135623773905
  0
VERTEX
  5
1B2A
  8
SAPA_PROFIL
 62
     4
 10
122.4999999999991
 20
-24.673606797754591
 30
0.0
  0
VERTEX
  5
1B2B
  8
SAPA_PROFIL
 62
     4
 10
122.49999999999901
 20
-21.273606797754621
 30
0.0
 42
0.4142135623716633
  0
VERTEX
  5
1B2C
  8
SAPA_PROFIL
 62
     4
 10
122.100000000001
 20
-20.87360679775464
 30
0.0
  0
VERTEX
  5
1B2D
  8
SAPA_PROFIL
 62
     4
 10
121.81243556529731
 20
-20.87360679775464
 30
0.0
 42
0.1316524975870223
  0
VERTEX
  5
1B2E
  8
SAPA_PROFIL
 62
     4
 10
121.66243556529901
 20
-20.91379917661834
 30
0.0
  0
VERTEX
  5
1B2F
  8
SAPA_PROFIL
 62
     4
 10
120.69999999999909
 20
-21.469461609321911
 30
0.0
  0
VERTEX
  5
1B30
  8
SAPA_PROFIL
 62
     4
 10
120.3667135995691
 20
-21.661884602327319
 30
0.0
  0
VERTEX
  5
1B31
  8
SAPA_PROFIL
 62
     4
 10
120.3688631265328
 20
-21.932722220453741
 30
0.0
 42
-0.577350269188929
  0
VERTEX
  5
1B32
  8
SAPA_PROFIL
 62
     4
 10
120.0538631265331
 20
-22.114587555248541
 30
0.0
  0
VERTEX
  5
1B33
  8
SAPA_PROFIL
 62
     4
 10
119.8136800617508
 20
-21.97591779814201
 30
0.0
 42
-0.0126854278206095
  0
VERTEX
  5
1B34
  8
SAPA_PROFIL
 62
     4
 10
119.46222152941201
 20
-21.973606797754641
 30
0.0
  0
VERTEX
  5
1B35
  8
SAPA_PROFIL
 62
     4
 10
119.385985465353
 20
-21.973606797754599
 30
0.0
 42
-0.2962134949611687
  0
VERTEX
  5
1B36
  8
SAPA_PROFIL
 62
     4
 10
119.1119218280588
 20
-21.795627790674249
 30
0.0
  0
VERTEX
  5
1B37
  8
SAPA_PROFIL
 62
     4
 10
117.97924135933251
 20
-19.251585804831912
 30
0.0
 42
0.2962134949611357
  0
VERTEX
  5
1B38
  8
SAPA_PROFIL
 62
     4
 10
117.7051777220412
 20
-19.073606797754621
 30
0.0
  0
VERTEX
  5
1B39
  8
SAPA_PROFIL
 62
     4
 10
113.23005594144971
 20
-19.073606797754451
 30
0.0
  0
VERTEX
  5
1B3A
  8
SAPA_PROFIL
 62
     4
 10
105.2948222779597
 20
-19.073606797754501
 30
0.0
 42
0.2962134949611373
  0
VERTEX
  5
1B3B
  8
SAPA_PROFIL
 62
     4
 10
105.02075864066551
 20
-19.251585804831791
 30
0.0
  0
VERTEX
  5
1B3C
  8
SAPA_PROFIL
 62
     4
 10
103.8880781719356
 20
-21.795627790682321
 30
0.0
 42
-0.2962134949611043
  0
VERTEX
  5
1B3D
  8
SAPA_PROFIL
 62
     4
 10
103.61401453464499
 20
-21.973606797754599
 30
0.0
  0
SEQEND
  5
1B3E
  8
SAPA_PROFIL
 62
     4
  0
POLYLINE
  5
133F
  8
SAPA_PROFIL
 66
     1
 10
0.0
 20
0.0
 30
0.0
 70
     1
  0
VERTEX
  5
1B3F
  8
SAPA_PROFIL
 10
68.49488117955697
 20
6.5194684993236933
 30
0.0
  0
VERTEX
  5
1B40
  8
SAPA_PROFIL
 10
67.49488117955697
 20
5.5194684993236933
 30
0.0
  0
VERTEX
  5
1B41
  8
SAPA_PROFIL
 10
67.494881179556955
 20
-5.4805315006763058
 30
0.0
  0
VERTEX
  5
1B42
  8
SAPA_PROFIL
 10
68.494881179556955
 20
-6.4805315006763058
 30
0.0
  0
VERTEX
  5
1B43
  8
SAPA_PROFIL
 10
68.494881179556955
 20
-8.9805307586044592
 30
0.0
 42
-1.0000014841447959
  0
VERTEX
  5
1B44
  8
SAPA_PROFIL
 10
67.494881179557524
 20
-8.9805307586044592
 30
0.0
  0
VERTEX
  5
1B45
  8
SAPA_PROFIL
 10
67.494881179556955
 20
-7.7305315006763058
 30
0.0
  0
VERTEX
  5
1B46
  8
SAPA_PROFIL
 10
66.394881179556933
 20
-7.7305315006763058
 30
0.0
  0
VERTEX
  5
1B47
  8
SAPA_PROFIL
 10
66.394881179556933
 20
-15.23053150067631
 30
0.0
  0
VERTEX
  5
1B48
  8
SAPA_PROFIL
 10
67.494881179556955
 20
-15.23053150067631
 30
0.0
  0
VERTEX
  5
1B49
  8
SAPA_PROFIL
 10
67.494881179556955
 20
-13.98052959787333
 30
0.0
 42
-0.9999967549392536
  0
VERTEX
  5
1B4A
  8
SAPA_PROFIL
 10
68.494881179555136
 20
-13.98053015841333
 30
0.0
  0
VERTEX
  5
1B4B
  8
SAPA_PROFIL
 10
68.494881179556955
 20
-16.016429885538621
 30
0.0
  0
VERTEX
  5
1B4C
  8
SAPA_PROFIL
 10
67.360906583341375
 20
-17.9805315006763
 30
0.0
 42
-0.577350269189629
  0
VERTEX
  5
1B4D
  8
SAPA_PROFIL
 10
65.628855775772465
 20
-17.9805315006763
 30
0.0
  0
VERTEX
  5
1B4E
  8
SAPA_PROFIL
 10
64.628855775772536
 20
-16.248480693107581
 30
0.0
 42
-0.4142135623730394
  0
VERTEX
  5
1B4F
  8
SAPA_PROFIL
 10
64.994881179556785
 20
-14.882455289323159
 30
0.0
  0
VERTEX
  5
1B50
  8
SAPA_PROFIL
 10
64.994881179556799
 20
14.92139228797055
 30
0.0
 42
-0.4142135623730394
  0
VERTEX
  5
1B51
  8
SAPA_PROFIL
 10
64.62885577577255
 20
16.28741769175485
 30
0.0
  0
VERTEX
  5
1B52
  8
SAPA_PROFIL
 10
65.628855775772493
 20
18.01946849932369
 30
0.0
 42
-0.5773502691896291
  0
VERTEX
  5
1B53
  8
SAPA_PROFIL
 10
67.360906583341389
 20
18.01946849932369
 30
0.0
  0
VERTEX
  5
1B54
  8
SAPA_PROFIL
 10
68.49488117955697
 20
16.055366884185901
 30
0.0
  0
VERTEX
  5
1B55
  8
SAPA_PROFIL
 10
68.494881179555151
 20
14.01946715706066
 30
0.0
 42
-0.9999967549392536
  0
VERTEX
  5
1B56
  8
SAPA_PROFIL
 10
67.49488117955697
 20
14.01946659652066
 30
0.0
  0
VERTEX
  5
1B57
  8
SAPA_PROFIL
 10
67.49488117955697
 20
15.26946849932369
 30
0.0
  0
VERTEX
  5
1B58
  8
SAPA_PROFIL
 10
66.394881179556947
 20
15.26946849932369
 30
0.0
  0
VERTEX
  5
1B59
  8
SAPA_PROFIL
 10
66.394881179556947
 20
7.7694684993236933
 30
0.0
  0
VERTEX
  5
1B5A
  8
SAPA_PROFIL
 10
67.49488117955697
 20
7.7694684993236933
 30
0.0
  0
VERTEX
  5
1B5B
  8
SAPA_PROFIL
 10
67.494881179557524
 20
9.0194677572518458
 30
0.0
 42
-1.0000014841447959
  0
VERTEX
  5
1B5C
  8
SAPA_PROFIL
 10
68.49488117955697
 20
9.0194677572518458
 30
0.0
  0
SEQEND
  5
1B5D
  8
SAPA_PROFIL
  0
POLYLINE
  5
1340
  8
SAPA_PROFIL
 66
     1
 10
0.0
 20
0.0
 30
0.0
 70
     1
  0
VERTEX
  5
1B5E
  8
SAPA_PROFIL
 10
-90.000000000001364
 20
-11.0
 30
0.0
  0
VERTEX
  5
1B5F
  8
SAPA_PROFIL
 10
-90.000000000001364
 20
-25.0
 30
0.0
  0
VERTEX
  5
1B60
  8
SAPA_PROFIL
 10
-35.500000000001371
 20
-25.0
 30
0.0
  0
VERTEX
  5
1B61
  8
SAPA_PROFIL
 10
-35.500000000001371
 20
-5.0
 30
0.0
  0
VERTEX
  5
1B62
  8
SAPA_PROFIL
 10
-52.500000000001357
 20
-5.0
 30
0.0
  0
VERTEX
  5
1B63
  8
SAPA_PROFIL
 10
-52.500000000001357
 20
-11.0
 30
0.0
  0
SEQEND
  5
1B64
  8
SAPA_PROFIL
  0
POLYLINE
  5
1341
  8
SAPA_PROFIL
 66
     1
 10
0.0
 20
0.0
 30
0.0
 70
     1
  0
VERTEX
  5
1B65
  8
SAPA_PROFIL
 10
-92.49999999901172
 20
-11.93837527500475
 30
0.0
 42
-0.2216946626428728
  0
VERTEX
  5
1B66
  8
SAPA_PROFIL
 10
-92.857212389325241
 20
-12.704419718123379
 30
0.0
  0
VERTEX
  5
1B67
  8
SAPA_PROFIL
 10
-94.142787608696381
 20
-13.78314541054826
 30
0.0
 42
0.2216946626428911
  0
VERTEX
  5
1B68
  8
SAPA_PROFIL
 10
-94.499999999009844
 20
-14.549189853667009
 30
0.0
  0
VERTEX
  5
1B69
  8
SAPA_PROFIL
 10
-94.499999999010356
 20
-16.32573593128857
 30
0.0
 42
-0.1989123673796749
  0
VERTEX
  5
1B6A
  8
SAPA_PROFIL
 10
-94.587867964654265
 20
-16.537867965644839
 30
0.0
  0
VERTEX
  5
1B6B
  8
SAPA_PROFIL
 10
-95.158578642773023
 20
-17.108578643763138
 30
0.0
 42
-0.6681786379193591
  0
VERTEX
  5
1B6C
  8
SAPA_PROFIL
 10
-95.499999999010356
 20
-16.96715728752563
 30
0.0
  0
VERTEX
  5
1B6D
  8
SAPA_PROFIL
 10
-95.499999999010129
 20
-16.00000000000043
 30
0.0
 42
0.4142135623730951
  0
VERTEX
  5
1B6E
  8
SAPA_PROFIL
 10
-95.999999999009901
 20
-15.50000000000043
 30
0.0
  0
VERTEX
  5
1B6F
  8
SAPA_PROFIL
 10
-96.390808928730507
 20
-15.50000000000043
 30
0.0
 42
0.1763269807084316
  0
VERTEX
  5
1B70
  8
SAPA_PROFIL
 10
-96.583645211636281
 20
-15.5701866670647
 30
0.0
  0
VERTEX
  5
1B71
  8
SAPA_PROFIL
 10
-98.321393803853084
 20
-17.02833086987264
 30
0.0
 42
0.2216946626429586
  0
VERTEX
  5
1B72
  8
SAPA_PROFIL
 10
-98.499999999009844
 20
-17.411353091432119
 30
0.0
  0
VERTEX
  5
1B73
  8
SAPA_PROFIL
 10
-98.499999999009916
 20
-19.981908440199479
 30
0.0
 42
0.2216946626429592
  0
VERTEX
  5
1B74
  8
SAPA_PROFIL
 10
-98.392836281915962
 20
-20.211721773135402
 30
0.0
  0
VERTEX
  5
1B75
  8
SAPA_PROFIL
 10
-96.583645211636295
 20
-21.729813332936128
 30
0.0
 42
0.1763269807084563
  0
VERTEX
  5
1B76
  8
SAPA_PROFIL
 10
-96.390808928730536
 20
-21.800000000000392
 30
0.0
  0
VERTEX
  5
1B77
  8
SAPA_PROFIL
 10
-95.999999999009916
 20
-21.800000000000392
 30
0.0
 42
0.4142135623730951
  0
VERTEX
  5
1B78
  8
SAPA_PROFIL
 10
-95.499999999010384
 20
-21.300000000000392
 30
0.0
  0
VERTEX
  5
1B79
  8
SAPA_PROFIL
 10
-95.499999999010384
 20
-20.33284271247496
 30
0.0
 42
-0.6681786379193841
  0
VERTEX
  5
1B7A
  8
SAPA_PROFIL
 10
-95.158578642773037
 20
-20.1914213562379
 30
0.0
  0
VERTEX
  5
1B7B
  8
SAPA_PROFIL
 10
-94.587867964654279
 20
-20.762132034356661
 30
0.0
 42
-0.1989123673796471
  0
VERTEX
  5
1B7C
  8
SAPA_PROFIL
 10
-94.499999999009916
 20
-20.974264068712479
 30
0.0
  0
VERTEX
  5
1B7D
  8
SAPA_PROFIL
 10
-94.499999999010356
 20
-23.300000000000392
 30
0.0
 42
-0.4142135623730951
  0
VERTEX
  5
1B7E
  8
SAPA_PROFIL
 10
-94.99999999901037
 20
-23.800000000000392
 30
0.0
  0
VERTEX
  5
1B7F
  8
SAPA_PROFIL
 10
-98.699999999010245
 20
-23.80000000000096
 30
0.0
 42
-0.4142135623729843
  0
VERTEX
  5
1B80
  8
SAPA_PROFIL
 10
-98.999999999010427
 20
-23.500000000000892
 30
0.0
  0
VERTEX
  5
1B81
  8
SAPA_PROFIL
 10
-98.999999999010313
 20
-22.473205080758571
 30
0.0
 42
0.26794919243117
  0
VERTEX
  5
1B82
  8
SAPA_PROFIL
 10
-99.149999999010404
 20
-22.21339745962289
 30
0.0
  0
VERTEX
  5
1B83
  8
SAPA_PROFIL
 10
-100.6580771356047
 20
-21.34270871885165
 30
0.0
 42
0.4142135623734465
  0
VERTEX
  5
1B84
  8
SAPA_PROFIL
 10
-101.0678847567399
 20
-21.4525163399869
 30
0.0
  0
VERTEX
  5
1B85
  8
SAPA_PROFIL
 10
-101.38397459522589
 20
-22.000000000000771
 30
0.0
 42
-0.4663076581550835
  0
VERTEX
  5
1B86
  8
SAPA_PROFIL
 10
-102.89278760869681
 20
-22.26604444311975
 30
0.0
  0
VERTEX
  5
1B87
  8
SAPA_PROFIL
 10
-106.3928362819162
 20
-19.329154892317518
 30
0.0
 42
-0.2216946626429129
  0
VERTEX
  5
1B88
  8
SAPA_PROFIL
 10
-106.4999999990102
 20
-19.099341559381831
 30
0.0
  0
VERTEX
  5
1B89
  8
SAPA_PROFIL
 10
-106.4999999990102
 20
-17.950000000000252
 30
0.0
 42
-0.4142135623732061
  0
VERTEX
  5
1B8A
  8
SAPA_PROFIL
 10
-106.1999999990101
 20
-17.650000000000301
 30
0.0
  0
VERTEX
  5
1B8B
  8
SAPA_PROFIL
 10
-102.6932604937617
 20
-17.650000000000858
 30
0.0
 42
0.1763269807085094
  0
VERTEX
  5
1B8C
  8
SAPA_PROFIL
 10
-102.05047288407501
 20
-17.416044443119841
 30
0.0
  0
VERTEX
  5
1B8D
  8
SAPA_PROFIL
 10
-99.307163716103958
 20
-15.114134732070029
 30
0.0
 42
0.2216946626429509
  0
VERTEX
  5
1B8E
  8
SAPA_PROFIL
 10
-99.19999999900989
 20
-14.88432139913434
 30
0.0
  0
VERTEX
  5
1B8F
  8
SAPA_PROFIL
 10
-99.19999999900989
 20
-14.02421369658086
 30
0.0
 42
-0.4142135623731506
  0
VERTEX
  5
1B90
  8
SAPA_PROFIL
 10
-98.899999999009879
 20
-13.724213696580909
 30
0.0
  0
VERTEX
  5
1B91
  8
SAPA_PROFIL
 10
-97.759911398916941
 20
-13.724213696580909
 30
0.0
 42
0.1763269807084654
  0
VERTEX
  5
1B92
  8
SAPA_PROFIL
 10
-97.567075116010983
 20
-13.65402702951665
 30
0.0
  0
VERTEX
  5
1B93
  8
SAPA_PROFIL
 10
-95.55721238932324
 20
-11.967551956835999
 30
0.0
 42
0.2216946626429509
  0
VERTEX
  5
1B94
  8
SAPA_PROFIL
 10
-95.199999999009776
 20
-11.20150751371702
 30
0.0
  0
VERTEX
  5
1B95
  8
SAPA_PROFIL
 10
-95.199999999009876
 20
11.20150751371661
 30
0.0
 42
0.2216946626429508
  0
VERTEX
  5
1B96
  8
SAPA_PROFIL
 10
-95.557212389323354
 20
11.96755195683558
 30
0.0
  0
VERTEX
  5
1B97
  8
SAPA_PROFIL
 10
-97.567075116011097
 20
13.65402702951623
 30
0.0
 42
0.1763269807084657
  0
VERTEX
  5
1B98
  8
SAPA_PROFIL
 10
-97.759911398917041
 20
13.724213696580501
 30
0.0
  0
VERTEX
  5
1B99
  8
SAPA_PROFIL
 10
-98.899999999009879
 20
13.724213696580501
 30
0.0
 42
-0.4142135623730951
  0
VERTEX
  5
1B9A
  8
SAPA_PROFIL
 10
-99.199999999009833
 20
14.02421369658045
 30
0.0
  0
VERTEX
  5
1B9B
  8
SAPA_PROFIL
 10
-99.199999999009833
 20
14.884321399133929
 30
0.0
 42
0.2216946626429889
  0
VERTEX
  5
1B9C
  8
SAPA_PROFIL
 10
-99.307163716103901
 20
15.114134732069621
 30
0.0
  0
VERTEX
  5
1B9D
  8
SAPA_PROFIL
 10
-102.05047288407511
 20
17.416044443119421
 30
0.0
 42
0.1763269807085052
  0
VERTEX
  5
1B9E
  8
SAPA_PROFIL
 10
-102.6932604937619
 20
17.65000000000045
 30
0.0
  0
VERTEX
  5
1B9F
  8
SAPA_PROFIL
 10
-106.1999999990101
 20
17.649999999999771
 30
0.0
 42
-0.4142135623732062
  0
VERTEX
  5
1BA0
  8
SAPA_PROFIL
 10
-106.4999999990102
 20
17.949999999999719
 30
0.0
  0
VERTEX
  5
1BA1
  8
SAPA_PROFIL
 10
-106.4999999990102
 20
19.099341559381308
 30
0.0
 42
-0.2216946626429129
  0
VERTEX
  5
1BA2
  8
SAPA_PROFIL
 10
-106.3928362819162
 20
19.329154892317
 30
0.0
  0
VERTEX
  5
1BA3
  8
SAPA_PROFIL
 10
-102.89278760869681
 20
22.266044443119331
 30
0.0
 42
-0.4663076581550919
  0
VERTEX
  5
1BA4
  8
SAPA_PROFIL
 10
-101.38397459522589
 20
22.000000000000359
 30
0.0
  0
VERTEX
  5
1BA5
  8
SAPA_PROFIL
 10
-101.06788475674
 20
21.452516339986481
 30
0.0
 42
0.4142135623731708
  0
VERTEX
  5
1BA6
  8
SAPA_PROFIL
 10
-100.6580771356047
 20
21.342708718851231
 30
0.0
  0
VERTEX
  5
1BA7
  8
SAPA_PROFIL
 10
-99.149999999010404
 20
22.213397459622481
 30
0.0
 42
0.26794919243117
  0
VERTEX
  5
1BA8
  8
SAPA_PROFIL
 10
-98.999999999010299
 20
22.473205080758159
 30
0.0
  0
VERTEX
  5
1BA9
  8
SAPA_PROFIL
 10
-98.999999999010299
 20
23.50000000000048
 30
0.0
 42
-0.4142135623729287
  0
VERTEX
  5
1BAA
  8
SAPA_PROFIL
 10
-98.699999999010245
 20
23.800000000000541
 30
0.0
  0
VERTEX
  5
1BAB
  8
SAPA_PROFIL
 10
-94.999999999010356
 20
23.799999999999969
 30
0.0
 42
-0.4142135623730951
  0
VERTEX
  5
1BAC
  8
SAPA_PROFIL
 10
-94.499999999010356
 20
23.299999999999969
 30
0.0
  0
VERTEX
  5
1BAD
  8
SAPA_PROFIL
 10
-94.499999999009901
 20
20.97426406871206
 30
0.0
 42
-0.1989123673796819
  0
VERTEX
  5
1BAE
  8
SAPA_PROFIL
 10
-94.587867964654265
 20
20.762132034356242
 30
0.0
  0
VERTEX
  5
1BAF
  8
SAPA_PROFIL
 10
-95.158578642773023
 20
20.191421356237491
 30
0.0
 42
-0.6681786379193841
  0
VERTEX
  5
1BB0
  8
SAPA_PROFIL
 10
-95.499999999010356
 20
20.332842712474552
 30
0.0
  0
VERTEX
  5
1BB1
  8
SAPA_PROFIL
 10
-95.499999999010356
 20
21.299999999999969
 30
0.0
 42
0.4142135623730951
  0
VERTEX
  5
1BB2
  8
SAPA_PROFIL
 10
-95.999999999009901
 20
21.799999999999969
 30
0.0
  0
VERTEX
  5
1BB3
  8
SAPA_PROFIL
 10
-96.390808928730507
 20
21.799999999999969
 30
0.0
 42
0.1763269807084561
  0
VERTEX
  5
1BB4
  8
SAPA_PROFIL
 10
-96.583645211636281
 20
21.729813332935709
 30
0.0
  0
VERTEX
  5
1BB5
  8
SAPA_PROFIL
 10
-98.392836281915933
 20
20.21172177313499
 30
0.0
 42
0.2216946626429592
  0
VERTEX
  5
1BB6
  8
SAPA_PROFIL
 10
-98.499999999009901
 20
19.981908440199071
 30
0.0
  0
VERTEX
  5
1BB7
  8
SAPA_PROFIL
 10
-98.499999999009844
 20
17.41135309143171
 30
0.0
 42
0.2216946626429736
  0
VERTEX
  5
1BB8
  8
SAPA_PROFIL
 10
-98.321393803853084
 20
17.028330869872221
 30
0.0
  0
VERTEX
  5
1BB9
  8
SAPA_PROFIL
 10
-96.583645211636281
 20
15.570186667064281
 30
0.0
 42
0.1763269807084407
  0
VERTEX
  5
1BBA
  8
SAPA_PROFIL
 10
-96.390808928730507
 20
15.50000000000002
 30
0.0
  0
VERTEX
  5
1BBB
  8
SAPA_PROFIL
 10
-95.999999999009901
 20
15.50000000000002
 30
0.0
 42
0.4142135623730951
  0
VERTEX
  5
1BBC
  8
SAPA_PROFIL
 10
-95.499999999010356
 20
16.000000000000021
 30
0.0
  0
VERTEX
  5
1BBD
  8
SAPA_PROFIL
 10
-95.499999999010356
 20
16.967157287525222
 30
0.0
 42
-0.6681786379193591
  0
VERTEX
  5
1BBE
  8
SAPA_PROFIL
 10
-95.158578642773023
 20
17.10857864376273
 30
0.0
  0
VERTEX
  5
1BBF
  8
SAPA_PROFIL
 10
-94.587867964654265
 20
16.537867965644431
 30
0.0
 42
-0.1989123673796749
  0
VERTEX
  5
1BC0
  8
SAPA_PROFIL
 10
-94.499999999010356
 20
16.325735931288161
 30
0.0
  0
VERTEX
  5
1BC1
  8
SAPA_PROFIL
 10
-94.499999999009844
 20
14.549189853666711
 30
0.0
 42
0.2216946626428804
  0
VERTEX
  5
1BC2
  8
SAPA_PROFIL
 10
-94.142787608696324
 20
13.783145410547959
 30
0.0
  0
VERTEX
  5
1BC3
  8
SAPA_PROFIL
 10
-92.857212389325184
 20
12.704419718122971
 30
0.0
 42
-0.2216946626428499
  0
VERTEX
  5
1BC4
  8
SAPA_PROFIL
 10
-92.49999999901172
 20
11.93837527500434
 30
0.0
  0
VERTEX
  5
1BC5
  8
SAPA_PROFIL
 10
-92.499999999009916
 20
6.6499999999998813
 30
0.0
 42
0.4142135623730951
  0
VERTEX
  5
1BC6
  8
SAPA_PROFIL
 10
-92.199999999010174
 20
6.3499999999996994
 30
0.0
  0
VERTEX
  5
1BC7
  8
SAPA_PROFIL
 10
-91.799999999010083
 20
6.3499999999996994
 30
0.0
 42
-0.4142135623730951
  0
VERTEX
  5
1BC8
  8
SAPA_PROFIL
 10
-91.499999999009887
 20
6.0499999999999723
 30
0.0
  0
VERTEX
  5
1BC9
  8
SAPA_PROFIL
 10
-91.499999999009887
 20
5.6499999999998813
 30
0.0
 42
-0.4142135623730951
  0
VERTEX
  5
1BCA
  8
SAPA_PROFIL
 10
-91.799999999010083
 20
5.3499999999996994
 30
0.0
  0
VERTEX
  5
1BCB
  8
SAPA_PROFIL
 10
-92.199999999010174
 20
5.3499999999996994
 30
0.0
 42
0.4142135623730951
  0
VERTEX
  5
1BCC
  8
SAPA_PROFIL
 10
-92.499999999009916
 20
5.0499999999999723
 30
0.0
  0
VERTEX
  5
1BCD
  8
SAPA_PROFIL
 10
-92.499999999009916
 20
0.6242640687116996
 30
0.0
 42
-0.1989123673795535
  0
VERTEX
  5
1BCE
  8
SAPA_PROFIL
 10
-92.58786796465381
 20
0.4121320343558815
 30
0.0
  0
VERTEX
  5
1BCF
  8
SAPA_PROFIL
 10
-92.999999999009901
 20
-0.0000000000002096
 30
0.0
  0
VERTEX
  5
1BD0
  8
SAPA_PROFIL
 10
-92.58786796465381
 20
-0.4121320343563007
 30
0.0
 42
-0.1989123673795536
  0
VERTEX
  5
1BD1
  8
SAPA_PROFIL
 10
-92.499999999009916
 20
-0.6242640687121189
 30
0.0
  0
VERTEX
  5
1BD2
  8
SAPA_PROFIL
 10
-92.499999999009916
 20
-5.0499999999999359
 30
0.0
 42
0.4142135623730951
  0
VERTEX
  5
1BD3
  8
SAPA_PROFIL
 10
-92.199999999010174
 20
-5.3500000000001178
 30
0.0
  0
VERTEX
  5
1BD4
  8
SAPA_PROFIL
 10
-91.799999999010083
 20
-5.3500000000001178
 30
0.0
 42
-0.4142135623730951
  0
VERTEX
  5
1BD5
  8
SAPA_PROFIL
 10
-91.499999999009887
 20
-5.6500000000002997
 30
0.0
  0
VERTEX
  5
1BD6
  8
SAPA_PROFIL
 10
-91.499999999009887
 20
-6.0500000000003906
 30
0.0
 42
-0.4142135623730951
  0
VERTEX
  5
1BD7
  8
SAPA_PROFIL
 10
-91.799999999010083
 20
-6.3500000000001178
 30
0.0
  0
VERTEX
  5
1BD8
  8
SAPA_PROFIL
 10
-92.199999999010174
 20
-6.3500000000001178
 30
0.0
 42
0.414213562373095
  0
VERTEX
  5
1BD9
  8
SAPA_PROFIL
 10
-92.499999999009916
 20
-6.6500000000002997
 30
0.0
  0
SEQEND
  5
1BDA
  8
SAPA_PROFIL
  0
POLYLINE
  5
1342
  8
SAPA_PROFIL
 66
     1
 10
0.0
 20
0.0
 30
0.0
 70
     1
  0
VERTEX
  5
1BDB
  8
SAPA_PROFIL
 10
-99.098475071207162
 20
22.799999999999049
 30
0.0
  0
VERTEX
  5
1BDC
  8
SAPA_PROFIL
 10
-99.098475071207162
 20
23.799999999999049
 30
0.0
  0
VERTEX
  5
1BDD
  8
SAPA_PROFIL
 10
-96.498475071206983
 20
23.799999999999049
 30
0.0
 42
0.4142135623730951
  0
VERTEX
  5
1BDE
  8
SAPA_PROFIL
 10
-95.998475071206968
 20
24.299999999999059
 30
0.0
  0
VERTEX
  5
1BDF
  8
SAPA_PROFIL
 10
-95.998475071206968
 20
24.69999999999914
 30
0.0
 42
0.4142135623730951
  0
VERTEX
  5
1BE0
  8
SAPA_PROFIL
 10
-96.298475071206937
 20
24.999999999999101
 30
0.0
  0
VERTEX
  5
1BE1
  8
SAPA_PROFIL
 10
-113.9999999990096
 20
24.999999999999091
 30
0.0
 42
0.4142135623730951
  0
VERTEX
  5
1BE2
  8
SAPA_PROFIL
 10
-114.4999999990096
 20
24.499999999999091
 30
0.0
  0
VERTEX
  5
1BE3
  8
SAPA_PROFIL
 10
-114.4999999990096
 20
-24.500000000000909
 30
0.0
 42
0.4142135623730951
  0
VERTEX
  5
1BE4
  8
SAPA_PROFIL
 10
-113.9999999990096
 20
-25.000000000000909
 30
0.0
  0
VERTEX
  5
1BE5
  8
SAPA_PROFIL
 10
-96.298475071206937
 20
-25.000000000000909
 30
0.0
 42
0.4142135623730951
  0
VERTEX
  5
1BE6
  8
SAPA_PROFIL
 10
-95.998475071206968
 20
-24.700000000000951
 30
0.0
  0
VERTEX
  5
1BE7
  8
SAPA_PROFIL
 10
-95.998475071206968
 20
-24.30000000000086
 30
0.0
 42
0.4142135623730951
  0
VERTEX
  5
1BE8
  8
SAPA_PROFIL
 10
-96.498475071206954
 20
-23.80000000000086
 30
0.0
  0
VERTEX
  5
1BE9
  8
SAPA_PROFIL
 10
-99.098475071207133
 20
-23.80000000000086
 30
0.0
  0
VERTEX
  5
1BEA
  8
SAPA_PROFIL
 10
-99.098475071207133
 20
-22.80000000000086
 30
0.0
  0
VERTEX
  5
1BEB
  8
SAPA_PROFIL
 10
-100.1025078308401
 20
-22.2203392215797
 30
0.0
 42
0.4155392929676362
  0
VERTEX
  5
1BEC
  8
SAPA_PROFIL
 10
-101.1971268026321
 20
-22.51631264788557
 30
0.0
  0
VERTEX
  5
1BED
  8
SAPA_PROFIL
 10
-101.938264040931
 20
-23.80000000000086
 30
0.0
  0
VERTEX
  5
1BEE
  8
SAPA_PROFIL
 10
-112.0999999990097
 20
-23.80000000000086
 30
0.0
 42
-0.4142135623730951
  0
VERTEX
  5
1BEF
  8
SAPA_PROFIL
 10
-113.0999999990097
 20
-22.80000000000086
 30
0.0
  0
VERTEX
  5
1BF0
  8
SAPA_PROFIL
 10
-113.0999999990097
 20
22.799999999999049
 30
0.0
 42
-0.4142135623730951
  0
VERTEX
  5
1BF1
  8
SAPA_PROFIL
 10
-112.0999999990097
 20
23.799999999999041
 30
0.0
  0
VERTEX
  5
1BF2
  8
SAPA_PROFIL
 10
-101.9382640409311
 20
23.799999999999049
 30
0.0
  0
VERTEX
  5
1BF3
  8
SAPA_PROFIL
 10
-101.1971268026321
 20
22.516312647883758
 30
0.0
 42
0.4155392929676362
  0
VERTEX
  5
1BF4
  8
SAPA_PROFIL
 10
-100.1025078308401
 20
22.220339221577891
 30
0.0
  0
SEQEND
  5
1BF5
  8
SAPA_PROFIL
  0
POLYLINE
  5
1343
  8
SAPA_PROFIL
 66
     1
 10
0.0
 20
0.0
 30
0.0
 70
     1
  0
VERTEX
  5
1BF6
  8
SAPA_PROFIL
 10
48.799999999999038
 20
45.000000000000341
 30
0.0
  0
VERTEX
  5
1BF7
  8
SAPA_PROFIL
 10
50.799999999999052
 20
45.000000000000341
 30
0.0
  0
VERTEX
  5
1BF8
  8
SAPA_PROFIL
 10
50.799999999999052
 20
30.65685424949277
 30
0.0
  0
VERTEX
  5
1BF9
  8
SAPA_PROFIL
 10
45.143145750506612
 20
25.000000000000341
 30
0.0
  0
VERTEX
  5
1BFA
  8
SAPA_PROFIL
 10
25.799999999999049
 20
25.000000000000341
 30
0.0
  0
VERTEX
  5
1BFB
  8
SAPA_PROFIL
 10
25.799999999999049
 20
27.000000000000341
 30
0.0
  0
VERTEX
  5
1BFC
  8
SAPA_PROFIL
 10
31.107179676971551
 20
27.000000000000341
 30
0.0
  0
VERTEX
  5
1BFD
  8
SAPA_PROFIL
 10
31.799999999999049
 20
26.600000000000481
 30
0.0
  0
VERTEX
  5
1BFE
  8
SAPA_PROFIL
 10
32.492820323026763
 20
27.000000000000341
 30
0.0
  0
VERTEX
  5
1BFF
  8
SAPA_PROFIL
 10
43.486291501014421
 20
27.000000000000341
 30
0.0
 42
0.1989123673796584
  0
VERTEX
  5
1C00
  8
SAPA_PROFIL
 10
44.900505063387527
 20
27.585786437627231
 30
0.0
  0
VERTEX
  5
1C01
  8
SAPA_PROFIL
 10
48.214213562372152
 20
30.89949493661209
 30
0.0
 42
0.1989123673796572
  0
VERTEX
  5
1C02
  8
SAPA_PROFIL
 10
48.799999999999038
 20
32.3137084989852
 30
0.0
  0
VERTEX
  5
1C03
  8
SAPA_PROFIL
 10
48.799999999999038
 20
38.307179676972851
 30
0.0
  0
VERTEX
  5
1C04
  8
SAPA_PROFIL
 10
49.199999999999129
 20
39.000000000000341
 30
0.0
  0
VERTEX
  5
1C05
  8
SAPA_PROFIL
 10
48.799999999999038
 20
39.692820323028059
 30
0.0
  0
SEQEND
  5
1C06
  8
SAPA_PROFIL
  0
POLYLINE
  5
1344
  8
SAPA_PROFIL
 66
     1
 10
0.0
 20
0.0
 30
0.0
 70
     1
  0
VERTEX
  5
1C07
  8
SAPA_PROFIL
 10
-64.200000000001012
 20
15.699999999999759
 30
0.0
 42
-0.4142135623730951
  0
VERTEX
  5
1C08
  8
SAPA_PROFIL
 10
-64.700000000001012
 20
15.199999999999759
 30
0.0
  0
VERTEX
  5
1C09
  8
SAPA_PROFIL
 10
-69.500000000001194
 20
15.19999999999999
 30
0.0
 42
0.4142135623730951
  0
VERTEX
  5
1C0A
  8
SAPA_PROFIL
 10
-70.000000000001194
 20
14.69999999999999
 30
0.0
  0
VERTEX
  5
1C0B
  8
SAPA_PROFIL
 10
-70.000000000001194
 20
12.00000000000119
 30
0.0
 42
0.4142135623731617
  0
VERTEX
  5
1C0C
  8
SAPA_PROFIL
 10
-69.500000000001194
 20
11.50000000000119
 30
0.0
  0
VERTEX
  5
1C0D
  8
SAPA_PROFIL
 10
-52.200000000001403
 20
11.500000000002331
 30
0.0
 42
0.4142135623730617
  0
VERTEX
  5
1C0E
  8
SAPA_PROFIL
 10
-51.70000000000141
 20
12.000000000002331
 30
0.0
  0
VERTEX
  5
1C0F
  8
SAPA_PROFIL
 10
-51.70000000000141
 20
15.699999999999189
 30
0.0
 42
-0.4142135623730951
  0
VERTEX
  5
1C10
  8
SAPA_PROFIL
 10
-51.20000000000141
 20
16.199999999999189
 30
0.0
  0
VERTEX
  5
1C11
  8
SAPA_PROFIL
 10
-46.100000000000577
 20
16.199999999999189
 30
0.0
 42
0.4142135623730847
  0
VERTEX
  5
1C12
  8
SAPA_PROFIL
 10
-45.600000000000591
 20
16.699999999999189
 30
0.0
  0
VERTEX
  5
1C13
  8
SAPA_PROFIL
 10
-45.600000000000357
 20
22.799999999999098
 30
0.0
 42
0.4142135623731054
  0
VERTEX
  5
1C14
  8
SAPA_PROFIL
 10
-46.100000000000357
 20
23.299999999999098
 30
0.0
  0
VERTEX
  5
1C15
  8
SAPA_PROFIL
 10
-63.700000000000792
 20
23.299999999999098
 30
0.0
 42
0.4142135623730951
  0
VERTEX
  5
1C16
  8
SAPA_PROFIL
 10
-64.200000000000784
 20
22.799999999999098
 30
0.0
  0
SEQEND
  5
1C17
  8
SAPA_PROFIL
  0
POLYLINE
  5
1345
  8
SAPA_PROFIL
 66
     1
 10
0.0
 20
0.0
 30
0.0
 70
     1
  0
VERTEX
  5
1C18
  8
SAPA_PROFIL
 10
-70.000000000000966
 20
16.699999999999299
 30
0.0
  0
VERTEX
  5
1C19
  8
SAPA_PROFIL
 10
-66.200000000001239
 20
16.699999999999299
 30
0.0
 42
0.4142135623730951
  0
VERTEX
  5
1C1A
  8
SAPA_PROFIL
 10
-65.700000000001239
 20
17.199999999999299
 30
0.0
  0
VERTEX
  5
1C1B
  8
SAPA_PROFIL
 10
-65.700000000000784
 20
22.799999999999219
 30
0.0
 42
0.4142135623730951
  0
VERTEX
  5
1C1C
  8
SAPA_PROFIL
 10
-66.200000000000784
 20
23.299999999999098
 30
0.0
  0
VERTEX
  5
1C1D
  8
SAPA_PROFIL
 10
-70.000000000000966
 20
23.299999999999208
 30
0.0
 42
0.4142135623730477
  0
VERTEX
  5
1C1E
  8
SAPA_PROFIL
 10
-70.500000000000966
 20
22.799999999999329
 30
0.0
  0
VERTEX
  5
1C1F
  8
SAPA_PROFIL
 10
-70.500000000001194
 20
21.799999999999219
 30
0.0
 42
-0.7105995015650752
  0
VERTEX
  5
1C20
  8
SAPA_PROFIL
 10
-71.035076580435813
 20
21.613615984238489
 30
0.0
  0
VERTEX
  5
1C21
  8
SAPA_PROFIL
 10
-71.500000000001194
 20
22.19999999999931
 30
0.0
  0
VERTEX
  5
1C22
  8
SAPA_PROFIL
 10
-71.500000000001194
 20
24.299999999999329
 30
0.0
 42
-0.4142135623730977
  0
VERTEX
  5
1C23
  8
SAPA_PROFIL
 10
-71.000000000001194
 20
24.799999999999329
 30
0.0
  0
VERTEX
  5
1C24
  8
SAPA_PROFIL
 10
-44.100000000000357
 20
24.799999999999098
 30
0.0
 42
-0.4142135623730927
  0
VERTEX
  5
1C25
  8
SAPA_PROFIL
 10
-43.600000000000357
 20
24.299999999999098
 30
0.0
  0
VERTEX
  5
1C26
  8
SAPA_PROFIL
 10
-43.600000000000129
 20
22.699999999999189
 30
0.0
  0
VERTEX
  5
1C27
  8
SAPA_PROFIL
 10
-43.600000000000129
 20
22.699999999999189
 30
0.0
 42
0.4142135623730951
  0
VERTEX
  5
1C28
  8
SAPA_PROFIL
 10
-44.100000000000129
 20
22.199999999999189
 30
0.0
  0
VERTEX
  5
1C29
  8
SAPA_PROFIL
 10
-44.100000000000129
 20
15.199999999999189
 30
0.0
 42
-0.4142135623730951
  0
VERTEX
  5
1C2A
  8
SAPA_PROFIL
 10
-44.600000000000144
 20
14.699999999999189
 30
0.0
  0
VERTEX
  5
1C2B
  8
SAPA_PROFIL
 10
-49.700000000000728
 20
14.699999999999189
 30
0.0
 42
0.4142135623730951
  0
VERTEX
  5
1C2C
  8
SAPA_PROFIL
 10
-50.200000000000728
 20
14.199999999999189
 30
0.0
  0
VERTEX
  5
1C2D
  8
SAPA_PROFIL
 10
-50.200000000000948
 20
11.199999999999189
 30
0.0
 42
0.4142135623730951
  0
VERTEX
  5
1C2E
  8
SAPA_PROFIL
 10
-49.700000000000948
 20
10.699999999999189
 30
0.0
  0
VERTEX
  5
1C2F
  8
SAPA_PROFIL
 10
-33.800000000000409
 20
10.700000000000101
 30
0.0
 42
0.4142135623730951
  0
VERTEX
  5
1C30
  8
SAPA_PROFIL
 10
-33.500000000000462
 20
11.00000000000005
 30
0.0
  0
VERTEX
  5
1C31
  8
SAPA_PROFIL
 10
-33.500000000000462
 20
12.28821087970783
 30
0.0
 42
-0.6681786379192989
  0
VERTEX
  5
1C32
  8
SAPA_PROFIL
 10
-32.987867965644682
 20
12.50034291406376
 30
0.0
  0
VERTEX
  5
1C33
  8
SAPA_PROFIL
 10
-30.78786796564464
 20
10.30034291406383
 30
0.0
 42
-0.1989123673796284
  0
VERTEX
  5
1C34
  8
SAPA_PROFIL
 10
-30.7000000000005
 20
10.0882108797079
 30
0.0
  0
VERTEX
  5
1C35
  8
SAPA_PROFIL
 10
-30.7000000000005
 20
9.4999999999999432
 30
0.0
 42
-0.4142135623730951
  0
VERTEX
  5
1C36
  8
SAPA_PROFIL
 10
-31.000000000000458
 20
9.2000000000001023
 30
0.0
  0
VERTEX
  5
1C37
  8
SAPA_PROFIL
 10
-49.700000000001182
 20
9.2000000000001023
 30
0.0
 42
0.4142135623730951
  0
VERTEX
  5
1C38
  8
SAPA_PROFIL
 10
-50.200000000001182
 20
8.7000000000001023
 30
0.0
  0
VERTEX
  5
1C39
  8
SAPA_PROFIL
 10
-50.200000000001182
 20
7.0000000000002842
 30
0.0
 42
0.4142135623730951
  0
VERTEX
  5
1C3A
  8
SAPA_PROFIL
 10
-49.700000000001182
 20
6.5000000000002842
 30
0.0
  0
VERTEX
  5
1C3B
  8
SAPA_PROFIL
 10
-38.20000000000141
 20
6.5000000000005107
 30
0.0
 42
-0.4142135623731008
  0
VERTEX
  5
1C3C
  8
SAPA_PROFIL
 10
-37.70000000000141
 20
6.0000000000005107
 30
0.0
  0
VERTEX
  5
1C3D
  8
SAPA_PROFIL
 10
-37.70000000000141
 20
5.5000000000002842
 30
0.0
 42
-0.4142135623731177
  0
VERTEX
  5
1C3E
  8
SAPA_PROFIL
 10
-38.20000000000141
 20
5.0000000000002842
 30
0.0
  0
VERTEX
  5
1C3F
  8
SAPA_PROFIL
 10
-51.20000000000141
 20
5.0000000000013074
 30
0.0
 42
-0.4142135623730951
  0
VERTEX
  5
1C40
  8
SAPA_PROFIL
 10
-51.70000000000141
 20
5.5000000000013074
 30
0.0
  0
VERTEX
  5
1C41
  8
SAPA_PROFIL
 10
-51.700000000001637
 20
9.5000000000023306
 30
0.0
 42
0.4142135623731284
  0
VERTEX
  5
1C42
  8
SAPA_PROFIL
 10
-52.200000000001637
 20
10.000000000002331
 30
0.0
  0
VERTEX
  5
1C43
  8
SAPA_PROFIL
 10
-71.000000000001421
 20
10.00000000000108
 30
0.0
 42
-0.4142135623730951
  0
VERTEX
  5
1C44
  8
SAPA_PROFIL
 10
-71.500000000001421
 20
10.50000000000108
 30
0.0
  0
VERTEX
  5
1C45
  8
SAPA_PROFIL
 10
-71.500000000001194
 20
17.799999999999208
 30
0.0
  0
VERTEX
  5
1C46
  8
SAPA_PROFIL
 10
-71.035076580435813
 20
18.386384015760029
 30
0.0
 42
-0.7105995015651617
  0
VERTEX
  5
1C47
  8
SAPA_PROFIL
 10
-70.500000000000966
 20
18.19999999999931
 30
0.0
  0
VERTEX
  5
1C48
  8
SAPA_PROFIL
 10
-70.500000000000966
 20
17.19999999999942
 30
0.0
 42
0.4142135623731507
  0
SEQEND
  5
1C49
  8
SAPA_PROFIL
  0
POLYLINE
  5
1346
  8
SAPA_PROFIL
 66
     1
 10
0.0
 20
0.0
 30
0.0
 70
     1
  0
VERTEX
  5
1C4A
  8
SAPA_PROFIL
 10
-33.050000000001319
 20
-2.700000000000045
 30
0.0
  0
VERTEX
  5
1C4B
  8
SAPA_PROFIL
 10
-31.673765406424991
 20
-2.076719696698091
 30
0.0
 42
-0.5450207798987328
  0
VERTEX
  5
1C4C
  8
SAPA_PROFIL
 10
-31.250000000001371
 20
-2.3499999999999091
 30
0.0
  0
VERTEX
  5
1C4D
  8
SAPA_PROFIL
 10
-31.250000000001371
 20
-2.700000000000045
 30
0.0
  0
VERTEX
  5
1C4E
  8
SAPA_PROFIL
 10
-31.000000000001361
 20
-2.700000000000045
 30
0.0
 42
0.4142135623730951
  0
VERTEX
  5
1C4F
  8
SAPA_PROFIL
 10
-30.000000000001371
 20
-1.700000000000045
 30
0.0
  0
VERTEX
  5
1C50
  8
SAPA_PROFIL
 10
-30.000000000001371
 20
1.700000000000045
 30
0.0
 42
0.4142135623730951
  0
VERTEX
  5
1C51
  8
SAPA_PROFIL
 10
-31.000000000001361
 20
2.700000000000045
 30
0.0
  0
VERTEX
  5
1C52
  8
SAPA_PROFIL
 10
-32.150000000001228
 20
2.700000000000045
 30
0.0
  0
VERTEX
  5
1C53
  8
SAPA_PROFIL
 10
-32.150000000001228
 20
2.3499999999999091
 30
0.0
 42
-0.5450200690651551
  0
VERTEX
  5
1C54
  8
SAPA_PROFIL
 10
-32.573765000001231
 20
2.0767190000001392
 30
0.0
  0
VERTEX
  5
1C55
  8
SAPA_PROFIL
 10
-33.950000000001189
 20
2.700000000000045
 30
0.0
  0
VERTEX
  5
1C56
  8
SAPA_PROFIL
 10
-33.950000000001189
 20
2.3499999999999091
 30
0.0
 42
-0.5450200690651692
  0
VERTEX
  5
1C57
  8
SAPA_PROFIL
 10
-34.373765000001193
 20
2.0767190000001392
 30
0.0
  0
VERTEX
  5
1C58
  8
SAPA_PROFIL
 10
-35.750000000001357
 20
2.700000000000045
 30
0.0
  0
VERTEX
  5
1C59
  8
SAPA_PROFIL
 10
-35.750000000001357
 20
2.3499999999999091
 30
0.0
 42
-0.5450200690651619
  0
VERTEX
  5
1C5A
  8
SAPA_PROFIL
 10
-36.173765000001367
 20
2.0767190000001392
 30
0.0
  0
VERTEX
  5
1C5B
  8
SAPA_PROFIL
 10
-37.550000000001319
 20
2.700000000000045
 30
0.0
  0
VERTEX
  5
1C5C
  8
SAPA_PROFIL
 10
-37.550000000001319
 20
2.3499999999999091
 30
0.0
 42
-0.5450200690651619
  0
VERTEX
  5
1C5D
  8
SAPA_PROFIL
 10
-37.973765000001322
 20
2.0767190000001392
 30
0.0
  0
VERTEX
  5
1C5E
  8
SAPA_PROFIL
 10
-39.35000000000128
 20
2.700000000000045
 30
0.0
  0
VERTEX
  5
1C5F
  8
SAPA_PROFIL
 10
-39.35000000000128
 20
2.3499999999999091
 30
0.0
 42
-0.5450200690651692
  0
VERTEX
  5
1C60
  8
SAPA_PROFIL
 10
-39.773765000001283
 20
2.0767190000001392
 30
0.0
  0
VERTEX
  5
1C61
  8
SAPA_PROFIL
 10
-41.150000000001221
 20
2.700000000000045
 30
0.0
  0
VERTEX
  5
1C62
  8
SAPA_PROFIL
 10
-41.450000000001182
 20
2.700000000000045
 30
0.0
  0
VERTEX
  5
1C63
  8
SAPA_PROFIL
 10
-41.450000000001182
 20
-2.4282676335108131
 30
0.0
  0
VERTEX
  5
1C64
  8
SAPA_PROFIL
 10
-40.673765406424991
 20
-2.076719696698091
 30
0.0
 42
-0.5450207798987328
  0
VERTEX
  5
1C65
  8
SAPA_PROFIL
 10
-40.250000000001357
 20
-2.3499999999999091
 30
0.0
  0
VERTEX
  5
1C66
  8
SAPA_PROFIL
 10
-40.250000000001357
 20
-2.700000000000045
 30
0.0
  0
VERTEX
  5
1C67
  8
SAPA_PROFIL
 10
-38.873765000001193
 20
-2.0767200000000221
 30
0.0
 42
-0.5450205149791638
  0
VERTEX
  5
1C68
  8
SAPA_PROFIL
 10
-38.450000000001182
 20
-2.3499999999999091
 30
0.0
  0
VERTEX
  5
1C69
  8
SAPA_PROFIL
 10
-38.450000000001182
 20
-2.700000000000045
 30
0.0
  0
VERTEX
  5
1C6A
  8
SAPA_PROFIL
 10
-37.073765406424847
 20
-2.076719696698091
 30
0.0
 42
-0.545020779898768
  0
VERTEX
  5
1C6B
  8
SAPA_PROFIL
 10
-36.650000000001228
 20
-2.3499999999999091
 30
0.0
  0
VERTEX
  5
1C6C
  8
SAPA_PROFIL
 10
-36.650000000001228
 20
-2.700000000000045
 30
0.0
  0
VERTEX
  5
1C6D
  8
SAPA_PROFIL
 10
-35.2737654064249
 20
-2.076719696698091
 30
0.0
 42
-0.54502077989874
  0
VERTEX
  5
1C6E
  8
SAPA_PROFIL
 10
-34.850000000001273
 20
-2.3499999999999091
 30
0.0
  0
VERTEX
  5
1C6F
  8
SAPA_PROFIL
 10
-34.850000000001273
 20
-2.700000000000045
 30
0.0
  0
VERTEX
  5
1C70
  8
SAPA_PROFIL
 10
-33.473765406424953
 20
-2.076719696698091
 30
0.0
 42
-0.545020779898761
  0
VERTEX
  5
1C71
  8
SAPA_PROFIL
 10
-33.050000000001319
 20
-2.3499999999999091
 30
0.0
  0
SEQEND
  5
1C72
  8
SAPA_PROFIL
  0
POLYLINE
  5
1347
  8
SAPA_PROFIL
 66
     1
 10
0.0
 20
0.0
 30
0.0
 70
     1
  0
VERTEX
  5
1C73
  8
SAPA_PROFIL
 10
58.024264068710629
 20
-23.0
 30
0.0
 42
-0.1989123673796753
  0
VERTEX
  5
1C74
  8
SAPA_PROFIL
 10
57.812132034354811
 20
-22.91213203435586
 30
0.0
  0
VERTEX
  5
1C75
  8
SAPA_PROFIL
 10
56.087867965642772
 20
-21.187867965644049
 30
0.0
 42
0.1989123673796753
  0
VERTEX
  5
1C76
  8
SAPA_PROFIL
 10
55.875735931286727
 20
-21.099999999999909
 30
0.0
  0
VERTEX
  5
1C77
  8
SAPA_PROFIL
 10
55.299999999998818
 20
-21.099999999999909
 30
0.0
 42
0.4142135623730951
  0
VERTEX
  5
1C78
  8
SAPA_PROFIL
 10
54.999999999998643
 20
-21.400000000000091
 30
0.0
  0
VERTEX
  5
1C79
  8
SAPA_PROFIL
 10
54.999999999998643
 20
-22.700000000000038
 30
0.0
 42
-0.4142135623730951
  0
VERTEX
  5
1C7A
  8
SAPA_PROFIL
 10
54.699999999998681
 20
-23.0
 30
0.0
  0
VERTEX
  5
1C7B
  8
SAPA_PROFIL
 10
29.999999999998639
 20
-23.0
 30
0.0
 42
-0.4142135623730951
  0
VERTEX
  5
1C7C
  8
SAPA_PROFIL
 10
28.999999999998629
 20
-22.0
 30
0.0
  0
VERTEX
  5
1C7D
  8
SAPA_PROFIL
 10
28.999999999998629
 20
-17.599999999999909
 30
0.0
 42
0.4142135623730951
  0
VERTEX
  5
1C7E
  8
SAPA_PROFIL
 10
28.699999999998681
 20
-17.299999999999951
 30
0.0
  0
VERTEX
  5
1C7F
  8
SAPA_PROFIL
 10
26.39999999999873
 20
-17.299999999999951
 30
0.0
 42
0.4142135623730951
  0
VERTEX
  5
1C80
  8
SAPA_PROFIL
 10
26.099999999998769
 20
-17.599999999999909
 30
0.0
  0
VERTEX
  5
1C81
  8
SAPA_PROFIL
 10
26.099999999998769
 20
-18.099999999999909
 30
0.0
 42
0.4142135623730951
  0
VERTEX
  5
1C82
  8
SAPA_PROFIL
 10
26.39999999999873
 20
-18.400000000000091
 30
0.0
  0
VERTEX
  5
1C83
  8
SAPA_PROFIL
 10
26.736626924633129
 20
-18.400000000000091
 30
0.0
 42
-0.5535245743249297
  0
VERTEX
  5
1C84
  8
SAPA_PROFIL
 10
24.964107602123249
 20
-22.71055421153142
 30
0.0
  0
VERTEX
  5
1C85
  8
SAPA_PROFIL
 10
24.67677669529531
 20
-22.423223304703239
 30
0.0
 42
0.4142135623729421
  0
VERTEX
  5
1C86
  8
SAPA_PROFIL
 10
24.3232233047022
 20
-22.423223304703239
 30
0.0
  0
VERTEX
  5
1C87
  8
SAPA_PROFIL
 10
24.03589239787425
 20
-22.71055421153142
 30
0.0
 42
-0.5535245743249292
  0
VERTEX
  5
1C88
  8
SAPA_PROFIL
 10
22.26337307536415
 20
-18.400000000000091
 30
0.0
  0
VERTEX
  5
1C89
  8
SAPA_PROFIL
 10
22.599999999998769
 20
-18.400000000000091
 30
0.0
 42
0.4142135623730951
  0
VERTEX
  5
1C8A
  8
SAPA_PROFIL
 10
22.89999999999873
 20
-18.099999999999909
 30
0.0
  0
VERTEX
  5
1C8B
  8
SAPA_PROFIL
 10
22.89999999999873
 20
-17.599999999999909
 30
0.0
 42
0.4142135623730951
  0
VERTEX
  5
1C8C
  8
SAPA_PROFIL
 10
22.599999999998769
 20
-17.299999999999951
 30
0.0
  0
VERTEX
  5
1C8D
  8
SAPA_PROFIL
 10
21.499999999998639
 20
-17.299999999999951
 30
0.0
 42
0.4142135623730951
  0
VERTEX
  5
1C8E
  8
SAPA_PROFIL
 10
19.999999999998629
 20
-18.799999999999951
 30
0.0
  0
VERTEX
  5
1C8F
  8
SAPA_PROFIL
 10
19.999999999998629
 20
-21.63397459621547
 30
0.0
 42
0.267949192431143
  0
VERTEX
  5
1C90
  8
SAPA_PROFIL
 10
20.249999999998639
 20
-22.06698729810773
 30
0.0
 42
-0.767326987978956
  0
VERTEX
  5
1C91
  8
SAPA_PROFIL
 10
19.999999999998629
 20
-23.0
 30
0.0
  0
VERTEX
  5
1C92
  8
SAPA_PROFIL
 10
-15.000000000001361
 20
-23.0
 30
0.0
 42
-0.4142135623730951
  0
VERTEX
  5
1C93
  8
SAPA_PROFIL
 10
-16.000000000001361
 20
-22.0
 30
0.0
  0
VERTEX
  5
1C94
  8
SAPA_PROFIL
 10
-16.000000000001361
 20
-17.599999999999909
 30
0.0
 42
0.4142135623730951
  0
VERTEX
  5
1C95
  8
SAPA_PROFIL
 10
-16.300000000001319
 20
-17.299999999999951
 30
0.0
  0
VERTEX
  5
1C96
  8
SAPA_PROFIL
 10
-18.60000000000127
 20
-17.299999999999951
 30
0.0
 42
0.4142135623730951
  0
VERTEX
  5
1C97
  8
SAPA_PROFIL
 10
-18.900000000001231
 20
-17.599999999999909
 30
0.0
  0
VERTEX
  5
1C98
  8
SAPA_PROFIL
 10
-18.900000000001231
 20
-18.099999999999909
 30
0.0
 42
0.4142135623730951
  0
VERTEX
  5
1C99
  8
SAPA_PROFIL
 10
-18.60000000000127
 20
-18.400000000000091
 30
0.0
  0
VERTEX
  5
1C9A
  8
SAPA_PROFIL
 10
-18.263373075366871
 20
-18.400000000000091
 30
0.0
 42
-0.5535245743249297
  0
VERTEX
  5
1C9B
  8
SAPA_PROFIL
 10
-20.035892397876751
 20
-22.71055421153142
 30
0.0
  0
VERTEX
  5
1C9C
  8
SAPA_PROFIL
 10
-20.323223304704701
 20
-22.423223304703239
 30
0.0
 42
0.4142135623730243
  0
VERTEX
  5
1C9D
  8
SAPA_PROFIL
 10
-20.6767766952978
 20
-22.42322330470347
 30
0.0
  0
VERTEX
  5
1C9E
  8
SAPA_PROFIL
 10
-20.96410760212575
 20
-22.71055421153142
 30
0.0
 42
-0.5535245743249292
  0
VERTEX
  5
1C9F
  8
SAPA_PROFIL
 10
-22.736626924635861
 20
-18.400000000000091
 30
0.0
  0
VERTEX
  5
1CA0
  8
SAPA_PROFIL
 10
-22.400000000001231
 20
-18.400000000000091
 30
0.0
 42
0.4142135623730951
  0
VERTEX
  5
1CA1
  8
SAPA_PROFIL
 10
-22.10000000000127
 20
-18.099999999999909
 30
0.0
  0
VERTEX
  5
1CA2
  8
SAPA_PROFIL
 10
-22.10000000000127
 20
-17.599999999999909
 30
0.0
 42
0.4142135623730951
  0
VERTEX
  5
1CA3
  8
SAPA_PROFIL
 10
-22.400000000001231
 20
-17.299999999999951
 30
0.0
  0
VERTEX
  5
1CA4
  8
SAPA_PROFIL
 10
-23.500000000001361
 20
-17.299999999999951
 30
0.0
 42
0.4142135623730951
  0
VERTEX
  5
1CA5
  8
SAPA_PROFIL
 10
-25.000000000001371
 20
-18.799999999999951
 30
0.0
  0
VERTEX
  5
1CA6
  8
SAPA_PROFIL
 10
-25.000000000001371
 20
-21.78038475772928
 30
0.0
 42
0.2679491924311188
  0
VERTEX
  5
1CA7
  8
SAPA_PROFIL
 10
-24.85000000000127
 20
-22.040192378864731
 30
0.0
 42
-0.7673269879789557
  0
VERTEX
  5
1CA8
  8
SAPA_PROFIL
 10
-25.000000000001371
 20
-22.599999999999909
 30
0.0
  0
VERTEX
  5
1CA9
  8
SAPA_PROFIL
 10
-27.000000000001361
 20
-22.599999999999682
 30
0.0
 42
-0.4142137811865366
  0
VERTEX
  5
1CAA
  8
SAPA_PROFIL
 10
-28.000000000001371
 20
-21.600000747075232
 30
0.0
  0
VERTEX
  5
1CAB
  8
SAPA_PROFIL
 10
-28.000000000001371
 20
21.599999999999909
 30
0.0
 42
-0.4142140000000124
  0
VERTEX
  5
1CAC
  8
SAPA_PROFIL
 10
-27.000000000001361
 20
22.599999999999909
 30
0.0
  0
VERTEX
  5
1CAD
  8
SAPA_PROFIL
 10
-25.000000000001371
 20
22.599999999999909
 30
0.0
 42
-0.7673269879789457
  0
VERTEX
  5
1CAE
  8
SAPA_PROFIL
 10
-24.85000000000127
 20
22.040192378864731
 30
0.0
 42
0.2679491924311191
  0
VERTEX
  5
1CAF
  8
SAPA_PROFIL
 10
-25.000000000001371
 20
21.78038475772928
 30
0.0
  0
VERTEX
  5
1CB0
  8
SAPA_PROFIL
 10
-25.000000000001371
 20
18.799999999999951
 30
0.0
 42
0.4142135623730951
  0
VERTEX
  5
1CB1
  8
SAPA_PROFIL
 10
-23.500000000001361
 20
17.299999999999951
 30
0.0
  0
VERTEX
  5
1CB2
  8
SAPA_PROFIL
 10
-22.400000000001231
 20
17.299999999999951
 30
0.0
 42
0.4142135623730951
  0
VERTEX
  5
1CB3
  8
SAPA_PROFIL
 10
-22.10000000000127
 20
17.599999999999909
 30
0.0
  0
VERTEX
  5
1CB4
  8
SAPA_PROFIL
 10
-22.10000000000127
 20
18.099999999999909
 30
0.0
 42
0.4142135623730951
  0
VERTEX
  5
1CB5
  8
SAPA_PROFIL
 10
-22.400000000001231
 20
18.400000000000091
 30
0.0
  0
VERTEX
  5
1CB6
  8
SAPA_PROFIL
 10
-22.736626924635861
 20
18.400000000000091
 30
0.0
 42
-0.5535245743249307
  0
VERTEX
  5
1CB7
  8
SAPA_PROFIL
 10
-20.96410760212575
 20
22.71055421153142
 30
0.0
  0
VERTEX
  5
1CB8
  8
SAPA_PROFIL
 10
-20.6767766952978
 20
22.42322330470347
 30
0.0
 42
0.4142135623730951
  0
VERTEX
  5
1CB9
  8
SAPA_PROFIL
 10
-20.323223304704701
 20
22.42322330470347
 30
0.0
  0
VERTEX
  5
1CBA
  8
SAPA_PROFIL
 10
-20.035892397876751
 20
22.71055421153142
 30
0.0
 42
-0.553524574324932
  0
VERTEX
  5
1CBB
  8
SAPA_PROFIL
 10
-18.263373075366871
 20
18.400000000000091
 30
0.0
  0
VERTEX
  5
1CBC
  8
SAPA_PROFIL
 10
-18.60000000000127
 20
18.400000000000091
 30
0.0
 42
0.4142135623730951
  0
VERTEX
  5
1CBD
  8
SAPA_PROFIL
 10
-18.900000000001231
 20
18.099999999999909
 30
0.0
  0
VERTEX
  5
1CBE
  8
SAPA_PROFIL
 10
-18.900000000001231
 20
17.599999999999909
 30
0.0
 42
0.4142135623730951
  0
VERTEX
  5
1CBF
  8
SAPA_PROFIL
 10
-18.60000000000127
 20
17.299999999999951
 30
0.0
  0
VERTEX
  5
1CC0
  8
SAPA_PROFIL
 10
-16.300000000001319
 20
17.299999999999951
 30
0.0
 42
0.4142135623730951
  0
VERTEX
  5
1CC1
  8
SAPA_PROFIL
 10
-16.000000000001361
 20
17.599999999999909
 30
0.0
  0
VERTEX
  5
1CC2
  8
SAPA_PROFIL
 10
-16.000000000001361
 20
22.0
 30
0.0
 42
-0.4142135623730951
  0
VERTEX
  5
1CC3
  8
SAPA_PROFIL
 10
-15.000000000001361
 20
23.0
 30
0.0
  0
VERTEX
  5
1CC4
  8
SAPA_PROFIL
 10
19.999999999998629
 20
23.0
 30
0.0
 42
-0.7673269879789569
  0
VERTEX
  5
1CC5
  8
SAPA_PROFIL
 10
20.249999999998639
 20
22.06698729810773
 30
0.0
 42
0.2679491924311163
  0
VERTEX
  5
1CC6
  8
SAPA_PROFIL
 10
19.999999999998629
 20
21.63397459621547
 30
0.0
  0
VERTEX
  5
1CC7
  8
SAPA_PROFIL
 10
19.999999999998629
 20
18.799999999999951
 30
0.0
 42
0.4142135623730951
  0
VERTEX
  5
1CC8
  8
SAPA_PROFIL
 10
21.499999999998639
 20
17.299999999999951
 30
0.0
  0
VERTEX
  5
1CC9
  8
SAPA_PROFIL
 10
22.599999999998769
 20
17.299999999999951
 30
0.0
 42
0.4142135623730951
  0
VERTEX
  5
1CCA
  8
SAPA_PROFIL
 10
22.89999999999873
 20
17.599999999999909
 30
0.0
  0
VERTEX
  5
1CCB
  8
SAPA_PROFIL
 10
22.89999999999873
 20
18.099999999999909
 30
0.0
 42
0.4142135623730951
  0
VERTEX
  5
1CCC
  8
SAPA_PROFIL
 10
22.599999999998769
 20
18.400000000000091
 30
0.0
  0
VERTEX
  5
1CCD
  8
SAPA_PROFIL
 10
22.26337307536415
 20
18.400000000000091
 30
0.0
 42
-0.5535245743249307
  0
VERTEX
  5
1CCE
  8
SAPA_PROFIL
 10
24.03589239787425
 20
22.71055421153142
 30
0.0
  0
VERTEX
  5
1CCF
  8
SAPA_PROFIL
 10
24.3232233047022
 20
22.42322330470347
 30
0.0
 42
0.4142135623731068
  0
VERTEX
  5
1CD0
  8
SAPA_PROFIL
 10
24.67677669529531
 20
22.423223304703239
 30
0.0
  0
VERTEX
  5
1CD1
  8
SAPA_PROFIL
 10
24.964107602123249
 20
22.71055421153142
 30
0.0
 42
-0.553524574324932
  0
VERTEX
  5
1CD2
  8
SAPA_PROFIL
 10
26.736626924633129
 20
18.400000000000091
 30
0.0
  0
VERTEX
  5
1CD3
  8
SAPA_PROFIL
 10
26.39999999999873
 20
18.400000000000091
 30
0.0
 42
0.4142135623730951
  0
VERTEX
  5
1CD4
  8
SAPA_PROFIL
 10
26.099999999998769
 20
18.099999999999909
 30
0.0
  0
VERTEX
  5
1CD5
  8
SAPA_PROFIL
 10
26.099999999998769
 20
17.599999999999909
 30
0.0
 42
0.4142135623730951
  0
VERTEX
  5
1CD6
  8
SAPA_PROFIL
 10
26.39999999999873
 20
17.299999999999951
 30
0.0
  0
VERTEX
  5
1CD7
  8
SAPA_PROFIL
 10
28.699999999998681
 20
17.299999999999951
 30
0.0
 42
0.4142135623730951
  0
VERTEX
  5
1CD8
  8
SAPA_PROFIL
 10
28.999999999998629
 20
17.599999999999909
 30
0.0
  0
VERTEX
  5
1CD9
  8
SAPA_PROFIL
 10
28.999999999998629
 20
22.0
 30
0.0
 42
-0.4142135623730951
  0
VERTEX
  5
1CDA
  8
SAPA_PROFIL
 10
29.999999999998639
 20
23.0
 30
0.0
  0
VERTEX
  5
1CDB
  8
SAPA_PROFIL
 10
54.699999999998681
 20
23.0
 30
0.0
 42
-0.4142135623730951
  0
VERTEX
  5
1CDC
  8
SAPA_PROFIL
 10
54.999999999998643
 20
22.700000000000038
 30
0.0
  0
VERTEX
  5
1CDD
  8
SAPA_PROFIL
 10
54.999999999998643
 20
21.400000000000091
 30
0.0
 42
0.4142135623730951
  0
VERTEX
  5
1CDE
  8
SAPA_PROFIL
 10
55.299999999998818
 20
21.099999999999909
 30
0.0
  0
VERTEX
  5
1CDF
  8
SAPA_PROFIL
 10
55.875735931286727
 20
21.099999999999909
 30
0.0
 42
0.1989123673796752
  0
VERTEX
  5
1CE0
  8
SAPA_PROFIL
 10
56.087867965642772
 20
21.187867965644049
 30
0.0
  0
VERTEX
  5
1CE1
  8
SAPA_PROFIL
 10
57.812132034354811
 20
22.912132034356091
 30
0.0
 42
-0.1989123673796057
  0
VERTEX
  5
1CE2
  8
SAPA_PROFIL
 10
58.024264068710629
 20
23.0
 30
0.0
  0
VERTEX
  5
1CE3
  8
SAPA_PROFIL
 10
61.499999999998629
 20
23.0
 30
0.0
 42
-0.4142135623730951
  0
VERTEX
  5
1CE4
  8
SAPA_PROFIL
 10
62.499999999998643
 20
22.0
 30
0.0
  0
VERTEX
  5
1CE5
  8
SAPA_PROFIL
 10
62.499999999998643
 20
-22.0
 30
0.0
 42
-0.4142135623730951
  0
VERTEX
  5
1CE6
  8
SAPA_PROFIL
 10
61.499999999998629
 20
-23.0
 30
0.0
  0
SEQEND
  5
1CE7
  8
SAPA_PROFIL
  0
POLYLINE
  5
1348
  8
SAPA_PROFIL
 66
     1
 10
0.0
 20
0.0
 30
0.0
 70
     1
  0
VERTEX
  5
1CE8
  8
SAPA_PROFIL
 10
-30.000000000001371
 20
-6.0
 30
0.0
 42
0.4142135623730951
  0
VERTEX
  5
1CE9
  8
SAPA_PROFIL
 10
-31.000000000001361
 20
-5.0
 30
0.0
  0
VERTEX
  5
1CEA
  8
SAPA_PROFIL
 10
-52.200000000001182
 20
-5.0
 30
0.0
 42
-0.4142135623730951
  0
VERTEX
  5
1CEB
  8
SAPA_PROFIL
 10
-52.500000000001357
 20
-4.7000000000000446
 30
0.0
  0
VERTEX
  5
1CEC
  8
SAPA_PROFIL
 10
-52.500000000001357
 20
-3.0757360000000058
 30
0.0
  0
VERTEX
  5
1CED
  8
SAPA_PROFIL
 10
-51.562132034357091
 20
-2.237867965643999
 30
0.0
 42
-0.668178637919305
  0
VERTEX
  5
1CEE
  8
SAPA_PROFIL
 10
-51.050000000001312
 20
-2.450000000000045
 30
0.0
  0
VERTEX
  5
1CEF
  8
SAPA_PROFIL
 10
-51.050000000001312
 20
-2.700000000000045
 30
0.0
  0
VERTEX
  5
1CF0
  8
SAPA_PROFIL
 10
-49.673765406424991
 20
-2.176719696698
 30
0.0
 42
-0.5450207798987201
  0
VERTEX
  5
1CF1
  8
SAPA_PROFIL
 10
-49.250000000001357
 20
-2.450000000000045
 30
0.0
  0
VERTEX
  5
1CF2
  8
SAPA_PROFIL
 10
-49.250000000001357
 20
-2.700000000000045
 30
0.0
  0
VERTEX
  5
1CF3
  8
SAPA_PROFIL
 10
-47.873765406424809
 20
-2.176719696698
 30
0.0
 42
-0.5450207798987201
  0
VERTEX
  5
1CF4
  8
SAPA_PROFIL
 10
-47.450000000001182
 20
-2.450000000000045
 30
0.0
  0
VERTEX
  5
1CF5
  8
SAPA_PROFIL
 10
-47.450000000001182
 20
-2.700000000000045
 30
0.0
  0
VERTEX
  5
1CF6
  8
SAPA_PROFIL
 10
-46.073765406424847
 20
-2.176719696698
 30
0.0
 42
-0.5450207798987342
  0
VERTEX
  5
1CF7
  8
SAPA_PROFIL
 10
-45.650000000001221
 20
-2.450000000000045
 30
0.0
  0
VERTEX
  5
1CF8
  8
SAPA_PROFIL
 10
-45.650000000001221
 20
-2.700000000000045
 30
0.0
  0
VERTEX
  5
1CF9
  8
SAPA_PROFIL
 10
-44.2737654064249
 20
-2.176719696698
 30
0.0
 42
-0.5450207798987201
  0
VERTEX
  5
1CFA
  8
SAPA_PROFIL
 10
-43.850000000001273
 20
-2.450000000000045
 30
0.0
  0
VERTEX
  5
1CFB
  8
SAPA_PROFIL
 10
-43.850000000001273
 20
-2.700000000000045
 30
0.0
  0
VERTEX
  5
1CFC
  8
SAPA_PROFIL
 10
-43.126282705195081
 20
-2.4722372826158781
 30
0.0
 42
0.2945484962563026
  0
VERTEX
  5
1CFD
  8
SAPA_PROFIL
 10
-42.950048040246877
 20
-2.1988824689376538
 30
0.0
  0
VERTEX
  5
1CFE
  8
SAPA_PROFIL
 10
-42.950255222213393
 20
-1.264299937748091
 30
0.0
 42
-0.3475954753796591
  0
VERTEX
  5
1CFF
  8
SAPA_PROFIL
 10
-42.719501178044311
 20
-0.9723265106781582
 30
0.0
 42
0.790522909611319
  0
VERTEX
  5
1D00
  8
SAPA_PROFIL
 10
-42.71949097360379
 20
0.9736640898654513
 30
0.0
 42
-0.3476065658631364
  0
VERTEX
  5
1D01
  8
SAPA_PROFIL
 10
-42.950241952336
 20
1.265651810886993
 30
0.0
  0
VERTEX
  5
1D02
  8
SAPA_PROFIL
 10
-42.950095231627067
 20
1.8499926620934271
 30
0.0
 42
0.4102317530969976
  0
VERTEX
  5
1D03
  8
SAPA_PROFIL
 10
-43.245946879780597
 20
2.1500282985857662
 30
0.0
 42
-0.0712587206050384
  0
VERTEX
  5
1D04
  8
SAPA_PROFIL
 10
-43.329990804708807
 20
2.1632556124552589
 30
0.0
  0
VERTEX
  5
1D05
  8
SAPA_PROFIL
 10
-44.750000000001357
 20
2.700000000000045
 30
0.0
  0
VERTEX
  5
1D06
  8
SAPA_PROFIL
 10
-44.750000000001357
 20
2.450000000000045
 30
0.0
 42
-0.5450200690651619
  0
VERTEX
  5
1D07
  8
SAPA_PROFIL
 10
-45.17376500000136
 20
2.1767190000000478
 30
0.0
  0
VERTEX
  5
1D08
  8
SAPA_PROFIL
 10
-46.550000000001312
 20
2.700000000000045
 30
0.0
  0
VERTEX
  5
1D09
  8
SAPA_PROFIL
 10
-46.550000000001091
 20
2.450000000000045
 30
0.0
 42
-0.545020069065176
  0
VERTEX
  5
1D0A
  8
SAPA_PROFIL
 10
-46.973765000001322
 20
2.1767190000000478
 30
0.0
  0
VERTEX
  5
1D0B
  8
SAPA_PROFIL
 10
-48.350000000001273
 20
2.700000000000045
 30
0.0
  0
VERTEX
  5
1D0C
  8
SAPA_PROFIL
 10
-48.350000000001273
 20
2.450000000000045
 30
0.0
 42
-0.5450200690651692
  0
VERTEX
  5
1D0D
  8
SAPA_PROFIL
 10
-48.773765000001283
 20
2.1767190000000478
 30
0.0
  0
VERTEX
  5
1D0E
  8
SAPA_PROFIL
 10
-50.150000000001228
 20
2.700000000000045
 30
0.0
  0
VERTEX
  5
1D0F
  8
SAPA_PROFIL
 10
-50.150000000001228
 20
2.1500000000000901
 30
0.0
  0
VERTEX
  5
1D10
  8
SAPA_PROFIL
 10
-51.350000000001273
 20
2.1500000000000901
 30
0.0
 42
-0.1989123673797004
  0
VERTEX
  5
1D11
  8
SAPA_PROFIL
 10
-51.562132000001377
 20
2.237867999999934
 30
0.0
  0
VERTEX
  5
1D12
  8
SAPA_PROFIL
 10
-52.500000000001357
 20
3.0757360000000058
 30
0.0
  0
VERTEX
  5
1D13
  8
SAPA_PROFIL
 10
-52.500000000001357
 20
4.7000000000000446
 30
0.0
 42
-0.4142135623730951
  0
VERTEX
  5
1D14
  8
SAPA_PROFIL
 10
-52.200000000001182
 20
5.0
 30
0.0
  0
VERTEX
  5
1D15
  8
SAPA_PROFIL
 10
-31.000000000001361
 20
5.0
 30
0.0
 42
0.4142135623730951
  0
VERTEX
  5
1D16
  8
SAPA_PROFIL
 10
-30.000000000001371
 20
6.0
 30
0.0
  0
VERTEX
  5
1D17
  8
SAPA_PROFIL
 10
-30.000000000001371
 20
14.20000000000004
 30
0.0
 42
0.4142135623730951
  0
VERTEX
  5
1D18
  8
SAPA_PROFIL
 10
-30.500000000001371
 20
14.70000000000004
 30
0.0
  0
VERTEX
  5
1D19
  8
SAPA_PROFIL
 10
-33.700000000001182
 20
14.70000000000004
 30
0.0
 42
0.4142135623730951
  0
VERTEX
  5
1D1A
  8
SAPA_PROFIL
 10
-34.200000000001182
 20
14.20000000000004
 30
0.0
  0
VERTEX
  5
1D1B
  8
SAPA_PROFIL
 10
-34.200000000001182
 20
11.299999999999949
 30
0.0
 42
-0.4142135623730951
  0
VERTEX
  5
1D1C
  8
SAPA_PROFIL
 10
-34.500000000001357
 20
11.0
 30
0.0
  0
VERTEX
  5
1D1D
  8
SAPA_PROFIL
 10
-35.200000000001189
 20
11.0
 30
0.0
 42
-0.4142135623730951
  0
VERTEX
  5
1D1E
  8
SAPA_PROFIL
 10
-35.500000000001371
 20
11.299999999999949
 30
0.0
  0
VERTEX
  5
1D1F
  8
SAPA_PROFIL
 10
-35.500000000001371
 20
18.0
 30
0.0
  0
VERTEX
  5
1D20
  8
SAPA_PROFIL
 10
-35.035076580642233
 20
18.586384015500698
 30
0.0
 42
-0.7105995019814511
  0
VERTEX
  5
1D21
  8
SAPA_PROFIL
 10
-34.500000000001357
 20
18.400000000000091
 30
0.0
  0
VERTEX
  5
1D22
  8
SAPA_PROFIL
 10
-34.500000000001357
 20
16.5
 30
0.0
 42
0.4142135623730951
  0
VERTEX
  5
1D23
  8
SAPA_PROFIL
 10
-34.200000000001182
 20
16.200000000000038
 30
0.0
  0
VERTEX
  5
1D24
  8
SAPA_PROFIL
 10
-30.300000000001319
 20
16.200000000000038
 30
0.0
 42
0.4142135623730951
  0
VERTEX
  5
1D25
  8
SAPA_PROFIL
 10
-30.000000000001371
 20
16.5
 30
0.0
  0
VERTEX
  5
1D26
  8
SAPA_PROFIL
 10
-30.000000000001371
 20
23.200000000000049
 30
0.0
 42
0.4142135623730951
  0
VERTEX
  5
1D27
  8
SAPA_PROFIL
 10
-30.300000000001319
 20
23.5
 30
0.0
  0
VERTEX
  5
1D28
  8
SAPA_PROFIL
 10
-34.200000000001182
 20
23.5
 30
0.0
 42
0.4142135623730951
  0
VERTEX
  5
1D29
  8
SAPA_PROFIL
 10
-34.500000000001357
 20
23.200000000000049
 30
0.0
  0
VERTEX
  5
1D2A
  8
SAPA_PROFIL
 10
-34.500000000001357
 20
22.0
 30
0.0
 42
-0.7105990647993611
  0
VERTEX
  5
1D2B
  8
SAPA_PROFIL
 10
-35.035076000001247
 20
21.813615999999911
 30
0.0
  0
VERTEX
  5
1D2C
  8
SAPA_PROFIL
 10
-35.500000000001371
 20
22.400000000000091
 30
0.0
  0
VERTEX
  5
1D2D
  8
SAPA_PROFIL
 10
-35.500000000001371
 20
24.700000000000049
 30
0.0
 42
-0.4142135623730951
  0
VERTEX
  5
1D2E
  8
SAPA_PROFIL
 10
-35.200000000001189
 20
25.0
 30
0.0
  0
VERTEX
  5
1D2F
  8
SAPA_PROFIL
 10
63.999999999998629
 20
25.0
 30
0.0
 42
-0.4142135623730951
  0
VERTEX
  5
1D30
  8
SAPA_PROFIL
 10
64.499999999998636
 20
24.5
 30
0.0
  0
VERTEX
  5
1D31
  8
SAPA_PROFIL
 10
64.499999999998636
 20
-24.5
 30
0.0
 42
-0.4142135623730951
  0
VERTEX
  5
1D32
  8
SAPA_PROFIL
 10
63.999999999998629
 20
-25.0
 30
0.0
  0
VERTEX
  5
1D33
  8
SAPA_PROFIL
 10
-35.200000000001189
 20
-25.0
 30
0.0
 42
-0.4142135623730951
  0
VERTEX
  5
1D34
  8
SAPA_PROFIL
 10
-35.500000000001371
 20
-24.700000000000049
 30
0.0
  0
VERTEX
  5
1D35
  8
SAPA_PROFIL
 10
-35.500000000001371
 20
-22.400000000000091
 30
0.0
  0
VERTEX
  5
1D36
  8
SAPA_PROFIL
 10
-35.035076580642233
 20
-21.813615984499389
 30
0.0
 42
-0.7105995019814511
  0
VERTEX
  5
1D37
  8
SAPA_PROFIL
 10
-34.500000000001357
 20
-22.0
 30
0.0
  0
VERTEX
  5
1D38
  8
SAPA_PROFIL
 10
-34.500000000001357
 20
-23.200000000000049
 30
0.0
 42
0.4142135623730951
  0
VERTEX
  5
1D39
  8
SAPA_PROFIL
 10
-34.200000000001182
 20
-23.5
 30
0.0
  0
VERTEX
  5
1D3A
  8
SAPA_PROFIL
 10
-30.300000000001319
 20
-23.5
 30
0.0
 42
0.4142135623730951
  0
VERTEX
  5
1D3B
  8
SAPA_PROFIL
 10
-30.000000000001371
 20
-23.200000000000049
 30
0.0
  0
VERTEX
  5
1D3C
  8
SAPA_PROFIL
 10
-30.000000000001371
 20
-16.5
 30
0.0
 42
0.4142135623730951
  0
VERTEX
  5
1D3D
  8
SAPA_PROFIL
 10
-30.300000000001319
 20
-16.200000000000038
 30
0.0
  0
VERTEX
  5
1D3E
  8
SAPA_PROFIL
 10
-34.200000000001182
 20
-16.200000000000038
 30
0.0
 42
0.4142135623730951
  0
VERTEX
  5
1D3F
  8
SAPA_PROFIL
 10
-34.500000000001357
 20
-16.5
 30
0.0
  0
VERTEX
  5
1D40
  8
SAPA_PROFIL
 10
-34.500000000001357
 20
-18.400000000000091
 30
0.0
 42
-0.7105995019814511
  0
VERTEX
  5
1D41
  8
SAPA_PROFIL
 10
-35.035076580642233
 20
-18.586384015500698
 30
0.0
  0
VERTEX
  5
1D42
  8
SAPA_PROFIL
 10
-35.500000000001371
 20
-18.0
 30
0.0
  0
VERTEX
  5
1D43
  8
SAPA_PROFIL
 10
-35.500000000001371
 20
-11.299999999999949
 30
0.0
 42
-0.4142135623730951
  0
VERTEX
  5
1D44
  8
SAPA_PROFIL
 10
-35.200000000001189
 20
-11.0
 30
0.0
  0
VERTEX
  5
1D45
  8
SAPA_PROFIL
 10
-34.500000000001357
 20
-11.0
 30
0.0
 42
-0.4142135623730951
  0
VERTEX
  5
1D46
  8
SAPA_PROFIL
 10
-34.200000000001182
 20
-11.299999999999949
 30
0.0
  0
VERTEX
  5
1D47
  8
SAPA_PROFIL
 10
-34.200000000001182
 20
-14.20000000000004
 30
0.0
 42
0.4142135623730951
  0
VERTEX
  5
1D48
  8
SAPA_PROFIL
 10
-33.700000000001182
 20
-14.70000000000004
 30
0.0
  0
VERTEX
  5
1D49
  8
SAPA_PROFIL
 10
-30.500000000001371
 20
-14.70000000000004
 30
0.0
 42
0.4142135623730951
  0
VERTEX
  5
1D4A
  8
SAPA_PROFIL
 10
-30.000000000001371
 20
-14.20000000000004
 30
0.0
  0
SEQEND
  5
1D4B
  8
SAPA_PROFIL
  0
POLYLINE
  5
1376
  8
SAPA_GLAS
 66
     1
 10
0.0
 20
0.0
 30
0.0
  0
VERTEX
  5
1D56
  8
SAPA_GLAS
 10
-82.500000000001023
 20
75.585729413463525
 30
0.0
  0
VERTEX
  5
1D57
  8
SAPA_GLAS
 10
-82.500000000001492
 20
11.06410307836228
 30
0.0
  0
VERTEX
  5
1D58
  8
SAPA_GLAS
 10
-90.500000000001492
 20
11.06410307836229
 30
0.0
  0
VERTEX
  5
1D59
  8
SAPA_GLAS
 10
-90.500000000001478
 20
75.585729413463525
 30
0.0
  0
SEQEND
  5
1D5A
  8
SAPA_GLAS
  0
LINE
  5
1377
  8
SAPA_GLAS
 10
89.449999922547136
 20
-67.999999999986755
 30
0.0
 11
101.44999992254709
 21
-67.999999999986755
 31
0.0
  0
POLYLINE
  5
1378
  8
SAPA_GLAS
 66
     1
 10
0.0
 20
0.0
 30
0.0
  0
VERTEX
  5
1D5B
  8
SAPA_GLAS
 10
107.44999992254709
 20
-87.999999999986755
 30
0.0
  0
VERTEX
  5
1D5C
  8
SAPA_GLAS
 10
107.44999992254709
 20
-57.999999999986748
 30
0.0
  0
VERTEX
  5
1D5D
  8
SAPA_GLAS
 10
83.449999922547136
 20
-57.999999999986748
 30
0.0
  0
VERTEX
  5
1D5E
  8
SAPA_GLAS
 10
83.449999922547136
 20
-87.999999999986755
 30
0.0
  0
SEQEND
  5
1D5F
  8
SAPA_GLAS
  0
LINE
  5
1379
  8
SAPA_GLAS
 10
101.44999992254709
 20
-87.999999999986755
 30
0.0
 11
101.44999992254709
 21
-57.999999999986748
 31
0.0
  0
LINE
  5
137A
  8
SAPA_GLAS
 10
89.449999922547136
 20
-87.999999999986755
 30
0.0
 11
89.449999922547136
 21
-57.999999999986748
 31
0.0
  0
POLYLINE
  5
1382
  8
SAPA_FYLLNING
 66
     1
 10
0.0
 20
0.0
 30
0.0
  0
VERTEX
  5
1D6A
  8
SAPA_FYLLNING
 10
-35.500000000001009
 20
75.522594355138096
 30
0.0
  0
VERTEX
  5
1D6B
  8
SAPA_FYLLNING
 10
-35.500000000001023
 20
14.035114272656701
 30
0.0
  0
VERTEX
  5
1D6C
  8
SAPA_FYLLNING
 10
-43.500000000001023
 20
14.035114272656701
 30
0.0
  0
VERTEX
  5
1D6D
  8
SAPA_FYLLNING
 10
-43.500000000001002
 20
75.522594355138096
 30
0.0
  0
SEQEND
  5
1D6E
  8
SAPA_FYLLNING
  0
LINE
  5
1383
  8
SAPA_FYLLNING
 10
52.49999999999887
 20
25.999999999999961
 30
0.0
 11
52.49999999999882
 21
74.999999999999957
 31
0.0
  0
POLYLINE
  5
1384
  8
SAPA_FYLLNING
 66
     1
 10
0.0
 20
0.0
 30
0.0
  0
VERTEX
  5
1D6F
  8
SAPA_FYLLNING
 10
50.99999999999882
 20
74.999999999999957
 30
0.0
  0
VERTEX
  5
1D70
  8
SAPA_FYLLNING
 10
50.999999999998813
 20
25.999999999999961
 30
0.0
  0
VERTEX
  5
1D71
  8
SAPA_FYLLNING
 10
62.49999999999887
 20
25.999999999999961
 30
0.0
  0
VERTEX
  5
1D72
  8
SAPA_FYLLNING
 10
62.499999999998877
 20
74.999999999999957
 30
0.0
  0
SEQEND
  5
1D73
  8
SAPA_FYLLNING
  0
INSERT
  5
1395
  8
SAPA_ISOLATOR
  6
CONTINUOUS
  2
*X94
 10
0.0
 20
0.0
 30
0.0
1001
ACAD
1000
HATCH
1002
{
1070
    19
1000
ANSI31
1040
0.35
1040
5.4977871437821371
1000
R14_HATCH_DATA
1000
1395
1011
1.0
1021
0.0
1031
0.0
1021
0.0
1031
0.0
1011
0.0
1021
0.0
1031
0.0
1021
1.0
1031
0.0
1011
0.0
1021
0.0
1031
0.0
1021
0.0
1031
1.0
1040
0.0
1010
0.0
1020
0.0
1030
1.0
1000
ANSI31
1070
     0
1070
     0
1071
        1
1071
        1
1071
       49
1070
     2
1040
99.536257502559096
1040
-50.128163190639839
1040
0.3006817060114675
1040
-1.565737906380728
1040
-0.3498199254894487
1070
     0
1070
     1
1040
99.818728254098914
1040
-50.025110957017773
1040
100.70420596697009
1040
-52.457940978561801
1070
     2
1040
101.08008301528621
1040
-52.32113292122898
1040
0.400000000002539
1040
3.490658503993135
1040
4.7123889803853389
1070
     1
1070
     1
1040
101.0800830152865
1040
-52.721132921231508
1040
111.5000000000006
1040
-52.721132921231479
1070
     1
1040
111.5000000000006
1040
-52.721132921231479
1040
121.9199169847187
1040
-52.72113292123143
1070
     2
1040
121.91991698471701
1040
-52.321132921231779
1040
0.3999999999996488
1040
4.7123889803890684
1040
5.9341194567812998
1070
     1
1070
     1
1040
122.2957940330311
1040
-52.457940978561723
1040
123.18127174589929
1040
-50.025110957026023
1070
     2
1040
123.4636343180467
1040
-50.128009399969763
1040
0.3005273892841634
1040
3.4910552070390422
1040
4.7076879318700922
1070
     0
1070
     2
1040
123.6918102929849
1040
-55.388128406494687
1040
5.5653807064749881
1040
4.6711242502471872
1040
4.7342885622872561
1070
     0
1070
     1
1040
123.81368006175229
1040
-49.824082201846068
1040
124.05386312653459
1040
-49.685412444739541
1070
     2
1040
124.1588631265343
1040
-49.86727777953444
1040
0.2100000000000017
1040
4.188790204787975
1040
6.2831853071790738
1070
     0
1070
     1
1040
124.36886312653429
1040
-49.867277779534341
1040
124.36886312653439
1040
-50.134392307747248
1070
     1
1040
124.36886312653439
1040
-50.134392307747248
1040
124.7000000000006
1040
-50.330614373531553
1070
     1
1040
124.7000000000006
1040
-50.330614373531553
1040
125.6833201379811
1040
-50.898258537029001
1070
     2
1040
125.7883201379794
1040
-50.716393202235452
1040
0.209999999998109
1040
4.1887902047907017
1040
4.7123889803873276
1070
     1
1070
     1
1040
125.78832013797989
1040
-50.926393202233562
1040
126.1000000000025
1040
-50.926393202233669
1070
     2
1040
126.1000000000044
1040
-50.526393202237543
1040
0.3999999999961332
1040
4.7123889803799113
1040
6.2831853071900472
1070
     1
1070
     1
1040
126.5000000000005
1040
-50.526393202233351
1040
126.5000000000006
1040
-47.126393202233601
1070
     2
1040
126.1000000000035
1040
-47.126393202230688
1040
0.3999999999970676
1040
6.2831853071723121
1040
7.8539816339818991
1070
     1
1070
     1
1040
126.10000000000061
1040
-46.726393202233631
1040
125.7883201379769
1040
-46.726393202233631
1070
     2
1040
125.7883201379786
1040
-46.936393202228579
1040
0.2099999999949489
1040
1.5707963268027789
1040
2.0943951023994072
1070
     1
1070
     1
1040
125.68332013798
1040
-46.754527867438867
1040
124.7000000000006
1040
-47.322248013800902
1070
     1
1040
124.7000000000006
1040
-47.322248013800902
1040
124.10525588832969
1040
-47.665623686773017
1070
     2
1040
123.5052558883236
1040
-46.62639320222263
1040
1.2000000000109059
1040
1.0471975511959639
1040
1.570796326792617
1070
     0
1070
     1
1040
123.5052558883263
1040
-47.82639320223354
1040
122.5533915554399
1040
-47.826393202233312
1070
     2
1040
122.5533915554489
1040
-48.82639320222556
1040
0.9999999999922533
1040
1.570796326803906
1040
2.7925268031964121
1070
     1
1070
     1
1040
121.61369893466841
1040
-48.4843730589077
1040
120.8225849097585
1040
-50.657940978561392
1070
     2
1040
120.4467078614431
1040
-50.521132921230119
1040
0.4000000000013905
1040
0.3490658504002768
1040
1.5707963267925069
1070
     0
1070
     1
1040
120.446707861444
1040
-50.921132921231511
1040
111.5000000000006
1040
-50.921132921231511
1070
     1
1040
111.5000000000006
1040
-50.921132921231496
1040
102.5532921385571
1040
-50.92113292123156
1070
     2
1040
102.5532921385561
1040
-50.521132921232983
1040
0.3999999999985775
1040
1.5707963267924121
1040
2.7925268031846149
1070
     0
1070
     1
1040
102.177415090244
1040
-50.657940978565136
1040
101.3863010653329
1040
-48.48437305890792
1070
     2
1040
100.4466084445377
1040
-48.826393202246791
1040
1.000000000013211
1040
6.632251157587703
1040
7.853981633979922
1070
     1
1070
     1
1040
100.4466084445323
1040
-47.826393202233589
1040
99.494744111674791
1040
-47.826393202233589
1070
     2
1040
99.494744111671778
1040
-46.626393202244557
1040
1.1999999999890261
1040
1.570796326792401
1040
2.0943951023890519
1070
     0
1070
     1
1040
98.894744111681575
1040
-47.665623686778872
1040
98.307179676973078
1040
-47.326393202233639
1070
     1
1040
98.307179676973078
1040
-47.326393202233639
1040
97.316679862021147
1040
-46.754527867438917
1070
     2
1040
97.211679862019466
1040
-46.936393202240069
1040
0.2100000000063851
1040
7.3303828583845627
1040
7.8539816339812401
1070
     1
1070
     1
1040
97.211679862018045
1040
-46.72639320223368
1040
96.900000000000546
1040
-46.726393202233623
1070
     2
1040
96.900000000003516
1040
-47.126393202236571
1040
0.40000000000295
1040
1.5707963268023279
1040
3.141592653592308
1070
     1
1070
     1
1040
96.500000000000568
1040
-47.126393202237573
1040
96.500000000000568
1040
-50.526393202233628
1070
     2
1040
96.900000000002549
1040
-50.526393202231631
1040
0.4000000000019782
1040
3.1415926535947949
1040
4.7123889803848034
1070
     1
1070
     1
1040
96.900000000002606
1040
-50.926393202233612
1040
97.211679862021256
1040
-50.926393202233612
1070
     2
1040
97.211679862020773
1040
-50.716393202231693
1040
0.2100000000019078
1040
4.7123889803869412
1040
5.2359877559835688
1070
     1
1070
     1
1040
97.316679862021815
1040
-50.89825853702802
1040
98.631136873466815
1040
-50.134392307747248
1070
     1
1040
98.631136873466815
1040
-50.134392307747248
1040
98.631136873466943
1040
-49.867277779534326
1070
     2
1040
98.841136873466965
1040
-49.86727777953444
1040
0.2100000000000017
1040
3.1415926535902998
1040
5.235987755981399
1070
     0
1070
     1
1040
98.946136873466656
1040
-49.685412444739541
1040
99.186319938248957
1040
-49.824082201846061
1070
     2
1040
99.308189707019352
1040
-55.388128405937188
1040
5.5653807059176952
1040
4.6904893984793761
1040
4.7536537105194441
1070
     0
1071
        0
1070
     0
1070
     1
1040
5.4977871437821371
1040
0.35
1070
     0
1070
     1
1040
0.0
1040
0.0
1040
0.0
1040
0.0000000000000003
1040
1.111249999999999
1070
     0
1071
        1
1040
96.499999849184803
1040
-52.7211331142517
1040
0.0
1002
}
  0
INSERT
  5
1396
  8
SAPA_ISOLATOR
  6
CONTINUOUS
  2
*X95
 10
0.0
 20
0.0
 30
0.0
1001
ACAD
1000
HATCH
1002
{
1070
    19
1000
ANSI31
1040
0.35
1040
3.926990816987241
1000
R14_HATCH_DATA
1000
1396
1011
1.0
1021
0.0
1031
0.0
1021
0.0
1031
0.0
1011
0.0
1021
0.0
1031
0.0
1021
1.0
1031
0.0
1011
0.0
1021
0.0
1031
0.0
1021
0.0
1031
1.0
1040
0.0
1010
0.0
1020
0.0
1030
1.0
1000
ANSI31
1070
     0
1070
     0
1071
        1
1071
        1
1071
       49
1070
     2
1040
103.30399500347841
1040
-17.098562056682759
1040
4.8787750972680151
1040
7.8148739203742901
1040
7.878103770317618
1070
     0
1070
     1
1040
103.18631993824739
1040
-21.97591779814201
1040
102.94613687346509
1040
-22.11458755524853
1070
     2
1040
102.8411368734654
1040
-21.932722220453631
1040
0.2100000000000011
1040
7.330382858377769
1040
9.4247779607688731
1070
     0
1070
     1
1040
102.63113687346539
1040
-21.932722220453741
1040
102.6332864004291
1040
-21.661884602327351
1070
     1
1040
102.6332864004291
1040
-21.661884602327351
1040
101.3375644347017
1040
-20.913799176619762
1070
     2
1040
101.18756443470021
1040
-21.173606797757341
1040
0.3000000000027061
1040
1.047197551195945
1040
1.5707963267927769
1070
     1
1070
     1
1040
101.1875644347008
1040
-20.873606797754629
1040
100.900000000001
1040
-20.873606797754629
1070
     2
1040
100.900000000001
1040
-21.273606797756589
1040
0.400000000001961
1040
1.5707963267948819
1040
3.1415926535848331
1070
     1
1070
     1
1040
100.49999999999901
1040
-21.27360679775461
1040
100.49999999999901
1040
-24.673606797750669
1070
     2
1040
100.900000000002
1040
-24.673606797751631
1040
0.4000000000029332
1040
3.1415926535873768
1040
4.7123889803774421
1070
     1
1070
     1
1040
100.8999999999991
1040
-25.073606797754572
1040
101.1875644346965
1040
-25.073606797754621
1070
     2
1040
101.1875644346982
1040
-24.773606797745519
1040
0.3000000000091028
1040
4.712388980378857
1040
5.2359877559752741
1070
     1
1070
     1
1040
101.33756443470079
1040
-25.03341441888989
1040
102.89474411168
1040
-24.134376313209319
1070
     2
1040
103.4947441116703
1040
-25.17360679774368
1040
1.199999999989082
1040
4.1887902047905472
1040
4.712388980387173
1070
     0
1070
     1
1040
103.4947441116732
1040
-23.973606797754599
1040
104.9056465456208
1040
-23.973606797754599
1070
     2
1040
104.9056465456224
1040
-23.673606797750381
1040
0.3000000000042169
1040
4.7123889803790941
1040
5.8621063461627063
1070
     1
1070
     1
1040
105.1794410810089
1040
-23.79623041861953
1040
106.3559868458433
1040
-21.16923409630903
1070
     2
1040
106.8123110714799
1040
-21.373606797752501
1040
0.4999999999980974
1040
3.5626716146034889
1040
4.7123889803871712
1070
     0
1070
     1
1040
106.8123110714811
1040
-20.873606797754409
1040
116.1874352799434
1040
-20.873606797754409
1070
     2
1040
116.18743527994221
1040
-21.373606797756288
1040
0.5000000000018839
1040
4.7123889803870771
1040
5.8643062866997866
1070
     0
1070
     1
1040
116.64420800876501
1040
-21.170238476217101
1040
117.8131066416652
1040
-23.795627790677258
1070
     2
1040
118.08717027895641
1040
-23.67360679775712
1040
0.2999999999974772
1040
3.5604716740626752
1040
4.7123889803754517
1070
     1
1070
     1
1040
118.08717027895359
1040
-23.973606797754599
1040
119.5052558883248
1040
-23.973606797754599
1070
     2
1040
119.5052558883217
1040
-25.173606797765551
1040
1.2000000000109421
1040
4.7123889803872707
1040
5.2359877559838992
1070
     0
1070
     1
1040
120.1052558883281
1040
-24.134376313215292
1040
120.69999999999909
1040
-24.47775198618729
1070
     1
1040
120.69999999999909
1040
-24.47775198618729
1040
121.6624355652972
1040
-25.033414418889901
1070
     2
1040
121.8124355652954
1040
-24.773606797761879
1040
0.2999999999927472
1040
4.1887902047794929
1040
4.7123889803763293
1070
     1
1070
     1
1040
121.8124355652929
1040
-25.073606797754628
1040
122.0999999999991
1040
-25.073606797754572
1070
     2
1040
122.100000000002
1040
-24.6736067977575
1040
0.3999999999970729
1040
4.7123889803772823
1040
6.2831853071868471
1070
     1
1070
     1
1040
122.4999999999991
1040
-24.673606797754591
1040
122.49999999999901
1040
-21.273606797754621
1070
     2
1040
122.099999999999
1040
-21.273606797754621
1040
0.3999999999999879
1040
0.0000000000000286
1040
1.570796326790038
1070
     1
1070
     1
1040
122.100000000001
1040
-20.87360679775464
1040
121.81243556529731
1040
-20.87360679775464
1070
     2
1040
121.8124355652965
1040
-21.173606797751859
1040
0.2999999999972234
1040
1.570796326792445
1040
2.094395102389274
1070
     1
1070
     1
1040
121.66243556529901
1040
-20.91379917661834
1040
120.69999999999909
1040
-21.469461609321911
1070
     1
1040
120.69999999999909
1040
-21.469461609321911
1040
120.3667135995691
1040
-21.661884602327319
1070
     1
1040
120.3667135995691
1040
-21.661884602327319
1040
120.3688631265328
1040
-21.932722220453741
1070
     2
1040
120.15886312653279
1040
-21.932722220453641
1040
0.2100000000000008
1040
6.2831853071800934
1040
8.3775804095711983
1070
     0
1070
     1
1040
120.0538631265331
1040
-22.114587555248541
1040
119.8136800617508
1040
-21.97591779814201
1070
     2
1040
119.68348785853431
1040
-15.049454366411521
1040
6.9276868925261033
1040
7.8351875011051932
1040
7.8859264908636648
1070
     0
1070
     1
1040
119.46222152941201
1040
-21.973606797754641
1040
119.385985465353
1040
-21.973606797754599
1070
     2
1040
119.38598546535511
1040
-21.67360679775118
1040
0.3000000000034175
1040
1.5707963268021321
1040
2.7227136331150401
1070
     0
1070
     1
1040
119.1119218280588
1040
-21.795627790674249
1040
117.97924135933251
1040
-19.251585804831912
1070
     2
1040
117.70517772204001
1040
-19.373606797754299
1040
0.2999999999996781
1040
0.4188790204778597
1040
1.5707963267906451
1070
     1
1070
     1
1040
117.7051777220412
1040
-19.073606797754621
1040
113.23005594144971
1040
-19.073606797754451
1070
     1
1040
113.23005594144971
1040
-19.073606797754451
1040
105.2948222779597
1040
-19.073606797754511
1070
     2
1040
105.2948222779595
1040
-19.373606797756459
1040
0.3000000000019533
1040
1.5707963267942211
1040
2.7227136331070101
1070
     1
1070
     1
1040
105.02075864066551
1040
-19.251585804831791
1040
103.8880781719356
1040
-21.795627790682321
1070
     2
1040
103.6140145346472
1040
-21.673606797757959
1040
0.2999999999966353
1040
6.7020643276691079
1040
7.8539816339817774
1070
     0
1070
     1
1040
103.61401453464499
1040
-21.973606797754599
1040
103.49474411165561
1040
-21.973606797754599
1071
        0
1070
     0
1070
     1
1040
3.926990816987241
1040
0.35
1070
     0
1070
     1
1040
4.7123889803846888
1040
99.999516966809409
1040
-18.441525233297959
1040
1.111249999999999
1040
-0.0000000000000005
1070
     0
1071
        1
1040
99.999516966809409
1040
-18.441525233297959
1040
0.0
1002
}
  0
POLYLINE
  5
1397
  8
SAPA_ISOLATOR
 66
     1
 10
0.0
 20
0.0
 30
0.0
 70
     1
  0
VERTEX
  5
1E34
  8
SAPA_ISOLATOR
 10
-55.235078053681491
 20
-8.8339473861458373
 30
0.0
 42
0.2133140774071598
  0
VERTEX
  5
1E35
  8
SAPA_ISOLATOR
 10
-53.74491552194354
 20
-9.5000000000003411
 30
0.0
  0
VERTEX
  5
1E36
  8
SAPA_ISOLATOR
 10
-53.573058613284623
 20
-9.5000000000003411
 30
0.0
 42
-0.9999999999999998
  0
VERTEX
  5
1E37
  8
SAPA_ISOLATOR
 10
-53.573058613284623
 20
-10.000000000000339
 30
0.0
  0
VERTEX
  5
1E38
  8
SAPA_ISOLATOR
 10
-54.532183152571172
 20
-10.000000000000339
 30
0.0
 42
-0.2072397715914422
  0
VERTEX
  5
1E39
  8
SAPA_ISOLATOR
 10
-56.35558719549158
 20
-9.2103209337030876
 30
0.0
 42
-0.1421101772925093
  0
VERTEX
  5
1E3A
  8
SAPA_ISOLATOR
 10
-58.499999999010008
 20
-5.0000000000003411
 30
0.0
  0
VERTEX
  5
1E3B
  8
SAPA_ISOLATOR
 10
-56.687834754465023
 20
-5.0000000000003411
 30
0.0
 42
0.1860725815673001
  0
SEQEND
  5
1E3C
  8
SAPA_ISOLATOR
  0
POLYLINE
  5
1398
  8
SAPA_ISOLATOR
 66
     1
 10
0.0
 20
0.0
 30
0.0
 70
     1
  0
VERTEX
  5
1E3D
  8
SAPA_ISOLATOR
 10
-55.235078053681491
 20
8.8339473861453826
 30
0.0
 42
-0.2133140774071598
  0
VERTEX
  5
1E3E
  8
SAPA_ISOLATOR
 10
-53.74491552194354
 20
9.4999999999997726
 30
0.0
  0
VERTEX
  5
1E3F
  8
SAPA_ISOLATOR
 10
-53.573058613284623
 20
9.4999999999997726
 30
0.0
 42
0.9999999999999998
  0
VERTEX
  5
1E40
  8
SAPA_ISOLATOR
 10
-53.573058613284623
 20
9.9999999999997726
 30
0.0
  0
VERTEX
  5
1E41
  8
SAPA_ISOLATOR
 10
-54.532183152571172
 20
9.9999999999997726
 30
0.0
 42
0.2072397715914422
  0
VERTEX
  5
1E42
  8
SAPA_ISOLATOR
 10
-56.35558719549158
 20
9.2103209337025191
 30
0.0
 42
0.1421101772925093
  0
VERTEX
  5
1E43
  8
SAPA_ISOLATOR
 10
-58.499999999010008
 20
4.9999999999997717
 30
0.0
  0
VERTEX
  5
1E44
  8
SAPA_ISOLATOR
 10
-56.687834754465023
 20
4.9999999999997717
 30
0.0
 42
-0.1860725815673001
  0
SEQEND
  5
1E45
  8
SAPA_ISOLATOR
  0
POLYLINE
  5
1399
  8
SAPA_ISOLATOR
 66
     1
 10
0.0
 20
0.0
 30
0.0
 70
     1
  0
VERTEX
  5
1E46
  8
SAPA_ISOLATOR
 10
-70.235078053681491
 20
8.8339473861453826
 30
0.0
 42
-0.2133140774071598
  0
VERTEX
  5
1E47
  8
SAPA_ISOLATOR
 10
-68.74491552194354
 20
9.4999999999997726
 30
0.0
  0
VERTEX
  5
1E48
  8
SAPA_ISOLATOR
 10
-68.573058613284616
 20
9.4999999999997726
 30
0.0
 42
0.9999999999999998
  0
VERTEX
  5
1E49
  8
SAPA_ISOLATOR
 10
-68.573058613284616
 20
9.9999999999997726
 30
0.0
  0
VERTEX
  5
1E4A
  8
SAPA_ISOLATOR
 10
-69.532183152571164
 20
9.9999999999997726
 30
0.0
 42
0.2072397715914422
  0
VERTEX
  5
1E4B
  8
SAPA_ISOLATOR
 10
-71.35558719549158
 20
9.2103209337025191
 30
0.0
 42
0.1421101772925093
  0
VERTEX
  5
1E4C
  8
SAPA_ISOLATOR
 10
-73.499999999010015
 20
4.9999999999997717
 30
0.0
  0
VERTEX
  5
1E4D
  8
SAPA_ISOLATOR
 10
-71.687834754465015
 20
4.9999999999997717
 30
0.0
 42
-0.1860725815673001
  0
SEQEND
  5
1E4E
  8
SAPA_ISOLATOR
  0
POLYLINE
  5
139A
  8
SAPA_ISOLATOR
 66
     1
 10
0.0
 20
0.0
 30
0.0
 70
     1
  0
VERTEX
  5
1E4F
  8
SAPA_ISOLATOR
 10
-84.235078053681036
 20
8.8339473861452689
 30
0.0
 42
-0.2133140774071598
  0
VERTEX
  5
1E50
  8
SAPA_ISOLATOR
 10
-82.744915521943085
 20
9.4999999999997726
 30
0.0
  0
VERTEX
  5
1E51
  8
SAPA_ISOLATOR
 10
-82.573058613284175
 20
9.4999999999997726
 30
0.0
 42
0.9999999999999998
  0
VERTEX
  5
1E52
  8
SAPA_ISOLATOR
 10
-82.573058613284175
 20
9.9999999999997726
 30
0.0
  0
VERTEX
  5
1E53
  8
SAPA_ISOLATOR
 10
-83.532183152570724
 20
9.9999999999997726
 30
0.0
 42
0.2072397715914422
  0
VERTEX
  5
1E54
  8
SAPA_ISOLATOR
 10
-85.355587195491125
 20
9.2103209337025191
 30
0.0
 42
0.1421101772925093
  0
VERTEX
  5
1E55
  8
SAPA_ISOLATOR
 10
-87.499999999009546
 20
4.9999999999997717
 30
0.0
  0
VERTEX
  5
1E56
  8
SAPA_ISOLATOR
 10
-85.687834754464575
 20
4.9999999999997717
 30
0.0
 42
-0.1860725815673001
  0
SEQEND
  5
1E57
  8
SAPA_ISOLATOR
  0
POLYLINE
  5
139B
  8
SAPA_ISOLATOR
 66
     1
 10
0.0
 20
0.0
 30
0.0
 70
     1
  0
VERTEX
  5
1E58
  8
SAPA_ISOLATOR
 10
-70.235078053681491
 20
-8.8339473861458373
 30
0.0
 42
0.2133140774071598
  0
VERTEX
  5
1E59
  8
SAPA_ISOLATOR
 10
-68.74491552194354
 20
-9.5000000000003411
 30
0.0
  0
VERTEX
  5
1E5A
  8
SAPA_ISOLATOR
 10
-68.573058613284616
 20
-9.5000000000003411
 30
0.0
 42
-0.9999999999999998
  0
VERTEX
  5
1E5B
  8
SAPA_ISOLATOR
 10
-68.573058613284616
 20
-10.000000000000339
 30
0.0
  0
VERTEX
  5
1E5C
  8
SAPA_ISOLATOR
 10
-69.532183152571164
 20
-10.000000000000339
 30
0.0
 42
-0.2072397715914422
  0
VERTEX
  5
1E5D
  8
SAPA_ISOLATOR
 10
-71.35558719549158
 20
-9.2103209337030876
 30
0.0
 42
-0.1421101772925093
  0
VERTEX
  5
1E5E
  8
SAPA_ISOLATOR
 10
-73.499999999010015
 20
-5.0000000000003411
 30
0.0
  0
VERTEX
  5
1E5F
  8
SAPA_ISOLATOR
 10
-71.687834754465015
 20
-5.0000000000003411
 30
0.0
 42
0.1860725815673001
  0
SEQEND
  5
1E60
  8
SAPA_ISOLATOR
  0
POLYLINE
  5
139C
  8
SAPA_ISOLATOR
 66
     1
 10
0.0
 20
0.0
 30
0.0
 70
     1
  0
VERTEX
  5
1E61
  8
SAPA_ISOLATOR
 10
-84.235078053681036
 20
-8.8339473861458373
 30
0.0
 42
0.2133140774071598
  0
VERTEX
  5
1E62
  8
SAPA_ISOLATOR
 10
-82.744915521943085
 20
-9.5000000000002274
 30
0.0
  0
VERTEX
  5
1E63
  8
SAPA_ISOLATOR
 10
-82.573058613284175
 20
-9.5000000000002274
 30
0.0
 42
-0.9999999999999998
  0
VERTEX
  5
1E64
  8
SAPA_ISOLATOR
 10
-82.573058613284175
 20
-10.000000000000229
 30
0.0
  0
VERTEX
  5
1E65
  8
SAPA_ISOLATOR
 10
-83.532183152570724
 20
-10.000000000000229
 30
0.0
 42
-0.2072397715914422
  0
VERTEX
  5
1E66
  8
SAPA_ISOLATOR
 10
-85.355587195491125
 20
-9.2103209337029721
 30
0.0
 42
-0.1421101772925093
  0
VERTEX
  5
1E67
  8
SAPA_ISOLATOR
 10
-87.499999999009546
 20
-5.0000000000002274
 30
0.0
  0
VERTEX
  5
1E68
  8
SAPA_ISOLATOR
 10
-85.687834754464575
 20
-5.0000000000002274
 30
0.0
 42
0.1860725815673001
  0
SEQEND
  5
1E69
  8
SAPA_ISOLATOR
  0
POLYLINE
  5
139D
  8
SAPA_ISOLATOR
 66
     1
 10
0.0
 20
0.0
 30
0.0
 70
     1
  0
VERTEX
  5
1E6A
  8
SAPA_ISOLATOR
 10
-52.999999999009901
 20
4.9999999999997717
 30
0.0
 42
-0.4142135623730951
  0
VERTEX
  5
1E6B
  8
SAPA_ISOLATOR
 10
-52.499999999010008
 20
4.4999999999996581
 30
0.0
  0
VERTEX
  5
1E6C
  8
SAPA_ISOLATOR
 10
-52.499999999009901
 20
3.2742640687116591
 30
0.0
 42
0.1989123673796232
  0
VERTEX
  5
1E6D
  8
SAPA_ISOLATOR
 10
-52.412132033365879
 20
3.0621320343557268
 30
0.0
  0
VERTEX
  5
1E6E
  8
SAPA_ISOLATOR
 10
-51.737867964654008
 20
2.3878679656438631
 30
0.0
 42
0.198912367379658
  0
VERTEX
  5
1E6F
  8
SAPA_ISOLATOR
 10
-51.525735930297969
 20
2.29999999999984
 30
0.0
  0
VERTEX
  5
1E70
  8
SAPA_ISOLATOR
 10
-47.094967040794579
 20
2.29999999999984
 30
0.0
 42
-0.0912836897734216
  0
VERTEX
  5
1E71
  8
SAPA_ISOLATOR
 10
-44.975410007192629
 20
1.081358332189893
 30
0.0
 42
-0.4396415083054796
  0
VERTEX
  5
1E72
  8
SAPA_ISOLATOR
 10
-44.975410007192522
 20
-1.081358332190234
 30
0.0
 42
-0.0912836897734207
  0
VERTEX
  5
1E73
  8
SAPA_ISOLATOR
 10
-47.094967040794579
 20
-2.300000000000181
 30
0.0
  0
VERTEX
  5
1E74
  8
SAPA_ISOLATOR
 10
-51.525735930297969
 20
-2.300000000000181
 30
0.0
 42
0.198912367379658
  0
VERTEX
  5
1E75
  8
SAPA_ISOLATOR
 10
-51.737867964654008
 20
-2.3878679656443178
 30
0.0
  0
VERTEX
  5
1E76
  8
SAPA_ISOLATOR
 10
-52.412132033365879
 20
-3.0621320343561811
 30
0.0
 42
0.1989123673796375
  0
VERTEX
  5
1E77
  8
SAPA_ISOLATOR
 10
-52.499999999009901
 20
-3.274264068712113
 30
0.0
  0
VERTEX
  5
1E78
  8
SAPA_ISOLATOR
 10
-52.499999999009901
 20
-4.5000000000002274
 30
0.0
 42
-0.4142135623730951
  0
VERTEX
  5
1E79
  8
SAPA_ISOLATOR
 10
-52.999999999009901
 20
-5.0000000000002274
 30
0.0
  0
VERTEX
  5
1E7A
  8
SAPA_ISOLATOR
 10
-92.499999999009916
 20
-5.0000000000002274
 30
0.0
  0
VERTEX
  5
1E7B
  8
SAPA_ISOLATOR
 10
-92.499999999009916
 20
-3.6242640688971051
 30
0.0
 42
-0.1989123676531388
  0
VERTEX
  5
1E7C
  8
SAPA_ISOLATOR
 10
-92.412132033142584
 20
-3.4121320343178918
 30
0.0
  0
VERTEX
  5
1E7D
  8
SAPA_ISOLATOR
 10
-89.353553389603107
 20
-0.3535533972162739
 30
0.0
 42
0.4142135623730478
  0
VERTEX
  5
1E7E
  8
SAPA_ISOLATOR
 10
-89.353553389603107
 20
0.3535533839702794
 30
0.0
  0
VERTEX
  5
1E7F
  8
SAPA_ISOLATOR
 10
-92.412132033589145
 20
3.412132034394062
 30
0.0
 42
-0.1989123671061486
  0
VERTEX
  5
1E80
  8
SAPA_ISOLATOR
 10
-92.499999999009916
 20
3.6242640685267129
 30
0.0
  0
VERTEX
  5
1E81
  8
SAPA_ISOLATOR
 10
-92.499999999009773
 20
4.9999999999997717
 30
0.0
  0
SEQEND
  5
1E82
  8
SAPA_ISOLATOR
  0
POLYLINE
  5
139E
  8
SAPA_ISOLATOR
 66
     1
 10
0.0
 20
0.0
 30
0.0
 70
     1
  0
VERTEX
  5
1E83
  8
SAPA_ISOLATOR
 10
-51.981370848908448
 20
1.1999999999998181
 30
0.0
 42
-0.1989123673796566
  0
VERTEX
  5
1E84
  8
SAPA_ISOLATOR
 10
-52.19350288326428
 20
1.2878679656438401
 30
0.0
  0
VERTEX
  5
1E85
  8
SAPA_ISOLATOR
 10
-53.512132033365901
 20
2.6064971157453551
 30
0.0
 42
-0.198912367379654
  0
VERTEX
  5
1E86
  8
SAPA_ISOLATOR
 10
-53.599999999009917
 20
2.818629150101287
 30
0.0
  0
VERTEX
  5
1E87
  8
SAPA_ISOLATOR
 10
-53.599999999009917
 20
3.5999999999997949
 30
0.0
 42
0.4142135623730389
  0
VERTEX
  5
1E88
  8
SAPA_ISOLATOR
 10
-53.899999999009879
 20
3.899999999999749
 30
0.0
  0
VERTEX
  5
1E89
  8
SAPA_ISOLATOR
 10
-64.546767147075343
 20
3.899999999999749
 30
0.0
 42
0.4142135623730946
  0
VERTEX
  5
1E8A
  8
SAPA_ISOLATOR
 10
-64.846767147075283
 20
3.5999999999997949
 30
0.0
  0
VERTEX
  5
1E8B
  8
SAPA_ISOLATOR
 10
-64.846767147075283
 20
-3.6000000000002501
 30
0.0
 42
0.4142135623730956
  0
VERTEX
  5
1E8C
  8
SAPA_ISOLATOR
 10
-64.546767147075343
 20
-3.9000000000002042
 30
0.0
  0
VERTEX
  5
1E8D
  8
SAPA_ISOLATOR
 10
-53.899999999009879
 20
-3.9000000000002042
 30
0.0
 42
0.4142135623730514
  0
VERTEX
  5
1E8E
  8
SAPA_ISOLATOR
 10
-53.599999999009917
 20
-3.6000000000002501
 30
0.0
  0
VERTEX
  5
1E8F
  8
SAPA_ISOLATOR
 10
-53.599999999009917
 20
-2.8186291501017422
 30
0.0
 42
-0.198912367379658
  0
VERTEX
  5
1E90
  8
SAPA_ISOLATOR
 10
-53.512132033365788
 20
-2.6064971157458099
 30
0.0
  0
VERTEX
  5
1E91
  8
SAPA_ISOLATOR
 10
-52.193502883264379
 20
-1.2878679656442951
 30
0.0
 42
-0.1989123673796573
  0
VERTEX
  5
1E92
  8
SAPA_ISOLATOR
 10
-51.981370848908448
 20
-1.200000000000272
 30
0.0
  0
VERTEX
  5
1E93
  8
SAPA_ISOLATOR
 10
-46.992292378098107
 20
-1.200000000000272
 30
0.0
 42
0.082016165771189
  0
VERTEX
  5
1E94
  8
SAPA_ISOLATOR
 10
-45.40822517359652
 20
-0.2604570137378914
 30
0.0
 42
0.4155202927268181
  0
VERTEX
  5
1E95
  8
SAPA_ISOLATOR
 10
-45.408225173608344
 20
0.2604570137474411
 30
0.0
 42
0.0820161657705025
  0
VERTEX
  5
1E96
  8
SAPA_ISOLATOR
 10
-46.992292378098107
 20
1.1999999999998181
 30
0.0
  0
SEQEND
  5
1E97
  8
SAPA_ISOLATOR
  0
POLYLINE
  5
139F
  8
SAPA_ISOLATOR
 66
     1
 10
0.0
 20
0.0
 30
0.0
 70
     1
  0
VERTEX
  5
1E98
  8
SAPA_ISOLATOR
 10
-65.846767147075298
 20
3.5999999999997949
 30
0.0
 42
0.4142135623731076
  0
VERTEX
  5
1E99
  8
SAPA_ISOLATOR
 10
-66.146767147075366
 20
3.899999999999749
 30
0.0
  0
VERTEX
  5
1E9A
  8
SAPA_ISOLATOR
 10
-79.021661667208946
 20
3.899999999999749
 30
0.0
 42
0.4142135623730659
  0
VERTEX
  5
1E9B
  8
SAPA_ISOLATOR
 10
-79.3216616672089
 20
3.5999999999997949
 30
0.0
  0
VERTEX
  5
1E9C
  8
SAPA_ISOLATOR
 10
-79.321661667209014
 20
-3.6000000000002501
 30
0.0
 42
0.414213562373041
  0
VERTEX
  5
1E9D
  8
SAPA_ISOLATOR
 10
-79.021661667208946
 20
-3.9000000000002042
 30
0.0
  0
VERTEX
  5
1E9E
  8
SAPA_ISOLATOR
 10
-66.146767147075366
 20
-3.9000000000002042
 30
0.0
 42
0.4142135623730784
  0
VERTEX
  5
1E9F
  8
SAPA_ISOLATOR
 10
-65.846767147075411
 20
-3.6000000000002501
 30
0.0
  0
SEQEND
  5
1EA0
  8
SAPA_ISOLATOR
  0
POLYLINE
  5
13A0
  8
SAPA_ISOLATOR
 66
     1
 10
0.0
 20
0.0
 30
0.0
 70
     1
  0
VERTEX
  5
1EA1
  8
SAPA_ISOLATOR
 10
-80.321661667209014
 20
3.5999999999997949
 30
0.0
 42
0.4142135623730659
  0
VERTEX
  5
1EA2
  8
SAPA_ISOLATOR
 10
-80.621661667208969
 20
3.899999999999749
 30
0.0
  0
VERTEX
  5
1EA3
  8
SAPA_ISOLATOR
 10
-90.378679657682824
 20
3.899999999999749
 30
0.0
 42
0.6681786375386655
  0
VERTEX
  5
1EA4
  8
SAPA_ISOLATOR
 10
-90.661522370455032
 20
3.2171572878228281
 30
0.0
  0
VERTEX
  5
1EA5
  8
SAPA_ISOLATOR
 10
-88.575735929479379
 20
1.1313708424569311
 30
0.0
 42
-0.4142135623730892
  0
VERTEX
  5
1EA6
  8
SAPA_ISOLATOR
 10
-88.575735930297924
 20
-1.1313708565214711
 30
0.0
  0
VERTEX
  5
1EA7
  8
SAPA_ISOLATOR
 10
-90.661522365394717
 20
-3.2171572872279048
 30
0.0
 42
0.6681786382998773
  0
VERTEX
  5
1EA8
  8
SAPA_ISOLATOR
 10
-90.378679653217773
 20
-3.9000000000002042
 30
0.0
  0
VERTEX
  5
1EA9
  8
SAPA_ISOLATOR
 10
-80.621661667209082
 20
-3.9000000000002042
 30
0.0
 42
0.4142135623730951
  0
VERTEX
  5
1EAA
  8
SAPA_ISOLATOR
 10
-80.321661667209014
 20
-3.6000000000002501
 30
0.0
  0
SEQEND
  5
1EAB
  8
SAPA_ISOLATOR
  0
CIRCLE
  5
13B8
  8
SAPA_FOGBAND
 10
-92.637568219765683
 20
18.640952594486858
 30
0.0
 40
0.2549509756796394
  0
INSERT
  5
13B9
  8
SAPA_FOGBAND
  6
CONTINUOUS
  2
*U98
 10
0.0
 20
0.0
 30
0.0
1001
ACAD
1002
{
1000
R14_HATCH_DATA
1000
13B9
1011
1.0
1021
0.0
1031
0.0
1021
0.0
1031
0.0
1011
0.0
1021
0.0
1031
0.0
1021
1.0
1031
0.0
1011
0.0
1021
0.0
1031
0.0
1021
0.0
1031
1.0
1040
0.0
1010
0.0
1020
0.0
1030
1.0
1000
SOLID
1070
     1
1070
     1
1071
        1
1071
        1
1071
        1
1070
     2
1040
-92.637568219765683
1040
18.640952594486858
1040
0.2549509756796394
1040
-1.5707963267948959
1040
4.7123889803846888
1070
     1
1071
        1
1005
13B8
1070
     0
1070
     1
1071
        1
1040
-92.555716722436784
1040
18.877691496056968
1040
0.0
1002
}
  0
POLYLINE
  5
13BA
  8
SAPA_FOGBAND
 66
     1
 10
0.0
 20
0.0
 30
0.0
 70
     1
  0
VERTEX
  5
1FFD
  8
SAPA_FOGBAND
 10
-95.599999999010208
 20
17.740952594486881
 30
0.0
 42
0.9999999999999998
  0
VERTEX
  5
1FFE
  8
SAPA_FOGBAND
 10
-95.599999999010208
 20
19.540952594486839
 30
0.0
  0
VERTEX
  5
1FFF
  8
SAPA_FOGBAND
 10
-96.199999999010245
 20
19.540952594486839
 30
0.0
 42
0.9999999999999998
  0
VERTEX
  5
2000
  8
SAPA_FOGBAND
 10
-96.199999999010245
 20
17.740952594486881
 30
0.0
  0
SEQEND
  5
2001
  8
SAPA_FOGBAND
  0
POLYLINE
  5
13BB
  8
SAPA_FOGBAND
 66
     1
 10
0.0
 20
0.0
 30
0.0
 70
     1
  0
VERTEX
  5
2002
  8
SAPA_FOGBAND
 10
-90.499999999010186
 20
27.268828902660061
 30
0.0
 42
0.0775891054856093
  0
VERTEX
  5
2003
  8
SAPA_FOGBAND
 10
-90.816635983071535
 20
23.802047172237511
 30
0.0
  0
VERTEX
  5
2004
  8
SAPA_FOGBAND
 10
-90.599999999010137
 20
23.564157679408709
 30
0.0
 42
-0.5773502691896298
  0
VERTEX
  5
2005
  8
SAPA_FOGBAND
 10
-90.599999999010137
 20
23.21774751789485
 30
0.0
  0
VERTEX
  5
2006
  8
SAPA_FOGBAND
 10
-90.816909853233184
 20
22.97969990116405
 30
0.0
  0
VERTEX
  5
2007
  8
SAPA_FOGBAND
 10
-90.816909853233184
 20
22.20220529124742
 30
0.0
  0
VERTEX
  5
2008
  8
SAPA_FOGBAND
 10
-90.599999999010137
 20
21.964157679408689
 30
0.0
 42
-0.577350269189699
  0
VERTEX
  5
2009
  8
SAPA_FOGBAND
 10
-90.599999999010137
 20
21.617747517894941
 30
0.0
  0
VERTEX
  5
200A
  8
SAPA_FOGBAND
 10
-90.816909853233184
 20
21.379699901164152
 30
0.0
  0
VERTEX
  5
200B
  8
SAPA_FOGBAND
 10
-90.816909853233184
 20
20.602205291247401
 30
0.0
  0
VERTEX
  5
200C
  8
SAPA_FOGBAND
 10
-90.599999999010137
 20
20.36415767940866
 30
0.0
 42
-0.577350269189699
  0
VERTEX
  5
200D
  8
SAPA_FOGBAND
 10
-90.599999999010137
 20
20.017747517894922
 30
0.0
  0
VERTEX
  5
200E
  8
SAPA_FOGBAND
 10
-90.816909853233184
 20
19.779699901164118
 30
0.0
  0
VERTEX
  5
200F
  8
SAPA_FOGBAND
 10
-90.816909853233184
 20
19.002205291247378
 30
0.0
  0
VERTEX
  5
2010
  8
SAPA_FOGBAND
 10
-90.599999999010137
 20
18.764157679408751
 30
0.0
 42
-0.5773502691896298
  0
VERTEX
  5
2011
  8
SAPA_FOGBAND
 10
-90.599999999010137
 20
18.417747517894892
 30
0.0
  0
VERTEX
  5
2012
  8
SAPA_FOGBAND
 10
-90.816909853233184
 20
18.179699901164099
 30
0.0
  0
VERTEX
  5
2013
  8
SAPA_FOGBAND
 10
-90.816909853233184
 20
17.402205291247348
 30
0.0
  0
VERTEX
  5
2014
  8
SAPA_FOGBAND
 10
-90.599999999010137
 20
17.164157679408731
 30
0.0
 42
-0.5773502691896298
  0
VERTEX
  5
2015
  8
SAPA_FOGBAND
 10
-90.599999999010137
 20
16.817747517894869
 30
0.0
  0
VERTEX
  5
2016
  8
SAPA_FOGBAND
 10
-90.816909853233184
 20
16.579699901164069
 30
0.0
  0
VERTEX
  5
2017
  8
SAPA_FOGBAND
 10
-90.816909853233184
 20
15.80220528708241
 30
0.0
  0
VERTEX
  5
2018
  8
SAPA_FOGBAND
 10
-90.599999999010137
 20
15.564157675243679
 30
0.0
 42
-0.577350269189699
  0
VERTEX
  5
2019
  8
SAPA_FOGBAND
 10
-90.599999999010137
 20
15.217747513729931
 30
0.0
  0
VERTEX
  5
201A
  8
SAPA_FOGBAND
 10
-91.673330067494646
 20
14.417747514174829
 30
0.0
 42
-0.1316524987190269
  0
VERTEX
  5
201B
  8
SAPA_FOGBAND
 10
-91.773330068265338
 20
14.39095259448686
 30
0.0
  0
VERTEX
  5
201C
  8
SAPA_FOGBAND
 10
-94.29999999901014
 20
14.39095259448675
 30
0.0
 42
-0.4142135623730951
  0
VERTEX
  5
201D
  8
SAPA_FOGBAND
 10
-94.499999999010186
 20
14.59095259448679
 30
0.0
  0
VERTEX
  5
201E
  8
SAPA_FOGBAND
 10
-94.499999999010186
 20
16.640952594486858
 30
0.0
 42
0.4142135623730951
  0
VERTEX
  5
201F
  8
SAPA_FOGBAND
 10
-94.999999999010186
 20
17.140952594486858
 30
0.0
  0
VERTEX
  5
2020
  8
SAPA_FOGBAND
 10
-95.726794918253347
 20
17.140952594486858
 30
0.0
  0
VERTEX
  5
2021
  8
SAPA_FOGBAND
 10
-95.794254827563748
 20
16.889188785466331
 30
0.0
 42
-0.4740571810232869
  0
VERTEX
  5
2022
  8
SAPA_FOGBAND
 10
-96.076537413202416
 20
16.761894923102769
 30
0.0
  0
VERTEX
  5
2023
  8
SAPA_FOGBAND
 10
-97.522743549962172
 20
17.381995425861302
 30
0.0
 42
-0.2846003776495916
  0
VERTEX
  5
2024
  8
SAPA_FOGBAND
 10
-97.799999999010154
 20
17.829639604321532
 30
0.0
  0
VERTEX
  5
2025
  8
SAPA_FOGBAND
 10
-97.799999999010154
 20
19.452265584652078
 30
0.0
 42
-0.2846003776495917
  0
VERTEX
  5
2026
  8
SAPA_FOGBAND
 10
-97.522743549962172
 20
19.899909763112301
 30
0.0
  0
VERTEX
  5
2027
  8
SAPA_FOGBAND
 10
-96.076537413202416
 20
20.520010265870841
 30
0.0
 42
-0.4740571810232869
  0
VERTEX
  5
2028
  8
SAPA_FOGBAND
 10
-95.794254827563748
 20
20.392716403507279
 30
0.0
  0
VERTEX
  5
2029
  8
SAPA_FOGBAND
 10
-95.726794918253347
 20
20.140952594486858
 30
0.0
  0
VERTEX
  5
202A
  8
SAPA_FOGBAND
 10
-94.999999999010186
 20
20.140952594486858
 30
0.0
 42
0.4142135623730951
  0
VERTEX
  5
202B
  8
SAPA_FOGBAND
 10
-94.499999999010186
 20
20.640952594486858
 30
0.0
  0
VERTEX
  5
202C
  8
SAPA_FOGBAND
 10
-94.499999999010186
 20
23.69095259448682
 30
0.0
 42
0.4142135623730951
  0
VERTEX
  5
202D
  8
SAPA_FOGBAND
 10
-94.699999999010231
 20
23.890952594486858
 30
0.0
  0
VERTEX
  5
202E
  8
SAPA_FOGBAND
 10
-95.599999999010208
 20
23.890952594486748
 30
0.0
 42
-0.4142135623731784
  0
VERTEX
  5
202F
  8
SAPA_FOGBAND
 10
-95.79999999901014
 20
24.090952594486801
 30
0.0
  0
VERTEX
  5
2030
  8
SAPA_FOGBAND
 10
-95.799999999010254
 20
24.790952594486839
 30
0.0
 42
-0.4142135623730398
  0
VERTEX
  5
2031
  8
SAPA_FOGBAND
 10
-95.499999999010186
 20
25.090952594486801
 30
0.0
  0
VERTEX
  5
2032
  8
SAPA_FOGBAND
 10
-94.689488222358634
 20
25.090952594486801
 30
0.0
 42
0.1316524975873973
  0
VERTEX
  5
2033
  8
SAPA_FOGBAND
 10
-93.689488222358634
 20
25.358901786917961
 30
0.0
  0
VERTEX
  5
2034
  8
SAPA_FOGBAND
 10
-91.099920230266719
 20
30.52174693695838
 30
0.0
 42
-0.7057658529986604
  0
VERTEX
  5
2035
  8
SAPA_FOGBAND
 10
-90.499999999010186
 20
30.25415376160004
 30
0.0
  0
SEQEND
  5
2036
  8
SAPA_FOGBAND
  0
POLYLINE
  5
13BC
  8
SAPA_FOGBAND
 66
     1
 10
0.0
 20
0.0
 30
0.0
 70
     1
  0
VERTEX
  5
2037
  8
SAPA_FOGBAND
 10
-70.185369502362562
 20
19.302650787616511
 30
0.0
 42
-0.9999999999999998
  0
VERTEX
  5
2038
  8
SAPA_FOGBAND
 10
-70.185369502362562
 20
21.102650787616518
 30
0.0
  0
VERTEX
  5
2039
  8
SAPA_FOGBAND
 10
-69.585369502362539
 20
21.102650787616518
 30
0.0
 42
-0.9999999999999998
  0
VERTEX
  5
203A
  8
SAPA_FOGBAND
 10
-69.585369502362539
 20
19.302650787616511
 30
0.0
  0
SEQEND
  5
203B
  8
SAPA_FOGBAND
  0
POLYLINE
  5
13BD
  8
SAPA_FOGBAND
 66
     1
 10
0.0
 20
0.0
 30
0.0
  0
VERTEX
  5
203C
  8
SAPA_FOGBAND
 10
-71.800000000001376
 20
23.802650787616511
 30
0.0
  0
VERTEX
  5
203D
  8
SAPA_FOGBAND
 10
-71.500000000001293
 20
23.802650787616511
 30
0.0
  0
VERTEX
  5
203E
  8
SAPA_FOGBAND
 10
-71.800000000001376
 20
23.802650787616511
 30
0.0
 42
0.4142135623730951
  0
VERTEX
  5
203F
  8
SAPA_FOGBAND
 10
-72.300000000001376
 20
23.302650787616511
 30
0.0
  0
VERTEX
  5
2040
  8
SAPA_FOGBAND
 10
-72.300000000001376
 20
16.002650787616549
 30
0.0
 42
0.4142135623730951
  0
VERTEX
  5
2041
  8
SAPA_FOGBAND
 10
-71.800000000001376
 20
15.502650787616551
 30
0.0
  0
VERTEX
  5
2042
  8
SAPA_FOGBAND
 10
-71.500000000001293
 20
15.502650787616551
 30
0.0
  0
SEQEND
  5
2043
  8
SAPA_FOGBAND
  0
POLYLINE
  5
13BE
  8
SAPA_FOGBAND
 66
     1
 10
0.0
 20
0.0
 30
0.0
 70
     1
  0
VERTEX
  5
2044
  8
SAPA_FOGBAND
 10
-76.000000000001307
 20
17.153582288121221
 30
0.0
  0
VERTEX
  5
2045
  8
SAPA_FOGBAND
 10
-76.000000000001307
 20
20.239515824897271
 30
0.0
 42
0.9695372397405709
  0
VERTEX
  5
2046
  8
SAPA_FOGBAND
 10
-79.581531792786805
 20
20.239515824897278
 30
0.0
  0
VERTEX
  5
2047
  8
SAPA_FOGBAND
 10
-79.581531792786805
 20
17.153582288121221
 30
0.0
 42
0.9063837695480113
  0
SEQEND
  5
2048
  8
SAPA_FOGBAND
  0
POLYLINE
  5
13BF
  8
SAPA_FOGBAND
 66
     1
 10
0.0
 20
0.0
 30
0.0
 70
     1
  0
VERTEX
  5
2049
  8
SAPA_FOGBAND
 10
-78.511597533885464
 20
7.8715615866848712
 30
0.0
  0
VERTEX
  5
204A
  8
SAPA_FOGBAND
 10
-78.511597533885464
 20
7.8715615866848712
 30
0.0
 42
-0.611149385816862
  0
VERTEX
  5
204B
  8
SAPA_FOGBAND
 10
-80.391839663250565
 20
7.9033127537495993
 30
0.0
  0
VERTEX
  5
204C
  8
SAPA_FOGBAND
 10
-80.957681575505006
 20
11.89397553066577
 30
0.0
 42
-0.4464785874932439
  0
VERTEX
  5
204D
  8
SAPA_FOGBAND
 10
-79.963604270399088
 20
13.002650787616551
 30
0.0
  0
VERTEX
  5
204E
  8
SAPA_FOGBAND
 10
-76.940292945534381
 20
13.002650787616551
 30
0.0
 42
-0.622676997742357
  0
VERTEX
  5
204F
  8
SAPA_FOGBAND
 10
-76.148411217370935
 20
11.391976301002931
 30
0.0
  0
VERTEX
  5
2050
  8
SAPA_FOGBAND
 10
-78.511597533885464
 20
7.8715615866848694
 30
0.0
 42
-0.232531183213058
  0
SEQEND
  5
2051
  8
SAPA_FOGBAND
  0
POLYLINE
  5
13C0
  8
SAPA_FOGBAND
 66
     1
 10
0.0
 20
0.0
 30
0.0
 70
     1
  0
VERTEX
  5
2052
  8
SAPA_FOGBAND
 10
-70.058574583119423
 20
18.702650787616541
 30
0.0
  0
VERTEX
  5
2053
  8
SAPA_FOGBAND
 10
-69.991114673809022
 20
18.450886978596071
 30
0.0
 42
0.4740571810232144
  0
VERTEX
  5
2054
  8
SAPA_FOGBAND
 10
-69.708832088170368
 20
18.323593116232448
 30
0.0
  0
VERTEX
  5
2055
  8
SAPA_FOGBAND
 10
-68.262625951410485
 20
18.943693618991041
 30
0.0
 42
0.2846003776496053
  0
VERTEX
  5
2056
  8
SAPA_FOGBAND
 10
-67.985369502362516
 20
19.391337797451211
 30
0.0
  0
VERTEX
  5
2057
  8
SAPA_FOGBAND
 10
-67.985369502362516
 20
21.013963777781822
 30
0.0
 42
0.2846003776496027
  0
VERTEX
  5
2058
  8
SAPA_FOGBAND
 10
-68.262625951410485
 20
21.461607956241991
 30
0.0
  0
VERTEX
  5
2059
  8
SAPA_FOGBAND
 10
-69.708832088170425
 20
22.08170845900057
 30
0.0
 42
0.4740571810232332
  0
VERTEX
  5
205A
  8
SAPA_FOGBAND
 10
-69.991114673809022
 20
21.954414596637012
 30
0.0
  0
VERTEX
  5
205B
  8
SAPA_FOGBAND
 10
-70.058574583119423
 20
21.702650787616541
 30
0.0
  0
VERTEX
  5
205C
  8
SAPA_FOGBAND
 10
-71.000000000001307
 20
21.702650787616541
 30
0.0
 42
-0.4142135623730951
  0
VERTEX
  5
205D
  8
SAPA_FOGBAND
 10
-71.500000000001293
 20
22.202650787616541
 30
0.0
  0
VERTEX
  5
205E
  8
SAPA_FOGBAND
 10
-71.500000000001364
 20
24.71481095099799
 30
0.0
 42
0.4027293761437467
  0
VERTEX
  5
205F
  8
SAPA_FOGBAND
 10
-71.788192637470672
 20
25.01457850459586
 30
0.0
  0
VERTEX
  5
2060
  8
SAPA_FOGBAND
 10
-82.188192637470706
 20
25.502418319265288
 30
0.0
 42
0.4257917699693538
  0
VERTEX
  5
2061
  8
SAPA_FOGBAND
 10
-82.500000000001364
 20
25.202650765667421
 30
0.0
  0
VERTEX
  5
2062
  8
SAPA_FOGBAND
 10
-82.500000000001364
 20
11.49711710644355
 30
0.0
  0
VERTEX
  5
2063
  8
SAPA_FOGBAND
 10
-81.723465082318725
 20
5.8939755087166752
 30
0.0
 42
0.322530093016903
  0
VERTEX
  5
2064
  8
SAPA_FOGBAND
 10
-80.729387777212764
 20
5.202650765667407
 30
0.0
  0
VERTEX
  5
2065
  8
SAPA_FOGBAND
 10
-78.498644220775191
 20
5.2026507656674053
 30
0.0
 42
0.2325311832130604
  0
VERTEX
  5
2066
  8
SAPA_FOGBAND
 10
-78.102703356693382
 20
5.3973135223606237
 30
0.0
  0
VERTEX
  5
2067
  8
SAPA_FOGBAND
 10
-71.708118271837861
 20
14.563876750268131
 30
0.0
 42
0.1657205760184606
  0
VERTEX
  5
2068
  8
SAPA_FOGBAND
 10
-71.500000000001293
 20
15.174551236881751
 30
0.0
  0
VERTEX
  5
2069
  8
SAPA_FOGBAND
 10
-71.500000000001293
 20
18.202650787616541
 30
0.0
 42
-0.4142135623730951
  0
VERTEX
  5
206A
  8
SAPA_FOGBAND
 10
-71.000000000001307
 20
18.702650787616541
 30
0.0
  0
SEQEND
  5
206B
  8
SAPA_FOGBAND
  0
INSERT
  5
13C1
  8
SAPA_FOGBAND
  2
BYGG-023125$0$BORST_9
 10
64.494881179556828
 20
17.28741769175485
 30
0.0
 50
270.0
  0
POLYLINE
  5
13C2
  8
SAPA_FOGBAND
 66
     1
 10
0.0
 20
0.0
 30
0.0
 70
   129
  0
VERTEX
  5
206C
  8
SAPA_FOGBAND
 10
111.0848194796239
 20
-58.56171828625105
 30
0.0
  0
VERTEX
  5
206D
  8
SAPA_FOGBAND
 10
111.3213835350742
 20
-58.612229112954481
 30
0.0
  0
VERTEX
  5
206E
  8
SAPA_FOGBAND
 10
111.5493975491991
 20
-58.761936000182168
 30
0.0
  0
VERTEX
  5
206F
  8
SAPA_FOGBAND
 10
111.7606205014434
 20
-59.005428150972811
 30
0.0
  0
VERTEX
  5
2070
  8
SAPA_FOGBAND
 10
111.9474182439766
 20
-59.333905124584298
 30
0.0
  0
VERTEX
  5
2071
  8
SAPA_FOGBAND
 10
112.1030394196867
 20
-59.735494907350983
 30
0.0
  0
VERTEX
  5
2072
  8
SAPA_FOGBAND
 10
112.22185947381681
 20
-60.195682998193149
 30
0.0
  0
VERTEX
  5
2073
  8
SAPA_FOGBAND
 10
112.2995839400281
 20
-60.697837000498509
 30
0.0
  0
VERTEX
  5
2074
  8
SAPA_FOGBAND
 10
112.3334036536024
 20
-61.223807760273701
 30
0.0
  0
VERTEX
  5
2075
  8
SAPA_FOGBAND
 10
112.32209628197489
 20
-61.754585323858407
 30
0.0
  0
VERTEX
  5
2076
  8
SAPA_FOGBAND
 10
112.266070503017
 20
-62.27098600717585
 30
0.0
  0
VERTEX
  5
2077
  8
SAPA_FOGBAND
 10
112.1673512343544
 20
-62.754345744062839
 30
0.0
  0
VERTEX
  5
2078
  8
SAPA_FOGBAND
 10
112.0295064475666
 20
-63.187194654247321
 30
0.0
  0
VERTEX
  5
2079
  8
SAPA_FOGBAND
 10
111.8575182123994
 20
-63.55388845033707
 30
0.0
  0
VERTEX
  5
207A
  8
SAPA_FOGBAND
 10
111.65760263178289
 20
-63.841173863130678
 30
0.0
  0
VERTEX
  5
207B
  8
SAPA_FOGBAND
 10
111.4369851756754
 20
-64.038667649294837
 30
0.0
  0
VERTEX
  5
207C
  8
SAPA_FOGBAND
 10
111.203639533754
 20
-64.139231868833065
 30
0.0
  0
VERTEX
  5
207D
  8
SAPA_FOGBAND
 10
110.96599942549361
 20
-64.139231868833065
 30
0.0
  0
VERTEX
  5
207E
  8
SAPA_FOGBAND
 10
110.73265378357191
 20
-64.038667649294837
 30
0.0
  0
VERTEX
  5
207F
  8
SAPA_FOGBAND
 10
110.5120363274644
 20
-63.841173863130678
 30
0.0
  0
VERTEX
  5
2080
  8
SAPA_FOGBAND
 10
110.3121207468479
 20
-63.55388845033707
 30
0.0
  0
VERTEX
  5
2081
  8
SAPA_FOGBAND
 10
110.1401325116809
 20
-63.187194654247321
 30
0.0
  0
VERTEX
  5
2082
  8
SAPA_FOGBAND
 10
110.00228772489331
 20
-62.754345744062839
 30
0.0
  0
VERTEX
  5
2083
  8
SAPA_FOGBAND
 10
109.9035684562303
 20
-62.27098600717585
 30
0.0
  0
VERTEX
  5
2084
  8
SAPA_FOGBAND
 10
109.8475426772726
 20
-61.754585323858407
 30
0.0
  0
VERTEX
  5
2085
  8
SAPA_FOGBAND
 10
109.83623530564491
 20
-61.223807760273701
 30
0.0
  0
VERTEX
  5
2086
  8
SAPA_FOGBAND
 10
109.87005501921919
 20
-60.697837000498509
 30
0.0
  0
VERTEX
  5
2087
  8
SAPA_FOGBAND
 10
109.9477794854305
 20
-60.195682998193149
 30
0.0
  0
VERTEX
  5
2088
  8
SAPA_FOGBAND
 10
110.066599539561
 20
-59.735494907350983
 30
0.0
  0
VERTEX
  5
2089
  8
SAPA_FOGBAND
 10
110.22222071527121
 20
-59.333905124584298
 30
0.0
  0
VERTEX
  5
208A
  8
SAPA_FOGBAND
 10
110.40901845780429
 20
-59.005428150972811
 30
0.0
  0
VERTEX
  5
208B
  8
SAPA_FOGBAND
 10
110.62024141004839
 20
-58.761936000182168
 30
0.0
  0
VERTEX
  5
208C
  8
SAPA_FOGBAND
 10
110.8482554241733
 20
-58.612229112954481
 30
0.0
  0
SEQEND
  5
208D
  8
SAPA_FOGBAND
  0
POLYLINE
  5
13C3
  8
SAPA_FOGBAND
 66
     1
 10
0.0
 20
0.0
 30
0.0
 70
     1
  0
VERTEX
  5
208E
  8
SAPA_FOGBAND
 10
107.44999992254709
 20
-61.819535350687993
 30
0.0
  0
VERTEX
  5
208F
  8
SAPA_FOGBAND
 10
107.44999992254709
 20
-75.499999999986755
 30
0.0
 42
0.427966335106886
  0
VERTEX
  5
2090
  8
SAPA_FOGBAND
 10
107.76401249390651
 20
-75.799672567706637
 30
0.0
  0
VERTEX
  5
2091
  8
SAPA_FOGBAND
 10
116.1640124939061
 20
-75.313372659626964
 30
0.0
 42
0.4005932428724212
  0
VERTEX
  5
2092
  8
SAPA_FOGBAND
 10
116.44999992254709
 20
-75.013700091907083
 30
0.0
  0
VERTEX
  5
2093
  8
SAPA_FOGBAND
 10
116.44999992254709
 20
-73.199999999986574
 30
0.0
  0
VERTEX
  5
2094
  8
SAPA_FOGBAND
 10
118.1499999225469
 20
-73.199999999986574
 30
0.0
 42
0.4142135623730951
  0
VERTEX
  5
2095
  8
SAPA_FOGBAND
 10
118.44999992254709
 20
-72.899999999986392
 30
0.0
  0
VERTEX
  5
2096
  8
SAPA_FOGBAND
 10
118.44999992254709
 20
-65.481219236361014
 30
0.0
 42
0.1379343940649207
  0
VERTEX
  5
2097
  8
SAPA_FOGBAND
 10
118.3034233076922
 20
-64.960000927312137
 30
0.0
  0
VERTEX
  5
2098
  8
SAPA_FOGBAND
 10
111.4962050697839
 20
-53.039390845462492
 30
0.0
 42
0.2613472755167645
  0
VERTEX
  5
2099
  8
SAPA_FOGBAND
 10
111.0694933772114
 20
-52.79999999998693
 30
0.0
  0
VERTEX
  5
209A
  8
SAPA_FOGBAND
 10
109.2747967600484
 20
-52.79999999998693
 30
0.0
 42
0.3915187749346393
  0
VERTEX
  5
209B
  8
SAPA_FOGBAND
 10
108.27784514604291
 20
-53.721977699760323
 30
0.0
  0
VERTEX
  5
209C
  8
SAPA_FOGBAND
 10
107.4515241155444
 20
-61.780524200574682
 30
0.0
 42
0.0195279011117891
  0
SEQEND
  5
209D
  8
SAPA_FOGBAND
  0
POLYLINE
  5
13C4
  8
SAPA_FOGBAND
 66
     1
 10
0.0
 20
0.0
 30
0.0
 70
   129
  0
VERTEX
  5
209E
  8
SAPA_FOGBAND
 10
112.9295653152534
 20
-66.28637780302364
 30
0.0
  0
VERTEX
  5
209F
  8
SAPA_FOGBAND
 10
113.1661293707037
 20
-66.336888629727071
 30
0.0
  0
VERTEX
  5
20A0
  8
SAPA_FOGBAND
 10
113.39414338482869
 20
-66.486595516954765
 30
0.0
  0
VERTEX
  5
20A1
  8
SAPA_FOGBAND
 10
113.60536633707289
 20
-66.730087667745408
 30
0.0
  0
VERTEX
  5
20A2
  8
SAPA_FOGBAND
 10
113.7921640796061
 20
-67.058564641356895
 30
0.0
  0
VERTEX
  5
20A3
  8
SAPA_FOGBAND
 10
113.94778525531621
 20
-67.460154424123573
 30
0.0
  0
VERTEX
  5
20A4
  8
SAPA_FOGBAND
 10
114.0666053094463
 20
-67.920342514965725
 30
0.0
  0
VERTEX
  5
20A5
  8
SAPA_FOGBAND
 10
114.1443297756576
 20
-68.422496517271099
 30
0.0
  0
VERTEX
  5
20A6
  8
SAPA_FOGBAND
 10
114.1781494892319
 20
-68.948467277046291
 30
0.0
  0
VERTEX
  5
20A7
  8
SAPA_FOGBAND
 10
114.1668421176044
 20
-69.479244840630997
 30
0.0
  0
VERTEX
  5
20A8
  8
SAPA_FOGBAND
 10
114.1108163386465
 20
-69.995645523948426
 30
0.0
  0
VERTEX
  5
20A9
  8
SAPA_FOGBAND
 10
114.01209706998389
 20
-70.479005260835436
 30
0.0
  0
VERTEX
  5
20AA
  8
SAPA_FOGBAND
 10
113.8742522831961
 20
-70.911854171019911
 30
0.0
  0
VERTEX
  5
20AB
  8
SAPA_FOGBAND
 10
113.70226404802889
 20
-71.27854796710966
 30
0.0
  0
VERTEX
  5
20AC
  8
SAPA_FOGBAND
 10
113.5023484674124
 20
-71.565833379903253
 30
0.0
  0
VERTEX
  5
20AD
  8
SAPA_FOGBAND
 10
113.2817310113049
 20
-71.763327166067427
 30
0.0
  0
VERTEX
  5
20AE
  8
SAPA_FOGBAND
 10
113.0483853693835
 20
-71.863891385605655
 30
0.0
  0
VERTEX
  5
20AF
  8
SAPA_FOGBAND
 10
112.8107452611231
 20
-71.863891385605655
 30
0.0
  0
VERTEX
  5
20B0
  8
SAPA_FOGBAND
 10
112.5773996192014
 20
-71.763327166067427
 30
0.0
  0
VERTEX
  5
20B1
  8
SAPA_FOGBAND
 10
112.3567821630939
 20
-71.565833379903253
 30
0.0
  0
VERTEX
  5
20B2
  8
SAPA_FOGBAND
 10
112.15686658247741
 20
-71.27854796710966
 30
0.0
  0
VERTEX
  5
20B3
  8
SAPA_FOGBAND
 10
111.9848783473104
 20
-70.911854171019911
 30
0.0
  0
VERTEX
  5
20B4
  8
SAPA_FOGBAND
 10
111.8470335605228
 20
-70.479005260835436
 30
0.0
  0
VERTEX
  5
20B5
  8
SAPA_FOGBAND
 10
111.7483142918598
 20
-69.995645523948426
 30
0.0
  0
VERTEX
  5
20B6
  8
SAPA_FOGBAND
 10
111.6922885129021
 20
-69.479244840630997
 30
0.0
  0
VERTEX
  5
20B7
  8
SAPA_FOGBAND
 10
111.6809811412744
 20
-68.948467277046291
 30
0.0
  0
VERTEX
  5
20B8
  8
SAPA_FOGBAND
 10
111.7148008548487
 20
-68.422496517271099
 30
0.0
  0
VERTEX
  5
20B9
  8
SAPA_FOGBAND
 10
111.79252532106
 20
-67.920342514965725
 30
0.0
  0
VERTEX
  5
20BA
  8
SAPA_FOGBAND
 10
111.91134537519051
 20
-67.460154424123573
 30
0.0
  0
VERTEX
  5
20BB
  8
SAPA_FOGBAND
 10
112.0669665509007
 20
-67.058564641356895
 30
0.0
  0
VERTEX
  5
20BC
  8
SAPA_FOGBAND
 10
112.2537642934338
 20
-66.730087667745408
 30
0.0
  0
VERTEX
  5
20BD
  8
SAPA_FOGBAND
 10
112.4649872456779
 20
-66.486595516954765
 30
0.0
  0
VERTEX
  5
20BE
  8
SAPA_FOGBAND
 10
112.6930012598028
 20
-66.336888629727071
 30
0.0
  0
SEQEND
  5
20BF
  8
SAPA_FOGBAND
  0
POLYLINE
  5
13C5
  8
SAPA_FOGBAND
 66
     1
 10
0.0
 20
0.0
 30
0.0
  0
VERTEX
  5
20C0
  8
SAPA_FOGBAND
 10
78.949999922547136
 20
-73.056372436878917
 30
0.0
 42
0.285714285714282
  0
VERTEX
  5
20C1
  8
SAPA_FOGBAND
 10
78.949999922547136
 20
-70.256372436878735
 30
0.0
  0
VERTEX
  5
20C2
  8
SAPA_FOGBAND
 10
78.94999992254759
 20
-68.182592267491088
 30
0.0
 42
-0.3882600129940275
  0
VERTEX
  5
20C3
  8
SAPA_FOGBAND
 10
79.223210648827148
 20
-67.88379077014946
 30
0.0
  0
VERTEX
  5
20C4
  8
SAPA_FOGBAND
 10
83.123210648827225
 20
-67.417580846223174
 30
0.0
 42
-0.4406523138893894
  0
VERTEX
  5
20C5
  8
SAPA_FOGBAND
 10
83.449999922547136
 20
-67.716382343565272
 30
0.0
  0
VERTEX
  5
20C6
  8
SAPA_FOGBAND
 10
83.449999922547136
 20
-69.426174340485375
 30
0.0
 42
-0.3394542588634375
  0
VERTEX
  5
20C7
  8
SAPA_FOGBAND
 10
83.227645636078137
 20
-69.715952088371921
 30
0.0
  0
VERTEX
  5
20C8
  8
SAPA_FOGBAND
 10
83.010059853910548
 20
-69.918331816303578
 30
0.0
 42
0.3394542588633663
  0
VERTEX
  5
20C9
  8
SAPA_FOGBAND
 10
82.787705567441535
 20
-70.208109564190124
 30
0.0
  0
VERTEX
  5
20CA
  8
SAPA_FOGBAND
 10
82.787705567441535
 20
-73.104635309567982
 30
0.0
 42
0.3394542588634373
  0
VERTEX
  5
20CB
  8
SAPA_FOGBAND
 10
83.010059853910548
 20
-73.394413057454514
 30
0.0
  0
VERTEX
  5
20CC
  8
SAPA_FOGBAND
 10
83.227645636078137
 20
-73.59679278538573
 30
0.0
 42
-0.3394542588633662
  0
VERTEX
  5
20CD
  8
SAPA_FOGBAND
 10
83.449999922547136
 20
-73.886570533272732
 30
0.0
  0
VERTEX
  5
20CE
  8
SAPA_FOGBAND
 10
83.449999922547136
 20
-75.596362530192835
 30
0.0
 42
-0.4406523138893994
  0
VERTEX
  5
20CF
  8
SAPA_FOGBAND
 10
83.123210648827225
 20
-75.895164027534463
 30
0.0
  0
VERTEX
  5
20D0
  8
SAPA_FOGBAND
 10
79.223210648827148
 20
-75.428954103608191
 30
0.0
 42
-0.3882600129940462
  0
VERTEX
  5
20D1
  8
SAPA_FOGBAND
 10
78.949999922547136
 20
-75.130152606266563
 30
0.0
  0
VERTEX
  5
20D2
  8
SAPA_FOGBAND
 10
78.949999922547136
 20
-73.067964813729233
 30
0.0
  0
SEQEND
  5
20D3
  8
SAPA_FOGBAND
  0
POLYLINE
  5
13C6
  8
SAPA_FOGBAND
 66
     1
 10
0.0
 20
0.0
 30
0.0
  0
VERTEX
  5
20D4
  8
SAPA_FOGBAND
 10
78.949999922547136
 20
-73.067964813729233
 30
0.0
  0
VERTEX
  5
20D5
  8
SAPA_FOGBAND
 10
77.859081112394392
 20
-72.875606393736632
 30
0.0
  0
VERTEX
  5
20D6
  8
SAPA_FOGBAND
 10
77.743381572874455
 20
-73.3074029536387
 30
0.0
 42
-0.4430158954262519
  0
VERTEX
  5
20D7
  8
SAPA_FOGBAND
 10
77.479905144767486
 20
-73.442880001182345
 30
0.0
  0
VERTEX
  5
20D8
  8
SAPA_FOGBAND
 10
76.20941739684929
 20
-72.965931807963386
 30
0.0
 42
-0.3125358528825162
  0
VERTEX
  5
20D9
  8
SAPA_FOGBAND
 10
75.94999992254759
 20
-72.591450094834215
 30
0.0
  0
VERTEX
  5
20DA
  8
SAPA_FOGBAND
 10
75.949999922547136
 20
-70.721294778923891
 30
0.0
 42
-0.3125358528825104
  0
VERTEX
  5
20DB
  8
SAPA_FOGBAND
 10
76.20941739684929
 20
-70.346813065794265
 30
0.0
  0
VERTEX
  5
20DC
  8
SAPA_FOGBAND
 10
77.479905144767486
 20
-69.869864872575306
 30
0.0
 42
-0.4430158954262519
  0
VERTEX
  5
20DD
  8
SAPA_FOGBAND
 10
77.743381572874455
 20
-70.005341920119406
 30
0.0
  0
VERTEX
  5
20DE
  8
SAPA_FOGBAND
 10
77.859081112394392
 20
-70.437138480021019
 30
0.0
  0
VERTEX
  5
20DF
  8
SAPA_FOGBAND
 10
78.931769226161904
 20
-70.247994623678494
 30
0.0
  0
SEQEND
  5
20E0
  8
SAPA_FOGBAND
  0
CIRCLE
  5
13C7
  8
SAPA_FOGBAND
 10
-92.637568219766194
 20
-18.62935679561372
 30
0.0
 40
0.2549509756796394
  0
INSERT
  5
13C8
  8
SAPA_FOGBAND
  6
CONTINUOUS
  2
*U99
 10
0.0
 20
0.0
 30
0.0
1001
ACAD
1002
{
1000
R14_HATCH_DATA
1000
13C8
1011
1.0
1021
0.0
1031
0.0
1021
0.0
1031
0.0
1011
0.0
1021
0.0
1031
0.0
1021
1.0
1031
0.0
1011
0.0
1021
0.0
1031
0.0
1021
0.0
1031
1.0
1040
0.0
1010
0.0
1020
0.0
1030
1.0
1000
SOLID
1070
     1
1070
     1
1071
        1
1071
        1
1071
        1
1070
     2
1040
-92.637568219766194
1040
-18.62935679561372
1040
0.2549509756796394
1040
-1.5707963267948959
1040
4.7123889803846888
1070
     0
1071
        1
1005
13C7
1070
     0
1070
     1
1071
        1
1040
-92.555716722437296
1040
-18.86609569718382
1040
0.0
1002
}
  0
POLYLINE
  5
13C9
  8
SAPA_FOGBAND
 66
     1
 10
0.0
 20
0.0
 30
0.0
 70
     1
  0
VERTEX
  5
20F2
  8
SAPA_FOGBAND
 10
-95.599999999010706
 20
-17.729356795613739
 30
0.0
 42
-0.9999999999999998
  0
VERTEX
  5
20F3
  8
SAPA_FOGBAND
 10
-95.599999999010706
 20
-19.52935679561369
 30
0.0
  0
VERTEX
  5
20F4
  8
SAPA_FOGBAND
 10
-96.199999999010757
 20
-19.52935679561369
 30
0.0
 42
-0.9999999999999998
  0
VERTEX
  5
20F5
  8
SAPA_FOGBAND
 10
-96.199999999010757
 20
-17.729356795613739
 30
0.0
  0
SEQEND
  5
20F6
  8
SAPA_FOGBAND
  0
POLYLINE
  5
13CA
  8
SAPA_FOGBAND
 66
     1
 10
0.0
 20
0.0
 30
0.0
 70
     1
  0
VERTEX
  5
20F7
  8
SAPA_FOGBAND
 10
-90.499999999010697
 20
-27.25723310378692
 30
0.0
 42
-0.0775891054856093
  0
VERTEX
  5
20F8
  8
SAPA_FOGBAND
 10
-90.816635983072047
 20
-23.790451373364359
 30
0.0
  0
VERTEX
  5
20F9
  8
SAPA_FOGBAND
 10
-90.599999999010663
 20
-23.55256188053556
 30
0.0
 42
0.5773502691896298
  0
VERTEX
  5
20FA
  8
SAPA_FOGBAND
 10
-90.599999999010663
 20
-23.206151719021701
 30
0.0
  0
VERTEX
  5
20FB
  8
SAPA_FOGBAND
 10
-90.81690985323371
 20
-22.968104102290908
 30
0.0
  0
VERTEX
  5
20FC
  8
SAPA_FOGBAND
 10
-90.81690985323371
 20
-22.190609492374278
 30
0.0
  0
VERTEX
  5
20FD
  8
SAPA_FOGBAND
 10
-90.599999999010663
 20
-21.952561880535541
 30
0.0
 42
0.577350269189699
  0
VERTEX
  5
20FE
  8
SAPA_FOGBAND
 10
-90.599999999010663
 20
-21.606151719021788
 30
0.0
  0
VERTEX
  5
20FF
  8
SAPA_FOGBAND
 10
-90.81690985323371
 20
-21.368104102290999
 30
0.0
  0
VERTEX
  5
2100
  8
SAPA_FOGBAND
 10
-90.81690985323371
 20
-20.590609492374259
 30
0.0
  0
VERTEX
  5
2101
  8
SAPA_FOGBAND
 10
-90.599999999010663
 20
-20.352561880535522
 30
0.0
 42
0.577350269189699
  0
VERTEX
  5
2102
  8
SAPA_FOGBAND
 10
-90.599999999010663
 20
-20.006151719021769
 30
0.0
  0
VERTEX
  5
2103
  8
SAPA_FOGBAND
 10
-90.81690985323371
 20
-19.76810410229098
 30
0.0
  0
VERTEX
  5
2104
  8
SAPA_FOGBAND
 10
-90.81690985323371
 20
-18.990609492374229
 30
0.0
  0
VERTEX
  5
2105
  8
SAPA_FOGBAND
 10
-90.599999999010663
 20
-18.752561880535609
 30
0.0
 42
0.5773502691896298
  0
VERTEX
  5
2106
  8
SAPA_FOGBAND
 10
-90.599999999010663
 20
-18.40615171902175
 30
0.0
  0
VERTEX
  5
2107
  8
SAPA_FOGBAND
 10
-90.81690985323371
 20
-18.16810410229095
 30
0.0
  0
VERTEX
  5
2108
  8
SAPA_FOGBAND
 10
-90.81690985323371
 20
-17.39060949237421
 30
0.0
  0
VERTEX
  5
2109
  8
SAPA_FOGBAND
 10
-90.599999999010663
 20
-17.152561880535579
 30
0.0
 42
0.5773502691896298
  0
VERTEX
  5
210A
  8
SAPA_FOGBAND
 10
-90.599999999010663
 20
-16.806151719021731
 30
0.0
  0
VERTEX
  5
210B
  8
SAPA_FOGBAND
 10
-90.81690985323371
 20
-16.568104102290931
 30
0.0
  0
VERTEX
  5
210C
  8
SAPA_FOGBAND
 10
-90.81690985323371
 20
-15.79060948820927
 30
0.0
  0
VERTEX
  5
210D
  8
SAPA_FOGBAND
 10
-90.599999999010663
 20
-15.552561876370531
 30
0.0
 42
0.577350269189699
  0
VERTEX
  5
210E
  8
SAPA_FOGBAND
 10
-90.599999999010663
 20
-15.206151714856791
 30
0.0
  0
VERTEX
  5
210F
  8
SAPA_FOGBAND
 10
-91.673330067495144
 20
-14.406151715301689
 30
0.0
 42
0.1316524987190269
  0
VERTEX
  5
2110
  8
SAPA_FOGBAND
 10
-91.773330068265864
 20
-14.37935679561372
 30
0.0
  0
VERTEX
  5
2111
  8
SAPA_FOGBAND
 10
-94.299999999010652
 20
-14.379356795613599
 30
0.0
 42
0.4142135623730951
  0
VERTEX
  5
2112
  8
SAPA_FOGBAND
 10
-94.499999999010697
 20
-14.57935679561365
 30
0.0
  0
VERTEX
  5
2113
  8
SAPA_FOGBAND
 10
-94.499999999010697
 20
-16.62935679561371
 30
0.0
 42
-0.4142135623730951
  0
VERTEX
  5
2114
  8
SAPA_FOGBAND
 10
-94.999999999010683
 20
-17.12935679561371
 30
0.0
  0
VERTEX
  5
2115
  8
SAPA_FOGBAND
 10
-95.726794918253859
 20
-17.12935679561371
 30
0.0
  0
VERTEX
  5
2116
  8
SAPA_FOGBAND
 10
-95.794254827564245
 20
-16.877592986593179
 30
0.0
 42
0.4740571810232869
  0
VERTEX
  5
2117
  8
SAPA_FOGBAND
 10
-96.076537413202914
 20
-16.750299124229631
 30
0.0
  0
VERTEX
  5
2118
  8
SAPA_FOGBAND
 10
-97.522743549962684
 20
-17.37039962698816
 30
0.0
 42
0.2846003776495916
  0
VERTEX
  5
2119
  8
SAPA_FOGBAND
 10
-97.799999999010652
 20
-17.818043805448379
 30
0.0
  0
VERTEX
  5
211A
  8
SAPA_FOGBAND
 10
-97.799999999010652
 20
-19.44066978577893
 30
0.0
 42
0.2846003776495917
  0
VERTEX
  5
211B
  8
SAPA_FOGBAND
 10
-97.522743549962684
 20
-19.88831396423916
 30
0.0
  0
VERTEX
  5
211C
  8
SAPA_FOGBAND
 10
-96.076537413202914
 20
-20.508414466997689
 30
0.0
 42
0.4740571810232869
  0
VERTEX
  5
211D
  8
SAPA_FOGBAND
 10
-95.794254827564245
 20
-20.38112060463413
 30
0.0
  0
VERTEX
  5
211E
  8
SAPA_FOGBAND
 10
-95.726794918253859
 20
-20.12935679561372
 30
0.0
  0
VERTEX
  5
211F
  8
SAPA_FOGBAND
 10
-94.999999999010683
 20
-20.12935679561372
 30
0.0
 42
-0.4142135623730951
  0
VERTEX
  5
2120
  8
SAPA_FOGBAND
 10
-94.499999999010697
 20
-20.62935679561372
 30
0.0
  0
VERTEX
  5
2121
  8
SAPA_FOGBAND
 10
-94.499999999010697
 20
-23.679356795613671
 30
0.0
 42
-0.4142135623730951
  0
VERTEX
  5
2122
  8
SAPA_FOGBAND
 10
-94.699999999010757
 20
-23.87935679561372
 30
0.0
  0
VERTEX
  5
2123
  8
SAPA_FOGBAND
 10
-95.599999999010706
 20
-23.879356795613599
 30
0.0
 42
0.4142135623731784
  0
VERTEX
  5
2124
  8
SAPA_FOGBAND
 10
-95.799999999010652
 20
-24.079356795613649
 30
0.0
  0
VERTEX
  5
2125
  8
SAPA_FOGBAND
 10
-95.799999999010765
 20
-24.77935679561369
 30
0.0
 42
0.4142135623730398
  0
VERTEX
  5
2126
  8
SAPA_FOGBAND
 10
-95.499999999010697
 20
-25.079356795613649
 30
0.0
  0
VERTEX
  5
2127
  8
SAPA_FOGBAND
 10
-94.689488222359145
 20
-25.079356795613649
 30
0.0
 42
-0.1316524975873973
  0
VERTEX
  5
2128
  8
SAPA_FOGBAND
 10
-93.689488222359159
 20
-25.347305988044809
 30
0.0
  0
VERTEX
  5
2129
  8
SAPA_FOGBAND
 10
-91.09992023026723
 20
-30.510151138085231
 30
0.0
 42
0.7057658529986604
  0
VERTEX
  5
212A
  8
SAPA_FOGBAND
 10
-90.499999999010697
 20
-30.242557962726892
 30
0.0
  0
SEQEND
  5
212B
  8
SAPA_FOGBAND
  0
DIMENSION
  5
13D3
  8
SAPA_MATT
  2
*D84
 10
148.49999999999901
 20
42.549455477510257
 30
0.0
 11
111.49999999999901
 21
45.299455477510257
 31
0.0
 70
     0
 13
74.499999999999034
 23
2.3999999999988968
 33
0.0
 14
148.49999999999901
 24
-2.600000000001728
 34
0.0
1001
ACAD
1000
DSTYLE
1002
{
1070
   287
1070
     4
1070
    40
1040
1.0
1070
   279
1070
     1
1002
}
  0
DIMENSION
  5
13D4
  8
SAPA_MATT
  2
*D83
 10
74.499999999999034
 20
42.549455477510257
 30
0.0
 11
69.499999999999005
 21
45.299455477510257
 31
0.0
 70
     0
 13
64.499999999998977
 23
24.5
 33
0.0
 14
74.499999999999034
 24
2.3999999999988968
 34
0.0
1001
ACAD
1000
DSTYLE
1002
{
1070
    40
1040
1.0
1002
}
  0
DIMENSION
  5
13D5
  8
SAPA_MATT
  2
*D82
 10
-133.85639635960229
 20
-37.000000000000391
 30
0.0
 11
-136.60639635960229
 21
-31.000000000000409
 31
0.0
 70
     0
 13
-113.9999999990108
 23
-25.000000000000401
 33
0.0
 14
-89.500000000001336
 24
-37.000000000000398
 34
0.0
 50
270.0
1001
ACAD
1000
DSTYLE
1002
{
1070
   287
1070
     4
1070
    40
1040
1.0
1070
   279
1070
     1
1002
}
  0
DIMENSION
  5
13D6
  8
SAPA_MATT
  2
*D81
 10
-133.8699098731158
 20
-25.000000000000391
 30
0.0
 11
-136.6199098731158
 21
-0.0000000000004071
 31
0.0
 70
     0
 13
-113.9999999990108
 23
24.99999999999962
 33
0.0
 14
-113.9999999990108
 24
-25.000000000000401
 34
0.0
 50
270.0
1001
ACAD
1000
DSTYLE
1002
{
1070
    40
1040
1.0
1002
}
  0
VIEWPORT
  5
C4
 67
     1
  8
0
 10
143.06236603067589
 20
116.00969601843509
 30
0.0
 40
369.98580003443811
 41
256.8421457311839
 68
     1
 69
     1
1001
ACAD
1000
MVIEW
1002
{
1070
    16
1010
0.0
1020
0.0
1030
0.0
1010
0.0
1020
0.0
1030
1.0
1040
0.0
1040
256.8421457311839
1040
99.112914085388169
1040
143.07606935501099
1040
50.0
1040
0.0
1040
0.0
1070
     0
1070
     0
1070
     1
1070
     1
1070
     0
1070
     0
1070
     0
1070
     0
1040
0.0
1040
0.0
1040
0.0
1040
10.0
1040
10.0
1040
10.0
1040
10.0
1070
     0
1002
{
1002
}
1002
}
  0
ENDSEC
  0
EOF
