  0
SECTION
  2
HEADER
  9
$ACADVER
  1
AC1009
  9
$INSBASE
 10
0.0
 20
0.0
 30
0.0
  9
$EXTMIN
 10
-65.965131157909298
 20
-135.3699098731156
 30
0.0
  9
$EXTMAX
 10
170.00000000007361
 20
167.8527372874531
 30
0.0
  9
$LIMMIN
 10
0.0
 20
0.0
  9
$LIMMAX
 10
790.0
 20
790.0
  9
$ORTHOMODE
 70
     1
  9
$REGENMODE
 70
     1
  9
$FILLMODE
 70
     1
  9
$QTEXTMODE
 70
     0
  9
$MIRRTEXT
 70
     1
  9
$DRAGMODE
 70
     2
  9
$LTSCALE
 40
4.0
  9
$OSMODE
 70
   167
  9
$ATTMODE
 70
     1
  9
$TEXTSIZE
 40
3.5
  9
$TRACEWID
 40
0.05
  9
$TEXTSTYLE
  7
ISO
  9
$CLAYER
  8
0
  9
$CELTYPE
  6
BYLAYER
  9
$CECOLOR
 62
   256
  9
$DIMSCALE
 40
0.0
  9
$DIMASZ
 40
3.0
  9
$DIMEXO
 40
1.5
  9
$DIMDLI
 40
10.0
  9
$DIMRND
 40
0.0
  9
$DIMDLE
 40
0.0
  9
$DIMEXE
 40
1.5
  9
$DIMTP
 40
0.0
  9
$DIMTM
 40
0.0
  9
$DIMTXT
 40
3.5
  9
$DIMCEN
 40
-5.0
  9
$DIMTSZ
 40
0.0
  9
$DIMTOL
 70
     0
  9
$DIMLIM
 70
     0
  9
$DIMTIH
 70
     0
  9
$DIMTOH
 70
     0
  9
$DIMSE1
 70
     0
  9
$DIMSE2
 70
     0
  9
$DIMTAD
 70
     1
  9
$DIMZIN
 70
     8
  9
$DIMBLK
  1

  9
$DIMASO
 70
     1
  9
$DIMSHO
 70
     1
  9
$DIMPOST
  1

  9
$DIMAPOST
  1

  9
$DIMALT
 70
     0
  9
$DIMALTD
 70
     0
  9
$DIMALTF
 40
25.399999999999999
  9
$DIMLFAC
 40
-1.0
  9
$DIMTOFL
 70
     1
  9
$DIMTVP
 40
0.0
  9
$DIMTIX
 70
     0
  9
$DIMSOXD
 70
     0
  9
$DIMSAH
 70
     0
  9
$DIMBLK1
  1

  9
$DIMBLK2
  1

  9
$DIMSTYLE
  2
MASKIN
  9
$DIMCLRD
 70
   256
  9
$DIMCLRE
 70
   256
  9
$DIMCLRT
 70
     2
  9
$DIMTFAC
 40
1.0
  9
$DIMGAP
 40
1.0
  9
$LUNITS
 70
     2
  9
$LUPREC
 70
     8
  9
$SKETCHINC
 40
0.1
  9
$FILLETRAD
 40
0.0
  9
$AUNITS
 70
     0
  9
$AUPREC
 70
     8
  9
$MENU
  1
ACAD
  9
$ELEVATION
 40
0.0
  9
$PELEVATION
 40
0.0
  9
$THICKNESS
 40
0.0
  9
$LIMCHECK
 70
     0
  9
$BLIPMODE
 70
     0
  9
$CHAMFERA
 40
0.0
  9
$CHAMFERB
 40
0.0
  9
$SKPOLY
 70
     0
  9
$TDCREATE
 40
2454995.3248952432
  9
$TDUPDATE
 40
2457059.6775624538
  9
$TDINDWG
 40
0.1518065162
  9
$TDUSRTIMER
 40
0.151806331
  9
$USRTIMER
 70
     1
  9
$ANGBASE
 50
0.0
  9
$ANGDIR
 70
     0
  9
$PDMODE
 70
     0
  9
$PDSIZE
 40
0.0
  9
$PLINEWID
 40
0.0
  9
$COORDS
 70
     1
  9
$SPLFRAME
 70
     0
  9
$SPLINETYPE
 70
     6
  9
$SPLINESEGS
 70
     8
  9
$ATTDIA
 70
     0
  9
$ATTREQ
 70
     1
  9
$HANDLING
 70
     1
  9
$HANDSEED
  5
2ADC
  9
$SURFTAB1
 70
     6
  9
$SURFTAB2
 70
     6
  9
$SURFTYPE
 70
     6
  9
$SURFU
 70
     6
  9
$SURFV
 70
     6
  9
$UCSNAME
  2

  9
$UCSORG
 10
0.0
 20
0.0
 30
0.0
  9
$UCSXDIR
 10
1.0
 20
0.0
 30
0.0
  9
$UCSYDIR
 10
0.0
 20
1.0
 30
0.0
  9
$PUCSNAME
  2

  9
$PUCSORG
 10
0.0
 20
0.0
 30
0.0
  9
$PUCSXDIR
 10
1.0
 20
0.0
 30
0.0
  9
$PUCSYDIR
 10
0.0
 20
1.0
 30
0.0
  9
$USERI1
 70
     0
  9
$USERI2
 70
     0
  9
$USERI3
 70
     0
  9
$USERI4
 70
     0
  9
$USERI5
 70
     0
  9
$USERR1
 40
0.0
  9
$USERR2
 40
0.0
  9
$USERR3
 40
0.0
  9
$USERR4
 40
0.0
  9
$USERR5
 40
0.0
  9
$WORLDVIEW
 70
     1
  9
$SHADEDGE
 70
     3
  9
$SHADEDIF
 70
    70
  9
$TILEMODE
 70
     1
  9
$MAXACTVP
 70
    16
  9
$PLIMCHECK
 70
     0
  9
$PEXTMIN
 10
1.0000000000000000E+020
 20
1.0000000000000000E+020
 30
1.0000000000000000E+020
  9
$PEXTMAX
 10
-1.0000000000000000E+020
 20
-1.0000000000000000E+020
 30
-1.0000000000000000E+020
  9
$PLIMMIN
 10
-5.069427490234375
 20
-5.8737497329711914
  9
$PLIMMAX
 10
291.89889526367187
 20
204.0995779037475
  9
$UNITMODE
 70
     0
  9
$VISRETAIN
 70
     1
  9
$PLINEGEN
 70
     0
  9
$PSLTSCALE
 70
     1
  0
ENDSEC
  0
SECTION
  2
TABLES
  0
TABLE
  2
VPORT
 70
     1
  0
VPORT
  2
*ACTIVE
 70
     0
 10
0.0
 20
0.0
 11
1.0
 21
1.0
 12
-1.4373016692898091
 22
85.026809985103057
 13
0.0
 23
0.0
 14
1.0
 24
1.0
 15
0.0
 25
0.0
 16
0.0
 26
0.0
 36
1.0
 17
0.0
 27
0.0
 37
0.0
 40
248.72867489531609
 41
2.9026915113871632
 42
50.0
 43
0.0
 44
0.0
 50
0.0
 51
0.0
 71
     0
 72
   100
 73
     1
 74
     1
 75
     0
 76
     0
 77
     0
 78
     0
  0
ENDTAB
  0
TABLE
  2
LTYPE
 70
    41
  0
LTYPE
  2
CONTINUOUS
 70
     0
  3
Solid line
 72
    65
 73
     0
 40
0.0
  0
LTYPE
  2
BYGG-01482201$0$NEWDOT
 70
     0
  3
____ . ____ . ____ . ____ . ____ . ____ . ____
 72
    65
 73
     4
 40
2.0
 49
1.0
 49
-0.5
 49
0.0
 49
-0.5
  0
LTYPE
  2
BYGG-023714$0$NEWDOT
 70
     0
  3
____ . ____ . ____ . ____ . ____ . ____ . ____
 72
    65
 73
     4
 40
2.0
 49
1.0
 49
-0.5
 49
0.0
 49
-0.5
  0
LTYPE
  2
BYGG-023714$0$DASHDOT
 70
     0
  3
__ . __ . __ . __ . __ . __ . __ . __ . __ . __
 72
    65
 73
     4
 40
1.0
 49
0.5
 49
-0.25
 49
0.0
 49
-0.25
  0
LTYPE
  2
BYGG-023714$0$DASHED
 70
     0
  3
__ __ __ __ __ __ __ __ __ __ __ __ __ __ __
 72
    65
 73
     2
 40
0.75
 49
0.5
 49
-0.25
  0
LTYPE
  2
BYGG-023714$0$PHANTOM
 70
     0
  3
Phantom ______  __  __  ______  __  __  ______
 72
    65
 73
     6
 40
63.5
 49
31.75
 49
-6.3499999999999988
 49
6.3499999999999988
 49
-6.3499999999999988
 49
6.3499999999999988
 49
-6.3499999999999988
  0
LTYPE
  2
BYGG-014279$0$NEWDOT
 70
     0
  3
____ . ____ . ____ . ____ . ____ . ____ . ____
 72
    65
 73
     4
 40
2.0
 49
1.0
 49
-0.5
 49
0.0
 49
-0.5
  0
LTYPE
  2
BYGG-01482201$0$ZIGZAG
 70
     0
  3
Zig zag /\/\/\/\/\/\/\/\/\/\/\/\/\/\/\/\/\/\/\/\/\/\/\/
 72
    65
 73
     4
 40
20.32254
 49
0.00254
 49
-5.0800000000000001
 49
-10.16
 49
-5.0800000000000001
  0
LTYPE
  2
BYGG-023714$0$ZIGZAG
 70
     0
  3
Zig zag /\/\/\/\/\/\/\/\/\/\/\/\/\/\/\/\/\/\/\/\/\/\/\/
 72
    65
 73
     4
 40
20.32254
 49
0.00254
 49
-5.0800000000000001
 49
-10.16
 49
-5.0800000000000001
  0
LTYPE
  2
BYGG-014279$0$ZIGZAG
 70
     0
  3
Zig zag /\/\/\/\/\/\/\/\/\/\/\/\/\/\/\/\/\/\/\/\/\/\/\/
 72
    65
 73
     4
 40
20.32254
 49
0.00254
 49
-5.0800000000000001
 49
-10.16
 49
-5.0800000000000001
  0
LTYPE
  2
BYGG-014410$0$NEWDOT
 70
     0
  3
____ . ____ . ____ . ____ . ____ . ____ . ____
 72
    65
 73
     4
 40
2.0
 49
1.0
 49
-0.5
 49
0.0
 49
-0.5
  0
LTYPE
  2
BYGG-014410$0$ZIGZAG
 70
     0
  3
Zig zag /\/\/\/\/\/\/\/\/\/\/\/\/\/\/\/\/\/\/\/\/\/\/\/
 72
    65
 73
     4
 40
20.32254
 49
0.00254
 49
-5.0800000000000001
 49
-10.16
 49
-5.0800000000000001
  0
LTYPE
  2
BYGG-028946$0$NEWDOT
 70
     0
  3
____ . ____ . ____ . ____ . ____ . ____ . ____
 72
    65
 73
     4
 40
2.0
 49
1.0
 49
-0.5
 49
0.0
 49
-0.5
  0
LTYPE
  2
BYGG-028946$0$DASHDOT
 70
     0
  3
__ . __ . __ . __ . __ . __ . __ . __ . __ . __
 72
    65
 73
     4
 40
1.0
 49
0.5
 49
-0.25
 49
0.0
 49
-0.25
  0
LTYPE
  2
BYGG-028946$0$DASHED
 70
     0
  3
__ __ __ __ __ __ __ __ __ __ __ __ __ __ __
 72
    65
 73
     2
 40
0.75
 49
0.5
 49
-0.25
  0
LTYPE
  2
BYGG-028946$0$PHANTOM
 70
     0
  3
Phantom ______  __  __  ______  __  __  ______
 72
    65
 73
     6
 40
63.5
 49
31.75
 49
-6.3499999999999988
 49
6.3499999999999988
 49
-6.3499999999999988
 49
6.3499999999999988
 49
-6.3499999999999988
  0
LTYPE
  2
BYGG-028946$0$ZIGZAG
 70
     0
  3
Zig zag /\/\/\/\/\/\/\/\/\/\/\/\/\/\/\/\/\/\/\/\/\/\/\/
 72
    65
 73
     4
 40
20.32254
 49
0.00254
 49
-5.0800000000000001
 49
-10.16
 49
-5.0800000000000001
  0
LTYPE
  2
BYGG-028947$0$NEWDOT
 70
     0
  3
____ . ____ . ____ . ____ . ____ . ____ . ____
 72
    65
 73
     4
 40
2.0
 49
1.0
 49
-0.5
 49
0.0
 49
-0.5
  0
LTYPE
  2
BYGG-028947$0$DASHDOT
 70
     0
  3
__ . __ . __ . __ . __ . __ . __ . __ . __ . __
 72
    65
 73
     4
 40
1.0
 49
0.5
 49
-0.25
 49
0.0
 49
-0.25
  0
LTYPE
  2
BYGG-028947$0$DASHED
 70
     0
  3
__ __ __ __ __ __ __ __ __ __ __ __ __ __ __
 72
    65
 73
     2
 40
0.75
 49
0.5
 49
-0.25
  0
LTYPE
  2
BYGG-028947$0$PHANTOM
 70
     0
  3
Phantom ______  __  __  ______  __  __  ______
 72
    65
 73
     6
 40
63.5
 49
31.75
 49
-6.3499999999999988
 49
6.3499999999999988
 49
-6.3499999999999988
 49
6.3499999999999988
 49
-6.3499999999999988
  0
LTYPE
  2
BYGG-028947$0$ZIGZAG
 70
     0
  3
Zig zag /\/\/\/\/\/\/\/\/\/\/\/\/\/\/\/\/\/\/\/\/\/\/\/
 72
    65
 73
     4
 40
20.32254
 49
0.00254
 49
-5.0800000000000001
 49
-10.16
 49
-5.0800000000000001
  0
LTYPE
  2
BYGG-020805$0$NEWDOT
 70
     0
  3
____ . ____ . ____ . ____ . ____ . ____ . ____
 72
    65
 73
     4
 40
2.0
 49
1.0
 49
-0.5
 49
0.0
 49
-0.5
  0
LTYPE
  2
BYGG-020805$0$DASHDOT
 70
     0
  3
__ . __ . __ . __ . __ . __ . __ . __ . __ . __
 72
    65
 73
     4
 40
1.0
 49
0.5
 49
-0.25
 49
0.0
 49
-0.25
  0
LTYPE
  2
BYGG-020805$0$DASHED
 70
     0
  3
__ __ __ __ __ __ __ __ __ __ __ __ __ __ __
 72
    65
 73
     2
 40
0.75
 49
0.5
 49
-0.25
  0
LTYPE
  2
BYGG-020805$0$PHANTOM
 70
     0
  3
Phantom ______  __  __  ______  __  __  ______
 72
    65
 73
     6
 40
63.5
 49
31.75
 49
-6.3499999999999988
 49
6.3499999999999988
 49
-6.3499999999999988
 49
6.3499999999999988
 49
-6.3499999999999988
  0
LTYPE
  2
BYGG-025725$0$NEWDOT
 70
     0
  3
____ . ____ . ____ . ____ . ____ . ____ . ____
 72
    65
 73
     4
 40
2.0
 49
1.0
 49
-0.5
 49
0.0
 49
-0.5
  0
LTYPE
  2
BYGG-025725$0$DASHDOT
 70
     0
  3
__ . __ . __ . __ . __ . __ . __ . __ . __ . __
 72
    65
 73
     4
 40
1.0
 49
0.5
 49
-0.25
 49
0.0
 49
-0.25
  0
LTYPE
  2
BYGG-025725$0$DASHED
 70
     0
  3
__ __ __ __ __ __ __ __ __ __ __ __ __ __ __
 72
    65
 73
     2
 40
0.75
 49
0.5
 49
-0.25
  0
LTYPE
  2
BYGG-025725$0$PHANTOM
 70
     0
  3
Phantom ______  __  __  ______  __  __  ______
 72
    65
 73
     6
 40
63.5
 49
31.75
 49
-6.3499999999999988
 49
6.3499999999999988
 49
-6.3499999999999988
 49
6.3499999999999988
 49
-6.3499999999999988
  0
LTYPE
  2
BYGG-025114$0$NEWDOT
 70
     0
  3
____ . ____ . ____ . ____ . ____ . ____ . ____
 72
    65
 73
     4
 40
2.0
 49
1.0
 49
-0.5
 49
0.0
 49
-0.5
  0
LTYPE
  2
BYGG-025114$0$DASHDOT
 70
     0
  3
__ . __ . __ . __ . __ . __ . __ . __ . __ . __
 72
    65
 73
     4
 40
1.0
 49
0.5
 49
-0.25
 49
0.0
 49
-0.25
  0
LTYPE
  2
BYGG-025114$0$DASHED
 70
     0
  3
__ __ __ __ __ __ __ __ __ __ __ __ __ __ __
 72
    65
 73
     2
 40
0.75
 49
0.5
 49
-0.25
  0
LTYPE
  2
BYGG-025114$0$PHANTOM
 70
     0
  3
Phantom ______  __  __  ______  __  __  ______
 72
    65
 73
     6
 40
63.5
 49
31.75
 49
-6.3499999999999988
 49
6.3499999999999988
 49
-6.3499999999999988
 49
6.3499999999999988
 49
-6.3499999999999988
  0
LTYPE
  2
BYGG-029014$0$NEWDOT
 70
     0
  3
____ . ____ . ____ . ____ . ____ . ____ . ____
 72
    65
 73
     4
 40
2.0
 49
1.0
 49
-0.5
 49
0.0
 49
-0.5
  0
LTYPE
  2
BYGG-029014$0$DASHDOT
 70
     0
  3
__ . __ . __ . __ . __ . __ . __ . __ . __ . __
 72
    65
 73
     4
 40
1.0
 49
0.5
 49
-0.25
 49
0.0
 49
-0.25
  0
LTYPE
  2
BYGG-029014$0$DASHED
 70
     0
  3
__ __ __ __ __ __ __ __ __ __ __ __ __ __ __
 72
    65
 73
     2
 40
0.75
 49
0.5
 49
-0.25
  0
LTYPE
  2
BYGG-029014$0$PHANTOM
 70
     0
  3
Phantom ______  __  __  ______  __  __  ______
 72
    65
 73
     6
 40
63.5
 49
31.75
 49
-6.3499999999999988
 49
6.3499999999999988
 49
-6.3499999999999988
 49
6.3499999999999988
 49
-6.3499999999999988
  0
LTYPE
  2
BYGG-014495$0$DASHDOT
 70
     0
  3
__ . __ . __ . __ . __ . __ . __ . __ . __ . __
 72
    65
 73
     4
 40
1.0
 49
0.5
 49
-0.25
 49
0.0
 49
-0.25
  0
LTYPE
  2
BYGG-014410$0$PHANTOM2
 70
     0
  3
Phantom (.5x) ___ _ _ ___ _ _ ___ _ _ ___ _ _
 72
    65
 73
     6
 40
1.25
 49
0.625
 49
-0.125
 49
0.125
 49
-0.125
 49
0.125
 49
-0.125
  0
LTYPE
  2
BYGG-028946$0$PHANTOM2
 70
     0
  3
Phantom (.5x) ___ _ _ ___ _ _ ___ _ _ ___ _ _
 72
    65
 73
     6
 40
1.25
 49
0.625
 49
-0.125
 49
0.125
 49
-0.125
 49
0.125
 49
-0.125
  0
ENDTAB
  0
TABLE
  2
LAYER
 70
   239
  0
LAYER
  2
0
 70
     0
 62
     7
  6
CONTINUOUS
  0
LAYER
  2
DEFPOINTS
 70
     0
 62
     7
  6
CONTINUOUS
  0
LAYER
  2
SAPA_LIGHT
 70
     1
 62
     1
  6
CONTINUOUS
  0
LAYER
  2
SAPA_ARTIKELNR
 70
     0
 62
     4
  6
CONTINUOUS
  0
LAYER
  2
SAPA_PROFIL
 70
     0
 62
     7
  6
CONTINUOUS
  0
LAYER
  2
SAPA_ANSLUTNING
 70
     0
 62
     6
  6
CONTINUOUS
  0
LAYER
  2
BYGG-029014$0$LIST
 70
     0
 62
     2
  6
CONTINUOUS
  0
LAYER
  2
SAPA_ISOLATOR
 70
     0
 62
     4
  6
CONTINUOUS
  0
LAYER
  2
SAPA_MATT
 70
     0
 62
     1
  6
CONTINUOUS
  0
LAYER
  2
SAPA_GLAS
 70
     0
 62
     4
  6
CONTINUOUS
  0
LAYER
  2
SAPA_FOGBAND
 70
     0
 62
     2
  6
CONTINUOUS
  0
ENDTAB
  0
TABLE
  2
STYLE
 70
    44
  0
STYLE
  2
STANDARD
 70
     0
 40
0.0
 41
1.0
 50
0.0
 71
     0
 42
0.2
  3
txt
  4

  0
STYLE
  2
ISO
 70
     0
 40
0.0
 41
1.0
 50
0.0
 71
     0
 42
3.5
  3
txt
  4

  0
STYLE
  2

 70
     1
 40
0.0
 41
1.0
 50
0.0
 71
     0
 42
0.2
  3
ltypeshp.shx
  4

  0
STYLE
  2
BYGG-021589$0$STANDARD
 70
     0
 40
0.0
 41
1.0
 50
0.0
 71
     0
 42
0.2
  3
txt
  4

  0
STYLE
  2
BYGG-021589$0$ISO
 70
     0
 40
0.0
 41
1.0
 50
0.0
 71
     0
 42
3.5
  3
isocp3.shx
  4

  0
STYLE
  2
BYGG-01482201$0$STANDARD
 70
     0
 40
0.0
 41
1.0
 50
0.0
 71
     0
 42
0.2
  3
txt
  4

  0
STYLE
  2
BYGG-01482201$0$ISO
 70
     0
 40
0.0
 41
1.0
 50
0.0
 71
     0
 42
3.5
  3
isocp3.shx
  4

  0
STYLE
  2
BYGG-023717$0$STANDARD
 70
     0
 40
0.0
 41
1.0
 50
0.0
 71
     0
 42
0.2
  3
txt
  4

  0
STYLE
  2
BYGG-023717$0$ISO
 70
     0
 40
0.0
 41
1.0
 50
0.0
 71
     0
 42
3.5
  3
txt
  4

  0
STYLE
  2
BYGG-023714$0$STANDARD
 70
     0
 40
0.0
 41
1.0
 50
0.0
 71
     0
 42
0.2
  3
txt
  4

  0
STYLE
  2
BYGG-023714$0$ISO
 70
     0
 40
0.0
 41
1.0
 50
0.0
 71
     0
 42
3.5
  3
txt
  4

  0
STYLE
  2
BYGG-019338$0$STANDARD
 70
     0
 40
0.0
 41
1.0
 50
0.0
 71
     0
 42
0.2
  3
txt
  4

  0
STYLE
  2
BYGG-019338$0$ISO
 70
     0
 40
0.0
 41
1.0
 50
0.0
 71
     0
 42
3.5
  3
txt
  4

  0
STYLE
  2
BYGG-023917$0$STANDARD
 70
     0
 40
0.0
 41
1.0
 50
0.0
 71
     0
 42
0.2
  3
txt
  4

  0
STYLE
  2
BYGG-023917$0$ISO
 70
     0
 40
0.0
 41
1.0
 50
0.0
 71
     0
 42
3.5
  3
txt
  4

  0
STYLE
  2
BYGG-021582$0$STANDARD
 70
     0
 40
0.0
 41
1.0
 50
0.0
 71
     0
 42
0.2
  3
txt
  4

  0
STYLE
  2
BYGG-021582$0$ISO
 70
     0
 40
0.0
 41
1.0
 50
0.0
 71
     0
 42
3.5
  3
isocp3.shx
  4

  0
STYLE
  2
BYGG-014279$0$STANDARD
 70
     0
 40
0.0
 41
1.0
 50
0.0
 71
     0
 42
0.2
  3
TXT.shx
  4

  0
STYLE
  2
BYGG-014279$0$ISO
 70
     0
 40
0.0
 41
1.0
 50
0.0
 71
     0
 42
3.5
  3
iso
  4

  0
STYLE
  2
BYGG-021809$0$STANDARD
 70
     0
 40
0.0
 41
1.0
 50
0.0
 71
     0
 42
0.2
  3
txt
  4

  0
STYLE
  2
BYGG-021809$0$ISO
 70
     0
 40
0.0
 41
1.0
 50
0.0
 71
     0
 42
3.5
  3
txt
  4

  0
STYLE
  2
BYGG-014410$0$STANDARD
 70
     0
 40
0.0
 41
1.0
 50
0.0
 71
     0
 42
0.2
  3
txt
  4

  0
STYLE
  2
BYGG-014410$0$ISO
 70
     0
 40
0.0
 41
1.0
 50
0.0
 71
     0
 42
3.5
  3
isocp3.shx
  4

  0
STYLE
  2
BYGG-020805$0$STANDARD
 70
     0
 40
0.0
 41
1.0
 50
0.0
 71
     0
 42
0.2
  3
txt
  4

  0
STYLE
  2
BYGG-020805$0$ISO
 70
     0
 40
0.0
 41
1.0
 50
0.0
 71
     0
 42
3.5
  3
txt
  4

  0
STYLE
  2
BYGG-025725$0$STANDARD
 70
     0
 40
0.0
 41
1.0
 50
0.0
 71
     0
 42
0.2
  3
txt
  4

  0
STYLE
  2
BYGG-025725$0$ISO
 70
     0
 40
0.0
 41
1.0
 50
0.0
 71
     0
 42
3.5
  3
txt
  4

  0
STYLE
  2
BYGG-025114$0$STANDARD
 70
     0
 40
0.0
 41
1.0
 50
0.0
 71
     0
 42
0.2
  3
txt
  4

  0
STYLE
  2
BYGG-025114$0$ISO
 70
     0
 40
0.0
 41
1.0
 50
0.0
 71
     0
 42
3.5
  3
txt
  4

  0
STYLE
  2
BYGG-029014$0$STANDARD
 70
     0
 40
0.0
 41
1.0
 50
0.0
 71
     0
 42
0.2
  3
txt
  4

  0
STYLE
  2
BYGG-029014$0$ISO
 70
     0
 40
0.0
 41
1.0
 50
0.0
 71
     0
 42
3.5
  3
txt
  4

  0
STYLE
  2
BYGG-014495$0$STANDARD
 70
     0
 40
0.0
 41
1.0
 50
0.0
 71
     0
 42
0.2
  3
txt
  4

  0
STYLE
  2
BYGG-014495$0$ISO
 70
     0
 40
0.0
 41
1.0
 50
0.0
 71
     0
 42
3.5
  3
isocp3.shx
  4

  0
STYLE
  2
BYGG-028946$0$STANDARD
 70
     0
 40
0.0
 41
1.0
 50
0.0
 71
     0
 42
0.2
  3
txt
  4

  0
STYLE
  2
BYGG-028946$0$ISO
 70
     0
 40
0.0
 41
1.0
 50
0.0
 71
     0
 42
3.5
  3
txt
  4

  0
STYLE
  2
BYGG-028946$0$ANNOTATIVE
 70
     0
 40
0.0
 41
1.0
 50
0.0
 71
     0
 42
0.2
  3
txt
  4

  0
STYLE
  2
BYGG-028947$0$STANDARD
 70
     0
 40
0.0
 41
1.0
 50
0.0
 71
     0
 42
0.2
  3
txt
  4

  0
STYLE
  2
BYGG-028947$0$ISO
 70
     0
 40
0.0
 41
1.0
 50
0.0
 71
     0
 42
3.5
  3
txt
  4

  0
STYLE
  2
BYGG-024973$0$STANDARD
 70
     0
 40
0.0
 41
1.0
 50
0.0
 71
     0
 42
0.2
  3
txt
  4

  0
STYLE
  2
BYGG-024973$0$ISO
 70
     0
 40
0.0
 41
1.0
 50
0.0
 71
     0
 42
3.5
  3
txt
  4

  0
STYLE
  2
BYGG-025081$0$STANDARD
 70
     0
 40
0.0
 41
1.0
 50
0.0
 71
     0
 42
0.2
  3
txt
  4

  0
STYLE
  2
BYGG-025081$0$ISO
 70
     0
 40
0.0
 41
1.0
 50
0.0
 71
     0
 42
3.5
  3
txt
  4

  0
STYLE
  2
BYGG-029000$0$STANDARD
 70
     0
 40
0.0
 41
1.0
 50
0.0
 71
     0
 42
0.2
  3
txt
  4

  0
STYLE
  2
BYGG-029000$0$ISO
 70
     0
 40
0.0
 41
1.0
 50
0.0
 71
     0
 42
3.5
  3
txt
  4

  0
ENDTAB
  0
TABLE
  2
VIEW
 70
     0
  0
ENDTAB
  0
TABLE
  2
UCS
 70
     0
  0
ENDTAB
  0
TABLE
  2
APPID
 70
    25
  0
APPID
  2
ACAD
 70
     0
  0
APPID
  2
ACAD_DSTYLE_DIMTEXT_FILL
 70
     0
  0
APPID
  2
ACAD_DSTYLE_DIMEXT_LENGTH
 70
     0
  0
APPID
  2
ACAD_DSTYLE_DIMEXT_ENABLED
 70
     0
  0
APPID
  2
ACAD_DSTYLE_DIM_LINETYPE
 70
     0
  0
APPID
  2
ACAD_DSTYLE_DIM_EXT1_LINETYPE
 70
     0
  0
APPID
  2
ACAD_DSTYLE_DIM_EXT2_LINETYPE
 70
     0
  0
APPID
  2
ACAD_DSTYLE_DIMJOGGED_JOGA
 70
     0
  0
APPID
  2
ACAD_DSTYLE_DIMARC_LENGTH_
 70
     0
  0
APPID
  2
ACAD_PSEXT
 70
     0
  0
APPID
  2
ACAD_MLEADERVER
 70
     0
  0
APPID
  2
AMG_ARCHIVE11
 70
     0
  0
APPID
  2
ACADANNOTATIVE
 70
     0
  0
APPID
  2
ACAECLAYERSTANDARD
 70
     0
  0
APPID
  2
ACAD_EXEMPT_FROM_CAD_STANDARDS
 70
     0
  0
APPID
  2
ACDBDYNAMICBLOCKGUID
 70
     0
  0
APPID
  2
ACDBBLOCKREPETAG
 70
     0
  0
APPID
  2
ACAD_DSTYLE_DIMJAG
 70
     0
  0
APPID
  2
ACAD_DSTYLE_DIMTALN
 70
     0
  0
APPID
  2
RC_PROFILE
 70
     0
  0
APPID
  2
ACAD_NAV_VCDISPLAY
 70
     0
  0
APPID
  2
DCO15
 70
     0
  0
APPID
  2
AEC_XDATA_BOUND_SPACE
 70
     0
  0
APPID
  2
ACCMTRANSPARENCY
 70
     0
  0
APPID
  2
CONTENTBLOCKICON
 70
     0
  0
ENDTAB
  0
TABLE
  2
DIMSTYLE
 70
    39
  0
DIMSTYLE
  2
MASKIN
 70
     0
  3

  4

  5

  6

  7

 40
0.0
 41
3.0
 42
1.5
 43
10.0
 44
1.5
 45
0.0
 46
0.0
 47
0.0
 48
0.0
140
3.5
141
-5.0
142
0.0
143
25.399999999999999
144
-1.0
145
0.0
146
1.0
147
1.0
 71
     0
 72
     0
 73
     0
 74
     0
 75
     0
 76
     0
 77
     1
 78
     8
170
     0
171
     0
172
     1
173
     0
174
     0
175
     0
176
   256
177
   256
178
     2
  0
DIMSTYLE
  2
BYGG-021589$0$MASKIN
 70
     0
  3

  4

  5

  6

  7

 40
0.0
 41
3.0
 42
1.5
 43
10.0
 44
1.5
 45
0.0
 46
0.0
 47
0.0
 48
0.0
140
3.0
141
-5.0
142
0.0
143
25.399999999999999
144
-1.0
145
0.0
146
1.0
147
1.0
 71
     0
 72
     0
 73
     0
 74
     0
 75
     0
 76
     0
 77
     1
 78
     8
170
     0
171
     0
172
     1
173
     0
174
     0
175
     0
176
   256
177
   256
178
   256
  0
DIMSTYLE
  2
BYGG-01482201$0$STANDARD
 70
     0
  3

  4

  5

  6

  7

 40
1.0
 41
0.18
 42
0.0625
 43
0.38
 44
0.18
 45
0.0
 46
0.0
 47
0.0
 48
0.0
140
0.18
141
0.09
142
0.0
143
25.399999999999999
144
1.0
145
0.0
146
1.0
147
0.09
 71
     0
 72
     0
 73
     1
 74
     1
 75
     0
 76
     0
 77
     0
 78
     0
170
     0
171
     2
172
     0
173
     0
174
     0
175
     0
176
     0
177
     0
178
     0
  0
DIMSTYLE
  2
BYGG-01482201$0$MASKIN
 70
     0
  3

  4

  5

  6

  7

 40
0.0
 41
3.0
 42
1.5
 43
10.0
 44
1.5
 45
0.0
 46
0.0
 47
0.0
 48
0.0
140
3.0
141
-5.0
142
0.0
143
25.399999999999999
144
-1.0
145
0.0
146
1.0
147
1.0
 71
     0
 72
     0
 73
     0
 74
     1
 75
     0
 76
     0
 77
     1
 78
     8
170
     0
171
     0
172
     1
173
     0
174
     0
175
     0
176
   256
177
   256
178
     2
  0
DIMSTYLE
  2
BYGG-023717$0$STANDARD
 70
     0
  3

  4

  5

  6

  7

 40
1.0
 41
0.18
 42
0.0625
 43
0.38
 44
0.18
 45
0.0
 46
0.0
 47
0.0
 48
0.0
140
0.18
141
0.09
142
0.0
143
25.399999999999999
144
1.0
145
0.0
146
1.0
147
0.09
 71
     0
 72
     0
 73
     1
 74
     1
 75
     0
 76
     0
 77
     0
 78
     0
170
     0
171
     2
172
     0
173
     0
174
     0
175
     0
176
     0
177
     0
178
     0
  0
DIMSTYLE
  2
BYGG-023717$0$MASKIN
 70
     0
  3

  4

  5

  6

  7

 40
0.0
 41
3.0
 42
1.5
 43
10.0
 44
1.5
 45
0.0
 46
0.0
 47
0.0
 48
0.0
140
3.0
141
-5.0
142
0.0
143
25.399999999999999
144
-1.0
145
0.0
146
1.0
147
1.0
 71
     0
 72
     0
 73
     0
 74
     0
 75
     0
 76
     0
 77
     1
 78
     8
170
     0
171
     0
172
     1
173
     0
174
     0
175
     0
176
   256
177
   256
178
     2
  0
DIMSTYLE
  2
BYGG-023714$0$STANDARD
 70
     0
  3

  4

  5

  6

  7

 40
1.0
 41
0.18
 42
0.0625
 43
0.38
 44
0.18
 45
0.0
 46
0.0
 47
0.0
 48
0.0
140
0.18
141
0.09
142
0.0
143
25.399999999999999
144
1.0
145
0.0
146
1.0
147
0.09
 71
     0
 72
     0
 73
     1
 74
     1
 75
     0
 76
     0
 77
     0
 78
     0
170
     0
171
     2
172
     0
173
     0
174
     0
175
     0
176
     0
177
     0
178
     0
  0
DIMSTYLE
  2
BYGG-023714$0$MASKIN
 70
     0
  3

  4

  5

  6

  7

 40
0.0
 41
3.0
 42
1.5
 43
10.0
 44
1.5
 45
0.0
 46
0.0
 47
0.0
 48
0.0
140
3.0
141
-5.0
142
0.0
143
25.399999999999999
144
-1.0
145
0.0
146
1.0
147
1.0
 71
     0
 72
     0
 73
     0
 74
     0
 75
     0
 76
     0
 77
     1
 78
     8
170
     0
171
     0
172
     1
173
     0
174
     0
175
     0
176
   256
177
   256
178
     2
  0
DIMSTYLE
  2
BYGG-019338$0$STANDARD
 70
     0
  3

  4

  5

  6

  7

 40
1.0
 41
0.18
 42
0.0625
 43
0.38
 44
0.18
 45
0.0
 46
0.0
 47
0.0
 48
0.0
140
0.18
141
0.09
142
0.0
143
25.399999999999999
144
1.0
145
0.0
146
1.0
147
0.09
 71
     0
 72
     0
 73
     1
 74
     1
 75
     0
 76
     0
 77
     0
 78
     0
170
     0
171
     2
172
     0
173
     0
174
     0
175
     0
176
     0
177
     0
178
     0
  0
DIMSTYLE
  2
BYGG-019338$0$MASKIN
 70
     0
  3

  4

  5

  6

  7

 40
0.0
 41
3.0
 42
1.5
 43
10.0
 44
1.5
 45
0.0
 46
0.0
 47
0.0
 48
0.0
140
3.0
141
-5.0
142
0.0
143
25.399999999999999
144
-1.0
145
0.0
146
1.0
147
1.0
 71
     0
 72
     0
 73
     0
 74
     0
 75
     0
 76
     0
 77
     1
 78
     8
170
     0
171
     0
172
     1
173
     0
174
     0
175
     0
176
   256
177
   256
178
     2
  0
DIMSTYLE
  2
BYGG-023917$0$STANDARD
 70
     0
  3

  4

  5

  6

  7

 40
1.0
 41
0.18
 42
0.0625
 43
0.38
 44
0.18
 45
0.0
 46
0.0
 47
0.0
 48
0.0
140
0.18
141
0.09
142
0.0
143
25.399999999999999
144
1.0
145
0.0
146
1.0
147
0.09
 71
     0
 72
     0
 73
     1
 74
     1
 75
     0
 76
     0
 77
     0
 78
     0
170
     0
171
     2
172
     0
173
     0
174
     0
175
     0
176
     0
177
     0
178
     0
  0
DIMSTYLE
  2
BYGG-023917$0$MASKIN
 70
     0
  3

  4

  5

  6

  7

 40
0.0
 41
3.0
 42
1.5
 43
10.0
 44
1.5
 45
0.0
 46
0.0
 47
0.0
 48
0.0
140
3.0
141
-5.0
142
0.0
143
25.399999999999999
144
-1.0
145
0.0
146
1.0
147
1.0
 71
     0
 72
     0
 73
     0
 74
     0
 75
     0
 76
     0
 77
     1
 78
     8
170
     0
171
     0
172
     1
173
     0
174
     0
175
     0
176
   256
177
   256
178
     2
  0
DIMSTYLE
  2
BYGG-021582$0$MASKIN
 70
     0
  3

  4

  5

  6

  7

 40
0.0
 41
3.0
 42
1.5
 43
10.0
 44
1.5
 45
0.0
 46
0.0
 47
0.0
 48
0.0
140
3.0
141
-5.0
142
0.0
143
25.399999999999999
144
-1.0
145
0.0
146
1.0
147
1.0
 71
     0
 72
     0
 73
     0
 74
     0
 75
     0
 76
     0
 77
     1
 78
     8
170
     0
171
     0
172
     1
173
     0
174
     0
175
     0
176
   256
177
   256
178
   256
  0
DIMSTYLE
  2
BYGG-014279$0$STANDARD
 70
     0
  3

  4

  5

  6

  7

 40
1.0
 41
0.18
 42
0.0625
 43
0.38
 44
0.18
 45
0.0
 46
0.0
 47
0.0
 48
0.0
140
0.18
141
0.09
142
0.0
143
25.399999999999999
144
1.0
145
0.0
146
1.0
147
0.09
 71
     0
 72
     0
 73
     1
 74
     1
 75
     0
 76
     0
 77
     0
 78
     0
170
     0
171
     2
172
     0
173
     0
174
     0
175
     0
176
     0
177
     0
178
     0
  0
DIMSTYLE
  2
BYGG-014279$0$MASKIN
 70
     0
  3

  4

  5

  6

  7

 40
0.0
 41
3.0
 42
1.5
 43
10.0
 44
1.5
 45
0.0
 46
0.0
 47
0.0
 48
0.0
140
3.0
141
-5.0
142
0.0
143
25.399999999999999
144
-1.0
145
0.0
146
1.0
147
1.0
 71
     0
 72
     0
 73
     0
 74
     1
 75
     0
 76
     0
 77
     1
 78
     8
170
     0
171
     0
172
     1
173
     0
174
     0
175
     0
176
   256
177
   256
178
     2
  0
DIMSTYLE
  2
BYGG-021809$0$STANDARD
 70
     0
  3

  4

  5

  6

  7

 40
1.0
 41
0.18
 42
0.0625
 43
0.38
 44
0.18
 45
0.0
 46
0.0
 47
0.0
 48
0.0
140
0.18
141
0.09
142
0.0
143
25.399999999999999
144
1.0
145
0.0
146
1.0
147
0.09
 71
     0
 72
     0
 73
     1
 74
     1
 75
     0
 76
     0
 77
     0
 78
     0
170
     0
171
     2
172
     0
173
     0
174
     0
175
     0
176
     0
177
     0
178
     0
  0
DIMSTYLE
  2
BYGG-021809$0$MASKIN
 70
     0
  3

  4

  5

  6

  7

 40
0.0
 41
3.0
 42
1.5
 43
10.0
 44
1.5
 45
0.0
 46
0.0
 47
0.0
 48
0.0
140
3.0
141
-5.0
142
0.0
143
25.399999999999999
144
-1.0
145
0.0
146
1.0
147
1.0
 71
     0
 72
     0
 73
     0
 74
     0
 75
     0
 76
     0
 77
     1
 78
     8
170
     0
171
     0
172
     1
173
     0
174
     0
175
     0
176
   256
177
   256
178
     2
  0
DIMSTYLE
  2
BYGG-014410$0$MASKIN
 70
     0
  3

  4

  5

  6

  7

 40
0.0
 41
3.0
 42
1.5
 43
10.0
 44
1.5
 45
0.0
 46
0.0
 47
0.0
 48
0.0
140
3.0
141
-5.0
142
0.0
143
25.399999999999999
144
-1.0
145
0.0
146
1.0
147
1.0
 71
     0
 72
     0
 73
     0
 74
     0
 75
     0
 76
     0
 77
     1
 78
     8
170
     0
171
     0
172
     1
173
     0
174
     0
175
     0
176
   256
177
   256
178
   256
  0
DIMSTYLE
  2
BYGG-014410$0$STANDARD
 70
     0
  3

  4

  5

  6

  7

 40
1.0
 41
0.18
 42
0.0625
 43
0.38
 44
0.18
 45
0.0
 46
0.0
 47
0.0
 48
0.0
140
0.18
141
0.09
142
0.0
143
25.399999999999999
144
1.0
145
0.0
146
1.0
147
0.09
 71
     0
 72
     0
 73
     1
 74
     1
 75
     0
 76
     0
 77
     0
 78
     0
170
     0
171
     2
172
     0
173
     0
174
     0
175
     0
176
     0
177
     0
178
     0
  0
DIMSTYLE
  2
BYGG-020805$0$STANDARD
 70
     0
  3

  4

  5

  6

  7

 40
1.0
 41
0.18
 42
0.0625
 43
0.38
 44
0.18
 45
0.0
 46
0.0
 47
0.0
 48
0.0
140
0.18
141
0.09
142
0.0
143
25.399999999999999
144
1.0
145
0.0
146
1.0
147
0.09
 71
     0
 72
     0
 73
     1
 74
     1
 75
     0
 76
     0
 77
     0
 78
     0
170
     0
171
     2
172
     0
173
     0
174
     0
175
     0
176
     0
177
     0
178
     0
  0
DIMSTYLE
  2
BYGG-020805$0$MASKIN
 70
     0
  3

  4

  5

  6

  7

 40
0.0
 41
3.0
 42
1.5
 43
10.0
 44
1.5
 45
0.0
 46
0.0
 47
0.0
 48
0.0
140
3.0
141
-5.0
142
0.0
143
25.399999999999999
144
-1.0
145
0.0
146
1.0
147
1.0
 71
     0
 72
     0
 73
     0
 74
     0
 75
     0
 76
     0
 77
     1
 78
     8
170
     0
171
     0
172
     1
173
     0
174
     0
175
     0
176
   256
177
   256
178
     2
  0
DIMSTYLE
  2
BYGG-025725$0$STANDARD
 70
     0
  3

  4

  5

  6

  7

 40
1.0
 41
0.18
 42
0.0625
 43
0.38
 44
0.18
 45
0.0
 46
0.0
 47
0.0
 48
0.0
140
0.18
141
0.09
142
0.0
143
25.399999999999999
144
1.0
145
0.0
146
1.0
147
0.09
 71
     0
 72
     0
 73
     1
 74
     1
 75
     0
 76
     0
 77
     0
 78
     0
170
     0
171
     2
172
     0
173
     0
174
     0
175
     0
176
     0
177
     0
178
     0
  0
DIMSTYLE
  2
BYGG-025725$0$MASKIN
 70
     0
  3

  4

  5

  6

  7

 40
0.0
 41
3.0
 42
1.5
 43
10.0
 44
1.5
 45
0.0
 46
0.0
 47
0.0
 48
0.0
140
3.0
141
-5.0
142
0.0
143
25.399999999999999
144
-1.0
145
0.0
146
1.0
147
1.0
 71
     0
 72
     0
 73
     0
 74
     0
 75
     0
 76
     0
 77
     1
 78
     8
170
     0
171
     0
172
     1
173
     0
174
     0
175
     0
176
   256
177
   256
178
     2
  0
DIMSTYLE
  2
BYGG-025114$0$STANDARD
 70
     0
  3

  4

  5

  6

  7

 40
1.0
 41
0.18
 42
0.0625
 43
0.38
 44
0.18
 45
0.0
 46
0.0
 47
0.0
 48
0.0
140
0.18
141
0.09
142
0.0
143
25.399999999999999
144
1.0
145
0.0
146
1.0
147
0.09
 71
     0
 72
     0
 73
     1
 74
     1
 75
     0
 76
     0
 77
     0
 78
     0
170
     0
171
     2
172
     0
173
     0
174
     0
175
     0
176
     0
177
     0
178
     0
  0
DIMSTYLE
  2
BYGG-025114$0$MASKIN
 70
     0
  3

  4

  5

  6

  7

 40
0.0
 41
3.0
 42
1.5
 43
10.0
 44
1.5
 45
0.0
 46
0.0
 47
0.0
 48
0.0
140
3.0
141
-5.0
142
0.0
143
25.399999999999999
144
-1.0
145
0.0
146
1.0
147
1.0
 71
     0
 72
     0
 73
     0
 74
     0
 75
     0
 76
     0
 77
     1
 78
     8
170
     0
171
     0
172
     1
173
     0
174
     0
175
     0
176
   256
177
   256
178
     2
  0
DIMSTYLE
  2
BYGG-029014$0$STANDARD
 70
     0
  3

  4

  5

  6

  7

 40
1.0
 41
0.18
 42
0.0625
 43
0.38
 44
0.18
 45
0.0
 46
0.0
 47
0.0
 48
0.0
140
0.18
141
0.09
142
0.0
143
25.399999999999999
144
1.0
145
0.0
146
1.0
147
0.09
 71
     0
 72
     0
 73
     1
 74
     1
 75
     0
 76
     0
 77
     0
 78
     0
170
     0
171
     2
172
     0
173
     0
174
     0
175
     0
176
     0
177
     0
178
     0
  0
DIMSTYLE
  2
BYGG-029014$0$MASKIN
 70
     0
  3

  4

  5

  6

  7

 40
0.0
 41
3.0
 42
1.5
 43
10.0
 44
1.5
 45
0.0
 46
0.0
 47
0.0
 48
0.0
140
3.0
141
-5.0
142
0.0
143
25.399999999999999
144
-1.0
145
0.0
146
1.0
147
1.0
 71
     0
 72
     0
 73
     0
 74
     0
 75
     0
 76
     0
 77
     1
 78
     8
170
     0
171
     0
172
     1
173
     0
174
     0
175
     0
176
   256
177
   256
178
     2
  0
DIMSTYLE
  2
BYGG-014495$0$MASKIN
 70
     0
  3

  4

  5

  6

  7

 40
0.0
 41
3.0
 42
1.5
 43
10.0
 44
1.5
 45
0.0
 46
0.0
 47
0.0
 48
0.0
140
3.0
141
-5.0
142
0.0
143
25.399999999999999
144
-1.0
145
0.0
146
1.0
147
1.0
 71
     0
 72
     0
 73
     0
 74
     0
 75
     0
 76
     0
 77
     1
 78
     8
170
     0
171
     0
172
     1
173
     0
174
     0
175
     0
176
   256
177
   256
178
     2
  0
DIMSTYLE
  2
BYGG-028946$0$STANDARD
 70
     0
  3

  4

  5

  6

  7

 40
1.0
 41
0.18
 42
0.0625
 43
0.38
 44
0.18
 45
0.0
 46
0.0
 47
0.0
 48
0.0
140
0.18
141
0.09
142
0.0
143
25.399999999999999
144
1.0
145
0.0
146
1.0
147
0.09
 71
     0
 72
     0
 73
     1
 74
     1
 75
     0
 76
     0
 77
     0
 78
     0
170
     0
171
     2
172
     0
173
     0
174
     0
175
     0
176
     0
177
     0
178
     0
  0
DIMSTYLE
  2
BYGG-028946$0$MASKIN
 70
     0
  3

  4

  5

  6

  7

 40
0.0
 41
3.0
 42
1.5
 43
10.0
 44
1.5
 45
0.0
 46
0.0
 47
0.0
 48
0.0
140
3.0
141
-5.0
142
0.0
143
25.399999999999999
144
-1.0
145
0.0
146
1.0
147
1.0
 71
     0
 72
     0
 73
     0
 74
     0
 75
     0
 76
     0
 77
     1
 78
     8
170
     0
171
     0
172
     1
173
     0
174
     0
175
     0
176
   256
177
   256
178
     2
  0
DIMSTYLE
  2
BYGG-028946$0$ANNOTATIVE
 70
     0
  3

  4

  5

  6

  7

 40
1.0
 41
0.18
 42
0.0625
 43
0.38
 44
0.18
 45
0.0
 46
0.0
 47
0.0
 48
0.0
140
0.18
141
0.09
142
0.0
143
25.399999999999999
144
1.0
145
0.0
146
1.0
147
0.09
 71
     0
 72
     0
 73
     1
 74
     1
 75
     0
 76
     0
 77
     0
 78
     0
170
     0
171
     2
172
     0
173
     0
174
     0
175
     0
176
     0
177
     0
178
     0
  0
DIMSTYLE
  2
BYGG-028947$0$STANDARD
 70
     0
  3

  4

  5

  6

  7

 40
1.0
 41
0.18
 42
0.0625
 43
0.38
 44
0.18
 45
0.0
 46
0.0
 47
0.0
 48
0.0
140
0.18
141
0.09
142
0.0
143
25.399999999999999
144
1.0
145
0.0
146
1.0
147
0.09
 71
     0
 72
     0
 73
     1
 74
     1
 75
     0
 76
     0
 77
     0
 78
     0
170
     0
171
     2
172
     0
173
     0
174
     0
175
     0
176
     0
177
     0
178
     0
  0
DIMSTYLE
  2
BYGG-028947$0$MASKIN
 70
     0
  3

  4

  5

  6

  7

 40
0.0
 41
3.0
 42
1.5
 43
10.0
 44
1.5
 45
0.0
 46
0.0
 47
0.0
 48
0.0
140
3.0
141
-5.0
142
0.0
143
25.399999999999999
144
-1.0
145
0.0
146
1.0
147
1.0
 71
     0
 72
     0
 73
     0
 74
     0
 75
     0
 76
     0
 77
     1
 78
     8
170
     0
171
     0
172
     1
173
     0
174
     0
175
     0
176
   256
177
   256
178
     2
  0
DIMSTYLE
  2
BYGG-024973$0$STANDARD
 70
     0
  3

  4

  5

  6

  7

 40
1.0
 41
0.18
 42
0.0625
 43
0.38
 44
0.18
 45
0.0
 46
0.0
 47
0.0
 48
0.0
140
0.18
141
0.09
142
0.0
143
25.399999999999999
144
1.0
145
0.0
146
1.0
147
0.09
 71
     0
 72
     0
 73
     1
 74
     1
 75
     0
 76
     0
 77
     0
 78
     0
170
     0
171
     2
172
     0
173
     0
174
     0
175
     0
176
     0
177
     0
178
     0
  0
DIMSTYLE
  2
BYGG-024973$0$MASKIN
 70
     0
  3

  4

  5

  6

  7

 40
0.0
 41
3.0
 42
1.5
 43
10.0
 44
1.5
 45
0.0
 46
0.0
 47
0.0
 48
0.0
140
3.0
141
-5.0
142
0.0
143
25.399999999999999
144
-1.0
145
0.0
146
1.0
147
1.0
 71
     0
 72
     0
 73
     0
 74
     0
 75
     0
 76
     0
 77
     1
 78
     8
170
     0
171
     0
172
     1
173
     0
174
     0
175
     0
176
   256
177
   256
178
     2
  0
DIMSTYLE
  2
BYGG-025081$0$STANDARD
 70
     0
  3

  4

  5

  6

  7

 40
1.0
 41
0.18
 42
0.0625
 43
0.38
 44
0.18
 45
0.0
 46
0.0
 47
0.0
 48
0.0
140
0.18
141
0.09
142
0.0
143
25.399999999999999
144
1.0
145
0.0
146
1.0
147
0.09
 71
     0
 72
     0
 73
     1
 74
     1
 75
     0
 76
     0
 77
     0
 78
     0
170
     0
171
     2
172
     0
173
     0
174
     0
175
     0
176
     0
177
     0
178
     0
  0
DIMSTYLE
  2
BYGG-025081$0$MASKIN
 70
     0
  3

  4

  5

  6

  7

 40
0.0
 41
3.0
 42
1.5
 43
10.0
 44
1.5
 45
0.0
 46
0.0
 47
0.0
 48
0.0
140
3.0
141
-5.0
142
0.0
143
25.399999999999999
144
-1.0
145
0.0
146
1.0
147
1.0
 71
     0
 72
     0
 73
     0
 74
     0
 75
     0
 76
     0
 77
     1
 78
     8
170
     0
171
     0
172
     1
173
     0
174
     0
175
     0
176
   256
177
   256
178
     2
  0
DIMSTYLE
  2
BYGG-029000$0$STANDARD
 70
     0
  3

  4

  5

  6

  7

 40
1.0
 41
0.18
 42
0.0625
 43
0.38
 44
0.18
 45
0.0
 46
0.0
 47
0.0
 48
0.0
140
0.18
141
0.09
142
0.0
143
25.399999999999999
144
1.0
145
0.0
146
1.0
147
0.09
 71
     0
 72
     0
 73
     1
 74
     1
 75
     0
 76
     0
 77
     0
 78
     0
170
     0
171
     2
172
     0
173
     0
174
     0
175
     0
176
     0
177
     0
178
     0
  0
DIMSTYLE
  2
BYGG-029000$0$MASKIN
 70
     0
  3

  4

  5

  6

  7

 40
0.0
 41
3.0
 42
1.5
 43
10.0
 44
1.5
 45
0.0
 46
0.0
 47
0.0
 48
0.0
140
3.0
141
-5.0
142
0.0
143
25.399999999999999
144
-1.0
145
0.0
146
1.0
147
1.0
 71
     0
 72
     0
 73
     0
 74
     0
 75
     0
 76
     0
 77
     1
 78
     8
170
     0
171
     0
172
     1
173
     0
174
     0
175
     0
176
   256
177
   256
178
     2
  0
ENDTAB
  0
ENDSEC
  0
SECTION
  2
BLOCKS
  0
BLOCK
  8
0
  2
$MODEL_SPACE
 70
     0
 10
0.0
 20
0.0
 30
0.0
  3
$MODEL_SPACE
  1

  0
ENDBLK
  5
37
  8
0
  0
BLOCK
 67
     1
  8
0
  2
$PAPER_SPACE
 70
     0
 10
0.0
 20
0.0
 30
0.0
  3
$PAPER_SPACE
  1

  0
ENDBLK
  5
35
 67
     1
  8
0
  0
BLOCK
  8
0
  2
BYGG-029014$0$BORST_9
 70
     0
 10
0.0
 20
0.0
 30
0.0
  3
BYGG-029014$0$BORST_9
  1

  0
POLYLINE
  5
1430
  8
BYGG-029014$0$LIST
 66
     1
 10
0.0
 20
0.0
 30
0.0
 70
     1
  0
VERTEX
  5
1875
  8
BYGG-029014$0$LIST
 10
32.117949192431162
 20
1.9000000000000901
 30
0.0
  0
VERTEX
  5
1876
  8
BYGG-029014$0$LIST
 10
32.117949192431162
 20
2.7000000000000912
 30
0.0
  0
VERTEX
  5
1877
  8
BYGG-029014$0$LIST
 10
25.417949192431159
 20
2.7000000000000912
 30
0.0
  0
VERTEX
  5
1878
  8
BYGG-029014$0$LIST
 10
25.417949192431159
 20
1.9000000000000901
 30
0.0
  0
SEQEND
  5
1879
  8
BYGG-029014$0$LIST
  0
POLYLINE
  5
1431
  8
BYGG-029014$0$LIST
 66
     1
 10
0.0
 20
0.0
 30
0.0
  0
VERTEX
  5
187A
  8
BYGG-029014$0$LIST
 10
28.263363943662679
 20
2.7000000000000912
 30
0.0
  0
VERTEX
  5
187B
  8
BYGG-029014$0$LIST
 10
26.769574652555221
 20
10.03407417371101
 30
0.0
  0
SEQEND
  5
187C
  8
BYGG-029014$0$LIST
  0
POLYLINE
  5
1432
  8
BYGG-029014$0$LIST
 66
     1
 10
0.0
 20
0.0
 30
0.0
  0
VERTEX
  5
187D
  8
BYGG-029014$0$LIST
 10
28.553855340273739
 20
2.7000000000000339
 30
0.0
  0
VERTEX
  5
187E
  8
BYGG-029014$0$LIST
 10
27.93644453893258
 20
10.03407417371101
 30
0.0
  0
SEQEND
  5
187F
  8
BYGG-029014$0$LIST
  0
POLYLINE
  5
1433
  8
BYGG-029014$0$LIST
 66
     1
 10
0.0
 20
0.0
 30
0.0
  0
VERTEX
  5
1880
  8
BYGG-029014$0$LIST
 10
29.012314217007489
 20
2.7000000000000339
 30
0.0
  0
VERTEX
  5
1881
  8
BYGG-029014$0$LIST
 10
30.000741956894529
 20
10.03407417371101
 30
0.0
  0
SEQEND
  5
1882
  8
BYGG-029014$0$LIST
  0
POLYLINE
  5
1434
  8
BYGG-029014$0$LIST
 66
     1
 10
0.0
 20
0.0
 30
0.0
  0
VERTEX
  5
1883
  8
BYGG-029014$0$LIST
 10
29.18507150798786
 20
2.7000000000000339
 30
0.0
  0
VERTEX
  5
1884
  8
BYGG-029014$0$LIST
 10
30.980798090752462
 20
10.03407417371101
 30
0.0
  0
SEQEND
  5
1885
  8
BYGG-029014$0$LIST
  0
LINE
  5
1435
  8
0
 10
28.667949192431159
 20
10.03407417371101
 30
0.0
 11
28.867949192431169
 21
10.03407417371101
 31
0.0
  0
LINE
  5
1436
  8
0
 10
28.867949192431158
 20
2.7000000000000912
 30
0.0
 11
28.867949192431169
 21
10.03407417371101
 31
0.0
  0
LINE
  5
1437
  8
0
 10
28.667949192431159
 20
2.7000000000000912
 30
0.0
 11
28.667949192431159
 21
10.03407417371101
 31
0.0
  0
ENDBLK
  5
1438
  8
0
  0
BLOCK
  8
0
  2
*D78
 70
     1
 10
0.0
 20
0.0
 30
0.0
  3
*D78
  1

  0
LINE
  5
17ED
  8
SAPA_MATT
 10
-24.999999999999659
 20
-115.4999999990106
 30
0.0
 11
-24.999999999999659
 21
-135.3699098731156
 31
0.0
  0
LINE
  5
17EE
  8
SAPA_MATT
 10
25.000000000000341
 20
-115.4999999990106
 30
0.0
 11
25.000000000000341
 21
-135.3699098731156
 31
0.0
  0
LINE
  5
17EF
  8
SAPA_MATT
 10
-21.999999999999659
 20
-133.8699098731156
 30
0.0
 11
22.000000000000341
 21
-133.8699098731156
 31
0.0
  0
SOLID
  5
17F0
  8
SAPA_MATT
 10
-21.999999999999659
 20
-133.3699098731156
 30
0.0
 11
-21.999999999999659
 21
-134.3699098731156
 31
0.0
 12
-24.999999999999659
 22
-133.8699098731156
 32
0.0
 13
-24.999999999999659
 23
-133.8699098731156
 33
0.0
  0
SOLID
  5
17F1
  8
SAPA_MATT
 10
22.000000000000341
 20
-133.3699098731156
 30
0.0
 11
22.000000000000341
 21
-134.3699098731156
 31
0.0
 12
25.000000000000341
 22
-133.8699098731156
 32
0.0
 13
25.000000000000341
 23
-133.8699098731156
 33
0.0
  0
INSERT
  5
17F2
  8
0
  2
*U100
 10
0.0
 20
0.0
 30
0.0
  0
POINT
  5
17F3
  8
DEFPOINTS
 62
     0
 10
-24.999999999999659
 20
-113.9999999990106
 30
0.0
  0
POINT
  5
17F4
  8
DEFPOINTS
 62
     0
 10
25.000000000000341
 20
-113.9999999990106
 30
0.0
  0
POINT
  5
17F5
  8
DEFPOINTS
 62
     0
 10
25.000000000000341
 20
-133.8699098731156
 30
0.0
  0
ENDBLK
  5
178B
  8
0
  0
BLOCK
  8
0
  2
*D79
 70
     1
 10
0.0
 20
0.0
 30
0.0
  3
*D79
  1

  0
LINE
  5
2A43
  8
SAPA_MATT
 10
25.000000000000341
 20
-115.4999999990106
 30
0.0
 11
25.000000000000341
 21
-135.35639635960209
 31
0.0
  0
LINE
  5
2A44
  8
SAPA_MATT
 10
37.000000000000341
 20
-91.000000000001108
 30
0.0
 11
37.000000000000341
 21
-135.35639635960209
 31
0.0
  0
LINE
  5
2A45
  8
SAPA_MATT
 10
28.000000000000341
 20
-133.85639635960209
 30
0.0
 11
34.000000000000341
 21
-133.85639635960209
 31
0.0
  0
SOLID
  5
2A46
  8
SAPA_MATT
 10
28.000000000000341
 20
-133.35639635960209
 30
0.0
 11
28.000000000000341
 21
-134.35639635960209
 31
0.0
 12
25.000000000000341
 22
-133.85639635960209
 32
0.0
 13
25.000000000000341
 23
-133.85639635960209
 33
0.0
  0
SOLID
  5
2A47
  8
SAPA_MATT
 10
34.000000000000341
 20
-133.35639635960209
 30
0.0
 11
34.000000000000341
 21
-134.35639635960209
 31
0.0
 12
37.000000000000341
 22
-133.85639635960209
 32
0.0
 13
37.000000000000341
 23
-133.85639635960209
 33
0.0
  0
TEXT
  8
SAPA_MATT
  40
3.5
  5
2A58
  62
2
  72
0
  71
0
 10
24.0000
 20
-137.301
 30
0.000000
  1
12
  7
ISO
  0
POINT
  5
2A49
  8
DEFPOINTS
 62
     0
 10
25.000000000000341
 20
-113.9999999990106
 30
0.0
  0
POINT
  5
2A4A
  8
DEFPOINTS
 62
     0
 10
37.000000000000341
 20
-89.500000000001108
 30
0.0
  0
POINT
  5
2A4B
  8
DEFPOINTS
 62
     0
 10
37.000000000000341
 20
-133.85639635960209
 30
0.0
  0
ENDBLK
  5
1797
  8
0
  0
BLOCK
  8
0
  2
*D80
 70
     1
 10
0.0
 20
0.0
 30
0.0
  3
*D80
  1

  0
LINE
  5
17DB
  8
SAPA_MATT
 10
-30.899999999999199
 20
148.49999999999869
 30
0.0
 11
-61.215131157909283
 21
148.49999999999869
 31
0.0
  0
LINE
  5
17DC
  8
SAPA_MATT
 10
-36.899999999998393
 20
74.499999999998863
 30
0.0
 11
-61.21513115790929
 21
74.499999999998863
 31
0.0
  0
LINE
  5
17DD
  8
SAPA_MATT
 10
-59.715131157909269
 20
145.49999999999869
 30
0.0
 11
-59.715131157909298
 21
77.499999999998863
 31
0.0
  0
SOLID
  5
17DE
  8
SAPA_MATT
 10
-60.215131157909269
 20
145.49999999999869
 30
0.0
 11
-59.215131157909269
 21
145.49999999999869
 31
0.0
 12
-59.715131157909269
 22
148.49999999999869
 32
0.0
 13
-59.715131157909269
 23
148.49999999999869
 33
0.0
  0
SOLID
  5
17DF
  8
SAPA_MATT
 10
-60.215131157909298
 20
77.499999999998863
 30
0.0
 11
-59.21513115790929
 21
77.499999999998863
 31
0.0
 12
-59.715131157909298
 22
74.499999999998863
 32
0.0
 13
-59.715131157909298
 23
74.499999999998863
 33
0.0
  0
INSERT
  5
17E0
  8
0
  2
*U99
 10
0.0
 20
0.0
 30
0.0
  0
POINT
  5
17E1
  8
DEFPOINTS
 62
     0
 10
-29.399999999999199
 20
148.49999999999869
 30
0.0
  0
POINT
  5
17E2
  8
DEFPOINTS
 62
     0
 10
-35.399999999998393
 20
74.499999999998863
 30
0.0
  0
POINT
  5
17E3
  8
DEFPOINTS
 62
     0
 10
-59.715131157909298
 20
74.499999999998863
 30
0.0
  0
ENDBLK
  5
17A3
  8
0
  0
BLOCK
  8
0
  2
*D81
 70
     1
 10
0.0
 20
0.0
 30
0.0
  3
*D81
  1

  0
LINE
  5
17D0
  8
SAPA_MATT
 10
-25.000000000000231
 20
62.499999999998863
 30
0.0
 11
-25.000000000000231
 21
45.092369856398648
 31
0.0
  0
LINE
  5
17D1
  8
SAPA_MATT
 10
-31.99999999999795
 20
75.599999999994154
 30
0.0
 11
-31.999999999997961
 21
45.092369856398648
 31
0.0
  0
LINE
  5
17D2
  8
SAPA_MATT
 10
-22.000000000000231
 20
46.592369856398641
 30
0.0
 11
-19.000000000000231
 21
46.592369856398641
 31
0.0
  0
LINE
  5
17D3
  8
SAPA_MATT
 10
-34.999999999997961
 20
46.592369856398641
 30
0.0
 11
-37.999999999997947
 21
46.592369856398641
 31
0.0
  0
LINE
  5
17D4
  8
SAPA_MATT
 10
-25.000000000000231
 20
46.592369856398641
 30
0.0
 11
-31.999999999997961
 21
46.592369856398641
 31
0.0
  0
SOLID
  5
17D5
  8
SAPA_MATT
 10
-22.000000000000231
 20
47.092369856398641
 30
0.0
 11
-22.000000000000231
 21
46.092369856398641
 31
0.0
 12
-25.000000000000231
 22
46.592369856398641
 32
0.0
 13
-25.000000000000231
 23
46.592369856398641
 33
0.0
  0
SOLID
  5
17D6
  8
SAPA_MATT
 10
-34.999999999997961
 20
47.092369856398641
 30
0.0
 11
-34.999999999997961
 21
46.092369856398641
 31
0.0
 12
-31.999999999997961
 22
46.592369856398641
 32
0.0
 13
-31.999999999997961
 23
46.592369856398641
 33
0.0
  0
INSERT
  5
17D7
  8
0
  2
*U98
 10
0.0
 20
0.0
 30
0.0
  0
POINT
  5
17D8
  8
DEFPOINTS
 62
     0
 10
-25.000000000000231
 20
63.999999999998863
 30
0.0
  0
POINT
  5
17D9
  8
DEFPOINTS
 62
     0
 10
-31.99999999999795
 20
77.099999999994168
 30
0.0
  0
POINT
  5
17DA
  8
DEFPOINTS
 62
     0
 10
-31.999999999997961
 20
46.592369856398641
 30
0.0
  0
ENDBLK
  5
17AF
  8
0
  0
BLOCK
  8
0
  2
*D82
 70
     1
 10
0.0
 20
0.0
 30
0.0
  3
*D82
  1

  0
LINE
  5
2A3A
  8
SAPA_MATT
 10
-30.899999999997821
 20
74.499999999998693
 30
0.0
 11
-61.214735356083622
 21
74.499999999998707
 31
0.0
  0
LINE
  5
2A3B
  8
SAPA_MATT
 10
-26.000000000000231
 20
64.499999999998863
 30
0.0
 11
-61.214735356083622
 21
64.499999999998877
 31
0.0
  0
LINE
  5
2A3C
  8
SAPA_MATT
 10
-59.714735356083622
 20
71.499999999998707
 30
0.0
 11
-59.714735356083622
 21
67.499999999998877
 31
0.0
  0
SOLID
  5
2A3D
  8
SAPA_MATT
 10
-60.214735356083622
 20
71.499999999998707
 30
0.0
 11
-59.214735356083622
 21
71.499999999998707
 31
0.0
 12
-59.714735356083622
 22
74.499999999998707
 32
0.0
 13
-59.714735356083622
 23
74.499999999998707
 33
0.0
  0
SOLID
  5
2A3E
  8
SAPA_MATT
 10
-60.214735356083622
 20
67.499999999998877
 30
0.0
 11
-59.214735356083622
 21
67.499999999998877
 31
0.0
 12
-59.714735356083622
 22
64.499999999998877
 32
0.0
 13
-59.714735356083622
 23
64.499999999998877
 33
0.0
  0
TEXT
  8
SAPA_MATT
  40
3.5
  5
2A59
  62
2
  72
0
  71
0
 10
-69.4647
 20
63.3050
 30
0.000000
  1
10
  7
ISO
  0
POINT
  5
2A40
  8
DEFPOINTS
 62
     0
 10
-29.399999999997821
 20
74.499999999998693
 30
0.0
  0
POINT
  5
2A41
  8
DEFPOINTS
 62
     0
 10
-24.500000000000231
 20
64.499999999998863
 30
0.0
  0
POINT
  5
2A42
  8
DEFPOINTS
 62
     0
 10
-59.714735356083622
 20
64.499999999998877
 30
0.0
  0
ENDBLK
  5
17BD
  8
0
  0
BLOCK
  8
0
  2
*U83
 70
     1
 10
0.0
 20
0.0
 30
0.0
  3
*U83
  1

  0
TEXT
  5
1847
  8
SAPA_ARTIKELNR
 10
-6.8869546224859706
 20
-26.025999430851581
 30
0.0
 40
3.5
  1
68654
  7
ISO
  0
ENDBLK
  5
1849
  8
0
  0
BLOCK
  8
0
  2
*U84
 70
     1
 10
0.0
 20
0.0
 30
0.0
  3
*U84
  1

  0
TEXT
  5
184B
  8
SAPA_ARTIKELNR
 10
-11.04608842407478
 20
150.2177347201075
 30
0.0
 40
3.5
  1
74457
  7
ISO
  0
ENDBLK
  5
184D
  8
0
  0
BLOCK
  8
0
  2
*U85
 70
     1
 10
0.0
 20
0.0
 30
0.0
  3
*U85
  1

  0
TEXT
  5
184F
  8
SAPA_ARTIKELNR
 10
26.215033813731001
 20
150.2177347201075
 30
0.0
 40
3.5
  1
42727
  7
ISO
  0
ENDBLK
  5
1851
  8
0
  0
BLOCK
  8
0
  2
*U86
 70
     1
 10
0.0
 20
0.0
 30
0.0
  3
*U86
  1

  0
TEXT
  5
1853
  8
SAPA_ARTIKELNR
 10
-36.501775410460823
 20
105.52964857942089
 30
0.0
 40
3.5
  1
18454
 50
90.0
  7
ISO
  0
ENDBLK
  5
1855
  8
0
  0
BLOCK
  8
0
  2
*U87
 70
     1
 10
0.0
 20
0.0
 30
0.0
  3
*U87
  1

  0
TEXT
  5
1857
  8
SAPA_ARTIKELNR
 10
-6.4303857324241331
 20
-100.1477891031756
 30
0.0
 40
3.5
  1
42848
  7
ISO
  0
ENDBLK
  5
1859
  8
0
  0
BLOCK
  8
0
  2
*U88
 70
     1
 10
0.0
 20
0.0
 30
0.0
  3
*U88
  1

  0
TEXT
  5
185B
  8
SAPA_ARTIKELNR
 10
-6.4303857324231091
 20
-119.9009502928364
 30
0.0
 40
3.5
  1
42227
  7
ISO
  0
ENDBLK
  5
185D
  8
0
  0
BLOCK
  8
0
  2
*U89
 70
     1
 10
0.0
 20
0.0
 30
0.0
  3
*U89
  1

  0
TEXT
  5
185F
  8
SAPA_ARTIKELNR
 10
-12.254999793549899
 20
68.803235254264933
 30
0.0
 40
3.5
  1
52070
  7
ISO
  0
ENDBLK
  5
1861
  8
0
  0
BLOCK
  8
0
  2
*X90
 70
     1
 10
0.0
 20
0.0
 30
0.0
  3
*X90
  1

  0
LINE
  5
2063
  8
0
 62
     0
 10
19.793153892580239
 20
96.678749999999994
 30
0.0
 11
23.85963251188965
 21
96.678749999999994
 31
0.0
  0
LINE
  5
2064
  8
0
 62
     0
 10
20.02779937651518
 20
97.789999999999992
 30
0.0
 11
23.62319950817367
 21
97.789999999999992
 31
0.0
  0
LINE
  5
2065
  8
0
 62
     0
 10
20.66935280807181
 20
98.90124999999999
 30
0.0
 11
22.66606542400444
 21
98.90124999999999
 31
0.0
  0
LINE
  5
2066
  8
0
 62
     0
 10
20.826393202234701
 20
100.0125
 30
0.0
 11
23.557494453411412
 21
100.0125
 31
0.0
  0
LINE
  5
2067
  8
0
 62
     0
 10
21.090540422208271
 20
101.12375
 30
0.0
 11
25.72113292123262
 21
101.12375
 31
0.0
  0
LINE
  5
2068
  8
0
 62
     0
 10
23.763393348321241
 20
102.235
 30
0.0
 11
25.72113292123262
 21
102.235
 31
0.0
  0
LINE
  5
2069
  8
0
 62
     0
 10
23.921132921232669
 20
103.34625
 30
0.0
 11
25.72113292123262
 21
103.34625
 31
0.0
  0
LINE
  5
206A
  8
0
 62
     0
 10
23.921132921232662
 20
104.4575
 30
0.0
 11
25.721132921232609
 21
104.4575
 31
0.0
  0
LINE
  5
206B
  8
0
 62
     0
 10
23.921132921232651
 20
105.56874999999999
 30
0.0
 11
25.721132921232609
 21
105.56874999999999
 31
0.0
  0
LINE
  5
206C
  8
0
 62
     0
 10
23.92113292123264
 20
106.67999999999989
 30
0.0
 11
25.721132921232609
 21
106.67999999999989
 31
0.0
  0
LINE
  5
206D
  8
0
 62
     0
 10
23.92113292123264
 20
107.79125000000001
 30
0.0
 11
25.721132921232609
 21
107.79125000000001
 31
0.0
  0
LINE
  5
206E
  8
0
 62
     0
 10
23.92113292123263
 20
108.9025
 30
0.0
 11
25.721132921232609
 21
108.9025
 31
0.0
  0
LINE
  5
206F
  8
0
 62
     0
 10
23.921132921232619
 20
110.01375
 30
0.0
 11
25.721132921232599
 21
110.01375
 31
0.0
  0
LINE
  5
2070
  8
0
 62
     0
 10
23.921132921232619
 20
111.125
 30
0.0
 11
25.721132921232599
 21
111.125
 31
0.0
  0
LINE
  5
2071
  8
0
 62
     0
 10
23.921132921232608
 20
112.23625
 30
0.0
 11
25.721132921232591
 21
112.23625
 31
0.0
  0
LINE
  5
2072
  8
0
 62
     0
 10
23.921132921232608
 20
113.3475
 30
0.0
 11
25.721132921232591
 21
113.3475
 31
0.0
  0
LINE
  5
2073
  8
0
 62
     0
 10
23.921132921232608
 20
114.45874999999999
 30
0.0
 11
25.721132921232581
 21
114.45874999999999
 31
0.0
  0
LINE
  5
2074
  8
0
 62
     0
 10
23.921132921232608
 20
115.56999999999989
 30
0.0
 11
25.72113292123257
 21
115.56999999999989
 31
0.0
  0
LINE
  5
2075
  8
0
 62
     0
 10
23.921132921232608
 20
116.68125000000001
 30
0.0
 11
25.72113292123257
 21
116.68125000000001
 31
0.0
  0
LINE
  5
2076
  8
0
 62
     0
 10
23.921132921232608
 20
117.7925
 30
0.0
 11
25.721132921232559
 21
117.7925
 31
0.0
  0
LINE
  5
2077
  8
0
 62
     0
 10
23.921132921232608
 20
118.90375
 30
0.0
 11
25.721132921232559
 21
118.90375
 31
0.0
  0
LINE
  5
2078
  8
0
 62
     0
 10
23.921132921232608
 20
120.015
 30
0.0
 11
25.721132921232549
 21
120.015
 31
0.0
  0
LINE
  5
2079
  8
0
 62
     0
 10
22.823628000046561
 20
121.12625
 30
0.0
 11
25.721132921232542
 21
121.12625
 31
0.0
  0
LINE
  5
207A
  8
0
 62
     0
 10
20.877597900182661
 20
122.2374999999999
 30
0.0
 11
25.564322206365361
 21
122.2374999999999
 31
0.0
  0
LINE
  5
207B
  8
0
 62
     0
 10
20.826393202234598
 20
123.34875
 30
0.0
 11
22.850307572146509
 21
123.34875
 31
0.0
  0
LINE
  5
207C
  8
0
 62
     0
 10
20.46081207840767
 20
124.45999999999999
 30
0.0
 11
23.188397364308251
 21
124.45999999999999
 31
0.0
  0
LINE
  5
207D
  8
0
 62
     0
 10
19.819231591770649
 20
125.57125000000001
 30
0.0
 11
23.833563472554161
 21
125.57125000000001
 31
0.0
  0
ENDBLK
  5
207F
  8
0
  0
BLOCK
  8
0
  2
*X91
 70
     1
 10
0.0
 20
0.0
 30
0.0
  3
*X91
  1

  0
LINE
  5
2081
  8
0
 62
     0
 10
-6.126393202244258
 20
101.110766966809
 30
0.0
 11
-1.9263932022442849
 21
101.110766966809
 31
0.0
  0
LINE
  5
2082
  8
0
 62
     0
 10
-5.5755619158813339
 20
102.22201696680899
 30
0.0
 11
-2.4772244886073329
 21
102.22201696680899
 31
0.0
  0
LINE
  5
2083
  8
0
 62
     0
 10
-5.0227506606666941
 20
103.33326696680901
 30
0.0
 11
-3.015479040898231
 21
103.33326696680901
 31
0.0
  0
LINE
  5
2084
  8
0
 62
     0
 10
-6.4541542050301013
 20
104.444516966809
 30
0.0
 11
-3.0263932022442921
 21
104.444516966809
 31
0.0
  0
LINE
  5
2085
  8
0
 62
     0
 10
-7.9263932022443848
 20
105.555766966809
 30
0.0
 11
-4.0440315988345414
 21
105.555766966809
 31
0.0
  0
LINE
  5
2086
  8
0
 62
     0
 10
-7.9263932022443928
 20
106.667016966809
 30
0.0
 11
-6.1048173060978668
 21
106.667016966809
 31
0.0
  0
LINE
  5
2087
  8
0
 62
     0
 10
-7.9263932022444008
 20
107.778266966809
 30
0.0
 11
-6.1263932022444862
 21
107.778266966809
 31
0.0
  0
LINE
  5
2088
  8
0
 62
     0
 10
-7.9263932022444088
 20
108.889516966809
 30
0.0
 11
-6.1263932022444862
 21
108.889516966809
 31
0.0
  0
LINE
  5
2089
  8
0
 62
     0
 10
-7.9263932022444168
 20
110.000766966809
 30
0.0
 11
-6.1263932022444862
 21
110.000766966809
 31
0.0
  0
LINE
  5
208A
  8
0
 62
     0
 10
-7.9263932022444248
 20
111.11201696680899
 30
0.0
 11
-6.1263932022444862
 21
111.11201696680899
 31
0.0
  0
LINE
  5
208B
  8
0
 62
     0
 10
-7.9263932022444328
 20
112.22326696680901
 30
0.0
 11
-6.1263932022444862
 21
112.22326696680901
 31
0.0
  0
LINE
  5
208C
  8
0
 62
     0
 10
-7.9263932022444372
 20
113.33451696680901
 30
0.0
 11
-6.1263932022444862
 21
113.33451696680901
 31
0.0
  0
LINE
  5
208D
  8
0
 62
     0
 10
-7.9263932022443937
 20
114.445766966809
 30
0.0
 11
-6.1263932022444862
 21
114.445766966809
 31
0.0
  0
LINE
  5
208E
  8
0
 62
     0
 10
-7.9263932022443511
 20
115.557016966809
 30
0.0
 11
-6.1263932022444862
 21
115.557016966809
 31
0.0
  0
LINE
  5
208F
  8
0
 62
     0
 10
-7.9263932022443093
 20
116.668266966809
 30
0.0
 11
-5.7757242192723588
 21
116.668266966809
 31
0.0
  0
LINE
  5
2090
  8
0
 62
     0
 10
-7.9170367583178667
 20
117.779516966809
 30
0.0
 11
-3.2798158542712619
 21
117.779516966809
 31
0.0
  0
LINE
  5
2091
  8
0
 62
     0
 10
-5.7010941604185073
 20
118.890766966809
 30
0.0
 11
-3.0263932022442921
 21
118.890766966809
 31
0.0
  0
LINE
  5
2092
  8
0
 62
     0
 10
-4.9153458390232121
 20
120.00201696680899
 30
0.0
 11
-2.9187431603173191
 21
120.00201696680899
 31
0.0
  0
LINE
  5
2093
  8
0
 62
     0
 10
-5.7691381852120891
 20
121.11326696680899
 30
0.0
 11
-2.2836482192764871
 21
121.11326696680899
 31
0.0
  0
LINE
  5
2094
  8
0
 62
     0
 10
-6.106518872222428
 20
122.22451696680901
 30
0.0
 11
-1.946267532265336
 21
122.22451696680901
 31
0.0
  0
ENDBLK
  5
2096
  8
0
  0
BLOCK
  8
0
  2
*X92
 70
     1
 10
0.0
 20
0.0
 30
0.0
  3
*X92
  1

  0
LINE
  5
2110
  8
0
 62
     0
 10
19.793153892580239
 20
96.678749999999994
 30
0.0
 11
23.85963251188965
 21
96.678749999999994
 31
0.0
  0
LINE
  5
2111
  8
0
 62
     0
 10
20.02779937651518
 20
97.789999999999992
 30
0.0
 11
23.62319950817367
 21
97.789999999999992
 31
0.0
  0
LINE
  5
2112
  8
0
 62
     0
 10
20.66935280807181
 20
98.90124999999999
 30
0.0
 11
22.66606542400444
 21
98.90124999999999
 31
0.0
  0
LINE
  5
2113
  8
0
 62
     0
 10
20.826393202234701
 20
100.0125
 30
0.0
 11
23.557494453411412
 21
100.0125
 31
0.0
  0
LINE
  5
2114
  8
0
 62
     0
 10
21.090540422208271
 20
101.12375
 30
0.0
 11
25.72113292123262
 21
101.12375
 31
0.0
  0
LINE
  5
2115
  8
0
 62
     0
 10
23.763393348321241
 20
102.235
 30
0.0
 11
25.72113292123262
 21
102.235
 31
0.0
  0
LINE
  5
2116
  8
0
 62
     0
 10
23.921132921232669
 20
103.34625
 30
0.0
 11
25.72113292123262
 21
103.34625
 31
0.0
  0
LINE
  5
2117
  8
0
 62
     0
 10
23.921132921232662
 20
104.4575
 30
0.0
 11
25.721132921232609
 21
104.4575
 31
0.0
  0
LINE
  5
2118
  8
0
 62
     0
 10
23.921132921232651
 20
105.56874999999999
 30
0.0
 11
25.721132921232609
 21
105.56874999999999
 31
0.0
  0
LINE
  5
2119
  8
0
 62
     0
 10
23.92113292123264
 20
106.67999999999989
 30
0.0
 11
25.721132921232609
 21
106.67999999999989
 31
0.0
  0
LINE
  5
211A
  8
0
 62
     0
 10
23.92113292123264
 20
107.79125000000001
 30
0.0
 11
25.721132921232609
 21
107.79125000000001
 31
0.0
  0
LINE
  5
211B
  8
0
 62
     0
 10
23.92113292123263
 20
108.9025
 30
0.0
 11
25.721132921232609
 21
108.9025
 31
0.0
  0
LINE
  5
211C
  8
0
 62
     0
 10
23.921132921232619
 20
110.01375
 30
0.0
 11
25.721132921232599
 21
110.01375
 31
0.0
  0
LINE
  5
211D
  8
0
 62
     0
 10
23.921132921232619
 20
111.125
 30
0.0
 11
25.721132921232599
 21
111.125
 31
0.0
  0
LINE
  5
211E
  8
0
 62
     0
 10
23.921132921232608
 20
112.23625
 30
0.0
 11
25.721132921232591
 21
112.23625
 31
0.0
  0
LINE
  5
211F
  8
0
 62
     0
 10
23.921132921232608
 20
113.3475
 30
0.0
 11
25.721132921232591
 21
113.3475
 31
0.0
  0
LINE
  5
2120
  8
0
 62
     0
 10
23.921132921232608
 20
114.45874999999999
 30
0.0
 11
25.721132921232581
 21
114.45874999999999
 31
0.0
  0
LINE
  5
2121
  8
0
 62
     0
 10
23.921132921232608
 20
115.56999999999989
 30
0.0
 11
25.72113292123257
 21
115.56999999999989
 31
0.0
  0
LINE
  5
2122
  8
0
 62
     0
 10
23.921132921232608
 20
116.68125000000001
 30
0.0
 11
25.72113292123257
 21
116.68125000000001
 31
0.0
  0
LINE
  5
2123
  8
0
 62
     0
 10
23.921132921232608
 20
117.7925
 30
0.0
 11
25.721132921232559
 21
117.7925
 31
0.0
  0
LINE
  5
2124
  8
0
 62
     0
 10
23.921132921232608
 20
118.90375
 30
0.0
 11
25.721132921232559
 21
118.90375
 31
0.0
  0
LINE
  5
2125
  8
0
 62
     0
 10
23.921132921232608
 20
120.015
 30
0.0
 11
25.721132921232549
 21
120.015
 31
0.0
  0
LINE
  5
2126
  8
0
 62
     0
 10
22.823628000046561
 20
121.12625
 30
0.0
 11
25.721132921232542
 21
121.12625
 31
0.0
  0
LINE
  5
2127
  8
0
 62
     0
 10
20.877597900182661
 20
122.2374999999999
 30
0.0
 11
25.564322206365361
 21
122.2374999999999
 31
0.0
  0
LINE
  5
2128
  8
0
 62
     0
 10
20.826393202234598
 20
123.34875
 30
0.0
 11
22.850307572146509
 21
123.34875
 31
0.0
  0
LINE
  5
2129
  8
0
 62
     0
 10
20.46081207840767
 20
124.45999999999999
 30
0.0
 11
23.188397364308251
 21
124.45999999999999
 31
0.0
  0
LINE
  5
212A
  8
0
 62
     0
 10
19.819231591770649
 20
125.57125000000001
 30
0.0
 11
23.833563472554161
 21
125.57125000000001
 31
0.0
  0
ENDBLK
  5
212C
  8
0
  0
BLOCK
  8
0
  2
*X93
 70
     1
 10
0.0
 20
0.0
 30
0.0
  3
*X93
  1

  0
LINE
  5
212E
  8
0
 62
     0
 10
-6.126393202244258
 20
101.110766966809
 30
0.0
 11
-1.9263932022442849
 21
101.110766966809
 31
0.0
  0
LINE
  5
212F
  8
0
 62
     0
 10
-5.5755619158813339
 20
102.22201696680899
 30
0.0
 11
-2.4772244886073329
 21
102.22201696680899
 31
0.0
  0
LINE
  5
2130
  8
0
 62
     0
 10
-5.0227506606666941
 20
103.33326696680901
 30
0.0
 11
-3.015479040898231
 21
103.33326696680901
 31
0.0
  0
LINE
  5
2131
  8
0
 62
     0
 10
-6.4541542050301013
 20
104.444516966809
 30
0.0
 11
-3.0263932022442921
 21
104.444516966809
 31
0.0
  0
LINE
  5
2132
  8
0
 62
     0
 10
-7.9263932022443848
 20
105.555766966809
 30
0.0
 11
-4.0440315988345414
 21
105.555766966809
 31
0.0
  0
LINE
  5
2133
  8
0
 62
     0
 10
-7.9263932022443928
 20
106.667016966809
 30
0.0
 11
-6.1048173060978668
 21
106.667016966809
 31
0.0
  0
LINE
  5
2134
  8
0
 62
     0
 10
-7.9263932022444008
 20
107.778266966809
 30
0.0
 11
-6.1263932022444862
 21
107.778266966809
 31
0.0
  0
LINE
  5
2135
  8
0
 62
     0
 10
-7.9263932022444088
 20
108.889516966809
 30
0.0
 11
-6.1263932022444862
 21
108.889516966809
 31
0.0
  0
LINE
  5
2136
  8
0
 62
     0
 10
-7.9263932022444168
 20
110.000766966809
 30
0.0
 11
-6.1263932022444862
 21
110.000766966809
 31
0.0
  0
LINE
  5
2137
  8
0
 62
     0
 10
-7.9263932022444248
 20
111.11201696680899
 30
0.0
 11
-6.1263932022444862
 21
111.11201696680899
 31
0.0
  0
LINE
  5
2138
  8
0
 62
     0
 10
-7.9263932022444328
 20
112.22326696680901
 30
0.0
 11
-6.1263932022444862
 21
112.22326696680901
 31
0.0
  0
LINE
  5
2139
  8
0
 62
     0
 10
-7.9263932022444372
 20
113.33451696680901
 30
0.0
 11
-6.1263932022444862
 21
113.33451696680901
 31
0.0
  0
LINE
  5
213A
  8
0
 62
     0
 10
-7.9263932022443937
 20
114.445766966809
 30
0.0
 11
-6.1263932022444862
 21
114.445766966809
 31
0.0
  0
LINE
  5
213B
  8
0
 62
     0
 10
-7.9263932022443511
 20
115.557016966809
 30
0.0
 11
-6.1263932022444862
 21
115.557016966809
 31
0.0
  0
LINE
  5
213C
  8
0
 62
     0
 10
-7.9263932022443093
 20
116.668266966809
 30
0.0
 11
-5.7757242192723588
 21
116.668266966809
 31
0.0
  0
LINE
  5
213D
  8
0
 62
     0
 10
-7.9170367583178667
 20
117.779516966809
 30
0.0
 11
-3.2798158542712619
 21
117.779516966809
 31
0.0
  0
LINE
  5
213E
  8
0
 62
     0
 10
-5.7010941604185073
 20
118.890766966809
 30
0.0
 11
-3.0263932022442921
 21
118.890766966809
 31
0.0
  0
LINE
  5
213F
  8
0
 62
     0
 10
-4.9153458390232121
 20
120.00201696680899
 30
0.0
 11
-2.9187431603173191
 21
120.00201696680899
 31
0.0
  0
LINE
  5
2140
  8
0
 62
     0
 10
-5.7691381852120891
 20
121.11326696680899
 30
0.0
 11
-2.2836482192764871
 21
121.11326696680899
 31
0.0
  0
LINE
  5
2141
  8
0
 62
     0
 10
-6.106518872222428
 20
122.22451696680901
 30
0.0
 11
-1.946267532265336
 21
122.22451696680901
 31
0.0
  0
ENDBLK
  5
2143
  8
0
  0
BLOCK
  8
0
  2
*U94
 70
     1
 10
0.0
 20
0.0
 30
0.0
  3
*U94
  1

  0
SOLID
  5
2537
  8
SAPA_FOGBAND
  6
CONTINUOUS
 10
18.629356795613369
 20
-92.382617244086902
 30
0.0
 11
18.44907923184018
 21
-92.457290655993319
 31
0.0
 12
18.809634359386571
 22
-92.457290655993319
 32
0.0
 13
18.809634359386571
 23
-92.457290655993319
 33
0.0
210
0.0
220
0.0
230
1.0
  0
SOLID
  5
2538
  8
SAPA_FOGBAND
  6
CONTINUOUS
 10
18.44907923184018
 20
-92.457290655993319
 30
0.0
 11
18.374405819933731
 21
-92.637568219766536
 31
0.0
 12
18.88430777129302
 22
-92.637568219766536
 32
0.0
 13
18.88430777129302
 23
-92.637568219766536
 33
0.0
210
0.0
220
0.0
230
1.0
  0
SOLID
  5
2539
  8
SAPA_FOGBAND
  6
CONTINUOUS
 10
-18.44907923184018
 20
-92.457290655993319
 30
0.0
 11
-18.809634359386571
 21
-92.457290655993319
 31
0.0
 12
-18.88430777129302
 22
-92.637568219766536
 32
0.0
 13
-18.88430777129302
 23
-92.637568219766536
 33
0.0
210
0.0
220
0.0
230
-1.0
  0
SOLID
  5
253A
  8
SAPA_FOGBAND
  6
CONTINUOUS
 10
-18.44907923184018
 20
-92.817845783539738
 30
0.0
 11
-18.809634359386571
 21
-92.817845783539738
 31
0.0
 12
-18.629356795613369
 22
-92.892519195446155
 32
0.0
 13
-18.629356795613369
 23
-92.892519195446155
 33
0.0
210
0.0
220
0.0
230
-1.0
  0
SOLID
  5
253B
  8
SAPA_FOGBAND
  6
CONTINUOUS
 10
18.374405819933731
 20
-92.637568219766536
 30
0.0
 11
18.44907923184018
 21
-92.817845783539738
 31
0.0
 12
18.809634359386571
 22
-92.817845783539738
 32
0.0
 13
18.809634359386571
 23
-92.817845783539738
 33
0.0
210
0.0
220
0.0
230
1.0
  0
SOLID
  5
253C
  8
SAPA_FOGBAND
  6
CONTINUOUS
 10
-18.374405819933731
 20
-92.637568219766536
 30
0.0
 11
-18.88430777129302
 21
-92.637568219766536
 31
0.0
 12
-18.809634359386571
 22
-92.817845783539738
 32
0.0
 13
-18.809634359386571
 23
-92.817845783539738
 33
0.0
210
0.0
220
0.0
230
-1.0
  0
LINE
  5
253D
  8
SAPA_FOGBAND
  6
CONTINUOUS
 10
18.629356795613369
 20
-92.382617244086902
 30
0.0
 11
18.44907923184018
 21
-92.457290655993319
 31
0.0
  0
LINE
  5
253E
  8
SAPA_FOGBAND
  6
CONTINUOUS
 10
18.809634359386571
 20
-92.457290655993319
 30
0.0
 11
18.629356795613369
 21
-92.382617244086902
 31
0.0
  0
LINE
  5
253F
  8
SAPA_FOGBAND
  6
CONTINUOUS
 10
18.44907923184018
 20
-92.457290655993319
 30
0.0
 11
18.374405819933731
 21
-92.637568219766536
 31
0.0
  0
LINE
  5
2540
  8
SAPA_FOGBAND
  6
CONTINUOUS
 10
18.809634359386571
 20
-92.457290655993319
 30
0.0
 11
18.88430777129302
 21
-92.637568219766536
 31
0.0
  0
LINE
  5
2541
  8
SAPA_FOGBAND
  6
CONTINUOUS
 10
18.809634359386571
 20
-92.817845783539738
 30
0.0
 11
18.629356795613369
 21
-92.892519195446155
 31
0.0
  0
LINE
  5
2542
  8
SAPA_FOGBAND
  6
CONTINUOUS
 10
18.629356795613369
 20
-92.892519195446155
 30
0.0
 11
18.44907923184018
 21
-92.817845783539738
 31
0.0
  0
LINE
  5
2543
  8
SAPA_FOGBAND
  6
CONTINUOUS
 10
18.374405819933731
 20
-92.637568219766536
 30
0.0
 11
18.44907923184018
 21
-92.817845783539738
 31
0.0
  0
LINE
  5
2544
  8
SAPA_FOGBAND
  6
CONTINUOUS
 10
18.88430777129302
 20
-92.637568219766536
 30
0.0
 11
18.809634359386571
 21
-92.817845783539738
 31
0.0
  0
ENDBLK
  5
2546
  8
0
  0
BLOCK
  8
0
  2
*U95
 70
     1
 10
0.0
 20
0.0
 30
0.0
  3
*U95
  1

  0
SOLID
  5
25BC
  8
SAPA_FOGBAND
  6
CONTINUOUS
 10
-18.629356795614399
 20
-92.773515879680616
 30
0.0
 11
-18.809634359387601
 21
-92.848189291587047
 31
0.0
 12
-18.4490792318412
 22
-92.848189291587047
 32
0.0
 13
-18.4490792318412
 23
-92.848189291587047
 33
0.0
210
0.0
220
0.0
230
1.0
  0
SOLID
  5
25BD
  8
SAPA_FOGBAND
  6
CONTINUOUS
 10
-18.809634359387601
 20
-92.848189291587047
 30
0.0
 11
-18.88430777129404
 21
-93.02846685536025
 31
0.0
 12
-18.374405819934761
 22
-93.02846685536025
 32
0.0
 13
-18.374405819934761
 23
-93.02846685536025
 33
0.0
210
0.0
220
0.0
230
1.0
  0
SOLID
  5
25BE
  8
SAPA_FOGBAND
  6
CONTINUOUS
 10
18.809634359387601
 20
-92.848189291587047
 30
0.0
 11
18.4490792318412
 21
-92.848189291587047
 31
0.0
 12
18.374405819934761
 22
-93.02846685536025
 32
0.0
 13
18.374405819934761
 23
-93.02846685536025
 33
0.0
210
0.0
220
0.0
230
-1.0
  0
SOLID
  5
25BF
  8
SAPA_FOGBAND
  6
CONTINUOUS
 10
18.809634359387601
 20
-93.208744419133438
 30
0.0
 11
18.4490792318412
 21
-93.208744419133438
 31
0.0
 12
18.629356795614399
 22
-93.283417831039884
 32
0.0
 13
18.629356795614399
 23
-93.283417831039884
 33
0.0
210
0.0
220
0.0
230
-1.0
  0
SOLID
  5
25C0
  8
SAPA_FOGBAND
  6
CONTINUOUS
 10
-18.88430777129404
 20
-93.02846685536025
 30
0.0
 11
-18.809634359387601
 21
-93.208744419133438
 31
0.0
 12
-18.4490792318412
 22
-93.208744419133438
 32
0.0
 13
-18.4490792318412
 23
-93.208744419133438
 33
0.0
210
0.0
220
0.0
230
1.0
  0
SOLID
  5
25C1
  8
SAPA_FOGBAND
  6
CONTINUOUS
 10
18.88430777129404
 20
-93.02846685536025
 30
0.0
 11
18.374405819934761
 21
-93.02846685536025
 31
0.0
 12
18.4490792318412
 22
-93.208744419133438
 32
0.0
 13
18.4490792318412
 23
-93.208744419133438
 33
0.0
210
0.0
220
0.0
230
-1.0
  0
LINE
  5
25C2
  8
SAPA_FOGBAND
  6
CONTINUOUS
 10
-18.629356795614399
 20
-92.773515879680616
 30
0.0
 11
-18.809634359387601
 21
-92.848189291587047
 31
0.0
  0
LINE
  5
25C3
  8
SAPA_FOGBAND
  6
CONTINUOUS
 10
-18.4490792318412
 20
-92.848189291587047
 30
0.0
 11
-18.629356795614399
 21
-92.773515879680616
 31
0.0
  0
LINE
  5
25C4
  8
SAPA_FOGBAND
  6
CONTINUOUS
 10
-18.809634359387601
 20
-92.848189291587047
 30
0.0
 11
-18.88430777129404
 21
-93.02846685536025
 31
0.0
  0
LINE
  5
25C5
  8
SAPA_FOGBAND
  6
CONTINUOUS
 10
-18.4490792318412
 20
-92.848189291587047
 30
0.0
 11
-18.374405819934761
 21
-93.02846685536025
 31
0.0
  0
LINE
  5
25C6
  8
SAPA_FOGBAND
  6
CONTINUOUS
 10
-18.4490792318412
 20
-93.208744419133438
 30
0.0
 11
-18.629356795614399
 21
-93.283417831039884
 31
0.0
  0
LINE
  5
25C7
  8
SAPA_FOGBAND
  6
CONTINUOUS
 10
-18.629356795614399
 20
-93.283417831039884
 30
0.0
 11
-18.809634359387601
 21
-93.208744419133438
 31
0.0
  0
LINE
  5
25C8
  8
SAPA_FOGBAND
  6
CONTINUOUS
 10
-18.88430777129404
 20
-93.02846685536025
 30
0.0
 11
-18.809634359387601
 21
-93.208744419133438
 31
0.0
  0
LINE
  5
25C9
  8
SAPA_FOGBAND
  6
CONTINUOUS
 10
-18.374405819934761
 20
-93.02846685536025
 30
0.0
 11
-18.4490792318412
 21
-93.208744419133438
 31
0.0
  0
ENDBLK
  5
25CB
  8
0
  0
BLOCK
  8
0
  2
*U96
 70
     1
 10
0.0
 20
0.0
 30
0.0
  3
*U96
  1

  0
SOLID
  5
2976
  8
SAPA_FOGBAND
  6
CONTINUOUS
 10
18.629356795613369
 20
-92.382617244086902
 30
0.0
 11
18.44907923184018
 21
-92.457290655993319
 31
0.0
 12
18.809634359386571
 22
-92.457290655993319
 32
0.0
 13
18.809634359386571
 23
-92.457290655993319
 33
0.0
210
0.0
220
0.0
230
1.0
  0
SOLID
  5
2977
  8
SAPA_FOGBAND
  6
CONTINUOUS
 10
18.44907923184018
 20
-92.457290655993319
 30
0.0
 11
18.374405819933731
 21
-92.637568219766536
 31
0.0
 12
18.88430777129302
 22
-92.637568219766536
 32
0.0
 13
18.88430777129302
 23
-92.637568219766536
 33
0.0
210
0.0
220
0.0
230
1.0
  0
SOLID
  5
2978
  8
SAPA_FOGBAND
  6
CONTINUOUS
 10
-18.44907923184018
 20
-92.457290655993319
 30
0.0
 11
-18.809634359386571
 21
-92.457290655993319
 31
0.0
 12
-18.88430777129302
 22
-92.637568219766536
 32
0.0
 13
-18.88430777129302
 23
-92.637568219766536
 33
0.0
210
0.0
220
0.0
230
-1.0
  0
SOLID
  5
2979
  8
SAPA_FOGBAND
  6
CONTINUOUS
 10
-18.44907923184018
 20
-92.817845783539738
 30
0.0
 11
-18.809634359386571
 21
-92.817845783539738
 31
0.0
 12
-18.629356795613369
 22
-92.892519195446155
 32
0.0
 13
-18.629356795613369
 23
-92.892519195446155
 33
0.0
210
0.0
220
0.0
230
-1.0
  0
SOLID
  5
297A
  8
SAPA_FOGBAND
  6
CONTINUOUS
 10
18.374405819933731
 20
-92.637568219766536
 30
0.0
 11
18.44907923184018
 21
-92.817845783539738
 31
0.0
 12
18.809634359386571
 22
-92.817845783539738
 32
0.0
 13
18.809634359386571
 23
-92.817845783539738
 33
0.0
210
0.0
220
0.0
230
1.0
  0
SOLID
  5
297B
  8
SAPA_FOGBAND
  6
CONTINUOUS
 10
-18.374405819933731
 20
-92.637568219766536
 30
0.0
 11
-18.88430777129302
 21
-92.637568219766536
 31
0.0
 12
-18.809634359386571
 22
-92.817845783539738
 32
0.0
 13
-18.809634359386571
 23
-92.817845783539738
 33
0.0
210
0.0
220
0.0
230
-1.0
  0
LINE
  5
297C
  8
SAPA_FOGBAND
  6
CONTINUOUS
 10
18.629356795613369
 20
-92.382617244086902
 30
0.0
 11
18.44907923184018
 21
-92.457290655993319
 31
0.0
  0
LINE
  5
297D
  8
SAPA_FOGBAND
  6
CONTINUOUS
 10
18.809634359386571
 20
-92.457290655993319
 30
0.0
 11
18.629356795613369
 21
-92.382617244086902
 31
0.0
  0
LINE
  5
297E
  8
SAPA_FOGBAND
  6
CONTINUOUS
 10
18.44907923184018
 20
-92.457290655993319
 30
0.0
 11
18.374405819933731
 21
-92.637568219766536
 31
0.0
  0
LINE
  5
297F
  8
SAPA_FOGBAND
  6
CONTINUOUS
 10
18.809634359386571
 20
-92.457290655993319
 30
0.0
 11
18.88430777129302
 21
-92.637568219766536
 31
0.0
  0
LINE
  5
2980
  8
SAPA_FOGBAND
  6
CONTINUOUS
 10
18.809634359386571
 20
-92.817845783539738
 30
0.0
 11
18.629356795613369
 21
-92.892519195446155
 31
0.0
  0
LINE
  5
2981
  8
SAPA_FOGBAND
  6
CONTINUOUS
 10
18.629356795613369
 20
-92.892519195446155
 30
0.0
 11
18.44907923184018
 21
-92.817845783539738
 31
0.0
  0
LINE
  5
2982
  8
SAPA_FOGBAND
  6
CONTINUOUS
 10
18.374405819933731
 20
-92.637568219766536
 30
0.0
 11
18.44907923184018
 21
-92.817845783539738
 31
0.0
  0
LINE
  5
2983
  8
SAPA_FOGBAND
  6
CONTINUOUS
 10
18.88430777129302
 20
-92.637568219766536
 30
0.0
 11
18.809634359386571
 21
-92.817845783539738
 31
0.0
  0
ENDBLK
  5
2985
  8
0
  0
BLOCK
  8
0
  2
*U97
 70
     1
 10
0.0
 20
0.0
 30
0.0
  3
*U97
  1

  0
SOLID
  5
29FB
  8
SAPA_FOGBAND
  6
CONTINUOUS
 10
-18.629356795614399
 20
-92.773515879680616
 30
0.0
 11
-18.809634359387601
 21
-92.848189291587047
 31
0.0
 12
-18.4490792318412
 22
-92.848189291587047
 32
0.0
 13
-18.4490792318412
 23
-92.848189291587047
 33
0.0
210
0.0
220
0.0
230
1.0
  0
SOLID
  5
29FC
  8
SAPA_FOGBAND
  6
CONTINUOUS
 10
-18.809634359387601
 20
-92.848189291587047
 30
0.0
 11
-18.88430777129404
 21
-93.02846685536025
 31
0.0
 12
-18.374405819934761
 22
-93.02846685536025
 32
0.0
 13
-18.374405819934761
 23
-93.02846685536025
 33
0.0
210
0.0
220
0.0
230
1.0
  0
SOLID
  5
29FD
  8
SAPA_FOGBAND
  6
CONTINUOUS
 10
18.809634359387601
 20
-92.848189291587047
 30
0.0
 11
18.4490792318412
 21
-92.848189291587047
 31
0.0
 12
18.374405819934761
 22
-93.02846685536025
 32
0.0
 13
18.374405819934761
 23
-93.02846685536025
 33
0.0
210
0.0
220
0.0
230
-1.0
  0
SOLID
  5
29FE
  8
SAPA_FOGBAND
  6
CONTINUOUS
 10
18.809634359387601
 20
-93.208744419133438
 30
0.0
 11
18.4490792318412
 21
-93.208744419133438
 31
0.0
 12
18.629356795614399
 22
-93.283417831039884
 32
0.0
 13
18.629356795614399
 23
-93.283417831039884
 33
0.0
210
0.0
220
0.0
230
-1.0
  0
SOLID
  5
29FF
  8
SAPA_FOGBAND
  6
CONTINUOUS
 10
-18.88430777129404
 20
-93.02846685536025
 30
0.0
 11
-18.809634359387601
 21
-93.208744419133438
 31
0.0
 12
-18.4490792318412
 22
-93.208744419133438
 32
0.0
 13
-18.4490792318412
 23
-93.208744419133438
 33
0.0
210
0.0
220
0.0
230
1.0
  0
SOLID
  5
2A00
  8
SAPA_FOGBAND
  6
CONTINUOUS
 10
18.88430777129404
 20
-93.02846685536025
 30
0.0
 11
18.374405819934761
 21
-93.02846685536025
 31
0.0
 12
18.4490792318412
 22
-93.208744419133438
 32
0.0
 13
18.4490792318412
 23
-93.208744419133438
 33
0.0
210
0.0
220
0.0
230
-1.0
  0
LINE
  5
2A01
  8
SAPA_FOGBAND
  6
CONTINUOUS
 10
-18.629356795614399
 20
-92.773515879680616
 30
0.0
 11
-18.809634359387601
 21
-92.848189291587047
 31
0.0
  0
LINE
  5
2A02
  8
SAPA_FOGBAND
  6
CONTINUOUS
 10
-18.4490792318412
 20
-92.848189291587047
 30
0.0
 11
-18.629356795614399
 21
-92.773515879680616
 31
0.0
  0
LINE
  5
2A03
  8
SAPA_FOGBAND
  6
CONTINUOUS
 10
-18.809634359387601
 20
-92.848189291587047
 30
0.0
 11
-18.88430777129404
 21
-93.02846685536025
 31
0.0
  0
LINE
  5
2A04
  8
SAPA_FOGBAND
  6
CONTINUOUS
 10
-18.4490792318412
 20
-92.848189291587047
 30
0.0
 11
-18.374405819934761
 21
-93.02846685536025
 31
0.0
  0
LINE
  5
2A05
  8
SAPA_FOGBAND
  6
CONTINUOUS
 10
-18.4490792318412
 20
-93.208744419133438
 30
0.0
 11
-18.629356795614399
 21
-93.283417831039884
 31
0.0
  0
LINE
  5
2A06
  8
SAPA_FOGBAND
  6
CONTINUOUS
 10
-18.629356795614399
 20
-93.283417831039884
 30
0.0
 11
-18.809634359387601
 21
-93.208744419133438
 31
0.0
  0
LINE
  5
2A07
  8
SAPA_FOGBAND
  6
CONTINUOUS
 10
-18.88430777129404
 20
-93.02846685536025
 30
0.0
 11
-18.809634359387601
 21
-93.208744419133438
 31
0.0
  0
LINE
  5
2A08
  8
SAPA_FOGBAND
  6
CONTINUOUS
 10
-18.374405819934761
 20
-93.02846685536025
 30
0.0
 11
-18.4490792318412
 21
-93.208744419133438
 31
0.0
  0
ENDBLK
  5
2A0A
  8
0
  0
BLOCK
  8
0
  2
*U98
 70
     1
 10
0.0
 20
0.0
 30
0.0
  3
*U98
  1

  0
TEXT
  5
2A4D
  8
SAPA_MATT
 62
     2
 10
-29.724999999999088
 20
47.592369856398648
 30
0.0
 40
3.5
  1
7
  7
ISO
  0
ENDBLK
  5
2A4F
  8
0
  0
BLOCK
  8
0
  2
*U99
 70
     1
 10
0.0
 20
0.0
 30
0.0
  3
*U99
  1

  0
TEXT
  5
2A51
  8
SAPA_MATT
 62
     2
 10
-60.715131157909298
 20
108.87499999999881
 30
0.0
 40
3.5
  1
74
 50
90.0
  7
ISO
  0
ENDBLK
  5
2A53
  8
0
  0
BLOCK
  8
0
  2
*U100
 70
     1
 10
0.0
 20
0.0
 30
0.0
  3
*U100
  1

  0
TEXT
  5
2A55
  8
SAPA_MATT
 62
     2
 10
-2.4499999999996591
 20
-132.8699098731156
 30
0.0
 40
3.5
  1
50
  7
ISO
  0
ENDBLK
  5
2A57
  8
0
  0
ENDSEC
  0
SECTION
  2
ENTITIES
  0
POLYLINE
  5
7DB
  8
SAPA_LIGHT
 66
     1
 10
0.0
 20
0.0
 30
0.0
 70
     1
  0
VERTEX
  5
1824
  8
SAPA_LIGHT
 10
-24.999999999999769
 20
-48.499999999010242
 30
0.0
  0
VERTEX
  5
1825
  8
SAPA_LIGHT
 10
-25.000000000000231
 20
64.499999999998863
 30
0.0
  0
VERTEX
  5
1826
  8
SAPA_LIGHT
 10
24.999999999999769
 20
64.499999999998863
 30
0.0
  0
VERTEX
  5
1827
  8
SAPA_LIGHT
 10
24.999999999999769
 20
-47.999999998753083
 30
0.0
  0
VERTEX
  5
1828
  8
SAPA_LIGHT
 10
4.9999999999997717
 20
-47.999999998753083
 30
0.0
  0
VERTEX
  5
1829
  8
SAPA_LIGHT
 10
4.9999999948005316
 20
-87.500000086434113
 30
0.0
  0
VERTEX
  5
182A
  8
SAPA_LIGHT
 10
24.999999994801328
 20
-87.500000066291875
 30
0.0
  0
VERTEX
  5
182B
  8
SAPA_LIGHT
 10
24.999999999999321
 20
-114.4999999990105
 30
0.0
  0
VERTEX
  5
182C
  8
SAPA_LIGHT
 10
-25.000000000000679
 20
-114.4999999990105
 30
0.0
  0
VERTEX
  5
182D
  8
SAPA_LIGHT
 10
-25.000000000000799
 20
-90.499999999011834
 30
0.0
  0
VERTEX
  5
182E
  8
SAPA_LIGHT
 10
-5.0000000000012497
 20
-90.499999999011834
 30
0.0
  0
VERTEX
  5
182F
  8
SAPA_LIGHT
 10
-5.0000000000002274
 20
-48.499999999010242
 30
0.0
  0
SEQEND
  5
1830
  8
SAPA_LIGHT
  0
POLYLINE
  5
7DC
  8
SAPA_LIGHT
 66
     1
 10
0.0
 20
0.0
 30
0.0
  0
VERTEX
  5
1831
  8
SAPA_LIGHT
 10
-41.000000747073273
 20
-90.499999999011777
 30
0.0
  0
VERTEX
  5
1832
  8
SAPA_LIGHT
 10
-11.000000747073271
 20
-90.499999999011777
 30
0.0
  0
VERTEX
  5
1833
  8
SAPA_LIGHT
 10
-11.000000747072249
 20
-48.499999999010242
 30
0.0
  0
VERTEX
  5
1834
  8
SAPA_LIGHT
 10
-41.000000747072242
 20
-48.499999999010242
 30
0.0
  0
SEQEND
  5
1835
  8
SAPA_LIGHT
  0
POLYLINE
  5
7DD
  8
SAPA_LIGHT
 66
     1
 10
0.0
 20
0.0
 30
0.0
 70
     1
  0
VERTEX
  5
1836
  8
SAPA_LIGHT
 10
152.8137866299991
 20
-78.550000033388415
 30
0.0
  0
VERTEX
  5
1837
  8
SAPA_LIGHT
 10
170.00000000007361
 20
-78.549999973071181
 30
0.0
  0
VERTEX
  5
1838
  8
SAPA_LIGHT
 10
170.00000000007361
 20
-87.499999894491793
 30
0.0
  0
VERTEX
  5
1839
  8
SAPA_LIGHT
 10
89.49999999941997
 20
-87.499999896131285
 30
0.0
  0
VERTEX
  5
183A
  8
SAPA_LIGHT
 10
89.500000197391259
 20
-13.49999991504421
 30
0.0
  0
VERTEX
  5
183B
  8
SAPA_LIGHT
 10
169.99997618329769
 20
-13.49999989841438
 30
0.0
  0
VERTEX
  5
183C
  8
SAPA_LIGHT
 10
169.99997618329769
 20
-36.550000033388407
 30
0.0
  0
VERTEX
  5
183D
  8
SAPA_LIGHT
 10
152.8137866299991
 20
-36.550000093608901
 30
0.0
  0
SEQEND
  5
183E
  8
SAPA_LIGHT
  0
POLYLINE
  5
7DE
  8
SAPA_LIGHT
 66
     1
 10
0.0
 20
0.0
 30
0.0
  0
VERTEX
  5
183F
  8
SAPA_LIGHT
 10
89.49999999941997
 20
-87.499999896131285
 30
0.0
  0
VERTEX
  5
1840
  8
SAPA_LIGHT
 10
8.9999999993144684
 20
-87.499999896131285
 30
0.0
  0
VERTEX
  5
1841
  8
SAPA_LIGHT
 10
8.9999999998945555
 20
-47.999999998753083
 30
0.0
  0
VERTEX
  5
1842
  8
SAPA_LIGHT
 10
24.999999999999769
 20
-47.999999998753083
 30
0.0
  0
VERTEX
  5
1843
  8
SAPA_LIGHT
 10
24.999999999419739
 20
-13.499999896825379
 30
0.0
  0
VERTEX
  5
1844
  8
SAPA_LIGHT
 10
89.500000197391259
 20
-13.50000006938148
 30
0.0
  0
SEQEND
  5
1845
  8
SAPA_LIGHT
  0
INSERT
  5
D2E
  8
0
  2
*U83
 10
0.0
 20
0.0
 30
0.0
  0
INSERT
  5
D31
  8
0
  2
*U84
 10
0.0
 20
0.0
 30
0.0
  0
INSERT
  5
D32
  8
0
  2
*U85
 10
0.0
 20
0.0
 30
0.0
  0
INSERT
  5
D33
  8
0
  2
*U86
 10
0.0
 20
0.0
 30
0.0
  0
LINE
  5
D42
  8
SAPA_ANSLUTNING
 10
24.99999999999989
 20
69.034178867204986
 30
0.0
 11
24.99999999999989
 21
-41.500000000001137
 31
0.0
  0
LINE
  5
D43
  8
SAPA_ANSLUTNING
 10
26.000000000000799
 20
69.034178867205014
 30
0.0
 11
25.021238481693789
 21
69.034178867205014
 31
0.0
  0
INSERT
  5
E2C
  8
0
  2
*U87
 10
0.0
 20
0.0
 30
0.0
  0
INSERT
  5
E2D
  8
0
  2
*U88
 10
0.0
 20
0.0
 30
0.0
  0
LINE
  5
E88
  8
SAPA_ANSLUTNING
 10
24.99999999999989
 20
-78.629051083350589
 30
0.0
 11
35.500000000000611
 21
-67.619865736888187
 31
0.0
  0
LINE
  5
E89
  8
SAPA_ANSLUTNING
 10
35.500000000000611
 20
-67.619865736888187
 30
0.0
 11
24.99999999999989
 21
-57.610680390425777
 31
0.0
  0
LINE
  5
E8A
  8
SAPA_ANSLUTNING
 10
24.99999999999989
 20
-57.610680390425777
 30
0.0
 11
35.500000000000611
 21
-47.601495043963382
 31
0.0
  0
LINE
  5
E8B
  8
SAPA_ANSLUTNING
 10
35.500000000000611
 20
-47.601495043963382
 30
0.0
 11
24.99999999999989
 21
-37.60149504397134
 31
0.0
  0
LINE
  5
E8C
  8
SAPA_ANSLUTNING
 10
24.99999999999989
 20
-37.60149504397134
 30
0.0
 11
35.500000000000611
 21
-27.601495043979298
 31
0.0
  0
LINE
  5
E8D
  8
SAPA_ANSLUTNING
 10
35.500000000000611
 20
-27.601495043979298
 30
0.0
 11
24.9908146535297
 21
-17.592309697516889
 31
0.0
  0
LINE
  5
E8E
  8
SAPA_ANSLUTNING
 10
24.9908146535297
 20
-17.592309697516889
 30
0.0
 11
35.500000000000611
 21
-7.5831243510544653
 31
0.0
  0
LINE
  5
E8F
  8
SAPA_ANSLUTNING
 10
35.500000000000611
 20
-7.5831243510544653
 30
0.0
 11
25.000000000010122
 21
2.4168756489276002
 31
0.0
  0
LINE
  5
E90
  8
SAPA_ANSLUTNING
 10
25.000000000010122
 20
2.4168756489276002
 30
0.0
 11
35.500000000000611
 21
12.41687564890972
 31
0.0
  0
LINE
  5
E91
  8
SAPA_ANSLUTNING
 10
35.500000000000611
 20
12.41687564890972
 30
0.0
 11
24.9908146535297
 21
22.426060995372101
 31
0.0
  0
LINE
  5
E92
  8
SAPA_ANSLUTNING
 10
24.9908146535297
 20
22.426060995372101
 30
0.0
 11
35.500000000000611
 21
32.435246341834528
 31
0.0
  0
LINE
  5
E93
  8
SAPA_ANSLUTNING
 10
35.500000000000611
 20
32.435246341834528
 30
0.0
 11
25.00000000000011
 21
42.435246341826478
 31
0.0
  0
LINE
  5
E94
  8
SAPA_ANSLUTNING
 10
25.00000000000011
 20
42.435246341826478
 30
0.0
 11
35.500000000000611
 21
52.435246341818562
 31
0.0
  0
LINE
  5
E95
  8
SAPA_ANSLUTNING
 10
35.500000000000611
 20
52.435246341818562
 30
0.0
 11
25.00000000000011
 21
62.435246341810561
 31
0.0
  0
LINE
  5
E96
  8
SAPA_ANSLUTNING
 10
25.00000000000011
 20
62.435246341810561
 30
0.0
 11
31.561130032408421
 21
69.034178867205014
 31
0.0
  0
LINE
  5
EBB
  8
SAPA_ANSLUTNING
 10
24.99999999999989
 20
-78.629051083350589
 30
0.0
 11
34.891282615187151
 21
-89.000000000001094
 31
0.0
  0
LINE
  5
EC0
  8
SAPA_ANSLUTNING
 10
24.99999999999989
 20
-89.000000000001137
 30
0.0
 11
24.99999999999989
 21
-35.500000000001172
 31
0.0
  0
INSERT
  5
10B0
  8
0
  2
*U89
 10
0.0
 20
0.0
 30
0.0
  0
LINE
  5
14D1
  8
SAPA_PROFIL
 10
35.500000000000682
 20
68.534178867205014
 30
0.0
 11
35.500000000000341
 21
-89.000000000001094
 31
0.0
  0
LINE
  5
14D2
  8
SAPA_PROFIL
 10
35.500000000000341
 20
-89.000000000001094
 30
0.0
 11
6.0000000000003411
 21
-89.000000000001094
 31
0.0
  0
LINE
  5
14D3
  8
SAPA_PROFIL
 10
6.0000000000003411
 20
-89.000000000001094
 30
0.0
 11
6.0000000000003411
 21
-90.500000000001094
 31
0.0
  0
LINE
  5
14D4
  8
SAPA_PROFIL
 10
6.0000000000003411
 20
-90.500000000001094
 30
0.0
 11
36.000000000000341
 21
-90.500000000001094
 31
0.0
  0
ARC
  5
14D5
  8
SAPA_PROFIL
 10
36.000000000000341
 20
-89.500000000001108
 30
0.0
 40
1.0
 50
270.0
 51
0.0
  0
LINE
  5
14D6
  8
SAPA_PROFIL
 10
37.000000000000341
 20
-89.500000000001108
 30
0.0
 11
37.000000000000689
 21
68.534178867205014
 31
0.0
  0
ARC
  5
14D7
  8
SAPA_PROFIL
 10
35.000000000000632
 20
68.534178867204957
 30
0.0
 40
2.000000000000056
 50
0.0000000000016284
 51
90.000000000001606
  0
LINE
  5
14D8
  8
SAPA_PROFIL
 10
35.000000000000568
 20
70.534178867205014
 30
0.0
 11
26.000000000000799
 21
70.534178867205014
 31
0.0
  0
LINE
  5
14D9
  8
SAPA_PROFIL
 10
26.000000000000799
 20
70.534178867205014
 30
0.0
 11
26.000000000000799
 21
69.034178867205014
 31
0.0
  0
LINE
  5
14DA
  8
SAPA_PROFIL
 10
26.000000000000799
 20
69.034178867205014
 30
0.0
 11
35.000000000000568
 21
69.034178867205014
 31
0.0
  0
ARC
  5
14DB
  8
SAPA_PROFIL
 10
35.000000000000611
 20
68.534178867204943
 30
0.0
 40
0.5000000000000711
 50
0.0000000000081422
 51
90.000000000004874
  0
POLYLINE
  5
1675
  8
SAPA_PROFIL
 66
     1
 10
0.0
 20
0.0
 30
0.0
 70
     1
  0
VERTEX
  5
1C3F
  8
SAPA_PROFIL
 10
-12.99999999999795
 20
68.465925826287645
 30
0.0
  0
VERTEX
  5
1C40
  8
SAPA_PROFIL
 10
-11.99999999999795
 20
67.465925826287659
 30
0.0
  0
VERTEX
  5
1C41
  8
SAPA_PROFIL
 10
-0.9999999999979536
 20
67.465925826287659
 30
0.0
  0
VERTEX
  5
1C42
  8
SAPA_PROFIL
 10
0.0000000000020464
 20
68.465925826287645
 30
0.0
  0
VERTEX
  5
1C43
  8
SAPA_PROFIL
 10
2.4999992579301979
 20
68.465925826287645
 30
0.0
 42
-1.0000014841447959
  0
VERTEX
  5
1C44
  8
SAPA_PROFIL
 10
2.4999992579301979
 20
67.465925826288228
 30
0.0
  0
VERTEX
  5
1C45
  8
SAPA_PROFIL
 10
1.2500000000020459
 20
67.465925826287659
 30
0.0
  0
VERTEX
  5
1C46
  8
SAPA_PROFIL
 10
1.2500000000020459
 20
66.365925826287636
 30
0.0
  0
VERTEX
  5
1C47
  8
SAPA_PROFIL
 10
8.7500000000020464
 20
66.365925826287636
 30
0.0
  0
VERTEX
  5
1C48
  8
SAPA_PROFIL
 10
8.7500000000020464
 20
67.465925826287659
 30
0.0
  0
VERTEX
  5
1C49
  8
SAPA_PROFIL
 10
7.4999980971990681
 20
67.465925826287659
 30
0.0
 42
-0.9999967549392536
  0
VERTEX
  5
1C4A
  8
SAPA_PROFIL
 10
7.49999865773907
 20
68.46592582628584
 30
0.0
  0
VERTEX
  5
1C4B
  8
SAPA_PROFIL
 10
9.5358983848643675
 20
68.465925826287645
 30
0.0
  0
VERTEX
  5
1C4C
  8
SAPA_PROFIL
 10
11.500000000002039
 20
67.331951230072079
 30
0.0
 42
-0.577350269189629
  0
VERTEX
  5
1C4D
  8
SAPA_PROFIL
 10
11.500000000002039
 20
65.599900422503183
 30
0.0
  0
VERTEX
  5
1C4E
  8
SAPA_PROFIL
 10
9.7679491924333206
 20
64.599900422503239
 30
0.0
 42
-0.4142135623730394
  0
VERTEX
  5
1C4F
  8
SAPA_PROFIL
 10
8.4019237886489009
 20
64.965925826287489
 30
0.0
  0
VERTEX
  5
1C50
  8
SAPA_PROFIL
 10
-21.401923788644812
 20
64.965925826287489
 30
0.0
 42
-0.4142135623730394
  0
VERTEX
  5
1C51
  8
SAPA_PROFIL
 10
-22.767949192429111
 20
64.599900422503239
 30
0.0
  0
VERTEX
  5
1C52
  8
SAPA_PROFIL
 10
-24.49999999999795
 20
65.599900422503183
 30
0.0
 42
-0.5773502691896291
  0
VERTEX
  5
1C53
  8
SAPA_PROFIL
 10
-24.49999999999795
 20
67.331951230072079
 30
0.0
  0
VERTEX
  5
1C54
  8
SAPA_PROFIL
 10
-22.535898384860161
 20
68.465925826287645
 30
0.0
  0
VERTEX
  5
1C55
  8
SAPA_PROFIL
 10
-20.49999865773492
 20
68.46592582628584
 30
0.0
 42
-0.9999967549392536
  0
VERTEX
  5
1C56
  8
SAPA_PROFIL
 10
-20.499998097194919
 20
67.465925826287659
 30
0.0
  0
VERTEX
  5
1C57
  8
SAPA_PROFIL
 10
-21.74999999999795
 20
67.465925826287659
 30
0.0
  0
VERTEX
  5
1C58
  8
SAPA_PROFIL
 10
-21.74999999999795
 20
66.365925826287636
 30
0.0
  0
VERTEX
  5
1C59
  8
SAPA_PROFIL
 10
-14.24999999999795
 20
66.365925826287636
 30
0.0
  0
VERTEX
  5
1C5A
  8
SAPA_PROFIL
 10
-14.24999999999795
 20
67.465925826287659
 30
0.0
  0
VERTEX
  5
1C5B
  8
SAPA_PROFIL
 10
-15.499999257926101
 20
67.465925826288228
 30
0.0
 42
-1.0000014841447959
  0
VERTEX
  5
1C5C
  8
SAPA_PROFIL
 10
-15.499999257926101
 20
68.465925826287645
 30
0.0
  0
SEQEND
  5
1C5D
  8
SAPA_PROFIL
  0
POLYLINE
  5
1676
  8
SAPA_PROFIL
  6
CONTINUOUS
 66
     1
 10
0.0
 20
0.0
 30
0.0
 70
     1
  0
VERTEX
  5
1C5E
  8
SAPA_PROFIL
  6
CONTINUOUS
 10
13.799999999998249
 20
78.500000004083574
 30
0.0
 42
-0.414213562374094
  0
VERTEX
  5
1C5F
  8
SAPA_PROFIL
  6
CONTINUOUS
 10
14.099999999998319
 20
78.800000004082619
 30
0.0
  0
VERTEX
  5
1C60
  8
SAPA_PROFIL
  6
CONTINUOUS
 10
14.999999999998289
 20
78.800000004083529
 30
0.0
 42
-0.4142135623730951
  0
VERTEX
  5
1C61
  8
SAPA_PROFIL
  6
CONTINUOUS
 10
15.299999999998249
 20
78.500000004083574
 30
0.0
  0
VERTEX
  5
1C62
  8
SAPA_PROFIL
  6
CONTINUOUS
 10
15.299999999998249
 20
77.000000004083574
 30
0.0
 42
0.4142135623730951
  0
VERTEX
  5
1C63
  8
SAPA_PROFIL
  6
CONTINUOUS
 10
15.799999999998249
 20
76.500000004083574
 30
0.0
  0
VERTEX
  5
1C64
  8
SAPA_PROFIL
  6
CONTINUOUS
 10
18.799999999984259
 20
76.500000004051628
 30
0.0
 42
0.4142135623760252
  0
VERTEX
  5
1C65
  8
SAPA_PROFIL
  6
CONTINUOUS
 10
19.299999999989261
 20
77.000000004051628
 30
0.0
  0
VERTEX
  5
1C66
  8
SAPA_PROFIL
  6
CONTINUOUS
 10
19.299999999989261
 20
93.700000000013631
 30
0.0
 42
0.4142135623760253
  0
VERTEX
  5
1C67
  8
SAPA_PROFIL
  6
CONTINUOUS
 10
18.799999999984259
 20
94.200000000013645
 30
0.0
  0
VERTEX
  5
1C68
  8
SAPA_PROFIL
  6
CONTINUOUS
 10
15.799999999998249
 20
94.199999999981571
 30
0.0
 42
0.4142135623730951
  0
VERTEX
  5
1C69
  8
SAPA_PROFIL
  6
CONTINUOUS
 10
15.299999999998249
 20
93.699999999981571
 30
0.0
  0
VERTEX
  5
1C6A
  8
SAPA_PROFIL
  6
CONTINUOUS
 10
15.29999999999734
 20
92.499999999982663
 30
0.0
 42
-0.414213562374094
  0
VERTEX
  5
1C6B
  8
SAPA_PROFIL
  6
CONTINUOUS
 10
14.999999999998289
 20
92.199999999982595
 30
0.0
  0
VERTEX
  5
1C6C
  8
SAPA_PROFIL
  6
CONTINUOUS
 10
14.099999999998319
 20
92.199999999982595
 30
0.0
 42
-0.414213562375093
  0
VERTEX
  5
1C6D
  8
SAPA_PROFIL
  6
CONTINUOUS
 10
13.799999999998249
 20
92.499999999982663
 30
0.0
  0
VERTEX
  5
1C6E
  8
SAPA_PROFIL
  6
CONTINUOUS
 10
13.799999999999271
 20
93.899999999982654
 30
0.0
 42
0.414213562374094
  0
VERTEX
  5
1C6F
  8
SAPA_PROFIL
  6
CONTINUOUS
 10
13.499999999998289
 20
94.199999999982595
 30
0.0
  0
VERTEX
  5
1C70
  8
SAPA_PROFIL
  6
CONTINUOUS
 10
3.622258092416359
 20
94.199999999997829
 30
0.0
 42
-0.267949192430926
  0
VERTEX
  5
1C71
  8
SAPA_PROFIL
  6
CONTINUOUS
 10
1.4571945829583219
 20
95.449999999999633
 30
0.0
  0
VERTEX
  5
1C72
  8
SAPA_PROFIL
  6
CONTINUOUS
 10
-0.159386170804737
 20
98.250000000059643
 30
0.0
 42
0.2679491924363432
  0
VERTEX
  5
1C73
  8
SAPA_PROFIL
  6
CONTINUOUS
 10
-0.592398872705644
 20
98.500000000060652
 30
0.0
  0
VERTEX
  5
1C74
  8
SAPA_PROFIL
  6
CONTINUOUS
 10
-5.7000000000047057
 20
98.499999999968665
 30
0.0
 42
0.4142135623682002
  0
VERTEX
  5
1C75
  8
SAPA_PROFIL
  6
CONTINUOUS
 10
-5.9999999999996581
 20
98.199999999968654
 30
0.0
  0
VERTEX
  5
1C76
  8
SAPA_PROFIL
  6
CONTINUOUS
 10
-5.9999999999996581
 20
97.799999996326576
 30
0.0
 42
-0.4142135623730784
  0
VERTEX
  5
1C77
  8
SAPA_PROFIL
  6
CONTINUOUS
 10
-6.4999999999996581
 20
97.299999996326619
 30
0.0
  0
VERTEX
  5
1C78
  8
SAPA_PROFIL
  6
CONTINUOUS
 10
-17.999999999998749
 20
97.299999996326619
 30
0.0
 42
0.4142135623730951
  0
VERTEX
  5
1C79
  8
SAPA_PROFIL
  6
CONTINUOUS
 10
-18.299999999998821
 20
96.999999996326608
 30
0.0
  0
VERTEX
  5
1C7A
  8
SAPA_PROFIL
  6
CONTINUOUS
 10
-18.2999999999987
 20
96.799999996326676
 30
0.0
 42
-0.4142135623730951
  0
VERTEX
  5
1C7B
  8
SAPA_PROFIL
  6
CONTINUOUS
 10
-18.599999999998658
 20
96.499999996326665
 30
0.0
  0
VERTEX
  5
1C7C
  8
SAPA_PROFIL
  6
CONTINUOUS
 10
-21.000000000014658
 20
96.499999996326622
 30
0.0
 42
0.4142135623730951
  0
VERTEX
  5
1C7D
  8
SAPA_PROFIL
  6
CONTINUOUS
 10
-21.30000000001473
 20
96.199999996326611
 30
0.0
  0
VERTEX
  5
1C7E
  8
SAPA_PROFIL
  6
CONTINUOUS
 10
-21.299999999945729
 20
94.700000000032617
 30
0.0
 42
-0.4142135623730951
  0
VERTEX
  5
1C7F
  8
SAPA_PROFIL
  6
CONTINUOUS
 10
-21.799999999945719
 20
94.200000000032617
 30
0.0
  0
VERTEX
  5
1C80
  8
SAPA_PROFIL
  6
CONTINUOUS
 10
-29.999999999934751
 20
94.200000000032617
 30
0.0
 42
0.4142135623730951
  0
VERTEX
  5
1C81
  8
SAPA_PROFIL
  6
CONTINUOUS
 10
-30.299999999934808
 20
93.900000000032676
 30
0.0
  0
VERTEX
  5
1C82
  8
SAPA_PROFIL
  6
CONTINUOUS
 10
-30.300000000006658
 20
85.200000000035573
 30
0.0
 42
0.4142135623711971
  0
VERTEX
  5
1C83
  8
SAPA_PROFIL
  6
CONTINUOUS
 10
-30.000000000005681
 20
84.900000000032662
 30
0.0
  0
VERTEX
  5
1C84
  8
SAPA_PROFIL
  6
CONTINUOUS
 10
-25.50000000001376
 20
84.899999999998656
 30
0.0
 42
-0.4142135623686664
  0
VERTEX
  5
1C85
  8
SAPA_PROFIL
  6
CONTINUOUS
 10
-22.800000000034739
 20
82.200000000018633
 30
0.0
  0
VERTEX
  5
1C86
  8
SAPA_PROFIL
  6
CONTINUOUS
 10
-22.799999999996661
 20
77.099999998220653
 30
0.0
 42
0.414213562636633
  0
VERTEX
  5
1C87
  8
SAPA_PROFIL
  6
CONTINUOUS
 10
-22.499999999723741
 20
76.799999998223655
 30
0.0
  0
VERTEX
  5
1C88
  8
SAPA_PROFIL
  6
CONTINUOUS
 10
-17.924264068847599
 20
76.800000001680743
 30
0.0
 42
-0.1989123675764697
  0
VERTEX
  5
1C89
  8
SAPA_PROFIL
  6
CONTINUOUS
 10
-17.712132034264641
 20
76.71213203603628
 30
0.0
  0
VERTEX
  5
1C8A
  8
SAPA_PROFIL
  6
CONTINUOUS
 10
-17.58786796795982
 20
76.587867969730993
 30
0.0
 42
0.1989123673801594
  0
VERTEX
  5
1C8B
  8
SAPA_PROFIL
  6
CONTINUOUS
 10
-17.37573593360344
 20
76.50000000408653
 30
0.0
  0
VERTEX
  5
1C8C
  8
SAPA_PROFIL
  6
CONTINUOUS
 10
6.3757359313132147
 20
76.500000004085663
 30
0.0
 42
0.1989123673800758
  0
VERTEX
  5
1C8D
  8
SAPA_PROFIL
  6
CONTINUOUS
 10
6.5878679656694876
 20
76.587867969730041
 30
0.0
  0
VERTEX
  5
1C8E
  8
SAPA_PROFIL
  6
CONTINUOUS
 10
6.712132034346836
 20
76.712132038407731
 30
0.0
 42
-0.1989123673789671
  0
VERTEX
  5
1C8F
  8
SAPA_PROFIL
  6
CONTINUOUS
 10
6.9242640687017447
 20
76.800000004052208
 30
0.0
  0
VERTEX
  5
1C90
  8
SAPA_PROFIL
  6
CONTINUOUS
 10
13.499999999998289
 20
76.800000004082619
 30
0.0
 42
0.414213562374094
  0
VERTEX
  5
1C91
  8
SAPA_PROFIL
  6
CONTINUOUS
 10
13.799999999999271
 20
77.100000004082574
 30
0.0
  0
SEQEND
  5
1C92
  8
SAPA_PROFIL
  6
CONTINUOUS
  0
ARC
  5
1677
  8
SAPA_PROFIL
  6
CONTINUOUS
 62
     7
 10
25.749999999989289
 20
77.360770535658602
 30
0.0
 40
0.2500000000000284
 50
0.0000000000032569
 51
58.228429500529153
  0
LINE
  5
1678
  8
SAPA_PROFIL
  6
CONTINUOUS
 62
     7
 10
25.999999999989321
 20
76.588083210163688
 30
0.0
 11
25.999999999989321
 21
77.360770535658617
 31
0.0
  0
POLYLINE
  5
1679
  8
SAPA_PROFIL
  6
CONTINUOUS
 66
     1
 10
0.0
 20
0.0
 30
0.0
 70
     1
  0
VERTEX
  5
1C93
  8
SAPA_PROFIL
  6
CONTINUOUS
 10
23.757620842458241
 20
96.49999999996659
 30
0.0
 42
-0.2134217652834428
  0
VERTEX
  5
1C94
  8
SAPA_PROFIL
  6
CONTINUOUS
 10
23.981227640208321
 20
96.399999999966454
 30
0.0
 42
0.7625858545243283
  0
VERTEX
  5
1C95
  8
SAPA_PROFIL
  6
CONTINUOUS
 10
24.311553721225351
 20
96.584579202163951
 30
0.0
  0
VERTEX
  5
1C96
  8
SAPA_PROFIL
  6
CONTINUOUS
 10
24.253480084236259
 20
96.775962202157686
 30
0.0
  0
VERTEX
  5
1C97
  8
SAPA_PROFIL
  6
CONTINUOUS
 10
23.168915637264519
 20
98.661805894018727
 30
0.0
  0
VERTEX
  5
1C98
  8
SAPA_PROFIL
  6
CONTINUOUS
 10
22.847157909046249
 20
98.651244527791775
 30
0.0
 42
-0.577350269189743
  0
VERTEX
  5
1C99
  8
SAPA_PROFIL
  6
CONTINUOUS
 10
22.664204168936092
 20
98.945400828046601
 30
0.0
  0
VERTEX
  5
1C9A
  8
SAPA_PROFIL
  6
CONTINUOUS
 10
22.816338080044861
 20
99.230083111278233
 30
0.0
 42
-0.2216946626430171
  0
VERTEX
  5
1C9B
  8
SAPA_PROFIL
  6
CONTINUOUS
 10
23.357217911521651
 20
99.635892016433004
 30
0.0
  0
VERTEX
  5
1C9C
  8
SAPA_PROFIL
  6
CONTINUOUS
 10
25.17044838217987
 20
100.01733861256071
 30
0.0
 42
-0.4769755326981872
  0
VERTEX
  5
1C9D
  8
SAPA_PROFIL
  6
CONTINUOUS
 10
25.542105257125769
 20
99.715085788054253
 30
0.0
  0
VERTEX
  5
1C9E
  8
SAPA_PROFIL
  6
CONTINUOUS
 10
25.54202164924212
 20
98.211984707292274
 30
0.0
  0
VERTEX
  5
1C9F
  8
SAPA_PROFIL
  6
CONTINUOUS
 10
25.494175899243629
 20
98.197466298045157
 30
0.0
 42
0.4142135623730953
  0
VERTEX
  5
1CA0
  8
SAPA_PROFIL
  6
CONTINUOUS
 10
25.294211854736229
 20
97.823281342569345
 30
0.0
  0
VERTEX
  5
1CA1
  8
SAPA_PROFIL
  6
CONTINUOUS
 10
25.799999999989272
 20
96.514672366230045
 30
0.0
  0
VERTEX
  5
1CA2
  8
SAPA_PROFIL
  6
CONTINUOUS
 10
25.799999999989272
 20
93.515361556166624
 30
0.0
 42
-0.259681233730092
  0
VERTEX
  5
1CA3
  8
SAPA_PROFIL
  6
CONTINUOUS
 10
25.681633505929089
 20
93.302823041741604
 30
0.0
  0
VERTEX
  5
1CA4
  8
SAPA_PROFIL
  6
CONTINUOUS
 10
24.457960207117139
 20
92.544953782688651
 30
0.0
 42
-0.5877032589253041
  0
VERTEX
  5
1CA5
  8
SAPA_PROFIL
  6
CONTINUOUS
 10
23.99999999998931
 20
92.799999999998633
 30
0.0
  0
VERTEX
  5
1CA6
  8
SAPA_PROFIL
  6
CONTINUOUS
 10
23.999999999985221
 20
94.234178786389705
 30
0.0
 42
0.4683749459836498
  0
VERTEX
  5
1CA7
  8
SAPA_PROFIL
  6
CONTINUOUS
 10
23.699999999985149
 20
94.499999999998408
 30
0.0
  0
VERTEX
  5
1CA8
  8
SAPA_PROFIL
  6
CONTINUOUS
 10
21.299999999986309
 20
94.499999999998693
 30
0.0
 42
0.4683749459834663
  0
VERTEX
  5
1CA9
  8
SAPA_PROFIL
  6
CONTINUOUS
 10
20.99999999998613
 20
94.234178786389634
 30
0.0
  0
VERTEX
  5
1CAA
  8
SAPA_PROFIL
  6
CONTINUOUS
 10
20.999999999989321
 20
76.799999999998633
 30
0.0
 42
0.4142135623730951
  0
VERTEX
  5
1CAB
  8
SAPA_PROFIL
  6
CONTINUOUS
 10
21.299999999989272
 20
76.499999999998693
 30
0.0
  0
VERTEX
  5
1CAC
  8
SAPA_PROFIL
  6
CONTINUOUS
 10
23.699999999989132
 20
76.499999999998636
 30
0.0
 42
0.4142135623712111
  0
VERTEX
  5
1CAD
  8
SAPA_PROFIL
  6
CONTINUOUS
 10
23.99999999998931
 20
76.799999999998633
 30
0.0
  0
VERTEX
  5
1CAE
  8
SAPA_PROFIL
  6
CONTINUOUS
 10
23.99999999998931
 20
78.199999999998738
 30
0.0
 42
-0.5877032589253028
  0
VERTEX
  5
1CAF
  8
SAPA_PROFIL
  6
CONTINUOUS
 10
24.457960207117249
 20
78.455046217308734
 30
0.0
  0
VERTEX
  5
1CB0
  8
SAPA_PROFIL
  6
CONTINUOUS
 10
25.88163350592902
 20
77.573309050083765
 30
0.0
 42
-0.2596812337301845
  0
VERTEX
  5
1CB1
  8
SAPA_PROFIL
  6
CONTINUOUS
 10
25.999999999989321
 20
77.360770535658673
 30
0.0
  0
VERTEX
  5
1CB2
  8
SAPA_PROFIL
  6
CONTINUOUS
 10
25.999999999989321
 20
76.588083210163688
 30
0.0
 42
0.4023941304328035
  0
VERTEX
  5
1CB3
  8
SAPA_PROFIL
  6
CONTINUOUS
 10
26.287846721313262
 20
76.288329481550704
 30
0.0
  0
VERTEX
  5
1CB4
  8
SAPA_PROFIL
  6
CONTINUOUS
 10
40.760905542704222
 20
75.701530718547701
 30
0.0
 42
0.4373282586278326
  0
VERTEX
  5
1CB5
  8
SAPA_PROFIL
  6
CONTINUOUS
 10
41.300000000026209
 20
76.199999998852661
 30
0.0
  0
VERTEX
  5
1CB6
  8
SAPA_PROFIL
  6
CONTINUOUS
 10
41.300000000025307
 20
77.031400236762636
 30
0.0
 42
0.3639702342660269
  0
VERTEX
  5
1CB7
  8
SAPA_PROFIL
  6
CONTINUOUS
 10
40.886824088857111
 20
77.523804113267033
 30
0.0
  0
VERTEX
  5
1CB8
  8
SAPA_PROFIL
  6
CONTINUOUS
 10
39.713175911190319
 20
77.730749952848669
 30
0.0
 42
-0.8390996311771544
  0
VERTEX
  5
1CB9
  8
SAPA_PROFIL
  6
CONTINUOUS
 10
39.713175911189303
 20
78.715557705859624
 30
0.0
  0
VERTEX
  5
1CBA
  8
SAPA_PROFIL
  6
CONTINUOUS
 10
41.283248567173217
 20
78.992403876785659
 30
0.0
 42
-0.04366094290841
  0
VERTEX
  5
1CBB
  8
SAPA_PROFIL
  6
CONTINUOUS
 10
41.3700726560063
 20
79.000000000278646
 30
0.0
  0
VERTEX
  5
1CBC
  8
SAPA_PROFIL
  6
CONTINUOUS
 10
42.367544468070257
 20
79.000000000279613
 30
0.0
 42
-0.2896898633204923
  0
VERTEX
  5
1CBD
  8
SAPA_PROFIL
  6
CONTINUOUS
 10
43.271052371004323
 20
78.428571428793646
 30
0.0
 42
-0.5507604245835917
  0
VERTEX
  5
1CBE
  8
SAPA_PROFIL
  6
CONTINUOUS
 10
43.00000000010732
 20
78.000000000240675
 30
0.0
  0
VERTEX
  5
1CBF
  8
SAPA_PROFIL
  6
CONTINUOUS
 10
42.80000000013024
 20
78.000000000251646
 30
0.0
 42
0.4142135623779357
  0
VERTEX
  5
1CC0
  8
SAPA_PROFIL
  6
CONTINUOUS
 10
42.500000000113232
 20
77.700000000263685
 30
0.0
  0
VERTEX
  5
1CC1
  8
SAPA_PROFIL
  6
CONTINUOUS
 10
42.500000000055252
 20
76.199999998873693
 30
0.0
 42
0.414213562384816
  0
VERTEX
  5
1CC2
  8
SAPA_PROFIL
  6
CONTINUOUS
 10
43.000000000056268
 20
75.699999998854707
 30
0.0
  0
VERTEX
  5
1CC3
  8
SAPA_PROFIL
  6
CONTINUOUS
 10
46.300000000047248
 20
75.69999999885971
 30
0.0
 42
0.4142135623613409
  0
VERTEX
  5
1CC4
  8
SAPA_PROFIL
  6
CONTINUOUS
 10
46.800000000056222
 20
76.199999998850672
 30
0.0
  0
VERTEX
  5
1CC5
  8
SAPA_PROFIL
  6
CONTINUOUS
 10
46.8000000001133
 20
77.700000000030684
 30
0.0
 42
0.4142135623672138
  0
VERTEX
  5
1CC6
  8
SAPA_PROFIL
  6
CONTINUOUS
 10
46.500000000130292
 20
78.000000000041723
 30
0.0
  0
VERTEX
  5
1CC7
  8
SAPA_PROFIL
  6
CONTINUOUS
 10
46.300000000108298
 20
78.000000000053376
 30
0.0
 42
-0.5507604245886322
  0
VERTEX
  5
1CC8
  8
SAPA_PROFIL
  6
CONTINUOUS
 10
46.028947629259619
 20
78.428571428641931
 30
0.0
 42
-0.2896898632851459
  0
VERTEX
  5
1CC9
  8
SAPA_PROFIL
  6
CONTINUOUS
 10
46.932455532138299
 20
79.000000000013642
 30
0.0
  0
VERTEX
  5
1CCA
  8
SAPA_PROFIL
  6
CONTINUOUS
 10
47.700000000165232
 20
79.000000000013685
 30
0.0
 42
-0.4142135623906921
  0
VERTEX
  5
1CCB
  8
SAPA_PROFIL
  6
CONTINUOUS
 10
48.000000000165301
 20
78.699999999997658
 30
0.0
  0
VERTEX
  5
1CCC
  8
SAPA_PROFIL
  6
CONTINUOUS
 10
47.999999999974413
 20
74.999999999985562
 30
0.0
 42
-0.4142135623566291
  0
VERTEX
  5
1CCD
  8
SAPA_PROFIL
  6
CONTINUOUS
 10
47.499999999959307
 20
74.499999999998593
 30
0.0
  0
VERTEX
  5
1CCE
  8
SAPA_PROFIL
  6
CONTINUOUS
 10
-29.399999999997821
 20
74.499999999998693
 30
0.0
 42
-0.4142135623725956
  0
VERTEX
  5
1CCF
  8
SAPA_PROFIL
  6
CONTINUOUS
 10
-31.99999999999795
 20
77.099999999994168
 30
0.0
  0
VERTEX
  5
1CD0
  8
SAPA_PROFIL
  6
CONTINUOUS
 10
-31.99999999999989
 20
77.599999999997635
 30
0.0
 42
-0.4142135623728287
  0
VERTEX
  5
1CD1
  8
SAPA_PROFIL
  6
CONTINUOUS
 10
-30.999999999999769
 20
78.599999999998715
 30
0.0
  0
VERTEX
  5
1CD2
  8
SAPA_PROFIL
  6
CONTINUOUS
 10
-30.799999999998821
 20
78.599999999998602
 30
0.0
 42
-0.4142135623730951
  0
VERTEX
  5
1CD3
  8
SAPA_PROFIL
  6
CONTINUOUS
 10
-30.49999999999887
 20
78.299999999998647
 30
0.0
  0
VERTEX
  5
1CD4
  8
SAPA_PROFIL
  6
CONTINUOUS
 10
-30.499999999998749
 20
76.799999996782674
 30
0.0
 42
0.4142135623722084
  0
VERTEX
  5
1CD5
  8
SAPA_PROFIL
  6
CONTINUOUS
 10
-30.199999999999712
 20
76.500000004086644
 30
0.0
  0
VERTEX
  5
1CD6
  8
SAPA_PROFIL
  6
CONTINUOUS
 10
-29.499999999999659
 20
76.500000004086644
 30
0.0
 42
0.4142135623731094
  0
VERTEX
  5
1CD7
  8
SAPA_PROFIL
  6
CONTINUOUS
 10
-29.199999999999712
 20
76.799999996782674
 30
0.0
  0
VERTEX
  5
1CD8
  8
SAPA_PROFIL
  6
CONTINUOUS
 10
-29.199999999998798
 20
78.299999999998647
 30
0.0
 42
-0.4142135623720961
  0
VERTEX
  5
1CD9
  8
SAPA_PROFIL
  6
CONTINUOUS
 10
-28.89999999999986
 20
78.599999999998715
 30
0.0
  0
VERTEX
  5
1CDA
  8
SAPA_PROFIL
  6
CONTINUOUS
 10
-28.199999999998681
 20
78.599999999998602
 30
0.0
 42
-0.4142135623730951
  0
VERTEX
  5
1CDB
  8
SAPA_PROFIL
  6
CONTINUOUS
 10
-27.89999999999873
 20
78.299999999998647
 30
0.0
  0
VERTEX
  5
1CDC
  8
SAPA_PROFIL
  6
CONTINUOUS
 10
-27.89999999999873
 20
76.800000004086712
 30
0.0
 42
0.4142135623740939
  0
VERTEX
  5
1CDD
  8
SAPA_PROFIL
  6
CONTINUOUS
 10
-27.599999999998769
 20
76.500000004086644
 30
0.0
  0
VERTEX
  5
1CDE
  8
SAPA_PROFIL
  6
CONTINUOUS
 10
-25.49999999999773
 20
76.500000004086644
 30
0.0
 42
0.4142135623730951
  0
VERTEX
  5
1CDF
  8
SAPA_PROFIL
  6
CONTINUOUS
 10
-24.49999999999773
 20
77.500000004086644
 30
0.0
  0
VERTEX
  5
1CE0
  8
SAPA_PROFIL
  6
CONTINUOUS
 10
-24.49999999999784
 20
82.199999999998738
 30
0.0
 42
0.4142135623619735
  0
VERTEX
  5
1CE1
  8
SAPA_PROFIL
  6
CONTINUOUS
 10
-25.49999999999682
 20
83.199999999998738
 30
0.0
  0
VERTEX
  5
1CE2
  8
SAPA_PROFIL
  6
CONTINUOUS
 10
-27.599999999998769
 20
83.199999999999704
 30
0.0
 42
0.4142135623730951
  0
VERTEX
  5
1CE3
  8
SAPA_PROFIL
  6
CONTINUOUS
 10
-27.89999999999873
 20
82.899999999999679
 30
0.0
  0
VERTEX
  5
1CE4
  8
SAPA_PROFIL
  6
CONTINUOUS
 10
-27.899999999998609
 20
82.099999999998715
 30
0.0
 42
-0.4142135623730951
  0
VERTEX
  5
1CE5
  8
SAPA_PROFIL
  6
CONTINUOUS
 10
-28.199999999998681
 20
81.799999999998633
 30
0.0
  0
VERTEX
  5
1CE6
  8
SAPA_PROFIL
  6
CONTINUOUS
 10
-28.89999999999873
 20
81.799999999998775
 30
0.0
 42
-0.4142135623730951
  0
VERTEX
  5
1CE7
  8
SAPA_PROFIL
  6
CONTINUOUS
 10
-29.199999999998681
 20
82.099999999998715
 30
0.0
  0
VERTEX
  5
1CE8
  8
SAPA_PROFIL
  6
CONTINUOUS
 10
-29.199999999999822
 20
82.900000000001668
 30
0.0
 42
0.4142135623721503
  0
VERTEX
  5
1CE9
  8
SAPA_PROFIL
  6
CONTINUOUS
 10
-29.499999999999769
 20
83.200000000000671
 30
0.0
  0
VERTEX
  5
1CEA
  8
SAPA_PROFIL
  6
CONTINUOUS
 10
-30.199999999999712
 20
83.200000000000728
 30
0.0
 42
0.4142135623740942
  0
VERTEX
  5
1CEB
  8
SAPA_PROFIL
  6
CONTINUOUS
 10
-30.49999999999978
 20
82.899999999999679
 30
0.0
  0
VERTEX
  5
1CEC
  8
SAPA_PROFIL
  6
CONTINUOUS
 10
-30.499999999998749
 20
82.099999999998715
 30
0.0
 42
-0.4142135623730951
  0
VERTEX
  5
1CED
  8
SAPA_PROFIL
  6
CONTINUOUS
 10
-30.799999999998821
 20
81.799999999998633
 30
0.0
  0
VERTEX
  5
1CEE
  8
SAPA_PROFIL
  6
CONTINUOUS
 10
-30.999999999999769
 20
81.799999999998633
 30
0.0
 42
-0.4142135623728287
  0
VERTEX
  5
1CEF
  8
SAPA_PROFIL
  6
CONTINUOUS
 10
-31.99999999999886
 20
82.799999999998633
 30
0.0
  0
VERTEX
  5
1CF0
  8
SAPA_PROFIL
  6
CONTINUOUS
 10
-31.999999999999769
 20
98.199999996326653
 30
0.0
 42
-0.4142135623730951
  0
VERTEX
  5
1CF1
  8
SAPA_PROFIL
  6
CONTINUOUS
 10
-31.699999999999712
 20
98.499999996326721
 30
0.0
  0
VERTEX
  5
1CF2
  8
SAPA_PROFIL
  6
CONTINUOUS
 10
-27.629411436795859
 20
98.499999996326608
 30
0.0
 42
-0.5486187866264207
  0
VERTEX
  5
1CF3
  8
SAPA_PROFIL
  6
CONTINUOUS
 10
-27.35751910068473
 20
98.073214517804743
 30
0.0
  0
VERTEX
  5
1CF4
  8
SAPA_PROFIL
  6
CONTINUOUS
 10
-28.171892336110769
 20
96.326785478555735
 30
0.0
 42
0.5486187866274888
  0
VERTEX
  5
1CF5
  8
SAPA_PROFIL
  6
CONTINUOUS
 10
-27.899999999999871
 20
95.900000000032705
 30
0.0
  0
VERTEX
  5
1CF6
  8
SAPA_PROFIL
  6
CONTINUOUS
 10
-23.499999999999769
 20
95.900000000032705
 30
0.0
 42
0.5486187866274777
  0
VERTEX
  5
1CF7
  8
SAPA_PROFIL
  6
CONTINUOUS
 10
-23.228107663888871
 20
96.326785478555692
 30
0.0
  0
VERTEX
  5
1CF8
  8
SAPA_PROFIL
  6
CONTINUOUS
 10
-24.04248089931491
 20
98.073214517804615
 30
0.0
 42
-0.5486187866264464
  0
VERTEX
  5
1CF9
  8
SAPA_PROFIL
  6
CONTINUOUS
 10
-23.770588563203781
 20
98.499999996326721
 30
0.0
  0
VERTEX
  5
1CFA
  8
SAPA_PROFIL
  6
CONTINUOUS
 10
-20.599999999998769
 20
98.499999996326665
 30
0.0
 42
0.4142135623730953
  0
VERTEX
  5
1CFB
  8
SAPA_PROFIL
  6
CONTINUOUS
 10
-20.299999999998821
 20
98.799999996326676
 30
0.0
  0
VERTEX
  5
1CFC
  8
SAPA_PROFIL
  6
CONTINUOUS
 10
-20.299999999998931
 20
98.999999996326665
 30
0.0
 42
-0.4142135623730951
  0
VERTEX
  5
1CFD
  8
SAPA_PROFIL
  6
CONTINUOUS
 10
-19.99999999999886
 20
99.299999996326676
 30
0.0
  0
VERTEX
  5
1CFE
  8
SAPA_PROFIL
  6
CONTINUOUS
 10
-8.2999999999997272
 20
99.299999996326676
 30
0.0
 42
0.4142135623730948
  0
VERTEX
  5
1CFF
  8
SAPA_PROFIL
  6
CONTINUOUS
 10
-7.9999999999996581
 20
99.599999996326687
 30
0.0
  0
VERTEX
  5
1D00
  8
SAPA_PROFIL
  6
CONTINUOUS
 10
-7.9999999999997149
 20
100.5021643846321
 30
0.0
  0
VERTEX
  5
1D01
  8
SAPA_PROFIL
  6
CONTINUOUS
 10
-7.4893774168617142
 20
101.8232813425664
 30
0.0
 42
0.4142135623730951
  0
VERTEX
  5
1D02
  8
SAPA_PROFIL
  6
CONTINUOUS
 10
-7.6893414613691098
 20
102.1974662980422
 30
0.0
  0
VERTEX
  5
1D03
  8
SAPA_PROFIL
  6
CONTINUOUS
 10
-7.7371872113675968
 20
102.2119847072893
 30
0.0
  0
VERTEX
  5
1D04
  8
SAPA_PROFIL
  6
CONTINUOUS
 10
-7.7372708192512221
 20
103.7150857880513
 30
0.0
 42
-0.4769755326981695
  0
VERTEX
  5
1D05
  8
SAPA_PROFIL
  6
CONTINUOUS
 10
-7.3656139443053803
 20
104.01733861255779
 30
0.0
  0
VERTEX
  5
1D06
  8
SAPA_PROFIL
  6
CONTINUOUS
 10
-5.5523834736471249
 20
103.63589201643011
 30
0.0
 42
-0.22169466264302
  0
VERTEX
  5
1D07
  8
SAPA_PROFIL
  6
CONTINUOUS
 10
-5.0115036421703421
 20
103.23008311127531
 30
0.0
  0
VERTEX
  5
1D08
  8
SAPA_PROFIL
  6
CONTINUOUS
 10
-4.8593697310615758
 20
102.9454008280436
 30
0.0
 42
-0.5773502691897348
  0
VERTEX
  5
1D09
  8
SAPA_PROFIL
  6
CONTINUOUS
 10
-5.0423234711717546
 20
102.6512445277888
 30
0.0
  0
VERTEX
  5
1D0A
  8
SAPA_PROFIL
  6
CONTINUOUS
 10
-5.3640811993900002
 20
102.6618058940158
 30
0.0
  0
VERTEX
  5
1D0B
  8
SAPA_PROFIL
  6
CONTINUOUS
 10
-6.4486456463617401
 20
100.7759622021547
 30
0.0
  0
VERTEX
  5
1D0C
  8
SAPA_PROFIL
  6
CONTINUOUS
 10
-6.5067192833508321
 20
100.584579202161
 30
0.0
 42
0.7625858545243229
  0
VERTEX
  5
1D0D
  8
SAPA_PROFIL
  6
CONTINUOUS
 10
-6.1763932023338342
 20
100.3999999999635
 30
0.0
 42
-0.2134217652834286
  0
VERTEX
  5
1D0E
  8
SAPA_PROFIL
  6
CONTINUOUS
 10
-5.9527864044997614
 20
100.49999999996371
 30
0.0
  0
VERTEX
  5
1D0F
  8
SAPA_PROFIL
  6
CONTINUOUS
 10
-2.0999999999927459
 20
100.50000000003369
 30
0.0
 42
0.4142135623643546
  0
VERTEX
  5
1D10
  8
SAPA_PROFIL
  6
CONTINUOUS
 10
-1.7999999999987031
 20
100.80000000003071
 30
0.0
  0
VERTEX
  5
1D11
  8
SAPA_PROFIL
  6
CONTINUOUS
 10
-1.7999999999958609
 20
101.0916265078267
 30
0.0
  0
VERTEX
  5
1D12
  8
SAPA_PROFIL
  6
CONTINUOUS
 10
-2.728594868677646
 20
102.7000000000327
 30
0.0
 42
-0.5773502691895335
  0
VERTEX
  5
1D13
  8
SAPA_PROFIL
  6
CONTINUOUS
 10
-2.555389787920717
 20
103.0000000000326
 30
0.0
  0
VERTEX
  5
1D14
  8
SAPA_PROFIL
  6
CONTINUOUS
 10
-1.1697491418667589
 20
103.0000000000327
 30
0.0
 42
-0.267949192431441
  0
VERTEX
  5
1D15
  8
SAPA_PROFIL
  6
CONTINUOUS
 10
-0.303723738081775
 20
102.5000000000326
 30
0.0
  0
VERTEX
  5
1D16
  8
SAPA_PROFIL
  6
CONTINUOUS
 10
3.1892453905272751
 20
96.449999999998752
 30
0.0
 42
0.2679491924318235
  0
VERTEX
  5
1D17
  8
SAPA_PROFIL
  6
CONTINUOUS
 10
3.6222580924202239
 20
96.199999999997473
 30
0.0
  0
VERTEX
  5
1D18
  8
SAPA_PROFIL
  6
CONTINUOUS
 10
16.487142984323331
 20
96.199999999998738
 30
0.0
 42
0.2679491924310522
  0
VERTEX
  5
1D19
  8
SAPA_PROFIL
  6
CONTINUOUS
 10
16.92015568621548
 20
96.449999999998624
 30
0.0
  0
VERTEX
  5
1D1A
  8
SAPA_PROFIL
  6
CONTINUOUS
 10
18.103723738072169
 20
98.500000000033708
 30
0.0
 42
-0.2679491924312968
  0
VERTEX
  5
1D1B
  8
SAPA_PROFIL
  6
CONTINUOUS
 10
18.969749141856251
 20
99.000000000034674
 30
0.0
  0
VERTEX
  5
1D1C
  8
SAPA_PROFIL
  6
CONTINUOUS
 10
20.355389787910209
 20
99.000000000034731
 30
0.0
 42
-0.5773502691895323
  0
VERTEX
  5
1D1D
  8
SAPA_PROFIL
  6
CONTINUOUS
 10
20.528594868667131
 20
98.700000000034663
 30
0.0
  0
VERTEX
  5
1D1E
  8
SAPA_PROFIL
  6
CONTINUOUS
 10
19.59999999998513
 20
97.091626507827698
 30
0.0
  0
VERTEX
  5
1D1F
  8
SAPA_PROFIL
  6
CONTINUOUS
 10
19.599999999988309
 20
96.800000000032639
 30
0.0
 42
0.4142135623662692
  0
VERTEX
  5
1D20
  8
SAPA_PROFIL
  6
CONTINUOUS
 10
19.899999999983152
 20
96.500000000034674
 30
0.0
  0
VERTEX
  5
1D21
  8
SAPA_PROFIL
  6
CONTINUOUS
 10
23.75278640449028
 20
96.499999999965723
 30
0.0
  0
SEQEND
  5
1D22
  8
SAPA_PROFIL
  6
CONTINUOUS
  0
POLYLINE
  5
167A
  8
SAPA_PROFIL
  6
CONTINUOUS
 66
     1
 10
0.0
 20
0.0
 30
0.0
 70
     1
  0
VERTEX
  5
1D23
  8
SAPA_PROFIL
  6
CONTINUOUS
 10
14.93678112369728
 20
145.9999999959137
 30
0.0
 42
-0.4142135623730951
  0
VERTEX
  5
1D24
  8
SAPA_PROFIL
  6
CONTINUOUS
 10
15.43678112369728
 20
146.49999999591381
 30
0.0
  0
VERTEX
  5
1D25
  8
SAPA_PROFIL
  6
CONTINUOUS
 10
18.436781123683421
 20
146.49999999594581
 30
0.0
 42
-0.4142135623760252
  0
VERTEX
  5
1D26
  8
SAPA_PROFIL
  6
CONTINUOUS
 10
18.936781123688419
 20
145.99999999594581
 30
0.0
  0
VERTEX
  5
1D27
  8
SAPA_PROFIL
  6
CONTINUOUS
 10
18.936781123688419
 20
129.29999999998381
 30
0.0
 42
-0.4142135623760253
  0
VERTEX
  5
1D28
  8
SAPA_PROFIL
  6
CONTINUOUS
 10
18.4367811236833
 20
128.79999999998381
 30
0.0
  0
VERTEX
  5
1D29
  8
SAPA_PROFIL
  6
CONTINUOUS
 10
15.43678112369728
 20
128.8000000000157
 30
0.0
 42
-0.4142135623730951
  0
VERTEX
  5
1D2A
  8
SAPA_PROFIL
  6
CONTINUOUS
 10
14.93678112369728
 20
129.3000000000157
 30
0.0
  0
VERTEX
  5
1D2B
  8
SAPA_PROFIL
  6
CONTINUOUS
 10
14.936781123696379
 20
130.50000000001469
 30
0.0
 42
0.414213562374094
  0
VERTEX
  5
1D2C
  8
SAPA_PROFIL
  6
CONTINUOUS
 10
14.636781123697331
 20
130.80000000001471
 30
0.0
  0
VERTEX
  5
1D2D
  8
SAPA_PROFIL
  6
CONTINUOUS
 10
13.73678112369735
 20
130.80000000001479
 30
0.0
 42
0.414213562375093
  0
VERTEX
  5
1D2E
  8
SAPA_PROFIL
  6
CONTINUOUS
 10
13.43678112369729
 20
130.50000000001469
 30
0.0
  0
VERTEX
  5
1D2F
  8
SAPA_PROFIL
  6
CONTINUOUS
 10
13.43678112369831
 20
129.1000000000148
 30
0.0
 42
-0.414213562374094
  0
VERTEX
  5
1D30
  8
SAPA_PROFIL
  6
CONTINUOUS
 10
13.136781123697331
 20
128.80000000001471
 30
0.0
  0
VERTEX
  5
1D31
  8
SAPA_PROFIL
  6
CONTINUOUS
 10
3.259039216115283
 20
128.79999999999939
 30
0.0
 42
0.2679491924309108
  0
VERTEX
  5
1D32
  8
SAPA_PROFIL
  6
CONTINUOUS
 10
1.09397570665746
 20
127.54999999999769
 30
0.0
  0
VERTEX
  5
1D33
  8
SAPA_PROFIL
  6
CONTINUOUS
 10
-0.5226050471057137
 20
124.7499999999378
 30
0.0
 42
-0.2679491924363356
  0
VERTEX
  5
1D34
  8
SAPA_PROFIL
  6
CONTINUOUS
 10
-0.9556177490065066
 20
124.4999999999367
 30
0.0
  0
VERTEX
  5
1D35
  8
SAPA_PROFIL
  6
CONTINUOUS
 10
-6.063218876305676
 20
124.50000000002861
 30
0.0
 42
-0.4142135623682168
  0
VERTEX
  5
1D36
  8
SAPA_PROFIL
  6
CONTINUOUS
 10
-6.3632188763006283
 20
124.8000000000287
 30
0.0
  0
VERTEX
  5
1D37
  8
SAPA_PROFIL
  6
CONTINUOUS
 10
-6.3632188763006283
 20
125.20000000367079
 30
0.0
 42
0.4142135623730784
  0
VERTEX
  5
1D38
  8
SAPA_PROFIL
  6
CONTINUOUS
 10
-6.8632188763006283
 20
125.7000000036707
 30
0.0
  0
VERTEX
  5
1D39
  8
SAPA_PROFIL
  6
CONTINUOUS
 10
-18.363218876299719
 20
125.7000000036707
 30
0.0
 42
-0.4142135623730951
  0
VERTEX
  5
1D3A
  8
SAPA_PROFIL
  6
CONTINUOUS
 10
-18.66321887629967
 20
126.00000000367071
 30
0.0
  0
VERTEX
  5
1D3B
  8
SAPA_PROFIL
  6
CONTINUOUS
 10
-18.66321887629956
 20
126.2000000036707
 30
0.0
 42
0.4142135623730951
  0
VERTEX
  5
1D3C
  8
SAPA_PROFIL
  6
CONTINUOUS
 10
-18.963218876299621
 20
126.50000000367071
 30
0.0
  0
VERTEX
  5
1D3D
  8
SAPA_PROFIL
  6
CONTINUOUS
 10
-21.363218876315631
 20
126.50000000367071
 30
0.0
 42
-0.4142135623730951
  0
VERTEX
  5
1D3E
  8
SAPA_PROFIL
  6
CONTINUOUS
 10
-21.6632188763157
 20
126.8000000036707
 30
0.0
  0
VERTEX
  5
1D3F
  8
SAPA_PROFIL
  6
CONTINUOUS
 10
-21.663218876246699
 20
128.29999999996471
 30
0.0
 42
0.4142135623730951
  0
VERTEX
  5
1D40
  8
SAPA_PROFIL
  6
CONTINUOUS
 10
-22.163218876246692
 20
128.7999999999646
 30
0.0
  0
VERTEX
  5
1D41
  8
SAPA_PROFIL
  6
CONTINUOUS
 10
-30.363218876235599
 20
128.7999999999646
 30
0.0
 42
-0.4142135623730951
  0
VERTEX
  5
1D42
  8
SAPA_PROFIL
  6
CONTINUOUS
 10
-30.663218876235671
 20
129.09999999996469
 30
0.0
  0
VERTEX
  5
1D43
  8
SAPA_PROFIL
  6
CONTINUOUS
 10
-30.663218876307631
 20
137.79999999996181
 30
0.0
 42
-0.4142135623712137
  0
VERTEX
  5
1D44
  8
SAPA_PROFIL
  6
CONTINUOUS
 10
-30.36321887630665
 20
138.09999999996469
 30
0.0
  0
VERTEX
  5
1D45
  8
SAPA_PROFIL
  6
CONTINUOUS
 10
-25.863218876314729
 20
138.09999999999869
 30
0.0
 42
0.4142135623686664
  0
VERTEX
  5
1D46
  8
SAPA_PROFIL
  6
CONTINUOUS
 10
-23.163218876335709
 20
140.7999999999787
 30
0.0
  0
VERTEX
  5
1D47
  8
SAPA_PROFIL
  6
CONTINUOUS
 10
-23.16321887629751
 20
145.9000000017767
 30
0.0
 42
-0.414213562636633
  0
VERTEX
  5
1D48
  8
SAPA_PROFIL
  6
CONTINUOUS
 10
-22.86321887602471
 20
146.20000000177359
 30
0.0
  0
VERTEX
  5
1D49
  8
SAPA_PROFIL
  6
CONTINUOUS
 10
-18.287482945148462
 20
146.1999999983166
 30
0.0
 42
0.1989123675764549
  0
VERTEX
  5
1D4A
  8
SAPA_PROFIL
  6
CONTINUOUS
 10
-18.075350910565501
 20
146.28786796396099
 30
0.0
  0
VERTEX
  5
1D4B
  8
SAPA_PROFIL
  6
CONTINUOUS
 10
-17.951086844260789
 20
146.41213203026629
 30
0.0
 42
-0.198912367380149
  0
VERTEX
  5
1D4C
  8
SAPA_PROFIL
  6
CONTINUOUS
 10
-17.738954809904289
 20
146.49999999591071
 30
0.0
  0
VERTEX
  5
1D4D
  8
SAPA_PROFIL
  6
CONTINUOUS
 10
6.0125170550123661
 20
146.49999999591171
 30
0.0
 42
-0.1989123673800758
  0
VERTEX
  5
1D4E
  8
SAPA_PROFIL
  6
CONTINUOUS
 10
6.224649089368639
 20
146.41213203026729
 30
0.0
  0
VERTEX
  5
1D4F
  8
SAPA_PROFIL
  6
CONTINUOUS
 10
6.3489131580458738
 20
146.2878679615896
 30
0.0
 42
0.1989123673789567
  0
VERTEX
  5
1D50
  8
SAPA_PROFIL
  6
CONTINUOUS
 10
6.5610451924007833
 20
146.19999999594521
 30
0.0
  0
VERTEX
  5
1D51
  8
SAPA_PROFIL
  6
CONTINUOUS
 10
13.136781123697331
 20
146.19999999591471
 30
0.0
 42
-0.414213562374094
  0
VERTEX
  5
1D52
  8
SAPA_PROFIL
  6
CONTINUOUS
 10
13.43678112369831
 20
145.8999999959147
 30
0.0
  0
VERTEX
  5
1D53
  8
SAPA_PROFIL
  6
CONTINUOUS
 10
13.43678112369729
 20
144.49999999591381
 30
0.0
 42
0.414213562374094
  0
VERTEX
  5
1D54
  8
SAPA_PROFIL
  6
CONTINUOUS
 10
13.73678112369735
 20
144.19999999591471
 30
0.0
  0
VERTEX
  5
1D55
  8
SAPA_PROFIL
  6
CONTINUOUS
 10
14.636781123697331
 20
144.19999999591471
 30
0.0
 42
0.4142135623730951
  0
VERTEX
  5
1D56
  8
SAPA_PROFIL
  6
CONTINUOUS
 10
14.93678112369728
 20
144.49999999591381
 30
0.0
  0
SEQEND
  5
1D57
  8
SAPA_PROFIL
  6
CONTINUOUS
  0
POLYLINE
  5
167B
  8
SAPA_PROFIL
  6
CONTINUOUS
 66
     1
 10
0.0
 20
0.0
 30
0.0
 70
     1
  0
VERTEX
  5
1D58
  8
SAPA_PROFIL
  6
CONTINUOUS
 10
23.757620842456848
 20
126.50000000003079
 30
0.0
 42
0.2134217652834423
  0
VERTEX
  5
1D59
  8
SAPA_PROFIL
  6
CONTINUOUS
 10
23.981227640206921
 20
126.6000000000309
 30
0.0
 42
-0.7625858545243283
  0
VERTEX
  5
1D5A
  8
SAPA_PROFIL
  6
CONTINUOUS
 10
24.311553721223959
 20
126.41542079783341
 30
0.0
  0
VERTEX
  5
1D5B
  8
SAPA_PROFIL
  6
CONTINUOUS
 10
24.253480084234869
 20
126.2240377978397
 30
0.0
  0
VERTEX
  5
1D5C
  8
SAPA_PROFIL
  6
CONTINUOUS
 10
23.16891563726313
 20
124.3381941059786
 30
0.0
  0
VERTEX
  5
1D5D
  8
SAPA_PROFIL
  6
CONTINUOUS
 10
22.847157909044849
 20
124.3487554722056
 30
0.0
 42
0.577350269189743
  0
VERTEX
  5
1D5E
  8
SAPA_PROFIL
  6
CONTINUOUS
 10
22.664204168934699
 20
124.0545991719508
 30
0.0
  0
VERTEX
  5
1D5F
  8
SAPA_PROFIL
  6
CONTINUOUS
 10
22.816338080043469
 20
123.7699168887191
 30
0.0
 42
0.2216946626430171
  0
VERTEX
  5
1D60
  8
SAPA_PROFIL
  6
CONTINUOUS
 10
23.357217911520252
 20
123.3641079835643
 30
0.0
  0
VERTEX
  5
1D61
  8
SAPA_PROFIL
  6
CONTINUOUS
 10
25.170448382178481
 20
122.98266138743659
 30
0.0
 42
0.4769755326981872
  0
VERTEX
  5
1D62
  8
SAPA_PROFIL
  6
CONTINUOUS
 10
25.54210525712438
 20
123.2849142119431
 30
0.0
  0
VERTEX
  5
1D63
  8
SAPA_PROFIL
  6
CONTINUOUS
 10
25.542021649240731
 20
124.7880152927051
 30
0.0
  0
VERTEX
  5
1D64
  8
SAPA_PROFIL
  6
CONTINUOUS
 10
25.49417589924224
 20
124.8025337019522
 30
0.0
 42
-0.4142135623730953
  0
VERTEX
  5
1D65
  8
SAPA_PROFIL
  6
CONTINUOUS
 10
25.29421185473484
 20
125.176718657428
 30
0.0
  0
VERTEX
  5
1D66
  8
SAPA_PROFIL
  6
CONTINUOUS
 10
25.799999999987879
 20
126.4853276337673
 30
0.0
  0
VERTEX
  5
1D67
  8
SAPA_PROFIL
  6
CONTINUOUS
 10
25.79999999998789
 20
129.4846384438307
 30
0.0
 42
0.259681233730092
  0
VERTEX
  5
1D68
  8
SAPA_PROFIL
  6
CONTINUOUS
 10
25.68163350592771
 20
129.6971769582558
 30
0.0
  0
VERTEX
  5
1D69
  8
SAPA_PROFIL
  6
CONTINUOUS
 10
24.457960207115761
 20
130.45504621730871
 30
0.0
 42
0.5877032589253041
  0
VERTEX
  5
1D6A
  8
SAPA_PROFIL
  6
CONTINUOUS
 10
23.999999999987939
 20
130.19999999999871
 30
0.0
  0
VERTEX
  5
1D6B
  8
SAPA_PROFIL
  6
CONTINUOUS
 10
23.999999999983839
 20
128.76582121360769
 30
0.0
 42
-0.4683749459836498
  0
VERTEX
  5
1D6C
  8
SAPA_PROFIL
  6
CONTINUOUS
 10
23.69999999998377
 20
128.49999999999889
 30
0.0
  0
VERTEX
  5
1D6D
  8
SAPA_PROFIL
  6
CONTINUOUS
 10
21.29999999998493
 20
128.49999999999869
 30
0.0
 42
-0.4683749459834663
  0
VERTEX
  5
1D6E
  8
SAPA_PROFIL
  6
CONTINUOUS
 10
20.999999999984752
 20
128.76582121360769
 30
0.0
  0
VERTEX
  5
1D6F
  8
SAPA_PROFIL
  6
CONTINUOUS
 10
20.999999999987931
 20
146.19999999999871
 30
0.0
 42
-0.4142135623730951
  0
VERTEX
  5
1D70
  8
SAPA_PROFIL
  6
CONTINUOUS
 10
21.29999999998789
 20
146.49999999999869
 30
0.0
  0
VERTEX
  5
1D71
  8
SAPA_PROFIL
  6
CONTINUOUS
 10
23.69999999998775
 20
146.49999999999869
 30
0.0
 42
-0.4142135623712111
  0
VERTEX
  5
1D72
  8
SAPA_PROFIL
  6
CONTINUOUS
 10
23.999999999987939
 20
146.19999999999871
 30
0.0
  0
VERTEX
  5
1D73
  8
SAPA_PROFIL
  6
CONTINUOUS
 10
23.999999999987939
 20
144.79999999999859
 30
0.0
 42
0.5877032589253028
  0
VERTEX
  5
1D74
  8
SAPA_PROFIL
  6
CONTINUOUS
 10
24.457960207115882
 20
144.54495378268859
 30
0.0
  0
VERTEX
  5
1D75
  8
SAPA_PROFIL
  6
CONTINUOUS
 10
25.881633505927638
 20
145.42669094991359
 30
0.0
 42
0.2596812337301845
  0
VERTEX
  5
1D76
  8
SAPA_PROFIL
  6
CONTINUOUS
 10
25.999999999987931
 20
145.63922946433871
 30
0.0
  0
VERTEX
  5
1D77
  8
SAPA_PROFIL
  6
CONTINUOUS
 10
25.999999999987821
 20
148.1999999999997
 30
0.0
 42
0.4142135623721487
  0
VERTEX
  5
1D78
  8
SAPA_PROFIL
  6
CONTINUOUS
 10
25.69999999998775
 20
148.49999999999869
 30
0.0
  0
VERTEX
  5
1D79
  8
SAPA_PROFIL
  6
CONTINUOUS
 10
-29.399999999999199
 20
148.49999999999869
 30
0.0
 42
0.4142135623725956
  0
VERTEX
  5
1D7A
  8
SAPA_PROFIL
  6
CONTINUOUS
 10
-31.999999999999339
 20
145.90000000000319
 30
0.0
  0
VERTEX
  5
1D7B
  8
SAPA_PROFIL
  6
CONTINUOUS
 10
-32.000000000001272
 20
145.39999999999969
 30
0.0
 42
0.4142135623728287
  0
VERTEX
  5
1D7C
  8
SAPA_PROFIL
  6
CONTINUOUS
 10
-31.000000000001162
 20
144.39999999999861
 30
0.0
  0
VERTEX
  5
1D7D
  8
SAPA_PROFIL
  6
CONTINUOUS
 10
-30.8000000000002
 20
144.39999999999881
 30
0.0
 42
0.4142135623730951
  0
VERTEX
  5
1D7E
  8
SAPA_PROFIL
  6
CONTINUOUS
 10
-30.500000000000249
 20
144.69999999999871
 30
0.0
  0
VERTEX
  5
1D7F
  8
SAPA_PROFIL
  6
CONTINUOUS
 10
-30.500000000000139
 20
146.20000000321471
 30
0.0
 42
-0.41421356237221
  0
VERTEX
  5
1D80
  8
SAPA_PROFIL
  6
CONTINUOUS
 10
-30.20000000000109
 20
146.49999999591071
 30
0.0
  0
VERTEX
  5
1D81
  8
SAPA_PROFIL
  6
CONTINUOUS
 10
-29.500000000001041
 20
146.49999999591071
 30
0.0
 42
-0.4142135623731102
  0
VERTEX
  5
1D82
  8
SAPA_PROFIL
  6
CONTINUOUS
 10
-29.20000000000109
 20
146.20000000321471
 30
0.0
  0
VERTEX
  5
1D83
  8
SAPA_PROFIL
  6
CONTINUOUS
 10
-29.20000000000018
 20
144.69999999999871
 30
0.0
 42
0.4142135623720961
  0
VERTEX
  5
1D84
  8
SAPA_PROFIL
  6
CONTINUOUS
 10
-28.900000000001249
 20
144.39999999999861
 30
0.0
  0
VERTEX
  5
1D85
  8
SAPA_PROFIL
  6
CONTINUOUS
 10
-28.20000000000007
 20
144.39999999999881
 30
0.0
 42
0.4142135623730951
  0
VERTEX
  5
1D86
  8
SAPA_PROFIL
  6
CONTINUOUS
 10
-27.900000000000119
 20
144.69999999999871
 30
0.0
  0
VERTEX
  5
1D87
  8
SAPA_PROFIL
  6
CONTINUOUS
 10
-27.900000000000119
 20
146.19999999591059
 30
0.0
 42
-0.4142135623740939
  0
VERTEX
  5
1D88
  8
SAPA_PROFIL
  6
CONTINUOUS
 10
-27.600000000000161
 20
146.49999999591071
 30
0.0
  0
VERTEX
  5
1D89
  8
SAPA_PROFIL
  6
CONTINUOUS
 10
-25.499999999999108
 20
146.49999999591071
 30
0.0
 42
-0.4142135623730951
  0
VERTEX
  5
1D8A
  8
SAPA_PROFIL
  6
CONTINUOUS
 10
-24.499999999999108
 20
145.49999999591071
 30
0.0
  0
VERTEX
  5
1D8B
  8
SAPA_PROFIL
  6
CONTINUOUS
 10
-24.499999999999229
 20
140.79999999999859
 30
0.0
 42
-0.4142135623619735
  0
VERTEX
  5
1D8C
  8
SAPA_PROFIL
  6
CONTINUOUS
 10
-25.499999999998199
 20
139.79999999999859
 30
0.0
  0
VERTEX
  5
1D8D
  8
SAPA_PROFIL
  6
CONTINUOUS
 10
-27.600000000000161
 20
139.79999999999771
 30
0.0
 42
-0.4142135623730951
  0
VERTEX
  5
1D8E
  8
SAPA_PROFIL
  6
CONTINUOUS
 10
-27.900000000000119
 20
140.09999999999769
 30
0.0
  0
VERTEX
  5
1D8F
  8
SAPA_PROFIL
  6
CONTINUOUS
 10
-27.899999999999999
 20
140.89999999999861
 30
0.0
 42
0.4142135623730951
  0
VERTEX
  5
1D90
  8
SAPA_PROFIL
  6
CONTINUOUS
 10
-28.20000000000007
 20
141.19999999999871
 30
0.0
  0
VERTEX
  5
1D91
  8
SAPA_PROFIL
  6
CONTINUOUS
 10
-28.900000000000109
 20
141.1999999999986
 30
0.0
 42
0.4142135623730951
  0
VERTEX
  5
1D92
  8
SAPA_PROFIL
  6
CONTINUOUS
 10
-29.20000000000007
 20
140.89999999999861
 30
0.0
  0
VERTEX
  5
1D93
  8
SAPA_PROFIL
  6
CONTINUOUS
 10
-29.200000000001211
 20
140.0999999999957
 30
0.0
 42
-0.414213562372149
  0
VERTEX
  5
1D94
  8
SAPA_PROFIL
  6
CONTINUOUS
 10
-29.500000000001162
 20
139.79999999999669
 30
0.0
  0
VERTEX
  5
1D95
  8
SAPA_PROFIL
  6
CONTINUOUS
 10
-30.20000000000109
 20
139.7999999999966
 30
0.0
 42
-0.4142135623740942
  0
VERTEX
  5
1D96
  8
SAPA_PROFIL
  6
CONTINUOUS
 10
-30.500000000001162
 20
140.09999999999769
 30
0.0
  0
VERTEX
  5
1D97
  8
SAPA_PROFIL
  6
CONTINUOUS
 10
-30.500000000000139
 20
140.89999999999861
 30
0.0
 42
0.4142135623730951
  0
VERTEX
  5
1D98
  8
SAPA_PROFIL
  6
CONTINUOUS
 10
-30.8000000000002
 20
141.19999999999871
 30
0.0
  0
VERTEX
  5
1D99
  8
SAPA_PROFIL
  6
CONTINUOUS
 10
-31.000000000001162
 20
141.19999999999871
 30
0.0
 42
0.4142135623728287
  0
VERTEX
  5
1D9A
  8
SAPA_PROFIL
  6
CONTINUOUS
 10
-32.000000000000249
 20
140.19999999999871
 30
0.0
  0
VERTEX
  5
1D9B
  8
SAPA_PROFIL
  6
CONTINUOUS
 10
-32.000000000001158
 20
124.8000000036707
 30
0.0
 42
0.4142135623730951
  0
VERTEX
  5
1D9C
  8
SAPA_PROFIL
  6
CONTINUOUS
 10
-31.70000000000109
 20
124.50000000367061
 30
0.0
  0
VERTEX
  5
1D9D
  8
SAPA_PROFIL
  6
CONTINUOUS
 10
-27.629411436797248
 20
124.50000000367081
 30
0.0
 42
0.5486187866264242
  0
VERTEX
  5
1D9E
  8
SAPA_PROFIL
  6
CONTINUOUS
 10
-27.357519100686108
 20
124.9267854821926
 30
0.0
  0
VERTEX
  5
1D9F
  8
SAPA_PROFIL
  6
CONTINUOUS
 10
-28.171892336112158
 20
126.67321452144159
 30
0.0
 42
-0.5486187866274858
  0
VERTEX
  5
1DA0
  8
SAPA_PROFIL
  6
CONTINUOUS
 10
-27.900000000001249
 20
127.09999999996469
 30
0.0
  0
VERTEX
  5
1DA1
  8
SAPA_PROFIL
  6
CONTINUOUS
 10
-23.500000000001162
 20
127.09999999996469
 30
0.0
 42
-0.5486187866274797
  0
VERTEX
  5
1DA2
  8
SAPA_PROFIL
  6
CONTINUOUS
 10
-23.228107663890249
 20
126.67321452144169
 30
0.0
  0
VERTEX
  5
1DA3
  8
SAPA_PROFIL
  6
CONTINUOUS
 10
-24.042480899316299
 20
124.9267854821928
 30
0.0
 42
0.5486187866264408
  0
VERTEX
  5
1DA4
  8
SAPA_PROFIL
  6
CONTINUOUS
 10
-23.770588563205159
 20
124.50000000367061
 30
0.0
  0
VERTEX
  5
1DA5
  8
SAPA_PROFIL
  6
CONTINUOUS
 10
-20.600000000000161
 20
124.50000000367071
 30
0.0
 42
-0.4142135623730953
  0
VERTEX
  5
1DA6
  8
SAPA_PROFIL
  6
CONTINUOUS
 10
-20.3000000000002
 20
124.2000000036707
 30
0.0
  0
VERTEX
  5
1DA7
  8
SAPA_PROFIL
  6
CONTINUOUS
 10
-20.30000000000032
 20
124.00000000367071
 30
0.0
 42
0.4142135623730951
  0
VERTEX
  5
1DA8
  8
SAPA_PROFIL
  6
CONTINUOUS
 10
-20.000000000000249
 20
123.7000000036707
 30
0.0
  0
VERTEX
  5
1DA9
  8
SAPA_PROFIL
  6
CONTINUOUS
 10
-8.3000000000011127
 20
123.7000000036707
 30
0.0
 42
-0.4142135623730948
  0
VERTEX
  5
1DAA
  8
SAPA_PROFIL
  6
CONTINUOUS
 10
-8.0000000000010445
 20
123.4000000036707
 30
0.0
  0
VERTEX
  5
1DAB
  8
SAPA_PROFIL
  6
CONTINUOUS
 10
-8.0000000000011013
 20
122.4978356153653
 30
0.0
  0
VERTEX
  5
1DAC
  8
SAPA_PROFIL
  6
CONTINUOUS
 10
-7.4893774168630989
 20
121.1767186574309
 30
0.0
 42
-0.4142135623730953
  0
VERTEX
  5
1DAD
  8
SAPA_PROFIL
  6
CONTINUOUS
 10
-7.6893414613704962
 20
120.8025337019551
 30
0.0
  0
VERTEX
  5
1DAE
  8
SAPA_PROFIL
  6
CONTINUOUS
 10
-7.7371872113689832
 20
120.788015292708
 30
0.0
  0
VERTEX
  5
1DAF
  8
SAPA_PROFIL
  6
CONTINUOUS
 10
-7.7372708192526067
 20
119.284914211946
 30
0.0
 42
0.4769755326981663
  0
VERTEX
  5
1DB0
  8
SAPA_PROFIL
  6
CONTINUOUS
 10
-7.365613944306765
 20
118.98266138743951
 30
0.0
  0
VERTEX
  5
1DB1
  8
SAPA_PROFIL
  6
CONTINUOUS
 10
-5.5523834736485114
 20
119.36410798356729
 30
0.0
 42
0.2216946626430184
  0
VERTEX
  5
1DB2
  8
SAPA_PROFIL
  6
CONTINUOUS
 10
-5.0115036421717241
 20
119.76991688872199
 30
0.0
  0
VERTEX
  5
1DB3
  8
SAPA_PROFIL
  6
CONTINUOUS
 10
-4.8593697310629622
 20
120.0545991719537
 30
0.0
 42
0.5773502691897339
  0
VERTEX
  5
1DB4
  8
SAPA_PROFIL
  6
CONTINUOUS
 10
-5.0423234711731411
 20
120.3487554722085
 30
0.0
  0
VERTEX
  5
1DB5
  8
SAPA_PROFIL
  6
CONTINUOUS
 10
-5.3640811993913848
 20
120.3381941059815
 30
0.0
  0
VERTEX
  5
1DB6
  8
SAPA_PROFIL
  6
CONTINUOUS
 10
-6.4486456463631248
 20
122.2240377978426
 30
0.0
  0
VERTEX
  5
1DB7
  8
SAPA_PROFIL
  6
CONTINUOUS
 10
-6.5067192833522176
 20
122.4154207978363
 30
0.0
 42
-0.7625858545243346
  0
VERTEX
  5
1DB8
  8
SAPA_PROFIL
  6
CONTINUOUS
 10
-6.1763932023352188
 20
122.6000000000338
 30
0.0
 42
0.2134217652834345
  0
VERTEX
  5
1DB9
  8
SAPA_PROFIL
  6
CONTINUOUS
 10
-5.952786404501146
 20
122.50000000003369
 30
0.0
  0
VERTEX
  5
1DBA
  8
SAPA_PROFIL
  6
CONTINUOUS
 10
-2.099999999994139
 20
122.49999999996371
 30
0.0
 42
-0.4142135623643546
  0
VERTEX
  5
1DBB
  8
SAPA_PROFIL
  6
CONTINUOUS
 10
-1.800000000000096
 20
122.19999999996671
 30
0.0
  0
VERTEX
  5
1DBC
  8
SAPA_PROFIL
  6
CONTINUOUS
 10
-1.799999999997254
 20
121.9083734921707
 30
0.0
  0
VERTEX
  5
1DBD
  8
SAPA_PROFIL
  6
CONTINUOUS
 10
-2.728594868679032
 20
120.2999999999647
 30
0.0
 42
0.5773502691895283
  0
VERTEX
  5
1DBE
  8
SAPA_PROFIL
  6
CONTINUOUS
 10
-2.5553897879221021
 20
119.9999999999648
 30
0.0
  0
VERTEX
  5
1DBF
  8
SAPA_PROFIL
  6
CONTINUOUS
 10
-1.169749141868152
 20
119.9999999999647
 30
0.0
 42
0.267949192431441
  0
VERTEX
  5
1DC0
  8
SAPA_PROFIL
  6
CONTINUOUS
 10
-0.3037237380831641
 20
120.4999999999647
 30
0.0
  0
VERTEX
  5
1DC1
  8
SAPA_PROFIL
  6
CONTINUOUS
 10
3.1892453905258829
 20
126.5499999999986
 30
0.0
 42
-0.2679491924318217
  0
VERTEX
  5
1DC2
  8
SAPA_PROFIL
  6
CONTINUOUS
 10
3.6222580924188321
 20
126.7999999999999
 30
0.0
  0
VERTEX
  5
1DC3
  8
SAPA_PROFIL
  6
CONTINUOUS
 10
16.487142984321931
 20
126.7999999999986
 30
0.0
 42
-0.2679491924310522
  0
VERTEX
  5
1DC4
  8
SAPA_PROFIL
  6
CONTINUOUS
 10
16.920155686214091
 20
126.5499999999988
 30
0.0
  0
VERTEX
  5
1DC5
  8
SAPA_PROFIL
  6
CONTINUOUS
 10
18.10372373807078
 20
124.49999999996371
 30
0.0
 42
0.267949192431297
  0
VERTEX
  5
1DC6
  8
SAPA_PROFIL
  6
CONTINUOUS
 10
18.969749141854859
 20
123.9999999999627
 30
0.0
  0
VERTEX
  5
1DC7
  8
SAPA_PROFIL
  6
CONTINUOUS
 10
20.35538978790882
 20
123.9999999999626
 30
0.0
 42
0.5773502691895273
  0
VERTEX
  5
1DC8
  8
SAPA_PROFIL
  6
CONTINUOUS
 10
20.528594868665749
 20
124.29999999996269
 30
0.0
  0
VERTEX
  5
1DC9
  8
SAPA_PROFIL
  6
CONTINUOUS
 10
19.59999999998373
 20
125.9083734921697
 30
0.0
  0
VERTEX
  5
1DCA
  8
SAPA_PROFIL
  6
CONTINUOUS
 10
19.59999999998692
 20
126.1999999999647
 30
0.0
 42
-0.4142135623662692
  0
VERTEX
  5
1DCB
  8
SAPA_PROFIL
  6
CONTINUOUS
 10
19.899999999981759
 20
126.4999999999627
 30
0.0
  0
VERTEX
  5
1DCC
  8
SAPA_PROFIL
  6
CONTINUOUS
 10
23.752786404488891
 20
126.5000000000316
 30
0.0
  0
SEQEND
  5
1DCD
  8
SAPA_PROFIL
  6
CONTINUOUS
  0
POLYLINE
  5
167C
  8
SAPA_PROFIL
 62
     4
 66
     1
 10
0.0
 20
0.0
 30
0.0
 70
     1
  0
VERTEX
  5
1DCE
  8
SAPA_PROFIL
 62
     4
 10
22.827485331485459
 20
99.53777847055224
 30
0.0
 42
-0.3137019356282051
  0
VERTEX
  5
1DCF
  8
SAPA_PROFIL
 62
     4
 10
23.025110957018882
 20
99.818728254098545
 30
0.0
  0
VERTEX
  5
1DD0
  8
SAPA_PROFIL
 62
     4
 10
25.457940978562899
 20
100.7042059669697
 30
0.0
 42
0.3152987888779321
  0
VERTEX
  5
1DD1
  8
SAPA_PROFIL
 62
     4
 10
25.72113292123262
 20
101.08008301528611
 30
0.0
  0
VERTEX
  5
1DD2
  8
SAPA_PROFIL
 62
     4
 10
25.721132921232599
 20
111.5000000000002
 30
0.0
  0
VERTEX
  5
1DD3
  8
SAPA_PROFIL
 62
     4
 10
25.721132921232542
 20
121.9199169847183
 30
0.0
 42
0.3152987888779395
  0
VERTEX
  5
1DD4
  8
SAPA_PROFIL
 62
     4
 10
25.457940978562821
 20
122.2957940330307
 30
0.0
  0
VERTEX
  5
1DD5
  8
SAPA_PROFIL
 62
     4
 10
23.02511095702712
 20
123.1812717458989
 30
0.0
 42
-0.3138982169096283
  0
VERTEX
  5
1DD6
  8
SAPA_PROFIL
 62
     4
 10
22.82748533148677
 20
123.4622215294131
 30
0.0
 42
-0.0157923906855865
  0
VERTEX
  5
1DD7
  8
SAPA_PROFIL
 62
     4
 10
22.82408220184718
 20
123.8136800617519
 30
0.0
  0
VERTEX
  5
1DD8
  8
SAPA_PROFIL
 62
     4
 10
22.685412444740649
 20
124.0538631265342
 30
0.0
 42
-0.5773502691889272
  0
VERTEX
  5
1DD9
  8
SAPA_PROFIL
 62
     4
 10
22.867277779535438
 20
124.3688631265339
 30
0.0
  0
VERTEX
  5
1DDA
  8
SAPA_PROFIL
 62
     4
 10
23.13439230774836
 20
124.368863126534
 30
0.0
  0
VERTEX
  5
1DDB
  8
SAPA_PROFIL
 62
     4
 10
23.330614373532651
 20
124.7000000000002
 30
0.0
  0
VERTEX
  5
1DDC
  8
SAPA_PROFIL
 62
     4
 10
23.898258537030099
 20
125.6833201379807
 30
0.0
 42
0.1316524975869703
  0
VERTEX
  5
1DDD
  8
SAPA_PROFIL
 62
     4
 10
23.92639320223466
 20
125.7883201379796
 30
0.0
  0
VERTEX
  5
1DDE
  8
SAPA_PROFIL
 62
     4
 10
23.926393202234781
 20
126.1000000000021
 30
0.0
 42
0.4142135623775584
  0
VERTEX
  5
1DDF
  8
SAPA_PROFIL
 62
     4
 10
23.526393202234459
 20
126.5000000000002
 30
0.0
  0
VERTEX
  5
1DE0
  8
SAPA_PROFIL
 62
     4
 10
20.126393202234709
 20
126.5000000000002
 30
0.0
 42
0.4142135623773978
  0
VERTEX
  5
1DE1
  8
SAPA_PROFIL
 62
     4
 10
19.726393202234728
 20
126.10000000000019
 30
0.0
  0
VERTEX
  5
1DE2
  8
SAPA_PROFIL
 62
     4
 10
19.726393202234728
 20
125.7883201379765
 30
0.0
 42
0.1316524975869708
  0
VERTEX
  5
1DE3
  8
SAPA_PROFIL
 62
     4
 10
19.754527867439968
 20
125.68332013797961
 30
0.0
  0
VERTEX
  5
1DE4
  8
SAPA_PROFIL
 62
     4
 10
20.32224801380201
 20
124.7000000000002
 30
0.0
  0
VERTEX
  5
1DE5
  8
SAPA_PROFIL
 62
     4
 10
20.665623686774129
 20
124.1052558883293
 30
0.0
 42
-0.1316524975869772
  0
VERTEX
  5
1DE6
  8
SAPA_PROFIL
 62
     4
 10
20.826393202234641
 20
123.505255888326
 30
0.0
  0
VERTEX
  5
1DE7
  8
SAPA_PROFIL
 62
     4
 10
20.82639320223441
 20
122.5533915554395
 30
0.0
 42
0.3152987888780149
  0
VERTEX
  5
1DE8
  8
SAPA_PROFIL
 62
     4
 10
21.484373058908801
 20
121.61369893466799
 30
0.0
  0
VERTEX
  5
1DE9
  8
SAPA_PROFIL
 62
     4
 10
23.65794097856249
 20
120.82258490975821
 30
0.0
 42
-0.3152987888779391
  0
VERTEX
  5
1DEA
  8
SAPA_PROFIL
 62
     4
 10
23.921132921232608
 20
120.4467078614437
 30
0.0
  0
VERTEX
  5
1DEB
  8
SAPA_PROFIL
 62
     4
 10
23.921132921232608
 20
111.5000000000002
 30
0.0
  0
VERTEX
  5
1DEC
  8
SAPA_PROFIL
 62
     4
 10
23.921132921232669
 20
102.5532921385567
 30
0.0
 42
-0.3152987888779318
  0
VERTEX
  5
1DED
  8
SAPA_PROFIL
 62
     4
 10
23.657940978566248
 20
102.1774150902436
 30
0.0
  0
VERTEX
  5
1DEE
  8
SAPA_PROFIL
 62
     4
 10
21.484373058909028
 20
101.3863010653325
 30
0.0
 42
0.3152987888779361
  0
VERTEX
  5
1DEF
  8
SAPA_PROFIL
 62
     4
 10
20.826393202234701
 20
100.4466084445319
 30
0.0
  0
VERTEX
  5
1DF0
  8
SAPA_PROFIL
 62
     4
 10
20.826393202234701
 20
99.494744111674407
 30
0.0
 42
-0.1316524975869766
  0
VERTEX
  5
1DF1
  8
SAPA_PROFIL
 62
     4
 10
20.665623686779981
 20
98.894744111681206
 30
0.0
  0
VERTEX
  5
1DF2
  8
SAPA_PROFIL
 62
     4
 10
20.326393202234751
 20
98.307179676972709
 30
0.0
  0
VERTEX
  5
1DF3
  8
SAPA_PROFIL
 62
     4
 10
19.754527867440029
 20
97.316679862020777
 30
0.0
 42
0.1316524975869832
  0
VERTEX
  5
1DF4
  8
SAPA_PROFIL
 62
     4
 10
19.726393202234789
 20
97.211679862017704
 30
0.0
  0
VERTEX
  5
1DF5
  8
SAPA_PROFIL
 62
     4
 10
19.726393202234728
 20
96.90000000000019
 30
0.0
 42
0.414213562371655
  0
VERTEX
  5
1DF6
  8
SAPA_PROFIL
 62
     4
 10
20.126393202238692
 20
96.500000000000185
 30
0.0
  0
VERTEX
  5
1DF7
  8
SAPA_PROFIL
 62
     4
 10
23.52639320223474
 20
96.500000000000185
 30
0.0
 42
0.4142135623716633
  0
VERTEX
  5
1DF8
  8
SAPA_PROFIL
 62
     4
 10
23.926393202234721
 20
96.900000000002237
 30
0.0
  0
VERTEX
  5
1DF9
  8
SAPA_PROFIL
 62
     4
 10
23.926393202234721
 20
97.211679862020887
 30
0.0
 42
0.1316524975869709
  0
VERTEX
  5
1DFA
  8
SAPA_PROFIL
 62
     4
 10
23.89825853702914
 20
97.316679862021473
 30
0.0
  0
VERTEX
  5
1DFB
  8
SAPA_PROFIL
 62
     4
 10
23.13439230774836
 20
98.631136873466474
 30
0.0
  0
VERTEX
  5
1DFC
  8
SAPA_PROFIL
 62
     4
 10
22.867277779535438
 20
98.631136873466573
 30
0.0
 42
-0.5773502691889269
  0
VERTEX
  5
1DFD
  8
SAPA_PROFIL
 62
     4
 10
22.685412444740649
 20
98.946136873466287
 30
0.0
  0
VERTEX
  5
1DFE
  8
SAPA_PROFIL
 62
     4
 10
22.824082201847169
 20
99.186319938248602
 30
0.0
 42
-0.015792390685586
  0
SEQEND
  5
1DFF
  8
SAPA_PROFIL
 62
     4
  0
POLYLINE
  5
167D
  8
SAPA_PROFIL
 62
     4
 66
     1
 10
0.0
 20
0.0
 30
0.0
 70
     1
  0
VERTEX
  5
1E00
  8
SAPA_PROFIL
 62
     4
 10
-5.0263932022442921
 20
103.49474411165529
 30
0.0
 42
-0.0158087792519252
  0
VERTEX
  5
1E01
  8
SAPA_PROFIL
 62
     4
 10
-5.024082201856884
 20
103.186319938247
 30
0.0
  0
VERTEX
  5
1E02
  8
SAPA_PROFIL
 62
     4
 10
-4.8854124447503571
 20
102.94613687346479
 30
0.0
 42
-0.5773502691889283
  0
VERTEX
  5
1E03
  8
SAPA_PROFIL
 62
     4
 10
-5.06727777954515
 20
102.6311368734651
 30
0.0
  0
VERTEX
  5
1E04
  8
SAPA_PROFIL
 62
     4
 10
-5.338115397671543
 20
102.6332864004287
 30
0.0
  0
VERTEX
  5
1E05
  8
SAPA_PROFIL
 62
     4
 10
-6.08620082337913
 20
101.33756443470141
 30
0.0
 42
0.1316524975870228
  0
VERTEX
  5
1E06
  8
SAPA_PROFIL
 62
     4
 10
-6.126393202244258
 20
101.1875644347005
 30
0.0
  0
VERTEX
  5
1E07
  8
SAPA_PROFIL
 62
     4
 10
-6.126393202244258
 20
100.9000000000006
 30
0.0
 42
0.4142135623716466
  0
VERTEX
  5
1E08
  8
SAPA_PROFIL
 62
     4
 10
-5.7263932022442807
 20
100.49999999999871
 30
0.0
  0
VERTEX
  5
1E09
  8
SAPA_PROFIL
 62
     4
 10
-2.3263932022482261
 20
100.49999999999871
 30
0.0
 42
0.4142135623716799
  0
VERTEX
  5
1E0A
  8
SAPA_PROFIL
 62
     4
 10
-1.9263932022443271
 20
100.8999999999987
 30
0.0
  0
VERTEX
  5
1E0B
  8
SAPA_PROFIL
 62
     4
 10
-1.92639320224427
 20
101.1875644346961
 30
0.0
 42
0.1316524975869177
  0
VERTEX
  5
1E0C
  8
SAPA_PROFIL
 62
     4
 10
-1.9665855811090009
 20
101.3375644347004
 30
0.0
  0
VERTEX
  5
1E0D
  8
SAPA_PROFIL
 62
     4
 10
-2.8656236867895748
 20
102.8947441116797
 30
0.0
 42
-0.1316524975869702
  0
VERTEX
  5
1E0E
  8
SAPA_PROFIL
 62
     4
 10
-3.0263932022442921
 20
103.4947441116729
 30
0.0
  0
VERTEX
  5
1E0F
  8
SAPA_PROFIL
 62
     4
 10
-3.0263932022442921
 20
104.9056465456204
 30
0.0
 42
0.2956153501796054
  0
VERTEX
  5
1E10
  8
SAPA_PROFIL
 62
     4
 10
-3.203769581379361
 20
105.17944108100851
 30
0.0
  0
VERTEX
  5
1E11
  8
SAPA_PROFIL
 62
     4
 10
-5.8307659036898647
 20
106.35598684584301
 30
0.0
 42
-0.2956153501796242
  0
VERTEX
  5
1E12
  8
SAPA_PROFIL
 62
     4
 10
-6.1263932022444862
 20
106.81231107148081
 30
0.0
  0
VERTEX
  5
1E13
  8
SAPA_PROFIL
 62
     4
 10
-6.1263932022444862
 20
116.1874352799431
 30
0.0
 42
-0.2962134949611152
  0
VERTEX
  5
1E14
  8
SAPA_PROFIL
 62
     4
 10
-5.829761523781797
 20
116.64420800876459
 30
0.0
  0
VERTEX
  5
1E15
  8
SAPA_PROFIL
 62
     4
 10
-3.2043722093216331
 20
117.8131066416648
 30
0.0
 42
0.2962134949611341
  0
VERTEX
  5
1E16
  8
SAPA_PROFIL
 62
     4
 10
-3.0263932022442921
 20
118.0871702789532
 30
0.0
  0
VERTEX
  5
1E17
  8
SAPA_PROFIL
 62
     4
 10
-3.0263932022442921
 20
119.5052558883245
 30
0.0
 42
-0.1316524975869708
  0
VERTEX
  5
1E18
  8
SAPA_PROFIL
 62
     4
 10
-2.8656236867836071
 20
120.1052558883278
 30
0.0
  0
VERTEX
  5
1E19
  8
SAPA_PROFIL
 62
     4
 10
-2.522248013811605
 20
120.6999999999987
 30
0.0
  0
VERTEX
  5
1E1A
  8
SAPA_PROFIL
 62
     4
 10
-1.9665855811090009
 20
121.6624355652969
 30
0.0
 42
0.1316524975870234
  0
VERTEX
  5
1E1B
  8
SAPA_PROFIL
 62
     4
 10
-1.92639320224427
 20
121.8124355652925
 30
0.0
  0
VERTEX
  5
1E1C
  8
SAPA_PROFIL
 62
     4
 10
-1.9263932022443271
 20
122.0999999999987
 30
0.0
 42
0.4142135623773905
  0
VERTEX
  5
1E1D
  8
SAPA_PROFIL
 62
     4
 10
-2.3263932022443039
 20
122.49999999999871
 30
0.0
  0
VERTEX
  5
1E1E
  8
SAPA_PROFIL
 62
     4
 10
-5.7263932022442807
 20
122.49999999999871
 30
0.0
 42
0.4142135623716633
  0
VERTEX
  5
1E1F
  8
SAPA_PROFIL
 62
     4
 10
-6.126393202244258
 20
122.10000000000061
 30
0.0
  0
VERTEX
  5
1E20
  8
SAPA_PROFIL
 62
     4
 10
-6.126393202244258
 20
121.81243556529689
 30
0.0
 42
0.1316524975870223
  0
VERTEX
  5
1E21
  8
SAPA_PROFIL
 62
     4
 10
-6.0862008233805511
 20
121.66243556529859
 30
0.0
  0
VERTEX
  5
1E22
  8
SAPA_PROFIL
 62
     4
 10
-5.5305383906769796
 20
120.6999999999987
 30
0.0
  0
VERTEX
  5
1E23
  8
SAPA_PROFIL
 62
     4
 10
-5.3381153976715723
 20
120.3667135995687
 30
0.0
  0
VERTEX
  5
1E24
  8
SAPA_PROFIL
 62
     4
 10
-5.06727777954515
 20
120.3688631265324
 30
0.0
 42
-0.577350269188929
  0
VERTEX
  5
1E25
  8
SAPA_PROFIL
 62
     4
 10
-4.8854124447503571
 20
120.0538631265327
 30
0.0
  0
VERTEX
  5
1E26
  8
SAPA_PROFIL
 62
     4
 10
-5.024082201856884
 20
119.8136800617504
 30
0.0
 42
-0.0126854278206095
  0
VERTEX
  5
1E27
  8
SAPA_PROFIL
 62
     4
 10
-5.0263932022442566
 20
119.46222152941159
 30
0.0
  0
VERTEX
  5
1E28
  8
SAPA_PROFIL
 62
     4
 10
-5.0263932022442921
 20
119.3859854653526
 30
0.0
 42
-0.2962134949611687
  0
VERTEX
  5
1E29
  8
SAPA_PROFIL
 62
     4
 10
-5.2043722093246449
 20
119.1119218280584
 30
0.0
  0
VERTEX
  5
1E2A
  8
SAPA_PROFIL
 62
     4
 10
-7.748414195166986
 20
117.97924135933221
 30
0.0
 42
0.2962134949611357
  0
VERTEX
  5
1E2B
  8
SAPA_PROFIL
 62
     4
 10
-7.9263932022442702
 20
117.7051777220409
 30
0.0
  0
VERTEX
  5
1E2C
  8
SAPA_PROFIL
 62
     4
 10
-7.9263932022444399
 20
113.23005594144939
 30
0.0
  0
VERTEX
  5
1E2D
  8
SAPA_PROFIL
 62
     4
 10
-7.926393202244383
 20
105.2948222779594
 30
0.0
 42
0.2962134949611373
  0
VERTEX
  5
1E2E
  8
SAPA_PROFIL
 62
     4
 10
-7.7484141951670997
 20
105.02075864066509
 30
0.0
  0
VERTEX
  5
1E2F
  8
SAPA_PROFIL
 62
     4
 10
-5.2043722093165741
 20
103.88807817193521
 30
0.0
 42
-0.2962134949611043
  0
VERTEX
  5
1E30
  8
SAPA_PROFIL
 62
     4
 10
-5.0263932022442921
 20
103.6140145346447
 30
0.0
  0
SEQEND
  5
1E31
  8
SAPA_PROFIL
 62
     4
  0
POLYLINE
  5
167E
  8
SAPA_PROFIL
 66
     1
 10
0.0
 20
0.0
 30
0.0
 70
     1
  0
VERTEX
  5
1E32
  8
SAPA_PROFIL
 10
10.999999999999879
 20
-90.000000000001137
 30
0.0
  0
VERTEX
  5
1E33
  8
SAPA_PROFIL
 10
24.99999999999989
 20
-90.000000000001137
 30
0.0
  0
VERTEX
  5
1E34
  8
SAPA_PROFIL
 10
24.99999999999989
 20
-35.500000000001137
 30
0.0
  0
VERTEX
  5
1E35
  8
SAPA_PROFIL
 10
4.9999999999998863
 20
-35.500000000001137
 30
0.0
  0
VERTEX
  5
1E36
  8
SAPA_PROFIL
 10
4.9999999999998863
 20
-52.50000000000113
 30
0.0
  0
VERTEX
  5
1E37
  8
SAPA_PROFIL
 10
10.999999999999879
 20
-52.50000000000113
 30
0.0
  0
SEQEND
  5
1E38
  8
SAPA_PROFIL
  0
POLYLINE
  5
167F
  8
SAPA_PROFIL
 66
     1
 10
0.0
 20
0.0
 30
0.0
 70
     1
  0
VERTEX
  5
1E39
  8
SAPA_PROFIL
 10
11.938375275004431
 20
-92.499999999012061
 30
0.0
 42
-0.2216946626428728
  0
VERTEX
  5
1E3A
  8
SAPA_PROFIL
 10
12.704419718123059
 20
-92.857212389325568
 30
0.0
  0
VERTEX
  5
1E3B
  8
SAPA_PROFIL
 10
13.78314541054794
 20
-94.142787608696722
 30
0.0
 42
0.2216946626428911
  0
VERTEX
  5
1E3C
  8
SAPA_PROFIL
 10
14.549189853666689
 20
-94.499999999010186
 30
0.0
  0
VERTEX
  5
1E3D
  8
SAPA_PROFIL
 10
16.32573593128825
 20
-94.499999999010697
 30
0.0
 42
-0.1989123673796749
  0
VERTEX
  5
1E3E
  8
SAPA_PROFIL
 10
16.537867965644519
 20
-94.587867964654606
 30
0.0
  0
VERTEX
  5
1E3F
  8
SAPA_PROFIL
 10
17.108578643762819
 20
-95.158578642773364
 30
0.0
 42
-0.6681786379193591
  0
VERTEX
  5
1E40
  8
SAPA_PROFIL
 10
16.96715728752531
 20
-95.499999999010697
 30
0.0
  0
VERTEX
  5
1E41
  8
SAPA_PROFIL
 10
16.00000000000011
 20
-95.499999999010456
 30
0.0
 42
0.4142135623730951
  0
VERTEX
  5
1E42
  8
SAPA_PROFIL
 10
15.50000000000011
 20
-95.999999999010242
 30
0.0
  0
VERTEX
  5
1E43
  8
SAPA_PROFIL
 10
15.50000000000011
 20
-96.390808928730848
 30
0.0
 42
0.1763269807084316
  0
VERTEX
  5
1E44
  8
SAPA_PROFIL
 10
15.57018666706438
 20
-96.583645211636622
 30
0.0
  0
VERTEX
  5
1E45
  8
SAPA_PROFIL
 10
17.02833086987232
 20
-98.321393803853425
 30
0.0
 42
0.2216946626429586
  0
VERTEX
  5
1E46
  8
SAPA_PROFIL
 10
17.411353091431799
 20
-98.499999999010186
 30
0.0
  0
VERTEX
  5
1E47
  8
SAPA_PROFIL
 10
19.98190844019916
 20
-98.499999999010242
 30
0.0
 42
0.2216946626429592
  0
VERTEX
  5
1E48
  8
SAPA_PROFIL
 10
20.211721773135078
 20
-98.392836281916303
 30
0.0
  0
VERTEX
  5
1E49
  8
SAPA_PROFIL
 10
21.729813332935809
 20
-96.583645211636622
 30
0.0
 42
0.1763269807084563
  0
VERTEX
  5
1E4A
  8
SAPA_PROFIL
 10
21.800000000000072
 20
-96.390808928730848
 30
0.0
  0
VERTEX
  5
1E4B
  8
SAPA_PROFIL
 10
21.800000000000072
 20
-95.999999999010242
 30
0.0
 42
0.4142135623730951
  0
VERTEX
  5
1E4C
  8
SAPA_PROFIL
 10
21.300000000000072
 20
-95.499999999010697
 30
0.0
  0
VERTEX
  5
1E4D
  8
SAPA_PROFIL
 10
20.332842712474651
 20
-95.499999999010697
 30
0.0
 42
-0.6681786379193841
  0
VERTEX
  5
1E4E
  8
SAPA_PROFIL
 10
20.19142135623758
 20
-95.158578642773364
 30
0.0
  0
VERTEX
  5
1E4F
  8
SAPA_PROFIL
 10
20.762132034356341
 20
-94.587867964654606
 30
0.0
 42
-0.1989123673796471
  0
VERTEX
  5
1E50
  8
SAPA_PROFIL
 10
20.974264068712159
 20
-94.499999999010242
 30
0.0
  0
VERTEX
  5
1E51
  8
SAPA_PROFIL
 10
23.300000000000072
 20
-94.499999999010697
 30
0.0
 42
-0.4142135623730951
  0
VERTEX
  5
1E52
  8
SAPA_PROFIL
 10
23.800000000000072
 20
-94.999999999010683
 30
0.0
  0
VERTEX
  5
1E53
  8
SAPA_PROFIL
 10
23.80000000000064
 20
-98.699999999010572
 30
0.0
 42
-0.4142135623729843
  0
VERTEX
  5
1E54
  8
SAPA_PROFIL
 10
23.500000000000568
 20
-98.999999999010754
 30
0.0
  0
VERTEX
  5
1E55
  8
SAPA_PROFIL
 10
22.473205080758252
 20
-98.99999999901064
 30
0.0
 42
0.26794919243117
  0
VERTEX
  5
1E56
  8
SAPA_PROFIL
 10
22.21339745962257
 20
-99.149999999010731
 30
0.0
  0
VERTEX
  5
1E57
  8
SAPA_PROFIL
 10
21.34270871885133
 20
-100.658077135605
 30
0.0
 42
0.4142135623734465
  0
VERTEX
  5
1E58
  8
SAPA_PROFIL
 10
21.45251633998658
 20
-101.0678847567403
 30
0.0
  0
VERTEX
  5
1E59
  8
SAPA_PROFIL
 10
22.000000000000451
 20
-101.38397459522631
 30
0.0
 42
-0.4663076581550835
  0
VERTEX
  5
1E5A
  8
SAPA_PROFIL
 10
22.26604444311943
 20
-102.89278760869711
 30
0.0
  0
VERTEX
  5
1E5B
  8
SAPA_PROFIL
 10
19.329154892317199
 20
-106.3928362819165
 30
0.0
 42
-0.2216946626429129
  0
VERTEX
  5
1E5C
  8
SAPA_PROFIL
 10
19.099341559381511
 20
-106.4999999990105
 30
0.0
  0
VERTEX
  5
1E5D
  8
SAPA_PROFIL
 10
17.949999999999928
 20
-106.4999999990105
 30
0.0
 42
-0.4142135623732061
  0
VERTEX
  5
1E5E
  8
SAPA_PROFIL
 10
17.649999999999981
 20
-106.1999999990104
 30
0.0
  0
VERTEX
  5
1E5F
  8
SAPA_PROFIL
 10
17.650000000000539
 20
-102.693260493762
 30
0.0
 42
0.1763269807085094
  0
VERTEX
  5
1E60
  8
SAPA_PROFIL
 10
17.416044443119521
 20
-102.0504728840753
 30
0.0
  0
VERTEX
  5
1E61
  8
SAPA_PROFIL
 10
15.11413473206971
 20
-99.307163716104284
 30
0.0
 42
0.2216946626429509
  0
VERTEX
  5
1E62
  8
SAPA_PROFIL
 10
14.88432139913402
 20
-99.199999999010231
 30
0.0
  0
VERTEX
  5
1E63
  8
SAPA_PROFIL
 10
14.02421369658054
 20
-99.199999999010231
 30
0.0
 42
-0.4142135623731506
  0
VERTEX
  5
1E64
  8
SAPA_PROFIL
 10
13.724213696580589
 20
-98.899999999010205
 30
0.0
  0
VERTEX
  5
1E65
  8
SAPA_PROFIL
 10
13.724213696580589
 20
-97.759911398917268
 30
0.0
 42
0.1763269807084654
  0
VERTEX
  5
1E66
  8
SAPA_PROFIL
 10
13.65402702951633
 20
-97.567075116011324
 30
0.0
  0
VERTEX
  5
1E67
  8
SAPA_PROFIL
 10
11.967551956835679
 20
-95.557212389323581
 30
0.0
 42
0.2216946626429509
  0
VERTEX
  5
1E68
  8
SAPA_PROFIL
 10
11.201507513716701
 20
-95.199999999010117
 30
0.0
  0
VERTEX
  5
1E69
  8
SAPA_PROFIL
 10
-11.20150751371693
 20
-95.199999999010217
 30
0.0
 42
0.2216946626429508
  0
VERTEX
  5
1E6A
  8
SAPA_PROFIL
 10
-11.9675519568359
 20
-95.557212389323695
 30
0.0
  0
VERTEX
  5
1E6B
  8
SAPA_PROFIL
 10
-13.65402702951655
 20
-97.567075116011438
 30
0.0
 42
0.1763269807084657
  0
VERTEX
  5
1E6C
  8
SAPA_PROFIL
 10
-13.72421369658082
 20
-97.759911398917382
 30
0.0
  0
VERTEX
  5
1E6D
  8
SAPA_PROFIL
 10
-13.72421369658082
 20
-98.899999999010205
 30
0.0
 42
-0.4142135623730951
  0
VERTEX
  5
1E6E
  8
SAPA_PROFIL
 10
-14.02421369658077
 20
-99.199999999010174
 30
0.0
  0
VERTEX
  5
1E6F
  8
SAPA_PROFIL
 10
-14.884321399134249
 20
-99.199999999010174
 30
0.0
 42
0.2216946626429889
  0
VERTEX
  5
1E70
  8
SAPA_PROFIL
 10
-15.114134732069941
 20
-99.307163716104242
 30
0.0
  0
VERTEX
  5
1E71
  8
SAPA_PROFIL
 10
-17.416044443119741
 20
-102.0504728840754
 30
0.0
 42
0.1763269807085052
  0
VERTEX
  5
1E72
  8
SAPA_PROFIL
 10
-17.65000000000077
 20
-102.6932604937622
 30
0.0
  0
VERTEX
  5
1E73
  8
SAPA_PROFIL
 10
-17.650000000000091
 20
-106.1999999990104
 30
0.0
 42
-0.4142135623732062
  0
VERTEX
  5
1E74
  8
SAPA_PROFIL
 10
-17.950000000000038
 20
-106.4999999990105
 30
0.0
  0
VERTEX
  5
1E75
  8
SAPA_PROFIL
 10
-19.099341559381632
 20
-106.4999999990105
 30
0.0
 42
-0.2216946626429129
  0
VERTEX
  5
1E76
  8
SAPA_PROFIL
 10
-19.32915489231732
 20
-106.3928362819165
 30
0.0
  0
VERTEX
  5
1E77
  8
SAPA_PROFIL
 10
-22.26604444311965
 20
-102.8927876086972
 30
0.0
 42
-0.4663076581550919
  0
VERTEX
  5
1E78
  8
SAPA_PROFIL
 10
-22.000000000000679
 20
-101.38397459522631
 30
0.0
  0
VERTEX
  5
1E79
  8
SAPA_PROFIL
 10
-21.452516339986801
 20
-101.0678847567403
 30
0.0
 42
0.4142135623731708
  0
VERTEX
  5
1E7A
  8
SAPA_PROFIL
 10
-21.342708718851551
 20
-100.658077135605
 30
0.0
  0
VERTEX
  5
1E7B
  8
SAPA_PROFIL
 10
-22.213397459622801
 20
-99.149999999010731
 30
0.0
 42
0.26794919243117
  0
VERTEX
  5
1E7C
  8
SAPA_PROFIL
 10
-22.473205080758479
 20
-98.99999999901064
 30
0.0
  0
VERTEX
  5
1E7D
  8
SAPA_PROFIL
 10
-23.500000000000799
 20
-98.99999999901064
 30
0.0
 42
-0.4142135623729287
  0
VERTEX
  5
1E7E
  8
SAPA_PROFIL
 10
-23.80000000000086
 20
-98.699999999010572
 30
0.0
  0
VERTEX
  5
1E7F
  8
SAPA_PROFIL
 10
-23.800000000000299
 20
-94.999999999010683
 30
0.0
 42
-0.4142135623730951
  0
VERTEX
  5
1E80
  8
SAPA_PROFIL
 10
-23.300000000000299
 20
-94.499999999010697
 30
0.0
  0
VERTEX
  5
1E81
  8
SAPA_PROFIL
 10
-20.97426406871239
 20
-94.499999999010242
 30
0.0
 42
-0.1989123673796819
  0
VERTEX
  5
1E82
  8
SAPA_PROFIL
 10
-20.762132034356569
 20
-94.587867964654606
 30
0.0
  0
VERTEX
  5
1E83
  8
SAPA_PROFIL
 10
-20.191421356237811
 20
-95.158578642773364
 30
0.0
 42
-0.6681786379193841
  0
VERTEX
  5
1E84
  8
SAPA_PROFIL
 10
-20.332842712474871
 20
-95.499999999010697
 30
0.0
  0
VERTEX
  5
1E85
  8
SAPA_PROFIL
 10
-21.300000000000299
 20
-95.499999999010697
 30
0.0
 42
0.4142135623730951
  0
VERTEX
  5
1E86
  8
SAPA_PROFIL
 10
-21.800000000000288
 20
-95.999999999010242
 30
0.0
  0
VERTEX
  5
1E87
  8
SAPA_PROFIL
 10
-21.800000000000288
 20
-96.390808928730848
 30
0.0
 42
0.1763269807084561
  0
VERTEX
  5
1E88
  8
SAPA_PROFIL
 10
-21.729813332936029
 20
-96.583645211636622
 30
0.0
  0
VERTEX
  5
1E89
  8
SAPA_PROFIL
 10
-20.211721773135309
 20
-98.392836281916303
 30
0.0
 42
0.2216946626429592
  0
VERTEX
  5
1E8A
  8
SAPA_PROFIL
 10
-19.98190844019939
 20
-98.499999999010242
 30
0.0
  0
VERTEX
  5
1E8B
  8
SAPA_PROFIL
 10
-17.41135309143203
 20
-98.499999999010186
 30
0.0
 42
0.2216946626429736
  0
VERTEX
  5
1E8C
  8
SAPA_PROFIL
 10
-17.028330869872541
 20
-98.321393803853425
 30
0.0
  0
VERTEX
  5
1E8D
  8
SAPA_PROFIL
 10
-15.570186667064601
 20
-96.583645211636622
 30
0.0
 42
0.1763269807084407
  0
VERTEX
  5
1E8E
  8
SAPA_PROFIL
 10
-15.500000000000339
 20
-96.390808928730848
 30
0.0
  0
VERTEX
  5
1E8F
  8
SAPA_PROFIL
 10
-15.500000000000339
 20
-95.999999999010242
 30
0.0
 42
0.4142135623730951
  0
VERTEX
  5
1E90
  8
SAPA_PROFIL
 10
-16.000000000000341
 20
-95.499999999010697
 30
0.0
  0
VERTEX
  5
1E91
  8
SAPA_PROFIL
 10
-16.967157287525541
 20
-95.499999999010697
 30
0.0
 42
-0.6681786379193591
  0
VERTEX
  5
1E92
  8
SAPA_PROFIL
 10
-17.10857864376305
 20
-95.158578642773364
 30
0.0
  0
VERTEX
  5
1E93
  8
SAPA_PROFIL
 10
-16.53786796564475
 20
-94.587867964654606
 30
0.0
 42
-0.1989123673796749
  0
VERTEX
  5
1E94
  8
SAPA_PROFIL
 10
-16.325735931288481
 20
-94.499999999010697
 30
0.0
  0
VERTEX
  5
1E95
  8
SAPA_PROFIL
 10
-14.549189853667031
 20
-94.499999999010186
 30
0.0
 42
0.2216946626428804
  0
VERTEX
  5
1E96
  8
SAPA_PROFIL
 10
-13.783145410548279
 20
-94.142787608696665
 30
0.0
  0
VERTEX
  5
1E97
  8
SAPA_PROFIL
 10
-12.70441971812329
 20
-92.857212389325525
 30
0.0
 42
-0.2216946626428499
  0
VERTEX
  5
1E98
  8
SAPA_PROFIL
 10
-11.93837527500466
 20
-92.499999999012061
 30
0.0
  0
VERTEX
  5
1E99
  8
SAPA_PROFIL
 10
-6.6500000000002037
 20
-92.499999999010242
 30
0.0
 42
0.4142135623730951
  0
VERTEX
  5
1E9A
  8
SAPA_PROFIL
 10
-6.3500000000000218
 20
-92.199999999010515
 30
0.0
  0
VERTEX
  5
1E9B
  8
SAPA_PROFIL
 10
-6.3500000000000218
 20
-91.799999999010424
 30
0.0
 42
-0.4142135623730951
  0
VERTEX
  5
1E9C
  8
SAPA_PROFIL
 10
-6.0500000000002947
 20
-91.499999999010257
 30
0.0
  0
VERTEX
  5
1E9D
  8
SAPA_PROFIL
 10
-5.6500000000002037
 20
-91.499999999010257
 30
0.0
 42
-0.4142135623730951
  0
VERTEX
  5
1E9E
  8
SAPA_PROFIL
 10
-5.3500000000000218
 20
-91.799999999010424
 30
0.0
  0
VERTEX
  5
1E9F
  8
SAPA_PROFIL
 10
-5.3500000000000218
 20
-92.199999999010515
 30
0.0
 42
0.4142135623730951
  0
VERTEX
  5
1EA0
  8
SAPA_PROFIL
 10
-5.0500000000002947
 20
-92.499999999010242
 30
0.0
  0
VERTEX
  5
1EA1
  8
SAPA_PROFIL
 10
-0.6242640687120229
 20
-92.499999999010242
 30
0.0
 42
-0.1989123673795535
  0
VERTEX
  5
1EA2
  8
SAPA_PROFIL
 10
-0.4121320343562048
 20
-92.587867964654151
 30
0.0
  0
VERTEX
  5
1EA3
  8
SAPA_PROFIL
 10
-0.0000000000001137
 20
-92.999999999010228
 30
0.0
  0
VERTEX
  5
1EA4
  8
SAPA_PROFIL
 10
0.4121320343559774
 20
-92.587867964654151
 30
0.0
 42
-0.1989123673795536
  0
VERTEX
  5
1EA5
  8
SAPA_PROFIL
 10
0.6242640687117956
 20
-92.499999999010242
 30
0.0
  0
VERTEX
  5
1EA6
  8
SAPA_PROFIL
 10
5.0499999999996126
 20
-92.499999999010242
 30
0.0
 42
0.4142135623730951
  0
VERTEX
  5
1EA7
  8
SAPA_PROFIL
 10
5.3499999999997954
 20
-92.199999999010515
 30
0.0
  0
VERTEX
  5
1EA8
  8
SAPA_PROFIL
 10
5.3499999999997954
 20
-91.799999999010424
 30
0.0
 42
-0.4142135623730951
  0
VERTEX
  5
1EA9
  8
SAPA_PROFIL
 10
5.6499999999999773
 20
-91.499999999010257
 30
0.0
  0
VERTEX
  5
1EAA
  8
SAPA_PROFIL
 10
6.0500000000000682
 20
-91.499999999010257
 30
0.0
 42
-0.4142135623730951
  0
VERTEX
  5
1EAB
  8
SAPA_PROFIL
 10
6.3499999999997954
 20
-91.799999999010424
 30
0.0
  0
VERTEX
  5
1EAC
  8
SAPA_PROFIL
 10
6.3499999999997954
 20
-92.199999999010515
 30
0.0
 42
0.414213562373095
  0
VERTEX
  5
1EAD
  8
SAPA_PROFIL
 10
6.6499999999999773
 20
-92.499999999010242
 30
0.0
  0
SEQEND
  5
1EAE
  8
SAPA_PROFIL
  0
POLYLINE
  5
1680
  8
SAPA_PROFIL
 66
     1
 10
0.0
 20
0.0
 30
0.0
 70
     1
  0
VERTEX
  5
1EAF
  8
SAPA_PROFIL
 10
2.7000000000001592
 20
-33.050000000001319
 30
0.0
  0
VERTEX
  5
1EB0
  8
SAPA_PROFIL
 10
2.0767196966982051
 20
-31.673765406424991
 30
0.0
 42
-0.5450207798987328
  0
VERTEX
  5
1EB1
  8
SAPA_PROFIL
 10
2.3500000000000218
 20
-31.250000000001371
 30
0.0
  0
VERTEX
  5
1EB2
  8
SAPA_PROFIL
 10
2.7000000000001592
 20
-31.250000000001371
 30
0.0
  0
VERTEX
  5
1EB3
  8
SAPA_PROFIL
 10
2.7000000000001592
 20
-31.000000000001361
 30
0.0
 42
0.4142135623730951
  0
VERTEX
  5
1EB4
  8
SAPA_PROFIL
 10
1.7000000000001589
 20
-30.000000000001371
 30
0.0
  0
VERTEX
  5
1EB5
  8
SAPA_PROFIL
 10
-1.6999999999999309
 20
-30.000000000001371
 30
0.0
 42
0.4142135623730951
  0
VERTEX
  5
1EB6
  8
SAPA_PROFIL
 10
-2.6999999999999309
 20
-31.000000000001361
 30
0.0
  0
VERTEX
  5
1EB7
  8
SAPA_PROFIL
 10
-2.6999999999999309
 20
-32.150000000001228
 30
0.0
  0
VERTEX
  5
1EB8
  8
SAPA_PROFIL
 10
-2.3499999999997949
 20
-32.150000000001228
 30
0.0
 42
-0.5450200690651551
  0
VERTEX
  5
1EB9
  8
SAPA_PROFIL
 10
-2.0767190000000251
 20
-32.573765000001231
 30
0.0
  0
VERTEX
  5
1EBA
  8
SAPA_PROFIL
 10
-2.6999999999999309
 20
-33.950000000001189
 30
0.0
  0
VERTEX
  5
1EBB
  8
SAPA_PROFIL
 10
-2.3499999999997949
 20
-33.950000000001189
 30
0.0
 42
-0.5450200690651692
  0
VERTEX
  5
1EBC
  8
SAPA_PROFIL
 10
-2.0767190000000251
 20
-34.373765000001193
 30
0.0
  0
VERTEX
  5
1EBD
  8
SAPA_PROFIL
 10
-2.6999999999999309
 20
-35.750000000001357
 30
0.0
  0
VERTEX
  5
1EBE
  8
SAPA_PROFIL
 10
-2.3499999999997949
 20
-35.750000000001357
 30
0.0
 42
-0.5450200690651619
  0
VERTEX
  5
1EBF
  8
SAPA_PROFIL
 10
-2.0767190000000251
 20
-36.173765000001367
 30
0.0
  0
VERTEX
  5
1EC0
  8
SAPA_PROFIL
 10
-2.6999999999999309
 20
-37.550000000001319
 30
0.0
  0
VERTEX
  5
1EC1
  8
SAPA_PROFIL
 10
-2.3499999999997949
 20
-37.550000000001319
 30
0.0
 42
-0.5450200690651619
  0
VERTEX
  5
1EC2
  8
SAPA_PROFIL
 10
-2.0767190000000251
 20
-37.973765000001322
 30
0.0
  0
VERTEX
  5
1EC3
  8
SAPA_PROFIL
 10
-2.6999999999999309
 20
-39.35000000000128
 30
0.0
  0
VERTEX
  5
1EC4
  8
SAPA_PROFIL
 10
-2.3499999999997949
 20
-39.35000000000128
 30
0.0
 42
-0.5450200690651692
  0
VERTEX
  5
1EC5
  8
SAPA_PROFIL
 10
-2.0767190000000251
 20
-39.773765000001283
 30
0.0
  0
VERTEX
  5
1EC6
  8
SAPA_PROFIL
 10
-2.6999999999999309
 20
-41.150000000001221
 30
0.0
  0
VERTEX
  5
1EC7
  8
SAPA_PROFIL
 10
-2.6999999999999309
 20
-41.450000000001182
 30
0.0
  0
VERTEX
  5
1EC8
  8
SAPA_PROFIL
 10
2.4282676335109268
 20
-41.450000000001182
 30
0.0
  0
VERTEX
  5
1EC9
  8
SAPA_PROFIL
 10
2.0767196966982051
 20
-40.673765406424991
 30
0.0
 42
-0.5450207798987328
  0
VERTEX
  5
1ECA
  8
SAPA_PROFIL
 10
2.3500000000000218
 20
-40.250000000001357
 30
0.0
  0
VERTEX
  5
1ECB
  8
SAPA_PROFIL
 10
2.7000000000001592
 20
-40.250000000001357
 30
0.0
  0
VERTEX
  5
1ECC
  8
SAPA_PROFIL
 10
2.0767200000001358
 20
-38.873765000001193
 30
0.0
 42
-0.5450205149791638
  0
VERTEX
  5
1ECD
  8
SAPA_PROFIL
 10
2.3500000000000218
 20
-38.450000000001182
 30
0.0
  0
VERTEX
  5
1ECE
  8
SAPA_PROFIL
 10
2.7000000000001592
 20
-38.450000000001182
 30
0.0
  0
VERTEX
  5
1ECF
  8
SAPA_PROFIL
 10
2.0767196966982051
 20
-37.073765406424847
 30
0.0
 42
-0.545020779898768
  0
VERTEX
  5
1ED0
  8
SAPA_PROFIL
 10
2.3500000000000218
 20
-36.650000000001228
 30
0.0
  0
VERTEX
  5
1ED1
  8
SAPA_PROFIL
 10
2.7000000000001592
 20
-36.650000000001228
 30
0.0
  0
VERTEX
  5
1ED2
  8
SAPA_PROFIL
 10
2.0767196966982051
 20
-35.2737654064249
 30
0.0
 42
-0.54502077989874
  0
VERTEX
  5
1ED3
  8
SAPA_PROFIL
 10
2.3500000000000218
 20
-34.850000000001273
 30
0.0
  0
VERTEX
  5
1ED4
  8
SAPA_PROFIL
 10
2.7000000000001592
 20
-34.850000000001273
 30
0.0
  0
VERTEX
  5
1ED5
  8
SAPA_PROFIL
 10
2.0767196966982051
 20
-33.473765406424953
 30
0.0
 42
-0.545020779898761
  0
VERTEX
  5
1ED6
  8
SAPA_PROFIL
 10
2.3500000000000218
 20
-33.050000000001319
 30
0.0
  0
SEQEND
  5
1ED7
  8
SAPA_PROFIL
  0
POLYLINE
  5
1681
  8
SAPA_PROFIL
 66
     1
 10
0.0
 20
0.0
 30
0.0
 70
     1
  0
VERTEX
  5
1ED8
  8
SAPA_PROFIL
 10
23.00000000000011
 20
58.024264068710629
 30
0.0
 42
-0.1989123673796753
  0
VERTEX
  5
1ED9
  8
SAPA_PROFIL
 10
22.912132034355981
 20
57.812132034354811
 30
0.0
  0
VERTEX
  5
1EDA
  8
SAPA_PROFIL
 10
21.187867965644159
 20
56.087867965642772
 30
0.0
 42
0.1989123673796753
  0
VERTEX
  5
1EDB
  8
SAPA_PROFIL
 10
21.100000000000019
 20
55.875735931286727
 30
0.0
  0
VERTEX
  5
1EDC
  8
SAPA_PROFIL
 10
21.100000000000019
 20
55.299999999998818
 30
0.0
 42
0.4142135623730951
  0
VERTEX
  5
1EDD
  8
SAPA_PROFIL
 10
21.400000000000201
 20
54.999999999998643
 30
0.0
  0
VERTEX
  5
1EDE
  8
SAPA_PROFIL
 10
22.700000000000159
 20
54.999999999998643
 30
0.0
 42
-0.4142135623730951
  0
VERTEX
  5
1EDF
  8
SAPA_PROFIL
 10
23.00000000000011
 20
54.699999999998681
 30
0.0
  0
VERTEX
  5
1EE0
  8
SAPA_PROFIL
 10
23.00000000000011
 20
29.999999999998639
 30
0.0
 42
-0.4142135623730951
  0
VERTEX
  5
1EE1
  8
SAPA_PROFIL
 10
22.00000000000011
 20
28.999999999998629
 30
0.0
  0
VERTEX
  5
1EE2
  8
SAPA_PROFIL
 10
17.600000000000019
 20
28.999999999998629
 30
0.0
 42
0.4142135623730951
  0
VERTEX
  5
1EE3
  8
SAPA_PROFIL
 10
17.300000000000072
 20
28.699999999998681
 30
0.0
  0
VERTEX
  5
1EE4
  8
SAPA_PROFIL
 10
17.300000000000072
 20
26.39999999999873
 30
0.0
 42
0.4142135623730951
  0
VERTEX
  5
1EE5
  8
SAPA_PROFIL
 10
17.600000000000019
 20
26.099999999998769
 30
0.0
  0
VERTEX
  5
1EE6
  8
SAPA_PROFIL
 10
18.100000000000019
 20
26.099999999998769
 30
0.0
 42
0.4142135623730951
  0
VERTEX
  5
1EE7
  8
SAPA_PROFIL
 10
18.400000000000201
 20
26.39999999999873
 30
0.0
  0
VERTEX
  5
1EE8
  8
SAPA_PROFIL
 10
18.400000000000201
 20
26.736626924633129
 30
0.0
 42
-0.5535245743249297
  0
VERTEX
  5
1EE9
  8
SAPA_PROFIL
 10
22.71055421153153
 20
24.964107602123249
 30
0.0
  0
VERTEX
  5
1EEA
  8
SAPA_PROFIL
 10
22.42322330470336
 20
24.67677669529531
 30
0.0
 42
0.4142135623729421
  0
VERTEX
  5
1EEB
  8
SAPA_PROFIL
 10
22.42322330470336
 20
24.3232233047022
 30
0.0
  0
VERTEX
  5
1EEC
  8
SAPA_PROFIL
 10
22.71055421153153
 20
24.03589239787425
 30
0.0
 42
-0.5535245743249292
  0
VERTEX
  5
1EED
  8
SAPA_PROFIL
 10
18.400000000000201
 20
22.26337307536415
 30
0.0
  0
VERTEX
  5
1EEE
  8
SAPA_PROFIL
 10
18.400000000000201
 20
22.599999999998769
 30
0.0
 42
0.4142135623730951
  0
VERTEX
  5
1EEF
  8
SAPA_PROFIL
 10
18.100000000000019
 20
22.89999999999873
 30
0.0
  0
VERTEX
  5
1EF0
  8
SAPA_PROFIL
 10
17.600000000000019
 20
22.89999999999873
 30
0.0
 42
0.4142135623730951
  0
VERTEX
  5
1EF1
  8
SAPA_PROFIL
 10
17.300000000000072
 20
22.599999999998769
 30
0.0
  0
VERTEX
  5
1EF2
  8
SAPA_PROFIL
 10
17.300000000000072
 20
21.499999999998639
 30
0.0
 42
0.4142135623730951
  0
VERTEX
  5
1EF3
  8
SAPA_PROFIL
 10
18.800000000000072
 20
19.999999999998629
 30
0.0
  0
VERTEX
  5
1EF4
  8
SAPA_PROFIL
 10
21.63397459621558
 20
19.999999999998629
 30
0.0
 42
0.267949192431143
  0
VERTEX
  5
1EF5
  8
SAPA_PROFIL
 10
22.066987298107851
 20
20.249999999998639
 30
0.0
 42
-0.767326987978956
  0
VERTEX
  5
1EF6
  8
SAPA_PROFIL
 10
23.00000000000011
 20
19.999999999998629
 30
0.0
  0
VERTEX
  5
1EF7
  8
SAPA_PROFIL
 10
23.00000000000011
 20
-15.000000000001361
 30
0.0
 42
-0.4142135623730951
  0
VERTEX
  5
1EF8
  8
SAPA_PROFIL
 10
22.00000000000011
 20
-16.000000000001361
 30
0.0
  0
VERTEX
  5
1EF9
  8
SAPA_PROFIL
 10
17.600000000000019
 20
-16.000000000001361
 30
0.0
 42
0.4142135623730951
  0
VERTEX
  5
1EFA
  8
SAPA_PROFIL
 10
17.300000000000072
 20
-16.300000000001319
 30
0.0
  0
VERTEX
  5
1EFB
  8
SAPA_PROFIL
 10
17.300000000000072
 20
-18.60000000000127
 30
0.0
 42
0.4142135623730951
  0
VERTEX
  5
1EFC
  8
SAPA_PROFIL
 10
17.600000000000019
 20
-18.900000000001231
 30
0.0
  0
VERTEX
  5
1EFD
  8
SAPA_PROFIL
 10
18.100000000000019
 20
-18.900000000001231
 30
0.0
 42
0.4142135623730951
  0
VERTEX
  5
1EFE
  8
SAPA_PROFIL
 10
18.400000000000201
 20
-18.60000000000127
 30
0.0
  0
VERTEX
  5
1EFF
  8
SAPA_PROFIL
 10
18.400000000000201
 20
-18.263373075366871
 30
0.0
 42
-0.5535245743249297
  0
VERTEX
  5
1F00
  8
SAPA_PROFIL
 10
22.71055421153153
 20
-20.035892397876751
 30
0.0
  0
VERTEX
  5
1F01
  8
SAPA_PROFIL
 10
22.42322330470336
 20
-20.323223304704701
 30
0.0
 42
0.4142135623730243
  0
VERTEX
  5
1F02
  8
SAPA_PROFIL
 10
22.42322330470358
 20
-20.6767766952978
 30
0.0
  0
VERTEX
  5
1F03
  8
SAPA_PROFIL
 10
22.71055421153153
 20
-20.96410760212575
 30
0.0
 42
-0.5535245743249292
  0
VERTEX
  5
1F04
  8
SAPA_PROFIL
 10
18.400000000000201
 20
-22.736626924635861
 30
0.0
  0
VERTEX
  5
1F05
  8
SAPA_PROFIL
 10
18.400000000000201
 20
-22.400000000001231
 30
0.0
 42
0.4142135623730951
  0
VERTEX
  5
1F06
  8
SAPA_PROFIL
 10
18.100000000000019
 20
-22.10000000000127
 30
0.0
  0
VERTEX
  5
1F07
  8
SAPA_PROFIL
 10
17.600000000000019
 20
-22.10000000000127
 30
0.0
 42
0.4142135623730951
  0
VERTEX
  5
1F08
  8
SAPA_PROFIL
 10
17.300000000000072
 20
-22.400000000001231
 30
0.0
  0
VERTEX
  5
1F09
  8
SAPA_PROFIL
 10
17.300000000000072
 20
-23.500000000001361
 30
0.0
 42
0.4142135623730951
  0
VERTEX
  5
1F0A
  8
SAPA_PROFIL
 10
18.800000000000072
 20
-25.000000000001371
 30
0.0
  0
VERTEX
  5
1F0B
  8
SAPA_PROFIL
 10
21.780384757729401
 20
-25.000000000001371
 30
0.0
 42
0.2679491924311188
  0
VERTEX
  5
1F0C
  8
SAPA_PROFIL
 10
22.040192378864841
 20
-24.85000000000127
 30
0.0
 42
-0.7673269879789557
  0
VERTEX
  5
1F0D
  8
SAPA_PROFIL
 10
22.600000000000019
 20
-25.000000000001371
 30
0.0
  0
VERTEX
  5
1F0E
  8
SAPA_PROFIL
 10
22.599999999999799
 20
-27.000000000001361
 30
0.0
 42
-0.4142137811865366
  0
VERTEX
  5
1F0F
  8
SAPA_PROFIL
 10
21.600000747075342
 20
-28.000000000001371
 30
0.0
  0
VERTEX
  5
1F10
  8
SAPA_PROFIL
 10
-21.599999999999799
 20
-28.000000000001371
 30
0.0
 42
-0.4142140000000124
  0
VERTEX
  5
1F11
  8
SAPA_PROFIL
 10
-22.599999999999799
 20
-27.000000000001361
 30
0.0
  0
VERTEX
  5
1F12
  8
SAPA_PROFIL
 10
-22.599999999999799
 20
-25.000000000001371
 30
0.0
 42
-0.7673269879789457
  0
VERTEX
  5
1F13
  8
SAPA_PROFIL
 10
-22.040192378864621
 20
-24.85000000000127
 30
0.0
 42
0.2679491924311191
  0
VERTEX
  5
1F14
  8
SAPA_PROFIL
 10
-21.780384757729159
 20
-25.000000000001371
 30
0.0
  0
VERTEX
  5
1F15
  8
SAPA_PROFIL
 10
-18.799999999999841
 20
-25.000000000001371
 30
0.0
 42
0.4142135623730951
  0
VERTEX
  5
1F16
  8
SAPA_PROFIL
 10
-17.299999999999841
 20
-23.500000000001361
 30
0.0
  0
VERTEX
  5
1F17
  8
SAPA_PROFIL
 10
-17.299999999999841
 20
-22.400000000001231
 30
0.0
 42
0.4142135623730951
  0
VERTEX
  5
1F18
  8
SAPA_PROFIL
 10
-17.599999999999788
 20
-22.10000000000127
 30
0.0
  0
VERTEX
  5
1F19
  8
SAPA_PROFIL
 10
-18.099999999999788
 20
-22.10000000000127
 30
0.0
 42
0.4142135623730951
  0
VERTEX
  5
1F1A
  8
SAPA_PROFIL
 10
-18.399999999999981
 20
-22.400000000001231
 30
0.0
  0
VERTEX
  5
1F1B
  8
SAPA_PROFIL
 10
-18.399999999999981
 20
-22.736626924635861
 30
0.0
 42
-0.5535245743249307
  0
VERTEX
  5
1F1C
  8
SAPA_PROFIL
 10
-22.710554211531299
 20
-20.96410760212575
 30
0.0
  0
VERTEX
  5
1F1D
  8
SAPA_PROFIL
 10
-22.42322330470336
 20
-20.6767766952978
 30
0.0
 42
0.4142135623730951
  0
VERTEX
  5
1F1E
  8
SAPA_PROFIL
 10
-22.42322330470336
 20
-20.323223304704701
 30
0.0
  0
VERTEX
  5
1F1F
  8
SAPA_PROFIL
 10
-22.710554211531299
 20
-20.035892397876751
 30
0.0
 42
-0.553524574324932
  0
VERTEX
  5
1F20
  8
SAPA_PROFIL
 10
-18.399999999999981
 20
-18.263373075366871
 30
0.0
  0
VERTEX
  5
1F21
  8
SAPA_PROFIL
 10
-18.399999999999981
 20
-18.60000000000127
 30
0.0
 42
0.4142135623730951
  0
VERTEX
  5
1F22
  8
SAPA_PROFIL
 10
-18.099999999999788
 20
-18.900000000001231
 30
0.0
  0
VERTEX
  5
1F23
  8
SAPA_PROFIL
 10
-17.599999999999788
 20
-18.900000000001231
 30
0.0
 42
0.4142135623730951
  0
VERTEX
  5
1F24
  8
SAPA_PROFIL
 10
-17.299999999999841
 20
-18.60000000000127
 30
0.0
  0
VERTEX
  5
1F25
  8
SAPA_PROFIL
 10
-17.299999999999841
 20
-16.300000000001319
 30
0.0
 42
0.4142135623730951
  0
VERTEX
  5
1F26
  8
SAPA_PROFIL
 10
-17.599999999999788
 20
-16.000000000001361
 30
0.0
  0
VERTEX
  5
1F27
  8
SAPA_PROFIL
 10
-21.99999999999989
 20
-16.000000000001361
 30
0.0
 42
-0.4142135623730951
  0
VERTEX
  5
1F28
  8
SAPA_PROFIL
 10
-22.99999999999989
 20
-15.000000000001361
 30
0.0
  0
VERTEX
  5
1F29
  8
SAPA_PROFIL
 10
-22.99999999999989
 20
19.999999999998629
 30
0.0
 42
-0.7673269879789569
  0
VERTEX
  5
1F2A
  8
SAPA_PROFIL
 10
-22.06698729810762
 20
20.249999999998639
 30
0.0
 42
0.2679491924311163
  0
VERTEX
  5
1F2B
  8
SAPA_PROFIL
 10
-21.633974596215349
 20
19.999999999998629
 30
0.0
  0
VERTEX
  5
1F2C
  8
SAPA_PROFIL
 10
-18.799999999999841
 20
19.999999999998629
 30
0.0
 42
0.4142135623730951
  0
VERTEX
  5
1F2D
  8
SAPA_PROFIL
 10
-17.299999999999841
 20
21.499999999998639
 30
0.0
  0
VERTEX
  5
1F2E
  8
SAPA_PROFIL
 10
-17.299999999999841
 20
22.599999999998769
 30
0.0
 42
0.4142135623730951
  0
VERTEX
  5
1F2F
  8
SAPA_PROFIL
 10
-17.599999999999788
 20
22.89999999999873
 30
0.0
  0
VERTEX
  5
1F30
  8
SAPA_PROFIL
 10
-18.099999999999788
 20
22.89999999999873
 30
0.0
 42
0.4142135623730951
  0
VERTEX
  5
1F31
  8
SAPA_PROFIL
 10
-18.399999999999981
 20
22.599999999998769
 30
0.0
  0
VERTEX
  5
1F32
  8
SAPA_PROFIL
 10
-18.399999999999981
 20
22.26337307536415
 30
0.0
 42
-0.5535245743249307
  0
VERTEX
  5
1F33
  8
SAPA_PROFIL
 10
-22.710554211531299
 20
24.03589239787425
 30
0.0
  0
VERTEX
  5
1F34
  8
SAPA_PROFIL
 10
-22.42322330470336
 20
24.3232233047022
 30
0.0
 42
0.4142135623731068
  0
VERTEX
  5
1F35
  8
SAPA_PROFIL
 10
-22.423223304703129
 20
24.67677669529531
 30
0.0
  0
VERTEX
  5
1F36
  8
SAPA_PROFIL
 10
-22.710554211531299
 20
24.964107602123249
 30
0.0
 42
-0.553524574324932
  0
VERTEX
  5
1F37
  8
SAPA_PROFIL
 10
-18.399999999999981
 20
26.736626924633129
 30
0.0
  0
VERTEX
  5
1F38
  8
SAPA_PROFIL
 10
-18.399999999999981
 20
26.39999999999873
 30
0.0
 42
0.4142135623730951
  0
VERTEX
  5
1F39
  8
SAPA_PROFIL
 10
-18.099999999999788
 20
26.099999999998769
 30
0.0
  0
VERTEX
  5
1F3A
  8
SAPA_PROFIL
 10
-17.599999999999788
 20
26.099999999998769
 30
0.0
 42
0.4142135623730951
  0
VERTEX
  5
1F3B
  8
SAPA_PROFIL
 10
-17.299999999999841
 20
26.39999999999873
 30
0.0
  0
VERTEX
  5
1F3C
  8
SAPA_PROFIL
 10
-17.299999999999841
 20
28.699999999998681
 30
0.0
 42
0.4142135623730951
  0
VERTEX
  5
1F3D
  8
SAPA_PROFIL
 10
-17.599999999999788
 20
28.999999999998629
 30
0.0
  0
VERTEX
  5
1F3E
  8
SAPA_PROFIL
 10
-21.99999999999989
 20
28.999999999998629
 30
0.0
 42
-0.4142135623730951
  0
VERTEX
  5
1F3F
  8
SAPA_PROFIL
 10
-22.99999999999989
 20
29.999999999998639
 30
0.0
  0
VERTEX
  5
1F40
  8
SAPA_PROFIL
 10
-22.99999999999989
 20
54.699999999998681
 30
0.0
 42
-0.4142135623730951
  0
VERTEX
  5
1F41
  8
SAPA_PROFIL
 10
-22.699999999999928
 20
54.999999999998643
 30
0.0
  0
VERTEX
  5
1F42
  8
SAPA_PROFIL
 10
-21.399999999999981
 20
54.999999999998643
 30
0.0
 42
0.4142135623730951
  0
VERTEX
  5
1F43
  8
SAPA_PROFIL
 10
-21.099999999999788
 20
55.299999999998818
 30
0.0
  0
VERTEX
  5
1F44
  8
SAPA_PROFIL
 10
-21.099999999999788
 20
55.875735931286727
 30
0.0
 42
0.1989123673796752
  0
VERTEX
  5
1F45
  8
SAPA_PROFIL
 10
-21.187867965643932
 20
56.087867965642772
 30
0.0
  0
VERTEX
  5
1F46
  8
SAPA_PROFIL
 10
-22.912132034355981
 20
57.812132034354811
 30
0.0
 42
-0.1989123673796057
  0
VERTEX
  5
1F47
  8
SAPA_PROFIL
 10
-22.99999999999989
 20
58.024264068710629
 30
0.0
  0
VERTEX
  5
1F48
  8
SAPA_PROFIL
 10
-22.99999999999989
 20
61.499999999998629
 30
0.0
 42
-0.4142135623730951
  0
VERTEX
  5
1F49
  8
SAPA_PROFIL
 10
-21.99999999999989
 20
62.499999999998643
 30
0.0
  0
VERTEX
  5
1F4A
  8
SAPA_PROFIL
 10
22.00000000000011
 20
62.499999999998643
 30
0.0
 42
-0.4142135623730951
  0
VERTEX
  5
1F4B
  8
SAPA_PROFIL
 10
23.00000000000011
 20
61.499999999998629
 30
0.0
  0
SEQEND
  5
1F4C
  8
SAPA_PROFIL
  0
POLYLINE
  5
1682
  8
SAPA_PROFIL
 66
     1
 10
0.0
 20
0.0
 30
0.0
 70
     1
  0
VERTEX
  5
1F4D
  8
SAPA_PROFIL
 10
6.0000000000001128
 20
-30.000000000001371
 30
0.0
 42
0.4142135623730951
  0
VERTEX
  5
1F4E
  8
SAPA_PROFIL
 10
5.0000000000001128
 20
-31.000000000001361
 30
0.0
  0
VERTEX
  5
1F4F
  8
SAPA_PROFIL
 10
5.0000000000001128
 20
-52.200000000001182
 30
0.0
 42
-0.4142135623730951
  0
VERTEX
  5
1F50
  8
SAPA_PROFIL
 10
4.7000000000001592
 20
-52.500000000001357
 30
0.0
  0
VERTEX
  5
1F51
  8
SAPA_PROFIL
 10
3.075736000000119
 20
-52.500000000001357
 30
0.0
  0
VERTEX
  5
1F52
  8
SAPA_PROFIL
 10
2.2378679656441132
 20
-51.562132034357091
 30
0.0
 42
-0.668178637919305
  0
VERTEX
  5
1F53
  8
SAPA_PROFIL
 10
2.4500000000001592
 20
-51.050000000001312
 30
0.0
  0
VERTEX
  5
1F54
  8
SAPA_PROFIL
 10
2.7000000000001592
 20
-51.050000000001312
 30
0.0
  0
VERTEX
  5
1F55
  8
SAPA_PROFIL
 10
2.1767196966981142
 20
-49.673765406424991
 30
0.0
 42
-0.5450207798987201
  0
VERTEX
  5
1F56
  8
SAPA_PROFIL
 10
2.4500000000001592
 20
-49.250000000001357
 30
0.0
  0
VERTEX
  5
1F57
  8
SAPA_PROFIL
 10
2.7000000000001592
 20
-49.250000000001357
 30
0.0
  0
VERTEX
  5
1F58
  8
SAPA_PROFIL
 10
2.1767196966981142
 20
-47.873765406424809
 30
0.0
 42
-0.5450207798987201
  0
VERTEX
  5
1F59
  8
SAPA_PROFIL
 10
2.4500000000001592
 20
-47.450000000001182
 30
0.0
  0
VERTEX
  5
1F5A
  8
SAPA_PROFIL
 10
2.7000000000001592
 20
-47.450000000001182
 30
0.0
  0
VERTEX
  5
1F5B
  8
SAPA_PROFIL
 10
2.1767196966981142
 20
-46.073765406424847
 30
0.0
 42
-0.5450207798987342
  0
VERTEX
  5
1F5C
  8
SAPA_PROFIL
 10
2.4500000000001592
 20
-45.650000000001221
 30
0.0
  0
VERTEX
  5
1F5D
  8
SAPA_PROFIL
 10
2.7000000000001592
 20
-45.650000000001221
 30
0.0
  0
VERTEX
  5
1F5E
  8
SAPA_PROFIL
 10
2.1767196966981142
 20
-44.2737654064249
 30
0.0
 42
-0.5450207798987201
  0
VERTEX
  5
1F5F
  8
SAPA_PROFIL
 10
2.4500000000001592
 20
-43.850000000001273
 30
0.0
  0
VERTEX
  5
1F60
  8
SAPA_PROFIL
 10
2.7000000000001592
 20
-43.850000000001273
 30
0.0
  0
VERTEX
  5
1F61
  8
SAPA_PROFIL
 10
2.4722372826159922
 20
-43.126282705195081
 30
0.0
 42
0.2945484962563026
  0
VERTEX
  5
1F62
  8
SAPA_PROFIL
 10
2.1988824689377671
 20
-42.950048040246877
 30
0.0
  0
VERTEX
  5
1F63
  8
SAPA_PROFIL
 10
1.2642999377482049
 20
-42.950255222213393
 30
0.0
 42
-0.3475954753796591
  0
VERTEX
  5
1F64
  8
SAPA_PROFIL
 10
0.9723265106782719
 20
-42.719501178044311
 30
0.0
 42
0.790522909611319
  0
VERTEX
  5
1F65
  8
SAPA_PROFIL
 10
-0.9736640898653377
 20
-42.71949097360379
 30
0.0
 42
-0.3476065658631364
  0
VERTEX
  5
1F66
  8
SAPA_PROFIL
 10
-1.2656518108868791
 20
-42.950241952336
 30
0.0
  0
VERTEX
  5
1F67
  8
SAPA_PROFIL
 10
-1.8499926620933129
 20
-42.950095231627067
 30
0.0
 42
0.4102317530969976
  0
VERTEX
  5
1F68
  8
SAPA_PROFIL
 10
-2.150028298585652
 20
-43.245946879780597
 30
0.0
 42
-0.0712587206050384
  0
VERTEX
  5
1F69
  8
SAPA_PROFIL
 10
-2.1632556124551452
 20
-43.329990804708807
 30
0.0
  0
VERTEX
  5
1F6A
  8
SAPA_PROFIL
 10
-2.6999999999999309
 20
-44.750000000001357
 30
0.0
  0
VERTEX
  5
1F6B
  8
SAPA_PROFIL
 10
-2.4499999999999309
 20
-44.750000000001357
 30
0.0
 42
-0.5450200690651619
  0
VERTEX
  5
1F6C
  8
SAPA_PROFIL
 10
-2.1767189999999341
 20
-45.17376500000136
 30
0.0
  0
VERTEX
  5
1F6D
  8
SAPA_PROFIL
 10
-2.6999999999999309
 20
-46.550000000001312
 30
0.0
  0
VERTEX
  5
1F6E
  8
SAPA_PROFIL
 10
-2.4499999999999309
 20
-46.550000000001091
 30
0.0
 42
-0.545020069065176
  0
VERTEX
  5
1F6F
  8
SAPA_PROFIL
 10
-2.1767189999999341
 20
-46.973765000001322
 30
0.0
  0
VERTEX
  5
1F70
  8
SAPA_PROFIL
 10
-2.6999999999999309
 20
-48.350000000001273
 30
0.0
  0
VERTEX
  5
1F71
  8
SAPA_PROFIL
 10
-2.4499999999999309
 20
-48.350000000001273
 30
0.0
 42
-0.5450200690651692
  0
VERTEX
  5
1F72
  8
SAPA_PROFIL
 10
-2.1767189999999341
 20
-48.773765000001283
 30
0.0
  0
VERTEX
  5
1F73
  8
SAPA_PROFIL
 10
-2.6999999999999309
 20
-50.150000000001228
 30
0.0
  0
VERTEX
  5
1F74
  8
SAPA_PROFIL
 10
-2.1499999999999768
 20
-50.150000000001228
 30
0.0
  0
VERTEX
  5
1F75
  8
SAPA_PROFIL
 10
-2.1499999999999768
 20
-51.350000000001273
 30
0.0
 42
-0.1989123673797004
  0
VERTEX
  5
1F76
  8
SAPA_PROFIL
 10
-2.2378679999998208
 20
-51.562132000001377
 30
0.0
  0
VERTEX
  5
1F77
  8
SAPA_PROFIL
 10
-3.0757359999998921
 20
-52.500000000001357
 30
0.0
  0
VERTEX
  5
1F78
  8
SAPA_PROFIL
 10
-4.6999999999999309
 20
-52.500000000001357
 30
0.0
 42
-0.4142135623730951
  0
VERTEX
  5
1F79
  8
SAPA_PROFIL
 10
-4.9999999999998863
 20
-52.200000000001182
 30
0.0
  0
VERTEX
  5
1F7A
  8
SAPA_PROFIL
 10
-4.9999999999998863
 20
-31.000000000001361
 30
0.0
 42
0.4142135623730951
  0
VERTEX
  5
1F7B
  8
SAPA_PROFIL
 10
-5.9999999999998863
 20
-30.000000000001371
 30
0.0
  0
VERTEX
  5
1F7C
  8
SAPA_PROFIL
 10
-14.19999999999993
 20
-30.000000000001371
 30
0.0
 42
0.4142135623730951
  0
VERTEX
  5
1F7D
  8
SAPA_PROFIL
 10
-14.69999999999993
 20
-30.500000000001371
 30
0.0
  0
VERTEX
  5
1F7E
  8
SAPA_PROFIL
 10
-14.69999999999993
 20
-33.700000000001182
 30
0.0
 42
0.4142135623730951
  0
VERTEX
  5
1F7F
  8
SAPA_PROFIL
 10
-14.19999999999993
 20
-34.200000000001182
 30
0.0
  0
VERTEX
  5
1F80
  8
SAPA_PROFIL
 10
-11.299999999999841
 20
-34.200000000001182
 30
0.0
 42
-0.4142135623730951
  0
VERTEX
  5
1F81
  8
SAPA_PROFIL
 10
-10.999999999999879
 20
-34.500000000001357
 30
0.0
  0
VERTEX
  5
1F82
  8
SAPA_PROFIL
 10
-10.999999999999879
 20
-35.200000000001189
 30
0.0
 42
-0.4142135623730951
  0
VERTEX
  5
1F83
  8
SAPA_PROFIL
 10
-11.299999999999841
 20
-35.500000000001371
 30
0.0
  0
VERTEX
  5
1F84
  8
SAPA_PROFIL
 10
-17.999999999999879
 20
-35.500000000001371
 30
0.0
  0
VERTEX
  5
1F85
  8
SAPA_PROFIL
 10
-18.586384015500581
 20
-35.035076580642233
 30
0.0
 42
-0.7105995019814511
  0
VERTEX
  5
1F86
  8
SAPA_PROFIL
 10
-18.399999999999981
 20
-34.500000000001357
 30
0.0
  0
VERTEX
  5
1F87
  8
SAPA_PROFIL
 10
-16.499999999999879
 20
-34.500000000001357
 30
0.0
 42
0.4142135623730951
  0
VERTEX
  5
1F88
  8
SAPA_PROFIL
 10
-16.199999999999928
 20
-34.200000000001182
 30
0.0
  0
VERTEX
  5
1F89
  8
SAPA_PROFIL
 10
-16.199999999999928
 20
-30.300000000001319
 30
0.0
 42
0.4142135623730951
  0
VERTEX
  5
1F8A
  8
SAPA_PROFIL
 10
-16.499999999999879
 20
-30.000000000001371
 30
0.0
  0
VERTEX
  5
1F8B
  8
SAPA_PROFIL
 10
-23.199999999999928
 20
-30.000000000001371
 30
0.0
 42
0.4142135623730951
  0
VERTEX
  5
1F8C
  8
SAPA_PROFIL
 10
-23.499999999999879
 20
-30.300000000001319
 30
0.0
  0
VERTEX
  5
1F8D
  8
SAPA_PROFIL
 10
-23.499999999999879
 20
-34.200000000001182
 30
0.0
 42
0.4142135623730951
  0
VERTEX
  5
1F8E
  8
SAPA_PROFIL
 10
-23.199999999999928
 20
-34.500000000001357
 30
0.0
  0
VERTEX
  5
1F8F
  8
SAPA_PROFIL
 10
-21.99999999999989
 20
-34.500000000001357
 30
0.0
 42
-0.7105990647993611
  0
VERTEX
  5
1F90
  8
SAPA_PROFIL
 10
-21.813615999999801
 20
-35.035076000001247
 30
0.0
  0
VERTEX
  5
1F91
  8
SAPA_PROFIL
 10
-22.399999999999981
 20
-35.500000000001371
 30
0.0
  0
VERTEX
  5
1F92
  8
SAPA_PROFIL
 10
-24.699999999999928
 20
-35.500000000001371
 30
0.0
 42
-0.4142135623730951
  0
VERTEX
  5
1F93
  8
SAPA_PROFIL
 10
-24.99999999999989
 20
-35.200000000001189
 30
0.0
  0
VERTEX
  5
1F94
  8
SAPA_PROFIL
 10
-24.99999999999989
 20
63.999999999998629
 30
0.0
 42
-0.4142135623730951
  0
VERTEX
  5
1F95
  8
SAPA_PROFIL
 10
-24.49999999999989
 20
64.499999999998636
 30
0.0
  0
VERTEX
  5
1F96
  8
SAPA_PROFIL
 10
24.500000000000121
 20
64.499999999998636
 30
0.0
 42
-0.4142135623730951
  0
VERTEX
  5
1F97
  8
SAPA_PROFIL
 10
25.00000000000011
 20
63.999999999998629
 30
0.0
  0
VERTEX
  5
1F98
  8
SAPA_PROFIL
 10
25.00000000000011
 20
-35.200000000001189
 30
0.0
 42
-0.4142135623730951
  0
VERTEX
  5
1F99
  8
SAPA_PROFIL
 10
24.700000000000159
 20
-35.500000000001371
 30
0.0
  0
VERTEX
  5
1F9A
  8
SAPA_PROFIL
 10
22.400000000000212
 20
-35.500000000001371
 30
0.0
  0
VERTEX
  5
1F9B
  8
SAPA_PROFIL
 10
21.81361598449951
 20
-35.035076580642233
 30
0.0
 42
-0.7105995019814511
  0
VERTEX
  5
1F9C
  8
SAPA_PROFIL
 10
22.00000000000011
 20
-34.500000000001357
 30
0.0
  0
VERTEX
  5
1F9D
  8
SAPA_PROFIL
 10
23.200000000000159
 20
-34.500000000001357
 30
0.0
 42
0.4142135623730951
  0
VERTEX
  5
1F9E
  8
SAPA_PROFIL
 10
23.500000000000121
 20
-34.200000000001182
 30
0.0
  0
VERTEX
  5
1F9F
  8
SAPA_PROFIL
 10
23.500000000000121
 20
-30.300000000001319
 30
0.0
 42
0.4142135623730951
  0
VERTEX
  5
1FA0
  8
SAPA_PROFIL
 10
23.200000000000159
 20
-30.000000000001371
 30
0.0
  0
VERTEX
  5
1FA1
  8
SAPA_PROFIL
 10
16.50000000000011
 20
-30.000000000001371
 30
0.0
 42
0.4142135623730951
  0
VERTEX
  5
1FA2
  8
SAPA_PROFIL
 10
16.200000000000159
 20
-30.300000000001319
 30
0.0
  0
VERTEX
  5
1FA3
  8
SAPA_PROFIL
 10
16.200000000000159
 20
-34.200000000001182
 30
0.0
 42
0.4142135623730951
  0
VERTEX
  5
1FA4
  8
SAPA_PROFIL
 10
16.50000000000011
 20
-34.500000000001357
 30
0.0
  0
VERTEX
  5
1FA5
  8
SAPA_PROFIL
 10
18.400000000000201
 20
-34.500000000001357
 30
0.0
 42
-0.7105995019814511
  0
VERTEX
  5
1FA6
  8
SAPA_PROFIL
 10
18.586384015500808
 20
-35.035076580642233
 30
0.0
  0
VERTEX
  5
1FA7
  8
SAPA_PROFIL
 10
18.00000000000011
 20
-35.500000000001371
 30
0.0
  0
VERTEX
  5
1FA8
  8
SAPA_PROFIL
 10
11.300000000000059
 20
-35.500000000001371
 30
0.0
 42
-0.4142135623730951
  0
VERTEX
  5
1FA9
  8
SAPA_PROFIL
 10
11.00000000000011
 20
-35.200000000001189
 30
0.0
  0
VERTEX
  5
1FAA
  8
SAPA_PROFIL
 10
11.00000000000011
 20
-34.500000000001357
 30
0.0
 42
-0.4142135623730951
  0
VERTEX
  5
1FAB
  8
SAPA_PROFIL
 10
11.300000000000059
 20
-34.200000000001182
 30
0.0
  0
VERTEX
  5
1FAC
  8
SAPA_PROFIL
 10
14.200000000000159
 20
-34.200000000001182
 30
0.0
 42
0.4142135623730951
  0
VERTEX
  5
1FAD
  8
SAPA_PROFIL
 10
14.700000000000159
 20
-33.700000000001182
 30
0.0
  0
VERTEX
  5
1FAE
  8
SAPA_PROFIL
 10
14.700000000000159
 20
-30.500000000001371
 30
0.0
 42
0.4142135623730951
  0
VERTEX
  5
1FAF
  8
SAPA_PROFIL
 10
14.200000000000159
 20
-30.000000000001371
 30
0.0
  0
SEQEND
  5
1FB0
  8
SAPA_PROFIL
  0
POLYLINE
  5
1683
  8
SAPA_PROFIL
 66
     1
 10
0.0
 20
0.0
 30
0.0
 70
     1
  0
VERTEX
  5
1FB1
  8
SAPA_PROFIL
 10
28.11409285160828
 20
145.38207524575691
 30
0.0
 42
-0.2038501166358089
  0
VERTEX
  5
1FB2
  8
SAPA_PROFIL
 10
28.478399631026079
 20
145.5252581023629
 30
0.0
  0
VERTEX
  5
1FB3
  8
SAPA_PROFIL
 10
43.583112883626583
 20
145.10663199307379
 30
0.0
 42
-0.4061212134722958
  0
VERTEX
  5
1FB4
  8
SAPA_PROFIL
 10
46.500000000018566
 20
142.1077835059746
 30
0.0
  0
VERTEX
  5
1FB5
  8
SAPA_PROFIL
 10
46.500000000018566
 20
134.3000000048296
 30
0.0
 42
-0.4142135623730951
  0
VERTEX
  5
1FB6
  8
SAPA_PROFIL
 10
46.000000000018566
 20
133.8000000048296
 30
0.0
  0
VERTEX
  5
1FB7
  8
SAPA_PROFIL
 10
34.289949493672268
 20
133.8000000048296
 30
0.0
 42
0.1989123673796573
  0
VERTEX
  5
1FB8
  8
SAPA_PROFIL
 10
32.875735931298941
 20
133.21421356720299
 30
0.0
  0
VERTEX
  5
1FB9
  8
SAPA_PROFIL
 10
31.258977569437249
 20
131.59745520534079
 30
0.0
 42
-0.1989123673796573
  0
VERTEX
  5
1FBA
  8
SAPA_PROFIL
 10
30.551870788250589
 20
131.30456198652749
 30
0.0
  0
VERTEX
  5
1FBB
  8
SAPA_PROFIL
 10
21.601768170272791
 20
131.80217752378849
 30
0.0
 42
0.6681786379236462
  0
VERTEX
  5
1FBC
  8
SAPA_PROFIL
 10
21.388385850739201
 20
131.28702703399949
 30
0.0
  0
VERTEX
  5
1FBD
  8
SAPA_PROFIL
 10
23.387867965661751
 20
129.28754491907699
 30
0.0
 42
0.7332303362587975
  0
VERTEX
  5
1FBE
  8
SAPA_PROFIL
 10
23.895442325921451
 20
129.55177140673419
 30
0.0
  0
VERTEX
  5
1FBF
  8
SAPA_PROFIL
 10
23.786858215135378
 20
130.1675825001326
 30
0.0
 42
-0.4663076581593609
  0
VERTEX
  5
1FC0
  8
SAPA_PROFIL
 10
24.082300541038808
 20
130.51967695343279
 30
0.0
  0
VERTEX
  5
1FC1
  8
SAPA_PROFIL
 10
30.693634286606919
 20
130.02206141617171
 30
0.0
 42
0.1989123673796569
  0
VERTEX
  5
1FC2
  8
SAPA_PROFIL
 10
32.107847848980263
 20
130.60784785379889
 30
0.0
  0
VERTEX
  5
1FC3
  8
SAPA_PROFIL
 10
33.707106781197972
 20
132.20710678601611
 30
0.0
 42
-0.1989123673796555
  0
VERTEX
  5
1FC4
  8
SAPA_PROFIL
 10
34.414213562384177
 20
132.5000000048299
 30
0.0
  0
VERTEX
  5
1FC5
  8
SAPA_PROFIL
 10
45.700000000022023
 20
132.5000000048299
 30
0.0
 42
-0.4142135623732283
  0
VERTEX
  5
1FC6
  8
SAPA_PROFIL
 10
46.200000000022023
 20
132.00000000482939
 30
0.0
  0
VERTEX
  5
1FC7
  8
SAPA_PROFIL
 10
46.20000000002112
 20
130.80000000483011
 30
0.0
 42
0.4142135623732616
  0
VERTEX
  5
1FC8
  8
SAPA_PROFIL
 10
46.500000000021302
 20
130.5000000048299
 30
0.0
  0
VERTEX
  5
1FC9
  8
SAPA_PROFIL
 10
47.700000000006561
 20
130.5000000048299
 30
0.0
 42
0.4142135623716522
  0
VERTEX
  5
1FCA
  8
SAPA_PROFIL
 10
48.000000000008562
 20
130.80000000483051
 30
0.0
  0
VERTEX
  5
1FCB
  8
SAPA_PROFIL
 10
48.000000000031761
 20
146.70000000482929
 30
0.0
 42
0.4142135623735277
  0
VERTEX
  5
1FCC
  8
SAPA_PROFIL
 10
47.700000000032027
 20
147.0000000048299
 30
0.0
  0
VERTEX
  5
1FCD
  8
SAPA_PROFIL
 10
26.204623886339888
 20
147.0000000048299
 30
0.0
 42
0.4210020197690798
  0
VERTEX
  5
1FCE
  8
SAPA_PROFIL
 10
26.000000000018581
 20
146.80005346278591
 30
0.0
  0
VERTEX
  5
1FCF
  8
SAPA_PROFIL
 10
26.000000000018581
 20
146.00475999413271
 30
0.0
  0
VERTEX
  5
1FD0
  8
SAPA_PROFIL
 10
26.300000000018759
 20
146.00475999413271
 30
0.0
 42
-0.4142135623730951
  0
VERTEX
  5
1FD1
  8
SAPA_PROFIL
 10
26.50000000001857
 20
145.80475999413289
 30
0.0
  0
VERTEX
  5
1FD2
  8
SAPA_PROFIL
 10
26.50000000001857
 20
145.56221605628571
 30
0.0
 42
-0.2011813370902619
  0
VERTEX
  5
1FD3
  8
SAPA_PROFIL
 10
26.440181852878531
 20
145.4195659664552
 30
0.0
  0
VERTEX
  5
1FD4
  8
SAPA_PROFIL
 10
25.513434494148829
 20
144.50885387343129
 30
0.0
  0
VERTEX
  5
1FD5
  8
SAPA_PROFIL
 10
24.000000000016751
 20
144.52206141617449
 30
0.0
 42
0.4931454260355948
  0
VERTEX
  5
1FD6
  8
SAPA_PROFIL
 10
22.42873503977891
 20
144.7428883052221
 30
0.0
  0
VERTEX
  5
1FD7
  8
SAPA_PROFIL
 10
21.36108520295458
 20
143.6937117326093
 30
0.0
 42
0.6681786379164273
  0
VERTEX
  5
1FD8
  8
SAPA_PROFIL
 10
21.502454083408271
 20
143.34381147512431
 30
0.0
  0
VERTEX
  5
1FD9
  8
SAPA_PROFIL
 10
26.000000000018581
 20
143.30456198652701
 30
0.0
  0
SEQEND
  5
1FDA
  8
SAPA_PROFIL
  0
POLYLINE
  5
1684
  8
SAPA_PROFIL
 66
     1
 10
0.0
 20
0.0
 30
0.0
 70
     1
  0
VERTEX
  5
1FDB
  8
SAPA_PROFIL
 10
22.800000000000178
 20
-99.0984750712081
 30
0.0
  0
VERTEX
  5
1FDC
  8
SAPA_PROFIL
 10
23.800000000000178
 20
-99.0984750712081
 30
0.0
  0
VERTEX
  5
1FDD
  8
SAPA_PROFIL
 10
23.800000000000178
 20
-96.498475071207935
 30
0.0
 42
-0.4142135623730951
  0
VERTEX
  5
1FDE
  8
SAPA_PROFIL
 10
24.300000000000178
 20
-95.998475071207935
 30
0.0
  0
VERTEX
  5
1FDF
  8
SAPA_PROFIL
 10
24.700000000000269
 20
-95.998475071207935
 30
0.0
 42
-0.4142135623730951
  0
VERTEX
  5
1FE0
  8
SAPA_PROFIL
 10
25.000000000000231
 20
-96.298475071207889
 30
0.0
  0
VERTEX
  5
1FE1
  8
SAPA_PROFIL
 10
25.000000000000231
 20
-113.9999999990106
 30
0.0
 42
-0.4142135623730951
  0
VERTEX
  5
1FE2
  8
SAPA_PROFIL
 10
24.500000000000231
 20
-114.4999999990106
 30
0.0
  0
VERTEX
  5
1FE3
  8
SAPA_PROFIL
 10
-24.499999999999769
 20
-114.4999999990106
 30
0.0
 42
-0.4142135623730951
  0
VERTEX
  5
1FE4
  8
SAPA_PROFIL
 10
-24.999999999999769
 20
-113.9999999990106
 30
0.0
  0
VERTEX
  5
1FE5
  8
SAPA_PROFIL
 10
-24.999999999999769
 20
-96.298475071207889
 30
0.0
 42
-0.4142135623730951
  0
VERTEX
  5
1FE6
  8
SAPA_PROFIL
 10
-24.699999999999822
 20
-95.998475071207935
 30
0.0
  0
VERTEX
  5
1FE7
  8
SAPA_PROFIL
 10
-24.299999999999731
 20
-95.998475071207935
 30
0.0
 42
-0.4142135623730951
  0
VERTEX
  5
1FE8
  8
SAPA_PROFIL
 10
-23.799999999999731
 20
-96.498475071207935
 30
0.0
  0
VERTEX
  5
1FE9
  8
SAPA_PROFIL
 10
-23.799999999999731
 20
-99.0984750712081
 30
0.0
  0
VERTEX
  5
1FEA
  8
SAPA_PROFIL
 10
-22.799999999999731
 20
-99.0984750712081
 30
0.0
  0
VERTEX
  5
1FEB
  8
SAPA_PROFIL
 10
-22.22033922157857
 20
-100.10250783084111
 30
0.0
 42
-0.4155392929676362
  0
VERTEX
  5
1FEC
  8
SAPA_PROFIL
 10
-22.51631264788443
 20
-101.19712680263309
 30
0.0
  0
VERTEX
  5
1FED
  8
SAPA_PROFIL
 10
-23.799999999999731
 20
-101.938264040932
 30
0.0
  0
VERTEX
  5
1FEE
  8
SAPA_PROFIL
 10
-23.799999999999731
 20
-112.09999999901071
 30
0.0
 42
0.4142135623730951
  0
VERTEX
  5
1FEF
  8
SAPA_PROFIL
 10
-22.799999999999731
 20
-113.09999999901071
 30
0.0
  0
VERTEX
  5
1FF0
  8
SAPA_PROFIL
 10
22.800000000000178
 20
-113.09999999901071
 30
0.0
 42
0.4142135623730951
  0
VERTEX
  5
1FF1
  8
SAPA_PROFIL
 10
23.800000000000178
 20
-112.09999999901071
 30
0.0
  0
VERTEX
  5
1FF2
  8
SAPA_PROFIL
 10
23.800000000000178
 20
-101.938264040932
 30
0.0
  0
VERTEX
  5
1FF3
  8
SAPA_PROFIL
 10
22.516312647884892
 20
-101.19712680263309
 30
0.0
 42
-0.4155392929676362
  0
VERTEX
  5
1FF4
  8
SAPA_PROFIL
 10
22.220339221579032
 20
-100.10250783084111
 30
0.0
  0
SEQEND
  5
1FF5
  8
SAPA_PROFIL
  0
LINE
  5
1685
  8
SAPA_PROFIL
 10
-40.999999999996021
 20
-54.49999999901047
 30
0.0
 11
-10.999999999996019
 21
-54.49999999901047
 31
0.0
  0
LINE
  5
1686
  8
SAPA_PROFIL
 10
-40.071362582068438
 20
74.497625189044896
 30
0.0
 11
-48.054191160052078
 21
74.497625189044896
 31
0.0
  0
POLYLINE
  5
16CB
  8
SAPA_GLAS
 66
     1
 10
0.0
 20
0.0
 30
0.0
  0
VERTEX
  5
202C
  8
SAPA_GLAS
 10
60.999999999987722
 20
117.44999992515891
 30
0.0
  0
VERTEX
  5
202D
  8
SAPA_GLAS
 10
30.999999999987718
 20
117.44999992515891
 30
0.0
  0
VERTEX
  5
202E
  8
SAPA_GLAS
 10
30.999999999987718
 20
121.44999992515891
 30
0.0
  0
VERTEX
  5
202F
  8
SAPA_GLAS
 10
60.999999999987722
 20
121.44999992515891
 30
0.0
  0
SEQEND
  5
2030
  8
SAPA_GLAS
  0
POLYLINE
  5
16CC
  8
SAPA_GLAS
 66
     1
 10
0.0
 20
0.0
 30
0.0
  0
VERTEX
  5
2031
  8
SAPA_GLAS
 10
40.999999999987722
 20
105.44999992515891
 30
0.0
  0
VERTEX
  5
2032
  8
SAPA_GLAS
 10
40.999999999987722
 20
117.44999992515891
 30
0.0
  0
VERTEX
  5
2033
  8
SAPA_GLAS
 10
30.999999999987718
 20
117.44999992515891
 30
0.0
  0
VERTEX
  5
2034
  8
SAPA_GLAS
 10
30.999999999987718
 20
105.44999992515891
 30
0.0
  0
VERTEX
  5
2035
  8
SAPA_GLAS
 10
40.999999999987722
 20
105.44999992515891
 30
0.0
  0
SEQEND
  5
2036
  8
SAPA_GLAS
  0
POLYLINE
  5
16CD
  8
SAPA_GLAS
 66
     1
 10
0.0
 20
0.0
 30
0.0
  0
VERTEX
  5
2037
  8
SAPA_GLAS
 10
60.999999999987722
 20
101.44999992515891
 30
0.0
  0
VERTEX
  5
2038
  8
SAPA_GLAS
 10
30.999999999987718
 20
101.44999992515891
 30
0.0
  0
VERTEX
  5
2039
  8
SAPA_GLAS
 10
30.999999999987718
 20
105.44999992515891
 30
0.0
  0
VERTEX
  5
203A
  8
SAPA_GLAS
 10
60.999999999987722
 20
105.44999992515891
 30
0.0
  0
SEQEND
  5
203B
  8
SAPA_GLAS
  0
POLYLINE
  5
16CE
  8
SAPA_GLAS
 66
     1
 10
0.0
 20
0.0
 30
0.0
  0
VERTEX
  5
203C
  8
SAPA_GLAS
 10
40.999999999987722
 20
89.44999992515892
 30
0.0
  0
VERTEX
  5
203D
  8
SAPA_GLAS
 10
40.999999999987722
 20
101.44999992515891
 30
0.0
  0
VERTEX
  5
203E
  8
SAPA_GLAS
 10
30.999999999987718
 20
101.44999992515891
 30
0.0
  0
VERTEX
  5
203F
  8
SAPA_GLAS
 10
30.999999999987718
 20
89.44999992515892
 30
0.0
  0
VERTEX
  5
2040
  8
SAPA_GLAS
 10
40.999999999987722
 20
89.44999992515892
 30
0.0
  0
SEQEND
  5
2041
  8
SAPA_GLAS
  0
POLYLINE
  5
16CF
  8
SAPA_GLAS
 66
     1
 10
0.0
 20
0.0
 30
0.0
  0
VERTEX
  5
2042
  8
SAPA_GLAS
 10
60.999999999987722
 20
83.449999925158934
 30
0.0
  0
VERTEX
  5
2043
  8
SAPA_GLAS
 10
30.999999999987718
 20
83.449999925158934
 30
0.0
  0
VERTEX
  5
2044
  8
SAPA_GLAS
 10
30.999999999987718
 20
89.44999992515892
 30
0.0
  0
VERTEX
  5
2045
  8
SAPA_GLAS
 10
60.999999999987722
 20
89.44999992515892
 30
0.0
  0
SEQEND
  5
2046
  8
SAPA_GLAS
  0
POLYLINE
  5
16D0
  8
SAPA_GLAS
 66
     1
 10
0.0
 20
0.0
 30
0.0
  0
VERTEX
  5
2047
  8
SAPA_GLAS
 10
-40.999999999996021
 20
-72.499999999012061
 30
0.0
  0
VERTEX
  5
2048
  8
SAPA_GLAS
 10
-10.999999999996019
 20
-72.499999999012061
 30
0.0
  0
VERTEX
  5
2049
  8
SAPA_GLAS
 10
-10.999999999996019
 20
-66.499999999012061
 30
0.0
  0
VERTEX
  5
204A
  8
SAPA_GLAS
 10
-40.999999999996021
 20
-66.499999999012061
 30
0.0
  0
SEQEND
  5
204B
  8
SAPA_GLAS
  0
POLYLINE
  5
16D1
  8
SAPA_GLAS
 66
     1
 10
0.0
 20
0.0
 30
0.0
  0
VERTEX
  5
204C
  8
SAPA_GLAS
 10
-40.999999999996021
 20
-90.499999999012061
 30
0.0
  0
VERTEX
  5
204D
  8
SAPA_GLAS
 10
-10.999999999996019
 20
-90.499999999012061
 30
0.0
  0
VERTEX
  5
204E
  8
SAPA_GLAS
 10
-10.999999999996019
 20
-84.499999999012076
 30
0.0
  0
VERTEX
  5
204F
  8
SAPA_GLAS
 10
-40.999999999996021
 20
-84.499999999012076
 30
0.0
  0
SEQEND
  5
2050
  8
SAPA_GLAS
  0
POLYLINE
  5
16D2
  8
SAPA_GLAS
 66
     1
 10
0.0
 20
0.0
 30
0.0
  0
VERTEX
  5
2051
  8
SAPA_GLAS
 10
-40.99999999999693
 20
-54.49999999901047
 30
0.0
  0
VERTEX
  5
2052
  8
SAPA_GLAS
 10
-10.99999999999693
 20
-54.49999999901047
 30
0.0
  0
VERTEX
  5
2053
  8
SAPA_GLAS
 10
-10.99999999999693
 20
-48.49999999901047
 30
0.0
  0
VERTEX
  5
2054
  8
SAPA_GLAS
 10
-40.99999999999693
 20
-48.49999999901047
 30
0.0
  0
SEQEND
  5
2055
  8
SAPA_GLAS
  0
POLYLINE
  5
16D3
  8
SAPA_GLAS
 66
     1
 10
0.0
 20
0.0
 30
0.0
  0
VERTEX
  5
2056
  8
SAPA_GLAS
 10
-20.999999999996021
 20
-84.49999999901047
 30
0.0
  0
VERTEX
  5
2057
  8
SAPA_GLAS
 10
-20.999999999996021
 20
-72.49999999901047
 30
0.0
  0
VERTEX
  5
2058
  8
SAPA_GLAS
 10
-10.99999999999693
 20
-72.49999999901047
 30
0.0
  0
VERTEX
  5
2059
  8
SAPA_GLAS
 10
-10.99999999999693
 20
-84.49999999901047
 30
0.0
  0
VERTEX
  5
205A
  8
SAPA_GLAS
 10
-20.999999999996021
 20
-84.49999999901047
 30
0.0
  0
SEQEND
  5
205B
  8
SAPA_GLAS
  0
POLYLINE
  5
16D4
  8
SAPA_GLAS
 66
     1
 10
0.0
 20
0.0
 30
0.0
  0
VERTEX
  5
205C
  8
SAPA_GLAS
 10
-20.999999999996021
 20
-66.49999999901047
 30
0.0
  0
VERTEX
  5
205D
  8
SAPA_GLAS
 10
-20.999999999996021
 20
-54.49999999901047
 30
0.0
  0
VERTEX
  5
205E
  8
SAPA_GLAS
 10
-10.99999999999693
 20
-54.49999999901047
 30
0.0
  0
VERTEX
  5
205F
  8
SAPA_GLAS
 10
-10.99999999999693
 20
-66.49999999901047
 30
0.0
  0
VERTEX
  5
2060
  8
SAPA_GLAS
 10
-20.999999999996021
 20
-66.49999999901047
 30
0.0
  0
SEQEND
  5
2061
  8
SAPA_GLAS
  0
INSERT
  5
16E5
  8
SAPA_ISOLATOR
  6
CONTINUOUS
  2
*X92
 10
0.0
 20
0.0
 30
0.0
1001
ACAD
1000
HATCH
1002
{
1070
    19
1000
ANSI31
1040
0.35
1040
5.4977871437821371
1000
R14_HATCH_DATA
1000
16E5
1011
1.0
1021
0.0
1031
0.0
1021
0.0
1031
0.0
1011
0.0
1021
0.0
1031
0.0
1021
1.0
1031
0.0
1011
0.0
1021
0.0
1031
0.0
1021
0.0
1031
1.0
1040
0.0
1010
0.0
1020
0.0
1030
1.0
1000
ANSI31
1070
     0
1070
     0
1071
        1
1071
        1
1071
       49
1070
     2
1040
23.128163190640951
1040
99.53625750255874
1040
0.3006817060114675
1040
-3.1365342331756252
1040
-1.9206162522843451
1070
     0
1070
     1
1040
23.025110957018882
1040
99.818728254098545
1040
25.457940978562899
1040
100.7042059669697
1070
     2
1040
25.321132921230092
1040
101.08008301528589
1040
0.400000000002539
1040
5.0614548307880307
1040
6.2831853071802364
1070
     1
1070
     1
1040
25.72113292123262
1040
101.08008301528611
1040
25.721132921232599
1040
111.5000000000002
1070
     1
1040
25.721132921232599
1040
111.5000000000002
1040
25.721132921232542
1040
121.9199169847183
1070
     2
1040
25.321132921232891
1040
121.91991698471659
1040
0.3999999999996488
1040
6.2831853071839641
1040
7.5049157835761973
1070
     1
1070
     1
1040
25.457940978562821
1040
122.2957940330307
1040
23.02511095702712
1040
123.1812717458989
1070
     2
1040
23.128009399970871
1040
123.4636343180463
1040
0.3005273892841634
1040
1.9202588802441449
1040
3.1368916050751952
1070
     0
1070
     2
1040
28.388128406495792
1040
123.6918102929846
1040
5.5653807064749881
1040
3.1003279234522898
1040
3.1634922354923591
1070
     0
1070
     1
1040
22.82408220184718
1040
123.8136800617519
1040
22.685412444740649
1040
124.0538631265342
1070
     2
1040
22.867277779535549
1040
124.1588631265339
1040
0.2100000000000017
1040
2.6179938779930789
1040
4.7123889803841781
1070
     0
1070
     1
1040
22.867277779535438
1040
124.3688631265339
1040
23.13439230774836
1040
124.368863126534
1070
     1
1040
23.13439230774836
1040
124.368863126534
1040
23.330614373532651
1040
124.7000000000002
1070
     1
1040
23.330614373532651
1040
124.7000000000002
1040
23.898258537030099
1040
125.6833201379807
1070
     2
1040
23.71639320223656
1040
125.788320137979
1040
0.209999999998109
1040
5.7595865315855992
1040
6.283185307182225
1070
     1
1070
     1
1040
23.92639320223466
1040
125.7883201379796
1040
23.926393202234781
1040
126.1000000000021
1070
     2
1040
23.526393202238651
1040
126.100000000004
1040
0.3999999999961332
1040
6.2831853071748069
1040
7.8539816339849429
1070
     1
1070
     1
1040
23.526393202234459
1040
126.5000000000002
1040
20.126393202234709
1040
126.5000000000002
1070
     2
1040
20.1263932022318
1040
126.10000000000321
1040
0.3999999999970676
1040
7.8539816339672077
1040
9.4247779607767956
1070
     1
1070
     1
1040
19.726393202234728
1040
126.10000000000019
1040
19.726393202234728
1040
125.7883201379765
1070
     2
1040
19.936393202229681
1040
125.7883201379782
1040
0.2099999999949489
1040
3.1415926535976761
1040
3.6651914291943042
1070
     1
1070
     1
1040
19.754527867439968
1040
125.68332013797961
1040
20.32224801380201
1040
124.7000000000002
1070
     1
1040
20.32224801380201
1040
124.7000000000002
1040
20.665623686774129
1040
124.1052558883293
1070
     2
1040
19.626393202223731
1040
123.50525588832321
1040
1.2000000000109059
1040
-0.5235987755989325
1040
-0.0000000000022795
1070
     0
1070
     1
1040
20.826393202234641
1040
123.505255888326
1040
20.82639320223441
1040
122.5533915554395
1070
     2
1040
21.826393202226669
1040
122.5533915554485
1040
0.9999999999922533
1040
3.1415926535988019
1040
4.3633231299913087
1070
     1
1070
     1
1040
21.484373058908801
1040
121.61369893466799
1040
23.65794097856249
1040
120.82258490975821
1070
     2
1040
23.521132921231221
1040
120.4467078614427
1040
0.4000000000013905
1040
-1.2217304763946191
1040
-0.0000000000023892
1070
     0
1070
     1
1040
23.921132921232608
1040
120.4467078614437
1040
23.921132921232608
1040
111.5000000000002
1070
     1
1040
23.921132921232608
1040
111.5000000000002
1040
23.921132921232669
1040
102.5532921385567
1070
     2
1040
23.521132921234091
1040
102.5532921385557
1040
0.3999999999985775
1040
-0.0000000000024847
1040
1.2217304763897181
1070
     0
1070
     1
1040
23.657940978566248
1040
102.1774150902436
1040
21.484373058909028
1040
101.3863010653325
1070
     2
1040
21.82639320224791
1040
100.4466084445373
1040
1.000000000013211
1040
8.2030474843825996
1040
9.4247779607748186
1070
     1
1070
     1
1040
20.826393202234701
1040
100.4466084445319
1040
20.826393202234701
1040
99.494744111674407
1070
     2
1040
19.626393202245669
1040
99.494744111671409
1040
1.1999999999890261
1040
-0.0000000000024949
1040
0.5235987755941554
1070
     0
1070
     1
1040
20.665623686779981
1040
98.894744111681206
1040
20.326393202234751
1040
98.307179676972709
1070
     1
1040
20.326393202234751
1040
98.307179676972709
1040
19.754527867440029
1040
97.316679862020777
1070
     2
1040
19.93639320224117
1040
97.211679862019125
1040
0.2100000000063851
1040
8.9011791851794602
1040
9.4247779607761366
1070
     1
1070
     1
1040
19.726393202234789
1040
97.211679862017704
1040
19.726393202234728
1040
96.90000000000019
1070
     2
1040
20.126393202237679
1040
96.900000000003146
1040
0.40000000000295
1040
3.1415926535972249
1040
4.7123889803872041
1070
     1
1070
     1
1040
20.126393202238692
1040
96.500000000000185
1040
23.52639320223474
1040
96.500000000000185
1070
     2
1040
23.52639320223274
1040
96.900000000002166
1040
0.4000000000019782
1040
4.712388980389691
1040
6.283185307179699
1070
     1
1070
     1
1040
23.926393202234721
1040
96.900000000002237
1040
23.926393202234721
1040
97.211679862020887
1070
     2
1040
23.716393202232808
1040
97.211679862020404
1040
0.2100000000019078
1040
6.2831853071818378
1040
6.8067840827784662
1070
     1
1070
     1
1040
23.89825853702914
1040
97.316679862021473
1040
23.13439230774836
1040
98.631136873466474
1070
     1
1040
23.13439230774836
1040
98.631136873466474
1040
22.867277779535438
1040
98.631136873466573
1070
     2
1040
22.867277779535549
1040
98.841136873466581
1040
0.2100000000000017
1040
1.570796326795403
1040
3.6651914291865029
1070
     0
1070
     1
1040
22.685412444740649
1040
98.946136873466287
1040
22.824082201847169
1040
99.186319938248602
1070
     2
1040
28.388128405938289
1040
99.308189707018997
1040
5.5653807059176952
1040
3.11969307168448
1040
3.1828573837245471
1070
     0
1071
        0
1070
     0
1070
     1
1040
5.4977871437821371
1040
0.35
1070
     0
1070
     1
1040
0.0
1040
0.0
1040
0.0
1040
0.0000000000000003
1040
1.111249999999999
1070
     0
1071
        1
1040
25.721133114252812
1040
96.499999849184434
1040
0.0
1002
}
  0
INSERT
  5
16E6
  8
SAPA_ISOLATOR
  6
CONTINUOUS
  2
*X93
 10
0.0
 20
0.0
 30
0.0
1001
ACAD
1000
HATCH
1002
{
1070
    19
1000
ANSI31
1040
0.35
1040
5.4977871437821371
1000
R14_HATCH_DATA
1000
16E6
1011
1.0
1021
0.0
1031
0.0
1021
0.0
1031
0.0
1011
0.0
1021
0.0
1031
0.0
1021
1.0
1031
0.0
1011
0.0
1021
0.0
1031
0.0
1021
0.0
1031
1.0
1040
0.0
1010
0.0
1020
0.0
1030
1.0
1000
ANSI31
1070
     0
1070
     0
1071
        1
1071
        1
1071
       49
1070
     2
1040
-9.9014379433161253
1040
103.30399500347799
1040
4.8787750972680151
1040
6.2440775935793926
1040
6.3073074435227223
1070
     0
1070
     1
1040
-5.024082201856884
1040
103.186319938247
1040
-4.8854124447503571
1040
102.94613687346479
1070
     2
1040
-5.0672777795452566
1040
102.841136873465
1040
0.2100000000000011
1040
5.7595865315828716
1040
7.8539816339739748
1070
     0
1070
     1
1040
-5.06727777954515
1040
102.6311368734651
1040
-5.338115397671543
1040
102.6332864004287
1070
     1
1040
-5.338115397671543
1040
102.6332864004287
1040
-6.08620082337913
1040
101.33756443470141
1070
     2
1040
-5.8263932022415519
1040
101.18756443469979
1040
0.3000000000027061
1040
2.617993877990842
1040
3.141592653587673
1070
     1
1070
     1
1040
-6.126393202244258
1040
101.1875644347005
1040
-6.126393202244258
1040
100.9000000000006
1070
     2
1040
-5.7263932022422974
1040
100.9000000000006
1040
0.400000000001961
1040
3.141592653589778
1040
4.7123889803797301
1070
     1
1070
     1
1040
-5.7263932022442807
1040
100.49999999999871
1040
-2.3263932022482261
1040
100.49999999999871
1070
     2
1040
-2.3263932022472602
1040
100.9000000000016
1040
0.4000000000029332
1040
4.7123889803822729
1040
6.2831853071723378
1070
     1
1070
     1
1040
-1.9263932022443271
1040
100.8999999999987
1040
-1.92639320224427
1040
101.1875644346961
1070
     2
1040
-2.226393202253373
1040
101.1875644346978
1040
0.3000000000091028
1040
6.2831853071737527
1040
6.8067840827701707
1070
     1
1070
     1
1040
-1.9665855811090009
1040
101.3375644347004
1040
-2.8656236867895748
1040
102.8947441116797
1070
     2
1040
-1.8263932022552101
1040
103.4947441116699
1040
1.199999999989082
1040
2.6179938779956502
1040
3.141592653592276
1070
     0
1070
     1
1040
-3.0263932022442921
1040
103.4947441116729
1040
-3.0263932022442921
1040
104.9056465456204
1070
     2
1040
-3.326393202248509
1040
104.9056465456221
1040
0.3000000000042169
1040
6.2831853071739898
1040
7.432902672957602
1070
     1
1070
     1
1040
-3.203769581379361
1040
105.17944108100851
1040
-5.8307659036898647
1040
106.35598684584301
1070
     2
1040
-5.6263932022463878
1040
106.8123110714795
1040
0.4999999999980974
1040
1.991875287808593
1040
3.1415926535922738
1070
     0
1070
     1
1040
-6.1263932022444862
1040
106.81231107148081
1040
-6.1263932022444862
1040
116.1874352799431
1070
     2
1040
-5.6263932022426024
1040
116.18743527994189
1040
0.5000000000018839
1040
3.1415926535921801
1040
4.29350995990489
1070
     0
1070
     1
1040
-5.829761523781797
1040
116.64420800876459
1040
-3.2043722093216331
1040
117.8131066416648
1070
     2
1040
-3.326393202241769
1040
118.08717027895599
1040
0.2999999999974772
1040
5.1312680008575722
1040
6.2831853071703492
1070
     1
1070
     1
1040
-3.0263932022442921
1040
118.0871702789532
1040
-3.0263932022442921
1040
119.5052558883245
1070
     2
1040
-1.82639320223335
1040
119.5052558883214
1040
1.2000000000109421
1040
3.1415926535923742
1040
3.6651914291890022
1070
     0
1070
     1
1040
-2.8656236867836071
1040
120.1052558883278
1040
-2.522248013811605
1040
120.6999999999987
1070
     1
1040
-2.522248013811605
1040
120.6999999999987
1040
-1.9665855811090009
1040
121.6624355652969
1070
     2
1040
-2.2263932022370172
1040
121.812435565295
1040
0.2999999999927472
1040
5.7595865315743904
1040
6.2831853071712249
1070
     1
1070
     1
1040
-1.92639320224427
1040
121.8124355652925
1040
-1.9263932022443271
1040
122.0999999999987
1070
     2
1040
-2.3263932022414
1040
122.1000000000016
1040
0.3999999999970729
1040
6.2831853071721779
1040
7.8539816339817428
1070
     1
1070
     1
1040
-2.3263932022443039
1040
122.49999999999871
1040
-5.7263932022442807
1040
122.49999999999871
1070
     2
1040
-5.7263932022442701
1040
122.0999999999987
1040
0.3999999999999879
1040
1.570796326794925
1040
3.1415926535849339
1070
     1
1070
     1
1040
-6.126393202244258
1040
122.10000000000061
1040
-6.126393202244258
1040
121.81243556529689
1070
     2
1040
-5.8263932022470346
1040
121.8124355652962
1040
0.2999999999972234
1040
3.1415926535873409
1040
3.665191429184171
1070
     1
1070
     1
1040
-6.0862008233805511
1040
121.66243556529859
1040
-5.5305383906769796
1040
120.6999999999987
1070
     1
1040
-5.5305383906769796
1040
120.6999999999987
1040
-5.3381153976715723
1040
120.3667135995687
1070
     1
1040
-5.3381153976715723
1040
120.3667135995687
1040
-5.06727777954515
1040
120.3688631265324
1070
     2
1040
-5.0672777795452566
1040
120.1588631265324
1040
0.2100000000000008
1040
4.7123889803851959
1040
6.8067840827763009
1070
     0
1070
     1
1040
-4.8854124447503571
1040
120.0538631265327
1040
-5.024082201856884
1040
119.8136800617504
1070
     2
1040
-11.950545633587369
1040
119.68348785853389
1040
6.9276868925261033
1040
6.2643911743102958
1040
6.3151301640687691
1070
     0
1070
     1
1040
-5.0263932022442566
1040
119.46222152941159
1040
-5.0263932022442921
1040
119.3859854653526
1070
     2
1040
-5.3263932022477096
1040
119.38598546535481
1040
0.3000000000034175
1040
0.000000000007236
1040
1.1519173063201431
1070
     0
1070
     1
1040
-5.2043722093246449
1040
119.1119218280584
1040
-7.748414195166986
1040
117.97924135933221
1070
     2
1040
-7.6263932022445911
1040
117.70517772203959
1040
0.2999999999996781
1040
1.989675347272756
1040
3.141592653585541
1070
     1
1070
     1
1040
-7.9263932022442702
1040
117.7051777220409
1040
-7.9263932022444399
1040
113.23005594144939
1070
     1
1040
-7.9263932022444399
1040
113.23005594144939
1040
-7.926393202244383
1040
105.2948222779594
1070
     2
1040
-7.626393202242431
1040
105.2948222779592
1040
0.3000000000019533
1040
3.1415926535891181
1040
4.2935099599019066
1070
     1
1070
     1
1040
-7.7484141951670997
1040
105.02075864066509
1040
-5.2043722093165741
1040
103.88807817193521
1070
     2
1040
-5.3263932022409284
1040
103.6140145346469
1040
0.2999999999966353
1040
5.1312680008742122
1040
6.28318530718688
1070
     0
1070
     1
1040
-5.0263932022442921
1040
103.6140145346447
1040
-5.0263932022442921
1040
103.49474411165529
1071
        0
1070
     0
1070
     1
1040
5.4977871437821371
1040
0.35
1070
     0
1070
     1
1040
0.0
1040
-8.5584747667009253
1040
99.99951696680904
1040
0.0000000000000003
1040
1.111249999999999
1070
     0
1071
        1
1040
-8.5584747667009253
1040
99.99951696680904
1040
0.0
1002
}
  0
POLYLINE
  5
16E7
  8
SAPA_ISOLATOR
 66
     1
 10
0.0
 20
0.0
 30
0.0
 70
     1
  0
VERTEX
  5
2144
  8
SAPA_ISOLATOR
 10
8.8339473861454962
 20
-55.235078053681832
 30
0.0
 42
0.2133140774071598
  0
VERTEX
  5
2145
  8
SAPA_ISOLATOR
 10
9.5
 20
-53.744915521943881
 30
0.0
  0
VERTEX
  5
2146
  8
SAPA_ISOLATOR
 10
9.5
 20
-53.57305861328495
 30
0.0
 42
-0.9999999999999998
  0
VERTEX
  5
2147
  8
SAPA_ISOLATOR
 10
10.0
 20
-53.57305861328495
 30
0.0
  0
VERTEX
  5
2148
  8
SAPA_ISOLATOR
 10
10.0
 20
-54.53218315257152
 30
0.0
 42
-0.2072397715914422
  0
VERTEX
  5
2149
  8
SAPA_ISOLATOR
 10
9.2103209337027465
 20
-56.355587195491921
 30
0.0
 42
-0.1421101772925093
  0
VERTEX
  5
214A
  8
SAPA_ISOLATOR
 10
5.0
 20
-58.499999999010363
 30
0.0
  0
VERTEX
  5
214B
  8
SAPA_ISOLATOR
 10
5.0
 20
-56.687834754465371
 30
0.0
 42
0.1860725815673001
  0
SEQEND
  5
214C
  8
SAPA_ISOLATOR
  0
POLYLINE
  5
16E8
  8
SAPA_ISOLATOR
 66
     1
 10
0.0
 20
0.0
 30
0.0
 70
     1
  0
VERTEX
  5
214D
  8
SAPA_ISOLATOR
 10
-8.8339473861457236
 20
-55.235078053681832
 30
0.0
 42
-0.2133140774071598
  0
VERTEX
  5
214E
  8
SAPA_ISOLATOR
 10
-9.5000000000001137
 20
-53.744915521943881
 30
0.0
  0
VERTEX
  5
214F
  8
SAPA_ISOLATOR
 10
-9.5000000000001137
 20
-53.57305861328495
 30
0.0
 42
0.9999999999999998
  0
VERTEX
  5
2150
  8
SAPA_ISOLATOR
 10
-10.00000000000011
 20
-53.57305861328495
 30
0.0
  0
VERTEX
  5
2151
  8
SAPA_ISOLATOR
 10
-10.00000000000011
 20
-54.53218315257152
 30
0.0
 42
0.2072397715914422
  0
VERTEX
  5
2152
  8
SAPA_ISOLATOR
 10
-9.2103209337028602
 20
-56.355587195491921
 30
0.0
 42
0.1421101772925093
  0
VERTEX
  5
2153
  8
SAPA_ISOLATOR
 10
-5.0000000000001128
 20
-58.499999999010363
 30
0.0
  0
VERTEX
  5
2154
  8
SAPA_ISOLATOR
 10
-5.0000000000001128
 20
-56.687834754465371
 30
0.0
 42
-0.1860725815673001
  0
SEQEND
  5
2155
  8
SAPA_ISOLATOR
  0
POLYLINE
  5
16E9
  8
SAPA_ISOLATOR
 66
     1
 10
0.0
 20
0.0
 30
0.0
 70
     1
  0
VERTEX
  5
2156
  8
SAPA_ISOLATOR
 10
-8.8339473861457236
 20
-70.235078053681832
 30
0.0
 42
-0.2133140774071598
  0
VERTEX
  5
2157
  8
SAPA_ISOLATOR
 10
-9.5000000000001137
 20
-68.744915521943881
 30
0.0
  0
VERTEX
  5
2158
  8
SAPA_ISOLATOR
 10
-9.5000000000001137
 20
-68.573058613284957
 30
0.0
 42
0.9999999999999998
  0
VERTEX
  5
2159
  8
SAPA_ISOLATOR
 10
-10.00000000000011
 20
-68.573058613284957
 30
0.0
  0
VERTEX
  5
215A
  8
SAPA_ISOLATOR
 10
-10.00000000000011
 20
-69.53218315257152
 30
0.0
 42
0.2072397715914422
  0
VERTEX
  5
215B
  8
SAPA_ISOLATOR
 10
-9.2103209337028602
 20
-71.355587195491921
 30
0.0
 42
0.1421101772925093
  0
VERTEX
  5
215C
  8
SAPA_ISOLATOR
 10
-5.0000000000001128
 20
-73.499999999010356
 30
0.0
  0
VERTEX
  5
215D
  8
SAPA_ISOLATOR
 10
-5.0000000000001128
 20
-71.687834754465371
 30
0.0
 42
-0.1860725815673001
  0
SEQEND
  5
215E
  8
SAPA_ISOLATOR
  0
POLYLINE
  5
16EA
  8
SAPA_ISOLATOR
 66
     1
 10
0.0
 20
0.0
 30
0.0
 70
     1
  0
VERTEX
  5
215F
  8
SAPA_ISOLATOR
 10
-8.8339473861456081
 20
-84.235078053681363
 30
0.0
 42
-0.2133140774071598
  0
VERTEX
  5
2160
  8
SAPA_ISOLATOR
 10
-9.5000000000001137
 20
-82.744915521943426
 30
0.0
  0
VERTEX
  5
2161
  8
SAPA_ISOLATOR
 10
-9.5000000000001137
 20
-82.573058613284502
 30
0.0
 42
0.9999999999999998
  0
VERTEX
  5
2162
  8
SAPA_ISOLATOR
 10
-10.00000000000011
 20
-82.573058613284502
 30
0.0
  0
VERTEX
  5
2163
  8
SAPA_ISOLATOR
 10
-10.00000000000011
 20
-83.532183152571065
 30
0.0
 42
0.2072397715914422
  0
VERTEX
  5
2164
  8
SAPA_ISOLATOR
 10
-9.2103209337028602
 20
-85.355587195491466
 30
0.0
 42
0.1421101772925093
  0
VERTEX
  5
2165
  8
SAPA_ISOLATOR
 10
-5.0000000000001128
 20
-87.499999999009916
 30
0.0
  0
VERTEX
  5
2166
  8
SAPA_ISOLATOR
 10
-5.0000000000001128
 20
-85.687834754464916
 30
0.0
 42
-0.1860725815673001
  0
SEQEND
  5
2167
  8
SAPA_ISOLATOR
  0
POLYLINE
  5
16EB
  8
SAPA_ISOLATOR
 66
     1
 10
0.0
 20
0.0
 30
0.0
 70
     1
  0
VERTEX
  5
2168
  8
SAPA_ISOLATOR
 10
8.8339473861454962
 20
-70.235078053681832
 30
0.0
 42
0.2133140774071598
  0
VERTEX
  5
2169
  8
SAPA_ISOLATOR
 10
9.5
 20
-68.744915521943881
 30
0.0
  0
VERTEX
  5
216A
  8
SAPA_ISOLATOR
 10
9.5
 20
-68.573058613284957
 30
0.0
 42
-0.9999999999999998
  0
VERTEX
  5
216B
  8
SAPA_ISOLATOR
 10
10.0
 20
-68.573058613284957
 30
0.0
  0
VERTEX
  5
216C
  8
SAPA_ISOLATOR
 10
10.0
 20
-69.53218315257152
 30
0.0
 42
-0.2072397715914422
  0
VERTEX
  5
216D
  8
SAPA_ISOLATOR
 10
9.2103209337027465
 20
-71.355587195491921
 30
0.0
 42
-0.1421101772925093
  0
VERTEX
  5
216E
  8
SAPA_ISOLATOR
 10
5.0
 20
-73.499999999010356
 30
0.0
  0
VERTEX
  5
216F
  8
SAPA_ISOLATOR
 10
5.0
 20
-71.687834754465371
 30
0.0
 42
0.1860725815673001
  0
SEQEND
  5
2170
  8
SAPA_ISOLATOR
  0
POLYLINE
  5
16EC
  8
SAPA_ISOLATOR
 66
     1
 10
0.0
 20
0.0
 30
0.0
 70
     1
  0
VERTEX
  5
2171
  8
SAPA_ISOLATOR
 10
8.8339473861454962
 20
-84.235078053681363
 30
0.0
 42
0.2133140774071598
  0
VERTEX
  5
2172
  8
SAPA_ISOLATOR
 10
9.4999999999998863
 20
-82.744915521943426
 30
0.0
  0
VERTEX
  5
2173
  8
SAPA_ISOLATOR
 10
9.4999999999998863
 20
-82.573058613284502
 30
0.0
 42
-0.9999999999999998
  0
VERTEX
  5
2174
  8
SAPA_ISOLATOR
 10
9.9999999999998863
 20
-82.573058613284502
 30
0.0
  0
VERTEX
  5
2175
  8
SAPA_ISOLATOR
 10
9.9999999999998863
 20
-83.532183152571065
 30
0.0
 42
-0.2072397715914422
  0
VERTEX
  5
2176
  8
SAPA_ISOLATOR
 10
9.2103209337026328
 20
-85.355587195491466
 30
0.0
 42
-0.1421101772925093
  0
VERTEX
  5
2177
  8
SAPA_ISOLATOR
 10
4.9999999999998863
 20
-87.499999999009916
 30
0.0
  0
VERTEX
  5
2178
  8
SAPA_ISOLATOR
 10
4.9999999999998863
 20
-85.687834754464916
 30
0.0
 42
0.1860725815673001
  0
SEQEND
  5
2179
  8
SAPA_ISOLATOR
  0
POLYLINE
  5
16ED
  8
SAPA_ISOLATOR
 66
     1
 10
0.0
 20
0.0
 30
0.0
 70
     1
  0
VERTEX
  5
217A
  8
SAPA_ISOLATOR
 10
-5.0000000000001128
 20
-52.999999999010242
 30
0.0
 42
-0.4142135623730951
  0
VERTEX
  5
217B
  8
SAPA_ISOLATOR
 10
-4.5
 20
-52.499999999010349
 30
0.0
  0
VERTEX
  5
217C
  8
SAPA_ISOLATOR
 10
-3.2742640687120002
 20
-52.499999999010242
 30
0.0
 42
0.1989123673796232
  0
VERTEX
  5
217D
  8
SAPA_ISOLATOR
 10
-3.0621320343560678
 20
-52.41213203336622
 30
0.0
  0
VERTEX
  5
217E
  8
SAPA_ISOLATOR
 10
-2.3878679656442041
 20
-51.737867964654349
 30
0.0
 42
0.198912367379658
  0
VERTEX
  5
217F
  8
SAPA_ISOLATOR
 10
-2.300000000000181
 20
-51.52573593029831
 30
0.0
  0
VERTEX
  5
2180
  8
SAPA_ISOLATOR
 10
-2.300000000000181
 20
-47.094967040794927
 30
0.0
 42
-0.0912836897734216
  0
VERTEX
  5
2181
  8
SAPA_ISOLATOR
 10
-1.081358332190234
 20
-44.97541000719297
 30
0.0
 42
-0.4396415083054796
  0
VERTEX
  5
2182
  8
SAPA_ISOLATOR
 10
1.081358332189893
 20
-44.975410007192863
 30
0.0
 42
-0.0912836897734207
  0
VERTEX
  5
2183
  8
SAPA_ISOLATOR
 10
2.29999999999984
 20
-47.094967040794927
 30
0.0
  0
VERTEX
  5
2184
  8
SAPA_ISOLATOR
 10
2.29999999999984
 20
-51.52573593029831
 30
0.0
 42
0.198912367379658
  0
VERTEX
  5
2185
  8
SAPA_ISOLATOR
 10
2.3878679656439772
 20
-51.737867964654349
 30
0.0
  0
VERTEX
  5
2186
  8
SAPA_ISOLATOR
 10
3.06213203435584
 20
-52.41213203336622
 30
0.0
 42
0.1989123673796375
  0
VERTEX
  5
2187
  8
SAPA_ISOLATOR
 10
3.2742640687117719
 20
-52.499999999010242
 30
0.0
  0
VERTEX
  5
2188
  8
SAPA_ISOLATOR
 10
4.4999999999998863
 20
-52.499999999010242
 30
0.0
 42
-0.4142135623730951
  0
VERTEX
  5
2189
  8
SAPA_ISOLATOR
 10
4.9999999999998863
 20
-52.999999999010242
 30
0.0
  0
VERTEX
  5
218A
  8
SAPA_ISOLATOR
 10
4.9999999999998863
 20
-92.499999999010242
 30
0.0
  0
VERTEX
  5
218B
  8
SAPA_ISOLATOR
 10
3.624264068896764
 20
-92.499999999010242
 30
0.0
 42
-0.1989123676531388
  0
VERTEX
  5
218C
  8
SAPA_ISOLATOR
 10
3.4121320343175512
 20
-92.412132033142925
 30
0.0
  0
VERTEX
  5
218D
  8
SAPA_ISOLATOR
 10
0.3535533972159328
 20
-89.353553389603476
 30
0.0
 42
0.4142135623730478
  0
VERTEX
  5
218E
  8
SAPA_ISOLATOR
 10
-0.3535533839706204
 20
-89.353553389603476
 30
0.0
  0
VERTEX
  5
218F
  8
SAPA_ISOLATOR
 10
-3.412132034394403
 20
-92.412132033589515
 30
0.0
 42
-0.1989123671061486
  0
VERTEX
  5
2190
  8
SAPA_ISOLATOR
 10
-3.624264068527054
 20
-92.499999999010242
 30
0.0
  0
VERTEX
  5
2191
  8
SAPA_ISOLATOR
 10
-5.0000000000001128
 20
-92.499999999010114
 30
0.0
  0
SEQEND
  5
2192
  8
SAPA_ISOLATOR
  0
POLYLINE
  5
16EE
  8
SAPA_ISOLATOR
 66
     1
 10
0.0
 20
0.0
 30
0.0
 70
     1
  0
VERTEX
  5
2193
  8
SAPA_ISOLATOR
 10
-1.2000000000001589
 20
-51.981370848908803
 30
0.0
 42
-0.1989123673796566
  0
VERTEX
  5
2194
  8
SAPA_ISOLATOR
 10
-1.2878679656441809
 20
-52.193502883264607
 30
0.0
  0
VERTEX
  5
2195
  8
SAPA_ISOLATOR
 10
-2.6064971157456962
 20
-53.512132033366242
 30
0.0
 42
-0.198912367379654
  0
VERTEX
  5
2196
  8
SAPA_ISOLATOR
 10
-2.8186291501016281
 20
-53.599999999010272
 30
0.0
  0
VERTEX
  5
2197
  8
SAPA_ISOLATOR
 10
-3.600000000000136
 20
-53.599999999010272
 30
0.0
 42
0.4142135623730389
  0
VERTEX
  5
2198
  8
SAPA_ISOLATOR
 10
-3.9000000000000901
 20
-53.899999999010213
 30
0.0
  0
VERTEX
  5
2199
  8
SAPA_ISOLATOR
 10
-3.9000000000000901
 20
-64.546767147075684
 30
0.0
 42
0.4142135623730946
  0
VERTEX
  5
219A
  8
SAPA_ISOLATOR
 10
-3.600000000000136
 20
-64.846767147075639
 30
0.0
  0
VERTEX
  5
219B
  8
SAPA_ISOLATOR
 10
3.5999999999999091
 20
-64.846767147075639
 30
0.0
 42
0.4142135623730956
  0
VERTEX
  5
219C
  8
SAPA_ISOLATOR
 10
3.8999999999998631
 20
-64.546767147075684
 30
0.0
  0
VERTEX
  5
219D
  8
SAPA_ISOLATOR
 10
3.8999999999998631
 20
-53.899999999010213
 30
0.0
 42
0.4142135623730514
  0
VERTEX
  5
219E
  8
SAPA_ISOLATOR
 10
3.5999999999999091
 20
-53.599999999010272
 30
0.0
  0
VERTEX
  5
219F
  8
SAPA_ISOLATOR
 10
2.8186291501014011
 20
-53.599999999010272
 30
0.0
 42
-0.198912367379658
  0
VERTEX
  5
21A0
  8
SAPA_ISOLATOR
 10
2.6064971157454688
 20
-53.512132033366122
 30
0.0
  0
VERTEX
  5
21A1
  8
SAPA_ISOLATOR
 10
1.287867965643954
 20
-52.193502883264728
 30
0.0
 42
-0.1989123673796573
  0
VERTEX
  5
21A2
  8
SAPA_ISOLATOR
 10
1.1999999999999309
 20
-51.981370848908803
 30
0.0
  0
VERTEX
  5
21A3
  8
SAPA_ISOLATOR
 10
1.1999999999999309
 20
-46.992292378098448
 30
0.0
 42
0.082016165771189
  0
VERTEX
  5
21A4
  8
SAPA_ISOLATOR
 10
0.2604570137375504
 20
-45.408225173596861
 30
0.0
 42
0.4155202927268181
  0
VERTEX
  5
21A5
  8
SAPA_ISOLATOR
 10
-0.2604570137477822
 20
-45.408225173608677
 30
0.0
 42
0.0820161657705025
  0
VERTEX
  5
21A6
  8
SAPA_ISOLATOR
 10
-1.2000000000001589
 20
-46.992292378098448
 30
0.0
  0
SEQEND
  5
21A7
  8
SAPA_ISOLATOR
  0
POLYLINE
  5
16EF
  8
SAPA_ISOLATOR
 66
     1
 10
0.0
 20
0.0
 30
0.0
 70
     1
  0
VERTEX
  5
21A8
  8
SAPA_ISOLATOR
 10
-3.600000000000136
 20
-65.846767147075639
 30
0.0
 42
0.4142135623731076
  0
VERTEX
  5
21A9
  8
SAPA_ISOLATOR
 10
-3.9000000000000901
 20
-66.146767147075707
 30
0.0
  0
VERTEX
  5
21AA
  8
SAPA_ISOLATOR
 10
-3.9000000000000901
 20
-79.021661667209287
 30
0.0
 42
0.4142135623730659
  0
VERTEX
  5
21AB
  8
SAPA_ISOLATOR
 10
-3.600000000000136
 20
-79.321661667209241
 30
0.0
  0
VERTEX
  5
21AC
  8
SAPA_ISOLATOR
 10
3.5999999999999091
 20
-79.321661667209355
 30
0.0
 42
0.414213562373041
  0
VERTEX
  5
21AD
  8
SAPA_ISOLATOR
 10
3.8999999999998631
 20
-79.021661667209287
 30
0.0
  0
VERTEX
  5
21AE
  8
SAPA_ISOLATOR
 10
3.8999999999998631
 20
-66.146767147075707
 30
0.0
 42
0.4142135623730784
  0
VERTEX
  5
21AF
  8
SAPA_ISOLATOR
 10
3.5999999999999091
 20
-65.846767147075752
 30
0.0
  0
SEQEND
  5
21B0
  8
SAPA_ISOLATOR
  0
POLYLINE
  5
16F0
  8
SAPA_ISOLATOR
 66
     1
 10
0.0
 20
0.0
 30
0.0
 70
     1
  0
VERTEX
  5
21B1
  8
SAPA_ISOLATOR
 10
-3.600000000000136
 20
-80.321661667209355
 30
0.0
 42
0.4142135623730659
  0
VERTEX
  5
21B2
  8
SAPA_ISOLATOR
 10
-3.9000000000000901
 20
-80.62166166720931
 30
0.0
  0
VERTEX
  5
21B3
  8
SAPA_ISOLATOR
 10
-3.9000000000000901
 20
-90.378679657683165
 30
0.0
 42
0.6681786375386655
  0
VERTEX
  5
21B4
  8
SAPA_ISOLATOR
 10
-3.21715728782317
 20
-90.661522370455373
 30
0.0
  0
VERTEX
  5
21B5
  8
SAPA_ISOLATOR
 10
-1.1313708424572719
 20
-88.575735929479706
 30
0.0
 42
-0.4142135623730892
  0
VERTEX
  5
21B6
  8
SAPA_ISOLATOR
 10
1.13137085652113
 20
-88.575735930298265
 30
0.0
  0
VERTEX
  5
21B7
  8
SAPA_ISOLATOR
 10
3.2171572872275642
 20
-90.661522365395058
 30
0.0
 42
0.6681786382998773
  0
VERTEX
  5
21B8
  8
SAPA_ISOLATOR
 10
3.8999999999998631
 20
-90.378679653218114
 30
0.0
  0
VERTEX
  5
21B9
  8
SAPA_ISOLATOR
 10
3.8999999999998631
 20
-80.621661667209423
 30
0.0
 42
0.4142135623730951
  0
VERTEX
  5
21BA
  8
SAPA_ISOLATOR
 10
3.5999999999999091
 20
-80.321661667209355
 30
0.0
  0
SEQEND
  5
21BB
  8
SAPA_ISOLATOR
  0
LINE
  5
1738
  8
SAPA_FOGBAND
 10
-34.799999874100592
 20
116.19897897912151
 30
0.0
 11
-34.937046319300578
 21
116.3139749653218
 31
0.0
  0
LINE
  5
1739
  8
SAPA_FOGBAND
 10
-34.799999874100592
 20
120.69898809882039
 30
0.0
 11
-34.937046319300578
 21
120.81398408502071
 31
0.0
  0
LINE
  5
173A
  8
SAPA_FOGBAND
 10
-34.799999874100592
 20
123.6989941786197
 30
0.0
 11
-34.937046319300578
 21
123.8139901648199
 31
0.0
  0
LINE
  5
173B
  8
SAPA_FOGBAND
 10
-34.799999874100592
 20
126.69899467031981
 30
0.0
 11
-34.937046319300578
 21
126.8139906565201
 31
0.0
  0
LINE
  5
173C
  8
SAPA_FOGBAND
 10
-34.799999874100592
 20
132.69900124181919
 30
0.0
 11
-34.937046319300578
 21
132.8139972280195
 31
0.0
  0
LINE
  5
173D
  8
SAPA_FOGBAND
 10
-34.799999874100592
 20
135.6990073216185
 30
0.0
 11
-34.937046319300578
 21
135.81400330781881
 31
0.0
  0
LINE
  5
173E
  8
SAPA_FOGBAND
 10
-34.799999874100592
 20
138.69900781331859
 30
0.0
 11
-34.937046319300578
 21
138.8140037995189
 31
0.0
  0
LINE
  5
173F
  8
SAPA_FOGBAND
 10
-34.799999874100592
 20
106.80102102087299
 30
0.0
 11
-34.937046319300578
 21
106.6860250346727
 31
0.0
  0
LINE
  5
1740
  8
SAPA_FOGBAND
 10
-34.799999874100592
 20
102.30101190117411
 30
0.0
 11
-34.937046319300578
 21
102.18601591497379
 31
0.0
  0
LINE
  5
1741
  8
SAPA_FOGBAND
 10
-34.799999874100592
 20
99.301005821374815
 30
0.0
 11
-34.937046319300578
 21
99.186009835174573
 31
0.0
  0
LINE
  5
1742
  8
SAPA_FOGBAND
 10
-34.799999874100592
 20
96.301005329674695
 30
0.0
 11
-34.937046319300578
 21
96.186009343474439
 31
0.0
  0
POLYLINE
  5
1743
  8
SAPA_FOGBAND
 66
     1
 10
0.0
 20
0.0
 30
0.0
 70
     1
  0
VERTEX
  5
25FB
  8
SAPA_FOGBAND
 10
-24.700000000000951
 20
120.67864818442131
 30
0.0
 42
0.2477256978079298
  0
VERTEX
  5
25FC
  8
SAPA_FOGBAND
 10
-24.961487758061761
 20
121.1740363777176
 30
0.0
 42
-0.0324410416313708
  0
VERTEX
  5
25FD
  8
SAPA_FOGBAND
 10
-26.114236070984589
 20
122.07667339793881
 30
0.0
 42
0.2332140242940444
  0
VERTEX
  5
25FE
  8
SAPA_FOGBAND
 10
-26.625714144930669
 20
122.21874104544879
 30
0.0
  0
VERTEX
  5
25FF
  8
SAPA_FOGBAND
 10
-31.511728871064172
 20
121.292695455743
 30
0.0
 42
0.3603575240022061
  0
VERTEX
  5
2600
  8
SAPA_FOGBAND
 10
-32.000000000000973
 20
120.7031900194909
 30
0.0
  0
VERTEX
  5
2601
  8
SAPA_FOGBAND
 10
-32.000000000000973
 20
113.1000000036673
 30
0.0
 42
0.4142135623730951
  0
VERTEX
  5
2602
  8
SAPA_FOGBAND
 10
-31.40000000000089
 20
112.5000000036672
 30
0.0
  0
VERTEX
  5
2603
  8
SAPA_FOGBAND
 10
-25.300000000000971
 20
112.5000000036672
 30
0.0
 42
0.4142135623730992
  0
VERTEX
  5
2604
  8
SAPA_FOGBAND
 10
-24.700000000000951
 20
113.1000000036673
 30
0.0
  0
SEQEND
  5
2605
  8
SAPA_FOGBAND
  0
ARC
  5
1744
  8
SAPA_FOGBAND
 10
-25.300000000000971
 20
120.67864818442131
 30
0.0
 40
0.6000000000000229
 50
0.0
 51
55.654140980943623
  0
ARC
  5
1745
  8
SAPA_FOGBAND
 10
-26.51398527386737
 20
121.6292356091966
 30
0.0
 40
0.6000000000000061
 50
48.221808490382372
 51
100.7319652549546
  0
ARC
  5
1746
  8
SAPA_FOGBAND
 10
-25.300000000000971
 20
113.1000000036673
 30
0.0
 40
0.6000000000000001
 50
270.0
 51
0.0
  0
ARC
  5
1747
  8
SAPA_FOGBAND
 10
-31.40000000000088
 20
120.7031900194909
 30
0.0
 40
0.6000000000000001
 50
100.7319652549546
 51
180.0
  0
ARC
  5
1748
  8
SAPA_FOGBAND
 10
-31.40000000000089
 20
113.1000000036673
 30
0.0
 40
0.6000000000000001
 50
180.0
 51
270.0
  0
LINE
  5
1749
  8
SAPA_FOGBAND
 10
-31.40000000000089
 20
112.5000000036672
 30
0.0
 11
-25.300000000000971
 21
112.5000000036672
 31
0.0
  0
ARC
  5
174A
  8
SAPA_FOGBAND
 10
-18.58920197206913
 20
130.49941594037909
 30
0.0
 40
11.294632801736849
 50
228.22180849038239
 51
235.65414098094371
  0
LINE
  5
174B
  8
SAPA_FOGBAND
 10
-24.700000000000951
 20
120.67864818442131
 30
0.0
 11
-24.700000000000951
 21
113.1000000036673
 31
0.0
  0
LINE
  5
174C
  8
SAPA_FOGBAND
 10
-26.625714144930669
 20
122.21874104544879
 30
0.0
 11
-31.511728871064172
 21
121.292695455743
 31
0.0
  0
LINE
  5
174D
  8
SAPA_FOGBAND
 10
-32.000000000000973
 20
120.7031900194909
 30
0.0
 11
-32.000000000000973
 21
113.1000000036673
 31
0.0
  0
LINE
  5
174E
  8
SAPA_FOGBAND
 10
-32.000000000000568
 20
144.34999999999499
 30
0.0
 11
-32.000000000000398
 21
144.35902054813329
 31
0.0
  0
LINE
  5
174F
  8
SAPA_FOGBAND
 10
-24.827817149030629
 20
142.54999999999529
 30
0.0
 11
-24.827817149029951
 21
143.04999999999549
 31
0.0
  0
LINE
  5
1750
  8
SAPA_FOGBAND
 10
-34.799999874100592
 20
90.300998758175297
 30
0.0
 11
-34.937046319300578
 21
90.186002771975055
 31
0.0
  0
LINE
  5
1751
  8
SAPA_FOGBAND
 10
-34.799999874100592
 20
87.300992678376005
 30
0.0
 11
-34.937046319300578
 21
87.185996692175763
 31
0.0
  0
POLYLINE
  5
1752
  8
SAPA_FOGBAND
 66
     1
 10
0.0
 20
0.0
 30
0.0
 70
     1
  0
VERTEX
  5
2606
  8
SAPA_FOGBAND
 10
-24.700000000000959
 20
102.3213518155731
 30
0.0
 42
-0.2477256978079298
  0
VERTEX
  5
2607
  8
SAPA_FOGBAND
 10
-24.961487758061761
 20
101.8259636222769
 30
0.0
 42
0.0324410416313708
  0
VERTEX
  5
2608
  8
SAPA_FOGBAND
 10
-26.114236070984589
 20
100.9233266020556
 30
0.0
 42
-0.2332140242940444
  0
VERTEX
  5
2609
  8
SAPA_FOGBAND
 10
-26.625714144930669
 20
100.78125895454571
 30
0.0
  0
VERTEX
  5
260A
  8
SAPA_FOGBAND
 10
-31.511728871064179
 20
101.7073045442515
 30
0.0
 42
-0.3603575240022061
  0
VERTEX
  5
260B
  8
SAPA_FOGBAND
 10
-32.000000000000973
 20
102.2968099805037
 30
0.0
  0
VERTEX
  5
260C
  8
SAPA_FOGBAND
 10
-32.000000000000973
 20
109.8999999963272
 30
0.0
 42
-0.4142135623730951
  0
VERTEX
  5
260D
  8
SAPA_FOGBAND
 10
-31.40000000000089
 20
110.4999999963273
 30
0.0
  0
VERTEX
  5
260E
  8
SAPA_FOGBAND
 10
-25.300000000000971
 20
110.4999999963273
 30
0.0
 42
-0.4142135623730992
  0
VERTEX
  5
260F
  8
SAPA_FOGBAND
 10
-24.700000000000951
 20
109.8999999963272
 30
0.0
  0
SEQEND
  5
2610
  8
SAPA_FOGBAND
  0
POLYLINE
  5
1753
  8
SAPA_FOGBAND
 66
     1
 10
0.0
 20
0.0
 30
0.0
 70
     1
  0
VERTEX
  5
2611
  8
SAPA_FOGBAND
 10
-26.625714144930608
 20
122.21874104544899
 30
0.0
 42
-0.2332140242940483
  0
VERTEX
  5
2612
  8
SAPA_FOGBAND
 10
-26.114236070984472
 20
122.0766733979391
 30
0.0
 42
0.0324410416313699
  0
VERTEX
  5
2613
  8
SAPA_FOGBAND
 10
-24.961487758061761
 20
121.1740363777177
 30
0.0
 42
-0.2477256978079298
  0
VERTEX
  5
2614
  8
SAPA_FOGBAND
 10
-24.700000000000951
 20
120.67864818442131
 30
0.0
  0
VERTEX
  5
2615
  8
SAPA_FOGBAND
 10
-24.700000000000951
 20
113.0999999963272
 30
0.0
 42
-0.4142135623730951
  0
VERTEX
  5
2616
  8
SAPA_FOGBAND
 10
-25.300000000000971
 20
112.49999999632711
 30
0.0
  0
VERTEX
  5
2617
  8
SAPA_FOGBAND
 10
-31.40000000000089
 20
112.49999999632711
 30
0.0
 42
-0.4142135623730951
  0
VERTEX
  5
2618
  8
SAPA_FOGBAND
 10
-32.000000000000973
 20
113.0999999963272
 30
0.0
  0
VERTEX
  5
2619
  8
SAPA_FOGBAND
 10
-32.000000000000973
 20
120.70319001949071
 30
0.0
 42
-0.3603575240022065
  0
VERTEX
  5
261A
  8
SAPA_FOGBAND
 10
-31.511728871064172
 20
121.2926954557432
 30
0.0
  0
SEQEND
  5
261B
  8
SAPA_FOGBAND
  0
ARC
  5
1754
  8
SAPA_FOGBAND
 10
-25.300000000000981
 20
102.3213518155731
 30
0.0
 40
0.6000000000000229
 50
304.34585901905922
 51
0.0
  0
ARC
  5
1755
  8
SAPA_FOGBAND
 10
-26.51398527386738
 20
101.3707643907979
 30
0.0
 40
0.6000000000000061
 50
259.26803474504533
 51
311.77819150961523
  0
ARC
  5
1756
  8
SAPA_FOGBAND
 10
-25.300000000000971
 20
113.0999999963272
 30
0.0
 40
0.6000000000000001
 50
270.0
 51
0.0
  0
ARC
  5
1757
  8
SAPA_FOGBAND
 10
-25.300000000000971
 20
109.8999999963272
 30
0.0
 40
0.6000000000000001
 50
0.0
 51
90.0
  0
ARC
  5
1758
  8
SAPA_FOGBAND
 10
-31.40000000000089
 20
102.2968099805037
 30
0.0
 40
0.6000000000000001
 50
180.0
 51
259.26803474504533
  0
ARC
  5
1759
  8
SAPA_FOGBAND
 10
-31.40000000000089
 20
109.8999999963272
 30
0.0
 40
0.6000000000000001
 50
90.0
 51
180.0
  0
ARC
  5
175A
  8
SAPA_FOGBAND
 10
-31.40000000000089
 20
113.0999999963272
 30
0.0
 40
0.6000000000000001
 50
180.0
 51
270.0
  0
LINE
  5
175B
  8
SAPA_FOGBAND
 10
-24.700000000000951
 20
113.0999999963272
 30
0.0
 11
-24.700000000000951
 21
120.67864818442131
 31
0.0
  0
LINE
  5
175C
  8
SAPA_FOGBAND
 10
-32.000000000000973
 20
113.0999999963272
 30
0.0
 11
-32.000000000000973
 21
120.70319001949071
 31
0.0
  0
LINE
  5
175D
  8
SAPA_FOGBAND
 10
-31.40000000000089
 20
112.49999999632711
 30
0.0
 11
-25.300000000000971
 21
112.49999999632711
 31
0.0
  0
LINE
  5
175E
  8
SAPA_FOGBAND
 10
-31.40000000000089
 20
110.4999999963273
 30
0.0
 11
-25.300000000000971
 21
110.4999999963273
 31
0.0
  0
ARC
  5
175F
  8
SAPA_FOGBAND
 10
-18.58920197206913
 20
92.500584059615434
 30
0.0
 40
11.294632801736849
 50
124.34585901905911
 51
131.77819150961511
  0
LINE
  5
1760
  8
SAPA_FOGBAND
 10
-24.700000000000959
 20
102.3213518155731
 30
0.0
 11
-24.700000000000951
 21
109.8999999963272
 31
0.0
  0
LINE
  5
1761
  8
SAPA_FOGBAND
 10
-26.625714144930669
 20
100.78125895454571
 30
0.0
 11
-31.511728871064179
 21
101.7073045442515
 31
0.0
  0
LINE
  5
1762
  8
SAPA_FOGBAND
 10
-32.000000000000973
 20
102.2968099805037
 30
0.0
 11
-32.000000000000973
 21
109.8999999963272
 31
0.0
  0
LINE
  5
1763
  8
SAPA_FOGBAND
 10
-32.000000000000568
 20
78.649999999999523
 30
0.0
 11
-32.000000000000398
 21
78.640979451861199
 31
0.0
  0
LINE
  5
1764
  8
SAPA_FOGBAND
 10
-24.827817149031208
 20
80.44999999999925
 30
0.0
 11
-24.827817149030011
 21
79.949999999998894
 31
0.0
  0
POLYLINE
  5
1765
  8
SAPA_FOGBAND
 66
     1
 10
0.0
 20
0.0
 30
0.0
 70
     1
  0
VERTEX
  5
261C
  8
SAPA_FOGBAND
 10
-34.937046319300578
 20
93.186008851774304
 30
0.0
  0
VERTEX
  5
261D
  8
SAPA_FOGBAND
 10
-34.799999874100592
 20
93.301004837974574
 30
0.0
  0
VERTEX
  5
261E
  8
SAPA_FOGBAND
 10
-34.939274096945333
 20
93.417870157501056
 30
0.0
 42
-0.2216942531867427
  0
VERTEX
  5
261F
  8
SAPA_FOGBAND
 10
-35.000000000000398
 20
93.548097542243667
 30
0.0
  0
VERTEX
  5
2620
  8
SAPA_FOGBAND
 10
-35.000000000000568
 20
93.553913147005346
 30
0.0
 42
-0.2216942531866174
  0
VERTEX
  5
2621
  8
SAPA_FOGBAND
 10
-34.939274096945333
 20
93.684140531747971
 30
0.0
  0
VERTEX
  5
2622
  8
SAPA_FOGBAND
 10
-34.799999874100592
 20
93.801005851274454
 30
0.0
  0
VERTEX
  5
2623
  8
SAPA_FOGBAND
 10
-34.939274096945333
 20
93.917871170800936
 30
0.0
 42
-0.2216942531867427
  0
VERTEX
  5
2624
  8
SAPA_FOGBAND
 10
-35.000000000000398
 20
94.048098555543561
 30
0.0
  0
VERTEX
  5
2625
  8
SAPA_FOGBAND
 10
-35.000000000000568
 20
94.053914160305226
 30
0.0
 42
-0.2216942531866174
  0
VERTEX
  5
2626
  8
SAPA_FOGBAND
 10
-34.939274096945333
 20
94.184141545047865
 30
0.0
  0
VERTEX
  5
2627
  8
SAPA_FOGBAND
 10
-34.799999874100592
 20
94.301006864574333
 30
0.0
  0
VERTEX
  5
2628
  8
SAPA_FOGBAND
 10
-34.939274096945333
 20
94.417872184100816
 30
0.0
 42
-0.2216942531867427
  0
VERTEX
  5
2629
  8
SAPA_FOGBAND
 10
-35.000000000000398
 20
94.548099568843455
 30
0.0
  0
VERTEX
  5
262A
  8
SAPA_FOGBAND
 10
-35.000000000000568
 20
94.553915173605105
 30
0.0
 42
-0.2216942531866174
  0
VERTEX
  5
262B
  8
SAPA_FOGBAND
 10
-34.939274096945333
 20
94.68414255834773
 30
0.0
  0
VERTEX
  5
262C
  8
SAPA_FOGBAND
 10
-34.799999874100592
 20
94.801007877874213
 30
0.0
  0
VERTEX
  5
262D
  8
SAPA_FOGBAND
 10
-34.939274096945333
 20
94.917873197400695
 30
0.0
 42
-0.2216942531867427
  0
VERTEX
  5
262E
  8
SAPA_FOGBAND
 10
-35.000000000000398
 20
95.04810058214332
 30
0.0
  0
VERTEX
  5
262F
  8
SAPA_FOGBAND
 10
-35.000000000000568
 20
95.053916186904985
 30
0.0
 42
-0.2216942531866174
  0
VERTEX
  5
2630
  8
SAPA_FOGBAND
 10
-34.939274096945333
 20
95.18414357164761
 30
0.0
  0
VERTEX
  5
2631
  8
SAPA_FOGBAND
 10
-34.799999874100592
 20
95.301008891174092
 30
0.0
  0
VERTEX
  5
2632
  8
SAPA_FOGBAND
 10
-34.939274096945333
 20
95.417874210700575
 30
0.0
 42
-0.2216942531867427
  0
VERTEX
  5
2633
  8
SAPA_FOGBAND
 10
-35.000000000000398
 20
95.5481015954432
 30
0.0
  0
VERTEX
  5
2634
  8
SAPA_FOGBAND
 10
-35.000000000000568
 20
95.553917200204864
 30
0.0
 42
-0.2216942531866174
  0
VERTEX
  5
2635
  8
SAPA_FOGBAND
 10
-34.939274096945333
 20
95.684144584947475
 30
0.0
  0
VERTEX
  5
2636
  8
SAPA_FOGBAND
 10
-34.799999874100592
 20
95.801009904473958
 30
0.0
  0
VERTEX
  5
2637
  8
SAPA_FOGBAND
 10
-34.939274096945333
 20
95.917875224000454
 30
0.0
 42
-0.2216942531867427
  0
VERTEX
  5
2638
  8
SAPA_FOGBAND
 10
-35.000000000000398
 20
96.048102608743093
 30
0.0
  0
VERTEX
  5
2639
  8
SAPA_FOGBAND
 10
-35.000000000000568
 20
96.053918213504744
 30
0.0
 42
-0.2216942531866174
  0
VERTEX
  5
263A
  8
SAPA_FOGBAND
 10
-34.939274096945333
 20
96.184145598247369
 30
0.0
  0
VERTEX
  5
263B
  8
SAPA_FOGBAND
 10
-34.800003203908659
 20
96.301008123724273
 30
0.0
  0
VERTEX
  5
263C
  8
SAPA_FOGBAND
 10
-34.939274096945333
 20
96.417870649201177
 30
0.0
 42
-0.2216942531867427
  0
VERTEX
  5
263D
  8
SAPA_FOGBAND
 10
-35.000000000000398
 20
96.548098033943802
 30
0.0
  0
VERTEX
  5
263E
  8
SAPA_FOGBAND
 10
-35.000000000000568
 20
96.553913638705467
 30
0.0
 42
-0.2216942531866174
  0
VERTEX
  5
263F
  8
SAPA_FOGBAND
 10
-34.939274096945333
 20
96.684141023448106
 30
0.0
  0
VERTEX
  5
2640
  8
SAPA_FOGBAND
 10
-34.799999874100592
 20
96.801006342974574
 30
0.0
  0
VERTEX
  5
2641
  8
SAPA_FOGBAND
 10
-34.939274096945333
 20
96.917871662501057
 30
0.0
 42
-0.2216942531867427
  0
VERTEX
  5
2642
  8
SAPA_FOGBAND
 10
-35.000000000000398
 20
97.048099047243696
 30
0.0
  0
VERTEX
  5
2643
  8
SAPA_FOGBAND
 10
-35.000000000000568
 20
97.053914652005346
 30
0.0
 42
-0.2216942531866174
  0
VERTEX
  5
2644
  8
SAPA_FOGBAND
 10
-34.939274096945333
 20
97.184142036747971
 30
0.0
  0
VERTEX
  5
2645
  8
SAPA_FOGBAND
 10
-34.799999874100592
 20
97.301007356274454
 30
0.0
  0
VERTEX
  5
2646
  8
SAPA_FOGBAND
 10
-34.939274096945333
 20
97.417872675800936
 30
0.0
 42
-0.2216942531867427
  0
VERTEX
  5
2647
  8
SAPA_FOGBAND
 10
-35.000000000000398
 20
97.548100060543561
 30
0.0
  0
VERTEX
  5
2648
  8
SAPA_FOGBAND
 10
-35.000000000000568
 20
97.553915665305226
 30
0.0
 42
-0.2216942531866174
  0
VERTEX
  5
2649
  8
SAPA_FOGBAND
 10
-34.939274096945333
 20
97.684143050047851
 30
0.0
  0
VERTEX
  5
264A
  8
SAPA_FOGBAND
 10
-34.799999874100592
 20
97.801008369574333
 30
0.0
  0
VERTEX
  5
264B
  8
SAPA_FOGBAND
 10
-34.939274096945333
 20
97.917873689100816
 30
0.0
 42
-0.2216942531867427
  0
VERTEX
  5
264C
  8
SAPA_FOGBAND
 10
-35.000000000000398
 20
98.048101073843441
 30
0.0
  0
VERTEX
  5
264D
  8
SAPA_FOGBAND
 10
-35.000000000000568
 20
98.053916678605106
 30
0.0
 42
-0.2216942531866174
  0
VERTEX
  5
264E
  8
SAPA_FOGBAND
 10
-34.939274096945333
 20
98.184144063347745
 30
0.0
  0
VERTEX
  5
264F
  8
SAPA_FOGBAND
 10
-34.799999874100592
 20
98.301009382874227
 30
0.0
  0
VERTEX
  5
2650
  8
SAPA_FOGBAND
 10
-34.939274096945333
 20
98.417874702400695
 30
0.0
 42
-0.2216942531867427
  0
VERTEX
  5
2651
  8
SAPA_FOGBAND
 10
-35.000000000000398
 20
98.548102087143334
 30
0.0
  0
VERTEX
  5
2652
  8
SAPA_FOGBAND
 10
-35.000000000000568
 20
98.553917691904985
 30
0.0
 42
-0.2216942531866174
  0
VERTEX
  5
2653
  8
SAPA_FOGBAND
 10
-34.939274096945333
 20
98.68414507664761
 30
0.0
  0
VERTEX
  5
2654
  8
SAPA_FOGBAND
 10
-34.799999874100592
 20
98.801010396174092
 30
0.0
  0
VERTEX
  5
2655
  8
SAPA_FOGBAND
 10
-34.939274096945333
 20
98.917875715700575
 30
0.0
 42
-0.2216942531867427
  0
VERTEX
  5
2656
  8
SAPA_FOGBAND
 10
-35.000000000000398
 20
99.0481031004432
 30
0.0
  0
VERTEX
  5
2657
  8
SAPA_FOGBAND
 10
-35.000000000000568
 20
99.053918705204865
 30
0.0
 42
-0.2216942531866174
  0
VERTEX
  5
2658
  8
SAPA_FOGBAND
 10
-34.939274096945333
 20
99.184146089947504
 30
0.0
  0
VERTEX
  5
2659
  8
SAPA_FOGBAND
 10
-34.799999874100592
 20
99.301011409473986
 30
0.0
  0
VERTEX
  5
265A
  8
SAPA_FOGBAND
 10
-34.939274096945333
 20
99.417876729000454
 30
0.0
 42
-0.2216942531867427
  0
VERTEX
  5
265B
  8
SAPA_FOGBAND
 10
-35.000000000000398
 20
99.548104113743079
 30
0.0
  0
VERTEX
  5
265C
  8
SAPA_FOGBAND
 10
-35.000000000000568
 20
99.553919718504744
 30
0.0
 42
-0.2216942531866174
  0
VERTEX
  5
265D
  8
SAPA_FOGBAND
 10
-34.939274096945333
 20
99.684147103247355
 30
0.0
  0
VERTEX
  5
265E
  8
SAPA_FOGBAND
 10
-34.799999874100592
 20
99.801012422773852
 30
0.0
  0
VERTEX
  5
265F
  8
SAPA_FOGBAND
 10
-34.939274096945333
 20
99.917877742300334
 30
0.0
 42
-0.2216942531867427
  0
VERTEX
  5
2660
  8
SAPA_FOGBAND
 10
-35.000000000000398
 20
100.0481051270429
 30
0.0
  0
VERTEX
  5
2661
  8
SAPA_FOGBAND
 10
-35.000000000000568
 20
100.0539207318046
 30
0.0
 42
-0.2216942531866174
  0
VERTEX
  5
2662
  8
SAPA_FOGBAND
 10
-34.939274096945333
 20
100.18414811654721
 30
0.0
  0
VERTEX
  5
2663
  8
SAPA_FOGBAND
 10
-34.799999874100592
 20
100.3010134360737
 30
0.0
  0
VERTEX
  5
2664
  8
SAPA_FOGBAND
 10
-34.939274096945333
 20
100.4178787556002
 30
0.0
 42
-0.2216942531867427
  0
VERTEX
  5
2665
  8
SAPA_FOGBAND
 10
-35.000000000000398
 20
100.5481061403428
 30
0.0
  0
VERTEX
  5
2666
  8
SAPA_FOGBAND
 10
-35.000000000000568
 20
100.5539217451045
 30
0.0
 42
-0.2216942531866174
  0
VERTEX
  5
2667
  8
SAPA_FOGBAND
 10
-34.939274096945333
 20
100.6841491298471
 30
0.0
  0
VERTEX
  5
2668
  8
SAPA_FOGBAND
 10
-34.799999874100592
 20
100.8010144493736
 30
0.0
  0
VERTEX
  5
2669
  8
SAPA_FOGBAND
 10
-34.939274096945333
 20
100.91787976890009
 30
0.0
 42
-0.2216942531867427
  0
VERTEX
  5
266A
  8
SAPA_FOGBAND
 10
-35.000000000000398
 20
101.0481071536427
 30
0.0
  0
VERTEX
  5
266B
  8
SAPA_FOGBAND
 10
-35.000000000000568
 20
101.0539227584044
 30
0.0
 42
-0.2216942531866174
  0
VERTEX
  5
266C
  8
SAPA_FOGBAND
 10
-34.939274096945333
 20
101.18415014314699
 30
0.0
  0
VERTEX
  5
266D
  8
SAPA_FOGBAND
 10
-34.799999874100592
 20
101.3010154626735
 30
0.0
  0
VERTEX
  5
266E
  8
SAPA_FOGBAND
 10
-34.939274096945333
 20
101.4178807821999
 30
0.0
 42
-0.2216942531867427
  0
VERTEX
  5
266F
  8
SAPA_FOGBAND
 10
-35.000000000000398
 20
101.5481081669426
 30
0.0
  0
VERTEX
  5
2670
  8
SAPA_FOGBAND
 10
-35.000000000000568
 20
101.55392377170421
 30
0.0
 42
-0.2216942531866174
  0
VERTEX
  5
2671
  8
SAPA_FOGBAND
 10
-34.939274096945333
 20
101.6841511564469
 30
0.0
  0
VERTEX
  5
2672
  8
SAPA_FOGBAND
 10
-34.799999874100592
 20
101.8010164759733
 30
0.0
  0
VERTEX
  5
2673
  8
SAPA_FOGBAND
 10
-34.939274096945333
 20
101.9178817954998
 30
0.0
 42
-0.2216942531867427
  0
VERTEX
  5
2674
  8
SAPA_FOGBAND
 10
-35.000000000000398
 20
102.04810918024241
 30
0.0
  0
VERTEX
  5
2675
  8
SAPA_FOGBAND
 10
-35.000000000000568
 20
102.0539247850041
 30
0.0
 42
-0.2216942531866174
  0
VERTEX
  5
2676
  8
SAPA_FOGBAND
 10
-34.939274096945333
 20
102.1841521697467
 30
0.0
  0
VERTEX
  5
2677
  8
SAPA_FOGBAND
 10
-34.799999874100592
 20
102.30101748927321
 30
0.0
  0
VERTEX
  5
2678
  8
SAPA_FOGBAND
 10
-34.939274096945333
 20
102.4178828087997
 30
0.0
 42
-0.2216942531867427
  0
VERTEX
  5
2679
  8
SAPA_FOGBAND
 10
-35.000000000000398
 20
102.5481101935423
 30
0.0
  0
VERTEX
  5
267A
  8
SAPA_FOGBAND
 10
-35.000000000000568
 20
102.55392579830399
 30
0.0
 42
-0.2216942531866174
  0
VERTEX
  5
267B
  8
SAPA_FOGBAND
 10
-34.939274096945333
 20
102.6841531830466
 30
0.0
  0
VERTEX
  5
267C
  8
SAPA_FOGBAND
 10
-34.799999874100592
 20
102.8010185025731
 30
0.0
  0
VERTEX
  5
267D
  8
SAPA_FOGBAND
 10
-34.939274096945333
 20
102.9178838220996
 30
0.0
 42
-0.2216942531867427
  0
VERTEX
  5
267E
  8
SAPA_FOGBAND
 10
-35.000000000000398
 20
103.04811120684219
 30
0.0
  0
VERTEX
  5
267F
  8
SAPA_FOGBAND
 10
-35.000000000000568
 20
103.0539268116039
 30
0.0
 42
-0.2216942531866174
  0
VERTEX
  5
2680
  8
SAPA_FOGBAND
 10
-34.939274096945333
 20
103.1841541963465
 30
0.0
  0
VERTEX
  5
2681
  8
SAPA_FOGBAND
 10
-34.799999874100592
 20
103.30101951587299
 30
0.0
  0
VERTEX
  5
2682
  8
SAPA_FOGBAND
 10
-34.939274096945333
 20
103.41788483539951
 30
0.0
 42
-0.2216942531867427
  0
VERTEX
  5
2683
  8
SAPA_FOGBAND
 10
-35.000000000000398
 20
103.5481122201421
 30
0.0
  0
VERTEX
  5
2684
  8
SAPA_FOGBAND
 10
-35.000000000000568
 20
103.55392782490379
 30
0.0
 42
-0.2216942531866174
  0
VERTEX
  5
2685
  8
SAPA_FOGBAND
 10
-34.939274096945333
 20
103.68415520964641
 30
0.0
  0
VERTEX
  5
2686
  8
SAPA_FOGBAND
 10
-34.799999874100592
 20
103.8010205291729
 30
0.0
  0
VERTEX
  5
2687
  8
SAPA_FOGBAND
 10
-34.939274096945333
 20
103.9178858486993
 30
0.0
 42
-0.2216942531867427
  0
VERTEX
  5
2688
  8
SAPA_FOGBAND
 10
-35.000000000000398
 20
104.048113233442
 30
0.0
  0
VERTEX
  5
2689
  8
SAPA_FOGBAND
 10
-35.000000000000568
 20
104.0539288382036
 30
0.0
 42
-0.2216942531866174
  0
VERTEX
  5
268A
  8
SAPA_FOGBAND
 10
-34.939274096945333
 20
104.1841562229463
 30
0.0
  0
VERTEX
  5
268B
  8
SAPA_FOGBAND
 10
-34.799999874100592
 20
104.3010215424727
 30
0.0
  0
VERTEX
  5
268C
  8
SAPA_FOGBAND
 10
-34.939274096945333
 20
104.41788686199919
 30
0.0
 42
-0.2216942531867427
  0
VERTEX
  5
268D
  8
SAPA_FOGBAND
 10
-35.000000000000398
 20
104.5481142467419
 30
0.0
  0
VERTEX
  5
268E
  8
SAPA_FOGBAND
 10
-35.000000000000568
 20
104.5539298515035
 30
0.0
 42
-0.2216942531866174
  0
VERTEX
  5
268F
  8
SAPA_FOGBAND
 10
-34.939274096945333
 20
104.68415723624609
 30
0.0
  0
VERTEX
  5
2690
  8
SAPA_FOGBAND
 10
-34.799999874100592
 20
104.8010225557726
 30
0.0
  0
VERTEX
  5
2691
  8
SAPA_FOGBAND
 10
-34.939274096945333
 20
104.9178878752991
 30
0.0
 42
-0.2216942531867427
  0
VERTEX
  5
2692
  8
SAPA_FOGBAND
 10
-35.000000000000398
 20
105.0481152600417
 30
0.0
  0
VERTEX
  5
2693
  8
SAPA_FOGBAND
 10
-35.000000000000568
 20
105.05393086480341
 30
0.0
 42
-0.2216942531866174
  0
VERTEX
  5
2694
  8
SAPA_FOGBAND
 10
-34.939274096945333
 20
105.184158249546
 30
0.0
  0
VERTEX
  5
2695
  8
SAPA_FOGBAND
 10
-34.799999874100592
 20
105.3010235690725
 30
0.0
  0
VERTEX
  5
2696
  8
SAPA_FOGBAND
 10
-34.939274096945333
 20
105.41788888859899
 30
0.0
 42
-0.2216942531867427
  0
VERTEX
  5
2697
  8
SAPA_FOGBAND
 10
-35.000000000000398
 20
105.54811627334161
 30
0.0
  0
VERTEX
  5
2698
  8
SAPA_FOGBAND
 10
-35.000000000000568
 20
105.5539318781033
 30
0.0
 42
-0.2216942531866174
  0
VERTEX
  5
2699
  8
SAPA_FOGBAND
 10
-34.939274096945333
 20
105.6841592628459
 30
0.0
  0
VERTEX
  5
269A
  8
SAPA_FOGBAND
 10
-34.799999874100592
 20
105.80102458237241
 30
0.0
  0
VERTEX
  5
269B
  8
SAPA_FOGBAND
 10
-34.939274096945333
 20
105.9178899018989
 30
0.0
 42
-0.2216942531867427
  0
VERTEX
  5
269C
  8
SAPA_FOGBAND
 10
-35.000000000000398
 20
106.0481172866415
 30
0.0
  0
VERTEX
  5
269D
  8
SAPA_FOGBAND
 10
-35.000000000000568
 20
106.05393289140321
 30
0.0
 42
-0.2216942531866174
  0
VERTEX
  5
269E
  8
SAPA_FOGBAND
 10
-34.939274096945333
 20
106.1841602761458
 30
0.0
  0
VERTEX
  5
269F
  8
SAPA_FOGBAND
 10
-34.799999874100592
 20
106.3010255956723
 30
0.0
  0
VERTEX
  5
26A0
  8
SAPA_FOGBAND
 10
-34.939274096945333
 20
106.4178909151987
 30
0.0
 42
-0.2216942531867427
  0
VERTEX
  5
26A1
  8
SAPA_FOGBAND
 10
-35.000000000000398
 20
106.54811829994139
 30
0.0
  0
VERTEX
  5
26A2
  8
SAPA_FOGBAND
 10
-35.000000000000568
 20
106.553933904703
 30
0.0
 42
-0.2216942531866174
  0
VERTEX
  5
26A3
  8
SAPA_FOGBAND
 10
-34.939274096945333
 20
106.6841612894457
 30
0.0
  0
VERTEX
  5
26A4
  8
SAPA_FOGBAND
 10
-34.799999874100592
 20
106.80102660897209
 30
0.0
  0
VERTEX
  5
26A5
  8
SAPA_FOGBAND
 10
-34.939274096945333
 20
106.91789192849861
 30
0.0
 42
-0.2216942531867427
  0
VERTEX
  5
26A6
  8
SAPA_FOGBAND
 10
-35.000000000000398
 20
107.0481193132412
 30
0.0
  0
VERTEX
  5
26A7
  8
SAPA_FOGBAND
 10
-35.000000000000568
 20
107.05393491800289
 30
0.0
 42
-0.2216942531866174
  0
VERTEX
  5
26A8
  8
SAPA_FOGBAND
 10
-34.939274096945333
 20
107.18416230274551
 30
0.0
  0
VERTEX
  5
26A9
  8
SAPA_FOGBAND
 10
-34.799999874100592
 20
107.301027622272
 30
0.0
  0
VERTEX
  5
26AA
  8
SAPA_FOGBAND
 10
-34.939274096945333
 20
107.4178929417985
 30
0.0
 42
-0.2216942531867427
  0
VERTEX
  5
26AB
  8
SAPA_FOGBAND
 10
-35.000000000000398
 20
107.5481203265411
 30
0.0
  0
VERTEX
  5
26AC
  8
SAPA_FOGBAND
 10
-35.000000000000568
 20
107.5539359313028
 30
0.0
 42
-0.2216942531866174
  0
VERTEX
  5
26AD
  8
SAPA_FOGBAND
 10
-34.939274096945333
 20
107.6841633160454
 30
0.0
  0
VERTEX
  5
26AE
  8
SAPA_FOGBAND
 10
-34.799999874100592
 20
107.8010286355719
 30
0.0
  0
VERTEX
  5
26AF
  8
SAPA_FOGBAND
 10
-34.939274096945333
 20
107.91789395509841
 30
0.0
 42
-0.2216942531867427
  0
VERTEX
  5
26B0
  8
SAPA_FOGBAND
 10
-35.000000000000398
 20
108.048121339841
 30
0.0
  0
VERTEX
  5
26B1
  8
SAPA_FOGBAND
 10
-35.000000000000568
 20
108.0539369446027
 30
0.0
 42
-0.2216942531866174
  0
VERTEX
  5
26B2
  8
SAPA_FOGBAND
 10
-34.939274096945333
 20
108.18416432934529
 30
0.0
  0
VERTEX
  5
26B3
  8
SAPA_FOGBAND
 10
-34.799999874100592
 20
108.3010296488718
 30
0.0
  0
VERTEX
  5
26B4
  8
SAPA_FOGBAND
 10
-34.939274096945333
 20
108.4178949683983
 30
0.0
 42
-0.2216942531867427
  0
VERTEX
  5
26B5
  8
SAPA_FOGBAND
 10
-35.000000000000398
 20
108.5481223531409
 30
0.0
  0
VERTEX
  5
26B6
  8
SAPA_FOGBAND
 10
-35.000000000000568
 20
108.5539379579026
 30
0.0
 42
-0.2216942531866174
  0
VERTEX
  5
26B7
  8
SAPA_FOGBAND
 10
-34.939274096945333
 20
108.6841653426452
 30
0.0
  0
VERTEX
  5
26B8
  8
SAPA_FOGBAND
 10
-34.799999874100592
 20
108.8010306621717
 30
0.0
  0
VERTEX
  5
26B9
  8
SAPA_FOGBAND
 10
-34.939274096945333
 20
108.91789598169809
 30
0.0
 42
-0.2216942531867427
  0
VERTEX
  5
26BA
  8
SAPA_FOGBAND
 10
-35.000000000000398
 20
109.04812336644081
 30
0.0
  0
VERTEX
  5
26BB
  8
SAPA_FOGBAND
 10
-35.000000000000568
 20
109.0539389712024
 30
0.0
 42
-0.2216942531866174
  0
VERTEX
  5
26BC
  8
SAPA_FOGBAND
 10
-34.939274096945333
 20
109.1841663559451
 30
0.0
  0
VERTEX
  5
26BD
  8
SAPA_FOGBAND
 10
-34.799999874100592
 20
109.30103167547151
 30
0.0
  0
VERTEX
  5
26BE
  8
SAPA_FOGBAND
 10
-34.939274096945333
 20
109.417896994998
 30
0.0
 42
-0.2216942531867427
  0
VERTEX
  5
26BF
  8
SAPA_FOGBAND
 10
-35.000000000000398
 20
109.5481243797406
 30
0.0
  0
VERTEX
  5
26C0
  8
SAPA_FOGBAND
 10
-35.000000000000568
 20
109.55393998450231
 30
0.0
 42
-0.2216942531866174
  0
VERTEX
  5
26C1
  8
SAPA_FOGBAND
 10
-34.939274096945333
 20
109.6841673692449
 30
0.0
  0
VERTEX
  5
26C2
  8
SAPA_FOGBAND
 10
-34.799999874100592
 20
109.8010326887714
 30
0.0
  0
VERTEX
  5
26C3
  8
SAPA_FOGBAND
 10
-34.939274096945333
 20
109.9178980082979
 30
0.0
 42
-0.2216942531867427
  0
VERTEX
  5
26C4
  8
SAPA_FOGBAND
 10
-35.000000000000398
 20
110.04812539304049
 30
0.0
  0
VERTEX
  5
26C5
  8
SAPA_FOGBAND
 10
-35.000000000000568
 20
110.0539409978022
 30
0.0
 42
-0.2216942531866174
  0
VERTEX
  5
26C6
  8
SAPA_FOGBAND
 10
-34.939274096945333
 20
110.1841683825448
 30
0.0
  0
VERTEX
  5
26C7
  8
SAPA_FOGBAND
 10
-34.799999874100592
 20
110.30103370207129
 30
0.0
  0
VERTEX
  5
26C8
  8
SAPA_FOGBAND
 10
-34.939274096945333
 20
110.4178990215978
 30
0.0
 42
-0.2216942531867427
  0
VERTEX
  5
26C9
  8
SAPA_FOGBAND
 10
-35.000000000000398
 20
110.5481264063404
 30
0.0
  0
VERTEX
  5
26CA
  8
SAPA_FOGBAND
 10
-35.000000000000568
 20
110.55394201110209
 30
0.0
 42
-0.2216942531866174
  0
VERTEX
  5
26CB
  8
SAPA_FOGBAND
 10
-34.939274096945333
 20
110.68416939584471
 30
0.0
  0
VERTEX
  5
26CC
  8
SAPA_FOGBAND
 10
-34.799999874100592
 20
110.8010347153712
 30
0.0
  0
VERTEX
  5
26CD
  8
SAPA_FOGBAND
 10
-34.939274096945333
 20
110.9179000348976
 30
0.0
 42
-0.2216942531867427
  0
VERTEX
  5
26CE
  8
SAPA_FOGBAND
 10
-35.000000000000398
 20
111.04812741964029
 30
0.0
  0
VERTEX
  5
26CF
  8
SAPA_FOGBAND
 10
-35.000000000000512
 20
111.0539430244019
 30
0.0
 42
-0.2268538695033543
  0
VERTEX
  5
26D0
  8
SAPA_FOGBAND
 10
-34.93669419034655
 20
111.1862923717611
 30
0.0
  0
VERTEX
  5
26D1
  8
SAPA_FOGBAND
 10
-34.562831655645603
 20
111.5000000110104
 30
0.0
  0
VERTEX
  5
26D2
  8
SAPA_FOGBAND
 10
-34.936694190409128
 20
111.8137076281557
 30
0.0
 42
-0.2268538695033853
  0
VERTEX
  5
26D3
  8
SAPA_FOGBAND
 10
-35.000000000000568
 20
111.9460569755925
 30
0.0
  0
VERTEX
  5
26D4
  8
SAPA_FOGBAND
 10
-35.000000000000398
 20
111.95187258035421
 30
0.0
 42
-0.2216942531867426
  0
VERTEX
  5
26D5
  8
SAPA_FOGBAND
 10
-34.939274096945333
 20
112.0820999650968
 30
0.0
  0
VERTEX
  5
26D6
  8
SAPA_FOGBAND
 10
-34.799999874100592
 20
112.1989652846233
 30
0.0
  0
VERTEX
  5
26D7
  8
SAPA_FOGBAND
 10
-34.939274096945333
 20
112.3158306041498
 30
0.0
 42
-0.2216942531866175
  0
VERTEX
  5
26D8
  8
SAPA_FOGBAND
 10
-35.000000000000568
 20
112.44605798889241
 30
0.0
  0
VERTEX
  5
26D9
  8
SAPA_FOGBAND
 10
-35.000000000000398
 20
112.4518735936541
 30
0.0
 42
-0.2216942531867426
  0
VERTEX
  5
26DA
  8
SAPA_FOGBAND
 10
-34.939274096945333
 20
112.5821009783967
 30
0.0
  0
VERTEX
  5
26DB
  8
SAPA_FOGBAND
 10
-34.799999874100592
 20
112.69896629792321
 30
0.0
  0
VERTEX
  5
26DC
  8
SAPA_FOGBAND
 10
-34.939274096945333
 20
112.8158316174497
 30
0.0
 42
-0.2216942531866175
  0
VERTEX
  5
26DD
  8
SAPA_FOGBAND
 10
-35.000000000000568
 20
112.9460590021923
 30
0.0
  0
VERTEX
  5
26DE
  8
SAPA_FOGBAND
 10
-35.000000000000398
 20
112.95187460695399
 30
0.0
 42
-0.2216942531867426
  0
VERTEX
  5
26DF
  8
SAPA_FOGBAND
 10
-34.939274096945333
 20
113.0821019916966
 30
0.0
  0
VERTEX
  5
26E0
  8
SAPA_FOGBAND
 10
-34.799999874100592
 20
113.1989673112231
 30
0.0
  0
VERTEX
  5
26E1
  8
SAPA_FOGBAND
 10
-34.939274096945333
 20
113.3158326307496
 30
0.0
 42
-0.2216942531866175
  0
VERTEX
  5
26E2
  8
SAPA_FOGBAND
 10
-35.000000000000568
 20
113.44606001549219
 30
0.0
  0
VERTEX
  5
26E3
  8
SAPA_FOGBAND
 10
-35.000000000000398
 20
113.4518756202538
 30
0.0
 42
-0.2216942531867426
  0
VERTEX
  5
26E4
  8
SAPA_FOGBAND
 10
-34.939274096945333
 20
113.5821030049965
 30
0.0
  0
VERTEX
  5
26E5
  8
SAPA_FOGBAND
 10
-34.799999874100592
 20
113.69896832452289
 30
0.0
  0
VERTEX
  5
26E6
  8
SAPA_FOGBAND
 10
-34.939274096945333
 20
113.81583364404941
 30
0.0
 42
-0.2216942531866175
  0
VERTEX
  5
26E7
  8
SAPA_FOGBAND
 10
-35.000000000000568
 20
113.9460610287921
 30
0.0
  0
VERTEX
  5
26E8
  8
SAPA_FOGBAND
 10
-35.000000000000398
 20
113.9518766335537
 30
0.0
 42
-0.2216942531867426
  0
VERTEX
  5
26E9
  8
SAPA_FOGBAND
 10
-34.939274096945333
 20
114.08210401829631
 30
0.0
  0
VERTEX
  5
26EA
  8
SAPA_FOGBAND
 10
-34.799999874100592
 20
114.1989693378228
 30
0.0
  0
VERTEX
  5
26EB
  8
SAPA_FOGBAND
 10
-34.939274096945333
 20
114.3158346573493
 30
0.0
 42
-0.2216942531866175
  0
VERTEX
  5
26EC
  8
SAPA_FOGBAND
 10
-35.000000000000568
 20
114.446062042092
 30
0.0
  0
VERTEX
  5
26ED
  8
SAPA_FOGBAND
 10
-35.000000000000398
 20
114.4518776468536
 30
0.0
 42
-0.2216942531867426
  0
VERTEX
  5
26EE
  8
SAPA_FOGBAND
 10
-34.939274096945333
 20
114.5821050315962
 30
0.0
  0
VERTEX
  5
26EF
  8
SAPA_FOGBAND
 10
-34.799999874100592
 20
114.6989703511227
 30
0.0
  0
VERTEX
  5
26F0
  8
SAPA_FOGBAND
 10
-34.939274096945333
 20
114.81583567064919
 30
0.0
 42
-0.2216942531866175
  0
VERTEX
  5
26F1
  8
SAPA_FOGBAND
 10
-35.000000000000568
 20
114.9460630553918
 30
0.0
  0
VERTEX
  5
26F2
  8
SAPA_FOGBAND
 10
-35.000000000000398
 20
114.9518786601535
 30
0.0
 42
-0.2216942531867426
  0
VERTEX
  5
26F3
  8
SAPA_FOGBAND
 10
-34.939274096945333
 20
115.08210604489609
 30
0.0
  0
VERTEX
  5
26F4
  8
SAPA_FOGBAND
 10
-34.799999874100592
 20
115.1989713644226
 30
0.0
  0
VERTEX
  5
26F5
  8
SAPA_FOGBAND
 10
-34.939274096945333
 20
115.3158366839491
 30
0.0
 42
-0.2216942531866175
  0
VERTEX
  5
26F6
  8
SAPA_FOGBAND
 10
-35.000000000000568
 20
115.4460640686917
 30
0.0
  0
VERTEX
  5
26F7
  8
SAPA_FOGBAND
 10
-35.000000000000398
 20
115.4518796734534
 30
0.0
 42
-0.2216942531867426
  0
VERTEX
  5
26F8
  8
SAPA_FOGBAND
 10
-34.939274096945333
 20
115.582107058196
 30
0.0
  0
VERTEX
  5
26F9
  8
SAPA_FOGBAND
 10
-34.799999874100592
 20
115.6989723777225
 30
0.0
  0
VERTEX
  5
26FA
  8
SAPA_FOGBAND
 10
-34.939274096945333
 20
115.81583769724899
 30
0.0
 42
-0.2216942531866175
  0
VERTEX
  5
26FB
  8
SAPA_FOGBAND
 10
-35.000000000000568
 20
115.94606508199161
 30
0.0
  0
VERTEX
  5
26FC
  8
SAPA_FOGBAND
 10
-35.000000000000398
 20
115.9518806867533
 30
0.0
 42
-0.2216942531867426
  0
VERTEX
  5
26FD
  8
SAPA_FOGBAND
 10
-34.939274096945333
 20
116.0821080714959
 30
0.0
  0
VERTEX
  5
26FE
  8
SAPA_FOGBAND
 10
-34.799999874100592
 20
116.19897339102241
 30
0.0
  0
VERTEX
  5
26FF
  8
SAPA_FOGBAND
 10
-34.939274096945333
 20
116.3158387105488
 30
0.0
 42
-0.2216942531866175
  0
VERTEX
  5
2700
  8
SAPA_FOGBAND
 10
-35.000000000000568
 20
116.4460660952915
 30
0.0
  0
VERTEX
  5
2701
  8
SAPA_FOGBAND
 10
-35.000000000000398
 20
116.45188170005309
 30
0.0
 42
-0.2216942531867426
  0
VERTEX
  5
2702
  8
SAPA_FOGBAND
 10
-34.939274096945333
 20
116.5821090847958
 30
0.0
  0
VERTEX
  5
2703
  8
SAPA_FOGBAND
 10
-34.799999874100592
 20
116.6989744043222
 30
0.0
  0
VERTEX
  5
2704
  8
SAPA_FOGBAND
 10
-34.939274096945333
 20
116.8158397238487
 30
0.0
 42
-0.2216942531866175
  0
VERTEX
  5
2705
  8
SAPA_FOGBAND
 10
-35.000000000000568
 20
116.94606710859129
 30
0.0
  0
VERTEX
  5
2706
  8
SAPA_FOGBAND
 10
-35.000000000000398
 20
116.951882713353
 30
0.0
 42
-0.2216942531867426
  0
VERTEX
  5
2707
  8
SAPA_FOGBAND
 10
-34.939274096945333
 20
117.0821100980956
 30
0.0
  0
VERTEX
  5
2708
  8
SAPA_FOGBAND
 10
-34.799999874100592
 20
117.19897541762209
 30
0.0
  0
VERTEX
  5
2709
  8
SAPA_FOGBAND
 10
-34.939274096945333
 20
117.3158407371486
 30
0.0
 42
-0.2216942531866175
  0
VERTEX
  5
270A
  8
SAPA_FOGBAND
 10
-35.000000000000568
 20
117.4460681218912
 30
0.0
  0
VERTEX
  5
270B
  8
SAPA_FOGBAND
 10
-35.000000000000398
 20
117.45188372665289
 30
0.0
 42
-0.2216942531867426
  0
VERTEX
  5
270C
  8
SAPA_FOGBAND
 10
-34.939274096945333
 20
117.58211111139551
 30
0.0
  0
VERTEX
  5
270D
  8
SAPA_FOGBAND
 10
-34.799999874100592
 20
117.698976430922
 30
0.0
  0
VERTEX
  5
270E
  8
SAPA_FOGBAND
 10
-34.939274096945333
 20
117.8158417504485
 30
0.0
 42
-0.2216942531866175
  0
VERTEX
  5
270F
  8
SAPA_FOGBAND
 10
-35.000000000000568
 20
117.9460691351911
 30
0.0
  0
VERTEX
  5
2710
  8
SAPA_FOGBAND
 10
-35.000000000000398
 20
117.9518847399528
 30
0.0
 42
-0.2216942531867426
  0
VERTEX
  5
2711
  8
SAPA_FOGBAND
 10
-34.939274096945333
 20
118.0821121246954
 30
0.0
  0
VERTEX
  5
2712
  8
SAPA_FOGBAND
 10
-34.799999874100592
 20
118.1989774442219
 30
0.0
  0
VERTEX
  5
2713
  8
SAPA_FOGBAND
 10
-34.939274096945333
 20
118.31584276374841
 30
0.0
 42
-0.2216942531866175
  0
VERTEX
  5
2714
  8
SAPA_FOGBAND
 10
-35.000000000000568
 20
118.446070148491
 30
0.0
  0
VERTEX
  5
2715
  8
SAPA_FOGBAND
 10
-35.000000000000398
 20
118.4518857532526
 30
0.0
 42
-0.2216942531867426
  0
VERTEX
  5
2716
  8
SAPA_FOGBAND
 10
-34.939274096945333
 20
118.58211313799529
 30
0.0
  0
VERTEX
  5
2717
  8
SAPA_FOGBAND
 10
-34.799999874100592
 20
118.6989784575217
 30
0.0
  0
VERTEX
  5
2718
  8
SAPA_FOGBAND
 10
-34.939274096945333
 20
118.8158437770482
 30
0.0
 42
-0.2216942531866175
  0
VERTEX
  5
2719
  8
SAPA_FOGBAND
 10
-35.000000000000568
 20
118.9460711617909
 30
0.0
  0
VERTEX
  5
271A
  8
SAPA_FOGBAND
 10
-35.000000000000398
 20
118.95188676655251
 30
0.0
 42
-0.2216942531867426
  0
VERTEX
  5
271B
  8
SAPA_FOGBAND
 10
-34.939274096945333
 20
119.0821141512951
 30
0.0
  0
VERTEX
  5
271C
  8
SAPA_FOGBAND
 10
-34.799999874100592
 20
119.1989794708216
 30
0.0
  0
VERTEX
  5
271D
  8
SAPA_FOGBAND
 10
-34.939274096945333
 20
119.31584479034809
 30
0.0
 42
-0.2216942531866175
  0
VERTEX
  5
271E
  8
SAPA_FOGBAND
 10
-35.000000000000568
 20
119.44607217509071
 30
0.0
  0
VERTEX
  5
271F
  8
SAPA_FOGBAND
 10
-35.000000000000398
 20
119.4518877798524
 30
0.0
 42
-0.2216942531867426
  0
VERTEX
  5
2720
  8
SAPA_FOGBAND
 10
-34.939274096945333
 20
119.582115164595
 30
0.0
  0
VERTEX
  5
2721
  8
SAPA_FOGBAND
 10
-34.799999874100592
 20
119.69898048412151
 30
0.0
  0
VERTEX
  5
2722
  8
SAPA_FOGBAND
 10
-34.939274096945333
 20
119.815845803648
 30
0.0
 42
-0.2216942531866175
  0
VERTEX
  5
2723
  8
SAPA_FOGBAND
 10
-35.000000000000568
 20
119.9460731883906
 30
0.0
  0
VERTEX
  5
2724
  8
SAPA_FOGBAND
 10
-35.000000000000398
 20
119.95188879315231
 30
0.0
 42
-0.2216942531867426
  0
VERTEX
  5
2725
  8
SAPA_FOGBAND
 10
-34.939274096945333
 20
120.0821161778949
 30
0.0
  0
VERTEX
  5
2726
  8
SAPA_FOGBAND
 10
-34.799999874100592
 20
120.1989814974214
 30
0.0
  0
VERTEX
  5
2727
  8
SAPA_FOGBAND
 10
-34.939274096945333
 20
120.3158468169479
 30
0.0
 42
-0.2216942531866175
  0
VERTEX
  5
2728
  8
SAPA_FOGBAND
 10
-35.000000000000568
 20
120.44607420169049
 30
0.0
  0
VERTEX
  5
2729
  8
SAPA_FOGBAND
 10
-35.000000000000398
 20
120.4518898064522
 30
0.0
 42
-0.2216942531867426
  0
VERTEX
  5
272A
  8
SAPA_FOGBAND
 10
-34.939274096945333
 20
120.5821171911948
 30
0.0
  0
VERTEX
  5
272B
  8
SAPA_FOGBAND
 10
-34.799999874100592
 20
120.69898251072129
 30
0.0
  0
VERTEX
  5
272C
  8
SAPA_FOGBAND
 10
-34.939274096945333
 20
120.81584783024771
 30
0.0
 42
-0.2216942531866175
  0
VERTEX
  5
272D
  8
SAPA_FOGBAND
 10
-35.000000000000568
 20
120.9460752149904
 30
0.0
  0
VERTEX
  5
272E
  8
SAPA_FOGBAND
 10
-35.000000000000398
 20
120.95189081975199
 30
0.0
 42
-0.2216942531867426
  0
VERTEX
  5
272F
  8
SAPA_FOGBAND
 10
-34.939274096945333
 20
121.08211820449471
 30
0.0
  0
VERTEX
  5
2730
  8
SAPA_FOGBAND
 10
-34.799999874100592
 20
121.1989835240212
 30
0.0
  0
VERTEX
  5
2731
  8
SAPA_FOGBAND
 10
-34.939274096945333
 20
121.3158488435476
 30
0.0
 42
-0.2216942531866175
  0
VERTEX
  5
2732
  8
SAPA_FOGBAND
 10
-35.000000000000568
 20
121.44607622829029
 30
0.0
  0
VERTEX
  5
2733
  8
SAPA_FOGBAND
 10
-35.000000000000398
 20
121.4518918330519
 30
0.0
 42
-0.2216942531867426
  0
VERTEX
  5
2734
  8
SAPA_FOGBAND
 10
-34.939274096945333
 20
121.5821192177946
 30
0.0
  0
VERTEX
  5
2735
  8
SAPA_FOGBAND
 10
-34.799999874100592
 20
121.698984537321
 30
0.0
  0
VERTEX
  5
2736
  8
SAPA_FOGBAND
 10
-34.939274096945333
 20
121.81584985684751
 30
0.0
 42
-0.2216942531866175
  0
VERTEX
  5
2737
  8
SAPA_FOGBAND
 10
-35.000000000000568
 20
121.9460772415901
 30
0.0
  0
VERTEX
  5
2738
  8
SAPA_FOGBAND
 10
-35.000000000000398
 20
121.9518928463518
 30
0.0
 42
-0.2216942531867426
  0
VERTEX
  5
2739
  8
SAPA_FOGBAND
 10
-34.939274096945333
 20
122.08212023109439
 30
0.0
  0
VERTEX
  5
273A
  8
SAPA_FOGBAND
 10
-34.799999874100592
 20
122.1989855506209
 30
0.0
  0
VERTEX
  5
273B
  8
SAPA_FOGBAND
 10
-34.939274096945333
 20
122.3158508701474
 30
0.0
 42
-0.2216942531866175
  0
VERTEX
  5
273C
  8
SAPA_FOGBAND
 10
-35.000000000000568
 20
122.44607825489
 30
0.0
  0
VERTEX
  5
273D
  8
SAPA_FOGBAND
 10
-35.000000000000398
 20
122.4518938596517
 30
0.0
 42
-0.2216942531867426
  0
VERTEX
  5
273E
  8
SAPA_FOGBAND
 10
-34.939274096945333
 20
122.5821212443943
 30
0.0
  0
VERTEX
  5
273F
  8
SAPA_FOGBAND
 10
-34.799999874100592
 20
122.6989865639208
 30
0.0
  0
VERTEX
  5
2740
  8
SAPA_FOGBAND
 10
-34.939274096945333
 20
122.81585188344729
 30
0.0
 42
-0.2216942531866175
  0
VERTEX
  5
2741
  8
SAPA_FOGBAND
 10
-35.000000000000568
 20
122.94607926818991
 30
0.0
  0
VERTEX
  5
2742
  8
SAPA_FOGBAND
 10
-35.000000000000398
 20
122.9518948729516
 30
0.0
 42
-0.2216942531867426
  0
VERTEX
  5
2743
  8
SAPA_FOGBAND
 10
-34.939274096945333
 20
123.08212225769419
 30
0.0
  0
VERTEX
  5
2744
  8
SAPA_FOGBAND
 10
-34.799999874100592
 20
123.19898757722071
 30
0.0
  0
VERTEX
  5
2745
  8
SAPA_FOGBAND
 10
-34.939274096945333
 20
123.3158528967472
 30
0.0
 42
-0.2216942531866175
  0
VERTEX
  5
2746
  8
SAPA_FOGBAND
 10
-35.000000000000568
 20
123.4460802814898
 30
0.0
  0
VERTEX
  5
2747
  8
SAPA_FOGBAND
 10
-35.000000000000398
 20
123.45189588625141
 30
0.0
 42
-0.2216942531867426
  0
VERTEX
  5
2748
  8
SAPA_FOGBAND
 10
-34.939274096945333
 20
123.5821232709941
 30
0.0
  0
VERTEX
  5
2749
  8
SAPA_FOGBAND
 10
-34.799999874100592
 20
123.6989885905205
 30
0.0
  0
VERTEX
  5
274A
  8
SAPA_FOGBAND
 10
-34.939274096945333
 20
123.815853910047
 30
0.0
 42
-0.2216942531866175
  0
VERTEX
  5
274B
  8
SAPA_FOGBAND
 10
-35.000000000000568
 20
123.94608129478971
 30
0.0
  0
VERTEX
  5
274C
  8
SAPA_FOGBAND
 10
-35.000000000000398
 20
123.9518968995513
 30
0.0
 42
-0.2216942531867426
  0
VERTEX
  5
274D
  8
SAPA_FOGBAND
 10
-34.939274096945333
 20
124.0821242842939
 30
0.0
  0
VERTEX
  5
274E
  8
SAPA_FOGBAND
 10
-34.799999874100592
 20
124.19898960382039
 30
0.0
  0
VERTEX
  5
274F
  8
SAPA_FOGBAND
 10
-34.939274096945333
 20
124.3158549233469
 30
0.0
 42
-0.2216942531866175
  0
VERTEX
  5
2750
  8
SAPA_FOGBAND
 10
-35.000000000000568
 20
124.4460823080895
 30
0.0
  0
VERTEX
  5
2751
  8
SAPA_FOGBAND
 10
-35.000000000000398
 20
124.45189791285119
 30
0.0
 42
-0.2216942531867426
  0
VERTEX
  5
2752
  8
SAPA_FOGBAND
 10
-34.939274096945333
 20
124.58212529759381
 30
0.0
  0
VERTEX
  5
2753
  8
SAPA_FOGBAND
 10
-34.799999874100592
 20
124.6989906171203
 30
0.0
  0
VERTEX
  5
2754
  8
SAPA_FOGBAND
 10
-34.939274096945333
 20
124.8158559366468
 30
0.0
 42
-0.2216942531866175
  0
VERTEX
  5
2755
  8
SAPA_FOGBAND
 10
-35.000000000000568
 20
124.94608332138939
 30
0.0
  0
VERTEX
  5
2756
  8
SAPA_FOGBAND
 10
-35.000000000000398
 20
124.9518989261511
 30
0.0
 42
-0.2216942531867426
  0
VERTEX
  5
2757
  8
SAPA_FOGBAND
 10
-34.939274096945333
 20
125.0821263108937
 30
0.0
  0
VERTEX
  5
2758
  8
SAPA_FOGBAND
 10
-34.799999874100592
 20
125.1989916304202
 30
0.0
  0
VERTEX
  5
2759
  8
SAPA_FOGBAND
 10
-34.939274096945333
 20
125.31585694994671
 30
0.0
 42
-0.2216942531866175
  0
VERTEX
  5
275A
  8
SAPA_FOGBAND
 10
-35.000000000000568
 20
125.4460843346893
 30
0.0
  0
VERTEX
  5
275B
  8
SAPA_FOGBAND
 10
-35.000000000000398
 20
125.451899939451
 30
0.0
 42
-0.2216942531867426
  0
VERTEX
  5
275C
  8
SAPA_FOGBAND
 10
-34.939274096945333
 20
125.58212732419361
 30
0.0
  0
VERTEX
  5
275D
  8
SAPA_FOGBAND
 10
-34.799999874100592
 20
125.6989926437201
 30
0.0
  0
VERTEX
  5
275E
  8
SAPA_FOGBAND
 10
-34.939274096945333
 20
125.8158579632465
 30
0.0
 42
-0.2216942531866175
  0
VERTEX
  5
275F
  8
SAPA_FOGBAND
 10
-35.000000000000568
 20
125.9460853479892
 30
0.0
  0
VERTEX
  5
2760
  8
SAPA_FOGBAND
 10
-35.000000000000398
 20
125.9519009527508
 30
0.0
 42
-0.2216942531867426
  0
VERTEX
  5
2761
  8
SAPA_FOGBAND
 10
-34.939274096945333
 20
126.0821283374935
 30
0.0
  0
VERTEX
  5
2762
  8
SAPA_FOGBAND
 10
-34.799999874100592
 20
126.1989936570199
 30
0.0
  0
VERTEX
  5
2763
  8
SAPA_FOGBAND
 10
-34.939274096945333
 20
126.31585897654639
 30
0.0
 42
-0.2216942531866175
  0
VERTEX
  5
2764
  8
SAPA_FOGBAND
 10
-35.000000000000568
 20
126.4460863612891
 30
0.0
  0
VERTEX
  5
2765
  8
SAPA_FOGBAND
 10
-35.000000000000398
 20
126.4519019660507
 30
0.0
 42
-0.2216942531867426
  0
VERTEX
  5
2766
  8
SAPA_FOGBAND
 10
-34.939274096945333
 20
126.58212935079329
 30
0.0
  0
VERTEX
  5
2767
  8
SAPA_FOGBAND
 10
-34.800003203908659
 20
126.6989918762702
 30
0.0
  0
VERTEX
  5
2768
  8
SAPA_FOGBAND
 10
-34.939274096945333
 20
126.8158544017472
 30
0.0
 42
-0.2216942531866175
  0
VERTEX
  5
2769
  8
SAPA_FOGBAND
 10
-35.000000000000568
 20
126.9460817864898
 30
0.0
  0
VERTEX
  5
276A
  8
SAPA_FOGBAND
 10
-35.000000000000398
 20
126.95189739125141
 30
0.0
 42
-0.2216942531867426
  0
VERTEX
  5
276B
  8
SAPA_FOGBAND
 10
-34.939274096945333
 20
127.0821247759941
 30
0.0
  0
VERTEX
  5
276C
  8
SAPA_FOGBAND
 10
-34.799999874100592
 20
127.1989900955206
 30
0.0
  0
VERTEX
  5
276D
  8
SAPA_FOGBAND
 10
-34.939274096945333
 20
127.315855415047
 30
0.0
 42
-0.2216942531866175
  0
VERTEX
  5
276E
  8
SAPA_FOGBAND
 10
-35.000000000000568
 20
127.44608279978971
 30
0.0
  0
VERTEX
  5
276F
  8
SAPA_FOGBAND
 10
-35.000000000000398
 20
127.4518984045513
 30
0.0
 42
-0.2216942531867426
  0
VERTEX
  5
2770
  8
SAPA_FOGBAND
 10
-34.939274096945333
 20
127.5821257892939
 30
0.0
  0
VERTEX
  5
2771
  8
SAPA_FOGBAND
 10
-34.799999874100592
 20
127.69899110882039
 30
0.0
  0
VERTEX
  5
2772
  8
SAPA_FOGBAND
 10
-34.939274096945333
 20
127.8158564283469
 30
0.0
 42
-0.2216942531866175
  0
VERTEX
  5
2773
  8
SAPA_FOGBAND
 10
-35.000000000000568
 20
127.9460838130895
 30
0.0
  0
VERTEX
  5
2774
  8
SAPA_FOGBAND
 10
-35.000000000000398
 20
127.95189941785119
 30
0.0
 42
-0.2216942531867426
  0
VERTEX
  5
2775
  8
SAPA_FOGBAND
 10
-34.939274096945333
 20
128.08212680259379
 30
0.0
  0
VERTEX
  5
2776
  8
SAPA_FOGBAND
 10
-34.799999874100592
 20
128.1989921221203
 30
0.0
  0
VERTEX
  5
2777
  8
SAPA_FOGBAND
 10
-34.939274096945333
 20
128.31585744164681
 30
0.0
 42
-0.2216942531866175
  0
VERTEX
  5
2778
  8
SAPA_FOGBAND
 10
-35.000000000000568
 20
128.44608482638941
 30
0.0
  0
VERTEX
  5
2779
  8
SAPA_FOGBAND
 10
-35.000000000000398
 20
128.4519004311511
 30
0.0
 42
-0.2216942531867426
  0
VERTEX
  5
277A
  8
SAPA_FOGBAND
 10
-34.939274096945333
 20
128.5821278158937
 30
0.0
  0
VERTEX
  5
277B
  8
SAPA_FOGBAND
 10
-34.799999874100592
 20
128.69899313542021
 30
0.0
  0
VERTEX
  5
277C
  8
SAPA_FOGBAND
 10
-34.939274096945333
 20
128.81585845494669
 30
0.0
 42
-0.2216942531866175
  0
VERTEX
  5
277D
  8
SAPA_FOGBAND
 10
-35.000000000000568
 20
128.94608583968929
 30
0.0
  0
VERTEX
  5
277E
  8
SAPA_FOGBAND
 10
-35.000000000000398
 20
128.95190144445101
 30
0.0
 42
-0.2216942531867426
  0
VERTEX
  5
277F
  8
SAPA_FOGBAND
 10
-34.939274096945333
 20
129.08212882919361
 30
0.0
  0
VERTEX
  5
2780
  8
SAPA_FOGBAND
 10
-34.799999874100592
 20
129.19899414872009
 30
0.0
  0
VERTEX
  5
2781
  8
SAPA_FOGBAND
 10
-34.939274096945333
 20
129.31585946824649
 30
0.0
 42
-0.2216942531866175
  0
VERTEX
  5
2782
  8
SAPA_FOGBAND
 10
-35.000000000000568
 20
129.4460868529892
 30
0.0
  0
VERTEX
  5
2783
  8
SAPA_FOGBAND
 10
-35.000000000000398
 20
129.4519024577508
 30
0.0
 42
-0.2216942531867426
  0
VERTEX
  5
2784
  8
SAPA_FOGBAND
 10
-34.939274096945333
 20
129.58212984249349
 30
0.0
  0
VERTEX
  5
2785
  8
SAPA_FOGBAND
 10
-34.799999874100592
 20
129.69899516201991
 30
0.0
  0
VERTEX
  5
2786
  8
SAPA_FOGBAND
 10
-34.939274096945503
 20
129.81585489344741
 30
0.0
 42
-0.2216942531863032
  0
VERTEX
  5
2787
  8
SAPA_FOGBAND
 10
-35.000000000000568
 20
129.94608227818989
 30
0.0
  0
VERTEX
  5
2788
  8
SAPA_FOGBAND
 10
-35.000000000000398
 20
129.95189788295161
 30
0.0
 42
-0.2216942531867426
  0
VERTEX
  5
2789
  8
SAPA_FOGBAND
 10
-34.939274096945333
 20
130.08212526769421
 30
0.0
  0
VERTEX
  5
278A
  8
SAPA_FOGBAND
 10
-34.799999874100592
 20
130.19899058722069
 30
0.0
  0
VERTEX
  5
278B
  8
SAPA_FOGBAND
 10
-34.939274096945333
 20
130.31585590674709
 30
0.0
 42
-0.2216942531866175
  0
VERTEX
  5
278C
  8
SAPA_FOGBAND
 10
-35.000000000000568
 20
130.4460832914898
 30
0.0
  0
VERTEX
  5
278D
  8
SAPA_FOGBAND
 10
-35.000000000000398
 20
130.45189889625141
 30
0.0
 42
-0.2216942531867426
  0
VERTEX
  5
278E
  8
SAPA_FOGBAND
 10
-34.939274096945333
 20
130.58212628099409
 30
0.0
  0
VERTEX
  5
278F
  8
SAPA_FOGBAND
 10
-34.799999874100592
 20
130.69899160052049
 30
0.0
  0
VERTEX
  5
2790
  8
SAPA_FOGBAND
 10
-34.939274096945333
 20
130.815856920047
 30
0.0
 42
-0.2216942531866175
  0
VERTEX
  5
2791
  8
SAPA_FOGBAND
 10
-35.000000000000568
 20
130.94608430478971
 30
0.0
  0
VERTEX
  5
2792
  8
SAPA_FOGBAND
 10
-35.000000000000398
 20
130.95189990955129
 30
0.0
 42
-0.2216942531867426
  0
VERTEX
  5
2793
  8
SAPA_FOGBAND
 10
-34.939274096945333
 20
131.082127294294
 30
0.0
  0
VERTEX
  5
2794
  8
SAPA_FOGBAND
 10
-34.799999874100592
 20
131.19899261382039
 30
0.0
  0
VERTEX
  5
2795
  8
SAPA_FOGBAND
 10
-34.939274096945333
 20
131.3158579333469
 30
0.0
 42
-0.2216942531866175
  0
VERTEX
  5
2796
  8
SAPA_FOGBAND
 10
-35.000000000000568
 20
131.4460853180895
 30
0.0
  0
VERTEX
  5
2797
  8
SAPA_FOGBAND
 10
-35.000000000000398
 20
131.45190092285119
 30
0.0
 42
-0.2216942531867426
  0
VERTEX
  5
2798
  8
SAPA_FOGBAND
 10
-34.939274096945333
 20
131.58212830759379
 30
0.0
  0
VERTEX
  5
2799
  8
SAPA_FOGBAND
 10
-34.799999874100592
 20
131.6989936271203
 30
0.0
  0
VERTEX
  5
279A
  8
SAPA_FOGBAND
 10
-34.939274096945333
 20
131.81585894664681
 30
0.0
 42
-0.2216942531866175
  0
VERTEX
  5
279B
  8
SAPA_FOGBAND
 10
-35.000000000000568
 20
131.94608633138941
 30
0.0
  0
VERTEX
  5
279C
  8
SAPA_FOGBAND
 10
-35.000000000000398
 20
131.9519019361511
 30
0.0
 42
-0.2216942531867426
  0
VERTEX
  5
279D
  8
SAPA_FOGBAND
 10
-34.939274096945333
 20
132.0821293208937
 30
0.0
  0
VERTEX
  5
279E
  8
SAPA_FOGBAND
 10
-34.799999874100592
 20
132.19899464042021
 30
0.0
  0
VERTEX
  5
279F
  8
SAPA_FOGBAND
 10
-34.939274096945333
 20
132.31585995994669
 30
0.0
 42
-0.2216942531866175
  0
VERTEX
  5
27A0
  8
SAPA_FOGBAND
 10
-35.000000000000568
 20
132.44608734468929
 30
0.0
  0
VERTEX
  5
27A1
  8
SAPA_FOGBAND
 10
-35.000000000000398
 20
132.45190294945101
 30
0.0
 42
-0.2216942531867426
  0
VERTEX
  5
27A2
  8
SAPA_FOGBAND
 10
-34.939274096945333
 20
132.58213033419361
 30
0.0
  0
VERTEX
  5
27A3
  8
SAPA_FOGBAND
 10
-34.799999874100592
 20
132.69899565372009
 30
0.0
  0
VERTEX
  5
27A4
  8
SAPA_FOGBAND
 10
-34.939274096945333
 20
132.8158609732466
 30
0.0
 42
-0.2216942531866175
  0
VERTEX
  5
27A5
  8
SAPA_FOGBAND
 10
-35.000000000000568
 20
132.9460883579892
 30
0.0
  0
VERTEX
  5
27A6
  8
SAPA_FOGBAND
 10
-35.000000000000398
 20
132.95190396275081
 30
0.0
 42
-0.2216942531867426
  0
VERTEX
  5
27A7
  8
SAPA_FOGBAND
 10
-34.939274096945333
 20
133.08213134749349
 30
0.0
  0
VERTEX
  5
27A8
  8
SAPA_FOGBAND
 10
-34.799999874100592
 20
133.19899666701991
 30
0.0
  0
VERTEX
  5
27A9
  8
SAPA_FOGBAND
 10
-34.939274096945333
 20
133.31586198654639
 30
0.0
 42
-0.2216942531866175
  0
VERTEX
  5
27AA
  8
SAPA_FOGBAND
 10
-35.000000000000568
 20
133.4460893712891
 30
0.0
  0
VERTEX
  5
27AB
  8
SAPA_FOGBAND
 10
-35.000000000000398
 20
133.45190497605071
 30
0.0
 42
-0.2216942531867426
  0
VERTEX
  5
27AC
  8
SAPA_FOGBAND
 10
-34.939274096945333
 20
133.58213236079331
 30
0.0
  0
VERTEX
  5
27AD
  8
SAPA_FOGBAND
 10
-34.799999874100592
 20
133.69899768031979
 30
0.0
  0
VERTEX
  5
27AE
  8
SAPA_FOGBAND
 10
-34.939274096945333
 20
133.8158629998463
 30
0.0
 42
-0.2216942531866175
  0
VERTEX
  5
27AF
  8
SAPA_FOGBAND
 10
-35.000000000000568
 20
133.9460903845889
 30
0.0
  0
VERTEX
  5
27B0
  8
SAPA_FOGBAND
 10
-35.000000000000398
 20
133.95190598935059
 30
0.0
 42
-0.2216942531867426
  0
VERTEX
  5
27B1
  8
SAPA_FOGBAND
 10
-34.939274096945333
 20
134.08213337409319
 30
0.0
  0
VERTEX
  5
27B2
  8
SAPA_FOGBAND
 10
-34.799999874100592
 20
134.1989986936197
 30
0.0
  0
VERTEX
  5
27B3
  8
SAPA_FOGBAND
 10
-34.939274096945333
 20
134.31586401314621
 30
0.0
 42
-0.2216942531866175
  0
VERTEX
  5
27B4
  8
SAPA_FOGBAND
 10
-35.000000000000568
 20
134.44609139788881
 30
0.0
  0
VERTEX
  5
27B5
  8
SAPA_FOGBAND
 10
-35.000000000000398
 20
134.4519070026505
 30
0.0
 42
-0.2216942531867426
  0
VERTEX
  5
27B6
  8
SAPA_FOGBAND
 10
-34.939274096945333
 20
134.5821343873931
 30
0.0
  0
VERTEX
  5
27B7
  8
SAPA_FOGBAND
 10
-34.799999874100592
 20
134.69899970691961
 30
0.0
  0
VERTEX
  5
27B8
  8
SAPA_FOGBAND
 10
-34.939274096945333
 20
134.81586502644609
 30
0.0
 42
-0.2216942531866175
  0
VERTEX
  5
27B9
  8
SAPA_FOGBAND
 10
-35.000000000000568
 20
134.94609241118869
 30
0.0
  0
VERTEX
  5
27BA
  8
SAPA_FOGBAND
 10
-35.000000000000398
 20
134.95190801595041
 30
0.0
 42
-0.2216942531867426
  0
VERTEX
  5
27BB
  8
SAPA_FOGBAND
 10
-34.939274096945333
 20
135.08213540069301
 30
0.0
  0
VERTEX
  5
27BC
  8
SAPA_FOGBAND
 10
-34.799999874100592
 20
135.19900072021949
 30
0.0
  0
VERTEX
  5
27BD
  8
SAPA_FOGBAND
 10
-34.939274096945333
 20
135.31586603974591
 30
0.0
 42
-0.2216942531866175
  0
VERTEX
  5
27BE
  8
SAPA_FOGBAND
 10
-35.000000000000568
 20
135.44609342448859
 30
0.0
  0
VERTEX
  5
27BF
  8
SAPA_FOGBAND
 10
-35.000000000000398
 20
135.4519090292502
 30
0.0
 42
-0.2216942531867426
  0
VERTEX
  5
27C0
  8
SAPA_FOGBAND
 10
-34.939274096945333
 20
135.58213641399291
 30
0.0
  0
VERTEX
  5
27C1
  8
SAPA_FOGBAND
 10
-34.799999874100592
 20
135.69900173351931
 30
0.0
  0
VERTEX
  5
27C2
  8
SAPA_FOGBAND
 10
-34.939274096945333
 20
135.81586705304579
 30
0.0
 42
-0.2216942531866175
  0
VERTEX
  5
27C3
  8
SAPA_FOGBAND
 10
-35.000000000000568
 20
135.94609443778839
 30
0.0
  0
VERTEX
  5
27C4
  8
SAPA_FOGBAND
 10
-35.000000000000398
 20
135.95191004255011
 30
0.0
 42
-0.2216942531867426
  0
VERTEX
  5
27C5
  8
SAPA_FOGBAND
 10
-34.939274096945333
 20
136.08213742729271
 30
0.0
  0
VERTEX
  5
27C6
  8
SAPA_FOGBAND
 10
-34.799999874100592
 20
136.19900274681919
 30
0.0
  0
VERTEX
  5
27C7
  8
SAPA_FOGBAND
 10
-34.939274096945333
 20
136.3158680663457
 30
0.0
 42
-0.2216942531866175
  0
VERTEX
  5
27C8
  8
SAPA_FOGBAND
 10
-35.000000000000568
 20
136.4460954510883
 30
0.0
  0
VERTEX
  5
27C9
  8
SAPA_FOGBAND
 10
-35.000000000000398
 20
136.45191105584999
 30
0.0
 42
-0.2216942531867426
  0
VERTEX
  5
27CA
  8
SAPA_FOGBAND
 10
-34.939274096945333
 20
136.58213844059259
 30
0.0
  0
VERTEX
  5
27CB
  8
SAPA_FOGBAND
 10
-34.799999874100592
 20
136.6990037601191
 30
0.0
  0
VERTEX
  5
27CC
  8
SAPA_FOGBAND
 10
-34.939274096945333
 20
136.81586907964561
 30
0.0
 42
-0.2216942531866175
  0
VERTEX
  5
27CD
  8
SAPA_FOGBAND
 10
-35.000000000000568
 20
136.94609646438821
 30
0.0
  0
VERTEX
  5
27CE
  8
SAPA_FOGBAND
 10
-35.000000000000398
 20
136.9519120691499
 30
0.0
 42
-0.2216942531867426
  0
VERTEX
  5
27CF
  8
SAPA_FOGBAND
 10
-34.939274096945333
 20
137.08213945389249
 30
0.0
  0
VERTEX
  5
27D0
  8
SAPA_FOGBAND
 10
-34.799999874100592
 20
137.19900477341901
 30
0.0
  0
VERTEX
  5
27D1
  8
SAPA_FOGBAND
 10
-34.939274096945333
 20
137.31587009294549
 30
0.0
 42
-0.2216942531866175
  0
VERTEX
  5
27D2
  8
SAPA_FOGBAND
 10
-35.000000000000568
 20
137.44609747768811
 30
0.0
  0
VERTEX
  5
27D3
  8
SAPA_FOGBAND
 10
-35.000000000000398
 20
137.45191308244969
 30
0.0
 42
-0.2216942531867426
  0
VERTEX
  5
27D4
  8
SAPA_FOGBAND
 10
-34.939274096945333
 20
137.5821404671924
 30
0.0
  0
VERTEX
  5
27D5
  8
SAPA_FOGBAND
 10
-34.799999874100592
 20
137.69900578671891
 30
0.0
  0
VERTEX
  5
27D6
  8
SAPA_FOGBAND
 10
-34.939274096945333
 20
137.8158711062454
 30
0.0
 42
-0.2216942531866175
  0
VERTEX
  5
27D7
  8
SAPA_FOGBAND
 10
-35.000000000000568
 20
137.94609849098799
 30
0.0
  0
VERTEX
  5
27D8
  8
SAPA_FOGBAND
 10
-35.000000000000398
 20
137.9519140957496
 30
0.0
 42
-0.2216942531867426
  0
VERTEX
  5
27D9
  8
SAPA_FOGBAND
 10
-34.939274096945333
 20
138.08214148049231
 30
0.0
  0
VERTEX
  5
27DA
  8
SAPA_FOGBAND
 10
-34.799999874100592
 20
138.19900680001871
 30
0.0
  0
VERTEX
  5
27DB
  8
SAPA_FOGBAND
 10
-34.939274096945333
 20
138.31587211954519
 30
0.0
 42
-0.2216942531866175
  0
VERTEX
  5
27DC
  8
SAPA_FOGBAND
 10
-35.000000000000568
 20
138.4460995042879
 30
0.0
  0
VERTEX
  5
27DD
  8
SAPA_FOGBAND
 10
-35.000000000000398
 20
138.45191510904951
 30
0.0
 42
-0.2216942531867426
  0
VERTEX
  5
27DE
  8
SAPA_FOGBAND
 10
-34.939274096945333
 20
138.58214249379211
 30
0.0
  0
VERTEX
  5
27DF
  8
SAPA_FOGBAND
 10
-34.800003203908659
 20
138.69900501926901
 30
0.0
  0
VERTEX
  5
27E0
  8
SAPA_FOGBAND
 10
-34.939274096945333
 20
138.81586754474591
 30
0.0
 42
-0.2216942531866175
  0
VERTEX
  5
27E1
  8
SAPA_FOGBAND
 10
-35.000000000000568
 20
138.94609492948859
 30
0.0
  0
VERTEX
  5
27E2
  8
SAPA_FOGBAND
 10
-35.000000000000398
 20
138.9519105342502
 30
0.0
 42
-0.2216942531867426
  0
VERTEX
  5
27E3
  8
SAPA_FOGBAND
 10
-34.939274096945333
 20
139.08213791899291
 30
0.0
  0
VERTEX
  5
27E4
  8
SAPA_FOGBAND
 10
-34.799999874100592
 20
139.19900323851931
 30
0.0
  0
VERTEX
  5
27E5
  8
SAPA_FOGBAND
 10
-34.939274096945333
 20
139.31586855804579
 30
0.0
 42
-0.2216942531866175
  0
VERTEX
  5
27E6
  8
SAPA_FOGBAND
 10
-35.000000000000568
 20
139.44609594278839
 30
0.0
  0
VERTEX
  5
27E7
  8
SAPA_FOGBAND
 10
-35.000000000000398
 20
139.45191154755011
 30
0.0
 42
-0.2216942531867426
  0
VERTEX
  5
27E8
  8
SAPA_FOGBAND
 10
-34.939274096945333
 20
139.58213893229271
 30
0.0
  0
VERTEX
  5
27E9
  8
SAPA_FOGBAND
 10
-34.799999874100592
 20
139.69900425181919
 30
0.0
  0
VERTEX
  5
27EA
  8
SAPA_FOGBAND
 10
-34.939274096945333
 20
139.8158695713457
 30
0.0
 42
-0.2216942531866175
  0
VERTEX
  5
27EB
  8
SAPA_FOGBAND
 10
-35.000000000000568
 20
139.9460969560883
 30
0.0
  0
VERTEX
  5
27EC
  8
SAPA_FOGBAND
 10
-35.000000000000398
 20
139.95191256084999
 30
0.0
 42
-0.2216942531867426
  0
VERTEX
  5
27ED
  8
SAPA_FOGBAND
 10
-34.939274096945333
 20
140.08213994559259
 30
0.0
  0
VERTEX
  5
27EE
  8
SAPA_FOGBAND
 10
-34.799999874100592
 20
140.1990052651191
 30
0.0
  0
VERTEX
  5
27EF
  8
SAPA_FOGBAND
 10
-34.939274096945333
 20
140.31587058464561
 30
0.0
 42
-0.2216942531866175
  0
VERTEX
  5
27F0
  8
SAPA_FOGBAND
 10
-35.000000000000568
 20
140.44609796938821
 30
0.0
  0
VERTEX
  5
27F1
  8
SAPA_FOGBAND
 10
-35.000000000000398
 20
140.4519135741499
 30
0.0
 42
-0.2216942531867426
  0
VERTEX
  5
27F2
  8
SAPA_FOGBAND
 10
-34.939274096945333
 20
140.5821409588925
 30
0.0
  0
VERTEX
  5
27F3
  8
SAPA_FOGBAND
 10
-34.799999874100592
 20
140.69900627841901
 30
0.0
  0
VERTEX
  5
27F4
  8
SAPA_FOGBAND
 10
-34.939274096945333
 20
140.81587159794549
 30
0.0
 42
-0.2216942531866175
  0
VERTEX
  5
27F5
  8
SAPA_FOGBAND
 10
-35.000000000000568
 20
140.94609898268811
 30
0.0
  0
VERTEX
  5
27F6
  8
SAPA_FOGBAND
 10
-35.000000000000398
 20
140.95191458744969
 30
0.0
 42
-0.2216942531867426
  0
VERTEX
  5
27F7
  8
SAPA_FOGBAND
 10
-34.939274096945333
 20
141.0821419721924
 30
0.0
  0
VERTEX
  5
27F8
  8
SAPA_FOGBAND
 10
-34.799999874100592
 20
141.19900729171891
 30
0.0
  0
VERTEX
  5
27F9
  8
SAPA_FOGBAND
 10
-34.939274096945333
 20
141.31587261124531
 30
0.0
 42
-0.2216942531866175
  0
VERTEX
  5
27FA
  8
SAPA_FOGBAND
 10
-35.000000000000568
 20
141.44609999598799
 30
0.0
  0
VERTEX
  5
27FB
  8
SAPA_FOGBAND
 10
-35.000000000000398
 20
141.4519156007496
 30
0.0
 42
-0.2216942531867426
  0
VERTEX
  5
27FC
  8
SAPA_FOGBAND
 10
-34.939274096945333
 20
141.5821429854922
 30
0.0
  0
VERTEX
  5
27FD
  8
SAPA_FOGBAND
 10
-34.799999874100592
 20
141.69900830501871
 30
0.0
  0
VERTEX
  5
27FE
  8
SAPA_FOGBAND
 10
-34.928556539182118
 20
141.80687875005231
 30
0.0
 42
-0.2216963450753095
  0
VERTEX
  5
27FF
  8
SAPA_FOGBAND
 10
-35.000000000000568
 20
141.96008846330079
 30
0.0
  0
VERTEX
  5
2800
  8
SAPA_FOGBAND
 10
-35.000000000000632
 20
143.1490074600645
 30
0.0
 42
-0.1999476574935361
  0
VERTEX
  5
2801
  8
SAPA_FOGBAND
 10
-34.911285483867012
 20
143.36198268000189
 30
0.0
  0
VERTEX
  5
2802
  8
SAPA_FOGBAND
 10
-32.426071236555963
 20
145.82747934627761
 30
0.0
 42
-0.6667393677648819
  0
VERTEX
  5
2803
  8
SAPA_FOGBAND
 10
-32.000000000000561
 20
145.64999999632971
 30
0.0
  0
VERTEX
  5
2804
  8
SAPA_FOGBAND
 10
-32.000000000000568
 20
144.4499999999949
 30
0.0
 42
0.4142135623731506
  0
VERTEX
  5
2805
  8
SAPA_FOGBAND
 10
-31.70000000000055
 20
144.14999999999489
 30
0.0
  0
VERTEX
  5
2806
  8
SAPA_FOGBAND
 10
-30.93341542966175
 20
144.14999999999489
 30
0.0
 42
-0.0829635818303945
  0
VERTEX
  5
2807
  8
SAPA_FOGBAND
 10
-30.8683994759595
 20
144.1391373198567
 30
0.0
  0
VERTEX
  5
2808
  8
SAPA_FOGBAND
 10
-30.27208765773679
 20
143.9341551323424
 30
0.0
 42
0.711985727291339
  0
VERTEX
  5
2809
  8
SAPA_FOGBAND
 10
-30.039016810287361
 20
144.23172470150061
 30
0.0
  0
VERTEX
  5
280A
  8
SAPA_FOGBAND
 10
-30.245029510654941
 20
144.55101571220391
 30
0.0
 42
-0.4140587270332008
  0
VERTEX
  5
280B
  8
SAPA_FOGBAND
 10
-30.194425768712051
 20
144.7859810376992
 30
0.0
  0
VERTEX
  5
280C
  8
SAPA_FOGBAND
 10
-30.06002771360772
 20
144.87279791358861
 30
0.0
 42
-0.4143684146674996
  0
VERTEX
  5
280D
  8
SAPA_FOGBAND
 10
-29.824938136180659
 20
144.82216741189799
 30
0.0
  0
VERTEX
  5
280E
  8
SAPA_FOGBAND
 10
-29.4798647061479
 20
144.28735162605
 30
0.0
 42
0.2131842828170128
  0
VERTEX
  5
280F
  8
SAPA_FOGBAND
 10
-29.274875536325851
 20
144.1537193336265
 30
0.0
  0
VERTEX
  5
2810
  8
SAPA_FOGBAND
 10
-27.534916734569489
 20
143.877156647178
 30
0.0
 42
0.6485541630617839
  0
VERTEX
  5
2811
  8
SAPA_FOGBAND
 10
-27.335466393623221
 20
144.18310934072079
 30
0.0
  0
VERTEX
  5
2812
  8
SAPA_FOGBAND
 10
-27.572846659684501
 20
144.55101571220391
 30
0.0
 42
-0.4140587270332008
  0
VERTEX
  5
2813
  8
SAPA_FOGBAND
 10
-27.5222429177416
 20
144.7859810376992
 30
0.0
  0
VERTEX
  5
2814
  8
SAPA_FOGBAND
 10
-27.387844862637159
 20
144.87279791358861
 30
0.0
 42
-0.4143684146674465
  0
VERTEX
  5
2815
  8
SAPA_FOGBAND
 10
-27.152755285210159
 20
144.82216741189799
 30
0.0
  0
VERTEX
  5
2816
  8
SAPA_FOGBAND
 10
-26.47809910903009
 20
143.77654424407899
 30
0.0
 42
0.213184282816855
  0
VERTEX
  5
2817
  8
SAPA_FOGBAND
 10
-26.34143966248217
 20
143.68745604912999
 30
0.0
  0
VERTEX
  5
2818
  8
SAPA_FOGBAND
 10
-25.219765880588959
 20
143.50916842868361
 30
0.0
 42
-0.3687633958509935
  0
VERTEX
  5
2819
  8
SAPA_FOGBAND
 10
-24.827817149030011
 20
143.04999999999561
 30
0.0
  0
VERTEX
  5
281A
  8
SAPA_FOGBAND
 10
-24.82781714903075
 20
142.54999999999529
 30
0.0
 42
-0.3687633958513223
  0
VERTEX
  5
281B
  8
SAPA_FOGBAND
 10
-25.219765880589019
 20
142.09083157130701
 30
0.0
  0
VERTEX
  5
281C
  8
SAPA_FOGBAND
 10
-26.341439662482401
 20
141.91254395086099
 30
0.0
 42
0.2131842828168576
  0
VERTEX
  5
281D
  8
SAPA_FOGBAND
 10
-26.478099109030261
 20
141.82345575591211
 30
0.0
  0
VERTEX
  5
281E
  8
SAPA_FOGBAND
 10
-27.15275528521039
 20
140.77783258809299
 30
0.0
 42
-0.4143684146673642
  0
VERTEX
  5
281F
  8
SAPA_FOGBAND
 10
-27.387844862637561
 20
140.7272020864028
 30
0.0
  0
VERTEX
  5
2820
  8
SAPA_FOGBAND
 10
-27.522242917741892
 20
140.81401896229229
 30
0.0
 42
-0.4140587270331185
  0
VERTEX
  5
2821
  8
SAPA_FOGBAND
 10
-27.572846659684949
 20
141.04898428778759
 30
0.0
  0
VERTEX
  5
2822
  8
SAPA_FOGBAND
 10
-27.335466393623669
 20
141.41689065927051
 30
0.0
 42
0.6485541630629518
  0
VERTEX
  5
2823
  8
SAPA_FOGBAND
 10
-27.53491673456978
 20
141.7228433528135
 30
0.0
  0
VERTEX
  5
2824
  8
SAPA_FOGBAND
 10
-29.274875536326071
 20
141.446280666365
 30
0.0
 42
0.2131842828171531
  0
VERTEX
  5
2825
  8
SAPA_FOGBAND
 10
-29.479864706148131
 20
141.31264837394161
 30
0.0
  0
VERTEX
  5
2826
  8
SAPA_FOGBAND
 10
-29.82493813618089
 20
140.7778325880937
 30
0.0
 42
-0.4143684146673642
  0
VERTEX
  5
2827
  8
SAPA_FOGBAND
 10
-30.060027713608061
 20
140.72720208640331
 30
0.0
  0
VERTEX
  5
2828
  8
SAPA_FOGBAND
 10
-30.194425768712222
 20
140.81401896229269
 30
0.0
 42
-0.4140587270324127
  0
VERTEX
  5
2829
  8
SAPA_FOGBAND
 10
-30.245029510655399
 20
141.04898428778799
 30
0.0
  0
VERTEX
  5
282A
  8
SAPA_FOGBAND
 10
-30.039016810287531
 20
141.36827529849111
 30
0.0
 42
0.7119857272911798
  0
VERTEX
  5
282B
  8
SAPA_FOGBAND
 10
-30.272087657736961
 20
141.6658448676493
 30
0.0
  0
VERTEX
  5
282C
  8
SAPA_FOGBAND
 10
-30.868399475959791
 20
141.46086268013511
 30
0.0
 42
-0.0829635818308052
  0
VERTEX
  5
282D
  8
SAPA_FOGBAND
 10
-30.933415429662031
 20
141.44999999999629
 30
0.0
  0
VERTEX
  5
282E
  8
SAPA_FOGBAND
 10
-31.70000000000033
 20
141.44999999999681
 30
0.0
 42
0.4142135623733726
  0
VERTEX
  5
282F
  8
SAPA_FOGBAND
 10
-32.000000000000568
 20
141.14999999999691
 30
0.0
  0
VERTEX
  5
2830
  8
SAPA_FOGBAND
 10
-32.000000000000568
 20
138.6499999816406
 30
0.0
 42
-0.4142135623731506
  0
VERTEX
  5
2831
  8
SAPA_FOGBAND
 10
-32.30000000000058
 20
138.34999998164059
 30
0.0
  0
VERTEX
  5
2832
  8
SAPA_FOGBAND
 10
-32.400000000000936
 20
138.34999998164051
 30
0.0
 42
0.4142135623730617
  0
VERTEX
  5
2833
  8
SAPA_FOGBAND
 10
-33.400000000000887
 20
137.34999998164051
 30
0.0
  0
VERTEX
  5
2834
  8
SAPA_FOGBAND
 10
-33.400000000000887
 20
128.34999998164039
 30
0.0
 42
0.4142135623730784
  0
VERTEX
  5
2835
  8
SAPA_FOGBAND
 10
-32.400000000000936
 20
127.34999998164039
 30
0.0
  0
VERTEX
  5
2836
  8
SAPA_FOGBAND
 10
-32.300000000000978
 20
127.34999998164049
 30
0.0
 42
-0.4142135623730948
  0
VERTEX
  5
2837
  8
SAPA_FOGBAND
 10
-32.000000000000973
 20
127.0499999816403
 30
0.0
  0
VERTEX
  5
2838
  8
SAPA_FOGBAND
 10
-32.000000000000909
 20
124.97681539008479
 30
0.0
 42
-0.0878504214281866
  0
VERTEX
  5
2839
  8
SAPA_FOGBAND
 10
-32.018239846097863
 20
124.87380463495469
 30
0.0
  0
VERTEX
  5
283A
  8
SAPA_FOGBAND
 10
-32.281760151668948
 20
124.1530107551275
 30
0.0
 42
0.5820970919984486
  0
VERTEX
  5
283B
  8
SAPA_FOGBAND
 10
-31.94413556223418
 20
123.75524728187121
 30
0.0
  0
VERTEX
  5
283C
  8
SAPA_FOGBAND
 10
-27.244135564469381
 20
124.6460375298555
 30
0.0
 42
0.3603575240022853
  0
VERTEX
  5
283D
  8
SAPA_FOGBAND
 10
-27.000000000000959
 20
124.9407902479817
 30
0.0
  0
VERTEX
  5
283E
  8
SAPA_FOGBAND
 10
-27.000000000000849
 20
125.5501831407706
 30
0.0
 42
-0.7588023796546127
  0
VERTEX
  5
283F
  8
SAPA_FOGBAND
 10
-26.536577268639061
 20
125.6797245794523
 30
0.0
 42
0.1169572780734508
  0
VERTEX
  5
2840
  8
SAPA_FOGBAND
 10
-23.525861699534399
 20
122.6241642203167
 30
0.0
 42
-0.2811482092434636
  0
VERTEX
  5
2841
  8
SAPA_FOGBAND
 10
-23.200000000000951
 20
122.090452507669
 30
0.0
  0
VERTEX
  5
2842
  8
SAPA_FOGBAND
 10
-23.200000000000902
 20
111.4999999999972
 30
0.0
  0
VERTEX
  5
2843
  8
SAPA_FOGBAND
 10
-23.200000000000959
 20
100.9095474923255
 30
0.0
 42
-0.2811482092434637
  0
VERTEX
  5
2844
  8
SAPA_FOGBAND
 10
-23.525861699534399
 20
100.3758357796778
 30
0.0
 42
0.1169572780734176
  0
VERTEX
  5
2845
  8
SAPA_FOGBAND
 10
-26.53657726863867
 20
97.320275420542885
 30
0.0
 42
-0.7588023796541021
  0
VERTEX
  5
2846
  8
SAPA_FOGBAND
 10
-27.000000000000849
 20
97.449816859223915
 30
0.0
  0
VERTEX
  5
2847
  8
SAPA_FOGBAND
 10
-27.00000000000097
 20
98.059209752012876
 30
0.0
 42
0.3603575240022852
  0
VERTEX
  5
2848
  8
SAPA_FOGBAND
 10
-27.244135564469389
 20
98.353962470138981
 30
0.0
  0
VERTEX
  5
2849
  8
SAPA_FOGBAND
 10
-31.94413556223418
 20
99.244752718123337
 30
0.0
 42
0.5820970919987597
  0
VERTEX
  5
284A
  8
SAPA_FOGBAND
 10
-32.281760151668948
 20
98.846989244867018
 30
0.0
  0
VERTEX
  5
284B
  8
SAPA_FOGBAND
 10
-32.018239846097863
 20
98.126195365039848
 30
0.0
 42
-0.0878504214281866
  0
VERTEX
  5
284C
  8
SAPA_FOGBAND
 10
-32.000000000000909
 20
98.023184609909677
 30
0.0
  0
VERTEX
  5
284D
  8
SAPA_FOGBAND
 10
-32.000000000000973
 20
95.950000018354217
 30
0.0
 42
-0.414213562373095
  0
VERTEX
  5
284E
  8
SAPA_FOGBAND
 10
-32.300000000000978
 20
95.650000018354035
 30
0.0
  0
VERTEX
  5
284F
  8
SAPA_FOGBAND
 10
-32.400000000000936
 20
95.650000018354135
 30
0.0
 42
0.4142135623730784
  0
VERTEX
  5
2850
  8
SAPA_FOGBAND
 10
-33.400000000000887
 20
94.650000018354149
 30
0.0
  0
VERTEX
  5
2851
  8
SAPA_FOGBAND
 10
-33.400000000000887
 20
85.650000018354035
 30
0.0
 42
0.4142135623730784
  0
VERTEX
  5
2852
  8
SAPA_FOGBAND
 10
-32.400000000000936
 20
84.650000018354035
 30
0.0
  0
VERTEX
  5
2853
  8
SAPA_FOGBAND
 10
-32.30000000000058
 20
84.650000018353921
 30
0.0
 42
-0.4142135623731505
  0
VERTEX
  5
2854
  8
SAPA_FOGBAND
 10
-32.000000000000568
 20
84.350000018353967
 30
0.0
  0
VERTEX
  5
2855
  8
SAPA_FOGBAND
 10
-32.000000000000568
 20
81.849999999997635
 30
0.0
 42
0.4142135623733725
  0
VERTEX
  5
2856
  8
SAPA_FOGBAND
 10
-31.70000000000033
 20
81.549999999997681
 30
0.0
  0
VERTEX
  5
2857
  8
SAPA_FOGBAND
 10
-30.933415429662041
 20
81.549999999998249
 30
0.0
 42
-0.0829635818308052
  0
VERTEX
  5
2858
  8
SAPA_FOGBAND
 10
-30.868399475959791
 20
81.539137319859364
 30
0.0
  0
VERTEX
  5
2859
  8
SAPA_FOGBAND
 10
-30.272087657736961
 20
81.334155132345245
 30
0.0
 42
0.7119857272911798
  0
VERTEX
  5
285A
  8
SAPA_FOGBAND
 10
-30.039016810287539
 20
81.631724701503458
 30
0.0
  0
VERTEX
  5
285B
  8
SAPA_FOGBAND
 10
-30.245029510655399
 20
81.951015712206527
 30
0.0
 42
-0.4140587270324127
  0
VERTEX
  5
285C
  8
SAPA_FOGBAND
 10
-30.194425768712222
 20
82.185981037701808
 30
0.0
  0
VERTEX
  5
285D
  8
SAPA_FOGBAND
 10
-30.060027713608068
 20
82.272797913591262
 30
0.0
 42
-0.414368414667364
  0
VERTEX
  5
285E
  8
SAPA_FOGBAND
 10
-29.82493813618089
 20
82.222167411900841
 30
0.0
  0
VERTEX
  5
285F
  8
SAPA_FOGBAND
 10
-29.479864706148138
 20
81.687351626052873
 30
0.0
 42
0.2131842828171531
  0
VERTEX
  5
2860
  8
SAPA_FOGBAND
 10
-29.274875536326078
 20
81.553719333629473
 30
0.0
  0
VERTEX
  5
2861
  8
SAPA_FOGBAND
 10
-27.53491673456978
 20
81.277156647180945
 30
0.0
 42
0.6485541630629518
  0
VERTEX
  5
2862
  8
SAPA_FOGBAND
 10
-27.33546639362368
 20
81.583109340724036
 30
0.0
  0
VERTEX
  5
2863
  8
SAPA_FOGBAND
 10
-27.572846659684959
 20
81.951015712206868
 30
0.0
 42
-0.4140587270331186
  0
VERTEX
  5
2864
  8
SAPA_FOGBAND
 10
-27.522242917741892
 20
82.185981037702163
 30
0.0
  0
VERTEX
  5
2865
  8
SAPA_FOGBAND
 10
-27.387844862637571
 20
82.272797913591717
 30
0.0
 42
-0.414368414667364
  0
VERTEX
  5
2866
  8
SAPA_FOGBAND
 10
-27.15275528521039
 20
82.222167411901523
 30
0.0
  0
VERTEX
  5
2867
  8
SAPA_FOGBAND
 10
-26.478099109030271
 20
81.176544244082379
 30
0.0
 42
0.2131842828168576
  0
VERTEX
  5
2868
  8
SAPA_FOGBAND
 10
-26.341439662482401
 20
81.087456049133493
 30
0.0
  0
VERTEX
  5
2869
  8
SAPA_FOGBAND
 10
-25.219765880589019
 20
80.909168428687494
 30
0.0
 42
-0.3687633958515224
  0
VERTEX
  5
286A
  8
SAPA_FOGBAND
 10
-24.827817149031318
 20
80.44999999999925
 30
0.0
  0
VERTEX
  5
286B
  8
SAPA_FOGBAND
 10
-24.827817149029961
 20
79.949999999999022
 30
0.0
 42
-0.3687633958509936
  0
VERTEX
  5
286C
  8
SAPA_FOGBAND
 10
-25.21976588058897
 20
79.490831571310878
 30
0.0
  0
VERTEX
  5
286D
  8
SAPA_FOGBAND
 10
-26.34143966248217
 20
79.312543950864551
 30
0.0
 42
0.2131842828168549
  0
VERTEX
  5
286E
  8
SAPA_FOGBAND
 10
-26.478099109030101
 20
79.223455755915552
 30
0.0
  0
VERTEX
  5
286F
  8
SAPA_FOGBAND
 10
-27.152755285210159
 20
78.177832588096521
 30
0.0
 42
-0.4143684146674465
  0
VERTEX
  5
2870
  8
SAPA_FOGBAND
 10
-27.38784486263717
 20
78.127202086405873
 30
0.0
  0
VERTEX
  5
2871
  8
SAPA_FOGBAND
 10
-27.522242917741611
 20
78.214018962295313
 30
0.0
 42
-0.4140587270332008
  0
VERTEX
  5
2872
  8
SAPA_FOGBAND
 10
-27.572846659684501
 20
78.448984287790594
 30
0.0
  0
VERTEX
  5
2873
  8
SAPA_FOGBAND
 10
-27.335466393623221
 20
78.816890659273668
 30
0.0
 42
0.6485541630617839
  0
VERTEX
  5
2874
  8
SAPA_FOGBAND
 10
-27.534916734569489
 20
79.122843352816517
 30
0.0
  0
VERTEX
  5
2875
  8
SAPA_FOGBAND
 10
-29.274875536325851
 20
78.846280666367988
 30
0.0
 42
0.2131842828170127
  0
VERTEX
  5
2876
  8
SAPA_FOGBAND
 10
-29.479864706147911
 20
78.712648373944475
 30
0.0
  0
VERTEX
  5
2877
  8
SAPA_FOGBAND
 10
-29.824938136180659
 20
78.177832588096521
 30
0.0
 42
-0.4143684146674996
  0
VERTEX
  5
2878
  8
SAPA_FOGBAND
 10
-30.060027713607731
 20
78.127202086405873
 30
0.0
  0
VERTEX
  5
2879
  8
SAPA_FOGBAND
 10
-30.194425768712051
 20
78.214018962295313
 30
0.0
 42
-0.4140587270332008
  0
VERTEX
  5
287A
  8
SAPA_FOGBAND
 10
-30.245029510654948
 20
78.448984287790594
 30
0.0
  0
VERTEX
  5
287B
  8
SAPA_FOGBAND
 10
-30.039016810287361
 20
78.768275298493904
 30
0.0
 42
0.7119857272913394
  0
VERTEX
  5
287C
  8
SAPA_FOGBAND
 10
-30.27208765773679
 20
79.065844867652103
 30
0.0
  0
VERTEX
  5
287D
  8
SAPA_FOGBAND
 10
-30.86839947595951
 20
78.86086268013787
 30
0.0
 42
-0.082963581830348
  0
VERTEX
  5
287E
  8
SAPA_FOGBAND
 10
-30.93341542966175
 20
78.849999999999568
 30
0.0
  0
VERTEX
  5
287F
  8
SAPA_FOGBAND
 10
-31.700000000000561
 20
78.849999999999568
 30
0.0
 42
0.4142135623731505
  0
VERTEX
  5
2880
  8
SAPA_FOGBAND
 10
-32.000000000000568
 20
78.549999999999613
 30
0.0
  0
VERTEX
  5
2881
  8
SAPA_FOGBAND
 10
-32.000000000000568
 20
77.350000003664832
 30
0.0
 42
-0.666739367763703
  0
VERTEX
  5
2882
  8
SAPA_FOGBAND
 10
-32.42607123655592
 20
77.172520653717015
 30
0.0
  0
VERTEX
  5
2883
  8
SAPA_FOGBAND
 10
-34.911285483867012
 20
79.638017319992628
 30
0.0
 42
-0.1999476574935361
  0
VERTEX
  5
2884
  8
SAPA_FOGBAND
 10
-35.000000000000632
 20
79.850992539929962
 30
0.0
  0
VERTEX
  5
2885
  8
SAPA_FOGBAND
 10
-35.000000000000568
 20
81.039911536693694
 30
0.0
 42
-0.2216963450753665
  0
VERTEX
  5
2886
  8
SAPA_FOGBAND
 10
-34.928556539182118
 20
81.193121249942223
 30
0.0
  0
VERTEX
  5
2887
  8
SAPA_FOGBAND
 10
-34.799999874100592
 20
81.300991694975778
 30
0.0
  0
VERTEX
  5
2888
  8
SAPA_FOGBAND
 10
-34.939274096945333
 20
81.41785701450226
 30
0.0
 42
-0.2216942531867427
  0
VERTEX
  5
2889
  8
SAPA_FOGBAND
 10
-35.000000000000398
 20
81.548084399244885
 30
0.0
  0
VERTEX
  5
288A
  8
SAPA_FOGBAND
 10
-35.000000000000568
 20
81.553900004006564
 30
0.0
 42
-0.2216942531866174
  0
VERTEX
  5
288B
  8
SAPA_FOGBAND
 10
-34.939274096945333
 20
81.684127388749175
 30
0.0
  0
VERTEX
  5
288C
  8
SAPA_FOGBAND
 10
-34.799999874100592
 20
81.800992708275658
 30
0.0
  0
VERTEX
  5
288D
  8
SAPA_FOGBAND
 10
-34.939274096945333
 20
81.917858027802154
 30
0.0
 42
-0.2216942531867427
  0
VERTEX
  5
288E
  8
SAPA_FOGBAND
 10
-35.000000000000398
 20
82.048085412544765
 30
0.0
  0
VERTEX
  5
288F
  8
SAPA_FOGBAND
 10
-35.000000000000568
 20
82.053901017306416
 30
0.0
 42
-0.2216942531866174
  0
VERTEX
  5
2890
  8
SAPA_FOGBAND
 10
-34.939274096945333
 20
82.184128402049055
 30
0.0
  0
VERTEX
  5
2891
  8
SAPA_FOGBAND
 10
-34.799999874100592
 20
82.300993721575523
 30
0.0
  0
VERTEX
  5
2892
  8
SAPA_FOGBAND
 10
-34.939274096945333
 20
82.417859041102005
 30
0.0
 42
-0.2216942531867427
  0
VERTEX
  5
2893
  8
SAPA_FOGBAND
 10
-35.000000000000398
 20
82.548086425844645
 30
0.0
  0
VERTEX
  5
2894
  8
SAPA_FOGBAND
 10
-35.000000000000568
 20
82.553902030606309
 30
0.0
 42
-0.2216942531866174
  0
VERTEX
  5
2895
  8
SAPA_FOGBAND
 10
-34.939274096945333
 20
82.684129415348934
 30
0.0
  0
VERTEX
  5
2896
  8
SAPA_FOGBAND
 10
-34.799999874100592
 20
82.800994734875417
 30
0.0
  0
VERTEX
  5
2897
  8
SAPA_FOGBAND
 10
-34.939274096945333
 20
82.917860054401899
 30
0.0
 42
-0.2216942531867427
  0
VERTEX
  5
2898
  8
SAPA_FOGBAND
 10
-35.000000000000398
 20
83.048087439144524
 30
0.0
  0
VERTEX
  5
2899
  8
SAPA_FOGBAND
 10
-35.000000000000568
 20
83.053903043906175
 30
0.0
 42
-0.2216942531866174
  0
VERTEX
  5
289A
  8
SAPA_FOGBAND
 10
-34.939274096945333
 20
83.184130428648814
 30
0.0
  0
VERTEX
  5
289B
  8
SAPA_FOGBAND
 10
-34.799999874100592
 20
83.300995748175296
 30
0.0
  0
VERTEX
  5
289C
  8
SAPA_FOGBAND
 10
-34.939274096945333
 20
83.417861067701764
 30
0.0
 42
-0.2216942531867427
  0
VERTEX
  5
289D
  8
SAPA_FOGBAND
 10
-35.000000000000398
 20
83.548088452444404
 30
0.0
  0
VERTEX
  5
289E
  8
SAPA_FOGBAND
 10
-35.000000000000568
 20
83.553904057206069
 30
0.0
 42
-0.2216942531866174
  0
VERTEX
  5
289F
  8
SAPA_FOGBAND
 10
-34.939274096945333
 20
83.684131441948693
 30
0.0
  0
VERTEX
  5
28A0
  8
SAPA_FOGBAND
 10
-34.799999874100592
 20
83.800996761475176
 30
0.0
  0
VERTEX
  5
28A1
  8
SAPA_FOGBAND
 10
-34.939274096945333
 20
83.917862081001658
 30
0.0
 42
-0.2216942531867427
  0
VERTEX
  5
28A2
  8
SAPA_FOGBAND
 10
-35.000000000000398
 20
84.048089465744283
 30
0.0
  0
VERTEX
  5
28A3
  8
SAPA_FOGBAND
 10
-35.000000000000568
 20
84.053905070505948
 30
0.0
 42
-0.2216942531866174
  0
VERTEX
  5
28A4
  8
SAPA_FOGBAND
 10
-34.939274096945333
 20
84.184132455248573
 30
0.0
  0
VERTEX
  5
28A5
  8
SAPA_FOGBAND
 10
-34.800003203908659
 20
84.300994980725477
 30
0.0
  0
VERTEX
  5
28A6
  8
SAPA_FOGBAND
 10
-34.939274096945333
 20
84.417857506202395
 30
0.0
 42
-0.2216942531867427
  0
VERTEX
  5
28A7
  8
SAPA_FOGBAND
 10
-35.000000000000398
 20
84.548084890945006
 30
0.0
  0
VERTEX
  5
28A8
  8
SAPA_FOGBAND
 10
-35.000000000000568
 20
84.553900495706671
 30
0.0
 42
-0.2216942531866174
  0
VERTEX
  5
28A9
  8
SAPA_FOGBAND
 10
-34.939274096945333
 20
84.684127880449296
 30
0.0
  0
VERTEX
  5
28AA
  8
SAPA_FOGBAND
 10
-34.799999874100592
 20
84.800993199975764
 30
0.0
  0
VERTEX
  5
28AB
  8
SAPA_FOGBAND
 10
-34.939274096945333
 20
84.917858519502261
 30
0.0
 42
-0.2216942531867427
  0
VERTEX
  5
28AC
  8
SAPA_FOGBAND
 10
-35.000000000000398
 20
85.048085904244886
 30
0.0
  0
VERTEX
  5
28AD
  8
SAPA_FOGBAND
 10
-35.000000000000568
 20
85.05390150900655
 30
0.0
 42
-0.2216942531866174
  0
VERTEX
  5
28AE
  8
SAPA_FOGBAND
 10
-34.939274096945333
 20
85.184128893749175
 30
0.0
  0
VERTEX
  5
28AF
  8
SAPA_FOGBAND
 10
-34.799999874100592
 20
85.300994213275658
 30
0.0
  0
VERTEX
  5
28B0
  8
SAPA_FOGBAND
 10
-34.939274096945333
 20
85.41785953280214
 30
0.0
 42
-0.2216942531867427
  0
VERTEX
  5
28B1
  8
SAPA_FOGBAND
 10
-35.000000000000398
 20
85.548086917544765
 30
0.0
  0
VERTEX
  5
28B2
  8
SAPA_FOGBAND
 10
-35.000000000000568
 20
85.553902522306416
 30
0.0
 42
-0.2216942531866174
  0
VERTEX
  5
28B3
  8
SAPA_FOGBAND
 10
-34.939274096945333
 20
85.684129907049055
 30
0.0
  0
VERTEX
  5
28B4
  8
SAPA_FOGBAND
 10
-34.799999874100592
 20
85.800995226575523
 30
0.0
  0
VERTEX
  5
28B5
  8
SAPA_FOGBAND
 10
-34.939274096945333
 20
85.917860546102006
 30
0.0
 42
-0.2216942531867427
  0
VERTEX
  5
28B6
  8
SAPA_FOGBAND
 10
-35.000000000000398
 20
86.048087930844645
 30
0.0
  0
VERTEX
  5
28B7
  8
SAPA_FOGBAND
 10
-35.000000000000568
 20
86.05390353560631
 30
0.0
 42
-0.2216942531866174
  0
VERTEX
  5
28B8
  8
SAPA_FOGBAND
 10
-34.939274096945333
 20
86.184130920348935
 30
0.0
  0
VERTEX
  5
28B9
  8
SAPA_FOGBAND
 10
-34.799999874100592
 20
86.300996239875417
 30
0.0
  0
VERTEX
  5
28BA
  8
SAPA_FOGBAND
 10
-34.939274096945333
 20
86.417861559401899
 30
0.0
 42
-0.2216942531867427
  0
VERTEX
  5
28BB
  8
SAPA_FOGBAND
 10
-35.000000000000398
 20
86.548088944144524
 30
0.0
  0
VERTEX
  5
28BC
  8
SAPA_FOGBAND
 10
-35.000000000000568
 20
86.553904548906189
 30
0.0
 42
-0.2216942531866174
  0
VERTEX
  5
28BD
  8
SAPA_FOGBAND
 10
-34.939274096945333
 20
86.684131933648814
 30
0.0
  0
VERTEX
  5
28BE
  8
SAPA_FOGBAND
 10
-34.799999874100592
 20
86.800997253175296
 30
0.0
  0
VERTEX
  5
28BF
  8
SAPA_FOGBAND
 10
-34.939274096945333
 20
86.917862572701779
 30
0.0
 42
-0.2216942531867427
  0
VERTEX
  5
28C0
  8
SAPA_FOGBAND
 10
-35.000000000000398
 20
87.048089957444404
 30
0.0
  0
VERTEX
  5
28C1
  8
SAPA_FOGBAND
 10
-35.000000000000568
 20
87.053905562206054
 30
0.0
 42
-0.2216942531866174
  0
VERTEX
  5
28C2
  8
SAPA_FOGBAND
 10
-34.939274096945333
 20
87.184132946948694
 30
0.0
  0
VERTEX
  5
28C3
  8
SAPA_FOGBAND
 10
-34.799999874100592
 20
87.300998266475176
 30
0.0
  0
VERTEX
  5
28C4
  8
SAPA_FOGBAND
 10
-34.939274096945333
 20
87.417863586001644
 30
0.0
 42
-0.2216942531867427
  0
VERTEX
  5
28C5
  8
SAPA_FOGBAND
 10
-35.000000000000398
 20
87.548090970744283
 30
0.0
  0
VERTEX
  5
28C6
  8
SAPA_FOGBAND
 10
-35.000000000000568
 20
87.553906575505948
 30
0.0
 42
-0.2216942531866174
  0
VERTEX
  5
28C7
  8
SAPA_FOGBAND
 10
-34.939274096945333
 20
87.684133960248573
 30
0.0
  0
VERTEX
  5
28C8
  8
SAPA_FOGBAND
 10
-34.799999874100592
 20
87.800999279775056
 30
0.0
  0
VERTEX
  5
28C9
  8
SAPA_FOGBAND
 10
-34.939274096945333
 20
87.917864599301538
 30
0.0
 42
-0.2216942531867427
  0
VERTEX
  5
28CA
  8
SAPA_FOGBAND
 10
-35.000000000000398
 20
88.048091984044163
 30
0.0
  0
VERTEX
  5
28CB
  8
SAPA_FOGBAND
 10
-35.000000000000568
 20
88.053907588805814
 30
0.0
 42
-0.2216942531866174
  0
VERTEX
  5
28CC
  8
SAPA_FOGBAND
 10
-34.939274096945333
 20
88.184134973548439
 30
0.0
  0
VERTEX
  5
28CD
  8
SAPA_FOGBAND
 10
-34.799999874100592
 20
88.301000293074935
 30
0.0
  0
VERTEX
  5
28CE
  8
SAPA_FOGBAND
 10
-34.939274096945333
 20
88.417865612601403
 30
0.0
 42
-0.2216942531867427
  0
VERTEX
  5
28CF
  8
SAPA_FOGBAND
 10
-35.000000000000398
 20
88.548092997344028
 30
0.0
  0
VERTEX
  5
28D0
  8
SAPA_FOGBAND
 10
-35.000000000000568
 20
88.553908602105707
 30
0.0
 42
-0.2216942531866174
  0
VERTEX
  5
28D1
  8
SAPA_FOGBAND
 10
-34.939274096945333
 20
88.684135986848332
 30
0.0
  0
VERTEX
  5
28D2
  8
SAPA_FOGBAND
 10
-34.799999874100592
 20
88.801001306374815
 30
0.0
  0
VERTEX
  5
28D3
  8
SAPA_FOGBAND
 10
-34.939274096945333
 20
88.917866625901297
 30
0.0
 42
-0.2216942531867427
  0
VERTEX
  5
28D4
  8
SAPA_FOGBAND
 10
-35.000000000000398
 20
89.048094010643922
 30
0.0
  0
VERTEX
  5
28D5
  8
SAPA_FOGBAND
 10
-35.000000000000568
 20
89.053909615405587
 30
0.0
 42
-0.2216942531866174
  0
VERTEX
  5
28D6
  8
SAPA_FOGBAND
 10
-34.939274096945333
 20
89.184137000148226
 30
0.0
  0
VERTEX
  5
28D7
  8
SAPA_FOGBAND
 10
-34.799999874100592
 20
89.301002319674694
 30
0.0
  0
VERTEX
  5
28D8
  8
SAPA_FOGBAND
 10
-34.939274096945333
 20
89.417867639201177
 30
0.0
 42
-0.2216942531867427
  0
VERTEX
  5
28D9
  8
SAPA_FOGBAND
 10
-35.000000000000398
 20
89.548095023943816
 30
0.0
  0
VERTEX
  5
28DA
  8
SAPA_FOGBAND
 10
-35.000000000000568
 20
89.553910628705466
 30
0.0
 42
-0.2216942531866174
  0
VERTEX
  5
28DB
  8
SAPA_FOGBAND
 10
-34.939274096945333
 20
89.684138013448091
 30
0.0
  0
VERTEX
  5
28DC
  8
SAPA_FOGBAND
 10
-34.799999874100592
 20
89.801003332974574
 30
0.0
  0
VERTEX
  5
28DD
  8
SAPA_FOGBAND
 10
-34.939274096945333
 20
89.917868652501056
 30
0.0
 42
-0.2216942531867427
  0
VERTEX
  5
28DE
  8
SAPA_FOGBAND
 10
-35.000000000000398
 20
90.048096037243681
 30
0.0
  0
VERTEX
  5
28DF
  8
SAPA_FOGBAND
 10
-35.000000000000568
 20
90.053911642005346
 30
0.0
 42
-0.2216942531866174
  0
VERTEX
  5
28E0
  8
SAPA_FOGBAND
 10
-34.939274096945333
 20
90.184139026747971
 30
0.0
  0
VERTEX
  5
28E1
  8
SAPA_FOGBAND
 10
-34.799999874100592
 20
90.301004346274453
 30
0.0
  0
VERTEX
  5
28E2
  8
SAPA_FOGBAND
 10
-34.939274096945333
 20
90.417869665800936
 30
0.0
 42
-0.2216942531867427
  0
VERTEX
  5
28E3
  8
SAPA_FOGBAND
 10
-35.000000000000398
 20
90.548097050543561
 30
0.0
  0
VERTEX
  5
28E4
  8
SAPA_FOGBAND
 10
-35.000000000000568
 20
90.553912655305226
 30
0.0
 42
-0.2216942531866174
  0
VERTEX
  5
28E5
  8
SAPA_FOGBAND
 10
-34.939274096945333
 20
90.684140040047836
 30
0.0
  0
VERTEX
  5
28E6
  8
SAPA_FOGBAND
 10
-34.799999874100592
 20
90.801005359574319
 30
0.0
  0
VERTEX
  5
28E7
  8
SAPA_FOGBAND
 10
-34.939274096945333
 20
90.917870679100815
 30
0.0
 42
-0.2216942531867427
  0
VERTEX
  5
28E8
  8
SAPA_FOGBAND
 10
-35.000000000000398
 20
91.048098063843426
 30
0.0
  0
VERTEX
  5
28E9
  8
SAPA_FOGBAND
 10
-35.000000000000568
 20
91.053913668605105
 30
0.0
 42
-0.2216942531866174
  0
VERTEX
  5
28EA
  8
SAPA_FOGBAND
 10
-34.939274096945333
 20
91.18414105334773
 30
0.0
  0
VERTEX
  5
28EB
  8
SAPA_FOGBAND
 10
-34.799999874100592
 20
91.301006372874213
 30
0.0
  0
VERTEX
  5
28EC
  8
SAPA_FOGBAND
 10
-34.939274096945333
 20
91.417871692400695
 30
0.0
 42
-0.2216942531867427
  0
VERTEX
  5
28ED
  8
SAPA_FOGBAND
 10
-35.000000000000398
 20
91.54809907714332
 30
0.0
  0
VERTEX
  5
28EE
  8
SAPA_FOGBAND
 10
-35.000000000000568
 20
91.553914681904985
 30
0.0
 42
-0.2216942531866174
  0
VERTEX
  5
28EF
  8
SAPA_FOGBAND
 10
-34.939274096945333
 20
91.684142066647624
 30
0.0
  0
VERTEX
  5
28F0
  8
SAPA_FOGBAND
 10
-34.799999874100592
 20
91.801007386174106
 30
0.0
  0
VERTEX
  5
28F1
  8
SAPA_FOGBAND
 10
-34.939274096945333
 20
91.917872705700574
 30
0.0
 42
-0.2216942531867427
  0
VERTEX
  5
28F2
  8
SAPA_FOGBAND
 10
-35.000000000000398
 20
92.048100090443214
 30
0.0
  0
VERTEX
  5
28F3
  8
SAPA_FOGBAND
 10
-35.000000000000568
 20
92.053915695204864
 30
0.0
 42
-0.2216942531866174
  0
VERTEX
  5
28F4
  8
SAPA_FOGBAND
 10
-34.939274096945333
 20
92.184143079947475
 30
0.0
  0
VERTEX
  5
28F5
  8
SAPA_FOGBAND
 10
-34.799999874100592
 20
92.301008399473972
 30
0.0
  0
VERTEX
  5
28F6
  8
SAPA_FOGBAND
 10
-34.939274096945333
 20
92.417873719000454
 30
0.0
 42
-0.2216942531867427
  0
VERTEX
  5
28F7
  8
SAPA_FOGBAND
 10
-35.000000000000398
 20
92.548101103743065
 30
0.0
  0
VERTEX
  5
28F8
  8
SAPA_FOGBAND
 10
-35.000000000000568
 20
92.553916708504744
 30
0.0
 42
-0.2216942531866174
  0
VERTEX
  5
28F9
  8
SAPA_FOGBAND
 10
-34.939274096945333
 20
92.684144093247369
 30
0.0
  0
VERTEX
  5
28FA
  8
SAPA_FOGBAND
 10
-34.799999874100592
 20
92.801009412773851
 30
0.0
  0
VERTEX
  5
28FB
  8
SAPA_FOGBAND
 10
-34.939274096945333
 20
92.917874732300334
 30
0.0
 42
-0.2216942531867427
  0
VERTEX
  5
28FC
  8
SAPA_FOGBAND
 10
-35.000000000000398
 20
93.048102117042959
 30
0.0
  0
VERTEX
  5
28FD
  8
SAPA_FOGBAND
 10
-35.000000000000568
 20
93.053917721804609
 30
0.0
 42
-0.2216942531866174
  0
VERTEX
  5
28FE
  8
SAPA_FOGBAND
 10
-34.939274096945333
 20
93.184145106547234
 30
0.0
  0
SEQEND
  5
28FF
  8
SAPA_FOGBAND
  0
LINE
  5
1766
  8
SAPA_FOGBAND
 10
-34.799999874100592
 20
84.300992186675899
 30
0.0
 11
-34.937046319300578
 21
84.185996200475628
 31
0.0
  0
POLYLINE
  5
1767
  8
SAPA_FOGBAND
 66
     1
 10
0.0
 20
0.0
 30
0.0
 70
   129
  0
VERTEX
  5
2900
  8
SAPA_FOGBAND
 10
31.561718286272029
 20
125.0848194822361
 30
0.0
  0
VERTEX
  5
2901
  8
SAPA_FOGBAND
 10
31.61222911297455
 20
125.3213835376869
 30
0.0
  0
VERTEX
  5
2902
  8
SAPA_FOGBAND
 10
31.76193600020315
 20
125.54939755181159
 30
0.0
  0
VERTEX
  5
2903
  8
SAPA_FOGBAND
 10
32.005428150993339
 20
125.76062050405611
 30
0.0
  0
VERTEX
  5
2904
  8
SAPA_FOGBAND
 10
32.33390512460619
 20
125.94741824658971
 30
0.0
  0
VERTEX
  5
2905
  8
SAPA_FOGBAND
 10
32.735494907372868
 20
126.10303942229849
 30
0.0
  0
VERTEX
  5
2906
  8
SAPA_FOGBAND
 10
33.195682998214117
 20
126.2218594764295
 30
0.0
  0
VERTEX
  5
2907
  8
SAPA_FOGBAND
 10
33.697837000518582
 20
126.29958394264079
 30
0.0
  0
VERTEX
  5
2908
  8
SAPA_FOGBAND
 10
34.223807760294683
 20
126.33340365621601
 30
0.0
  0
VERTEX
  5
2909
  8
SAPA_FOGBAND
 10
34.754585323879382
 20
126.3220962845885
 30
0.0
  0
VERTEX
  5
290A
  8
SAPA_FOGBAND
 10
35.270986007197727
 20
126.2660705056301
 30
0.0
  0
VERTEX
  5
290B
  8
SAPA_FOGBAND
 10
35.754345744082912
 20
126.1673512369676
 30
0.0
  0
VERTEX
  5
290C
  8
SAPA_FOGBAND
 10
36.187194654269213
 20
126.0295064501793
 30
0.0
  0
VERTEX
  5
290D
  8
SAPA_FOGBAND
 10
36.553888450357142
 20
125.857518215013
 30
0.0
  0
VERTEX
  5
290E
  8
SAPA_FOGBAND
 10
36.841173863151653
 20
125.657602634396
 30
0.0
  0
VERTEX
  5
290F
  8
SAPA_FOGBAND
 10
37.038667649316722
 20
125.4369851782872
 30
0.0
  0
VERTEX
  5
2910
  8
SAPA_FOGBAND
 10
37.139231868854502
 20
125.20363953636711
 30
0.0
  0
VERTEX
  5
2911
  8
SAPA_FOGBAND
 10
37.139231868854502
 20
124.9659994281069
 30
0.0
  0
VERTEX
  5
2912
  8
SAPA_FOGBAND
 10
37.038667649316722
 20
124.732653786185
 30
0.0
  0
VERTEX
  5
2913
  8
SAPA_FOGBAND
 10
36.841173863151653
 20
124.512036330078
 30
0.0
  0
VERTEX
  5
2914
  8
SAPA_FOGBAND
 10
36.553888450357142
 20
124.312120749461
 30
0.0
  0
VERTEX
  5
2915
  8
SAPA_FOGBAND
 10
36.187194654269213
 20
124.1401325142929
 30
0.0
  0
VERTEX
  5
2916
  8
SAPA_FOGBAND
 10
35.754345744082912
 20
124.0022877275064
 30
0.0
  0
VERTEX
  5
2917
  8
SAPA_FOGBAND
 10
35.270986007197727
 20
123.9035684588421
 30
0.0
  0
VERTEX
  5
2918
  8
SAPA_FOGBAND
 10
34.754585323879382
 20
123.84754267988551
 30
0.0
  0
VERTEX
  5
2919
  8
SAPA_FOGBAND
 10
34.223807760294683
 20
123.836235308258
 30
0.0
  0
VERTEX
  5
291A
  8
SAPA_FOGBAND
 10
33.697837000518582
 20
123.8700550218314
 30
0.0
  0
VERTEX
  5
291B
  8
SAPA_FOGBAND
 10
33.195682998214117
 20
123.9477794880427
 30
0.0
  0
VERTEX
  5
291C
  8
SAPA_FOGBAND
 10
32.735494907372868
 20
124.06659954217371
 30
0.0
  0
VERTEX
  5
291D
  8
SAPA_FOGBAND
 10
32.33390512460619
 20
124.2222207178843
 30
0.0
  0
VERTEX
  5
291E
  8
SAPA_FOGBAND
 10
32.005428150993339
 20
124.4090184604179
 30
0.0
  0
VERTEX
  5
291F
  8
SAPA_FOGBAND
 10
31.76193600020315
 20
124.6202414126606
 30
0.0
  0
VERTEX
  5
2920
  8
SAPA_FOGBAND
 10
31.61222911297455
 20
124.8482554267853
 30
0.0
  0
SEQEND
  5
2921
  8
SAPA_FOGBAND
  0
POLYLINE
  5
1768
  8
SAPA_FOGBAND
 66
     1
 10
0.0
 20
0.0
 30
0.0
 70
   129
  0
VERTEX
  5
2922
  8
SAPA_FOGBAND
 10
39.286377803044623
 20
126.9295653178656
 30
0.0
  0
VERTEX
  5
2923
  8
SAPA_FOGBAND
 10
39.336888629748962
 20
127.16612937331639
 30
0.0
  0
VERTEX
  5
2924
  8
SAPA_FOGBAND
 10
39.48659551697574
 20
127.3941433874411
 30
0.0
  0
VERTEX
  5
2925
  8
SAPA_FOGBAND
 10
39.730087667765929
 20
127.6053663396856
 30
0.0
  0
VERTEX
  5
2926
  8
SAPA_FOGBAND
 10
40.058564641376947
 20
127.7921640822192
 30
0.0
  0
VERTEX
  5
2927
  8
SAPA_FOGBAND
 10
40.460154424143639
 20
127.94778525792979
 30
0.0
  0
VERTEX
  5
2928
  8
SAPA_FOGBAND
 10
40.920342514986707
 20
128.06660531205901
 30
0.0
  0
VERTEX
  5
2929
  8
SAPA_FOGBAND
 10
41.422496517292977
 20
128.1443297782703
 30
0.0
  0
VERTEX
  5
292A
  8
SAPA_FOGBAND
 10
41.948467277067259
 20
128.1781494918437
 30
0.0
  0
VERTEX
  5
292B
  8
SAPA_FOGBAND
 10
42.479244840651972
 20
128.16684212021619
 30
0.0
  0
VERTEX
  5
292C
  8
SAPA_FOGBAND
 10
42.995645523968513
 20
128.11081634125961
 30
0.0
  0
VERTEX
  5
292D
  8
SAPA_FOGBAND
 10
43.479005260857321
 20
128.0120970725971
 30
0.0
  0
VERTEX
  5
292E
  8
SAPA_FOGBAND
 10
43.91185417103997
 20
127.87425228580879
 30
0.0
  0
VERTEX
  5
292F
  8
SAPA_FOGBAND
 10
44.278547967131537
 20
127.70226405064069
 30
0.0
  0
VERTEX
  5
2930
  8
SAPA_FOGBAND
 10
44.565833379924243
 20
127.5023484700255
 30
0.0
  0
VERTEX
  5
2931
  8
SAPA_FOGBAND
 10
44.763327166087493
 20
127.2817310139185
 30
0.0
  0
VERTEX
  5
2932
  8
SAPA_FOGBAND
 10
44.863891385627078
 20
127.0483853719966
 30
0.0
  0
VERTEX
  5
2933
  8
SAPA_FOGBAND
 10
44.863891385627078
 20
126.81074526373639
 30
0.0
  0
VERTEX
  5
2934
  8
SAPA_FOGBAND
 10
44.763327166087493
 20
126.57739962181449
 30
0.0
  0
VERTEX
  5
2935
  8
SAPA_FOGBAND
 10
44.565833379924243
 20
126.3567821657057
 30
0.0
  0
VERTEX
  5
2936
  8
SAPA_FOGBAND
 10
44.278547967131537
 20
126.1568665850905
 30
0.0
  0
VERTEX
  5
2937
  8
SAPA_FOGBAND
 10
43.91185417103997
 20
125.9848783499224
 30
0.0
  0
VERTEX
  5
2938
  8
SAPA_FOGBAND
 10
43.479005260857321
 20
125.84703356313599
 30
0.0
  0
VERTEX
  5
2939
  8
SAPA_FOGBAND
 10
42.995645523968513
 20
125.7483142944734
 30
0.0
  0
VERTEX
  5
293A
  8
SAPA_FOGBAND
 10
42.479244840651972
 20
125.692288515515
 30
0.0
  0
VERTEX
  5
293B
  8
SAPA_FOGBAND
 10
41.948467277067259
 20
125.68098114388749
 30
0.0
  0
VERTEX
  5
293C
  8
SAPA_FOGBAND
 10
41.422496517292977
 20
125.7148008574609
 30
0.0
  0
VERTEX
  5
293D
  8
SAPA_FOGBAND
 10
40.920342514986707
 20
125.79252532367219
 30
0.0
  0
VERTEX
  5
293E
  8
SAPA_FOGBAND
 10
40.460154424143639
 20
125.9113453778032
 30
0.0
  0
VERTEX
  5
293F
  8
SAPA_FOGBAND
 10
40.058564641376947
 20
126.06696655351379
 30
0.0
  0
VERTEX
  5
2940
  8
SAPA_FOGBAND
 10
39.730087667765929
 20
126.2537642960456
 30
0.0
  0
VERTEX
  5
2941
  8
SAPA_FOGBAND
 10
39.48659551697574
 20
126.4649872482901
 30
0.0
  0
VERTEX
  5
2942
  8
SAPA_FOGBAND
 10
39.336888629748962
 20
126.6930012624148
 30
0.0
  0
SEQEND
  5
2943
  8
SAPA_FOGBAND
  0
POLYLINE
  5
1769
  8
SAPA_FOGBAND
 66
     1
 10
0.0
 20
0.0
 30
0.0
 70
     1
  0
VERTEX
  5
2944
  8
SAPA_FOGBAND
 10
34.81953535070943
 20
121.4499999251607
 30
0.0
  0
VERTEX
  5
2945
  8
SAPA_FOGBAND
 10
48.500000000007731
 20
121.4499999251607
 30
0.0
 42
0.427966335106886
  0
VERTEX
  5
2946
  8
SAPA_FOGBAND
 10
48.799672567728066
 20
121.7640124965188
 30
0.0
  0
VERTEX
  5
2947
  8
SAPA_FOGBAND
 10
48.313372659648387
 20
130.16401249651841
 30
0.0
 42
0.4005932428724212
  0
VERTEX
  5
2948
  8
SAPA_FOGBAND
 10
48.013700091928051
 20
130.44999992516071
 30
0.0
  0
VERTEX
  5
2949
  8
SAPA_FOGBAND
 10
46.200000000006639
 20
130.44999992516071
 30
0.0
  0
VERTEX
  5
294A
  8
SAPA_FOGBAND
 10
46.200000000006639
 20
132.14999992515959
 30
0.0
 42
0.4142135623730951
  0
VERTEX
  5
294B
  8
SAPA_FOGBAND
 10
45.900000000007367
 20
132.44999992516071
 30
0.0
  0
VERTEX
  5
294C
  8
SAPA_FOGBAND
 10
38.481219236381087
 20
132.44999992516071
 30
0.0
 42
0.1379343940649207
  0
VERTEX
  5
294D
  8
SAPA_FOGBAND
 10
37.960000927333112
 20
132.30342331030491
 30
0.0
  0
VERTEX
  5
294E
  8
SAPA_FOGBAND
 10
26.039390845483009
 20
125.4962050723957
 30
0.0
 42
0.2613472755167645
  0
VERTEX
  5
294F
  8
SAPA_FOGBAND
 10
25.800000000008819
 20
125.06949337982449
 30
0.0
  0
VERTEX
  5
2950
  8
SAPA_FOGBAND
 10
25.800000000008819
 20
123.2747967626606
 30
0.0
 42
0.3915187749346393
  0
VERTEX
  5
2951
  8
SAPA_FOGBAND
 10
26.721977699781291
 20
122.2778451486561
 30
0.0
  0
VERTEX
  5
2952
  8
SAPA_FOGBAND
 10
34.780524200594762
 20
121.4515241181566
 30
0.0
 42
0.0195279011117891
  0
SEQEND
  5
2953
  8
SAPA_FOGBAND
  0
POLYLINE
  5
176A
  8
SAPA_FOGBAND
 66
     1
 10
0.0
 20
0.0
 30
0.0
  0
VERTEX
  5
2954
  8
SAPA_FOGBAND
 10
46.056372436878974
 20
78.94999992515892
 30
0.0
 42
0.285714285714282
  0
VERTEX
  5
2955
  8
SAPA_FOGBAND
 10
43.256372436879701
 20
78.94999992515892
 30
0.0
  0
VERTEX
  5
2956
  8
SAPA_FOGBAND
 10
41.182592267492957
 20
78.949999925160739
 30
0.0
 42
-0.3882600129940275
  0
VERTEX
  5
2957
  8
SAPA_FOGBAND
 10
40.883790770151329
 20
79.223210651440752
 30
0.0
  0
VERTEX
  5
2958
  8
SAPA_FOGBAND
 10
40.417580846224602
 20
83.123210651440374
 30
0.0
 42
-0.4406523138893894
  0
VERTEX
  5
2959
  8
SAPA_FOGBAND
 10
40.716382343566231
 20
83.449999925158934
 30
0.0
  0
VERTEX
  5
295A
  8
SAPA_FOGBAND
 10
42.426174340486341
 20
83.449999925158934
 30
0.0
 42
-0.3394542588634375
  0
VERTEX
  5
295B
  8
SAPA_FOGBAND
 10
42.715952088372887
 20
83.227645638690376
 30
0.0
  0
VERTEX
  5
295C
  8
SAPA_FOGBAND
 10
42.918331816303628
 20
83.010059856522787
 30
0.0
 42
0.3394542588633663
  0
VERTEX
  5
295D
  8
SAPA_FOGBAND
 10
43.208109564190181
 20
82.787705570054243
 30
0.0
  0
VERTEX
  5
295E
  8
SAPA_FOGBAND
 10
46.104635309568494
 20
82.787705570054243
 30
0.0
 42
0.3394542588634373
  0
VERTEX
  5
295F
  8
SAPA_FOGBAND
 10
46.39441305745504
 20
83.010059856522787
 30
0.0
  0
VERTEX
  5
2960
  8
SAPA_FOGBAND
 10
46.596792785387599
 20
83.227645638690376
 30
0.0
 42
-0.3394542588633662
  0
VERTEX
  5
2961
  8
SAPA_FOGBAND
 10
46.886570533274153
 20
83.449999925158934
 30
0.0
  0
VERTEX
  5
2962
  8
SAPA_FOGBAND
 10
48.596362530194249
 20
83.449999925158934
 30
0.0
 42
-0.4406523138893994
  0
VERTEX
  5
2963
  8
SAPA_FOGBAND
 10
48.895164027535891
 20
83.123210651440374
 30
0.0
  0
VERTEX
  5
2964
  8
SAPA_FOGBAND
 10
48.428954103609158
 20
79.223210651440752
 30
0.0
 42
-0.3882600129940462
  0
VERTEX
  5
2965
  8
SAPA_FOGBAND
 10
48.130152606267529
 20
78.94999992515892
 30
0.0
  0
VERTEX
  5
2966
  8
SAPA_FOGBAND
 10
46.067964813730661
 20
78.94999992515892
 30
0.0
  0
SEQEND
  5
2967
  8
SAPA_FOGBAND
  0
POLYLINE
  5
176B
  8
SAPA_FOGBAND
 66
     1
 10
0.0
 20
0.0
 30
0.0
  0
VERTEX
  5
2968
  8
SAPA_FOGBAND
 10
46.067964813730661
 20
78.94999992515892
 30
0.0
  0
VERTEX
  5
2969
  8
SAPA_FOGBAND
 10
45.875606393738501
 20
77.859081115006632
 30
0.0
  0
VERTEX
  5
296A
  8
SAPA_FOGBAND
 10
46.30740295363875
 20
77.743381575487149
 30
0.0
 42
-0.4430158954262519
  0
VERTEX
  5
296B
  8
SAPA_FOGBAND
 10
46.442880001183312
 20
77.479905147380634
 30
0.0
  0
VERTEX
  5
296C
  8
SAPA_FOGBAND
 10
45.965931807963443
 20
76.209417399461529
 30
0.0
 42
-0.3125358528825162
  0
VERTEX
  5
296D
  8
SAPA_FOGBAND
 10
45.591450094835167
 20
75.949999925160739
 30
0.0
  0
VERTEX
  5
296E
  8
SAPA_FOGBAND
 10
43.721294778925312
 20
75.94999992515892
 30
0.0
 42
-0.3125358528825104
  0
VERTEX
  5
296F
  8
SAPA_FOGBAND
 10
43.346813065795232
 20
76.209417399461529
 30
0.0
  0
VERTEX
  5
2970
  8
SAPA_FOGBAND
 10
42.869864872575363
 20
77.479905147380634
 30
0.0
 42
-0.4430158954262519
  0
VERTEX
  5
2971
  8
SAPA_FOGBAND
 10
43.005341920119911
 20
77.743381575487149
 30
0.0
  0
VERTEX
  5
2972
  8
SAPA_FOGBAND
 10
43.437138480021979
 20
77.859081115006632
 30
0.0
  0
VERTEX
  5
2973
  8
SAPA_FOGBAND
 10
43.247994623680363
 20
78.931769228775522
 30
0.0
  0
SEQEND
  5
2974
  8
SAPA_FOGBAND
  0
CIRCLE
  5
176C
  8
SAPA_FOGBAND
 10
18.629356795613369
 20
-92.637568219766536
 30
0.0
 40
0.2549509756796394
  0
INSERT
  5
176D
  8
SAPA_FOGBAND
  6
CONTINUOUS
  2
*U96
 10
0.0
 20
0.0
 30
0.0
1001
ACAD
1002
{
1000
R14_HATCH_DATA
1000
176D
1011
1.0
1021
0.0
1031
0.0
1021
0.0
1031
0.0
1011
0.0
1021
0.0
1031
0.0
1021
1.0
1031
0.0
1011
0.0
1021
0.0
1031
0.0
1021
0.0
1031
1.0
1040
0.0
1010
0.0
1020
0.0
1030
1.0
1000
SOLID
1070
     1
1070
     1
1071
        1
1071
        1
1071
        1
1070
     2
1040
18.629356795613369
1040
-92.637568219766536
1040
0.2549509756796394
1040
-3.1415926535897931
1040
3.1415926535897931
1070
     0
1071
        1
1005
176C
1070
     0
1070
     1
1071
        1
1040
18.866095697183479
1040
-92.555716722437637
1040
0.0
1002
}
  0
POLYLINE
  5
176E
  8
SAPA_FOGBAND
 66
     1
 10
0.0
 20
0.0
 30
0.0
 70
     1
  0
VERTEX
  5
2986
  8
SAPA_FOGBAND
 10
17.729356795613398
 20
-95.599999999011075
 30
0.0
 42
-0.9999999999999998
  0
VERTEX
  5
2987
  8
SAPA_FOGBAND
 10
19.529356795613349
 20
-95.599999999011075
 30
0.0
  0
VERTEX
  5
2988
  8
SAPA_FOGBAND
 10
19.529356795613349
 20
-96.199999999011084
 30
0.0
 42
-0.9999999999999998
  0
VERTEX
  5
2989
  8
SAPA_FOGBAND
 10
17.729356795613398
 20
-96.199999999011084
 30
0.0
  0
SEQEND
  5
298A
  8
SAPA_FOGBAND
  0
POLYLINE
  5
176F
  8
SAPA_FOGBAND
 66
     1
 10
0.0
 20
0.0
 30
0.0
 70
     1
  0
VERTEX
  5
298B
  8
SAPA_FOGBAND
 10
27.257233103786579
 20
-90.499999999011024
 30
0.0
 42
-0.0775891054856093
  0
VERTEX
  5
298C
  8
SAPA_FOGBAND
 10
23.790451373364021
 20
-90.816635983072388
 30
0.0
  0
VERTEX
  5
298D
  8
SAPA_FOGBAND
 10
23.552561880535219
 20
-90.599999999011004
 30
0.0
 42
0.5773502691896298
  0
VERTEX
  5
298E
  8
SAPA_FOGBAND
 10
23.206151719021371
 20
-90.599999999011004
 30
0.0
  0
VERTEX
  5
298F
  8
SAPA_FOGBAND
 10
22.968104102290571
 20
-90.816909853234051
 30
0.0
  0
VERTEX
  5
2990
  8
SAPA_FOGBAND
 10
22.190609492373941
 20
-90.816909853234051
 30
0.0
  0
VERTEX
  5
2991
  8
SAPA_FOGBAND
 10
21.9525618805352
 20
-90.599999999011004
 30
0.0
 42
0.577350269189699
  0
VERTEX
  5
2992
  8
SAPA_FOGBAND
 10
21.606151719021451
 20
-90.599999999011004
 30
0.0
  0
VERTEX
  5
2993
  8
SAPA_FOGBAND
 10
21.368104102290658
 20
-90.816909853234051
 30
0.0
  0
VERTEX
  5
2994
  8
SAPA_FOGBAND
 10
20.590609492373911
 20
-90.816909853234051
 30
0.0
  0
VERTEX
  5
2995
  8
SAPA_FOGBAND
 10
20.35256188053518
 20
-90.599999999011004
 30
0.0
 42
0.577350269189699
  0
VERTEX
  5
2996
  8
SAPA_FOGBAND
 10
20.006151719021432
 20
-90.599999999011004
 30
0.0
  0
VERTEX
  5
2997
  8
SAPA_FOGBAND
 10
19.768104102290629
 20
-90.816909853234051
 30
0.0
  0
VERTEX
  5
2998
  8
SAPA_FOGBAND
 10
18.990609492373888
 20
-90.816909853234051
 30
0.0
  0
VERTEX
  5
2999
  8
SAPA_FOGBAND
 10
18.752561880535261
 20
-90.599999999011004
 30
0.0
 42
0.5773502691896298
  0
VERTEX
  5
299A
  8
SAPA_FOGBAND
 10
18.406151719021409
 20
-90.599999999011004
 30
0.0
  0
VERTEX
  5
299B
  8
SAPA_FOGBAND
 10
18.168104102290609
 20
-90.816909853234051
 30
0.0
  0
VERTEX
  5
299C
  8
SAPA_FOGBAND
 10
17.390609492373869
 20
-90.816909853234051
 30
0.0
  0
VERTEX
  5
299D
  8
SAPA_FOGBAND
 10
17.152561880535242
 20
-90.599999999011004
 30
0.0
 42
0.5773502691896298
  0
VERTEX
  5
299E
  8
SAPA_FOGBAND
 10
16.806151719021379
 20
-90.599999999011004
 30
0.0
  0
VERTEX
  5
299F
  8
SAPA_FOGBAND
 10
16.56810410229059
 20
-90.816909853234051
 30
0.0
  0
VERTEX
  5
29A0
  8
SAPA_FOGBAND
 10
15.790609488208929
 20
-90.816909853234051
 30
0.0
  0
VERTEX
  5
29A1
  8
SAPA_FOGBAND
 10
15.55256187637019
 20
-90.599999999011004
 30
0.0
 42
0.577350269189699
  0
VERTEX
  5
29A2
  8
SAPA_FOGBAND
 10
15.206151714856439
 20
-90.599999999011004
 30
0.0
  0
VERTEX
  5
29A3
  8
SAPA_FOGBAND
 10
14.40615171530135
 20
-91.673330067495485
 30
0.0
 42
0.1316524987190269
  0
VERTEX
  5
29A4
  8
SAPA_FOGBAND
 10
14.37935679561337
 20
-91.773330068266205
 30
0.0
  0
VERTEX
  5
29A5
  8
SAPA_FOGBAND
 10
14.37935679561326
 20
-94.299999999010993
 30
0.0
 42
0.4142135623730951
  0
VERTEX
  5
29A6
  8
SAPA_FOGBAND
 10
14.5793567956133
 20
-94.499999999011038
 30
0.0
  0
VERTEX
  5
29A7
  8
SAPA_FOGBAND
 10
16.629356795613369
 20
-94.499999999011038
 30
0.0
 42
-0.4142135623730951
  0
VERTEX
  5
29A8
  8
SAPA_FOGBAND
 10
17.129356795613369
 20
-94.999999999011038
 30
0.0
  0
VERTEX
  5
29A9
  8
SAPA_FOGBAND
 10
17.129356795613369
 20
-95.7267949182542
 30
0.0
  0
VERTEX
  5
29AA
  8
SAPA_FOGBAND
 10
16.877592986592841
 20
-95.794254827564615
 30
0.0
 42
0.4740571810232869
  0
VERTEX
  5
29AB
  8
SAPA_FOGBAND
 10
16.750299124229279
 20
-96.076537413203255
 30
0.0
  0
VERTEX
  5
29AC
  8
SAPA_FOGBAND
 10
17.370399626987819
 20
-97.522743549963025
 30
0.0
 42
0.2846003776495916
  0
VERTEX
  5
29AD
  8
SAPA_FOGBAND
 10
17.818043805448038
 20
-97.799999999011007
 30
0.0
  0
VERTEX
  5
29AE
  8
SAPA_FOGBAND
 10
19.440669785778589
 20
-97.799999999011007
 30
0.0
 42
0.2846003776495917
  0
VERTEX
  5
29AF
  8
SAPA_FOGBAND
 10
19.888313964238819
 20
-97.522743549963025
 30
0.0
  0
VERTEX
  5
29B0
  8
SAPA_FOGBAND
 10
20.508414466997351
 20
-96.076537413203255
 30
0.0
 42
0.4740571810232869
  0
VERTEX
  5
29B1
  8
SAPA_FOGBAND
 10
20.3811206046338
 20
-95.794254827564615
 30
0.0
  0
VERTEX
  5
29B2
  8
SAPA_FOGBAND
 10
20.129356795613379
 20
-95.7267949182542
 30
0.0
  0
VERTEX
  5
29B3
  8
SAPA_FOGBAND
 10
20.129356795613379
 20
-94.999999999011038
 30
0.0
 42
-0.4142135623730951
  0
VERTEX
  5
29B4
  8
SAPA_FOGBAND
 10
20.629356795613379
 20
-94.499999999011038
 30
0.0
  0
VERTEX
  5
29B5
  8
SAPA_FOGBAND
 10
23.67935679561333
 20
-94.499999999011038
 30
0.0
 42
-0.4142135623730951
  0
VERTEX
  5
29B6
  8
SAPA_FOGBAND
 10
23.879356795613379
 20
-94.699999999011084
 30
0.0
  0
VERTEX
  5
29B7
  8
SAPA_FOGBAND
 10
23.879356795613258
 20
-95.599999999011075
 30
0.0
 42
0.4142135623731784
  0
VERTEX
  5
29B8
  8
SAPA_FOGBAND
 10
24.079356795613311
 20
-95.799999999010993
 30
0.0
  0
VERTEX
  5
29B9
  8
SAPA_FOGBAND
 10
24.77935679561336
 20
-95.799999999011106
 30
0.0
 42
0.4142135623730398
  0
VERTEX
  5
29BA
  8
SAPA_FOGBAND
 10
25.079356795613311
 20
-95.499999999011024
 30
0.0
  0
VERTEX
  5
29BB
  8
SAPA_FOGBAND
 10
25.079356795613311
 20
-94.689488222359486
 30
0.0
 42
-0.1316524975873973
  0
VERTEX
  5
29BC
  8
SAPA_FOGBAND
 10
25.347305988044472
 20
-93.6894882223595
 30
0.0
  0
VERTEX
  5
29BD
  8
SAPA_FOGBAND
 10
30.51015113808489
 20
-91.099920230267571
 30
0.0
 42
0.7057658529986604
  0
VERTEX
  5
29BE
  8
SAPA_FOGBAND
 10
30.242557962726551
 20
-90.499999999011024
 30
0.0
  0
SEQEND
  5
29BF
  8
SAPA_FOGBAND
  0
CIRCLE
  5
1770
  8
SAPA_FOGBAND
 10
-18.629356795614399
 20
-93.02846685536025
 30
0.0
 40
0.2549509756796394
  0
POLYLINE
  5
1771
  8
SAPA_FOGBAND
 66
     1
 10
0.0
 20
0.0
 30
0.0
 70
     1
  0
VERTEX
  5
29C0
  8
SAPA_FOGBAND
 10
-17.729356795614311
 20
-95.599999999011118
 30
0.0
 42
0.9999999999999998
  0
VERTEX
  5
29C1
  8
SAPA_FOGBAND
 10
-19.529356795614259
 20
-95.599999999011118
 30
0.0
  0
VERTEX
  5
29C2
  8
SAPA_FOGBAND
 10
-19.529356795614259
 20
-96.199999999011141
 30
0.0
 42
0.9999999999999998
  0
VERTEX
  5
29C3
  8
SAPA_FOGBAND
 10
-17.729356795614311
 20
-96.199999999011141
 30
0.0
  0
SEQEND
  5
29C4
  8
SAPA_FOGBAND
  0
POLYLINE
  5
1772
  8
SAPA_FOGBAND
 66
     1
 10
0.0
 20
0.0
 30
0.0
 70
     1
  0
VERTEX
  5
29C5
  8
SAPA_FOGBAND
 10
-14.379356795614401
 20
-92.164228703859919
 30
0.0
  0
VERTEX
  5
29C6
  8
SAPA_FOGBAND
 10
-14.37935679561417
 20
-94.299999999011035
 30
0.0
 42
-0.4142135623730951
  0
VERTEX
  5
29C7
  8
SAPA_FOGBAND
 10
-14.57935679561422
 20
-94.499999999011095
 30
0.0
  0
VERTEX
  5
29C8
  8
SAPA_FOGBAND
 10
-16.629356795614399
 20
-94.499999999011095
 30
0.0
 42
0.4142135623730951
  0
VERTEX
  5
29C9
  8
SAPA_FOGBAND
 10
-17.129356795614399
 20
-94.999999999011095
 30
0.0
  0
VERTEX
  5
29CA
  8
SAPA_FOGBAND
 10
-17.129356795614399
 20
-95.726794918254257
 30
0.0
  0
VERTEX
  5
29CB
  8
SAPA_FOGBAND
 10
-16.877592986593861
 20
-95.794254827564657
 30
0.0
 42
-0.4740571810232154
  0
VERTEX
  5
29CC
  8
SAPA_FOGBAND
 10
-16.75029912423031
 20
-96.076537413203326
 30
0.0
  0
VERTEX
  5
29CD
  8
SAPA_FOGBAND
 10
-17.370399626988839
 20
-97.522743549963096
 30
0.0
 42
-0.2846003776496056
  0
VERTEX
  5
29CE
  8
SAPA_FOGBAND
 10
-17.818043805449062
 20
-97.799999999011064
 30
0.0
  0
VERTEX
  5
29CF
  8
SAPA_FOGBAND
 10
-19.440669785779502
 20
-97.799999999011064
 30
0.0
 42
-0.2846003776496054
  0
VERTEX
  5
29D0
  8
SAPA_FOGBAND
 10
-19.888313964239732
 20
-97.522743549963096
 30
0.0
  0
VERTEX
  5
29D1
  8
SAPA_FOGBAND
 10
-20.508414466998261
 20
-96.076537413203326
 30
0.0
 42
-0.4740571810232154
  0
VERTEX
  5
29D2
  8
SAPA_FOGBAND
 10
-20.381120604634699
 20
-95.794254827564657
 30
0.0
  0
VERTEX
  5
29D3
  8
SAPA_FOGBAND
 10
-20.129356795614399
 20
-95.726794918254257
 30
0.0
  0
VERTEX
  5
29D4
  8
SAPA_FOGBAND
 10
-20.129356795614399
 20
-94.999999999011095
 30
0.0
 42
0.4142135623730951
  0
VERTEX
  5
29D5
  8
SAPA_FOGBAND
 10
-20.629356795614399
 20
-94.499999999011095
 30
0.0
  0
VERTEX
  5
29D6
  8
SAPA_FOGBAND
 10
-23.67935679561435
 20
-94.499999999011095
 30
0.0
 42
0.4142135623730951
  0
VERTEX
  5
29D7
  8
SAPA_FOGBAND
 10
-23.879356795614399
 20
-94.699999999011141
 30
0.0
  0
VERTEX
  5
29D8
  8
SAPA_FOGBAND
 10
-23.879356795614171
 20
-95.599999999011118
 30
0.0
 42
-0.4142135623730951
  0
VERTEX
  5
29D9
  8
SAPA_FOGBAND
 10
-24.07935679561422
 20
-95.799999999011035
 30
0.0
  0
VERTEX
  5
29DA
  8
SAPA_FOGBAND
 10
-24.779356795614259
 20
-95.799999999011163
 30
0.0
 42
-0.4142135623730951
  0
VERTEX
  5
29DB
  8
SAPA_FOGBAND
 10
-25.07935679561422
 20
-95.499999999011095
 30
0.0
  0
VERTEX
  5
29DC
  8
SAPA_FOGBAND
 10
-25.07935679561422
 20
-94.689488222359557
 30
0.0
 42
0.1316524975873982
  0
VERTEX
  5
29DD
  8
SAPA_FOGBAND
 10
-25.347305988045381
 20
-93.689488222359543
 30
0.0
  0
VERTEX
  5
29DE
  8
SAPA_FOGBAND
 10
-29.318018525147519
 20
-91.054121304015368
 30
0.0
 42
-0.876976462992761
  0
VERTEX
  5
29DF
  8
SAPA_FOGBAND
 10
-29.215112935237251
 20
-90.536779967898894
 30
0.0
  0
VERTEX
  5
29E0
  8
SAPA_FOGBAND
 10
-23.790451373365041
 20
-91.090624764443135
 30
0.0
 42
0.1353185728426623
  0
VERTEX
  5
29E1
  8
SAPA_FOGBAND
 10
-23.790451373365041
 20
-91.090624764443135
 30
0.0
  0
VERTEX
  5
29E2
  8
SAPA_FOGBAND
 10
-23.552561880536238
 20
-90.678588072042928
 30
0.0
 42
-0.5773502691896196
  0
VERTEX
  5
29E3
  8
SAPA_FOGBAND
 10
-23.20615171902239
 20
-90.678588072042928
 30
0.0
  0
VERTEX
  5
29E4
  8
SAPA_FOGBAND
 10
-22.96810410229148
 20
-91.090898634604798
 30
0.0
  0
VERTEX
  5
29E5
  8
SAPA_FOGBAND
 10
-22.19060949237485
 20
-91.090898634604798
 30
0.0
  0
VERTEX
  5
29E6
  8
SAPA_FOGBAND
 10
-21.952561880536109
 20
-90.678588072042928
 30
0.0
 42
-0.5773502691896196
  0
VERTEX
  5
29E7
  8
SAPA_FOGBAND
 10
-21.606151719022481
 20
-90.678588072042928
 30
0.0
  0
VERTEX
  5
29E8
  8
SAPA_FOGBAND
 10
-21.368104102291571
 20
-91.090898634604798
 30
0.0
  0
VERTEX
  5
29E9
  8
SAPA_FOGBAND
 10
-20.590609492374941
 20
-91.090898634604798
 30
0.0
  0
VERTEX
  5
29EA
  8
SAPA_FOGBAND
 10
-20.3525618805362
 20
-90.678588072042928
 30
0.0
 42
-0.5773502691896196
  0
VERTEX
  5
29EB
  8
SAPA_FOGBAND
 10
-20.006151719022341
 20
-90.678588072042928
 30
0.0
  0
VERTEX
  5
29EC
  8
SAPA_FOGBAND
 10
-19.768104102291659
 20
-91.090898634604798
 30
0.0
  0
VERTEX
  5
29ED
  8
SAPA_FOGBAND
 10
-18.990609492374801
 20
-91.090898634604798
 30
0.0
  0
VERTEX
  5
29EE
  8
SAPA_FOGBAND
 10
-18.752561880536291
 20
-90.678588072042928
 30
0.0
 42
-0.5773502691896196
  0
VERTEX
  5
29EF
  8
SAPA_FOGBAND
 10
-18.406151719022429
 20
-90.678588072042928
 30
0.0
  0
VERTEX
  5
29F0
  8
SAPA_FOGBAND
 10
-18.168104102291519
 20
-91.090898634604798
 30
0.0
  0
VERTEX
  5
29F1
  8
SAPA_FOGBAND
 10
-17.390609492374889
 20
-91.090898634604798
 30
0.0
  0
VERTEX
  5
29F2
  8
SAPA_FOGBAND
 10
-17.152561880536151
 20
-90.678588072042928
 30
0.0
 42
-0.5773502691896196
  0
VERTEX
  5
29F3
  8
SAPA_FOGBAND
 10
-16.806151719022289
 20
-90.678588072042928
 30
0.0
  0
VERTEX
  5
29F4
  8
SAPA_FOGBAND
 10
-16.56810410229161
 20
-91.090898634604798
 30
0.0
  0
VERTEX
  5
29F5
  8
SAPA_FOGBAND
 10
-15.790609488209951
 20
-91.090898634604798
 30
0.0
  0
VERTEX
  5
29F6
  8
SAPA_FOGBAND
 10
-15.552561876371209
 20
-90.678588072042928
 30
0.0
 42
-0.5773502691896196
  0
VERTEX
  5
29F7
  8
SAPA_FOGBAND
 10
-15.20615171485735
 20
-90.678588072042928
 30
0.0
  0
VERTEX
  5
29F8
  8
SAPA_FOGBAND
 10
-14.40615171530237
 20
-92.064228703089213
 30
0.0
 42
-0.1316524987190407
  0
SEQEND
  5
29F9
  8
SAPA_FOGBAND
  0
INSERT
  5
1773
  8
SAPA_FOGBAND
  6
CONTINUOUS
  2
*U97
 10
0.0
 20
0.0
 30
0.0
1001
ACAD
1002
{
1000
R14_HATCH_DATA
1000
1773
1011
1.0
1021
0.0
1031
0.0
1021
0.0
1031
0.0
1011
0.0
1021
0.0
1031
0.0
1021
1.0
1031
0.0
1011
0.0
1021
0.0
1031
0.0
1021
0.0
1031
1.0
1040
0.0
1010
0.0
1020
0.0
1030
1.0
1000
SOLID
1070
     1
1070
     1
1071
        1
1071
        1
1071
        1
1070
     2
1040
-18.629356795614399
1040
-93.02846685536025
1040
0.2549509756796394
1040
0.0
1040
6.2831853071795862
1070
     1
1071
        1
1005
1770
1070
     0
1070
     1
1071
        1
1040
-18.866095697184502
1040
-92.946615358031337
1040
0.0
1002
}
  0
POLYLINE
  5
1774
  8
SAPA_FOGBAND
 66
     1
 10
0.0
 20
0.0
 30
0.0
 70
     1
  0
VERTEX
  5
2A0B
  8
SAPA_FOGBAND
 10
-21.953090993536652
 20
-33.99111467281773
 30
0.0
 42
-0.4740571810231764
  0
VERTEX
  5
2A0C
  8
SAPA_FOGBAND
 10
-22.080384855899979
 20
-33.708832087179189
 30
0.0
  0
VERTEX
  5
2A0D
  8
SAPA_FOGBAND
 10
-21.460284353141681
 20
-32.262625950419078
 30
0.0
 42
-0.2846003776496257
  0
VERTEX
  5
2A0E
  8
SAPA_FOGBAND
 10
-21.012640174681451
 20
-31.985369501371231
 30
0.0
  0
VERTEX
  5
2A0F
  8
SAPA_FOGBAND
 10
-19.39001419435078
 20
-31.985369501371231
 30
0.0
 42
-0.2846003776496159
  0
VERTEX
  5
2A10
  8
SAPA_FOGBAND
 10
-18.94237001589056
 20
-32.262625950419313
 30
0.0
  0
VERTEX
  5
2A11
  8
SAPA_FOGBAND
 10
-18.322269513132252
 20
-33.708832087179189
 30
0.0
 42
-0.4740571810232354
  0
VERTEX
  5
2A12
  8
SAPA_FOGBAND
 10
-18.449563375495579
 20
-33.99111467281773
 30
0.0
  0
VERTEX
  5
2A13
  8
SAPA_FOGBAND
 10
-18.70132718451589
 20
-34.058574582128131
 30
0.0
  0
VERTEX
  5
2A14
  8
SAPA_FOGBAND
 10
-18.70132718451589
 20
-34.999999999010242
 30
0.0
 42
0.4142135623730951
  0
VERTEX
  5
2A15
  8
SAPA_FOGBAND
 10
-18.20132718451589
 20
-35.499999999010242
 30
0.0
  0
VERTEX
  5
2A16
  8
SAPA_FOGBAND
 10
-15.173227633781259
 20
-35.499999999010022
 30
0.0
 42
-0.1657205760184635
  0
VERTEX
  5
2A17
  8
SAPA_FOGBAND
 10
-14.562553147167931
 20
-35.708118270846633
 30
0.0
  0
VERTEX
  5
2A18
  8
SAPA_FOGBAND
 10
-5.1946627566909447
 20
-41.102703355702481
 30
0.0
 42
-0.2325311832130358
  0
VERTEX
  5
2A19
  8
SAPA_FOGBAND
 10
-4.9999999999973852
 20
-41.49864421978441
 30
0.0
  0
VERTEX
  5
2A1A
  8
SAPA_FOGBAND
 10
-4.9999999999978391
 20
-46.729387776221976
 30
0.0
 42
-0.3826682380870913
  0
VERTEX
  5
2A1B
  8
SAPA_FOGBAND
 10
-5.8913247430469928
 20
-47.723465081327717
 30
0.0
  0
VERTEX
  5
2A1C
  8
SAPA_FOGBAND
 10
-11.495793503343631
 20
-48.49999999901047
 30
0.0
  0
VERTEX
  5
2A1D
  8
SAPA_FOGBAND
 10
-25.201327162567061
 20
-48.49999999901047
 30
0.0
 42
-0.4257917699693507
  0
VERTEX
  5
2A1E
  8
SAPA_FOGBAND
 10
-25.501094716164861
 20
-48.188192636479698
 30
0.0
  0
VERTEX
  5
2A1F
  8
SAPA_FOGBAND
 10
-25.013254901495539
 20
-35.788192636479152
 30
0.0
 42
-0.4027293761437475
  0
VERTEX
  5
2A20
  8
SAPA_FOGBAND
 10
-24.71348734789774
 20
-35.499999999010022
 30
0.0
  0
VERTEX
  5
2A21
  8
SAPA_FOGBAND
 10
-22.20132718451589
 20
-35.499999999010242
 30
0.0
 42
0.4142135623730951
  0
VERTEX
  5
2A22
  8
SAPA_FOGBAND
 10
-21.70132718451589
 20
-34.999999999010242
 30
0.0
  0
VERTEX
  5
2A23
  8
SAPA_FOGBAND
 10
-21.70132718451589
 20
-34.058574582128131
 30
0.0
  0
SEQEND
  5
2A24
  8
SAPA_FOGBAND
  0
POLYLINE
  5
1775
  8
SAPA_FOGBAND
 66
     1
 10
0.0
 20
0.0
 30
0.0
 70
     1
  0
VERTEX
  5
2A25
  8
SAPA_FOGBAND
 10
-19.301327184516019
 20
-33.58536950137136
 30
0.0
  0
VERTEX
  5
2A26
  8
SAPA_FOGBAND
 10
-19.30132718451625
 20
-34.18536950137127
 30
0.0
 42
-0.9999999999999998
  0
VERTEX
  5
2A27
  8
SAPA_FOGBAND
 10
-21.101327184516212
 20
-34.18536950137127
 30
0.0
  0
VERTEX
  5
2A28
  8
SAPA_FOGBAND
 10
-21.101327184516212
 20
-33.58536950137136
 30
0.0
 42
-0.9999999999999998
  0
SEQEND
  5
2A29
  8
SAPA_FOGBAND
  0
POLYLINE
  5
1776
  8
SAPA_FOGBAND
 66
     1
 10
0.0
 20
0.0
 30
0.0
 70
     1
  0
VERTEX
  5
2A2A
  8
SAPA_FOGBAND
 10
-8.8913247649958294
 20
-46.953324864972949
 30
0.0
  0
VERTEX
  5
2A2B
  8
SAPA_FOGBAND
 10
-11.89265192756522
 20
-47.445277204863032
 30
0.0
 42
-0.4464785874932524
  0
VERTEX
  5
2A2C
  8
SAPA_FOGBAND
 10
-13.00132718451607
 20
-46.451199899757057
 30
0.0
  0
VERTEX
  5
2A2D
  8
SAPA_FOGBAND
 10
-13.00132718451607
 20
-39.850147745599998
 30
0.0
 42
-0.622676997742357
  0
VERTEX
  5
2A2E
  8
SAPA_FOGBAND
 10
-11.390652697902279
 20
-39.058266017436608
 30
0.0
  0
VERTEX
  5
2A2F
  8
SAPA_FOGBAND
 10
-8.3893255353328868
 20
-41.533301339953603
 30
0.0
 42
-0.232531183213058
  0
VERTEX
  5
2A30
  8
SAPA_FOGBAND
 10
-8.0000000219466756
 20
-42.325183068117212
 30
0.0
  0
VERTEX
  5
2A31
  8
SAPA_FOGBAND
 10
-8.0000000219466756
 20
-45.959247559867208
 30
0.0
 42
-0.3826682380870913
  0
SEQEND
  5
2A32
  8
SAPA_FOGBAND
  0
POLYLINE
  5
1777
  8
SAPA_FOGBAND
 10
-22.264574318353102
 20
-42.113213331627193
 30
0.0
 66
     1
 70
     8
  0
VERTEX
  8
SAPA_FOGBAND
  5
2A5A
 10
-22.2646
 20
-42.1132
 30
0.000000
  70
    32
  0
VERTEX
  8
SAPA_FOGBAND
  5
2A5B
 10
-22.2594
 20
-42.2294
 30
0.000000
  70
    32
  0
VERTEX
  8
SAPA_FOGBAND
  5
2A5C
 10
-22.2464
 20
-42.3452
 30
0.000000
  70
    32
  0
VERTEX
  8
SAPA_FOGBAND
  5
2A5D
 10
-22.2254
 20
-42.4604
 30
0.000000
  70
    32
  0
VERTEX
  8
SAPA_FOGBAND
  5
2A5E
 10
-22.1966
 20
-42.5746
 30
0.000000
  70
    32
  0
VERTEX
  8
SAPA_FOGBAND
  5
2A5F
 10
-22.1600
 20
-42.6877
 30
0.000000
  70
    32
  0
VERTEX
  8
SAPA_FOGBAND
  5
2A60
 10
-22.1157
 20
-42.7993
 30
0.000000
  70
    32
  0
VERTEX
  8
SAPA_FOGBAND
  5
2A61
 10
-22.0638
 20
-42.9092
 30
0.000000
  70
    32
  0
VERTEX
  8
SAPA_FOGBAND
  5
2A62
 10
-22.0045
 20
-43.0170
 30
0.000000
  70
    32
  0
VERTEX
  8
SAPA_FOGBAND
  5
2A63
 10
-21.9378
 20
-43.1226
 30
0.000000
  70
    32
  0
VERTEX
  8
SAPA_FOGBAND
  5
2A64
 10
-21.8640
 20
-43.2258
 30
0.000000
  70
    32
  0
VERTEX
  8
SAPA_FOGBAND
  5
2A65
 10
-21.7832
 20
-43.3261
 30
0.000000
  70
    32
  0
VERTEX
  8
SAPA_FOGBAND
  5
2A66
 10
-21.6956
 20
-43.4234
 30
0.000000
  70
    32
  0
VERTEX
  8
SAPA_FOGBAND
  5
2A67
 10
-21.6015
 20
-43.5176
 30
0.000000
  70
    32
  0
VERTEX
  8
SAPA_FOGBAND
  5
2A68
 10
-21.5009
 20
-43.6082
 30
0.000000
  70
    32
  0
VERTEX
  8
SAPA_FOGBAND
  5
2A69
 10
-21.3943
 20
-43.6952
 30
0.000000
  70
    32
  0
VERTEX
  8
SAPA_FOGBAND
  5
2A6A
 10
-21.2819
 20
-43.7783
 30
0.000000
  70
    32
  0
VERTEX
  8
SAPA_FOGBAND
  5
2A6B
 10
-21.1638
 20
-43.8572
 30
0.000000
  70
    32
  0
VERTEX
  8
SAPA_FOGBAND
  5
2A6C
 10
-21.0405
 20
-43.9319
 30
0.000000
  70
    32
  0
VERTEX
  8
SAPA_FOGBAND
  5
2A6D
 10
-20.9121
 20
-44.0022
 30
0.000000
  70
    32
  0
VERTEX
  8
SAPA_FOGBAND
  5
2A6E
 10
-20.7791
 20
-44.0678
 30
0.000000
  70
    32
  0
VERTEX
  8
SAPA_FOGBAND
  5
2A6F
 10
-20.6417
 20
-44.1286
 30
0.000000
  70
    32
  0
VERTEX
  8
SAPA_FOGBAND
  5
2A70
 10
-20.5003
 20
-44.1845
 30
0.000000
  70
    32
  0
VERTEX
  8
SAPA_FOGBAND
  5
2A71
 10
-20.3552
 20
-44.2354
 30
0.000000
  70
    32
  0
VERTEX
  8
SAPA_FOGBAND
  5
2A72
 10
-20.2067
 20
-44.2810
 30
0.000000
  70
    32
  0
VERTEX
  8
SAPA_FOGBAND
  5
2A73
 10
-20.0553
 20
-44.3213
 30
0.000000
  70
    32
  0
VERTEX
  8
SAPA_FOGBAND
  5
2A74
 10
-19.9012
 20
-44.3563
 30
0.000000
  70
    32
  0
VERTEX
  8
SAPA_FOGBAND
  5
2A75
 10
-19.7449
 20
-44.3857
 30
0.000000
  70
    32
  0
VERTEX
  8
SAPA_FOGBAND
  5
2A76
 10
-19.5866
 20
-44.4096
 30
0.000000
  70
    32
  0
VERTEX
  8
SAPA_FOGBAND
  5
2A77
 10
-19.4269
 20
-44.4279
 30
0.000000
  70
    32
  0
VERTEX
  8
SAPA_FOGBAND
  5
2A78
 10
-19.2661
 20
-44.4405
 30
0.000000
  70
    32
  0
VERTEX
  8
SAPA_FOGBAND
  5
2A79
 10
-19.1046
 20
-44.4475
 30
0.000000
  70
    32
  0
VERTEX
  8
SAPA_FOGBAND
  5
2A7A
 10
-18.9427
 20
-44.4487
 30
0.000000
  70
    32
  0
VERTEX
  8
SAPA_FOGBAND
  5
2A7B
 10
-18.7809
 20
-44.4442
 30
0.000000
  70
    32
  0
VERTEX
  8
SAPA_FOGBAND
  5
2A7C
 10
-18.6196
 20
-44.4341
 30
0.000000
  70
    32
  0
VERTEX
  8
SAPA_FOGBAND
  5
2A7D
 10
-18.4590
 20
-44.4183
 30
0.000000
  70
    32
  0
VERTEX
  8
SAPA_FOGBAND
  5
2A7E
 10
-18.2997
 20
-44.3968
 30
0.000000
  70
    32
  0
VERTEX
  8
SAPA_FOGBAND
  5
2A7F
 10
-18.1420
 20
-44.3698
 30
0.000000
  70
    32
  0
VERTEX
  8
SAPA_FOGBAND
  5
2A80
 10
-17.9863
 20
-44.3372
 30
0.000000
  70
    32
  0
VERTEX
  8
SAPA_FOGBAND
  5
2A81
 10
-17.8330
 20
-44.2992
 30
0.000000
  70
    32
  0
VERTEX
  8
SAPA_FOGBAND
  5
2A82
 10
-17.6823
 20
-44.2559
 30
0.000000
  70
    32
  0
VERTEX
  8
SAPA_FOGBAND
  5
2A83
 10
-17.5348
 20
-44.2073
 30
0.000000
  70
    32
  0
VERTEX
  8
SAPA_FOGBAND
  5
2A84
 10
-17.3907
 20
-44.1536
 30
0.000000
  70
    32
  0
VERTEX
  8
SAPA_FOGBAND
  5
2A85
 10
-17.2504
 20
-44.0949
 30
0.000000
  70
    32
  0
VERTEX
  8
SAPA_FOGBAND
  5
2A86
 10
-17.1143
 20
-44.0313
 30
0.000000
  70
    32
  0
VERTEX
  8
SAPA_FOGBAND
  5
2A87
 10
-16.9826
 20
-43.9631
 30
0.000000
  70
    32
  0
VERTEX
  8
SAPA_FOGBAND
  5
2A88
 10
-16.8557
 20
-43.8903
 30
0.000000
  70
    32
  0
VERTEX
  8
SAPA_FOGBAND
  5
2A89
 10
-16.7339
 20
-43.8131
 30
0.000000
  70
    32
  0
VERTEX
  8
SAPA_FOGBAND
  5
2A8A
 10
-16.6174
 20
-43.7318
 30
0.000000
  70
    32
  0
VERTEX
  8
SAPA_FOGBAND
  5
2A8B
 10
-16.5066
 20
-43.6465
 30
0.000000
  70
    32
  0
VERTEX
  8
SAPA_FOGBAND
  5
2A8C
 10
-16.4018
 20
-43.5575
 30
0.000000
  70
    32
  0
VERTEX
  8
SAPA_FOGBAND
  5
2A8D
 10
-16.3031
 20
-43.4648
 30
0.000000
  70
    32
  0
VERTEX
  8
SAPA_FOGBAND
  5
2A8E
 10
-16.2108
 20
-43.3689
 30
0.000000
  70
    32
  0
VERTEX
  8
SAPA_FOGBAND
  5
2A8F
 10
-16.1252
 20
-43.2698
 30
0.000000
  70
    32
  0
VERTEX
  8
SAPA_FOGBAND
  5
2A90
 10
-16.0464
 20
-43.1679
 30
0.000000
  70
    32
  0
VERTEX
  8
SAPA_FOGBAND
  5
2A91
 10
-15.9746
 20
-43.0633
 30
0.000000
  70
    32
  0
VERTEX
  8
SAPA_FOGBAND
  5
2A92
 10
-15.9101
 20
-42.9564
 30
0.000000
  70
    32
  0
VERTEX
  8
SAPA_FOGBAND
  5
2A93
 10
-15.8529
 20
-42.8473
 30
0.000000
  70
    32
  0
VERTEX
  8
SAPA_FOGBAND
  5
2A94
 10
-15.8032
 20
-42.7365
 30
0.000000
  70
    32
  0
VERTEX
  8
SAPA_FOGBAND
  5
2A95
 10
-15.7612
 20
-42.6240
 30
0.000000
  70
    32
  0
VERTEX
  8
SAPA_FOGBAND
  5
2A96
 10
-15.7268
 20
-42.5102
 30
0.000000
  70
    32
  0
VERTEX
  8
SAPA_FOGBAND
  5
2A97
 10
-15.7003
 20
-42.3954
 30
0.000000
  70
    32
  0
VERTEX
  8
SAPA_FOGBAND
  5
2A98
 10
-15.6816
 20
-42.2799
 30
0.000000
  70
    32
  0
VERTEX
  8
SAPA_FOGBAND
  5
2A99
 10
-15.6709
 20
-42.1638
 30
0.000000
  70
    32
  0
VERTEX
  8
SAPA_FOGBAND
  5
2A9A
 10
-15.6680
 20
-42.0476
 30
0.000000
  70
    32
  0
VERTEX
  8
SAPA_FOGBAND
  5
2A9B
 10
-15.6732
 20
-41.9314
 30
0.000000
  70
    32
  0
VERTEX
  8
SAPA_FOGBAND
  5
2A9C
 10
-15.6862
 20
-41.8156
 30
0.000000
  70
    32
  0
VERTEX
  8
SAPA_FOGBAND
  5
2A9D
 10
-15.7072
 20
-41.7004
 30
0.000000
  70
    32
  0
VERTEX
  8
SAPA_FOGBAND
  5
2A9E
 10
-15.7360
 20
-41.5861
 30
0.000000
  70
    32
  0
VERTEX
  8
SAPA_FOGBAND
  5
2A9F
 10
-15.7726
 20
-41.4731
 30
0.000000
  70
    32
  0
VERTEX
  8
SAPA_FOGBAND
  5
2AA0
 10
-15.8169
 20
-41.3615
 30
0.000000
  70
    32
  0
VERTEX
  8
SAPA_FOGBAND
  5
2AA1
 10
-15.8688
 20
-41.2516
 30
0.000000
  70
    32
  0
VERTEX
  8
SAPA_FOGBAND
  5
2AA2
 10
-15.9281
 20
-41.1437
 30
0.000000
  70
    32
  0
VERTEX
  8
SAPA_FOGBAND
  5
2AA3
 10
-15.9948
 20
-41.0381
 30
0.000000
  70
    32
  0
VERTEX
  8
SAPA_FOGBAND
  5
2AA4
 10
-16.0686
 20
-40.9350
 30
0.000000
  70
    32
  0
VERTEX
  8
SAPA_FOGBAND
  5
2AA5
 10
-16.1494
 20
-40.8347
 30
0.000000
  70
    32
  0
VERTEX
  8
SAPA_FOGBAND
  5
2AA6
 10
-16.2370
 20
-40.7373
 30
0.000000
  70
    32
  0
VERTEX
  8
SAPA_FOGBAND
  5
2AA7
 10
-16.3312
 20
-40.6432
 30
0.000000
  70
    32
  0
VERTEX
  8
SAPA_FOGBAND
  5
2AA8
 10
-16.4317
 20
-40.5526
 30
0.000000
  70
    32
  0
VERTEX
  8
SAPA_FOGBAND
  5
2AA9
 10
-16.5383
 20
-40.4656
 30
0.000000
  70
    32
  0
VERTEX
  8
SAPA_FOGBAND
  5
2AAA
 10
-16.6507
 20
-40.3825
 30
0.000000
  70
    32
  0
VERTEX
  8
SAPA_FOGBAND
  5
2AAB
 10
-16.7688
 20
-40.3035
 30
0.000000
  70
    32
  0
VERTEX
  8
SAPA_FOGBAND
  5
2AAC
 10
-16.8921
 20
-40.2288
 30
0.000000
  70
    32
  0
VERTEX
  8
SAPA_FOGBAND
  5
2AAD
 10
-17.0205
 20
-40.1586
 30
0.000000
  70
    32
  0
VERTEX
  8
SAPA_FOGBAND
  5
2AAE
 10
-17.1535
 20
-40.0930
 30
0.000000
  70
    32
  0
VERTEX
  8
SAPA_FOGBAND
  5
2AAF
 10
-17.2909
 20
-40.0321
 30
0.000000
  70
    32
  0
VERTEX
  8
SAPA_FOGBAND
  5
2AB0
 10
-17.4323
 20
-39.9762
 30
0.000000
  70
    32
  0
VERTEX
  8
SAPA_FOGBAND
  5
2AB1
 10
-17.5774
 20
-39.9254
 30
0.000000
  70
    32
  0
VERTEX
  8
SAPA_FOGBAND
  5
2AB2
 10
-17.7259
 20
-39.8798
 30
0.000000
  70
    32
  0
VERTEX
  8
SAPA_FOGBAND
  5
2AB3
 10
-17.8773
 20
-39.8394
 30
0.000000
  70
    32
  0
VERTEX
  8
SAPA_FOGBAND
  5
2AB4
 10
-18.0314
 20
-39.8045
 30
0.000000
  70
    32
  0
VERTEX
  8
SAPA_FOGBAND
  5
2AB5
 10
-18.1878
 20
-39.7751
 30
0.000000
  70
    32
  0
VERTEX
  8
SAPA_FOGBAND
  5
2AB6
 10
-18.3460
 20
-39.7512
 30
0.000000
  70
    32
  0
VERTEX
  8
SAPA_FOGBAND
  5
2AB7
 10
-18.5057
 20
-39.7329
 30
0.000000
  70
    32
  0
VERTEX
  8
SAPA_FOGBAND
  5
2AB8
 10
-18.6665
 20
-39.7202
 30
0.000000
  70
    32
  0
VERTEX
  8
SAPA_FOGBAND
  5
2AB9
 10
-18.8280
 20
-39.7133
 30
0.000000
  70
    32
  0
VERTEX
  8
SAPA_FOGBAND
  5
2ABA
 10
-18.9899
 20
-39.7121
 30
0.000000
  70
    32
  0
VERTEX
  8
SAPA_FOGBAND
  5
2ABB
 10
-19.1517
 20
-39.7165
 30
0.000000
  70
    32
  0
VERTEX
  8
SAPA_FOGBAND
  5
2ABC
 10
-19.3131
 20
-39.7267
 30
0.000000
  70
    32
  0
VERTEX
  8
SAPA_FOGBAND
  5
2ABD
 10
-19.4736
 20
-39.7425
 30
0.000000
  70
    32
  0
VERTEX
  8
SAPA_FOGBAND
  5
2ABE
 10
-19.6329
 20
-39.7640
 30
0.000000
  70
    32
  0
VERTEX
  8
SAPA_FOGBAND
  5
2ABF
 10
-19.7906
 20
-39.7910
 30
0.000000
  70
    32
  0
VERTEX
  8
SAPA_FOGBAND
  5
2AC0
 10
-19.9463
 20
-39.8236
 30
0.000000
  70
    32
  0
VERTEX
  8
SAPA_FOGBAND
  5
2AC1
 10
-20.0997
 20
-39.8616
 30
0.000000
  70
    32
  0
VERTEX
  8
SAPA_FOGBAND
  5
2AC2
 10
-20.2503
 20
-39.9049
 30
0.000000
  70
    32
  0
VERTEX
  8
SAPA_FOGBAND
  5
2AC3
 10
-20.3978
 20
-39.9535
 30
0.000000
  70
    32
  0
VERTEX
  8
SAPA_FOGBAND
  5
2AC4
 10
-20.5419
 20
-40.0072
 30
0.000000
  70
    32
  0
VERTEX
  8
SAPA_FOGBAND
  5
2AC5
 10
-20.6822
 20
-40.0659
 30
0.000000
  70
    32
  0
VERTEX
  8
SAPA_FOGBAND
  5
2AC6
 10
-20.8183
 20
-40.1294
 30
0.000000
  70
    32
  0
VERTEX
  8
SAPA_FOGBAND
  5
2AC7
 10
-20.9500
 20
-40.1977
 30
0.000000
  70
    32
  0
VERTEX
  8
SAPA_FOGBAND
  5
2AC8
 10
-21.0769
 20
-40.2705
 30
0.000000
  70
    32
  0
VERTEX
  8
SAPA_FOGBAND
  5
2AC9
 10
-21.1988
 20
-40.3476
 30
0.000000
  70
    32
  0
VERTEX
  8
SAPA_FOGBAND
  5
2ACA
 10
-21.3152
 20
-40.4289
 30
0.000000
  70
    32
  0
VERTEX
  8
SAPA_FOGBAND
  5
2ACB
 10
-21.4260
 20
-40.5142
 30
0.000000
  70
    32
  0
VERTEX
  8
SAPA_FOGBAND
  5
2ACC
 10
-21.5309
 20
-40.6033
 30
0.000000
  70
    32
  0
VERTEX
  8
SAPA_FOGBAND
  5
2ACD
 10
-21.6295
 20
-40.6959
 30
0.000000
  70
    32
  0
VERTEX
  8
SAPA_FOGBAND
  5
2ACE
 10
-21.7218
 20
-40.7919
 30
0.000000
  70
    32
  0
VERTEX
  8
SAPA_FOGBAND
  5
2ACF
 10
-21.8074
 20
-40.8910
 30
0.000000
  70
    32
  0
VERTEX
  8
SAPA_FOGBAND
  5
2AD0
 10
-21.8862
 20
-40.9929
 30
0.000000
  70
    32
  0
VERTEX
  8
SAPA_FOGBAND
  5
2AD1
 10
-21.9580
 20
-41.0975
 30
0.000000
  70
    32
  0
VERTEX
  8
SAPA_FOGBAND
  5
2AD2
 10
-22.0225
 20
-41.2044
 30
0.000000
  70
    32
  0
VERTEX
  8
SAPA_FOGBAND
  5
2AD3
 10
-22.0797
 20
-41.3134
 30
0.000000
  70
    32
  0
VERTEX
  8
SAPA_FOGBAND
  5
2AD4
 10
-22.1294
 20
-41.4243
 30
0.000000
  70
    32
  0
VERTEX
  8
SAPA_FOGBAND
  5
2AD5
 10
-22.1715
 20
-41.5368
 30
0.000000
  70
    32
  0
VERTEX
  8
SAPA_FOGBAND
  5
2AD6
 10
-22.2058
 20
-41.6505
 30
0.000000
  70
    32
  0
VERTEX
  8
SAPA_FOGBAND
  5
2AD7
 10
-22.2323
 20
-41.7654
 30
0.000000
  70
    32
  0
VERTEX
  8
SAPA_FOGBAND
  5
2AD8
 10
-22.2510
 20
-41.8809
 30
0.000000
  70
    32
  0
VERTEX
  8
SAPA_FOGBAND
  5
2AD9
 10
-22.2618
 20
-41.9970
 30
0.000000
  70
    32
  0
VERTEX
  8
SAPA_FOGBAND
  5
2ADA
 10
-22.2646
 20
-42.1132
 30
0.000000
  70
    32
  0
SEQEND
  8
SAPA_FOGBAND
  5
2ADB
  0
POLYLINE
  5
1778
  8
SAPA_FOGBAND
 66
     1
 10
0.0
 20
0.0
 30
0.0
  0
VERTEX
  5
2A33
  8
SAPA_FOGBAND
 10
-23.801327184515799
 20
-35.499999999010022
 30
0.0
  0
VERTEX
  5
2A34
  8
SAPA_FOGBAND
 10
-23.80132718451625
 20
-35.79999999900997
 30
0.0
 42
0.4142135623730951
  0
VERTEX
  5
2A35
  8
SAPA_FOGBAND
 10
-23.301327184516261
 20
-36.29999999900997
 30
0.0
  0
VERTEX
  5
2A36
  8
SAPA_FOGBAND
 10
-16.001327184516072
 20
-36.29999999900997
 30
0.0
 42
0.4142135623730951
  0
VERTEX
  5
2A37
  8
SAPA_FOGBAND
 10
-15.50132718451607
 20
-35.79999999900997
 30
0.0
  0
VERTEX
  5
2A38
  8
SAPA_FOGBAND
 10
-15.50132718451607
 20
-35.499999999010022
 30
0.0
  0
SEQEND
  5
2A39
  8
SAPA_FOGBAND
  0
INSERT
  5
1779
  8
SAPA_FOGBAND
  2
BYGG-029014$0$BORST_9
 10
-46.767949192429107
 20
64.465925826287545
 30
0.0
  0
INSERT
  5
177A
  8
SAPA_FOGBAND
  2
BYGG-029014$0$BORST_9
 10
-23.767949192429111
 20
64.465925826287545
 30
0.0
  0
DIMENSION
  5
1784
  8
SAPA_MATT
  2
*D82
 10
-59.714735356083622
 20
64.499999999998877
 30
0.0
 11
-62.464735356083622
 21
69.499999999998778
 31
0.0
 70
     0
 13
-29.399999999997821
 23
74.499999999998693
 33
0.0
 14
-24.500000000000231
 24
64.499999999998863
 34
0.0
 50
90.0
1001
ACAD
1000
DSTYLE
1002
{
1070
   287
1070
     4
1070
    40
1040
1.0
1070
   279
1070
     1
1002
}
  0
DIMENSION
  5
1785
  8
SAPA_MATT
  2
*D81
 10
-31.999999999997961
 20
46.592369856398641
 30
0.0
 11
-28.499999999999091
 21
49.342369856398648
 31
0.0
 70
     0
 13
-25.000000000000231
 23
63.999999999998863
 33
0.0
 14
-31.99999999999795
 24
77.099999999994168
 34
0.0
1001
ACAD
1000
DSTYLE
1002
{
1070
    40
1040
1.0
1002
}
  0
DIMENSION
  5
1786
  8
SAPA_MATT
  2
*D80
 10
-59.715131157909298
 20
74.499999999998863
 30
0.0
 11
-62.465131157909298
 21
111.49999999999881
 31
0.0
 70
     0
 13
-29.399999999999199
 23
148.49999999999869
 33
0.0
 14
-35.399999999998393
 24
74.499999999998863
 34
0.0
 50
90.0
1001
ACAD
1000
DSTYLE
1002
{
1070
    40
1040
1.0
1002
}
  0
DIMENSION
  5
1787
  8
SAPA_MATT
  2
*D79
 10
37.000000000000341
 20
-133.85639635960209
 30
0.0
 11
31.000000000000341
 21
-131.10639635960209
 31
0.0
 70
     0
 13
25.000000000000341
 23
-113.9999999990106
 33
0.0
 14
37.000000000000341
 24
-89.500000000001108
 34
0.0
1001
ACAD
1000
DSTYLE
1002
{
1070
   287
1070
     4
1070
    40
1040
1.0
1070
   279
1070
     1
1002
}
  0
DIMENSION
  5
1788
  8
SAPA_MATT
  2
*D78
 10
25.000000000000341
 20
-133.8699098731156
 30
0.0
 11
0.0000000000003412
 21
-131.1199098731156
 31
0.0
 70
     0
 13
-24.999999999999659
 23
-113.9999999990106
 33
0.0
 14
25.000000000000341
 24
-113.9999999990106
 34
0.0
1001
ACAD
1000
DSTYLE
1002
{
1070
    40
1040
1.0
1002
}
  0
VIEWPORT
  5
C4
 67
     1
  8
0
 10
143.06236603067589
 20
116.00969601843509
 30
0.0
 40
369.98580003443811
 41
256.8421457311839
 68
     1
 69
     1
1001
ACAD
1000
MVIEW
1002
{
1070
    16
1010
0.0
1020
0.0
1030
0.0
1010
0.0
1020
0.0
1030
1.0
1040
0.0
1040
256.8421457311839
1040
99.206250190734863
1040
130.70624923706049
1040
50.0
1040
0.0
1040
0.0
1070
     0
1070
     0
1070
     1
1070
     1
1070
     0
1070
     0
1070
     0
1070
     0
1040
0.0
1040
0.0
1040
0.0
1040
10.0
1040
10.0
1040
10.0
1040
10.0
1070
     0
1002
{
1002
}
1002
}
  0
ENDSEC
  0
EOF
