  0
SECTION
  2
HEADER
  9
$ACADVER
  1
AC1009
  9
$INSBASE
 10
0.0
 20
0.0
 30
0.0
  9
$EXTMIN
 10
-121.3563963596021
 20
-93.291214679413201
 30
0.0
  9
$EXTMAX
 10
142.4493904826858
 20
75.522593981595065
 30
0.0
  9
$LIMMIN
 10
0.0
 20
0.0
  9
$LIMMAX
 10
790.0
 20
790.0
  9
$ORTHOMODE
 70
     1
  9
$REGENMODE
 70
     1
  9
$FILLMODE
 70
     1
  9
$QTEXTMODE
 70
     0
  9
$MIRRTEXT
 70
     1
  9
$DRAGMODE
 70
     2
  9
$LTSCALE
 40
4.0
  9
$OSMODE
 70
   167
  9
$ATTMODE
 70
     1
  9
$TEXTSIZE
 40
3.5
  9
$TRACEWID
 40
0.05
  9
$TEXTSTYLE
  7
ISO
  9
$CLAYER
  8
0
  9
$CELTYPE
  6
BYLAYER
  9
$CECOLOR
 62
   256
  9
$DIMSCALE
 40
0.0
  9
$DIMASZ
 40
3.0
  9
$DIMEXO
 40
1.5
  9
$DIMDLI
 40
10.0
  9
$DIMRND
 40
0.0
  9
$DIMDLE
 40
0.0
  9
$DIMEXE
 40
1.5
  9
$DIMTP
 40
0.0
  9
$DIMTM
 40
0.0
  9
$DIMTXT
 40
3.0
  9
$DIMCEN
 40
-5.0
  9
$DIMTSZ
 40
0.0
  9
$DIMTOL
 70
     0
  9
$DIMLIM
 70
     0
  9
$DIMTIH
 70
     0
  9
$DIMTOH
 70
     0
  9
$DIMSE1
 70
     0
  9
$DIMSE2
 70
     0
  9
$DIMTAD
 70
     1
  9
$DIMZIN
 70
     8
  9
$DIMBLK
  1

  9
$DIMASO
 70
     1
  9
$DIMSHO
 70
     1
  9
$DIMPOST
  1

  9
$DIMAPOST
  1

  9
$DIMALT
 70
     0
  9
$DIMALTD
 70
     0
  9
$DIMALTF
 40
25.399999999999999
  9
$DIMLFAC
 40
-1.0
  9
$DIMTOFL
 70
     1
  9
$DIMTVP
 40
0.0
  9
$DIMTIX
 70
     0
  9
$DIMSOXD
 70
     0
  9
$DIMSAH
 70
     0
  9
$DIMBLK1
  1

  9
$DIMBLK2
  1

  9
$DIMSTYLE
  2
MASKIN
  9
$DIMCLRD
 70
   256
  9
$DIMCLRE
 70
   256
  9
$DIMCLRT
 70
     2
  9
$DIMTFAC
 40
1.0
  9
$DIMGAP
 40
1.0
  9
$LUNITS
 70
     2
  9
$LUPREC
 70
     8
  9
$SKETCHINC
 40
0.1
  9
$FILLETRAD
 40
0.0
  9
$AUNITS
 70
     0
  9
$AUPREC
 70
     8
  9
$MENU
  1
ACAD
  9
$ELEVATION
 40
0.0
  9
$PELEVATION
 40
0.0
  9
$THICKNESS
 40
0.0
  9
$LIMCHECK
 70
     0
  9
$BLIPMODE
 70
     0
  9
$CHAMFERA
 40
0.0
  9
$CHAMFERB
 40
0.0
  9
$SKPOLY
 70
     0
  9
$TDCREATE
 40
2454895.6957025002
  9
$TDUPDATE
 40
2456518.3979601972
  9
$TDINDWG
 40
0.0432532407
  9
$TDUSRTIMER
 40
0.0432532407
  9
$USRTIMER
 70
     1
  9
$ANGBASE
 50
0.0
  9
$ANGDIR
 70
     0
  9
$PDMODE
 70
     0
  9
$PDSIZE
 40
0.0
  9
$PLINEWID
 40
0.0
  9
$COORDS
 70
     1
  9
$SPLFRAME
 70
     0
  9
$SPLINETYPE
 70
     6
  9
$SPLINESEGS
 70
     8
  9
$ATTDIA
 70
     0
  9
$ATTREQ
 70
     1
  9
$HANDLING
 70
     1
  9
$HANDSEED
  5
2023
  9
$SURFTAB1
 70
     6
  9
$SURFTAB2
 70
     6
  9
$SURFTYPE
 70
     6
  9
$SURFU
 70
     6
  9
$SURFV
 70
     6
  9
$UCSNAME
  2

  9
$UCSORG
 10
0.0
 20
0.0
 30
0.0
  9
$UCSXDIR
 10
1.0
 20
0.0
 30
0.0
  9
$UCSYDIR
 10
0.0
 20
1.0
 30
0.0
  9
$PUCSNAME
  2

  9
$PUCSORG
 10
0.0
 20
0.0
 30
0.0
  9
$PUCSXDIR
 10
1.0
 20
0.0
 30
0.0
  9
$PUCSYDIR
 10
0.0
 20
1.0
 30
0.0
  9
$USERI1
 70
     0
  9
$USERI2
 70
     0
  9
$USERI3
 70
     0
  9
$USERI4
 70
     0
  9
$USERI5
 70
     0
  9
$USERR1
 40
0.0
  9
$USERR2
 40
0.0
  9
$USERR3
 40
0.0
  9
$USERR4
 40
0.0
  9
$USERR5
 40
0.0
  9
$WORLDVIEW
 70
     1
  9
$SHADEDGE
 70
     3
  9
$SHADEDIF
 70
    70
  9
$TILEMODE
 70
     1
  9
$MAXACTVP
 70
    16
  9
$PLIMCHECK
 70
     0
  9
$PEXTMIN
 10
1.0000000000000000E+020
 20
1.0000000000000000E+020
 30
1.0000000000000000E+020
  9
$PEXTMAX
 10
-1.0000000000000000E+020
 20
-1.0000000000000000E+020
 30
-1.0000000000000000E+020
  9
$PLIMMIN
 10
-5.069427490234375
 20
-5.8737497329711914
  9
$PLIMMAX
 10
291.89889526367187
 20
204.0995779037475
  9
$UNITMODE
 70
     0
  9
$VISRETAIN
 70
     1
  9
$PLINEGEN
 70
     0
  9
$PSLTSCALE
 70
     1
  0
ENDSEC
  0
SECTION
  2
TABLES
  0
TABLE
  2
VPORT
 70
     1
  0
VPORT
  2
*ACTIVE
 70
     0
 10
0.0
 20
0.0
 11
1.0
 21
1.0
 12
10.52703309288577
 22
35.881390894968149
 13
0.0
 23
0.0
 14
1.0
 24
1.0
 15
0.0
 25
0.0
 16
0.0
 26
0.0
 36
1.0
 17
0.0
 27
0.0
 37
0.0
 40
191.0094772587963
 41
2.112307692307692
 42
50.0
 43
0.0
 44
0.0
 50
0.0
 51
0.0
 71
     0
 72
   100
 73
     1
 74
     1
 75
     0
 76
     0
 77
     0
 78
     0
  0
ENDTAB
  0
TABLE
  2
LTYPE
 70
    25
  0
LTYPE
  2
CONTINUOUS
 70
     0
  3
Solid line
 72
    65
 73
     0
 40
0.0
  0
LTYPE
  2
BYGG-01482201$0$NEWDOT
 70
     0
  3
____ . ____ . ____ . ____ . ____ . ____ . ____
 72
    65
 73
     4
 40
2.0
 49
1.0
 49
-0.5
 49
0.0
 49
-0.5
  0
LTYPE
  2
BYGG-014357$0$NEWDOT
 70
     0
  3
____ . ____ . ____ . ____ . ____ . ____ . ____
 72
    65
 73
     4
 40
2.0
 49
1.0
 49
-0.5
 49
0.0
 49
-0.5
  0
LTYPE
  2
BYGG-014357$0$DASHDOT
 70
     0
  3
__ . __ . __ . __ . __ . __ . __ . __ . __ . __
 72
    65
 73
     4
 40
1.0
 49
0.5
 49
-0.25
 49
0.0
 49
-0.25
  0
LTYPE
  2
BYGG-014357$0$DASHED
 70
     0
  3
__ __ __ __ __ __ __ __ __ __ __ __ __ __ __
 72
    65
 73
     2
 40
0.75
 49
0.5
 49
-0.25
  0
LTYPE
  2
BYGG-014279$0$NEWDOT
 70
     0
  3
____ . ____ . ____ . ____ . ____ . ____ . ____
 72
    65
 73
     4
 40
2.0
 49
1.0
 49
-0.5
 49
0.0
 49
-0.5
  0
LTYPE
  2
BYGG-014495$0$DASHDOT
 70
     0
  3
__ . __ . __ . __ . __ . __ . __ . __ . __ . __
 72
    65
 73
     4
 40
1.0
 49
0.5
 49
-0.25
 49
0.0
 49
-0.25
  0
LTYPE
  2
BYGG-01482201$0$ZIGZAG
 70
     0
  3
Zig zag /\/\/\/\/\/\/\/\/\/\/\/\/\/\/\/\/\/\/\/\/\/\/\/
 72
    65
 73
     4
 40
20.32254
 49
0.00254
 49
-5.0800000000000001
 49
-10.16
 49
-5.0800000000000001
  0
LTYPE
  2
BYGG-014279$0$ZIGZAG
 70
     0
  3
Zig zag /\/\/\/\/\/\/\/\/\/\/\/\/\/\/\/\/\/\/\/\/\/\/\/
 72
    65
 73
     4
 40
20.32254
 49
0.00254
 49
-5.0800000000000001
 49
-10.16
 49
-5.0800000000000001
  0
LTYPE
  2
BYGG-025108$0$NEWDOT
 70
     0
  3
____ . ____ . ____ . ____ . ____ . ____ . ____
 72
    65
 73
     4
 40
2.0
 49
1.0
 49
-0.5
 49
0.0
 49
-0.5
  0
LTYPE
  2
BYGG-025108$0$DASHDOT
 70
     0
  3
__ . __ . __ . __ . __ . __ . __ . __ . __ . __
 72
    65
 73
     4
 40
1.0
 49
0.5
 49
-0.25
 49
0.0
 49
-0.25
  0
LTYPE
  2
BYGG-025108$0$DASHED
 70
     0
  3
__ __ __ __ __ __ __ __ __ __ __ __ __ __ __
 72
    65
 73
     2
 40
0.75
 49
0.5
 49
-0.25
  0
LTYPE
  2
BYGG-025108$0$PHANTOM
 70
     0
  3
Phantom ______  __  __  ______  __  __  ______
 72
    65
 73
     6
 40
63.5
 49
31.75
 49
-6.3499999999999988
 49
6.3499999999999988
 49
-6.3499999999999988
 49
6.3499999999999988
 49
-6.3499999999999988
  0
LTYPE
  2
BYGG-020805$0$NEWDOT
 70
     0
  3
____ . ____ . ____ . ____ . ____ . ____ . ____
 72
    65
 73
     4
 40
2.0
 49
1.0
 49
-0.5
 49
0.0
 49
-0.5
  0
LTYPE
  2
BYGG-020805$0$DASHDOT
 70
     0
  3
__ . __ . __ . __ . __ . __ . __ . __ . __ . __
 72
    65
 73
     4
 40
1.0
 49
0.5
 49
-0.25
 49
0.0
 49
-0.25
  0
LTYPE
  2
BYGG-020805$0$DASHED
 70
     0
  3
__ __ __ __ __ __ __ __ __ __ __ __ __ __ __
 72
    65
 73
     2
 40
0.75
 49
0.5
 49
-0.25
  0
LTYPE
  2
BYGG-020805$0$PHANTOM
 70
     0
  3
Phantom ______  __  __  ______  __  __  ______
 72
    65
 73
     6
 40
63.5
 49
31.75
 49
-6.3499999999999988
 49
6.3499999999999988
 49
-6.3499999999999988
 49
6.3499999999999988
 49
-6.3499999999999988
  0
LTYPE
  2
BYGG-022120$0$NEWDOT
 70
     0
  3
____ . ____ . ____ . ____ . ____ . ____ . ____
 72
    65
 73
     4
 40
2.0
 49
1.0
 49
-0.5
 49
0.0
 49
-0.5
  0
LTYPE
  2
BYGG-022120$0$DASHDOT
 70
     0
  3
__ . __ . __ . __ . __ . __ . __ . __ . __ . __
 72
    65
 73
     4
 40
1.0
 49
0.5
 49
-0.25
 49
0.0
 49
-0.25
  0
LTYPE
  2
BYGG-022120$0$DASHED
 70
     0
  3
__ __ __ __ __ __ __ __ __ __ __ __ __ __ __
 72
    65
 73
     2
 40
0.75
 49
0.5
 49
-0.25
  0
LTYPE
  2
BYGG-022120$0$PHANTOM
 70
     0
  3
Phantom ______  __  __  ______  __  __  ______
 72
    65
 73
     6
 40
63.5
 49
31.75
 49
-6.3499999999999988
 49
6.3499999999999988
 49
-6.3499999999999988
 49
6.3499999999999988
 49
-6.3499999999999988
  0
LTYPE
  2
BYGG-01457801$0$NEWDOT
 70
     0
  3
____ . ____ . ____ . ____ . ____ . ____ . ____
 72
    65
 73
     4
 40
2.0
 49
1.0
 49
-0.5
 49
0.0
 49
-0.5
  0
LTYPE
  2
BYGG-01457801$0$ZIGZAG
 70
     0
  3
Zig zag /\/\/\/\/\/\/\/\/\/\/\/\/\/\/\/\/\/\/\/\/\/\/\/
 72
    65
 73
     4
 40
20.32254
 49
0.00254
 49
-5.0800000000000001
 49
-10.16
 49
-5.0800000000000001
  0
LTYPE
  2
BYGG-014198$0$ZIGZAG
 70
     0
  3
Zig zag /\/\/\/\/\/\/\/\/\/\/\/\/\/\/\/\/\/\/\/\/\/\/\/
 72
    65
 73
     4
 40
20.32254
 49
0.00254
 49
-5.0800000000000001
 49
-10.16
 49
-5.0800000000000001
  0
LTYPE
  2
BYGG-014198$0$NEWDOT
 70
     0
  3
____ . ____ . ____ . ____ . ____ . ____ . ____
 72
    65
 73
     4
 40
2.0
 49
1.0
 49
-0.5
 49
0.0
 49
-0.5
  0
ENDTAB
  0
TABLE
  2
LAYER
 70
   161
  0
LAYER
  2
0
 70
     0
 62
     7
  6
CONTINUOUS
  0
LAYER
  2
DEFPOINTS
 70
     0
 62
     7
  6
CONTINUOUS
  0
LAYER
  2
SAPA_ANSLUTNING
 70
     0
 62
     6
  6
CONTINUOUS
  0
LAYER
  2
SAPA_PROFIL
 70
     0
 62
     7
  6
CONTINUOUS
  0
LAYER
  2
SAPA_ARTIKELNR
 70
     0
 62
     4
  6
CONTINUOUS
  0
LAYER
  2
SAPA_LIGHT
 70
     1
 62
     1
  6
CONTINUOUS
  0
LAYER
  2
SAPA_FYLLNING
 70
     0
 62
     4
  6
CONTINUOUS
  0
LAYER
  2
BYGG-023125$0$LIST
 70
     0
 62
     2
  6
CONTINUOUS
  0
LAYER
  2
SAPA_ISOLATOR
 70
     0
 62
     4
  6
CONTINUOUS
  0
LAYER
  2
SAPA_MATT
 70
     0
 62
     1
  6
CONTINUOUS
  0
LAYER
  2
SAPA_GLAS
 70
     0
 62
     4
  6
CONTINUOUS
  0
LAYER
  2
SAPA_FOGBAND
 70
     0
 62
     2
  6
CONTINUOUS
  0
ENDTAB
  0
TABLE
  2
STYLE
 70
    40
  0
STYLE
  2
STANDARD
 70
     0
 40
0.0
 41
1.0
 50
0.0
 71
     0
 42
0.2
  3
txt
  4

  0
STYLE
  2
ISO
 70
     0
 40
0.0
 41
1.0
 50
0.0
 71
     0
 42
3.5
  3
txt
  4

  0
STYLE
  2

 70
     1
 40
0.0
 41
1.0
 50
0.0
 71
     0
 42
0.2
  3
ltypeshp.shx
  4

  0
STYLE
  2
BYGG-021589$0$STANDARD
 70
     0
 40
0.0
 41
1.0
 50
0.0
 71
     0
 42
0.2
  3
txt
  4

  0
STYLE
  2
BYGG-021589$0$ISO
 70
     0
 40
0.0
 41
1.0
 50
0.0
 71
     0
 42
3.5
  3
isocp3.shx
  4

  0
STYLE
  2
BYGG-01482201$0$STANDARD
 70
     0
 40
0.0
 41
1.0
 50
0.0
 71
     0
 42
0.2
  3
txt
  4

  0
STYLE
  2
BYGG-01482201$0$ISO
 70
     0
 40
0.0
 41
1.0
 50
0.0
 71
     0
 42
3.5
  3
isocp3.shx
  4

  0
STYLE
  2
BYGG-021610$0$STANDARD
 70
     0
 40
0.0
 41
1.0
 50
0.0
 71
     0
 42
0.2
  3
txt
  4

  0
STYLE
  2
BYGG-021610$0$ISO
 70
     0
 40
0.0
 41
1.0
 50
0.0
 71
     0
 42
3.5
  3
isocp3.shx
  4

  0
STYLE
  2
BYGG-014357$0$STANDARD
 70
     0
 40
0.0
 41
1.0
 50
0.0
 71
     0
 42
0.2
  3
txt
  4

  0
STYLE
  2
BYGG-014357$0$ISO
 70
     0
 40
0.0
 41
1.0
 50
0.0
 71
     0
 42
3.5
  3
isocp3.shx
  4

  0
STYLE
  2
BYGG-014062$0$STANDARD
 70
     0
 40
0.0
 41
1.0
 50
0.0
 71
     0
 42
0.2
  3
txt
  4

  0
STYLE
  2
BYGG-014062$0$ISO
 70
     0
 40
0.0
 41
1.0
 50
0.0
 71
     0
 42
3.5
  3
isocp3.shx
  4

  0
STYLE
  2
BYGG-021582$0$STANDARD
 70
     0
 40
0.0
 41
1.0
 50
0.0
 71
     0
 42
0.2
  3
txt
  4

  0
STYLE
  2
BYGG-021582$0$ISO
 70
     0
 40
0.0
 41
1.0
 50
0.0
 71
     0
 42
3.5
  3
isocp3.shx
  4

  0
STYLE
  2
BYGG-014279$0$STANDARD
 70
     0
 40
0.0
 41
1.0
 50
0.0
 71
     0
 42
0.2
  3
TXT.shx
  4

  0
STYLE
  2
BYGG-014279$0$ISO
 70
     0
 40
0.0
 41
1.0
 50
0.0
 71
     0
 42
3.5
  3
iso
  4

  0
STYLE
  2
BYGG-022675$0$STANDARD
 70
     0
 40
0.0
 41
1.0
 50
0.0
 71
     0
 42
0.2
  3
txt
  4

  0
STYLE
  2
BYGG-022675$0$ISO
 70
     0
 40
0.0
 41
1.0
 50
0.0
 71
     0
 42
3.5
  3
txt
  4

  0
STYLE
  2
BYGG-025108$0$STANDARD
 70
     0
 40
0.0
 41
1.0
 50
0.0
 71
     0
 42
0.2
  3
txt
  4

  0
STYLE
  2
BYGG-025108$0$ISO
 70
     0
 40
0.0
 41
1.0
 50
0.0
 71
     0
 42
3.5
  3
txt
  4

  0
STYLE
  2
BYGG-020805$0$STANDARD
 70
     0
 40
0.0
 41
1.0
 50
0.0
 71
     0
 42
0.2
  3
txt
  4

  0
STYLE
  2
BYGG-020805$0$ISO
 70
     0
 40
0.0
 41
1.0
 50
0.0
 71
     0
 42
3.5
  3
txt
  4

  0
STYLE
  2
BYGG-026226$0$STANDARD
 70
     0
 40
0.0
 41
1.0
 50
0.0
 71
     0
 42
0.2
  3
txt
  4

  0
STYLE
  2
BYGG-026226$0$ISO
 70
     0
 40
0.0
 41
1.0
 50
0.0
 71
     0
 42
3.5
  3
isocp3.shx
  4

  0
STYLE
  2
BYGG-022681$0$STANDARD
 70
     0
 40
0.0
 41
1.0
 50
0.0
 71
     0
 42
0.2
  3
txt
  4

  0
STYLE
  2
BYGG-022681$0$ISO
 70
     0
 40
0.0
 41
1.0
 50
0.0
 71
     0
 42
3.5
  3
txt
  4

  0
STYLE
  2
BYGG-014306$0$STANDARD
 70
     0
 40
0.0
 41
1.0
 50
0.0
 71
     0
 42
0.2
  3
txt
  4

  0
STYLE
  2
BYGG-023125$0$STANDARD
 70
     0
 40
0.0
 41
1.0
 50
0.0
 71
     0
 42
0.2
  3
txt
  4

  0
STYLE
  2
BYGG-023125$0$ISO
 70
     0
 40
0.0
 41
1.0
 50
0.0
 71
     0
 42
3.5
  3
txt
  4

  0
STYLE
  2
BYGG-014495$0$STANDARD
 70
     0
 40
0.0
 41
1.0
 50
0.0
 71
     0
 42
0.2
  3
txt
  4

  0
STYLE
  2
BYGG-014495$0$ISO
 70
     0
 40
0.0
 41
1.0
 50
0.0
 71
     0
 42
3.5
  3
isocp3.shx
  4

  0
STYLE
  2
BYGG-022120$0$STANDARD
 70
     0
 40
0.0
 41
1.0
 50
0.0
 71
     0
 42
0.2
  3
txt
  4

  0
STYLE
  2
BYGG-022120$0$ISO
 70
     0
 40
0.0
 41
1.0
 50
0.0
 71
     0
 42
3.5
  3
txt
  4

  0
STYLE
  2
BYGG-01457801$0$STANDARD
 70
     0
 40
0.0
 41
1.0
 50
0.0
 71
     0
 42
0.2
  3
txt
  4

  0
STYLE
  2
BYGG-01457801$0$ISO
 70
     0
 40
0.0
 41
1.0
 50
0.0
 71
     0
 42
2.5
  3
isocp3.shx
  4

  0
STYLE
  2
BYGG-022709$0$STANDARD
 70
     0
 40
0.0
 41
1.0
 50
0.0
 71
     0
 42
0.2
  3
txt
  4

  0
STYLE
  2
BYGG-022709$0$ISO
 70
     0
 40
0.0
 41
1.0
 50
0.0
 71
     0
 42
3.5
  3
txt
  4

  0
STYLE
  2
BYGG-014198$0$STANDARD
 70
     0
 40
0.0
 41
1.0
 50
0.0
 71
     0
 42
0.2
  3
txt
  4

  0
STYLE
  2
BYGG-014198$0$ISO
 70
     0
 40
0.0
 41
1.0
 50
0.0
 71
     0
 42
3.5
  3
isocp3.shx
  4

  0
ENDTAB
  0
TABLE
  2
VIEW
 70
     0
  0
ENDTAB
  0
TABLE
  2
UCS
 70
     0
  0
ENDTAB
  0
TABLE
  2
APPID
 70
    24
  0
APPID
  2
ACAD
 70
     0
  0
APPID
  2
ACAD_DSTYLE_DIMTEXT_FILL
 70
     0
  0
APPID
  2
ACAD_DSTYLE_DIMEXT_LENGTH
 70
     0
  0
APPID
  2
ACAD_DSTYLE_DIMEXT_ENABLED
 70
     0
  0
APPID
  2
ACAD_DSTYLE_DIM_LINETYPE
 70
     0
  0
APPID
  2
ACAD_DSTYLE_DIM_EXT1_LINETYPE
 70
     0
  0
APPID
  2
ACAD_DSTYLE_DIM_EXT2_LINETYPE
 70
     0
  0
APPID
  2
ACAD_DSTYLE_DIMJOGGED_JOGA
 70
     0
  0
APPID
  2
ACAD_DSTYLE_DIMARC_LENGTH_
 70
     0
  0
APPID
  2
ACAD_PSEXT
 70
     0
  0
APPID
  2
ACAD_MLEADERVER
 70
     0
  0
APPID
  2
AMG_ARCHIVE11
 70
     0
  0
APPID
  2
ACAD_EXEMPT_FROM_CAD_STANDARDS
 70
     0
  0
APPID
  2
ACADANNOTATIVE
 70
     0
  0
APPID
  2
ACAECLAYERSTANDARD
 70
     0
  0
APPID
  2
ACAD_DSTYLE_DIMJAG
 70
     0
  0
APPID
  2
ACAD_DSTYLE_DIMTALN
 70
     0
  0
APPID
  2
AME_SOL
 70
     0
  0
APPID
  2
ACAD_NAV_VCDISPLAY
 70
     0
  0
APPID
  2
ACDBDYNAMICBLOCKGUID
 70
     0
  0
APPID
  2
ACDBBLOCKREPETAG
 70
     0
  0
APPID
  2
AEC_XDATA_BOUND_SPACE
 70
     0
  0
APPID
  2
ACCMTRANSPARENCY
 70
     0
  0
APPID
  2
CONTENTBLOCKICON
 70
     0
  0
ENDTAB
  0
TABLE
  2
DIMSTYLE
 70
    36
  0
DIMSTYLE
  2
MASKIN
 70
     0
  3

  4

  5

  6

  7

 40
0.0
 41
3.0
 42
1.5
 43
10.0
 44
1.5
 45
0.0
 46
0.0
 47
0.0
 48
0.0
140
3.0
141
-5.0
142
0.0
143
25.399999999999999
144
-1.0
145
0.0
146
1.0
147
1.0
 71
     0
 72
     0
 73
     0
 74
     0
 75
     0
 76
     0
 77
     1
 78
     8
170
     0
171
     0
172
     1
173
     0
174
     0
175
     0
176
   256
177
   256
178
     2
  0
DIMSTYLE
  2
BYGG-021589$0$MASKIN
 70
     0
  3

  4

  5

  6

  7

 40
0.0
 41
3.0
 42
1.5
 43
10.0
 44
1.5
 45
0.0
 46
0.0
 47
0.0
 48
0.0
140
3.0
141
-5.0
142
0.0
143
25.399999999999999
144
-1.0
145
0.0
146
1.0
147
1.0
 71
     0
 72
     0
 73
     0
 74
     0
 75
     0
 76
     0
 77
     1
 78
     8
170
     0
171
     0
172
     1
173
     0
174
     0
175
     0
176
   256
177
   256
178
   256
  0
DIMSTYLE
  2
BYGG-01482201$0$STANDARD
 70
     0
  3

  4

  5

  6

  7

 40
1.0
 41
0.18
 42
0.0625
 43
0.38
 44
0.18
 45
0.0
 46
0.0
 47
0.0
 48
0.0
140
0.18
141
0.09
142
0.0
143
25.399999999999999
144
1.0
145
0.0
146
1.0
147
0.09
 71
     0
 72
     0
 73
     1
 74
     1
 75
     0
 76
     0
 77
     0
 78
     0
170
     0
171
     2
172
     0
173
     0
174
     0
175
     0
176
     0
177
     0
178
     0
  0
DIMSTYLE
  2
BYGG-01482201$0$MASKIN
 70
     0
  3

  4

  5

  6

  7

 40
0.0
 41
3.0
 42
1.5
 43
10.0
 44
1.5
 45
0.0
 46
0.0
 47
0.0
 48
0.0
140
3.0
141
-5.0
142
0.0
143
25.399999999999999
144
-1.0
145
0.0
146
1.0
147
1.0
 71
     0
 72
     0
 73
     0
 74
     1
 75
     0
 76
     0
 77
     1
 78
     8
170
     0
171
     0
172
     1
173
     0
174
     0
175
     0
176
   256
177
   256
178
     2
  0
DIMSTYLE
  2
BYGG-021610$0$MASKIN
 70
     0
  3

  4

  5

  6

  7

 40
0.0
 41
3.0
 42
1.5
 43
10.0
 44
1.5
 45
0.0
 46
0.0
 47
0.0
 48
0.0
140
3.0
141
-5.0
142
0.0
143
25.399999999999999
144
-1.0
145
0.0
146
1.0
147
1.0
 71
     0
 72
     0
 73
     0
 74
     0
 75
     0
 76
     0
 77
     1
 78
     8
170
     0
171
     0
172
     1
173
     0
174
     0
175
     0
176
   256
177
   256
178
   256
  0
DIMSTYLE
  2
BYGG-014357$0$MASKIN
 70
     0
  3

  4

  5

  6

  7

 40
0.0
 41
3.0
 42
1.5
 43
10.0
 44
1.5
 45
0.0
 46
0.0
 47
0.0
 48
0.0
140
3.0
141
-5.0
142
0.0
143
25.399999999999999
144
-1.0
145
0.0
146
1.0
147
1.0
 71
     0
 72
     0
 73
     0
 74
     0
 75
     0
 76
     0
 77
     1
 78
     8
170
     0
171
     0
172
     1
173
     0
174
     0
175
     0
176
   256
177
   256
178
   256
  0
DIMSTYLE
  2
BYGG-014357$0$MASKIN1
 70
     0
  3

  4

  5

  6

  7

 40
1.0
 41
3.0
 42
1.5
 43
10.0
 44
1.5
 45
0.0
 46
0.0
 47
0.0
 48
0.0
140
3.0
141
-5.0
142
0.0
143
25.399999999999999
144
1.0
145
0.0
146
1.0
147
0.9
 71
     0
 72
     0
 73
     0
 74
     0
 75
     0
 76
     0
 77
     1
 78
     8
170
     0
171
     0
172
     1
173
     0
174
     0
175
     0
176
   256
177
   256
178
   256
  0
DIMSTYLE
  2
BYGG-014357$0$MASKIN2
 70
     0
  3

  4

  5

  6

  7

 40
1.0
 41
3.0
 42
1.5
 43
10.0
 44
1.5
 45
0.0
 46
0.0
 47
0.0
 48
0.0
140
3.0
141
-5.0
142
0.0
143
25.399999999999999
144
1.0
145
0.0
146
1.0
147
0.9
 71
     0
 72
     0
 73
     0
 74
     0
 75
     0
 76
     0
 77
     1
 78
     8
170
     0
171
     0
172
     1
173
     0
174
     0
175
     0
176
   256
177
   256
178
   256
  0
DIMSTYLE
  2
BYGG-014357$0$MASKIN3
 70
     0
  3

  4

  5

  6

  7

 40
1.0
 41
3.0
 42
1.5
 43
10.0
 44
1.5
 45
0.0
 46
0.0
 47
0.0
 48
0.0
140
3.0
141
-5.0
142
0.0
143
25.399999999999999
144
1.0
145
0.0
146
1.0
147
0.9
 71
     0
 72
     0
 73
     0
 74
     0
 75
     0
 76
     0
 77
     1
 78
     8
170
     0
171
     0
172
     1
173
     0
174
     0
175
     0
176
   256
177
   256
178
   256
  0
DIMSTYLE
  2
BYGG-014357$0$DMST_1
 70
     0
  3

  4

  5

  6

  7

 40
1.0
 41
0.7000000000000002
 42
0.0
 43
7.0
 44
0.4
 45
0.0
 46
0.0
 47
0.15
 48
0.15
140
0.7000000000000002
141
0.0
142
0.0
143
25.399999999999999
144
1.0
145
0.0
146
0.7
147
0.09
 71
     1
 72
     0
 73
     0
 74
     0
 75
     0
 76
     0
 77
     1
 78
     9
170
     0
171
     2
172
     0
173
     0
174
     0
175
     0
176
     1
177
     1
178
     2
  0
DIMSTYLE
  2
BYGG-014062$0$MASKIN
 70
     0
  3

  4

  5

  6

  7

 40
0.0
 41
3.0
 42
1.5
 43
10.0
 44
1.5
 45
0.0
 46
0.0
 47
0.0
 48
0.0
140
3.0
141
-5.0
142
0.0
143
25.399999999999999
144
-1.0
145
0.0
146
1.0
147
1.0
 71
     0
 72
     0
 73
     0
 74
     0
 75
     0
 76
     0
 77
     1
 78
     8
170
     0
171
     0
172
     1
173
     0
174
     0
175
     0
176
   256
177
   256
178
   256
  0
DIMSTYLE
  2
BYGG-014062$0$STANDARD
 70
     0
  3

  4

  5

  6

  7

 40
1.0
 41
0.18
 42
0.0625
 43
0.38
 44
0.18
 45
0.0
 46
0.0
 47
0.0
 48
0.0
140
0.18
141
0.09
142
0.0
143
25.399999999999999
144
1.0
145
0.0
146
1.0
147
0.09
 71
     0
 72
     0
 73
     1
 74
     1
 75
     0
 76
     0
 77
     0
 78
     0
170
     0
171
     2
172
     0
173
     0
174
     0
175
     0
176
     0
177
     0
178
     0
  0
DIMSTYLE
  2
BYGG-021582$0$MASKIN
 70
     0
  3

  4

  5

  6

  7

 40
0.0
 41
3.0
 42
1.5
 43
10.0
 44
1.5
 45
0.0
 46
0.0
 47
0.0
 48
0.0
140
3.0
141
-5.0
142
0.0
143
25.399999999999999
144
-1.0
145
0.0
146
1.0
147
1.0
 71
     0
 72
     0
 73
     0
 74
     0
 75
     0
 76
     0
 77
     1
 78
     8
170
     0
171
     0
172
     1
173
     0
174
     0
175
     0
176
   256
177
   256
178
   256
  0
DIMSTYLE
  2
BYGG-014279$0$STANDARD
 70
     0
  3

  4

  5

  6

  7

 40
1.0
 41
0.18
 42
0.0625
 43
0.38
 44
0.18
 45
0.0
 46
0.0
 47
0.0
 48
0.0
140
0.18
141
0.09
142
0.0
143
25.399999999999999
144
1.0
145
0.0
146
1.0
147
0.09
 71
     0
 72
     0
 73
     1
 74
     1
 75
     0
 76
     0
 77
     0
 78
     0
170
     0
171
     2
172
     0
173
     0
174
     0
175
     0
176
     0
177
     0
178
     0
  0
DIMSTYLE
  2
BYGG-014279$0$MASKIN
 70
     0
  3

  4

  5

  6

  7

 40
0.0
 41
3.0
 42
1.5
 43
10.0
 44
1.5
 45
0.0
 46
0.0
 47
0.0
 48
0.0
140
3.0
141
-5.0
142
0.0
143
25.399999999999999
144
-1.0
145
0.0
146
1.0
147
1.0
 71
     0
 72
     0
 73
     0
 74
     1
 75
     0
 76
     0
 77
     1
 78
     8
170
     0
171
     0
172
     1
173
     0
174
     0
175
     0
176
   256
177
   256
178
     2
  0
DIMSTYLE
  2
BYGG-022675$0$STANDARD
 70
     0
  3

  4

  5

  6

  7

 40
1.0
 41
0.18
 42
0.0625
 43
0.38
 44
0.18
 45
0.0
 46
0.0
 47
0.0
 48
0.0
140
0.18
141
0.09
142
0.0
143
25.399999999999999
144
1.0
145
0.0
146
1.0
147
0.09
 71
     0
 72
     0
 73
     1
 74
     1
 75
     0
 76
     0
 77
     0
 78
     0
170
     0
171
     2
172
     0
173
     0
174
     0
175
     0
176
     0
177
     0
178
     0
  0
DIMSTYLE
  2
BYGG-022675$0$MASKIN
 70
     0
  3

  4

  5

  6

  7

 40
0.0
 41
3.0
 42
1.5
 43
10.0
 44
1.5
 45
0.0
 46
0.0
 47
0.0
 48
0.0
140
3.0
141
-5.0
142
0.0
143
25.399999999999999
144
-1.0
145
0.0
146
1.0
147
1.0
 71
     0
 72
     0
 73
     0
 74
     0
 75
     0
 76
     0
 77
     1
 78
     8
170
     0
171
     0
172
     1
173
     0
174
     0
175
     0
176
   256
177
   256
178
     2
  0
DIMSTYLE
  2
BYGG-025108$0$STANDARD
 70
     0
  3

  4

  5

  6

  7

 40
1.0
 41
0.18
 42
0.0625
 43
0.38
 44
0.18
 45
0.0
 46
0.0
 47
0.0
 48
0.0
140
0.18
141
0.09
142
0.0
143
25.399999999999999
144
1.0
145
0.0
146
1.0
147
0.09
 71
     0
 72
     0
 73
     1
 74
     1
 75
     0
 76
     0
 77
     0
 78
     0
170
     0
171
     2
172
     0
173
     0
174
     0
175
     0
176
     0
177
     0
178
     0
  0
DIMSTYLE
  2
BYGG-025108$0$MASKIN
 70
     0
  3

  4

  5

  6

  7

 40
0.0
 41
3.0
 42
1.5
 43
10.0
 44
1.5
 45
0.0
 46
0.0
 47
0.0
 48
0.0
140
3.0
141
-5.0
142
0.0
143
25.399999999999999
144
-1.0
145
0.0
146
1.0
147
1.0
 71
     0
 72
     0
 73
     0
 74
     0
 75
     0
 76
     0
 77
     1
 78
     8
170
     0
171
     0
172
     1
173
     0
174
     0
175
     0
176
   256
177
   256
178
     2
  0
DIMSTYLE
  2
BYGG-020805$0$STANDARD
 70
     0
  3

  4

  5

  6

  7

 40
1.0
 41
0.18
 42
0.0625
 43
0.38
 44
0.18
 45
0.0
 46
0.0
 47
0.0
 48
0.0
140
0.18
141
0.09
142
0.0
143
25.399999999999999
144
1.0
145
0.0
146
1.0
147
0.09
 71
     0
 72
     0
 73
     1
 74
     1
 75
     0
 76
     0
 77
     0
 78
     0
170
     0
171
     2
172
     0
173
     0
174
     0
175
     0
176
     0
177
     0
178
     0
  0
DIMSTYLE
  2
BYGG-020805$0$MASKIN
 70
     0
  3

  4

  5

  6

  7

 40
0.0
 41
3.0
 42
1.5
 43
10.0
 44
1.5
 45
0.0
 46
0.0
 47
0.0
 48
0.0
140
3.0
141
-5.0
142
0.0
143
25.399999999999999
144
-1.0
145
0.0
146
1.0
147
1.0
 71
     0
 72
     0
 73
     0
 74
     0
 75
     0
 76
     0
 77
     1
 78
     8
170
     0
171
     0
172
     1
173
     0
174
     0
175
     0
176
   256
177
   256
178
     2
  0
DIMSTYLE
  2
BYGG-026226$0$MASKIN
 70
     0
  3

  4

  5

  6

  7

 40
0.0
 41
3.0
 42
1.5
 43
10.0
 44
1.5
 45
0.0
 46
0.0
 47
0.0
 48
0.0
140
3.0
141
-5.0
142
0.0
143
25.399999999999999
144
-1.0
145
0.0
146
1.0
147
1.0
 71
     0
 72
     0
 73
     0
 74
     0
 75
     0
 76
     0
 77
     1
 78
     8
170
     0
171
     0
172
     1
173
     0
174
     0
175
     0
176
   256
177
   256
178
   256
  0
DIMSTYLE
  2
BYGG-022681$0$STANDARD
 70
     0
  3

  4

  5

  6

  7

 40
1.0
 41
0.18
 42
0.0625
 43
0.38
 44
0.18
 45
0.0
 46
0.0
 47
0.0
 48
0.0
140
0.18
141
0.09
142
0.0
143
25.399999999999999
144
1.0
145
0.0
146
1.0
147
0.09
 71
     0
 72
     0
 73
     1
 74
     1
 75
     0
 76
     0
 77
     0
 78
     0
170
     0
171
     2
172
     0
173
     0
174
     0
175
     0
176
     0
177
     0
178
     0
  0
DIMSTYLE
  2
BYGG-022681$0$MASKIN
 70
     0
  3

  4

  5

  6

  7

 40
0.0
 41
3.0
 42
1.5
 43
10.0
 44
1.5
 45
0.0
 46
0.0
 47
0.0
 48
0.0
140
3.0
141
-5.0
142
0.0
143
25.399999999999999
144
-1.0
145
0.0
146
1.0
147
1.0
 71
     0
 72
     0
 73
     0
 74
     0
 75
     0
 76
     0
 77
     1
 78
     8
170
     0
171
     0
172
     1
173
     0
174
     0
175
     0
176
   256
177
   256
178
     2
  0
DIMSTYLE
  2
BYGG-014306$0$STANDARD
 70
     0
  3

  4

  5

  6

  7

 40
1.0
 41
0.18
 42
0.0625
 43
0.38
 44
0.18
 45
0.0
 46
0.0
 47
0.0
 48
0.0
140
0.18
141
0.09
142
0.0
143
25.399999999999999
144
1.0
145
0.0
146
1.0
147
0.09
 71
     0
 72
     0
 73
     1
 74
     1
 75
     0
 76
     0
 77
     0
 78
     0
170
     0
171
     2
172
     0
173
     0
174
     0
175
     0
176
     0
177
     0
178
     0
  0
DIMSTYLE
  2
BYGG-023125$0$STANDARD
 70
     0
  3

  4

  5

  6

  7

 40
1.0
 41
0.18
 42
0.0625
 43
0.38
 44
0.18
 45
0.0
 46
0.0
 47
0.0
 48
0.0
140
0.18
141
0.09
142
0.0
143
25.399999999999999
144
1.0
145
0.0
146
1.0
147
0.09
 71
     0
 72
     0
 73
     1
 74
     1
 75
     0
 76
     0
 77
     0
 78
     0
170
     0
171
     2
172
     0
173
     0
174
     0
175
     0
176
     0
177
     0
178
     0
  0
DIMSTYLE
  2
BYGG-023125$0$MASKIN
 70
     0
  3

  4

  5

  6

  7

 40
0.0
 41
3.0
 42
1.5
 43
10.0
 44
1.5
 45
0.0
 46
0.0
 47
0.0
 48
0.0
140
3.0
141
-5.0
142
0.0
143
25.399999999999999
144
-1.0
145
0.0
146
1.0
147
1.0
 71
     0
 72
     0
 73
     0
 74
     0
 75
     0
 76
     0
 77
     1
 78
     8
170
     0
171
     0
172
     1
173
     0
174
     0
175
     0
176
   256
177
   256
178
     2
  0
DIMSTYLE
  2
BYGG-014495$0$MASKIN
 70
     0
  3

  4

  5

  6

  7

 40
0.0
 41
3.0
 42
1.5
 43
10.0
 44
1.5
 45
0.0
 46
0.0
 47
0.0
 48
0.0
140
3.0
141
-5.0
142
0.0
143
25.399999999999999
144
-1.0
145
0.0
146
1.0
147
1.0
 71
     0
 72
     0
 73
     0
 74
     0
 75
     0
 76
     0
 77
     1
 78
     8
170
     0
171
     0
172
     1
173
     0
174
     0
175
     0
176
   256
177
   256
178
     2
  0
DIMSTYLE
  2
BYGG-022120$0$STANDARD
 70
     0
  3

  4

  5

  6

  7

 40
1.0
 41
0.18
 42
0.0625
 43
0.38
 44
0.18
 45
0.0
 46
0.0
 47
0.0
 48
0.0
140
0.18
141
0.09
142
0.0
143
25.399999999999999
144
1.0
145
0.0
146
1.0
147
0.09
 71
     0
 72
     0
 73
     1
 74
     1
 75
     0
 76
     0
 77
     0
 78
     0
170
     0
171
     2
172
     0
173
     0
174
     0
175
     0
176
     0
177
     0
178
     0
  0
DIMSTYLE
  2
BYGG-022120$0$MASKIN
 70
     0
  3

  4

  5

  6

  7

 40
0.0
 41
3.0
 42
1.5
 43
10.0
 44
1.5
 45
0.0
 46
0.0
 47
0.0
 48
0.0
140
3.0
141
-5.0
142
0.0
143
25.399999999999999
144
-1.0
145
0.0
146
1.0
147
1.0
 71
     0
 72
     0
 73
     0
 74
     0
 75
     0
 76
     0
 77
     1
 78
     8
170
     0
171
     0
172
     1
173
     0
174
     0
175
     0
176
   256
177
   256
178
     2
  0
DIMSTYLE
  2
BYGG-01457801$0$STANDARD
 70
     0
  3

  4

  5

  6

  7

 40
1.0
 41
0.18
 42
0.0625
 43
0.38
 44
0.18
 45
0.0
 46
0.0
 47
0.0
 48
0.0
140
0.18
141
0.09
142
0.0
143
25.399999999999999
144
1.0
145
0.0
146
1.0
147
0.09
 71
     0
 72
     0
 73
     1
 74
     1
 75
     0
 76
     0
 77
     0
 78
     0
170
     0
171
     2
172
     0
173
     0
174
     0
175
     0
176
     0
177
     0
178
     0
  0
DIMSTYLE
  2
BYGG-01457801$0$MASKIN
 70
     0
  3

  4

  5

  6

  7

 40
0.0
 41
3.0
 42
1.5
 43
10.0
 44
1.5
 45
0.0
 46
0.0
 47
0.0
 48
0.0
140
3.0
141
-5.0
142
0.0
143
25.399999999999999
144
-1.0
145
0.0
146
1.0
147
1.0
 71
     0
 72
     0
 73
     0
 74
     1
 75
     0
 76
     0
 77
     1
 78
     8
170
     0
171
     0
172
     1
173
     0
174
     0
175
     0
176
   256
177
   256
178
     2
  0
DIMSTYLE
  2
BYGG-022709$0$STANDARD
 70
     0
  3

  4

  5

  6

  7

 40
1.0
 41
0.18
 42
0.0625
 43
0.38
 44
0.18
 45
0.0
 46
0.0
 47
0.0
 48
0.0
140
0.18
141
0.09
142
0.0
143
25.399999999999999
144
1.0
145
0.0
146
1.0
147
0.09
 71
     0
 72
     0
 73
     1
 74
     1
 75
     0
 76
     0
 77
     0
 78
     0
170
     0
171
     2
172
     0
173
     0
174
     0
175
     0
176
     0
177
     0
178
     0
  0
DIMSTYLE
  2
BYGG-022709$0$MASKIN
 70
     0
  3

  4

  5

  6

  7

 40
0.0
 41
3.0
 42
1.5
 43
10.0
 44
1.5
 45
0.0
 46
0.0
 47
0.0
 48
0.0
140
3.0
141
-5.0
142
0.0
143
25.399999999999999
144
-1.0
145
0.0
146
1.0
147
1.0
 71
     0
 72
     0
 73
     0
 74
     0
 75
     0
 76
     0
 77
     1
 78
     8
170
     0
171
     0
172
     1
173
     0
174
     0
175
     0
176
   256
177
   256
178
     2
  0
DIMSTYLE
  2
BYGG-014198$0$STANDARD
 70
     0
  3

  4

  5

  6

  7

 40
1.0
 41
0.18
 42
0.0625
 43
0.38
 44
0.18
 45
0.0
 46
0.0
 47
0.0
 48
0.0
140
0.18
141
0.09
142
0.0
143
25.399999999999999
144
1.0
145
0.0
146
1.0
147
0.09
 71
     0
 72
     0
 73
     1
 74
     1
 75
     0
 76
     0
 77
     0
 78
     0
170
     0
171
     2
172
     0
173
     0
174
     0
175
     0
176
     0
177
     0
178
     0
  0
DIMSTYLE
  2
BYGG-014198$0$MASKIN
 70
     0
  3

  4

  5

  6

  7

 40
0.0
 41
3.0
 42
1.5
 43
10.0
 44
1.5
 45
0.0
 46
0.0
 47
0.0
 48
0.0
140
3.0
141
-5.0
142
0.0
143
25.399999999999999
144
-1.0
145
0.0
146
1.0
147
1.0
 71
     0
 72
     0
 73
     0
 74
     0
 75
     0
 76
     0
 77
     1
 78
     8
170
     0
171
     0
172
     1
173
     0
174
     0
175
     0
176
   256
177
   256
178
   256
  0
ENDTAB
  0
ENDSEC
  0
SECTION
  2
BLOCKS
  0
BLOCK
  8
0
  2
$MODEL_SPACE
 70
     0
 10
0.0
 20
0.0
 30
0.0
  3
$MODEL_SPACE
  1

  0
ENDBLK
  5
37
  8
0
  0
BLOCK
 67
     1
  8
0
  2
$PAPER_SPACE
 70
     0
 10
0.0
 20
0.0
 30
0.0
  3
$PAPER_SPACE
  1

  0
ENDBLK
  5
35
 67
     1
  8
0
  0
BLOCK
  8
0
  2
BYGG-023125$0$BORST_9
 70
     0
 10
0.0
 20
0.0
 30
0.0
  3
BYGG-023125$0$BORST_9
  1

  0
POLYLINE
  5
1335
  8
BYGG-023125$0$LIST
 66
     1
 10
0.0
 20
0.0
 30
0.0
 70
     1
  0
VERTEX
  5
1821
  8
BYGG-023125$0$LIST
 10
32.117949192431162
 20
1.9000000000000901
 30
0.0
  0
VERTEX
  5
1822
  8
BYGG-023125$0$LIST
 10
32.117949192431162
 20
2.7000000000000912
 30
0.0
  0
VERTEX
  5
1823
  8
BYGG-023125$0$LIST
 10
25.417949192431159
 20
2.7000000000000912
 30
0.0
  0
VERTEX
  5
1824
  8
BYGG-023125$0$LIST
 10
25.417949192431159
 20
1.9000000000000901
 30
0.0
  0
SEQEND
  5
1825
  8
BYGG-023125$0$LIST
  0
POLYLINE
  5
1336
  8
BYGG-023125$0$LIST
 66
     1
 10
0.0
 20
0.0
 30
0.0
  0
VERTEX
  5
1826
  8
BYGG-023125$0$LIST
 10
28.263363943662679
 20
2.7000000000000912
 30
0.0
  0
VERTEX
  5
1827
  8
BYGG-023125$0$LIST
 10
26.769574652555221
 20
10.03407417371101
 30
0.0
  0
SEQEND
  5
1828
  8
BYGG-023125$0$LIST
  0
POLYLINE
  5
1337
  8
BYGG-023125$0$LIST
 66
     1
 10
0.0
 20
0.0
 30
0.0
  0
VERTEX
  5
1829
  8
BYGG-023125$0$LIST
 10
28.553855340273739
 20
2.7000000000000339
 30
0.0
  0
VERTEX
  5
182A
  8
BYGG-023125$0$LIST
 10
27.93644453893258
 20
10.03407417371101
 30
0.0
  0
SEQEND
  5
182B
  8
BYGG-023125$0$LIST
  0
POLYLINE
  5
1338
  8
BYGG-023125$0$LIST
 66
     1
 10
0.0
 20
0.0
 30
0.0
  0
VERTEX
  5
182C
  8
BYGG-023125$0$LIST
 10
29.012314217007489
 20
2.7000000000000339
 30
0.0
  0
VERTEX
  5
182D
  8
BYGG-023125$0$LIST
 10
30.000741956894529
 20
10.03407417371101
 30
0.0
  0
SEQEND
  5
182E
  8
BYGG-023125$0$LIST
  0
POLYLINE
  5
1339
  8
BYGG-023125$0$LIST
 66
     1
 10
0.0
 20
0.0
 30
0.0
  0
VERTEX
  5
182F
  8
BYGG-023125$0$LIST
 10
29.18507150798786
 20
2.7000000000000339
 30
0.0
  0
VERTEX
  5
1830
  8
BYGG-023125$0$LIST
 10
30.980798090752462
 20
10.03407417371101
 30
0.0
  0
SEQEND
  5
1831
  8
BYGG-023125$0$LIST
  0
LINE
  5
133A
  8
0
 10
28.667949192431159
 20
10.03407417371101
 30
0.0
 11
28.867949192431169
 21
10.03407417371101
 31
0.0
  0
LINE
  5
133B
  8
0
 10
28.867949192431158
 20
2.7000000000000912
 30
0.0
 11
28.867949192431169
 21
10.03407417371101
 31
0.0
  0
LINE
  5
133C
  8
0
 10
28.667949192431159
 20
2.7000000000000912
 30
0.0
 11
28.667949192431159
 21
10.03407417371101
 31
0.0
  0
ENDBLK
  5
133D
  8
0
  0
BLOCK
  8
0
  2
*D58
 70
     1
 10
0.0
 20
0.0
 30
0.0
  3
*D58
  1

  0
LINE
  5
177B
  8
SAPA_MATT
 10
-97.499999999010555
 20
24.99999999999968
 30
0.0
 11
-117.3563963596021
 21
24.99999999999968
 31
0.0
  0
LINE
  5
177C
  8
SAPA_MATT
 10
-97.499999999010555
 20
-25.00000000000033
 30
0.0
 11
-117.3563963596021
 21
-25.00000000000032
 31
0.0
  0
LINE
  5
177D
  8
SAPA_MATT
 10
-115.8563963596021
 20
21.99999999999968
 30
0.0
 11
-115.8563963596021
 21
-22.00000000000033
 31
0.0
  0
SOLID
  5
177E
  8
SAPA_MATT
 10
-116.3563963596021
 20
21.99999999999968
 30
0.0
 11
-115.3563963596021
 21
21.99999999999968
 31
0.0
 12
-115.8563963596021
 22
24.99999999999968
 32
0.0
 13
-115.8563963596021
 23
24.99999999999968
 33
0.0
  0
SOLID
  5
177F
  8
SAPA_MATT
 10
-116.3563963596021
 20
-22.00000000000033
 30
0.0
 11
-115.3563963596021
 21
-22.00000000000033
 31
0.0
 12
-115.8563963596021
 22
-25.00000000000032
 32
0.0
 13
-115.8563963596021
 23
-25.00000000000032
 33
0.0
  0
INSERT
  5
1780
  8
0
  2
*U71
 10
0.0
 20
0.0
 30
0.0
  0
POINT
  5
1781
  8
DEFPOINTS
 62
     0
 10
-95.999999999010555
 20
24.99999999999968
 30
0.0
  0
POINT
  5
1782
  8
DEFPOINTS
 62
     0
 10
-95.999999999010555
 20
-25.00000000000033
 30
0.0
  0
POINT
  5
1783
  8
DEFPOINTS
 62
     0
 10
-115.8563963596021
 20
-25.00000000000032
 30
0.0
  0
ENDBLK
  5
1732
  8
0
  0
BLOCK
  8
0
  2
*D59
 70
     1
 10
0.0
 20
0.0
 30
0.0
  3
*D59
  1

  0
LINE
  5
2010
  8
SAPA_MATT
 10
-97.499999999010583
 20
-25.00000000000033
 30
0.0
 11
-117.3563963596021
 21
-25.00000000000032
 31
0.0
  0
LINE
  5
2011
  8
SAPA_MATT
 10
-77.007832962818824
 20
-37.000000000000327
 30
0.0
 11
-117.3563963596021
 21
-37.000000000000313
 31
0.0
  0
LINE
  5
2012
  8
SAPA_MATT
 10
-115.8563963596021
 20
-28.00000000000033
 30
0.0
 11
-115.8563963596021
 21
-34.000000000000313
 31
0.0
  0
SOLID
  5
2013
  8
SAPA_MATT
 10
-116.3563963596021
 20
-28.00000000000033
 30
0.0
 11
-115.3563963596021
 21
-28.00000000000033
 31
0.0
 12
-115.8563963596021
 22
-25.00000000000032
 32
0.0
 13
-115.8563963596021
 23
-25.00000000000032
 33
0.0
  0
SOLID
  5
2014
  8
SAPA_MATT
 10
-116.3563963596021
 20
-34.000000000000313
 30
0.0
 11
-115.3563963596021
 21
-34.000000000000313
 31
0.0
 12
-115.8563963596021
 22
-37.000000000000313
 32
0.0
 13
-115.8563963596021
 23
-37.000000000000313
 33
0.0
  0
TEXT
  8
SAPA_MATT
  40
3
  5
2021
  62
2
  72
0
  71
0
 10
-124.356
 20
-36.3100
 30
0.000000
  1
12
  7
ISO
  0
POINT
  5
2016
  8
DEFPOINTS
 62
     0
 10
-95.999999999010583
 20
-25.00000000000033
 30
0.0
  0
POINT
  5
2017
  8
DEFPOINTS
 62
     0
 10
-75.507832962818838
 20
-37.000000000000327
 30
0.0
  0
POINT
  5
2018
  8
DEFPOINTS
 62
     0
 10
-115.8563963596021
 20
-37.000000000000313
 30
0.0
  0
ENDBLK
  5
173E
  8
0
  0
BLOCK
  8
0
  2
*D60
 70
     1
 10
0.0
 20
0.0
 30
0.0
  3
*D60
  1

  0
LINE
  5
1769
  8
SAPA_MATT
 10
64.499999999998877
 20
26.000000000000231
 30
0.0
 11
64.499999999998877
 21
44.049455477510492
 31
0.0
  0
LINE
  5
176A
  8
SAPA_MATT
 10
74.499999999998806
 20
1.1999999999999309
 30
0.0
 11
74.499999999998806
 21
44.049455477510492
 31
0.0
  0
LINE
  5
176B
  8
SAPA_MATT
 10
67.499999999998877
 20
42.549455477510492
 30
0.0
 11
71.499999999998806
 21
42.549455477510492
 31
0.0
  0
SOLID
  5
176C
  8
SAPA_MATT
 10
67.499999999998877
 20
43.049455477510477
 30
0.0
 11
67.499999999998877
 21
42.049455477510492
 31
0.0
 12
64.499999999998877
 22
42.549455477510492
 32
0.0
 13
64.499999999998877
 23
42.549455477510492
 33
0.0
  0
SOLID
  5
176D
  8
SAPA_MATT
 10
71.499999999998806
 20
43.049455477510477
 30
0.0
 11
71.499999999998806
 21
42.049455477510492
 31
0.0
 12
74.499999999998806
 22
42.549455477510492
 32
0.0
 13
74.499999999998806
 23
42.549455477510492
 33
0.0
  0
INSERT
  5
176E
  8
0
  2
*U70
 10
0.0
 20
0.0
 30
0.0
  0
POINT
  5
176F
  8
DEFPOINTS
 62
     0
 10
64.499999999998877
 20
24.500000000000231
 30
0.0
  0
POINT
  5
1770
  8
DEFPOINTS
 62
     0
 10
74.499999999998806
 20
-0.3000000000000682
 30
0.0
  0
POINT
  5
1771
  8
DEFPOINTS
 62
     0
 10
74.499999999998806
 20
42.549455477510492
 30
0.0
  0
ENDBLK
  5
174A
  8
0
  0
BLOCK
  8
0
  2
*D61
 70
     1
 10
0.0
 20
0.0
 30
0.0
  3
*D61
  1

  0
LINE
  5
2007
  8
SAPA_MATT
 10
74.499999999998806
 20
1.1999999999999309
 30
0.0
 11
74.499999999998806
 21
44.065135404953907
 31
0.0
  0
LINE
  5
2008
  8
SAPA_MATT
 10
124.49999999999881
 20
1.1999999999999309
 30
0.0
 11
124.49999999999881
 21
44.065135404953907
 31
0.0
  0
LINE
  5
2009
  8
SAPA_MATT
 10
77.499999999998806
 20
42.565135404953907
 30
0.0
 11
121.49999999999881
 21
42.565135404953907
 31
0.0
  0
SOLID
  5
200A
  8
SAPA_MATT
 10
77.499999999998806
 20
43.065135404953907
 30
0.0
 11
77.499999999998806
 21
42.065135404953907
 31
0.0
 12
74.499999999998806
 22
42.565135404953907
 32
0.0
 13
74.499999999998806
 23
42.565135404953907
 33
0.0
  0
SOLID
  5
200B
  8
SAPA_MATT
 10
121.49999999999881
 20
43.065135404953907
 30
0.0
 11
121.49999999999881
 21
42.065135404953907
 31
0.0
 12
124.49999999999881
 22
42.565135404953907
 32
0.0
 13
124.49999999999881
 23
42.565135404953907
 33
0.0
  0
TEXT
  8
SAPA_MATT
  40
3
  5
2022
  62
2
  72
0
  71
0
 10
93.5000
 20
39.7551
 30
0.000000
  1
50
  7
ISO
  0
POINT
  5
200D
  8
DEFPOINTS
 62
     0
 10
74.499999999998806
 20
-0.3000000000000682
 30
0.0
  0
POINT
  5
200E
  8
DEFPOINTS
 62
     0
 10
124.49999999999881
 20
-0.3000000000000682
 30
0.0
  0
POINT
  5
200F
  8
DEFPOINTS
 62
     0
 10
124.49999999999881
 20
42.565135404953907
 30
0.0
  0
ENDBLK
  5
1756
  8
0
  0
BLOCK
  8
0
  2
*U62
 70
     1
 10
0.0
 20
0.0
 30
0.0
  3
*U62
  1

  0
TEXT
  5
17BD
  8
SAPA_ARTIKELNR
 10
72.582217353692144
 20
-2.783369196848148
 30
0.0
 40
3.5
  1
52070
 50
89.999999999999986
  7
ISO
  0
ENDBLK
  5
17BF
  8
0
  0
BLOCK
  8
0
  2
*U63
 70
     1
 10
0.0
 20
0.0
 30
0.0
  3
*U63
  1

  0
TEXT
  5
17C1
  8
SAPA_ARTIKELNR
 10
59.565734949207119
 20
-6.9215564773044997
 30
0.0
 40
3.5
  1
68654
 50
89.999999999999986
  7
ISO
  0
ENDBLK
  5
17C3
  8
0
  0
BLOCK
  8
0
  2
*U64
 70
     1
 10
0.0
 20
0.0
 30
0.0
  3
*U64
  1

  0
TEXT
  5
17C5
  8
SAPA_ARTIKELNR
 10
-88.325836887771857
 20
-6.6283301869558429
 30
0.0
 40
3.5
  1
42657
 50
89.999999999999986
  7
ISO
  0
ENDBLK
  5
17C7
  8
0
  0
BLOCK
  8
0
  2
*U65
 70
     1
 10
0.0
 20
0.0
 30
0.0
  3
*U65
  1

  0
TEXT
  5
17C9
  8
SAPA_ARTIKELNR
 10
-100.22574319987341
 20
-6.6283301869558464
 30
0.0
 40
3.5
  1
42227
 50
89.999999999999986
  7
ISO
  0
ENDBLK
  5
17CB
  8
0
  0
BLOCK
  8
0
  2
*U66
 70
     1
 10
0.0
 20
0.0
 30
0.0
  3
*U66
  1

  0
TEXT
  5
180D
  8
SAPA_ARTIKELNR
 10
129.84722021490529
 20
-32.196908291902801
 30
0.0
 40
3.5
  1
68074
 50
89.999999999999986
  7
ISO
  0
ENDBLK
  5
180F
  8
0
  0
BLOCK
  8
0
  2
*U67
 70
     1
 10
0.0
 20
0.0
 30
0.0
  3
*U67
  1

  0
TEXT
  5
1811
  8
SAPA_ARTIKELNR
 10
130.20121674070171
 20
-75.283351373570994
 30
0.0
 40
3.5
  1
42072
 50
89.999999999999986
  7
ISO
  0
ENDBLK
  5
1813
  8
0
  0
BLOCK
  8
0
  2
*U68
 70
     1
 10
0.0
 20
0.0
 30
0.0
  3
*U68
  1

  0
SOLID
  5
1E56
  8
SAPA_FOGBAND
  6
CONTINUOUS
 10
-74.637568219765001
 20
18.884307771282099
 30
0.0
 11
-74.817845783538203
 21
18.809634359375661
 31
0.0
 12
-74.457290655991798
 22
18.809634359375661
 32
0.0
 13
-74.457290655991798
 23
18.809634359375661
 33
0.0
210
0.0
220
0.0
230
1.0
  0
SOLID
  5
1E57
  8
SAPA_FOGBAND
  6
CONTINUOUS
 10
-74.817845783538203
 20
18.809634359375661
 30
0.0
 11
-74.892519195444635
 21
18.629356795602462
 31
0.0
 12
-74.382617244085367
 22
18.629356795602462
 32
0.0
 13
-74.382617244085367
 23
18.629356795602462
 33
0.0
210
0.0
220
0.0
230
1.0
  0
SOLID
  5
1E58
  8
SAPA_FOGBAND
  6
CONTINUOUS
 10
74.817845783538203
 20
18.809634359375661
 30
0.0
 11
74.457290655991798
 21
18.809634359375661
 31
0.0
 12
74.382617244085367
 22
18.629356795602462
 32
0.0
 13
74.382617244085367
 23
18.629356795602462
 33
0.0
210
0.0
220
0.0
230
-1.0
  0
SOLID
  5
1E59
  8
SAPA_FOGBAND
  6
CONTINUOUS
 10
74.817845783538203
 20
18.449079231829259
 30
0.0
 11
74.457290655991798
 21
18.449079231829259
 31
0.0
 12
74.637568219765001
 22
18.374405819922821
 32
0.0
 13
74.637568219765001
 23
18.374405819922821
 33
0.0
210
0.0
220
0.0
230
-1.0
  0
SOLID
  5
1E5A
  8
SAPA_FOGBAND
  6
CONTINUOUS
 10
-74.892519195444635
 20
18.629356795602462
 30
0.0
 11
-74.817845783538203
 21
18.449079231829259
 31
0.0
 12
-74.457290655991798
 22
18.449079231829259
 32
0.0
 13
-74.457290655991798
 23
18.449079231829259
 33
0.0
210
0.0
220
0.0
230
1.0
  0
SOLID
  5
1E5B
  8
SAPA_FOGBAND
  6
CONTINUOUS
 10
74.892519195444635
 20
18.629356795602462
 30
0.0
 11
74.382617244085367
 21
18.629356795602462
 31
0.0
 12
74.457290655991798
 22
18.449079231829259
 32
0.0
 13
74.457290655991798
 23
18.449079231829259
 33
0.0
210
0.0
220
0.0
230
-1.0
  0
LINE
  5
1E5C
  8
SAPA_FOGBAND
  6
CONTINUOUS
 10
-74.637568219765001
 20
18.884307771282099
 30
0.0
 11
-74.817845783538203
 21
18.809634359375661
 31
0.0
  0
LINE
  5
1E5D
  8
SAPA_FOGBAND
  6
CONTINUOUS
 10
-74.457290655991798
 20
18.809634359375661
 30
0.0
 11
-74.637568219765001
 21
18.884307771282099
 31
0.0
  0
LINE
  5
1E5E
  8
SAPA_FOGBAND
  6
CONTINUOUS
 10
-74.817845783538203
 20
18.809634359375661
 30
0.0
 11
-74.892519195444635
 21
18.629356795602462
 31
0.0
  0
LINE
  5
1E5F
  8
SAPA_FOGBAND
  6
CONTINUOUS
 10
-74.457290655991798
 20
18.809634359375661
 30
0.0
 11
-74.382617244085367
 21
18.629356795602462
 31
0.0
  0
LINE
  5
1E60
  8
SAPA_FOGBAND
  6
CONTINUOUS
 10
-74.457290655991798
 20
18.449079231829259
 30
0.0
 11
-74.637568219765001
 21
18.374405819922821
 31
0.0
  0
LINE
  5
1E61
  8
SAPA_FOGBAND
  6
CONTINUOUS
 10
-74.637568219765001
 20
18.374405819922821
 30
0.0
 11
-74.817845783538203
 21
18.449079231829259
 31
0.0
  0
LINE
  5
1E62
  8
SAPA_FOGBAND
  6
CONTINUOUS
 10
-74.892519195444635
 20
18.629356795602462
 30
0.0
 11
-74.817845783538203
 21
18.449079231829259
 31
0.0
  0
LINE
  5
1E63
  8
SAPA_FOGBAND
  6
CONTINUOUS
 10
-74.382617244085367
 20
18.629356795602462
 30
0.0
 11
-74.457290655991798
 21
18.449079231829259
 31
0.0
  0
ENDBLK
  5
1E65
  8
0
  0
BLOCK
  8
0
  2
*U69
 70
     1
 10
0.0
 20
0.0
 30
0.0
  3
*U69
  1

  0
SOLID
  5
1F2F
  8
SAPA_FOGBAND
  6
CONTINUOUS
 10
-74.637568219765001
 20
18.884307771282099
 30
0.0
 11
-74.817845783538203
 21
18.809634359375661
 31
0.0
 12
-74.457290655991798
 22
18.809634359375661
 32
0.0
 13
-74.457290655991798
 23
18.809634359375661
 33
0.0
210
0.0
220
0.0
230
1.0
  0
SOLID
  5
1F30
  8
SAPA_FOGBAND
  6
CONTINUOUS
 10
-74.817845783538203
 20
18.809634359375661
 30
0.0
 11
-74.892519195444635
 21
18.629356795602462
 31
0.0
 12
-74.382617244085367
 22
18.629356795602462
 32
0.0
 13
-74.382617244085367
 23
18.629356795602462
 33
0.0
210
0.0
220
0.0
230
1.0
  0
SOLID
  5
1F31
  8
SAPA_FOGBAND
  6
CONTINUOUS
 10
74.817845783538203
 20
18.809634359375661
 30
0.0
 11
74.457290655991798
 21
18.809634359375661
 31
0.0
 12
74.382617244085367
 22
18.629356795602462
 32
0.0
 13
74.382617244085367
 23
18.629356795602462
 33
0.0
210
0.0
220
0.0
230
-1.0
  0
SOLID
  5
1F32
  8
SAPA_FOGBAND
  6
CONTINUOUS
 10
74.817845783538203
 20
18.449079231829259
 30
0.0
 11
74.457290655991798
 21
18.449079231829259
 31
0.0
 12
74.637568219765001
 22
18.374405819922821
 32
0.0
 13
74.637568219765001
 23
18.374405819922821
 33
0.0
210
0.0
220
0.0
230
-1.0
  0
SOLID
  5
1F33
  8
SAPA_FOGBAND
  6
CONTINUOUS
 10
-74.892519195444635
 20
18.629356795602462
 30
0.0
 11
-74.817845783538203
 21
18.449079231829259
 31
0.0
 12
-74.457290655991798
 22
18.449079231829259
 32
0.0
 13
-74.457290655991798
 23
18.449079231829259
 33
0.0
210
0.0
220
0.0
230
1.0
  0
SOLID
  5
1F34
  8
SAPA_FOGBAND
  6
CONTINUOUS
 10
74.892519195444635
 20
18.629356795602462
 30
0.0
 11
74.382617244085367
 21
18.629356795602462
 31
0.0
 12
74.457290655991798
 22
18.449079231829259
 32
0.0
 13
74.457290655991798
 23
18.449079231829259
 33
0.0
210
0.0
220
0.0
230
-1.0
  0
LINE
  5
1F35
  8
SAPA_FOGBAND
  6
CONTINUOUS
 10
-74.637568219765001
 20
18.884307771282099
 30
0.0
 11
-74.817845783538203
 21
18.809634359375661
 31
0.0
  0
LINE
  5
1F36
  8
SAPA_FOGBAND
  6
CONTINUOUS
 10
-74.457290655991798
 20
18.809634359375661
 30
0.0
 11
-74.637568219765001
 21
18.884307771282099
 31
0.0
  0
LINE
  5
1F37
  8
SAPA_FOGBAND
  6
CONTINUOUS
 10
-74.817845783538203
 20
18.809634359375661
 30
0.0
 11
-74.892519195444635
 21
18.629356795602462
 31
0.0
  0
LINE
  5
1F38
  8
SAPA_FOGBAND
  6
CONTINUOUS
 10
-74.457290655991798
 20
18.809634359375661
 30
0.0
 11
-74.382617244085367
 21
18.629356795602462
 31
0.0
  0
LINE
  5
1F39
  8
SAPA_FOGBAND
  6
CONTINUOUS
 10
-74.457290655991798
 20
18.449079231829259
 30
0.0
 11
-74.637568219765001
 21
18.374405819922821
 31
0.0
  0
LINE
  5
1F3A
  8
SAPA_FOGBAND
  6
CONTINUOUS
 10
-74.637568219765001
 20
18.374405819922821
 30
0.0
 11
-74.817845783538203
 21
18.449079231829259
 31
0.0
  0
LINE
  5
1F3B
  8
SAPA_FOGBAND
  6
CONTINUOUS
 10
-74.892519195444635
 20
18.629356795602462
 30
0.0
 11
-74.817845783538203
 21
18.449079231829259
 31
0.0
  0
LINE
  5
1F3C
  8
SAPA_FOGBAND
  6
CONTINUOUS
 10
-74.382617244085367
 20
18.629356795602462
 30
0.0
 11
-74.457290655991798
 21
18.449079231829259
 31
0.0
  0
ENDBLK
  5
1F3E
  8
0
  0
BLOCK
  8
0
  2
*U70
 70
     1
 10
0.0
 20
0.0
 30
0.0
  3
*U70
  1

  0
TEXT
  5
201A
  8
SAPA_MATT
 62
     2
 10
67.699999999998838
 20
43.549455477510492
 30
0.0
 40
3.0
  1
10
  7
ISO
  0
ENDBLK
  5
201C
  8
0
  0
BLOCK
  8
0
  2
*U71
 70
     1
 10
0.0
 20
0.0
 30
0.0
  3
*U71
  1

  0
TEXT
  5
201E
  8
SAPA_MATT
 62
     2
 10
-116.8563963596021
 20
-2.1000000000003398
 30
0.0
 40
3.0
  1
50
 50
90.0
  7
ISO
  0
ENDBLK
  5
2020
  8
0
  0
ENDSEC
  0
SECTION
  2
ENTITIES
  0
POLYLINE
  5
7C7
  8
SAPA_ANSLUTNING
 66
     1
 10
0.0
 20
0.0
 30
0.0
 70
     1
  0
VERTEX
  5
17B1
  8
SAPA_ANSLUTNING
 10
-74.507832962818824
 20
-24.953012160544048
 30
0.0
  0
VERTEX
  5
17B2
  8
SAPA_ANSLUTNING
 10
-35.500000000001137
 20
-24.953012160544059
 30
0.0
  0
VERTEX
  5
17B3
  8
SAPA_ANSLUTNING
 10
-35.500000000001137
 20
-5.8453509327481399
 30
0.0
  0
VERTEX
  5
17B4
  8
SAPA_ANSLUTNING
 10
-74.507832962818824
 20
-5.8453509327481328
 30
0.0
  0
SEQEND
  5
17B5
  8
SAPA_ANSLUTNING
  0
POLYLINE
  5
7FD
  8
SAPA_ANSLUTNING
 66
     1
 10
0.0
 20
0.0
 30
0.0
  0
VERTEX
  5
17B6
  8
SAPA_ANSLUTNING
 10
64.499999999998877
 20
-24.49999999999978
 30
0.0
  0
VERTEX
  5
17B7
  8
SAPA_ANSLUTNING
 10
66.578300773496039
 20
-24.49999999999978
 30
0.0
  0
VERTEX
  5
17B8
  8
SAPA_ANSLUTNING
 10
66.578300773496039
 20
-15.83071111616438
 30
0.0
  0
VERTEX
  5
17B9
  8
SAPA_ANSLUTNING
 10
64.499999999998863
 20
-15.83071111616438
 30
0.0
  0
VERTEX
  5
17BA
  8
SAPA_ANSLUTNING
 10
64.499999999998806
 20
-24.49999999999978
 30
0.0
  0
SEQEND
  5
17BB
  8
SAPA_ANSLUTNING
  0
INSERT
  5
A81
  8
0
  2
*U62
 10
0.0
 20
0.0
 30
0.0
  0
INSERT
  5
A82
  8
0
  2
*U63
 10
0.0
 20
0.0
 30
0.0
  0
INSERT
  5
A83
  8
0
  2
*U64
 10
0.0
 20
0.0
 30
0.0
  0
INSERT
  5
A84
  8
0
  2
*U65
 10
0.0
 20
0.0
 30
0.0
  0
POLYLINE
  5
B89
  8
SAPA_LIGHT
 66
     1
 10
0.0
 20
0.0
 30
0.0
  0
VERTEX
  5
17CC
  8
SAPA_LIGHT
 10
68.578300773496025
 20
-37.000000000000682
 30
0.0
  0
VERTEX
  5
17CD
  8
SAPA_LIGHT
 10
68.578300773496025
 20
25.00000000000021
 30
0.0
  0
VERTEX
  5
17CE
  8
SAPA_LIGHT
 10
-35.500000000001819
 20
25.000000000000231
 30
0.0
  0
VERTEX
  5
17CF
  8
SAPA_LIGHT
 10
-35.500000000001819
 20
5.0000000000002327
 30
0.0
  0
VERTEX
  5
17D0
  8
SAPA_LIGHT
 10
-70.499999999010925
 20
5.000000000000246
 30
0.0
  0
VERTEX
  5
17D1
  8
SAPA_LIGHT
 10
-70.499999999010925
 20
24.99999999999967
 30
0.0
  0
VERTEX
  5
17D2
  8
SAPA_LIGHT
 10
-96.499999999010569
 20
24.99999999999968
 30
0.0
  0
VERTEX
  5
17D3
  8
SAPA_LIGHT
 10
-96.499999999010484
 20
-25.00000000000033
 30
0.0
  0
VERTEX
  5
17D4
  8
SAPA_LIGHT
 10
-76.507832962818838
 20
-25.00000000000033
 30
0.0
  0
VERTEX
  5
17D5
  8
SAPA_LIGHT
 10
-76.507832962818924
 20
-37.000000000000327
 30
0.0
  0
VERTEX
  5
17D6
  8
SAPA_LIGHT
 10
68.578300773496025
 20
-37.000000000000682
 30
0.0
  0
SEQEND
  5
17D7
  8
SAPA_LIGHT
  0
POLYLINE
  5
B91
  8
SAPA_LIGHT
 66
     1
 10
0.0
 20
0.0
 30
0.0
  0
VERTEX
  5
17D8
  8
SAPA_LIGHT
 10
106.8999999999986
 20
-89.800000000000026
 30
0.0
  0
VERTEX
  5
17D9
  8
SAPA_LIGHT
 10
106.8999999999989
 20
-61.000000000000242
 30
0.0
  0
VERTEX
  5
17DA
  8
SAPA_LIGHT
 10
82.899999999998897
 20
-61.000000000000227
 30
0.0
  0
VERTEX
  5
17DB
  8
SAPA_LIGHT
 10
82.899999999998883
 20
-89.800000000000026
 30
0.0
  0
SEQEND
  5
17DC
  8
SAPA_LIGHT
  0
POLYLINE
  5
B92
  8
SAPA_LIGHT
 66
     1
 10
0.0
 20
0.0
 30
0.0
  0
VERTEX
  5
17DD
  8
SAPA_LIGHT
 10
124.49999999999881
 20
0.0000000000000568
 30
0.0
  0
VERTEX
  5
17DE
  8
SAPA_LIGHT
 10
74.49999999999882
 20
-0.0000000000000568
 30
0.0
  0
VERTEX
  5
17DF
  8
SAPA_LIGHT
 10
74.499999999998792
 20
-77.999999999999943
 30
0.0
  0
VERTEX
  5
17E0
  8
SAPA_LIGHT
 10
82.899999999998883
 20
-77.999999999999943
 30
0.0
  0
VERTEX
  5
17E1
  8
SAPA_LIGHT
 10
82.899999999998897
 20
-55.799999999999912
 30
0.0
  0
VERTEX
  5
17E2
  8
SAPA_LIGHT
 10
106.8999999999989
 20
-55.799999999999919
 30
0.0
  0
VERTEX
  5
17E3
  8
SAPA_LIGHT
 10
106.899999999999
 20
-78.000000000000085
 30
0.0
  0
VERTEX
  5
17E4
  8
SAPA_LIGHT
 10
124.49999999999881
 20
-78.000000000000099
 30
0.0
  0
VERTEX
  5
17E5
  8
SAPA_LIGHT
 10
124.49999999999881
 20
0.0000000000000568
 30
0.0
  0
SEQEND
  5
17E6
  8
SAPA_LIGHT
  0
POLYLINE
  5
C6D
  8
SAPA_LIGHT
 66
     1
 10
0.0
 20
0.0
 30
0.0
  0
VERTEX
  5
17E7
  8
SAPA_LIGHT
 10
-35.50000000000184
 20
75.522593981594156
 30
0.0
  0
VERTEX
  5
17E8
  8
SAPA_LIGHT
 10
-35.500000000001819
 20
14.03511389911279
 30
0.0
  0
VERTEX
  5
17E9
  8
SAPA_LIGHT
 10
-44.501825424425988
 20
14.03511389911278
 30
0.0
  0
VERTEX
  5
17EA
  8
SAPA_LIGHT
 10
-44.501825424426002
 20
75.522593981594156
 30
0.0
  0
SEQEND
  5
17EB
  8
SAPA_LIGHT
  0
POLYLINE
  5
C6E
  8
SAPA_LIGHT
 66
     1
 10
0.0
 20
0.0
 30
0.0
  0
VERTEX
  5
17EC
  8
SAPA_LIGHT
 10
-64.499999999011152
 20
75.522593981594326
 30
0.0
  0
VERTEX
  5
17ED
  8
SAPA_LIGHT
 10
-64.499999999011607
 20
11.000967646493841
 30
0.0
  0
VERTEX
  5
17EE
  8
SAPA_LIGHT
 10
-70.499999999010925
 20
11.000967646493841
 30
0.0
  0
VERTEX
  5
17EF
  8
SAPA_LIGHT
 10
-70.499999999010925
 20
75.522593981595065
 30
0.0
  0
SEQEND
  5
17F0
  8
SAPA_LIGHT
  0
POLYLINE
  5
C6F
  8
SAPA_LIGHT
 66
     1
 10
0.0
 20
0.0
 30
0.0
  0
VERTEX
  5
17F1
  8
SAPA_LIGHT
 10
62.499999999998849
 20
75.000000000000384
 30
0.0
  0
VERTEX
  5
17F2
  8
SAPA_LIGHT
 10
62.499999999998863
 20
26.000000000000391
 30
0.0
  0
VERTEX
  5
17F3
  8
SAPA_LIGHT
 10
50.999999999998799
 20
26.000000000000391
 30
0.0
  0
VERTEX
  5
17F4
  8
SAPA_LIGHT
 10
50.999999999998792
 20
75.000000000000384
 30
0.0
  0
SEQEND
  5
17F5
  8
SAPA_LIGHT
  0
POLYLINE
  5
103E
  8
SAPA_ANSLUTNING
 66
     1
 10
0.0
 20
0.0
 30
0.0
  0
VERTEX
  5
17F6
  8
SAPA_ANSLUTNING
 10
-73.636884046168305
 20
-24.95301216054348
 30
0.0
  0
VERTEX
  5
17F7
  8
SAPA_ANSLUTNING
 10
-62.627698699705903
 20
-34.962197507005939
 30
0.0
  0
VERTEX
  5
17F8
  8
SAPA_ANSLUTNING
 10
-52.6185133532435
 20
-24.95301216054348
 30
0.0
  0
VERTEX
  5
17F9
  8
SAPA_ANSLUTNING
 10
-42.609328006781091
 20
-34.962197507005939
 30
0.0
  0
VERTEX
  5
17FA
  8
SAPA_ANSLUTNING
 10
-32.609328006789063
 20
-24.962197507013901
 30
0.0
  0
VERTEX
  5
17FB
  8
SAPA_ANSLUTNING
 10
-22.609328006797021
 20
-34.962197507005939
 30
0.0
  0
VERTEX
  5
17FC
  8
SAPA_ANSLUTNING
 10
-12.60014266033461
 20
-24.95301216054348
 30
0.0
  0
VERTEX
  5
17FD
  8
SAPA_ANSLUTNING
 10
-2.5909573138722091
 20
-34.962197507005939
 30
0.0
  0
VERTEX
  5
17FE
  8
SAPA_ANSLUTNING
 10
7.4090426861098839
 20
-24.962197507023902
 30
0.0
  0
VERTEX
  5
17FF
  8
SAPA_ANSLUTNING
 10
17.409042686091979
 20
-34.962197507005939
 30
0.0
  0
VERTEX
  5
1800
  8
SAPA_ANSLUTNING
 10
27.418228032554381
 20
-24.95301216054348
 30
0.0
  0
VERTEX
  5
1801
  8
SAPA_ANSLUTNING
 10
37.427413379016791
 20
-34.962197507005939
 30
0.0
  0
VERTEX
  5
1802
  8
SAPA_ANSLUTNING
 10
47.427413379008762
 20
-24.962197507013901
 30
0.0
  0
VERTEX
  5
1803
  8
SAPA_ANSLUTNING
 10
57.427413379000818
 20
-34.962197507005939
 30
0.0
  0
VERTEX
  5
1804
  8
SAPA_ANSLUTNING
 10
66.578300773496039
 20
-24.500000000000469
 30
0.0
  0
SEQEND
  5
1805
  8
SAPA_ANSLUTNING
  0
POLYLINE
  5
103F
  8
SAPA_ANSLUTNING
 66
     1
 10
0.0
 20
0.0
 30
0.0
  0
VERTEX
  5
1806
  8
SAPA_ANSLUTNING
 10
-74.507832962818824
 20
-5.8453509327481319
 30
0.0
  0
VERTEX
  5
1807
  8
SAPA_ANSLUTNING
 10
-63.498647616356429
 20
-24.953012160544048
 30
0.0
  0
VERTEX
  5
1808
  8
SAPA_ANSLUTNING
 10
-53.489462269894027
 20
-5.8453509327481319
 30
0.0
  0
VERTEX
  5
1809
  8
SAPA_ANSLUTNING
 10
-43.480276923431632
 20
-24.953012160544048
 30
0.0
  0
VERTEX
  5
180A
  8
SAPA_ANSLUTNING
 10
-35.500000000001137
 20
-5.85453627921855
 30
0.0
  0
SEQEND
  5
180B
  8
SAPA_ANSLUTNING
  0
INSERT
  5
113F
  8
0
  2
*U66
 10
0.0
 20
0.0
 30
0.0
  0
INSERT
  5
1140
  8
0
  2
*U67
 10
0.0
 20
0.0
 30
0.0
  0
LINE
  5
13F9
  8
SAPA_FYLLNING
 10
-29.500000000003642
 20
31.348467485783349
 30
0.0
 11
42.799999999999258
 21
31.34846748578336
 31
0.0
  0
ARC
  5
13FA
  8
SAPA_FYLLNING
 10
42.799999999999258
 20
37.34846748578336
 30
0.0
 40
6.0
 50
270.0
 51
90.0
  0
LINE
  5
13FB
  8
SAPA_FYLLNING
 10
42.799999999999258
 20
43.348467485783353
 30
0.0
 11
-29.500000000003642
 21
43.348467485785157
 31
0.0
  0
ARC
  5
13FC
  8
SAPA_FYLLNING
 10
-29.500000000003649
 20
49.348467485784262
 30
0.0
 40
5.9999999999990896
 50
90.000000000000057
 51
270.00000000000011
  0
LINE
  5
13FD
  8
SAPA_FYLLNING
 10
-29.500000000003649
 20
55.348467485783353
 30
0.0
 11
44.999999999998167
 21
55.348467485785179
 31
0.0
  0
ARC
  5
13FE
  8
SAPA_FYLLNING
 10
44.999999999998167
 20
61.348467485784283
 30
0.0
 40
5.9999999999990967
 50
270.00000000000011
 51
90.0
  0
LINE
  5
13FF
  8
SAPA_FYLLNING
 10
44.999999999998167
 20
67.348467485783374
 30
0.0
 11
-29.500000000003649
 21
67.348467485783345
 31
0.0
  0
LINE
  5
140C
  8
SAPA_PROFIL
 10
66.578300773496039
 20
-15.000000000000581
 30
0.0
 11
66.578300773496039
 21
-34.000000000000362
 31
0.0
  0
ARC
  5
140D
  8
SAPA_PROFIL
 10
65.578300773496039
 20
-34.000000000000362
 30
0.0
 40
1.0
 50
270.0
 51
0.0
  0
LINE
  5
140E
  8
SAPA_PROFIL
 10
65.578300773496039
 20
-35.000000000000348
 30
0.0
 11
-73.507832962818838
 21
-35.000000000000327
 31
0.0
  0
ARC
  5
140F
  8
SAPA_PROFIL
 10
-73.507832962818838
 20
-34.000000000000327
 30
0.0
 40
1.0
 50
180.0
 51
270.0
  0
LINE
  5
1410
  8
SAPA_PROFIL
 10
-74.507832962818824
 20
-34.000000000000327
 30
0.0
 11
-74.507832962818824
 21
-7.3413678820457884
 31
0.0
  0
LINE
  5
1411
  8
SAPA_PROFIL
 10
-74.507832962818824
 20
-7.3413678820457884
 30
0.0
 11
-76.507832962818838
 21
-7.3413678820457866
 31
0.0
  0
LINE
  5
1412
  8
SAPA_PROFIL
 10
-76.507832962818838
 20
-7.3413678820457866
 30
0.0
 11
-76.507832962818838
 21
-36.000000000000327
 31
0.0
  0
ARC
  5
1413
  8
SAPA_PROFIL
 10
-75.507832962818838
 20
-36.000000000000327
 30
0.0
 40
1.0
 50
180.0
 51
270.0
  0
LINE
  5
1414
  8
SAPA_PROFIL
 10
-75.507832962818838
 20
-37.000000000000327
 30
0.0
 11
66.578300773496039
 21
-37.000000000000682
 31
0.0
  0
ARC
  5
1415
  8
SAPA_PROFIL
 10
66.578300773495997
 20
-35.000000000000632
 30
0.0
 40
2.0000000000000488
 50
270.00000000000119
 51
0.0000000000012213
  0
LINE
  5
1416
  8
SAPA_PROFIL
 10
68.578300773496025
 20
-35.00000000000059
 30
0.0
 11
68.578300773496025
 21
-15.000000000000581
 31
0.0
  0
LINE
  5
1417
  8
SAPA_PROFIL
 10
68.578300773496025
 20
-15.000000000000581
 30
0.0
 11
66.578300773496039
 21
-15.000000000000581
 31
0.0
  0
POLYLINE
  5
164C
  8
SAPA_PROFIL
 66
     1
 10
0.0
 20
0.0
 30
0.0
 70
     1
  0
VERTEX
  5
1AF8
  8
SAPA_PROFIL
 10
113.2999999999987
 20
-78.000000000000114
 30
0.0
 42
-0.4142135623730951
  0
VERTEX
  5
1AF9
  8
SAPA_PROFIL
 10
112.99999999999881
 20
-77.700000000000102
 30
0.0
  0
VERTEX
  5
1AFA
  8
SAPA_PROFIL
 10
112.99999999999881
 20
-76.49000000000018
 30
0.0
 42
-0.4142135623730951
  0
VERTEX
  5
1AFB
  8
SAPA_PROFIL
 10
113.9899999999988
 20
-75.500000000000171
 30
0.0
  0
VERTEX
  5
1AFC
  8
SAPA_PROFIL
 10
114.19999999999879
 20
-75.500000000000171
 30
0.0
  0
VERTEX
  5
1AFD
  8
SAPA_PROFIL
 10
114.19999999999879
 20
-76.750000000000171
 30
0.0
  0
VERTEX
  5
1AFE
  8
SAPA_PROFIL
 10
115.49999999999881
 20
-76.750000000000171
 30
0.0
 42
0.4142135623730951
  0
VERTEX
  5
1AFF
  8
SAPA_PROFIL
 10
115.99999999999881
 20
-76.250000000000171
 30
0.0
  0
VERTEX
  5
1B00
  8
SAPA_PROFIL
 10
115.99999999999881
 20
-68.250000000000171
 30
0.0
 42
0.4142135623730951
  0
VERTEX
  5
1B01
  8
SAPA_PROFIL
 10
115.49999999999881
 20
-67.750000000000171
 30
0.0
  0
VERTEX
  5
1B02
  8
SAPA_PROFIL
 10
114.19999999999879
 20
-67.750000000000171
 30
0.0
  0
VERTEX
  5
1B03
  8
SAPA_PROFIL
 10
114.19999999999879
 20
-69.000000000000171
 30
0.0
  0
VERTEX
  5
1B04
  8
SAPA_PROFIL
 10
113.9899999999988
 20
-69.000000000000171
 30
0.0
 42
-0.4142135623730867
  0
VERTEX
  5
1B05
  8
SAPA_PROFIL
 10
112.99999999999881
 20
-68.010000000000161
 30
0.0
  0
VERTEX
  5
1B06
  8
SAPA_PROFIL
 10
112.99999999999881
 20
-67.49000000000018
 30
0.0
 42
-0.4142135623730951
  0
VERTEX
  5
1B07
  8
SAPA_PROFIL
 10
113.9899999999988
 20
-66.500000000000171
 30
0.0
  0
VERTEX
  5
1B08
  8
SAPA_PROFIL
 10
116.19999999999879
 20
-66.500000000000171
 30
0.0
 42
-0.4142135623730951
  0
VERTEX
  5
1B09
  8
SAPA_PROFIL
 10
117.69999999999879
 20
-68.000000000000171
 30
0.0
  0
VERTEX
  5
1B0A
  8
SAPA_PROFIL
 10
117.69999999999879
 20
-76.000000000000171
 30
0.0
 42
0.4142135623730951
  0
VERTEX
  5
1B0B
  8
SAPA_PROFIL
 10
118.19999999999879
 20
-76.500000000000171
 30
0.0
  0
VERTEX
  5
1B0C
  8
SAPA_PROFIL
 10
122.49999999999881
 20
-76.500000000000171
 30
0.0
 42
0.4142135623730951
  0
VERTEX
  5
1B0D
  8
SAPA_PROFIL
 10
122.99999999999881
 20
-76.000000000000171
 30
0.0
  0
VERTEX
  5
1B0E
  8
SAPA_PROFIL
 10
122.99999999999881
 20
-63.258153378746329
 30
0.0
 42
0.493145426031308
  0
VERTEX
  5
1B0F
  8
SAPA_PROFIL
 10
122.37059047744739
 20
-62.775190465601781
 30
0.0
  0
VERTEX
  5
1B10
  8
SAPA_PROFIL
 10
120.6315755089974
 20
-63.241158122023641
 30
0.0
 42
-0.9999999999999452
  0
VERTEX
  5
1B11
  8
SAPA_PROFIL
 10
120.3727564638948
 20
-62.275232295734547
 30
0.0
  0
VERTEX
  5
1B12
  8
SAPA_PROFIL
 10
121.7197508390516
 20
-61.914306240702111
 30
0.0
 42
0.6613727838043239
  0
VERTEX
  5
1B13
  8
SAPA_PROFIL
 10
121.97661153002861
 20
-59.9804109032928
 30
0.0
  0
VERTEX
  5
1B14
  8
SAPA_PROFIL
 10
116.24500185048009
 20
-56.671264511915631
 30
0.0
  0
VERTEX
  5
1B15
  8
SAPA_PROFIL
 10
111.9569219381641
 20
-56.671264511915631
 30
0.0
  0
VERTEX
  5
1B16
  8
SAPA_PROFIL
 10
107.7999999999988
 20
-53.078483428499283
 30
0.0
  0
VERTEX
  5
1B17
  8
SAPA_PROFIL
 10
105.8000004549115
 20
-53.078483428499219
 30
0.0
 42
-1.0
  0
VERTEX
  5
1B18
  8
SAPA_PROFIL
 10
105.7999999999988
 20
-52.078483428499283
 30
0.0
  0
VERTEX
  5
1B19
  8
SAPA_PROFIL
 10
107.99999999999881
 20
-52.078483428499283
 30
0.0
  0
VERTEX
  5
1B1A
  8
SAPA_PROFIL
 10
112.074563148967
 20
-55.171264511915638
 30
0.0
  0
VERTEX
  5
1B1B
  8
SAPA_PROFIL
 10
116.64692563912691
 20
-55.171264511915638
 30
0.0
  0
VERTEX
  5
1B1C
  8
SAPA_PROFIL
 10
116.99500185048009
 20
-55.372226406239008
 30
0.0
  0
VERTEX
  5
1B1D
  8
SAPA_PROFIL
 10
118.24999999999881
 20
-56.346953113330983
 30
0.0
 42
0.5773502691896074
  0
VERTEX
  5
1B1E
  8
SAPA_PROFIL
 10
118.99999999999881
 20
-55.91394041143883
 30
0.0
  0
VERTEX
  5
1B1F
  8
SAPA_PROFIL
 10
118.99999999999881
 20
-55.72929854587062
 30
0.0
  0
VERTEX
  5
1B20
  8
SAPA_PROFIL
 10
120.49999999999881
 20
-55.72929854587062
 30
0.0
  0
VERTEX
  5
1B21
  8
SAPA_PROFIL
 10
120.49999999999881
 20
-57.107162896777943
 30
0.0
 42
0.2679491924311161
  0
VERTEX
  5
1B22
  8
SAPA_PROFIL
 10
120.74999999999881
 20
-57.540175598670082
 30
0.0
  0
VERTEX
  5
1B23
  8
SAPA_PROFIL
 10
122.24999999999881
 20
-58.406201002454509
 30
0.0
 42
0.3494280882832233
  0
VERTEX
  5
1B24
  8
SAPA_PROFIL
 10
122.99999999999881
 20
-57.18759432515764
 30
0.0
  0
VERTEX
  5
1B25
  8
SAPA_PROFIL
 10
122.99999999999881
 20
-56.928429243660268
 30
0.0
  0
VERTEX
  5
1B26
  8
SAPA_PROFIL
 10
123.2103150614651
 20
-56.928429243660268
 30
0.0
  0
VERTEX
  5
1B27
  8
SAPA_PROFIL
 10
124.49999999999881
 20
-56.928429243660268
 30
0.0
  0
VERTEX
  5
1B28
  8
SAPA_PROFIL
 10
124.49999999999881
 20
-77.700000000000102
 30
0.0
 42
-0.4142135623730951
  0
VERTEX
  5
1B29
  8
SAPA_PROFIL
 10
124.1999999999987
 20
-78.000000000000114
 30
0.0
  0
SEQEND
  5
1B2A
  8
SAPA_PROFIL
  0
POLYLINE
  5
164D
  8
SAPA_PROFIL
 66
     1
 10
0.0
 20
0.0
 30
0.0
 70
     1
  0
VERTEX
  5
1B2B
  8
SAPA_PROFIL
 10
107.2999999999988
 20
-5.3000000000000682
 30
0.0
  0
VERTEX
  5
1B2C
  8
SAPA_PROFIL
 10
114.7749999999989
 20
-5.3000000000000682
 30
0.0
 42
-0.4142135623730951
  0
VERTEX
  5
1B2D
  8
SAPA_PROFIL
 10
115.2749999999989
 20
-5.8000000000000682
 30
0.0
  0
VERTEX
  5
1B2E
  8
SAPA_PROFIL
 10
115.2749999999988
 20
-7.5
 30
0.0
 42
0.4142135623730951
  0
VERTEX
  5
1B2F
  8
SAPA_PROFIL
 10
119.87499999999881
 20
-12.100000000000019
 30
0.0
  0
VERTEX
  5
1B30
  8
SAPA_PROFIL
 10
121.69999999999889
 20
-12.100000000000019
 30
0.0
 42
-0.4142135623730951
  0
VERTEX
  5
1B31
  8
SAPA_PROFIL
 10
122.69999999999889
 20
-13.100000000000019
 30
0.0
  0
VERTEX
  5
1B32
  8
SAPA_PROFIL
 10
122.69999999999879
 20
-47.500000000000227
 30
0.0
 42
-0.4142135623730951
  0
VERTEX
  5
1B33
  8
SAPA_PROFIL
 10
121.69999999999879
 20
-48.50000000000022
 30
0.0
  0
VERTEX
  5
1B34
  8
SAPA_PROFIL
 10
101.5999999999988
 20
-48.50000000000022
 30
0.0
 42
0.4142135623730951
  0
VERTEX
  5
1B35
  8
SAPA_PROFIL
 10
101.0999999999987
 20
-49.000000000000227
 30
0.0
  0
VERTEX
  5
1B36
  8
SAPA_PROFIL
 10
101.0999999999987
 20
-49.700000000000159
 30
0.0
 42
0.4150844288340716
  0
VERTEX
  5
1B37
  8
SAPA_PROFIL
 10
101.6014862019788
 20
-50.199997791198939
 30
0.0
 42
-0.3121484461588222
  0
VERTEX
  5
1B38
  8
SAPA_PROFIL
 10
102.0702996048387
 20
-50.522216822930552
 30
0.0
 42
-0.482358125222547
  0
VERTEX
  5
1B39
  8
SAPA_PROFIL
 10
99.874395043235324
 20
-54.224395043236193
 30
0.0
  0
VERTEX
  5
1B3A
  8
SAPA_PROFIL
 10
99.499999999998863
 20
-53.849999999999682
 30
0.0
  0
VERTEX
  5
1B3B
  8
SAPA_PROFIL
 10
99.125604956762402
 20
-54.224395043236193
 30
0.0
 42
-0.4823574778722663
  0
VERTEX
  5
1B3C
  8
SAPA_PROFIL
 10
96.929698341187546
 20
-50.522222222222467
 30
0.0
 42
-0.311333703729445
  0
VERTEX
  5
1B3D
  8
SAPA_PROFIL
 10
97.397025915516792
 20
-50.200000000000159
 30
0.0
  0
VERTEX
  5
1B3E
  8
SAPA_PROFIL
 10
97.39999999999884
 20
-50.200000000000159
 30
0.0
 42
0.4142135623730951
  0
VERTEX
  5
1B3F
  8
SAPA_PROFIL
 10
97.899999999998855
 20
-49.700000000000159
 30
0.0
  0
VERTEX
  5
1B40
  8
SAPA_PROFIL
 10
97.899999999998855
 20
-49.000000000000227
 30
0.0
 42
0.4142135623731117
  0
VERTEX
  5
1B41
  8
SAPA_PROFIL
 10
97.39999999999884
 20
-48.500000000000121
 30
0.0
  0
VERTEX
  5
1B42
  8
SAPA_PROFIL
 10
77.299999999998875
 20
-48.500000000000121
 30
0.0
 42
-0.4142135623730951
  0
VERTEX
  5
1B43
  8
SAPA_PROFIL
 10
76.299999999998875
 20
-47.500000000000107
 30
0.0
  0
VERTEX
  5
1B44
  8
SAPA_PROFIL
 10
76.299999999998875
 20
-13.10000000000014
 30
0.0
 42
-0.4142135623730951
  0
VERTEX
  5
1B45
  8
SAPA_PROFIL
 10
77.299999999998875
 20
-12.100000000000129
 30
0.0
  0
VERTEX
  5
1B46
  8
SAPA_PROFIL
 10
79.124999999998863
 20
-12.100000000000129
 30
0.0
 42
0.4142135623730914
  0
VERTEX
  5
1B47
  8
SAPA_PROFIL
 10
83.724999999998829
 20
-7.5000000000001128
 30
0.0
  0
VERTEX
  5
1B48
  8
SAPA_PROFIL
 10
83.724999999998772
 20
-5.800000000000181
 30
0.0
 42
-0.4142135623730951
  0
VERTEX
  5
1B49
  8
SAPA_PROFIL
 10
84.224999999998758
 20
-5.300000000000181
 30
0.0
  0
VERTEX
  5
1B4A
  8
SAPA_PROFIL
 10
91.699999999998866
 20
-5.3000000000000682
 30
0.0
 42
-0.4142135623730951
  0
VERTEX
  5
1B4B
  8
SAPA_PROFIL
 10
91.999999999998735
 20
-5.6000000000001364
 30
0.0
  0
VERTEX
  5
1B4C
  8
SAPA_PROFIL
 10
91.999999999998863
 20
-5.7000000000001592
 30
0.0
 42
0.4142135623730951
  0
VERTEX
  5
1B4D
  8
SAPA_PROFIL
 10
92.299999999998803
 20
-6.0000000000001128
 30
0.0
  0
VERTEX
  5
1B4E
  8
SAPA_PROFIL
 10
106.69999999999879
 20
-6.0000000000001128
 30
0.0
 42
0.4142135623730951
  0
VERTEX
  5
1B4F
  8
SAPA_PROFIL
 10
106.99999999999871
 20
-5.7000000000001592
 30
0.0
  0
VERTEX
  5
1B50
  8
SAPA_PROFIL
 10
106.99999999999881
 20
-5.6000000000001364
 30
0.0
 42
-0.4142135623730951
  0
SEQEND
  5
1B51
  8
SAPA_PROFIL
  0
POLYLINE
  5
164E
  8
SAPA_PROFIL
 66
     1
 10
0.0
 20
0.0
 30
0.0
 70
     1
  0
VERTEX
  5
1B52
  8
SAPA_PROFIL
 10
120.49999999999881
 20
-55.0
 30
0.0
  0
VERTEX
  5
1B53
  8
SAPA_PROFIL
 10
120.49999999999881
 20
-54.0
 30
0.0
  0
VERTEX
  5
1B54
  8
SAPA_PROFIL
 10
122.69999999999889
 20
-54.0
 30
0.0
  0
VERTEX
  5
1B55
  8
SAPA_PROFIL
 10
122.69999999999889
 20
-51.0
 30
0.0
  0
VERTEX
  5
1B56
  8
SAPA_PROFIL
 10
103.99999999999881
 20
-51.000000000000121
 30
0.0
  0
VERTEX
  5
1B57
  8
SAPA_PROFIL
 10
103.99999999999881
 20
-54.000000000000107
 30
0.0
  0
VERTEX
  5
1B58
  8
SAPA_PROFIL
 10
106.49999999999881
 20
-54.000000000000107
 30
0.0
  0
VERTEX
  5
1B59
  8
SAPA_PROFIL
 10
106.49999999999881
 20
-55.000000000000107
 30
0.0
  0
VERTEX
  5
1B5A
  8
SAPA_PROFIL
 10
105.69999999999879
 20
-55.800000000000068
 30
0.0
  0
VERTEX
  5
1B5B
  8
SAPA_PROFIL
 10
100.01961524226959
 20
-55.800000000000068
 30
0.0
  0
VERTEX
  5
1B5C
  8
SAPA_PROFIL
 10
99.49999999999892
 20
-55.500000000000107
 30
0.0
  0
VERTEX
  5
1B5D
  8
SAPA_PROFIL
 10
98.980384757728245
 20
-55.800000000000068
 30
0.0
  0
VERTEX
  5
1B5E
  8
SAPA_PROFIL
 10
93.299999999998875
 20
-55.800000000000068
 30
0.0
  0
VERTEX
  5
1B5F
  8
SAPA_PROFIL
 10
92.499999999998906
 20
-55.000000000000107
 30
0.0
  0
VERTEX
  5
1B60
  8
SAPA_PROFIL
 10
92.499999999998906
 20
-54.000000000000107
 30
0.0
  0
VERTEX
  5
1B61
  8
SAPA_PROFIL
 10
94.999999999998906
 20
-54.000000000000107
 30
0.0
  0
VERTEX
  5
1B62
  8
SAPA_PROFIL
 10
94.999999999998863
 20
-51.000000000000121
 30
0.0
  0
VERTEX
  5
1B63
  8
SAPA_PROFIL
 10
76.299999999998875
 20
-51.000000000000121
 30
0.0
  0
VERTEX
  5
1B64
  8
SAPA_PROFIL
 10
76.299999999998931
 20
-54.000000000000107
 30
0.0
  0
VERTEX
  5
1B65
  8
SAPA_PROFIL
 10
78.49999999999892
 20
-54.000000000000107
 30
0.0
  0
VERTEX
  5
1B66
  8
SAPA_PROFIL
 10
78.49999999999892
 20
-55.000000000000107
 30
0.0
  0
VERTEX
  5
1B67
  8
SAPA_PROFIL
 10
77.49999999999892
 20
-56.000000000000121
 30
0.0
  0
VERTEX
  5
1B68
  8
SAPA_PROFIL
 10
76.299999999998931
 20
-56.000000000000121
 30
0.0
  0
VERTEX
  5
1B69
  8
SAPA_PROFIL
 10
76.299999999998988
 20
-66.000000000000114
 30
0.0
 42
0.4142135623730951
  0
VERTEX
  5
1B6A
  8
SAPA_PROFIL
 10
76.799999999998988
 20
-66.500000000000114
 30
0.0
  0
VERTEX
  5
1B6B
  8
SAPA_PROFIL
 10
78.009999999998968
 20
-66.500000000000114
 30
0.0
 42
-0.4142135623730951
  0
VERTEX
  5
1B6C
  8
SAPA_PROFIL
 10
78.999999999998906
 20
-67.490000000000123
 30
0.0
  0
VERTEX
  5
1B6D
  8
SAPA_PROFIL
 10
78.999999999998977
 20
-68.010000000000105
 30
0.0
 42
-0.4142135623730951
  0
VERTEX
  5
1B6E
  8
SAPA_PROFIL
 10
78.009999999998968
 20
-69.000000000000114
 30
0.0
  0
VERTEX
  5
1B6F
  8
SAPA_PROFIL
 10
77.999999999998977
 20
-69.000000000000114
 30
0.0
  0
VERTEX
  5
1B70
  8
SAPA_PROFIL
 10
77.999999999998977
 20
-67.750000000000114
 30
0.0
  0
VERTEX
  5
1B71
  8
SAPA_PROFIL
 10
76.499999999998977
 20
-67.750000000000114
 30
0.0
 42
0.4142135623730951
  0
VERTEX
  5
1B72
  8
SAPA_PROFIL
 10
75.999999999998977
 20
-68.250000000000114
 30
0.0
  0
VERTEX
  5
1B73
  8
SAPA_PROFIL
 10
75.999999999998977
 20
-76.250000000000114
 30
0.0
 42
0.4142135623730951
  0
VERTEX
  5
1B74
  8
SAPA_PROFIL
 10
76.499999999998977
 20
-76.750000000000114
 30
0.0
  0
VERTEX
  5
1B75
  8
SAPA_PROFIL
 10
77.999999999998977
 20
-76.750000000000114
 30
0.0
  0
VERTEX
  5
1B76
  8
SAPA_PROFIL
 10
77.999999999998977
 20
-75.500000000000114
 30
0.0
  0
VERTEX
  5
1B77
  8
SAPA_PROFIL
 10
78.009999999998968
 20
-75.500000000000114
 30
0.0
 42
-0.4142135623730951
  0
VERTEX
  5
1B78
  8
SAPA_PROFIL
 10
78.999999999998906
 20
-76.490000000000123
 30
0.0
  0
VERTEX
  5
1B79
  8
SAPA_PROFIL
 10
78.999999999998977
 20
-77.700000000000045
 30
0.0
 42
-0.4142135623731229
  0
VERTEX
  5
1B7A
  8
SAPA_PROFIL
 10
78.699999999998965
 20
-78.000000000000114
 30
0.0
  0
VERTEX
  5
1B7B
  8
SAPA_PROFIL
 10
74.799999999998988
 20
-78.000000000000114
 30
0.0
 42
-0.4142135623730675
  0
VERTEX
  5
1B7C
  8
SAPA_PROFIL
 10
74.499999999998977
 20
-77.700000000000045
 30
0.0
  0
VERTEX
  5
1B7D
  8
SAPA_PROFIL
 10
74.499999999998863
 20
-0.3000000000000682
 30
0.0
 42
-0.4142135623731227
  0
VERTEX
  5
1B7E
  8
SAPA_PROFIL
 10
74.799999999998875
 20
-0.0000000000001137
 30
0.0
  0
VERTEX
  5
1B7F
  8
SAPA_PROFIL
 10
76.299999999998875
 20
-0.0000000000001137
 30
0.0
 42
-0.4142135623730951
  0
VERTEX
  5
1B80
  8
SAPA_PROFIL
 10
77.799999999998875
 20
-1.500000000000113
 30
0.0
  0
VERTEX
  5
1B81
  8
SAPA_PROFIL
 10
77.799999999998875
 20
-2.0000000000001128
 30
0.0
  0
VERTEX
  5
1B82
  8
SAPA_PROFIL
 10
76.52499999999884
 20
-2.0000000000001128
 30
0.0
  0
VERTEX
  5
1B83
  8
SAPA_PROFIL
 10
76.52499999999884
 20
-3.100000000000136
 30
0.0
  0
VERTEX
  5
1B84
  8
SAPA_PROFIL
 10
77.499999999998863
 20
-3.100000000000136
 30
0.0
 42
-0.4142135623731227
  0
VERTEX
  5
1B85
  8
SAPA_PROFIL
 10
77.799999999998818
 20
-3.4000000000000901
 30
0.0
  0
VERTEX
  5
1B86
  8
SAPA_PROFIL
 10
77.799999999998818
 20
-4.4000000000000901
 30
0.0
  0
VERTEX
  5
1B87
  8
SAPA_PROFIL
 10
76.52499999999884
 20
-4.4000000000000901
 30
0.0
  0
VERTEX
  5
1B88
  8
SAPA_PROFIL
 10
76.52499999999884
 20
-7.5000000000001128
 30
0.0
 42
1.0
  0
VERTEX
  5
1B89
  8
SAPA_PROFIL
 10
81.724999999998829
 20
-7.5000000000001128
 30
0.0
  0
VERTEX
  5
1B8A
  8
SAPA_PROFIL
 10
81.724999999998886
 20
-4.4000000000002037
 30
0.0
  0
VERTEX
  5
1B8B
  8
SAPA_PROFIL
 10
80.499999999998806
 20
-4.4000000000002037
 30
0.0
  0
VERTEX
  5
1B8C
  8
SAPA_PROFIL
 10
80.499999999998806
 20
-3.4000000000000901
 30
0.0
 42
-0.4142135623730673
  0
VERTEX
  5
1B8D
  8
SAPA_PROFIL
 10
80.799999999998818
 20
-3.100000000000136
 30
0.0
  0
VERTEX
  5
1B8E
  8
SAPA_PROFIL
 10
81.724999999998886
 20
-3.100000000000136
 30
0.0
  0
VERTEX
  5
1B8F
  8
SAPA_PROFIL
 10
81.724999999998886
 20
-2.0000000000001128
 30
0.0
  0
VERTEX
  5
1B90
  8
SAPA_PROFIL
 10
80.499999999998863
 20
-2.0000000000001128
 30
0.0
  0
VERTEX
  5
1B91
  8
SAPA_PROFIL
 10
80.499999999998863
 20
-1.500000000000113
 30
0.0
 42
-0.4142135623730951
  0
VERTEX
  5
1B92
  8
SAPA_PROFIL
 10
81.999999999998863
 20
-0.0000000000001137
 30
0.0
  0
VERTEX
  5
1B93
  8
SAPA_PROFIL
 10
83.449999999998852
 20
-0.0000000000001137
 30
0.0
 42
-0.4142135623731227
  0
VERTEX
  5
1B94
  8
SAPA_PROFIL
 10
83.749999999998863
 20
-0.3000000000000682
 30
0.0
  0
VERTEX
  5
1B95
  8
SAPA_PROFIL
 10
83.749999999998863
 20
-2.8000000000000682
 30
0.0
  0
VERTEX
  5
1B96
  8
SAPA_PROFIL
 10
98.980384757728189
 20
-2.8000000000000682
 30
0.0
  0
VERTEX
  5
1B97
  8
SAPA_PROFIL
 10
99.499999999998863
 20
-3.1000000000000218
 30
0.0
  0
VERTEX
  5
1B98
  8
SAPA_PROFIL
 10
100.0196152422694
 20
-2.8000000000000682
 30
0.0
  0
VERTEX
  5
1B99
  8
SAPA_PROFIL
 10
115.24999999999881
 20
-2.8000000000000682
 30
0.0
  0
VERTEX
  5
1B9A
  8
SAPA_PROFIL
 10
115.24999999999881
 20
-0.3000000000000682
 30
0.0
 42
-0.4142135623730951
  0
VERTEX
  5
1B9B
  8
SAPA_PROFIL
 10
115.5499999999989
 20
0.0
 30
0.0
  0
VERTEX
  5
1B9C
  8
SAPA_PROFIL
 10
116.99999999999881
 20
0.0
 30
0.0
 42
-0.4142135623730951
  0
VERTEX
  5
1B9D
  8
SAPA_PROFIL
 10
118.49999999999881
 20
-1.5
 30
0.0
  0
VERTEX
  5
1B9E
  8
SAPA_PROFIL
 10
118.49999999999881
 20
-2.0
 30
0.0
  0
VERTEX
  5
1B9F
  8
SAPA_PROFIL
 10
117.2749999999988
 20
-2.0
 30
0.0
  0
VERTEX
  5
1BA0
  8
SAPA_PROFIL
 10
117.2749999999988
 20
-3.1000000000000218
 30
0.0
  0
VERTEX
  5
1BA1
  8
SAPA_PROFIL
 10
118.19999999999889
 20
-3.1000000000000218
 30
0.0
 42
-0.4142135623730951
  0
VERTEX
  5
1BA2
  8
SAPA_PROFIL
 10
118.49999999999881
 20
-3.3999999999999768
 30
0.0
  0
VERTEX
  5
1BA3
  8
SAPA_PROFIL
 10
118.49999999999881
 20
-4.4000000000000901
 30
0.0
  0
VERTEX
  5
1BA4
  8
SAPA_PROFIL
 10
117.2749999999988
 20
-4.4000000000000901
 30
0.0
  0
VERTEX
  5
1BA5
  8
SAPA_PROFIL
 10
117.2749999999988
 20
-7.5
 30
0.0
 42
1.0
  0
VERTEX
  5
1BA6
  8
SAPA_PROFIL
 10
122.4749999999989
 20
-7.5
 30
0.0
  0
VERTEX
  5
1BA7
  8
SAPA_PROFIL
 10
122.4749999999989
 20
-4.4000000000000901
 30
0.0
  0
VERTEX
  5
1BA8
  8
SAPA_PROFIL
 10
121.19999999999889
 20
-4.4000000000000901
 30
0.0
  0
VERTEX
  5
1BA9
  8
SAPA_PROFIL
 10
121.19999999999889
 20
-3.4000000000000901
 30
0.0
 42
-0.4142135623730951
  0
VERTEX
  5
1BAA
  8
SAPA_PROFIL
 10
121.49999999999881
 20
-3.1000000000000218
 30
0.0
  0
VERTEX
  5
1BAB
  8
SAPA_PROFIL
 10
122.4749999999989
 20
-3.1000000000000218
 30
0.0
  0
VERTEX
  5
1BAC
  8
SAPA_PROFIL
 10
122.4749999999989
 20
-2.0
 30
0.0
  0
VERTEX
  5
1BAD
  8
SAPA_PROFIL
 10
121.19999999999889
 20
-2.0
 30
0.0
  0
VERTEX
  5
1BAE
  8
SAPA_PROFIL
 10
121.19999999999889
 20
-1.5
 30
0.0
 42
-0.4142135623730951
  0
VERTEX
  5
1BAF
  8
SAPA_PROFIL
 10
122.69999999999889
 20
0.0
 30
0.0
  0
VERTEX
  5
1BB0
  8
SAPA_PROFIL
 10
124.19999999999889
 20
0.0
 30
0.0
 42
-0.4142135623730951
  0
VERTEX
  5
1BB1
  8
SAPA_PROFIL
 10
124.49999999999881
 20
-0.3000000000000682
 30
0.0
  0
VERTEX
  5
1BB2
  8
SAPA_PROFIL
 10
124.49999999999881
 20
-56.0
 30
0.0
  0
VERTEX
  5
1BB3
  8
SAPA_PROFIL
 10
121.49999999999881
 20
-56.0
 30
0.0
  0
SEQEND
  5
1BB4
  8
SAPA_PROFIL
  0
POLYLINE
  5
164F
  8
SAPA_PROFIL
 66
     1
 10
0.0
 20
0.0
 30
0.0
 70
     1
  0
VERTEX
  5
1BB5
  8
SAPA_PROFIL
 10
68.494881179556856
 20
10.69095294973101
 30
0.0
  0
VERTEX
  5
1BB6
  8
SAPA_PROFIL
 10
67.494881179556856
 20
9.6909529497310132
 30
0.0
  0
VERTEX
  5
1BB7
  8
SAPA_PROFIL
 10
67.494881179556842
 20
-1.3090470502689859
 30
0.0
  0
VERTEX
  5
1BB8
  8
SAPA_PROFIL
 10
68.494881179556842
 20
-2.3090470502689859
 30
0.0
  0
VERTEX
  5
1BB9
  8
SAPA_PROFIL
 10
68.494881179556842
 20
-4.8090463081971393
 30
0.0
 42
-1.0000014841447959
  0
VERTEX
  5
1BBA
  8
SAPA_PROFIL
 10
67.49488117955741
 20
-4.8090463081971393
 30
0.0
  0
VERTEX
  5
1BBB
  8
SAPA_PROFIL
 10
67.494881179556842
 20
-3.5590470502689859
 30
0.0
  0
VERTEX
  5
1BBC
  8
SAPA_PROFIL
 10
66.394881179556819
 20
-3.5590470502689859
 30
0.0
  0
VERTEX
  5
1BBD
  8
SAPA_PROFIL
 10
66.394881179556819
 20
-11.05904705026898
 30
0.0
  0
VERTEX
  5
1BBE
  8
SAPA_PROFIL
 10
67.494881179556842
 20
-11.05904705026898
 30
0.0
  0
VERTEX
  5
1BBF
  8
SAPA_PROFIL
 10
67.494881179556842
 20
-9.8090451474660085
 30
0.0
 42
-0.9999967549392536
  0
VERTEX
  5
1BC0
  8
SAPA_PROFIL
 10
68.494881179555023
 20
-9.8090457080060105
 30
0.0
  0
VERTEX
  5
1BC1
  8
SAPA_PROFIL
 10
68.494881179556842
 20
-11.84494543513131
 30
0.0
  0
VERTEX
  5
1BC2
  8
SAPA_PROFIL
 10
67.360906583341261
 20
-13.80904705026899
 30
0.0
 42
-0.577350269189629
  0
VERTEX
  5
1BC3
  8
SAPA_PROFIL
 10
65.628855775772365
 20
-13.80904705026899
 30
0.0
  0
VERTEX
  5
1BC4
  8
SAPA_PROFIL
 10
64.628855775772422
 20
-12.076996242700259
 30
0.0
 42
-0.4142135623730394
  0
VERTEX
  5
1BC5
  8
SAPA_PROFIL
 10
64.994881179556671
 20
-10.71097083891584
 30
0.0
  0
VERTEX
  5
1BC6
  8
SAPA_PROFIL
 10
64.994881179556685
 20
19.092876738377871
 30
0.0
 42
-0.4142135623730394
  0
VERTEX
  5
1BC7
  8
SAPA_PROFIL
 10
64.628855775772436
 20
20.458902142162181
 30
0.0
  0
VERTEX
  5
1BC8
  8
SAPA_PROFIL
 10
65.628855775772379
 20
22.19095294973101
 30
0.0
 42
-0.5773502691896291
  0
VERTEX
  5
1BC9
  8
SAPA_PROFIL
 10
67.360906583341276
 20
22.19095294973101
 30
0.0
  0
VERTEX
  5
1BCA
  8
SAPA_PROFIL
 10
68.494881179556856
 20
20.226851334593221
 30
0.0
  0
VERTEX
  5
1BCB
  8
SAPA_PROFIL
 10
68.494881179555037
 20
18.19095160746798
 30
0.0
 42
-0.9999967549392536
  0
VERTEX
  5
1BCC
  8
SAPA_PROFIL
 10
67.494881179556856
 20
18.190951046927982
 30
0.0
  0
VERTEX
  5
1BCD
  8
SAPA_PROFIL
 10
67.494881179556856
 20
19.44095294973101
 30
0.0
  0
VERTEX
  5
1BCE
  8
SAPA_PROFIL
 10
66.394881179556833
 20
19.44095294973101
 30
0.0
  0
VERTEX
  5
1BCF
  8
SAPA_PROFIL
 10
66.394881179556833
 20
11.94095294973101
 30
0.0
  0
VERTEX
  5
1BD0
  8
SAPA_PROFIL
 10
67.494881179556856
 20
11.94095294973101
 30
0.0
  0
VERTEX
  5
1BD1
  8
SAPA_PROFIL
 10
67.494881179557424
 20
13.19095220765916
 30
0.0
 42
-1.0000014841447959
  0
VERTEX
  5
1BD2
  8
SAPA_PROFIL
 10
68.494881179556856
 20
13.19095220765916
 30
0.0
  0
SEQEND
  5
1BD3
  8
SAPA_PROFIL
  0
POLYLINE
  5
1650
  8
SAPA_PROFIL
 66
     1
 10
0.0
 20
0.0
 30
0.0
 70
     1
  0
VERTEX
  5
1BD4
  8
SAPA_PROFIL
 10
48.7999999999995
 20
45.000000000000227
 30
0.0
  0
VERTEX
  5
1BD5
  8
SAPA_PROFIL
 10
50.7999999999995
 20
45.000000000000227
 30
0.0
  0
VERTEX
  5
1BD6
  8
SAPA_PROFIL
 10
50.7999999999995
 20
30.65685424949265
 30
0.0
  0
VERTEX
  5
1BD7
  8
SAPA_PROFIL
 10
45.143145750507067
 20
25.000000000000231
 30
0.0
  0
VERTEX
  5
1BD8
  8
SAPA_PROFIL
 10
25.7999999999995
 20
25.000000000000231
 30
0.0
  0
VERTEX
  5
1BD9
  8
SAPA_PROFIL
 10
25.7999999999995
 20
27.000000000000231
 30
0.0
  0
VERTEX
  5
1BDA
  8
SAPA_PROFIL
 10
31.107179676972009
 20
27.000000000000231
 30
0.0
  0
VERTEX
  5
1BDB
  8
SAPA_PROFIL
 10
31.7999999999995
 20
26.600000000000371
 30
0.0
  0
VERTEX
  5
1BDC
  8
SAPA_PROFIL
 10
32.492820323027217
 20
27.000000000000231
 30
0.0
  0
VERTEX
  5
1BDD
  8
SAPA_PROFIL
 10
43.486291501014868
 20
27.000000000000231
 30
0.0
 42
0.1989123673796584
  0
VERTEX
  5
1BDE
  8
SAPA_PROFIL
 10
44.900505063387982
 20
27.585786437627121
 30
0.0
  0
VERTEX
  5
1BDF
  8
SAPA_PROFIL
 10
48.214213562372599
 20
30.899494936611969
 30
0.0
 42
0.1989123673796572
  0
VERTEX
  5
1BE0
  8
SAPA_PROFIL
 10
48.7999999999995
 20
32.313708498985079
 30
0.0
  0
VERTEX
  5
1BE1
  8
SAPA_PROFIL
 10
48.7999999999995
 20
38.307179676972737
 30
0.0
  0
VERTEX
  5
1BE2
  8
SAPA_PROFIL
 10
49.199999999999591
 20
39.000000000000227
 30
0.0
  0
VERTEX
  5
1BE3
  8
SAPA_PROFIL
 10
48.7999999999995
 20
39.692820323027952
 30
0.0
  0
SEQEND
  5
1BE4
  8
SAPA_PROFIL
  0
POLYLINE
  5
1651
  8
SAPA_PROFIL
 66
     1
 10
0.0
 20
0.0
 30
0.0
 70
     1
  0
VERTEX
  5
1BE5
  8
SAPA_PROFIL
 10
-49.600000000001963
 20
23.299999999998761
 30
0.0
  0
VERTEX
  5
1BE6
  8
SAPA_PROFIL
 10
-46.000000000001592
 20
23.299999999998761
 30
0.0
 42
-0.4142135623731054
  0
VERTEX
  5
1BE7
  8
SAPA_PROFIL
 10
-45.500000000001592
 20
22.799999999998761
 30
0.0
  0
VERTEX
  5
1BE8
  8
SAPA_PROFIL
 10
-45.500000000001812
 20
16.699999999998852
 30
0.0
 42
-0.4142135623730804
  0
VERTEX
  5
1BE9
  8
SAPA_PROFIL
 10
-46.000000000001812
 20
16.199999999998852
 30
0.0
  0
VERTEX
  5
1BEA
  8
SAPA_PROFIL
 10
-49.600000000002062
 20
16.199999999998852
 30
0.0
 42
-0.4142135623731039
  0
VERTEX
  5
1BEB
  8
SAPA_PROFIL
 10
-50.100000000002069
 20
16.699999999998852
 30
0.0
  0
VERTEX
  5
1BEC
  8
SAPA_PROFIL
 10
-50.100000000001963
 20
22.799999999998761
 30
0.0
 42
-0.4142135623730908
  0
SEQEND
  5
1BED
  8
SAPA_PROFIL
  0
POLYLINE
  5
1652
  8
SAPA_PROFIL
 66
     1
 10
0.0
 20
0.0
 30
0.0
 70
     1
  0
VERTEX
  5
1BEE
  8
SAPA_PROFIL
 10
-57.400000000002137
 20
17.799999999998992
 30
0.0
  0
VERTEX
  5
1BEF
  8
SAPA_PROFIL
 10
-56.935076580436771
 20
18.386384015759798
 30
0.0
 42
-0.7105995015651491
  0
VERTEX
  5
1BF0
  8
SAPA_PROFIL
 10
-56.40000000000191
 20
18.199999999999079
 30
0.0
  0
VERTEX
  5
1BF1
  8
SAPA_PROFIL
 10
-56.400000000002031
 20
16.699999999999079
 30
0.0
 42
0.4142135623731341
  0
VERTEX
  5
1BF2
  8
SAPA_PROFIL
 10
-55.900000000002017
 20
16.199999999999079
 30
0.0
  0
VERTEX
  5
1BF3
  8
SAPA_PROFIL
 10
-52.10000000000241
 20
16.199999999999079
 30
0.0
 42
0.4142135623730868
  0
VERTEX
  5
1BF4
  8
SAPA_PROFIL
 10
-51.60000000000241
 20
16.699999999999079
 30
0.0
  0
VERTEX
  5
1BF5
  8
SAPA_PROFIL
 10
-51.600000000001948
 20
22.799999999998871
 30
0.0
 42
0.4142135623731033
  0
VERTEX
  5
1BF6
  8
SAPA_PROFIL
 10
-52.100000000001963
 20
23.299999999998882
 30
0.0
  0
VERTEX
  5
1BF7
  8
SAPA_PROFIL
 10
-55.90000000000191
 20
23.299999999998882
 30
0.0
 42
0.4142135623730435
  0
VERTEX
  5
1BF8
  8
SAPA_PROFIL
 10
-56.40000000000191
 20
22.799999999998992
 30
0.0
  0
VERTEX
  5
1BF9
  8
SAPA_PROFIL
 10
-56.40000000000213
 20
21.799999999998992
 30
0.0
 42
-0.7105995015650766
  0
VERTEX
  5
1BFA
  8
SAPA_PROFIL
 10
-56.935076580436771
 20
21.613615984238269
 30
0.0
  0
VERTEX
  5
1BFB
  8
SAPA_PROFIL
 10
-57.400000000002137
 20
22.199999999999079
 30
0.0
  0
VERTEX
  5
1BFC
  8
SAPA_PROFIL
 10
-57.400000000002251
 20
24.299999999998992
 30
0.0
 42
-0.4142135623731
  0
VERTEX
  5
1BFD
  8
SAPA_PROFIL
 10
-56.900000000002251
 20
24.799999999998992
 30
0.0
  0
VERTEX
  5
1BFE
  8
SAPA_PROFIL
 10
-44.000000000001592
 20
24.799999999998882
 30
0.0
 42
-0.4142135623730902
  0
VERTEX
  5
1BFF
  8
SAPA_PROFIL
 10
-43.500000000001592
 20
24.299999999998882
 30
0.0
  0
VERTEX
  5
1C00
  8
SAPA_PROFIL
 10
-43.500000000001357
 20
22.699999999998852
 30
0.0
  0
VERTEX
  5
1C01
  8
SAPA_PROFIL
 10
-43.500000000001357
 20
22.699999999998852
 30
0.0
 42
0.4142135623730951
  0
VERTEX
  5
1C02
  8
SAPA_PROFIL
 10
-44.000000000001357
 20
22.199999999998852
 30
0.0
  0
VERTEX
  5
1C03
  8
SAPA_PROFIL
 10
-44.000000000001357
 20
15.19999999999885
 30
0.0
 42
-0.4142135623730946
  0
VERTEX
  5
1C04
  8
SAPA_PROFIL
 10
-44.500000000001357
 20
14.69999999999885
 30
0.0
  0
VERTEX
  5
1C05
  8
SAPA_PROFIL
 10
-49.600000000001842
 20
14.69999999999885
 30
0.0
 42
0.4142135623730951
  0
VERTEX
  5
1C06
  8
SAPA_PROFIL
 10
-50.100000000001842
 20
14.19999999999885
 30
0.0
  0
VERTEX
  5
1C07
  8
SAPA_PROFIL
 10
-50.100000000002069
 20
11.19999999999885
 30
0.0
 42
0.4142135623730951
  0
VERTEX
  5
1C08
  8
SAPA_PROFIL
 10
-49.600000000002062
 20
10.69999999999896
 30
0.0
  0
VERTEX
  5
1C09
  8
SAPA_PROFIL
 10
-33.700000000001637
 20
10.69999999999999
 30
0.0
 42
0.4142135623730951
  0
VERTEX
  5
1C0A
  8
SAPA_PROFIL
 10
-33.40000000000169
 20
10.99999999999994
 30
0.0
  0
VERTEX
  5
1C0B
  8
SAPA_PROFIL
 10
-33.400000000001803
 20
12.288210879707719
 30
0.0
 42
-0.6681786379192946
  0
VERTEX
  5
1C0C
  8
SAPA_PROFIL
 10
-32.887867965645803
 20
12.50034291406365
 30
0.0
  0
VERTEX
  5
1C0D
  8
SAPA_PROFIL
 10
-30.687867965645751
 20
10.30034291406383
 30
0.0
 42
-0.1989123673796376
  0
VERTEX
  5
1C0E
  8
SAPA_PROFIL
 10
-30.600000000001621
 20
10.0882108797079
 30
0.0
  0
VERTEX
  5
1C0F
  8
SAPA_PROFIL
 10
-30.600000000001621
 20
9.4999999999998295
 30
0.0
 42
-0.4142135623730951
  0
VERTEX
  5
1C10
  8
SAPA_PROFIL
 10
-30.900000000001569
 20
9.1999999999997613
 30
0.0
  0
VERTEX
  5
1C11
  8
SAPA_PROFIL
 10
-49.600000000002296
 20
9.1999999999997613
 30
0.0
 42
0.4142135623730951
  0
VERTEX
  5
1C12
  8
SAPA_PROFIL
 10
-50.100000000002289
 20
8.6999999999997613
 30
0.0
  0
VERTEX
  5
1C13
  8
SAPA_PROFIL
 10
-50.100000000002289
 20
6.9999999999999432
 30
0.0
 42
0.4142135623730951
  0
VERTEX
  5
1C14
  8
SAPA_PROFIL
 10
-49.600000000002296
 20
6.4999999999999432
 30
0.0
  0
VERTEX
  5
1C15
  8
SAPA_PROFIL
 10
-38.100000000002531
 20
6.5000000000001696
 30
0.0
 42
-0.4142135623731011
  0
VERTEX
  5
1C16
  8
SAPA_PROFIL
 10
-37.600000000002517
 20
6.0000000000001696
 30
0.0
  0
VERTEX
  5
1C17
  8
SAPA_PROFIL
 10
-37.600000000002517
 20
5.500000000000056
 30
0.0
 42
-0.4142135623731173
  0
VERTEX
  5
1C18
  8
SAPA_PROFIL
 10
-38.100000000002531
 20
5.000000000000056
 30
0.0
  0
VERTEX
  5
1C19
  8
SAPA_PROFIL
 10
-51.100000000002638
 20
5.0000000000009663
 30
0.0
 42
-0.4142135623730951
  0
VERTEX
  5
1C1A
  8
SAPA_PROFIL
 10
-51.60000000000263
 20
5.5000000000009663
 30
0.0
  0
VERTEX
  5
1C1B
  8
SAPA_PROFIL
 10
-51.60000000000263
 20
14.199999999999299
 30
0.0
 42
0.4142135623730806
  0
VERTEX
  5
1C1C
  8
SAPA_PROFIL
 10
-52.10000000000263
 20
14.699999999999299
 30
0.0
  0
VERTEX
  5
1C1D
  8
SAPA_PROFIL
 10
-55.400000000002137
 20
14.699999999999759
 30
0.0
 42
0.4142135623730951
  0
VERTEX
  5
1C1E
  8
SAPA_PROFIL
 10
-55.90000000000213
 20
14.199999999999759
 30
0.0
  0
VERTEX
  5
1C1F
  8
SAPA_PROFIL
 10
-55.900000000002592
 20
10.500000000000851
 30
0.0
 42
-0.4142135623730586
  0
VERTEX
  5
1C20
  8
SAPA_PROFIL
 10
-56.400000000002592
 20
10.000000000000851
 30
0.0
  0
VERTEX
  5
1C21
  8
SAPA_PROFIL
 10
-56.900000000002358
 20
10.000000000000851
 30
0.0
 42
-0.4142135623730951
  0
VERTEX
  5
1C22
  8
SAPA_PROFIL
 10
-57.400000000002358
 20
10.500000000000851
 30
0.0
  0
SEQEND
  5
1C23
  8
SAPA_PROFIL
  0
POLYLINE
  5
1653
  8
SAPA_PROFIL
 66
     1
 10
0.0
 20
0.0
 30
0.0
 70
     1
  0
VERTEX
  5
1C24
  8
SAPA_PROFIL
 10
-81.098475071208114
 20
-22.800000000000189
 30
0.0
  0
VERTEX
  5
1C25
  8
SAPA_PROFIL
 10
-81.098475071208114
 20
-23.800000000000189
 30
0.0
  0
VERTEX
  5
1C26
  8
SAPA_PROFIL
 10
-78.498475071207949
 20
-23.800000000000189
 30
0.0
 42
-0.4142135623730951
  0
VERTEX
  5
1C27
  8
SAPA_PROFIL
 10
-77.998475071207935
 20
-24.300000000000189
 30
0.0
  0
VERTEX
  5
1C28
  8
SAPA_PROFIL
 10
-77.998475071207935
 20
-24.70000000000028
 30
0.0
 42
-0.4142135623730951
  0
VERTEX
  5
1C29
  8
SAPA_PROFIL
 10
-78.298475071207903
 20
-25.000000000000231
 30
0.0
  0
VERTEX
  5
1C2A
  8
SAPA_PROFIL
 10
-95.999999999010598
 20
-25.000000000000231
 30
0.0
 42
-0.4142135623730951
  0
VERTEX
  5
1C2B
  8
SAPA_PROFIL
 10
-96.499999999010598
 20
-24.500000000000231
 30
0.0
  0
VERTEX
  5
1C2C
  8
SAPA_PROFIL
 10
-96.499999999010583
 20
24.499999999999769
 30
0.0
 42
-0.4142135623730951
  0
VERTEX
  5
1C2D
  8
SAPA_PROFIL
 10
-95.999999999010583
 20
24.999999999999769
 30
0.0
  0
VERTEX
  5
1C2E
  8
SAPA_PROFIL
 10
-78.298475071207875
 20
24.999999999999769
 30
0.0
 42
-0.4142135623730951
  0
VERTEX
  5
1C2F
  8
SAPA_PROFIL
 10
-77.998475071207935
 20
24.699999999999811
 30
0.0
  0
VERTEX
  5
1C30
  8
SAPA_PROFIL
 10
-77.998475071207935
 20
24.29999999999972
 30
0.0
 42
-0.4142135623730951
  0
VERTEX
  5
1C31
  8
SAPA_PROFIL
 10
-78.498475071207935
 20
23.79999999999972
 30
0.0
  0
VERTEX
  5
1C32
  8
SAPA_PROFIL
 10
-81.098475071208085
 20
23.79999999999972
 30
0.0
  0
VERTEX
  5
1C33
  8
SAPA_PROFIL
 10
-81.098475071208085
 20
22.79999999999972
 30
0.0
  0
VERTEX
  5
1C34
  8
SAPA_PROFIL
 10
-82.102507830841091
 20
22.22033922157857
 30
0.0
 42
-0.4155392929676362
  0
VERTEX
  5
1C35
  8
SAPA_PROFIL
 10
-83.197126802633065
 20
22.51631264788443
 30
0.0
  0
VERTEX
  5
1C36
  8
SAPA_PROFIL
 10
-83.93826404093204
 20
23.79999999999972
 30
0.0
  0
VERTEX
  5
1C37
  8
SAPA_PROFIL
 10
-94.099999999010734
 20
23.799999999999731
 30
0.0
 42
0.4142135623730951
  0
VERTEX
  5
1C38
  8
SAPA_PROFIL
 10
-95.09999999901072
 20
22.799999999999731
 30
0.0
  0
VERTEX
  5
1C39
  8
SAPA_PROFIL
 10
-95.099999999010734
 20
-22.800000000000178
 30
0.0
 42
0.4142135623730951
  0
VERTEX
  5
1C3A
  8
SAPA_PROFIL
 10
-94.099999999010734
 20
-23.800000000000178
 30
0.0
  0
VERTEX
  5
1C3B
  8
SAPA_PROFIL
 10
-83.938264040932054
 20
-23.800000000000189
 30
0.0
  0
VERTEX
  5
1C3C
  8
SAPA_PROFIL
 10
-83.197126802633093
 20
-22.516312647884892
 30
0.0
 42
-0.4155392929676362
  0
VERTEX
  5
1C3D
  8
SAPA_PROFIL
 10
-82.102507830841105
 20
-22.220339221579032
 30
0.0
  0
SEQEND
  5
1C3E
  8
SAPA_PROFIL
  0
LINE
  5
1654
  8
SAPA_PROFIL
 10
-76.49999999901047
 20
23.300000000000079
 30
0.0
 11
-76.49999999901047
 21
20.850000000000271
 31
0.0
  0
ARC
  5
1655
  8
SAPA_PROFIL
 10
-76.99999999901047
 20
23.300000000000079
 30
0.0
 40
0.5
 50
0.0
 51
90.0
  0
LINE
  5
1656
  8
SAPA_PROFIL
 10
-80.699999999010274
 20
23.800000000000541
 30
0.0
 11
-76.99999999901047
 21
23.800000000000079
 31
0.0
  0
ARC
  5
1657
  8
SAPA_PROFIL
 10
-80.699999999010274
 20
23.500000000000359
 30
0.0
 40
0.3000000000001819
 50
90.0
 51
180.0
  0
LINE
  5
1658
  8
SAPA_PROFIL
 10
-80.99999999901047
 20
22.473205080757349
 30
0.0
 11
-80.99999999901047
 21
23.500000000000359
 31
0.0
  0
ARC
  5
1659
  8
SAPA_PROFIL
 10
-81.299999999010396
 20
22.47320508075747
 30
0.0
 40
0.2999999999999225
 50
299.9999999999722
 51
359.99999999997829
  0
LINE
  5
165A
  8
SAPA_PROFIL
 10
-82.687083486550804
 20
21.325961894323779
 30
0.0
 11
-81.149999999010575
 21
22.213397459622129
 31
0.0
  0
ARC
  5
165B
  8
SAPA_PROFIL
 10
-82.837083486550924
 20
21.58576951545896
 30
0.0
 40
0.2999999999999183
 50
210.0000000000197
 51
300.00000000003178
  0
LINE
  5
165C
  8
SAPA_PROFIL
 10
-83.404123202713436
 20
21.967911113762408
 30
0.0
 11
-83.096891107686133
 21
21.435769515458919
 31
0.0
  0
ARC
  5
165D
  8
SAPA_PROFIL
 10
-84.270148606497614
 20
21.46791111376244
 30
0.0
 40
0.9999999999997509
 50
30.000000000006469
 51
130.0000000000266
  0
LINE
  5
165E
  8
SAPA_PROFIL
 10
-89.821393803853425
 20
18.115270605417109
 30
0.0
 11
-84.912936216184335
 21
22.233955556880929
 31
0.0
  0
ARC
  5
165F
  8
SAPA_PROFIL
 10
-89.499999999010456
 20
17.73224838385736
 30
0.0
 40
0.5000000000000142
 50
129.99999999995401
 51
179.99999999994299
  0
LINE
  5
1660
  8
SAPA_PROFIL
 10
-89.999999999010484
 20
9.7002075382096251
 30
0.0
 11
-89.999999999010484
 21
17.732248383857851
 31
0.0
  0
ARC
  5
1661
  8
SAPA_PROFIL
 10
-88.999999999010342
 20
9.7002075382096997
 30
0.0
 40
1.000000000000131
 50
180.00000000000409
 51
250.00000000000529
  0
LINE
  5
1662
  8
SAPA_PROFIL
 10
-85.657979855684516
 20
7.4196339112453566
 30
0.0
 11
-89.342020142335954
 21
8.7605149174236363
 31
0.0
  0
ARC
  5
1663
  8
SAPA_PROFIL
 10
-85.999999999010171
 20
6.4799412904592799
 30
0.0
 40
1.0000000000001561
 50
0.0000000000049362
 51
70.000000000004036
  0
LINE
  5
1664
  8
SAPA_PROFIL
 10
-84.999999999010015
 20
-6.4799412904591067
 30
0.0
 11
-84.999999999010015
 21
6.4799412904593661
 31
0.0
  0
ARC
  5
1665
  8
SAPA_PROFIL
 10
-85.999999999010171
 20
-6.4799412904590206
 30
0.0
 40
1.000000000000153
 50
289.99999999999591
 51
359.99999999999511
  0
LINE
  5
1666
  8
SAPA_PROFIL
 10
-89.342020142335954
 20
-8.7605149174238317
 30
0.0
 11
-85.657979855684516
 21
-7.4196339112450982
 31
0.0
  0
ARC
  5
1667
  8
SAPA_PROFIL
 10
-88.999999999010342
 20
-9.7002075382098951
 30
0.0
 40
1.000000000000127
 50
109.9999999999947
 51
179.99999999999579
  0
LINE
  5
1668
  8
SAPA_PROFIL
 10
-89.999999999010484
 20
-17.732248383857591
 30
0.0
 11
-89.999999999010484
 21
-9.7002075382098223
 31
0.0
  0
ARC
  5
1669
  8
SAPA_PROFIL
 10
-89.499999999009972
 20
-17.732248383857321
 30
0.0
 40
0.5000000000004964
 50
180.00000000003089
 51
230.00000000002029
  0
LINE
  5
166A
  8
SAPA_PROFIL
 10
-84.912936216184335
 20
-22.233955556881131
 30
0.0
 11
-89.821393803853425
 21
-18.115270605417301
 31
0.0
  0
ARC
  5
166B
  8
SAPA_PROFIL
 10
-84.270148606497798
 20
-21.467911113762408
 30
0.0
 40
0.9999999999998065
 50
229.99999999999051
 51
330.00000000001052
  0
LINE
  5
166C
  8
SAPA_PROFIL
 10
-83.096891107686133
 20
-21.435769515459111
 30
0.0
 11
-83.404123202713436
 21
-21.967911113762149
 31
0.0
  0
ARC
  5
166D
  8
SAPA_PROFIL
 10
-82.837083486550696
 20
-21.585769515458921
 30
0.0
 40
0.2999999999999962
 50
60.000000000026517
 51
150.00000000004141
  0
LINE
  5
166E
  8
SAPA_PROFIL
 10
-81.149999999010575
 20
-22.21339745962187
 30
0.0
 11
-82.687083486550804
 21
-21.32596189432353
 31
0.0
  0
ARC
  5
166F
  8
SAPA_PROFIL
 10
-81.299999999010396
 20
-22.473205080757221
 30
0.0
 40
0.2999999999999261
 50
0.0000000000230696
 51
60.000000000028493
  0
LINE
  5
1670
  8
SAPA_PROFIL
 10
-80.99999999901047
 20
-23.500000000000561
 30
0.0
 11
-80.99999999901047
 21
-22.473205080757101
 31
0.0
  0
ARC
  5
1671
  8
SAPA_PROFIL
 10
-80.699999999010515
 20
-23.50000000000033
 30
0.0
 40
0.2999999999999545
 50
180.0000000000434
 51
270.00000000004343
  0
LINE
  5
1672
  8
SAPA_PROFIL
 10
-76.99999999901047
 20
-23.800000000000281
 30
0.0
 11
-80.699999999010274
 21
-23.800000000000281
 31
0.0
  0
ARC
  5
1673
  8
SAPA_PROFIL
 10
-76.99999999901047
 20
-23.300000000000281
 30
0.0
 40
0.5
 50
270.0
 51
0.0
  0
LINE
  5
1674
  8
SAPA_PROFIL
 10
-76.49999999901047
 20
-20.850000000000009
 30
0.0
 11
-76.49999999901047
 21
-23.300000000000281
 31
0.0
  0
ARC
  5
1675
  8
SAPA_PROFIL
 10
-76.799999999010154
 20
-20.849999999999898
 30
0.0
 40
0.2999999999996829
 50
359.99999999997829
 51
44.999999999990401
  0
LINE
  5
1676
  8
SAPA_PROFIL
 10
-76.98786796465447
 20
-20.237867965644099
 30
0.0
 11
-76.587867964654379
 21
-20.63786796564419
 31
0.0
  0
ARC
  5
1677
  8
SAPA_PROFIL
 10
-77.199999999010373
 20
-20.450000000000269
 30
0.0
 40
0.3000000000000966
 50
45.000000000036458
 51
180.00000000001901
  0
LINE
  5
1678
  8
SAPA_PROFIL
 10
-77.49999999901047
 20
-21.300000000000281
 30
0.0
 11
-77.49999999901047
 21
-20.450000000000369
 31
0.0
  0
ARC
  5
1679
  8
SAPA_PROFIL
 10
-77.999999999010527
 20
-21.300000000000221
 30
0.0
 40
0.500000000000057
 50
270.00000000000648
 51
359.99999999999352
  0
LINE
  5
167A
  8
SAPA_PROFIL
 10
-78.390808928730621
 20
-21.79999999999983
 30
0.0
 11
-77.999999999010456
 21
-21.800000000000281
 31
0.0
  0
ARC
  5
167B
  8
SAPA_PROFIL
 10
-78.390808928730578
 20
-21.500000000000082
 30
0.0
 40
0.2999999999997442
 50
229.9999999999954
 51
269.99999999999193
  0
LINE
  5
167C
  8
SAPA_PROFIL
 10
-80.392836281916061
 20
-20.21172177313484
 30
0.0
 11
-78.583645211636394
 21
-21.72981333293556
 31
0.0
  0
ARC
  5
167D
  8
SAPA_PROFIL
 10
-80.199999999010288
 20
-19.981908440199351
 30
0.0
 40
0.2999999999997129
 50
180.00000000000401
 51
230.00000000000409
  0
LINE
  5
167E
  8
SAPA_PROFIL
 10
-80.499999999010456
 20
-16.450000000000369
 30
0.0
 11
-80.499999999010015
 21
-19.981908440199369
 31
0.0
  0
ARC
  5
167F
  8
SAPA_PROFIL
 10
-80.199999999010288
 20
-16.450000000000369
 30
0.0
 40
0.3000000000001819
 50
90.0
 51
180.0
  0
LINE
  5
1680
  8
SAPA_PROFIL
 10
-77.799999999010197
 20
-16.15000000000019
 30
0.0
 11
-80.199999999010288
 21
-16.15000000000019
 31
0.0
  0
ARC
  5
1681
  8
SAPA_PROFIL
 10
-77.799999999010424
 20
-16.450000000000141
 30
0.0
 40
0.2999999999999545
 50
359.99999999995657
 51
89.999999999956557
  0
LINE
  5
1682
  8
SAPA_PROFIL
 10
-77.49999999901047
 20
-16.850000000000009
 30
0.0
 11
-77.49999999901047
 21
-16.450000000000369
 31
0.0
  0
ARC
  5
1683
  8
SAPA_PROFIL
 10
-77.199999999010373
 20
-16.850000000000161
 30
0.0
 40
0.3000000000000748
 50
179.9999999999701
 51
314.99999999997311
  0
LINE
  5
1684
  8
SAPA_PROFIL
 10
-76.587867964654379
 20
-16.662132034356191
 30
0.0
 11
-76.98786796465447
 21
-17.062132034356281
 31
0.0
  0
ARC
  5
1685
  8
SAPA_PROFIL
 10
-76.799999999010225
 20
-16.45000000000045
 30
0.0
 40
0.2999999999997556
 50
315.00000000001478
 51
0.0000000000156059
  0
LINE
  5
1686
  8
SAPA_PROFIL
 10
-76.499999999010015
 20
-14.65000000000019
 30
0.0
 11
-76.49999999901047
 21
-16.450000000000369
 31
0.0
  0
ARC
  5
1687
  8
SAPA_PROFIL
 10
-76.999999999009987
 20
-14.65000000000016
 30
0.0
 40
0.4999999999999716
 50
359.99999999999682
 51
90.000000000003226
  0
LINE
  5
1688
  8
SAPA_PROFIL
 10
-81.499999999010925
 20
-14.15000000000019
 30
0.0
 11
-76.999999999010015
 21
-14.15000000000019
 31
0.0
  0
ARC
  5
1689
  8
SAPA_PROFIL
 10
-81.499999999010925
 20
-14.65000000000019
 30
0.0
 40
0.5
 50
90.0
 51
180.0
  0
LINE
  5
168A
  8
SAPA_PROFIL
 10
-81.999999999010015
 20
-18.65000000000019
 30
0.0
 11
-81.999999999010925
 21
-14.65000000000019
 31
0.0
  0
ARC
  5
168B
  8
SAPA_PROFIL
 10
-82.499999999010114
 20
-18.65000000000008
 30
0.0
 40
0.5000000000001137
 50
270.00000000001302
 51
359.99999999998698
  0
LINE
  5
168C
  8
SAPA_PROFIL
 10
-84.516956646213657
 20
-19.15000000000019
 30
0.0
 11
-82.499999999010015
 21
-19.15000000000019
 31
0.0
  0
ARC
  5
168D
  8
SAPA_PROFIL
 10
-84.516956646213444
 20
-18.649999999999959
 30
0.0
 40
0.5000000000002222
 50
229.9999999999684
 51
269.9999999999755
  0
LINE
  5
168E
  8
SAPA_PROFIL
 10
-87.321393803853425
 20
-16.94950146002985
 30
0.0
 11
-84.838350451057053
 21
-19.033022221559449
 31
0.0
  0
ARC
  5
168F
  8
SAPA_PROFIL
 10
-86.9999999990102
 20
-16.56647923847056
 30
0.0
 40
0.4999999999998153
 50
180.00000000000281
 51
229.99999999998869
  0
LINE
  5
1690
  8
SAPA_PROFIL
 10
-87.499999999010484
 20
-10.56853372839133
 30
0.0
 11
-87.499999999010015
 21
-16.566479238470588
 31
0.0
  0
ARC
  5
1691
  8
SAPA_PROFIL
 10
-86.999999999010242
 20
-10.56853372839125
 30
0.0
 40
0.5000000000002258
 50
110.0000000000079
 51
180.00000000000909
  0
LINE
  5
1692
  8
SAPA_PROFIL
 10
-83.157979855684516
 20
-8.6380638705314663
 30
0.0
 11
-87.171010070673219
 21
-10.0986874179981
 31
0.0
  0
ARC
  5
1693
  8
SAPA_PROFIL
 10
-83.499999999010186
 20
-7.6983712497453762
 30
0.0
 40
1.0000000000001701
 50
289.99999999999648
 51
359.99999999999432
  0
LINE
  5
1694
  8
SAPA_PROFIL
 10
-82.499999999010015
 20
-6.6500000000001886
 30
0.0
 11
-82.499999999010015
 21
-7.6983712497454757
 31
0.0
  0
ARC
  5
1695
  8
SAPA_PROFIL
 10
-82.199999999010146
 20
-6.649999999999876
 30
0.0
 40
0.2999999999998692
 50
90.000000000027114
 51
180.00000000005971
  0
LINE
  5
1696
  8
SAPA_PROFIL
 10
-81.799999999010197
 20
-6.3500000000000068
 30
0.0
 11
-82.199999999010288
 21
-6.3500000000000068
 31
0.0
  0
ARC
  5
1697
  8
SAPA_PROFIL
 10
-81.799999999010168
 20
-6.0499999999998542
 30
0.0
 40
0.3000000000001535
 50
269.9999999999946
 51
0.0000000000054281
  0
LINE
  5
1698
  8
SAPA_PROFIL
 10
-81.499999999010015
 20
-5.6500000000001886
 30
0.0
 11
-81.499999999010015
 21
-6.0499999999998249
 31
0.0
  0
ARC
  5
1699
  8
SAPA_PROFIL
 10
-81.799999999010168
 20
-5.6500000000001611
 30
0.0
 40
0.3000000000001535
 50
359.99999999999449
 51
90.000000000005414
  0
LINE
  5
169A
  8
SAPA_PROFIL
 10
-82.199999999010288
 20
-5.3500000000000068
 30
0.0
 11
-81.799999999010197
 21
-5.3500000000000068
 31
0.0
  0
ARC
  5
169B
  8
SAPA_PROFIL
 10
-82.199999999010103
 20
-5.0500000000001091
 30
0.0
 40
0.2999999999998977
 50
179.99999999994569
 51
269.99999999996737
  0
LINE
  5
169C
  8
SAPA_PROFIL
 10
-82.499999999010015
 20
-0.6242640687120078
 30
0.0
 11
-82.499999999010015
 21
-5.0499999999998249
 31
0.0
  0
ARC
  5
169D
  8
SAPA_PROFIL
 10
-82.799999999010112
 20
-0.6242640687125234
 30
0.0
 40
0.3000000000000977
 50
0.00000000009847
 51
45.00000000008113
  0
LINE
  5
169E
  8
SAPA_PROFIL
 10
-82.999999999010015
 20
-0.0000000000000984
 30
0.0
 11
-82.587867964654379
 21
-0.4121320343561896
 31
0.0
  0
LINE
  5
169F
  8
SAPA_PROFIL
 10
-82.587867964654379
 20
0.4121320343559926
 30
0.0
 11
-82.999999999010015
 21
-0.0000000000000984
 31
0.0
  0
ARC
  5
16A0
  8
SAPA_PROFIL
 10
-82.799999999010112
 20
0.6242640687123263
 30
0.0
 40
0.3000000000000966
 50
314.99999999991888
 51
359.99999999990149
  0
LINE
  5
16A1
  8
SAPA_PROFIL
 10
-82.499999999010015
 20
5.0500000000000833
 30
0.0
 11
-82.499999999010015
 21
0.6242640687118107
 31
0.0
  0
ARC
  5
16A2
  8
SAPA_PROFIL
 10
-82.199999999010345
 20
5.0500000000001402
 30
0.0
 40
0.2999999999996703
 50
89.999999999989143
 51
180.0000000000108
  0
LINE
  5
16A3
  8
SAPA_PROFIL
 10
-81.799999999010197
 20
5.3499999999998096
 30
0.0
 11
-82.199999999010288
 21
5.3499999999998096
 31
0.0
  0
ARC
  5
16A4
  8
SAPA_PROFIL
 10
-81.799999999010168
 20
5.6499999999999631
 30
0.0
 40
0.3000000000001535
 50
269.9999999999946
 51
0.0000000000054281
  0
LINE
  5
16A5
  8
SAPA_PROFIL
 10
-81.499999999010015
 20
6.0500000000000833
 30
0.0
 11
-81.499999999010015
 21
5.6499999999999924
 31
0.0
  0
ARC
  5
16A6
  8
SAPA_PROFIL
 10
-81.799999999009941
 20
6.0499999999998844
 30
0.0
 40
0.2999999999999261
 50
0.000000000037997
 51
90.000000000048857
  0
LINE
  5
16A7
  8
SAPA_PROFIL
 10
-82.199999999010288
 20
6.3499999999998096
 30
0.0
 11
-81.799999999010197
 21
6.3499999999998096
 31
0.0
  0
ARC
  5
16A8
  8
SAPA_PROFIL
 10
-82.199999999010146
 20
6.6499999999996788
 30
0.0
 40
0.2999999999998692
 50
179.99999999994029
 51
269.99999999997289
  0
LINE
  5
16A9
  8
SAPA_PROFIL
 10
-82.499999999010015
 20
7.6983712497457342
 30
0.0
 11
-82.499999999010015
 21
6.6499999999999924
 31
0.0
  0
ARC
  5
16AA
  8
SAPA_PROFIL
 10
-83.499999999010186
 20
7.6983712497456347
 30
0.0
 40
1.0000000000001701
 50
0.0000000000056487
 51
70.000000000003539
  0
LINE
  5
16AB
  8
SAPA_PROFIL
 10
-87.171010070673219
 20
10.098687417998359
 30
0.0
 11
-83.157979855684516
 21
8.6380638705317256
 31
0.0
  0
ARC
  5
16AC
  8
SAPA_PROFIL
 10
-86.999999999010569
 20
10.56853372839128
 30
0.0
 40
0.4999999999999006
 50
180.00000000001691
 51
250.0000000000183
  0
LINE
  5
16AD
  8
SAPA_PROFIL
 10
-87.499999999010015
 20
16.566479238470851
 30
0.0
 11
-87.499999999010484
 21
10.568533728391129
 31
0.0
  0
ARC
  5
16AE
  8
SAPA_PROFIL
 10
-86.9999999990102
 20
16.566479238470819
 30
0.0
 40
0.4999999999998141
 50
130.0000000000112
 51
179.9999999999971
  0
LINE
  5
16AF
  8
SAPA_PROFIL
 10
-84.838350451057053
 20
19.03302222155925
 30
0.0
 11
-87.321393803853425
 21
16.94950146003011
 31
0.0
  0
ARC
  5
16B0
  8
SAPA_PROFIL
 10
-84.516956646213444
 20
18.649999999999771
 30
0.0
 40
0.5000000000002239
 50
90.000000000024414
 51
130.00000000003149
  0
LINE
  5
16B1
  8
SAPA_PROFIL
 10
-82.499999999010015
 20
19.149999999999991
 30
0.0
 11
-84.516956646213657
 21
19.149999999999991
 31
0.0
  0
ARC
  5
16B2
  8
SAPA_PROFIL
 10
-82.499999999010114
 20
18.649999999999871
 30
0.0
 40
0.5000000000001137
 50
0.0000000000130276
 51
89.999999999986969
  0
LINE
  5
16B3
  8
SAPA_PROFIL
 10
-81.999999999010925
 20
14.64999999999999
 30
0.0
 11
-81.999999999010015
 21
18.649999999999991
 31
0.0
  0
ARC
  5
16B4
  8
SAPA_PROFIL
 10
-81.499999999010925
 20
14.64999999999999
 30
0.0
 40
0.5
 50
180.0
 51
270.0
  0
LINE
  5
16B5
  8
SAPA_PROFIL
 10
-76.999999999010015
 20
14.150000000000439
 30
0.0
 11
-81.499999999010925
 21
14.14999999999999
 31
0.0
  0
ARC
  5
16B6
  8
SAPA_PROFIL
 10
-76.999999999009987
 20
14.65000000000042
 30
0.0
 40
0.4999999999999716
 50
269.99999999999682
 51
0.0000000000032569
  0
LINE
  5
16B7
  8
SAPA_PROFIL
 10
-76.49999999901047
 20
16.45000000000017
 30
0.0
 11
-76.499999999010015
 21
14.650000000000439
 31
0.0
  0
ARC
  5
16B8
  8
SAPA_PROFIL
 10
-76.799999999010225
 20
16.450000000000252
 30
0.0
 40
0.2999999999997557
 50
359.99999999998442
 51
44.999999999985128
  0
LINE
  5
16B9
  8
SAPA_PROFIL
 10
-76.98786796465447
 20
17.062132034356079
 30
0.0
 11
-76.587867964654379
 21
16.662132034355992
 31
0.0
  0
ARC
  5
16BA
  8
SAPA_PROFIL
 10
-77.199999999010487
 20
16.85000000000019
 30
0.0
 40
0.2999999999999829
 50
44.99999999998272
 51
179.99999999998639
  0
LINE
  5
16BB
  8
SAPA_PROFIL
 10
-77.49999999901047
 20
16.45000000000017
 30
0.0
 11
-77.49999999901047
 21
16.850000000000261
 31
0.0
  0
ARC
  5
16BC
  8
SAPA_PROFIL
 10
-77.799999999010197
 20
16.45000000000017
 30
0.0
 40
0.2999999999997271
 50
270.0
 51
0.0
  0
LINE
  5
16BD
  8
SAPA_PROFIL
 10
-80.199999999010288
 20
16.149999999999991
 30
0.0
 11
-77.799999999010197
 21
16.150000000000439
 31
0.0
  0
ARC
  5
16BE
  8
SAPA_PROFIL
 10
-80.199999999010288
 20
16.45000000000017
 30
0.0
 40
0.3000000000001819
 50
180.0
 51
270.0
  0
LINE
  5
16BF
  8
SAPA_PROFIL
 10
-80.499999999010015
 20
19.981908440199181
 30
0.0
 11
-80.499999999010456
 21
16.45000000000017
 31
0.0
  0
ARC
  5
16C0
  8
SAPA_PROFIL
 10
-80.199999999009805
 20
19.98190844019938
 30
0.0
 40
0.3000000000001951
 50
130.0000000000386
 51
180.00000000003931
  0
LINE
  5
16C1
  8
SAPA_PROFIL
 10
-78.583645211636394
 20
21.729813332935819
 30
0.0
 11
-80.392836281916061
 21
20.2117217731351
 31
0.0
  0
ARC
  5
16C2
  8
SAPA_PROFIL
 10
-78.390808928730578
 20
21.500000000000341
 30
0.0
 40
0.2999999999997449
 50
90.000000000008114
 51
130.0000000000046
  0
LINE
  5
16C3
  8
SAPA_PROFIL
 10
-77.999999999010456
 20
21.800000000000079
 30
0.0
 11
-78.390808928730621
 21
21.800000000000079
 31
0.0
  0
ARC
  5
16C4
  8
SAPA_PROFIL
 10
-77.999999999010527
 20
21.300000000000029
 30
0.0
 40
0.500000000000057
 50
0.0000000000065138
 51
89.999999999993491
  0
LINE
  5
16C5
  8
SAPA_PROFIL
 10
-77.49999999901047
 20
20.45000000000017
 30
0.0
 11
-77.49999999901047
 21
21.300000000000079
 31
0.0
  0
ARC
  5
16C6
  8
SAPA_PROFIL
 10
-77.199999999010458
 20
20.450000000000301
 30
0.0
 40
0.3000000000000044
 50
180.00000000002439
 51
315.0000000000058
  0
LINE
  5
16C7
  8
SAPA_PROFIL
 10
-76.587867964654379
 20
20.637867965643991
 30
0.0
 11
-76.98786796465447
 21
20.237867965644359
 31
0.0
  0
ARC
  5
16C8
  8
SAPA_PROFIL
 10
-76.799999999010694
 20
20.84999999999992
 30
0.0
 40
0.3000000000002245
 50
315.00000000005178
 51
0.0000000000651378
  0
POLYLINE
  5
16C9
  8
SAPA_PROFIL
 66
     1
 10
0.0
 20
0.0
 30
0.0
 70
     1
  0
VERTEX
  5
1C3F
  8
SAPA_PROFIL
 10
-76.49999999901047
 20
20.85000000000025
 30
0.0
 42
-0.1989123673797145
  0
VERTEX
  5
1C40
  8
SAPA_PROFIL
 10
-76.587867964654379
 20
20.637867965643981
 30
0.0
  0
VERTEX
  5
1C41
  8
SAPA_PROFIL
 10
-76.98786796465447
 20
20.237867965644341
 30
0.0
 42
-0.668178637919182
  0
VERTEX
  5
1C42
  8
SAPA_PROFIL
 10
-77.49999999901047
 20
20.450000000000159
 30
0.0
  0
VERTEX
  5
1C43
  8
SAPA_PROFIL
 10
-77.49999999901047
 20
21.300000000000072
 30
0.0
 42
0.4142135623730284
  0
VERTEX
  5
1C44
  8
SAPA_PROFIL
 10
-77.999999999010456
 20
21.800000000000072
 30
0.0
  0
VERTEX
  5
1C45
  8
SAPA_PROFIL
 10
-78.390808928730621
 20
21.800000000000072
 30
0.0
 42
0.17632698070845
  0
VERTEX
  5
1C46
  8
SAPA_PROFIL
 10
-78.583645211636394
 20
21.729813332935809
 30
0.0
  0
VERTEX
  5
1C47
  8
SAPA_PROFIL
 10
-80.392836281916061
 20
20.211721773135078
 30
0.0
 42
0.2216946626429421
  0
VERTEX
  5
1C48
  8
SAPA_PROFIL
 10
-80.499999999010015
 20
19.98190844019916
 30
0.0
  0
VERTEX
  5
1C49
  8
SAPA_PROFIL
 10
-80.499999999010456
 20
16.450000000000159
 30
0.0
 42
0.4142135623730951
  0
VERTEX
  5
1C4A
  8
SAPA_PROFIL
 10
-80.199999999010288
 20
16.14999999999997
 30
0.0
  0
VERTEX
  5
1C4B
  8
SAPA_PROFIL
 10
-77.799999999010197
 20
16.150000000000428
 30
0.0
 42
0.4142135623730951
  0
VERTEX
  5
1C4C
  8
SAPA_PROFIL
 10
-77.49999999901047
 20
16.450000000000159
 30
0.0
  0
VERTEX
  5
1C4D
  8
SAPA_PROFIL
 10
-77.49999999901047
 20
16.85000000000025
 30
0.0
 42
-0.6681786379193188
  0
VERTEX
  5
1C4E
  8
SAPA_PROFIL
 10
-76.98786796465447
 20
17.062132034356068
 30
0.0
  0
VERTEX
  5
1C4F
  8
SAPA_PROFIL
 10
-76.587867964654379
 20
16.662132034355981
 30
0.0
 42
-0.198912367379658
  0
VERTEX
  5
1C50
  8
SAPA_PROFIL
 10
-76.49999999901047
 20
16.450000000000159
 30
0.0
  0
VERTEX
  5
1C51
  8
SAPA_PROFIL
 10
-76.499999999010015
 20
14.65000000000043
 30
0.0
 42
-0.4142135623731284
  0
VERTEX
  5
1C52
  8
SAPA_PROFIL
 10
-76.999999999010015
 20
14.15000000000043
 30
0.0
  0
VERTEX
  5
1C53
  8
SAPA_PROFIL
 10
-81.499999999010925
 20
14.149999999999981
 30
0.0
 42
-0.4142135623730951
  0
VERTEX
  5
1C54
  8
SAPA_PROFIL
 10
-81.999999999010925
 20
14.649999999999981
 30
0.0
  0
VERTEX
  5
1C55
  8
SAPA_PROFIL
 10
-81.999999999010015
 20
18.649999999999981
 30
0.0
 42
0.4142135623729619
  0
VERTEX
  5
1C56
  8
SAPA_PROFIL
 10
-82.499999999010015
 20
19.149999999999981
 30
0.0
  0
VERTEX
  5
1C57
  8
SAPA_PROFIL
 10
-84.516956646213657
 20
19.149999999999981
 30
0.0
 42
0.1763269807084973
  0
VERTEX
  5
1C58
  8
SAPA_PROFIL
 10
-84.838350451057053
 20
19.033022221559229
 30
0.0
  0
VERTEX
  5
1C59
  8
SAPA_PROFIL
 10
-87.321393803853425
 20
16.949501460030088
 30
0.0
 42
0.2216946626428772
  0
VERTEX
  5
1C5A
  8
SAPA_PROFIL
 10
-87.499999999010015
 20
16.56647923847083
 30
0.0
  0
VERTEX
  5
1C5B
  8
SAPA_PROFIL
 10
-87.499999999010484
 20
10.56853372839111
 30
0.0
 42
0.315298788878991
  0
VERTEX
  5
1C5C
  8
SAPA_PROFIL
 10
-87.171010070673219
 20
10.098687417998351
 30
0.0
  0
VERTEX
  5
1C5D
  8
SAPA_PROFIL
 10
-83.157979855684516
 20
8.6380638705317097
 30
0.0
 42
-0.3152987888789731
  0
VERTEX
  5
1C5E
  8
SAPA_PROFIL
 10
-82.499999999010015
 20
7.6983712497457191
 30
0.0
  0
VERTEX
  5
1C5F
  8
SAPA_PROFIL
 10
-82.499999999010015
 20
6.6499999999999773
 30
0.0
 42
0.4142135623732616
  0
VERTEX
  5
1C60
  8
SAPA_PROFIL
 10
-82.199999999010288
 20
6.3499999999997954
 30
0.0
  0
VERTEX
  5
1C61
  8
SAPA_PROFIL
 10
-81.799999999010197
 20
6.3499999999997954
 30
0.0
 42
-0.4142135623731506
  0
VERTEX
  5
1C62
  8
SAPA_PROFIL
 10
-81.499999999010015
 20
6.0500000000000682
 30
0.0
  0
VERTEX
  5
1C63
  8
SAPA_PROFIL
 10
-81.499999999010015
 20
5.6499999999999773
 30
0.0
 42
-0.4142135623731505
  0
VERTEX
  5
1C64
  8
SAPA_PROFIL
 10
-81.799999999010197
 20
5.3499999999997954
 30
0.0
  0
VERTEX
  5
1C65
  8
SAPA_PROFIL
 10
-82.199999999010288
 20
5.3499999999997954
 30
0.0
 42
0.4142135623732061
  0
VERTEX
  5
1C66
  8
SAPA_PROFIL
 10
-82.499999999010015
 20
5.0500000000000682
 30
0.0
  0
VERTEX
  5
1C67
  8
SAPA_PROFIL
 10
-82.499999999010015
 20
0.6242640687117956
 30
0.0
 42
-0.198912367379577
  0
VERTEX
  5
1C68
  8
SAPA_PROFIL
 10
-82.587867964654379
 20
0.4121320343559774
 30
0.0
  0
VERTEX
  5
1C69
  8
SAPA_PROFIL
 10
-82.999999999010015
 20
-0.0000000000001137
 30
0.0
  0
VERTEX
  5
1C6A
  8
SAPA_PROFIL
 10
-82.587867964654379
 20
-0.4121320343562048
 30
0.0
 42
-0.1989123673795771
  0
VERTEX
  5
1C6B
  8
SAPA_PROFIL
 10
-82.499999999010015
 20
-0.6242640687120229
 30
0.0
  0
VERTEX
  5
1C6C
  8
SAPA_PROFIL
 10
-82.499999999010015
 20
-5.04999999999984
 30
0.0
 42
0.4142135623732059
  0
VERTEX
  5
1C6D
  8
SAPA_PROFIL
 10
-82.199999999010288
 20
-5.3500000000000218
 30
0.0
  0
VERTEX
  5
1C6E
  8
SAPA_PROFIL
 10
-81.799999999010197
 20
-5.3500000000000218
 30
0.0
 42
-0.4142135623731506
  0
VERTEX
  5
1C6F
  8
SAPA_PROFIL
 10
-81.499999999010015
 20
-5.6500000000002037
 30
0.0
  0
VERTEX
  5
1C70
  8
SAPA_PROFIL
 10
-81.499999999010015
 20
-6.04999999999984
 30
0.0
 42
-0.4142135623731505
  0
VERTEX
  5
1C71
  8
SAPA_PROFIL
 10
-81.799999999010197
 20
-6.3500000000000218
 30
0.0
  0
VERTEX
  5
1C72
  8
SAPA_PROFIL
 10
-82.199999999010288
 20
-6.3500000000000218
 30
0.0
 42
0.4142135623732615
  0
VERTEX
  5
1C73
  8
SAPA_PROFIL
 10
-82.499999999010015
 20
-6.6500000000002037
 30
0.0
  0
VERTEX
  5
1C74
  8
SAPA_PROFIL
 10
-82.499999999010015
 20
-7.6983712497454908
 30
0.0
 42
-0.3152987888789731
  0
VERTEX
  5
1C75
  8
SAPA_PROFIL
 10
-83.157979855684516
 20
-8.6380638705314823
 30
0.0
  0
VERTEX
  5
1C76
  8
SAPA_PROFIL
 10
-87.171010070673219
 20
-10.09868741799812
 30
0.0
 42
0.315298788878991
  0
VERTEX
  5
1C77
  8
SAPA_PROFIL
 10
-87.499999999010484
 20
-10.568533728391341
 30
0.0
  0
VERTEX
  5
1C78
  8
SAPA_PROFIL
 10
-87.499999999010015
 20
-16.566479238470599
 30
0.0
 42
0.2216946626428772
  0
VERTEX
  5
1C79
  8
SAPA_PROFIL
 10
-87.321393803853425
 20
-16.949501460029861
 30
0.0
  0
VERTEX
  5
1C7A
  8
SAPA_PROFIL
 10
-84.838350451057053
 20
-19.03302222155946
 30
0.0
 42
0.1763269807084973
  0
VERTEX
  5
1C7B
  8
SAPA_PROFIL
 10
-84.516956646213657
 20
-19.150000000000201
 30
0.0
  0
VERTEX
  5
1C7C
  8
SAPA_PROFIL
 10
-82.499999999010015
 20
-19.150000000000201
 30
0.0
 42
0.4142135623729619
  0
VERTEX
  5
1C7D
  8
SAPA_PROFIL
 10
-81.999999999010015
 20
-18.650000000000201
 30
0.0
  0
VERTEX
  5
1C7E
  8
SAPA_PROFIL
 10
-81.999999999010925
 20
-14.650000000000199
 30
0.0
 42
-0.4142135623730951
  0
VERTEX
  5
1C7F
  8
SAPA_PROFIL
 10
-81.499999999010925
 20
-14.150000000000199
 30
0.0
  0
VERTEX
  5
1C80
  8
SAPA_PROFIL
 10
-76.999999999010015
 20
-14.150000000000199
 30
0.0
 42
-0.4142135623731285
  0
VERTEX
  5
1C81
  8
SAPA_PROFIL
 10
-76.499999999010015
 20
-14.650000000000199
 30
0.0
  0
VERTEX
  5
1C82
  8
SAPA_PROFIL
 10
-76.49999999901047
 20
-16.450000000000379
 30
0.0
 42
-0.198912367379658
  0
VERTEX
  5
1C83
  8
SAPA_PROFIL
 10
-76.587867964654379
 20
-16.662132034356201
 30
0.0
  0
VERTEX
  5
1C84
  8
SAPA_PROFIL
 10
-76.98786796465447
 20
-17.062132034356289
 30
0.0
 42
-0.6681786379193188
  0
VERTEX
  5
1C85
  8
SAPA_PROFIL
 10
-77.49999999901047
 20
-16.850000000000019
 30
0.0
  0
VERTEX
  5
1C86
  8
SAPA_PROFIL
 10
-77.49999999901047
 20
-16.450000000000379
 30
0.0
 42
0.4142135623730951
  0
VERTEX
  5
1C87
  8
SAPA_PROFIL
 10
-77.799999999010197
 20
-16.150000000000201
 30
0.0
  0
VERTEX
  5
1C88
  8
SAPA_PROFIL
 10
-80.199999999010288
 20
-16.150000000000201
 30
0.0
 42
0.4142135623730951
  0
VERTEX
  5
1C89
  8
SAPA_PROFIL
 10
-80.499999999010456
 20
-16.450000000000379
 30
0.0
  0
VERTEX
  5
1C8A
  8
SAPA_PROFIL
 10
-80.499999999010015
 20
-19.98190844019939
 30
0.0
 42
0.221694662642942
  0
VERTEX
  5
1C8B
  8
SAPA_PROFIL
 10
-80.392836281916061
 20
-20.211721773134862
 30
0.0
  0
VERTEX
  5
1C8C
  8
SAPA_PROFIL
 10
-78.583645211636394
 20
-21.729813332935581
 30
0.0
 42
0.1763269807084499
  0
VERTEX
  5
1C8D
  8
SAPA_PROFIL
 10
-78.390808928730621
 20
-21.799999999999841
 30
0.0
  0
VERTEX
  5
1C8E
  8
SAPA_PROFIL
 10
-77.999999999010456
 20
-21.800000000000288
 30
0.0
 42
0.4142135623730284
  0
VERTEX
  5
1C8F
  8
SAPA_PROFIL
 10
-77.49999999901047
 20
-21.300000000000299
 30
0.0
  0
VERTEX
  5
1C90
  8
SAPA_PROFIL
 10
-77.49999999901047
 20
-20.45000000000039
 30
0.0
 42
-0.668178637919182
  0
VERTEX
  5
1C91
  8
SAPA_PROFIL
 10
-76.98786796465447
 20
-20.237867965644121
 30
0.0
  0
VERTEX
  5
1C92
  8
SAPA_PROFIL
 10
-76.587867964654379
 20
-20.637867965644201
 30
0.0
 42
-0.1989123673797144
  0
VERTEX
  5
1C93
  8
SAPA_PROFIL
 10
-76.49999999901047
 20
-20.850000000000019
 30
0.0
  0
VERTEX
  5
1C94
  8
SAPA_PROFIL
 10
-76.49999999901047
 20
-23.300000000000299
 30
0.0
 42
-0.4142135623730951
  0
VERTEX
  5
1C95
  8
SAPA_PROFIL
 10
-76.99999999901047
 20
-23.800000000000299
 30
0.0
  0
VERTEX
  5
1C96
  8
SAPA_PROFIL
 10
-80.699999999010274
 20
-23.800000000000299
 30
0.0
 42
-0.4142135623730951
  0
VERTEX
  5
1C97
  8
SAPA_PROFIL
 10
-80.99999999901047
 20
-23.500000000000568
 30
0.0
  0
VERTEX
  5
1C98
  8
SAPA_PROFIL
 10
-80.99999999901047
 20
-22.473205080757111
 30
0.0
 42
0.2679491924311428
  0
VERTEX
  5
1C99
  8
SAPA_PROFIL
 10
-81.149999999010575
 20
-22.213397459621891
 30
0.0
  0
VERTEX
  5
1C9A
  8
SAPA_PROFIL
 10
-82.687083486550804
 20
-21.325961894323541
 30
0.0
 42
0.4142135623731709
  0
VERTEX
  5
1C9B
  8
SAPA_PROFIL
 10
-83.096891107686133
 20
-21.435769515459128
 30
0.0
  0
VERTEX
  5
1C9C
  8
SAPA_PROFIL
 10
-83.404123202713436
 20
-21.96791111376217
 30
0.0
 42
-0.4663076581551056
  0
VERTEX
  5
1C9D
  8
SAPA_PROFIL
 10
-84.912936216184335
 20
-22.233955556881138
 30
0.0
  0
VERTEX
  5
1C9E
  8
SAPA_PROFIL
 10
-89.821393803853425
 20
-18.115270605417319
 30
0.0
 42
-0.2216946626428921
  0
VERTEX
  5
1C9F
  8
SAPA_PROFIL
 10
-89.999999999010484
 20
-17.732248383857609
 30
0.0
  0
VERTEX
  5
1CA0
  8
SAPA_PROFIL
 10
-89.999999999010484
 20
-9.7002075382098383
 30
0.0
 42
-0.3152987888789878
  0
VERTEX
  5
1CA1
  8
SAPA_PROFIL
 10
-89.342020142335954
 20
-8.7605149174238477
 30
0.0
  0
VERTEX
  5
1CA2
  8
SAPA_PROFIL
 10
-85.657979855684516
 20
-7.4196339112451142
 30
0.0
 42
0.3152987888789804
  0
VERTEX
  5
1CA3
  8
SAPA_PROFIL
 10
-84.999999999010015
 20
-6.4799412904591227
 30
0.0
  0
VERTEX
  5
1CA4
  8
SAPA_PROFIL
 10
-84.999999999010015
 20
6.4799412904593501
 30
0.0
 42
0.3152987888789804
  0
VERTEX
  5
1CA5
  8
SAPA_PROFIL
 10
-85.657979855684516
 20
7.4196339112453407
 30
0.0
  0
VERTEX
  5
1CA6
  8
SAPA_PROFIL
 10
-89.342020142335954
 20
8.7605149174236203
 30
0.0
 42
-0.3152987888789877
  0
VERTEX
  5
1CA7
  8
SAPA_PROFIL
 10
-89.999999999010484
 20
9.7002075382096091
 30
0.0
  0
VERTEX
  5
1CA8
  8
SAPA_PROFIL
 10
-89.999999999010484
 20
17.732248383857829
 30
0.0
 42
-0.2216946626428921
  0
VERTEX
  5
1CA9
  8
SAPA_PROFIL
 10
-89.821393803853425
 20
18.115270605417091
 30
0.0
  0
VERTEX
  5
1CAA
  8
SAPA_PROFIL
 10
-84.912936216184335
 20
22.233955556880911
 30
0.0
 42
-0.4663076581551056
  0
VERTEX
  5
1CAB
  8
SAPA_PROFIL
 10
-83.404123202713436
 20
21.967911113762401
 30
0.0
  0
VERTEX
  5
1CAC
  8
SAPA_PROFIL
 10
-83.096891107686133
 20
21.435769515458901
 30
0.0
 42
0.414213562373157
  0
VERTEX
  5
1CAD
  8
SAPA_PROFIL
 10
-82.687083486550804
 20
21.325961894323768
 30
0.0
  0
VERTEX
  5
1CAE
  8
SAPA_PROFIL
 10
-81.149999999010575
 20
22.213397459622112
 30
0.0
 42
0.2679491924311554
  0
VERTEX
  5
1CAF
  8
SAPA_PROFIL
 10
-80.99999999901047
 20
22.473205080757339
 30
0.0
  0
VERTEX
  5
1CB0
  8
SAPA_PROFIL
 10
-80.99999999901047
 20
23.500000000000341
 30
0.0
 42
-0.4142135623730951
  0
VERTEX
  5
1CB1
  8
SAPA_PROFIL
 10
-80.699999999010274
 20
23.800000000000519
 30
0.0
  0
VERTEX
  5
1CB2
  8
SAPA_PROFIL
 10
-76.99999999901047
 20
23.800000000000072
 30
0.0
 42
-0.4142135623730951
  0
VERTEX
  5
1CB3
  8
SAPA_PROFIL
 10
-76.49999999901047
 20
23.300000000000072
 30
0.0
  0
SEQEND
  5
1CB4
  8
SAPA_PROFIL
  0
POLYLINE
  5
16CA
  8
SAPA_PROFIL
 66
     1
 10
0.0
 20
0.0
 30
0.0
 70
     1
  0
VERTEX
  5
1CB5
  8
SAPA_PROFIL
 10
-33.050000000001091
 20
2.700000000000272
 30
0.0
  0
VERTEX
  5
1CB6
  8
SAPA_PROFIL
 10
-31.67376540642476
 20
2.0767196966983188
 30
0.0
 42
0.5450207798987328
  0
VERTEX
  5
1CB7
  8
SAPA_PROFIL
 10
-31.25000000000114
 20
2.350000000000136
 30
0.0
  0
VERTEX
  5
1CB8
  8
SAPA_PROFIL
 10
-31.25000000000114
 20
2.700000000000272
 30
0.0
  0
VERTEX
  5
1CB9
  8
SAPA_PROFIL
 10
-31.00000000000114
 20
2.700000000000272
 30
0.0
 42
-0.4142135623730951
  0
VERTEX
  5
1CBA
  8
SAPA_PROFIL
 10
-30.00000000000114
 20
1.700000000000272
 30
0.0
  0
VERTEX
  5
1CBB
  8
SAPA_PROFIL
 10
-30.00000000000114
 20
-1.6999999999998181
 30
0.0
 42
-0.4142135623730951
  0
VERTEX
  5
1CBC
  8
SAPA_PROFIL
 10
-31.00000000000114
 20
-2.6999999999998181
 30
0.0
  0
VERTEX
  5
1CBD
  8
SAPA_PROFIL
 10
-32.150000000001
 20
-2.6999999999998181
 30
0.0
  0
VERTEX
  5
1CBE
  8
SAPA_PROFIL
 10
-32.150000000001
 20
-2.3499999999996808
 30
0.0
 42
0.5450200690651551
  0
VERTEX
  5
1CBF
  8
SAPA_PROFIL
 10
-32.573765000001011
 20
-2.0767189999999109
 30
0.0
  0
VERTEX
  5
1CC0
  8
SAPA_PROFIL
 10
-33.950000000000948
 20
-2.6999999999998181
 30
0.0
  0
VERTEX
  5
1CC1
  8
SAPA_PROFIL
 10
-33.950000000000948
 20
-2.3499999999996808
 30
0.0
 42
0.5450200690651692
  0
VERTEX
  5
1CC2
  8
SAPA_PROFIL
 10
-34.373765000000958
 20
-2.0767189999999109
 30
0.0
  0
VERTEX
  5
1CC3
  8
SAPA_PROFIL
 10
-35.750000000001137
 20
-2.6999999999998181
 30
0.0
  0
VERTEX
  5
1CC4
  8
SAPA_PROFIL
 10
-35.750000000001137
 20
-2.3499999999996808
 30
0.0
 42
0.5450200690651619
  0
VERTEX
  5
1CC5
  8
SAPA_PROFIL
 10
-36.17376500000114
 20
-2.0767189999999109
 30
0.0
  0
VERTEX
  5
1CC6
  8
SAPA_PROFIL
 10
-37.550000000001091
 20
-2.6999999999998181
 30
0.0
  0
VERTEX
  5
1CC7
  8
SAPA_PROFIL
 10
-37.550000000001091
 20
-2.3499999999996808
 30
0.0
 42
0.5450200690651619
  0
VERTEX
  5
1CC8
  8
SAPA_PROFIL
 10
-37.973765000001102
 20
-2.0767189999999109
 30
0.0
  0
VERTEX
  5
1CC9
  8
SAPA_PROFIL
 10
-39.350000000001053
 20
-2.6999999999998181
 30
0.0
  0
VERTEX
  5
1CCA
  8
SAPA_PROFIL
 10
-39.350000000001053
 20
-2.3499999999996808
 30
0.0
 42
0.5450200690651692
  0
VERTEX
  5
1CCB
  8
SAPA_PROFIL
 10
-39.773765000001049
 20
-2.0767189999999109
 30
0.0
  0
VERTEX
  5
1CCC
  8
SAPA_PROFIL
 10
-41.150000000001
 20
-2.6999999999998181
 30
0.0
  0
VERTEX
  5
1CCD
  8
SAPA_PROFIL
 10
-41.450000000000948
 20
-2.6999999999998181
 30
0.0
  0
VERTEX
  5
1CCE
  8
SAPA_PROFIL
 10
-41.450000000000948
 20
2.42826763351104
 30
0.0
  0
VERTEX
  5
1CCF
  8
SAPA_PROFIL
 10
-40.673765406424756
 20
2.0767196966983188
 30
0.0
 42
0.5450207798987328
  0
VERTEX
  5
1CD0
  8
SAPA_PROFIL
 10
-40.250000000001137
 20
2.350000000000136
 30
0.0
  0
VERTEX
  5
1CD1
  8
SAPA_PROFIL
 10
-40.250000000001137
 20
2.700000000000272
 30
0.0
  0
VERTEX
  5
1CD2
  8
SAPA_PROFIL
 10
-38.873765000000958
 20
2.0767200000002499
 30
0.0
 42
0.5450205149791638
  0
VERTEX
  5
1CD3
  8
SAPA_PROFIL
 10
-38.450000000000962
 20
2.350000000000136
 30
0.0
  0
VERTEX
  5
1CD4
  8
SAPA_PROFIL
 10
-38.450000000000962
 20
2.700000000000272
 30
0.0
  0
VERTEX
  5
1CD5
  8
SAPA_PROFIL
 10
-37.073765406424627
 20
2.0767196966983188
 30
0.0
 42
0.545020779898768
  0
VERTEX
  5
1CD6
  8
SAPA_PROFIL
 10
-36.650000000001
 20
2.350000000000136
 30
0.0
  0
VERTEX
  5
1CD7
  8
SAPA_PROFIL
 10
-36.650000000001
 20
2.700000000000272
 30
0.0
  0
VERTEX
  5
1CD8
  8
SAPA_PROFIL
 10
-35.273765406424673
 20
2.0767196966983188
 30
0.0
 42
0.54502077989874
  0
VERTEX
  5
1CD9
  8
SAPA_PROFIL
 10
-34.850000000001053
 20
2.350000000000136
 30
0.0
  0
VERTEX
  5
1CDA
  8
SAPA_PROFIL
 10
-34.850000000001053
 20
2.700000000000272
 30
0.0
  0
VERTEX
  5
1CDB
  8
SAPA_PROFIL
 10
-33.473765406424718
 20
2.0767196966983188
 30
0.0
 42
0.545020779898761
  0
VERTEX
  5
1CDC
  8
SAPA_PROFIL
 10
-33.050000000001091
 20
2.350000000000136
 30
0.0
  0
SEQEND
  5
1CDD
  8
SAPA_PROFIL
  0
POLYLINE
  5
16CB
  8
SAPA_PROFIL
 66
     1
 10
0.0
 20
0.0
 30
0.0
 70
     1
  0
VERTEX
  5
1CDE
  8
SAPA_PROFIL
 10
58.024264068710863
 20
23.000000000000231
 30
0.0
 42
0.1989123673796753
  0
VERTEX
  5
1CDF
  8
SAPA_PROFIL
 10
57.812132034355052
 20
22.912132034356091
 30
0.0
  0
VERTEX
  5
1CE0
  8
SAPA_PROFIL
 10
56.087867965642999
 20
21.187867965644269
 30
0.0
 42
-0.1989123673796753
  0
VERTEX
  5
1CE1
  8
SAPA_PROFIL
 10
55.875735931286947
 20
21.10000000000014
 30
0.0
  0
VERTEX
  5
1CE2
  8
SAPA_PROFIL
 10
55.299999999999052
 20
21.10000000000014
 30
0.0
 42
-0.4142135623730951
  0
VERTEX
  5
1CE3
  8
SAPA_PROFIL
 10
54.999999999998863
 20
21.400000000000318
 30
0.0
  0
VERTEX
  5
1CE4
  8
SAPA_PROFIL
 10
54.999999999998863
 20
22.700000000000269
 30
0.0
 42
0.4142135623730951
  0
VERTEX
  5
1CE5
  8
SAPA_PROFIL
 10
54.699999999998909
 20
23.000000000000231
 30
0.0
  0
VERTEX
  5
1CE6
  8
SAPA_PROFIL
 10
29.99999999999886
 20
23.000000000000231
 30
0.0
 42
0.4142135623730951
  0
VERTEX
  5
1CE7
  8
SAPA_PROFIL
 10
28.99999999999887
 20
22.000000000000231
 30
0.0
  0
VERTEX
  5
1CE8
  8
SAPA_PROFIL
 10
28.99999999999887
 20
17.600000000000129
 30
0.0
 42
-0.4142135623730951
  0
VERTEX
  5
1CE9
  8
SAPA_PROFIL
 10
28.699999999998909
 20
17.300000000000178
 30
0.0
  0
VERTEX
  5
1CEA
  8
SAPA_PROFIL
 10
26.399999999998961
 20
17.300000000000178
 30
0.0
 42
-0.4142135623730951
  0
VERTEX
  5
1CEB
  8
SAPA_PROFIL
 10
26.099999999999
 20
17.600000000000129
 30
0.0
  0
VERTEX
  5
1CEC
  8
SAPA_PROFIL
 10
26.099999999999
 20
18.100000000000129
 30
0.0
 42
-0.4142135623730951
  0
VERTEX
  5
1CED
  8
SAPA_PROFIL
 10
26.399999999998961
 20
18.400000000000318
 30
0.0
  0
VERTEX
  5
1CEE
  8
SAPA_PROFIL
 10
26.736626924633359
 20
18.400000000000318
 30
0.0
 42
0.5535245743249297
  0
VERTEX
  5
1CEF
  8
SAPA_PROFIL
 10
24.96410760212348
 20
22.71055421153164
 30
0.0
  0
VERTEX
  5
1CF0
  8
SAPA_PROFIL
 10
24.67677669529553
 20
22.42322330470347
 30
0.0
 42
-0.4142135623729421
  0
VERTEX
  5
1CF1
  8
SAPA_PROFIL
 10
24.32322330470242
 20
22.42322330470347
 30
0.0
  0
VERTEX
  5
1CF2
  8
SAPA_PROFIL
 10
24.035892397874481
 20
22.71055421153164
 30
0.0
 42
0.5535245743249292
  0
VERTEX
  5
1CF3
  8
SAPA_PROFIL
 10
22.26337307536437
 20
18.400000000000318
 30
0.0
  0
VERTEX
  5
1CF4
  8
SAPA_PROFIL
 10
22.599999999999
 20
18.400000000000318
 30
0.0
 42
-0.4142135623730951
  0
VERTEX
  5
1CF5
  8
SAPA_PROFIL
 10
22.899999999998961
 20
18.100000000000129
 30
0.0
  0
VERTEX
  5
1CF6
  8
SAPA_PROFIL
 10
22.899999999998961
 20
17.600000000000129
 30
0.0
 42
-0.4142135623730951
  0
VERTEX
  5
1CF7
  8
SAPA_PROFIL
 10
22.599999999999
 20
17.300000000000178
 30
0.0
  0
VERTEX
  5
1CF8
  8
SAPA_PROFIL
 10
21.49999999999886
 20
17.300000000000178
 30
0.0
 42
-0.4142135623730951
  0
VERTEX
  5
1CF9
  8
SAPA_PROFIL
 10
19.99999999999886
 20
18.800000000000178
 30
0.0
  0
VERTEX
  5
1CFA
  8
SAPA_PROFIL
 10
19.99999999999886
 20
21.63397459621569
 30
0.0
 42
-0.267949192431143
  0
VERTEX
  5
1CFB
  8
SAPA_PROFIL
 10
20.24999999999886
 20
22.066987298107961
 30
0.0
 42
0.767326987978956
  0
VERTEX
  5
1CFC
  8
SAPA_PROFIL
 10
19.99999999999886
 20
23.000000000000231
 30
0.0
  0
VERTEX
  5
1CFD
  8
SAPA_PROFIL
 10
-15.00000000000113
 20
23.000000000000231
 30
0.0
 42
0.4142135623730951
  0
VERTEX
  5
1CFE
  8
SAPA_PROFIL
 10
-16.00000000000114
 20
22.000000000000231
 30
0.0
  0
VERTEX
  5
1CFF
  8
SAPA_PROFIL
 10
-16.00000000000114
 20
17.600000000000129
 30
0.0
 42
-0.4142135623730951
  0
VERTEX
  5
1D00
  8
SAPA_PROFIL
 10
-16.300000000001091
 20
17.300000000000178
 30
0.0
  0
VERTEX
  5
1D01
  8
SAPA_PROFIL
 10
-18.600000000001039
 20
17.300000000000178
 30
0.0
 42
-0.4142135623730951
  0
VERTEX
  5
1D02
  8
SAPA_PROFIL
 10
-18.900000000001
 20
17.600000000000129
 30
0.0
  0
VERTEX
  5
1D03
  8
SAPA_PROFIL
 10
-18.900000000001
 20
18.100000000000129
 30
0.0
 42
-0.4142135623730951
  0
VERTEX
  5
1D04
  8
SAPA_PROFIL
 10
-18.600000000001039
 20
18.400000000000318
 30
0.0
  0
VERTEX
  5
1D05
  8
SAPA_PROFIL
 10
-18.263373075366641
 20
18.400000000000318
 30
0.0
 42
0.5535245743249297
  0
VERTEX
  5
1D06
  8
SAPA_PROFIL
 10
-20.03589239787652
 20
22.71055421153164
 30
0.0
  0
VERTEX
  5
1D07
  8
SAPA_PROFIL
 10
-20.32322330470447
 20
22.42322330470347
 30
0.0
 42
-0.4142135623730243
  0
VERTEX
  5
1D08
  8
SAPA_PROFIL
 10
-20.67677669529758
 20
22.423223304703701
 30
0.0
  0
VERTEX
  5
1D09
  8
SAPA_PROFIL
 10
-20.96410760212553
 20
22.71055421153164
 30
0.0
 42
0.5535245743249292
  0
VERTEX
  5
1D0A
  8
SAPA_PROFIL
 10
-22.73662692463563
 20
18.400000000000318
 30
0.0
  0
VERTEX
  5
1D0B
  8
SAPA_PROFIL
 10
-22.400000000001
 20
18.400000000000318
 30
0.0
 42
-0.4142135623730951
  0
VERTEX
  5
1D0C
  8
SAPA_PROFIL
 10
-22.100000000001049
 20
18.100000000000129
 30
0.0
  0
VERTEX
  5
1D0D
  8
SAPA_PROFIL
 10
-22.100000000001049
 20
17.600000000000129
 30
0.0
 42
-0.4142135623730951
  0
VERTEX
  5
1D0E
  8
SAPA_PROFIL
 10
-22.400000000001
 20
17.300000000000178
 30
0.0
  0
VERTEX
  5
1D0F
  8
SAPA_PROFIL
 10
-23.50000000000114
 20
17.300000000000178
 30
0.0
 42
-0.4142135623730951
  0
VERTEX
  5
1D10
  8
SAPA_PROFIL
 10
-25.00000000000114
 20
18.800000000000178
 30
0.0
  0
VERTEX
  5
1D11
  8
SAPA_PROFIL
 10
-25.00000000000114
 20
21.780384757729511
 30
0.0
 42
-0.2679491924311188
  0
VERTEX
  5
1D12
  8
SAPA_PROFIL
 10
-24.850000000001049
 20
22.040192378864958
 30
0.0
 42
0.7673269879789557
  0
VERTEX
  5
1D13
  8
SAPA_PROFIL
 10
-25.00000000000114
 20
22.600000000000129
 30
0.0
  0
VERTEX
  5
1D14
  8
SAPA_PROFIL
 10
-27.00000000000114
 20
22.599999999999909
 30
0.0
 42
0.4142137811865366
  0
VERTEX
  5
1D15
  8
SAPA_PROFIL
 10
-28.00000000000114
 20
21.600000747075459
 30
0.0
  0
VERTEX
  5
1D16
  8
SAPA_PROFIL
 10
-28.00000000000114
 20
-21.599999999999682
 30
0.0
 42
0.4142140000000124
  0
VERTEX
  5
1D17
  8
SAPA_PROFIL
 10
-27.00000000000114
 20
-22.599999999999682
 30
0.0
  0
VERTEX
  5
1D18
  8
SAPA_PROFIL
 10
-25.00000000000114
 20
-22.599999999999682
 30
0.0
 42
0.7673269879789457
  0
VERTEX
  5
1D19
  8
SAPA_PROFIL
 10
-24.850000000001049
 20
-22.0401923788645
 30
0.0
 42
-0.2679491924311191
  0
VERTEX
  5
1D1A
  8
SAPA_PROFIL
 10
-25.00000000000114
 20
-21.780384757729049
 30
0.0
  0
VERTEX
  5
1D1B
  8
SAPA_PROFIL
 10
-25.00000000000114
 20
-18.799999999999731
 30
0.0
 42
-0.4142135623730951
  0
VERTEX
  5
1D1C
  8
SAPA_PROFIL
 10
-23.50000000000114
 20
-17.299999999999731
 30
0.0
  0
VERTEX
  5
1D1D
  8
SAPA_PROFIL
 10
-22.400000000001
 20
-17.299999999999731
 30
0.0
 42
-0.4142135623730951
  0
VERTEX
  5
1D1E
  8
SAPA_PROFIL
 10
-22.100000000001049
 20
-17.599999999999682
 30
0.0
  0
VERTEX
  5
1D1F
  8
SAPA_PROFIL
 10
-22.100000000001049
 20
-18.099999999999682
 30
0.0
 42
-0.4142135623730951
  0
VERTEX
  5
1D20
  8
SAPA_PROFIL
 10
-22.400000000001
 20
-18.39999999999986
 30
0.0
  0
VERTEX
  5
1D21
  8
SAPA_PROFIL
 10
-22.73662692463563
 20
-18.39999999999986
 30
0.0
 42
0.5535245743249307
  0
VERTEX
  5
1D22
  8
SAPA_PROFIL
 10
-20.96410760212553
 20
-22.710554211531189
 30
0.0
  0
VERTEX
  5
1D23
  8
SAPA_PROFIL
 10
-20.67677669529758
 20
-22.423223304703239
 30
0.0
 42
-0.4142135623730951
  0
VERTEX
  5
1D24
  8
SAPA_PROFIL
 10
-20.32322330470447
 20
-22.423223304703239
 30
0.0
  0
VERTEX
  5
1D25
  8
SAPA_PROFIL
 10
-20.03589239787652
 20
-22.710554211531189
 30
0.0
 42
0.553524574324932
  0
VERTEX
  5
1D26
  8
SAPA_PROFIL
 10
-18.263373075366641
 20
-18.39999999999986
 30
0.0
  0
VERTEX
  5
1D27
  8
SAPA_PROFIL
 10
-18.600000000001039
 20
-18.39999999999986
 30
0.0
 42
-0.4142135623730951
  0
VERTEX
  5
1D28
  8
SAPA_PROFIL
 10
-18.900000000001
 20
-18.099999999999682
 30
0.0
  0
VERTEX
  5
1D29
  8
SAPA_PROFIL
 10
-18.900000000001
 20
-17.599999999999682
 30
0.0
 42
-0.4142135623730951
  0
VERTEX
  5
1D2A
  8
SAPA_PROFIL
 10
-18.600000000001039
 20
-17.299999999999731
 30
0.0
  0
VERTEX
  5
1D2B
  8
SAPA_PROFIL
 10
-16.300000000001091
 20
-17.299999999999731
 30
0.0
 42
-0.4142135623730951
  0
VERTEX
  5
1D2C
  8
SAPA_PROFIL
 10
-16.00000000000114
 20
-17.599999999999682
 30
0.0
  0
VERTEX
  5
1D2D
  8
SAPA_PROFIL
 10
-16.00000000000114
 20
-21.999999999999769
 30
0.0
 42
0.4142135623730951
  0
VERTEX
  5
1D2E
  8
SAPA_PROFIL
 10
-15.00000000000113
 20
-22.999999999999769
 30
0.0
  0
VERTEX
  5
1D2F
  8
SAPA_PROFIL
 10
19.99999999999886
 20
-22.999999999999769
 30
0.0
 42
0.7673269879789569
  0
VERTEX
  5
1D30
  8
SAPA_PROFIL
 10
20.24999999999886
 20
-22.066987298107509
 30
0.0
 42
-0.2679491924311163
  0
VERTEX
  5
1D31
  8
SAPA_PROFIL
 10
19.99999999999886
 20
-21.633974596215239
 30
0.0
  0
VERTEX
  5
1D32
  8
SAPA_PROFIL
 10
19.99999999999886
 20
-18.799999999999731
 30
0.0
 42
-0.4142135623730951
  0
VERTEX
  5
1D33
  8
SAPA_PROFIL
 10
21.49999999999886
 20
-17.299999999999731
 30
0.0
  0
VERTEX
  5
1D34
  8
SAPA_PROFIL
 10
22.599999999999
 20
-17.299999999999731
 30
0.0
 42
-0.4142135623730951
  0
VERTEX
  5
1D35
  8
SAPA_PROFIL
 10
22.899999999998961
 20
-17.599999999999682
 30
0.0
  0
VERTEX
  5
1D36
  8
SAPA_PROFIL
 10
22.899999999998961
 20
-18.099999999999682
 30
0.0
 42
-0.4142135623730951
  0
VERTEX
  5
1D37
  8
SAPA_PROFIL
 10
22.599999999999
 20
-18.39999999999986
 30
0.0
  0
VERTEX
  5
1D38
  8
SAPA_PROFIL
 10
22.26337307536437
 20
-18.39999999999986
 30
0.0
 42
0.5535245743249307
  0
VERTEX
  5
1D39
  8
SAPA_PROFIL
 10
24.035892397874481
 20
-22.710554211531189
 30
0.0
  0
VERTEX
  5
1D3A
  8
SAPA_PROFIL
 10
24.32322330470242
 20
-22.423223304703239
 30
0.0
 42
-0.4142135623731068
  0
VERTEX
  5
1D3B
  8
SAPA_PROFIL
 10
24.67677669529553
 20
-22.423223304703011
 30
0.0
  0
VERTEX
  5
1D3C
  8
SAPA_PROFIL
 10
24.96410760212348
 20
-22.710554211531189
 30
0.0
 42
0.553524574324932
  0
VERTEX
  5
1D3D
  8
SAPA_PROFIL
 10
26.736626924633359
 20
-18.39999999999986
 30
0.0
  0
VERTEX
  5
1D3E
  8
SAPA_PROFIL
 10
26.399999999998961
 20
-18.39999999999986
 30
0.0
 42
-0.4142135623730951
  0
VERTEX
  5
1D3F
  8
SAPA_PROFIL
 10
26.099999999999
 20
-18.099999999999682
 30
0.0
  0
VERTEX
  5
1D40
  8
SAPA_PROFIL
 10
26.099999999999
 20
-17.599999999999682
 30
0.0
 42
-0.4142135623730951
  0
VERTEX
  5
1D41
  8
SAPA_PROFIL
 10
26.399999999998961
 20
-17.299999999999731
 30
0.0
  0
VERTEX
  5
1D42
  8
SAPA_PROFIL
 10
28.699999999998909
 20
-17.299999999999731
 30
0.0
 42
-0.4142135623730951
  0
VERTEX
  5
1D43
  8
SAPA_PROFIL
 10
28.99999999999887
 20
-17.599999999999682
 30
0.0
  0
VERTEX
  5
1D44
  8
SAPA_PROFIL
 10
28.99999999999887
 20
-21.999999999999769
 30
0.0
 42
0.4142135623730951
  0
VERTEX
  5
1D45
  8
SAPA_PROFIL
 10
29.99999999999886
 20
-22.999999999999769
 30
0.0
  0
VERTEX
  5
1D46
  8
SAPA_PROFIL
 10
54.699999999998909
 20
-22.999999999999769
 30
0.0
 42
0.4142135623730951
  0
VERTEX
  5
1D47
  8
SAPA_PROFIL
 10
54.999999999998863
 20
-22.699999999999822
 30
0.0
  0
VERTEX
  5
1D48
  8
SAPA_PROFIL
 10
54.999999999998863
 20
-21.39999999999986
 30
0.0
 42
-0.4142135623730951
  0
VERTEX
  5
1D49
  8
SAPA_PROFIL
 10
55.299999999999052
 20
-21.099999999999682
 30
0.0
  0
VERTEX
  5
1D4A
  8
SAPA_PROFIL
 10
55.875735931286947
 20
-21.099999999999682
 30
0.0
 42
-0.1989123673796752
  0
VERTEX
  5
1D4B
  8
SAPA_PROFIL
 10
56.087867965642999
 20
-21.187867965643822
 30
0.0
  0
VERTEX
  5
1D4C
  8
SAPA_PROFIL
 10
57.812132034355052
 20
-22.91213203435586
 30
0.0
 42
0.1989123673796057
  0
VERTEX
  5
1D4D
  8
SAPA_PROFIL
 10
58.024264068710863
 20
-22.999999999999769
 30
0.0
  0
VERTEX
  5
1D4E
  8
SAPA_PROFIL
 10
61.499999999998863
 20
-22.999999999999769
 30
0.0
 42
0.4142135623730951
  0
VERTEX
  5
1D4F
  8
SAPA_PROFIL
 10
62.499999999998863
 20
-21.999999999999769
 30
0.0
  0
VERTEX
  5
1D50
  8
SAPA_PROFIL
 10
62.499999999998863
 20
22.000000000000231
 30
0.0
 42
0.4142135623730951
  0
VERTEX
  5
1D51
  8
SAPA_PROFIL
 10
61.499999999998863
 20
23.000000000000231
 30
0.0
  0
SEQEND
  5
1D52
  8
SAPA_PROFIL
  0
POLYLINE
  5
16CC
  8
SAPA_PROFIL
 66
     1
 10
0.0
 20
0.0
 30
0.0
 70
     1
  0
VERTEX
  5
1D53
  8
SAPA_PROFIL
 10
-30.00000000000114
 20
6.0000000000002274
 30
0.0
 42
-0.4142135623730951
  0
VERTEX
  5
1D54
  8
SAPA_PROFIL
 10
-31.00000000000114
 20
5.0000000000002274
 30
0.0
  0
VERTEX
  5
1D55
  8
SAPA_PROFIL
 10
-52.200000000000948
 20
5.0000000000002274
 30
0.0
 42
0.4142135623730951
  0
VERTEX
  5
1D56
  8
SAPA_PROFIL
 10
-52.50000000000113
 20
4.700000000000272
 30
0.0
  0
VERTEX
  5
1D57
  8
SAPA_PROFIL
 10
-52.50000000000113
 20
3.0757360000002332
 30
0.0
  0
VERTEX
  5
1D58
  8
SAPA_PROFIL
 10
-51.562132034356871
 20
2.2378679656442269
 30
0.0
 42
0.668178637919305
  0
VERTEX
  5
1D59
  8
SAPA_PROFIL
 10
-51.050000000001091
 20
2.450000000000272
 30
0.0
  0
VERTEX
  5
1D5A
  8
SAPA_PROFIL
 10
-51.050000000001091
 20
2.700000000000272
 30
0.0
  0
VERTEX
  5
1D5B
  8
SAPA_PROFIL
 10
-49.673765406424756
 20
2.1767196966982278
 30
0.0
 42
0.5450207798987201
  0
VERTEX
  5
1D5C
  8
SAPA_PROFIL
 10
-49.250000000001137
 20
2.450000000000272
 30
0.0
  0
VERTEX
  5
1D5D
  8
SAPA_PROFIL
 10
-49.250000000001137
 20
2.700000000000272
 30
0.0
  0
VERTEX
  5
1D5E
  8
SAPA_PROFIL
 10
-47.873765406424567
 20
2.1767196966982278
 30
0.0
 42
0.5450207798987201
  0
VERTEX
  5
1D5F
  8
SAPA_PROFIL
 10
-47.450000000000962
 20
2.450000000000272
 30
0.0
  0
VERTEX
  5
1D60
  8
SAPA_PROFIL
 10
-47.450000000000962
 20
2.700000000000272
 30
0.0
  0
VERTEX
  5
1D61
  8
SAPA_PROFIL
 10
-46.07376540642462
 20
2.1767196966982278
 30
0.0
 42
0.5450207798987342
  0
VERTEX
  5
1D62
  8
SAPA_PROFIL
 10
-45.650000000000993
 20
2.450000000000272
 30
0.0
  0
VERTEX
  5
1D63
  8
SAPA_PROFIL
 10
-45.650000000000993
 20
2.700000000000272
 30
0.0
  0
VERTEX
  5
1D64
  8
SAPA_PROFIL
 10
-44.273765406424673
 20
2.1767196966982278
 30
0.0
 42
0.5450207798987201
  0
VERTEX
  5
1D65
  8
SAPA_PROFIL
 10
-43.850000000001039
 20
2.450000000000272
 30
0.0
  0
VERTEX
  5
1D66
  8
SAPA_PROFIL
 10
-43.850000000001039
 20
2.700000000000272
 30
0.0
  0
VERTEX
  5
1D67
  8
SAPA_PROFIL
 10
-43.126282705194853
 20
2.4722372826161059
 30
0.0
 42
-0.2945484962563026
  0
VERTEX
  5
1D68
  8
SAPA_PROFIL
 10
-42.950048040246656
 20
2.1988824689378812
 30
0.0
  0
VERTEX
  5
1D69
  8
SAPA_PROFIL
 10
-42.950255222213173
 20
1.2642999377483191
 30
0.0
 42
0.3475954753796591
  0
VERTEX
  5
1D6A
  8
SAPA_PROFIL
 10
-42.719501178044077
 20
0.9723265106783856
 30
0.0
 42
-0.790522909611319
  0
VERTEX
  5
1D6B
  8
SAPA_PROFIL
 10
-42.71949097360357
 20
-0.973664089865224
 30
0.0
 42
0.3476065658631364
  0
VERTEX
  5
1D6C
  8
SAPA_PROFIL
 10
-42.950241952335773
 20
-1.2656518108867649
 30
0.0
  0
VERTEX
  5
1D6D
  8
SAPA_PROFIL
 10
-42.950095231626847
 20
-1.8499926620931999
 30
0.0
 42
-0.4102317530969976
  0
VERTEX
  5
1D6E
  8
SAPA_PROFIL
 10
-43.245946879780369
 20
-2.1500282985855388
 30
0.0
 42
0.0712587206050384
  0
VERTEX
  5
1D6F
  8
SAPA_PROFIL
 10
-43.329990804708579
 20
-2.1632556124550311
 30
0.0
  0
VERTEX
  5
1D70
  8
SAPA_PROFIL
 10
-44.750000000001137
 20
-2.6999999999998181
 30
0.0
  0
VERTEX
  5
1D71
  8
SAPA_PROFIL
 10
-44.750000000001137
 20
-2.4499999999998181
 30
0.0
 42
0.5450200690651619
  0
VERTEX
  5
1D72
  8
SAPA_PROFIL
 10
-45.173765000001133
 20
-2.17671899999982
 30
0.0
  0
VERTEX
  5
1D73
  8
SAPA_PROFIL
 10
-46.550000000001091
 20
-2.6999999999998181
 30
0.0
  0
VERTEX
  5
1D74
  8
SAPA_PROFIL
 10
-46.550000000000857
 20
-2.4499999999998181
 30
0.0
 42
0.545020069065176
  0
VERTEX
  5
1D75
  8
SAPA_PROFIL
 10
-46.973765000001087
 20
-2.17671899999982
 30
0.0
  0
VERTEX
  5
1D76
  8
SAPA_PROFIL
 10
-48.350000000001039
 20
-2.6999999999998181
 30
0.0
  0
VERTEX
  5
1D77
  8
SAPA_PROFIL
 10
-48.350000000001039
 20
-2.4499999999998181
 30
0.0
 42
0.5450200690651692
  0
VERTEX
  5
1D78
  8
SAPA_PROFIL
 10
-48.773765000001049
 20
-2.17671899999982
 30
0.0
  0
VERTEX
  5
1D79
  8
SAPA_PROFIL
 10
-50.150000000001
 20
-2.6999999999998181
 30
0.0
  0
VERTEX
  5
1D7A
  8
SAPA_PROFIL
 10
-50.150000000001
 20
-2.1499999999998631
 30
0.0
  0
VERTEX
  5
1D7B
  8
SAPA_PROFIL
 10
-51.350000000001039
 20
-2.1499999999998631
 30
0.0
 42
0.1989123673797004
  0
VERTEX
  5
1D7C
  8
SAPA_PROFIL
 10
-51.562132000001156
 20
-2.2378679999997071
 30
0.0
  0
VERTEX
  5
1D7D
  8
SAPA_PROFIL
 10
-52.50000000000113
 20
-3.075735999999778
 30
0.0
  0
VERTEX
  5
1D7E
  8
SAPA_PROFIL
 10
-52.50000000000113
 20
-4.6999999999998181
 30
0.0
 42
0.4142135623730951
  0
VERTEX
  5
1D7F
  8
SAPA_PROFIL
 10
-52.200000000000948
 20
-4.9999999999997717
 30
0.0
  0
VERTEX
  5
1D80
  8
SAPA_PROFIL
 10
-31.00000000000114
 20
-4.9999999999997717
 30
0.0
 42
-0.4142135623730951
  0
VERTEX
  5
1D81
  8
SAPA_PROFIL
 10
-30.00000000000114
 20
-5.9999999999997717
 30
0.0
  0
VERTEX
  5
1D82
  8
SAPA_PROFIL
 10
-30.00000000000114
 20
-14.19999999999982
 30
0.0
 42
-0.4142135623730951
  0
VERTEX
  5
1D83
  8
SAPA_PROFIL
 10
-30.50000000000114
 20
-14.69999999999982
 30
0.0
  0
VERTEX
  5
1D84
  8
SAPA_PROFIL
 10
-33.700000000000962
 20
-14.69999999999982
 30
0.0
 42
-0.4142135623730951
  0
VERTEX
  5
1D85
  8
SAPA_PROFIL
 10
-34.200000000000962
 20
-14.19999999999982
 30
0.0
  0
VERTEX
  5
1D86
  8
SAPA_PROFIL
 10
-34.200000000000962
 20
-11.299999999999731
 30
0.0
 42
0.4142135623730951
  0
VERTEX
  5
1D87
  8
SAPA_PROFIL
 10
-34.500000000001137
 20
-10.999999999999771
 30
0.0
  0
VERTEX
  5
1D88
  8
SAPA_PROFIL
 10
-35.200000000000948
 20
-10.999999999999771
 30
0.0
 42
0.4142135623730951
  0
VERTEX
  5
1D89
  8
SAPA_PROFIL
 10
-35.500000000001137
 20
-11.299999999999731
 30
0.0
  0
VERTEX
  5
1D8A
  8
SAPA_PROFIL
 10
-35.500000000001137
 20
-17.999999999999769
 30
0.0
  0
VERTEX
  5
1D8B
  8
SAPA_PROFIL
 10
-35.035076580641999
 20
-18.586384015500471
 30
0.0
 42
0.7105995019814511
  0
VERTEX
  5
1D8C
  8
SAPA_PROFIL
 10
-34.500000000001137
 20
-18.39999999999986
 30
0.0
  0
VERTEX
  5
1D8D
  8
SAPA_PROFIL
 10
-34.500000000001137
 20
-16.499999999999769
 30
0.0
 42
-0.4142135623730951
  0
VERTEX
  5
1D8E
  8
SAPA_PROFIL
 10
-34.200000000000962
 20
-16.199999999999822
 30
0.0
  0
VERTEX
  5
1D8F
  8
SAPA_PROFIL
 10
-30.300000000001091
 20
-16.199999999999822
 30
0.0
 42
-0.4142135623730951
  0
VERTEX
  5
1D90
  8
SAPA_PROFIL
 10
-30.00000000000114
 20
-16.499999999999769
 30
0.0
  0
VERTEX
  5
1D91
  8
SAPA_PROFIL
 10
-30.00000000000114
 20
-23.199999999999822
 30
0.0
 42
-0.4142135623730951
  0
VERTEX
  5
1D92
  8
SAPA_PROFIL
 10
-30.300000000001091
 20
-23.499999999999769
 30
0.0
  0
VERTEX
  5
1D93
  8
SAPA_PROFIL
 10
-34.200000000000962
 20
-23.499999999999769
 30
0.0
 42
-0.4142135623730951
  0
VERTEX
  5
1D94
  8
SAPA_PROFIL
 10
-34.500000000001137
 20
-23.199999999999822
 30
0.0
  0
VERTEX
  5
1D95
  8
SAPA_PROFIL
 10
-34.500000000001137
 20
-21.999999999999769
 30
0.0
 42
0.7105990647993611
  0
VERTEX
  5
1D96
  8
SAPA_PROFIL
 10
-35.035076000001027
 20
-21.81361599999968
 30
0.0
  0
VERTEX
  5
1D97
  8
SAPA_PROFIL
 10
-35.500000000001137
 20
-22.39999999999986
 30
0.0
  0
VERTEX
  5
1D98
  8
SAPA_PROFIL
 10
-35.500000000001137
 20
-24.699999999999822
 30
0.0
 42
0.4142135623730951
  0
VERTEX
  5
1D99
  8
SAPA_PROFIL
 10
-35.200000000000948
 20
-24.999999999999769
 30
0.0
  0
VERTEX
  5
1D9A
  8
SAPA_PROFIL
 10
63.999999999998863
 20
-24.999999999999769
 30
0.0
 42
0.4142135623730951
  0
VERTEX
  5
1D9B
  8
SAPA_PROFIL
 10
64.499999999998863
 20
-24.499999999999769
 30
0.0
  0
VERTEX
  5
1D9C
  8
SAPA_PROFIL
 10
64.499999999998863
 20
24.500000000000231
 30
0.0
 42
0.4142135623730951
  0
VERTEX
  5
1D9D
  8
SAPA_PROFIL
 10
63.999999999998863
 20
25.000000000000231
 30
0.0
  0
VERTEX
  5
1D9E
  8
SAPA_PROFIL
 10
-35.200000000000948
 20
25.000000000000231
 30
0.0
 42
0.4142135623730951
  0
VERTEX
  5
1D9F
  8
SAPA_PROFIL
 10
-35.500000000001137
 20
24.700000000000269
 30
0.0
  0
VERTEX
  5
1DA0
  8
SAPA_PROFIL
 10
-35.500000000001137
 20
22.400000000000318
 30
0.0
  0
VERTEX
  5
1DA1
  8
SAPA_PROFIL
 10
-35.035076580641999
 20
21.81361598449962
 30
0.0
 42
0.7105995019814511
  0
VERTEX
  5
1DA2
  8
SAPA_PROFIL
 10
-34.500000000001137
 20
22.000000000000231
 30
0.0
  0
VERTEX
  5
1DA3
  8
SAPA_PROFIL
 10
-34.500000000001137
 20
23.200000000000269
 30
0.0
 42
-0.4142135623730951
  0
VERTEX
  5
1DA4
  8
SAPA_PROFIL
 10
-34.200000000000962
 20
23.500000000000231
 30
0.0
  0
VERTEX
  5
1DA5
  8
SAPA_PROFIL
 10
-30.300000000001091
 20
23.500000000000231
 30
0.0
 42
-0.4142135623730951
  0
VERTEX
  5
1DA6
  8
SAPA_PROFIL
 10
-30.00000000000114
 20
23.200000000000269
 30
0.0
  0
VERTEX
  5
1DA7
  8
SAPA_PROFIL
 10
-30.00000000000114
 20
16.500000000000231
 30
0.0
 42
-0.4142135623730951
  0
VERTEX
  5
1DA8
  8
SAPA_PROFIL
 10
-30.300000000001091
 20
16.200000000000269
 30
0.0
  0
VERTEX
  5
1DA9
  8
SAPA_PROFIL
 10
-34.200000000000962
 20
16.200000000000269
 30
0.0
 42
-0.4142135623730951
  0
VERTEX
  5
1DAA
  8
SAPA_PROFIL
 10
-34.500000000001137
 20
16.500000000000231
 30
0.0
  0
VERTEX
  5
1DAB
  8
SAPA_PROFIL
 10
-34.500000000001137
 20
18.400000000000318
 30
0.0
 42
0.7105995019814511
  0
VERTEX
  5
1DAC
  8
SAPA_PROFIL
 10
-35.035076580641999
 20
18.586384015500919
 30
0.0
  0
VERTEX
  5
1DAD
  8
SAPA_PROFIL
 10
-35.500000000001137
 20
18.000000000000231
 30
0.0
  0
VERTEX
  5
1DAE
  8
SAPA_PROFIL
 10
-35.500000000001137
 20
11.30000000000018
 30
0.0
 42
0.4142135623730951
  0
VERTEX
  5
1DAF
  8
SAPA_PROFIL
 10
-35.200000000000948
 20
11.00000000000022
 30
0.0
  0
VERTEX
  5
1DB0
  8
SAPA_PROFIL
 10
-34.500000000001137
 20
11.00000000000022
 30
0.0
 42
0.4142135623730951
  0
VERTEX
  5
1DB1
  8
SAPA_PROFIL
 10
-34.200000000000962
 20
11.30000000000018
 30
0.0
  0
VERTEX
  5
1DB2
  8
SAPA_PROFIL
 10
-34.200000000000962
 20
14.200000000000269
 30
0.0
 42
-0.4142135623730951
  0
VERTEX
  5
1DB3
  8
SAPA_PROFIL
 10
-33.700000000000962
 20
14.700000000000269
 30
0.0
  0
VERTEX
  5
1DB4
  8
SAPA_PROFIL
 10
-30.50000000000114
 20
14.700000000000269
 30
0.0
 42
-0.4142135623730951
  0
VERTEX
  5
1DB5
  8
SAPA_PROFIL
 10
-30.00000000000114
 20
14.200000000000269
 30
0.0
  0
SEQEND
  5
1DB6
  8
SAPA_PROFIL
  0
POLYLINE
  5
16F0
  8
SAPA_GLAS
 66
     1
 10
0.0
 20
0.0
 30
0.0
  0
VERTEX
  5
1DCB
  8
SAPA_GLAS
 10
-66.499999999009731
 20
75.522593981594298
 30
0.0
  0
VERTEX
  5
1DCC
  8
SAPA_GLAS
 10
-66.499999999010186
 20
11.000967646493059
 30
0.0
  0
VERTEX
  5
1DCD
  8
SAPA_GLAS
 10
-72.499999999009503
 20
11.000967646493059
 30
0.0
  0
VERTEX
  5
1DCE
  8
SAPA_GLAS
 10
-72.499999999009503
 20
75.522593981594298
 30
0.0
  0
SEQEND
  5
1DCF
  8
SAPA_GLAS
  0
POLYLINE
  5
16F1
  8
SAPA_GLAS
 66
     1
 10
0.0
 20
0.0
 30
0.0
  0
VERTEX
  5
1DD0
  8
SAPA_GLAS
 10
100.8999999999989
 20
-89.800000000000026
 30
0.0
  0
VERTEX
  5
1DD1
  8
SAPA_GLAS
 10
100.8999999999989
 20
-61.000000000000227
 30
0.0
  0
VERTEX
  5
1DD2
  8
SAPA_GLAS
 10
106.8999999999989
 20
-61.000000000000227
 30
0.0
  0
VERTEX
  5
1DD3
  8
SAPA_GLAS
 10
106.8999999999986
 20
-89.800000000000026
 30
0.0
  0
SEQEND
  5
1DD4
  8
SAPA_GLAS
  0
POLYLINE
  5
16F2
  8
SAPA_GLAS
 66
     1
 10
0.0
 20
0.0
 30
0.0
 70
     1
  0
VERTEX
  5
1DD5
  8
SAPA_GLAS
 10
88.899999999998897
 20
-71.000000000000341
 30
0.0
  0
VERTEX
  5
1DD6
  8
SAPA_GLAS
 10
100.8999999999989
 20
-71.000000000000341
 30
0.0
  0
VERTEX
  5
1DD7
  8
SAPA_GLAS
 10
100.8999999999989
 20
-61.000000000000227
 30
0.0
  0
VERTEX
  5
1DD8
  8
SAPA_GLAS
 10
88.899999999998897
 20
-61.000000000000227
 30
0.0
  0
SEQEND
  5
1DD9
  8
SAPA_GLAS
  0
POLYLINE
  5
16F3
  8
SAPA_GLAS
 66
     1
 10
0.0
 20
0.0
 30
0.0
  0
VERTEX
  5
1DDA
  8
SAPA_GLAS
 10
82.899999999998897
 20
-89.800000000000026
 30
0.0
  0
VERTEX
  5
1DDB
  8
SAPA_GLAS
 10
82.899999999998897
 20
-61.00000000000022
 30
0.0
  0
VERTEX
  5
1DDC
  8
SAPA_GLAS
 10
88.899999999998897
 20
-61.000000000000227
 30
0.0
  0
VERTEX
  5
1DDD
  8
SAPA_GLAS
 10
88.899999999998897
 20
-89.800000000000026
 30
0.0
  0
SEQEND
  5
1DDE
  8
SAPA_GLAS
  0
POLYLINE
  5
16FB
  8
SAPA_FYLLNING
 66
     1
 10
0.0
 20
0.0
 30
0.0
  0
VERTEX
  5
1DE9
  8
SAPA_FYLLNING
 10
-35.500000000001748
 20
75.522593981593403
 30
0.0
  0
VERTEX
  5
1DEA
  8
SAPA_FYLLNING
 10
-35.500000000001769
 20
14.035113899112011
 30
0.0
  0
VERTEX
  5
1DEB
  8
SAPA_FYLLNING
 10
-43.500000000001762
 20
14.035113899112011
 30
0.0
  0
VERTEX
  5
1DEC
  8
SAPA_FYLLNING
 10
-43.500000000001748
 20
75.522593981593417
 30
0.0
  0
SEQEND
  5
1DED
  8
SAPA_FYLLNING
  0
LINE
  5
16FC
  8
SAPA_FYLLNING
 10
52.499999999999211
 20
25.99999999999989
 30
0.0
 11
52.499999999999162
 21
74.999999999999886
 31
0.0
  0
POLYLINE
  5
16FD
  8
SAPA_FYLLNING
 66
     1
 10
0.0
 20
0.0
 30
0.0
  0
VERTEX
  5
1DEE
  8
SAPA_FYLLNING
 10
50.999999999999162
 20
74.999999999999886
 30
0.0
  0
VERTEX
  5
1DEF
  8
SAPA_FYLLNING
 10
50.999999999999162
 20
25.99999999999989
 30
0.0
  0
VERTEX
  5
1DF0
  8
SAPA_FYLLNING
 10
62.499999999999211
 20
25.99999999999989
 30
0.0
  0
VERTEX
  5
1DF1
  8
SAPA_FYLLNING
 10
62.499999999999211
 20
74.999999999999886
 30
0.0
  0
SEQEND
  5
1DF2
  8
SAPA_FYLLNING
  0
POLYLINE
  5
1705
  8
SAPA_ISOLATOR
 66
     1
 10
0.0
 20
0.0
 30
0.0
 70
     1
  0
VERTEX
  5
1E24
  8
SAPA_ISOLATOR
 10
-52.499999999010072
 20
-3.0999999999994539
 30
0.0
  0
VERTEX
  5
1E25
  8
SAPA_ISOLATOR
 10
-52.499999999010072
 20
-4.4999999999995453
 30
0.0
 42
-0.4142135623730951
  0
VERTEX
  5
1E26
  8
SAPA_ISOLATOR
 10
-52.999999999010072
 20
-4.9999999999995453
 30
0.0
  0
VERTEX
  5
1E27
  8
SAPA_ISOLATOR
 10
-82.499999999010072
 20
-4.9999999999995453
 30
0.0
  0
VERTEX
  5
1E28
  8
SAPA_ISOLATOR
 10
-82.499999999010072
 20
-3.4999999999995448
 30
0.0
  0
VERTEX
  5
1E29
  8
SAPA_ISOLATOR
 10
-79.353553389603334
 20
-0.3535533839701657
 30
0.0
 42
0.4142135623730951
  0
VERTEX
  5
1E2A
  8
SAPA_ISOLATOR
 10
-79.353553389603334
 20
0.3535533972165012
 30
0.0
  0
VERTEX
  5
1E2B
  8
SAPA_ISOLATOR
 10
-82.499999999010015
 20
3.5000000000004539
 30
0.0
  0
VERTEX
  5
1E2C
  8
SAPA_ISOLATOR
 10
-82.499999999010015
 20
5.0000000000004539
 30
0.0
  0
VERTEX
  5
1E2D
  8
SAPA_ISOLATOR
 10
-52.999999999010008
 20
5.0000000000004539
 30
0.0
 42
-0.4142135623730951
  0
VERTEX
  5
1E2E
  8
SAPA_ISOLATOR
 10
-52.499999999010008
 20
4.5000000000004539
 30
0.0
  0
VERTEX
  5
1E2F
  8
SAPA_ISOLATOR
 10
-52.499999999010008
 20
3.1000000000003629
 30
0.0
  0
VERTEX
  5
1E30
  8
SAPA_ISOLATOR
 10
-51.649999999010099
 20
2.2500000000004539
 30
0.0
  0
VERTEX
  5
1E31
  8
SAPA_ISOLATOR
 10
-47.094967040794927
 20
2.2500000000004539
 30
0.0
 42
-0.0912836897734203
  0
VERTEX
  5
1E32
  8
SAPA_ISOLATOR
 10
-44.97541000719275
 20
1.031358332190393
 30
0.0
 42
-0.4609552212306286
  0
VERTEX
  5
1E33
  8
SAPA_ISOLATOR
 10
-44.97541000719275
 20
-1.0313583321897111
 30
0.0
 42
-0.0912836897734202
  0
VERTEX
  5
1E34
  8
SAPA_ISOLATOR
 10
-47.094967040794977
 20
-2.2499999999995448
 30
0.0
  0
VERTEX
  5
1E35
  8
SAPA_ISOLATOR
 10
-51.649999999010163
 20
-2.2499999999995448
 30
0.0
  0
SEQEND
  5
1E36
  8
SAPA_ISOLATOR
  0
POLYLINE
  5
1706
  8
SAPA_ISOLATOR
 66
     1
 10
0.0
 20
0.0
 30
0.0
 70
     1
  0
VERTEX
  5
1E37
  8
SAPA_ISOLATOR
 10
-78.499999998266048
 20
-0.9142135546976533
 30
0.0
 42
0.1989123671061432
  0
VERTEX
  5
1E38
  8
SAPA_ISOLATOR
 10
-78.207106780196682
 20
-0.2071067742551804
 30
0.0
  0
VERTEX
  5
1E39
  8
SAPA_ISOLATOR
 10
-78.207106780196682
 20
0.2071067742558625
 30
0.0
 42
0.1989123671061405
  0
VERTEX
  5
1E3A
  8
SAPA_ISOLATOR
 10
-78.499999998266048
 20
0.9142135546983354
 30
0.0
  0
VERTEX
  5
1E3B
  8
SAPA_ISOLATOR
 10
-80.732233048648368
 20
3.1464466097791042
 30
0.0
 42
-0.6681786375387241
  0
VERTEX
  5
1E3C
  8
SAPA_ISOLATOR
 10
-80.378679657683037
 20
4.0000000000004539
 30
0.0
  0
VERTEX
  5
1E3D
  8
SAPA_ISOLATOR
 10
-67.999999999010015
 20
4.0000000000004539
 30
0.0
 42
-0.4142135623730951
  0
VERTEX
  5
1E3E
  8
SAPA_ISOLATOR
 10
-67.499999999010015
 20
3.5000000000004539
 30
0.0
  0
VERTEX
  5
1E3F
  8
SAPA_ISOLATOR
 10
-67.499999999010072
 20
-3.4999999999995448
 30
0.0
 42
-0.4142135623730951
  0
VERTEX
  5
1E40
  8
SAPA_ISOLATOR
 10
-67.999999999010072
 20
-3.9999999999995448
 30
0.0
  0
VERTEX
  5
1E41
  8
SAPA_ISOLATOR
 10
-80.378679657683108
 20
-3.9999999999995448
 30
0.0
 42
-0.6681786375387241
  0
VERTEX
  5
1E42
  8
SAPA_ISOLATOR
 10
-80.732233048648425
 20
-3.1464466097784221
 30
0.0
  0
SEQEND
  5
1E43
  8
SAPA_ISOLATOR
  0
POLYLINE
  5
1707
  8
SAPA_ISOLATOR
 66
     1
 10
0.0
 20
0.0
 30
0.0
 70
     1
  0
VERTEX
  5
1E44
  8
SAPA_ISOLATOR
 10
-52.06421356138344
 20
-1.249999999999545
 30
0.0
  0
VERTEX
  5
1E45
  8
SAPA_ISOLATOR
 10
-53.499999999010072
 20
-2.6857864376265752
 30
0.0
  0
VERTEX
  5
1E46
  8
SAPA_ISOLATOR
 10
-53.499999999010072
 20
-3.4999999999995448
 30
0.0
 42
-0.4142135623730951
  0
VERTEX
  5
1E47
  8
SAPA_ISOLATOR
 10
-53.999999999010072
 20
-3.9999999999995448
 30
0.0
  0
VERTEX
  5
1E48
  8
SAPA_ISOLATOR
 10
-65.999999999010072
 20
-3.9999999999995448
 30
0.0
 42
-0.4142135623730951
  0
VERTEX
  5
1E49
  8
SAPA_ISOLATOR
 10
-66.499999999010072
 20
-3.4999999999995448
 30
0.0
  0
VERTEX
  5
1E4A
  8
SAPA_ISOLATOR
 10
-66.499999999010015
 20
3.5000000000004539
 30
0.0
 42
-0.4142135623730951
  0
VERTEX
  5
1E4B
  8
SAPA_ISOLATOR
 10
-65.999999999010015
 20
4.0000000000004539
 30
0.0
  0
VERTEX
  5
1E4C
  8
SAPA_ISOLATOR
 10
-53.999999999010022
 20
4.0000000000004539
 30
0.0
 42
-0.4142135623730951
  0
VERTEX
  5
1E4D
  8
SAPA_ISOLATOR
 10
-53.499999999010008
 20
3.5000000000004539
 30
0.0
  0
VERTEX
  5
1E4E
  8
SAPA_ISOLATOR
 10
-53.499999999010008
 20
2.6857864376272569
 30
0.0
  0
VERTEX
  5
1E4F
  8
SAPA_ISOLATOR
 10
-52.064213561382992
 20
1.2500000000004541
 30
0.0
  0
VERTEX
  5
1E50
  8
SAPA_ISOLATOR
 10
-46.769812025297142
 20
1.2500000000004541
 30
0.0
 42
-0.065831318015991
  0
VERTEX
  5
1E51
  8
SAPA_ISOLATOR
 10
-45.463605589831332
 20
0.3962382896033887
 30
0.0
 42
-0.3815575211595297
  0
VERTEX
  5
1E52
  8
SAPA_ISOLATOR
 10
-45.380762060001857
 20
-0.2236312415527664
 30
0.0
 42
-0.0681340277693807
  0
VERTEX
  5
1E53
  8
SAPA_ISOLATOR
 10
-46.769812025297142
 20
-1.249999999999545
 30
0.0
  0
SEQEND
  5
1E54
  8
SAPA_ISOLATOR
  0
CIRCLE
  5
1718
  8
SAPA_FOGBAND
 10
-74.637568219765001
 20
18.629356795602462
 30
0.0
 40
0.2549509756796394
  0
INSERT
  5
1719
  8
SAPA_FOGBAND
  6
CONTINUOUS
  2
*U69
 10
0.0
 20
0.0
 30
0.0
1001
ACAD
1002
{
1000
R14_HATCH_DATA
1000
1719
1011
1.0
1021
0.0
1031
0.0
1021
0.0
1031
0.0
1011
0.0
1021
0.0
1031
0.0
1021
1.0
1031
0.0
1011
0.0
1021
0.0
1031
0.0
1021
0.0
1031
1.0
1040
0.0
1010
0.0
1020
0.0
1030
1.0
1000
SOLID
1070
     1
1070
     1
1071
        1
1071
        1
1071
        1
1070
     2
1040
-74.637568219765001
1040
18.629356795602462
1040
0.2549509756796394
1040
-1.5707963267948959
1040
4.7123889803846888
1070
     1
1071
        1
1005
1718
1070
     0
1070
     1
1071
        1
1040
-74.555716722436102
1040
18.866095697172572
1040
0.0
1002
}
  0
POLYLINE
  5
171A
  8
SAPA_FOGBAND
 66
     1
 10
0.0
 20
0.0
 30
0.0
 70
     1
  0
VERTEX
  5
1F3F
  8
SAPA_FOGBAND
 10
-77.599999999009526
 20
17.729356795602481
 30
0.0
 42
0.9999999999999998
  0
VERTEX
  5
1F40
  8
SAPA_FOGBAND
 10
-77.599999999009526
 20
19.529356795602439
 30
0.0
  0
VERTEX
  5
1F41
  8
SAPA_FOGBAND
 10
-78.199999999009549
 20
19.529356795602439
 30
0.0
 42
0.9999999999999998
  0
VERTEX
  5
1F42
  8
SAPA_FOGBAND
 10
-78.199999999009549
 20
17.729356795602481
 30
0.0
  0
SEQEND
  5
1F43
  8
SAPA_FOGBAND
  0
POLYLINE
  5
171B
  8
SAPA_FOGBAND
 66
     1
 10
0.0
 20
0.0
 30
0.0
 70
     1
  0
VERTEX
  5
1F44
  8
SAPA_FOGBAND
 10
-72.499999999009503
 20
27.257233103775661
 30
0.0
 42
0.0775891054856093
  0
VERTEX
  5
1F45
  8
SAPA_FOGBAND
 10
-72.816635983070853
 20
23.790451373353111
 30
0.0
  0
VERTEX
  5
1F46
  8
SAPA_FOGBAND
 10
-72.599999999009469
 20
23.552561880524308
 30
0.0
 42
-0.5773502691896298
  0
VERTEX
  5
1F47
  8
SAPA_FOGBAND
 10
-72.599999999009469
 20
23.20615171901045
 30
0.0
  0
VERTEX
  5
1F48
  8
SAPA_FOGBAND
 10
-72.816909853232517
 20
22.968104102279661
 30
0.0
  0
VERTEX
  5
1F49
  8
SAPA_FOGBAND
 10
-72.816909853232517
 20
22.19060949236302
 30
0.0
  0
VERTEX
  5
1F4A
  8
SAPA_FOGBAND
 10
-72.599999999009469
 20
21.952561880524289
 30
0.0
 42
-0.577350269189699
  0
VERTEX
  5
1F4B
  8
SAPA_FOGBAND
 10
-72.599999999009469
 20
21.606151719010541
 30
0.0
  0
VERTEX
  5
1F4C
  8
SAPA_FOGBAND
 10
-72.816909853232517
 20
21.368104102279741
 30
0.0
  0
VERTEX
  5
1F4D
  8
SAPA_FOGBAND
 10
-72.816909853232517
 20
20.590609492363001
 30
0.0
  0
VERTEX
  5
1F4E
  8
SAPA_FOGBAND
 10
-72.599999999009469
 20
20.352561880524259
 30
0.0
 42
-0.577350269189699
  0
VERTEX
  5
1F4F
  8
SAPA_FOGBAND
 10
-72.599999999009469
 20
20.006151719010521
 30
0.0
  0
VERTEX
  5
1F50
  8
SAPA_FOGBAND
 10
-72.816909853232517
 20
19.768104102279722
 30
0.0
  0
VERTEX
  5
1F51
  8
SAPA_FOGBAND
 10
-72.816909853232517
 20
18.990609492362982
 30
0.0
  0
VERTEX
  5
1F52
  8
SAPA_FOGBAND
 10
-72.599999999009469
 20
18.75256188052435
 30
0.0
 42
-0.5773502691896298
  0
VERTEX
  5
1F53
  8
SAPA_FOGBAND
 10
-72.599999999009469
 20
18.406151719010492
 30
0.0
  0
VERTEX
  5
1F54
  8
SAPA_FOGBAND
 10
-72.816909853232517
 20
18.168104102279699
 30
0.0
  0
VERTEX
  5
1F55
  8
SAPA_FOGBAND
 10
-72.816909853232517
 20
17.390609492362952
 30
0.0
  0
VERTEX
  5
1F56
  8
SAPA_FOGBAND
 10
-72.599999999009469
 20
17.152561880524331
 30
0.0
 42
-0.5773502691896298
  0
VERTEX
  5
1F57
  8
SAPA_FOGBAND
 10
-72.599999999009469
 20
16.806151719010469
 30
0.0
  0
VERTEX
  5
1F58
  8
SAPA_FOGBAND
 10
-72.816909853232517
 20
16.568104102279669
 30
0.0
  0
VERTEX
  5
1F59
  8
SAPA_FOGBAND
 10
-72.816909853232517
 20
15.79060948819801
 30
0.0
  0
VERTEX
  5
1F5A
  8
SAPA_FOGBAND
 10
-72.599999999009469
 20
15.552561876359279
 30
0.0
 42
-0.577350269189699
  0
VERTEX
  5
1F5B
  8
SAPA_FOGBAND
 10
-72.599999999009469
 20
15.206151714845531
 30
0.0
  0
VERTEX
  5
1F5C
  8
SAPA_FOGBAND
 10
-73.673330067493964
 20
14.406151715290431
 30
0.0
 42
-0.1316524987190269
  0
VERTEX
  5
1F5D
  8
SAPA_FOGBAND
 10
-73.77333006826467
 20
14.37935679560246
 30
0.0
  0
VERTEX
  5
1F5E
  8
SAPA_FOGBAND
 10
-76.299999999009444
 20
14.37935679560235
 30
0.0
 42
-0.4142135623730951
  0
VERTEX
  5
1F5F
  8
SAPA_FOGBAND
 10
-76.499999999009503
 20
14.57935679560239
 30
0.0
  0
VERTEX
  5
1F60
  8
SAPA_FOGBAND
 10
-76.499999999009503
 20
16.629356795602462
 30
0.0
 42
0.4142135623730951
  0
VERTEX
  5
1F61
  8
SAPA_FOGBAND
 10
-76.999999999009503
 20
17.129356795602462
 30
0.0
  0
VERTEX
  5
1F62
  8
SAPA_FOGBAND
 10
-77.726794918252665
 20
17.129356795602462
 30
0.0
  0
VERTEX
  5
1F63
  8
SAPA_FOGBAND
 10
-77.794254827563066
 20
16.877592986581931
 30
0.0
 42
-0.4740571810232869
  0
VERTEX
  5
1F64
  8
SAPA_FOGBAND
 10
-78.07653741320172
 20
16.750299124218369
 30
0.0
  0
VERTEX
  5
1F65
  8
SAPA_FOGBAND
 10
-79.522743549961476
 20
17.370399626976901
 30
0.0
 42
-0.2846003776495916
  0
VERTEX
  5
1F66
  8
SAPA_FOGBAND
 10
-79.799999999009458
 20
17.818043805437132
 30
0.0
  0
VERTEX
  5
1F67
  8
SAPA_FOGBAND
 10
-79.799999999009458
 20
19.440669785767678
 30
0.0
 42
-0.2846003776495917
  0
VERTEX
  5
1F68
  8
SAPA_FOGBAND
 10
-79.522743549961476
 20
19.888313964227901
 30
0.0
  0
VERTEX
  5
1F69
  8
SAPA_FOGBAND
 10
-78.07653741320172
 20
20.508414466986441
 30
0.0
 42
-0.4740571810232869
  0
VERTEX
  5
1F6A
  8
SAPA_FOGBAND
 10
-77.794254827563066
 20
20.381120604622879
 30
0.0
  0
VERTEX
  5
1F6B
  8
SAPA_FOGBAND
 10
-77.726794918252665
 20
20.129356795602462
 30
0.0
  0
VERTEX
  5
1F6C
  8
SAPA_FOGBAND
 10
-76.999999999009503
 20
20.129356795602462
 30
0.0
 42
0.4142135623730951
  0
VERTEX
  5
1F6D
  8
SAPA_FOGBAND
 10
-76.499999999009503
 20
20.629356795602462
 30
0.0
  0
VERTEX
  5
1F6E
  8
SAPA_FOGBAND
 10
-76.499999999009503
 20
23.679356795602409
 30
0.0
 42
0.4142135623730951
  0
VERTEX
  5
1F6F
  8
SAPA_FOGBAND
 10
-76.699999999009549
 20
23.879356795602462
 30
0.0
  0
VERTEX
  5
1F70
  8
SAPA_FOGBAND
 10
-77.599999999009526
 20
23.879356795602352
 30
0.0
 42
-0.4142135623731784
  0
VERTEX
  5
1F71
  8
SAPA_FOGBAND
 10
-77.799999999009458
 20
24.07935679560239
 30
0.0
  0
VERTEX
  5
1F72
  8
SAPA_FOGBAND
 10
-77.799999999009572
 20
24.779356795602439
 30
0.0
 42
-0.4142135623730398
  0
VERTEX
  5
1F73
  8
SAPA_FOGBAND
 10
-77.499999999009503
 20
25.07935679560239
 30
0.0
  0
VERTEX
  5
1F74
  8
SAPA_FOGBAND
 10
-76.689488222357966
 20
25.07935679560239
 30
0.0
 42
0.1316524975873973
  0
VERTEX
  5
1F75
  8
SAPA_FOGBAND
 10
-75.689488222357966
 20
25.347305988033551
 30
0.0
  0
VERTEX
  5
1F76
  8
SAPA_FOGBAND
 10
-73.099920230266036
 20
30.510151138073979
 30
0.0
 42
-0.7057658529986604
  0
VERTEX
  5
1F77
  8
SAPA_FOGBAND
 10
-72.499999999009503
 20
30.24255796271564
 30
0.0
  0
SEQEND
  5
1F78
  8
SAPA_FOGBAND
  0
POLYLINE
  5
171C
  8
SAPA_FOGBAND
 66
     1
 10
0.0
 20
0.0
 30
0.0
 70
     1
  0
VERTEX
  5
1F79
  8
SAPA_FOGBAND
 10
-56.085369502363527
 20
18.849999999998651
 30
0.0
 42
-0.9999999999999998
  0
VERTEX
  5
1F7A
  8
SAPA_FOGBAND
 10
-56.085369502363527
 20
20.649999999998659
 30
0.0
  0
VERTEX
  5
1F7B
  8
SAPA_FOGBAND
 10
-55.485369502363511
 20
20.649999999998659
 30
0.0
 42
-0.9999999999999998
  0
VERTEX
  5
1F7C
  8
SAPA_FOGBAND
 10
-55.485369502363511
 20
18.849999999998651
 30
0.0
  0
SEQEND
  5
1F7D
  8
SAPA_FOGBAND
  0
POLYLINE
  5
171D
  8
SAPA_FOGBAND
 66
     1
 10
0.0
 20
0.0
 30
0.0
  0
VERTEX
  5
1F7E
  8
SAPA_FOGBAND
 10
-57.700000000002341
 20
23.349999999998651
 30
0.0
  0
VERTEX
  5
1F7F
  8
SAPA_FOGBAND
 10
-57.400000000002279
 20
23.349999999998651
 30
0.0
  0
VERTEX
  5
1F80
  8
SAPA_FOGBAND
 10
-57.700000000002341
 20
23.349999999998651
 30
0.0
 42
0.4142135623730951
  0
VERTEX
  5
1F81
  8
SAPA_FOGBAND
 10
-58.200000000002341
 20
22.849999999998651
 30
0.0
  0
VERTEX
  5
1F82
  8
SAPA_FOGBAND
 10
-58.200000000002341
 20
15.5499999999987
 30
0.0
 42
0.4142135623730951
  0
VERTEX
  5
1F83
  8
SAPA_FOGBAND
 10
-57.700000000002341
 20
15.0499999999987
 30
0.0
  0
VERTEX
  5
1F84
  8
SAPA_FOGBAND
 10
-57.400000000002279
 20
15.0499999999987
 30
0.0
  0
SEQEND
  5
1F85
  8
SAPA_FOGBAND
  0
POLYLINE
  5
171E
  8
SAPA_FOGBAND
 66
     1
 10
0.0
 20
0.0
 30
0.0
 70
     1
  0
VERTEX
  5
1F86
  8
SAPA_FOGBAND
 10
-62.000000000002281
 20
16.698284890295
 30
0.0
  0
VERTEX
  5
1F87
  8
SAPA_FOGBAND
 10
-62.000000000002281
 20
19.792928999620841
 30
0.0
 42
1.131447007421658
  0
VERTEX
  5
1F88
  8
SAPA_FOGBAND
 10
-64.881531792787769
 20
19.792928999620841
 30
0.0
  0
VERTEX
  5
1F89
  8
SAPA_FOGBAND
 10
-64.881531792787769
 20
16.698284890295
 30
0.0
 42
1.055323794898902
  0
SEQEND
  5
1F8A
  8
SAPA_FOGBAND
  0
POLYLINE
  5
171F
  8
SAPA_FOGBAND
 66
     1
 10
0.0
 20
0.0
 30
0.0
 70
     1
  0
VERTEX
  5
1F8B
  8
SAPA_FOGBAND
 10
-63.836054126747932
 20
7.4669545511757081
 30
0.0
 42
-0.6437791070978962
  0
VERTEX
  5
1F8C
  8
SAPA_FOGBAND
 10
-64.894698620709661
 20
7.4778793736088502
 30
0.0
  0
VERTEX
  5
1F8D
  8
SAPA_FOGBAND
 10
-65.458441624632414
 20
11.453739366973499
 30
0.0
 42
-0.4459602482749359
  0
VERTEX
  5
1F8E
  8
SAPA_FOGBAND
 10
-64.563604270400049
 20
12.449999999998701
 30
0.0
  0
VERTEX
  5
1F8F
  8
SAPA_FOGBAND
 10
-62.340292945535339
 20
12.449999999998701
 30
0.0
 42
-0.6245270939358744
  0
VERTEX
  5
1F90
  8
SAPA_FOGBAND
 10
-61.630537971724642
 20
10.99660332748349
 30
0.0
  0
SEQEND
  5
1F91
  8
SAPA_FOGBAND
  0
POLYLINE
  5
1720
  8
SAPA_FOGBAND
 66
     1
 10
0.0
 20
0.0
 30
0.0
 70
     1
  0
VERTEX
  5
1F92
  8
SAPA_FOGBAND
 10
-55.958574583120388
 20
18.249999999998678
 30
0.0
  0
VERTEX
  5
1F93
  8
SAPA_FOGBAND
 10
-55.891114673809987
 20
17.998236190978211
 30
0.0
 42
0.4740571810232144
  0
VERTEX
  5
1F94
  8
SAPA_FOGBAND
 10
-55.60883208817134
 20
17.870942328614589
 30
0.0
  0
VERTEX
  5
1F95
  8
SAPA_FOGBAND
 10
-54.162625951411449
 20
18.491042831373179
 30
0.0
 42
0.2846003776496053
  0
VERTEX
  5
1F96
  8
SAPA_FOGBAND
 10
-53.885369502363488
 20
18.938687009833352
 30
0.0
  0
VERTEX
  5
1F97
  8
SAPA_FOGBAND
 10
-53.885369502363488
 20
20.561312990163959
 30
0.0
 42
0.2846003776496027
  0
VERTEX
  5
1F98
  8
SAPA_FOGBAND
 10
-54.162625951411449
 20
21.008957168624129
 30
0.0
  0
VERTEX
  5
1F99
  8
SAPA_FOGBAND
 10
-55.608832088171397
 20
21.629057671382721
 30
0.0
 42
0.4740571810232332
  0
VERTEX
  5
1F9A
  8
SAPA_FOGBAND
 10
-55.891114673809987
 20
21.50176380901916
 30
0.0
  0
VERTEX
  5
1F9B
  8
SAPA_FOGBAND
 10
-55.958574583120388
 20
21.249999999998678
 30
0.0
  0
VERTEX
  5
1F9C
  8
SAPA_FOGBAND
 10
-56.900000000002279
 20
21.249999999998678
 30
0.0
 42
-0.4142135623730951
  0
VERTEX
  5
1F9D
  8
SAPA_FOGBAND
 10
-57.400000000002279
 20
21.749999999998689
 30
0.0
  0
VERTEX
  5
1F9E
  8
SAPA_FOGBAND
 10
-57.400000000002329
 20
24.262160163380141
 30
0.0
 42
0.4027293761437467
  0
VERTEX
  5
1F9F
  8
SAPA_FOGBAND
 10
-57.688192637471651
 20
24.561927716978001
 30
0.0
  0
VERTEX
  5
1FA0
  8
SAPA_FOGBAND
 10
-66.188192637471673
 20
25.049767531647429
 30
0.0
 42
0.4257917699693538
  0
VERTEX
  5
1FA1
  8
SAPA_FOGBAND
 10
-66.500000000002331
 20
24.749999978049569
 30
0.0
  0
VERTEX
  5
1FA2
  8
SAPA_FOGBAND
 10
-66.500000000002331
 20
11.044466318825689
 30
0.0
  0
VERTEX
  5
1FA3
  8
SAPA_FOGBAND
 10
-65.72346508231972
 20
5.4413247210988187
 30
0.0
 42
0.322530093016903
  0
VERTEX
  5
1FA4
  8
SAPA_FOGBAND
 10
-64.729387777213745
 20
4.7499999780495514
 30
0.0
  0
VERTEX
  5
1FA5
  8
SAPA_FOGBAND
 10
-64.398644220776163
 20
4.7499999780495514
 30
0.0
 42
0.2325311832130604
  0
VERTEX
  5
1FA6
  8
SAPA_FOGBAND
 10
-64.002703356694354
 20
4.9446627347427698
 30
0.0
  0
VERTEX
  5
1FA7
  8
SAPA_FOGBAND
 10
-57.608118271838833
 20
14.11122596265027
 30
0.0
 42
0.1657205760184606
  0
VERTEX
  5
1FA8
  8
SAPA_FOGBAND
 10
-57.400000000002279
 20
14.72190044926389
 30
0.0
  0
VERTEX
  5
1FA9
  8
SAPA_FOGBAND
 10
-57.400000000002279
 20
17.749999999998678
 30
0.0
 42
-0.4142135623730951
  0
VERTEX
  5
1FAA
  8
SAPA_FOGBAND
 10
-56.900000000002279
 20
18.249999999998678
 30
0.0
  0
SEQEND
  5
1FAB
  8
SAPA_FOGBAND
  0
INSERT
  5
1721
  8
SAPA_FOGBAND
  2
BYGG-023125$0$BORST_9
 10
64.494881179556714
 20
21.45890214216217
 30
0.0
 50
270.0
  0
POLYLINE
  5
1722
  8
SAPA_FOGBAND
 66
     1
 10
0.0
 20
0.0
 30
0.0
 70
     1
  0
VERTEX
  5
1FAC
  8
SAPA_FOGBAND
 10
113.00375201277789
 20
-67.497490090368174
 30
0.0
  0
VERTEX
  5
1FAD
  8
SAPA_FOGBAND
 10
113.00375201277789
 20
-68.69749009036822
 30
0.0
 42
0.4142135623730951
  0
VERTEX
  5
1FAE
  8
SAPA_FOGBAND
 10
113.30375201277791
 20
-68.997490090368174
 30
0.0
  0
VERTEX
  5
1FAF
  8
SAPA_FOGBAND
 10
114.203752012778
 20
-68.997490090368174
 30
0.0
  0
VERTEX
  5
1FB0
  8
SAPA_FOGBAND
 10
114.203752012778
 20
-68.647490090368024
 30
0.0
 42
-0.6681786379192988
  0
VERTEX
  5
1FB1
  8
SAPA_FOGBAND
 10
114.7158840471337
 20
-68.435358056012106
 30
0.0
  0
VERTEX
  5
1FB2
  8
SAPA_FOGBAND
 10
115.5694374377271
 20
-69.288911446605326
 30
0.0
 42
-0.1989123673796552
  0
VERTEX
  5
1FB3
  8
SAPA_FOGBAND
 10
115.80375201277791
 20
-69.854596871554705
 30
0.0
  0
VERTEX
  5
1FB4
  8
SAPA_FOGBAND
 10
115.80375201277791
 20
-70.017291993974496
 30
0.0
 42
-0.3394542588633746
  0
VERTEX
  5
1FB5
  8
SAPA_FOGBAND
 10
115.58139772630869
 20
-70.30706974186127
 30
0.0
  0
VERTEX
  5
1FB6
  8
SAPA_FOGBAND
 10
114.22610629924721
 20
-70.670218985251154
 30
0.0
 42
0.3394542588633746
  0
VERTEX
  5
1FB7
  8
SAPA_FOGBAND
 10
114.00375201277789
 20
-70.959996733137942
 30
0.0
  0
VERTEX
  5
1FB8
  8
SAPA_FOGBAND
 10
114.00375201277789
 20
-73.534983447598407
 30
0.0
 42
0.3394542588633746
  0
VERTEX
  5
1FB9
  8
SAPA_FOGBAND
 10
114.22610629924721
 20
-73.824761195485181
 30
0.0
  0
VERTEX
  5
1FBA
  8
SAPA_FOGBAND
 10
115.58139772630869
 20
-74.187910438875079
 30
0.0
 42
-0.3394542588633744
  0
VERTEX
  5
1FBB
  8
SAPA_FOGBAND
 10
115.80375201277791
 20
-74.477688186761853
 30
0.0
  0
VERTEX
  5
1FBC
  8
SAPA_FOGBAND
 10
115.80375201277791
 20
-74.640383309181644
 30
0.0
 42
-0.1989123673796526
  0
VERTEX
  5
1FBD
  8
SAPA_FOGBAND
 10
115.5694374377271
 20
-75.206068734130795
 30
0.0
  0
VERTEX
  5
1FBE
  8
SAPA_FOGBAND
 10
114.7158840471337
 20
-76.059622124724115
 30
0.0
 42
-0.6681786379193474
  0
VERTEX
  5
1FBF
  8
SAPA_FOGBAND
 10
114.203752012778
 20
-75.847490090368311
 30
0.0
  0
VERTEX
  5
1FC0
  8
SAPA_FOGBAND
 10
114.203752012778
 20
-75.497490090368174
 30
0.0
  0
VERTEX
  5
1FC1
  8
SAPA_FOGBAND
 10
113.30375201277791
 20
-75.497490090368174
 30
0.0
 42
0.4142135623730951
  0
VERTEX
  5
1FC2
  8
SAPA_FOGBAND
 10
113.00375201277789
 20
-75.797490090368129
 30
0.0
  0
VERTEX
  5
1FC3
  8
SAPA_FOGBAND
 10
113.00375201277789
 20
-77.897490090368265
 30
0.0
 42
0.4142135623730951
  0
VERTEX
  5
1FC4
  8
SAPA_FOGBAND
 10
113.30375201277791
 20
-78.19749009036822
 30
0.0
  0
VERTEX
  5
1FC5
  8
SAPA_FOGBAND
 10
114.703752012778
 20
-78.19749009036822
 30
0.0
 42
-0.7754026414786132
  0
VERTEX
  5
1FC6
  8
SAPA_FOGBAND
 10
114.8484598810839
 20
-78.760282085775899
 30
0.0
 42
0.1137347954614569
  0
VERTEX
  5
1FC7
  8
SAPA_FOGBAND
 10
107.3719721227591
 20
-82.910330244366477
 30
0.0
 42
-0.8680589103334746
  0
VERTEX
  5
1FC8
  8
SAPA_FOGBAND
 10
107.0151322200974
 20
-82.435406214602949
 30
0.0
  0
VERTEX
  5
1FC9
  8
SAPA_FOGBAND
 10
109.3913379094292
 20
-78.465370817451131
 30
0.0
 42
0.1989123673796536
  0
VERTEX
  5
1FCA
  8
SAPA_FOGBAND
 10
109.6842311282425
 20
-77.758264036264691
 30
0.0
  0
VERTEX
  5
1FCB
  8
SAPA_FOGBAND
 10
109.6842311282425
 20
-74.924945071844945
 30
0.0
 42
0.577350269189628
  0
VERTEX
  5
1FCC
  8
SAPA_FOGBAND
 10
109.2342311282427
 20
-74.665137450709494
 30
0.0
  0
VERTEX
  5
1FCD
  8
SAPA_FOGBAND
 10
107.3810716567004
 20
-76.803266147121235
 30
0.0
 42
-0.8769764629927301
  0
VERTEX
  5
1FCE
  8
SAPA_FOGBAND
 10
107.01893962234421
 20
-76.331326491629966
 30
0.0
  0
VERTEX
  5
1FCF
  8
SAPA_FOGBAND
 10
109.3913379094292
 20
-72.365098496725309
 30
0.0
 42
0.198912367379658
  0
VERTEX
  5
1FD0
  8
SAPA_FOGBAND
 10
109.6842311282425
 20
-71.657991715538756
 30
0.0
  0
VERTEX
  5
1FD1
  8
SAPA_FOGBAND
 10
109.6842311282425
 20
-69.425717353317069
 30
0.0
 42
0.5773502691896441
  0
VERTEX
  5
1FD2
  8
SAPA_FOGBAND
 10
109.2342311282427
 20
-69.165909732181845
 30
0.0
  0
VERTEX
  5
1FD3
  8
SAPA_FOGBAND
 10
107.3819404098808
 20
-71.303536853711094
 30
0.0
 42
-0.87697646299276
  0
VERTEX
  5
1FD4
  8
SAPA_FOGBAND
 10
107.0198083755246
 20
-70.831597198219825
 30
0.0
  0
VERTEX
  5
1FD5
  8
SAPA_FOGBAND
 10
109.4671925567428
 20
-66.790383309181621
 30
0.0
 42
-0.198912367379658
  0
VERTEX
  5
1FD6
  8
SAPA_FOGBAND
 10
110.1742993379293
 20
-66.497490090368174
 30
0.0
  0
VERTEX
  5
1FD7
  8
SAPA_FOGBAND
 10
112.00375201277789
 20
-66.497490090368174
 30
0.0
  0
VERTEX
  5
1FD8
  8
SAPA_FOGBAND
 10
111.99382022246471
 20
-66.497490090368174
 30
0.0
  0
SEQEND
  5
1FD9
  8
SAPA_FOGBAND
  0
POLYLINE
  5
1723
  8
SAPA_FOGBAND
 66
     1
 10
0.0
 20
0.0
 30
0.0
 70
     1
  0
VERTEX
  5
1FDA
  8
SAPA_FOGBAND
 10
79.922613012763748
 20
-66.437172509477023
 30
0.0
 42
0.4142135623730951
  0
VERTEX
  5
1FDB
  8
SAPA_FOGBAND
 10
78.922613012763733
 20
-67.437172509477023
 30
0.0
  0
VERTEX
  5
1FDC
  8
SAPA_FOGBAND
 10
78.922613012763733
 20
-68.637172509477068
 30
0.0
 42
-0.4142135623730951
  0
VERTEX
  5
1FDD
  8
SAPA_FOGBAND
 10
78.622613012763793
 20
-68.937172509477023
 30
0.0
  0
VERTEX
  5
1FDE
  8
SAPA_FOGBAND
 10
77.722613012763702
 20
-68.937172509477023
 30
0.0
  0
VERTEX
  5
1FDF
  8
SAPA_FOGBAND
 10
77.722613012763702
 20
-68.587172509476886
 30
0.0
 42
0.6681786379193472
  0
VERTEX
  5
1FE0
  8
SAPA_FOGBAND
 10
77.210480978407702
 20
-68.375040475121068
 30
0.0
  0
VERTEX
  5
1FE1
  8
SAPA_FOGBAND
 10
76.356927587814369
 20
-69.228593865714274
 30
0.0
 42
0.1989123673796526
  0
VERTEX
  5
1FE2
  8
SAPA_FOGBAND
 10
76.122613012763793
 20
-69.794279290663553
 30
0.0
  0
VERTEX
  5
1FE3
  8
SAPA_FOGBAND
 10
76.122613012763793
 20
-69.956974413083344
 30
0.0
 42
0.3394542588633746
  0
VERTEX
  5
1FE4
  8
SAPA_FOGBAND
 10
76.344967299233019
 20
-70.246752160970118
 30
0.0
  0
VERTEX
  5
1FE5
  8
SAPA_FOGBAND
 10
77.700258726294521
 20
-70.609901404360016
 30
0.0
 42
-0.3394542588633744
  0
VERTEX
  5
1FE6
  8
SAPA_FOGBAND
 10
77.922613012763748
 20
-70.89967915224679
 30
0.0
  0
VERTEX
  5
1FE7
  8
SAPA_FOGBAND
 10
77.922613012763748
 20
-73.474665866707255
 30
0.0
 42
-0.3394542588633746
  0
VERTEX
  5
1FE8
  8
SAPA_FOGBAND
 10
77.700258726294521
 20
-73.764443614594029
 30
0.0
  0
VERTEX
  5
1FE9
  8
SAPA_FOGBAND
 10
76.344967299233019
 20
-74.127592857983927
 30
0.0
 42
0.3394542588633747
  0
VERTEX
  5
1FEA
  8
SAPA_FOGBAND
 10
76.122613012763793
 20
-74.417370605870701
 30
0.0
  0
VERTEX
  5
1FEB
  8
SAPA_FOGBAND
 10
76.122613012763793
 20
-74.580065728290492
 30
0.0
 42
0.1989123673796526
  0
VERTEX
  5
1FEC
  8
SAPA_FOGBAND
 10
76.356927587814369
 20
-75.145751153239871
 30
0.0
  0
VERTEX
  5
1FED
  8
SAPA_FOGBAND
 10
77.210480978407702
 20
-75.999304543832963
 30
0.0
 42
0.6681786379193474
  0
VERTEX
  5
1FEE
  8
SAPA_FOGBAND
 10
77.722613012763702
 20
-75.787172509477159
 30
0.0
  0
VERTEX
  5
1FEF
  8
SAPA_FOGBAND
 10
77.722613012763702
 20
-75.437172509477023
 30
0.0
  0
VERTEX
  5
1FF0
  8
SAPA_FOGBAND
 10
78.622613012763793
 20
-75.437172509477023
 30
0.0
 42
-0.4142135623730951
  0
VERTEX
  5
1FF1
  8
SAPA_FOGBAND
 10
78.922613012763733
 20
-75.737172509476977
 30
0.0
  0
VERTEX
  5
1FF2
  8
SAPA_FOGBAND
 10
78.922613012763733
 20
-77.837172509477114
 30
0.0
 42
-0.4142135623730951
  0
VERTEX
  5
1FF3
  8
SAPA_FOGBAND
 10
78.622613012763793
 20
-78.137172509477068
 30
0.0
  0
VERTEX
  5
1FF4
  8
SAPA_FOGBAND
 10
77.222613012763702
 20
-78.137172509477068
 30
0.0
 42
0.7754026414785753
  0
VERTEX
  5
1FF5
  8
SAPA_FOGBAND
 10
77.077905144457816
 20
-78.699964504884747
 30
0.0
  0
VERTEX
  5
1FF6
  8
SAPA_FOGBAND
 10
82.461010917043666
 20
-82.219667015430105
 30
0.0
 42
0.8680589103334742
  0
VERTEX
  5
1FF7
  8
SAPA_FOGBAND
 10
82.817850819705384
 20
-81.744742985666548
 30
0.0
  0
VERTEX
  5
1FF8
  8
SAPA_FOGBAND
 10
80.715506231577081
 20
-78.405053236560207
 30
0.0
 42
-0.198912367379658
  0
VERTEX
  5
1FF9
  8
SAPA_FOGBAND
 10
80.422613012763733
 20
-77.69794645537354
 30
0.0
  0
VERTEX
  5
1FFA
  8
SAPA_FOGBAND
 10
80.422613012763733
 20
-74.864627490953794
 30
0.0
 42
-0.5773502691896282
  0
VERTEX
  5
1FFB
  8
SAPA_FOGBAND
 10
80.872613012763793
 20
-74.604819869818584
 30
0.0
  0
VERTEX
  5
1FFC
  8
SAPA_FOGBAND
 10
82.451911383102413
 20
-76.112602918184848
 30
0.0
 42
0.8769764629927299
  0
VERTEX
  5
1FFD
  8
SAPA_FOGBAND
 10
82.814043417458535
 20
-75.640663262693579
 30
0.0
  0
VERTEX
  5
1FFE
  8
SAPA_FOGBAND
 10
80.715506231577081
 20
-72.304780915834272
 30
0.0
 42
-0.198912367379658
  0
VERTEX
  5
1FFF
  8
SAPA_FOGBAND
 10
80.422613012763733
 20
-71.597674134647605
 30
0.0
  0
VERTEX
  5
2000
  8
SAPA_FOGBAND
 10
80.422613012763733
 20
-69.365399772426031
 30
0.0
 42
-0.5773502691896282
  0
VERTEX
  5
2001
  8
SAPA_FOGBAND
 10
80.872613012763793
 20
-69.105592151290693
 30
0.0
  0
VERTEX
  5
2002
  8
SAPA_FOGBAND
 10
82.451042629922028
 20
-70.612873624774465
 30
0.0
 42
0.8769764629927299
  0
VERTEX
  5
2003
  8
SAPA_FOGBAND
 10
82.813174664278165
 20
-70.140933969283196
 30
0.0
  0
VERTEX
  5
2004
  8
SAPA_FOGBAND
 10
80.639651584263405
 20
-66.730065728290583
 30
0.0
 42
0.198912367379658
  0
VERTEX
  5
2005
  8
SAPA_FOGBAND
 10
79.932544803076951
 20
-66.437172509477023
 30
0.0
  0
SEQEND
  5
2006
  8
SAPA_FOGBAND
  0
DIMENSION
  5
172C
  8
SAPA_MATT
  2
*D61
 10
124.49999999999881
 20
42.565135404953907
 30
0.0
 11
99.499999999998835
 21
45.065135404953907
 31
0.0
 70
     0
 13
74.499999999998806
 23
-0.3000000000000682
 33
0.0
 14
124.49999999999881
 24
-0.3000000000000682
 34
0.0
1001
ACAD
1000
DSTYLE
1002
{
1070
   287
1070
     4
1070
    40
1040
1.0
1070
   279
1070
     1
1002
}
  0
DIMENSION
  5
172D
  8
SAPA_MATT
  2
*D60
 10
74.499999999998806
 20
42.549455477510492
 30
0.0
 11
69.499999999998835
 21
45.049455477510492
 31
0.0
 70
     0
 13
64.499999999998877
 23
24.500000000000231
 33
0.0
 14
74.499999999998806
 24
-0.3000000000000682
 34
0.0
1001
ACAD
1000
DSTYLE
1002
{
1070
    40
1040
1.0
1002
}
  0
DIMENSION
  5
172E
  8
SAPA_MATT
  2
*D59
 10
-115.8563963596021
 20
-37.000000000000313
 30
0.0
 11
-118.3563963596021
 21
-31.000000000000341
 31
0.0
 70
     0
 13
-95.999999999010583
 23
-25.00000000000033
 33
0.0
 14
-75.507832962818838
 24
-37.000000000000327
 34
0.0
 50
270.0
1001
ACAD
1000
DSTYLE
1002
{
1070
   287
1070
     4
1070
    40
1040
1.0
1070
   279
1070
     1
1002
}
  0
DIMENSION
  5
172F
  8
SAPA_MATT
  2
*D58
 10
-115.8563963596021
 20
-25.00000000000032
 30
0.0
 11
-118.3563963596021
 21
-0.0000000000003408
 31
0.0
 70
     0
 13
-95.999999999010555
 23
24.99999999999968
 33
0.0
 14
-95.999999999010555
 24
-25.00000000000033
 34
0.0
 50
270.0
1001
ACAD
1000
DSTYLE
1002
{
1070
    40
1040
1.0
1002
}
  0
VIEWPORT
  5
C4
 67
     1
  8
0
 10
143.06236603067589
 20
116.00969601843509
 30
0.0
 40
369.98580003443811
 41
256.8421457311839
 68
     1
 69
     1
1001
ACAD
1000
MVIEW
1002
{
1070
    16
1010
0.0
1020
0.0
1030
0.0
1010
0.0
1020
0.0
1030
1.0
1040
0.0
1040
256.8421457311839
1040
99.112914085388169
1040
143.07606935501099
1040
50.0
1040
0.0
1040
0.0
1070
     0
1070
     0
1070
     1
1070
     1
1070
     0
1070
     0
1070
     0
1070
     0
1040
0.0
1040
0.0
1040
0.0
1040
10.0
1040
10.0
1040
10.0
1040
10.0
1070
     0
1002
{
1002
}
1002
}
  0
ENDSEC
  0
EOF
