  0
SECTION
  2
HEADER
  9
$ACADVER
  1
AC1009
  9
$INSBASE
 10
0.0
 20
0.0
 30
0.0
  9
$EXTMIN
 10
-130.8256531728245
 20
-210.4741643126311
 30
0.0
  9
$EXTMAX
 10
82.009403434165677
 20
75.55191439287249
 30
0.0
  9
$LIMMIN
 10
0.0
 20
0.0
  9
$LIMMAX
 10
790.0
 20
790.0
  9
$ORTHOMODE
 70
     0
  9
$REGENMODE
 70
     1
  9
$FILLMODE
 70
     1
  9
$QTEXTMODE
 70
     0
  9
$MIRRTEXT
 70
     1
  9
$DRAGMODE
 70
     2
  9
$LTSCALE
 40
4.0
  9
$OSMODE
 70
   167
  9
$ATTMODE
 70
     1
  9
$TEXTSIZE
 40
3.5
  9
$TRACEWID
 40
0.05
  9
$TEXTSTYLE
  7
ISO
  9
$CLAYER
  8
0
  9
$CELTYPE
  6
BYLAYER
  9
$CECOLOR
 62
   256
  9
$DIMSCALE
 40
0.0
  9
$DIMASZ
 40
3.0
  9
$DIMEXO
 40
1.5
  9
$DIMDLI
 40
10.0
  9
$DIMRND
 40
0.0
  9
$DIMDLE
 40
0.0
  9
$DIMEXE
 40
1.5
  9
$DIMTP
 40
0.0
  9
$DIMTM
 40
0.0
  9
$DIMTXT
 40
3.0
  9
$DIMCEN
 40
-5.0
  9
$DIMTSZ
 40
0.0
  9
$DIMTOL
 70
     0
  9
$DIMLIM
 70
     0
  9
$DIMTIH
 70
     0
  9
$DIMTOH
 70
     0
  9
$DIMSE1
 70
     0
  9
$DIMSE2
 70
     0
  9
$DIMTAD
 70
     1
  9
$DIMZIN
 70
     8
  9
$DIMBLK
  1

  9
$DIMASO
 70
     1
  9
$DIMSHO
 70
     1
  9
$DIMPOST
  1

  9
$DIMAPOST
  1

  9
$DIMALT
 70
     0
  9
$DIMALTD
 70
     0
  9
$DIMALTF
 40
25.399999999999999
  9
$DIMLFAC
 40
-1.0
  9
$DIMTOFL
 70
     1
  9
$DIMTVP
 40
0.0
  9
$DIMTIX
 70
     0
  9
$DIMSOXD
 70
     0
  9
$DIMSAH
 70
     0
  9
$DIMBLK1
  1

  9
$DIMBLK2
  1

  9
$DIMSTYLE
  2
MASKIN
  9
$DIMCLRD
 70
   256
  9
$DIMCLRE
 70
   256
  9
$DIMCLRT
 70
     2
  9
$DIMTFAC
 40
1.0
  9
$DIMGAP
 40
1.0
  9
$LUNITS
 70
     2
  9
$LUPREC
 70
     8
  9
$SKETCHINC
 40
0.1
  9
$FILLETRAD
 40
0.0
  9
$AUNITS
 70
     0
  9
$AUPREC
 70
     8
  9
$MENU
  1
ACAD
  9
$ELEVATION
 40
0.0
  9
$PELEVATION
 40
0.0
  9
$THICKNESS
 40
0.0
  9
$LIMCHECK
 70
     0
  9
$BLIPMODE
 70
     0
  9
$CHAMFERA
 40
0.0
  9
$CHAMFERB
 40
0.0
  9
$SKPOLY
 70
     0
  9
$TDCREATE
 40
2454895.6173328939
  9
$TDUPDATE
 40
2458458.6307822801
  9
$TDINDWG
 40
0.0229253241
  9
$TDUSRTIMER
 40
0.0229253241
  9
$USRTIMER
 70
     1
  9
$ANGBASE
 50
0.0
  9
$ANGDIR
 70
     0
  9
$PDMODE
 70
     0
  9
$PDSIZE
 40
0.0
  9
$PLINEWID
 40
0.0
  9
$COORDS
 70
     1
  9
$SPLFRAME
 70
     0
  9
$SPLINETYPE
 70
     6
  9
$SPLINESEGS
 70
     8
  9
$ATTDIA
 70
     1
  9
$ATTREQ
 70
     1
  9
$HANDLING
 70
     1
  9
$HANDSEED
  5
2B88
  9
$SURFTAB1
 70
     6
  9
$SURFTAB2
 70
     6
  9
$SURFTYPE
 70
     6
  9
$SURFU
 70
     6
  9
$SURFV
 70
     6
  9
$UCSNAME
  2

  9
$UCSORG
 10
0.0
 20
0.0
 30
0.0
  9
$UCSXDIR
 10
1.0
 20
0.0
 30
0.0
  9
$UCSYDIR
 10
0.0
 20
1.0
 30
0.0
  9
$PUCSNAME
  2

  9
$PUCSORG
 10
0.0
 20
0.0
 30
0.0
  9
$PUCSXDIR
 10
1.0
 20
0.0
 30
0.0
  9
$PUCSYDIR
 10
0.0
 20
1.0
 30
0.0
  9
$USERI1
 70
     0
  9
$USERI2
 70
     0
  9
$USERI3
 70
     0
  9
$USERI4
 70
     0
  9
$USERI5
 70
     0
  9
$USERR1
 40
0.0
  9
$USERR2
 40
0.0
  9
$USERR3
 40
0.0
  9
$USERR4
 40
0.0
  9
$USERR5
 40
0.0
  9
$WORLDVIEW
 70
     1
  9
$SHADEDGE
 70
     3
  9
$SHADEDIF
 70
    70
  9
$TILEMODE
 70
     1
  9
$MAXACTVP
 70
    16
  9
$PLIMCHECK
 70
     0
  9
$PEXTMIN
 10
1.0000000000000000E+020
 20
1.0000000000000000E+020
 30
1.0000000000000000E+020
  9
$PEXTMAX
 10
-1.0000000000000000E+020
 20
-1.0000000000000000E+020
 30
-1.0000000000000000E+020
  9
$PLIMMIN
 10
-5.069427490234375
 20
-5.8737497329711914
  9
$PLIMMAX
 10
291.89889526367187
 20
204.0995779037475
  9
$UNITMODE
 70
     0
  9
$VISRETAIN
 70
     1
  9
$PLINEGEN
 70
     0
  9
$PSLTSCALE
 70
     1
  0
ENDSEC
  0
SECTION
  2
TABLES
  0
TABLE
  2
VPORT
 70
     1
  0
VPORT
  2
*ACTIVE
 70
     0
 10
0.0
 20
0.0
 11
1.0
 21
1.0
 12
73.989853516947903
 22
31.37261143670807
 13
0.0
 23
0.0
 14
1.0
 24
1.0
 15
0.0
 25
0.0
 16
0.0
 26
0.0
 36
1.0
 17
0.0
 27
0.0
 37
0.0
 40
346.10844755150538
 41
2.3595505617977519
 42
50.0
 43
0.0
 44
0.0
 50
0.0
 51
0.0
 71
     0
 72
   100
 73
     1
 74
     1
 75
     0
 76
     0
 77
     0
 78
     0
  0
ENDTAB
  0
TABLE
  2
LTYPE
 70
    44
  0
LTYPE
  2
CONTINUOUS
 70
     0
  3
Solid line
 72
    65
 73
     0
 40
0.0
  0
LTYPE
  2
BYGG-01482201$0$NEWDOT
 70
     0
  3
____ . ____ . ____ . ____ . ____ . ____ . ____
 72
    65
 73
     4
 40
2.0
 49
1.0
 49
-0.5
 49
0.0
 49
-0.5
  0
LTYPE
  2
BYGG-014357$0$NEWDOT
 70
     0
  3
____ . ____ . ____ . ____ . ____ . ____ . ____
 72
    65
 73
     4
 40
2.0
 49
1.0
 49
-0.5
 49
0.0
 49
-0.5
  0
LTYPE
  2
BYGG-014357$0$DASHDOT
 70
     0
  3
__ . __ . __ . __ . __ . __ . __ . __ . __ . __
 72
    65
 73
     4
 40
1.0
 49
0.5
 49
-0.25
 49
0.0
 49
-0.25
  0
LTYPE
  2
BYGG-014357$0$DASHED
 70
     0
  3
__ __ __ __ __ __ __ __ __ __ __ __ __ __ __
 72
    65
 73
     2
 40
0.75
 49
0.5
 49
-0.25
  0
LTYPE
  2
BYGG-014279$0$NEWDOT
 70
     0
  3
____ . ____ . ____ . ____ . ____ . ____ . ____
 72
    65
 73
     4
 40
2.0
 49
1.0
 49
-0.5
 49
0.0
 49
-0.5
  0
LTYPE
  2
BYGG-01482201$0$ZIGZAG
 70
     0
  3
Zig zag /\/\/\/\/\/\/\/\/\/\/\/\/\/\/\/\/\/\/\/\/\/\/\/
 72
    65
 73
     4
 40
20.32254
 49
0.00254
 49
-5.0800000000000001
 49
-10.16
 49
-5.0800000000000001
  0
LTYPE
  2
BYGG-014279$0$ZIGZAG
 70
     0
  3
Zig zag /\/\/\/\/\/\/\/\/\/\/\/\/\/\/\/\/\/\/\/\/\/\/\/
 72
    65
 73
     4
 40
20.32254
 49
0.00254
 49
-5.0800000000000001
 49
-10.16
 49
-5.0800000000000001
  0
LTYPE
  2
BYGG-024791$0$NEWDOT
 70
     0
  3
____ . ____ . ____ . ____ . ____ . ____ . ____
 72
    65
 73
     4
 40
2.0
 49
1.0
 49
-0.5
 49
0.0
 49
-0.5
  0
LTYPE
  2
BYGG-024791$0$DASHDOT
 70
     0
  3
__ . __ . __ . __ . __ . __ . __ . __ . __ . __
 72
    65
 73
     4
 40
1.0
 49
0.5
 49
-0.25
 49
0.0
 49
-0.25
  0
LTYPE
  2
BYGG-020805$0$NEWDOT
 70
     0
  3
____ . ____ . ____ . ____ . ____ . ____ . ____
 72
    65
 73
     4
 40
2.0
 49
1.0
 49
-0.5
 49
0.0
 49
-0.5
  0
LTYPE
  2
BYGG-020805$0$DASHDOT
 70
     0
  3
__ . __ . __ . __ . __ . __ . __ . __ . __ . __
 72
    65
 73
     4
 40
1.0
 49
0.5
 49
-0.25
 49
0.0
 49
-0.25
  0
LTYPE
  2
BYGG-020805$0$DASHED
 70
     0
  3
__ __ __ __ __ __ __ __ __ __ __ __ __ __ __
 72
    65
 73
     2
 40
0.75
 49
0.5
 49
-0.25
  0
LTYPE
  2
BYGG-020805$0$PHANTOM
 70
     0
  3
Phantom ______  __  __  ______  __  __  ______
 72
    65
 73
     6
 40
63.5
 49
31.75
 49
-6.3499999999999988
 49
6.3499999999999988
 49
-6.3499999999999988
 49
6.3499999999999988
 49
-6.3499999999999988
  0
LTYPE
  2
BYGG-038598$0$NEWDOT
 70
     0
  3
____ . ____ . ____ . ____ . ____ . ____ . ____
 72
    65
 73
     4
 40
2.0
 49
1.0
 49
-0.5
 49
0.0
 49
-0.5
  0
LTYPE
  2
BYGG-038598$0$DASHDOT
 70
     0
  3
__ . __ . __ . __ . __ . __ . __ . __ . __ . __
 72
    65
 73
     4
 40
1.0
 49
0.5
 49
-0.25
 49
0.0
 49
-0.25
  0
LTYPE
  2
BYGG-038598$0$DASHED
 70
     0
  3
__ __ __ __ __ __ __ __ __ __ __ __ __ __ __
 72
    65
 73
     2
 40
0.75
 49
0.5
 49
-0.25
  0
LTYPE
  2
BYGG-038598$0$PHANTOM
 70
     0
  3
Phantom ______  __  __  ______  __  __  ______
 72
    65
 73
     6
 40
63.5
 49
31.75
 49
-6.3499999999999988
 49
6.3499999999999988
 49
-6.3499999999999988
 49
6.3499999999999988
 49
-6.3499999999999988
  0
LTYPE
  2
BYGG-024817$0$NEWDOT
 70
     0
  3
____ . ____ . ____ . ____ . ____ . ____ . ____
 72
    65
 73
     4
 40
2.0
 49
1.0
 49
-0.5
 49
0.0
 49
-0.5
  0
LTYPE
  2
BYGG-033167$0$NEWDOT
 70
     0
  3
____ . ____ . ____ . ____ . ____ . ____ . ____
 72
    65
 73
     4
 40
2.0
 49
1.0
 49
-0.5
 49
0.0
 49
-0.5
  0
LTYPE
  2
BYGG-033167$0$DASHDOT
 70
     0
  3
__ . __ . __ . __ . __ . __ . __ . __ . __ . __
 72
    65
 73
     4
 40
1.0
 49
0.5
 49
-0.25
 49
0.0
 49
-0.25
  0
LTYPE
  2
BYGG-033167$0$DASHED
 70
     0
  3
__ __ __ __ __ __ __ __ __ __ __ __ __ __ __
 72
    65
 73
     2
 40
0.75
 49
0.5
 49
-0.25
  0
LTYPE
  2
BYGG-033167$0$PHANTOM
 70
     0
  3
Phantom ______  __  __  ______  __  __  ______
 72
    65
 73
     6
 40
63.5
 49
31.75
 49
-6.3499999999999988
 49
6.3499999999999988
 49
-6.3499999999999988
 49
6.3499999999999988
 49
-6.3499999999999988
  0
LTYPE
  2
BYGG-033167$0$BYGG-020132$
 70
     0
  3
____ . ____ . ____ . ____ . ____ . ____ . ____
 72
    65
 73
     4
 40
2.0
 49
1.0
 49
-0.5
 49
0.0
 49
-0.5
  0
LTYPE
  2
BYGG-033167$0$BYGG-024943$
 70
     0
  3
____ . ____ . ____ . ____ . ____ . ____ . ____
 72
    65
 73
     4
 40
2.0
 49
1.0
 49
-0.5
 49
0.0
 49
-0.5
  0
LTYPE
  2
BYGG-026410$0$NEWDOT
 70
     0
  3
____ . ____ . ____ . ____ . ____ . ____ . ____
 72
    65
 73
     4
 40
2.0
 49
1.0
 49
-0.5
 49
0.0
 49
-0.5
  0
LTYPE
  2
BYGG-026410$0$DASHDOT
 70
     0
  3
__ . __ . __ . __ . __ . __ . __ . __ . __ . __
 72
    65
 73
     4
 40
1.0
 49
0.5
 49
-0.25
 49
0.0
 49
-0.25
  0
LTYPE
  2
BYGG-026410$0$DASHED
 70
     0
  3
__ __ __ __ __ __ __ __ __ __ __ __ __ __ __
 72
    65
 73
     2
 40
0.75
 49
0.5
 49
-0.25
  0
LTYPE
  2
BYGG-026410$0$PHANTOM
 70
     0
  3
Phantom ______  __  __  ______  __  __  ______
 72
    65
 73
     6
 40
63.5
 49
31.75
 49
-6.3499999999999988
 49
6.3499999999999988
 49
-6.3499999999999988
 49
6.3499999999999988
 49
-6.3499999999999988
  0
LTYPE
  2
BYGG-037704$0$NEWDOT
 70
     0
  3
____ . ____ . ____ . ____ . ____ . ____ . ____
 72
    65
 73
     4
 40
2.0
 49
1.0
 49
-0.5
 49
0.0
 49
-0.5
  0
LTYPE
  2
BYGG-037704$0$ZIGZAG
 70
     0
  3
Zig zag /\/\/\/\/\/\/\/\/\/\/\/\/\/\/\/\/\/\/\/\/\/\/\/
 72
    65
 73
     4
 40
20.32254
 49
0.00254
 49
-5.0800000000000001
 49
-10.16
 49
-5.0800000000000001
  0
LTYPE
  2
BYGG-014568$0$NEWDOT
 70
     0
  3
____ . ____ . ____ . ____ . ____ . ____ . ____
 72
    65
 73
     4
 40
2.0
 49
1.0
 49
-0.5
 49
0.0
 49
-0.5
  0
LTYPE
  2
BYGG-014568$0$ZIGZAG
 70
     0
  3
Zig zag /\/\/\/\/\/\/\/\/\/\/\/\/\/\/\/\/\/\/\/\/\/\/\/
 72
    65
 73
     4
 40
20.32254
 49
0.00254
 49
-5.0800000000000001
 49
-10.16
 49
-5.0800000000000001
  0
LTYPE
  2
BYGG-014247$0$DASHDOT
 70
     0
  3
__ . __ . __ . __ . __ . __ . __ . __ . __ . __
 72
    65
 73
     4
 40
1.0
 49
0.5
 49
-0.25
 49
0.0
 49
-0.25
  0
LTYPE
  2
BYGG-028766$0$NEWDOT
 70
     0
  3
____ . ____ . ____ . ____ . ____ . ____ . ____
 72
    65
 73
     4
 40
2.0
 49
1.0
 49
-0.5
 49
0.0
 49
-0.5
  0
LTYPE
  2
BYGG-028766$0$DASHDOT
 70
     0
  3
__ . __ . __ . __ . __ . __ . __ . __ . __ . __
 72
    65
 73
     4
 40
1.0
 49
0.5
 49
-0.25
 49
0.0
 49
-0.25
  0
LTYPE
  2
BYGG-028766$0$DASHED
 70
     0
  3
__ __ __ __ __ __ __ __ __ __ __ __ __ __ __
 72
    65
 73
     2
 40
0.75
 49
0.5
 49
-0.25
  0
LTYPE
  2
BYGG-028766$0$PHANTOM
 70
     0
  3
Phantom ______  __  __  ______  __  __  ______
 72
    65
 73
     6
 40
63.5
 49
31.75
 49
-6.3499999999999988
 49
6.3499999999999988
 49
-6.3499999999999988
 49
6.3499999999999988
 49
-6.3499999999999988
  0
LTYPE
  2
BYGG-014199$0$ZIGZAG
 70
     0
  3
Zig zag /\/\/\/\/\/\/\/\/\/\/\/\/\/\/\/\/\/\/\/\/\/\/\/
 72
    65
 73
     4
 40
20.32254
 49
0.00254
 49
-5.0800000000000001
 49
-10.16
 49
-5.0800000000000001
  0
LTYPE
  2
BYGG-014199$0$NEWDOT
 70
     0
  3
____ . ____ . ____ . ____ . ____ . ____ . ____
 72
    65
 73
     4
 40
2.0
 49
1.0
 49
-0.5
 49
0.0
 49
-0.5
  0
LTYPE
  2
BYGG-024817$0$DASHDOT
 70
     0
  3
__ . __ . __ . __ . __ . __ . __ . __ . __ . __
 72
    65
 73
     4
 40
1.0
 49
0.5
 49
-0.25
 49
0.0
 49
-0.25
  0
LTYPE
  2
BYGG-037704$0$DOT_CENTER
 70
     0
  3
Dot_Center
 72
    65
 73
     4
 40
14.0
 49
12.0
 49
-1.0
 49
0.0
 49
-1.0
  0
LTYPE
  2
BYGG-021745$0$PHANTOM2
 70
     0
  3
___ _ _ ___ _ _ ___ _ _ ___ _ _
 72
    65
 73
     6
 40
1.25
 49
0.625
 49
-0.125
 49
0.125
 49
-0.125
 49
0.125
 49
-0.125
  0
LTYPE
  2
BYGG-021741$0$PHANTOM2
 70
     0
  3
___ _ _ ___ _ _ ___ _ _ ___ _ _
 72
    65
 73
     6
 40
1.25
 49
0.625
 49
-0.125
 49
0.125
 49
-0.125
 49
0.125
 49
-0.125
  0
ENDTAB
  0
TABLE
  2
LAYER
 70
   273
  0
LAYER
  2
0
 70
     0
 62
     7
  6
CONTINUOUS
  0
LAYER
  2
DEFPOINTS
 70
     0
 62
     7
  6
CONTINUOUS
  0
LAYER
  2
SAPA_ARTIKELNR
 70
     0
 62
     4
  6
CONTINUOUS
  0
LAYER
  2
SAPA_LIGHT
 70
     1
 62
     1
  6
CONTINUOUS
  0
LAYER
  2
SAPA_FYLLNING
 70
     0
 62
     4
  6
CONTINUOUS
  0
LAYER
  2
SAPA_ISOLATOR
 70
     0
 62
     4
  6
CONTINUOUS
  0
LAYER
  2
SAPA_MATT
 70
     0
 62
     1
  6
CONTINUOUS
  0
LAYER
  2
SAPA_GLAS
 70
     0
 62
     4
  6
CONTINUOUS
  0
LAYER
  2
SAPA_FOGBAND
 70
     0
 62
     2
  6
CONTINUOUS
  0
LAYER
  2
SAPA_PROFIL
 70
     0
 62
     7
  6
CONTINUOUS
  0
ENDTAB
  0
TABLE
  2
STYLE
 70
    58
  0
STYLE
  2
STANDARD
 70
     0
 40
0.0
 41
1.0
 50
0.0
 71
     0
 42
0.2
  3
txt
  4

  0
STYLE
  2
ISO
 70
     0
 40
0.0
 41
1.0
 50
0.0
 71
     0
 42
3.5
  3
txt
  4

  0
STYLE
  2

 70
     1
 40
0.0
 41
1.0
 50
0.0
 71
     0
 42
0.2
  3
ltypeshp.shx
  4

  0
STYLE
  2
BYGG-021589$0$STANDARD
 70
     0
 40
0.0
 41
1.0
 50
0.0
 71
     0
 42
0.2
  3
txt
  4

  0
STYLE
  2
BYGG-021589$0$ISO
 70
     0
 40
0.0
 41
1.0
 50
0.0
 71
     0
 42
3.5
  3
isocp3.shx
  4

  0
STYLE
  2
BYGG-01482201$0$STANDARD
 70
     0
 40
0.0
 41
1.0
 50
0.0
 71
     0
 42
0.2
  3
txt
  4

  0
STYLE
  2
BYGG-01482201$0$ISO
 70
     0
 40
0.0
 41
1.0
 50
0.0
 71
     0
 42
3.5
  3
isocp3.shx
  4

  0
STYLE
  2
BYGG-021802$0$STANDARD
 70
     0
 40
0.0
 41
1.0
 50
0.0
 71
     0
 42
0.2
  3
txt
  4

  0
STYLE
  2
BYGG-021802$0$ISO
 70
     0
 40
0.0
 41
1.0
 50
0.0
 71
     0
 42
3.5
  3
isocp3.shx
  4

  0
STYLE
  2
BYGG-014357$0$STANDARD
 70
     0
 40
0.0
 41
1.0
 50
0.0
 71
     0
 42
0.2
  3
txt
  4

  0
STYLE
  2
BYGG-014357$0$ISO
 70
     0
 40
0.0
 41
1.0
 50
0.0
 71
     0
 42
3.5
  3
isocp3.shx
  4

  0
STYLE
  2
BYGG-014063$0$STANDARD
 70
     0
 40
0.0
 41
1.0
 50
0.0
 71
     0
 42
0.2
  3
txt
  4

  0
STYLE
  2
BYGG-014063$0$ISO
 70
     0
 40
0.0
 41
1.0
 50
0.0
 71
     0
 42
3.5
  3
isocp3.shx
  4

  0
STYLE
  2
BYGG-021582$0$STANDARD
 70
     0
 40
0.0
 41
1.0
 50
0.0
 71
     0
 42
0.2
  3
txt
  4

  0
STYLE
  2
BYGG-021582$0$ISO
 70
     0
 40
0.0
 41
1.0
 50
0.0
 71
     0
 42
3.5
  3
isocp3.shx
  4

  0
STYLE
  2
BYGG-014279$0$STANDARD
 70
     0
 40
0.0
 41
1.0
 50
0.0
 71
     0
 42
0.2
  3
TXT.shx
  4

  0
STYLE
  2
BYGG-014279$0$ISO
 70
     0
 40
0.0
 41
1.0
 50
0.0
 71
     0
 42
3.5
  3
iso
  4

  0
STYLE
  2
BYGG-022676$0$STANDARD
 70
     0
 40
0.0
 41
1.0
 50
0.0
 71
     0
 42
0.2
  3
txt
  4

  0
STYLE
  2
BYGG-022676$0$ISO
 70
     0
 40
0.0
 41
1.0
 50
0.0
 71
     0
 42
3.5
  3
txt
  4

  0
STYLE
  2
BYGG-022676$0$ANNOTATIVE
 70
     0
 40
0.0
 41
1.0
 50
0.0
 71
     0
 42
0.2
  3
txt
  4

  0
STYLE
  2
BYGG-025109$0$STANDARD
 70
     0
 40
0.0
 41
1.0
 50
0.0
 71
     0
 42
0.2
  3
txt
  4

  0
STYLE
  2
BYGG-025109$0$ISO
 70
     0
 40
0.0
 41
1.0
 50
0.0
 71
     0
 42
3.5
  3
txt
  4

  0
STYLE
  2
BYGG-020805$0$STANDARD
 70
     0
 40
0.0
 41
1.0
 50
0.0
 71
     0
 42
0.2
  3
txt
  4

  0
STYLE
  2
BYGG-020805$0$ISO
 70
     0
 40
0.0
 41
1.0
 50
0.0
 71
     0
 42
3.5
  3
txt
  4

  0
STYLE
  2
BYGG-026395$0$STANDARD
 70
     0
 40
0.0
 41
1.0
 50
0.0
 71
     0
 42
0.2
  3
txt
  4

  0
STYLE
  2
BYGG-026395$0$ISO
 70
     0
 40
0.0
 41
1.0
 50
0.0
 71
     0
 42
3.5
  3
isocp3.shx
  4

  0
STYLE
  2
BYGG-022681$0$STANDARD
 70
     0
 40
0.0
 41
1.0
 50
0.0
 71
     0
 42
0.2
  3
txt
  4

  0
STYLE
  2
BYGG-022681$0$ISO
 70
     0
 40
0.0
 41
1.0
 50
0.0
 71
     0
 42
3.5
  3
txt
  4

  0
STYLE
  2
BYGG-014306$0$STANDARD
 70
     0
 40
0.0
 41
1.0
 50
0.0
 71
     0
 42
0.2
  3
txt
  4

  0
STYLE
  2
BYGG-038598$0$STANDARD
 70
     0
 40
0.0
 41
1.0
 50
0.0
 71
     0
 42
0.2
  3
txt
  4

  0
STYLE
  2
BYGG-038598$0$ISO
 70
     0
 40
0.0
 41
1.0
 50
0.0
 71
     0
 42
3.5
  3
txt
  4

  0
STYLE
  2
BYGG-028980$0$STANDARD
 70
     0
 40
0.0
 41
1.0
 50
0.0
 71
     0
 42
0.2
  3
txt
  4

  0
STYLE
  2
BYGG-028980$0$ISO
 70
     0
 40
0.0
 41
1.0
 50
0.0
 71
     0
 42
3.5
  3
txt
  4

  0
STYLE
  2
BYGG-024791$0$STANDARD
 70
     0
 40
0.0
 41
1.0
 50
0.0
 71
     0
 42
0.2
  3
txt
  4

  0
STYLE
  2
BYGG-024791$0$ISO
 70
     0
 40
0.0
 41
1.0
 50
0.0
 71
     0
 42
3.5
  3
txt
  4

  0
STYLE
  2
BYGG-024817$0$STANDARD
 70
     0
 40
0.0
 41
1.0
 50
0.0
 71
     0
 42
0.2
  3
txt
  4

  0
STYLE
  2
BYGG-024817$0$ISO
 70
     0
 40
0.0
 41
1.0
 50
0.0
 71
     0
 42
3.5
  3
txt
  4

  0
STYLE
  2
BYGG-033167$0$STANDARD
 70
     0
 40
0.0
 41
1.0
 50
0.0
 71
     0
 42
0.2
  3
txt
  4

  0
STYLE
  2
BYGG-033167$0$ISO
 70
     0
 40
0.0
 41
1.0
 50
0.0
 71
     0
 42
3.5
  3
txt
  4

  0
STYLE
  2
BYGG-033167$0$BYGG-020132$
 70
     0
 40
0.0
 41
1.0
 50
0.0
 71
     0
 42
3.5
  3
txt
  4

  0
STYLE
  2
BYGG-033167$0$BYGG-024943$
 70
     0
 40
0.0
 41
1.0
 50
0.0
 71
     0
 42
3.5
  3
txt
  4

  0
STYLE
  2
BYGG-026410$0$STANDARD
 70
     0
 40
0.0
 41
1.0
 50
0.0
 71
     0
 42
0.2
  3
txt
  4

  0
STYLE
  2
BYGG-026410$0$ISO
 70
     0
 40
0.0
 41
1.0
 50
0.0
 71
     0
 42
3.5
  3
txt
  4

  0
STYLE
  2
BYGG-037704$0$STANDARD
 70
     0
 40
0.0
 41
1.0
 50
0.0
 71
     0
 42
0.2
  3
txt
  4

  0
STYLE
  2
BYGG-037704$0$ISO
 70
     0
 40
0.0
 41
1.0
 50
0.0
 71
     0
 42
3.5
  3
txt
  4

  0
STYLE
  2
BYGG-021745$0$STANDARD
 70
     0
 40
0.0
 41
1.0
 50
0.0
 71
     0
 42
0.2
  3
txt
  4

  0
STYLE
  2
BYGG-021745$0$ISO
 70
     0
 40
0.0
 41
1.0
 50
0.0
 71
     0
 42
3.5
  3
iso
  4

  0
STYLE
  2
BYGG-014568$0$STANDARD
 70
     0
 40
0.0
 41
1.0
 50
0.0
 71
     0
 42
0.2
  3
txt
  4

  0
STYLE
  2
BYGG-014568$0$ISO
 70
     0
 40
0.0
 41
1.0
 50
0.0
 71
     0
 42
3.5
  3
isocp3.shx
  4

  0
STYLE
  2
BYGG-021741$0$STANDARD
 70
     0
 40
0.0
 41
1.0
 50
0.0
 71
     0
 42
0.2
  3
txt
  4

  0
STYLE
  2
BYGG-014247$0$STANDARD
 70
     0
 40
0.0
 41
1.0
 50
0.0
 71
     0
 42
0.2
  3
txt
  4

  0
STYLE
  2
BYGG-014247$0$ISO
 70
     0
 40
0.0
 41
1.0
 50
0.0
 71
     0
 42
3.5
  3
isocp3.shx
  4

  0
STYLE
  2
BYGG-028766$0$STANDARD
 70
     0
 40
0.0
 41
1.0
 50
0.0
 71
     0
 42
0.2
  3
txt
  4

  0
STYLE
  2
BYGG-028766$0$ISO
 70
     0
 40
0.0
 41
1.0
 50
0.0
 71
     0
 42
3.5
  3
txt
  4

  0
STYLE
  2
BYGG-021754$0$STANDARD
 70
     0
 40
0.0
 41
1.0
 50
0.0
 71
     0
 42
0.2
  3
txt
  4

  0
STYLE
  2
BYGG-021754$0$ISO
 70
     0
 40
0.0
 41
1.0
 50
0.0
 71
     0
 42
3.5
  3
txt
  4

  0
STYLE
  2
BYGG-014199$0$STANDARD
 70
     0
 40
0.0
 41
1.0
 50
0.0
 71
     0
 42
0.2
  3
txt
  4

  0
STYLE
  2
BYGG-014199$0$ISO
 70
     0
 40
0.0
 41
1.0
 50
0.0
 71
     0
 42
3.5
  3
isocp3.shx
  4

  0
ENDTAB
  0
TABLE
  2
VIEW
 70
     0
  0
ENDTAB
  0
TABLE
  2
UCS
 70
     0
  0
ENDTAB
  0
TABLE
  2
APPID
 70
    37
  0
APPID
  2
ACAD
 70
     0
  0
APPID
  2
ACAD_DSTYLE_DIMTEXT_FILL
 70
     0
  0
APPID
  2
ACAD_DSTYLE_DIMEXT_LENGTH
 70
     0
  0
APPID
  2
ACAD_DSTYLE_DIMEXT_ENABLED
 70
     0
  0
APPID
  2
ACAD_DSTYLE_DIM_LINETYPE
 70
     0
  0
APPID
  2
ACAD_DSTYLE_DIM_EXT1_LINETYPE
 70
     0
  0
APPID
  2
ACAD_DSTYLE_DIM_EXT2_LINETYPE
 70
     0
  0
APPID
  2
ACAD_DSTYLE_DIMJOGGED_JOGA
 70
     0
  0
APPID
  2
ACAD_DSTYLE_DIMARC_LENGTH_
 70
     0
  0
APPID
  2
ACAD_PSEXT
 70
     0
  0
APPID
  2
ACAD_MLEADERVER
 70
     0
  0
APPID
  2
AMG_ARCHIVE11
 70
     0
  0
APPID
  2
ACAD_EXEMPT_FROM_CAD_STANDARDS
 70
     0
  0
APPID
  2
ACADANNOTATIVE
 70
     0
  0
APPID
  2
ACAECLAYERSTANDARD
 70
     0
  0
APPID
  2
ACDBDYNAMICBLOCKGUID
 70
     0
  0
APPID
  2
ACDBBLOCKREPETAG
 70
     0
  0
APPID
  2
ACAD_DSTYLE_DIMJAG
 70
     0
  0
APPID
  2
ACAD_DSTYLE_DIMTALN
 70
     0
  0
APPID
  2
AME_SOL
 70
     0
  0
APPID
  2
GENIUS_GENODEF_13
 70
     0
  0
APPID
  2
GENIUS_GENTRA_14
 70
     0
  0
APPID
  2
GENIUS_GENOLIS_13
 70
     0
  0
APPID
  2
GENIUS_GENOENT_13
 70
     0
  0
APPID
  2
GENIUS_GENOBJ-N-TIT_13
 70
     0
  0
APPID
  2
GENIUS_GENTITLE_13
 70
     0
  0
APPID
  2
GENIUS_GENOREF_13
 70
     0
  0
APPID
  2
GENIUS_GENSCREG_15
 70
     0
  0
APPID
  2
GENIUS_GENOBJ-N-SDF_13
 70
     0
  0
APPID
  2
GENIUS_GENOBJ-N-CRS_13
 70
     0
  0
APPID
  2
ACAUTHENVIRON
 70
     0
  0
APPID
  2
ACDBDYNAMICBLOCKTRUENAME
 70
     0
  0
APPID
  2
ACAD_NAV_VCDISPLAY
 70
     0
  0
APPID
  2
ACAD_DSTYLE_DIMRADIAL_EXTENSION
 70
     0
  0
APPID
  2
ACAD_OBJECT_CHANGE_GUID
 70
     0
  0
APPID
  2
ACCMTRANSPARENCY
 70
     0
  0
APPID
  2
AEC_XDATA_BOUND_SPACE
 70
     0
  0
ENDTAB
  0
TABLE
  2
DIMSTYLE
 70
    53
  0
DIMSTYLE
  2
MASKIN
 70
     0
  3

  4

  5

  6

  7

 40
0.0
 41
3.0
 42
1.5
 43
10.0
 44
1.5
 45
0.0
 46
0.0
 47
0.0
 48
0.0
140
3.0
141
-5.0
142
0.0
143
25.399999999999999
144
-1.0
145
0.0
146
1.0
147
1.0
 71
     0
 72
     0
 73
     0
 74
     0
 75
     0
 76
     0
 77
     1
 78
     8
170
     0
171
     0
172
     1
173
     0
174
     0
175
     0
176
   256
177
   256
178
     2
  0
DIMSTYLE
  2
BYGG-021589$0$MASKIN
 70
     0
  3

  4

  5

  6

  7

 40
0.0
 41
3.0
 42
1.5
 43
10.0
 44
1.5
 45
0.0
 46
0.0
 47
0.0
 48
0.0
140
3.0
141
-5.0
142
0.0
143
25.399999999999999
144
-1.0
145
0.0
146
1.0
147
1.0
 71
     0
 72
     0
 73
     0
 74
     0
 75
     0
 76
     0
 77
     1
 78
     8
170
     0
171
     0
172
     1
173
     0
174
     0
175
     0
176
   256
177
   256
178
   256
  0
DIMSTYLE
  2
BYGG-01482201$0$STANDARD
 70
     0
  3

  4

  5

  6

  7

 40
1.0
 41
0.18
 42
0.0625
 43
0.38
 44
0.18
 45
0.0
 46
0.0
 47
0.0
 48
0.0
140
0.18
141
0.09
142
0.0
143
25.399999999999999
144
1.0
145
0.0
146
1.0
147
0.09
 71
     0
 72
     0
 73
     1
 74
     1
 75
     0
 76
     0
 77
     0
 78
     0
170
     0
171
     2
172
     0
173
     0
174
     0
175
     0
176
     0
177
     0
178
     0
  0
DIMSTYLE
  2
BYGG-01482201$0$MASKIN
 70
     0
  3

  4

  5

  6

  7

 40
0.0
 41
3.0
 42
1.5
 43
10.0
 44
1.5
 45
0.0
 46
0.0
 47
0.0
 48
0.0
140
3.0
141
-5.0
142
0.0
143
25.399999999999999
144
-1.0
145
0.0
146
1.0
147
1.0
 71
     0
 72
     0
 73
     0
 74
     1
 75
     0
 76
     0
 77
     1
 78
     8
170
     0
171
     0
172
     1
173
     0
174
     0
175
     0
176
   256
177
   256
178
     2
  0
DIMSTYLE
  2
BYGG-021802$0$MASKIN
 70
     0
  3

  4

  5

  6

  7

 40
0.0
 41
3.0
 42
1.5
 43
10.0
 44
1.5
 45
0.0
 46
0.0
 47
0.0
 48
0.0
140
3.0
141
-5.0
142
0.0
143
25.399999999999999
144
-1.0
145
0.0
146
1.0
147
1.0
 71
     0
 72
     0
 73
     0
 74
     0
 75
     0
 76
     0
 77
     1
 78
     8
170
     0
171
     0
172
     1
173
     0
174
     0
175
     0
176
   256
177
   256
178
   256
  0
DIMSTYLE
  2
BYGG-014357$0$MASKIN
 70
     0
  3

  4

  5

  6

  7

 40
0.0
 41
3.0
 42
1.5
 43
10.0
 44
1.5
 45
0.0
 46
0.0
 47
0.0
 48
0.0
140
3.0
141
-5.0
142
0.0
143
25.399999999999999
144
-1.0
145
0.0
146
1.0
147
1.0
 71
     0
 72
     0
 73
     0
 74
     0
 75
     0
 76
     0
 77
     1
 78
     8
170
     0
171
     0
172
     1
173
     0
174
     0
175
     0
176
   256
177
   256
178
   256
  0
DIMSTYLE
  2
BYGG-014357$0$MASKIN1
 70
     0
  3

  4

  5

  6

  7

 40
1.0
 41
3.0
 42
1.5
 43
10.0
 44
1.5
 45
0.0
 46
0.0
 47
0.0
 48
0.0
140
3.0
141
-5.0
142
0.0
143
25.399999999999999
144
1.0
145
0.0
146
1.0
147
0.9
 71
     0
 72
     0
 73
     0
 74
     0
 75
     0
 76
     0
 77
     1
 78
     8
170
     0
171
     0
172
     1
173
     0
174
     0
175
     0
176
   256
177
   256
178
   256
  0
DIMSTYLE
  2
BYGG-014357$0$MASKIN2
 70
     0
  3

  4

  5

  6

  7

 40
1.0
 41
3.0
 42
1.5
 43
10.0
 44
1.5
 45
0.0
 46
0.0
 47
0.0
 48
0.0
140
3.0
141
-5.0
142
0.0
143
25.399999999999999
144
1.0
145
0.0
146
1.0
147
0.9
 71
     0
 72
     0
 73
     0
 74
     0
 75
     0
 76
     0
 77
     1
 78
     8
170
     0
171
     0
172
     1
173
     0
174
     0
175
     0
176
   256
177
   256
178
   256
  0
DIMSTYLE
  2
BYGG-014357$0$MASKIN3
 70
     0
  3

  4

  5

  6

  7

 40
1.0
 41
3.0
 42
1.5
 43
10.0
 44
1.5
 45
0.0
 46
0.0
 47
0.0
 48
0.0
140
3.0
141
-5.0
142
0.0
143
25.399999999999999
144
1.0
145
0.0
146
1.0
147
0.9
 71
     0
 72
     0
 73
     0
 74
     0
 75
     0
 76
     0
 77
     1
 78
     8
170
     0
171
     0
172
     1
173
     0
174
     0
175
     0
176
   256
177
   256
178
   256
  0
DIMSTYLE
  2
BYGG-014357$0$DMST_1
 70
     0
  3

  4

  5

  6

  7

 40
1.0
 41
0.7000000000000002
 42
0.0
 43
7.0
 44
0.4
 45
0.0
 46
0.0
 47
0.15
 48
0.15
140
0.7000000000000002
141
0.0
142
0.0
143
25.399999999999999
144
1.0
145
0.0
146
0.7
147
0.09
 71
     1
 72
     0
 73
     0
 74
     0
 75
     0
 76
     0
 77
     1
 78
     9
170
     0
171
     2
172
     0
173
     0
174
     0
175
     0
176
     1
177
     1
178
     2
  0
DIMSTYLE
  2
BYGG-014063$0$MASKIN
 70
     0
  3

  4

  5

  6

  7

 40
0.0
 41
3.0
 42
1.5
 43
10.0
 44
1.5
 45
0.0
 46
0.0
 47
0.0
 48
0.0
140
3.0
141
-5.0
142
0.0
143
25.399999999999999
144
-1.0
145
0.0
146
1.0
147
1.0
 71
     0
 72
     0
 73
     0
 74
     0
 75
     0
 76
     0
 77
     1
 78
     8
170
     0
171
     0
172
     1
173
     0
174
     0
175
     0
176
   256
177
   256
178
   256
  0
DIMSTYLE
  2
BYGG-014063$0$STANDARD
 70
     0
  3

  4

  5

  6

  7

 40
1.0
 41
0.18
 42
0.0625
 43
0.38
 44
0.18
 45
0.0
 46
0.0
 47
0.0
 48
0.0
140
0.18
141
0.09
142
0.0
143
25.399999999999999
144
1.0
145
0.0
146
1.0
147
0.09
 71
     0
 72
     0
 73
     1
 74
     1
 75
     0
 76
     0
 77
     0
 78
     0
170
     0
171
     2
172
     0
173
     0
174
     0
175
     0
176
     0
177
     0
178
     0
  0
DIMSTYLE
  2
BYGG-021582$0$MASKIN
 70
     0
  3

  4

  5

  6

  7

 40
0.0
 41
3.0
 42
1.5
 43
10.0
 44
1.5
 45
0.0
 46
0.0
 47
0.0
 48
0.0
140
3.0
141
-5.0
142
0.0
143
25.399999999999999
144
-1.0
145
0.0
146
1.0
147
1.0
 71
     0
 72
     0
 73
     0
 74
     0
 75
     0
 76
     0
 77
     1
 78
     8
170
     0
171
     0
172
     1
173
     0
174
     0
175
     0
176
   256
177
   256
178
   256
  0
DIMSTYLE
  2
BYGG-014279$0$STANDARD
 70
     0
  3

  4

  5

  6

  7

 40
1.0
 41
0.18
 42
0.0625
 43
0.38
 44
0.18
 45
0.0
 46
0.0
 47
0.0
 48
0.0
140
0.18
141
0.09
142
0.0
143
25.399999999999999
144
1.0
145
0.0
146
1.0
147
0.09
 71
     0
 72
     0
 73
     1
 74
     1
 75
     0
 76
     0
 77
     0
 78
     0
170
     0
171
     2
172
     0
173
     0
174
     0
175
     0
176
     0
177
     0
178
     0
  0
DIMSTYLE
  2
BYGG-014279$0$MASKIN
 70
     0
  3

  4

  5

  6

  7

 40
0.0
 41
3.0
 42
1.5
 43
10.0
 44
1.5
 45
0.0
 46
0.0
 47
0.0
 48
0.0
140
3.0
141
-5.0
142
0.0
143
25.399999999999999
144
-1.0
145
0.0
146
1.0
147
1.0
 71
     0
 72
     0
 73
     0
 74
     1
 75
     0
 76
     0
 77
     1
 78
     8
170
     0
171
     0
172
     1
173
     0
174
     0
175
     0
176
   256
177
   256
178
     2
  0
DIMSTYLE
  2
BYGG-022676$0$STANDARD
 70
     0
  3

  4

  5

  6

  7

 40
1.0
 41
0.18
 42
0.0625
 43
0.38
 44
0.18
 45
0.0
 46
0.0
 47
0.0
 48
0.0
140
0.18
141
0.09
142
0.0
143
25.399999999999999
144
1.0
145
0.0
146
1.0
147
0.09
 71
     0
 72
     0
 73
     1
 74
     1
 75
     0
 76
     0
 77
     0
 78
     0
170
     0
171
     2
172
     0
173
     0
174
     0
175
     0
176
     0
177
     0
178
     0
  0
DIMSTYLE
  2
BYGG-022676$0$MASKIN
 70
     0
  3

  4

  5

  6

  7

 40
0.0
 41
3.0
 42
1.5
 43
10.0
 44
1.5
 45
0.0
 46
0.0
 47
0.0
 48
0.0
140
3.0
141
-5.0
142
0.0
143
25.399999999999999
144
-1.0
145
0.0
146
1.0
147
1.0
 71
     0
 72
     0
 73
     0
 74
     0
 75
     0
 76
     0
 77
     1
 78
     8
170
     0
171
     0
172
     1
173
     0
174
     0
175
     0
176
   256
177
   256
178
     2
  0
DIMSTYLE
  2
BYGG-022676$0$ANNOTATIVE
 70
     0
  3

  4

  5

  6

  7

 40
1.0
 41
0.18
 42
0.0625
 43
0.38
 44
0.18
 45
0.0
 46
0.0
 47
0.0
 48
0.0
140
0.18
141
0.09
142
0.0
143
25.399999999999999
144
1.0
145
0.0
146
1.0
147
0.09
 71
     0
 72
     0
 73
     1
 74
     1
 75
     0
 76
     0
 77
     0
 78
     0
170
     0
171
     2
172
     0
173
     0
174
     0
175
     0
176
     0
177
     0
178
     0
  0
DIMSTYLE
  2
BYGG-025109$0$STANDARD
 70
     0
  3

  4

  5

  6

  7

 40
1.0
 41
0.18
 42
0.0625
 43
0.38
 44
0.18
 45
0.0
 46
0.0
 47
0.0
 48
0.0
140
0.18
141
0.09
142
0.0
143
25.399999999999999
144
1.0
145
0.0
146
1.0
147
0.09
 71
     0
 72
     0
 73
     1
 74
     1
 75
     0
 76
     0
 77
     0
 78
     0
170
     0
171
     2
172
     0
173
     0
174
     0
175
     0
176
     0
177
     0
178
     0
  0
DIMSTYLE
  2
BYGG-025109$0$MASKIN
 70
     0
  3

  4

  5

  6

  7

 40
0.0
 41
3.0
 42
1.5
 43
10.0
 44
1.5
 45
0.0
 46
0.0
 47
0.0
 48
0.0
140
3.0
141
-5.0
142
0.0
143
25.399999999999999
144
-1.0
145
0.0
146
1.0
147
1.0
 71
     0
 72
     0
 73
     0
 74
     0
 75
     0
 76
     0
 77
     1
 78
     8
170
     0
171
     0
172
     1
173
     0
174
     0
175
     0
176
   256
177
   256
178
     2
  0
DIMSTYLE
  2
BYGG-020805$0$STANDARD
 70
     0
  3

  4

  5

  6

  7

 40
1.0
 41
0.18
 42
0.0625
 43
0.38
 44
0.18
 45
0.0
 46
0.0
 47
0.0
 48
0.0
140
0.18
141
0.09
142
0.0
143
25.399999999999999
144
1.0
145
0.0
146
1.0
147
0.09
 71
     0
 72
     0
 73
     1
 74
     1
 75
     0
 76
     0
 77
     0
 78
     0
170
     0
171
     2
172
     0
173
     0
174
     0
175
     0
176
     0
177
     0
178
     0
  0
DIMSTYLE
  2
BYGG-020805$0$MASKIN
 70
     0
  3

  4

  5

  6

  7

 40
0.0
 41
3.0
 42
1.5
 43
10.0
 44
1.5
 45
0.0
 46
0.0
 47
0.0
 48
0.0
140
3.0
141
-5.0
142
0.0
143
25.399999999999999
144
-1.0
145
0.0
146
1.0
147
1.0
 71
     0
 72
     0
 73
     0
 74
     0
 75
     0
 76
     0
 77
     1
 78
     8
170
     0
171
     0
172
     1
173
     0
174
     0
175
     0
176
   256
177
   256
178
     2
  0
DIMSTYLE
  2
BYGG-026395$0$MASKIN
 70
     0
  3

  4

  5

  6

  7

 40
0.0
 41
3.0
 42
1.5
 43
10.0
 44
1.5
 45
0.0
 46
0.0
 47
0.0
 48
0.0
140
3.0
141
-5.0
142
0.0
143
25.399999999999999
144
-1.0
145
0.0
146
1.0
147
1.0
 71
     0
 72
     0
 73
     0
 74
     0
 75
     0
 76
     0
 77
     1
 78
     8
170
     0
171
     0
172
     1
173
     0
174
     0
175
     0
176
   256
177
   256
178
   256
  0
DIMSTYLE
  2
BYGG-022681$0$STANDARD
 70
     0
  3

  4

  5

  6

  7

 40
1.0
 41
0.18
 42
0.0625
 43
0.38
 44
0.18
 45
0.0
 46
0.0
 47
0.0
 48
0.0
140
0.18
141
0.09
142
0.0
143
25.399999999999999
144
1.0
145
0.0
146
1.0
147
0.09
 71
     0
 72
     0
 73
     1
 74
     1
 75
     0
 76
     0
 77
     0
 78
     0
170
     0
171
     2
172
     0
173
     0
174
     0
175
     0
176
     0
177
     0
178
     0
  0
DIMSTYLE
  2
BYGG-022681$0$MASKIN
 70
     0
  3

  4

  5

  6

  7

 40
0.0
 41
3.0
 42
1.5
 43
10.0
 44
1.5
 45
0.0
 46
0.0
 47
0.0
 48
0.0
140
3.0
141
-5.0
142
0.0
143
25.399999999999999
144
-1.0
145
0.0
146
1.0
147
1.0
 71
     0
 72
     0
 73
     0
 74
     0
 75
     0
 76
     0
 77
     1
 78
     8
170
     0
171
     0
172
     1
173
     0
174
     0
175
     0
176
   256
177
   256
178
     2
  0
DIMSTYLE
  2
BYGG-014306$0$STANDARD
 70
     0
  3

  4

  5

  6

  7

 40
1.0
 41
0.18
 42
0.0625
 43
0.38
 44
0.18
 45
0.0
 46
0.0
 47
0.0
 48
0.0
140
0.18
141
0.09
142
0.0
143
25.399999999999999
144
1.0
145
0.0
146
1.0
147
0.09
 71
     0
 72
     0
 73
     1
 74
     1
 75
     0
 76
     0
 77
     0
 78
     0
170
     0
171
     2
172
     0
173
     0
174
     0
175
     0
176
     0
177
     0
178
     0
  0
DIMSTYLE
  2
BYGG-038598$0$STANDARD
 70
     0
  3

  4

  5

  6

  7

 40
1.0
 41
0.18
 42
0.0625
 43
0.38
 44
0.18
 45
0.0
 46
0.0
 47
0.0
 48
0.0
140
0.18
141
0.09
142
0.0
143
25.399999999999999
144
1.0
145
0.0
146
1.0
147
0.09
 71
     0
 72
     0
 73
     1
 74
     1
 75
     0
 76
     0
 77
     0
 78
     0
170
     0
171
     2
172
     0
173
     0
174
     0
175
     0
176
     0
177
     0
178
     0
  0
DIMSTYLE
  2
BYGG-038598$0$MASKIN
 70
     0
  3

  4

  5

  6

  7

 40
0.0
 41
3.0
 42
1.5
 43
10.0
 44
1.5
 45
0.0
 46
0.0
 47
0.0
 48
0.0
140
3.0
141
-5.0
142
0.0
143
25.399999999999999
144
-1.0
145
0.0
146
1.0
147
1.0
 71
     0
 72
     0
 73
     0
 74
     0
 75
     0
 76
     0
 77
     1
 78
     8
170
     0
171
     0
172
     1
173
     0
174
     0
175
     0
176
   256
177
   256
178
     2
  0
DIMSTYLE
  2
BYGG-028980$0$STANDARD
 70
     0
  3

  4

  5

  6

  7

 40
1.0
 41
0.18
 42
0.0625
 43
0.38
 44
0.18
 45
0.0
 46
0.0
 47
0.0
 48
0.0
140
0.18
141
0.09
142
0.0
143
25.399999999999999
144
1.0
145
0.0
146
1.0
147
0.09
 71
     0
 72
     0
 73
     1
 74
     1
 75
     0
 76
     0
 77
     0
 78
     0
170
     0
171
     2
172
     0
173
     0
174
     0
175
     0
176
     0
177
     0
178
     0
  0
DIMSTYLE
  2
BYGG-028980$0$MASKIN
 70
     0
  3

  4

  5

  6

  7

 40
0.0
 41
3.0
 42
1.5
 43
10.0
 44
1.5
 45
0.0
 46
0.0
 47
0.0
 48
0.0
140
3.0
141
-5.0
142
0.0
143
25.399999999999999
144
-1.0
145
0.0
146
1.0
147
1.0
 71
     0
 72
     0
 73
     0
 74
     0
 75
     0
 76
     0
 77
     1
 78
     8
170
     0
171
     0
172
     1
173
     0
174
     0
175
     0
176
   256
177
   256
178
     2
  0
DIMSTYLE
  2
BYGG-024791$0$MASKIN
 70
     0
  3

  4

  5

  6

  7

 40
0.0
 41
3.0
 42
1.5
 43
10.0
 44
1.5
 45
0.0
 46
0.0
 47
0.0
 48
0.0
140
3.0
141
-5.0
142
0.0
143
25.399999999999999
144
-1.0
145
0.0
146
1.0
147
1.0
 71
     0
 72
     0
 73
     0
 74
     0
 75
     0
 76
     0
 77
     1
 78
     8
170
     0
171
     0
172
     1
173
     0
174
     0
175
     0
176
   256
177
   256
178
     2
  0
DIMSTYLE
  2
BYGG-024791$0$STANDARD
 70
     0
  3

  4

  5

  6

  7

 40
1.0
 41
0.18
 42
0.0625
 43
0.38
 44
0.18
 45
0.0
 46
0.0
 47
0.0
 48
0.0
140
0.18
141
0.09
142
0.0
143
25.399999999999999
144
1.0
145
0.0
146
1.0
147
0.09
 71
     0
 72
     0
 73
     1
 74
     1
 75
     0
 76
     0
 77
     0
 78
     0
170
     0
171
     2
172
     0
173
     0
174
     0
175
     0
176
     0
177
     0
178
     0
  0
DIMSTYLE
  2
BYGG-024817$0$MASKIN
 70
     0
  3

  4

  5

  6

  7

 40
0.0
 41
3.0
 42
1.5
 43
10.0
 44
1.5
 45
0.0
 46
0.0
 47
0.0
 48
0.0
140
3.0
141
-5.0
142
0.0
143
25.399999999999999
144
-1.0
145
0.0
146
1.0
147
1.0
 71
     0
 72
     0
 73
     0
 74
     0
 75
     0
 76
     0
 77
     1
 78
     8
170
     0
171
     0
172
     1
173
     0
174
     0
175
     0
176
   256
177
   256
178
     2
  0
DIMSTYLE
  2
BYGG-024817$0$STANDARD
 70
     0
  3

  4

  5

  6

  7

 40
1.0
 41
0.18
 42
0.0625
 43
0.38
 44
0.18
 45
0.0
 46
0.0
 47
0.0
 48
0.0
140
0.18
141
0.09
142
0.0
143
25.399999999999999
144
1.0
145
0.0
146
1.0
147
0.09
 71
     0
 72
     0
 73
     1
 74
     1
 75
     0
 76
     0
 77
     0
 78
     0
170
     0
171
     2
172
     0
173
     0
174
     0
175
     0
176
     0
177
     0
178
     0
  0
DIMSTYLE
  2
BYGG-033167$0$STANDARD
 70
     0
  3

  4

  5

  6

  7

 40
1.0
 41
0.18
 42
0.0625
 43
0.38
 44
0.18
 45
0.0
 46
0.0
 47
0.0
 48
0.0
140
0.18
141
0.09
142
0.0
143
25.399999999999999
144
1.0
145
0.0
146
1.0
147
0.09
 71
     0
 72
     0
 73
     1
 74
     1
 75
     0
 76
     0
 77
     0
 78
     0
170
     0
171
     2
172
     0
173
     0
174
     0
175
     0
176
     0
177
     0
178
     0
  0
DIMSTYLE
  2
BYGG-033167$0$MASKIN
 70
     0
  3

  4

  5

  6

  7

 40
0.0
 41
3.0
 42
1.5
 43
10.0
 44
1.5
 45
0.0
 46
0.0
 47
0.0
 48
0.0
140
3.0
141
-5.0
142
0.0
143
25.399999999999999
144
-1.0
145
0.0
146
1.0
147
1.0
 71
     0
 72
     0
 73
     0
 74
     0
 75
     0
 76
     0
 77
     1
 78
     8
170
     0
171
     0
172
     1
173
     0
174
     0
175
     0
176
   256
177
   256
178
     2
  0
DIMSTYLE
  2
BYGG-033167$0$BYGG-020132$
 70
     0
  3

  4

  5

  6

  7

 40
0.0
 41
3.0
 42
1.5
 43
10.0
 44
1.5
 45
0.0
 46
0.0
 47
0.0
 48
0.0
140
3.0
141
-5.0
142
0.0
143
25.399999999999999
144
-1.0
145
0.0
146
1.0
147
1.0
 71
     0
 72
     0
 73
     0
 74
     0
 75
     0
 76
     0
 77
     1
 78
     8
170
     0
171
     0
172
     1
173
     0
174
     0
175
     0
176
   256
177
   256
178
     2
  0
DIMSTYLE
  2
BYGG-033167$0$BYGG-024943$
 70
     0
  3

  4

  5

  6

  7

 40
0.0
 41
3.0
 42
1.5
 43
10.0
 44
1.5
 45
0.0
 46
0.0
 47
0.0
 48
0.0
140
3.0
141
-5.0
142
0.0
143
25.399999999999999
144
-1.0
145
0.0
146
1.0
147
1.0
 71
     0
 72
     0
 73
     0
 74
     0
 75
     0
 76
     0
 77
     1
 78
     8
170
     0
171
     0
172
     1
173
     0
174
     0
175
     0
176
   256
177
   256
178
     2
  0
DIMSTYLE
  2
BYGG-026410$0$STANDARD
 70
     0
  3

  4

  5

  6

  7

 40
1.0
 41
0.18
 42
0.0625
 43
0.38
 44
0.18
 45
0.0
 46
0.0
 47
0.0
 48
0.0
140
0.18
141
0.09
142
0.0
143
25.399999999999999
144
1.0
145
0.0
146
1.0
147
0.09
 71
     0
 72
     0
 73
     1
 74
     1
 75
     0
 76
     0
 77
     0
 78
     0
170
     0
171
     2
172
     0
173
     0
174
     0
175
     0
176
     0
177
     0
178
     0
  0
DIMSTYLE
  2
BYGG-026410$0$MASKIN
 70
     0
  3

  4

  5

  6

  7

 40
0.0
 41
3.0
 42
1.5
 43
10.0
 44
1.5
 45
0.0
 46
0.0
 47
0.0
 48
0.0
140
3.0
141
-5.0
142
0.0
143
25.399999999999999
144
-1.0
145
0.0
146
1.0
147
1.0
 71
     0
 72
     0
 73
     0
 74
     0
 75
     0
 76
     0
 77
     1
 78
     8
170
     0
171
     0
172
     1
173
     0
174
     0
175
     0
176
   256
177
   256
178
     2
  0
DIMSTYLE
  2
BYGG-037704$0$STANDARD
 70
     0
  3

  4

  5

  6

  7

 40
1.0
 41
0.18
 42
0.0625
 43
0.38
 44
0.18
 45
0.0
 46
0.0
 47
0.0
 48
0.0
140
0.18
141
0.09
142
0.0
143
25.399999999999999
144
1.0
145
0.0
146
1.0
147
0.09
 71
     0
 72
     0
 73
     1
 74
     1
 75
     0
 76
     0
 77
     0
 78
     0
170
     0
171
     2
172
     0
173
     0
174
     0
175
     0
176
     0
177
     0
178
     0
  0
DIMSTYLE
  2
BYGG-037704$0$MASKIN
 70
     0
  3

  4

  5

  6

  7

 40
0.0
 41
3.0
 42
1.5
 43
10.0
 44
1.5
 45
0.0
 46
0.0
 47
0.0
 48
0.0
140
3.0
141
-5.0
142
0.0
143
25.399999999999999
144
-1.0
145
0.0
146
1.0
147
1.0
 71
     0
 72
     0
 73
     0
 74
     0
 75
     0
 76
     0
 77
     1
 78
     8
170
     0
171
     0
172
     1
173
     0
174
     0
175
     0
176
   256
177
   256
178
     2
  0
DIMSTYLE
  2
BYGG-021745$0$STANDARD
 70
     0
  3

  4

  5

  6

  7

 40
1.0
 41
0.18
 42
0.0625
 43
0.38
 44
0.18
 45
0.0
 46
0.0
 47
0.0
 48
0.0
140
0.18
141
0.09
142
0.0
143
25.399999999999999
144
1.0
145
0.0
146
1.0
147
0.09
 71
     0
 72
     0
 73
     1
 74
     1
 75
     0
 76
     0
 77
     0
 78
     0
170
     0
171
     2
172
     0
173
     0
174
     0
175
     0
176
     0
177
     0
178
     0
  0
DIMSTYLE
  2
BYGG-014568$0$STANDARD
 70
     0
  3

  4

  5

  6

  7

 40
1.0
 41
0.18
 42
0.0625
 43
0.38
 44
0.18
 45
0.0
 46
0.0
 47
0.0
 48
0.0
140
0.18
141
0.09
142
0.0
143
25.399999999999999
144
1.0
145
0.0
146
1.0
147
0.09
 71
     0
 72
     0
 73
     1
 74
     1
 75
     0
 76
     0
 77
     0
 78
     0
170
     0
171
     2
172
     0
173
     0
174
     0
175
     0
176
     0
177
     0
178
     0
  0
DIMSTYLE
  2
BYGG-014568$0$MASKIN
 70
     0
  3

  4

  5

  6

  7

 40
0.0
 41
3.0
 42
1.5
 43
10.0
 44
1.5
 45
0.0
 46
0.0
 47
0.0
 48
0.0
140
3.0
141
-5.0
142
0.0
143
25.399999999999999
144
-1.0
145
0.0
146
1.0
147
1.0
 71
     0
 72
     0
 73
     0
 74
     0
 75
     0
 76
     0
 77
     1
 78
     8
170
     0
171
     0
172
     1
173
     0
174
     0
175
     0
176
   256
177
   256
178
     2
  0
DIMSTYLE
  2
BYGG-021741$0$STANDARD
 70
     0
  3

  4

  5

  6

  7

 40
1.0
 41
0.18
 42
0.0625
 43
0.38
 44
0.18
 45
0.0
 46
0.0
 47
0.0
 48
0.0
140
0.18
141
0.09
142
0.0
143
25.399999999999999
144
1.0
145
0.0
146
1.0
147
0.09
 71
     0
 72
     0
 73
     1
 74
     1
 75
     0
 76
     0
 77
     0
 78
     0
170
     0
171
     2
172
     0
173
     0
174
     0
175
     0
176
     0
177
     0
178
     0
  0
DIMSTYLE
  2
BYGG-014247$0$MASKIN
 70
     0
  3

  4

  5

  6

  7

 40
0.0
 41
3.0
 42
1.5
 43
10.0
 44
1.5
 45
0.0
 46
0.0
 47
0.0
 48
0.0
140
3.0
141
-5.0
142
0.0
143
25.399999999999999
144
-1.0
145
0.0
146
1.0
147
1.0
 71
     0
 72
     0
 73
     0
 74
     0
 75
     0
 76
     0
 77
     1
 78
     8
170
     0
171
     0
172
     1
173
     0
174
     0
175
     0
176
   256
177
   256
178
   256
  0
DIMSTYLE
  2
BYGG-028766$0$STANDARD
 70
     0
  3

  4

  5

  6

  7

 40
1.0
 41
0.18
 42
0.0625
 43
0.38
 44
0.18
 45
0.0
 46
0.0
 47
0.0
 48
0.0
140
0.18
141
0.09
142
0.0
143
25.399999999999999
144
1.0
145
0.0
146
1.0
147
0.09
 71
     0
 72
     0
 73
     1
 74
     1
 75
     0
 76
     0
 77
     0
 78
     0
170
     0
171
     2
172
     0
173
     0
174
     0
175
     0
176
     0
177
     0
178
     0
  0
DIMSTYLE
  2
BYGG-028766$0$MASKIN
 70
     0
  3

  4

  5

  6

  7

 40
0.0
 41
3.0
 42
1.5
 43
10.0
 44
1.5
 45
0.0
 46
0.0
 47
0.0
 48
0.0
140
3.0
141
-5.0
142
0.0
143
25.399999999999999
144
-1.0
145
0.0
146
1.0
147
1.0
 71
     0
 72
     0
 73
     0
 74
     0
 75
     0
 76
     0
 77
     1
 78
     8
170
     0
171
     0
172
     1
173
     0
174
     0
175
     0
176
   256
177
   256
178
     2
  0
DIMSTYLE
  2
BYGG-021754$0$STANDARD
 70
     0
  3

  4

  5

  6

  7

 40
1.0
 41
0.18
 42
0.0625
 43
0.38
 44
0.18
 45
0.0
 46
0.0
 47
0.0
 48
0.0
140
0.18
141
0.09
142
0.0
143
25.399999999999999
144
1.0
145
0.0
146
1.0
147
0.09
 71
     0
 72
     0
 73
     1
 74
     1
 75
     0
 76
     0
 77
     0
 78
     0
170
     0
171
     2
172
     0
173
     0
174
     0
175
     0
176
     0
177
     0
178
     0
  0
DIMSTYLE
  2
BYGG-021754$0$MASKIN
 70
     0
  3

  4

  5

  6

  7

 40
0.0
 41
3.0
 42
1.5
 43
10.0
 44
1.5
 45
0.0
 46
0.0
 47
0.0
 48
0.0
140
3.0
141
-5.0
142
0.0
143
25.399999999999999
144
-1.0
145
0.0
146
1.0
147
1.0
 71
     0
 72
     0
 73
     0
 74
     0
 75
     0
 76
     0
 77
     1
 78
     8
170
     0
171
     0
172
     1
173
     0
174
     0
175
     0
176
   256
177
   256
178
     2
  0
DIMSTYLE
  2
BYGG-014199$0$STANDARD
 70
     0
  3

  4

  5

  6

  7

 40
1.0
 41
0.18
 42
0.0625
 43
0.38
 44
0.18
 45
0.0
 46
0.0
 47
0.0
 48
0.0
140
0.18
141
0.09
142
0.0
143
25.399999999999999
144
1.0
145
0.0
146
1.0
147
0.09
 71
     0
 72
     0
 73
     1
 74
     1
 75
     0
 76
     0
 77
     0
 78
     0
170
     0
171
     2
172
     0
173
     0
174
     0
175
     0
176
     0
177
     0
178
     0
  0
DIMSTYLE
  2
BYGG-014199$0$MASKIN
 70
     0
  3

  4

  5

  6

  7

 40
0.0
 41
3.0
 42
1.5
 43
10.0
 44
1.5
 45
0.0
 46
0.0
 47
0.0
 48
0.0
140
3.0
141
-5.0
142
0.0
143
25.399999999999999
144
-1.0
145
0.0
146
1.0
147
1.0
 71
     0
 72
     0
 73
     0
 74
     0
 75
     0
 76
     0
 77
     1
 78
     8
170
     0
171
     0
172
     1
173
     0
174
     0
175
     0
176
   256
177
   256
178
   256
  0
ENDTAB
  0
ENDSEC
  0
SECTION
  2
BLOCKS
  0
BLOCK
  8
0
  2
$MODEL_SPACE
 70
     0
 10
0.0
 20
0.0
 30
0.0
  3
$MODEL_SPACE
  1

  0
ENDBLK
  5
37
  8
0
  0
BLOCK
 67
     1
  8
0
  2
$PAPER_SPACE
 70
     0
 10
0.0
 20
0.0
 30
0.0
  3
$PAPER_SPACE
  1

  0
ENDBLK
  5
35
 67
     1
  8
0
  0
BLOCK
  8
0
  2
*D148
 70
     1
 10
0.0
 20
0.0
 30
0.0
  3
*D148
  1

  0
LINE
  5
1951
  8
SAPA_MATT
 10
-107.4999999990106
 20
24.999999999999559
 30
0.0
 11
-126.8256531728245
 21
24.99999999999957
 31
0.0
  0
LINE
  5
1952
  8
SAPA_MATT
 10
-107.4999999990106
 20
-25.000000000000441
 30
0.0
 11
-126.8256531728245
 21
-25.00000000000043
 31
0.0
  0
LINE
  5
1953
  8
SAPA_MATT
 10
-125.3256531728245
 20
21.99999999999957
 30
0.0
 11
-125.3256531728245
 21
-22.00000000000043
 31
0.0
  0
SOLID
  5
1954
  8
SAPA_MATT
 10
-125.8256531728245
 20
21.99999999999957
 30
0.0
 11
-124.8256531728245
 21
21.99999999999957
 31
0.0
 12
-125.3256531728245
 22
24.99999999999957
 32
0.0
 13
-125.3256531728245
 23
24.99999999999957
 33
0.0
  0
SOLID
  5
1955
  8
SAPA_MATT
 10
-125.8256531728245
 20
-22.00000000000043
 30
0.0
 11
-124.8256531728245
 21
-22.00000000000043
 31
0.0
 12
-125.3256531728245
 22
-25.00000000000043
 32
0.0
 13
-125.3256531728245
 23
-25.00000000000043
 33
0.0
  0
INSERT
  5
1956
  8
0
  2
*U165
 10
0.0
 20
0.0
 30
0.0
  0
POINT
  5
1957
  8
DEFPOINTS
 62
     0
 10
-105.9999999990105
 20
24.999999999999559
 30
0.0
  0
POINT
  5
1958
  8
DEFPOINTS
 62
     0
 10
-105.9999999990105
 20
-25.000000000000441
 30
0.0
  0
POINT
  5
1959
  8
DEFPOINTS
 62
     0
 10
-125.3256531728245
 20
-25.00000000000043
 30
0.0
  0
ENDBLK
  5
1908
  8
0
  0
BLOCK
  8
0
  2
*D149
 70
     1
 10
0.0
 20
0.0
 30
0.0
  3
*D149
  1

  0
LINE
  5
2AF6
  8
SAPA_MATT
 10
-107.4999999990106
 20
-25.000000000000441
 30
0.0
 11
-126.8256531728245
 21
-25.000000000000441
 31
0.0
  0
LINE
  5
2AF7
  8
SAPA_MATT
 10
-78.699999952131904
 20
-88.499999995497447
 30
0.0
 11
-126.8256531728245
 21
-88.499999995497419
 31
0.0
  0
LINE
  5
2AF8
  8
SAPA_MATT
 10
-125.3256531728245
 20
-28.000000000000441
 30
0.0
 11
-125.3256531728245
 21
-85.499999995497433
 31
0.0
  0
SOLID
  5
2AF9
  8
SAPA_MATT
 10
-125.8256531728245
 20
-28.000000000000441
 30
0.0
 11
-124.8256531728245
 21
-28.000000000000441
 31
0.0
 12
-125.3256531728245
 22
-25.000000000000441
 32
0.0
 13
-125.3256531728245
 23
-25.000000000000441
 33
0.0
  0
SOLID
  5
2AFA
  8
SAPA_MATT
 10
-125.8256531728245
 20
-85.499999995497433
 30
0.0
 11
-124.8256531728245
 21
-85.499999995497433
 31
0.0
 12
-125.3256531728245
 22
-88.499999995497419
 32
0.0
 13
-125.3256531728245
 23
-88.499999995497419
 33
0.0
  0
TEXT
  8
SAPA_MATT
  40
3
  5
2B03
  62
2
  72
0
  71
0
 10
-133.826
 20
-62.0600
 30
0.000000
  1
63.5
  7
ISO
  0
POINT
  5
2AFC
  8
DEFPOINTS
 62
     0
 10
-105.9999999990106
 20
-25.000000000000441
 30
0.0
  0
POINT
  5
2AFD
  8
DEFPOINTS
 62
     0
 10
-77.199999952131904
 20
-88.499999995497447
 30
0.0
  0
POINT
  5
2AFE
  8
DEFPOINTS
 62
     0
 10
-125.3256531728245
 20
-88.499999995497419
 30
0.0
  0
ENDBLK
  5
1914
  8
0
  0
BLOCK
  8
0
  2
*D150
 70
     1
 10
0.0
 20
0.0
 30
0.0
  3
*D150
  1

  0
LINE
  5
2AED
  8
SAPA_MATT
 10
-78.699999952131904
 20
-88.499999995497447
 30
0.0
 11
-126.8256531728245
 21
-88.499999995497419
 31
0.0
  0
LINE
  5
2AEE
  8
SAPA_MATT
 10
-79.58578687307137
 20
-118.4999999954973
 30
0.0
 11
-126.8256531728245
 21
-118.4999999954973
 31
0.0
  0
LINE
  5
2AEF
  8
SAPA_MATT
 10
-125.3256531728245
 20
-91.499999995497433
 30
0.0
 11
-125.3256531728245
 21
-115.4999999954973
 31
0.0
  0
SOLID
  5
2AF0
  8
SAPA_MATT
 10
-125.8256531728245
 20
-91.499999995497433
 30
0.0
 11
-124.8256531728245
 21
-91.499999995497433
 31
0.0
 12
-125.3256531728245
 22
-88.499999995497419
 32
0.0
 13
-125.3256531728245
 23
-88.499999995497419
 33
0.0
  0
SOLID
  5
2AF1
  8
SAPA_MATT
 10
-125.8256531728245
 20
-115.4999999954973
 30
0.0
 11
-124.8256531728245
 21
-115.4999999954973
 31
0.0
 12
-125.3256531728245
 22
-118.4999999954973
 32
0.0
 13
-125.3256531728245
 23
-118.4999999954973
 33
0.0
  0
TEXT
  8
SAPA_MATT
  40
3
  5
2B04
  62
2
  72
0
  71
0
 10
-133.826
 20
-108.810
 30
0.000000
  1
30
  7
ISO
  0
POINT
  5
2AF3
  8
DEFPOINTS
 62
     0
 10
-77.199999952131904
 20
-88.499999995497447
 30
0.0
  0
POINT
  5
2AF4
  8
DEFPOINTS
 62
     0
 10
-78.08578687307137
 20
-118.4999999954973
 30
0.0
  0
POINT
  5
2AF5
  8
DEFPOINTS
 62
     0
 10
-125.3256531728245
 20
-118.4999999954973
 30
0.0
  0
ENDBLK
  5
1920
  8
0
  0
BLOCK
  8
0
  2
*D151
 70
     1
 10
0.0
 20
0.0
 30
0.0
  3
*D151
  1

  0
LINE
  5
2AE4
  8
SAPA_MATT
 10
-79.58578687307137
 20
-118.4999999954973
 30
0.0
 11
-126.8256531728245
 21
-118.4999999954973
 31
0.0
  0
LINE
  5
2AE5
  8
SAPA_MATT
 10
-78.500000435444051
 20
-196.49999999549729
 30
0.0
 11
-126.8256531728245
 21
-196.49999999549729
 31
0.0
  0
LINE
  5
2AE6
  8
SAPA_MATT
 10
-125.3256531728245
 20
-121.4999999954973
 30
0.0
 11
-125.3256531728246
 21
-193.49999999549729
 31
0.0
  0
SOLID
  5
2AE7
  8
SAPA_MATT
 10
-125.8256531728245
 20
-121.4999999954973
 30
0.0
 11
-124.8256531728245
 21
-121.4999999954973
 31
0.0
 12
-125.3256531728245
 22
-118.4999999954973
 32
0.0
 13
-125.3256531728245
 23
-118.4999999954973
 33
0.0
  0
SOLID
  5
2AE8
  8
SAPA_MATT
 10
-125.8256531728245
 20
-193.49999999549729
 30
0.0
 11
-124.8256531728245
 21
-193.49999999549729
 31
0.0
 12
-125.3256531728246
 22
-196.49999999549729
 32
0.0
 13
-125.3256531728246
 23
-196.49999999549729
 33
0.0
  0
TEXT
  8
SAPA_MATT
  40
3
  5
2B05
  62
2
  72
0
  71
0
 10
-133.826
 20
-162.810
 30
0.000000
  1
78
  7
ISO
  0
POINT
  5
2AEA
  8
DEFPOINTS
 62
     0
 10
-78.08578687307137
 20
-118.4999999954973
 30
0.0
  0
POINT
  5
2AEB
  8
DEFPOINTS
 62
     0
 10
-77.000000435444051
 20
-196.49999999549729
 30
0.0
  0
POINT
  5
2AEC
  8
DEFPOINTS
 62
     0
 10
-125.3256531728246
 20
-196.49999999549729
 30
0.0
  0
ENDBLK
  5
192C
  8
0
  0
BLOCK
  8
0
  2
*U152
 70
     1
 10
0.0
 20
0.0
 30
0.0
  3
*U152
  1

  0
TEXT
  5
19EF
  8
SAPA_ARTIKELNR
 10
69.338971769994941
 20
-6.1032812875880254
 30
0.0
 40
3.5
  1
68654
 50
89.999999999999986
  7
ISO
  0
ENDBLK
  5
19F1
  8
0
  0
BLOCK
  8
0
  2
*U153
 70
     1
 10
0.0
 20
0.0
 30
0.0
  3
*U153
  1

  0
TEXT
  5
19F3
  8
SAPA_ARTIKELNR
 10
-99.037494010036653
 20
-6.1330850560084347
 30
0.0
 40
3.5
  1
42657
 50
89.999999999999986
  7
ISO
  0
ENDBLK
  5
19F5
  8
0
  0
BLOCK
  8
0
  2
*U154
 70
     1
 10
0.0
 20
0.0
 30
0.0
  3
*U154
  1

  0
TEXT
  5
19F7
  8
SAPA_ARTIKELNR
 10
-108.2295624838093
 20
-6.0037462107529764
 30
0.0
 40
3.5
  1
42227
 50
89.999999999999986
  7
ISO
  0
ENDBLK
  5
19F9
  8
0
  0
BLOCK
  8
0
  2
*U155
 70
     1
 10
0.0
 20
0.0
 30
0.0
  3
*U155
  1

  0
TEXT
  5
1A20
  8
SAPA_ARTIKELNR
 10
-94.425194247676856
 20
-116.756807552106
 30
0.0
 40
3.5
  1
42138/42138
 50
89.999999999999986
  7
ISO
  0
ENDBLK
  5
1A22
  8
0
  0
BLOCK
  8
0
  2
*U156
 70
     1
 10
0.0
 20
0.0
 30
0.0
  3
*U156
  1

  0
TEXT
  5
1A24
  8
SAPA_ARTIKELNR
 10
-92.118852622961796
 20
-154.0972974511082
 30
0.0
 40
3.5
  1
68059
 50
89.999999999999986
  7
ISO
  0
ENDBLK
  5
1A26
  8
0
  0
BLOCK
  8
0
  2
*U157
 70
     1
 10
0.0
 20
0.0
 30
0.0
  3
*U157
  1

  0
SOLID
  5
2743
  8
SAPA_FOGBAND
  6
CONTINUOUS
 62
     2
 10
-30.181669129626979
 20
-102.99313917248671
 30
0.0
 11
-30.361946693400181
 21
-103.0678125843931
 31
0.0
 12
-30.00139156585378
 22
-103.0678125843931
 32
0.0
 13
-30.00139156585378
 23
-103.0678125843931
 33
0.0
210
0.0
220
0.0
230
1.0
  0
SOLID
  5
2744
  8
SAPA_FOGBAND
  6
CONTINUOUS
 62
     2
 10
-30.361946693400181
 20
-103.0678125843931
 30
0.0
 11
-30.43662010530662
 21
-103.2480901481663
 31
0.0
 12
-29.926718153947341
 22
-103.2480901481663
 32
0.0
 13
-29.926718153947341
 23
-103.2480901481663
 33
0.0
210
0.0
220
0.0
230
1.0
  0
SOLID
  5
2745
  8
SAPA_FOGBAND
  6
CONTINUOUS
 62
     2
 10
30.361946693400181
 20
-103.0678125843931
 30
0.0
 11
30.00139156585378
 21
-103.0678125843931
 31
0.0
 12
29.926718153947341
 22
-103.2480901481663
 32
0.0
 13
29.926718153947341
 23
-103.2480901481663
 33
0.0
210
0.0
220
0.0
230
-1.0
  0
SOLID
  5
2746
  8
SAPA_FOGBAND
  6
CONTINUOUS
 62
     2
 10
30.361946693400181
 20
-103.4283677119395
 30
0.0
 11
30.00139156585378
 21
-103.4283677119395
 31
0.0
 12
30.181669129626979
 22
-103.5030411238459
 32
0.0
 13
30.181669129626979
 23
-103.5030411238459
 33
0.0
210
0.0
220
0.0
230
-1.0
  0
SOLID
  5
2747
  8
SAPA_FOGBAND
  6
CONTINUOUS
 62
     2
 10
-30.43662010530662
 20
-103.2480901481663
 30
0.0
 11
-30.361946693400181
 21
-103.4283677119395
 31
0.0
 12
-30.00139156585378
 22
-103.4283677119395
 32
0.0
 13
-30.00139156585378
 23
-103.4283677119395
 33
0.0
210
0.0
220
0.0
230
1.0
  0
SOLID
  5
2748
  8
SAPA_FOGBAND
  6
CONTINUOUS
 62
     2
 10
30.43662010530662
 20
-103.2480901481663
 30
0.0
 11
29.926718153947341
 21
-103.2480901481663
 31
0.0
 12
30.00139156585378
 22
-103.4283677119395
 32
0.0
 13
30.00139156585378
 23
-103.4283677119395
 33
0.0
210
0.0
220
0.0
230
-1.0
  0
LINE
  5
2749
  8
SAPA_FOGBAND
  6
CONTINUOUS
 62
     2
 10
-30.181669129626979
 20
-102.99313917248671
 30
0.0
 11
-30.361946693400181
 21
-103.0678125843931
 31
0.0
  0
LINE
  5
274A
  8
SAPA_FOGBAND
  6
CONTINUOUS
 62
     2
 10
-30.00139156585378
 20
-103.0678125843931
 30
0.0
 11
-30.181669129626979
 21
-102.99313917248671
 31
0.0
  0
LINE
  5
274B
  8
SAPA_FOGBAND
  6
CONTINUOUS
 62
     2
 10
-30.361946693400181
 20
-103.0678125843931
 30
0.0
 11
-30.43662010530662
 21
-103.2480901481663
 31
0.0
  0
LINE
  5
274C
  8
SAPA_FOGBAND
  6
CONTINUOUS
 62
     2
 10
-30.00139156585378
 20
-103.0678125843931
 30
0.0
 11
-29.926718153947341
 21
-103.2480901481663
 31
0.0
  0
LINE
  5
274D
  8
SAPA_FOGBAND
  6
CONTINUOUS
 62
     2
 10
-30.00139156585378
 20
-103.4283677119395
 30
0.0
 11
-30.181669129626979
 21
-103.5030411238459
 31
0.0
  0
LINE
  5
274E
  8
SAPA_FOGBAND
  6
CONTINUOUS
 62
     2
 10
-30.181669129626979
 20
-103.5030411238459
 30
0.0
 11
-30.361946693400181
 21
-103.4283677119395
 31
0.0
  0
LINE
  5
274F
  8
SAPA_FOGBAND
  6
CONTINUOUS
 62
     2
 10
-30.43662010530662
 20
-103.2480901481663
 30
0.0
 11
-30.361946693400181
 21
-103.4283677119395
 31
0.0
  0
LINE
  5
2750
  8
SAPA_FOGBAND
  6
CONTINUOUS
 62
     2
 10
-29.926718153947341
 20
-103.2480901481663
 30
0.0
 11
-30.00139156585378
 21
-103.4283677119395
 31
0.0
  0
ENDBLK
  5
2752
  8
0
  0
BLOCK
  8
0
  2
*U158
 70
     1
 10
0.0
 20
0.0
 30
0.0
  3
*U158
  1

  0
SOLID
  5
277D
  8
SAPA_FOGBAND
  6
CONTINUOUS
 62
     2
 10
-76.404650302413074
 20
-103.5710905234414
 30
0.0
 11
-76.584927866186277
 21
-103.6457639353478
 31
0.0
 12
-76.224372738639872
 22
-103.6457639353478
 32
0.0
 13
-76.224372738639872
 23
-103.6457639353478
 33
0.0
210
0.0
220
0.0
230
1.0
  0
SOLID
  5
277E
  8
SAPA_FOGBAND
  6
CONTINUOUS
 62
     2
 10
-76.584927866186277
 20
-103.6457639353478
 30
0.0
 11
-76.659601278092694
 21
-103.826041499121
 31
0.0
 12
-76.14969932673344
 22
-103.826041499121
 32
0.0
 13
-76.14969932673344
 23
-103.826041499121
 33
0.0
210
0.0
220
0.0
230
1.0
  0
SOLID
  5
277F
  8
SAPA_FOGBAND
  6
CONTINUOUS
 62
     2
 10
76.584927866186277
 20
-103.6457639353478
 30
0.0
 11
76.224372738639872
 21
-103.6457639353478
 31
0.0
 12
76.14969932673344
 22
-103.826041499121
 32
0.0
 13
76.14969932673344
 23
-103.826041499121
 33
0.0
210
0.0
220
0.0
230
-1.0
  0
SOLID
  5
2780
  8
SAPA_FOGBAND
  6
CONTINUOUS
 62
     2
 10
76.584927866186277
 20
-104.00631906289421
 30
0.0
 11
76.224372738639872
 21
-104.00631906289421
 31
0.0
 12
76.404650302413074
 22
-104.0809924748006
 32
0.0
 13
76.404650302413074
 23
-104.0809924748006
 33
0.0
210
0.0
220
0.0
230
-1.0
  0
SOLID
  5
2781
  8
SAPA_FOGBAND
  6
CONTINUOUS
 62
     2
 10
-76.659601278092694
 20
-103.826041499121
 30
0.0
 11
-76.584927866186277
 21
-104.00631906289421
 31
0.0
 12
-76.224372738639872
 22
-104.00631906289421
 32
0.0
 13
-76.224372738639872
 23
-104.00631906289421
 33
0.0
210
0.0
220
0.0
230
1.0
  0
SOLID
  5
2782
  8
SAPA_FOGBAND
  6
CONTINUOUS
 62
     2
 10
76.659601278092694
 20
-103.826041499121
 30
0.0
 11
76.14969932673344
 21
-103.826041499121
 31
0.0
 12
76.224372738639872
 22
-104.00631906289421
 32
0.0
 13
76.224372738639872
 23
-104.00631906289421
 33
0.0
210
0.0
220
0.0
230
-1.0
  0
LINE
  5
2783
  8
SAPA_FOGBAND
  6
CONTINUOUS
 62
     2
 10
-76.404650302413074
 20
-103.5710905234414
 30
0.0
 11
-76.584927866186277
 21
-103.6457639353478
 31
0.0
  0
LINE
  5
2784
  8
SAPA_FOGBAND
  6
CONTINUOUS
 62
     2
 10
-76.224372738639872
 20
-103.6457639353478
 30
0.0
 11
-76.404650302413074
 21
-103.5710905234414
 31
0.0
  0
LINE
  5
2785
  8
SAPA_FOGBAND
  6
CONTINUOUS
 62
     2
 10
-76.584927866186277
 20
-103.6457639353478
 30
0.0
 11
-76.659601278092694
 21
-103.826041499121
 31
0.0
  0
LINE
  5
2786
  8
SAPA_FOGBAND
  6
CONTINUOUS
 62
     2
 10
-76.224372738639872
 20
-103.6457639353478
 30
0.0
 11
-76.14969932673344
 21
-103.826041499121
 31
0.0
  0
LINE
  5
2787
  8
SAPA_FOGBAND
  6
CONTINUOUS
 62
     2
 10
-76.224372738639872
 20
-104.00631906289421
 30
0.0
 11
-76.404650302413074
 21
-104.0809924748006
 31
0.0
  0
LINE
  5
2788
  8
SAPA_FOGBAND
  6
CONTINUOUS
 62
     2
 10
-76.404650302413074
 20
-104.0809924748006
 30
0.0
 11
-76.584927866186277
 21
-104.00631906289421
 31
0.0
  0
LINE
  5
2789
  8
SAPA_FOGBAND
  6
CONTINUOUS
 62
     2
 10
-76.659601278092694
 20
-103.826041499121
 30
0.0
 11
-76.584927866186277
 21
-104.00631906289421
 31
0.0
  0
LINE
  5
278A
  8
SAPA_FOGBAND
  6
CONTINUOUS
 62
     2
 10
-76.14969932673344
 20
-103.826041499121
 30
0.0
 11
-76.224372738639872
 21
-104.00631906289421
 31
0.0
  0
ENDBLK
  5
278C
  8
0
  0
BLOCK
  8
0
  2
*U159
 70
     1
 10
0.0
 20
0.0
 30
0.0
  3
*U159
  1

  0
SOLID
  5
2793
  8
SAPA_FOGBAND
  6
CONTINUOUS
 10
-85.479767941648902
 20
-18.361894221040661
 30
0.0
 11
-85.660045505422104
 21
-18.436567632947099
 31
0.0
 12
-85.299490377875699
 22
-18.436567632947099
 32
0.0
 13
-85.299490377875699
 23
-18.436567632947099
 33
0.0
210
0.0
220
0.0
230
1.0
  0
SOLID
  5
2794
  8
SAPA_FOGBAND
  6
CONTINUOUS
 10
-85.660045505422104
 20
-18.436567632947099
 30
0.0
 11
-85.734718917328536
 21
-18.616845196720298
 31
0.0
 12
-85.224816965969254
 22
-18.616845196720298
 32
0.0
 13
-85.224816965969254
 23
-18.616845196720298
 33
0.0
210
0.0
220
0.0
230
1.0
  0
SOLID
  5
2795
  8
SAPA_FOGBAND
  6
CONTINUOUS
 10
85.660045505422104
 20
-18.436567632947099
 30
0.0
 11
85.299490377875699
 21
-18.436567632947099
 31
0.0
 12
85.224816965969254
 22
-18.616845196720298
 32
0.0
 13
85.224816965969254
 23
-18.616845196720298
 33
0.0
210
0.0
220
0.0
230
-1.0
  0
SOLID
  5
2796
  8
SAPA_FOGBAND
  6
CONTINUOUS
 10
85.660045505422104
 20
-18.797122760493501
 30
0.0
 11
85.299490377875699
 21
-18.797122760493501
 31
0.0
 12
85.479767941648902
 22
-18.87179617239995
 32
0.0
 13
85.479767941648902
 23
-18.87179617239995
 33
0.0
210
0.0
220
0.0
230
-1.0
  0
SOLID
  5
2797
  8
SAPA_FOGBAND
  6
CONTINUOUS
 10
-85.734718917328536
 20
-18.616845196720298
 30
0.0
 11
-85.660045505422104
 21
-18.797122760493501
 31
0.0
 12
-85.299490377875699
 22
-18.797122760493501
 32
0.0
 13
-85.299490377875699
 23
-18.797122760493501
 33
0.0
210
0.0
220
0.0
230
1.0
  0
SOLID
  5
2798
  8
SAPA_FOGBAND
  6
CONTINUOUS
 10
85.734718917328536
 20
-18.616845196720298
 30
0.0
 11
85.224816965969254
 21
-18.616845196720298
 31
0.0
 12
85.299490377875699
 22
-18.797122760493501
 32
0.0
 13
85.299490377875699
 23
-18.797122760493501
 33
0.0
210
0.0
220
0.0
230
-1.0
  0
LINE
  5
2799
  8
SAPA_FOGBAND
  6
CONTINUOUS
 10
-85.479767941648902
 20
-18.361894221040661
 30
0.0
 11
-85.660045505422104
 21
-18.436567632947099
 31
0.0
  0
LINE
  5
279A
  8
SAPA_FOGBAND
  6
CONTINUOUS
 10
-85.299490377875699
 20
-18.436567632947099
 30
0.0
 11
-85.479767941648902
 21
-18.361894221040661
 31
0.0
  0
LINE
  5
279B
  8
SAPA_FOGBAND
  6
CONTINUOUS
 10
-85.660045505422104
 20
-18.436567632947099
 30
0.0
 11
-85.734718917328536
 21
-18.616845196720298
 31
0.0
  0
LINE
  5
279C
  8
SAPA_FOGBAND
  6
CONTINUOUS
 10
-85.299490377875699
 20
-18.436567632947099
 30
0.0
 11
-85.224816965969254
 21
-18.616845196720298
 31
0.0
  0
LINE
  5
279D
  8
SAPA_FOGBAND
  6
CONTINUOUS
 10
-85.299490377875699
 20
-18.797122760493501
 30
0.0
 11
-85.479767941648902
 21
-18.87179617239995
 31
0.0
  0
LINE
  5
279E
  8
SAPA_FOGBAND
  6
CONTINUOUS
 10
-85.479767941648902
 20
-18.87179617239995
 30
0.0
 11
-85.660045505422104
 21
-18.797122760493501
 31
0.0
  0
LINE
  5
279F
  8
SAPA_FOGBAND
  6
CONTINUOUS
 10
-85.734718917328536
 20
-18.616845196720298
 30
0.0
 11
-85.660045505422104
 21
-18.797122760493501
 31
0.0
  0
LINE
  5
27A0
  8
SAPA_FOGBAND
  6
CONTINUOUS
 10
-85.224816965969254
 20
-18.616845196720298
 30
0.0
 11
-85.299490377875699
 21
-18.797122760493501
 31
0.0
  0
ENDBLK
  5
27A2
  8
0
  0
BLOCK
  8
0
  2
*U160
 70
     1
 10
0.0
 20
0.0
 30
0.0
  3
*U160
  1

  0
SOLID
  5
2811
  8
SAPA_FOGBAND
  6
CONTINUOUS
 10
-84.641571726353149
 20
18.934307771279901
 30
0.0
 11
-84.821849290126366
 21
18.859634359373452
 31
0.0
 12
-84.461294162579961
 22
18.859634359373452
 32
0.0
 13
-84.461294162579961
 23
18.859634359373452
 33
0.0
210
0.0
220
0.0
230
1.0
  0
SOLID
  5
2812
  8
SAPA_FOGBAND
  6
CONTINUOUS
 10
-84.821849290126366
 20
18.859634359373452
 30
0.0
 11
-84.896522702032783
 21
18.679356795600249
 31
0.0
 12
-84.386620750673529
 22
18.679356795600249
 32
0.0
 13
-84.386620750673529
 23
18.679356795600249
 33
0.0
210
0.0
220
0.0
230
1.0
  0
SOLID
  5
2813
  8
SAPA_FOGBAND
  6
CONTINUOUS
 10
84.821849290126366
 20
18.859634359373452
 30
0.0
 11
84.461294162579961
 21
18.859634359373452
 31
0.0
 12
84.386620750673529
 22
18.679356795600249
 32
0.0
 13
84.386620750673529
 23
18.679356795600249
 33
0.0
210
0.0
220
0.0
230
-1.0
  0
SOLID
  5
2814
  8
SAPA_FOGBAND
  6
CONTINUOUS
 10
84.821849290126366
 20
18.499079231827061
 30
0.0
 11
84.461294162579961
 21
18.499079231827061
 31
0.0
 12
84.641571726353149
 22
18.424405819920612
 32
0.0
 13
84.641571726353149
 23
18.424405819920612
 33
0.0
210
0.0
220
0.0
230
-1.0
  0
SOLID
  5
2815
  8
SAPA_FOGBAND
  6
CONTINUOUS
 10
-84.896522702032783
 20
18.679356795600249
 30
0.0
 11
-84.821849290126366
 21
18.499079231827061
 31
0.0
 12
-84.461294162579961
 22
18.499079231827061
 32
0.0
 13
-84.461294162579961
 23
18.499079231827061
 33
0.0
210
0.0
220
0.0
230
1.0
  0
SOLID
  5
2816
  8
SAPA_FOGBAND
  6
CONTINUOUS
 10
84.896522702032783
 20
18.679356795600249
 30
0.0
 11
84.386620750673529
 21
18.679356795600249
 31
0.0
 12
84.461294162579961
 22
18.499079231827061
 32
0.0
 13
84.461294162579961
 23
18.499079231827061
 33
0.0
210
0.0
220
0.0
230
-1.0
  0
LINE
  5
2817
  8
SAPA_FOGBAND
  6
CONTINUOUS
 10
-84.641571726353149
 20
18.934307771279901
 30
0.0
 11
-84.821849290126366
 21
18.859634359373452
 31
0.0
  0
LINE
  5
2818
  8
SAPA_FOGBAND
  6
CONTINUOUS
 10
-84.461294162579961
 20
18.859634359373452
 30
0.0
 11
-84.641571726353149
 21
18.934307771279901
 31
0.0
  0
LINE
  5
2819
  8
SAPA_FOGBAND
  6
CONTINUOUS
 10
-84.821849290126366
 20
18.859634359373452
 30
0.0
 11
-84.896522702032783
 21
18.679356795600249
 31
0.0
  0
LINE
  5
281A
  8
SAPA_FOGBAND
  6
CONTINUOUS
 10
-84.461294162579961
 20
18.859634359373452
 30
0.0
 11
-84.386620750673529
 21
18.679356795600249
 31
0.0
  0
LINE
  5
281B
  8
SAPA_FOGBAND
  6
CONTINUOUS
 10
-84.461294162579961
 20
18.499079231827061
 30
0.0
 11
-84.641571726353149
 21
18.424405819920612
 31
0.0
  0
LINE
  5
281C
  8
SAPA_FOGBAND
  6
CONTINUOUS
 10
-84.641571726353149
 20
18.424405819920612
 30
0.0
 11
-84.821849290126366
 21
18.499079231827061
 31
0.0
  0
LINE
  5
281D
  8
SAPA_FOGBAND
  6
CONTINUOUS
 10
-84.896522702032783
 20
18.679356795600249
 30
0.0
 11
-84.821849290126366
 21
18.499079231827061
 31
0.0
  0
LINE
  5
281E
  8
SAPA_FOGBAND
  6
CONTINUOUS
 10
-84.386620750673529
 20
18.679356795600249
 30
0.0
 11
-84.461294162579961
 21
18.499079231827061
 31
0.0
  0
ENDBLK
  5
2820
  8
0
  0
BLOCK
  8
0
  2
*U161
 70
     1
 10
0.0
 20
0.0
 30
0.0
  3
*U161
  1

  0
SOLID
  5
2926
  8
SAPA_FOGBAND
  6
CONTINUOUS
 62
     2
 10
-30.181669129626979
 20
-102.99313917248671
 30
0.0
 11
-30.361946693400181
 21
-103.0678125843931
 31
0.0
 12
-30.00139156585378
 22
-103.0678125843931
 32
0.0
 13
-30.00139156585378
 23
-103.0678125843931
 33
0.0
210
0.0
220
0.0
230
1.0
  0
SOLID
  5
2927
  8
SAPA_FOGBAND
  6
CONTINUOUS
 62
     2
 10
-30.361946693400181
 20
-103.0678125843931
 30
0.0
 11
-30.43662010530662
 21
-103.2480901481663
 31
0.0
 12
-29.926718153947341
 22
-103.2480901481663
 32
0.0
 13
-29.926718153947341
 23
-103.2480901481663
 33
0.0
210
0.0
220
0.0
230
1.0
  0
SOLID
  5
2928
  8
SAPA_FOGBAND
  6
CONTINUOUS
 62
     2
 10
30.361946693400181
 20
-103.0678125843931
 30
0.0
 11
30.00139156585378
 21
-103.0678125843931
 31
0.0
 12
29.926718153947341
 22
-103.2480901481663
 32
0.0
 13
29.926718153947341
 23
-103.2480901481663
 33
0.0
210
0.0
220
0.0
230
-1.0
  0
SOLID
  5
2929
  8
SAPA_FOGBAND
  6
CONTINUOUS
 62
     2
 10
30.361946693400181
 20
-103.4283677119395
 30
0.0
 11
30.00139156585378
 21
-103.4283677119395
 31
0.0
 12
30.181669129626979
 22
-103.5030411238459
 32
0.0
 13
30.181669129626979
 23
-103.5030411238459
 33
0.0
210
0.0
220
0.0
230
-1.0
  0
SOLID
  5
292A
  8
SAPA_FOGBAND
  6
CONTINUOUS
 62
     2
 10
-30.43662010530662
 20
-103.2480901481663
 30
0.0
 11
-30.361946693400181
 21
-103.4283677119395
 31
0.0
 12
-30.00139156585378
 22
-103.4283677119395
 32
0.0
 13
-30.00139156585378
 23
-103.4283677119395
 33
0.0
210
0.0
220
0.0
230
1.0
  0
SOLID
  5
292B
  8
SAPA_FOGBAND
  6
CONTINUOUS
 62
     2
 10
30.43662010530662
 20
-103.2480901481663
 30
0.0
 11
29.926718153947341
 21
-103.2480901481663
 31
0.0
 12
30.00139156585378
 22
-103.4283677119395
 32
0.0
 13
30.00139156585378
 23
-103.4283677119395
 33
0.0
210
0.0
220
0.0
230
-1.0
  0
LINE
  5
292C
  8
SAPA_FOGBAND
  6
CONTINUOUS
 62
     2
 10
-30.181669129626979
 20
-102.99313917248671
 30
0.0
 11
-30.361946693400181
 21
-103.0678125843931
 31
0.0
  0
LINE
  5
292D
  8
SAPA_FOGBAND
  6
CONTINUOUS
 62
     2
 10
-30.00139156585378
 20
-103.0678125843931
 30
0.0
 11
-30.181669129626979
 21
-102.99313917248671
 31
0.0
  0
LINE
  5
292E
  8
SAPA_FOGBAND
  6
CONTINUOUS
 62
     2
 10
-30.361946693400181
 20
-103.0678125843931
 30
0.0
 11
-30.43662010530662
 21
-103.2480901481663
 31
0.0
  0
LINE
  5
292F
  8
SAPA_FOGBAND
  6
CONTINUOUS
 62
     2
 10
-30.00139156585378
 20
-103.0678125843931
 30
0.0
 11
-29.926718153947341
 21
-103.2480901481663
 31
0.0
  0
LINE
  5
2930
  8
SAPA_FOGBAND
  6
CONTINUOUS
 62
     2
 10
-30.00139156585378
 20
-103.4283677119395
 30
0.0
 11
-30.181669129626979
 21
-103.5030411238459
 31
0.0
  0
LINE
  5
2931
  8
SAPA_FOGBAND
  6
CONTINUOUS
 62
     2
 10
-30.181669129626979
 20
-103.5030411238459
 30
0.0
 11
-30.361946693400181
 21
-103.4283677119395
 31
0.0
  0
LINE
  5
2932
  8
SAPA_FOGBAND
  6
CONTINUOUS
 62
     2
 10
-30.43662010530662
 20
-103.2480901481663
 30
0.0
 11
-30.361946693400181
 21
-103.4283677119395
 31
0.0
  0
LINE
  5
2933
  8
SAPA_FOGBAND
  6
CONTINUOUS
 62
     2
 10
-29.926718153947341
 20
-103.2480901481663
 30
0.0
 11
-30.00139156585378
 21
-103.4283677119395
 31
0.0
  0
ENDBLK
  5
2935
  8
0
  0
BLOCK
  8
0
  2
*U162
 70
     1
 10
0.0
 20
0.0
 30
0.0
  3
*U162
  1

  0
SOLID
  5
2960
  8
SAPA_FOGBAND
  6
CONTINUOUS
 62
     2
 10
-76.404650302413074
 20
-103.5710905234414
 30
0.0
 11
-76.584927866186277
 21
-103.6457639353478
 31
0.0
 12
-76.224372738639872
 22
-103.6457639353478
 32
0.0
 13
-76.224372738639872
 23
-103.6457639353478
 33
0.0
210
0.0
220
0.0
230
1.0
  0
SOLID
  5
2961
  8
SAPA_FOGBAND
  6
CONTINUOUS
 62
     2
 10
-76.584927866186277
 20
-103.6457639353478
 30
0.0
 11
-76.659601278092694
 21
-103.826041499121
 31
0.0
 12
-76.14969932673344
 22
-103.826041499121
 32
0.0
 13
-76.14969932673344
 23
-103.826041499121
 33
0.0
210
0.0
220
0.0
230
1.0
  0
SOLID
  5
2962
  8
SAPA_FOGBAND
  6
CONTINUOUS
 62
     2
 10
76.584927866186277
 20
-103.6457639353478
 30
0.0
 11
76.224372738639872
 21
-103.6457639353478
 31
0.0
 12
76.14969932673344
 22
-103.826041499121
 32
0.0
 13
76.14969932673344
 23
-103.826041499121
 33
0.0
210
0.0
220
0.0
230
-1.0
  0
SOLID
  5
2963
  8
SAPA_FOGBAND
  6
CONTINUOUS
 62
     2
 10
76.584927866186277
 20
-104.00631906289421
 30
0.0
 11
76.224372738639872
 21
-104.00631906289421
 31
0.0
 12
76.404650302413074
 22
-104.0809924748006
 32
0.0
 13
76.404650302413074
 23
-104.0809924748006
 33
0.0
210
0.0
220
0.0
230
-1.0
  0
SOLID
  5
2964
  8
SAPA_FOGBAND
  6
CONTINUOUS
 62
     2
 10
-76.659601278092694
 20
-103.826041499121
 30
0.0
 11
-76.584927866186277
 21
-104.00631906289421
 31
0.0
 12
-76.224372738639872
 22
-104.00631906289421
 32
0.0
 13
-76.224372738639872
 23
-104.00631906289421
 33
0.0
210
0.0
220
0.0
230
1.0
  0
SOLID
  5
2965
  8
SAPA_FOGBAND
  6
CONTINUOUS
 62
     2
 10
76.659601278092694
 20
-103.826041499121
 30
0.0
 11
76.14969932673344
 21
-103.826041499121
 31
0.0
 12
76.224372738639872
 22
-104.00631906289421
 32
0.0
 13
76.224372738639872
 23
-104.00631906289421
 33
0.0
210
0.0
220
0.0
230
-1.0
  0
LINE
  5
2966
  8
SAPA_FOGBAND
  6
CONTINUOUS
 62
     2
 10
-76.404650302413074
 20
-103.5710905234414
 30
0.0
 11
-76.584927866186277
 21
-103.6457639353478
 31
0.0
  0
LINE
  5
2967
  8
SAPA_FOGBAND
  6
CONTINUOUS
 62
     2
 10
-76.224372738639872
 20
-103.6457639353478
 30
0.0
 11
-76.404650302413074
 21
-103.5710905234414
 31
0.0
  0
LINE
  5
2968
  8
SAPA_FOGBAND
  6
CONTINUOUS
 62
     2
 10
-76.584927866186277
 20
-103.6457639353478
 30
0.0
 11
-76.659601278092694
 21
-103.826041499121
 31
0.0
  0
LINE
  5
2969
  8
SAPA_FOGBAND
  6
CONTINUOUS
 62
     2
 10
-76.224372738639872
 20
-103.6457639353478
 30
0.0
 11
-76.14969932673344
 21
-103.826041499121
 31
0.0
  0
LINE
  5
296A
  8
SAPA_FOGBAND
  6
CONTINUOUS
 62
     2
 10
-76.224372738639872
 20
-104.00631906289421
 30
0.0
 11
-76.404650302413074
 21
-104.0809924748006
 31
0.0
  0
LINE
  5
296B
  8
SAPA_FOGBAND
  6
CONTINUOUS
 62
     2
 10
-76.404650302413074
 20
-104.0809924748006
 30
0.0
 11
-76.584927866186277
 21
-104.00631906289421
 31
0.0
  0
LINE
  5
296C
  8
SAPA_FOGBAND
  6
CONTINUOUS
 62
     2
 10
-76.659601278092694
 20
-103.826041499121
 30
0.0
 11
-76.584927866186277
 21
-104.00631906289421
 31
0.0
  0
LINE
  5
296D
  8
SAPA_FOGBAND
  6
CONTINUOUS
 62
     2
 10
-76.14969932673344
 20
-103.826041499121
 30
0.0
 11
-76.224372738639872
 21
-104.00631906289421
 31
0.0
  0
ENDBLK
  5
296F
  8
0
  0
BLOCK
  8
0
  2
*U163
 70
     1
 10
0.0
 20
0.0
 30
0.0
  3
*U163
  1

  0
SOLID
  5
2976
  8
SAPA_FOGBAND
  6
CONTINUOUS
 10
-85.479767941648902
 20
-18.361894221040661
 30
0.0
 11
-85.660045505422104
 21
-18.436567632947099
 31
0.0
 12
-85.299490377875699
 22
-18.436567632947099
 32
0.0
 13
-85.299490377875699
 23
-18.436567632947099
 33
0.0
210
0.0
220
0.0
230
1.0
  0
SOLID
  5
2977
  8
SAPA_FOGBAND
  6
CONTINUOUS
 10
-85.660045505422104
 20
-18.436567632947099
 30
0.0
 11
-85.734718917328536
 21
-18.616845196720298
 31
0.0
 12
-85.224816965969254
 22
-18.616845196720298
 32
0.0
 13
-85.224816965969254
 23
-18.616845196720298
 33
0.0
210
0.0
220
0.0
230
1.0
  0
SOLID
  5
2978
  8
SAPA_FOGBAND
  6
CONTINUOUS
 10
85.660045505422104
 20
-18.436567632947099
 30
0.0
 11
85.299490377875699
 21
-18.436567632947099
 31
0.0
 12
85.224816965969254
 22
-18.616845196720298
 32
0.0
 13
85.224816965969254
 23
-18.616845196720298
 33
0.0
210
0.0
220
0.0
230
-1.0
  0
SOLID
  5
2979
  8
SAPA_FOGBAND
  6
CONTINUOUS
 10
85.660045505422104
 20
-18.797122760493501
 30
0.0
 11
85.299490377875699
 21
-18.797122760493501
 31
0.0
 12
85.479767941648902
 22
-18.87179617239995
 32
0.0
 13
85.479767941648902
 23
-18.87179617239995
 33
0.0
210
0.0
220
0.0
230
-1.0
  0
SOLID
  5
297A
  8
SAPA_FOGBAND
  6
CONTINUOUS
 10
-85.734718917328536
 20
-18.616845196720298
 30
0.0
 11
-85.660045505422104
 21
-18.797122760493501
 31
0.0
 12
-85.299490377875699
 22
-18.797122760493501
 32
0.0
 13
-85.299490377875699
 23
-18.797122760493501
 33
0.0
210
0.0
220
0.0
230
1.0
  0
SOLID
  5
297B
  8
SAPA_FOGBAND
  6
CONTINUOUS
 10
85.734718917328536
 20
-18.616845196720298
 30
0.0
 11
85.224816965969254
 21
-18.616845196720298
 31
0.0
 12
85.299490377875699
 22
-18.797122760493501
 32
0.0
 13
85.299490377875699
 23
-18.797122760493501
 33
0.0
210
0.0
220
0.0
230
-1.0
  0
LINE
  5
297C
  8
SAPA_FOGBAND
  6
CONTINUOUS
 10
-85.479767941648902
 20
-18.361894221040661
 30
0.0
 11
-85.660045505422104
 21
-18.436567632947099
 31
0.0
  0
LINE
  5
297D
  8
SAPA_FOGBAND
  6
CONTINUOUS
 10
-85.299490377875699
 20
-18.436567632947099
 30
0.0
 11
-85.479767941648902
 21
-18.361894221040661
 31
0.0
  0
LINE
  5
297E
  8
SAPA_FOGBAND
  6
CONTINUOUS
 10
-85.660045505422104
 20
-18.436567632947099
 30
0.0
 11
-85.734718917328536
 21
-18.616845196720298
 31
0.0
  0
LINE
  5
297F
  8
SAPA_FOGBAND
  6
CONTINUOUS
 10
-85.299490377875699
 20
-18.436567632947099
 30
0.0
 11
-85.224816965969254
 21
-18.616845196720298
 31
0.0
  0
LINE
  5
2980
  8
SAPA_FOGBAND
  6
CONTINUOUS
 10
-85.299490377875699
 20
-18.797122760493501
 30
0.0
 11
-85.479767941648902
 21
-18.87179617239995
 31
0.0
  0
LINE
  5
2981
  8
SAPA_FOGBAND
  6
CONTINUOUS
 10
-85.479767941648902
 20
-18.87179617239995
 30
0.0
 11
-85.660045505422104
 21
-18.797122760493501
 31
0.0
  0
LINE
  5
2982
  8
SAPA_FOGBAND
  6
CONTINUOUS
 10
-85.734718917328536
 20
-18.616845196720298
 30
0.0
 11
-85.660045505422104
 21
-18.797122760493501
 31
0.0
  0
LINE
  5
2983
  8
SAPA_FOGBAND
  6
CONTINUOUS
 10
-85.224816965969254
 20
-18.616845196720298
 30
0.0
 11
-85.299490377875699
 21
-18.797122760493501
 31
0.0
  0
ENDBLK
  5
2985
  8
0
  0
BLOCK
  8
0
  2
*U164
 70
     1
 10
0.0
 20
0.0
 30
0.0
  3
*U164
  1

  0
SOLID
  5
29F4
  8
SAPA_FOGBAND
  6
CONTINUOUS
 10
-84.641571726353149
 20
18.934307771279901
 30
0.0
 11
-84.821849290126366
 21
18.859634359373452
 31
0.0
 12
-84.461294162579961
 22
18.859634359373452
 32
0.0
 13
-84.461294162579961
 23
18.859634359373452
 33
0.0
210
0.0
220
0.0
230
1.0
  0
SOLID
  5
29F5
  8
SAPA_FOGBAND
  6
CONTINUOUS
 10
-84.821849290126366
 20
18.859634359373452
 30
0.0
 11
-84.896522702032783
 21
18.679356795600249
 31
0.0
 12
-84.386620750673529
 22
18.679356795600249
 32
0.0
 13
-84.386620750673529
 23
18.679356795600249
 33
0.0
210
0.0
220
0.0
230
1.0
  0
SOLID
  5
29F6
  8
SAPA_FOGBAND
  6
CONTINUOUS
 10
84.821849290126366
 20
18.859634359373452
 30
0.0
 11
84.461294162579961
 21
18.859634359373452
 31
0.0
 12
84.386620750673529
 22
18.679356795600249
 32
0.0
 13
84.386620750673529
 23
18.679356795600249
 33
0.0
210
0.0
220
0.0
230
-1.0
  0
SOLID
  5
29F7
  8
SAPA_FOGBAND
  6
CONTINUOUS
 10
84.821849290126366
 20
18.499079231827061
 30
0.0
 11
84.461294162579961
 21
18.499079231827061
 31
0.0
 12
84.641571726353149
 22
18.424405819920612
 32
0.0
 13
84.641571726353149
 23
18.424405819920612
 33
0.0
210
0.0
220
0.0
230
-1.0
  0
SOLID
  5
29F8
  8
SAPA_FOGBAND
  6
CONTINUOUS
 10
-84.896522702032783
 20
18.679356795600249
 30
0.0
 11
-84.821849290126366
 21
18.499079231827061
 31
0.0
 12
-84.461294162579961
 22
18.499079231827061
 32
0.0
 13
-84.461294162579961
 23
18.499079231827061
 33
0.0
210
0.0
220
0.0
230
1.0
  0
SOLID
  5
29F9
  8
SAPA_FOGBAND
  6
CONTINUOUS
 10
84.896522702032783
 20
18.679356795600249
 30
0.0
 11
84.386620750673529
 21
18.679356795600249
 31
0.0
 12
84.461294162579961
 22
18.499079231827061
 32
0.0
 13
84.461294162579961
 23
18.499079231827061
 33
0.0
210
0.0
220
0.0
230
-1.0
  0
LINE
  5
29FA
  8
SAPA_FOGBAND
  6
CONTINUOUS
 10
-84.641571726353149
 20
18.934307771279901
 30
0.0
 11
-84.821849290126366
 21
18.859634359373452
 31
0.0
  0
LINE
  5
29FB
  8
SAPA_FOGBAND
  6
CONTINUOUS
 10
-84.461294162579961
 20
18.859634359373452
 30
0.0
 11
-84.641571726353149
 21
18.934307771279901
 31
0.0
  0
LINE
  5
29FC
  8
SAPA_FOGBAND
  6
CONTINUOUS
 10
-84.821849290126366
 20
18.859634359373452
 30
0.0
 11
-84.896522702032783
 21
18.679356795600249
 31
0.0
  0
LINE
  5
29FD
  8
SAPA_FOGBAND
  6
CONTINUOUS
 10
-84.461294162579961
 20
18.859634359373452
 30
0.0
 11
-84.386620750673529
 21
18.679356795600249
 31
0.0
  0
LINE
  5
29FE
  8
SAPA_FOGBAND
  6
CONTINUOUS
 10
-84.461294162579961
 20
18.499079231827061
 30
0.0
 11
-84.641571726353149
 21
18.424405819920612
 31
0.0
  0
LINE
  5
29FF
  8
SAPA_FOGBAND
  6
CONTINUOUS
 10
-84.641571726353149
 20
18.424405819920612
 30
0.0
 11
-84.821849290126366
 21
18.499079231827061
 31
0.0
  0
LINE
  5
2A00
  8
SAPA_FOGBAND
  6
CONTINUOUS
 10
-84.896522702032783
 20
18.679356795600249
 30
0.0
 11
-84.821849290126366
 21
18.499079231827061
 31
0.0
  0
LINE
  5
2A01
  8
SAPA_FOGBAND
  6
CONTINUOUS
 10
-84.386620750673529
 20
18.679356795600249
 30
0.0
 11
-84.461294162579961
 21
18.499079231827061
 31
0.0
  0
ENDBLK
  5
2A03
  8
0
  0
BLOCK
  8
0
  2
*U165
 70
     1
 10
0.0
 20
0.0
 30
0.0
  3
*U165
  1

  0
TEXT
  5
2B00
  8
SAPA_MATT
 62
     2
 10
-126.3256531728245
 20
-2.1000000000004531
 30
0.0
 40
3.0
  1
50
 50
90.0
  7
ISO
  0
ENDBLK
  5
2B02
  8
0
  0
ENDSEC
  0
SECTION
  2
ENTITIES
  0
POLYLINE
  5
7B2
  8
SAPA_LIGHT
 66
     1
 10
0.0
 20
0.0
 30
0.0
  0
VERTEX
  5
19B7
  8
SAPA_LIGHT
 10
-106.4999999990106
 20
24.999999999999631
 30
0.0
  0
VERTEX
  5
19B8
  8
SAPA_LIGHT
 10
-80.499999999010939
 20
24.999999999999559
 30
0.0
  0
VERTEX
  5
19B9
  8
SAPA_LIGHT
 10
-80.499999999010939
 20
5.000000000000413
 30
0.0
  0
VERTEX
  5
19BA
  8
SAPA_LIGHT
 10
-45.500000000001833
 20
5.0000000000004041
 30
0.0
  0
VERTEX
  5
19BB
  8
SAPA_LIGHT
 10
-45.500000000001151
 20
25.000000000000181
 30
0.0
  0
VERTEX
  5
19BC
  8
SAPA_LIGHT
 10
64.499999999998892
 20
25.00000000000016
 30
0.0
  0
VERTEX
  5
19BD
  8
SAPA_LIGHT
 10
64.499999999998892
 20
-24.99999999999984
 30
0.0
  0
VERTEX
  5
19BE
  8
SAPA_LIGHT
 10
-49.000000031211592
 20
-24.999999999999819
 30
0.0
  0
VERTEX
  5
19BF
  8
SAPA_LIGHT
 10
-49.000000031211577
 20
-4.9999999999998197
 30
0.0
  0
VERTEX
  5
19C0
  8
SAPA_LIGHT
 10
-83.49999998637054
 20
-4.9999999999998144
 30
0.0
  0
VERTEX
  5
19C1
  8
SAPA_LIGHT
 10
-83.499999986370597
 20
-25.000000000000391
 30
0.0
  0
VERTEX
  5
19C2
  8
SAPA_LIGHT
 10
-106.4999999990106
 20
-25.00000000000038
 30
0.0
  0
VERTEX
  5
19C3
  8
SAPA_LIGHT
 10
-106.4999999990106
 20
24.999999999999631
 30
0.0
  0
SEQEND
  5
19C4
  8
SAPA_LIGHT
  0
POLYLINE
  5
7B3
  8
SAPA_LIGHT
 66
     1
 10
0.0
 20
0.0
 30
0.0
  0
VERTEX
  5
19C5
  8
SAPA_LIGHT
 10
-8.5000000090346983
 20
-24.999999999999829
 30
0.0
  0
VERTEX
  5
19C6
  8
SAPA_LIGHT
 10
-8.5000000090346912
 20
-76.000000000002558
 30
0.0
  0
VERTEX
  5
19C7
  8
SAPA_LIGHT
 10
-82.500000005086207
 20
-76.00000000000243
 30
0.0
  0
VERTEX
  5
19C8
  8
SAPA_LIGHT
 10
-82.500000005086335
 20
-9.0000000000352838
 30
0.0
  0
VERTEX
  5
19C9
  8
SAPA_LIGHT
 10
-48.000000046794042
 20
-9.0000000000352909
 30
0.0
  0
VERTEX
  5
19CA
  8
SAPA_LIGHT
 10
-48.000000046797673
 20
-24.999999999999819
 30
0.0
  0
VERTEX
  5
19CB
  8
SAPA_LIGHT
 10
-8.5000000090346983
 20
-24.999999999999829
 30
0.0
  0
SEQEND
  5
19CC
  8
SAPA_LIGHT
  0
POLYLINE
  5
7B4
  8
SAPA_LIGHT
 66
     1
 10
0.0
 20
0.0
 30
0.0
  0
VERTEX
  5
19CD
  8
SAPA_LIGHT
 10
-6.9999991423883463
 20
-72.834098182422224
 30
0.0
  0
VERTEX
  5
19CE
  8
SAPA_LIGHT
 10
-4.499999142388317
 20
-72.834098182422224
 30
0.0
  0
VERTEX
  5
19CF
  8
SAPA_LIGHT
 10
-4.4999991423883188
 20
-81.500000076061554
 30
0.0
  0
VERTEX
  5
19D0
  8
SAPA_LIGHT
 10
-15.09999914238823
 20
-81.500000076061554
 30
0.0
  0
VERTEX
  5
19D1
  8
SAPA_LIGHT
 10
-15.099999142388221
 20
-113.07612046749161
 30
0.0
  0
VERTEX
  5
19D2
  8
SAPA_LIGHT
 10
-75.903640540361948
 20
-113.07612046749161
 30
0.0
  0
VERTEX
  5
19D3
  8
SAPA_LIGHT
 10
-75.903640540362204
 20
-81.500000076061539
 30
0.0
  0
VERTEX
  5
19D4
  8
SAPA_LIGHT
 10
-86.499999142388333
 20
-81.500000076061426
 30
0.0
  0
VERTEX
  5
19D5
  8
SAPA_LIGHT
 10
-86.499999142388504
 20
-73.058578719824069
 30
0.0
  0
VERTEX
  5
19D6
  8
SAPA_LIGHT
 10
-83.999999142388305
 20
-73.058578719824069
 30
0.0
  0
VERTEX
  5
19D7
  8
SAPA_LIGHT
 10
-83.999999142388347
 20
-76.00000000000243
 30
0.0
  0
VERTEX
  5
19D8
  8
SAPA_LIGHT
 10
-6.9999991423883472
 20
-76.000000076061554
 30
0.0
  0
VERTEX
  5
19D9
  8
SAPA_LIGHT
 10
-6.9999991423883463
 20
-72.834098182422224
 30
0.0
  0
SEQEND
  5
19DA
  8
SAPA_LIGHT
  0
POLYLINE
  5
7B5
  8
SAPA_LIGHT
 66
     1
 10
0.0
 20
0.0
 30
0.0
  0
VERTEX
  5
19DB
  8
SAPA_LIGHT
 10
-15.499999090424801
 20
-113.07612046749161
 30
0.0
  0
VERTEX
  5
19DC
  8
SAPA_LIGHT
 10
-15.49999909042481
 20
-169.0000000000029
 30
0.0
  0
VERTEX
  5
19DD
  8
SAPA_LIGHT
 10
-20.025592652203059
 20
-169.0000000000029
 30
0.0
  0
VERTEX
  5
19DE
  8
SAPA_LIGHT
 10
-20.02559265220307
 20
-190.92094861660371
 30
0.0
  0
VERTEX
  5
19DF
  8
SAPA_LIGHT
 10
-37.597515172071027
 20
-190.92094861660351
 30
0.0
  0
VERTEX
  5
19E0
  8
SAPA_LIGHT
 10
-37.59751517207107
 20
-169.0000000000029
 30
0.0
  0
VERTEX
  5
19E1
  8
SAPA_LIGHT
 10
-61.597515172070878
 20
-169.0000000000029
 30
0.0
  0
VERTEX
  5
19E2
  8
SAPA_LIGHT
 10
-61.597515172070892
 20
-191.00000000000281
 30
0.0
  0
VERTEX
  5
19E3
  8
SAPA_LIGHT
 10
-70.999999090424794
 20
-191.00000000000281
 30
0.0
  0
VERTEX
  5
19E4
  8
SAPA_LIGHT
 10
-70.999999090424794
 20
-170.74264068712191
 30
0.0
  0
VERTEX
  5
19E5
  8
SAPA_LIGHT
 10
-75.499999090424794
 20
-170.7426406871221
 30
0.0
  0
VERTEX
  5
19E6
  8
SAPA_LIGHT
 10
-75.499999090424822
 20
-113.07612046749161
 30
0.0
  0
VERTEX
  5
19E7
  8
SAPA_LIGHT
 10
-15.499999090424801
 20
-113.07612046749161
 30
0.0
  0
SEQEND
  5
19E8
  8
SAPA_LIGHT
  0
POLYLINE
  5
7B6
  8
SAPA_LIGHT
 66
     1
 10
0.0
 20
0.0
 30
0.0
  0
VERTEX
  5
19E9
  8
SAPA_LIGHT
 10
-37.59751517207112
 20
-202.80000000000311
 30
0.0
  0
VERTEX
  5
19EA
  8
SAPA_LIGHT
 10
-37.597515172070892
 20
-174.0000000000033
 30
0.0
  0
VERTEX
  5
19EB
  8
SAPA_LIGHT
 10
-61.597515172070878
 20
-174.0000000000033
 30
0.0
  0
VERTEX
  5
19EC
  8
SAPA_LIGHT
 10
-61.597515172070892
 20
-202.80000000000311
 30
0.0
  0
SEQEND
  5
19ED
  8
SAPA_LIGHT
  0
INSERT
  5
7B7
  8
0
  2
*U152
 10
0.0
 20
0.0
 30
0.0
  0
INSERT
  5
7B8
  8
0
  2
*U153
 10
0.0
 20
0.0
 30
0.0
  0
INSERT
  5
7B9
  8
0
  2
*U154
 10
0.0
 20
0.0
 30
0.0
  0
POLYLINE
  5
897
  8
SAPA_LIGHT
 66
     1
 10
0.0
 20
0.0
 30
0.0
  0
VERTEX
  5
19FA
  8
SAPA_LIGHT
 10
-80.499999999010925
 20
75.522593981594696
 30
0.0
  0
VERTEX
  5
19FB
  8
SAPA_LIGHT
 10
-80.499999999010939
 20
11.000000000000121
 30
0.0
  0
VERTEX
  5
19FC
  8
SAPA_LIGHT
 10
-74.499999999011635
 20
10.99999999999992
 30
0.0
  0
VERTEX
  5
19FD
  8
SAPA_LIGHT
 10
-74.499999999011152
 20
75.522593981594696
 30
0.0
  0
SEQEND
  5
19FE
  8
SAPA_LIGHT
  0
POLYLINE
  5
898
  8
SAPA_LIGHT
 66
     1
 10
0.0
 20
0.0
 30
0.0
  0
VERTEX
  5
19FF
  8
SAPA_LIGHT
 10
-54.501825424426002
 20
75.522593981593786
 30
0.0
  0
VERTEX
  5
1A00
  8
SAPA_LIGHT
 10
-54.501825424426002
 20
14.035113899112391
 30
0.0
  0
VERTEX
  5
1A01
  8
SAPA_LIGHT
 10
-45.500000000001833
 20
14.035113899112391
 30
0.0
  0
VERTEX
  5
1A02
  8
SAPA_LIGHT
 10
-45.500000000001812
 20
75.522593981593786
 30
0.0
  0
SEQEND
  5
1A03
  8
SAPA_LIGHT
  0
POLYLINE
  5
8A1
  8
SAPA_LIGHT
 66
     1
 10
0.0
 20
0.0
 30
0.0
  0
VERTEX
  5
1A04
  8
SAPA_LIGHT
 10
50.999999999998849
 20
75.000000000000256
 30
0.0
  0
VERTEX
  5
1A05
  8
SAPA_LIGHT
 10
50.999999999998842
 20
26.000000000000259
 30
0.0
  0
VERTEX
  5
1A06
  8
SAPA_LIGHT
 10
62.499999999998892
 20
26.000000000000249
 30
0.0
  0
VERTEX
  5
1A07
  8
SAPA_LIGHT
 10
62.499999999998899
 20
75.000000000000256
 30
0.0
  0
SEQEND
  5
1A08
  8
SAPA_LIGHT
  0
INSERT
  5
E4F
  8
0
  2
*U155
 10
0.0
 20
0.0
 30
0.0
  0
INSERT
  5
E50
  8
0
  2
*U156
 10
0.0
 20
0.0
 30
0.0
  0
LINE
  5
14C7
  8
SAPA_FYLLNING
 10
-29.93415058497019
 20
31.505165192839272
 30
0.0
 11
42.799999999999287
 21
31.34846748578321
 31
0.0
  0
ARC
  5
14C8
  8
SAPA_FYLLNING
 10
42.799999999999287
 20
37.34846748578321
 30
0.0
 40
6.0
 50
270.0
 51
90.0
  0
LINE
  5
14C9
  8
SAPA_FYLLNING
 10
42.799999999999287
 20
43.348467485783203
 30
0.0
 11
-29.93415058497019
 21
43.505165192841091
 31
0.0
  0
ARC
  5
14CA
  8
SAPA_FYLLNING
 10
-29.934150584970261
 20
49.505165192840067
 30
0.0
 40
5.9999999999989688
 50
90.000000000000668
 51
270.00000000000068
  0
LINE
  5
14CB
  8
SAPA_FYLLNING
 10
-29.934150584970329
 20
55.50516519283903
 30
0.0
 11
44.999999999998202
 21
55.348467485785029
 31
0.0
  0
ARC
  5
14CC
  8
SAPA_FYLLNING
 10
44.999999999998188
 20
61.348467485784127
 30
0.0
 40
5.9999999999990967
 50
270.00000000000011
 51
90.0
  0
LINE
  5
14CD
  8
SAPA_FYLLNING
 10
44.999999999998188
 20
67.348467485783218
 30
0.0
 11
-29.934150584970201
 21
67.505165192839272
 31
0.0
  0
POLYLINE
  5
184F
  8
SAPA_PROFIL
 66
     1
 10
0.0
 20
0.0
 30
0.0
  0
VERTEX
  5
20C4
  8
SAPA_PROFIL
 10
-28.510832501056829
 20
-175.65910872897339
 30
0.0
  0
VERTEX
  5
20C5
  8
SAPA_PROFIL
 10
-31.011943298337322
 20
-175.65910872897339
 30
0.0
  0
VERTEX
  5
20C6
  8
SAPA_PROFIL
 10
-31.96656651853522
 20
-174.6876770825973
 30
0.0
  0
VERTEX
  5
20C7
  8
SAPA_PROFIL
 10
-31.96656651853522
 20
-171.9885958065629
 30
0.0
 42
0.4883397947196166
  0
VERTEX
  5
20C8
  8
SAPA_PROFIL
 10
-31.745943584336999
 20
-170.42687398055449
 30
0.0
  0
VERTEX
  5
20C9
  8
SAPA_PROFIL
 10
-32.827399309607529
 20
-170.3542343044268
 30
0.0
 42
0.4293387945586757
  0
VERTEX
  5
20CA
  8
SAPA_PROFIL
 10
-33.145510445596869
 20
-170.65096082551131
 30
0.0
  0
VERTEX
  5
20CB
  8
SAPA_PROFIL
 10
-33.145510445596869
 20
-175.2000368597995
 30
0.0
  0
VERTEX
  5
20CC
  8
SAPA_PROFIL
 10
-31.51945248940331
 20
-176.85472545742331
 30
0.0
  0
VERTEX
  5
20CD
  8
SAPA_PROFIL
 10
-29.044804733283911
 20
-176.867553058949
 30
0.0
 42
-0.4182129759575377
  0
VERTEX
  5
20CE
  8
SAPA_PROFIL
 10
-28.549293012426691
 20
-177.37871417100459
 30
0.0
  0
VERTEX
  5
20CF
  8
SAPA_PROFIL
 10
-28.703731614081619
 20
-192.0670808986379
 30
0.0
 42
-0.4076789000515417
  0
VERTEX
  5
20D0
  8
SAPA_PROFIL
 10
-31.702981545720089
 20
-194.99999999549749
 30
0.0
  0
VERTEX
  5
20D1
  8
SAPA_PROFIL
 10
-37.202618495350073
 20
-194.99999999549749
 30
0.0
 42
-0.4142135623730951
  0
VERTEX
  5
20D2
  8
SAPA_PROFIL
 10
-37.702618495350073
 20
-194.49999999549749
 30
0.0
  0
VERTEX
  5
20D3
  8
SAPA_PROFIL
 10
-37.702618495350073
 20
-186.74999999549749
 30
0.0
 42
0.4142135623730904
  0
VERTEX
  5
20D4
  8
SAPA_PROFIL
 10
-39.502618495350021
 20
-184.94999999549751
 30
0.0
  0
VERTEX
  5
20D5
  8
SAPA_PROFIL
 10
-40.202618495350059
 20
-184.94999999549751
 30
0.0
 42
-0.4142135623730951
  0
VERTEX
  5
20D6
  8
SAPA_PROFIL
 10
-40.702618495350073
 20
-184.44999999549739
 30
0.0
  0
VERTEX
  5
20D7
  8
SAPA_PROFIL
 10
-40.702618495350073
 20
-174.59833515142441
 30
0.0
  0
VERTEX
  5
20D8
  8
SAPA_PROFIL
 10
-42.330253138325702
 20
-173.30239820950101
 30
0.0
  0
VERTEX
  5
20D9
  8
SAPA_PROFIL
 10
-42.758960828274212
 20
-172.81256793881121
 30
0.0
  0
VERTEX
  5
20DA
  8
SAPA_PROFIL
 10
-42.566654474285258
 20
-170.701688790292
 30
0.0
 42
0.668178637919305
  0
VERTEX
  5
20DB
  8
SAPA_PROFIL
 10
-43.049002326376133
 20
-170.42852259509769
 30
0.0
  0
VERTEX
  5
20DC
  8
SAPA_PROFIL
 10
-45.159109665913768
 20
-171.1994327126022
 30
0.0
 42
0.7332303362618641
  0
VERTEX
  5
20DD
  8
SAPA_PROFIL
 10
-44.958935077343646
 20
-171.73550873525451
 30
0.0
  0
VERTEX
  5
20DE
  8
SAPA_PROFIL
 10
-44.236278983784644
 20
-171.69596584133609
 30
0.0
 42
-0.4666505291506066
  0
VERTEX
  5
20DF
  8
SAPA_PROFIL
 10
-43.974447452740087
 20
-171.97576740725489
 30
0.0
  0
VERTEX
  5
20E0
  8
SAPA_PROFIL
 10
-43.952585475486437
 20
-173.55733907155849
 30
0.0
  0
VERTEX
  5
20E1
  8
SAPA_PROFIL
 10
-42.002618495350021
 20
-175.37908221132369
 30
0.0
  0
VERTEX
  5
20E2
  8
SAPA_PROFIL
 10
-42.00261849535007
 20
-186.50999999549751
 30
0.0
 42
0.4142135623730951
  0
VERTEX
  5
20E3
  8
SAPA_PROFIL
 10
-41.012618495350061
 20
-187.49999999549749
 30
0.0
  0
VERTEX
  5
20E4
  8
SAPA_PROFIL
 10
-41.002618495350021
 20
-187.49999999549749
 30
0.0
  0
VERTEX
  5
20E5
  8
SAPA_PROFIL
 10
-41.002618495350021
 20
-186.24999999549749
 30
0.0
  0
VERTEX
  5
20E6
  8
SAPA_PROFIL
 10
-39.502618495350021
 20
-186.24999999549749
 30
0.0
 42
-0.4142135623730951
  0
VERTEX
  5
20E7
  8
SAPA_PROFIL
 10
-39.002618495350021
 20
-186.74999999549749
 30
0.0
  0
VERTEX
  5
20E8
  8
SAPA_PROFIL
 10
-39.002618495350021
 20
-194.74999999549749
 30
0.0
 42
-0.4142135623730951
  0
VERTEX
  5
20E9
  8
SAPA_PROFIL
 10
-39.502618495350021
 20
-195.24999999549749
 30
0.0
  0
VERTEX
  5
20EA
  8
SAPA_PROFIL
 10
-41.002618495350021
 20
-195.24999999549749
 30
0.0
  0
VERTEX
  5
20EB
  8
SAPA_PROFIL
 10
-41.002618495350021
 20
-193.99999999549749
 30
0.0
  0
VERTEX
  5
20EC
  8
SAPA_PROFIL
 10
-41.012618495350061
 20
-193.99999999549749
 30
0.0
 42
0.4142135623730909
  0
VERTEX
  5
20ED
  8
SAPA_PROFIL
 10
-42.002618495350021
 20
-194.9899999954975
 30
0.0
  0
VERTEX
  5
20EE
  8
SAPA_PROFIL
 10
-42.00261849535007
 20
-196.19999999549759
 30
0.0
 42
0.4142135623730951
  0
VERTEX
  5
20EF
  8
SAPA_PROFIL
 10
-41.702618495350059
 20
-196.49999999549749
 30
0.0
  0
VERTEX
  5
20F0
  8
SAPA_PROFIL
 10
-27.299989012363309
 20
-196.49999999549749
 30
0.0
 42
0.4116598904954198
  0
VERTEX
  5
20F1
  8
SAPA_PROFIL
 10
-27.000000435444012
 20
-196.20261795614701
 30
0.0
  0
VERTEX
  5
20F2
  8
SAPA_PROFIL
 10
-27.000000435444012
 20
-175.18533306245851
 30
0.0
  0
VERTEX
  5
20F3
  8
SAPA_PROFIL
 10
-28.51281715545236
 20
-175.18533306245851
 30
0.0
  0
VERTEX
  5
20F4
  8
SAPA_PROFIL
 10
-28.51281715545236
 20
-175.65910872897339
 30
0.0
  0
SEQEND
  5
20F5
  8
SAPA_PROFIL
  0
POLYLINE
  5
1850
  8
SAPA_PROFIL
 66
     1
 10
0.0
 20
0.0
 30
0.0
 70
     1
  0
VERTEX
  5
20F6
  8
SAPA_PROFIL
 10
-40.123574651803636
 20
-106.5140005205329
 30
0.0
 42
0.4557262555325856
  0
VERTEX
  5
20F7
  8
SAPA_PROFIL
 10
-40.693160682644702
 20
-107.0091341031885
 30
0.0
  0
VERTEX
  5
20F8
  8
SAPA_PROFIL
 10
-40.693160682644702
 20
-108.5158779954975
 30
0.0
  0
VERTEX
  5
20F9
  8
SAPA_PROFIL
 10
-42.193160682644702
 20
-108.5158779954975
 30
0.0
  0
VERTEX
  5
20FA
  8
SAPA_PROFIL
 10
-42.193160682644702
 20
-109.5158779954975
 30
0.0
  0
VERTEX
  5
20FB
  8
SAPA_PROFIL
 10
-52.425629278860377
 20
-109.5158779954975
 30
0.0
  0
VERTEX
  5
20FC
  8
SAPA_PROFIL
 10
-53.291654682644811
 20
-110.0158779954975
 30
0.0
  0
VERTEX
  5
20FD
  8
SAPA_PROFIL
 10
-54.157680086429167
 20
-109.5158779954975
 30
0.0
  0
VERTEX
  5
20FE
  8
SAPA_PROFIL
 10
-64.390148682644877
 20
-109.5158779954975
 30
0.0
  0
VERTEX
  5
20FF
  8
SAPA_PROFIL
 10
-64.390148682644877
 20
-108.5158779954975
 30
0.0
  0
VERTEX
  5
2100
  8
SAPA_PROFIL
 10
-65.890148682644892
 20
-108.5158779954975
 30
0.0
  0
VERTEX
  5
2101
  8
SAPA_PROFIL
 10
-65.890148682644892
 20
-106.5158779954975
 30
0.0
  0
VERTEX
  5
2102
  8
SAPA_PROFIL
 10
-71.724096628471884
 20
-105.4871955685995
 30
0.0
 42
0.4142135623730531
  0
VERTEX
  5
2103
  8
SAPA_PROFIL
 10
-72.303324593811368
 20
-105.8927753562721
 30
0.0
  0
VERTEX
  5
2104
  8
SAPA_PROFIL
 10
-72.390148682644892
 20
-106.3851792327782
 30
0.0
  0
VERTEX
  5
2105
  8
SAPA_PROFIL
 10
-71.700783255536251
 20
-106.506732957145
 30
0.0
 42
-0.6705660098148247
  0
VERTEX
  5
2106
  8
SAPA_PROFIL
 10
-71.582429121657952
 20
-107.0490503103984
 30
0.0
  0
VERTEX
  5
2107
  8
SAPA_PROFIL
 10
-73.96927753046883
 20
-108.69698912161959
 30
0.0
 42
-0.4103557430781616
  0
VERTEX
  5
2108
  8
SAPA_PROFIL
 10
-74.651361765634277
 20
-108.576719267844
 30
0.0
  0
VERTEX
  5
2109
  8
SAPA_PROFIL
 10
-76.330637333922596
 20
-106.21181309255449
 30
0.0
 42
-0.6705660098148535
  0
VERTEX
  5
210A
  8
SAPA_PROFIL
 10
-76.03393736878995
 20
-105.74268097541059
 30
0.0
  0
VERTEX
  5
210B
  8
SAPA_PROFIL
 10
-75.344571941681451
 20
-105.8642346997774
 30
0.0
  0
VERTEX
  5
210C
  8
SAPA_PROFIL
 10
-75.257747852847984
 20
-105.3718308232713
 30
0.0
 42
0.4142135623731039
  0
VERTEX
  5
210D
  8
SAPA_PROFIL
 10
-75.663327640520635
 20
-104.7926028579318
 30
0.0
  0
VERTEX
  5
210E
  8
SAPA_PROFIL
 10
-76.099018698830577
 20
-104.71577876909831
 30
0.0
  0
VERTEX
  5
210F
  8
SAPA_PROFIL
 10
-77.685502677789714
 20
-104.71844935681411
 30
0.0
 42
-0.4147066859862996
  0
VERTEX
  5
2110
  8
SAPA_PROFIL
 10
-80.690552682644764
 20
-101.7184536072419
 30
0.0
  0
VERTEX
  5
2111
  8
SAPA_PROFIL
 10
-80.690552682644764
 20
-94.011824995497534
 30
0.0
 42
0.6638253569871671
  0
VERTEX
  5
2112
  8
SAPA_PROFIL
 10
-81.569738875579375
 20
-93.653851188510416
 30
0.0
  0
VERTEX
  5
2113
  8
SAPA_PROFIL
 10
-83.548777073238085
 20
-95.632889386169012
 30
0.0
 42
0.1989123673796449
  0
VERTEX
  5
2114
  8
SAPA_PROFIL
 10
-83.695223682644738
 20
-95.986442776762317
 30
0.0
  0
VERTEX
  5
2115
  8
SAPA_PROFIL
 10
-83.695223682644738
 20
-107.8047177511625
 30
0.0
 42
0.1989123673796422
  0
VERTEX
  5
2116
  8
SAPA_PROFIL
 10
-83.548777073238057
 20
-108.1582711417558
 30
0.0
  0
VERTEX
  5
2117
  8
SAPA_PROFIL
 10
-78.188030292051479
 20
-113.5190179229423
 30
0.0
 42
-0.1989123673796659
  0
VERTEX
  5
2118
  8
SAPA_PROFIL
 10
-78.041583682644756
 20
-113.8725713135356
 30
0.0
  0
VERTEX
  5
2119
  8
SAPA_PROFIL
 10
-78.041583682644756
 20
-118.51273599549749
 30
0.0
  0
VERTEX
  5
211A
  8
SAPA_PROFIL
 10
-74.791583682644756
 20
-118.51273599549749
 30
0.0
  0
VERTEX
  5
211B
  8
SAPA_PROFIL
 10
-73.291583682644756
 20
-120.01273599549749
 30
0.0
  0
VERTEX
  5
211C
  8
SAPA_PROFIL
 10
-71.791583682644756
 20
-118.51273599549749
 30
0.0
  0
VERTEX
  5
211D
  8
SAPA_PROFIL
 10
-68.192614682644759
 20
-118.51273599549749
 30
0.0
 42
-0.4142140000000165
  0
VERTEX
  5
211E
  8
SAPA_PROFIL
 10
-67.692614682644759
 20
-119.01273599549749
 30
0.0
  0
VERTEX
  5
211F
  8
SAPA_PROFIL
 10
-67.692614682644759
 20
-120.5158779954975
 30
0.0
 42
0.4142140000000145
  0
VERTEX
  5
2120
  8
SAPA_PROFIL
 10
-66.692614682644759
 20
-121.5158779954975
 30
0.0
  0
VERTEX
  5
2121
  8
SAPA_PROFIL
 10
-65.692614682644731
 20
-121.5158779954975
 30
0.0
  0
VERTEX
  5
2122
  8
SAPA_PROFIL
 10
-63.747619258956362
 20
-114.2570588635749
 30
0.0
 42
-0.3394542338034085
  0
VERTEX
  5
2123
  8
SAPA_PROFIL
 10
-62.78169345593065
 20
-113.5158779954975
 30
0.0
  0
VERTEX
  5
2124
  8
SAPA_PROFIL
 10
-43.803534774959083
 20
-113.5158779954975
 30
0.0
 42
-0.3394542744563553
  0
VERTEX
  5
2125
  8
SAPA_PROFIL
 10
-42.837608934194847
 20
-114.2570590044167
 30
0.0
  0
VERTEX
  5
2126
  8
SAPA_PROFIL
 10
-40.892614682644698
 20
-121.5158779954975
 30
0.0
  0
VERTEX
  5
2127
  8
SAPA_PROFIL
 10
-39.892614682644712
 20
-121.5158779954975
 30
0.0
 42
0.4142139999999982
  0
VERTEX
  5
2128
  8
SAPA_PROFIL
 10
-38.892614682644819
 20
-120.5158779954975
 30
0.0
  0
VERTEX
  5
2129
  8
SAPA_PROFIL
 10
-38.892614682644712
 20
-119.0254719954975
 30
0.0
 42
-0.4142140000000124
  0
VERTEX
  5
212A
  8
SAPA_PROFIL
 10
-38.392614682644727
 20
-118.5254719954975
 30
0.0
  0
VERTEX
  5
212B
  8
SAPA_PROFIL
 10
-34.792614682644803
 20
-118.5254719954975
 30
0.0
  0
VERTEX
  5
212C
  8
SAPA_PROFIL
 10
-33.292614682644803
 20
-120.0254719954975
 30
0.0
  0
VERTEX
  5
212D
  8
SAPA_PROFIL
 10
-31.7926146826448
 20
-118.5254719954975
 30
0.0
  0
VERTEX
  5
212E
  8
SAPA_PROFIL
 10
-28.542614682644739
 20
-118.5254719954975
 30
0.0
  0
VERTEX
  5
212F
  8
SAPA_PROFIL
 10
-28.542614682644739
 20
-110.5129179384991
 30
0.0
 42
0.3780475071674513
  0
VERTEX
  5
2130
  8
SAPA_PROFIL
 10
-31.168479695161409
 20
-107.5363388599022
 30
0.0
  0
VERTEX
  5
2131
  8
SAPA_PROFIL
 10
-34.059361241239941
 20
-107.17297544757579
 30
0.0
 42
0.4247728136669583
  0
VERTEX
  5
2132
  8
SAPA_PROFIL
 10
-35.193160682644759
 20
-108.05971899549751
 30
0.0
  0
VERTEX
  5
2133
  8
SAPA_PROFIL
 10
-33.943160682644702
 20
-108.05971899549751
 30
0.0
  0
VERTEX
  5
2134
  8
SAPA_PROFIL
 10
-33.943160682644702
 20
-109.1597189954975
 30
0.0
  0
VERTEX
  5
2135
  8
SAPA_PROFIL
 10
-39.143160682644783
 20
-109.1597189954975
 30
0.0
  0
VERTEX
  5
2136
  8
SAPA_PROFIL
 10
-39.143160682644783
 20
-108.05971899549751
 30
0.0
  0
VERTEX
  5
2137
  8
SAPA_PROFIL
 10
-37.893160682644783
 20
-108.05971899549751
 30
0.0
  0
VERTEX
  5
2138
  8
SAPA_PROFIL
 10
-37.893160682644783
 20
-107.6861968521447
 30
0.0
 42
0.3760477967976817
  0
VERTEX
  5
2139
  8
SAPA_PROFIL
 10
-38.76150358218414
 20
-106.69490153393809
 30
0.0
  0
SEQEND
  5
213A
  8
SAPA_PROFIL
  0
POLYLINE
  5
1851
  8
SAPA_PROFIL
 66
     1
 10
0.0
 20
0.0
 30
0.0
 70
     1
  0
VERTEX
  5
213B
  8
SAPA_PROFIL
 10
-66.461239746861182
 20
-100.511471470462
 30
0.0
 42
0.4557262555325856
  0
VERTEX
  5
213C
  8
SAPA_PROFIL
 10
-65.891653716020116
 20
-100.0163378878064
 30
0.0
  0
VERTEX
  5
213D
  8
SAPA_PROFIL
 10
-65.891653716020116
 20
-98.509593995497454
 30
0.0
  0
VERTEX
  5
213E
  8
SAPA_PROFIL
 10
-64.391653716020116
 20
-98.509593995497454
 30
0.0
  0
VERTEX
  5
213F
  8
SAPA_PROFIL
 10
-64.391653716020116
 20
-97.509593995497454
 30
0.0
  0
VERTEX
  5
2140
  8
SAPA_PROFIL
 10
-54.159185119804427
 20
-97.509593995497454
 30
0.0
  0
VERTEX
  5
2141
  8
SAPA_PROFIL
 10
-53.293159716020007
 20
-97.009593995497454
 30
0.0
  0
VERTEX
  5
2142
  8
SAPA_PROFIL
 10
-52.427134312235651
 20
-97.509593995497454
 30
0.0
  0
VERTEX
  5
2143
  8
SAPA_PROFIL
 10
-42.194665716019948
 20
-97.509593995497454
 30
0.0
  0
VERTEX
  5
2144
  8
SAPA_PROFIL
 10
-42.194665716019948
 20
-98.509593995497454
 30
0.0
  0
VERTEX
  5
2145
  8
SAPA_PROFIL
 10
-40.694665716019941
 20
-98.509593995497454
 30
0.0
  0
VERTEX
  5
2146
  8
SAPA_PROFIL
 10
-40.694665716019941
 20
-100.5095939954974
 30
0.0
  0
VERTEX
  5
2147
  8
SAPA_PROFIL
 10
-34.860717770192949
 20
-101.5382764223954
 30
0.0
 42
0.4142135623730531
  0
VERTEX
  5
2148
  8
SAPA_PROFIL
 10
-34.281489804853457
 20
-101.13269663472281
 30
0.0
  0
VERTEX
  5
2149
  8
SAPA_PROFIL
 10
-34.194665716019941
 20
-100.6402927582167
 30
0.0
  0
VERTEX
  5
214A
  8
SAPA_PROFIL
 10
-34.884031143128581
 20
-100.51873903385
 30
0.0
 42
-0.6705660098148247
  0
VERTEX
  5
214B
  8
SAPA_PROFIL
 10
-35.00238527700688
 20
-99.976421680596545
 30
0.0
  0
VERTEX
  5
214C
  8
SAPA_PROFIL
 10
-32.615536868196003
 20
-98.328482869375406
 30
0.0
 42
-0.4103557430781616
  0
VERTEX
  5
214D
  8
SAPA_PROFIL
 10
-31.933452633030559
 20
-98.44875272315096
 30
0.0
  0
VERTEX
  5
214E
  8
SAPA_PROFIL
 10
-30.25417706474224
 20
-100.81365889844039
 30
0.0
 42
-0.6705660098148535
  0
VERTEX
  5
214F
  8
SAPA_PROFIL
 10
-30.550877029874879
 20
-101.28279101558429
 30
0.0
  0
VERTEX
  5
2150
  8
SAPA_PROFIL
 10
-31.240242456983381
 20
-101.1612372912175
 30
0.0
  0
VERTEX
  5
2151
  8
SAPA_PROFIL
 10
-31.327066545816852
 20
-101.65364116772361
 30
0.0
 42
0.4142135623731039
  0
VERTEX
  5
2152
  8
SAPA_PROFIL
 10
-30.921486758144201
 20
-102.2328691330631
 30
0.0
  0
VERTEX
  5
2153
  8
SAPA_PROFIL
 10
-30.485795699834259
 20
-102.30969322189669
 30
0.0
  0
VERTEX
  5
2154
  8
SAPA_PROFIL
 10
-28.899311720875119
 20
-102.3070226341809
 30
0.0
 42
-0.4147066859862996
  0
VERTEX
  5
2155
  8
SAPA_PROFIL
 10
-25.894261716020051
 20
-105.307018383753
 30
0.0
  0
VERTEX
  5
2156
  8
SAPA_PROFIL
 10
-25.894261716020051
 20
-113.0136469954974
 30
0.0
 42
0.6638253569871671
  0
VERTEX
  5
2157
  8
SAPA_PROFIL
 10
-25.015075523085471
 20
-113.3716208024845
 30
0.0
  0
VERTEX
  5
2158
  8
SAPA_PROFIL
 10
-23.036037325426751
 20
-111.392582604826
 30
0.0
 42
0.1989123673796449
  0
VERTEX
  5
2159
  8
SAPA_PROFIL
 10
-22.889590716020081
 20
-111.0390292142326
 30
0.0
  0
VERTEX
  5
215A
  8
SAPA_PROFIL
 10
-22.889590716020081
 20
-99.220754239832473
 30
0.0
 42
0.1989123673796422
  0
VERTEX
  5
215B
  8
SAPA_PROFIL
 10
-23.036037325426769
 20
-98.867200849239197
 30
0.0
  0
VERTEX
  5
215C
  8
SAPA_PROFIL
 10
-28.396784106613339
 20
-93.506454068052648
 30
0.0
 42
-0.1989123673796659
  0
VERTEX
  5
215D
  8
SAPA_PROFIL
 10
-28.543230716020059
 20
-93.152900677459371
 30
0.0
  0
VERTEX
  5
215E
  8
SAPA_PROFIL
 10
-28.543230716020059
 20
-88.512735995497465
 30
0.0
  0
VERTEX
  5
215F
  8
SAPA_PROFIL
 10
-31.793230716020059
 20
-88.512735995497465
 30
0.0
  0
VERTEX
  5
2160
  8
SAPA_PROFIL
 10
-33.293230716020069
 20
-87.012735995497479
 30
0.0
  0
VERTEX
  5
2161
  8
SAPA_PROFIL
 10
-34.793230716020062
 20
-88.512735995497465
 30
0.0
  0
VERTEX
  5
2162
  8
SAPA_PROFIL
 10
-38.392199716020059
 20
-88.512735995497465
 30
0.0
 42
-0.4142140000000165
  0
VERTEX
  5
2163
  8
SAPA_PROFIL
 10
-38.892199716020059
 20
-88.012735995497479
 30
0.0
  0
VERTEX
  5
2164
  8
SAPA_PROFIL
 10
-38.892199716020059
 20
-86.509593995497482
 30
0.0
 42
0.4142140000000145
  0
VERTEX
  5
2165
  8
SAPA_PROFIL
 10
-39.892199716020059
 20
-85.509593995497454
 30
0.0
  0
VERTEX
  5
2166
  8
SAPA_PROFIL
 10
-40.89219971602008
 20
-85.509593995497482
 30
0.0
  0
VERTEX
  5
2167
  8
SAPA_PROFIL
 10
-42.837195139708449
 20
-92.768413127420047
 30
0.0
 42
-0.3394542338034085
  0
VERTEX
  5
2168
  8
SAPA_PROFIL
 10
-43.803120942734161
 20
-93.509593995497454
 30
0.0
  0
VERTEX
  5
2169
  8
SAPA_PROFIL
 10
-62.781279623705743
 20
-93.509593995497454
 30
0.0
 42
-0.3394542744563553
  0
VERTEX
  5
216A
  8
SAPA_PROFIL
 10
-63.747205464469957
 20
-92.768412986578227
 30
0.0
  0
VERTEX
  5
216B
  8
SAPA_PROFIL
 10
-65.692199716020113
 20
-85.509593995497454
 30
0.0
  0
VERTEX
  5
216C
  8
SAPA_PROFIL
 10
-66.692199716020113
 20
-85.509593995497454
 30
0.0
 42
0.4142139999999982
  0
VERTEX
  5
216D
  8
SAPA_PROFIL
 10
-67.692199716019999
 20
-86.509593995497454
 30
0.0
  0
VERTEX
  5
216E
  8
SAPA_PROFIL
 10
-67.692199716020113
 20
-87.999999995497433
 30
0.0
 42
-0.4142140000000124
  0
VERTEX
  5
216F
  8
SAPA_PROFIL
 10
-68.192199716020085
 20
-88.499999995497419
 30
0.0
  0
VERTEX
  5
2170
  8
SAPA_PROFIL
 10
-71.792199716020022
 20
-88.499999995497419
 30
0.0
  0
VERTEX
  5
2171
  8
SAPA_PROFIL
 10
-73.292199716020022
 20
-86.999999995497447
 30
0.0
  0
VERTEX
  5
2172
  8
SAPA_PROFIL
 10
-74.792199716020022
 20
-88.499999995497404
 30
0.0
  0
VERTEX
  5
2173
  8
SAPA_PROFIL
 10
-78.042199716020079
 20
-88.499999995497404
 30
0.0
  0
VERTEX
  5
2174
  8
SAPA_PROFIL
 10
-78.042199716020079
 20
-96.512554052495801
 30
0.0
 42
0.3780475071674513
  0
VERTEX
  5
2175
  8
SAPA_PROFIL
 10
-75.416334703503395
 20
-99.489133131092757
 30
0.0
  0
VERTEX
  5
2176
  8
SAPA_PROFIL
 10
-72.525453157424863
 20
-99.852496543419136
 30
0.0
 42
0.4247728136669583
  0
VERTEX
  5
2177
  8
SAPA_PROFIL
 10
-71.391653716020059
 20
-98.965752995497468
 30
0.0
  0
VERTEX
  5
2178
  8
SAPA_PROFIL
 10
-72.641653716020116
 20
-98.965752995497468
 30
0.0
  0
VERTEX
  5
2179
  8
SAPA_PROFIL
 10
-72.641653716020116
 20
-97.865752995497445
 30
0.0
  0
VERTEX
  5
217A
  8
SAPA_PROFIL
 10
-67.441653716020042
 20
-97.865752995497445
 30
0.0
  0
VERTEX
  5
217B
  8
SAPA_PROFIL
 10
-67.441653716020042
 20
-98.965752995497468
 30
0.0
  0
VERTEX
  5
217C
  8
SAPA_PROFIL
 10
-68.691653716020042
 20
-98.965752995497468
 30
0.0
  0
VERTEX
  5
217D
  8
SAPA_PROFIL
 10
-68.691653716020042
 20
-99.33927513885024
 30
0.0
 42
0.3760477967976817
  0
VERTEX
  5
217E
  8
SAPA_PROFIL
 10
-67.823310816480685
 20
-100.33057045705679
 30
0.0
  0
SEQEND
  5
217F
  8
SAPA_PROFIL
  0
POLYLINE
  5
1852
  8
SAPA_PROFIL
 66
     1
 10
0.0
 20
0.0
 30
0.0
 70
     1
  0
VERTEX
  5
2180
  8
SAPA_PROFIL
 10
-79.20000043544394
 20
-131.69999999549739
 30
0.0
 42
0.4142135623730951
  0
VERTEX
  5
2181
  8
SAPA_PROFIL
 10
-79.500000435444008
 20
-131.9999999954974
 30
0.0
  0
VERTEX
  5
2182
  8
SAPA_PROFIL
 10
-79.500000435443781
 20
-166.8757359267853
 30
0.0
 42
0.198912367379658
  0
VERTEX
  5
2183
  8
SAPA_PROFIL
 10
-79.412132469799872
 20
-167.08786796114131
 30
0.0
  0
VERTEX
  5
2184
  8
SAPA_PROFIL
 10
-76.087868401087917
 20
-170.41213202985321
 30
0.0
 42
0.1989123673796998
  0
VERTEX
  5
2185
  8
SAPA_PROFIL
 10
-75.875736366731871
 20
-170.49999999549729
 30
0.0
  0
VERTEX
  5
2186
  8
SAPA_PROFIL
 10
-72.400000435443872
 20
-170.49999999549721
 30
0.0
 42
0.4142135623730951
  0
VERTEX
  5
2187
  8
SAPA_PROFIL
 10
-72.100000435443917
 20
-170.19999999549731
 30
0.0
  0
VERTEX
  5
2188
  8
SAPA_PROFIL
 10
-72.100000435443803
 20
-162.7999999954973
 30
0.0
 42
-0.4142135623730951
  0
VERTEX
  5
2189
  8
SAPA_PROFIL
 10
-71.800000435443849
 20
-162.49999999549729
 30
0.0
  0
VERTEX
  5
218A
  8
SAPA_PROFIL
 10
-70.200000435443826
 20
-162.49999999549729
 30
0.0
 42
-0.4142135623730951
  0
VERTEX
  5
218B
  8
SAPA_PROFIL
 10
-69.900000435443872
 20
-162.7999999954973
 30
0.0
  0
VERTEX
  5
218C
  8
SAPA_PROFIL
 10
-69.900000435443872
 20
-171.19999999549731
 30
0.0
 42
0.4142135623730951
  0
VERTEX
  5
218D
  8
SAPA_PROFIL
 10
-69.600000435443917
 20
-171.49999999549729
 30
0.0
  0
VERTEX
  5
218E
  8
SAPA_PROFIL
 10
-56.800000435443849
 20
-171.49999999549721
 30
0.0
 42
0.4142135623730951
  0
VERTEX
  5
218F
  8
SAPA_PROFIL
 10
-56.500000435443887
 20
-171.19999999549731
 30
0.0
  0
VERTEX
  5
2190
  8
SAPA_PROFIL
 10
-56.500000435443887
 20
-167.19999999549731
 30
0.0
 42
-0.6681786379192989
  0
VERTEX
  5
2191
  8
SAPA_PROFIL
 10
-55.646447044850902
 20
-166.84644660490429
 30
0.0
  0
VERTEX
  5
2192
  8
SAPA_PROFIL
 10
-54.500000435443887
 20
-167.99289321431129
 30
0.0
  0
VERTEX
  5
2193
  8
SAPA_PROFIL
 10
-54.500000435443887
 20
-171.19999999549731
 30
0.0
 42
0.4142135623730951
  0
VERTEX
  5
2194
  8
SAPA_PROFIL
 10
-54.20000043544394
 20
-171.49999999549729
 30
0.0
  0
VERTEX
  5
2195
  8
SAPA_PROFIL
 10
-53.366025839227859
 20
-171.49999999549729
 30
0.0
  0
VERTEX
  5
2196
  8
SAPA_PROFIL
 10
-52.500000435443887
 20
-171.99999999549729
 30
0.0
  0
VERTEX
  5
2197
  8
SAPA_PROFIL
 10
-51.633975031659929
 20
-171.49999999549729
 30
0.0
  0
VERTEX
  5
2198
  8
SAPA_PROFIL
 10
-50.800000435443849
 20
-171.49999999549721
 30
0.0
 42
0.4142135623730951
  0
VERTEX
  5
2199
  8
SAPA_PROFIL
 10
-50.500000435443901
 20
-171.19999999549731
 30
0.0
  0
VERTEX
  5
219A
  8
SAPA_PROFIL
 10
-50.500000435443901
 20
-167.49999999549729
 30
0.0
  0
VERTEX
  5
219B
  8
SAPA_PROFIL
 10
-49.500000435443887
 20
-166.49999999549729
 30
0.0
  0
VERTEX
  5
219C
  8
SAPA_PROFIL
 10
-35.400000435443872
 20
-166.49999999549729
 30
0.0
 42
0.4142135623730951
  0
VERTEX
  5
219D
  8
SAPA_PROFIL
 10
-35.100000435443917
 20
-166.19999999549731
 30
0.0
  0
VERTEX
  5
219E
  8
SAPA_PROFIL
 10
-35.100000435443917
 20
-162.7999999954973
 30
0.0
 42
-0.4142135623730951
  0
VERTEX
  5
219F
  8
SAPA_PROFIL
 10
-34.800000435443849
 20
-162.49999999549729
 30
0.0
  0
VERTEX
  5
21A0
  8
SAPA_PROFIL
 10
-33.20000043544394
 20
-162.49999999549729
 30
0.0
 42
-0.4142135623730951
  0
VERTEX
  5
21A1
  8
SAPA_PROFIL
 10
-32.900000435443992
 20
-162.7999999954973
 30
0.0
  0
VERTEX
  5
21A2
  8
SAPA_PROFIL
 10
-32.900000435443872
 20
-166.19999999549731
 30
0.0
 42
0.4142135623730951
  0
VERTEX
  5
21A3
  8
SAPA_PROFIL
 10
-32.600000435443917
 20
-166.49999999549721
 30
0.0
  0
VERTEX
  5
21A4
  8
SAPA_PROFIL
 10
-25.800000435443849
 20
-166.49999999549729
 30
0.0
 42
0.4142135623730951
  0
VERTEX
  5
21A5
  8
SAPA_PROFIL
 10
-25.500000435443901
 20
-166.19999999549731
 30
0.0
  0
VERTEX
  5
21A6
  8
SAPA_PROFIL
 10
-25.500000435444012
 20
-131.99999999549729
 30
0.0
 42
0.4142135623730951
  0
VERTEX
  5
21A7
  8
SAPA_PROFIL
 10
-25.80000043544397
 20
-131.69999999549731
 30
0.0
  0
VERTEX
  5
21A8
  8
SAPA_PROFIL
 10
-32.600000435444031
 20
-131.69999999549719
 30
0.0
 42
0.4142135623730951
  0
VERTEX
  5
21A9
  8
SAPA_PROFIL
 10
-32.900000435443992
 20
-131.99999999549729
 30
0.0
  0
VERTEX
  5
21AA
  8
SAPA_PROFIL
 10
-32.900000435443992
 20
-135.3999999954973
 30
0.0
 42
-0.4142135623730951
  0
VERTEX
  5
21AB
  8
SAPA_PROFIL
 10
-33.200000435444061
 20
-135.69999999549719
 30
0.0
  0
VERTEX
  5
21AC
  8
SAPA_PROFIL
 10
-34.800000435443962
 20
-135.69999999549719
 30
0.0
 42
-0.4142135623730951
  0
VERTEX
  5
21AD
  8
SAPA_PROFIL
 10
-35.100000435443917
 20
-135.3999999954973
 30
0.0
  0
VERTEX
  5
21AE
  8
SAPA_PROFIL
 10
-35.100000435444031
 20
-130.79999999549719
 30
0.0
 42
0.4142135623730951
  0
VERTEX
  5
21AF
  8
SAPA_PROFIL
 10
-35.400000435443992
 20
-130.49999999549729
 30
0.0
  0
VERTEX
  5
21B0
  8
SAPA_PROFIL
 10
-69.600000435444031
 20
-130.49999999549729
 30
0.0
 42
0.4142135623730951
  0
VERTEX
  5
21B1
  8
SAPA_PROFIL
 10
-69.900000435443985
 20
-130.79999999549719
 30
0.0
  0
VERTEX
  5
21B2
  8
SAPA_PROFIL
 10
-69.900000435443985
 20
-135.3999999954973
 30
0.0
 42
-0.4142135623730951
  0
VERTEX
  5
21B3
  8
SAPA_PROFIL
 10
-70.20000043544394
 20
-135.69999999549719
 30
0.0
  0
VERTEX
  5
21B4
  8
SAPA_PROFIL
 10
-71.800000435443962
 20
-135.69999999549719
 30
0.0
 42
-0.4142135623730951
  0
VERTEX
  5
21B5
  8
SAPA_PROFIL
 10
-72.100000435443917
 20
-135.3999999954973
 30
0.0
  0
VERTEX
  5
21B6
  8
SAPA_PROFIL
 10
-72.100000435444031
 20
-131.99999999549729
 30
0.0
 42
0.4142135623730951
  0
VERTEX
  5
21B7
  8
SAPA_PROFIL
 10
-72.400000435443985
 20
-131.69999999549731
 30
0.0
  0
SEQEND
  5
21B8
  8
SAPA_PROFIL
  0
POLYLINE
  5
1853
  8
SAPA_PROFIL
 66
     1
 10
0.0
 20
0.0
 30
0.0
 70
     1
  0
VERTEX
  5
21B9
  8
SAPA_PROFIL
 10
-74.700000435444153
 20
-120.19999999549729
 30
0.0
 42
-0.4142135623730951
  0
VERTEX
  5
21BA
  8
SAPA_PROFIL
 10
-75.000000435444122
 20
-120.4999999954974
 30
0.0
  0
VERTEX
  5
21BB
  8
SAPA_PROFIL
 10
-75.450000435444153
 20
-120.4999999954975
 30
0.0
 42
0.4142135623730951
  0
VERTEX
  5
21BC
  8
SAPA_PROFIL
 10
-75.750000435444122
 20
-120.7999999954974
 30
0.0
  0
VERTEX
  5
21BD
  8
SAPA_PROFIL
 10
-75.750000435444122
 20
-121.49999999549721
 30
0.0
 42
0.4142135623731506
  0
VERTEX
  5
21BE
  8
SAPA_PROFIL
 10
-75.450000435444153
 20
-121.7999999954973
 30
0.0
  0
VERTEX
  5
21BF
  8
SAPA_PROFIL
 10
-75.000000435444122
 20
-121.7999999954973
 30
0.0
 42
-0.4142135623731506
  0
VERTEX
  5
21C0
  8
SAPA_PROFIL
 10
-74.700000435444153
 20
-122.0999999954974
 30
0.0
  0
VERTEX
  5
21C1
  8
SAPA_PROFIL
 10
-74.700000435444053
 20
-122.5999999954974
 30
0.0
 42
-0.4142135623730951
  0
VERTEX
  5
21C2
  8
SAPA_PROFIL
 10
-75.200000435444053
 20
-123.0999999954974
 30
0.0
  0
VERTEX
  5
21C3
  8
SAPA_PROFIL
 10
-76.600000435444031
 20
-123.0999999954974
 30
0.0
 42
0.4142135623730951
  0
VERTEX
  5
21C4
  8
SAPA_PROFIL
 10
-77.600000435444031
 20
-124.0999999954974
 30
0.0
  0
VERTEX
  5
21C5
  8
SAPA_PROFIL
 10
-77.600000435444144
 20
-124.4999999954973
 30
0.0
 42
0.9999999999999998
  0
VERTEX
  5
21C6
  8
SAPA_PROFIL
 10
-70.400000435444085
 20
-124.4999999954973
 30
0.0
  0
VERTEX
  5
21C7
  8
SAPA_PROFIL
 10
-70.400000435443985
 20
-123.3999999954972
 30
0.0
 42
0.4142135623732059
  0
VERTEX
  5
21C8
  8
SAPA_PROFIL
 10
-70.700000435444053
 20
-123.0999999954971
 30
0.0
  0
VERTEX
  5
21C9
  8
SAPA_PROFIL
 10
-71.000000435443894
 20
-123.0999999954973
 30
0.0
 42
-0.4142135623733948
  0
VERTEX
  5
21CA
  8
SAPA_PROFIL
 10
-71.500000435444235
 20
-122.5999999954973
 30
0.0
  0
VERTEX
  5
21CB
  8
SAPA_PROFIL
 10
-71.500000435444235
 20
-122.0999999954973
 30
0.0
 42
-0.4142135623730397
  0
VERTEX
  5
21CC
  8
SAPA_PROFIL
 10
-71.200000435444281
 20
-121.7999999954974
 30
0.0
  0
VERTEX
  5
21CD
  8
SAPA_PROFIL
 10
-70.750000435444122
 20
-121.7999999954972
 30
0.0
 42
0.4142135623731505
  0
VERTEX
  5
21CE
  8
SAPA_PROFIL
 10
-70.450000435444153
 20
-121.49999999549721
 30
0.0
  0
VERTEX
  5
21CF
  8
SAPA_PROFIL
 10
-70.450000435444153
 20
-120.7999999954974
 30
0.0
 42
0.4142135623730951
  0
VERTEX
  5
21D0
  8
SAPA_PROFIL
 10
-70.750000435444122
 20
-120.4999999954973
 30
0.0
  0
VERTEX
  5
21D1
  8
SAPA_PROFIL
 10
-71.200000435444167
 20
-120.4999999954973
 30
0.0
 42
-0.4142135623730951
  0
VERTEX
  5
21D2
  8
SAPA_PROFIL
 10
-71.500000435444235
 20
-120.19999999549719
 30
0.0
  0
VERTEX
  5
21D3
  8
SAPA_PROFIL
 10
-71.500000435443667
 20
-119.49999999549679
 30
0.0
 42
-0.2504916501726643
  0
VERTEX
  5
21D4
  8
SAPA_PROFIL
 10
-70.500000435444235
 20
-118.4999999954973
 30
0.0
  0
VERTEX
  5
21D5
  8
SAPA_PROFIL
 10
-68.200000435444167
 20
-118.4999999954973
 30
0.0
 42
-0.4142135623730951
  0
VERTEX
  5
21D6
  8
SAPA_PROFIL
 10
-67.200000435444153
 20
-119.4999999954973
 30
0.0
  0
VERTEX
  5
21D7
  8
SAPA_PROFIL
 10
-67.200000435444153
 20
-127.19999999549719
 30
0.0
 42
0.4142135623730951
  0
VERTEX
  5
21D8
  8
SAPA_PROFIL
 10
-66.900000435444213
 20
-127.4999999954973
 30
0.0
  0
VERTEX
  5
21D9
  8
SAPA_PROFIL
 10
-53.366025839227973
 20
-127.4999999954973
 30
0.0
  0
VERTEX
  5
21DA
  8
SAPA_PROFIL
 10
-52.500000435444001
 20
-127.9999999954973
 30
0.0
  0
VERTEX
  5
21DB
  8
SAPA_PROFIL
 10
-51.633975031660043
 20
-127.4999999954973
 30
0.0
  0
VERTEX
  5
21DC
  8
SAPA_PROFIL
 10
-38.100000435444031
 20
-127.49999999549721
 30
0.0
 42
0.4142135623730951
  0
VERTEX
  5
21DD
  8
SAPA_PROFIL
 10
-37.800000435443849
 20
-127.19999999549719
 30
0.0
  0
VERTEX
  5
21DE
  8
SAPA_PROFIL
 10
-37.800000435443849
 20
-119.4999999954973
 30
0.0
 42
-0.4142135623730951
  0
VERTEX
  5
21DF
  8
SAPA_PROFIL
 10
-36.800000435443849
 20
-118.4999999954973
 30
0.0
  0
VERTEX
  5
21E0
  8
SAPA_PROFIL
 10
-34.500000435443781
 20
-118.4999999954973
 30
0.0
 42
-0.2504916501726643
  0
VERTEX
  5
21E1
  8
SAPA_PROFIL
 10
-33.500000435444349
 20
-119.49999999549679
 30
0.0
  0
VERTEX
  5
21E2
  8
SAPA_PROFIL
 10
-33.500000435443781
 20
-120.19999999549719
 30
0.0
 42
-0.4142135623730951
  0
VERTEX
  5
21E3
  8
SAPA_PROFIL
 10
-33.800000435443849
 20
-120.4999999954973
 30
0.0
  0
VERTEX
  5
21E4
  8
SAPA_PROFIL
 10
-34.250000435443901
 20
-120.4999999954973
 30
0.0
 42
0.4142135623730951
  0
VERTEX
  5
21E5
  8
SAPA_PROFIL
 10
-34.550000435443849
 20
-120.7999999954974
 30
0.0
  0
VERTEX
  5
21E6
  8
SAPA_PROFIL
 10
-34.550000435443849
 20
-121.49999999549721
 30
0.0
 42
0.4142135623731506
  0
VERTEX
  5
21E7
  8
SAPA_PROFIL
 10
-34.250000435443901
 20
-121.7999999954972
 30
0.0
  0
VERTEX
  5
21E8
  8
SAPA_PROFIL
 10
-33.800000435443742
 20
-121.7999999954974
 30
0.0
 42
-0.4142135623730397
  0
VERTEX
  5
21E9
  8
SAPA_PROFIL
 10
-33.500000435443781
 20
-122.0999999954973
 30
0.0
  0
VERTEX
  5
21EA
  8
SAPA_PROFIL
 10
-33.500000435443781
 20
-122.5999999954973
 30
0.0
 42
-0.4142135623733948
  0
VERTEX
  5
21EB
  8
SAPA_PROFIL
 10
-34.000000435444122
 20
-123.0999999954973
 30
0.0
  0
VERTEX
  5
21EC
  8
SAPA_PROFIL
 10
-34.300000435443962
 20
-123.0999999954971
 30
0.0
 42
0.4142135623732059
  0
VERTEX
  5
21ED
  8
SAPA_PROFIL
 10
-34.600000435444031
 20
-123.3999999954972
 30
0.0
  0
VERTEX
  5
21EE
  8
SAPA_PROFIL
 10
-34.600000435443917
 20
-124.4999999954973
 30
0.0
 42
0.9999999999999998
  0
VERTEX
  5
21EF
  8
SAPA_PROFIL
 10
-27.400000435443872
 20
-124.4999999954973
 30
0.0
  0
VERTEX
  5
21F0
  8
SAPA_PROFIL
 10
-27.400000435443982
 20
-124.0999999954973
 30
0.0
 42
0.4142135623730951
  0
VERTEX
  5
21F1
  8
SAPA_PROFIL
 10
-28.400000435443989
 20
-123.0999999954973
 30
0.0
  0
VERTEX
  5
21F2
  8
SAPA_PROFIL
 10
-29.800000435443959
 20
-123.0999999954973
 30
0.0
 42
-0.4142135623730951
  0
VERTEX
  5
21F3
  8
SAPA_PROFIL
 10
-30.300000435443959
 20
-122.5999999954973
 30
0.0
  0
VERTEX
  5
21F4
  8
SAPA_PROFIL
 10
-30.300000435443849
 20
-122.0999999954973
 30
0.0
 42
-0.4142135623731506
  0
VERTEX
  5
21F5
  8
SAPA_PROFIL
 10
-30.000000435443891
 20
-121.7999999954972
 30
0.0
  0
VERTEX
  5
21F6
  8
SAPA_PROFIL
 10
-29.550000435443849
 20
-121.7999999954972
 30
0.0
 42
0.4142135623731505
  0
VERTEX
  5
21F7
  8
SAPA_PROFIL
 10
-29.250000435443901
 20
-121.49999999549721
 30
0.0
  0
VERTEX
  5
21F8
  8
SAPA_PROFIL
 10
-29.250000435443901
 20
-120.7999999954974
 30
0.0
 42
0.4142135623730951
  0
VERTEX
  5
21F9
  8
SAPA_PROFIL
 10
-29.550000435443849
 20
-120.4999999954974
 30
0.0
  0
VERTEX
  5
21FA
  8
SAPA_PROFIL
 10
-30.000000435443891
 20
-120.4999999954973
 30
0.0
 42
-0.4142135623730951
  0
VERTEX
  5
21FB
  8
SAPA_PROFIL
 10
-30.300000435443849
 20
-120.19999999549719
 30
0.0
  0
VERTEX
  5
21FC
  8
SAPA_PROFIL
 10
-30.300000435443849
 20
-119.4999999954973
 30
0.0
 42
-0.2504916501726753
  0
VERTEX
  5
21FD
  8
SAPA_PROFIL
 10
-29.300000435443621
 20
-118.49999999549679
 30
0.0
  0
VERTEX
  5
21FE
  8
SAPA_PROFIL
 10
-26.914213997816891
 20
-118.4999999954973
 30
0.0
 42
-0.1989123673796728
  0
VERTEX
  5
21FF
  8
SAPA_PROFIL
 10
-26.207107216630341
 20
-118.79289321431069
 30
0.0
  0
VERTEX
  5
2200
  8
SAPA_PROFIL
 10
-23.378680091884799
 20
-121.62132033905721
 30
0.0
 42
-0.1989123673796725
  0
VERTEX
  5
2201
  8
SAPA_PROFIL
 10
-22.500000435444012
 20
-123.7426406826163
 30
0.0
  0
VERTEX
  5
2202
  8
SAPA_PROFIL
 10
-22.500000435443891
 20
-169.2573593083784
 30
0.0
 42
-0.1989123673796575
  0
VERTEX
  5
2203
  8
SAPA_PROFIL
 10
-23.37868009188389
 20
-171.37867965193729
 30
0.0
  0
VERTEX
  5
2204
  8
SAPA_PROFIL
 10
-26.207107216630341
 20
-174.2071067766839
 30
0.0
 42
-0.198912367379658
  0
VERTEX
  5
2205
  8
SAPA_PROFIL
 10
-26.914213997816891
 20
-174.49999999549729
 30
0.0
  0
VERTEX
  5
2206
  8
SAPA_PROFIL
 10
-30.000000435443891
 20
-174.49999999549729
 30
0.0
  0
VERTEX
  5
2207
  8
SAPA_PROFIL
 10
-31.000000435443891
 20
-173.49999999549729
 30
0.0
  0
VERTEX
  5
2208
  8
SAPA_PROFIL
 10
-31.000000435443891
 20
-172.49999999549729
 30
0.0
  0
VERTEX
  5
2209
  8
SAPA_PROFIL
 10
-28.95000043544394
 20
-172.49999999549721
 30
0.0
 42
0.4142135623730951
  0
VERTEX
  5
220A
  8
SAPA_PROFIL
 10
-28.650000435443872
 20
-172.19999999549731
 30
0.0
  0
VERTEX
  5
220B
  8
SAPA_PROFIL
 10
-28.650000435443982
 20
-169.74999999549729
 30
0.0
 42
0.4142135623730951
  0
VERTEX
  5
220C
  8
SAPA_PROFIL
 10
-28.95000043544394
 20
-169.44999999549731
 30
0.0
  0
VERTEX
  5
220D
  8
SAPA_PROFIL
 10
-47.050000435443849
 20
-169.44999999549739
 30
0.0
 42
0.414213562373095
  0
VERTEX
  5
220E
  8
SAPA_PROFIL
 10
-47.35000043544391
 20
-169.74999999549729
 30
0.0
  0
VERTEX
  5
220F
  8
SAPA_PROFIL
 10
-47.350000435443803
 20
-172.19999999549731
 30
0.0
 42
0.4142135623730951
  0
VERTEX
  5
2210
  8
SAPA_PROFIL
 10
-47.050000435443849
 20
-172.49999999549729
 30
0.0
  0
VERTEX
  5
2211
  8
SAPA_PROFIL
 10
-45.300000435443849
 20
-172.49999999549729
 30
0.0
 42
-0.4142135623730951
  0
VERTEX
  5
2212
  8
SAPA_PROFIL
 10
-45.000000435443887
 20
-172.7999999954973
 30
0.0
  0
VERTEX
  5
2213
  8
SAPA_PROFIL
 10
-45.000000435443887
 20
-173.49999999549729
 30
0.0
  0
VERTEX
  5
2214
  8
SAPA_PROFIL
 10
-46.000000435443887
 20
-174.49999999549729
 30
0.0
  0
VERTEX
  5
2215
  8
SAPA_PROFIL
 10
-51.633975031659929
 20
-174.49999999549729
 30
0.0
  0
VERTEX
  5
2216
  8
SAPA_PROFIL
 10
-52.500000435443887
 20
-173.99999999549729
 30
0.0
  0
VERTEX
  5
2217
  8
SAPA_PROFIL
 10
-53.366025839227859
 20
-174.49999999549729
 30
0.0
  0
VERTEX
  5
2218
  8
SAPA_PROFIL
 10
-72.500000435443894
 20
-174.49999999549729
 30
0.0
 42
0.4142135623730951
  0
VERTEX
  5
2219
  8
SAPA_PROFIL
 10
-73.500000435443894
 20
-175.49999999549729
 30
0.0
  0
VERTEX
  5
221A
  8
SAPA_PROFIL
 10
-73.500000435443894
 20
-184.99999999549729
 30
0.0
 42
-0.4142135623730951
  0
VERTEX
  5
221B
  8
SAPA_PROFIL
 10
-72.500000435443894
 20
-185.99999999549729
 30
0.0
  0
VERTEX
  5
221C
  8
SAPA_PROFIL
 10
-72.500000435443894
 20
-186.56754446346221
 30
0.0
 42
-0.2896898633030159
  0
VERTEX
  5
221D
  8
SAPA_PROFIL
 10
-73.071429006873245
 20
-187.4710523663679
 30
0.0
 42
-0.5507604245859661
  0
VERTEX
  5
221E
  8
SAPA_PROFIL
 10
-73.500000435441834
 20
-187.19999999549719
 30
0.0
  0
VERTEX
  5
221F
  8
SAPA_PROFIL
 10
-73.500000435443894
 20
-186.5499999954973
 30
0.0
 42
0.4142135623730951
  0
VERTEX
  5
2220
  8
SAPA_PROFIL
 10
-73.800000435443835
 20
-186.24999999549729
 30
0.0
  0
VERTEX
  5
2221
  8
SAPA_PROFIL
 10
-75.000000435443894
 20
-186.24999999549729
 30
0.0
 42
0.4142135623730951
  0
VERTEX
  5
2222
  8
SAPA_PROFIL
 10
-75.500000435443894
 20
-186.74999999549729
 30
0.0
  0
VERTEX
  5
2223
  8
SAPA_PROFIL
 10
-75.500000435443894
 20
-194.74999999549729
 30
0.0
 42
0.4142135623730951
  0
VERTEX
  5
2224
  8
SAPA_PROFIL
 10
-75.000000435443894
 20
-195.24999999549729
 30
0.0
  0
VERTEX
  5
2225
  8
SAPA_PROFIL
 10
-73.800000435443835
 20
-195.24999999549729
 30
0.0
 42
0.4142135623730951
  0
VERTEX
  5
2226
  8
SAPA_PROFIL
 10
-73.500000435443894
 20
-194.94999999549731
 30
0.0
  0
VERTEX
  5
2227
  8
SAPA_PROFIL
 10
-73.500000435443894
 20
-194.2999999954973
 30
0.0
 42
-0.5507604245859089
  0
VERTEX
  5
2228
  8
SAPA_PROFIL
 10
-73.071429006872677
 20
-194.0289476246256
 30
0.0
 42
-0.2896898633030179
  0
VERTEX
  5
2229
  8
SAPA_PROFIL
 10
-72.500000435444917
 20
-194.93245552753231
 30
0.0
  0
VERTEX
  5
222A
  8
SAPA_PROFIL
 10
-72.500000435443894
 20
-196.19999999549731
 30
0.0
 42
-0.4142135623730951
  0
VERTEX
  5
222B
  8
SAPA_PROFIL
 10
-72.800000435443849
 20
-196.49999999549721
 30
0.0
  0
VERTEX
  5
222C
  8
SAPA_PROFIL
 10
-77.000000435443894
 20
-196.49999999549729
 30
0.0
 42
-0.4142135623730951
  0
VERTEX
  5
222D
  8
SAPA_PROFIL
 10
-78.000000435443894
 20
-195.49999999549729
 30
0.0
  0
VERTEX
  5
222E
  8
SAPA_PROFIL
 10
-78.000000435443894
 20
-176.2426406826163
 30
0.0
 42
0.1989123673796595
  0
VERTEX
  5
222F
  8
SAPA_PROFIL
 10
-78.878680091884235
 20
-174.12132033905661
 30
0.0
  0
VERTEX
  5
2230
  8
SAPA_PROFIL
 10
-81.621320779003895
 20
-171.37867965193729
 30
0.0
 42
-0.1989123673796574
  0
VERTEX
  5
2231
  8
SAPA_PROFIL
 10
-82.500000435443894
 20
-169.2573593083784
 30
0.0
  0
VERTEX
  5
2232
  8
SAPA_PROFIL
 10
-82.500000435444008
 20
-123.7426406826163
 30
0.0
 42
-0.1989123673796727
  0
VERTEX
  5
2233
  8
SAPA_PROFIL
 10
-81.621320779003213
 20
-121.62132033905721
 30
0.0
  0
VERTEX
  5
2234
  8
SAPA_PROFIL
 10
-78.792893654257682
 20
-118.79289321431079
 30
0.0
 42
-0.1989123673796728
  0
VERTEX
  5
2235
  8
SAPA_PROFIL
 10
-78.085786873071129
 20
-118.4999999954974
 30
0.0
  0
VERTEX
  5
2236
  8
SAPA_PROFIL
 10
-75.700000435444394
 20
-118.49999999549691
 30
0.0
 42
-0.2504916501726754
  0
VERTEX
  5
2237
  8
SAPA_PROFIL
 10
-74.700000435444153
 20
-119.4999999954974
 30
0.0
  0
SEQEND
  5
2238
  8
SAPA_PROFIL
  0
POLYLINE
  5
1854
  8
SAPA_PROFIL
 66
     1
 10
0.0
 20
0.0
 30
0.0
 70
     1
  0
VERTEX
  5
2239
  8
SAPA_PROFIL
 10
-59.190955190875499
 20
-72.843799650340387
 30
0.0
 42
-0.5773502691897452
  0
VERTEX
  5
223A
  8
SAPA_PROFIL
 10
-58.896798890620651
 20
-72.660845910230236
 30
0.0
  0
VERTEX
  5
223B
  8
SAPA_PROFIL
 10
-58.612116607389012
 20
-72.812979821338985
 30
0.0
 42
-0.2216946626430179
  0
VERTEX
  5
223C
  8
SAPA_PROFIL
 10
-58.206307702234227
 20
-73.353859652815785
 30
0.0
  0
VERTEX
  5
223D
  8
SAPA_PROFIL
 10
-57.824861106106511
 20
-75.167090123474011
 30
0.0
 42
-0.476975532698164
  0
VERTEX
  5
223E
  8
SAPA_PROFIL
 10
-58.127113930612978
 20
-75.53874699841991
 30
0.0
  0
VERTEX
  5
223F
  8
SAPA_PROFIL
 10
-59.630215011374979
 20
-75.538663390536257
 30
0.0
  0
VERTEX
  5
2240
  8
SAPA_PROFIL
 10
-59.644733420622089
 20
-75.49081764053777
 30
0.0
 42
0.4142135623730957
  0
VERTEX
  5
2241
  8
SAPA_PROFIL
 10
-60.018918376097901
 20
-75.290853596030374
 30
0.0
  0
VERTEX
  5
2242
  8
SAPA_PROFIL
 10
-61.336216052333761
 20
-75.799999995341594
 30
0.0
  0
VERTEX
  5
2243
  8
SAPA_PROFIL
 10
-64.332482961614872
 20
-75.799999995341565
 30
0.0
 42
-0.2562769743570943
  0
VERTEX
  5
2244
  8
SAPA_PROFIL
 10
-64.501155466102091
 20
-75.707468996593136
 30
0.0
  0
VERTEX
  5
2245
  8
SAPA_PROFIL
 10
-65.295208467919025
 20
-74.46120349721896
 30
0.0
 42
-0.5920056172513193
  0
VERTEX
  5
2246
  8
SAPA_PROFIL
 10
-65.042199711188189
 20
-73.999999995341526
 30
0.0
  0
VERTEX
  5
2247
  8
SAPA_PROFIL
 10
-63.642199711188198
 20
-73.999999995341582
 30
0.0
 42
0.4142135623731021
  0
VERTEX
  5
2248
  8
SAPA_PROFIL
 10
-63.342199711188172
 20
-73.699999995341571
 30
0.0
  0
VERTEX
  5
2249
  8
SAPA_PROFIL
 10
-63.342199711188158
 20
-71.29999999534148
 30
0.0
 42
0.4142135623731402
  0
VERTEX
  5
224A
  8
SAPA_PROFIL
 10
-63.642199711188198
 20
-70.999999995341497
 30
0.0
  0
VERTEX
  5
224B
  8
SAPA_PROFIL
 10
-81.042199711188445
 20
-70.999999995341469
 30
0.0
 42
0.4142135623730796
  0
VERTEX
  5
224C
  8
SAPA_PROFIL
 10
-81.342199711188471
 20
-71.299999995341452
 30
0.0
  0
VERTEX
  5
224D
  8
SAPA_PROFIL
 10
-81.342199711188499
 20
-73.699999995341486
 30
0.0
 42
0.4142135623731315
  0
VERTEX
  5
224E
  8
SAPA_PROFIL
 10
-81.042199711188488
 20
-73.999999995341582
 30
0.0
  0
VERTEX
  5
224F
  8
SAPA_PROFIL
 10
-79.642199711188425
 20
-73.999999995341497
 30
0.0
 42
-0.5877032589249549
  0
VERTEX
  5
2250
  8
SAPA_PROFIL
 10
-79.387153493878344
 20
-74.457960202469181
 30
0.0
  0
VERTEX
  5
2251
  8
SAPA_PROFIL
 10
-80.283552471120558
 20
-75.905306800093356
 30
0.0
 42
-0.2596812337301922
  0
VERTEX
  5
2252
  8
SAPA_PROFIL
 10
-80.453583282660674
 20
-75.999999995341582
 30
0.0
  0
VERTEX
  5
2253
  8
SAPA_PROFIL
 10
-83.042199716020178
 20
-75.999999995341582
 30
0.0
 42
-0.4142135623730864
  0
VERTEX
  5
2254
  8
SAPA_PROFIL
 10
-83.342199716020176
 20
-75.699999995341571
 30
0.0
  0
VERTEX
  5
2255
  8
SAPA_PROFIL
 10
-83.342199716019962
 20
-9.4999999953282774
 30
0.0
 42
-0.4142135623560339
  0
VERTEX
  5
2256
  8
SAPA_PROFIL
 10
-82.84219971604908
 20
-8.9999999953282774
 30
0.0
  0
VERTEX
  5
2257
  8
SAPA_PROFIL
 10
-79.144768866196046
 20
-8.9999999951164078
 30
0.0
 42
-0.4142135623902403
  0
VERTEX
  5
2258
  8
SAPA_PROFIL
 10
-78.844768866178555
 20
-9.2999999951164618
 30
0.0
  0
VERTEX
  5
2259
  8
SAPA_PROFIL
 10
-78.844768866178455
 20
-10.06754446314282
 30
0.0
 42
-0.2896898632854853
  0
VERTEX
  5
225A
  8
SAPA_PROFIL
 10
-79.416197437549329
 20
-10.97105236602067
 30
0.0
 42
-0.5507604245881251
  0
VERTEX
  5
225B
  8
SAPA_PROFIL
 10
-79.844768866137869
 20
-10.69999999517513
 30
0.0
  0
VERTEX
  5
225C
  8
SAPA_PROFIL
 10
-79.844768866149536
 20
-10.49999999515239
 30
0.0
 42
0.4142135623681871
  0
VERTEX
  5
225D
  8
SAPA_PROFIL
 10
-80.144768866161968
 20
-10.199999995169881
 30
0.0
  0
VERTEX
  5
225E
  8
SAPA_PROFIL
 10
-81.642199717173042
 20
-10.199999995229501
 30
0.0
 42
0.4142135623609537
  0
VERTEX
  5
225F
  8
SAPA_PROFIL
 10
-82.142199717173099
 20
-10.699999995229531
 30
0.0
  0
VERTEX
  5
2260
  8
SAPA_PROFIL
 10
-82.142199717173028
 20
-13.999999995230381
 30
0.0
 42
0.4142135623852031
  0
VERTEX
  5
2261
  8
SAPA_PROFIL
 10
-81.642199717152423
 20
-14.499999995230359
 30
0.0
  0
VERTEX
  5
2262
  8
SAPA_PROFIL
 10
-80.144768865921677
 20
-14.499999995170731
 30
0.0
 42
0.4142135623779909
  0
VERTEX
  5
2263
  8
SAPA_PROFIL
 10
-79.844768865934114
 20
-14.19999999515327
 30
0.0
  0
VERTEX
  5
2264
  8
SAPA_PROFIL
 10
-79.844768865945795
 20
-13.99999999517566
 30
0.0
 42
-0.5507604245841421
  0
VERTEX
  5
2265
  8
SAPA_PROFIL
 10
-79.416197437391745
 20
-13.728947624278041
 30
0.0
 42
-0.2896898633203124
  0
VERTEX
  5
2266
  8
SAPA_PROFIL
 10
-78.844768865904811
 20
-14.632455527211119
 30
0.0
  0
VERTEX
  5
2267
  8
SAPA_PROFIL
 10
-78.844768865904825
 20
-15.62992733927587
 30
0.0
 42
-0.0436609429084968
  0
VERTEX
  5
2268
  8
SAPA_PROFIL
 10
-78.852364989398723
 20
-15.71675142810931
 30
0.0
  0
VERTEX
  5
2269
  8
SAPA_PROFIL
 10
-79.129211160321248
 20
-17.28682408409329
 30
0.0
 42
-0.8390996311773407
  0
VERTEX
  5
226A
  8
SAPA_PROFIL
 10
-80.114018913333467
 20
-17.286824084093251
 30
0.0
  0
VERTEX
  5
226B
  8
SAPA_PROFIL
 10
-80.320964752915486
 20
-16.113175906426338
 30
0.0
 42
0.363970234266182
  0
VERTEX
  5
226C
  8
SAPA_PROFIL
 10
-80.813368629421618
 20
-15.69999999525983
 30
0.0
  0
VERTEX
  5
226D
  8
SAPA_PROFIL
 10
-81.642199717173057
 20
-15.6999999952598
 30
0.0
 42
0.4373282586283472
  0
VERTEX
  5
226E
  8
SAPA_PROFIL
 10
-82.140668997476965
 20
-16.239094452583711
 30
0.0
  0
VERTEX
  5
226F
  8
SAPA_PROFIL
 10
-81.553870234470097
 20
-30.712153274047392
 30
0.0
 42
0.402394130432476
  0
VERTEX
  5
2270
  8
SAPA_PROFIL
 10
-81.254116505857084
 20
-30.99999999537102
 30
0.0
  0
VERTEX
  5
2271
  8
SAPA_PROFIL
 10
-80.453583287492165
 20
-30.999999995370999
 30
0.0
 42
-0.2596812337302367
  0
VERTEX
  5
2272
  8
SAPA_PROFIL
 10
-80.283552475952064
 20
-31.094693190619221
 30
0.0
  0
VERTEX
  5
2273
  8
SAPA_PROFIL
 10
-79.387153498709921
 20
-32.542039788243322
 30
0.0
 42
-0.5877032589250683
  0
VERTEX
  5
2274
  8
SAPA_PROFIL
 10
-79.642199716020045
 20
-32.999999995371041
 30
0.0
  0
VERTEX
  5
2275
  8
SAPA_PROFIL
 10
-81.042199716020022
 20
-32.999999995371041
 30
0.0
 42
0.4142135623730898
  0
VERTEX
  5
2276
  8
SAPA_PROFIL
 10
-81.342199716020048
 20
-33.29999999537101
 30
0.0
  0
VERTEX
  5
2277
  8
SAPA_PROFIL
 10
-81.342199716019906
 20
-35.699999995371243
 30
0.0
 42
0.4142135623730049
  0
VERTEX
  5
2278
  8
SAPA_PROFIL
 10
-81.042199716020022
 20
-35.999999995370963
 30
0.0
  0
VERTEX
  5
2279
  8
SAPA_PROFIL
 10
-71.442199716019843
 20
-35.999999995371027
 30
0.0
 42
0.4142135623730258
  0
VERTEX
  5
227A
  8
SAPA_PROFIL
 10
-71.14219971601986
 20
-35.699999995371101
 30
0.0
  0
VERTEX
  5
227B
  8
SAPA_PROFIL
 10
-71.142199716019604
 20
-31.29999999537095
 30
0.0
 42
-0.4142135623730983
  0
VERTEX
  5
227C
  8
SAPA_PROFIL
 10
-70.842199716019735
 20
-30.999999995370938
 30
0.0
  0
VERTEX
  5
227D
  8
SAPA_PROFIL
 10
-69.35811165066643
 20
-30.999999995370921
 30
0.0
 42
-0.2596812337301949
  0
VERTEX
  5
227E
  8
SAPA_PROFIL
 10
-69.188080839126414
 20
-31.094693190619171
 30
0.0
  0
VERTEX
  5
227F
  8
SAPA_PROFIL
 10
-68.787153494574582
 20
-31.74203978824336
 30
0.0
 42
-0.5877032589249359
  0
VERTEX
  5
2280
  8
SAPA_PROFIL
 10
-69.04219971188472
 20
-32.199999995371023
 30
0.0
  0
VERTEX
  5
2281
  8
SAPA_PROFIL
 10
-69.442199716019772
 20
-32.199999995370931
 30
0.0
 42
0.4142135623731295
  0
VERTEX
  5
2282
  8
SAPA_PROFIL
 10
-69.742199716019783
 20
-32.49999999537097
 30
0.0
  0
VERTEX
  5
2283
  8
SAPA_PROFIL
 10
-69.742199716019812
 20
-35.69999999537113
 30
0.0
 42
0.4142135623730636
  0
VERTEX
  5
2284
  8
SAPA_PROFIL
 10
-69.442199716019843
 20
-35.999999995371176
 30
0.0
  0
VERTEX
  5
2285
  8
SAPA_PROFIL
 10
-63.642199716019697
 20
-35.999999995371027
 30
0.0
 42
0.4142135623730984
  0
VERTEX
  5
2286
  8
SAPA_PROFIL
 10
-63.342199716019792
 20
-35.699999995371122
 30
0.0
  0
VERTEX
  5
2287
  8
SAPA_PROFIL
 10
-63.342199716019721
 20
-33.299999995371081
 30
0.0
 42
0.414213562373088
  0
VERTEX
  5
2288
  8
SAPA_PROFIL
 10
-63.642199716019718
 20
-32.999999995371113
 30
0.0
  0
VERTEX
  5
2289
  8
SAPA_PROFIL
 10
-65.042199716019752
 20
-32.999999995371091
 30
0.0
 42
-0.592005618117907
  0
VERTEX
  5
228A
  8
SAPA_PROFIL
 10
-65.295208472336782
 20
-32.538796492844192
 30
0.0
  0
VERTEX
  5
228B
  8
SAPA_PROFIL
 10
-64.501155466160213
 20
-31.292530993686611
 30
0.0
 42
-0.2562769736732238
  0
VERTEX
  5
228C
  8
SAPA_PROFIL
 10
-64.33248296194887
 20
-31.199999995371162
 30
0.0
  0
VERTEX
  5
228D
  8
SAPA_PROFIL
 10
-61.33621605233369
 20
-31.199999995371059
 30
0.0
  0
VERTEX
  5
228E
  8
SAPA_PROFIL
 10
-60.018918376097822
 20
-31.70914639468225
 30
0.0
 42
0.4142135623730951
  0
VERTEX
  5
228F
  8
SAPA_PROFIL
 10
-59.644733420622003
 20
-31.50918235017485
 30
0.0
  0
VERTEX
  5
2290
  8
SAPA_PROFIL
 10
-59.630215011374901
 20
-31.46133660017637
 30
0.0
  0
VERTEX
  5
2291
  8
SAPA_PROFIL
 10
-58.127113930612893
 20
-31.461252992292732
 30
0.0
 42
-0.4769755326981641
  0
VERTEX
  5
2292
  8
SAPA_PROFIL
 10
-57.824861106106418
 20
-31.832909867238591
 30
0.0
  0
VERTEX
  5
2293
  8
SAPA_PROFIL
 10
-58.206307702234142
 20
-33.646140337896838
 30
0.0
 42
-0.2216946626430177
  0
VERTEX
  5
2294
  8
SAPA_PROFIL
 10
-58.612116607388941
 20
-34.187020169373632
 30
0.0
  0
VERTEX
  5
2295
  8
SAPA_PROFIL
 10
-58.89679889062058
 20
-34.339154080482402
 30
0.0
 42
-0.5773502691897449
  0
VERTEX
  5
2296
  8
SAPA_PROFIL
 10
-59.1909551908754
 20
-34.156200340372209
 30
0.0
  0
VERTEX
  5
2297
  8
SAPA_PROFIL
 10
-59.180393824648441
 20
-33.834442612153971
 30
0.0
  0
VERTEX
  5
2298
  8
SAPA_PROFIL
 10
-61.066237516509489
 20
-32.749878165182231
 30
0.0
  0
VERTEX
  5
2299
  8
SAPA_PROFIL
 10
-61.257620516503209
 20
-32.691804528193153
 30
0.0
 42
0.7625858545243262
  0
VERTEX
  5
229A
  8
SAPA_PROFIL
 10
-61.442199718700692
 20
-33.022130609210137
 30
0.0
 42
-0.2134217652834387
  0
VERTEX
  5
229B
  8
SAPA_PROFIL
 10
-61.34219971870057
 20
-33.245737406960281
 30
0.0
  0
VERTEX
  5
229C
  8
SAPA_PROFIL
 10
-61.342199718700677
 20
-37.098523811460232
 30
0.0
 42
0.4142135623731644
  0
VERTEX
  5
229D
  8
SAPA_PROFIL
 10
-61.042199718700637
 20
-37.398523811460279
 30
0.0
  0
VERTEX
  5
229E
  8
SAPA_PROFIL
 10
-60.742199718700569
 20
-37.398523811460272
 30
0.0
  0
VERTEX
  5
229F
  8
SAPA_PROFIL
 10
-59.142199718700638
 20
-36.474763380756933
 30
0.0
 42
-0.5773502691898534
  0
VERTEX
  5
22A0
  8
SAPA_PROFIL
 10
-58.842199718700513
 20
-36.64796846151377
 30
0.0
  0
VERTEX
  5
22A1
  8
SAPA_PROFIL
 10
-58.842199718700492
 20
-38.033609107568893
 30
0.0
 42
-0.2679491924311248
  0
VERTEX
  5
22A2
  8
SAPA_PROFIL
 10
-59.342199718700549
 20
-38.899634511353398
 30
0.0
  0
VERTEX
  5
22A3
  8
SAPA_PROFIL
 10
-61.092199716087748
 20
-39.909997480926613
 30
0.0
 42
0.267949192431141
  0
VERTEX
  5
22A4
  8
SAPA_PROFIL
 10
-61.342199716087791
 20
-40.343010182818837
 30
0.0
  0
VERTEX
  5
22A5
  8
SAPA_PROFIL
 10
-61.342199716087777
 20
-66.656989807893765
 30
0.0
 42
0.2679491924311169
  0
VERTEX
  5
22A6
  8
SAPA_PROFIL
 10
-61.092199716087791
 20
-67.090002509785975
 30
0.0
  0
VERTEX
  5
22A7
  8
SAPA_PROFIL
 10
-59.342199718700599
 20
-68.100365479359382
 30
0.0
 42
-0.2679491924311169
  0
VERTEX
  5
22A8
  8
SAPA_PROFIL
 10
-58.842199718700627
 20
-68.966390883143802
 30
0.0
  0
VERTEX
  5
22A9
  8
SAPA_PROFIL
 10
-58.84219971870057
 20
-70.352031529198868
 30
0.0
 42
-0.5773502691897872
  0
VERTEX
  5
22AA
  8
SAPA_PROFIL
 10
-59.142199718700653
 20
-70.525236609955712
 30
0.0
  0
VERTEX
  5
22AB
  8
SAPA_PROFIL
 10
-60.742199718700633
 20
-69.601476179252316
 30
0.0
  0
VERTEX
  5
22AC
  8
SAPA_PROFIL
 10
-61.042199718700758
 20
-69.601476179252401
 30
0.0
 42
0.4142135623730259
  0
VERTEX
  5
22AD
  8
SAPA_PROFIL
 10
-61.342199718700734
 20
-69.901476179252384
 30
0.0
  0
VERTEX
  5
22AE
  8
SAPA_PROFIL
 10
-61.342199718700641
 20
-73.754262583752379
 30
0.0
 42
-0.2134217652834384
  0
VERTEX
  5
22AF
  8
SAPA_PROFIL
 10
-61.442199718700763
 20
-73.977869381502458
 30
0.0
 42
0.7625858545243262
  0
VERTEX
  5
22B0
  8
SAPA_PROFIL
 10
-61.257620516503302
 20
-74.308195462519492
 30
0.0
  0
VERTEX
  5
22B1
  8
SAPA_PROFIL
 10
-61.066237516509567
 20
-74.250121825530385
 30
0.0
  0
VERTEX
  5
22B2
  8
SAPA_PROFIL
 10
-59.180393824648519
 20
-73.16555737855866
 30
0.0
  0
SEQEND
  5
22B3
  8
SAPA_PROFIL
  0
POLYLINE
  5
1855
  8
SAPA_PROFIL
 66
     1
 10
0.0
 20
0.0
 30
0.0
 70
     1
  0
VERTEX
  5
22B4
  8
SAPA_PROFIL
 10
-81.442199714214183
 20
-65.299999995341309
 30
0.0
  0
VERTEX
  5
22B5
  8
SAPA_PROFIL
 10
-81.342199715586204
 20
-65.299999995341309
 30
0.0
 42
-0.4142135622516611
  0
VERTEX
  5
22B6
  8
SAPA_PROFIL
 10
-81.042199715586221
 20
-65.599999995216976
 30
0.0
  0
VERTEX
  5
22B7
  8
SAPA_PROFIL
 10
-81.042199715005808
 20
-66.999999995216982
 30
0.0
 42
-0.4142135624945125
  0
VERTEX
  5
22B8
  8
SAPA_PROFIL
 10
-81.342199715005819
 20
-67.299999995341366
 30
0.0
  0
VERTEX
  5
22B9
  8
SAPA_PROFIL
 10
-81.442199714052265
 20
-67.299999995341366
 30
0.0
 42
0.4142135623731471
  0
VERTEX
  5
22BA
  8
SAPA_PROFIL
 10
-81.642199714052296
 20
-67.499999995341412
 30
0.0
  0
VERTEX
  5
22BB
  8
SAPA_PROFIL
 10
-81.642199714052325
 20
-68.999999995341355
 30
0.0
 42
0.4142135623731054
  0
VERTEX
  5
22BC
  8
SAPA_PROFIL
 10
-81.342199714052356
 20
-69.299999995341366
 30
0.0
  0
VERTEX
  5
22BD
  8
SAPA_PROFIL
 10
-63.342199710285129
 20
-69.299999995341452
 30
0.0
 42
0.4142135623731054
  0
VERTEX
  5
22BE
  8
SAPA_PROFIL
 10
-63.042199710285132
 20
-68.99999999534144
 30
0.0
  0
VERTEX
  5
22BF
  8
SAPA_PROFIL
 10
-63.042199710285189
 20
-67.49999999534144
 30
0.0
 42
0.4142135623730992
  0
VERTEX
  5
22C0
  8
SAPA_PROFIL
 10
-63.242199710285178
 20
-67.299999995341452
 30
0.0
  0
VERTEX
  5
22C1
  8
SAPA_PROFIL
 10
-63.342199710285279
 20
-67.299999995341452
 30
0.0
 42
-0.4142135623730847
  0
VERTEX
  5
22C2
  8
SAPA_PROFIL
 10
-63.642199710285269
 20
-66.99999999534144
 30
0.0
  0
VERTEX
  5
22C3
  8
SAPA_PROFIL
 10
-63.64219971028524
 20
-65.599999995341378
 30
0.0
 42
-0.4142135623730514
  0
VERTEX
  5
22C4
  8
SAPA_PROFIL
 10
-63.342199710285279
 20
-65.299999995341395
 30
0.0
  0
VERTEX
  5
22C5
  8
SAPA_PROFIL
 10
-63.242199710285178
 20
-65.299999995341395
 30
0.0
 42
0.4142135623730784
  0
VERTEX
  5
22C6
  8
SAPA_PROFIL
 10
-63.042199710285189
 20
-65.099999995341364
 30
0.0
  0
VERTEX
  5
22C7
  8
SAPA_PROFIL
 10
-63.042199710285232
 20
-41.89999999537126
 30
0.0
 42
0.4142135623731138
  0
VERTEX
  5
22C8
  8
SAPA_PROFIL
 10
-63.242199710285242
 20
-41.699999995371243
 30
0.0
  0
VERTEX
  5
22C9
  8
SAPA_PROFIL
 10
-63.342199710285222
 20
-41.699999995371243
 30
0.0
 42
-0.4142135623731054
  0
VERTEX
  5
22CA
  8
SAPA_PROFIL
 10
-63.642199710285233
 20
-41.399999995371232
 30
0.0
  0
VERTEX
  5
22CB
  8
SAPA_PROFIL
 10
-63.642199710285233
 20
-39.999999995371198
 30
0.0
 42
-0.4142135623730826
  0
VERTEX
  5
22CC
  8
SAPA_PROFIL
 10
-63.342199710285243
 20
-39.699999995371194
 30
0.0
  0
VERTEX
  5
22CD
  8
SAPA_PROFIL
 10
-63.242199710285242
 20
-39.699999995371194
 30
0.0
 42
0.4142135623731179
  0
VERTEX
  5
22CE
  8
SAPA_PROFIL
 10
-63.042199710285281
 20
-39.499999995371198
 30
0.0
  0
VERTEX
  5
22CF
  8
SAPA_PROFIL
 10
-63.042199710285168
 20
-37.99999999537134
 30
0.0
 42
0.4142135623731138
  0
VERTEX
  5
22D0
  8
SAPA_PROFIL
 10
-63.342199710285172
 20
-37.699999995371321
 30
0.0
  0
VERTEX
  5
22D1
  8
SAPA_PROFIL
 10
-81.342199720727308
 20
-37.69999999537108
 30
0.0
 42
0.4142135624877945
  0
VERTEX
  5
22D2
  8
SAPA_PROFIL
 10
-81.642199720727305
 20
-37.999999995488551
 30
0.0
  0
VERTEX
  5
22D3
  8
SAPA_PROFIL
 10
-81.642199720100734
 20
-39.499999995449471
 30
0.0
 42
0.4142135622583851
  0
VERTEX
  5
22D4
  8
SAPA_PROFIL
 10
-81.442199720100703
 20
-39.69999999537113
 30
0.0
  0
VERTEX
  5
22D5
  8
SAPA_PROFIL
 10
-81.342199719897948
 20
-39.699999995371158
 30
0.0
 42
-0.4142135622515569
  0
VERTEX
  5
22D6
  8
SAPA_PROFIL
 10
-81.042199719898036
 20
-39.999999995246768
 30
0.0
  0
VERTEX
  5
22D7
  8
SAPA_PROFIL
 10
-81.042199719317566
 20
-41.399999995246851
 30
0.0
 42
-0.4142135624945311
  0
VERTEX
  5
22D8
  8
SAPA_PROFIL
 10
-81.342199719317534
 20
-41.699999995371243
 30
0.0
  0
VERTEX
  5
22D9
  8
SAPA_PROFIL
 10
-81.442199720689743
 20
-41.699999995371243
 30
0.0
 42
0.4142135626101151
  0
VERTEX
  5
22DA
  8
SAPA_PROFIL
 10
-81.642199720689717
 20
-41.899999995533072
 30
0.0
  0
VERTEX
  5
22DB
  8
SAPA_PROFIL
 10
-81.642199714214271
 20
-65.099999995503268
 30
0.0
 42
0.414213562136048
  0
SEQEND
  5
22DC
  8
SAPA_PROFIL
  0
POLYLINE
  5
1856
  8
SAPA_PROFIL
 66
     1
 10
0.0
 20
0.0
 30
0.0
 70
     1
  0
VERTEX
  5
22DD
  8
SAPA_PROFIL
 10
2.357800283979878
 20
-30.999999995341671
 30
0.0
 42
-0.4142879064819451
  0
VERTEX
  5
22DE
  8
SAPA_PROFIL
 10
2.6578002743164251
 20
-31.30007614133871
 30
0.0
  0
VERTEX
  5
22DF
  8
SAPA_PROFIL
 10
2.6578002743198481
 20
-75.699923863759565
 30
0.0
 42
-0.4142878924076678
  0
VERTEX
  5
22E0
  8
SAPA_PROFIL
 10
2.357800283979878
 20
-75.999999995341582
 30
0.0
  0
VERTEX
  5
22E1
  8
SAPA_PROFIL
 10
-0.2308161493795264
 20
-75.999999995341568
 30
0.0
 42
-0.2596812337300058
  0
VERTEX
  5
22E2
  8
SAPA_PROFIL
 10
-0.4008469609195427
 20
-75.905306800093442
 30
0.0
  0
VERTEX
  5
22E3
  8
SAPA_PROFIL
 10
-1.2972459381618271
 20
-74.457960202469366
 30
0.0
 42
-0.5877032589249577
  0
VERTEX
  5
22E4
  8
SAPA_PROFIL
 10
-1.042199720851732
 20
-73.999999995341653
 30
0.0
  0
VERTEX
  5
22E5
  8
SAPA_PROFIL
 10
0.3578002791482735
 20
-73.999999995341653
 30
0.0
 42
0.414213562373088
  0
VERTEX
  5
22E6
  8
SAPA_PROFIL
 10
0.6578002791482707
 20
-73.699999995341685
 30
0.0
  0
VERTEX
  5
22E7
  8
SAPA_PROFIL
 10
0.6578002791482707
 20
-71.299999995341679
 30
0.0
 42
0.4142135623730882
  0
VERTEX
  5
22E8
  8
SAPA_PROFIL
 10
0.3578002791482735
 20
-70.999999995341653
 30
0.0
  0
VERTEX
  5
22E9
  8
SAPA_PROFIL
 10
-17.04219972085173
 20
-70.999999995341653
 30
0.0
 42
0.4142135623730951
  0
VERTEX
  5
22EA
  8
SAPA_PROFIL
 10
-17.342199720851742
 20
-71.299999995341679
 30
0.0
  0
VERTEX
  5
22EB
  8
SAPA_PROFIL
 10
-17.34219972085182
 20
-73.699999995341685
 30
0.0
 42
0.4142135623729892
  0
VERTEX
  5
22EC
  8
SAPA_PROFIL
 10
-17.04219972085173
 20
-73.999999995341653
 30
0.0
  0
VERTEX
  5
22ED
  8
SAPA_PROFIL
 10
-15.642199720851741
 20
-73.999999995341653
 30
0.0
 42
-0.5920056181179401
  0
VERTEX
  5
22EE
  8
SAPA_PROFIL
 10
-15.3891909645348
 20
-74.461203497868325
 30
0.0
  0
VERTEX
  5
22EF
  8
SAPA_PROFIL
 10
-16.183243970711249
 20
-75.707468997026055
 30
0.0
 42
-0.2562769736732679
  0
VERTEX
  5
22F0
  8
SAPA_PROFIL
 10
-16.351916474922611
 20
-75.799999995341523
 30
0.0
  0
VERTEX
  5
22F1
  8
SAPA_PROFIL
 10
-19.348183389369758
 20
-75.799999995341537
 30
0.0
  0
VERTEX
  5
22F2
  8
SAPA_PROFIL
 10
-20.665481065605
 20
-75.290853596030587
 30
0.0
 42
0.4142135623730951
  0
VERTEX
  5
22F3
  8
SAPA_PROFIL
 10
-21.039666021080809
 20
-75.490817640537983
 30
0.0
  0
VERTEX
  5
22F4
  8
SAPA_PROFIL
 10
-21.054184430327918
 20
-75.53866339053647
 30
0.0
  0
VERTEX
  5
22F5
  8
SAPA_PROFIL
 10
-22.557285511089919
 20
-75.538746998420123
 30
0.0
 42
-0.476975532698163
  0
VERTEX
  5
22F6
  8
SAPA_PROFIL
 10
-22.85953833559639
 20
-75.167090123474239
 30
0.0
  0
VERTEX
  5
22F7
  8
SAPA_PROFIL
 10
-22.47809173946867
 20
-73.353859652815999
 30
0.0
 42
-0.221694662643018
  0
VERTEX
  5
22F8
  8
SAPA_PROFIL
 10
-22.072282834313889
 20
-72.812979821339198
 30
0.0
  0
VERTEX
  5
22F9
  8
SAPA_PROFIL
 10
-21.787600551082239
 20
-72.660845910230435
 30
0.0
 42
-0.5773502691897493
  0
VERTEX
  5
22FA
  8
SAPA_PROFIL
 10
-21.493444250827402
 20
-72.843799650340614
 30
0.0
  0
VERTEX
  5
22FB
  8
SAPA_PROFIL
 10
-21.504005617054379
 20
-73.165557378558873
 30
0.0
  0
VERTEX
  5
22FC
  8
SAPA_PROFIL
 10
-19.61816192519332
 20
-74.250121825530613
 30
0.0
  0
VERTEX
  5
22FD
  8
SAPA_PROFIL
 10
-19.426778925199599
 20
-74.308195462519706
 30
0.0
 42
0.7625858545243216
  0
VERTEX
  5
22FE
  8
SAPA_PROFIL
 10
-19.24219972300213
 20
-73.977869381502686
 30
0.0
 42
-0.2134217652834399
  0
VERTEX
  5
22FF
  8
SAPA_PROFIL
 10
-19.342199723002249
 20
-73.754262583752578
 30
0.0
  0
VERTEX
  5
2300
  8
SAPA_PROFIL
 10
-19.34219972300232
 20
-69.901476179252555
 30
0.0
 42
0.4142135623730898
  0
VERTEX
  5
2301
  8
SAPA_PROFIL
 10
-19.642199723002339
 20
-69.601476179252543
 30
0.0
  0
VERTEX
  5
2302
  8
SAPA_PROFIL
 10
-19.942199723002439
 20
-69.601476179252543
 30
0.0
  0
VERTEX
  5
2303
  8
SAPA_PROFIL
 10
-21.542199723002351
 20
-70.525236609955854
 30
0.0
 42
-0.5773502691898973
  0
VERTEX
  5
2304
  8
SAPA_PROFIL
 10
-21.84219972300232
 20
-70.352031529198968
 30
0.0
  0
VERTEX
  5
2305
  8
SAPA_PROFIL
 10
-21.84219972300232
 20
-68.966390883143944
 30
0.0
 42
-0.2679491924311269
  0
VERTEX
  5
2306
  8
SAPA_PROFIL
 10
-21.342199723002331
 20
-68.100365479359482
 30
0.0
  0
VERTEX
  5
2307
  8
SAPA_PROFIL
 10
-19.592199725615249
 20
-67.090002509786245
 30
0.0
 42
0.2679491924311212
  0
VERTEX
  5
2308
  8
SAPA_PROFIL
 10
-19.342199725615249
 20
-66.656989807894035
 30
0.0
  0
VERTEX
  5
2309
  8
SAPA_PROFIL
 10
-19.342199725615249
 20
-40.343010182789378
 30
0.0
 42
0.2679491924311136
  0
VERTEX
  5
230A
  8
SAPA_PROFIL
 10
-19.592199725615231
 20
-39.909997480897182
 30
0.0
  0
VERTEX
  5
230B
  8
SAPA_PROFIL
 10
-21.342199723002331
 20
-38.899634511323768
 30
0.0
 42
-0.2679491924311166
  0
VERTEX
  5
230C
  8
SAPA_PROFIL
 10
-21.84219972300232
 20
-38.033609107539377
 30
0.0
  0
VERTEX
  5
230D
  8
SAPA_PROFIL
 10
-21.84219972300232
 20
-36.64796846148429
 30
0.0
 42
-0.577350269189614
  0
VERTEX
  5
230E
  8
SAPA_PROFIL
 10
-21.542199723002351
 20
-36.474763380727381
 30
0.0
  0
VERTEX
  5
230F
  8
SAPA_PROFIL
 10
-19.942199723002439
 20
-37.398523811430778
 30
0.0
  0
VERTEX
  5
2310
  8
SAPA_PROFIL
 10
-19.642199723002339
 20
-37.398523811430699
 30
0.0
 42
0.4142135623730083
  0
VERTEX
  5
2311
  8
SAPA_PROFIL
 10
-19.34219972300232
 20
-37.09852381143078
 30
0.0
  0
VERTEX
  5
2312
  8
SAPA_PROFIL
 10
-19.34219972300232
 20
-33.245737406930772
 30
0.0
 42
-0.2134217652834394
  0
VERTEX
  5
2313
  8
SAPA_PROFIL
 10
-19.24219972300218
 20
-33.02213060918065
 30
0.0
 42
0.7625858545243364
  0
VERTEX
  5
2314
  8
SAPA_PROFIL
 10
-19.42677892519967
 20
-32.691804528163658
 30
0.0
  0
VERTEX
  5
2315
  8
SAPA_PROFIL
 10
-19.61816192519338
 20
-32.749878165152737
 30
0.0
  0
VERTEX
  5
2316
  8
SAPA_PROFIL
 10
-21.504005617054439
 20
-33.834442612124477
 30
0.0
  0
VERTEX
  5
2317
  8
SAPA_PROFIL
 10
-21.493444250827469
 20
-34.156200340342721
 30
0.0
 42
-0.5773502691897365
  0
VERTEX
  5
2318
  8
SAPA_PROFIL
 10
-21.787600551082289
 20
-34.339154080452907
 30
0.0
  0
VERTEX
  5
2319
  8
SAPA_PROFIL
 10
-22.072282834313931
 20
-34.187020169344137
 30
0.0
 42
-0.2216946626430184
  0
VERTEX
  5
231A
  8
SAPA_PROFIL
 10
-22.478091739468731
 20
-33.646140337867358
 30
0.0
  0
VERTEX
  5
231B
  8
SAPA_PROFIL
 10
-22.859538335596451
 20
-31.8329098672091
 30
0.0
 42
-0.4769755326981641
  0
VERTEX
  5
231C
  8
SAPA_PROFIL
 10
-22.557285511089979
 20
-31.46125299226324
 30
0.0
  0
VERTEX
  5
231D
  8
SAPA_PROFIL
 10
-21.054184430327972
 20
-31.461336600146879
 30
0.0
  0
VERTEX
  5
231E
  8
SAPA_PROFIL
 10
-21.039666021080869
 20
-31.50918235014537
 30
0.0
 42
0.4142135623730951
  0
VERTEX
  5
231F
  8
SAPA_PROFIL
 10
-20.665481065605061
 20
-31.709146394652759
 30
0.0
  0
VERTEX
  5
2320
  8
SAPA_PROFIL
 10
-19.348183389369488
 20
-31.19999999534166
 30
0.0
  0
VERTEX
  5
2321
  8
SAPA_PROFIL
 10
-16.351916475256711
 20
-31.19999999534167
 30
0.0
 42
-0.2562769743570819
  0
VERTEX
  5
2322
  8
SAPA_PROFIL
 10
-16.183243970769499
 20
-31.292530994090072
 30
0.0
  0
VERTEX
  5
2323
  8
SAPA_PROFIL
 10
-15.389190968952541
 20
-32.53879649346419
 30
0.0
 42
-0.5920056172513317
  0
VERTEX
  5
2324
  8
SAPA_PROFIL
 10
-15.642199725683341
 20
-32.999999995341568
 30
0.0
  0
VERTEX
  5
2325
  8
SAPA_PROFIL
 10
-17.042199725683339
 20
-32.999999995341668
 30
0.0
 42
0.4142135623730916
  0
VERTEX
  5
2326
  8
SAPA_PROFIL
 10
-17.34219972568334
 20
-33.299999995341679
 30
0.0
  0
VERTEX
  5
2327
  8
SAPA_PROFIL
 10
-17.342199725683251
 20
-35.69999999534167
 30
0.0
 42
0.4142135623730118
  0
VERTEX
  5
2328
  8
SAPA_PROFIL
 10
-17.042199725683339
 20
-35.999999995341668
 30
0.0
  0
VERTEX
  5
2329
  8
SAPA_PROFIL
 10
0.3578002743166682
 20
-35.999999995341568
 30
0.0
 42
0.4142135623730948
  0
VERTEX
  5
232A
  8
SAPA_PROFIL
 10
0.6578002743167648
 20
-35.69999999534167
 30
0.0
  0
VERTEX
  5
232B
  8
SAPA_PROFIL
 10
0.6578002743165801
 20
-33.299999995341679
 30
0.0
 42
0.4142135623732061
  0
VERTEX
  5
232C
  8
SAPA_PROFIL
 10
0.3578002743166682
 20
-32.999999995341668
 30
0.0
  0
VERTEX
  5
232D
  8
SAPA_PROFIL
 10
-1.0421997256833231
 20
-32.999999995341568
 30
0.0
 42
-0.5877032589248845
  0
VERTEX
  5
232E
  8
SAPA_PROFIL
 10
-1.297245942993432
 20
-32.54203978821397
 30
0.0
  0
VERTEX
  5
232F
  8
SAPA_PROFIL
 10
-0.4008469657512333
 20
-31.09469319058978
 30
0.0
 42
-0.2596812337301443
  0
VERTEX
  5
2330
  8
SAPA_PROFIL
 10
-0.2308161542111318
 20
-30.999999995341671
 30
0.0
  0
SEQEND
  5
2331
  8
SAPA_PROFIL
  0
POLYLINE
  5
1857
  8
SAPA_PROFIL
 66
     1
 10
0.0
 20
0.0
 30
0.0
 70
     1
  0
VERTEX
  5
2332
  8
SAPA_PROFIL
 10
0.3578002839797651
 20
-39.999999995341668
 30
0.0
  0
VERTEX
  5
2333
  8
SAPA_PROFIL
 10
0.3578002839797794
 20
-41.399999995341673
 30
0.0
 42
0.4142135623731021
  0
VERTEX
  5
2334
  8
SAPA_PROFIL
 10
0.6578002839797624
 20
-41.69999999534167
 30
0.0
  0
VERTEX
  5
2335
  8
SAPA_PROFIL
 10
0.7578002839797567
 20
-41.69999999534167
 30
0.0
 42
-0.4142135623730847
  0
VERTEX
  5
2336
  8
SAPA_PROFIL
 10
0.9578002839797736
 20
-41.899999995341673
 30
0.0
  0
VERTEX
  5
2337
  8
SAPA_PROFIL
 10
0.9578002839797736
 20
-65.099999995341577
 30
0.0
 42
-0.41421356237309
  0
VERTEX
  5
2338
  8
SAPA_PROFIL
 10
0.7578002839797567
 20
-65.29999999534158
 30
0.0
  0
VERTEX
  5
2339
  8
SAPA_PROFIL
 10
0.6578002839797624
 20
-65.299999995341693
 30
0.0
 42
0.4142135623731055
  0
VERTEX
  5
233A
  8
SAPA_PROFIL
 10
0.3578002839797651
 20
-65.59999999534169
 30
0.0
  0
VERTEX
  5
233B
  8
SAPA_PROFIL
 10
0.3578002839797651
 20
-66.999999995341554
 30
0.0
 42
0.4142135623731991
  0
VERTEX
  5
233C
  8
SAPA_PROFIL
 10
0.6578002839797624
 20
-67.299999995341693
 30
0.0
  0
VERTEX
  5
233D
  8
SAPA_PROFIL
 10
0.7578002839797567
 20
-67.299999995341693
 30
0.0
 42
-0.4142135623730898
  0
VERTEX
  5
233E
  8
SAPA_PROFIL
 10
0.9578002839796599
 20
-67.499999995341597
 30
0.0
  0
VERTEX
  5
233F
  8
SAPA_PROFIL
 10
0.957800283979859
 20
-68.999999995341554
 30
0.0
 42
-0.4142135623731019
  0
VERTEX
  5
2340
  8
SAPA_PROFIL
 10
0.657800283979876
 20
-69.299999995341565
 30
0.0
  0
VERTEX
  5
2341
  8
SAPA_PROFIL
 10
-17.34219971978694
 20
-69.299999995341565
 30
0.0
 42
-0.4142135623730951
  0
VERTEX
  5
2342
  8
SAPA_PROFIL
 10
-17.64219971978693
 20
-68.999999995341554
 30
0.0
  0
VERTEX
  5
2343
  8
SAPA_PROFIL
 10
-17.64219971978693
 20
-67.499999995341682
 30
0.0
 42
-0.4142135623730795
  0
VERTEX
  5
2344
  8
SAPA_PROFIL
 10
-17.44219971978703
 20
-67.299999995341608
 30
0.0
  0
VERTEX
  5
2345
  8
SAPA_PROFIL
 10
-17.342199720740592
 20
-67.299999995341693
 30
0.0
 42
0.4142135624945151
  0
VERTEX
  5
2346
  8
SAPA_PROFIL
 10
-17.042199720740602
 20
-66.999999995217308
 30
0.0
  0
VERTEX
  5
2347
  8
SAPA_PROFIL
 10
-17.04219972132098
 20
-65.599999995217303
 30
0.0
 42
0.414213562251668
  0
VERTEX
  5
2348
  8
SAPA_PROFIL
 10
-17.342199721320981
 20
-65.299999995341693
 30
0.0
  0
VERTEX
  5
2349
  8
SAPA_PROFIL
 10
-17.442199719948949
 20
-65.299999995341693
 30
0.0
 42
-0.4142135621360074
  0
VERTEX
  5
234A
  8
SAPA_PROFIL
 10
-17.64219971994908
 20
-65.099999995503467
 30
0.0
  0
VERTEX
  5
234B
  8
SAPA_PROFIL
 10
-17.64219972642443
 20
-41.899999995503563
 30
0.0
 42
-0.4142135626101672
  0
VERTEX
  5
234C
  8
SAPA_PROFIL
 10
-17.442199726424452
 20
-41.69999999534167
 30
0.0
  0
VERTEX
  5
234D
  8
SAPA_PROFIL
 10
-17.342199725052321
 20
-41.699999995341678
 30
0.0
 42
0.4142135624945428
  0
VERTEX
  5
234E
  8
SAPA_PROFIL
 10
-17.04219972505231
 20
-41.399999995217279
 30
0.0
  0
VERTEX
  5
234F
  8
SAPA_PROFIL
 10
-17.042199725632781
 20
-39.99999999521728
 30
0.0
 42
0.4142135622516402
  0
VERTEX
  5
2350
  8
SAPA_PROFIL
 10
-17.342199725632788
 20
-39.69999999534167
 30
0.0
  0
VERTEX
  5
2351
  8
SAPA_PROFIL
 10
-17.44219972583544
 20
-39.69999999534167
 30
0.0
 42
-0.414213562258404
  0
VERTEX
  5
2352
  8
SAPA_PROFIL
 10
-17.64219972583545
 20
-39.499999995419991
 30
0.0
  0
VERTEX
  5
2353
  8
SAPA_PROFIL
 10
-17.642199726459459
 20
-37.999999995466467
 30
0.0
 42
-0.4142135624949383
  0
VERTEX
  5
2354
  8
SAPA_PROFIL
 10
-17.342199726459452
 20
-37.69999999534167
 30
0.0
  0
VERTEX
  5
2355
  8
SAPA_PROFIL
 10
0.6578002839797909
 20
-37.69999999534167
 30
0.0
 42
-0.4142135623730882
  0
VERTEX
  5
2356
  8
SAPA_PROFIL
 10
0.9578002839797736
 20
-37.999999995341653
 30
0.0
  0
VERTEX
  5
2357
  8
SAPA_PROFIL
 10
0.9578002839798731
 20
-39.499999995341682
 30
0.0
 42
-0.4142135623730847
  0
VERTEX
  5
2358
  8
SAPA_PROFIL
 10
0.7578002839798704
 20
-39.69999999534167
 30
0.0
  0
VERTEX
  5
2359
  8
SAPA_PROFIL
 10
0.6578002839797624
 20
-39.69999999534167
 30
0.0
 42
0.4142135623730881
  0
SEQEND
  5
235A
  8
SAPA_PROFIL
  0
POLYLINE
  5
1858
  8
SAPA_PROFIL
 62
     4
 66
     1
 10
0.0
 20
0.0
 30
0.0
  0
VERTEX
  5
235B
  8
SAPA_PROFIL
 62
     4
 10
-31.292870598453629
 20
-73.06771890950192
 30
0.0
 42
0.5571646428658034
  0
VERTEX
  5
235C
  8
SAPA_PROFIL
 62
     4
 10
-31.829831102590461
 20
-72.19999999534636
 30
0.0
  0
VERTEX
  5
235D
  8
SAPA_PROFIL
 62
     4
 10
-48.854568339111658
 20
-72.199999995346829
 30
0.0
 42
0.5571645048035741
  0
VERTEX
  5
235E
  8
SAPA_PROFIL
 62
     4
 10
-49.391528956072712
 20
-73.067718683212973
 30
0.0
  0
VERTEX
  5
235F
  8
SAPA_PROFIL
 62
     4
 10
-48.56082186852602
 20
-74.733859339281025
 30
0.0
 42
0.284385813979063
  0
VERTEX
  5
2360
  8
SAPA_PROFIL
 62
     4
 10
-48.292341560045671
 20
-74.899999995348466
 30
0.0
  0
VERTEX
  5
2361
  8
SAPA_PROFIL
 62
     4
 10
-32.392057881656363
 20
-74.899999995348452
 30
0.0
 42
0.2843858139786238
  0
VERTEX
  5
2362
  8
SAPA_PROFIL
 62
     4
 10
-32.123577573176071
 20
-74.733859339281523
 30
0.0
  0
VERTEX
  5
2363
  8
SAPA_PROFIL
 62
     4
 10
-31.29287048562891
 20
-73.067718683212163
 30
0.0
  0
SEQEND
  5
2364
  8
SAPA_PROFIL
 62
     4
  0
POLYLINE
  5
1859
  8
SAPA_PROFIL
 62
     4
 66
     1
 10
0.0
 20
0.0
 30
0.0
 70
     1
  0
VERTEX
  5
2365
  8
SAPA_PROFIL
 62
     4
 10
-54.7598109055183
 20
-75.256831509846037
 30
0.0
  0
VERTEX
  5
2366
  8
SAPA_PROFIL
 62
     4
 10
-55.023834183894309
 20
-75.663391705850174
 30
0.0
 42
-0.2539676464751066
  0
VERTEX
  5
2367
  8
SAPA_PROFIL
 62
     4
 10
-55.275435354279018
 20
-75.799999995346283
 30
0.0
  0
VERTEX
  5
2368
  8
SAPA_PROFIL
 62
     4
 10
-56.656934939484373
 20
-75.799999995346283
 30
0.0
 42
-0.3152987888790479
  0
VERTEX
  5
2369
  8
SAPA_PROFIL
 62
     4
 10
-57.126781249876679
 20
-75.471010067008123
 30
0.0
  0
VERTEX
  5
236A
  8
SAPA_PROFIL
 62
     4
 10
-58.022450190785293
 20
-73.010179876556847
 30
0.0
 42
0.2694959974287434
  0
VERTEX
  5
236B
  8
SAPA_PROFIL
 62
     4
 10
-58.253969237186638
 20
-72.817047902212948
 30
0.0
 42
0.0612686379508233
  0
VERTEX
  5
236C
  8
SAPA_PROFIL
 62
     4
 10
-58.546644670039917
 20
-72.803464531582435
 30
0.0
  0
VERTEX
  5
236D
  8
SAPA_PROFIL
 62
     4
 10
-58.89606284734819
 20
-72.601727852853614
 30
0.0
 42
0.5773502691891679
  0
VERTEX
  5
236E
  8
SAPA_PROFIL
 62
     4
 10
-59.211062847347769
 20
-72.783593187648179
 30
0.0
  0
VERTEX
  5
236F
  8
SAPA_PROFIL
 62
     4
 10
-59.211062847348011
 20
-73.050707715774493
 30
0.0
  0
VERTEX
  5
2370
  8
SAPA_PROFIL
 62
     4
 10
-60.609590547982272
 20
-73.859391177082813
 30
0.0
 42
-0.1318219888653519
  0
VERTEX
  5
2371
  8
SAPA_PROFIL
 62
     4
 10
-60.759763650454623
 20
-73.899683573620209
 30
0.0
  0
VERTEX
  5
2372
  8
SAPA_PROFIL
 62
     4
 10
-60.942199720891388
 20
-73.899683573613842
 30
0.0
 42
-0.4142135623724291
  0
VERTEX
  5
2373
  8
SAPA_PROFIL
 62
     4
 10
-61.342199720891941
 20
-73.499683573614206
 30
0.0
  0
VERTEX
  5
2374
  8
SAPA_PROFIL
 62
     4
 10
-61.342199720890576
 20
-70.099683573613206
 30
0.0
 42
-0.4142135623744271
  0
VERTEX
  5
2375
  8
SAPA_PROFIL
 62
     4
 10
-60.942199720891388
 20
-69.699683573612205
 30
0.0
  0
VERTEX
  5
2376
  8
SAPA_PROFIL
 62
     4
 10
-60.762584478620091
 20
-69.699683573611566
 30
0.0
 42
-0.1316524975874005
  0
VERTEX
  5
2377
  8
SAPA_PROFIL
 62
     4
 10
-60.612584478623283
 20
-69.739875952477163
 30
0.0
  0
VERTEX
  5
2378
  8
SAPA_PROFIL
 62
     4
 10
-59.008446581621023
 20
-70.666025399129694
 30
0.0
 42
0.1316524975875904
  0
VERTEX
  5
2379
  8
SAPA_PROFIL
 62
     4
 10
-58.50844658161931
 20
-70.799999995344464
 30
0.0
  0
VERTEX
  5
237A
  8
SAPA_PROFIL
 62
     4
 10
-58.092199720891941
 20
-70.799999995344464
 30
0.0
 42
0.4142135623730951
  0
VERTEX
  5
237B
  8
SAPA_PROFIL
 62
     4
 10
-57.092199720891941
 20
-69.799999995344464
 30
0.0
  0
VERTEX
  5
237C
  8
SAPA_PROFIL
 62
     4
 10
-57.092199720891941
 20
-66.799999995347193
 30
0.0
 42
-0.9999996830128083
  0
VERTEX
  5
237D
  8
SAPA_PROFIL
 62
     4
 10
-56.092199720891941
 20
-66.799999995345374
 30
0.0
  0
VERTEX
  5
237E
  8
SAPA_PROFIL
 62
     4
 10
-56.092199720891941
 20
-69.799999995345374
 30
0.0
 42
0.4142135623730951
  0
VERTEX
  5
237F
  8
SAPA_PROFIL
 62
     4
 10
-55.092199720891941
 20
-70.799999995345374
 30
0.0
  0
VERTEX
  5
2380
  8
SAPA_PROFIL
 62
     4
 10
-25.592199720807361
 20
-70.799999995345345
 30
0.0
 42
0.4142135623730951
  0
VERTEX
  5
2381
  8
SAPA_PROFIL
 62
     4
 10
-24.592199720807361
 20
-69.79999999534536
 30
0.0
  0
VERTEX
  5
2382
  8
SAPA_PROFIL
 62
     4
 10
-24.592199720807361
 20
-66.799999995347179
 30
0.0
 42
-0.9999999999999998
  0
VERTEX
  5
2383
  8
SAPA_PROFIL
 62
     4
 10
-23.592199720807361
 20
-66.799999995347179
 30
0.0
  0
VERTEX
  5
2384
  8
SAPA_PROFIL
 62
     4
 10
-23.592199720807361
 20
-69.79999999534536
 30
0.0
 42
0.4142135623736278
  0
VERTEX
  5
2385
  8
SAPA_PROFIL
 62
     4
 10
-22.592199720807361
 20
-70.799999995345345
 30
0.0
  0
VERTEX
  5
2386
  8
SAPA_PROFIL
 62
     4
 10
-22.175952860080901
 20
-70.799999995345345
 30
0.0
 42
0.1316524975874375
  0
VERTEX
  5
2387
  8
SAPA_PROFIL
 62
     4
 10
-21.675952860080699
 20
-70.666025399129325
 30
0.0
  0
VERTEX
  5
2388
  8
SAPA_PROFIL
 62
     4
 10
-20.071814963078751
 20
-69.739875952477149
 30
0.0
 42
-0.1316524975874
  0
VERTEX
  5
2389
  8
SAPA_PROFIL
 62
     4
 10
-19.921814963079211
 20
-69.699683573611566
 30
0.0
  0
VERTEX
  5
238A
  8
SAPA_PROFIL
 62
     4
 10
-19.7421997208079
 20
-69.699683573612191
 30
0.0
 42
-0.4142135623744271
  0
VERTEX
  5
238B
  8
SAPA_PROFIL
 62
     4
 10
-19.342199720808718
 20
-70.099683573613191
 30
0.0
  0
VERTEX
  5
238C
  8
SAPA_PROFIL
 62
     4
 10
-19.342199720807361
 20
-73.499683573614192
 30
0.0
 42
-0.4142135623724291
  0
VERTEX
  5
238D
  8
SAPA_PROFIL
 62
     4
 10
-19.7421997208079
 20
-73.899683573613814
 30
0.0
  0
VERTEX
  5
238E
  8
SAPA_PROFIL
 62
     4
 10
-19.924635791244679
 20
-73.899683573620194
 30
0.0
 42
-0.1318219888653524
  0
VERTEX
  5
238F
  8
SAPA_PROFIL
 62
     4
 10
-20.07480889371703
 20
-73.859391177082813
 30
0.0
  0
VERTEX
  5
2390
  8
SAPA_PROFIL
 62
     4
 10
-21.473336594196681
 20
-73.050707715858465
 30
0.0
  0
VERTEX
  5
2391
  8
SAPA_PROFIL
 62
     4
 10
-21.473336594196681
 20
-72.783593187645437
 30
0.0
 42
0.577350269189159
  0
VERTEX
  5
2392
  8
SAPA_PROFIL
 62
     4
 10
-21.788336594196281
 20
-72.601727852850871
 30
0.0
  0
VERTEX
  5
2393
  8
SAPA_PROFIL
 62
     4
 10
-22.13775477141494
 20
-72.803464531527979
 30
0.0
 42
0.0612687673629489
  0
VERTEX
  5
2394
  8
SAPA_PROFIL
 62
     4
 10
-22.430430204515162
 20
-72.817047902214185
 30
0.0
 42
0.2694959974285039
  0
VERTEX
  5
2395
  8
SAPA_PROFIL
 62
     4
 10
-22.661949250915679
 20
-73.010179876558126
 30
0.0
  0
VERTEX
  5
2396
  8
SAPA_PROFIL
 62
     4
 10
-23.557618191825341
 20
-75.471010067011292
 30
0.0
 42
-0.3152987888784035
  0
VERTEX
  5
2397
  8
SAPA_PROFIL
 62
     4
 10
-24.027464502218571
 20
-75.799999995347875
 30
0.0
  0
VERTEX
  5
2398
  8
SAPA_PROFIL
 62
     4
 10
-25.408964087423001
 20
-75.799999995346269
 30
0.0
 42
-0.2539676464741841
  0
VERTEX
  5
2399
  8
SAPA_PROFIL
 62
     4
 10
-25.660565257807079
 20
-75.663391705850984
 30
0.0
  0
VERTEX
  5
239A
  8
SAPA_PROFIL
 62
     4
 10
-25.92458853618372
 20
-75.256831509846023
 30
0.0
 42
-0.5862177598324623
  0
VERTEX
  5
239B
  8
SAPA_PROFIL
 62
     4
 10
-25.668846720945378
 20
-74.799999995349523
 30
0.0
  0
VERTEX
  5
239C
  8
SAPA_PROFIL
 62
     4
 10
-24.727672040435561
 20
-74.799999995357183
 30
0.0
 42
0.3152987888813165
  0
VERTEX
  5
239D
  8
SAPA_PROFIL
 62
     4
 10
-24.257825730037808
 20
-74.47101006702043
 30
0.0
  0
VERTEX
  5
239E
  8
SAPA_PROFIL
 62
     4
 10
-23.821061448913849
 20
-73.2710100670092
 30
0.0
 42
0.5205670505515651
  0
VERTEX
  5
239F
  8
SAPA_PROFIL
 62
     4
 10
-24.290907759307078
 20
-72.599999995346451
 30
0.0
  0
VERTEX
  5
23A0
  8
SAPA_PROFIL
 62
     4
 10
-29.307348699975929
 20
-72.599999995346423
 30
0.0
 42
0.3702522326300203
  0
VERTEX
  5
23A1
  8
SAPA_PROFIL
 62
     4
 10
-29.603872061769259
 20
-72.854459948012135
 30
0.0
 42
0.0982365330332397
  0
VERTEX
  5
23A2
  8
SAPA_PROFIL
 62
     4
 10
-29.694324819980189
 20
-74.542146723007136
 30
0.0
 42
0.3735060174783164
  0
VERTEX
  5
23A3
  8
SAPA_PROFIL
 62
     4
 10
-29.39730015206921
 20
-74.799999995347179
 30
0.0
  0
VERTEX
  5
23A4
  8
SAPA_PROFIL
 62
     4
 10
-28.968846720946559
 20
-74.799999995348074
 30
0.0
 42
-0.5920056181162531
  0
VERTEX
  5
23A5
  8
SAPA_PROFIL
 62
     4
 10
-28.715837964629159
 20
-75.261203497876011
 30
0.0
  0
VERTEX
  5
23A6
  8
SAPA_PROFIL
 62
     4
 10
-28.97702204078486
 20
-75.663391705854309
 30
0.0
 42
-0.2539676464746725
  0
VERTEX
  5
23A7
  8
SAPA_PROFIL
 62
     4
 10
-29.228623211168632
 20
-75.79999999534968
 30
0.0
  0
VERTEX
  5
23A8
  8
SAPA_PROFIL
 62
     4
 10
-51.455776230534312
 20
-75.799999995348102
 30
0.0
 42
-0.2539676464741819
  0
VERTEX
  5
23A9
  8
SAPA_PROFIL
 62
     4
 10
-51.70737740091716
 20
-75.663391705854323
 30
0.0
  0
VERTEX
  5
23AA
  8
SAPA_PROFIL
 62
     4
 10
-51.968561477070978
 20
-75.261203497875982
 30
0.0
 42
-0.5920055144124249
  0
VERTEX
  5
23AB
  8
SAPA_PROFIL
 62
     4
 10
-51.715552720755468
 20
-74.799999995348102
 30
0.0
  0
VERTEX
  5
23AC
  8
SAPA_PROFIL
 62
     4
 10
-51.287099243465249
 20
-74.800000020623102
 30
0.0
 42
0.3735060174775405
  0
VERTEX
  5
23AD
  8
SAPA_PROFIL
 62
     4
 10
-50.99007457555556
 20
-74.542146748283017
 30
0.0
 42
0.0355900683670349
  0
VERTEX
  5
23AE
  8
SAPA_PROFIL
 62
     4
 10
-50.946181011523308
 20
-73.926273161483223
 30
0.0
 42
0.0624282003873116
  0
VERTEX
  5
23AF
  8
SAPA_PROFIL
 62
     4
 10
-51.080527333766248
 20
-72.854459973288101
 30
0.0
 42
0.3702522326309292
  0
VERTEX
  5
23B0
  8
SAPA_PROFIL
 62
     4
 10
-51.377050695559632
 20
-72.600000020622375
 30
0.0
  0
VERTEX
  5
23B1
  8
SAPA_PROFIL
 62
     4
 10
-56.393491682393133
 20
-72.599999995346238
 30
0.0
 42
0.5205670505515692
  0
VERTEX
  5
23B2
  8
SAPA_PROFIL
 62
     4
 10
-56.863337992786349
 20
-73.271010067009215
 30
0.0
  0
VERTEX
  5
23B3
  8
SAPA_PROFIL
 62
     4
 10
-56.426573711661412
 20
-74.471010067018653
 30
0.0
 42
0.3152987888807539
  0
VERTEX
  5
23B4
  8
SAPA_PROFIL
 62
     4
 10
-55.95672740126556
 20
-74.799999995356274
 30
0.0
  0
VERTEX
  5
23B5
  8
SAPA_PROFIL
 62
     4
 10
-55.015552720756467
 20
-74.799999995349467
 30
0.0
 42
-0.5862175119221242
  0
VERTEX
  5
23B6
  8
SAPA_PROFIL
 62
     4
 10
-54.759810789774512
 20
-75.256831321104599
 30
0.0
 42
0.0000002084758573
  0
SEQEND
  5
23B7
  8
SAPA_PROFIL
 62
     4
  0
POLYLINE
  5
185A
  8
SAPA_PROFIL
 62
     4
 66
     1
 10
0.0
 20
0.0
 30
0.0
  0
VERTEX
  5
23B8
  8
SAPA_PROFIL
 62
     4
 10
-31.292870598453629
 20
-33.932281081195967
 30
0.0
 42
-0.5571646428658034
  0
VERTEX
  5
23B9
  8
SAPA_PROFIL
 62
     4
 10
-31.829831102590461
 20
-34.79999999535152
 30
0.0
  0
VERTEX
  5
23BA
  8
SAPA_PROFIL
 62
     4
 10
-48.854568339111651
 20
-34.799999995351058
 30
0.0
 42
-0.5571645048035741
  0
VERTEX
  5
23BB
  8
SAPA_PROFIL
 62
     4
 10
-49.391528956072698
 20
-33.932281307484892
 30
0.0
  0
VERTEX
  5
23BC
  8
SAPA_PROFIL
 62
     4
 10
-48.560821868526013
 20
-32.266140651416862
 30
0.0
 42
-0.284385813979063
  0
VERTEX
  5
23BD
  8
SAPA_PROFIL
 62
     4
 10
-48.292341560045671
 20
-32.099999995349421
 30
0.0
  0
VERTEX
  5
23BE
  8
SAPA_PROFIL
 62
     4
 10
-32.392057881656349
 20
-32.099999995349428
 30
0.0
 42
-0.2843858139786238
  0
VERTEX
  5
23BF
  8
SAPA_PROFIL
 62
     4
 10
-32.123577573176071
 20
-32.266140651416357
 30
0.0
  0
VERTEX
  5
23C0
  8
SAPA_PROFIL
 62
     4
 10
-31.2928704856289
 20
-33.932281307485702
 30
0.0
  0
SEQEND
  5
23C1
  8
SAPA_PROFIL
 62
     4
  0
POLYLINE
  5
185B
  8
SAPA_PROFIL
 62
     4
 66
     1
 10
0.0
 20
0.0
 30
0.0
 70
     1
  0
VERTEX
  5
23C2
  8
SAPA_PROFIL
 62
     4
 10
-54.7598109055183
 20
-31.74316848085185
 30
0.0
  0
VERTEX
  5
23C3
  8
SAPA_PROFIL
 62
     4
 10
-55.023834183894309
 20
-31.33660828484771
 30
0.0
 42
0.2539676464751066
  0
VERTEX
  5
23C4
  8
SAPA_PROFIL
 62
     4
 10
-55.275435354279018
 20
-31.1999999953516
 30
0.0
  0
VERTEX
  5
23C5
  8
SAPA_PROFIL
 62
     4
 10
-56.656934939484358
 20
-31.1999999953516
 30
0.0
 42
0.3152987888790479
  0
VERTEX
  5
23C6
  8
SAPA_PROFIL
 62
     4
 10
-57.126781249876679
 20
-31.528989923689771
 30
0.0
  0
VERTEX
  5
23C7
  8
SAPA_PROFIL
 62
     4
 10
-58.022450190785293
 20
-33.98982011414104
 30
0.0
 42
-0.2694959974287434
  0
VERTEX
  5
23C8
  8
SAPA_PROFIL
 62
     4
 10
-58.253969237186631
 20
-34.182952088484932
 30
0.0
 42
-0.0612686379508233
  0
VERTEX
  5
23C9
  8
SAPA_PROFIL
 62
     4
 10
-58.546644670039917
 20
-34.196535459115459
 30
0.0
  0
VERTEX
  5
23CA
  8
SAPA_PROFIL
 62
     4
 10
-58.896062847348183
 20
-34.39827213784428
 30
0.0
 42
-0.5773502691891679
  0
VERTEX
  5
23CB
  8
SAPA_PROFIL
 62
     4
 10
-59.211062847347769
 20
-34.216406803049708
 30
0.0
  0
VERTEX
  5
23CC
  8
SAPA_PROFIL
 62
     4
 10
-59.211062847348011
 20
-33.949292274923387
 30
0.0
  0
VERTEX
  5
23CD
  8
SAPA_PROFIL
 62
     4
 10
-60.609590547982258
 20
-33.140608813615081
 30
0.0
 42
0.1318219888653519
  0
VERTEX
  5
23CE
  8
SAPA_PROFIL
 62
     4
 10
-60.759763650454609
 20
-33.100316417077678
 30
0.0
  0
VERTEX
  5
23CF
  8
SAPA_PROFIL
 62
     4
 10
-60.942199720891381
 20
-33.100316417084052
 30
0.0
 42
0.4142135623724291
  0
VERTEX
  5
23D0
  8
SAPA_PROFIL
 62
     4
 10
-61.342199720891927
 20
-33.500316417083681
 30
0.0
  0
VERTEX
  5
23D1
  8
SAPA_PROFIL
 62
     4
 10
-61.342199720890569
 20
-36.900316417084682
 30
0.0
 42
0.4142135623744271
  0
VERTEX
  5
23D2
  8
SAPA_PROFIL
 62
     4
 10
-60.942199720891381
 20
-37.300316417085682
 30
0.0
  0
VERTEX
  5
23D3
  8
SAPA_PROFIL
 62
     4
 10
-60.762584478620077
 20
-37.300316417086322
 30
0.0
 42
0.1316524975874005
  0
VERTEX
  5
23D4
  8
SAPA_PROFIL
 62
     4
 10
-60.612584478623269
 20
-37.260124038220717
 30
0.0
  0
VERTEX
  5
23D5
  8
SAPA_PROFIL
 62
     4
 10
-59.008446581621008
 20
-36.333974591568193
 30
0.0
 42
-0.1316524975875904
  0
VERTEX
  5
23D6
  8
SAPA_PROFIL
 62
     4
 10
-58.508446581619303
 20
-36.199999995353423
 30
0.0
  0
VERTEX
  5
23D7
  8
SAPA_PROFIL
 62
     4
 10
-58.092199720891927
 20
-36.199999995353423
 30
0.0
 42
-0.4142135623730951
  0
VERTEX
  5
23D8
  8
SAPA_PROFIL
 62
     4
 10
-57.092199720891941
 20
-37.199999995353423
 30
0.0
  0
VERTEX
  5
23D9
  8
SAPA_PROFIL
 62
     4
 10
-57.092199720891941
 20
-40.199999995350687
 30
0.0
 42
0.9999996830128083
  0
VERTEX
  5
23DA
  8
SAPA_PROFIL
 62
     4
 10
-56.092199720891927
 20
-40.199999995352513
 30
0.0
  0
VERTEX
  5
23DB
  8
SAPA_PROFIL
 62
     4
 10
-56.092199720891927
 20
-37.199999995352513
 30
0.0
 42
-0.4142135623730951
  0
VERTEX
  5
23DC
  8
SAPA_PROFIL
 62
     4
 10
-55.092199720891927
 20
-36.199999995352513
 30
0.0
  0
VERTEX
  5
23DD
  8
SAPA_PROFIL
 62
     4
 10
-25.592199720807351
 20
-36.19999999535252
 30
0.0
 42
-0.4142135623730951
  0
VERTEX
  5
23DE
  8
SAPA_PROFIL
 62
     4
 10
-24.592199720807351
 20
-37.19999999535252
 30
0.0
  0
VERTEX
  5
23DF
  8
SAPA_PROFIL
 62
     4
 10
-24.592199720807351
 20
-40.199999995350701
 30
0.0
 42
0.9999999999999998
  0
VERTEX
  5
23E0
  8
SAPA_PROFIL
 62
     4
 10
-23.592199720807351
 20
-40.199999995350701
 30
0.0
  0
VERTEX
  5
23E1
  8
SAPA_PROFIL
 62
     4
 10
-23.592199720807351
 20
-37.19999999535252
 30
0.0
 42
-0.4142135623736278
  0
VERTEX
  5
23E2
  8
SAPA_PROFIL
 62
     4
 10
-22.592199720807351
 20
-36.19999999535252
 30
0.0
  0
VERTEX
  5
23E3
  8
SAPA_PROFIL
 62
     4
 10
-22.175952860080891
 20
-36.19999999535252
 30
0.0
 42
-0.1316524975874375
  0
VERTEX
  5
23E4
  8
SAPA_PROFIL
 62
     4
 10
-21.675952860080692
 20
-36.333974591568563
 30
0.0
  0
VERTEX
  5
23E5
  8
SAPA_PROFIL
 62
     4
 10
-20.07181496307874
 20
-37.260124038220731
 30
0.0
 42
0.1316524975874
  0
VERTEX
  5
23E6
  8
SAPA_PROFIL
 62
     4
 10
-19.9218149630792
 20
-37.300316417086322
 30
0.0
  0
VERTEX
  5
23E7
  8
SAPA_PROFIL
 62
     4
 10
-19.742199720807889
 20
-37.300316417085689
 30
0.0
 42
0.4142135623744271
  0
VERTEX
  5
23E8
  8
SAPA_PROFIL
 62
     4
 10
-19.342199720808711
 20
-36.900316417084689
 30
0.0
  0
VERTEX
  5
23E9
  8
SAPA_PROFIL
 62
     4
 10
-19.342199720807351
 20
-33.500316417083688
 30
0.0
 42
0.4142135623724291
  0
VERTEX
  5
23EA
  8
SAPA_PROFIL
 62
     4
 10
-19.742199720807889
 20
-33.100316417084052
 30
0.0
  0
VERTEX
  5
23EB
  8
SAPA_PROFIL
 62
     4
 10
-19.924635791244668
 20
-33.100316417077693
 30
0.0
 42
0.1318219888653524
  0
VERTEX
  5
23EC
  8
SAPA_PROFIL
 62
     4
 10
-20.074808893717019
 20
-33.140608813615081
 30
0.0
  0
VERTEX
  5
23ED
  8
SAPA_PROFIL
 62
     4
 10
-21.47333659419667
 20
-33.949292274839422
 30
0.0
  0
VERTEX
  5
23EE
  8
SAPA_PROFIL
 62
     4
 10
-21.47333659419667
 20
-34.21640680305245
 30
0.0
 42
-0.577350269189159
  0
VERTEX
  5
23EF
  8
SAPA_PROFIL
 62
     4
 10
-21.78833659419627
 20
-34.398272137847023
 30
0.0
  0
VERTEX
  5
23F0
  8
SAPA_PROFIL
 62
     4
 10
-22.137754771414929
 20
-34.196535459169908
 30
0.0
 42
-0.0612687673629489
  0
VERTEX
  5
23F1
  8
SAPA_PROFIL
 62
     4
 10
-22.430430204515151
 20
-34.182952088483702
 30
0.0
 42
-0.2694959974285039
  0
VERTEX
  5
23F2
  8
SAPA_PROFIL
 62
     4
 10
-22.661949250915669
 20
-33.989820114139761
 30
0.0
  0
VERTEX
  5
23F3
  8
SAPA_PROFIL
 62
     4
 10
-23.557618191825341
 20
-31.528989923686591
 30
0.0
 42
0.3152987888784035
  0
VERTEX
  5
23F4
  8
SAPA_PROFIL
 62
     4
 10
-24.02746450221856
 20
-31.199999995350019
 30
0.0
  0
VERTEX
  5
23F5
  8
SAPA_PROFIL
 62
     4
 10
-25.408964087423001
 20
-31.199999995351611
 30
0.0
 42
0.2539676464741841
  0
VERTEX
  5
23F6
  8
SAPA_PROFIL
 62
     4
 10
-25.660565257807072
 20
-31.336608284846879
 30
0.0
  0
VERTEX
  5
23F7
  8
SAPA_PROFIL
 62
     4
 10
-25.924588536183709
 20
-31.74316848085186
 30
0.0
 42
0.5862177598324623
  0
VERTEX
  5
23F8
  8
SAPA_PROFIL
 62
     4
 10
-25.668846720945371
 20
-32.199999995348371
 30
0.0
  0
VERTEX
  5
23F9
  8
SAPA_PROFIL
 62
     4
 10
-24.727672040435561
 20
-32.199999995340697
 30
0.0
 42
-0.3152987888813165
  0
VERTEX
  5
23FA
  8
SAPA_PROFIL
 62
     4
 10
-24.257825730037801
 20
-32.52898992367745
 30
0.0
  0
VERTEX
  5
23FB
  8
SAPA_PROFIL
 62
     4
 10
-23.821061448913841
 20
-33.72898992368868
 30
0.0
 42
-0.5205670505515651
  0
VERTEX
  5
23FC
  8
SAPA_PROFIL
 62
     4
 10
-24.290907759307071
 20
-34.399999995351429
 30
0.0
  0
VERTEX
  5
23FD
  8
SAPA_PROFIL
 62
     4
 10
-29.307348699975918
 20
-34.399999995351457
 30
0.0
 42
-0.3702522326300203
  0
VERTEX
  5
23FE
  8
SAPA_PROFIL
 62
     4
 10
-29.603872061769248
 20
-34.145540042685759
 30
0.0
 42
-0.0982365330332397
  0
VERTEX
  5
23FF
  8
SAPA_PROFIL
 62
     4
 10
-29.694324819980189
 20
-32.457853267690751
 30
0.0
 42
-0.3735060174783164
  0
VERTEX
  5
2400
  8
SAPA_PROFIL
 62
     4
 10
-29.39730015206921
 20
-32.199999995350709
 30
0.0
  0
VERTEX
  5
2401
  8
SAPA_PROFIL
 62
     4
 10
-28.968846720946551
 20
-32.199999995349792
 30
0.0
 42
0.5920056181162531
  0
VERTEX
  5
2402
  8
SAPA_PROFIL
 62
     4
 10
-28.715837964629149
 20
-31.738796492821869
 30
0.0
  0
VERTEX
  5
2403
  8
SAPA_PROFIL
 62
     4
 10
-28.977022040784849
 20
-31.336608284843571
 30
0.0
 42
0.2539676464746725
  0
VERTEX
  5
2404
  8
SAPA_PROFIL
 62
     4
 10
-29.228623211168621
 20
-31.199999995348211
 30
0.0
  0
VERTEX
  5
2405
  8
SAPA_PROFIL
 62
     4
 10
-51.455776230534298
 20
-31.199999995349788
 30
0.0
 42
0.2539676464741819
  0
VERTEX
  5
2406
  8
SAPA_PROFIL
 62
     4
 10
-51.70737740091716
 20
-31.336608284843571
 30
0.0
  0
VERTEX
  5
2407
  8
SAPA_PROFIL
 62
     4
 10
-51.968561477070971
 20
-31.738796492821901
 30
0.0
 42
0.5920055144124249
  0
VERTEX
  5
2408
  8
SAPA_PROFIL
 62
     4
 10
-51.715552720755461
 20
-32.199999995349792
 30
0.0
  0
VERTEX
  5
2409
  8
SAPA_PROFIL
 62
     4
 10
-51.287099243465242
 20
-32.199999970074778
 30
0.0
 42
-0.3735060174775405
  0
VERTEX
  5
240A
  8
SAPA_PROFIL
 62
     4
 10
-50.990074575555553
 20
-32.45785324241487
 30
0.0
 42
-0.0355900683670349
  0
VERTEX
  5
240B
  8
SAPA_PROFIL
 62
     4
 10
-50.946181011523301
 20
-33.073726829214657
 30
0.0
 42
-0.0624282003873116
  0
VERTEX
  5
240C
  8
SAPA_PROFIL
 62
     4
 10
-51.080527333766241
 20
-34.145540017409793
 30
0.0
 42
-0.3702522326309292
  0
VERTEX
  5
240D
  8
SAPA_PROFIL
 62
     4
 10
-51.377050695559618
 20
-34.399999970075498
 30
0.0
  0
VERTEX
  5
240E
  8
SAPA_PROFIL
 62
     4
 10
-56.393491682393133
 20
-34.399999995351642
 30
0.0
 42
-0.5205670505515692
  0
VERTEX
  5
240F
  8
SAPA_PROFIL
 62
     4
 10
-56.863337992786349
 20
-33.728989923688673
 30
0.0
  0
VERTEX
  5
2410
  8
SAPA_PROFIL
 62
     4
 10
-56.426573711661398
 20
-32.528989923679227
 30
0.0
 42
-0.3152987888807539
  0
VERTEX
  5
2411
  8
SAPA_PROFIL
 62
     4
 10
-55.956727401265553
 20
-32.199999995341599
 30
0.0
  0
VERTEX
  5
2412
  8
SAPA_PROFIL
 62
     4
 10
-55.01555272075646
 20
-32.199999995348421
 30
0.0
 42
0.5862175119221242
  0
VERTEX
  5
2413
  8
SAPA_PROFIL
 62
     4
 10
-54.759810789774512
 20
-31.743168669593281
 30
0.0
 42
-0.0000002084758573
  0
SEQEND
  5
2414
  8
SAPA_PROFIL
 62
     4
  0
POLYLINE
  5
185C
  8
SAPA_PROFIL
 62
     4
 66
     1
 10
0.0
 20
0.0
 30
0.0
 70
     1
  0
VERTEX
  5
2415
  8
SAPA_PROFIL
 62
     4
 10
-69.545143275094233
 20
-14.899999995557611
 30
0.0
  0
VERTEX
  5
2416
  8
SAPA_PROFIL
 62
     4
 10
-73.739255824791144
 20
-14.899999995555801
 30
0.0
 42
-0.1989123673786592
  0
VERTEX
  5
2417
  8
SAPA_PROFIL
 62
     4
 10
-73.951387859146962
 20
-14.812132029912339
 30
0.0
  0
VERTEX
  5
2418
  8
SAPA_PROFIL
 62
     4
 10
-76.175651927857871
 20
-12.587867961201431
 30
0.0
 42
0.1989123673785438
  0
VERTEX
  5
2419
  8
SAPA_PROFIL
 62
     4
 10
-76.387783962213675
 20
-12.49999999555798
 30
0.0
  0
VERTEX
  5
241A
  8
SAPA_PROFIL
 62
     4
 10
-76.842199549942052
 20
-12.499999995559801
 30
0.0
 42
0.4142135623730951
  0
VERTEX
  5
241B
  8
SAPA_PROFIL
 62
     4
 10
-77.142199549942234
 20
-12.79999999555907
 30
0.0
  0
VERTEX
  5
241C
  8
SAPA_PROFIL
 62
     4
 10
-77.142199549942234
 20
-24.699999995558031
 30
0.0
 42
-0.4142135623730951
  0
VERTEX
  5
241D
  8
SAPA_PROFIL
 62
     4
 10
-77.642199549942234
 20
-25.199999995558031
 30
0.0
  0
VERTEX
  5
241E
  8
SAPA_PROFIL
 62
     4
 10
-79.342199549942052
 20
-25.199999995558031
 30
0.0
 42
0.4142135623739832
  0
VERTEX
  5
241F
  8
SAPA_PROFIL
 62
     4
 10
-79.642199549942234
 20
-25.4999999955573
 30
0.0
  0
VERTEX
  5
2420
  8
SAPA_PROFIL
 62
     4
 10
-79.642199549942234
 20
-29.19999999555689
 30
0.0
 42
0.414213562375759
  0
VERTEX
  5
2421
  8
SAPA_PROFIL
 62
     4
 10
-79.342199549942052
 20
-29.499999995557982
 30
0.0
  0
VERTEX
  5
2422
  8
SAPA_PROFIL
 62
     4
 10
-62.848776419539043
 20
-29.49999999555617
 30
0.0
 42
0.4142135623735391
  0
VERTEX
  5
2423
  8
SAPA_PROFIL
 62
     4
 10
-62.548776419539308
 20
-29.199999995556901
 30
0.0
  0
VERTEX
  5
2424
  8
SAPA_PROFIL
 62
     4
 10
-62.548776419539308
 20
-12.79999999555907
 30
0.0
 42
0.4142135623726511
  0
VERTEX
  5
2425
  8
SAPA_PROFIL
 62
     4
 10
-62.848776419539043
 20
-12.49999999555798
 30
0.0
  0
VERTEX
  5
2426
  8
SAPA_PROFIL
 62
     4
 10
-66.896615137669869
 20
-12.49999999555798
 30
0.0
 42
0.1989123673785438
  0
VERTEX
  5
2427
  8
SAPA_PROFIL
 62
     4
 10
-67.108747172025673
 20
-12.587867961201439
 30
0.0
  0
VERTEX
  5
2428
  8
SAPA_PROFIL
 62
     4
 10
-69.333011240738415
 20
-14.81213202991416
 30
0.0
 42
-0.1989123673798886
  0
SEQEND
  5
2429
  8
SAPA_PROFIL
 62
     4
  0
POLYLINE
  5
185D
  8
SAPA_PROFIL
 62
     4
 66
     1
 10
0.0
 20
0.0
 30
0.0
 70
     1
  0
VERTEX
  5
242A
  8
SAPA_PROFIL
 62
     4
 10
-48.142199549942461
 20
-29.499999995557989
 30
0.0
  0
VERTEX
  5
242B
  8
SAPA_PROFIL
 62
     4
 10
-60.948776419538937
 20
-29.49999999555617
 30
0.0
 42
-0.4142135623732061
  0
VERTEX
  5
242C
  8
SAPA_PROFIL
 62
     4
 10
-61.248776419539119
 20
-29.199999995556901
 30
0.0
  0
VERTEX
  5
242D
  8
SAPA_PROFIL
 62
     4
 10
-61.248776419539119
 20
-12.79999999555907
 30
0.0
 42
-0.4142135623730951
  0
VERTEX
  5
242E
  8
SAPA_PROFIL
 62
     4
 10
-60.948776419538937
 20
-12.49999999555798
 30
0.0
  0
VERTEX
  5
242F
  8
SAPA_PROFIL
 62
     4
 10
-48.142199549942461
 20
-12.49999999555981
 30
0.0
 42
-0.4142135623731173
  0
VERTEX
  5
2430
  8
SAPA_PROFIL
 62
     4
 10
-47.842199549942272
 20
-12.799999995560899
 30
0.0
  0
VERTEX
  5
2431
  8
SAPA_PROFIL
 62
     4
 10
-47.842199549942272
 20
-29.199999995558709
 30
0.0
 42
-0.4142135623730951
  0
SEQEND
  5
2432
  8
SAPA_PROFIL
 62
     4
  0
POLYLINE
  5
185E
  8
SAPA_PROFIL
 62
     4
 66
     1
 10
0.0
 20
0.0
 30
0.0
 70
     1
  0
VERTEX
  5
2433
  8
SAPA_PROFIL
 62
     4
 10
-46.842199549942272
 20
-10.99999999555981
 30
0.0
  0
VERTEX
  5
2434
  8
SAPA_PROFIL
 62
     4
 10
-67.51793548122987
 20
-10.99999999555798
 30
0.0
 42
0.1989123673799843
  0
VERTEX
  5
2435
  8
SAPA_PROFIL
 62
     4
 10
-67.730067515586597
 20
-11.08786796120326
 30
0.0
  0
VERTEX
  5
2436
  8
SAPA_PROFIL
 62
     4
 10
-69.954331584297506
 20
-13.31213202991416
 30
0.0
 42
-0.1989123673811184
  0
VERTEX
  5
2437
  8
SAPA_PROFIL
 62
     4
 10
-70.166463618653324
 20
-13.39999999555762
 30
0.0
  0
VERTEX
  5
2438
  8
SAPA_PROFIL
 62
     4
 10
-73.117935481231143
 20
-13.399999995555801
 30
0.0
 42
-0.1989123673785438
  0
VERTEX
  5
2439
  8
SAPA_PROFIL
 62
     4
 10
-73.330067515586961
 20
-13.312132029912339
 30
0.0
  0
VERTEX
  5
243A
  8
SAPA_PROFIL
 62
     4
 10
-75.554331584298765
 20
-11.087867961201431
 30
0.0
 42
0.1989123673785438
  0
VERTEX
  5
243B
  8
SAPA_PROFIL
 62
     4
 10
-75.766463618654598
 20
-10.99999999555798
 30
0.0
  0
VERTEX
  5
243C
  8
SAPA_PROFIL
 62
     4
 10
-78.142199549942234
 20
-10.999999995559801
 30
0.0
 42
0.4142135623730951
  0
VERTEX
  5
243D
  8
SAPA_PROFIL
 62
     4
 10
-78.642199549942234
 20
-11.499999995559801
 30
0.0
  0
VERTEX
  5
243E
  8
SAPA_PROFIL
 62
     4
 10
-78.642199549942234
 20
-23.399999995558758
 30
0.0
 42
-0.414213562373761
  0
VERTEX
  5
243F
  8
SAPA_PROFIL
 62
     4
 10
-78.942199549942416
 20
-23.699999995558031
 30
0.0
  0
VERTEX
  5
2440
  8
SAPA_PROFIL
 62
     4
 10
-80.642199549942234
 20
-23.699999995558031
 30
0.0
 42
0.4142135623730951
  0
VERTEX
  5
2441
  8
SAPA_PROFIL
 62
     4
 10
-81.142199549942234
 20
-24.199999995558031
 30
0.0
  0
VERTEX
  5
2442
  8
SAPA_PROFIL
 62
     4
 10
-81.142199549942234
 20
-30.499999995557982
 30
0.0
 42
0.4142135623730951
  0
VERTEX
  5
2443
  8
SAPA_PROFIL
 62
     4
 10
-80.642199549942234
 20
-30.999999995557982
 30
0.0
  0
VERTEX
  5
2444
  8
SAPA_PROFIL
 62
     4
 10
-79.642199549941893
 20
-30.999999995556159
 30
0.0
 42
-0.414213562373539
  0
VERTEX
  5
2445
  8
SAPA_PROFIL
 62
     4
 10
-79.342199549941938
 20
-31.299999995555439
 30
0.0
  0
VERTEX
  5
2446
  8
SAPA_PROFIL
 62
     4
 10
-79.342199549942393
 20
-32.899999995557621
 30
0.0
 42
-0.4142135623735391
  0
VERTEX
  5
2447
  8
SAPA_PROFIL
 62
     4
 10
-79.64219954994212
 20
-33.199999995556887
 30
0.0
  0
VERTEX
  5
2448
  8
SAPA_PROFIL
 62
     4
 10
-79.942199549941733
 20
-33.199999995555068
 30
0.0
 42
0.592337729603611
  0
VERTEX
  5
2449
  8
SAPA_PROFIL
 62
     4
 10
-80.195049632545988
 20
-33.661452266296642
 30
0.0
  0
VERTEX
  5
244A
  8
SAPA_PROFIL
 62
     4
 10
-78.917990364249135
 20
-35.361452266297377
 30
0.0
 42
0.2560149538738706
  0
VERTEX
  5
244B
  8
SAPA_PROFIL
 62
     4
 10
-78.665140281643971
 20
-35.499999995557992
 30
0.0
  0
VERTEX
  5
244C
  8
SAPA_PROFIL
 62
     4
 10
-78.442199549941392
 20
-35.499999995557992
 30
0.0
 42
0.4142135623733169
  0
VERTEX
  5
244D
  8
SAPA_PROFIL
 62
     4
 10
-78.14219954994212
 20
-35.199999995558713
 30
0.0
  0
VERTEX
  5
244E
  8
SAPA_PROFIL
 62
     4
 10
-78.14219954994212
 20
-31.299999995555439
 30
0.0
 42
-0.414213562373539
  0
VERTEX
  5
244F
  8
SAPA_PROFIL
 62
     4
 10
-77.842199549942166
 20
-30.999999995556159
 30
0.0
  0
VERTEX
  5
2450
  8
SAPA_PROFIL
 62
     4
 10
-66.842199549941938
 20
-30.999999995557982
 30
0.0
 42
-0.414213562373539
  0
VERTEX
  5
2451
  8
SAPA_PROFIL
 62
     4
 10
-66.542199549941984
 20
-31.299999995557261
 30
0.0
  0
VERTEX
  5
2452
  8
SAPA_PROFIL
 62
     4
 10
-66.542199549941984
 20
-35.199999995558713
 30
0.0
 42
0.4142135623730951
  0
VERTEX
  5
2453
  8
SAPA_PROFIL
 62
     4
 10
-66.242199549942711
 20
-35.499999995557992
 30
0.0
  0
VERTEX
  5
2454
  8
SAPA_PROFIL
 62
     4
 10
-66.019258818240132
 20
-35.499999995557992
 30
0.0
 42
0.2560149538738705
  0
VERTEX
  5
2455
  8
SAPA_PROFIL
 62
     4
 10
-65.766408735634968
 20
-35.361452266297377
 30
0.0
  0
VERTEX
  5
2456
  8
SAPA_PROFIL
 62
     4
 10
-64.489349467338116
 20
-33.661452266296649
 30
0.0
 42
0.592337729603611
  0
VERTEX
  5
2457
  8
SAPA_PROFIL
 62
     4
 10
-64.74219954994237
 20
-33.199999995555082
 30
0.0
  0
VERTEX
  5
2458
  8
SAPA_PROFIL
 62
     4
 10
-65.042199549941984
 20
-33.199999995556887
 30
0.0
 42
-0.4142135623735391
  0
VERTEX
  5
2459
  8
SAPA_PROFIL
 62
     4
 10
-65.342199549941711
 20
-32.899999995557621
 30
0.0
  0
VERTEX
  5
245A
  8
SAPA_PROFIL
 62
     4
 10
-65.342199549942166
 20
-31.299999995557261
 30
0.0
 42
-0.414213562373539
  0
VERTEX
  5
245B
  8
SAPA_PROFIL
 62
     4
 10
-65.042199549942211
 20
-30.999999995557982
 30
0.0
  0
VERTEX
  5
245C
  8
SAPA_PROFIL
 62
     4
 10
-46.842199549942279
 20
-30.99999999556163
 30
0.0
 42
0.414213562373126
  0
VERTEX
  5
245D
  8
SAPA_PROFIL
 62
     4
 10
-46.342199549942279
 20
-30.49999999556163
 30
0.0
  0
VERTEX
  5
245E
  8
SAPA_PROFIL
 62
     4
 10
-46.342199549942272
 20
-11.49999999555981
 30
0.0
 42
0.4142135623730951
  0
SEQEND
  5
245F
  8
SAPA_PROFIL
 62
     4
  0
POLYLINE
  5
185F
  8
SAPA_PROFIL
 66
     1
 10
0.0
 20
0.0
 30
0.0
 70
     1
  0
VERTEX
  5
2460
  8
SAPA_PROFIL
 10
-30.14219971602007
 20
-86.199999995497393
 30
0.0
 42
-0.4142135623730951
  0
VERTEX
  5
2461
  8
SAPA_PROFIL
 10
-30.442199716020092
 20
-86.499999995497404
 30
0.0
  0
VERTEX
  5
2462
  8
SAPA_PROFIL
 10
-32.042199716020079
 20
-86.499999995497305
 30
0.0
 42
0.4142135623730951
  0
VERTEX
  5
2463
  8
SAPA_PROFIL
 10
-32.34219971602009
 20
-86.799999995497316
 30
0.0
  0
VERTEX
  5
2464
  8
SAPA_PROFIL
 10
-32.34219971602009
 20
-87.375735926785495
 30
0.0
 42
0.1989123673795745
  0
VERTEX
  5
2465
  8
SAPA_PROFIL
 10
-32.254331750376103
 20
-87.587867961141384
 30
0.0
  0
VERTEX
  5
2466
  8
SAPA_PROFIL
 10
-31.430067681664099
 20
-88.412132029853268
 30
0.0
 42
0.1989123673796451
  0
VERTEX
  5
2467
  8
SAPA_PROFIL
 10
-31.217935647308192
 20
-88.499999995497419
 30
0.0
  0
VERTEX
  5
2468
  8
SAPA_PROFIL
 10
-28.64219971602019
 20
-88.499999995497419
 30
0.0
 42
0.4142135623732032
  0
VERTEX
  5
2469
  8
SAPA_PROFIL
 10
-28.342199716020101
 20
-88.199999995497407
 30
0.0
  0
VERTEX
  5
246A
  8
SAPA_PROFIL
 10
-28.342199716020168
 20
-83.799999995498126
 30
0.0
 42
-0.41421356237312
  0
VERTEX
  5
246B
  8
SAPA_PROFIL
 10
-28.042199716020079
 20
-83.499999995498385
 30
0.0
  0
VERTEX
  5
246C
  8
SAPA_PROFIL
 10
-1.892199724472261
 20
-83.499999995500303
 30
0.0
 42
0.41421356237312
  0
VERTEX
  5
246D
  8
SAPA_PROFIL
 10
-0.8921997244721762
 20
-82.499999995500303
 30
0.0
  0
VERTEX
  5
246E
  8
SAPA_PROFIL
 10
-0.8921997244721753
 20
-75.816729761475315
 30
0.0
 42
0.1628603417903348
  0
VERTEX
  5
246F
  8
SAPA_PROFIL
 10
-0.9425408469603668
 20
-75.666276005687308
 30
0.0
  0
VERTEX
  5
2470
  8
SAPA_PROFIL
 10
-1.5817903690342521
 20
-74.817963237695778
 30
0.0
 42
-0.1628603417903348
  0
VERTEX
  5
2471
  8
SAPA_PROFIL
 10
-1.6421997160200701
 20
-74.63741873075017
 30
0.0
  0
VERTEX
  5
2472
  8
SAPA_PROFIL
 10
-1.642199716020057
 20
-74.102072589716272
 30
0.0
 42
-0.2679491924313054
  0
VERTEX
  5
2473
  8
SAPA_PROFIL
 10
-1.4921997160201781
 20
-73.842264968580807
 30
0.0
  0
VERTEX
  5
2474
  8
SAPA_PROFIL
 10
-0.8421997160203689
 20
-73.466987293607602
 30
0.0
 42
0.4244748162097881
  0
VERTEX
  5
2475
  8
SAPA_PROFIL
 10
-0.6681756679420915
 20
-72.769014959598692
 30
0.0
  0
VERTEX
  5
2476
  8
SAPA_PROFIL
 10
-1.3767616389611961
 20
-71.635040363382686
 30
0.0
 42
0.2586175843565894
  0
VERTEX
  5
2477
  8
SAPA_PROFIL
 10
-1.8007856870406831
 20
-71.399999995499215
 30
0.0
  0
VERTEX
  5
2478
  8
SAPA_PROFIL
 10
-1.9770445052970691
 20
-71.399999995499556
 30
0.0
 42
0.3573618656727155
  0
VERTEX
  5
2479
  8
SAPA_PROFIL
 10
-2.2711875948934721
 20
-71.641009802736207
 30
0.0
  0
VERTEX
  5
247A
  8
SAPA_PROFIL
 10
-2.8017588773193189
 20
-74.286600009399621
 30
0.0
 42
0.290805460401057
  0
VERTEX
  5
247B
  8
SAPA_PROFIL
 10
-2.279875947990373
 20
-75.809660164510603
 30
0.0
 42
-0.2278537862654153
  0
VERTEX
  5
247C
  8
SAPA_PROFIL
 10
-2.0921997244721919
 20
-76.200113565884095
 30
0.0
  0
VERTEX
  5
247D
  8
SAPA_PROFIL
 10
-2.0921997244721928
 20
-81.199999993873746
 30
0.0
 42
-0.4142135623730951
  0
VERTEX
  5
247E
  8
SAPA_PROFIL
 10
-2.5921997244721928
 20
-81.699999993873746
 30
0.0
  0
VERTEX
  5
247F
  8
SAPA_PROFIL
 10
-16.592199724768211
 20
-81.699999993873746
 30
0.0
 42
-0.4142135623730951
  0
VERTEX
  5
2480
  8
SAPA_PROFIL
 10
-17.092199724768211
 20
-81.199999993873746
 30
0.0
  0
VERTEX
  5
2481
  8
SAPA_PROFIL
 10
-17.0921997247682
 20
-76.299999995499604
 30
0.0
 42
0.4142135623730951
  0
VERTEX
  5
2482
  8
SAPA_PROFIL
 10
-17.5921997247682
 20
-75.799999995499604
 30
0.0
  0
VERTEX
  5
2483
  8
SAPA_PROFIL
 10
-18.192199724632541
 20
-75.799999995499604
 30
0.0
 42
0.4142135623730951
  0
VERTEX
  5
2484
  8
SAPA_PROFIL
 10
-18.692199724632541
 20
-76.299999995499604
 30
0.0
  0
VERTEX
  5
2485
  8
SAPA_PROFIL
 10
-18.692199724632541
 20
-81.199999989209928
 30
0.0
 42
-0.414213562315631
  0
VERTEX
  5
2486
  8
SAPA_PROFIL
 10
-19.192199724534429
 20
-81.699999989209942
 30
0.0
  0
VERTEX
  5
2487
  8
SAPA_PROFIL
 10
-51.24719971602017
 20
-81.699999995498786
 30
0.0
 42
0.4142135623735363
  0
VERTEX
  5
2488
  8
SAPA_PROFIL
 10
-51.742199716020288
 20
-82.194999995497795
 30
0.0
  0
VERTEX
  5
2489
  8
SAPA_PROFIL
 10
-51.742199716020288
 20
-82.204999995497971
 30
0.0
 42
0.4142135623729203
  0
VERTEX
  5
248A
  8
SAPA_PROFIL
 10
-51.247199716020177
 20
-82.699999995498771
 30
0.0
  0
VERTEX
  5
248B
  8
SAPA_PROFIL
 10
-51.087199716020088
 20
-82.699999995498757
 30
0.0
 42
-0.4142135623734113
  0
VERTEX
  5
248C
  8
SAPA_PROFIL
 10
-50.592199716020183
 20
-83.194999995497824
 30
0.0
  0
VERTEX
  5
248D
  8
SAPA_PROFIL
 10
-50.592199716020183
 20
-83.999999995498115
 30
0.0
 42
-0.3653737038880782
  0
VERTEX
  5
248E
  8
SAPA_PROFIL
 10
-52.878092113895619
 20
-86.710554207029304
 30
0.0
  0
VERTEX
  5
248F
  8
SAPA_PROFIL
 10
-53.165423020723331
 20
-86.423223300201798
 30
0.0
 42
0.4142135623721916
  0
VERTEX
  5
2490
  8
SAPA_PROFIL
 10
-53.518976411316068
 20
-86.423223300201414
 30
0.0
  0
VERTEX
  5
2491
  8
SAPA_PROFIL
 10
-53.806307318145826
 20
-86.710554207029588
 30
0.0
 42
-0.3653737038879154
  0
VERTEX
  5
2492
  8
SAPA_PROFIL
 10
-56.092199716020168
 20
-83.999999995498086
 30
0.0
  0
VERTEX
  5
2493
  8
SAPA_PROFIL
 10
-56.092199716020197
 20
-83.194999995497795
 30
0.0
 42
-0.4142135623729951
  0
VERTEX
  5
2494
  8
SAPA_PROFIL
 10
-55.597199716020988
 20
-82.699999995498757
 30
0.0
  0
VERTEX
  5
2495
  8
SAPA_PROFIL
 10
-55.437199716020181
 20
-82.699999995498757
 30
0.0
 42
0.4142135623729285
  0
VERTEX
  5
2496
  8
SAPA_PROFIL
 10
-54.942199716020077
 20
-82.204999995497957
 30
0.0
  0
VERTEX
  5
2497
  8
SAPA_PROFIL
 10
-54.942199716020561
 20
-82.194999995475285
 30
0.0
 42
0.4142135623601338
  0
VERTEX
  5
2498
  8
SAPA_PROFIL
 10
-55.437199716020167
 20
-81.699999995498786
 30
0.0
  0
VERTEX
  5
2499
  8
SAPA_PROFIL
 10
-61.642199715274103
 20
-81.699999988632129
 30
0.0
 42
-0.4142135623731365
  0
VERTEX
  5
249A
  8
SAPA_PROFIL
 10
-62.142199715360519
 20
-81.199999988719384
 30
0.0
  0
VERTEX
  5
249B
  8
SAPA_PROFIL
 10
-62.142199716173216
 20
-76.299999995340869
 30
0.0
 42
0.4142135623728037
  0
VERTEX
  5
249C
  8
SAPA_PROFIL
 10
-62.6421997162591
 20
-75.799999995428294
 30
0.0
  0
VERTEX
  5
249D
  8
SAPA_PROFIL
 10
-63.242199716512587
 20
-75.79999999556648
 30
0.0
 42
0.4142135623733948
  0
VERTEX
  5
249E
  8
SAPA_PROFIL
 10
-63.742199716426583
 20
-76.299999995653792
 30
0.0
  0
VERTEX
  5
249F
  8
SAPA_PROFIL
 10
-63.742199715613872
 20
-81.199999989030488
 30
0.0
 42
-0.4142135623730951
  0
VERTEX
  5
24A0
  8
SAPA_PROFIL
 10
-64.242199715527548
 20
-81.699999989117757
 30
0.0
  0
VERTEX
  5
24A1
  8
SAPA_PROFIL
 10
-81.642199716019903
 20
-81.699999995498786
 30
0.0
 42
-0.4142135623730951
  0
VERTEX
  5
24A2
  8
SAPA_PROFIL
 10
-82.142199716019888
 20
-81.199999995498771
 30
0.0
  0
VERTEX
  5
24A3
  8
SAPA_PROFIL
 10
-82.142199716019888
 20
-78.299999995340869
 30
0.0
 42
-0.4142135623730951
  0
VERTEX
  5
24A4
  8
SAPA_PROFIL
 10
-81.642199716019903
 20
-77.799999995340869
 30
0.0
  0
VERTEX
  5
24A5
  8
SAPA_PROFIL
 10
-80.099306497206541
 20
-77.799999995340869
 30
0.0
 42
0.1989123673798694
  0
VERTEX
  5
24A6
  8
SAPA_PROFIL
 10
-79.745753106613236
 20
-77.653553385933293
 30
0.0
  0
VERTEX
  5
24A7
  8
SAPA_PROFIL
 10
-78.288646325427052
 20
-76.196446604748473
 30
0.0
 42
0.1989123673796867
  0
VERTEX
  5
24A8
  8
SAPA_PROFIL
 10
-78.142199716019903
 20
-75.842893214154174
 30
0.0
  0
VERTEX
  5
24A9
  8
SAPA_PROFIL
 10
-78.142199716019903
 20
-74.537893448850411
 30
0.0
 42
0.0495213429255793
  0
VERTEX
  5
24AA
  8
SAPA_PROFIL
 10
-78.151961233358136
 20
-74.439576460911098
 30
0.0
  0
VERTEX
  5
24AB
  8
SAPA_PROFIL
 10
-78.713211837147682
 20
-71.641009802577216
 30
0.0
 42
0.3573618656739605
  0
VERTEX
  5
24AC
  8
SAPA_PROFIL
 10
-79.007354926742963
 20
-71.399999995339414
 30
0.0
  0
VERTEX
  5
24AD
  8
SAPA_PROFIL
 10
-79.183613744999391
 20
-71.399999995339414
 30
0.0
 42
0.2586175843560156
  0
VERTEX
  5
24AE
  8
SAPA_PROFIL
 10
-79.607637793078837
 20
-71.635040363224135
 30
0.0
  0
VERTEX
  5
24AF
  8
SAPA_PROFIL
 10
-80.316223764099533
 20
-72.769014959440085
 30
0.0
 42
0.4244748162094236
  0
VERTEX
  5
24B0
  8
SAPA_PROFIL
 10
-80.142199716019903
 20
-73.466987293448284
 30
0.0
  0
VERTEX
  5
24B1
  8
SAPA_PROFIL
 10
-79.492199716020636
 20
-73.842264968419599
 30
0.0
 42
-0.2679491924316278
  0
VERTEX
  5
24B2
  8
SAPA_PROFIL
 10
-79.342199716020176
 20
-74.10207258955522
 30
0.0
  0
VERTEX
  5
24B3
  8
SAPA_PROFIL
 10
-79.342199716020403
 20
-75.428679651781167
 30
0.0
 42
-0.1989123673795245
  0
VERTEX
  5
24B4
  8
SAPA_PROFIL
 10
-79.430067681664369
 20
-75.640811686137027
 30
0.0
  0
VERTEX
  5
24B5
  8
SAPA_PROFIL
 10
-80.242809381461029
 20
-76.453553385934384
 30
0.0
 42
-0.1989123673801597
  0
VERTEX
  5
24B6
  8
SAPA_PROFIL
 10
-80.596362772054206
 20
-76.59999999534017
 30
0.0
  0
VERTEX
  5
24B7
  8
SAPA_PROFIL
 10
-81.592199716020289
 20
-76.59999999534017
 30
0.0
 42
-0.4142135623724791
  0
VERTEX
  5
24B8
  8
SAPA_PROFIL
 10
-81.842199716020289
 20
-76.349999995340696
 30
0.0
  0
VERTEX
  5
24B9
  8
SAPA_PROFIL
 10
-81.842199716020517
 20
-76.249999995341028
 30
0.0
 42
0.4142135623724624
  0
VERTEX
  5
24BA
  8
SAPA_PROFIL
 10
-82.092199716020517
 20
-75.999999995341568
 30
0.0
  0
VERTEX
  5
24BB
  8
SAPA_PROFIL
 10
-83.092199716020176
 20
-75.999999995341568
 30
0.0
 42
0.4142135623730951
  0
VERTEX
  5
24BC
  8
SAPA_PROFIL
 10
-83.342199716020176
 20
-76.249999995341568
 30
0.0
  0
VERTEX
  5
24BD
  8
SAPA_PROFIL
 10
-83.342199716020204
 20
-83.199999995497393
 30
0.0
 42
0.4142135623730951
  0
VERTEX
  5
24BE
  8
SAPA_PROFIL
 10
-83.042199716020207
 20
-83.499999995497404
 30
0.0
  0
VERTEX
  5
24BF
  8
SAPA_PROFIL
 10
-78.642199716020187
 20
-83.499999995497348
 30
0.0
 42
-0.4142135623730951
  0
VERTEX
  5
24C0
  8
SAPA_PROFIL
 10
-78.342199716020176
 20
-83.799999995497359
 30
0.0
  0
VERTEX
  5
24C1
  8
SAPA_PROFIL
 10
-78.342199716020176
 20
-88.199999995497393
 30
0.0
 42
0.4142135623730117
  0
VERTEX
  5
24C2
  8
SAPA_PROFIL
 10
-78.042199716020107
 20
-88.499999995497404
 30
0.0
  0
VERTEX
  5
24C3
  8
SAPA_PROFIL
 10
-75.466463784732085
 20
-88.499999995497404
 30
0.0
 42
0.1989123673796266
  0
VERTEX
  5
24C4
  8
SAPA_PROFIL
 10
-75.254331750376153
 20
-88.412132029853382
 30
0.0
  0
VERTEX
  5
24C5
  8
SAPA_PROFIL
 10
-74.430067681664184
 20
-87.58786796114137
 30
0.0
 42
0.1989123673796215
  0
VERTEX
  5
24C6
  8
SAPA_PROFIL
 10
-74.342199716020176
 20
-87.375735926785495
 30
0.0
  0
VERTEX
  5
24C7
  8
SAPA_PROFIL
 10
-74.342199716020204
 20
-86.799999995497302
 30
0.0
 42
0.4142135623730951
  0
VERTEX
  5
24C8
  8
SAPA_PROFIL
 10
-74.64219971602013
 20
-86.499999995497291
 30
0.0
  0
VERTEX
  5
24C9
  8
SAPA_PROFIL
 10
-76.242199716020181
 20
-86.499999995497333
 30
0.0
 42
-0.4142135623730617
  0
VERTEX
  5
24CA
  8
SAPA_PROFIL
 10
-76.542199716020093
 20
-86.199999995497379
 30
0.0
  0
VERTEX
  5
24CB
  8
SAPA_PROFIL
 10
-76.54219971602005
 20
-83.799999995497359
 30
0.0
 42
-0.4142135623731534
  0
VERTEX
  5
24CC
  8
SAPA_PROFIL
 10
-76.242199716020153
 20
-83.499999995497404
 30
0.0
  0
VERTEX
  5
24CD
  8
SAPA_PROFIL
 10
-58.342199716020168
 20
-83.499999995497404
 30
0.0
 42
-0.4142135623730868
  0
VERTEX
  5
24CE
  8
SAPA_PROFIL
 10
-57.842199716020168
 20
-83.999999995497404
 30
0.0
  0
VERTEX
  5
24CF
  8
SAPA_PROFIL
 10
-57.842199716020048
 20
-87.999999995497376
 30
0.0
 42
0.4142135623730784
  0
VERTEX
  5
24D0
  8
SAPA_PROFIL
 10
-57.54219971602005
 20
-88.299999995497359
 30
0.0
  0
VERTEX
  5
24D1
  8
SAPA_PROFIL
 10
-54.022584473749433
 20
-88.299999995497302
 30
0.0
 42
0.1316524975872861
  0
VERTEX
  5
24D2
  8
SAPA_PROFIL
 10
-53.872584473749569
 20
-88.259807616632713
 30
0.0
  0
VERTEX
  5
24D3
  8
SAPA_PROFIL
 10
-53.49219971601979
 20
-88.040192374362036
 30
0.0
 42
-0.2679491924310436
  0
VERTEX
  5
24D4
  8
SAPA_PROFIL
 10
-53.192199716019921
 20
-88.040192374362064
 30
0.0
  0
VERTEX
  5
24D5
  8
SAPA_PROFIL
 10
-52.81181495829086
 20
-88.259807616632671
 30
0.0
 42
0.1316524975874466
  0
VERTEX
  5
24D6
  8
SAPA_PROFIL
 10
-52.661814958290798
 20
-88.299999995497359
 30
0.0
  0
VERTEX
  5
24D7
  8
SAPA_PROFIL
 10
-49.142199716020102
 20
-88.299999995497316
 30
0.0
 42
0.4142135623730951
  0
VERTEX
  5
24D8
  8
SAPA_PROFIL
 10
-48.84219971602009
 20
-87.999999995497305
 30
0.0
  0
VERTEX
  5
24D9
  8
SAPA_PROFIL
 10
-48.84219971602009
 20
-83.999999995497404
 30
0.0
 42
-0.4142135623730951
  0
VERTEX
  5
24DA
  8
SAPA_PROFIL
 10
-48.34219971602009
 20
-83.499999995497419
 30
0.0
  0
VERTEX
  5
24DB
  8
SAPA_PROFIL
 10
-30.442199716020092
 20
-83.499999995497404
 30
0.0
 42
-0.4142135623731534
  0
VERTEX
  5
24DC
  8
SAPA_PROFIL
 10
-30.14219971602019
 20
-83.799999995497373
 30
0.0
  0
SEQEND
  5
24DD
  8
SAPA_PROFIL
  0
POLYLINE
  5
1860
  8
SAPA_PROFIL
 66
     1
 10
0.0
 20
0.0
 30
0.0
 70
     1
  0
VERTEX
  5
24DE
  8
SAPA_PROFIL
 10
48.799999999999038
 20
45.000000000000561
 30
0.0
  0
VERTEX
  5
24DF
  8
SAPA_PROFIL
 10
50.799999999999052
 20
45.000000000000561
 30
0.0
  0
VERTEX
  5
24E0
  8
SAPA_PROFIL
 10
50.799999999999052
 20
30.656854249492991
 30
0.0
  0
VERTEX
  5
24E1
  8
SAPA_PROFIL
 10
45.143145750506612
 20
25.000000000000568
 30
0.0
  0
VERTEX
  5
24E2
  8
SAPA_PROFIL
 10
25.799999999999049
 20
25.000000000000568
 30
0.0
  0
VERTEX
  5
24E3
  8
SAPA_PROFIL
 10
25.799999999999049
 20
27.000000000000568
 30
0.0
  0
VERTEX
  5
24E4
  8
SAPA_PROFIL
 10
31.107179676971551
 20
27.000000000000568
 30
0.0
  0
VERTEX
  5
24E5
  8
SAPA_PROFIL
 10
31.799999999999049
 20
26.600000000000708
 30
0.0
  0
VERTEX
  5
24E6
  8
SAPA_PROFIL
 10
32.492820323026763
 20
27.000000000000568
 30
0.0
  0
VERTEX
  5
24E7
  8
SAPA_PROFIL
 10
43.486291501014421
 20
27.000000000000568
 30
0.0
 42
0.1989123673796584
  0
VERTEX
  5
24E8
  8
SAPA_PROFIL
 10
44.900505063387527
 20
27.585786437627458
 30
0.0
  0
VERTEX
  5
24E9
  8
SAPA_PROFIL
 10
48.214213562372152
 20
30.899494936612321
 30
0.0
 42
0.1989123673796572
  0
VERTEX
  5
24EA
  8
SAPA_PROFIL
 10
48.799999999999038
 20
32.31370849898542
 30
0.0
  0
VERTEX
  5
24EB
  8
SAPA_PROFIL
 10
48.799999999999038
 20
38.307179676973078
 30
0.0
  0
VERTEX
  5
24EC
  8
SAPA_PROFIL
 10
49.199999999999129
 20
39.000000000000568
 30
0.0
  0
VERTEX
  5
24ED
  8
SAPA_PROFIL
 10
48.799999999999038
 20
39.692820323028279
 30
0.0
  0
SEQEND
  5
24EE
  8
SAPA_PROFIL
  0
POLYLINE
  5
1861
  8
SAPA_PROFIL
 66
     1
 10
0.0
 20
0.0
 30
0.0
 70
     1
  0
VERTEX
  5
24EF
  8
SAPA_PROFIL
 10
-62.691421355248281
 20
14.958578643757789
 30
0.0
 42
-0.4142135623730879
  0
VERTEX
  5
24F0
  8
SAPA_PROFIL
 10
-62.191421355248281
 20
15.458578643757789
 30
0.0
  0
VERTEX
  5
24F1
  8
SAPA_PROFIL
 10
-57.391421355248099
 20
15.45857864375756
 30
0.0
 42
0.4142135623731014
  0
VERTEX
  5
24F2
  8
SAPA_PROFIL
 10
-56.891421355248099
 20
15.95857864375756
 30
0.0
  0
VERTEX
  5
24F3
  8
SAPA_PROFIL
 10
-56.891421355247871
 20
23.058578643756899
 30
0.0
 42
-0.4142135623730951
  0
VERTEX
  5
24F4
  8
SAPA_PROFIL
 10
-56.391421355247871
 20
23.558578643756899
 30
0.0
  0
VERTEX
  5
24F5
  8
SAPA_PROFIL
 10
-46.791421355247508
 20
23.558578643756899
 30
0.0
 42
-0.4142135623731054
  0
VERTEX
  5
24F6
  8
SAPA_PROFIL
 10
-46.291421355247508
 20
23.058578643756899
 30
0.0
  0
VERTEX
  5
24F7
  8
SAPA_PROFIL
 10
-46.291421355247728
 20
16.95857864375699
 30
0.0
 42
-0.4142135623730822
  0
VERTEX
  5
24F8
  8
SAPA_PROFIL
 10
-46.791421355247728
 20
16.45857864375699
 30
0.0
  0
VERTEX
  5
24F9
  8
SAPA_PROFIL
 10
-51.891421355248553
 20
16.45857864375699
 30
0.0
 42
0.4142135623730919
  0
VERTEX
  5
24FA
  8
SAPA_PROFIL
 10
-52.391421355248553
 20
15.95857864375699
 30
0.0
  0
VERTEX
  5
24FB
  8
SAPA_PROFIL
 10
-52.391421355248553
 20
12.25857864376013
 30
0.0
 42
-0.414213562373061
  0
VERTEX
  5
24FC
  8
SAPA_PROFIL
 10
-52.891421355248553
 20
11.75857864376013
 30
0.0
  0
VERTEX
  5
24FD
  8
SAPA_PROFIL
 10
-62.191421355248281
 20
11.758578643759099
 30
0.0
 42
-0.414213562373165
  0
VERTEX
  5
24FE
  8
SAPA_PROFIL
 10
-62.691421355248281
 20
12.25857864375911
 30
0.0
  0
SEQEND
  5
24FF
  8
SAPA_PROFIL
  0
POLYLINE
  5
1862
  8
SAPA_PROFIL
 66
     1
 10
0.0
 20
0.0
 30
0.0
 70
     1
  0
VERTEX
  5
2500
  8
SAPA_PROFIL
 10
-64.191421355248167
 20
18.058578643757009
 30
0.0
  0
VERTEX
  5
2501
  8
SAPA_PROFIL
 10
-63.726497935682801
 20
18.64496265951783
 30
0.0
 42
-0.7105995015651415
  0
VERTEX
  5
2502
  8
SAPA_PROFIL
 10
-63.19142135524794
 20
18.458578643757111
 30
0.0
  0
VERTEX
  5
2503
  8
SAPA_PROFIL
 10
-63.191421355248167
 20
17.458578643757221
 30
0.0
 42
0.4142135623731451
  0
VERTEX
  5
2504
  8
SAPA_PROFIL
 10
-62.69142135524816
 20
16.9585786437571
 30
0.0
  0
VERTEX
  5
2505
  8
SAPA_PROFIL
 10
-58.891421355248319
 20
16.9585786437571
 30
0.0
 42
0.4142135623730951
  0
VERTEX
  5
2506
  8
SAPA_PROFIL
 10
-58.391421355248319
 20
17.4585786437571
 30
0.0
  0
VERTEX
  5
2507
  8
SAPA_PROFIL
 10
-58.391421355247871
 20
23.05857864375702
 30
0.0
 42
0.4142135623730951
  0
VERTEX
  5
2508
  8
SAPA_PROFIL
 10
-58.891421355247871
 20
23.558578643757009
 30
0.0
  0
VERTEX
  5
2509
  8
SAPA_PROFIL
 10
-62.69142135524806
 20
23.558578643757009
 30
0.0
 42
0.4142135623730368
  0
VERTEX
  5
250A
  8
SAPA_PROFIL
 10
-63.191421355248053
 20
23.05857864375713
 30
0.0
  0
VERTEX
  5
250B
  8
SAPA_PROFIL
 10
-63.191421355248167
 20
22.05857864375702
 30
0.0
 42
-0.7105995015650846
  0
VERTEX
  5
250C
  8
SAPA_PROFIL
 10
-63.726497935682801
 20
21.87219462799629
 30
0.0
  0
VERTEX
  5
250D
  8
SAPA_PROFIL
 10
-64.191421355248167
 20
22.458578643757111
 30
0.0
  0
VERTEX
  5
250E
  8
SAPA_PROFIL
 10
-64.191421355248167
 20
24.55857864375713
 30
0.0
 42
-0.4142135623730951
  0
VERTEX
  5
250F
  8
SAPA_PROFIL
 10
-63.691421355248167
 20
25.05857864375713
 30
0.0
  0
VERTEX
  5
2510
  8
SAPA_PROFIL
 10
-44.7914213552475
 20
25.058578643756899
 30
0.0
 42
-0.4142135623730951
  0
VERTEX
  5
2511
  8
SAPA_PROFIL
 10
-44.291421355247508
 20
24.558578643756899
 30
0.0
  0
VERTEX
  5
2512
  8
SAPA_PROFIL
 10
-44.29142135524728
 20
22.95857864375699
 30
0.0
  0
VERTEX
  5
2513
  8
SAPA_PROFIL
 10
-44.29142135524728
 20
22.95857864375699
 30
0.0
 42
0.4142135623730868
  0
VERTEX
  5
2514
  8
SAPA_PROFIL
 10
-44.791421355247273
 20
22.45857864375699
 30
0.0
  0
VERTEX
  5
2515
  8
SAPA_PROFIL
 10
-44.7914213552475
 20
15.45857864375699
 30
0.0
 42
-0.4142135623730951
  0
VERTEX
  5
2516
  8
SAPA_PROFIL
 10
-45.2914213552475
 20
14.95857864375699
 30
0.0
  0
VERTEX
  5
2517
  8
SAPA_PROFIL
 10
-50.391421355247871
 20
14.95857864375699
 30
0.0
 42
0.4142135623730951
  0
VERTEX
  5
2518
  8
SAPA_PROFIL
 10
-50.891421355247871
 20
14.45857864375699
 30
0.0
  0
VERTEX
  5
2519
  8
SAPA_PROFIL
 10
-50.891421355248092
 20
11.45857864375699
 30
0.0
 42
0.4142135623730951
  0
VERTEX
  5
251A
  8
SAPA_PROFIL
 10
-50.391421355247978
 20
10.95857864375699
 30
0.0
  0
VERTEX
  5
251B
  8
SAPA_PROFIL
 10
-34.49142135524756
 20
10.9585786437579
 30
0.0
 42
0.4142135623730951
  0
VERTEX
  5
251C
  8
SAPA_PROFIL
 10
-34.191421355247599
 20
11.258578643757851
 30
0.0
  0
VERTEX
  5
251D
  8
SAPA_PROFIL
 10
-34.191421355247712
 20
12.54678952346552
 30
0.0
 42
-0.6681786379192988
  0
VERTEX
  5
251E
  8
SAPA_PROFIL
 10
-33.679289320891712
 20
12.75892155782156
 30
0.0
  0
VERTEX
  5
251F
  8
SAPA_PROFIL
 10
-31.479289320891549
 20
10.55892155782163
 30
0.0
 42
-0.1989123673796285
  0
VERTEX
  5
2520
  8
SAPA_PROFIL
 10
-31.39142135524764
 20
10.3467895234657
 30
0.0
  0
VERTEX
  5
2521
  8
SAPA_PROFIL
 10
-31.39142135524742
 20
9.7585786437577422
 30
0.0
 42
-0.4142135623730951
  0
VERTEX
  5
2522
  8
SAPA_PROFIL
 10
-31.691421355247488
 20
9.4585786437579031
 30
0.0
  0
VERTEX
  5
2523
  8
SAPA_PROFIL
 10
-50.391421355248333
 20
9.4585786437579031
 30
0.0
 42
0.4142135623730951
  0
VERTEX
  5
2524
  8
SAPA_PROFIL
 10
-50.891421355248319
 20
8.9585786437579031
 30
0.0
  0
VERTEX
  5
2525
  8
SAPA_PROFIL
 10
-50.891421355248319
 20
7.258578643758085
 30
0.0
 42
0.4142135623730951
  0
VERTEX
  5
2526
  8
SAPA_PROFIL
 10
-50.391421355248333
 20
6.758578643758085
 30
0.0
  0
VERTEX
  5
2527
  8
SAPA_PROFIL
 10
-38.891421355248553
 20
6.7585786437583124
 30
0.0
 42
-0.4142135623730951
  0
VERTEX
  5
2528
  8
SAPA_PROFIL
 10
-38.391421355248561
 20
6.2585786437583124
 30
0.0
  0
VERTEX
  5
2529
  8
SAPA_PROFIL
 10
-38.391421355248561
 20
5.758578643758085
 30
0.0
 42
-0.4142135623730951
  0
VERTEX
  5
252A
  8
SAPA_PROFIL
 10
-38.891421355248553
 20
5.258578643758085
 30
0.0
  0
VERTEX
  5
252B
  8
SAPA_PROFIL
 10
-51.891421355248553
 20
5.2585786437591082
 30
0.0
 42
-0.4142135623730951
  0
VERTEX
  5
252C
  8
SAPA_PROFIL
 10
-52.391421355248553
 20
5.7585786437591082
 30
0.0
  0
VERTEX
  5
252D
  8
SAPA_PROFIL
 10
-52.391421355248667
 20
9.7585786437601314
 30
0.0
 42
0.4142135623731284
  0
VERTEX
  5
252E
  8
SAPA_PROFIL
 10
-52.891421355248781
 20
10.25857864376013
 30
0.0
  0
VERTEX
  5
252F
  8
SAPA_PROFIL
 10
-63.691421355248387
 20
10.258578643758881
 30
0.0
 42
-0.4142135623730951
  0
VERTEX
  5
2530
  8
SAPA_PROFIL
 10
-64.191421355248394
 20
10.758578643758881
 30
0.0
  0
SEQEND
  5
2531
  8
SAPA_PROFIL
  0
POLYLINE
  5
1863
  8
SAPA_PROFIL
 66
     1
 10
0.0
 20
0.0
 30
0.0
 70
     1
  0
VERTEX
  5
2532
  8
SAPA_PROFIL
 10
-91.098475071208
 20
-22.800000000000189
 30
0.0
  0
VERTEX
  5
2533
  8
SAPA_PROFIL
 10
-91.098475071208
 20
-23.800000000000189
 30
0.0
  0
VERTEX
  5
2534
  8
SAPA_PROFIL
 10
-88.498475071207835
 20
-23.800000000000189
 30
0.0
 42
-0.4142135623730951
  0
VERTEX
  5
2535
  8
SAPA_PROFIL
 10
-87.998475071207835
 20
-24.300000000000189
 30
0.0
  0
VERTEX
  5
2536
  8
SAPA_PROFIL
 10
-87.998475071207835
 20
-24.70000000000028
 30
0.0
 42
-0.4142135623730951
  0
VERTEX
  5
2537
  8
SAPA_PROFIL
 10
-88.298475071207804
 20
-25.000000000000231
 30
0.0
  0
VERTEX
  5
2538
  8
SAPA_PROFIL
 10
-105.9999999990105
 20
-25.000000000000231
 30
0.0
 42
-0.4142135623730951
  0
VERTEX
  5
2539
  8
SAPA_PROFIL
 10
-106.4999999990104
 20
-24.500000000000231
 30
0.0
  0
VERTEX
  5
253A
  8
SAPA_PROFIL
 10
-106.4999999990104
 20
24.499999999999769
 30
0.0
 42
-0.4142135623730951
  0
VERTEX
  5
253B
  8
SAPA_PROFIL
 10
-105.9999999990104
 20
24.999999999999769
 30
0.0
  0
VERTEX
  5
253C
  8
SAPA_PROFIL
 10
-88.298475071207775
 20
24.999999999999769
 30
0.0
 42
-0.4142135623730951
  0
VERTEX
  5
253D
  8
SAPA_PROFIL
 10
-87.998475071207821
 20
24.699999999999811
 30
0.0
  0
VERTEX
  5
253E
  8
SAPA_PROFIL
 10
-87.998475071207821
 20
24.29999999999972
 30
0.0
 42
-0.4142135623730951
  0
VERTEX
  5
253F
  8
SAPA_PROFIL
 10
-88.498475071207835
 20
23.79999999999972
 30
0.0
  0
VERTEX
  5
2540
  8
SAPA_PROFIL
 10
-91.098475071207986
 20
23.79999999999972
 30
0.0
  0
VERTEX
  5
2541
  8
SAPA_PROFIL
 10
-91.098475071207986
 20
22.79999999999972
 30
0.0
  0
VERTEX
  5
2542
  8
SAPA_PROFIL
 10
-92.102507830840963
 20
22.22033922157857
 30
0.0
 42
-0.4155392929676362
  0
VERTEX
  5
2543
  8
SAPA_PROFIL
 10
-93.197126802632965
 20
22.51631264788443
 30
0.0
  0
VERTEX
  5
2544
  8
SAPA_PROFIL
 10
-93.938264040931927
 20
23.79999999999972
 30
0.0
  0
VERTEX
  5
2545
  8
SAPA_PROFIL
 10
-104.09999999901061
 20
23.799999999999731
 30
0.0
 42
0.4142135623730951
  0
VERTEX
  5
2546
  8
SAPA_PROFIL
 10
-105.09999999901061
 20
22.799999999999731
 30
0.0
  0
VERTEX
  5
2547
  8
SAPA_PROFIL
 10
-105.09999999901061
 20
-22.800000000000178
 30
0.0
 42
0.4142135623730951
  0
VERTEX
  5
2548
  8
SAPA_PROFIL
 10
-104.09999999901061
 20
-23.800000000000178
 30
0.0
  0
VERTEX
  5
2549
  8
SAPA_PROFIL
 10
-93.938264040931955
 20
-23.800000000000189
 30
0.0
  0
VERTEX
  5
254A
  8
SAPA_PROFIL
 10
-93.197126802632994
 20
-22.516312647884892
 30
0.0
 42
-0.4155392929676362
  0
VERTEX
  5
254B
  8
SAPA_PROFIL
 10
-92.102507830840992
 20
-22.220339221579032
 30
0.0
  0
SEQEND
  5
254C
  8
SAPA_PROFIL
  0
POLYLINE
  5
1864
  8
SAPA_PROFIL
 66
     1
 10
0.0
 20
0.0
 30
0.0
 70
     1
  0
VERTEX
  5
254D
  8
SAPA_PROFIL
 10
-86.499999999010456
 20
20.85000000000036
 30
0.0
 42
-0.1989123673797145
  0
VERTEX
  5
254E
  8
SAPA_PROFIL
 10
-86.587867964654379
 20
20.637867965644091
 30
0.0
  0
VERTEX
  5
254F
  8
SAPA_PROFIL
 10
-86.987867964654455
 20
20.237867965644451
 30
0.0
 42
-0.668178637919182
  0
VERTEX
  5
2550
  8
SAPA_PROFIL
 10
-87.499999999010484
 20
20.450000000000269
 30
0.0
  0
VERTEX
  5
2551
  8
SAPA_PROFIL
 10
-87.499999999010484
 20
21.300000000000178
 30
0.0
 42
0.4142135623730284
  0
VERTEX
  5
2552
  8
SAPA_PROFIL
 10
-87.999999999010456
 20
21.800000000000178
 30
0.0
  0
VERTEX
  5
2553
  8
SAPA_PROFIL
 10
-88.390808928730607
 20
21.800000000000178
 30
0.0
 42
0.17632698070845
  0
VERTEX
  5
2554
  8
SAPA_PROFIL
 10
-88.583645211636394
 20
21.729813332935919
 30
0.0
  0
VERTEX
  5
2555
  8
SAPA_PROFIL
 10
-90.392836281916061
 20
20.211721773135199
 30
0.0
 42
0.2216946626429421
  0
VERTEX
  5
2556
  8
SAPA_PROFIL
 10
-90.499999999010015
 20
19.98190844019928
 30
0.0
  0
VERTEX
  5
2557
  8
SAPA_PROFIL
 10
-90.499999999010456
 20
16.450000000000269
 30
0.0
 42
0.4142135623730951
  0
VERTEX
  5
2558
  8
SAPA_PROFIL
 10
-90.199999999010288
 20
16.150000000000091
 30
0.0
  0
VERTEX
  5
2559
  8
SAPA_PROFIL
 10
-87.799999999010197
 20
16.150000000000539
 30
0.0
 42
0.4142135623730951
  0
VERTEX
  5
255A
  8
SAPA_PROFIL
 10
-87.499999999010484
 20
16.450000000000269
 30
0.0
  0
VERTEX
  5
255B
  8
SAPA_PROFIL
 10
-87.499999999010484
 20
16.85000000000036
 30
0.0
 42
-0.6681786379193188
  0
VERTEX
  5
255C
  8
SAPA_PROFIL
 10
-86.987867964654455
 20
17.062132034356178
 30
0.0
  0
VERTEX
  5
255D
  8
SAPA_PROFIL
 10
-86.587867964654379
 20
16.662132034356091
 30
0.0
 42
-0.198912367379658
  0
VERTEX
  5
255E
  8
SAPA_PROFIL
 10
-86.499999999010456
 20
16.450000000000269
 30
0.0
  0
VERTEX
  5
255F
  8
SAPA_PROFIL
 10
-86.499999999010015
 20
14.65000000000054
 30
0.0
 42
-0.4142135623731284
  0
VERTEX
  5
2560
  8
SAPA_PROFIL
 10
-86.999999999010015
 20
14.15000000000054
 30
0.0
  0
VERTEX
  5
2561
  8
SAPA_PROFIL
 10
-91.499999999010925
 20
14.150000000000089
 30
0.0
 42
-0.4142135623730951
  0
VERTEX
  5
2562
  8
SAPA_PROFIL
 10
-91.999999999010925
 20
14.650000000000089
 30
0.0
  0
VERTEX
  5
2563
  8
SAPA_PROFIL
 10
-91.999999999010015
 20
18.650000000000091
 30
0.0
 42
0.4142135623729619
  0
VERTEX
  5
2564
  8
SAPA_PROFIL
 10
-92.499999999010015
 20
19.150000000000091
 30
0.0
  0
VERTEX
  5
2565
  8
SAPA_PROFIL
 10
-94.516956646213657
 20
19.150000000000091
 30
0.0
 42
0.1763269807084973
  0
VERTEX
  5
2566
  8
SAPA_PROFIL
 10
-94.838350451057053
 20
19.033022221559349
 30
0.0
  0
VERTEX
  5
2567
  8
SAPA_PROFIL
 10
-97.321393803853425
 20
16.949501460030199
 30
0.0
 42
0.2216946626428772
  0
VERTEX
  5
2568
  8
SAPA_PROFIL
 10
-97.499999999010015
 20
16.566479238470951
 30
0.0
  0
VERTEX
  5
2569
  8
SAPA_PROFIL
 10
-97.499999999010484
 20
10.56853372839123
 30
0.0
 42
0.315298788878991
  0
VERTEX
  5
256A
  8
SAPA_PROFIL
 10
-97.171010070673219
 20
10.098687417998461
 30
0.0
  0
VERTEX
  5
256B
  8
SAPA_PROFIL
 10
-93.157979855684516
 20
8.6380638705318233
 30
0.0
 42
-0.3152987888789731
  0
VERTEX
  5
256C
  8
SAPA_PROFIL
 10
-92.499999999010015
 20
7.6983712497458319
 30
0.0
  0
VERTEX
  5
256D
  8
SAPA_PROFIL
 10
-92.499999999010015
 20
6.6500000000000901
 30
0.0
 42
0.4142135623732616
  0
VERTEX
  5
256E
  8
SAPA_PROFIL
 10
-92.199999999010288
 20
6.3499999999999091
 30
0.0
  0
VERTEX
  5
256F
  8
SAPA_PROFIL
 10
-91.799999999010197
 20
6.3499999999999091
 30
0.0
 42
-0.4142135623731506
  0
VERTEX
  5
2570
  8
SAPA_PROFIL
 10
-91.499999999010015
 20
6.050000000000181
 30
0.0
  0
VERTEX
  5
2571
  8
SAPA_PROFIL
 10
-91.499999999010015
 20
5.6500000000000901
 30
0.0
 42
-0.4142135623731505
  0
VERTEX
  5
2572
  8
SAPA_PROFIL
 10
-91.799999999010197
 20
5.3499999999999091
 30
0.0
  0
VERTEX
  5
2573
  8
SAPA_PROFIL
 10
-92.199999999010288
 20
5.3499999999999091
 30
0.0
 42
0.4142135623732061
  0
VERTEX
  5
2574
  8
SAPA_PROFIL
 10
-92.499999999010015
 20
5.050000000000181
 30
0.0
  0
VERTEX
  5
2575
  8
SAPA_PROFIL
 10
-92.499999999010015
 20
0.6242640687119092
 30
0.0
 42
-0.198912367379577
  0
VERTEX
  5
2576
  8
SAPA_PROFIL
 10
-92.587867964654379
 20
0.4121320343560911
 30
0.0
  0
VERTEX
  5
2577
  8
SAPA_PROFIL
 10
-92.999999999010015
 20
0.0
 30
0.0
  0
VERTEX
  5
2578
  8
SAPA_PROFIL
 10
-92.587867964654379
 20
-0.4121320343560911
 30
0.0
 42
-0.1989123673795771
  0
VERTEX
  5
2579
  8
SAPA_PROFIL
 10
-92.499999999010015
 20
-0.6242640687119092
 30
0.0
  0
VERTEX
  5
257A
  8
SAPA_PROFIL
 10
-92.499999999010015
 20
-5.0499999999997272
 30
0.0
 42
0.4142135623732059
  0
VERTEX
  5
257B
  8
SAPA_PROFIL
 10
-92.199999999010288
 20
-5.3499999999999091
 30
0.0
  0
VERTEX
  5
257C
  8
SAPA_PROFIL
 10
-91.799999999010197
 20
-5.3499999999999091
 30
0.0
 42
-0.4142135623731506
  0
VERTEX
  5
257D
  8
SAPA_PROFIL
 10
-91.499999999010015
 20
-5.6500000000000901
 30
0.0
  0
VERTEX
  5
257E
  8
SAPA_PROFIL
 10
-91.499999999010015
 20
-6.0499999999997272
 30
0.0
 42
-0.4142135623731505
  0
VERTEX
  5
257F
  8
SAPA_PROFIL
 10
-91.799999999010197
 20
-6.3499999999999091
 30
0.0
  0
VERTEX
  5
2580
  8
SAPA_PROFIL
 10
-92.199999999010288
 20
-6.3499999999999091
 30
0.0
 42
0.4142135623732615
  0
VERTEX
  5
2581
  8
SAPA_PROFIL
 10
-92.499999999010015
 20
-6.6500000000000901
 30
0.0
  0
VERTEX
  5
2582
  8
SAPA_PROFIL
 10
-92.499999999010015
 20
-7.698371249745378
 30
0.0
 42
-0.3152987888789731
  0
VERTEX
  5
2583
  8
SAPA_PROFIL
 10
-93.157979855684516
 20
-8.6380638705313686
 30
0.0
  0
VERTEX
  5
2584
  8
SAPA_PROFIL
 10
-97.171010070673219
 20
-10.09868741799801
 30
0.0
 42
0.315298788878991
  0
VERTEX
  5
2585
  8
SAPA_PROFIL
 10
-97.499999999010484
 20
-10.56853372839123
 30
0.0
  0
VERTEX
  5
2586
  8
SAPA_PROFIL
 10
-97.499999999010015
 20
-16.566479238470489
 30
0.0
 42
0.2216946626428772
  0
VERTEX
  5
2587
  8
SAPA_PROFIL
 10
-97.321393803853425
 20
-16.949501460029751
 30
0.0
  0
VERTEX
  5
2588
  8
SAPA_PROFIL
 10
-94.838350451057053
 20
-19.033022221559349
 30
0.0
 42
0.1763269807084973
  0
VERTEX
  5
2589
  8
SAPA_PROFIL
 10
-94.516956646213657
 20
-19.150000000000091
 30
0.0
  0
VERTEX
  5
258A
  8
SAPA_PROFIL
 10
-92.499999999010015
 20
-19.150000000000091
 30
0.0
 42
0.4142135623729619
  0
VERTEX
  5
258B
  8
SAPA_PROFIL
 10
-91.999999999010015
 20
-18.650000000000091
 30
0.0
  0
VERTEX
  5
258C
  8
SAPA_PROFIL
 10
-91.999999999010925
 20
-14.650000000000089
 30
0.0
 42
-0.4142135623730951
  0
VERTEX
  5
258D
  8
SAPA_PROFIL
 10
-91.499999999010925
 20
-14.150000000000089
 30
0.0
  0
VERTEX
  5
258E
  8
SAPA_PROFIL
 10
-86.999999999010015
 20
-14.150000000000089
 30
0.0
 42
-0.4142135623731285
  0
VERTEX
  5
258F
  8
SAPA_PROFIL
 10
-86.499999999010015
 20
-14.650000000000089
 30
0.0
  0
VERTEX
  5
2590
  8
SAPA_PROFIL
 10
-86.499999999010456
 20
-16.450000000000269
 30
0.0
 42
-0.198912367379658
  0
VERTEX
  5
2591
  8
SAPA_PROFIL
 10
-86.587867964654379
 20
-16.662132034356091
 30
0.0
  0
VERTEX
  5
2592
  8
SAPA_PROFIL
 10
-86.987867964654455
 20
-17.062132034356178
 30
0.0
 42
-0.6681786379193188
  0
VERTEX
  5
2593
  8
SAPA_PROFIL
 10
-87.499999999010484
 20
-16.849999999999909
 30
0.0
  0
VERTEX
  5
2594
  8
SAPA_PROFIL
 10
-87.499999999010484
 20
-16.450000000000269
 30
0.0
 42
0.4142135623730951
  0
VERTEX
  5
2595
  8
SAPA_PROFIL
 10
-87.799999999010197
 20
-16.150000000000091
 30
0.0
  0
VERTEX
  5
2596
  8
SAPA_PROFIL
 10
-90.199999999010288
 20
-16.150000000000091
 30
0.0
 42
0.4142135623730951
  0
VERTEX
  5
2597
  8
SAPA_PROFIL
 10
-90.499999999010456
 20
-16.450000000000269
 30
0.0
  0
VERTEX
  5
2598
  8
SAPA_PROFIL
 10
-90.499999999010015
 20
-19.98190844019928
 30
0.0
 42
0.221694662642942
  0
VERTEX
  5
2599
  8
SAPA_PROFIL
 10
-90.392836281916061
 20
-20.211721773134741
 30
0.0
  0
VERTEX
  5
259A
  8
SAPA_PROFIL
 10
-88.583645211636394
 20
-21.729813332935471
 30
0.0
 42
0.1763269807084499
  0
VERTEX
  5
259B
  8
SAPA_PROFIL
 10
-88.390808928730607
 20
-21.799999999999731
 30
0.0
  0
VERTEX
  5
259C
  8
SAPA_PROFIL
 10
-87.999999999010456
 20
-21.800000000000178
 30
0.0
 42
0.4142135623730284
  0
VERTEX
  5
259D
  8
SAPA_PROFIL
 10
-87.499999999010484
 20
-21.300000000000178
 30
0.0
  0
VERTEX
  5
259E
  8
SAPA_PROFIL
 10
-87.499999999010484
 20
-20.450000000000269
 30
0.0
 42
-0.668178637919182
  0
VERTEX
  5
259F
  8
SAPA_PROFIL
 10
-86.987867964654455
 20
-20.237867965644
 30
0.0
  0
VERTEX
  5
25A0
  8
SAPA_PROFIL
 10
-86.587867964654379
 20
-20.637867965644091
 30
0.0
 42
-0.1989123673797144
  0
VERTEX
  5
25A1
  8
SAPA_PROFIL
 10
-86.499999999010456
 20
-20.849999999999909
 30
0.0
  0
VERTEX
  5
25A2
  8
SAPA_PROFIL
 10
-86.499999999010456
 20
-23.300000000000178
 30
0.0
 42
-0.4142135623730951
  0
VERTEX
  5
25A3
  8
SAPA_PROFIL
 10
-86.99999999901047
 20
-23.800000000000178
 30
0.0
  0
VERTEX
  5
25A4
  8
SAPA_PROFIL
 10
-90.699999999010274
 20
-23.800000000000178
 30
0.0
 42
-0.4142135623730951
  0
VERTEX
  5
25A5
  8
SAPA_PROFIL
 10
-90.99999999901047
 20
-23.500000000000451
 30
0.0
  0
VERTEX
  5
25A6
  8
SAPA_PROFIL
 10
-90.99999999901047
 20
-22.473205080757001
 30
0.0
 42
0.2679491924311428
  0
VERTEX
  5
25A7
  8
SAPA_PROFIL
 10
-91.149999999010575
 20
-22.21339745962177
 30
0.0
  0
VERTEX
  5
25A8
  8
SAPA_PROFIL
 10
-92.687083486550804
 20
-21.325961894323431
 30
0.0
 42
0.4142135623731709
  0
VERTEX
  5
25A9
  8
SAPA_PROFIL
 10
-93.096891107686133
 20
-21.435769515459011
 30
0.0
  0
VERTEX
  5
25AA
  8
SAPA_PROFIL
 10
-93.404123202713436
 20
-21.96791111376206
 30
0.0
 42
-0.4663076581551056
  0
VERTEX
  5
25AB
  8
SAPA_PROFIL
 10
-94.912936216184335
 20
-22.233955556881028
 30
0.0
  0
VERTEX
  5
25AC
  8
SAPA_PROFIL
 10
-99.821393803853425
 20
-18.115270605417209
 30
0.0
 42
-0.2216946626428921
  0
VERTEX
  5
25AD
  8
SAPA_PROFIL
 10
-99.999999999010484
 20
-17.732248383857488
 30
0.0
  0
VERTEX
  5
25AE
  8
SAPA_PROFIL
 10
-99.999999999010484
 20
-9.7002075382097246
 30
0.0
 42
-0.3152987888789878
  0
VERTEX
  5
25AF
  8
SAPA_PROFIL
 10
-99.342020142335983
 20
-8.760514917423734
 30
0.0
  0
VERTEX
  5
25B0
  8
SAPA_PROFIL
 10
-95.657979855684516
 20
-7.4196339112449996
 30
0.0
 42
0.3152987888789804
  0
VERTEX
  5
25B1
  8
SAPA_PROFIL
 10
-94.999999999010015
 20
-6.479941290459009
 30
0.0
  0
VERTEX
  5
25B2
  8
SAPA_PROFIL
 10
-94.999999999010015
 20
6.4799412904594638
 30
0.0
 42
0.3152987888789804
  0
VERTEX
  5
25B3
  8
SAPA_PROFIL
 10
-95.657979855684516
 20
7.4196339112454552
 30
0.0
  0
VERTEX
  5
25B4
  8
SAPA_PROFIL
 10
-99.342020142335983
 20
8.760514917423734
 30
0.0
 42
-0.3152987888789877
  0
VERTEX
  5
25B5
  8
SAPA_PROFIL
 10
-99.999999999010484
 20
9.7002075382097246
 30
0.0
  0
VERTEX
  5
25B6
  8
SAPA_PROFIL
 10
-99.999999999010484
 20
17.73224838385795
 30
0.0
 42
-0.2216946626428921
  0
VERTEX
  5
25B7
  8
SAPA_PROFIL
 10
-99.821393803853425
 20
18.115270605417209
 30
0.0
  0
VERTEX
  5
25B8
  8
SAPA_PROFIL
 10
-94.912936216184335
 20
22.233955556881028
 30
0.0
 42
-0.4663076581551056
  0
VERTEX
  5
25B9
  8
SAPA_PROFIL
 10
-93.404123202713436
 20
21.967911113762511
 30
0.0
  0
VERTEX
  5
25BA
  8
SAPA_PROFIL
 10
-93.096891107686133
 20
21.435769515459011
 30
0.0
 42
0.414213562373157
  0
VERTEX
  5
25BB
  8
SAPA_PROFIL
 10
-92.687083486550804
 20
21.325961894323878
 30
0.0
  0
VERTEX
  5
25BC
  8
SAPA_PROFIL
 10
-91.149999999010575
 20
22.213397459622229
 30
0.0
 42
0.2679491924311554
  0
VERTEX
  5
25BD
  8
SAPA_PROFIL
 10
-90.99999999901047
 20
22.473205080757449
 30
0.0
  0
VERTEX
  5
25BE
  8
SAPA_PROFIL
 10
-90.99999999901047
 20
23.500000000000451
 30
0.0
 42
-0.4142135623730951
  0
VERTEX
  5
25BF
  8
SAPA_PROFIL
 10
-90.699999999010274
 20
23.80000000000064
 30
0.0
  0
VERTEX
  5
25C0
  8
SAPA_PROFIL
 10
-86.99999999901047
 20
23.800000000000178
 30
0.0
 42
-0.4142135623730951
  0
VERTEX
  5
25C1
  8
SAPA_PROFIL
 10
-86.499999999010456
 20
23.300000000000178
 30
0.0
  0
SEQEND
  5
25C2
  8
SAPA_PROFIL
  0
POLYLINE
  5
1865
  8
SAPA_PROFIL
 62
     4
 66
     1
 10
0.0
 20
0.0
 30
0.0
 70
     1
  0
VERTEX
  5
25C3
  8
SAPA_PROFIL
 62
     4
 10
-88.358578641879717
 20
-1.055634910786466
 30
0.0
 42
0.1989123671061458
  0
VERTEX
  5
25C4
  8
SAPA_PROFIL
 62
     4
 10
-88.00710678019658
 20
-0.2071067742556352
 30
0.0
  0
VERTEX
  5
25C5
  8
SAPA_PROFIL
 62
     4
 10
-88.00710678019658
 20
0.2071067742555215
 30
0.0
 42
0.1989123671061505
  0
VERTEX
  5
25C6
  8
SAPA_PROFIL
 62
     4
 10
-88.358578641879717
 20
1.0556349107863521
 30
0.0
  0
VERTEX
  5
25C7
  8
SAPA_PROFIL
 62
     4
 10
-90.590811692262079
 20
3.287867965867235
 30
0.0
 42
-0.6681786375387371
  0
VERTEX
  5
25C8
  8
SAPA_PROFIL
 62
     4
 10
-90.378679657682881
 20
3.7999999999999541
 30
0.0
  0
VERTEX
  5
25C9
  8
SAPA_PROFIL
 62
     4
 10
-73.799999999010083
 20
3.7999999999999541
 30
0.0
 42
-0.4142135623731034
  0
VERTEX
  5
25CA
  8
SAPA_PROFIL
 62
     4
 10
-73.499999999010072
 20
3.4999999999999432
 30
0.0
  0
VERTEX
  5
25CB
  8
SAPA_PROFIL
 62
     4
 10
-73.499999999010072
 20
-3.4999999999999432
 30
0.0
 42
-0.4142135623731034
  0
VERTEX
  5
25CC
  8
SAPA_PROFIL
 62
     4
 10
-73.799999999010083
 20
-3.8000000000000109
 30
0.0
  0
VERTEX
  5
25CD
  8
SAPA_PROFIL
 62
     4
 10
-90.378679657682881
 20
-3.8000000000000682
 30
0.0
 42
-0.6681786375387019
  0
VERTEX
  5
25CE
  8
SAPA_PROFIL
 62
     4
 10
-90.590811692262079
 20
-3.2878679658673491
 30
0.0
  0
SEQEND
  5
25CF
  8
SAPA_PROFIL
 62
     4
  0
POLYLINE
  5
1866
  8
SAPA_PROFIL
 62
     4
 66
     1
 10
0.0
 20
0.0
 30
0.0
 70
     1
  0
VERTEX
  5
25D0
  8
SAPA_PROFIL
 62
     4
 10
-72.19999999901006
 20
3.7999999999999541
 30
0.0
  0
VERTEX
  5
25D1
  8
SAPA_PROFIL
 62
     4
 10
-53.999999999010022
 20
3.7999999999999541
 30
0.0
 42
-0.4142135623730951
  0
VERTEX
  5
25D2
  8
SAPA_PROFIL
 62
     4
 10
-53.699999999010011
 20
3.5
 30
0.0
  0
VERTEX
  5
25D3
  8
SAPA_PROFIL
 62
     4
 10
-53.69999999901006
 20
2.6029437251521581
 30
0.0
  0
VERTEX
  5
25D4
  8
SAPA_PROFIL
 62
     4
 10
-52.147056273857629
 20
1.0499999999999541
 30
0.0
  0
VERTEX
  5
25D5
  8
SAPA_PROFIL
 62
     4
 10
-46.568653346957198
 20
1.0499999999999541
 30
0.0
  0
VERTEX
  5
25D6
  8
SAPA_PROFIL
 62
     4
 10
-45.57499999901006
 20
0.4763139720814138
 30
0.0
 42
-0.5773502691896344
  0
VERTEX
  5
25D7
  8
SAPA_PROFIL
 62
     4
 10
-45.574999999009997
 20
-0.4763139720814707
 30
0.0
  0
VERTEX
  5
25D8
  8
SAPA_PROFIL
 62
     4
 10
-46.568653346957369
 20
-1.050000000000068
 30
0.0
  0
VERTEX
  5
25D9
  8
SAPA_PROFIL
 62
     4
 10
-52.1470562738578
 20
-1.050000000000068
 30
0.0
  0
VERTEX
  5
25DA
  8
SAPA_PROFIL
 62
     4
 10
-53.69999999901006
 20
-2.6029437251522718
 30
0.0
  0
VERTEX
  5
25DB
  8
SAPA_PROFIL
 62
     4
 10
-53.699999999010011
 20
-3.5000000000001128
 30
0.0
 42
-0.4142135623730951
  0
VERTEX
  5
25DC
  8
SAPA_PROFIL
 62
     4
 10
-53.999999999010022
 20
-3.8000000000000682
 30
0.0
  0
VERTEX
  5
25DD
  8
SAPA_PROFIL
 62
     4
 10
-72.19999999901006
 20
-3.8000000000000109
 30
0.0
 42
-0.4142135623730951
  0
VERTEX
  5
25DE
  8
SAPA_PROFIL
 62
     4
 10
-72.499999999010015
 20
-3.500000000000056
 30
0.0
  0
VERTEX
  5
25DF
  8
SAPA_PROFIL
 62
     4
 10
-72.499999999010072
 20
3.500000000000056
 30
0.0
 42
-0.4142135623730951
  0
SEQEND
  5
25E0
  8
SAPA_PROFIL
 62
     4
  0
POLYLINE
  5
1867
  8
SAPA_PROFIL
 62
     4
 66
     1
 10
0.0
 20
0.0
 30
0.0
 70
     1
  0
VERTEX
  5
25E1
  8
SAPA_PROFIL
 62
     4
 10
-89.353553389603292
 20
-0.3535533839706204
 30
0.0
 42
0.4142135623730951
  0
VERTEX
  5
25E2
  8
SAPA_PROFIL
 62
     4
 10
-89.353553389603292
 20
0.3535533972159328
 30
0.0
  0
VERTEX
  5
25E3
  8
SAPA_PROFIL
 62
     4
 10
-92.499999999010015
 20
3.5
 30
0.0
  0
VERTEX
  5
25E4
  8
SAPA_PROFIL
 62
     4
 10
-92.499999999010015
 20
5.0
 30
0.0
  0
VERTEX
  5
25E5
  8
SAPA_PROFIL
 62
     4
 10
-52.999999999010008
 20
5.0
 30
0.0
 42
-0.4142135623730951
  0
VERTEX
  5
25E6
  8
SAPA_PROFIL
 62
     4
 10
-52.499999999010008
 20
4.5
 30
0.0
  0
VERTEX
  5
25E7
  8
SAPA_PROFIL
 62
     4
 10
-52.499999999010008
 20
3.0999999999999091
 30
0.0
  0
VERTEX
  5
25E8
  8
SAPA_PROFIL
 62
     4
 10
-51.649999999010049
 20
2.25
 30
0.0
  0
VERTEX
  5
25E9
  8
SAPA_PROFIL
 62
     4
 10
-47.047114316039988
 20
2.25
 30
0.0
  0
VERTEX
  5
25EA
  8
SAPA_PROFIL
 62
     4
 10
-45.174999999010019
 20
1.1691342951090169
 30
0.0
 42
-0.5773502691896344
  0
VERTEX
  5
25EB
  8
SAPA_PROFIL
 62
     4
 10
-45.174999999010019
 20
-1.169134295109074
 30
0.0
  0
VERTEX
  5
25EC
  8
SAPA_PROFIL
 62
     4
 10
-47.047114316040172
 20
-2.2500000000001128
 30
0.0
  0
VERTEX
  5
25ED
  8
SAPA_PROFIL
 62
     4
 10
-51.649999999010049
 20
-2.2500000000001128
 30
0.0
  0
VERTEX
  5
25EE
  8
SAPA_PROFIL
 62
     4
 10
-52.499999999010008
 20
-3.1000000000000218
 30
0.0
  0
VERTEX
  5
25EF
  8
SAPA_PROFIL
 62
     4
 10
-52.499999999010008
 20
-4.5
 30
0.0
 42
-0.4142135623730951
  0
VERTEX
  5
25F0
  8
SAPA_PROFIL
 62
     4
 10
-52.999999999010008
 20
-5.0
 30
0.0
  0
VERTEX
  5
25F1
  8
SAPA_PROFIL
 62
     4
 10
-92.499999999010015
 20
-5.0
 30
0.0
  0
VERTEX
  5
25F2
  8
SAPA_PROFIL
 62
     4
 10
-92.499999999010015
 20
-3.5
 30
0.0
  0
SEQEND
  5
25F3
  8
SAPA_PROFIL
 62
     4
  0
POLYLINE
  5
1868
  8
SAPA_PROFIL
 66
     1
 10
0.0
 20
0.0
 30
0.0
 70
     1
  0
VERTEX
  5
25F4
  8
SAPA_PROFIL
 10
-33.050000000001091
 20
2.700000000000272
 30
0.0
  0
VERTEX
  5
25F5
  8
SAPA_PROFIL
 10
-31.67376540642476
 20
2.0767196966983188
 30
0.0
 42
0.5450207798987328
  0
VERTEX
  5
25F6
  8
SAPA_PROFIL
 10
-31.25000000000114
 20
2.350000000000136
 30
0.0
  0
VERTEX
  5
25F7
  8
SAPA_PROFIL
 10
-31.25000000000114
 20
2.700000000000272
 30
0.0
  0
VERTEX
  5
25F8
  8
SAPA_PROFIL
 10
-31.00000000000114
 20
2.700000000000272
 30
0.0
 42
-0.4142135623730951
  0
VERTEX
  5
25F9
  8
SAPA_PROFIL
 10
-30.00000000000114
 20
1.700000000000272
 30
0.0
  0
VERTEX
  5
25FA
  8
SAPA_PROFIL
 10
-30.00000000000114
 20
-1.6999999999998181
 30
0.0
 42
-0.4142135623730951
  0
VERTEX
  5
25FB
  8
SAPA_PROFIL
 10
-31.00000000000114
 20
-2.6999999999998181
 30
0.0
  0
VERTEX
  5
25FC
  8
SAPA_PROFIL
 10
-32.150000000001
 20
-2.6999999999998181
 30
0.0
  0
VERTEX
  5
25FD
  8
SAPA_PROFIL
 10
-32.150000000001
 20
-2.3499999999996808
 30
0.0
 42
0.5450200690651551
  0
VERTEX
  5
25FE
  8
SAPA_PROFIL
 10
-32.573765000001011
 20
-2.0767189999999109
 30
0.0
  0
VERTEX
  5
25FF
  8
SAPA_PROFIL
 10
-33.950000000000948
 20
-2.6999999999998181
 30
0.0
  0
VERTEX
  5
2600
  8
SAPA_PROFIL
 10
-33.950000000000948
 20
-2.3499999999996808
 30
0.0
 42
0.5450200690651692
  0
VERTEX
  5
2601
  8
SAPA_PROFIL
 10
-34.373765000000958
 20
-2.0767189999999109
 30
0.0
  0
VERTEX
  5
2602
  8
SAPA_PROFIL
 10
-35.750000000001137
 20
-2.6999999999998181
 30
0.0
  0
VERTEX
  5
2603
  8
SAPA_PROFIL
 10
-35.750000000001137
 20
-2.3499999999996808
 30
0.0
 42
0.5450200690651619
  0
VERTEX
  5
2604
  8
SAPA_PROFIL
 10
-36.17376500000114
 20
-2.0767189999999109
 30
0.0
  0
VERTEX
  5
2605
  8
SAPA_PROFIL
 10
-37.550000000001091
 20
-2.6999999999998181
 30
0.0
  0
VERTEX
  5
2606
  8
SAPA_PROFIL
 10
-37.550000000001091
 20
-2.3499999999996808
 30
0.0
 42
0.5450200690651619
  0
VERTEX
  5
2607
  8
SAPA_PROFIL
 10
-37.973765000001102
 20
-2.0767189999999109
 30
0.0
  0
VERTEX
  5
2608
  8
SAPA_PROFIL
 10
-39.350000000001053
 20
-2.6999999999998181
 30
0.0
  0
VERTEX
  5
2609
  8
SAPA_PROFIL
 10
-39.350000000001053
 20
-2.3499999999996808
 30
0.0
 42
0.5450200690651692
  0
VERTEX
  5
260A
  8
SAPA_PROFIL
 10
-39.773765000001049
 20
-2.0767189999999109
 30
0.0
  0
VERTEX
  5
260B
  8
SAPA_PROFIL
 10
-41.150000000001
 20
-2.6999999999998181
 30
0.0
  0
VERTEX
  5
260C
  8
SAPA_PROFIL
 10
-41.450000000000948
 20
-2.6999999999998181
 30
0.0
  0
VERTEX
  5
260D
  8
SAPA_PROFIL
 10
-41.450000000000948
 20
2.42826763351104
 30
0.0
  0
VERTEX
  5
260E
  8
SAPA_PROFIL
 10
-40.673765406424756
 20
2.0767196966983188
 30
0.0
 42
0.5450207798987328
  0
VERTEX
  5
260F
  8
SAPA_PROFIL
 10
-40.250000000001137
 20
2.350000000000136
 30
0.0
  0
VERTEX
  5
2610
  8
SAPA_PROFIL
 10
-40.250000000001137
 20
2.700000000000272
 30
0.0
  0
VERTEX
  5
2611
  8
SAPA_PROFIL
 10
-38.873765000000958
 20
2.0767200000002499
 30
0.0
 42
0.5450205149791638
  0
VERTEX
  5
2612
  8
SAPA_PROFIL
 10
-38.450000000000962
 20
2.350000000000136
 30
0.0
  0
VERTEX
  5
2613
  8
SAPA_PROFIL
 10
-38.450000000000962
 20
2.700000000000272
 30
0.0
  0
VERTEX
  5
2614
  8
SAPA_PROFIL
 10
-37.073765406424627
 20
2.0767196966983188
 30
0.0
 42
0.545020779898768
  0
VERTEX
  5
2615
  8
SAPA_PROFIL
 10
-36.650000000001
 20
2.350000000000136
 30
0.0
  0
VERTEX
  5
2616
  8
SAPA_PROFIL
 10
-36.650000000001
 20
2.700000000000272
 30
0.0
  0
VERTEX
  5
2617
  8
SAPA_PROFIL
 10
-35.273765406424673
 20
2.0767196966983188
 30
0.0
 42
0.54502077989874
  0
VERTEX
  5
2618
  8
SAPA_PROFIL
 10
-34.850000000001053
 20
2.350000000000136
 30
0.0
  0
VERTEX
  5
2619
  8
SAPA_PROFIL
 10
-34.850000000001053
 20
2.700000000000272
 30
0.0
  0
VERTEX
  5
261A
  8
SAPA_PROFIL
 10
-33.473765406424718
 20
2.0767196966983188
 30
0.0
 42
0.545020779898761
  0
VERTEX
  5
261B
  8
SAPA_PROFIL
 10
-33.050000000001091
 20
2.350000000000136
 30
0.0
  0
SEQEND
  5
261C
  8
SAPA_PROFIL
  0
POLYLINE
  5
1869
  8
SAPA_PROFIL
 66
     1
 10
0.0
 20
0.0
 30
0.0
 70
     1
  0
VERTEX
  5
261D
  8
SAPA_PROFIL
 10
58.024264068710863
 20
23.000000000000231
 30
0.0
 42
0.1989123673796753
  0
VERTEX
  5
261E
  8
SAPA_PROFIL
 10
57.812132034355052
 20
22.912132034356091
 30
0.0
  0
VERTEX
  5
261F
  8
SAPA_PROFIL
 10
56.087867965642999
 20
21.187867965644269
 30
0.0
 42
-0.1989123673796753
  0
VERTEX
  5
2620
  8
SAPA_PROFIL
 10
55.875735931286947
 20
21.10000000000014
 30
0.0
  0
VERTEX
  5
2621
  8
SAPA_PROFIL
 10
55.299999999999052
 20
21.10000000000014
 30
0.0
 42
-0.4142135623730951
  0
VERTEX
  5
2622
  8
SAPA_PROFIL
 10
54.999999999998863
 20
21.400000000000318
 30
0.0
  0
VERTEX
  5
2623
  8
SAPA_PROFIL
 10
54.999999999998863
 20
22.700000000000269
 30
0.0
 42
0.4142135623730951
  0
VERTEX
  5
2624
  8
SAPA_PROFIL
 10
54.699999999998909
 20
23.000000000000231
 30
0.0
  0
VERTEX
  5
2625
  8
SAPA_PROFIL
 10
29.99999999999886
 20
23.000000000000231
 30
0.0
 42
0.4142135623730951
  0
VERTEX
  5
2626
  8
SAPA_PROFIL
 10
28.99999999999887
 20
22.000000000000231
 30
0.0
  0
VERTEX
  5
2627
  8
SAPA_PROFIL
 10
28.99999999999887
 20
17.600000000000129
 30
0.0
 42
-0.4142135623730951
  0
VERTEX
  5
2628
  8
SAPA_PROFIL
 10
28.699999999998909
 20
17.300000000000178
 30
0.0
  0
VERTEX
  5
2629
  8
SAPA_PROFIL
 10
26.399999999998961
 20
17.300000000000178
 30
0.0
 42
-0.4142135623730951
  0
VERTEX
  5
262A
  8
SAPA_PROFIL
 10
26.099999999999
 20
17.600000000000129
 30
0.0
  0
VERTEX
  5
262B
  8
SAPA_PROFIL
 10
26.099999999999
 20
18.100000000000129
 30
0.0
 42
-0.4142135623730951
  0
VERTEX
  5
262C
  8
SAPA_PROFIL
 10
26.399999999998961
 20
18.400000000000318
 30
0.0
  0
VERTEX
  5
262D
  8
SAPA_PROFIL
 10
26.736626924633359
 20
18.400000000000318
 30
0.0
 42
0.5535245743249297
  0
VERTEX
  5
262E
  8
SAPA_PROFIL
 10
24.96410760212348
 20
22.71055421153164
 30
0.0
  0
VERTEX
  5
262F
  8
SAPA_PROFIL
 10
24.67677669529553
 20
22.42322330470347
 30
0.0
 42
-0.4142135623729421
  0
VERTEX
  5
2630
  8
SAPA_PROFIL
 10
24.32322330470242
 20
22.42322330470347
 30
0.0
  0
VERTEX
  5
2631
  8
SAPA_PROFIL
 10
24.035892397874481
 20
22.71055421153164
 30
0.0
 42
0.5535245743249292
  0
VERTEX
  5
2632
  8
SAPA_PROFIL
 10
22.26337307536437
 20
18.400000000000318
 30
0.0
  0
VERTEX
  5
2633
  8
SAPA_PROFIL
 10
22.599999999999
 20
18.400000000000318
 30
0.0
 42
-0.4142135623730951
  0
VERTEX
  5
2634
  8
SAPA_PROFIL
 10
22.899999999998961
 20
18.100000000000129
 30
0.0
  0
VERTEX
  5
2635
  8
SAPA_PROFIL
 10
22.899999999998961
 20
17.600000000000129
 30
0.0
 42
-0.4142135623730951
  0
VERTEX
  5
2636
  8
SAPA_PROFIL
 10
22.599999999999
 20
17.300000000000178
 30
0.0
  0
VERTEX
  5
2637
  8
SAPA_PROFIL
 10
21.49999999999886
 20
17.300000000000178
 30
0.0
 42
-0.4142135623730951
  0
VERTEX
  5
2638
  8
SAPA_PROFIL
 10
19.99999999999886
 20
18.800000000000178
 30
0.0
  0
VERTEX
  5
2639
  8
SAPA_PROFIL
 10
19.99999999999886
 20
21.63397459621569
 30
0.0
 42
-0.267949192431143
  0
VERTEX
  5
263A
  8
SAPA_PROFIL
 10
20.24999999999886
 20
22.066987298107961
 30
0.0
 42
0.767326987978956
  0
VERTEX
  5
263B
  8
SAPA_PROFIL
 10
19.99999999999886
 20
23.000000000000231
 30
0.0
  0
VERTEX
  5
263C
  8
SAPA_PROFIL
 10
-15.00000000000113
 20
23.000000000000231
 30
0.0
 42
0.4142135623730951
  0
VERTEX
  5
263D
  8
SAPA_PROFIL
 10
-16.00000000000114
 20
22.000000000000231
 30
0.0
  0
VERTEX
  5
263E
  8
SAPA_PROFIL
 10
-16.00000000000114
 20
17.600000000000129
 30
0.0
 42
-0.4142135623730951
  0
VERTEX
  5
263F
  8
SAPA_PROFIL
 10
-16.300000000001091
 20
17.300000000000178
 30
0.0
  0
VERTEX
  5
2640
  8
SAPA_PROFIL
 10
-18.600000000001039
 20
17.300000000000178
 30
0.0
 42
-0.4142135623730951
  0
VERTEX
  5
2641
  8
SAPA_PROFIL
 10
-18.900000000001
 20
17.600000000000129
 30
0.0
  0
VERTEX
  5
2642
  8
SAPA_PROFIL
 10
-18.900000000001
 20
18.100000000000129
 30
0.0
 42
-0.4142135623730951
  0
VERTEX
  5
2643
  8
SAPA_PROFIL
 10
-18.600000000001039
 20
18.400000000000318
 30
0.0
  0
VERTEX
  5
2644
  8
SAPA_PROFIL
 10
-18.263373075366641
 20
18.400000000000318
 30
0.0
 42
0.5535245743249297
  0
VERTEX
  5
2645
  8
SAPA_PROFIL
 10
-20.03589239787652
 20
22.71055421153164
 30
0.0
  0
VERTEX
  5
2646
  8
SAPA_PROFIL
 10
-20.32322330470447
 20
22.42322330470347
 30
0.0
 42
-0.4142135623730243
  0
VERTEX
  5
2647
  8
SAPA_PROFIL
 10
-20.67677669529758
 20
22.423223304703701
 30
0.0
  0
VERTEX
  5
2648
  8
SAPA_PROFIL
 10
-20.96410760212553
 20
22.71055421153164
 30
0.0
 42
0.5535245743249292
  0
VERTEX
  5
2649
  8
SAPA_PROFIL
 10
-22.73662692463563
 20
18.400000000000318
 30
0.0
  0
VERTEX
  5
264A
  8
SAPA_PROFIL
 10
-22.400000000001
 20
18.400000000000318
 30
0.0
 42
-0.4142135623730951
  0
VERTEX
  5
264B
  8
SAPA_PROFIL
 10
-22.100000000001049
 20
18.100000000000129
 30
0.0
  0
VERTEX
  5
264C
  8
SAPA_PROFIL
 10
-22.100000000001049
 20
17.600000000000129
 30
0.0
 42
-0.4142135623730951
  0
VERTEX
  5
264D
  8
SAPA_PROFIL
 10
-22.400000000001
 20
17.300000000000178
 30
0.0
  0
VERTEX
  5
264E
  8
SAPA_PROFIL
 10
-23.50000000000114
 20
17.300000000000178
 30
0.0
 42
-0.4142135623730951
  0
VERTEX
  5
264F
  8
SAPA_PROFIL
 10
-25.00000000000114
 20
18.800000000000178
 30
0.0
  0
VERTEX
  5
2650
  8
SAPA_PROFIL
 10
-25.00000000000114
 20
21.780384757729511
 30
0.0
 42
-0.2679491924311188
  0
VERTEX
  5
2651
  8
SAPA_PROFIL
 10
-24.850000000001049
 20
22.040192378864958
 30
0.0
 42
0.7673269879789557
  0
VERTEX
  5
2652
  8
SAPA_PROFIL
 10
-25.00000000000114
 20
22.600000000000129
 30
0.0
  0
VERTEX
  5
2653
  8
SAPA_PROFIL
 10
-27.00000000000114
 20
22.599999999999909
 30
0.0
 42
0.4142137811865366
  0
VERTEX
  5
2654
  8
SAPA_PROFIL
 10
-28.00000000000114
 20
21.600000747075459
 30
0.0
  0
VERTEX
  5
2655
  8
SAPA_PROFIL
 10
-28.00000000000114
 20
-21.599999999999682
 30
0.0
 42
0.4142140000000124
  0
VERTEX
  5
2656
  8
SAPA_PROFIL
 10
-27.00000000000114
 20
-22.599999999999682
 30
0.0
  0
VERTEX
  5
2657
  8
SAPA_PROFIL
 10
-25.00000000000114
 20
-22.599999999999682
 30
0.0
 42
0.7673269879789457
  0
VERTEX
  5
2658
  8
SAPA_PROFIL
 10
-24.850000000001049
 20
-22.0401923788645
 30
0.0
 42
-0.2679491924311191
  0
VERTEX
  5
2659
  8
SAPA_PROFIL
 10
-25.00000000000114
 20
-21.780384757729049
 30
0.0
  0
VERTEX
  5
265A
  8
SAPA_PROFIL
 10
-25.00000000000114
 20
-18.799999999999731
 30
0.0
 42
-0.4142135623730951
  0
VERTEX
  5
265B
  8
SAPA_PROFIL
 10
-23.50000000000114
 20
-17.299999999999731
 30
0.0
  0
VERTEX
  5
265C
  8
SAPA_PROFIL
 10
-22.400000000001
 20
-17.299999999999731
 30
0.0
 42
-0.4142135623730951
  0
VERTEX
  5
265D
  8
SAPA_PROFIL
 10
-22.100000000001049
 20
-17.599999999999682
 30
0.0
  0
VERTEX
  5
265E
  8
SAPA_PROFIL
 10
-22.100000000001049
 20
-18.099999999999682
 30
0.0
 42
-0.4142135623730951
  0
VERTEX
  5
265F
  8
SAPA_PROFIL
 10
-22.400000000001
 20
-18.39999999999986
 30
0.0
  0
VERTEX
  5
2660
  8
SAPA_PROFIL
 10
-22.73662692463563
 20
-18.39999999999986
 30
0.0
 42
0.5535245743249307
  0
VERTEX
  5
2661
  8
SAPA_PROFIL
 10
-20.96410760212553
 20
-22.710554211531189
 30
0.0
  0
VERTEX
  5
2662
  8
SAPA_PROFIL
 10
-20.67677669529758
 20
-22.423223304703239
 30
0.0
 42
-0.4142135623730951
  0
VERTEX
  5
2663
  8
SAPA_PROFIL
 10
-20.32322330470447
 20
-22.423223304703239
 30
0.0
  0
VERTEX
  5
2664
  8
SAPA_PROFIL
 10
-20.03589239787652
 20
-22.710554211531189
 30
0.0
 42
0.553524574324932
  0
VERTEX
  5
2665
  8
SAPA_PROFIL
 10
-18.263373075366641
 20
-18.39999999999986
 30
0.0
  0
VERTEX
  5
2666
  8
SAPA_PROFIL
 10
-18.600000000001039
 20
-18.39999999999986
 30
0.0
 42
-0.4142135623730951
  0
VERTEX
  5
2667
  8
SAPA_PROFIL
 10
-18.900000000001
 20
-18.099999999999682
 30
0.0
  0
VERTEX
  5
2668
  8
SAPA_PROFIL
 10
-18.900000000001
 20
-17.599999999999682
 30
0.0
 42
-0.4142135623730951
  0
VERTEX
  5
2669
  8
SAPA_PROFIL
 10
-18.600000000001039
 20
-17.299999999999731
 30
0.0
  0
VERTEX
  5
266A
  8
SAPA_PROFIL
 10
-16.300000000001091
 20
-17.299999999999731
 30
0.0
 42
-0.4142135623730951
  0
VERTEX
  5
266B
  8
SAPA_PROFIL
 10
-16.00000000000114
 20
-17.599999999999682
 30
0.0
  0
VERTEX
  5
266C
  8
SAPA_PROFIL
 10
-16.00000000000114
 20
-21.999999999999769
 30
0.0
 42
0.4142135623730951
  0
VERTEX
  5
266D
  8
SAPA_PROFIL
 10
-15.00000000000113
 20
-22.999999999999769
 30
0.0
  0
VERTEX
  5
266E
  8
SAPA_PROFIL
 10
19.99999999999886
 20
-22.999999999999769
 30
0.0
 42
0.7673269879789569
  0
VERTEX
  5
266F
  8
SAPA_PROFIL
 10
20.24999999999886
 20
-22.066987298107509
 30
0.0
 42
-0.2679491924311163
  0
VERTEX
  5
2670
  8
SAPA_PROFIL
 10
19.99999999999886
 20
-21.633974596215239
 30
0.0
  0
VERTEX
  5
2671
  8
SAPA_PROFIL
 10
19.99999999999886
 20
-18.799999999999731
 30
0.0
 42
-0.4142135623730951
  0
VERTEX
  5
2672
  8
SAPA_PROFIL
 10
21.49999999999886
 20
-17.299999999999731
 30
0.0
  0
VERTEX
  5
2673
  8
SAPA_PROFIL
 10
22.599999999999
 20
-17.299999999999731
 30
0.0
 42
-0.4142135623730951
  0
VERTEX
  5
2674
  8
SAPA_PROFIL
 10
22.899999999998961
 20
-17.599999999999682
 30
0.0
  0
VERTEX
  5
2675
  8
SAPA_PROFIL
 10
22.899999999998961
 20
-18.099999999999682
 30
0.0
 42
-0.4142135623730951
  0
VERTEX
  5
2676
  8
SAPA_PROFIL
 10
22.599999999999
 20
-18.39999999999986
 30
0.0
  0
VERTEX
  5
2677
  8
SAPA_PROFIL
 10
22.26337307536437
 20
-18.39999999999986
 30
0.0
 42
0.5535245743249307
  0
VERTEX
  5
2678
  8
SAPA_PROFIL
 10
24.035892397874481
 20
-22.710554211531189
 30
0.0
  0
VERTEX
  5
2679
  8
SAPA_PROFIL
 10
24.32322330470242
 20
-22.423223304703239
 30
0.0
 42
-0.4142135623731068
  0
VERTEX
  5
267A
  8
SAPA_PROFIL
 10
24.67677669529553
 20
-22.423223304703011
 30
0.0
  0
VERTEX
  5
267B
  8
SAPA_PROFIL
 10
24.96410760212348
 20
-22.710554211531189
 30
0.0
 42
0.553524574324932
  0
VERTEX
  5
267C
  8
SAPA_PROFIL
 10
26.736626924633359
 20
-18.39999999999986
 30
0.0
  0
VERTEX
  5
267D
  8
SAPA_PROFIL
 10
26.399999999998961
 20
-18.39999999999986
 30
0.0
 42
-0.4142135623730951
  0
VERTEX
  5
267E
  8
SAPA_PROFIL
 10
26.099999999999
 20
-18.099999999999682
 30
0.0
  0
VERTEX
  5
267F
  8
SAPA_PROFIL
 10
26.099999999999
 20
-17.599999999999682
 30
0.0
 42
-0.4142135623730951
  0
VERTEX
  5
2680
  8
SAPA_PROFIL
 10
26.399999999998961
 20
-17.299999999999731
 30
0.0
  0
VERTEX
  5
2681
  8
SAPA_PROFIL
 10
28.699999999998909
 20
-17.299999999999731
 30
0.0
 42
-0.4142135623730951
  0
VERTEX
  5
2682
  8
SAPA_PROFIL
 10
28.99999999999887
 20
-17.599999999999682
 30
0.0
  0
VERTEX
  5
2683
  8
SAPA_PROFIL
 10
28.99999999999887
 20
-21.999999999999769
 30
0.0
 42
0.4142135623730951
  0
VERTEX
  5
2684
  8
SAPA_PROFIL
 10
29.99999999999886
 20
-22.999999999999769
 30
0.0
  0
VERTEX
  5
2685
  8
SAPA_PROFIL
 10
54.699999999998909
 20
-22.999999999999769
 30
0.0
 42
0.4142135623730951
  0
VERTEX
  5
2686
  8
SAPA_PROFIL
 10
54.999999999998863
 20
-22.699999999999822
 30
0.0
  0
VERTEX
  5
2687
  8
SAPA_PROFIL
 10
54.999999999998863
 20
-21.39999999999986
 30
0.0
 42
-0.4142135623730951
  0
VERTEX
  5
2688
  8
SAPA_PROFIL
 10
55.299999999999052
 20
-21.099999999999682
 30
0.0
  0
VERTEX
  5
2689
  8
SAPA_PROFIL
 10
55.875735931286947
 20
-21.099999999999682
 30
0.0
 42
-0.1989123673796752
  0
VERTEX
  5
268A
  8
SAPA_PROFIL
 10
56.087867965642999
 20
-21.187867965643822
 30
0.0
  0
VERTEX
  5
268B
  8
SAPA_PROFIL
 10
57.812132034355052
 20
-22.91213203435586
 30
0.0
 42
0.1989123673796057
  0
VERTEX
  5
268C
  8
SAPA_PROFIL
 10
58.024264068710863
 20
-22.999999999999769
 30
0.0
  0
VERTEX
  5
268D
  8
SAPA_PROFIL
 10
61.499999999998863
 20
-22.999999999999769
 30
0.0
 42
0.4142135623730951
  0
VERTEX
  5
268E
  8
SAPA_PROFIL
 10
62.499999999998863
 20
-21.999999999999769
 30
0.0
  0
VERTEX
  5
268F
  8
SAPA_PROFIL
 10
62.499999999998863
 20
22.000000000000231
 30
0.0
 42
0.4142135623730951
  0
VERTEX
  5
2690
  8
SAPA_PROFIL
 10
61.499999999998863
 20
23.000000000000231
 30
0.0
  0
SEQEND
  5
2691
  8
SAPA_PROFIL
  0
POLYLINE
  5
186A
  8
SAPA_PROFIL
 66
     1
 10
0.0
 20
0.0
 30
0.0
 70
     1
  0
VERTEX
  5
2692
  8
SAPA_PROFIL
 10
-30.00000000000114
 20
6.0000000000002274
 30
0.0
 42
-0.4142135623730951
  0
VERTEX
  5
2693
  8
SAPA_PROFIL
 10
-31.00000000000114
 20
5.0000000000002274
 30
0.0
  0
VERTEX
  5
2694
  8
SAPA_PROFIL
 10
-52.200000000000948
 20
5.0000000000002274
 30
0.0
 42
0.4142135623730951
  0
VERTEX
  5
2695
  8
SAPA_PROFIL
 10
-52.50000000000113
 20
4.700000000000272
 30
0.0
  0
VERTEX
  5
2696
  8
SAPA_PROFIL
 10
-52.50000000000113
 20
3.0757360000002332
 30
0.0
  0
VERTEX
  5
2697
  8
SAPA_PROFIL
 10
-51.562132034356871
 20
2.2378679656442269
 30
0.0
 42
0.668178637919305
  0
VERTEX
  5
2698
  8
SAPA_PROFIL
 10
-51.050000000001091
 20
2.450000000000272
 30
0.0
  0
VERTEX
  5
2699
  8
SAPA_PROFIL
 10
-51.050000000001091
 20
2.700000000000272
 30
0.0
  0
VERTEX
  5
269A
  8
SAPA_PROFIL
 10
-49.673765406424756
 20
2.1767196966982278
 30
0.0
 42
0.5450207798987201
  0
VERTEX
  5
269B
  8
SAPA_PROFIL
 10
-49.250000000001137
 20
2.450000000000272
 30
0.0
  0
VERTEX
  5
269C
  8
SAPA_PROFIL
 10
-49.250000000001137
 20
2.700000000000272
 30
0.0
  0
VERTEX
  5
269D
  8
SAPA_PROFIL
 10
-47.873765406424567
 20
2.1767196966982278
 30
0.0
 42
0.5450207798987201
  0
VERTEX
  5
269E
  8
SAPA_PROFIL
 10
-47.450000000000962
 20
2.450000000000272
 30
0.0
  0
VERTEX
  5
269F
  8
SAPA_PROFIL
 10
-47.450000000000962
 20
2.700000000000272
 30
0.0
  0
VERTEX
  5
26A0
  8
SAPA_PROFIL
 10
-46.07376540642462
 20
2.1767196966982278
 30
0.0
 42
0.5450207798987342
  0
VERTEX
  5
26A1
  8
SAPA_PROFIL
 10
-45.650000000000993
 20
2.450000000000272
 30
0.0
  0
VERTEX
  5
26A2
  8
SAPA_PROFIL
 10
-45.650000000000993
 20
2.700000000000272
 30
0.0
  0
VERTEX
  5
26A3
  8
SAPA_PROFIL
 10
-44.273765406424673
 20
2.1767196966982278
 30
0.0
 42
0.5450207798987201
  0
VERTEX
  5
26A4
  8
SAPA_PROFIL
 10
-43.850000000001039
 20
2.450000000000272
 30
0.0
  0
VERTEX
  5
26A5
  8
SAPA_PROFIL
 10
-43.850000000001039
 20
2.700000000000272
 30
0.0
  0
VERTEX
  5
26A6
  8
SAPA_PROFIL
 10
-43.126282705194853
 20
2.4722372826161059
 30
0.0
 42
-0.2945484962563026
  0
VERTEX
  5
26A7
  8
SAPA_PROFIL
 10
-42.950048040246656
 20
2.1988824689378812
 30
0.0
  0
VERTEX
  5
26A8
  8
SAPA_PROFIL
 10
-42.950255222213173
 20
1.2642999377483191
 30
0.0
 42
0.3475954753796591
  0
VERTEX
  5
26A9
  8
SAPA_PROFIL
 10
-42.719501178044077
 20
0.9723265106783856
 30
0.0
 42
-0.790522909611319
  0
VERTEX
  5
26AA
  8
SAPA_PROFIL
 10
-42.71949097360357
 20
-0.973664089865224
 30
0.0
 42
0.3476065658631364
  0
VERTEX
  5
26AB
  8
SAPA_PROFIL
 10
-42.950241952335773
 20
-1.2656518108867649
 30
0.0
  0
VERTEX
  5
26AC
  8
SAPA_PROFIL
 10
-42.950095231626847
 20
-1.8499926620931999
 30
0.0
 42
-0.4102317530969976
  0
VERTEX
  5
26AD
  8
SAPA_PROFIL
 10
-43.245946879780369
 20
-2.1500282985855388
 30
0.0
 42
0.0712587206050384
  0
VERTEX
  5
26AE
  8
SAPA_PROFIL
 10
-43.329990804708579
 20
-2.1632556124550311
 30
0.0
  0
VERTEX
  5
26AF
  8
SAPA_PROFIL
 10
-44.750000000001137
 20
-2.6999999999998181
 30
0.0
  0
VERTEX
  5
26B0
  8
SAPA_PROFIL
 10
-44.750000000001137
 20
-2.4499999999998181
 30
0.0
 42
0.5450200690651619
  0
VERTEX
  5
26B1
  8
SAPA_PROFIL
 10
-45.173765000001133
 20
-2.17671899999982
 30
0.0
  0
VERTEX
  5
26B2
  8
SAPA_PROFIL
 10
-46.550000000001091
 20
-2.6999999999998181
 30
0.0
  0
VERTEX
  5
26B3
  8
SAPA_PROFIL
 10
-46.550000000000857
 20
-2.4499999999998181
 30
0.0
 42
0.545020069065176
  0
VERTEX
  5
26B4
  8
SAPA_PROFIL
 10
-46.973765000001087
 20
-2.17671899999982
 30
0.0
  0
VERTEX
  5
26B5
  8
SAPA_PROFIL
 10
-48.350000000001039
 20
-2.6999999999998181
 30
0.0
  0
VERTEX
  5
26B6
  8
SAPA_PROFIL
 10
-48.350000000001039
 20
-2.4499999999998181
 30
0.0
 42
0.5450200690651692
  0
VERTEX
  5
26B7
  8
SAPA_PROFIL
 10
-48.773765000001049
 20
-2.17671899999982
 30
0.0
  0
VERTEX
  5
26B8
  8
SAPA_PROFIL
 10
-50.150000000001
 20
-2.6999999999998181
 30
0.0
  0
VERTEX
  5
26B9
  8
SAPA_PROFIL
 10
-50.150000000001
 20
-2.1499999999998631
 30
0.0
  0
VERTEX
  5
26BA
  8
SAPA_PROFIL
 10
-51.350000000001039
 20
-2.1499999999998631
 30
0.0
 42
0.1989123673797004
  0
VERTEX
  5
26BB
  8
SAPA_PROFIL
 10
-51.562132000001156
 20
-2.2378679999997071
 30
0.0
  0
VERTEX
  5
26BC
  8
SAPA_PROFIL
 10
-52.50000000000113
 20
-3.075735999999778
 30
0.0
  0
VERTEX
  5
26BD
  8
SAPA_PROFIL
 10
-52.50000000000113
 20
-4.6999999999998181
 30
0.0
 42
0.4142135623730951
  0
VERTEX
  5
26BE
  8
SAPA_PROFIL
 10
-52.200000000000948
 20
-4.9999999999997717
 30
0.0
  0
VERTEX
  5
26BF
  8
SAPA_PROFIL
 10
-31.00000000000114
 20
-4.9999999999997717
 30
0.0
 42
-0.4142135623730951
  0
VERTEX
  5
26C0
  8
SAPA_PROFIL
 10
-30.00000000000114
 20
-5.9999999999997717
 30
0.0
  0
VERTEX
  5
26C1
  8
SAPA_PROFIL
 10
-30.00000000000114
 20
-14.19999999999982
 30
0.0
 42
-0.4142135623730951
  0
VERTEX
  5
26C2
  8
SAPA_PROFIL
 10
-30.50000000000114
 20
-14.69999999999982
 30
0.0
  0
VERTEX
  5
26C3
  8
SAPA_PROFIL
 10
-33.700000000000962
 20
-14.69999999999982
 30
0.0
 42
-0.4142135623730951
  0
VERTEX
  5
26C4
  8
SAPA_PROFIL
 10
-34.200000000000962
 20
-14.19999999999982
 30
0.0
  0
VERTEX
  5
26C5
  8
SAPA_PROFIL
 10
-34.200000000000962
 20
-11.299999999999731
 30
0.0
 42
0.4142135623730951
  0
VERTEX
  5
26C6
  8
SAPA_PROFIL
 10
-34.500000000001137
 20
-10.999999999999771
 30
0.0
  0
VERTEX
  5
26C7
  8
SAPA_PROFIL
 10
-35.200000000000948
 20
-10.999999999999771
 30
0.0
 42
0.4142135623730951
  0
VERTEX
  5
26C8
  8
SAPA_PROFIL
 10
-35.500000000001137
 20
-11.299999999999731
 30
0.0
  0
VERTEX
  5
26C9
  8
SAPA_PROFIL
 10
-35.500000000001137
 20
-17.999999999999769
 30
0.0
  0
VERTEX
  5
26CA
  8
SAPA_PROFIL
 10
-35.035076580641999
 20
-18.586384015500471
 30
0.0
 42
0.7105995019814511
  0
VERTEX
  5
26CB
  8
SAPA_PROFIL
 10
-34.500000000001137
 20
-18.39999999999986
 30
0.0
  0
VERTEX
  5
26CC
  8
SAPA_PROFIL
 10
-34.500000000001137
 20
-16.499999999999769
 30
0.0
 42
-0.4142135623730951
  0
VERTEX
  5
26CD
  8
SAPA_PROFIL
 10
-34.200000000000962
 20
-16.199999999999822
 30
0.0
  0
VERTEX
  5
26CE
  8
SAPA_PROFIL
 10
-30.300000000001091
 20
-16.199999999999822
 30
0.0
 42
-0.4142135623730951
  0
VERTEX
  5
26CF
  8
SAPA_PROFIL
 10
-30.00000000000114
 20
-16.499999999999769
 30
0.0
  0
VERTEX
  5
26D0
  8
SAPA_PROFIL
 10
-30.00000000000114
 20
-23.199999999999822
 30
0.0
 42
-0.4142135623730951
  0
VERTEX
  5
26D1
  8
SAPA_PROFIL
 10
-30.300000000001091
 20
-23.499999999999769
 30
0.0
  0
VERTEX
  5
26D2
  8
SAPA_PROFIL
 10
-34.200000000000962
 20
-23.499999999999769
 30
0.0
 42
-0.4142135623730951
  0
VERTEX
  5
26D3
  8
SAPA_PROFIL
 10
-34.500000000001137
 20
-23.199999999999822
 30
0.0
  0
VERTEX
  5
26D4
  8
SAPA_PROFIL
 10
-34.500000000001137
 20
-21.999999999999769
 30
0.0
 42
0.7105990647993611
  0
VERTEX
  5
26D5
  8
SAPA_PROFIL
 10
-35.035076000001027
 20
-21.81361599999968
 30
0.0
  0
VERTEX
  5
26D6
  8
SAPA_PROFIL
 10
-35.500000000001137
 20
-22.39999999999986
 30
0.0
  0
VERTEX
  5
26D7
  8
SAPA_PROFIL
 10
-35.500000000001137
 20
-24.699999999999822
 30
0.0
 42
0.4142135623730951
  0
VERTEX
  5
26D8
  8
SAPA_PROFIL
 10
-35.200000000000948
 20
-24.999999999999769
 30
0.0
  0
VERTEX
  5
26D9
  8
SAPA_PROFIL
 10
63.999999999998863
 20
-24.999999999999769
 30
0.0
 42
0.4142135623730951
  0
VERTEX
  5
26DA
  8
SAPA_PROFIL
 10
64.499999999998863
 20
-24.499999999999769
 30
0.0
  0
VERTEX
  5
26DB
  8
SAPA_PROFIL
 10
64.499999999998863
 20
24.500000000000231
 30
0.0
 42
0.4142135623730951
  0
VERTEX
  5
26DC
  8
SAPA_PROFIL
 10
63.999999999998863
 20
25.000000000000231
 30
0.0
  0
VERTEX
  5
26DD
  8
SAPA_PROFIL
 10
-35.200000000000948
 20
25.000000000000231
 30
0.0
 42
0.4142135623730951
  0
VERTEX
  5
26DE
  8
SAPA_PROFIL
 10
-35.500000000001137
 20
24.700000000000269
 30
0.0
  0
VERTEX
  5
26DF
  8
SAPA_PROFIL
 10
-35.500000000001137
 20
22.400000000000318
 30
0.0
  0
VERTEX
  5
26E0
  8
SAPA_PROFIL
 10
-35.035076580641999
 20
21.81361598449962
 30
0.0
 42
0.7105995019814511
  0
VERTEX
  5
26E1
  8
SAPA_PROFIL
 10
-34.500000000001137
 20
22.000000000000231
 30
0.0
  0
VERTEX
  5
26E2
  8
SAPA_PROFIL
 10
-34.500000000001137
 20
23.200000000000269
 30
0.0
 42
-0.4142135623730951
  0
VERTEX
  5
26E3
  8
SAPA_PROFIL
 10
-34.200000000000962
 20
23.500000000000231
 30
0.0
  0
VERTEX
  5
26E4
  8
SAPA_PROFIL
 10
-30.300000000001091
 20
23.500000000000231
 30
0.0
 42
-0.4142135623730951
  0
VERTEX
  5
26E5
  8
SAPA_PROFIL
 10
-30.00000000000114
 20
23.200000000000269
 30
0.0
  0
VERTEX
  5
26E6
  8
SAPA_PROFIL
 10
-30.00000000000114
 20
16.500000000000231
 30
0.0
 42
-0.4142135623730951
  0
VERTEX
  5
26E7
  8
SAPA_PROFIL
 10
-30.300000000001091
 20
16.200000000000269
 30
0.0
  0
VERTEX
  5
26E8
  8
SAPA_PROFIL
 10
-34.200000000000962
 20
16.200000000000269
 30
0.0
 42
-0.4142135623730951
  0
VERTEX
  5
26E9
  8
SAPA_PROFIL
 10
-34.500000000001137
 20
16.500000000000231
 30
0.0
  0
VERTEX
  5
26EA
  8
SAPA_PROFIL
 10
-34.500000000001137
 20
18.400000000000318
 30
0.0
 42
0.7105995019814511
  0
VERTEX
  5
26EB
  8
SAPA_PROFIL
 10
-35.035076580641999
 20
18.586384015500919
 30
0.0
  0
VERTEX
  5
26EC
  8
SAPA_PROFIL
 10
-35.500000000001137
 20
18.000000000000231
 30
0.0
  0
VERTEX
  5
26ED
  8
SAPA_PROFIL
 10
-35.500000000001137
 20
11.30000000000018
 30
0.0
 42
0.4142135623730951
  0
VERTEX
  5
26EE
  8
SAPA_PROFIL
 10
-35.200000000000948
 20
11.00000000000022
 30
0.0
  0
VERTEX
  5
26EF
  8
SAPA_PROFIL
 10
-34.500000000001137
 20
11.00000000000022
 30
0.0
 42
0.4142135623730951
  0
VERTEX
  5
26F0
  8
SAPA_PROFIL
 10
-34.200000000000962
 20
11.30000000000018
 30
0.0
  0
VERTEX
  5
26F1
  8
SAPA_PROFIL
 10
-34.200000000000962
 20
14.200000000000269
 30
0.0
 42
-0.4142135623730951
  0
VERTEX
  5
26F2
  8
SAPA_PROFIL
 10
-33.700000000000962
 20
14.700000000000269
 30
0.0
  0
VERTEX
  5
26F3
  8
SAPA_PROFIL
 10
-30.50000000000114
 20
14.700000000000269
 30
0.0
 42
-0.4142135623730951
  0
VERTEX
  5
26F4
  8
SAPA_PROFIL
 10
-30.00000000000114
 20
14.200000000000269
 30
0.0
  0
SEQEND
  5
26F5
  8
SAPA_PROFIL
  0
POLYLINE
  5
18A1
  8
SAPA_GLAS
 66
     1
 10
0.0
 20
0.0
 30
0.0
  0
VERTEX
  5
2700
  8
SAPA_GLAS
 10
-76.499999999011266
 20
75.522593981594696
 30
0.0
  0
VERTEX
  5
2701
  8
SAPA_GLAS
 10
-76.499999999011735
 20
11.000967646493461
 30
0.0
  0
VERTEX
  5
2702
  8
SAPA_GLAS
 10
-82.499999999011038
 20
11.000967646493461
 30
0.0
  0
VERTEX
  5
2703
  8
SAPA_GLAS
 10
-82.499999999011038
 20
75.522593981594696
 30
0.0
  0
SEQEND
  5
2704
  8
SAPA_GLAS
  0
POLYLINE
  5
18A2
  8
SAPA_GLAS
 66
     1
 10
0.0
 20
0.0
 30
0.0
  0
VERTEX
  5
2705
  8
SAPA_GLAS
 10
-68.600000435443803
 20
-208.29999999549739
 30
0.0
  0
VERTEX
  5
2706
  8
SAPA_GLAS
 10
-68.600000435443803
 20
-179.4999999954976
 30
0.0
  0
VERTEX
  5
2707
  8
SAPA_GLAS
 10
-46.600000435443803
 20
-179.4999999954976
 30
0.0
  0
VERTEX
  5
2708
  8
SAPA_GLAS
 10
-46.600000435444016
 20
-208.29999999549739
 30
0.0
  0
SEQEND
  5
2709
  8
SAPA_GLAS
  0
LINE
  5
18A3
  8
SAPA_GLAS
 10
-63.600000435443803
 20
-189.4999999954976
 30
0.0
 11
-51.600000435443803
 21
-189.4999999954976
 31
0.0
  0
LINE
  5
18A4
  8
SAPA_GLAS
 10
-51.600000435444031
 20
-208.29999999549739
 30
0.0
 11
-51.600000435443803
 21
-179.4999999954976
 31
0.0
  0
LINE
  5
18A5
  8
SAPA_GLAS
 10
-63.600000435443803
 20
-208.29999999549739
 30
0.0
 11
-63.600000435443803
 21
-179.4999999954976
 31
0.0
  0
POLYLINE
  5
18AD
  8
SAPA_FYLLNING
 66
     1
 10
0.0
 20
0.0
 30
0.0
  0
VERTEX
  5
2714
  8
SAPA_FYLLNING
 10
-44.291421355247621
 20
75.551914392872476
 30
0.0
  0
VERTEX
  5
2715
  8
SAPA_FYLLNING
 10
-44.291421355247628
 20
14.06443431039108
 30
0.0
  0
VERTEX
  5
2716
  8
SAPA_FYLLNING
 10
-36.291421355247643
 20
14.06443431039108
 30
0.0
  0
VERTEX
  5
2717
  8
SAPA_FYLLNING
 10
-36.291421355247621
 20
75.55191439287249
 30
0.0
  0
SEQEND
  5
2718
  8
SAPA_FYLLNING
  0
LINE
  5
18AE
  8
SAPA_FYLLNING
 10
52.499999999998892
 20
26.000000000000259
 30
0.0
 11
52.499999999998849
 21
75.000000000000256
 31
0.0
  0
POLYLINE
  5
18AF
  8
SAPA_FYLLNING
 66
     1
 10
0.0
 20
0.0
 30
0.0
  0
VERTEX
  5
2719
  8
SAPA_FYLLNING
 10
50.999999999998849
 20
75.000000000000256
 30
0.0
  0
VERTEX
  5
271A
  8
SAPA_FYLLNING
 10
50.999999999998842
 20
26.000000000000259
 30
0.0
  0
VERTEX
  5
271B
  8
SAPA_FYLLNING
 10
62.499999999998892
 20
26.000000000000259
 30
0.0
  0
VERTEX
  5
271C
  8
SAPA_FYLLNING
 10
62.499999999998899
 20
75.000000000000256
 30
0.0
  0
SEQEND
  5
271D
  8
SAPA_FYLLNING
  0
LINE
  5
18BA
  8
SAPA_ISOLATOR
 10
-20.225997034066388
 20
-25.00001783078233
 30
0.0
 11
-20.225997034066388
 21
-31.19464159796518
 31
0.0
  0
LINE
  5
18BB
  8
SAPA_ISOLATOR
 10
-45.420880317278147
 20
-25.000017830782319
 30
0.0
 11
-20.225997034066388
 21
-25.00001783078233
 31
0.0
  0
LINE
  5
18BC
  8
SAPA_ISOLATOR
 10
-45.420880317278147
 20
-31.194641597966999
 30
0.0
 11
-45.420880317278147
 21
-25.000017830782319
 31
0.0
  0
LINE
  5
18BD
  8
SAPA_ISOLATOR
 10
-20.225997034066388
 20
-31.200017830782262
 30
0.0
 11
-45.420880317278147
 21
-31.194641597966999
 31
0.0
  0
LINE
  5
18BE
  8
SAPA_ISOLATOR
 10
-45.420880317278147
 20
-31.194641597966999
 30
0.0
 11
-20.225997034066388
 21
-25.00001783078233
 31
0.0
  0
LINE
  5
18BF
  8
SAPA_ISOLATOR
 10
-20.225997034066388
 20
-31.216605133667709
 30
0.0
 11
-45.420880317278147
 21
-25.011228900852519
 31
0.0
  0
POLYLINE
  5
18DF
  8
SAPA_FOGBAND
 62
     2
 66
     1
 10
0.0
 20
0.0
 30
0.0
  0
VERTEX
  5
2901
  8
SAPA_FOGBAND
 62
     2
 10
-32.383158467373278
 20
-106.62229206138009
 30
0.0
 42
0.1803090304626144
  0
VERTEX
  5
2902
  8
SAPA_FOGBAND
 62
     2
 10
-30.542746790559541
 20
-108.0102896857392
 30
0.0
  0
VERTEX
  5
2903
  8
SAPA_FOGBAND
 62
     2
 10
-28.077387584633762
 20
-108.74433357453729
 30
0.0
 42
-0.3317810211360308
  0
VERTEX
  5
2904
  8
SAPA_FOGBAND
 62
     2
 10
-27.362750467474491
 20
-109.7027531199852
 30
0.0
  0
VERTEX
  5
2905
  8
SAPA_FOGBAND
 62
     2
 10
-27.36275046747437
 20
-110.9364802785849
 30
0.0
 42
0.2679491924312111
  0
VERTEX
  5
2906
  8
SAPA_FOGBAND
 62
     2
 10
-27.21275046747428
 20
-111.1962878997176
 30
0.0
  0
VERTEX
  5
2907
  8
SAPA_FOGBAND
 62
     2
 10
-26.309562324600741
 20
-111.71774381713389
 30
0.0
 42
0.5773502691894719
  0
VERTEX
  5
2908
  8
SAPA_FOGBAND
 62
     2
 10
-25.859562324600908
 20
-111.4579361959984
 30
0.0
  0
VERTEX
  5
2909
  8
SAPA_FOGBAND
 62
     2
 10
-25.859562324600802
 20
-105.456095431945
 30
0.0
 42
0.4147066859862881
  0
VERTEX
  5
290A
  8
SAPA_FOGBAND
 62
     2
 10
-28.864612329455781
 20
-102.45609968237299
 30
0.0
  0
VERTEX
  5
290B
  8
SAPA_FOGBAND
 62
     2
 10
-31.046603527069689
 20
-102.459772709624
 30
0.0
 42
-0.4565417232955612
  0
VERTEX
  5
290C
  8
SAPA_FOGBAND
 62
     2
 10
-31.396405633110589
 20
-102.0767160834021
 30
0.0
  0
VERTEX
  5
290D
  8
SAPA_FOGBAND
 62
     2
 10
-31.218276299599658
 20
-101.0664944327208
 30
0.0
  0
VERTEX
  5
290E
  8
SAPA_FOGBAND
 62
     2
 10
-30.824353198394761
 20
-101.13595370378761
 30
0.0
 42
0.6720594905598717
  0
VERTEX
  5
290F
  8
SAPA_FOGBAND
 62
     2
 10
-30.627031447516181
 20
-100.82252840763501
 30
0.0
  0
VERTEX
  5
2910
  8
SAPA_FOGBAND
 62
     2
 10
-31.947239316581939
 20
-98.979419300051674
 30
0.0
 42
0.4079520108343612
  0
VERTEX
  5
2911
  8
SAPA_FOGBAND
 62
     2
 10
-32.773876654745152
 20
-98.833660834072404
 30
0.0
  0
VERTEX
  5
2912
  8
SAPA_FOGBAND
 62
     2
 10
-34.644846688350299
 20
-100.1140791771743
 30
0.0
 42
0.6720594905598635
  0
VERTEX
  5
2913
  8
SAPA_FOGBAND
 62
     2
 10
-34.56662265984113
 20
-100.4760906286533
 30
0.0
  0
VERTEX
  5
2914
  8
SAPA_FOGBAND
 62
     2
 10
-34.172699558636282
 20
-100.5455498997201
 30
0.0
  0
VERTEX
  5
2915
  8
SAPA_FOGBAND
 62
     2
 10
-34.328982918536497
 20
-101.43187687743099
 30
0.0
 42
-0.4142135623730951
  0
VERTEX
  5
2916
  8
SAPA_FOGBAND
 62
     2
 10
-34.676519697740218
 20
-101.6752247500347
 30
0.0
  0
VERTEX
  5
2917
  8
SAPA_FOGBAND
 62
     2
 10
-36.074865758363792
 20
-101.4671479827786
 30
0.0
 42
0.4313344489874135
  0
VERTEX
  5
2918
  8
SAPA_FOGBAND
 62
     2
 10
-36.424928964272112
 20
-101.72773887443491
 30
0.0
  0
VERTEX
  5
2919
  8
SAPA_FOGBAND
 62
     2
 10
-36.507737816333467
 20
-102.4357283987254
 30
0.0
 42
0.3972974670000809
  0
VERTEX
  5
291A
  8
SAPA_FOGBAND
 62
     2
 10
-36.097947317486621
 20
-102.9862179989772
 30
0.0
  0
VERTEX
  5
291B
  8
SAPA_FOGBAND
 62
     2
 10
-30.597487011950989
 20
-103.956097557159
 30
0.0
  0
VERTEX
  5
291C
  8
SAPA_FOGBAND
 62
     2
 10
-28.862087327028348
 20
-103.956097557159
 30
0.0
 42
-0.4147066859863004
  0
VERTEX
  5
291D
  8
SAPA_FOGBAND
 62
     2
 10
-27.359562324600802
 20
-105.456095431945
 30
0.0
  0
VERTEX
  5
291E
  8
SAPA_FOGBAND
 62
     2
 10
-27.359562324600919
 20
-107.6586220215311
 30
0.0
 42
-0.601131774324047
  0
VERTEX
  5
291F
  8
SAPA_FOGBAND
 62
     2
 10
-28.279141277178041
 20
-107.59071934396709
 30
0.0
 42
0.2227389711612139
  0
VERTEX
  5
2920
  8
SAPA_FOGBAND
 62
     2
 10
-28.407010446396839
 20
-107.4790465048394
 30
0.0
  0
VERTEX
  5
2921
  8
SAPA_FOGBAND
 62
     2
 10
-30.22884761943476
 20
-106.95602818574631
 30
0.0
 42
-0.1796843201953831
  0
VERTEX
  5
2922
  8
SAPA_FOGBAND
 62
     2
 10
-31.452919484776491
 20
-106.0351822185587
 30
0.0
 42
1.0
  0
VERTEX
  5
2923
  8
SAPA_FOGBAND
 62
     2
 10
-32.378854588572104
 20
-106.62902073495771
 30
0.0
  0
SEQEND
  5
2924
  8
SAPA_FOGBAND
 62
     2
  0
INSERT
  5
18E0
  8
SAPA_FOGBAND
  6
CONTINUOUS
 62
     2
  2
*U161
 10
0.0
 20
0.0
 30
0.0
1001
ACAD
1002
{
1000
R14_HATCH_DATA
1000
18E0
1011
1.0
1021
0.0
1031
0.0
1021
0.0
1031
0.0
1011
0.0
1021
0.0
1031
0.0
1021
1.0
1031
0.0
1011
0.0
1021
0.0
1031
0.0
1021
0.0
1031
1.0
1040
0.0
1010
0.0
1020
0.0
1030
1.0
1000
SOLID
1070
     1
1070
     0
1071
        1
1071
        1
1071
        1
1070
     2
1040
-30.181669129626979
1040
-103.2480901481663
1040
0.2549509756796394
1040
-1.5707963267948959
1040
4.7123889803846888
1070
     1
1071
        0
1070
     0
1070
     1
1071
        1
1040
-39.162388310148231
1040
-96.138242008180924
1040
0.0
1002
}
  0
POLYLINE
  5
18E1
  8
SAPA_FOGBAND
 62
     2
 66
     1
 10
0.0
 20
0.0
 30
0.0
 70
     1
  0
VERTEX
  5
2936
  8
SAPA_FOGBAND
 62
     2
 10
-33.344175165524291
 20
-101.605525055098
 30
0.0
 42
1.0
  0
VERTEX
  5
2937
  8
SAPA_FOGBAND
 62
     2
 10
-32.359367412512093
 20
-101.779173232765
 30
0.0
  0
VERTEX
  5
2938
  8
SAPA_FOGBAND
 62
     2
 10
-32.098895146011671
 20
-100.3019616032467
 30
0.0
 42
0.9999999999999998
  0
VERTEX
  5
2939
  8
SAPA_FOGBAND
 62
     2
 10
-33.083702899023884
 20
-100.12831342557971
 30
0.0
  0
SEQEND
  5
293A
  8
SAPA_FOGBAND
 62
     2
  0
POLYLINE
  5
18E2
  8
SAPA_FOGBAND
 62
     2
 66
     1
 10
0.0
 20
0.0
 30
0.0
  0
VERTEX
  5
293B
  8
SAPA_FOGBAND
 62
     2
 10
-74.203160964666765
 20
-100.45183958590709
 30
0.0
 42
0.1803090304626144
  0
VERTEX
  5
293C
  8
SAPA_FOGBAND
 62
     2
 10
-76.043572641480523
 20
-99.063841961548121
 30
0.0
  0
VERTEX
  5
293D
  8
SAPA_FOGBAND
 62
     2
 10
-78.508931847406302
 20
-98.329798072750066
 30
0.0
 42
-0.3317810211360308
  0
VERTEX
  5
293E
  8
SAPA_FOGBAND
 62
     2
 10
-79.223568964565573
 20
-97.37137852730207
 30
0.0
  0
VERTEX
  5
293F
  8
SAPA_FOGBAND
 62
     2
 10
-79.223568964565686
 20
-96.137651368702393
 30
0.0
 42
0.2679491924312111
  0
VERTEX
  5
2940
  8
SAPA_FOGBAND
 62
     2
 10
-79.373568964565763
 20
-95.877843747569671
 30
0.0
  0
VERTEX
  5
2941
  8
SAPA_FOGBAND
 62
     2
 10
-80.276757107439323
 20
-95.356387830153423
 30
0.0
 42
0.5773502691894719
  0
VERTEX
  5
2942
  8
SAPA_FOGBAND
 62
     2
 10
-80.726757107439127
 20
-95.616195451288888
 30
0.0
  0
VERTEX
  5
2943
  8
SAPA_FOGBAND
 62
     2
 10
-80.726757107439255
 20
-101.6180362153423
 30
0.0
 42
0.4147066859862881
  0
VERTEX
  5
2944
  8
SAPA_FOGBAND
 62
     2
 10
-77.721707102584276
 20
-104.61803196491429
 30
0.0
  0
VERTEX
  5
2945
  8
SAPA_FOGBAND
 62
     2
 10
-75.539715904970365
 20
-104.6143589376633
 30
0.0
 42
-0.4565417232955612
  0
VERTEX
  5
2946
  8
SAPA_FOGBAND
 62
     2
 10
-75.189913798929467
 20
-104.9974155638852
 30
0.0
  0
VERTEX
  5
2947
  8
SAPA_FOGBAND
 62
     2
 10
-75.368043132440391
 20
-106.0076372145665
 30
0.0
  0
VERTEX
  5
2948
  8
SAPA_FOGBAND
 62
     2
 10
-75.761966233645296
 20
-105.9381779434997
 30
0.0
 42
0.6720594905598717
  0
VERTEX
  5
2949
  8
SAPA_FOGBAND
 62
     2
 10
-75.959287984523883
 20
-106.2516032396523
 30
0.0
  0
VERTEX
  5
294A
  8
SAPA_FOGBAND
 62
     2
 10
-74.639080115458114
 20
-108.0947123472356
 30
0.0
 42
0.4079520108343612
  0
VERTEX
  5
294B
  8
SAPA_FOGBAND
 62
     2
 10
-73.812442777294905
 20
-108.2404708132149
 30
0.0
  0
VERTEX
  5
294C
  8
SAPA_FOGBAND
 62
     2
 10
-71.941472743689758
 20
-106.960052470113
 30
0.0
 42
0.6720594905598635
  0
VERTEX
  5
294D
  8
SAPA_FOGBAND
 62
     2
 10
-72.019696772198927
 20
-106.59804101863389
 30
0.0
  0
VERTEX
  5
294E
  8
SAPA_FOGBAND
 62
     2
 10
-72.413619873403775
 20
-106.5285817475672
 30
0.0
  0
VERTEX
  5
294F
  8
SAPA_FOGBAND
 62
     2
 10
-72.25733651350356
 20
-105.64225476985619
 30
0.0
 42
-0.4142135623730951
  0
VERTEX
  5
2950
  8
SAPA_FOGBAND
 62
     2
 10
-71.909799734299838
 20
-105.3989068972526
 30
0.0
  0
VERTEX
  5
2951
  8
SAPA_FOGBAND
 62
     2
 10
-70.511453673676272
 20
-105.6069836645087
 30
0.0
 42
0.4313344489874135
  0
VERTEX
  5
2952
  8
SAPA_FOGBAND
 62
     2
 10
-70.161390467767944
 20
-105.3463927728524
 30
0.0
  0
VERTEX
  5
2953
  8
SAPA_FOGBAND
 62
     2
 10
-70.078581615706582
 20
-104.6384032485619
 30
0.0
 42
0.3972974670000809
  0
VERTEX
  5
2954
  8
SAPA_FOGBAND
 62
     2
 10
-70.488372114553442
 20
-104.08791364831011
 30
0.0
  0
VERTEX
  5
2955
  8
SAPA_FOGBAND
 62
     2
 10
-75.988832420089054
 20
-103.1180340901283
 30
0.0
  0
VERTEX
  5
2956
  8
SAPA_FOGBAND
 62
     2
 10
-77.724232105011708
 20
-103.1180340901283
 30
0.0
 42
-0.4147066859863004
  0
VERTEX
  5
2957
  8
SAPA_FOGBAND
 62
     2
 10
-79.226757107439255
 20
-101.6180362153423
 30
0.0
  0
VERTEX
  5
2958
  8
SAPA_FOGBAND
 62
     2
 10
-79.226757107439141
 20
-99.415509625756215
 30
0.0
 42
-0.601131774324047
  0
VERTEX
  5
2959
  8
SAPA_FOGBAND
 62
     2
 10
-78.307178154862015
 20
-99.483412303320222
 30
0.0
 42
0.2227389711612139
  0
VERTEX
  5
295A
  8
SAPA_FOGBAND
 62
     2
 10
-78.179308985643218
 20
-99.595085142447886
 30
0.0
  0
VERTEX
  5
295B
  8
SAPA_FOGBAND
 62
     2
 10
-76.357471812605297
 20
-100.118103461541
 30
0.0
 42
-0.1796843201953831
  0
VERTEX
  5
295C
  8
SAPA_FOGBAND
 62
     2
 10
-75.13339994726357
 20
-101.0389494287286
 30
0.0
 42
1.0
  0
VERTEX
  5
295D
  8
SAPA_FOGBAND
 62
     2
 10
-74.20746484346796
 20
-100.4451109123296
 30
0.0
  0
SEQEND
  5
295E
  8
SAPA_FOGBAND
 62
     2
  0
INSERT
  5
18E3
  8
SAPA_FOGBAND
  6
CONTINUOUS
 62
     2
  2
*U162
 10
0.0
 20
0.0
 30
0.0
1001
ACAD
1002
{
1000
R14_HATCH_DATA
1000
18E3
1011
1.0
1021
0.0
1031
0.0
1021
0.0
1031
0.0
1011
0.0
1021
0.0
1031
0.0
1021
1.0
1031
0.0
1011
0.0
1021
0.0
1031
0.0
1021
0.0
1031
1.0
1040
0.0
1010
0.0
1020
0.0
1030
1.0
1000
SOLID
1070
     1
1070
     0
1071
        1
1071
        1
1071
        1
1070
     2
1040
-76.404650302413074
1040
-103.826041499121
1040
0.2549509756796394
1040
1.5707963267948959
1040
7.8539816339744819
1070
     1
1071
        0
1070
     0
1070
     1
1071
        1
1040
-67.423931121891826
1040
-110.93588963910641
1040
0.0
1002
}
  0
POLYLINE
  5
18E4
  8
SAPA_FOGBAND
 62
     2
 66
     1
 10
0.0
 20
0.0
 30
0.0
 70
     1
  0
VERTEX
  5
2970
  8
SAPA_FOGBAND
 62
     2
 10
-73.242144266515766
 20
-105.4686065921893
 30
0.0
 42
1.0
  0
VERTEX
  5
2971
  8
SAPA_FOGBAND
 62
     2
 10
-74.226952019527971
 20
-105.2949584145223
 30
0.0
  0
VERTEX
  5
2972
  8
SAPA_FOGBAND
 62
     2
 10
-74.487424286028386
 20
-106.77217004404061
 30
0.0
 42
0.9999999999999998
  0
VERTEX
  5
2973
  8
SAPA_FOGBAND
 62
     2
 10
-73.50261653301618
 20
-106.9458182217076
 30
0.0
  0
SEQEND
  5
2974
  8
SAPA_FOGBAND
 62
     2
  0
CIRCLE
  5
18E5
  8
SAPA_FOGBAND
 10
-85.479767941648902
 20
-18.616845196720298
 30
0.0
 40
0.2549509756796394
  0
INSERT
  5
18E6
  8
SAPA_FOGBAND
  6
CONTINUOUS
  2
*U163
 10
0.0
 20
0.0
 30
0.0
1001
ACAD
1002
{
1000
R14_HATCH_DATA
1000
18E6
1011
1.0
1021
0.0
1031
0.0
1021
0.0
1031
0.0
1011
0.0
1021
0.0
1031
0.0
1021
1.0
1031
0.0
1011
0.0
1021
0.0
1031
0.0
1021
0.0
1031
1.0
1040
0.0
1010
0.0
1020
0.0
1030
1.0
1000
SOLID
1070
     1
1070
     1
1071
        1
1071
        1
1071
        1
1070
     2
1040
-85.479767941648902
1040
-18.616845196720298
1040
0.2549509756796394
1040
-1.5707963267948959
1040
4.7123889803846888
1070
     0
1071
        1
1005
18E5
1070
     0
1070
     1
1071
        1
1040
-85.397916444320003
1040
-18.853584098290408
1040
0.0
1002
}
  0
POLYLINE
  5
18E7
  8
SAPA_FOGBAND
 66
     1
 10
0.0
 20
0.0
 30
0.0
 70
     1
  0
VERTEX
  5
2986
  8
SAPA_FOGBAND
 10
-88.442199720893427
 20
-17.716845196720332
 30
0.0
 42
-0.9999999999999998
  0
VERTEX
  5
2987
  8
SAPA_FOGBAND
 10
-88.442199720893427
 20
-19.516845196720279
 30
0.0
  0
VERTEX
  5
2988
  8
SAPA_FOGBAND
 10
-89.04219972089345
 20
-19.516845196720279
 30
0.0
 42
-0.9999999999999998
  0
VERTEX
  5
2989
  8
SAPA_FOGBAND
 10
-89.04219972089345
 20
-17.716845196720332
 30
0.0
  0
SEQEND
  5
298A
  8
SAPA_FOGBAND
  0
POLYLINE
  5
18E8
  8
SAPA_FOGBAND
 66
     1
 10
0.0
 20
0.0
 30
0.0
 70
     1
  0
VERTEX
  5
298B
  8
SAPA_FOGBAND
 10
-83.342199720893404
 20
-27.244721504893509
 30
0.0
 42
-0.0775891054856093
  0
VERTEX
  5
298C
  8
SAPA_FOGBAND
 10
-83.658835704954754
 20
-23.777939774470951
 30
0.0
  0
VERTEX
  5
298D
  8
SAPA_FOGBAND
 10
-83.44219972089337
 20
-23.540050281642149
 30
0.0
 42
0.5773502691896298
  0
VERTEX
  5
298E
  8
SAPA_FOGBAND
 10
-83.44219972089337
 20
-23.1936401201283
 30
0.0
  0
VERTEX
  5
298F
  8
SAPA_FOGBAND
 10
-83.659109575116418
 20
-22.955592503397501
 30
0.0
  0
VERTEX
  5
2990
  8
SAPA_FOGBAND
 10
-83.659109575116418
 20
-22.178097893480871
 30
0.0
  0
VERTEX
  5
2991
  8
SAPA_FOGBAND
 10
-83.44219972089337
 20
-21.940050281642129
 30
0.0
 42
0.577350269189699
  0
VERTEX
  5
2992
  8
SAPA_FOGBAND
 10
-83.44219972089337
 20
-21.593640120128381
 30
0.0
  0
VERTEX
  5
2993
  8
SAPA_FOGBAND
 10
-83.659109575116418
 20
-21.355592503397592
 30
0.0
  0
VERTEX
  5
2994
  8
SAPA_FOGBAND
 10
-83.659109575116418
 20
-20.578097893480841
 30
0.0
  0
VERTEX
  5
2995
  8
SAPA_FOGBAND
 10
-83.44219972089337
 20
-20.34005028164211
 30
0.0
 42
0.577350269189699
  0
VERTEX
  5
2996
  8
SAPA_FOGBAND
 10
-83.44219972089337
 20
-19.993640120128362
 30
0.0
  0
VERTEX
  5
2997
  8
SAPA_FOGBAND
 10
-83.659109575116418
 20
-19.755592503397558
 30
0.0
  0
VERTEX
  5
2998
  8
SAPA_FOGBAND
 10
-83.659109575116418
 20
-18.978097893480822
 30
0.0
  0
VERTEX
  5
2999
  8
SAPA_FOGBAND
 10
-83.44219972089337
 20
-18.740050281642191
 30
0.0
 42
0.5773502691896298
  0
VERTEX
  5
299A
  8
SAPA_FOGBAND
 10
-83.44219972089337
 20
-18.393640120128339
 30
0.0
  0
VERTEX
  5
299B
  8
SAPA_FOGBAND
 10
-83.659109575116418
 20
-18.155592503397539
 30
0.0
  0
VERTEX
  5
299C
  8
SAPA_FOGBAND
 10
-83.659109575116418
 20
-17.378097893480799
 30
0.0
  0
VERTEX
  5
299D
  8
SAPA_FOGBAND
 10
-83.44219972089337
 20
-17.140050281642171
 30
0.0
 42
0.5773502691896298
  0
VERTEX
  5
299E
  8
SAPA_FOGBAND
 10
-83.44219972089337
 20
-16.793640120128309
 30
0.0
  0
VERTEX
  5
299F
  8
SAPA_FOGBAND
 10
-83.659109575116418
 20
-16.55559250339752
 30
0.0
  0
VERTEX
  5
29A0
  8
SAPA_FOGBAND
 10
-83.659109575116418
 20
-15.778097889315861
 30
0.0
  0
VERTEX
  5
29A1
  8
SAPA_FOGBAND
 10
-83.44219972089337
 20
-15.540050277477119
 30
0.0
 42
0.577350269189699
  0
VERTEX
  5
29A2
  8
SAPA_FOGBAND
 10
-83.44219972089337
 20
-15.193640115963371
 30
0.0
  0
VERTEX
  5
29A3
  8
SAPA_FOGBAND
 10
-84.515529789377865
 20
-14.39364011640828
 30
0.0
 42
0.1316524987190269
  0
VERTEX
  5
29A4
  8
SAPA_FOGBAND
 10
-84.615529790148571
 20
-14.3668451967203
 30
0.0
  0
VERTEX
  5
29A5
  8
SAPA_FOGBAND
 10
-87.142199720893359
 20
-14.36684519672019
 30
0.0
 42
0.4142135623730951
  0
VERTEX
  5
29A6
  8
SAPA_FOGBAND
 10
-87.342199720893404
 20
-14.56684519672023
 30
0.0
  0
VERTEX
  5
29A7
  8
SAPA_FOGBAND
 10
-87.342199720893404
 20
-16.616845196720298
 30
0.0
 42
-0.4142135623730951
  0
VERTEX
  5
29A8
  8
SAPA_FOGBAND
 10
-87.842199720893404
 20
-17.116845196720298
 30
0.0
  0
VERTEX
  5
29A9
  8
SAPA_FOGBAND
 10
-88.568994640136566
 20
-17.116845196720298
 30
0.0
  0
VERTEX
  5
29AA
  8
SAPA_FOGBAND
 10
-88.636454549446967
 20
-16.865081387699771
 30
0.0
 42
0.4740571810232869
  0
VERTEX
  5
29AB
  8
SAPA_FOGBAND
 10
-88.918737135085621
 20
-16.737787525336209
 30
0.0
  0
VERTEX
  5
29AC
  8
SAPA_FOGBAND
 10
-90.364943271845405
 20
-17.357888028094749
 30
0.0
 42
0.2846003776495916
  0
VERTEX
  5
29AD
  8
SAPA_FOGBAND
 10
-90.642199720893359
 20
-17.805532206554972
 30
0.0
  0
VERTEX
  5
29AE
  8
SAPA_FOGBAND
 10
-90.642199720893359
 20
-19.428158186885518
 30
0.0
 42
0.2846003776495917
  0
VERTEX
  5
29AF
  8
SAPA_FOGBAND
 10
-90.364943271845405
 20
-19.875802365345749
 30
0.0
  0
VERTEX
  5
29B0
  8
SAPA_FOGBAND
 10
-88.918737135085621
 20
-20.495902868104281
 30
0.0
 42
0.4740571810232869
  0
VERTEX
  5
29B1
  8
SAPA_FOGBAND
 10
-88.636454549446967
 20
-20.368609005740719
 30
0.0
  0
VERTEX
  5
29B2
  8
SAPA_FOGBAND
 10
-88.568994640136566
 20
-20.116845196720298
 30
0.0
  0
VERTEX
  5
29B3
  8
SAPA_FOGBAND
 10
-87.842199720893404
 20
-20.116845196720298
 30
0.0
 42
-0.4142135623730951
  0
VERTEX
  5
29B4
  8
SAPA_FOGBAND
 10
-87.342199720893404
 20
-20.616845196720309
 30
0.0
  0
VERTEX
  5
29B5
  8
SAPA_FOGBAND
 10
-87.342199720893404
 20
-23.66684519672026
 30
0.0
 42
-0.4142135623730951
  0
VERTEX
  5
29B6
  8
SAPA_FOGBAND
 10
-87.542199720893436
 20
-23.866845196720298
 30
0.0
  0
VERTEX
  5
29B7
  8
SAPA_FOGBAND
 10
-88.442199720893427
 20
-23.866845196720188
 30
0.0
 42
0.4142135623731784
  0
VERTEX
  5
29B8
  8
SAPA_FOGBAND
 10
-88.642199720893345
 20
-24.066845196720241
 30
0.0
  0
VERTEX
  5
29B9
  8
SAPA_FOGBAND
 10
-88.642199720893473
 20
-24.76684519672029
 30
0.0
 42
0.4142135623730398
  0
VERTEX
  5
29BA
  8
SAPA_FOGBAND
 10
-88.342199720893404
 20
-25.066845196720241
 30
0.0
  0
VERTEX
  5
29BB
  8
SAPA_FOGBAND
 10
-87.531687944241867
 20
-25.066845196720241
 30
0.0
 42
-0.1316524975873973
  0
VERTEX
  5
29BC
  8
SAPA_FOGBAND
 10
-86.531687944241867
 20
-25.334794389151401
 30
0.0
  0
VERTEX
  5
29BD
  8
SAPA_FOGBAND
 10
-83.942119952149923
 20
-30.49763953919182
 30
0.0
 42
0.7057658529986604
  0
VERTEX
  5
29BE
  8
SAPA_FOGBAND
 10
-83.342199720893404
 20
-30.23004636383348
 30
0.0
  0
SEQEND
  5
29BF
  8
SAPA_FOGBAND
  0
POLYLINE
  5
18E9
  8
SAPA_FOGBAND
 66
     1
 10
0.0
 20
0.0
 30
0.0
 70
     1
  0
VERTEX
  5
29C0
  8
SAPA_FOGBAND
 10
-35.027569224245212
 20
-19.303393549382879
 30
0.0
 42
0.9999999999999998
  0
VERTEX
  5
29C1
  8
SAPA_FOGBAND
 10
-35.027569224245212
 20
-21.103393549382901
 30
0.0
  0
VERTEX
  5
29C2
  8
SAPA_FOGBAND
 10
-34.42756922424519
 20
-21.103393549382901
 30
0.0
 42
0.9999999999999998
  0
VERTEX
  5
29C3
  8
SAPA_FOGBAND
 10
-34.42756922424519
 20
-19.303393549382879
 30
0.0
  0
SEQEND
  5
29C4
  8
SAPA_FOGBAND
  0
POLYLINE
  5
18EA
  8
SAPA_FOGBAND
 66
     1
 10
0.0
 20
0.0
 30
0.0
  0
VERTEX
  5
29C5
  8
SAPA_FOGBAND
 10
-36.642199721884033
 20
-23.803393549382879
 30
0.0
  0
VERTEX
  5
29C6
  8
SAPA_FOGBAND
 10
-36.342199721883958
 20
-23.803393549382879
 30
0.0
  0
VERTEX
  5
29C7
  8
SAPA_FOGBAND
 10
-36.642199721884033
 20
-23.803393549382879
 30
0.0
 42
-0.4142135623730951
  0
VERTEX
  5
29C8
  8
SAPA_FOGBAND
 10
-37.142199721884033
 20
-23.303393549382879
 30
0.0
  0
VERTEX
  5
29C9
  8
SAPA_FOGBAND
 10
-37.142199721884033
 20
-16.003393549382931
 30
0.0
 42
-0.4142135623730951
  0
VERTEX
  5
29CA
  8
SAPA_FOGBAND
 10
-36.642199721884033
 20
-15.503393549382929
 30
0.0
  0
VERTEX
  5
29CB
  8
SAPA_FOGBAND
 10
-36.342199721883958
 20
-15.503393549382929
 30
0.0
  0
SEQEND
  5
29CC
  8
SAPA_FOGBAND
  0
POLYLINE
  5
18EB
  8
SAPA_FOGBAND
 66
     1
 10
0.0
 20
0.0
 30
0.0
 70
     1
  0
VERTEX
  5
29CD
  8
SAPA_FOGBAND
 10
-40.942199721883959
 20
-17.15167843967923
 30
0.0
  0
VERTEX
  5
29CE
  8
SAPA_FOGBAND
 10
-40.942199721883959
 20
-20.246322549005068
 30
0.0
 42
-1.024758115298622
  0
VERTEX
  5
29CF
  8
SAPA_FOGBAND
 10
-44.123731514669451
 20
-20.246322549005068
 30
0.0
  0
VERTEX
  5
29D0
  8
SAPA_FOGBAND
 10
-44.123731514669451
 20
-17.15167843967923
 30
0.0
 42
-0.9558128803175696
  0
SEQEND
  5
29D1
  8
SAPA_FOGBAND
  0
POLYLINE
  5
18EC
  8
SAPA_FOGBAND
 66
     1
 10
0.0
 20
0.0
 30
0.0
 70
     1
  0
VERTEX
  5
29D2
  8
SAPA_FOGBAND
 10
-42.77825384862961
 20
-7.920348100559937
 30
0.0
 42
0.6274939020253784
  0
VERTEX
  5
29D3
  8
SAPA_FOGBAND
 10
-44.33689834259134
 20
-7.9312729229930792
 30
0.0
  0
VERTEX
  5
29D4
  8
SAPA_FOGBAND
 10
-44.900641346514092
 20
-11.90713291635773
 30
0.0
 42
0.4459602482749359
  0
VERTEX
  5
29D5
  8
SAPA_FOGBAND
 10
-44.005803992281727
 20
-12.90339354938293
 30
0.0
  0
VERTEX
  5
29D6
  8
SAPA_FOGBAND
 10
-41.282492667417017
 20
-12.90339354938293
 30
0.0
 42
0.6245270939358744
  0
VERTEX
  5
29D7
  8
SAPA_FOGBAND
 10
-40.572737693606321
 20
-11.44999687686772
 30
0.0
  0
SEQEND
  5
29D8
  8
SAPA_FOGBAND
  0
POLYLINE
  5
18ED
  8
SAPA_FOGBAND
 66
     1
 10
0.0
 20
0.0
 30
0.0
 70
     1
  0
VERTEX
  5
29D9
  8
SAPA_FOGBAND
 10
-34.900774305002066
 20
-18.703393549382909
 30
0.0
  0
VERTEX
  5
29DA
  8
SAPA_FOGBAND
 10
-34.833314395691673
 20
-18.451629740362439
 30
0.0
 42
-0.4740571810232144
  0
VERTEX
  5
29DB
  8
SAPA_FOGBAND
 10
-34.551031810053018
 20
-18.324335877998831
 30
0.0
  0
VERTEX
  5
29DC
  8
SAPA_FOGBAND
 10
-33.104825673293142
 20
-18.944436380757409
 30
0.0
 42
-0.2846003776496053
  0
VERTEX
  5
29DD
  8
SAPA_FOGBAND
 10
-32.827569224245167
 20
-19.392080559217579
 30
0.0
  0
VERTEX
  5
29DE
  8
SAPA_FOGBAND
 10
-32.827569224245167
 20
-21.0147065395482
 30
0.0
 42
-0.2846003776496027
  0
VERTEX
  5
29DF
  8
SAPA_FOGBAND
 10
-33.104825673293142
 20
-21.462350718008359
 30
0.0
  0
VERTEX
  5
29E0
  8
SAPA_FOGBAND
 10
-34.551031810053082
 20
-22.082451220766949
 30
0.0
 42
-0.4740571810232332
  0
VERTEX
  5
29E1
  8
SAPA_FOGBAND
 10
-34.833314395691673
 20
-21.95515735840339
 30
0.0
  0
VERTEX
  5
29E2
  8
SAPA_FOGBAND
 10
-34.900774305002066
 20
-21.70339354938292
 30
0.0
  0
VERTEX
  5
29E3
  8
SAPA_FOGBAND
 10
-35.842199721883958
 20
-21.70339354938292
 30
0.0
 42
0.4142135623730951
  0
VERTEX
  5
29E4
  8
SAPA_FOGBAND
 10
-36.342199721883958
 20
-22.20339354938292
 30
0.0
  0
VERTEX
  5
29E5
  8
SAPA_FOGBAND
 10
-36.342199721884022
 20
-24.715553712764368
 30
0.0
 42
-0.4027293761437467
  0
VERTEX
  5
29E6
  8
SAPA_FOGBAND
 10
-36.630392359353323
 20
-25.015321266362228
 30
0.0
  0
VERTEX
  5
29E7
  8
SAPA_FOGBAND
 10
-46.030392359353357
 20
-25.50316108103166
 30
0.0
 42
-0.4257917699693538
  0
VERTEX
  5
29E8
  8
SAPA_FOGBAND
 10
-46.342199721884008
 20
-25.2033935274338
 30
0.0
  0
VERTEX
  5
29E9
  8
SAPA_FOGBAND
 10
-46.342199721884008
 20
-11.49785986820992
 30
0.0
  0
VERTEX
  5
29EA
  8
SAPA_FOGBAND
 10
-45.56566480420139
 20
-5.8947182704830503
 30
0.0
 42
-0.322530093016903
  0
VERTEX
  5
29EB
  8
SAPA_FOGBAND
 10
-44.571587499095408
 20
-5.2033935274337804
 30
0.0
  0
VERTEX
  5
29EC
  8
SAPA_FOGBAND
 10
-43.340843942657841
 20
-5.2033935274337804
 30
0.0
 42
-0.2325311832130604
  0
VERTEX
  5
29ED
  8
SAPA_FOGBAND
 10
-42.944903078576033
 20
-5.3980562841269988
 30
0.0
  0
VERTEX
  5
29EE
  8
SAPA_FOGBAND
 10
-36.550317993720512
 20
-14.564619512034501
 30
0.0
 42
-0.1657205760184606
  0
VERTEX
  5
29EF
  8
SAPA_FOGBAND
 10
-36.342199721883958
 20
-15.175293998648121
 30
0.0
  0
VERTEX
  5
29F0
  8
SAPA_FOGBAND
 10
-36.342199721883958
 20
-18.203393549382909
 30
0.0
 42
0.4142135623730951
  0
VERTEX
  5
29F1
  8
SAPA_FOGBAND
 10
-35.842199721883958
 20
-18.703393549382909
 30
0.0
  0
SEQEND
  5
29F2
  8
SAPA_FOGBAND
  0
CIRCLE
  5
18EE
  8
SAPA_FOGBAND
 10
-84.641571726353149
 20
18.679356795600249
 30
0.0
 40
0.2549509756796394
  0
INSERT
  5
18EF
  8
SAPA_FOGBAND
  6
CONTINUOUS
  2
*U164
 10
0.0
 20
0.0
 30
0.0
1001
ACAD
1002
{
1000
R14_HATCH_DATA
1000
18EF
1011
1.0
1021
0.0
1031
0.0
1021
0.0
1031
0.0
1011
0.0
1021
0.0
1031
0.0
1021
1.0
1031
0.0
1011
0.0
1021
0.0
1031
0.0
1021
0.0
1031
1.0
1040
0.0
1010
0.0
1020
0.0
1030
1.0
1000
SOLID
1070
     1
1070
     1
1071
        1
1071
        1
1071
        1
1070
     2
1040
-84.641571726353149
1040
18.679356795600249
1040
0.2549509756796394
1040
-1.5707963267948959
1040
4.7123889803846888
1070
     1
1071
        1
1005
18EE
1070
     0
1070
     1
1071
        1
1040
-84.559720229024265
1040
18.916095697170359
1040
0.0
1002
}
  0
POLYLINE
  5
18F0
  8
SAPA_FOGBAND
 66
     1
 10
0.0
 20
0.0
 30
0.0
 70
     1
  0
VERTEX
  5
2A04
  8
SAPA_FOGBAND
 10
-87.604003505597674
 20
17.779356795600279
 30
0.0
 42
0.9999999999999998
  0
VERTEX
  5
2A05
  8
SAPA_FOGBAND
 10
-87.604003505597674
 20
19.57935679560023
 30
0.0
  0
VERTEX
  5
2A06
  8
SAPA_FOGBAND
 10
-88.204003505597697
 20
19.57935679560023
 30
0.0
 42
0.9999999999999998
  0
VERTEX
  5
2A07
  8
SAPA_FOGBAND
 10
-88.204003505597697
 20
17.779356795600279
 30
0.0
  0
SEQEND
  5
2A08
  8
SAPA_FOGBAND
  0
POLYLINE
  5
18F1
  8
SAPA_FOGBAND
 66
     1
 10
0.0
 20
0.0
 30
0.0
 70
     1
  0
VERTEX
  5
2A09
  8
SAPA_FOGBAND
 10
-82.504003505597666
 20
27.307233103773459
 30
0.0
 42
0.0775891054856093
  0
VERTEX
  5
2A0A
  8
SAPA_FOGBAND
 10
-82.820639489659015
 20
23.840451373350898
 30
0.0
  0
VERTEX
  5
2A0B
  8
SAPA_FOGBAND
 10
-82.604003505597632
 20
23.602561880522099
 30
0.0
 42
-0.5773502691896298
  0
VERTEX
  5
2A0C
  8
SAPA_FOGBAND
 10
-82.604003505597632
 20
23.256151719008251
 30
0.0
  0
VERTEX
  5
2A0D
  8
SAPA_FOGBAND
 10
-82.820913359820679
 20
23.018104102277452
 30
0.0
  0
VERTEX
  5
2A0E
  8
SAPA_FOGBAND
 10
-82.820913359820679
 20
22.240609492360822
 30
0.0
  0
VERTEX
  5
2A0F
  8
SAPA_FOGBAND
 10
-82.604003505597632
 20
22.00256188052208
 30
0.0
 42
-0.577350269189699
  0
VERTEX
  5
2A10
  8
SAPA_FOGBAND
 10
-82.604003505597632
 20
21.656151719008331
 30
0.0
  0
VERTEX
  5
2A11
  8
SAPA_FOGBAND
 10
-82.820913359820679
 20
21.418104102277539
 30
0.0
  0
VERTEX
  5
2A12
  8
SAPA_FOGBAND
 10
-82.820913359820679
 20
20.640609492360792
 30
0.0
  0
VERTEX
  5
2A13
  8
SAPA_FOGBAND
 10
-82.604003505597632
 20
20.402561880522061
 30
0.0
 42
-0.577350269189699
  0
VERTEX
  5
2A14
  8
SAPA_FOGBAND
 10
-82.604003505597632
 20
20.056151719008309
 30
0.0
  0
VERTEX
  5
2A15
  8
SAPA_FOGBAND
 10
-82.820913359820679
 20
19.818104102277509
 30
0.0
  0
VERTEX
  5
2A16
  8
SAPA_FOGBAND
 10
-82.820913359820679
 20
19.040609492360769
 30
0.0
  0
VERTEX
  5
2A17
  8
SAPA_FOGBAND
 10
-82.604003505597632
 20
18.802561880522148
 30
0.0
 42
-0.5773502691896298
  0
VERTEX
  5
2A18
  8
SAPA_FOGBAND
 10
-82.604003505597632
 20
18.45615171900829
 30
0.0
  0
VERTEX
  5
2A19
  8
SAPA_FOGBAND
 10
-82.820913359820679
 20
18.21810410227749
 30
0.0
  0
VERTEX
  5
2A1A
  8
SAPA_FOGBAND
 10
-82.820913359820679
 20
17.44060949236075
 30
0.0
  0
VERTEX
  5
2A1B
  8
SAPA_FOGBAND
 10
-82.604003505597632
 20
17.202561880522119
 30
0.0
 42
-0.5773502691896298
  0
VERTEX
  5
2A1C
  8
SAPA_FOGBAND
 10
-82.604003505597632
 20
16.85615171900827
 30
0.0
  0
VERTEX
  5
2A1D
  8
SAPA_FOGBAND
 10
-82.820913359820679
 20
16.618104102277471
 30
0.0
  0
VERTEX
  5
2A1E
  8
SAPA_FOGBAND
 10
-82.820913359820679
 20
15.84060948819581
 30
0.0
  0
VERTEX
  5
2A1F
  8
SAPA_FOGBAND
 10
-82.604003505597632
 20
15.60256187635707
 30
0.0
 42
-0.577350269189699
  0
VERTEX
  5
2A20
  8
SAPA_FOGBAND
 10
-82.604003505597632
 20
15.25615171484332
 30
0.0
  0
VERTEX
  5
2A21
  8
SAPA_FOGBAND
 10
-83.677333574082127
 20
14.456151715288231
 30
0.0
 42
-0.1316524987190269
  0
VERTEX
  5
2A22
  8
SAPA_FOGBAND
 10
-83.777333574852832
 20
14.429356795600251
 30
0.0
  0
VERTEX
  5
2A23
  8
SAPA_FOGBAND
 10
-86.30400350559762
 20
14.429356795600141
 30
0.0
 42
-0.4142135623730951
  0
VERTEX
  5
2A24
  8
SAPA_FOGBAND
 10
-86.504003505597666
 20
14.629356795600181
 30
0.0
  0
VERTEX
  5
2A25
  8
SAPA_FOGBAND
 10
-86.504003505597666
 20
16.679356795600249
 30
0.0
 42
0.4142135623730951
  0
VERTEX
  5
2A26
  8
SAPA_FOGBAND
 10
-87.004003505597666
 20
17.179356795600249
 30
0.0
  0
VERTEX
  5
2A27
  8
SAPA_FOGBAND
 10
-87.730798424840827
 20
17.179356795600249
 30
0.0
  0
VERTEX
  5
2A28
  8
SAPA_FOGBAND
 10
-87.798258334151214
 20
16.927592986579722
 30
0.0
 42
-0.4740571810232869
  0
VERTEX
  5
2A29
  8
SAPA_FOGBAND
 10
-88.080540919789883
 20
16.80029912421616
 30
0.0
  0
VERTEX
  5
2A2A
  8
SAPA_FOGBAND
 10
-89.526747056549652
 20
17.420399626974699
 30
0.0
 42
-0.2846003776495916
  0
VERTEX
  5
2A2B
  8
SAPA_FOGBAND
 10
-89.80400350559762
 20
17.868043805434919
 30
0.0
  0
VERTEX
  5
2A2C
  8
SAPA_FOGBAND
 10
-89.80400350559762
 20
19.490669785765469
 30
0.0
 42
-0.2846003776495917
  0
VERTEX
  5
2A2D
  8
SAPA_FOGBAND
 10
-89.526747056549652
 20
19.938313964225699
 30
0.0
  0
VERTEX
  5
2A2E
  8
SAPA_FOGBAND
 10
-88.080540919789883
 20
20.558414466984232
 30
0.0
 42
-0.4740571810232869
  0
VERTEX
  5
2A2F
  8
SAPA_FOGBAND
 10
-87.798258334151214
 20
20.431120604620681
 30
0.0
  0
VERTEX
  5
2A30
  8
SAPA_FOGBAND
 10
-87.730798424840827
 20
20.17935679560026
 30
0.0
  0
VERTEX
  5
2A31
  8
SAPA_FOGBAND
 10
-87.004003505597666
 20
20.17935679560026
 30
0.0
 42
0.4142135623730951
  0
VERTEX
  5
2A32
  8
SAPA_FOGBAND
 10
-86.504003505597666
 20
20.67935679560026
 30
0.0
  0
VERTEX
  5
2A33
  8
SAPA_FOGBAND
 10
-86.504003505597666
 20
23.729356795600211
 30
0.0
 42
0.4142135623730951
  0
VERTEX
  5
2A34
  8
SAPA_FOGBAND
 10
-86.704003505597726
 20
23.92935679560026
 30
0.0
  0
VERTEX
  5
2A35
  8
SAPA_FOGBAND
 10
-87.604003505597674
 20
23.929356795600139
 30
0.0
 42
-0.4142135623731784
  0
VERTEX
  5
2A36
  8
SAPA_FOGBAND
 10
-87.80400350559762
 20
24.129356795600192
 30
0.0
  0
VERTEX
  5
2A37
  8
SAPA_FOGBAND
 10
-87.804003505597734
 20
24.829356795600241
 30
0.0
 42
-0.4142135623730398
  0
VERTEX
  5
2A38
  8
SAPA_FOGBAND
 10
-87.504003505597666
 20
25.129356795600192
 30
0.0
  0
VERTEX
  5
2A39
  8
SAPA_FOGBAND
 10
-86.693491728946114
 20
25.129356795600192
 30
0.0
 42
0.1316524975873973
  0
VERTEX
  5
2A3A
  8
SAPA_FOGBAND
 10
-85.693491728946128
 20
25.397305988031349
 30
0.0
  0
VERTEX
  5
2A3B
  8
SAPA_FOGBAND
 10
-83.103923736854199
 20
30.56015113807177
 30
0.0
 42
-0.7057658529986604
  0
VERTEX
  5
2A3C
  8
SAPA_FOGBAND
 10
-82.504003505597666
 20
30.292557962713431
 30
0.0
  0
SEQEND
  5
2A3D
  8
SAPA_FOGBAND
  0
POLYLINE
  5
18F2
  8
SAPA_FOGBAND
 10
-71.635728587052412
 20
15.203568545938344
 30
0.0
 66
     1
 70
     8
  0
VERTEX
  8
SAPA_FOGBAND
  5
2B06
 10
-71.6357
 20
15.2036
 30
0.000000
  70
    32
  0
VERTEX
  8
SAPA_FOGBAND
  5
2B07
 10
-71.7298
 20
15.2081
 30
0.000000
  70
    32
  0
VERTEX
  8
SAPA_FOGBAND
  5
2B08
 10
-71.8236
 20
15.2215
 30
0.000000
  70
    32
  0
VERTEX
  8
SAPA_FOGBAND
  5
2B09
 10
-71.9170
 20
15.2440
 30
0.000000
  70
    32
  0
VERTEX
  8
SAPA_FOGBAND
  5
2B0A
 10
-72.0097
 20
15.2753
 30
0.000000
  70
    32
  0
VERTEX
  8
SAPA_FOGBAND
  5
2B0B
 10
-72.1014
 20
15.3154
 30
0.000000
  70
    32
  0
VERTEX
  8
SAPA_FOGBAND
  5
2B0C
 10
-72.1921
 20
15.3642
 30
0.000000
  70
    32
  0
VERTEX
  8
SAPA_FOGBAND
  5
2B0D
 10
-72.2814
 20
15.4217
 30
0.000000
  70
    32
  0
VERTEX
  8
SAPA_FOGBAND
  5
2B0E
 10
-72.3692
 20
15.4876
 30
0.000000
  70
    32
  0
VERTEX
  8
SAPA_FOGBAND
  5
2B0F
 10
-72.4552
 20
15.5618
 30
0.000000
  70
    32
  0
VERTEX
  8
SAPA_FOGBAND
  5
2B10
 10
-72.5392
 20
15.6442
 30
0.000000
  70
    32
  0
VERTEX
  8
SAPA_FOGBAND
  5
2B11
 10
-72.6211
 20
15.7344
 30
0.000000
  70
    32
  0
VERTEX
  8
SAPA_FOGBAND
  5
2B12
 10
-72.7006
 20
15.8324
 30
0.000000
  70
    32
  0
VERTEX
  8
SAPA_FOGBAND
  5
2B13
 10
-72.7775
 20
15.9379
 30
0.000000
  70
    32
  0
VERTEX
  8
SAPA_FOGBAND
  5
2B14
 10
-72.8517
 20
16.0505
 30
0.000000
  70
    32
  0
VERTEX
  8
SAPA_FOGBAND
  5
2B15
 10
-72.9229
 20
16.1702
 30
0.000000
  70
    32
  0
VERTEX
  8
SAPA_FOGBAND
  5
2B16
 10
-72.9910
 20
16.2964
 30
0.000000
  70
    32
  0
VERTEX
  8
SAPA_FOGBAND
  5
2B17
 10
-73.0559
 20
16.4291
 30
0.000000
  70
    32
  0
VERTEX
  8
SAPA_FOGBAND
  5
2B18
 10
-73.1173
 20
16.5678
 30
0.000000
  70
    32
  0
VERTEX
  8
SAPA_FOGBAND
  5
2B19
 10
-73.1752
 20
16.7121
 30
0.000000
  70
    32
  0
VERTEX
  8
SAPA_FOGBAND
  5
2B1A
 10
-73.2294
 20
16.8619
 30
0.000000
  70
    32
  0
VERTEX
  8
SAPA_FOGBAND
  5
2B1B
 10
-73.2797
 20
17.0166
 30
0.000000
  70
    32
  0
VERTEX
  8
SAPA_FOGBAND
  5
2B1C
 10
-73.3261
 20
17.1760
 30
0.000000
  70
    32
  0
VERTEX
  8
SAPA_FOGBAND
  5
2B1D
 10
-73.3684
 20
17.3395
 30
0.000000
  70
    32
  0
VERTEX
  8
SAPA_FOGBAND
  5
2B1E
 10
-73.4065
 20
17.5070
 30
0.000000
  70
    32
  0
VERTEX
  8
SAPA_FOGBAND
  5
2B1F
 10
-73.4404
 20
17.6778
 30
0.000000
  70
    32
  0
VERTEX
  8
SAPA_FOGBAND
  5
2B20
 10
-73.4699
 20
17.8517
 30
0.000000
  70
    32
  0
VERTEX
  8
SAPA_FOGBAND
  5
2B21
 10
-73.4950
 20
18.0282
 30
0.000000
  70
    32
  0
VERTEX
  8
SAPA_FOGBAND
  5
2B22
 10
-73.5156
 20
18.2069
 30
0.000000
  70
    32
  0
VERTEX
  8
SAPA_FOGBAND
  5
2B23
 10
-73.5317
 20
18.3874
 30
0.000000
  70
    32
  0
VERTEX
  8
SAPA_FOGBAND
  5
2B24
 10
-73.5432
 20
18.5692
 30
0.000000
  70
    32
  0
VERTEX
  8
SAPA_FOGBAND
  5
2B25
 10
-73.5501
 20
18.7518
 30
0.000000
  70
    32
  0
VERTEX
  8
SAPA_FOGBAND
  5
2B26
 10
-73.5524
 20
18.9349
 30
0.000000
  70
    32
  0
VERTEX
  8
SAPA_FOGBAND
  5
2B27
 10
-73.5501
 20
19.1180
 30
0.000000
  70
    32
  0
VERTEX
  8
SAPA_FOGBAND
  5
2B28
 10
-73.5432
 20
19.3006
 30
0.000000
  70
    32
  0
VERTEX
  8
SAPA_FOGBAND
  5
2B29
 10
-73.5317
 20
19.4824
 30
0.000000
  70
    32
  0
VERTEX
  8
SAPA_FOGBAND
  5
2B2A
 10
-73.5156
 20
19.6628
 30
0.000000
  70
    32
  0
VERTEX
  8
SAPA_FOGBAND
  5
2B2B
 10
-73.4950
 20
19.8415
 30
0.000000
  70
    32
  0
VERTEX
  8
SAPA_FOGBAND
  5
2B2C
 10
-73.4699
 20
20.0180
 30
0.000000
  70
    32
  0
VERTEX
  8
SAPA_FOGBAND
  5
2B2D
 10
-73.4404
 20
20.1919
 30
0.000000
  70
    32
  0
VERTEX
  8
SAPA_FOGBAND
  5
2B2E
 10
-73.4065
 20
20.3628
 30
0.000000
  70
    32
  0
VERTEX
  8
SAPA_FOGBAND
  5
2B2F
 10
-73.3684
 20
20.5302
 30
0.000000
  70
    32
  0
VERTEX
  8
SAPA_FOGBAND
  5
2B30
 10
-73.3261
 20
20.6938
 30
0.000000
  70
    32
  0
VERTEX
  8
SAPA_FOGBAND
  5
2B31
 10
-73.2797
 20
20.8532
 30
0.000000
  70
    32
  0
VERTEX
  8
SAPA_FOGBAND
  5
2B32
 10
-73.2294
 20
21.0079
 30
0.000000
  70
    32
  0
VERTEX
  8
SAPA_FOGBAND
  5
2B33
 10
-73.1752
 20
21.1576
 30
0.000000
  70
    32
  0
VERTEX
  8
SAPA_FOGBAND
  5
2B34
 10
-73.1173
 20
21.3020
 30
0.000000
  70
    32
  0
VERTEX
  8
SAPA_FOGBAND
  5
2B35
 10
-73.0559
 20
21.4407
 30
0.000000
  70
    32
  0
VERTEX
  8
SAPA_FOGBAND
  5
2B36
 10
-72.9910
 20
21.5733
 30
0.000000
  70
    32
  0
VERTEX
  8
SAPA_FOGBAND
  5
2B37
 10
-72.9229
 20
21.6996
 30
0.000000
  70
    32
  0
VERTEX
  8
SAPA_FOGBAND
  5
2B38
 10
-72.8517
 20
21.8192
 30
0.000000
  70
    32
  0
VERTEX
  8
SAPA_FOGBAND
  5
2B39
 10
-72.7775
 20
21.9319
 30
0.000000
  70
    32
  0
VERTEX
  8
SAPA_FOGBAND
  5
2B3A
 10
-72.7006
 20
22.0374
 30
0.000000
  70
    32
  0
VERTEX
  8
SAPA_FOGBAND
  5
2B3B
 10
-72.6211
 20
22.1353
 30
0.000000
  70
    32
  0
VERTEX
  8
SAPA_FOGBAND
  5
2B3C
 10
-72.5392
 20
22.2256
 30
0.000000
  70
    32
  0
VERTEX
  8
SAPA_FOGBAND
  5
2B3D
 10
-72.4552
 20
22.3080
 30
0.000000
  70
    32
  0
VERTEX
  8
SAPA_FOGBAND
  5
2B3E
 10
-72.3692
 20
22.3822
 30
0.000000
  70
    32
  0
VERTEX
  8
SAPA_FOGBAND
  5
2B3F
 10
-72.2814
 20
22.4481
 30
0.000000
  70
    32
  0
VERTEX
  8
SAPA_FOGBAND
  5
2B40
 10
-72.1921
 20
22.5055
 30
0.000000
  70
    32
  0
VERTEX
  8
SAPA_FOGBAND
  5
2B41
 10
-72.1014
 20
22.5544
 30
0.000000
  70
    32
  0
VERTEX
  8
SAPA_FOGBAND
  5
2B42
 10
-72.0097
 20
22.5945
 30
0.000000
  70
    32
  0
VERTEX
  8
SAPA_FOGBAND
  5
2B43
 10
-71.9170
 20
22.6258
 30
0.000000
  70
    32
  0
VERTEX
  8
SAPA_FOGBAND
  5
2B44
 10
-71.8236
 20
22.6482
 30
0.000000
  70
    32
  0
VERTEX
  8
SAPA_FOGBAND
  5
2B45
 10
-71.7298
 20
22.6617
 30
0.000000
  70
    32
  0
VERTEX
  8
SAPA_FOGBAND
  5
2B46
 10
-71.6357
 20
22.6662
 30
0.000000
  70
    32
  0
VERTEX
  8
SAPA_FOGBAND
  5
2B47
 10
-71.5417
 20
22.6617
 30
0.000000
  70
    32
  0
VERTEX
  8
SAPA_FOGBAND
  5
2B48
 10
-71.4479
 20
22.6482
 30
0.000000
  70
    32
  0
VERTEX
  8
SAPA_FOGBAND
  5
2B49
 10
-71.3545
 20
22.6258
 30
0.000000
  70
    32
  0
VERTEX
  8
SAPA_FOGBAND
  5
2B4A
 10
-71.2618
 20
22.5945
 30
0.000000
  70
    32
  0
VERTEX
  8
SAPA_FOGBAND
  5
2B4B
 10
-71.1700
 20
22.5544
 30
0.000000
  70
    32
  0
VERTEX
  8
SAPA_FOGBAND
  5
2B4C
 10
-71.0793
 20
22.5055
 30
0.000000
  70
    32
  0
VERTEX
  8
SAPA_FOGBAND
  5
2B4D
 10
-70.9900
 20
22.4481
 30
0.000000
  70
    32
  0
VERTEX
  8
SAPA_FOGBAND
  5
2B4E
 10
-70.9022
 20
22.3822
 30
0.000000
  70
    32
  0
VERTEX
  8
SAPA_FOGBAND
  5
2B4F
 10
-70.8162
 20
22.3080
 30
0.000000
  70
    32
  0
VERTEX
  8
SAPA_FOGBAND
  5
2B50
 10
-70.7322
 20
22.2256
 30
0.000000
  70
    32
  0
VERTEX
  8
SAPA_FOGBAND
  5
2B51
 10
-70.6504
 20
22.1353
 30
0.000000
  70
    32
  0
VERTEX
  8
SAPA_FOGBAND
  5
2B52
 10
-70.5709
 20
22.0374
 30
0.000000
  70
    32
  0
VERTEX
  8
SAPA_FOGBAND
  5
2B53
 10
-70.4940
 20
21.9319
 30
0.000000
  70
    32
  0
VERTEX
  8
SAPA_FOGBAND
  5
2B54
 10
-70.4198
 20
21.8192
 30
0.000000
  70
    32
  0
VERTEX
  8
SAPA_FOGBAND
  5
2B55
 10
-70.3486
 20
21.6996
 30
0.000000
  70
    32
  0
VERTEX
  8
SAPA_FOGBAND
  5
2B56
 10
-70.2804
 20
21.5733
 30
0.000000
  70
    32
  0
VERTEX
  8
SAPA_FOGBAND
  5
2B57
 10
-70.2156
 20
21.4407
 30
0.000000
  70
    32
  0
VERTEX
  8
SAPA_FOGBAND
  5
2B58
 10
-70.1541
 20
21.3020
 30
0.000000
  70
    32
  0
VERTEX
  8
SAPA_FOGBAND
  5
2B59
 10
-70.0962
 20
21.1576
 30
0.000000
  70
    32
  0
VERTEX
  8
SAPA_FOGBAND
  5
2B5A
 10
-70.0421
 20
21.0079
 30
0.000000
  70
    32
  0
VERTEX
  8
SAPA_FOGBAND
  5
2B5B
 10
-69.9917
 20
20.8532
 30
0.000000
  70
    32
  0
VERTEX
  8
SAPA_FOGBAND
  5
2B5C
 10
-69.9454
 20
20.6938
 30
0.000000
  70
    32
  0
VERTEX
  8
SAPA_FOGBAND
  5
2B5D
 10
-69.9031
 20
20.5302
 30
0.000000
  70
    32
  0
VERTEX
  8
SAPA_FOGBAND
  5
2B5E
 10
-69.8649
 20
20.3628
 30
0.000000
  70
    32
  0
VERTEX
  8
SAPA_FOGBAND
  5
2B5F
 10
-69.8311
 20
20.1919
 30
0.000000
  70
    32
  0
VERTEX
  8
SAPA_FOGBAND
  5
2B60
 10
-69.8016
 20
20.0180
 30
0.000000
  70
    32
  0
VERTEX
  8
SAPA_FOGBAND
  5
2B61
 10
-69.7765
 20
19.8415
 30
0.000000
  70
    32
  0
VERTEX
  8
SAPA_FOGBAND
  5
2B62
 10
-69.7559
 20
19.6628
 30
0.000000
  70
    32
  0
VERTEX
  8
SAPA_FOGBAND
  5
2B63
 10
-69.7398
 20
19.4824
 30
0.000000
  70
    32
  0
VERTEX
  8
SAPA_FOGBAND
  5
2B64
 10
-69.7283
 20
19.3006
 30
0.000000
  70
    32
  0
VERTEX
  8
SAPA_FOGBAND
  5
2B65
 10
-69.7213
 20
19.1180
 30
0.000000
  70
    32
  0
VERTEX
  8
SAPA_FOGBAND
  5
2B66
 10
-69.7190
 20
18.9349
 30
0.000000
  70
    32
  0
VERTEX
  8
SAPA_FOGBAND
  5
2B67
 10
-69.7213
 20
18.7518
 30
0.000000
  70
    32
  0
VERTEX
  8
SAPA_FOGBAND
  5
2B68
 10
-69.7283
 20
18.5692
 30
0.000000
  70
    32
  0
VERTEX
  8
SAPA_FOGBAND
  5
2B69
 10
-69.7398
 20
18.3874
 30
0.000000
  70
    32
  0
VERTEX
  8
SAPA_FOGBAND
  5
2B6A
 10
-69.7559
 20
18.2069
 30
0.000000
  70
    32
  0
VERTEX
  8
SAPA_FOGBAND
  5
2B6B
 10
-69.7765
 20
18.0282
 30
0.000000
  70
    32
  0
VERTEX
  8
SAPA_FOGBAND
  5
2B6C
 10
-69.8016
 20
17.8517
 30
0.000000
  70
    32
  0
VERTEX
  8
SAPA_FOGBAND
  5
2B6D
 10
-69.8311
 20
17.6778
 30
0.000000
  70
    32
  0
VERTEX
  8
SAPA_FOGBAND
  5
2B6E
 10
-69.8649
 20
17.5070
 30
0.000000
  70
    32
  0
VERTEX
  8
SAPA_FOGBAND
  5
2B6F
 10
-69.9031
 20
17.3395
 30
0.000000
  70
    32
  0
VERTEX
  8
SAPA_FOGBAND
  5
2B70
 10
-69.9454
 20
17.1760
 30
0.000000
  70
    32
  0
VERTEX
  8
SAPA_FOGBAND
  5
2B71
 10
-69.9917
 20
17.0166
 30
0.000000
  70
    32
  0
VERTEX
  8
SAPA_FOGBAND
  5
2B72
 10
-70.0421
 20
16.8619
 30
0.000000
  70
    32
  0
VERTEX
  8
SAPA_FOGBAND
  5
2B73
 10
-70.0962
 20
16.7121
 30
0.000000
  70
    32
  0
VERTEX
  8
SAPA_FOGBAND
  5
2B74
 10
-70.1541
 20
16.5678
 30
0.000000
  70
    32
  0
VERTEX
  8
SAPA_FOGBAND
  5
2B75
 10
-70.2156
 20
16.4291
 30
0.000000
  70
    32
  0
VERTEX
  8
SAPA_FOGBAND
  5
2B76
 10
-70.2804
 20
16.2964
 30
0.000000
  70
    32
  0
VERTEX
  8
SAPA_FOGBAND
  5
2B77
 10
-70.3486
 20
16.1702
 30
0.000000
  70
    32
  0
VERTEX
  8
SAPA_FOGBAND
  5
2B78
 10
-70.4198
 20
16.0505
 30
0.000000
  70
    32
  0
VERTEX
  8
SAPA_FOGBAND
  5
2B79
 10
-70.4940
 20
15.9379
 30
0.000000
  70
    32
  0
VERTEX
  8
SAPA_FOGBAND
  5
2B7A
 10
-70.5709
 20
15.8324
 30
0.000000
  70
    32
  0
VERTEX
  8
SAPA_FOGBAND
  5
2B7B
 10
-70.6504
 20
15.7344
 30
0.000000
  70
    32
  0
VERTEX
  8
SAPA_FOGBAND
  5
2B7C
 10
-70.7322
 20
15.6442
 30
0.000000
  70
    32
  0
VERTEX
  8
SAPA_FOGBAND
  5
2B7D
 10
-70.8162
 20
15.5618
 30
0.000000
  70
    32
  0
VERTEX
  8
SAPA_FOGBAND
  5
2B7E
 10
-70.9022
 20
15.4876
 30
0.000000
  70
    32
  0
VERTEX
  8
SAPA_FOGBAND
  5
2B7F
 10
-70.9900
 20
15.4217
 30
0.000000
  70
    32
  0
VERTEX
  8
SAPA_FOGBAND
  5
2B80
 10
-71.0793
 20
15.3642
 30
0.000000
  70
    32
  0
VERTEX
  8
SAPA_FOGBAND
  5
2B81
 10
-71.1700
 20
15.3154
 30
0.000000
  70
    32
  0
VERTEX
  8
SAPA_FOGBAND
  5
2B82
 10
-71.2618
 20
15.2753
 30
0.000000
  70
    32
  0
VERTEX
  8
SAPA_FOGBAND
  5
2B83
 10
-71.3545
 20
15.2440
 30
0.000000
  70
    32
  0
VERTEX
  8
SAPA_FOGBAND
  5
2B84
 10
-71.4479
 20
15.2215
 30
0.000000
  70
    32
  0
VERTEX
  8
SAPA_FOGBAND
  5
2B85
 10
-71.5417
 20
15.2081
 30
0.000000
  70
    32
  0
VERTEX
  8
SAPA_FOGBAND
  5
2B86
 10
-71.6357
 20
15.2036
 30
0.000000
  70
    32
  0
SEQEND
  8
SAPA_FOGBAND
  5
2B87
  0
POLYLINE
  5
18F3
  8
SAPA_FOGBAND
 66
     1
 10
0.0
 20
0.0
 30
0.0
  0
VERTEX
  5
2A3E
  8
SAPA_FOGBAND
 10
-64.491421355248264
 20
23.809252980877531
 30
0.0
  0
VERTEX
  5
2A3F
  8
SAPA_FOGBAND
 10
-64.191421355248323
 20
23.809252980877531
 30
0.0
  0
VERTEX
  5
2A40
  8
SAPA_FOGBAND
 10
-64.491421355248264
 20
23.809252980877531
 30
0.0
 42
0.4142135623730951
  0
VERTEX
  5
2A41
  8
SAPA_FOGBAND
 10
-64.991421355248264
 20
23.30925298087752
 30
0.0
  0
VERTEX
  5
2A42
  8
SAPA_FOGBAND
 10
-64.991421355248335
 20
16.009252980877569
 30
0.0
 42
0.4142135623730951
  0
VERTEX
  5
2A43
  8
SAPA_FOGBAND
 10
-64.491421355248335
 20
15.509252980877569
 30
0.0
  0
VERTEX
  5
2A44
  8
SAPA_FOGBAND
 10
-64.191421355248323
 20
15.509252980877569
 30
0.0
  0
SEQEND
  5
2A45
  8
SAPA_FOGBAND
  0
POLYLINE
  5
18F4
  8
SAPA_FOGBAND
 66
     1
 10
0.0
 20
0.0
 30
0.0
 70
     1
  0
VERTEX
  5
2A46
  8
SAPA_FOGBAND
 10
-62.276790857609548
 20
21.109252980877532
 30
0.0
  0
VERTEX
  5
2A47
  8
SAPA_FOGBAND
 10
-62.876790857609521
 20
21.109252980877532
 30
0.0
 42
0.9999999999999998
  0
VERTEX
  5
2A48
  8
SAPA_FOGBAND
 10
-62.876790857609521
 20
19.309252980877581
 30
0.0
  0
VERTEX
  5
2A49
  8
SAPA_FOGBAND
 10
-62.276790857609548
 20
19.30925298087752
 30
0.0
 42
0.9999999999999998
  0
SEQEND
  5
2A4A
  8
SAPA_FOGBAND
  0
POLYLINE
  5
18F5
  8
SAPA_FOGBAND
 66
     1
 10
0.0
 20
0.0
 30
0.0
 70
     1
  0
VERTEX
  5
2A4B
  8
SAPA_FOGBAND
 10
-69.686637672611468
 20
10.84653611789904
 30
0.0
 42
0.646356061736289
  0
VERTEX
  5
2A4C
  8
SAPA_FOGBAND
 10
-70.435507727777164
 20
12.509252980877569
 30
0.0
  0
VERTEX
  5
2A4D
  8
SAPA_FOGBAND
 10
-73.914480339237215
 20
12.509252980877569
 30
0.0
 42
0.4879283649264857
  0
VERTEX
  5
2A4E
  8
SAPA_FOGBAND
 10
-74.884622839382587
 20
11.26671735584123
 30
0.0
  0
VERTEX
  5
2A4F
  8
SAPA_FOGBAND
 10
-74.165173485297643
 20
8.3889199395014646
 30
0.0
 42
0.3441507314089108
  0
VERTEX
  5
2A50
  8
SAPA_FOGBAND
 10
-73.195030985152314
 20
7.6314555645377959
 30
0.0
  0
VERTEX
  5
2A51
  8
SAPA_FOGBAND
 10
-72.982231105069019
 20
7.6314555645377951
 30
0.0
 42
0.214804042991016
  0
VERTEX
  5
2A52
  8
SAPA_FOGBAND
 10
-72.233361049903294
 20
7.9687387015592783
 30
0.0
  0
SEQEND
  5
2A53
  8
SAPA_FOGBAND
  0
POLYLINE
  5
18F6
  8
SAPA_FOGBAND
 66
     1
 10
0.0
 20
0.0
 30
0.0
 70
     1
  0
VERTEX
  5
2A54
  8
SAPA_FOGBAND
 10
-64.191421355248323
 20
18.209252980877562
 30
0.0
 42
-0.4142135623730951
  0
VERTEX
  5
2A55
  8
SAPA_FOGBAND
 10
-63.691421355248323
 20
18.709252980877562
 30
0.0
  0
VERTEX
  5
2A56
  8
SAPA_FOGBAND
 10
-62.749995938366439
 20
18.709252980877562
 30
0.0
  0
VERTEX
  5
2A57
  8
SAPA_FOGBAND
 10
-62.682536029055981
 20
18.45748917185708
 30
0.0
 42
0.474057181023226
  0
VERTEX
  5
2A58
  8
SAPA_FOGBAND
 10
-62.400253443417377
 20
18.330195309493469
 30
0.0
  0
VERTEX
  5
2A59
  8
SAPA_FOGBAND
 10
-60.9540473066575
 20
18.950295812252111
 30
0.0
 42
0.2846003776496053
  0
VERTEX
  5
2A5A
  8
SAPA_FOGBAND
 10
-60.676790857609532
 20
19.397939990712221
 30
0.0
  0
VERTEX
  5
2A5B
  8
SAPA_FOGBAND
 10
-60.676790857609532
 20
21.020565971042831
 30
0.0
 42
0.2846003776496055
  0
VERTEX
  5
2A5C
  8
SAPA_FOGBAND
 10
-60.9540473066575
 20
21.468210149503001
 30
0.0
  0
VERTEX
  5
2A5D
  8
SAPA_FOGBAND
 10
-62.400253443417327
 20
22.08831065226159
 30
0.0
 42
0.474057181023226
  0
VERTEX
  5
2A5E
  8
SAPA_FOGBAND
 10
-62.682536029055981
 20
21.961016789898029
 30
0.0
  0
VERTEX
  5
2A5F
  8
SAPA_FOGBAND
 10
-62.749995938366439
 20
21.709252980877562
 30
0.0
  0
VERTEX
  5
2A60
  8
SAPA_FOGBAND
 10
-63.691421355248323
 20
21.709252980877562
 30
0.0
 42
-0.4142135623730951
  0
VERTEX
  5
2A61
  8
SAPA_FOGBAND
 10
-64.191421355248323
 20
22.209252980877562
 30
0.0
  0
VERTEX
  5
2A62
  8
SAPA_FOGBAND
 10
-64.191421355248266
 20
24.72141314425901
 30
0.0
 42
0.4052499559557504
  0
VERTEX
  5
2A63
  8
SAPA_FOGBAND
 10
-64.482212694375605
 20
25.021271778560141
 30
0.0
  0
VERTEX
  5
2A64
  8
SAPA_FOGBAND
 10
-75.88221269437561
 20
25.509111593229569
 30
0.0
 42
0.4232343445545565
  0
VERTEX
  5
2A65
  8
SAPA_FOGBAND
 10
-76.191421355248295
 20
25.209252958928442
 30
0.0
  0
VERTEX
  5
2A66
  8
SAPA_FOGBAND
 10
-76.191421355248295
 20
11.5708057936864
 30
0.0
 42
0.0613213552369726
  0
VERTEX
  5
2A67
  8
SAPA_FOGBAND
 10
-76.176492605320973
 20
11.449537981168231
 30
0.0
  0
VERTEX
  5
2A68
  8
SAPA_FOGBAND
 10
-75.10578744898919
 20
5.9667173558412312
 30
0.0
 42
0.3441507314089092
  0
VERTEX
  5
2A69
  8
SAPA_FOGBAND
 10
-74.135644948843861
 20
5.2092529808775696
 30
0.0
  0
VERTEX
  5
2A6A
  8
SAPA_FOGBAND
 10
-72.897560780315644
 20
5.2092529808775678
 30
0.0
 42
0.2148040429910146
  0
VERTEX
  5
2A6B
  8
SAPA_FOGBAND
 10
-72.523125752732795
 20
5.3778945493883059
 30
0.0
  0
VERTEX
  5
2A6C
  8
SAPA_FOGBAND
 10
-64.44255130008257
 20
14.50894368088294
 30
0.0
 42
0.1831167524995932
  0
VERTEX
  5
2A6D
  8
SAPA_FOGBAND
 10
-64.191421355248323
 20
15.171660543861471
 30
0.0
  0
SEQEND
  5
2A6E
  8
SAPA_FOGBAND
  0
POLYLINE
  5
18F7
  8
SAPA_FOGBAND
 66
     1
 10
0.0
 20
0.0
 30
0.0
 70
     1
  0
VERTEX
  5
2A6F
  8
SAPA_FOGBAND
 10
2.2185742250035152
 20
-28.499999995341572
 30
0.0
  0
VERTEX
  5
2A70
  8
SAPA_FOGBAND
 10
-0.6147447394162163
 20
-28.499999995341572
 30
0.0
 42
-0.577350269189628
  0
VERTEX
  5
2A71
  8
SAPA_FOGBAND
 10
-0.8745523605516671
 20
-28.049999995341519
 30
0.0
  0
VERTEX
  5
2A72
  8
SAPA_FOGBAND
 10
1.267161849933353
 20
-25.39365049849755
 30
0.0
 42
0.8769764629927237
  0
VERTEX
  5
2A73
  8
SAPA_FOGBAND
 10
0.7952221944420844
 20
-25.031518464141641
 30
0.0
  0
VERTEX
  5
2A74
  8
SAPA_FOGBAND
 10
-3.174591314535979
 20
-28.207106776528011
 30
0.0
 42
-0.1989123673796493
  0
VERTEX
  5
2A75
  8
SAPA_FOGBAND
 10
-3.881698095722419
 20
-28.499999995341572
 30
0.0
  0
VERTEX
  5
2A76
  8
SAPA_FOGBAND
 10
-5.6326542251569043
 20
-28.499999995341572
 30
0.0
 42
-0.577350269189628
  0
VERTEX
  5
2A77
  8
SAPA_FOGBAND
 10
-5.892461846292127
 20
-28.049999995341519
 30
0.0
  0
VERTEX
  5
2A78
  8
SAPA_FOGBAND
 10
-3.8114137948121019
 20
-25.394519251677941
 30
0.0
 42
0.8769764629928424
  0
VERTEX
  5
2A79
  8
SAPA_FOGBAND
 10
-4.2833534503033706
 20
-25.032387217322022
 30
0.0
  0
VERTEX
  5
2A7A
  8
SAPA_FOGBAND
 10
-8.7493065020796692
 20
-29.282961423841929
 30
0.0
 42
0.1989123673796579
  0
VERTEX
  5
2A7B
  8
SAPA_FOGBAND
 10
-9.0421997208930023
 20
-29.990068205028361
 30
0.0
  0
VERTEX
  5
2A7C
  8
SAPA_FOGBAND
 10
-9.0421997208930023
 20
-29.999999995341572
 30
0.0
 42
0.4142135623730951
  0
VERTEX
  5
2A7D
  8
SAPA_FOGBAND
 10
-8.0421997208930023
 20
-30.999999995341572
 30
0.0
  0
VERTEX
  5
2A7E
  8
SAPA_FOGBAND
 10
-0.807207220125754
 20
-32.164084594465074
 30
0.0
 42
0.6261632875160376
  0
VERTEX
  5
2A7F
  8
SAPA_FOGBAND
 10
-0.49735029160707
 20
-31.72211779103873
 30
0.0
  0
VERTEX
  5
2A80
  8
SAPA_FOGBAND
 10
-0.6509882863958935
 20
-31.445776145052609
 30
0.0
 42
-0.5719685712689121
  0
VERTEX
  5
2A81
  8
SAPA_FOGBAND
 10
-0.3887873821725021
 20
-30.999999995341678
 30
0.0
  0
VERTEX
  5
2A82
  8
SAPA_FOGBAND
 10
2.3578002791068609
 20
-30.999999995341572
 30
0.0
 42
-0.4142135623730118
  0
VERTEX
  5
2A83
  8
SAPA_FOGBAND
 10
2.6578002791070432
 20
-31.299999995341519
 30
0.0
  0
VERTEX
  5
2A84
  8
SAPA_FOGBAND
 10
2.6578002791068149
 20
-32.699999995341607
 30
0.0
 42
0.7754026414785753
  0
VERTEX
  5
2A85
  8
SAPA_FOGBAND
 10
3.2205922745147211
 20
-32.8447078636475
 30
0.0
  0
VERTEX
  5
2A86
  8
SAPA_FOGBAND
 10
7.3742259471786102
 20
-25.384550964556531
 30
0.0
 42
0.8680589103333867
  0
VERTEX
  5
2A87
  8
SAPA_FOGBAND
 10
6.8993019174148396
 20
-25.027711061894589
 30
0.0
  0
VERTEX
  5
2A88
  8
SAPA_FOGBAND
 10
2.9256810061899552
 20
-28.207106776528011
 30
0.0
 42
-0.1989123673796493
  0
SEQEND
  5
2A89
  8
SAPA_FOGBAND
  0
POLYLINE
  5
18F8
  8
SAPA_FOGBAND
 66
     1
 10
0.0
 20
0.0
 30
0.0
 70
     1
  0
VERTEX
  5
2A8A
  8
SAPA_FOGBAND
 10
-43.087048511221717
 20
-184.99538695863839
 30
0.0
 42
-0.4142135623730951
  0
VERTEX
  5
2A8B
  8
SAPA_FOGBAND
 10
-42.087048511221717
 20
-185.99538695863839
 30
0.0
  0
VERTEX
  5
2A8C
  8
SAPA_FOGBAND
 10
-42.087048511221717
 20
-187.19538695863841
 30
0.0
 42
0.4142135623730951
  0
VERTEX
  5
2A8D
  8
SAPA_FOGBAND
 10
-41.787048511221542
 20
-187.49538695863839
 30
0.0
  0
VERTEX
  5
2A8E
  8
SAPA_FOGBAND
 10
-40.887048511221678
 20
-187.49538695863839
 30
0.0
  0
VERTEX
  5
2A8F
  8
SAPA_FOGBAND
 10
-40.887048511221678
 20
-187.1453869586382
 30
0.0
 42
-0.6681786379193472
  0
VERTEX
  5
2A90
  8
SAPA_FOGBAND
 10
-40.374916476865671
 20
-186.93325492428241
 30
0.0
  0
VERTEX
  5
2A91
  8
SAPA_FOGBAND
 10
-39.521363086272352
 20
-187.7868083148756
 30
0.0
 42
-0.1989123673796526
  0
VERTEX
  5
2A92
  8
SAPA_FOGBAND
 10
-39.287048511221542
 20
-188.35249373982489
 30
0.0
  0
VERTEX
  5
2A93
  8
SAPA_FOGBAND
 10
-39.287048511221542
 20
-188.51518886224471
 30
0.0
 42
-0.3394542588633746
  0
VERTEX
  5
2A94
  8
SAPA_FOGBAND
 10
-39.509402797690989
 20
-188.80496661013149
 30
0.0
  0
VERTEX
  5
2A95
  8
SAPA_FOGBAND
 10
-40.86469422475249
 20
-189.1681158535213
 30
0.0
 42
0.3394542588633744
  0
VERTEX
  5
2A96
  8
SAPA_FOGBAND
 10
-41.087048511221717
 20
-189.4578936014081
 30
0.0
  0
VERTEX
  5
2A97
  8
SAPA_FOGBAND
 10
-41.087048511221717
 20
-192.0328803158686
 30
0.0
 42
0.3394542588633746
  0
VERTEX
  5
2A98
  8
SAPA_FOGBAND
 10
-40.86469422475249
 20
-192.3226580637554
 30
0.0
  0
VERTEX
  5
2A99
  8
SAPA_FOGBAND
 10
-39.509402797690989
 20
-192.6858073071453
 30
0.0
 42
-0.3394542588633747
  0
VERTEX
  5
2A9A
  8
SAPA_FOGBAND
 10
-39.287048511221542
 20
-192.97558505503201
 30
0.0
  0
VERTEX
  5
2A9B
  8
SAPA_FOGBAND
 10
-39.287048511221542
 20
-193.1382801774518
 30
0.0
 42
-0.1989123673796526
  0
VERTEX
  5
2A9C
  8
SAPA_FOGBAND
 10
-39.521363086272352
 20
-193.70396560240121
 30
0.0
  0
VERTEX
  5
2A9D
  8
SAPA_FOGBAND
 10
-40.374916476865671
 20
-194.55751899299429
 30
0.0
 42
-0.6681786379193474
  0
VERTEX
  5
2A9E
  8
SAPA_FOGBAND
 10
-40.887048511221678
 20
-194.3453869586385
 30
0.0
  0
VERTEX
  5
2A9F
  8
SAPA_FOGBAND
 10
-40.887048511221678
 20
-193.99538695863839
 30
0.0
  0
VERTEX
  5
2AA0
  8
SAPA_FOGBAND
 10
-41.787048511221542
 20
-193.99538695863839
 30
0.0
 42
0.4142135623730951
  0
VERTEX
  5
2AA1
  8
SAPA_FOGBAND
 10
-42.087048511221717
 20
-194.29538695863829
 30
0.0
  0
VERTEX
  5
2AA2
  8
SAPA_FOGBAND
 10
-42.087048511221717
 20
-196.39538695863851
 30
0.0
 42
0.4142135623730951
  0
VERTEX
  5
2AA3
  8
SAPA_FOGBAND
 10
-41.787048511221542
 20
-196.69538695863841
 30
0.0
  0
VERTEX
  5
2AA4
  8
SAPA_FOGBAND
 10
-40.387048511221678
 20
-196.69538695863841
 30
0.0
 42
-0.7754026414785753
  0
VERTEX
  5
2AA5
  8
SAPA_FOGBAND
 10
-40.242340642915792
 20
-197.25817895404609
 30
0.0
  0
VERTEX
  5
2AA6
  8
SAPA_FOGBAND
 10
-46.069939654153927
 20
-200.7778814645915
 30
0.0
 42
-0.8680589103334742
  0
VERTEX
  5
2AA7
  8
SAPA_FOGBAND
 10
-46.426779556815632
 20
-200.3029574348279
 30
0.0
  0
VERTEX
  5
2AA8
  8
SAPA_FOGBAND
 10
-43.87994173003505
 20
-196.9632676857216
 30
0.0
 42
0.198912367379658
  0
VERTEX
  5
2AA9
  8
SAPA_FOGBAND
 10
-43.587048511221717
 20
-196.25616090453491
 30
0.0
  0
VERTEX
  5
2AAA
  8
SAPA_FOGBAND
 10
-43.587048511221717
 20
-193.42284194011521
 30
0.0
 42
0.5773502691896282
  0
VERTEX
  5
2AAB
  8
SAPA_FOGBAND
 10
-44.037048511221542
 20
-193.1630343189799
 30
0.0
  0
VERTEX
  5
2AAC
  8
SAPA_FOGBAND
 10
-46.060840120212667
 20
-194.67081736734619
 30
0.0
 42
-0.8769764629927299
  0
VERTEX
  5
2AAD
  8
SAPA_FOGBAND
 10
-46.422972154568797
 20
-194.19887771185489
 30
0.0
  0
VERTEX
  5
2AAE
  8
SAPA_FOGBAND
 10
-43.87994173003505
 20
-190.86299536499561
 30
0.0
 42
0.198912367379658
  0
VERTEX
  5
2AAF
  8
SAPA_FOGBAND
 10
-43.587048511221717
 20
-190.155888583809
 30
0.0
  0
VERTEX
  5
2AB0
  8
SAPA_FOGBAND
 10
-43.587048511221717
 20
-187.9236142215874
 30
0.0
 42
0.5773502691896282
  0
VERTEX
  5
2AB1
  8
SAPA_FOGBAND
 10
-44.037048511221542
 20
-187.66380660045201
 30
0.0
  0
VERTEX
  5
2AB2
  8
SAPA_FOGBAND
 10
-46.05997136703229
 20
-189.17108807393581
 30
0.0
 42
-0.8769764629927299
  0
VERTEX
  5
2AB3
  8
SAPA_FOGBAND
 10
-46.422103401388419
 20
-188.69914841844451
 30
0.0
  0
VERTEX
  5
2AB4
  8
SAPA_FOGBAND
 10
-43.804087082721367
 20
-185.2882801774519
 30
0.0
 42
-0.198912367379658
  0
VERTEX
  5
2AB5
  8
SAPA_FOGBAND
 10
-43.096980301534927
 20
-184.99538695863839
 30
0.0
  0
SEQEND
  5
2AB6
  8
SAPA_FOGBAND
  0
POLYLINE
  5
18F9
  8
SAPA_FOGBAND
 66
     1
 10
0.0
 20
0.0
 30
0.0
 70
     1
  0
VERTEX
  5
2AB7
  8
SAPA_FOGBAND
 10
-71.577387422678953
 20
-184.93717250497451
 30
0.0
 42
0.4142135623730951
  0
VERTEX
  5
2AB8
  8
SAPA_FOGBAND
 10
-72.577387422678953
 20
-185.93717250497451
 30
0.0
  0
VERTEX
  5
2AB9
  8
SAPA_FOGBAND
 10
-72.577387422678953
 20
-187.13717250497459
 30
0.0
 42
-0.4142135623730951
  0
VERTEX
  5
2ABA
  8
SAPA_FOGBAND
 10
-72.877387422679135
 20
-187.43717250497451
 30
0.0
  0
VERTEX
  5
2ABB
  8
SAPA_FOGBAND
 10
-73.777387422678999
 20
-187.43717250497451
 30
0.0
  0
VERTEX
  5
2ABC
  8
SAPA_FOGBAND
 10
-73.777387422678999
 20
-187.08717250497429
 30
0.0
 42
0.6681786379193472
  0
VERTEX
  5
2ABD
  8
SAPA_FOGBAND
 10
-74.289519457034999
 20
-186.8750404706185
 30
0.0
  0
VERTEX
  5
2ABE
  8
SAPA_FOGBAND
 10
-75.143072847628332
 20
-187.72859386121181
 30
0.0
 42
0.1989123673796526
  0
VERTEX
  5
2ABF
  8
SAPA_FOGBAND
 10
-75.377387422679135
 20
-188.29427928616099
 30
0.0
  0
VERTEX
  5
2AC0
  8
SAPA_FOGBAND
 10
-75.377387422679135
 20
-188.45697440858081
 30
0.0
 42
0.3394542588633746
  0
VERTEX
  5
2AC1
  8
SAPA_FOGBAND
 10
-75.155033136209681
 20
-188.74675215646761
 30
0.0
  0
VERTEX
  5
2AC2
  8
SAPA_FOGBAND
 10
-73.799741709148407
 20
-189.10990139985751
 30
0.0
 42
-0.3394542588633744
  0
VERTEX
  5
2AC3
  8
SAPA_FOGBAND
 10
-73.577387422678953
 20
-189.39967914774431
 30
0.0
  0
VERTEX
  5
2AC4
  8
SAPA_FOGBAND
 10
-73.577387422678953
 20
-191.97466586220469
 30
0.0
 42
-0.3394542588633746
  0
VERTEX
  5
2AC5
  8
SAPA_FOGBAND
 10
-73.799741709148407
 20
-192.26444361009149
 30
0.0
  0
VERTEX
  5
2AC6
  8
SAPA_FOGBAND
 10
-75.155033136209681
 20
-192.62759285348139
 30
0.0
 42
0.3394542588633747
  0
VERTEX
  5
2AC7
  8
SAPA_FOGBAND
 10
-75.377387422679135
 20
-192.91737060136819
 30
0.0
  0
VERTEX
  5
2AC8
  8
SAPA_FOGBAND
 10
-75.377387422679135
 20
-193.08006572378801
 30
0.0
 42
0.1989123673796526
  0
VERTEX
  5
2AC9
  8
SAPA_FOGBAND
 10
-75.143072847628332
 20
-193.6457511487373
 30
0.0
  0
VERTEX
  5
2ACA
  8
SAPA_FOGBAND
 10
-74.289519457034999
 20
-194.49930453933041
 30
0.0
 42
0.6681786379193474
  0
VERTEX
  5
2ACB
  8
SAPA_FOGBAND
 10
-73.777387422678999
 20
-194.28717250497459
 30
0.0
  0
VERTEX
  5
2ACC
  8
SAPA_FOGBAND
 10
-73.777387422678999
 20
-193.93717250497451
 30
0.0
  0
VERTEX
  5
2ACD
  8
SAPA_FOGBAND
 10
-72.877387422679135
 20
-193.93717250497451
 30
0.0
 42
-0.4142135623730951
  0
VERTEX
  5
2ACE
  8
SAPA_FOGBAND
 10
-72.577387422678953
 20
-194.2371725049745
 30
0.0
  0
VERTEX
  5
2ACF
  8
SAPA_FOGBAND
 10
-72.577387422678953
 20
-196.3371725049746
 30
0.0
 42
-0.4142135623730951
  0
VERTEX
  5
2AD0
  8
SAPA_FOGBAND
 10
-72.877387422679135
 20
-196.6371725049745
 30
0.0
  0
VERTEX
  5
2AD1
  8
SAPA_FOGBAND
 10
-74.277387422679226
 20
-196.6371725049745
 30
0.0
 42
0.7754026414785753
  0
VERTEX
  5
2AD2
  8
SAPA_FOGBAND
 10
-74.422095290985112
 20
-197.19996450038221
 30
0.0
  0
VERTEX
  5
2AD3
  8
SAPA_FOGBAND
 10
-69.038989518399035
 20
-200.71966701092759
 30
0.0
 42
0.8680589103334742
  0
VERTEX
  5
2AD4
  8
SAPA_FOGBAND
 10
-68.68214961573733
 20
-200.24474298116411
 30
0.0
  0
VERTEX
  5
2AD5
  8
SAPA_FOGBAND
 10
-70.784494203865606
 20
-196.9050532320577
 30
0.0
 42
-0.198912367379658
  0
VERTEX
  5
2AD6
  8
SAPA_FOGBAND
 10
-71.077387422678953
 20
-196.197946450871
 30
0.0
  0
VERTEX
  5
2AD7
  8
SAPA_FOGBAND
 10
-71.077387422678953
 20
-193.3646274864513
 30
0.0
 42
-0.5773502691896282
  0
VERTEX
  5
2AD8
  8
SAPA_FOGBAND
 10
-70.627387422679135
 20
-193.10481986531599
 30
0.0
  0
VERTEX
  5
2AD9
  8
SAPA_FOGBAND
 10
-69.048089052340288
 20
-194.61260291368231
 30
0.0
 42
0.8769764629927299
  0
VERTEX
  5
2ADA
  8
SAPA_FOGBAND
 10
-68.685957017984151
 20
-194.1406632581911
 30
0.0
  0
VERTEX
  5
2ADB
  8
SAPA_FOGBAND
 10
-70.784494203865606
 20
-190.80478091133179
 30
0.0
 42
-0.198912367379658
  0
VERTEX
  5
2ADC
  8
SAPA_FOGBAND
 10
-71.077387422678953
 20
-190.09767413014509
 30
0.0
  0
VERTEX
  5
2ADD
  8
SAPA_FOGBAND
 10
-71.077387422678953
 20
-187.86539976792349
 30
0.0
 42
-0.5773502691896282
  0
VERTEX
  5
2ADE
  8
SAPA_FOGBAND
 10
-70.627387422679135
 20
-187.60559214678821
 30
0.0
  0
VERTEX
  5
2ADF
  8
SAPA_FOGBAND
 10
-69.048957805520672
 20
-189.1128736202719
 30
0.0
 42
0.8769764629927299
  0
VERTEX
  5
2AE0
  8
SAPA_FOGBAND
 10
-68.686825771164536
 20
-188.64093396478069
 30
0.0
  0
VERTEX
  5
2AE1
  8
SAPA_FOGBAND
 10
-70.86034885117931
 20
-185.2300657237881
 30
0.0
 42
0.198912367379658
  0
VERTEX
  5
2AE2
  8
SAPA_FOGBAND
 10
-71.56745563236575
 20
-184.93717250497451
 30
0.0
  0
SEQEND
  5
2AE3
  8
SAPA_FOGBAND
  0
DIMENSION
  5
1902
  8
SAPA_MATT
  2
*D151
 10
-125.3256531728246
 20
-196.49999999549729
 30
0.0
 11
-127.8256531728245
 21
-157.49999999549729
 31
0.0
 70
     0
 13
-78.08578687307137
 23
-118.4999999954973
 33
0.0
 14
-77.000000435444051
 24
-196.49999999549729
 34
0.0
 50
270.0
1001
ACAD
1000
DSTYLE
1002
{
1070
   287
1070
     4
1070
    40
1040
1.0
1070
   279
1070
     1
1002
}
  0
DIMENSION
  5
1903
  8
SAPA_MATT
  2
*D150
 10
-125.3256531728245
 20
-118.4999999954973
 30
0.0
 11
-127.8256531728245
 21
-103.4999999954973
 31
0.0
 70
     0
 13
-77.199999952131904
 23
-88.499999995497447
 33
0.0
 14
-78.08578687307137
 24
-118.4999999954973
 34
0.0
 50
270.0
1001
ACAD
1000
DSTYLE
1002
{
1070
   287
1070
     4
1070
    40
1040
1.0
1070
   279
1070
     1
1002
}
  0
DIMENSION
  5
1904
  8
SAPA_MATT
  2
*D149
 10
-125.3256531728245
 20
-88.499999995497419
 30
0.0
 11
-127.8256531728245
 21
-56.749999997748958
 31
0.0
 70
     0
 13
-105.9999999990106
 23
-25.000000000000441
 33
0.0
 14
-77.199999952131904
 24
-88.499999995497447
 34
0.0
 50
270.0
1001
ACAD
1000
DSTYLE
1002
{
1070
   287
1070
     4
1070
    40
1040
1.0
1070
   279
1070
     1
1002
}
  0
DIMENSION
  5
1905
  8
SAPA_MATT
  2
*D148
 10
-125.3256531728245
 20
-25.00000000000043
 30
0.0
 11
-127.8256531728245
 21
-0.0000000000004539
 31
0.0
 70
     0
 13
-105.9999999990105
 23
24.999999999999559
 33
0.0
 14
-105.9999999990105
 24
-25.000000000000441
 34
0.0
 50
270.0
1001
ACAD
1000
DSTYLE
1002
{
1070
    40
1040
1.0
1002
}
  0
VIEWPORT
  5
C4
 67
     1
  8
0
 10
143.06236603067589
 20
116.00969601843509
 30
0.0
 40
369.98580003443811
 41
256.8421457311839
 68
     1
 69
     1
1001
ACAD
1000
MVIEW
1002
{
1070
    16
1010
0.0
1020
0.0
1030
0.0
1010
0.0
1020
0.0
1030
1.0
1040
0.0
1040
256.8421457311839
1040
99.112914085388169
1040
143.07606935501099
1040
50.0
1040
0.0
1040
0.0
1070
     0
1070
     0
1070
     1
1070
     1
1070
     0
1070
     0
1070
     0
1070
     0
1040
0.0
1040
0.0
1040
0.0
1040
10.0
1040
10.0
1040
10.0
1040
10.0
1070
     0
1002
{
1002
}
1002
}
  0
ENDSEC
  0
EOF
