  0
SECTION
  2
HEADER
  9
$ACADVER
  1
AC1009
  9
$INSBASE
 10
0.0
 20
0.0
 30
0.0
  9
$EXTMIN
 10
-48.114456713577063
 20
-116.8256531728245
 30
0.0
  9
$EXTMAX
 10
210.47416431657439
 20
86.711765638890114
 30
0.0
  9
$LIMMIN
 10
0.0
 20
0.0
  9
$LIMMAX
 10
790.0
 20
790.0
  9
$ORTHOMODE
 70
     0
  9
$REGENMODE
 70
     1
  9
$FILLMODE
 70
     1
  9
$QTEXTMODE
 70
     0
  9
$MIRRTEXT
 70
     1
  9
$DRAGMODE
 70
     2
  9
$LTSCALE
 40
4.0
  9
$OSMODE
 70
   167
  9
$ATTMODE
 70
     1
  9
$TEXTSIZE
 40
3.5
  9
$TRACEWID
 40
0.05
  9
$TEXTSTYLE
  7
ISO
  9
$CLAYER
  8
0
  9
$CELTYPE
  6
BYLAYER
  9
$CECOLOR
 62
   256
  9
$DIMSCALE
 40
0.0
  9
$DIMASZ
 40
3.0
  9
$DIMEXO
 40
1.5
  9
$DIMDLI
 40
10.0
  9
$DIMRND
 40
0.0
  9
$DIMDLE
 40
0.0
  9
$DIMEXE
 40
1.5
  9
$DIMTP
 40
0.0
  9
$DIMTM
 40
0.0
  9
$DIMTXT
 40
3.0
  9
$DIMCEN
 40
-5.0
  9
$DIMTSZ
 40
0.0
  9
$DIMTOL
 70
     0
  9
$DIMLIM
 70
     0
  9
$DIMTIH
 70
     0
  9
$DIMTOH
 70
     0
  9
$DIMSE1
 70
     0
  9
$DIMSE2
 70
     0
  9
$DIMTAD
 70
     1
  9
$DIMZIN
 70
     8
  9
$DIMBLK
  1

  9
$DIMASO
 70
     1
  9
$DIMSHO
 70
     1
  9
$DIMPOST
  1

  9
$DIMAPOST
  1

  9
$DIMALT
 70
     0
  9
$DIMALTD
 70
     0
  9
$DIMALTF
 40
25.399999999999999
  9
$DIMLFAC
 40
-1.0
  9
$DIMTOFL
 70
     1
  9
$DIMTVP
 40
0.0
  9
$DIMTIX
 70
     0
  9
$DIMSOXD
 70
     0
  9
$DIMSAH
 70
     0
  9
$DIMBLK1
  1

  9
$DIMBLK2
  1

  9
$DIMSTYLE
  2
MASKIN
  9
$DIMCLRD
 70
   256
  9
$DIMCLRE
 70
   256
  9
$DIMCLRT
 70
     2
  9
$DIMTFAC
 40
1.0
  9
$DIMGAP
 40
1.0
  9
$LUNITS
 70
     2
  9
$LUPREC
 70
     8
  9
$SKETCHINC
 40
0.1
  9
$FILLETRAD
 40
0.0
  9
$AUNITS
 70
     0
  9
$AUPREC
 70
     8
  9
$MENU
  1
ACAD
  9
$ELEVATION
 40
0.0
  9
$PELEVATION
 40
0.0
  9
$THICKNESS
 40
0.0
  9
$LIMCHECK
 70
     0
  9
$BLIPMODE
 70
     0
  9
$CHAMFERA
 40
0.0
  9
$CHAMFERB
 40
0.0
  9
$SKPOLY
 70
     0
  9
$TDCREATE
 40
2454895.5739526278
  9
$TDUPDATE
 40
2458458.661814583
  9
$TDINDWG
 40
0.1110344444
  9
$TDUSRTIMER
 40
0.1110342593
  9
$USRTIMER
 70
     1
  9
$ANGBASE
 50
0.0
  9
$ANGDIR
 70
     0
  9
$PDMODE
 70
     0
  9
$PDSIZE
 40
0.0
  9
$PLINEWID
 40
0.0
  9
$COORDS
 70
     1
  9
$SPLFRAME
 70
     0
  9
$SPLINETYPE
 70
     6
  9
$SPLINESEGS
 70
     8
  9
$ATTDIA
 70
     1
  9
$ATTREQ
 70
     1
  9
$HANDLING
 70
     1
  9
$HANDSEED
  5
2D25
  9
$SURFTAB1
 70
     6
  9
$SURFTAB2
 70
     6
  9
$SURFTYPE
 70
     6
  9
$SURFU
 70
     6
  9
$SURFV
 70
     6
  9
$UCSNAME
  2

  9
$UCSORG
 10
0.0
 20
0.0
 30
0.0
  9
$UCSXDIR
 10
1.0
 20
0.0
 30
0.0
  9
$UCSYDIR
 10
0.0
 20
1.0
 30
0.0
  9
$PUCSNAME
  2

  9
$PUCSORG
 10
0.0
 20
0.0
 30
0.0
  9
$PUCSXDIR
 10
1.0
 20
0.0
 30
0.0
  9
$PUCSYDIR
 10
0.0
 20
1.0
 30
0.0
  9
$USERI1
 70
     0
  9
$USERI2
 70
     0
  9
$USERI3
 70
     0
  9
$USERI4
 70
     0
  9
$USERI5
 70
     0
  9
$USERR1
 40
0.0
  9
$USERR2
 40
0.0
  9
$USERR3
 40
0.0
  9
$USERR4
 40
0.0
  9
$USERR5
 40
0.0
  9
$WORLDVIEW
 70
     1
  9
$SHADEDGE
 70
     3
  9
$SHADEDIF
 70
    70
  9
$TILEMODE
 70
     1
  9
$MAXACTVP
 70
    16
  9
$PLIMCHECK
 70
     0
  9
$PEXTMIN
 10
1.0000000000000000E+020
 20
1.0000000000000000E+020
 30
1.0000000000000000E+020
  9
$PEXTMAX
 10
-1.0000000000000000E+020
 20
-1.0000000000000000E+020
 30
-1.0000000000000000E+020
  9
$PLIMMIN
 10
-5.069427490234375
 20
-5.8737497329711914
  9
$PLIMMAX
 10
291.89889526367187
 20
204.0995779037475
  9
$UNITMODE
 70
     0
  9
$VISRETAIN
 70
     1
  9
$PLINEGEN
 70
     0
  9
$PSLTSCALE
 70
     1
  0
ENDSEC
  0
SECTION
  2
TABLES
  0
TABLE
  2
VPORT
 70
     1
  0
VPORT
  2
*ACTIVE
 70
     0
 10
0.0
 20
0.0
 11
1.0
 21
1.0
 12
298.5855408186261
 22
205.5409427699102
 13
0.0
 23
0.0
 14
1.0
 24
1.0
 15
0.0
 25
0.0
 16
0.0
 26
0.0
 36
1.0
 17
0.0
 27
0.0
 37
0.0
 40
456.04621576592638
 41
2.3595505617977519
 42
50.0
 43
0.0
 44
0.0
 50
0.0
 51
0.0
 71
     0
 72
   100
 73
     1
 74
     1
 75
     0
 76
     0
 77
     0
 78
     0
  0
ENDTAB
  0
TABLE
  2
LTYPE
 70
    48
  0
LTYPE
  2
CONTINUOUS
 70
     0
  3
Solid line
 72
    65
 73
     0
 40
0.0
  0
LTYPE
  2
BYGG-01482201$0$NEWDOT
 70
     0
  3
____ . ____ . ____ . ____ . ____ . ____ . ____
 72
    65
 73
     4
 40
2.0
 49
1.0
 49
-0.5
 49
0.0
 49
-0.5
  0
LTYPE
  2
BYGG-014357$0$NEWDOT
 70
     0
  3
____ . ____ . ____ . ____ . ____ . ____ . ____
 72
    65
 73
     4
 40
2.0
 49
1.0
 49
-0.5
 49
0.0
 49
-0.5
  0
LTYPE
  2
BYGG-014357$0$DASHDOT
 70
     0
  3
__ . __ . __ . __ . __ . __ . __ . __ . __ . __
 72
    65
 73
     4
 40
1.0
 49
0.5
 49
-0.25
 49
0.0
 49
-0.25
  0
LTYPE
  2
BYGG-014357$0$DASHED
 70
     0
  3
__ __ __ __ __ __ __ __ __ __ __ __ __ __ __
 72
    65
 73
     2
 40
0.75
 49
0.5
 49
-0.25
  0
LTYPE
  2
BYGG-014279$0$NEWDOT
 70
     0
  3
____ . ____ . ____ . ____ . ____ . ____ . ____
 72
    65
 73
     4
 40
2.0
 49
1.0
 49
-0.5
 49
0.0
 49
-0.5
  0
LTYPE
  2
BYGG-014247$0$DASHDOT
 70
     0
  3
__ . __ . __ . __ . __ . __ . __ . __ . __ . __
 72
    65
 73
     4
 40
1.0
 49
0.5
 49
-0.25
 49
0.0
 49
-0.25
  0
LTYPE
  2
BYGG-014568$0$NEWDOT
 70
     0
  3
____ . ____ . ____ . ____ . ____ . ____ . ____
 72
    65
 73
     4
 40
2.0
 49
1.0
 49
-0.5
 49
0.0
 49
-0.5
  0
LTYPE
  2
BYGG-01482201$0$ZIGZAG
 70
     0
  3
Zig zag /\/\/\/\/\/\/\/\/\/\/\/\/\/\/\/\/\/\/\/\/\/\/\/
 72
    65
 73
     4
 40
20.32254
 49
0.00254
 49
-5.0800000000000001
 49
-10.16
 49
-5.0800000000000001
  0
LTYPE
  2
BYGG-014279$0$ZIGZAG
 70
     0
  3
Zig zag /\/\/\/\/\/\/\/\/\/\/\/\/\/\/\/\/\/\/\/\/\/\/\/
 72
    65
 73
     4
 40
20.32254
 49
0.00254
 49
-5.0800000000000001
 49
-10.16
 49
-5.0800000000000001
  0
LTYPE
  2
BYGG-024817$0$NEWDOT
 70
     0
  3
____ . ____ . ____ . ____ . ____ . ____ . ____
 72
    65
 73
     4
 40
2.0
 49
1.0
 49
-0.5
 49
0.0
 49
-0.5
  0
LTYPE
  2
BYGG-024791$0$NEWDOT
 70
     0
  3
____ . ____ . ____ . ____ . ____ . ____ . ____
 72
    65
 73
     4
 40
2.0
 49
1.0
 49
-0.5
 49
0.0
 49
-0.5
  0
LTYPE
  2
BYGG-024791$0$DASHDOT
 70
     0
  3
__ . __ . __ . __ . __ . __ . __ . __ . __ . __
 72
    65
 73
     4
 40
1.0
 49
0.5
 49
-0.25
 49
0.0
 49
-0.25
  0
LTYPE
  2
BYGG-014568$0$ZIGZAG
 70
     0
  3
Zig zag /\/\/\/\/\/\/\/\/\/\/\/\/\/\/\/\/\/\/\/\/\/\/\/
 72
    65
 73
     4
 40
20.32254
 49
0.00254
 49
-5.0800000000000001
 49
-10.16
 49
-5.0800000000000001
  0
LTYPE
  2
BYGG-014199$0$ZIGZAG
 70
     0
  3
Zig zag /\/\/\/\/\/\/\/\/\/\/\/\/\/\/\/\/\/\/\/\/\/\/\/
 72
    65
 73
     4
 40
20.32254
 49
0.00254
 49
-5.0800000000000001
 49
-10.16
 49
-5.0800000000000001
  0
LTYPE
  2
BYGG-014199$0$NEWDOT
 70
     0
  3
____ . ____ . ____ . ____ . ____ . ____ . ____
 72
    65
 73
     4
 40
2.0
 49
1.0
 49
-0.5
 49
0.0
 49
-0.5
  0
LTYPE
  2
BYGG-020805$0$NEWDOT
 70
     0
  3
____ . ____ . ____ . ____ . ____ . ____ . ____
 72
    65
 73
     4
 40
2.0
 49
1.0
 49
-0.5
 49
0.0
 49
-0.5
  0
LTYPE
  2
BYGG-020805$0$DASHDOT
 70
     0
  3
__ . __ . __ . __ . __ . __ . __ . __ . __ . __
 72
    65
 73
     4
 40
1.0
 49
0.5
 49
-0.25
 49
0.0
 49
-0.25
  0
LTYPE
  2
BYGG-020805$0$DASHED
 70
     0
  3
__ __ __ __ __ __ __ __ __ __ __ __ __ __ __
 72
    65
 73
     2
 40
0.75
 49
0.5
 49
-0.25
  0
LTYPE
  2
BYGG-020805$0$PHANTOM
 70
     0
  3
Phantom ______  __  __  ______  __  __  ______
 72
    65
 73
     6
 40
63.5
 49
31.75
 49
-6.3499999999999988
 49
6.3499999999999988
 49
-6.3499999999999988
 49
6.3499999999999988
 49
-6.3499999999999988
  0
LTYPE
  2
BYGG-028766$0$NEWDOT
 70
     0
  3
____ . ____ . ____ . ____ . ____ . ____ . ____
 72
    65
 73
     4
 40
2.0
 49
1.0
 49
-0.5
 49
0.0
 49
-0.5
  0
LTYPE
  2
BYGG-028766$0$DASHDOT
 70
     0
  3
__ . __ . __ . __ . __ . __ . __ . __ . __ . __
 72
    65
 73
     4
 40
1.0
 49
0.5
 49
-0.25
 49
0.0
 49
-0.25
  0
LTYPE
  2
BYGG-028766$0$DASHED
 70
     0
  3
__ __ __ __ __ __ __ __ __ __ __ __ __ __ __
 72
    65
 73
     2
 40
0.75
 49
0.5
 49
-0.25
  0
LTYPE
  2
BYGG-028766$0$PHANTOM
 70
     0
  3
Phantom ______  __  __  ______  __  __  ______
 72
    65
 73
     6
 40
63.5
 49
31.75
 49
-6.3499999999999988
 49
6.3499999999999988
 49
-6.3499999999999988
 49
6.3499999999999988
 49
-6.3499999999999988
  0
LTYPE
  2
BYGG-033168$0$NEWDOT
 70
     0
  3
____ . ____ . ____ . ____ . ____ . ____ . ____
 72
    65
 73
     4
 40
2.0
 49
1.0
 49
-0.5
 49
0.0
 49
-0.5
  0
LTYPE
  2
BYGG-033168$0$DASHDOT
 70
     0
  3
__ . __ . __ . __ . __ . __ . __ . __ . __ . __
 72
    65
 73
     4
 40
1.0
 49
0.5
 49
-0.25
 49
0.0
 49
-0.25
  0
LTYPE
  2
BYGG-033168$0$DASHED
 70
     0
  3
__ __ __ __ __ __ __ __ __ __ __ __ __ __ __
 72
    65
 73
     2
 40
0.75
 49
0.5
 49
-0.25
  0
LTYPE
  2
BYGG-033168$0$PHANTOM
 70
     0
  3
Phantom ______  __  __  ______  __  __  ______
 72
    65
 73
     6
 40
63.5
 49
31.75
 49
-6.3499999999999988
 49
6.3499999999999988
 49
-6.3499999999999988
 49
6.3499999999999988
 49
-6.3499999999999988
  0
LTYPE
  2
BYGG-027036$0$NEWDOT
 70
     0
  3
____ . ____ . ____ . ____ . ____ . ____ . ____
 72
    65
 73
     4
 40
2.0
 49
1.0
 49
-0.5
 49
0.0
 49
-0.5
  0
LTYPE
  2
BYGG-027036$0$DASHDOT
 70
     0
  3
__ . __ . __ . __ . __ . __ . __ . __ . __ . __
 72
    65
 73
     4
 40
1.0
 49
0.5
 49
-0.25
 49
0.0
 49
-0.25
  0
LTYPE
  2
BYGG-027036$0$DASHED
 70
     0
  3
__ __ __ __ __ __ __ __ __ __ __ __ __ __ __
 72
    65
 73
     2
 40
0.75
 49
0.5
 49
-0.25
  0
LTYPE
  2
BYGG-027036$0$PHANTOM
 70
     0
  3
Phantom ______  __  __  ______  __  __  ______
 72
    65
 73
     6
 40
63.5
 49
31.75
 49
-6.3499999999999988
 49
6.3499999999999988
 49
-6.3499999999999988
 49
6.3499999999999988
 49
-6.3499999999999988
  0
LTYPE
  2
BYGG-027036$0$HIDDEN
 70
     0
  3
_ _ _ _ _ _ _ _ _ _ _ _ _ _ _ _ _ _ _ _ _ _ _
 72
    65
 73
     2
 40
0.375
 49
0.25
 49
-0.125
  0
LTYPE
  2
BYGG-027036$0$DOT
 70
     0
  3
...............................................
 72
    65
 73
     2
 40
0.25
 49
0.0
 49
-0.25
  0
LTYPE
  2
BYGG-027036$0$CENTER
 70
     0
  3
____ _ ____ _ ____ _ ____ _ ____ _ ____ _ ____
 72
    65
 73
     4
 40
0.6
 49
0.375
 49
-0.075
 49
0.075
 49
-0.075
  0
LTYPE
  2
BYGG-038596$0$NEWDOT
 70
     0
  3
____ . ____ . ____ . ____ . ____ . ____ . ____
 72
    65
 73
     4
 40
2.0
 49
1.0
 49
-0.5
 49
0.0
 49
-0.5
  0
LTYPE
  2
BYGG-038596$0$DASHDOT
 70
     0
  3
__ . __ . __ . __ . __ . __ . __ . __ . __ . __
 72
    65
 73
     4
 40
1.0
 49
0.5
 49
-0.25
 49
0.0
 49
-0.25
  0
LTYPE
  2
BYGG-038596$0$DASHED
 70
     0
  3
__ __ __ __ __ __ __ __ __ __ __ __ __ __ __
 72
    65
 73
     2
 40
0.75
 49
0.5
 49
-0.25
  0
LTYPE
  2
BYGG-038596$0$PHANTOM
 70
     0
  3
Phantom ______  __  __  ______  __  __  ______
 72
    65
 73
     6
 40
63.5
 49
31.75
 49
-6.3499999999999988
 49
6.3499999999999988
 49
-6.3499999999999988
 49
6.3499999999999988
 49
-6.3499999999999988
  0
LTYPE
  2
BYGG-037704$0$NEWDOT
 70
     0
  3
____ . ____ . ____ . ____ . ____ . ____ . ____
 72
    65
 73
     4
 40
2.0
 49
1.0
 49
-0.5
 49
0.0
 49
-0.5
  0
LTYPE
  2
BYGG-037704$0$ZIGZAG
 70
     0
  3
Zig zag /\/\/\/\/\/\/\/\/\/\/\/\/\/\/\/\/\/\/\/\/\/\/\/
 72
    65
 73
     4
 40
20.32254
 49
0.00254
 49
-5.0800000000000001
 49
-10.16
 49
-5.0800000000000001
  0
LTYPE
  2
BYGG-021745$0$PHANTOM2
 70
     0
  3
___ _ _ ___ _ _ ___ _ _ ___ _ _
 72
    65
 73
     6
 40
1.25
 49
0.625
 49
-0.125
 49
0.125
 49
-0.125
 49
0.125
 49
-0.125
  0
LTYPE
  2
BYGG-038596$0$PHANTOM2
 70
     0
  3
Phantom (.5x) ___ _ _ ___ _ _ ___ _ _ ___ _ _
 72
    65
 73
     6
 40
1.25
 49
0.625
 49
-0.125
 49
0.125
 49
-0.125
 49
0.125
 49
-0.125
  0
LTYPE
  2
BYGG-024817$0$DASHDOT
 70
     0
  3
__ . __ . __ . __ . __ . __ . __ . __ . __ . __
 72
    65
 73
     4
 40
1.0
 49
0.5
 49
-0.25
 49
0.0
 49
-0.25
  0
LTYPE
  2
BYGG-027036$0$ALF
 70
     0
  3
*alf,- - - - - - - - - - - - -
 72
    65
 73
     2
 40
0.3
 49
0.1
 49
-0.2
  0
LTYPE
  2
BYGG-027036$0$CENTRE2
 70
     0
  3
___ _ ___ _ ___ _ ___ _ ___ _ ___ _ ___ _ ___ _
 72
    65
 73
     4
 40
28.574999999999999
 49
19.050000000000001
 49
-3.1749999999999989
 49
3.1749999999999989
 49
-3.1749999999999989
  0
LTYPE
  2
BYGG-037704$0$DOT_CENTER
 70
     0
  3
Dot_Center
 72
    65
 73
     4
 40
14.0
 49
12.0
 49
-1.0
 49
0.0
 49
-1.0
  0
LTYPE
  2
BYGG-021741$0$PHANTOM2
 70
     0
  3
___ _ _ ___ _ _ ___ _ _ ___ _ _
 72
    65
 73
     6
 40
1.25
 49
0.625
 49
-0.125
 49
0.125
 49
-0.125
 49
0.125
 49
-0.125
  0
ENDTAB
  0
TABLE
  2
LAYER
 70
   264
  0
LAYER
  2
0
 70
     0
 62
     7
  6
CONTINUOUS
  0
LAYER
  2
DEFPOINTS
 70
     0
 62
     7
  6
CONTINUOUS
  0
LAYER
  2
SAPA_ARTIKELNR
 70
     0
 62
     4
  6
CONTINUOUS
  0
LAYER
  2
SAPA_LIGHT
 70
     1
 62
     1
  6
CONTINUOUS
  0
LAYER
  2
BYGG-027036$0$DIM
 70
     4
 62
     5
  6
CONTINUOUS
  0
LAYER
  2
BYGG-027036$0$KON
 70
     4
 62
     7
  6
CONTINUOUS
  0
LAYER
  2
SAPA_ISOLATOR
 70
     0
 62
     4
  6
CONTINUOUS
  0
LAYER
  2
SAPA_MATT
 70
     0
 62
     1
  6
CONTINUOUS
  0
LAYER
  2
SAPA_GLAS
 70
     0
 62
     4
  6
CONTINUOUS
  0
LAYER
  2
SAPA_FOGBAND
 70
     0
 62
     2
  6
CONTINUOUS
  0
LAYER
  2
SAPA_PROFIL
 70
     0
 62
     7
  6
CONTINUOUS
  0
ENDTAB
  0
TABLE
  2
STYLE
 70
    58
  0
STYLE
  2
STANDARD
 70
     0
 40
0.0
 41
1.0
 50
0.0
 71
     0
 42
0.2
  3
txt
  4

  0
STYLE
  2
ISO
 70
     0
 40
0.0
 41
1.0
 50
0.0
 71
     0
 42
3.5
  3
txt
  4

  0
STYLE
  2

 70
     1
 40
0.0
 41
1.0
 50
0.0
 71
     0
 42
0.2
  3
ltypeshp.shx
  4

  0
STYLE
  2
BYGG-021589$0$STANDARD
 70
     0
 40
0.0
 41
1.0
 50
0.0
 71
     0
 42
0.2
  3
txt
  4

  0
STYLE
  2
BYGG-021589$0$ISO
 70
     0
 40
0.0
 41
1.0
 50
0.0
 71
     0
 42
3.5
  3
isocp3.shx
  4

  0
STYLE
  2
BYGG-01482201$0$STANDARD
 70
     0
 40
0.0
 41
1.0
 50
0.0
 71
     0
 42
0.2
  3
txt
  4

  0
STYLE
  2
BYGG-01482201$0$ISO
 70
     0
 40
0.0
 41
1.0
 50
0.0
 71
     0
 42
3.5
  3
isocp3.shx
  4

  0
STYLE
  2
BYGG-021610$0$STANDARD
 70
     0
 40
0.0
 41
1.0
 50
0.0
 71
     0
 42
0.2
  3
txt
  4

  0
STYLE
  2
BYGG-021610$0$ISO
 70
     0
 40
0.0
 41
1.0
 50
0.0
 71
     0
 42
3.5
  3
isocp3.shx
  4

  0
STYLE
  2
BYGG-014357$0$STANDARD
 70
     0
 40
0.0
 41
1.0
 50
0.0
 71
     0
 42
0.2
  3
txt
  4

  0
STYLE
  2
BYGG-014357$0$ISO
 70
     0
 40
0.0
 41
1.0
 50
0.0
 71
     0
 42
3.5
  3
isocp3.shx
  4

  0
STYLE
  2
BYGG-014062$0$STANDARD
 70
     0
 40
0.0
 41
1.0
 50
0.0
 71
     0
 42
0.2
  3
txt
  4

  0
STYLE
  2
BYGG-014062$0$ISO
 70
     0
 40
0.0
 41
1.0
 50
0.0
 71
     0
 42
3.5
  3
isocp3.shx
  4

  0
STYLE
  2
BYGG-014062$0$ROMANS
 70
     0
 40
0.0
 41
1.0
 50
0.0
 71
     0
 42
3.5
  3
romans.shx
  4

  0
STYLE
  2
BYGG-021806$0$STANDARD
 70
     0
 40
0.0
 41
1.0
 50
0.0
 71
     0
 42
0.2
  3
txt
  4

  0
STYLE
  2
BYGG-021806$0$ISO
 70
     0
 40
0.0
 41
1.0
 50
0.0
 71
     0
 42
3.5
  3
txt
  4

  0
STYLE
  2
BYGG-021582$0$STANDARD
 70
     0
 40
0.0
 41
1.0
 50
0.0
 71
     0
 42
0.2
  3
txt
  4

  0
STYLE
  2
BYGG-021582$0$ISO
 70
     0
 40
0.0
 41
1.0
 50
0.0
 71
     0
 42
3.5
  3
isocp3.shx
  4

  0
STYLE
  2
BYGG-014279$0$STANDARD
 70
     0
 40
0.0
 41
1.0
 50
0.0
 71
     0
 42
0.2
  3
TXT.shx
  4

  0
STYLE
  2
BYGG-014279$0$ISO
 70
     0
 40
0.0
 41
1.0
 50
0.0
 71
     0
 42
3.5
  3
iso
  4

  0
STYLE
  2
BYGG-021745$0$STANDARD
 70
     0
 40
0.0
 41
1.0
 50
0.0
 71
     0
 42
0.2
  3
txt
  4

  0
STYLE
  2
BYGG-021745$0$ISO
 70
     0
 40
0.0
 41
1.0
 50
0.0
 71
     0
 42
3.5
  3
iso
  4

  0
STYLE
  2
BYGG-014568$0$STANDARD
 70
     0
 40
0.0
 41
1.0
 50
0.0
 71
     0
 42
0.2
  3
txt
  4

  0
STYLE
  2
BYGG-014568$0$ISO
 70
     0
 40
0.0
 41
1.0
 50
0.0
 71
     0
 42
3.5
  3
isocp3.shx
  4

  0
STYLE
  2
BYGG-021754$0$STANDARD
 70
     0
 40
0.0
 41
1.0
 50
0.0
 71
     0
 42
0.2
  3
txt
  4

  0
STYLE
  2
BYGG-021754$0$ISO
 70
     0
 40
0.0
 41
1.0
 50
0.0
 71
     0
 42
3.5
  3
txt
  4

  0
STYLE
  2
BYGG-014199$0$STANDARD
 70
     0
 40
0.0
 41
1.0
 50
0.0
 71
     0
 42
0.2
  3
txt
  4

  0
STYLE
  2
BYGG-014199$0$ISO
 70
     0
 40
0.0
 41
1.0
 50
0.0
 71
     0
 42
3.5
  3
isocp3.shx
  4

  0
STYLE
  2
BYGG-038596$0$STANDARD
 70
     0
 40
0.0
 41
1.0
 50
0.0
 71
     0
 42
0.2
  3
txt
  4

  0
STYLE
  2
BYGG-038596$0$ISO
 70
     0
 40
0.0
 41
1.0
 50
0.0
 71
     0
 42
3.5
  3
txt
  4

  0
STYLE
  2
BYGG-038596$0$ANNOTATIVE
 70
     0
 40
0.0
 41
1.0
 50
0.0
 71
     0
 42
0.2
  3
txt
  4

  0
STYLE
  2
BYGG-028980$0$STANDARD
 70
     0
 40
0.0
 41
1.0
 50
0.0
 71
     0
 42
0.2
  3
txt
  4

  0
STYLE
  2
BYGG-028980$0$ISO
 70
     0
 40
0.0
 41
1.0
 50
0.0
 71
     0
 42
3.5
  3
txt
  4

  0
STYLE
  2
BYGG-024791$0$STANDARD
 70
     0
 40
0.0
 41
1.0
 50
0.0
 71
     0
 42
0.2
  3
txt
  4

  0
STYLE
  2
BYGG-024791$0$ISO
 70
     0
 40
0.0
 41
1.0
 50
0.0
 71
     0
 42
3.5
  3
txt
  4

  0
STYLE
  2
BYGG-024817$0$STANDARD
 70
     0
 40
0.0
 41
1.0
 50
0.0
 71
     0
 42
0.2
  3
txt
  4

  0
STYLE
  2
BYGG-024817$0$ISO
 70
     0
 40
0.0
 41
1.0
 50
0.0
 71
     0
 42
3.5
  3
txt
  4

  0
STYLE
  2
BYGG-020805$0$STANDARD
 70
     0
 40
0.0
 41
1.0
 50
0.0
 71
     0
 42
0.2
  3
txt
  4

  0
STYLE
  2
BYGG-020805$0$ISO
 70
     0
 40
0.0
 41
1.0
 50
0.0
 71
     0
 42
3.5
  3
txt
  4

  0
STYLE
  2
BYGG-033168$0$STANDARD
 70
     0
 40
0.0
 41
1.0
 50
0.0
 71
     0
 42
0.2
  3
txt
  4

  0
STYLE
  2
BYGG-033168$0$ISO
 70
     0
 40
0.0
 41
1.0
 50
0.0
 71
     0
 42
3.5
  3
txt
  4

  0
STYLE
  2
BYGG-027036$0$STANDARD
 70
     0
 40
0.0
 41
1.0
 50
0.0
 71
     0
 42
0.2
  3
txt
  4

  0
STYLE
  2
BYGG-027036$0$ISO
 70
     0
 40
0.0
 41
1.0
 50
0.0
 71
     0
 42
3.5
  3
txt
  4

  0
STYLE
  2
BYGG-027036$0$SIMPLEX
 70
     0
 40
0.0
 41
1.0
 50
0.0
 71
     0
 42
0.4
  3
simplex
  4

  0
STYLE
  2
BYGG-027036$0$ITALIC
 70
     0
 40
0.0
 41
1.0
 50
0.0
 71
     0
 42
0.4
  3
ITALIC
  4

  0
STYLE
  2
BYGG-027036$0$SYMBOL1
 70
     0
 40
0.0
 41
1.0
 50
0.0
 71
     0
 42
0.2
  3
SIMPLEX.SHX
  4

  0
STYLE
  2
BYGG-027036$0$MONOTXT
 70
     0
 40
0.2
 41
1.0
 50
0.0
 71
     0
 42
0.2
  3
MONOTXT
  4

  0
STYLE
  2
BYGG-027036$0$TIMES
 70
     0
 40
0.0
 41
1.0
 50
0.0
 71
     0
 42
100.0
  3
txt
  4

  0
STYLE
  2
BYGG-027036$0$ROMANS
 70
     0
 40
0.0
 41
1.0
 50
0.0
 71
     0
 42
5.0
  3
romans
  4

  0
STYLE
  2
BYGG-027036$0$SEACAD_ARIAL
 70
     0
 40
0.0
 41
1.0
 50
0.0
 71
     0
 42
0.2
  3
txt
  4

  0
STYLE
  2
BYGG-027036$0$ANNOTATIVE
 70
     0
 40
0.0
 41
1.0
 50
0.0
 71
     0
 42
0.2
  3
txt
  4

  0
STYLE
  2
BYGG-037704$0$STANDARD
 70
     0
 40
0.0
 41
1.0
 50
0.0
 71
     0
 42
0.2
  3
txt
  4

  0
STYLE
  2
BYGG-037704$0$ISO
 70
     0
 40
0.0
 41
1.0
 50
0.0
 71
     0
 42
3.5
  3
txt
  4

  0
STYLE
  2
BYGG-021741$0$STANDARD
 70
     0
 40
0.0
 41
1.0
 50
0.0
 71
     0
 42
0.2
  3
txt
  4

  0
STYLE
  2
BYGG-014247$0$STANDARD
 70
     0
 40
0.0
 41
1.0
 50
0.0
 71
     0
 42
0.2
  3
txt
  4

  0
STYLE
  2
BYGG-014247$0$ISO
 70
     0
 40
0.0
 41
1.0
 50
0.0
 71
     0
 42
3.5
  3
isocp3.shx
  4

  0
STYLE
  2
BYGG-028766$0$STANDARD
 70
     0
 40
0.0
 41
1.0
 50
0.0
 71
     0
 42
0.2
  3
txt
  4

  0
STYLE
  2
BYGG-028766$0$ISO
 70
     0
 40
0.0
 41
1.0
 50
0.0
 71
     0
 42
3.5
  3
txt
  4

  0
ENDTAB
  0
TABLE
  2
VIEW
 70
     0
  0
ENDTAB
  0
TABLE
  2
UCS
 70
     0
  0
ENDTAB
  0
TABLE
  2
APPID
 70
    33
  0
APPID
  2
ACAD
 70
     0
  0
APPID
  2
ACAD_DSTYLE_DIMTEXT_FILL
 70
     0
  0
APPID
  2
ACAD_DSTYLE_DIMEXT_LENGTH
 70
     0
  0
APPID
  2
ACAD_DSTYLE_DIMEXT_ENABLED
 70
     0
  0
APPID
  2
ACAD_DSTYLE_DIM_LINETYPE
 70
     0
  0
APPID
  2
ACAD_DSTYLE_DIM_EXT1_LINETYPE
 70
     0
  0
APPID
  2
ACAD_DSTYLE_DIM_EXT2_LINETYPE
 70
     0
  0
APPID
  2
ACAD_DSTYLE_DIMJOGGED_JOGA
 70
     0
  0
APPID
  2
ACAD_DSTYLE_DIMARC_LENGTH_
 70
     0
  0
APPID
  2
ACAD_PSEXT
 70
     0
  0
APPID
  2
ACAD_MLEADERVER
 70
     0
  0
APPID
  2
ACAD_EXEMPT_FROM_CAD_STANDARDS
 70
     0
  0
APPID
  2
AMG_ARCHIVE11
 70
     0
  0
APPID
  2
ACADANNOTATIVE
 70
     0
  0
APPID
  2
ACAECLAYERSTANDARD
 70
     0
  0
APPID
  2
ACDBDYNAMICBLOCKGUID
 70
     0
  0
APPID
  2
ACDBBLOCKREPETAG
 70
     0
  0
APPID
  2
ACAD_DSTYLE_DIMJAG
 70
     0
  0
APPID
  2
ACAD_DSTYLE_DIMTALN
 70
     0
  0
APPID
  2
ACAD_NAV_VCDISPLAY
 70
     0
  0
APPID
  2
GRADIENTCOLOR1ACI
 70
     0
  0
APPID
  2
GRADIENTCOLOR2ACI
 70
     0
  0
APPID
  2
ACCMTRANSPARENCY
 70
     0
  0
APPID
  2
ACAUTHENVIRON
 70
     0
  0
APPID
  2
ACDBDYNAMICBLOCKTRUENAME
 70
     0
  0
APPID
  2
AME_SOL
 70
     0
  0
APPID
  2
DCO15
 70
     0
  0
APPID
  2
PE_URL
 70
     0
  0
APPID
  2
ACDBBLOCKREPBTAG
 70
     0
  0
APPID
  2
ACAD_DSTYLE_DIMRADIAL_EXTENSION
 70
     0
  0
APPID
  2
ACLAYERTOOLS
 70
     0
  0
APPID
  2
ACAD_OBJECT_CHANGE_GUID
 70
     0
  0
APPID
  2
AEC_XDATA_BOUND_SPACE
 70
     0
  0
ENDTAB
  0
TABLE
  2
DIMSTYLE
 70
    55
  0
DIMSTYLE
  2
MASKIN
 70
     0
  3

  4

  5

  6

  7

 40
0.0
 41
3.0
 42
1.5
 43
10.0
 44
1.5
 45
0.0
 46
0.0
 47
0.0
 48
0.0
140
3.0
141
-5.0
142
0.0
143
25.399999999999999
144
-1.0
145
0.0
146
1.0
147
1.0
 71
     0
 72
     0
 73
     0
 74
     0
 75
     0
 76
     0
 77
     1
 78
     8
170
     0
171
     0
172
     1
173
     0
174
     0
175
     0
176
   256
177
   256
178
     2
  0
DIMSTYLE
  2
BYGG-021589$0$MASKIN
 70
     0
  3

  4

  5

  6

  7

 40
0.0
 41
3.0
 42
1.5
 43
10.0
 44
1.5
 45
0.0
 46
0.0
 47
0.0
 48
0.0
140
3.0
141
-5.0
142
0.0
143
25.399999999999999
144
-1.0
145
0.0
146
1.0
147
1.0
 71
     0
 72
     0
 73
     0
 74
     0
 75
     0
 76
     0
 77
     1
 78
     8
170
     0
171
     0
172
     1
173
     0
174
     0
175
     0
176
   256
177
   256
178
   256
  0
DIMSTYLE
  2
BYGG-01482201$0$STANDARD
 70
     0
  3

  4

  5

  6

  7

 40
1.0
 41
0.18
 42
0.0625
 43
0.38
 44
0.18
 45
0.0
 46
0.0
 47
0.0
 48
0.0
140
0.18
141
0.09
142
0.0
143
25.399999999999999
144
1.0
145
0.0
146
1.0
147
0.09
 71
     0
 72
     0
 73
     1
 74
     1
 75
     0
 76
     0
 77
     0
 78
     0
170
     0
171
     2
172
     0
173
     0
174
     0
175
     0
176
     0
177
     0
178
     0
  0
DIMSTYLE
  2
BYGG-01482201$0$MASKIN
 70
     0
  3

  4

  5

  6

  7

 40
0.0
 41
3.0
 42
1.5
 43
10.0
 44
1.5
 45
0.0
 46
0.0
 47
0.0
 48
0.0
140
3.0
141
-5.0
142
0.0
143
25.399999999999999
144
-1.0
145
0.0
146
1.0
147
1.0
 71
     0
 72
     0
 73
     0
 74
     1
 75
     0
 76
     0
 77
     1
 78
     8
170
     0
171
     0
172
     1
173
     0
174
     0
175
     0
176
   256
177
   256
178
     2
  0
DIMSTYLE
  2
BYGG-021610$0$MASKIN
 70
     0
  3

  4

  5

  6

  7

 40
0.0
 41
3.0
 42
1.5
 43
10.0
 44
1.5
 45
0.0
 46
0.0
 47
0.0
 48
0.0
140
3.0
141
-5.0
142
0.0
143
25.399999999999999
144
-1.0
145
0.0
146
1.0
147
1.0
 71
     0
 72
     0
 73
     0
 74
     0
 75
     0
 76
     0
 77
     1
 78
     8
170
     0
171
     0
172
     1
173
     0
174
     0
175
     0
176
   256
177
   256
178
   256
  0
DIMSTYLE
  2
BYGG-014357$0$MASKIN
 70
     0
  3

  4

  5

  6

  7

 40
0.0
 41
3.0
 42
1.5
 43
10.0
 44
1.5
 45
0.0
 46
0.0
 47
0.0
 48
0.0
140
3.0
141
-5.0
142
0.0
143
25.399999999999999
144
-1.0
145
0.0
146
1.0
147
1.0
 71
     0
 72
     0
 73
     0
 74
     0
 75
     0
 76
     0
 77
     1
 78
     8
170
     0
171
     0
172
     1
173
     0
174
     0
175
     0
176
   256
177
   256
178
   256
  0
DIMSTYLE
  2
BYGG-014357$0$MASKIN1
 70
     0
  3

  4

  5

  6

  7

 40
1.0
 41
3.0
 42
1.5
 43
10.0
 44
1.5
 45
0.0
 46
0.0
 47
0.0
 48
0.0
140
3.0
141
-5.0
142
0.0
143
25.399999999999999
144
1.0
145
0.0
146
1.0
147
0.9
 71
     0
 72
     0
 73
     0
 74
     0
 75
     0
 76
     0
 77
     1
 78
     8
170
     0
171
     0
172
     1
173
     0
174
     0
175
     0
176
   256
177
   256
178
   256
  0
DIMSTYLE
  2
BYGG-014357$0$MASKIN2
 70
     0
  3

  4

  5

  6

  7

 40
1.0
 41
3.0
 42
1.5
 43
10.0
 44
1.5
 45
0.0
 46
0.0
 47
0.0
 48
0.0
140
3.0
141
-5.0
142
0.0
143
25.399999999999999
144
1.0
145
0.0
146
1.0
147
0.9
 71
     0
 72
     0
 73
     0
 74
     0
 75
     0
 76
     0
 77
     1
 78
     8
170
     0
171
     0
172
     1
173
     0
174
     0
175
     0
176
   256
177
   256
178
   256
  0
DIMSTYLE
  2
BYGG-014357$0$MASKIN3
 70
     0
  3

  4

  5

  6

  7

 40
1.0
 41
3.0
 42
1.5
 43
10.0
 44
1.5
 45
0.0
 46
0.0
 47
0.0
 48
0.0
140
3.0
141
-5.0
142
0.0
143
25.399999999999999
144
1.0
145
0.0
146
1.0
147
0.9
 71
     0
 72
     0
 73
     0
 74
     0
 75
     0
 76
     0
 77
     1
 78
     8
170
     0
171
     0
172
     1
173
     0
174
     0
175
     0
176
   256
177
   256
178
   256
  0
DIMSTYLE
  2
BYGG-014357$0$DMST_1
 70
     0
  3

  4

  5

  6

  7

 40
1.0
 41
0.7000000000000002
 42
0.0
 43
7.0
 44
0.4
 45
0.0
 46
0.0
 47
0.15
 48
0.15
140
0.7000000000000002
141
0.0
142
0.0
143
25.399999999999999
144
1.0
145
0.0
146
0.7
147
0.09
 71
     1
 72
     0
 73
     0
 74
     0
 75
     0
 76
     0
 77
     1
 78
     9
170
     0
171
     2
172
     0
173
     0
174
     0
175
     0
176
     1
177
     1
178
     2
  0
DIMSTYLE
  2
BYGG-014062$0$MASKIN
 70
     0
  3

  4

  5

  6

  7

 40
0.0
 41
3.0
 42
1.5
 43
10.0
 44
1.5
 45
0.0
 46
0.0
 47
0.0
 48
0.0
140
3.0
141
-5.0
142
0.0
143
25.399999999999999
144
-1.0
145
0.0
146
1.0
147
1.0
 71
     0
 72
     0
 73
     0
 74
     0
 75
     0
 76
     0
 77
     1
 78
     8
170
     0
171
     0
172
     1
173
     0
174
     0
175
     0
176
   256
177
   256
178
   256
  0
DIMSTYLE
  2
BYGG-014062$0$STANDARD
 70
     0
  3

  4

  5

  6

  7

 40
1.0
 41
0.18
 42
0.0625
 43
0.38
 44
0.18
 45
0.0
 46
0.0
 47
0.0
 48
0.0
140
0.18
141
0.09
142
0.0
143
25.399999999999999
144
1.0
145
0.0
146
1.0
147
0.09
 71
     0
 72
     0
 73
     1
 74
     1
 75
     0
 76
     0
 77
     0
 78
     0
170
     0
171
     2
172
     0
173
     0
174
     0
175
     0
176
     0
177
     0
178
     0
  0
DIMSTYLE
  2
BYGG-014062$0$PRIMO_1-1
 70
     0
  3

  4

  5

  6

  7

 40
1.0
 41
3.0
 42
1.0
 43
5.0
 44
1.0
 45
0.0
 46
0.0
 47
0.0
 48
0.0
140
3.0
141
3.0
142
0.0
143
25.399999999999999
144
1.0
145
0.0
146
1.0
147
1.0
 71
     0
 72
     0
 73
     0
 74
     0
 75
     0
 76
     0
 77
     1
 78
     8
170
     0
171
     2
172
     0
173
     0
174
     0
175
     0
176
   256
177
   256
178
     6
  0
DIMSTYLE
  2
BYGG-014062$0$PRIMO_2-1
 70
     0
  3

  4

  5

  6

  7

 40
0.5
 41
3.0
 42
1.0
 43
5.0
 44
1.0
 45
0.0
 46
0.0
 47
0.0
 48
0.0
140
3.0
141
3.0
142
0.0
143
25.399999999999999
144
1.0
145
0.0
146
1.0
147
1.0
 71
     0
 72
     0
 73
     0
 74
     0
 75
     0
 76
     0
 77
     1
 78
     8
170
     0
171
     2
172
     0
173
     0
174
     0
175
     0
176
   256
177
   256
178
     6
  0
DIMSTYLE
  2
BYGG-014062$0$PRIMO_2_5-1
 70
     0
  3

  4

  5

  6

  7

 40
0.4
 41
3.0
 42
1.0
 43
5.0
 44
1.0
 45
0.0
 46
0.0
 47
0.0
 48
0.0
140
3.0
141
3.0
142
0.0
143
25.399999999999999
144
1.0
145
0.0
146
1.0
147
1.0
 71
     0
 72
     0
 73
     0
 74
     0
 75
     0
 76
     0
 77
     1
 78
     8
170
     0
171
     2
172
     0
173
     0
174
     0
175
     0
176
   256
177
   256
178
     6
  0
DIMSTYLE
  2
BYGG-014062$0$PRIMO_1-10
 70
     0
  3

  4

  5

  6

  7

 40
10.0
 41
3.0
 42
1.0
 43
5.0
 44
1.0
 45
0.0
 46
0.0
 47
0.0
 48
0.0
140
3.0
141
3.0
142
0.0
143
25.399999999999999
144
1.0
145
0.0
146
1.0
147
1.0
 71
     0
 72
     0
 73
     0
 74
     0
 75
     0
 76
     0
 77
     1
 78
     8
170
     0
171
     2
172
     0
173
     0
174
     0
175
     0
176
   256
177
   256
178
     6
  0
DIMSTYLE
  2
BYGG-014062$0$PRIMO_1-5
 70
     0
  3

  4

  5

  6

  7

 40
5.0
 41
3.0
 42
1.0
 43
5.0
 44
1.0
 45
0.0
 46
0.0
 47
0.0
 48
0.0
140
3.0
141
3.0
142
0.0
143
25.399999999999999
144
1.0
145
0.0
146
1.0
147
1.0
 71
     0
 72
     0
 73
     0
 74
     0
 75
     0
 76
     0
 77
     1
 78
     8
170
     0
171
     2
172
     0
173
     0
174
     0
175
     0
176
   256
177
   256
178
     6
  0
DIMSTYLE
  2
BYGG-014062$0$PRIMO_1-2
 70
     0
  3

  4

  5

  6

  7

 40
2.0
 41
3.0
 42
1.0
 43
5.0
 44
1.0
 45
0.0
 46
0.0
 47
0.0
 48
0.0
140
3.0
141
3.0
142
0.0
143
25.399999999999999
144
1.0
145
0.0
146
1.0
147
1.0
 71
     0
 72
     0
 73
     0
 74
     0
 75
     0
 76
     0
 77
     1
 78
     8
170
     0
171
     2
172
     0
173
     0
174
     0
175
     0
176
   256
177
   256
178
     6
  0
DIMSTYLE
  2
BYGG-021806$0$STANDARD
 70
     0
  3

  4

  5

  6

  7

 40
1.0
 41
0.18
 42
0.0625
 43
0.38
 44
0.18
 45
0.0
 46
0.0
 47
0.0
 48
0.0
140
0.18
141
0.09
142
0.0
143
25.399999999999999
144
1.0
145
0.0
146
1.0
147
0.09
 71
     0
 72
     0
 73
     1
 74
     1
 75
     0
 76
     0
 77
     0
 78
     0
170
     0
171
     2
172
     0
173
     0
174
     0
175
     0
176
     0
177
     0
178
     0
  0
DIMSTYLE
  2
BYGG-021806$0$MASKIN
 70
     0
  3

  4

  5

  6

  7

 40
0.0
 41
3.0
 42
1.5
 43
10.0
 44
1.5
 45
0.0
 46
0.0
 47
0.0
 48
0.0
140
3.0
141
-5.0
142
0.0
143
25.399999999999999
144
-1.0
145
0.0
146
1.0
147
1.0
 71
     0
 72
     0
 73
     0
 74
     0
 75
     0
 76
     0
 77
     1
 78
     8
170
     0
171
     0
172
     1
173
     0
174
     0
175
     0
176
   256
177
   256
178
     2
  0
DIMSTYLE
  2
BYGG-021582$0$MASKIN
 70
     0
  3

  4

  5

  6

  7

 40
0.0
 41
3.0
 42
1.5
 43
10.0
 44
1.5
 45
0.0
 46
0.0
 47
0.0
 48
0.0
140
3.0
141
-5.0
142
0.0
143
25.399999999999999
144
-1.0
145
0.0
146
1.0
147
1.0
 71
     0
 72
     0
 73
     0
 74
     0
 75
     0
 76
     0
 77
     1
 78
     8
170
     0
171
     0
172
     1
173
     0
174
     0
175
     0
176
   256
177
   256
178
   256
  0
DIMSTYLE
  2
BYGG-014279$0$STANDARD
 70
     0
  3

  4

  5

  6

  7

 40
1.0
 41
0.18
 42
0.0625
 43
0.38
 44
0.18
 45
0.0
 46
0.0
 47
0.0
 48
0.0
140
0.18
141
0.09
142
0.0
143
25.399999999999999
144
1.0
145
0.0
146
1.0
147
0.09
 71
     0
 72
     0
 73
     1
 74
     1
 75
     0
 76
     0
 77
     0
 78
     0
170
     0
171
     2
172
     0
173
     0
174
     0
175
     0
176
     0
177
     0
178
     0
  0
DIMSTYLE
  2
BYGG-014279$0$MASKIN
 70
     0
  3

  4

  5

  6

  7

 40
0.0
 41
3.0
 42
1.5
 43
10.0
 44
1.5
 45
0.0
 46
0.0
 47
0.0
 48
0.0
140
3.0
141
-5.0
142
0.0
143
25.399999999999999
144
-1.0
145
0.0
146
1.0
147
1.0
 71
     0
 72
     0
 73
     0
 74
     1
 75
     0
 76
     0
 77
     1
 78
     8
170
     0
171
     0
172
     1
173
     0
174
     0
175
     0
176
   256
177
   256
178
     2
  0
DIMSTYLE
  2
BYGG-021745$0$STANDARD
 70
     0
  3

  4

  5

  6

  7

 40
1.0
 41
0.18
 42
0.0625
 43
0.38
 44
0.18
 45
0.0
 46
0.0
 47
0.0
 48
0.0
140
0.18
141
0.09
142
0.0
143
25.399999999999999
144
1.0
145
0.0
146
1.0
147
0.09
 71
     0
 72
     0
 73
     1
 74
     1
 75
     0
 76
     0
 77
     0
 78
     0
170
     0
171
     2
172
     0
173
     0
174
     0
175
     0
176
     0
177
     0
178
     0
  0
DIMSTYLE
  2
BYGG-014568$0$STANDARD
 70
     0
  3

  4

  5

  6

  7

 40
1.0
 41
0.18
 42
0.0625
 43
0.38
 44
0.18
 45
0.0
 46
0.0
 47
0.0
 48
0.0
140
0.18
141
0.09
142
0.0
143
25.399999999999999
144
1.0
145
0.0
146
1.0
147
0.09
 71
     0
 72
     0
 73
     1
 74
     1
 75
     0
 76
     0
 77
     0
 78
     0
170
     0
171
     2
172
     0
173
     0
174
     0
175
     0
176
     0
177
     0
178
     0
  0
DIMSTYLE
  2
BYGG-014568$0$MASKIN
 70
     0
  3

  4

  5

  6

  7

 40
0.0
 41
3.0
 42
1.5
 43
10.0
 44
1.5
 45
0.0
 46
0.0
 47
0.0
 48
0.0
140
3.0
141
-5.0
142
0.0
143
25.399999999999999
144
-1.0
145
0.0
146
1.0
147
1.0
 71
     0
 72
     0
 73
     0
 74
     0
 75
     0
 76
     0
 77
     1
 78
     8
170
     0
171
     0
172
     1
173
     0
174
     0
175
     0
176
   256
177
   256
178
     2
  0
DIMSTYLE
  2
BYGG-021754$0$STANDARD
 70
     0
  3

  4

  5

  6

  7

 40
1.0
 41
0.18
 42
0.0625
 43
0.38
 44
0.18
 45
0.0
 46
0.0
 47
0.0
 48
0.0
140
0.18
141
0.09
142
0.0
143
25.399999999999999
144
1.0
145
0.0
146
1.0
147
0.09
 71
     0
 72
     0
 73
     1
 74
     1
 75
     0
 76
     0
 77
     0
 78
     0
170
     0
171
     2
172
     0
173
     0
174
     0
175
     0
176
     0
177
     0
178
     0
  0
DIMSTYLE
  2
BYGG-021754$0$MASKIN
 70
     0
  3

  4

  5

  6

  7

 40
0.0
 41
3.0
 42
1.5
 43
10.0
 44
1.5
 45
0.0
 46
0.0
 47
0.0
 48
0.0
140
3.0
141
-5.0
142
0.0
143
25.399999999999999
144
-1.0
145
0.0
146
1.0
147
1.0
 71
     0
 72
     0
 73
     0
 74
     0
 75
     0
 76
     0
 77
     1
 78
     8
170
     0
171
     0
172
     1
173
     0
174
     0
175
     0
176
   256
177
   256
178
     2
  0
DIMSTYLE
  2
BYGG-014199$0$STANDARD
 70
     0
  3

  4

  5

  6

  7

 40
1.0
 41
0.18
 42
0.0625
 43
0.38
 44
0.18
 45
0.0
 46
0.0
 47
0.0
 48
0.0
140
0.18
141
0.09
142
0.0
143
25.399999999999999
144
1.0
145
0.0
146
1.0
147
0.09
 71
     0
 72
     0
 73
     1
 74
     1
 75
     0
 76
     0
 77
     0
 78
     0
170
     0
171
     2
172
     0
173
     0
174
     0
175
     0
176
     0
177
     0
178
     0
  0
DIMSTYLE
  2
BYGG-014199$0$MASKIN
 70
     0
  3

  4

  5

  6

  7

 40
0.0
 41
3.0
 42
1.5
 43
10.0
 44
1.5
 45
0.0
 46
0.0
 47
0.0
 48
0.0
140
3.0
141
-5.0
142
0.0
143
25.399999999999999
144
-1.0
145
0.0
146
1.0
147
1.0
 71
     0
 72
     0
 73
     0
 74
     0
 75
     0
 76
     0
 77
     1
 78
     8
170
     0
171
     0
172
     1
173
     0
174
     0
175
     0
176
   256
177
   256
178
   256
  0
DIMSTYLE
  2
BYGG-038596$0$STANDARD
 70
     0
  3

  4

  5

  6

  7

 40
1.0
 41
0.18
 42
0.0625
 43
0.38
 44
0.18
 45
0.0
 46
0.0
 47
0.0
 48
0.0
140
0.18
141
0.09
142
0.0
143
25.399999999999999
144
1.0
145
0.0
146
1.0
147
0.09
 71
     0
 72
     0
 73
     1
 74
     1
 75
     0
 76
     0
 77
     0
 78
     0
170
     0
171
     2
172
     0
173
     0
174
     0
175
     0
176
     0
177
     0
178
     0
  0
DIMSTYLE
  2
BYGG-038596$0$MASKIN
 70
     0
  3

  4

  5

  6

  7

 40
0.0
 41
3.0
 42
1.5
 43
10.0
 44
1.5
 45
0.0
 46
0.0
 47
0.0
 48
0.0
140
3.0
141
-5.0
142
0.0
143
25.399999999999999
144
-1.0
145
0.0
146
1.0
147
1.0
 71
     0
 72
     0
 73
     0
 74
     0
 75
     0
 76
     0
 77
     1
 78
     8
170
     0
171
     0
172
     1
173
     0
174
     0
175
     0
176
   256
177
   256
178
     2
  0
DIMSTYLE
  2
BYGG-038596$0$ANNOTATIVE
 70
     0
  3

  4

  5

  6

  7

 40
1.0
 41
0.18
 42
0.0625
 43
0.38
 44
0.18
 45
0.0
 46
0.0
 47
0.0
 48
0.0
140
0.18
141
0.09
142
0.0
143
25.399999999999999
144
1.0
145
0.0
146
1.0
147
0.09
 71
     0
 72
     0
 73
     1
 74
     1
 75
     0
 76
     0
 77
     0
 78
     0
170
     0
171
     2
172
     0
173
     0
174
     0
175
     0
176
     0
177
     0
178
     0
  0
DIMSTYLE
  2
BYGG-028980$0$STANDARD
 70
     0
  3

  4

  5

  6

  7

 40
1.0
 41
0.18
 42
0.0625
 43
0.38
 44
0.18
 45
0.0
 46
0.0
 47
0.0
 48
0.0
140
0.18
141
0.09
142
0.0
143
25.399999999999999
144
1.0
145
0.0
146
1.0
147
0.09
 71
     0
 72
     0
 73
     1
 74
     1
 75
     0
 76
     0
 77
     0
 78
     0
170
     0
171
     2
172
     0
173
     0
174
     0
175
     0
176
     0
177
     0
178
     0
  0
DIMSTYLE
  2
BYGG-028980$0$MASKIN
 70
     0
  3

  4

  5

  6

  7

 40
0.0
 41
3.0
 42
1.5
 43
10.0
 44
1.5
 45
0.0
 46
0.0
 47
0.0
 48
0.0
140
3.0
141
-5.0
142
0.0
143
25.399999999999999
144
-1.0
145
0.0
146
1.0
147
1.0
 71
     0
 72
     0
 73
     0
 74
     0
 75
     0
 76
     0
 77
     1
 78
     8
170
     0
171
     0
172
     1
173
     0
174
     0
175
     0
176
   256
177
   256
178
     2
  0
DIMSTYLE
  2
BYGG-024791$0$MASKIN
 70
     0
  3

  4

  5

  6

  7

 40
0.0
 41
3.0
 42
1.5
 43
10.0
 44
1.5
 45
0.0
 46
0.0
 47
0.0
 48
0.0
140
3.0
141
-5.0
142
0.0
143
25.399999999999999
144
-1.0
145
0.0
146
1.0
147
1.0
 71
     0
 72
     0
 73
     0
 74
     0
 75
     0
 76
     0
 77
     1
 78
     8
170
     0
171
     0
172
     1
173
     0
174
     0
175
     0
176
   256
177
   256
178
     2
  0
DIMSTYLE
  2
BYGG-024791$0$STANDARD
 70
     0
  3

  4

  5

  6

  7

 40
1.0
 41
0.18
 42
0.0625
 43
0.38
 44
0.18
 45
0.0
 46
0.0
 47
0.0
 48
0.0
140
0.18
141
0.09
142
0.0
143
25.399999999999999
144
1.0
145
0.0
146
1.0
147
0.09
 71
     0
 72
     0
 73
     1
 74
     1
 75
     0
 76
     0
 77
     0
 78
     0
170
     0
171
     2
172
     0
173
     0
174
     0
175
     0
176
     0
177
     0
178
     0
  0
DIMSTYLE
  2
BYGG-024817$0$MASKIN
 70
     0
  3

  4

  5

  6

  7

 40
0.0
 41
3.0
 42
1.5
 43
10.0
 44
1.5
 45
0.0
 46
0.0
 47
0.0
 48
0.0
140
3.0
141
-5.0
142
0.0
143
25.399999999999999
144
-1.0
145
0.0
146
1.0
147
1.0
 71
     0
 72
     0
 73
     0
 74
     0
 75
     0
 76
     0
 77
     1
 78
     8
170
     0
171
     0
172
     1
173
     0
174
     0
175
     0
176
   256
177
   256
178
     2
  0
DIMSTYLE
  2
BYGG-024817$0$STANDARD
 70
     0
  3

  4

  5

  6

  7

 40
1.0
 41
0.18
 42
0.0625
 43
0.38
 44
0.18
 45
0.0
 46
0.0
 47
0.0
 48
0.0
140
0.18
141
0.09
142
0.0
143
25.399999999999999
144
1.0
145
0.0
146
1.0
147
0.09
 71
     0
 72
     0
 73
     1
 74
     1
 75
     0
 76
     0
 77
     0
 78
     0
170
     0
171
     2
172
     0
173
     0
174
     0
175
     0
176
     0
177
     0
178
     0
  0
DIMSTYLE
  2
BYGG-020805$0$STANDARD
 70
     0
  3

  4

  5

  6

  7

 40
1.0
 41
0.18
 42
0.0625
 43
0.38
 44
0.18
 45
0.0
 46
0.0
 47
0.0
 48
0.0
140
0.18
141
0.09
142
0.0
143
25.399999999999999
144
1.0
145
0.0
146
1.0
147
0.09
 71
     0
 72
     0
 73
     1
 74
     1
 75
     0
 76
     0
 77
     0
 78
     0
170
     0
171
     2
172
     0
173
     0
174
     0
175
     0
176
     0
177
     0
178
     0
  0
DIMSTYLE
  2
BYGG-020805$0$MASKIN
 70
     0
  3

  4

  5

  6

  7

 40
0.0
 41
3.0
 42
1.5
 43
10.0
 44
1.5
 45
0.0
 46
0.0
 47
0.0
 48
0.0
140
3.0
141
-5.0
142
0.0
143
25.399999999999999
144
-1.0
145
0.0
146
1.0
147
1.0
 71
     0
 72
     0
 73
     0
 74
     0
 75
     0
 76
     0
 77
     1
 78
     8
170
     0
171
     0
172
     1
173
     0
174
     0
175
     0
176
   256
177
   256
178
     2
  0
DIMSTYLE
  2
BYGG-033168$0$STANDARD
 70
     0
  3

  4

  5

  6

  7

 40
1.0
 41
0.18
 42
0.0625
 43
0.38
 44
0.18
 45
0.0
 46
0.0
 47
0.0
 48
0.0
140
0.18
141
0.09
142
0.0
143
25.399999999999999
144
1.0
145
0.0
146
1.0
147
0.09
 71
     0
 72
     0
 73
     1
 74
     1
 75
     0
 76
     0
 77
     0
 78
     0
170
     0
171
     2
172
     0
173
     0
174
     0
175
     0
176
     0
177
     0
178
     0
  0
DIMSTYLE
  2
BYGG-033168$0$MASKIN
 70
     0
  3

  4

  5

  6

  7

 40
0.0
 41
3.0
 42
1.5
 43
10.0
 44
1.5
 45
0.0
 46
0.0
 47
0.0
 48
0.0
140
3.0
141
-5.0
142
0.0
143
25.399999999999999
144
-1.0
145
0.0
146
1.0
147
1.0
 71
     0
 72
     0
 73
     0
 74
     0
 75
     0
 76
     0
 77
     1
 78
     8
170
     0
171
     0
172
     1
173
     0
174
     0
175
     0
176
   256
177
   256
178
     2
  0
DIMSTYLE
  2
BYGG-027036$0$STANDARD
 70
     0
  3

  4

  5

  6

  7

 40
1.0
 41
0.18
 42
0.0625
 43
0.38
 44
0.18
 45
0.0
 46
0.0
 47
0.0
 48
0.0
140
0.18
141
0.09
142
0.0
143
25.399999999999999
144
1.0
145
0.0
146
1.0
147
0.09
 71
     0
 72
     0
 73
     1
 74
     1
 75
     0
 76
     0
 77
     0
 78
     0
170
     0
171
     2
172
     0
173
     0
174
     0
175
     0
176
     0
177
     0
178
     0
  0
DIMSTYLE
  2
BYGG-027036$0$MASKIN
 70
     0
  3

  4

  5

  6

  7

 40
0.0
 41
3.0
 42
1.5
 43
10.0
 44
1.5
 45
0.0
 46
0.0
 47
0.0
 48
0.0
140
3.0
141
-5.0
142
0.0
143
25.399999999999999
144
-1.0
145
0.0
146
1.0
147
1.0
 71
     0
 72
     0
 73
     0
 74
     0
 75
     0
 76
     0
 77
     1
 78
     8
170
     0
171
     0
172
     1
173
     0
174
     0
175
     0
176
   256
177
   256
178
     2
  0
DIMSTYLE
  2
BYGG-027036$0$STANDARD$4
 70
     0
  3

  4

  5

  6

  7

 40
1.0
 41
2.5
 42
2.0
 43
3.75
 44
1.0
 45
0.0
 46
0.0
 47
0.0
 48
0.0
140
5.0
141
3.0
142
0.0
143
0.0394
144
1.0
145
1.0
146
1.0
147
1.0
 71
     0
 72
     0
 73
     1
 74
     0
 75
     0
 76
     0
 77
     1
 78
     8
170
     0
171
     2
172
     1
173
     0
174
     0
175
     0
176
     5
177
     5
178
     5
  0
DIMSTYLE
  2
BYGG-027036$0$STANDARD$2
 70
     0
  3

  4

  5

  6

  7

 40
1.0
 41
2.5
 42
2.0
 43
3.75
 44
1.0
 45
0.0
 46
0.0
 47
0.0
 48
0.0
140
5.0
141
3.0
142
0.0
143
0.0394
144
1.0
145
1.0
146
1.0
147
1.0
 71
     0
 72
     0
 73
     1
 74
     0
 75
     0
 76
     0
 77
     1
 78
     8
170
     0
171
     2
172
     1
173
     0
174
     0
175
     0
176
     5
177
     5
178
     5
  0
DIMSTYLE
  2
BYGG-027036$0$DMST_1
 70
     0
  3

  4

  5

  6

  7

 40
1.0
 41
0.3500000000000001
 42
0.0
 43
7.0
 44
0.2
 45
0.0
 46
0.0
 47
0.0
 48
0.0
140
0.3500000000000001
141
0.0
142
0.0
143
25.399999999999999
144
1.0
145
0.0
146
1.0
147
0.09
 71
     0
 72
     0
 73
     0
 74
     0
 75
     0
 76
     0
 77
     1
 78
     9
170
     0
171
     2
172
     0
173
     0
174
     0
175
     0
176
     1
177
     1
178
     2
  0
DIMSTYLE
  2
BYGG-027036$0$ANNOTATIVE
 70
     0
  3

  4

  5

  6

  7

 40
1.0
 41
0.18
 42
0.0625
 43
0.38
 44
0.18
 45
0.0
 46
0.0
 47
0.0
 48
0.0
140
0.18
141
0.09
142
0.0
143
25.399999999999999
144
1.0
145
0.0
146
1.0
147
0.09
 71
     0
 72
     0
 73
     1
 74
     1
 75
     0
 76
     0
 77
     0
 78
     0
170
     0
171
     2
172
     0
173
     0
174
     0
175
     0
176
     0
177
     0
178
     0
  0
DIMSTYLE
  2
BYGG-037704$0$STANDARD
 70
     0
  3

  4

  5

  6

  7

 40
1.0
 41
0.18
 42
0.0625
 43
0.38
 44
0.18
 45
0.0
 46
0.0
 47
0.0
 48
0.0
140
0.18
141
0.09
142
0.0
143
25.399999999999999
144
1.0
145
0.0
146
1.0
147
0.09
 71
     0
 72
     0
 73
     1
 74
     1
 75
     0
 76
     0
 77
     0
 78
     0
170
     0
171
     2
172
     0
173
     0
174
     0
175
     0
176
     0
177
     0
178
     0
  0
DIMSTYLE
  2
BYGG-037704$0$MASKIN
 70
     0
  3

  4

  5

  6

  7

 40
0.0
 41
3.0
 42
1.5
 43
10.0
 44
1.5
 45
0.0
 46
0.0
 47
0.0
 48
0.0
140
3.0
141
-5.0
142
0.0
143
25.399999999999999
144
-1.0
145
0.0
146
1.0
147
1.0
 71
     0
 72
     0
 73
     0
 74
     0
 75
     0
 76
     0
 77
     1
 78
     8
170
     0
171
     0
172
     1
173
     0
174
     0
175
     0
176
   256
177
   256
178
     2
  0
DIMSTYLE
  2
BYGG-021741$0$STANDARD
 70
     0
  3

  4

  5

  6

  7

 40
1.0
 41
0.18
 42
0.0625
 43
0.38
 44
0.18
 45
0.0
 46
0.0
 47
0.0
 48
0.0
140
0.18
141
0.09
142
0.0
143
25.399999999999999
144
1.0
145
0.0
146
1.0
147
0.09
 71
     0
 72
     0
 73
     1
 74
     1
 75
     0
 76
     0
 77
     0
 78
     0
170
     0
171
     2
172
     0
173
     0
174
     0
175
     0
176
     0
177
     0
178
     0
  0
DIMSTYLE
  2
BYGG-014247$0$MASKIN
 70
     0
  3

  4

  5

  6

  7

 40
0.0
 41
3.0
 42
1.5
 43
10.0
 44
1.5
 45
0.0
 46
0.0
 47
0.0
 48
0.0
140
3.0
141
-5.0
142
0.0
143
25.399999999999999
144
-1.0
145
0.0
146
1.0
147
1.0
 71
     0
 72
     0
 73
     0
 74
     0
 75
     0
 76
     0
 77
     1
 78
     8
170
     0
171
     0
172
     1
173
     0
174
     0
175
     0
176
   256
177
   256
178
   256
  0
DIMSTYLE
  2
BYGG-028766$0$STANDARD
 70
     0
  3

  4

  5

  6

  7

 40
1.0
 41
0.18
 42
0.0625
 43
0.38
 44
0.18
 45
0.0
 46
0.0
 47
0.0
 48
0.0
140
0.18
141
0.09
142
0.0
143
25.399999999999999
144
1.0
145
0.0
146
1.0
147
0.09
 71
     0
 72
     0
 73
     1
 74
     1
 75
     0
 76
     0
 77
     0
 78
     0
170
     0
171
     2
172
     0
173
     0
174
     0
175
     0
176
     0
177
     0
178
     0
  0
DIMSTYLE
  2
BYGG-028766$0$MASKIN
 70
     0
  3

  4

  5

  6

  7

 40
0.0
 41
3.0
 42
1.5
 43
10.0
 44
1.5
 45
0.0
 46
0.0
 47
0.0
 48
0.0
140
3.0
141
-5.0
142
0.0
143
25.399999999999999
144
-1.0
145
0.0
146
1.0
147
1.0
 71
     0
 72
     0
 73
     0
 74
     0
 75
     0
 76
     0
 77
     1
 78
     8
170
     0
171
     0
172
     1
173
     0
174
     0
175
     0
176
   256
177
   256
178
     2
  0
ENDTAB
  0
ENDSEC
  0
SECTION
  2
BLOCKS
  0
BLOCK
  8
0
  2
$MODEL_SPACE
 70
     0
 10
0.0
 20
0.0
 30
0.0
  3
$MODEL_SPACE
  1

  0
ENDBLK
  5
37
  8
0
  0
BLOCK
 67
     1
  8
0
  2
$PAPER_SPACE
 70
     0
 10
0.0
 20
0.0
 30
0.0
  3
$PAPER_SPACE
  1

  0
ENDBLK
  5
35
 67
     1
  8
0
  0
BLOCK
  8
0
  2
BYGG-027036$0$RH
 70
     2
 10
0.0
 20
0.0
 30
0.0
  3
BYGG-027036$0$RH
  1

  0
ATTDEF
  5
1165
  8
BYGG-027036$0$KON
 10
11.0
 20
2.2999999999999989
 30
0.0
 40
0.4400000000000001
  1

  7
BYGG-027036$0$SIMPLEX
 72
     4
 11
11.0
 21
2.2999999999999989
 31
0.0
  3
Benämning
  2
BENÄMNING
 70
     0
  0
ATTDEF
  5
1167
  8
BYGG-027036$0$KON
 10
11.0
 20
1.5
 30
0.0
 40
0.4400000000000001
  1

  7
BYGG-027036$0$SIMPLEX
 72
     4
 11
11.0
 21
1.5
 31
0.0
  3
Gummi-hårdhet-färg
  2
GUMMI-HÅRDHET-FÄRG
 70
     0
  0
ATTDEF
  5
1168
  8
BYGG-027036$0$KON
 10
11.0
 20
0.7
 30
0.0
 40
0.4400000000000001
  1

  7
BYGG-027036$0$SIMPLEX
 72
     4
 11
11.0
 21
0.7
 31
0.0
  3
Kund
  2
KUND
 70
     0
  0
ATTDEF
  5
1169
  8
BYGG-027036$0$KON
 10
18.399999999999999
 20
0.8
 30
0.0
 40
0.4
  1

  7
BYGG-027036$0$SIMPLEX
 72
     4
 11
18.399999999999999
 21
0.8
 31
0.0
  3
Rit.Nr:
  2
RIT.NR:
 70
     0
  0
ATTDEF
  5
116A
  8
BYGG-027036$0$KON
 10
18.399999999999999
 20
3.2000000000000002
 30
0.0
 40
0.4
  1

  7
BYGG-027036$0$SIMPLEX
 72
     4
 11
18.399999999999999
 21
3.2000000000000002
 31
0.0
  3
Det.Nr:
  2
DET.NR:
 70
     0
  0
ATTDEF
  5
116B
  8
BYGG-027036$0$KON
 10
18.800000000000001
 20
2.0
 30
0.0
 40
0.4
  1

  7
BYGG-027036$0$SIMPLEX
 72
     4
 11
18.800000000000001
 21
2.0
 31
0.0
  3
Skala:
  2
SKALA:
 70
     1
  0
ATTDEF
  5
116C
  8
BYGG-027036$0$KON
 10
3.6000000000000001
 20
1.8999999999999999
 30
0.0
 40
0.3
  1

  7
BYGG-027036$0$SIMPLEX
 72
     4
 11
3.6000000000000001
 21
1.8999999999999999
 31
0.0
  3
Datum
  2
DATUM
 70
     0
  0
ATTDEF
  5
116D
  8
BYGG-027036$0$KON
 10
3.399999999999999
 20
0.9
 30
0.0
 40
0.4
  1

  7
BYGG-027036$0$SIMPLEX
 72
     4
 11
3.399999999999999
 21
0.9
 31
0.0
  3
Ritad av:
  2
RITAD:
 70
     1
  0
ATTDEF
  5
116E
  8
BYGG-027036$0$KON
 10
3.1999999999999988
 20
5.2999999999999989
 30
0.0
 40
0.4
  1

  7
BYGG-027036$0$SIMPLEX
  3
Säljare:
  2
SÄLJARE
 70
     1
  0
ENDBLK
  5
116F
  8
0
  0
BLOCK
  8
0
  2
*D151
 70
     1
 10
0.0
 20
0.0
 30
0.0
  3
*D151
  1

  0
LINE
  5
1B3C
  8
SAPA_MATT
 10
-24.999999999999659
 20
-97.499999999010583
 30
0.0
 11
-24.999999999999659
 21
-116.8256531728245
 31
0.0
  0
LINE
  5
1B3D
  8
SAPA_MATT
 10
25.000000000000341
 20
-97.499999999010583
 30
0.0
 11
25.000000000000341
 21
-116.8256531728245
 31
0.0
  0
LINE
  5
1B3E
  8
SAPA_MATT
 10
-21.999999999999659
 20
-115.3256531728245
 30
0.0
 11
22.000000000000341
 21
-115.3256531728245
 31
0.0
  0
SOLID
  5
1B3F
  8
SAPA_MATT
 10
-21.999999999999659
 20
-114.8256531728245
 30
0.0
 11
-21.999999999999659
 21
-115.8256531728245
 31
0.0
 12
-24.999999999999659
 22
-115.3256531728245
 32
0.0
 13
-24.999999999999659
 23
-115.3256531728245
 33
0.0
  0
SOLID
  5
1B40
  8
SAPA_MATT
 10
22.000000000000341
 20
-114.8256531728245
 30
0.0
 11
22.000000000000341
 21
-115.8256531728245
 31
0.0
 12
25.000000000000341
 22
-115.3256531728245
 32
0.0
 13
25.000000000000341
 23
-115.3256531728245
 33
0.0
  0
INSERT
  5
1B41
  8
0
  2
*U171
 10
0.0
 20
0.0
 30
0.0
  0
POINT
  5
1B42
  8
DEFPOINTS
 62
     0
 10
-24.999999999999659
 20
-95.999999999010583
 30
0.0
  0
POINT
  5
1B43
  8
DEFPOINTS
 62
     0
 10
25.000000000000341
 20
-95.999999999010583
 30
0.0
  0
POINT
  5
1B44
  8
DEFPOINTS
 62
     0
 10
25.000000000000341
 20
-115.3256531728245
 30
0.0
  0
ENDBLK
  5
1AF3
  8
0
  0
BLOCK
  8
0
  2
*D152
 70
     1
 10
0.0
 20
0.0
 30
0.0
  3
*D152
  1

  0
LINE
  5
2C0E
  8
SAPA_MATT
 10
88.499999999440746
 20
-68.69999999901006
 30
0.0
 11
88.499999999440746
 21
-116.8256531728245
 31
0.0
  0
LINE
  5
2C0F
  8
SAPA_MATT
 10
118.4999999994406
 20
-69.585786919949285
 30
0.0
 11
118.4999999994406
 21
-116.8256531728245
 31
0.0
  0
LINE
  5
2C10
  8
SAPA_MATT
 10
91.499999999440746
 20
-115.3256531728245
 30
0.0
 11
115.4999999994406
 21
-115.3256531728245
 31
0.0
  0
SOLID
  5
2C11
  8
SAPA_MATT
 10
91.499999999440746
 20
-114.8256531728245
 30
0.0
 11
91.499999999440746
 21
-115.8256531728245
 31
0.0
 12
88.499999999440746
 22
-115.3256531728245
 32
0.0
 13
88.499999999440746
 23
-115.3256531728245
 33
0.0
  0
SOLID
  5
2C12
  8
SAPA_MATT
 10
115.4999999994406
 20
-114.8256531728245
 30
0.0
 11
115.4999999994406
 21
-115.8256531728245
 31
0.0
 12
118.4999999994406
 22
-115.3256531728245
 32
0.0
 13
118.4999999994406
 23
-115.3256531728245
 33
0.0
  0
TEXT
  8
SAPA_MATT
  40
3
  5
2C1F
  62
2
  72
0
  71
0
 10
97.5000
 20
-118.136
 30
0.000000
  1
30
  7
ISO
  0
POINT
  5
2C14
  8
DEFPOINTS
 62
     0
 10
88.499999999440746
 20
-67.19999999901006
 30
0.0
  0
POINT
  5
2C15
  8
DEFPOINTS
 62
     0
 10
118.4999999994406
 20
-68.0857869199493
 30
0.0
  0
POINT
  5
2C16
  8
DEFPOINTS
 62
     0
 10
118.4999999994406
 20
-115.3256531728245
 30
0.0
  0
ENDBLK
  5
1AFF
  8
0
  0
BLOCK
  8
0
  2
*D153
 70
     1
 10
0.0
 20
0.0
 30
0.0
  3
*D153
  1

  0
LINE
  5
2C05
  8
SAPA_MATT
 10
118.4999999994406
 20
-69.585786919949328
 30
0.0
 11
118.4999999994406
 21
-116.8256531728245
 31
0.0
  0
LINE
  5
2C06
  8
SAPA_MATT
 10
196.4999999994406
 20
-68.500000482322207
 30
0.0
 11
196.4999999994406
 21
-116.8256531728245
 31
0.0
  0
LINE
  5
2C07
  8
SAPA_MATT
 10
121.4999999994406
 20
-115.3256531728245
 30
0.0
 11
193.4999999994406
 21
-115.3256531728245
 31
0.0
  0
SOLID
  5
2C08
  8
SAPA_MATT
 10
121.4999999994406
 20
-114.8256531728245
 30
0.0
 11
121.4999999994406
 21
-115.8256531728245
 31
0.0
 12
118.4999999994406
 22
-115.3256531728245
 32
0.0
 13
118.4999999994406
 23
-115.3256531728245
 33
0.0
  0
SOLID
  5
2C09
  8
SAPA_MATT
 10
193.4999999994406
 20
-114.8256531728245
 30
0.0
 11
193.4999999994406
 21
-115.8256531728245
 31
0.0
 12
196.4999999994406
 22
-115.3256531728245
 32
0.0
 13
196.4999999994406
 23
-115.3256531728245
 33
0.0
  0
TEXT
  8
SAPA_MATT
  40
3
  5
2C20
  62
2
  72
0
  71
0
 10
151.500
 20
-118.136
 30
0.000000
  1
78
  7
ISO
  0
POINT
  5
2C0B
  8
DEFPOINTS
 62
     0
 10
118.4999999994406
 20
-68.085786919949328
 30
0.0
  0
POINT
  5
2C0C
  8
DEFPOINTS
 62
     0
 10
196.4999999994406
 20
-67.000000482322207
 30
0.0
  0
POINT
  5
2C0D
  8
DEFPOINTS
 62
     0
 10
196.4999999994406
 20
-115.3256531728245
 30
0.0
  0
ENDBLK
  5
1B0B
  8
0
  0
BLOCK
  8
0
  2
*D154
 70
     1
 10
0.0
 20
0.0
 30
0.0
  3
*D154
  1

  0
LINE
  5
1B21
  8
SAPA_MATT
 10
88.499999999440746
 20
-68.69999999901006
 30
0.0
 11
88.499999999440746
 21
-116.8256531728245
 31
0.0
  0
LINE
  5
1B22
  8
SAPA_MATT
 10
25.000000000000341
 20
-83.300001396983703
 30
0.0
 11
25.000000000000341
 21
-116.8256531728245
 31
0.0
  0
LINE
  5
1B23
  8
SAPA_MATT
 10
85.499999999440746
 20
-115.3256531728245
 30
0.0
 11
28.000000000000341
 21
-115.3256531728245
 31
0.0
  0
SOLID
  5
1B24
  8
SAPA_MATT
 10
85.499999999440746
 20
-114.8256531728245
 30
0.0
 11
85.499999999440746
 21
-115.8256531728245
 31
0.0
 12
88.499999999440746
 22
-115.3256531728245
 32
0.0
 13
88.499999999440746
 23
-115.3256531728245
 33
0.0
  0
SOLID
  5
1B25
  8
SAPA_MATT
 10
28.000000000000341
 20
-114.8256531728245
 30
0.0
 11
28.000000000000341
 21
-115.8256531728245
 31
0.0
 12
25.000000000000341
 22
-115.3256531728245
 32
0.0
 13
25.000000000000341
 23
-115.3256531728245
 33
0.0
  0
INSERT
  5
1B26
  8
0
  2
*U170
 10
0.0
 20
0.0
 30
0.0
  0
POINT
  5
1B27
  8
DEFPOINTS
 62
     0
 10
88.499999999440746
 20
-67.19999999901006
 30
0.0
  0
POINT
  5
1B28
  8
DEFPOINTS
 62
     0
 10
25.000000000000341
 20
-81.800001396983689
 30
0.0
  0
POINT
  5
1B29
  8
DEFPOINTS
 62
     0
 10
25.000000000000341
 20
-115.3256531728245
 30
0.0
  0
ENDBLK
  5
1B17
  8
0
  0
BLOCK
  8
0
  2
*U155
 70
     1
 10
0.0
 20
0.0
 30
0.0
  3
*U155
  1

  0
TEXT
  5
1BDB
  8
SAPA_ARTIKELNR
 10
-6.087025770623403
 20
67.056727811863311
 30
0.0
 40
3.5
  1
68654
  7
ISO
  0
ENDBLK
  5
1BDD
  8
0
  0
BLOCK
  8
0
  2
*U156
 70
     1
 10
0.0
 20
0.0
 30
0.0
  3
*U156
  1

  0
TEXT
  5
1BDF
  8
SAPA_ARTIKELNR
 10
-6.087025770623403
 20
-92.149637197867833
 30
0.0
 40
3.5
  1
42657
  7
ISO
  0
ENDBLK
  5
1BE1
  8
0
  0
BLOCK
  8
0
  2
*U157
 70
     1
 10
0.0
 20
0.0
 30
0.0
  3
*U157
  1

  0
TEXT
  5
1BE3
  8
SAPA_ARTIKELNR
 10
-6.087025770623403
 20
-101.59123046074269
 30
0.0
 40
3.5
  1
42227
  7
ISO
  0
ENDBLK
  5
1BE5
  8
0
  0
BLOCK
  8
0
  2
*U158
 70
     1
 10
0.0
 20
0.0
 30
0.0
  3
*U158
  1

  0
TEXT
  5
1BE7
  8
SAPA_ARTIKELNR
 10
46.705644928175737
 20
15.50683268122291
 30
0.0
 40
3.5
  1
86102
  7
ISO
  0
ENDBLK
  5
1BE9
  8
0
  0
BLOCK
  8
0
  2
*U159
 70
     1
 10
0.0
 20
0.0
 30
0.0
  3
*U159
  1

  0
TEXT
  5
1BEB
  8
SAPA_ARTIKELNR
 10
95.230776617172708
 20
-9.6684968799035929
 30
0.0
 40
3.5
  1
42138/42138
  7
ISO
  0
ENDBLK
  5
1BED
  8
0
  0
BLOCK
  8
0
  2
*U160
 70
     1
 10
0.0
 20
0.0
 30
0.0
  3
*U160
  1

  0
TEXT
  5
1BEF
  8
SAPA_ARTIKELNR
 10
138.7770917577256
 20
-10.25219501144327
 30
0.0
 40
3.5
  1
68059
  7
ISO
  0
ENDBLK
  5
1BF1
  8
0
  0
BLOCK
  8
0
  2
*U161
 70
     1
 10
0.0
 20
0.0
 30
0.0
  3
*U161
  1

  0
TEXT
  5
1C09
  8
SAPA_ARTIKELNR
 10
80.549260355249686
 20
11.39068529121616
 30
0.0
 40
3.5
  1
42780
  7
ISO
  0
ENDBLK
  5
1C0B
  8
0
  0
BLOCK
  8
0
  2
*U162
 70
     1
 10
0.0
 20
0.0
 30
0.0
  3
*U162
  1

  0
SOLID
  5
286C
  8
SAPA_FOGBAND
  6
CONTINUOUS
 62
     2
 10
103.23535415210949
 20
-19.134104520824639
 30
0.0
 11
103.05507658833631
 21
-19.208777932731081
 31
0.0
 12
103.4156317158827
 22
-19.208777932731081
 32
0.0
 13
103.4156317158827
 23
-19.208777932731081
 33
0.0
210
0.0
220
0.0
230
1.0
  0
SOLID
  5
286D
  8
SAPA_FOGBAND
  6
CONTINUOUS
 62
     2
 10
103.05507658833631
 20
-19.208777932731081
 30
0.0
 11
102.9804031764299
 21
-19.38905549650428
 31
0.0
 12
103.4903051277891
 22
-19.38905549650428
 32
0.0
 13
103.4903051277891
 23
-19.38905549650428
 33
0.0
210
0.0
220
0.0
230
1.0
  0
SOLID
  5
286E
  8
SAPA_FOGBAND
  6
CONTINUOUS
 62
     2
 10
-103.05507658833631
 20
-19.208777932731081
 30
0.0
 11
-103.4156317158827
 21
-19.208777932731081
 31
0.0
 12
-103.4903051277891
 22
-19.38905549650428
 32
0.0
 13
-103.4903051277891
 23
-19.38905549650428
 33
0.0
210
0.0
220
0.0
230
-1.0
  0
SOLID
  5
286F
  8
SAPA_FOGBAND
  6
CONTINUOUS
 62
     2
 10
-103.05507658833631
 20
-19.569333060277479
 30
0.0
 11
-103.4156317158827
 21
-19.569333060277479
 31
0.0
 12
-103.23535415210949
 22
-19.644006472183921
 32
0.0
 13
-103.23535415210949
 23
-19.644006472183921
 33
0.0
210
0.0
220
0.0
230
-1.0
  0
SOLID
  5
2870
  8
SAPA_FOGBAND
  6
CONTINUOUS
 62
     2
 10
102.9804031764299
 20
-19.38905549650428
 30
0.0
 11
103.05507658833631
 21
-19.569333060277479
 31
0.0
 12
103.4156317158827
 22
-19.569333060277479
 32
0.0
 13
103.4156317158827
 23
-19.569333060277479
 33
0.0
210
0.0
220
0.0
230
1.0
  0
SOLID
  5
2871
  8
SAPA_FOGBAND
  6
CONTINUOUS
 62
     2
 10
-102.9804031764299
 20
-19.38905549650428
 30
0.0
 11
-103.4903051277891
 21
-19.38905549650428
 31
0.0
 12
-103.4156317158827
 22
-19.569333060277479
 32
0.0
 13
-103.4156317158827
 23
-19.569333060277479
 33
0.0
210
0.0
220
0.0
230
-1.0
  0
LINE
  5
2872
  8
SAPA_FOGBAND
  6
CONTINUOUS
 62
     2
 10
103.23535415210949
 20
-19.134104520824639
 30
0.0
 11
103.05507658833631
 21
-19.208777932731081
 31
0.0
  0
LINE
  5
2873
  8
SAPA_FOGBAND
  6
CONTINUOUS
 62
     2
 10
103.4156317158827
 20
-19.208777932731081
 30
0.0
 11
103.23535415210949
 21
-19.134104520824639
 31
0.0
  0
LINE
  5
2874
  8
SAPA_FOGBAND
  6
CONTINUOUS
 62
     2
 10
103.05507658833631
 20
-19.208777932731081
 30
0.0
 11
102.9804031764299
 21
-19.38905549650428
 31
0.0
  0
LINE
  5
2875
  8
SAPA_FOGBAND
  6
CONTINUOUS
 62
     2
 10
103.4156317158827
 20
-19.208777932731081
 30
0.0
 11
103.4903051277891
 21
-19.38905549650428
 31
0.0
  0
LINE
  5
2876
  8
SAPA_FOGBAND
  6
CONTINUOUS
 62
     2
 10
103.4156317158827
 20
-19.569333060277479
 30
0.0
 11
103.23535415210949
 21
-19.644006472183921
 31
0.0
  0
LINE
  5
2877
  8
SAPA_FOGBAND
  6
CONTINUOUS
 62
     2
 10
103.23535415210949
 20
-19.644006472183921
 30
0.0
 11
103.05507658833631
 21
-19.569333060277479
 31
0.0
  0
LINE
  5
2878
  8
SAPA_FOGBAND
  6
CONTINUOUS
 62
     2
 10
102.9804031764299
 20
-19.38905549650428
 30
0.0
 11
103.05507658833631
 21
-19.569333060277479
 31
0.0
  0
LINE
  5
2879
  8
SAPA_FOGBAND
  6
CONTINUOUS
 62
     2
 10
103.4903051277891
 20
-19.38905549650428
 30
0.0
 11
103.4156317158827
 21
-19.569333060277479
 31
0.0
  0
ENDBLK
  5
287B
  8
0
  0
BLOCK
  8
0
  2
*U163
 70
     1
 10
0.0
 20
0.0
 30
0.0
  3
*U163
  1

  0
SOLID
  5
28A6
  8
SAPA_FOGBAND
  6
CONTINUOUS
 62
     2
 10
103.8133055030642
 20
-65.357085693610728
 30
0.0
 11
103.633027939291
 21
-65.431759105517159
 31
0.0
 12
103.9935830668374
 22
-65.431759105517159
 32
0.0
 13
103.9935830668374
 23
-65.431759105517159
 33
0.0
210
0.0
220
0.0
230
1.0
  0
SOLID
  5
28A7
  8
SAPA_FOGBAND
  6
CONTINUOUS
 62
     2
 10
103.633027939291
 20
-65.431759105517159
 30
0.0
 11
103.55835452738459
 21
-65.612036669290362
 31
0.0
 12
104.06825647874381
 22
-65.612036669290362
 32
0.0
 13
104.06825647874381
 23
-65.612036669290362
 33
0.0
210
0.0
220
0.0
230
1.0
  0
SOLID
  5
28A8
  8
SAPA_FOGBAND
  6
CONTINUOUS
 62
     2
 10
-103.633027939291
 20
-65.431759105517159
 30
0.0
 11
-103.9935830668374
 21
-65.431759105517159
 31
0.0
 12
-104.06825647874381
 22
-65.612036669290362
 32
0.0
 13
-104.06825647874381
 23
-65.612036669290362
 33
0.0
210
0.0
220
0.0
230
-1.0
  0
SOLID
  5
28A9
  8
SAPA_FOGBAND
  6
CONTINUOUS
 62
     2
 10
-103.633027939291
 20
-65.792314233063564
 30
0.0
 11
-103.9935830668374
 21
-65.792314233063564
 31
0.0
 12
-103.8133055030642
 22
-65.866987644969996
 32
0.0
 13
-103.8133055030642
 23
-65.866987644969996
 33
0.0
210
0.0
220
0.0
230
-1.0
  0
SOLID
  5
28AA
  8
SAPA_FOGBAND
  6
CONTINUOUS
 62
     2
 10
103.55835452738459
 20
-65.612036669290362
 30
0.0
 11
103.633027939291
 21
-65.792314233063564
 31
0.0
 12
103.9935830668374
 22
-65.792314233063564
 32
0.0
 13
103.9935830668374
 23
-65.792314233063564
 33
0.0
210
0.0
220
0.0
230
1.0
  0
SOLID
  5
28AB
  8
SAPA_FOGBAND
  6
CONTINUOUS
 62
     2
 10
-103.55835452738459
 20
-65.612036669290362
 30
0.0
 11
-104.06825647874381
 21
-65.612036669290362
 31
0.0
 12
-103.9935830668374
 22
-65.792314233063564
 32
0.0
 13
-103.9935830668374
 23
-65.792314233063564
 33
0.0
210
0.0
220
0.0
230
-1.0
  0
LINE
  5
28AC
  8
SAPA_FOGBAND
  6
CONTINUOUS
 62
     2
 10
103.8133055030642
 20
-65.357085693610728
 30
0.0
 11
103.633027939291
 21
-65.431759105517159
 31
0.0
  0
LINE
  5
28AD
  8
SAPA_FOGBAND
  6
CONTINUOUS
 62
     2
 10
103.9935830668374
 20
-65.431759105517159
 30
0.0
 11
103.8133055030642
 21
-65.357085693610728
 31
0.0
  0
LINE
  5
28AE
  8
SAPA_FOGBAND
  6
CONTINUOUS
 62
     2
 10
103.633027939291
 20
-65.431759105517159
 30
0.0
 11
103.55835452738459
 21
-65.612036669290362
 31
0.0
  0
LINE
  5
28AF
  8
SAPA_FOGBAND
  6
CONTINUOUS
 62
     2
 10
103.9935830668374
 20
-65.431759105517159
 30
0.0
 11
104.06825647874381
 21
-65.612036669290362
 31
0.0
  0
LINE
  5
28B0
  8
SAPA_FOGBAND
  6
CONTINUOUS
 62
     2
 10
103.9935830668374
 20
-65.792314233063564
 30
0.0
 11
103.8133055030642
 21
-65.866987644969996
 31
0.0
  0
LINE
  5
28B1
  8
SAPA_FOGBAND
  6
CONTINUOUS
 62
     2
 10
103.8133055030642
 20
-65.866987644969996
 30
0.0
 11
103.633027939291
 21
-65.792314233063564
 31
0.0
  0
LINE
  5
28B2
  8
SAPA_FOGBAND
  6
CONTINUOUS
 62
     2
 10
103.55835452738459
 20
-65.612036669290362
 30
0.0
 11
103.633027939291
 21
-65.792314233063564
 31
0.0
  0
LINE
  5
28B3
  8
SAPA_FOGBAND
  6
CONTINUOUS
 62
     2
 10
104.06825647874381
 20
-65.612036669290362
 30
0.0
 11
103.9935830668374
 21
-65.792314233063564
 31
0.0
  0
ENDBLK
  5
28B5
  8
0
  0
BLOCK
  8
0
  2
*U164
 70
     1
 10
0.0
 20
0.0
 30
0.0
  3
*U164
  1

  0
SOLID
  5
28BC
  8
SAPA_FOGBAND
  6
CONTINUOUS
 10
18.616845201378961
 20
-74.382617202080866
 30
0.0
 11
18.436567637605759
 21
-74.457290613987297
 31
0.0
 12
18.79712276515216
 22
-74.457290613987297
 32
0.0
 13
18.79712276515216
 23
-74.457290613987297
 33
0.0
210
0.0
220
0.0
230
1.0
  0
SOLID
  5
28BD
  8
SAPA_FOGBAND
  6
CONTINUOUS
 10
18.436567637605759
 20
-74.457290613987297
 30
0.0
 11
18.36189422569932
 21
-74.6375681777605
 31
0.0
 12
18.871796177058599
 22
-74.6375681777605
 32
0.0
 13
18.871796177058599
 23
-74.6375681777605
 33
0.0
210
0.0
220
0.0
230
1.0
  0
SOLID
  5
28BE
  8
SAPA_FOGBAND
  6
CONTINUOUS
 10
-18.436567637605759
 20
-74.457290613987297
 30
0.0
 11
-18.79712276515216
 21
-74.457290613987297
 31
0.0
 12
-18.871796177058599
 22
-74.6375681777605
 32
0.0
 13
-18.871796177058599
 23
-74.6375681777605
 33
0.0
210
0.0
220
0.0
230
-1.0
  0
SOLID
  5
28BF
  8
SAPA_FOGBAND
  6
CONTINUOUS
 10
-18.436567637605759
 20
-74.817845741533702
 30
0.0
 11
-18.79712276515216
 21
-74.817845741533702
 31
0.0
 12
-18.616845201378961
 22
-74.892519153440134
 32
0.0
 13
-18.616845201378961
 23
-74.892519153440134
 33
0.0
210
0.0
220
0.0
230
-1.0
  0
SOLID
  5
28C0
  8
SAPA_FOGBAND
  6
CONTINUOUS
 10
18.36189422569932
 20
-74.6375681777605
 30
0.0
 11
18.436567637605759
 21
-74.817845741533702
 31
0.0
 12
18.79712276515216
 22
-74.817845741533702
 32
0.0
 13
18.79712276515216
 23
-74.817845741533702
 33
0.0
210
0.0
220
0.0
230
1.0
  0
SOLID
  5
28C1
  8
SAPA_FOGBAND
  6
CONTINUOUS
 10
-18.36189422569932
 20
-74.6375681777605
 30
0.0
 11
-18.871796177058599
 21
-74.6375681777605
 31
0.0
 12
-18.79712276515216
 22
-74.817845741533702
 32
0.0
 13
-18.79712276515216
 23
-74.817845741533702
 33
0.0
210
0.0
220
0.0
230
-1.0
  0
LINE
  5
28C2
  8
SAPA_FOGBAND
  6
CONTINUOUS
 10
18.616845201378961
 20
-74.382617202080866
 30
0.0
 11
18.436567637605759
 21
-74.457290613987297
 31
0.0
  0
LINE
  5
28C3
  8
SAPA_FOGBAND
  6
CONTINUOUS
 10
18.79712276515216
 20
-74.457290613987297
 30
0.0
 11
18.616845201378961
 21
-74.382617202080866
 31
0.0
  0
LINE
  5
28C4
  8
SAPA_FOGBAND
  6
CONTINUOUS
 10
18.436567637605759
 20
-74.457290613987297
 30
0.0
 11
18.36189422569932
 21
-74.6375681777605
 31
0.0
  0
LINE
  5
28C5
  8
SAPA_FOGBAND
  6
CONTINUOUS
 10
18.79712276515216
 20
-74.457290613987297
 30
0.0
 11
18.871796177058599
 21
-74.6375681777605
 31
0.0
  0
LINE
  5
28C6
  8
SAPA_FOGBAND
  6
CONTINUOUS
 10
18.79712276515216
 20
-74.817845741533702
 30
0.0
 11
18.616845201378961
 21
-74.892519153440134
 31
0.0
  0
LINE
  5
28C7
  8
SAPA_FOGBAND
  6
CONTINUOUS
 10
18.616845201378961
 20
-74.892519153440134
 30
0.0
 11
18.436567637605759
 21
-74.817845741533702
 31
0.0
  0
LINE
  5
28C8
  8
SAPA_FOGBAND
  6
CONTINUOUS
 10
18.36189422569932
 20
-74.6375681777605
 30
0.0
 11
18.436567637605759
 21
-74.817845741533702
 31
0.0
  0
LINE
  5
28C9
  8
SAPA_FOGBAND
  6
CONTINUOUS
 10
18.871796177058599
 20
-74.6375681777605
 30
0.0
 11
18.79712276515216
 21
-74.817845741533702
 31
0.0
  0
ENDBLK
  5
28CB
  8
0
  0
BLOCK
  8
0
  2
*U165
 70
     1
 10
0.0
 20
0.0
 30
0.0
  3
*U165
  1

  0
SOLID
  5
2938
  8
SAPA_FOGBAND
  6
CONTINUOUS
 10
-18.629356795612811
 20
-74.773515879680332
 30
0.0
 11
-18.809634359385999
 21
-74.848189291586763
 31
0.0
 12
-18.449079231839612
 22
-74.848189291586763
 32
0.0
 13
-18.449079231839612
 23
-74.848189291586763
 33
0.0
210
0.0
220
0.0
230
1.0
  0
SOLID
  5
2939
  8
SAPA_FOGBAND
  6
CONTINUOUS
 10
-18.809634359385999
 20
-74.848189291586763
 30
0.0
 11
-18.884307771292448
 21
-75.028466855359966
 31
0.0
 12
-18.374405819933159
 22
-75.028466855359966
 32
0.0
 13
-18.374405819933159
 23
-75.028466855359966
 33
0.0
210
0.0
220
0.0
230
1.0
  0
SOLID
  5
293A
  8
SAPA_FOGBAND
  6
CONTINUOUS
 10
18.809634359385999
 20
-74.848189291586763
 30
0.0
 11
18.449079231839612
 21
-74.848189291586763
 31
0.0
 12
18.374405819933159
 22
-75.028466855359966
 32
0.0
 13
18.374405819933159
 23
-75.028466855359966
 33
0.0
210
0.0
220
0.0
230
-1.0
  0
SOLID
  5
293B
  8
SAPA_FOGBAND
  6
CONTINUOUS
 10
18.809634359385999
 20
-75.208744419133168
 30
0.0
 11
18.449079231839612
 21
-75.208744419133168
 31
0.0
 12
18.629356795612811
 22
-75.2834178310396
 32
0.0
 13
18.629356795612811
 23
-75.2834178310396
 33
0.0
210
0.0
220
0.0
230
-1.0
  0
SOLID
  5
293C
  8
SAPA_FOGBAND
  6
CONTINUOUS
 10
-18.884307771292448
 20
-75.028466855359966
 30
0.0
 11
-18.809634359385999
 21
-75.208744419133168
 31
0.0
 12
-18.449079231839612
 22
-75.208744419133168
 32
0.0
 13
-18.449079231839612
 23
-75.208744419133168
 33
0.0
210
0.0
220
0.0
230
1.0
  0
SOLID
  5
293D
  8
SAPA_FOGBAND
  6
CONTINUOUS
 10
18.884307771292448
 20
-75.028466855359966
 30
0.0
 11
18.374405819933159
 21
-75.028466855359966
 31
0.0
 12
18.449079231839612
 22
-75.208744419133168
 32
0.0
 13
18.449079231839612
 23
-75.208744419133168
 33
0.0
210
0.0
220
0.0
230
-1.0
  0
LINE
  5
293E
  8
SAPA_FOGBAND
  6
CONTINUOUS
 10
-18.629356795612811
 20
-74.773515879680332
 30
0.0
 11
-18.809634359385999
 21
-74.848189291586763
 31
0.0
  0
LINE
  5
293F
  8
SAPA_FOGBAND
  6
CONTINUOUS
 10
-18.449079231839612
 20
-74.848189291586763
 30
0.0
 11
-18.629356795612811
 21
-74.773515879680332
 31
0.0
  0
LINE
  5
2940
  8
SAPA_FOGBAND
  6
CONTINUOUS
 10
-18.809634359385999
 20
-74.848189291586763
 30
0.0
 11
-18.884307771292448
 21
-75.028466855359966
 31
0.0
  0
LINE
  5
2941
  8
SAPA_FOGBAND
  6
CONTINUOUS
 10
-18.449079231839612
 20
-74.848189291586763
 30
0.0
 11
-18.374405819933159
 21
-75.028466855359966
 31
0.0
  0
LINE
  5
2942
  8
SAPA_FOGBAND
  6
CONTINUOUS
 10
-18.449079231839612
 20
-75.208744419133168
 30
0.0
 11
-18.629356795612811
 21
-75.2834178310396
 31
0.0
  0
LINE
  5
2943
  8
SAPA_FOGBAND
  6
CONTINUOUS
 10
-18.629356795612811
 20
-75.2834178310396
 30
0.0
 11
-18.809634359385999
 21
-75.208744419133168
 31
0.0
  0
LINE
  5
2944
  8
SAPA_FOGBAND
  6
CONTINUOUS
 10
-18.884307771292448
 20
-75.028466855359966
 30
0.0
 11
-18.809634359385999
 21
-75.208744419133168
 31
0.0
  0
LINE
  5
2945
  8
SAPA_FOGBAND
  6
CONTINUOUS
 10
-18.374405819933159
 20
-75.028466855359966
 30
0.0
 11
-18.449079231839612
 21
-75.208744419133168
 31
0.0
  0
ENDBLK
  5
2947
  8
0
  0
BLOCK
  8
0
  2
*U166
 70
     1
 10
0.0
 20
0.0
 30
0.0
  3
*U166
  1

  0
SOLID
  5
2A4B
  8
SAPA_FOGBAND
  6
CONTINUOUS
 62
     2
 10
103.23535415210949
 20
-19.134104520824639
 30
0.0
 11
103.05507658833631
 21
-19.208777932731081
 31
0.0
 12
103.4156317158827
 22
-19.208777932731081
 32
0.0
 13
103.4156317158827
 23
-19.208777932731081
 33
0.0
210
0.0
220
0.0
230
1.0
  0
SOLID
  5
2A4C
  8
SAPA_FOGBAND
  6
CONTINUOUS
 62
     2
 10
103.05507658833631
 20
-19.208777932731081
 30
0.0
 11
102.9804031764299
 21
-19.38905549650428
 31
0.0
 12
103.4903051277891
 22
-19.38905549650428
 32
0.0
 13
103.4903051277891
 23
-19.38905549650428
 33
0.0
210
0.0
220
0.0
230
1.0
  0
SOLID
  5
2A4D
  8
SAPA_FOGBAND
  6
CONTINUOUS
 62
     2
 10
-103.05507658833631
 20
-19.208777932731081
 30
0.0
 11
-103.4156317158827
 21
-19.208777932731081
 31
0.0
 12
-103.4903051277891
 22
-19.38905549650428
 32
0.0
 13
-103.4903051277891
 23
-19.38905549650428
 33
0.0
210
0.0
220
0.0
230
-1.0
  0
SOLID
  5
2A4E
  8
SAPA_FOGBAND
  6
CONTINUOUS
 62
     2
 10
-103.05507658833631
 20
-19.569333060277479
 30
0.0
 11
-103.4156317158827
 21
-19.569333060277479
 31
0.0
 12
-103.23535415210949
 22
-19.644006472183921
 32
0.0
 13
-103.23535415210949
 23
-19.644006472183921
 33
0.0
210
0.0
220
0.0
230
-1.0
  0
SOLID
  5
2A4F
  8
SAPA_FOGBAND
  6
CONTINUOUS
 62
     2
 10
102.9804031764299
 20
-19.38905549650428
 30
0.0
 11
103.05507658833631
 21
-19.569333060277479
 31
0.0
 12
103.4156317158827
 22
-19.569333060277479
 32
0.0
 13
103.4156317158827
 23
-19.569333060277479
 33
0.0
210
0.0
220
0.0
230
1.0
  0
SOLID
  5
2A50
  8
SAPA_FOGBAND
  6
CONTINUOUS
 62
     2
 10
-102.9804031764299
 20
-19.38905549650428
 30
0.0
 11
-103.4903051277891
 21
-19.38905549650428
 31
0.0
 12
-103.4156317158827
 22
-19.569333060277479
 32
0.0
 13
-103.4156317158827
 23
-19.569333060277479
 33
0.0
210
0.0
220
0.0
230
-1.0
  0
LINE
  5
2A51
  8
SAPA_FOGBAND
  6
CONTINUOUS
 62
     2
 10
103.23535415210949
 20
-19.134104520824639
 30
0.0
 11
103.05507658833631
 21
-19.208777932731081
 31
0.0
  0
LINE
  5
2A52
  8
SAPA_FOGBAND
  6
CONTINUOUS
 62
     2
 10
103.4156317158827
 20
-19.208777932731081
 30
0.0
 11
103.23535415210949
 21
-19.134104520824639
 31
0.0
  0
LINE
  5
2A53
  8
SAPA_FOGBAND
  6
CONTINUOUS
 62
     2
 10
103.05507658833631
 20
-19.208777932731081
 30
0.0
 11
102.9804031764299
 21
-19.38905549650428
 31
0.0
  0
LINE
  5
2A54
  8
SAPA_FOGBAND
  6
CONTINUOUS
 62
     2
 10
103.4156317158827
 20
-19.208777932731081
 30
0.0
 11
103.4903051277891
 21
-19.38905549650428
 31
0.0
  0
LINE
  5
2A55
  8
SAPA_FOGBAND
  6
CONTINUOUS
 62
     2
 10
103.4156317158827
 20
-19.569333060277479
 30
0.0
 11
103.23535415210949
 21
-19.644006472183921
 31
0.0
  0
LINE
  5
2A56
  8
SAPA_FOGBAND
  6
CONTINUOUS
 62
     2
 10
103.23535415210949
 20
-19.644006472183921
 30
0.0
 11
103.05507658833631
 21
-19.569333060277479
 31
0.0
  0
LINE
  5
2A57
  8
SAPA_FOGBAND
  6
CONTINUOUS
 62
     2
 10
102.9804031764299
 20
-19.38905549650428
 30
0.0
 11
103.05507658833631
 21
-19.569333060277479
 31
0.0
  0
LINE
  5
2A58
  8
SAPA_FOGBAND
  6
CONTINUOUS
 62
     2
 10
103.4903051277891
 20
-19.38905549650428
 30
0.0
 11
103.4156317158827
 21
-19.569333060277479
 31
0.0
  0
ENDBLK
  5
2A5A
  8
0
  0
BLOCK
  8
0
  2
*U167
 70
     1
 10
0.0
 20
0.0
 30
0.0
  3
*U167
  1

  0
SOLID
  5
2A85
  8
SAPA_FOGBAND
  6
CONTINUOUS
 62
     2
 10
103.8133055030642
 20
-65.357085693610728
 30
0.0
 11
103.633027939291
 21
-65.431759105517159
 31
0.0
 12
103.9935830668374
 22
-65.431759105517159
 32
0.0
 13
103.9935830668374
 23
-65.431759105517159
 33
0.0
210
0.0
220
0.0
230
1.0
  0
SOLID
  5
2A86
  8
SAPA_FOGBAND
  6
CONTINUOUS
 62
     2
 10
103.633027939291
 20
-65.431759105517159
 30
0.0
 11
103.55835452738459
 21
-65.612036669290362
 31
0.0
 12
104.06825647874381
 22
-65.612036669290362
 32
0.0
 13
104.06825647874381
 23
-65.612036669290362
 33
0.0
210
0.0
220
0.0
230
1.0
  0
SOLID
  5
2A87
  8
SAPA_FOGBAND
  6
CONTINUOUS
 62
     2
 10
-103.633027939291
 20
-65.431759105517159
 30
0.0
 11
-103.9935830668374
 21
-65.431759105517159
 31
0.0
 12
-104.06825647874381
 22
-65.612036669290362
 32
0.0
 13
-104.06825647874381
 23
-65.612036669290362
 33
0.0
210
0.0
220
0.0
230
-1.0
  0
SOLID
  5
2A88
  8
SAPA_FOGBAND
  6
CONTINUOUS
 62
     2
 10
-103.633027939291
 20
-65.792314233063564
 30
0.0
 11
-103.9935830668374
 21
-65.792314233063564
 31
0.0
 12
-103.8133055030642
 22
-65.866987644969996
 32
0.0
 13
-103.8133055030642
 23
-65.866987644969996
 33
0.0
210
0.0
220
0.0
230
-1.0
  0
SOLID
  5
2A89
  8
SAPA_FOGBAND
  6
CONTINUOUS
 62
     2
 10
103.55835452738459
 20
-65.612036669290362
 30
0.0
 11
103.633027939291
 21
-65.792314233063564
 31
0.0
 12
103.9935830668374
 22
-65.792314233063564
 32
0.0
 13
103.9935830668374
 23
-65.792314233063564
 33
0.0
210
0.0
220
0.0
230
1.0
  0
SOLID
  5
2A8A
  8
SAPA_FOGBAND
  6
CONTINUOUS
 62
     2
 10
-103.55835452738459
 20
-65.612036669290362
 30
0.0
 11
-104.06825647874381
 21
-65.612036669290362
 31
0.0
 12
-103.9935830668374
 22
-65.792314233063564
 32
0.0
 13
-103.9935830668374
 23
-65.792314233063564
 33
0.0
210
0.0
220
0.0
230
-1.0
  0
LINE
  5
2A8B
  8
SAPA_FOGBAND
  6
CONTINUOUS
 62
     2
 10
103.8133055030642
 20
-65.357085693610728
 30
0.0
 11
103.633027939291
 21
-65.431759105517159
 31
0.0
  0
LINE
  5
2A8C
  8
SAPA_FOGBAND
  6
CONTINUOUS
 62
     2
 10
103.9935830668374
 20
-65.431759105517159
 30
0.0
 11
103.8133055030642
 21
-65.357085693610728
 31
0.0
  0
LINE
  5
2A8D
  8
SAPA_FOGBAND
  6
CONTINUOUS
 62
     2
 10
103.633027939291
 20
-65.431759105517159
 30
0.0
 11
103.55835452738459
 21
-65.612036669290362
 31
0.0
  0
LINE
  5
2A8E
  8
SAPA_FOGBAND
  6
CONTINUOUS
 62
     2
 10
103.9935830668374
 20
-65.431759105517159
 30
0.0
 11
104.06825647874381
 21
-65.612036669290362
 31
0.0
  0
LINE
  5
2A8F
  8
SAPA_FOGBAND
  6
CONTINUOUS
 62
     2
 10
103.9935830668374
 20
-65.792314233063564
 30
0.0
 11
103.8133055030642
 21
-65.866987644969996
 31
0.0
  0
LINE
  5
2A90
  8
SAPA_FOGBAND
  6
CONTINUOUS
 62
     2
 10
103.8133055030642
 20
-65.866987644969996
 30
0.0
 11
103.633027939291
 21
-65.792314233063564
 31
0.0
  0
LINE
  5
2A91
  8
SAPA_FOGBAND
  6
CONTINUOUS
 62
     2
 10
103.55835452738459
 20
-65.612036669290362
 30
0.0
 11
103.633027939291
 21
-65.792314233063564
 31
0.0
  0
LINE
  5
2A92
  8
SAPA_FOGBAND
  6
CONTINUOUS
 62
     2
 10
104.06825647874381
 20
-65.612036669290362
 30
0.0
 11
103.9935830668374
 21
-65.792314233063564
 31
0.0
  0
ENDBLK
  5
2A94
  8
0
  0
BLOCK
  8
0
  2
*U168
 70
     1
 10
0.0
 20
0.0
 30
0.0
  3
*U168
  1

  0
SOLID
  5
2A9B
  8
SAPA_FOGBAND
  6
CONTINUOUS
 10
18.616845201378961
 20
-74.382617202080866
 30
0.0
 11
18.436567637605759
 21
-74.457290613987297
 31
0.0
 12
18.79712276515216
 22
-74.457290613987297
 32
0.0
 13
18.79712276515216
 23
-74.457290613987297
 33
0.0
210
0.0
220
0.0
230
1.0
  0
SOLID
  5
2A9C
  8
SAPA_FOGBAND
  6
CONTINUOUS
 10
18.436567637605759
 20
-74.457290613987297
 30
0.0
 11
18.36189422569932
 21
-74.6375681777605
 31
0.0
 12
18.871796177058599
 22
-74.6375681777605
 32
0.0
 13
18.871796177058599
 23
-74.6375681777605
 33
0.0
210
0.0
220
0.0
230
1.0
  0
SOLID
  5
2A9D
  8
SAPA_FOGBAND
  6
CONTINUOUS
 10
-18.436567637605759
 20
-74.457290613987297
 30
0.0
 11
-18.79712276515216
 21
-74.457290613987297
 31
0.0
 12
-18.871796177058599
 22
-74.6375681777605
 32
0.0
 13
-18.871796177058599
 23
-74.6375681777605
 33
0.0
210
0.0
220
0.0
230
-1.0
  0
SOLID
  5
2A9E
  8
SAPA_FOGBAND
  6
CONTINUOUS
 10
-18.436567637605759
 20
-74.817845741533702
 30
0.0
 11
-18.79712276515216
 21
-74.817845741533702
 31
0.0
 12
-18.616845201378961
 22
-74.892519153440134
 32
0.0
 13
-18.616845201378961
 23
-74.892519153440134
 33
0.0
210
0.0
220
0.0
230
-1.0
  0
SOLID
  5
2A9F
  8
SAPA_FOGBAND
  6
CONTINUOUS
 10
18.36189422569932
 20
-74.6375681777605
 30
0.0
 11
18.436567637605759
 21
-74.817845741533702
 31
0.0
 12
18.79712276515216
 22
-74.817845741533702
 32
0.0
 13
18.79712276515216
 23
-74.817845741533702
 33
0.0
210
0.0
220
0.0
230
1.0
  0
SOLID
  5
2AA0
  8
SAPA_FOGBAND
  6
CONTINUOUS
 10
-18.36189422569932
 20
-74.6375681777605
 30
0.0
 11
-18.871796177058599
 21
-74.6375681777605
 31
0.0
 12
-18.79712276515216
 22
-74.817845741533702
 32
0.0
 13
-18.79712276515216
 23
-74.817845741533702
 33
0.0
210
0.0
220
0.0
230
-1.0
  0
LINE
  5
2AA1
  8
SAPA_FOGBAND
  6
CONTINUOUS
 10
18.616845201378961
 20
-74.382617202080866
 30
0.0
 11
18.436567637605759
 21
-74.457290613987297
 31
0.0
  0
LINE
  5
2AA2
  8
SAPA_FOGBAND
  6
CONTINUOUS
 10
18.79712276515216
 20
-74.457290613987297
 30
0.0
 11
18.616845201378961
 21
-74.382617202080866
 31
0.0
  0
LINE
  5
2AA3
  8
SAPA_FOGBAND
  6
CONTINUOUS
 10
18.436567637605759
 20
-74.457290613987297
 30
0.0
 11
18.36189422569932
 21
-74.6375681777605
 31
0.0
  0
LINE
  5
2AA4
  8
SAPA_FOGBAND
  6
CONTINUOUS
 10
18.79712276515216
 20
-74.457290613987297
 30
0.0
 11
18.871796177058599
 21
-74.6375681777605
 31
0.0
  0
LINE
  5
2AA5
  8
SAPA_FOGBAND
  6
CONTINUOUS
 10
18.79712276515216
 20
-74.817845741533702
 30
0.0
 11
18.616845201378961
 21
-74.892519153440134
 31
0.0
  0
LINE
  5
2AA6
  8
SAPA_FOGBAND
  6
CONTINUOUS
 10
18.616845201378961
 20
-74.892519153440134
 30
0.0
 11
18.436567637605759
 21
-74.817845741533702
 31
0.0
  0
LINE
  5
2AA7
  8
SAPA_FOGBAND
  6
CONTINUOUS
 10
18.36189422569932
 20
-74.6375681777605
 30
0.0
 11
18.436567637605759
 21
-74.817845741533702
 31
0.0
  0
LINE
  5
2AA8
  8
SAPA_FOGBAND
  6
CONTINUOUS
 10
18.871796177058599
 20
-74.6375681777605
 30
0.0
 11
18.79712276515216
 21
-74.817845741533702
 31
0.0
  0
ENDBLK
  5
2AAA
  8
0
  0
BLOCK
  8
0
  2
*U169
 70
     1
 10
0.0
 20
0.0
 30
0.0
  3
*U169
  1

  0
SOLID
  5
2B17
  8
SAPA_FOGBAND
  6
CONTINUOUS
 10
-18.629356795612811
 20
-74.773515879680332
 30
0.0
 11
-18.809634359385999
 21
-74.848189291586763
 31
0.0
 12
-18.449079231839612
 22
-74.848189291586763
 32
0.0
 13
-18.449079231839612
 23
-74.848189291586763
 33
0.0
210
0.0
220
0.0
230
1.0
  0
SOLID
  5
2B18
  8
SAPA_FOGBAND
  6
CONTINUOUS
 10
-18.809634359385999
 20
-74.848189291586763
 30
0.0
 11
-18.884307771292448
 21
-75.028466855359966
 31
0.0
 12
-18.374405819933159
 22
-75.028466855359966
 32
0.0
 13
-18.374405819933159
 23
-75.028466855359966
 33
0.0
210
0.0
220
0.0
230
1.0
  0
SOLID
  5
2B19
  8
SAPA_FOGBAND
  6
CONTINUOUS
 10
18.809634359385999
 20
-74.848189291586763
 30
0.0
 11
18.449079231839612
 21
-74.848189291586763
 31
0.0
 12
18.374405819933159
 22
-75.028466855359966
 32
0.0
 13
18.374405819933159
 23
-75.028466855359966
 33
0.0
210
0.0
220
0.0
230
-1.0
  0
SOLID
  5
2B1A
  8
SAPA_FOGBAND
  6
CONTINUOUS
 10
18.809634359385999
 20
-75.208744419133168
 30
0.0
 11
18.449079231839612
 21
-75.208744419133168
 31
0.0
 12
18.629356795612811
 22
-75.2834178310396
 32
0.0
 13
18.629356795612811
 23
-75.2834178310396
 33
0.0
210
0.0
220
0.0
230
-1.0
  0
SOLID
  5
2B1B
  8
SAPA_FOGBAND
  6
CONTINUOUS
 10
-18.884307771292448
 20
-75.028466855359966
 30
0.0
 11
-18.809634359385999
 21
-75.208744419133168
 31
0.0
 12
-18.449079231839612
 22
-75.208744419133168
 32
0.0
 13
-18.449079231839612
 23
-75.208744419133168
 33
0.0
210
0.0
220
0.0
230
1.0
  0
SOLID
  5
2B1C
  8
SAPA_FOGBAND
  6
CONTINUOUS
 10
18.884307771292448
 20
-75.028466855359966
 30
0.0
 11
18.374405819933159
 21
-75.028466855359966
 31
0.0
 12
18.449079231839612
 22
-75.208744419133168
 32
0.0
 13
18.449079231839612
 23
-75.208744419133168
 33
0.0
210
0.0
220
0.0
230
-1.0
  0
LINE
  5
2B1D
  8
SAPA_FOGBAND
  6
CONTINUOUS
 10
-18.629356795612811
 20
-74.773515879680332
 30
0.0
 11
-18.809634359385999
 21
-74.848189291586763
 31
0.0
  0
LINE
  5
2B1E
  8
SAPA_FOGBAND
  6
CONTINUOUS
 10
-18.449079231839612
 20
-74.848189291586763
 30
0.0
 11
-18.629356795612811
 21
-74.773515879680332
 31
0.0
  0
LINE
  5
2B1F
  8
SAPA_FOGBAND
  6
CONTINUOUS
 10
-18.809634359385999
 20
-74.848189291586763
 30
0.0
 11
-18.884307771292448
 21
-75.028466855359966
 31
0.0
  0
LINE
  5
2B20
  8
SAPA_FOGBAND
  6
CONTINUOUS
 10
-18.449079231839612
 20
-74.848189291586763
 30
0.0
 11
-18.374405819933159
 21
-75.028466855359966
 31
0.0
  0
LINE
  5
2B21
  8
SAPA_FOGBAND
  6
CONTINUOUS
 10
-18.449079231839612
 20
-75.208744419133168
 30
0.0
 11
-18.629356795612811
 21
-75.2834178310396
 31
0.0
  0
LINE
  5
2B22
  8
SAPA_FOGBAND
  6
CONTINUOUS
 10
-18.629356795612811
 20
-75.2834178310396
 30
0.0
 11
-18.809634359385999
 21
-75.208744419133168
 31
0.0
  0
LINE
  5
2B23
  8
SAPA_FOGBAND
  6
CONTINUOUS
 10
-18.884307771292448
 20
-75.028466855359966
 30
0.0
 11
-18.809634359385999
 21
-75.208744419133168
 31
0.0
  0
LINE
  5
2B24
  8
SAPA_FOGBAND
  6
CONTINUOUS
 10
-18.374405819933159
 20
-75.028466855359966
 30
0.0
 11
-18.449079231839612
 21
-75.208744419133168
 31
0.0
  0
ENDBLK
  5
2B26
  8
0
  0
BLOCK
  8
0
  2
*U170
 70
     1
 10
0.0
 20
0.0
 30
0.0
  3
*U170
  1

  0
TEXT
  5
2C18
  8
SAPA_MATT
 62
     2
 10
53.149999999720549
 20
-114.3256531728245
 30
0.0
 40
3.0
  1
63.5
  7
ISO
  0
ENDBLK
  5
2C1A
  8
0
  0
BLOCK
  8
0
  2
*U171
 70
     1
 10
0.0
 20
0.0
 30
0.0
  3
*U171
  1

  0
TEXT
  5
2C1C
  8
SAPA_MATT
 62
     2
 10
-2.0999999999996581
 20
-114.3256531728245
 30
0.0
 40
3.0
  1
50
  7
ISO
  0
ENDBLK
  5
2C1E
  8
0
  0
ENDSEC
  0
SECTION
  2
ENTITIES
  0
POLYLINE
  5
835
  8
SAPA_LIGHT
 66
     1
 10
0.0
 20
0.0
 30
0.0
  0
VERTEX
  5
1B9E
  8
SAPA_LIGHT
 10
-24.999999999999719
 20
-96.499999999010583
 30
0.0
  0
VERTEX
  5
1B9F
  8
SAPA_LIGHT
 10
-24.999999999999659
 20
-72.499999999011749
 30
0.0
  0
VERTEX
  5
1BA0
  8
SAPA_LIGHT
 10
-5.0000000000005107
 20
-72.499999999011763
 30
0.0
  0
VERTEX
  5
1BA1
  8
SAPA_LIGHT
 10
-5.0000000000005107
 20
-45.499999999010129
 30
0.0
  0
VERTEX
  5
1BA2
  8
SAPA_LIGHT
 10
-25.000000000000281
 20
-45.499999999010143
 30
0.0
  0
VERTEX
  5
1BA3
  8
SAPA_LIGHT
 10
-25.000000000000281
 20
64.499999999998892
 30
0.0
  0
VERTEX
  5
1BA4
  8
SAPA_LIGHT
 10
24.999999999999719
 20
64.499999999998892
 30
0.0
  0
VERTEX
  5
1BA5
  8
SAPA_LIGHT
 10
24.999999999999719
 20
-49.000000031211577
 30
0.0
  0
VERTEX
  5
1BA6
  8
SAPA_LIGHT
 10
4.9999999999997149
 20
-49.000000031211577
 30
0.0
  0
VERTEX
  5
1BA7
  8
SAPA_LIGHT
 10
4.9999999999997149
 20
-73.49999998637054
 30
0.0
  0
VERTEX
  5
1BA8
  8
SAPA_LIGHT
 10
25.000000000000281
 20
-73.499999986370597
 30
0.0
  0
VERTEX
  5
1BA9
  8
SAPA_LIGHT
 10
25.000000000000281
 20
-96.499999999010583
 30
0.0
  0
VERTEX
  5
1BAA
  8
SAPA_LIGHT
 10
-24.999999999999719
 20
-96.499999999010583
 30
0.0
  0
SEQEND
  5
1BAB
  8
SAPA_LIGHT
  0
POLYLINE
  5
836
  8
SAPA_LIGHT
 66
     1
 10
0.0
 20
0.0
 30
0.0
  0
VERTEX
  5
1BAC
  8
SAPA_LIGHT
 10
-40.999999999995111
 20
-72.49999999901172
 30
0.0
  0
VERTEX
  5
1BAD
  8
SAPA_LIGHT
 10
-10.99999999999511
 20
-72.49999999901172
 30
0.0
  0
VERTEX
  5
1BAE
  8
SAPA_LIGHT
 10
-10.99999999999512
 20
-45.499999999010129
 30
0.0
  0
VERTEX
  5
1BAF
  8
SAPA_LIGHT
 10
-40.999999999995111
 20
-45.499999999010129
 30
0.0
  0
SEQEND
  5
1BB0
  8
SAPA_LIGHT
  0
POLYLINE
  5
837
  8
SAPA_LIGHT
 66
     1
 10
0.0
 20
0.0
 30
0.0
  0
VERTEX
  5
1BB1
  8
SAPA_LIGHT
 10
24.999999999999719
 20
0.5000000065477721
 30
0.0
  0
VERTEX
  5
1BB2
  8
SAPA_LIGHT
 10
76.000000000002444
 20
0.5000000065477723
 30
0.0
  0
VERTEX
  5
1BB3
  8
SAPA_LIGHT
 10
76.000000000002331
 20
-73.499999989503735
 30
0.0
  0
VERTEX
  5
1BB4
  8
SAPA_LIGHT
 10
9.0000000000351861
 20
-73.499999989503877
 30
0.0
  0
VERTEX
  5
1BB5
  8
SAPA_LIGHT
 10
9.0000000000351861
 20
-49.000000031211577
 30
0.0
  0
VERTEX
  5
1BB6
  8
SAPA_LIGHT
 10
24.999999999999719
 20
-49.000000031215208
 30
0.0
  0
VERTEX
  5
1BB7
  8
SAPA_LIGHT
 10
24.999999999999719
 20
0.5000000065477721
 30
0.0
  0
SEQEND
  5
1BB8
  8
SAPA_LIGHT
  0
POLYLINE
  5
839
  8
SAPA_LIGHT
 66
     1
 10
0.0
 20
0.0
 30
0.0
  0
VERTEX
  5
1BB9
  8
SAPA_LIGHT
 10
72.83409818242211
 20
2.000000873194125
 30
0.0
  0
VERTEX
  5
1BBA
  8
SAPA_LIGHT
 10
72.83409818242211
 20
4.5000008731941534
 30
0.0
  0
VERTEX
  5
1BBB
  8
SAPA_LIGHT
 10
81.500000076061426
 20
4.5000008731941561
 30
0.0
  0
VERTEX
  5
1BBC
  8
SAPA_LIGHT
 10
81.500000076061426
 20
-6.0999991268057521
 30
0.0
  0
VERTEX
  5
1BBD
  8
SAPA_LIGHT
 10
113.07612046749151
 20
-6.0999991268057467
 30
0.0
  0
VERTEX
  5
1BBE
  8
SAPA_LIGHT
 10
113.07612046749151
 20
-66.903640524779476
 30
0.0
  0
VERTEX
  5
1BBF
  8
SAPA_LIGHT
 10
81.500000076061426
 20
-66.903640524779746
 30
0.0
  0
VERTEX
  5
1BC0
  8
SAPA_LIGHT
 10
81.500000076061326
 20
-77.499999126805861
 30
0.0
  0
VERTEX
  5
1BC1
  8
SAPA_LIGHT
 10
73.05857871982397
 20
-77.499999126806031
 30
0.0
  0
VERTEX
  5
1BC2
  8
SAPA_LIGHT
 10
73.05857871982397
 20
-74.999999126805847
 30
0.0
  0
VERTEX
  5
1BC3
  8
SAPA_LIGHT
 10
76.000000000002331
 20
-74.999999126805875
 30
0.0
  0
VERTEX
  5
1BC4
  8
SAPA_LIGHT
 10
76.00000007606144
 20
2.000000873194125
 30
0.0
  0
VERTEX
  5
1BC5
  8
SAPA_LIGHT
 10
72.83409818242211
 20
2.000000873194125
 30
0.0
  0
SEQEND
  5
1BC6
  8
SAPA_LIGHT
  0
POLYLINE
  5
83A
  8
SAPA_LIGHT
 66
     1
 10
0.0
 20
0.0
 30
0.0
  0
VERTEX
  5
1BC7
  8
SAPA_LIGHT
 10
113.07612046749151
 20
-6.4999990748423198
 30
0.0
  0
VERTEX
  5
1BC8
  8
SAPA_LIGHT
 10
169.00000000000281
 20
-6.4999990748423189
 30
0.0
  0
VERTEX
  5
1BC9
  8
SAPA_LIGHT
 10
169.00000000000281
 20
-11.025592636620569
 30
0.0
  0
VERTEX
  5
1BCA
  8
SAPA_LIGHT
 10
190.9209486166036
 20
-11.025592636620569
 30
0.0
  0
VERTEX
  5
1BCB
  8
SAPA_LIGHT
 10
190.9209486166034
 20
-28.597515156488541
 30
0.0
  0
VERTEX
  5
1BCC
  8
SAPA_LIGHT
 10
169.00000000000281
 20
-28.59751515648858
 30
0.0
  0
VERTEX
  5
1BCD
  8
SAPA_LIGHT
 10
169.00000000000281
 20
-52.597515156488399
 30
0.0
  0
VERTEX
  5
1BCE
  8
SAPA_LIGHT
 10
191.00000000000259
 20
-52.597515156488399
 30
0.0
  0
VERTEX
  5
1BCF
  8
SAPA_LIGHT
 10
191.00000000000259
 20
-61.999999074842329
 30
0.0
  0
VERTEX
  5
1BD0
  8
SAPA_LIGHT
 10
170.74264068712171
 20
-61.999999074842322
 30
0.0
  0
VERTEX
  5
1BD1
  8
SAPA_LIGHT
 10
170.74264068712199
 20
-66.499999074842322
 30
0.0
  0
VERTEX
  5
1BD2
  8
SAPA_LIGHT
 10
113.07612046749151
 20
-66.49999907484235
 30
0.0
  0
VERTEX
  5
1BD3
  8
SAPA_LIGHT
 10
113.07612046749151
 20
-6.4999990748423198
 30
0.0
  0
SEQEND
  5
1BD4
  8
SAPA_LIGHT
  0
POLYLINE
  5
842
  8
SAPA_LIGHT
 66
     1
 10
0.0
 20
0.0
 30
0.0
  0
VERTEX
  5
1BD5
  8
SAPA_LIGHT
 10
202.800000000003
 20
-28.59751515648863
 30
0.0
  0
VERTEX
  5
1BD6
  8
SAPA_LIGHT
 10
174.00000000000321
 20
-28.597515156488399
 30
0.0
  0
VERTEX
  5
1BD7
  8
SAPA_LIGHT
 10
174.00000000000321
 20
-52.597515156488399
 30
0.0
  0
VERTEX
  5
1BD8
  8
SAPA_LIGHT
 10
202.800000000003
 20
-52.597515156488399
 30
0.0
  0
SEQEND
  5
1BD9
  8
SAPA_LIGHT
  0
INSERT
  5
844
  8
0
  2
*U155
 10
0.0
 20
0.0
 30
0.0
  0
INSERT
  5
845
  8
0
  2
*U156
 10
0.0
 20
0.0
 30
0.0
  0
INSERT
  5
846
  8
0
  2
*U157
 10
0.0
 20
0.0
 30
0.0
  0
INSERT
  5
847
  8
0
  2
*U158
 10
0.0
 20
0.0
 30
0.0
  0
INSERT
  5
848
  8
0
  2
*U159
 10
0.0
 20
0.0
 30
0.0
  0
INSERT
  5
849
  8
0
  2
*U160
 10
0.0
 20
0.0
 30
0.0
  0
INSERT
  5
CF4
  8
0
  2
*U161
 10
0.0
 20
0.0
 30
0.0
  0
INSERT
  5
17CC
  8
BYGG-027036$0$KON
 66
     1
  2
BYGG-027036$0$RH
 10
-559.98359049983696
 20
-386.93657317286142
 30
0.0
 43
-1.0
 50
180.0
210
0.0
220
0.0
230
-1.0
  0
ATTRIB
  5
17CD
  8
BYGG-027036$0$KON
 10
563.18359049983701
 20
-392.23657317286143
 30
0.0
 40
0.3999999999999772
  1
GGFJ
  7
BYGG-027036$0$SIMPLEX
 71
     4
  2
SÄLJARE
 70
     1
  0
ATTRIB
  5
17CE
  8
BYGG-027036$0$KON
 10
563.58359049983687
 20
-388.83657317286128
 30
0.0
 40
0.3000000000000114
  1

  7
BYGG-027036$0$SIMPLEX
 71
     4
 72
     4
 11
563.58359049983687
 21
-388.83657317286128
 31
0.0
  2
DATUM
 70
     0
  0
ATTRIB
  5
17CF
  8
BYGG-027036$0$KON
 10
563.38359049983694
 20
-387.83657317286128
 30
0.0
 40
0.3999999999999772
  1

  7
BYGG-027036$0$SIMPLEX
 71
     4
 72
     4
 11
563.38359049983694
 21
-387.83657317286128
 31
0.0
  2
RITAD:
 70
     1
  0
ATTRIB
  5
17D0
  8
BYGG-027036$0$KON
 10
570.98359049983685
 20
-389.23657317286143
 30
0.0
 40
0.4399999999999978
  1

  7
BYGG-027036$0$SIMPLEX
 71
     4
 72
     4
 11
570.98359049983685
 21
-389.23657317286143
 31
0.0
  2
BENÄMNING
 70
     0
  0
ATTRIB
  5
17D1
  8
BYGG-027036$0$KON
 10
570.98359049983685
 20
-388.43657317286142
 30
0.0
 40
0.4399999999999978
  1

  7
BYGG-027036$0$SIMPLEX
 71
     4
 72
     4
 11
570.98359049983685
 21
-388.43657317286142
 31
0.0
  2
GUMMI-HÅRDHET-FÄRG
 70
     0
  0
ATTRIB
  5
17D2
  8
BYGG-027036$0$KON
 10
570.98359049983685
 20
-387.63657317286129
 30
0.0
 40
0.4399999999999978
  1

  7
BYGG-027036$0$SIMPLEX
 71
     4
 72
     4
 11
570.98359049983685
 21
-387.63657317286129
 31
0.0
  2
KUND
 70
     0
  0
ATTRIB
  5
17D3
  8
BYGG-027036$0$KON
 10
578.78359049983681
 20
-388.93657317286142
 30
0.0
 40
0.3999999999999772
  1

  7
BYGG-027036$0$SIMPLEX
 71
     4
 72
     4
 11
578.78359049983681
 21
-388.93657317286142
 31
0.0
  2
SKALA:
 70
     1
  0
ATTRIB
  5
17D4
  8
BYGG-027036$0$KON
 10
578.38359049983694
 20
-387.73657317286143
 30
0.0
 40
0.3999999999999772
  1

  7
BYGG-027036$0$SIMPLEX
 71
     4
 72
     4
 11
578.38359049983694
 21
-387.73657317286143
 31
0.0
  2
RIT.NR:
 70
     0
  0
ATTRIB
  5
17D5
  8
BYGG-027036$0$KON
 10
578.38359049983694
 20
-390.13657317286129
 30
0.0
 40
0.3999999999999772
  1

  7
BYGG-027036$0$SIMPLEX
 71
     4
 72
     4
 11
578.38359049983694
 21
-390.13657317286129
 31
0.0
  2
DET.NR:
 70
     0
  0
SEQEND
  5
17EF
  8
BYGG-027036$0$KON
  0
INSERT
  5
17D6
  8
BYGG-027036$0$KON
 66
     1
  2
BYGG-027036$0$RH
 10
-559.98359049983696
 20
-386.93657317286142
 30
0.0
 43
-1.0
 50
180.0
210
0.0
220
0.0
230
-1.0
  0
ATTRIB
  5
17D7
  8
BYGG-027036$0$KON
 10
570.98359049983685
 20
-389.23657317286143
 30
0.0
 40
0.4399999999999978
  1

  7
BYGG-027036$0$SIMPLEX
 71
     4
 72
     4
 11
570.98359049983685
 21
-389.23657317286143
 31
0.0
  2
BENÄMNING
 70
     0
  0
ATTRIB
  5
17D8
  8
BYGG-027036$0$KON
 10
570.98359049983685
 20
-388.43657317286142
 30
0.0
 40
0.4399999999999978
  1

  7
BYGG-027036$0$SIMPLEX
 71
     4
 72
     4
 11
570.98359049983685
 21
-388.43657317286142
 31
0.0
  2
GUMMI-HÅRDHET-FÄRG
 70
     0
  0
ATTRIB
  5
17D9
  8
BYGG-027036$0$KON
 10
570.98359049983685
 20
-387.63657317286129
 30
0.0
 40
0.4399999999999978
  1

  7
BYGG-027036$0$SIMPLEX
 71
     4
 72
     4
 11
570.98359049983685
 21
-387.63657317286129
 31
0.0
  2
KUND
 70
     0
  0
ATTRIB
  5
17DA
  8
BYGG-027036$0$KON
 10
578.38359049983694
 20
-387.73657317286143
 30
0.0
 40
0.3999999999999772
  1

  7
BYGG-027036$0$SIMPLEX
 71
     4
 72
     4
 11
578.38359049983694
 21
-387.73657317286143
 31
0.0
  2
RIT.NR:
 70
     0
  0
ATTRIB
  5
17DB
  8
BYGG-027036$0$KON
 10
578.38359049983694
 20
-390.13657317286129
 30
0.0
 40
0.3999999999999772
  1

  7
BYGG-027036$0$SIMPLEX
 71
     4
 72
     4
 11
578.38359049983694
 21
-390.13657317286129
 31
0.0
  2
DET.NR:
 70
     0
  0
ATTRIB
  5
17DC
  8
BYGG-027036$0$KON
 10
578.78359049983681
 20
-388.93657317286142
 30
0.0
 40
0.3999999999999772
  1

  7
BYGG-027036$0$SIMPLEX
 71
     4
 72
     4
 11
578.78359049983681
 21
-388.93657317286142
 31
0.0
  2
SKALA:
 70
     1
  0
ATTRIB
  5
17DD
  8
BYGG-027036$0$KON
 10
563.58359049983687
 20
-388.83657317286128
 30
0.0
 40
0.3000000000000114
  1

  7
BYGG-027036$0$SIMPLEX
 71
     4
 72
     4
 11
563.58359049983687
 21
-388.83657317286128
 31
0.0
  2
DATUM
 70
     0
  0
ATTRIB
  5
17DE
  8
BYGG-027036$0$KON
 10
563.38359049983694
 20
-387.83657317286128
 30
0.0
 40
0.3999999999999772
  1

  7
BYGG-027036$0$SIMPLEX
 71
     4
 72
     4
 11
563.38359049983694
 21
-387.83657317286128
 31
0.0
  2
RITAD:
 70
     1
  0
ATTRIB
  5
17DF
  8
BYGG-027036$0$KON
 10
563.18359049983701
 20
-392.23657317286143
 30
0.0
 40
0.3999999999999772
  1

  7
BYGG-027036$0$SIMPLEX
 71
     4
  2
SÄLJARE
 70
     1
  0
SEQEND
  5
17F0
  8
BYGG-027036$0$KON
  0
INSERT
  5
17E0
  8
BYGG-027036$0$DIM
 66
     1
  2
BYGG-027036$0$RH
 10
-559.98359049983696
 20
-386.93657317286142
 30
0.0
 43
-1.0
 50
180.0
210
0.0
220
0.0
230
-1.0
  0
ATTRIB
  5
17E1
  8
BYGG-027036$0$KON
 10
570.98359049983685
 20
-389.23657317286143
 30
0.0
 40
0.4399999999999978
  1

  7
BYGG-027036$0$SIMPLEX
 71
     4
 72
     4
 11
570.98359049983685
 21
-389.23657317286143
 31
0.0
  2
BENÄMNING
 70
     0
  0
ATTRIB
  5
17E2
  8
BYGG-027036$0$KON
 10
570.98359049983685
 20
-388.43657317286142
 30
0.0
 40
0.4399999999999978
  1

  7
BYGG-027036$0$SIMPLEX
 71
     4
 72
     4
 11
570.98359049983685
 21
-388.43657317286142
 31
0.0
  2
GUMMI-HÅRDHET-FÄRG
 70
     0
  0
ATTRIB
  5
17E3
  8
BYGG-027036$0$KON
 10
570.98359049983685
 20
-387.63657317286129
 30
0.0
 40
0.4399999999999978
  1

  7
BYGG-027036$0$SIMPLEX
 71
     4
 72
     4
 11
570.98359049983685
 21
-387.63657317286129
 31
0.0
  2
KUND
 70
     0
  0
ATTRIB
  5
17E4
  8
BYGG-027036$0$KON
 10
578.38359049983694
 20
-387.73657317286143
 30
0.0
 40
0.3999999999999772
  1

  7
BYGG-027036$0$SIMPLEX
 71
     4
 72
     4
 11
578.38359049983694
 21
-387.73657317286143
 31
0.0
  2
RIT.NR:
 70
     0
  0
ATTRIB
  5
17E5
  8
BYGG-027036$0$KON
 10
578.38359049983694
 20
-390.13657317286129
 30
0.0
 40
0.3999999999999772
  1

  7
BYGG-027036$0$SIMPLEX
 71
     4
 72
     4
 11
578.38359049983694
 21
-390.13657317286129
 31
0.0
  2
DET.NR:
 70
     0
  0
ATTRIB
  5
17E6
  8
BYGG-027036$0$KON
 10
578.78359049983681
 20
-388.93657317286142
 30
0.0
 40
0.3999999999999772
  1

  7
BYGG-027036$0$SIMPLEX
 71
     4
 72
     4
 11
578.78359049983681
 21
-388.93657317286142
 31
0.0
  2
SKALA:
 70
     1
  0
ATTRIB
  5
17E7
  8
BYGG-027036$0$KON
 10
563.58359049983687
 20
-388.83657317286128
 30
0.0
 40
0.3000000000000114
  1

  7
BYGG-027036$0$SIMPLEX
 71
     4
 72
     4
 11
563.58359049983687
 21
-388.83657317286128
 31
0.0
  2
DATUM
 70
     0
  0
ATTRIB
  5
17E8
  8
BYGG-027036$0$KON
 10
563.38359049983694
 20
-387.83657317286128
 30
0.0
 40
0.3999999999999772
  1

  7
BYGG-027036$0$SIMPLEX
 71
     4
 72
     4
 11
563.38359049983694
 21
-387.83657317286128
 31
0.0
  2
RITAD:
 70
     1
  0
ATTRIB
  5
17E9
  8
BYGG-027036$0$KON
 10
563.18359049983701
 20
-392.23657317286143
 30
0.0
 40
0.3999999999999772
  1

  7
BYGG-027036$0$SIMPLEX
 71
     4
  2
SÄLJARE
 70
     1
  0
SEQEND
  5
17F1
  8
BYGG-027036$0$DIM
  0
POLYLINE
  5
19CB
  8
SAPA_PROFIL
 66
     1
 10
0.0
 20
0.0
 30
0.0
 70
     1
  0
VERTEX
  5
220E
  8
SAPA_PROFIL
 10
106.5012645244761
 20
-29.330961018680942
 30
0.0
 42
0.4557262555325856
  0
VERTEX
  5
220F
  8
SAPA_PROFIL
 10
106.9963981071317
 20
-29.900547049522
 30
0.0
  0
VERTEX
  5
2210
  8
SAPA_PROFIL
 10
108.5031419994407
 20
-29.900547049522
 30
0.0
  0
VERTEX
  5
2211
  8
SAPA_PROFIL
 10
108.5031419994407
 20
-31.400547049522011
 30
0.0
  0
VERTEX
  5
2212
  8
SAPA_PROFIL
 10
109.5031419994407
 20
-31.400547049522011
 30
0.0
  0
VERTEX
  5
2213
  8
SAPA_PROFIL
 10
109.5031419994407
 20
-41.633015645737679
 30
0.0
  0
VERTEX
  5
2214
  8
SAPA_PROFIL
 10
110.0031419994407
 20
-42.499041049522098
 30
0.0
  0
VERTEX
  5
2215
  8
SAPA_PROFIL
 10
109.5031419994407
 20
-43.365066453306461
 30
0.0
  0
VERTEX
  5
2216
  8
SAPA_PROFIL
 10
109.5031419994407
 20
-53.597535049522179
 30
0.0
  0
VERTEX
  5
2217
  8
SAPA_PROFIL
 10
108.5031419994407
 20
-53.597535049522179
 30
0.0
  0
VERTEX
  5
2218
  8
SAPA_PROFIL
 10
108.5031419994407
 20
-55.097535049522193
 30
0.0
  0
VERTEX
  5
2219
  8
SAPA_PROFIL
 10
106.5031419994407
 20
-55.097535049522193
 30
0.0
  0
VERTEX
  5
221A
  8
SAPA_PROFIL
 10
105.4744595725427
 20
-60.931482995349178
 30
0.0
 42
0.4142135623730531
  0
VERTEX
  5
221B
  8
SAPA_PROFIL
 10
105.88003936021531
 20
-61.51071096068867
 30
0.0
  0
VERTEX
  5
221C
  8
SAPA_PROFIL
 10
106.3724432367214
 20
-61.597535049522193
 30
0.0
  0
VERTEX
  5
221D
  8
SAPA_PROFIL
 10
106.4939969610882
 20
-60.908169622413553
 30
0.0
 42
-0.6705660098148247
  0
VERTEX
  5
221E
  8
SAPA_PROFIL
 10
107.0363143143416
 20
-60.789815488535247
 30
0.0
  0
VERTEX
  5
221F
  8
SAPA_PROFIL
 10
108.6842531255628
 20
-63.176663897346131
 30
0.0
 42
-0.4103557430781616
  0
VERTEX
  5
2220
  8
SAPA_PROFIL
 10
108.56398327178719
 20
-63.858748132511579
 30
0.0
  0
VERTEX
  5
2221
  8
SAPA_PROFIL
 10
106.1990770964978
 20
-65.538023700799883
 30
0.0
 42
-0.6705660098148535
  0
VERTEX
  5
2222
  8
SAPA_PROFIL
 10
105.7299449793538
 20
-65.241323735667251
 30
0.0
  0
VERTEX
  5
2223
  8
SAPA_PROFIL
 10
105.85149870372059
 20
-64.551958308558753
 30
0.0
  0
VERTEX
  5
2224
  8
SAPA_PROFIL
 10
105.35909482721451
 20
-64.465134219725286
 30
0.0
 42
0.4142135623731039
  0
VERTEX
  5
2225
  8
SAPA_PROFIL
 10
104.77986686187501
 20
-64.870714007397936
 30
0.0
  0
VERTEX
  5
2226
  8
SAPA_PROFIL
 10
104.7030427730415
 20
-65.306405065707864
 30
0.0
  0
VERTEX
  5
2227
  8
SAPA_PROFIL
 10
104.7057133607573
 20
-66.892889044667015
 30
0.0
 42
-0.4147066859862996
  0
VERTEX
  5
2228
  8
SAPA_PROFIL
 10
101.70571761118509
 20
-69.897939049522066
 30
0.0
  0
VERTEX
  5
2229
  8
SAPA_PROFIL
 10
93.999088999440744
 20
-69.897939049522066
 30
0.0
 42
0.6638253569871671
  0
VERTEX
  5
222A
  8
SAPA_PROFIL
 10
93.64111519245364
 20
-70.777125242456663
 30
0.0
  0
VERTEX
  5
222B
  8
SAPA_PROFIL
 10
95.620153390112236
 20
-72.756163440115387
 30
0.0
 42
0.1989123673796449
  0
VERTEX
  5
222C
  8
SAPA_PROFIL
 10
95.973706780705527
 20
-72.902610049522053
 30
0.0
  0
VERTEX
  5
222D
  8
SAPA_PROFIL
 10
107.7919817551057
 20
-72.902610049522053
 30
0.0
 42
0.1989123673796422
  0
VERTEX
  5
222E
  8
SAPA_PROFIL
 10
108.145535145699
 20
-72.756163440115358
 30
0.0
  0
VERTEX
  5
222F
  8
SAPA_PROFIL
 10
113.50628192688551
 20
-67.395416658928781
 30
0.0
 42
-0.1989123673796659
  0
VERTEX
  5
2230
  8
SAPA_PROFIL
 10
113.8598353174788
 20
-67.248970049522057
 30
0.0
  0
VERTEX
  5
2231
  8
SAPA_PROFIL
 10
118.4999999994407
 20
-67.248970049522057
 30
0.0
  0
VERTEX
  5
2232
  8
SAPA_PROFIL
 10
118.4999999994407
 20
-63.99897004952205
 30
0.0
  0
VERTEX
  5
2233
  8
SAPA_PROFIL
 10
119.9999999994407
 20
-62.498970049522057
 30
0.0
  0
VERTEX
  5
2234
  8
SAPA_PROFIL
 10
118.4999999994407
 20
-60.998970049522057
 30
0.0
  0
VERTEX
  5
2235
  8
SAPA_PROFIL
 10
118.4999999994407
 20
-57.400001049522061
 30
0.0
 42
-0.4142140000000165
  0
VERTEX
  5
2236
  8
SAPA_PROFIL
 10
118.9999999994407
 20
-56.900001049522061
 30
0.0
  0
VERTEX
  5
2237
  8
SAPA_PROFIL
 10
120.5031419994407
 20
-56.900001049522061
 30
0.0
 42
0.4142140000000145
  0
VERTEX
  5
2238
  8
SAPA_PROFIL
 10
121.5031419994407
 20
-55.900001049522061
 30
0.0
  0
VERTEX
  5
2239
  8
SAPA_PROFIL
 10
121.5031419994407
 20
-54.900001049522032
 30
0.0
  0
VERTEX
  5
223A
  8
SAPA_PROFIL
 10
114.24432286751809
 20
-52.955005625833671
 30
0.0
 42
-0.3394542338034085
  0
VERTEX
  5
223B
  8
SAPA_PROFIL
 10
113.5031419994407
 20
-51.989079822807952
 30
0.0
  0
VERTEX
  5
223C
  8
SAPA_PROFIL
 10
113.5031419994407
 20
-33.010921141836377
 30
0.0
 42
-0.3394542744563553
  0
VERTEX
  5
223D
  8
SAPA_PROFIL
 10
114.24432300836
 20
-32.044995301072163
 30
0.0
  0
VERTEX
  5
223E
  8
SAPA_PROFIL
 10
121.5031419994407
 20
-30.10000104952201
 30
0.0
  0
VERTEX
  5
223F
  8
SAPA_PROFIL
 10
121.5031419994407
 20
-29.10000104952201
 30
0.0
 42
0.4142139999999982
  0
VERTEX
  5
2240
  8
SAPA_PROFIL
 10
120.5031419994407
 20
-28.10000104952212
 30
0.0
  0
VERTEX
  5
2241
  8
SAPA_PROFIL
 10
119.01273599944069
 20
-28.10000104952201
 30
0.0
 42
-0.4142140000000124
  0
VERTEX
  5
2242
  8
SAPA_PROFIL
 10
118.51273599944069
 20
-27.600001049522039
 30
0.0
  0
VERTEX
  5
2243
  8
SAPA_PROFIL
 10
118.51273599944069
 20
-24.000001049522101
 30
0.0
  0
VERTEX
  5
2244
  8
SAPA_PROFIL
 10
120.01273599944069
 20
-22.500001049522101
 30
0.0
  0
VERTEX
  5
2245
  8
SAPA_PROFIL
 10
118.51273599944069
 20
-21.000001049522101
 30
0.0
  0
VERTEX
  5
2246
  8
SAPA_PROFIL
 10
118.51273599944069
 20
-17.750001049522041
 30
0.0
  0
VERTEX
  5
2247
  8
SAPA_PROFIL
 10
110.5001819424423
 20
-17.750001049522041
 30
0.0
 42
0.3780475071674513
  0
VERTEX
  5
2248
  8
SAPA_PROFIL
 10
107.5236028638454
 20
-20.37586606203871
 30
0.0
  0
VERTEX
  5
2249
  8
SAPA_PROFIL
 10
107.160239451519
 20
-23.266747608117239
 30
0.0
 42
0.4247728136669583
  0
VERTEX
  5
224A
  8
SAPA_PROFIL
 10
108.0469829994407
 20
-24.400547049522061
 30
0.0
  0
VERTEX
  5
224B
  8
SAPA_PROFIL
 10
108.0469829994407
 20
-23.150547049522011
 30
0.0
  0
VERTEX
  5
224C
  8
SAPA_PROFIL
 10
109.1469829994407
 20
-23.150547049522011
 30
0.0
  0
VERTEX
  5
224D
  8
SAPA_PROFIL
 10
109.1469829994407
 20
-28.350547049522081
 30
0.0
  0
VERTEX
  5
224E
  8
SAPA_PROFIL
 10
108.0469829994407
 20
-28.350547049522081
 30
0.0
  0
VERTEX
  5
224F
  8
SAPA_PROFIL
 10
108.0469829994407
 20
-27.100547049522081
 30
0.0
  0
VERTEX
  5
2250
  8
SAPA_PROFIL
 10
107.6734608560879
 20
-27.100547049522081
 30
0.0
 42
0.3760477967976817
  0
VERTEX
  5
2251
  8
SAPA_PROFIL
 10
106.6821655378813
 20
-27.968889949061442
 30
0.0
  0
SEQEND
  5
2252
  8
SAPA_PROFIL
  0
POLYLINE
  5
19CC
  8
SAPA_PROFIL
 66
     1
 10
0.0
 20
0.0
 30
0.0
 70
     1
  0
VERTEX
  5
2253
  8
SAPA_PROFIL
 10
100.49873547440519
 20
-55.66862611373849
 30
0.0
 42
0.4557262555325856
  0
VERTEX
  5
2254
  8
SAPA_PROFIL
 10
100.0036018917496
 20
-55.099040082897432
 30
0.0
  0
VERTEX
  5
2255
  8
SAPA_PROFIL
 10
98.496857999440664
 20
-55.099040082897432
 30
0.0
  0
VERTEX
  5
2256
  8
SAPA_PROFIL
 10
98.496857999440664
 20
-53.599040082897432
 30
0.0
  0
VERTEX
  5
2257
  8
SAPA_PROFIL
 10
97.496857999440664
 20
-53.599040082897432
 30
0.0
  0
VERTEX
  5
2258
  8
SAPA_PROFIL
 10
97.496857999440664
 20
-43.36657148668175
 30
0.0
  0
VERTEX
  5
2259
  8
SAPA_PROFIL
 10
96.996857999440664
 20
-42.500546082897323
 30
0.0
  0
VERTEX
  5
225A
  8
SAPA_PROFIL
 10
97.496857999440664
 20
-41.63452067911296
 30
0.0
  0
VERTEX
  5
225B
  8
SAPA_PROFIL
 10
97.496857999440664
 20
-31.40205208289726
 30
0.0
  0
VERTEX
  5
225C
  8
SAPA_PROFIL
 10
98.496857999440664
 20
-31.40205208289726
 30
0.0
  0
VERTEX
  5
225D
  8
SAPA_PROFIL
 10
98.496857999440664
 20
-29.902052082897239
 30
0.0
  0
VERTEX
  5
225E
  8
SAPA_PROFIL
 10
100.49685799944061
 20
-29.90205208289726
 30
0.0
  0
VERTEX
  5
225F
  8
SAPA_PROFIL
 10
101.52554042633869
 20
-24.068104137070261
 30
0.0
 42
0.4142135623730531
  0
VERTEX
  5
2260
  8
SAPA_PROFIL
 10
101.1199606386661
 20
-23.48887617173078
 30
0.0
  0
VERTEX
  5
2261
  8
SAPA_PROFIL
 10
100.62755676216
 20
-23.40205208289726
 30
0.0
  0
VERTEX
  5
2262
  8
SAPA_PROFIL
 10
100.50600303779321
 20
-24.0914175100059
 30
0.0
 42
-0.6705660098148247
  0
VERTEX
  5
2263
  8
SAPA_PROFIL
 10
99.963685684539811
 20
-24.209771643884199
 30
0.0
  0
VERTEX
  5
2264
  8
SAPA_PROFIL
 10
98.315746873318645
 20
-21.822923235073311
 30
0.0
 42
-0.4103557430781616
  0
VERTEX
  5
2265
  8
SAPA_PROFIL
 10
98.436016727094199
 20
-21.14083899990786
 30
0.0
  0
VERTEX
  5
2266
  8
SAPA_PROFIL
 10
100.8009229023836
 20
-19.461563431619549
 30
0.0
 42
-0.6705660098148535
  0
VERTEX
  5
2267
  8
SAPA_PROFIL
 10
101.2700550195275
 20
-19.758263396752199
 30
0.0
  0
VERTEX
  5
2268
  8
SAPA_PROFIL
 10
101.1485012951607
 20
-20.4476288238607
 30
0.0
  0
VERTEX
  5
2269
  8
SAPA_PROFIL
 10
101.6409051716669
 20
-20.53445291269416
 30
0.0
 42
0.4142135623731039
  0
VERTEX
  5
226A
  8
SAPA_PROFIL
 10
102.2201331370063
 20
-20.12887312502151
 30
0.0
  0
VERTEX
  5
226B
  8
SAPA_PROFIL
 10
102.2969572258399
 20
-19.693182066711572
 30
0.0
  0
VERTEX
  5
226C
  8
SAPA_PROFIL
 10
102.29428663812411
 20
-18.106698087752431
 30
0.0
 42
-0.4147066859862996
  0
VERTEX
  5
226D
  8
SAPA_PROFIL
 10
105.2942823876963
 20
-15.10164808289737
 30
0.0
  0
VERTEX
  5
226E
  8
SAPA_PROFIL
 10
113.00091099944071
 20
-15.10164808289737
 30
0.0
 42
0.6638253569871671
  0
VERTEX
  5
226F
  8
SAPA_PROFIL
 10
113.3588848064278
 20
-14.22246188996278
 30
0.0
  0
VERTEX
  5
2270
  8
SAPA_PROFIL
 10
111.3798466087692
 20
-12.243423692304059
 30
0.0
 42
0.1989123673796449
  0
VERTEX
  5
2271
  8
SAPA_PROFIL
 10
111.02629321817589
 20
-12.096977082897389
 30
0.0
  0
VERTEX
  5
2272
  8
SAPA_PROFIL
 10
99.208018243775712
 20
-12.096977082897389
 30
0.0
 42
0.1989123673796422
  0
VERTEX
  5
2273
  8
SAPA_PROFIL
 10
98.854464853182435
 20
-12.24342369230409
 30
0.0
  0
VERTEX
  5
2274
  8
SAPA_PROFIL
 10
93.493718071995886
 20
-17.604170473490651
 30
0.0
 42
-0.1989123673796659
  0
VERTEX
  5
2275
  8
SAPA_PROFIL
 10
93.140164681402609
 20
-17.750617082897381
 30
0.0
  0
VERTEX
  5
2276
  8
SAPA_PROFIL
 10
88.499999999440718
 20
-17.750617082897381
 30
0.0
  0
VERTEX
  5
2277
  8
SAPA_PROFIL
 10
88.499999999440718
 20
-21.000617082897381
 30
0.0
  0
VERTEX
  5
2278
  8
SAPA_PROFIL
 10
86.999999999440718
 20
-22.500617082897381
 30
0.0
  0
VERTEX
  5
2279
  8
SAPA_PROFIL
 10
88.499999999440718
 20
-24.000617082897381
 30
0.0
  0
VERTEX
  5
227A
  8
SAPA_PROFIL
 10
88.499999999440718
 20
-27.599586082897378
 30
0.0
 42
-0.4142140000000165
  0
VERTEX
  5
227B
  8
SAPA_PROFIL
 10
87.999999999440718
 20
-28.099586082897378
 30
0.0
  0
VERTEX
  5
227C
  8
SAPA_PROFIL
 10
86.496857999440707
 20
-28.099586082897378
 30
0.0
 42
0.4142140000000145
  0
VERTEX
  5
227D
  8
SAPA_PROFIL
 10
85.496857999440707
 20
-29.099586082897378
 30
0.0
  0
VERTEX
  5
227E
  8
SAPA_PROFIL
 10
85.496857999440707
 20
-30.0995860828974
 30
0.0
  0
VERTEX
  5
227F
  8
SAPA_PROFIL
 10
92.755677131363257
 20
-32.044581506585772
 30
0.0
 42
-0.3394542338034085
  0
VERTEX
  5
2280
  8
SAPA_PROFIL
 10
93.496857999440664
 20
-33.010507309611477
 30
0.0
  0
VERTEX
  5
2281
  8
SAPA_PROFIL
 10
93.496857999440664
 20
-51.988665990583051
 30
0.0
 42
-0.3394542744563553
  0
VERTEX
  5
2282
  8
SAPA_PROFIL
 10
92.755676990521437
 20
-52.954591831347273
 30
0.0
  0
VERTEX
  5
2283
  8
SAPA_PROFIL
 10
85.496857999440664
 20
-54.899586082897429
 30
0.0
  0
VERTEX
  5
2284
  8
SAPA_PROFIL
 10
85.496857999440664
 20
-55.899586082897429
 30
0.0
 42
0.4142139999999982
  0
VERTEX
  5
2285
  8
SAPA_PROFIL
 10
86.496857999440664
 20
-56.899586082897322
 30
0.0
  0
VERTEX
  5
2286
  8
SAPA_PROFIL
 10
87.987263999440628
 20
-56.899586082897422
 30
0.0
 42
-0.4142140000000124
  0
VERTEX
  5
2287
  8
SAPA_PROFIL
 10
88.487263999440643
 20
-57.3995860828974
 30
0.0
  0
VERTEX
  5
2288
  8
SAPA_PROFIL
 10
88.487263999440643
 20
-60.999586082897338
 30
0.0
  0
VERTEX
  5
2289
  8
SAPA_PROFIL
 10
86.987263999440643
 20
-62.499586082897338
 30
0.0
  0
VERTEX
  5
228A
  8
SAPA_PROFIL
 10
88.487263999440643
 20
-63.999586082897331
 30
0.0
  0
VERTEX
  5
228B
  8
SAPA_PROFIL
 10
88.487263999440643
 20
-67.249586082897395
 30
0.0
  0
VERTEX
  5
228C
  8
SAPA_PROFIL
 10
96.499818056439025
 20
-67.249586082897395
 30
0.0
 42
0.3780475071674513
  0
VERTEX
  5
228D
  8
SAPA_PROFIL
 10
99.476397135035995
 20
-64.623721070380725
 30
0.0
  0
VERTEX
  5
228E
  8
SAPA_PROFIL
 10
99.839760547362346
 20
-61.732839524302193
 30
0.0
 42
0.4247728136669583
  0
VERTEX
  5
228F
  8
SAPA_PROFIL
 10
98.953016999440678
 20
-60.599040082897382
 30
0.0
  0
VERTEX
  5
2290
  8
SAPA_PROFIL
 10
98.953016999440678
 20
-61.849040082897432
 30
0.0
  0
VERTEX
  5
2291
  8
SAPA_PROFIL
 10
97.853016999440655
 20
-61.849040082897432
 30
0.0
  0
VERTEX
  5
2292
  8
SAPA_PROFIL
 10
97.853016999440655
 20
-56.649040082897351
 30
0.0
  0
VERTEX
  5
2293
  8
SAPA_PROFIL
 10
98.953016999440678
 20
-56.649040082897351
 30
0.0
  0
VERTEX
  5
2294
  8
SAPA_PROFIL
 10
98.953016999440678
 20
-57.899040082897351
 30
0.0
  0
VERTEX
  5
2295
  8
SAPA_PROFIL
 10
99.32653914279345
 20
-57.899040082897351
 30
0.0
 42
0.3760477967976817
  0
VERTEX
  5
2296
  8
SAPA_PROFIL
 10
100.317834461
 20
-57.030697183358001
 30
0.0
  0
SEQEND
  5
2297
  8
SAPA_PROFIL
  0
POLYLINE
  5
19CD
  8
SAPA_PROFIL
 66
     1
 10
0.0
 20
0.0
 30
0.0
 70
     1
  0
VERTEX
  5
2298
  8
SAPA_PROFIL
 10
72.843799654283629
 20
-48.348755473865559
 30
0.0
 42
-0.5773502691897452
  0
VERTEX
  5
2299
  8
SAPA_PROFIL
 10
72.660845914173478
 20
-48.054599173610733
 30
0.0
  0
VERTEX
  5
229A
  8
SAPA_PROFIL
 10
72.812979825282241
 20
-47.769916890379079
 30
0.0
 42
-0.2216946626430179
  0
VERTEX
  5
229B
  8
SAPA_PROFIL
 10
73.353859656759028
 20
-47.364107985224287
 30
0.0
  0
VERTEX
  5
229C
  8
SAPA_PROFIL
 10
75.167090127417254
 20
-46.982661389096577
 30
0.0
 42
-0.476975532698164
  0
VERTEX
  5
229D
  8
SAPA_PROFIL
 10
75.538747002363152
 20
-47.284914213603038
 30
0.0
  0
VERTEX
  5
229E
  8
SAPA_PROFIL
 10
75.538663394479485
 20
-48.788015294365053
 30
0.0
  0
VERTEX
  5
229F
  8
SAPA_PROFIL
 10
75.490817644481012
 20
-48.802533703612163
 30
0.0
 42
0.4142135623730957
  0
VERTEX
  5
22A0
  8
SAPA_PROFIL
 10
75.290853599973616
 20
-49.176718659087967
 30
0.0
  0
VERTEX
  5
22A1
  8
SAPA_PROFIL
 10
75.799999999284836
 20
-50.494016335323842
 30
0.0
  0
VERTEX
  5
22A2
  8
SAPA_PROFIL
 10
75.799999999284807
 20
-53.490283244604939
 30
0.0
 42
-0.2562769743570943
  0
VERTEX
  5
22A3
  8
SAPA_PROFIL
 10
75.707469000536378
 20
-53.658955749092158
 30
0.0
  0
VERTEX
  5
22A4
  8
SAPA_PROFIL
 10
74.461203501162203
 20
-54.453008750909113
 30
0.0
 42
-0.5920056172513193
  0
VERTEX
  5
22A5
  8
SAPA_PROFIL
 10
73.999999999284768
 20
-54.199999994178263
 30
0.0
  0
VERTEX
  5
22A6
  8
SAPA_PROFIL
 10
73.999999999284825
 20
-52.799999994178258
 30
0.0
 42
0.4142135623731021
  0
VERTEX
  5
22A7
  8
SAPA_PROFIL
 10
73.699999999284813
 20
-52.499999994178239
 30
0.0
  0
VERTEX
  5
22A8
  8
SAPA_PROFIL
 10
71.299999999284722
 20
-52.499999994178232
 30
0.0
 42
0.4142135623731402
  0
VERTEX
  5
22A9
  8
SAPA_PROFIL
 10
70.999999999284739
 20
-52.799999994178258
 30
0.0
  0
VERTEX
  5
22AA
  8
SAPA_PROFIL
 10
70.999999999284711
 20
-70.199999994178512
 30
0.0
 42
0.4142135623730796
  0
VERTEX
  5
22AB
  8
SAPA_PROFIL
 10
71.299999999284694
 20
-70.499999994178523
 30
0.0
  0
VERTEX
  5
22AC
  8
SAPA_PROFIL
 10
73.699999999284728
 20
-70.49999999417858
 30
0.0
 42
0.4142135623731315
  0
VERTEX
  5
22AD
  8
SAPA_PROFIL
 10
73.999999999284825
 20
-70.199999994178569
 30
0.0
  0
VERTEX
  5
22AE
  8
SAPA_PROFIL
 10
73.999999999284739
 20
-68.799999994178506
 30
0.0
 42
-0.5877032589249549
  0
VERTEX
  5
22AF
  8
SAPA_PROFIL
 10
74.457960206412423
 20
-68.544953776868411
 30
0.0
  0
VERTEX
  5
22B0
  8
SAPA_PROFIL
 10
75.905306804036584
 20
-69.441352754110625
 30
0.0
 42
-0.2596812337301922
  0
VERTEX
  5
22B1
  8
SAPA_PROFIL
 10
75.999999999284825
 20
-69.611383565650726
 30
0.0
  0
VERTEX
  5
22B2
  8
SAPA_PROFIL
 10
75.999999999284825
 20
-72.199999999010245
 30
0.0
 42
-0.4142135623730864
  0
VERTEX
  5
22B3
  8
SAPA_PROFIL
 10
75.699999999284813
 20
-72.499999999010242
 30
0.0
  0
VERTEX
  5
22B4
  8
SAPA_PROFIL
 10
9.4999999992715232
 20
-72.499999999010043
 30
0.0
 42
-0.4142135623560339
  0
VERTEX
  5
22B5
  8
SAPA_PROFIL
 10
8.9999999992715232
 20
-71.999999999039161
 30
0.0
  0
VERTEX
  5
22B6
  8
SAPA_PROFIL
 10
8.9999999990596535
 20
-68.302569149186127
 30
0.0
 42
-0.4142135623902403
  0
VERTEX
  5
22B7
  8
SAPA_PROFIL
 10
9.2999999990597075
 20
-68.002569149168636
 30
0.0
  0
VERTEX
  5
22B8
  8
SAPA_PROFIL
 10
10.06754446708606
 20
-68.002569149168551
 30
0.0
 42
-0.2896898632854853
  0
VERTEX
  5
22B9
  8
SAPA_PROFIL
 10
10.97105236996391
 20
-68.57399772053941
 30
0.0
 42
-0.5507604245881251
  0
VERTEX
  5
22BA
  8
SAPA_PROFIL
 10
10.69999999911837
 20
-69.00256914912795
 30
0.0
  0
VERTEX
  5
22BB
  8
SAPA_PROFIL
 10
10.49999999909563
 20
-69.002569149139617
 30
0.0
 42
0.4142135623681871
  0
VERTEX
  5
22BC
  8
SAPA_PROFIL
 10
10.19999999911313
 20
-69.302569149152035
 30
0.0
  0
VERTEX
  5
22BD
  8
SAPA_PROFIL
 10
10.199999999172739
 20
-70.800000000163124
 30
0.0
 42
0.4142135623609537
  0
VERTEX
  5
22BE
  8
SAPA_PROFIL
 10
10.699999999172769
 20
-71.300000000163195
 30
0.0
  0
VERTEX
  5
22BF
  8
SAPA_PROFIL
 10
13.999999999173619
 20
-71.300000000163124
 30
0.0
 42
0.4142135623852031
  0
VERTEX
  5
22C0
  8
SAPA_PROFIL
 10
14.49999999917361
 20
-70.800000000142504
 30
0.0
  0
VERTEX
  5
22C1
  8
SAPA_PROFIL
 10
14.49999999911398
 20
-69.302569148911758
 30
0.0
 42
0.4142135623779909
  0
VERTEX
  5
22C2
  8
SAPA_PROFIL
 10
14.199999999096519
 20
-69.002569148924209
 30
0.0
  0
VERTEX
  5
22C3
  8
SAPA_PROFIL
 10
13.999999999118909
 20
-69.002569148935862
 30
0.0
 42
-0.5507604245841421
  0
VERTEX
  5
22C4
  8
SAPA_PROFIL
 10
13.72894762822129
 20
-68.573997720381826
 30
0.0
 42
-0.2896898633203124
  0
VERTEX
  5
22C5
  8
SAPA_PROFIL
 10
14.63245553115436
 20
-68.002569148894892
 30
0.0
  0
VERTEX
  5
22C6
  8
SAPA_PROFIL
 10
15.629927343219119
 20
-68.002569148894906
 30
0.0
 42
-0.0436609429084968
  0
VERTEX
  5
22C7
  8
SAPA_PROFIL
 10
15.716751432052559
 20
-68.010165272388804
 30
0.0
  0
VERTEX
  5
22C8
  8
SAPA_PROFIL
 10
17.286824088036539
 20
-68.287011443311329
 30
0.0
 42
-0.8390996311773407
  0
VERTEX
  5
22C9
  8
SAPA_PROFIL
 10
17.286824088036489
 20
-69.271819196323563
 30
0.0
  0
VERTEX
  5
22CA
  8
SAPA_PROFIL
 10
16.113175910369591
 20
-69.478765035905553
 30
0.0
 42
0.363970234266182
  0
VERTEX
  5
22CB
  8
SAPA_PROFIL
 10
15.699999999203071
 20
-69.971168912411684
 30
0.0
  0
VERTEX
  5
22CC
  8
SAPA_PROFIL
 10
15.69999999920304
 20
-70.800000000163138
 30
0.0
 42
0.4373282586283472
  0
VERTEX
  5
22CD
  8
SAPA_PROFIL
 10
16.239094456526949
 20
-71.298469280467046
 30
0.0
  0
VERTEX
  5
22CE
  8
SAPA_PROFIL
 10
30.712153277990641
 20
-70.711670517460192
 30
0.0
 42
0.402394130432476
  0
VERTEX
  5
22CF
  8
SAPA_PROFIL
 10
30.999999999314269
 20
-70.411916788847165
 30
0.0
  0
VERTEX
  5
22D0
  8
SAPA_PROFIL
 10
30.999999999314241
 20
-69.611383570482246
 30
0.0
 42
-0.2596812337302367
  0
VERTEX
  5
22D1
  8
SAPA_PROFIL
 10
31.09469319456247
 20
-69.441352758942131
 30
0.0
  0
VERTEX
  5
22D2
  8
SAPA_PROFIL
 10
32.542039792186557
 20
-68.544953781700002
 30
0.0
 42
-0.5877032589250683
  0
VERTEX
  5
22D3
  8
SAPA_PROFIL
 10
32.999999999314277
 20
-68.799999999010112
 30
0.0
  0
VERTEX
  5
22D4
  8
SAPA_PROFIL
 10
32.999999999314277
 20
-70.199999999010103
 30
0.0
 42
0.4142135623730898
  0
VERTEX
  5
22D5
  8
SAPA_PROFIL
 10
33.299999999314259
 20
-70.499999999010143
 30
0.0
  0
VERTEX
  5
22D6
  8
SAPA_PROFIL
 10
35.699999999314493
 20
-70.499999999009972
 30
0.0
 42
0.4142135623730049
  0
VERTEX
  5
22D7
  8
SAPA_PROFIL
 10
35.999999999314198
 20
-70.199999999010103
 30
0.0
  0
VERTEX
  5
22D8
  8
SAPA_PROFIL
 10
35.999999999314269
 20
-60.599999999009917
 30
0.0
 42
0.4142135623730258
  0
VERTEX
  5
22D9
  8
SAPA_PROFIL
 10
35.69999999931435
 20
-60.299999999009941
 30
0.0
  0
VERTEX
  5
22DA
  8
SAPA_PROFIL
 10
31.299999999314199
 20
-60.299999999009692
 30
0.0
 42
-0.4142135623730983
  0
VERTEX
  5
22DB
  8
SAPA_PROFIL
 10
30.999999999314181
 20
-59.999999999009823
 30
0.0
  0
VERTEX
  5
22DC
  8
SAPA_PROFIL
 10
30.999999999314159
 20
-58.515911933656497
 30
0.0
 42
-0.2596812337301949
  0
VERTEX
  5
22DD
  8
SAPA_PROFIL
 10
31.09469319456241
 20
-58.345881122116488
 30
0.0
  0
VERTEX
  5
22DE
  8
SAPA_PROFIL
 10
31.742039792186599
 20
-57.944953777564649
 30
0.0
 42
-0.5877032589249359
  0
VERTEX
  5
22DF
  8
SAPA_PROFIL
 10
32.199999999314258
 20
-58.199999994874787
 30
0.0
  0
VERTEX
  5
22E0
  8
SAPA_PROFIL
 10
32.199999999314173
 20
-58.599999999009853
 30
0.0
 42
0.4142135623731295
  0
VERTEX
  5
22E1
  8
SAPA_PROFIL
 10
32.499999999314213
 20
-58.899999999009857
 30
0.0
  0
VERTEX
  5
22E2
  8
SAPA_PROFIL
 10
35.699999999314372
 20
-58.899999999009893
 30
0.0
 42
0.4142135623730636
  0
VERTEX
  5
22E3
  8
SAPA_PROFIL
 10
35.999999999314433
 20
-58.599999999009917
 30
0.0
  0
VERTEX
  5
22E4
  8
SAPA_PROFIL
 10
35.999999999314269
 20
-52.799999999009792
 30
0.0
 42
0.4142135623730984
  0
VERTEX
  5
22E5
  8
SAPA_PROFIL
 10
35.699999999314358
 20
-52.499999999009873
 30
0.0
  0
VERTEX
  5
22E6
  8
SAPA_PROFIL
 10
33.299999999314331
 20
-52.499999999009802
 30
0.0
 42
0.414213562373088
  0
VERTEX
  5
22E7
  8
SAPA_PROFIL
 10
32.999999999314362
 20
-52.799999999009792
 30
0.0
  0
VERTEX
  5
22E8
  8
SAPA_PROFIL
 10
32.999999999314333
 20
-54.19999999900984
 30
0.0
 42
-0.592005618117907
  0
VERTEX
  5
22E9
  8
SAPA_PROFIL
 10
32.538796496787427
 20
-54.453008755326863
 30
0.0
  0
VERTEX
  5
22EA
  8
SAPA_PROFIL
 10
31.292530997629861
 20
-53.658955749150287
 30
0.0
 42
-0.2562769736732238
  0
VERTEX
  5
22EB
  8
SAPA_PROFIL
 10
31.1999999993144
 20
-53.490283244938936
 30
0.0
  0
VERTEX
  5
22EC
  8
SAPA_PROFIL
 10
31.199999999314301
 20
-50.494016335323778
 30
0.0
  0
VERTEX
  5
22ED
  8
SAPA_PROFIL
 10
31.709146398625489
 20
-49.176718659087904
 30
0.0
 42
0.4142135623730951
  0
VERTEX
  5
22EE
  8
SAPA_PROFIL
 10
31.509182354118099
 20
-48.802533703612077
 30
0.0
  0
VERTEX
  5
22EF
  8
SAPA_PROFIL
 10
31.461336604119609
 20
-48.788015294364982
 30
0.0
  0
VERTEX
  5
22F0
  8
SAPA_PROFIL
 10
31.46125299623597
 20
-47.284914213602967
 30
0.0
 42
-0.4769755326981641
  0
VERTEX
  5
22F1
  8
SAPA_PROFIL
 10
31.83290987118183
 20
-46.982661389096513
 30
0.0
  0
VERTEX
  5
22F2
  8
SAPA_PROFIL
 10
33.646140341840081
 20
-47.364107985224223
 30
0.0
 42
-0.2216946626430177
  0
VERTEX
  5
22F3
  8
SAPA_PROFIL
 10
34.187020173316867
 20
-47.769916890379022
 30
0.0
  0
VERTEX
  5
22F4
  8
SAPA_PROFIL
 10
34.339154084425637
 20
-48.054599173610661
 30
0.0
 42
-0.5773502691897449
  0
VERTEX
  5
22F5
  8
SAPA_PROFIL
 10
34.156200344315451
 20
-48.348755473865481
 30
0.0
  0
VERTEX
  5
22F6
  8
SAPA_PROFIL
 10
33.834442616097213
 20
-48.338194107638508
 30
0.0
  0
VERTEX
  5
22F7
  8
SAPA_PROFIL
 10
32.749878169125473
 20
-50.22403779949957
 30
0.0
  0
VERTEX
  5
22F8
  8
SAPA_PROFIL
 10
32.691804532136388
 20
-50.415420799493283
 30
0.0
 42
0.7625858545243262
  0
VERTEX
  5
22F9
  8
SAPA_PROFIL
 10
33.022130613153379
 20
-50.600000001690773
 30
0.0
 42
-0.2134217652834387
  0
VERTEX
  5
22FA
  8
SAPA_PROFIL
 10
33.245737410903523
 20
-50.500000001690637
 30
0.0
  0
VERTEX
  5
22FB
  8
SAPA_PROFIL
 10
37.098523815403468
 20
-50.500000001690772
 30
0.0
 42
0.4142135623731644
  0
VERTEX
  5
22FC
  8
SAPA_PROFIL
 10
37.398523815403522
 20
-50.200000001690732
 30
0.0
  0
VERTEX
  5
22FD
  8
SAPA_PROFIL
 10
37.398523815403507
 20
-49.90000000169065
 30
0.0
  0
VERTEX
  5
22FE
  8
SAPA_PROFIL
 10
36.474763384700168
 20
-48.300000001690712
 30
0.0
 42
-0.5773502691898534
  0
VERTEX
  5
22FF
  8
SAPA_PROFIL
 10
36.647968465457012
 20
-48.000000001690601
 30
0.0
  0
VERTEX
  5
2300
  8
SAPA_PROFIL
 10
38.033609111512142
 20
-48.000000001690559
 30
0.0
 42
-0.2679491924311248
  0
VERTEX
  5
2301
  8
SAPA_PROFIL
 10
38.89963451529664
 20
-48.500000001690623
 30
0.0
  0
VERTEX
  5
2302
  8
SAPA_PROFIL
 10
39.909997484869848
 20
-50.249999999077822
 30
0.0
 42
0.267949192431141
  0
VERTEX
  5
2303
  8
SAPA_PROFIL
 10
40.343010186762093
 20
-50.499999999077858
 30
0.0
  0
VERTEX
  5
2304
  8
SAPA_PROFIL
 10
66.656989811837008
 20
-50.499999999077851
 30
0.0
 42
0.2679491924311169
  0
VERTEX
  5
2305
  8
SAPA_PROFIL
 10
67.090002513729218
 20
-50.249999999077872
 30
0.0
  0
VERTEX
  5
2306
  8
SAPA_PROFIL
 10
68.100365483302625
 20
-48.500000001690672
 30
0.0
 42
-0.2679491924311169
  0
VERTEX
  5
2307
  8
SAPA_PROFIL
 10
68.966390887087044
 20
-48.000000001690687
 30
0.0
  0
VERTEX
  5
2308
  8
SAPA_PROFIL
 10
70.35203153314211
 20
-48.00000000169063
 30
0.0
 42
-0.5773502691897872
  0
VERTEX
  5
2309
  8
SAPA_PROFIL
 10
70.525236613898954
 20
-48.300000001690719
 30
0.0
  0
VERTEX
  5
230A
  8
SAPA_PROFIL
 10
69.601476183195558
 20
-49.900000001690707
 30
0.0
  0
VERTEX
  5
230B
  8
SAPA_PROFIL
 10
69.601476183195643
 20
-50.200000001690817
 30
0.0
 42
0.4142135623730259
  0
VERTEX
  5
230C
  8
SAPA_PROFIL
 10
69.901476183195626
 20
-50.500000001690793
 30
0.0
  0
VERTEX
  5
230D
  8
SAPA_PROFIL
 10
73.754262587695621
 20
-50.500000001690708
 30
0.0
 42
-0.2134217652834384
  0
VERTEX
  5
230E
  8
SAPA_PROFIL
 10
73.9778693854457
 20
-50.60000000169083
 30
0.0
 42
0.7625858545243262
  0
VERTEX
  5
230F
  8
SAPA_PROFIL
 10
74.308195466462735
 20
-50.415420799493361
 30
0.0
  0
VERTEX
  5
2310
  8
SAPA_PROFIL
 10
74.250121829473642
 20
-50.224037799499641
 30
0.0
  0
VERTEX
  5
2311
  8
SAPA_PROFIL
 10
73.165557382501902
 20
-48.338194107638579
 30
0.0
  0
SEQEND
  5
2312
  8
SAPA_PROFIL
  0
POLYLINE
  5
19CE
  8
SAPA_PROFIL
 66
     1
 10
0.0
 20
0.0
 30
0.0
 70
     1
  0
VERTEX
  5
2313
  8
SAPA_PROFIL
 10
65.299999999284552
 20
-70.599999997204264
 30
0.0
  0
VERTEX
  5
2314
  8
SAPA_PROFIL
 10
65.299999999284552
 20
-70.499999998576271
 30
0.0
 42
-0.4142135622516611
  0
VERTEX
  5
2315
  8
SAPA_PROFIL
 10
65.599999999160218
 20
-70.199999998576288
 30
0.0
  0
VERTEX
  5
2316
  8
SAPA_PROFIL
 10
66.999999999160224
 20
-70.199999997995889
 30
0.0
 42
-0.4142135624945125
  0
VERTEX
  5
2317
  8
SAPA_PROFIL
 10
67.299999999284609
 20
-70.499999997995886
 30
0.0
  0
VERTEX
  5
2318
  8
SAPA_PROFIL
 10
67.299999999284609
 20
-70.599999997042303
 30
0.0
 42
0.4142135623731471
  0
VERTEX
  5
2319
  8
SAPA_PROFIL
 10
67.499999999284654
 20
-70.799999997042335
 30
0.0
  0
VERTEX
  5
231A
  8
SAPA_PROFIL
 10
68.999999999284597
 20
-70.799999997042391
 30
0.0
 42
0.4142135623731054
  0
VERTEX
  5
231B
  8
SAPA_PROFIL
 10
69.299999999284609
 20
-70.499999997042394
 30
0.0
  0
VERTEX
  5
231C
  8
SAPA_PROFIL
 10
69.299999999284694
 20
-52.49999999327521
 30
0.0
 42
0.4142135623731054
  0
VERTEX
  5
231D
  8
SAPA_PROFIL
 10
68.999999999284682
 20
-52.199999993275199
 30
0.0
  0
VERTEX
  5
231E
  8
SAPA_PROFIL
 10
67.499999999284682
 20
-52.199999993275263
 30
0.0
 42
0.4142135623730992
  0
VERTEX
  5
231F
  8
SAPA_PROFIL
 10
67.299999999284694
 20
-52.399999993275237
 30
0.0
  0
VERTEX
  5
2320
  8
SAPA_PROFIL
 10
67.299999999284694
 20
-52.499999993275352
 30
0.0
 42
-0.4142135623730847
  0
VERTEX
  5
2321
  8
SAPA_PROFIL
 10
66.999999999284682
 20
-52.799999993275343
 30
0.0
  0
VERTEX
  5
2322
  8
SAPA_PROFIL
 10
65.59999999928462
 20
-52.799999993275307
 30
0.0
 42
-0.4142135623730514
  0
VERTEX
  5
2323
  8
SAPA_PROFIL
 10
65.299999999284637
 20
-52.499999993275352
 30
0.0
  0
VERTEX
  5
2324
  8
SAPA_PROFIL
 10
65.299999999284637
 20
-52.399999993275252
 30
0.0
 42
0.4142135623730784
  0
VERTEX
  5
2325
  8
SAPA_PROFIL
 10
65.09999999928462
 20
-52.19999999327527
 30
0.0
  0
VERTEX
  5
2326
  8
SAPA_PROFIL
 10
41.899999999314502
 20
-52.199999993275298
 30
0.0
 42
0.4142135623731138
  0
VERTEX
  5
2327
  8
SAPA_PROFIL
 10
41.699999999314478
 20
-52.399999993275308
 30
0.0
  0
VERTEX
  5
2328
  8
SAPA_PROFIL
 10
41.699999999314478
 20
-52.499999993275289
 30
0.0
 42
-0.4142135623731054
  0
VERTEX
  5
2329
  8
SAPA_PROFIL
 10
41.399999999314467
 20
-52.799999993275307
 30
0.0
  0
VERTEX
  5
232A
  8
SAPA_PROFIL
 10
39.99999999931444
 20
-52.799999993275307
 30
0.0
 42
-0.4142135623730826
  0
VERTEX
  5
232B
  8
SAPA_PROFIL
 10
39.699999999314429
 20
-52.49999999327531
 30
0.0
  0
VERTEX
  5
232C
  8
SAPA_PROFIL
 10
39.699999999314429
 20
-52.399999993275308
 30
0.0
 42
0.4142135623731179
  0
VERTEX
  5
232D
  8
SAPA_PROFIL
 10
39.49999999931444
 20
-52.199999993275348
 30
0.0
  0
VERTEX
  5
232E
  8
SAPA_PROFIL
 10
37.999999999314582
 20
-52.199999993275263
 30
0.0
 42
0.4142135623731138
  0
VERTEX
  5
232F
  8
SAPA_PROFIL
 10
37.699999999314556
 20
-52.499999993275253
 30
0.0
  0
VERTEX
  5
2330
  8
SAPA_PROFIL
 10
37.699999999314322
 20
-70.500000003717375
 30
0.0
 42
0.4142135624877945
  0
VERTEX
  5
2331
  8
SAPA_PROFIL
 10
37.999999999431793
 20
-70.800000003717386
 30
0.0
  0
VERTEX
  5
2332
  8
SAPA_PROFIL
 10
39.499999999392713
 20
-70.800000003090801
 30
0.0
 42
0.4142135622583851
  0
VERTEX
  5
2333
  8
SAPA_PROFIL
 10
39.699999999314372
 20
-70.600000003090784
 30
0.0
  0
VERTEX
  5
2334
  8
SAPA_PROFIL
 10
39.6999999993144
 20
-70.500000002888029
 30
0.0
 42
-0.4142135622515569
  0
VERTEX
  5
2335
  8
SAPA_PROFIL
 10
39.99999999919001
 20
-70.200000002888117
 30
0.0
  0
VERTEX
  5
2336
  8
SAPA_PROFIL
 10
41.399999999190101
 20
-70.200000002307632
 30
0.0
 42
-0.4142135624945311
  0
VERTEX
  5
2337
  8
SAPA_PROFIL
 10
41.699999999314478
 20
-70.50000000230763
 30
0.0
  0
VERTEX
  5
2338
  8
SAPA_PROFIL
 10
41.699999999314478
 20
-70.600000003679824
 30
0.0
 42
0.4142135626101151
  0
VERTEX
  5
2339
  8
SAPA_PROFIL
 10
41.8999999994763
 20
-70.800000003679799
 30
0.0
  0
VERTEX
  5
233A
  8
SAPA_PROFIL
 10
65.09999999944651
 20
-70.799999997204338
 30
0.0
 42
0.414213562136048
  0
SEQEND
  5
233B
  8
SAPA_PROFIL
  0
POLYLINE
  5
19CF
  8
SAPA_PROFIL
 66
     1
 10
0.0
 20
0.0
 30
0.0
 70
     1
  0
VERTEX
  5
233C
  8
SAPA_PROFIL
 10
30.999999999284899
 20
13.2000000009898
 30
0.0
 42
-0.4142879064819451
  0
VERTEX
  5
233D
  8
SAPA_PROFIL
 10
31.300076145281938
 20
13.49999999132635
 30
0.0
  0
VERTEX
  5
233E
  8
SAPA_PROFIL
 10
75.699923867702793
 20
13.49999999132978
 30
0.0
 42
-0.4142878924076678
  0
VERTEX
  5
233F
  8
SAPA_PROFIL
 10
75.99999999928481
 20
13.20000000098981
 30
0.0
  0
VERTEX
  5
2340
  8
SAPA_PROFIL
 10
75.999999999284796
 20
10.61138356763041
 30
0.0
 42
-0.2596812337300058
  0
VERTEX
  5
2341
  8
SAPA_PROFIL
 10
75.905306804036655
 20
10.44135275609039
 30
0.0
  0
VERTEX
  5
2342
  8
SAPA_PROFIL
 10
74.457960206412594
 20
9.5449537788481091
 30
0.0
 42
-0.5877032589249577
  0
VERTEX
  5
2343
  8
SAPA_PROFIL
 10
73.999999999284881
 20
9.7999999961582045
 30
0.0
  0
VERTEX
  5
2344
  8
SAPA_PROFIL
 10
73.999999999284896
 20
11.19999999615821
 30
0.0
 42
0.414213562373088
  0
VERTEX
  5
2345
  8
SAPA_PROFIL
 10
73.699999999284913
 20
11.499999996158209
 30
0.0
  0
VERTEX
  5
2346
  8
SAPA_PROFIL
 10
71.299999999284907
 20
11.4999999961582
 30
0.0
 42
0.4142135623730882
  0
VERTEX
  5
2347
  8
SAPA_PROFIL
 10
70.999999999284896
 20
11.19999999615821
 30
0.0
  0
VERTEX
  5
2348
  8
SAPA_PROFIL
 10
70.999999999284896
 20
-6.2000000038417973
 30
0.0
 42
0.4142135623730951
  0
VERTEX
  5
2349
  8
SAPA_PROFIL
 10
71.299999999284921
 20
-6.5000000038418078
 30
0.0
  0
VERTEX
  5
234A
  8
SAPA_PROFIL
 10
73.699999999284927
 20
-6.5000000038418859
 30
0.0
 42
0.4142135623729892
  0
VERTEX
  5
234B
  8
SAPA_PROFIL
 10
73.999999999284896
 20
-6.2000000038417973
 30
0.0
  0
VERTEX
  5
234C
  8
SAPA_PROFIL
 10
73.999999999284896
 20
-4.8000000038418049
 30
0.0
 42
-0.5920056181179401
  0
VERTEX
  5
234D
  8
SAPA_PROFIL
 10
74.461203501811553
 20
-4.5469912475248684
 30
0.0
  0
VERTEX
  5
234E
  8
SAPA_PROFIL
 10
75.707469000969283
 20
-5.3410442537013161
 30
0.0
 42
-0.2562769736732679
  0
VERTEX
  5
234F
  8
SAPA_PROFIL
 10
75.799999999284765
 20
-5.509716757912674
 30
0.0
  0
VERTEX
  5
2350
  8
SAPA_PROFIL
 10
75.799999999284779
 20
-8.5059836723598288
 30
0.0
  0
VERTEX
  5
2351
  8
SAPA_PROFIL
 10
75.290853599973815
 20
-9.8232813485950636
 30
0.0
 42
0.4142135623730951
  0
VERTEX
  5
2352
  8
SAPA_PROFIL
 10
75.490817644481211
 20
-10.19746630407087
 30
0.0
  0
VERTEX
  5
2353
  8
SAPA_PROFIL
 10
75.538663394479698
 20
-10.21198471331798
 30
0.0
  0
VERTEX
  5
2354
  8
SAPA_PROFIL
 10
75.538747002363351
 20
-11.715085794079981
 30
0.0
 42
-0.476975532698163
  0
VERTEX
  5
2355
  8
SAPA_PROFIL
 10
75.167090127417481
 20
-12.01733861858645
 30
0.0
  0
VERTEX
  5
2356
  8
SAPA_PROFIL
 10
73.353859656759226
 20
-11.63589202245873
 30
0.0
 42
-0.221694662643018
  0
VERTEX
  5
2357
  8
SAPA_PROFIL
 10
72.81297982528244
 20
-11.23008311730395
 30
0.0
  0
VERTEX
  5
2358
  8
SAPA_PROFIL
 10
72.660845914173663
 20
-10.9454008340723
 30
0.0
 42
-0.5773502691897493
  0
VERTEX
  5
2359
  8
SAPA_PROFIL
 10
72.843799654283856
 20
-10.65124453381746
 30
0.0
  0
VERTEX
  5
235A
  8
SAPA_PROFIL
 10
73.165557382502101
 20
-10.66180590004444
 30
0.0
  0
VERTEX
  5
235B
  8
SAPA_PROFIL
 10
74.250121829473841
 20
-8.7759622081833903
 30
0.0
  0
VERTEX
  5
235C
  8
SAPA_PROFIL
 10
74.308195466462934
 20
-8.5845792081896697
 30
0.0
 42
0.7625858545243216
  0
VERTEX
  5
235D
  8
SAPA_PROFIL
 10
73.977869385445928
 20
-8.4000000059921938
 30
0.0
 42
-0.2134217652834399
  0
VERTEX
  5
235E
  8
SAPA_PROFIL
 10
73.75426258769582
 20
-8.5000000059923142
 30
0.0
  0
VERTEX
  5
235F
  8
SAPA_PROFIL
 10
69.901476183195797
 20
-8.500000005992387
 30
0.0
 42
0.4142135623730898
  0
VERTEX
  5
2360
  8
SAPA_PROFIL
 10
69.601476183195786
 20
-8.8000000059924055
 30
0.0
  0
VERTEX
  5
2361
  8
SAPA_PROFIL
 10
69.601476183195786
 20
-9.1000000059925021
 30
0.0
  0
VERTEX
  5
2362
  8
SAPA_PROFIL
 10
70.525236613899096
 20
-10.700000005992401
 30
0.0
 42
-0.5773502691898973
  0
VERTEX
  5
2363
  8
SAPA_PROFIL
 10
70.352031533142195
 20
-11.00000000599238
 30
0.0
  0
VERTEX
  5
2364
  8
SAPA_PROFIL
 10
68.966390887087186
 20
-11.000000005992391
 30
0.0
 42
-0.2679491924311269
  0
VERTEX
  5
2365
  8
SAPA_PROFIL
 10
68.10036548330271
 20
-10.500000005992391
 30
0.0
  0
VERTEX
  5
2366
  8
SAPA_PROFIL
 10
67.090002513729473
 20
-8.7500000086053156
 30
0.0
 42
0.2679491924311212
  0
VERTEX
  5
2367
  8
SAPA_PROFIL
 10
66.656989811837263
 20
-8.5000000086053156
 30
0.0
  0
VERTEX
  5
2368
  8
SAPA_PROFIL
 10
40.34301018673262
 20
-8.5000000086053227
 30
0.0
 42
0.2679491924311136
  0
VERTEX
  5
2369
  8
SAPA_PROFIL
 10
39.90999748484041
 20
-8.7500000086053085
 30
0.0
  0
VERTEX
  5
236A
  8
SAPA_PROFIL
 10
38.89963451526701
 20
-10.500000005992391
 30
0.0
 42
-0.2679491924311166
  0
VERTEX
  5
236B
  8
SAPA_PROFIL
 10
38.033609111482612
 20
-11.000000005992391
 30
0.0
  0
VERTEX
  5
236C
  8
SAPA_PROFIL
 10
36.647968465427518
 20
-11.000000005992399
 30
0.0
 42
-0.577350269189614
  0
VERTEX
  5
236D
  8
SAPA_PROFIL
 10
36.474763384670617
 20
-10.70000000599242
 30
0.0
  0
VERTEX
  5
236E
  8
SAPA_PROFIL
 10
37.39852381537402
 20
-9.1000000059925092
 30
0.0
  0
VERTEX
  5
236F
  8
SAPA_PROFIL
 10
37.398523815373942
 20
-8.8000000059924126
 30
0.0
 42
0.4142135623730083
  0
VERTEX
  5
2370
  8
SAPA_PROFIL
 10
37.098523815374023
 20
-8.5000000059923941
 30
0.0
  0
VERTEX
  5
2371
  8
SAPA_PROFIL
 10
33.245737410874007
 20
-8.5000000059923941
 30
0.0
 42
-0.2134217652834394
  0
VERTEX
  5
2372
  8
SAPA_PROFIL
 10
33.022130613123892
 20
-8.4000000059922506
 30
0.0
 42
0.7625858545243364
  0
VERTEX
  5
2373
  8
SAPA_PROFIL
 10
32.691804532106893
 20
-8.5845792081897407
 30
0.0
  0
VERTEX
  5
2374
  8
SAPA_PROFIL
 10
32.749878169095972
 20
-8.7759622081834543
 30
0.0
  0
VERTEX
  5
2375
  8
SAPA_PROFIL
 10
33.834442616067712
 20
-10.661805900044509
 30
0.0
  0
VERTEX
  5
2376
  8
SAPA_PROFIL
 10
34.156200344285963
 20
-10.65124453381754
 30
0.0
 42
-0.5773502691897365
  0
VERTEX
  5
2377
  8
SAPA_PROFIL
 10
34.339154084396142
 20
-10.945400834072361
 30
0.0
  0
VERTEX
  5
2378
  8
SAPA_PROFIL
 10
34.187020173287372
 20
-11.230083117304
 30
0.0
 42
-0.2216946626430184
  0
VERTEX
  5
2379
  8
SAPA_PROFIL
 10
33.646140341810593
 20
-11.635892022458799
 30
0.0
  0
VERTEX
  5
237A
  8
SAPA_PROFIL
 10
31.832909871152332
 20
-12.017338618586519
 30
0.0
 42
-0.4769755326981641
  0
VERTEX
  5
237B
  8
SAPA_PROFIL
 10
31.461252996206479
 20
-11.71508579408005
 30
0.0
  0
VERTEX
  5
237C
  8
SAPA_PROFIL
 10
31.461336604090121
 20
-10.21198471331804
 30
0.0
  0
VERTEX
  5
237D
  8
SAPA_PROFIL
 10
31.509182354088601
 20
-10.197466304070939
 30
0.0
 42
0.4142135623730951
  0
VERTEX
  5
237E
  8
SAPA_PROFIL
 10
31.709146398596001
 20
-9.8232813485951276
 30
0.0
  0
VERTEX
  5
237F
  8
SAPA_PROFIL
 10
31.199999999284891
 20
-8.5059836723595588
 30
0.0
  0
VERTEX
  5
2380
  8
SAPA_PROFIL
 10
31.199999999284909
 20
-5.5097167582467783
 30
0.0
 42
-0.2562769743570819
  0
VERTEX
  5
2381
  8
SAPA_PROFIL
 10
31.29253099803331
 20
-5.3410442537595726
 30
0.0
  0
VERTEX
  5
2382
  8
SAPA_PROFIL
 10
32.538796497407418
 20
-4.546991251942611
 30
0.0
 42
-0.5920056172513317
  0
VERTEX
  5
2383
  8
SAPA_PROFIL
 10
32.99999999928481
 20
-4.8000000086734183
 30
0.0
  0
VERTEX
  5
2384
  8
SAPA_PROFIL
 10
32.999999999284903
 20
-6.2000000086734088
 30
0.0
 42
0.4142135623730916
  0
VERTEX
  5
2385
  8
SAPA_PROFIL
 10
33.299999999284907
 20
-6.5000000086734131
 30
0.0
  0
VERTEX
  5
2386
  8
SAPA_PROFIL
 10
35.699999999284913
 20
-6.5000000086733207
 30
0.0
 42
0.4142135623730118
  0
VERTEX
  5
2387
  8
SAPA_PROFIL
 10
35.99999999928491
 20
-6.2000000086734088
 30
0.0
  0
VERTEX
  5
2388
  8
SAPA_PROFIL
 10
35.999999999284803
 20
11.199999991326591
 30
0.0
 42
0.4142135623730948
  0
VERTEX
  5
2389
  8
SAPA_PROFIL
 10
35.699999999284898
 20
11.499999991326691
 30
0.0
  0
VERTEX
  5
238A
  8
SAPA_PROFIL
 10
33.299999999284907
 20
11.499999991326501
 30
0.0
 42
0.4142135623732061
  0
VERTEX
  5
238B
  8
SAPA_PROFIL
 10
32.999999999284903
 20
11.199999991326591
 30
0.0
  0
VERTEX
  5
238C
  8
SAPA_PROFIL
 10
32.999999999284803
 20
9.7999999913266027
 30
0.0
 42
-0.5877032589248845
  0
VERTEX
  5
238D
  8
SAPA_PROFIL
 10
32.542039792157198
 20
9.5449537740164931
 30
0.0
  0
VERTEX
  5
238E
  8
SAPA_PROFIL
 10
31.094693194533011
 20
10.441352751258689
 30
0.0
 42
-0.2596812337301443
  0
VERTEX
  5
238F
  8
SAPA_PROFIL
 10
30.999999999284899
 20
10.611383562798791
 30
0.0
  0
SEQEND
  5
2390
  8
SAPA_PROFIL
  0
POLYLINE
  5
19D0
  8
SAPA_PROFIL
 66
     1
 10
0.0
 20
0.0
 30
0.0
 70
     1
  0
VERTEX
  5
2391
  8
SAPA_PROFIL
 10
39.999999999284903
 20
11.200000000989689
 30
0.0
  0
VERTEX
  5
2392
  8
SAPA_PROFIL
 10
41.399999999284901
 20
11.200000000989711
 30
0.0
 42
0.4142135623731021
  0
VERTEX
  5
2393
  8
SAPA_PROFIL
 10
41.699999999284898
 20
11.50000000098969
 30
0.0
  0
VERTEX
  5
2394
  8
SAPA_PROFIL
 10
41.699999999284898
 20
11.600000000989681
 30
0.0
 42
-0.4142135623730847
  0
VERTEX
  5
2395
  8
SAPA_PROFIL
 10
41.899999999284901
 20
11.8000000009897
 30
0.0
  0
VERTEX
  5
2396
  8
SAPA_PROFIL
 10
65.099999999284805
 20
11.80000000098971
 30
0.0
 42
-0.41421356237309
  0
VERTEX
  5
2397
  8
SAPA_PROFIL
 10
65.299999999284822
 20
11.60000000098969
 30
0.0
  0
VERTEX
  5
2398
  8
SAPA_PROFIL
 10
65.299999999284935
 20
11.50000000098969
 30
0.0
 42
0.4142135623731055
  0
VERTEX
  5
2399
  8
SAPA_PROFIL
 10
65.599999999284918
 20
11.2000000009897
 30
0.0
  0
VERTEX
  5
239A
  8
SAPA_PROFIL
 10
66.999999999284796
 20
11.2000000009897
 30
0.0
 42
0.4142135623731991
  0
VERTEX
  5
239B
  8
SAPA_PROFIL
 10
67.299999999284935
 20
11.500000000989701
 30
0.0
  0
VERTEX
  5
239C
  8
SAPA_PROFIL
 10
67.299999999284935
 20
11.60000000098969
 30
0.0
 42
-0.4142135623730898
  0
VERTEX
  5
239D
  8
SAPA_PROFIL
 10
67.499999999284825
 20
11.80000000098959
 30
0.0
  0
VERTEX
  5
239E
  8
SAPA_PROFIL
 10
68.999999999284782
 20
11.80000000098979
 30
0.0
 42
-0.4142135623731019
  0
VERTEX
  5
239F
  8
SAPA_PROFIL
 10
69.299999999284793
 20
11.500000000989809
 30
0.0
  0
VERTEX
  5
23A0
  8
SAPA_PROFIL
 10
69.299999999284793
 20
-6.5000000027770026
 30
0.0
 42
-0.4142135623730951
  0
VERTEX
  5
23A1
  8
SAPA_PROFIL
 10
68.999999999284796
 20
-6.8000000027769998
 30
0.0
  0
VERTEX
  5
23A2
  8
SAPA_PROFIL
 10
67.499999999284896
 20
-6.8000000027769998
 30
0.0
 42
-0.4142135623730795
  0
VERTEX
  5
23A3
  8
SAPA_PROFIL
 10
67.299999999284836
 20
-6.6000000027770973
 30
0.0
  0
VERTEX
  5
23A4
  8
SAPA_PROFIL
 10
67.299999999284935
 20
-6.5000000037306576
 30
0.0
 42
0.4142135624945151
  0
VERTEX
  5
23A5
  8
SAPA_PROFIL
 10
66.999999999160536
 20
-6.2000000037306613
 30
0.0
  0
VERTEX
  5
23A6
  8
SAPA_PROFIL
 10
65.599999999160545
 20
-6.2000000043110459
 30
0.0
 42
0.414213562251668
  0
VERTEX
  5
23A7
  8
SAPA_PROFIL
 10
65.299999999284935
 20
-6.5000000043110511
 30
0.0
  0
VERTEX
  5
23A8
  8
SAPA_PROFIL
 10
65.299999999284935
 20
-6.6000000029390149
 30
0.0
 42
-0.4142135621360074
  0
VERTEX
  5
23A9
  8
SAPA_PROFIL
 10
65.099999999446709
 20
-6.8000000029391456
 30
0.0
  0
VERTEX
  5
23AA
  8
SAPA_PROFIL
 10
41.899999999446798
 20
-6.8000000094145001
 30
0.0
 42
-0.4142135626101672
  0
VERTEX
  5
23AB
  8
SAPA_PROFIL
 10
41.699999999284898
 20
-6.6000000094145177
 30
0.0
  0
VERTEX
  5
23AC
  8
SAPA_PROFIL
 10
41.699999999284913
 20
-6.5000000080423881
 30
0.0
 42
0.4142135624945428
  0
VERTEX
  5
23AD
  8
SAPA_PROFIL
 10
41.399999999160521
 20
-6.2000000080423829
 30
0.0
  0
VERTEX
  5
23AE
  8
SAPA_PROFIL
 10
39.999999999160522
 20
-6.2000000086228466
 30
0.0
 42
0.4142135622516402
  0
VERTEX
  5
23AF
  8
SAPA_PROFIL
 10
39.699999999284913
 20
-6.500000008622858
 30
0.0
  0
VERTEX
  5
23B0
  8
SAPA_PROFIL
 10
39.699999999284913
 20
-6.6000000088255142
 30
0.0
 42
-0.414213562258404
  0
VERTEX
  5
23B1
  8
SAPA_PROFIL
 10
39.499999999363219
 20
-6.800000008825517
 30
0.0
  0
VERTEX
  5
23B2
  8
SAPA_PROFIL
 10
37.99999999940971
 20
-6.800000009449529
 30
0.0
 42
-0.4142135624949383
  0
VERTEX
  5
23B3
  8
SAPA_PROFIL
 10
37.699999999284898
 20
-6.5000000094495247
 30
0.0
  0
VERTEX
  5
23B4
  8
SAPA_PROFIL
 10
37.699999999284898
 20
11.50000000098972
 30
0.0
 42
-0.4142135623730882
  0
VERTEX
  5
23B5
  8
SAPA_PROFIL
 10
37.999999999284881
 20
11.8000000009897
 30
0.0
  0
VERTEX
  5
23B6
  8
SAPA_PROFIL
 10
39.49999999928491
 20
11.800000000989799
 30
0.0
 42
-0.4142135623730847
  0
VERTEX
  5
23B7
  8
SAPA_PROFIL
 10
39.699999999284898
 20
11.6000000009898
 30
0.0
  0
VERTEX
  5
23B8
  8
SAPA_PROFIL
 10
39.699999999284898
 20
11.50000000098969
 30
0.0
 42
0.4142135623730881
  0
SEQEND
  5
23B9
  8
SAPA_PROFIL
  0
POLYLINE
  5
19D1
  8
SAPA_PROFIL
 62
     4
 66
     1
 10
0.0
 20
0.0
 30
0.0
  0
VERTEX
  5
23BA
  8
SAPA_PROFIL
 62
     4
 10
73.067718913445162
 20
-20.450670881443699
 30
0.0
 42
0.5571646428658034
  0
VERTEX
  5
23BB
  8
SAPA_PROFIL
 62
     4
 10
72.199999999289616
 20
-20.987631385580531
 30
0.0
  0
VERTEX
  5
23BC
  8
SAPA_PROFIL
 62
     4
 10
72.199999999290071
 20
-38.012368622101732
 30
0.0
 42
0.5571645048035741
  0
VERTEX
  5
23BD
  8
SAPA_PROFIL
 62
     4
 10
73.067718687156244
 20
-38.549329239062793
 30
0.0
  0
VERTEX
  5
23BE
  8
SAPA_PROFIL
 62
     4
 10
74.733859343224253
 20
-37.718622151516087
 30
0.0
 42
0.284385813979063
  0
VERTEX
  5
23BF
  8
SAPA_PROFIL
 62
     4
 10
74.899999999291708
 20
-37.450141843035738
 30
0.0
  0
VERTEX
  5
23C0
  8
SAPA_PROFIL
 62
     4
 10
74.899999999291708
 20
-21.54985816464642
 30
0.0
 42
0.2843858139786238
  0
VERTEX
  5
23C1
  8
SAPA_PROFIL
 62
     4
 10
74.733859343224779
 20
-21.281377856166142
 30
0.0
  0
VERTEX
  5
23C2
  8
SAPA_PROFIL
 62
     4
 10
73.067718687155434
 20
-20.450670768618981
 30
0.0
  0
SEQEND
  5
23C3
  8
SAPA_PROFIL
 62
     4
  0
POLYLINE
  5
19D2
  8
SAPA_PROFIL
 62
     4
 66
     1
 10
0.0
 20
0.0
 30
0.0
 70
     1
  0
VERTEX
  5
23C4
  8
SAPA_PROFIL
 62
     4
 10
75.256831513789265
 20
-43.917611188508367
 30
0.0
  0
VERTEX
  5
23C5
  8
SAPA_PROFIL
 62
     4
 10
75.663391709793416
 20
-44.181634466884383
 30
0.0
 42
-0.2539676464751066
  0
VERTEX
  5
23C6
  8
SAPA_PROFIL
 62
     4
 10
75.799999999289525
 20
-44.433235637269092
 30
0.0
  0
VERTEX
  5
23C7
  8
SAPA_PROFIL
 62
     4
 10
75.799999999289525
 20
-45.81473522247444
 30
0.0
 42
-0.3152987888790479
  0
VERTEX
  5
23C8
  8
SAPA_PROFIL
 62
     4
 10
75.471010070951365
 20
-46.284581532866753
 30
0.0
  0
VERTEX
  5
23C9
  8
SAPA_PROFIL
 62
     4
 10
73.01017988050009
 20
-47.180250473775359
 30
0.0
 42
0.2694959974287434
  0
VERTEX
  5
23CA
  8
SAPA_PROFIL
 62
     4
 10
72.817047906156191
 20
-47.411769520176712
 30
0.0
 42
0.0612686379508233
  0
VERTEX
  5
23CB
  8
SAPA_PROFIL
 62
     4
 10
72.803464535525677
 20
-47.704444953029977
 30
0.0
  0
VERTEX
  5
23CC
  8
SAPA_PROFIL
 62
     4
 10
72.601727856796856
 20
-48.05386313033825
 30
0.0
 42
0.5773502691891679
  0
VERTEX
  5
23CD
  8
SAPA_PROFIL
 62
     4
 10
72.783593191591422
 20
-48.368863130337843
 30
0.0
  0
VERTEX
  5
23CE
  8
SAPA_PROFIL
 62
     4
 10
73.050707719717735
 20
-48.368863130338077
 30
0.0
  0
VERTEX
  5
23CF
  8
SAPA_PROFIL
 62
     4
 10
73.859391181026055
 20
-49.767390830972339
 30
0.0
 42
-0.1318219888653519
  0
VERTEX
  5
23D0
  8
SAPA_PROFIL
 62
     4
 10
73.899683577563451
 20
-49.917563933444683
 30
0.0
  0
VERTEX
  5
23D1
  8
SAPA_PROFIL
 62
     4
 10
73.899683577557084
 20
-50.100000003881462
 30
0.0
 42
-0.4142135623724291
  0
VERTEX
  5
23D2
  8
SAPA_PROFIL
 62
     4
 10
73.499683577557448
 20
-50.500000003882008
 30
0.0
  0
VERTEX
  5
23D3
  8
SAPA_PROFIL
 62
     4
 10
70.099683577556448
 20
-50.500000003880643
 30
0.0
 42
-0.4142135623744271
  0
VERTEX
  5
23D4
  8
SAPA_PROFIL
 62
     4
 10
69.699683577555433
 20
-50.100000003881462
 30
0.0
  0
VERTEX
  5
23D5
  8
SAPA_PROFIL
 62
     4
 10
69.699683577554794
 20
-49.920384761610158
 30
0.0
 42
-0.1316524975874005
  0
VERTEX
  5
23D6
  8
SAPA_PROFIL
 62
     4
 10
69.739875956420406
 20
-49.770384761613343
 30
0.0
  0
VERTEX
  5
23D7
  8
SAPA_PROFIL
 62
     4
 10
70.666025403072936
 20
-48.16624686461109
 30
0.0
 42
0.1316524975875904
  0
VERTEX
  5
23D8
  8
SAPA_PROFIL
 62
     4
 10
70.799999999287706
 20
-47.666246864609377
 30
0.0
  0
VERTEX
  5
23D9
  8
SAPA_PROFIL
 62
     4
 10
70.799999999287706
 20
-47.250000003882008
 30
0.0
 42
0.4142135623730951
  0
VERTEX
  5
23DA
  8
SAPA_PROFIL
 62
     4
 10
69.799999999287706
 20
-46.250000003882
 30
0.0
  0
VERTEX
  5
23DB
  8
SAPA_PROFIL
 62
     4
 10
66.799999999290435
 20
-46.250000003882
 30
0.0
 42
-0.9999996830128083
  0
VERTEX
  5
23DC
  8
SAPA_PROFIL
 62
     4
 10
66.799999999288616
 20
-45.250000003882
 30
0.0
  0
VERTEX
  5
23DD
  8
SAPA_PROFIL
 62
     4
 10
69.799999999288616
 20
-45.250000003882
 30
0.0
 42
0.4142135623730951
  0
VERTEX
  5
23DE
  8
SAPA_PROFIL
 62
     4
 10
70.799999999288616
 20
-44.250000003882008
 30
0.0
  0
VERTEX
  5
23DF
  8
SAPA_PROFIL
 62
     4
 10
70.799999999288616
 20
-14.750000003797419
 30
0.0
 42
0.4142135623730951
  0
VERTEX
  5
23E0
  8
SAPA_PROFIL
 62
     4
 10
69.799999999288616
 20
-13.750000003797419
 30
0.0
  0
VERTEX
  5
23E1
  8
SAPA_PROFIL
 62
     4
 10
66.799999999290435
 20
-13.750000003797419
 30
0.0
 42
-0.9999999999999998
  0
VERTEX
  5
23E2
  8
SAPA_PROFIL
 62
     4
 10
66.799999999290435
 20
-12.750000003797419
 30
0.0
  0
VERTEX
  5
23E3
  8
SAPA_PROFIL
 62
     4
 10
69.799999999288616
 20
-12.750000003797419
 30
0.0
 42
0.4142135623736278
  0
VERTEX
  5
23E4
  8
SAPA_PROFIL
 62
     4
 10
70.799999999288616
 20
-11.750000003797419
 30
0.0
  0
VERTEX
  5
23E5
  8
SAPA_PROFIL
 62
     4
 10
70.799999999288616
 20
-11.333753143070959
 30
0.0
 42
0.1316524975874375
  0
VERTEX
  5
23E6
  8
SAPA_PROFIL
 62
     4
 10
70.666025403072581
 20
-10.83375314307076
 30
0.0
  0
VERTEX
  5
23E7
  8
SAPA_PROFIL
 62
     4
 10
69.739875956420406
 20
-9.2296152460688177
 30
0.0
 42
-0.1316524975874
  0
VERTEX
  5
23E8
  8
SAPA_PROFIL
 62
     4
 10
69.699683577554794
 20
-9.0796152460692738
 30
0.0
  0
VERTEX
  5
23E9
  8
SAPA_PROFIL
 62
     4
 10
69.699683577555433
 20
-8.9000000037979703
 30
0.0
 42
-0.4142135623744271
  0
VERTEX
  5
23EA
  8
SAPA_PROFIL
 62
     4
 10
70.099683577556448
 20
-8.5000000037987888
 30
0.0
  0
VERTEX
  5
23EB
  8
SAPA_PROFIL
 62
     4
 10
73.499683577557448
 20
-8.5000000037974246
 30
0.0
 42
-0.4142135623724291
  0
VERTEX
  5
23EC
  8
SAPA_PROFIL
 62
     4
 10
73.899683577557084
 20
-8.9000000037979703
 30
0.0
  0
VERTEX
  5
23ED
  8
SAPA_PROFIL
 62
     4
 10
73.899683577563451
 20
-9.0824360742347494
 30
0.0
 42
-0.1318219888653524
  0
VERTEX
  5
23EE
  8
SAPA_PROFIL
 62
     4
 10
73.859391181026055
 20
-9.2326091767070935
 30
0.0
  0
VERTEX
  5
23EF
  8
SAPA_PROFIL
 62
     4
 10
73.050707719801721
 20
-10.63113687718675
 30
0.0
  0
VERTEX
  5
23F0
  8
SAPA_PROFIL
 62
     4
 10
72.783593191588693
 20
-10.63113687718675
 30
0.0
 42
0.577350269189159
  0
VERTEX
  5
23F1
  8
SAPA_PROFIL
 62
     4
 10
72.601727856794113
 20
-10.946136877186341
 30
0.0
  0
VERTEX
  5
23F2
  8
SAPA_PROFIL
 62
     4
 10
72.803464535471221
 20
-11.295555054405
 30
0.0
 42
0.0612687673629489
  0
VERTEX
  5
23F3
  8
SAPA_PROFIL
 62
     4
 10
72.817047906157427
 20
-11.58823048750522
 30
0.0
 42
0.2694959974285039
  0
VERTEX
  5
23F4
  8
SAPA_PROFIL
 62
     4
 10
73.010179880501383
 20
-11.819749533905741
 30
0.0
  0
VERTEX
  5
23F5
  8
SAPA_PROFIL
 62
     4
 10
75.471010070954549
 20
-12.71541847481541
 30
0.0
 42
-0.3152987888784035
  0
VERTEX
  5
23F6
  8
SAPA_PROFIL
 62
     4
 10
75.799999999291117
 20
-13.185264785208631
 30
0.0
  0
VERTEX
  5
23F7
  8
SAPA_PROFIL
 62
     4
 10
75.799999999289525
 20
-14.56676437041307
 30
0.0
 42
-0.2539676464741841
  0
VERTEX
  5
23F8
  8
SAPA_PROFIL
 62
     4
 10
75.663391709794254
 20
-14.81836554079714
 30
0.0
  0
VERTEX
  5
23F9
  8
SAPA_PROFIL
 62
     4
 10
75.256831513789265
 20
-15.082388819173779
 30
0.0
 42
-0.5862177598324623
  0
VERTEX
  5
23FA
  8
SAPA_PROFIL
 62
     4
 10
74.799999999292766
 20
-14.82664700393544
 30
0.0
  0
VERTEX
  5
23FB
  8
SAPA_PROFIL
 62
     4
 10
74.799999999300425
 20
-13.885472323425629
 30
0.0
 42
0.3152987888813165
  0
VERTEX
  5
23FC
  8
SAPA_PROFIL
 62
     4
 10
74.471010070963686
 20
-13.41562601302787
 30
0.0
  0
VERTEX
  5
23FD
  8
SAPA_PROFIL
 62
     4
 10
73.271010070952457
 20
-12.978861731903921
 30
0.0
 42
0.5205670505515651
  0
VERTEX
  5
23FE
  8
SAPA_PROFIL
 62
     4
 10
72.599999999289707
 20
-13.44870804229714
 30
0.0
  0
VERTEX
  5
23FF
  8
SAPA_PROFIL
 62
     4
 10
72.599999999289679
 20
-18.465148982965989
 30
0.0
 42
0.3702522326300203
  0
VERTEX
  5
2400
  8
SAPA_PROFIL
 62
     4
 10
72.854459951955391
 20
-18.761672344759319
 30
0.0
 42
0.0982365330332397
  0
VERTEX
  5
2401
  8
SAPA_PROFIL
 62
     4
 10
74.542146726950392
 20
-18.852125102970259
 30
0.0
 42
0.3735060174783164
  0
VERTEX
  5
2402
  8
SAPA_PROFIL
 62
     4
 10
74.799999999290435
 20
-18.555100435059281
 30
0.0
  0
VERTEX
  5
2403
  8
SAPA_PROFIL
 62
     4
 10
74.799999999291344
 20
-18.126647003936618
 30
0.0
 42
-0.5920056181162531
  0
VERTEX
  5
2404
  8
SAPA_PROFIL
 62
     4
 10
75.261203501819267
 20
-17.873638247619219
 30
0.0
  0
VERTEX
  5
2405
  8
SAPA_PROFIL
 62
     4
 10
75.663391709797565
 20
-18.13482232377493
 30
0.0
 42
-0.2539676464746725
  0
VERTEX
  5
2406
  8
SAPA_PROFIL
 62
     4
 10
75.799999999292922
 20
-18.386423494158691
 30
0.0
  0
VERTEX
  5
2407
  8
SAPA_PROFIL
 62
     4
 10
75.799999999291344
 20
-40.613576513524372
 30
0.0
 42
-0.2539676464741819
  0
VERTEX
  5
2408
  8
SAPA_PROFIL
 62
     4
 10
75.663391709797565
 20
-40.865177683907227
 30
0.0
  0
VERTEX
  5
2409
  8
SAPA_PROFIL
 62
     4
 10
75.261203501819224
 20
-41.126361760061037
 30
0.0
 42
-0.5920055144124249
  0
VERTEX
  5
240A
  8
SAPA_PROFIL
 62
     4
 10
74.799999999291344
 20
-40.873353003745542
 30
0.0
  0
VERTEX
  5
240B
  8
SAPA_PROFIL
 62
     4
 10
74.800000024566344
 20
-40.444899526455309
 30
0.0
 42
0.3735060174775405
  0
VERTEX
  5
240C
  8
SAPA_PROFIL
 62
     4
 10
74.542146752226259
 20
-40.14787485854562
 30
0.0
 42
0.0355900683670349
  0
VERTEX
  5
240D
  8
SAPA_PROFIL
 62
     4
 10
73.92627316542648
 20
-40.103981294513382
 30
0.0
 42
0.0624282003873116
  0
VERTEX
  5
240E
  8
SAPA_PROFIL
 62
     4
 10
72.854459977231343
 20
-40.238327616756308
 30
0.0
 42
0.3702522326309292
  0
VERTEX
  5
240F
  8
SAPA_PROFIL
 62
     4
 10
72.600000024565617
 20
-40.534850978549692
 30
0.0
  0
VERTEX
  5
2410
  8
SAPA_PROFIL
 62
     4
 10
72.59999999928948
 20
-45.551291965383193
 30
0.0
 42
0.5205670505515692
  0
VERTEX
  5
2411
  8
SAPA_PROFIL
 62
     4
 10
73.271010070952457
 20
-46.021138275776423
 30
0.0
  0
VERTEX
  5
2412
  8
SAPA_PROFIL
 62
     4
 10
74.471010070961896
 20
-45.584373994651472
 30
0.0
 42
0.3152987888807539
  0
VERTEX
  5
2413
  8
SAPA_PROFIL
 62
     4
 10
74.79999999929953
 20
-45.11452768425562
 30
0.0
  0
VERTEX
  5
2414
  8
SAPA_PROFIL
 62
     4
 10
74.799999999292709
 20
-44.173353003746527
 30
0.0
 42
-0.5862175119221242
  0
VERTEX
  5
2415
  8
SAPA_PROFIL
 62
     4
 10
75.256831325047841
 20
-43.917611072764572
 30
0.0
 42
0.0000002084758573
  0
SEQEND
  5
2416
  8
SAPA_PROFIL
 62
     4
  0
POLYLINE
  5
19D3
  8
SAPA_PROFIL
 62
     4
 66
     1
 10
0.0
 20
0.0
 30
0.0
  0
VERTEX
  5
2417
  8
SAPA_PROFIL
 62
     4
 10
33.932281085139209
 20
-20.450670881443699
 30
0.0
 42
-0.5571646428658034
  0
VERTEX
  5
2418
  8
SAPA_PROFIL
 62
     4
 10
34.799999999294748
 20
-20.987631385580531
 30
0.0
  0
VERTEX
  5
2419
  8
SAPA_PROFIL
 62
     4
 10
34.7999999992943
 20
-38.012368622101732
 30
0.0
 42
-0.5571645048035741
  0
VERTEX
  5
241A
  8
SAPA_PROFIL
 62
     4
 10
33.932281311428142
 20
-38.549329239062793
 30
0.0
  0
VERTEX
  5
241B
  8
SAPA_PROFIL
 62
     4
 10
32.266140655360097
 20
-37.718622151516087
 30
0.0
 42
-0.284385813979063
  0
VERTEX
  5
241C
  8
SAPA_PROFIL
 62
     4
 10
32.099999999292663
 20
-37.450141843035738
 30
0.0
  0
VERTEX
  5
241D
  8
SAPA_PROFIL
 62
     4
 10
32.099999999292663
 20
-21.54985816464642
 30
0.0
 42
-0.2843858139786238
  0
VERTEX
  5
241E
  8
SAPA_PROFIL
 62
     4
 10
32.266140655359592
 20
-21.281377856166142
 30
0.0
  0
VERTEX
  5
241F
  8
SAPA_PROFIL
 62
     4
 10
33.932281311428937
 20
-20.450670768618981
 30
0.0
  0
SEQEND
  5
2420
  8
SAPA_PROFIL
 62
     4
  0
POLYLINE
  5
19D4
  8
SAPA_PROFIL
 62
     4
 66
     1
 10
0.0
 20
0.0
 30
0.0
 70
     1
  0
VERTEX
  5
2421
  8
SAPA_PROFIL
 62
     4
 10
31.743168484795088
 20
-43.917611188508367
 30
0.0
  0
VERTEX
  5
2422
  8
SAPA_PROFIL
 62
     4
 10
31.336608288790949
 20
-44.181634466884383
 30
0.0
 42
0.2539676464751066
  0
VERTEX
  5
2423
  8
SAPA_PROFIL
 62
     4
 10
31.19999999929485
 20
-44.433235637269092
 30
0.0
  0
VERTEX
  5
2424
  8
SAPA_PROFIL
 62
     4
 10
31.19999999929485
 20
-45.81473522247444
 30
0.0
 42
0.3152987888790479
  0
VERTEX
  5
2425
  8
SAPA_PROFIL
 62
     4
 10
31.52898992763301
 20
-46.284581532866753
 30
0.0
  0
VERTEX
  5
2426
  8
SAPA_PROFIL
 62
     4
 10
33.989820118084282
 20
-47.180250473775359
 30
0.0
 42
-0.2694959974287434
  0
VERTEX
  5
2427
  8
SAPA_PROFIL
 62
     4
 10
34.182952092428167
 20
-47.411769520176712
 30
0.0
 42
-0.0612686379508233
  0
VERTEX
  5
2428
  8
SAPA_PROFIL
 62
     4
 10
34.196535463058702
 20
-47.704444953029977
 30
0.0
  0
VERTEX
  5
2429
  8
SAPA_PROFIL
 62
     4
 10
34.398272141787523
 20
-48.05386313033825
 30
0.0
 42
-0.5773502691891679
  0
VERTEX
  5
242A
  8
SAPA_PROFIL
 62
     4
 10
34.21640680699295
 20
-48.368863130337843
 30
0.0
  0
VERTEX
  5
242B
  8
SAPA_PROFIL
 62
     4
 10
33.949292278866629
 20
-48.368863130338077
 30
0.0
  0
VERTEX
  5
242C
  8
SAPA_PROFIL
 62
     4
 10
33.140608817558324
 20
-49.767390830972339
 30
0.0
 42
0.1318219888653519
  0
VERTEX
  5
242D
  8
SAPA_PROFIL
 62
     4
 10
33.100316421020921
 20
-49.917563933444683
 30
0.0
  0
VERTEX
  5
242E
  8
SAPA_PROFIL
 62
     4
 10
33.100316421027287
 20
-50.100000003881462
 30
0.0
 42
0.4142135623724291
  0
VERTEX
  5
242F
  8
SAPA_PROFIL
 62
     4
 10
33.500316421026923
 20
-50.500000003882008
 30
0.0
  0
VERTEX
  5
2430
  8
SAPA_PROFIL
 62
     4
 10
36.900316421027917
 20
-50.500000003880643
 30
0.0
 42
0.4142135623744271
  0
VERTEX
  5
2431
  8
SAPA_PROFIL
 62
     4
 10
37.300316421028917
 20
-50.100000003881462
 30
0.0
  0
VERTEX
  5
2432
  8
SAPA_PROFIL
 62
     4
 10
37.300316421029557
 20
-49.920384761610158
 30
0.0
 42
0.1316524975874005
  0
VERTEX
  5
2433
  8
SAPA_PROFIL
 62
     4
 10
37.260124042163973
 20
-49.770384761613343
 30
0.0
  0
VERTEX
  5
2434
  8
SAPA_PROFIL
 62
     4
 10
36.333974595511428
 20
-48.16624686461109
 30
0.0
 42
-0.1316524975875904
  0
VERTEX
  5
2435
  8
SAPA_PROFIL
 62
     4
 10
36.199999999296672
 20
-47.666246864609377
 30
0.0
  0
VERTEX
  5
2436
  8
SAPA_PROFIL
 62
     4
 10
36.199999999296672
 20
-47.250000003882008
 30
0.0
 42
-0.4142135623730951
  0
VERTEX
  5
2437
  8
SAPA_PROFIL
 62
     4
 10
37.199999999296672
 20
-46.250000003882
 30
0.0
  0
VERTEX
  5
2438
  8
SAPA_PROFIL
 62
     4
 10
40.199999999293929
 20
-46.250000003882
 30
0.0
 42
0.9999996830128083
  0
VERTEX
  5
2439
  8
SAPA_PROFIL
 62
     4
 10
40.199999999295748
 20
-45.250000003882
 30
0.0
  0
VERTEX
  5
243A
  8
SAPA_PROFIL
 62
     4
 10
37.199999999295763
 20
-45.250000003882
 30
0.0
 42
-0.4142135623730951
  0
VERTEX
  5
243B
  8
SAPA_PROFIL
 62
     4
 10
36.199999999295748
 20
-44.250000003882008
 30
0.0
  0
VERTEX
  5
243C
  8
SAPA_PROFIL
 62
     4
 10
36.199999999295748
 20
-14.750000003797419
 30
0.0
 42
-0.4142135623730951
  0
VERTEX
  5
243D
  8
SAPA_PROFIL
 62
     4
 10
37.199999999295763
 20
-13.750000003797419
 30
0.0
  0
VERTEX
  5
243E
  8
SAPA_PROFIL
 62
     4
 10
40.199999999293929
 20
-13.750000003797419
 30
0.0
 42
0.9999999999999998
  0
VERTEX
  5
243F
  8
SAPA_PROFIL
 62
     4
 10
40.199999999293929
 20
-12.750000003797419
 30
0.0
  0
VERTEX
  5
2440
  8
SAPA_PROFIL
 62
     4
 10
37.199999999295763
 20
-12.750000003797419
 30
0.0
 42
-0.4142135623736278
  0
VERTEX
  5
2441
  8
SAPA_PROFIL
 62
     4
 10
36.199999999295748
 20
-11.750000003797419
 30
0.0
  0
VERTEX
  5
2442
  8
SAPA_PROFIL
 62
     4
 10
36.199999999295748
 20
-11.333753143070959
 30
0.0
 42
-0.1316524975874375
  0
VERTEX
  5
2443
  8
SAPA_PROFIL
 62
     4
 10
36.333974595511791
 20
-10.83375314307076
 30
0.0
  0
VERTEX
  5
2444
  8
SAPA_PROFIL
 62
     4
 10
37.260124042163973
 20
-9.2296152460688177
 30
0.0
 42
0.1316524975874
  0
VERTEX
  5
2445
  8
SAPA_PROFIL
 62
     4
 10
37.300316421029557
 20
-9.0796152460692738
 30
0.0
  0
VERTEX
  5
2446
  8
SAPA_PROFIL
 62
     4
 10
37.300316421028917
 20
-8.9000000037979703
 30
0.0
 42
0.4142135623744271
  0
VERTEX
  5
2447
  8
SAPA_PROFIL
 62
     4
 10
36.900316421027917
 20
-8.5000000037987888
 30
0.0
  0
VERTEX
  5
2448
  8
SAPA_PROFIL
 62
     4
 10
33.500316421026923
 20
-8.5000000037974246
 30
0.0
 42
0.4142135623724291
  0
VERTEX
  5
2449
  8
SAPA_PROFIL
 62
     4
 10
33.100316421027287
 20
-8.9000000037979703
 30
0.0
  0
VERTEX
  5
244A
  8
SAPA_PROFIL
 62
     4
 10
33.100316421020921
 20
-9.0824360742347494
 30
0.0
 42
0.1318219888653524
  0
VERTEX
  5
244B
  8
SAPA_PROFIL
 62
     4
 10
33.140608817558324
 20
-9.2326091767070935
 30
0.0
  0
VERTEX
  5
244C
  8
SAPA_PROFIL
 62
     4
 10
33.94929227878265
 20
-10.63113687718675
 30
0.0
  0
VERTEX
  5
244D
  8
SAPA_PROFIL
 62
     4
 10
34.216406806995693
 20
-10.63113687718675
 30
0.0
 42
-0.577350269189159
  0
VERTEX
  5
244E
  8
SAPA_PROFIL
 62
     4
 10
34.398272141790251
 20
-10.946136877186341
 30
0.0
  0
VERTEX
  5
244F
  8
SAPA_PROFIL
 62
     4
 10
34.19653546311315
 20
-11.295555054405
 30
0.0
 42
-0.0612687673629489
  0
VERTEX
  5
2450
  8
SAPA_PROFIL
 62
     4
 10
34.182952092426937
 20
-11.58823048750522
 30
0.0
 42
-0.2694959974285039
  0
VERTEX
  5
2451
  8
SAPA_PROFIL
 62
     4
 10
33.989820118082989
 20
-11.819749533905741
 30
0.0
  0
VERTEX
  5
2452
  8
SAPA_PROFIL
 62
     4
 10
31.52898992762983
 20
-12.71541847481541
 30
0.0
 42
0.3152987888784035
  0
VERTEX
  5
2453
  8
SAPA_PROFIL
 62
     4
 10
31.199999999293251
 20
-13.185264785208631
 30
0.0
  0
VERTEX
  5
2454
  8
SAPA_PROFIL
 62
     4
 10
31.19999999929485
 20
-14.56676437041307
 30
0.0
 42
0.2539676464741841
  0
VERTEX
  5
2455
  8
SAPA_PROFIL
 62
     4
 10
31.336608288790121
 20
-14.81836554079714
 30
0.0
  0
VERTEX
  5
2456
  8
SAPA_PROFIL
 62
     4
 10
31.743168484795099
 20
-15.082388819173779
 30
0.0
 42
0.5862177598324623
  0
VERTEX
  5
2457
  8
SAPA_PROFIL
 62
     4
 10
32.199999999291599
 20
-14.82664700393544
 30
0.0
  0
VERTEX
  5
2458
  8
SAPA_PROFIL
 62
     4
 10
32.199999999283932
 20
-13.885472323425629
 30
0.0
 42
-0.3152987888813165
  0
VERTEX
  5
2459
  8
SAPA_PROFIL
 62
     4
 10
32.528989927620692
 20
-13.41562601302787
 30
0.0
  0
VERTEX
  5
245A
  8
SAPA_PROFIL
 62
     4
 10
33.728989927631922
 20
-12.978861731903921
 30
0.0
 42
-0.5205670505515651
  0
VERTEX
  5
245B
  8
SAPA_PROFIL
 62
     4
 10
34.399999999294671
 20
-13.44870804229714
 30
0.0
  0
VERTEX
  5
245C
  8
SAPA_PROFIL
 62
     4
 10
34.399999999294693
 20
-18.465148982965989
 30
0.0
 42
-0.3702522326300203
  0
VERTEX
  5
245D
  8
SAPA_PROFIL
 62
     4
 10
34.145540046628987
 20
-18.761672344759319
 30
0.0
 42
-0.0982365330332397
  0
VERTEX
  5
245E
  8
SAPA_PROFIL
 62
     4
 10
32.457853271633979
 20
-18.852125102970259
 30
0.0
 42
-0.3735060174783164
  0
VERTEX
  5
245F
  8
SAPA_PROFIL
 62
     4
 10
32.199999999293937
 20
-18.555100435059281
 30
0.0
  0
VERTEX
  5
2460
  8
SAPA_PROFIL
 62
     4
 10
32.199999999293027
 20
-18.126647003936618
 30
0.0
 42
0.5920056181162531
  0
VERTEX
  5
2461
  8
SAPA_PROFIL
 62
     4
 10
31.738796496765111
 20
-17.873638247619219
 30
0.0
  0
VERTEX
  5
2462
  8
SAPA_PROFIL
 62
     4
 10
31.33660828878681
 20
-18.13482232377493
 30
0.0
 42
0.2539676464746725
  0
VERTEX
  5
2463
  8
SAPA_PROFIL
 62
     4
 10
31.19999999929145
 20
-18.386423494158691
 30
0.0
  0
VERTEX
  5
2464
  8
SAPA_PROFIL
 62
     4
 10
31.199999999293031
 20
-40.613576513524372
 30
0.0
 42
0.2539676464741819
  0
VERTEX
  5
2465
  8
SAPA_PROFIL
 62
     4
 10
31.33660828878681
 20
-40.865177683907227
 30
0.0
  0
VERTEX
  5
2466
  8
SAPA_PROFIL
 62
     4
 10
31.73879649676514
 20
-41.126361760061037
 30
0.0
 42
0.5920055144124249
  0
VERTEX
  5
2467
  8
SAPA_PROFIL
 62
     4
 10
32.199999999293027
 20
-40.873353003745542
 30
0.0
  0
VERTEX
  5
2468
  8
SAPA_PROFIL
 62
     4
 10
32.19999997401802
 20
-40.444899526455309
 30
0.0
 42
-0.3735060174775405
  0
VERTEX
  5
2469
  8
SAPA_PROFIL
 62
     4
 10
32.457853246358113
 20
-40.14787485854562
 30
0.0
 42
-0.0355900683670349
  0
VERTEX
  5
246A
  8
SAPA_PROFIL
 62
     4
 10
33.073726833157899
 20
-40.103981294513382
 30
0.0
 42
-0.0624282003873116
  0
VERTEX
  5
246B
  8
SAPA_PROFIL
 62
     4
 10
34.145540021353028
 20
-40.238327616756308
 30
0.0
 42
-0.3702522326309292
  0
VERTEX
  5
246C
  8
SAPA_PROFIL
 62
     4
 10
34.399999974018748
 20
-40.534850978549692
 30
0.0
  0
VERTEX
  5
246D
  8
SAPA_PROFIL
 62
     4
 10
34.399999999294891
 20
-45.551291965383193
 30
0.0
 42
-0.5205670505515692
  0
VERTEX
  5
246E
  8
SAPA_PROFIL
 62
     4
 10
33.728989927631922
 20
-46.021138275776423
 30
0.0
  0
VERTEX
  5
246F
  8
SAPA_PROFIL
 62
     4
 10
32.528989927622469
 20
-45.584373994651472
 30
0.0
 42
-0.3152987888807539
  0
VERTEX
  5
2470
  8
SAPA_PROFIL
 62
     4
 10
32.199999999284842
 20
-45.11452768425562
 30
0.0
  0
VERTEX
  5
2471
  8
SAPA_PROFIL
 62
     4
 10
32.19999999929167
 20
-44.173353003746527
 30
0.0
 42
0.5862175119221242
  0
VERTEX
  5
2472
  8
SAPA_PROFIL
 62
     4
 10
31.74316867353653
 20
-43.917611072764572
 30
0.0
 42
-0.0000002084758573
  0
SEQEND
  5
2473
  8
SAPA_PROFIL
 62
     4
  0
POLYLINE
  5
19D5
  8
SAPA_PROFIL
 62
     4
 66
     1
 10
0.0
 20
0.0
 30
0.0
 70
     1
  0
VERTEX
  5
2474
  8
SAPA_PROFIL
 62
     4
 10
14.900000000216551
 20
-58.702943553211867
 30
0.0
  0
VERTEX
  5
2475
  8
SAPA_PROFIL
 62
     4
 10
14.90000000021473
 20
-62.89705610290877
 30
0.0
 42
-0.1989123673786592
  0
VERTEX
  5
2476
  8
SAPA_PROFIL
 62
     4
 10
14.812132034571279
 20
-63.109188137264589
 30
0.0
  0
VERTEX
  5
2477
  8
SAPA_PROFIL
 62
     4
 10
12.58786796586037
 20
-65.333452205975505
 30
0.0
 42
0.1989123673785438
  0
VERTEX
  5
2478
  8
SAPA_PROFIL
 62
     4
 10
12.500000000216909
 20
-65.545584240331323
 30
0.0
  0
VERTEX
  5
2479
  8
SAPA_PROFIL
 62
     4
 10
12.50000000021873
 20
-65.999999828059686
 30
0.0
 42
0.4142135623730951
  0
VERTEX
  5
247A
  8
SAPA_PROFIL
 62
     4
 10
12.800000000218001
 20
-66.299999828059867
 30
0.0
  0
VERTEX
  5
247B
  8
SAPA_PROFIL
 62
     4
 10
24.700000000214189
 20
-66.299999828059867
 30
0.0
 42
-0.4142135623730951
  0
VERTEX
  5
247C
  8
SAPA_PROFIL
 62
     4
 10
25.200000000214189
 20
-66.799999828059867
 30
0.0
  0
VERTEX
  5
247D
  8
SAPA_PROFIL
 62
     4
 10
25.200000000214189
 20
-68.499999828059686
 30
0.0
 42
0.4142135623739832
  0
VERTEX
  5
247E
  8
SAPA_PROFIL
 62
     4
 10
25.500000000213461
 20
-68.799999828059867
 30
0.0
  0
VERTEX
  5
247F
  8
SAPA_PROFIL
 62
     4
 10
29.20000000021583
 20
-68.799999828059867
 30
0.0
 42
0.414213562375759
  0
VERTEX
  5
2480
  8
SAPA_PROFIL
 62
     4
 10
29.500000000216922
 20
-68.499999828059686
 30
0.0
  0
VERTEX
  5
2481
  8
SAPA_PROFIL
 62
     4
 10
29.500000000215099
 20
-52.006576697656669
 30
0.0
 42
0.4142135623735391
  0
VERTEX
  5
2482
  8
SAPA_PROFIL
 62
     4
 10
29.20000000021583
 20
-51.706576697656942
 30
0.0
  0
VERTEX
  5
2483
  8
SAPA_PROFIL
 62
     4
 10
12.800000000218001
 20
-51.706576697656942
 30
0.0
 42
0.4142135623726511
  0
VERTEX
  5
2484
  8
SAPA_PROFIL
 62
     4
 10
12.500000000216909
 20
-52.006576697656669
 30
0.0
  0
VERTEX
  5
2485
  8
SAPA_PROFIL
 62
     4
 10
12.500000000216909
 20
-56.054415415787503
 30
0.0
 42
0.1989123673785438
  0
VERTEX
  5
2486
  8
SAPA_PROFIL
 62
     4
 10
12.58786796586037
 20
-56.266547450143321
 30
0.0
  0
VERTEX
  5
2487
  8
SAPA_PROFIL
 62
     4
 10
14.8121320345731
 20
-58.490811518856049
 30
0.0
 42
-0.1989123673798886
  0
SEQEND
  5
2488
  8
SAPA_PROFIL
 62
     4
  0
POLYLINE
  5
19D6
  8
SAPA_PROFIL
 62
     4
 66
     1
 10
0.0
 20
0.0
 30
0.0
 70
     1
  0
VERTEX
  5
2489
  8
SAPA_PROFIL
 62
     4
 10
29.500000000216922
 20
-45.299999828060102
 30
0.0
  0
VERTEX
  5
248A
  8
SAPA_PROFIL
 62
     4
 10
29.500000000215099
 20
-50.106576697656578
 30
0.0
 42
-0.4142135623732061
  0
VERTEX
  5
248B
  8
SAPA_PROFIL
 62
     4
 10
29.20000000021583
 20
-50.40657669765676
 30
0.0
  0
VERTEX
  5
248C
  8
SAPA_PROFIL
 62
     4
 10
12.800000000218001
 20
-50.40657669765676
 30
0.0
 42
-0.4142135623730951
  0
VERTEX
  5
248D
  8
SAPA_PROFIL
 62
     4
 10
12.500000000216909
 20
-50.106576697656578
 30
0.0
  0
VERTEX
  5
248E
  8
SAPA_PROFIL
 62
     4
 10
12.50000000021873
 20
-45.299999828060102
 30
0.0
 42
-0.4142135623731173
  0
VERTEX
  5
248F
  8
SAPA_PROFIL
 62
     4
 10
12.80000000021982
 20
-44.999999828059913
 30
0.0
  0
VERTEX
  5
2490
  8
SAPA_PROFIL
 62
     4
 10
29.200000000217639
 20
-44.999999828059913
 30
0.0
 42
-0.4142135623730951
  0
SEQEND
  5
2491
  8
SAPA_PROFIL
 62
     4
  0
POLYLINE
  5
19D7
  8
SAPA_PROFIL
 62
     4
 66
     1
 10
0.0
 20
0.0
 30
0.0
 70
     1
  0
VERTEX
  5
2492
  8
SAPA_PROFIL
 62
     4
 10
11.000000000216909
 20
-56.675735759347504
 30
0.0
 42
0.1989123673799838
  0
VERTEX
  5
2493
  8
SAPA_PROFIL
 62
     4
 10
11.087867965862189
 20
-56.887867793704231
 30
0.0
  0
VERTEX
  5
2494
  8
SAPA_PROFIL
 62
     4
 10
13.312132034573089
 20
-59.11213186241514
 30
0.0
 42
-0.1989123673811189
  0
VERTEX
  5
2495
  8
SAPA_PROFIL
 62
     4
 10
13.400000000216551
 20
-59.324263896770958
 30
0.0
  0
VERTEX
  5
2496
  8
SAPA_PROFIL
 62
     4
 10
13.40000000021473
 20
-62.275735759348777
 30
0.0
 42
-0.1989123673785447
  0
VERTEX
  5
2497
  8
SAPA_PROFIL
 62
     4
 10
13.312132034571279
 20
-62.487867793704588
 30
0.0
  0
VERTEX
  5
2498
  8
SAPA_PROFIL
 62
     4
 10
11.08786796586037
 20
-64.712131862416413
 30
0.0
 42
0.1989123673785445
  0
VERTEX
  5
2499
  8
SAPA_PROFIL
 62
     4
 10
11.000000000216909
 20
-64.924263896772231
 30
0.0
  0
VERTEX
  5
249A
  8
SAPA_PROFIL
 62
     4
 10
11.00000000021873
 20
-67.299999828059867
 30
0.0
 42
0.4142135623730951
  0
VERTEX
  5
249B
  8
SAPA_PROFIL
 62
     4
 10
11.50000000021873
 20
-67.799999828059853
 30
0.0
  0
VERTEX
  5
249C
  8
SAPA_PROFIL
 62
     4
 10
23.400000000214909
 20
-67.799999828059853
 30
0.0
 42
-0.4142135623737615
  0
VERTEX
  5
249D
  8
SAPA_PROFIL
 62
     4
 10
23.700000000214182
 20
-68.099999828060035
 30
0.0
  0
VERTEX
  5
249E
  8
SAPA_PROFIL
 62
     4
 10
23.700000000214182
 20
-69.799999828059867
 30
0.0
 42
0.4142135623730951
  0
VERTEX
  5
249F
  8
SAPA_PROFIL
 62
     4
 10
24.200000000214189
 20
-70.299999828059853
 30
0.0
  0
VERTEX
  5
24A0
  8
SAPA_PROFIL
 62
     4
 10
30.500000000216922
 20
-70.299999828059853
 30
0.0
 42
0.4142135623730951
  0
VERTEX
  5
24A1
  8
SAPA_PROFIL
 62
     4
 10
31.000000000216922
 20
-69.799999828059867
 30
0.0
  0
VERTEX
  5
24A2
  8
SAPA_PROFIL
 62
     4
 10
31.00000000021328
 20
-68.799999828059498
 30
0.0
 42
-0.4142135623735387
  0
VERTEX
  5
24A3
  8
SAPA_PROFIL
 62
     4
 10
31.300000000212549
 20
-68.499999828059543
 30
0.0
  0
VERTEX
  5
24A4
  8
SAPA_PROFIL
 62
     4
 10
32.900000000214732
 20
-68.499999828059998
 30
0.0
 42
-0.4142135623735394
  0
VERTEX
  5
24A5
  8
SAPA_PROFIL
 62
     4
 10
33.200000000213997
 20
-68.799999828059725
 30
0.0
  0
VERTEX
  5
24A6
  8
SAPA_PROFIL
 62
     4
 10
33.200000000212192
 20
-69.099999828059367
 30
0.0
 42
0.5923377296036106
  0
VERTEX
  5
24A7
  8
SAPA_PROFIL
 62
     4
 10
33.66145227095376
 20
-69.352849910663622
 30
0.0
  0
VERTEX
  5
24A8
  8
SAPA_PROFIL
 62
     4
 10
35.361452270954487
 20
-68.075790642366755
 30
0.0
 42
0.2560149538738703
  0
VERTEX
  5
24A9
  8
SAPA_PROFIL
 62
     4
 10
35.500000000215103
 20
-67.822940559761605
 30
0.0
  0
VERTEX
  5
24AA
  8
SAPA_PROFIL
 62
     4
 10
35.500000000215103
 20
-67.599999828058998
 30
0.0
 42
0.4142135623733172
  0
VERTEX
  5
24AB
  8
SAPA_PROFIL
 62
     4
 10
35.200000000215823
 20
-67.299999828059725
 30
0.0
  0
VERTEX
  5
24AC
  8
SAPA_PROFIL
 62
     4
 10
31.300000000212549
 20
-67.299999828059725
 30
0.0
 42
-0.4142135623735389
  0
VERTEX
  5
24AD
  8
SAPA_PROFIL
 62
     4
 10
31.00000000021328
 20
-66.999999828059771
 30
0.0
  0
VERTEX
  5
24AE
  8
SAPA_PROFIL
 62
     4
 10
31.000000000215088
 20
-55.999999828059593
 30
0.0
 42
-0.4142135623735387
  0
VERTEX
  5
24AF
  8
SAPA_PROFIL
 62
     4
 10
31.300000000214371
 20
-55.699999828059632
 30
0.0
  0
VERTEX
  5
24B0
  8
SAPA_PROFIL
 62
     4
 10
35.200000000215823
 20
-55.699999828059632
 30
0.0
 42
0.4142135623730951
  0
VERTEX
  5
24B1
  8
SAPA_PROFIL
 62
     4
 10
35.500000000215103
 20
-55.399999828060373
 30
0.0
  0
VERTEX
  5
24B2
  8
SAPA_PROFIL
 62
     4
 10
35.500000000215103
 20
-55.177059096357759
 30
0.0
 42
0.2560149538738701
  0
VERTEX
  5
24B3
  8
SAPA_PROFIL
 62
     4
 10
35.361452270954487
 20
-54.924209013752602
 30
0.0
  0
VERTEX
  5
24B4
  8
SAPA_PROFIL
 62
     4
 10
33.66145227095376
 20
-53.647149745455749
 30
0.0
 42
0.5923377296036115
  0
VERTEX
  5
24B5
  8
SAPA_PROFIL
 62
     4
 10
33.200000000212192
 20
-53.899999828059997
 30
0.0
  0
VERTEX
  5
24B6
  8
SAPA_PROFIL
 62
     4
 10
33.200000000213997
 20
-54.199999828059639
 30
0.0
 42
-0.4142135623735394
  0
VERTEX
  5
24B7
  8
SAPA_PROFIL
 62
     4
 10
32.900000000214732
 20
-54.499999828059373
 30
0.0
  0
VERTEX
  5
24B8
  8
SAPA_PROFIL
 62
     4
 10
31.300000000214371
 20
-54.499999828059821
 30
0.0
 42
-0.4142135623735389
  0
VERTEX
  5
24B9
  8
SAPA_PROFIL
 62
     4
 10
31.000000000215088
 20
-54.199999828059859
 30
0.0
  0
VERTEX
  5
24BA
  8
SAPA_PROFIL
 62
     4
 10
31.000000000220549
 20
-43.999999828059913
 30
0.0
 42
0.4142135623731242
  0
VERTEX
  5
24BB
  8
SAPA_PROFIL
 62
     4
 10
30.500000000220549
 20
-43.499999828059913
 30
0.0
  0
VERTEX
  5
24BC
  8
SAPA_PROFIL
 62
     4
 10
11.50000000021873
 20
-43.499999828059913
 30
0.0
 42
0.4142135623730951
  0
VERTEX
  5
24BD
  8
SAPA_PROFIL
 62
     4
 10
11.00000000021873
 20
-43.999999828059913
 30
0.0
  0
SEQEND
  5
24BE
  8
SAPA_PROFIL
 62
     4
  0
POLYLINE
  5
19D8
  8
SAPA_PROFIL
 66
     1
 10
0.0
 20
0.0
 30
0.0
 70
     1
  0
VERTEX
  5
24BF
  8
SAPA_PROFIL
 10
86.199999999440635
 20
-19.29999999901014
 30
0.0
 42
-0.4142135623730951
  0
VERTEX
  5
24C0
  8
SAPA_PROFIL
 10
86.499999999440647
 20
-19.599999999010151
 30
0.0
  0
VERTEX
  5
24C1
  8
SAPA_PROFIL
 10
86.499999999440533
 20
-21.199999999010149
 30
0.0
 42
0.4142135623730951
  0
VERTEX
  5
24C2
  8
SAPA_PROFIL
 10
86.799999999440544
 20
-21.499999999010161
 30
0.0
  0
VERTEX
  5
24C3
  8
SAPA_PROFIL
 10
87.375735930728723
 20
-21.499999999010161
 30
0.0
 42
0.1989123673795745
  0
VERTEX
  5
24C4
  8
SAPA_PROFIL
 10
87.587867965084612
 20
-21.412132033366159
 30
0.0
  0
VERTEX
  5
24C5
  8
SAPA_PROFIL
 10
88.412132033796496
 20
-20.587867964654158
 30
0.0
 42
0.1989123673796451
  0
VERTEX
  5
24C6
  8
SAPA_PROFIL
 10
88.499999999440632
 20
-20.375735930298251
 30
0.0
  0
VERTEX
  5
24C7
  8
SAPA_PROFIL
 10
88.499999999440647
 20
-17.79999999901025
 30
0.0
 42
0.4142135623732032
  0
VERTEX
  5
24C8
  8
SAPA_PROFIL
 10
88.199999999440635
 20
-17.499999999010161
 30
0.0
  0
VERTEX
  5
24C9
  8
SAPA_PROFIL
 10
83.799999999441354
 20
-17.499999999010239
 30
0.0
 42
-0.41421356237312
  0
VERTEX
  5
24CA
  8
SAPA_PROFIL
 10
83.499999999441613
 20
-17.199999999010139
 30
0.0
  0
VERTEX
  5
24CB
  8
SAPA_PROFIL
 10
83.499999999443531
 20
8.9499999925376716
 30
0.0
 42
0.41421356237312
  0
VERTEX
  5
24CC
  8
SAPA_PROFIL
 10
82.499999999443531
 20
9.9499999925377551
 30
0.0
  0
VERTEX
  5
24CD
  8
SAPA_PROFIL
 10
75.816729765418543
 20
9.9499999925377587
 30
0.0
 42
0.1628603417903348
  0
VERTEX
  5
24CE
  8
SAPA_PROFIL
 10
75.666276009630536
 20
9.8996588700495671
 30
0.0
  0
VERTEX
  5
24CF
  8
SAPA_PROFIL
 10
74.817963241639006
 20
9.2604093479756813
 30
0.0
 42
-0.1628603417903348
  0
VERTEX
  5
24D0
  8
SAPA_PROFIL
 10
74.637418734693398
 20
9.2000000009898635
 30
0.0
  0
VERTEX
  5
24D1
  8
SAPA_PROFIL
 10
74.1020725936595
 20
9.2000000009898741
 30
0.0
 42
-0.2679491924313054
  0
VERTEX
  5
24D2
  8
SAPA_PROFIL
 10
73.842264972524035
 20
9.3500000009897555
 30
0.0
  0
VERTEX
  5
24D3
  8
SAPA_PROFIL
 10
73.466987297550816
 20
10.00000000098956
 30
0.0
 42
0.4244748162097881
  0
VERTEX
  5
24D4
  8
SAPA_PROFIL
 10
72.76901496354192
 20
10.174024049067841
 30
0.0
  0
VERTEX
  5
24D5
  8
SAPA_PROFIL
 10
71.635040367325914
 20
9.4654380780487362
 30
0.0
 42
0.2586175843565894
  0
VERTEX
  5
24D6
  8
SAPA_PROFIL
 10
71.399999999442443
 20
9.0414140299692498
 30
0.0
  0
VERTEX
  5
24D7
  8
SAPA_PROFIL
 10
71.399999999442784
 20
8.8651552117128638
 30
0.0
 42
0.3573618656727155
  0
VERTEX
  5
24D8
  8
SAPA_PROFIL
 10
71.641009806679435
 20
8.5710121221164606
 30
0.0
  0
VERTEX
  5
24D9
  8
SAPA_PROFIL
 10
74.286600013342849
 20
8.0404408396906142
 30
0.0
 42
0.290805460401057
  0
VERTEX
  5
24DA
  8
SAPA_PROFIL
 10
75.809660168453831
 20
8.5623237690195602
 30
0.0
 42
-0.2278537862654153
  0
VERTEX
  5
24DB
  8
SAPA_PROFIL
 10
76.200113569827323
 20
8.7499999925377416
 30
0.0
  0
VERTEX
  5
24DC
  8
SAPA_PROFIL
 10
81.199999997816974
 20
8.7499999925377399
 30
0.0
 42
-0.4142135623730951
  0
VERTEX
  5
24DD
  8
SAPA_PROFIL
 10
81.699999997816974
 20
8.2499999925377399
 30
0.0
  0
VERTEX
  5
24DE
  8
SAPA_PROFIL
 10
81.699999997816974
 20
-5.7500000077582722
 30
0.0
 42
-0.4142135623730951
  0
VERTEX
  5
24DF
  8
SAPA_PROFIL
 10
81.199999997816974
 20
-6.2500000077582722
 30
0.0
  0
VERTEX
  5
24E0
  8
SAPA_PROFIL
 10
76.299999999442832
 20
-6.2500000077582696
 30
0.0
 42
0.4142135623730951
  0
VERTEX
  5
24E1
  8
SAPA_PROFIL
 10
75.799999999442832
 20
-6.7500000077582696
 30
0.0
  0
VERTEX
  5
24E2
  8
SAPA_PROFIL
 10
75.799999999442832
 20
-7.3500000076226089
 30
0.0
 42
0.4142135623730951
  0
VERTEX
  5
24E3
  8
SAPA_PROFIL
 10
76.299999999442832
 20
-7.8500000076226089
 30
0.0
  0
VERTEX
  5
24E4
  8
SAPA_PROFIL
 10
81.199999993153156
 20
-7.8500000076226089
 30
0.0
 42
-0.414213562315631
  0
VERTEX
  5
24E5
  8
SAPA_PROFIL
 10
81.69999999315317
 20
-8.3500000075245016
 30
0.0
  0
VERTEX
  5
24E6
  8
SAPA_PROFIL
 10
81.699999999442014
 20
-40.404999999010229
 30
0.0
 42
0.4142135623735363
  0
VERTEX
  5
24E7
  8
SAPA_PROFIL
 10
82.194999999441023
 20
-40.899999999010362
 30
0.0
  0
VERTEX
  5
24E8
  8
SAPA_PROFIL
 10
82.204999999441199
 20
-40.899999999010362
 30
0.0
 42
0.4142135623729203
  0
VERTEX
  5
24E9
  8
SAPA_PROFIL
 10
82.699999999441985
 20
-40.404999999010244
 30
0.0
  0
VERTEX
  5
24EA
  8
SAPA_PROFIL
 10
82.699999999441985
 20
-40.244999999010147
 30
0.0
 42
-0.4142135623734113
  0
VERTEX
  5
24EB
  8
SAPA_PROFIL
 10
83.194999999441023
 20
-39.749999999010242
 30
0.0
  0
VERTEX
  5
24EC
  8
SAPA_PROFIL
 10
83.999999999441357
 20
-39.749999999010249
 30
0.0
 42
-0.3653737038880782
  0
VERTEX
  5
24ED
  8
SAPA_PROFIL
 10
86.710554210972518
 20
-42.035892396885679
 30
0.0
  0
VERTEX
  5
24EE
  8
SAPA_PROFIL
 10
86.423223304145026
 20
-42.323223303713391
 30
0.0
 42
0.4142135623721916
  0
VERTEX
  5
24EF
  8
SAPA_PROFIL
 10
86.423223304144628
 20
-42.676776694306128
 30
0.0
  0
VERTEX
  5
24F0
  8
SAPA_PROFIL
 10
86.710554210972802
 20
-42.964107601135893
 30
0.0
 42
-0.3653737038879154
  0
VERTEX
  5
24F1
  8
SAPA_PROFIL
 10
83.999999999441314
 20
-45.249999999010242
 30
0.0
  0
VERTEX
  5
24F2
  8
SAPA_PROFIL
 10
83.194999999441023
 20
-45.249999999010271
 30
0.0
 42
-0.4142135623729951
  0
VERTEX
  5
24F3
  8
SAPA_PROFIL
 10
82.699999999441985
 20
-44.754999999011062
 30
0.0
  0
VERTEX
  5
24F4
  8
SAPA_PROFIL
 10
82.699999999441985
 20
-44.594999999010248
 30
0.0
 42
0.4142135623729285
  0
VERTEX
  5
24F5
  8
SAPA_PROFIL
 10
82.204999999441185
 20
-44.099999999010151
 30
0.0
  0
VERTEX
  5
24F6
  8
SAPA_PROFIL
 10
82.194999999418499
 20
-44.099999999010628
 30
0.0
 42
0.4142135623601338
  0
VERTEX
  5
24F7
  8
SAPA_PROFIL
 10
81.699999999442014
 20
-44.594999999010241
 30
0.0
  0
VERTEX
  5
24F8
  8
SAPA_PROFIL
 10
81.699999992575343
 20
-50.79999999826417
 30
0.0
 42
-0.4142135623731365
  0
VERTEX
  5
24F9
  8
SAPA_PROFIL
 10
81.199999992662597
 20
-51.299999998350579
 30
0.0
  0
VERTEX
  5
24FA
  8
SAPA_PROFIL
 10
76.299999999284083
 20
-51.29999999916329
 30
0.0
 42
0.4142135623728037
  0
VERTEX
  5
24FB
  8
SAPA_PROFIL
 10
75.799999999371522
 20
-51.79999999924916
 30
0.0
  0
VERTEX
  5
24FC
  8
SAPA_PROFIL
 10
75.799999999509694
 20
-52.399999999502647
 30
0.0
 42
0.4142135623733948
  0
VERTEX
  5
24FD
  8
SAPA_PROFIL
 10
76.29999999959702
 20
-52.89999999941665
 30
0.0
  0
VERTEX
  5
24FE
  8
SAPA_PROFIL
 10
81.199999992973702
 20
-52.899999998603953
 30
0.0
 42
-0.4142135623730951
  0
VERTEX
  5
24FF
  8
SAPA_PROFIL
 10
81.699999993060985
 20
-53.399999998517607
 30
0.0
  0
VERTEX
  5
2500
  8
SAPA_PROFIL
 10
81.699999999442014
 20
-70.79999999900997
 30
0.0
 42
-0.4142135623730951
  0
VERTEX
  5
2501
  8
SAPA_PROFIL
 10
81.199999999441999
 20
-71.29999999900997
 30
0.0
  0
VERTEX
  5
2502
  8
SAPA_PROFIL
 10
78.299999999284097
 20
-71.29999999900997
 30
0.0
 42
-0.4142135623730951
  0
VERTEX
  5
2503
  8
SAPA_PROFIL
 10
77.799999999284097
 20
-70.79999999900997
 30
0.0
  0
VERTEX
  5
2504
  8
SAPA_PROFIL
 10
77.799999999284097
 20
-69.257106780196608
 30
0.0
 42
0.1989123673798694
  0
VERTEX
  5
2505
  8
SAPA_PROFIL
 10
77.653553389876521
 20
-68.903553389603303
 30
0.0
  0
VERTEX
  5
2506
  8
SAPA_PROFIL
 10
76.196446608691701
 20
-67.446446608417119
 30
0.0
 42
0.1989123673796867
  0
VERTEX
  5
2507
  8
SAPA_PROFIL
 10
75.842893218097402
 20
-67.299999999009955
 30
0.0
  0
VERTEX
  5
2508
  8
SAPA_PROFIL
 10
74.537893452793639
 20
-67.299999999009955
 30
0.0
 42
0.0495213429255793
  0
VERTEX
  5
2509
  8
SAPA_PROFIL
 10
74.439576464854326
 20
-67.309761516348203
 30
0.0
  0
VERTEX
  5
250A
  8
SAPA_PROFIL
 10
71.641009806520444
 20
-67.871012120137749
 30
0.0
 42
0.3573618656739605
  0
VERTEX
  5
250B
  8
SAPA_PROFIL
 10
71.399999999282642
 20
-68.16515520973303
 30
0.0
  0
VERTEX
  5
250C
  8
SAPA_PROFIL
 10
71.399999999282642
 20
-68.341414027989444
 30
0.0
 42
0.2586175843560156
  0
VERTEX
  5
250D
  8
SAPA_PROFIL
 10
71.635040367167363
 20
-68.765438076068904
 30
0.0
  0
VERTEX
  5
250E
  8
SAPA_PROFIL
 10
72.769014963383299
 20
-69.474024047089614
 30
0.0
 42
0.4244748162094236
  0
VERTEX
  5
250F
  8
SAPA_PROFIL
 10
73.466987297391512
 20
-69.29999999900997
 30
0.0
  0
VERTEX
  5
2510
  8
SAPA_PROFIL
 10
73.842264972362827
 20
-68.649999999010703
 30
0.0
 42
-0.2679491924316278
  0
VERTEX
  5
2511
  8
SAPA_PROFIL
 10
74.102072593498448
 20
-68.499999999010242
 30
0.0
  0
VERTEX
  5
2512
  8
SAPA_PROFIL
 10
75.428679655724395
 20
-68.49999999901047
 30
0.0
 42
-0.1989123673795245
  0
VERTEX
  5
2513
  8
SAPA_PROFIL
 10
75.640811690080255
 20
-68.587867964654436
 30
0.0
  0
VERTEX
  5
2514
  8
SAPA_PROFIL
 10
76.453553389877612
 20
-69.40060966445111
 30
0.0
 42
-0.1989123673801597
  0
VERTEX
  5
2515
  8
SAPA_PROFIL
 10
76.599999999283398
 20
-69.754163055044273
 30
0.0
  0
VERTEX
  5
2516
  8
SAPA_PROFIL
 10
76.599999999283398
 20
-70.749999999010356
 30
0.0
 42
-0.4142135623724791
  0
VERTEX
  5
2517
  8
SAPA_PROFIL
 10
76.349999999283924
 20
-70.999999999010356
 30
0.0
  0
VERTEX
  5
2518
  8
SAPA_PROFIL
 10
76.249999999284256
 20
-70.999999999010583
 30
0.0
 42
0.4142135623724624
  0
VERTEX
  5
2519
  8
SAPA_PROFIL
 10
75.999999999284796
 20
-71.249999999010583
 30
0.0
  0
VERTEX
  5
251A
  8
SAPA_PROFIL
 10
75.999999999284796
 20
-72.249999999010242
 30
0.0
 42
0.4142135623730951
  0
VERTEX
  5
251B
  8
SAPA_PROFIL
 10
76.249999999284796
 20
-72.499999999010242
 30
0.0
  0
VERTEX
  5
251C
  8
SAPA_PROFIL
 10
83.199999999440621
 20
-72.499999999010271
 30
0.0
 42
0.4142135623730951
  0
VERTEX
  5
251D
  8
SAPA_PROFIL
 10
83.499999999440632
 20
-72.199999999010288
 30
0.0
  0
VERTEX
  5
251E
  8
SAPA_PROFIL
 10
83.499999999440575
 20
-67.799999999010254
 30
0.0
 42
-0.4142135623730951
  0
VERTEX
  5
251F
  8
SAPA_PROFIL
 10
83.799999999440587
 20
-67.499999999010242
 30
0.0
  0
VERTEX
  5
2520
  8
SAPA_PROFIL
 10
88.199999999440621
 20
-67.499999999010242
 30
0.0
 42
0.4142135623730117
  0
VERTEX
  5
2521
  8
SAPA_PROFIL
 10
88.499999999440632
 20
-67.199999999010174
 30
0.0
  0
VERTEX
  5
2522
  8
SAPA_PROFIL
 10
88.499999999440632
 20
-64.624264067722152
 30
0.0
 42
0.1989123673796266
  0
VERTEX
  5
2523
  8
SAPA_PROFIL
 10
88.41213203379661
 20
-64.41213203336622
 30
0.0
  0
VERTEX
  5
2524
  8
SAPA_PROFIL
 10
87.587867965084584
 20
-63.587867964654272
 30
0.0
 42
0.1989123673796215
  0
VERTEX
  5
2525
  8
SAPA_PROFIL
 10
87.375735930728709
 20
-63.499999999010242
 30
0.0
  0
VERTEX
  5
2526
  8
SAPA_PROFIL
 10
86.79999999944053
 20
-63.499999999010271
 30
0.0
 42
0.4142135623730951
  0
VERTEX
  5
2527
  8
SAPA_PROFIL
 10
86.499999999440519
 20
-63.799999999010197
 30
0.0
  0
VERTEX
  5
2528
  8
SAPA_PROFIL
 10
86.499999999440575
 20
-65.399999999010234
 30
0.0
 42
-0.4142135623730617
  0
VERTEX
  5
2529
  8
SAPA_PROFIL
 10
86.199999999440607
 20
-65.699999999010174
 30
0.0
  0
VERTEX
  5
252A
  8
SAPA_PROFIL
 10
83.799999999440587
 20
-65.699999999010103
 30
0.0
 42
-0.4142135623731534
  0
VERTEX
  5
252B
  8
SAPA_PROFIL
 10
83.499999999440632
 20
-65.39999999901022
 30
0.0
  0
VERTEX
  5
252C
  8
SAPA_PROFIL
 10
83.499999999440632
 20
-47.499999999010242
 30
0.0
 42
-0.4142135623730868
  0
VERTEX
  5
252D
  8
SAPA_PROFIL
 10
83.999999999440618
 20
-46.999999999010242
 30
0.0
  0
VERTEX
  5
252E
  8
SAPA_PROFIL
 10
87.999999999440604
 20
-46.999999999010107
 30
0.0
 42
0.4142135623730784
  0
VERTEX
  5
252F
  8
SAPA_PROFIL
 10
88.299999999440573
 20
-46.69999999901011
 30
0.0
  0
VERTEX
  5
2530
  8
SAPA_PROFIL
 10
88.29999999944053
 20
-43.1803847567395
 30
0.0
 42
0.1316524975872861
  0
VERTEX
  5
2531
  8
SAPA_PROFIL
 10
88.259807620575927
 20
-43.030384756739643
 30
0.0
  0
VERTEX
  5
2532
  8
SAPA_PROFIL
 10
88.04019237830525
 20
-42.64999999900985
 30
0.0
 42
-0.2679491924310436
  0
VERTEX
  5
2533
  8
SAPA_PROFIL
 10
88.040192378305278
 20
-42.349999999009981
 30
0.0
  0
VERTEX
  5
2534
  8
SAPA_PROFIL
 10
88.259807620575884
 20
-41.96961524128092
 30
0.0
 42
0.1316524975874466
  0
VERTEX
  5
2535
  8
SAPA_PROFIL
 10
88.299999999440587
 20
-41.819615241280857
 30
0.0
  0
VERTEX
  5
2536
  8
SAPA_PROFIL
 10
88.299999999440544
 20
-38.299999999010168
 30
0.0
 42
0.4142135623730951
  0
VERTEX
  5
2537
  8
SAPA_PROFIL
 10
87.999999999440547
 20
-37.999999999010157
 30
0.0
  0
VERTEX
  5
2538
  8
SAPA_PROFIL
 10
83.999999999440618
 20
-37.999999999010157
 30
0.0
 42
-0.4142135623730951
  0
VERTEX
  5
2539
  8
SAPA_PROFIL
 10
83.499999999440632
 20
-37.499999999010157
 30
0.0
  0
VERTEX
  5
253A
  8
SAPA_PROFIL
 10
83.499999999440632
 20
-19.599999999010151
 30
0.0
 42
-0.4142135623731534
  0
VERTEX
  5
253B
  8
SAPA_PROFIL
 10
83.799999999440615
 20
-19.29999999901025
 30
0.0
  0
SEQEND
  5
253C
  8
SAPA_PROFIL
  0
POLYLINE
  5
19D9
  8
SAPA_PROFIL
 66
     1
 10
0.0
 20
0.0
 30
0.0
  0
VERTEX
  5
253D
  8
SAPA_PROFIL
 10
175.65910873291679
 20
-18.510832547935021
 30
0.0
  0
VERTEX
  5
253E
  8
SAPA_PROFIL
 10
175.65910873291679
 20
-21.01194334521551
 30
0.0
  0
VERTEX
  5
253F
  8
SAPA_PROFIL
 10
174.6876770865407
 20
-21.966566565413419
 30
0.0
  0
VERTEX
  5
2540
  8
SAPA_PROFIL
 10
171.98859581050621
 20
-21.966566565413419
 30
0.0
 42
0.4883397947196166
  0
VERTEX
  5
2541
  8
SAPA_PROFIL
 10
170.42687398449789
 20
-21.745943631215201
 30
0.0
  0
VERTEX
  5
2542
  8
SAPA_PROFIL
 10
170.35423430837011
 20
-22.827399356485731
 30
0.0
 42
0.4293387945586757
  0
VERTEX
  5
2543
  8
SAPA_PROFIL
 10
170.65096082945459
 20
-23.145510492475069
 30
0.0
  0
VERTEX
  5
2544
  8
SAPA_PROFIL
 10
175.20003686374281
 20
-23.145510492475069
 30
0.0
  0
VERTEX
  5
2545
  8
SAPA_PROFIL
 10
176.85472546136671
 20
-21.519452536281499
 30
0.0
  0
VERTEX
  5
2546
  8
SAPA_PROFIL
 10
176.8675530628924
 20
-19.04480478016211
 30
0.0
 42
-0.4182129759575377
  0
VERTEX
  5
2547
  8
SAPA_PROFIL
 10
177.3787141749479
 20
-18.54929305930489
 30
0.0
  0
VERTEX
  5
2548
  8
SAPA_PROFIL
 10
192.0670809025813
 20
-18.703731660959811
 30
0.0
 42
-0.4076789000515417
  0
VERTEX
  5
2549
  8
SAPA_PROFIL
 10
194.99999999944089
 20
-21.702981592598292
 30
0.0
  0
VERTEX
  5
254A
  8
SAPA_PROFIL
 10
194.99999999944089
 20
-27.202618542228262
 30
0.0
 42
-0.4142135623730951
  0
VERTEX
  5
254B
  8
SAPA_PROFIL
 10
194.49999999944089
 20
-27.702618542228262
 30
0.0
  0
VERTEX
  5
254C
  8
SAPA_PROFIL
 10
186.74999999944089
 20
-27.702618542228262
 30
0.0
 42
0.4142135623730904
  0
VERTEX
  5
254D
  8
SAPA_PROFIL
 10
184.94999999944079
 20
-29.502618542228209
 30
0.0
  0
VERTEX
  5
254E
  8
SAPA_PROFIL
 10
184.94999999944079
 20
-30.202618542228262
 30
0.0
 42
-0.4142135623730951
  0
VERTEX
  5
254F
  8
SAPA_PROFIL
 10
184.44999999944079
 20
-30.702618542228262
 30
0.0
  0
VERTEX
  5
2550
  8
SAPA_PROFIL
 10
174.59833515536769
 20
-30.702618542228269
 30
0.0
  0
VERTEX
  5
2551
  8
SAPA_PROFIL
 10
173.30239821344429
 20
-32.330253185203901
 30
0.0
  0
VERTEX
  5
2552
  8
SAPA_PROFIL
 10
172.8125679427545
 20
-32.758960875152411
 30
0.0
  0
VERTEX
  5
2553
  8
SAPA_PROFIL
 10
170.70168879423531
 20
-32.566654521163457
 30
0.0
 42
0.668178637919305
  0
VERTEX
  5
2554
  8
SAPA_PROFIL
 10
170.42852259904109
 20
-33.049002373254332
 30
0.0
  0
VERTEX
  5
2555
  8
SAPA_PROFIL
 10
171.19943271654549
 20
-35.159109712791967
 30
0.0
 42
0.7332303362618641
  0
VERTEX
  5
2556
  8
SAPA_PROFIL
 10
171.7355087391978
 20
-34.958935124221853
 30
0.0
  0
VERTEX
  5
2557
  8
SAPA_PROFIL
 10
171.69596584527949
 20
-34.23627903066285
 30
0.0
 42
-0.4666505291506066
  0
VERTEX
  5
2558
  8
SAPA_PROFIL
 10
171.97576741119821
 20
-33.9744474996183
 30
0.0
  0
VERTEX
  5
2559
  8
SAPA_PROFIL
 10
173.55733907550189
 20
-33.95258552236465
 30
0.0
  0
VERTEX
  5
255A
  8
SAPA_PROFIL
 10
175.37908221526709
 20
-32.00261854222822
 30
0.0
  0
VERTEX
  5
255B
  8
SAPA_PROFIL
 10
186.50999999944091
 20
-32.002618542228277
 30
0.0
 42
0.4142135623730951
  0
VERTEX
  5
255C
  8
SAPA_PROFIL
 10
187.49999999944089
 20
-31.012618542228271
 30
0.0
  0
VERTEX
  5
255D
  8
SAPA_PROFIL
 10
187.49999999944089
 20
-31.00261854222822
 30
0.0
  0
VERTEX
  5
255E
  8
SAPA_PROFIL
 10
186.24999999944089
 20
-31.00261854222822
 30
0.0
  0
VERTEX
  5
255F
  8
SAPA_PROFIL
 10
186.24999999944089
 20
-29.502618542228209
 30
0.0
 42
-0.4142135623730951
  0
VERTEX
  5
2560
  8
SAPA_PROFIL
 10
186.74999999944089
 20
-29.00261854222822
 30
0.0
  0
VERTEX
  5
2561
  8
SAPA_PROFIL
 10
194.74999999944089
 20
-29.00261854222822
 30
0.0
 42
-0.4142135623730951
  0
VERTEX
  5
2562
  8
SAPA_PROFIL
 10
195.2499999994408
 20
-29.502618542228209
 30
0.0
  0
VERTEX
  5
2563
  8
SAPA_PROFIL
 10
195.2499999994408
 20
-31.00261854222822
 30
0.0
  0
VERTEX
  5
2564
  8
SAPA_PROFIL
 10
193.99999999944089
 20
-31.00261854222822
 30
0.0
  0
VERTEX
  5
2565
  8
SAPA_PROFIL
 10
193.99999999944089
 20
-31.012618542228271
 30
0.0
 42
0.4142135623730909
  0
VERTEX
  5
2566
  8
SAPA_PROFIL
 10
194.9899999994409
 20
-32.00261854222822
 30
0.0
  0
VERTEX
  5
2567
  8
SAPA_PROFIL
 10
196.19999999944091
 20
-32.002618542228277
 30
0.0
 42
0.4142135623730951
  0
VERTEX
  5
2568
  8
SAPA_PROFIL
 10
196.49999999944089
 20
-31.702618542228262
 30
0.0
  0
VERTEX
  5
2569
  8
SAPA_PROFIL
 10
196.49999999944089
 20
-17.299989059241501
 30
0.0
 42
0.4116598904954198
  0
VERTEX
  5
256A
  8
SAPA_PROFIL
 10
196.20261796009029
 20
-17.0000004823222
 30
0.0
  0
VERTEX
  5
256B
  8
SAPA_PROFIL
 10
175.18533306640191
 20
-17.000000482322211
 30
0.0
  0
VERTEX
  5
256C
  8
SAPA_PROFIL
 10
175.18533306640191
 20
-18.512817202330549
 30
0.0
  0
VERTEX
  5
256D
  8
SAPA_PROFIL
 10
175.65910873291679
 20
-18.512817202330549
 30
0.0
  0
SEQEND
  5
256E
  8
SAPA_PROFIL
  0
POLYLINE
  5
19DA
  8
SAPA_PROFIL
 66
     1
 10
0.0
 20
0.0
 30
0.0
 70
     1
  0
VERTEX
  5
256F
  8
SAPA_PROFIL
 10
131.69999999944059
 20
-69.200000482322139
 30
0.0
 42
0.4142135623730951
  0
VERTEX
  5
2570
  8
SAPA_PROFIL
 10
131.9999999994406
 20
-69.500000482322207
 30
0.0
  0
VERTEX
  5
2571
  8
SAPA_PROFIL
 10
166.8757359307285
 20
-69.500000482322093
 30
0.0
 42
0.198912367379658
  0
VERTEX
  5
2572
  8
SAPA_PROFIL
 10
167.0878679650846
 20
-69.412132516678184
 30
0.0
  0
VERTEX
  5
2573
  8
SAPA_PROFIL
 10
170.41213203379641
 20
-66.08786844796623
 30
0.0
 42
0.1989123673796998
  0
VERTEX
  5
2574
  8
SAPA_PROFIL
 10
170.4999999994406
 20
-65.875736413610184
 30
0.0
  0
VERTEX
  5
2575
  8
SAPA_PROFIL
 10
170.49999999944049
 20
-62.400000482322177
 30
0.0
 42
0.4142135623730951
  0
VERTEX
  5
2576
  8
SAPA_PROFIL
 10
170.19999999944051
 20
-62.10000048232223
 30
0.0
  0
VERTEX
  5
2577
  8
SAPA_PROFIL
 10
162.7999999994405
 20
-62.100000482322109
 30
0.0
 42
-0.4142135623730951
  0
VERTEX
  5
2578
  8
SAPA_PROFIL
 10
162.4999999994406
 20
-61.800000482322162
 30
0.0
  0
VERTEX
  5
2579
  8
SAPA_PROFIL
 10
162.4999999994406
 20
-60.200000482322139
 30
0.0
 42
-0.4142135623730951
  0
VERTEX
  5
257A
  8
SAPA_PROFIL
 10
162.7999999994405
 20
-59.900000482322177
 30
0.0
  0
VERTEX
  5
257B
  8
SAPA_PROFIL
 10
171.19999999944051
 20
-59.900000482322177
 30
0.0
 42
0.4142135623730951
  0
VERTEX
  5
257C
  8
SAPA_PROFIL
 10
171.4999999994406
 20
-59.60000048232223
 30
0.0
  0
VERTEX
  5
257D
  8
SAPA_PROFIL
 10
171.49999999944049
 20
-46.800000482322162
 30
0.0
 42
0.4142135623730951
  0
VERTEX
  5
257E
  8
SAPA_PROFIL
 10
171.19999999944051
 20
-46.500000482322207
 30
0.0
  0
VERTEX
  5
257F
  8
SAPA_PROFIL
 10
167.19999999944051
 20
-46.500000482322207
 30
0.0
 42
-0.6681786379192989
  0
VERTEX
  5
2580
  8
SAPA_PROFIL
 10
166.84644660884749
 20
-45.646447091729208
 30
0.0
  0
VERTEX
  5
2581
  8
SAPA_PROFIL
 10
167.99289321825449
 20
-44.500000482322207
 30
0.0
  0
VERTEX
  5
2582
  8
SAPA_PROFIL
 10
171.19999999944051
 20
-44.500000482322207
 30
0.0
 42
0.4142135623730951
  0
VERTEX
  5
2583
  8
SAPA_PROFIL
 10
171.4999999994406
 20
-44.200000482322253
 30
0.0
  0
VERTEX
  5
2584
  8
SAPA_PROFIL
 10
171.4999999994406
 20
-43.366025886106172
 30
0.0
  0
VERTEX
  5
2585
  8
SAPA_PROFIL
 10
171.9999999994406
 20
-42.5000004823222
 30
0.0
  0
VERTEX
  5
2586
  8
SAPA_PROFIL
 10
171.4999999994406
 20
-41.633975078538242
 30
0.0
  0
VERTEX
  5
2587
  8
SAPA_PROFIL
 10
171.49999999944049
 20
-40.800000482322162
 30
0.0
 42
0.4142135623730951
  0
VERTEX
  5
2588
  8
SAPA_PROFIL
 10
171.19999999944051
 20
-40.5000004823222
 30
0.0
  0
VERTEX
  5
2589
  8
SAPA_PROFIL
 10
167.4999999994406
 20
-40.5000004823222
 30
0.0
  0
VERTEX
  5
258A
  8
SAPA_PROFIL
 10
166.4999999994406
 20
-39.500000482322207
 30
0.0
  0
VERTEX
  5
258B
  8
SAPA_PROFIL
 10
166.4999999994406
 20
-25.400000482322191
 30
0.0
 42
0.4142135623730951
  0
VERTEX
  5
258C
  8
SAPA_PROFIL
 10
166.19999999944051
 20
-25.10000048232223
 30
0.0
  0
VERTEX
  5
258D
  8
SAPA_PROFIL
 10
162.7999999994405
 20
-25.10000048232223
 30
0.0
 42
-0.4142135623730951
  0
VERTEX
  5
258E
  8
SAPA_PROFIL
 10
162.4999999994406
 20
-24.800000482322162
 30
0.0
  0
VERTEX
  5
258F
  8
SAPA_PROFIL
 10
162.4999999994406
 20
-23.200000482322249
 30
0.0
 42
-0.4142135623730951
  0
VERTEX
  5
2590
  8
SAPA_PROFIL
 10
162.7999999994405
 20
-22.900000482322302
 30
0.0
  0
VERTEX
  5
2591
  8
SAPA_PROFIL
 10
166.19999999944051
 20
-22.900000482322191
 30
0.0
 42
0.4142135623730951
  0
VERTEX
  5
2592
  8
SAPA_PROFIL
 10
166.49999999944049
 20
-22.60000048232223
 30
0.0
  0
VERTEX
  5
2593
  8
SAPA_PROFIL
 10
166.4999999994406
 20
-15.80000048232216
 30
0.0
 42
0.4142135623730951
  0
VERTEX
  5
2594
  8
SAPA_PROFIL
 10
166.19999999944051
 20
-15.5000004823222
 30
0.0
  0
VERTEX
  5
2595
  8
SAPA_PROFIL
 10
131.9999999994406
 20
-15.5000004823222
 30
0.0
 42
0.4142135623730951
  0
VERTEX
  5
2596
  8
SAPA_PROFIL
 10
131.69999999944059
 20
-15.80000048232216
 30
0.0
  0
VERTEX
  5
2597
  8
SAPA_PROFIL
 10
131.69999999944051
 20
-22.60000048232223
 30
0.0
 42
0.4142135623730951
  0
VERTEX
  5
2598
  8
SAPA_PROFIL
 10
131.9999999994406
 20
-22.900000482322191
 30
0.0
  0
VERTEX
  5
2599
  8
SAPA_PROFIL
 10
135.39999999944061
 20
-22.900000482322191
 30
0.0
 42
-0.4142135623730951
  0
VERTEX
  5
259A
  8
SAPA_PROFIL
 10
135.69999999944051
 20
-23.200000482322249
 30
0.0
  0
VERTEX
  5
259B
  8
SAPA_PROFIL
 10
135.69999999944051
 20
-24.800000482322162
 30
0.0
 42
-0.4142135623730951
  0
VERTEX
  5
259C
  8
SAPA_PROFIL
 10
135.39999999944061
 20
-25.10000048232212
 30
0.0
  0
VERTEX
  5
259D
  8
SAPA_PROFIL
 10
130.7999999994405
 20
-25.10000048232223
 30
0.0
 42
0.4142135623730951
  0
VERTEX
  5
259E
  8
SAPA_PROFIL
 10
130.4999999994406
 20
-25.400000482322191
 30
0.0
  0
VERTEX
  5
259F
  8
SAPA_PROFIL
 10
130.4999999994406
 20
-59.60000048232223
 30
0.0
 42
0.4142135623730951
  0
VERTEX
  5
25A0
  8
SAPA_PROFIL
 10
130.7999999994405
 20
-59.900000482322177
 30
0.0
  0
VERTEX
  5
25A1
  8
SAPA_PROFIL
 10
135.39999999944061
 20
-59.900000482322177
 30
0.0
 42
-0.4142135623730951
  0
VERTEX
  5
25A2
  8
SAPA_PROFIL
 10
135.69999999944051
 20
-60.200000482322139
 30
0.0
  0
VERTEX
  5
25A3
  8
SAPA_PROFIL
 10
135.69999999944051
 20
-61.800000482322162
 30
0.0
 42
-0.4142135623730951
  0
VERTEX
  5
25A4
  8
SAPA_PROFIL
 10
135.39999999944061
 20
-62.100000482322109
 30
0.0
  0
VERTEX
  5
25A5
  8
SAPA_PROFIL
 10
131.9999999994406
 20
-62.10000048232223
 30
0.0
 42
0.4142135623730951
  0
VERTEX
  5
25A6
  8
SAPA_PROFIL
 10
131.69999999944059
 20
-62.400000482322177
 30
0.0
  0
SEQEND
  5
25A7
  8
SAPA_PROFIL
  0
POLYLINE
  5
19DB
  8
SAPA_PROFIL
 66
     1
 10
0.0
 20
0.0
 30
0.0
 70
     1
  0
VERTEX
  5
25A8
  8
SAPA_PROFIL
 10
120.19999999944049
 20
-64.700000482322366
 30
0.0
 42
-0.4142135623730951
  0
VERTEX
  5
25A9
  8
SAPA_PROFIL
 10
120.4999999994406
 20
-65.000000482322321
 30
0.0
  0
VERTEX
  5
25AA
  8
SAPA_PROFIL
 10
120.4999999994407
 20
-65.450000482322366
 30
0.0
 42
0.4142135623730951
  0
VERTEX
  5
25AB
  8
SAPA_PROFIL
 10
120.7999999994406
 20
-65.750000482322321
 30
0.0
  0
VERTEX
  5
25AC
  8
SAPA_PROFIL
 10
121.4999999994405
 20
-65.750000482322321
 30
0.0
 42
0.4142135623731506
  0
VERTEX
  5
25AD
  8
SAPA_PROFIL
 10
121.7999999994405
 20
-65.450000482322366
 30
0.0
  0
VERTEX
  5
25AE
  8
SAPA_PROFIL
 10
121.7999999994405
 20
-65.000000482322321
 30
0.0
 42
-0.4142135623731506
  0
VERTEX
  5
25AF
  8
SAPA_PROFIL
 10
122.0999999994406
 20
-64.700000482322366
 30
0.0
  0
VERTEX
  5
25B0
  8
SAPA_PROFIL
 10
122.5999999994406
 20
-64.700000482322253
 30
0.0
 42
-0.4142135623730951
  0
VERTEX
  5
25B1
  8
SAPA_PROFIL
 10
123.0999999994406
 20
-65.200000482322253
 30
0.0
  0
VERTEX
  5
25B2
  8
SAPA_PROFIL
 10
123.0999999994406
 20
-66.60000048232223
 30
0.0
 42
0.4142135623730951
  0
VERTEX
  5
25B3
  8
SAPA_PROFIL
 10
124.0999999994406
 20
-67.60000048232223
 30
0.0
  0
VERTEX
  5
25B4
  8
SAPA_PROFIL
 10
124.4999999994406
 20
-67.600000482322343
 30
0.0
 42
0.9999999999999998
  0
VERTEX
  5
25B5
  8
SAPA_PROFIL
 10
124.4999999994406
 20
-60.400000482322291
 30
0.0
  0
VERTEX
  5
25B6
  8
SAPA_PROFIL
 10
123.3999999994404
 20
-60.400000482322191
 30
0.0
 42
0.4142135623732059
  0
VERTEX
  5
25B7
  8
SAPA_PROFIL
 10
123.0999999994404
 20
-60.700000482322253
 30
0.0
  0
VERTEX
  5
25B8
  8
SAPA_PROFIL
 10
123.0999999994406
 20
-61.000000482322093
 30
0.0
 42
-0.4142135623733948
  0
VERTEX
  5
25B9
  8
SAPA_PROFIL
 10
122.5999999994406
 20
-61.500000482322427
 30
0.0
  0
VERTEX
  5
25BA
  8
SAPA_PROFIL
 10
122.0999999994406
 20
-61.500000482322427
 30
0.0
 42
-0.4142135623730397
  0
VERTEX
  5
25BB
  8
SAPA_PROFIL
 10
121.7999999994406
 20
-61.20000048232248
 30
0.0
  0
VERTEX
  5
25BC
  8
SAPA_PROFIL
 10
121.7999999994405
 20
-60.750000482322321
 30
0.0
 42
0.4142135623731505
  0
VERTEX
  5
25BD
  8
SAPA_PROFIL
 10
121.4999999994405
 20
-60.450000482322359
 30
0.0
  0
VERTEX
  5
25BE
  8
SAPA_PROFIL
 10
120.7999999994406
 20
-60.450000482322359
 30
0.0
 42
0.4142135623730951
  0
VERTEX
  5
25BF
  8
SAPA_PROFIL
 10
120.4999999994406
 20
-60.750000482322321
 30
0.0
  0
VERTEX
  5
25C0
  8
SAPA_PROFIL
 10
120.4999999994406
 20
-61.200000482322359
 30
0.0
 42
-0.4142135623730951
  0
VERTEX
  5
25C1
  8
SAPA_PROFIL
 10
120.19999999944049
 20
-61.500000482322427
 30
0.0
  0
VERTEX
  5
25C2
  8
SAPA_PROFIL
 10
119.49999999944011
 20
-61.500000482321859
 30
0.0
 42
-0.2504916501726643
  0
VERTEX
  5
25C3
  8
SAPA_PROFIL
 10
118.4999999994406
 20
-60.500000482322427
 30
0.0
  0
VERTEX
  5
25C4
  8
SAPA_PROFIL
 10
118.4999999994406
 20
-58.200000482322373
 30
0.0
 42
-0.4142135623730951
  0
VERTEX
  5
25C5
  8
SAPA_PROFIL
 10
119.4999999994406
 20
-57.200000482322359
 30
0.0
  0
VERTEX
  5
25C6
  8
SAPA_PROFIL
 10
127.19999999944049
 20
-57.200000482322359
 30
0.0
 42
0.4142135623730951
  0
VERTEX
  5
25C7
  8
SAPA_PROFIL
 10
127.4999999994406
 20
-56.900000482322412
 30
0.0
  0
VERTEX
  5
25C8
  8
SAPA_PROFIL
 10
127.4999999994406
 20
-43.366025886106172
 30
0.0
  0
VERTEX
  5
25C9
  8
SAPA_PROFIL
 10
127.9999999994406
 20
-42.5000004823222
 30
0.0
  0
VERTEX
  5
25CA
  8
SAPA_PROFIL
 10
127.4999999994406
 20
-41.633975078538242
 30
0.0
  0
VERTEX
  5
25CB
  8
SAPA_PROFIL
 10
127.4999999994405
 20
-28.10000048232223
 30
0.0
 42
0.4142135623730951
  0
VERTEX
  5
25CC
  8
SAPA_PROFIL
 10
127.19999999944049
 20
-27.800000482322051
 30
0.0
  0
VERTEX
  5
25CD
  8
SAPA_PROFIL
 10
119.4999999994406
 20
-27.800000482322051
 30
0.0
 42
-0.4142135623730951
  0
VERTEX
  5
25CE
  8
SAPA_PROFIL
 10
118.4999999994406
 20
-26.800000482322051
 30
0.0
  0
VERTEX
  5
25CF
  8
SAPA_PROFIL
 10
118.4999999994406
 20
-24.50000048232198
 30
0.0
 42
-0.2504916501726643
  0
VERTEX
  5
25D0
  8
SAPA_PROFIL
 10
119.49999999944011
 20
-23.500000482322552
 30
0.0
  0
VERTEX
  5
25D1
  8
SAPA_PROFIL
 10
120.19999999944049
 20
-23.50000048232198
 30
0.0
 42
-0.4142135623730951
  0
VERTEX
  5
25D2
  8
SAPA_PROFIL
 10
120.4999999994406
 20
-23.800000482322051
 30
0.0
  0
VERTEX
  5
25D3
  8
SAPA_PROFIL
 10
120.4999999994406
 20
-24.2500004823221
 30
0.0
 42
0.4142135623730951
  0
VERTEX
  5
25D4
  8
SAPA_PROFIL
 10
120.7999999994406
 20
-24.550000482322051
 30
0.0
  0
VERTEX
  5
25D5
  8
SAPA_PROFIL
 10
121.4999999994405
 20
-24.550000482322051
 30
0.0
 42
0.4142135623731506
  0
VERTEX
  5
25D6
  8
SAPA_PROFIL
 10
121.7999999994405
 20
-24.2500004823221
 30
0.0
  0
VERTEX
  5
25D7
  8
SAPA_PROFIL
 10
121.7999999994406
 20
-23.800000482321941
 30
0.0
 42
-0.4142135623730397
  0
VERTEX
  5
25D8
  8
SAPA_PROFIL
 10
122.0999999994406
 20
-23.50000048232198
 30
0.0
  0
VERTEX
  5
25D9
  8
SAPA_PROFIL
 10
122.5999999994406
 20
-23.50000048232198
 30
0.0
 42
-0.4142135623733948
  0
VERTEX
  5
25DA
  8
SAPA_PROFIL
 10
123.0999999994406
 20
-24.000000482322321
 30
0.0
  0
VERTEX
  5
25DB
  8
SAPA_PROFIL
 10
123.0999999994404
 20
-24.300000482322162
 30
0.0
 42
0.4142135623732059
  0
VERTEX
  5
25DC
  8
SAPA_PROFIL
 10
123.3999999994404
 20
-24.60000048232223
 30
0.0
  0
VERTEX
  5
25DD
  8
SAPA_PROFIL
 10
124.4999999994406
 20
-24.60000048232212
 30
0.0
 42
0.9999999999999998
  0
VERTEX
  5
25DE
  8
SAPA_PROFIL
 10
124.4999999994406
 20
-17.400000482322071
 30
0.0
  0
VERTEX
  5
25DF
  8
SAPA_PROFIL
 10
124.0999999994406
 20
-17.400000482322181
 30
0.0
 42
0.4142135623730951
  0
VERTEX
  5
25E0
  8
SAPA_PROFIL
 10
123.0999999994406
 20
-18.400000482322181
 30
0.0
  0
VERTEX
  5
25E1
  8
SAPA_PROFIL
 10
123.0999999994406
 20
-19.800000482322162
 30
0.0
 42
-0.4142135623730951
  0
VERTEX
  5
25E2
  8
SAPA_PROFIL
 10
122.5999999994406
 20
-20.300000482322162
 30
0.0
  0
VERTEX
  5
25E3
  8
SAPA_PROFIL
 10
122.0999999994406
 20
-20.300000482322051
 30
0.0
 42
-0.4142135623731506
  0
VERTEX
  5
25E4
  8
SAPA_PROFIL
 10
121.7999999994405
 20
-20.00000048232209
 30
0.0
  0
VERTEX
  5
25E5
  8
SAPA_PROFIL
 10
121.7999999994405
 20
-19.550000482322051
 30
0.0
 42
0.4142135623731505
  0
VERTEX
  5
25E6
  8
SAPA_PROFIL
 10
121.4999999994405
 20
-19.25000048232209
 30
0.0
  0
VERTEX
  5
25E7
  8
SAPA_PROFIL
 10
120.7999999994406
 20
-19.25000048232209
 30
0.0
 42
0.4142135623730951
  0
VERTEX
  5
25E8
  8
SAPA_PROFIL
 10
120.4999999994407
 20
-19.550000482322051
 30
0.0
  0
VERTEX
  5
25E9
  8
SAPA_PROFIL
 10
120.4999999994406
 20
-20.00000048232209
 30
0.0
 42
-0.4142135623730951
  0
VERTEX
  5
25EA
  8
SAPA_PROFIL
 10
120.19999999944049
 20
-20.300000482322051
 30
0.0
  0
VERTEX
  5
25EB
  8
SAPA_PROFIL
 10
119.4999999994406
 20
-20.300000482322051
 30
0.0
 42
-0.2504916501726753
  0
VERTEX
  5
25EC
  8
SAPA_PROFIL
 10
118.49999999944011
 20
-19.300000482321821
 30
0.0
  0
VERTEX
  5
25ED
  8
SAPA_PROFIL
 10
118.4999999994406
 20
-16.914214044695079
 30
0.0
 42
-0.1989123673796728
  0
VERTEX
  5
25EE
  8
SAPA_PROFIL
 10
118.79289321825399
 20
-16.207107263508529
 30
0.0
  0
VERTEX
  5
25EF
  8
SAPA_PROFIL
 10
121.62132034300051
 20
-13.378680138763
 30
0.0
 42
-0.1989123673796725
  0
VERTEX
  5
25F0
  8
SAPA_PROFIL
 10
123.7426406865596
 20
-12.500000482322211
 30
0.0
  0
VERTEX
  5
25F1
  8
SAPA_PROFIL
 10
169.2573593123216
 20
-12.500000482322211
 30
0.0
 42
-0.1989123673796575
  0
VERTEX
  5
25F2
  8
SAPA_PROFIL
 10
171.3786796558806
 20
-13.378680138762199
 30
0.0
  0
VERTEX
  5
25F3
  8
SAPA_PROFIL
 10
174.2071067806271
 20
-16.20710726350864
 30
0.0
 42
-0.198912367379658
  0
VERTEX
  5
25F4
  8
SAPA_PROFIL
 10
174.4999999994406
 20
-16.9142140446952
 30
0.0
  0
VERTEX
  5
25F5
  8
SAPA_PROFIL
 10
174.4999999994406
 20
-20.000000482322211
 30
0.0
  0
VERTEX
  5
25F6
  8
SAPA_PROFIL
 10
173.4999999994406
 20
-21.000000482322211
 30
0.0
  0
VERTEX
  5
25F7
  8
SAPA_PROFIL
 10
172.4999999994406
 20
-21.000000482322211
 30
0.0
  0
VERTEX
  5
25F8
  8
SAPA_PROFIL
 10
172.49999999944049
 20
-18.950000482322249
 30
0.0
 42
0.4142135623730951
  0
VERTEX
  5
25F9
  8
SAPA_PROFIL
 10
172.19999999944051
 20
-18.650000482322181
 30
0.0
  0
VERTEX
  5
25FA
  8
SAPA_PROFIL
 10
169.7499999994406
 20
-18.650000482322302
 30
0.0
 42
0.4142135623730951
  0
VERTEX
  5
25FB
  8
SAPA_PROFIL
 10
169.44999999944051
 20
-18.950000482322249
 30
0.0
  0
VERTEX
  5
25FC
  8
SAPA_PROFIL
 10
169.44999999944059
 20
-37.050000482322162
 30
0.0
 42
0.414213562373095
  0
VERTEX
  5
25FD
  8
SAPA_PROFIL
 10
169.7499999994406
 20
-37.35000048232223
 30
0.0
  0
VERTEX
  5
25FE
  8
SAPA_PROFIL
 10
172.19999999944051
 20
-37.350000482322123
 30
0.0
 42
0.4142135623730951
  0
VERTEX
  5
25FF
  8
SAPA_PROFIL
 10
172.4999999994406
 20
-37.050000482322162
 30
0.0
  0
VERTEX
  5
2600
  8
SAPA_PROFIL
 10
172.4999999994406
 20
-35.300000482322162
 30
0.0
 42
-0.4142135623730951
  0
VERTEX
  5
2601
  8
SAPA_PROFIL
 10
172.7999999994405
 20
-35.000000482322207
 30
0.0
  0
VERTEX
  5
2602
  8
SAPA_PROFIL
 10
173.4999999994406
 20
-35.000000482322207
 30
0.0
  0
VERTEX
  5
2603
  8
SAPA_PROFIL
 10
174.4999999994406
 20
-36.000000482322207
 30
0.0
  0
VERTEX
  5
2604
  8
SAPA_PROFIL
 10
174.4999999994406
 20
-41.633975078538242
 30
0.0
  0
VERTEX
  5
2605
  8
SAPA_PROFIL
 10
173.9999999994406
 20
-42.5000004823222
 30
0.0
  0
VERTEX
  5
2606
  8
SAPA_PROFIL
 10
174.4999999994406
 20
-43.366025886106172
 30
0.0
  0
VERTEX
  5
2607
  8
SAPA_PROFIL
 10
174.4999999994406
 20
-62.5000004823222
 30
0.0
 42
0.4142135623730951
  0
VERTEX
  5
2608
  8
SAPA_PROFIL
 10
175.4999999994406
 20
-63.500000482322207
 30
0.0
  0
VERTEX
  5
2609
  8
SAPA_PROFIL
 10
184.9999999994406
 20
-63.500000482322207
 30
0.0
 42
-0.4142135623730951
  0
VERTEX
  5
260A
  8
SAPA_PROFIL
 10
185.9999999994406
 20
-62.5000004823222
 30
0.0
  0
VERTEX
  5
260B
  8
SAPA_PROFIL
 10
186.5675444674055
 20
-62.5000004823222
 30
0.0
 42
-0.2896898633030159
  0
VERTEX
  5
260C
  8
SAPA_PROFIL
 10
187.4710523703111
 20
-63.071429053751551
 30
0.0
 42
-0.5507604245859661
  0
VERTEX
  5
260D
  8
SAPA_PROFIL
 10
187.19999999944051
 20
-63.500000482320161
 30
0.0
  0
VERTEX
  5
260E
  8
SAPA_PROFIL
 10
186.5499999994405
 20
-63.500000482322207
 30
0.0
 42
0.4142135623730951
  0
VERTEX
  5
260F
  8
SAPA_PROFIL
 10
186.2499999994406
 20
-63.800000482322162
 30
0.0
  0
VERTEX
  5
2610
  8
SAPA_PROFIL
 10
186.2499999994406
 20
-65.000000482322207
 30
0.0
 42
0.4142135623730951
  0
VERTEX
  5
2611
  8
SAPA_PROFIL
 10
186.7499999994406
 20
-65.500000482322207
 30
0.0
  0
VERTEX
  5
2612
  8
SAPA_PROFIL
 10
194.7499999994406
 20
-65.500000482322207
 30
0.0
 42
0.4142135623730951
  0
VERTEX
  5
2613
  8
SAPA_PROFIL
 10
195.2499999994406
 20
-65.000000482322207
 30
0.0
  0
VERTEX
  5
2614
  8
SAPA_PROFIL
 10
195.2499999994406
 20
-63.800000482322162
 30
0.0
 42
0.4142135623730951
  0
VERTEX
  5
2615
  8
SAPA_PROFIL
 10
194.94999999944051
 20
-63.500000482322207
 30
0.0
  0
VERTEX
  5
2616
  8
SAPA_PROFIL
 10
194.2999999994405
 20
-63.500000482322207
 30
0.0
 42
-0.5507604245859089
  0
VERTEX
  5
2617
  8
SAPA_PROFIL
 10
194.02894762856889
 20
-63.07142905375099
 30
0.0
 42
-0.2896898633030179
  0
VERTEX
  5
2618
  8
SAPA_PROFIL
 10
194.93245553147551
 20
-62.50000048232323
 30
0.0
  0
VERTEX
  5
2619
  8
SAPA_PROFIL
 10
196.19999999944051
 20
-62.5000004823222
 30
0.0
 42
-0.4142135623730951
  0
VERTEX
  5
261A
  8
SAPA_PROFIL
 10
196.49999999944049
 20
-62.800000482322162
 30
0.0
  0
VERTEX
  5
261B
  8
SAPA_PROFIL
 10
196.4999999994406
 20
-67.000000482322207
 30
0.0
 42
-0.4142135623730951
  0
VERTEX
  5
261C
  8
SAPA_PROFIL
 10
195.4999999994406
 20
-68.000000482322207
 30
0.0
  0
VERTEX
  5
261D
  8
SAPA_PROFIL
 10
176.24264068655961
 20
-68.000000482322207
 30
0.0
 42
0.1989123673796595
  0
VERTEX
  5
261E
  8
SAPA_PROFIL
 10
174.12132034299989
 20
-68.878680138762533
 30
0.0
  0
VERTEX
  5
261F
  8
SAPA_PROFIL
 10
171.3786796558806
 20
-71.621320825882208
 30
0.0
 42
-0.1989123673796574
  0
VERTEX
  5
2620
  8
SAPA_PROFIL
 10
169.2573593123216
 20
-72.500000482322207
 30
0.0
  0
VERTEX
  5
2621
  8
SAPA_PROFIL
 10
123.7426406865596
 20
-72.500000482322207
 30
0.0
 42
-0.1989123673796727
  0
VERTEX
  5
2622
  8
SAPA_PROFIL
 10
121.62132034300051
 20
-71.621320825881412
 30
0.0
  0
VERTEX
  5
2623
  8
SAPA_PROFIL
 10
118.79289321825399
 20
-68.792893701135881
 30
0.0
 42
-0.1989123673796728
  0
VERTEX
  5
2624
  8
SAPA_PROFIL
 10
118.4999999994406
 20
-68.085786919949328
 30
0.0
  0
VERTEX
  5
2625
  8
SAPA_PROFIL
 10
118.49999999944011
 20
-65.700000482322594
 30
0.0
 42
-0.2504916501726754
  0
VERTEX
  5
2626
  8
SAPA_PROFIL
 10
119.4999999994406
 20
-64.700000482322366
 30
0.0
  0
SEQEND
  5
2627
  8
SAPA_PROFIL
  0
POLYLINE
  5
19DC
  8
SAPA_PROFIL
 66
     1
 10
0.0
 20
0.0
 30
0.0
 70
     1
  0
VERTEX
  5
2628
  8
SAPA_PROFIL
 10
22.800000000000178
 20
-81.098475071208085
 30
0.0
  0
VERTEX
  5
2629
  8
SAPA_PROFIL
 10
23.800000000000178
 20
-81.098475071208085
 30
0.0
  0
VERTEX
  5
262A
  8
SAPA_PROFIL
 10
23.800000000000178
 20
-78.498475071207935
 30
0.0
 42
-0.4142135623730951
  0
VERTEX
  5
262B
  8
SAPA_PROFIL
 10
24.300000000000178
 20
-77.998475071207935
 30
0.0
  0
VERTEX
  5
262C
  8
SAPA_PROFIL
 10
24.700000000000269
 20
-77.998475071207935
 30
0.0
 42
-0.4142135623730951
  0
VERTEX
  5
262D
  8
SAPA_PROFIL
 10
25.000000000000231
 20
-78.298475071207875
 30
0.0
  0
VERTEX
  5
262E
  8
SAPA_PROFIL
 10
25.000000000000231
 20
-95.999999999010583
 30
0.0
 42
-0.4142135623730951
  0
VERTEX
  5
262F
  8
SAPA_PROFIL
 10
24.500000000000231
 20
-96.499999999010583
 30
0.0
  0
VERTEX
  5
2630
  8
SAPA_PROFIL
 10
-24.499999999999769
 20
-96.499999999010583
 30
0.0
 42
-0.4142135623730951
  0
VERTEX
  5
2631
  8
SAPA_PROFIL
 10
-24.999999999999769
 20
-95.999999999010583
 30
0.0
  0
VERTEX
  5
2632
  8
SAPA_PROFIL
 10
-24.999999999999769
 20
-78.298475071207875
 30
0.0
 42
-0.4142135623730951
  0
VERTEX
  5
2633
  8
SAPA_PROFIL
 10
-24.699999999999822
 20
-77.998475071207935
 30
0.0
  0
VERTEX
  5
2634
  8
SAPA_PROFIL
 10
-24.299999999999731
 20
-77.998475071207935
 30
0.0
 42
-0.4142135623730951
  0
VERTEX
  5
2635
  8
SAPA_PROFIL
 10
-23.799999999999731
 20
-78.498475071207935
 30
0.0
  0
VERTEX
  5
2636
  8
SAPA_PROFIL
 10
-23.799999999999731
 20
-81.098475071208085
 30
0.0
  0
VERTEX
  5
2637
  8
SAPA_PROFIL
 10
-22.799999999999731
 20
-81.098475071208085
 30
0.0
  0
VERTEX
  5
2638
  8
SAPA_PROFIL
 10
-22.22033922157857
 20
-82.102507830841091
 30
0.0
 42
-0.4155392929676362
  0
VERTEX
  5
2639
  8
SAPA_PROFIL
 10
-22.51631264788443
 20
-83.197126802633065
 30
0.0
  0
VERTEX
  5
263A
  8
SAPA_PROFIL
 10
-23.799999999999731
 20
-83.93826404093204
 30
0.0
  0
VERTEX
  5
263B
  8
SAPA_PROFIL
 10
-23.799999999999731
 20
-94.099999999010734
 30
0.0
 42
0.4142135623730951
  0
VERTEX
  5
263C
  8
SAPA_PROFIL
 10
-22.799999999999731
 20
-95.09999999901072
 30
0.0
  0
VERTEX
  5
263D
  8
SAPA_PROFIL
 10
22.800000000000178
 20
-95.09999999901072
 30
0.0
 42
0.4142135623730951
  0
VERTEX
  5
263E
  8
SAPA_PROFIL
 10
23.800000000000178
 20
-94.099999999010734
 30
0.0
  0
VERTEX
  5
263F
  8
SAPA_PROFIL
 10
23.800000000000178
 20
-83.93826404093204
 30
0.0
  0
VERTEX
  5
2640
  8
SAPA_PROFIL
 10
22.516312647884892
 20
-83.197126802633065
 30
0.0
 42
-0.4155392929676362
  0
VERTEX
  5
2641
  8
SAPA_PROFIL
 10
22.220339221579032
 20
-82.102507830841091
 30
0.0
  0
SEQEND
  5
2642
  8
SAPA_PROFIL
  0
LINE
  5
19DD
  8
SAPA_PROFIL
 10
-23.300000000000072
 20
-76.49999999901047
 30
0.0
 11
-20.85000000000025
 21
-76.49999999901047
 31
0.0
  0
ARC
  5
19DE
  8
SAPA_PROFIL
 10
-23.300000000000072
 20
-76.99999999901047
 30
0.0
 40
0.5
 50
90.0
 51
180.0
  0
LINE
  5
19DF
  8
SAPA_PROFIL
 10
-23.800000000000519
 20
-80.699999999010274
 30
0.0
 11
-23.800000000000072
 21
-76.99999999901047
 31
0.0
  0
ARC
  5
19E0
  8
SAPA_PROFIL
 10
-23.500000000000341
 20
-80.699999999010274
 30
0.0
 40
0.3000000000001819
 50
180.0
 51
270.0
  0
LINE
  5
19E1
  8
SAPA_PROFIL
 10
-22.473205080757339
 20
-80.99999999901047
 30
0.0
 11
-23.500000000000341
 21
-80.99999999901047
 31
0.0
  0
ARC
  5
19E2
  8
SAPA_PROFIL
 10
-22.473205080757449
 20
-81.299999999010396
 30
0.0
 40
0.2999999999999225
 50
29.9999999999722
 51
89.999999999978314
  0
LINE
  5
19E3
  8
SAPA_PROFIL
 10
-21.325961894323768
 20
-82.687083486550804
 30
0.0
 11
-22.213397459622112
 21
-81.149999999010575
 31
0.0
  0
ARC
  5
19E4
  8
SAPA_PROFIL
 10
-21.585769515458949
 20
-82.837083486550924
 30
0.0
 40
0.2999999999999183
 50
300.00000000001972
 51
30.000000000031779
  0
LINE
  5
19E5
  8
SAPA_PROFIL
 10
-21.967911113762401
 20
-83.404123202713436
 30
0.0
 11
-21.435769515458901
 21
-83.096891107686133
 31
0.0
  0
ARC
  5
19E6
  8
SAPA_PROFIL
 10
-21.46791111376243
 20
-84.270148606497614
 30
0.0
 40
0.9999999999997509
 50
120.00000000000639
 51
220.0000000000266
  0
LINE
  5
19E7
  8
SAPA_PROFIL
 10
-18.115270605417091
 20
-89.821393803853425
 30
0.0
 11
-22.233955556880911
 21
-84.912936216184335
 31
0.0
  0
ARC
  5
19E8
  8
SAPA_PROFIL
 10
-17.732248383857339
 20
-89.499999999010456
 30
0.0
 40
0.5000000000000142
 50
219.99999999995401
 51
269.99999999994299
  0
LINE
  5
19E9
  8
SAPA_PROFIL
 10
-9.7002075382096091
 20
-89.999999999010484
 30
0.0
 11
-17.732248383857829
 21
-89.999999999010484
 31
0.0
  0
ARC
  5
19EA
  8
SAPA_PROFIL
 10
-9.7002075382096837
 20
-88.999999999010342
 30
0.0
 40
1.000000000000131
 50
270.00000000000409
 51
340.00000000000529
  0
LINE
  5
19EB
  8
SAPA_PROFIL
 10
-7.4196339112453407
 20
-85.657979855684516
 30
0.0
 11
-8.7605149174236203
 21
-89.342020142335954
 31
0.0
  0
ARC
  5
19EC
  8
SAPA_PROFIL
 10
-6.4799412904592639
 20
-85.999999999010171
 30
0.0
 40
1.0000000000001561
 50
90.000000000004917
 51
160.00000000000401
  0
LINE
  5
19ED
  8
SAPA_PROFIL
 10
6.4799412904591227
 20
-84.999999999010015
 30
0.0
 11
-6.4799412904593501
 21
-84.999999999010015
 31
0.0
  0
ARC
  5
19EE
  8
SAPA_PROFIL
 10
6.4799412904590374
 20
-85.999999999010171
 30
0.0
 40
1.000000000000153
 50
19.999999999995971
 51
89.999999999995069
  0
LINE
  5
19EF
  8
SAPA_PROFIL
 10
8.7605149174238477
 20
-89.342020142335954
 30
0.0
 11
7.4196339112451142
 21
-85.657979855684516
 31
0.0
  0
ARC
  5
19F0
  8
SAPA_PROFIL
 10
9.7002075382099111
 20
-88.999999999010342
 30
0.0
 40
1.000000000000127
 50
199.99999999999471
 51
269.99999999999579
  0
LINE
  5
19F1
  8
SAPA_PROFIL
 10
17.732248383857609
 20
-89.999999999010484
 30
0.0
 11
9.7002075382098383
 21
-89.999999999010484
 31
0.0
  0
ARC
  5
19F2
  8
SAPA_PROFIL
 10
17.732248383857339
 20
-89.499999999009972
 30
0.0
 40
0.5000000000004964
 50
270.00000000003092
 51
320.00000000002029
  0
LINE
  5
19F3
  8
SAPA_PROFIL
 10
22.233955556881138
 20
-84.912936216184335
 30
0.0
 11
18.115270605417319
 21
-89.821393803853425
 31
0.0
  0
ARC
  5
19F4
  8
SAPA_PROFIL
 10
21.46791111376243
 20
-84.270148606497798
 30
0.0
 40
0.9999999999998065
 50
319.99999999999051
 51
60.00000000001053
  0
LINE
  5
19F5
  8
SAPA_PROFIL
 10
21.435769515459128
 20
-83.096891107686133
 30
0.0
 11
21.96791111376217
 21
-83.404123202713436
 31
0.0
  0
ARC
  5
19F6
  8
SAPA_PROFIL
 10
21.585769515458939
 20
-82.837083486550696
 30
0.0
 40
0.2999999999999962
 50
150.00000000002649
 51
240.00000000004141
  0
LINE
  5
19F7
  8
SAPA_PROFIL
 10
22.213397459621891
 20
-81.149999999010575
 30
0.0
 11
21.325961894323541
 21
-82.687083486550804
 31
0.0
  0
ARC
  5
19F8
  8
SAPA_PROFIL
 10
22.473205080757229
 20
-81.299999999010396
 30
0.0
 40
0.2999999999999261
 50
90.000000000023064
 51
150.00000000002851
  0
LINE
  5
19F9
  8
SAPA_PROFIL
 10
23.500000000000568
 20
-80.99999999901047
 30
0.0
 11
22.473205080757111
 21
-80.99999999901047
 31
0.0
  0
ARC
  5
19FA
  8
SAPA_PROFIL
 10
23.500000000000341
 20
-80.699999999010515
 30
0.0
 40
0.2999999999999545
 50
270.00000000004343
 51
0.0000000000434252
  0
LINE
  5
19FB
  8
SAPA_PROFIL
 10
23.800000000000299
 20
-76.99999999901047
 30
0.0
 11
23.800000000000299
 21
-80.699999999010274
 31
0.0
  0
ARC
  5
19FC
  8
SAPA_PROFIL
 10
23.300000000000299
 20
-76.99999999901047
 30
0.0
 40
0.5
 50
0.0
 51
90.0
  0
LINE
  5
19FD
  8
SAPA_PROFIL
 10
20.850000000000019
 20
-76.49999999901047
 30
0.0
 11
23.300000000000299
 21
-76.49999999901047
 31
0.0
  0
ARC
  5
19FE
  8
SAPA_PROFIL
 10
20.849999999999909
 20
-76.799999999010154
 30
0.0
 40
0.2999999999996829
 50
89.999999999978314
 51
134.99999999999039
  0
LINE
  5
19FF
  8
SAPA_PROFIL
 10
20.237867965644121
 20
-76.98786796465447
 30
0.0
 11
20.637867965644201
 21
-76.587867964654379
 31
0.0
  0
ARC
  5
1A00
  8
SAPA_PROFIL
 10
20.450000000000291
 20
-77.199999999010373
 30
0.0
 40
0.3000000000000966
 50
135.00000000003641
 51
270.00000000001899
  0
LINE
  5
1A01
  8
SAPA_PROFIL
 10
21.300000000000299
 20
-77.49999999901047
 30
0.0
 11
20.45000000000039
 21
-77.49999999901047
 31
0.0
  0
ARC
  5
1A02
  8
SAPA_PROFIL
 10
21.300000000000239
 20
-77.999999999010527
 30
0.0
 40
0.500000000000057
 50
0.0000000000065138
 51
89.999999999993491
  0
LINE
  5
1A03
  8
SAPA_PROFIL
 10
21.799999999999841
 20
-78.390808928730621
 30
0.0
 11
21.800000000000288
 21
-77.999999999010456
 31
0.0
  0
ARC
  5
1A04
  8
SAPA_PROFIL
 10
21.500000000000099
 20
-78.390808928730578
 30
0.0
 40
0.2999999999997442
 50
319.99999999999528
 51
359.99999999999193
  0
LINE
  5
1A05
  8
SAPA_PROFIL
 10
20.211721773134862
 20
-80.392836281916061
 30
0.0
 11
21.729813332935581
 21
-78.583645211636394
 31
0.0
  0
ARC
  5
1A06
  8
SAPA_PROFIL
 10
19.981908440199369
 20
-80.199999999010288
 30
0.0
 40
0.2999999999997129
 50
270.00000000000409
 51
320.00000000000409
  0
LINE
  5
1A07
  8
SAPA_PROFIL
 10
16.450000000000379
 20
-80.499999999010456
 30
0.0
 11
19.98190844019939
 21
-80.499999999010015
 31
0.0
  0
ARC
  5
1A08
  8
SAPA_PROFIL
 10
16.450000000000379
 20
-80.199999999010288
 30
0.0
 40
0.3000000000001819
 50
180.0
 51
270.0
  0
LINE
  5
1A09
  8
SAPA_PROFIL
 10
16.150000000000201
 20
-77.799999999010197
 30
0.0
 11
16.150000000000201
 21
-80.199999999010288
 31
0.0
  0
ARC
  5
1A0A
  8
SAPA_PROFIL
 10
16.450000000000159
 20
-77.799999999010424
 30
0.0
 40
0.2999999999999545
 50
89.999999999956557
 51
179.99999999995649
  0
LINE
  5
1A0B
  8
SAPA_PROFIL
 10
16.850000000000019
 20
-77.49999999901047
 30
0.0
 11
16.450000000000379
 21
-77.49999999901047
 31
0.0
  0
ARC
  5
1A0C
  8
SAPA_PROFIL
 10
16.850000000000179
 20
-77.199999999010373
 30
0.0
 40
0.3000000000000748
 50
269.9999999999701
 51
44.999999999973127
  0
LINE
  5
1A0D
  8
SAPA_PROFIL
 10
16.662132034356201
 20
-76.587867964654379
 30
0.0
 11
17.062132034356289
 21
-76.98786796465447
 31
0.0
  0
ARC
  5
1A0E
  8
SAPA_PROFIL
 10
16.450000000000468
 20
-76.799999999010225
 30
0.0
 40
0.2999999999997556
 50
45.000000000014857
 51
90.000000000015575
  0
LINE
  5
1A0F
  8
SAPA_PROFIL
 10
14.650000000000199
 20
-76.499999999010015
 30
0.0
 11
16.450000000000379
 21
-76.49999999901047
 31
0.0
  0
ARC
  5
1A10
  8
SAPA_PROFIL
 10
14.650000000000171
 20
-76.999999999009987
 30
0.0
 40
0.4999999999999716
 50
89.999999999996746
 51
180.00000000000321
  0
LINE
  5
1A11
  8
SAPA_PROFIL
 10
14.150000000000199
 20
-81.499999999010925
 30
0.0
 11
14.150000000000199
 21
-76.999999999010015
 31
0.0
  0
ARC
  5
1A12
  8
SAPA_PROFIL
 10
14.650000000000199
 20
-81.499999999010925
 30
0.0
 40
0.5
 50
180.0
 51
270.0
  0
LINE
  5
1A13
  8
SAPA_PROFIL
 10
18.650000000000201
 20
-81.999999999010015
 30
0.0
 11
14.650000000000199
 21
-81.999999999010925
 31
0.0
  0
ARC
  5
1A14
  8
SAPA_PROFIL
 10
18.650000000000091
 20
-82.499999999010114
 30
0.0
 40
0.5000000000001137
 50
0.0000000000130276
 51
89.999999999986969
  0
LINE
  5
1A15
  8
SAPA_PROFIL
 10
19.150000000000201
 20
-84.516956646213657
 30
0.0
 11
19.150000000000201
 21
-82.499999999010015
 31
0.0
  0
ARC
  5
1A16
  8
SAPA_PROFIL
 10
18.649999999999981
 20
-84.516956646213444
 30
0.0
 40
0.5000000000002222
 50
319.9999999999684
 51
359.99999999997561
  0
LINE
  5
1A17
  8
SAPA_PROFIL
 10
16.949501460029861
 20
-87.321393803853425
 30
0.0
 11
19.03302222155946
 21
-84.838350451057053
 31
0.0
  0
ARC
  5
1A18
  8
SAPA_PROFIL
 10
16.566479238470581
 20
-86.9999999990102
 30
0.0
 40
0.4999999999998153
 50
270.0000000000029
 51
319.99999999998869
  0
LINE
  5
1A19
  8
SAPA_PROFIL
 10
10.568533728391341
 20
-87.499999999010484
 30
0.0
 11
16.566479238470599
 21
-87.499999999010015
 31
0.0
  0
ARC
  5
1A1A
  8
SAPA_PROFIL
 10
10.568533728391261
 20
-86.999999999010242
 30
0.0
 40
0.5000000000002258
 50
200.0000000000079
 51
270.00000000000921
  0
LINE
  5
1A1B
  8
SAPA_PROFIL
 10
8.6380638705314823
 20
-83.157979855684516
 30
0.0
 11
10.09868741799812
 21
-87.171010070673219
 31
0.0
  0
ARC
  5
1A1C
  8
SAPA_PROFIL
 10
7.6983712497453922
 20
-83.499999999010186
 30
0.0
 40
1.0000000000001701
 50
19.999999999996469
 51
89.999999999994287
  0
LINE
  5
1A1D
  8
SAPA_PROFIL
 10
6.6500000000002037
 20
-82.499999999010015
 30
0.0
 11
7.6983712497454908
 21
-82.499999999010015
 31
0.0
  0
ARC
  5
1A1E
  8
SAPA_PROFIL
 10
6.6499999999998911
 20
-82.199999999010146
 30
0.0
 40
0.2999999999998692
 50
180.00000000002709
 51
270.00000000005969
  0
LINE
  5
1A1F
  8
SAPA_PROFIL
 10
6.3500000000000218
 20
-81.799999999010197
 30
0.0
 11
6.3500000000000218
 21
-82.199999999010288
 31
0.0
  0
ARC
  5
1A20
  8
SAPA_PROFIL
 10
6.0499999999998693
 20
-81.799999999010168
 30
0.0
 40
0.3000000000001535
 50
359.99999999999449
 51
90.000000000005414
  0
LINE
  5
1A21
  8
SAPA_PROFIL
 10
5.6500000000002037
 20
-81.499999999010015
 30
0.0
 11
6.04999999999984
 21
-81.499999999010015
 31
0.0
  0
ARC
  5
1A22
  8
SAPA_PROFIL
 10
5.6500000000001762
 20
-81.799999999010168
 30
0.0
 40
0.3000000000001535
 50
89.999999999994586
 51
180.0000000000054
  0
LINE
  5
1A23
  8
SAPA_PROFIL
 10
5.3500000000000218
 20
-82.199999999010288
 30
0.0
 11
5.3500000000000218
 21
-81.799999999010197
 31
0.0
  0
ARC
  5
1A24
  8
SAPA_PROFIL
 10
5.0500000000001251
 20
-82.199999999010103
 30
0.0
 40
0.2999999999998977
 50
269.99999999994583
 51
359.99999999996749
  0
LINE
  5
1A25
  8
SAPA_PROFIL
 10
0.6242640687120229
 20
-82.499999999010015
 30
0.0
 11
5.04999999999984
 21
-82.499999999010015
 31
0.0
  0
ARC
  5
1A26
  8
SAPA_PROFIL
 10
0.6242640687125385
 20
-82.799999999010112
 30
0.0
 40
0.3000000000000977
 50
90.000000000098439
 51
135.00000000008109
  0
LINE
  5
1A27
  8
SAPA_PROFIL
 10
0.0000000000001137
 20
-82.999999999010015
 30
0.0
 11
0.4121320343562048
 21
-82.587867964654379
 31
0.0
  0
LINE
  5
1A28
  8
SAPA_PROFIL
 10
-0.4121320343559774
 20
-82.587867964654379
 30
0.0
 11
0.0000000000001137
 21
-82.999999999010015
 31
0.0
  0
ARC
  5
1A29
  8
SAPA_PROFIL
 10
-0.6242640687123112
 20
-82.799999999010112
 30
0.0
 40
0.3000000000000966
 50
44.999999999918842
 51
89.999999999901505
  0
LINE
  5
1A2A
  8
SAPA_PROFIL
 10
-5.0500000000000682
 20
-82.499999999010015
 30
0.0
 11
-0.6242640687117956
 21
-82.499999999010015
 31
0.0
  0
ARC
  5
1A2B
  8
SAPA_PROFIL
 10
-5.0500000000001251
 20
-82.199999999010345
 30
0.0
 40
0.2999999999996703
 50
179.99999999998909
 51
270.0000000000108
  0
LINE
  5
1A2C
  8
SAPA_PROFIL
 10
-5.3499999999997954
 20
-81.799999999010197
 30
0.0
 11
-5.3499999999997954
 21
-82.199999999010288
 31
0.0
  0
ARC
  5
1A2D
  8
SAPA_PROFIL
 10
-5.649999999999948
 20
-81.799999999010168
 30
0.0
 40
0.3000000000001535
 50
359.99999999999449
 51
90.000000000005414
  0
LINE
  5
1A2E
  8
SAPA_PROFIL
 10
-6.0500000000000682
 20
-81.499999999010015
 30
0.0
 11
-5.6499999999999773
 21
-81.499999999010015
 31
0.0
  0
ARC
  5
1A2F
  8
SAPA_PROFIL
 10
-6.0499999999998693
 20
-81.799999999009941
 30
0.0
 40
0.2999999999999261
 50
90.000000000037971
 51
180.0000000000488
  0
LINE
  5
1A30
  8
SAPA_PROFIL
 10
-6.3499999999997954
 20
-82.199999999010288
 30
0.0
 11
-6.3499999999997954
 21
-81.799999999010197
 31
0.0
  0
ARC
  5
1A31
  8
SAPA_PROFIL
 10
-6.6499999999996637
 20
-82.199999999010146
 30
0.0
 40
0.2999999999998692
 50
269.9999999999402
 51
359.99999999997289
  0
LINE
  5
1A32
  8
SAPA_PROFIL
 10
-7.6983712497457191
 20
-82.499999999010015
 30
0.0
 11
-6.6499999999999773
 21
-82.499999999010015
 31
0.0
  0
ARC
  5
1A33
  8
SAPA_PROFIL
 10
-7.6983712497456187
 20
-83.499999999010186
 30
0.0
 40
1.0000000000001701
 50
90.000000000005699
 51
160.0000000000035
  0
LINE
  5
1A34
  8
SAPA_PROFIL
 10
-10.098687417998351
 20
-87.171010070673219
 30
0.0
 11
-8.6380638705317097
 21
-83.157979855684516
 31
0.0
  0
ARC
  5
1A35
  8
SAPA_PROFIL
 10
-10.568533728391261
 20
-86.999999999010569
 30
0.0
 40
0.4999999999999006
 50
270.00000000001688
 51
340.00000000001842
  0
LINE
  5
1A36
  8
SAPA_PROFIL
 10
-16.56647923847083
 20
-87.499999999010015
 30
0.0
 11
-10.56853372839111
 21
-87.499999999010484
 31
0.0
  0
ARC
  5
1A37
  8
SAPA_PROFIL
 10
-16.566479238470809
 20
-86.9999999990102
 30
0.0
 40
0.4999999999998141
 50
220.00000000001131
 51
269.99999999999721
  0
LINE
  5
1A38
  8
SAPA_PROFIL
 10
-19.033022221559229
 20
-84.838350451057053
 30
0.0
 11
-16.949501460030088
 21
-87.321393803853425
 31
0.0
  0
ARC
  5
1A39
  8
SAPA_PROFIL
 10
-18.64999999999975
 20
-84.516956646213444
 30
0.0
 40
0.5000000000002239
 50
180.00000000002439
 51
220.00000000003149
  0
LINE
  5
1A3A
  8
SAPA_PROFIL
 10
-19.149999999999981
 20
-82.499999999010015
 30
0.0
 11
-19.149999999999981
 21
-84.516956646213657
 31
0.0
  0
ARC
  5
1A3B
  8
SAPA_PROFIL
 10
-18.64999999999986
 20
-82.499999999010114
 30
0.0
 40
0.5000000000001137
 50
90.000000000013017
 51
179.99999999998701
  0
LINE
  5
1A3C
  8
SAPA_PROFIL
 10
-14.649999999999981
 20
-81.999999999010925
 30
0.0
 11
-18.649999999999981
 21
-81.999999999010015
 31
0.0
  0
ARC
  5
1A3D
  8
SAPA_PROFIL
 10
-14.649999999999981
 20
-81.499999999010925
 30
0.0
 40
0.5
 50
270.0
 51
0.0
  0
LINE
  5
1A3E
  8
SAPA_PROFIL
 10
-14.15000000000043
 20
-76.999999999010015
 30
0.0
 11
-14.149999999999981
 21
-81.499999999010925
 31
0.0
  0
ARC
  5
1A3F
  8
SAPA_PROFIL
 10
-14.6500000000004
 20
-76.999999999009987
 30
0.0
 40
0.4999999999999716
 50
359.99999999999682
 51
90.000000000003226
  0
LINE
  5
1A40
  8
SAPA_PROFIL
 10
-16.450000000000159
 20
-76.49999999901047
 30
0.0
 11
-14.65000000000043
 21
-76.499999999010015
 31
0.0
  0
ARC
  5
1A41
  8
SAPA_PROFIL
 10
-16.450000000000241
 20
-76.799999999010225
 30
0.0
 40
0.2999999999997557
 50
89.999999999984396
 51
134.99999999998511
  0
LINE
  5
1A42
  8
SAPA_PROFIL
 10
-17.062132034356068
 20
-76.98786796465447
 30
0.0
 11
-16.662132034355981
 21
-76.587867964654379
 31
0.0
  0
ARC
  5
1A43
  8
SAPA_PROFIL
 10
-16.850000000000179
 20
-77.199999999010487
 30
0.0
 40
0.2999999999999829
 50
134.99999999998269
 51
269.99999999998641
  0
LINE
  5
1A44
  8
SAPA_PROFIL
 10
-16.450000000000159
 20
-77.49999999901047
 30
0.0
 11
-16.85000000000025
 21
-77.49999999901047
 31
0.0
  0
ARC
  5
1A45
  8
SAPA_PROFIL
 10
-16.450000000000159
 20
-77.799999999010197
 30
0.0
 40
0.2999999999997271
 50
0.0
 51
90.0
  0
LINE
  5
1A46
  8
SAPA_PROFIL
 10
-16.14999999999997
 20
-80.199999999010288
 30
0.0
 11
-16.150000000000428
 21
-77.799999999010197
 31
0.0
  0
ARC
  5
1A47
  8
SAPA_PROFIL
 10
-16.450000000000159
 20
-80.199999999010288
 30
0.0
 40
0.3000000000001819
 50
270.0
 51
0.0
  0
LINE
  5
1A48
  8
SAPA_PROFIL
 10
-19.98190844019916
 20
-80.499999999010015
 30
0.0
 11
-16.450000000000159
 21
-80.499999999010456
 31
0.0
  0
ARC
  5
1A49
  8
SAPA_PROFIL
 10
-19.981908440199369
 20
-80.199999999009805
 30
0.0
 40
0.3000000000001951
 50
220.0000000000386
 51
270.00000000003928
  0
LINE
  5
1A4A
  8
SAPA_PROFIL
 10
-21.729813332935809
 20
-78.583645211636394
 30
0.0
 11
-20.211721773135078
 21
-80.392836281916061
 31
0.0
  0
ARC
  5
1A4B
  8
SAPA_PROFIL
 10
-21.50000000000032
 20
-78.390808928730578
 30
0.0
 40
0.2999999999997449
 50
180.0000000000081
 51
220.0000000000046
  0
LINE
  5
1A4C
  8
SAPA_PROFIL
 10
-21.800000000000072
 20
-77.999999999010456
 30
0.0
 11
-21.800000000000072
 21
-78.390808928730621
 31
0.0
  0
ARC
  5
1A4D
  8
SAPA_PROFIL
 10
-21.300000000000011
 20
-77.999999999010527
 30
0.0
 40
0.500000000000057
 50
90.000000000006494
 51
179.99999999999349
  0
LINE
  5
1A4E
  8
SAPA_PROFIL
 10
-20.450000000000159
 20
-77.49999999901047
 30
0.0
 11
-21.300000000000072
 21
-77.49999999901047
 31
0.0
  0
ARC
  5
1A4F
  8
SAPA_PROFIL
 10
-20.450000000000291
 20
-77.199999999010458
 30
0.0
 40
0.3000000000000044
 50
270.00000000002439
 51
45.000000000005748
  0
LINE
  5
1A50
  8
SAPA_PROFIL
 10
-20.637867965643981
 20
-76.587867964654379
 30
0.0
 11
-20.237867965644341
 21
-76.98786796465447
 31
0.0
  0
ARC
  5
1A51
  8
SAPA_PROFIL
 10
-20.849999999999909
 20
-76.799999999010694
 30
0.0
 40
0.3000000000002245
 50
45.000000000051813
 51
90.000000000065114
  0
POLYLINE
  5
1A52
  8
SAPA_PROFIL
 66
     1
 10
0.0
 20
0.0
 30
0.0
 70
     1
  0
VERTEX
  5
2643
  8
SAPA_PROFIL
 10
-20.85000000000025
 20
-76.49999999901047
 30
0.0
 42
-0.1989123673797145
  0
VERTEX
  5
2644
  8
SAPA_PROFIL
 10
-20.637867965643981
 20
-76.587867964654379
 30
0.0
  0
VERTEX
  5
2645
  8
SAPA_PROFIL
 10
-20.237867965644341
 20
-76.98786796465447
 30
0.0
 42
-0.668178637919182
  0
VERTEX
  5
2646
  8
SAPA_PROFIL
 10
-20.450000000000159
 20
-77.49999999901047
 30
0.0
  0
VERTEX
  5
2647
  8
SAPA_PROFIL
 10
-21.300000000000072
 20
-77.49999999901047
 30
0.0
 42
0.4142135623730284
  0
VERTEX
  5
2648
  8
SAPA_PROFIL
 10
-21.800000000000072
 20
-77.999999999010456
 30
0.0
  0
VERTEX
  5
2649
  8
SAPA_PROFIL
 10
-21.800000000000072
 20
-78.390808928730621
 30
0.0
 42
0.17632698070845
  0
VERTEX
  5
264A
  8
SAPA_PROFIL
 10
-21.729813332935809
 20
-78.583645211636394
 30
0.0
  0
VERTEX
  5
264B
  8
SAPA_PROFIL
 10
-20.211721773135078
 20
-80.392836281916061
 30
0.0
 42
0.2216946626429421
  0
VERTEX
  5
264C
  8
SAPA_PROFIL
 10
-19.98190844019916
 20
-80.499999999010015
 30
0.0
  0
VERTEX
  5
264D
  8
SAPA_PROFIL
 10
-16.450000000000159
 20
-80.499999999010456
 30
0.0
 42
0.4142135623730951
  0
VERTEX
  5
264E
  8
SAPA_PROFIL
 10
-16.14999999999997
 20
-80.199999999010288
 30
0.0
  0
VERTEX
  5
264F
  8
SAPA_PROFIL
 10
-16.150000000000428
 20
-77.799999999010197
 30
0.0
 42
0.4142135623730951
  0
VERTEX
  5
2650
  8
SAPA_PROFIL
 10
-16.450000000000159
 20
-77.49999999901047
 30
0.0
  0
VERTEX
  5
2651
  8
SAPA_PROFIL
 10
-16.85000000000025
 20
-77.49999999901047
 30
0.0
 42
-0.6681786379193188
  0
VERTEX
  5
2652
  8
SAPA_PROFIL
 10
-17.062132034356068
 20
-76.98786796465447
 30
0.0
  0
VERTEX
  5
2653
  8
SAPA_PROFIL
 10
-16.662132034355981
 20
-76.587867964654379
 30
0.0
 42
-0.198912367379658
  0
VERTEX
  5
2654
  8
SAPA_PROFIL
 10
-16.450000000000159
 20
-76.49999999901047
 30
0.0
  0
VERTEX
  5
2655
  8
SAPA_PROFIL
 10
-14.65000000000043
 20
-76.499999999010015
 30
0.0
 42
-0.4142135623731284
  0
VERTEX
  5
2656
  8
SAPA_PROFIL
 10
-14.15000000000043
 20
-76.999999999010015
 30
0.0
  0
VERTEX
  5
2657
  8
SAPA_PROFIL
 10
-14.149999999999981
 20
-81.499999999010925
 30
0.0
 42
-0.4142135623730951
  0
VERTEX
  5
2658
  8
SAPA_PROFIL
 10
-14.649999999999981
 20
-81.999999999010925
 30
0.0
  0
VERTEX
  5
2659
  8
SAPA_PROFIL
 10
-18.649999999999981
 20
-81.999999999010015
 30
0.0
 42
0.4142135623729619
  0
VERTEX
  5
265A
  8
SAPA_PROFIL
 10
-19.149999999999981
 20
-82.499999999010015
 30
0.0
  0
VERTEX
  5
265B
  8
SAPA_PROFIL
 10
-19.149999999999981
 20
-84.516956646213657
 30
0.0
 42
0.1763269807084973
  0
VERTEX
  5
265C
  8
SAPA_PROFIL
 10
-19.033022221559229
 20
-84.838350451057053
 30
0.0
  0
VERTEX
  5
265D
  8
SAPA_PROFIL
 10
-16.949501460030088
 20
-87.321393803853425
 30
0.0
 42
0.2216946626428772
  0
VERTEX
  5
265E
  8
SAPA_PROFIL
 10
-16.56647923847083
 20
-87.499999999010015
 30
0.0
  0
VERTEX
  5
265F
  8
SAPA_PROFIL
 10
-10.56853372839111
 20
-87.499999999010484
 30
0.0
 42
0.315298788878991
  0
VERTEX
  5
2660
  8
SAPA_PROFIL
 10
-10.098687417998351
 20
-87.171010070673219
 30
0.0
  0
VERTEX
  5
2661
  8
SAPA_PROFIL
 10
-8.6380638705317097
 20
-83.157979855684516
 30
0.0
 42
-0.3152987888789731
  0
VERTEX
  5
2662
  8
SAPA_PROFIL
 10
-7.6983712497457191
 20
-82.499999999010015
 30
0.0
  0
VERTEX
  5
2663
  8
SAPA_PROFIL
 10
-6.6499999999999773
 20
-82.499999999010015
 30
0.0
 42
0.4142135623732616
  0
VERTEX
  5
2664
  8
SAPA_PROFIL
 10
-6.3499999999997954
 20
-82.199999999010288
 30
0.0
  0
VERTEX
  5
2665
  8
SAPA_PROFIL
 10
-6.3499999999997954
 20
-81.799999999010197
 30
0.0
 42
-0.4142135623731506
  0
VERTEX
  5
2666
  8
SAPA_PROFIL
 10
-6.0500000000000682
 20
-81.499999999010015
 30
0.0
  0
VERTEX
  5
2667
  8
SAPA_PROFIL
 10
-5.6499999999999773
 20
-81.499999999010015
 30
0.0
 42
-0.4142135623731505
  0
VERTEX
  5
2668
  8
SAPA_PROFIL
 10
-5.3499999999997954
 20
-81.799999999010197
 30
0.0
  0
VERTEX
  5
2669
  8
SAPA_PROFIL
 10
-5.3499999999997954
 20
-82.199999999010288
 30
0.0
 42
0.4142135623732061
  0
VERTEX
  5
266A
  8
SAPA_PROFIL
 10
-5.0500000000000682
 20
-82.499999999010015
 30
0.0
  0
VERTEX
  5
266B
  8
SAPA_PROFIL
 10
-0.6242640687117956
 20
-82.499999999010015
 30
0.0
 42
-0.198912367379577
  0
VERTEX
  5
266C
  8
SAPA_PROFIL
 10
-0.4121320343559774
 20
-82.587867964654379
 30
0.0
  0
VERTEX
  5
266D
  8
SAPA_PROFIL
 10
0.0000000000001137
 20
-82.999999999010015
 30
0.0
  0
VERTEX
  5
266E
  8
SAPA_PROFIL
 10
0.4121320343562048
 20
-82.587867964654379
 30
0.0
 42
-0.1989123673795771
  0
VERTEX
  5
266F
  8
SAPA_PROFIL
 10
0.6242640687120229
 20
-82.499999999010015
 30
0.0
  0
VERTEX
  5
2670
  8
SAPA_PROFIL
 10
5.04999999999984
 20
-82.499999999010015
 30
0.0
 42
0.4142135623732059
  0
VERTEX
  5
2671
  8
SAPA_PROFIL
 10
5.3500000000000218
 20
-82.199999999010288
 30
0.0
  0
VERTEX
  5
2672
  8
SAPA_PROFIL
 10
5.3500000000000218
 20
-81.799999999010197
 30
0.0
 42
-0.4142135623731506
  0
VERTEX
  5
2673
  8
SAPA_PROFIL
 10
5.6500000000002037
 20
-81.499999999010015
 30
0.0
  0
VERTEX
  5
2674
  8
SAPA_PROFIL
 10
6.04999999999984
 20
-81.499999999010015
 30
0.0
 42
-0.4142135623731505
  0
VERTEX
  5
2675
  8
SAPA_PROFIL
 10
6.3500000000000218
 20
-81.799999999010197
 30
0.0
  0
VERTEX
  5
2676
  8
SAPA_PROFIL
 10
6.3500000000000218
 20
-82.199999999010288
 30
0.0
 42
0.4142135623732615
  0
VERTEX
  5
2677
  8
SAPA_PROFIL
 10
6.6500000000002037
 20
-82.499999999010015
 30
0.0
  0
VERTEX
  5
2678
  8
SAPA_PROFIL
 10
7.6983712497454908
 20
-82.499999999010015
 30
0.0
 42
-0.3152987888789731
  0
VERTEX
  5
2679
  8
SAPA_PROFIL
 10
8.6380638705314823
 20
-83.157979855684516
 30
0.0
  0
VERTEX
  5
267A
  8
SAPA_PROFIL
 10
10.09868741799812
 20
-87.171010070673219
 30
0.0
 42
0.315298788878991
  0
VERTEX
  5
267B
  8
SAPA_PROFIL
 10
10.568533728391341
 20
-87.499999999010484
 30
0.0
  0
VERTEX
  5
267C
  8
SAPA_PROFIL
 10
16.566479238470599
 20
-87.499999999010015
 30
0.0
 42
0.2216946626428772
  0
VERTEX
  5
267D
  8
SAPA_PROFIL
 10
16.949501460029861
 20
-87.321393803853425
 30
0.0
  0
VERTEX
  5
267E
  8
SAPA_PROFIL
 10
19.03302222155946
 20
-84.838350451057053
 30
0.0
 42
0.1763269807084973
  0
VERTEX
  5
267F
  8
SAPA_PROFIL
 10
19.150000000000201
 20
-84.516956646213657
 30
0.0
  0
VERTEX
  5
2680
  8
SAPA_PROFIL
 10
19.150000000000201
 20
-82.499999999010015
 30
0.0
 42
0.4142135623729619
  0
VERTEX
  5
2681
  8
SAPA_PROFIL
 10
18.650000000000201
 20
-81.999999999010015
 30
0.0
  0
VERTEX
  5
2682
  8
SAPA_PROFIL
 10
14.650000000000199
 20
-81.999999999010925
 30
0.0
 42
-0.4142135623730951
  0
VERTEX
  5
2683
  8
SAPA_PROFIL
 10
14.150000000000199
 20
-81.499999999010925
 30
0.0
  0
VERTEX
  5
2684
  8
SAPA_PROFIL
 10
14.150000000000199
 20
-76.999999999010015
 30
0.0
 42
-0.4142135623731285
  0
VERTEX
  5
2685
  8
SAPA_PROFIL
 10
14.650000000000199
 20
-76.499999999010015
 30
0.0
  0
VERTEX
  5
2686
  8
SAPA_PROFIL
 10
16.450000000000379
 20
-76.49999999901047
 30
0.0
 42
-0.198912367379658
  0
VERTEX
  5
2687
  8
SAPA_PROFIL
 10
16.662132034356201
 20
-76.587867964654379
 30
0.0
  0
VERTEX
  5
2688
  8
SAPA_PROFIL
 10
17.062132034356289
 20
-76.98786796465447
 30
0.0
 42
-0.6681786379193188
  0
VERTEX
  5
2689
  8
SAPA_PROFIL
 10
16.850000000000019
 20
-77.49999999901047
 30
0.0
  0
VERTEX
  5
268A
  8
SAPA_PROFIL
 10
16.450000000000379
 20
-77.49999999901047
 30
0.0
 42
0.4142135623730951
  0
VERTEX
  5
268B
  8
SAPA_PROFIL
 10
16.150000000000201
 20
-77.799999999010197
 30
0.0
  0
VERTEX
  5
268C
  8
SAPA_PROFIL
 10
16.150000000000201
 20
-80.199999999010288
 30
0.0
 42
0.4142135623730951
  0
VERTEX
  5
268D
  8
SAPA_PROFIL
 10
16.450000000000379
 20
-80.499999999010456
 30
0.0
  0
VERTEX
  5
268E
  8
SAPA_PROFIL
 10
19.98190844019939
 20
-80.499999999010015
 30
0.0
 42
0.221694662642942
  0
VERTEX
  5
268F
  8
SAPA_PROFIL
 10
20.211721773134862
 20
-80.392836281916061
 30
0.0
  0
VERTEX
  5
2690
  8
SAPA_PROFIL
 10
21.729813332935581
 20
-78.583645211636394
 30
0.0
 42
0.1763269807084499
  0
VERTEX
  5
2691
  8
SAPA_PROFIL
 10
21.799999999999841
 20
-78.390808928730621
 30
0.0
  0
VERTEX
  5
2692
  8
SAPA_PROFIL
 10
21.800000000000288
 20
-77.999999999010456
 30
0.0
 42
0.4142135623730284
  0
VERTEX
  5
2693
  8
SAPA_PROFIL
 10
21.300000000000299
 20
-77.49999999901047
 30
0.0
  0
VERTEX
  5
2694
  8
SAPA_PROFIL
 10
20.45000000000039
 20
-77.49999999901047
 30
0.0
 42
-0.668178637919182
  0
VERTEX
  5
2695
  8
SAPA_PROFIL
 10
20.237867965644121
 20
-76.98786796465447
 30
0.0
  0
VERTEX
  5
2696
  8
SAPA_PROFIL
 10
20.637867965644201
 20
-76.587867964654379
 30
0.0
 42
-0.1989123673797144
  0
VERTEX
  5
2697
  8
SAPA_PROFIL
 10
20.850000000000019
 20
-76.49999999901047
 30
0.0
  0
VERTEX
  5
2698
  8
SAPA_PROFIL
 10
23.300000000000299
 20
-76.49999999901047
 30
0.0
 42
-0.4142135623730951
  0
VERTEX
  5
2699
  8
SAPA_PROFIL
 10
23.800000000000299
 20
-76.99999999901047
 30
0.0
  0
VERTEX
  5
269A
  8
SAPA_PROFIL
 10
23.800000000000299
 20
-80.699999999010274
 30
0.0
 42
-0.4142135623730951
  0
VERTEX
  5
269B
  8
SAPA_PROFIL
 10
23.500000000000568
 20
-80.99999999901047
 30
0.0
  0
VERTEX
  5
269C
  8
SAPA_PROFIL
 10
22.473205080757111
 20
-80.99999999901047
 30
0.0
 42
0.2679491924311428
  0
VERTEX
  5
269D
  8
SAPA_PROFIL
 10
22.213397459621891
 20
-81.149999999010575
 30
0.0
  0
VERTEX
  5
269E
  8
SAPA_PROFIL
 10
21.325961894323541
 20
-82.687083486550804
 30
0.0
 42
0.4142135623731709
  0
VERTEX
  5
269F
  8
SAPA_PROFIL
 10
21.435769515459128
 20
-83.096891107686133
 30
0.0
  0
VERTEX
  5
26A0
  8
SAPA_PROFIL
 10
21.96791111376217
 20
-83.404123202713436
 30
0.0
 42
-0.4663076581551056
  0
VERTEX
  5
26A1
  8
SAPA_PROFIL
 10
22.233955556881138
 20
-84.912936216184335
 30
0.0
  0
VERTEX
  5
26A2
  8
SAPA_PROFIL
 10
18.115270605417319
 20
-89.821393803853425
 30
0.0
 42
-0.2216946626428921
  0
VERTEX
  5
26A3
  8
SAPA_PROFIL
 10
17.732248383857609
 20
-89.999999999010484
 30
0.0
  0
VERTEX
  5
26A4
  8
SAPA_PROFIL
 10
9.7002075382098383
 20
-89.999999999010484
 30
0.0
 42
-0.3152987888789878
  0
VERTEX
  5
26A5
  8
SAPA_PROFIL
 10
8.7605149174238477
 20
-89.342020142335954
 30
0.0
  0
VERTEX
  5
26A6
  8
SAPA_PROFIL
 10
7.4196339112451142
 20
-85.657979855684516
 30
0.0
 42
0.3152987888789804
  0
VERTEX
  5
26A7
  8
SAPA_PROFIL
 10
6.4799412904591227
 20
-84.999999999010015
 30
0.0
  0
VERTEX
  5
26A8
  8
SAPA_PROFIL
 10
-6.4799412904593501
 20
-84.999999999010015
 30
0.0
 42
0.3152987888789804
  0
VERTEX
  5
26A9
  8
SAPA_PROFIL
 10
-7.4196339112453407
 20
-85.657979855684516
 30
0.0
  0
VERTEX
  5
26AA
  8
SAPA_PROFIL
 10
-8.7605149174236203
 20
-89.342020142335954
 30
0.0
 42
-0.3152987888789877
  0
VERTEX
  5
26AB
  8
SAPA_PROFIL
 10
-9.7002075382096091
 20
-89.999999999010484
 30
0.0
  0
VERTEX
  5
26AC
  8
SAPA_PROFIL
 10
-17.732248383857829
 20
-89.999999999010484
 30
0.0
 42
-0.2216946626428921
  0
VERTEX
  5
26AD
  8
SAPA_PROFIL
 10
-18.115270605417091
 20
-89.821393803853425
 30
0.0
  0
VERTEX
  5
26AE
  8
SAPA_PROFIL
 10
-22.233955556880911
 20
-84.912936216184335
 30
0.0
 42
-0.4663076581551056
  0
VERTEX
  5
26AF
  8
SAPA_PROFIL
 10
-21.967911113762401
 20
-83.404123202713436
 30
0.0
  0
VERTEX
  5
26B0
  8
SAPA_PROFIL
 10
-21.435769515458901
 20
-83.096891107686133
 30
0.0
 42
0.414213562373157
  0
VERTEX
  5
26B1
  8
SAPA_PROFIL
 10
-21.325961894323768
 20
-82.687083486550804
 30
0.0
  0
VERTEX
  5
26B2
  8
SAPA_PROFIL
 10
-22.213397459622112
 20
-81.149999999010575
 30
0.0
 42
0.2679491924311554
  0
VERTEX
  5
26B3
  8
SAPA_PROFIL
 10
-22.473205080757339
 20
-80.99999999901047
 30
0.0
  0
VERTEX
  5
26B4
  8
SAPA_PROFIL
 10
-23.500000000000341
 20
-80.99999999901047
 30
0.0
 42
-0.4142135623730951
  0
VERTEX
  5
26B5
  8
SAPA_PROFIL
 10
-23.800000000000519
 20
-80.699999999010274
 30
0.0
  0
VERTEX
  5
26B6
  8
SAPA_PROFIL
 10
-23.800000000000072
 20
-76.99999999901047
 30
0.0
 42
-0.4142135623730951
  0
VERTEX
  5
26B7
  8
SAPA_PROFIL
 10
-23.300000000000072
 20
-76.49999999901047
 30
0.0
  0
SEQEND
  5
26B8
  8
SAPA_PROFIL
  0
POLYLINE
  5
1A53
  8
SAPA_PROFIL
 66
     1
 10
0.0
 20
0.0
 30
0.0
 70
     1
  0
VERTEX
  5
26B9
  8
SAPA_PROFIL
 10
-2.700000000000272
 20
-33.050000000001091
 30
0.0
  0
VERTEX
  5
26BA
  8
SAPA_PROFIL
 10
-2.0767196966983188
 20
-31.67376540642476
 30
0.0
 42
0.5450207798987328
  0
VERTEX
  5
26BB
  8
SAPA_PROFIL
 10
-2.350000000000136
 20
-31.25000000000114
 30
0.0
  0
VERTEX
  5
26BC
  8
SAPA_PROFIL
 10
-2.700000000000272
 20
-31.25000000000114
 30
0.0
  0
VERTEX
  5
26BD
  8
SAPA_PROFIL
 10
-2.700000000000272
 20
-31.00000000000114
 30
0.0
 42
-0.4142135623730951
  0
VERTEX
  5
26BE
  8
SAPA_PROFIL
 10
-1.700000000000272
 20
-30.00000000000114
 30
0.0
  0
VERTEX
  5
26BF
  8
SAPA_PROFIL
 10
1.6999999999998181
 20
-30.00000000000114
 30
0.0
 42
-0.4142135623730951
  0
VERTEX
  5
26C0
  8
SAPA_PROFIL
 10
2.6999999999998181
 20
-31.00000000000114
 30
0.0
  0
VERTEX
  5
26C1
  8
SAPA_PROFIL
 10
2.6999999999998181
 20
-32.150000000001
 30
0.0
  0
VERTEX
  5
26C2
  8
SAPA_PROFIL
 10
2.3499999999996808
 20
-32.150000000001
 30
0.0
 42
0.5450200690651551
  0
VERTEX
  5
26C3
  8
SAPA_PROFIL
 10
2.0767189999999109
 20
-32.573765000001011
 30
0.0
  0
VERTEX
  5
26C4
  8
SAPA_PROFIL
 10
2.6999999999998181
 20
-33.950000000000948
 30
0.0
  0
VERTEX
  5
26C5
  8
SAPA_PROFIL
 10
2.3499999999996808
 20
-33.950000000000948
 30
0.0
 42
0.5450200690651692
  0
VERTEX
  5
26C6
  8
SAPA_PROFIL
 10
2.0767189999999109
 20
-34.373765000000958
 30
0.0
  0
VERTEX
  5
26C7
  8
SAPA_PROFIL
 10
2.6999999999998181
 20
-35.750000000001137
 30
0.0
  0
VERTEX
  5
26C8
  8
SAPA_PROFIL
 10
2.3499999999996808
 20
-35.750000000001137
 30
0.0
 42
0.5450200690651619
  0
VERTEX
  5
26C9
  8
SAPA_PROFIL
 10
2.0767189999999109
 20
-36.17376500000114
 30
0.0
  0
VERTEX
  5
26CA
  8
SAPA_PROFIL
 10
2.6999999999998181
 20
-37.550000000001091
 30
0.0
  0
VERTEX
  5
26CB
  8
SAPA_PROFIL
 10
2.3499999999996808
 20
-37.550000000001091
 30
0.0
 42
0.5450200690651619
  0
VERTEX
  5
26CC
  8
SAPA_PROFIL
 10
2.0767189999999109
 20
-37.973765000001102
 30
0.0
  0
VERTEX
  5
26CD
  8
SAPA_PROFIL
 10
2.6999999999998181
 20
-39.350000000001053
 30
0.0
  0
VERTEX
  5
26CE
  8
SAPA_PROFIL
 10
2.3499999999996808
 20
-39.350000000001053
 30
0.0
 42
0.5450200690651692
  0
VERTEX
  5
26CF
  8
SAPA_PROFIL
 10
2.0767189999999109
 20
-39.773765000001049
 30
0.0
  0
VERTEX
  5
26D0
  8
SAPA_PROFIL
 10
2.6999999999998181
 20
-41.150000000001
 30
0.0
  0
VERTEX
  5
26D1
  8
SAPA_PROFIL
 10
2.6999999999998181
 20
-41.450000000000948
 30
0.0
  0
VERTEX
  5
26D2
  8
SAPA_PROFIL
 10
-2.42826763351104
 20
-41.450000000000948
 30
0.0
  0
VERTEX
  5
26D3
  8
SAPA_PROFIL
 10
-2.0767196966983188
 20
-40.673765406424756
 30
0.0
 42
0.5450207798987328
  0
VERTEX
  5
26D4
  8
SAPA_PROFIL
 10
-2.350000000000136
 20
-40.250000000001137
 30
0.0
  0
VERTEX
  5
26D5
  8
SAPA_PROFIL
 10
-2.700000000000272
 20
-40.250000000001137
 30
0.0
  0
VERTEX
  5
26D6
  8
SAPA_PROFIL
 10
-2.0767200000002499
 20
-38.873765000000958
 30
0.0
 42
0.5450205149791638
  0
VERTEX
  5
26D7
  8
SAPA_PROFIL
 10
-2.350000000000136
 20
-38.450000000000962
 30
0.0
  0
VERTEX
  5
26D8
  8
SAPA_PROFIL
 10
-2.700000000000272
 20
-38.450000000000962
 30
0.0
  0
VERTEX
  5
26D9
  8
SAPA_PROFIL
 10
-2.0767196966983188
 20
-37.073765406424627
 30
0.0
 42
0.545020779898768
  0
VERTEX
  5
26DA
  8
SAPA_PROFIL
 10
-2.350000000000136
 20
-36.650000000001
 30
0.0
  0
VERTEX
  5
26DB
  8
SAPA_PROFIL
 10
-2.700000000000272
 20
-36.650000000001
 30
0.0
  0
VERTEX
  5
26DC
  8
SAPA_PROFIL
 10
-2.0767196966983188
 20
-35.273765406424673
 30
0.0
 42
0.54502077989874
  0
VERTEX
  5
26DD
  8
SAPA_PROFIL
 10
-2.350000000000136
 20
-34.850000000001053
 30
0.0
  0
VERTEX
  5
26DE
  8
SAPA_PROFIL
 10
-2.700000000000272
 20
-34.850000000001053
 30
0.0
  0
VERTEX
  5
26DF
  8
SAPA_PROFIL
 10
-2.0767196966983188
 20
-33.473765406424718
 30
0.0
 42
0.545020779898761
  0
VERTEX
  5
26E0
  8
SAPA_PROFIL
 10
-2.350000000000136
 20
-33.050000000001091
 30
0.0
  0
SEQEND
  5
26E1
  8
SAPA_PROFIL
  0
POLYLINE
  5
1A54
  8
SAPA_PROFIL
 66
     1
 10
0.0
 20
0.0
 30
0.0
 70
     1
  0
VERTEX
  5
26E2
  8
SAPA_PROFIL
 10
-23.000000000000231
 20
58.024264068710863
 30
0.0
 42
0.1989123673796753
  0
VERTEX
  5
26E3
  8
SAPA_PROFIL
 10
-22.912132034356091
 20
57.812132034355052
 30
0.0
  0
VERTEX
  5
26E4
  8
SAPA_PROFIL
 10
-21.187867965644269
 20
56.087867965642999
 30
0.0
 42
-0.1989123673796753
  0
VERTEX
  5
26E5
  8
SAPA_PROFIL
 10
-21.10000000000014
 20
55.875735931286947
 30
0.0
  0
VERTEX
  5
26E6
  8
SAPA_PROFIL
 10
-21.10000000000014
 20
55.299999999999052
 30
0.0
 42
-0.4142135623730951
  0
VERTEX
  5
26E7
  8
SAPA_PROFIL
 10
-21.400000000000318
 20
54.999999999998863
 30
0.0
  0
VERTEX
  5
26E8
  8
SAPA_PROFIL
 10
-22.700000000000269
 20
54.999999999998863
 30
0.0
 42
0.4142135623730951
  0
VERTEX
  5
26E9
  8
SAPA_PROFIL
 10
-23.000000000000231
 20
54.699999999998909
 30
0.0
  0
VERTEX
  5
26EA
  8
SAPA_PROFIL
 10
-23.000000000000231
 20
29.99999999999886
 30
0.0
 42
0.4142135623730951
  0
VERTEX
  5
26EB
  8
SAPA_PROFIL
 10
-22.000000000000231
 20
28.99999999999887
 30
0.0
  0
VERTEX
  5
26EC
  8
SAPA_PROFIL
 10
-17.600000000000129
 20
28.99999999999887
 30
0.0
 42
-0.4142135623730951
  0
VERTEX
  5
26ED
  8
SAPA_PROFIL
 10
-17.300000000000178
 20
28.699999999998909
 30
0.0
  0
VERTEX
  5
26EE
  8
SAPA_PROFIL
 10
-17.300000000000178
 20
26.399999999998961
 30
0.0
 42
-0.4142135623730951
  0
VERTEX
  5
26EF
  8
SAPA_PROFIL
 10
-17.600000000000129
 20
26.099999999999
 30
0.0
  0
VERTEX
  5
26F0
  8
SAPA_PROFIL
 10
-18.100000000000129
 20
26.099999999999
 30
0.0
 42
-0.4142135623730951
  0
VERTEX
  5
26F1
  8
SAPA_PROFIL
 10
-18.400000000000318
 20
26.399999999998961
 30
0.0
  0
VERTEX
  5
26F2
  8
SAPA_PROFIL
 10
-18.400000000000318
 20
26.736626924633359
 30
0.0
 42
0.5535245743249297
  0
VERTEX
  5
26F3
  8
SAPA_PROFIL
 10
-22.71055421153164
 20
24.96410760212348
 30
0.0
  0
VERTEX
  5
26F4
  8
SAPA_PROFIL
 10
-22.42322330470347
 20
24.67677669529553
 30
0.0
 42
-0.4142135623729421
  0
VERTEX
  5
26F5
  8
SAPA_PROFIL
 10
-22.42322330470347
 20
24.32322330470242
 30
0.0
  0
VERTEX
  5
26F6
  8
SAPA_PROFIL
 10
-22.71055421153164
 20
24.035892397874481
 30
0.0
 42
0.5535245743249292
  0
VERTEX
  5
26F7
  8
SAPA_PROFIL
 10
-18.400000000000318
 20
22.26337307536437
 30
0.0
  0
VERTEX
  5
26F8
  8
SAPA_PROFIL
 10
-18.400000000000318
 20
22.599999999999
 30
0.0
 42
-0.4142135623730951
  0
VERTEX
  5
26F9
  8
SAPA_PROFIL
 10
-18.100000000000129
 20
22.899999999998961
 30
0.0
  0
VERTEX
  5
26FA
  8
SAPA_PROFIL
 10
-17.600000000000129
 20
22.899999999998961
 30
0.0
 42
-0.4142135623730951
  0
VERTEX
  5
26FB
  8
SAPA_PROFIL
 10
-17.300000000000178
 20
22.599999999999
 30
0.0
  0
VERTEX
  5
26FC
  8
SAPA_PROFIL
 10
-17.300000000000178
 20
21.49999999999886
 30
0.0
 42
-0.4142135623730951
  0
VERTEX
  5
26FD
  8
SAPA_PROFIL
 10
-18.800000000000178
 20
19.99999999999886
 30
0.0
  0
VERTEX
  5
26FE
  8
SAPA_PROFIL
 10
-21.63397459621569
 20
19.99999999999886
 30
0.0
 42
-0.267949192431143
  0
VERTEX
  5
26FF
  8
SAPA_PROFIL
 10
-22.066987298107961
 20
20.24999999999886
 30
0.0
 42
0.767326987978956
  0
VERTEX
  5
2700
  8
SAPA_PROFIL
 10
-23.000000000000231
 20
19.99999999999886
 30
0.0
  0
VERTEX
  5
2701
  8
SAPA_PROFIL
 10
-23.000000000000231
 20
-15.00000000000113
 30
0.0
 42
0.4142135623730951
  0
VERTEX
  5
2702
  8
SAPA_PROFIL
 10
-22.000000000000231
 20
-16.00000000000114
 30
0.0
  0
VERTEX
  5
2703
  8
SAPA_PROFIL
 10
-17.600000000000129
 20
-16.00000000000114
 30
0.0
 42
-0.4142135623730951
  0
VERTEX
  5
2704
  8
SAPA_PROFIL
 10
-17.300000000000178
 20
-16.300000000001091
 30
0.0
  0
VERTEX
  5
2705
  8
SAPA_PROFIL
 10
-17.300000000000178
 20
-18.600000000001039
 30
0.0
 42
-0.4142135623730951
  0
VERTEX
  5
2706
  8
SAPA_PROFIL
 10
-17.600000000000129
 20
-18.900000000001
 30
0.0
  0
VERTEX
  5
2707
  8
SAPA_PROFIL
 10
-18.100000000000129
 20
-18.900000000001
 30
0.0
 42
-0.4142135623730951
  0
VERTEX
  5
2708
  8
SAPA_PROFIL
 10
-18.400000000000318
 20
-18.600000000001039
 30
0.0
  0
VERTEX
  5
2709
  8
SAPA_PROFIL
 10
-18.400000000000318
 20
-18.263373075366641
 30
0.0
 42
0.5535245743249297
  0
VERTEX
  5
270A
  8
SAPA_PROFIL
 10
-22.71055421153164
 20
-20.03589239787652
 30
0.0
  0
VERTEX
  5
270B
  8
SAPA_PROFIL
 10
-22.42322330470347
 20
-20.32322330470447
 30
0.0
 42
-0.4142135623730243
  0
VERTEX
  5
270C
  8
SAPA_PROFIL
 10
-22.423223304703701
 20
-20.67677669529758
 30
0.0
  0
VERTEX
  5
270D
  8
SAPA_PROFIL
 10
-22.71055421153164
 20
-20.96410760212553
 30
0.0
 42
0.5535245743249292
  0
VERTEX
  5
270E
  8
SAPA_PROFIL
 10
-18.400000000000318
 20
-22.73662692463563
 30
0.0
  0
VERTEX
  5
270F
  8
SAPA_PROFIL
 10
-18.400000000000318
 20
-22.400000000001
 30
0.0
 42
-0.4142135623730951
  0
VERTEX
  5
2710
  8
SAPA_PROFIL
 10
-18.100000000000129
 20
-22.100000000001049
 30
0.0
  0
VERTEX
  5
2711
  8
SAPA_PROFIL
 10
-17.600000000000129
 20
-22.100000000001049
 30
0.0
 42
-0.4142135623730951
  0
VERTEX
  5
2712
  8
SAPA_PROFIL
 10
-17.300000000000178
 20
-22.400000000001
 30
0.0
  0
VERTEX
  5
2713
  8
SAPA_PROFIL
 10
-17.300000000000178
 20
-23.50000000000114
 30
0.0
 42
-0.4142135623730951
  0
VERTEX
  5
2714
  8
SAPA_PROFIL
 10
-18.800000000000178
 20
-25.00000000000114
 30
0.0
  0
VERTEX
  5
2715
  8
SAPA_PROFIL
 10
-21.780384757729511
 20
-25.00000000000114
 30
0.0
 42
-0.2679491924311188
  0
VERTEX
  5
2716
  8
SAPA_PROFIL
 10
-22.040192378864958
 20
-24.850000000001049
 30
0.0
 42
0.7673269879789557
  0
VERTEX
  5
2717
  8
SAPA_PROFIL
 10
-22.600000000000129
 20
-25.00000000000114
 30
0.0
  0
VERTEX
  5
2718
  8
SAPA_PROFIL
 10
-22.599999999999909
 20
-27.00000000000114
 30
0.0
 42
0.4142137811865366
  0
VERTEX
  5
2719
  8
SAPA_PROFIL
 10
-21.600000747075459
 20
-28.00000000000114
 30
0.0
  0
VERTEX
  5
271A
  8
SAPA_PROFIL
 10
21.599999999999682
 20
-28.00000000000114
 30
0.0
 42
0.4142140000000124
  0
VERTEX
  5
271B
  8
SAPA_PROFIL
 10
22.599999999999682
 20
-27.00000000000114
 30
0.0
  0
VERTEX
  5
271C
  8
SAPA_PROFIL
 10
22.599999999999682
 20
-25.00000000000114
 30
0.0
 42
0.7673269879789457
  0
VERTEX
  5
271D
  8
SAPA_PROFIL
 10
22.0401923788645
 20
-24.850000000001049
 30
0.0
 42
-0.2679491924311191
  0
VERTEX
  5
271E
  8
SAPA_PROFIL
 10
21.780384757729049
 20
-25.00000000000114
 30
0.0
  0
VERTEX
  5
271F
  8
SAPA_PROFIL
 10
18.799999999999731
 20
-25.00000000000114
 30
0.0
 42
-0.4142135623730951
  0
VERTEX
  5
2720
  8
SAPA_PROFIL
 10
17.299999999999731
 20
-23.50000000000114
 30
0.0
  0
VERTEX
  5
2721
  8
SAPA_PROFIL
 10
17.299999999999731
 20
-22.400000000001
 30
0.0
 42
-0.4142135623730951
  0
VERTEX
  5
2722
  8
SAPA_PROFIL
 10
17.599999999999682
 20
-22.100000000001049
 30
0.0
  0
VERTEX
  5
2723
  8
SAPA_PROFIL
 10
18.099999999999682
 20
-22.100000000001049
 30
0.0
 42
-0.4142135623730951
  0
VERTEX
  5
2724
  8
SAPA_PROFIL
 10
18.39999999999986
 20
-22.400000000001
 30
0.0
  0
VERTEX
  5
2725
  8
SAPA_PROFIL
 10
18.39999999999986
 20
-22.73662692463563
 30
0.0
 42
0.5535245743249307
  0
VERTEX
  5
2726
  8
SAPA_PROFIL
 10
22.710554211531189
 20
-20.96410760212553
 30
0.0
  0
VERTEX
  5
2727
  8
SAPA_PROFIL
 10
22.423223304703239
 20
-20.67677669529758
 30
0.0
 42
-0.4142135623730951
  0
VERTEX
  5
2728
  8
SAPA_PROFIL
 10
22.423223304703239
 20
-20.32322330470447
 30
0.0
  0
VERTEX
  5
2729
  8
SAPA_PROFIL
 10
22.710554211531189
 20
-20.03589239787652
 30
0.0
 42
0.553524574324932
  0
VERTEX
  5
272A
  8
SAPA_PROFIL
 10
18.39999999999986
 20
-18.263373075366641
 30
0.0
  0
VERTEX
  5
272B
  8
SAPA_PROFIL
 10
18.39999999999986
 20
-18.600000000001039
 30
0.0
 42
-0.4142135623730951
  0
VERTEX
  5
272C
  8
SAPA_PROFIL
 10
18.099999999999682
 20
-18.900000000001
 30
0.0
  0
VERTEX
  5
272D
  8
SAPA_PROFIL
 10
17.599999999999682
 20
-18.900000000001
 30
0.0
 42
-0.4142135623730951
  0
VERTEX
  5
272E
  8
SAPA_PROFIL
 10
17.299999999999731
 20
-18.600000000001039
 30
0.0
  0
VERTEX
  5
272F
  8
SAPA_PROFIL
 10
17.299999999999731
 20
-16.300000000001091
 30
0.0
 42
-0.4142135623730951
  0
VERTEX
  5
2730
  8
SAPA_PROFIL
 10
17.599999999999682
 20
-16.00000000000114
 30
0.0
  0
VERTEX
  5
2731
  8
SAPA_PROFIL
 10
21.999999999999769
 20
-16.00000000000114
 30
0.0
 42
0.4142135623730951
  0
VERTEX
  5
2732
  8
SAPA_PROFIL
 10
22.999999999999769
 20
-15.00000000000113
 30
0.0
  0
VERTEX
  5
2733
  8
SAPA_PROFIL
 10
22.999999999999769
 20
19.99999999999886
 30
0.0
 42
0.7673269879789569
  0
VERTEX
  5
2734
  8
SAPA_PROFIL
 10
22.066987298107509
 20
20.24999999999886
 30
0.0
 42
-0.2679491924311163
  0
VERTEX
  5
2735
  8
SAPA_PROFIL
 10
21.633974596215239
 20
19.99999999999886
 30
0.0
  0
VERTEX
  5
2736
  8
SAPA_PROFIL
 10
18.799999999999731
 20
19.99999999999886
 30
0.0
 42
-0.4142135623730951
  0
VERTEX
  5
2737
  8
SAPA_PROFIL
 10
17.299999999999731
 20
21.49999999999886
 30
0.0
  0
VERTEX
  5
2738
  8
SAPA_PROFIL
 10
17.299999999999731
 20
22.599999999999
 30
0.0
 42
-0.4142135623730951
  0
VERTEX
  5
2739
  8
SAPA_PROFIL
 10
17.599999999999682
 20
22.899999999998961
 30
0.0
  0
VERTEX
  5
273A
  8
SAPA_PROFIL
 10
18.099999999999682
 20
22.899999999998961
 30
0.0
 42
-0.4142135623730951
  0
VERTEX
  5
273B
  8
SAPA_PROFIL
 10
18.39999999999986
 20
22.599999999999
 30
0.0
  0
VERTEX
  5
273C
  8
SAPA_PROFIL
 10
18.39999999999986
 20
22.26337307536437
 30
0.0
 42
0.5535245743249307
  0
VERTEX
  5
273D
  8
SAPA_PROFIL
 10
22.710554211531189
 20
24.035892397874481
 30
0.0
  0
VERTEX
  5
273E
  8
SAPA_PROFIL
 10
22.423223304703239
 20
24.32322330470242
 30
0.0
 42
-0.4142135623731068
  0
VERTEX
  5
273F
  8
SAPA_PROFIL
 10
22.423223304703011
 20
24.67677669529553
 30
0.0
  0
VERTEX
  5
2740
  8
SAPA_PROFIL
 10
22.710554211531189
 20
24.96410760212348
 30
0.0
 42
0.553524574324932
  0
VERTEX
  5
2741
  8
SAPA_PROFIL
 10
18.39999999999986
 20
26.736626924633359
 30
0.0
  0
VERTEX
  5
2742
  8
SAPA_PROFIL
 10
18.39999999999986
 20
26.399999999998961
 30
0.0
 42
-0.4142135623730951
  0
VERTEX
  5
2743
  8
SAPA_PROFIL
 10
18.099999999999682
 20
26.099999999999
 30
0.0
  0
VERTEX
  5
2744
  8
SAPA_PROFIL
 10
17.599999999999682
 20
26.099999999999
 30
0.0
 42
-0.4142135623730951
  0
VERTEX
  5
2745
  8
SAPA_PROFIL
 10
17.299999999999731
 20
26.399999999998961
 30
0.0
  0
VERTEX
  5
2746
  8
SAPA_PROFIL
 10
17.299999999999731
 20
28.699999999998909
 30
0.0
 42
-0.4142135623730951
  0
VERTEX
  5
2747
  8
SAPA_PROFIL
 10
17.599999999999682
 20
28.99999999999887
 30
0.0
  0
VERTEX
  5
2748
  8
SAPA_PROFIL
 10
21.999999999999769
 20
28.99999999999887
 30
0.0
 42
0.4142135623730951
  0
VERTEX
  5
2749
  8
SAPA_PROFIL
 10
22.999999999999769
 20
29.99999999999886
 30
0.0
  0
VERTEX
  5
274A
  8
SAPA_PROFIL
 10
22.999999999999769
 20
54.699999999998909
 30
0.0
 42
0.4142135623730951
  0
VERTEX
  5
274B
  8
SAPA_PROFIL
 10
22.699999999999822
 20
54.999999999998863
 30
0.0
  0
VERTEX
  5
274C
  8
SAPA_PROFIL
 10
21.39999999999986
 20
54.999999999998863
 30
0.0
 42
-0.4142135623730951
  0
VERTEX
  5
274D
  8
SAPA_PROFIL
 10
21.099999999999682
 20
55.299999999999052
 30
0.0
  0
VERTEX
  5
274E
  8
SAPA_PROFIL
 10
21.099999999999682
 20
55.875735931286947
 30
0.0
 42
-0.1989123673796752
  0
VERTEX
  5
274F
  8
SAPA_PROFIL
 10
21.187867965643822
 20
56.087867965642999
 30
0.0
  0
VERTEX
  5
2750
  8
SAPA_PROFIL
 10
22.91213203435586
 20
57.812132034355052
 30
0.0
 42
0.1989123673796057
  0
VERTEX
  5
2751
  8
SAPA_PROFIL
 10
22.999999999999769
 20
58.024264068710863
 30
0.0
  0
VERTEX
  5
2752
  8
SAPA_PROFIL
 10
22.999999999999769
 20
61.499999999998863
 30
0.0
 42
0.4142135623730951
  0
VERTEX
  5
2753
  8
SAPA_PROFIL
 10
21.999999999999769
 20
62.499999999998863
 30
0.0
  0
VERTEX
  5
2754
  8
SAPA_PROFIL
 10
-22.000000000000231
 20
62.499999999998863
 30
0.0
 42
0.4142135623730951
  0
VERTEX
  5
2755
  8
SAPA_PROFIL
 10
-23.000000000000231
 20
61.499999999998863
 30
0.0
  0
SEQEND
  5
2756
  8
SAPA_PROFIL
  0
POLYLINE
  5
1A55
  8
SAPA_PROFIL
 66
     1
 10
0.0
 20
0.0
 30
0.0
 70
     1
  0
VERTEX
  5
2757
  8
SAPA_PROFIL
 10
-6.0000000000002274
 20
-30.00000000000114
 30
0.0
 42
-0.4142135623730951
  0
VERTEX
  5
2758
  8
SAPA_PROFIL
 10
-5.0000000000002274
 20
-31.00000000000114
 30
0.0
  0
VERTEX
  5
2759
  8
SAPA_PROFIL
 10
-5.0000000000002274
 20
-52.200000000000948
 30
0.0
 42
0.4142135623730951
  0
VERTEX
  5
275A
  8
SAPA_PROFIL
 10
-4.700000000000272
 20
-52.50000000000113
 30
0.0
  0
VERTEX
  5
275B
  8
SAPA_PROFIL
 10
-3.0757360000002332
 20
-52.50000000000113
 30
0.0
  0
VERTEX
  5
275C
  8
SAPA_PROFIL
 10
-2.2378679656442269
 20
-51.562132034356871
 30
0.0
 42
0.668178637919305
  0
VERTEX
  5
275D
  8
SAPA_PROFIL
 10
-2.450000000000272
 20
-51.050000000001091
 30
0.0
  0
VERTEX
  5
275E
  8
SAPA_PROFIL
 10
-2.700000000000272
 20
-51.050000000001091
 30
0.0
  0
VERTEX
  5
275F
  8
SAPA_PROFIL
 10
-2.1767196966982278
 20
-49.673765406424756
 30
0.0
 42
0.5450207798987201
  0
VERTEX
  5
2760
  8
SAPA_PROFIL
 10
-2.450000000000272
 20
-49.250000000001137
 30
0.0
  0
VERTEX
  5
2761
  8
SAPA_PROFIL
 10
-2.700000000000272
 20
-49.250000000001137
 30
0.0
  0
VERTEX
  5
2762
  8
SAPA_PROFIL
 10
-2.1767196966982278
 20
-47.873765406424567
 30
0.0
 42
0.5450207798987201
  0
VERTEX
  5
2763
  8
SAPA_PROFIL
 10
-2.450000000000272
 20
-47.450000000000962
 30
0.0
  0
VERTEX
  5
2764
  8
SAPA_PROFIL
 10
-2.700000000000272
 20
-47.450000000000962
 30
0.0
  0
VERTEX
  5
2765
  8
SAPA_PROFIL
 10
-2.1767196966982278
 20
-46.07376540642462
 30
0.0
 42
0.5450207798987342
  0
VERTEX
  5
2766
  8
SAPA_PROFIL
 10
-2.450000000000272
 20
-45.650000000000993
 30
0.0
  0
VERTEX
  5
2767
  8
SAPA_PROFIL
 10
-2.700000000000272
 20
-45.650000000000993
 30
0.0
  0
VERTEX
  5
2768
  8
SAPA_PROFIL
 10
-2.1767196966982278
 20
-44.273765406424673
 30
0.0
 42
0.5450207798987201
  0
VERTEX
  5
2769
  8
SAPA_PROFIL
 10
-2.450000000000272
 20
-43.850000000001039
 30
0.0
  0
VERTEX
  5
276A
  8
SAPA_PROFIL
 10
-2.700000000000272
 20
-43.850000000001039
 30
0.0
  0
VERTEX
  5
276B
  8
SAPA_PROFIL
 10
-2.4722372826161059
 20
-43.126282705194853
 30
0.0
 42
-0.2945484962563026
  0
VERTEX
  5
276C
  8
SAPA_PROFIL
 10
-2.1988824689378812
 20
-42.950048040246656
 30
0.0
  0
VERTEX
  5
276D
  8
SAPA_PROFIL
 10
-1.2642999377483191
 20
-42.950255222213173
 30
0.0
 42
0.3475954753796591
  0
VERTEX
  5
276E
  8
SAPA_PROFIL
 10
-0.9723265106783856
 20
-42.719501178044077
 30
0.0
 42
-0.790522909611319
  0
VERTEX
  5
276F
  8
SAPA_PROFIL
 10
0.973664089865224
 20
-42.71949097360357
 30
0.0
 42
0.3476065658631364
  0
VERTEX
  5
2770
  8
SAPA_PROFIL
 10
1.2656518108867649
 20
-42.950241952335773
 30
0.0
  0
VERTEX
  5
2771
  8
SAPA_PROFIL
 10
1.8499926620931999
 20
-42.950095231626847
 30
0.0
 42
-0.4102317530969976
  0
VERTEX
  5
2772
  8
SAPA_PROFIL
 10
2.1500282985855388
 20
-43.245946879780369
 30
0.0
 42
0.0712587206050384
  0
VERTEX
  5
2773
  8
SAPA_PROFIL
 10
2.1632556124550311
 20
-43.329990804708579
 30
0.0
  0
VERTEX
  5
2774
  8
SAPA_PROFIL
 10
2.6999999999998181
 20
-44.750000000001137
 30
0.0
  0
VERTEX
  5
2775
  8
SAPA_PROFIL
 10
2.4499999999998181
 20
-44.750000000001137
 30
0.0
 42
0.5450200690651619
  0
VERTEX
  5
2776
  8
SAPA_PROFIL
 10
2.17671899999982
 20
-45.173765000001133
 30
0.0
  0
VERTEX
  5
2777
  8
SAPA_PROFIL
 10
2.6999999999998181
 20
-46.550000000001091
 30
0.0
  0
VERTEX
  5
2778
  8
SAPA_PROFIL
 10
2.4499999999998181
 20
-46.550000000000857
 30
0.0
 42
0.545020069065176
  0
VERTEX
  5
2779
  8
SAPA_PROFIL
 10
2.17671899999982
 20
-46.973765000001087
 30
0.0
  0
VERTEX
  5
277A
  8
SAPA_PROFIL
 10
2.6999999999998181
 20
-48.350000000001039
 30
0.0
  0
VERTEX
  5
277B
  8
SAPA_PROFIL
 10
2.4499999999998181
 20
-48.350000000001039
 30
0.0
 42
0.5450200690651692
  0
VERTEX
  5
277C
  8
SAPA_PROFIL
 10
2.17671899999982
 20
-48.773765000001049
 30
0.0
  0
VERTEX
  5
277D
  8
SAPA_PROFIL
 10
2.6999999999998181
 20
-50.150000000001
 30
0.0
  0
VERTEX
  5
277E
  8
SAPA_PROFIL
 10
2.1499999999998631
 20
-50.150000000001
 30
0.0
  0
VERTEX
  5
277F
  8
SAPA_PROFIL
 10
2.1499999999998631
 20
-51.350000000001039
 30
0.0
 42
0.1989123673797004
  0
VERTEX
  5
2780
  8
SAPA_PROFIL
 10
2.2378679999997071
 20
-51.562132000001156
 30
0.0
  0
VERTEX
  5
2781
  8
SAPA_PROFIL
 10
3.075735999999778
 20
-52.50000000000113
 30
0.0
  0
VERTEX
  5
2782
  8
SAPA_PROFIL
 10
4.6999999999998181
 20
-52.50000000000113
 30
0.0
 42
0.4142135623730951
  0
VERTEX
  5
2783
  8
SAPA_PROFIL
 10
4.9999999999997717
 20
-52.200000000000948
 30
0.0
  0
VERTEX
  5
2784
  8
SAPA_PROFIL
 10
4.9999999999997717
 20
-31.00000000000114
 30
0.0
 42
-0.4142135623730951
  0
VERTEX
  5
2785
  8
SAPA_PROFIL
 10
5.9999999999997717
 20
-30.00000000000114
 30
0.0
  0
VERTEX
  5
2786
  8
SAPA_PROFIL
 10
14.19999999999982
 20
-30.00000000000114
 30
0.0
 42
-0.4142135623730951
  0
VERTEX
  5
2787
  8
SAPA_PROFIL
 10
14.69999999999982
 20
-30.50000000000114
 30
0.0
  0
VERTEX
  5
2788
  8
SAPA_PROFIL
 10
14.69999999999982
 20
-33.700000000000962
 30
0.0
 42
-0.4142135623730951
  0
VERTEX
  5
2789
  8
SAPA_PROFIL
 10
14.19999999999982
 20
-34.200000000000962
 30
0.0
  0
VERTEX
  5
278A
  8
SAPA_PROFIL
 10
11.299999999999731
 20
-34.200000000000962
 30
0.0
 42
0.4142135623730951
  0
VERTEX
  5
278B
  8
SAPA_PROFIL
 10
10.999999999999771
 20
-34.500000000001137
 30
0.0
  0
VERTEX
  5
278C
  8
SAPA_PROFIL
 10
10.999999999999771
 20
-35.200000000000948
 30
0.0
 42
0.4142135623730951
  0
VERTEX
  5
278D
  8
SAPA_PROFIL
 10
11.299999999999731
 20
-35.500000000001137
 30
0.0
  0
VERTEX
  5
278E
  8
SAPA_PROFIL
 10
17.999999999999769
 20
-35.500000000001137
 30
0.0
  0
VERTEX
  5
278F
  8
SAPA_PROFIL
 10
18.586384015500471
 20
-35.035076580641999
 30
0.0
 42
0.7105995019814511
  0
VERTEX
  5
2790
  8
SAPA_PROFIL
 10
18.39999999999986
 20
-34.500000000001137
 30
0.0
  0
VERTEX
  5
2791
  8
SAPA_PROFIL
 10
16.499999999999769
 20
-34.500000000001137
 30
0.0
 42
-0.4142135623730951
  0
VERTEX
  5
2792
  8
SAPA_PROFIL
 10
16.199999999999822
 20
-34.200000000000962
 30
0.0
  0
VERTEX
  5
2793
  8
SAPA_PROFIL
 10
16.199999999999822
 20
-30.300000000001091
 30
0.0
 42
-0.4142135623730951
  0
VERTEX
  5
2794
  8
SAPA_PROFIL
 10
16.499999999999769
 20
-30.00000000000114
 30
0.0
  0
VERTEX
  5
2795
  8
SAPA_PROFIL
 10
23.199999999999822
 20
-30.00000000000114
 30
0.0
 42
-0.4142135623730951
  0
VERTEX
  5
2796
  8
SAPA_PROFIL
 10
23.499999999999769
 20
-30.300000000001091
 30
0.0
  0
VERTEX
  5
2797
  8
SAPA_PROFIL
 10
23.499999999999769
 20
-34.200000000000962
 30
0.0
 42
-0.4142135623730951
  0
VERTEX
  5
2798
  8
SAPA_PROFIL
 10
23.199999999999822
 20
-34.500000000001137
 30
0.0
  0
VERTEX
  5
2799
  8
SAPA_PROFIL
 10
21.999999999999769
 20
-34.500000000001137
 30
0.0
 42
0.7105990647993611
  0
VERTEX
  5
279A
  8
SAPA_PROFIL
 10
21.81361599999968
 20
-35.035076000001027
 30
0.0
  0
VERTEX
  5
279B
  8
SAPA_PROFIL
 10
22.39999999999986
 20
-35.500000000001137
 30
0.0
  0
VERTEX
  5
279C
  8
SAPA_PROFIL
 10
24.699999999999822
 20
-35.500000000001137
 30
0.0
 42
0.4142135623730951
  0
VERTEX
  5
279D
  8
SAPA_PROFIL
 10
24.999999999999769
 20
-35.200000000000948
 30
0.0
  0
VERTEX
  5
279E
  8
SAPA_PROFIL
 10
24.999999999999769
 20
63.999999999998863
 30
0.0
 42
0.4142135623730951
  0
VERTEX
  5
279F
  8
SAPA_PROFIL
 10
24.499999999999769
 20
64.499999999998863
 30
0.0
  0
VERTEX
  5
27A0
  8
SAPA_PROFIL
 10
-24.500000000000231
 20
64.499999999998863
 30
0.0
 42
0.4142135623730951
  0
VERTEX
  5
27A1
  8
SAPA_PROFIL
 10
-25.000000000000231
 20
63.999999999998863
 30
0.0
  0
VERTEX
  5
27A2
  8
SAPA_PROFIL
 10
-25.000000000000231
 20
-35.200000000000948
 30
0.0
 42
0.4142135623730951
  0
VERTEX
  5
27A3
  8
SAPA_PROFIL
 10
-24.700000000000269
 20
-35.500000000001137
 30
0.0
  0
VERTEX
  5
27A4
  8
SAPA_PROFIL
 10
-22.400000000000318
 20
-35.500000000001137
 30
0.0
  0
VERTEX
  5
27A5
  8
SAPA_PROFIL
 10
-21.81361598449962
 20
-35.035076580641999
 30
0.0
 42
0.7105995019814511
  0
VERTEX
  5
27A6
  8
SAPA_PROFIL
 10
-22.000000000000231
 20
-34.500000000001137
 30
0.0
  0
VERTEX
  5
27A7
  8
SAPA_PROFIL
 10
-23.200000000000269
 20
-34.500000000001137
 30
0.0
 42
-0.4142135623730951
  0
VERTEX
  5
27A8
  8
SAPA_PROFIL
 10
-23.500000000000231
 20
-34.200000000000962
 30
0.0
  0
VERTEX
  5
27A9
  8
SAPA_PROFIL
 10
-23.500000000000231
 20
-30.300000000001091
 30
0.0
 42
-0.4142135623730951
  0
VERTEX
  5
27AA
  8
SAPA_PROFIL
 10
-23.200000000000269
 20
-30.00000000000114
 30
0.0
  0
VERTEX
  5
27AB
  8
SAPA_PROFIL
 10
-16.500000000000231
 20
-30.00000000000114
 30
0.0
 42
-0.4142135623730951
  0
VERTEX
  5
27AC
  8
SAPA_PROFIL
 10
-16.200000000000269
 20
-30.300000000001091
 30
0.0
  0
VERTEX
  5
27AD
  8
SAPA_PROFIL
 10
-16.200000000000269
 20
-34.200000000000962
 30
0.0
 42
-0.4142135623730951
  0
VERTEX
  5
27AE
  8
SAPA_PROFIL
 10
-16.500000000000231
 20
-34.500000000001137
 30
0.0
  0
VERTEX
  5
27AF
  8
SAPA_PROFIL
 10
-18.400000000000318
 20
-34.500000000001137
 30
0.0
 42
0.7105995019814511
  0
VERTEX
  5
27B0
  8
SAPA_PROFIL
 10
-18.586384015500919
 20
-35.035076580641999
 30
0.0
  0
VERTEX
  5
27B1
  8
SAPA_PROFIL
 10
-18.000000000000231
 20
-35.500000000001137
 30
0.0
  0
VERTEX
  5
27B2
  8
SAPA_PROFIL
 10
-11.30000000000018
 20
-35.500000000001137
 30
0.0
 42
0.4142135623730951
  0
VERTEX
  5
27B3
  8
SAPA_PROFIL
 10
-11.00000000000022
 20
-35.200000000000948
 30
0.0
  0
VERTEX
  5
27B4
  8
SAPA_PROFIL
 10
-11.00000000000022
 20
-34.500000000001137
 30
0.0
 42
0.4142135623730951
  0
VERTEX
  5
27B5
  8
SAPA_PROFIL
 10
-11.30000000000018
 20
-34.200000000000962
 30
0.0
  0
VERTEX
  5
27B6
  8
SAPA_PROFIL
 10
-14.200000000000269
 20
-34.200000000000962
 30
0.0
 42
-0.4142135623730951
  0
VERTEX
  5
27B7
  8
SAPA_PROFIL
 10
-14.700000000000269
 20
-33.700000000000962
 30
0.0
  0
VERTEX
  5
27B8
  8
SAPA_PROFIL
 10
-14.700000000000269
 20
-30.50000000000114
 30
0.0
 42
-0.4142135623730951
  0
VERTEX
  5
27B9
  8
SAPA_PROFIL
 10
-14.200000000000269
 20
-30.00000000000114
 30
0.0
  0
SEQEND
  5
27BA
  8
SAPA_PROFIL
  0
POLYLINE
  5
1A8E
  8
SAPA_GLAS
 66
     1
 10
0.0
 20
0.0
 30
0.0
  0
VERTEX
  5
27D0
  8
SAPA_GLAS
 10
-40.999999999995111
 20
-51.499999999010122
 30
0.0
  0
VERTEX
  5
27D1
  8
SAPA_GLAS
 10
-10.99999999999511
 20
-51.499999999010122
 30
0.0
  0
VERTEX
  5
27D2
  8
SAPA_GLAS
 10
-10.99999999999511
 20
-45.499999999010129
 30
0.0
  0
VERTEX
  5
27D3
  8
SAPA_GLAS
 10
-40.999999999995111
 20
-45.499999999010129
 30
0.0
  0
SEQEND
  5
27D4
  8
SAPA_GLAS
  0
POLYLINE
  5
1A8F
  8
SAPA_GLAS
 66
     1
 10
0.0
 20
0.0
 30
0.0
  0
VERTEX
  5
27D5
  8
SAPA_GLAS
 10
-20.99999999999466
 20
-66.49999999901172
 30
0.0
  0
VERTEX
  5
27D6
  8
SAPA_GLAS
 10
-20.99999999999466
 20
-51.499999999010122
 30
0.0
  0
VERTEX
  5
27D7
  8
SAPA_GLAS
 10
-10.99999999999511
 20
-51.499999999010122
 30
0.0
  0
VERTEX
  5
27D8
  8
SAPA_GLAS
 10
-10.99999999999511
 20
-66.49999999901172
 30
0.0
  0
VERTEX
  5
27D9
  8
SAPA_GLAS
 10
-20.99999999999466
 20
-66.49999999901172
 30
0.0
  0
SEQEND
  5
27DA
  8
SAPA_GLAS
  0
POLYLINE
  5
1A90
  8
SAPA_GLAS
 66
     1
 10
0.0
 20
0.0
 30
0.0
  0
VERTEX
  5
27DB
  8
SAPA_GLAS
 10
-40.999999999995111
 20
-72.49999999901172
 30
0.0
  0
VERTEX
  5
27DC
  8
SAPA_GLAS
 10
-10.99999999999511
 20
-72.499999999011763
 30
0.0
  0
VERTEX
  5
27DD
  8
SAPA_GLAS
 10
-10.99999999999511
 20
-66.49999999901172
 30
0.0
  0
VERTEX
  5
27DE
  8
SAPA_GLAS
 10
-40.999999999995111
 20
-66.49999999901172
 30
0.0
  0
SEQEND
  5
27DF
  8
SAPA_GLAS
  0
POLYLINE
  5
1A91
  8
SAPA_GLAS
 66
     1
 10
0.0
 20
0.0
 30
0.0
  0
VERTEX
  5
27E0
  8
SAPA_GLAS
 10
208.29999999944079
 20
-58.600000482322002
 30
0.0
  0
VERTEX
  5
27E1
  8
SAPA_GLAS
 10
179.49999999944089
 20
-58.600000482322002
 30
0.0
  0
VERTEX
  5
27E2
  8
SAPA_GLAS
 10
179.49999999944089
 20
-36.60000048232201
 30
0.0
  0
VERTEX
  5
27E3
  8
SAPA_GLAS
 10
208.29999999944079
 20
-36.60000048232223
 30
0.0
  0
SEQEND
  5
27E4
  8
SAPA_GLAS
  0
LINE
  5
1A92
  8
SAPA_GLAS
 10
189.49999999944089
 20
-53.600000482322002
 30
0.0
 11
189.49999999944089
 21
-41.600000482322002
 31
0.0
  0
LINE
  5
1A93
  8
SAPA_GLAS
 10
208.29999999944079
 20
-41.600000482322223
 30
0.0
 11
179.49999999944089
 21
-41.600000482322002
 31
0.0
  0
LINE
  5
1A94
  8
SAPA_GLAS
 10
208.29999999944079
 20
-53.600000482322002
 30
0.0
 11
179.49999999944089
 21
-53.600000482322002
 31
0.0
  0
LINE
  5
1AA2
  8
SAPA_ISOLATOR
 10
25.000017835440641
 20
-7.3369832384363463
 30
0.0
 11
31.194641602623619
 21
-7.3369832384363463
 31
0.0
  0
LINE
  5
1AA3
  8
SAPA_ISOLATOR
 10
25.000017835440641
 20
-42.578680595395269
 30
0.0
 11
25.000017835440641
 21
-7.3369832384363463
 31
0.0
  0
LINE
  5
1AA4
  8
SAPA_ISOLATOR
 10
31.194641602625438
 20
-42.578680595395269
 30
0.0
 11
25.000017835440641
 21
-42.578680595395269
 31
0.0
  0
LINE
  5
1AA5
  8
SAPA_ISOLATOR
 10
31.20001783544069
 20
-7.3369832384363463
 30
0.0
 11
31.194641602625438
 21
-42.578680595395269
 31
0.0
  0
POLYLINE
  5
1AA6
  8
SAPA_ISOLATOR
 66
     1
 10
0.0
 20
0.0
 30
0.0
 70
     1
  0
VERTEX
  5
2816
  8
SAPA_ISOLATOR
 10
1.055634910785954
 20
-78.358578641879717
 30
0.0
 42
0.1989123671061458
  0
VERTEX
  5
2817
  8
SAPA_ISOLATOR
 10
0.2071067742551236
 20
-78.00710678019658
 30
0.0
  0
VERTEX
  5
2818
  8
SAPA_ISOLATOR
 10
-0.2071067742560331
 20
-78.00710678019658
 30
0.0
 42
0.1989123671061505
  0
VERTEX
  5
2819
  8
SAPA_ISOLATOR
 10
-1.0556349107868639
 20
-78.358578641879717
 30
0.0
  0
VERTEX
  5
281A
  8
SAPA_ISOLATOR
 10
-3.2878679658677461
 20
-80.590811692262079
 30
0.0
 42
-0.6681786375387371
  0
VERTEX
  5
281B
  8
SAPA_ISOLATOR
 10
-3.8000000000004661
 20
-80.378679657682881
 30
0.0
  0
VERTEX
  5
281C
  8
SAPA_ISOLATOR
 10
-3.8000000000004088
 20
-67.999999999010015
 30
0.0
 42
-0.4142135623731103
  0
VERTEX
  5
281D
  8
SAPA_ISOLATOR
 10
-3.500000000000397
 20
-67.699999999010004
 30
0.0
  0
VERTEX
  5
281E
  8
SAPA_ISOLATOR
 10
3.499999999999488
 20
-67.699999999010004
 30
0.0
 42
-0.4142135623731173
  0
VERTEX
  5
281F
  8
SAPA_ISOLATOR
 10
3.7999999999995562
 20
-67.999999999010015
 30
0.0
  0
VERTEX
  5
2820
  8
SAPA_ISOLATOR
 10
3.7999999999995562
 20
-80.378679657682881
 30
0.0
 42
-0.6681786375387019
  0
VERTEX
  5
2821
  8
SAPA_ISOLATOR
 10
3.2878679658668371
 20
-80.590811692262079
 30
0.0
  0
SEQEND
  5
2822
  8
SAPA_ISOLATOR
  0
POLYLINE
  5
1AA7
  8
SAPA_ISOLATOR
 66
     1
 10
0.0
 20
0.0
 30
0.0
 70
     1
  0
VERTEX
  5
2823
  8
SAPA_ISOLATOR
 10
1.0999999999995671
 20
-52.147056273857743
 30
0.0
  0
VERTEX
  5
2824
  8
SAPA_ISOLATOR
 10
2.652943725151828
 20
-53.69999999901006
 30
0.0
  0
VERTEX
  5
2825
  8
SAPA_ISOLATOR
 10
3.4999999999996021
 20
-53.699999999010011
 30
0.0
 42
-0.4142135623731173
  0
VERTEX
  5
2826
  8
SAPA_ISOLATOR
 10
3.7999999999995562
 20
-53.999999999010022
 30
0.0
  0
VERTEX
  5
2827
  8
SAPA_ISOLATOR
 10
3.7999999999995562
 20
-65.999999999010015
 30
0.0
 42
-0.4142135623731103
  0
VERTEX
  5
2828
  8
SAPA_ISOLATOR
 10
3.4999999999996021
 20
-66.299999999010026
 30
0.0
  0
VERTEX
  5
2829
  8
SAPA_ISOLATOR
 10
-3.5000000000005111
 20
-66.299999999010026
 30
0.0
 42
-0.4142135623731173
  0
VERTEX
  5
282A
  8
SAPA_ISOLATOR
 10
-3.8000000000004661
 20
-65.999999999010015
 30
0.0
  0
VERTEX
  5
282B
  8
SAPA_ISOLATOR
 10
-3.8000000000004661
 20
-53.999999999010022
 30
0.0
 42
-0.4142135623731103
  0
VERTEX
  5
282C
  8
SAPA_ISOLATOR
 10
-3.5000000000005111
 20
-53.699999999010011
 30
0.0
  0
VERTEX
  5
282D
  8
SAPA_ISOLATOR
 10
-2.6529437251526811
 20
-53.69999999901006
 30
0.0
  0
VERTEX
  5
282E
  8
SAPA_ISOLATOR
 10
-1.10000000000042
 20
-52.147056273857629
 30
0.0
  0
VERTEX
  5
282F
  8
SAPA_ISOLATOR
 10
-1.100000000000477
 20
-46.615727369978629
 30
0.0
 42
-0.0633388351918984
  0
VERTEX
  5
2830
  8
SAPA_ISOLATOR
 10
-0.3024121700678393
 20
-45.403112852077129
 30
0.0
 42
-0.305556580149261
  0
VERTEX
  5
2831
  8
SAPA_ISOLATOR
 10
0.1515893836760824
 20
-45.342204651895429
 30
0.0
 42
-0.0648283553387436
  0
VERTEX
  5
2832
  8
SAPA_ISOLATOR
 10
1.0999999999995109
 20
-46.621347326266338
 30
0.0
  0
SEQEND
  5
2833
  8
SAPA_ISOLATOR
  0
POLYLINE
  5
1AA8
  8
SAPA_ISOLATOR
 66
     1
 10
0.0
 20
0.0
 30
0.0
 70
     1
  0
VERTEX
  5
2834
  8
SAPA_ISOLATOR
 10
3.1499999999995221
 20
-52.499999999010008
 30
0.0
  0
VERTEX
  5
2835
  8
SAPA_ISOLATOR
 10
4.4999999999995453
 20
-52.499999999010008
 30
0.0
 42
-0.4142135623730951
  0
VERTEX
  5
2836
  8
SAPA_ISOLATOR
 10
4.9999999999995453
 20
-52.999999999010008
 30
0.0
  0
VERTEX
  5
2837
  8
SAPA_ISOLATOR
 10
4.9999999999995453
 20
-82.499999999010015
 30
0.0
  0
VERTEX
  5
2838
  8
SAPA_ISOLATOR
 10
3.4999999999995448
 20
-82.499999999010015
 30
0.0
  0
VERTEX
  5
2839
  8
SAPA_ISOLATOR
 10
0.3535533839701088
 20
-79.353553389603292
 30
0.0
 42
0.4142135623730951
  0
VERTEX
  5
283A
  8
SAPA_ISOLATOR
 10
-0.3535533972164444
 20
-79.353553389603292
 30
0.0
  0
VERTEX
  5
283B
  8
SAPA_ISOLATOR
 10
-3.5000000000004539
 20
-82.499999999010015
 30
0.0
  0
VERTEX
  5
283C
  8
SAPA_ISOLATOR
 10
-5.0000000000004539
 20
-82.499999999010015
 30
0.0
  0
VERTEX
  5
283D
  8
SAPA_ISOLATOR
 10
-5.0000000000004539
 20
-52.999999999010008
 30
0.0
 42
-0.4142135623730951
  0
VERTEX
  5
283E
  8
SAPA_ISOLATOR
 10
-4.5000000000004539
 20
-52.499999999010008
 30
0.0
  0
VERTEX
  5
283F
  8
SAPA_ISOLATOR
 10
-3.150000000000432
 20
-52.499999999010008
 30
0.0
  0
VERTEX
  5
2840
  8
SAPA_ISOLATOR
 10
-2.3000000000004661
 20
-51.649999999010049
 30
0.0
  0
VERTEX
  5
2841
  8
SAPA_ISOLATOR
 10
-2.3000000000004661
 20
-47.094967040794693
 30
0.0
 42
-0.0912836897734203
  0
VERTEX
  5
2842
  8
SAPA_ISOLATOR
 10
-1.081358332190518
 20
-44.975410007192693
 30
0.0
 42
-0.4396415083054684
  0
VERTEX
  5
2843
  8
SAPA_ISOLATOR
 10
1.081358332189722
 20
-44.97541000719275
 30
0.0
 42
-0.0912836897734202
  0
VERTEX
  5
2844
  8
SAPA_ISOLATOR
 10
2.2999999999995562
 20
-47.094967040794693
 30
0.0
  0
VERTEX
  5
2845
  8
SAPA_ISOLATOR
 10
2.2999999999995562
 20
-51.649999999010049
 30
0.0
  0
SEQEND
  5
2846
  8
SAPA_ISOLATOR
  0
LINE
  5
1AA9
  8
SAPA_ISOLATOR
 10
31.194641602625438
 20
-42.578680595395269
 30
0.0
 11
25.000017835440641
 21
-7.3369832384363463
 31
0.0
  0
LINE
  5
1AAA
  8
SAPA_ISOLATOR
 10
31.216605138326148
 20
-7.3369832384363463
 30
0.0
 11
25.011228905510851
 21
-42.578680595395269
 31
0.0
  0
POLYLINE
  5
1ACA
  8
SAPA_FOGBAND
 62
     2
 66
     1
 10
0.0
 20
0.0
 30
0.0
  0
VERTEX
  5
2A26
  8
SAPA_FOGBAND
 62
     2
 10
106.6095560653233
 20
-21.590544834250579
 30
0.0
 42
0.1803090304626144
  0
VERTEX
  5
2A27
  8
SAPA_FOGBAND
 62
     2
 10
107.99755368968241
 20
-19.750133157436832
 30
0.0
  0
VERTEX
  5
2A28
  8
SAPA_FOGBAND
 62
     2
 10
108.7315975784804
 20
-17.284773951511049
 30
0.0
 42
-0.3317810211360308
  0
VERTEX
  5
2A29
  8
SAPA_FOGBAND
 62
     2
 10
109.6900171239285
 20
-16.570136834351779
 30
0.0
  0
VERTEX
  5
2A2A
  8
SAPA_FOGBAND
 62
     2
 10
110.92374428252811
 20
-16.570136834351668
 30
0.0
 42
0.2679491924312111
  0
VERTEX
  5
2A2B
  8
SAPA_FOGBAND
 62
     2
 10
111.1835519036608
 20
-16.420136834351581
 30
0.0
  0
VERTEX
  5
2A2C
  8
SAPA_FOGBAND
 62
     2
 10
111.7050078210771
 20
-15.51694869147803
 30
0.0
 42
0.5773502691894719
  0
VERTEX
  5
2A2D
  8
SAPA_FOGBAND
 62
     2
 10
111.4452001999416
 20
-15.06694869147821
 30
0.0
  0
VERTEX
  5
2A2E
  8
SAPA_FOGBAND
 62
     2
 10
105.4433594358882
 20
-15.0669486914781
 30
0.0
 42
0.4147066859862881
  0
VERTEX
  5
2A2F
  8
SAPA_FOGBAND
 62
     2
 10
102.4433636863162
 20
-18.071998696333079
 30
0.0
  0
VERTEX
  5
2A30
  8
SAPA_FOGBAND
 62
     2
 10
102.4470367135672
 20
-20.25398989394699
 30
0.0
 42
-0.4565417232955612
  0
VERTEX
  5
2A31
  8
SAPA_FOGBAND
 62
     2
 10
102.0639800873453
 20
-20.603791999987891
 30
0.0
  0
VERTEX
  5
2A32
  8
SAPA_FOGBAND
 62
     2
 10
101.053758436664
 20
-20.42566266647697
 30
0.0
  0
VERTEX
  5
2A33
  8
SAPA_FOGBAND
 62
     2
 10
101.1232177077308
 20
-20.031739565272058
 30
0.0
 42
0.6720594905598717
  0
VERTEX
  5
2A34
  8
SAPA_FOGBAND
 62
     2
 10
100.8097924115782
 20
-19.834417814393468
 30
0.0
  0
VERTEX
  5
2A35
  8
SAPA_FOGBAND
 62
     2
 10
98.966683303994884
 20
-21.154625683459241
 30
0.0
 42
0.4079520108343612
  0
VERTEX
  5
2A36
  8
SAPA_FOGBAND
 62
     2
 10
98.820924838015614
 20
-21.98126302162245
 30
0.0
  0
VERTEX
  5
2A37
  8
SAPA_FOGBAND
 62
     2
 10
100.1013431811175
 20
-23.8522330552276
 30
0.0
 42
0.6720594905598635
  0
VERTEX
  5
2A38
  8
SAPA_FOGBAND
 62
     2
 10
100.46335463259651
 20
-23.774009026718431
 30
0.0
  0
VERTEX
  5
2A39
  8
SAPA_FOGBAND
 62
     2
 10
100.5328139036633
 20
-23.38008592551358
 30
0.0
  0
VERTEX
  5
2A3A
  8
SAPA_FOGBAND
 62
     2
 10
101.4191408813742
 20
-23.536369285413802
 30
0.0
 42
-0.4142135623730951
  0
VERTEX
  5
2A3B
  8
SAPA_FOGBAND
 62
     2
 10
101.6624887539779
 20
-23.88390606461752
 30
0.0
  0
VERTEX
  5
2A3C
  8
SAPA_FOGBAND
 62
     2
 10
101.45441198672179
 20
-25.28225212524109
 30
0.0
 42
0.4313344489874135
  0
VERTEX
  5
2A3D
  8
SAPA_FOGBAND
 62
     2
 10
101.7150028783781
 20
-25.632315331149421
 30
0.0
  0
VERTEX
  5
2A3E
  8
SAPA_FOGBAND
 62
     2
 10
102.4229924026686
 20
-25.715124183210779
 30
0.0
 42
0.3972974670000809
  0
VERTEX
  5
2A3F
  8
SAPA_FOGBAND
 62
     2
 10
102.97348200292041
 20
-25.305333684363919
 30
0.0
  0
VERTEX
  5
2A40
  8
SAPA_FOGBAND
 62
     2
 10
103.94336156110219
 20
-19.80487337882829
 30
0.0
  0
VERTEX
  5
2A41
  8
SAPA_FOGBAND
 62
     2
 10
103.94336156110219
 20
-18.06947369390565
 30
0.0
 42
-0.4147066859863004
  0
VERTEX
  5
2A42
  8
SAPA_FOGBAND
 62
     2
 10
105.4433594358882
 20
-16.5669486914781
 30
0.0
  0
VERTEX
  5
2A43
  8
SAPA_FOGBAND
 62
     2
 10
107.6458860254743
 20
-16.56694869147822
 30
0.0
 42
-0.601131774324047
  0
VERTEX
  5
2A44
  8
SAPA_FOGBAND
 62
     2
 10
107.5779833479103
 20
-17.486527644055339
 30
0.0
 42
0.2227389711612139
  0
VERTEX
  5
2A45
  8
SAPA_FOGBAND
 62
     2
 10
107.4663105087826
 20
-17.614396813274141
 30
0.0
  0
VERTEX
  5
2A46
  8
SAPA_FOGBAND
 62
     2
 10
106.9432921896895
 20
-19.436233986312061
 30
0.0
 42
-0.1796843201953831
  0
VERTEX
  5
2A47
  8
SAPA_FOGBAND
 62
     2
 10
106.0224462225019
 20
-20.660305851653789
 30
0.0
 42
1.0
  0
VERTEX
  5
2A48
  8
SAPA_FOGBAND
 62
     2
 10
106.6162847389009
 20
-21.586240955449401
 30
0.0
  0
SEQEND
  5
2A49
  8
SAPA_FOGBAND
 62
     2
  0
INSERT
  5
1ACB
  8
SAPA_FOGBAND
  6
CONTINUOUS
 62
     2
  2
*U166
 10
0.0
 20
0.0
 30
0.0
1001
ACAD
1002
{
1000
R14_HATCH_DATA
1000
1ACB
1011
1.0
1021
0.0
1031
0.0
1021
0.0
1031
0.0
1011
0.0
1021
0.0
1031
0.0
1021
1.0
1031
0.0
1011
0.0
1021
0.0
1031
0.0
1021
0.0
1031
1.0
1040
0.0
1010
0.0
1020
0.0
1030
1.0
1000
SOLID
1070
     1
1070
     0
1071
        1
1071
        1
1071
        1
1070
     2
1040
103.23535415210949
1040
-19.38905549650428
1040
0.2549509756796394
1040
0.0
1040
6.2831853071795862
1070
     1
1071
        0
1070
     0
1070
     1
1071
        1
1040
96.125506012124148
1040
-28.369774677025529
1040
0.0
1002
}
  0
POLYLINE
  5
1ACC
  8
SAPA_FOGBAND
 62
     2
 66
     1
 10
0.0
 20
0.0
 30
0.0
 70
     1
  0
VERTEX
  5
2A5B
  8
SAPA_FOGBAND
 62
     2
 10
101.59278905904119
 20
-22.551561532401589
 30
0.0
 42
1.0
  0
VERTEX
  5
2A5C
  8
SAPA_FOGBAND
 62
     2
 10
101.7664372367082
 20
-21.566753779389391
 30
0.0
  0
VERTEX
  5
2A5D
  8
SAPA_FOGBAND
 62
     2
 10
100.28922560718991
 20
-21.306281512888969
 30
0.0
 42
0.9999999999999998
  0
VERTEX
  5
2A5E
  8
SAPA_FOGBAND
 62
     2
 10
100.1155774295229
 20
-22.291089265901181
 30
0.0
  0
SEQEND
  5
2A5F
  8
SAPA_FOGBAND
 62
     2
  0
POLYLINE
  5
1ACD
  8
SAPA_FOGBAND
 62
     2
 66
     1
 10
0.0
 20
0.0
 30
0.0
  0
VERTEX
  5
2A60
  8
SAPA_FOGBAND
 62
     2
 10
100.4391035898504
 20
-63.410547331544073
 30
0.0
 42
0.1803090304626144
  0
VERTEX
  5
2A61
  8
SAPA_FOGBAND
 62
     2
 10
99.051105965491345
 20
-65.25095900835781
 30
0.0
  0
VERTEX
  5
2A62
  8
SAPA_FOGBAND
 62
     2
 10
98.31706207669329
 20
-67.716318214283589
 30
0.0
 42
-0.3317810211360308
  0
VERTEX
  5
2A63
  8
SAPA_FOGBAND
 62
     2
 10
97.35864253124528
 20
-68.430955331442846
 30
0.0
  0
VERTEX
  5
2A64
  8
SAPA_FOGBAND
 62
     2
 10
96.124915372645617
 20
-68.430955331442973
 30
0.0
 42
0.2679491924312111
  0
VERTEX
  5
2A65
  8
SAPA_FOGBAND
 62
     2
 10
95.865107751512895
 20
-68.580955331443064
 30
0.0
  0
VERTEX
  5
2A66
  8
SAPA_FOGBAND
 62
     2
 10
95.343651834096676
 20
-69.48414347431661
 30
0.0
 42
0.5773502691894719
  0
VERTEX
  5
2A67
  8
SAPA_FOGBAND
 62
     2
 10
95.603459455232112
 20
-69.934143474316429
 30
0.0
  0
VERTEX
  5
2A68
  8
SAPA_FOGBAND
 62
     2
 10
101.6053002192855
 20
-69.934143474316542
 30
0.0
 42
0.4147066859862881
  0
VERTEX
  5
2A69
  8
SAPA_FOGBAND
 62
     2
 10
104.6052959688575
 20
-66.929093469461563
 30
0.0
  0
VERTEX
  5
2A6A
  8
SAPA_FOGBAND
 62
     2
 10
104.60162294160649
 20
-64.747102271847652
 30
0.0
 42
-0.4565417232955612
  0
VERTEX
  5
2A6B
  8
SAPA_FOGBAND
 62
     2
 10
104.98467956782839
 20
-64.397300165806755
 30
0.0
  0
VERTEX
  5
2A6C
  8
SAPA_FOGBAND
 62
     2
 10
105.9949012185097
 20
-64.575429499317679
 30
0.0
  0
VERTEX
  5
2A6D
  8
SAPA_FOGBAND
 62
     2
 10
105.92544194744291
 20
-64.969352600522583
 30
0.0
 42
0.6720594905598717
  0
VERTEX
  5
2A6E
  8
SAPA_FOGBAND
 62
     2
 10
106.23886724359549
 20
-65.16667435140117
 30
0.0
  0
VERTEX
  5
2A6F
  8
SAPA_FOGBAND
 62
     2
 10
108.08197635117889
 20
-63.846466482335401
 30
0.0
 42
0.4079520108343612
  0
VERTEX
  5
2A70
  8
SAPA_FOGBAND
 62
     2
 10
108.22773481715809
 20
-63.019829144172192
 30
0.0
  0
VERTEX
  5
2A71
  8
SAPA_FOGBAND
 62
     2
 10
106.94731647405619
 20
-61.148859110567038
 30
0.0
 42
0.6720594905598635
  0
VERTEX
  5
2A72
  8
SAPA_FOGBAND
 62
     2
 10
106.5853050225772
 20
-61.227083139076207
 30
0.0
  0
VERTEX
  5
2A73
  8
SAPA_FOGBAND
 62
     2
 10
106.5158457515104
 20
-61.621006240281062
 30
0.0
  0
VERTEX
  5
2A74
  8
SAPA_FOGBAND
 62
     2
 10
105.6295187737995
 20
-61.464722880380847
 30
0.0
 42
-0.4142135623730951
  0
VERTEX
  5
2A75
  8
SAPA_FOGBAND
 62
     2
 10
105.3861709011958
 20
-61.117186101177118
 30
0.0
  0
VERTEX
  5
2A76
  8
SAPA_FOGBAND
 62
     2
 10
105.5942476684519
 20
-59.718840040553559
 30
0.0
 42
0.4313344489874135
  0
VERTEX
  5
2A77
  8
SAPA_FOGBAND
 62
     2
 10
105.33365677679561
 20
-59.368776834645232
 30
0.0
  0
VERTEX
  5
2A78
  8
SAPA_FOGBAND
 62
     2
 10
104.6256672525051
 20
-59.28596798258387
 30
0.0
 42
0.3972974670000809
  0
VERTEX
  5
2A79
  8
SAPA_FOGBAND
 62
     2
 10
104.0751776522533
 20
-59.695758481430722
 30
0.0
  0
VERTEX
  5
2A7A
  8
SAPA_FOGBAND
 62
     2
 10
103.1052980940715
 20
-65.196218786966355
 30
0.0
  0
VERTEX
  5
2A7B
  8
SAPA_FOGBAND
 62
     2
 10
103.1052980940715
 20
-66.931618471888996
 30
0.0
 42
-0.4147066859863004
  0
VERTEX
  5
2A7C
  8
SAPA_FOGBAND
 62
     2
 10
101.6053002192855
 20
-68.434143474316542
 30
0.0
  0
VERTEX
  5
2A7D
  8
SAPA_FOGBAND
 62
     2
 10
99.402773629699425
 20
-68.434143474316429
 30
0.0
 42
-0.601131774324047
  0
VERTEX
  5
2A7E
  8
SAPA_FOGBAND
 62
     2
 10
99.470676307263446
 20
-67.514564521739302
 30
0.0
 42
0.2227389711612139
  0
VERTEX
  5
2A7F
  8
SAPA_FOGBAND
 62
     2
 10
99.582349146391124
 20
-67.386695352520505
 30
0.0
  0
VERTEX
  5
2A80
  8
SAPA_FOGBAND
 62
     2
 10
100.10536746548421
 20
-65.564858179482584
 30
0.0
 42
-0.1796843201953831
  0
VERTEX
  5
2A81
  8
SAPA_FOGBAND
 62
     2
 10
101.0262134326718
 20
-64.340786314140857
 30
0.0
 42
1.0
  0
VERTEX
  5
2A82
  8
SAPA_FOGBAND
 62
     2
 10
100.43237491627291
 20
-63.414851210345248
 30
0.0
  0
SEQEND
  5
2A83
  8
SAPA_FOGBAND
 62
     2
  0
INSERT
  5
1ACE
  8
SAPA_FOGBAND
  6
CONTINUOUS
 62
     2
  2
*U167
 10
0.0
 20
0.0
 30
0.0
1001
ACAD
1002
{
1000
R14_HATCH_DATA
1000
1ACE
1011
1.0
1021
0.0
1031
0.0
1021
0.0
1031
0.0
1011
0.0
1021
0.0
1031
0.0
1021
1.0
1031
0.0
1011
0.0
1021
0.0
1031
0.0
1021
0.0
1031
1.0
1040
0.0
1010
0.0
1020
0.0
1030
1.0
1000
SOLID
1070
     1
1070
     0
1071
        1
1071
        1
1071
        1
1070
     2
1040
103.8133055030642
1040
-65.612036669290362
1040
0.2549509756796394
1040
3.1415926535897931
1040
9.4247779607693793
1070
     1
1071
        0
1070
     0
1070
     1
1071
        1
1040
110.9231536430496
1040
-56.631317488769113
1040
0.0
1002
}
  0
POLYLINE
  5
1ACF
  8
SAPA_FOGBAND
 62
     2
 66
     1
 10
0.0
 20
0.0
 30
0.0
 70
     1
  0
VERTEX
  5
2A95
  8
SAPA_FOGBAND
 62
     2
 10
105.4558705961325
 20
-62.449530633393053
 30
0.0
 42
1.0
  0
VERTEX
  5
2A96
  8
SAPA_FOGBAND
 62
     2
 10
105.28222241846549
 20
-63.434338386405258
 30
0.0
  0
VERTEX
  5
2A97
  8
SAPA_FOGBAND
 62
     2
 10
106.7594340479838
 20
-63.69481065290568
 30
0.0
 42
0.9999999999999998
  0
VERTEX
  5
2A98
  8
SAPA_FOGBAND
 62
     2
 10
106.93308222565079
 20
-62.710002899893468
 30
0.0
  0
SEQEND
  5
2A99
  8
SAPA_FOGBAND
 62
     2
  0
CIRCLE
  5
1AD0
  8
SAPA_FOGBAND
 10
18.616845201378961
 20
-74.6375681777605
 30
0.0
 40
0.2549509756796394
  0
INSERT
  5
1AD1
  8
SAPA_FOGBAND
  6
CONTINUOUS
  2
*U168
 10
0.0
 20
0.0
 30
0.0
1001
ACAD
1002
{
1000
R14_HATCH_DATA
1000
1AD1
1011
1.0
1021
0.0
1031
0.0
1021
0.0
1031
0.0
1011
0.0
1021
0.0
1031
0.0
1021
1.0
1031
0.0
1011
0.0
1021
0.0
1031
0.0
1021
0.0
1031
1.0
1040
0.0
1010
0.0
1020
0.0
1030
1.0
1000
SOLID
1070
     1
1070
     1
1071
        1
1071
        1
1071
        1
1070
     2
1040
18.616845201378961
1040
-74.6375681777605
1040
0.2549509756796394
1040
-3.1415926535897931
1040
3.1415926535897931
1070
     0
1071
        1
1005
1AD0
1070
     0
1070
     1
1071
        1
1040
18.853584102949071
1040
-74.555716680431601
1040
0.0
1002
}
  0
POLYLINE
  5
1AD2
  8
SAPA_FOGBAND
 66
     1
 10
0.0
 20
0.0
 30
0.0
 70
     1
  0
VERTEX
  5
2AAB
  8
SAPA_FOGBAND
 10
17.716845201378991
 20
-77.599999957005025
 30
0.0
 42
-0.9999999999999998
  0
VERTEX
  5
2AAC
  8
SAPA_FOGBAND
 10
19.516845201378938
 20
-77.599999957005025
 30
0.0
  0
VERTEX
  5
2AAD
  8
SAPA_FOGBAND
 10
19.516845201378938
 20
-78.199999957005048
 30
0.0
 42
-0.9999999999999998
  0
VERTEX
  5
2AAE
  8
SAPA_FOGBAND
 10
17.716845201378991
 20
-78.199999957005048
 30
0.0
  0
SEQEND
  5
2AAF
  8
SAPA_FOGBAND
  0
POLYLINE
  5
1AD3
  8
SAPA_FOGBAND
 66
     1
 10
0.0
 20
0.0
 30
0.0
 70
     1
  0
VERTEX
  5
2AB0
  8
SAPA_FOGBAND
 10
27.244721509552171
 20
-72.499999957005002
 30
0.0
 42
-0.0775891054856093
  0
VERTEX
  5
2AB1
  8
SAPA_FOGBAND
 10
23.777939779129611
 20
-72.816635941066352
 30
0.0
  0
VERTEX
  5
2AB2
  8
SAPA_FOGBAND
 10
23.540050286300811
 20
-72.599999957004954
 30
0.0
 42
0.5773502691896298
  0
VERTEX
  5
2AB3
  8
SAPA_FOGBAND
 10
23.193640124786949
 20
-72.599999957004954
 30
0.0
  0
VERTEX
  5
2AB4
  8
SAPA_FOGBAND
 10
22.95559250805616
 20
-72.816909811228015
 30
0.0
  0
VERTEX
  5
2AB5
  8
SAPA_FOGBAND
 10
22.17809789813953
 20
-72.816909811228015
 30
0.0
  0
VERTEX
  5
2AB6
  8
SAPA_FOGBAND
 10
21.940050286300789
 20
-72.599999957004954
 30
0.0
 42
0.577350269189699
  0
VERTEX
  5
2AB7
  8
SAPA_FOGBAND
 10
21.59364012478704
 20
-72.599999957004954
 30
0.0
  0
VERTEX
  5
2AB8
  8
SAPA_FOGBAND
 10
21.355592508056251
 20
-72.816909811228015
 30
0.0
  0
VERTEX
  5
2AB9
  8
SAPA_FOGBAND
 10
20.5780978981395
 20
-72.816909811228015
 30
0.0
  0
VERTEX
  5
2ABA
  8
SAPA_FOGBAND
 10
20.340050286300769
 20
-72.599999957004954
 30
0.0
 42
0.577350269189699
  0
VERTEX
  5
2ABB
  8
SAPA_FOGBAND
 10
19.993640124787021
 20
-72.599999957004954
 30
0.0
  0
VERTEX
  5
2ABC
  8
SAPA_FOGBAND
 10
19.755592508056221
 20
-72.816909811228015
 30
0.0
  0
VERTEX
  5
2ABD
  8
SAPA_FOGBAND
 10
18.978097898139481
 20
-72.816909811228015
 30
0.0
  0
VERTEX
  5
2ABE
  8
SAPA_FOGBAND
 10
18.74005028630086
 20
-72.599999957004954
 30
0.0
 42
0.5773502691896298
  0
VERTEX
  5
2ABF
  8
SAPA_FOGBAND
 10
18.393640124787002
 20
-72.599999957004954
 30
0.0
  0
VERTEX
  5
2AC0
  8
SAPA_FOGBAND
 10
18.155592508056198
 20
-72.816909811228015
 30
0.0
  0
VERTEX
  5
2AC1
  8
SAPA_FOGBAND
 10
17.378097898139458
 20
-72.816909811228015
 30
0.0
  0
VERTEX
  5
2AC2
  8
SAPA_FOGBAND
 10
17.140050286300831
 20
-72.599999957004954
 30
0.0
 42
0.5773502691896298
  0
VERTEX
  5
2AC3
  8
SAPA_FOGBAND
 10
16.793640124786972
 20
-72.599999957004954
 30
0.0
  0
VERTEX
  5
2AC4
  8
SAPA_FOGBAND
 10
16.555592508056179
 20
-72.816909811228015
 30
0.0
  0
VERTEX
  5
2AC5
  8
SAPA_FOGBAND
 10
15.77809789397452
 20
-72.816909811228015
 30
0.0
  0
VERTEX
  5
2AC6
  8
SAPA_FOGBAND
 10
15.54005028213578
 20
-72.599999957004954
 30
0.0
 42
0.577350269189699
  0
VERTEX
  5
2AC7
  8
SAPA_FOGBAND
 10
15.19364012062203
 20
-72.599999957004954
 30
0.0
  0
VERTEX
  5
2AC8
  8
SAPA_FOGBAND
 10
14.39364012106693
 20
-73.673330025489463
 30
0.0
 42
0.1316524987190269
  0
VERTEX
  5
2AC9
  8
SAPA_FOGBAND
 10
14.366845201378959
 20
-73.773330026260155
 30
0.0
  0
VERTEX
  5
2ACA
  8
SAPA_FOGBAND
 10
14.366845201378849
 20
-76.299999957004957
 30
0.0
 42
0.4142135623730951
  0
VERTEX
  5
2ACB
  8
SAPA_FOGBAND
 10
14.5668452013789
 20
-76.499999957005002
 30
0.0
  0
VERTEX
  5
2ACC
  8
SAPA_FOGBAND
 10
16.616845201378961
 20
-76.499999957005002
 30
0.0
 42
-0.4142135623730951
  0
VERTEX
  5
2ACD
  8
SAPA_FOGBAND
 10
17.116845201378961
 20
-76.999999957005002
 30
0.0
  0
VERTEX
  5
2ACE
  8
SAPA_FOGBAND
 10
17.116845201378961
 20
-77.726794876248164
 30
0.0
  0
VERTEX
  5
2ACF
  8
SAPA_FOGBAND
 10
16.86508139235843
 20
-77.794254785558564
 30
0.0
 42
0.4740571810232869
  0
VERTEX
  5
2AD0
  8
SAPA_FOGBAND
 10
16.737787529994868
 20
-78.076537371197205
 30
0.0
  0
VERTEX
  5
2AD1
  8
SAPA_FOGBAND
 10
17.357888032753401
 20
-79.522743507956989
 30
0.0
 42
0.2846003776495916
  0
VERTEX
  5
2AD2
  8
SAPA_FOGBAND
 10
17.805532211213631
 20
-79.799999957004957
 30
0.0
  0
VERTEX
  5
2AD3
  8
SAPA_FOGBAND
 10
19.428158191544181
 20
-79.799999957004957
 30
0.0
 42
0.2846003776495917
  0
VERTEX
  5
2AD4
  8
SAPA_FOGBAND
 10
19.875802370004411
 20
-79.522743507956989
 30
0.0
  0
VERTEX
  5
2AD5
  8
SAPA_FOGBAND
 10
20.49590287276294
 20
-78.076537371197205
 30
0.0
 42
0.4740571810232869
  0
VERTEX
  5
2AD6
  8
SAPA_FOGBAND
 10
20.368609010399378
 20
-77.794254785558564
 30
0.0
  0
VERTEX
  5
2AD7
  8
SAPA_FOGBAND
 10
20.116845201378968
 20
-77.726794876248164
 30
0.0
  0
VERTEX
  5
2AD8
  8
SAPA_FOGBAND
 10
20.116845201378968
 20
-76.999999957005002
 30
0.0
 42
-0.4142135623730951
  0
VERTEX
  5
2AD9
  8
SAPA_FOGBAND
 10
20.616845201378961
 20
-76.499999957005002
 30
0.0
  0
VERTEX
  5
2ADA
  8
SAPA_FOGBAND
 10
23.666845201378919
 20
-76.499999957005002
 30
0.0
 42
-0.4142135623730951
  0
VERTEX
  5
2ADB
  8
SAPA_FOGBAND
 10
23.866845201378968
 20
-76.699999957005033
 30
0.0
  0
VERTEX
  5
2ADC
  8
SAPA_FOGBAND
 10
23.866845201378851
 20
-77.599999957005025
 30
0.0
 42
0.4142135623731784
  0
VERTEX
  5
2ADD
  8
SAPA_FOGBAND
 10
24.0668452013789
 20
-77.799999957004957
 30
0.0
  0
VERTEX
  5
2ADE
  8
SAPA_FOGBAND
 10
24.766845201378938
 20
-77.79999995700507
 30
0.0
 42
0.4142135623730398
  0
VERTEX
  5
2ADF
  8
SAPA_FOGBAND
 10
25.0668452013789
 20
-77.499999957005002
 30
0.0
  0
VERTEX
  5
2AE0
  8
SAPA_FOGBAND
 10
25.0668452013789
 20
-76.689488180353464
 30
0.0
 42
-0.1316524975873973
  0
VERTEX
  5
2AE1
  8
SAPA_FOGBAND
 10
25.334794393810061
 20
-75.689488180353464
 30
0.0
  0
VERTEX
  5
2AE2
  8
SAPA_FOGBAND
 10
30.497639543850479
 20
-73.099920188261535
 30
0.0
 42
0.7057658529986604
  0
VERTEX
  5
2AE3
  8
SAPA_FOGBAND
 10
30.23004636849214
 20
-72.499999957005002
 30
0.0
  0
SEQEND
  5
2AE4
  8
SAPA_FOGBAND
  0
POLYLINE
  5
1AD4
  8
SAPA_FOGBAND
 66
     1
 10
0.0
 20
0.0
 30
0.0
 70
     1
  0
VERTEX
  5
2AE5
  8
SAPA_FOGBAND
 10
16.003393554041391
 20
-36.300000000001091
 30
0.0
  0
VERTEX
  5
2AE6
  8
SAPA_FOGBAND
 10
23.303393554041349
 20
-36.300000000001091
 30
0.0
 42
0.4142135623730951
  0
VERTEX
  5
2AE7
  8
SAPA_FOGBAND
 10
23.803393554041349
 20
-35.800000000001091
 30
0.0
  0
VERTEX
  5
2AE8
  8
SAPA_FOGBAND
 10
23.803393554041349
 20
-35.500000000001137
 30
0.0
  0
VERTEX
  5
2AE9
  8
SAPA_FOGBAND
 10
22.20339355404133
 20
-35.500000000001137
 30
0.0
 42
-0.4142135623730951
  0
VERTEX
  5
2AEA
  8
SAPA_FOGBAND
 10
21.70339355404133
 20
-35.000000000001137
 30
0.0
  0
VERTEX
  5
2AEB
  8
SAPA_FOGBAND
 10
21.70339355404133
 20
-34.058574583119253
 30
0.0
  0
VERTEX
  5
2AEC
  8
SAPA_FOGBAND
 10
21.955157363061861
 20
-33.991114673808852
 30
0.0
 42
0.4740571810232243
  0
VERTEX
  5
2AED
  8
SAPA_FOGBAND
 10
22.082451225425419
 20
-33.708832088170197
 30
0.0
  0
VERTEX
  5
2AEE
  8
SAPA_FOGBAND
 10
21.46235072266677
 20
-32.262625951410321
 30
0.0
 42
0.2846003776496037
  0
VERTEX
  5
2AEF
  8
SAPA_FOGBAND
 10
21.014706544206661
 20
-31.985369502362349
 30
0.0
  0
VERTEX
  5
2AF0
  8
SAPA_FOGBAND
 10
19.39208056387611
 20
-31.985369502362349
 30
0.0
 42
0.2846003776496048
  0
VERTEX
  5
2AF1
  8
SAPA_FOGBAND
 10
18.94443638541588
 20
-32.262625951410321
 30
0.0
  0
VERTEX
  5
2AF2
  8
SAPA_FOGBAND
 10
18.324335882657241
 20
-33.708832088170197
 30
0.0
 42
0.4740571810232242
  0
VERTEX
  5
2AF3
  8
SAPA_FOGBAND
 10
18.451629745020909
 20
-33.991114673808852
 30
0.0
  0
VERTEX
  5
2AF4
  8
SAPA_FOGBAND
 10
18.70339355404133
 20
-34.058574583119253
 30
0.0
  0
VERTEX
  5
2AF5
  8
SAPA_FOGBAND
 10
18.70339355404133
 20
-35.000000000001137
 30
0.0
 42
-0.4142135623730951
  0
VERTEX
  5
2AF6
  8
SAPA_FOGBAND
 10
18.20339355404133
 20
-35.500000000001137
 30
0.0
  0
VERTEX
  5
2AF7
  8
SAPA_FOGBAND
 10
15.50339355404151
 20
-35.500000000001137
 30
0.0
  0
VERTEX
  5
2AF8
  8
SAPA_FOGBAND
 10
15.50339355404139
 20
-35.800000000001091
 30
0.0
 42
0.4142135623730951
  0
SEQEND
  5
2AF9
  8
SAPA_FOGBAND
  0
POLYLINE
  5
1AD5
  8
SAPA_FOGBAND
 66
     1
 10
0.0
 20
0.0
 30
0.0
 70
     1
  0
VERTEX
  5
2AFA
  8
SAPA_FOGBAND
 10
19.303393554041349
 20
-34.185369502362391
 30
0.0
  0
VERTEX
  5
2AFB
  8
SAPA_FOGBAND
 10
19.303393554041349
 20
-33.585369502362369
 30
0.0
 42
-0.9999999999999998
  0
VERTEX
  5
2AFC
  8
SAPA_FOGBAND
 10
21.1033935540413
 20
-33.585369502362369
 30
0.0
  0
VERTEX
  5
2AFD
  8
SAPA_FOGBAND
 10
21.1033935540413
 20
-34.185369502362391
 30
0.0
 42
-0.9999999999999998
  0
SEQEND
  5
2AFE
  8
SAPA_FOGBAND
  0
POLYLINE
  5
1AD6
  8
SAPA_FOGBAND
 66
     1
 10
0.0
 20
0.0
 30
0.0
  0
VERTEX
  5
2AFF
  8
SAPA_FOGBAND
 10
23.803393554041349
 20
-35.800000000001091
 30
0.0
  0
VERTEX
  5
2B00
  8
SAPA_FOGBAND
 10
23.803393554041349
 20
-35.500000000001137
 30
0.0
  0
VERTEX
  5
2B01
  8
SAPA_FOGBAND
 10
24.715553717422718
 20
-35.500000000001137
 30
0.0
 42
-0.4027293761437522
  0
VERTEX
  5
2B02
  8
SAPA_FOGBAND
 10
25.01532127102076
 20
-35.788192637470267
 30
0.0
  0
VERTEX
  5
2B03
  8
SAPA_FOGBAND
 10
25.63547260950191
 20
-42.423995511554381
 30
0.0
 42
-0.4366759199119207
  0
VERTEX
  5
2B04
  8
SAPA_FOGBAND
 10
24.638365133982919
 20
-43.500000000001712
 30
0.0
  0
VERTEX
  5
2B05
  8
SAPA_FOGBAND
 10
12.76316551799391
 20
-43.500000000001712
 30
0.0
 42
-0.1134871727417796
  0
VERTEX
  5
2B06
  8
SAPA_FOGBAND
 10
12.326386682381781
 20
-43.399568923854297
 30
0.0
  0
VERTEX
  5
2B07
  8
SAPA_FOGBAND
 10
5.2213249156041917
 20
-40.440889661177501
 30
0.0
 42
-0.2866770623134215
  0
VERTEX
  5
2B08
  8
SAPA_FOGBAND
 10
5.0020663695228
 20
-40.090931572825809
 30
0.0
  0
VERTEX
  5
2B09
  8
SAPA_FOGBAND
 10
5.0020663695228
 20
-39.098088390161926
 30
0.0
 42
-0.3386584782462731
  0
VERTEX
  5
2B0A
  8
SAPA_FOGBAND
 10
5.592805865400102
 20
-38.325942004160993
 30
0.0
  0
VERTEX
  5
2B0B
  8
SAPA_FOGBAND
 10
15.050210686562419
 20
-35.546144059771677
 30
0.0
 42
-0.0644539213931785
  0
VERTEX
  5
2B0C
  8
SAPA_FOGBAND
 10
15.406685220162441
 20
-35.500000000001137
 30
0.0
  0
VERTEX
  5
2B0D
  8
SAPA_FOGBAND
 10
15.50339355404151
 20
-35.500000000001137
 30
0.0
  0
SEQEND
  5
2B0E
  8
SAPA_FOGBAND
  0
POLYLINE
  5
1AD7
  8
SAPA_FOGBAND
 66
     1
 10
0.0
 20
0.0
 30
0.0
 70
     1
  0
VERTEX
  5
2B0F
  8
SAPA_FOGBAND
 10
11.88029721244766
 20
-37.605164153427438
 30
0.0
  0
VERTEX
  5
2B10
  8
SAPA_FOGBAND
 10
7.6042180005681308
 20
-39.020702744133082
 30
0.0
 42
0.444186966527488
  0
VERTEX
  5
2B11
  8
SAPA_FOGBAND
 10
7.5698481626085723
 20
-39.495522529297837
 30
0.0
  0
VERTEX
  5
2B12
  8
SAPA_FOGBAND
 10
11.76226131109456
 20
-41.890424100317382
 30
0.0
 42
0.5537304554466119
  0
VERTEX
  5
2B13
  8
SAPA_FOGBAND
 10
12.69329399657113
 20
-41.307503437660898
 30
0.0
  0
VERTEX
  5
2B14
  8
SAPA_FOGBAND
 10
12.69329399657113
 20
-38.231806045762262
 30
0.0
 42
0.4917973357877383
  0
SEQEND
  5
2B15
  8
SAPA_FOGBAND
  0
POLYLINE
  5
1AD8
  8
SAPA_FOGBAND
 10
21.926001341048469
 20
-40.020122589264574
 30
0.0
 66
     1
 70
     8
  0
VERTEX
  8
SAPA_FOGBAND
  5
2C21
 10
21.9260
 20
-40.0201
 30
0.000000
  70
    32
  0
VERTEX
  8
SAPA_FOGBAND
  5
2C22
 10
21.9213
 20
-40.1350
 30
0.000000
  70
    32
  0
VERTEX
  8
SAPA_FOGBAND
  5
2C23
 10
21.9094
 20
-40.2495
 30
0.000000
  70
    32
  0
VERTEX
  8
SAPA_FOGBAND
  5
2C24
 10
21.8905
 20
-40.3634
 30
0.000000
  70
    32
  0
VERTEX
  8
SAPA_FOGBAND
  5
2C25
 10
21.8644
 20
-40.4765
 30
0.000000
  70
    32
  0
VERTEX
  8
SAPA_FOGBAND
  5
2C26
 10
21.8314
 20
-40.5883
 30
0.000000
  70
    32
  0
VERTEX
  8
SAPA_FOGBAND
  5
2C27
 10
21.7914
 20
-40.6987
 30
0.000000
  70
    32
  0
VERTEX
  8
SAPA_FOGBAND
  5
2C28
 10
21.7446
 20
-40.8074
 30
0.000000
  70
    32
  0
VERTEX
  8
SAPA_FOGBAND
  5
2C29
 10
21.6911
 20
-40.9141
 30
0.000000
  70
    32
  0
VERTEX
  8
SAPA_FOGBAND
  5
2C2A
 10
21.6310
 20
-41.0186
 30
0.000000
  70
    32
  0
VERTEX
  8
SAPA_FOGBAND
  5
2C2B
 10
21.5645
 20
-41.1206
 30
0.000000
  70
    32
  0
VERTEX
  8
SAPA_FOGBAND
  5
2C2C
 10
21.4917
 20
-41.2199
 30
0.000000
  70
    32
  0
VERTEX
  8
SAPA_FOGBAND
  5
2C2D
 10
21.4128
 20
-41.3163
 30
0.000000
  70
    32
  0
VERTEX
  8
SAPA_FOGBAND
  5
2C2E
 10
21.3279
 20
-41.4094
 30
0.000000
  70
    32
  0
VERTEX
  8
SAPA_FOGBAND
  5
2C2F
 10
21.2374
 20
-41.4992
 30
0.000000
  70
    32
  0
VERTEX
  8
SAPA_FOGBAND
  5
2C30
 10
21.1414
 20
-41.5852
 30
0.000000
  70
    32
  0
VERTEX
  8
SAPA_FOGBAND
  5
2C31
 10
21.0401
 20
-41.6675
 30
0.000000
  70
    32
  0
VERTEX
  8
SAPA_FOGBAND
  5
2C32
 10
20.9338
 20
-41.7457
 30
0.000000
  70
    32
  0
VERTEX
  8
SAPA_FOGBAND
  5
2C33
 10
20.8227
 20
-41.8197
 30
0.000000
  70
    32
  0
VERTEX
  8
SAPA_FOGBAND
  5
2C34
 10
20.7071
 20
-41.8893
 30
0.000000
  70
    32
  0
VERTEX
  8
SAPA_FOGBAND
  5
2C35
 10
20.5874
 20
-41.9543
 30
0.000000
  70
    32
  0
VERTEX
  8
SAPA_FOGBAND
  5
2C36
 10
20.4636
 20
-42.0146
 30
0.000000
  70
    32
  0
VERTEX
  8
SAPA_FOGBAND
  5
2C37
 10
20.3363
 20
-42.0699
 30
0.000000
  70
    32
  0
VERTEX
  8
SAPA_FOGBAND
  5
2C38
 10
20.2057
 20
-42.1203
 30
0.000000
  70
    32
  0
VERTEX
  8
SAPA_FOGBAND
  5
2C39
 10
20.0720
 20
-42.1656
 30
0.000000
  70
    32
  0
VERTEX
  8
SAPA_FOGBAND
  5
2C3A
 10
19.9356
 20
-42.2056
 30
0.000000
  70
    32
  0
VERTEX
  8
SAPA_FOGBAND
  5
2C3B
 10
19.7969
 20
-42.2403
 30
0.000000
  70
    32
  0
VERTEX
  8
SAPA_FOGBAND
  5
2C3C
 10
19.6562
 20
-42.2696
 30
0.000000
  70
    32
  0
VERTEX
  8
SAPA_FOGBAND
  5
2C3D
 10
19.5138
 20
-42.2933
 30
0.000000
  70
    32
  0
VERTEX
  8
SAPA_FOGBAND
  5
2C3E
 10
19.3701
 20
-42.3115
 30
0.000000
  70
    32
  0
VERTEX
  8
SAPA_FOGBAND
  5
2C3F
 10
19.2253
 20
-42.3242
 30
0.000000
  70
    32
  0
VERTEX
  8
SAPA_FOGBAND
  5
2C40
 10
19.0799
 20
-42.3312
 30
0.000000
  70
    32
  0
VERTEX
  8
SAPA_FOGBAND
  5
2C41
 10
18.9342
 20
-42.3326
 30
0.000000
  70
    32
  0
VERTEX
  8
SAPA_FOGBAND
  5
2C42
 10
18.7886
 20
-42.3283
 30
0.000000
  70
    32
  0
VERTEX
  8
SAPA_FOGBAND
  5
2C43
 10
18.6434
 20
-42.3184
 30
0.000000
  70
    32
  0
VERTEX
  8
SAPA_FOGBAND
  5
2C44
 10
18.4989
 20
-42.3029
 30
0.000000
  70
    32
  0
VERTEX
  8
SAPA_FOGBAND
  5
2C45
 10
18.3556
 20
-42.2818
 30
0.000000
  70
    32
  0
VERTEX
  8
SAPA_FOGBAND
  5
2C46
 10
18.2137
 20
-42.2552
 30
0.000000
  70
    32
  0
VERTEX
  8
SAPA_FOGBAND
  5
2C47
 10
18.0736
 20
-42.2231
 30
0.000000
  70
    32
  0
VERTEX
  8
SAPA_FOGBAND
  5
2C48
 10
17.9356
 20
-42.1857
 30
0.000000
  70
    32
  0
VERTEX
  8
SAPA_FOGBAND
  5
2C49
 10
17.8001
 20
-42.1430
 30
0.000000
  70
    32
  0
VERTEX
  8
SAPA_FOGBAND
  5
2C4A
 10
17.6673
 20
-42.0951
 30
0.000000
  70
    32
  0
VERTEX
  8
SAPA_FOGBAND
  5
2C4B
 10
17.5377
 20
-42.0421
 30
0.000000
  70
    32
  0
VERTEX
  8
SAPA_FOGBAND
  5
2C4C
 10
17.4115
 20
-41.9842
 30
0.000000
  70
    32
  0
VERTEX
  8
SAPA_FOGBAND
  5
2C4D
 10
17.2890
 20
-41.9214
 30
0.000000
  70
    32
  0
VERTEX
  8
SAPA_FOGBAND
  5
2C4E
 10
17.1705
 20
-41.8541
 30
0.000000
  70
    32
  0
VERTEX
  8
SAPA_FOGBAND
  5
2C4F
 10
17.0564
 20
-41.7822
 30
0.000000
  70
    32
  0
VERTEX
  8
SAPA_FOGBAND
  5
2C50
 10
16.9468
 20
-41.7060
 30
0.000000
  70
    32
  0
VERTEX
  8
SAPA_FOGBAND
  5
2C51
 10
16.8421
 20
-41.6257
 30
0.000000
  70
    32
  0
VERTEX
  8
SAPA_FOGBAND
  5
2C52
 10
16.7424
 20
-41.5415
 30
0.000000
  70
    32
  0
VERTEX
  8
SAPA_FOGBAND
  5
2C53
 10
16.6481
 20
-41.4535
 30
0.000000
  70
    32
  0
VERTEX
  8
SAPA_FOGBAND
  5
2C54
 10
16.5594
 20
-41.3620
 30
0.000000
  70
    32
  0
VERTEX
  8
SAPA_FOGBAND
  5
2C55
 10
16.4764
 20
-41.2671
 30
0.000000
  70
    32
  0
VERTEX
  8
SAPA_FOGBAND
  5
2C56
 10
16.3995
 20
-41.1693
 30
0.000000
  70
    32
  0
VERTEX
  8
SAPA_FOGBAND
  5
2C57
 10
16.3286
 20
-41.0685
 30
0.000000
  70
    32
  0
VERTEX
  8
SAPA_FOGBAND
  5
2C58
 10
16.2642
 20
-40.9652
 30
0.000000
  70
    32
  0
VERTEX
  8
SAPA_FOGBAND
  5
2C59
 10
16.2062
 20
-40.8595
 30
0.000000
  70
    32
  0
VERTEX
  8
SAPA_FOGBAND
  5
2C5A
 10
16.1548
 20
-40.7517
 30
0.000000
  70
    32
  0
VERTEX
  8
SAPA_FOGBAND
  5
2C5B
 10
16.1102
 20
-40.6421
 30
0.000000
  70
    32
  0
VERTEX
  8
SAPA_FOGBAND
  5
2C5C
 10
16.0724
 20
-40.5310
 30
0.000000
  70
    32
  0
VERTEX
  8
SAPA_FOGBAND
  5
2C5D
 10
16.0416
 20
-40.4185
 30
0.000000
  70
    32
  0
VERTEX
  8
SAPA_FOGBAND
  5
2C5E
 10
16.0178
 20
-40.3050
 30
0.000000
  70
    32
  0
VERTEX
  8
SAPA_FOGBAND
  5
2C5F
 10
16.0011
 20
-40.1907
 30
0.000000
  70
    32
  0
VERTEX
  8
SAPA_FOGBAND
  5
2C60
 10
15.9916
 20
-40.0760
 30
0.000000
  70
    32
  0
VERTEX
  8
SAPA_FOGBAND
  5
2C61
 10
15.9891
 20
-39.9610
 30
0.000000
  70
    32
  0
VERTEX
  8
SAPA_FOGBAND
  5
2C62
 10
15.9938
 20
-39.8462
 30
0.000000
  70
    32
  0
VERTEX
  8
SAPA_FOGBAND
  5
2C63
 10
16.0057
 20
-39.7316
 30
0.000000
  70
    32
  0
VERTEX
  8
SAPA_FOGBAND
  5
2C64
 10
16.0247
 20
-39.6177
 30
0.000000
  70
    32
  0
VERTEX
  8
SAPA_FOGBAND
  5
2C65
 10
16.0507
 20
-39.5047
 30
0.000000
  70
    32
  0
VERTEX
  8
SAPA_FOGBAND
  5
2C66
 10
16.0837
 20
-39.3929
 30
0.000000
  70
    32
  0
VERTEX
  8
SAPA_FOGBAND
  5
2C67
 10
16.1237
 20
-39.2825
 30
0.000000
  70
    32
  0
VERTEX
  8
SAPA_FOGBAND
  5
2C68
 10
16.1705
 20
-39.1738
 30
0.000000
  70
    32
  0
VERTEX
  8
SAPA_FOGBAND
  5
2C69
 10
16.2240
 20
-39.0670
 30
0.000000
  70
    32
  0
VERTEX
  8
SAPA_FOGBAND
  5
2C6A
 10
16.2841
 20
-38.9625
 30
0.000000
  70
    32
  0
VERTEX
  8
SAPA_FOGBAND
  5
2C6B
 10
16.3506
 20
-38.8605
 30
0.000000
  70
    32
  0
VERTEX
  8
SAPA_FOGBAND
  5
2C6C
 10
16.4234
 20
-38.7612
 30
0.000000
  70
    32
  0
VERTEX
  8
SAPA_FOGBAND
  5
2C6D
 10
16.5023
 20
-38.6649
 30
0.000000
  70
    32
  0
VERTEX
  8
SAPA_FOGBAND
  5
2C6E
 10
16.5872
 20
-38.5717
 30
0.000000
  70
    32
  0
VERTEX
  8
SAPA_FOGBAND
  5
2C6F
 10
16.6777
 20
-38.4820
 30
0.000000
  70
    32
  0
VERTEX
  8
SAPA_FOGBAND
  5
2C70
 10
16.7737
 20
-38.3959
 30
0.000000
  70
    32
  0
VERTEX
  8
SAPA_FOGBAND
  5
2C71
 10
16.8750
 20
-38.3137
 30
0.000000
  70
    32
  0
VERTEX
  8
SAPA_FOGBAND
  5
2C72
 10
16.9813
 20
-38.2354
 30
0.000000
  70
    32
  0
VERTEX
  8
SAPA_FOGBAND
  5
2C73
 10
17.0924
 20
-38.1615
 30
0.000000
  70
    32
  0
VERTEX
  8
SAPA_FOGBAND
  5
2C74
 10
17.2080
 20
-38.0919
 30
0.000000
  70
    32
  0
VERTEX
  8
SAPA_FOGBAND
  5
2C75
 10
17.3278
 20
-38.0269
 30
0.000000
  70
    32
  0
VERTEX
  8
SAPA_FOGBAND
  5
2C76
 10
17.4515
 20
-37.9666
 30
0.000000
  70
    32
  0
VERTEX
  8
SAPA_FOGBAND
  5
2C77
 10
17.5788
 20
-37.9112
 30
0.000000
  70
    32
  0
VERTEX
  8
SAPA_FOGBAND
  5
2C78
 10
17.7095
 20
-37.8608
 30
0.000000
  70
    32
  0
VERTEX
  8
SAPA_FOGBAND
  5
2C79
 10
17.8431
 20
-37.8156
 30
0.000000
  70
    32
  0
VERTEX
  8
SAPA_FOGBAND
  5
2C7A
 10
17.9795
 20
-37.7755
 30
0.000000
  70
    32
  0
VERTEX
  8
SAPA_FOGBAND
  5
2C7B
 10
18.1182
 20
-37.7409
 30
0.000000
  70
    32
  0
VERTEX
  8
SAPA_FOGBAND
  5
2C7C
 10
18.2589
 20
-37.7116
 30
0.000000
  70
    32
  0
VERTEX
  8
SAPA_FOGBAND
  5
2C7D
 10
18.4013
 20
-37.6878
 30
0.000000
  70
    32
  0
VERTEX
  8
SAPA_FOGBAND
  5
2C7E
 10
18.5451
 20
-37.6696
 30
0.000000
  70
    32
  0
VERTEX
  8
SAPA_FOGBAND
  5
2C7F
 10
18.6898
 20
-37.6570
 30
0.000000
  70
    32
  0
VERTEX
  8
SAPA_FOGBAND
  5
2C80
 10
18.8352
 20
-37.6500
 30
0.000000
  70
    32
  0
VERTEX
  8
SAPA_FOGBAND
  5
2C81
 10
18.9809
 20
-37.6486
 30
0.000000
  70
    32
  0
VERTEX
  8
SAPA_FOGBAND
  5
2C82
 10
19.1265
 20
-37.6529
 30
0.000000
  70
    32
  0
VERTEX
  8
SAPA_FOGBAND
  5
2C83
 10
19.2717
 20
-37.6628
 30
0.000000
  70
    32
  0
VERTEX
  8
SAPA_FOGBAND
  5
2C84
 10
19.4162
 20
-37.6783
 30
0.000000
  70
    32
  0
VERTEX
  8
SAPA_FOGBAND
  5
2C85
 10
19.5595
 20
-37.6994
 30
0.000000
  70
    32
  0
VERTEX
  8
SAPA_FOGBAND
  5
2C86
 10
19.7014
 20
-37.7260
 30
0.000000
  70
    32
  0
VERTEX
  8
SAPA_FOGBAND
  5
2C87
 10
19.8416
 20
-37.7580
 30
0.000000
  70
    32
  0
VERTEX
  8
SAPA_FOGBAND
  5
2C88
 10
19.9795
 20
-37.7955
 30
0.000000
  70
    32
  0
VERTEX
  8
SAPA_FOGBAND
  5
2C89
 10
20.1151
 20
-37.8382
 30
0.000000
  70
    32
  0
VERTEX
  8
SAPA_FOGBAND
  5
2C8A
 10
20.2478
 20
-37.8861
 30
0.000000
  70
    32
  0
VERTEX
  8
SAPA_FOGBAND
  5
2C8B
 10
20.3774
 20
-37.9391
 30
0.000000
  70
    32
  0
VERTEX
  8
SAPA_FOGBAND
  5
2C8C
 10
20.5036
 20
-37.9970
 30
0.000000
  70
    32
  0
VERTEX
  8
SAPA_FOGBAND
  5
2C8D
 10
20.6261
 20
-38.0597
 30
0.000000
  70
    32
  0
VERTEX
  8
SAPA_FOGBAND
  5
2C8E
 10
20.7446
 20
-38.1271
 30
0.000000
  70
    32
  0
VERTEX
  8
SAPA_FOGBAND
  5
2C8F
 10
20.8587
 20
-38.1989
 30
0.000000
  70
    32
  0
VERTEX
  8
SAPA_FOGBAND
  5
2C90
 10
20.9683
 20
-38.2751
 30
0.000000
  70
    32
  0
VERTEX
  8
SAPA_FOGBAND
  5
2C91
 10
21.0730
 20
-38.3554
 30
0.000000
  70
    32
  0
VERTEX
  8
SAPA_FOGBAND
  5
2C92
 10
21.1727
 20
-38.4397
 30
0.000000
  70
    32
  0
VERTEX
  8
SAPA_FOGBAND
  5
2C93
 10
21.2670
 20
-38.5277
 30
0.000000
  70
    32
  0
VERTEX
  8
SAPA_FOGBAND
  5
2C94
 10
21.3557
 20
-38.6192
 30
0.000000
  70
    32
  0
VERTEX
  8
SAPA_FOGBAND
  5
2C95
 10
21.4387
 20
-38.7140
 30
0.000000
  70
    32
  0
VERTEX
  8
SAPA_FOGBAND
  5
2C96
 10
21.5157
 20
-38.8119
 30
0.000000
  70
    32
  0
VERTEX
  8
SAPA_FOGBAND
  5
2C97
 10
21.5865
 20
-38.9126
 30
0.000000
  70
    32
  0
VERTEX
  8
SAPA_FOGBAND
  5
2C98
 10
21.6510
 20
-39.0160
 30
0.000000
  70
    32
  0
VERTEX
  8
SAPA_FOGBAND
  5
2C99
 10
21.7090
 20
-39.1216
 30
0.000000
  70
    32
  0
VERTEX
  8
SAPA_FOGBAND
  5
2C9A
 10
21.7603
 20
-39.2294
 30
0.000000
  70
    32
  0
VERTEX
  8
SAPA_FOGBAND
  5
2C9B
 10
21.8049
 20
-39.3390
 30
0.000000
  70
    32
  0
VERTEX
  8
SAPA_FOGBAND
  5
2C9C
 10
21.8427
 20
-39.4502
 30
0.000000
  70
    32
  0
VERTEX
  8
SAPA_FOGBAND
  5
2C9D
 10
21.8735
 20
-39.5627
 30
0.000000
  70
    32
  0
VERTEX
  8
SAPA_FOGBAND
  5
2C9E
 10
21.8973
 20
-39.6762
 30
0.000000
  70
    32
  0
VERTEX
  8
SAPA_FOGBAND
  5
2C9F
 10
21.9140
 20
-39.7904
 30
0.000000
  70
    32
  0
VERTEX
  8
SAPA_FOGBAND
  5
2CA0
 10
21.9236
 20
-39.9052
 30
0.000000
  70
    32
  0
VERTEX
  8
SAPA_FOGBAND
  5
2CA1
 10
21.9260
 20
-40.0201
 30
0.000000
  70
    32
  0
SEQEND
  8
SAPA_FOGBAND
  5
2CA2
  0
CIRCLE
  5
1AD9
  8
SAPA_FOGBAND
 10
-18.629356795612811
 20
-75.028466855359966
 30
0.0
 40
0.2549509756796394
  0
INSERT
  5
1ADA
  8
SAPA_FOGBAND
  6
CONTINUOUS
  2
*U169
 10
0.0
 20
0.0
 30
0.0
1001
ACAD
1002
{
1000
R14_HATCH_DATA
1000
1ADA
1011
1.0
1021
0.0
1031
0.0
1021
0.0
1031
0.0
1011
0.0
1021
0.0
1031
0.0
1021
1.0
1031
0.0
1011
0.0
1021
0.0
1031
0.0
1021
0.0
1031
1.0
1040
0.0
1010
0.0
1020
0.0
1030
1.0
1000
SOLID
1070
     1
1070
     1
1071
        1
1071
        1
1071
        1
1070
     2
1040
-18.629356795612811
1040
-75.028466855359966
1040
0.2549509756796394
1040
0.0
1040
6.2831853071795862
1070
     1
1071
        1
1005
1AD9
1070
     0
1070
     1
1071
        1
1040
-18.86609569718291
1040
-74.946615358031067
1040
0.0
1002
}
  0
POLYLINE
  5
1ADB
  8
SAPA_FOGBAND
 66
     1
 10
0.0
 20
0.0
 30
0.0
 70
     1
  0
VERTEX
  5
2B27
  8
SAPA_FOGBAND
 10
-17.729356795612709
 20
-77.599999999010834
 30
0.0
 42
0.9999999999999998
  0
VERTEX
  5
2B28
  8
SAPA_FOGBAND
 10
-19.529356795612671
 20
-77.599999999010834
 30
0.0
  0
VERTEX
  5
2B29
  8
SAPA_FOGBAND
 10
-19.529356795612671
 20
-78.199999999010856
 30
0.0
 42
0.9999999999999998
  0
VERTEX
  5
2B2A
  8
SAPA_FOGBAND
 10
-17.729356795612709
 20
-78.199999999010856
 30
0.0
  0
SEQEND
  5
2B2B
  8
SAPA_FOGBAND
  0
POLYLINE
  5
1ADC
  8
SAPA_FOGBAND
 66
     1
 10
0.0
 20
0.0
 30
0.0
 70
     1
  0
VERTEX
  5
2B2C
  8
SAPA_FOGBAND
 10
-14.3793567956128
 20
-74.164228703859635
 30
0.0
  0
VERTEX
  5
2B2D
  8
SAPA_FOGBAND
 10
-14.37935679561258
 20
-76.299999999010765
 30
0.0
 42
-0.4142135623730951
  0
VERTEX
  5
2B2E
  8
SAPA_FOGBAND
 10
-14.57935679561262
 20
-76.499999999010811
 30
0.0
  0
VERTEX
  5
2B2F
  8
SAPA_FOGBAND
 10
-16.629356795612811
 20
-76.499999999010811
 30
0.0
 42
0.4142135623730951
  0
VERTEX
  5
2B30
  8
SAPA_FOGBAND
 10
-17.129356795612811
 20
-76.999999999010811
 30
0.0
  0
VERTEX
  5
2B31
  8
SAPA_FOGBAND
 10
-17.129356795612811
 20
-77.726794918253972
 30
0.0
  0
VERTEX
  5
2B32
  8
SAPA_FOGBAND
 10
-16.877592986592269
 20
-77.794254827564373
 30
0.0
 42
-0.4740571810232154
  0
VERTEX
  5
2B33
  8
SAPA_FOGBAND
 10
-16.750299124228711
 20
-78.076537413203027
 30
0.0
  0
VERTEX
  5
2B34
  8
SAPA_FOGBAND
 10
-17.37039962698725
 20
-79.522743549962797
 30
0.0
 42
-0.2846003776496056
  0
VERTEX
  5
2B35
  8
SAPA_FOGBAND
 10
-17.81804380544747
 20
-79.799999999010765
 30
0.0
  0
VERTEX
  5
2B36
  8
SAPA_FOGBAND
 10
-19.44066978577791
 20
-79.799999999010765
 30
0.0
 42
-0.2846003776496054
  0
VERTEX
  5
2B37
  8
SAPA_FOGBAND
 10
-19.88831396423814
 20
-79.522743549962797
 30
0.0
  0
VERTEX
  5
2B38
  8
SAPA_FOGBAND
 10
-20.508414466996669
 20
-78.076537413203027
 30
0.0
 42
-0.4740571810232154
  0
VERTEX
  5
2B39
  8
SAPA_FOGBAND
 10
-20.381120604633111
 20
-77.794254827564373
 30
0.0
  0
VERTEX
  5
2B3A
  8
SAPA_FOGBAND
 10
-20.129356795612811
 20
-77.726794918253972
 30
0.0
  0
VERTEX
  5
2B3B
  8
SAPA_FOGBAND
 10
-20.129356795612811
 20
-76.999999999010811
 30
0.0
 42
0.4142135623730951
  0
VERTEX
  5
2B3C
  8
SAPA_FOGBAND
 10
-20.629356795612811
 20
-76.499999999010811
 30
0.0
  0
VERTEX
  5
2B3D
  8
SAPA_FOGBAND
 10
-23.679356795612762
 20
-76.499999999010811
 30
0.0
 42
0.4142135623730951
  0
VERTEX
  5
2B3E
  8
SAPA_FOGBAND
 10
-23.879356795612811
 20
-76.699999999010856
 30
0.0
  0
VERTEX
  5
2B3F
  8
SAPA_FOGBAND
 10
-23.87935679561258
 20
-77.599999999010834
 30
0.0
 42
-0.4142135623730951
  0
VERTEX
  5
2B40
  8
SAPA_FOGBAND
 10
-24.079356795612622
 20
-77.799999999010765
 30
0.0
  0
VERTEX
  5
2B41
  8
SAPA_FOGBAND
 10
-24.779356795612671
 20
-77.799999999010879
 30
0.0
 42
-0.4142135623730951
  0
VERTEX
  5
2B42
  8
SAPA_FOGBAND
 10
-25.079356795612629
 20
-77.499999999010811
 30
0.0
  0
VERTEX
  5
2B43
  8
SAPA_FOGBAND
 10
-25.079356795612629
 20
-76.689488222359273
 30
0.0
 42
0.1316524975873982
  0
VERTEX
  5
2B44
  8
SAPA_FOGBAND
 10
-25.347305988043789
 20
-75.689488222359273
 30
0.0
  0
VERTEX
  5
2B45
  8
SAPA_FOGBAND
 10
-29.318018525145931
 20
-73.054121304015098
 30
0.0
 42
-0.876976462992761
  0
VERTEX
  5
2B46
  8
SAPA_FOGBAND
 10
-29.215112935235648
 20
-72.53677996789861
 30
0.0
  0
VERTEX
  5
2B47
  8
SAPA_FOGBAND
 10
-23.79045137336345
 20
-73.09062476444285
 30
0.0
 42
0.1353185728426623
  0
VERTEX
  5
2B48
  8
SAPA_FOGBAND
 10
-23.79045137336345
 20
-73.09062476444285
 30
0.0
  0
VERTEX
  5
2B49
  8
SAPA_FOGBAND
 10
-23.55256188053465
 20
-72.678588072042658
 30
0.0
 42
-0.5773502691896196
  0
VERTEX
  5
2B4A
  8
SAPA_FOGBAND
 10
-23.206151719020799
 20
-72.678588072042658
 30
0.0
  0
VERTEX
  5
2B4B
  8
SAPA_FOGBAND
 10
-22.968104102289889
 20
-73.090898634604514
 30
0.0
  0
VERTEX
  5
2B4C
  8
SAPA_FOGBAND
 10
-22.190609492373252
 20
-73.090898634604514
 30
0.0
  0
VERTEX
  5
2B4D
  8
SAPA_FOGBAND
 10
-21.952561880534521
 20
-72.678588072042658
 30
0.0
 42
-0.5773502691896196
  0
VERTEX
  5
2B4E
  8
SAPA_FOGBAND
 10
-21.606151719020879
 20
-72.678588072042658
 30
0.0
  0
VERTEX
  5
2B4F
  8
SAPA_FOGBAND
 10
-21.368104102289969
 20
-73.090898634604514
 30
0.0
  0
VERTEX
  5
2B50
  8
SAPA_FOGBAND
 10
-20.59060949237335
 20
-73.090898634604514
 30
0.0
  0
VERTEX
  5
2B51
  8
SAPA_FOGBAND
 10
-20.352561880534608
 20
-72.678588072042658
 30
0.0
 42
-0.5773502691896196
  0
VERTEX
  5
2B52
  8
SAPA_FOGBAND
 10
-20.00615171902075
 20
-72.678588072042658
 30
0.0
  0
VERTEX
  5
2B53
  8
SAPA_FOGBAND
 10
-19.76810410229006
 20
-73.090898634604514
 30
0.0
  0
VERTEX
  5
2B54
  8
SAPA_FOGBAND
 10
-18.99060949237321
 20
-73.090898634604514
 30
0.0
  0
VERTEX
  5
2B55
  8
SAPA_FOGBAND
 10
-18.752561880534699
 20
-72.678588072042658
 30
0.0
 42
-0.5773502691896196
  0
VERTEX
  5
2B56
  8
SAPA_FOGBAND
 10
-18.406151719020841
 20
-72.678588072042658
 30
0.0
  0
VERTEX
  5
2B57
  8
SAPA_FOGBAND
 10
-18.168104102289931
 20
-73.090898634604514
 30
0.0
  0
VERTEX
  5
2B58
  8
SAPA_FOGBAND
 10
-17.390609492373301
 20
-73.090898634604514
 30
0.0
  0
VERTEX
  5
2B59
  8
SAPA_FOGBAND
 10
-17.152561880534559
 20
-72.678588072042658
 30
0.0
 42
-0.5773502691896196
  0
VERTEX
  5
2B5A
  8
SAPA_FOGBAND
 10
-16.806151719020701
 20
-72.678588072042658
 30
0.0
  0
VERTEX
  5
2B5B
  8
SAPA_FOGBAND
 10
-16.568104102290022
 20
-73.090898634604514
 30
0.0
  0
VERTEX
  5
2B5C
  8
SAPA_FOGBAND
 10
-15.790609488208361
 20
-73.090898634604514
 30
0.0
  0
VERTEX
  5
2B5D
  8
SAPA_FOGBAND
 10
-15.552561876369619
 20
-72.678588072042658
 30
0.0
 42
-0.5773502691896196
  0
VERTEX
  5
2B5E
  8
SAPA_FOGBAND
 10
-15.206151714855761
 20
-72.678588072042658
 30
0.0
  0
VERTEX
  5
2B5F
  8
SAPA_FOGBAND
 10
-14.40615171530078
 20
-74.064228703088929
 30
0.0
 42
-0.1316524987190407
  0
SEQEND
  5
2B60
  8
SAPA_FOGBAND
  0
POLYLINE
  5
1ADD
  8
SAPA_FOGBAND
 66
     1
 10
0.0
 20
0.0
 30
0.0
 70
     1
  0
VERTEX
  5
2B61
  8
SAPA_FOGBAND
 10
-19.301327184514889
 20
-33.585369501371019
 30
0.0
  0
VERTEX
  5
2B62
  8
SAPA_FOGBAND
 10
-19.301327184514889
 20
-34.185369501370928
 30
0.0
 42
-0.9999999999999998
  0
VERTEX
  5
2B63
  8
SAPA_FOGBAND
 10
-21.101327184515071
 20
-34.185369501370928
 30
0.0
  0
VERTEX
  5
2B64
  8
SAPA_FOGBAND
 10
-21.101327184515071
 20
-33.585369501371019
 30
0.0
 42
-0.9999999999999998
  0
SEQEND
  5
2B65
  8
SAPA_FOGBAND
  0
POLYLINE
  5
1ADE
  8
SAPA_FOGBAND
 66
     1
 10
0.0
 20
0.0
 30
0.0
  0
VERTEX
  5
2B66
  8
SAPA_FOGBAND
 10
-23.801327184514889
 20
-35.499999999009667
 30
0.0
  0
VERTEX
  5
2B67
  8
SAPA_FOGBAND
 10
-23.801327184514889
 20
-35.799999999009628
 30
0.0
 42
0.4142135623730951
  0
VERTEX
  5
2B68
  8
SAPA_FOGBAND
 10
-23.301327184514889
 20
-36.299999999009628
 30
0.0
  0
VERTEX
  5
2B69
  8
SAPA_FOGBAND
 10
-16.001327184514711
 20
-36.299999999009628
 30
0.0
 42
0.4142135623730951
  0
VERTEX
  5
2B6A
  8
SAPA_FOGBAND
 10
-15.501327184514709
 20
-35.799999999009628
 30
0.0
  0
VERTEX
  5
2B6B
  8
SAPA_FOGBAND
 10
-15.50132718451516
 20
-35.499999999009667
 30
0.0
  0
SEQEND
  5
2B6C
  8
SAPA_FOGBAND
  0
POLYLINE
  5
1ADF
  8
SAPA_FOGBAND
 10
-22.264574318352189
 20
-40.561832548750303
 30
0.0
 66
     1
 70
     8
  0
VERTEX
  8
SAPA_FOGBAND
  5
2CA3
 10
-22.2646
 20
-40.5618
 30
0.000000
  70
    32
  0
VERTEX
  8
SAPA_FOGBAND
  5
2CA4
 10
-22.2598
 20
-40.6446
 30
0.000000
  70
    32
  0
VERTEX
  8
SAPA_FOGBAND
  5
2CA5
 10
-22.2470
 20
-40.7271
 30
0.000000
  70
    32
  0
VERTEX
  8
SAPA_FOGBAND
  5
2CA6
 10
-22.2264
 20
-40.8091
 30
0.000000
  70
    32
  0
VERTEX
  8
SAPA_FOGBAND
  5
2CA7
 10
-22.1979
 20
-40.8904
 30
0.000000
  70
    32
  0
VERTEX
  8
SAPA_FOGBAND
  5
2CA8
 10
-22.1616
 20
-40.9709
 30
0.000000
  70
    32
  0
VERTEX
  8
SAPA_FOGBAND
  5
2CA9
 10
-22.1177
 20
-41.0503
 30
0.000000
  70
    32
  0
VERTEX
  8
SAPA_FOGBAND
  5
2CAA
 10
-22.0661
 20
-41.1285
 30
0.000000
  70
    32
  0
VERTEX
  8
SAPA_FOGBAND
  5
2CAB
 10
-22.0071
 20
-41.2052
 30
0.000000
  70
    32
  0
VERTEX
  8
SAPA_FOGBAND
  5
2CAC
 10
-21.9407
 20
-41.2802
 30
0.000000
  70
    32
  0
VERTEX
  8
SAPA_FOGBAND
  5
2CAD
 10
-21.8672
 20
-41.3535
 30
0.000000
  70
    32
  0
VERTEX
  8
SAPA_FOGBAND
  5
2CAE
 10
-21.7867
 20
-41.4248
 30
0.000000
  70
    32
  0
VERTEX
  8
SAPA_FOGBAND
  5
2CAF
 10
-21.6994
 20
-41.4939
 30
0.000000
  70
    32
  0
VERTEX
  8
SAPA_FOGBAND
  5
2CB0
 10
-21.6055
 20
-41.5607
 30
0.000000
  70
    32
  0
VERTEX
  8
SAPA_FOGBAND
  5
2CB1
 10
-21.5052
 20
-41.6250
 30
0.000000
  70
    32
  0
VERTEX
  8
SAPA_FOGBAND
  5
2CB2
 10
-21.3989
 20
-41.6867
 30
0.000000
  70
    32
  0
VERTEX
  8
SAPA_FOGBAND
  5
2CB3
 10
-21.2867
 20
-41.7455
 30
0.000000
  70
    32
  0
VERTEX
  8
SAPA_FOGBAND
  5
2CB4
 10
-21.1688
 20
-41.8015
 30
0.000000
  70
    32
  0
VERTEX
  8
SAPA_FOGBAND
  5
2CB5
 10
-21.0457
 20
-41.8544
 30
0.000000
  70
    32
  0
VERTEX
  8
SAPA_FOGBAND
  5
2CB6
 10
-20.9176
 20
-41.9041
 30
0.000000
  70
    32
  0
VERTEX
  8
SAPA_FOGBAND
  5
2CB7
 10
-20.7848
 20
-41.9504
 30
0.000000
  70
    32
  0
VERTEX
  8
SAPA_FOGBAND
  5
2CB8
 10
-20.6475
 20
-41.9934
 30
0.000000
  70
    32
  0
VERTEX
  8
SAPA_FOGBAND
  5
2CB9
 10
-20.5063
 20
-42.0328
 30
0.000000
  70
    32
  0
VERTEX
  8
SAPA_FOGBAND
  5
2CBA
 10
-20.3613
 20
-42.0686
 30
0.000000
  70
    32
  0
VERTEX
  8
SAPA_FOGBAND
  5
2CBB
 10
-20.2130
 20
-42.1007
 30
0.000000
  70
    32
  0
VERTEX
  8
SAPA_FOGBAND
  5
2CBC
 10
-20.0616
 20
-42.1290
 30
0.000000
  70
    32
  0
VERTEX
  8
SAPA_FOGBAND
  5
2CBD
 10
-19.9077
 20
-42.1535
 30
0.000000
  70
    32
  0
VERTEX
  8
SAPA_FOGBAND
  5
2CBE
 10
-19.7514
 20
-42.1740
 30
0.000000
  70
    32
  0
VERTEX
  8
SAPA_FOGBAND
  5
2CBF
 10
-19.5933
 20
-42.1906
 30
0.000000
  70
    32
  0
VERTEX
  8
SAPA_FOGBAND
  5
2CC0
 10
-19.4336
 20
-42.2032
 30
0.000000
  70
    32
  0
VERTEX
  8
SAPA_FOGBAND
  5
2CC1
 10
-19.2729
 20
-42.2117
 30
0.000000
  70
    32
  0
VERTEX
  8
SAPA_FOGBAND
  5
2CC2
 10
-19.1114
 20
-42.2162
 30
0.000000
  70
    32
  0
VERTEX
  8
SAPA_FOGBAND
  5
2CC3
 10
-18.9495
 20
-42.2166
 30
0.000000
  70
    32
  0
VERTEX
  8
SAPA_FOGBAND
  5
2CC4
 10
-18.7877
 20
-42.2130
 30
0.000000
  70
    32
  0
VERTEX
  8
SAPA_FOGBAND
  5
2CC5
 10
-18.6263
 20
-42.2053
 30
0.000000
  70
    32
  0
VERTEX
  8
SAPA_FOGBAND
  5
2CC6
 10
-18.4657
 20
-42.1935
 30
0.000000
  70
    32
  0
VERTEX
  8
SAPA_FOGBAND
  5
2CC7
 10
-18.3064
 20
-42.1778
 30
0.000000
  70
    32
  0
VERTEX
  8
SAPA_FOGBAND
  5
2CC8
 10
-18.1486
 20
-42.1581
 30
0.000000
  70
    32
  0
VERTEX
  8
SAPA_FOGBAND
  5
2CC9
 10
-17.9928
 20
-42.1344
 30
0.000000
  70
    32
  0
VERTEX
  8
SAPA_FOGBAND
  5
2CCA
 10
-17.8393
 20
-42.1069
 30
0.000000
  70
    32
  0
VERTEX
  8
SAPA_FOGBAND
  5
2CCB
 10
-17.6886
 20
-42.0756
 30
0.000000
  70
    32
  0
VERTEX
  8
SAPA_FOGBAND
  5
2CCC
 10
-17.5409
 20
-42.0406
 30
0.000000
  70
    32
  0
VERTEX
  8
SAPA_FOGBAND
  5
2CCD
 10
-17.3967
 20
-42.0019
 30
0.000000
  70
    32
  0
VERTEX
  8
SAPA_FOGBAND
  5
2CCE
 10
-17.2562
 20
-41.9596
 30
0.000000
  70
    32
  0
VERTEX
  8
SAPA_FOGBAND
  5
2CCF
 10
-17.1199
 20
-41.9140
 30
0.000000
  70
    32
  0
VERTEX
  8
SAPA_FOGBAND
  5
2CD0
 10
-16.9880
 20
-41.8650
 30
0.000000
  70
    32
  0
VERTEX
  8
SAPA_FOGBAND
  5
2CD1
 10
-16.8609
 20
-41.8127
 30
0.000000
  70
    32
  0
VERTEX
  8
SAPA_FOGBAND
  5
2CD2
 10
-16.7389
 20
-41.7574
 30
0.000000
  70
    32
  0
VERTEX
  8
SAPA_FOGBAND
  5
2CD3
 10
-16.6222
 20
-41.6991
 30
0.000000
  70
    32
  0
VERTEX
  8
SAPA_FOGBAND
  5
2CD4
 10
-16.5112
 20
-41.6380
 30
0.000000
  70
    32
  0
VERTEX
  8
SAPA_FOGBAND
  5
2CD5
 10
-16.4061
 20
-41.5742
 30
0.000000
  70
    32
  0
VERTEX
  8
SAPA_FOGBAND
  5
2CD6
 10
-16.3071
 20
-41.5079
 30
0.000000
  70
    32
  0
VERTEX
  8
SAPA_FOGBAND
  5
2CD7
 10
-16.2146
 20
-41.4393
 30
0.000000
  70
    32
  0
VERTEX
  8
SAPA_FOGBAND
  5
2CD8
 10
-16.1287
 20
-41.3685
 30
0.000000
  70
    32
  0
VERTEX
  8
SAPA_FOGBAND
  5
2CD9
 10
-16.0496
 20
-41.2956
 30
0.000000
  70
    32
  0
VERTEX
  8
SAPA_FOGBAND
  5
2CDA
 10
-15.9775
 20
-41.2209
 30
0.000000
  70
    32
  0
VERTEX
  8
SAPA_FOGBAND
  5
2CDB
 10
-15.9127
 20
-41.1445
 30
0.000000
  70
    32
  0
VERTEX
  8
SAPA_FOGBAND
  5
2CDC
 10
-15.8552
 20
-41.0666
 30
0.000000
  70
    32
  0
VERTEX
  8
SAPA_FOGBAND
  5
2CDD
 10
-15.8052
 20
-40.9875
 30
0.000000
  70
    32
  0
VERTEX
  8
SAPA_FOGBAND
  5
2CDE
 10
-15.7628
 20
-40.9072
 30
0.000000
  70
    32
  0
VERTEX
  8
SAPA_FOGBAND
  5
2CDF
 10
-15.7281
 20
-40.8260
 30
0.000000
  70
    32
  0
VERTEX
  8
SAPA_FOGBAND
  5
2CE0
 10
-15.7013
 20
-40.7442
 30
0.000000
  70
    32
  0
VERTEX
  8
SAPA_FOGBAND
  5
2CE1
 10
-15.6823
 20
-40.6617
 30
0.000000
  70
    32
  0
VERTEX
  8
SAPA_FOGBAND
  5
2CE2
 10
-15.6712
 20
-40.5790
 30
0.000000
  70
    32
  0
VERTEX
  8
SAPA_FOGBAND
  5
2CE3
 10
-15.6680
 20
-40.4962
 30
0.000000
  70
    32
  0
VERTEX
  8
SAPA_FOGBAND
  5
2CE4
 10
-15.6728
 20
-40.4134
 30
0.000000
  70
    32
  0
VERTEX
  8
SAPA_FOGBAND
  5
2CE5
 10
-15.6856
 20
-40.3309
 30
0.000000
  70
    32
  0
VERTEX
  8
SAPA_FOGBAND
  5
2CE6
 10
-15.7062
 20
-40.2489
 30
0.000000
  70
    32
  0
VERTEX
  8
SAPA_FOGBAND
  5
2CE7
 10
-15.7347
 20
-40.1676
 30
0.000000
  70
    32
  0
VERTEX
  8
SAPA_FOGBAND
  5
2CE8
 10
-15.7710
 20
-40.0871
 30
0.000000
  70
    32
  0
VERTEX
  8
SAPA_FOGBAND
  5
2CE9
 10
-15.8149
 20
-40.0077
 30
0.000000
  70
    32
  0
VERTEX
  8
SAPA_FOGBAND
  5
2CEA
 10
-15.8665
 20
-39.9296
 30
0.000000
  70
    32
  0
VERTEX
  8
SAPA_FOGBAND
  5
2CEB
 10
-15.9255
 20
-39.8529
 30
0.000000
  70
    32
  0
VERTEX
  8
SAPA_FOGBAND
  5
2CEC
 10
-15.9919
 20
-39.7778
 30
0.000000
  70
    32
  0
VERTEX
  8
SAPA_FOGBAND
  5
2CED
 10
-16.0654
 20
-39.7045
 30
0.000000
  70
    32
  0
VERTEX
  8
SAPA_FOGBAND
  5
2CEE
 10
-16.1459
 20
-39.6332
 30
0.000000
  70
    32
  0
VERTEX
  8
SAPA_FOGBAND
  5
2CEF
 10
-16.2332
 20
-39.5641
 30
0.000000
  70
    32
  0
VERTEX
  8
SAPA_FOGBAND
  5
2CF0
 10
-16.3271
 20
-39.4973
 30
0.000000
  70
    32
  0
VERTEX
  8
SAPA_FOGBAND
  5
2CF1
 10
-16.4274
 20
-39.4330
 30
0.000000
  70
    32
  0
VERTEX
  8
SAPA_FOGBAND
  5
2CF2
 10
-16.5337
 20
-39.3713
 30
0.000000
  70
    32
  0
VERTEX
  8
SAPA_FOGBAND
  5
2CF3
 10
-16.6460
 20
-39.3125
 30
0.000000
  70
    32
  0
VERTEX
  8
SAPA_FOGBAND
  5
2CF4
 10
-16.7638
 20
-39.2565
 30
0.000000
  70
    32
  0
VERTEX
  8
SAPA_FOGBAND
  5
2CF5
 10
-16.8869
 20
-39.2036
 30
0.000000
  70
    32
  0
VERTEX
  8
SAPA_FOGBAND
  5
2CF6
 10
-17.0150
 20
-39.1539
 30
0.000000
  70
    32
  0
VERTEX
  8
SAPA_FOGBAND
  5
2CF7
 10
-17.1479
 20
-39.1076
 30
0.000000
  70
    32
  0
VERTEX
  8
SAPA_FOGBAND
  5
2CF8
 10
-17.2851
 20
-39.0646
 30
0.000000
  70
    32
  0
VERTEX
  8
SAPA_FOGBAND
  5
2CF9
 10
-17.4263
 20
-39.0252
 30
0.000000
  70
    32
  0
VERTEX
  8
SAPA_FOGBAND
  5
2CFA
 10
-17.5713
 20
-38.9894
 30
0.000000
  70
    32
  0
VERTEX
  8
SAPA_FOGBAND
  5
2CFB
 10
-17.7196
 20
-38.9573
 30
0.000000
  70
    32
  0
VERTEX
  8
SAPA_FOGBAND
  5
2CFC
 10
-17.8710
 20
-38.9290
 30
0.000000
  70
    32
  0
VERTEX
  8
SAPA_FOGBAND
  5
2CFD
 10
-18.0249
 20
-38.9045
 30
0.000000
  70
    32
  0
VERTEX
  8
SAPA_FOGBAND
  5
2CFE
 10
-18.1812
 20
-38.8840
 30
0.000000
  70
    32
  0
VERTEX
  8
SAPA_FOGBAND
  5
2CFF
 10
-18.3393
 20
-38.8674
 30
0.000000
  70
    32
  0
VERTEX
  8
SAPA_FOGBAND
  5
2D00
 10
-18.4990
 20
-38.8548
 30
0.000000
  70
    32
  0
VERTEX
  8
SAPA_FOGBAND
  5
2D01
 10
-18.6597
 20
-38.8463
 30
0.000000
  70
    32
  0
VERTEX
  8
SAPA_FOGBAND
  5
2D02
 10
-18.8212
 20
-38.8418
 30
0.000000
  70
    32
  0
VERTEX
  8
SAPA_FOGBAND
  5
2D03
 10
-18.9831
 20
-38.8414
 30
0.000000
  70
    32
  0
VERTEX
  8
SAPA_FOGBAND
  5
2D04
 10
-19.1449
 20
-38.8450
 30
0.000000
  70
    32
  0
VERTEX
  8
SAPA_FOGBAND
  5
2D05
 10
-19.3063
 20
-38.8527
 30
0.000000
  70
    32
  0
VERTEX
  8
SAPA_FOGBAND
  5
2D06
 10
-19.4669
 20
-38.8645
 30
0.000000
  70
    32
  0
VERTEX
  8
SAPA_FOGBAND
  5
2D07
 10
-19.6262
 20
-38.8802
 30
0.000000
  70
    32
  0
VERTEX
  8
SAPA_FOGBAND
  5
2D08
 10
-19.7840
 20
-38.8999
 30
0.000000
  70
    32
  0
VERTEX
  8
SAPA_FOGBAND
  5
2D09
 10
-19.9398
 20
-38.9236
 30
0.000000
  70
    32
  0
VERTEX
  8
SAPA_FOGBAND
  5
2D0A
 10
-20.0933
 20
-38.9511
 30
0.000000
  70
    32
  0
VERTEX
  8
SAPA_FOGBAND
  5
2D0B
 10
-20.2440
 20
-38.9824
 30
0.000000
  70
    32
  0
VERTEX
  8
SAPA_FOGBAND
  5
2D0C
 10
-20.3917
 20
-39.0175
 30
0.000000
  70
    32
  0
VERTEX
  8
SAPA_FOGBAND
  5
2D0D
 10
-20.5359
 20
-39.0561
 30
0.000000
  70
    32
  0
VERTEX
  8
SAPA_FOGBAND
  5
2D0E
 10
-20.6764
 20
-39.0984
 30
0.000000
  70
    32
  0
VERTEX
  8
SAPA_FOGBAND
  5
2D0F
 10
-20.8127
 20
-39.1440
 30
0.000000
  70
    32
  0
VERTEX
  8
SAPA_FOGBAND
  5
2D10
 10
-20.9446
 20
-39.1931
 30
0.000000
  70
    32
  0
VERTEX
  8
SAPA_FOGBAND
  5
2D11
 10
-21.0717
 20
-39.2453
 30
0.000000
  70
    32
  0
VERTEX
  8
SAPA_FOGBAND
  5
2D12
 10
-21.1937
 20
-39.3006
 30
0.000000
  70
    32
  0
VERTEX
  8
SAPA_FOGBAND
  5
2D13
 10
-21.3104
 20
-39.3589
 30
0.000000
  70
    32
  0
VERTEX
  8
SAPA_FOGBAND
  5
2D14
 10
-21.4214
 20
-39.4200
 30
0.000000
  70
    32
  0
VERTEX
  8
SAPA_FOGBAND
  5
2D15
 10
-21.5266
 20
-39.4838
 30
0.000000
  70
    32
  0
VERTEX
  8
SAPA_FOGBAND
  5
2D16
 10
-21.6255
 20
-39.5501
 30
0.000000
  70
    32
  0
VERTEX
  8
SAPA_FOGBAND
  5
2D17
 10
-21.7180
 20
-39.6187
 30
0.000000
  70
    32
  0
VERTEX
  8
SAPA_FOGBAND
  5
2D18
 10
-21.8040
 20
-39.6896
 30
0.000000
  70
    32
  0
VERTEX
  8
SAPA_FOGBAND
  5
2D19
 10
-21.8830
 20
-39.7624
 30
0.000000
  70
    32
  0
VERTEX
  8
SAPA_FOGBAND
  5
2D1A
 10
-21.9551
 20
-39.8371
 30
0.000000
  70
    32
  0
VERTEX
  8
SAPA_FOGBAND
  5
2D1B
 10
-22.0199
 20
-39.9135
 30
0.000000
  70
    32
  0
VERTEX
  8
SAPA_FOGBAND
  5
2D1C
 10
-22.0774
 20
-39.9914
 30
0.000000
  70
    32
  0
VERTEX
  8
SAPA_FOGBAND
  5
2D1D
 10
-22.1274
 20
-40.0705
 30
0.000000
  70
    32
  0
VERTEX
  8
SAPA_FOGBAND
  5
2D1E
 10
-22.1698
 20
-40.1508
 30
0.000000
  70
    32
  0
VERTEX
  8
SAPA_FOGBAND
  5
2D1F
 10
-22.2045
 20
-40.2320
 30
0.000000
  70
    32
  0
VERTEX
  8
SAPA_FOGBAND
  5
2D20
 10
-22.2313
 20
-40.3139
 30
0.000000
  70
    32
  0
VERTEX
  8
SAPA_FOGBAND
  5
2D21
 10
-22.2503
 20
-40.3963
 30
0.000000
  70
    32
  0
VERTEX
  8
SAPA_FOGBAND
  5
2D22
 10
-22.2614
 20
-40.4790
 30
0.000000
  70
    32
  0
VERTEX
  8
SAPA_FOGBAND
  5
2D23
 10
-22.2646
 20
-40.5618
 30
0.000000
  70
    32
  0
SEQEND
  8
SAPA_FOGBAND
  5
2D24
  0
POLYLINE
  5
1AE0
  8
SAPA_FOGBAND
 66
     1
 10
0.0
 20
0.0
 30
0.0
 70
     1
  0
VERTEX
  5
2B6D
  8
SAPA_FOGBAND
 10
-8.8913247649944651
 20
-43.953324864972608
 30
0.0
  0
VERTEX
  5
2B6E
  8
SAPA_FOGBAND
 10
-11.892651927563859
 20
-44.445277204862691
 30
0.0
 42
-0.4464785874932524
  0
VERTEX
  5
2B6F
  8
SAPA_FOGBAND
 10
-13.00132718451516
 20
-43.451199899756709
 30
0.0
  0
VERTEX
  5
2B70
  8
SAPA_FOGBAND
 10
-13.00132718451516
 20
-39.850147745599664
 30
0.0
 42
-0.622676997742357
  0
VERTEX
  5
2B71
  8
SAPA_FOGBAND
 10
-11.390652697901141
 20
-39.058266017436267
 30
0.0
  0
VERTEX
  5
2B72
  8
SAPA_FOGBAND
 10
-8.3893255353319773
 20
-41.533301339953248
 30
0.0
 42
-0.232531183213058
  0
VERTEX
  5
2B73
  8
SAPA_FOGBAND
 10
-8.0000000219455387
 20
-42.325183068116857
 30
0.0
  0
VERTEX
  5
2B74
  8
SAPA_FOGBAND
 10
-8.0000000219457661
 20
-42.95924755986686
 30
0.0
 42
-0.3826682380870913
  0
SEQEND
  5
2B75
  8
SAPA_FOGBAND
  0
POLYLINE
  5
1AE1
  8
SAPA_FOGBAND
 66
     1
 10
0.0
 20
0.0
 30
0.0
 70
     1
  0
VERTEX
  5
2B76
  8
SAPA_FOGBAND
 10
-21.95309099353528
 20
-33.991114672817389
 30
0.0
 42
-0.4740571810231764
  0
VERTEX
  5
2B77
  8
SAPA_FOGBAND
 10
-22.080384855899069
 20
-33.708832087178848
 30
0.0
  0
VERTEX
  5
2B78
  8
SAPA_FOGBAND
 10
-21.46028435314031
 20
-32.262625950418737
 30
0.0
 42
-0.2846003776496257
  0
VERTEX
  5
2B79
  8
SAPA_FOGBAND
 10
-21.01264017468031
 20
-31.985369501370879
 30
0.0
  0
VERTEX
  5
2B7A
  8
SAPA_FOGBAND
 10
-19.39001419434965
 20
-31.985369501370879
 30
0.0
 42
-0.2846003776496159
  0
VERTEX
  5
2B7B
  8
SAPA_FOGBAND
 10
-18.942370015889651
 20
-32.262625950418972
 30
0.0
  0
VERTEX
  5
2B7C
  8
SAPA_FOGBAND
 10
-18.322269513130891
 20
-33.708832087178848
 30
0.0
 42
-0.4740571810232354
  0
VERTEX
  5
2B7D
  8
SAPA_FOGBAND
 10
-18.449563375494218
 20
-33.991114672817389
 30
0.0
  0
VERTEX
  5
2B7E
  8
SAPA_FOGBAND
 10
-18.70132718451498
 20
-34.05857458212779
 30
0.0
  0
VERTEX
  5
2B7F
  8
SAPA_FOGBAND
 10
-18.70132718451498
 20
-34.999999999009901
 30
0.0
 42
0.4142135623730951
  0
VERTEX
  5
2B80
  8
SAPA_FOGBAND
 10
-18.20132718451498
 20
-35.499999999009901
 30
0.0
  0
VERTEX
  5
2B81
  8
SAPA_FOGBAND
 10
-15.17322763378035
 20
-35.499999999009667
 30
0.0
 42
-0.1657205760184635
  0
VERTEX
  5
2B82
  8
SAPA_FOGBAND
 10
-14.562553147166559
 20
-35.708118270846292
 30
0.0
  0
VERTEX
  5
2B83
  8
SAPA_FOGBAND
 10
-5.1946627566895813
 20
-41.102703355702147
 30
0.0
 42
-0.2325311832130358
  0
VERTEX
  5
2B84
  8
SAPA_FOGBAND
 10
-4.9999999999964748
 20
-41.498644219784062
 30
0.0
  0
VERTEX
  5
2B85
  8
SAPA_FOGBAND
 10
-4.9999999999964748
 20
-43.729387776221643
 30
0.0
 42
-0.3826682380870913
  0
VERTEX
  5
2B86
  8
SAPA_FOGBAND
 10
-5.8913247430456286
 20
-44.72346508132739
 30
0.0
  0
VERTEX
  5
2B87
  8
SAPA_FOGBAND
 10
-11.49579350334227
 20
-45.499999999010129
 30
0.0
  0
VERTEX
  5
2B88
  8
SAPA_FOGBAND
 10
-25.20132716256569
 20
-45.499999999010129
 30
0.0
 42
-0.4257917699693507
  0
VERTEX
  5
2B89
  8
SAPA_FOGBAND
 10
-25.50109471616372
 20
-45.188192636479357
 30
0.0
  0
VERTEX
  5
2B8A
  8
SAPA_FOGBAND
 10
-25.01325490149441
 20
-35.788192636478811
 30
0.0
 42
-0.4027293761437475
  0
VERTEX
  5
2B8B
  8
SAPA_FOGBAND
 10
-24.713487347896379
 20
-35.499999999009667
 30
0.0
  0
VERTEX
  5
2B8C
  8
SAPA_FOGBAND
 10
-22.20132718451498
 20
-35.499999999009901
 30
0.0
 42
0.4142135623730951
  0
VERTEX
  5
2B8D
  8
SAPA_FOGBAND
 10
-21.701327184514749
 20
-34.999999999009901
 30
0.0
  0
VERTEX
  5
2B8E
  8
SAPA_FOGBAND
 10
-21.701327184514749
 20
-34.05857458212779
 30
0.0
  0
SEQEND
  5
2B8F
  8
SAPA_FOGBAND
  0
POLYLINE
  5
1AE2
  8
SAPA_FOGBAND
 66
     1
 10
0.0
 20
0.0
 30
0.0
 70
     1
  0
VERTEX
  5
2B90
  8
SAPA_FOGBAND
 10
184.9953869625817
 20
-33.087048558099923
 30
0.0
 42
-0.4142135623730951
  0
VERTEX
  5
2B91
  8
SAPA_FOGBAND
 10
185.9953869625817
 20
-32.08704855809993
 30
0.0
  0
VERTEX
  5
2B92
  8
SAPA_FOGBAND
 10
187.19538696258181
 20
-32.08704855809993
 30
0.0
 42
0.4142135623730951
  0
VERTEX
  5
2B93
  8
SAPA_FOGBAND
 10
187.4953869625817
 20
-31.787048558099741
 30
0.0
  0
VERTEX
  5
2B94
  8
SAPA_FOGBAND
 10
187.4953869625817
 20
-30.887048558099881
 30
0.0
  0
VERTEX
  5
2B95
  8
SAPA_FOGBAND
 10
187.1453869625816
 20
-30.887048558099881
 30
0.0
 42
-0.6681786379193472
  0
VERTEX
  5
2B96
  8
SAPA_FOGBAND
 10
186.93325492822581
 20
-30.374916523743881
 30
0.0
  0
VERTEX
  5
2B97
  8
SAPA_FOGBAND
 10
187.786808318819
 20
-29.521363133150551
 30
0.0
 42
-0.1989123673796526
  0
VERTEX
  5
2B98
  8
SAPA_FOGBAND
 10
188.35249374376821
 20
-29.287048558099741
 30
0.0
  0
VERTEX
  5
2B99
  8
SAPA_FOGBAND
 10
188.515188866188
 20
-29.287048558099741
 30
0.0
 42
-0.3394542588633746
  0
VERTEX
  5
2B9A
  8
SAPA_FOGBAND
 10
188.8049666140748
 20
-29.509402844569191
 30
0.0
  0
VERTEX
  5
2B9B
  8
SAPA_FOGBAND
 10
189.1681158574647
 20
-30.8646942716307
 30
0.0
 42
0.3394542588633744
  0
VERTEX
  5
2B9C
  8
SAPA_FOGBAND
 10
189.4578936053515
 20
-31.08704855809993
 30
0.0
  0
VERTEX
  5
2B9D
  8
SAPA_FOGBAND
 10
192.03288031981191
 20
-31.08704855809993
 30
0.0
 42
0.3394542588633746
  0
VERTEX
  5
2B9E
  8
SAPA_FOGBAND
 10
192.32265806769871
 20
-30.8646942716307
 30
0.0
  0
VERTEX
  5
2B9F
  8
SAPA_FOGBAND
 10
192.68580731108861
 20
-29.509402844569191
 30
0.0
 42
-0.3394542588633747
  0
VERTEX
  5
2BA0
  8
SAPA_FOGBAND
 10
192.97558505897541
 20
-29.287048558099741
 30
0.0
  0
VERTEX
  5
2BA1
  8
SAPA_FOGBAND
 10
193.1382801813952
 20
-29.287048558099741
 30
0.0
 42
-0.1989123673796526
  0
VERTEX
  5
2BA2
  8
SAPA_FOGBAND
 10
193.70396560634461
 20
-29.521363133150551
 30
0.0
  0
VERTEX
  5
2BA3
  8
SAPA_FOGBAND
 10
194.55751899693769
 20
-30.374916523743881
 30
0.0
 42
-0.6681786379193474
  0
VERTEX
  5
2BA4
  8
SAPA_FOGBAND
 10
194.3453869625819
 20
-30.887048558099881
 30
0.0
  0
VERTEX
  5
2BA5
  8
SAPA_FOGBAND
 10
193.9953869625817
 20
-30.887048558099881
 30
0.0
  0
VERTEX
  5
2BA6
  8
SAPA_FOGBAND
 10
193.9953869625817
 20
-31.787048558099741
 30
0.0
 42
0.4142135623730951
  0
VERTEX
  5
2BA7
  8
SAPA_FOGBAND
 10
194.29538696258169
 20
-32.08704855809993
 30
0.0
  0
VERTEX
  5
2BA8
  8
SAPA_FOGBAND
 10
196.3953869625818
 20
-32.08704855809993
 30
0.0
 42
0.4142135623730951
  0
VERTEX
  5
2BA9
  8
SAPA_FOGBAND
 10
196.69538696258169
 20
-31.787048558099741
 30
0.0
  0
VERTEX
  5
2BAA
  8
SAPA_FOGBAND
 10
196.69538696258169
 20
-30.387048558099881
 30
0.0
 42
-0.7754026414785753
  0
VERTEX
  5
2BAB
  8
SAPA_FOGBAND
 10
197.2581789579894
 20
-30.242340689793991
 30
0.0
  0
VERTEX
  5
2BAC
  8
SAPA_FOGBAND
 10
200.77788146853479
 20
-36.069939701032133
 30
0.0
 42
-0.8680589103334742
  0
VERTEX
  5
2BAD
  8
SAPA_FOGBAND
 10
200.3029574387713
 20
-36.426779603693831
 30
0.0
  0
VERTEX
  5
2BAE
  8
SAPA_FOGBAND
 10
196.96326768966489
 20
-33.879941776913263
 30
0.0
 42
0.198912367379658
  0
VERTEX
  5
2BAF
  8
SAPA_FOGBAND
 10
196.25616090847819
 20
-33.58704855809993
 30
0.0
  0
VERTEX
  5
2BB0
  8
SAPA_FOGBAND
 10
193.42284194405849
 20
-33.58704855809993
 30
0.0
 42
0.5773502691896282
  0
VERTEX
  5
2BB1
  8
SAPA_FOGBAND
 10
193.16303432292329
 20
-34.037048558099741
 30
0.0
  0
VERTEX
  5
2BB2
  8
SAPA_FOGBAND
 10
194.6708173712895
 20
-36.060840167090873
 30
0.0
 42
-0.8769764629927299
  0
VERTEX
  5
2BB3
  8
SAPA_FOGBAND
 10
194.19887771579829
 20
-36.42297220144701
 30
0.0
  0
VERTEX
  5
2BB4
  8
SAPA_FOGBAND
 10
190.86299536893901
 20
-33.879941776913263
 30
0.0
 42
0.198912367379658
  0
VERTEX
  5
2BB5
  8
SAPA_FOGBAND
 10
190.15588858775229
 20
-33.58704855809993
 30
0.0
  0
VERTEX
  5
2BB6
  8
SAPA_FOGBAND
 10
187.92361422553071
 20
-33.58704855809993
 30
0.0
 42
0.5773502691896282
  0
VERTEX
  5
2BB7
  8
SAPA_FOGBAND
 10
187.6638066043954
 20
-34.037048558099741
 30
0.0
  0
VERTEX
  5
2BB8
  8
SAPA_FOGBAND
 10
189.1710880778792
 20
-36.059971413910489
 30
0.0
 42
-0.8769764629927299
  0
VERTEX
  5
2BB9
  8
SAPA_FOGBAND
 10
188.69914842238791
 20
-36.422103448266633
 30
0.0
  0
VERTEX
  5
2BBA
  8
SAPA_FOGBAND
 10
185.28828018139529
 20
-33.804087129599573
 30
0.0
 42
-0.198912367379658
  0
VERTEX
  5
2BBB
  8
SAPA_FOGBAND
 10
184.9953869625817
 20
-33.096980348413133
 30
0.0
  0
SEQEND
  5
2BBC
  8
SAPA_FOGBAND
  0
POLYLINE
  5
1AE3
  8
SAPA_FOGBAND
 66
     1
 10
0.0
 20
0.0
 30
0.0
 70
     1
  0
VERTEX
  5
2BBD
  8
SAPA_FOGBAND
 10
184.9371725089178
 20
-61.577387469557152
 30
0.0
 42
0.4142135623730951
  0
VERTEX
  5
2BBE
  8
SAPA_FOGBAND
 10
185.9371725089178
 20
-62.577387469557152
 30
0.0
  0
VERTEX
  5
2BBF
  8
SAPA_FOGBAND
 10
187.1371725089179
 20
-62.577387469557152
 30
0.0
 42
-0.4142135623730951
  0
VERTEX
  5
2BC0
  8
SAPA_FOGBAND
 10
187.4371725089178
 20
-62.877387469557327
 30
0.0
  0
VERTEX
  5
2BC1
  8
SAPA_FOGBAND
 10
187.4371725089178
 20
-63.777387469557198
 30
0.0
  0
VERTEX
  5
2BC2
  8
SAPA_FOGBAND
 10
187.08717250891769
 20
-63.777387469557198
 30
0.0
 42
0.6681786379193472
  0
VERTEX
  5
2BC3
  8
SAPA_FOGBAND
 10
186.8750404745619
 20
-64.289519503913183
 30
0.0
  0
VERTEX
  5
2BC4
  8
SAPA_FOGBAND
 10
187.72859386515509
 20
-65.143072894506531
 30
0.0
 42
0.1989123673796526
  0
VERTEX
  5
2BC5
  8
SAPA_FOGBAND
 10
188.29427929010441
 20
-65.377387469557334
 30
0.0
  0
VERTEX
  5
2BC6
  8
SAPA_FOGBAND
 10
188.4569744125242
 20
-65.377387469557334
 30
0.0
 42
0.3394542588633746
  0
VERTEX
  5
2BC7
  8
SAPA_FOGBAND
 10
188.74675216041089
 20
-65.15503318308788
 30
0.0
  0
VERTEX
  5
2BC8
  8
SAPA_FOGBAND
 10
189.10990140380079
 20
-63.799741756026613
 30
0.0
 42
-0.3394542588633744
  0
VERTEX
  5
2BC9
  8
SAPA_FOGBAND
 10
189.39967915168759
 20
-63.577387469557152
 30
0.0
  0
VERTEX
  5
2BCA
  8
SAPA_FOGBAND
 10
191.97466586614809
 20
-63.577387469557152
 30
0.0
 42
-0.3394542588633746
  0
VERTEX
  5
2BCB
  8
SAPA_FOGBAND
 10
192.2644436140348
 20
-63.799741756026613
 30
0.0
  0
VERTEX
  5
2BCC
  8
SAPA_FOGBAND
 10
192.6275928574247
 20
-65.15503318308788
 30
0.0
 42
0.3394542588633747
  0
VERTEX
  5
2BCD
  8
SAPA_FOGBAND
 10
192.9173706053115
 20
-65.377387469557334
 30
0.0
  0
VERTEX
  5
2BCE
  8
SAPA_FOGBAND
 10
193.0800657277313
 20
-65.377387469557334
 30
0.0
 42
0.1989123673796526
  0
VERTEX
  5
2BCF
  8
SAPA_FOGBAND
 10
193.6457511526807
 20
-65.143072894506531
 30
0.0
  0
VERTEX
  5
2BD0
  8
SAPA_FOGBAND
 10
194.49930454327381
 20
-64.289519503913183
 30
0.0
 42
0.6681786379193474
  0
VERTEX
  5
2BD1
  8
SAPA_FOGBAND
 10
194.28717250891799
 20
-63.777387469557198
 30
0.0
  0
VERTEX
  5
2BD2
  8
SAPA_FOGBAND
 10
193.9371725089178
 20
-63.777387469557198
 30
0.0
  0
VERTEX
  5
2BD3
  8
SAPA_FOGBAND
 10
193.9371725089178
 20
-62.877387469557327
 30
0.0
 42
-0.4142135623730951
  0
VERTEX
  5
2BD4
  8
SAPA_FOGBAND
 10
194.23717250891781
 20
-62.577387469557152
 30
0.0
  0
VERTEX
  5
2BD5
  8
SAPA_FOGBAND
 10
196.33717250891789
 20
-62.577387469557152
 30
0.0
 42
-0.4142135623730951
  0
VERTEX
  5
2BD6
  8
SAPA_FOGBAND
 10
196.6371725089179
 20
-62.877387469557327
 30
0.0
  0
VERTEX
  5
2BD7
  8
SAPA_FOGBAND
 10
196.6371725089179
 20
-64.277387469557425
 30
0.0
 42
0.7754026414785753
  0
VERTEX
  5
2BD8
  8
SAPA_FOGBAND
 10
197.19996450432561
 20
-64.422095337863311
 30
0.0
  0
VERTEX
  5
2BD9
  8
SAPA_FOGBAND
 10
200.71966701487091
 20
-59.038989565277227
 30
0.0
 42
0.8680589103334742
  0
VERTEX
  5
2BDA
  8
SAPA_FOGBAND
 10
200.24474298510739
 20
-58.682149662615529
 30
0.0
  0
VERTEX
  5
2BDB
  8
SAPA_FOGBAND
 10
196.90505323600101
 20
-60.784494250743812
 30
0.0
 42
-0.198912367379658
  0
VERTEX
  5
2BDC
  8
SAPA_FOGBAND
 10
196.19794645481431
 20
-61.077387469557152
 30
0.0
  0
VERTEX
  5
2BDD
  8
SAPA_FOGBAND
 10
193.36462749039461
 20
-61.077387469557152
 30
0.0
 42
-0.5773502691896282
  0
VERTEX
  5
2BDE
  8
SAPA_FOGBAND
 10
193.10481986925939
 20
-60.627387469557341
 30
0.0
  0
VERTEX
  5
2BDF
  8
SAPA_FOGBAND
 10
194.61260291762571
 20
-59.048089099218487
 30
0.0
 42
0.8769764629927299
  0
VERTEX
  5
2BE0
  8
SAPA_FOGBAND
 10
194.14066326213441
 20
-58.68595706486235
 30
0.0
  0
VERTEX
  5
2BE1
  8
SAPA_FOGBAND
 10
190.8047809152751
 20
-60.784494250743812
 30
0.0
 42
-0.198912367379658
  0
VERTEX
  5
2BE2
  8
SAPA_FOGBAND
 10
190.09767413408841
 20
-61.077387469557152
 30
0.0
  0
VERTEX
  5
2BE3
  8
SAPA_FOGBAND
 10
187.86539977186681
 20
-61.077387469557152
 30
0.0
 42
-0.5773502691896282
  0
VERTEX
  5
2BE4
  8
SAPA_FOGBAND
 10
187.6055921507315
 20
-60.627387469557341
 30
0.0
  0
VERTEX
  5
2BE5
  8
SAPA_FOGBAND
 10
189.1128736242153
 20
-59.048957852398871
 30
0.0
 42
0.8769764629927299
  0
VERTEX
  5
2BE6
  8
SAPA_FOGBAND
 10
188.640933968724
 20
-58.686825818042728
 30
0.0
  0
VERTEX
  5
2BE7
  8
SAPA_FOGBAND
 10
185.23006572773139
 20
-60.860348898057509
 30
0.0
 42
0.198912367379658
  0
VERTEX
  5
2BE8
  8
SAPA_FOGBAND
 10
184.9371725089178
 20
-61.567455679243949
 30
0.0
  0
SEQEND
  5
2BE9
  8
SAPA_FOGBAND
  0
POLYLINE
  5
1AE4
  8
SAPA_FOGBAND
 66
     1
 10
0.0
 20
0.0
 30
0.0
 70
     1
  0
VERTEX
  5
2BEA
  8
SAPA_FOGBAND
 10
28.49999999999989
 20
13.0607739468864
 30
0.0
  0
VERTEX
  5
2BEB
  8
SAPA_FOGBAND
 10
28.49999999999989
 20
10.22745498246667
 30
0.0
 42
-0.577350269189628
  0
VERTEX
  5
2BEC
  8
SAPA_FOGBAND
 10
28.049999999999841
 20
9.9676473613312169
 30
0.0
  0
VERTEX
  5
2BED
  8
SAPA_FOGBAND
 10
25.393650503155978
 20
12.10936157181618
 30
0.0
 42
0.8769764629927237
  0
VERTEX
  5
2BEE
  8
SAPA_FOGBAND
 10
25.031518468800069
 20
11.637421916324911
 30
0.0
  0
VERTEX
  5
2BEF
  8
SAPA_FOGBAND
 10
28.207106781186329
 20
7.6676084073469042
 30
0.0
 42
-0.1989123673796493
  0
VERTEX
  5
2BF0
  8
SAPA_FOGBAND
 10
28.49999999999989
 20
6.9605016261604638
 30
0.0
  0
VERTEX
  5
2BF1
  8
SAPA_FOGBAND
 10
28.49999999999989
 20
5.209545496725922
 30
0.0
 42
-0.577350269189628
  0
VERTEX
  5
2BF2
  8
SAPA_FOGBAND
 10
28.049999999999841
 20
4.9497378755906993
 30
0.0
  0
VERTEX
  5
2BF3
  8
SAPA_FOGBAND
 10
25.39451925633637
 20
7.030785927070724
 30
0.0
 42
0.8769764629928424
  0
VERTEX
  5
2BF4
  8
SAPA_FOGBAND
 10
25.032387221980461
 20
6.558846271579454
 30
0.0
  0
VERTEX
  5
2BF5
  8
SAPA_FOGBAND
 10
29.282961428500251
 20
2.0928932198032149
 30
0.0
 42
0.1989123673796579
  0
VERTEX
  5
2BF6
  8
SAPA_FOGBAND
 10
29.99006820968669
 20
1.800000000989882
 30
0.0
  0
VERTEX
  5
2BF7
  8
SAPA_FOGBAND
 10
29.99999999999989
 20
1.800000000989882
 30
0.0
 42
0.4142135623730951
  0
VERTEX
  5
2BF8
  8
SAPA_FOGBAND
 10
30.99999999999989
 20
2.8000000009898822
 30
0.0
  0
VERTEX
  5
2BF9
  8
SAPA_FOGBAND
 10
32.164084599123392
 20
10.034992501757131
 30
0.0
 42
0.6261632875160376
  0
VERTEX
  5
2BFA
  8
SAPA_FOGBAND
 10
31.722117795697049
 20
10.34484943027581
 30
0.0
  0
VERTEX
  5
2BFB
  8
SAPA_FOGBAND
 10
31.44577614971093
 20
10.19121143548699
 30
0.0
 42
-0.5719685712689121
  0
VERTEX
  5
2BFC
  8
SAPA_FOGBAND
 10
31.000000000000121
 20
10.453412339710381
 30
0.0
  0
VERTEX
  5
2BFD
  8
SAPA_FOGBAND
 10
30.99999999999989
 20
13.200000000989739
 30
0.0
 42
-0.4142135623730118
  0
VERTEX
  5
2BFE
  8
SAPA_FOGBAND
 10
31.299999999999841
 20
13.50000000098993
 30
0.0
  0
VERTEX
  5
2BFF
  8
SAPA_FOGBAND
 10
32.699999999999932
 20
13.500000000989701
 30
0.0
 42
0.7754026414785753
  0
VERTEX
  5
2C00
  8
SAPA_FOGBAND
 10
32.844707868305818
 20
14.06279199639761
 30
0.0
  0
VERTEX
  5
2C01
  8
SAPA_FOGBAND
 10
25.38455096921496
 20
18.21642566906144
 30
0.0
 42
0.8680589103333867
  0
VERTEX
  5
2C02
  8
SAPA_FOGBAND
 10
25.027711066553021
 20
17.74150163929767
 30
0.0
  0
VERTEX
  5
2C03
  8
SAPA_FOGBAND
 10
28.207106781186329
 20
13.767880728072839
 30
0.0
 42
-0.1989123673796493
  0
SEQEND
  5
2C04
  8
SAPA_FOGBAND
  0
DIMENSION
  5
1AED
  8
SAPA_MATT
  2
*D154
 10
25.000000000000341
 20
-115.3256531728245
 30
0.0
 11
56.749999999720551
 21
-112.8256531728245
 31
0.0
 70
     0
 13
88.499999999440746
 23
-67.19999999901006
 33
0.0
 14
25.000000000000341
 24
-81.800001396983689
 34
0.0
1001
ACAD
1000
DSTYLE
1002
{
1070
    40
1040
1.0
1002
}
  0
DIMENSION
  5
1AEE
  8
SAPA_MATT
  2
*D153
 10
196.4999999994406
 20
-115.3256531728245
 30
0.0
 11
157.4999999994406
 21
-112.8256531728245
 31
0.0
 70
     0
 13
118.4999999994406
 23
-68.085786919949328
 33
0.0
 14
196.4999999994406
 24
-67.000000482322207
 34
0.0
1001
ACAD
1000
DSTYLE
1002
{
1070
   287
1070
     4
1070
    40
1040
1.0
1070
   279
1070
     1
1002
}
  0
DIMENSION
  5
1AEF
  8
SAPA_MATT
  2
*D152
 10
118.4999999994406
 20
-115.3256531728245
 30
0.0
 11
103.4999999994406
 21
-112.8256531728245
 31
0.0
 70
     0
 13
88.499999999440746
 23
-67.19999999901006
 33
0.0
 14
118.4999999994406
 24
-68.0857869199493
 34
0.0
1001
ACAD
1000
DSTYLE
1002
{
1070
   287
1070
     4
1070
    40
1040
1.0
1070
   279
1070
     1
1002
}
  0
DIMENSION
  5
1AF0
  8
SAPA_MATT
  2
*D151
 10
25.000000000000341
 20
-115.3256531728245
 30
0.0
 11
0.0000000000003412
 21
-112.8256531728245
 31
0.0
 70
     0
 13
-24.999999999999659
 23
-95.999999999010583
 33
0.0
 14
25.000000000000341
 24
-95.999999999010583
 34
0.0
1001
ACAD
1000
DSTYLE
1002
{
1070
    40
1040
1.0
1002
}
  0
VIEWPORT
  5
C4
 67
     1
  8
0
 10
143.41473388671869
 20
99.112914085388198
 30
0.0
 40
335.33571431011728
 41
211.5905804811608
 68
     1
 69
     1
1001
ACAD
1000
MVIEW
1002
{
1070
    16
1010
0.0
1020
0.0
1030
0.0
1010
0.0
1020
0.0
1030
1.0
1040
0.0
1040
211.5905804811608
1040
143.41473388671869
1040
99.112914085388198
1040
50.0
1040
0.0
1040
0.0
1070
     0
1070
     0
1070
     1
1070
     1
1070
     0
1070
     0
1070
     0
1070
     0
1040
0.0
1040
0.0
1040
0.0
1040
10.0
1040
10.0
1040
10.0
1040
10.0
1070
     0
1002
{
1002
}
1002
}
  0
ENDSEC
  0
EOF
