  0
SECTION
  2
HEADER
  9
$ACADVER
  1
AC1009
  9
$INSBASE
 10
0.0
 20
0.0
 30
0.0
  9
$EXTMIN
 10
-134.6169489724434
 20
-127.15375231270581
 30
0.0
  9
$EXTMAX
 10
124.9999999999998
 20
82.009403434165677
 30
0.0000000195376815
  9
$LIMMIN
 10
0.0
 20
0.0
  9
$LIMMAX
 10
790.0
 20
790.0
  9
$ORTHOMODE
 70
     0
  9
$REGENMODE
 70
     1
  9
$FILLMODE
 70
     1
  9
$QTEXTMODE
 70
     0
  9
$MIRRTEXT
 70
     1
  9
$DRAGMODE
 70
     2
  9
$LTSCALE
 40
4.0
  9
$OSMODE
 70
   167
  9
$ATTMODE
 70
     1
  9
$TEXTSIZE
 40
3.5
  9
$TRACEWID
 40
0.05
  9
$TEXTSTYLE
  7
ISO
  9
$CLAYER
  8
0
  9
$CELTYPE
  6
BYLAYER
  9
$CECOLOR
 62
   256
  9
$DIMSCALE
 40
0.0
  9
$DIMASZ
 40
3.0
  9
$DIMEXO
 40
1.5
  9
$DIMDLI
 40
10.0
  9
$DIMRND
 40
0.0
  9
$DIMDLE
 40
0.0
  9
$DIMEXE
 40
1.5
  9
$DIMTP
 40
0.0
  9
$DIMTM
 40
0.0
  9
$DIMTXT
 40
3.0
  9
$DIMCEN
 40
-5.0
  9
$DIMTSZ
 40
0.0
  9
$DIMTOL
 70
     0
  9
$DIMLIM
 70
     0
  9
$DIMTIH
 70
     0
  9
$DIMTOH
 70
     0
  9
$DIMSE1
 70
     0
  9
$DIMSE2
 70
     0
  9
$DIMTAD
 70
     1
  9
$DIMZIN
 70
     8
  9
$DIMBLK
  1

  9
$DIMASO
 70
     1
  9
$DIMSHO
 70
     1
  9
$DIMPOST
  1

  9
$DIMAPOST
  1

  9
$DIMALT
 70
     0
  9
$DIMALTD
 70
     0
  9
$DIMALTF
 40
25.399999999999999
  9
$DIMLFAC
 40
-1.0
  9
$DIMTOFL
 70
     1
  9
$DIMTVP
 40
0.0
  9
$DIMTIX
 70
     0
  9
$DIMSOXD
 70
     0
  9
$DIMSAH
 70
     0
  9
$DIMBLK1
  1

  9
$DIMBLK2
  1

  9
$DIMSTYLE
  2
MASKIN
  9
$DIMCLRD
 70
   256
  9
$DIMCLRE
 70
   256
  9
$DIMCLRT
 70
     2
  9
$DIMTFAC
 40
1.0
  9
$DIMGAP
 40
1.0
  9
$LUNITS
 70
     2
  9
$LUPREC
 70
     8
  9
$SKETCHINC
 40
0.1
  9
$FILLETRAD
 40
0.0
  9
$AUNITS
 70
     0
  9
$AUPREC
 70
     8
  9
$MENU
  1
ACAD
  9
$ELEVATION
 40
0.0
  9
$PELEVATION
 40
0.0
  9
$THICKNESS
 40
0.0
  9
$LIMCHECK
 70
     0
  9
$BLIPMODE
 70
     0
  9
$CHAMFERA
 40
0.0
  9
$CHAMFERB
 40
0.0
  9
$SKPOLY
 70
     0
  9
$TDCREATE
 40
2454859.5577701968
  9
$TDUPDATE
 40
2458453.4775657058
  9
$TDINDWG
 40
0.0284529167
  9
$TDUSRTIMER
 40
0.0284527315
  9
$USRTIMER
 70
     1
  9
$ANGBASE
 50
0.0
  9
$ANGDIR
 70
     0
  9
$PDMODE
 70
     0
  9
$PDSIZE
 40
0.0
  9
$PLINEWID
 40
0.0
  9
$COORDS
 70
     1
  9
$SPLFRAME
 70
     0
  9
$SPLINETYPE
 70
     6
  9
$SPLINESEGS
 70
     8
  9
$ATTDIA
 70
     1
  9
$ATTREQ
 70
     1
  9
$HANDLING
 70
     1
  9
$HANDSEED
  5
2B6D
  9
$SURFTAB1
 70
     6
  9
$SURFTAB2
 70
     6
  9
$SURFTYPE
 70
     6
  9
$SURFU
 70
     6
  9
$SURFV
 70
     6
  9
$UCSNAME
  2

  9
$UCSORG
 10
0.0
 20
0.0
 30
0.0
  9
$UCSXDIR
 10
1.0
 20
0.0
 30
0.0
  9
$UCSYDIR
 10
0.0
 20
1.0
 30
0.0
  9
$PUCSNAME
  2

  9
$PUCSORG
 10
0.0
 20
0.0
 30
0.0
  9
$PUCSXDIR
 10
1.0
 20
0.0
 30
0.0
  9
$PUCSYDIR
 10
0.0
 20
1.0
 30
0.0
  9
$USERI1
 70
     0
  9
$USERI2
 70
     0
  9
$USERI3
 70
     0
  9
$USERI4
 70
     0
  9
$USERI5
 70
     0
  9
$USERR1
 40
0.0
  9
$USERR2
 40
0.0
  9
$USERR3
 40
0.0
  9
$USERR4
 40
0.0
  9
$USERR5
 40
0.0
  9
$WORLDVIEW
 70
     1
  9
$SHADEDGE
 70
     3
  9
$SHADEDIF
 70
    70
  9
$TILEMODE
 70
     1
  9
$MAXACTVP
 70
    16
  9
$PLIMCHECK
 70
     0
  9
$PEXTMIN
 10
1.0000000000000000E+020
 20
1.0000000000000000E+020
 30
1.0000000000000000E+020
  9
$PEXTMAX
 10
-1.0000000000000000E+020
 20
-1.0000000000000000E+020
 30
-1.0000000000000000E+020
  9
$PLIMMIN
 10
-5.069427490234375
 20
-5.8737497329711914
  9
$PLIMMAX
 10
291.89889526367187
 20
204.0995779037475
  9
$UNITMODE
 70
     0
  9
$VISRETAIN
 70
     1
  9
$PLINEGEN
 70
     0
  9
$PSLTSCALE
 70
     1
  0
ENDSEC
  0
SECTION
  2
TABLES
  0
TABLE
  2
VPORT
 70
     1
  0
VPORT
  2
*ACTIVE
 70
     0
 10
0.0
 20
0.0
 11
1.0
 21
1.0
 12
66.111324109266704
 22
115.4553052567088
 13
0.0
 23
0.0
 14
1.0
 24
1.0
 15
0.0
 25
0.0
 16
0.0
 26
0.0
 36
1.0
 17
0.0
 27
0.0
 37
0.0
 40
415.1960016839671
 41
1.7265193370165739
 42
50.0
 43
0.0
 44
0.0
 50
0.0
 51
0.0
 71
     0
 72
   100
 73
     1
 74
     1
 75
     0
 76
     0
 77
     0
 78
     0
  0
ENDTAB
  0
TABLE
  2
LTYPE
 70
    60
  0
LTYPE
  2
CONTINUOUS
 70
     0
  3
Solid line
 72
    65
 73
     0
 40
0.0
  0
LTYPE
  2
BYGG-01482201$0$NEWDOT
 70
     0
  3
____ . ____ . ____ . ____ . ____ . ____ . ____
 72
    65
 73
     4
 40
2.0
 49
1.0
 49
-0.5
 49
0.0
 49
-0.5
  0
LTYPE
  2
BYGG-014357$0$NEWDOT
 70
     0
  3
____ . ____ . ____ . ____ . ____ . ____ . ____
 72
    65
 73
     4
 40
2.0
 49
1.0
 49
-0.5
 49
0.0
 49
-0.5
  0
LTYPE
  2
BYGG-014357$0$DASHDOT
 70
     0
  3
__ . __ . __ . __ . __ . __ . __ . __ . __ . __
 72
    65
 73
     4
 40
1.0
 49
0.5
 49
-0.25
 49
0.0
 49
-0.25
  0
LTYPE
  2
BYGG-014357$0$DASHED
 70
     0
  3
__ __ __ __ __ __ __ __ __ __ __ __ __ __ __
 72
    65
 73
     2
 40
0.75
 49
0.5
 49
-0.25
  0
LTYPE
  2
BYGG-014279$0$NEWDOT
 70
     0
  3
____ . ____ . ____ . ____ . ____ . ____ . ____
 72
    65
 73
     4
 40
2.0
 49
1.0
 49
-0.5
 49
0.0
 49
-0.5
  0
LTYPE
  2
BYGG-01482201$0$ZIGZAG
 70
     0
  3
Zig zag /\/\/\/\/\/\/\/\/\/\/\/\/\/\/\/\/\/\/\/\/\/\/\/
 72
    65
 73
     4
 40
20.32254
 49
0.00254
 49
-5.0800000000000001
 49
-10.16
 49
-5.0800000000000001
  0
LTYPE
  2
BYGG-014279$0$ZIGZAG
 70
     0
  3
Zig zag /\/\/\/\/\/\/\/\/\/\/\/\/\/\/\/\/\/\/\/\/\/\/\/
 72
    65
 73
     4
 40
20.32254
 49
0.00254
 49
-5.0800000000000001
 49
-10.16
 49
-5.0800000000000001
  0
LTYPE
  2
BYGG-024756$0$NEWDOT
 70
     0
  3
____ . ____ . ____ . ____ . ____ . ____ . ____
 72
    65
 73
     4
 40
2.0
 49
1.0
 49
-0.5
 49
0.0
 49
-0.5
  0
LTYPE
  2
BYGG-024756$0$DASHDOT
 70
     0
  3
__ . __ . __ . __ . __ . __ . __ . __ . __ . __
 72
    65
 73
     4
 40
1.0
 49
0.5
 49
-0.25
 49
0.0
 49
-0.25
  0
LTYPE
  2
BYGG-020805$0$NEWDOT
 70
     0
  3
____ . ____ . ____ . ____ . ____ . ____ . ____
 72
    65
 73
     4
 40
2.0
 49
1.0
 49
-0.5
 49
0.0
 49
-0.5
  0
LTYPE
  2
BYGG-020805$0$DASHDOT
 70
     0
  3
__ . __ . __ . __ . __ . __ . __ . __ . __ . __
 72
    65
 73
     4
 40
1.0
 49
0.5
 49
-0.25
 49
0.0
 49
-0.25
  0
LTYPE
  2
BYGG-020805$0$DASHED
 70
     0
  3
__ __ __ __ __ __ __ __ __ __ __ __ __ __ __
 72
    65
 73
     2
 40
0.75
 49
0.5
 49
-0.25
  0
LTYPE
  2
BYGG-020805$0$PHANTOM
 70
     0
  3
Phantom ______  __  __  ______  __  __  ______
 72
    65
 73
     6
 40
63.5
 49
31.75
 49
-6.3499999999999988
 49
6.3499999999999988
 49
-6.3499999999999988
 49
6.3499999999999988
 49
-6.3499999999999988
  0
LTYPE
  2
BYGG-024798$0$NEWDOT
 70
     0
  3
____ . ____ . ____ . ____ . ____ . ____ . ____
 72
    65
 73
     4
 40
2.0
 49
1.0
 49
-0.5
 49
0.0
 49
-0.5
  0
LTYPE
  2
BYGG-024799$0$NEWDOT
 70
     0
  3
____ . ____ . ____ . ____ . ____ . ____ . ____
 72
    65
 73
     4
 40
2.0
 49
1.0
 49
-0.5
 49
0.0
 49
-0.5
  0
LTYPE
  2
BYGG-024799$0$DASHDOT
 70
     0
  3
__ . __ . __ . __ . __ . __ . __ . __ . __ . __
 72
    65
 73
     4
 40
1.0
 49
0.5
 49
-0.25
 49
0.0
 49
-0.25
  0
LTYPE
  2
BYGG-025652$0$NEWDOT
 70
     0
  3
____ . ____ . ____ . ____ . ____ . ____ . ____
 72
    65
 73
     4
 40
2.0
 49
1.0
 49
-0.5
 49
0.0
 49
-0.5
  0
LTYPE
  2
BYGG-025652$0$DASHDOT
 70
     0
  3
__ . __ . __ . __ . __ . __ . __ . __ . __ . __
 72
    65
 73
     4
 40
1.0
 49
0.5
 49
-0.25
 49
0.0
 49
-0.25
  0
LTYPE
  2
BYGG-025652$0$DASHED
 70
     0
  3
__ __ __ __ __ __ __ __ __ __ __ __ __ __ __
 72
    65
 73
     2
 40
0.75
 49
0.5
 49
-0.25
  0
LTYPE
  2
BYGG-025652$0$PHANTOM
 70
     0
  3
Phantom ______  __  __  ______  __  __  ______
 72
    65
 73
     6
 40
63.5
 49
31.75
 49
-6.3499999999999988
 49
6.3499999999999988
 49
-6.3499999999999988
 49
6.3499999999999988
 49
-6.3499999999999988
  0
LTYPE
  2
BYGG-014411$0$NEWDOT
 70
     0
  3
____ . ____ . ____ . ____ . ____ . ____ . ____
 72
    65
 73
     4
 40
2.0
 49
1.0
 49
-0.5
 49
0.0
 49
-0.5
  0
LTYPE
  2
BYGG-014411$0$ZIGZAG
 70
     0
  3
Zig zag /\/\/\/\/\/\/\/\/\/\/\/\/\/\/\/\/\/\/\/\/\/\/\/
 72
    65
 73
     4
 40
20.32254
 49
0.00254
 49
-5.0800000000000001
 49
-10.16
 49
-5.0800000000000001
  0
LTYPE
  2
BYGG-036624$0$NEWDOT
 70
     0
  3
____ . ____ . ____ . ____ . ____ . ____ . ____
 72
    65
 73
     4
 40
2.0
 49
1.0
 49
-0.5
 49
0.0
 49
-0.5
  0
LTYPE
  2
BYGG-036624$0$DASHDOT
 70
     0
  3
__ . __ . __ . __ . __ . __ . __ . __ . __ . __
 72
    65
 73
     4
 40
1.0
 49
0.5
 49
-0.25
 49
0.0
 49
-0.25
  0
LTYPE
  2
BYGG-036624$0$DASHED
 70
     0
  3
__ __ __ __ __ __ __ __ __ __ __ __ __ __ __
 72
    65
 73
     2
 40
0.75
 49
0.5
 49
-0.25
  0
LTYPE
  2
BYGG-036624$0$PHANTOM
 70
     0
  3
Phantom ______  __  __  ______  __  __  ______
 72
    65
 73
     6
 40
63.5
 49
31.75
 49
-6.3499999999999988
 49
6.3499999999999988
 49
-6.3499999999999988
 49
6.3499999999999988
 49
-6.3499999999999988
  0
LTYPE
  2
BYGG-036419$0$NEWDOT
 70
     0
  3
____ . ____ . ____ . ____ . ____ . ____ . ____
 72
    65
 73
     4
 40
2.0
 49
1.0
 49
-0.5
 49
0.0
 49
-0.5
  0
LTYPE
  2
BYGG-036419$0$BYGG-024778|NEWDOT
 70
     0
  3
____ . ____ . ____ . ____ . ____ . ____ . ____
 72
    65
 73
     4
 40
2.0
 49
1.0
 49
-0.5
 49
0.0
 49
-0.5
  0
LTYPE
  2
BYGG-036419$0$BYGG-035431|NEWDOT
 70
     0
  3
____ . ____ . ____ . ____ . ____ . ____ . ____
 72
    65
 73
     4
 40
2.0
 49
1.0
 49
-0.5
 49
0.0
 49
-0.5
  0
LTYPE
  2
BYGG-036419$0$BYGG-0354310
 70
     0
  3
__ __ __ __ __ __ __ __ __ __ __ __ __ __ __
 72
    65
 73
     2
 40
0.75
 49
0.5
 49
-0.25
  0
LTYPE
  2
BYGG-036419$0$BYGG-0354311
 70
     0
  3
Zig zag /\/\/\/\/\/\/\/\/\/\/\/\/\/\/\/\/\/\/\/\/\/\/\/
 72
    65
 73
     4
 40
20.32254
 49
0.00254
 49
-5.0800000000000001
 49
-10.16
 49
-5.0800000000000001
  0
LTYPE
  2
BYGG-036419$0$BYGG-035435|NEWDOT
 70
     0
  3
____ . ____ . ____ . ____ . ____ . ____ . ____
 72
    65
 73
     4
 40
2.0
 49
1.0
 49
-0.5
 49
0.0
 49
-0.5
  0
LTYPE
  2
BYGG-036419$0$BYGG-014411|NEWDOT
 70
     0
  3
____ . ____ . ____ . ____ . ____ . ____ . ____
 72
    65
 73
     4
 40
2.0
 49
1.0
 49
-0.5
 49
0.0
 49
-0.5
  0
LTYPE
  2
BYGG-036419$0$BYGG-0144110
 70
     0
  3
Zig zag /\/\/\/\/\/\/\/\/\/\/\/\/\/\/\/\/\/\/\/\/\/\/\/
 72
    65
 73
     4
 40
20.32254
 49
0.00254
 49
-5.0800000000000001
 49
-10.16
 49
-5.0800000000000001
  0
LTYPE
  2
BYGG-036419$0$BYGG-024787|NEWDOT
 70
     0
  3
____ . ____ . ____ . ____ . ____ . ____ . ____
 72
    65
 73
     4
 40
2.0
 49
1.0
 49
-0.5
 49
0.0
 49
-0.5
  0
LTYPE
  2
BYGG-036419$0$BYGG-024788|NEWDOT
 70
     0
  3
____ . ____ . ____ . ____ . ____ . ____ . ____
 72
    65
 73
     4
 40
2.0
 49
1.0
 49
-0.5
 49
0.0
 49
-0.5
  0
LTYPE
  2
BYGG-036419$0$BYGG-024789|NEWDOT
 70
     0
  3
____ . ____ . ____ . ____ . ____ . ____ . ____
 72
    65
 73
     4
 40
2.0
 49
1.0
 49
-0.5
 49
0.0
 49
-0.5
  0
LTYPE
  2
BYGG-036419$0$BYGG-024817|NEWDOT
 70
     0
  3
____ . ____ . ____ . ____ . ____ . ____ . ____
 72
    65
 73
     4
 40
2.0
 49
1.0
 49
-0.5
 49
0.0
 49
-0.5
  0
LTYPE
  2
BYGG-036419$0$BYGG-024794|NEWDOT
 70
     0
  3
____ . ____ . ____ . ____ . ____ . ____ . ____
 72
    65
 73
     4
 40
2.0
 49
1.0
 49
-0.5
 49
0.0
 49
-0.5
  0
LTYPE
  2
BYGG-033167$0$NEWDOT
 70
     0
  3
____ . ____ . ____ . ____ . ____ . ____ . ____
 72
    65
 73
     4
 40
2.0
 49
1.0
 49
-0.5
 49
0.0
 49
-0.5
  0
LTYPE
  2
BYGG-033167$0$DASHDOT
 70
     0
  3
__ . __ . __ . __ . __ . __ . __ . __ . __ . __
 72
    65
 73
     4
 40
1.0
 49
0.5
 49
-0.25
 49
0.0
 49
-0.25
  0
LTYPE
  2
BYGG-033167$0$DASHED
 70
     0
  3
__ __ __ __ __ __ __ __ __ __ __ __ __ __ __
 72
    65
 73
     2
 40
0.75
 49
0.5
 49
-0.25
  0
LTYPE
  2
BYGG-033167$0$PHANTOM
 70
     0
  3
Phantom ______  __  __  ______  __  __  ______
 72
    65
 73
     6
 40
63.5
 49
31.75
 49
-6.3499999999999988
 49
6.3499999999999988
 49
-6.3499999999999988
 49
6.3499999999999988
 49
-6.3499999999999988
  0
LTYPE
  2
BYGG-033167$0$BYGG-020132$
 70
     0
  3
____ . ____ . ____ . ____ . ____ . ____ . ____
 72
    65
 73
     4
 40
2.0
 49
1.0
 49
-0.5
 49
0.0
 49
-0.5
  0
LTYPE
  2
BYGG-033167$0$BYGG-024943$
 70
     0
  3
____ . ____ . ____ . ____ . ____ . ____ . ____
 72
    65
 73
     4
 40
2.0
 49
1.0
 49
-0.5
 49
0.0
 49
-0.5
  0
LTYPE
  2
BYGG-026410$0$NEWDOT
 70
     0
  3
____ . ____ . ____ . ____ . ____ . ____ . ____
 72
    65
 73
     4
 40
2.0
 49
1.0
 49
-0.5
 49
0.0
 49
-0.5
  0
LTYPE
  2
BYGG-026410$0$DASHDOT
 70
     0
  3
__ . __ . __ . __ . __ . __ . __ . __ . __ . __
 72
    65
 73
     4
 40
1.0
 49
0.5
 49
-0.25
 49
0.0
 49
-0.25
  0
LTYPE
  2
BYGG-026410$0$DASHED
 70
     0
  3
__ __ __ __ __ __ __ __ __ __ __ __ __ __ __
 72
    65
 73
     2
 40
0.75
 49
0.5
 49
-0.25
  0
LTYPE
  2
BYGG-026410$0$PHANTOM
 70
     0
  3
Phantom ______  __  __  ______  __  __  ______
 72
    65
 73
     6
 40
63.5
 49
31.75
 49
-6.3499999999999988
 49
6.3499999999999988
 49
-6.3499999999999988
 49
6.3499999999999988
 49
-6.3499999999999988
  0
LTYPE
  2
BYGG-030185$0$PHANTOM2
 70
     0
  3
Phantom (.5x) ___ _ _ ___ _ _ ___ _ _ ___ _ _
 72
    65
 73
     6
 40
1.25
 49
0.625
 49
-0.125
 49
0.125
 49
-0.125
 49
0.125
 49
-0.125
  0
LTYPE
  2
BYGG-024798$0$DASHDOT
 70
     0
  3
__ . __ . __ . __ . __ . __ . __ . __ . __ . __
 72
    65
 73
     4
 40
1.0
 49
0.5
 49
-0.25
 49
0.0
 49
-0.25
  0
LTYPE
  2
BYGG-014089$0$PHANTOM2
 70
     0
  3
Phantom (.5x) ___ _ _ ___ _ _ ___ _ _ ___ _ _
 72
    65
 73
     6
 40
1.25
 49
0.625
 49
-0.125
 49
0.125
 49
-0.125
 49
0.125
 49
-0.125
  0
LTYPE
  2
BYGG-014108$0$PHANTOM2
 70
     0
  3
Phantom (.5x) ___ _ _ ___ _ _ ___ _ _ ___ _ _
 72
    65
 73
     6
 40
1.25
 49
0.625
 49
-0.125
 49
0.125
 49
-0.125
 49
0.125
 49
-0.125
  0
LTYPE
  2
BYGG-025652$0$PHANTOM2
 70
     0
  3
Phantom (.5x) ___ _ _ ___ _ _ ___ _ _ ___ _ _
 72
    65
 73
     6
 40
1.25
 49
0.625
 49
-0.125
 49
0.125
 49
-0.125
 49
0.125
 49
-0.125
  0
LTYPE
  2
BYGG-014411$0$PHANTOM2
 70
     0
  3
Phantom (.5x) ___ _ _ ___ _ _ ___ _ _ ___ _ _
 72
    65
 73
     6
 40
1.25
 49
0.625
 49
-0.125
 49
0.125
 49
-0.125
 49
0.125
 49
-0.125
  0
LTYPE
  2
BYGG-014090$0$PHANTOM2
 70
     0
  3
Phantom (.5x) ___ _ _ ___ _ _ ___ _ _ ___ _ _
 72
    65
 73
     6
 40
1.25
 49
0.625
 49
-0.125
 49
0.125
 49
-0.125
 49
0.125
 49
-0.125
  0
LTYPE
  2
BYGG-014088$0$PHANTOM2
 70
     0
  3
Phantom (.5x) ___ _ _ ___ _ _ ___ _ _ ___ _ _
 72
    65
 73
     6
 40
1.25
 49
0.625
 49
-0.125
 49
0.125
 49
-0.125
 49
0.125
 49
-0.125
  0
LTYPE
  2
BYGG-036419$0$DASHDOT
 70
     0
  3
__ . __ . __ . __ . __ . __ . __ . __ . __ . __
 72
    65
 73
     4
 40
1.0
 49
0.5
 49
-0.25
 49
0.0
 49
-0.25
  0
LTYPE
  2
BYGG-036419$0$PHANTOM2
 70
     0
  3
Phantom (.5x) ___ _ _ ___ _ _ ___ _ _ ___ _ _
 72
    65
 73
     6
 40
1.25
 49
0.625
 49
-0.125
 49
0.125
 49
-0.125
 49
0.125
 49
-0.125
  0
ENDTAB
  0
TABLE
  2
LAYER
 70
   332
  0
LAYER
  2
0
 70
     0
 62
     7
  6
CONTINUOUS
  0
LAYER
  2
DEFPOINTS
 70
     0
 62
     7
  6
CONTINUOUS
  0
LAYER
  2
SAPA_ARTIKELNR
 70
     0
 62
     4
  6
CONTINUOUS
  0
LAYER
  2
SAPA_LIGHT
 70
     1
 62
     1
  6
CONTINUOUS
  0
LAYER
  2
SAPA_PROFIL
 70
     0
 62
     7
  6
CONTINUOUS
  0
LAYER
  2
SAPA_ISOLATOR
 70
     0
 62
     4
  6
CONTINUOUS
  0
LAYER
  2
SAPA_MATT
 70
     0
 62
     1
  6
CONTINUOUS
  0
LAYER
  2
SAPA_GLAS
 70
     0
 62
     4
  6
CONTINUOUS
  0
LAYER
  2
SAPA_FOGBAND
 70
     0
 62
     2
  6
CONTINUOUS
  0
ENDTAB
  0
TABLE
  2
STYLE
 70
    65
  0
STYLE
  2
STANDARD
 70
     0
 40
0.0
 41
1.0
 50
0.0
 71
     0
 42
0.2
  3
txt
  4

  0
STYLE
  2
ISO
 70
     0
 40
0.0
 41
1.0
 50
0.0
 71
     0
 42
3.5
  3
txt
  4

  0
STYLE
  2

 70
     1
 40
0.0
 41
1.0
 50
0.0
 71
     0
 42
0.2
  3
ltypeshp.shx
  4

  0
STYLE
  2
BYGG-021589$0$STANDARD
 70
     0
 40
0.0
 41
1.0
 50
0.0
 71
     0
 42
0.2
  3
txt
  4

  0
STYLE
  2
BYGG-021589$0$ISO
 70
     0
 40
0.0
 41
1.0
 50
0.0
 71
     0
 42
3.5
  3
isocp3.shx
  4

  0
STYLE
  2
BYGG-01482201$0$STANDARD
 70
     0
 40
0.0
 41
1.0
 50
0.0
 71
     0
 42
0.2
  3
txt
  4

  0
STYLE
  2
BYGG-01482201$0$ISO
 70
     0
 40
0.0
 41
1.0
 50
0.0
 71
     0
 42
3.5
  3
isocp3.shx
  4

  0
STYLE
  2
BYGG-021802$0$STANDARD
 70
     0
 40
0.0
 41
1.0
 50
0.0
 71
     0
 42
0.2
  3
txt
  4

  0
STYLE
  2
BYGG-021802$0$ISO
 70
     0
 40
0.0
 41
1.0
 50
0.0
 71
     0
 42
3.5
  3
isocp3.shx
  4

  0
STYLE
  2
BYGG-014357$0$STANDARD
 70
     0
 40
0.0
 41
1.0
 50
0.0
 71
     0
 42
0.2
  3
txt
  4

  0
STYLE
  2
BYGG-014357$0$ISO
 70
     0
 40
0.0
 41
1.0
 50
0.0
 71
     0
 42
3.5
  3
isocp3.shx
  4

  0
STYLE
  2
BYGG-014063$0$STANDARD
 70
     0
 40
0.0
 41
1.0
 50
0.0
 71
     0
 42
0.2
  3
txt
  4

  0
STYLE
  2
BYGG-014063$0$ISO
 70
     0
 40
0.0
 41
1.0
 50
0.0
 71
     0
 42
3.5
  3
isocp3.shx
  4

  0
STYLE
  2
BYGG-021582$0$STANDARD
 70
     0
 40
0.0
 41
1.0
 50
0.0
 71
     0
 42
0.2
  3
txt
  4

  0
STYLE
  2
BYGG-021582$0$ISO
 70
     0
 40
0.0
 41
1.0
 50
0.0
 71
     0
 42
3.5
  3
isocp3.shx
  4

  0
STYLE
  2
BYGG-014279$0$STANDARD
 70
     0
 40
0.0
 41
1.0
 50
0.0
 71
     0
 42
0.2
  3
TXT.shx
  4

  0
STYLE
  2
BYGG-014279$0$ISO
 70
     0
 40
0.0
 41
1.0
 50
0.0
 71
     0
 42
3.5
  3
iso
  4

  0
STYLE
  2
BYGG-022668$0$STANDARD
 70
     0
 40
0.0
 41
1.0
 50
0.0
 71
     0
 42
0.2
  3
txt
  4

  0
STYLE
  2
BYGG-022668$0$ISO
 70
     0
 40
0.0
 41
1.0
 50
0.0
 71
     0
 42
3.5
  3
txt
  4

  0
STYLE
  2
BYGG-030185$0$STANDARD
 70
     0
 40
0.0
 41
1.0
 50
0.0
 71
     0
 42
0.2
  3
txt
  4

  0
STYLE
  2
BYGG-030185$0$ISO
 70
     0
 40
0.0
 41
1.0
 50
0.0
 71
     0
 42
7.0
  3
ISO
  4

  0
STYLE
  2
BYGG-024798$0$STANDARD
 70
     0
 40
0.0
 41
1.0
 50
0.0
 71
     0
 42
0.2
  3
txt
  4

  0
STYLE
  2
BYGG-024798$0$ISO
 70
     0
 40
0.0
 41
1.0
 50
0.0
 71
     0
 42
3.5
  3
txt
  4

  0
STYLE
  2
BYGG-024799$0$STANDARD
 70
     0
 40
0.0
 41
1.0
 50
0.0
 71
     0
 42
0.2
  3
txt
  4

  0
STYLE
  2
BYGG-024799$0$ISO
 70
     0
 40
0.0
 41
1.0
 50
0.0
 71
     0
 42
3.5
  3
txt
  4

  0
STYLE
  2
BYGG-028980$0$STANDARD
 70
     0
 40
0.0
 41
1.0
 50
0.0
 71
     0
 42
0.2
  3
txt
  4

  0
STYLE
  2
BYGG-028980$0$ISO
 70
     0
 40
0.0
 41
1.0
 50
0.0
 71
     0
 42
3.5
  3
txt
  4

  0
STYLE
  2
BYGG-014089$0$STANDARD
 70
     0
 40
0.0
 41
1.0
 50
0.0
 71
     0
 42
0.2
  3
txt
  4

  0
STYLE
  2
BYGG-014089$0$ANNOTATIVE
 70
     0
 40
0.0
 41
1.0
 50
0.0
 71
     0
 42
3.5
  3
txt
  4

  0
STYLE
  2
BYGG-014108$0$STANDARD
 70
     0
 40
0.0
 41
1.0
 50
0.0
 71
     0
 42
0.4
  3
txt
  4

  0
STYLE
  2
BYGG-014108$0$SIMPLEX
 70
     0
 40
0.0
 41
1.0
 50
0.0
 71
     0
 42
0.2
  3
simplex
  4

  0
STYLE
  2
BYGG-019611$0$STANDARD
 70
     0
 40
0.0
 41
1.0
 50
0.0
 71
     0
 42
0.2
  3
txt
  4

  0
STYLE
  2
BYGG-019611$0$ISO
 70
     0
 40
0.0
 41
1.0
 50
0.0
 71
     0
 42
3.5
  3
txt
  4

  0
STYLE
  2
BYGG-025652$0$STANDARD
 70
     0
 40
0.0
 41
1.0
 50
0.0
 71
     0
 42
0.2
  3
txt
  4

  0
STYLE
  2
BYGG-025652$0$ISO
 70
     0
 40
0.0
 41
1.0
 50
0.0
 71
     0
 42
3.5
  3
txt
  4

  0
STYLE
  2
BYGG-025652$0$ANNOTATIVE
 70
     0
 40
0.0
 41
1.0
 50
0.0
 71
     0
 42
0.2
  3
txt
  4

  0
STYLE
  2
BYGG-014411$0$STANDARD
 70
     0
 40
0.0
 41
1.0
 50
0.0
 71
     0
 42
0.2
  3
txt
  4

  0
STYLE
  2
BYGG-014411$0$ISO
 70
     0
 40
0.0
 41
1.0
 50
0.0
 71
     0
 42
3.5
  3
isocp3.shx
  4

  0
STYLE
  2
BYGG-014090$0$STANDARD
 70
     0
 40
0.0
 41
1.0
 50
0.0
 71
     0
 42
0.2
  3
txt
  4

  0
STYLE
  2
BYGG-014090$0$SIMPLEX
 70
     0
 40
0.0
 41
1.0
 50
0.0
 71
     0
 42
0.2
  3
simplex
  4

  0
STYLE
  2
BYGG-014088$0$STANDARD
 70
     0
 40
0.0
 41
1.0
 50
0.0
 71
     0
 42
0.4
  3
txt
  4

  0
STYLE
  2
BYGG-036624$0$STANDARD
 70
     0
 40
0.0
 41
1.0
 50
0.0
 71
     0
 42
0.2
  3
txt
  4

  0
STYLE
  2
BYGG-036624$0$ISO
 70
     0
 40
0.0
 41
1.0
 50
0.0
 71
     0
 42
3.5
  3
txt
  4

  0
STYLE
  2
BYGG-036419$0$STANDARD
 70
     0
 40
0.0
 41
1.0
 50
0.0
 71
     0
 42
0.2
  3
txt
  4

  0
STYLE
  2
BYGG-036419$0$ISO
 70
     0
 40
0.0
 41
1.0
 50
0.0
 71
     0
 42
3.5
  3
txt
  4

  0
STYLE
  2
BYGG-036419$0$BYGG-024778$
 70
     0
 40
0.0
 41
1.0
 50
0.0
 71
     0
 42
3.5
  3
txt
  4

  0
STYLE
  2
BYGG-036419$0$BYGG-035431$
 70
     0
 40
0.0
 41
1.0
 50
0.0
 71
     0
 42
3.5
  3
txt
  4

  0
STYLE
  2
BYGG-036419$0$BYGG-035435$
 70
     0
 40
0.0
 41
1.0
 50
0.0
 71
     0
 42
3.5
  3
txt
  4

  0
STYLE
  2
BYGG-036419$0$BYGG-014411$
 70
     0
 40
0.0
 41
1.0
 50
0.0
 71
     0
 42
3.5
  3
isocp3.shx
  4

  0
STYLE
  2
BYGG-036419$0$BYGG-024787$
 70
     0
 40
0.0
 41
1.0
 50
0.0
 71
     0
 42
3.5
  3
txt
  4

  0
STYLE
  2
BYGG-036419$0$BYGG-024788$
 70
     0
 40
0.0
 41
1.0
 50
0.0
 71
     0
 42
3.5
  3
txt
  4

  0
STYLE
  2
BYGG-036419$0$BYGG-024789$
 70
     0
 40
0.0
 41
1.0
 50
0.0
 71
     0
 42
3.5
  3
txt
  4

  0
STYLE
  2
BYGG-036419$0$BYGG-024817$
 70
     0
 40
0.0
 41
1.0
 50
0.0
 71
     0
 42
3.5
  3
txt
  4

  0
STYLE
  2
BYGG-036419$0$BYGG-024794$
 70
     0
 40
0.0
 41
1.0
 50
0.0
 71
     0
 42
3.5
  3
txt
  4

  0
STYLE
  2
BYGG-024756$0$STANDARD
 70
     0
 40
0.0
 41
1.0
 50
0.0
 71
     0
 42
0.2
  3
txt
  4

  0
STYLE
  2
BYGG-024756$0$ISO
 70
     0
 40
0.0
 41
1.0
 50
0.0
 71
     0
 42
3.5
  3
txt
  4

  0
STYLE
  2
BYGG-020805$0$STANDARD
 70
     0
 40
0.0
 41
1.0
 50
0.0
 71
     0
 42
0.2
  3
txt
  4

  0
STYLE
  2
BYGG-020805$0$ISO
 70
     0
 40
0.0
 41
1.0
 50
0.0
 71
     0
 42
3.5
  3
txt
  4

  0
STYLE
  2
BYGG-033167$0$STANDARD
 70
     0
 40
0.0
 41
1.0
 50
0.0
 71
     0
 42
0.2
  3
txt
  4

  0
STYLE
  2
BYGG-033167$0$ISO
 70
     0
 40
0.0
 41
1.0
 50
0.0
 71
     0
 42
3.5
  3
txt
  4

  0
STYLE
  2
BYGG-033167$0$BYGG-020132$
 70
     0
 40
0.0
 41
1.0
 50
0.0
 71
     0
 42
3.5
  3
txt
  4

  0
STYLE
  2
BYGG-033167$0$BYGG-024943$
 70
     0
 40
0.0
 41
1.0
 50
0.0
 71
     0
 42
3.5
  3
txt
  4

  0
STYLE
  2
BYGG-026410$0$STANDARD
 70
     0
 40
0.0
 41
1.0
 50
0.0
 71
     0
 42
0.2
  3
txt
  4

  0
STYLE
  2
BYGG-026410$0$ISO
 70
     0
 40
0.0
 41
1.0
 50
0.0
 71
     0
 42
3.5
  3
txt
  4

  0
STYLE
  2
BYGG-035883$0$STANDARD
 70
     0
 40
0.0
 41
1.0
 50
0.0
 71
     0
 42
0.2
  3
txt
  4

  0
ENDTAB
  0
TABLE
  2
VIEW
 70
     0
  0
ENDTAB
  0
TABLE
  2
UCS
 70
     0
  0
ENDTAB
  0
TABLE
  2
APPID
 70
    45
  0
APPID
  2
ACAD
 70
     0
  0
APPID
  2
ACAD_DSTYLE_DIMTEXT_FILL
 70
     0
  0
APPID
  2
ACAD_DSTYLE_DIMEXT_LENGTH
 70
     0
  0
APPID
  2
ACAD_DSTYLE_DIMEXT_ENABLED
 70
     0
  0
APPID
  2
ACAD_DSTYLE_DIM_LINETYPE
 70
     0
  0
APPID
  2
ACAD_DSTYLE_DIM_EXT1_LINETYPE
 70
     0
  0
APPID
  2
ACAD_DSTYLE_DIM_EXT2_LINETYPE
 70
     0
  0
APPID
  2
ACAD_DSTYLE_DIMJOGGED_JOGA
 70
     0
  0
APPID
  2
ACAD_DSTYLE_DIMARC_LENGTH_
 70
     0
  0
APPID
  2
ACAD_PSEXT
 70
     0
  0
APPID
  2
ACAD_MLEADERVER
 70
     0
  0
APPID
  2
AMG_ARCHIVE11
 70
     0
  0
APPID
  2
ACAD_EXEMPT_FROM_CAD_STANDARDS
 70
     0
  0
APPID
  2
ACADANNOTATIVE
 70
     0
  0
APPID
  2
ACAECLAYERSTANDARD
 70
     0
  0
APPID
  2
DCO15
 70
     0
  0
APPID
  2
ACDBDYNAMICBLOCKGUID
 70
     0
  0
APPID
  2
ACDBBLOCKREPETAG
 70
     0
  0
APPID
  2
GENIUS_GENODEF_13
 70
     0
  0
APPID
  2
GENIUS_GENTRA_14
 70
     0
  0
APPID
  2
GENIUS_GENOLIS_13
 70
     0
  0
APPID
  2
GENIUS_GENOENT_13
 70
     0
  0
APPID
  2
GENIUS_GENOBJ-N-TIT_13
 70
     0
  0
APPID
  2
GENIUS_GENTITLE_13
 70
     0
  0
APPID
  2
GENIUS_GENOREF_13
 70
     0
  0
APPID
  2
GENIUS_GENSCREG_15
 70
     0
  0
APPID
  2
GENIUS_GENOBJ-N-SDF_13
 70
     0
  0
APPID
  2
GENIUS_GENOBJ-N-CRS_13
 70
     0
  0
APPID
  2
RC_PROFILE
 70
     0
  0
APPID
  2
AME_SOL
 70
     0
  0
APPID
  2
ACAUTHENVIRON
 70
     0
  0
APPID
  2
ACDBDYNAMICBLOCKTRUENAME
 70
     0
  0
APPID
  2
ACAD_NAV_VCDISPLAY
 70
     0
  0
APPID
  2
ACAD_DSTYLE_DIMRADIAL_EXTENSION
 70
     0
  0
APPID
  2
ACAD_OBJECT_CHANGE_GUID
 70
     0
  0
APPID
  2
ACCMTRANSPARENCY
 70
     0
  0
APPID
  2
AVE_RENDER
 70
     0
  0
APPID
  2
AVE_ENTITY_MATERIAL
 70
     0
  0
APPID
  2
AVE_FINISH
 70
     0
  0
APPID
  2
AVE_MATERIAL
 70
     0
  0
APPID
  2
AVE_GLOBAL
 70
     0
  0
APPID
  2
4M_RENDER
 70
     0
  0
APPID
  2
LIBMAN
 70
     0
  0
APPID
  2
AUTOBUILD
 70
     0
  0
APPID
  2
AEC_XDATA_BOUND_SPACE
 70
     0
  0
ENDTAB
  0
TABLE
  2
DIMSTYLE
 70
    61
  0
DIMSTYLE
  2
STANDARD
 70
     0
  3

  4

  5

  6

  7

 40
1.0
 41
0.18
 42
0.0625
 43
0.38
 44
0.18
 45
0.0
 46
0.0
 47
0.0
 48
0.0
140
0.18
141
0.09
142
0.0
143
25.399999999999999
144
1.0
145
0.0
146
1.0
147
0.09
 71
     0
 72
     0
 73
     1
 74
     1
 75
     0
 76
     0
 77
     0
 78
     0
170
     0
171
     2
172
     0
173
     0
174
     0
175
     0
176
     0
177
     0
178
     0
  0
DIMSTYLE
  2
MASKIN
 70
     0
  3

  4

  5

  6

  7

 40
0.0
 41
3.0
 42
1.5
 43
10.0
 44
1.5
 45
0.0
 46
0.0
 47
0.0
 48
0.0
140
3.0
141
-5.0
142
0.0
143
25.399999999999999
144
-1.0
145
0.0
146
1.0
147
1.0
 71
     0
 72
     0
 73
     0
 74
     0
 75
     0
 76
     0
 77
     1
 78
     8
170
     0
171
     0
172
     1
173
     0
174
     0
175
     0
176
   256
177
   256
178
     2
  0
DIMSTYLE
  2
BYGG-021589$0$MASKIN
 70
     0
  3

  4

  5

  6

  7

 40
0.0
 41
3.0
 42
1.5
 43
10.0
 44
1.5
 45
0.0
 46
0.0
 47
0.0
 48
0.0
140
3.0
141
-5.0
142
0.0
143
25.399999999999999
144
-1.0
145
0.0
146
1.0
147
1.0
 71
     0
 72
     0
 73
     0
 74
     0
 75
     0
 76
     0
 77
     1
 78
     8
170
     0
171
     0
172
     1
173
     0
174
     0
175
     0
176
   256
177
   256
178
   256
  0
DIMSTYLE
  2
BYGG-01482201$0$STANDARD
 70
     0
  3

  4

  5

  6

  7

 40
1.0
 41
0.18
 42
0.0625
 43
0.38
 44
0.18
 45
0.0
 46
0.0
 47
0.0
 48
0.0
140
0.18
141
0.09
142
0.0
143
25.399999999999999
144
1.0
145
0.0
146
1.0
147
0.09
 71
     0
 72
     0
 73
     1
 74
     1
 75
     0
 76
     0
 77
     0
 78
     0
170
     0
171
     2
172
     0
173
     0
174
     0
175
     0
176
     0
177
     0
178
     0
  0
DIMSTYLE
  2
BYGG-01482201$0$MASKIN
 70
     0
  3

  4

  5

  6

  7

 40
0.0
 41
3.0
 42
1.5
 43
10.0
 44
1.5
 45
0.0
 46
0.0
 47
0.0
 48
0.0
140
3.0
141
-5.0
142
0.0
143
25.399999999999999
144
-1.0
145
0.0
146
1.0
147
1.0
 71
     0
 72
     0
 73
     0
 74
     1
 75
     0
 76
     0
 77
     1
 78
     8
170
     0
171
     0
172
     1
173
     0
174
     0
175
     0
176
   256
177
   256
178
     2
  0
DIMSTYLE
  2
BYGG-021802$0$MASKIN
 70
     0
  3

  4

  5

  6

  7

 40
0.0
 41
3.0
 42
1.5
 43
10.0
 44
1.5
 45
0.0
 46
0.0
 47
0.0
 48
0.0
140
3.0
141
-5.0
142
0.0
143
25.399999999999999
144
-1.0
145
0.0
146
1.0
147
1.0
 71
     0
 72
     0
 73
     0
 74
     0
 75
     0
 76
     0
 77
     1
 78
     8
170
     0
171
     0
172
     1
173
     0
174
     0
175
     0
176
   256
177
   256
178
   256
  0
DIMSTYLE
  2
BYGG-014357$0$MASKIN
 70
     0
  3

  4

  5

  6

  7

 40
0.0
 41
3.0
 42
1.5
 43
10.0
 44
1.5
 45
0.0
 46
0.0
 47
0.0
 48
0.0
140
3.0
141
-5.0
142
0.0
143
25.399999999999999
144
-1.0
145
0.0
146
1.0
147
1.0
 71
     0
 72
     0
 73
     0
 74
     0
 75
     0
 76
     0
 77
     1
 78
     8
170
     0
171
     0
172
     1
173
     0
174
     0
175
     0
176
   256
177
   256
178
   256
  0
DIMSTYLE
  2
BYGG-014357$0$MASKIN1
 70
     0
  3

  4

  5

  6

  7

 40
1.0
 41
3.0
 42
1.5
 43
10.0
 44
1.5
 45
0.0
 46
0.0
 47
0.0
 48
0.0
140
3.0
141
-5.0
142
0.0
143
25.399999999999999
144
1.0
145
0.0
146
1.0
147
0.9
 71
     0
 72
     0
 73
     0
 74
     0
 75
     0
 76
     0
 77
     1
 78
     8
170
     0
171
     0
172
     1
173
     0
174
     0
175
     0
176
   256
177
   256
178
   256
  0
DIMSTYLE
  2
BYGG-014357$0$MASKIN2
 70
     0
  3

  4

  5

  6

  7

 40
1.0
 41
3.0
 42
1.5
 43
10.0
 44
1.5
 45
0.0
 46
0.0
 47
0.0
 48
0.0
140
3.0
141
-5.0
142
0.0
143
25.399999999999999
144
1.0
145
0.0
146
1.0
147
0.9
 71
     0
 72
     0
 73
     0
 74
     0
 75
     0
 76
     0
 77
     1
 78
     8
170
     0
171
     0
172
     1
173
     0
174
     0
175
     0
176
   256
177
   256
178
   256
  0
DIMSTYLE
  2
BYGG-014357$0$MASKIN3
 70
     0
  3

  4

  5

  6

  7

 40
1.0
 41
3.0
 42
1.5
 43
10.0
 44
1.5
 45
0.0
 46
0.0
 47
0.0
 48
0.0
140
3.0
141
-5.0
142
0.0
143
25.399999999999999
144
1.0
145
0.0
146
1.0
147
0.9
 71
     0
 72
     0
 73
     0
 74
     0
 75
     0
 76
     0
 77
     1
 78
     8
170
     0
171
     0
172
     1
173
     0
174
     0
175
     0
176
   256
177
   256
178
   256
  0
DIMSTYLE
  2
BYGG-014357$0$DMST_1
 70
     0
  3

  4

  5

  6

  7

 40
1.0
 41
0.7000000000000002
 42
0.0
 43
7.0
 44
0.4
 45
0.0
 46
0.0
 47
0.15
 48
0.15
140
0.7000000000000002
141
0.0
142
0.0
143
25.399999999999999
144
1.0
145
0.0
146
0.7
147
0.09
 71
     1
 72
     0
 73
     0
 74
     0
 75
     0
 76
     0
 77
     1
 78
     9
170
     0
171
     2
172
     0
173
     0
174
     0
175
     0
176
     1
177
     1
178
     2
  0
DIMSTYLE
  2
BYGG-014063$0$MASKIN
 70
     0
  3

  4

  5

  6

  7

 40
0.0
 41
3.0
 42
1.5
 43
10.0
 44
1.5
 45
0.0
 46
0.0
 47
0.0
 48
0.0
140
3.0
141
-5.0
142
0.0
143
25.399999999999999
144
-1.0
145
0.0
146
1.0
147
1.0
 71
     0
 72
     0
 73
     0
 74
     0
 75
     0
 76
     0
 77
     1
 78
     8
170
     0
171
     0
172
     1
173
     0
174
     0
175
     0
176
   256
177
   256
178
   256
  0
DIMSTYLE
  2
BYGG-014063$0$STANDARD
 70
     0
  3

  4

  5

  6

  7

 40
1.0
 41
0.18
 42
0.0625
 43
0.38
 44
0.18
 45
0.0
 46
0.0
 47
0.0
 48
0.0
140
0.18
141
0.09
142
0.0
143
25.399999999999999
144
1.0
145
0.0
146
1.0
147
0.09
 71
     0
 72
     0
 73
     1
 74
     1
 75
     0
 76
     0
 77
     0
 78
     0
170
     0
171
     2
172
     0
173
     0
174
     0
175
     0
176
     0
177
     0
178
     0
  0
DIMSTYLE
  2
BYGG-021582$0$MASKIN
 70
     0
  3

  4

  5

  6

  7

 40
0.0
 41
3.0
 42
1.5
 43
10.0
 44
1.5
 45
0.0
 46
0.0
 47
0.0
 48
0.0
140
3.0
141
-5.0
142
0.0
143
25.399999999999999
144
-1.0
145
0.0
146
1.0
147
1.0
 71
     0
 72
     0
 73
     0
 74
     0
 75
     0
 76
     0
 77
     1
 78
     8
170
     0
171
     0
172
     1
173
     0
174
     0
175
     0
176
   256
177
   256
178
   256
  0
DIMSTYLE
  2
BYGG-014279$0$STANDARD
 70
     0
  3

  4

  5

  6

  7

 40
1.0
 41
0.18
 42
0.0625
 43
0.38
 44
0.18
 45
0.0
 46
0.0
 47
0.0
 48
0.0
140
0.18
141
0.09
142
0.0
143
25.399999999999999
144
1.0
145
0.0
146
1.0
147
0.09
 71
     0
 72
     0
 73
     1
 74
     1
 75
     0
 76
     0
 77
     0
 78
     0
170
     0
171
     2
172
     0
173
     0
174
     0
175
     0
176
     0
177
     0
178
     0
  0
DIMSTYLE
  2
BYGG-014279$0$MASKIN
 70
     0
  3

  4

  5

  6

  7

 40
0.0
 41
3.0
 42
1.5
 43
10.0
 44
1.5
 45
0.0
 46
0.0
 47
0.0
 48
0.0
140
3.0
141
-5.0
142
0.0
143
25.399999999999999
144
-1.0
145
0.0
146
1.0
147
1.0
 71
     0
 72
     0
 73
     0
 74
     1
 75
     0
 76
     0
 77
     1
 78
     8
170
     0
171
     0
172
     1
173
     0
174
     0
175
     0
176
   256
177
   256
178
     2
  0
DIMSTYLE
  2
BYGG-022668$0$STANDARD
 70
     0
  3

  4

  5

  6

  7

 40
1.0
 41
0.18
 42
0.0625
 43
0.38
 44
0.18
 45
0.0
 46
0.0
 47
0.0
 48
0.0
140
0.18
141
0.09
142
0.0
143
25.399999999999999
144
1.0
145
0.0
146
1.0
147
0.09
 71
     0
 72
     0
 73
     1
 74
     1
 75
     0
 76
     0
 77
     0
 78
     0
170
     0
171
     2
172
     0
173
     0
174
     0
175
     0
176
     0
177
     0
178
     0
  0
DIMSTYLE
  2
BYGG-022668$0$MASKIN
 70
     0
  3

  4

  5

  6

  7

 40
0.0
 41
3.0
 42
1.5
 43
10.0
 44
1.5
 45
0.0
 46
0.0
 47
0.0
 48
0.0
140
3.0
141
-5.0
142
0.0
143
25.399999999999999
144
-1.0
145
0.0
146
1.0
147
1.0
 71
     0
 72
     0
 73
     0
 74
     0
 75
     0
 76
     0
 77
     1
 78
     8
170
     0
171
     0
172
     1
173
     0
174
     0
175
     0
176
   256
177
   256
178
     2
  0
DIMSTYLE
  2
BYGG-030185$0$STANDARD
 70
     0
  3

  4

  5

  6

  7

 40
1.0
 41
0.18
 42
0.0625
 43
0.38
 44
0.18
 45
0.0
 46
0.0
 47
0.0
 48
0.0
140
0.18
141
0.09
142
0.0
143
25.399999999999999
144
1.0
145
0.0
146
1.0
147
0.09
 71
     0
 72
     0
 73
     1
 74
     1
 75
     0
 76
     0
 77
     0
 78
     0
170
     0
171
     2
172
     0
173
     0
174
     0
175
     0
176
     0
177
     0
178
     0
  0
DIMSTYLE
  2
BYGG-030185$0$MASKIN
 70
     0
  3

  4

  5

  6

  7

 40
0.0
 41
3.0
 42
1.5
 43
10.0
 44
1.5
 45
0.0
 46
0.0
 47
0.0
 48
0.0
140
3.0
141
-5.0
142
0.0
143
25.399999999999999
144
-1.0
145
0.0
146
1.0
147
1.0
 71
     0
 72
     0
 73
     0
 74
     1
 75
     0
 76
     0
 77
     1
 78
     8
170
     0
171
     0
172
     1
173
     0
174
     0
175
     0
176
   256
177
   256
178
     2
  0
DIMSTYLE
  2
BYGG-024798$0$MASKIN
 70
     0
  3

  4

  5

  6

  7

 40
0.0
 41
3.0
 42
1.5
 43
10.0
 44
1.5
 45
0.0
 46
0.0
 47
0.0
 48
0.0
140
3.0
141
-5.0
142
0.0
143
25.399999999999999
144
-1.0
145
0.0
146
1.0
147
1.0
 71
     0
 72
     0
 73
     0
 74
     0
 75
     0
 76
     0
 77
     1
 78
     8
170
     0
171
     0
172
     1
173
     0
174
     0
175
     0
176
   256
177
   256
178
     2
  0
DIMSTYLE
  2
BYGG-024798$0$STANDARD
 70
     0
  3

  4

  5

  6

  7

 40
1.0
 41
0.18
 42
0.0625
 43
0.38
 44
0.18
 45
0.0
 46
0.0
 47
0.0
 48
0.0
140
0.18
141
0.09
142
0.0
143
25.399999999999999
144
1.0
145
0.0
146
1.0
147
0.09
 71
     0
 72
     0
 73
     1
 74
     1
 75
     0
 76
     0
 77
     0
 78
     0
170
     0
171
     2
172
     0
173
     0
174
     0
175
     0
176
     0
177
     0
178
     0
  0
DIMSTYLE
  2
BYGG-024799$0$MASKIN
 70
     0
  3

  4

  5

  6

  7

 40
0.0
 41
3.0
 42
1.5
 43
10.0
 44
1.5
 45
0.0
 46
0.0
 47
0.0
 48
0.0
140
3.0
141
-5.0
142
0.0
143
25.399999999999999
144
-1.0
145
0.0
146
1.0
147
1.0
 71
     0
 72
     0
 73
     0
 74
     0
 75
     0
 76
     0
 77
     1
 78
     8
170
     0
171
     0
172
     1
173
     0
174
     0
175
     0
176
   256
177
   256
178
     2
  0
DIMSTYLE
  2
BYGG-024799$0$STANDARD
 70
     0
  3

  4

  5

  6

  7

 40
1.0
 41
0.18
 42
0.0625
 43
0.38
 44
0.18
 45
0.0
 46
0.0
 47
0.0
 48
0.0
140
0.18
141
0.09
142
0.0
143
25.399999999999999
144
1.0
145
0.0
146
1.0
147
0.09
 71
     0
 72
     0
 73
     1
 74
     1
 75
     0
 76
     0
 77
     0
 78
     0
170
     0
171
     2
172
     0
173
     0
174
     0
175
     0
176
     0
177
     0
178
     0
  0
DIMSTYLE
  2
BYGG-028980$0$STANDARD
 70
     0
  3

  4

  5

  6

  7

 40
1.0
 41
0.18
 42
0.0625
 43
0.38
 44
0.18
 45
0.0
 46
0.0
 47
0.0
 48
0.0
140
0.18
141
0.09
142
0.0
143
25.399999999999999
144
1.0
145
0.0
146
1.0
147
0.09
 71
     0
 72
     0
 73
     1
 74
     1
 75
     0
 76
     0
 77
     0
 78
     0
170
     0
171
     2
172
     0
173
     0
174
     0
175
     0
176
     0
177
     0
178
     0
  0
DIMSTYLE
  2
BYGG-028980$0$MASKIN
 70
     0
  3

  4

  5

  6

  7

 40
0.0
 41
3.0
 42
1.5
 43
10.0
 44
1.5
 45
0.0
 46
0.0
 47
0.0
 48
0.0
140
3.0
141
-5.0
142
0.0
143
25.399999999999999
144
-1.0
145
0.0
146
1.0
147
1.0
 71
     0
 72
     0
 73
     0
 74
     0
 75
     0
 76
     0
 77
     1
 78
     8
170
     0
171
     0
172
     1
173
     0
174
     0
175
     0
176
   256
177
   256
178
     2
  0
DIMSTYLE
  2
BYGG-014089$0$STANDARD
 70
     0
  3

  4

  5

  6

  7

 40
1.0
 41
0.18
 42
0.0625
 43
0.38
 44
0.18
 45
0.0
 46
0.0
 47
0.0
 48
0.0
140
0.18
141
0.09
142
0.0
143
25.399999999999999
144
1.0
145
0.0
146
1.0
147
0.09
 71
     0
 72
     0
 73
     1
 74
     1
 75
     0
 76
     0
 77
     0
 78
     0
170
     0
171
     2
172
     0
173
     0
174
     0
175
     0
176
     0
177
     0
178
     0
  0
DIMSTYLE
  2
BYGG-014108$0$STANDARD
 70
     0
  3

  4

  5

  6

  7

 40
1.0
 41
0.18
 42
0.0625
 43
0.38
 44
0.18
 45
0.0
 46
0.0
 47
0.0
 48
0.0
140
0.18
141
0.09
142
0.0
143
25.399999999999999
144
1.0
145
0.0
146
1.0
147
0.09
 71
     0
 72
     0
 73
     1
 74
     1
 75
     0
 76
     0
 77
     0
 78
     0
170
     0
171
     2
172
     0
173
     0
174
     0
175
     0
176
     0
177
     0
178
     0
  0
DIMSTYLE
  2
BYGG-019611$0$STANDARD
 70
     0
  3

  4

  5

  6

  7

 40
1.0
 41
0.18
 42
0.0625
 43
0.38
 44
0.18
 45
0.0
 46
0.0
 47
0.0
 48
0.0
140
0.18
141
0.09
142
0.0
143
25.399999999999999
144
1.0
145
0.0
146
1.0
147
0.09
 71
     0
 72
     0
 73
     1
 74
     1
 75
     0
 76
     0
 77
     0
 78
     0
170
     0
171
     2
172
     0
173
     0
174
     0
175
     0
176
     0
177
     0
178
     0
  0
DIMSTYLE
  2
BYGG-019611$0$MASKIN
 70
     0
  3

  4

  5

  6

  7

 40
0.0
 41
3.0
 42
1.5
 43
10.0
 44
1.5
 45
0.0
 46
0.0
 47
0.0
 48
0.0
140
3.0
141
-5.0
142
0.0
143
25.399999999999999
144
-1.0
145
0.0
146
1.0
147
1.0
 71
     0
 72
     0
 73
     0
 74
     0
 75
     0
 76
     0
 77
     1
 78
     8
170
     0
171
     0
172
     1
173
     0
174
     0
175
     0
176
   256
177
   256
178
     2
  0
DIMSTYLE
  2
BYGG-025652$0$STANDARD
 70
     0
  3

  4

  5

  6

  7

 40
1.0
 41
0.18
 42
0.0625
 43
0.38
 44
0.18
 45
0.0
 46
0.0
 47
0.0
 48
0.0
140
0.18
141
0.09
142
0.0
143
25.399999999999999
144
1.0
145
0.0
146
1.0
147
0.09
 71
     0
 72
     0
 73
     1
 74
     1
 75
     0
 76
     0
 77
     0
 78
     0
170
     0
171
     2
172
     0
173
     0
174
     0
175
     0
176
     0
177
     0
178
     0
  0
DIMSTYLE
  2
BYGG-025652$0$MASKIN
 70
     0
  3

  4

  5

  6

  7

 40
0.0
 41
3.0
 42
1.5
 43
10.0
 44
1.5
 45
0.0
 46
0.0
 47
0.0
 48
0.0
140
3.0
141
-5.0
142
0.0
143
25.399999999999999
144
-1.0
145
0.0
146
1.0
147
1.0
 71
     0
 72
     0
 73
     0
 74
     0
 75
     0
 76
     0
 77
     1
 78
     8
170
     0
171
     0
172
     1
173
     0
174
     0
175
     0
176
   256
177
   256
178
     2
  0
DIMSTYLE
  2
BYGG-025652$0$ANNOTATIVE
 70
     0
  3

  4

  5

  6

  7

 40
1.0
 41
0.18
 42
0.0625
 43
0.38
 44
0.18
 45
0.0
 46
0.0
 47
0.0
 48
0.0
140
0.18
141
0.09
142
0.0
143
25.399999999999999
144
1.0
145
0.0
146
1.0
147
0.09
 71
     0
 72
     0
 73
     1
 74
     1
 75
     0
 76
     0
 77
     0
 78
     0
170
     0
171
     2
172
     0
173
     0
174
     0
175
     0
176
     0
177
     0
178
     0
  0
DIMSTYLE
  2
BYGG-014411$0$MASKIN
 70
     0
  3

  4

  5

  6

  7

 40
0.0
 41
3.0
 42
1.5
 43
10.0
 44
1.5
 45
0.0
 46
0.0
 47
0.0
 48
0.0
140
3.0
141
-5.0
142
0.0
143
25.399999999999999
144
-1.0
145
0.0
146
1.0
147
1.0
 71
     0
 72
     0
 73
     0
 74
     0
 75
     0
 76
     0
 77
     1
 78
     8
170
     0
171
     0
172
     1
173
     0
174
     0
175
     0
176
   256
177
   256
178
   256
  0
DIMSTYLE
  2
BYGG-014411$0$STANDARD
 70
     0
  3

  4

  5

  6

  7

 40
1.0
 41
0.18
 42
0.0625
 43
0.38
 44
0.18
 45
0.0
 46
0.0
 47
0.0
 48
0.0
140
0.18
141
0.09
142
0.0
143
25.399999999999999
144
1.0
145
0.0
146
1.0
147
0.09
 71
     0
 72
     0
 73
     1
 74
     1
 75
     0
 76
     0
 77
     0
 78
     0
170
     0
171
     2
172
     0
173
     0
174
     0
175
     0
176
     0
177
     0
178
     0
  0
DIMSTYLE
  2
BYGG-014090$0$STANDARD
 70
     0
  3

  4

  5

  6

  7

 40
1.0
 41
0.18
 42
0.0625
 43
0.38
 44
0.18
 45
0.0
 46
0.0
 47
0.0
 48
0.0
140
0.18
141
0.09
142
0.0
143
25.399999999999999
144
1.0
145
0.0
146
1.0
147
0.09
 71
     0
 72
     0
 73
     1
 74
     1
 75
     0
 76
     0
 77
     0
 78
     0
170
     0
171
     2
172
     0
173
     0
174
     0
175
     0
176
     0
177
     0
178
     0
  0
DIMSTYLE
  2
BYGG-014088$0$STANDARD
 70
     0
  3

  4

  5

  6

  7

 40
1.0
 41
0.18
 42
0.0625
 43
0.38
 44
0.18
 45
0.0
 46
0.0
 47
0.0
 48
0.0
140
0.18
141
0.09
142
0.0
143
25.399999999999999
144
1.0
145
0.0
146
1.0
147
0.09
 71
     0
 72
     0
 73
     1
 74
     1
 75
     0
 76
     0
 77
     0
 78
     0
170
     0
171
     2
172
     0
173
     0
174
     0
175
     0
176
     0
177
     0
178
     0
  0
DIMSTYLE
  2
BYGG-036624$0$STANDARD
 70
     0
  3

  4

  5

  6

  7

 40
1.0
 41
0.18
 42
0.0625
 43
0.38
 44
0.18
 45
0.0
 46
0.0
 47
0.0
 48
0.0
140
0.18
141
0.09
142
0.0
143
25.399999999999999
144
1.0
145
0.0
146
1.0
147
0.09
 71
     0
 72
     0
 73
     1
 74
     1
 75
     0
 76
     0
 77
     0
 78
     0
170
     0
171
     2
172
     0
173
     0
174
     0
175
     0
176
     0
177
     0
178
     0
  0
DIMSTYLE
  2
BYGG-036624$0$MASKIN
 70
     0
  3

  4

  5

  6

  7

 40
0.0
 41
3.0
 42
1.5
 43
10.0
 44
1.5
 45
0.0
 46
0.0
 47
0.0
 48
0.0
140
3.0
141
-5.0
142
0.0
143
25.399999999999999
144
-1.0
145
0.0
146
1.0
147
1.0
 71
     0
 72
     0
 73
     0
 74
     0
 75
     0
 76
     0
 77
     1
 78
     8
170
     0
171
     0
172
     1
173
     0
174
     0
175
     0
176
   256
177
   256
178
     2
  0
DIMSTYLE
  2
BYGG-036419$0$STANDARD
 70
     0
  3

  4

  5

  6

  7

 40
1.0
 41
0.18
 42
0.0625
 43
0.38
 44
0.18
 45
0.0
 46
0.0
 47
0.0
 48
0.0
140
0.18
141
0.09
142
0.0
143
25.399999999999999
144
1.0
145
0.0
146
1.0
147
0.09
 71
     0
 72
     0
 73
     1
 74
     1
 75
     0
 76
     0
 77
     0
 78
     0
170
     0
171
     2
172
     0
173
     0
174
     0
175
     0
176
     0
177
     0
178
     0
  0
DIMSTYLE
  2
BYGG-036419$0$MASKIN
 70
     0
  3

  4

  5

  6

  7

 40
0.0
 41
3.0
 42
1.5
 43
10.0
 44
1.5
 45
0.0
 46
0.0
 47
0.0
 48
0.0
140
3.0
141
-5.0
142
0.0
143
25.399999999999999
144
-1.0
145
0.0
146
1.0
147
1.0
 71
     0
 72
     0
 73
     0
 74
     0
 75
     0
 76
     0
 77
     1
 78
     8
170
     0
171
     0
172
     1
173
     0
174
     0
175
     0
176
   256
177
   256
178
     2
  0
DIMSTYLE
  2
BYGG-036419$0$BYGG-024778$
 70
     0
  3

  4

  5

  6

  7

 40
0.0
 41
3.0
 42
1.5
 43
10.0
 44
1.5
 45
0.0
 46
0.0
 47
0.0
 48
0.0
140
3.0
141
-5.0
142
0.0
143
25.399999999999999
144
-1.0
145
0.0
146
1.0
147
1.0
 71
     0
 72
     0
 73
     0
 74
     0
 75
     0
 76
     0
 77
     1
 78
     8
170
     0
171
     0
172
     1
173
     0
174
     0
175
     0
176
   256
177
   256
178
     2
  0
DIMSTYLE
  2
BYGG-036419$0$BYGG-035431$
 70
     0
  3

  4

  5

  6

  7

 40
0.0
 41
3.0
 42
1.5
 43
10.0
 44
1.5
 45
0.0
 46
0.0
 47
0.0
 48
0.0
140
3.0
141
-5.0
142
0.0
143
25.399999999999999
144
-1.0
145
0.0
146
1.0
147
1.0
 71
     0
 72
     0
 73
     0
 74
     0
 75
     0
 76
     0
 77
     1
 78
     8
170
     0
171
     0
172
     1
173
     0
174
     0
175
     0
176
   256
177
   256
178
     2
  0
DIMSTYLE
  2
BYGG-036419$0$BYGG-035435$
 70
     0
  3

  4

  5

  6

  7

 40
0.0
 41
3.0
 42
1.5
 43
10.0
 44
1.5
 45
0.0
 46
0.0
 47
0.0
 48
0.0
140
3.0
141
-5.0
142
0.0
143
25.399999999999999
144
-1.0
145
0.0
146
1.0
147
1.0
 71
     0
 72
     0
 73
     0
 74
     0
 75
     0
 76
     0
 77
     1
 78
     8
170
     0
171
     0
172
     1
173
     0
174
     0
175
     0
176
   256
177
   256
178
     2
  0
DIMSTYLE
  2
BYGG-036419$0$BYGG-014411$
 70
     0
  3

  4

  5

  6

  7

 40
0.0
 41
3.0
 42
1.5
 43
10.0
 44
1.5
 45
0.0
 46
0.0
 47
0.0
 48
0.0
140
3.0
141
-5.0
142
0.0
143
25.399999999999999
144
-1.0
145
0.0
146
1.0
147
1.0
 71
     0
 72
     0
 73
     0
 74
     0
 75
     0
 76
     0
 77
     1
 78
     8
170
     0
171
     0
172
     1
173
     0
174
     0
175
     0
176
   256
177
   256
178
   256
  0
DIMSTYLE
  2
BYGG-036419$0$BYGG-024787$
 70
     0
  3

  4

  5

  6

  7

 40
0.0
 41
3.0
 42
1.5
 43
10.0
 44
1.5
 45
0.0
 46
0.0
 47
0.0
 48
0.0
140
3.0
141
-5.0
142
0.0
143
25.399999999999999
144
-1.0
145
0.0
146
1.0
147
1.0
 71
     0
 72
     0
 73
     0
 74
     0
 75
     0
 76
     0
 77
     1
 78
     8
170
     0
171
     0
172
     1
173
     0
174
     0
175
     0
176
   256
177
   256
178
     2
  0
DIMSTYLE
  2
BYGG-036419$0$BYGG-024788$
 70
     0
  3

  4

  5

  6

  7

 40
0.0
 41
3.0
 42
1.5
 43
10.0
 44
1.5
 45
0.0
 46
0.0
 47
0.0
 48
0.0
140
3.0
141
-5.0
142
0.0
143
25.399999999999999
144
-1.0
145
0.0
146
1.0
147
1.0
 71
     0
 72
     0
 73
     0
 74
     0
 75
     0
 76
     0
 77
     1
 78
     8
170
     0
171
     0
172
     1
173
     0
174
     0
175
     0
176
   256
177
   256
178
     2
  0
DIMSTYLE
  2
BYGG-036419$0$BYGG-024789$
 70
     0
  3

  4

  5

  6

  7

 40
0.0
 41
3.0
 42
1.5
 43
10.0
 44
1.5
 45
0.0
 46
0.0
 47
0.0
 48
0.0
140
3.0
141
-5.0
142
0.0
143
25.399999999999999
144
-1.0
145
0.0
146
1.0
147
1.0
 71
     0
 72
     0
 73
     0
 74
     0
 75
     0
 76
     0
 77
     1
 78
     8
170
     0
171
     0
172
     1
173
     0
174
     0
175
     0
176
   256
177
   256
178
     2
  0
DIMSTYLE
  2
BYGG-036419$0$BYGG-024817$
 70
     0
  3

  4

  5

  6

  7

 40
0.0
 41
3.0
 42
1.5
 43
10.0
 44
1.5
 45
0.0
 46
0.0
 47
0.0
 48
0.0
140
3.0
141
-5.0
142
0.0
143
25.399999999999999
144
-1.0
145
0.0
146
1.0
147
1.0
 71
     0
 72
     0
 73
     0
 74
     0
 75
     0
 76
     0
 77
     1
 78
     8
170
     0
171
     0
172
     1
173
     0
174
     0
175
     0
176
   256
177
   256
178
     2
  0
DIMSTYLE
  2
BYGG-036419$0$BYGG-024794$
 70
     0
  3

  4

  5

  6

  7

 40
0.0
 41
3.0
 42
1.5
 43
10.0
 44
1.5
 45
0.0
 46
0.0
 47
0.0
 48
0.0
140
3.0
141
-5.0
142
0.0
143
25.399999999999999
144
-1.0
145
0.0
146
1.0
147
1.0
 71
     0
 72
     0
 73
     0
 74
     0
 75
     0
 76
     0
 77
     1
 78
     8
170
     0
171
     0
172
     1
173
     0
174
     0
175
     0
176
   256
177
   256
178
     2
  0
DIMSTYLE
  2
BYGG-024756$0$MASKIN
 70
     0
  3

  4

  5

  6

  7

 40
0.0
 41
3.0
 42
1.5
 43
10.0
 44
1.5
 45
0.0
 46
0.0
 47
0.0
 48
0.0
140
3.0
141
-5.0
142
0.0
143
25.399999999999999
144
-1.0
145
0.0
146
1.0
147
1.0
 71
     0
 72
     0
 73
     0
 74
     0
 75
     0
 76
     0
 77
     1
 78
     8
170
     0
171
     0
172
     1
173
     0
174
     0
175
     0
176
   256
177
   256
178
     2
  0
DIMSTYLE
  2
BYGG-024756$0$STANDARD
 70
     0
  3

  4

  5

  6

  7

 40
1.0
 41
0.18
 42
0.0625
 43
0.38
 44
0.18
 45
0.0
 46
0.0
 47
0.0
 48
0.0
140
0.18
141
0.09
142
0.0
143
25.399999999999999
144
1.0
145
0.0
146
1.0
147
0.09
 71
     0
 72
     0
 73
     1
 74
     1
 75
     0
 76
     0
 77
     0
 78
     0
170
     0
171
     2
172
     0
173
     0
174
     0
175
     0
176
     0
177
     0
178
     0
  0
DIMSTYLE
  2
BYGG-020805$0$STANDARD
 70
     0
  3

  4

  5

  6

  7

 40
1.0
 41
0.18
 42
0.0625
 43
0.38
 44
0.18
 45
0.0
 46
0.0
 47
0.0
 48
0.0
140
0.18
141
0.09
142
0.0
143
25.399999999999999
144
1.0
145
0.0
146
1.0
147
0.09
 71
     0
 72
     0
 73
     1
 74
     1
 75
     0
 76
     0
 77
     0
 78
     0
170
     0
171
     2
172
     0
173
     0
174
     0
175
     0
176
     0
177
     0
178
     0
  0
DIMSTYLE
  2
BYGG-020805$0$MASKIN
 70
     0
  3

  4

  5

  6

  7

 40
0.0
 41
3.0
 42
1.5
 43
10.0
 44
1.5
 45
0.0
 46
0.0
 47
0.0
 48
0.0
140
3.0
141
-5.0
142
0.0
143
25.399999999999999
144
-1.0
145
0.0
146
1.0
147
1.0
 71
     0
 72
     0
 73
     0
 74
     0
 75
     0
 76
     0
 77
     1
 78
     8
170
     0
171
     0
172
     1
173
     0
174
     0
175
     0
176
   256
177
   256
178
     2
  0
DIMSTYLE
  2
BYGG-033167$0$STANDARD
 70
     0
  3

  4

  5

  6

  7

 40
1.0
 41
0.18
 42
0.0625
 43
0.38
 44
0.18
 45
0.0
 46
0.0
 47
0.0
 48
0.0
140
0.18
141
0.09
142
0.0
143
25.399999999999999
144
1.0
145
0.0
146
1.0
147
0.09
 71
     0
 72
     0
 73
     1
 74
     1
 75
     0
 76
     0
 77
     0
 78
     0
170
     0
171
     2
172
     0
173
     0
174
     0
175
     0
176
     0
177
     0
178
     0
  0
DIMSTYLE
  2
BYGG-033167$0$MASKIN
 70
     0
  3

  4

  5

  6

  7

 40
0.0
 41
3.0
 42
1.5
 43
10.0
 44
1.5
 45
0.0
 46
0.0
 47
0.0
 48
0.0
140
3.0
141
-5.0
142
0.0
143
25.399999999999999
144
-1.0
145
0.0
146
1.0
147
1.0
 71
     0
 72
     0
 73
     0
 74
     0
 75
     0
 76
     0
 77
     1
 78
     8
170
     0
171
     0
172
     1
173
     0
174
     0
175
     0
176
   256
177
   256
178
     2
  0
DIMSTYLE
  2
BYGG-033167$0$BYGG-020132$
 70
     0
  3

  4

  5

  6

  7

 40
0.0
 41
3.0
 42
1.5
 43
10.0
 44
1.5
 45
0.0
 46
0.0
 47
0.0
 48
0.0
140
3.0
141
-5.0
142
0.0
143
25.399999999999999
144
-1.0
145
0.0
146
1.0
147
1.0
 71
     0
 72
     0
 73
     0
 74
     0
 75
     0
 76
     0
 77
     1
 78
     8
170
     0
171
     0
172
     1
173
     0
174
     0
175
     0
176
   256
177
   256
178
     2
  0
DIMSTYLE
  2
BYGG-033167$0$BYGG-024943$
 70
     0
  3

  4

  5

  6

  7

 40
0.0
 41
3.0
 42
1.5
 43
10.0
 44
1.5
 45
0.0
 46
0.0
 47
0.0
 48
0.0
140
3.0
141
-5.0
142
0.0
143
25.399999999999999
144
-1.0
145
0.0
146
1.0
147
1.0
 71
     0
 72
     0
 73
     0
 74
     0
 75
     0
 76
     0
 77
     1
 78
     8
170
     0
171
     0
172
     1
173
     0
174
     0
175
     0
176
   256
177
   256
178
     2
  0
DIMSTYLE
  2
BYGG-026410$0$STANDARD
 70
     0
  3

  4

  5

  6

  7

 40
1.0
 41
0.18
 42
0.0625
 43
0.38
 44
0.18
 45
0.0
 46
0.0
 47
0.0
 48
0.0
140
0.18
141
0.09
142
0.0
143
25.399999999999999
144
1.0
145
0.0
146
1.0
147
0.09
 71
     0
 72
     0
 73
     1
 74
     1
 75
     0
 76
     0
 77
     0
 78
     0
170
     0
171
     2
172
     0
173
     0
174
     0
175
     0
176
     0
177
     0
178
     0
  0
DIMSTYLE
  2
BYGG-026410$0$MASKIN
 70
     0
  3

  4

  5

  6

  7

 40
0.0
 41
3.0
 42
1.5
 43
10.0
 44
1.5
 45
0.0
 46
0.0
 47
0.0
 48
0.0
140
3.0
141
-5.0
142
0.0
143
25.399999999999999
144
-1.0
145
0.0
146
1.0
147
1.0
 71
     0
 72
     0
 73
     0
 74
     0
 75
     0
 76
     0
 77
     1
 78
     8
170
     0
171
     0
172
     1
173
     0
174
     0
175
     0
176
   256
177
   256
178
     2
  0
DIMSTYLE
  2
BYGG-035883$0$STANDARD
 70
     0
  3

  4

  5

  6

  7

 40
1.0
 41
0.18
 42
0.0625
 43
0.38
 44
0.18
 45
0.0
 46
0.0
 47
0.0
 48
0.0
140
0.18
141
0.09
142
0.0
143
25.399999999999999
144
1.0
145
0.0
146
1.0
147
0.09
 71
     0
 72
     0
 73
     1
 74
     1
 75
     0
 76
     0
 77
     0
 78
     0
170
     0
171
     2
172
     0
173
     0
174
     0
175
     0
176
     0
177
     0
178
     0
  0
ENDTAB
  0
ENDSEC
  0
SECTION
  2
BLOCKS
  0
BLOCK
  8
0
  2
$MODEL_SPACE
 70
     0
 10
0.0
 20
0.0
 30
0.0
  3
$MODEL_SPACE
  1

  0
ENDBLK
  5
37
  8
0
  0
BLOCK
 67
     1
  8
0
  2
$PAPER_SPACE
 70
     0
 10
0.0
 20
0.0
 30
0.0
  3
$PAPER_SPACE
  1

  0
ENDBLK
  5
35
 67
     1
  8
0
  0
BLOCK
  8
0
  2
*D171
 70
     1
 10
0.0
 20
0.0
 30
0.0
  3
*D171
  1

  0
LINE
  5
189D
  8
SAPA_MATT
 10
24.999999999999659
 20
-107.4999999990104
 30
0.0
 11
24.999999999999659
 21
-127.15375231270581
 31
0.0
  0
LINE
  5
189E
  8
SAPA_MATT
 10
-25.000000000000341
 20
-107.4999999990104
 30
0.0
 11
-25.000000000000341
 21
-127.15375231270581
 31
0.0
  0
LINE
  5
189F
  8
SAPA_MATT
 10
21.999999999999659
 20
-125.65375231270581
 30
0.0
 11
-22.000000000000341
 21
-125.65375231270581
 31
0.0
  0
SOLID
  5
18A0
  8
SAPA_MATT
 10
21.999999999999659
 20
-125.15375231270581
 30
0.0
 11
21.999999999999659
 21
-126.15375231270581
 31
0.0
 12
24.999999999999659
 22
-125.65375231270581
 32
0.0
 13
24.999999999999659
 23
-125.65375231270581
 33
0.0
  0
SOLID
  5
18A1
  8
SAPA_MATT
 10
-22.000000000000341
 20
-125.15375231270581
 30
0.0
 11
-22.000000000000341
 21
-126.15375231270581
 31
0.0
 12
-25.000000000000341
 22
-125.65375231270581
 32
0.0
 13
-25.000000000000341
 23
-125.65375231270581
 33
0.0
  0
INSERT
  5
18A2
  8
0
  2
*U185
 10
0.0
 20
0.0
 30
0.0
  0
POINT
  5
18A3
  8
DEFPOINTS
 62
     0
 10
24.999999999999659
 20
-105.9999999990104
 30
0.0
  0
POINT
  5
18A4
  8
DEFPOINTS
 62
     0
 10
-25.000000000000341
 20
-105.9999999990104
 30
0.0
  0
POINT
  5
18A5
  8
DEFPOINTS
 62
     0
 10
-25.000000000000341
 20
-125.65375231270581
 30
0.0
  0
ENDBLK
  5
1850
  8
0
  0
BLOCK
  8
0
  2
*D172
 70
     1
 10
0.0
 20
0.0
 30
0.0
  3
*D172
  1

  0
LINE
  5
29D7
  8
SAPA_MATT
 10
-25.000000000000341
 20
-107.4999999990104
 30
0.0
 11
-25.000000000000341
 21
-127.15375231270581
 31
0.0
  0
LINE
  5
29D8
  8
SAPA_MATT
 10
-75.499999999900012
 20
-83.498715294908123
 30
0.0
 11
-75.499999999900012
 21
-127.15375231270581
 31
0.0
  0
LINE
  5
29D9
  8
SAPA_MATT
 10
-28.000000000000341
 20
-125.65375231270581
 30
0.0
 11
-72.499999999900012
 21
-125.65375231270581
 31
0.0
  0
SOLID
  5
29DA
  8
SAPA_MATT
 10
-28.000000000000341
 20
-125.15375231270581
 30
0.0
 11
-28.000000000000341
 21
-126.15375231270581
 31
0.0
 12
-25.000000000000341
 22
-125.65375231270581
 32
0.0
 13
-25.000000000000341
 23
-125.65375231270581
 33
0.0
  0
SOLID
  5
29DB
  8
SAPA_MATT
 10
-72.499999999900012
 20
-125.15375231270581
 30
0.0
 11
-72.499999999900012
 21
-126.15375231270581
 31
0.0
 12
-75.499999999900012
 22
-125.65375231270581
 32
0.0
 13
-75.499999999900012
 23
-125.65375231270581
 33
0.0
  0
TEXT
  8
SAPA_MATT
  40
3
  5
29E4
  62
2
  72
0
  71
0
 10
-56.2500
 20
-128.464
 30
0.000000
  1
50.5
  7
ISO
  0
POINT
  5
29DD
  8
DEFPOINTS
 62
     0
 10
-25.000000000000341
 20
-105.9999999990105
 30
0.0
  0
POINT
  5
29DE
  8
DEFPOINTS
 62
     0
 10
-75.499999999900012
 20
-81.998715294908109
 30
0.0
  0
POINT
  5
29DF
  8
DEFPOINTS
 62
     0
 10
-75.499999999900012
 20
-125.65375231270581
 30
0.0
  0
ENDBLK
  5
185C
  8
0
  0
BLOCK
  8
0
  2
*D173
 70
     1
 10
0.0
 20
0.0
 30
0.0
  3
*D173
  1

  0
LINE
  5
29CC
  8
SAPA_MATT
 10
-75.499999999900012
 20
-83.498715294908123
 30
0.0
 11
-75.499999999900012
 21
-127.15375231270581
 31
0.0
  0
LINE
  5
29CD
  8
SAPA_MATT
 10
-80.500000002078366
 20
-83.498715298616162
 30
0.0
 11
-80.500000002078366
 21
-127.15375231270581
 31
0.0
  0
LINE
  5
29CE
  8
SAPA_MATT
 10
-72.499999999900012
 20
-125.65375231270581
 30
0.0
 11
-69.499999999900012
 21
-125.65375231270581
 31
0.0
  0
LINE
  5
29CF
  8
SAPA_MATT
 10
-83.500000002078366
 20
-125.65375231270581
 30
0.0
 11
-86.500000002078366
 21
-125.65375231270581
 31
0.0
  0
LINE
  5
29D0
  8
SAPA_MATT
 10
-75.499999999900012
 20
-125.65375231270581
 30
0.0
 11
-80.500000002078366
 21
-125.65375231270581
 31
0.0
  0
SOLID
  5
29D1
  8
SAPA_MATT
 10
-72.499999999900012
 20
-125.15375231270581
 30
0.0
 11
-72.499999999900012
 21
-126.15375231270581
 31
0.0
 12
-75.499999999900012
 22
-125.65375231270581
 32
0.0
 13
-75.499999999900012
 23
-125.65375231270581
 33
0.0
  0
SOLID
  5
29D2
  8
SAPA_MATT
 10
-83.500000002078366
 20
-125.15375231270581
 30
0.0
 11
-83.500000002078366
 21
-126.15375231270581
 31
0.0
 12
-80.500000002078366
 22
-125.65375231270581
 32
0.0
 13
-80.500000002078366
 23
-125.65375231270581
 33
0.0
  0
TEXT
  8
SAPA_MATT
  40
3
  5
29E5
  62
2
  72
0
  71
0
 10
-84.0000
 20
-128.464
 30
0.000000
  1
5
  7
ISO
  0
POINT
  5
29D4
  8
DEFPOINTS
 62
     0
 10
-75.499999999900012
 20
-81.998715294908109
 30
0.0
  0
POINT
  5
29D5
  8
DEFPOINTS
 62
     0
 10
-80.500000002078366
 20
-81.998715298616148
 30
0.0
  0
POINT
  5
29D6
  8
DEFPOINTS
 62
     0
 10
-80.500000002078366
 20
-125.65375231270581
 30
0.0
  0
ENDBLK
  5
1868
  8
0
  0
BLOCK
  8
0
  2
*D174
 70
     1
 10
0.0
 20
0.0
 30
0.0
  3
*D174
  1

  0
LINE
  5
29C3
  8
SAPA_MATT
 10
-80.500000002078366
 20
-83.498715298616162
 30
0.0
 11
-80.500000002078366
 21
-127.15375231270581
 31
0.0
  0
LINE
  5
29C4
  8
SAPA_MATT
 10
-116.9999999999347
 20
-83.500000003840398
 30
0.0
 11
-116.9999999999347
 21
-127.15375231270581
 31
0.0
  0
LINE
  5
29C5
  8
SAPA_MATT
 10
-83.500000002078366
 20
-125.65375231270581
 30
0.0
 11
-113.9999999999347
 21
-125.65375231270581
 31
0.0
  0
SOLID
  5
29C6
  8
SAPA_MATT
 10
-83.500000002078366
 20
-125.15375231270581
 30
0.0
 11
-83.500000002078366
 21
-126.15375231270581
 31
0.0
 12
-80.500000002078366
 22
-125.65375231270581
 32
0.0
 13
-80.500000002078366
 23
-125.65375231270581
 33
0.0
  0
SOLID
  5
29C7
  8
SAPA_MATT
 10
-113.9999999999347
 20
-125.15375231270581
 30
0.0
 11
-113.9999999999347
 21
-126.15375231270581
 31
0.0
 12
-116.9999999999347
 22
-125.65375231270581
 32
0.0
 13
-116.9999999999347
 23
-125.65375231270581
 33
0.0
  0
TEXT
  8
SAPA_MATT
  40
3
  5
29E6
  62
2
  72
0
  71
0
 10
-104.750
 20
-128.464
 30
0.000000
  1
36.5
  7
ISO
  0
POINT
  5
29C9
  8
DEFPOINTS
 62
     0
 10
-80.500000002078366
 20
-81.998715298616148
 30
0.0
  0
POINT
  5
29CA
  8
DEFPOINTS
 62
     0
 10
-116.9999999999347
 20
-82.000000003840427
 30
0.0
  0
POINT
  5
29CB
  8
DEFPOINTS
 62
     0
 10
-116.9999999999347
 20
-125.65375231270581
 30
0.0
  0
ENDBLK
  5
1876
  8
0
  0
BLOCK
  8
0
  2
*U175
 70
     1
 10
0.0
 20
0.0
 30
0.0
  3
*U175
  1

  0
TEXT
  5
1905
  8
SAPA_ARTIKELNR
 10
-6.4303857324235638
 20
66.451161059970659
 30
0.0
 40
3.5
  1
68654
  7
ISO
  0
ENDBLK
  5
1907
  8
0
  0
BLOCK
  8
0
  2
*U176
 70
     1
 10
0.0
 20
0.0
 30
0.0
  3
*U176
  1

  0
TEXT
  5
1909
  8
SAPA_ARTIKELNR
 10
-6.4303857324235638
 20
-102.82938840410699
 30
0.0
 40
3.5
  1
42657
  7
ISO
  0
ENDBLK
  5
190B
  8
0
  0
BLOCK
  8
0
  2
*U177
 70
     1
 10
0.0
 20
0.0
 30
0.0
  3
*U177
  1

  0
TEXT
  5
190D
  8
SAPA_ARTIKELNR
 10
-6.4303857324235638
 20
-111.8951902723834
 30
0.0
 40
3.5
  1
42227
  7
ISO
  0
ENDBLK
  5
190F
  8
0
  0
BLOCK
  8
0
  2
*U178
 70
     1
 10
0.0
 20
0.0
 30
0.0
  3
*U178
  1

  0
TEXT
  5
1966
  8
SAPA_ARTIKELNR
 10
-45.877920297029277
 20
5.4302846488354239
 30
0.0
 40
3.5
  1
86204
  7
ISO
  0
ENDBLK
  5
1968
  8
0
  0
BLOCK
  8
0
  2
*U179
 70
     1
 10
0.0
 20
0.0
 30
0.0
  3
*U179
  1

  0
TEXT
  5
196A
  8
SAPA_ARTIKELNR
 10
-80.312744876342776
 20
15.183269044085771
 30
0.0
 40
3.5
  1
86302
 50
0.000000000000007
  7
ISO
  0
ENDBLK
  5
196C
  8
0
  0
BLOCK
  8
0
  2
*U180
 70
     1
 10
0.0
 20
0.0
 30
0.0
  3
*U180
  1

  0
TEXT
  5
196E
  8
SAPA_ARTIKELNR
 10
-111.8926594783638
 20
3.6247068897019932
 30
0.0
 40
3.5
  1
42728
 50
0.000000000000007
  7
ISO
  0
ENDBLK
  5
1970
  8
0
  0
BLOCK
  8
0
  2
*U181
 70
     1
 10
0.0
 20
0.0
 30
0.0
  3
*U181
  1

  0
SOLID
  5
268C
  8
SAPA_FOGBAND
  6
CONTINUOUS
 10
-18.616845196571941
 20
-84.382617244086674
 30
0.0
 11
-18.79712276034514
 21
-84.457290655993106
 31
0.0
 12
-18.436567632798742
 22
-84.457290655993106
 32
0.0
 13
-18.436567632798742
 23
-84.457290655993106
 33
0.0
210
0.0
220
0.0
230
1.0
  0
SOLID
  5
268D
  8
SAPA_FOGBAND
  6
CONTINUOUS
 10
-18.79712276034514
 20
-84.457290655993106
 30
0.0
 11
-18.871796172251582
 21
-84.637568219766294
 31
0.0
 12
-18.3618942208923
 22
-84.637568219766294
 32
0.0
 13
-18.3618942208923
 23
-84.637568219766294
 33
0.0
210
0.0
220
0.0
230
1.0
  0
SOLID
  5
268E
  8
SAPA_FOGBAND
  6
CONTINUOUS
 10
18.79712276034514
 20
-84.457290655993106
 30
0.0
 11
18.436567632798742
 21
-84.457290655993106
 31
0.0
 12
18.3618942208923
 22
-84.637568219766294
 32
0.0
 13
18.3618942208923
 23
-84.637568219766294
 33
0.0
210
0.0
220
0.0
230
-1.0
  0
SOLID
  5
268F
  8
SAPA_FOGBAND
  6
CONTINUOUS
 10
18.79712276034514
 20
-84.817845783539497
 30
0.0
 11
18.436567632798742
 21
-84.817845783539497
 31
0.0
 12
18.616845196571941
 22
-84.892519195445942
 32
0.0
 13
18.616845196571941
 23
-84.892519195445942
 33
0.0
210
0.0
220
0.0
230
-1.0
  0
SOLID
  5
2690
  8
SAPA_FOGBAND
  6
CONTINUOUS
 10
-18.871796172251582
 20
-84.637568219766294
 30
0.0
 11
-18.79712276034514
 21
-84.817845783539497
 31
0.0
 12
-18.436567632798742
 22
-84.817845783539497
 32
0.0
 13
-18.436567632798742
 23
-84.817845783539497
 33
0.0
210
0.0
220
0.0
230
1.0
  0
SOLID
  5
2691
  8
SAPA_FOGBAND
  6
CONTINUOUS
 10
18.871796172251582
 20
-84.637568219766294
 30
0.0
 11
18.3618942208923
 21
-84.637568219766294
 31
0.0
 12
18.436567632798742
 22
-84.817845783539497
 32
0.0
 13
18.436567632798742
 23
-84.817845783539497
 33
0.0
210
0.0
220
0.0
230
-1.0
  0
LINE
  5
2692
  8
SAPA_FOGBAND
  6
CONTINUOUS
 10
-18.616845196571941
 20
-84.382617244086674
 30
0.0
 11
-18.79712276034514
 21
-84.457290655993106
 31
0.0
  0
LINE
  5
2693
  8
SAPA_FOGBAND
  6
CONTINUOUS
 10
-18.436567632798742
 20
-84.457290655993106
 30
0.0
 11
-18.616845196571941
 21
-84.382617244086674
 31
0.0
  0
LINE
  5
2694
  8
SAPA_FOGBAND
  6
CONTINUOUS
 10
-18.79712276034514
 20
-84.457290655993106
 30
0.0
 11
-18.871796172251582
 21
-84.637568219766294
 31
0.0
  0
LINE
  5
2695
  8
SAPA_FOGBAND
  6
CONTINUOUS
 10
-18.436567632798742
 20
-84.457290655993106
 30
0.0
 11
-18.3618942208923
 21
-84.637568219766294
 31
0.0
  0
LINE
  5
2696
  8
SAPA_FOGBAND
  6
CONTINUOUS
 10
-18.436567632798742
 20
-84.817845783539497
 30
0.0
 11
-18.616845196571941
 21
-84.892519195445942
 31
0.0
  0
LINE
  5
2697
  8
SAPA_FOGBAND
  6
CONTINUOUS
 10
-18.616845196571941
 20
-84.892519195445942
 30
0.0
 11
-18.79712276034514
 21
-84.817845783539497
 31
0.0
  0
LINE
  5
2698
  8
SAPA_FOGBAND
  6
CONTINUOUS
 10
-18.871796172251582
 20
-84.637568219766294
 30
0.0
 11
-18.79712276034514
 21
-84.817845783539497
 31
0.0
  0
LINE
  5
2699
  8
SAPA_FOGBAND
  6
CONTINUOUS
 10
-18.3618942208923
 20
-84.637568219766294
 30
0.0
 11
-18.436567632798742
 21
-84.817845783539497
 31
0.0
  0
ENDBLK
  5
269B
  8
0
  0
BLOCK
  8
0
  2
*U182
 70
     1
 10
0.0
 20
0.0
 30
0.0
  3
*U182
  1

  0
SOLID
  5
27AE
  8
SAPA_FOGBAND
  6
CONTINUOUS
 10
18.629356795612921
 20
-84.773515879680104
 30
0.0
 11
18.449079231839718
 21
-84.848189291586536
 31
0.0
 12
18.80963435938612
 22
-84.848189291586536
 32
0.0
 13
18.80963435938612
 23
-84.848189291586536
 33
0.0
210
0.0
220
0.0
230
1.0
  0
SOLID
  5
27AF
  8
SAPA_FOGBAND
  6
CONTINUOUS
 10
18.449079231839718
 20
-84.848189291586536
 30
0.0
 11
18.37440581993328
 21
-85.028466855359738
 31
0.0
 12
18.884307771292558
 22
-85.028466855359738
 32
0.0
 13
18.884307771292558
 23
-85.028466855359738
 33
0.0
210
0.0
220
0.0
230
1.0
  0
SOLID
  5
27B0
  8
SAPA_FOGBAND
  6
CONTINUOUS
 10
-18.449079231839718
 20
-84.848189291586536
 30
0.0
 11
-18.80963435938612
 21
-84.848189291586536
 31
0.0
 12
-18.884307771292558
 22
-85.028466855359738
 32
0.0
 13
-18.884307771292558
 23
-85.028466855359738
 33
0.0
210
0.0
220
0.0
230
-1.0
  0
SOLID
  5
27B1
  8
SAPA_FOGBAND
  6
CONTINUOUS
 10
-18.449079231839718
 20
-85.208744419132941
 30
0.0
 11
-18.80963435938612
 21
-85.208744419132941
 31
0.0
 12
-18.629356795612921
 22
-85.283417831039387
 32
0.0
 13
-18.629356795612921
 23
-85.283417831039387
 33
0.0
210
0.0
220
0.0
230
-1.0
  0
SOLID
  5
27B2
  8
SAPA_FOGBAND
  6
CONTINUOUS
 10
18.37440581993328
 20
-85.028466855359738
 30
0.0
 11
18.449079231839718
 21
-85.208744419132941
 31
0.0
 12
18.80963435938612
 22
-85.208744419132941
 32
0.0
 13
18.80963435938612
 23
-85.208744419132941
 33
0.0
210
0.0
220
0.0
230
1.0
  0
SOLID
  5
27B3
  8
SAPA_FOGBAND
  6
CONTINUOUS
 10
-18.37440581993328
 20
-85.028466855359738
 30
0.0
 11
-18.884307771292558
 21
-85.028466855359738
 31
0.0
 12
-18.80963435938612
 22
-85.208744419132941
 32
0.0
 13
-18.80963435938612
 23
-85.208744419132941
 33
0.0
210
0.0
220
0.0
230
-1.0
  0
LINE
  5
27B4
  8
SAPA_FOGBAND
  6
CONTINUOUS
 10
18.629356795612921
 20
-84.773515879680104
 30
0.0
 11
18.449079231839718
 21
-84.848189291586536
 31
0.0
  0
LINE
  5
27B5
  8
SAPA_FOGBAND
  6
CONTINUOUS
 10
18.80963435938612
 20
-84.848189291586536
 30
0.0
 11
18.629356795612921
 21
-84.773515879680104
 31
0.0
  0
LINE
  5
27B6
  8
SAPA_FOGBAND
  6
CONTINUOUS
 10
18.449079231839718
 20
-84.848189291586536
 30
0.0
 11
18.37440581993328
 21
-85.028466855359738
 31
0.0
  0
LINE
  5
27B7
  8
SAPA_FOGBAND
  6
CONTINUOUS
 10
18.80963435938612
 20
-84.848189291586536
 30
0.0
 11
18.884307771292558
 21
-85.028466855359738
 31
0.0
  0
LINE
  5
27B8
  8
SAPA_FOGBAND
  6
CONTINUOUS
 10
18.80963435938612
 20
-85.208744419132941
 30
0.0
 11
18.629356795612921
 21
-85.283417831039387
 31
0.0
  0
LINE
  5
27B9
  8
SAPA_FOGBAND
  6
CONTINUOUS
 10
18.629356795612921
 20
-85.283417831039387
 30
0.0
 11
18.449079231839718
 21
-85.208744419132941
 31
0.0
  0
LINE
  5
27BA
  8
SAPA_FOGBAND
  6
CONTINUOUS
 10
18.37440581993328
 20
-85.028466855359738
 30
0.0
 11
18.449079231839718
 21
-85.208744419132941
 31
0.0
  0
LINE
  5
27BB
  8
SAPA_FOGBAND
  6
CONTINUOUS
 10
18.884307771292558
 20
-85.028466855359738
 30
0.0
 11
18.80963435938612
 21
-85.208744419132941
 31
0.0
  0
ENDBLK
  5
27BD
  8
0
  0
BLOCK
  8
0
  2
*U183
 70
     1
 10
0.0
 20
0.0
 30
0.0
  3
*U183
  1

  0
SOLID
  5
2828
  8
SAPA_FOGBAND
  6
CONTINUOUS
 10
-18.616845196571941
 20
-84.382617244086674
 30
0.0
 11
-18.79712276034514
 21
-84.457290655993106
 31
0.0
 12
-18.436567632798742
 22
-84.457290655993106
 32
0.0
 13
-18.436567632798742
 23
-84.457290655993106
 33
0.0
210
0.0
220
0.0
230
1.0
  0
SOLID
  5
2829
  8
SAPA_FOGBAND
  6
CONTINUOUS
 10
-18.79712276034514
 20
-84.457290655993106
 30
0.0
 11
-18.871796172251582
 21
-84.637568219766294
 31
0.0
 12
-18.3618942208923
 22
-84.637568219766294
 32
0.0
 13
-18.3618942208923
 23
-84.637568219766294
 33
0.0
210
0.0
220
0.0
230
1.0
  0
SOLID
  5
282A
  8
SAPA_FOGBAND
  6
CONTINUOUS
 10
18.79712276034514
 20
-84.457290655993106
 30
0.0
 11
18.436567632798742
 21
-84.457290655993106
 31
0.0
 12
18.3618942208923
 22
-84.637568219766294
 32
0.0
 13
18.3618942208923
 23
-84.637568219766294
 33
0.0
210
0.0
220
0.0
230
-1.0
  0
SOLID
  5
282B
  8
SAPA_FOGBAND
  6
CONTINUOUS
 10
18.79712276034514
 20
-84.817845783539497
 30
0.0
 11
18.436567632798742
 21
-84.817845783539497
 31
0.0
 12
18.616845196571941
 22
-84.892519195445942
 32
0.0
 13
18.616845196571941
 23
-84.892519195445942
 33
0.0
210
0.0
220
0.0
230
-1.0
  0
SOLID
  5
282C
  8
SAPA_FOGBAND
  6
CONTINUOUS
 10
-18.871796172251582
 20
-84.637568219766294
 30
0.0
 11
-18.79712276034514
 21
-84.817845783539497
 31
0.0
 12
-18.436567632798742
 22
-84.817845783539497
 32
0.0
 13
-18.436567632798742
 23
-84.817845783539497
 33
0.0
210
0.0
220
0.0
230
1.0
  0
SOLID
  5
282D
  8
SAPA_FOGBAND
  6
CONTINUOUS
 10
18.871796172251582
 20
-84.637568219766294
 30
0.0
 11
18.3618942208923
 21
-84.637568219766294
 31
0.0
 12
18.436567632798742
 22
-84.817845783539497
 32
0.0
 13
18.436567632798742
 23
-84.817845783539497
 33
0.0
210
0.0
220
0.0
230
-1.0
  0
LINE
  5
282E
  8
SAPA_FOGBAND
  6
CONTINUOUS
 10
-18.616845196571941
 20
-84.382617244086674
 30
0.0
 11
-18.79712276034514
 21
-84.457290655993106
 31
0.0
  0
LINE
  5
282F
  8
SAPA_FOGBAND
  6
CONTINUOUS
 10
-18.436567632798742
 20
-84.457290655993106
 30
0.0
 11
-18.616845196571941
 21
-84.382617244086674
 31
0.0
  0
LINE
  5
2830
  8
SAPA_FOGBAND
  6
CONTINUOUS
 10
-18.79712276034514
 20
-84.457290655993106
 30
0.0
 11
-18.871796172251582
 21
-84.637568219766294
 31
0.0
  0
LINE
  5
2831
  8
SAPA_FOGBAND
  6
CONTINUOUS
 10
-18.436567632798742
 20
-84.457290655993106
 30
0.0
 11
-18.3618942208923
 21
-84.637568219766294
 31
0.0
  0
LINE
  5
2832
  8
SAPA_FOGBAND
  6
CONTINUOUS
 10
-18.436567632798742
 20
-84.817845783539497
 30
0.0
 11
-18.616845196571941
 21
-84.892519195445942
 31
0.0
  0
LINE
  5
2833
  8
SAPA_FOGBAND
  6
CONTINUOUS
 10
-18.616845196571941
 20
-84.892519195445942
 30
0.0
 11
-18.79712276034514
 21
-84.817845783539497
 31
0.0
  0
LINE
  5
2834
  8
SAPA_FOGBAND
  6
CONTINUOUS
 10
-18.871796172251582
 20
-84.637568219766294
 30
0.0
 11
-18.79712276034514
 21
-84.817845783539497
 31
0.0
  0
LINE
  5
2835
  8
SAPA_FOGBAND
  6
CONTINUOUS
 10
-18.3618942208923
 20
-84.637568219766294
 30
0.0
 11
-18.436567632798742
 21
-84.817845783539497
 31
0.0
  0
ENDBLK
  5
2837
  8
0
  0
BLOCK
  8
0
  2
*U184
 70
     1
 10
0.0
 20
0.0
 30
0.0
  3
*U184
  1

  0
SOLID
  5
294A
  8
SAPA_FOGBAND
  6
CONTINUOUS
 10
18.629356795612921
 20
-84.773515879680104
 30
0.0
 11
18.449079231839718
 21
-84.848189291586536
 31
0.0
 12
18.80963435938612
 22
-84.848189291586536
 32
0.0
 13
18.80963435938612
 23
-84.848189291586536
 33
0.0
210
0.0
220
0.0
230
1.0
  0
SOLID
  5
294B
  8
SAPA_FOGBAND
  6
CONTINUOUS
 10
18.449079231839718
 20
-84.848189291586536
 30
0.0
 11
18.37440581993328
 21
-85.028466855359738
 31
0.0
 12
18.884307771292558
 22
-85.028466855359738
 32
0.0
 13
18.884307771292558
 23
-85.028466855359738
 33
0.0
210
0.0
220
0.0
230
1.0
  0
SOLID
  5
294C
  8
SAPA_FOGBAND
  6
CONTINUOUS
 10
-18.449079231839718
 20
-84.848189291586536
 30
0.0
 11
-18.80963435938612
 21
-84.848189291586536
 31
0.0
 12
-18.884307771292558
 22
-85.028466855359738
 32
0.0
 13
-18.884307771292558
 23
-85.028466855359738
 33
0.0
210
0.0
220
0.0
230
-1.0
  0
SOLID
  5
294D
  8
SAPA_FOGBAND
  6
CONTINUOUS
 10
-18.449079231839718
 20
-85.208744419132941
 30
0.0
 11
-18.80963435938612
 21
-85.208744419132941
 31
0.0
 12
-18.629356795612921
 22
-85.283417831039387
 32
0.0
 13
-18.629356795612921
 23
-85.283417831039387
 33
0.0
210
0.0
220
0.0
230
-1.0
  0
SOLID
  5
294E
  8
SAPA_FOGBAND
  6
CONTINUOUS
 10
18.37440581993328
 20
-85.028466855359738
 30
0.0
 11
18.449079231839718
 21
-85.208744419132941
 31
0.0
 12
18.80963435938612
 22
-85.208744419132941
 32
0.0
 13
18.80963435938612
 23
-85.208744419132941
 33
0.0
210
0.0
220
0.0
230
1.0
  0
SOLID
  5
294F
  8
SAPA_FOGBAND
  6
CONTINUOUS
 10
-18.37440581993328
 20
-85.028466855359738
 30
0.0
 11
-18.884307771292558
 21
-85.028466855359738
 31
0.0
 12
-18.80963435938612
 22
-85.208744419132941
 32
0.0
 13
-18.80963435938612
 23
-85.208744419132941
 33
0.0
210
0.0
220
0.0
230
-1.0
  0
LINE
  5
2950
  8
SAPA_FOGBAND
  6
CONTINUOUS
 10
18.629356795612921
 20
-84.773515879680104
 30
0.0
 11
18.449079231839718
 21
-84.848189291586536
 31
0.0
  0
LINE
  5
2951
  8
SAPA_FOGBAND
  6
CONTINUOUS
 10
18.80963435938612
 20
-84.848189291586536
 30
0.0
 11
18.629356795612921
 21
-84.773515879680104
 31
0.0
  0
LINE
  5
2952
  8
SAPA_FOGBAND
  6
CONTINUOUS
 10
18.449079231839718
 20
-84.848189291586536
 30
0.0
 11
18.37440581993328
 21
-85.028466855359738
 31
0.0
  0
LINE
  5
2953
  8
SAPA_FOGBAND
  6
CONTINUOUS
 10
18.80963435938612
 20
-84.848189291586536
 30
0.0
 11
18.884307771292558
 21
-85.028466855359738
 31
0.0
  0
LINE
  5
2954
  8
SAPA_FOGBAND
  6
CONTINUOUS
 10
18.80963435938612
 20
-85.208744419132941
 30
0.0
 11
18.629356795612921
 21
-85.283417831039387
 31
0.0
  0
LINE
  5
2955
  8
SAPA_FOGBAND
  6
CONTINUOUS
 10
18.629356795612921
 20
-85.283417831039387
 30
0.0
 11
18.449079231839718
 21
-85.208744419132941
 31
0.0
  0
LINE
  5
2956
  8
SAPA_FOGBAND
  6
CONTINUOUS
 10
18.37440581993328
 20
-85.028466855359738
 30
0.0
 11
18.449079231839718
 21
-85.208744419132941
 31
0.0
  0
LINE
  5
2957
  8
SAPA_FOGBAND
  6
CONTINUOUS
 10
18.884307771292558
 20
-85.028466855359738
 30
0.0
 11
18.80963435938612
 21
-85.208744419132941
 31
0.0
  0
ENDBLK
  5
2959
  8
0
  0
BLOCK
  8
0
  2
*U185
 70
     1
 10
0.0
 20
0.0
 30
0.0
  3
*U185
  1

  0
TEXT
  5
29E1
  8
SAPA_MATT
 62
     2
 10
-2.1000000000003398
 20
-124.65375231270581
 30
0.0
 40
3.0
  1
50
  7
ISO
  0
ENDBLK
  5
29E3
  8
0
  0
ENDSEC
  0
SECTION
  2
ENTITIES
  0
INSERT
  5
6F2
  8
0
  2
*U175
 10
0.0
 20
0.0
 30
0.0
  0
INSERT
  5
6F3
  8
0
  2
*U176
 10
0.0
 20
0.0
 30
0.0
  0
INSERT
  5
6F4
  8
0
  2
*U177
 10
0.0
 20
0.0
 30
0.0
  0
POLYLINE
  5
720
  8
SAPA_LIGHT
 66
     1
 10
0.0
 20
0.0
 30
0.0
  0
VERTEX
  5
1910
  8
SAPA_LIGHT
 10
-129.99999999996729
 20
-35.550000081740961
 30
0.0
  0
VERTEX
  5
1911
  8
SAPA_LIGHT
 10
-99.999999999967315
 20
-35.550000081740961
 30
0.0
  0
VERTEX
  5
1912
  8
SAPA_LIGHT
 10
-99.999999999967315
 20
-73.550000081742326
 30
0.0
  0
VERTEX
  5
1913
  8
SAPA_LIGHT
 10
-129.9999999999684
 20
-73.550000081742326
 30
0.0
  0
SEQEND
  5
1914
  8
SAPA_LIGHT
  0
POLYLINE
  5
7C1
  8
SAPA_LIGHT
 66
     1
 10
0.0
 20
0.0
 30
0.0
  0
VERTEX
  5
1915
  8
SAPA_LIGHT
 10
-74.49999999996669
 20
-82.500000000018474
 30
0.0
  0
VERTEX
  5
1916
  8
SAPA_LIGHT
 10
-12.99999999999862
 20
-82.499999999011948
 30
0.0
  0
VERTEX
  5
1917
  8
SAPA_LIGHT
 10
-12.99999999999862
 20
-58.500000000002267
 30
0.0
  0
VERTEX
  5
1918
  8
SAPA_LIGHT
 10
-30.19999999999969
 20
-58.510975989765143
 30
0.0
  0
VERTEX
  5
1919
  8
SAPA_LIGHT
 10
-29.999999999999091
 20
-11.38861643487151
 30
0.0
  0
VERTEX
  5
191A
  8
SAPA_LIGHT
 10
-29.968745704598749
 20
-8.5000000031935201
 30
0.0
  0
VERTEX
  5
191B
  8
SAPA_LIGHT
 10
-52.499999999998963
 20
-8.5000000031935201
 30
0.0
  0
VERTEX
  5
191C
  8
SAPA_LIGHT
 10
-52.499999999998877
 20
-77.050000003795503
 30
0.0
  0
VERTEX
  5
191D
  8
SAPA_LIGHT
 10
-74.500000000177664
 20
-77.050000003795503
 30
0.0
  0
VERTEX
  5
191E
  8
SAPA_LIGHT
 10
-74.500000000104066
 20
-82.500000000018474
 30
0.0
  0
SEQEND
  5
191F
  8
SAPA_LIGHT
  0
POLYLINE
  5
7C2
  8
SAPA_LIGHT
 66
     1
 10
0.0
 20
0.0
 30
0.0
  0
VERTEX
  5
1920
  8
SAPA_LIGHT
 10
-116.9999999999347
 20
-82.500000003811977
 30
0.0
  0
VERTEX
  5
1921
  8
SAPA_LIGHT
 10
-79.499999999967486
 20
-82.500000003812005
 30
0.0
  0
VERTEX
  5
1922
  8
SAPA_LIGHT
 10
-79.499999999967486
 20
-77.050000003795446
 30
0.0
  0
VERTEX
  5
1923
  8
SAPA_LIGHT
 10
-72.500000000041837
 20
-77.050000003795503
 30
0.0
  0
VERTEX
  5
1924
  8
SAPA_LIGHT
 10
-72.500000000041837
 20
-63.853716957736218
 30
0.0
  0
VERTEX
  5
1925
  8
SAPA_LIGHT
 10
-66.500000000041609
 20
-63.853716957736239
 30
0.0
  0
VERTEX
  5
1926
  8
SAPA_LIGHT
 10
-66.500000000042064
 20
-30.500000006902891
 30
0.0
  0
VERTEX
  5
1927
  8
SAPA_LIGHT
 10
-64.000000000042519
 20
-30.500000006902891
 30
0.0
  0
VERTEX
  5
1928
  8
SAPA_LIGHT
 10
-64.000000000042476
 20
-8.5000000031935201
 30
0.0
  0
VERTEX
  5
1929
  8
SAPA_LIGHT
 10
-46.50000000004205
 20
-8.5000000031935201
 30
0.0
  0
VERTEX
  5
192A
  8
SAPA_LIGHT
 10
-46.500000000042057
 20
1.0000000012918799
 30
0.0
  0
VERTEX
  5
192B
  8
SAPA_LIGHT
 10
-87.783121633558267
 20
0.9999999961233356
 30
0.0
  0
VERTEX
  5
192C
  8
SAPA_LIGHT
 10
-90.381197844408007
 20
-0.5000000038765508
 30
0.0
  0
VERTEX
  5
192D
  8
SAPA_LIGHT
 10
-94.866025403751777
 20
-8.2679491998451908
 30
0.0
  0
VERTEX
  5
192E
  8
SAPA_LIGHT
 10
-94.999999999967486
 20
-8.7679491998454466
 30
0.0
  0
VERTEX
  5
192F
  8
SAPA_LIGHT
 10
-94.999999999967514
 20
-10.00000000207114
 30
0.0
  0
VERTEX
  5
1930
  8
SAPA_LIGHT
 10
-116.9999999999812
 20
-10.00000000207114
 30
0.0
  0
VERTEX
  5
1931
  8
SAPA_LIGHT
 10
-116.9999999999812
 20
-35.550000081742333
 30
0.0
  0
VERTEX
  5
1932
  8
SAPA_LIGHT
 10
-94.69487763316404
 20
-35.550000081742333
 30
0.0
  0
VERTEX
  5
1933
  8
SAPA_LIGHT
 10
-94.694877633164054
 20
-73.550000081741643
 30
0.0
  0
VERTEX
  5
1934
  8
SAPA_LIGHT
 10
-117.0000000001466
 20
-73.5500000817417
 30
0.0
  0
VERTEX
  5
1935
  8
SAPA_LIGHT
 10
-116.9999999999347
 20
-82.500000003811977
 30
0.0
  0
SEQEND
  5
1936
  8
SAPA_LIGHT
  0
POLYLINE
  5
7C9
  8
SAPA_LIGHT
 66
     1
 10
0.0
 20
0.0
 30
0.0
  0
VERTEX
  5
1937
  8
SAPA_LIGHT
 10
-129.99999999996771
 20
-35.55000008174018
 30
0.0
  0
VERTEX
  5
1938
  8
SAPA_LIGHT
 10
-99.99999999996777
 20
-35.55000008174018
 30
0.0
  0
VERTEX
  5
1939
  8
SAPA_LIGHT
 10
-99.999999999967315
 20
-73.550000081741643
 30
0.0
  0
VERTEX
  5
193A
  8
SAPA_LIGHT
 10
-129.99999999996729
 20
-73.550000081741643
 30
0.0
  0
SEQEND
  5
193B
  8
SAPA_LIGHT
  0
LINE
  5
907
  8
SAPA_PROFIL
 10
5.0104732981108091
 20
-85.575131323639653
 30
0.0
 11
5.0104732981126281
 21
-86.575131323639638
 31
0.0
  0
POLYLINE
  5
952
  8
SAPA_LIGHT
 66
     1
 10
0.0
 20
0.0
 30
0.0
  0
VERTEX
  5
193C
  8
SAPA_LIGHT
 10
40.999999999995673
 20
-44.499999999010242
 30
0.0
  0
VERTEX
  5
193D
  8
SAPA_LIGHT
 10
10.99999999999568
 20
-44.499999999010242
 30
0.0
  0
VERTEX
  5
193E
  8
SAPA_LIGHT
 10
10.99999999999568
 20
-82.499999999011834
 30
0.0
  0
VERTEX
  5
193F
  8
SAPA_LIGHT
 10
40.999999999995673
 20
-82.499999999011834
 30
0.0
  0
SEQEND
  5
1940
  8
SAPA_LIGHT
  0
LINE
  5
95C
  8
SAPA_LIGHT
 10
124.9999999999997
 20
-86.499999999010456
 30
0.0
 11
124.9999999999997
 21
-86.499999999010456
 31
0.0
  0
LINE
  5
95E
  8
SAPA_LIGHT
 10
124.99005439635221
 20
-45.499999999010313
 30
0.0
 11
124.9999999999998
 21
-45.499999999010313
 31
0.0
  0
POLYLINE
  5
967
  8
SAPA_LIGHT
 66
     1
 10
0.0
 20
0.0
 30
0.0
 70
     1
  0
VERTEX
  5
1941
  8
SAPA_LIGHT
 10
5.0
 20
-82.499999999011834
 30
0.0
  0
VERTEX
  5
1942
  8
SAPA_LIGHT
 10
5.0000000000002274
 20
-44.499999999010242
 30
0.0
  0
VERTEX
  5
1943
  8
SAPA_LIGHT
 10
24.999999999999829
 20
-44.499999999010242
 30
0.0
  0
VERTEX
  5
1944
  8
SAPA_LIGHT
 10
25.000000000000231
 20
64.499999999998863
 30
0.0
  0
VERTEX
  5
1945
  8
SAPA_LIGHT
 10
-24.999999999999769
 20
64.499999999998863
 30
0.0
  0
VERTEX
  5
1946
  8
SAPA_LIGHT
 10
-24.999999999999218
 20
-58.500000000018197
 30
0.0
  0
VERTEX
  5
1947
  8
SAPA_LIGHT
 10
-4.9999999999997717
 20
-58.500000000002267
 30
0.0
  0
VERTEX
  5
1948
  8
SAPA_LIGHT
 10
-4.9999999999995586
 20
-82.499999999011933
 30
0.0
  0
VERTEX
  5
1949
  8
SAPA_LIGHT
 10
-24.999999999836689
 20
-82.499999999208342
 30
0.0
  0
VERTEX
  5
194A
  8
SAPA_LIGHT
 10
-25.000000000000341
 20
-106.4999999990104
 30
0.0
  0
VERTEX
  5
194B
  8
SAPA_LIGHT
 10
24.999999999999691
 20
-106.4999999990104
 30
0.0
  0
VERTEX
  5
194C
  8
SAPA_LIGHT
 10
24.99999999999973
 20
-86.499999999010456
 30
0.0
  0
VERTEX
  5
194D
  8
SAPA_LIGHT
 10
24.999029697204868
 20
-82.499999999011834
 30
0.0
  0
SEQEND
  5
194E
  8
SAPA_LIGHT
  0
INSERT
  5
DA0
  8
0
  2
*U178
 10
0.0
 20
0.0
 30
0.0
  0
INSERT
  5
DA1
  8
0
  2
*U179
 10
0.0
 20
0.0
 30
0.0
  0
INSERT
  5
DA2
  8
0
  2
*U180
 10
0.0
 20
0.0
 30
0.0
  0
POLYLINE
  5
17B9
  8
SAPA_PROFIL
  6
CONTINUOUS
 66
     1
 10
0.0
 20
0.0
 30
0.0
 70
     1
  0
VERTEX
  5
1FF2
  8
SAPA_PROFIL
  6
CONTINUOUS
 10
-53.499999999018499
 20
-68.514627230068484
 30
0.0
 42
-0.2596812337301868
  0
VERTEX
  5
1FF3
  8
SAPA_PROFIL
  6
CONTINUOUS
 10
-53.405306803770202
 20
-68.344596418528397
 30
0.0
  0
VERTEX
  5
1FF4
  8
SAPA_PROFIL
  6
CONTINUOUS
 10
-52.75796020614608
 20
-67.943669073976594
 30
0.0
 42
-0.5877032589248397
  0
VERTEX
  5
1FF5
  8
SAPA_PROFIL
  6
CONTINUOUS
 10
-52.299999999018198
 20
-68.198715291286476
 30
0.0
  0
VERTEX
  5
1FF6
  8
SAPA_PROFIL
  6
CONTINUOUS
 10
-52.299999999018198
 20
-68.598715295421599
 30
0.0
 42
0.4142135623731645
  0
VERTEX
  5
1FF7
  8
SAPA_PROFIL
  6
CONTINUOUS
 10
-51.999999999018499
 20
-68.898715295421823
 30
0.0
  0
VERTEX
  5
1FF8
  8
SAPA_PROFIL
  6
CONTINUOUS
 10
-48.799999999899981
 20
-68.898715295421795
 30
0.0
 42
0.4142135623731021
  0
VERTEX
  5
1FF9
  8
SAPA_PROFIL
  6
CONTINUOUS
 10
-48.499999999899963
 20
-68.598715295421783
 30
0.0
  0
VERTEX
  5
1FFA
  8
SAPA_PROFIL
  6
CONTINUOUS
 10
-48.499999999899998
 20
-62.798715294908192
 30
0.0
 42
0.4142135623730951
  0
VERTEX
  5
1FFB
  8
SAPA_PROFIL
  6
CONTINUOUS
 10
-48.799999999899981
 20
-62.498715294908202
 30
0.0
  0
VERTEX
  5
1FFC
  8
SAPA_PROFIL
  6
CONTINUOUS
 10
-51.199999999899987
 20
-62.49871529490818
 30
0.0
 42
0.4142135623730811
  0
VERTEX
  5
1FFD
  8
SAPA_PROFIL
  6
CONTINUOUS
 10
-51.499999999899977
 20
-62.798715294908192
 30
0.0
  0
VERTEX
  5
1FFE
  8
SAPA_PROFIL
  6
CONTINUOUS
 10
-51.499999999899998
 20
-64.198715807173983
 30
0.0
 42
-0.5920056181165752
  0
VERTEX
  5
1FFF
  8
SAPA_PROFIL
  6
CONTINUOUS
 10
-51.961203502425789
 20
-64.451724563491695
 30
0.0
  0
VERTEX
  5
2000
  8
SAPA_PROFIL
  6
CONTINUOUS
 10
-53.161203502425892
 20
-63.687149432391692
 30
0.0
 42
-0.2562769736741619
  0
VERTEX
  5
2001
  8
SAPA_PROFIL
  6
CONTINUOUS
 10
-53.299999999899981
 20
-63.43414067607408
 30
0.0
  0
VERTEX
  5
2002
  8
SAPA_PROFIL
  6
CONTINUOUS
 10
-53.299999999900571
 20
-60.496550053245628
 30
0.0
  0
VERTEX
  5
2003
  8
SAPA_PROFIL
  6
CONTINUOUS
 10
-52.789377747997733
 20
-59.175433952305141
 30
0.0
 42
0.4142135623730961
  0
VERTEX
  5
2004
  8
SAPA_PROFIL
  6
CONTINUOUS
 10
-52.98934179250513
 20
-58.801248996829322
 30
0.0
  0
VERTEX
  5
2005
  8
SAPA_PROFIL
  6
CONTINUOUS
 10
-53.101573983119522
 20
-58.770401641448949
 30
0.0
  0
VERTEX
  5
2006
  8
SAPA_PROFIL
  6
CONTINUOUS
 10
-53.183208632443659
 20
-57.261321413033471
 30
0.0
 42
-0.494012837111175
  0
VERTEX
  5
2007
  8
SAPA_PROFIL
  6
CONTINUOUS
 10
-52.820948347026288
 20
-56.951741355807492
 30
0.0
  0
VERTEX
  5
2008
  8
SAPA_PROFIL
  6
CONTINUOUS
 10
-50.852383804783152
 20
-57.362823278441468
 30
0.0
 42
-0.2216946626430119
  0
VERTEX
  5
2009
  8
SAPA_PROFIL
  6
CONTINUOUS
 10
-50.311503973306301
 20
-57.76863218359626
 30
0.0
  0
VERTEX
  5
200A
  8
SAPA_PROFIL
  6
CONTINUOUS
 10
-50.159370062197588
 20
-58.053314466827899
 30
0.0
 42
-0.5773502691896845
  0
VERTEX
  5
200B
  8
SAPA_PROFIL
  6
CONTINUOUS
 10
-50.342323802307718
 20
-58.347470767082719
 30
0.0
  0
VERTEX
  5
200C
  8
SAPA_PROFIL
  6
CONTINUOUS
 10
-50.664081530526019
 20
-58.33690940085576
 30
0.0
  0
VERTEX
  5
200D
  8
SAPA_PROFIL
  6
CONTINUOUS
 10
-51.748645977497759
 20
-60.222753092716822
 30
0.0
  0
VERTEX
  5
200E
  8
SAPA_PROFIL
  6
CONTINUOUS
 10
-51.806719614486852
 20
-60.414136092710542
 30
0.0
 42
0.7625858545244327
  0
VERTEX
  5
200F
  8
SAPA_PROFIL
  6
CONTINUOUS
 10
-51.47639353346981
 20
-60.598715294908018
 30
0.0
 42
-0.2134217652834393
  0
VERTEX
  5
2010
  8
SAPA_PROFIL
  6
CONTINUOUS
 10
-51.25278673571971
 20
-60.498715294907917
 30
0.0
  0
VERTEX
  5
2011
  8
SAPA_PROFIL
  6
CONTINUOUS
 10
-51.252786999899897
 20
-60.498715294908081
 30
0.0
  0
VERTEX
  5
2012
  8
SAPA_PROFIL
  6
CONTINUOUS
 10
-47.399999999899968
 20
-60.49871529490818
 30
0.0
 42
0.4142139999559429
  0
VERTEX
  5
2013
  8
SAPA_PROFIL
  6
CONTINUOUS
 10
-47.099999999900056
 20
-60.198715294908069
 30
0.0
  0
VERTEX
  5
2014
  8
SAPA_PROFIL
  6
CONTINUOUS
 10
-47.099999999900071
 20
-59.898715294908079
 30
0.0
  0
VERTEX
  5
2015
  8
SAPA_PROFIL
  6
CONTINUOUS
 10
-47.849720999899994
 20
-58.600161294908069
 30
0.0
  0
VERTEX
  5
2016
  8
SAPA_PROFIL
  6
CONTINUOUS
 10
-48.022873999897897
 20
-58.298206294906862
 30
0.0
 42
-0.5763720000355616
  0
VERTEX
  5
2017
  8
SAPA_PROFIL
  6
CONTINUOUS
 10
-47.849375999899969
 20
-57.998715294908173
 30
0.0
  0
VERTEX
  5
2018
  8
SAPA_PROFIL
  6
CONTINUOUS
 10
-46.464914999900053
 20
-57.99871529490769
 30
0.0
 42
-0.2679490000000105
  0
VERTEX
  5
2019
  8
SAPA_PROFIL
  6
CONTINUOUS
 10
-45.598888999899977
 20
-58.49871529490769
 30
0.0
  0
VERTEX
  5
201A
  8
SAPA_PROFIL
  6
CONTINUOUS
 10
-44.588527103944472
 20
-60.24871511469717
 30
0.0
 42
0.2679493039457093
  0
VERTEX
  5
201B
  8
SAPA_PROFIL
  6
CONTINUOUS
 10
-44.155514298007773
 20
-60.498715294907583
 30
0.0
  0
VERTEX
  5
201C
  8
SAPA_PROFIL
  6
CONTINUOUS
 10
-40.344485999899852
 20
-60.49871529490769
 30
0.0
 42
0.2679489999997284
  0
VERTEX
  5
201D
  8
SAPA_PROFIL
  6
CONTINUOUS
 10
-39.911472999900042
 20
-60.24871529490769
 30
0.0
  0
VERTEX
  5
201E
  8
SAPA_PROFIL
  6
CONTINUOUS
 10
-38.901110999900077
 20
-58.49871529490769
 30
0.0
 42
-0.2679490000000243
  0
VERTEX
  5
201F
  8
SAPA_PROFIL
  6
CONTINUOUS
 10
-38.03508499989988
 20
-57.99871529490769
 30
0.0
  0
VERTEX
  5
2020
  8
SAPA_PROFIL
  6
CONTINUOUS
 10
-36.650623999900013
 20
-57.99871529490818
 30
0.0
 42
-0.5763720000353817
  0
VERTEX
  5
2021
  8
SAPA_PROFIL
  6
CONTINUOUS
 10
-36.477125999902071
 20
-58.298206294906862
 30
0.0
  0
VERTEX
  5
2022
  8
SAPA_PROFIL
  6
CONTINUOUS
 10
-36.650278999900081
 20
-58.600161294908069
 30
0.0
  0
VERTEX
  5
2023
  8
SAPA_PROFIL
  6
CONTINUOUS
 10
-37.399999999899961
 20
-59.898715294908079
 30
0.0
  0
VERTEX
  5
2024
  8
SAPA_PROFIL
  6
CONTINUOUS
 10
-37.399999999899961
 20
-60.198715294908069
 30
0.0
 42
0.4142139999560329
  0
VERTEX
  5
2025
  8
SAPA_PROFIL
  6
CONTINUOUS
 10
-37.099999999900007
 20
-60.498715294908152
 30
0.0
  0
VERTEX
  5
2026
  8
SAPA_PROFIL
  6
CONTINUOUS
 10
-33.24721299990005
 20
-60.498715294907917
 30
0.0
  0
VERTEX
  5
2027
  8
SAPA_PROFIL
  6
CONTINUOUS
 10
-33.247213264080258
 20
-60.498715294907917
 30
0.0
 42
-0.2134217652834345
  0
VERTEX
  5
2028
  8
SAPA_PROFIL
  6
CONTINUOUS
 10
-33.023606466330151
 20
-60.598715294908018
 30
0.0
 42
0.7625858545244327
  0
VERTEX
  5
2029
  8
SAPA_PROFIL
  6
CONTINUOUS
 10
-32.693280385313123
 20
-60.414136092710542
 30
0.0
  0
VERTEX
  5
202A
  8
SAPA_PROFIL
  6
CONTINUOUS
 10
-32.751354022302209
 20
-60.222753092716822
 30
0.0
  0
VERTEX
  5
202B
  8
SAPA_PROFIL
  6
CONTINUOUS
 10
-33.835918469273949
 20
-58.33690940085576
 30
0.0
  0
VERTEX
  5
202C
  8
SAPA_PROFIL
  6
CONTINUOUS
 10
-34.15767619749225
 20
-58.347470767082719
 30
0.0
 42
-0.5773502691896831
  0
VERTEX
  5
202D
  8
SAPA_PROFIL
  6
CONTINUOUS
 10
-34.34062993760238
 20
-58.053314466827899
 30
0.0
  0
VERTEX
  5
202E
  8
SAPA_PROFIL
  6
CONTINUOUS
 10
-34.188496026493667
 20
-57.76863218359626
 30
0.0
 42
-0.2216946626430123
  0
VERTEX
  5
202F
  8
SAPA_PROFIL
  6
CONTINUOUS
 10
-33.647616195016823
 20
-57.362823278441468
 30
0.0
  0
VERTEX
  5
2030
  8
SAPA_PROFIL
  6
CONTINUOUS
 10
-31.67905165277368
 20
-56.951741355807492
 30
0.0
 42
-0.4940128371111735
  0
VERTEX
  5
2031
  8
SAPA_PROFIL
  6
CONTINUOUS
 10
-31.316791367356299
 20
-57.261321413033471
 30
0.0
  0
VERTEX
  5
2032
  8
SAPA_PROFIL
  6
CONTINUOUS
 10
-31.39842601668045
 20
-58.770401641448949
 30
0.0
  0
VERTEX
  5
2033
  8
SAPA_PROFIL
  6
CONTINUOUS
 10
-31.510658207294838
 20
-58.801248996829322
 30
0.0
 42
0.4142135623730952
  0
VERTEX
  5
2034
  8
SAPA_PROFIL
  6
CONTINUOUS
 10
-31.710622251802238
 20
-59.175433952305141
 30
0.0
  0
VERTEX
  5
2035
  8
SAPA_PROFIL
  6
CONTINUOUS
 10
-31.199999999899379
 20
-60.49655005324567
 30
0.0
  0
VERTEX
  5
2036
  8
SAPA_PROFIL
  6
CONTINUOUS
 10
-31.199999999899969
 20
-63.43414067605908
 30
0.0
 42
-0.256276973687627
  0
VERTEX
  5
2037
  8
SAPA_PROFIL
  6
CONTINUOUS
 10
-31.338796497399901
 20
-63.687149432408063
 30
0.0
  0
VERTEX
  5
2038
  8
SAPA_PROFIL
  6
CONTINUOUS
 10
-32.538796497399893
 20
-64.451724563508094
 30
0.0
 42
-0.5920056180425383
  0
VERTEX
  5
2039
  8
SAPA_PROFIL
  6
CONTINUOUS
 10
-32.999999999899963
 20
-64.198715807108073
 30
0.0
  0
VERTEX
  5
203A
  8
SAPA_PROFIL
  6
CONTINUOUS
 10
-32.999999999899963
 20
-62.798715294908192
 30
0.0
 42
0.4142139999560674
  0
VERTEX
  5
203B
  8
SAPA_PROFIL
  6
CONTINUOUS
 10
-33.299999999900081
 20
-62.49871529490818
 30
0.0
  0
VERTEX
  5
203C
  8
SAPA_PROFIL
  6
CONTINUOUS
 10
-35.69999999989998
 20
-62.49871529490818
 30
0.0
 42
0.4142139999559601
  0
VERTEX
  5
203D
  8
SAPA_PROFIL
  6
CONTINUOUS
 10
-35.999999999899963
 20
-62.798715294908192
 30
0.0
  0
VERTEX
  5
203E
  8
SAPA_PROFIL
  6
CONTINUOUS
 10
-35.999999999899963
 20
-68.598715295421783
 30
0.0
 42
0.414213562373102
  0
VERTEX
  5
203F
  8
SAPA_PROFIL
  6
CONTINUOUS
 10
-35.69999999989998
 20
-68.898715295421795
 30
0.0
  0
VERTEX
  5
2040
  8
SAPA_PROFIL
  6
CONTINUOUS
 10
-32.499999999899792
 20
-68.898715295421795
 30
0.0
 42
0.4142135623732028
  0
VERTEX
  5
2041
  8
SAPA_PROFIL
  6
CONTINUOUS
 10
-32.199999999899923
 20
-68.598715295421599
 30
0.0
  0
VERTEX
  5
2042
  8
SAPA_PROFIL
  6
CONTINUOUS
 10
-32.199999999899887
 20
-68.19871529128649
 30
0.0
 42
-0.5877032589248904
  0
VERTEX
  5
2043
  8
SAPA_PROFIL
  6
CONTINUOUS
 10
-31.742039792772299
 20
-67.943669073976594
 30
0.0
  0
VERTEX
  5
2044
  8
SAPA_PROFIL
  6
CONTINUOUS
 10
-31.094693195148071
 20
-68.34459641852834
 30
0.0
 42
-0.2596812337301491
  0
VERTEX
  5
2045
  8
SAPA_PROFIL
  6
CONTINUOUS
 10
-30.999999999899789
 20
-68.514627230068484
 30
0.0
  0
VERTEX
  5
2046
  8
SAPA_PROFIL
  6
CONTINUOUS
 10
-30.999999999899789
 20
-69.998715295421675
 30
0.0
 42
-0.4142135623730984
  0
VERTEX
  5
2047
  8
SAPA_PROFIL
  6
CONTINUOUS
 10
-31.299999999899789
 20
-70.298715295421474
 30
0.0
  0
VERTEX
  5
2048
  8
SAPA_PROFIL
  6
CONTINUOUS
 10
-35.69999999989998
 20
-70.298715295421886
 30
0.0
 42
0.414213562373102
  0
VERTEX
  5
2049
  8
SAPA_PROFIL
  6
CONTINUOUS
 10
-35.999999999899963
 20
-70.598715295421883
 30
0.0
  0
VERTEX
  5
204A
  8
SAPA_PROFIL
  6
CONTINUOUS
 10
-35.99999999989987
 20
-80.198715294908126
 30
0.0
 42
0.4142135623730188
  0
VERTEX
  5
204B
  8
SAPA_PROFIL
  6
CONTINUOUS
 10
-35.69999999989998
 20
-80.498715294908123
 30
0.0
  0
VERTEX
  5
204C
  8
SAPA_PROFIL
  6
CONTINUOUS
 10
-33.299999999900081
 20
-80.498715294908152
 30
0.0
 42
0.4142135623730673
  0
VERTEX
  5
204D
  8
SAPA_PROFIL
  6
CONTINUOUS
 10
-32.999999999899963
 20
-80.198715294908141
 30
0.0
  0
VERTEX
  5
204E
  8
SAPA_PROFIL
  6
CONTINUOUS
 10
-32.999999999899913
 20
-78.798715561108125
 30
0.0
 42
-0.5877032589046084
  0
VERTEX
  5
204F
  8
SAPA_PROFIL
  6
CONTINUOUS
 10
-32.542039792799891
 20
-78.543669343808133
 30
0.0
  0
VERTEX
  5
2050
  8
SAPA_PROFIL
  6
CONTINUOUS
 10
-31.142039792773421
 20
-79.410744701024669
 30
0.0
 42
-0.2596812337311998
  0
VERTEX
  5
2051
  8
SAPA_PROFIL
  6
CONTINUOUS
 10
-30.999999999900069
 20
-79.665790918335347
 30
0.0
  0
VERTEX
  5
2052
  8
SAPA_PROFIL
  6
CONTINUOUS
 10
-30.999999999899959
 20
-80.41063208859606
 30
0.0
 42
0.4023941304326696
  0
VERTEX
  5
2053
  8
SAPA_PROFIL
  6
CONTINUOUS
 10
-30.712153278576199
 20
-80.710385817209115
 30
0.0
  0
VERTEX
  5
2054
  8
SAPA_PROFIL
  6
CONTINUOUS
 10
-16.239094457099881
 20
-81.297184580208125
 30
0.0
 42
0.4373282586143014
  0
VERTEX
  5
2055
  8
SAPA_PROFIL
  6
CONTINUOUS
 10
-15.69999999979996
 20
-80.798715299908139
 30
0.0
  0
VERTEX
  5
2056
  8
SAPA_PROFIL
  6
CONTINUOUS
 10
-15.69999999979987
 20
-79.969884212120121
 30
0.0
 42
0.3639702342826234
  0
VERTEX
  5
2057
  8
SAPA_PROFIL
  6
CONTINUOUS
 10
-16.11317591099499
 20
-79.477480335608973
 30
0.0
  0
VERTEX
  5
2058
  8
SAPA_PROFIL
  6
CONTINUOUS
 10
-17.286824088599982
 20
-79.270534496108141
 30
0.0
 42
-0.8390996312315433
  0
VERTEX
  5
2059
  8
SAPA_PROFIL
  6
CONTINUOUS
 10
-17.286824088599872
 20
-78.285726743108114
 30
0.0
  0
VERTEX
  5
205A
  8
SAPA_PROFIL
  6
CONTINUOUS
 10
-15.71675143259999
 20
-78.008880572108083
 30
0.0
 42
-0.0436609428925317
  0
VERTEX
  5
205B
  8
SAPA_PROFIL
  6
CONTINUOUS
 10
-15.62992734379999
 20
-78.001284448619941
 30
0.0
  0
VERTEX
  5
205C
  8
SAPA_PROFIL
  6
CONTINUOUS
 10
-14.63245553169987
 20
-78.00128444860826
 30
0.0
 42
-0.2896898633456171
  0
VERTEX
  5
205D
  8
SAPA_PROFIL
  6
CONTINUOUS
 10
-13.728947628726949
 20
-78.572713020179563
 30
0.0
 42
-0.5507604245347207
  0
VERTEX
  5
205E
  8
SAPA_PROFIL
  6
CONTINUOUS
 10
-13.99999999961886
 20
-79.001284448708134
 30
0.0
  0
VERTEX
  5
205F
  8
SAPA_PROFIL
  6
CONTINUOUS
 10
-14.199999999699999
 20
-79.001284448708134
 30
0.0
 42
0.4142135623730951
  0
VERTEX
  5
2060
  8
SAPA_PROFIL
  6
CONTINUOUS
 10
-14.49999999969998
 20
-79.301284448708145
 30
0.0
  0
VERTEX
  5
2061
  8
SAPA_PROFIL
  6
CONTINUOUS
 10
-14.49999999969998
 20
-80.798715299908139
 30
0.0
 42
0.4142135623730951
  0
VERTEX
  5
2062
  8
SAPA_PROFIL
  6
CONTINUOUS
 10
-13.99999999969998
 20
-81.298715299908125
 30
0.0
  0
VERTEX
  5
2063
  8
SAPA_PROFIL
  6
CONTINUOUS
 10
-10.699999999699999
 20
-81.298715299908125
 30
0.0
 42
0.4142135623730951
  0
VERTEX
  5
2064
  8
SAPA_PROFIL
  6
CONTINUOUS
 10
-10.199999999699999
 20
-80.798715299908139
 30
0.0
  0
VERTEX
  5
2065
  8
SAPA_PROFIL
  6
CONTINUOUS
 10
-10.199999999699999
 20
-79.30128444890812
 30
0.0
 42
0.4142135623730673
  0
VERTEX
  5
2066
  8
SAPA_PROFIL
  6
CONTINUOUS
 10
-10.49999999969998
 20
-79.001284448908095
 30
0.0
  0
VERTEX
  5
2067
  8
SAPA_PROFIL
  6
CONTINUOUS
 10
-10.699999999699971
 20
-79.001284448908137
 30
0.0
 42
-0.550760424592931
  0
VERTEX
  5
2068
  8
SAPA_PROFIL
  6
CONTINUOUS
 10
-10.97105237060808
 20
-78.572713020312534
 30
0.0
 42
-0.2896898632971936
  0
VERTEX
  5
2069
  8
SAPA_PROFIL
  6
CONTINUOUS
 10
-10.067544467699969
 20
-78.001284448895206
 30
0.0
  0
VERTEX
  5
206A
  8
SAPA_PROFIL
  6
CONTINUOUS
 10
-9.2999999996000042
 20
-78.001284448908123
 30
0.0
 42
-0.4142135620802001
  0
VERTEX
  5
206B
  8
SAPA_PROFIL
  6
CONTINUOUS
 10
-8.9999999998999556
 20
-78.30128444890812
 30
0.0
  0
VERTEX
  5
206C
  8
SAPA_PROFIL
  6
CONTINUOUS
 10
-8.9999999998999556
 20
-81.998715294908109
 30
0.0
 42
-0.4142135623730951
  0
VERTEX
  5
206D
  8
SAPA_PROFIL
  6
CONTINUOUS
 10
-9.4999999998999556
 20
-82.498715294908123
 30
0.0
  0
VERTEX
  5
206E
  8
SAPA_PROFIL
  6
CONTINUOUS
 10
-74.999964610277473
 20
-82.498715295421704
 30
0.0
  0
VERTEX
  5
206F
  8
SAPA_PROFIL
  6
CONTINUOUS
 10
-74.999999999900027
 20
-82.498715294908123
 30
0.0
 42
-0.4142135623730951
  0
VERTEX
  5
2070
  8
SAPA_PROFIL
  6
CONTINUOUS
 10
-75.499999999900027
 20
-81.998715294908109
 30
0.0
  0
VERTEX
  5
2071
  8
SAPA_PROFIL
  6
CONTINUOUS
 10
-75.499999999900027
 20
-78.30128444890812
 30
0.0
 42
-0.4142135620801829
  0
VERTEX
  5
2072
  8
SAPA_PROFIL
  6
CONTINUOUS
 10
-75.200000000200035
 20
-78.001284448908166
 30
0.0
  0
VERTEX
  5
2073
  8
SAPA_PROFIL
  6
CONTINUOUS
 10
-74.432455532100036
 20
-78.001284448895206
 30
0.0
 42
-0.2896898632971957
  0
VERTEX
  5
2074
  8
SAPA_PROFIL
  6
CONTINUOUS
 10
-73.52894762919189
 20
-78.57271302031252
 30
0.0
 42
-0.5507604245929078
  0
VERTEX
  5
2075
  8
SAPA_PROFIL
  6
CONTINUOUS
 10
-73.800000000100056
 20
-79.001284448908137
 30
0.0
  0
VERTEX
  5
2076
  8
SAPA_PROFIL
  6
CONTINUOUS
 10
-74.00000000010003
 20
-79.001284448908095
 30
0.0
 42
0.4142135623730673
  0
VERTEX
  5
2077
  8
SAPA_PROFIL
  6
CONTINUOUS
 10
-74.300000000100042
 20
-79.30128444890812
 30
0.0
  0
VERTEX
  5
2078
  8
SAPA_PROFIL
  6
CONTINUOUS
 10
-74.300000000100056
 20
-80.798715299908139
 30
0.0
 42
0.4142135623730951
  0
VERTEX
  5
2079
  8
SAPA_PROFIL
  6
CONTINUOUS
 10
-73.800000000100056
 20
-81.298715299908125
 30
0.0
  0
VERTEX
  5
207A
  8
SAPA_PROFIL
  6
CONTINUOUS
 10
-70.50000000010003
 20
-81.298715299908125
 30
0.0
 42
0.4142135623730951
  0
VERTEX
  5
207B
  8
SAPA_PROFIL
  6
CONTINUOUS
 10
-70.00000000010003
 20
-80.798715299908139
 30
0.0
  0
VERTEX
  5
207C
  8
SAPA_PROFIL
  6
CONTINUOUS
 10
-70.00000000010003
 20
-79.301284448708145
 30
0.0
 42
0.4142135623730951
  0
VERTEX
  5
207D
  8
SAPA_PROFIL
  6
CONTINUOUS
 10
-70.300000000100042
 20
-79.001284448708134
 30
0.0
  0
VERTEX
  5
207E
  8
SAPA_PROFIL
  6
CONTINUOUS
 10
-70.500000000181103
 20
-79.001284448708134
 30
0.0
 42
-0.5507604245346853
  0
VERTEX
  5
207F
  8
SAPA_PROFIL
  6
CONTINUOUS
 10
-70.771052371073026
 20
-78.572713020179577
 30
0.0
 42
-0.2896898633456226
  0
VERTEX
  5
2080
  8
SAPA_PROFIL
  6
CONTINUOUS
 10
-69.867544468100121
 20
-78.001284448608232
 30
0.0
  0
VERTEX
  5
2081
  8
SAPA_PROFIL
  6
CONTINUOUS
 10
-68.870072656000033
 20
-78.001284448619941
 30
0.0
 42
-0.0436609428925318
  0
VERTEX
  5
2082
  8
SAPA_PROFIL
  6
CONTINUOUS
 10
-68.783248567200033
 20
-78.008880572108126
 30
0.0
  0
VERTEX
  5
2083
  8
SAPA_PROFIL
  6
CONTINUOUS
 10
-67.213175911200139
 20
-78.285726743108114
 30
0.0
 42
-0.839099631231541
  0
VERTEX
  5
2084
  8
SAPA_PROFIL
  6
CONTINUOUS
 10
-67.213175911200025
 20
-79.270534496108127
 30
0.0
  0
VERTEX
  5
2085
  8
SAPA_PROFIL
  6
CONTINUOUS
 10
-68.386824088805014
 20
-79.477480335608973
 30
0.0
 42
0.3639702342826299
  0
VERTEX
  5
2086
  8
SAPA_PROFIL
  6
CONTINUOUS
 10
-68.800000000000139
 20
-79.969884212120121
 30
0.0
  0
VERTEX
  5
2087
  8
SAPA_PROFIL
  6
CONTINUOUS
 10
-68.800000000000026
 20
-80.798715299908139
 30
0.0
 42
0.4373282586143349
  0
VERTEX
  5
2088
  8
SAPA_PROFIL
  6
CONTINUOUS
 10
-68.260905542700144
 20
-81.297184580208125
 30
0.0
  0
VERTEX
  5
2089
  8
SAPA_PROFIL
  6
CONTINUOUS
 10
-53.787846721223801
 20
-80.710385817209115
 30
0.0
 42
0.4023941304324869
  0
VERTEX
  5
208A
  8
SAPA_PROFIL
  6
CONTINUOUS
 10
-53.499999999900197
 20
-80.410632088596174
 30
0.0
  0
VERTEX
  5
208B
  8
SAPA_PROFIL
  6
CONTINUOUS
 10
-53.499999999899998
 20
-79.665790918335347
 30
0.0
 42
-0.2596812337312756
  0
VERTEX
  5
208C
  8
SAPA_PROFIL
  6
CONTINUOUS
 10
-53.357960207026579
 20
-79.410744701024612
 30
0.0
  0
VERTEX
  5
208D
  8
SAPA_PROFIL
  6
CONTINUOUS
 10
-51.95796020700017
 20
-78.54366934380819
 30
0.0
 42
-0.5877032589047035
  0
VERTEX
  5
208E
  8
SAPA_PROFIL
  6
CONTINUOUS
 10
-51.499999999900083
 20
-78.798715561108125
 30
0.0
  0
VERTEX
  5
208F
  8
SAPA_PROFIL
  6
CONTINUOUS
 10
-51.499999999899998
 20
-80.198715294908141
 30
0.0
 42
0.4142135623730394
  0
VERTEX
  5
2090
  8
SAPA_PROFIL
  6
CONTINUOUS
 10
-51.199999999899987
 20
-80.498715294908123
 30
0.0
  0
VERTEX
  5
2091
  8
SAPA_PROFIL
  6
CONTINUOUS
 10
-48.799999999899981
 20
-80.498715294908152
 30
0.0
 42
0.4142135623730675
  0
VERTEX
  5
2092
  8
SAPA_PROFIL
  6
CONTINUOUS
 10
-48.499999999899998
 20
-80.198715294908141
 30
0.0
  0
VERTEX
  5
2093
  8
SAPA_PROFIL
  6
CONTINUOUS
 10
-48.499999999899998
 20
-70.598715295421883
 30
0.0
 42
0.4142135623730916
  0
VERTEX
  5
2094
  8
SAPA_PROFIL
  6
CONTINUOUS
 10
-48.799999999899981
 20
-70.2987152954219
 30
0.0
  0
VERTEX
  5
2095
  8
SAPA_PROFIL
  6
CONTINUOUS
 10
-53.199999999018289
 20
-70.298715295421687
 30
0.0
 42
-0.4142135623732857
  0
VERTEX
  5
2096
  8
SAPA_PROFIL
  6
CONTINUOUS
 10
-53.499999999018499
 20
-69.998715295421675
 30
0.0
  0
SEQEND
  5
2097
  8
SAPA_PROFIL
  6
CONTINUOUS
  0
POLYLINE
  5
17BA
  8
SAPA_PROFIL
 66
     1
 10
0.0
 20
0.0
 30
0.0
 70
     1
  0
VERTEX
  5
2098
  8
SAPA_PROFIL
 10
-40.99999999989975
 20
-80.798715294908021
 30
0.0
  0
VERTEX
  5
2099
  8
SAPA_PROFIL
 10
-37.999999999899757
 20
-80.798715294908021
 30
0.0
 42
0.414213562373088
  0
VERTEX
  5
209A
  8
SAPA_PROFIL
 10
-37.699999999900029
 20
-80.498715294908067
 30
0.0
  0
VERTEX
  5
209B
  8
SAPA_PROFIL
 10
-37.699999999900029
 20
-62.498715294908067
 30
0.0
 42
0.4142135623730812
  0
VERTEX
  5
209C
  8
SAPA_PROFIL
 10
-37.999999999899757
 20
-62.198715294908112
 30
0.0
  0
VERTEX
  5
209D
  8
SAPA_PROFIL
 10
-40.99999999989975
 20
-62.198715294908112
 30
0.0
 42
0.4142135623730951
  0
VERTEX
  5
209E
  8
SAPA_PROFIL
 10
-41.249999999899757
 20
-62.448715294908112
 30
0.0
  0
VERTEX
  5
209F
  8
SAPA_PROFIL
 10
-41.249999999899757
 20
-62.498715294908067
 30
0.0
 42
-0.4142135623730813
  0
VERTEX
  5
20A0
  8
SAPA_PROFIL
 10
-41.549999999899939
 20
-62.798715294908021
 30
0.0
  0
VERTEX
  5
20A1
  8
SAPA_PROFIL
 10
-42.949999999900029
 20
-62.798715294908021
 30
0.0
 42
-0.4142135623730811
  0
VERTEX
  5
20A2
  8
SAPA_PROFIL
 10
-43.249999999899757
 20
-62.498715294908067
 30
0.0
  0
VERTEX
  5
20A3
  8
SAPA_PROFIL
 10
-43.249999999899757
 20
-62.448715294908112
 30
0.0
 42
0.4142135623730951
  0
VERTEX
  5
20A4
  8
SAPA_PROFIL
 10
-43.49999999989975
 20
-62.198715294908112
 30
0.0
  0
VERTEX
  5
20A5
  8
SAPA_PROFIL
 10
-46.49999999989975
 20
-62.198715294908112
 30
0.0
 42
0.4142135623730811
  0
VERTEX
  5
20A6
  8
SAPA_PROFIL
 10
-46.799999999899939
 20
-62.498715294908067
 30
0.0
  0
VERTEX
  5
20A7
  8
SAPA_PROFIL
 10
-46.799999999899939
 20
-80.498715294908067
 30
0.0
 42
0.4142135623730882
  0
VERTEX
  5
20A8
  8
SAPA_PROFIL
 10
-46.49999999989975
 20
-80.798715294908021
 30
0.0
  0
VERTEX
  5
20A9
  8
SAPA_PROFIL
 10
-43.49999999989975
 20
-80.798715294908021
 30
0.0
 42
0.4142135623730951
  0
VERTEX
  5
20AA
  8
SAPA_PROFIL
 10
-43.249999999899757
 20
-80.548715294908007
 30
0.0
  0
VERTEX
  5
20AB
  8
SAPA_PROFIL
 10
-43.249999999899757
 20
-80.498715294908067
 30
0.0
 42
-0.4142135623730783
  0
VERTEX
  5
20AC
  8
SAPA_PROFIL
 10
-42.949999999900029
 20
-80.198715294908126
 30
0.0
  0
VERTEX
  5
20AD
  8
SAPA_PROFIL
 10
-41.549999999899939
 20
-80.198715294908126
 30
0.0
 42
-0.4142135623730785
  0
VERTEX
  5
20AE
  8
SAPA_PROFIL
 10
-41.249999999899757
 20
-80.498715294908067
 30
0.0
  0
VERTEX
  5
20AF
  8
SAPA_PROFIL
 10
-41.249999999899757
 20
-80.548715294908007
 30
0.0
 42
0.4142135623730951
  0
SEQEND
  5
20B0
  8
SAPA_PROFIL
  0
POLYLINE
  5
17BB
  8
SAPA_PROFIL
 66
     1
 10
0.0
 20
0.0
 30
0.0
 70
     1
  0
VERTEX
  5
20B1
  8
SAPA_PROFIL
 10
-51.25278640439997
 20
-18.49871529482273
 30
0.0
 42
-0.2134217652834387
  0
VERTEX
  5
20B2
  8
SAPA_PROFIL
 10
-51.476393202150078
 20
-18.39871529482259
 30
0.0
 42
0.7625858545243238
  0
VERTEX
  5
20B3
  8
SAPA_PROFIL
 10
-51.806719283167091
 20
-18.583294497020081
 30
0.0
  0
VERTEX
  5
20B4
  8
SAPA_PROFIL
 10
-51.748645646177998
 20
-18.774677497013801
 30
0.0
  0
VERTEX
  5
20B5
  8
SAPA_PROFIL
 10
-50.664081199206272
 20
-20.660521188874849
 30
0.0
  0
VERTEX
  5
20B6
  8
SAPA_PROFIL
 10
-50.342323470987999
 20
-20.649959822647869
 30
0.0
 42
-0.5773502691897449
  0
VERTEX
  5
20B7
  8
SAPA_PROFIL
 10
-50.159369730877842
 20
-20.94411612290271
 30
0.0
  0
VERTEX
  5
20B8
  8
SAPA_PROFIL
 10
-50.31150364198659
 20
-21.22879840613437
 30
0.0
 42
-0.2216946626430184
  0
VERTEX
  5
20B9
  8
SAPA_PROFIL
 10
-50.852383473463391
 20
-21.634607311289141
 30
0.0
  0
VERTEX
  5
20BA
  8
SAPA_PROFIL
 10
-52.665613944121631
 20
-22.016053907416861
 30
0.0
 42
-0.4769755326981644
  0
VERTEX
  5
20BB
  8
SAPA_PROFIL
 10
-53.037270819067508
 20
-21.71380108291039
 30
0.0
  0
VERTEX
  5
20BC
  8
SAPA_PROFIL
 10
-53.037187211183863
 20
-20.210700002148389
 30
0.0
  0
VERTEX
  5
20BD
  8
SAPA_PROFIL
 10
-52.989341461185369
 20
-20.19618159290129
 30
0.0
 42
0.4142135623730956
  0
VERTEX
  5
20BE
  8
SAPA_PROFIL
 10
-52.789377416677979
 20
-19.821996637425471
 30
0.0
  0
VERTEX
  5
20BF
  8
SAPA_PROFIL
 10
-53.299999999900017
 20
-18.500879679273691
 30
0.0
  0
VERTEX
  5
20C0
  8
SAPA_PROFIL
 10
-53.299999999900017
 20
-18.49871529482273
 30
0.0
  0
VERTEX
  5
20C1
  8
SAPA_PROFIL
 10
-53.299999999900017
 20
-15.48623096131368
 30
0.0
 42
-0.2596812337309464
  0
VERTEX
  5
20C2
  8
SAPA_PROFIL
 10
-53.205306804652032
 20
-15.316200149773721
 30
0.0
  0
VERTEX
  5
20C3
  8
SAPA_PROFIL
 10
-51.957960207028009
 20
-14.54366908070466
 30
0.0
 42
-0.5877032589253032
  0
VERTEX
  5
20C4
  8
SAPA_PROFIL
 10
-51.499999999900012
 20
-14.798715298014679
 30
0.0
  0
VERTEX
  5
20C5
  8
SAPA_PROFIL
 10
-51.499999999900012
 20
-16.19871529801464
 30
0.0
 42
0.4142135623730951
  0
VERTEX
  5
20C6
  8
SAPA_PROFIL
 10
-51.199999999900001
 20
-16.498715298014659
 30
0.0
  0
VERTEX
  5
20C7
  8
SAPA_PROFIL
 10
-48.799999999900017
 20
-16.49871529801473
 30
0.0
 42
0.4142135623730882
  0
VERTEX
  5
20C8
  8
SAPA_PROFIL
 10
-48.499999999899948
 20
-16.19871529801464
 30
0.0
  0
VERTEX
  5
20C9
  8
SAPA_PROFIL
 10
-48.499999999900012
 20
1.201284701985329
 30
0.0
 42
0.4142135623730951
  0
VERTEX
  5
20CA
  8
SAPA_PROFIL
 10
-48.799999999900017
 20
1.501284701985341
 30
0.0
  0
VERTEX
  5
20CB
  8
SAPA_PROFIL
 10
-51.199999999900001
 20
1.501284701985284
 30
0.0
 42
0.4142135623730951
  0
VERTEX
  5
20CC
  8
SAPA_PROFIL
 10
-51.499999999899948
 20
1.201284701985329
 30
0.0
  0
VERTEX
  5
20CD
  8
SAPA_PROFIL
 10
-51.499999999900012
 20
-0.1987152980146476
 30
0.0
 42
-0.587703258925294
  0
VERTEX
  5
20CE
  8
SAPA_PROFIL
 10
-51.957960207028002
 20
-0.4537615153246435
 30
0.0
  0
VERTEX
  5
20CF
  8
SAPA_PROFIL
 10
-53.405306804652007
 20
0.442637461917272
 30
0.0
 42
-0.2596812337299331
  0
VERTEX
  5
20D0
  8
SAPA_PROFIL
 10
-53.499999999900012
 20
0.612668273457345
 30
0.0
  0
VERTEX
  5
20D1
  8
SAPA_PROFIL
 10
-53.499999999900012
 20
3.3012847051352732
 30
0.0
 42
-0.4142135623730951
  0
VERTEX
  5
20D2
  8
SAPA_PROFIL
 10
-53.299999999900017
 20
3.5012847051353191
 30
0.0
  0
VERTEX
  5
20D3
  8
SAPA_PROFIL
 10
-31.199999999901031
 20
3.5012847051353191
 30
0.0
 42
-0.4142135623730951
  0
VERTEX
  5
20D4
  8
SAPA_PROFIL
 10
-30.999999999900979
 20
3.3012847051352732
 30
0.0
  0
VERTEX
  5
20D5
  8
SAPA_PROFIL
 10
-30.999999999900979
 20
0.612668273457345
 30
0.0
 42
-0.2596812337298758
  0
VERTEX
  5
20D6
  8
SAPA_PROFIL
 10
-31.094693195148981
 20
0.442637461917272
 30
0.0
  0
VERTEX
  5
20D7
  8
SAPA_PROFIL
 10
-32.542039792772989
 20
-0.4537615153246435
 30
0.0
 42
-0.5877032589253579
  0
VERTEX
  5
20D8
  8
SAPA_PROFIL
 10
-32.99999999990002
 20
-0.1987152980146476
 30
0.0
  0
VERTEX
  5
20D9
  8
SAPA_PROFIL
 10
-32.999999999900027
 20
1.201284701985329
 30
0.0
 42
0.4142135623730951
  0
VERTEX
  5
20DA
  8
SAPA_PROFIL
 10
-33.299999999900031
 20
1.5012847019853259
 30
0.0
  0
VERTEX
  5
20DB
  8
SAPA_PROFIL
 10
-35.699999999901017
 20
1.501284701985284
 30
0.0
 42
0.4142135623720961
  0
VERTEX
  5
20DC
  8
SAPA_PROFIL
 10
-35.999999999899963
 20
1.201284701985329
 30
0.0
  0
VERTEX
  5
20DD
  8
SAPA_PROFIL
 10
-35.99999999990002
 20
-16.19871529801464
 30
0.0
 42
0.4142135623730951
  0
VERTEX
  5
20DE
  8
SAPA_PROFIL
 10
-35.699999999899987
 20
-16.49871529801467
 30
0.0
  0
VERTEX
  5
20DF
  8
SAPA_PROFIL
 10
-33.299999999900031
 20
-16.49871529801473
 30
0.0
 42
0.4142135623730882
  0
VERTEX
  5
20E0
  8
SAPA_PROFIL
 10
-32.999999999899948
 20
-16.19871529801464
 30
0.0
  0
VERTEX
  5
20E1
  8
SAPA_PROFIL
 10
-32.999999999900027
 20
-14.798715298014679
 30
0.0
 42
-0.5877032589243584
  0
VERTEX
  5
20E2
  8
SAPA_PROFIL
 10
-32.542039792772989
 20
-14.543669080704669
 30
0.0
  0
VERTEX
  5
20E3
  8
SAPA_PROFIL
 10
-31.29469319514903
 20
-15.316200149773721
 30
0.0
 42
-0.2596812337298608
  0
VERTEX
  5
20E4
  8
SAPA_PROFIL
 10
-31.199999999900001
 20
-15.48623096131368
 30
0.0
  0
VERTEX
  5
20E5
  8
SAPA_PROFIL
 10
-31.199999999900001
 20
-18.49871529482273
 30
0.0
  0
VERTEX
  5
20E6
  8
SAPA_PROFIL
 10
-31.199999999900001
 20
-18.500879679270302
 30
0.0
  0
VERTEX
  5
20E7
  8
SAPA_PROFIL
 10
-31.710622583122959
 20
-19.821996637424469
 30
0.0
 42
0.4142135623730957
  0
VERTEX
  5
20E8
  8
SAPA_PROFIL
 10
-31.510658538615559
 20
-20.196181592900292
 30
0.0
  0
VERTEX
  5
20E9
  8
SAPA_PROFIL
 10
-31.462812788617072
 20
-20.210700002147391
 30
0.0
  0
VERTEX
  5
20EA
  8
SAPA_PROFIL
 10
-31.46272918073343
 20
-21.713801082909399
 30
0.0
 42
-0.4769755326981643
  0
VERTEX
  5
20EB
  8
SAPA_PROFIL
 10
-31.834386055679289
 20
-22.01605390741587
 30
0.0
  0
VERTEX
  5
20EC
  8
SAPA_PROFIL
 10
-33.647616526337551
 20
-21.634607311288139
 30
0.0
 42
-0.2216946626430184
  0
VERTEX
  5
20ED
  8
SAPA_PROFIL
 10
-34.18849635781433
 20
-21.22879840613335
 30
0.0
  0
VERTEX
  5
20EE
  8
SAPA_PROFIL
 10
-34.3406302689231
 20
-20.944116122901711
 30
0.0
 42
-0.5773502691897449
  0
VERTEX
  5
20EF
  8
SAPA_PROFIL
 10
-34.157676528812907
 20
-20.649959822646888
 30
0.0
  0
VERTEX
  5
20F0
  8
SAPA_PROFIL
 10
-33.835918800594669
 20
-20.660521188873862
 30
0.0
  0
VERTEX
  5
20F1
  8
SAPA_PROFIL
 10
-32.751354353622929
 20
-18.774677497012799
 30
0.0
  0
VERTEX
  5
20F2
  8
SAPA_PROFIL
 10
-32.693280716633851
 20
-18.583294497019079
 30
0.0
 42
0.7625858545243238
  0
VERTEX
  5
20F3
  8
SAPA_PROFIL
 10
-33.023606797650842
 20
-18.398715294821582
 30
0.0
 42
-0.2134217652834387
  0
VERTEX
  5
20F4
  8
SAPA_PROFIL
 10
-33.247213595400979
 20
-18.498715294821721
 30
0.0
  0
VERTEX
  5
20F5
  8
SAPA_PROFIL
 10
-37.099999999899978
 20
-18.49871529482273
 30
0.0
 42
0.4142135623730881
  0
VERTEX
  5
20F6
  8
SAPA_PROFIL
 10
-37.399999999899933
 20
-18.798715294822699
 30
0.0
  0
VERTEX
  5
20F7
  8
SAPA_PROFIL
 10
-37.39999999990102
 20
-19.09871529482264
 30
0.0
  0
VERTEX
  5
20F8
  8
SAPA_PROFIL
 10
-36.476239569196977
 20
-20.698715294821639
 30
0.0
 42
-0.5773502691910457
  0
VERTEX
  5
20F9
  8
SAPA_PROFIL
 10
-36.649444649953978
 20
-20.99871529482273
 30
0.0
  0
VERTEX
  5
20FA
  8
SAPA_PROFIL
 10
-38.035085296009022
 20
-20.99871529482273
 30
0.0
 42
-0.2679491924309594
  0
VERTEX
  5
20FB
  8
SAPA_PROFIL
 10
-38.90111069979401
 20
-20.49871529482273
 30
0.0
  0
VERTEX
  5
20FC
  8
SAPA_PROFIL
 10
-39.911473670875978
 20
-18.748715294821721
 30
0.0
 42
0.267949192416605
  0
VERTEX
  5
20FD
  8
SAPA_PROFIL
 10
-40.344486372741017
 20
-18.498715294821881
 30
0.0
  0
VERTEX
  5
20FE
  8
SAPA_PROFIL
 10
-44.155513627059982
 20
-18.498715294821721
 30
0.0
 42
0.2679491924166034
  0
VERTEX
  5
20FF
  8
SAPA_PROFIL
 10
-44.588526328925148
 20
-18.748715294821629
 30
0.0
  0
VERTEX
  5
2100
  8
SAPA_PROFIL
 10
-45.598889300006981
 20
-20.49871529482273
 30
0.0
 42
-0.2679491924309617
  0
VERTEX
  5
2101
  8
SAPA_PROFIL
 10
-46.464914703791969
 20
-20.99871529482273
 30
0.0
  0
VERTEX
  5
2102
  8
SAPA_PROFIL
 10
-47.850555349847014
 20
-20.99871529482273
 30
0.0
 42
-0.5773502691910514
  0
VERTEX
  5
2103
  8
SAPA_PROFIL
 10
-48.023760430604
 20
-20.698715294821639
 30
0.0
  0
VERTEX
  5
2104
  8
SAPA_PROFIL
 10
-47.099999999899978
 20
-19.09871529482264
 30
0.0
  0
VERTEX
  5
2105
  8
SAPA_PROFIL
 10
-47.099999999899978
 20
-18.798715294822699
 30
0.0
 42
0.4142135623730951
  0
VERTEX
  5
2106
  8
SAPA_PROFIL
 10
-47.39999999989999
 20
-18.498715294822691
 30
0.0
  0
SEQEND
  5
2107
  8
SAPA_PROFIL
  0
POLYLINE
  5
17BC
  8
SAPA_PROFIL
 66
     1
 10
0.0
 20
0.0
 30
0.0
 70
     1
  0
VERTEX
  5
2108
  8
SAPA_PROFIL
 10
-37.999988381304988
 20
1.8012847053022789
 30
0.0
  0
VERTEX
  5
2109
  8
SAPA_PROFIL
 10
-42.549999999897977
 20
1.8012847055583019
 30
0.0
 42
0.4142135623895444
  0
VERTEX
  5
210A
  8
SAPA_PROFIL
 10
-42.799999999912011
 20
1.5512847055583019
 30
0.0
  0
VERTEX
  5
210B
  8
SAPA_PROFIL
 10
-42.799999999911961
 20
1.4012847058383351
 30
0.0
 42
-0.4142135622515363
  0
VERTEX
  5
210C
  8
SAPA_PROFIL
 10
-42.999999999829001
 20
1.2012847058382901
 30
0.0
  0
VERTEX
  5
210D
  8
SAPA_PROFIL
 10
-44.599999999828981
 20
1.201284705175268
 30
0.0
 42
-0.4142135624946333
  0
VERTEX
  5
210E
  8
SAPA_PROFIL
 10
-44.799999999912018
 20
1.4012847051753139
 30
0.0
  0
VERTEX
  5
210F
  8
SAPA_PROFIL
 10
-44.799999999912018
 20
1.5512847056983641
 30
0.0
 42
0.4142135623577114
  0
VERTEX
  5
2110
  8
SAPA_PROFIL
 10
-45.049999999897977
 20
1.801284705699274
 30
0.0
  0
VERTEX
  5
2111
  8
SAPA_PROFIL
 10
-46.499999999883023
 20
1.8012847057803321
 30
0.0
 42
0.4142135623896886
  0
VERTEX
  5
2112
  8
SAPA_PROFIL
 10
-46.799999999900017
 20
1.5012847057802641
 30
0.0
  0
VERTEX
  5
2113
  8
SAPA_PROFIL
 10
-46.799999999900017
 20
-16.498715294343651
 30
0.0
 42
0.4142135623565153
  0
VERTEX
  5
2114
  8
SAPA_PROFIL
 10
-46.499999999916987
 20
-16.798715294343719
 30
0.0
  0
VERTEX
  5
2115
  8
SAPA_PROFIL
 10
-45.049999999926001
 20
-16.798715294425691
 30
0.0
 42
0.4142135623894778
  0
VERTEX
  5
2116
  8
SAPA_PROFIL
 10
-44.799999999912018
 20
-16.548715294425691
 30
0.0
  0
VERTEX
  5
2117
  8
SAPA_PROFIL
 10
-44.799999999912032
 20
-16.3987152937387
 30
0.0
 42
-0.4142135624946436
  0
VERTEX
  5
2118
  8
SAPA_PROFIL
 10
-44.599999999828981
 20
-16.198715293738658
 30
0.0
  0
VERTEX
  5
2119
  8
SAPA_PROFIL
 10
-42.999999999829001
 20
-16.19871529440266
 30
0.0
 42
-0.4142135622515466
  0
VERTEX
  5
211A
  8
SAPA_PROFIL
 10
-42.799999999912011
 20
-16.398715294402649
 30
0.0
  0
VERTEX
  5
211B
  8
SAPA_PROFIL
 10
-42.799999999912011
 20
-16.548715294566659
 30
0.0
 42
0.4142135623567124
  0
VERTEX
  5
211C
  8
SAPA_PROFIL
 10
-42.549999999926001
 20
-16.798715294566659
 30
0.0
  0
VERTEX
  5
211D
  8
SAPA_PROFIL
 10
-37.999999999917009
 20
-16.798715294822699
 30
0.0
 42
0.4142135623896818
  0
VERTEX
  5
211E
  8
SAPA_PROFIL
 10
-37.699999999899987
 20
-16.49871529482273
 30
0.0
  0
VERTEX
  5
211F
  8
SAPA_PROFIL
 10
-37.699999999899987
 20
1.5012847055273111
 30
0.0
 42
0.414202219059594
  0
SEQEND
  5
2120
  8
SAPA_PROFIL
  0
POLYLINE
  5
17BD
  8
SAPA_PROFIL
 62
     4
 66
     1
 10
0.0
 20
0.0
 30
0.0
  0
VERTEX
  5
2121
  8
SAPA_PROFIL
 62
     4
 10
-50.594428835783631
 20
-30.449386172468301
 30
0.0
 42
-0.5571646428658034
  0
VERTEX
  5
2122
  8
SAPA_PROFIL
 62
     4
 10
-49.726709921628078
 20
-30.98634667660512
 30
0.0
  0
VERTEX
  5
2123
  8
SAPA_PROFIL
 62
     4
 10
-49.72670992162854
 20
-48.011083913126321
 30
0.0
 42
-0.5571645048035741
  0
VERTEX
  5
2124
  8
SAPA_PROFIL
 62
     4
 10
-50.594428609494699
 20
-48.548044530087381
 30
0.0
  0
VERTEX
  5
2125
  8
SAPA_PROFIL
 62
     4
 10
-52.260569265562737
 20
-47.717337442540682
 30
0.0
 42
-0.284385813979063
  0
VERTEX
  5
2126
  8
SAPA_PROFIL
 62
     4
 10
-52.42670992163017
 20
-47.448857134060333
 30
0.0
  0
VERTEX
  5
2127
  8
SAPA_PROFIL
 62
     4
 10
-52.42670992163017
 20
-31.548573455671018
 30
0.0
 42
-0.2843858139786238
  0
VERTEX
  5
2128
  8
SAPA_PROFIL
 62
     4
 10
-52.260569265563241
 20
-31.28009314719073
 30
0.0
  0
VERTEX
  5
2129
  8
SAPA_PROFIL
 62
     4
 10
-50.594428609493903
 20
-30.449386059643569
 30
0.0
  0
SEQEND
  5
212A
  8
SAPA_PROFIL
 62
     4
  0
POLYLINE
  5
17BE
  8
SAPA_PROFIL
 62
     4
 66
     1
 10
0.0
 20
0.0
 30
0.0
 70
     1
  0
VERTEX
  5
212B
  8
SAPA_PROFIL
 62
     4
 10
-52.783541436127749
 20
-53.91632647953297
 30
0.0
  0
VERTEX
  5
212C
  8
SAPA_PROFIL
 62
     4
 10
-53.190101632131892
 20
-54.180349757908992
 30
0.0
 42
0.2539676464751066
  0
VERTEX
  5
212D
  8
SAPA_PROFIL
 62
     4
 10
-53.326709921628002
 20
-54.431950928293688
 30
0.0
  0
VERTEX
  5
212E
  8
SAPA_PROFIL
 62
     4
 10
-53.326709921628002
 20
-55.813450513499028
 30
0.0
 42
0.3152987888790479
  0
VERTEX
  5
212F
  8
SAPA_PROFIL
 62
     4
 10
-52.997719993289827
 20
-56.283296823891348
 30
0.0
  0
VERTEX
  5
2130
  8
SAPA_PROFIL
 62
     4
 10
-50.536889802838559
 20
-57.178965764799948
 30
0.0
 42
-0.2694959974287434
  0
VERTEX
  5
2131
  8
SAPA_PROFIL
 62
     4
 10
-50.34375782849466
 20
-57.410484811201307
 30
0.0
 42
-0.0612686379508233
  0
VERTEX
  5
2132
  8
SAPA_PROFIL
 62
     4
 10
-50.330174457864139
 20
-57.703160244054587
 30
0.0
  0
VERTEX
  5
2133
  8
SAPA_PROFIL
 62
     4
 10
-50.128437779135318
 20
-58.052578421362853
 30
0.0
 42
-0.5773502691891679
  0
VERTEX
  5
2134
  8
SAPA_PROFIL
 62
     4
 10
-50.310303113929891
 20
-58.367578421362431
 30
0.0
  0
VERTEX
  5
2135
  8
SAPA_PROFIL
 62
     4
 10
-50.577417642056211
 20
-58.36757842136268
 30
0.0
  0
VERTEX
  5
2136
  8
SAPA_PROFIL
 62
     4
 10
-51.386101103364517
 20
-59.766106121996927
 30
0.0
 42
0.1318219888653519
  0
VERTEX
  5
2137
  8
SAPA_PROFIL
 62
     4
 10
-51.42639349990192
 20
-59.916279224469271
 30
0.0
  0
VERTEX
  5
2138
  8
SAPA_PROFIL
 62
     4
 10
-51.426393499895553
 20
-60.098715294906057
 30
0.0
 42
0.4142135623724291
  0
VERTEX
  5
2139
  8
SAPA_PROFIL
 62
     4
 10
-51.02639349989591
 20
-60.498715294906603
 30
0.0
  0
VERTEX
  5
213A
  8
SAPA_PROFIL
 62
     4
 10
-47.62639349989491
 20
-60.498715294905232
 30
0.0
 42
0.4142135623744271
  0
VERTEX
  5
213B
  8
SAPA_PROFIL
 62
     4
 10
-47.226393499893923
 20
-60.098715294906057
 30
0.0
  0
VERTEX
  5
213C
  8
SAPA_PROFIL
 62
     4
 10
-47.226393499893277
 20
-59.919100052634747
 30
0.0
 42
0.1316524975874005
  0
VERTEX
  5
213D
  8
SAPA_PROFIL
 62
     4
 10
-47.266585878758868
 20
-59.769100052637938
 30
0.0
  0
VERTEX
  5
213E
  8
SAPA_PROFIL
 62
     4
 10
-48.192735325411412
 20
-58.164962155635678
 30
0.0
 42
-0.1316524975875904
  0
VERTEX
  5
213F
  8
SAPA_PROFIL
 62
     4
 10
-48.326709921626183
 20
-57.664962155633972
 30
0.0
  0
VERTEX
  5
2140
  8
SAPA_PROFIL
 62
     4
 10
-48.326709921626183
 20
-57.248715294906603
 30
0.0
 42
-0.4142135623730951
  0
VERTEX
  5
2141
  8
SAPA_PROFIL
 62
     4
 10
-47.326709921626168
 20
-56.248715294906603
 30
0.0
  0
VERTEX
  5
2142
  8
SAPA_PROFIL
 62
     4
 10
-44.326709921628897
 20
-56.248715294906603
 30
0.0
 42
0.9999996830128083
  0
VERTEX
  5
2143
  8
SAPA_PROFIL
 62
     4
 10
-44.326709921627078
 20
-55.248715294906603
 30
0.0
  0
VERTEX
  5
2144
  8
SAPA_PROFIL
 62
     4
 10
-47.326709921627092
 20
-55.248715294906603
 30
0.0
 42
-0.4142135623730951
  0
VERTEX
  5
2145
  8
SAPA_PROFIL
 62
     4
 10
-48.326709921627078
 20
-54.248715294906603
 30
0.0
  0
VERTEX
  5
2146
  8
SAPA_PROFIL
 62
     4
 10
-48.326709921627078
 20
-24.74871529482202
 30
0.0
 42
-0.4142135623730951
  0
VERTEX
  5
2147
  8
SAPA_PROFIL
 62
     4
 10
-47.326709921627092
 20
-23.74871529482202
 30
0.0
  0
VERTEX
  5
2148
  8
SAPA_PROFIL
 62
     4
 10
-44.326709921628897
 20
-23.74871529482202
 30
0.0
 42
0.9999999999999998
  0
VERTEX
  5
2149
  8
SAPA_PROFIL
 62
     4
 10
-44.326709921628897
 20
-22.74871529482202
 30
0.0
  0
VERTEX
  5
214A
  8
SAPA_PROFIL
 62
     4
 10
-47.326709921627092
 20
-22.74871529482202
 30
0.0
 42
-0.4142135623736278
  0
VERTEX
  5
214B
  8
SAPA_PROFIL
 62
     4
 10
-48.326709921627078
 20
-21.74871529482202
 30
0.0
  0
VERTEX
  5
214C
  8
SAPA_PROFIL
 62
     4
 10
-48.326709921627078
 20
-21.33246843409556
 30
0.0
 42
-0.1316524975874375
  0
VERTEX
  5
214D
  8
SAPA_PROFIL
 62
     4
 10
-48.19273532541105
 20
-20.832468434095361
 30
0.0
  0
VERTEX
  5
214E
  8
SAPA_PROFIL
 62
     4
 10
-47.266585878758868
 20
-19.228330537093409
 30
0.0
 42
0.1316524975874
  0
VERTEX
  5
214F
  8
SAPA_PROFIL
 62
     4
 10
-47.226393499893277
 20
-19.078330537093869
 30
0.0
  0
VERTEX
  5
2150
  8
SAPA_PROFIL
 62
     4
 10
-47.226393499893923
 20
-18.898715294822559
 30
0.0
 42
0.4142135623744271
  0
VERTEX
  5
2151
  8
SAPA_PROFIL
 62
     4
 10
-47.62639349989491
 20
-18.498715294823381
 30
0.0
  0
VERTEX
  5
2152
  8
SAPA_PROFIL
 62
     4
 10
-51.02639349989591
 20
-18.49871529482202
 30
0.0
 42
0.4142135623724291
  0
VERTEX
  5
2153
  8
SAPA_PROFIL
 62
     4
 10
-51.426393499895553
 20
-18.898715294822559
 30
0.0
  0
VERTEX
  5
2154
  8
SAPA_PROFIL
 62
     4
 10
-51.42639349990192
 20
-19.081151365259341
 30
0.0
 42
0.1318219888653524
  0
VERTEX
  5
2155
  8
SAPA_PROFIL
 62
     4
 10
-51.386101103364517
 20
-19.231324467731689
 30
0.0
  0
VERTEX
  5
2156
  8
SAPA_PROFIL
 62
     4
 10
-50.57741764214019
 20
-20.62985216821134
 30
0.0
  0
VERTEX
  5
2157
  8
SAPA_PROFIL
 62
     4
 10
-50.310303113927148
 20
-20.62985216821134
 30
0.0
 42
-0.577350269189159
  0
VERTEX
  5
2158
  8
SAPA_PROFIL
 62
     4
 10
-50.128437779132589
 20
-20.94485216821095
 30
0.0
  0
VERTEX
  5
2159
  8
SAPA_PROFIL
 62
     4
 10
-50.330174457809697
 20
-21.294270345429599
 30
0.0
 42
-0.0612687673629489
  0
VERTEX
  5
215A
  8
SAPA_PROFIL
 62
     4
 10
-50.343757828495903
 20
-21.58694577852982
 30
0.0
 42
-0.2694959974285039
  0
VERTEX
  5
215B
  8
SAPA_PROFIL
 62
     4
 10
-50.536889802839852
 20
-21.818464824930341
 30
0.0
  0
VERTEX
  5
215C
  8
SAPA_PROFIL
 62
     4
 10
-52.997719993293011
 20
-22.71413376584
 30
0.0
 42
0.3152987888784035
  0
VERTEX
  5
215D
  8
SAPA_PROFIL
 62
     4
 10
-53.3267099216296
 20
-23.18398007623323
 30
0.0
  0
VERTEX
  5
215E
  8
SAPA_PROFIL
 62
     4
 10
-53.326709921628002
 20
-24.56547966143766
 30
0.0
 42
0.2539676464741841
  0
VERTEX
  5
215F
  8
SAPA_PROFIL
 62
     4
 10
-53.190101632132723
 20
-24.817080831821741
 30
0.0
  0
VERTEX
  5
2160
  8
SAPA_PROFIL
 62
     4
 10
-52.783541436127749
 20
-25.081104110198378
 30
0.0
 42
0.5862177598324623
  0
VERTEX
  5
2161
  8
SAPA_PROFIL
 62
     4
 10
-52.326709921631242
 20
-24.825362294960041
 30
0.0
  0
VERTEX
  5
2162
  8
SAPA_PROFIL
 62
     4
 10
-52.326709921638908
 20
-23.88418761445023
 30
0.0
 42
-0.3152987888813165
  0
VERTEX
  5
2163
  8
SAPA_PROFIL
 62
     4
 10
-51.997719993302162
 20
-23.414341304052471
 30
0.0
  0
VERTEX
  5
2164
  8
SAPA_PROFIL
 62
     4
 10
-50.797719993290933
 20
-22.977577022928521
 30
0.0
 42
-0.5205670505515651
  0
VERTEX
  5
2165
  8
SAPA_PROFIL
 62
     4
 10
-50.126709921628169
 20
-23.447423333321741
 30
0.0
  0
VERTEX
  5
2166
  8
SAPA_PROFIL
 62
     4
 10
-50.126709921628141
 20
-28.463864273990591
 30
0.0
 42
-0.3702522326300203
  0
VERTEX
  5
2167
  8
SAPA_PROFIL
 62
     4
 10
-50.381169874293853
 20
-28.760387635783921
 30
0.0
 42
-0.0982365330332397
  0
VERTEX
  5
2168
  8
SAPA_PROFIL
 62
     4
 10
-52.068856649288861
 20
-28.850840393994861
 30
0.0
 42
-0.3735060174783164
  0
VERTEX
  5
2169
  8
SAPA_PROFIL
 62
     4
 10
-52.326709921628897
 20
-28.553815726083879
 30
0.0
  0
VERTEX
  5
216A
  8
SAPA_PROFIL
 62
     4
 10
-52.326709921629813
 20
-28.125362294961221
 30
0.0
 42
0.5920056181162531
  0
VERTEX
  5
216B
  8
SAPA_PROFIL
 62
     4
 10
-52.787913424157729
 20
-27.872353538643821
 30
0.0
  0
VERTEX
  5
216C
  8
SAPA_PROFIL
 62
     4
 10
-53.190101632136027
 20
-28.133537614799518
 30
0.0
 42
0.2539676464746725
  0
VERTEX
  5
216D
  8
SAPA_PROFIL
 62
     4
 10
-53.326709921631391
 20
-28.38513878518329
 30
0.0
  0
VERTEX
  5
216E
  8
SAPA_PROFIL
 62
     4
 10
-53.326709921629813
 20
-50.612291804548981
 30
0.0
 42
0.2539676464741819
  0
VERTEX
  5
216F
  8
SAPA_PROFIL
 62
     4
 10
-53.190101632136027
 20
-50.863892974931829
 30
0.0
  0
VERTEX
  5
2170
  8
SAPA_PROFIL
 62
     4
 10
-52.787913424157701
 20
-51.12507705108564
 30
0.0
 42
0.5920055144124249
  0
VERTEX
  5
2171
  8
SAPA_PROFIL
 62
     4
 10
-52.326709921629813
 20
-50.872068294770131
 30
0.0
  0
VERTEX
  5
2172
  8
SAPA_PROFIL
 62
     4
 10
-52.32670994690482
 20
-50.443614817479911
 30
0.0
 42
-0.3735060174775405
  0
VERTEX
  5
2173
  8
SAPA_PROFIL
 62
     4
 10
-52.068856674564721
 20
-50.146590149570223
 30
0.0
 42
-0.0355900683670349
  0
VERTEX
  5
2174
  8
SAPA_PROFIL
 62
     4
 10
-51.452983087764942
 20
-50.10269658553797
 30
0.0
 42
-0.0624282003873116
  0
VERTEX
  5
2175
  8
SAPA_PROFIL
 62
     4
 10
-50.381169899569812
 20
-50.237042907780911
 30
0.0
 42
-0.3702522326309292
  0
VERTEX
  5
2176
  8
SAPA_PROFIL
 62
     4
 10
-50.126709946904093
 20
-50.533566269574287
 30
0.0
  0
VERTEX
  5
2177
  8
SAPA_PROFIL
 62
     4
 10
-50.126709921627963
 20
-55.550007256407802
 30
0.0
 42
-0.5205670505515692
  0
VERTEX
  5
2178
  8
SAPA_PROFIL
 62
     4
 10
-50.797719993290933
 20
-56.019853566801018
 30
0.0
  0
VERTEX
  5
2179
  8
SAPA_PROFIL
 62
     4
 10
-51.997719993300372
 20
-55.583089285676067
 30
0.0
 42
-0.3152987888807539
  0
VERTEX
  5
217A
  8
SAPA_PROFIL
 62
     4
 10
-52.326709921637999
 20
-55.113242975280208
 30
0.0
  0
VERTEX
  5
217B
  8
SAPA_PROFIL
 62
     4
 10
-52.326709921631178
 20
-54.172068294771123
 30
0.0
 42
0.5862175119221242
  0
VERTEX
  5
217C
  8
SAPA_PROFIL
 62
     4
 10
-52.783541247386317
 20
-53.916326363789167
 30
0.0
 42
-0.0000002084758573
  0
SEQEND
  5
217D
  8
SAPA_PROFIL
 62
     4
  0
POLYLINE
  5
17BF
  8
SAPA_PROFIL
 62
     4
 66
     1
 10
0.0
 20
0.0
 30
0.0
  0
VERTEX
  5
217E
  8
SAPA_PROFIL
 62
     4
 10
-33.905571133529151
 20
-30.449386172468301
 30
0.0
 42
0.5571646428658034
  0
VERTEX
  5
217F
  8
SAPA_PROFIL
 62
     4
 10
-34.773290047684704
 20
-30.98634667660512
 30
0.0
  0
VERTEX
  5
2180
  8
SAPA_PROFIL
 62
     4
 10
-34.773290047684242
 20
-48.011083913126321
 30
0.0
 42
0.5571645048035741
  0
VERTEX
  5
2181
  8
SAPA_PROFIL
 62
     4
 10
-33.905571359818083
 20
-48.548044530087381
 30
0.0
  0
VERTEX
  5
2182
  8
SAPA_PROFIL
 62
     4
 10
-32.239430703750052
 20
-47.717337442540682
 30
0.0
 42
0.284385813979063
  0
VERTEX
  5
2183
  8
SAPA_PROFIL
 62
     4
 10
-32.073290047682598
 20
-47.448857134060333
 30
0.0
  0
VERTEX
  5
2184
  8
SAPA_PROFIL
 62
     4
 10
-32.073290047682598
 20
-31.548573455671018
 30
0.0
 42
0.2843858139786238
  0
VERTEX
  5
2185
  8
SAPA_PROFIL
 62
     4
 10
-32.239430703749541
 20
-31.28009314719073
 30
0.0
  0
VERTEX
  5
2186
  8
SAPA_PROFIL
 62
     4
 10
-33.905571359818879
 20
-30.449386059643569
 30
0.0
  0
SEQEND
  5
2187
  8
SAPA_PROFIL
 62
     4
  0
POLYLINE
  5
17C0
  8
SAPA_PROFIL
 62
     4
 66
     1
 10
0.0
 20
0.0
 30
0.0
 70
     1
  0
VERTEX
  5
2188
  8
SAPA_PROFIL
 62
     4
 10
-31.71645853318504
 20
-53.91632647953297
 30
0.0
  0
VERTEX
  5
2189
  8
SAPA_PROFIL
 62
     4
 10
-31.30989833718089
 20
-54.180349757908992
 30
0.0
 42
-0.2539676464751066
  0
VERTEX
  5
218A
  8
SAPA_PROFIL
 62
     4
 10
-31.173290047684791
 20
-54.431950928293688
 30
0.0
  0
VERTEX
  5
218B
  8
SAPA_PROFIL
 62
     4
 10
-31.173290047684791
 20
-55.813450513499028
 30
0.0
 42
-0.3152987888790479
  0
VERTEX
  5
218C
  8
SAPA_PROFIL
 62
     4
 10
-31.502279976022951
 20
-56.283296823891348
 30
0.0
  0
VERTEX
  5
218D
  8
SAPA_PROFIL
 62
     4
 10
-33.963110166474223
 20
-57.178965764799948
 30
0.0
 42
0.2694959974287434
  0
VERTEX
  5
218E
  8
SAPA_PROFIL
 62
     4
 10
-34.156242140818122
 20
-57.410484811201307
 30
0.0
 42
0.0612686379508233
  0
VERTEX
  5
218F
  8
SAPA_PROFIL
 62
     4
 10
-34.169825511448643
 20
-57.703160244054587
 30
0.0
  0
VERTEX
  5
2190
  8
SAPA_PROFIL
 62
     4
 10
-34.371562190177457
 20
-58.052578421362853
 30
0.0
 42
0.5773502691891679
  0
VERTEX
  5
2191
  8
SAPA_PROFIL
 62
     4
 10
-34.189696855382891
 20
-58.367578421362431
 30
0.0
  0
VERTEX
  5
2192
  8
SAPA_PROFIL
 62
     4
 10
-33.922582327256571
 20
-58.36757842136268
 30
0.0
  0
VERTEX
  5
2193
  8
SAPA_PROFIL
 62
     4
 10
-33.113898865948258
 20
-59.766106121996927
 30
0.0
 42
-0.1318219888653519
  0
VERTEX
  5
2194
  8
SAPA_PROFIL
 62
     4
 10
-33.073606469410869
 20
-59.916279224469271
 30
0.0
  0
VERTEX
  5
2195
  8
SAPA_PROFIL
 62
     4
 10
-33.073606469417228
 20
-60.098715294906057
 30
0.0
 42
-0.4142135623724291
  0
VERTEX
  5
2196
  8
SAPA_PROFIL
 62
     4
 10
-33.473606469416872
 20
-60.498715294906603
 30
0.0
  0
VERTEX
  5
2197
  8
SAPA_PROFIL
 62
     4
 10
-36.873606469417872
 20
-60.498715294905232
 30
0.0
 42
-0.4142135623744271
  0
VERTEX
  5
2198
  8
SAPA_PROFIL
 62
     4
 10
-37.273606469418873
 20
-60.098715294906057
 30
0.0
  0
VERTEX
  5
2199
  8
SAPA_PROFIL
 62
     4
 10
-37.273606469419512
 20
-59.919100052634747
 30
0.0
 42
-0.1316524975874005
  0
VERTEX
  5
219A
  8
SAPA_PROFIL
 62
     4
 10
-37.233414090553907
 20
-59.769100052637938
 30
0.0
  0
VERTEX
  5
219B
  8
SAPA_PROFIL
 62
     4
 10
-36.30726464390137
 20
-58.164962155635678
 30
0.0
 42
0.1316524975875904
  0
VERTEX
  5
219C
  8
SAPA_PROFIL
 62
     4
 10
-36.173290047686613
 20
-57.664962155633972
 30
0.0
  0
VERTEX
  5
219D
  8
SAPA_PROFIL
 62
     4
 10
-36.173290047686613
 20
-57.248715294906603
 30
0.0
 42
0.4142135623730951
  0
VERTEX
  5
219E
  8
SAPA_PROFIL
 62
     4
 10
-37.173290047686613
 20
-56.248715294906603
 30
0.0
  0
VERTEX
  5
219F
  8
SAPA_PROFIL
 62
     4
 10
-40.173290047683871
 20
-56.248715294906603
 30
0.0
 42
-0.9999996830128083
  0
VERTEX
  5
21A0
  8
SAPA_PROFIL
 62
     4
 10
-40.17329004768569
 20
-55.248715294906603
 30
0.0
  0
VERTEX
  5
21A1
  8
SAPA_PROFIL
 62
     4
 10
-37.173290047685697
 20
-55.248715294906603
 30
0.0
 42
0.4142135623730951
  0
VERTEX
  5
21A2
  8
SAPA_PROFIL
 62
     4
 10
-36.173290047685697
 20
-54.248715294906603
 30
0.0
  0
VERTEX
  5
21A3
  8
SAPA_PROFIL
 62
     4
 10
-36.173290047685697
 20
-24.74871529482202
 30
0.0
 42
0.4142135623730951
  0
VERTEX
  5
21A4
  8
SAPA_PROFIL
 62
     4
 10
-37.173290047685697
 20
-23.74871529482202
 30
0.0
  0
VERTEX
  5
21A5
  8
SAPA_PROFIL
 62
     4
 10
-40.173290047683871
 20
-23.74871529482202
 30
0.0
 42
-0.9999999999999998
  0
VERTEX
  5
21A6
  8
SAPA_PROFIL
 62
     4
 10
-40.173290047683871
 20
-22.74871529482202
 30
0.0
  0
VERTEX
  5
21A7
  8
SAPA_PROFIL
 62
     4
 10
-37.173290047685697
 20
-22.74871529482202
 30
0.0
 42
0.4142135623736278
  0
VERTEX
  5
21A8
  8
SAPA_PROFIL
 62
     4
 10
-36.173290047685697
 20
-21.74871529482202
 30
0.0
  0
VERTEX
  5
21A9
  8
SAPA_PROFIL
 62
     4
 10
-36.173290047685697
 20
-21.33246843409556
 30
0.0
 42
0.1316524975874375
  0
VERTEX
  5
21AA
  8
SAPA_PROFIL
 62
     4
 10
-36.307264643901732
 20
-20.832468434095361
 30
0.0
  0
VERTEX
  5
21AB
  8
SAPA_PROFIL
 62
     4
 10
-37.233414090553907
 20
-19.228330537093409
 30
0.0
 42
-0.1316524975874
  0
VERTEX
  5
21AC
  8
SAPA_PROFIL
 62
     4
 10
-37.273606469419498
 20
-19.078330537093869
 30
0.0
  0
VERTEX
  5
21AD
  8
SAPA_PROFIL
 62
     4
 10
-37.273606469418873
 20
-18.898715294822559
 30
0.0
 42
-0.4142135623744271
  0
VERTEX
  5
21AE
  8
SAPA_PROFIL
 62
     4
 10
-36.873606469417872
 20
-18.498715294823381
 30
0.0
  0
VERTEX
  5
21AF
  8
SAPA_PROFIL
 62
     4
 10
-33.473606469416872
 20
-18.49871529482202
 30
0.0
 42
-0.4142135623724291
  0
VERTEX
  5
21B0
  8
SAPA_PROFIL
 62
     4
 10
-33.073606469417228
 20
-18.898715294822559
 30
0.0
  0
VERTEX
  5
21B1
  8
SAPA_PROFIL
 62
     4
 10
-33.073606469410869
 20
-19.081151365259341
 30
0.0
 42
-0.1318219888653524
  0
VERTEX
  5
21B2
  8
SAPA_PROFIL
 62
     4
 10
-33.113898865948258
 20
-19.231324467731689
 30
0.0
  0
VERTEX
  5
21B3
  8
SAPA_PROFIL
 62
     4
 10
-33.922582327172591
 20
-20.62985216821134
 30
0.0
  0
VERTEX
  5
21B4
  8
SAPA_PROFIL
 62
     4
 10
-34.189696855385627
 20
-20.62985216821134
 30
0.0
 42
0.577350269189159
  0
VERTEX
  5
21B5
  8
SAPA_PROFIL
 62
     4
 10
-34.3715621901802
 20
-20.94485216821095
 30
0.0
  0
VERTEX
  5
21B6
  8
SAPA_PROFIL
 62
     4
 10
-34.169825511503078
 20
-21.294270345429599
 30
0.0
 42
0.0612687673629489
  0
VERTEX
  5
21B7
  8
SAPA_PROFIL
 62
     4
 10
-34.156242140816879
 20
-21.58694577852982
 30
0.0
 42
0.2694959974285039
  0
VERTEX
  5
21B8
  8
SAPA_PROFIL
 62
     4
 10
-33.96311016647293
 20
-21.818464824930341
 30
0.0
  0
VERTEX
  5
21B9
  8
SAPA_PROFIL
 62
     4
 10
-31.502279976019771
 20
-22.71413376584
 30
0.0
 42
-0.3152987888784035
  0
VERTEX
  5
21BA
  8
SAPA_PROFIL
 62
     4
 10
-31.173290047683189
 20
-23.18398007623323
 30
0.0
  0
VERTEX
  5
21BB
  8
SAPA_PROFIL
 62
     4
 10
-31.173290047684791
 20
-24.56547966143766
 30
0.0
 42
-0.2539676464741841
  0
VERTEX
  5
21BC
  8
SAPA_PROFIL
 62
     4
 10
-31.309898337180059
 20
-24.817080831821741
 30
0.0
  0
VERTEX
  5
21BD
  8
SAPA_PROFIL
 62
     4
 10
-31.71645853318504
 20
-25.081104110198378
 30
0.0
 42
-0.5862177598324623
  0
VERTEX
  5
21BE
  8
SAPA_PROFIL
 62
     4
 10
-32.17329004768154
 20
-24.825362294960041
 30
0.0
  0
VERTEX
  5
21BF
  8
SAPA_PROFIL
 62
     4
 10
-32.173290047673881
 20
-23.88418761445023
 30
0.0
 42
0.3152987888813165
  0
VERTEX
  5
21C0
  8
SAPA_PROFIL
 62
     4
 10
-32.502279976010627
 20
-23.414341304052471
 30
0.0
  0
VERTEX
  5
21C1
  8
SAPA_PROFIL
 62
     4
 10
-33.702279976021863
 20
-22.977577022928521
 30
0.0
 42
0.5205670505515651
  0
VERTEX
  5
21C2
  8
SAPA_PROFIL
 62
     4
 10
-34.373290047684613
 20
-23.447423333321741
 30
0.0
  0
VERTEX
  5
21C3
  8
SAPA_PROFIL
 62
     4
 10
-34.373290047684627
 20
-28.463864273990591
 30
0.0
 42
0.3702522326300203
  0
VERTEX
  5
21C4
  8
SAPA_PROFIL
 62
     4
 10
-34.118830095018929
 20
-28.760387635783921
 30
0.0
 42
0.0982365330332397
  0
VERTEX
  5
21C5
  8
SAPA_PROFIL
 62
     4
 10
-32.431143320023921
 20
-28.850840393994861
 30
0.0
 42
0.3735060174783164
  0
VERTEX
  5
21C6
  8
SAPA_PROFIL
 62
     4
 10
-32.173290047683892
 20
-28.553815726083879
 30
0.0
  0
VERTEX
  5
21C7
  8
SAPA_PROFIL
 62
     4
 10
-32.173290047682968
 20
-28.125362294961221
 30
0.0
 42
-0.5920056181162531
  0
VERTEX
  5
21C8
  8
SAPA_PROFIL
 62
     4
 10
-31.712086545155049
 20
-27.872353538643821
 30
0.0
  0
VERTEX
  5
21C9
  8
SAPA_PROFIL
 62
     4
 10
-31.309898337176751
 20
-28.133537614799518
 30
0.0
 42
-0.2539676464746725
  0
VERTEX
  5
21CA
  8
SAPA_PROFIL
 62
     4
 10
-31.173290047681391
 20
-28.38513878518329
 30
0.0
  0
VERTEX
  5
21CB
  8
SAPA_PROFIL
 62
     4
 10
-31.173290047682968
 20
-50.612291804548981
 30
0.0
 42
-0.2539676464741819
  0
VERTEX
  5
21CC
  8
SAPA_PROFIL
 62
     4
 10
-31.309898337176751
 20
-50.863892974931829
 30
0.0
  0
VERTEX
  5
21CD
  8
SAPA_PROFIL
 62
     4
 10
-31.712086545155081
 20
-51.12507705108564
 30
0.0
 42
-0.5920055144124249
  0
VERTEX
  5
21CE
  8
SAPA_PROFIL
 62
     4
 10
-32.173290047682968
 20
-50.872068294770131
 30
0.0
  0
VERTEX
  5
21CF
  8
SAPA_PROFIL
 62
     4
 10
-32.173290022407961
 20
-50.443614817479911
 30
0.0
 42
0.3735060174775405
  0
VERTEX
  5
21D0
  8
SAPA_PROFIL
 62
     4
 10
-32.431143294748047
 20
-50.146590149570223
 30
0.0
 42
0.0355900683670349
  0
VERTEX
  5
21D1
  8
SAPA_PROFIL
 62
     4
 10
-33.04701688154784
 20
-50.10269658553797
 30
0.0
 42
0.0624282003873116
  0
VERTEX
  5
21D2
  8
SAPA_PROFIL
 62
     4
 10
-34.11883006974297
 20
-50.237042907780911
 30
0.0
 42
0.3702522326309292
  0
VERTEX
  5
21D3
  8
SAPA_PROFIL
 62
     4
 10
-34.373290022408689
 20
-50.533566269574287
 30
0.0
  0
VERTEX
  5
21D4
  8
SAPA_PROFIL
 62
     4
 10
-34.373290047684833
 20
-55.550007256407802
 30
0.0
 42
0.5205670505515692
  0
VERTEX
  5
21D5
  8
SAPA_PROFIL
 62
     4
 10
-33.702279976021863
 20
-56.019853566801018
 30
0.0
  0
VERTEX
  5
21D6
  8
SAPA_PROFIL
 62
     4
 10
-32.50227997601241
 20
-55.583089285676067
 30
0.0
 42
0.3152987888807539
  0
VERTEX
  5
21D7
  8
SAPA_PROFIL
 62
     4
 10
-32.173290047674783
 20
-55.113242975280208
 30
0.0
  0
VERTEX
  5
21D8
  8
SAPA_PROFIL
 62
     4
 10
-32.173290047681597
 20
-54.172068294771123
 30
0.0
 42
-0.5862175119221242
  0
VERTEX
  5
21D9
  8
SAPA_PROFIL
 62
     4
 10
-31.716458721926472
 20
-53.916326363789167
 30
0.0
 42
0.0000002084758573
  0
SEQEND
  5
21DA
  8
SAPA_PROFIL
 62
     4
  0
POLYLINE
  5
17C1
  8
SAPA_PROFIL
 62
     4
 66
     1
 10
0.0
 20
0.0
 30
0.0
 70
     1
  0
VERTEX
  5
21DB
  8
SAPA_PROFIL
 62
     4
 10
-14.899999995409051
 20
-68.702943553211838
 30
0.0
  0
VERTEX
  5
21DC
  8
SAPA_PROFIL
 62
     4
 10
-14.89999999540723
 20
-72.897056102908749
 30
0.0
 42
0.1989123673786592
  0
VERTEX
  5
21DD
  8
SAPA_PROFIL
 62
     4
 10
-14.81213202976377
 20
-73.109188137264553
 30
0.0
  0
VERTEX
  5
21DE
  8
SAPA_PROFIL
 62
     4
 10
-12.58786796105286
 20
-75.333452205975476
 30
0.0
 42
-0.1989123673785438
  0
VERTEX
  5
21DF
  8
SAPA_PROFIL
 62
     4
 10
-12.499999995409411
 20
-75.545584240331294
 30
0.0
  0
VERTEX
  5
21E0
  8
SAPA_PROFIL
 62
     4
 10
-12.49999999541123
 20
-75.999999828059643
 30
0.0
 42
-0.4142135623730951
  0
VERTEX
  5
21E1
  8
SAPA_PROFIL
 62
     4
 10
-12.7999999954105
 20
-76.299999828059825
 30
0.0
  0
VERTEX
  5
21E2
  8
SAPA_PROFIL
 62
     4
 10
-24.69999999540946
 20
-76.299999828059825
 30
0.0
 42
0.4142135623730951
  0
VERTEX
  5
21E3
  8
SAPA_PROFIL
 62
     4
 10
-25.19999999540946
 20
-76.799999828059839
 30
0.0
  0
VERTEX
  5
21E4
  8
SAPA_PROFIL
 62
     4
 10
-25.19999999540946
 20
-78.499999828059643
 30
0.0
 42
-0.4142135623739832
  0
VERTEX
  5
21E5
  8
SAPA_PROFIL
 62
     4
 10
-25.499999995408729
 20
-78.799999828059825
 30
0.0
  0
VERTEX
  5
21E6
  8
SAPA_PROFIL
 62
     4
 10
-29.199999995408319
 20
-78.799999828059825
 30
0.0
 42
-0.414213562375759
  0
VERTEX
  5
21E7
  8
SAPA_PROFIL
 62
     4
 10
-29.499999995409411
 20
-78.499999828059643
 30
0.0
  0
VERTEX
  5
21E8
  8
SAPA_PROFIL
 62
     4
 10
-29.499999995407592
 20
-62.006576697656641
 30
0.0
 42
-0.4142135623735391
  0
VERTEX
  5
21E9
  8
SAPA_PROFIL
 62
     4
 10
-29.199999995408319
 20
-61.706576697656921
 30
0.0
  0
VERTEX
  5
21EA
  8
SAPA_PROFIL
 62
     4
 10
-12.7999999954105
 20
-61.706576697656921
 30
0.0
 42
-0.4142135623726511
  0
VERTEX
  5
21EB
  8
SAPA_PROFIL
 62
     4
 10
-12.499999995409411
 20
-62.006576697656641
 30
0.0
  0
VERTEX
  5
21EC
  8
SAPA_PROFIL
 62
     4
 10
-12.499999995409411
 20
-66.054415415787474
 30
0.0
 42
-0.1989123673785438
  0
VERTEX
  5
21ED
  8
SAPA_PROFIL
 62
     4
 10
-12.58786796105286
 20
-66.266547450143293
 30
0.0
  0
VERTEX
  5
21EE
  8
SAPA_PROFIL
 62
     4
 10
-14.812132029765589
 20
-68.49081151885602
 30
0.0
 42
0.1989123673798886
  0
SEQEND
  5
21EF
  8
SAPA_PROFIL
 62
     4
  0
POLYLINE
  5
17C2
  8
SAPA_PROFIL
 62
     4
 66
     1
 10
0.0
 20
0.0
 30
0.0
 70
     1
  0
VERTEX
  5
21F0
  8
SAPA_PROFIL
 62
     4
 10
-29.499999995409411
 20
-47.299999828060059
 30
0.0
  0
VERTEX
  5
21F1
  8
SAPA_PROFIL
 62
     4
 10
-29.499999995407592
 20
-60.10657669765655
 30
0.0
 42
0.4142135623732061
  0
VERTEX
  5
21F2
  8
SAPA_PROFIL
 62
     4
 10
-29.199999995408319
 20
-60.406576697656732
 30
0.0
  0
VERTEX
  5
21F3
  8
SAPA_PROFIL
 62
     4
 10
-12.7999999954105
 20
-60.406576697656732
 30
0.0
 42
0.4142135623730951
  0
VERTEX
  5
21F4
  8
SAPA_PROFIL
 62
     4
 10
-12.499999995409411
 20
-60.10657669765655
 30
0.0
  0
VERTEX
  5
21F5
  8
SAPA_PROFIL
 62
     4
 10
-12.49999999541123
 20
-47.299999828060059
 30
0.0
 42
0.4142135623731173
  0
VERTEX
  5
21F6
  8
SAPA_PROFIL
 62
     4
 10
-12.799999995412319
 20
-46.999999828059877
 30
0.0
  0
VERTEX
  5
21F7
  8
SAPA_PROFIL
 62
     4
 10
-29.199999995410138
 20
-46.999999828059877
 30
0.0
 42
0.4142135623730951
  0
SEQEND
  5
21F8
  8
SAPA_PROFIL
 62
     4
  0
POLYLINE
  5
17C3
  8
SAPA_PROFIL
 62
     4
 66
     1
 10
0.0
 20
0.0
 30
0.0
 70
     1
  0
VERTEX
  5
21F9
  8
SAPA_PROFIL
 62
     4
 10
-10.99999999541123
 20
-45.999999828059877
 30
0.0
  0
VERTEX
  5
21FA
  8
SAPA_PROFIL
 62
     4
 10
-10.999999995409411
 20
-66.675735759347475
 30
0.0
 42
-0.1989123673799843
  0
VERTEX
  5
21FB
  8
SAPA_PROFIL
 62
     4
 10
-11.08786796105468
 20
-66.887867793704203
 30
0.0
  0
VERTEX
  5
21FC
  8
SAPA_PROFIL
 62
     4
 10
-13.312132029765589
 20
-69.112131862415112
 30
0.0
 42
0.1989123673811184
  0
VERTEX
  5
21FD
  8
SAPA_PROFIL
 62
     4
 10
-13.399999995409051
 20
-69.32426389677093
 30
0.0
  0
VERTEX
  5
21FE
  8
SAPA_PROFIL
 62
     4
 10
-13.39999999540723
 20
-72.275735759348748
 30
0.0
 42
0.1989123673785438
  0
VERTEX
  5
21FF
  8
SAPA_PROFIL
 62
     4
 10
-13.31213202976377
 20
-72.487867793704567
 30
0.0
  0
VERTEX
  5
2200
  8
SAPA_PROFIL
 62
     4
 10
-11.08786796105286
 20
-74.712131862416385
 30
0.0
 42
-0.1989123673785438
  0
VERTEX
  5
2201
  8
SAPA_PROFIL
 62
     4
 10
-10.999999995409411
 20
-74.924263896772203
 30
0.0
  0
VERTEX
  5
2202
  8
SAPA_PROFIL
 62
     4
 10
-10.99999999541123
 20
-77.299999828059839
 30
0.0
 42
-0.4142135623730951
  0
VERTEX
  5
2203
  8
SAPA_PROFIL
 62
     4
 10
-11.49999999541123
 20
-77.799999828059839
 30
0.0
  0
VERTEX
  5
2204
  8
SAPA_PROFIL
 62
     4
 10
-23.399999995410191
 20
-77.799999828059839
 30
0.0
 42
0.414213562373761
  0
VERTEX
  5
2205
  8
SAPA_PROFIL
 62
     4
 10
-23.699999995409449
 20
-78.099999828060021
 30
0.0
  0
VERTEX
  5
2206
  8
SAPA_PROFIL
 62
     4
 10
-23.699999995409449
 20
-79.799999828059839
 30
0.0
 42
-0.4142135623730951
  0
VERTEX
  5
2207
  8
SAPA_PROFIL
 62
     4
 10
-24.19999999540946
 20
-80.299999828059839
 30
0.0
  0
VERTEX
  5
2208
  8
SAPA_PROFIL
 62
     4
 10
-30.499999995409411
 20
-80.299999828059839
 30
0.0
 42
-0.4142135623730951
  0
VERTEX
  5
2209
  8
SAPA_PROFIL
 62
     4
 10
-30.999999995409411
 20
-79.799999828059839
 30
0.0
  0
VERTEX
  5
220A
  8
SAPA_PROFIL
 62
     4
 10
-30.999999995407592
 20
-78.799999828059498
 30
0.0
 42
0.414213562373539
  0
VERTEX
  5
220B
  8
SAPA_PROFIL
 62
     4
 10
-31.299999995406861
 20
-78.499999828059543
 30
0.0
  0
VERTEX
  5
220C
  8
SAPA_PROFIL
 62
     4
 10
-32.899999995409047
 20
-78.499999828059998
 30
0.0
 42
0.4142135623735391
  0
VERTEX
  5
220D
  8
SAPA_PROFIL
 62
     4
 10
-33.199999995408319
 20
-78.799999828059725
 30
0.0
  0
VERTEX
  5
220E
  8
SAPA_PROFIL
 62
     4
 10
-33.1999999954065
 20
-79.099999828059339
 30
0.0
 42
-0.592337729603611
  0
VERTEX
  5
220F
  8
SAPA_PROFIL
 62
     4
 10
-33.661452266148082
 20
-79.352849910663593
 30
0.0
  0
VERTEX
  5
2210
  8
SAPA_PROFIL
 62
     4
 10
-35.361452266148802
 20
-78.075790642366741
 30
0.0
 42
-0.2560149538738706
  0
VERTEX
  5
2211
  8
SAPA_PROFIL
 62
     4
 10
-35.499999995409411
 20
-77.822940559761577
 30
0.0
  0
VERTEX
  5
2212
  8
SAPA_PROFIL
 62
     4
 10
-35.499999995409411
 20
-77.599999828058998
 30
0.0
 42
-0.4142135623733169
  0
VERTEX
  5
2213
  8
SAPA_PROFIL
 62
     4
 10
-35.199999995410138
 20
-77.299999828059725
 30
0.0
  0
VERTEX
  5
2214
  8
SAPA_PROFIL
 62
     4
 10
-31.299999995406861
 20
-77.299999828059725
 30
0.0
 42
0.414213562373539
  0
VERTEX
  5
2215
  8
SAPA_PROFIL
 62
     4
 10
-30.999999995407592
 20
-76.999999828059771
 30
0.0
  0
VERTEX
  5
2216
  8
SAPA_PROFIL
 62
     4
 10
-30.999999995409411
 20
-65.999999828059543
 30
0.0
 42
0.414213562373539
  0
VERTEX
  5
2217
  8
SAPA_PROFIL
 62
     4
 10
-31.29999999540868
 20
-65.699999828059589
 30
0.0
  0
VERTEX
  5
2218
  8
SAPA_PROFIL
 62
     4
 10
-35.199999995410138
 20
-65.699999828059589
 30
0.0
 42
-0.4142135623730951
  0
VERTEX
  5
2219
  8
SAPA_PROFIL
 62
     4
 10
-35.499999995409411
 20
-65.399999828060317
 30
0.0
  0
VERTEX
  5
221A
  8
SAPA_PROFIL
 62
     4
 10
-35.499999995409411
 20
-65.177059096357738
 30
0.0
 42
-0.2560149538738705
  0
VERTEX
  5
221B
  8
SAPA_PROFIL
 62
     4
 10
-35.361452266148802
 20
-64.924209013752574
 30
0.0
  0
VERTEX
  5
221C
  8
SAPA_PROFIL
 62
     4
 10
-33.661452266148082
 20
-63.647149745455721
 30
0.0
 42
-0.592337729603611
  0
VERTEX
  5
221D
  8
SAPA_PROFIL
 62
     4
 10
-33.1999999954065
 20
-63.899999828059968
 30
0.0
  0
VERTEX
  5
221E
  8
SAPA_PROFIL
 62
     4
 10
-33.199999995408319
 20
-64.199999828059589
 30
0.0
 42
0.4142135623735391
  0
VERTEX
  5
221F
  8
SAPA_PROFIL
 62
     4
 10
-32.899999995409047
 20
-64.499999828059316
 30
0.0
  0
VERTEX
  5
2220
  8
SAPA_PROFIL
 62
     4
 10
-31.29999999540868
 20
-64.499999828059771
 30
0.0
 42
0.414213562373539
  0
VERTEX
  5
2221
  8
SAPA_PROFIL
 62
     4
 10
-30.999999995409411
 20
-64.199999828059816
 30
0.0
  0
VERTEX
  5
2222
  8
SAPA_PROFIL
 62
     4
 10
-30.999999995413049
 20
-45.999999828059877
 30
0.0
 42
-0.414213562373126
  0
VERTEX
  5
2223
  8
SAPA_PROFIL
 62
     4
 10
-30.499999995413049
 20
-45.499999828059877
 30
0.0
  0
VERTEX
  5
2224
  8
SAPA_PROFIL
 62
     4
 10
-11.49999999541123
 20
-45.499999828059877
 30
0.0
 42
-0.4142135623730951
  0
SEQEND
  5
2225
  8
SAPA_PROFIL
 62
     4
  0
POLYLINE
  5
17C4
  8
SAPA_PROFIL
 66
     1
 10
0.0
 20
0.0
 30
0.0
 70
     1
  0
VERTEX
  5
2226
  8
SAPA_PROFIL
 10
-96.499999999825761
 20
0.6060446906867583
 30
0.0
  0
VERTEX
  5
2227
  8
SAPA_PROFIL
 10
-96.499999999825761
 20
0.3635007528396272
 30
0.0
 42
0.2011813370902256
  0
VERTEX
  5
2228
  8
SAPA_PROFIL
 10
-96.440181852685711
 20
0.2208506630090596
 30
0.0
  0
VERTEX
  5
2229
  8
SAPA_PROFIL
 10
-95.513434493955998
 20
-0.6898614300148438
 30
0.0
  0
VERTEX
  5
222A
  8
SAPA_PROFIL
 10
-93.999999999823928
 20
-0.676653887271641
 30
0.0
 42
-0.4931454260356012
  0
VERTEX
  5
222B
  8
SAPA_PROFIL
 10
-92.428735039586087
 20
-0.4558269982239836
 30
0.0
  0
VERTEX
  5
222C
  8
SAPA_PROFIL
 10
-91.361085202761757
 20
-1.505003570836777
 30
0.0
 42
-0.6681786379164681
  0
VERTEX
  5
222D
  8
SAPA_PROFIL
 10
-91.502454083215426
 20
-1.8549038283217101
 30
0.0
  0
VERTEX
  5
222E
  8
SAPA_PROFIL
 10
-95.999999999825746
 20
-1.8941533169190159
 30
0.0
  0
VERTEX
  5
222F
  8
SAPA_PROFIL
 10
-98.11409285141545
 20
0.1833599423107444
 30
0.0
 42
0.2038501166358263
  0
VERTEX
  5
2230
  8
SAPA_PROFIL
 10
-98.478399630833252
 20
0.326542798916762
 30
0.0
  0
VERTEX
  5
2231
  8
SAPA_PROFIL
 10
-113.5831128834277
 20
-0.0920833103721179
 30
0.0
 42
0.4061212134736873
  0
VERTEX
  5
2232
  8
SAPA_PROFIL
 10
-116.4999999998192
 20
-3.0909317974715691
 30
0.0
  0
VERTEX
  5
2233
  8
SAPA_PROFIL
 10
-116.4999999998192
 20
-14.875123040939631
 30
0.0
 42
0.4142135623730951
  0
VERTEX
  5
2234
  8
SAPA_PROFIL
 10
-115.9999999998192
 20
-15.375123040939631
 30
0.0
  0
VERTEX
  5
2235
  8
SAPA_PROFIL
 10
-104.41421356219421
 20
-15.375123040939631
 30
0.0
 42
0.198912367379658
  0
VERTEX
  5
2236
  8
SAPA_PROFIL
 10
-103.7071067810076
 20
-15.08222982212618
 30
0.0
  0
VERTEX
  5
2237
  8
SAPA_PROFIL
 10
-103.32650800761709
 20
-14.70163104873569
 30
0.0
 42
-0.1830252782112529
  0
VERTEX
  5
2238
  8
SAPA_PROFIL
 10
-102.0348401988857
 20
-14.119602506988089
 30
0.0
  0
VERTEX
  5
2239
  8
SAPA_PROFIL
 10
-91.601768170079964
 20
-13.39653777965753
 30
0.0
 42
-0.668178637923616
  0
VERTEX
  5
223A
  8
SAPA_PROFIL
 10
-91.388385850546371
 20
-13.911688269446531
 30
0.0
  0
VERTEX
  5
223B
  8
SAPA_PROFIL
 10
-93.387867965468928
 20
-15.911170384369081
 30
0.0
 42
-0.7332303362588345
  0
VERTEX
  5
223C
  8
SAPA_PROFIL
 10
-93.895442325728624
 20
-15.646943896711891
 30
0.0
  0
VERTEX
  5
223D
  8
SAPA_PROFIL
 10
-93.786858214942555
 20
-15.031132803313479
 30
0.0
 42
0.4663076581593561
  0
VERTEX
  5
223E
  8
SAPA_PROFIL
 10
-94.082300540845964
 20
-14.679038350013281
 30
0.0
  0
VERTEX
  5
223F
  8
SAPA_PROFIL
 10
-101.8417776661983
 20
-15.41019797189375
 30
0.0
 42
0.183025278211264
  0
VERTEX
  5
2240
  8
SAPA_PROFIL
 10
-102.487611570564
 20
-15.70121224276755
 30
0.0
  0
VERTEX
  5
2241
  8
SAPA_PROFIL
 10
-102.87573593110891
 20
-16.089336603312571
 30
0.0
 42
-0.1989123673796518
  0
VERTEX
  5
2242
  8
SAPA_PROFIL
 10
-104.289949493482
 20
-16.675123040939461
 30
0.0
  0
VERTEX
  5
2243
  8
SAPA_PROFIL
 10
-115.6999999998348
 20
-16.675123040939582
 30
0.0
 42
0.4142135623732283
  0
VERTEX
  5
2244
  8
SAPA_PROFIL
 10
-116.1999999998347
 20
-17.175123040939809
 30
0.0
  0
VERTEX
  5
2245
  8
SAPA_PROFIL
 10
-116.19999999983381
 20
-18.375123040939169
 30
0.0
 42
-0.4142135623732062
  0
VERTEX
  5
2246
  8
SAPA_PROFIL
 10
-116.4999999998338
 20
-18.675123040939241
 30
0.0
  0
VERTEX
  5
2247
  8
SAPA_PROFIL
 10
-117.6999999998193
 20
-18.675123040939582
 30
0.0
 42
-0.4142135623716247
  0
VERTEX
  5
2248
  8
SAPA_PROFIL
 10
-117.99999999981929
 20
-18.375123040938259
 30
0.0
  0
VERTEX
  5
2249
  8
SAPA_PROFIL
 10
-117.9999999998328
 20
1.601284701383747
 30
0.0
 42
-0.4142135623732938
  0
VERTEX
  5
224A
  8
SAPA_PROFIL
 10
-117.79999999983281
 20
1.801284701383792
 30
0.0
  0
VERTEX
  5
224B
  8
SAPA_PROFIL
 10
-96.204623886147061
 20
1.801284701383792
 30
0.0
 42
-0.4210020197690384
  0
VERTEX
  5
224C
  8
SAPA_PROFIL
 10
-95.999999999825746
 20
1.6013381593397751
 30
0.0
  0
VERTEX
  5
224D
  8
SAPA_PROFIL
 10
-95.999999999819266
 20
1.0133549961442441
 30
0.0
  0
VERTEX
  5
224E
  8
SAPA_PROFIL
 10
-96.299999999819278
 20
1.0133549961442441
 30
0.0
 42
0.41421356237322
  0
VERTEX
  5
224F
  8
SAPA_PROFIL
 10
-96.499999999819153
 20
0.8133549961441985
 30
0.0
  0
VERTEX
  5
2250
  8
SAPA_PROFIL
 10
-96.499999999819266
 20
0.5961772306745843
 30
0.0
  0
SEQEND
  5
2251
  8
SAPA_PROFIL
  0
CIRCLE
  5
17C5
  8
SAPA_PROFIL
 62
     2
 10
-114.6633409272397
 20
-79.309290847032059
 30
0.0
 40
0.8999999999999985
  0
POLYLINE
  5
17C6
  8
SAPA_PROFIL
 62
     2
 66
     1
 10
0.0
 20
0.0
 30
0.0
  0
VERTEX
  5
2252
  8
SAPA_PROFIL
 62
     2
 10
-116.06334092723959
 20
-78.001284435459013
 30
0.0
  0
VERTEX
  5
2253
  8
SAPA_PROFIL
 62
     2
 10
-115.87098250724721
 20
-79.092203245611756
 30
0.0
  0
VERTEX
  5
2254
  8
SAPA_PROFIL
 62
     2
 10
-116.3027790671489
 20
-79.207902785131694
 30
0.0
 42
0.4430158954262519
  0
VERTEX
  5
2255
  8
SAPA_PROFIL
 62
     2
 10
-116.438256114693
 20
-79.471379213238663
 30
0.0
  0
VERTEX
  5
2256
  8
SAPA_PROFIL
 62
     2
 10
-115.961307921474
 20
-80.741866961156859
 30
0.0
 42
0.3125358528825162
  0
VERTEX
  5
2257
  8
SAPA_PROFIL
 62
     2
 10
-115.5868262083446
 20
-81.001284435458544
 30
0.0
  0
VERTEX
  5
2258
  8
SAPA_PROFIL
 62
     2
 10
-113.71667089243429
 20
-81.001284435459013
 30
0.0
 42
0.3125358528825104
  0
VERTEX
  5
2259
  8
SAPA_PROFIL
 62
     2
 10
-113.3421891793049
 20
-80.741866961156859
 30
0.0
  0
VERTEX
  5
225A
  8
SAPA_PROFIL
 62
     2
 10
-112.86524098608569
 20
-79.471379213238663
 30
0.0
 42
0.4430158954262519
  0
VERTEX
  5
225B
  8
SAPA_PROFIL
 62
     2
 10
-113.00071803362979
 20
-79.207902785131793
 30
0.0
  0
VERTEX
  5
225C
  8
SAPA_PROFIL
 62
     2
 10
-113.43251459353159
 20
-79.092203245611756
 30
0.0
  0
VERTEX
  5
225D
  8
SAPA_PROFIL
 62
     2
 10
-113.2402485503894
 20
-78.001284435459013
 30
0.0
  0
SEQEND
  5
225E
  8
SAPA_PROFIL
 62
     2
  0
POLYLINE
  5
17C7
  8
SAPA_PROFIL
 62
     2
 66
     1
 10
0.0
 20
0.0
 30
0.0
 70
     1
  0
VERTEX
  5
225F
  8
SAPA_PROFIL
 62
     2
 10
-116.05174855038931
 20
-78.001284435459013
 30
0.0
 42
-0.285714285714282
  0
VERTEX
  5
2260
  8
SAPA_PROFIL
 62
     2
 10
-113.25174855038929
 20
-78.001284435459013
 30
0.0
  0
VERTEX
  5
2261
  8
SAPA_PROFIL
 62
     2
 10
-111.17796838100151
 20
-78.001284435458544
 30
0.0
 42
0.3882600129940275
  0
VERTEX
  5
2262
  8
SAPA_PROFIL
 62
     2
 10
-110.8791668836601
 20
-77.728073709179
 30
0.0
  0
VERTEX
  5
2263
  8
SAPA_PROFIL
 62
     2
 10
-110.41295695973361
 20
-73.828073709178909
 30
0.0
 42
0.4406523138893894
  0
VERTEX
  5
2264
  8
SAPA_PROFIL
 62
     2
 10
-110.7117584570754
 20
-73.501284435459013
 30
0.0
  0
VERTEX
  5
2265
  8
SAPA_PROFIL
 62
     2
 10
-112.42155045399581
 20
-73.501284435459013
 30
0.0
 42
0.3394542588634375
  0
VERTEX
  5
2266
  8
SAPA_PROFIL
 62
     2
 10
-112.7113282018823
 20
-73.723638721928012
 30
0.0
  0
VERTEX
  5
2267
  8
SAPA_PROFIL
 62
     2
 10
-112.9137079298137
 20
-73.941224504095601
 30
0.0
 42
-0.3394542588633663
  0
VERTEX
  5
2268
  8
SAPA_PROFIL
 62
     2
 10
-113.2034856777005
 20
-74.1635787905646
 30
0.0
  0
VERTEX
  5
2269
  8
SAPA_PROFIL
 62
     2
 10
-116.1000114230784
 20
-74.1635787905646
 30
0.0
 42
-0.3394542588634373
  0
VERTEX
  5
226A
  8
SAPA_PROFIL
 62
     2
 10
-116.3897891709649
 20
-73.941224504095601
 30
0.0
  0
VERTEX
  5
226B
  8
SAPA_PROFIL
 62
     2
 10
-116.5921688988964
 20
-73.723638721928012
 30
0.0
 42
0.3394542588633662
  0
VERTEX
  5
226C
  8
SAPA_PROFIL
 62
     2
 10
-116.88194664678311
 20
-73.501284435459013
 30
0.0
  0
VERTEX
  5
226D
  8
SAPA_PROFIL
 62
     2
 10
-118.5917386437032
 20
-73.501284435459013
 30
0.0
 42
0.4406523138893994
  0
VERTEX
  5
226E
  8
SAPA_PROFIL
 62
     2
 10
-118.8905401410448
 20
-73.828073709178909
 30
0.0
  0
VERTEX
  5
226F
  8
SAPA_PROFIL
 62
     2
 10
-118.42433021711859
 20
-77.728073709179
 30
0.0
 42
0.3882600129940462
  0
VERTEX
  5
2270
  8
SAPA_PROFIL
 62
     2
 10
-118.12552871977719
 20
-78.001284435459013
 30
0.0
  0
VERTEX
  5
2271
  8
SAPA_PROFIL
 62
     2
 10
-116.06334092723959
 20
-78.001284435459013
 30
0.0
  0
SEQEND
  5
2272
  8
SAPA_PROFIL
 62
     2
  0
POLYLINE
  5
17C8
  8
SAPA_PROFIL
 66
     1
 10
0.0
 20
0.0
 30
0.0
 70
     1
  0
VERTEX
  5
2273
  8
SAPA_PROFIL
 10
-70.488496764489582
 20
-21.228798409927681
 30
0.0
  0
VERTEX
  5
2274
  8
SAPA_PROFIL
 10
-70.640630675598345
 20
-20.944116126696041
 30
0.0
 42
-0.5773502691897463
  0
VERTEX
  5
2275
  8
SAPA_PROFIL
 10
-70.457676935488166
 20
-20.649959826441229
 30
0.0
  0
VERTEX
  5
2276
  8
SAPA_PROFIL
 10
-70.135919207269922
 20
-20.660521192668192
 30
0.0
  0
VERTEX
  5
2277
  8
SAPA_PROFIL
 10
-69.051354760298182
 20
-18.77467750080713
 30
0.0
  0
VERTEX
  5
2278
  8
SAPA_PROFIL
 10
-68.993281123309103
 20
-18.583294500813409
 30
0.0
 42
0.7625858545243257
  0
VERTEX
  5
2279
  8
SAPA_PROFIL
 10
-69.323607204326095
 20
-18.39871529861594
 30
0.0
 42
-0.2134217652834389
  0
VERTEX
  5
227A
  8
SAPA_PROFIL
 10
-69.547214002076217
 20
-18.498715298616059
 30
0.0
  0
VERTEX
  5
227B
  8
SAPA_PROFIL
 10
-73.400000002076197
 20
-18.498715298616059
 30
0.0
 42
0.4142139999998963
  0
VERTEX
  5
227C
  8
SAPA_PROFIL
 10
-73.700000002076209
 20
-18.798715298616099
 30
0.0
  0
VERTEX
  5
227D
  8
SAPA_PROFIL
 10
-73.700000002076209
 20
-19.09871529861606
 30
0.0
  0
VERTEX
  5
227E
  8
SAPA_PROFIL
 10
-72.776240002076165
 20
-20.69871529861604
 30
0.0
 42
-0.5773500000002674
  0
VERTEX
  5
227F
  8
SAPA_PROFIL
 10
-72.949445002076246
 20
-20.998715298616101
 30
0.0
  0
VERTEX
  5
2280
  8
SAPA_PROFIL
 10
-74.33508600207621
 20
-20.998715298616101
 30
0.0
 42
-0.267949000000023
  0
VERTEX
  5
2281
  8
SAPA_PROFIL
 10
-75.201111002076246
 20
-20.498715298616101
 30
0.0
  0
VERTEX
  5
2282
  8
SAPA_PROFIL
 10
-76.21147400207623
 20
-18.748715298616059
 30
0.0
 42
0.2679489999999919
  0
VERTEX
  5
2283
  8
SAPA_PROFIL
 10
-76.644487002076247
 20
-18.498715298616059
 30
0.0
  0
VERTEX
  5
2284
  8
SAPA_PROFIL
 10
-86.655514002076217
 20
-18.498715298616059
 30
0.0
 42
0.2679490000000193
  0
VERTEX
  5
2285
  8
SAPA_PROFIL
 10
-87.088527002076233
 20
-18.748715298616059
 30
0.0
  0
VERTEX
  5
2286
  8
SAPA_PROFIL
 10
-88.098890002076217
 20
-20.49871529861608
 30
0.0
 42
-0.2679490000000211
  0
VERTEX
  5
2287
  8
SAPA_PROFIL
 10
-88.964915002076253
 20
-20.998715298616091
 30
0.0
  0
VERTEX
  5
2288
  8
SAPA_PROFIL
 10
-90.350556002076218
 20
-20.998715298616091
 30
0.0
 42
-0.5773499999999721
  0
VERTEX
  5
2289
  8
SAPA_PROFIL
 10
-90.523761002076213
 20
-20.698715298616079
 30
0.0
  0
VERTEX
  5
228A
  8
SAPA_PROFIL
 10
-89.600000002076257
 20
-19.09871529861606
 30
0.0
  0
VERTEX
  5
228B
  8
SAPA_PROFIL
 10
-89.600000002076257
 20
-18.798715298616099
 30
0.0
 42
0.4142139999999657
  0
VERTEX
  5
228C
  8
SAPA_PROFIL
 10
-89.900000002076197
 20
-18.498715298616059
 30
0.0
  0
VERTEX
  5
228D
  8
SAPA_PROFIL
 10
-93.752787002076246
 20
-18.498715298616169
 30
0.0
 42
-0.2134217652834387
  0
VERTEX
  5
228E
  8
SAPA_PROFIL
 10
-93.976393799826383
 20
-18.39871529861604
 30
0.0
 42
0.7625858545243244
  0
VERTEX
  5
228F
  8
SAPA_PROFIL
 10
-94.30671988084336
 20
-18.583294500813519
 30
0.0
  0
VERTEX
  5
2290
  8
SAPA_PROFIL
 10
-94.248646243854253
 20
-18.77467750080724
 30
0.0
  0
VERTEX
  5
2291
  8
SAPA_PROFIL
 10
-93.164081796882513
 20
-20.660521192668298
 30
0.0
  0
VERTEX
  5
2292
  8
SAPA_PROFIL
 10
-92.842324068664254
 20
-20.649959826441322
 30
0.0
 42
-0.5773502691897466
  0
VERTEX
  5
2293
  8
SAPA_PROFIL
 10
-92.659370328554104
 20
-20.944116126696159
 30
0.0
  0
VERTEX
  5
2294
  8
SAPA_PROFIL
 10
-92.811504239662867
 20
-21.228798409927819
 30
0.0
 42
-0.2216946626430191
  0
VERTEX
  5
2295
  8
SAPA_PROFIL
 10
-93.352384071139653
 20
-21.63460731508259
 30
0.0
  0
VERTEX
  5
2296
  8
SAPA_PROFIL
 10
-95.165614541797908
 20
-22.01605391121031
 30
0.0
 42
-0.4769755326981641
  0
VERTEX
  5
2297
  8
SAPA_PROFIL
 10
-95.537271416743764
 20
-21.713801086703839
 30
0.0
  0
VERTEX
  5
2298
  8
SAPA_PROFIL
 10
-95.537187808860125
 20
-20.210700005941831
 30
0.0
  0
VERTEX
  5
2299
  8
SAPA_PROFIL
 10
-95.489342058861638
 20
-20.196181596694728
 30
0.0
 42
0.4142135623730953
  0
VERTEX
  5
229A
  8
SAPA_PROFIL
 10
-95.289378014354227
 20
-19.82199664121892
 30
0.0
  0
VERTEX
  5
229B
  8
SAPA_PROFIL
 10
-95.800000002076246
 20
-18.500881223784742
 30
0.0
  0
VERTEX
  5
229C
  8
SAPA_PROFIL
 10
-95.800000002076246
 20
-18.498715298616059
 30
0.0
  0
VERTEX
  5
229D
  8
SAPA_PROFIL
 10
-95.800000002076246
 20
-15.50623029861606
 30
0.0
 42
-0.2596809999999277
  0
VERTEX
  5
229E
  8
SAPA_PROFIL
 10
-95.705307002076225
 20
-15.33619929861608
 30
0.0
  0
VERTEX
  5
229F
  8
SAPA_PROFIL
 10
-94.457961002076232
 20
-14.543668298616071
 30
0.0
 42
-0.5877030000000004
  0
VERTEX
  5
22A0
  8
SAPA_PROFIL
 10
-94.00000000207622
 20
-14.7987152986161
 30
0.0
  0
VERTEX
  5
22A1
  8
SAPA_PROFIL
 10
-94.000000002076234
 20
-16.198715298616079
 30
0.0
 42
0.4142135623731089
  0
VERTEX
  5
22A2
  8
SAPA_PROFIL
 10
-93.700000002076223
 20
-16.498715298616059
 30
0.0
  0
VERTEX
  5
22A3
  8
SAPA_PROFIL
 10
-91.300000002076246
 20
-16.498715298616059
 30
0.0
 42
0.4142135623731088
  0
VERTEX
  5
22A4
  8
SAPA_PROFIL
 10
-91.000000002076234
 20
-16.198715298616079
 30
0.0
  0
VERTEX
  5
22A5
  8
SAPA_PROFIL
 10
-91.00000000207622
 20
-10.39871529861613
 30
0.0
  0
VERTEX
  5
22A6
  8
SAPA_PROFIL
 10
-91.00000000207622
 20
-8.3987152986161284
 30
0.0
  0
VERTEX
  5
22A7
  8
SAPA_PROFIL
 10
-91.00000000207622
 20
1.201284701383903
 30
0.0
 42
0.4142139999999172
  0
VERTEX
  5
22A8
  8
SAPA_PROFIL
 10
-91.300000002076231
 20
1.5012847013838999
 30
0.0
  0
VERTEX
  5
22A9
  8
SAPA_PROFIL
 10
-93.700000002076209
 20
1.5012847013838999
 30
0.0
 42
0.4142139999999103
  0
VERTEX
  5
22AA
  8
SAPA_PROFIL
 10
-94.00000000207622
 20
1.201284701383903
 30
0.0
  0
VERTEX
  5
22AB
  8
SAPA_PROFIL
 10
-94.00000000207622
 20
-0.1987152986160812
 30
0.0
 42
-0.5877030000000132
  0
VERTEX
  5
22AC
  8
SAPA_PROFIL
 10
-94.457961002076232
 20
-0.4537612986160813
 30
0.0
  0
VERTEX
  5
22AD
  8
SAPA_PROFIL
 10
-95.905307002076185
 20
0.4426377013839283
 30
0.0
 42
-0.259681000000005
  0
VERTEX
  5
22AE
  8
SAPA_PROFIL
 10
-96.00000000207622
 20
0.6126687013838872
 30
0.0
  0
VERTEX
  5
22AF
  8
SAPA_PROFIL
 10
-96.000000002076206
 20
3.2333357013839339
 30
0.0
 42
-0.1316520000000017
  0
VERTEX
  5
22B0
  8
SAPA_PROFIL
 10
-95.866026002076197
 20
3.733335701383941
 30
0.0
  0
VERTEX
  5
22B1
  8
SAPA_PROFIL
 10
-91.381198002076204
 20
11.501284701383939
 30
0.0
 42
-0.267948999999994
  0
VERTEX
  5
22B2
  8
SAPA_PROFIL
 10
-88.783122002076226
 20
13.001284701383931
 30
0.0
  0
VERTEX
  5
22B3
  8
SAPA_PROFIL
 10
-50.500000002076213
 20
13.0012847013839
 30
0.0
 42
-0.4142140000000114
  0
VERTEX
  5
22B4
  8
SAPA_PROFIL
 10
-47.500000002076199
 20
10.00128470138392
 30
0.0
  0
VERTEX
  5
22B5
  8
SAPA_PROFIL
 10
-47.500000002076121
 20
9.5012847013839234
 30
0.0
 42
-0.4241420000000259
  0
VERTEX
  5
22B6
  8
SAPA_PROFIL
 10
-48.533773002076217
 20
8.5018557013839526
 30
0.0
 42
-0.2988660000000032
  0
VERTEX
  5
22B7
  8
SAPA_PROFIL
 10
-49.471053002076161
 20
9.0727137013839467
 30
0.0
 42
-0.55075999999996
  0
VERTEX
  5
22B8
  8
SAPA_PROFIL
 10
-49.200000002076209
 20
9.5012847013839234
 30
0.0
  0
VERTEX
  5
22B9
  8
SAPA_PROFIL
 10
-48.900000002076197
 20
9.5012847013839234
 30
0.0
 42
0.4142139999998339
  0
VERTEX
  5
22BA
  8
SAPA_PROFIL
 10
-48.700000002076209
 20
9.7012847013838979
 30
0.0
  0
VERTEX
  5
22BB
  8
SAPA_PROFIL
 10
-48.700000002076209
 20
10.001284701383931
 30
0.0
 42
0.4142139999999946
  0
VERTEX
  5
22BC
  8
SAPA_PROFIL
 10
-50.500000002076213
 20
11.801284701383929
 30
0.0
  0
VERTEX
  5
22BD
  8
SAPA_PROFIL
 10
-51.200000002076209
 20
11.801284701383929
 30
0.0
 42
0.4142139999999852
  0
VERTEX
  5
22BE
  8
SAPA_PROFIL
 10
-53.000000002076213
 20
10.00128470138392
 30
0.0
  0
VERTEX
  5
22BF
  8
SAPA_PROFIL
 10
-53.000000002076213
 20
9.7012847013838979
 30
0.0
 42
0.4142139999998025
  0
VERTEX
  5
22C0
  8
SAPA_PROFIL
 10
-52.80000000207621
 20
9.5012847013839234
 30
0.0
  0
VERTEX
  5
22C1
  8
SAPA_PROFIL
 10
-52.500000002076199
 20
9.5012847013839092
 30
0.0
 42
-0.5507599999999105
  0
VERTEX
  5
22C2
  8
SAPA_PROFIL
 10
-52.228948002076152
 20
9.0727137013838952
 30
0.0
 42
-0.2988660000000063
  0
VERTEX
  5
22C3
  8
SAPA_PROFIL
 10
-53.166228002076188
 20
8.5018557013838674
 30
0.0
 42
-0.4241419999999882
  0
VERTEX
  5
22C4
  8
SAPA_PROFIL
 10
-54.200000002076209
 20
9.5012847013839234
 30
0.0
  0
VERTEX
  5
22C5
  8
SAPA_PROFIL
 10
-54.200000002076209
 20
10.801284701383929
 30
0.0
 42
0.4142140000000128
  0
VERTEX
  5
22C6
  8
SAPA_PROFIL
 10
-55.200000002076209
 20
11.801284701383929
 30
0.0
  0
VERTEX
  5
22C7
  8
SAPA_PROFIL
 10
-69.027929002076249
 20
11.02769470138391
 30
0.0
 42
0.3979379999999925
  0
VERTEX
  5
22C8
  8
SAPA_PROFIL
 10
-69.50000000207622
 20
10.528475701383931
 30
0.0
  0
VERTEX
  5
22C9
  8
SAPA_PROFIL
 10
-69.50000000207622
 20
6.0012847013839261
 30
0.0
 42
0.4142140000000251
  0
VERTEX
  5
22CA
  8
SAPA_PROFIL
 10
-69.00000000207622
 20
5.5012847013839261
 30
0.0
  0
VERTEX
  5
22CB
  8
SAPA_PROFIL
 10
-65.50000000207622
 20
5.5012847013839252
 30
0.0
 42
-0.4142140000000128
  0
VERTEX
  5
22CC
  8
SAPA_PROFIL
 10
-65.00000000207622
 20
5.0012847013839252
 30
0.0
  0
VERTEX
  5
22CD
  8
SAPA_PROFIL
 10
-65.000000002076206
 20
1.3012847013839079
 30
0.0
 42
-0.4142139999999104
  0
VERTEX
  5
22CE
  8
SAPA_PROFIL
 10
-65.300000002076231
 20
1.001284701383903
 30
0.0
  0
VERTEX
  5
22CF
  8
SAPA_PROFIL
 10
-66.200000002076209
 20
1.001284701383903
 30
0.0
 42
-0.4142139999999101
  0
VERTEX
  5
22D0
  8
SAPA_PROFIL
 10
-66.50000000207622
 20
1.3012847013839079
 30
0.0
  0
VERTEX
  5
22D1
  8
SAPA_PROFIL
 10
-66.50000000207622
 20
3.3012847013839361
 30
0.0
 42
0.4142139999999691
  0
VERTEX
  5
22D2
  8
SAPA_PROFIL
 10
-66.700000002076209
 20
3.5012847013839248
 30
0.0
  0
VERTEX
  5
22D3
  8
SAPA_PROFIL
 10
-69.50000000207622
 20
3.501284701383927
 30
0.0
 42
0.577350269189605
  0
VERTEX
  5
22D4
  8
SAPA_PROFIL
 10
-69.673205082833093
 20
3.2012847013839218
 30
0.0
  0
VERTEX
  5
22D5
  8
SAPA_PROFIL
 10
-69.50000000207622
 20
2.901284701383918
 30
0.0
  0
VERTEX
  5
22D6
  8
SAPA_PROFIL
 10
-69.500000002076163
 20
-0.8937152986161046
 30
0.0
 42
-0.414213999999992
  0
VERTEX
  5
22D7
  8
SAPA_PROFIL
 10
-70.00000000207622
 20
-1.3937152986161041
 30
0.0
  0
VERTEX
  5
22D8
  8
SAPA_PROFIL
 10
-70.700000002076195
 20
-1.3937152986161041
 30
0.0
 42
0.4142139999998548
  0
VERTEX
  5
22D9
  8
SAPA_PROFIL
 10
-71.00000000207622
 20
-1.6937152986160511
 30
0.0
  0
VERTEX
  5
22DA
  8
SAPA_PROFIL
 10
-71.00000000207622
 20
-6.8740992986160618
 30
0.0
  0
VERTEX
  5
22DB
  8
SAPA_PROFIL
 10
-71.300000002076231
 20
-7.3937152986161037
 30
0.0
  0
VERTEX
  5
22DC
  8
SAPA_PROFIL
 10
-71.00000000207622
 20
-7.913330298616077
 30
0.0
  0
VERTEX
  5
22DD
  8
SAPA_PROFIL
 10
-71.00000000207622
 20
-13.09371529861609
 30
0.0
 42
0.4142140000000351
  0
VERTEX
  5
22DE
  8
SAPA_PROFIL
 10
-70.700000002076195
 20
-13.393715298616099
 30
0.0
  0
VERTEX
  5
22DF
  8
SAPA_PROFIL
 10
-70.00000000207622
 20
-13.393715298616049
 30
0.0
 42
-0.4142140000000461
  0
VERTEX
  5
22E0
  8
SAPA_PROFIL
 10
-69.50000000207622
 20
-13.893715298616099
 30
0.0
  0
VERTEX
  5
22E1
  8
SAPA_PROFIL
 10
-69.50000000207622
 20
-15.8987152986161
 30
0.0
  0
VERTEX
  5
22E2
  8
SAPA_PROFIL
 10
-69.673205082833093
 20
-16.198715298616079
 30
0.0
 42
0.5773502691896303
  0
VERTEX
  5
22E3
  8
SAPA_PROFIL
 10
-69.50000000207622
 20
-16.498715298616059
 30
0.0
  0
VERTEX
  5
22E4
  8
SAPA_PROFIL
 10
-66.700000002076209
 20
-16.498715298616059
 30
0.0
 42
0.414213999999813
  0
VERTEX
  5
22E5
  8
SAPA_PROFIL
 10
-66.50000000207622
 20
-16.298715298616099
 30
0.0
  0
VERTEX
  5
22E6
  8
SAPA_PROFIL
 10
-66.500000002076249
 20
-14.2987152986161
 30
0.0
 42
-0.4142139999998962
  0
VERTEX
  5
22E7
  8
SAPA_PROFIL
 10
-66.200000002076209
 20
-13.998715298616061
 30
0.0
  0
VERTEX
  5
22E8
  8
SAPA_PROFIL
 10
-65.300000002076231
 20
-13.99871529861611
 30
0.0
 42
-0.4142139999999103
  0
VERTEX
  5
22E9
  8
SAPA_PROFIL
 10
-65.00000000207622
 20
-14.2987152986161
 30
0.0
  0
VERTEX
  5
22EA
  8
SAPA_PROFIL
 10
-65.000000002076234
 20
-17.998715298616059
 30
0.0
 42
-0.414214000000021
  0
VERTEX
  5
22EB
  8
SAPA_PROFIL
 10
-65.50000000207622
 20
-18.498715298616059
 30
0.0
  0
VERTEX
  5
22EC
  8
SAPA_PROFIL
 10
-67.200000002076209
 20
-18.498715298616059
 30
0.0
 42
0.4142135623730951
  0
VERTEX
  5
22ED
  8
SAPA_PROFIL
 10
-67.50000000207622
 20
-18.798715298616081
 30
0.0
  0
VERTEX
  5
22EE
  8
SAPA_PROFIL
 10
-68.010622989798208
 20
-19.82199664121881
 30
0.0
 42
0.4142135623730953
  0
VERTEX
  5
22EF
  8
SAPA_PROFIL
 10
-67.810658945290811
 20
-20.196181596694618
 30
0.0
  0
VERTEX
  5
22F0
  8
SAPA_PROFIL
 10
-67.762813195292324
 20
-20.210700005941732
 30
0.0
  0
VERTEX
  5
22F1
  8
SAPA_PROFIL
 10
-67.762729587408685
 20
-21.713801086703729
 30
0.0
 42
-0.4769755326981643
  0
VERTEX
  5
22F2
  8
SAPA_PROFIL
 10
-68.134386462354541
 20
-22.0160539112102
 30
0.0
  0
VERTEX
  5
22F3
  8
SAPA_PROFIL
 10
-69.947616933012796
 20
-21.634607315082501
 30
0.0
 42
-0.2216946626430193
  0
SEQEND
  5
22F4
  8
SAPA_PROFIL
  0
POLYLINE
  5
17C9
  8
SAPA_PROFIL
 66
     1
 10
0.0
 20
0.0
 30
0.0
 70
     1
  0
VERTEX
  5
22F5
  8
SAPA_PROFIL
 10
-87.400000002076197
 20
1.8012847013839111
 30
0.0
  0
VERTEX
  5
22F6
  8
SAPA_PROFIL
 10
-89.00000000207622
 20
1.8012847013839111
 30
0.0
 42
0.414214000000042
  0
VERTEX
  5
22F7
  8
SAPA_PROFIL
 10
-89.300000002076231
 20
1.5012847013838999
 30
0.0
  0
VERTEX
  5
22F8
  8
SAPA_PROFIL
 10
-89.300000002076246
 20
-16.498715298616059
 30
0.0
 42
0.4142140000001599
  0
VERTEX
  5
22F9
  8
SAPA_PROFIL
 10
-89.000000002076234
 20
-16.798715298616099
 30
0.0
  0
VERTEX
  5
22FA
  8
SAPA_PROFIL
 10
-87.400000002076197
 20
-16.798715298616099
 30
0.0
 42
0.4142140000000628
  0
VERTEX
  5
22FB
  8
SAPA_PROFIL
 10
-87.200000002076223
 20
-16.598715298616071
 30
0.0
  0
VERTEX
  5
22FC
  8
SAPA_PROFIL
 10
-87.200000002076223
 20
-16.498715298616059
 30
0.0
 42
-0.4142139999998963
  0
VERTEX
  5
22FD
  8
SAPA_PROFIL
 10
-86.900000002076212
 20
-16.198715298616079
 30
0.0
  0
VERTEX
  5
22FE
  8
SAPA_PROFIL
 10
-85.500000002076234
 20
-16.19871529861614
 30
0.0
 42
-0.4142139999999518
  0
VERTEX
  5
22FF
  8
SAPA_PROFIL
 10
-85.200000002076209
 20
-16.498715298616059
 30
0.0
  0
VERTEX
  5
2300
  8
SAPA_PROFIL
 10
-85.200000002076209
 20
-16.598715298616071
 30
0.0
 42
0.4142139999999794
  0
VERTEX
  5
2301
  8
SAPA_PROFIL
 10
-85.000000002076234
 20
-16.798715298616099
 30
0.0
  0
VERTEX
  5
2302
  8
SAPA_PROFIL
 10
-72.00000000207622
 20
-16.798715298616099
 30
0.0
 42
0.4142139999999962
  0
VERTEX
  5
2303
  8
SAPA_PROFIL
 10
-71.50000000207622
 20
-16.298715298616099
 30
0.0
  0
VERTEX
  5
2304
  8
SAPA_PROFIL
 10
-71.50000000207622
 20
-15.59371529861609
 30
0.0
 42
0.4142140000000128
  0
VERTEX
  5
2305
  8
SAPA_PROFIL
 10
-72.00000000207622
 20
-15.09371529861609
 30
0.0
  0
VERTEX
  5
2306
  8
SAPA_PROFIL
 10
-72.200000002076209
 20
-15.09371529861609
 30
0.0
 42
-0.4142140000000127
  0
VERTEX
  5
2307
  8
SAPA_PROFIL
 10
-72.700000002076209
 20
-14.59371529861609
 30
0.0
  0
VERTEX
  5
2308
  8
SAPA_PROFIL
 10
-72.700000002076266
 20
-0.1937152986160591
 30
0.0
 42
-0.4142139999999795
  0
VERTEX
  5
2309
  8
SAPA_PROFIL
 10
-72.200000002076209
 20
0.306284701383948
 30
0.0
  0
VERTEX
  5
230A
  8
SAPA_PROFIL
 10
-71.50000000207622
 20
0.306284701383948
 30
0.0
 42
0.4142140000000462
  0
VERTEX
  5
230B
  8
SAPA_PROFIL
 10
-71.00000000207622
 20
0.806284701383948
 30
0.0
  0
VERTEX
  5
230C
  8
SAPA_PROFIL
 10
-71.00000000207622
 20
10.501284701383931
 30
0.0
 42
0.4142140000000128
  0
VERTEX
  5
230D
  8
SAPA_PROFIL
 10
-71.50000000207622
 20
11.00128470138392
 30
0.0
  0
VERTEX
  5
230E
  8
SAPA_PROFIL
 10
-88.783122002076226
 20
11.001284701383931
 30
0.0
 42
0.2679490000000162
  0
VERTEX
  5
230F
  8
SAPA_PROFIL
 10
-89.649147002076248
 20
10.501284701383931
 30
0.0
  0
VERTEX
  5
2310
  8
SAPA_PROFIL
 10
-93.546262002076233
 20
3.7512847013839279
 30
0.0
 42
0.5773500000000551
  0
VERTEX
  5
2311
  8
SAPA_PROFIL
 10
-93.286454002076212
 20
3.3012847013839401
 30
0.0
  0
VERTEX
  5
2312
  8
SAPA_PROFIL
 10
-86.700000002076195
 20
3.3012847013839179
 30
0.0
 42
-0.4142140000000155
  0
VERTEX
  5
2313
  8
SAPA_PROFIL
 10
-85.200000002076209
 20
1.8012847013839111
 30
0.0
  0
VERTEX
  5
2314
  8
SAPA_PROFIL
 10
-85.200000002076209
 20
1.60128470138388
 30
0.0
  0
VERTEX
  5
2315
  8
SAPA_PROFIL
 10
-85.200000002076266
 20
1.5012847013838999
 30
0.0
 42
-0.4142140000000836
  0
VERTEX
  5
2316
  8
SAPA_PROFIL
 10
-85.500000002076234
 20
1.201284701383903
 30
0.0
  0
VERTEX
  5
2317
  8
SAPA_PROFIL
 10
-86.900000002076197
 20
1.201284701383768
 30
0.0
 42
-0.4142140000000351
  0
VERTEX
  5
2318
  8
SAPA_PROFIL
 10
-87.200000002076209
 20
1.5012847013838999
 30
0.0
  0
VERTEX
  5
2319
  8
SAPA_PROFIL
 10
-87.200000002076209
 20
1.60128470138388
 30
0.0
 42
0.4142139999998962
  0
SEQEND
  5
231A
  8
SAPA_PROFIL
  0
POLYLINE
  5
17CA
  8
SAPA_PROFIL
 66
     1
 10
0.0
 20
0.0
 30
0.0
 70
     1
  0
VERTEX
  5
231B
  8
SAPA_PROFIL
 10
-93.976394002078337
 20
-60.59871529861617
 30
0.0
 42
-0.2134220000000103
  0
VERTEX
  5
231C
  8
SAPA_PROFIL
 10
-93.752787002078378
 20
-60.498715298616148
 30
0.0
  0
VERTEX
  5
231D
  8
SAPA_PROFIL
 10
-89.900000002078329
 20
-60.498715298616148
 30
0.0
 42
0.414213999999924
  0
VERTEX
  5
231E
  8
SAPA_PROFIL
 10
-89.600000002078275
 20
-60.198715298616193
 30
0.0
  0
VERTEX
  5
231F
  8
SAPA_PROFIL
 10
-89.600000002078318
 20
-59.898715298616182
 30
0.0
  0
VERTEX
  5
2320
  8
SAPA_PROFIL
 10
-90.523761002078345
 20
-58.298715298616159
 30
0.0
 42
-0.5773500000001196
  0
VERTEX
  5
2321
  8
SAPA_PROFIL
 10
-90.350556002078349
 20
-57.998715298616148
 30
0.0
  0
VERTEX
  5
2322
  8
SAPA_PROFIL
 10
-88.964915002078328
 20
-57.998715298616148
 30
0.0
 42
-0.2679489999999719
  0
VERTEX
  5
2323
  8
SAPA_PROFIL
 10
-88.098890002078349
 20
-58.498715298616148
 30
0.0
  0
VERTEX
  5
2324
  8
SAPA_PROFIL
 10
-87.088527002078365
 20
-60.248715298616148
 30
0.0
 42
0.267949000000012
  0
VERTEX
  5
2325
  8
SAPA_PROFIL
 10
-86.655514002078348
 20
-60.498715298616268
 30
0.0
  0
VERTEX
  5
2326
  8
SAPA_PROFIL
 10
-76.644487002078336
 20
-60.498715298616148
 30
0.0
 42
0.2679490000000104
  0
VERTEX
  5
2327
  8
SAPA_PROFIL
 10
-76.211474002078404
 20
-60.248715298616133
 30
0.0
  0
VERTEX
  5
2328
  8
SAPA_PROFIL
 10
-75.201111002078335
 20
-58.498715298616148
 30
0.0
 42
-0.2679489999999809
  0
VERTEX
  5
2329
  8
SAPA_PROFIL
 10
-74.335086002078356
 20
-57.998715298616148
 30
0.0
  0
VERTEX
  5
232A
  8
SAPA_PROFIL
 10
-72.949445002078335
 20
-57.998715298616148
 30
0.0
 42
-0.5773500000001198
  0
VERTEX
  5
232B
  8
SAPA_PROFIL
 10
-72.776240002078339
 20
-58.298715298616159
 30
0.0
  0
VERTEX
  5
232C
  8
SAPA_PROFIL
 10
-73.700000002078355
 20
-59.898715298616182
 30
0.0
  0
VERTEX
  5
232D
  8
SAPA_PROFIL
 10
-73.700000002078355
 20
-60.198715298616193
 30
0.0
 42
0.4142139999999795
  0
VERTEX
  5
232E
  8
SAPA_PROFIL
 10
-73.400000002078343
 20
-60.498715298616027
 30
0.0
  0
VERTEX
  5
232F
  8
SAPA_PROFIL
 10
-69.547214002078363
 20
-60.498715298616148
 30
0.0
 42
-0.2134217652834391
  0
VERTEX
  5
2330
  8
SAPA_PROFIL
 10
-69.323607204328255
 20
-60.59871529861627
 30
0.0
 42
0.7625858545243247
  0
VERTEX
  5
2331
  8
SAPA_PROFIL
 10
-68.993281123311249
 20
-60.414136096418801
 30
0.0
  0
VERTEX
  5
2332
  8
SAPA_PROFIL
 10
-69.051354760300342
 20
-60.22275309642508
 30
0.0
  0
VERTEX
  5
2333
  8
SAPA_PROFIL
 10
-70.135919207272082
 20
-58.336909404564032
 30
0.0
  0
VERTEX
  5
2334
  8
SAPA_PROFIL
 10
-70.457676935490326
 20
-58.347470770790999
 30
0.0
 42
-0.5773502691897466
  0
VERTEX
  5
2335
  8
SAPA_PROFIL
 10
-70.640630675600505
 20
-58.053314470536172
 30
0.0
  0
VERTEX
  5
2336
  8
SAPA_PROFIL
 10
-70.488496764491742
 20
-57.768632187304519
 30
0.0
 42
-0.2216946626430194
  0
VERTEX
  5
2337
  8
SAPA_PROFIL
 10
-69.947616933014956
 20
-57.362823282149733
 30
0.0
  0
VERTEX
  5
2338
  8
SAPA_PROFIL
 10
-68.134386462356701
 20
-56.981376686022017
 30
0.0
 42
-0.4769755326981641
  0
VERTEX
  5
2339
  8
SAPA_PROFIL
 10
-67.762729587410831
 20
-57.283629510528478
 30
0.0
  0
VERTEX
  5
233A
  8
SAPA_PROFIL
 10
-67.762813195294484
 20
-58.786730591290492
 30
0.0
  0
VERTEX
  5
233B
  8
SAPA_PROFIL
 10
-67.810658945292971
 20
-58.801249000537588
 30
0.0
 42
0.4142135623730951
  0
VERTEX
  5
233C
  8
SAPA_PROFIL
 10
-68.010622989800368
 20
-59.175433956013407
 30
0.0
  0
VERTEX
  5
233D
  8
SAPA_PROFIL
 10
-67.500000002078423
 20
-60.49655196071442
 30
0.0
  0
VERTEX
  5
233E
  8
SAPA_PROFIL
 10
-67.500000002078366
 20
-61.736611298616182
 30
0.0
 42
-0.2914730000000021
  0
VERTEX
  5
233F
  8
SAPA_PROFIL
 10
-68.077382002078366
 20
-62.64291929861615
 30
0.0
  0
VERTEX
  5
2340
  8
SAPA_PROFIL
 10
-70.569522002078372
 20
-63.805023298616149
 30
0.0
 42
-0.3888789999999682
  0
VERTEX
  5
2341
  8
SAPA_PROFIL
 10
-71.858166002078349
 20
-63.398715298616182
 30
0.0
  0
VERTEX
  5
2342
  8
SAPA_PROFIL
 10
-71.944769002078374
 20
-63.248715298616141
 30
0.0
 42
0.2679490000000116
  0
VERTEX
  5
2343
  8
SAPA_PROFIL
 10
-72.377781002078336
 20
-62.998715298616112
 30
0.0
  0
VERTEX
  5
2344
  8
SAPA_PROFIL
 10
-80.500000002078366
 20
-62.998715298616148
 30
0.0
 42
0.4142139999999962
  0
VERTEX
  5
2345
  8
SAPA_PROFIL
 10
-81.500000002078423
 20
-63.998715298616148
 30
0.0
  0
VERTEX
  5
2346
  8
SAPA_PROFIL
 10
-81.500000002078366
 20
-65.34871529861617
 30
0.0
 42
0.4142140000000128
  0
VERTEX
  5
2347
  8
SAPA_PROFIL
 10
-81.000000002078366
 20
-65.84871529861617
 30
0.0
  0
VERTEX
  5
2348
  8
SAPA_PROFIL
 10
-77.867767783264924
 20
-65.84871529861617
 30
0.0
 42
-0.198912367379658
  0
VERTEX
  5
2349
  8
SAPA_PROFIL
 10
-76.453554220891803
 20
-66.434501736243078
 30
0.0
  0
VERTEX
  5
234A
  8
SAPA_PROFIL
 10
-73.720260605847272
 20
-69.167795351287637
 30
0.0
 42
-1.000556671980007
  0
VERTEX
  5
234B
  8
SAPA_PROFIL
 10
-74.780331002078356
 20
-70.229045298616185
 30
0.0
  0
VERTEX
  5
234C
  8
SAPA_PROFIL
 10
-77.414214002078381
 20
-67.59516229861616
 30
0.0
 42
0.1989120000000246
  0
VERTEX
  5
234D
  8
SAPA_PROFIL
 10
-77.767767002078358
 20
-67.44871529861615
 30
0.0
  0
VERTEX
  5
234E
  8
SAPA_PROFIL
 10
-81.000000002078366
 20
-67.448715298616193
 30
0.0
 42
0.4142140000000129
  0
VERTEX
  5
234F
  8
SAPA_PROFIL
 10
-81.500000002078366
 20
-67.948715298616193
 30
0.0
  0
VERTEX
  5
2350
  8
SAPA_PROFIL
 10
-81.500000002078366
 20
-74.948715298616193
 30
0.0
 42
0.4142140000000128
  0
VERTEX
  5
2351
  8
SAPA_PROFIL
 10
-81.000000002078366
 20
-75.448715298616193
 30
0.0
  0
VERTEX
  5
2352
  8
SAPA_PROFIL
 10
-73.800000002078377
 20
-75.448715298616136
 30
0.0
 42
-0.4142140000000351
  0
VERTEX
  5
2353
  8
SAPA_PROFIL
 10
-73.500000002078366
 20
-75.748715298616133
 30
0.0
  0
VERTEX
  5
2354
  8
SAPA_PROFIL
 10
-73.500000002078366
 20
-75.910938298616145
 30
0.0
 42
-0.3482370000000729
  0
VERTEX
  5
2355
  8
SAPA_PROFIL
 10
-73.731495002078361
 20
-76.203012298616144
 30
0.0
  0
VERTEX
  5
2356
  8
SAPA_PROFIL
 10
-77.337170002078381
 20
-77.048715298616102
 30
0.0
  0
VERTEX
  5
2357
  8
SAPA_PROFIL
 10
-81.000000002078366
 20
-77.048715298616102
 30
0.0
 42
0.4142139999999796
  0
VERTEX
  5
2358
  8
SAPA_PROFIL
 10
-81.500000002078423
 20
-77.548715298616102
 30
0.0
  0
VERTEX
  5
2359
  8
SAPA_PROFIL
 10
-81.500000002078366
 20
-79.998715298616133
 30
0.0
 42
0.414214000000017
  0
VERTEX
  5
235A
  8
SAPA_PROFIL
 10
-81.000000002078366
 20
-80.498715298616148
 30
0.0
 42
-0.4142140000000127
  0
VERTEX
  5
235B
  8
SAPA_PROFIL
 10
-80.500000002078366
 20
-80.998715298616133
 30
0.0
  0
VERTEX
  5
235C
  8
SAPA_PROFIL
 10
-80.500000002078366
 20
-81.998715298616148
 30
0.0
 42
-0.414214000000017
  0
VERTEX
  5
235D
  8
SAPA_PROFIL
 10
-81.000000002078366
 20
-82.498715298616133
 30
0.0
  0
VERTEX
  5
235E
  8
SAPA_PROFIL
 10
-117.50000000207829
 20
-82.498715298616133
 30
0.0
  0
VERTEX
  5
235F
  8
SAPA_PROFIL
 10
-118.00000000207829
 20
-81.998715298616148
 30
0.0
  0
VERTEX
  5
2360
  8
SAPA_PROFIL
 10
-118.00000000207829
 20
-78.298715298616102
 30
0.0
 42
-0.4142139999999863
  0
VERTEX
  5
2361
  8
SAPA_PROFIL
 10
-117.7000000020783
 20
-77.998715298616148
 30
0.0
  0
VERTEX
  5
2362
  8
SAPA_PROFIL
 10
-116.9324560020783
 20
-77.998715298616148
 30
0.0
 42
-0.2896899999999678
  0
VERTEX
  5
2363
  8
SAPA_PROFIL
 10
-116.02894800207839
 20
-78.570144298616114
 30
0.0
 42
-0.5507599999999711
  0
VERTEX
  5
2364
  8
SAPA_PROFIL
 10
-116.30000000207841
 20
-78.998715298616148
 30
0.0
  0
VERTEX
  5
2365
  8
SAPA_PROFIL
 10
-116.50000000207829
 20
-78.998715298616148
 30
0.0
 42
0.4142139999998755
  0
VERTEX
  5
2366
  8
SAPA_PROFIL
 10
-116.80000000207831
 20
-79.298715298616102
 30
0.0
  0
VERTEX
  5
2367
  8
SAPA_PROFIL
 10
-116.80000000207831
 20
-80.798715298616116
 30
0.0
 42
0.4142140000000503
  0
VERTEX
  5
2368
  8
SAPA_PROFIL
 10
-116.30000000207841
 20
-81.298715298616145
 30
0.0
  0
VERTEX
  5
2369
  8
SAPA_PROFIL
 10
-113.00000000207829
 20
-81.298715298616102
 30
0.0
 42
0.4142140000000419
  0
VERTEX
  5
236A
  8
SAPA_PROFIL
 10
-112.50000000207839
 20
-80.798715298616116
 30
0.0
  0
VERTEX
  5
236B
  8
SAPA_PROFIL
 10
-112.50000000207829
 20
-79.298715298616102
 30
0.0
 42
0.4142139999999794
  0
VERTEX
  5
236C
  8
SAPA_PROFIL
 10
-112.80000000207831
 20
-78.998715298616261
 30
0.0
  0
VERTEX
  5
236D
  8
SAPA_PROFIL
 10
-113.00000000207829
 20
-78.998715298616148
 30
0.0
 42
-0.5507599999999436
  0
VERTEX
  5
236E
  8
SAPA_PROFIL
 10
-113.2710530020783
 20
-78.570144298616114
 30
0.0
 42
-0.2896899999999595
  0
VERTEX
  5
236F
  8
SAPA_PROFIL
 10
-112.3675450020783
 20
-77.998715298616148
 30
0.0
  0
VERTEX
  5
2370
  8
SAPA_PROFIL
 10
-111.3700730020783
 20
-77.998715298616148
 30
0.0
 42
-0.0436610000000022
  0
VERTEX
  5
2371
  8
SAPA_PROFIL
 10
-111.28324900207831
 20
-78.006311298616183
 30
0.0
  0
VERTEX
  5
2372
  8
SAPA_PROFIL
 10
-109.7131760020783
 20
-78.283158298616144
 30
0.0
 42
-0.8391000000000101
  0
VERTEX
  5
2373
  8
SAPA_PROFIL
 10
-109.7131760020783
 20
-79.267965298616147
 30
0.0
  0
VERTEX
  5
2374
  8
SAPA_PROFIL
 10
-110.8868250020783
 20
-79.474911298616107
 30
0.0
 42
0.3639700000000376
  0
VERTEX
  5
2375
  8
SAPA_PROFIL
 10
-111.30000000207841
 20
-79.967315298616185
 30
0.0
  0
VERTEX
  5
2376
  8
SAPA_PROFIL
 10
-111.30000000207841
 20
-80.798715298616116
 30
0.0
 42
0.437328000000032
  0
VERTEX
  5
2377
  8
SAPA_PROFIL
 10
-110.7609060020783
 20
-81.297185298616185
 30
0.0
  0
VERTEX
  5
2378
  8
SAPA_PROFIL
 10
-96.287847002078365
 20
-80.710386298616157
 30
0.0
 42
0.4023939999998692
  0
VERTEX
  5
2379
  8
SAPA_PROFIL
 10
-96.000000002078266
 20
-80.410632298616164
 30
0.0
  0
VERTEX
  5
237A
  8
SAPA_PROFIL
 10
-96.000000002078366
 20
-79.610099298616134
 30
0.0
 42
-0.259680999999983
  0
VERTEX
  5
237B
  8
SAPA_PROFIL
 10
-95.905307002078345
 20
-79.440068298616154
 30
0.0
  0
VERTEX
  5
237C
  8
SAPA_PROFIL
 10
-94.457961002078378
 20
-78.543669298616095
 30
0.0
 42
-0.5877029999999889
  0
VERTEX
  5
237D
  8
SAPA_PROFIL
 10
-94.000000002078366
 20
-78.798715298616102
 30
0.0
  0
VERTEX
  5
237E
  8
SAPA_PROFIL
 10
-94.000000002078366
 20
-80.198715298616136
 30
0.0
 42
0.4142140000000349
  0
VERTEX
  5
237F
  8
SAPA_PROFIL
 10
-93.700000002078355
 20
-80.498715298616034
 30
0.0
  0
VERTEX
  5
2380
  8
SAPA_PROFIL
 10
-91.300000002078377
 20
-80.498715298616148
 30
0.0
 42
0.4142140000000349
  0
VERTEX
  5
2381
  8
SAPA_PROFIL
 10
-91.000000002078266
 20
-80.198715298616136
 30
0.0
  0
VERTEX
  5
2382
  8
SAPA_PROFIL
 10
-91.000000002078366
 20
-72.018331298616175
 30
0.0
  0
VERTEX
  5
2383
  8
SAPA_PROFIL
 10
-90.700000002078355
 20
-71.498715298616133
 30
0.0
  0
VERTEX
  5
2384
  8
SAPA_PROFIL
 10
-91.000000002078366
 20
-70.97910029861616
 30
0.0
  0
VERTEX
  5
2385
  8
SAPA_PROFIL
 10
-91.000000002078366
 20
-62.798715298616152
 30
0.0
 42
0.4142135623730882
  0
VERTEX
  5
2386
  8
SAPA_PROFIL
 10
-91.300000002078335
 20
-62.498715298616141
 30
0.0
  0
VERTEX
  5
2387
  8
SAPA_PROFIL
 10
-93.700000002078355
 20
-62.498715298616141
 30
0.0
 42
0.4142135623730882
  0
VERTEX
  5
2388
  8
SAPA_PROFIL
 10
-94.000000002078366
 20
-62.798715298616152
 30
0.0
  0
VERTEX
  5
2389
  8
SAPA_PROFIL
 10
-94.000000002078366
 20
-64.198715298616193
 30
0.0
 42
-0.5877029999999041
  0
VERTEX
  5
238A
  8
SAPA_PROFIL
 10
-94.457961002078378
 20
-64.453762298616184
 30
0.0
  0
VERTEX
  5
238B
  8
SAPA_PROFIL
 10
-95.705307002078385
 20
-63.661230298616182
 30
0.0
 42
-0.2596809999999552
  0
VERTEX
  5
238C
  8
SAPA_PROFIL
 10
-95.800000002078363
 20
-63.491200298616178
 30
0.0
  0
VERTEX
  5
238D
  8
SAPA_PROFIL
 10
-95.800000002078363
 20
-60.496549373447579
 30
0.0
  0
VERTEX
  5
238E
  8
SAPA_PROFIL
 10
-95.289378014356402
 20
-59.175433956013407
 30
0.0
 42
0.4142135623730953
  0
VERTEX
  5
238F
  8
SAPA_PROFIL
 10
-95.489342058863798
 20
-58.801249000537588
 30
0.0
  0
VERTEX
  5
2390
  8
SAPA_PROFIL
 10
-95.537187808862285
 20
-58.786730591290492
 30
0.0
  0
VERTEX
  5
2391
  8
SAPA_PROFIL
 10
-95.537271416745895
 20
-57.283629510528478
 30
0.0
 42
-0.4769755326981643
  0
VERTEX
  5
2392
  8
SAPA_PROFIL
 10
-95.165614541800053
 20
-56.981376686022017
 30
0.0
  0
VERTEX
  5
2393
  8
SAPA_PROFIL
 10
-93.352384071141799
 20
-57.362823282149733
 30
0.0
 42
-0.2216946626430194
  0
VERTEX
  5
2394
  8
SAPA_PROFIL
 10
-92.811504239665027
 20
-57.768632187304533
 30
0.0
  0
VERTEX
  5
2395
  8
SAPA_PROFIL
 10
-92.659370328556236
 20
-58.053314470536172
 30
0.0
 42
-0.5773502691897466
  0
VERTEX
  5
2396
  8
SAPA_PROFIL
 10
-92.842324068666443
 20
-58.347470770790991
 30
0.0
  0
VERTEX
  5
2397
  8
SAPA_PROFIL
 10
-93.164081796884687
 20
-58.336909404564032
 30
0.0
  0
VERTEX
  5
2398
  8
SAPA_PROFIL
 10
-94.248646243856427
 20
-60.22275309642508
 30
0.0
  0
VERTEX
  5
2399
  8
SAPA_PROFIL
 10
-94.306719880845492
 20
-60.414136096418787
 30
0.0
 42
0.7625858545243257
  0
VERTEX
  5
239A
  8
SAPA_PROFIL
 10
-93.976393799828486
 20
-60.59871529861627
 30
0.0
  0
SEQEND
  5
239B
  8
SAPA_PROFIL
  0
POLYLINE
  5
17CB
  8
SAPA_PROFIL
 66
     1
 10
0.0
 20
0.0
 30
0.0
 70
     1
  0
VERTEX
  5
239C
  8
SAPA_PROFIL
 10
-83.500000002078366
 20
-62.198715298616193
 30
0.0
  0
VERTEX
  5
239D
  8
SAPA_PROFIL
 10
-89.000000002078366
 20
-62.198715298616193
 30
0.0
 42
0.4142139999999252
  0
VERTEX
  5
239E
  8
SAPA_PROFIL
 10
-89.300000002078377
 20
-62.498715298616141
 30
0.0
  0
VERTEX
  5
239F
  8
SAPA_PROFIL
 10
-89.300000002078377
 20
-80.498715298616148
 30
0.0
 42
0.4142139999998691
  0
VERTEX
  5
23A0
  8
SAPA_PROFIL
 10
-89.000000002078366
 20
-80.798715298616116
 30
0.0
  0
VERTEX
  5
23A1
  8
SAPA_PROFIL
 10
-83.500000002078366
 20
-80.798715298616116
 30
0.0
 42
0.4142135623730951
  0
VERTEX
  5
23A2
  8
SAPA_PROFIL
 10
-83.200000002078355
 20
-80.498715298616148
 30
0.0
  0
VERTEX
  5
23A3
  8
SAPA_PROFIL
 10
-83.200000002078355
 20
-62.498715298616141
 30
0.0
 42
0.4142139999999803
  0
SEQEND
  5
23A4
  8
SAPA_PROFIL
  0
POLYLINE
  5
17CC
  8
SAPA_PROFIL
 62
     4
 66
     1
 10
0.0
 20
0.0
 30
0.0
  0
VERTEX
  5
23A5
  8
SAPA_PROFIL
 62
     4
 10
-93.094428837964443
 20
-30.449386176261719
 30
0.0
 42
-0.5571646428658034
  0
VERTEX
  5
23A6
  8
SAPA_PROFIL
 62
     4
 10
-92.226709923808883
 20
-30.986346680398551
 30
0.0
  0
VERTEX
  5
23A7
  8
SAPA_PROFIL
 62
     4
 10
-92.226709923809352
 20
-48.011083916919752
 30
0.0
 42
-0.5571645048035741
  0
VERTEX
  5
23A8
  8
SAPA_PROFIL
 62
     4
 10
-93.094428611675525
 20
-48.548044533880798
 30
0.0
  0
VERTEX
  5
23A9
  8
SAPA_PROFIL
 62
     4
 10
-94.760569267743534
 20
-47.717337446334113
 30
0.0
 42
-0.284385813979063
  0
VERTEX
  5
23AA
  8
SAPA_PROFIL
 62
     4
 10
-94.926709923810975
 20
-47.44885713785375
 30
0.0
  0
VERTEX
  5
23AB
  8
SAPA_PROFIL
 62
     4
 10
-94.926709923810975
 20
-31.54857345946445
 30
0.0
 42
-0.2843858139786238
  0
VERTEX
  5
23AC
  8
SAPA_PROFIL
 62
     4
 10
-94.76056926774406
 20
-31.280093150984161
 30
0.0
  0
VERTEX
  5
23AD
  8
SAPA_PROFIL
 62
     4
 10
-93.094428611674715
 20
-30.449386063437
 30
0.0
  0
SEQEND
  5
23AE
  8
SAPA_PROFIL
 62
     4
  0
POLYLINE
  5
17CD
  8
SAPA_PROFIL
 62
     4
 66
     1
 10
0.0
 20
0.0
 30
0.0
 70
     1
  0
VERTEX
  5
23AF
  8
SAPA_PROFIL
 62
     4
 10
-95.283541438308561
 20
-53.916326483326387
 30
0.0
  0
VERTEX
  5
23B0
  8
SAPA_PROFIL
 62
     4
 10
-95.690101634312697
 20
-54.180349761702402
 30
0.0
 42
0.2539676464751066
  0
VERTEX
  5
23B1
  8
SAPA_PROFIL
 62
     4
 10
-95.826709923808806
 20
-54.431950932087112
 30
0.0
  0
VERTEX
  5
23B2
  8
SAPA_PROFIL
 62
     4
 10
-95.826709923808806
 20
-55.813450517292459
 30
0.0
 42
0.3152987888790479
  0
VERTEX
  5
23B3
  8
SAPA_PROFIL
 62
     4
 10
-95.497719995470646
 20
-56.283296827684772
 30
0.0
  0
VERTEX
  5
23B4
  8
SAPA_PROFIL
 62
     4
 10
-93.036889805019356
 20
-57.178965768593379
 30
0.0
 42
-0.2694959974287434
  0
VERTEX
  5
23B5
  8
SAPA_PROFIL
 62
     4
 10
-92.843757830675472
 20
-57.410484814994732
 30
0.0
 42
-0.0612686379508233
  0
VERTEX
  5
23B6
  8
SAPA_PROFIL
 62
     4
 10
-92.830174460044958
 20
-57.703160247848011
 30
0.0
  0
VERTEX
  5
23B7
  8
SAPA_PROFIL
 62
     4
 10
-92.628437781316137
 20
-58.052578425156277
 30
0.0
 42
-0.5773502691891679
  0
VERTEX
  5
23B8
  8
SAPA_PROFIL
 62
     4
 10
-92.810303116110703
 20
-58.367578425155862
 30
0.0
  0
VERTEX
  5
23B9
  8
SAPA_PROFIL
 62
     4
 10
-93.077417644237016
 20
-58.367578425156097
 30
0.0
  0
VERTEX
  5
23BA
  8
SAPA_PROFIL
 62
     4
 10
-93.886101105545336
 20
-59.766106125790358
 30
0.0
 42
0.1318219888653519
  0
VERTEX
  5
23BB
  8
SAPA_PROFIL
 62
     4
 10
-93.926393502082732
 20
-59.916279228262702
 30
0.0
  0
VERTEX
  5
23BC
  8
SAPA_PROFIL
 62
     4
 10
-93.926393502076365
 20
-60.098715298699481
 30
0.0
 42
0.4142135623724291
  0
VERTEX
  5
23BD
  8
SAPA_PROFIL
 62
     4
 10
-93.526393502076715
 20
-60.498715298700027
 30
0.0
  0
VERTEX
  5
23BE
  8
SAPA_PROFIL
 62
     4
 10
-90.126393502075729
 20
-60.498715298698663
 30
0.0
 42
0.4142135623744271
  0
VERTEX
  5
23BF
  8
SAPA_PROFIL
 62
     4
 10
-89.726393502074714
 20
-60.098715298699481
 30
0.0
  0
VERTEX
  5
23C0
  8
SAPA_PROFIL
 62
     4
 10
-89.726393502074075
 20
-59.919100056428178
 30
0.0
 42
0.1316524975874005
  0
VERTEX
  5
23C1
  8
SAPA_PROFIL
 62
     4
 10
-89.766585880939687
 20
-59.769100056431363
 30
0.0
  0
VERTEX
  5
23C2
  8
SAPA_PROFIL
 62
     4
 10
-90.692735327592217
 20
-58.164962159429109
 30
0.0
 42
-0.1316524975875904
  0
VERTEX
  5
23C3
  8
SAPA_PROFIL
 62
     4
 10
-90.826709923806973
 20
-57.664962159427397
 30
0.0
  0
VERTEX
  5
23C4
  8
SAPA_PROFIL
 62
     4
 10
-90.826709923806973
 20
-57.248715298700027
 30
0.0
 42
-0.4142135623730951
  0
VERTEX
  5
23C5
  8
SAPA_PROFIL
 62
     4
 10
-89.826709923806987
 20
-56.24871529870002
 30
0.0
  0
VERTEX
  5
23C6
  8
SAPA_PROFIL
 62
     4
 10
-86.826709923809716
 20
-56.24871529870002
 30
0.0
 42
0.9999996830128083
  0
VERTEX
  5
23C7
  8
SAPA_PROFIL
 62
     4
 10
-86.826709923807897
 20
-55.248715298700027
 30
0.0
  0
VERTEX
  5
23C8
  8
SAPA_PROFIL
 62
     4
 10
-89.826709923807897
 20
-55.248715298700027
 30
0.0
 42
-0.4142135623730951
  0
VERTEX
  5
23C9
  8
SAPA_PROFIL
 62
     4
 10
-90.826709923807897
 20
-54.248715298700027
 30
0.0
  0
VERTEX
  5
23CA
  8
SAPA_PROFIL
 62
     4
 10
-90.826709923807897
 20
-24.748715298615451
 30
0.0
 42
-0.4142135623730951
  0
VERTEX
  5
23CB
  8
SAPA_PROFIL
 62
     4
 10
-89.826709923807897
 20
-23.748715298615451
 30
0.0
  0
VERTEX
  5
23CC
  8
SAPA_PROFIL
 62
     4
 10
-86.826709923809716
 20
-23.748715298615451
 30
0.0
 42
0.9999999999999998
  0
VERTEX
  5
23CD
  8
SAPA_PROFIL
 62
     4
 10
-86.826709923809716
 20
-22.748715298615441
 30
0.0
  0
VERTEX
  5
23CE
  8
SAPA_PROFIL
 62
     4
 10
-89.826709923807897
 20
-22.748715298615441
 30
0.0
 42
-0.4142135623736278
  0
VERTEX
  5
23CF
  8
SAPA_PROFIL
 62
     4
 10
-90.826709923807897
 20
-21.748715298615441
 30
0.0
  0
VERTEX
  5
23D0
  8
SAPA_PROFIL
 62
     4
 10
-90.826709923807897
 20
-21.332468437888981
 30
0.0
 42
-0.1316524975874375
  0
VERTEX
  5
23D1
  8
SAPA_PROFIL
 62
     4
 10
-90.692735327591862
 20
-20.832468437888789
 30
0.0
  0
VERTEX
  5
23D2
  8
SAPA_PROFIL
 62
     4
 10
-89.766585880939687
 20
-19.228330540886841
 30
0.0
 42
0.1316524975874
  0
VERTEX
  5
23D3
  8
SAPA_PROFIL
 62
     4
 10
-89.726393502074075
 20
-19.07833054088729
 30
0.0
  0
VERTEX
  5
23D4
  8
SAPA_PROFIL
 62
     4
 10
-89.726393502074714
 20
-18.89871529861599
 30
0.0
 42
0.4142135623744271
  0
VERTEX
  5
23D5
  8
SAPA_PROFIL
 62
     4
 10
-90.126393502075729
 20
-18.498715298616808
 30
0.0
  0
VERTEX
  5
23D6
  8
SAPA_PROFIL
 62
     4
 10
-93.526393502076715
 20
-18.498715298615441
 30
0.0
 42
0.4142135623724291
  0
VERTEX
  5
23D7
  8
SAPA_PROFIL
 62
     4
 10
-93.926393502076365
 20
-18.89871529861599
 30
0.0
  0
VERTEX
  5
23D8
  8
SAPA_PROFIL
 62
     4
 10
-93.926393502082732
 20
-19.081151369052769
 30
0.0
 42
0.1318219888653524
  0
VERTEX
  5
23D9
  8
SAPA_PROFIL
 62
     4
 10
-93.886101105545336
 20
-19.231324471525109
 30
0.0
  0
VERTEX
  5
23DA
  8
SAPA_PROFIL
 62
     4
 10
-93.077417644320988
 20
-20.629852172004771
 30
0.0
  0
VERTEX
  5
23DB
  8
SAPA_PROFIL
 62
     4
 10
-92.810303116107974
 20
-20.629852172004771
 30
0.0
 42
-0.577350269189159
  0
VERTEX
  5
23DC
  8
SAPA_PROFIL
 62
     4
 10
-92.628437781313394
 20
-20.944852172004371
 30
0.0
  0
VERTEX
  5
23DD
  8
SAPA_PROFIL
 62
     4
 10
-92.830174459990502
 20
-21.29427034922303
 30
0.0
 42
-0.0612687673629489
  0
VERTEX
  5
23DE
  8
SAPA_PROFIL
 62
     4
 10
-92.843757830676708
 20
-21.586945782323241
 30
0.0
 42
-0.2694959974285039
  0
VERTEX
  5
23DF
  8
SAPA_PROFIL
 62
     4
 10
-93.036889805020664
 20
-21.818464828723759
 30
0.0
  0
VERTEX
  5
23E0
  8
SAPA_PROFIL
 62
     4
 10
-95.49771999547383
 20
-22.714133769633431
 30
0.0
 42
0.3152987888784035
  0
VERTEX
  5
23E1
  8
SAPA_PROFIL
 62
     4
 10
-95.826709923810384
 20
-23.18398008002665
 30
0.0
  0
VERTEX
  5
23E2
  8
SAPA_PROFIL
 62
     4
 10
-95.826709923808806
 20
-24.565479665231091
 30
0.0
 42
0.2539676464741841
  0
VERTEX
  5
23E3
  8
SAPA_PROFIL
 62
     4
 10
-95.690101634313535
 20
-24.817080835615169
 30
0.0
  0
VERTEX
  5
23E4
  8
SAPA_PROFIL
 62
     4
 10
-95.283541438308561
 20
-25.08110411399181
 30
0.0
 42
0.5862177598324623
  0
VERTEX
  5
23E5
  8
SAPA_PROFIL
 62
     4
 10
-94.826709923812047
 20
-24.825362298753461
 30
0.0
  0
VERTEX
  5
23E6
  8
SAPA_PROFIL
 62
     4
 10
-94.82670992381972
 20
-23.884187618243651
 30
0.0
 42
-0.3152987888813165
  0
VERTEX
  5
23E7
  8
SAPA_PROFIL
 62
     4
 10
-94.497719995482953
 20
-23.414341307845891
 30
0.0
  0
VERTEX
  5
23E8
  8
SAPA_PROFIL
 62
     4
 10
-93.297719995471738
 20
-22.977577026721939
 30
0.0
 42
-0.5205670505515651
  0
VERTEX
  5
23E9
  8
SAPA_PROFIL
 62
     4
 10
-92.626709923808988
 20
-23.447423337115161
 30
0.0
  0
VERTEX
  5
23EA
  8
SAPA_PROFIL
 62
     4
 10
-92.626709923808946
 20
-28.463864277784008
 30
0.0
 42
-0.3702522326300203
  0
VERTEX
  5
23EB
  8
SAPA_PROFIL
 62
     4
 10
-92.881169876474686
 20
-28.760387639577338
 30
0.0
 42
-0.0982365330332397
  0
VERTEX
  5
23EC
  8
SAPA_PROFIL
 62
     4
 10
-94.568856651469673
 20
-28.850840397788279
 30
0.0
 42
-0.3735060174783164
  0
VERTEX
  5
23ED
  8
SAPA_PROFIL
 62
     4
 10
-94.826709923809716
 20
-28.5538157298773
 30
0.0
  0
VERTEX
  5
23EE
  8
SAPA_PROFIL
 62
     4
 10
-94.826709923810625
 20
-28.125362298754649
 30
0.0
 42
0.5920056181162531
  0
VERTEX
  5
23EF
  8
SAPA_PROFIL
 62
     4
 10
-95.287913426338548
 20
-27.872353542437249
 30
0.0
  0
VERTEX
  5
23F0
  8
SAPA_PROFIL
 62
     4
 10
-95.690101634316846
 20
-28.13353761859295
 30
0.0
 42
0.2539676464746725
  0
VERTEX
  5
23F1
  8
SAPA_PROFIL
 62
     4
 10
-95.826709923812203
 20
-28.385138788976711
 30
0.0
  0
VERTEX
  5
23F2
  8
SAPA_PROFIL
 62
     4
 10
-95.826709923810625
 20
-50.612291808342398
 30
0.0
 42
0.2539676464741819
  0
VERTEX
  5
23F3
  8
SAPA_PROFIL
 62
     4
 10
-95.690101634316846
 20
-50.863892978725247
 30
0.0
  0
VERTEX
  5
23F4
  8
SAPA_PROFIL
 62
     4
 10
-95.287913426338505
 20
-51.125077054879071
 30
0.0
 42
0.5920055144124249
  0
VERTEX
  5
23F5
  8
SAPA_PROFIL
 62
     4
 10
-94.826709923810625
 20
-50.872068298563562
 30
0.0
  0
VERTEX
  5
23F6
  8
SAPA_PROFIL
 62
     4
 10
-94.826709949085625
 20
-50.443614821273329
 30
0.0
 42
-0.3735060174775405
  0
VERTEX
  5
23F7
  8
SAPA_PROFIL
 62
     4
 10
-94.568856676745526
 20
-50.146590153363647
 30
0.0
 42
-0.0355900683670349
  0
VERTEX
  5
23F8
  8
SAPA_PROFIL
 62
     4
 10
-93.952983089945761
 20
-50.102696589331401
 30
0.0
 42
-0.0624282003873116
  0
VERTEX
  5
23F9
  8
SAPA_PROFIL
 62
     4
 10
-92.881169901750624
 20
-50.237042911574328
 30
0.0
 42
-0.3702522326309292
  0
VERTEX
  5
23FA
  8
SAPA_PROFIL
 62
     4
 10
-92.626709949084884
 20
-50.533566273367711
 30
0.0
  0
VERTEX
  5
23FB
  8
SAPA_PROFIL
 62
     4
 10
-92.626709923808761
 20
-55.550007260201212
 30
0.0
 42
-0.5205670505515692
  0
VERTEX
  5
23FC
  8
SAPA_PROFIL
 62
     4
 10
-93.297719995471738
 20
-56.019853570594442
 30
0.0
  0
VERTEX
  5
23FD
  8
SAPA_PROFIL
 62
     4
 10
-94.497719995481177
 20
-55.583089289469491
 30
0.0
 42
-0.3152987888807539
  0
VERTEX
  5
23FE
  8
SAPA_PROFIL
 62
     4
 10
-94.826709923818825
 20
-55.11324297907364
 30
0.0
  0
VERTEX
  5
23FF
  8
SAPA_PROFIL
 62
     4
 10
-94.826709923812004
 20
-54.172068298564547
 30
0.0
 42
0.5862175119221242
  0
VERTEX
  5
2400
  8
SAPA_PROFIL
 62
     4
 10
-95.283541249567108
 20
-53.916326367582592
 30
0.0
 42
-0.0000002084758573
  0
SEQEND
  5
2401
  8
SAPA_PROFIL
 62
     4
  0
POLYLINE
  5
17CE
  8
SAPA_PROFIL
 62
     4
 66
     1
 10
0.0
 20
0.0
 30
0.0
  0
VERTEX
  5
2402
  8
SAPA_PROFIL
 62
     4
 10
-70.20557176176797
 20
-48.548044421055828
 30
0.0
 42
-0.5571646428658034
  0
VERTEX
  5
2403
  8
SAPA_PROFIL
 62
     4
 10
-71.073290675923516
 20
-48.01108391691897
 30
0.0
  0
VERTEX
  5
2404
  8
SAPA_PROFIL
 62
     4
 10
-71.073290675922607
 20
-30.98634668039778
 30
0.0
 42
-0.5571645048035741
  0
VERTEX
  5
2405
  8
SAPA_PROFIL
 62
     4
 10
-70.20557198805642
 20
-30.449386063436751
 30
0.0
  0
VERTEX
  5
2406
  8
SAPA_PROFIL
 62
     4
 10
-68.539431331988411
 20
-31.28009315098349
 30
0.0
 42
-0.284385813979063
  0
VERTEX
  5
2407
  8
SAPA_PROFIL
 62
     4
 10
-68.373290675920984
 20
-31.548573459463849
 30
0.0
  0
VERTEX
  5
2408
  8
SAPA_PROFIL
 62
     4
 10
-68.37329067592141
 20
-47.448857137853153
 30
0.0
 42
-0.2843858139786238
  0
VERTEX
  5
2409
  8
SAPA_PROFIL
 62
     4
 10
-68.539431331988339
 20
-47.717337446333431
 30
0.0
  0
VERTEX
  5
240A
  8
SAPA_PROFIL
 62
     4
 10
-70.205571988057713
 20
-48.54804453388055
 30
0.0
  0
SEQEND
  5
240B
  8
SAPA_PROFIL
 62
     4
  0
POLYLINE
  5
17CF
  8
SAPA_PROFIL
 62
     4
 66
     1
 10
0.0
 20
0.0
 30
0.0
 70
     1
  0
VERTEX
  5
240C
  8
SAPA_PROFIL
 62
     4
 10
-68.016459161423228
 20
-25.08110411399122
 30
0.0
  0
VERTEX
  5
240D
  8
SAPA_PROFIL
 62
     4
 10
-67.609898965419063
 20
-24.817080835615211
 30
0.0
 42
0.2539676464751066
  0
VERTEX
  5
240E
  8
SAPA_PROFIL
 62
     4
 10
-67.473290675922954
 20
-24.565479665230509
 30
0.0
  0
VERTEX
  5
240F
  8
SAPA_PROFIL
 62
     4
 10
-67.473290675922939
 20
-23.183980080025169
 30
0.0
 42
0.3152987888790479
  0
VERTEX
  5
2410
  8
SAPA_PROFIL
 62
     4
 10
-67.802280604261085
 20
-22.714133769632841
 30
0.0
  0
VERTEX
  5
2411
  8
SAPA_PROFIL
 62
     4
 10
-70.263110794712333
 20
-21.818464828724171
 30
0.0
 42
-0.2694959974287434
  0
VERTEX
  5
2412
  8
SAPA_PROFIL
 62
     4
 10
-70.456242769056217
 20
-21.586945782322811
 30
0.0
 42
-0.0612686379508233
  0
VERTEX
  5
2413
  8
SAPA_PROFIL
 62
     4
 10
-70.469826139686731
 20
-21.294270349469532
 30
0.0
  0
VERTEX
  5
2414
  8
SAPA_PROFIL
 62
     4
 10
-70.671562818415552
 20
-20.944852172161259
 30
0.0
 42
-0.5773502691891679
  0
VERTEX
  5
2415
  8
SAPA_PROFIL
 62
     4
 10
-70.489697483620972
 20
-20.62985217216168
 30
0.0
  0
VERTEX
  5
2416
  8
SAPA_PROFIL
 62
     4
 10
-70.222582955494659
 20
-20.629852172161439
 30
0.0
  0
VERTEX
  5
2417
  8
SAPA_PROFIL
 62
     4
 10
-69.413899494186296
 20
-19.231324471527209
 30
0.0
 42
0.1318219888653519
  0
VERTEX
  5
2418
  8
SAPA_PROFIL
 62
     4
 10
-69.3736070976489
 20
-19.081151369054869
 30
0.0
  0
VERTEX
  5
2419
  8
SAPA_PROFIL
 62
     4
 10
-69.373607097655267
 20
-18.89871529861809
 30
0.0
 42
0.4142135623724291
  0
VERTEX
  5
241A
  8
SAPA_PROFIL
 62
     4
 10
-69.773607097654889
 20
-18.49871529861754
 30
0.0
  0
VERTEX
  5
241B
  8
SAPA_PROFIL
 62
     4
 10
-73.173607097655889
 20
-18.498715298618809
 30
0.0
 42
0.4142135623744271
  0
VERTEX
  5
241C
  8
SAPA_PROFIL
 62
     4
 10
-73.573607097656904
 20
-18.898715298617979
 30
0.0
  0
VERTEX
  5
241D
  8
SAPA_PROFIL
 62
     4
 10
-73.573607097657543
 20
-19.078330540889279
 30
0.0
 42
0.1316524975874005
  0
VERTEX
  5
241E
  8
SAPA_PROFIL
 62
     4
 10
-73.533414718791946
 20
-19.228330540886098
 30
0.0
  0
VERTEX
  5
241F
  8
SAPA_PROFIL
 62
     4
 10
-72.607265272139458
 20
-20.83246843788838
 30
0.0
 42
-0.1316524975875904
  0
VERTEX
  5
2420
  8
SAPA_PROFIL
 62
     4
 10
-72.473290675924702
 20
-21.332468437890089
 30
0.0
  0
VERTEX
  5
2421
  8
SAPA_PROFIL
 62
     4
 10
-72.473290675924716
 20
-21.748715298617459
 30
0.0
 42
-0.4142135623730951
  0
VERTEX
  5
2422
  8
SAPA_PROFIL
 62
     4
 10
-73.473290675924744
 20
-22.748715298617441
 30
0.0
  0
VERTEX
  5
2423
  8
SAPA_PROFIL
 62
     4
 10
-76.473290675922016
 20
-22.748715298617348
 30
0.0
 42
0.9999996830128083
  0
VERTEX
  5
2424
  8
SAPA_PROFIL
 62
     4
 10
-76.473290675923863
 20
-23.748715298617348
 30
0.0
  0
VERTEX
  5
2425
  8
SAPA_PROFIL
 62
     4
 10
-73.473290675923863
 20
-23.748715298617441
 30
0.0
 42
-0.4142135623730951
  0
VERTEX
  5
2426
  8
SAPA_PROFIL
 62
     4
 10
-72.473290675923892
 20
-24.748715298617459
 30
0.0
  0
VERTEX
  5
2427
  8
SAPA_PROFIL
 62
     4
 10
-72.473290675924673
 20
-54.248715298702052
 30
0.0
 42
-0.4142135623730951
  0
VERTEX
  5
2428
  8
SAPA_PROFIL
 62
     4
 10
-73.473290675924702
 20
-55.248715298702017
 30
0.0
  0
VERTEX
  5
2429
  8
SAPA_PROFIL
 62
     4
 10
-76.473290675922883
 20
-55.248715298701939
 30
0.0
 42
0.9999999999999998
  0
VERTEX
  5
242A
  8
SAPA_PROFIL
 62
     4
 10
-76.473290675922911
 20
-56.248715298701939
 30
0.0
  0
VERTEX
  5
242B
  8
SAPA_PROFIL
 62
     4
 10
-73.47329067592473
 20
-56.24871529870201
 30
0.0
 42
-0.4142135623736278
  0
VERTEX
  5
242C
  8
SAPA_PROFIL
 62
     4
 10
-72.473290675924758
 20
-57.248715298702038
 30
0.0
  0
VERTEX
  5
242D
  8
SAPA_PROFIL
 62
     4
 10
-72.473290675924773
 20
-57.664962159428512
 30
0.0
 42
-0.1316524975874375
  0
VERTEX
  5
242E
  8
SAPA_PROFIL
 62
     4
 10
-72.607265272140822
 20
-58.164962159428697
 30
0.0
  0
VERTEX
  5
242F
  8
SAPA_PROFIL
 62
     4
 10
-73.533414718793026
 20
-59.769100056430631
 30
0.0
 42
0.1316524975874
  0
VERTEX
  5
2430
  8
SAPA_PROFIL
 62
     4
 10
-73.573607097658623
 20
-59.919100056430167
 30
0.0
  0
VERTEX
  5
2431
  8
SAPA_PROFIL
 62
     4
 10
-73.573607097658012
 20
-60.098715298701471
 30
0.0
 42
0.4142135623744271
  0
VERTEX
  5
2432
  8
SAPA_PROFIL
 62
     4
 10
-73.173607097657012
 20
-60.498715298700667
 30
0.0
  0
VERTEX
  5
2433
  8
SAPA_PROFIL
 62
     4
 10
-69.773607097656011
 20
-60.498715298702123
 30
0.0
 42
0.4142135623724291
  0
VERTEX
  5
2434
  8
SAPA_PROFIL
 62
     4
 10
-69.373607097656375
 20
-60.098715298701578
 30
0.0
  0
VERTEX
  5
2435
  8
SAPA_PROFIL
 62
     4
 10
-69.373607097649995
 20
-59.916279228264813
 30
0.0
 42
0.1318219888653524
  0
VERTEX
  5
2436
  8
SAPA_PROFIL
 62
     4
 10
-69.413899494187376
 20
-59.766106125792462
 30
0.0
  0
VERTEX
  5
2437
  8
SAPA_PROFIL
 62
     4
 10
-70.222582955411681
 20
-58.367578425312779
 30
0.0
  0
VERTEX
  5
2438
  8
SAPA_PROFIL
 62
     4
 10
-70.489697483624724
 20
-58.367578425312779
 30
0.0
 42
-0.577350269189159
  0
VERTEX
  5
2439
  8
SAPA_PROFIL
 62
     4
 10
-70.671562818419275
 20
-58.052578425313172
 30
0.0
  0
VERTEX
  5
243A
  8
SAPA_PROFIL
 62
     4
 10
-70.469826139742167
 20
-57.70316024809452
 30
0.0
 42
-0.0612687673629489
  0
VERTEX
  5
243B
  8
SAPA_PROFIL
 62
     4
 10
-70.456242769055947
 20
-57.410484814994298
 30
0.0
 42
-0.2694959974285039
  0
VERTEX
  5
243C
  8
SAPA_PROFIL
 62
     4
 10
-70.263110794711992
 20
-57.178965768593791
 30
0.0
  0
VERTEX
  5
243D
  8
SAPA_PROFIL
 62
     4
 10
-67.802280604258797
 20
-56.28329682768419
 30
0.0
 42
0.3152987888784035
  0
VERTEX
  5
243E
  8
SAPA_PROFIL
 62
     4
 10
-67.473290675922215
 20
-55.813450517290981
 30
0.0
  0
VERTEX
  5
243F
  8
SAPA_PROFIL
 62
     4
 10
-67.473290675923778
 20
-54.431950932086536
 30
0.0
 42
0.2539676464741841
  0
VERTEX
  5
2440
  8
SAPA_PROFIL
 62
     4
 10
-67.609898965419035
 20
-54.180349761702459
 30
0.0
  0
VERTEX
  5
2441
  8
SAPA_PROFIL
 62
     4
 10
-68.016459161424009
 20
-53.916326483325797
 30
0.0
 42
0.5862177598324623
  0
VERTEX
  5
2442
  8
SAPA_PROFIL
 62
     4
 10
-68.473290675920524
 20
-54.172068298564128
 30
0.0
  0
VERTEX
  5
2443
  8
SAPA_PROFIL
 62
     4
 10
-68.473290675912878
 20
-55.113242979073938
 30
0.0
 42
-0.3152987888813165
  0
VERTEX
  5
2444
  8
SAPA_PROFIL
 62
     4
 10
-68.802280604249646
 20
-55.583089289471701
 30
0.0
  0
VERTEX
  5
2445
  8
SAPA_PROFIL
 62
     4
 10
-70.002280604260875
 20
-56.019853570595622
 30
0.0
 42
-0.5205670505515651
  0
VERTEX
  5
2446
  8
SAPA_PROFIL
 62
     4
 10
-70.673290675923624
 20
-55.550007260202378
 30
0.0
  0
VERTEX
  5
2447
  8
SAPA_PROFIL
 62
     4
 10
-70.673290675923511
 20
-50.53356631953352
 30
0.0
 42
-0.3702522326300203
  0
VERTEX
  5
2448
  8
SAPA_PROFIL
 62
     4
 10
-70.418830723257798
 20
-50.237042957740201
 30
0.0
 42
-0.0982365330332397
  0
VERTEX
  5
2449
  8
SAPA_PROFIL
 62
     4
 10
-68.731143948262797
 20
-50.146590199529307
 30
0.0
 42
-0.3735060174783164
  0
VERTEX
  5
244A
  8
SAPA_PROFIL
 62
     4
 10
-68.473290675922755
 20
-50.443614867440303
 30
0.0
  0
VERTEX
  5
244B
  8
SAPA_PROFIL
 62
     4
 10
-68.473290675921859
 20
-50.872068298562951
 30
0.0
 42
0.5920056181162531
  0
VERTEX
  5
244C
  8
SAPA_PROFIL
 62
     4
 10
-68.012087173393951
 20
-51.125077054880357
 30
0.0
  0
VERTEX
  5
244D
  8
SAPA_PROFIL
 62
     4
 10
-67.609898965415638
 20
-50.863892978724678
 30
0.0
 42
0.2539676464746725
  0
VERTEX
  5
244E
  8
SAPA_PROFIL
 62
     4
 10
-67.473290675920254
 20
-50.612291808340913
 30
0.0
  0
VERTEX
  5
244F
  8
SAPA_PROFIL
 62
     4
 10
-67.473290675921263
 20
-28.385138788975219
 30
0.0
 42
0.2539676464741819
  0
VERTEX
  5
2450
  8
SAPA_PROFIL
 62
     4
 10
-67.609898965415013
 20
-28.133537618592371
 30
0.0
  0
VERTEX
  5
2451
  8
SAPA_PROFIL
 62
     4
 10
-68.012087173393354
 20
-27.87235354243855
 30
0.0
 42
0.5920055144124249
  0
VERTEX
  5
2452
  8
SAPA_PROFIL
 62
     4
 10
-68.473290675921248
 20
-28.125362298754041
 30
0.0
  0
VERTEX
  5
2453
  8
SAPA_PROFIL
 62
     4
 10
-68.473290650646248
 20
-28.55381577604426
 30
0.0
 42
-0.3735060174775405
  0
VERTEX
  5
2454
  8
SAPA_PROFIL
 62
     4
 10
-68.731143922986348
 20
-28.850840443953938
 30
0.0
 42
-0.0355900683670349
  0
VERTEX
  5
2455
  8
SAPA_PROFIL
 62
     4
 10
-69.347017509786141
 20
-28.89473400798618
 30
0.0
 42
-0.0624282003873116
  0
VERTEX
  5
2456
  8
SAPA_PROFIL
 62
     4
 10
-70.418830697981264
 20
-28.760387685743211
 30
0.0
 42
-0.3702522326309292
  0
VERTEX
  5
2457
  8
SAPA_PROFIL
 62
     4
 10
-70.673290650646976
 20
-28.463864323949831
 30
0.0
  0
VERTEX
  5
2458
  8
SAPA_PROFIL
 62
     4
 10
-70.673290675922985
 20
-23.447423337116319
 30
0.0
 42
-0.5205670505515692
  0
VERTEX
  5
2459
  8
SAPA_PROFIL
 62
     4
 10
-70.002280604259994
 20
-22.977577026723122
 30
0.0
  0
VERTEX
  5
245A
  8
SAPA_PROFIL
 62
     4
 10
-68.802280604250569
 20
-23.414341307848101
 30
0.0
 42
-0.3152987888807539
  0
VERTEX
  5
245B
  8
SAPA_PROFIL
 62
     4
 10
-68.473290675912949
 20
-23.88418761824396
 30
0.0
  0
VERTEX
  5
245C
  8
SAPA_PROFIL
 62
     4
 10
-68.473290675919799
 20
-24.825362298753038
 30
0.0
 42
0.5862175119221242
  0
VERTEX
  5
245D
  8
SAPA_PROFIL
 62
     4
 10
-68.016459350164666
 20
-25.081104229735011
 30
0.0
 42
-0.0000002084758573
  0
SEQEND
  5
245E
  8
SAPA_PROFIL
 62
     4
  0
POLYLINE
  5
17D0
  8
SAPA_PROFIL
 66
     1
 10
0.0
 20
0.0
 30
0.0
 70
     1
  0
VERTEX
  5
245F
  8
SAPA_PROFIL
 10
-22.800000000000178
 20
-91.098475071207986
 30
0.0
  0
VERTEX
  5
2460
  8
SAPA_PROFIL
 10
-23.800000000000178
 20
-91.098475071207986
 30
0.0
  0
VERTEX
  5
2461
  8
SAPA_PROFIL
 10
-23.800000000000178
 20
-88.498475071207835
 30
0.0
 42
0.4142135623730951
  0
VERTEX
  5
2462
  8
SAPA_PROFIL
 10
-24.300000000000178
 20
-87.998475071207821
 30
0.0
  0
VERTEX
  5
2463
  8
SAPA_PROFIL
 10
-24.700000000000269
 20
-87.998475071207821
 30
0.0
 42
0.4142135623730951
  0
VERTEX
  5
2464
  8
SAPA_PROFIL
 10
-25.000000000000231
 20
-88.298475071207775
 30
0.0
  0
VERTEX
  5
2465
  8
SAPA_PROFIL
 10
-25.000000000000231
 20
-105.9999999990104
 30
0.0
 42
0.4142135623730951
  0
VERTEX
  5
2466
  8
SAPA_PROFIL
 10
-24.500000000000231
 20
-106.4999999990104
 30
0.0
  0
VERTEX
  5
2467
  8
SAPA_PROFIL
 10
24.499999999999769
 20
-106.4999999990104
 30
0.0
 42
0.4142135623730951
  0
VERTEX
  5
2468
  8
SAPA_PROFIL
 10
24.999999999999769
 20
-105.9999999990104
 30
0.0
  0
VERTEX
  5
2469
  8
SAPA_PROFIL
 10
24.999999999999769
 20
-88.298475071207775
 30
0.0
 42
0.4142135623730951
  0
VERTEX
  5
246A
  8
SAPA_PROFIL
 10
24.699999999999822
 20
-87.998475071207821
 30
0.0
  0
VERTEX
  5
246B
  8
SAPA_PROFIL
 10
24.299999999999731
 20
-87.998475071207821
 30
0.0
 42
0.4142135623730951
  0
VERTEX
  5
246C
  8
SAPA_PROFIL
 10
23.799999999999731
 20
-88.498475071207835
 30
0.0
  0
VERTEX
  5
246D
  8
SAPA_PROFIL
 10
23.799999999999731
 20
-91.098475071207986
 30
0.0
  0
VERTEX
  5
246E
  8
SAPA_PROFIL
 10
22.799999999999731
 20
-91.098475071207986
 30
0.0
  0
VERTEX
  5
246F
  8
SAPA_PROFIL
 10
22.22033922157857
 20
-92.102507830840963
 30
0.0
 42
0.4155392929676362
  0
VERTEX
  5
2470
  8
SAPA_PROFIL
 10
22.51631264788443
 20
-93.197126802632965
 30
0.0
  0
VERTEX
  5
2471
  8
SAPA_PROFIL
 10
23.799999999999731
 20
-93.938264040931927
 30
0.0
  0
VERTEX
  5
2472
  8
SAPA_PROFIL
 10
23.799999999999731
 20
-104.09999999901061
 30
0.0
 42
-0.4142135623730951
  0
VERTEX
  5
2473
  8
SAPA_PROFIL
 10
22.799999999999731
 20
-105.09999999901061
 30
0.0
  0
VERTEX
  5
2474
  8
SAPA_PROFIL
 10
-22.800000000000178
 20
-105.09999999901061
 30
0.0
 42
-0.4142135623730951
  0
VERTEX
  5
2475
  8
SAPA_PROFIL
 10
-23.800000000000178
 20
-104.09999999901061
 30
0.0
  0
VERTEX
  5
2476
  8
SAPA_PROFIL
 10
-23.800000000000178
 20
-93.938264040931927
 30
0.0
  0
VERTEX
  5
2477
  8
SAPA_PROFIL
 10
-22.516312647884892
 20
-93.197126802632965
 30
0.0
 42
0.4155392929676362
  0
VERTEX
  5
2478
  8
SAPA_PROFIL
 10
-22.220339221579032
 20
-92.102507830840963
 30
0.0
  0
SEQEND
  5
2479
  8
SAPA_PROFIL
  0
POLYLINE
  5
17D1
  8
SAPA_PROFIL
 66
     1
 10
0.0
 20
0.0
 30
0.0
 70
     1
  0
VERTEX
  5
247A
  8
SAPA_PROFIL
 10
20.85000000000036
 20
-86.499999999010456
 30
0.0
 42
0.1989123673797145
  0
VERTEX
  5
247B
  8
SAPA_PROFIL
 10
20.637867965644091
 20
-86.587867964654379
 30
0.0
  0
VERTEX
  5
247C
  8
SAPA_PROFIL
 10
20.237867965644451
 20
-86.987867964654455
 30
0.0
 42
0.668178637919182
  0
VERTEX
  5
247D
  8
SAPA_PROFIL
 10
20.450000000000269
 20
-87.499999999010484
 30
0.0
  0
VERTEX
  5
247E
  8
SAPA_PROFIL
 10
21.300000000000178
 20
-87.499999999010484
 30
0.0
 42
-0.4142135623730284
  0
VERTEX
  5
247F
  8
SAPA_PROFIL
 10
21.800000000000178
 20
-87.999999999010456
 30
0.0
  0
VERTEX
  5
2480
  8
SAPA_PROFIL
 10
21.800000000000178
 20
-88.390808928730607
 30
0.0
 42
-0.17632698070845
  0
VERTEX
  5
2481
  8
SAPA_PROFIL
 10
21.729813332935919
 20
-88.583645211636394
 30
0.0
  0
VERTEX
  5
2482
  8
SAPA_PROFIL
 10
20.211721773135199
 20
-90.392836281916061
 30
0.0
 42
-0.2216946626429421
  0
VERTEX
  5
2483
  8
SAPA_PROFIL
 10
19.98190844019928
 20
-90.499999999010015
 30
0.0
  0
VERTEX
  5
2484
  8
SAPA_PROFIL
 10
16.450000000000269
 20
-90.499999999010456
 30
0.0
 42
-0.4142135623730951
  0
VERTEX
  5
2485
  8
SAPA_PROFIL
 10
16.150000000000091
 20
-90.199999999010288
 30
0.0
  0
VERTEX
  5
2486
  8
SAPA_PROFIL
 10
16.150000000000539
 20
-87.799999999010197
 30
0.0
 42
-0.4142135623730951
  0
VERTEX
  5
2487
  8
SAPA_PROFIL
 10
16.450000000000269
 20
-87.499999999010484
 30
0.0
  0
VERTEX
  5
2488
  8
SAPA_PROFIL
 10
16.85000000000036
 20
-87.499999999010484
 30
0.0
 42
0.6681786379193188
  0
VERTEX
  5
2489
  8
SAPA_PROFIL
 10
17.062132034356178
 20
-86.987867964654455
 30
0.0
  0
VERTEX
  5
248A
  8
SAPA_PROFIL
 10
16.662132034356091
 20
-86.587867964654379
 30
0.0
 42
0.198912367379658
  0
VERTEX
  5
248B
  8
SAPA_PROFIL
 10
16.450000000000269
 20
-86.499999999010456
 30
0.0
  0
VERTEX
  5
248C
  8
SAPA_PROFIL
 10
14.65000000000054
 20
-86.499999999010015
 30
0.0
 42
0.4142135623731284
  0
VERTEX
  5
248D
  8
SAPA_PROFIL
 10
14.15000000000054
 20
-86.999999999010015
 30
0.0
  0
VERTEX
  5
248E
  8
SAPA_PROFIL
 10
14.150000000000089
 20
-91.499999999010925
 30
0.0
 42
0.4142135623730951
  0
VERTEX
  5
248F
  8
SAPA_PROFIL
 10
14.650000000000089
 20
-91.999999999010925
 30
0.0
  0
VERTEX
  5
2490
  8
SAPA_PROFIL
 10
18.650000000000091
 20
-91.999999999010015
 30
0.0
 42
-0.4142135623729619
  0
VERTEX
  5
2491
  8
SAPA_PROFIL
 10
19.150000000000091
 20
-92.499999999010015
 30
0.0
  0
VERTEX
  5
2492
  8
SAPA_PROFIL
 10
19.150000000000091
 20
-94.516956646213657
 30
0.0
 42
-0.1763269807084973
  0
VERTEX
  5
2493
  8
SAPA_PROFIL
 10
19.033022221559349
 20
-94.838350451057053
 30
0.0
  0
VERTEX
  5
2494
  8
SAPA_PROFIL
 10
16.949501460030199
 20
-97.321393803853425
 30
0.0
 42
-0.2216946626428772
  0
VERTEX
  5
2495
  8
SAPA_PROFIL
 10
16.566479238470951
 20
-97.499999999010015
 30
0.0
  0
VERTEX
  5
2496
  8
SAPA_PROFIL
 10
10.56853372839123
 20
-97.499999999010484
 30
0.0
 42
-0.315298788878991
  0
VERTEX
  5
2497
  8
SAPA_PROFIL
 10
10.098687417998461
 20
-97.171010070673219
 30
0.0
  0
VERTEX
  5
2498
  8
SAPA_PROFIL
 10
8.6380638705318233
 20
-93.157979855684516
 30
0.0
 42
0.3152987888789731
  0
VERTEX
  5
2499
  8
SAPA_PROFIL
 10
7.6983712497458319
 20
-92.499999999010015
 30
0.0
  0
VERTEX
  5
249A
  8
SAPA_PROFIL
 10
6.6500000000000901
 20
-92.499999999010015
 30
0.0
 42
-0.4142135623732616
  0
VERTEX
  5
249B
  8
SAPA_PROFIL
 10
6.3499999999999091
 20
-92.199999999010288
 30
0.0
  0
VERTEX
  5
249C
  8
SAPA_PROFIL
 10
6.3499999999999091
 20
-91.799999999010197
 30
0.0
 42
0.4142135623731506
  0
VERTEX
  5
249D
  8
SAPA_PROFIL
 10
6.050000000000181
 20
-91.499999999010015
 30
0.0
  0
VERTEX
  5
249E
  8
SAPA_PROFIL
 10
5.6500000000000901
 20
-91.499999999010015
 30
0.0
 42
0.4142135623731505
  0
VERTEX
  5
249F
  8
SAPA_PROFIL
 10
5.3499999999999091
 20
-91.799999999010197
 30
0.0
  0
VERTEX
  5
24A0
  8
SAPA_PROFIL
 10
5.3499999999999091
 20
-92.199999999010288
 30
0.0
 42
-0.4142135623732061
  0
VERTEX
  5
24A1
  8
SAPA_PROFIL
 10
5.050000000000181
 20
-92.499999999010015
 30
0.0
  0
VERTEX
  5
24A2
  8
SAPA_PROFIL
 10
0.6242640687119092
 20
-92.499999999010015
 30
0.0
 42
0.198912367379577
  0
VERTEX
  5
24A3
  8
SAPA_PROFIL
 10
0.4121320343560911
 20
-92.587867964654379
 30
0.0
  0
VERTEX
  5
24A4
  8
SAPA_PROFIL
 10
0.0
 20
-92.999999999010015
 30
0.0
  0
VERTEX
  5
24A5
  8
SAPA_PROFIL
 10
-0.4121320343560911
 20
-92.587867964654379
 30
0.0
 42
0.1989123673795771
  0
VERTEX
  5
24A6
  8
SAPA_PROFIL
 10
-0.6242640687119092
 20
-92.499999999010015
 30
0.0
  0
VERTEX
  5
24A7
  8
SAPA_PROFIL
 10
-5.0499999999997272
 20
-92.499999999010015
 30
0.0
 42
-0.4142135623732059
  0
VERTEX
  5
24A8
  8
SAPA_PROFIL
 10
-5.3499999999999091
 20
-92.199999999010288
 30
0.0
  0
VERTEX
  5
24A9
  8
SAPA_PROFIL
 10
-5.3499999999999091
 20
-91.799999999010197
 30
0.0
 42
0.4142135623731506
  0
VERTEX
  5
24AA
  8
SAPA_PROFIL
 10
-5.6500000000000901
 20
-91.499999999010015
 30
0.0
  0
VERTEX
  5
24AB
  8
SAPA_PROFIL
 10
-6.0499999999997272
 20
-91.499999999010015
 30
0.0
 42
0.4142135623731505
  0
VERTEX
  5
24AC
  8
SAPA_PROFIL
 10
-6.3499999999999091
 20
-91.799999999010197
 30
0.0
  0
VERTEX
  5
24AD
  8
SAPA_PROFIL
 10
-6.3499999999999091
 20
-92.199999999010288
 30
0.0
 42
-0.4142135623732615
  0
VERTEX
  5
24AE
  8
SAPA_PROFIL
 10
-6.6500000000000901
 20
-92.499999999010015
 30
0.0
  0
VERTEX
  5
24AF
  8
SAPA_PROFIL
 10
-7.698371249745378
 20
-92.499999999010015
 30
0.0
 42
0.3152987888789731
  0
VERTEX
  5
24B0
  8
SAPA_PROFIL
 10
-8.6380638705313686
 20
-93.157979855684516
 30
0.0
  0
VERTEX
  5
24B1
  8
SAPA_PROFIL
 10
-10.09868741799801
 20
-97.171010070673219
 30
0.0
 42
-0.315298788878991
  0
VERTEX
  5
24B2
  8
SAPA_PROFIL
 10
-10.56853372839123
 20
-97.499999999010484
 30
0.0
  0
VERTEX
  5
24B3
  8
SAPA_PROFIL
 10
-16.566479238470489
 20
-97.499999999010015
 30
0.0
 42
-0.2216946626428772
  0
VERTEX
  5
24B4
  8
SAPA_PROFIL
 10
-16.949501460029751
 20
-97.321393803853425
 30
0.0
  0
VERTEX
  5
24B5
  8
SAPA_PROFIL
 10
-19.033022221559349
 20
-94.838350451057053
 30
0.0
 42
-0.1763269807084973
  0
VERTEX
  5
24B6
  8
SAPA_PROFIL
 10
-19.150000000000091
 20
-94.516956646213657
 30
0.0
  0
VERTEX
  5
24B7
  8
SAPA_PROFIL
 10
-19.150000000000091
 20
-92.499999999010015
 30
0.0
 42
-0.4142135623729619
  0
VERTEX
  5
24B8
  8
SAPA_PROFIL
 10
-18.650000000000091
 20
-91.999999999010015
 30
0.0
  0
VERTEX
  5
24B9
  8
SAPA_PROFIL
 10
-14.650000000000089
 20
-91.999999999010925
 30
0.0
 42
0.4142135623730951
  0
VERTEX
  5
24BA
  8
SAPA_PROFIL
 10
-14.150000000000089
 20
-91.499999999010925
 30
0.0
  0
VERTEX
  5
24BB
  8
SAPA_PROFIL
 10
-14.150000000000089
 20
-86.999999999010015
 30
0.0
 42
0.4142135623731285
  0
VERTEX
  5
24BC
  8
SAPA_PROFIL
 10
-14.650000000000089
 20
-86.499999999010015
 30
0.0
  0
VERTEX
  5
24BD
  8
SAPA_PROFIL
 10
-16.450000000000269
 20
-86.499999999010456
 30
0.0
 42
0.198912367379658
  0
VERTEX
  5
24BE
  8
SAPA_PROFIL
 10
-16.662132034356091
 20
-86.587867964654379
 30
0.0
  0
VERTEX
  5
24BF
  8
SAPA_PROFIL
 10
-17.062132034356178
 20
-86.987867964654455
 30
0.0
 42
0.6681786379193188
  0
VERTEX
  5
24C0
  8
SAPA_PROFIL
 10
-16.849999999999909
 20
-87.499999999010484
 30
0.0
  0
VERTEX
  5
24C1
  8
SAPA_PROFIL
 10
-16.450000000000269
 20
-87.499999999010484
 30
0.0
 42
-0.4142135623730951
  0
VERTEX
  5
24C2
  8
SAPA_PROFIL
 10
-16.150000000000091
 20
-87.799999999010197
 30
0.0
  0
VERTEX
  5
24C3
  8
SAPA_PROFIL
 10
-16.150000000000091
 20
-90.199999999010288
 30
0.0
 42
-0.4142135623730951
  0
VERTEX
  5
24C4
  8
SAPA_PROFIL
 10
-16.450000000000269
 20
-90.499999999010456
 30
0.0
  0
VERTEX
  5
24C5
  8
SAPA_PROFIL
 10
-19.98190844019928
 20
-90.499999999010015
 30
0.0
 42
-0.221694662642942
  0
VERTEX
  5
24C6
  8
SAPA_PROFIL
 10
-20.211721773134741
 20
-90.392836281916061
 30
0.0
  0
VERTEX
  5
24C7
  8
SAPA_PROFIL
 10
-21.729813332935471
 20
-88.583645211636394
 30
0.0
 42
-0.1763269807084499
  0
VERTEX
  5
24C8
  8
SAPA_PROFIL
 10
-21.799999999999731
 20
-88.390808928730607
 30
0.0
  0
VERTEX
  5
24C9
  8
SAPA_PROFIL
 10
-21.800000000000178
 20
-87.999999999010456
 30
0.0
 42
-0.4142135623730284
  0
VERTEX
  5
24CA
  8
SAPA_PROFIL
 10
-21.300000000000178
 20
-87.499999999010484
 30
0.0
  0
VERTEX
  5
24CB
  8
SAPA_PROFIL
 10
-20.450000000000269
 20
-87.499999999010484
 30
0.0
 42
0.668178637919182
  0
VERTEX
  5
24CC
  8
SAPA_PROFIL
 10
-20.237867965644
 20
-86.987867964654455
 30
0.0
  0
VERTEX
  5
24CD
  8
SAPA_PROFIL
 10
-20.637867965644091
 20
-86.587867964654379
 30
0.0
 42
0.1989123673797144
  0
VERTEX
  5
24CE
  8
SAPA_PROFIL
 10
-20.849999999999909
 20
-86.499999999010456
 30
0.0
  0
VERTEX
  5
24CF
  8
SAPA_PROFIL
 10
-23.300000000000178
 20
-86.499999999010456
 30
0.0
 42
0.4142135623730951
  0
VERTEX
  5
24D0
  8
SAPA_PROFIL
 10
-23.800000000000178
 20
-86.99999999901047
 30
0.0
  0
VERTEX
  5
24D1
  8
SAPA_PROFIL
 10
-23.800000000000178
 20
-90.699999999010274
 30
0.0
 42
0.4142135623730951
  0
VERTEX
  5
24D2
  8
SAPA_PROFIL
 10
-23.500000000000451
 20
-90.99999999901047
 30
0.0
  0
VERTEX
  5
24D3
  8
SAPA_PROFIL
 10
-22.473205080757001
 20
-90.99999999901047
 30
0.0
 42
-0.2679491924311428
  0
VERTEX
  5
24D4
  8
SAPA_PROFIL
 10
-22.21339745962177
 20
-91.149999999010575
 30
0.0
  0
VERTEX
  5
24D5
  8
SAPA_PROFIL
 10
-21.325961894323431
 20
-92.687083486550804
 30
0.0
 42
-0.4142135623731709
  0
VERTEX
  5
24D6
  8
SAPA_PROFIL
 10
-21.435769515459011
 20
-93.096891107686133
 30
0.0
  0
VERTEX
  5
24D7
  8
SAPA_PROFIL
 10
-21.96791111376206
 20
-93.404123202713436
 30
0.0
 42
0.4663076581551056
  0
VERTEX
  5
24D8
  8
SAPA_PROFIL
 10
-22.233955556881028
 20
-94.912936216184335
 30
0.0
  0
VERTEX
  5
24D9
  8
SAPA_PROFIL
 10
-18.115270605417209
 20
-99.821393803853425
 30
0.0
 42
0.2216946626428921
  0
VERTEX
  5
24DA
  8
SAPA_PROFIL
 10
-17.732248383857488
 20
-99.999999999010484
 30
0.0
  0
VERTEX
  5
24DB
  8
SAPA_PROFIL
 10
-9.7002075382097246
 20
-99.999999999010484
 30
0.0
 42
0.3152987888789878
  0
VERTEX
  5
24DC
  8
SAPA_PROFIL
 10
-8.760514917423734
 20
-99.342020142335983
 30
0.0
  0
VERTEX
  5
24DD
  8
SAPA_PROFIL
 10
-7.4196339112449996
 20
-95.657979855684516
 30
0.0
 42
-0.3152987888789804
  0
VERTEX
  5
24DE
  8
SAPA_PROFIL
 10
-6.479941290459009
 20
-94.999999999010015
 30
0.0
  0
VERTEX
  5
24DF
  8
SAPA_PROFIL
 10
6.4799412904594638
 20
-94.999999999010015
 30
0.0
 42
-0.3152987888789804
  0
VERTEX
  5
24E0
  8
SAPA_PROFIL
 10
7.4196339112454552
 20
-95.657979855684516
 30
0.0
  0
VERTEX
  5
24E1
  8
SAPA_PROFIL
 10
8.760514917423734
 20
-99.342020142335983
 30
0.0
 42
0.3152987888789877
  0
VERTEX
  5
24E2
  8
SAPA_PROFIL
 10
9.7002075382097246
 20
-99.999999999010484
 30
0.0
  0
VERTEX
  5
24E3
  8
SAPA_PROFIL
 10
17.73224838385795
 20
-99.999999999010484
 30
0.0
 42
0.2216946626428921
  0
VERTEX
  5
24E4
  8
SAPA_PROFIL
 10
18.115270605417209
 20
-99.821393803853425
 30
0.0
  0
VERTEX
  5
24E5
  8
SAPA_PROFIL
 10
22.233955556881028
 20
-94.912936216184335
 30
0.0
 42
0.4663076581551056
  0
VERTEX
  5
24E6
  8
SAPA_PROFIL
 10
21.967911113762511
 20
-93.404123202713436
 30
0.0
  0
VERTEX
  5
24E7
  8
SAPA_PROFIL
 10
21.435769515459011
 20
-93.096891107686133
 30
0.0
 42
-0.414213562373157
  0
VERTEX
  5
24E8
  8
SAPA_PROFIL
 10
21.325961894323878
 20
-92.687083486550804
 30
0.0
  0
VERTEX
  5
24E9
  8
SAPA_PROFIL
 10
22.213397459622229
 20
-91.149999999010575
 30
0.0
 42
-0.2679491924311554
  0
VERTEX
  5
24EA
  8
SAPA_PROFIL
 10
22.473205080757449
 20
-90.99999999901047
 30
0.0
  0
VERTEX
  5
24EB
  8
SAPA_PROFIL
 10
23.500000000000451
 20
-90.99999999901047
 30
0.0
 42
0.4142135623730951
  0
VERTEX
  5
24EC
  8
SAPA_PROFIL
 10
23.80000000000064
 20
-90.699999999010274
 30
0.0
  0
VERTEX
  5
24ED
  8
SAPA_PROFIL
 10
23.800000000000178
 20
-86.99999999901047
 30
0.0
 42
0.4142135623730951
  0
VERTEX
  5
24EE
  8
SAPA_PROFIL
 10
23.300000000000178
 20
-86.499999999010456
 30
0.0
  0
SEQEND
  5
24EF
  8
SAPA_PROFIL
  0
POLYLINE
  5
17D2
  8
SAPA_PROFIL
 62
     4
 66
     1
 10
0.0
 20
0.0
 30
0.0
 70
     1
  0
VERTEX
  5
24F0
  8
SAPA_PROFIL
 62
     4
 10
-1.055634910786466
 20
-88.358578641879717
 30
0.0
 42
-0.1989123671061458
  0
VERTEX
  5
24F1
  8
SAPA_PROFIL
 62
     4
 10
-0.2071067742556352
 20
-88.00710678019658
 30
0.0
  0
VERTEX
  5
24F2
  8
SAPA_PROFIL
 62
     4
 10
0.2071067742555215
 20
-88.00710678019658
 30
0.0
 42
-0.1989123671061505
  0
VERTEX
  5
24F3
  8
SAPA_PROFIL
 62
     4
 10
1.0556349107863521
 20
-88.358578641879717
 30
0.0
  0
VERTEX
  5
24F4
  8
SAPA_PROFIL
 62
     4
 10
3.287867965867235
 20
-90.590811692262079
 30
0.0
 42
0.6681786375387371
  0
VERTEX
  5
24F5
  8
SAPA_PROFIL
 62
     4
 10
3.7999999999999541
 20
-90.378679657682881
 30
0.0
  0
VERTEX
  5
24F6
  8
SAPA_PROFIL
 62
     4
 10
3.7999999999999541
 20
-73.799999999010083
 30
0.0
 42
0.4142135623731034
  0
VERTEX
  5
24F7
  8
SAPA_PROFIL
 62
     4
 10
3.4999999999999432
 20
-73.499999999010072
 30
0.0
  0
VERTEX
  5
24F8
  8
SAPA_PROFIL
 62
     4
 10
-3.4999999999999432
 20
-73.499999999010072
 30
0.0
 42
0.4142135623731034
  0
VERTEX
  5
24F9
  8
SAPA_PROFIL
 62
     4
 10
-3.8000000000000109
 20
-73.799999999010083
 30
0.0
  0
VERTEX
  5
24FA
  8
SAPA_PROFIL
 62
     4
 10
-3.8000000000000682
 20
-90.378679657682881
 30
0.0
 42
0.6681786375387019
  0
VERTEX
  5
24FB
  8
SAPA_PROFIL
 62
     4
 10
-3.2878679658673491
 20
-90.590811692262079
 30
0.0
  0
SEQEND
  5
24FC
  8
SAPA_PROFIL
 62
     4
  0
POLYLINE
  5
17D3
  8
SAPA_PROFIL
 62
     4
 66
     1
 10
0.0
 20
0.0
 30
0.0
 70
     1
  0
VERTEX
  5
24FD
  8
SAPA_PROFIL
 62
     4
 10
3.7999999999999541
 20
-72.19999999901006
 30
0.0
  0
VERTEX
  5
24FE
  8
SAPA_PROFIL
 62
     4
 10
3.7999999999999541
 20
-53.999999999010022
 30
0.0
 42
0.4142135623730951
  0
VERTEX
  5
24FF
  8
SAPA_PROFIL
 62
     4
 10
3.5
 20
-53.699999999010011
 30
0.0
  0
VERTEX
  5
2500
  8
SAPA_PROFIL
 62
     4
 10
2.6029437251521581
 20
-53.69999999901006
 30
0.0
  0
VERTEX
  5
2501
  8
SAPA_PROFIL
 62
     4
 10
1.0499999999999541
 20
-52.147056273857629
 30
0.0
  0
VERTEX
  5
2502
  8
SAPA_PROFIL
 62
     4
 10
1.0499999999999541
 20
-46.568653346957198
 30
0.0
  0
VERTEX
  5
2503
  8
SAPA_PROFIL
 62
     4
 10
0.4763139720814138
 20
-45.57499999901006
 30
0.0
 42
0.5773502691896344
  0
VERTEX
  5
2504
  8
SAPA_PROFIL
 62
     4
 10
-0.4763139720814707
 20
-45.574999999009997
 30
0.0
  0
VERTEX
  5
2505
  8
SAPA_PROFIL
 62
     4
 10
-1.050000000000068
 20
-46.568653346957369
 30
0.0
  0
VERTEX
  5
2506
  8
SAPA_PROFIL
 62
     4
 10
-1.050000000000068
 20
-52.1470562738578
 30
0.0
  0
VERTEX
  5
2507
  8
SAPA_PROFIL
 62
     4
 10
-2.6029437251522718
 20
-53.69999999901006
 30
0.0
  0
VERTEX
  5
2508
  8
SAPA_PROFIL
 62
     4
 10
-3.5000000000001128
 20
-53.699999999010011
 30
0.0
 42
0.4142135623730951
  0
VERTEX
  5
2509
  8
SAPA_PROFIL
 62
     4
 10
-3.8000000000000682
 20
-53.999999999010022
 30
0.0
  0
VERTEX
  5
250A
  8
SAPA_PROFIL
 62
     4
 10
-3.8000000000000109
 20
-72.19999999901006
 30
0.0
 42
0.4142135623730951
  0
VERTEX
  5
250B
  8
SAPA_PROFIL
 62
     4
 10
-3.500000000000056
 20
-72.499999999010015
 30
0.0
  0
VERTEX
  5
250C
  8
SAPA_PROFIL
 62
     4
 10
3.500000000000056
 20
-72.499999999010072
 30
0.0
 42
0.4142135623730951
  0
SEQEND
  5
250D
  8
SAPA_PROFIL
 62
     4
  0
POLYLINE
  5
17D4
  8
SAPA_PROFIL
 62
     4
 66
     1
 10
0.0
 20
0.0
 30
0.0
 70
     1
  0
VERTEX
  5
250E
  8
SAPA_PROFIL
 62
     4
 10
-0.3535533839706204
 20
-89.353553389603292
 30
0.0
 42
-0.4142135623730951
  0
VERTEX
  5
250F
  8
SAPA_PROFIL
 62
     4
 10
0.3535533972159328
 20
-89.353553389603292
 30
0.0
  0
VERTEX
  5
2510
  8
SAPA_PROFIL
 62
     4
 10
3.5
 20
-92.499999999010015
 30
0.0
  0
VERTEX
  5
2511
  8
SAPA_PROFIL
 62
     4
 10
5.0
 20
-92.499999999010015
 30
0.0
  0
VERTEX
  5
2512
  8
SAPA_PROFIL
 62
     4
 10
5.0
 20
-52.999999999010008
 30
0.0
 42
0.4142135623730951
  0
VERTEX
  5
2513
  8
SAPA_PROFIL
 62
     4
 10
4.5
 20
-52.499999999010008
 30
0.0
  0
VERTEX
  5
2514
  8
SAPA_PROFIL
 62
     4
 10
3.0999999999999091
 20
-52.499999999010008
 30
0.0
  0
VERTEX
  5
2515
  8
SAPA_PROFIL
 62
     4
 10
2.25
 20
-51.649999999010049
 30
0.0
  0
VERTEX
  5
2516
  8
SAPA_PROFIL
 62
     4
 10
2.25
 20
-47.047114316039988
 30
0.0
  0
VERTEX
  5
2517
  8
SAPA_PROFIL
 62
     4
 10
1.1691342951090169
 20
-45.174999999010019
 30
0.0
 42
0.5773502691896344
  0
VERTEX
  5
2518
  8
SAPA_PROFIL
 62
     4
 10
-1.169134295109074
 20
-45.174999999010019
 30
0.0
  0
VERTEX
  5
2519
  8
SAPA_PROFIL
 62
     4
 10
-2.2500000000001128
 20
-47.047114316040172
 30
0.0
  0
VERTEX
  5
251A
  8
SAPA_PROFIL
 62
     4
 10
-2.2500000000001128
 20
-51.649999999010049
 30
0.0
  0
VERTEX
  5
251B
  8
SAPA_PROFIL
 62
     4
 10
-3.1000000000000218
 20
-52.499999999010008
 30
0.0
  0
VERTEX
  5
251C
  8
SAPA_PROFIL
 62
     4
 10
-4.5
 20
-52.499999999010008
 30
0.0
 42
0.4142135623730951
  0
VERTEX
  5
251D
  8
SAPA_PROFIL
 62
     4
 10
-5.0
 20
-52.999999999010008
 30
0.0
  0
VERTEX
  5
251E
  8
SAPA_PROFIL
 62
     4
 10
-5.0
 20
-92.499999999010015
 30
0.0
  0
VERTEX
  5
251F
  8
SAPA_PROFIL
 62
     4
 10
-3.5
 20
-92.499999999010015
 30
0.0
  0
SEQEND
  5
2520
  8
SAPA_PROFIL
 62
     4
  0
POLYLINE
  5
17D5
  8
SAPA_PROFIL
 66
     1
 10
0.0
 20
0.0
 30
0.0
 70
     1
  0
VERTEX
  5
2521
  8
SAPA_PROFIL
 10
2.700000000000272
 20
-33.050000000001091
 30
0.0
  0
VERTEX
  5
2522
  8
SAPA_PROFIL
 10
2.0767196966983188
 20
-31.67376540642476
 30
0.0
 42
-0.5450207798987328
  0
VERTEX
  5
2523
  8
SAPA_PROFIL
 10
2.350000000000136
 20
-31.25000000000114
 30
0.0
  0
VERTEX
  5
2524
  8
SAPA_PROFIL
 10
2.700000000000272
 20
-31.25000000000114
 30
0.0
  0
VERTEX
  5
2525
  8
SAPA_PROFIL
 10
2.700000000000272
 20
-31.00000000000114
 30
0.0
 42
0.4142135623730951
  0
VERTEX
  5
2526
  8
SAPA_PROFIL
 10
1.700000000000272
 20
-30.00000000000114
 30
0.0
  0
VERTEX
  5
2527
  8
SAPA_PROFIL
 10
-1.6999999999998181
 20
-30.00000000000114
 30
0.0
 42
0.4142135623730951
  0
VERTEX
  5
2528
  8
SAPA_PROFIL
 10
-2.6999999999998181
 20
-31.00000000000114
 30
0.0
  0
VERTEX
  5
2529
  8
SAPA_PROFIL
 10
-2.6999999999998181
 20
-32.150000000001
 30
0.0
  0
VERTEX
  5
252A
  8
SAPA_PROFIL
 10
-2.3499999999996808
 20
-32.150000000001
 30
0.0
 42
-0.5450200690651551
  0
VERTEX
  5
252B
  8
SAPA_PROFIL
 10
-2.0767189999999109
 20
-32.573765000001011
 30
0.0
  0
VERTEX
  5
252C
  8
SAPA_PROFIL
 10
-2.6999999999998181
 20
-33.950000000000948
 30
0.0
  0
VERTEX
  5
252D
  8
SAPA_PROFIL
 10
-2.3499999999996808
 20
-33.950000000000948
 30
0.0
 42
-0.5450200690651692
  0
VERTEX
  5
252E
  8
SAPA_PROFIL
 10
-2.0767189999999109
 20
-34.373765000000958
 30
0.0
  0
VERTEX
  5
252F
  8
SAPA_PROFIL
 10
-2.6999999999998181
 20
-35.750000000001137
 30
0.0
  0
VERTEX
  5
2530
  8
SAPA_PROFIL
 10
-2.3499999999996808
 20
-35.750000000001137
 30
0.0
 42
-0.5450200690651619
  0
VERTEX
  5
2531
  8
SAPA_PROFIL
 10
-2.0767189999999109
 20
-36.17376500000114
 30
0.0
  0
VERTEX
  5
2532
  8
SAPA_PROFIL
 10
-2.6999999999998181
 20
-37.550000000001091
 30
0.0
  0
VERTEX
  5
2533
  8
SAPA_PROFIL
 10
-2.3499999999996808
 20
-37.550000000001091
 30
0.0
 42
-0.5450200690651619
  0
VERTEX
  5
2534
  8
SAPA_PROFIL
 10
-2.0767189999999109
 20
-37.973765000001102
 30
0.0
  0
VERTEX
  5
2535
  8
SAPA_PROFIL
 10
-2.6999999999998181
 20
-39.350000000001053
 30
0.0
  0
VERTEX
  5
2536
  8
SAPA_PROFIL
 10
-2.3499999999996808
 20
-39.350000000001053
 30
0.0
 42
-0.5450200690651692
  0
VERTEX
  5
2537
  8
SAPA_PROFIL
 10
-2.0767189999999109
 20
-39.773765000001049
 30
0.0
  0
VERTEX
  5
2538
  8
SAPA_PROFIL
 10
-2.6999999999998181
 20
-41.150000000001
 30
0.0
  0
VERTEX
  5
2539
  8
SAPA_PROFIL
 10
-2.6999999999998181
 20
-41.450000000000948
 30
0.0
  0
VERTEX
  5
253A
  8
SAPA_PROFIL
 10
2.42826763351104
 20
-41.450000000000948
 30
0.0
  0
VERTEX
  5
253B
  8
SAPA_PROFIL
 10
2.0767196966983188
 20
-40.673765406424756
 30
0.0
 42
-0.5450207798987328
  0
VERTEX
  5
253C
  8
SAPA_PROFIL
 10
2.350000000000136
 20
-40.250000000001137
 30
0.0
  0
VERTEX
  5
253D
  8
SAPA_PROFIL
 10
2.700000000000272
 20
-40.250000000001137
 30
0.0
  0
VERTEX
  5
253E
  8
SAPA_PROFIL
 10
2.0767200000002499
 20
-38.873765000000958
 30
0.0
 42
-0.5450205149791638
  0
VERTEX
  5
253F
  8
SAPA_PROFIL
 10
2.350000000000136
 20
-38.450000000000962
 30
0.0
  0
VERTEX
  5
2540
  8
SAPA_PROFIL
 10
2.700000000000272
 20
-38.450000000000962
 30
0.0
  0
VERTEX
  5
2541
  8
SAPA_PROFIL
 10
2.0767196966983188
 20
-37.073765406424627
 30
0.0
 42
-0.545020779898768
  0
VERTEX
  5
2542
  8
SAPA_PROFIL
 10
2.350000000000136
 20
-36.650000000001
 30
0.0
  0
VERTEX
  5
2543
  8
SAPA_PROFIL
 10
2.700000000000272
 20
-36.650000000001
 30
0.0
  0
VERTEX
  5
2544
  8
SAPA_PROFIL
 10
2.0767196966983188
 20
-35.273765406424673
 30
0.0
 42
-0.54502077989874
  0
VERTEX
  5
2545
  8
SAPA_PROFIL
 10
2.350000000000136
 20
-34.850000000001053
 30
0.0
  0
VERTEX
  5
2546
  8
SAPA_PROFIL
 10
2.700000000000272
 20
-34.850000000001053
 30
0.0
  0
VERTEX
  5
2547
  8
SAPA_PROFIL
 10
2.0767196966983188
 20
-33.473765406424718
 30
0.0
 42
-0.545020779898761
  0
VERTEX
  5
2548
  8
SAPA_PROFIL
 10
2.350000000000136
 20
-33.050000000001091
 30
0.0
  0
SEQEND
  5
2549
  8
SAPA_PROFIL
  0
POLYLINE
  5
17D6
  8
SAPA_PROFIL
 66
     1
 10
0.0
 20
0.0
 30
0.0
 70
     1
  0
VERTEX
  5
254A
  8
SAPA_PROFIL
 10
23.000000000000231
 20
58.024264068710863
 30
0.0
 42
-0.1989123673796753
  0
VERTEX
  5
254B
  8
SAPA_PROFIL
 10
22.912132034356091
 20
57.812132034355052
 30
0.0
  0
VERTEX
  5
254C
  8
SAPA_PROFIL
 10
21.187867965644269
 20
56.087867965642999
 30
0.0
 42
0.1989123673796753
  0
VERTEX
  5
254D
  8
SAPA_PROFIL
 10
21.10000000000014
 20
55.875735931286947
 30
0.0
  0
VERTEX
  5
254E
  8
SAPA_PROFIL
 10
21.10000000000014
 20
55.299999999999052
 30
0.0
 42
0.4142135623730951
  0
VERTEX
  5
254F
  8
SAPA_PROFIL
 10
21.400000000000318
 20
54.999999999998863
 30
0.0
  0
VERTEX
  5
2550
  8
SAPA_PROFIL
 10
22.700000000000269
 20
54.999999999998863
 30
0.0
 42
-0.4142135623730951
  0
VERTEX
  5
2551
  8
SAPA_PROFIL
 10
23.000000000000231
 20
54.699999999998909
 30
0.0
  0
VERTEX
  5
2552
  8
SAPA_PROFIL
 10
23.000000000000231
 20
29.99999999999886
 30
0.0
 42
-0.4142135623730951
  0
VERTEX
  5
2553
  8
SAPA_PROFIL
 10
22.000000000000231
 20
28.99999999999887
 30
0.0
  0
VERTEX
  5
2554
  8
SAPA_PROFIL
 10
17.600000000000129
 20
28.99999999999887
 30
0.0
 42
0.4142135623730951
  0
VERTEX
  5
2555
  8
SAPA_PROFIL
 10
17.300000000000178
 20
28.699999999998909
 30
0.0
  0
VERTEX
  5
2556
  8
SAPA_PROFIL
 10
17.300000000000178
 20
26.399999999998961
 30
0.0
 42
0.4142135623730951
  0
VERTEX
  5
2557
  8
SAPA_PROFIL
 10
17.600000000000129
 20
26.099999999999
 30
0.0
  0
VERTEX
  5
2558
  8
SAPA_PROFIL
 10
18.100000000000129
 20
26.099999999999
 30
0.0
 42
0.4142135623730951
  0
VERTEX
  5
2559
  8
SAPA_PROFIL
 10
18.400000000000318
 20
26.399999999998961
 30
0.0
  0
VERTEX
  5
255A
  8
SAPA_PROFIL
 10
18.400000000000318
 20
26.736626924633359
 30
0.0
 42
-0.5535245743249297
  0
VERTEX
  5
255B
  8
SAPA_PROFIL
 10
22.71055421153164
 20
24.96410760212348
 30
0.0
  0
VERTEX
  5
255C
  8
SAPA_PROFIL
 10
22.42322330470347
 20
24.67677669529553
 30
0.0
 42
0.4142135623729421
  0
VERTEX
  5
255D
  8
SAPA_PROFIL
 10
22.42322330470347
 20
24.32322330470242
 30
0.0
  0
VERTEX
  5
255E
  8
SAPA_PROFIL
 10
22.71055421153164
 20
24.035892397874481
 30
0.0
 42
-0.5535245743249292
  0
VERTEX
  5
255F
  8
SAPA_PROFIL
 10
18.400000000000318
 20
22.26337307536437
 30
0.0
  0
VERTEX
  5
2560
  8
SAPA_PROFIL
 10
18.400000000000318
 20
22.599999999999
 30
0.0
 42
0.4142135623730951
  0
VERTEX
  5
2561
  8
SAPA_PROFIL
 10
18.100000000000129
 20
22.899999999998961
 30
0.0
  0
VERTEX
  5
2562
  8
SAPA_PROFIL
 10
17.600000000000129
 20
22.899999999998961
 30
0.0
 42
0.4142135623730951
  0
VERTEX
  5
2563
  8
SAPA_PROFIL
 10
17.300000000000178
 20
22.599999999999
 30
0.0
  0
VERTEX
  5
2564
  8
SAPA_PROFIL
 10
17.300000000000178
 20
21.49999999999886
 30
0.0
 42
0.4142135623730951
  0
VERTEX
  5
2565
  8
SAPA_PROFIL
 10
18.800000000000178
 20
19.99999999999886
 30
0.0
  0
VERTEX
  5
2566
  8
SAPA_PROFIL
 10
21.63397459621569
 20
19.99999999999886
 30
0.0
 42
0.267949192431143
  0
VERTEX
  5
2567
  8
SAPA_PROFIL
 10
22.066987298107961
 20
20.24999999999886
 30
0.0
 42
-0.767326987978956
  0
VERTEX
  5
2568
  8
SAPA_PROFIL
 10
23.000000000000231
 20
19.99999999999886
 30
0.0
  0
VERTEX
  5
2569
  8
SAPA_PROFIL
 10
23.000000000000231
 20
-15.00000000000113
 30
0.0
 42
-0.4142135623730951
  0
VERTEX
  5
256A
  8
SAPA_PROFIL
 10
22.000000000000231
 20
-16.00000000000114
 30
0.0
  0
VERTEX
  5
256B
  8
SAPA_PROFIL
 10
17.600000000000129
 20
-16.00000000000114
 30
0.0
 42
0.4142135623730951
  0
VERTEX
  5
256C
  8
SAPA_PROFIL
 10
17.300000000000178
 20
-16.300000000001091
 30
0.0
  0
VERTEX
  5
256D
  8
SAPA_PROFIL
 10
17.300000000000178
 20
-18.600000000001039
 30
0.0
 42
0.4142135623730951
  0
VERTEX
  5
256E
  8
SAPA_PROFIL
 10
17.600000000000129
 20
-18.900000000001
 30
0.0
  0
VERTEX
  5
256F
  8
SAPA_PROFIL
 10
18.100000000000129
 20
-18.900000000001
 30
0.0
 42
0.4142135623730951
  0
VERTEX
  5
2570
  8
SAPA_PROFIL
 10
18.400000000000318
 20
-18.600000000001039
 30
0.0
  0
VERTEX
  5
2571
  8
SAPA_PROFIL
 10
18.400000000000318
 20
-18.263373075366641
 30
0.0
 42
-0.5535245743249297
  0
VERTEX
  5
2572
  8
SAPA_PROFIL
 10
22.71055421153164
 20
-20.03589239787652
 30
0.0
  0
VERTEX
  5
2573
  8
SAPA_PROFIL
 10
22.42322330470347
 20
-20.32322330470447
 30
0.0
 42
0.4142135623730243
  0
VERTEX
  5
2574
  8
SAPA_PROFIL
 10
22.423223304703701
 20
-20.67677669529758
 30
0.0
  0
VERTEX
  5
2575
  8
SAPA_PROFIL
 10
22.71055421153164
 20
-20.96410760212553
 30
0.0
 42
-0.5535245743249292
  0
VERTEX
  5
2576
  8
SAPA_PROFIL
 10
18.400000000000318
 20
-22.73662692463563
 30
0.0
  0
VERTEX
  5
2577
  8
SAPA_PROFIL
 10
18.400000000000318
 20
-22.400000000001
 30
0.0
 42
0.4142135623730951
  0
VERTEX
  5
2578
  8
SAPA_PROFIL
 10
18.100000000000129
 20
-22.100000000001049
 30
0.0
  0
VERTEX
  5
2579
  8
SAPA_PROFIL
 10
17.600000000000129
 20
-22.100000000001049
 30
0.0
 42
0.4142135623730951
  0
VERTEX
  5
257A
  8
SAPA_PROFIL
 10
17.300000000000178
 20
-22.400000000001
 30
0.0
  0
VERTEX
  5
257B
  8
SAPA_PROFIL
 10
17.300000000000178
 20
-23.50000000000114
 30
0.0
 42
0.4142135623730951
  0
VERTEX
  5
257C
  8
SAPA_PROFIL
 10
18.800000000000178
 20
-25.00000000000114
 30
0.0
  0
VERTEX
  5
257D
  8
SAPA_PROFIL
 10
21.780384757729511
 20
-25.00000000000114
 30
0.0
 42
0.2679491924311188
  0
VERTEX
  5
257E
  8
SAPA_PROFIL
 10
22.040192378864958
 20
-24.850000000001049
 30
0.0
 42
-0.7673269879789557
  0
VERTEX
  5
257F
  8
SAPA_PROFIL
 10
22.600000000000129
 20
-25.00000000000114
 30
0.0
  0
VERTEX
  5
2580
  8
SAPA_PROFIL
 10
22.599999999999909
 20
-27.00000000000114
 30
0.0
 42
-0.4142137811865366
  0
VERTEX
  5
2581
  8
SAPA_PROFIL
 10
21.600000747075459
 20
-28.00000000000114
 30
0.0
  0
VERTEX
  5
2582
  8
SAPA_PROFIL
 10
-21.599999999999682
 20
-28.00000000000114
 30
0.0
 42
-0.4142140000000124
  0
VERTEX
  5
2583
  8
SAPA_PROFIL
 10
-22.599999999999682
 20
-27.00000000000114
 30
0.0
  0
VERTEX
  5
2584
  8
SAPA_PROFIL
 10
-22.599999999999682
 20
-25.00000000000114
 30
0.0
 42
-0.7673269879789457
  0
VERTEX
  5
2585
  8
SAPA_PROFIL
 10
-22.0401923788645
 20
-24.850000000001049
 30
0.0
 42
0.2679491924311191
  0
VERTEX
  5
2586
  8
SAPA_PROFIL
 10
-21.780384757729049
 20
-25.00000000000114
 30
0.0
  0
VERTEX
  5
2587
  8
SAPA_PROFIL
 10
-18.799999999999731
 20
-25.00000000000114
 30
0.0
 42
0.4142135623730951
  0
VERTEX
  5
2588
  8
SAPA_PROFIL
 10
-17.299999999999731
 20
-23.50000000000114
 30
0.0
  0
VERTEX
  5
2589
  8
SAPA_PROFIL
 10
-17.299999999999731
 20
-22.400000000001
 30
0.0
 42
0.4142135623730951
  0
VERTEX
  5
258A
  8
SAPA_PROFIL
 10
-17.599999999999682
 20
-22.100000000001049
 30
0.0
  0
VERTEX
  5
258B
  8
SAPA_PROFIL
 10
-18.099999999999682
 20
-22.100000000001049
 30
0.0
 42
0.4142135623730951
  0
VERTEX
  5
258C
  8
SAPA_PROFIL
 10
-18.39999999999986
 20
-22.400000000001
 30
0.0
  0
VERTEX
  5
258D
  8
SAPA_PROFIL
 10
-18.39999999999986
 20
-22.73662692463563
 30
0.0
 42
-0.5535245743249307
  0
VERTEX
  5
258E
  8
SAPA_PROFIL
 10
-22.710554211531189
 20
-20.96410760212553
 30
0.0
  0
VERTEX
  5
258F
  8
SAPA_PROFIL
 10
-22.423223304703239
 20
-20.67677669529758
 30
0.0
 42
0.4142135623730951
  0
VERTEX
  5
2590
  8
SAPA_PROFIL
 10
-22.423223304703239
 20
-20.32322330470447
 30
0.0
  0
VERTEX
  5
2591
  8
SAPA_PROFIL
 10
-22.710554211531189
 20
-20.03589239787652
 30
0.0
 42
-0.553524574324932
  0
VERTEX
  5
2592
  8
SAPA_PROFIL
 10
-18.39999999999986
 20
-18.263373075366641
 30
0.0
  0
VERTEX
  5
2593
  8
SAPA_PROFIL
 10
-18.39999999999986
 20
-18.600000000001039
 30
0.0
 42
0.4142135623730951
  0
VERTEX
  5
2594
  8
SAPA_PROFIL
 10
-18.099999999999682
 20
-18.900000000001
 30
0.0
  0
VERTEX
  5
2595
  8
SAPA_PROFIL
 10
-17.599999999999682
 20
-18.900000000001
 30
0.0
 42
0.4142135623730951
  0
VERTEX
  5
2596
  8
SAPA_PROFIL
 10
-17.299999999999731
 20
-18.600000000001039
 30
0.0
  0
VERTEX
  5
2597
  8
SAPA_PROFIL
 10
-17.299999999999731
 20
-16.300000000001091
 30
0.0
 42
0.4142135623730951
  0
VERTEX
  5
2598
  8
SAPA_PROFIL
 10
-17.599999999999682
 20
-16.00000000000114
 30
0.0
  0
VERTEX
  5
2599
  8
SAPA_PROFIL
 10
-21.999999999999769
 20
-16.00000000000114
 30
0.0
 42
-0.4142135623730951
  0
VERTEX
  5
259A
  8
SAPA_PROFIL
 10
-22.999999999999769
 20
-15.00000000000113
 30
0.0
  0
VERTEX
  5
259B
  8
SAPA_PROFIL
 10
-22.999999999999769
 20
19.99999999999886
 30
0.0
 42
-0.7673269879789569
  0
VERTEX
  5
259C
  8
SAPA_PROFIL
 10
-22.066987298107509
 20
20.24999999999886
 30
0.0
 42
0.2679491924311163
  0
VERTEX
  5
259D
  8
SAPA_PROFIL
 10
-21.633974596215239
 20
19.99999999999886
 30
0.0
  0
VERTEX
  5
259E
  8
SAPA_PROFIL
 10
-18.799999999999731
 20
19.99999999999886
 30
0.0
 42
0.4142135623730951
  0
VERTEX
  5
259F
  8
SAPA_PROFIL
 10
-17.299999999999731
 20
21.49999999999886
 30
0.0
  0
VERTEX
  5
25A0
  8
SAPA_PROFIL
 10
-17.299999999999731
 20
22.599999999999
 30
0.0
 42
0.4142135623730951
  0
VERTEX
  5
25A1
  8
SAPA_PROFIL
 10
-17.599999999999682
 20
22.899999999998961
 30
0.0
  0
VERTEX
  5
25A2
  8
SAPA_PROFIL
 10
-18.099999999999682
 20
22.899999999998961
 30
0.0
 42
0.4142135623730951
  0
VERTEX
  5
25A3
  8
SAPA_PROFIL
 10
-18.39999999999986
 20
22.599999999999
 30
0.0
  0
VERTEX
  5
25A4
  8
SAPA_PROFIL
 10
-18.39999999999986
 20
22.26337307536437
 30
0.0
 42
-0.5535245743249307
  0
VERTEX
  5
25A5
  8
SAPA_PROFIL
 10
-22.710554211531189
 20
24.035892397874481
 30
0.0
  0
VERTEX
  5
25A6
  8
SAPA_PROFIL
 10
-22.423223304703239
 20
24.32322330470242
 30
0.0
 42
0.4142135623731068
  0
VERTEX
  5
25A7
  8
SAPA_PROFIL
 10
-22.423223304703011
 20
24.67677669529553
 30
0.0
  0
VERTEX
  5
25A8
  8
SAPA_PROFIL
 10
-22.710554211531189
 20
24.96410760212348
 30
0.0
 42
-0.553524574324932
  0
VERTEX
  5
25A9
  8
SAPA_PROFIL
 10
-18.39999999999986
 20
26.736626924633359
 30
0.0
  0
VERTEX
  5
25AA
  8
SAPA_PROFIL
 10
-18.39999999999986
 20
26.399999999998961
 30
0.0
 42
0.4142135623730951
  0
VERTEX
  5
25AB
  8
SAPA_PROFIL
 10
-18.099999999999682
 20
26.099999999999
 30
0.0
  0
VERTEX
  5
25AC
  8
SAPA_PROFIL
 10
-17.599999999999682
 20
26.099999999999
 30
0.0
 42
0.4142135623730951
  0
VERTEX
  5
25AD
  8
SAPA_PROFIL
 10
-17.299999999999731
 20
26.399999999998961
 30
0.0
  0
VERTEX
  5
25AE
  8
SAPA_PROFIL
 10
-17.299999999999731
 20
28.699999999998909
 30
0.0
 42
0.4142135623730951
  0
VERTEX
  5
25AF
  8
SAPA_PROFIL
 10
-17.599999999999682
 20
28.99999999999887
 30
0.0
  0
VERTEX
  5
25B0
  8
SAPA_PROFIL
 10
-21.999999999999769
 20
28.99999999999887
 30
0.0
 42
-0.4142135623730951
  0
VERTEX
  5
25B1
  8
SAPA_PROFIL
 10
-22.999999999999769
 20
29.99999999999886
 30
0.0
  0
VERTEX
  5
25B2
  8
SAPA_PROFIL
 10
-22.999999999999769
 20
54.699999999998909
 30
0.0
 42
-0.4142135623730951
  0
VERTEX
  5
25B3
  8
SAPA_PROFIL
 10
-22.699999999999822
 20
54.999999999998863
 30
0.0
  0
VERTEX
  5
25B4
  8
SAPA_PROFIL
 10
-21.39999999999986
 20
54.999999999998863
 30
0.0
 42
0.4142135623730951
  0
VERTEX
  5
25B5
  8
SAPA_PROFIL
 10
-21.099999999999682
 20
55.299999999999052
 30
0.0
  0
VERTEX
  5
25B6
  8
SAPA_PROFIL
 10
-21.099999999999682
 20
55.875735931286947
 30
0.0
 42
0.1989123673796752
  0
VERTEX
  5
25B7
  8
SAPA_PROFIL
 10
-21.187867965643822
 20
56.087867965642999
 30
0.0
  0
VERTEX
  5
25B8
  8
SAPA_PROFIL
 10
-22.91213203435586
 20
57.812132034355052
 30
0.0
 42
-0.1989123673796057
  0
VERTEX
  5
25B9
  8
SAPA_PROFIL
 10
-22.999999999999769
 20
58.024264068710863
 30
0.0
  0
VERTEX
  5
25BA
  8
SAPA_PROFIL
 10
-22.999999999999769
 20
61.499999999998863
 30
0.0
 42
-0.4142135623730951
  0
VERTEX
  5
25BB
  8
SAPA_PROFIL
 10
-21.999999999999769
 20
62.499999999998863
 30
0.0
  0
VERTEX
  5
25BC
  8
SAPA_PROFIL
 10
22.000000000000231
 20
62.499999999998863
 30
0.0
 42
-0.4142135623730951
  0
VERTEX
  5
25BD
  8
SAPA_PROFIL
 10
23.000000000000231
 20
61.499999999998863
 30
0.0
  0
SEQEND
  5
25BE
  8
SAPA_PROFIL
  0
POLYLINE
  5
17D7
  8
SAPA_PROFIL
 66
     1
 10
0.0
 20
0.0
 30
0.0
 70
     1
  0
VERTEX
  5
25BF
  8
SAPA_PROFIL
 10
6.0000000000002274
 20
-30.00000000000114
 30
0.0
 42
0.4142135623730951
  0
VERTEX
  5
25C0
  8
SAPA_PROFIL
 10
5.0000000000002274
 20
-31.00000000000114
 30
0.0
  0
VERTEX
  5
25C1
  8
SAPA_PROFIL
 10
5.0000000000002274
 20
-52.200000000000948
 30
0.0
 42
-0.4142135623730951
  0
VERTEX
  5
25C2
  8
SAPA_PROFIL
 10
4.700000000000272
 20
-52.50000000000113
 30
0.0
  0
VERTEX
  5
25C3
  8
SAPA_PROFIL
 10
3.0757360000002332
 20
-52.50000000000113
 30
0.0
  0
VERTEX
  5
25C4
  8
SAPA_PROFIL
 10
2.2378679656442269
 20
-51.562132034356871
 30
0.0
 42
-0.668178637919305
  0
VERTEX
  5
25C5
  8
SAPA_PROFIL
 10
2.450000000000272
 20
-51.050000000001091
 30
0.0
  0
VERTEX
  5
25C6
  8
SAPA_PROFIL
 10
2.700000000000272
 20
-51.050000000001091
 30
0.0
  0
VERTEX
  5
25C7
  8
SAPA_PROFIL
 10
2.1767196966982278
 20
-49.673765406424756
 30
0.0
 42
-0.5450207798987201
  0
VERTEX
  5
25C8
  8
SAPA_PROFIL
 10
2.450000000000272
 20
-49.250000000001137
 30
0.0
  0
VERTEX
  5
25C9
  8
SAPA_PROFIL
 10
2.700000000000272
 20
-49.250000000001137
 30
0.0
  0
VERTEX
  5
25CA
  8
SAPA_PROFIL
 10
2.1767196966982278
 20
-47.873765406424567
 30
0.0
 42
-0.5450207798987201
  0
VERTEX
  5
25CB
  8
SAPA_PROFIL
 10
2.450000000000272
 20
-47.450000000000962
 30
0.0
  0
VERTEX
  5
25CC
  8
SAPA_PROFIL
 10
2.700000000000272
 20
-47.450000000000962
 30
0.0
  0
VERTEX
  5
25CD
  8
SAPA_PROFIL
 10
2.1767196966982278
 20
-46.07376540642462
 30
0.0
 42
-0.5450207798987342
  0
VERTEX
  5
25CE
  8
SAPA_PROFIL
 10
2.450000000000272
 20
-45.650000000000993
 30
0.0
  0
VERTEX
  5
25CF
  8
SAPA_PROFIL
 10
2.700000000000272
 20
-45.650000000000993
 30
0.0
  0
VERTEX
  5
25D0
  8
SAPA_PROFIL
 10
2.1767196966982278
 20
-44.273765406424673
 30
0.0
 42
-0.5450207798987201
  0
VERTEX
  5
25D1
  8
SAPA_PROFIL
 10
2.450000000000272
 20
-43.850000000001039
 30
0.0
  0
VERTEX
  5
25D2
  8
SAPA_PROFIL
 10
2.700000000000272
 20
-43.850000000001039
 30
0.0
  0
VERTEX
  5
25D3
  8
SAPA_PROFIL
 10
2.4722372826161059
 20
-43.126282705194853
 30
0.0
 42
0.2945484962563026
  0
VERTEX
  5
25D4
  8
SAPA_PROFIL
 10
2.1988824689378812
 20
-42.950048040246656
 30
0.0
  0
VERTEX
  5
25D5
  8
SAPA_PROFIL
 10
1.2642999377483191
 20
-42.950255222213173
 30
0.0
 42
-0.3475954753796591
  0
VERTEX
  5
25D6
  8
SAPA_PROFIL
 10
0.9723265106783856
 20
-42.719501178044077
 30
0.0
 42
0.790522909611319
  0
VERTEX
  5
25D7
  8
SAPA_PROFIL
 10
-0.973664089865224
 20
-42.71949097360357
 30
0.0
 42
-0.3476065658631364
  0
VERTEX
  5
25D8
  8
SAPA_PROFIL
 10
-1.2656518108867649
 20
-42.950241952335773
 30
0.0
  0
VERTEX
  5
25D9
  8
SAPA_PROFIL
 10
-1.8499926620931999
 20
-42.950095231626847
 30
0.0
 42
0.4102317530969976
  0
VERTEX
  5
25DA
  8
SAPA_PROFIL
 10
-2.1500282985855388
 20
-43.245946879780369
 30
0.0
 42
-0.0712587206050384
  0
VERTEX
  5
25DB
  8
SAPA_PROFIL
 10
-2.1632556124550311
 20
-43.329990804708579
 30
0.0
  0
VERTEX
  5
25DC
  8
SAPA_PROFIL
 10
-2.6999999999998181
 20
-44.750000000001137
 30
0.0
  0
VERTEX
  5
25DD
  8
SAPA_PROFIL
 10
-2.4499999999998181
 20
-44.750000000001137
 30
0.0
 42
-0.5450200690651619
  0
VERTEX
  5
25DE
  8
SAPA_PROFIL
 10
-2.17671899999982
 20
-45.173765000001133
 30
0.0
  0
VERTEX
  5
25DF
  8
SAPA_PROFIL
 10
-2.6999999999998181
 20
-46.550000000001091
 30
0.0
  0
VERTEX
  5
25E0
  8
SAPA_PROFIL
 10
-2.4499999999998181
 20
-46.550000000000857
 30
0.0
 42
-0.545020069065176
  0
VERTEX
  5
25E1
  8
SAPA_PROFIL
 10
-2.17671899999982
 20
-46.973765000001087
 30
0.0
  0
VERTEX
  5
25E2
  8
SAPA_PROFIL
 10
-2.6999999999998181
 20
-48.350000000001039
 30
0.0
  0
VERTEX
  5
25E3
  8
SAPA_PROFIL
 10
-2.4499999999998181
 20
-48.350000000001039
 30
0.0
 42
-0.5450200690651692
  0
VERTEX
  5
25E4
  8
SAPA_PROFIL
 10
-2.17671899999982
 20
-48.773765000001049
 30
0.0
  0
VERTEX
  5
25E5
  8
SAPA_PROFIL
 10
-2.6999999999998181
 20
-50.150000000001
 30
0.0
  0
VERTEX
  5
25E6
  8
SAPA_PROFIL
 10
-2.1499999999998631
 20
-50.150000000001
 30
0.0
  0
VERTEX
  5
25E7
  8
SAPA_PROFIL
 10
-2.1499999999998631
 20
-51.350000000001039
 30
0.0
 42
-0.1989123673797004
  0
VERTEX
  5
25E8
  8
SAPA_PROFIL
 10
-2.2378679999997071
 20
-51.562132000001156
 30
0.0
  0
VERTEX
  5
25E9
  8
SAPA_PROFIL
 10
-3.075735999999778
 20
-52.50000000000113
 30
0.0
  0
VERTEX
  5
25EA
  8
SAPA_PROFIL
 10
-4.6999999999998181
 20
-52.50000000000113
 30
0.0
 42
-0.4142135623730951
  0
VERTEX
  5
25EB
  8
SAPA_PROFIL
 10
-4.9999999999997717
 20
-52.200000000000948
 30
0.0
  0
VERTEX
  5
25EC
  8
SAPA_PROFIL
 10
-4.9999999999997717
 20
-31.00000000000114
 30
0.0
 42
0.4142135623730951
  0
VERTEX
  5
25ED
  8
SAPA_PROFIL
 10
-5.9999999999997717
 20
-30.00000000000114
 30
0.0
  0
VERTEX
  5
25EE
  8
SAPA_PROFIL
 10
-14.19999999999982
 20
-30.00000000000114
 30
0.0
 42
0.4142135623730951
  0
VERTEX
  5
25EF
  8
SAPA_PROFIL
 10
-14.69999999999982
 20
-30.50000000000114
 30
0.0
  0
VERTEX
  5
25F0
  8
SAPA_PROFIL
 10
-14.69999999999982
 20
-33.700000000000962
 30
0.0
 42
0.4142135623730951
  0
VERTEX
  5
25F1
  8
SAPA_PROFIL
 10
-14.19999999999982
 20
-34.200000000000962
 30
0.0
  0
VERTEX
  5
25F2
  8
SAPA_PROFIL
 10
-11.299999999999731
 20
-34.200000000000962
 30
0.0
 42
-0.4142135623730951
  0
VERTEX
  5
25F3
  8
SAPA_PROFIL
 10
-10.999999999999771
 20
-34.500000000001137
 30
0.0
  0
VERTEX
  5
25F4
  8
SAPA_PROFIL
 10
-10.999999999999771
 20
-35.200000000000948
 30
0.0
 42
-0.4142135623730951
  0
VERTEX
  5
25F5
  8
SAPA_PROFIL
 10
-11.299999999999731
 20
-35.500000000001137
 30
0.0
  0
VERTEX
  5
25F6
  8
SAPA_PROFIL
 10
-17.999999999999769
 20
-35.500000000001137
 30
0.0
  0
VERTEX
  5
25F7
  8
SAPA_PROFIL
 10
-18.586384015500471
 20
-35.035076580641999
 30
0.0
 42
-0.7105995019814511
  0
VERTEX
  5
25F8
  8
SAPA_PROFIL
 10
-18.39999999999986
 20
-34.500000000001137
 30
0.0
  0
VERTEX
  5
25F9
  8
SAPA_PROFIL
 10
-16.499999999999769
 20
-34.500000000001137
 30
0.0
 42
0.4142135623730951
  0
VERTEX
  5
25FA
  8
SAPA_PROFIL
 10
-16.199999999999822
 20
-34.200000000000962
 30
0.0
  0
VERTEX
  5
25FB
  8
SAPA_PROFIL
 10
-16.199999999999822
 20
-30.300000000001091
 30
0.0
 42
0.4142135623730951
  0
VERTEX
  5
25FC
  8
SAPA_PROFIL
 10
-16.499999999999769
 20
-30.00000000000114
 30
0.0
  0
VERTEX
  5
25FD
  8
SAPA_PROFIL
 10
-23.199999999999822
 20
-30.00000000000114
 30
0.0
 42
0.4142135623730951
  0
VERTEX
  5
25FE
  8
SAPA_PROFIL
 10
-23.499999999999769
 20
-30.300000000001091
 30
0.0
  0
VERTEX
  5
25FF
  8
SAPA_PROFIL
 10
-23.499999999999769
 20
-34.200000000000962
 30
0.0
 42
0.4142135623730951
  0
VERTEX
  5
2600
  8
SAPA_PROFIL
 10
-23.199999999999822
 20
-34.500000000001137
 30
0.0
  0
VERTEX
  5
2601
  8
SAPA_PROFIL
 10
-21.999999999999769
 20
-34.500000000001137
 30
0.0
 42
-0.7105990647993611
  0
VERTEX
  5
2602
  8
SAPA_PROFIL
 10
-21.81361599999968
 20
-35.035076000001027
 30
0.0
  0
VERTEX
  5
2603
  8
SAPA_PROFIL
 10
-22.39999999999986
 20
-35.500000000001137
 30
0.0
  0
VERTEX
  5
2604
  8
SAPA_PROFIL
 10
-24.699999999999822
 20
-35.500000000001137
 30
0.0
 42
-0.4142135623730951
  0
VERTEX
  5
2605
  8
SAPA_PROFIL
 10
-24.999999999999769
 20
-35.200000000000948
 30
0.0
  0
VERTEX
  5
2606
  8
SAPA_PROFIL
 10
-24.999999999999769
 20
63.999999999998863
 30
0.0
 42
-0.4142135623730951
  0
VERTEX
  5
2607
  8
SAPA_PROFIL
 10
-24.499999999999769
 20
64.499999999998863
 30
0.0
  0
VERTEX
  5
2608
  8
SAPA_PROFIL
 10
24.500000000000231
 20
64.499999999998863
 30
0.0
 42
-0.4142135623730951
  0
VERTEX
  5
2609
  8
SAPA_PROFIL
 10
25.000000000000231
 20
63.999999999998863
 30
0.0
  0
VERTEX
  5
260A
  8
SAPA_PROFIL
 10
25.000000000000231
 20
-35.200000000000948
 30
0.0
 42
-0.4142135623730951
  0
VERTEX
  5
260B
  8
SAPA_PROFIL
 10
24.700000000000269
 20
-35.500000000001137
 30
0.0
  0
VERTEX
  5
260C
  8
SAPA_PROFIL
 10
22.400000000000318
 20
-35.500000000001137
 30
0.0
  0
VERTEX
  5
260D
  8
SAPA_PROFIL
 10
21.81361598449962
 20
-35.035076580641999
 30
0.0
 42
-0.7105995019814511
  0
VERTEX
  5
260E
  8
SAPA_PROFIL
 10
22.000000000000231
 20
-34.500000000001137
 30
0.0
  0
VERTEX
  5
260F
  8
SAPA_PROFIL
 10
23.200000000000269
 20
-34.500000000001137
 30
0.0
 42
0.4142135623730951
  0
VERTEX
  5
2610
  8
SAPA_PROFIL
 10
23.500000000000231
 20
-34.200000000000962
 30
0.0
  0
VERTEX
  5
2611
  8
SAPA_PROFIL
 10
23.500000000000231
 20
-30.300000000001091
 30
0.0
 42
0.4142135623730951
  0
VERTEX
  5
2612
  8
SAPA_PROFIL
 10
23.200000000000269
 20
-30.00000000000114
 30
0.0
  0
VERTEX
  5
2613
  8
SAPA_PROFIL
 10
16.500000000000231
 20
-30.00000000000114
 30
0.0
 42
0.4142135623730951
  0
VERTEX
  5
2614
  8
SAPA_PROFIL
 10
16.200000000000269
 20
-30.300000000001091
 30
0.0
  0
VERTEX
  5
2615
  8
SAPA_PROFIL
 10
16.200000000000269
 20
-34.200000000000962
 30
0.0
 42
0.4142135623730951
  0
VERTEX
  5
2616
  8
SAPA_PROFIL
 10
16.500000000000231
 20
-34.500000000001137
 30
0.0
  0
VERTEX
  5
2617
  8
SAPA_PROFIL
 10
18.400000000000318
 20
-34.500000000001137
 30
0.0
 42
-0.7105995019814511
  0
VERTEX
  5
2618
  8
SAPA_PROFIL
 10
18.586384015500919
 20
-35.035076580641999
 30
0.0
  0
VERTEX
  5
2619
  8
SAPA_PROFIL
 10
18.000000000000231
 20
-35.500000000001137
 30
0.0
  0
VERTEX
  5
261A
  8
SAPA_PROFIL
 10
11.30000000000018
 20
-35.500000000001137
 30
0.0
 42
-0.4142135623730951
  0
VERTEX
  5
261B
  8
SAPA_PROFIL
 10
11.00000000000022
 20
-35.200000000000948
 30
0.0
  0
VERTEX
  5
261C
  8
SAPA_PROFIL
 10
11.00000000000022
 20
-34.500000000001137
 30
0.0
 42
-0.4142135623730951
  0
VERTEX
  5
261D
  8
SAPA_PROFIL
 10
11.30000000000018
 20
-34.200000000000962
 30
0.0
  0
VERTEX
  5
261E
  8
SAPA_PROFIL
 10
14.200000000000269
 20
-34.200000000000962
 30
0.0
 42
0.4142135623730951
  0
VERTEX
  5
261F
  8
SAPA_PROFIL
 10
14.700000000000269
 20
-33.700000000000962
 30
0.0
  0
VERTEX
  5
2620
  8
SAPA_PROFIL
 10
14.700000000000269
 20
-30.50000000000114
 30
0.0
 42
0.4142135623730951
  0
VERTEX
  5
2621
  8
SAPA_PROFIL
 10
14.200000000000269
 20
-30.00000000000114
 30
0.0
  0
SEQEND
  5
2622
  8
SAPA_PROFIL
  0
POLYLINE
  5
17E6
  8
SAPA_GLAS
 66
     1
 10
0.0
 20
0.0
 30
0.0
  0
VERTEX
  5
2657
  8
SAPA_GLAS
 10
40.999999999995673
 20
-48.499999999010242
 30
0.0
  0
VERTEX
  5
2658
  8
SAPA_GLAS
 10
10.99999999999568
 20
-48.499999999010242
 30
0.0
  0
VERTEX
  5
2659
  8
SAPA_GLAS
 10
10.99999999999568
 20
-44.499999999010242
 30
0.0
  0
VERTEX
  5
265A
  8
SAPA_GLAS
 10
40.999999999995673
 20
-44.499999999010242
 30
0.0
  0
SEQEND
  5
265B
  8
SAPA_GLAS
  0
POLYLINE
  5
17E7
  8
SAPA_GLAS
 66
     1
 10
0.0
 20
0.0
 30
0.0
  0
VERTEX
  5
265C
  8
SAPA_GLAS
 10
20.99999999999477
 20
-60.499999999010242
 30
0.0
  0
VERTEX
  5
265D
  8
SAPA_GLAS
 10
20.99999999999477
 20
-48.499999999010242
 30
0.0
  0
VERTEX
  5
265E
  8
SAPA_GLAS
 10
10.99999999999568
 20
-48.499999999010242
 30
0.0
  0
VERTEX
  5
265F
  8
SAPA_GLAS
 10
10.99999999999568
 20
-60.499999999010242
 30
0.0
  0
VERTEX
  5
2660
  8
SAPA_GLAS
 10
20.99999999999477
 20
-60.499999999010242
 30
0.0
  0
SEQEND
  5
2661
  8
SAPA_GLAS
  0
POLYLINE
  5
17E8
  8
SAPA_GLAS
 66
     1
 10
0.0
 20
0.0
 30
0.0
  0
VERTEX
  5
2662
  8
SAPA_GLAS
 10
40.999999999995673
 20
-64.499999999010242
 30
0.0
  0
VERTEX
  5
2663
  8
SAPA_GLAS
 10
10.99999999999568
 20
-64.499999999010242
 30
0.0
  0
VERTEX
  5
2664
  8
SAPA_GLAS
 10
10.99999999999568
 20
-60.499999999010242
 30
0.0
  0
VERTEX
  5
2665
  8
SAPA_GLAS
 10
40.999999999995673
 20
-60.499999999010242
 30
0.0
  0
SEQEND
  5
2666
  8
SAPA_GLAS
  0
POLYLINE
  5
17E9
  8
SAPA_GLAS
 66
     1
 10
0.0
 20
0.0
 30
0.0
  0
VERTEX
  5
2667
  8
SAPA_GLAS
 10
20.99999999999477
 20
-76.499999999011834
 30
0.0
  0
VERTEX
  5
2668
  8
SAPA_GLAS
 10
20.99999999999477
 20
-64.499999999010242
 30
0.0
  0
VERTEX
  5
2669
  8
SAPA_GLAS
 10
10.99999999999568
 20
-64.499999999010242
 30
0.0
  0
VERTEX
  5
266A
  8
SAPA_GLAS
 10
10.99999999999568
 20
-76.499999999011834
 30
0.0
  0
VERTEX
  5
266B
  8
SAPA_GLAS
 10
20.99999999999477
 20
-76.499999999011834
 30
0.0
  0
SEQEND
  5
266C
  8
SAPA_GLAS
  0
POLYLINE
  5
17EA
  8
SAPA_GLAS
 66
     1
 10
0.0
 20
0.0
 30
0.0
  0
VERTEX
  5
266D
  8
SAPA_GLAS
 10
40.999999999995673
 20
-82.499999999011834
 30
0.0
  0
VERTEX
  5
266E
  8
SAPA_GLAS
 10
10.99999999999568
 20
-82.499999999011834
 30
0.0
  0
VERTEX
  5
266F
  8
SAPA_GLAS
 10
10.99999999999568
 20
-76.499999999011834
 30
0.0
  0
VERTEX
  5
2670
  8
SAPA_GLAS
 10
40.999999999995673
 20
-76.499999999011834
 30
0.0
  0
SEQEND
  5
2671
  8
SAPA_GLAS
  0
POLYLINE
  5
17EB
  8
SAPA_GLAS
 66
     1
 10
0.0
 20
0.0
 30
0.0
 70
     1
  0
VERTEX
  5
2672
  8
SAPA_GLAS
 10
-110.9999999998263
 20
-67.501284435459027
 30
0.0
  0
VERTEX
  5
2673
  8
SAPA_GLAS
 10
-110.9999999998263
 20
-52.501284435459027
 30
0.0
  0
VERTEX
  5
2674
  8
SAPA_GLAS
 10
-100.9999999998262
 20
-52.501284435459027
 30
0.0
  0
VERTEX
  5
2675
  8
SAPA_GLAS
 10
-100.9999999998262
 20
-67.501284435459027
 30
0.0
  0
SEQEND
  5
2676
  8
SAPA_GLAS
  0
POLYLINE
  5
17EC
  8
SAPA_GLAS
 66
     1
 10
0.0
 20
0.0
 30
0.0
 70
     1
  0
VERTEX
  5
2677
  8
SAPA_GLAS
 10
-110.9999999998263
 20
-48.50128443545902
 30
0.0
  0
VERTEX
  5
2678
  8
SAPA_GLAS
 10
-110.9999999998263
 20
-33.501284435459027
 30
0.0
  0
VERTEX
  5
2679
  8
SAPA_GLAS
 10
-100.9999999998262
 20
-33.501284435459027
 30
0.0
  0
VERTEX
  5
267A
  8
SAPA_GLAS
 10
-100.9999999998262
 20
-48.50128443545902
 30
0.0
  0
SEQEND
  5
267B
  8
SAPA_GLAS
  0
POLYLINE
  5
17ED
  8
SAPA_GLAS
 66
     1
 10
0.0
 20
0.0
 30
0.0
  0
VERTEX
  5
267C
  8
SAPA_GLAS
 10
-130.999999999826
 20
-48.50128443545902
 30
0.0
  0
VERTEX
  5
267D
  8
SAPA_GLAS
 10
-100.999999999826
 20
-48.50128443545902
 30
0.0
  0
VERTEX
  5
267E
  8
SAPA_GLAS
 10
-100.999999999826
 20
-52.501284435459027
 30
0.0
  0
VERTEX
  5
267F
  8
SAPA_GLAS
 10
-130.999999999826
 20
-52.501284435459027
 30
0.0
  0
SEQEND
  5
2680
  8
SAPA_GLAS
  0
POLYLINE
  5
17EE
  8
SAPA_GLAS
 66
     1
 10
0.0
 20
0.0
 30
0.0
  0
VERTEX
  5
2681
  8
SAPA_GLAS
 10
-130.999999999826
 20
-27.501284435459031
 30
0.0
  0
VERTEX
  5
2682
  8
SAPA_GLAS
 10
-100.999999999826
 20
-27.501284435459031
 30
0.0
  0
VERTEX
  5
2683
  8
SAPA_GLAS
 10
-100.999999999826
 20
-33.501284435459027
 30
0.0
  0
VERTEX
  5
2684
  8
SAPA_GLAS
 10
-130.999999999826
 20
-33.501284435459027
 30
0.0
  0
SEQEND
  5
2685
  8
SAPA_GLAS
  0
POLYLINE
  5
17EF
  8
SAPA_GLAS
 66
     1
 10
0.0
 20
0.0
 30
0.0
  0
VERTEX
  5
2686
  8
SAPA_GLAS
 10
-130.999999999826
 20
-73.501284435459013
 30
0.0
  0
VERTEX
  5
2687
  8
SAPA_GLAS
 10
-100.999999999826
 20
-73.501284435459013
 30
0.0
  0
VERTEX
  5
2688
  8
SAPA_GLAS
 10
-100.999999999826
 20
-67.501284435459027
 30
0.0
  0
VERTEX
  5
2689
  8
SAPA_GLAS
 10
-130.999999999826
 20
-67.501284435459027
 30
0.0
  0
SEQEND
  5
268A
  8
SAPA_GLAS
  0
LINE
  5
17FA
  8
SAPA_ISOLATOR
 10
-25.000017830633741
 20
-19.383797312183962
 30
0.0
 11
-31.194641597816599
 21
-19.383797312183962
 31
0.0
  0
LINE
  5
17FB
  8
SAPA_ISOLATOR
 10
-25.000017830633741
 20
-44.578680595395731
 30
0.0
 11
-25.000017830633741
 21
-19.383797312183962
 31
0.0
  0
LINE
  5
17FC
  8
SAPA_ISOLATOR
 10
-31.194641597818421
 20
-44.578680595395731
 30
0.0
 11
-25.000017830633741
 21
-44.578680595395731
 31
0.0
  0
LINE
  5
17FD
  8
SAPA_ISOLATOR
 10
-31.200017830633669
 20
-19.383797312183962
 30
0.0
 11
-31.194641597818421
 21
-44.578680595395731
 31
0.0
  0
LINE
  5
17FE
  8
SAPA_ISOLATOR
 10
-31.194641597818421
 20
-44.578680595395731
 30
0.0
 11
-25.000017830633741
 21
-19.383797312183962
 31
0.0
  0
LINE
  5
17FF
  8
SAPA_ISOLATOR
 10
-31.216605133519121
 20
-19.383797312183962
 30
0.0
 11
-25.011228900703941
 21
-44.578680595395731
 31
0.0
  0
CIRCLE
  5
1823
  8
SAPA_FOGBAND
 10
-18.616845196571941
 20
-84.637568219766294
 30
0.0
 40
0.2549509756796394
  0
INSERT
  5
1824
  8
SAPA_FOGBAND
  6
CONTINUOUS
  2
*U183
 10
0.0
 20
0.0
 30
0.0
1001
ACAD
1002
{
1000
R14_HATCH_DATA
1000
1824
1011
1.0
1021
0.0
1031
0.0
1021
0.0
1031
0.0
1011
0.0
1021
0.0
1031
0.0
1021
1.0
1031
0.0
1011
0.0
1021
0.0
1031
0.0
1021
0.0
1031
1.0
1040
0.0
1010
0.0
1020
0.0
1030
1.0
1000
SOLID
1070
     1
1070
     1
1071
        1
1071
        1
1071
        1
1070
     2
1040
-18.616845196571941
1040
-84.637568219766294
1040
0.2549509756796394
1040
0.0
1040
6.2831853071795862
1070
     1
1071
        1
1005
1823
1070
     0
1070
     1
1071
        1
1040
-18.853584098142051
1040
-84.555716722437396
1040
0.0
1002
}
  0
POLYLINE
  5
1825
  8
SAPA_FOGBAND
 66
     1
 10
0.0
 20
0.0
 30
0.0
 70
     1
  0
VERTEX
  5
2838
  8
SAPA_FOGBAND
 10
-17.71684519657197
 20
-87.599999999010834
 30
0.0
 42
0.9999999999999998
  0
VERTEX
  5
2839
  8
SAPA_FOGBAND
 10
-19.516845196571921
 20
-87.599999999010834
 30
0.0
  0
VERTEX
  5
283A
  8
SAPA_FOGBAND
 10
-19.516845196571921
 20
-88.199999999010856
 30
0.0
 42
0.9999999999999998
  0
VERTEX
  5
283B
  8
SAPA_FOGBAND
 10
-17.71684519657197
 20
-88.199999999010856
 30
0.0
  0
SEQEND
  5
283C
  8
SAPA_FOGBAND
  0
POLYLINE
  5
1826
  8
SAPA_FOGBAND
 66
     1
 10
0.0
 20
0.0
 30
0.0
 70
     1
  0
VERTEX
  5
283D
  8
SAPA_FOGBAND
 10
-27.244721504745151
 20
-82.499999999010811
 30
0.0
 42
0.0775891054856093
  0
VERTEX
  5
283E
  8
SAPA_FOGBAND
 10
-23.77793977432259
 20
-82.816635983072175
 30
0.0
  0
VERTEX
  5
283F
  8
SAPA_FOGBAND
 10
-23.540050281493791
 20
-82.599999999010777
 30
0.0
 42
-0.5773502691896298
  0
VERTEX
  5
2840
  8
SAPA_FOGBAND
 10
-23.193640119979928
 20
-82.599999999010777
 30
0.0
  0
VERTEX
  5
2841
  8
SAPA_FOGBAND
 10
-22.955592503249139
 20
-82.816909853233824
 30
0.0
  0
VERTEX
  5
2842
  8
SAPA_FOGBAND
 10
-22.178097893332509
 20
-82.816909853233824
 30
0.0
  0
VERTEX
  5
2843
  8
SAPA_FOGBAND
 10
-21.940050281493772
 20
-82.599999999010777
 30
0.0
 42
-0.577350269189699
  0
VERTEX
  5
2844
  8
SAPA_FOGBAND
 10
-21.593640119980019
 20
-82.599999999010777
 30
0.0
  0
VERTEX
  5
2845
  8
SAPA_FOGBAND
 10
-21.35559250324923
 20
-82.816909853233824
 30
0.0
  0
VERTEX
  5
2846
  8
SAPA_FOGBAND
 10
-20.57809789333248
 20
-82.816909853233824
 30
0.0
  0
VERTEX
  5
2847
  8
SAPA_FOGBAND
 10
-20.340050281493738
 20
-82.599999999010777
 30
0.0
 42
-0.577350269189699
  0
VERTEX
  5
2848
  8
SAPA_FOGBAND
 10
-19.99364011998
 20
-82.599999999010777
 30
0.0
  0
VERTEX
  5
2849
  8
SAPA_FOGBAND
 10
-19.755592503249201
 20
-82.816909853233824
 30
0.0
  0
VERTEX
  5
284A
  8
SAPA_FOGBAND
 10
-18.97809789333246
 20
-82.816909853233824
 30
0.0
  0
VERTEX
  5
284B
  8
SAPA_FOGBAND
 10
-18.740050281493829
 20
-82.599999999010777
 30
0.0
 42
-0.5773502691896298
  0
VERTEX
  5
284C
  8
SAPA_FOGBAND
 10
-18.393640119979981
 20
-82.599999999010777
 30
0.0
  0
VERTEX
  5
284D
  8
SAPA_FOGBAND
 10
-18.155592503249181
 20
-82.816909853233824
 30
0.0
  0
VERTEX
  5
284E
  8
SAPA_FOGBAND
 10
-17.378097893332441
 20
-82.816909853233824
 30
0.0
  0
VERTEX
  5
284F
  8
SAPA_FOGBAND
 10
-17.14005028149381
 20
-82.599999999010777
 30
0.0
 42
-0.5773502691896298
  0
VERTEX
  5
2850
  8
SAPA_FOGBAND
 10
-16.793640119979951
 20
-82.599999999010777
 30
0.0
  0
VERTEX
  5
2851
  8
SAPA_FOGBAND
 10
-16.555592503249159
 20
-82.816909853233824
 30
0.0
  0
VERTEX
  5
2852
  8
SAPA_FOGBAND
 10
-15.778097889167499
 20
-82.816909853233824
 30
0.0
  0
VERTEX
  5
2853
  8
SAPA_FOGBAND
 10
-15.54005027732876
 20
-82.599999999010777
 30
0.0
 42
-0.577350269189699
  0
VERTEX
  5
2854
  8
SAPA_FOGBAND
 10
-15.193640115815009
 20
-82.599999999010777
 30
0.0
  0
VERTEX
  5
2855
  8
SAPA_FOGBAND
 10
-14.39364011625992
 20
-83.673330067495272
 30
0.0
 42
-0.1316524987190269
  0
VERTEX
  5
2856
  8
SAPA_FOGBAND
 10
-14.366845196571941
 20
-83.773330068265977
 30
0.0
  0
VERTEX
  5
2857
  8
SAPA_FOGBAND
 10
-14.36684519657183
 20
-86.299999999010765
 30
0.0
 42
-0.4142135623730951
  0
VERTEX
  5
2858
  8
SAPA_FOGBAND
 10
-14.566845196571871
 20
-86.499999999010825
 30
0.0
  0
VERTEX
  5
2859
  8
SAPA_FOGBAND
 10
-16.616845196571941
 20
-86.499999999010825
 30
0.0
 42
0.4142135623730951
  0
VERTEX
  5
285A
  8
SAPA_FOGBAND
 10
-17.116845196571941
 20
-86.999999999010811
 30
0.0
  0
VERTEX
  5
285B
  8
SAPA_FOGBAND
 10
-17.116845196571941
 20
-87.726794918253987
 30
0.0
  0
VERTEX
  5
285C
  8
SAPA_FOGBAND
 10
-16.86508138755141
 20
-87.794254827564373
 30
0.0
 42
-0.4740571810232869
  0
VERTEX
  5
285D
  8
SAPA_FOGBAND
 10
-16.737787525187851
 20
-88.076537413203027
 30
0.0
  0
VERTEX
  5
285E
  8
SAPA_FOGBAND
 10
-17.357888027946391
 20
-89.522743549962797
 30
0.0
 42
-0.2846003776495916
  0
VERTEX
  5
285F
  8
SAPA_FOGBAND
 10
-17.80553220640661
 20
-89.799999999010765
 30
0.0
  0
VERTEX
  5
2860
  8
SAPA_FOGBAND
 10
-19.428158186737161
 20
-89.799999999010765
 30
0.0
 42
-0.2846003776495917
  0
VERTEX
  5
2861
  8
SAPA_FOGBAND
 10
-19.875802365197391
 20
-89.522743549962797
 30
0.0
  0
VERTEX
  5
2862
  8
SAPA_FOGBAND
 10
-20.49590286795592
 20
-88.076537413203027
 30
0.0
 42
-0.4740571810232869
  0
VERTEX
  5
2863
  8
SAPA_FOGBAND
 10
-20.368609005592361
 20
-87.794254827564373
 30
0.0
  0
VERTEX
  5
2864
  8
SAPA_FOGBAND
 10
-20.116845196571941
 20
-87.726794918253987
 30
0.0
  0
VERTEX
  5
2865
  8
SAPA_FOGBAND
 10
-20.116845196571941
 20
-86.999999999010811
 30
0.0
 42
0.4142135623730951
  0
VERTEX
  5
2866
  8
SAPA_FOGBAND
 10
-20.616845196571951
 20
-86.499999999010825
 30
0.0
  0
VERTEX
  5
2867
  8
SAPA_FOGBAND
 10
-23.666845196571899
 20
-86.499999999010825
 30
0.0
 42
0.4142135623730951
  0
VERTEX
  5
2868
  8
SAPA_FOGBAND
 10
-23.866845196571941
 20
-86.699999999010856
 30
0.0
  0
VERTEX
  5
2869
  8
SAPA_FOGBAND
 10
-23.86684519657183
 20
-87.599999999010834
 30
0.0
 42
-0.4142135623731784
  0
VERTEX
  5
286A
  8
SAPA_FOGBAND
 10
-24.066845196571879
 20
-87.799999999010765
 30
0.0
  0
VERTEX
  5
286B
  8
SAPA_FOGBAND
 10
-24.766845196571921
 20
-87.799999999010879
 30
0.0
 42
-0.4142135623730398
  0
VERTEX
  5
286C
  8
SAPA_FOGBAND
 10
-25.066845196571879
 20
-87.499999999010811
 30
0.0
  0
VERTEX
  5
286D
  8
SAPA_FOGBAND
 10
-25.066845196571879
 20
-86.689488222359273
 30
0.0
 42
0.1316524975873973
  0
VERTEX
  5
286E
  8
SAPA_FOGBAND
 10
-25.33479438900304
 20
-85.689488222359273
 30
0.0
  0
VERTEX
  5
286F
  8
SAPA_FOGBAND
 10
-30.497639539043458
 20
-83.099920230267344
 30
0.0
 42
-0.7057658529986604
  0
VERTEX
  5
2870
  8
SAPA_FOGBAND
 10
-30.230046363685119
 20
-82.499999999010811
 30
0.0
  0
SEQEND
  5
2871
  8
SAPA_FOGBAND
  0
POLYLINE
  5
1827
  8
SAPA_FOGBAND
 66
     1
 10
0.0
 20
0.0
 30
0.0
 70
     1
  0
VERTEX
  5
2872
  8
SAPA_FOGBAND
 10
-19.303393549234301
 20
-34.185369502362803
 30
0.0
 42
-0.9999999999999998
  0
VERTEX
  5
2873
  8
SAPA_FOGBAND
 10
-21.103393549234308
 20
-34.185369502362803
 30
0.0
  0
VERTEX
  5
2874
  8
SAPA_FOGBAND
 10
-21.103393549234308
 20
-33.585369502362781
 30
0.0
 42
-0.9999999999999998
  0
VERTEX
  5
2875
  8
SAPA_FOGBAND
 10
-19.303393549234301
 20
-33.585369502362781
 30
0.0
  0
SEQEND
  5
2876
  8
SAPA_FOGBAND
  0
POLYLINE
  5
1828
  8
SAPA_FOGBAND
 66
     1
 10
0.0
 20
0.0
 30
0.0
  0
VERTEX
  5
2877
  8
SAPA_FOGBAND
 10
-23.803393549234301
 20
-35.80000000000161
 30
0.0
  0
VERTEX
  5
2878
  8
SAPA_FOGBAND
 10
-23.803393549234301
 20
-35.500000000001542
 30
0.0
  0
VERTEX
  5
2879
  8
SAPA_FOGBAND
 10
-23.803393549234301
 20
-35.80000000000161
 30
0.0
 42
0.4142135623730951
  0
VERTEX
  5
287A
  8
SAPA_FOGBAND
 10
-23.303393549234301
 20
-36.30000000000161
 30
0.0
  0
VERTEX
  5
287B
  8
SAPA_FOGBAND
 10
-16.003393549234339
 20
-36.30000000000161
 30
0.0
 42
0.4142135623730951
  0
VERTEX
  5
287C
  8
SAPA_FOGBAND
 10
-15.503393549234341
 20
-35.80000000000161
 30
0.0
  0
VERTEX
  5
287D
  8
SAPA_FOGBAND
 10
-15.503393549234341
 20
-35.500000000001542
 30
0.0
  0
SEQEND
  5
287E
  8
SAPA_FOGBAND
  0
POLYLINE
  5
1829
  8
SAPA_FOGBAND
 66
     1
 10
0.0
 20
0.0
 30
0.0
 70
     1
  0
VERTEX
  5
287F
  8
SAPA_FOGBAND
 10
-17.151678439530649
 20
-40.100000000001543
 30
0.0
  0
VERTEX
  5
2880
  8
SAPA_FOGBAND
 10
-20.24632254885649
 20
-40.100000000001543
 30
0.0
 42
1.024758115298622
  0
VERTEX
  5
2881
  8
SAPA_FOGBAND
 10
-20.24632254885649
 20
-43.281531792787028
 30
0.0
  0
VERTEX
  5
2882
  8
SAPA_FOGBAND
 10
-17.151678439530649
 20
-43.281531792787028
 30
0.0
 42
0.9558128803175696
  0
SEQEND
  5
2883
  8
SAPA_FOGBAND
  0
POLYLINE
  5
182A
  8
SAPA_FOGBAND
 66
     1
 10
0.0
 20
0.0
 30
0.0
 70
     1
  0
VERTEX
  5
2884
  8
SAPA_FOGBAND
 10
-7.9203481004113563
 20
-41.936054126747187
 30
0.0
 42
-0.6274939020253784
  0
VERTEX
  5
2885
  8
SAPA_FOGBAND
 10
-7.9312729228444967
 20
-43.494698620708917
 30
0.0
  0
VERTEX
  5
2886
  8
SAPA_FOGBAND
 10
-11.90713291620915
 20
-44.058441624631669
 30
0.0
 42
-0.4459602482749359
  0
VERTEX
  5
2887
  8
SAPA_FOGBAND
 10
-12.90339354923435
 20
-43.163604270399311
 30
0.0
  0
VERTEX
  5
2888
  8
SAPA_FOGBAND
 10
-12.90339354923435
 20
-40.440292945534601
 30
0.0
 42
-0.6245270939358744
  0
VERTEX
  5
2889
  8
SAPA_FOGBAND
 10
-11.44999687671914
 20
-39.730537971723898
 30
0.0
  0
SEQEND
  5
288A
  8
SAPA_FOGBAND
  0
POLYLINE
  5
182B
  8
SAPA_FOGBAND
 66
     1
 10
0.0
 20
0.0
 30
0.0
 70
     1
  0
VERTEX
  5
288B
  8
SAPA_FOGBAND
 10
-18.703393549234331
 20
-34.058574583119658
 30
0.0
  0
VERTEX
  5
288C
  8
SAPA_FOGBAND
 10
-18.45162974021386
 20
-33.991114673809257
 30
0.0
 42
0.4740571810232144
  0
VERTEX
  5
288D
  8
SAPA_FOGBAND
 10
-18.324335877850238
 20
-33.70883208817061
 30
0.0
  0
VERTEX
  5
288E
  8
SAPA_FOGBAND
 10
-18.944436380608831
 20
-32.262625951410719
 30
0.0
 42
0.2846003776496053
  0
VERTEX
  5
288F
  8
SAPA_FOGBAND
 10
-19.392080559069001
 20
-31.985369502362751
 30
0.0
  0
VERTEX
  5
2890
  8
SAPA_FOGBAND
 10
-21.014706539399612
 20
-31.985369502362751
 30
0.0
 42
0.2846003776496027
  0
VERTEX
  5
2891
  8
SAPA_FOGBAND
 10
-21.462350717859781
 20
-32.262625951410719
 30
0.0
  0
VERTEX
  5
2892
  8
SAPA_FOGBAND
 10
-22.082451220618371
 20
-33.708832088170659
 30
0.0
 42
0.4740571810232332
  0
VERTEX
  5
2893
  8
SAPA_FOGBAND
 10
-21.955157358254809
 20
-33.991114673809257
 30
0.0
  0
VERTEX
  5
2894
  8
SAPA_FOGBAND
 10
-21.703393549234331
 20
-34.058574583119658
 30
0.0
  0
VERTEX
  5
2895
  8
SAPA_FOGBAND
 10
-21.703393549234331
 20
-35.000000000001542
 30
0.0
 42
-0.4142135623730951
  0
VERTEX
  5
2896
  8
SAPA_FOGBAND
 10
-22.203393549234331
 20
-35.500000000001542
 30
0.0
  0
VERTEX
  5
2897
  8
SAPA_FOGBAND
 10
-24.71555371261579
 20
-35.500000000001599
 30
0.0
 42
0.4027293761437467
  0
VERTEX
  5
2898
  8
SAPA_FOGBAND
 10
-25.01532126621365
 20
-35.788192637470907
 30
0.0
  0
VERTEX
  5
2899
  8
SAPA_FOGBAND
 10
-25.503161080883078
 20
-45.188192637470941
 30
0.0
 42
0.4257917699693538
  0
VERTEX
  5
289A
  8
SAPA_FOGBAND
 10
-25.203393527285218
 20
-45.500000000001592
 30
0.0
  0
VERTEX
  5
289B
  8
SAPA_FOGBAND
 10
-11.49785986806134
 20
-45.500000000001592
 30
0.0
  0
VERTEX
  5
289C
  8
SAPA_FOGBAND
 10
-5.894718270334466
 20
-44.723465082318967
 30
0.0
 42
0.322530093016903
  0
VERTEX
  5
289D
  8
SAPA_FOGBAND
 10
-5.2033935272851979
 20
-43.729387777212999
 30
0.0
  0
VERTEX
  5
289E
  8
SAPA_FOGBAND
 10
-5.2033935272851979
 20
-42.498644220775418
 30
0.0
 42
0.2325311832130604
  0
VERTEX
  5
289F
  8
SAPA_FOGBAND
 10
-5.3980562839784181
 20
-42.102703356693617
 30
0.0
  0
VERTEX
  5
28A0
  8
SAPA_FOGBAND
 10
-14.564619511885921
 20
-35.708118271838103
 30
0.0
 42
0.1657205760184606
  0
VERTEX
  5
28A1
  8
SAPA_FOGBAND
 10
-15.175293998499541
 20
-35.500000000001542
 30
0.0
  0
VERTEX
  5
28A2
  8
SAPA_FOGBAND
 10
-18.203393549234331
 20
-35.500000000001542
 30
0.0
 42
-0.4142135623730951
  0
VERTEX
  5
28A3
  8
SAPA_FOGBAND
 10
-18.703393549234331
 20
-35.000000000001542
 30
0.0
  0
SEQEND
  5
28A4
  8
SAPA_FOGBAND
  0
POLYLINE
  5
182C
  8
SAPA_FOGBAND
 66
     1
 10
0.0
 20
0.0
 30
0.0
 70
     1
  0
VERTEX
  5
28A5
  8
SAPA_FOGBAND
 10
-28.001338375370509
 20
3.1910442658326441
 30
0.0
  0
VERTEX
  5
28A6
  8
SAPA_FOGBAND
 10
-28.001338375370509
 20
0.3577253014129127
 30
0.0
 42
0.577350269189628
  0
VERTEX
  5
28A7
  8
SAPA_FOGBAND
 10
-27.55133837537047
 20
0.0979176802774617
 30
0.0
  0
VERTEX
  5
28A8
  8
SAPA_FOGBAND
 10
-25.51020108666723
 20
1.796883022029689
 30
0.0
 42
-0.8769764629927237
  0
VERTEX
  5
28A9
  8
SAPA_FOGBAND
 10
-25.14806905231131
 20
1.32494336653842
 30
0.0
  0
VERTEX
  5
28AA
  8
SAPA_FOGBAND
 10
-27.708445156556952
 20
-1.868076234720049
 30
0.0
 42
0.1989123673796493
  0
VERTEX
  5
28AB
  8
SAPA_FOGBAND
 10
-28.001338375370509
 20
-2.575183015906489
 30
0.0
  0
VERTEX
  5
28AC
  8
SAPA_FOGBAND
 10
-28.001338375370509
 20
-4.2116358188102154
 30
0.0
 42
0.577350269189628
  0
VERTEX
  5
28AD
  8
SAPA_FOGBAND
 10
-27.55133837537047
 20
-4.471443439945439
 30
0.0
  0
VERTEX
  5
28AE
  8
SAPA_FOGBAND
 10
-25.511069839847611
 20
-3.7028462713806931
 30
0.0
 42
-0.8769764629928424
  0
VERTEX
  5
28AF
  8
SAPA_FOGBAND
 10
-25.148937805491698
 20
-4.1747859268719623
 30
0.0
  0
VERTEX
  5
28B0
  8
SAPA_FOGBAND
 10
-29.282961428401279
 20
-7.7768364612505394
 30
0.0
 42
-0.1989123673796579
  0
VERTEX
  5
28B1
  8
SAPA_FOGBAND
 10
-29.990068209587719
 20
-8.0697296800638725
 30
0.0
  0
VERTEX
  5
28B2
  8
SAPA_FOGBAND
 10
-29.999999999900918
 20
-8.0697296800638725
 30
0.0
 42
-0.4142135623730951
  0
VERTEX
  5
28B3
  8
SAPA_FOGBAND
 10
-30.999999999900918
 20
-7.0697296800638716
 30
0.0
  0
VERTEX
  5
28B4
  8
SAPA_FOGBAND
 10
-32.16408459902442
 20
0.1652628207033757
 30
0.0
 42
-0.6261632875160376
  0
VERTEX
  5
28B5
  8
SAPA_FOGBAND
 10
-31.722117795598081
 20
0.4751197492220598
 30
0.0
  0
VERTEX
  5
28B6
  8
SAPA_FOGBAND
 10
-31.445776149611959
 20
0.3214817544332362
 30
0.0
 42
0.5719685712689121
  0
VERTEX
  5
28B7
  8
SAPA_FOGBAND
 10
-30.999999999901039
 20
0.5836826586566275
 30
0.0
  0
VERTEX
  5
28B8
  8
SAPA_FOGBAND
 10
-30.999999999900918
 20
3.3302703199359911
 30
0.0
 42
0.4142135623730118
  0
VERTEX
  5
28B9
  8
SAPA_FOGBAND
 10
-31.29999999990088
 20
3.6302703199361721
 30
0.0
  0
VERTEX
  5
28BA
  8
SAPA_FOGBAND
 10
-32.699999999900967
 20
3.6302703199359452
 30
0.0
 42
-0.7754026414785753
  0
VERTEX
  5
28BB
  8
SAPA_FOGBAND
 10
-32.844707868206861
 20
4.1930623153438509
 30
0.0
  0
VERTEX
  5
28BC
  8
SAPA_FOGBAND
 10
-25.501101552726201
 20
7.9039471192749451
 30
0.0
 42
-0.8680589103333867
  0
VERTEX
  5
28BD
  8
SAPA_FOGBAND
 10
-25.144261650064269
 20
7.4290230895111762
 30
0.0
  0
VERTEX
  5
28BE
  8
SAPA_FOGBAND
 10
-27.708445156556952
 20
3.8981510470190841
 30
0.0
 42
0.1989123673796493
  0
SEQEND
  5
28BF
  8
SAPA_FOGBAND
  0
POLYLINE
  5
182D
  8
SAPA_FOGBAND
 62
     2
 10
-105.7737854458744
 20
-23.909909063672469
 30
0.0
 66
     1
 70
     8
  0
VERTEX
  8
SAPA_FOGBAND
  5
29E7
 10
-105.774
 20
-23.9099
 30
0.000000
  70
    32
  0
VERTEX
  8
SAPA_FOGBAND
  5
29E8
 10
-105.771
 20
-23.9786
 30
0.000000
  70
    32
  0
VERTEX
  8
SAPA_FOGBAND
  5
29E9
 10
-105.763
 20
-24.0471
 30
0.000000
  70
    32
  0
VERTEX
  8
SAPA_FOGBAND
  5
29EA
 10
-105.750
 20
-24.1153
 30
0.000000
  70
    32
  0
VERTEX
  8
SAPA_FOGBAND
  5
29EB
 10
-105.732
 20
-24.1830
 30
0.000000
  70
    32
  0
VERTEX
  8
SAPA_FOGBAND
  5
29EC
 10
-105.709
 20
-24.2501
 30
0.000000
  70
    32
  0
VERTEX
  8
SAPA_FOGBAND
  5
29ED
 10
-105.680
 20
-24.3163
 30
0.000000
  70
    32
  0
VERTEX
  8
SAPA_FOGBAND
  5
29EE
 10
-105.647
 20
-24.3816
 30
0.000000
  70
    32
  0
VERTEX
  8
SAPA_FOGBAND
  5
29EF
 10
-105.609
 20
-24.4457
 30
0.000000
  70
    32
  0
VERTEX
  8
SAPA_FOGBAND
  5
29F0
 10
-105.566
 20
-24.5085
 30
0.000000
  70
    32
  0
VERTEX
  8
SAPA_FOGBAND
  5
29F1
 10
-105.518
 20
-24.5699
 30
0.000000
  70
    32
  0
VERTEX
  8
SAPA_FOGBAND
  5
29F2
 10
-105.465
 20
-24.6297
 30
0.000000
  70
    32
  0
VERTEX
  8
SAPA_FOGBAND
  5
29F3
 10
-105.408
 20
-24.6877
 30
0.000000
  70
    32
  0
VERTEX
  8
SAPA_FOGBAND
  5
29F4
 10
-105.347
 20
-24.7439
 30
0.000000
  70
    32
  0
VERTEX
  8
SAPA_FOGBAND
  5
29F5
 10
-105.282
 20
-24.7981
 30
0.000000
  70
    32
  0
VERTEX
  8
SAPA_FOGBAND
  5
29F6
 10
-105.212
 20
-24.8501
 30
0.000000
  70
    32
  0
VERTEX
  8
SAPA_FOGBAND
  5
29F7
 10
-105.139
 20
-24.8999
 30
0.000000
  70
    32
  0
VERTEX
  8
SAPA_FOGBAND
  5
29F8
 10
-105.062
 20
-24.9472
 30
0.000000
  70
    32
  0
VERTEX
  8
SAPA_FOGBAND
  5
29F9
 10
-104.981
 20
-24.9921
 30
0.000000
  70
    32
  0
VERTEX
  8
SAPA_FOGBAND
  5
29FA
 10
-104.897
 20
-25.0344
 30
0.000000
  70
    32
  0
VERTEX
  8
SAPA_FOGBAND
  5
29FB
 10
-104.810
 20
-25.0740
 30
0.000000
  70
    32
  0
VERTEX
  8
SAPA_FOGBAND
  5
29FC
 10
-104.720
 20
-25.1107
 30
0.000000
  70
    32
  0
VERTEX
  8
SAPA_FOGBAND
  5
29FD
 10
-104.628
 20
-25.1446
 30
0.000000
  70
    32
  0
VERTEX
  8
SAPA_FOGBAND
  5
29FE
 10
-104.533
 20
-25.1755
 30
0.000000
  70
    32
  0
VERTEX
  8
SAPA_FOGBAND
  5
29FF
 10
-104.436
 20
-25.2033
 30
0.000000
  70
    32
  0
VERTEX
  8
SAPA_FOGBAND
  5
2A00
 10
-104.336
 20
-25.2281
 30
0.000000
  70
    32
  0
VERTEX
  8
SAPA_FOGBAND
  5
2A01
 10
-104.235
 20
-25.2496
 30
0.000000
  70
    32
  0
VERTEX
  8
SAPA_FOGBAND
  5
2A02
 10
-104.133
 20
-25.2680
 30
0.000000
  70
    32
  0
VERTEX
  8
SAPA_FOGBAND
  5
2A03
 10
-104.029
 20
-25.2830
 30
0.000000
  70
    32
  0
VERTEX
  8
SAPA_FOGBAND
  5
2A04
 10
-103.924
 20
-25.2948
 30
0.000000
  70
    32
  0
VERTEX
  8
SAPA_FOGBAND
  5
2A05
 10
-103.818
 20
-25.3032
 30
0.000000
  70
    32
  0
VERTEX
  8
SAPA_FOGBAND
  5
2A06
 10
-103.712
 20
-25.3082
 30
0.000000
  70
    32
  0
VERTEX
  8
SAPA_FOGBAND
  5
2A07
 10
-103.606
 20
-25.3099
 30
0.000000
  70
    32
  0
VERTEX
  8
SAPA_FOGBAND
  5
2A08
 10
-103.500
 20
-25.3082
 30
0.000000
  70
    32
  0
VERTEX
  8
SAPA_FOGBAND
  5
2A09
 10
-103.394
 20
-25.3032
 30
0.000000
  70
    32
  0
VERTEX
  8
SAPA_FOGBAND
  5
2A0A
 10
-103.288
 20
-25.2948
 30
0.000000
  70
    32
  0
VERTEX
  8
SAPA_FOGBAND
  5
2A0B
 10
-103.183
 20
-25.2830
 30
0.000000
  70
    32
  0
VERTEX
  8
SAPA_FOGBAND
  5
2A0C
 10
-103.079
 20
-25.2680
 30
0.000000
  70
    32
  0
VERTEX
  8
SAPA_FOGBAND
  5
2A0D
 10
-102.977
 20
-25.2496
 30
0.000000
  70
    32
  0
VERTEX
  8
SAPA_FOGBAND
  5
2A0E
 10
-102.876
 20
-25.2281
 30
0.000000
  70
    32
  0
VERTEX
  8
SAPA_FOGBAND
  5
2A0F
 10
-102.776
 20
-25.2033
 30
0.000000
  70
    32
  0
VERTEX
  8
SAPA_FOGBAND
  5
2A10
 10
-102.679
 20
-25.1755
 30
0.000000
  70
    32
  0
VERTEX
  8
SAPA_FOGBAND
  5
2A11
 10
-102.584
 20
-25.1446
 30
0.000000
  70
    32
  0
VERTEX
  8
SAPA_FOGBAND
  5
2A12
 10
-102.492
 20
-25.1107
 30
0.000000
  70
    32
  0
VERTEX
  8
SAPA_FOGBAND
  5
2A13
 10
-102.402
 20
-25.0740
 30
0.000000
  70
    32
  0
VERTEX
  8
SAPA_FOGBAND
  5
2A14
 10
-102.315
 20
-25.0344
 30
0.000000
  70
    32
  0
VERTEX
  8
SAPA_FOGBAND
  5
2A15
 10
-102.231
 20
-24.9921
 30
0.000000
  70
    32
  0
VERTEX
  8
SAPA_FOGBAND
  5
2A16
 10
-102.150
 20
-24.9472
 30
0.000000
  70
    32
  0
VERTEX
  8
SAPA_FOGBAND
  5
2A17
 10
-102.073
 20
-24.8999
 30
0.000000
  70
    32
  0
VERTEX
  8
SAPA_FOGBAND
  5
2A18
 10
-102.000
 20
-24.8501
 30
0.000000
  70
    32
  0
VERTEX
  8
SAPA_FOGBAND
  5
2A19
 10
-101.930
 20
-24.7981
 30
0.000000
  70
    32
  0
VERTEX
  8
SAPA_FOGBAND
  5
2A1A
 10
-101.865
 20
-24.7439
 30
0.000000
  70
    32
  0
VERTEX
  8
SAPA_FOGBAND
  5
2A1B
 10
-101.804
 20
-24.6877
 30
0.000000
  70
    32
  0
VERTEX
  8
SAPA_FOGBAND
  5
2A1C
 10
-101.747
 20
-24.6297
 30
0.000000
  70
    32
  0
VERTEX
  8
SAPA_FOGBAND
  5
2A1D
 10
-101.694
 20
-24.5699
 30
0.000000
  70
    32
  0
VERTEX
  8
SAPA_FOGBAND
  5
2A1E
 10
-101.646
 20
-24.5085
 30
0.000000
  70
    32
  0
VERTEX
  8
SAPA_FOGBAND
  5
2A1F
 10
-101.603
 20
-24.4457
 30
0.000000
  70
    32
  0
VERTEX
  8
SAPA_FOGBAND
  5
2A20
 10
-101.565
 20
-24.3816
 30
0.000000
  70
    32
  0
VERTEX
  8
SAPA_FOGBAND
  5
2A21
 10
-101.532
 20
-24.3163
 30
0.000000
  70
    32
  0
VERTEX
  8
SAPA_FOGBAND
  5
2A22
 10
-101.503
 20
-24.2501
 30
0.000000
  70
    32
  0
VERTEX
  8
SAPA_FOGBAND
  5
2A23
 10
-101.480
 20
-24.1830
 30
0.000000
  70
    32
  0
VERTEX
  8
SAPA_FOGBAND
  5
2A24
 10
-101.462
 20
-24.1153
 30
0.000000
  70
    32
  0
VERTEX
  8
SAPA_FOGBAND
  5
2A25
 10
-101.449
 20
-24.0471
 30
0.000000
  70
    32
  0
VERTEX
  8
SAPA_FOGBAND
  5
2A26
 10
-101.441
 20
-23.9786
 30
0.000000
  70
    32
  0
VERTEX
  8
SAPA_FOGBAND
  5
2A27
 10
-101.438
 20
-23.9099
 30
0.000000
  70
    32
  0
VERTEX
  8
SAPA_FOGBAND
  5
2A28
 10
-101.441
 20
-23.8412
 30
0.000000
  70
    32
  0
VERTEX
  8
SAPA_FOGBAND
  5
2A29
 10
-101.449
 20
-23.7727
 30
0.000000
  70
    32
  0
VERTEX
  8
SAPA_FOGBAND
  5
2A2A
 10
-101.462
 20
-23.7045
 30
0.000000
  70
    32
  0
VERTEX
  8
SAPA_FOGBAND
  5
2A2B
 10
-101.480
 20
-23.6368
 30
0.000000
  70
    32
  0
VERTEX
  8
SAPA_FOGBAND
  5
2A2C
 10
-101.503
 20
-23.5697
 30
0.000000
  70
    32
  0
VERTEX
  8
SAPA_FOGBAND
  5
2A2D
 10
-101.532
 20
-23.5035
 30
0.000000
  70
    32
  0
VERTEX
  8
SAPA_FOGBAND
  5
2A2E
 10
-101.565
 20
-23.4383
 30
0.000000
  70
    32
  0
VERTEX
  8
SAPA_FOGBAND
  5
2A2F
 10
-101.603
 20
-23.3742
 30
0.000000
  70
    32
  0
VERTEX
  8
SAPA_FOGBAND
  5
2A30
 10
-101.646
 20
-23.3113
 30
0.000000
  70
    32
  0
VERTEX
  8
SAPA_FOGBAND
  5
2A31
 10
-101.694
 20
-23.2500
 30
0.000000
  70
    32
  0
VERTEX
  8
SAPA_FOGBAND
  5
2A32
 10
-101.747
 20
-23.1902
 30
0.000000
  70
    32
  0
VERTEX
  8
SAPA_FOGBAND
  5
2A33
 10
-101.804
 20
-23.1321
 30
0.000000
  70
    32
  0
VERTEX
  8
SAPA_FOGBAND
  5
2A34
 10
-101.865
 20
-23.0759
 30
0.000000
  70
    32
  0
VERTEX
  8
SAPA_FOGBAND
  5
2A35
 10
-101.930
 20
-23.0218
 30
0.000000
  70
    32
  0
VERTEX
  8
SAPA_FOGBAND
  5
2A36
 10
-102.000
 20
-22.9697
 30
0.000000
  70
    32
  0
VERTEX
  8
SAPA_FOGBAND
  5
2A37
 10
-102.073
 20
-22.9200
 30
0.000000
  70
    32
  0
VERTEX
  8
SAPA_FOGBAND
  5
2A38
 10
-102.150
 20
-22.8726
 30
0.000000
  70
    32
  0
VERTEX
  8
SAPA_FOGBAND
  5
2A39
 10
-102.231
 20
-22.8277
 30
0.000000
  70
    32
  0
VERTEX
  8
SAPA_FOGBAND
  5
2A3A
 10
-102.315
 20
-22.7854
 30
0.000000
  70
    32
  0
VERTEX
  8
SAPA_FOGBAND
  5
2A3B
 10
-102.402
 20
-22.7459
 30
0.000000
  70
    32
  0
VERTEX
  8
SAPA_FOGBAND
  5
2A3C
 10
-102.492
 20
-22.7091
 30
0.000000
  70
    32
  0
VERTEX
  8
SAPA_FOGBAND
  5
2A3D
 10
-102.584
 20
-22.6752
 30
0.000000
  70
    32
  0
VERTEX
  8
SAPA_FOGBAND
  5
2A3E
 10
-102.679
 20
-22.6443
 30
0.000000
  70
    32
  0
VERTEX
  8
SAPA_FOGBAND
  5
2A3F
 10
-102.776
 20
-22.6165
 30
0.000000
  70
    32
  0
VERTEX
  8
SAPA_FOGBAND
  5
2A40
 10
-102.876
 20
-22.5917
 30
0.000000
  70
    32
  0
VERTEX
  8
SAPA_FOGBAND
  5
2A41
 10
-102.977
 20
-22.5702
 30
0.000000
  70
    32
  0
VERTEX
  8
SAPA_FOGBAND
  5
2A42
 10
-103.079
 20
-22.5519
 30
0.000000
  70
    32
  0
VERTEX
  8
SAPA_FOGBAND
  5
2A43
 10
-103.183
 20
-22.5368
 30
0.000000
  70
    32
  0
VERTEX
  8
SAPA_FOGBAND
  5
2A44
 10
-103.288
 20
-22.5251
 30
0.000000
  70
    32
  0
VERTEX
  8
SAPA_FOGBAND
  5
2A45
 10
-103.394
 20
-22.5167
 30
0.000000
  70
    32
  0
VERTEX
  8
SAPA_FOGBAND
  5
2A46
 10
-103.500
 20
-22.5116
 30
0.000000
  70
    32
  0
VERTEX
  8
SAPA_FOGBAND
  5
2A47
 10
-103.606
 20
-22.5099
 30
0.000000
  70
    32
  0
VERTEX
  8
SAPA_FOGBAND
  5
2A48
 10
-103.712
 20
-22.5116
 30
0.000000
  70
    32
  0
VERTEX
  8
SAPA_FOGBAND
  5
2A49
 10
-103.818
 20
-22.5167
 30
0.000000
  70
    32
  0
VERTEX
  8
SAPA_FOGBAND
  5
2A4A
 10
-103.924
 20
-22.5251
 30
0.000000
  70
    32
  0
VERTEX
  8
SAPA_FOGBAND
  5
2A4B
 10
-104.029
 20
-22.5368
 30
0.000000
  70
    32
  0
VERTEX
  8
SAPA_FOGBAND
  5
2A4C
 10
-104.133
 20
-22.5519
 30
0.000000
  70
    32
  0
VERTEX
  8
SAPA_FOGBAND
  5
2A4D
 10
-104.235
 20
-22.5702
 30
0.000000
  70
    32
  0
VERTEX
  8
SAPA_FOGBAND
  5
2A4E
 10
-104.336
 20
-22.5917
 30
0.000000
  70
    32
  0
VERTEX
  8
SAPA_FOGBAND
  5
2A4F
 10
-104.436
 20
-22.6165
 30
0.000000
  70
    32
  0
VERTEX
  8
SAPA_FOGBAND
  5
2A50
 10
-104.533
 20
-22.6443
 30
0.000000
  70
    32
  0
VERTEX
  8
SAPA_FOGBAND
  5
2A51
 10
-104.628
 20
-22.6752
 30
0.000000
  70
    32
  0
VERTEX
  8
SAPA_FOGBAND
  5
2A52
 10
-104.720
 20
-22.7091
 30
0.000000
  70
    32
  0
VERTEX
  8
SAPA_FOGBAND
  5
2A53
 10
-104.810
 20
-22.7459
 30
0.000000
  70
    32
  0
VERTEX
  8
SAPA_FOGBAND
  5
2A54
 10
-104.897
 20
-22.7854
 30
0.000000
  70
    32
  0
VERTEX
  8
SAPA_FOGBAND
  5
2A55
 10
-104.981
 20
-22.8277
 30
0.000000
  70
    32
  0
VERTEX
  8
SAPA_FOGBAND
  5
2A56
 10
-105.062
 20
-22.8726
 30
0.000000
  70
    32
  0
VERTEX
  8
SAPA_FOGBAND
  5
2A57
 10
-105.139
 20
-22.9200
 30
0.000000
  70
    32
  0
VERTEX
  8
SAPA_FOGBAND
  5
2A58
 10
-105.212
 20
-22.9697
 30
0.000000
  70
    32
  0
VERTEX
  8
SAPA_FOGBAND
  5
2A59
 10
-105.282
 20
-23.0218
 30
0.000000
  70
    32
  0
VERTEX
  8
SAPA_FOGBAND
  5
2A5A
 10
-105.347
 20
-23.0759
 30
0.000000
  70
    32
  0
VERTEX
  8
SAPA_FOGBAND
  5
2A5B
 10
-105.408
 20
-23.1321
 30
0.000000
  70
    32
  0
VERTEX
  8
SAPA_FOGBAND
  5
2A5C
 10
-105.465
 20
-23.1902
 30
0.000000
  70
    32
  0
VERTEX
  8
SAPA_FOGBAND
  5
2A5D
 10
-105.518
 20
-23.2500
 30
0.000000
  70
    32
  0
VERTEX
  8
SAPA_FOGBAND
  5
2A5E
 10
-105.566
 20
-23.3113
 30
0.000000
  70
    32
  0
VERTEX
  8
SAPA_FOGBAND
  5
2A5F
 10
-105.609
 20
-23.3742
 30
0.000000
  70
    32
  0
VERTEX
  8
SAPA_FOGBAND
  5
2A60
 10
-105.647
 20
-23.4383
 30
0.000000
  70
    32
  0
VERTEX
  8
SAPA_FOGBAND
  5
2A61
 10
-105.680
 20
-23.5035
 30
0.000000
  70
    32
  0
VERTEX
  8
SAPA_FOGBAND
  5
2A62
 10
-105.709
 20
-23.5697
 30
0.000000
  70
    32
  0
VERTEX
  8
SAPA_FOGBAND
  5
2A63
 10
-105.732
 20
-23.6368
 30
0.000000
  70
    32
  0
VERTEX
  8
SAPA_FOGBAND
  5
2A64
 10
-105.750
 20
-23.7045
 30
0.000000
  70
    32
  0
VERTEX
  8
SAPA_FOGBAND
  5
2A65
 10
-105.763
 20
-23.7727
 30
0.000000
  70
    32
  0
VERTEX
  8
SAPA_FOGBAND
  5
2A66
 10
-105.771
 20
-23.8412
 30
0.000000
  70
    32
  0
VERTEX
  8
SAPA_FOGBAND
  5
2A67
 10
-105.774
 20
-23.9099
 30
0.000000
  70
    32
  0
SEQEND
  8
SAPA_FOGBAND
  5
2A68
  0
POLYLINE
  5
182E
  8
SAPA_FOGBAND
 62
     2
 10
-115.29118830492544
 20
-22.175123040939539
 30
0.0
 66
     1
 70
     8
  0
VERTEX
  8
SAPA_FOGBAND
  5
2A69
 10
-115.291
 20
-22.1751
 30
0.000000
  70
    32
  0
VERTEX
  8
SAPA_FOGBAND
  5
2A6A
 10
-115.287
 20
-22.2634
 30
0.000000
  70
    32
  0
VERTEX
  8
SAPA_FOGBAND
  5
2A6B
 10
-115.276
 20
-22.3516
 30
0.000000
  70
    32
  0
VERTEX
  8
SAPA_FOGBAND
  5
2A6C
 10
-115.258
 20
-22.4392
 30
0.000000
  70
    32
  0
VERTEX
  8
SAPA_FOGBAND
  5
2A6D
 10
-115.232
 20
-22.5263
 30
0.000000
  70
    32
  0
VERTEX
  8
SAPA_FOGBAND
  5
2A6E
 10
-115.199
 20
-22.6125
 30
0.000000
  70
    32
  0
VERTEX
  8
SAPA_FOGBAND
  5
2A6F
 10
-115.158
 20
-22.6976
 30
0.000000
  70
    32
  0
VERTEX
  8
SAPA_FOGBAND
  5
2A70
 10
-115.111
 20
-22.7815
 30
0.000000
  70
    32
  0
VERTEX
  8
SAPA_FOGBAND
  5
2A71
 10
-115.056
 20
-22.8640
 30
0.000000
  70
    32
  0
VERTEX
  8
SAPA_FOGBAND
  5
2A72
 10
-114.995
 20
-22.9447
 30
0.000000
  70
    32
  0
VERTEX
  8
SAPA_FOGBAND
  5
2A73
 10
-114.927
 20
-23.0236
 30
0.000000
  70
    32
  0
VERTEX
  8
SAPA_FOGBAND
  5
2A74
 10
-114.852
 20
-23.1005
 30
0.000000
  70
    32
  0
VERTEX
  8
SAPA_FOGBAND
  5
2A75
 10
-114.771
 20
-23.1751
 30
0.000000
  70
    32
  0
VERTEX
  8
SAPA_FOGBAND
  5
2A76
 10
-114.684
 20
-23.2474
 30
0.000000
  70
    32
  0
VERTEX
  8
SAPA_FOGBAND
  5
2A77
 10
-114.591
 20
-23.3170
 30
0.000000
  70
    32
  0
VERTEX
  8
SAPA_FOGBAND
  5
2A78
 10
-114.492
 20
-23.3839
 30
0.000000
  70
    32
  0
VERTEX
  8
SAPA_FOGBAND
  5
2A79
 10
-114.388
 20
-23.4479
 30
0.000000
  70
    32
  0
VERTEX
  8
SAPA_FOGBAND
  5
2A7A
 10
-114.278
 20
-23.5088
 30
0.000000
  70
    32
  0
VERTEX
  8
SAPA_FOGBAND
  5
2A7B
 10
-114.163
 20
-23.5665
 30
0.000000
  70
    32
  0
VERTEX
  8
SAPA_FOGBAND
  5
2A7C
 10
-114.044
 20
-23.6209
 30
0.000000
  70
    32
  0
VERTEX
  8
SAPA_FOGBAND
  5
2A7D
 10
-113.920
 20
-23.6718
 30
0.000000
  70
    32
  0
VERTEX
  8
SAPA_FOGBAND
  5
2A7E
 10
-113.792
 20
-23.7190
 30
0.000000
  70
    32
  0
VERTEX
  8
SAPA_FOGBAND
  5
2A7F
 10
-113.660
 20
-23.7626
 30
0.000000
  70
    32
  0
VERTEX
  8
SAPA_FOGBAND
  5
2A80
 10
-113.525
 20
-23.8023
 30
0.000000
  70
    32
  0
VERTEX
  8
SAPA_FOGBAND
  5
2A81
 10
-113.387
 20
-23.8381
 30
0.000000
  70
    32
  0
VERTEX
  8
SAPA_FOGBAND
  5
2A82
 10
-113.245
 20
-23.8699
 30
0.000000
  70
    32
  0
VERTEX
  8
SAPA_FOGBAND
  5
2A83
 10
-113.102
 20
-23.8976
 30
0.000000
  70
    32
  0
VERTEX
  8
SAPA_FOGBAND
  5
2A84
 10
-112.956
 20
-23.9212
 30
0.000000
  70
    32
  0
VERTEX
  8
SAPA_FOGBAND
  5
2A85
 10
-112.808
 20
-23.9405
 30
0.000000
  70
    32
  0
VERTEX
  8
SAPA_FOGBAND
  5
2A86
 10
-112.659
 20
-23.9556
 30
0.000000
  70
    32
  0
VERTEX
  8
SAPA_FOGBAND
  5
2A87
 10
-112.508
 20
-23.9665
 30
0.000000
  70
    32
  0
VERTEX
  8
SAPA_FOGBAND
  5
2A88
 10
-112.357
 20
-23.9730
 30
0.000000
  70
    32
  0
VERTEX
  8
SAPA_FOGBAND
  5
2A89
 10
-112.206
 20
-23.9751
 30
0.000000
  70
    32
  0
VERTEX
  8
SAPA_FOGBAND
  5
2A8A
 10
-112.055
 20
-23.9730
 30
0.000000
  70
    32
  0
VERTEX
  8
SAPA_FOGBAND
  5
2A8B
 10
-111.904
 20
-23.9665
 30
0.000000
  70
    32
  0
VERTEX
  8
SAPA_FOGBAND
  5
2A8C
 10
-111.753
 20
-23.9556
 30
0.000000
  70
    32
  0
VERTEX
  8
SAPA_FOGBAND
  5
2A8D
 10
-111.604
 20
-23.9405
 30
0.000000
  70
    32
  0
VERTEX
  8
SAPA_FOGBAND
  5
2A8E
 10
-111.456
 20
-23.9212
 30
0.000000
  70
    32
  0
VERTEX
  8
SAPA_FOGBAND
  5
2A8F
 10
-111.310
 20
-23.8976
 30
0.000000
  70
    32
  0
VERTEX
  8
SAPA_FOGBAND
  5
2A90
 10
-111.167
 20
-23.8699
 30
0.000000
  70
    32
  0
VERTEX
  8
SAPA_FOGBAND
  5
2A91
 10
-111.025
 20
-23.8381
 30
0.000000
  70
    32
  0
VERTEX
  8
SAPA_FOGBAND
  5
2A92
 10
-110.887
 20
-23.8023
 30
0.000000
  70
    32
  0
VERTEX
  8
SAPA_FOGBAND
  5
2A93
 10
-110.752
 20
-23.7626
 30
0.000000
  70
    32
  0
VERTEX
  8
SAPA_FOGBAND
  5
2A94
 10
-110.620
 20
-23.7190
 30
0.000000
  70
    32
  0
VERTEX
  8
SAPA_FOGBAND
  5
2A95
 10
-110.492
 20
-23.6718
 30
0.000000
  70
    32
  0
VERTEX
  8
SAPA_FOGBAND
  5
2A96
 10
-110.368
 20
-23.6209
 30
0.000000
  70
    32
  0
VERTEX
  8
SAPA_FOGBAND
  5
2A97
 10
-110.249
 20
-23.5665
 30
0.000000
  70
    32
  0
VERTEX
  8
SAPA_FOGBAND
  5
2A98
 10
-110.134
 20
-23.5088
 30
0.000000
  70
    32
  0
VERTEX
  8
SAPA_FOGBAND
  5
2A99
 10
-110.024
 20
-23.4479
 30
0.000000
  70
    32
  0
VERTEX
  8
SAPA_FOGBAND
  5
2A9A
 10
-109.920
 20
-23.3839
 30
0.000000
  70
    32
  0
VERTEX
  8
SAPA_FOGBAND
  5
2A9B
 10
-109.821
 20
-23.3170
 30
0.000000
  70
    32
  0
VERTEX
  8
SAPA_FOGBAND
  5
2A9C
 10
-109.728
 20
-23.2474
 30
0.000000
  70
    32
  0
VERTEX
  8
SAPA_FOGBAND
  5
2A9D
 10
-109.641
 20
-23.1751
 30
0.000000
  70
    32
  0
VERTEX
  8
SAPA_FOGBAND
  5
2A9E
 10
-109.560
 20
-23.1005
 30
0.000000
  70
    32
  0
VERTEX
  8
SAPA_FOGBAND
  5
2A9F
 10
-109.485
 20
-23.0236
 30
0.000000
  70
    32
  0
VERTEX
  8
SAPA_FOGBAND
  5
2AA0
 10
-109.417
 20
-22.9447
 30
0.000000
  70
    32
  0
VERTEX
  8
SAPA_FOGBAND
  5
2AA1
 10
-109.356
 20
-22.8640
 30
0.000000
  70
    32
  0
VERTEX
  8
SAPA_FOGBAND
  5
2AA2
 10
-109.301
 20
-22.7815
 30
0.000000
  70
    32
  0
VERTEX
  8
SAPA_FOGBAND
  5
2AA3
 10
-109.254
 20
-22.6976
 30
0.000000
  70
    32
  0
VERTEX
  8
SAPA_FOGBAND
  5
2AA4
 10
-109.213
 20
-22.6125
 30
0.000000
  70
    32
  0
VERTEX
  8
SAPA_FOGBAND
  5
2AA5
 10
-109.180
 20
-22.5263
 30
0.000000
  70
    32
  0
VERTEX
  8
SAPA_FOGBAND
  5
2AA6
 10
-109.154
 20
-22.4392
 30
0.000000
  70
    32
  0
VERTEX
  8
SAPA_FOGBAND
  5
2AA7
 10
-109.136
 20
-22.3516
 30
0.000000
  70
    32
  0
VERTEX
  8
SAPA_FOGBAND
  5
2AA8
 10
-109.124
 20
-22.2634
 30
0.000000
  70
    32
  0
VERTEX
  8
SAPA_FOGBAND
  5
2AA9
 10
-109.121
 20
-22.1751
 30
0.000000
  70
    32
  0
VERTEX
  8
SAPA_FOGBAND
  5
2AAA
 10
-109.124
 20
-22.0868
 30
0.000000
  70
    32
  0
VERTEX
  8
SAPA_FOGBAND
  5
2AAB
 10
-109.136
 20
-21.9987
 30
0.000000
  70
    32
  0
VERTEX
  8
SAPA_FOGBAND
  5
2AAC
 10
-109.154
 20
-21.9110
 30
0.000000
  70
    32
  0
VERTEX
  8
SAPA_FOGBAND
  5
2AAD
 10
-109.180
 20
-21.8240
 30
0.000000
  70
    32
  0
VERTEX
  8
SAPA_FOGBAND
  5
2AAE
 10
-109.213
 20
-21.7378
 30
0.000000
  70
    32
  0
VERTEX
  8
SAPA_FOGBAND
  5
2AAF
 10
-109.254
 20
-21.6526
 30
0.000000
  70
    32
  0
VERTEX
  8
SAPA_FOGBAND
  5
2AB0
 10
-109.301
 20
-21.5687
 30
0.000000
  70
    32
  0
VERTEX
  8
SAPA_FOGBAND
  5
2AB1
 10
-109.356
 20
-21.4863
 30
0.000000
  70
    32
  0
VERTEX
  8
SAPA_FOGBAND
  5
2AB2
 10
-109.417
 20
-21.4055
 30
0.000000
  70
    32
  0
VERTEX
  8
SAPA_FOGBAND
  5
2AB3
 10
-109.485
 20
-21.3266
 30
0.000000
  70
    32
  0
VERTEX
  8
SAPA_FOGBAND
  5
2AB4
 10
-109.560
 20
-21.2497
 30
0.000000
  70
    32
  0
VERTEX
  8
SAPA_FOGBAND
  5
2AB5
 10
-109.641
 20
-21.1751
 30
0.000000
  70
    32
  0
VERTEX
  8
SAPA_FOGBAND
  5
2AB6
 10
-109.728
 20
-21.1029
 30
0.000000
  70
    32
  0
VERTEX
  8
SAPA_FOGBAND
  5
2AB7
 10
-109.821
 20
-21.0332
 30
0.000000
  70
    32
  0
VERTEX
  8
SAPA_FOGBAND
  5
2AB8
 10
-109.920
 20
-20.9663
 30
0.000000
  70
    32
  0
VERTEX
  8
SAPA_FOGBAND
  5
2AB9
 10
-110.024
 20
-20.9023
 30
0.000000
  70
    32
  0
VERTEX
  8
SAPA_FOGBAND
  5
2ABA
 10
-110.134
 20
-20.8414
 30
0.000000
  70
    32
  0
VERTEX
  8
SAPA_FOGBAND
  5
2ABB
 10
-110.249
 20
-20.7837
 30
0.000000
  70
    32
  0
VERTEX
  8
SAPA_FOGBAND
  5
2ABC
 10
-110.368
 20
-20.7293
 30
0.000000
  70
    32
  0
VERTEX
  8
SAPA_FOGBAND
  5
2ABD
 10
-110.492
 20
-20.6785
 30
0.000000
  70
    32
  0
VERTEX
  8
SAPA_FOGBAND
  5
2ABE
 10
-110.620
 20
-20.6312
 30
0.000000
  70
    32
  0
VERTEX
  8
SAPA_FOGBAND
  5
2ABF
 10
-110.752
 20
-20.5877
 30
0.000000
  70
    32
  0
VERTEX
  8
SAPA_FOGBAND
  5
2AC0
 10
-110.887
 20
-20.5479
 30
0.000000
  70
    32
  0
VERTEX
  8
SAPA_FOGBAND
  5
2AC1
 10
-111.025
 20
-20.5121
 30
0.000000
  70
    32
  0
VERTEX
  8
SAPA_FOGBAND
  5
2AC2
 10
-111.167
 20
-20.4803
 30
0.000000
  70
    32
  0
VERTEX
  8
SAPA_FOGBAND
  5
2AC3
 10
-111.310
 20
-20.4526
 30
0.000000
  70
    32
  0
VERTEX
  8
SAPA_FOGBAND
  5
2AC4
 10
-111.456
 20
-20.4291
 30
0.000000
  70
    32
  0
VERTEX
  8
SAPA_FOGBAND
  5
2AC5
 10
-111.604
 20
-20.4097
 30
0.000000
  70
    32
  0
VERTEX
  8
SAPA_FOGBAND
  5
2AC6
 10
-111.753
 20
-20.3946
 30
0.000000
  70
    32
  0
VERTEX
  8
SAPA_FOGBAND
  5
2AC7
 10
-111.904
 20
-20.3838
 30
0.000000
  70
    32
  0
VERTEX
  8
SAPA_FOGBAND
  5
2AC8
 10
-112.055
 20
-20.3773
 30
0.000000
  70
    32
  0
VERTEX
  8
SAPA_FOGBAND
  5
2AC9
 10
-112.206
 20
-20.3751
 30
0.000000
  70
    32
  0
VERTEX
  8
SAPA_FOGBAND
  5
2ACA
 10
-112.357
 20
-20.3773
 30
0.000000
  70
    32
  0
VERTEX
  8
SAPA_FOGBAND
  5
2ACB
 10
-112.508
 20
-20.3838
 30
0.000000
  70
    32
  0
VERTEX
  8
SAPA_FOGBAND
  5
2ACC
 10
-112.659
 20
-20.3946
 30
0.000000
  70
    32
  0
VERTEX
  8
SAPA_FOGBAND
  5
2ACD
 10
-112.808
 20
-20.4097
 30
0.000000
  70
    32
  0
VERTEX
  8
SAPA_FOGBAND
  5
2ACE
 10
-112.956
 20
-20.4291
 30
0.000000
  70
    32
  0
VERTEX
  8
SAPA_FOGBAND
  5
2ACF
 10
-113.102
 20
-20.4526
 30
0.000000
  70
    32
  0
VERTEX
  8
SAPA_FOGBAND
  5
2AD0
 10
-113.245
 20
-20.4803
 30
0.000000
  70
    32
  0
VERTEX
  8
SAPA_FOGBAND
  5
2AD1
 10
-113.387
 20
-20.5121
 30
0.000000
  70
    32
  0
VERTEX
  8
SAPA_FOGBAND
  5
2AD2
 10
-113.525
 20
-20.5479
 30
0.000000
  70
    32
  0
VERTEX
  8
SAPA_FOGBAND
  5
2AD3
 10
-113.660
 20
-20.5877
 30
0.000000
  70
    32
  0
VERTEX
  8
SAPA_FOGBAND
  5
2AD4
 10
-113.792
 20
-20.6312
 30
0.000000
  70
    32
  0
VERTEX
  8
SAPA_FOGBAND
  5
2AD5
 10
-113.920
 20
-20.6785
 30
0.000000
  70
    32
  0
VERTEX
  8
SAPA_FOGBAND
  5
2AD6
 10
-114.044
 20
-20.7293
 30
0.000000
  70
    32
  0
VERTEX
  8
SAPA_FOGBAND
  5
2AD7
 10
-114.163
 20
-20.7837
 30
0.000000
  70
    32
  0
VERTEX
  8
SAPA_FOGBAND
  5
2AD8
 10
-114.278
 20
-20.8414
 30
0.000000
  70
    32
  0
VERTEX
  8
SAPA_FOGBAND
  5
2AD9
 10
-114.388
 20
-20.9023
 30
0.000000
  70
    32
  0
VERTEX
  8
SAPA_FOGBAND
  5
2ADA
 10
-114.492
 20
-20.9663
 30
0.000000
  70
    32
  0
VERTEX
  8
SAPA_FOGBAND
  5
2ADB
 10
-114.591
 20
-21.0332
 30
0.000000
  70
    32
  0
VERTEX
  8
SAPA_FOGBAND
  5
2ADC
 10
-114.684
 20
-21.1029
 30
0.000000
  70
    32
  0
VERTEX
  8
SAPA_FOGBAND
  5
2ADD
 10
-114.771
 20
-21.1751
 30
0.000000
  70
    32
  0
VERTEX
  8
SAPA_FOGBAND
  5
2ADE
 10
-114.852
 20
-21.2497
 30
0.000000
  70
    32
  0
VERTEX
  8
SAPA_FOGBAND
  5
2ADF
 10
-114.927
 20
-21.3266
 30
0.000000
  70
    32
  0
VERTEX
  8
SAPA_FOGBAND
  5
2AE0
 10
-114.995
 20
-21.4055
 30
0.000000
  70
    32
  0
VERTEX
  8
SAPA_FOGBAND
  5
2AE1
 10
-115.056
 20
-21.4863
 30
0.000000
  70
    32
  0
VERTEX
  8
SAPA_FOGBAND
  5
2AE2
 10
-115.111
 20
-21.5687
 30
0.000000
  70
    32
  0
VERTEX
  8
SAPA_FOGBAND
  5
2AE3
 10
-115.158
 20
-21.6526
 30
0.000000
  70
    32
  0
VERTEX
  8
SAPA_FOGBAND
  5
2AE4
 10
-115.199
 20
-21.7378
 30
0.000000
  70
    32
  0
VERTEX
  8
SAPA_FOGBAND
  5
2AE5
 10
-115.232
 20
-21.8240
 30
0.000000
  70
    32
  0
VERTEX
  8
SAPA_FOGBAND
  5
2AE6
 10
-115.258
 20
-21.9110
 30
0.000000
  70
    32
  0
VERTEX
  8
SAPA_FOGBAND
  5
2AE7
 10
-115.276
 20
-21.9987
 30
0.000000
  70
    32
  0
VERTEX
  8
SAPA_FOGBAND
  5
2AE8
 10
-115.287
 20
-22.0868
 30
0.000000
  70
    32
  0
VERTEX
  8
SAPA_FOGBAND
  5
2AE9
 10
-115.291
 20
-22.1751
 30
0.000000
  70
    32
  0
SEQEND
  8
SAPA_FOGBAND
  5
2AEA
  0
POLYLINE
  5
182F
  8
SAPA_FOGBAND
 62
     2
 66
     1
 10
0.0
 20
0.0
 30
0.0
 70
     1
  0
VERTEX
  5
28C0
  8
SAPA_FOGBAND
 62
     2
 10
-104.7622733468862
 20
-27.47512304093954
 30
0.0
  0
VERTEX
  5
28C1
  8
SAPA_FOGBAND
 62
     2
 10
-118.4427379961849
 20
-27.47512304093954
 30
0.0
 42
-0.427966335106886
  0
VERTEX
  5
28C2
  8
SAPA_FOGBAND
 62
     2
 10
-118.7424105639049
 20
-27.161110469580279
 30
0.0
  0
VERTEX
  5
28C3
  8
SAPA_FOGBAND
 62
     2
 10
-118.2561106558253
 20
-18.961110469580291
 30
0.0
 42
-0.4005932428724212
  0
VERTEX
  5
28C4
  8
SAPA_FOGBAND
 62
     2
 10
-117.9564380881053
 20
-18.675123040939539
 30
0.0
  0
VERTEX
  5
28C5
  8
SAPA_FOGBAND
 62
     2
 10
-116.14273799618491
 20
-18.675123040939539
 30
0.0
  0
VERTEX
  5
28C6
  8
SAPA_FOGBAND
 62
     2
 10
-116.14273799618491
 20
-16.97512304093955
 30
0.0
 42
-0.4142135623730951
  0
VERTEX
  5
28C7
  8
SAPA_FOGBAND
 62
     2
 10
-115.84273799618489
 20
-16.675123040939539
 30
0.0
  0
VERTEX
  5
28C8
  8
SAPA_FOGBAND
 62
     2
 10
-108.423957232559
 20
-16.675123040939539
 30
0.0
 42
-0.1379343940649207
  0
VERTEX
  5
28C9
  8
SAPA_FOGBAND
 62
     2
 10
-107.9027389235106
 20
-16.82169965579433
 30
0.0
  0
VERTEX
  5
28CA
  8
SAPA_FOGBAND
 62
     2
 10
-95.982128841660725
 20
-24.228917893702651
 30
0.0
 42
-0.2613472755167645
  0
VERTEX
  5
28CB
  8
SAPA_FOGBAND
 62
     2
 10
-95.742737996184928
 20
-24.655629586275261
 30
0.0
  0
VERTEX
  5
28CC
  8
SAPA_FOGBAND
 62
     2
 10
-95.742737996184928
 20
-25.65032620343846
 30
0.0
 42
-0.3915187749346393
  0
VERTEX
  5
28CD
  8
SAPA_FOGBAND
 62
     2
 10
-96.664715695958449
 20
-26.647277817443559
 30
0.0
  0
VERTEX
  5
28CE
  8
SAPA_FOGBAND
 62
     2
 10
-104.72326219677301
 20
-27.473598847942089
 30
0.0
 42
-0.0195279011117891
  0
SEQEND
  5
28CF
  8
SAPA_FOGBAND
 62
     2
  0
POLYLINE
  5
1830
  8
SAPA_FOGBAND
 66
     1
 10
0.0
 20
0.0
 30
0.0
 70
     1
  0
VERTEX
  5
28D0
  8
SAPA_FOGBAND
 10
-64.805446441378734
 20
-63.364139620038827
 30
0.0
 42
0.1579553886371987
  0
VERTEX
  5
28D1
  8
SAPA_FOGBAND
 10
-68.069274485494788
 20
-63.511199126503179
 30
0.0
 42
1.0
  0
VERTEX
  5
28D2
  8
SAPA_FOGBAND
 10
-66.806651496555531
 20
-66.882516849264306
 30
0.0
 42
0.1276248526686838
  0
VERTEX
  5
28D3
  8
SAPA_FOGBAND
 10
-65.038998988077964
 20
-65.641204427578714
 30
0.0
  0
VERTEX
  5
28D4
  8
SAPA_FOGBAND
 10
-64.129652464509235
 20
-64.571815755006298
 30
0.0
 42
0.5691506674918112
  0
VERTEX
  5
28D5
  8
SAPA_FOGBAND
 10
-64.51988822022733
 20
-63.433124560369208
 30
0.0
 42
-0.0156300267407041
  0
SEQEND
  5
28D6
  8
SAPA_FOGBAND
  0
POLYLINE
  5
1831
  8
SAPA_FOGBAND
 66
     1
 10
0.0
 20
0.0
 30
0.0
 70
     1
  0
VERTEX
  5
28D7
  8
SAPA_FOGBAND
 10
-53.502595000825487
 20
-70.573627995651407
 30
0.0
 42
-0.3888787318529789
  0
VERTEX
  5
28D8
  8
SAPA_FOGBAND
 10
-54.788951195737098
 20
-69.586572171141427
 30
0.0
  0
VERTEX
  5
28D9
  8
SAPA_FOGBAND
 10
-54.915466130527612
 20
-68.869070321555057
 30
0.0
 42
-1.0
  0
VERTEX
  5
28DA
  8
SAPA_FOGBAND
 10
-55.019655037128103
 20
-68.278185669747756
 30
0.0
  0
VERTEX
  5
28DB
  8
SAPA_FOGBAND
 10
-55.127058507377768
 20
-67.669070321554784
 30
0.0
 42
-0.9999999999999067
  0
VERTEX
  5
28DC
  8
SAPA_FOGBAND
 10
-55.23124741397779
 20
-67.078185669747484
 30
0.0
  0
VERTEX
  5
28DD
  8
SAPA_FOGBAND
 10
-55.292032020639198
 20
-66.733459035078624
 30
0.0
 42
0.3345953195020691
  0
VERTEX
  5
28DE
  8
SAPA_FOGBAND
 10
-57.492730245000267
 20
-64.681274740825131
 30
0.0
  0
VERTEX
  5
28DF
  8
SAPA_FOGBAND
 10
-61.506537650012177
 20
-64.328166967907976
 30
0.0
 42
0.2564696513213821
  0
VERTEX
  5
28E0
  8
SAPA_FOGBAND
 10
-63.961031848719102
 20
-65.454099133849979
 30
0.0
  0
VERTEX
  5
28E1
  8
SAPA_FOGBAND
 10
-64.505731577349906
 20
-66.094664314068552
 30
0.0
 42
-0.1276248526686853
  0
VERTEX
  5
28E2
  8
SAPA_FOGBAND
 10
-66.561141470928959
 20
-67.538050850912271
 30
0.0
 42
-1.0
  0
VERTEX
  5
28E3
  8
SAPA_FOGBAND
 10
-68.314784511121815
 20
-62.8556651248553
 30
0.0
 42
-0.1579553886371977
  0
VERTEX
  5
28E4
  8
SAPA_FOGBAND
 10
-64.619884838537217
 20
-62.689182664706827
 30
0.0
 42
0.0604483959424258
  0
VERTEX
  5
28E5
  8
SAPA_FOGBAND
 10
-61.229772777551908
 20
-62.790275199159908
 30
0.0
  0
VERTEX
  5
28E6
  8
SAPA_FOGBAND
 10
-56.072206021184421
 20
-62.578194357941179
 30
0.0
 42
0.3286126757704555
  0
VERTEX
  5
28E7
  8
SAPA_FOGBAND
 10
-54.639561914714903
 20
-61.522638802385529
 30
0.0
 42
-0.2704382184496639
  0
VERTEX
  5
28E8
  8
SAPA_FOGBAND
 10
-53.521053389578547
 20
-60.608962527245517
 30
0.0
  0
VERTEX
  5
28E9
  8
SAPA_FOGBAND
 10
-53.720917154706257
 20
-64.478194357941277
 30
0.0
  0
VERTEX
  5
28EA
  8
SAPA_FOGBAND
 10
-52.520917154706439
 20
-64.478194357941277
 30
0.0
  0
VERTEX
  5
28EB
  8
SAPA_FOGBAND
 10
-51.459852749156852
 20
-64.53266612098065
 30
0.0
  0
VERTEX
  5
28EC
  8
SAPA_FOGBAND
 10
-51.460821759014578
 20
-63.982820212175568
 30
0.0
 42
-0.6068148963145658
  0
VERTEX
  5
28ED
  8
SAPA_FOGBAND
 10
-50.941230678192113
 20
-63.867629642800523
 30
0.0
  0
VERTEX
  5
28EE
  8
SAPA_FOGBAND
 10
-49.564904992301962
 20
-65.683042452820985
 30
0.0
 42
-0.4400105308918406
  0
VERTEX
  5
28EF
  8
SAPA_FOGBAND
 10
-49.765626246388557
 20
-67.207671744059382
 30
0.0
  0
VERTEX
  5
28F0
  8
SAPA_FOGBAND
 10
-51.782589170611317
 20
-68.730873125475057
 30
0.0
 42
-0.5205670505516999
  0
VERTEX
  5
28F1
  8
SAPA_FOGBAND
 10
-52.244439849403278
 20
-68.562773225719013
 30
0.0
  0
VERTEX
  5
28F2
  8
SAPA_FOGBAND
 10
-52.27103548043825
 20
-67.817934114286402
 30
0.0
  0
VERTEX
  5
28F3
  8
SAPA_FOGBAND
 10
-53.560948289286642
 20
-68.017445057740417
 30
0.0
  0
SEQEND
  5
28F4
  8
SAPA_FOGBAND
  0
CIRCLE
  5
1832
  8
SAPA_FOGBAND
 10
-55.11611260338006
 20
-63.99705192192669
 30
0.0
 40
0.3
  0
POLYLINE
  5
1833
  8
SAPA_FOGBAND
 66
     1
 10
0.0
 20
0.0
 30
0.0
 70
     1
  0
VERTEX
  5
28F5
  8
SAPA_FOGBAND
 10
-51.307464885984437
 20
-67.178194357941095
 30
0.0
  0
VERTEX
  5
28F6
  8
SAPA_FOGBAND
 10
-53.220917154706257
 20
-67.178194357941095
 30
0.0
 42
-0.4142135623730951
  0
VERTEX
  5
28F7
  8
SAPA_FOGBAND
 10
-53.720917154706257
 20
-66.678194357941095
 30
0.0
  0
VERTEX
  5
28F8
  8
SAPA_FOGBAND
 10
-53.720917154706257
 20
-65.878194357941368
 30
0.0
 42
-0.4142135623730951
  0
VERTEX
  5
28F9
  8
SAPA_FOGBAND
 10
-53.220917154706257
 20
-65.378194357941368
 30
0.0
  0
VERTEX
  5
28FA
  8
SAPA_FOGBAND
 10
-51.144813342639928
 20
-65.378194357941368
 30
0.0
 42
-0.2216946626429447
  0
VERTEX
  5
28FB
  8
SAPA_FOGBAND
 10
-50.68518667676809
 20
-65.592521792129276
 30
0.0
  0
VERTEX
  5
28FC
  8
SAPA_FOGBAND
 10
-50.325049629475608
 20
-66.021716412066155
 30
0.0
 42
-0.4400105308918337
  0
VERTEX
  5
28FD
  8
SAPA_FOGBAND
 10
-50.412214312417028
 20
-66.683797910999886
 30
0.0
  0
VERTEX
  5
28FE
  8
SAPA_FOGBAND
 10
-50.963319024173607
 20
-67.06968558451473
 30
0.0
 42
-0.153914721059829
  0
SEQEND
  5
28FF
  8
SAPA_FOGBAND
  0
POLYLINE
  5
1834
  8
SAPA_FOGBAND
 66
     1
 10
0.0
 20
0.0
 30
0.0
 70
     1
  0
VERTEX
  5
2900
  8
SAPA_FOGBAND
 10
-72.761691587341502
 20
-78.598715291458078
 30
0.0
  0
VERTEX
  5
2901
  8
SAPA_FOGBAND
 10
-72.761691587341502
 20
-79.598715291458063
 30
0.0
 42
0.9999999999999998
  0
VERTEX
  5
2902
  8
SAPA_FOGBAND
 10
-71.557532129462274
 20
-79.598715291458063
 30
0.0
  0
VERTEX
  5
2903
  8
SAPA_FOGBAND
 10
-71.557532129462274
 20
-78.598715291458078
 30
0.0
 42
0.9999999999999998
  0
SEQEND
  5
2904
  8
SAPA_FOGBAND
  0
POLYLINE
  5
1835
  8
SAPA_FOGBAND
 66
     1
 10
0.0
 20
0.0
 30
0.0
 70
     1
  0
VERTEX
  5
2905
  8
SAPA_FOGBAND
 10
-70.192327582216649
 20
-79.522567588814397
 30
0.0
  0
VERTEX
  5
2906
  8
SAPA_FOGBAND
 10
-71.050386292526113
 20
-80.908332675759937
 30
0.0
 42
-0.2528723899644565
  0
VERTEX
  5
2907
  8
SAPA_FOGBAND
 10
-71.217670568711341
 20
-80.998715291458055
 30
0.0
  0
VERTEX
  5
2908
  8
SAPA_FOGBAND
 10
-73.101553148092435
 20
-80.998715291458055
 30
0.0
 42
-0.2528723899644564
  0
VERTEX
  5
2909
  8
SAPA_FOGBAND
 10
-73.268837424277663
 20
-80.908332675759937
 30
0.0
  0
VERTEX
  5
290A
  8
SAPA_FOGBAND
 10
-74.126896134587128
 20
-79.522567588814397
 30
0.0
 42
-0.5108224790788402
  0
VERTEX
  5
290B
  8
SAPA_FOGBAND
 10
-74.011375667422385
 20
-79.219765039254725
 30
0.0
  0
VERTEX
  5
290C
  8
SAPA_FOGBAND
 10
-73.609611858401891
 20
-79.098715291458063
 30
0.0
  0
VERTEX
  5
290D
  8
SAPA_FOGBAND
 10
-73.609611858401891
 20
-77.998715291458069
 30
0.0
  0
VERTEX
  5
290E
  8
SAPA_FOGBAND
 10
-75.474346462260144
 20
-77.998715291458069
 30
0.0
 42
-0.0874886635259237
  0
VERTEX
  5
290F
  8
SAPA_FOGBAND
 10
-75.5427504909253
 20
-77.986653815615256
 30
0.0
  0
VERTEX
  5
2910
  8
SAPA_FOGBAND
 10
-79.075494636965416
 20
-77.430840101178489
 30
0.0
 42
-0.9391885369168745
  0
VERTEX
  5
2911
  8
SAPA_FOGBAND
 10
-78.962728667233904
 20
-77.047883582505861
 30
0.0
  0
VERTEX
  5
2912
  8
SAPA_FOGBAND
 10
-75.090534861996929
 20
-77.198715291458072
 30
0.0
  0
VERTEX
  5
2913
  8
SAPA_FOGBAND
 10
-74.260359895148284
 20
-77.003999510883432
 30
0.0
 42
-0.0576596372120268
  0
VERTEX
  5
2914
  8
SAPA_FOGBAND
 10
-74.214689721126163
 20
-76.998715291458069
 30
0.0
  0
VERTEX
  5
2915
  8
SAPA_FOGBAND
 10
-69.809611858401894
 20
-76.998715291458069
 30
0.0
 42
-0.4142135623730951
  0
VERTEX
  5
2916
  8
SAPA_FOGBAND
 10
-69.209611858401885
 20
-77.598715291458078
 30
0.0
  0
VERTEX
  5
2917
  8
SAPA_FOGBAND
 10
-69.209611858401885
 20
-77.79871529145808
 30
0.0
 42
-0.4142135623730951
  0
VERTEX
  5
2918
  8
SAPA_FOGBAND
 10
-69.409611858401888
 20
-77.998715291458069
 30
0.0
  0
VERTEX
  5
2919
  8
SAPA_FOGBAND
 10
-70.709611858401885
 20
-77.998715291458069
 30
0.0
  0
VERTEX
  5
291A
  8
SAPA_FOGBAND
 10
-70.709611858401885
 20
-79.098715291458063
 30
0.0
  0
VERTEX
  5
291B
  8
SAPA_FOGBAND
 10
-70.307848049381391
 20
-79.219765039254725
 30
0.0
 42
-0.51082247907884
  0
SEQEND
  5
291C
  8
SAPA_FOGBAND
  0
POLYLINE
  5
1836
  8
SAPA_FOGBAND
 66
     1
 10
0.0
 20
0.0
 30
0.0000000195376815
 70
     1
  0
VERTEX
  5
291D
  8
SAPA_FOGBAND
 10
-50.887868548666873
 20
10.551365151443481
 30
0.0000000195376815
  0
VERTEX
  5
291E
  8
SAPA_FOGBAND
 10
-50.787868548666879
 20
10.551365151443481
 30
0.0000000195376815
 42
-0.4142135623730959
  0
VERTEX
  5
291F
  8
SAPA_FOGBAND
 10
-50.08786854866689
 20
9.8513651514434954
 30
0.0000000195376815
  0
VERTEX
  5
2920
  8
SAPA_FOGBAND
 10
-50.087868548666862
 20
8.7513651514435011
 30
0.0000000195376815
 42
-0.4142135623730961
  0
VERTEX
  5
2921
  8
SAPA_FOGBAND
 10
-50.287868548666872
 20
8.5513651514434841
 30
0.0000000195376815
  0
VERTEX
  5
2922
  8
SAPA_FOGBAND
 10
-51.387868548666873
 20
8.5513651514434841
 30
0.0000000195376815
 42
-0.4142135623730956
  0
VERTEX
  5
2923
  8
SAPA_FOGBAND
 10
-51.58786854866689
 20
8.7513651514435011
 30
0.0000000195376815
  0
VERTEX
  5
2924
  8
SAPA_FOGBAND
 10
-51.587868548666862
 20
9.8513651514434954
 30
0.0000000195376815
 42
-0.4142135623730946
  0
SEQEND
  5
2925
  8
SAPA_FOGBAND
  0
POLYLINE
  5
1837
  8
SAPA_FOGBAND
 66
     1
 10
0.0
 20
0.0
 30
0.0000000195376815
 70
     1
  0
VERTEX
  5
2926
  8
SAPA_FOGBAND
 10
-52.387868548666873
 20
9.2513651514435011
 30
0.0000000195376815
  0
VERTEX
  5
2927
  8
SAPA_FOGBAND
 10
-52.387868548666873
 20
8.6035995861704109
 30
0.0000000195376815
 42
-0.4416942457848324
  0
VERTEX
  5
2928
  8
SAPA_FOGBAND
 10
-52.606422908294789
 20
8.4044621066774639
 30
0.0000000195376815
  0
VERTEX
  5
2929
  8
SAPA_FOGBAND
 10
-53.56931418903897
 20
8.4941781719355092
 30
0.0000000195376815
 42
0.4416942457847888
  0
VERTEX
  5
292A
  8
SAPA_FOGBAND
 10
-53.787868548666879
 20
8.2950406924425923
 30
0.0000000195376815
  0
VERTEX
  5
292B
  8
SAPA_FOGBAND
 10
-53.787868548666879
 20
7.7450583528510251
 30
0.0000000195376815
 42
0.5445962197109612
  0
VERTEX
  5
292C
  8
SAPA_FOGBAND
 10
-53.082189503261802
 20
7.2893214437891842
 30
0.0000000195376815
  0
VERTEX
  5
292D
  8
SAPA_FOGBAND
 10
-52.723138349976537
 20
7.4513651514434889
 30
0.0000000195376815
  0
VERTEX
  5
292E
  8
SAPA_FOGBAND
 10
-51.250179111228633
 20
7.4513651514434924
 30
0.0000000195376815
 42
0.3364379234965429
  0
VERTEX
  5
292F
  8
SAPA_FOGBAND
 10
-50.178435381613802
 20
7.6388719692852396
 30
0.0000000195376815
  0
VERTEX
  5
2930
  8
SAPA_FOGBAND
 10
-49.616571745790097
 20
7.6388719692852396
 30
0.0000000195376815
 42
-0.1919812372740509
  0
VERTEX
  5
2931
  8
SAPA_FOGBAND
 10
-49.272584698190052
 20
7.5017395912679703
 30
0.0000000195376815
  0
VERTEX
  5
2932
  8
SAPA_FOGBAND
 10
-48.880717767786791
 20
7.130262114977886
 30
0.0000000195376815
 42
-0.7712067734688043
  0
VERTEX
  5
2933
  8
SAPA_FOGBAND
 10
-51.453149467660907
 20
4.3206281192972247
 30
0.0000000195376815
 42
-0.152544453744271
  0
VERTEX
  5
2934
  8
SAPA_FOGBAND
 10
-52.322575217501068
 20
5.2125033880510037
 30
0.0000000195376815
 42
0.6229515670381967
  0
VERTEX
  5
2935
  8
SAPA_FOGBAND
 10
-52.797515402276822
 20
5.1126211042284728
 30
0.0000000195376815
 42
0.2412896305485237
  0
VERTEX
  5
2936
  8
SAPA_FOGBAND
 10
-52.760764130978707
 20
4.7091562898863399
 30
0.0000000195376815
 42
0.0924947384438033
  0
VERTEX
  5
2937
  8
SAPA_FOGBAND
 10
-52.138771222248423
 20
4.0186558778449237
 30
0.0000000195376815
 42
0.8622191196043894
  0
VERTEX
  5
2938
  8
SAPA_FOGBAND
 10
-48.314900068507129
 20
7.5945676298207649
 30
0.0000000195376815
  0
VERTEX
  5
2939
  8
SAPA_FOGBAND
 10
-47.884340930625861
 20
7.7099356031098907
 30
0.0000000195376815
 42
0.9163311740173991
  0
VERTEX
  5
293A
  8
SAPA_FOGBAND
 10
-48.022730845765963
 20
8.4947838128622308
 30
0.0000000195376815
  0
VERTEX
  5
293B
  8
SAPA_FOGBAND
 10
-49.070437400117349
 20
8.4031213666546805
 30
0.0000000195376815
 42
-0.4400105308918151
  0
VERTEX
  5
293C
  8
SAPA_FOGBAND
 10
-49.287868548666879
 20
8.6023603062730203
 30
0.0000000195376815
  0
VERTEX
  5
293D
  8
SAPA_FOGBAND
 10
-49.287868548666879
 20
9.4513651514434898
 30
0.0000000195376815
  0
VERTEX
  5
293E
  8
SAPA_FOGBAND
 10
-48.887868548666873
 20
9.4513651514434898
 30
0.0000000195376815
 42
0.5693809839207585
  0
VERTEX
  5
293F
  8
SAPA_FOGBAND
 10
-48.712314503103343
 20
9.7471815231461321
 30
0.0000000195376815
  0
VERTEX
  5
2940
  8
SAPA_FOGBAND
 10
-49.417280103002369
 20
11.03881426655143
 30
0.0000000195376815
 42
0.2743878130875472
  0
VERTEX
  5
2941
  8
SAPA_FOGBAND
 10
-49.943942239693101
 20
11.35136515144351
 30
0.0000000195376815
  0
VERTEX
  5
2942
  8
SAPA_FOGBAND
 10
-51.731794857640651
 20
11.35136515144349
 30
0.0000000195376815
 42
0.2743878130875473
  0
VERTEX
  5
2943
  8
SAPA_FOGBAND
 10
-52.258456994331368
 20
11.03881426655142
 30
0.0000000195376815
  0
VERTEX
  5
2944
  8
SAPA_FOGBAND
 10
-52.963422594230458
 20
9.7471815231461605
 30
0.0000000195376815
 42
0.5693809839208271
  0
VERTEX
  5
2945
  8
SAPA_FOGBAND
 10
-52.787868548666872
 20
9.4513651514434578
 30
0.0000000195376815
  0
VERTEX
  5
2946
  8
SAPA_FOGBAND
 10
-52.387868548666873
 20
9.4513651514434898
 30
0.0000000195376815
  0
VERTEX
  5
2947
  8
SAPA_FOGBAND
 10
-52.387868548666873
 20
8.6023603062730203
 30
0.0000000195376815
  0
SEQEND
  5
2948
  8
SAPA_FOGBAND
  0
CIRCLE
  5
1838
  8
SAPA_FOGBAND
 10
18.629356795612921
 20
-85.028466855359738
 30
0.0
 40
0.2549509756796394
  0
INSERT
  5
1839
  8
SAPA_FOGBAND
  6
CONTINUOUS
  2
*U184
 10
0.0
 20
0.0
 30
0.0
1001
ACAD
1002
{
1000
R14_HATCH_DATA
1000
1839
1011
1.0
1021
0.0
1031
0.0
1021
0.0
1031
0.0
1011
0.0
1021
0.0
1031
0.0
1021
1.0
1031
0.0
1011
0.0
1021
0.0
1031
0.0
1021
0.0
1031
1.0
1040
0.0
1010
0.0
1020
0.0
1030
1.0
1000
SOLID
1070
     1
1070
     1
1071
        1
1071
        1
1071
        1
1070
     2
1040
18.629356795612921
1040
-85.028466855359738
1040
0.2549509756796394
1040
-3.1415926535897931
1040
3.1415926535897931
1070
     0
1071
        1
1005
1838
1070
     0
1070
     1
1071
        1
1040
577.52116078462973
1040
-436.1916187600666
1040
0.0
1002
}
  0
POLYLINE
  5
183A
  8
SAPA_FOGBAND
 66
     1
 10
0.0
 20
0.0
 30
0.0
 70
     1
  0
VERTEX
  5
295A
  8
SAPA_FOGBAND
 10
17.729356795613281
 20
-87.599999999011061
 30
0.0
 42
-0.9999999999999998
  0
VERTEX
  5
295B
  8
SAPA_FOGBAND
 10
19.52935679561347
 20
-87.599999999011061
 30
0.0
  0
VERTEX
  5
295C
  8
SAPA_FOGBAND
 10
19.52935679561347
 20
-88.199999999011425
 30
0.0
 42
-0.9999999999999998
  0
VERTEX
  5
295D
  8
SAPA_FOGBAND
 10
17.729356795613281
 20
-88.199999999011425
 30
0.0
  0
SEQEND
  5
295E
  8
SAPA_FOGBAND
  0
POLYLINE
  5
183B
  8
SAPA_FOGBAND
 66
     1
 10
0.0
 20
0.0
 30
0.0
 70
     1
  0
VERTEX
  5
295F
  8
SAPA_FOGBAND
 10
14.379356795612919
 20
-84.164228703859635
 30
0.0
  0
VERTEX
  5
2960
  8
SAPA_FOGBAND
 10
14.379356795612919
 20
-86.299999999010865
 30
0.0
 42
0.4142135623730951
  0
VERTEX
  5
2961
  8
SAPA_FOGBAND
 10
14.579356795612741
 20
-86.499999999010683
 30
0.0
  0
VERTEX
  5
2962
  8
SAPA_FOGBAND
 10
16.629356795612921
 20
-86.499999999010683
 30
0.0
 42
-0.4142135623730951
  0
VERTEX
  5
2963
  8
SAPA_FOGBAND
 10
17.129356795612921
 20
-86.999999999010697
 30
0.0
  0
VERTEX
  5
2964
  8
SAPA_FOGBAND
 10
17.129356795612921
 20
-87.726794918254427
 30
0.0
  0
VERTEX
  5
2965
  8
SAPA_FOGBAND
 10
16.87759298659261
 20
-87.794254827564373
 30
0.0
 42
0.4740571810232154
  0
VERTEX
  5
2966
  8
SAPA_FOGBAND
 10
16.750299124229279
 20
-88.076537413202686
 30
0.0
  0
VERTEX
  5
2967
  8
SAPA_FOGBAND
 10
17.370399626988039
 20
-89.522743549963025
 30
0.0
 42
0.2846003776496056
  0
VERTEX
  5
2968
  8
SAPA_FOGBAND
 10
17.818043805448038
 20
-89.799999999010865
 30
0.0
  0
VERTEX
  5
2969
  8
SAPA_FOGBAND
 10
19.440669785778709
 20
-89.799999999010865
 30
0.0
 42
0.2846003776496054
  0
VERTEX
  5
296A
  8
SAPA_FOGBAND
 10
19.888313964238701
 20
-89.522743549963025
 30
0.0
  0
VERTEX
  5
296B
  8
SAPA_FOGBAND
 10
20.508414466997468
 20
-88.076537413202686
 30
0.0
 42
0.4740571810232154
  0
VERTEX
  5
296C
  8
SAPA_FOGBAND
 10
20.381120604633232
 20
-87.794254827564373
 30
0.0
  0
VERTEX
  5
296D
  8
SAPA_FOGBAND
 10
20.129356795612921
 20
-87.726794918254427
 30
0.0
  0
VERTEX
  5
296E
  8
SAPA_FOGBAND
 10
20.129356795612921
 20
-86.999999999010697
 30
0.0
 42
-0.4142135623730951
  0
VERTEX
  5
296F
  8
SAPA_FOGBAND
 10
20.629356795612921
 20
-86.499999999010683
 30
0.0
  0
VERTEX
  5
2970
  8
SAPA_FOGBAND
 10
23.679356795613099
 20
-86.499999999010683
 30
0.0
 42
-0.4142135623730951
  0
VERTEX
  5
2971
  8
SAPA_FOGBAND
 10
23.879356795612921
 20
-86.699999999011425
 30
0.0
  0
VERTEX
  5
2972
  8
SAPA_FOGBAND
 10
23.879356795612921
 20
-87.599999999011061
 30
0.0
 42
0.4142135623730951
  0
VERTEX
  5
2973
  8
SAPA_FOGBAND
 10
24.079356795612739
 20
-87.799999999010879
 30
0.0
  0
VERTEX
  5
2974
  8
SAPA_FOGBAND
 10
24.77935679561347
 20
-87.799999999010879
 30
0.0
 42
0.4142135623730951
  0
VERTEX
  5
2975
  8
SAPA_FOGBAND
 10
25.079356795612739
 20
-87.499999999010683
 30
0.0
  0
VERTEX
  5
2976
  8
SAPA_FOGBAND
 10
25.079356795612739
 20
-86.689488222358932
 30
0.0
 42
-0.1316524975873982
  0
VERTEX
  5
2977
  8
SAPA_FOGBAND
 10
25.347305988044582
 20
-85.689488222358946
 30
0.0
  0
VERTEX
  5
2978
  8
SAPA_FOGBAND
 10
29.318018525146051
 20
-83.054121304015325
 30
0.0
 42
0.876976462992761
  0
VERTEX
  5
2979
  8
SAPA_FOGBAND
 10
29.21511293523622
 20
-82.536779967899065
 30
0.0
  0
VERTEX
  5
297A
  8
SAPA_FOGBAND
 10
23.790451373364021
 20
-83.090624764442737
 30
0.0
 42
-0.1353185728426623
  0
VERTEX
  5
297B
  8
SAPA_FOGBAND
 10
23.790451373364021
 20
-83.090624764442737
 30
0.0
  0
VERTEX
  5
297C
  8
SAPA_FOGBAND
 10
23.552561880535219
 20
-82.678588072042885
 30
0.0
 42
0.5773502691896196
  0
VERTEX
  5
297D
  8
SAPA_FOGBAND
 10
23.206151719020681
 20
-82.678588072042885
 30
0.0
  0
VERTEX
  5
297E
  8
SAPA_FOGBAND
 10
22.968104102289772
 20
-83.090898634604173
 30
0.0
  0
VERTEX
  5
297F
  8
SAPA_FOGBAND
 10
22.1906094923736
 20
-83.090898634604173
 30
0.0
  0
VERTEX
  5
2980
  8
SAPA_FOGBAND
 10
21.952561880534859
 20
-82.678588072042885
 30
0.0
 42
0.5773502691896196
  0
VERTEX
  5
2981
  8
SAPA_FOGBAND
 10
21.606151719021231
 20
-82.678588072042885
 30
0.0
  0
VERTEX
  5
2982
  8
SAPA_FOGBAND
 10
21.368104102290321
 20
-83.090898634604173
 30
0.0
  0
VERTEX
  5
2983
  8
SAPA_FOGBAND
 10
20.590609492373229
 20
-83.090898634604173
 30
0.0
  0
VERTEX
  5
2984
  8
SAPA_FOGBAND
 10
20.352561880535411
 20
-82.678588072042885
 30
0.0
 42
0.5773502691896196
  0
VERTEX
  5
2985
  8
SAPA_FOGBAND
 10
20.00615171902087
 20
-82.678588072042885
 30
0.0
  0
VERTEX
  5
2986
  8
SAPA_FOGBAND
 10
19.768104102290859
 20
-83.090898634604173
 30
0.0
  0
VERTEX
  5
2987
  8
SAPA_FOGBAND
 10
18.990609492373778
 20
-83.090898634604173
 30
0.0
  0
VERTEX
  5
2988
  8
SAPA_FOGBAND
 10
18.75256188053504
 20
-82.678588072042885
 30
0.0
 42
0.5773502691896196
  0
VERTEX
  5
2989
  8
SAPA_FOGBAND
 10
18.406151719021409
 20
-82.678588072042885
 30
0.0
  0
VERTEX
  5
298A
  8
SAPA_FOGBAND
 10
18.168104102290499
 20
-83.090898634604173
 30
0.0
  0
VERTEX
  5
298B
  8
SAPA_FOGBAND
 10
17.390609492373411
 20
-83.090898634604173
 30
0.0
  0
VERTEX
  5
298C
  8
SAPA_FOGBAND
 10
17.15256188053468
 20
-82.678588072042885
 30
0.0
 42
0.5773502691896196
  0
VERTEX
  5
298D
  8
SAPA_FOGBAND
 10
16.806151719021042
 20
-82.678588072042885
 30
0.0
  0
VERTEX
  5
298E
  8
SAPA_FOGBAND
 10
16.568104102290128
 20
-83.090898634604173
 30
0.0
  0
VERTEX
  5
298F
  8
SAPA_FOGBAND
 10
15.790609488208471
 20
-83.090898634604173
 30
0.0
  0
VERTEX
  5
2990
  8
SAPA_FOGBAND
 10
15.55256187636973
 20
-82.678588072042885
 30
0.0
 42
0.5773502691896196
  0
VERTEX
  5
2991
  8
SAPA_FOGBAND
 10
15.2061517148561
 20
-82.678588072042885
 30
0.0
  0
VERTEX
  5
2992
  8
SAPA_FOGBAND
 10
14.40615171530157
 20
-84.064228703088915
 30
0.0
 42
0.1316524987190407
  0
SEQEND
  5
2993
  8
SAPA_FOGBAND
  0
POLYLINE
  5
183C
  8
SAPA_FOGBAND
 66
     1
 10
0.0
 20
0.0
 30
0.0
 70
     1
  0
VERTEX
  5
2994
  8
SAPA_FOGBAND
 10
21.953090993535849
 20
-33.991114672817268
 30
0.0
 42
0.4740571810231764
  0
VERTEX
  5
2995
  8
SAPA_FOGBAND
 10
22.08038485589918
 20
-33.708832087178962
 30
0.0
  0
VERTEX
  5
2996
  8
SAPA_FOGBAND
 10
21.46028435314042
 20
-32.262625950418631
 30
0.0
 42
0.2846003776496257
  0
VERTEX
  5
2997
  8
SAPA_FOGBAND
 10
21.012640174680431
 20
-31.985369501370769
 30
0.0
  0
VERTEX
  5
2998
  8
SAPA_FOGBAND
 10
19.39001419434976
 20
-31.985369501370769
 30
0.0
 42
0.2846003776496159
  0
VERTEX
  5
2999
  8
SAPA_FOGBAND
 10
18.942370015889761
 20
-32.262625950418631
 30
0.0
  0
VERTEX
  5
299A
  8
SAPA_FOGBAND
 10
18.322269513131001
 20
-33.708832087178962
 30
0.0
 42
0.4740571810232354
  0
VERTEX
  5
299B
  8
SAPA_FOGBAND
 10
18.449563375494328
 20
-33.991114672817268
 30
0.0
  0
VERTEX
  5
299C
  8
SAPA_FOGBAND
 10
18.701327184515549
 20
-34.058574582128131
 30
0.0
  0
VERTEX
  5
299D
  8
SAPA_FOGBAND
 10
18.701327184515549
 20
-34.99999999900956
 30
0.0
 42
-0.4142135623730951
  0
VERTEX
  5
299E
  8
SAPA_FOGBAND
 10
18.201327184515549
 20
-35.49999999900956
 30
0.0
  0
VERTEX
  5
299F
  8
SAPA_FOGBAND
 10
15.17322763378092
 20
-35.49999999900956
 30
0.0
 42
0.1657205760184635
  0
VERTEX
  5
29A0
  8
SAPA_FOGBAND
 10
14.562553147167129
 20
-35.708118270846171
 30
0.0
  0
VERTEX
  5
29A1
  8
SAPA_FOGBAND
 10
5.194662756689695
 20
-40.602703355701799
 30
0.0
 42
0.2325311832130358
  0
VERTEX
  5
29A2
  8
SAPA_FOGBAND
 10
4.9999999999965894
 20
-40.998644219783948
 30
0.0
  0
VERTEX
  5
29A3
  8
SAPA_FOGBAND
 10
4.9999999999965894
 20
-42.729387776221067
 30
0.0
 42
0.3826682380870913
  0
VERTEX
  5
29A4
  8
SAPA_FOGBAND
 10
5.8913247430457432
 20
-43.723465081326808
 30
0.0
  0
VERTEX
  5
29A5
  8
SAPA_FOGBAND
 10
11.49579350334284
 20
-44.499999999010242
 30
0.0
  0
VERTEX
  5
29A6
  8
SAPA_FOGBAND
 10
25.2013271625658
 20
-44.499999999010242
 30
0.0
 42
0.4257917699693507
  0
VERTEX
  5
29A7
  8
SAPA_FOGBAND
 10
25.501094716163841
 20
-44.188192636479243
 30
0.0
  0
VERTEX
  5
29A8
  8
SAPA_FOGBAND
 10
25.01325490149452
 20
-35.788192636478932
 30
0.0
 42
0.4027293761437475
  0
VERTEX
  5
29A9
  8
SAPA_FOGBAND
 10
24.713487347896489
 20
-35.49999999900956
 30
0.0
  0
VERTEX
  5
29AA
  8
SAPA_FOGBAND
 10
22.201327184515549
 20
-35.49999999900956
 30
0.0
 42
-0.4142135623730951
  0
VERTEX
  5
29AB
  8
SAPA_FOGBAND
 10
21.701327184514639
 20
-34.99999999900956
 30
0.0
  0
VERTEX
  5
29AC
  8
SAPA_FOGBAND
 10
21.701327184514639
 20
-34.058574582128131
 30
0.0
  0
SEQEND
  5
29AD
  8
SAPA_FOGBAND
  0
POLYLINE
  5
183D
  8
SAPA_FOGBAND
 66
     1
 10
0.0
 20
0.0
 30
0.0
 70
     1
  0
VERTEX
  5
29AE
  8
SAPA_FOGBAND
 10
19.301327184514999
 20
-33.585369501371133
 30
0.0
  0
VERTEX
  5
29AF
  8
SAPA_FOGBAND
 10
19.301327184514999
 20
-34.185369501370587
 30
0.0
 42
0.9999999999999998
  0
VERTEX
  5
29B0
  8
SAPA_FOGBAND
 10
21.101327184515181
 20
-34.185369501370587
 30
0.0
  0
VERTEX
  5
29B1
  8
SAPA_FOGBAND
 10
21.101327184515181
 20
-33.585369501371133
 30
0.0
 42
0.9999999999999998
  0
SEQEND
  5
29B2
  8
SAPA_FOGBAND
  0
POLYLINE
  5
183E
  8
SAPA_FOGBAND
 66
     1
 10
0.0
 20
0.0
 30
0.0
  0
VERTEX
  5
29B3
  8
SAPA_FOGBAND
 10
23.801327184514999
 20
-35.49999999900956
 30
0.0
  0
VERTEX
  5
29B4
  8
SAPA_FOGBAND
 10
23.801327184514999
 20
-35.799999999009742
 30
0.0
 42
-0.4142135623730951
  0
VERTEX
  5
29B5
  8
SAPA_FOGBAND
 10
23.301327184514999
 20
-36.299999999009742
 30
0.0
  0
VERTEX
  5
29B6
  8
SAPA_FOGBAND
 10
16.001327184514821
 20
-36.299999999009742
 30
0.0
 42
-0.4142135623730951
  0
VERTEX
  5
29B7
  8
SAPA_FOGBAND
 10
15.501327184514819
 20
-35.799999999009742
 30
0.0
  0
VERTEX
  5
29B8
  8
SAPA_FOGBAND
 10
15.501327184515731
 20
-35.49999999900956
 30
0.0
  0
SEQEND
  5
29B9
  8
SAPA_FOGBAND
  0
POLYLINE
  5
183F
  8
SAPA_FOGBAND
 10
18.983103333429021
 20
-38.341392140065174
 30
0.0
 66
     1
 70
     8
  0
VERTEX
  8
SAPA_FOGBAND
  5
2AEB
 10
18.9831
 20
-38.3414
 30
0.000000
  70
    32
  0
VERTEX
  8
SAPA_FOGBAND
  5
2AEC
 10
19.1449
 20
-38.3450
 30
0.000000
  70
    32
  0
VERTEX
  8
SAPA_FOGBAND
  5
2AED
 10
19.3063
 20
-38.3527
 30
0.000000
  70
    32
  0
VERTEX
  8
SAPA_FOGBAND
  5
2AEE
 10
19.4669
 20
-38.3645
 30
0.000000
  70
    32
  0
VERTEX
  8
SAPA_FOGBAND
  5
2AEF
 10
19.6262
 20
-38.3802
 30
0.000000
  70
    32
  0
VERTEX
  8
SAPA_FOGBAND
  5
2AF0
 10
19.7840
 20
-38.3999
 30
0.000000
  70
    32
  0
VERTEX
  8
SAPA_FOGBAND
  5
2AF1
 10
19.9398
 20
-38.4236
 30
0.000000
  70
    32
  0
VERTEX
  8
SAPA_FOGBAND
  5
2AF2
 10
20.0933
 20
-38.4511
 30
0.000000
  70
    32
  0
VERTEX
  8
SAPA_FOGBAND
  5
2AF3
 10
20.2440
 20
-38.4824
 30
0.000000
  70
    32
  0
VERTEX
  8
SAPA_FOGBAND
  5
2AF4
 10
20.3917
 20
-38.5175
 30
0.000000
  70
    32
  0
VERTEX
  8
SAPA_FOGBAND
  5
2AF5
 10
20.5359
 20
-38.5561
 30
0.000000
  70
    32
  0
VERTEX
  8
SAPA_FOGBAND
  5
2AF6
 10
20.6764
 20
-38.5984
 30
0.000000
  70
    32
  0
VERTEX
  8
SAPA_FOGBAND
  5
2AF7
 10
20.8127
 20
-38.6440
 30
0.000000
  70
    32
  0
VERTEX
  8
SAPA_FOGBAND
  5
2AF8
 10
20.9446
 20
-38.6931
 30
0.000000
  70
    32
  0
VERTEX
  8
SAPA_FOGBAND
  5
2AF9
 10
21.0717
 20
-38.7453
 30
0.000000
  70
    32
  0
VERTEX
  8
SAPA_FOGBAND
  5
2AFA
 10
21.1937
 20
-38.8006
 30
0.000000
  70
    32
  0
VERTEX
  8
SAPA_FOGBAND
  5
2AFB
 10
21.3104
 20
-38.8589
 30
0.000000
  70
    32
  0
VERTEX
  8
SAPA_FOGBAND
  5
2AFC
 10
21.4214
 20
-38.9200
 30
0.000000
  70
    32
  0
VERTEX
  8
SAPA_FOGBAND
  5
2AFD
 10
21.5266
 20
-38.9838
 30
0.000000
  70
    32
  0
VERTEX
  8
SAPA_FOGBAND
  5
2AFE
 10
21.6255
 20
-39.0501
 30
0.000000
  70
    32
  0
VERTEX
  8
SAPA_FOGBAND
  5
2AFF
 10
21.7180
 20
-39.1187
 30
0.000000
  70
    32
  0
VERTEX
  8
SAPA_FOGBAND
  5
2B00
 10
21.8040
 20
-39.1896
 30
0.000000
  70
    32
  0
VERTEX
  8
SAPA_FOGBAND
  5
2B01
 10
21.8830
 20
-39.2624
 30
0.000000
  70
    32
  0
VERTEX
  8
SAPA_FOGBAND
  5
2B02
 10
21.9551
 20
-39.3371
 30
0.000000
  70
    32
  0
VERTEX
  8
SAPA_FOGBAND
  5
2B03
 10
22.0199
 20
-39.4135
 30
0.000000
  70
    32
  0
VERTEX
  8
SAPA_FOGBAND
  5
2B04
 10
22.0774
 20
-39.4914
 30
0.000000
  70
    32
  0
VERTEX
  8
SAPA_FOGBAND
  5
2B05
 10
22.1274
 20
-39.5705
 30
0.000000
  70
    32
  0
VERTEX
  8
SAPA_FOGBAND
  5
2B06
 10
22.1698
 20
-39.6508
 30
0.000000
  70
    32
  0
VERTEX
  8
SAPA_FOGBAND
  5
2B07
 10
22.2045
 20
-39.7320
 30
0.000000
  70
    32
  0
VERTEX
  8
SAPA_FOGBAND
  5
2B08
 10
22.2313
 20
-39.8139
 30
0.000000
  70
    32
  0
VERTEX
  8
SAPA_FOGBAND
  5
2B09
 10
22.2503
 20
-39.8963
 30
0.000000
  70
    32
  0
VERTEX
  8
SAPA_FOGBAND
  5
2B0A
 10
22.2614
 20
-39.9790
 30
0.000000
  70
    32
  0
VERTEX
  8
SAPA_FOGBAND
  5
2B0B
 10
22.2646
 20
-40.0618
 30
0.000000
  70
    32
  0
VERTEX
  8
SAPA_FOGBAND
  5
2B0C
 10
22.2598
 20
-40.1446
 30
0.000000
  70
    32
  0
VERTEX
  8
SAPA_FOGBAND
  5
2B0D
 10
22.2470
 20
-40.2271
 30
0.000000
  70
    32
  0
VERTEX
  8
SAPA_FOGBAND
  5
2B0E
 10
22.2264
 20
-40.3091
 30
0.000000
  70
    32
  0
VERTEX
  8
SAPA_FOGBAND
  5
2B0F
 10
22.1979
 20
-40.3904
 30
0.000000
  70
    32
  0
VERTEX
  8
SAPA_FOGBAND
  5
2B10
 10
22.1616
 20
-40.4709
 30
0.000000
  70
    32
  0
VERTEX
  8
SAPA_FOGBAND
  5
2B11
 10
22.1177
 20
-40.5503
 30
0.000000
  70
    32
  0
VERTEX
  8
SAPA_FOGBAND
  5
2B12
 10
22.0661
 20
-40.6285
 30
0.000000
  70
    32
  0
VERTEX
  8
SAPA_FOGBAND
  5
2B13
 10
22.0071
 20
-40.7052
 30
0.000000
  70
    32
  0
VERTEX
  8
SAPA_FOGBAND
  5
2B14
 10
21.9407
 20
-40.7802
 30
0.000000
  70
    32
  0
VERTEX
  8
SAPA_FOGBAND
  5
2B15
 10
21.8672
 20
-40.8535
 30
0.000000
  70
    32
  0
VERTEX
  8
SAPA_FOGBAND
  5
2B16
 10
21.7867
 20
-40.9248
 30
0.000000
  70
    32
  0
VERTEX
  8
SAPA_FOGBAND
  5
2B17
 10
21.6994
 20
-40.9939
 30
0.000000
  70
    32
  0
VERTEX
  8
SAPA_FOGBAND
  5
2B18
 10
21.6055
 20
-41.0607
 30
0.000000
  70
    32
  0
VERTEX
  8
SAPA_FOGBAND
  5
2B19
 10
21.5052
 20
-41.1250
 30
0.000000
  70
    32
  0
VERTEX
  8
SAPA_FOGBAND
  5
2B1A
 10
21.3989
 20
-41.1867
 30
0.000000
  70
    32
  0
VERTEX
  8
SAPA_FOGBAND
  5
2B1B
 10
21.2867
 20
-41.2455
 30
0.000000
  70
    32
  0
VERTEX
  8
SAPA_FOGBAND
  5
2B1C
 10
21.1688
 20
-41.3015
 30
0.000000
  70
    32
  0
VERTEX
  8
SAPA_FOGBAND
  5
2B1D
 10
21.0457
 20
-41.3544
 30
0.000000
  70
    32
  0
VERTEX
  8
SAPA_FOGBAND
  5
2B1E
 10
20.9176
 20
-41.4041
 30
0.000000
  70
    32
  0
VERTEX
  8
SAPA_FOGBAND
  5
2B1F
 10
20.7848
 20
-41.4504
 30
0.000000
  70
    32
  0
VERTEX
  8
SAPA_FOGBAND
  5
2B20
 10
20.6475
 20
-41.4934
 30
0.000000
  70
    32
  0
VERTEX
  8
SAPA_FOGBAND
  5
2B21
 10
20.5063
 20
-41.5328
 30
0.000000
  70
    32
  0
VERTEX
  8
SAPA_FOGBAND
  5
2B22
 10
20.3613
 20
-41.5686
 30
0.000000
  70
    32
  0
VERTEX
  8
SAPA_FOGBAND
  5
2B23
 10
20.2130
 20
-41.6007
 30
0.000000
  70
    32
  0
VERTEX
  8
SAPA_FOGBAND
  5
2B24
 10
20.0616
 20
-41.6290
 30
0.000000
  70
    32
  0
VERTEX
  8
SAPA_FOGBAND
  5
2B25
 10
19.9077
 20
-41.6535
 30
0.000000
  70
    32
  0
VERTEX
  8
SAPA_FOGBAND
  5
2B26
 10
19.7514
 20
-41.6740
 30
0.000000
  70
    32
  0
VERTEX
  8
SAPA_FOGBAND
  5
2B27
 10
19.5933
 20
-41.6906
 30
0.000000
  70
    32
  0
VERTEX
  8
SAPA_FOGBAND
  5
2B28
 10
19.4336
 20
-41.7032
 30
0.000000
  70
    32
  0
VERTEX
  8
SAPA_FOGBAND
  5
2B29
 10
19.2729
 20
-41.7117
 30
0.000000
  70
    32
  0
VERTEX
  8
SAPA_FOGBAND
  5
2B2A
 10
19.1114
 20
-41.7162
 30
0.000000
  70
    32
  0
VERTEX
  8
SAPA_FOGBAND
  5
2B2B
 10
18.9495
 20
-41.7166
 30
0.000000
  70
    32
  0
VERTEX
  8
SAPA_FOGBAND
  5
2B2C
 10
18.7877
 20
-41.7130
 30
0.000000
  70
    32
  0
VERTEX
  8
SAPA_FOGBAND
  5
2B2D
 10
18.6263
 20
-41.7053
 30
0.000000
  70
    32
  0
VERTEX
  8
SAPA_FOGBAND
  5
2B2E
 10
18.4657
 20
-41.6935
 30
0.000000
  70
    32
  0
VERTEX
  8
SAPA_FOGBAND
  5
2B2F
 10
18.3064
 20
-41.6778
 30
0.000000
  70
    32
  0
VERTEX
  8
SAPA_FOGBAND
  5
2B30
 10
18.1486
 20
-41.6581
 30
0.000000
  70
    32
  0
VERTEX
  8
SAPA_FOGBAND
  5
2B31
 10
17.9928
 20
-41.6344
 30
0.000000
  70
    32
  0
VERTEX
  8
SAPA_FOGBAND
  5
2B32
 10
17.8393
 20
-41.6069
 30
0.000000
  70
    32
  0
VERTEX
  8
SAPA_FOGBAND
  5
2B33
 10
17.6886
 20
-41.5756
 30
0.000000
  70
    32
  0
VERTEX
  8
SAPA_FOGBAND
  5
2B34
 10
17.5409
 20
-41.5406
 30
0.000000
  70
    32
  0
VERTEX
  8
SAPA_FOGBAND
  5
2B35
 10
17.3967
 20
-41.5019
 30
0.000000
  70
    32
  0
VERTEX
  8
SAPA_FOGBAND
  5
2B36
 10
17.2562
 20
-41.4596
 30
0.000000
  70
    32
  0
VERTEX
  8
SAPA_FOGBAND
  5
2B37
 10
17.1199
 20
-41.4140
 30
0.000000
  70
    32
  0
VERTEX
  8
SAPA_FOGBAND
  5
2B38
 10
16.9880
 20
-41.3650
 30
0.000000
  70
    32
  0
VERTEX
  8
SAPA_FOGBAND
  5
2B39
 10
16.8609
 20
-41.3127
 30
0.000000
  70
    32
  0
VERTEX
  8
SAPA_FOGBAND
  5
2B3A
 10
16.7389
 20
-41.2574
 30
0.000000
  70
    32
  0
VERTEX
  8
SAPA_FOGBAND
  5
2B3B
 10
16.6222
 20
-41.1991
 30
0.000000
  70
    32
  0
VERTEX
  8
SAPA_FOGBAND
  5
2B3C
 10
16.5112
 20
-41.1380
 30
0.000000
  70
    32
  0
VERTEX
  8
SAPA_FOGBAND
  5
2B3D
 10
16.4061
 20
-41.0742
 30
0.000000
  70
    32
  0
VERTEX
  8
SAPA_FOGBAND
  5
2B3E
 10
16.3071
 20
-41.0079
 30
0.000000
  70
    32
  0
VERTEX
  8
SAPA_FOGBAND
  5
2B3F
 10
16.2146
 20
-40.9393
 30
0.000000
  70
    32
  0
VERTEX
  8
SAPA_FOGBAND
  5
2B40
 10
16.1287
 20
-40.8685
 30
0.000000
  70
    32
  0
VERTEX
  8
SAPA_FOGBAND
  5
2B41
 10
16.0496
 20
-40.7956
 30
0.000000
  70
    32
  0
VERTEX
  8
SAPA_FOGBAND
  5
2B42
 10
15.9775
 20
-40.7209
 30
0.000000
  70
    32
  0
VERTEX
  8
SAPA_FOGBAND
  5
2B43
 10
15.9127
 20
-40.6445
 30
0.000000
  70
    32
  0
VERTEX
  8
SAPA_FOGBAND
  5
2B44
 10
15.8552
 20
-40.5666
 30
0.000000
  70
    32
  0
VERTEX
  8
SAPA_FOGBAND
  5
2B45
 10
15.8052
 20
-40.4875
 30
0.000000
  70
    32
  0
VERTEX
  8
SAPA_FOGBAND
  5
2B46
 10
15.7628
 20
-40.4072
 30
0.000000
  70
    32
  0
VERTEX
  8
SAPA_FOGBAND
  5
2B47
 10
15.7281
 20
-40.3260
 30
0.000000
  70
    32
  0
VERTEX
  8
SAPA_FOGBAND
  5
2B48
 10
15.7013
 20
-40.2442
 30
0.000000
  70
    32
  0
VERTEX
  8
SAPA_FOGBAND
  5
2B49
 10
15.6823
 20
-40.1617
 30
0.000000
  70
    32
  0
VERTEX
  8
SAPA_FOGBAND
  5
2B4A
 10
15.6712
 20
-40.0790
 30
0.000000
  70
    32
  0
VERTEX
  8
SAPA_FOGBAND
  5
2B4B
 10
15.6680
 20
-39.9962
 30
0.000000
  70
    32
  0
VERTEX
  8
SAPA_FOGBAND
  5
2B4C
 10
15.6728
 20
-39.9134
 30
0.000000
  70
    32
  0
VERTEX
  8
SAPA_FOGBAND
  5
2B4D
 10
15.6856
 20
-39.8309
 30
0.000000
  70
    32
  0
VERTEX
  8
SAPA_FOGBAND
  5
2B4E
 10
15.7062
 20
-39.7489
 30
0.000000
  70
    32
  0
VERTEX
  8
SAPA_FOGBAND
  5
2B4F
 10
15.7347
 20
-39.6676
 30
0.000000
  70
    32
  0
VERTEX
  8
SAPA_FOGBAND
  5
2B50
 10
15.7710
 20
-39.5871
 30
0.000000
  70
    32
  0
VERTEX
  8
SAPA_FOGBAND
  5
2B51
 10
15.8149
 20
-39.5077
 30
0.000000
  70
    32
  0
VERTEX
  8
SAPA_FOGBAND
  5
2B52
 10
15.8665
 20
-39.4296
 30
0.000000
  70
    32
  0
VERTEX
  8
SAPA_FOGBAND
  5
2B53
 10
15.9255
 20
-39.3529
 30
0.000000
  70
    32
  0
VERTEX
  8
SAPA_FOGBAND
  5
2B54
 10
15.9919
 20
-39.2778
 30
0.000000
  70
    32
  0
VERTEX
  8
SAPA_FOGBAND
  5
2B55
 10
16.0654
 20
-39.2045
 30
0.000000
  70
    32
  0
VERTEX
  8
SAPA_FOGBAND
  5
2B56
 10
16.1459
 20
-39.1332
 30
0.000000
  70
    32
  0
VERTEX
  8
SAPA_FOGBAND
  5
2B57
 10
16.2332
 20
-39.0641
 30
0.000000
  70
    32
  0
VERTEX
  8
SAPA_FOGBAND
  5
2B58
 10
16.3271
 20
-38.9973
 30
0.000000
  70
    32
  0
VERTEX
  8
SAPA_FOGBAND
  5
2B59
 10
16.4274
 20
-38.9330
 30
0.000000
  70
    32
  0
VERTEX
  8
SAPA_FOGBAND
  5
2B5A
 10
16.5337
 20
-38.8713
 30
0.000000
  70
    32
  0
VERTEX
  8
SAPA_FOGBAND
  5
2B5B
 10
16.6460
 20
-38.8125
 30
0.000000
  70
    32
  0
VERTEX
  8
SAPA_FOGBAND
  5
2B5C
 10
16.7638
 20
-38.7565
 30
0.000000
  70
    32
  0
VERTEX
  8
SAPA_FOGBAND
  5
2B5D
 10
16.8869
 20
-38.7036
 30
0.000000
  70
    32
  0
VERTEX
  8
SAPA_FOGBAND
  5
2B5E
 10
17.0150
 20
-38.6539
 30
0.000000
  70
    32
  0
VERTEX
  8
SAPA_FOGBAND
  5
2B5F
 10
17.1479
 20
-38.6076
 30
0.000000
  70
    32
  0
VERTEX
  8
SAPA_FOGBAND
  5
2B60
 10
17.2851
 20
-38.5646
 30
0.000000
  70
    32
  0
VERTEX
  8
SAPA_FOGBAND
  5
2B61
 10
17.4263
 20
-38.5252
 30
0.000000
  70
    32
  0
VERTEX
  8
SAPA_FOGBAND
  5
2B62
 10
17.5713
 20
-38.4894
 30
0.000000
  70
    32
  0
VERTEX
  8
SAPA_FOGBAND
  5
2B63
 10
17.7196
 20
-38.4573
 30
0.000000
  70
    32
  0
VERTEX
  8
SAPA_FOGBAND
  5
2B64
 10
17.8710
 20
-38.4290
 30
0.000000
  70
    32
  0
VERTEX
  8
SAPA_FOGBAND
  5
2B65
 10
18.0249
 20
-38.4045
 30
0.000000
  70
    32
  0
VERTEX
  8
SAPA_FOGBAND
  5
2B66
 10
18.1812
 20
-38.3840
 30
0.000000
  70
    32
  0
VERTEX
  8
SAPA_FOGBAND
  5
2B67
 10
18.3393
 20
-38.3674
 30
0.000000
  70
    32
  0
VERTEX
  8
SAPA_FOGBAND
  5
2B68
 10
18.4990
 20
-38.3548
 30
0.000000
  70
    32
  0
VERTEX
  8
SAPA_FOGBAND
  5
2B69
 10
18.6597
 20
-38.3463
 30
0.000000
  70
    32
  0
VERTEX
  8
SAPA_FOGBAND
  5
2B6A
 10
18.8212
 20
-38.3418
 30
0.000000
  70
    32
  0
VERTEX
  8
SAPA_FOGBAND
  5
2B6B
 10
18.9831
 20
-38.3414
 30
0.000000
  70
    32
  0
SEQEND
  8
SAPA_FOGBAND
  5
2B6C
  0
POLYLINE
  5
1840
  8
SAPA_FOGBAND
 66
     1
 10
0.0
 20
0.0
 30
0.0
 70
     1
  0
VERTEX
  5
29BA
  8
SAPA_FOGBAND
 10
8.8913247649945788
 20
-42.953324864972039
 30
0.0
  0
VERTEX
  5
29BB
  8
SAPA_FOGBAND
 10
11.892651927563969
 20
-43.44527720486235
 30
0.0
 42
0.4464785874932524
  0
VERTEX
  5
29BC
  8
SAPA_FOGBAND
 10
13.001327184515731
 20
-42.451199899756602
 30
0.0
  0
VERTEX
  5
29BD
  8
SAPA_FOGBAND
 10
13.001327184515731
 20
-39.350147745599088
 30
0.0
 42
0.622676997742357
  0
VERTEX
  5
29BE
  8
SAPA_FOGBAND
 10
11.39065269790194
 20
-38.558266017435699
 30
0.0
  0
VERTEX
  5
29BF
  8
SAPA_FOGBAND
 10
8.3893255353325458
 20
-41.033301339952907
 30
0.0
 42
0.6488456670267916
  0
VERTEX
  5
29C0
  8
SAPA_FOGBAND
 10
8.8913247649945788
 20
-42.953324864972039
 30
0.0
  0
VERTEX
  5
29C1
  8
SAPA_FOGBAND
 10
8.8913247649945788
 20
-42.953324864972039
 30
0.0
 42
0.7183425420956111
  0
SEQEND
  5
29C2
  8
SAPA_FOGBAND
  0
LINE
  5
1841
  8
SAPA_FOGBAND
 10
-48.500000257789189
 20
8.5012846353587648
 30
0.0
 11
-48.500000257789189
 21
8.5012846353587648
 31
0.0
  0
DIMENSION
  5
184A
  8
SAPA_MATT
  2
*D174
 10
-116.9999999999347
 20
-125.65375231270581
 30
0.0
 11
-98.750000001006555
 21
-123.15375231270581
 31
0.0
 70
     0
 13
-80.500000002078366
 23
-81.998715298616148
 33
0.0
 14
-116.9999999999347
 24
-82.000000003840427
 34
0.0
 50
180.0
1001
ACAD
1000
DSTYLE
1002
{
1070
   287
1070
     4
1070
    40
1040
1.0
1070
   279
1070
     1
1002
}
  0
DIMENSION
  5
184B
  8
SAPA_MATT
  2
*D173
 10
-80.500000002078366
 20
-125.65375231270581
 30
0.0
 11
-78.000000000989175
 21
-123.15375231270581
 31
0.0
 70
     0
 13
-75.499999999900012
 23
-81.998715294908109
 33
0.0
 14
-80.500000002078366
 24
-81.998715298616148
 34
0.0
 50
180.0
1001
ACAD
1000
DSTYLE
1002
{
1070
   287
1070
     4
1070
    40
1040
1.0
1070
   279
1070
     1
1002
}
  0
DIMENSION
  5
184C
  8
SAPA_MATT
  2
*D172
 10
-75.499999999900012
 20
-125.65375231270581
 30
0.0
 11
-50.24999999995017
 21
-123.15375231270581
 31
0.0
 70
     0
 13
-25.000000000000341
 23
-105.9999999990105
 33
0.0
 14
-75.499999999900012
 24
-81.998715294908109
 34
0.0
 50
180.0
1001
ACAD
1000
DSTYLE
1002
{
1070
   287
1070
     4
1070
    40
1040
1.0
1070
   279
1070
     1
1002
}
  0
DIMENSION
  5
184D
  8
SAPA_MATT
  2
*D171
 10
-25.000000000000341
 20
-125.65375231270581
 30
0.0
 11
-0.0000000000003409
 21
-123.15375231270581
 31
0.0
 70
     0
 13
24.999999999999659
 23
-105.9999999990104
 33
0.0
 14
-25.000000000000341
 24
-105.9999999990104
 34
0.0
 50
180.0
1001
ACAD
1000
DSTYLE
1002
{
1070
    40
1040
1.0
1002
}
  0
VIEWPORT
  5
C4
 67
     1
  8
0
 10
143.06236603067589
 20
116.00969601843509
 30
0.0
 40
369.98580003443811
 41
256.8421457311839
 68
     1
 69
     1
1001
ACAD
1000
MVIEW
1002
{
1070
    16
1010
0.0
1020
0.0
1030
0.0
1010
0.0
1020
0.0
1030
1.0
1040
0.0
1040
256.8421457311839
1040
99.112914085388169
1040
143.07606935501099
1040
50.0
1040
0.0
1040
0.0
1070
     0
1070
     0
1070
     1
1070
     1
1070
     0
1070
     0
1070
     0
1070
     0
1040
0.0
1040
0.0
1040
0.0
1040
10.0
1040
10.0
1040
10.0
1040
10.0
1070
     0
1002
{
1002
}
1002
}
  0
ENDSEC
  0
EOF
