  0
SECTION
  2
HEADER
  9
$ACADVER
  1
AC1009
  9
$INSBASE
 10
0.0
 20
0.0
 30
0.0
  9
$EXTMIN
 10
-75.551914392872376
 20
-127.15375231270581
 30
0.0
  9
$EXTMAX
 10
133.62503425618289
 20
86.711765638890114
 30
0.0000000195376815
  9
$LIMMIN
 10
0.0
 20
0.0
  9
$LIMMAX
 10
790.0
 20
790.0
  9
$ORTHOMODE
 70
     0
  9
$REGENMODE
 70
     1
  9
$FILLMODE
 70
     1
  9
$QTEXTMODE
 70
     0
  9
$MIRRTEXT
 70
     1
  9
$DRAGMODE
 70
     2
  9
$LTSCALE
 40
4.0
  9
$OSMODE
 70
   167
  9
$ATTMODE
 70
     1
  9
$TEXTSIZE
 40
3.5
  9
$TRACEWID
 40
0.05
  9
$TEXTSTYLE
  7
ISO
  9
$CLAYER
  8
0
  9
$CELTYPE
  6
BYLAYER
  9
$CECOLOR
 62
   256
  9
$DIMSCALE
 40
0.0
  9
$DIMASZ
 40
3.0
  9
$DIMEXO
 40
1.5
  9
$DIMDLI
 40
10.0
  9
$DIMRND
 40
0.0
  9
$DIMDLE
 40
0.0
  9
$DIMEXE
 40
1.5
  9
$DIMTP
 40
0.0
  9
$DIMTM
 40
0.0
  9
$DIMTXT
 40
3.0
  9
$DIMCEN
 40
-5.0
  9
$DIMTSZ
 40
0.0
  9
$DIMTOL
 70
     0
  9
$DIMLIM
 70
     0
  9
$DIMTIH
 70
     0
  9
$DIMTOH
 70
     0
  9
$DIMSE1
 70
     0
  9
$DIMSE2
 70
     0
  9
$DIMTAD
 70
     1
  9
$DIMZIN
 70
     8
  9
$DIMBLK
  1

  9
$DIMASO
 70
     1
  9
$DIMSHO
 70
     1
  9
$DIMPOST
  1

  9
$DIMAPOST
  1

  9
$DIMALT
 70
     0
  9
$DIMALTD
 70
     0
  9
$DIMALTF
 40
25.399999999999999
  9
$DIMLFAC
 40
-1.0
  9
$DIMTOFL
 70
     1
  9
$DIMTVP
 40
0.0
  9
$DIMTIX
 70
     0
  9
$DIMSOXD
 70
     0
  9
$DIMSAH
 70
     0
  9
$DIMBLK1
  1

  9
$DIMBLK2
  1

  9
$DIMSTYLE
  2
MASKIN
  9
$DIMCLRD
 70
   256
  9
$DIMCLRE
 70
   256
  9
$DIMCLRT
 70
     2
  9
$DIMTFAC
 40
1.0
  9
$DIMGAP
 40
1.0
  9
$LUNITS
 70
     2
  9
$LUPREC
 70
     8
  9
$SKETCHINC
 40
0.1
  9
$FILLETRAD
 40
0.0
  9
$AUNITS
 70
     0
  9
$AUPREC
 70
     8
  9
$MENU
  1
ACAD
  9
$ELEVATION
 40
0.0
  9
$PELEVATION
 40
0.0
  9
$THICKNESS
 40
0.0
  9
$LIMCHECK
 70
     0
  9
$BLIPMODE
 70
     0
  9
$CHAMFERA
 40
0.0
  9
$CHAMFERB
 40
0.0
  9
$SKPOLY
 70
     0
  9
$TDCREATE
 40
2454859.5577701968
  9
$TDUPDATE
 40
2458453.4754204862
  9
$TDINDWG
 40
0.0168291435
  9
$TDUSRTIMER
 40
0.0168289583
  9
$USRTIMER
 70
     1
  9
$ANGBASE
 50
0.0
  9
$ANGDIR
 70
     0
  9
$PDMODE
 70
     0
  9
$PDSIZE
 40
0.0
  9
$PLINEWID
 40
0.0
  9
$COORDS
 70
     1
  9
$SPLFRAME
 70
     0
  9
$SPLINETYPE
 70
     6
  9
$SPLINESEGS
 70
     8
  9
$ATTDIA
 70
     1
  9
$ATTREQ
 70
     1
  9
$HANDLING
 70
     1
  9
$HANDSEED
  5
2C64
  9
$SURFTAB1
 70
     6
  9
$SURFTAB2
 70
     6
  9
$SURFTYPE
 70
     6
  9
$SURFU
 70
     6
  9
$SURFV
 70
     6
  9
$UCSNAME
  2

  9
$UCSORG
 10
0.0
 20
0.0
 30
0.0
  9
$UCSXDIR
 10
1.0
 20
0.0
 30
0.0
  9
$UCSYDIR
 10
0.0
 20
1.0
 30
0.0
  9
$PUCSNAME
  2

  9
$PUCSORG
 10
0.0
 20
0.0
 30
0.0
  9
$PUCSXDIR
 10
1.0
 20
0.0
 30
0.0
  9
$PUCSYDIR
 10
0.0
 20
1.0
 30
0.0
  9
$USERI1
 70
     0
  9
$USERI2
 70
     0
  9
$USERI3
 70
     0
  9
$USERI4
 70
     0
  9
$USERI5
 70
     0
  9
$USERR1
 40
0.0
  9
$USERR2
 40
0.0
  9
$USERR3
 40
0.0
  9
$USERR4
 40
0.0
  9
$USERR5
 40
0.0
  9
$WORLDVIEW
 70
     1
  9
$SHADEDGE
 70
     3
  9
$SHADEDIF
 70
    70
  9
$TILEMODE
 70
     1
  9
$MAXACTVP
 70
    16
  9
$PLIMCHECK
 70
     0
  9
$PEXTMIN
 10
1.0000000000000000E+020
 20
1.0000000000000000E+020
 30
1.0000000000000000E+020
  9
$PEXTMAX
 10
-1.0000000000000000E+020
 20
-1.0000000000000000E+020
 30
-1.0000000000000000E+020
  9
$PLIMMIN
 10
-5.069427490234375
 20
-5.8737497329711914
  9
$PLIMMAX
 10
291.89889526367187
 20
204.0995779037475
  9
$UNITMODE
 70
     0
  9
$VISRETAIN
 70
     1
  9
$PLINEGEN
 70
     0
  9
$PSLTSCALE
 70
     1
  0
ENDSEC
  0
SECTION
  2
TABLES
  0
TABLE
  2
VPORT
 70
     1
  0
VPORT
  2
*ACTIVE
 70
     0
 10
0.0
 20
0.0
 11
1.0
 21
1.0
 12
94.067713707239022
 22
133.66418993777191
 13
0.0
 23
0.0
 14
1.0
 24
1.0
 15
0.0
 25
0.0
 16
0.0
 26
0.0
 36
1.0
 17
0.0
 27
0.0
 37
0.0
 40
396.40376279670818
 41
1.7265193370165739
 42
50.0
 43
0.0
 44
0.0
 50
0.0
 51
0.0
 71
     0
 72
   100
 73
     1
 74
     1
 75
     0
 76
     0
 77
     0
 78
     0
  0
ENDTAB
  0
TABLE
  2
LTYPE
 70
    60
  0
LTYPE
  2
CONTINUOUS
 70
     0
  3
Solid line
 72
    65
 73
     0
 40
0.0
  0
LTYPE
  2
BYGG-01482201$0$NEWDOT
 70
     0
  3
____ . ____ . ____ . ____ . ____ . ____ . ____
 72
    65
 73
     4
 40
2.0
 49
1.0
 49
-0.5
 49
0.0
 49
-0.5
  0
LTYPE
  2
BYGG-014357$0$NEWDOT
 70
     0
  3
____ . ____ . ____ . ____ . ____ . ____ . ____
 72
    65
 73
     4
 40
2.0
 49
1.0
 49
-0.5
 49
0.0
 49
-0.5
  0
LTYPE
  2
BYGG-014357$0$DASHDOT
 70
     0
  3
__ . __ . __ . __ . __ . __ . __ . __ . __ . __
 72
    65
 73
     4
 40
1.0
 49
0.5
 49
-0.25
 49
0.0
 49
-0.25
  0
LTYPE
  2
BYGG-014357$0$DASHED
 70
     0
  3
__ __ __ __ __ __ __ __ __ __ __ __ __ __ __
 72
    65
 73
     2
 40
0.75
 49
0.5
 49
-0.25
  0
LTYPE
  2
BYGG-014279$0$NEWDOT
 70
     0
  3
____ . ____ . ____ . ____ . ____ . ____ . ____
 72
    65
 73
     4
 40
2.0
 49
1.0
 49
-0.5
 49
0.0
 49
-0.5
  0
LTYPE
  2
BYGG-01482201$0$ZIGZAG
 70
     0
  3
Zig zag /\/\/\/\/\/\/\/\/\/\/\/\/\/\/\/\/\/\/\/\/\/\/\/
 72
    65
 73
     4
 40
20.32254
 49
0.00254
 49
-5.0800000000000001
 49
-10.16
 49
-5.0800000000000001
  0
LTYPE
  2
BYGG-014279$0$ZIGZAG
 70
     0
  3
Zig zag /\/\/\/\/\/\/\/\/\/\/\/\/\/\/\/\/\/\/\/\/\/\/\/
 72
    65
 73
     4
 40
20.32254
 49
0.00254
 49
-5.0800000000000001
 49
-10.16
 49
-5.0800000000000001
  0
LTYPE
  2
BYGG-024756$0$NEWDOT
 70
     0
  3
____ . ____ . ____ . ____ . ____ . ____ . ____
 72
    65
 73
     4
 40
2.0
 49
1.0
 49
-0.5
 49
0.0
 49
-0.5
  0
LTYPE
  2
BYGG-024756$0$DASHDOT
 70
     0
  3
__ . __ . __ . __ . __ . __ . __ . __ . __ . __
 72
    65
 73
     4
 40
1.0
 49
0.5
 49
-0.25
 49
0.0
 49
-0.25
  0
LTYPE
  2
BYGG-024798$0$NEWDOT
 70
     0
  3
____ . ____ . ____ . ____ . ____ . ____ . ____
 72
    65
 73
     4
 40
2.0
 49
1.0
 49
-0.5
 49
0.0
 49
-0.5
  0
LTYPE
  2
BYGG-024799$0$NEWDOT
 70
     0
  3
____ . ____ . ____ . ____ . ____ . ____ . ____
 72
    65
 73
     4
 40
2.0
 49
1.0
 49
-0.5
 49
0.0
 49
-0.5
  0
LTYPE
  2
BYGG-024799$0$DASHDOT
 70
     0
  3
__ . __ . __ . __ . __ . __ . __ . __ . __ . __
 72
    65
 73
     4
 40
1.0
 49
0.5
 49
-0.25
 49
0.0
 49
-0.25
  0
LTYPE
  2
BYGG-020805$0$NEWDOT
 70
     0
  3
____ . ____ . ____ . ____ . ____ . ____ . ____
 72
    65
 73
     4
 40
2.0
 49
1.0
 49
-0.5
 49
0.0
 49
-0.5
  0
LTYPE
  2
BYGG-020805$0$DASHDOT
 70
     0
  3
__ . __ . __ . __ . __ . __ . __ . __ . __ . __
 72
    65
 73
     4
 40
1.0
 49
0.5
 49
-0.25
 49
0.0
 49
-0.25
  0
LTYPE
  2
BYGG-020805$0$DASHED
 70
     0
  3
__ __ __ __ __ __ __ __ __ __ __ __ __ __ __
 72
    65
 73
     2
 40
0.75
 49
0.5
 49
-0.25
  0
LTYPE
  2
BYGG-020805$0$PHANTOM
 70
     0
  3
Phantom ______  __  __  ______  __  __  ______
 72
    65
 73
     6
 40
63.5
 49
31.75
 49
-6.3499999999999988
 49
6.3499999999999988
 49
-6.3499999999999988
 49
6.3499999999999988
 49
-6.3499999999999988
  0
LTYPE
  2
BYGG-025652$0$NEWDOT
 70
     0
  3
____ . ____ . ____ . ____ . ____ . ____ . ____
 72
    65
 73
     4
 40
2.0
 49
1.0
 49
-0.5
 49
0.0
 49
-0.5
  0
LTYPE
  2
BYGG-025652$0$DASHDOT
 70
     0
  3
__ . __ . __ . __ . __ . __ . __ . __ . __ . __
 72
    65
 73
     4
 40
1.0
 49
0.5
 49
-0.25
 49
0.0
 49
-0.25
  0
LTYPE
  2
BYGG-025652$0$DASHED
 70
     0
  3
__ __ __ __ __ __ __ __ __ __ __ __ __ __ __
 72
    65
 73
     2
 40
0.75
 49
0.5
 49
-0.25
  0
LTYPE
  2
BYGG-025652$0$PHANTOM
 70
     0
  3
Phantom ______  __  __  ______  __  __  ______
 72
    65
 73
     6
 40
63.5
 49
31.75
 49
-6.3499999999999988
 49
6.3499999999999988
 49
-6.3499999999999988
 49
6.3499999999999988
 49
-6.3499999999999988
  0
LTYPE
  2
BYGG-014411$0$NEWDOT
 70
     0
  3
____ . ____ . ____ . ____ . ____ . ____ . ____
 72
    65
 73
     4
 40
2.0
 49
1.0
 49
-0.5
 49
0.0
 49
-0.5
  0
LTYPE
  2
BYGG-014411$0$ZIGZAG
 70
     0
  3
Zig zag /\/\/\/\/\/\/\/\/\/\/\/\/\/\/\/\/\/\/\/\/\/\/\/
 72
    65
 73
     4
 40
20.32254
 49
0.00254
 49
-5.0800000000000001
 49
-10.16
 49
-5.0800000000000001
  0
LTYPE
  2
BYGG-036624$0$NEWDOT
 70
     0
  3
____ . ____ . ____ . ____ . ____ . ____ . ____
 72
    65
 73
     4
 40
2.0
 49
1.0
 49
-0.5
 49
0.0
 49
-0.5
  0
LTYPE
  2
BYGG-036624$0$DASHDOT
 70
     0
  3
__ . __ . __ . __ . __ . __ . __ . __ . __ . __
 72
    65
 73
     4
 40
1.0
 49
0.5
 49
-0.25
 49
0.0
 49
-0.25
  0
LTYPE
  2
BYGG-036624$0$DASHED
 70
     0
  3
__ __ __ __ __ __ __ __ __ __ __ __ __ __ __
 72
    65
 73
     2
 40
0.75
 49
0.5
 49
-0.25
  0
LTYPE
  2
BYGG-036624$0$PHANTOM
 70
     0
  3
Phantom ______  __  __  ______  __  __  ______
 72
    65
 73
     6
 40
63.5
 49
31.75
 49
-6.3499999999999988
 49
6.3499999999999988
 49
-6.3499999999999988
 49
6.3499999999999988
 49
-6.3499999999999988
  0
LTYPE
  2
BYGG-036419$0$NEWDOT
 70
     0
  3
____ . ____ . ____ . ____ . ____ . ____ . ____
 72
    65
 73
     4
 40
2.0
 49
1.0
 49
-0.5
 49
0.0
 49
-0.5
  0
LTYPE
  2
BYGG-036419$0$BYGG-024778|NEWDOT
 70
     0
  3
____ . ____ . ____ . ____ . ____ . ____ . ____
 72
    65
 73
     4
 40
2.0
 49
1.0
 49
-0.5
 49
0.0
 49
-0.5
  0
LTYPE
  2
BYGG-036419$0$BYGG-035431|NEWDOT
 70
     0
  3
____ . ____ . ____ . ____ . ____ . ____ . ____
 72
    65
 73
     4
 40
2.0
 49
1.0
 49
-0.5
 49
0.0
 49
-0.5
  0
LTYPE
  2
BYGG-036419$0$BYGG-0354310
 70
     0
  3
__ __ __ __ __ __ __ __ __ __ __ __ __ __ __
 72
    65
 73
     2
 40
0.75
 49
0.5
 49
-0.25
  0
LTYPE
  2
BYGG-036419$0$BYGG-0354311
 70
     0
  3
Zig zag /\/\/\/\/\/\/\/\/\/\/\/\/\/\/\/\/\/\/\/\/\/\/\/
 72
    65
 73
     4
 40
20.32254
 49
0.00254
 49
-5.0800000000000001
 49
-10.16
 49
-5.0800000000000001
  0
LTYPE
  2
BYGG-036419$0$BYGG-035435|NEWDOT
 70
     0
  3
____ . ____ . ____ . ____ . ____ . ____ . ____
 72
    65
 73
     4
 40
2.0
 49
1.0
 49
-0.5
 49
0.0
 49
-0.5
  0
LTYPE
  2
BYGG-036419$0$BYGG-014411|NEWDOT
 70
     0
  3
____ . ____ . ____ . ____ . ____ . ____ . ____
 72
    65
 73
     4
 40
2.0
 49
1.0
 49
-0.5
 49
0.0
 49
-0.5
  0
LTYPE
  2
BYGG-036419$0$BYGG-0144110
 70
     0
  3
Zig zag /\/\/\/\/\/\/\/\/\/\/\/\/\/\/\/\/\/\/\/\/\/\/\/
 72
    65
 73
     4
 40
20.32254
 49
0.00254
 49
-5.0800000000000001
 49
-10.16
 49
-5.0800000000000001
  0
LTYPE
  2
BYGG-036419$0$BYGG-024787|NEWDOT
 70
     0
  3
____ . ____ . ____ . ____ . ____ . ____ . ____
 72
    65
 73
     4
 40
2.0
 49
1.0
 49
-0.5
 49
0.0
 49
-0.5
  0
LTYPE
  2
BYGG-036419$0$BYGG-024788|NEWDOT
 70
     0
  3
____ . ____ . ____ . ____ . ____ . ____ . ____
 72
    65
 73
     4
 40
2.0
 49
1.0
 49
-0.5
 49
0.0
 49
-0.5
  0
LTYPE
  2
BYGG-036419$0$BYGG-024789|NEWDOT
 70
     0
  3
____ . ____ . ____ . ____ . ____ . ____ . ____
 72
    65
 73
     4
 40
2.0
 49
1.0
 49
-0.5
 49
0.0
 49
-0.5
  0
LTYPE
  2
BYGG-036419$0$BYGG-024817|NEWDOT
 70
     0
  3
____ . ____ . ____ . ____ . ____ . ____ . ____
 72
    65
 73
     4
 40
2.0
 49
1.0
 49
-0.5
 49
0.0
 49
-0.5
  0
LTYPE
  2
BYGG-036419$0$BYGG-024794|NEWDOT
 70
     0
  3
____ . ____ . ____ . ____ . ____ . ____ . ____
 72
    65
 73
     4
 40
2.0
 49
1.0
 49
-0.5
 49
0.0
 49
-0.5
  0
LTYPE
  2
BYGG-033167$0$NEWDOT
 70
     0
  3
____ . ____ . ____ . ____ . ____ . ____ . ____
 72
    65
 73
     4
 40
2.0
 49
1.0
 49
-0.5
 49
0.0
 49
-0.5
  0
LTYPE
  2
BYGG-033167$0$DASHDOT
 70
     0
  3
__ . __ . __ . __ . __ . __ . __ . __ . __ . __
 72
    65
 73
     4
 40
1.0
 49
0.5
 49
-0.25
 49
0.0
 49
-0.25
  0
LTYPE
  2
BYGG-033167$0$DASHED
 70
     0
  3
__ __ __ __ __ __ __ __ __ __ __ __ __ __ __
 72
    65
 73
     2
 40
0.75
 49
0.5
 49
-0.25
  0
LTYPE
  2
BYGG-033167$0$PHANTOM
 70
     0
  3
Phantom ______  __  __  ______  __  __  ______
 72
    65
 73
     6
 40
63.5
 49
31.75
 49
-6.3499999999999988
 49
6.3499999999999988
 49
-6.3499999999999988
 49
6.3499999999999988
 49
-6.3499999999999988
  0
LTYPE
  2
BYGG-033167$0$BYGG-020132$
 70
     0
  3
____ . ____ . ____ . ____ . ____ . ____ . ____
 72
    65
 73
     4
 40
2.0
 49
1.0
 49
-0.5
 49
0.0
 49
-0.5
  0
LTYPE
  2
BYGG-033167$0$BYGG-024943$
 70
     0
  3
____ . ____ . ____ . ____ . ____ . ____ . ____
 72
    65
 73
     4
 40
2.0
 49
1.0
 49
-0.5
 49
0.0
 49
-0.5
  0
LTYPE
  2
BYGG-026410$0$NEWDOT
 70
     0
  3
____ . ____ . ____ . ____ . ____ . ____ . ____
 72
    65
 73
     4
 40
2.0
 49
1.0
 49
-0.5
 49
0.0
 49
-0.5
  0
LTYPE
  2
BYGG-026410$0$DASHDOT
 70
     0
  3
__ . __ . __ . __ . __ . __ . __ . __ . __ . __
 72
    65
 73
     4
 40
1.0
 49
0.5
 49
-0.25
 49
0.0
 49
-0.25
  0
LTYPE
  2
BYGG-026410$0$DASHED
 70
     0
  3
__ __ __ __ __ __ __ __ __ __ __ __ __ __ __
 72
    65
 73
     2
 40
0.75
 49
0.5
 49
-0.25
  0
LTYPE
  2
BYGG-026410$0$PHANTOM
 70
     0
  3
Phantom ______  __  __  ______  __  __  ______
 72
    65
 73
     6
 40
63.5
 49
31.75
 49
-6.3499999999999988
 49
6.3499999999999988
 49
-6.3499999999999988
 49
6.3499999999999988
 49
-6.3499999999999988
  0
LTYPE
  2
BYGG-030185$0$PHANTOM2
 70
     0
  3
Phantom (.5x) ___ _ _ ___ _ _ ___ _ _ ___ _ _
 72
    65
 73
     6
 40
1.25
 49
0.625
 49
-0.125
 49
0.125
 49
-0.125
 49
0.125
 49
-0.125
  0
LTYPE
  2
BYGG-024798$0$DASHDOT
 70
     0
  3
__ . __ . __ . __ . __ . __ . __ . __ . __ . __
 72
    65
 73
     4
 40
1.0
 49
0.5
 49
-0.25
 49
0.0
 49
-0.25
  0
LTYPE
  2
BYGG-014089$0$PHANTOM2
 70
     0
  3
Phantom (.5x) ___ _ _ ___ _ _ ___ _ _ ___ _ _
 72
    65
 73
     6
 40
1.25
 49
0.625
 49
-0.125
 49
0.125
 49
-0.125
 49
0.125
 49
-0.125
  0
LTYPE
  2
BYGG-014108$0$PHANTOM2
 70
     0
  3
Phantom (.5x) ___ _ _ ___ _ _ ___ _ _ ___ _ _
 72
    65
 73
     6
 40
1.25
 49
0.625
 49
-0.125
 49
0.125
 49
-0.125
 49
0.125
 49
-0.125
  0
LTYPE
  2
BYGG-025652$0$PHANTOM2
 70
     0
  3
Phantom (.5x) ___ _ _ ___ _ _ ___ _ _ ___ _ _
 72
    65
 73
     6
 40
1.25
 49
0.625
 49
-0.125
 49
0.125
 49
-0.125
 49
0.125
 49
-0.125
  0
LTYPE
  2
BYGG-014411$0$PHANTOM2
 70
     0
  3
Phantom (.5x) ___ _ _ ___ _ _ ___ _ _ ___ _ _
 72
    65
 73
     6
 40
1.25
 49
0.625
 49
-0.125
 49
0.125
 49
-0.125
 49
0.125
 49
-0.125
  0
LTYPE
  2
BYGG-014090$0$PHANTOM2
 70
     0
  3
Phantom (.5x) ___ _ _ ___ _ _ ___ _ _ ___ _ _
 72
    65
 73
     6
 40
1.25
 49
0.625
 49
-0.125
 49
0.125
 49
-0.125
 49
0.125
 49
-0.125
  0
LTYPE
  2
BYGG-014088$0$PHANTOM2
 70
     0
  3
Phantom (.5x) ___ _ _ ___ _ _ ___ _ _ ___ _ _
 72
    65
 73
     6
 40
1.25
 49
0.625
 49
-0.125
 49
0.125
 49
-0.125
 49
0.125
 49
-0.125
  0
LTYPE
  2
BYGG-036419$0$DASHDOT
 70
     0
  3
__ . __ . __ . __ . __ . __ . __ . __ . __ . __
 72
    65
 73
     4
 40
1.0
 49
0.5
 49
-0.25
 49
0.0
 49
-0.25
  0
LTYPE
  2
BYGG-036419$0$PHANTOM2
 70
     0
  3
Phantom (.5x) ___ _ _ ___ _ _ ___ _ _ ___ _ _
 72
    65
 73
     6
 40
1.25
 49
0.625
 49
-0.125
 49
0.125
 49
-0.125
 49
0.125
 49
-0.125
  0
ENDTAB
  0
TABLE
  2
LAYER
 70
   349
  0
LAYER
  2
0
 70
     0
 62
     7
  6
CONTINUOUS
  0
LAYER
  2
DEFPOINTS
 70
     0
 62
     7
  6
CONTINUOUS
  0
LAYER
  2
SAPA_ARTIKELNR
 70
     0
 62
     4
  6
CONTINUOUS
  0
LAYER
  2
SAPA_LIGHT
 70
     1
 62
     1
  6
CONTINUOUS
  0
LAYER
  2
SAPA_FYLLNING
 70
     0
 62
     4
  6
CONTINUOUS
  0
LAYER
  2
SAPA_ISOLATOR
 70
     0
 62
     4
  6
CONTINUOUS
  0
LAYER
  2
SAPA_MATT
 70
     0
 62
     1
  6
CONTINUOUS
  0
LAYER
  2
SAPA_GLAS
 70
     0
 62
     4
  6
CONTINUOUS
  0
LAYER
  2
SAPA_FOGBAND
 70
     0
 62
     2
  6
CONTINUOUS
  0
LAYER
  2
SAPA_PROFIL
 70
     0
 62
     7
  6
CONTINUOUS
  0
ENDTAB
  0
TABLE
  2
STYLE
 70
    73
  0
STYLE
  2
STANDARD
 70
     0
 40
0.0
 41
1.0
 50
0.0
 71
     0
 42
0.2
  3
txt
  4

  0
STYLE
  2
ISO
 70
     0
 40
0.0
 41
1.0
 50
0.0
 71
     0
 42
3.5
  3
txt
  4

  0
STYLE
  2

 70
     1
 40
0.0
 41
1.0
 50
0.0
 71
     0
 42
0.2
  3
ltypeshp.shx
  4

  0
STYLE
  2
BYGG-021589$0$STANDARD
 70
     0
 40
0.0
 41
1.0
 50
0.0
 71
     0
 42
0.2
  3
txt
  4

  0
STYLE
  2
BYGG-021589$0$ISO
 70
     0
 40
0.0
 41
1.0
 50
0.0
 71
     0
 42
3.5
  3
isocp3.shx
  4

  0
STYLE
  2
BYGG-01482201$0$STANDARD
 70
     0
 40
0.0
 41
1.0
 50
0.0
 71
     0
 42
0.2
  3
txt
  4

  0
STYLE
  2
BYGG-01482201$0$ISO
 70
     0
 40
0.0
 41
1.0
 50
0.0
 71
     0
 42
3.5
  3
isocp3.shx
  4

  0
STYLE
  2
BYGG-021802$0$STANDARD
 70
     0
 40
0.0
 41
1.0
 50
0.0
 71
     0
 42
0.2
  3
txt
  4

  0
STYLE
  2
BYGG-021802$0$ISO
 70
     0
 40
0.0
 41
1.0
 50
0.0
 71
     0
 42
3.5
  3
isocp3.shx
  4

  0
STYLE
  2
BYGG-014357$0$STANDARD
 70
     0
 40
0.0
 41
1.0
 50
0.0
 71
     0
 42
0.2
  3
txt
  4

  0
STYLE
  2
BYGG-014357$0$ISO
 70
     0
 40
0.0
 41
1.0
 50
0.0
 71
     0
 42
3.5
  3
isocp3.shx
  4

  0
STYLE
  2
BYGG-014063$0$STANDARD
 70
     0
 40
0.0
 41
1.0
 50
0.0
 71
     0
 42
0.2
  3
txt
  4

  0
STYLE
  2
BYGG-014063$0$ISO
 70
     0
 40
0.0
 41
1.0
 50
0.0
 71
     0
 42
3.5
  3
isocp3.shx
  4

  0
STYLE
  2
BYGG-021582$0$STANDARD
 70
     0
 40
0.0
 41
1.0
 50
0.0
 71
     0
 42
0.2
  3
txt
  4

  0
STYLE
  2
BYGG-021582$0$ISO
 70
     0
 40
0.0
 41
1.0
 50
0.0
 71
     0
 42
3.5
  3
isocp3.shx
  4

  0
STYLE
  2
BYGG-014279$0$STANDARD
 70
     0
 40
0.0
 41
1.0
 50
0.0
 71
     0
 42
0.2
  3
TXT.shx
  4

  0
STYLE
  2
BYGG-014279$0$ISO
 70
     0
 40
0.0
 41
1.0
 50
0.0
 71
     0
 42
3.5
  3
iso
  4

  0
STYLE
  2
BYGG-022676$0$STANDARD
 70
     0
 40
0.0
 41
1.0
 50
0.0
 71
     0
 42
0.2
  3
txt
  4

  0
STYLE
  2
BYGG-022676$0$ISO
 70
     0
 40
0.0
 41
1.0
 50
0.0
 71
     0
 42
3.5
  3
txt
  4

  0
STYLE
  2
BYGG-022676$0$ANNOTATIVE
 70
     0
 40
0.0
 41
1.0
 50
0.0
 71
     0
 42
0.2
  3
txt
  4

  0
STYLE
  2
BYGG-025109$0$STANDARD
 70
     0
 40
0.0
 41
1.0
 50
0.0
 71
     0
 42
0.2
  3
txt
  4

  0
STYLE
  2
BYGG-025109$0$ISO
 70
     0
 40
0.0
 41
1.0
 50
0.0
 71
     0
 42
3.5
  3
txt
  4

  0
STYLE
  2
BYGG-020805$0$STANDARD
 70
     0
 40
0.0
 41
1.0
 50
0.0
 71
     0
 42
0.2
  3
txt
  4

  0
STYLE
  2
BYGG-020805$0$ISO
 70
     0
 40
0.0
 41
1.0
 50
0.0
 71
     0
 42
3.5
  3
txt
  4

  0
STYLE
  2
BYGG-026395$0$STANDARD
 70
     0
 40
0.0
 41
1.0
 50
0.0
 71
     0
 42
0.2
  3
txt
  4

  0
STYLE
  2
BYGG-026395$0$ISO
 70
     0
 40
0.0
 41
1.0
 50
0.0
 71
     0
 42
3.5
  3
isocp3.shx
  4

  0
STYLE
  2
BYGG-022681$0$STANDARD
 70
     0
 40
0.0
 41
1.0
 50
0.0
 71
     0
 42
0.2
  3
txt
  4

  0
STYLE
  2
BYGG-022681$0$ISO
 70
     0
 40
0.0
 41
1.0
 50
0.0
 71
     0
 42
3.5
  3
txt
  4

  0
STYLE
  2
BYGG-014306$0$STANDARD
 70
     0
 40
0.0
 41
1.0
 50
0.0
 71
     0
 42
0.2
  3
txt
  4

  0
STYLE
  2
BYGG-030185$0$STANDARD
 70
     0
 40
0.0
 41
1.0
 50
0.0
 71
     0
 42
0.2
  3
txt
  4

  0
STYLE
  2
BYGG-030185$0$ISO
 70
     0
 40
0.0
 41
1.0
 50
0.0
 71
     0
 42
7.0
  3
ISO
  4

  0
STYLE
  2
BYGG-024798$0$STANDARD
 70
     0
 40
0.0
 41
1.0
 50
0.0
 71
     0
 42
0.2
  3
txt
  4

  0
STYLE
  2
BYGG-024798$0$ISO
 70
     0
 40
0.0
 41
1.0
 50
0.0
 71
     0
 42
3.5
  3
txt
  4

  0
STYLE
  2
BYGG-024799$0$STANDARD
 70
     0
 40
0.0
 41
1.0
 50
0.0
 71
     0
 42
0.2
  3
txt
  4

  0
STYLE
  2
BYGG-024799$0$ISO
 70
     0
 40
0.0
 41
1.0
 50
0.0
 71
     0
 42
3.5
  3
txt
  4

  0
STYLE
  2
BYGG-028980$0$STANDARD
 70
     0
 40
0.0
 41
1.0
 50
0.0
 71
     0
 42
0.2
  3
txt
  4

  0
STYLE
  2
BYGG-028980$0$ISO
 70
     0
 40
0.0
 41
1.0
 50
0.0
 71
     0
 42
3.5
  3
txt
  4

  0
STYLE
  2
BYGG-014089$0$STANDARD
 70
     0
 40
0.0
 41
1.0
 50
0.0
 71
     0
 42
0.2
  3
txt
  4

  0
STYLE
  2
BYGG-014089$0$ANNOTATIVE
 70
     0
 40
0.0
 41
1.0
 50
0.0
 71
     0
 42
3.5
  3
txt
  4

  0
STYLE
  2
BYGG-014108$0$STANDARD
 70
     0
 40
0.0
 41
1.0
 50
0.0
 71
     0
 42
0.4
  3
txt
  4

  0
STYLE
  2
BYGG-014108$0$SIMPLEX
 70
     0
 40
0.0
 41
1.0
 50
0.0
 71
     0
 42
0.2
  3
simplex
  4

  0
STYLE
  2
BYGG-019611$0$STANDARD
 70
     0
 40
0.0
 41
1.0
 50
0.0
 71
     0
 42
0.2
  3
txt
  4

  0
STYLE
  2
BYGG-019611$0$ISO
 70
     0
 40
0.0
 41
1.0
 50
0.0
 71
     0
 42
3.5
  3
txt
  4

  0
STYLE
  2
BYGG-025652$0$STANDARD
 70
     0
 40
0.0
 41
1.0
 50
0.0
 71
     0
 42
0.2
  3
txt
  4

  0
STYLE
  2
BYGG-025652$0$ISO
 70
     0
 40
0.0
 41
1.0
 50
0.0
 71
     0
 42
3.5
  3
txt
  4

  0
STYLE
  2
BYGG-025652$0$ANNOTATIVE
 70
     0
 40
0.0
 41
1.0
 50
0.0
 71
     0
 42
0.2
  3
txt
  4

  0
STYLE
  2
BYGG-014411$0$STANDARD
 70
     0
 40
0.0
 41
1.0
 50
0.0
 71
     0
 42
0.2
  3
txt
  4

  0
STYLE
  2
BYGG-014411$0$ISO
 70
     0
 40
0.0
 41
1.0
 50
0.0
 71
     0
 42
3.5
  3
isocp3.shx
  4

  0
STYLE
  2
BYGG-014090$0$STANDARD
 70
     0
 40
0.0
 41
1.0
 50
0.0
 71
     0
 42
0.2
  3
txt
  4

  0
STYLE
  2
BYGG-014090$0$SIMPLEX
 70
     0
 40
0.0
 41
1.0
 50
0.0
 71
     0
 42
0.2
  3
simplex
  4

  0
STYLE
  2
BYGG-014088$0$STANDARD
 70
     0
 40
0.0
 41
1.0
 50
0.0
 71
     0
 42
0.4
  3
txt
  4

  0
STYLE
  2
BYGG-036624$0$STANDARD
 70
     0
 40
0.0
 41
1.0
 50
0.0
 71
     0
 42
0.2
  3
txt
  4

  0
STYLE
  2
BYGG-036624$0$ISO
 70
     0
 40
0.0
 41
1.0
 50
0.0
 71
     0
 42
3.5
  3
txt
  4

  0
STYLE
  2
BYGG-036419$0$STANDARD
 70
     0
 40
0.0
 41
1.0
 50
0.0
 71
     0
 42
0.2
  3
txt
  4

  0
STYLE
  2
BYGG-036419$0$ISO
 70
     0
 40
0.0
 41
1.0
 50
0.0
 71
     0
 42
3.5
  3
txt
  4

  0
STYLE
  2
BYGG-036419$0$BYGG-024778$
 70
     0
 40
0.0
 41
1.0
 50
0.0
 71
     0
 42
3.5
  3
txt
  4

  0
STYLE
  2
BYGG-036419$0$BYGG-035431$
 70
     0
 40
0.0
 41
1.0
 50
0.0
 71
     0
 42
3.5
  3
txt
  4

  0
STYLE
  2
BYGG-036419$0$BYGG-035435$
 70
     0
 40
0.0
 41
1.0
 50
0.0
 71
     0
 42
3.5
  3
txt
  4

  0
STYLE
  2
BYGG-036419$0$BYGG-014411$
 70
     0
 40
0.0
 41
1.0
 50
0.0
 71
     0
 42
3.5
  3
isocp3.shx
  4

  0
STYLE
  2
BYGG-036419$0$BYGG-024787$
 70
     0
 40
0.0
 41
1.0
 50
0.0
 71
     0
 42
3.5
  3
txt
  4

  0
STYLE
  2
BYGG-036419$0$BYGG-024788$
 70
     0
 40
0.0
 41
1.0
 50
0.0
 71
     0
 42
3.5
  3
txt
  4

  0
STYLE
  2
BYGG-036419$0$BYGG-024789$
 70
     0
 40
0.0
 41
1.0
 50
0.0
 71
     0
 42
3.5
  3
txt
  4

  0
STYLE
  2
BYGG-036419$0$BYGG-024817$
 70
     0
 40
0.0
 41
1.0
 50
0.0
 71
     0
 42
3.5
  3
txt
  4

  0
STYLE
  2
BYGG-036419$0$BYGG-024794$
 70
     0
 40
0.0
 41
1.0
 50
0.0
 71
     0
 42
3.5
  3
txt
  4

  0
STYLE
  2
BYGG-024756$0$STANDARD
 70
     0
 40
0.0
 41
1.0
 50
0.0
 71
     0
 42
0.2
  3
txt
  4

  0
STYLE
  2
BYGG-024756$0$ISO
 70
     0
 40
0.0
 41
1.0
 50
0.0
 71
     0
 42
3.5
  3
txt
  4

  0
STYLE
  2
BYGG-033167$0$STANDARD
 70
     0
 40
0.0
 41
1.0
 50
0.0
 71
     0
 42
0.2
  3
txt
  4

  0
STYLE
  2
BYGG-033167$0$ISO
 70
     0
 40
0.0
 41
1.0
 50
0.0
 71
     0
 42
3.5
  3
txt
  4

  0
STYLE
  2
BYGG-033167$0$BYGG-020132$
 70
     0
 40
0.0
 41
1.0
 50
0.0
 71
     0
 42
3.5
  3
txt
  4

  0
STYLE
  2
BYGG-033167$0$BYGG-024943$
 70
     0
 40
0.0
 41
1.0
 50
0.0
 71
     0
 42
3.5
  3
txt
  4

  0
STYLE
  2
BYGG-026410$0$STANDARD
 70
     0
 40
0.0
 41
1.0
 50
0.0
 71
     0
 42
0.2
  3
txt
  4

  0
STYLE
  2
BYGG-026410$0$ISO
 70
     0
 40
0.0
 41
1.0
 50
0.0
 71
     0
 42
3.5
  3
txt
  4

  0
STYLE
  2
BYGG-035883$0$STANDARD
 70
     0
 40
0.0
 41
1.0
 50
0.0
 71
     0
 42
0.2
  3
txt
  4

  0
ENDTAB
  0
TABLE
  2
VIEW
 70
     0
  0
ENDTAB
  0
TABLE
  2
UCS
 70
     0
  0
ENDTAB
  0
TABLE
  2
APPID
 70
    45
  0
APPID
  2
ACAD
 70
     0
  0
APPID
  2
ACAD_DSTYLE_DIMTEXT_FILL
 70
     0
  0
APPID
  2
ACAD_DSTYLE_DIMEXT_LENGTH
 70
     0
  0
APPID
  2
ACAD_DSTYLE_DIMEXT_ENABLED
 70
     0
  0
APPID
  2
ACAD_DSTYLE_DIM_LINETYPE
 70
     0
  0
APPID
  2
ACAD_DSTYLE_DIM_EXT1_LINETYPE
 70
     0
  0
APPID
  2
ACAD_DSTYLE_DIM_EXT2_LINETYPE
 70
     0
  0
APPID
  2
ACAD_DSTYLE_DIMJOGGED_JOGA
 70
     0
  0
APPID
  2
ACAD_DSTYLE_DIMARC_LENGTH_
 70
     0
  0
APPID
  2
ACAD_PSEXT
 70
     0
  0
APPID
  2
ACAD_MLEADERVER
 70
     0
  0
APPID
  2
AMG_ARCHIVE11
 70
     0
  0
APPID
  2
ACAD_EXEMPT_FROM_CAD_STANDARDS
 70
     0
  0
APPID
  2
ACADANNOTATIVE
 70
     0
  0
APPID
  2
ACAECLAYERSTANDARD
 70
     0
  0
APPID
  2
DCO15
 70
     0
  0
APPID
  2
ACDBDYNAMICBLOCKGUID
 70
     0
  0
APPID
  2
ACDBBLOCKREPETAG
 70
     0
  0
APPID
  2
GENIUS_GENODEF_13
 70
     0
  0
APPID
  2
GENIUS_GENTRA_14
 70
     0
  0
APPID
  2
GENIUS_GENOLIS_13
 70
     0
  0
APPID
  2
GENIUS_GENOENT_13
 70
     0
  0
APPID
  2
GENIUS_GENOBJ-N-TIT_13
 70
     0
  0
APPID
  2
GENIUS_GENTITLE_13
 70
     0
  0
APPID
  2
GENIUS_GENOREF_13
 70
     0
  0
APPID
  2
GENIUS_GENSCREG_15
 70
     0
  0
APPID
  2
GENIUS_GENOBJ-N-SDF_13
 70
     0
  0
APPID
  2
GENIUS_GENOBJ-N-CRS_13
 70
     0
  0
APPID
  2
RC_PROFILE
 70
     0
  0
APPID
  2
AME_SOL
 70
     0
  0
APPID
  2
ACAUTHENVIRON
 70
     0
  0
APPID
  2
ACDBDYNAMICBLOCKTRUENAME
 70
     0
  0
APPID
  2
ACAD_NAV_VCDISPLAY
 70
     0
  0
APPID
  2
ACAD_DSTYLE_DIMRADIAL_EXTENSION
 70
     0
  0
APPID
  2
ACAD_OBJECT_CHANGE_GUID
 70
     0
  0
APPID
  2
ACCMTRANSPARENCY
 70
     0
  0
APPID
  2
AVE_RENDER
 70
     0
  0
APPID
  2
AVE_ENTITY_MATERIAL
 70
     0
  0
APPID
  2
AVE_FINISH
 70
     0
  0
APPID
  2
AVE_MATERIAL
 70
     0
  0
APPID
  2
AVE_GLOBAL
 70
     0
  0
APPID
  2
4M_RENDER
 70
     0
  0
APPID
  2
LIBMAN
 70
     0
  0
APPID
  2
AUTOBUILD
 70
     0
  0
APPID
  2
AEC_XDATA_BOUND_SPACE
 70
     0
  0
ENDTAB
  0
TABLE
  2
DIMSTYLE
 70
    68
  0
DIMSTYLE
  2
STANDARD
 70
     0
  3

  4

  5

  6

  7

 40
1.0
 41
0.18
 42
0.0625
 43
0.38
 44
0.18
 45
0.0
 46
0.0
 47
0.0
 48
0.0
140
0.18
141
0.09
142
0.0
143
25.399999999999999
144
1.0
145
0.0
146
1.0
147
0.09
 71
     0
 72
     0
 73
     1
 74
     1
 75
     0
 76
     0
 77
     0
 78
     0
170
     0
171
     2
172
     0
173
     0
174
     0
175
     0
176
     0
177
     0
178
     0
  0
DIMSTYLE
  2
MASKIN
 70
     0
  3

  4

  5

  6

  7

 40
0.0
 41
3.0
 42
1.5
 43
10.0
 44
1.5
 45
0.0
 46
0.0
 47
0.0
 48
0.0
140
3.0
141
-5.0
142
0.0
143
25.399999999999999
144
-1.0
145
0.0
146
1.0
147
1.0
 71
     0
 72
     0
 73
     0
 74
     0
 75
     0
 76
     0
 77
     1
 78
     8
170
     0
171
     0
172
     1
173
     0
174
     0
175
     0
176
   256
177
   256
178
     2
  0
DIMSTYLE
  2
BYGG-021589$0$MASKIN
 70
     0
  3

  4

  5

  6

  7

 40
0.0
 41
3.0
 42
1.5
 43
10.0
 44
1.5
 45
0.0
 46
0.0
 47
0.0
 48
0.0
140
3.0
141
-5.0
142
0.0
143
25.399999999999999
144
-1.0
145
0.0
146
1.0
147
1.0
 71
     0
 72
     0
 73
     0
 74
     0
 75
     0
 76
     0
 77
     1
 78
     8
170
     0
171
     0
172
     1
173
     0
174
     0
175
     0
176
   256
177
   256
178
   256
  0
DIMSTYLE
  2
BYGG-01482201$0$STANDARD
 70
     0
  3

  4

  5

  6

  7

 40
1.0
 41
0.18
 42
0.0625
 43
0.38
 44
0.18
 45
0.0
 46
0.0
 47
0.0
 48
0.0
140
0.18
141
0.09
142
0.0
143
25.399999999999999
144
1.0
145
0.0
146
1.0
147
0.09
 71
     0
 72
     0
 73
     1
 74
     1
 75
     0
 76
     0
 77
     0
 78
     0
170
     0
171
     2
172
     0
173
     0
174
     0
175
     0
176
     0
177
     0
178
     0
  0
DIMSTYLE
  2
BYGG-01482201$0$MASKIN
 70
     0
  3

  4

  5

  6

  7

 40
0.0
 41
3.0
 42
1.5
 43
10.0
 44
1.5
 45
0.0
 46
0.0
 47
0.0
 48
0.0
140
3.0
141
-5.0
142
0.0
143
25.399999999999999
144
-1.0
145
0.0
146
1.0
147
1.0
 71
     0
 72
     0
 73
     0
 74
     1
 75
     0
 76
     0
 77
     1
 78
     8
170
     0
171
     0
172
     1
173
     0
174
     0
175
     0
176
   256
177
   256
178
     2
  0
DIMSTYLE
  2
BYGG-021802$0$MASKIN
 70
     0
  3

  4

  5

  6

  7

 40
0.0
 41
3.0
 42
1.5
 43
10.0
 44
1.5
 45
0.0
 46
0.0
 47
0.0
 48
0.0
140
3.0
141
-5.0
142
0.0
143
25.399999999999999
144
-1.0
145
0.0
146
1.0
147
1.0
 71
     0
 72
     0
 73
     0
 74
     0
 75
     0
 76
     0
 77
     1
 78
     8
170
     0
171
     0
172
     1
173
     0
174
     0
175
     0
176
   256
177
   256
178
   256
  0
DIMSTYLE
  2
BYGG-014357$0$MASKIN
 70
     0
  3

  4

  5

  6

  7

 40
0.0
 41
3.0
 42
1.5
 43
10.0
 44
1.5
 45
0.0
 46
0.0
 47
0.0
 48
0.0
140
3.0
141
-5.0
142
0.0
143
25.399999999999999
144
-1.0
145
0.0
146
1.0
147
1.0
 71
     0
 72
     0
 73
     0
 74
     0
 75
     0
 76
     0
 77
     1
 78
     8
170
     0
171
     0
172
     1
173
     0
174
     0
175
     0
176
   256
177
   256
178
   256
  0
DIMSTYLE
  2
BYGG-014357$0$MASKIN1
 70
     0
  3

  4

  5

  6

  7

 40
1.0
 41
3.0
 42
1.5
 43
10.0
 44
1.5
 45
0.0
 46
0.0
 47
0.0
 48
0.0
140
3.0
141
-5.0
142
0.0
143
25.399999999999999
144
1.0
145
0.0
146
1.0
147
0.9
 71
     0
 72
     0
 73
     0
 74
     0
 75
     0
 76
     0
 77
     1
 78
     8
170
     0
171
     0
172
     1
173
     0
174
     0
175
     0
176
   256
177
   256
178
   256
  0
DIMSTYLE
  2
BYGG-014357$0$MASKIN2
 70
     0
  3

  4

  5

  6

  7

 40
1.0
 41
3.0
 42
1.5
 43
10.0
 44
1.5
 45
0.0
 46
0.0
 47
0.0
 48
0.0
140
3.0
141
-5.0
142
0.0
143
25.399999999999999
144
1.0
145
0.0
146
1.0
147
0.9
 71
     0
 72
     0
 73
     0
 74
     0
 75
     0
 76
     0
 77
     1
 78
     8
170
     0
171
     0
172
     1
173
     0
174
     0
175
     0
176
   256
177
   256
178
   256
  0
DIMSTYLE
  2
BYGG-014357$0$MASKIN3
 70
     0
  3

  4

  5

  6

  7

 40
1.0
 41
3.0
 42
1.5
 43
10.0
 44
1.5
 45
0.0
 46
0.0
 47
0.0
 48
0.0
140
3.0
141
-5.0
142
0.0
143
25.399999999999999
144
1.0
145
0.0
146
1.0
147
0.9
 71
     0
 72
     0
 73
     0
 74
     0
 75
     0
 76
     0
 77
     1
 78
     8
170
     0
171
     0
172
     1
173
     0
174
     0
175
     0
176
   256
177
   256
178
   256
  0
DIMSTYLE
  2
BYGG-014357$0$DMST_1
 70
     0
  3

  4

  5

  6

  7

 40
1.0
 41
0.7000000000000002
 42
0.0
 43
7.0
 44
0.4
 45
0.0
 46
0.0
 47
0.15
 48
0.15
140
0.7000000000000002
141
0.0
142
0.0
143
25.399999999999999
144
1.0
145
0.0
146
0.7
147
0.09
 71
     1
 72
     0
 73
     0
 74
     0
 75
     0
 76
     0
 77
     1
 78
     9
170
     0
171
     2
172
     0
173
     0
174
     0
175
     0
176
     1
177
     1
178
     2
  0
DIMSTYLE
  2
BYGG-014063$0$MASKIN
 70
     0
  3

  4

  5

  6

  7

 40
0.0
 41
3.0
 42
1.5
 43
10.0
 44
1.5
 45
0.0
 46
0.0
 47
0.0
 48
0.0
140
3.0
141
-5.0
142
0.0
143
25.399999999999999
144
-1.0
145
0.0
146
1.0
147
1.0
 71
     0
 72
     0
 73
     0
 74
     0
 75
     0
 76
     0
 77
     1
 78
     8
170
     0
171
     0
172
     1
173
     0
174
     0
175
     0
176
   256
177
   256
178
   256
  0
DIMSTYLE
  2
BYGG-014063$0$STANDARD
 70
     0
  3

  4

  5

  6

  7

 40
1.0
 41
0.18
 42
0.0625
 43
0.38
 44
0.18
 45
0.0
 46
0.0
 47
0.0
 48
0.0
140
0.18
141
0.09
142
0.0
143
25.399999999999999
144
1.0
145
0.0
146
1.0
147
0.09
 71
     0
 72
     0
 73
     1
 74
     1
 75
     0
 76
     0
 77
     0
 78
     0
170
     0
171
     2
172
     0
173
     0
174
     0
175
     0
176
     0
177
     0
178
     0
  0
DIMSTYLE
  2
BYGG-021582$0$MASKIN
 70
     0
  3

  4

  5

  6

  7

 40
0.0
 41
3.0
 42
1.5
 43
10.0
 44
1.5
 45
0.0
 46
0.0
 47
0.0
 48
0.0
140
3.0
141
-5.0
142
0.0
143
25.399999999999999
144
-1.0
145
0.0
146
1.0
147
1.0
 71
     0
 72
     0
 73
     0
 74
     0
 75
     0
 76
     0
 77
     1
 78
     8
170
     0
171
     0
172
     1
173
     0
174
     0
175
     0
176
   256
177
   256
178
   256
  0
DIMSTYLE
  2
BYGG-014279$0$STANDARD
 70
     0
  3

  4

  5

  6

  7

 40
1.0
 41
0.18
 42
0.0625
 43
0.38
 44
0.18
 45
0.0
 46
0.0
 47
0.0
 48
0.0
140
0.18
141
0.09
142
0.0
143
25.399999999999999
144
1.0
145
0.0
146
1.0
147
0.09
 71
     0
 72
     0
 73
     1
 74
     1
 75
     0
 76
     0
 77
     0
 78
     0
170
     0
171
     2
172
     0
173
     0
174
     0
175
     0
176
     0
177
     0
178
     0
  0
DIMSTYLE
  2
BYGG-014279$0$MASKIN
 70
     0
  3

  4

  5

  6

  7

 40
0.0
 41
3.0
 42
1.5
 43
10.0
 44
1.5
 45
0.0
 46
0.0
 47
0.0
 48
0.0
140
3.0
141
-5.0
142
0.0
143
25.399999999999999
144
-1.0
145
0.0
146
1.0
147
1.0
 71
     0
 72
     0
 73
     0
 74
     1
 75
     0
 76
     0
 77
     1
 78
     8
170
     0
171
     0
172
     1
173
     0
174
     0
175
     0
176
   256
177
   256
178
     2
  0
DIMSTYLE
  2
BYGG-022676$0$STANDARD
 70
     0
  3

  4

  5

  6

  7

 40
1.0
 41
0.18
 42
0.0625
 43
0.38
 44
0.18
 45
0.0
 46
0.0
 47
0.0
 48
0.0
140
0.18
141
0.09
142
0.0
143
25.399999999999999
144
1.0
145
0.0
146
1.0
147
0.09
 71
     0
 72
     0
 73
     1
 74
     1
 75
     0
 76
     0
 77
     0
 78
     0
170
     0
171
     2
172
     0
173
     0
174
     0
175
     0
176
     0
177
     0
178
     0
  0
DIMSTYLE
  2
BYGG-022676$0$MASKIN
 70
     0
  3

  4

  5

  6

  7

 40
0.0
 41
3.0
 42
1.5
 43
10.0
 44
1.5
 45
0.0
 46
0.0
 47
0.0
 48
0.0
140
3.0
141
-5.0
142
0.0
143
25.399999999999999
144
-1.0
145
0.0
146
1.0
147
1.0
 71
     0
 72
     0
 73
     0
 74
     0
 75
     0
 76
     0
 77
     1
 78
     8
170
     0
171
     0
172
     1
173
     0
174
     0
175
     0
176
   256
177
   256
178
     2
  0
DIMSTYLE
  2
BYGG-022676$0$ANNOTATIVE
 70
     0
  3

  4

  5

  6

  7

 40
1.0
 41
0.18
 42
0.0625
 43
0.38
 44
0.18
 45
0.0
 46
0.0
 47
0.0
 48
0.0
140
0.18
141
0.09
142
0.0
143
25.399999999999999
144
1.0
145
0.0
146
1.0
147
0.09
 71
     0
 72
     0
 73
     1
 74
     1
 75
     0
 76
     0
 77
     0
 78
     0
170
     0
171
     2
172
     0
173
     0
174
     0
175
     0
176
     0
177
     0
178
     0
  0
DIMSTYLE
  2
BYGG-025109$0$STANDARD
 70
     0
  3

  4

  5

  6

  7

 40
1.0
 41
0.18
 42
0.0625
 43
0.38
 44
0.18
 45
0.0
 46
0.0
 47
0.0
 48
0.0
140
0.18
141
0.09
142
0.0
143
25.399999999999999
144
1.0
145
0.0
146
1.0
147
0.09
 71
     0
 72
     0
 73
     1
 74
     1
 75
     0
 76
     0
 77
     0
 78
     0
170
     0
171
     2
172
     0
173
     0
174
     0
175
     0
176
     0
177
     0
178
     0
  0
DIMSTYLE
  2
BYGG-025109$0$MASKIN
 70
     0
  3

  4

  5

  6

  7

 40
0.0
 41
3.0
 42
1.5
 43
10.0
 44
1.5
 45
0.0
 46
0.0
 47
0.0
 48
0.0
140
3.0
141
-5.0
142
0.0
143
25.399999999999999
144
-1.0
145
0.0
146
1.0
147
1.0
 71
     0
 72
     0
 73
     0
 74
     0
 75
     0
 76
     0
 77
     1
 78
     8
170
     0
171
     0
172
     1
173
     0
174
     0
175
     0
176
   256
177
   256
178
     2
  0
DIMSTYLE
  2
BYGG-020805$0$STANDARD
 70
     0
  3

  4

  5

  6

  7

 40
1.0
 41
0.18
 42
0.0625
 43
0.38
 44
0.18
 45
0.0
 46
0.0
 47
0.0
 48
0.0
140
0.18
141
0.09
142
0.0
143
25.399999999999999
144
1.0
145
0.0
146
1.0
147
0.09
 71
     0
 72
     0
 73
     1
 74
     1
 75
     0
 76
     0
 77
     0
 78
     0
170
     0
171
     2
172
     0
173
     0
174
     0
175
     0
176
     0
177
     0
178
     0
  0
DIMSTYLE
  2
BYGG-020805$0$MASKIN
 70
     0
  3

  4

  5

  6

  7

 40
0.0
 41
3.0
 42
1.5
 43
10.0
 44
1.5
 45
0.0
 46
0.0
 47
0.0
 48
0.0
140
3.0
141
-5.0
142
0.0
143
25.399999999999999
144
-1.0
145
0.0
146
1.0
147
1.0
 71
     0
 72
     0
 73
     0
 74
     0
 75
     0
 76
     0
 77
     1
 78
     8
170
     0
171
     0
172
     1
173
     0
174
     0
175
     0
176
   256
177
   256
178
     2
  0
DIMSTYLE
  2
BYGG-026395$0$MASKIN
 70
     0
  3

  4

  5

  6

  7

 40
0.0
 41
3.0
 42
1.5
 43
10.0
 44
1.5
 45
0.0
 46
0.0
 47
0.0
 48
0.0
140
3.0
141
-5.0
142
0.0
143
25.399999999999999
144
-1.0
145
0.0
146
1.0
147
1.0
 71
     0
 72
     0
 73
     0
 74
     0
 75
     0
 76
     0
 77
     1
 78
     8
170
     0
171
     0
172
     1
173
     0
174
     0
175
     0
176
   256
177
   256
178
   256
  0
DIMSTYLE
  2
BYGG-022681$0$STANDARD
 70
     0
  3

  4

  5

  6

  7

 40
1.0
 41
0.18
 42
0.0625
 43
0.38
 44
0.18
 45
0.0
 46
0.0
 47
0.0
 48
0.0
140
0.18
141
0.09
142
0.0
143
25.399999999999999
144
1.0
145
0.0
146
1.0
147
0.09
 71
     0
 72
     0
 73
     1
 74
     1
 75
     0
 76
     0
 77
     0
 78
     0
170
     0
171
     2
172
     0
173
     0
174
     0
175
     0
176
     0
177
     0
178
     0
  0
DIMSTYLE
  2
BYGG-022681$0$MASKIN
 70
     0
  3

  4

  5

  6

  7

 40
0.0
 41
3.0
 42
1.5
 43
10.0
 44
1.5
 45
0.0
 46
0.0
 47
0.0
 48
0.0
140
3.0
141
-5.0
142
0.0
143
25.399999999999999
144
-1.0
145
0.0
146
1.0
147
1.0
 71
     0
 72
     0
 73
     0
 74
     0
 75
     0
 76
     0
 77
     1
 78
     8
170
     0
171
     0
172
     1
173
     0
174
     0
175
     0
176
   256
177
   256
178
     2
  0
DIMSTYLE
  2
BYGG-014306$0$STANDARD
 70
     0
  3

  4

  5

  6

  7

 40
1.0
 41
0.18
 42
0.0625
 43
0.38
 44
0.18
 45
0.0
 46
0.0
 47
0.0
 48
0.0
140
0.18
141
0.09
142
0.0
143
25.399999999999999
144
1.0
145
0.0
146
1.0
147
0.09
 71
     0
 72
     0
 73
     1
 74
     1
 75
     0
 76
     0
 77
     0
 78
     0
170
     0
171
     2
172
     0
173
     0
174
     0
175
     0
176
     0
177
     0
178
     0
  0
DIMSTYLE
  2
BYGG-030185$0$STANDARD
 70
     0
  3

  4

  5

  6

  7

 40
1.0
 41
0.18
 42
0.0625
 43
0.38
 44
0.18
 45
0.0
 46
0.0
 47
0.0
 48
0.0
140
0.18
141
0.09
142
0.0
143
25.399999999999999
144
1.0
145
0.0
146
1.0
147
0.09
 71
     0
 72
     0
 73
     1
 74
     1
 75
     0
 76
     0
 77
     0
 78
     0
170
     0
171
     2
172
     0
173
     0
174
     0
175
     0
176
     0
177
     0
178
     0
  0
DIMSTYLE
  2
BYGG-030185$0$MASKIN
 70
     0
  3

  4

  5

  6

  7

 40
0.0
 41
3.0
 42
1.5
 43
10.0
 44
1.5
 45
0.0
 46
0.0
 47
0.0
 48
0.0
140
3.0
141
-5.0
142
0.0
143
25.399999999999999
144
-1.0
145
0.0
146
1.0
147
1.0
 71
     0
 72
     0
 73
     0
 74
     1
 75
     0
 76
     0
 77
     1
 78
     8
170
     0
171
     0
172
     1
173
     0
174
     0
175
     0
176
   256
177
   256
178
     2
  0
DIMSTYLE
  2
BYGG-024798$0$MASKIN
 70
     0
  3

  4

  5

  6

  7

 40
0.0
 41
3.0
 42
1.5
 43
10.0
 44
1.5
 45
0.0
 46
0.0
 47
0.0
 48
0.0
140
3.0
141
-5.0
142
0.0
143
25.399999999999999
144
-1.0
145
0.0
146
1.0
147
1.0
 71
     0
 72
     0
 73
     0
 74
     0
 75
     0
 76
     0
 77
     1
 78
     8
170
     0
171
     0
172
     1
173
     0
174
     0
175
     0
176
   256
177
   256
178
     2
  0
DIMSTYLE
  2
BYGG-024798$0$STANDARD
 70
     0
  3

  4

  5

  6

  7

 40
1.0
 41
0.18
 42
0.0625
 43
0.38
 44
0.18
 45
0.0
 46
0.0
 47
0.0
 48
0.0
140
0.18
141
0.09
142
0.0
143
25.399999999999999
144
1.0
145
0.0
146
1.0
147
0.09
 71
     0
 72
     0
 73
     1
 74
     1
 75
     0
 76
     0
 77
     0
 78
     0
170
     0
171
     2
172
     0
173
     0
174
     0
175
     0
176
     0
177
     0
178
     0
  0
DIMSTYLE
  2
BYGG-024799$0$MASKIN
 70
     0
  3

  4

  5

  6

  7

 40
0.0
 41
3.0
 42
1.5
 43
10.0
 44
1.5
 45
0.0
 46
0.0
 47
0.0
 48
0.0
140
3.0
141
-5.0
142
0.0
143
25.399999999999999
144
-1.0
145
0.0
146
1.0
147
1.0
 71
     0
 72
     0
 73
     0
 74
     0
 75
     0
 76
     0
 77
     1
 78
     8
170
     0
171
     0
172
     1
173
     0
174
     0
175
     0
176
   256
177
   256
178
     2
  0
DIMSTYLE
  2
BYGG-024799$0$STANDARD
 70
     0
  3

  4

  5

  6

  7

 40
1.0
 41
0.18
 42
0.0625
 43
0.38
 44
0.18
 45
0.0
 46
0.0
 47
0.0
 48
0.0
140
0.18
141
0.09
142
0.0
143
25.399999999999999
144
1.0
145
0.0
146
1.0
147
0.09
 71
     0
 72
     0
 73
     1
 74
     1
 75
     0
 76
     0
 77
     0
 78
     0
170
     0
171
     2
172
     0
173
     0
174
     0
175
     0
176
     0
177
     0
178
     0
  0
DIMSTYLE
  2
BYGG-028980$0$STANDARD
 70
     0
  3

  4

  5

  6

  7

 40
1.0
 41
0.18
 42
0.0625
 43
0.38
 44
0.18
 45
0.0
 46
0.0
 47
0.0
 48
0.0
140
0.18
141
0.09
142
0.0
143
25.399999999999999
144
1.0
145
0.0
146
1.0
147
0.09
 71
     0
 72
     0
 73
     1
 74
     1
 75
     0
 76
     0
 77
     0
 78
     0
170
     0
171
     2
172
     0
173
     0
174
     0
175
     0
176
     0
177
     0
178
     0
  0
DIMSTYLE
  2
BYGG-028980$0$MASKIN
 70
     0
  3

  4

  5

  6

  7

 40
0.0
 41
3.0
 42
1.5
 43
10.0
 44
1.5
 45
0.0
 46
0.0
 47
0.0
 48
0.0
140
3.0
141
-5.0
142
0.0
143
25.399999999999999
144
-1.0
145
0.0
146
1.0
147
1.0
 71
     0
 72
     0
 73
     0
 74
     0
 75
     0
 76
     0
 77
     1
 78
     8
170
     0
171
     0
172
     1
173
     0
174
     0
175
     0
176
   256
177
   256
178
     2
  0
DIMSTYLE
  2
BYGG-014089$0$STANDARD
 70
     0
  3

  4

  5

  6

  7

 40
1.0
 41
0.18
 42
0.0625
 43
0.38
 44
0.18
 45
0.0
 46
0.0
 47
0.0
 48
0.0
140
0.18
141
0.09
142
0.0
143
25.399999999999999
144
1.0
145
0.0
146
1.0
147
0.09
 71
     0
 72
     0
 73
     1
 74
     1
 75
     0
 76
     0
 77
     0
 78
     0
170
     0
171
     2
172
     0
173
     0
174
     0
175
     0
176
     0
177
     0
178
     0
  0
DIMSTYLE
  2
BYGG-014108$0$STANDARD
 70
     0
  3

  4

  5

  6

  7

 40
1.0
 41
0.18
 42
0.0625
 43
0.38
 44
0.18
 45
0.0
 46
0.0
 47
0.0
 48
0.0
140
0.18
141
0.09
142
0.0
143
25.399999999999999
144
1.0
145
0.0
146
1.0
147
0.09
 71
     0
 72
     0
 73
     1
 74
     1
 75
     0
 76
     0
 77
     0
 78
     0
170
     0
171
     2
172
     0
173
     0
174
     0
175
     0
176
     0
177
     0
178
     0
  0
DIMSTYLE
  2
BYGG-019611$0$STANDARD
 70
     0
  3

  4

  5

  6

  7

 40
1.0
 41
0.18
 42
0.0625
 43
0.38
 44
0.18
 45
0.0
 46
0.0
 47
0.0
 48
0.0
140
0.18
141
0.09
142
0.0
143
25.399999999999999
144
1.0
145
0.0
146
1.0
147
0.09
 71
     0
 72
     0
 73
     1
 74
     1
 75
     0
 76
     0
 77
     0
 78
     0
170
     0
171
     2
172
     0
173
     0
174
     0
175
     0
176
     0
177
     0
178
     0
  0
DIMSTYLE
  2
BYGG-019611$0$MASKIN
 70
     0
  3

  4

  5

  6

  7

 40
0.0
 41
3.0
 42
1.5
 43
10.0
 44
1.5
 45
0.0
 46
0.0
 47
0.0
 48
0.0
140
3.0
141
-5.0
142
0.0
143
25.399999999999999
144
-1.0
145
0.0
146
1.0
147
1.0
 71
     0
 72
     0
 73
     0
 74
     0
 75
     0
 76
     0
 77
     1
 78
     8
170
     0
171
     0
172
     1
173
     0
174
     0
175
     0
176
   256
177
   256
178
     2
  0
DIMSTYLE
  2
BYGG-025652$0$STANDARD
 70
     0
  3

  4

  5

  6

  7

 40
1.0
 41
0.18
 42
0.0625
 43
0.38
 44
0.18
 45
0.0
 46
0.0
 47
0.0
 48
0.0
140
0.18
141
0.09
142
0.0
143
25.399999999999999
144
1.0
145
0.0
146
1.0
147
0.09
 71
     0
 72
     0
 73
     1
 74
     1
 75
     0
 76
     0
 77
     0
 78
     0
170
     0
171
     2
172
     0
173
     0
174
     0
175
     0
176
     0
177
     0
178
     0
  0
DIMSTYLE
  2
BYGG-025652$0$MASKIN
 70
     0
  3

  4

  5

  6

  7

 40
0.0
 41
3.0
 42
1.5
 43
10.0
 44
1.5
 45
0.0
 46
0.0
 47
0.0
 48
0.0
140
3.0
141
-5.0
142
0.0
143
25.399999999999999
144
-1.0
145
0.0
146
1.0
147
1.0
 71
     0
 72
     0
 73
     0
 74
     0
 75
     0
 76
     0
 77
     1
 78
     8
170
     0
171
     0
172
     1
173
     0
174
     0
175
     0
176
   256
177
   256
178
     2
  0
DIMSTYLE
  2
BYGG-025652$0$ANNOTATIVE
 70
     0
  3

  4

  5

  6

  7

 40
1.0
 41
0.18
 42
0.0625
 43
0.38
 44
0.18
 45
0.0
 46
0.0
 47
0.0
 48
0.0
140
0.18
141
0.09
142
0.0
143
25.399999999999999
144
1.0
145
0.0
146
1.0
147
0.09
 71
     0
 72
     0
 73
     1
 74
     1
 75
     0
 76
     0
 77
     0
 78
     0
170
     0
171
     2
172
     0
173
     0
174
     0
175
     0
176
     0
177
     0
178
     0
  0
DIMSTYLE
  2
BYGG-014411$0$MASKIN
 70
     0
  3

  4

  5

  6

  7

 40
0.0
 41
3.0
 42
1.5
 43
10.0
 44
1.5
 45
0.0
 46
0.0
 47
0.0
 48
0.0
140
3.0
141
-5.0
142
0.0
143
25.399999999999999
144
-1.0
145
0.0
146
1.0
147
1.0
 71
     0
 72
     0
 73
     0
 74
     0
 75
     0
 76
     0
 77
     1
 78
     8
170
     0
171
     0
172
     1
173
     0
174
     0
175
     0
176
   256
177
   256
178
   256
  0
DIMSTYLE
  2
BYGG-014411$0$STANDARD
 70
     0
  3

  4

  5

  6

  7

 40
1.0
 41
0.18
 42
0.0625
 43
0.38
 44
0.18
 45
0.0
 46
0.0
 47
0.0
 48
0.0
140
0.18
141
0.09
142
0.0
143
25.399999999999999
144
1.0
145
0.0
146
1.0
147
0.09
 71
     0
 72
     0
 73
     1
 74
     1
 75
     0
 76
     0
 77
     0
 78
     0
170
     0
171
     2
172
     0
173
     0
174
     0
175
     0
176
     0
177
     0
178
     0
  0
DIMSTYLE
  2
BYGG-014090$0$STANDARD
 70
     0
  3

  4

  5

  6

  7

 40
1.0
 41
0.18
 42
0.0625
 43
0.38
 44
0.18
 45
0.0
 46
0.0
 47
0.0
 48
0.0
140
0.18
141
0.09
142
0.0
143
25.399999999999999
144
1.0
145
0.0
146
1.0
147
0.09
 71
     0
 72
     0
 73
     1
 74
     1
 75
     0
 76
     0
 77
     0
 78
     0
170
     0
171
     2
172
     0
173
     0
174
     0
175
     0
176
     0
177
     0
178
     0
  0
DIMSTYLE
  2
BYGG-014088$0$STANDARD
 70
     0
  3

  4

  5

  6

  7

 40
1.0
 41
0.18
 42
0.0625
 43
0.38
 44
0.18
 45
0.0
 46
0.0
 47
0.0
 48
0.0
140
0.18
141
0.09
142
0.0
143
25.399999999999999
144
1.0
145
0.0
146
1.0
147
0.09
 71
     0
 72
     0
 73
     1
 74
     1
 75
     0
 76
     0
 77
     0
 78
     0
170
     0
171
     2
172
     0
173
     0
174
     0
175
     0
176
     0
177
     0
178
     0
  0
DIMSTYLE
  2
BYGG-036624$0$STANDARD
 70
     0
  3

  4

  5

  6

  7

 40
1.0
 41
0.18
 42
0.0625
 43
0.38
 44
0.18
 45
0.0
 46
0.0
 47
0.0
 48
0.0
140
0.18
141
0.09
142
0.0
143
25.399999999999999
144
1.0
145
0.0
146
1.0
147
0.09
 71
     0
 72
     0
 73
     1
 74
     1
 75
     0
 76
     0
 77
     0
 78
     0
170
     0
171
     2
172
     0
173
     0
174
     0
175
     0
176
     0
177
     0
178
     0
  0
DIMSTYLE
  2
BYGG-036624$0$MASKIN
 70
     0
  3

  4

  5

  6

  7

 40
0.0
 41
3.0
 42
1.5
 43
10.0
 44
1.5
 45
0.0
 46
0.0
 47
0.0
 48
0.0
140
3.0
141
-5.0
142
0.0
143
25.399999999999999
144
-1.0
145
0.0
146
1.0
147
1.0
 71
     0
 72
     0
 73
     0
 74
     0
 75
     0
 76
     0
 77
     1
 78
     8
170
     0
171
     0
172
     1
173
     0
174
     0
175
     0
176
   256
177
   256
178
     2
  0
DIMSTYLE
  2
BYGG-036419$0$STANDARD
 70
     0
  3

  4

  5

  6

  7

 40
1.0
 41
0.18
 42
0.0625
 43
0.38
 44
0.18
 45
0.0
 46
0.0
 47
0.0
 48
0.0
140
0.18
141
0.09
142
0.0
143
25.399999999999999
144
1.0
145
0.0
146
1.0
147
0.09
 71
     0
 72
     0
 73
     1
 74
     1
 75
     0
 76
     0
 77
     0
 78
     0
170
     0
171
     2
172
     0
173
     0
174
     0
175
     0
176
     0
177
     0
178
     0
  0
DIMSTYLE
  2
BYGG-036419$0$MASKIN
 70
     0
  3

  4

  5

  6

  7

 40
0.0
 41
3.0
 42
1.5
 43
10.0
 44
1.5
 45
0.0
 46
0.0
 47
0.0
 48
0.0
140
3.0
141
-5.0
142
0.0
143
25.399999999999999
144
-1.0
145
0.0
146
1.0
147
1.0
 71
     0
 72
     0
 73
     0
 74
     0
 75
     0
 76
     0
 77
     1
 78
     8
170
     0
171
     0
172
     1
173
     0
174
     0
175
     0
176
   256
177
   256
178
     2
  0
DIMSTYLE
  2
BYGG-036419$0$BYGG-024778$
 70
     0
  3

  4

  5

  6

  7

 40
0.0
 41
3.0
 42
1.5
 43
10.0
 44
1.5
 45
0.0
 46
0.0
 47
0.0
 48
0.0
140
3.0
141
-5.0
142
0.0
143
25.399999999999999
144
-1.0
145
0.0
146
1.0
147
1.0
 71
     0
 72
     0
 73
     0
 74
     0
 75
     0
 76
     0
 77
     1
 78
     8
170
     0
171
     0
172
     1
173
     0
174
     0
175
     0
176
   256
177
   256
178
     2
  0
DIMSTYLE
  2
BYGG-036419$0$BYGG-035431$
 70
     0
  3

  4

  5

  6

  7

 40
0.0
 41
3.0
 42
1.5
 43
10.0
 44
1.5
 45
0.0
 46
0.0
 47
0.0
 48
0.0
140
3.0
141
-5.0
142
0.0
143
25.399999999999999
144
-1.0
145
0.0
146
1.0
147
1.0
 71
     0
 72
     0
 73
     0
 74
     0
 75
     0
 76
     0
 77
     1
 78
     8
170
     0
171
     0
172
     1
173
     0
174
     0
175
     0
176
   256
177
   256
178
     2
  0
DIMSTYLE
  2
BYGG-036419$0$BYGG-035435$
 70
     0
  3

  4

  5

  6

  7

 40
0.0
 41
3.0
 42
1.5
 43
10.0
 44
1.5
 45
0.0
 46
0.0
 47
0.0
 48
0.0
140
3.0
141
-5.0
142
0.0
143
25.399999999999999
144
-1.0
145
0.0
146
1.0
147
1.0
 71
     0
 72
     0
 73
     0
 74
     0
 75
     0
 76
     0
 77
     1
 78
     8
170
     0
171
     0
172
     1
173
     0
174
     0
175
     0
176
   256
177
   256
178
     2
  0
DIMSTYLE
  2
BYGG-036419$0$BYGG-014411$
 70
     0
  3

  4

  5

  6

  7

 40
0.0
 41
3.0
 42
1.5
 43
10.0
 44
1.5
 45
0.0
 46
0.0
 47
0.0
 48
0.0
140
3.0
141
-5.0
142
0.0
143
25.399999999999999
144
-1.0
145
0.0
146
1.0
147
1.0
 71
     0
 72
     0
 73
     0
 74
     0
 75
     0
 76
     0
 77
     1
 78
     8
170
     0
171
     0
172
     1
173
     0
174
     0
175
     0
176
   256
177
   256
178
   256
  0
DIMSTYLE
  2
BYGG-036419$0$BYGG-024787$
 70
     0
  3

  4

  5

  6

  7

 40
0.0
 41
3.0
 42
1.5
 43
10.0
 44
1.5
 45
0.0
 46
0.0
 47
0.0
 48
0.0
140
3.0
141
-5.0
142
0.0
143
25.399999999999999
144
-1.0
145
0.0
146
1.0
147
1.0
 71
     0
 72
     0
 73
     0
 74
     0
 75
     0
 76
     0
 77
     1
 78
     8
170
     0
171
     0
172
     1
173
     0
174
     0
175
     0
176
   256
177
   256
178
     2
  0
DIMSTYLE
  2
BYGG-036419$0$BYGG-024788$
 70
     0
  3

  4

  5

  6

  7

 40
0.0
 41
3.0
 42
1.5
 43
10.0
 44
1.5
 45
0.0
 46
0.0
 47
0.0
 48
0.0
140
3.0
141
-5.0
142
0.0
143
25.399999999999999
144
-1.0
145
0.0
146
1.0
147
1.0
 71
     0
 72
     0
 73
     0
 74
     0
 75
     0
 76
     0
 77
     1
 78
     8
170
     0
171
     0
172
     1
173
     0
174
     0
175
     0
176
   256
177
   256
178
     2
  0
DIMSTYLE
  2
BYGG-036419$0$BYGG-024789$
 70
     0
  3

  4

  5

  6

  7

 40
0.0
 41
3.0
 42
1.5
 43
10.0
 44
1.5
 45
0.0
 46
0.0
 47
0.0
 48
0.0
140
3.0
141
-5.0
142
0.0
143
25.399999999999999
144
-1.0
145
0.0
146
1.0
147
1.0
 71
     0
 72
     0
 73
     0
 74
     0
 75
     0
 76
     0
 77
     1
 78
     8
170
     0
171
     0
172
     1
173
     0
174
     0
175
     0
176
   256
177
   256
178
     2
  0
DIMSTYLE
  2
BYGG-036419$0$BYGG-024817$
 70
     0
  3

  4

  5

  6

  7

 40
0.0
 41
3.0
 42
1.5
 43
10.0
 44
1.5
 45
0.0
 46
0.0
 47
0.0
 48
0.0
140
3.0
141
-5.0
142
0.0
143
25.399999999999999
144
-1.0
145
0.0
146
1.0
147
1.0
 71
     0
 72
     0
 73
     0
 74
     0
 75
     0
 76
     0
 77
     1
 78
     8
170
     0
171
     0
172
     1
173
     0
174
     0
175
     0
176
   256
177
   256
178
     2
  0
DIMSTYLE
  2
BYGG-036419$0$BYGG-024794$
 70
     0
  3

  4

  5

  6

  7

 40
0.0
 41
3.0
 42
1.5
 43
10.0
 44
1.5
 45
0.0
 46
0.0
 47
0.0
 48
0.0
140
3.0
141
-5.0
142
0.0
143
25.399999999999999
144
-1.0
145
0.0
146
1.0
147
1.0
 71
     0
 72
     0
 73
     0
 74
     0
 75
     0
 76
     0
 77
     1
 78
     8
170
     0
171
     0
172
     1
173
     0
174
     0
175
     0
176
   256
177
   256
178
     2
  0
DIMSTYLE
  2
BYGG-024756$0$MASKIN
 70
     0
  3

  4

  5

  6

  7

 40
0.0
 41
3.0
 42
1.5
 43
10.0
 44
1.5
 45
0.0
 46
0.0
 47
0.0
 48
0.0
140
3.0
141
-5.0
142
0.0
143
25.399999999999999
144
-1.0
145
0.0
146
1.0
147
1.0
 71
     0
 72
     0
 73
     0
 74
     0
 75
     0
 76
     0
 77
     1
 78
     8
170
     0
171
     0
172
     1
173
     0
174
     0
175
     0
176
   256
177
   256
178
     2
  0
DIMSTYLE
  2
BYGG-024756$0$STANDARD
 70
     0
  3

  4

  5

  6

  7

 40
1.0
 41
0.18
 42
0.0625
 43
0.38
 44
0.18
 45
0.0
 46
0.0
 47
0.0
 48
0.0
140
0.18
141
0.09
142
0.0
143
25.399999999999999
144
1.0
145
0.0
146
1.0
147
0.09
 71
     0
 72
     0
 73
     1
 74
     1
 75
     0
 76
     0
 77
     0
 78
     0
170
     0
171
     2
172
     0
173
     0
174
     0
175
     0
176
     0
177
     0
178
     0
  0
DIMSTYLE
  2
BYGG-033167$0$STANDARD
 70
     0
  3

  4

  5

  6

  7

 40
1.0
 41
0.18
 42
0.0625
 43
0.38
 44
0.18
 45
0.0
 46
0.0
 47
0.0
 48
0.0
140
0.18
141
0.09
142
0.0
143
25.399999999999999
144
1.0
145
0.0
146
1.0
147
0.09
 71
     0
 72
     0
 73
     1
 74
     1
 75
     0
 76
     0
 77
     0
 78
     0
170
     0
171
     2
172
     0
173
     0
174
     0
175
     0
176
     0
177
     0
178
     0
  0
DIMSTYLE
  2
BYGG-033167$0$MASKIN
 70
     0
  3

  4

  5

  6

  7

 40
0.0
 41
3.0
 42
1.5
 43
10.0
 44
1.5
 45
0.0
 46
0.0
 47
0.0
 48
0.0
140
3.0
141
-5.0
142
0.0
143
25.399999999999999
144
-1.0
145
0.0
146
1.0
147
1.0
 71
     0
 72
     0
 73
     0
 74
     0
 75
     0
 76
     0
 77
     1
 78
     8
170
     0
171
     0
172
     1
173
     0
174
     0
175
     0
176
   256
177
   256
178
     2
  0
DIMSTYLE
  2
BYGG-033167$0$BYGG-020132$
 70
     0
  3

  4

  5

  6

  7

 40
0.0
 41
3.0
 42
1.5
 43
10.0
 44
1.5
 45
0.0
 46
0.0
 47
0.0
 48
0.0
140
3.0
141
-5.0
142
0.0
143
25.399999999999999
144
-1.0
145
0.0
146
1.0
147
1.0
 71
     0
 72
     0
 73
     0
 74
     0
 75
     0
 76
     0
 77
     1
 78
     8
170
     0
171
     0
172
     1
173
     0
174
     0
175
     0
176
   256
177
   256
178
     2
  0
DIMSTYLE
  2
BYGG-033167$0$BYGG-024943$
 70
     0
  3

  4

  5

  6

  7

 40
0.0
 41
3.0
 42
1.5
 43
10.0
 44
1.5
 45
0.0
 46
0.0
 47
0.0
 48
0.0
140
3.0
141
-5.0
142
0.0
143
25.399999999999999
144
-1.0
145
0.0
146
1.0
147
1.0
 71
     0
 72
     0
 73
     0
 74
     0
 75
     0
 76
     0
 77
     1
 78
     8
170
     0
171
     0
172
     1
173
     0
174
     0
175
     0
176
   256
177
   256
178
     2
  0
DIMSTYLE
  2
BYGG-026410$0$STANDARD
 70
     0
  3

  4

  5

  6

  7

 40
1.0
 41
0.18
 42
0.0625
 43
0.38
 44
0.18
 45
0.0
 46
0.0
 47
0.0
 48
0.0
140
0.18
141
0.09
142
0.0
143
25.399999999999999
144
1.0
145
0.0
146
1.0
147
0.09
 71
     0
 72
     0
 73
     1
 74
     1
 75
     0
 76
     0
 77
     0
 78
     0
170
     0
171
     2
172
     0
173
     0
174
     0
175
     0
176
     0
177
     0
178
     0
  0
DIMSTYLE
  2
BYGG-026410$0$MASKIN
 70
     0
  3

  4

  5

  6

  7

 40
0.0
 41
3.0
 42
1.5
 43
10.0
 44
1.5
 45
0.0
 46
0.0
 47
0.0
 48
0.0
140
3.0
141
-5.0
142
0.0
143
25.399999999999999
144
-1.0
145
0.0
146
1.0
147
1.0
 71
     0
 72
     0
 73
     0
 74
     0
 75
     0
 76
     0
 77
     1
 78
     8
170
     0
171
     0
172
     1
173
     0
174
     0
175
     0
176
   256
177
   256
178
     2
  0
DIMSTYLE
  2
BYGG-035883$0$STANDARD
 70
     0
  3

  4

  5

  6

  7

 40
1.0
 41
0.18
 42
0.0625
 43
0.38
 44
0.18
 45
0.0
 46
0.0
 47
0.0
 48
0.0
140
0.18
141
0.09
142
0.0
143
25.399999999999999
144
1.0
145
0.0
146
1.0
147
0.09
 71
     0
 72
     0
 73
     1
 74
     1
 75
     0
 76
     0
 77
     0
 78
     0
170
     0
171
     2
172
     0
173
     0
174
     0
175
     0
176
     0
177
     0
178
     0
  0
ENDTAB
  0
ENDSEC
  0
SECTION
  2
BLOCKS
  0
BLOCK
  8
0
  2
$MODEL_SPACE
 70
     0
 10
0.0
 20
0.0
 30
0.0
  3
$MODEL_SPACE
  1

  0
ENDBLK
  5
37
  8
0
  0
BLOCK
 67
     1
  8
0
  2
$PAPER_SPACE
 70
     0
 10
0.0
 20
0.0
 30
0.0
  3
$PAPER_SPACE
  1

  0
ENDBLK
  5
35
 67
     1
  8
0
  0
BLOCK
  8
0
  2
*D176
 70
     1
 10
0.0
 20
0.0
 30
0.0
  3
*D176
  1

  0
LINE
  5
18DE
  8
SAPA_MATT
 10
-24.999999999999659
 20
-107.4999999990104
 30
0.0
 11
-24.999999999999659
 21
-127.15375231270581
 31
0.0
  0
LINE
  5
18DF
  8
SAPA_MATT
 10
25.000000000000341
 20
-107.4999999990104
 30
0.0
 11
25.000000000000341
 21
-127.15375231270581
 31
0.0
  0
LINE
  5
18E0
  8
SAPA_MATT
 10
-21.999999999999659
 20
-125.65375231270581
 30
0.0
 11
22.000000000000341
 21
-125.65375231270581
 31
0.0
  0
SOLID
  5
18E1
  8
SAPA_MATT
 10
-21.999999999999659
 20
-125.15375231270581
 30
0.0
 11
-21.999999999999659
 21
-126.15375231270581
 31
0.0
 12
-24.999999999999659
 22
-125.65375231270581
 32
0.0
 13
-24.999999999999659
 23
-125.65375231270581
 33
0.0
  0
SOLID
  5
18E2
  8
SAPA_MATT
 10
22.000000000000341
 20
-125.15375231270581
 30
0.0
 11
22.000000000000341
 21
-126.15375231270581
 31
0.0
 12
25.000000000000341
 22
-125.65375231270581
 32
0.0
 13
25.000000000000341
 23
-125.65375231270581
 33
0.0
  0
INSERT
  5
18E3
  8
0
  2
*U190
 10
0.0
 20
0.0
 30
0.0
  0
POINT
  5
18E4
  8
DEFPOINTS
 62
     0
 10
-24.999999999999659
 20
-105.9999999990104
 30
0.0
  0
POINT
  5
18E5
  8
DEFPOINTS
 62
     0
 10
25.000000000000341
 20
-105.9999999990104
 30
0.0
  0
POINT
  5
18E6
  8
DEFPOINTS
 62
     0
 10
25.000000000000341
 20
-125.65375231270581
 30
0.0
  0
ENDBLK
  5
1891
  8
0
  0
BLOCK
  8
0
  2
*D177
 70
     1
 10
0.0
 20
0.0
 30
0.0
  3
*D177
  1

  0
LINE
  5
2ACE
  8
SAPA_MATT
 10
25.000000000000341
 20
-107.4999999990104
 30
0.0
 11
25.000000000000341
 21
-127.15375231270581
 31
0.0
  0
LINE
  5
2ACF
  8
SAPA_MATT
 10
75.499999999900012
 20
-83.498715294908123
 30
0.0
 11
75.499999999900012
 21
-127.15375231270581
 31
0.0
  0
LINE
  5
2AD0
  8
SAPA_MATT
 10
28.000000000000341
 20
-125.65375231270581
 30
0.0
 11
72.499999999900012
 21
-125.65375231270581
 31
0.0
  0
SOLID
  5
2AD1
  8
SAPA_MATT
 10
28.000000000000341
 20
-125.15375231270581
 30
0.0
 11
28.000000000000341
 21
-126.15375231270581
 31
0.0
 12
25.000000000000341
 22
-125.65375231270581
 32
0.0
 13
25.000000000000341
 23
-125.65375231270581
 33
0.0
  0
SOLID
  5
2AD2
  8
SAPA_MATT
 10
72.499999999900012
 20
-125.15375231270581
 30
0.0
 11
72.499999999900012
 21
-126.15375231270581
 31
0.0
 12
75.499999999900012
 22
-125.65375231270581
 32
0.0
 13
75.499999999900012
 23
-125.65375231270581
 33
0.0
  0
TEXT
  8
SAPA_MATT
  40
3
  5
2ADB
  62
2
  72
0
  71
0
 10
44.2500
 20
-128.464
 30
0.000000
  1
50.5
  7
ISO
  0
POINT
  5
2AD4
  8
DEFPOINTS
 62
     0
 10
25.000000000000341
 20
-105.9999999990105
 30
0.0
  0
POINT
  5
2AD5
  8
DEFPOINTS
 62
     0
 10
75.499999999900012
 20
-81.998715294908109
 30
0.0
  0
POINT
  5
2AD6
  8
DEFPOINTS
 62
     0
 10
75.499999999900012
 20
-125.65375231270581
 30
0.0
  0
ENDBLK
  5
189D
  8
0
  0
BLOCK
  8
0
  2
*D178
 70
     1
 10
0.0
 20
0.0
 30
0.0
  3
*D178
  1

  0
LINE
  5
2AC3
  8
SAPA_MATT
 10
75.500000299843464
 20
-83.498715167729216
 30
0.0
 11
75.500000299843464
 21
-127.15246760755331
 31
0.0
  0
LINE
  5
2AC4
  8
SAPA_MATT
 10
80.50000029994942
 20
-83.498715651403174
 30
0.0
 11
80.50000029994942
 21
-127.15246760755331
 31
0.0
  0
LINE
  5
2AC5
  8
SAPA_MATT
 10
72.500000299843464
 20
-125.65246760755331
 30
0.0
 11
69.500000299843464
 21
-125.65246760755331
 31
0.0
  0
LINE
  5
2AC6
  8
SAPA_MATT
 10
83.500000299949434
 20
-125.65246760755331
 30
0.0
 11
86.500000299949406
 21
-125.65246760755331
 31
0.0
  0
LINE
  5
2AC7
  8
SAPA_MATT
 10
75.500000299843464
 20
-125.65246760755331
 30
0.0
 11
80.50000029994942
 21
-125.65246760755331
 31
0.0
  0
SOLID
  5
2AC8
  8
SAPA_MATT
 10
72.500000299843464
 20
-125.15246760755331
 30
0.0
 11
72.500000299843464
 21
-126.15246760755331
 31
0.0
 12
75.500000299843464
 22
-125.65246760755331
 32
0.0
 13
75.500000299843464
 23
-125.65246760755331
 33
0.0
  0
SOLID
  5
2AC9
  8
SAPA_MATT
 10
83.500000299949434
 20
-125.15246760755331
 30
0.0
 11
83.500000299949434
 21
-126.15246760755331
 31
0.0
 12
80.50000029994942
 22
-125.65246760755331
 32
0.0
 13
80.50000029994942
 23
-125.65246760755331
 33
0.0
  0
TEXT
  8
SAPA_MATT
  40
3
  5
2ADC
  62
2
  72
0
  71
0
 10
72.0000
 20
-128.462
 30
0.000000
  1
5
  7
ISO
  0
POINT
  5
2ACB
  8
DEFPOINTS
 62
     0
 10
75.500000299843464
 20
-81.998715167729216
 30
0.0
  0
POINT
  5
2ACC
  8
DEFPOINTS
 62
     0
 10
80.50000029994942
 20
-81.998715651403174
 30
0.0
  0
POINT
  5
2ACD
  8
DEFPOINTS
 62
     0
 10
80.50000029994942
 20
-125.65246760755331
 30
0.0
  0
ENDBLK
  5
18A9
  8
0
  0
BLOCK
  8
0
  2
*D179
 70
     1
 10
0.0
 20
0.0
 30
0.0
  3
*D179
  1

  0
LINE
  5
2ABA
  8
SAPA_MATT
 10
80.500000002078366
 20
-83.498715298616162
 30
0.0
 11
80.500000002078366
 21
-127.15246760755331
 31
0.0
  0
LINE
  5
2ABB
  8
SAPA_MATT
 10
118.00000000207829
 20
-83.498715298616162
 30
0.0
 11
118.00000000207829
 21
-127.15246760755331
 31
0.0
  0
LINE
  5
2ABC
  8
SAPA_MATT
 10
83.500000002078366
 20
-125.65246760755331
 30
0.0
 11
115.00000000207829
 21
-125.65246760755331
 31
0.0
  0
SOLID
  5
2ABD
  8
SAPA_MATT
 10
83.500000002078366
 20
-125.15246760755331
 30
0.0
 11
83.500000002078366
 21
-126.15246760755331
 31
0.0
 12
80.500000002078366
 22
-125.65246760755331
 32
0.0
 13
80.500000002078366
 23
-125.65246760755331
 33
0.0
  0
SOLID
  5
2ABE
  8
SAPA_MATT
 10
115.00000000207829
 20
-125.15246760755331
 30
0.0
 11
115.00000000207829
 21
-126.15246760755331
 31
0.0
 12
118.00000000207829
 22
-125.65246760755331
 32
0.0
 13
118.00000000207829
 23
-125.65246760755331
 33
0.0
  0
TEXT
  8
SAPA_MATT
  40
3
  5
2ADD
  62
2
  72
0
  71
0
 10
93.2500
 20
-128.462
 30
0.000000
  1
37.5
  7
ISO
  0
POINT
  5
2AC0
  8
DEFPOINTS
 62
     0
 10
80.500000002078366
 20
-81.998715298616148
 30
0.0
  0
POINT
  5
2AC1
  8
DEFPOINTS
 62
     0
 10
118.00000000207829
 20
-81.998715298616148
 30
0.0
  0
POINT
  5
2AC2
  8
DEFPOINTS
 62
     0
 10
118.00000000207829
 20
-125.65246760755331
 30
0.0
  0
ENDBLK
  5
18B7
  8
0
  0
BLOCK
  8
0
  2
*U180
 70
     1
 10
0.0
 20
0.0
 30
0.0
  3
*U180
  1

  0
TEXT
  5
1949
  8
SAPA_ARTIKELNR
 10
-6.4303857324235638
 20
66.451161059970659
 30
0.0
 40
3.5
  1
68654
  7
ISO
  0
ENDBLK
  5
194B
  8
0
  0
BLOCK
  8
0
  2
*U181
 70
     1
 10
0.0
 20
0.0
 30
0.0
  3
*U181
  1

  0
TEXT
  5
194D
  8
SAPA_ARTIKELNR
 10
-6.4303857324235638
 20
-102.82938840410699
 30
0.0
 40
3.5
  1
42657
  7
ISO
  0
ENDBLK
  5
194F
  8
0
  0
BLOCK
  8
0
  2
*U182
 70
     1
 10
0.0
 20
0.0
 30
0.0
  3
*U182
  1

  0
TEXT
  5
1951
  8
SAPA_ARTIKELNR
 10
-6.4303857324235638
 20
-111.8951902723834
 30
0.0
 40
3.5
  1
42227
  7
ISO
  0
ENDBLK
  5
1953
  8
0
  0
BLOCK
  8
0
  2
*U183
 70
     1
 10
0.0
 20
0.0
 30
0.0
  3
*U183
  1

  0
TEXT
  5
19B3
  8
SAPA_ARTIKELNR
 10
31.718109852181211
 20
5.4302846488354239
 30
0.0
 40
3.5
  1
86204
  7
ISO
  0
ENDBLK
  5
19B5
  8
0
  0
BLOCK
  8
0
  2
*U184
 70
     1
 10
0.0
 20
0.0
 30
0.0
  3
*U184
  1

  0
TEXT
  5
19B7
  8
SAPA_ARTIKELNR
 10
67.661931768624783
 20
15.18326904408576
 30
0.0
 40
3.5
  1
86302
  7
ISO
  0
ENDBLK
  5
19B9
  8
0
  0
BLOCK
  8
0
  2
*U185
 70
     1
 10
0.0
 20
0.0
 30
0.0
  3
*U185
  1

  0
TEXT
  5
19BB
  8
SAPA_ARTIKELNR
 10
99.411118366412353
 20
3.6247068897019821
 30
0.0
 40
3.5
  1
42728
  7
ISO
  0
ENDBLK
  5
19BD
  8
0
  0
BLOCK
  8
0
  2
*U186
 70
     1
 10
0.0
 20
0.0
 30
0.0
  3
*U186
  1

  0
SOLID
  5
277F
  8
SAPA_FOGBAND
  6
CONTINUOUS
 10
18.616845196571941
 20
-84.382617244086674
 30
0.0
 11
18.436567632798742
 21
-84.457290655993106
 31
0.0
 12
18.79712276034514
 22
-84.457290655993106
 32
0.0
 13
18.79712276034514
 23
-84.457290655993106
 33
0.0
210
0.0
220
0.0
230
1.0
  0
SOLID
  5
2780
  8
SAPA_FOGBAND
  6
CONTINUOUS
 10
18.436567632798742
 20
-84.457290655993106
 30
0.0
 11
18.3618942208923
 21
-84.637568219766294
 31
0.0
 12
18.871796172251582
 22
-84.637568219766294
 32
0.0
 13
18.871796172251582
 23
-84.637568219766294
 33
0.0
210
0.0
220
0.0
230
1.0
  0
SOLID
  5
2781
  8
SAPA_FOGBAND
  6
CONTINUOUS
 10
-18.436567632798742
 20
-84.457290655993106
 30
0.0
 11
-18.79712276034514
 21
-84.457290655993106
 31
0.0
 12
-18.871796172251582
 22
-84.637568219766294
 32
0.0
 13
-18.871796172251582
 23
-84.637568219766294
 33
0.0
210
0.0
220
0.0
230
-1.0
  0
SOLID
  5
2782
  8
SAPA_FOGBAND
  6
CONTINUOUS
 10
-18.436567632798742
 20
-84.817845783539497
 30
0.0
 11
-18.79712276034514
 21
-84.817845783539497
 31
0.0
 12
-18.616845196571941
 22
-84.892519195445942
 32
0.0
 13
-18.616845196571941
 23
-84.892519195445942
 33
0.0
210
0.0
220
0.0
230
-1.0
  0
SOLID
  5
2783
  8
SAPA_FOGBAND
  6
CONTINUOUS
 10
18.3618942208923
 20
-84.637568219766294
 30
0.0
 11
18.436567632798742
 21
-84.817845783539497
 31
0.0
 12
18.79712276034514
 22
-84.817845783539497
 32
0.0
 13
18.79712276034514
 23
-84.817845783539497
 33
0.0
210
0.0
220
0.0
230
1.0
  0
SOLID
  5
2784
  8
SAPA_FOGBAND
  6
CONTINUOUS
 10
-18.3618942208923
 20
-84.637568219766294
 30
0.0
 11
-18.871796172251582
 21
-84.637568219766294
 31
0.0
 12
-18.79712276034514
 22
-84.817845783539497
 32
0.0
 13
-18.79712276034514
 23
-84.817845783539497
 33
0.0
210
0.0
220
0.0
230
-1.0
  0
LINE
  5
2785
  8
SAPA_FOGBAND
  6
CONTINUOUS
 10
18.616845196571941
 20
-84.382617244086674
 30
0.0
 11
18.436567632798742
 21
-84.457290655993106
 31
0.0
  0
LINE
  5
2786
  8
SAPA_FOGBAND
  6
CONTINUOUS
 10
18.79712276034514
 20
-84.457290655993106
 30
0.0
 11
18.616845196571941
 21
-84.382617244086674
 31
0.0
  0
LINE
  5
2787
  8
SAPA_FOGBAND
  6
CONTINUOUS
 10
18.436567632798742
 20
-84.457290655993106
 30
0.0
 11
18.3618942208923
 21
-84.637568219766294
 31
0.0
  0
LINE
  5
2788
  8
SAPA_FOGBAND
  6
CONTINUOUS
 10
18.79712276034514
 20
-84.457290655993106
 30
0.0
 11
18.871796172251582
 21
-84.637568219766294
 31
0.0
  0
LINE
  5
2789
  8
SAPA_FOGBAND
  6
CONTINUOUS
 10
18.79712276034514
 20
-84.817845783539497
 30
0.0
 11
18.616845196571941
 21
-84.892519195445942
 31
0.0
  0
LINE
  5
278A
  8
SAPA_FOGBAND
  6
CONTINUOUS
 10
18.616845196571941
 20
-84.892519195445942
 30
0.0
 11
18.436567632798742
 21
-84.817845783539497
 31
0.0
  0
LINE
  5
278B
  8
SAPA_FOGBAND
  6
CONTINUOUS
 10
18.3618942208923
 20
-84.637568219766294
 30
0.0
 11
18.436567632798742
 21
-84.817845783539497
 31
0.0
  0
LINE
  5
278C
  8
SAPA_FOGBAND
  6
CONTINUOUS
 10
18.871796172251582
 20
-84.637568219766294
 30
0.0
 11
18.79712276034514
 21
-84.817845783539497
 31
0.0
  0
ENDBLK
  5
278E
  8
0
  0
BLOCK
  8
0
  2
*U187
 70
     1
 10
0.0
 20
0.0
 30
0.0
  3
*U187
  1

  0
SOLID
  5
28A1
  8
SAPA_FOGBAND
  6
CONTINUOUS
 10
-18.679356795600139
 20
-84.386620750673529
 30
0.0
 11
-18.859634359373342
 21
-84.461294162579961
 31
0.0
 12
-18.49907923182694
 22
-84.461294162579961
 32
0.0
 13
-18.49907923182694
 23
-84.461294162579961
 33
0.0
210
0.0
220
0.0
230
1.0
  0
SOLID
  5
28A2
  8
SAPA_FOGBAND
  6
CONTINUOUS
 10
-18.859634359373342
 20
-84.461294162579961
 30
0.0
 11
-18.93430777127978
 21
-84.641571726353149
 31
0.0
 12
-18.424405819920501
 22
-84.641571726353149
 32
0.0
 13
-18.424405819920501
 23
-84.641571726353149
 33
0.0
210
0.0
220
0.0
230
1.0
  0
SOLID
  5
28A3
  8
SAPA_FOGBAND
  6
CONTINUOUS
 10
18.859634359373342
 20
-84.461294162579961
 30
0.0
 11
18.49907923182694
 21
-84.461294162579961
 31
0.0
 12
18.424405819920501
 22
-84.641571726353149
 32
0.0
 13
18.424405819920501
 23
-84.641571726353149
 33
0.0
210
0.0
220
0.0
230
-1.0
  0
SOLID
  5
28A4
  8
SAPA_FOGBAND
  6
CONTINUOUS
 10
18.859634359373342
 20
-84.821849290126366
 30
0.0
 11
18.49907923182694
 21
-84.821849290126366
 31
0.0
 12
18.679356795600139
 22
-84.896522702032783
 32
0.0
 13
18.679356795600139
 23
-84.896522702032783
 33
0.0
210
0.0
220
0.0
230
-1.0
  0
SOLID
  5
28A5
  8
SAPA_FOGBAND
  6
CONTINUOUS
 10
-18.93430777127978
 20
-84.641571726353149
 30
0.0
 11
-18.859634359373342
 21
-84.821849290126366
 31
0.0
 12
-18.49907923182694
 22
-84.821849290126366
 32
0.0
 13
-18.49907923182694
 23
-84.821849290126366
 33
0.0
210
0.0
220
0.0
230
1.0
  0
SOLID
  5
28A6
  8
SAPA_FOGBAND
  6
CONTINUOUS
 10
18.93430777127978
 20
-84.641571726353149
 30
0.0
 11
18.424405819920501
 21
-84.641571726353149
 31
0.0
 12
18.49907923182694
 22
-84.821849290126366
 32
0.0
 13
18.49907923182694
 23
-84.821849290126366
 33
0.0
210
0.0
220
0.0
230
-1.0
  0
LINE
  5
28A7
  8
SAPA_FOGBAND
  6
CONTINUOUS
 10
-18.679356795600139
 20
-84.386620750673529
 30
0.0
 11
-18.859634359373342
 21
-84.461294162579961
 31
0.0
  0
LINE
  5
28A8
  8
SAPA_FOGBAND
  6
CONTINUOUS
 10
-18.49907923182694
 20
-84.461294162579961
 30
0.0
 11
-18.679356795600139
 21
-84.386620750673529
 31
0.0
  0
LINE
  5
28A9
  8
SAPA_FOGBAND
  6
CONTINUOUS
 10
-18.859634359373342
 20
-84.461294162579961
 30
0.0
 11
-18.93430777127978
 21
-84.641571726353149
 31
0.0
  0
LINE
  5
28AA
  8
SAPA_FOGBAND
  6
CONTINUOUS
 10
-18.49907923182694
 20
-84.461294162579961
 30
0.0
 11
-18.424405819920501
 21
-84.641571726353149
 31
0.0
  0
LINE
  5
28AB
  8
SAPA_FOGBAND
  6
CONTINUOUS
 10
-18.49907923182694
 20
-84.821849290126366
 30
0.0
 11
-18.679356795600139
 21
-84.896522702032783
 31
0.0
  0
LINE
  5
28AC
  8
SAPA_FOGBAND
  6
CONTINUOUS
 10
-18.679356795600139
 20
-84.896522702032783
 30
0.0
 11
-18.859634359373342
 21
-84.821849290126366
 31
0.0
  0
LINE
  5
28AD
  8
SAPA_FOGBAND
  6
CONTINUOUS
 10
-18.93430777127978
 20
-84.641571726353149
 30
0.0
 11
-18.859634359373342
 21
-84.821849290126366
 31
0.0
  0
LINE
  5
28AE
  8
SAPA_FOGBAND
  6
CONTINUOUS
 10
-18.424405819920501
 20
-84.641571726353149
 30
0.0
 11
-18.49907923182694
 21
-84.821849290126366
 31
0.0
  0
ENDBLK
  5
28B0
  8
0
  0
BLOCK
  8
0
  2
*U188
 70
     1
 10
0.0
 20
0.0
 30
0.0
  3
*U188
  1

  0
SOLID
  5
291D
  8
SAPA_FOGBAND
  6
CONTINUOUS
 10
18.616845196571941
 20
-84.382617244086674
 30
0.0
 11
18.436567632798742
 21
-84.457290655993106
 31
0.0
 12
18.79712276034514
 22
-84.457290655993106
 32
0.0
 13
18.79712276034514
 23
-84.457290655993106
 33
0.0
210
0.0
220
0.0
230
1.0
  0
SOLID
  5
291E
  8
SAPA_FOGBAND
  6
CONTINUOUS
 10
18.436567632798742
 20
-84.457290655993106
 30
0.0
 11
18.3618942208923
 21
-84.637568219766294
 31
0.0
 12
18.871796172251582
 22
-84.637568219766294
 32
0.0
 13
18.871796172251582
 23
-84.637568219766294
 33
0.0
210
0.0
220
0.0
230
1.0
  0
SOLID
  5
291F
  8
SAPA_FOGBAND
  6
CONTINUOUS
 10
-18.436567632798742
 20
-84.457290655993106
 30
0.0
 11
-18.79712276034514
 21
-84.457290655993106
 31
0.0
 12
-18.871796172251582
 22
-84.637568219766294
 32
0.0
 13
-18.871796172251582
 23
-84.637568219766294
 33
0.0
210
0.0
220
0.0
230
-1.0
  0
SOLID
  5
2920
  8
SAPA_FOGBAND
  6
CONTINUOUS
 10
-18.436567632798742
 20
-84.817845783539497
 30
0.0
 11
-18.79712276034514
 21
-84.817845783539497
 31
0.0
 12
-18.616845196571941
 22
-84.892519195445942
 32
0.0
 13
-18.616845196571941
 23
-84.892519195445942
 33
0.0
210
0.0
220
0.0
230
-1.0
  0
SOLID
  5
2921
  8
SAPA_FOGBAND
  6
CONTINUOUS
 10
18.3618942208923
 20
-84.637568219766294
 30
0.0
 11
18.436567632798742
 21
-84.817845783539497
 31
0.0
 12
18.79712276034514
 22
-84.817845783539497
 32
0.0
 13
18.79712276034514
 23
-84.817845783539497
 33
0.0
210
0.0
220
0.0
230
1.0
  0
SOLID
  5
2922
  8
SAPA_FOGBAND
  6
CONTINUOUS
 10
-18.3618942208923
 20
-84.637568219766294
 30
0.0
 11
-18.871796172251582
 21
-84.637568219766294
 31
0.0
 12
-18.79712276034514
 22
-84.817845783539497
 32
0.0
 13
-18.79712276034514
 23
-84.817845783539497
 33
0.0
210
0.0
220
0.0
230
-1.0
  0
LINE
  5
2923
  8
SAPA_FOGBAND
  6
CONTINUOUS
 10
18.616845196571941
 20
-84.382617244086674
 30
0.0
 11
18.436567632798742
 21
-84.457290655993106
 31
0.0
  0
LINE
  5
2924
  8
SAPA_FOGBAND
  6
CONTINUOUS
 10
18.79712276034514
 20
-84.457290655993106
 30
0.0
 11
18.616845196571941
 21
-84.382617244086674
 31
0.0
  0
LINE
  5
2925
  8
SAPA_FOGBAND
  6
CONTINUOUS
 10
18.436567632798742
 20
-84.457290655993106
 30
0.0
 11
18.3618942208923
 21
-84.637568219766294
 31
0.0
  0
LINE
  5
2926
  8
SAPA_FOGBAND
  6
CONTINUOUS
 10
18.79712276034514
 20
-84.457290655993106
 30
0.0
 11
18.871796172251582
 21
-84.637568219766294
 31
0.0
  0
LINE
  5
2927
  8
SAPA_FOGBAND
  6
CONTINUOUS
 10
18.79712276034514
 20
-84.817845783539497
 30
0.0
 11
18.616845196571941
 21
-84.892519195445942
 31
0.0
  0
LINE
  5
2928
  8
SAPA_FOGBAND
  6
CONTINUOUS
 10
18.616845196571941
 20
-84.892519195445942
 30
0.0
 11
18.436567632798742
 21
-84.817845783539497
 31
0.0
  0
LINE
  5
2929
  8
SAPA_FOGBAND
  6
CONTINUOUS
 10
18.3618942208923
 20
-84.637568219766294
 30
0.0
 11
18.436567632798742
 21
-84.817845783539497
 31
0.0
  0
LINE
  5
292A
  8
SAPA_FOGBAND
  6
CONTINUOUS
 10
18.871796172251582
 20
-84.637568219766294
 30
0.0
 11
18.79712276034514
 21
-84.817845783539497
 31
0.0
  0
ENDBLK
  5
292C
  8
0
  0
BLOCK
  8
0
  2
*U189
 70
     1
 10
0.0
 20
0.0
 30
0.0
  3
*U189
  1

  0
SOLID
  5
2A3F
  8
SAPA_FOGBAND
  6
CONTINUOUS
 10
-18.679356795600139
 20
-84.386620750673529
 30
0.0
 11
-18.859634359373342
 21
-84.461294162579961
 31
0.0
 12
-18.49907923182694
 22
-84.461294162579961
 32
0.0
 13
-18.49907923182694
 23
-84.461294162579961
 33
0.0
210
0.0
220
0.0
230
1.0
  0
SOLID
  5
2A40
  8
SAPA_FOGBAND
  6
CONTINUOUS
 10
-18.859634359373342
 20
-84.461294162579961
 30
0.0
 11
-18.93430777127978
 21
-84.641571726353149
 31
0.0
 12
-18.424405819920501
 22
-84.641571726353149
 32
0.0
 13
-18.424405819920501
 23
-84.641571726353149
 33
0.0
210
0.0
220
0.0
230
1.0
  0
SOLID
  5
2A41
  8
SAPA_FOGBAND
  6
CONTINUOUS
 10
18.859634359373342
 20
-84.461294162579961
 30
0.0
 11
18.49907923182694
 21
-84.461294162579961
 31
0.0
 12
18.424405819920501
 22
-84.641571726353149
 32
0.0
 13
18.424405819920501
 23
-84.641571726353149
 33
0.0
210
0.0
220
0.0
230
-1.0
  0
SOLID
  5
2A42
  8
SAPA_FOGBAND
  6
CONTINUOUS
 10
18.859634359373342
 20
-84.821849290126366
 30
0.0
 11
18.49907923182694
 21
-84.821849290126366
 31
0.0
 12
18.679356795600139
 22
-84.896522702032783
 32
0.0
 13
18.679356795600139
 23
-84.896522702032783
 33
0.0
210
0.0
220
0.0
230
-1.0
  0
SOLID
  5
2A43
  8
SAPA_FOGBAND
  6
CONTINUOUS
 10
-18.93430777127978
 20
-84.641571726353149
 30
0.0
 11
-18.859634359373342
 21
-84.821849290126366
 31
0.0
 12
-18.49907923182694
 22
-84.821849290126366
 32
0.0
 13
-18.49907923182694
 23
-84.821849290126366
 33
0.0
210
0.0
220
0.0
230
1.0
  0
SOLID
  5
2A44
  8
SAPA_FOGBAND
  6
CONTINUOUS
 10
18.93430777127978
 20
-84.641571726353149
 30
0.0
 11
18.424405819920501
 21
-84.641571726353149
 31
0.0
 12
18.49907923182694
 22
-84.821849290126366
 32
0.0
 13
18.49907923182694
 23
-84.821849290126366
 33
0.0
210
0.0
220
0.0
230
-1.0
  0
LINE
  5
2A45
  8
SAPA_FOGBAND
  6
CONTINUOUS
 10
-18.679356795600139
 20
-84.386620750673529
 30
0.0
 11
-18.859634359373342
 21
-84.461294162579961
 31
0.0
  0
LINE
  5
2A46
  8
SAPA_FOGBAND
  6
CONTINUOUS
 10
-18.49907923182694
 20
-84.461294162579961
 30
0.0
 11
-18.679356795600139
 21
-84.386620750673529
 31
0.0
  0
LINE
  5
2A47
  8
SAPA_FOGBAND
  6
CONTINUOUS
 10
-18.859634359373342
 20
-84.461294162579961
 30
0.0
 11
-18.93430777127978
 21
-84.641571726353149
 31
0.0
  0
LINE
  5
2A48
  8
SAPA_FOGBAND
  6
CONTINUOUS
 10
-18.49907923182694
 20
-84.461294162579961
 30
0.0
 11
-18.424405819920501
 21
-84.641571726353149
 31
0.0
  0
LINE
  5
2A49
  8
SAPA_FOGBAND
  6
CONTINUOUS
 10
-18.49907923182694
 20
-84.821849290126366
 30
0.0
 11
-18.679356795600139
 21
-84.896522702032783
 31
0.0
  0
LINE
  5
2A4A
  8
SAPA_FOGBAND
  6
CONTINUOUS
 10
-18.679356795600139
 20
-84.896522702032783
 30
0.0
 11
-18.859634359373342
 21
-84.821849290126366
 31
0.0
  0
LINE
  5
2A4B
  8
SAPA_FOGBAND
  6
CONTINUOUS
 10
-18.93430777127978
 20
-84.641571726353149
 30
0.0
 11
-18.859634359373342
 21
-84.821849290126366
 31
0.0
  0
LINE
  5
2A4C
  8
SAPA_FOGBAND
  6
CONTINUOUS
 10
-18.424405819920501
 20
-84.641571726353149
 30
0.0
 11
-18.49907923182694
 21
-84.821849290126366
 31
0.0
  0
ENDBLK
  5
2A4E
  8
0
  0
BLOCK
  8
0
  2
*U190
 70
     1
 10
0.0
 20
0.0
 30
0.0
  3
*U190
  1

  0
TEXT
  5
2AD8
  8
SAPA_MATT
 62
     2
 10
-2.0999999999996581
 20
-124.65375231270581
 30
0.0
 40
3.0
  1
50
  7
ISO
  0
ENDBLK
  5
2ADA
  8
0
  0
ENDSEC
  0
SECTION
  2
ENTITIES
  0
INSERT
  5
6F2
  8
0
  2
*U180
 10
0.0
 20
0.0
 30
0.0
  0
INSERT
  5
6F3
  8
0
  2
*U181
 10
0.0
 20
0.0
 30
0.0
  0
INSERT
  5
6F4
  8
0
  2
*U182
 10
0.0
 20
0.0
 30
0.0
  0
POLYLINE
  5
720
  8
SAPA_LIGHT
 66
     1
 10
0.0
 20
0.0
 30
0.0
  0
VERTEX
  5
1954
  8
SAPA_LIGHT
 10
129.99999999996729
 20
-35.550000081740961
 30
0.0
  0
VERTEX
  5
1955
  8
SAPA_LIGHT
 10
99.999999999967315
 20
-35.550000081740961
 30
0.0
  0
VERTEX
  5
1956
  8
SAPA_LIGHT
 10
99.999999999967315
 20
-73.550000081742326
 30
0.0
  0
VERTEX
  5
1957
  8
SAPA_LIGHT
 10
129.9999999999684
 20
-73.550000081742326
 30
0.0
  0
SEQEND
  5
1958
  8
SAPA_LIGHT
  0
POLYLINE
  5
7C0
  8
SAPA_LIGHT
 66
     1
 10
0.0
 20
0.0
 30
0.0
 70
     1
  0
VERTEX
  5
1959
  8
SAPA_LIGHT
 10
-24.999999999999829
 20
-45.499999999010313
 30
0.0
  0
VERTEX
  5
195A
  8
SAPA_LIGHT
 10
-25.000000000000231
 20
64.499999999998863
 30
0.0
  0
VERTEX
  5
195B
  8
SAPA_LIGHT
 10
24.999999999999769
 20
64.499999999998863
 30
0.0
  0
VERTEX
  5
195C
  8
SAPA_LIGHT
 10
24.999999999999218
 20
-58.500000000018197
 30
0.0
  0
VERTEX
  5
195D
  8
SAPA_LIGHT
 10
4.9999999999997646
 20
-58.500000000002267
 30
0.0
  0
VERTEX
  5
195E
  8
SAPA_LIGHT
 10
4.9999999999995532
 20
-82.499999999011933
 30
0.0
  0
VERTEX
  5
195F
  8
SAPA_LIGHT
 10
24.999999999836682
 20
-82.499999999208342
 30
0.0
  0
VERTEX
  5
1960
  8
SAPA_LIGHT
 10
25.000000000000341
 20
-96.499999999010583
 30
0.0
  0
VERTEX
  5
1961
  8
SAPA_LIGHT
 10
-24.999999999999659
 20
-96.499999999010583
 30
0.0
  0
VERTEX
  5
1962
  8
SAPA_LIGHT
 10
-24.999999999999751
 20
-80.499999999010925
 30
0.0
  0
VERTEX
  5
1963
  8
SAPA_LIGHT
 10
-5.0000000000001981
 20
-80.499999999010939
 30
0.0
  0
VERTEX
  5
1964
  8
SAPA_LIGHT
 10
-5.0000000000002274
 20
-45.499999999010313
 30
0.0
  0
SEQEND
  5
1965
  8
SAPA_LIGHT
  0
POLYLINE
  5
7C1
  8
SAPA_LIGHT
 66
     1
 10
0.0
 20
0.0
 30
0.0
  0
VERTEX
  5
1966
  8
SAPA_LIGHT
 10
74.49999999996669
 20
-82.500000000018474
 30
0.0
  0
VERTEX
  5
1967
  8
SAPA_LIGHT
 10
12.99999999999862
 20
-82.499999999011948
 30
0.0
  0
VERTEX
  5
1968
  8
SAPA_LIGHT
 10
12.99999999999862
 20
-58.500000000002267
 30
0.0
  0
VERTEX
  5
1969
  8
SAPA_LIGHT
 10
30.19999999999969
 20
-58.510975989765143
 30
0.0
  0
VERTEX
  5
196A
  8
SAPA_LIGHT
 10
29.999999999999091
 20
-11.38861643487151
 30
0.0
  0
VERTEX
  5
196B
  8
SAPA_LIGHT
 10
29.968745704598749
 20
-8.5000000031935201
 30
0.0
  0
VERTEX
  5
196C
  8
SAPA_LIGHT
 10
52.499999999998963
 20
-8.5000000031935201
 30
0.0
  0
VERTEX
  5
196D
  8
SAPA_LIGHT
 10
52.499999999998877
 20
-77.050000003795503
 30
0.0
  0
VERTEX
  5
196E
  8
SAPA_LIGHT
 10
74.500000000177664
 20
-77.050000003795503
 30
0.0
  0
VERTEX
  5
196F
  8
SAPA_LIGHT
 10
74.500000000104066
 20
-82.500000000018474
 30
0.0
  0
SEQEND
  5
1970
  8
SAPA_LIGHT
  0
POLYLINE
  5
7C2
  8
SAPA_LIGHT
 66
     1
 10
0.0
 20
0.0
 30
0.0
  0
VERTEX
  5
1971
  8
SAPA_LIGHT
 10
116.9999999999347
 20
-82.500000003811977
 30
0.0
  0
VERTEX
  5
1972
  8
SAPA_LIGHT
 10
79.499999999967486
 20
-82.500000003812005
 30
0.0
  0
VERTEX
  5
1973
  8
SAPA_LIGHT
 10
79.499999999967486
 20
-77.050000003795446
 30
0.0
  0
VERTEX
  5
1974
  8
SAPA_LIGHT
 10
72.500000000041837
 20
-77.050000003795503
 30
0.0
  0
VERTEX
  5
1975
  8
SAPA_LIGHT
 10
72.500000000041837
 20
-63.853716957736218
 30
0.0
  0
VERTEX
  5
1976
  8
SAPA_LIGHT
 10
66.500000000041609
 20
-63.853716957736239
 30
0.0
  0
VERTEX
  5
1977
  8
SAPA_LIGHT
 10
66.500000000042064
 20
-30.500000006902891
 30
0.0
  0
VERTEX
  5
1978
  8
SAPA_LIGHT
 10
64.000000000042519
 20
-30.500000006902891
 30
0.0
  0
VERTEX
  5
1979
  8
SAPA_LIGHT
 10
64.000000000042476
 20
-8.5000000031935201
 30
0.0
  0
VERTEX
  5
197A
  8
SAPA_LIGHT
 10
46.50000000004205
 20
-8.5000000031935201
 30
0.0
  0
VERTEX
  5
197B
  8
SAPA_LIGHT
 10
46.500000000042057
 20
1.0000000012918799
 30
0.0
  0
VERTEX
  5
197C
  8
SAPA_LIGHT
 10
87.783121633558267
 20
0.9999999961233356
 30
0.0
  0
VERTEX
  5
197D
  8
SAPA_LIGHT
 10
90.381197844408007
 20
-0.5000000038765508
 30
0.0
  0
VERTEX
  5
197E
  8
SAPA_LIGHT
 10
94.866025403751777
 20
-8.2679491998451908
 30
0.0
  0
VERTEX
  5
197F
  8
SAPA_LIGHT
 10
94.999999999967486
 20
-8.7679491998454466
 30
0.0
  0
VERTEX
  5
1980
  8
SAPA_LIGHT
 10
94.999999999967514
 20
-10.00000000207114
 30
0.0
  0
VERTEX
  5
1981
  8
SAPA_LIGHT
 10
116.9999999999812
 20
-10.00000000207114
 30
0.0
  0
VERTEX
  5
1982
  8
SAPA_LIGHT
 10
116.9999999999812
 20
-35.550000081742333
 30
0.0
  0
VERTEX
  5
1983
  8
SAPA_LIGHT
 10
94.69487763316404
 20
-35.550000081742333
 30
0.0
  0
VERTEX
  5
1984
  8
SAPA_LIGHT
 10
94.694877633164054
 20
-73.550000081741643
 30
0.0
  0
VERTEX
  5
1985
  8
SAPA_LIGHT
 10
117.0000000001466
 20
-73.5500000817417
 30
0.0
  0
VERTEX
  5
1986
  8
SAPA_LIGHT
 10
116.9999999999347
 20
-82.500000003811977
 30
0.0
  0
SEQEND
  5
1987
  8
SAPA_LIGHT
  0
POLYLINE
  5
7C9
  8
SAPA_LIGHT
 66
     1
 10
0.0
 20
0.0
 30
0.0
  0
VERTEX
  5
1988
  8
SAPA_LIGHT
 10
129.99999999996771
 20
-35.55000008174018
 30
0.0
  0
VERTEX
  5
1989
  8
SAPA_LIGHT
 10
99.99999999996777
 20
-35.55000008174018
 30
0.0
  0
VERTEX
  5
198A
  8
SAPA_LIGHT
 10
99.999999999967315
 20
-73.550000081741643
 30
0.0
  0
VERTEX
  5
198B
  8
SAPA_LIGHT
 10
129.99999999996729
 20
-73.550000081741643
 30
0.0
  0
SEQEND
  5
198C
  8
SAPA_LIGHT
  0
POLYLINE
  5
87B
  8
SAPA_LIGHT
 66
     1
 10
0.0
 20
0.0
 30
0.0
  0
VERTEX
  5
198D
  8
SAPA_LIGHT
 10
-75.522593981594014
 20
-45.500000000001812
 30
0.0
  0
VERTEX
  5
198E
  8
SAPA_LIGHT
 10
-14.035113899112639
 20
-45.500000000001812
 30
0.0
  0
VERTEX
  5
198F
  8
SAPA_LIGHT
 10
-14.035113899112639
 20
-54.501825424425988
 30
0.0
  0
VERTEX
  5
1990
  8
SAPA_LIGHT
 10
-75.522593981594014
 20
-54.501825424425988
 30
0.0
  0
SEQEND
  5
1991
  8
SAPA_LIGHT
  0
POLYLINE
  5
87C
  8
SAPA_LIGHT
 66
     1
 10
0.0
 20
0.0
 30
0.0
  0
VERTEX
  5
1992
  8
SAPA_LIGHT
 10
-75.522593981594184
 20
-74.499999999011152
 30
0.0
  0
VERTEX
  5
1993
  8
SAPA_LIGHT
 10
-11.000967646493701
 20
-74.499999999011607
 30
0.0
  0
VERTEX
  5
1994
  8
SAPA_LIGHT
 10
-11.000967646493701
 20
-80.499999999010925
 30
0.0
  0
VERTEX
  5
1995
  8
SAPA_LIGHT
 10
-75.522593981594923
 20
-80.499999999010925
 30
0.0
  0
SEQEND
  5
1996
  8
SAPA_LIGHT
  0
POLYLINE
  5
87D
  8
SAPA_LIGHT
 66
     1
 10
0.0
 20
0.0
 30
0.0
  0
VERTEX
  5
1997
  8
SAPA_LIGHT
 10
-75.000000000000227
 20
62.499999999998863
 30
0.0
  0
VERTEX
  5
1998
  8
SAPA_LIGHT
 10
-26.000000000000231
 20
62.499999999998863
 30
0.0
  0
VERTEX
  5
1999
  8
SAPA_LIGHT
 10
-26.000000000000231
 20
50.999999999998799
 30
0.0
  0
VERTEX
  5
199A
  8
SAPA_LIGHT
 10
-75.000000000000227
 20
50.999999999998799
 30
0.0
  0
SEQEND
  5
199B
  8
SAPA_LIGHT
  0
INSERT
  5
D9D
  8
0
  2
*U183
 10
0.0
 20
0.0
 30
0.0
  0
INSERT
  5
D9E
  8
0
  2
*U184
 10
0.0
 20
0.0
 30
0.0
  0
INSERT
  5
D9F
  8
0
  2
*U185
 10
0.0
 20
0.0
 30
0.0
  0
LINE
  5
15E6
  8
SAPA_FYLLNING
 10
-31.3484674857832
 20
-29.85755356040011
 30
0.0
 11
-31.34846748578321
 21
42.799999999999272
 31
0.0
  0
ARC
  5
15E7
  8
SAPA_FYLLNING
 10
-37.348467485783203
 20
42.799999999999272
 30
0.0
 40
6.0
 50
0.0
 51
180.0
  0
LINE
  5
15E8
  8
SAPA_FYLLNING
 10
-43.348467485783203
 20
42.799999999999272
 30
0.0
 11
-43.348467485785022
 21
-29.85755356040011
 31
0.0
  0
ARC
  5
15E9
  8
SAPA_FYLLNING
 10
-49.348467485783992
 20
-29.857553560400181
 30
0.0
 40
5.9999999999989688
 50
180.00000000000071
 51
0.0000000000006785
  0
LINE
  5
15EA
  8
SAPA_FYLLNING
 10
-55.348467485782962
 20
-29.857553560400252
 30
0.0
 11
-55.348467485785022
 21
44.999999999998167
 31
0.0
  0
ARC
  5
15EB
  8
SAPA_FYLLNING
 10
-61.348467485784113
 20
44.999999999998167
 30
0.0
 40
5.9999999999990896
 50
0.0
 51
180.0
  0
LINE
  5
15EC
  8
SAPA_FYLLNING
 10
-67.348467485783203
 20
44.999999999998167
 30
0.0
 11
-67.348467485783203
 21
-29.85755356040011
 31
0.0
  0
POLYLINE
  5
17C8
  8
SAPA_PROFIL
  6
CONTINUOUS
 66
     1
 10
0.0
 20
0.0
 30
0.0
 70
     1
  0
VERTEX
  5
20A9
  8
SAPA_PROFIL
  6
CONTINUOUS
 10
53.499999999018499
 20
-68.514627230068484
 30
0.0
 42
0.2596812337301868
  0
VERTEX
  5
20AA
  8
SAPA_PROFIL
  6
CONTINUOUS
 10
53.405306803770202
 20
-68.344596418528397
 30
0.0
  0
VERTEX
  5
20AB
  8
SAPA_PROFIL
  6
CONTINUOUS
 10
52.75796020614608
 20
-67.943669073976594
 30
0.0
 42
0.5877032589248397
  0
VERTEX
  5
20AC
  8
SAPA_PROFIL
  6
CONTINUOUS
 10
52.299999999018198
 20
-68.198715291286476
 30
0.0
  0
VERTEX
  5
20AD
  8
SAPA_PROFIL
  6
CONTINUOUS
 10
52.299999999018198
 20
-68.598715295421599
 30
0.0
 42
-0.4142135623731645
  0
VERTEX
  5
20AE
  8
SAPA_PROFIL
  6
CONTINUOUS
 10
51.999999999018499
 20
-68.898715295421823
 30
0.0
  0
VERTEX
  5
20AF
  8
SAPA_PROFIL
  6
CONTINUOUS
 10
48.799999999899981
 20
-68.898715295421795
 30
0.0
 42
-0.4142135623731021
  0
VERTEX
  5
20B0
  8
SAPA_PROFIL
  6
CONTINUOUS
 10
48.499999999899963
 20
-68.598715295421783
 30
0.0
  0
VERTEX
  5
20B1
  8
SAPA_PROFIL
  6
CONTINUOUS
 10
48.499999999899998
 20
-62.798715294908192
 30
0.0
 42
-0.4142135623730951
  0
VERTEX
  5
20B2
  8
SAPA_PROFIL
  6
CONTINUOUS
 10
48.799999999899981
 20
-62.498715294908202
 30
0.0
  0
VERTEX
  5
20B3
  8
SAPA_PROFIL
  6
CONTINUOUS
 10
51.199999999899987
 20
-62.49871529490818
 30
0.0
 42
-0.4142135623730811
  0
VERTEX
  5
20B4
  8
SAPA_PROFIL
  6
CONTINUOUS
 10
51.499999999899977
 20
-62.798715294908192
 30
0.0
  0
VERTEX
  5
20B5
  8
SAPA_PROFIL
  6
CONTINUOUS
 10
51.499999999899998
 20
-64.198715807173983
 30
0.0
 42
0.5920056181165752
  0
VERTEX
  5
20B6
  8
SAPA_PROFIL
  6
CONTINUOUS
 10
51.961203502425789
 20
-64.451724563491695
 30
0.0
  0
VERTEX
  5
20B7
  8
SAPA_PROFIL
  6
CONTINUOUS
 10
53.161203502425892
 20
-63.687149432391692
 30
0.0
 42
0.2562769736741619
  0
VERTEX
  5
20B8
  8
SAPA_PROFIL
  6
CONTINUOUS
 10
53.299999999899981
 20
-63.43414067607408
 30
0.0
  0
VERTEX
  5
20B9
  8
SAPA_PROFIL
  6
CONTINUOUS
 10
53.299999999900571
 20
-60.496550053245628
 30
0.0
  0
VERTEX
  5
20BA
  8
SAPA_PROFIL
  6
CONTINUOUS
 10
52.789377747997733
 20
-59.175433952305141
 30
0.0
 42
-0.4142135623730961
  0
VERTEX
  5
20BB
  8
SAPA_PROFIL
  6
CONTINUOUS
 10
52.98934179250513
 20
-58.801248996829322
 30
0.0
  0
VERTEX
  5
20BC
  8
SAPA_PROFIL
  6
CONTINUOUS
 10
53.101573983119522
 20
-58.770401641448949
 30
0.0
  0
VERTEX
  5
20BD
  8
SAPA_PROFIL
  6
CONTINUOUS
 10
53.183208632443659
 20
-57.261321413033471
 30
0.0
 42
0.494012837111175
  0
VERTEX
  5
20BE
  8
SAPA_PROFIL
  6
CONTINUOUS
 10
52.820948347026288
 20
-56.951741355807492
 30
0.0
  0
VERTEX
  5
20BF
  8
SAPA_PROFIL
  6
CONTINUOUS
 10
50.852383804783152
 20
-57.362823278441468
 30
0.0
 42
0.2216946626430119
  0
VERTEX
  5
20C0
  8
SAPA_PROFIL
  6
CONTINUOUS
 10
50.311503973306301
 20
-57.76863218359626
 30
0.0
  0
VERTEX
  5
20C1
  8
SAPA_PROFIL
  6
CONTINUOUS
 10
50.159370062197588
 20
-58.053314466827899
 30
0.0
 42
0.5773502691896845
  0
VERTEX
  5
20C2
  8
SAPA_PROFIL
  6
CONTINUOUS
 10
50.342323802307718
 20
-58.347470767082719
 30
0.0
  0
VERTEX
  5
20C3
  8
SAPA_PROFIL
  6
CONTINUOUS
 10
50.664081530526019
 20
-58.33690940085576
 30
0.0
  0
VERTEX
  5
20C4
  8
SAPA_PROFIL
  6
CONTINUOUS
 10
51.748645977497759
 20
-60.222753092716822
 30
0.0
  0
VERTEX
  5
20C5
  8
SAPA_PROFIL
  6
CONTINUOUS
 10
51.806719614486852
 20
-60.414136092710542
 30
0.0
 42
-0.7625858545244327
  0
VERTEX
  5
20C6
  8
SAPA_PROFIL
  6
CONTINUOUS
 10
51.47639353346981
 20
-60.598715294908018
 30
0.0
 42
0.2134217652834393
  0
VERTEX
  5
20C7
  8
SAPA_PROFIL
  6
CONTINUOUS
 10
51.25278673571971
 20
-60.498715294907917
 30
0.0
  0
VERTEX
  5
20C8
  8
SAPA_PROFIL
  6
CONTINUOUS
 10
51.252786999899897
 20
-60.498715294908081
 30
0.0
  0
VERTEX
  5
20C9
  8
SAPA_PROFIL
  6
CONTINUOUS
 10
47.399999999899968
 20
-60.49871529490818
 30
0.0
 42
-0.4142139999559429
  0
VERTEX
  5
20CA
  8
SAPA_PROFIL
  6
CONTINUOUS
 10
47.099999999900056
 20
-60.198715294908069
 30
0.0
  0
VERTEX
  5
20CB
  8
SAPA_PROFIL
  6
CONTINUOUS
 10
47.099999999900071
 20
-59.898715294908079
 30
0.0
  0
VERTEX
  5
20CC
  8
SAPA_PROFIL
  6
CONTINUOUS
 10
47.849720999899994
 20
-58.600161294908069
 30
0.0
  0
VERTEX
  5
20CD
  8
SAPA_PROFIL
  6
CONTINUOUS
 10
48.022873999897897
 20
-58.298206294906862
 30
0.0
 42
0.5763720000355616
  0
VERTEX
  5
20CE
  8
SAPA_PROFIL
  6
CONTINUOUS
 10
47.849375999899969
 20
-57.998715294908173
 30
0.0
  0
VERTEX
  5
20CF
  8
SAPA_PROFIL
  6
CONTINUOUS
 10
46.464914999900053
 20
-57.99871529490769
 30
0.0
 42
0.2679490000000105
  0
VERTEX
  5
20D0
  8
SAPA_PROFIL
  6
CONTINUOUS
 10
45.598888999899977
 20
-58.49871529490769
 30
0.0
  0
VERTEX
  5
20D1
  8
SAPA_PROFIL
  6
CONTINUOUS
 10
44.588527103944472
 20
-60.24871511469717
 30
0.0
 42
-0.2679493039457093
  0
VERTEX
  5
20D2
  8
SAPA_PROFIL
  6
CONTINUOUS
 10
44.155514298007773
 20
-60.498715294907583
 30
0.0
  0
VERTEX
  5
20D3
  8
SAPA_PROFIL
  6
CONTINUOUS
 10
40.344485999899852
 20
-60.49871529490769
 30
0.0
 42
-0.2679489999997284
  0
VERTEX
  5
20D4
  8
SAPA_PROFIL
  6
CONTINUOUS
 10
39.911472999900042
 20
-60.24871529490769
 30
0.0
  0
VERTEX
  5
20D5
  8
SAPA_PROFIL
  6
CONTINUOUS
 10
38.901110999900077
 20
-58.49871529490769
 30
0.0
 42
0.2679490000000243
  0
VERTEX
  5
20D6
  8
SAPA_PROFIL
  6
CONTINUOUS
 10
38.03508499989988
 20
-57.99871529490769
 30
0.0
  0
VERTEX
  5
20D7
  8
SAPA_PROFIL
  6
CONTINUOUS
 10
36.650623999900013
 20
-57.99871529490818
 30
0.0
 42
0.5763720000353817
  0
VERTEX
  5
20D8
  8
SAPA_PROFIL
  6
CONTINUOUS
 10
36.477125999902071
 20
-58.298206294906862
 30
0.0
  0
VERTEX
  5
20D9
  8
SAPA_PROFIL
  6
CONTINUOUS
 10
36.650278999900081
 20
-58.600161294908069
 30
0.0
  0
VERTEX
  5
20DA
  8
SAPA_PROFIL
  6
CONTINUOUS
 10
37.399999999899961
 20
-59.898715294908079
 30
0.0
  0
VERTEX
  5
20DB
  8
SAPA_PROFIL
  6
CONTINUOUS
 10
37.399999999899961
 20
-60.198715294908069
 30
0.0
 42
-0.4142139999560329
  0
VERTEX
  5
20DC
  8
SAPA_PROFIL
  6
CONTINUOUS
 10
37.099999999900007
 20
-60.498715294908152
 30
0.0
  0
VERTEX
  5
20DD
  8
SAPA_PROFIL
  6
CONTINUOUS
 10
33.24721299990005
 20
-60.498715294907917
 30
0.0
  0
VERTEX
  5
20DE
  8
SAPA_PROFIL
  6
CONTINUOUS
 10
33.247213264080258
 20
-60.498715294907917
 30
0.0
 42
0.2134217652834345
  0
VERTEX
  5
20DF
  8
SAPA_PROFIL
  6
CONTINUOUS
 10
33.023606466330151
 20
-60.598715294908018
 30
0.0
 42
-0.7625858545244327
  0
VERTEX
  5
20E0
  8
SAPA_PROFIL
  6
CONTINUOUS
 10
32.693280385313123
 20
-60.414136092710542
 30
0.0
  0
VERTEX
  5
20E1
  8
SAPA_PROFIL
  6
CONTINUOUS
 10
32.751354022302209
 20
-60.222753092716822
 30
0.0
  0
VERTEX
  5
20E2
  8
SAPA_PROFIL
  6
CONTINUOUS
 10
33.835918469273949
 20
-58.33690940085576
 30
0.0
  0
VERTEX
  5
20E3
  8
SAPA_PROFIL
  6
CONTINUOUS
 10
34.15767619749225
 20
-58.347470767082719
 30
0.0
 42
0.5773502691896831
  0
VERTEX
  5
20E4
  8
SAPA_PROFIL
  6
CONTINUOUS
 10
34.34062993760238
 20
-58.053314466827899
 30
0.0
  0
VERTEX
  5
20E5
  8
SAPA_PROFIL
  6
CONTINUOUS
 10
34.188496026493667
 20
-57.76863218359626
 30
0.0
 42
0.2216946626430123
  0
VERTEX
  5
20E6
  8
SAPA_PROFIL
  6
CONTINUOUS
 10
33.647616195016823
 20
-57.362823278441468
 30
0.0
  0
VERTEX
  5
20E7
  8
SAPA_PROFIL
  6
CONTINUOUS
 10
31.67905165277368
 20
-56.951741355807492
 30
0.0
 42
0.4940128371111735
  0
VERTEX
  5
20E8
  8
SAPA_PROFIL
  6
CONTINUOUS
 10
31.316791367356299
 20
-57.261321413033471
 30
0.0
  0
VERTEX
  5
20E9
  8
SAPA_PROFIL
  6
CONTINUOUS
 10
31.39842601668045
 20
-58.770401641448949
 30
0.0
  0
VERTEX
  5
20EA
  8
SAPA_PROFIL
  6
CONTINUOUS
 10
31.510658207294838
 20
-58.801248996829322
 30
0.0
 42
-0.4142135623730952
  0
VERTEX
  5
20EB
  8
SAPA_PROFIL
  6
CONTINUOUS
 10
31.710622251802238
 20
-59.175433952305141
 30
0.0
  0
VERTEX
  5
20EC
  8
SAPA_PROFIL
  6
CONTINUOUS
 10
31.199999999899379
 20
-60.49655005324567
 30
0.0
  0
VERTEX
  5
20ED
  8
SAPA_PROFIL
  6
CONTINUOUS
 10
31.199999999899969
 20
-63.43414067605908
 30
0.0
 42
0.256276973687627
  0
VERTEX
  5
20EE
  8
SAPA_PROFIL
  6
CONTINUOUS
 10
31.338796497399901
 20
-63.687149432408063
 30
0.0
  0
VERTEX
  5
20EF
  8
SAPA_PROFIL
  6
CONTINUOUS
 10
32.538796497399893
 20
-64.451724563508094
 30
0.0
 42
0.5920056180425383
  0
VERTEX
  5
20F0
  8
SAPA_PROFIL
  6
CONTINUOUS
 10
32.999999999899963
 20
-64.198715807108073
 30
0.0
  0
VERTEX
  5
20F1
  8
SAPA_PROFIL
  6
CONTINUOUS
 10
32.999999999899963
 20
-62.798715294908192
 30
0.0
 42
-0.4142139999560674
  0
VERTEX
  5
20F2
  8
SAPA_PROFIL
  6
CONTINUOUS
 10
33.299999999900081
 20
-62.49871529490818
 30
0.0
  0
VERTEX
  5
20F3
  8
SAPA_PROFIL
  6
CONTINUOUS
 10
35.69999999989998
 20
-62.49871529490818
 30
0.0
 42
-0.4142139999559601
  0
VERTEX
  5
20F4
  8
SAPA_PROFIL
  6
CONTINUOUS
 10
35.999999999899963
 20
-62.798715294908192
 30
0.0
  0
VERTEX
  5
20F5
  8
SAPA_PROFIL
  6
CONTINUOUS
 10
35.999999999899963
 20
-68.598715295421783
 30
0.0
 42
-0.414213562373102
  0
VERTEX
  5
20F6
  8
SAPA_PROFIL
  6
CONTINUOUS
 10
35.69999999989998
 20
-68.898715295421795
 30
0.0
  0
VERTEX
  5
20F7
  8
SAPA_PROFIL
  6
CONTINUOUS
 10
32.499999999899792
 20
-68.898715295421795
 30
0.0
 42
-0.4142135623732028
  0
VERTEX
  5
20F8
  8
SAPA_PROFIL
  6
CONTINUOUS
 10
32.199999999899923
 20
-68.598715295421599
 30
0.0
  0
VERTEX
  5
20F9
  8
SAPA_PROFIL
  6
CONTINUOUS
 10
32.199999999899887
 20
-68.19871529128649
 30
0.0
 42
0.5877032589248904
  0
VERTEX
  5
20FA
  8
SAPA_PROFIL
  6
CONTINUOUS
 10
31.742039792772299
 20
-67.943669073976594
 30
0.0
  0
VERTEX
  5
20FB
  8
SAPA_PROFIL
  6
CONTINUOUS
 10
31.094693195148071
 20
-68.34459641852834
 30
0.0
 42
0.2596812337301491
  0
VERTEX
  5
20FC
  8
SAPA_PROFIL
  6
CONTINUOUS
 10
30.999999999899789
 20
-68.514627230068484
 30
0.0
  0
VERTEX
  5
20FD
  8
SAPA_PROFIL
  6
CONTINUOUS
 10
30.999999999899789
 20
-69.998715295421675
 30
0.0
 42
0.4142135623730984
  0
VERTEX
  5
20FE
  8
SAPA_PROFIL
  6
CONTINUOUS
 10
31.299999999899789
 20
-70.298715295421474
 30
0.0
  0
VERTEX
  5
20FF
  8
SAPA_PROFIL
  6
CONTINUOUS
 10
35.69999999989998
 20
-70.298715295421886
 30
0.0
 42
-0.414213562373102
  0
VERTEX
  5
2100
  8
SAPA_PROFIL
  6
CONTINUOUS
 10
35.999999999899963
 20
-70.598715295421883
 30
0.0
  0
VERTEX
  5
2101
  8
SAPA_PROFIL
  6
CONTINUOUS
 10
35.99999999989987
 20
-80.198715294908126
 30
0.0
 42
-0.4142135623730188
  0
VERTEX
  5
2102
  8
SAPA_PROFIL
  6
CONTINUOUS
 10
35.69999999989998
 20
-80.498715294908123
 30
0.0
  0
VERTEX
  5
2103
  8
SAPA_PROFIL
  6
CONTINUOUS
 10
33.299999999900081
 20
-80.498715294908152
 30
0.0
 42
-0.4142135623730673
  0
VERTEX
  5
2104
  8
SAPA_PROFIL
  6
CONTINUOUS
 10
32.999999999899963
 20
-80.198715294908141
 30
0.0
  0
VERTEX
  5
2105
  8
SAPA_PROFIL
  6
CONTINUOUS
 10
32.999999999899913
 20
-78.798715561108125
 30
0.0
 42
0.5877032589046084
  0
VERTEX
  5
2106
  8
SAPA_PROFIL
  6
CONTINUOUS
 10
32.542039792799891
 20
-78.543669343808133
 30
0.0
  0
VERTEX
  5
2107
  8
SAPA_PROFIL
  6
CONTINUOUS
 10
31.142039792773421
 20
-79.410744701024669
 30
0.0
 42
0.2596812337311998
  0
VERTEX
  5
2108
  8
SAPA_PROFIL
  6
CONTINUOUS
 10
30.999999999900069
 20
-79.665790918335347
 30
0.0
  0
VERTEX
  5
2109
  8
SAPA_PROFIL
  6
CONTINUOUS
 10
30.999999999899959
 20
-80.41063208859606
 30
0.0
 42
-0.4023941304326696
  0
VERTEX
  5
210A
  8
SAPA_PROFIL
  6
CONTINUOUS
 10
30.712153278576199
 20
-80.710385817209115
 30
0.0
  0
VERTEX
  5
210B
  8
SAPA_PROFIL
  6
CONTINUOUS
 10
16.239094457099881
 20
-81.297184580208125
 30
0.0
 42
-0.4373282586143014
  0
VERTEX
  5
210C
  8
SAPA_PROFIL
  6
CONTINUOUS
 10
15.69999999979996
 20
-80.798715299908139
 30
0.0
  0
VERTEX
  5
210D
  8
SAPA_PROFIL
  6
CONTINUOUS
 10
15.69999999979987
 20
-79.969884212120121
 30
0.0
 42
-0.3639702342826234
  0
VERTEX
  5
210E
  8
SAPA_PROFIL
  6
CONTINUOUS
 10
16.11317591099499
 20
-79.477480335608973
 30
0.0
  0
VERTEX
  5
210F
  8
SAPA_PROFIL
  6
CONTINUOUS
 10
17.286824088599982
 20
-79.270534496108141
 30
0.0
 42
0.8390996312315433
  0
VERTEX
  5
2110
  8
SAPA_PROFIL
  6
CONTINUOUS
 10
17.286824088599872
 20
-78.285726743108114
 30
0.0
  0
VERTEX
  5
2111
  8
SAPA_PROFIL
  6
CONTINUOUS
 10
15.71675143259999
 20
-78.008880572108083
 30
0.0
 42
0.0436609428925317
  0
VERTEX
  5
2112
  8
SAPA_PROFIL
  6
CONTINUOUS
 10
15.62992734379999
 20
-78.001284448619941
 30
0.0
  0
VERTEX
  5
2113
  8
SAPA_PROFIL
  6
CONTINUOUS
 10
14.63245553169987
 20
-78.00128444860826
 30
0.0
 42
0.2896898633456171
  0
VERTEX
  5
2114
  8
SAPA_PROFIL
  6
CONTINUOUS
 10
13.728947628726949
 20
-78.572713020179563
 30
0.0
 42
0.5507604245347207
  0
VERTEX
  5
2115
  8
SAPA_PROFIL
  6
CONTINUOUS
 10
13.99999999961886
 20
-79.001284448708134
 30
0.0
  0
VERTEX
  5
2116
  8
SAPA_PROFIL
  6
CONTINUOUS
 10
14.199999999699999
 20
-79.001284448708134
 30
0.0
 42
-0.4142135623730951
  0
VERTEX
  5
2117
  8
SAPA_PROFIL
  6
CONTINUOUS
 10
14.49999999969998
 20
-79.301284448708145
 30
0.0
  0
VERTEX
  5
2118
  8
SAPA_PROFIL
  6
CONTINUOUS
 10
14.49999999969998
 20
-80.798715299908139
 30
0.0
 42
-0.4142135623730951
  0
VERTEX
  5
2119
  8
SAPA_PROFIL
  6
CONTINUOUS
 10
13.99999999969998
 20
-81.298715299908125
 30
0.0
  0
VERTEX
  5
211A
  8
SAPA_PROFIL
  6
CONTINUOUS
 10
10.699999999699999
 20
-81.298715299908125
 30
0.0
 42
-0.4142135623730951
  0
VERTEX
  5
211B
  8
SAPA_PROFIL
  6
CONTINUOUS
 10
10.199999999699999
 20
-80.798715299908139
 30
0.0
  0
VERTEX
  5
211C
  8
SAPA_PROFIL
  6
CONTINUOUS
 10
10.199999999699999
 20
-79.30128444890812
 30
0.0
 42
-0.4142135623730673
  0
VERTEX
  5
211D
  8
SAPA_PROFIL
  6
CONTINUOUS
 10
10.49999999969998
 20
-79.001284448908095
 30
0.0
  0
VERTEX
  5
211E
  8
SAPA_PROFIL
  6
CONTINUOUS
 10
10.699999999699971
 20
-79.001284448908137
 30
0.0
 42
0.550760424592931
  0
VERTEX
  5
211F
  8
SAPA_PROFIL
  6
CONTINUOUS
 10
10.97105237060808
 20
-78.572713020312534
 30
0.0
 42
0.2896898632971936
  0
VERTEX
  5
2120
  8
SAPA_PROFIL
  6
CONTINUOUS
 10
10.067544467699969
 20
-78.001284448895206
 30
0.0
  0
VERTEX
  5
2121
  8
SAPA_PROFIL
  6
CONTINUOUS
 10
9.2999999996000042
 20
-78.001284448908123
 30
0.0
 42
0.4142135620802001
  0
VERTEX
  5
2122
  8
SAPA_PROFIL
  6
CONTINUOUS
 10
8.9999999998999556
 20
-78.30128444890812
 30
0.0
  0
VERTEX
  5
2123
  8
SAPA_PROFIL
  6
CONTINUOUS
 10
8.9999999998999556
 20
-81.998715294908109
 30
0.0
 42
0.4142135623730951
  0
VERTEX
  5
2124
  8
SAPA_PROFIL
  6
CONTINUOUS
 10
9.4999999998999556
 20
-82.498715294908123
 30
0.0
  0
VERTEX
  5
2125
  8
SAPA_PROFIL
  6
CONTINUOUS
 10
74.999964610277473
 20
-82.498715295421704
 30
0.0
  0
VERTEX
  5
2126
  8
SAPA_PROFIL
  6
CONTINUOUS
 10
74.999999999900027
 20
-82.498715294908123
 30
0.0
 42
0.4142135623730951
  0
VERTEX
  5
2127
  8
SAPA_PROFIL
  6
CONTINUOUS
 10
75.499999999900027
 20
-81.998715294908109
 30
0.0
  0
VERTEX
  5
2128
  8
SAPA_PROFIL
  6
CONTINUOUS
 10
75.499999999900027
 20
-78.30128444890812
 30
0.0
 42
0.4142135620801829
  0
VERTEX
  5
2129
  8
SAPA_PROFIL
  6
CONTINUOUS
 10
75.200000000200035
 20
-78.001284448908166
 30
0.0
  0
VERTEX
  5
212A
  8
SAPA_PROFIL
  6
CONTINUOUS
 10
74.432455532100036
 20
-78.001284448895206
 30
0.0
 42
0.2896898632971957
  0
VERTEX
  5
212B
  8
SAPA_PROFIL
  6
CONTINUOUS
 10
73.52894762919189
 20
-78.57271302031252
 30
0.0
 42
0.5507604245929078
  0
VERTEX
  5
212C
  8
SAPA_PROFIL
  6
CONTINUOUS
 10
73.800000000100056
 20
-79.001284448908137
 30
0.0
  0
VERTEX
  5
212D
  8
SAPA_PROFIL
  6
CONTINUOUS
 10
74.00000000010003
 20
-79.001284448908095
 30
0.0
 42
-0.4142135623730673
  0
VERTEX
  5
212E
  8
SAPA_PROFIL
  6
CONTINUOUS
 10
74.300000000100042
 20
-79.30128444890812
 30
0.0
  0
VERTEX
  5
212F
  8
SAPA_PROFIL
  6
CONTINUOUS
 10
74.300000000100056
 20
-80.798715299908139
 30
0.0
 42
-0.4142135623730951
  0
VERTEX
  5
2130
  8
SAPA_PROFIL
  6
CONTINUOUS
 10
73.800000000100056
 20
-81.298715299908125
 30
0.0
  0
VERTEX
  5
2131
  8
SAPA_PROFIL
  6
CONTINUOUS
 10
70.50000000010003
 20
-81.298715299908125
 30
0.0
 42
-0.4142135623730951
  0
VERTEX
  5
2132
  8
SAPA_PROFIL
  6
CONTINUOUS
 10
70.00000000010003
 20
-80.798715299908139
 30
0.0
  0
VERTEX
  5
2133
  8
SAPA_PROFIL
  6
CONTINUOUS
 10
70.00000000010003
 20
-79.301284448708145
 30
0.0
 42
-0.4142135623730951
  0
VERTEX
  5
2134
  8
SAPA_PROFIL
  6
CONTINUOUS
 10
70.300000000100042
 20
-79.001284448708134
 30
0.0
  0
VERTEX
  5
2135
  8
SAPA_PROFIL
  6
CONTINUOUS
 10
70.500000000181103
 20
-79.001284448708134
 30
0.0
 42
0.5507604245346853
  0
VERTEX
  5
2136
  8
SAPA_PROFIL
  6
CONTINUOUS
 10
70.771052371073026
 20
-78.572713020179577
 30
0.0
 42
0.2896898633456226
  0
VERTEX
  5
2137
  8
SAPA_PROFIL
  6
CONTINUOUS
 10
69.867544468100121
 20
-78.001284448608232
 30
0.0
  0
VERTEX
  5
2138
  8
SAPA_PROFIL
  6
CONTINUOUS
 10
68.870072656000033
 20
-78.001284448619941
 30
0.0
 42
0.0436609428925318
  0
VERTEX
  5
2139
  8
SAPA_PROFIL
  6
CONTINUOUS
 10
68.783248567200033
 20
-78.008880572108126
 30
0.0
  0
VERTEX
  5
213A
  8
SAPA_PROFIL
  6
CONTINUOUS
 10
67.213175911200139
 20
-78.285726743108114
 30
0.0
 42
0.839099631231541
  0
VERTEX
  5
213B
  8
SAPA_PROFIL
  6
CONTINUOUS
 10
67.213175911200025
 20
-79.270534496108127
 30
0.0
  0
VERTEX
  5
213C
  8
SAPA_PROFIL
  6
CONTINUOUS
 10
68.386824088805014
 20
-79.477480335608973
 30
0.0
 42
-0.3639702342826299
  0
VERTEX
  5
213D
  8
SAPA_PROFIL
  6
CONTINUOUS
 10
68.800000000000139
 20
-79.969884212120121
 30
0.0
  0
VERTEX
  5
213E
  8
SAPA_PROFIL
  6
CONTINUOUS
 10
68.800000000000026
 20
-80.798715299908139
 30
0.0
 42
-0.4373282586143349
  0
VERTEX
  5
213F
  8
SAPA_PROFIL
  6
CONTINUOUS
 10
68.260905542700144
 20
-81.297184580208125
 30
0.0
  0
VERTEX
  5
2140
  8
SAPA_PROFIL
  6
CONTINUOUS
 10
53.787846721223801
 20
-80.710385817209115
 30
0.0
 42
-0.4023941304324869
  0
VERTEX
  5
2141
  8
SAPA_PROFIL
  6
CONTINUOUS
 10
53.499999999900197
 20
-80.410632088596174
 30
0.0
  0
VERTEX
  5
2142
  8
SAPA_PROFIL
  6
CONTINUOUS
 10
53.499999999899998
 20
-79.665790918335347
 30
0.0
 42
0.2596812337312756
  0
VERTEX
  5
2143
  8
SAPA_PROFIL
  6
CONTINUOUS
 10
53.357960207026579
 20
-79.410744701024612
 30
0.0
  0
VERTEX
  5
2144
  8
SAPA_PROFIL
  6
CONTINUOUS
 10
51.95796020700017
 20
-78.54366934380819
 30
0.0
 42
0.5877032589047035
  0
VERTEX
  5
2145
  8
SAPA_PROFIL
  6
CONTINUOUS
 10
51.499999999900083
 20
-78.798715561108125
 30
0.0
  0
VERTEX
  5
2146
  8
SAPA_PROFIL
  6
CONTINUOUS
 10
51.499999999899998
 20
-80.198715294908141
 30
0.0
 42
-0.4142135623730394
  0
VERTEX
  5
2147
  8
SAPA_PROFIL
  6
CONTINUOUS
 10
51.199999999899987
 20
-80.498715294908123
 30
0.0
  0
VERTEX
  5
2148
  8
SAPA_PROFIL
  6
CONTINUOUS
 10
48.799999999899981
 20
-80.498715294908152
 30
0.0
 42
-0.4142135623730675
  0
VERTEX
  5
2149
  8
SAPA_PROFIL
  6
CONTINUOUS
 10
48.499999999899998
 20
-80.198715294908141
 30
0.0
  0
VERTEX
  5
214A
  8
SAPA_PROFIL
  6
CONTINUOUS
 10
48.499999999899998
 20
-70.598715295421883
 30
0.0
 42
-0.4142135623730916
  0
VERTEX
  5
214B
  8
SAPA_PROFIL
  6
CONTINUOUS
 10
48.799999999899981
 20
-70.2987152954219
 30
0.0
  0
VERTEX
  5
214C
  8
SAPA_PROFIL
  6
CONTINUOUS
 10
53.199999999018289
 20
-70.298715295421687
 30
0.0
 42
0.4142135623732857
  0
VERTEX
  5
214D
  8
SAPA_PROFIL
  6
CONTINUOUS
 10
53.499999999018499
 20
-69.998715295421675
 30
0.0
  0
SEQEND
  5
214E
  8
SAPA_PROFIL
  6
CONTINUOUS
  0
POLYLINE
  5
17C9
  8
SAPA_PROFIL
 66
     1
 10
0.0
 20
0.0
 30
0.0
 70
     1
  0
VERTEX
  5
214F
  8
SAPA_PROFIL
 10
40.99999999989975
 20
-80.798715294908021
 30
0.0
  0
VERTEX
  5
2150
  8
SAPA_PROFIL
 10
37.999999999899757
 20
-80.798715294908021
 30
0.0
 42
-0.414213562373088
  0
VERTEX
  5
2151
  8
SAPA_PROFIL
 10
37.699999999900029
 20
-80.498715294908067
 30
0.0
  0
VERTEX
  5
2152
  8
SAPA_PROFIL
 10
37.699999999900029
 20
-62.498715294908067
 30
0.0
 42
-0.4142135623730812
  0
VERTEX
  5
2153
  8
SAPA_PROFIL
 10
37.999999999899757
 20
-62.198715294908112
 30
0.0
  0
VERTEX
  5
2154
  8
SAPA_PROFIL
 10
40.99999999989975
 20
-62.198715294908112
 30
0.0
 42
-0.4142135623730951
  0
VERTEX
  5
2155
  8
SAPA_PROFIL
 10
41.249999999899757
 20
-62.448715294908112
 30
0.0
  0
VERTEX
  5
2156
  8
SAPA_PROFIL
 10
41.249999999899757
 20
-62.498715294908067
 30
0.0
 42
0.4142135623730813
  0
VERTEX
  5
2157
  8
SAPA_PROFIL
 10
41.549999999899939
 20
-62.798715294908021
 30
0.0
  0
VERTEX
  5
2158
  8
SAPA_PROFIL
 10
42.949999999900029
 20
-62.798715294908021
 30
0.0
 42
0.4142135623730811
  0
VERTEX
  5
2159
  8
SAPA_PROFIL
 10
43.249999999899757
 20
-62.498715294908067
 30
0.0
  0
VERTEX
  5
215A
  8
SAPA_PROFIL
 10
43.249999999899757
 20
-62.448715294908112
 30
0.0
 42
-0.4142135623730951
  0
VERTEX
  5
215B
  8
SAPA_PROFIL
 10
43.49999999989975
 20
-62.198715294908112
 30
0.0
  0
VERTEX
  5
215C
  8
SAPA_PROFIL
 10
46.49999999989975
 20
-62.198715294908112
 30
0.0
 42
-0.4142135623730811
  0
VERTEX
  5
215D
  8
SAPA_PROFIL
 10
46.799999999899939
 20
-62.498715294908067
 30
0.0
  0
VERTEX
  5
215E
  8
SAPA_PROFIL
 10
46.799999999899939
 20
-80.498715294908067
 30
0.0
 42
-0.4142135623730882
  0
VERTEX
  5
215F
  8
SAPA_PROFIL
 10
46.49999999989975
 20
-80.798715294908021
 30
0.0
  0
VERTEX
  5
2160
  8
SAPA_PROFIL
 10
43.49999999989975
 20
-80.798715294908021
 30
0.0
 42
-0.4142135623730951
  0
VERTEX
  5
2161
  8
SAPA_PROFIL
 10
43.249999999899757
 20
-80.548715294908007
 30
0.0
  0
VERTEX
  5
2162
  8
SAPA_PROFIL
 10
43.249999999899757
 20
-80.498715294908067
 30
0.0
 42
0.4142135623730783
  0
VERTEX
  5
2163
  8
SAPA_PROFIL
 10
42.949999999900029
 20
-80.198715294908126
 30
0.0
  0
VERTEX
  5
2164
  8
SAPA_PROFIL
 10
41.549999999899939
 20
-80.198715294908126
 30
0.0
 42
0.4142135623730785
  0
VERTEX
  5
2165
  8
SAPA_PROFIL
 10
41.249999999899757
 20
-80.498715294908067
 30
0.0
  0
VERTEX
  5
2166
  8
SAPA_PROFIL
 10
41.249999999899757
 20
-80.548715294908007
 30
0.0
 42
-0.4142135623730951
  0
SEQEND
  5
2167
  8
SAPA_PROFIL
  0
POLYLINE
  5
17CA
  8
SAPA_PROFIL
 66
     1
 10
0.0
 20
0.0
 30
0.0
 70
     1
  0
VERTEX
  5
2168
  8
SAPA_PROFIL
 10
51.25278640439997
 20
-18.49871529482273
 30
0.0
 42
0.2134217652834387
  0
VERTEX
  5
2169
  8
SAPA_PROFIL
 10
51.476393202150078
 20
-18.39871529482259
 30
0.0
 42
-0.7625858545243238
  0
VERTEX
  5
216A
  8
SAPA_PROFIL
 10
51.806719283167091
 20
-18.58329449702007
 30
0.0
  0
VERTEX
  5
216B
  8
SAPA_PROFIL
 10
51.748645646177998
 20
-18.774677497013791
 30
0.0
  0
VERTEX
  5
216C
  8
SAPA_PROFIL
 10
50.664081199206272
 20
-20.660521188874849
 30
0.0
  0
VERTEX
  5
216D
  8
SAPA_PROFIL
 10
50.342323470987999
 20
-20.649959822647869
 30
0.0
 42
0.5773502691897449
  0
VERTEX
  5
216E
  8
SAPA_PROFIL
 10
50.159369730877842
 20
-20.94411612290271
 30
0.0
  0
VERTEX
  5
216F
  8
SAPA_PROFIL
 10
50.31150364198659
 20
-21.22879840613437
 30
0.0
 42
0.2216946626430184
  0
VERTEX
  5
2170
  8
SAPA_PROFIL
 10
50.852383473463391
 20
-21.634607311289141
 30
0.0
  0
VERTEX
  5
2171
  8
SAPA_PROFIL
 10
52.665613944121631
 20
-22.016053907416861
 30
0.0
 42
0.4769755326981644
  0
VERTEX
  5
2172
  8
SAPA_PROFIL
 10
53.037270819067508
 20
-21.71380108291039
 30
0.0
  0
VERTEX
  5
2173
  8
SAPA_PROFIL
 10
53.037187211183863
 20
-20.210700002148378
 30
0.0
  0
VERTEX
  5
2174
  8
SAPA_PROFIL
 10
52.989341461185369
 20
-20.196181592901279
 30
0.0
 42
-0.4142135623730956
  0
VERTEX
  5
2175
  8
SAPA_PROFIL
 10
52.789377416677979
 20
-19.82199663742546
 30
0.0
  0
VERTEX
  5
2176
  8
SAPA_PROFIL
 10
53.299999999900017
 20
-18.50087967927368
 30
0.0
  0
VERTEX
  5
2177
  8
SAPA_PROFIL
 10
53.299999999900017
 20
-18.49871529482272
 30
0.0
  0
VERTEX
  5
2178
  8
SAPA_PROFIL
 10
53.299999999900017
 20
-15.486230961313669
 30
0.0
 42
0.2596812337309464
  0
VERTEX
  5
2179
  8
SAPA_PROFIL
 10
53.205306804652032
 20
-15.31620014977371
 30
0.0
  0
VERTEX
  5
217A
  8
SAPA_PROFIL
 10
51.957960207028009
 20
-14.54366908070466
 30
0.0
 42
0.5877032589253032
  0
VERTEX
  5
217B
  8
SAPA_PROFIL
 10
51.499999999900012
 20
-14.798715298014679
 30
0.0
  0
VERTEX
  5
217C
  8
SAPA_PROFIL
 10
51.499999999900012
 20
-16.19871529801464
 30
0.0
 42
-0.4142135623730951
  0
VERTEX
  5
217D
  8
SAPA_PROFIL
 10
51.199999999900001
 20
-16.498715298014648
 30
0.0
  0
VERTEX
  5
217E
  8
SAPA_PROFIL
 10
48.799999999900017
 20
-16.49871529801473
 30
0.0
 42
-0.4142135623730882
  0
VERTEX
  5
217F
  8
SAPA_PROFIL
 10
48.499999999899948
 20
-16.19871529801464
 30
0.0
  0
VERTEX
  5
2180
  8
SAPA_PROFIL
 10
48.499999999900012
 20
1.201284701985333
 30
0.0
 42
-0.4142135623730951
  0
VERTEX
  5
2181
  8
SAPA_PROFIL
 10
48.799999999900017
 20
1.5012847019853439
 30
0.0
  0
VERTEX
  5
2182
  8
SAPA_PROFIL
 10
51.199999999900001
 20
1.5012847019852871
 30
0.0
 42
-0.4142135623730951
  0
VERTEX
  5
2183
  8
SAPA_PROFIL
 10
51.499999999899948
 20
1.201284701985333
 30
0.0
  0
VERTEX
  5
2184
  8
SAPA_PROFIL
 10
51.499999999900012
 20
-0.198715298014644
 30
0.0
 42
0.587703258925294
  0
VERTEX
  5
2185
  8
SAPA_PROFIL
 10
51.957960207028002
 20
-0.45376151532464
 30
0.0
  0
VERTEX
  5
2186
  8
SAPA_PROFIL
 10
53.405306804652007
 20
0.4426374619172755
 30
0.0
 42
0.2596812337299331
  0
VERTEX
  5
2187
  8
SAPA_PROFIL
 10
53.499999999900012
 20
0.6126682734573486
 30
0.0
  0
VERTEX
  5
2188
  8
SAPA_PROFIL
 10
53.499999999899998
 20
3.3012847051352772
 30
0.0
 42
0.4142135623730951
  0
VERTEX
  5
2189
  8
SAPA_PROFIL
 10
53.29999999990001
 20
3.5012847051353222
 30
0.0
  0
VERTEX
  5
218A
  8
SAPA_PROFIL
 10
31.199999999901021
 20
3.5012847051353191
 30
0.0
 42
0.4142135623730951
  0
VERTEX
  5
218B
  8
SAPA_PROFIL
 10
30.999999999900972
 20
3.3012847051352732
 30
0.0
  0
VERTEX
  5
218C
  8
SAPA_PROFIL
 10
30.999999999900979
 20
0.612668273457345
 30
0.0
 42
0.2596812337298758
  0
VERTEX
  5
218D
  8
SAPA_PROFIL
 10
31.09469319514897
 20
0.442637461917272
 30
0.0
  0
VERTEX
  5
218E
  8
SAPA_PROFIL
 10
32.542039792772982
 20
-0.4537615153246435
 30
0.0
 42
0.5877032589253579
  0
VERTEX
  5
218F
  8
SAPA_PROFIL
 10
32.99999999990002
 20
-0.1987152980146476
 30
0.0
  0
VERTEX
  5
2190
  8
SAPA_PROFIL
 10
32.99999999990002
 20
1.201284701985329
 30
0.0
 42
-0.4142135623730951
  0
VERTEX
  5
2191
  8
SAPA_PROFIL
 10
33.299999999900017
 20
1.5012847019853259
 30
0.0
  0
VERTEX
  5
2192
  8
SAPA_PROFIL
 10
35.699999999901017
 20
1.501284701985284
 30
0.0
 42
-0.4142135623720961
  0
VERTEX
  5
2193
  8
SAPA_PROFIL
 10
35.999999999899948
 20
1.201284701985329
 30
0.0
  0
VERTEX
  5
2194
  8
SAPA_PROFIL
 10
35.99999999990002
 20
-16.19871529801464
 30
0.0
 42
-0.4142135623730951
  0
VERTEX
  5
2195
  8
SAPA_PROFIL
 10
35.699999999899987
 20
-16.49871529801467
 30
0.0
  0
VERTEX
  5
2196
  8
SAPA_PROFIL
 10
33.299999999900031
 20
-16.49871529801473
 30
0.0
 42
-0.4142135623730882
  0
VERTEX
  5
2197
  8
SAPA_PROFIL
 10
32.999999999899948
 20
-16.19871529801464
 30
0.0
  0
VERTEX
  5
2198
  8
SAPA_PROFIL
 10
32.999999999900027
 20
-14.798715298014679
 30
0.0
 42
0.5877032589243584
  0
VERTEX
  5
2199
  8
SAPA_PROFIL
 10
32.542039792772989
 20
-14.543669080704669
 30
0.0
  0
VERTEX
  5
219A
  8
SAPA_PROFIL
 10
31.29469319514903
 20
-15.316200149773721
 30
0.0
 42
0.2596812337298608
  0
VERTEX
  5
219B
  8
SAPA_PROFIL
 10
31.199999999900001
 20
-15.48623096131368
 30
0.0
  0
VERTEX
  5
219C
  8
SAPA_PROFIL
 10
31.199999999900001
 20
-18.49871529482273
 30
0.0
  0
VERTEX
  5
219D
  8
SAPA_PROFIL
 10
31.199999999900001
 20
-18.500879679270302
 30
0.0
  0
VERTEX
  5
219E
  8
SAPA_PROFIL
 10
31.710622583122959
 20
-19.821996637424469
 30
0.0
 42
-0.4142135623730957
  0
VERTEX
  5
219F
  8
SAPA_PROFIL
 10
31.510658538615559
 20
-20.196181592900292
 30
0.0
  0
VERTEX
  5
21A0
  8
SAPA_PROFIL
 10
31.462812788617072
 20
-20.210700002147391
 30
0.0
  0
VERTEX
  5
21A1
  8
SAPA_PROFIL
 10
31.46272918073343
 20
-21.713801082909399
 30
0.0
 42
0.4769755326981643
  0
VERTEX
  5
21A2
  8
SAPA_PROFIL
 10
31.834386055679289
 20
-22.01605390741587
 30
0.0
  0
VERTEX
  5
21A3
  8
SAPA_PROFIL
 10
33.647616526337551
 20
-21.634607311288139
 30
0.0
 42
0.2216946626430184
  0
VERTEX
  5
21A4
  8
SAPA_PROFIL
 10
34.18849635781433
 20
-21.22879840613335
 30
0.0
  0
VERTEX
  5
21A5
  8
SAPA_PROFIL
 10
34.3406302689231
 20
-20.944116122901711
 30
0.0
 42
0.5773502691897449
  0
VERTEX
  5
21A6
  8
SAPA_PROFIL
 10
34.157676528812907
 20
-20.649959822646888
 30
0.0
  0
VERTEX
  5
21A7
  8
SAPA_PROFIL
 10
33.835918800594669
 20
-20.660521188873862
 30
0.0
  0
VERTEX
  5
21A8
  8
SAPA_PROFIL
 10
32.751354353622929
 20
-18.774677497012799
 30
0.0
  0
VERTEX
  5
21A9
  8
SAPA_PROFIL
 10
32.693280716633851
 20
-18.583294497019079
 30
0.0
 42
-0.7625858545243238
  0
VERTEX
  5
21AA
  8
SAPA_PROFIL
 10
33.023606797650842
 20
-18.398715294821582
 30
0.0
 42
0.2134217652834387
  0
VERTEX
  5
21AB
  8
SAPA_PROFIL
 10
33.247213595400979
 20
-18.498715294821721
 30
0.0
  0
VERTEX
  5
21AC
  8
SAPA_PROFIL
 10
37.099999999899978
 20
-18.49871529482273
 30
0.0
 42
-0.4142135623730881
  0
VERTEX
  5
21AD
  8
SAPA_PROFIL
 10
37.399999999899933
 20
-18.798715294822699
 30
0.0
  0
VERTEX
  5
21AE
  8
SAPA_PROFIL
 10
37.39999999990102
 20
-19.09871529482264
 30
0.0
  0
VERTEX
  5
21AF
  8
SAPA_PROFIL
 10
36.476239569196977
 20
-20.698715294821639
 30
0.0
 42
0.5773502691910457
  0
VERTEX
  5
21B0
  8
SAPA_PROFIL
 10
36.649444649953978
 20
-20.99871529482273
 30
0.0
  0
VERTEX
  5
21B1
  8
SAPA_PROFIL
 10
38.035085296009022
 20
-20.99871529482273
 30
0.0
 42
0.2679491924309594
  0
VERTEX
  5
21B2
  8
SAPA_PROFIL
 10
38.90111069979401
 20
-20.49871529482273
 30
0.0
  0
VERTEX
  5
21B3
  8
SAPA_PROFIL
 10
39.911473670875978
 20
-18.748715294821721
 30
0.0
 42
-0.267949192416605
  0
VERTEX
  5
21B4
  8
SAPA_PROFIL
 10
40.344486372741017
 20
-18.498715294821871
 30
0.0
  0
VERTEX
  5
21B5
  8
SAPA_PROFIL
 10
44.155513627059982
 20
-18.498715294821721
 30
0.0
 42
-0.2679491924166034
  0
VERTEX
  5
21B6
  8
SAPA_PROFIL
 10
44.588526328925148
 20
-18.748715294821629
 30
0.0
  0
VERTEX
  5
21B7
  8
SAPA_PROFIL
 10
45.598889300006981
 20
-20.49871529482273
 30
0.0
 42
0.2679491924309617
  0
VERTEX
  5
21B8
  8
SAPA_PROFIL
 10
46.464914703791969
 20
-20.99871529482273
 30
0.0
  0
VERTEX
  5
21B9
  8
SAPA_PROFIL
 10
47.850555349847014
 20
-20.99871529482273
 30
0.0
 42
0.5773502691910514
  0
VERTEX
  5
21BA
  8
SAPA_PROFIL
 10
48.023760430604
 20
-20.698715294821628
 30
0.0
  0
VERTEX
  5
21BB
  8
SAPA_PROFIL
 10
47.099999999899978
 20
-19.098715294822629
 30
0.0
  0
VERTEX
  5
21BC
  8
SAPA_PROFIL
 10
47.099999999899978
 20
-18.798715294822689
 30
0.0
 42
-0.4142135623730951
  0
VERTEX
  5
21BD
  8
SAPA_PROFIL
 10
47.39999999989999
 20
-18.498715294822681
 30
0.0
  0
SEQEND
  5
21BE
  8
SAPA_PROFIL
  0
POLYLINE
  5
17CB
  8
SAPA_PROFIL
 66
     1
 10
0.0
 20
0.0
 30
0.0
 70
     1
  0
VERTEX
  5
21BF
  8
SAPA_PROFIL
 10
37.999988381304981
 20
1.8012847053022789
 30
0.0
  0
VERTEX
  5
21C0
  8
SAPA_PROFIL
 10
42.54999999989797
 20
1.801284705558305
 30
0.0
 42
-0.4142135623895444
  0
VERTEX
  5
21C1
  8
SAPA_PROFIL
 10
42.799999999912011
 20
1.551284705558305
 30
0.0
  0
VERTEX
  5
21C2
  8
SAPA_PROFIL
 10
42.799999999911961
 20
1.4012847058383391
 30
0.0
 42
0.4142135622515363
  0
VERTEX
  5
21C3
  8
SAPA_PROFIL
 10
42.999999999829001
 20
1.2012847058382929
 30
0.0
  0
VERTEX
  5
21C4
  8
SAPA_PROFIL
 10
44.599999999828967
 20
1.201284705175272
 30
0.0
 42
0.4142135624946333
  0
VERTEX
  5
21C5
  8
SAPA_PROFIL
 10
44.799999999912011
 20
1.401284705175317
 30
0.0
  0
VERTEX
  5
21C6
  8
SAPA_PROFIL
 10
44.799999999912011
 20
1.5512847056983681
 30
0.0
 42
-0.4142135623577114
  0
VERTEX
  5
21C7
  8
SAPA_PROFIL
 10
45.04999999989797
 20
1.8012847056992769
 30
0.0
  0
VERTEX
  5
21C8
  8
SAPA_PROFIL
 10
46.499999999883023
 20
1.8012847057803361
 30
0.0
 42
-0.4142135623896886
  0
VERTEX
  5
21C9
  8
SAPA_PROFIL
 10
46.799999999900017
 20
1.5012847057802681
 30
0.0
  0
VERTEX
  5
21CA
  8
SAPA_PROFIL
 10
46.799999999900017
 20
-16.498715294343651
 30
0.0
 42
-0.4142135623565153
  0
VERTEX
  5
21CB
  8
SAPA_PROFIL
 10
46.499999999916987
 20
-16.798715294343719
 30
0.0
  0
VERTEX
  5
21CC
  8
SAPA_PROFIL
 10
45.049999999926001
 20
-16.798715294425691
 30
0.0
 42
-0.4142135623894778
  0
VERTEX
  5
21CD
  8
SAPA_PROFIL
 10
44.799999999912018
 20
-16.548715294425691
 30
0.0
  0
VERTEX
  5
21CE
  8
SAPA_PROFIL
 10
44.799999999912032
 20
-16.3987152937387
 30
0.0
 42
0.4142135624946436
  0
VERTEX
  5
21CF
  8
SAPA_PROFIL
 10
44.599999999828981
 20
-16.198715293738651
 30
0.0
  0
VERTEX
  5
21D0
  8
SAPA_PROFIL
 10
42.999999999829001
 20
-16.19871529440265
 30
0.0
 42
0.4142135622515466
  0
VERTEX
  5
21D1
  8
SAPA_PROFIL
 10
42.799999999912011
 20
-16.398715294402638
 30
0.0
  0
VERTEX
  5
21D2
  8
SAPA_PROFIL
 10
42.799999999912011
 20
-16.548715294566659
 30
0.0
 42
-0.4142135623567124
  0
VERTEX
  5
21D3
  8
SAPA_PROFIL
 10
42.549999999926001
 20
-16.798715294566659
 30
0.0
  0
VERTEX
  5
21D4
  8
SAPA_PROFIL
 10
37.999999999917009
 20
-16.798715294822699
 30
0.0
 42
-0.4142135623896818
  0
VERTEX
  5
21D5
  8
SAPA_PROFIL
 10
37.699999999899987
 20
-16.49871529482273
 30
0.0
  0
VERTEX
  5
21D6
  8
SAPA_PROFIL
 10
37.69999999989998
 20
1.5012847055273111
 30
0.0
 42
-0.414202219059594
  0
SEQEND
  5
21D7
  8
SAPA_PROFIL
  0
POLYLINE
  5
17CC
  8
SAPA_PROFIL
 62
     4
 66
     1
 10
0.0
 20
0.0
 30
0.0
  0
VERTEX
  5
21D8
  8
SAPA_PROFIL
 62
     4
 10
50.594428835783631
 20
-30.449386172468301
 30
0.0
 42
0.5571646428658034
  0
VERTEX
  5
21D9
  8
SAPA_PROFIL
 62
     4
 10
49.726709921628078
 20
-30.98634667660512
 30
0.0
  0
VERTEX
  5
21DA
  8
SAPA_PROFIL
 62
     4
 10
49.72670992162854
 20
-48.011083913126321
 30
0.0
 42
0.5571645048035741
  0
VERTEX
  5
21DB
  8
SAPA_PROFIL
 62
     4
 10
50.594428609494699
 20
-48.548044530087381
 30
0.0
  0
VERTEX
  5
21DC
  8
SAPA_PROFIL
 62
     4
 10
52.260569265562737
 20
-47.717337442540682
 30
0.0
 42
0.284385813979063
  0
VERTEX
  5
21DD
  8
SAPA_PROFIL
 62
     4
 10
52.42670992163017
 20
-47.448857134060333
 30
0.0
  0
VERTEX
  5
21DE
  8
SAPA_PROFIL
 62
     4
 10
52.42670992163017
 20
-31.548573455671018
 30
0.0
 42
0.2843858139786238
  0
VERTEX
  5
21DF
  8
SAPA_PROFIL
 62
     4
 10
52.260569265563241
 20
-31.28009314719073
 30
0.0
  0
VERTEX
  5
21E0
  8
SAPA_PROFIL
 62
     4
 10
50.594428609493903
 20
-30.449386059643569
 30
0.0
  0
SEQEND
  5
21E1
  8
SAPA_PROFIL
 62
     4
  0
POLYLINE
  5
17CD
  8
SAPA_PROFIL
 62
     4
 66
     1
 10
0.0
 20
0.0
 30
0.0
 70
     1
  0
VERTEX
  5
21E2
  8
SAPA_PROFIL
 62
     4
 10
52.783541436127749
 20
-53.91632647953297
 30
0.0
  0
VERTEX
  5
21E3
  8
SAPA_PROFIL
 62
     4
 10
53.190101632131892
 20
-54.180349757908992
 30
0.0
 42
-0.2539676464751066
  0
VERTEX
  5
21E4
  8
SAPA_PROFIL
 62
     4
 10
53.326709921628002
 20
-54.431950928293688
 30
0.0
  0
VERTEX
  5
21E5
  8
SAPA_PROFIL
 62
     4
 10
53.326709921628002
 20
-55.813450513499028
 30
0.0
 42
-0.3152987888790479
  0
VERTEX
  5
21E6
  8
SAPA_PROFIL
 62
     4
 10
52.997719993289827
 20
-56.283296823891348
 30
0.0
  0
VERTEX
  5
21E7
  8
SAPA_PROFIL
 62
     4
 10
50.536889802838559
 20
-57.178965764799948
 30
0.0
 42
0.2694959974287434
  0
VERTEX
  5
21E8
  8
SAPA_PROFIL
 62
     4
 10
50.34375782849466
 20
-57.410484811201307
 30
0.0
 42
0.0612686379508233
  0
VERTEX
  5
21E9
  8
SAPA_PROFIL
 62
     4
 10
50.330174457864139
 20
-57.703160244054587
 30
0.0
  0
VERTEX
  5
21EA
  8
SAPA_PROFIL
 62
     4
 10
50.128437779135318
 20
-58.052578421362853
 30
0.0
 42
0.5773502691891679
  0
VERTEX
  5
21EB
  8
SAPA_PROFIL
 62
     4
 10
50.310303113929891
 20
-58.367578421362431
 30
0.0
  0
VERTEX
  5
21EC
  8
SAPA_PROFIL
 62
     4
 10
50.577417642056211
 20
-58.36757842136268
 30
0.0
  0
VERTEX
  5
21ED
  8
SAPA_PROFIL
 62
     4
 10
51.386101103364517
 20
-59.766106121996927
 30
0.0
 42
-0.1318219888653519
  0
VERTEX
  5
21EE
  8
SAPA_PROFIL
 62
     4
 10
51.42639349990192
 20
-59.916279224469271
 30
0.0
  0
VERTEX
  5
21EF
  8
SAPA_PROFIL
 62
     4
 10
51.426393499895553
 20
-60.098715294906057
 30
0.0
 42
-0.4142135623724291
  0
VERTEX
  5
21F0
  8
SAPA_PROFIL
 62
     4
 10
51.02639349989591
 20
-60.498715294906603
 30
0.0
  0
VERTEX
  5
21F1
  8
SAPA_PROFIL
 62
     4
 10
47.62639349989491
 20
-60.498715294905232
 30
0.0
 42
-0.4142135623744271
  0
VERTEX
  5
21F2
  8
SAPA_PROFIL
 62
     4
 10
47.226393499893923
 20
-60.098715294906057
 30
0.0
  0
VERTEX
  5
21F3
  8
SAPA_PROFIL
 62
     4
 10
47.226393499893277
 20
-59.919100052634747
 30
0.0
 42
-0.1316524975874005
  0
VERTEX
  5
21F4
  8
SAPA_PROFIL
 62
     4
 10
47.266585878758868
 20
-59.769100052637938
 30
0.0
  0
VERTEX
  5
21F5
  8
SAPA_PROFIL
 62
     4
 10
48.192735325411412
 20
-58.164962155635678
 30
0.0
 42
0.1316524975875904
  0
VERTEX
  5
21F6
  8
SAPA_PROFIL
 62
     4
 10
48.326709921626183
 20
-57.664962155633972
 30
0.0
  0
VERTEX
  5
21F7
  8
SAPA_PROFIL
 62
     4
 10
48.326709921626183
 20
-57.248715294906603
 30
0.0
 42
0.4142135623730951
  0
VERTEX
  5
21F8
  8
SAPA_PROFIL
 62
     4
 10
47.326709921626168
 20
-56.248715294906603
 30
0.0
  0
VERTEX
  5
21F9
  8
SAPA_PROFIL
 62
     4
 10
44.326709921628897
 20
-56.248715294906603
 30
0.0
 42
-0.9999996830128083
  0
VERTEX
  5
21FA
  8
SAPA_PROFIL
 62
     4
 10
44.326709921627078
 20
-55.248715294906603
 30
0.0
  0
VERTEX
  5
21FB
  8
SAPA_PROFIL
 62
     4
 10
47.326709921627092
 20
-55.248715294906603
 30
0.0
 42
0.4142135623730951
  0
VERTEX
  5
21FC
  8
SAPA_PROFIL
 62
     4
 10
48.326709921627078
 20
-54.248715294906603
 30
0.0
  0
VERTEX
  5
21FD
  8
SAPA_PROFIL
 62
     4
 10
48.326709921627078
 20
-24.74871529482202
 30
0.0
 42
0.4142135623730951
  0
VERTEX
  5
21FE
  8
SAPA_PROFIL
 62
     4
 10
47.326709921627092
 20
-23.74871529482202
 30
0.0
  0
VERTEX
  5
21FF
  8
SAPA_PROFIL
 62
     4
 10
44.326709921628897
 20
-23.74871529482202
 30
0.0
 42
-0.9999999999999998
  0
VERTEX
  5
2200
  8
SAPA_PROFIL
 62
     4
 10
44.326709921628897
 20
-22.74871529482202
 30
0.0
  0
VERTEX
  5
2201
  8
SAPA_PROFIL
 62
     4
 10
47.326709921627092
 20
-22.74871529482202
 30
0.0
 42
0.4142135623736278
  0
VERTEX
  5
2202
  8
SAPA_PROFIL
 62
     4
 10
48.326709921627078
 20
-21.74871529482202
 30
0.0
  0
VERTEX
  5
2203
  8
SAPA_PROFIL
 62
     4
 10
48.326709921627078
 20
-21.33246843409556
 30
0.0
 42
0.1316524975874375
  0
VERTEX
  5
2204
  8
SAPA_PROFIL
 62
     4
 10
48.19273532541105
 20
-20.832468434095361
 30
0.0
  0
VERTEX
  5
2205
  8
SAPA_PROFIL
 62
     4
 10
47.266585878758868
 20
-19.228330537093409
 30
0.0
 42
-0.1316524975874
  0
VERTEX
  5
2206
  8
SAPA_PROFIL
 62
     4
 10
47.226393499893277
 20
-19.078330537093869
 30
0.0
  0
VERTEX
  5
2207
  8
SAPA_PROFIL
 62
     4
 10
47.226393499893923
 20
-18.898715294822559
 30
0.0
 42
-0.4142135623744271
  0
VERTEX
  5
2208
  8
SAPA_PROFIL
 62
     4
 10
47.62639349989491
 20
-18.498715294823381
 30
0.0
  0
VERTEX
  5
2209
  8
SAPA_PROFIL
 62
     4
 10
51.02639349989591
 20
-18.49871529482202
 30
0.0
 42
-0.4142135623724291
  0
VERTEX
  5
220A
  8
SAPA_PROFIL
 62
     4
 10
51.426393499895553
 20
-18.898715294822559
 30
0.0
  0
VERTEX
  5
220B
  8
SAPA_PROFIL
 62
     4
 10
51.42639349990192
 20
-19.081151365259341
 30
0.0
 42
-0.1318219888653524
  0
VERTEX
  5
220C
  8
SAPA_PROFIL
 62
     4
 10
51.386101103364517
 20
-19.231324467731689
 30
0.0
  0
VERTEX
  5
220D
  8
SAPA_PROFIL
 62
     4
 10
50.57741764214019
 20
-20.62985216821134
 30
0.0
  0
VERTEX
  5
220E
  8
SAPA_PROFIL
 62
     4
 10
50.310303113927148
 20
-20.62985216821134
 30
0.0
 42
0.577350269189159
  0
VERTEX
  5
220F
  8
SAPA_PROFIL
 62
     4
 10
50.128437779132589
 20
-20.94485216821095
 30
0.0
  0
VERTEX
  5
2210
  8
SAPA_PROFIL
 62
     4
 10
50.330174457809697
 20
-21.294270345429599
 30
0.0
 42
0.0612687673629489
  0
VERTEX
  5
2211
  8
SAPA_PROFIL
 62
     4
 10
50.343757828495903
 20
-21.58694577852982
 30
0.0
 42
0.2694959974285039
  0
VERTEX
  5
2212
  8
SAPA_PROFIL
 62
     4
 10
50.536889802839852
 20
-21.818464824930341
 30
0.0
  0
VERTEX
  5
2213
  8
SAPA_PROFIL
 62
     4
 10
52.997719993293011
 20
-22.71413376584
 30
0.0
 42
-0.3152987888784035
  0
VERTEX
  5
2214
  8
SAPA_PROFIL
 62
     4
 10
53.3267099216296
 20
-23.18398007623323
 30
0.0
  0
VERTEX
  5
2215
  8
SAPA_PROFIL
 62
     4
 10
53.326709921628002
 20
-24.56547966143766
 30
0.0
 42
-0.2539676464741841
  0
VERTEX
  5
2216
  8
SAPA_PROFIL
 62
     4
 10
53.190101632132723
 20
-24.817080831821741
 30
0.0
  0
VERTEX
  5
2217
  8
SAPA_PROFIL
 62
     4
 10
52.783541436127749
 20
-25.081104110198378
 30
0.0
 42
-0.5862177598324623
  0
VERTEX
  5
2218
  8
SAPA_PROFIL
 62
     4
 10
52.326709921631242
 20
-24.825362294960041
 30
0.0
  0
VERTEX
  5
2219
  8
SAPA_PROFIL
 62
     4
 10
52.326709921638908
 20
-23.88418761445023
 30
0.0
 42
0.3152987888813165
  0
VERTEX
  5
221A
  8
SAPA_PROFIL
 62
     4
 10
51.997719993302162
 20
-23.414341304052471
 30
0.0
  0
VERTEX
  5
221B
  8
SAPA_PROFIL
 62
     4
 10
50.797719993290933
 20
-22.977577022928521
 30
0.0
 42
0.5205670505515651
  0
VERTEX
  5
221C
  8
SAPA_PROFIL
 62
     4
 10
50.126709921628169
 20
-23.447423333321741
 30
0.0
  0
VERTEX
  5
221D
  8
SAPA_PROFIL
 62
     4
 10
50.126709921628141
 20
-28.463864273990591
 30
0.0
 42
0.3702522326300203
  0
VERTEX
  5
221E
  8
SAPA_PROFIL
 62
     4
 10
50.381169874293853
 20
-28.760387635783921
 30
0.0
 42
0.0982365330332397
  0
VERTEX
  5
221F
  8
SAPA_PROFIL
 62
     4
 10
52.068856649288861
 20
-28.850840393994861
 30
0.0
 42
0.3735060174783164
  0
VERTEX
  5
2220
  8
SAPA_PROFIL
 62
     4
 10
52.326709921628897
 20
-28.553815726083879
 30
0.0
  0
VERTEX
  5
2221
  8
SAPA_PROFIL
 62
     4
 10
52.326709921629813
 20
-28.125362294961221
 30
0.0
 42
-0.5920056181162531
  0
VERTEX
  5
2222
  8
SAPA_PROFIL
 62
     4
 10
52.787913424157729
 20
-27.872353538643821
 30
0.0
  0
VERTEX
  5
2223
  8
SAPA_PROFIL
 62
     4
 10
53.190101632136027
 20
-28.133537614799518
 30
0.0
 42
-0.2539676464746725
  0
VERTEX
  5
2224
  8
SAPA_PROFIL
 62
     4
 10
53.326709921631391
 20
-28.38513878518329
 30
0.0
  0
VERTEX
  5
2225
  8
SAPA_PROFIL
 62
     4
 10
53.326709921629813
 20
-50.612291804548981
 30
0.0
 42
-0.2539676464741819
  0
VERTEX
  5
2226
  8
SAPA_PROFIL
 62
     4
 10
53.190101632136027
 20
-50.863892974931829
 30
0.0
  0
VERTEX
  5
2227
  8
SAPA_PROFIL
 62
     4
 10
52.787913424157701
 20
-51.12507705108564
 30
0.0
 42
-0.5920055144124249
  0
VERTEX
  5
2228
  8
SAPA_PROFIL
 62
     4
 10
52.326709921629813
 20
-50.872068294770131
 30
0.0
  0
VERTEX
  5
2229
  8
SAPA_PROFIL
 62
     4
 10
52.32670994690482
 20
-50.443614817479911
 30
0.0
 42
0.3735060174775405
  0
VERTEX
  5
222A
  8
SAPA_PROFIL
 62
     4
 10
52.068856674564721
 20
-50.146590149570223
 30
0.0
 42
0.0355900683670349
  0
VERTEX
  5
222B
  8
SAPA_PROFIL
 62
     4
 10
51.452983087764942
 20
-50.10269658553797
 30
0.0
 42
0.0624282003873116
  0
VERTEX
  5
222C
  8
SAPA_PROFIL
 62
     4
 10
50.381169899569812
 20
-50.237042907780911
 30
0.0
 42
0.3702522326309292
  0
VERTEX
  5
222D
  8
SAPA_PROFIL
 62
     4
 10
50.126709946904093
 20
-50.533566269574287
 30
0.0
  0
VERTEX
  5
222E
  8
SAPA_PROFIL
 62
     4
 10
50.126709921627963
 20
-55.550007256407802
 30
0.0
 42
0.5205670505515692
  0
VERTEX
  5
222F
  8
SAPA_PROFIL
 62
     4
 10
50.797719993290933
 20
-56.019853566801018
 30
0.0
  0
VERTEX
  5
2230
  8
SAPA_PROFIL
 62
     4
 10
51.997719993300372
 20
-55.583089285676067
 30
0.0
 42
0.3152987888807539
  0
VERTEX
  5
2231
  8
SAPA_PROFIL
 62
     4
 10
52.326709921637999
 20
-55.113242975280208
 30
0.0
  0
VERTEX
  5
2232
  8
SAPA_PROFIL
 62
     4
 10
52.326709921631178
 20
-54.172068294771123
 30
0.0
 42
-0.5862175119221242
  0
VERTEX
  5
2233
  8
SAPA_PROFIL
 62
     4
 10
52.783541247386317
 20
-53.916326363789167
 30
0.0
 42
0.0000002084758573
  0
SEQEND
  5
2234
  8
SAPA_PROFIL
 62
     4
  0
POLYLINE
  5
17CE
  8
SAPA_PROFIL
 62
     4
 66
     1
 10
0.0
 20
0.0
 30
0.0
  0
VERTEX
  5
2235
  8
SAPA_PROFIL
 62
     4
 10
33.905571133529151
 20
-30.449386172468301
 30
0.0
 42
-0.5571646428658034
  0
VERTEX
  5
2236
  8
SAPA_PROFIL
 62
     4
 10
34.773290047684704
 20
-30.98634667660512
 30
0.0
  0
VERTEX
  5
2237
  8
SAPA_PROFIL
 62
     4
 10
34.773290047684242
 20
-48.011083913126321
 30
0.0
 42
-0.5571645048035741
  0
VERTEX
  5
2238
  8
SAPA_PROFIL
 62
     4
 10
33.905571359818083
 20
-48.548044530087381
 30
0.0
  0
VERTEX
  5
2239
  8
SAPA_PROFIL
 62
     4
 10
32.239430703750052
 20
-47.717337442540682
 30
0.0
 42
-0.284385813979063
  0
VERTEX
  5
223A
  8
SAPA_PROFIL
 62
     4
 10
32.073290047682598
 20
-47.448857134060333
 30
0.0
  0
VERTEX
  5
223B
  8
SAPA_PROFIL
 62
     4
 10
32.073290047682598
 20
-31.548573455671018
 30
0.0
 42
-0.2843858139786238
  0
VERTEX
  5
223C
  8
SAPA_PROFIL
 62
     4
 10
32.239430703749541
 20
-31.28009314719073
 30
0.0
  0
VERTEX
  5
223D
  8
SAPA_PROFIL
 62
     4
 10
33.905571359818879
 20
-30.449386059643569
 30
0.0
  0
SEQEND
  5
223E
  8
SAPA_PROFIL
 62
     4
  0
POLYLINE
  5
17CF
  8
SAPA_PROFIL
 62
     4
 66
     1
 10
0.0
 20
0.0
 30
0.0
 70
     1
  0
VERTEX
  5
223F
  8
SAPA_PROFIL
 62
     4
 10
31.71645853318504
 20
-53.91632647953297
 30
0.0
  0
VERTEX
  5
2240
  8
SAPA_PROFIL
 62
     4
 10
31.30989833718089
 20
-54.180349757908992
 30
0.0
 42
0.2539676464751066
  0
VERTEX
  5
2241
  8
SAPA_PROFIL
 62
     4
 10
31.173290047684791
 20
-54.431950928293688
 30
0.0
  0
VERTEX
  5
2242
  8
SAPA_PROFIL
 62
     4
 10
31.173290047684791
 20
-55.813450513499028
 30
0.0
 42
0.3152987888790479
  0
VERTEX
  5
2243
  8
SAPA_PROFIL
 62
     4
 10
31.502279976022951
 20
-56.283296823891348
 30
0.0
  0
VERTEX
  5
2244
  8
SAPA_PROFIL
 62
     4
 10
33.963110166474223
 20
-57.178965764799948
 30
0.0
 42
-0.2694959974287434
  0
VERTEX
  5
2245
  8
SAPA_PROFIL
 62
     4
 10
34.156242140818122
 20
-57.410484811201307
 30
0.0
 42
-0.0612686379508233
  0
VERTEX
  5
2246
  8
SAPA_PROFIL
 62
     4
 10
34.169825511448643
 20
-57.703160244054587
 30
0.0
  0
VERTEX
  5
2247
  8
SAPA_PROFIL
 62
     4
 10
34.371562190177457
 20
-58.052578421362853
 30
0.0
 42
-0.5773502691891679
  0
VERTEX
  5
2248
  8
SAPA_PROFIL
 62
     4
 10
34.189696855382891
 20
-58.367578421362431
 30
0.0
  0
VERTEX
  5
2249
  8
SAPA_PROFIL
 62
     4
 10
33.922582327256571
 20
-58.36757842136268
 30
0.0
  0
VERTEX
  5
224A
  8
SAPA_PROFIL
 62
     4
 10
33.113898865948258
 20
-59.766106121996927
 30
0.0
 42
0.1318219888653519
  0
VERTEX
  5
224B
  8
SAPA_PROFIL
 62
     4
 10
33.073606469410869
 20
-59.916279224469271
 30
0.0
  0
VERTEX
  5
224C
  8
SAPA_PROFIL
 62
     4
 10
33.073606469417228
 20
-60.098715294906057
 30
0.0
 42
0.4142135623724291
  0
VERTEX
  5
224D
  8
SAPA_PROFIL
 62
     4
 10
33.473606469416872
 20
-60.498715294906603
 30
0.0
  0
VERTEX
  5
224E
  8
SAPA_PROFIL
 62
     4
 10
36.873606469417872
 20
-60.498715294905232
 30
0.0
 42
0.4142135623744271
  0
VERTEX
  5
224F
  8
SAPA_PROFIL
 62
     4
 10
37.273606469418873
 20
-60.098715294906057
 30
0.0
  0
VERTEX
  5
2250
  8
SAPA_PROFIL
 62
     4
 10
37.273606469419512
 20
-59.919100052634747
 30
0.0
 42
0.1316524975874005
  0
VERTEX
  5
2251
  8
SAPA_PROFIL
 62
     4
 10
37.233414090553907
 20
-59.769100052637938
 30
0.0
  0
VERTEX
  5
2252
  8
SAPA_PROFIL
 62
     4
 10
36.30726464390137
 20
-58.164962155635678
 30
0.0
 42
-0.1316524975875904
  0
VERTEX
  5
2253
  8
SAPA_PROFIL
 62
     4
 10
36.173290047686613
 20
-57.664962155633972
 30
0.0
  0
VERTEX
  5
2254
  8
SAPA_PROFIL
 62
     4
 10
36.173290047686613
 20
-57.248715294906603
 30
0.0
 42
-0.4142135623730951
  0
VERTEX
  5
2255
  8
SAPA_PROFIL
 62
     4
 10
37.173290047686613
 20
-56.248715294906603
 30
0.0
  0
VERTEX
  5
2256
  8
SAPA_PROFIL
 62
     4
 10
40.173290047683871
 20
-56.248715294906603
 30
0.0
 42
0.9999996830128083
  0
VERTEX
  5
2257
  8
SAPA_PROFIL
 62
     4
 10
40.17329004768569
 20
-55.248715294906603
 30
0.0
  0
VERTEX
  5
2258
  8
SAPA_PROFIL
 62
     4
 10
37.173290047685697
 20
-55.248715294906603
 30
0.0
 42
-0.4142135623730951
  0
VERTEX
  5
2259
  8
SAPA_PROFIL
 62
     4
 10
36.173290047685697
 20
-54.248715294906603
 30
0.0
  0
VERTEX
  5
225A
  8
SAPA_PROFIL
 62
     4
 10
36.173290047685697
 20
-24.74871529482202
 30
0.0
 42
-0.4142135623730951
  0
VERTEX
  5
225B
  8
SAPA_PROFIL
 62
     4
 10
37.173290047685697
 20
-23.74871529482202
 30
0.0
  0
VERTEX
  5
225C
  8
SAPA_PROFIL
 62
     4
 10
40.173290047683871
 20
-23.74871529482202
 30
0.0
 42
0.9999999999999998
  0
VERTEX
  5
225D
  8
SAPA_PROFIL
 62
     4
 10
40.173290047683871
 20
-22.74871529482202
 30
0.0
  0
VERTEX
  5
225E
  8
SAPA_PROFIL
 62
     4
 10
37.173290047685697
 20
-22.74871529482202
 30
0.0
 42
-0.4142135623736278
  0
VERTEX
  5
225F
  8
SAPA_PROFIL
 62
     4
 10
36.173290047685697
 20
-21.74871529482202
 30
0.0
  0
VERTEX
  5
2260
  8
SAPA_PROFIL
 62
     4
 10
36.173290047685697
 20
-21.33246843409556
 30
0.0
 42
-0.1316524975874375
  0
VERTEX
  5
2261
  8
SAPA_PROFIL
 62
     4
 10
36.307264643901732
 20
-20.832468434095361
 30
0.0
  0
VERTEX
  5
2262
  8
SAPA_PROFIL
 62
     4
 10
37.233414090553907
 20
-19.228330537093409
 30
0.0
 42
0.1316524975874
  0
VERTEX
  5
2263
  8
SAPA_PROFIL
 62
     4
 10
37.273606469419498
 20
-19.078330537093869
 30
0.0
  0
VERTEX
  5
2264
  8
SAPA_PROFIL
 62
     4
 10
37.273606469418873
 20
-18.898715294822559
 30
0.0
 42
0.4142135623744271
  0
VERTEX
  5
2265
  8
SAPA_PROFIL
 62
     4
 10
36.873606469417872
 20
-18.498715294823381
 30
0.0
  0
VERTEX
  5
2266
  8
SAPA_PROFIL
 62
     4
 10
33.473606469416872
 20
-18.49871529482202
 30
0.0
 42
0.4142135623724291
  0
VERTEX
  5
2267
  8
SAPA_PROFIL
 62
     4
 10
33.073606469417228
 20
-18.898715294822559
 30
0.0
  0
VERTEX
  5
2268
  8
SAPA_PROFIL
 62
     4
 10
33.073606469410869
 20
-19.081151365259341
 30
0.0
 42
0.1318219888653524
  0
VERTEX
  5
2269
  8
SAPA_PROFIL
 62
     4
 10
33.113898865948258
 20
-19.231324467731689
 30
0.0
  0
VERTEX
  5
226A
  8
SAPA_PROFIL
 62
     4
 10
33.922582327172591
 20
-20.62985216821134
 30
0.0
  0
VERTEX
  5
226B
  8
SAPA_PROFIL
 62
     4
 10
34.189696855385627
 20
-20.62985216821134
 30
0.0
 42
-0.577350269189159
  0
VERTEX
  5
226C
  8
SAPA_PROFIL
 62
     4
 10
34.3715621901802
 20
-20.94485216821095
 30
0.0
  0
VERTEX
  5
226D
  8
SAPA_PROFIL
 62
     4
 10
34.169825511503078
 20
-21.294270345429599
 30
0.0
 42
-0.0612687673629489
  0
VERTEX
  5
226E
  8
SAPA_PROFIL
 62
     4
 10
34.156242140816879
 20
-21.58694577852982
 30
0.0
 42
-0.2694959974285039
  0
VERTEX
  5
226F
  8
SAPA_PROFIL
 62
     4
 10
33.96311016647293
 20
-21.818464824930341
 30
0.0
  0
VERTEX
  5
2270
  8
SAPA_PROFIL
 62
     4
 10
31.502279976019771
 20
-22.71413376584
 30
0.0
 42
0.3152987888784035
  0
VERTEX
  5
2271
  8
SAPA_PROFIL
 62
     4
 10
31.173290047683189
 20
-23.18398007623323
 30
0.0
  0
VERTEX
  5
2272
  8
SAPA_PROFIL
 62
     4
 10
31.173290047684791
 20
-24.56547966143766
 30
0.0
 42
0.2539676464741841
  0
VERTEX
  5
2273
  8
SAPA_PROFIL
 62
     4
 10
31.309898337180059
 20
-24.817080831821741
 30
0.0
  0
VERTEX
  5
2274
  8
SAPA_PROFIL
 62
     4
 10
31.71645853318504
 20
-25.081104110198378
 30
0.0
 42
0.5862177598324623
  0
VERTEX
  5
2275
  8
SAPA_PROFIL
 62
     4
 10
32.17329004768154
 20
-24.825362294960041
 30
0.0
  0
VERTEX
  5
2276
  8
SAPA_PROFIL
 62
     4
 10
32.173290047673881
 20
-23.88418761445023
 30
0.0
 42
-0.3152987888813165
  0
VERTEX
  5
2277
  8
SAPA_PROFIL
 62
     4
 10
32.502279976010627
 20
-23.414341304052471
 30
0.0
  0
VERTEX
  5
2278
  8
SAPA_PROFIL
 62
     4
 10
33.702279976021863
 20
-22.977577022928521
 30
0.0
 42
-0.5205670505515651
  0
VERTEX
  5
2279
  8
SAPA_PROFIL
 62
     4
 10
34.373290047684613
 20
-23.447423333321741
 30
0.0
  0
VERTEX
  5
227A
  8
SAPA_PROFIL
 62
     4
 10
34.373290047684627
 20
-28.463864273990591
 30
0.0
 42
-0.3702522326300203
  0
VERTEX
  5
227B
  8
SAPA_PROFIL
 62
     4
 10
34.118830095018929
 20
-28.760387635783921
 30
0.0
 42
-0.0982365330332397
  0
VERTEX
  5
227C
  8
SAPA_PROFIL
 62
     4
 10
32.431143320023921
 20
-28.850840393994861
 30
0.0
 42
-0.3735060174783164
  0
VERTEX
  5
227D
  8
SAPA_PROFIL
 62
     4
 10
32.173290047683892
 20
-28.553815726083879
 30
0.0
  0
VERTEX
  5
227E
  8
SAPA_PROFIL
 62
     4
 10
32.173290047682968
 20
-28.125362294961221
 30
0.0
 42
0.5920056181162531
  0
VERTEX
  5
227F
  8
SAPA_PROFIL
 62
     4
 10
31.712086545155049
 20
-27.872353538643821
 30
0.0
  0
VERTEX
  5
2280
  8
SAPA_PROFIL
 62
     4
 10
31.309898337176751
 20
-28.133537614799518
 30
0.0
 42
0.2539676464746725
  0
VERTEX
  5
2281
  8
SAPA_PROFIL
 62
     4
 10
31.173290047681391
 20
-28.38513878518329
 30
0.0
  0
VERTEX
  5
2282
  8
SAPA_PROFIL
 62
     4
 10
31.173290047682968
 20
-50.612291804548981
 30
0.0
 42
0.2539676464741819
  0
VERTEX
  5
2283
  8
SAPA_PROFIL
 62
     4
 10
31.309898337176751
 20
-50.863892974931829
 30
0.0
  0
VERTEX
  5
2284
  8
SAPA_PROFIL
 62
     4
 10
31.712086545155081
 20
-51.12507705108564
 30
0.0
 42
0.5920055144124249
  0
VERTEX
  5
2285
  8
SAPA_PROFIL
 62
     4
 10
32.173290047682968
 20
-50.872068294770131
 30
0.0
  0
VERTEX
  5
2286
  8
SAPA_PROFIL
 62
     4
 10
32.173290022407961
 20
-50.443614817479911
 30
0.0
 42
-0.3735060174775405
  0
VERTEX
  5
2287
  8
SAPA_PROFIL
 62
     4
 10
32.431143294748047
 20
-50.146590149570223
 30
0.0
 42
-0.0355900683670349
  0
VERTEX
  5
2288
  8
SAPA_PROFIL
 62
     4
 10
33.04701688154784
 20
-50.10269658553797
 30
0.0
 42
-0.0624282003873116
  0
VERTEX
  5
2289
  8
SAPA_PROFIL
 62
     4
 10
34.11883006974297
 20
-50.237042907780911
 30
0.0
 42
-0.3702522326309292
  0
VERTEX
  5
228A
  8
SAPA_PROFIL
 62
     4
 10
34.373290022408689
 20
-50.533566269574287
 30
0.0
  0
VERTEX
  5
228B
  8
SAPA_PROFIL
 62
     4
 10
34.373290047684833
 20
-55.550007256407802
 30
0.0
 42
-0.5205670505515692
  0
VERTEX
  5
228C
  8
SAPA_PROFIL
 62
     4
 10
33.702279976021863
 20
-56.019853566801018
 30
0.0
  0
VERTEX
  5
228D
  8
SAPA_PROFIL
 62
     4
 10
32.50227997601241
 20
-55.583089285676067
 30
0.0
 42
-0.3152987888807539
  0
VERTEX
  5
228E
  8
SAPA_PROFIL
 62
     4
 10
32.173290047674783
 20
-55.113242975280208
 30
0.0
  0
VERTEX
  5
228F
  8
SAPA_PROFIL
 62
     4
 10
32.173290047681597
 20
-54.172068294771123
 30
0.0
 42
0.5862175119221242
  0
VERTEX
  5
2290
  8
SAPA_PROFIL
 62
     4
 10
31.716458721926472
 20
-53.916326363789167
 30
0.0
 42
-0.0000002084758573
  0
SEQEND
  5
2291
  8
SAPA_PROFIL
 62
     4
  0
POLYLINE
  5
17D0
  8
SAPA_PROFIL
 62
     4
 66
     1
 10
0.0
 20
0.0
 30
0.0
 70
     1
  0
VERTEX
  5
2292
  8
SAPA_PROFIL
 62
     4
 10
14.899999995409051
 20
-68.702943553211838
 30
0.0
  0
VERTEX
  5
2293
  8
SAPA_PROFIL
 62
     4
 10
14.89999999540723
 20
-72.897056102908749
 30
0.0
 42
-0.1989123673786592
  0
VERTEX
  5
2294
  8
SAPA_PROFIL
 62
     4
 10
14.81213202976377
 20
-73.109188137264553
 30
0.0
  0
VERTEX
  5
2295
  8
SAPA_PROFIL
 62
     4
 10
12.58786796105286
 20
-75.333452205975476
 30
0.0
 42
0.1989123673785438
  0
VERTEX
  5
2296
  8
SAPA_PROFIL
 62
     4
 10
12.499999995409411
 20
-75.545584240331294
 30
0.0
  0
VERTEX
  5
2297
  8
SAPA_PROFIL
 62
     4
 10
12.49999999541123
 20
-75.999999828059643
 30
0.0
 42
0.4142135623730951
  0
VERTEX
  5
2298
  8
SAPA_PROFIL
 62
     4
 10
12.7999999954105
 20
-76.299999828059825
 30
0.0
  0
VERTEX
  5
2299
  8
SAPA_PROFIL
 62
     4
 10
24.69999999540946
 20
-76.299999828059825
 30
0.0
 42
-0.4142135623730951
  0
VERTEX
  5
229A
  8
SAPA_PROFIL
 62
     4
 10
25.19999999540946
 20
-76.799999828059839
 30
0.0
  0
VERTEX
  5
229B
  8
SAPA_PROFIL
 62
     4
 10
25.19999999540946
 20
-78.499999828059643
 30
0.0
 42
0.4142135623739832
  0
VERTEX
  5
229C
  8
SAPA_PROFIL
 62
     4
 10
25.499999995408729
 20
-78.799999828059825
 30
0.0
  0
VERTEX
  5
229D
  8
SAPA_PROFIL
 62
     4
 10
29.199999995408319
 20
-78.799999828059825
 30
0.0
 42
0.414213562375759
  0
VERTEX
  5
229E
  8
SAPA_PROFIL
 62
     4
 10
29.499999995409411
 20
-78.499999828059643
 30
0.0
  0
VERTEX
  5
229F
  8
SAPA_PROFIL
 62
     4
 10
29.499999995407592
 20
-62.006576697656641
 30
0.0
 42
0.4142135623735391
  0
VERTEX
  5
22A0
  8
SAPA_PROFIL
 62
     4
 10
29.199999995408319
 20
-61.706576697656921
 30
0.0
  0
VERTEX
  5
22A1
  8
SAPA_PROFIL
 62
     4
 10
12.7999999954105
 20
-61.706576697656921
 30
0.0
 42
0.4142135623726511
  0
VERTEX
  5
22A2
  8
SAPA_PROFIL
 62
     4
 10
12.499999995409411
 20
-62.006576697656641
 30
0.0
  0
VERTEX
  5
22A3
  8
SAPA_PROFIL
 62
     4
 10
12.499999995409411
 20
-66.054415415787474
 30
0.0
 42
0.1989123673785438
  0
VERTEX
  5
22A4
  8
SAPA_PROFIL
 62
     4
 10
12.58786796105286
 20
-66.266547450143293
 30
0.0
  0
VERTEX
  5
22A5
  8
SAPA_PROFIL
 62
     4
 10
14.812132029765589
 20
-68.49081151885602
 30
0.0
 42
-0.1989123673798886
  0
SEQEND
  5
22A6
  8
SAPA_PROFIL
 62
     4
  0
POLYLINE
  5
17D1
  8
SAPA_PROFIL
 62
     4
 66
     1
 10
0.0
 20
0.0
 30
0.0
 70
     1
  0
VERTEX
  5
22A7
  8
SAPA_PROFIL
 62
     4
 10
29.499999995409411
 20
-47.299999828060059
 30
0.0
  0
VERTEX
  5
22A8
  8
SAPA_PROFIL
 62
     4
 10
29.499999995407592
 20
-60.10657669765655
 30
0.0
 42
-0.4142135623732061
  0
VERTEX
  5
22A9
  8
SAPA_PROFIL
 62
     4
 10
29.199999995408319
 20
-60.406576697656732
 30
0.0
  0
VERTEX
  5
22AA
  8
SAPA_PROFIL
 62
     4
 10
12.7999999954105
 20
-60.406576697656732
 30
0.0
 42
-0.4142135623730951
  0
VERTEX
  5
22AB
  8
SAPA_PROFIL
 62
     4
 10
12.499999995409411
 20
-60.10657669765655
 30
0.0
  0
VERTEX
  5
22AC
  8
SAPA_PROFIL
 62
     4
 10
12.49999999541123
 20
-47.299999828060059
 30
0.0
 42
-0.4142135623731173
  0
VERTEX
  5
22AD
  8
SAPA_PROFIL
 62
     4
 10
12.799999995412319
 20
-46.999999828059877
 30
0.0
  0
VERTEX
  5
22AE
  8
SAPA_PROFIL
 62
     4
 10
29.199999995410138
 20
-46.999999828059877
 30
0.0
 42
-0.4142135623730951
  0
SEQEND
  5
22AF
  8
SAPA_PROFIL
 62
     4
  0
POLYLINE
  5
17D2
  8
SAPA_PROFIL
 62
     4
 66
     1
 10
0.0
 20
0.0
 30
0.0
 70
     1
  0
VERTEX
  5
22B0
  8
SAPA_PROFIL
 62
     4
 10
10.99999999541123
 20
-45.999999828059877
 30
0.0
  0
VERTEX
  5
22B1
  8
SAPA_PROFIL
 62
     4
 10
10.999999995409411
 20
-66.675735759347475
 30
0.0
 42
0.1989123673799843
  0
VERTEX
  5
22B2
  8
SAPA_PROFIL
 62
     4
 10
11.08786796105468
 20
-66.887867793704203
 30
0.0
  0
VERTEX
  5
22B3
  8
SAPA_PROFIL
 62
     4
 10
13.312132029765589
 20
-69.112131862415112
 30
0.0
 42
-0.1989123673811184
  0
VERTEX
  5
22B4
  8
SAPA_PROFIL
 62
     4
 10
13.399999995409051
 20
-69.32426389677093
 30
0.0
  0
VERTEX
  5
22B5
  8
SAPA_PROFIL
 62
     4
 10
13.39999999540723
 20
-72.275735759348748
 30
0.0
 42
-0.1989123673785438
  0
VERTEX
  5
22B6
  8
SAPA_PROFIL
 62
     4
 10
13.31213202976377
 20
-72.487867793704567
 30
0.0
  0
VERTEX
  5
22B7
  8
SAPA_PROFIL
 62
     4
 10
11.08786796105286
 20
-74.712131862416385
 30
0.0
 42
0.1989123673785438
  0
VERTEX
  5
22B8
  8
SAPA_PROFIL
 62
     4
 10
10.999999995409411
 20
-74.924263896772203
 30
0.0
  0
VERTEX
  5
22B9
  8
SAPA_PROFIL
 62
     4
 10
10.99999999541123
 20
-77.299999828059839
 30
0.0
 42
0.4142135623730951
  0
VERTEX
  5
22BA
  8
SAPA_PROFIL
 62
     4
 10
11.49999999541123
 20
-77.799999828059839
 30
0.0
  0
VERTEX
  5
22BB
  8
SAPA_PROFIL
 62
     4
 10
23.399999995410191
 20
-77.799999828059839
 30
0.0
 42
-0.414213562373761
  0
VERTEX
  5
22BC
  8
SAPA_PROFIL
 62
     4
 10
23.699999995409449
 20
-78.099999828060021
 30
0.0
  0
VERTEX
  5
22BD
  8
SAPA_PROFIL
 62
     4
 10
23.699999995409449
 20
-79.799999828059839
 30
0.0
 42
0.4142135623730951
  0
VERTEX
  5
22BE
  8
SAPA_PROFIL
 62
     4
 10
24.19999999540946
 20
-80.299999828059839
 30
0.0
  0
VERTEX
  5
22BF
  8
SAPA_PROFIL
 62
     4
 10
30.499999995409411
 20
-80.299999828059839
 30
0.0
 42
0.4142135623730951
  0
VERTEX
  5
22C0
  8
SAPA_PROFIL
 62
     4
 10
30.999999995409411
 20
-79.799999828059839
 30
0.0
  0
VERTEX
  5
22C1
  8
SAPA_PROFIL
 62
     4
 10
30.999999995407592
 20
-78.799999828059498
 30
0.0
 42
-0.414213562373539
  0
VERTEX
  5
22C2
  8
SAPA_PROFIL
 62
     4
 10
31.299999995406861
 20
-78.499999828059543
 30
0.0
  0
VERTEX
  5
22C3
  8
SAPA_PROFIL
 62
     4
 10
32.899999995409047
 20
-78.499999828059998
 30
0.0
 42
-0.4142135623735391
  0
VERTEX
  5
22C4
  8
SAPA_PROFIL
 62
     4
 10
33.199999995408319
 20
-78.799999828059725
 30
0.0
  0
VERTEX
  5
22C5
  8
SAPA_PROFIL
 62
     4
 10
33.1999999954065
 20
-79.099999828059339
 30
0.0
 42
0.592337729603611
  0
VERTEX
  5
22C6
  8
SAPA_PROFIL
 62
     4
 10
33.661452266148082
 20
-79.352849910663593
 30
0.0
  0
VERTEX
  5
22C7
  8
SAPA_PROFIL
 62
     4
 10
35.361452266148802
 20
-78.075790642366741
 30
0.0
 42
0.2560149538738706
  0
VERTEX
  5
22C8
  8
SAPA_PROFIL
 62
     4
 10
35.499999995409411
 20
-77.822940559761577
 30
0.0
  0
VERTEX
  5
22C9
  8
SAPA_PROFIL
 62
     4
 10
35.499999995409411
 20
-77.599999828058998
 30
0.0
 42
0.4142135623733169
  0
VERTEX
  5
22CA
  8
SAPA_PROFIL
 62
     4
 10
35.199999995410138
 20
-77.299999828059725
 30
0.0
  0
VERTEX
  5
22CB
  8
SAPA_PROFIL
 62
     4
 10
31.299999995406861
 20
-77.299999828059725
 30
0.0
 42
-0.414213562373539
  0
VERTEX
  5
22CC
  8
SAPA_PROFIL
 62
     4
 10
30.999999995407592
 20
-76.999999828059771
 30
0.0
  0
VERTEX
  5
22CD
  8
SAPA_PROFIL
 62
     4
 10
30.999999995409411
 20
-65.999999828059543
 30
0.0
 42
-0.414213562373539
  0
VERTEX
  5
22CE
  8
SAPA_PROFIL
 62
     4
 10
31.29999999540868
 20
-65.699999828059589
 30
0.0
  0
VERTEX
  5
22CF
  8
SAPA_PROFIL
 62
     4
 10
35.199999995410138
 20
-65.699999828059589
 30
0.0
 42
0.4142135623730951
  0
VERTEX
  5
22D0
  8
SAPA_PROFIL
 62
     4
 10
35.499999995409411
 20
-65.399999828060317
 30
0.0
  0
VERTEX
  5
22D1
  8
SAPA_PROFIL
 62
     4
 10
35.499999995409411
 20
-65.177059096357738
 30
0.0
 42
0.2560149538738705
  0
VERTEX
  5
22D2
  8
SAPA_PROFIL
 62
     4
 10
35.361452266148802
 20
-64.924209013752574
 30
0.0
  0
VERTEX
  5
22D3
  8
SAPA_PROFIL
 62
     4
 10
33.661452266148082
 20
-63.647149745455721
 30
0.0
 42
0.592337729603611
  0
VERTEX
  5
22D4
  8
SAPA_PROFIL
 62
     4
 10
33.1999999954065
 20
-63.899999828059968
 30
0.0
  0
VERTEX
  5
22D5
  8
SAPA_PROFIL
 62
     4
 10
33.199999995408319
 20
-64.199999828059589
 30
0.0
 42
-0.4142135623735391
  0
VERTEX
  5
22D6
  8
SAPA_PROFIL
 62
     4
 10
32.899999995409047
 20
-64.499999828059316
 30
0.0
  0
VERTEX
  5
22D7
  8
SAPA_PROFIL
 62
     4
 10
31.29999999540868
 20
-64.499999828059771
 30
0.0
 42
-0.414213562373539
  0
VERTEX
  5
22D8
  8
SAPA_PROFIL
 62
     4
 10
30.999999995409411
 20
-64.199999828059816
 30
0.0
  0
VERTEX
  5
22D9
  8
SAPA_PROFIL
 62
     4
 10
30.999999995413049
 20
-45.999999828059877
 30
0.0
 42
0.414213562373126
  0
VERTEX
  5
22DA
  8
SAPA_PROFIL
 62
     4
 10
30.499999995413049
 20
-45.499999828059877
 30
0.0
  0
VERTEX
  5
22DB
  8
SAPA_PROFIL
 62
     4
 10
11.49999999541123
 20
-45.499999828059877
 30
0.0
 42
0.4142135623730951
  0
SEQEND
  5
22DC
  8
SAPA_PROFIL
 62
     4
  0
POLYLINE
  5
17D3
  8
SAPA_PROFIL
 66
     1
 10
0.0
 20
0.0
 30
0.0
 70
     1
  0
VERTEX
  5
22DD
  8
SAPA_PROFIL
 10
96.499999999825775
 20
0.6060446906867583
 30
0.0
  0
VERTEX
  5
22DE
  8
SAPA_PROFIL
 10
96.499999999825775
 20
0.3635007528396272
 30
0.0
 42
-0.2011813370902256
  0
VERTEX
  5
22DF
  8
SAPA_PROFIL
 10
96.440181852685726
 20
0.2208506630090596
 30
0.0
  0
VERTEX
  5
22E0
  8
SAPA_PROFIL
 10
95.513434493956026
 20
-0.6898614300148438
 30
0.0
  0
VERTEX
  5
22E1
  8
SAPA_PROFIL
 10
93.999999999823956
 20
-0.676653887271641
 30
0.0
 42
0.4931454260356012
  0
VERTEX
  5
22E2
  8
SAPA_PROFIL
 10
92.428735039586115
 20
-0.4558269982239836
 30
0.0
  0
VERTEX
  5
22E3
  8
SAPA_PROFIL
 10
91.361085202761785
 20
-1.505003570836777
 30
0.0
 42
0.6681786379164681
  0
VERTEX
  5
22E4
  8
SAPA_PROFIL
 10
91.502454083215468
 20
-1.8549038283217101
 30
0.0
  0
VERTEX
  5
22E5
  8
SAPA_PROFIL
 10
95.999999999825775
 20
-1.8941533169190159
 30
0.0
  0
VERTEX
  5
22E6
  8
SAPA_PROFIL
 10
98.114092851415478
 20
0.1833599423107444
 30
0.0
 42
-0.2038501166358263
  0
VERTEX
  5
22E7
  8
SAPA_PROFIL
 10
98.478399630833295
 20
0.326542798916762
 30
0.0
  0
VERTEX
  5
22E8
  8
SAPA_PROFIL
 10
113.5831128834277
 20
-0.0920833103721179
 30
0.0
 42
-0.4061212134736873
  0
VERTEX
  5
22E9
  8
SAPA_PROFIL
 10
116.49999999981929
 20
-3.0909317974715691
 30
0.0
  0
VERTEX
  5
22EA
  8
SAPA_PROFIL
 10
116.49999999981929
 20
-14.875123040939631
 30
0.0
 42
-0.4142135623730951
  0
VERTEX
  5
22EB
  8
SAPA_PROFIL
 10
115.99999999981929
 20
-15.375123040939631
 30
0.0
  0
VERTEX
  5
22EC
  8
SAPA_PROFIL
 10
104.41421356219421
 20
-15.375123040939631
 30
0.0
 42
-0.198912367379658
  0
VERTEX
  5
22ED
  8
SAPA_PROFIL
 10
103.7071067810076
 20
-15.08222982212618
 30
0.0
  0
VERTEX
  5
22EE
  8
SAPA_PROFIL
 10
103.32650800761709
 20
-14.70163104873569
 30
0.0
 42
0.1830252782112529
  0
VERTEX
  5
22EF
  8
SAPA_PROFIL
 10
102.0348401988858
 20
-14.119602506988089
 30
0.0
  0
VERTEX
  5
22F0
  8
SAPA_PROFIL
 10
91.601768170079978
 20
-13.39653777965753
 30
0.0
 42
0.668178637923616
  0
VERTEX
  5
22F1
  8
SAPA_PROFIL
 10
91.388385850546399
 20
-13.911688269446531
 30
0.0
  0
VERTEX
  5
22F2
  8
SAPA_PROFIL
 10
93.387867965468956
 20
-15.911170384369081
 30
0.0
 42
0.7332303362588345
  0
VERTEX
  5
22F3
  8
SAPA_PROFIL
 10
93.895442325728638
 20
-15.646943896711891
 30
0.0
  0
VERTEX
  5
22F4
  8
SAPA_PROFIL
 10
93.786858214942583
 20
-15.031132803313479
 30
0.0
 42
-0.4663076581593561
  0
VERTEX
  5
22F5
  8
SAPA_PROFIL
 10
94.082300540846006
 20
-14.679038350013281
 30
0.0
  0
VERTEX
  5
22F6
  8
SAPA_PROFIL
 10
101.8417776661983
 20
-15.41019797189375
 30
0.0
 42
-0.183025278211264
  0
VERTEX
  5
22F7
  8
SAPA_PROFIL
 10
102.487611570564
 20
-15.70121224276755
 30
0.0
  0
VERTEX
  5
22F8
  8
SAPA_PROFIL
 10
102.87573593110891
 20
-16.089336603312571
 30
0.0
 42
0.1989123673796518
  0
VERTEX
  5
22F9
  8
SAPA_PROFIL
 10
104.289949493482
 20
-16.675123040939461
 30
0.0
  0
VERTEX
  5
22FA
  8
SAPA_PROFIL
 10
115.6999999998348
 20
-16.675123040939582
 30
0.0
 42
-0.4142135623732283
  0
VERTEX
  5
22FB
  8
SAPA_PROFIL
 10
116.1999999998348
 20
-17.175123040939809
 30
0.0
  0
VERTEX
  5
22FC
  8
SAPA_PROFIL
 10
116.19999999983381
 20
-18.375123040939169
 30
0.0
 42
0.4142135623732062
  0
VERTEX
  5
22FD
  8
SAPA_PROFIL
 10
116.4999999998338
 20
-18.675123040939241
 30
0.0
  0
VERTEX
  5
22FE
  8
SAPA_PROFIL
 10
117.6999999998193
 20
-18.675123040939582
 30
0.0
 42
0.4142135623716247
  0
VERTEX
  5
22FF
  8
SAPA_PROFIL
 10
117.99999999981929
 20
-18.375123040938259
 30
0.0
  0
VERTEX
  5
2300
  8
SAPA_PROFIL
 10
117.99999999983289
 20
1.601284701383747
 30
0.0
 42
0.4142135623732938
  0
VERTEX
  5
2301
  8
SAPA_PROFIL
 10
117.79999999983291
 20
1.801284701383792
 30
0.0
  0
VERTEX
  5
2302
  8
SAPA_PROFIL
 10
96.204623886147104
 20
1.801284701383792
 30
0.0
 42
0.4210020197690384
  0
VERTEX
  5
2303
  8
SAPA_PROFIL
 10
95.999999999825775
 20
1.6013381593397751
 30
0.0
  0
VERTEX
  5
2304
  8
SAPA_PROFIL
 10
95.999999999819295
 20
1.0133549961442441
 30
0.0
  0
VERTEX
  5
2305
  8
SAPA_PROFIL
 10
96.299999999819306
 20
1.0133549961442441
 30
0.0
 42
-0.41421356237322
  0
VERTEX
  5
2306
  8
SAPA_PROFIL
 10
96.499999999819181
 20
0.8133549961441985
 30
0.0
  0
VERTEX
  5
2307
  8
SAPA_PROFIL
 10
96.499999999819295
 20
0.5961772306745843
 30
0.0
  0
SEQEND
  5
2308
  8
SAPA_PROFIL
  0
CIRCLE
  5
17D4
  8
SAPA_PROFIL
 62
     2
 10
114.6633409272397
 20
-79.309290847032116
 30
0.0
 40
0.8999999999999985
  0
POLYLINE
  5
17D5
  8
SAPA_PROFIL
 62
     2
 66
     1
 10
0.0
 20
0.0
 30
0.0
  0
VERTEX
  5
2309
  8
SAPA_PROFIL
 62
     2
 10
116.06334092723959
 20
-78.00128443545907
 30
0.0
  0
VERTEX
  5
230A
  8
SAPA_PROFIL
 62
     2
 10
115.87098250724721
 20
-79.092203245611813
 30
0.0
  0
VERTEX
  5
230B
  8
SAPA_PROFIL
 62
     2
 10
116.3027790671489
 20
-79.207902785131751
 30
0.0
 42
-0.4430158954262519
  0
VERTEX
  5
230C
  8
SAPA_PROFIL
 62
     2
 10
116.438256114693
 20
-79.471379213238706
 30
0.0
  0
VERTEX
  5
230D
  8
SAPA_PROFIL
 62
     2
 10
115.961307921474
 20
-80.741866961156916
 30
0.0
 42
-0.3125358528825162
  0
VERTEX
  5
230E
  8
SAPA_PROFIL
 62
     2
 10
115.5868262083446
 20
-81.001284435458615
 30
0.0
  0
VERTEX
  5
230F
  8
SAPA_PROFIL
 62
     2
 10
113.71667089243429
 20
-81.00128443545907
 30
0.0
 42
-0.3125358528825104
  0
VERTEX
  5
2310
  8
SAPA_PROFIL
 62
     2
 10
113.3421891793049
 20
-80.741866961156916
 30
0.0
  0
VERTEX
  5
2311
  8
SAPA_PROFIL
 62
     2
 10
112.86524098608569
 20
-79.471379213238706
 30
0.0
 42
-0.4430158954262519
  0
VERTEX
  5
2312
  8
SAPA_PROFIL
 62
     2
 10
113.00071803362979
 20
-79.207902785131864
 30
0.0
  0
VERTEX
  5
2313
  8
SAPA_PROFIL
 62
     2
 10
113.43251459353159
 20
-79.092203245611813
 30
0.0
  0
VERTEX
  5
2314
  8
SAPA_PROFIL
 62
     2
 10
113.2402485503894
 20
-78.00128443545907
 30
0.0
  0
SEQEND
  5
2315
  8
SAPA_PROFIL
 62
     2
  0
POLYLINE
  5
17D6
  8
SAPA_PROFIL
 62
     2
 66
     1
 10
0.0
 20
0.0
 30
0.0
 70
     1
  0
VERTEX
  5
2316
  8
SAPA_PROFIL
 62
     2
 10
116.05174855038931
 20
-78.00128443545907
 30
0.0
 42
0.285714285714282
  0
VERTEX
  5
2317
  8
SAPA_PROFIL
 62
     2
 10
113.25174855038929
 20
-78.00128443545907
 30
0.0
  0
VERTEX
  5
2318
  8
SAPA_PROFIL
 62
     2
 10
111.17796838100151
 20
-78.001284435458615
 30
0.0
 42
-0.3882600129940275
  0
VERTEX
  5
2319
  8
SAPA_PROFIL
 62
     2
 10
110.8791668836601
 20
-77.728073709179057
 30
0.0
  0
VERTEX
  5
231A
  8
SAPA_PROFIL
 62
     2
 10
110.41295695973361
 20
-73.828073709178966
 30
0.0
 42
-0.4406523138893894
  0
VERTEX
  5
231B
  8
SAPA_PROFIL
 62
     2
 10
110.7117584570754
 20
-73.50128443545907
 30
0.0
  0
VERTEX
  5
231C
  8
SAPA_PROFIL
 62
     2
 10
112.42155045399581
 20
-73.50128443545907
 30
0.0
 42
-0.3394542588634375
  0
VERTEX
  5
231D
  8
SAPA_PROFIL
 62
     2
 10
112.7113282018823
 20
-73.723638721928054
 30
0.0
  0
VERTEX
  5
231E
  8
SAPA_PROFIL
 62
     2
 10
112.9137079298137
 20
-73.941224504095644
 30
0.0
 42
0.3394542588633663
  0
VERTEX
  5
231F
  8
SAPA_PROFIL
 62
     2
 10
113.2034856777005
 20
-74.163578790564657
 30
0.0
  0
VERTEX
  5
2320
  8
SAPA_PROFIL
 62
     2
 10
116.1000114230784
 20
-74.163578790564657
 30
0.0
 42
0.3394542588634373
  0
VERTEX
  5
2321
  8
SAPA_PROFIL
 62
     2
 10
116.3897891709649
 20
-73.941224504095644
 30
0.0
  0
VERTEX
  5
2322
  8
SAPA_PROFIL
 62
     2
 10
116.5921688988964
 20
-73.723638721928054
 30
0.0
 42
-0.3394542588633662
  0
VERTEX
  5
2323
  8
SAPA_PROFIL
 62
     2
 10
116.88194664678311
 20
-73.50128443545907
 30
0.0
  0
VERTEX
  5
2324
  8
SAPA_PROFIL
 62
     2
 10
118.5917386437032
 20
-73.50128443545907
 30
0.0
 42
-0.4406523138893994
  0
VERTEX
  5
2325
  8
SAPA_PROFIL
 62
     2
 10
118.8905401410448
 20
-73.828073709178966
 30
0.0
  0
VERTEX
  5
2326
  8
SAPA_PROFIL
 62
     2
 10
118.42433021711859
 20
-77.728073709179057
 30
0.0
 42
-0.3882600129940462
  0
VERTEX
  5
2327
  8
SAPA_PROFIL
 62
     2
 10
118.12552871977719
 20
-78.00128443545907
 30
0.0
  0
VERTEX
  5
2328
  8
SAPA_PROFIL
 62
     2
 10
116.06334092723959
 20
-78.00128443545907
 30
0.0
  0
SEQEND
  5
2329
  8
SAPA_PROFIL
 62
     2
  0
POLYLINE
  5
17D7
  8
SAPA_PROFIL
 66
     1
 10
0.0
 20
0.0
 30
0.0
 70
     1
  0
VERTEX
  5
232A
  8
SAPA_PROFIL
 10
70.488496764489611
 20
-21.228798409927691
 30
0.0
  0
VERTEX
  5
232B
  8
SAPA_PROFIL
 10
70.640630675598388
 20
-20.944116126696041
 30
0.0
 42
0.5773502691897463
  0
VERTEX
  5
232C
  8
SAPA_PROFIL
 10
70.457676935488195
 20
-20.649959826441229
 30
0.0
  0
VERTEX
  5
232D
  8
SAPA_PROFIL
 10
70.135919207269936
 20
-20.660521192668199
 30
0.0
  0
VERTEX
  5
232E
  8
SAPA_PROFIL
 10
69.05135476029821
 20
-18.77467750080714
 30
0.0
  0
VERTEX
  5
232F
  8
SAPA_PROFIL
 10
68.993281123309131
 20
-18.58329450081342
 30
0.0
 42
-0.7625858545243257
  0
VERTEX
  5
2330
  8
SAPA_PROFIL
 10
69.323607204326123
 20
-18.398715298615951
 30
0.0
 42
0.2134217652834389
  0
VERTEX
  5
2331
  8
SAPA_PROFIL
 10
69.547214002076245
 20
-18.498715298616069
 30
0.0
  0
VERTEX
  5
2332
  8
SAPA_PROFIL
 10
73.400000002076226
 20
-18.498715298616069
 30
0.0
 42
-0.4142139999998963
  0
VERTEX
  5
2333
  8
SAPA_PROFIL
 10
73.700000002076237
 20
-18.798715298616109
 30
0.0
  0
VERTEX
  5
2334
  8
SAPA_PROFIL
 10
73.700000002076237
 20
-19.098715298616071
 30
0.0
  0
VERTEX
  5
2335
  8
SAPA_PROFIL
 10
72.776240002076193
 20
-20.698715298616051
 30
0.0
 42
0.5773500000002674
  0
VERTEX
  5
2336
  8
SAPA_PROFIL
 10
72.949445002076274
 20
-20.998715298616101
 30
0.0
  0
VERTEX
  5
2337
  8
SAPA_PROFIL
 10
74.335086002076224
 20
-20.998715298616101
 30
0.0
 42
0.267949000000023
  0
VERTEX
  5
2338
  8
SAPA_PROFIL
 10
75.201111002076274
 20
-20.498715298616109
 30
0.0
  0
VERTEX
  5
2339
  8
SAPA_PROFIL
 10
76.211474002076244
 20
-18.748715298616069
 30
0.0
 42
-0.2679489999999919
  0
VERTEX
  5
233A
  8
SAPA_PROFIL
 10
76.644487002076275
 20
-18.498715298616069
 30
0.0
  0
VERTEX
  5
233B
  8
SAPA_PROFIL
 10
86.655514002076245
 20
-18.498715298616069
 30
0.0
 42
-0.2679490000000193
  0
VERTEX
  5
233C
  8
SAPA_PROFIL
 10
87.088527002076276
 20
-18.748715298616069
 30
0.0
  0
VERTEX
  5
233D
  8
SAPA_PROFIL
 10
88.098890002076246
 20
-20.49871529861608
 30
0.0
 42
0.2679490000000211
  0
VERTEX
  5
233E
  8
SAPA_PROFIL
 10
88.964915002076296
 20
-20.998715298616101
 30
0.0
  0
VERTEX
  5
233F
  8
SAPA_PROFIL
 10
90.350556002076246
 20
-20.998715298616101
 30
0.0
 42
0.5773499999999721
  0
VERTEX
  5
2340
  8
SAPA_PROFIL
 10
90.523761002076242
 20
-20.69871529861609
 30
0.0
  0
VERTEX
  5
2341
  8
SAPA_PROFIL
 10
89.600000002076285
 20
-19.09871529861606
 30
0.0
  0
VERTEX
  5
2342
  8
SAPA_PROFIL
 10
89.600000002076285
 20
-18.798715298616109
 30
0.0
 42
-0.4142139999999657
  0
VERTEX
  5
2343
  8
SAPA_PROFIL
 10
89.90000000207624
 20
-18.498715298616069
 30
0.0
  0
VERTEX
  5
2344
  8
SAPA_PROFIL
 10
93.752787002076275
 20
-18.49871529861618
 30
0.0
 42
0.2134217652834387
  0
VERTEX
  5
2345
  8
SAPA_PROFIL
 10
93.976393799826397
 20
-18.39871529861605
 30
0.0
 42
-0.7625858545243244
  0
VERTEX
  5
2346
  8
SAPA_PROFIL
 10
94.306719880843389
 20
-18.58329450081353
 30
0.0
  0
VERTEX
  5
2347
  8
SAPA_PROFIL
 10
94.248646243854296
 20
-18.77467750080725
 30
0.0
  0
VERTEX
  5
2348
  8
SAPA_PROFIL
 10
93.164081796882556
 20
-20.660521192668309
 30
0.0
  0
VERTEX
  5
2349
  8
SAPA_PROFIL
 10
92.842324068664269
 20
-20.649959826441322
 30
0.0
 42
0.5773502691897466
  0
VERTEX
  5
234A
  8
SAPA_PROFIL
 10
92.659370328554132
 20
-20.944116126696169
 30
0.0
  0
VERTEX
  5
234B
  8
SAPA_PROFIL
 10
92.811504239662895
 20
-21.22879840992783
 30
0.0
 42
0.2216946626430191
  0
VERTEX
  5
234C
  8
SAPA_PROFIL
 10
93.352384071139667
 20
-21.634607315082601
 30
0.0
  0
VERTEX
  5
234D
  8
SAPA_PROFIL
 10
95.165614541797936
 20
-22.01605391121031
 30
0.0
 42
0.4769755326981641
  0
VERTEX
  5
234E
  8
SAPA_PROFIL
 10
95.537271416743806
 20
-21.71380108670385
 30
0.0
  0
VERTEX
  5
234F
  8
SAPA_PROFIL
 10
95.537187808860153
 20
-20.210700005941838
 30
0.0
  0
VERTEX
  5
2350
  8
SAPA_PROFIL
 10
95.489342058861666
 20
-20.196181596694739
 30
0.0
 42
-0.4142135623730953
  0
VERTEX
  5
2351
  8
SAPA_PROFIL
 10
95.28937801435427
 20
-19.82199664121892
 30
0.0
  0
VERTEX
  5
2352
  8
SAPA_PROFIL
 10
95.800000002076274
 20
-18.500881223784749
 30
0.0
  0
VERTEX
  5
2353
  8
SAPA_PROFIL
 10
95.800000002076274
 20
-18.498715298616069
 30
0.0
  0
VERTEX
  5
2354
  8
SAPA_PROFIL
 10
95.800000002076246
 20
-15.506230298616069
 30
0.0
 42
0.2596809999999277
  0
VERTEX
  5
2355
  8
SAPA_PROFIL
 10
95.705307002076239
 20
-15.336199298616091
 30
0.0
  0
VERTEX
  5
2356
  8
SAPA_PROFIL
 10
94.45796100207626
 20
-14.543668298616071
 30
0.0
 42
0.5877030000000004
  0
VERTEX
  5
2357
  8
SAPA_PROFIL
 10
94.000000002076234
 20
-14.798715298616109
 30
0.0
  0
VERTEX
  5
2358
  8
SAPA_PROFIL
 10
94.000000002076263
 20
-16.198715298616079
 30
0.0
 42
-0.4142135623731089
  0
VERTEX
  5
2359
  8
SAPA_PROFIL
 10
93.700000002076251
 20
-16.498715298616069
 30
0.0
  0
VERTEX
  5
235A
  8
SAPA_PROFIL
 10
91.300000002076274
 20
-16.498715298616069
 30
0.0
 42
-0.4142135623731088
  0
VERTEX
  5
235B
  8
SAPA_PROFIL
 10
91.000000002076277
 20
-16.19871529861609
 30
0.0
  0
VERTEX
  5
235C
  8
SAPA_PROFIL
 10
91.000000002076249
 20
-10.39871529861613
 30
0.0
  0
VERTEX
  5
235D
  8
SAPA_PROFIL
 10
91.000000002076249
 20
-8.3987152986161355
 30
0.0
  0
VERTEX
  5
235E
  8
SAPA_PROFIL
 10
91.000000002076249
 20
1.2012847013838961
 30
0.0
 42
-0.4142139999999172
  0
VERTEX
  5
235F
  8
SAPA_PROFIL
 10
91.30000000207626
 20
1.501284701383893
 30
0.0
  0
VERTEX
  5
2360
  8
SAPA_PROFIL
 10
93.700000002076223
 20
1.501284701383893
 30
0.0
 42
-0.4142139999999103
  0
VERTEX
  5
2361
  8
SAPA_PROFIL
 10
94.000000002076234
 20
1.2012847013838961
 30
0.0
  0
VERTEX
  5
2362
  8
SAPA_PROFIL
 10
94.000000002076234
 20
-0.1987152986160883
 30
0.0
 42
0.5877030000000132
  0
VERTEX
  5
2363
  8
SAPA_PROFIL
 10
94.45796100207626
 20
-0.4537612986160884
 30
0.0
  0
VERTEX
  5
2364
  8
SAPA_PROFIL
 10
95.905307002076199
 20
0.4426377013839212
 30
0.0
 42
0.259681000000005
  0
VERTEX
  5
2365
  8
SAPA_PROFIL
 10
96.000000002076249
 20
0.6126687013838801
 30
0.0
  0
VERTEX
  5
2366
  8
SAPA_PROFIL
 10
96.00000000207622
 20
3.2333357013839268
 30
0.0
 42
0.1316520000000017
  0
VERTEX
  5
2367
  8
SAPA_PROFIL
 10
95.866026002076225
 20
3.7333357013839339
 30
0.0
  0
VERTEX
  5
2368
  8
SAPA_PROFIL
 10
91.381198002076246
 20
11.501284701383931
 30
0.0
 42
0.267948999999994
  0
VERTEX
  5
2369
  8
SAPA_PROFIL
 10
88.78312200207624
 20
13.00128470138392
 30
0.0
  0
VERTEX
  5
236A
  8
SAPA_PROFIL
 10
50.500000002076227
 20
13.00128470138389
 30
0.0
 42
0.4142140000000114
  0
VERTEX
  5
236B
  8
SAPA_PROFIL
 10
47.500000002076227
 20
10.001284701383909
 30
0.0
  0
VERTEX
  5
236C
  8
SAPA_PROFIL
 10
47.500000002076149
 20
9.5012847013839163
 30
0.0
 42
0.4241420000000259
  0
VERTEX
  5
236D
  8
SAPA_PROFIL
 10
48.533773002076252
 20
8.5018557013839455
 30
0.0
 42
0.2988660000000032
  0
VERTEX
  5
236E
  8
SAPA_PROFIL
 10
49.471053002076189
 20
9.0727137013839396
 30
0.0
 42
0.55075999999996
  0
VERTEX
  5
236F
  8
SAPA_PROFIL
 10
49.200000002076237
 20
9.5012847013839163
 30
0.0
  0
VERTEX
  5
2370
  8
SAPA_PROFIL
 10
48.900000002076219
 20
9.5012847013839163
 30
0.0
 42
-0.4142139999998339
  0
VERTEX
  5
2371
  8
SAPA_PROFIL
 10
48.700000002076237
 20
9.7012847013838908
 30
0.0
  0
VERTEX
  5
2372
  8
SAPA_PROFIL
 10
48.700000002076237
 20
10.00128470138392
 30
0.0
 42
-0.4142139999999946
  0
VERTEX
  5
2373
  8
SAPA_PROFIL
 10
50.500000002076227
 20
11.801284701383921
 30
0.0
  0
VERTEX
  5
2374
  8
SAPA_PROFIL
 10
51.200000002076237
 20
11.801284701383921
 30
0.0
 42
-0.4142139999999852
  0
VERTEX
  5
2375
  8
SAPA_PROFIL
 10
53.000000002076227
 20
10.001284701383909
 30
0.0
  0
VERTEX
  5
2376
  8
SAPA_PROFIL
 10
53.000000002076227
 20
9.7012847013838908
 30
0.0
 42
-0.4142139999998025
  0
VERTEX
  5
2377
  8
SAPA_PROFIL
 10
52.800000002076253
 20
9.5012847013839163
 30
0.0
  0
VERTEX
  5
2378
  8
SAPA_PROFIL
 10
52.500000002076241
 20
9.5012847013839021
 30
0.0
 42
0.5507599999999105
  0
VERTEX
  5
2379
  8
SAPA_PROFIL
 10
52.22894800207618
 20
9.0727137013838899
 30
0.0
 42
0.2988660000000063
  0
VERTEX
  5
237A
  8
SAPA_PROFIL
 10
53.166228002076217
 20
8.5018557013838603
 30
0.0
 42
0.4241419999999882
  0
VERTEX
  5
237B
  8
SAPA_PROFIL
 10
54.200000002076237
 20
9.5012847013839163
 30
0.0
  0
VERTEX
  5
237C
  8
SAPA_PROFIL
 10
54.200000002076237
 20
10.801284701383921
 30
0.0
 42
-0.4142140000000128
  0
VERTEX
  5
237D
  8
SAPA_PROFIL
 10
55.20000000207623
 20
11.801284701383921
 30
0.0
  0
VERTEX
  5
237E
  8
SAPA_PROFIL
 10
69.027929002076277
 20
11.027694701383901
 30
0.0
 42
-0.3979379999999925
  0
VERTEX
  5
237F
  8
SAPA_PROFIL
 10
69.500000002076249
 20
10.52847570138392
 30
0.0
  0
VERTEX
  5
2380
  8
SAPA_PROFIL
 10
69.500000002076249
 20
6.001284701383919
 30
0.0
 42
-0.4142140000000251
  0
VERTEX
  5
2381
  8
SAPA_PROFIL
 10
69.000000002076249
 20
5.501284701383919
 30
0.0
  0
VERTEX
  5
2382
  8
SAPA_PROFIL
 10
65.500000002076234
 20
5.5012847013839181
 30
0.0
 42
0.4142140000000128
  0
VERTEX
  5
2383
  8
SAPA_PROFIL
 10
65.000000002076249
 20
5.0012847013839181
 30
0.0
  0
VERTEX
  5
2384
  8
SAPA_PROFIL
 10
65.000000002076234
 20
1.3012847013839011
 30
0.0
 42
0.4142139999999104
  0
VERTEX
  5
2385
  8
SAPA_PROFIL
 10
65.30000000207626
 20
1.0012847013838959
 30
0.0
  0
VERTEX
  5
2386
  8
SAPA_PROFIL
 10
66.200000002076237
 20
1.0012847013838959
 30
0.0
 42
0.4142139999999101
  0
VERTEX
  5
2387
  8
SAPA_PROFIL
 10
66.500000002076249
 20
1.3012847013839011
 30
0.0
  0
VERTEX
  5
2388
  8
SAPA_PROFIL
 10
66.500000002076249
 20
3.301284701383929
 30
0.0
 42
-0.4142139999999691
  0
VERTEX
  5
2389
  8
SAPA_PROFIL
 10
66.700000002076237
 20
3.5012847013839181
 30
0.0
  0
VERTEX
  5
238A
  8
SAPA_PROFIL
 10
69.500000002076249
 20
3.501284701383919
 30
0.0
 42
-0.577350269189605
  0
VERTEX
  5
238B
  8
SAPA_PROFIL
 10
69.673205082833121
 20
3.2012847013839152
 30
0.0
  0
VERTEX
  5
238C
  8
SAPA_PROFIL
 10
69.500000002076249
 20
2.9012847013839109
 30
0.0
  0
VERTEX
  5
238D
  8
SAPA_PROFIL
 10
69.500000002076192
 20
-0.8937152986161117
 30
0.0
 42
0.414213999999992
  0
VERTEX
  5
238E
  8
SAPA_PROFIL
 10
70.000000002076249
 20
-1.393715298616111
 30
0.0
  0
VERTEX
  5
238F
  8
SAPA_PROFIL
 10
70.700000002076237
 20
-1.393715298616111
 30
0.0
 42
-0.4142139999998548
  0
VERTEX
  5
2390
  8
SAPA_PROFIL
 10
71.000000002076249
 20
-1.6937152986160591
 30
0.0
  0
VERTEX
  5
2391
  8
SAPA_PROFIL
 10
71.000000002076249
 20
-6.8740992986160689
 30
0.0
  0
VERTEX
  5
2392
  8
SAPA_PROFIL
 10
71.30000000207626
 20
-7.3937152986161108
 30
0.0
  0
VERTEX
  5
2393
  8
SAPA_PROFIL
 10
71.000000002076249
 20
-7.9133302986160841
 30
0.0
  0
VERTEX
  5
2394
  8
SAPA_PROFIL
 10
71.000000002076249
 20
-13.0937152986161
 30
0.0
 42
-0.4142140000000351
  0
VERTEX
  5
2395
  8
SAPA_PROFIL
 10
70.700000002076237
 20
-13.39371529861611
 30
0.0
  0
VERTEX
  5
2396
  8
SAPA_PROFIL
 10
70.000000002076249
 20
-13.393715298616049
 30
0.0
 42
0.4142140000000461
  0
VERTEX
  5
2397
  8
SAPA_PROFIL
 10
69.500000002076249
 20
-13.89371529861611
 30
0.0
  0
VERTEX
  5
2398
  8
SAPA_PROFIL
 10
69.500000002076249
 20
-15.898715298616111
 30
0.0
  0
VERTEX
  5
2399
  8
SAPA_PROFIL
 10
69.673205082833121
 20
-16.19871529861609
 30
0.0
 42
-0.5773502691896303
  0
VERTEX
  5
239A
  8
SAPA_PROFIL
 10
69.500000002076249
 20
-16.498715298616069
 30
0.0
  0
VERTEX
  5
239B
  8
SAPA_PROFIL
 10
66.700000002076237
 20
-16.498715298616069
 30
0.0
 42
-0.414213999999813
  0
VERTEX
  5
239C
  8
SAPA_PROFIL
 10
66.500000002076249
 20
-16.298715298616109
 30
0.0
  0
VERTEX
  5
239D
  8
SAPA_PROFIL
 10
66.500000002076277
 20
-14.298715298616109
 30
0.0
 42
0.4142139999998962
  0
VERTEX
  5
239E
  8
SAPA_PROFIL
 10
66.200000002076237
 20
-13.998715298616069
 30
0.0
  0
VERTEX
  5
239F
  8
SAPA_PROFIL
 10
65.30000000207626
 20
-13.99871529861611
 30
0.0
 42
0.4142139999999103
  0
VERTEX
  5
23A0
  8
SAPA_PROFIL
 10
65.000000002076249
 20
-14.298715298616109
 30
0.0
  0
VERTEX
  5
23A1
  8
SAPA_PROFIL
 10
65.000000002076263
 20
-17.998715298616069
 30
0.0
 42
0.414214000000021
  0
VERTEX
  5
23A2
  8
SAPA_PROFIL
 10
65.500000002076234
 20
-18.498715298616069
 30
0.0
  0
VERTEX
  5
23A3
  8
SAPA_PROFIL
 10
67.200000002076223
 20
-18.498715298616069
 30
0.0
 42
-0.4142135623730951
  0
VERTEX
  5
23A4
  8
SAPA_PROFIL
 10
67.500000002076249
 20
-18.798715298616081
 30
0.0
  0
VERTEX
  5
23A5
  8
SAPA_PROFIL
 10
68.010622989798236
 20
-19.821996641218821
 30
0.0
 42
-0.4142135623730953
  0
VERTEX
  5
23A6
  8
SAPA_PROFIL
 10
67.810658945290839
 20
-20.196181596694629
 30
0.0
  0
VERTEX
  5
23A7
  8
SAPA_PROFIL
 10
67.762813195292352
 20
-20.210700005941732
 30
0.0
  0
VERTEX
  5
23A8
  8
SAPA_PROFIL
 10
67.762729587408714
 20
-21.713801086703739
 30
0.0
 42
0.4769755326981643
  0
VERTEX
  5
23A9
  8
SAPA_PROFIL
 10
68.13438646235457
 20
-22.016053911210211
 30
0.0
  0
VERTEX
  5
23AA
  8
SAPA_PROFIL
 10
69.947616933012824
 20
-21.634607315082508
 30
0.0
 42
0.2216946626430193
  0
SEQEND
  5
23AB
  8
SAPA_PROFIL
  0
POLYLINE
  5
17D8
  8
SAPA_PROFIL
 66
     1
 10
0.0
 20
0.0
 30
0.0
 70
     1
  0
VERTEX
  5
23AC
  8
SAPA_PROFIL
 10
87.400000002076226
 20
1.801284701383904
 30
0.0
  0
VERTEX
  5
23AD
  8
SAPA_PROFIL
 10
89.000000002076234
 20
1.801284701383904
 30
0.0
 42
-0.414214000000042
  0
VERTEX
  5
23AE
  8
SAPA_PROFIL
 10
89.300000002076246
 20
1.501284701383893
 30
0.0
  0
VERTEX
  5
23AF
  8
SAPA_PROFIL
 10
89.300000002076274
 20
-16.498715298616069
 30
0.0
 42
-0.4142140000001599
  0
VERTEX
  5
23B0
  8
SAPA_PROFIL
 10
89.000000002076263
 20
-16.798715298616109
 30
0.0
  0
VERTEX
  5
23B1
  8
SAPA_PROFIL
 10
87.40000000207624
 20
-16.798715298616109
 30
0.0
 42
-0.4142140000000628
  0
VERTEX
  5
23B2
  8
SAPA_PROFIL
 10
87.200000002076237
 20
-16.598715298616082
 30
0.0
  0
VERTEX
  5
23B3
  8
SAPA_PROFIL
 10
87.200000002076237
 20
-16.498715298616069
 30
0.0
 42
0.4142139999998963
  0
VERTEX
  5
23B4
  8
SAPA_PROFIL
 10
86.900000002076226
 20
-16.19871529861609
 30
0.0
  0
VERTEX
  5
23B5
  8
SAPA_PROFIL
 10
85.500000002076263
 20
-16.19871529861615
 30
0.0
 42
0.4142139999999518
  0
VERTEX
  5
23B6
  8
SAPA_PROFIL
 10
85.200000002076251
 20
-16.498715298616069
 30
0.0
  0
VERTEX
  5
23B7
  8
SAPA_PROFIL
 10
85.200000002076251
 20
-16.598715298616082
 30
0.0
 42
-0.4142139999999794
  0
VERTEX
  5
23B8
  8
SAPA_PROFIL
 10
85.000000002076249
 20
-16.798715298616109
 30
0.0
  0
VERTEX
  5
23B9
  8
SAPA_PROFIL
 10
72.000000002076249
 20
-16.798715298616109
 30
0.0
 42
-0.4142139999999962
  0
VERTEX
  5
23BA
  8
SAPA_PROFIL
 10
71.500000002076249
 20
-16.298715298616109
 30
0.0
  0
VERTEX
  5
23BB
  8
SAPA_PROFIL
 10
71.500000002076249
 20
-15.5937152986161
 30
0.0
 42
-0.4142140000000128
  0
VERTEX
  5
23BC
  8
SAPA_PROFIL
 10
72.000000002076249
 20
-15.0937152986161
 30
0.0
  0
VERTEX
  5
23BD
  8
SAPA_PROFIL
 10
72.200000002076223
 20
-15.0937152986161
 30
0.0
 42
0.4142140000000127
  0
VERTEX
  5
23BE
  8
SAPA_PROFIL
 10
72.700000002076223
 20
-14.5937152986161
 30
0.0
  0
VERTEX
  5
23BF
  8
SAPA_PROFIL
 10
72.700000002076294
 20
-0.1937152986160662
 30
0.0
 42
0.4142139999999795
  0
VERTEX
  5
23C0
  8
SAPA_PROFIL
 10
72.200000002076223
 20
0.3062847013839409
 30
0.0
  0
VERTEX
  5
23C1
  8
SAPA_PROFIL
 10
71.500000002076249
 20
0.3062847013839409
 30
0.0
 42
-0.4142140000000462
  0
VERTEX
  5
23C2
  8
SAPA_PROFIL
 10
71.000000002076249
 20
0.8062847013839409
 30
0.0
  0
VERTEX
  5
23C3
  8
SAPA_PROFIL
 10
71.000000002076249
 20
10.50128470138392
 30
0.0
 42
-0.4142140000000128
  0
VERTEX
  5
23C4
  8
SAPA_PROFIL
 10
71.500000002076249
 20
11.00128470138392
 30
0.0
  0
VERTEX
  5
23C5
  8
SAPA_PROFIL
 10
88.78312200207624
 20
11.00128470138392
 30
0.0
 42
-0.2679490000000162
  0
VERTEX
  5
23C6
  8
SAPA_PROFIL
 10
89.649147002076276
 20
10.50128470138392
 30
0.0
  0
VERTEX
  5
23C7
  8
SAPA_PROFIL
 10
93.546262002076261
 20
3.7512847013839208
 30
0.0
 42
-0.5773500000000551
  0
VERTEX
  5
23C8
  8
SAPA_PROFIL
 10
93.286454002076255
 20
3.301284701383933
 30
0.0
  0
VERTEX
  5
23C9
  8
SAPA_PROFIL
 10
86.700000002076237
 20
3.3012847013839108
 30
0.0
 42
0.4142140000000155
  0
VERTEX
  5
23CA
  8
SAPA_PROFIL
 10
85.200000002076223
 20
1.801284701383904
 30
0.0
  0
VERTEX
  5
23CB
  8
SAPA_PROFIL
 10
85.200000002076223
 20
1.6012847013838729
 30
0.0
  0
VERTEX
  5
23CC
  8
SAPA_PROFIL
 10
85.200000002076294
 20
1.501284701383893
 30
0.0
 42
0.4142140000000836
  0
VERTEX
  5
23CD
  8
SAPA_PROFIL
 10
85.500000002076234
 20
1.2012847013838961
 30
0.0
  0
VERTEX
  5
23CE
  8
SAPA_PROFIL
 10
86.900000002076226
 20
1.2012847013837611
 30
0.0
 42
0.4142140000000351
  0
VERTEX
  5
23CF
  8
SAPA_PROFIL
 10
87.200000002076237
 20
1.501284701383893
 30
0.0
  0
VERTEX
  5
23D0
  8
SAPA_PROFIL
 10
87.200000002076237
 20
1.6012847013838729
 30
0.0
 42
-0.4142139999998962
  0
SEQEND
  5
23D1
  8
SAPA_PROFIL
  0
POLYLINE
  5
17D9
  8
SAPA_PROFIL
 66
     1
 10
0.0
 20
0.0
 30
0.0
 70
     1
  0
VERTEX
  5
23D2
  8
SAPA_PROFIL
 10
93.976394002078365
 20
-60.598715298616177
 30
0.0
 42
0.2134220000000103
  0
VERTEX
  5
23D3
  8
SAPA_PROFIL
 10
93.752787002078406
 20
-60.498715298616162
 30
0.0
  0
VERTEX
  5
23D4
  8
SAPA_PROFIL
 10
89.900000002078372
 20
-60.498715298616162
 30
0.0
 42
-0.414213999999924
  0
VERTEX
  5
23D5
  8
SAPA_PROFIL
 10
89.600000002078303
 20
-60.198715298616207
 30
0.0
  0
VERTEX
  5
23D6
  8
SAPA_PROFIL
 10
89.60000000207836
 20
-59.898715298616203
 30
0.0
  0
VERTEX
  5
23D7
  8
SAPA_PROFIL
 10
90.523761002078373
 20
-58.298715298616173
 30
0.0
 42
0.5773500000001196
  0
VERTEX
  5
23D8
  8
SAPA_PROFIL
 10
90.350556002078378
 20
-57.998715298616162
 30
0.0
  0
VERTEX
  5
23D9
  8
SAPA_PROFIL
 10
88.964915002078357
 20
-57.998715298616162
 30
0.0
 42
0.2679489999999719
  0
VERTEX
  5
23DA
  8
SAPA_PROFIL
 10
88.098890002078363
 20
-58.498715298616162
 30
0.0
  0
VERTEX
  5
23DB
  8
SAPA_PROFIL
 10
87.088527002078393
 20
-60.248715298616162
 30
0.0
 42
-0.267949000000012
  0
VERTEX
  5
23DC
  8
SAPA_PROFIL
 10
86.655514002078377
 20
-60.498715298616283
 30
0.0
  0
VERTEX
  5
23DD
  8
SAPA_PROFIL
 10
76.644487002078364
 20
-60.498715298616169
 30
0.0
 42
-0.2679490000000104
  0
VERTEX
  5
23DE
  8
SAPA_PROFIL
 10
76.211474002078432
 20
-60.248715298616141
 30
0.0
  0
VERTEX
  5
23DF
  8
SAPA_PROFIL
 10
75.201111002078363
 20
-58.498715298616162
 30
0.0
 42
0.2679489999999809
  0
VERTEX
  5
23E0
  8
SAPA_PROFIL
 10
74.335086002078384
 20
-57.998715298616162
 30
0.0
  0
VERTEX
  5
23E1
  8
SAPA_PROFIL
 10
72.949445002078363
 20
-57.998715298616162
 30
0.0
 42
0.5773500000001198
  0
VERTEX
  5
23E2
  8
SAPA_PROFIL
 10
72.776240002078353
 20
-58.298715298616173
 30
0.0
  0
VERTEX
  5
23E3
  8
SAPA_PROFIL
 10
73.700000002078383
 20
-59.898715298616203
 30
0.0
  0
VERTEX
  5
23E4
  8
SAPA_PROFIL
 10
73.700000002078383
 20
-60.198715298616207
 30
0.0
 42
-0.4142139999999795
  0
VERTEX
  5
23E5
  8
SAPA_PROFIL
 10
73.400000002078372
 20
-60.498715298616041
 30
0.0
  0
VERTEX
  5
23E6
  8
SAPA_PROFIL
 10
69.547214002078391
 20
-60.498715298616169
 30
0.0
 42
0.2134217652834391
  0
VERTEX
  5
23E7
  8
SAPA_PROFIL
 10
69.323607204328283
 20
-60.598715298616291
 30
0.0
 42
-0.7625858545243247
  0
VERTEX
  5
23E8
  8
SAPA_PROFIL
 10
68.993281123311277
 20
-60.414136096418822
 30
0.0
  0
VERTEX
  5
23E9
  8
SAPA_PROFIL
 10
69.05135476030037
 20
-60.222753096425087
 30
0.0
  0
VERTEX
  5
23EA
  8
SAPA_PROFIL
 10
70.13591920727211
 20
-58.33690940456404
 30
0.0
  0
VERTEX
  5
23EB
  8
SAPA_PROFIL
 10
70.457676935490355
 20
-58.34747077079102
 30
0.0
 42
0.5773502691897466
  0
VERTEX
  5
23EC
  8
SAPA_PROFIL
 10
70.640630675600534
 20
-58.053314470536172
 30
0.0
  0
VERTEX
  5
23ED
  8
SAPA_PROFIL
 10
70.488496764491771
 20
-57.768632187304533
 30
0.0
 42
0.2216946626430194
  0
VERTEX
  5
23EE
  8
SAPA_PROFIL
 10
69.947616933014984
 20
-57.362823282149748
 30
0.0
  0
VERTEX
  5
23EF
  8
SAPA_PROFIL
 10
68.13438646235673
 20
-56.981376686022031
 30
0.0
 42
0.4769755326981641
  0
VERTEX
  5
23F0
  8
SAPA_PROFIL
 10
67.76272958741086
 20
-57.283629510528499
 30
0.0
  0
VERTEX
  5
23F1
  8
SAPA_PROFIL
 10
67.762813195294513
 20
-58.786730591290507
 30
0.0
  0
VERTEX
  5
23F2
  8
SAPA_PROFIL
 10
67.810658945293
 20
-58.801249000537609
 30
0.0
 42
-0.4142135623730951
  0
VERTEX
  5
23F3
  8
SAPA_PROFIL
 10
68.010622989800396
 20
-59.175433956013421
 30
0.0
  0
VERTEX
  5
23F4
  8
SAPA_PROFIL
 10
67.500000002078451
 20
-60.496551960714427
 30
0.0
  0
VERTEX
  5
23F5
  8
SAPA_PROFIL
 10
67.500000002078394
 20
-61.736611298616197
 30
0.0
 42
0.2914730000000021
  0
VERTEX
  5
23F6
  8
SAPA_PROFIL
 10
68.077382002078394
 20
-62.642919298616171
 30
0.0
  0
VERTEX
  5
23F7
  8
SAPA_PROFIL
 10
70.569522002078401
 20
-63.80502329861617
 30
0.0
 42
0.3888789999999682
  0
VERTEX
  5
23F8
  8
SAPA_PROFIL
 10
71.858166002078377
 20
-63.398715298616189
 30
0.0
  0
VERTEX
  5
23F9
  8
SAPA_PROFIL
 10
71.944769002078402
 20
-63.248715298616162
 30
0.0
 42
-0.2679490000000116
  0
VERTEX
  5
23FA
  8
SAPA_PROFIL
 10
72.377781002078365
 20
-62.998715298616112
 30
0.0
  0
VERTEX
  5
23FB
  8
SAPA_PROFIL
 10
80.500000002078394
 20
-62.998715298616162
 30
0.0
 42
-0.4142139999999962
  0
VERTEX
  5
23FC
  8
SAPA_PROFIL
 10
81.500000002078437
 20
-63.998715298616162
 30
0.0
  0
VERTEX
  5
23FD
  8
SAPA_PROFIL
 10
81.500000002078394
 20
-65.348715298616185
 30
0.0
 42
-0.4142140000000128
  0
VERTEX
  5
23FE
  8
SAPA_PROFIL
 10
81.000000002078394
 20
-65.848715298616185
 30
0.0
  0
VERTEX
  5
23FF
  8
SAPA_PROFIL
 10
77.867767783264952
 20
-65.848715298616185
 30
0.0
 42
0.198912367379658
  0
VERTEX
  5
2400
  8
SAPA_PROFIL
 10
76.453554220891846
 20
-66.434501736243092
 30
0.0
  0
VERTEX
  5
2401
  8
SAPA_PROFIL
 10
73.720260605847301
 20
-69.167795351287651
 30
0.0
 42
1.000556671980007
  0
VERTEX
  5
2402
  8
SAPA_PROFIL
 10
74.780331002078384
 20
-70.229045298616185
 30
0.0
  0
VERTEX
  5
2403
  8
SAPA_PROFIL
 10
77.414214002078396
 20
-67.595162298616174
 30
0.0
 42
-0.1989120000000246
  0
VERTEX
  5
2404
  8
SAPA_PROFIL
 10
77.767767002078386
 20
-67.44871529861615
 30
0.0
  0
VERTEX
  5
2405
  8
SAPA_PROFIL
 10
81.000000002078394
 20
-67.448715298616207
 30
0.0
 42
-0.4142140000000129
  0
VERTEX
  5
2406
  8
SAPA_PROFIL
 10
81.500000002078394
 20
-67.948715298616193
 30
0.0
  0
VERTEX
  5
2407
  8
SAPA_PROFIL
 10
81.500000002078394
 20
-74.948715298616207
 30
0.0
 42
-0.4142140000000128
  0
VERTEX
  5
2408
  8
SAPA_PROFIL
 10
81.000000002078394
 20
-75.448715298616193
 30
0.0
  0
VERTEX
  5
2409
  8
SAPA_PROFIL
 10
73.800000002078406
 20
-75.44871529861615
 30
0.0
 42
0.4142140000000351
  0
VERTEX
  5
240A
  8
SAPA_PROFIL
 10
73.500000002078394
 20
-75.748715298616162
 30
0.0
  0
VERTEX
  5
240B
  8
SAPA_PROFIL
 10
73.500000002078394
 20
-75.910938298616145
 30
0.0
 42
0.3482370000000729
  0
VERTEX
  5
240C
  8
SAPA_PROFIL
 10
73.73149500207839
 20
-76.203012298616159
 30
0.0
  0
VERTEX
  5
240D
  8
SAPA_PROFIL
 10
77.337170002078409
 20
-77.048715298616116
 30
0.0
  0
VERTEX
  5
240E
  8
SAPA_PROFIL
 10
81.000000002078394
 20
-77.048715298616116
 30
0.0
 42
-0.4142139999999796
  0
VERTEX
  5
240F
  8
SAPA_PROFIL
 10
81.500000002078437
 20
-77.548715298616116
 30
0.0
  0
VERTEX
  5
2410
  8
SAPA_PROFIL
 10
81.500000002078394
 20
-79.998715298616162
 30
0.0
 42
-0.414214000000017
  0
VERTEX
  5
2411
  8
SAPA_PROFIL
 10
81.000000002078394
 20
-80.498715298616176
 30
0.0
 42
0.4142140000000127
  0
VERTEX
  5
2412
  8
SAPA_PROFIL
 10
80.500000002078394
 20
-80.998715298616162
 30
0.0
  0
VERTEX
  5
2413
  8
SAPA_PROFIL
 10
80.500000002078394
 20
-81.998715298616148
 30
0.0
 42
0.414214000000017
  0
VERTEX
  5
2414
  8
SAPA_PROFIL
 10
81.000000002078394
 20
-82.498715298616162
 30
0.0
  0
VERTEX
  5
2415
  8
SAPA_PROFIL
 10
117.50000000207839
 20
-82.498715298616162
 30
0.0
  0
VERTEX
  5
2416
  8
SAPA_PROFIL
 10
118.00000000207839
 20
-81.998715298616148
 30
0.0
  0
VERTEX
  5
2417
  8
SAPA_PROFIL
 10
118.00000000207839
 20
-78.298715298616116
 30
0.0
 42
0.4142139999999863
  0
VERTEX
  5
2418
  8
SAPA_PROFIL
 10
117.7000000020784
 20
-77.998715298616162
 30
0.0
  0
VERTEX
  5
2419
  8
SAPA_PROFIL
 10
116.9324560020784
 20
-77.998715298616162
 30
0.0
 42
0.2896899999999678
  0
VERTEX
  5
241A
  8
SAPA_PROFIL
 10
116.02894800207839
 20
-78.570144298616128
 30
0.0
 42
0.5507599999999711
  0
VERTEX
  5
241B
  8
SAPA_PROFIL
 10
116.30000000207841
 20
-78.998715298616162
 30
0.0
  0
VERTEX
  5
241C
  8
SAPA_PROFIL
 10
116.50000000207839
 20
-78.998715298616162
 30
0.0
 42
-0.4142139999998755
  0
VERTEX
  5
241D
  8
SAPA_PROFIL
 10
116.80000000207841
 20
-79.298715298616116
 30
0.0
  0
VERTEX
  5
241E
  8
SAPA_PROFIL
 10
116.80000000207841
 20
-80.798715298616116
 30
0.0
 42
-0.4142140000000503
  0
VERTEX
  5
241F
  8
SAPA_PROFIL
 10
116.30000000207841
 20
-81.298715298616173
 30
0.0
  0
VERTEX
  5
2420
  8
SAPA_PROFIL
 10
113.00000000207839
 20
-81.298715298616116
 30
0.0
 42
-0.4142140000000419
  0
VERTEX
  5
2421
  8
SAPA_PROFIL
 10
112.50000000207839
 20
-80.798715298616116
 30
0.0
  0
VERTEX
  5
2422
  8
SAPA_PROFIL
 10
112.50000000207839
 20
-79.298715298616116
 30
0.0
 42
-0.4142139999999794
  0
VERTEX
  5
2423
  8
SAPA_PROFIL
 10
112.80000000207841
 20
-78.998715298616276
 30
0.0
  0
VERTEX
  5
2424
  8
SAPA_PROFIL
 10
113.00000000207839
 20
-78.998715298616162
 30
0.0
 42
0.5507599999999436
  0
VERTEX
  5
2425
  8
SAPA_PROFIL
 10
113.2710530020784
 20
-78.570144298616128
 30
0.0
 42
0.2896899999999595
  0
VERTEX
  5
2426
  8
SAPA_PROFIL
 10
112.3675450020784
 20
-77.998715298616162
 30
0.0
  0
VERTEX
  5
2427
  8
SAPA_PROFIL
 10
111.3700730020784
 20
-77.998715298616162
 30
0.0
 42
0.0436610000000022
  0
VERTEX
  5
2428
  8
SAPA_PROFIL
 10
111.28324900207841
 20
-78.006311298616197
 30
0.0
  0
VERTEX
  5
2429
  8
SAPA_PROFIL
 10
109.7131760020783
 20
-78.283158298616172
 30
0.0
 42
0.8391000000000101
  0
VERTEX
  5
242A
  8
SAPA_PROFIL
 10
109.7131760020783
 20
-79.267965298616161
 30
0.0
  0
VERTEX
  5
242B
  8
SAPA_PROFIL
 10
110.8868250020784
 20
-79.474911298616121
 30
0.0
 42
-0.3639700000000376
  0
VERTEX
  5
242C
  8
SAPA_PROFIL
 10
111.30000000207841
 20
-79.967315298616185
 30
0.0
  0
VERTEX
  5
242D
  8
SAPA_PROFIL
 10
111.30000000207841
 20
-80.798715298616116
 30
0.0
 42
-0.437328000000032
  0
VERTEX
  5
242E
  8
SAPA_PROFIL
 10
110.7609060020783
 20
-81.297185298616185
 30
0.0
  0
VERTEX
  5
242F
  8
SAPA_PROFIL
 10
96.287847002078394
 20
-80.710386298616186
 30
0.0
 42
-0.4023939999998692
  0
VERTEX
  5
2430
  8
SAPA_PROFIL
 10
96.000000002078281
 20
-80.410632298616179
 30
0.0
  0
VERTEX
  5
2431
  8
SAPA_PROFIL
 10
96.000000002078394
 20
-79.610099298616149
 30
0.0
 42
0.259680999999983
  0
VERTEX
  5
2432
  8
SAPA_PROFIL
 10
95.905307002078388
 20
-79.440068298616154
 30
0.0
  0
VERTEX
  5
2433
  8
SAPA_PROFIL
 10
94.457961002078406
 20
-78.543669298616123
 30
0.0
 42
0.5877029999999889
  0
VERTEX
  5
2434
  8
SAPA_PROFIL
 10
94.000000002078394
 20
-78.798715298616116
 30
0.0
  0
VERTEX
  5
2435
  8
SAPA_PROFIL
 10
94.000000002078394
 20
-80.198715298616165
 30
0.0
 42
-0.4142140000000349
  0
VERTEX
  5
2436
  8
SAPA_PROFIL
 10
93.700000002078383
 20
-80.498715298616034
 30
0.0
  0
VERTEX
  5
2437
  8
SAPA_PROFIL
 10
91.300000002078406
 20
-80.498715298616176
 30
0.0
 42
-0.4142140000000349
  0
VERTEX
  5
2438
  8
SAPA_PROFIL
 10
91.000000002078281
 20
-80.198715298616165
 30
0.0
  0
VERTEX
  5
2439
  8
SAPA_PROFIL
 10
91.000000002078394
 20
-72.018331298616204
 30
0.0
  0
VERTEX
  5
243A
  8
SAPA_PROFIL
 10
90.700000002078383
 20
-71.498715298616162
 30
0.0
  0
VERTEX
  5
243B
  8
SAPA_PROFIL
 10
91.000000002078394
 20
-70.979100298616174
 30
0.0
  0
VERTEX
  5
243C
  8
SAPA_PROFIL
 10
91.000000002078394
 20
-62.798715298616152
 30
0.0
 42
-0.4142135623730882
  0
VERTEX
  5
243D
  8
SAPA_PROFIL
 10
91.300000002078377
 20
-62.498715298616162
 30
0.0
  0
VERTEX
  5
243E
  8
SAPA_PROFIL
 10
93.700000002078383
 20
-62.498715298616148
 30
0.0
 42
-0.4142135623730882
  0
VERTEX
  5
243F
  8
SAPA_PROFIL
 10
94.000000002078394
 20
-62.798715298616152
 30
0.0
  0
VERTEX
  5
2440
  8
SAPA_PROFIL
 10
94.000000002078394
 20
-64.198715298616193
 30
0.0
 42
0.5877029999999041
  0
VERTEX
  5
2441
  8
SAPA_PROFIL
 10
94.457961002078406
 20
-64.453762298616184
 30
0.0
  0
VERTEX
  5
2442
  8
SAPA_PROFIL
 10
95.705307002078385
 20
-63.661230298616182
 30
0.0
 42
0.2596809999999552
  0
VERTEX
  5
2443
  8
SAPA_PROFIL
 10
95.800000002078406
 20
-63.491200298616192
 30
0.0
  0
VERTEX
  5
2444
  8
SAPA_PROFIL
 10
95.800000002078406
 20
-60.4965493734476
 30
0.0
  0
VERTEX
  5
2445
  8
SAPA_PROFIL
 10
95.289378014356444
 20
-59.175433956013421
 30
0.0
 42
-0.4142135623730953
  0
VERTEX
  5
2446
  8
SAPA_PROFIL
 10
95.489342058863826
 20
-58.801249000537609
 30
0.0
  0
VERTEX
  5
2447
  8
SAPA_PROFIL
 10
95.537187808862313
 20
-58.786730591290507
 30
0.0
  0
VERTEX
  5
2448
  8
SAPA_PROFIL
 10
95.537271416745938
 20
-57.283629510528499
 30
0.0
 42
0.4769755326981643
  0
VERTEX
  5
2449
  8
SAPA_PROFIL
 10
95.165614541800096
 20
-56.981376686022031
 30
0.0
  0
VERTEX
  5
244A
  8
SAPA_PROFIL
 10
93.352384071141842
 20
-57.362823282149748
 30
0.0
 42
0.2216946626430194
  0
VERTEX
  5
244B
  8
SAPA_PROFIL
 10
92.811504239665055
 20
-57.76863218730454
 30
0.0
  0
VERTEX
  5
244C
  8
SAPA_PROFIL
 10
92.659370328556264
 20
-58.053314470536193
 30
0.0
 42
0.5773502691897466
  0
VERTEX
  5
244D
  8
SAPA_PROFIL
 10
92.842324068666485
 20
-58.347470770790999
 30
0.0
  0
VERTEX
  5
244E
  8
SAPA_PROFIL
 10
93.164081796884716
 20
-58.33690940456404
 30
0.0
  0
VERTEX
  5
244F
  8
SAPA_PROFIL
 10
94.248646243856456
 20
-60.222753096425087
 30
0.0
  0
VERTEX
  5
2450
  8
SAPA_PROFIL
 10
94.306719880845534
 20
-60.414136096418808
 30
0.0
 42
-0.7625858545243257
  0
VERTEX
  5
2451
  8
SAPA_PROFIL
 10
93.976393799828514
 20
-60.598715298616291
 30
0.0
  0
SEQEND
  5
2452
  8
SAPA_PROFIL
  0
POLYLINE
  5
17DA
  8
SAPA_PROFIL
 66
     1
 10
0.0
 20
0.0
 30
0.0
 70
     1
  0
VERTEX
  5
2453
  8
SAPA_PROFIL
 10
83.500000002078394
 20
-62.1987152986162
 30
0.0
  0
VERTEX
  5
2454
  8
SAPA_PROFIL
 10
89.000000002078394
 20
-62.1987152986162
 30
0.0
 42
-0.4142139999999252
  0
VERTEX
  5
2455
  8
SAPA_PROFIL
 10
89.300000002078406
 20
-62.498715298616162
 30
0.0
  0
VERTEX
  5
2456
  8
SAPA_PROFIL
 10
89.300000002078406
 20
-80.498715298616176
 30
0.0
 42
-0.4142139999998691
  0
VERTEX
  5
2457
  8
SAPA_PROFIL
 10
89.000000002078394
 20
-80.798715298616116
 30
0.0
  0
VERTEX
  5
2458
  8
SAPA_PROFIL
 10
83.500000002078394
 20
-80.798715298616116
 30
0.0
 42
-0.4142135623730951
  0
VERTEX
  5
2459
  8
SAPA_PROFIL
 10
83.200000002078383
 20
-80.498715298616176
 30
0.0
  0
VERTEX
  5
245A
  8
SAPA_PROFIL
 10
83.200000002078383
 20
-62.498715298616162
 30
0.0
 42
-0.4142139999999803
  0
SEQEND
  5
245B
  8
SAPA_PROFIL
  0
POLYLINE
  5
17DB
  8
SAPA_PROFIL
 62
     4
 66
     1
 10
0.0
 20
0.0
 30
0.0
  0
VERTEX
  5
245C
  8
SAPA_PROFIL
 62
     4
 10
93.094428837964486
 20
-30.449386176261729
 30
0.0
 42
0.5571646428658034
  0
VERTEX
  5
245D
  8
SAPA_PROFIL
 62
     4
 10
92.226709923808926
 20
-30.986346680398551
 30
0.0
  0
VERTEX
  5
245E
  8
SAPA_PROFIL
 62
     4
 10
92.226709923809395
 20
-48.011083916919752
 30
0.0
 42
0.5571645048035741
  0
VERTEX
  5
245F
  8
SAPA_PROFIL
 62
     4
 10
93.094428611675553
 20
-48.548044533880812
 30
0.0
  0
VERTEX
  5
2460
  8
SAPA_PROFIL
 62
     4
 10
94.760569267743577
 20
-47.717337446334113
 30
0.0
 42
0.284385813979063
  0
VERTEX
  5
2461
  8
SAPA_PROFIL
 62
     4
 10
94.926709923811018
 20
-47.448857137853757
 30
0.0
  0
VERTEX
  5
2462
  8
SAPA_PROFIL
 62
     4
 10
94.926709923811018
 20
-31.54857345946445
 30
0.0
 42
0.2843858139786238
  0
VERTEX
  5
2463
  8
SAPA_PROFIL
 62
     4
 10
94.760569267744089
 20
-31.280093150984172
 30
0.0
  0
VERTEX
  5
2464
  8
SAPA_PROFIL
 62
     4
 10
93.094428611674729
 20
-30.449386063437011
 30
0.0
  0
SEQEND
  5
2465
  8
SAPA_PROFIL
 62
     4
  0
POLYLINE
  5
17DC
  8
SAPA_PROFIL
 62
     4
 66
     1
 10
0.0
 20
0.0
 30
0.0
 70
     1
  0
VERTEX
  5
2466
  8
SAPA_PROFIL
 62
     4
 10
95.283541438308575
 20
-53.916326483326401
 30
0.0
  0
VERTEX
  5
2467
  8
SAPA_PROFIL
 62
     4
 10
95.690101634312725
 20
-54.180349761702409
 30
0.0
 42
-0.2539676464751066
  0
VERTEX
  5
2468
  8
SAPA_PROFIL
 62
     4
 10
95.826709923808835
 20
-54.431950932087119
 30
0.0
  0
VERTEX
  5
2469
  8
SAPA_PROFIL
 62
     4
 10
95.826709923808835
 20
-55.813450517292473
 30
0.0
 42
-0.3152987888790479
  0
VERTEX
  5
246A
  8
SAPA_PROFIL
 62
     4
 10
95.497719995470675
 20
-56.283296827684779
 30
0.0
  0
VERTEX
  5
246B
  8
SAPA_PROFIL
 62
     4
 10
93.036889805019399
 20
-57.178965768593379
 30
0.0
 42
0.2694959974287434
  0
VERTEX
  5
246C
  8
SAPA_PROFIL
 62
     4
 10
92.843757830675514
 20
-57.410484814994739
 30
0.0
 42
0.0612686379508233
  0
VERTEX
  5
246D
  8
SAPA_PROFIL
 62
     4
 10
92.830174460044987
 20
-57.703160247848011
 30
0.0
  0
VERTEX
  5
246E
  8
SAPA_PROFIL
 62
     4
 10
92.628437781316165
 20
-58.052578425156277
 30
0.0
 42
0.5773502691891679
  0
VERTEX
  5
246F
  8
SAPA_PROFIL
 62
     4
 10
92.810303116110745
 20
-58.36757842515587
 30
0.0
  0
VERTEX
  5
2470
  8
SAPA_PROFIL
 62
     4
 10
93.077417644237045
 20
-58.367578425156111
 30
0.0
  0
VERTEX
  5
2471
  8
SAPA_PROFIL
 62
     4
 10
93.886101105545364
 20
-59.766106125790373
 30
0.0
 42
-0.1318219888653519
  0
VERTEX
  5
2472
  8
SAPA_PROFIL
 62
     4
 10
93.926393502082746
 20
-59.916279228262709
 30
0.0
  0
VERTEX
  5
2473
  8
SAPA_PROFIL
 62
     4
 10
93.926393502076394
 20
-60.098715298699489
 30
0.0
 42
-0.4142135623724291
  0
VERTEX
  5
2474
  8
SAPA_PROFIL
 62
     4
 10
93.526393502076758
 20
-60.498715298700027
 30
0.0
  0
VERTEX
  5
2475
  8
SAPA_PROFIL
 62
     4
 10
90.126393502075757
 20
-60.49871529869867
 30
0.0
 42
-0.4142135623744271
  0
VERTEX
  5
2476
  8
SAPA_PROFIL
 62
     4
 10
89.726393502074757
 20
-60.098715298699489
 30
0.0
  0
VERTEX
  5
2477
  8
SAPA_PROFIL
 62
     4
 10
89.726393502074117
 20
-59.919100056428178
 30
0.0
 42
-0.1316524975874005
  0
VERTEX
  5
2478
  8
SAPA_PROFIL
 62
     4
 10
89.766585880939715
 20
-59.76910005643137
 30
0.0
  0
VERTEX
  5
2479
  8
SAPA_PROFIL
 62
     4
 10
90.692735327592246
 20
-58.164962159429123
 30
0.0
 42
0.1316524975875904
  0
VERTEX
  5
247A
  8
SAPA_PROFIL
 62
     4
 10
90.826709923807016
 20
-57.664962159427411
 30
0.0
  0
VERTEX
  5
247B
  8
SAPA_PROFIL
 62
     4
 10
90.826709923807016
 20
-57.248715298700041
 30
0.0
 42
0.4142135623730951
  0
VERTEX
  5
247C
  8
SAPA_PROFIL
 62
     4
 10
89.826709923807016
 20
-56.248715298700027
 30
0.0
  0
VERTEX
  5
247D
  8
SAPA_PROFIL
 62
     4
 10
86.826709923809744
 20
-56.248715298700027
 30
0.0
 42
-0.9999996830128083
  0
VERTEX
  5
247E
  8
SAPA_PROFIL
 62
     4
 10
86.826709923807925
 20
-55.248715298700027
 30
0.0
  0
VERTEX
  5
247F
  8
SAPA_PROFIL
 62
     4
 10
89.826709923807925
 20
-55.248715298700027
 30
0.0
 42
0.4142135623730951
  0
VERTEX
  5
2480
  8
SAPA_PROFIL
 62
     4
 10
90.826709923807925
 20
-54.248715298700027
 30
0.0
  0
VERTEX
  5
2481
  8
SAPA_PROFIL
 62
     4
 10
90.826709923807925
 20
-24.748715298615451
 30
0.0
 42
0.4142135623730951
  0
VERTEX
  5
2482
  8
SAPA_PROFIL
 62
     4
 10
89.826709923807925
 20
-23.748715298615451
 30
0.0
  0
VERTEX
  5
2483
  8
SAPA_PROFIL
 62
     4
 10
86.826709923809744
 20
-23.748715298615451
 30
0.0
 42
-0.9999999999999998
  0
VERTEX
  5
2484
  8
SAPA_PROFIL
 62
     4
 10
86.826709923809744
 20
-22.748715298615451
 30
0.0
  0
VERTEX
  5
2485
  8
SAPA_PROFIL
 62
     4
 10
89.826709923807925
 20
-22.748715298615451
 30
0.0
 42
0.4142135623736278
  0
VERTEX
  5
2486
  8
SAPA_PROFIL
 62
     4
 10
90.826709923807925
 20
-21.748715298615451
 30
0.0
  0
VERTEX
  5
2487
  8
SAPA_PROFIL
 62
     4
 10
90.826709923807925
 20
-21.332468437888991
 30
0.0
 42
0.1316524975874375
  0
VERTEX
  5
2488
  8
SAPA_PROFIL
 62
     4
 10
90.692735327591876
 20
-20.832468437888789
 30
0.0
  0
VERTEX
  5
2489
  8
SAPA_PROFIL
 62
     4
 10
89.766585880939715
 20
-19.228330540886841
 30
0.0
 42
-0.1316524975874
  0
VERTEX
  5
248A
  8
SAPA_PROFIL
 62
     4
 10
89.726393502074117
 20
-19.078330540887301
 30
0.0
  0
VERTEX
  5
248B
  8
SAPA_PROFIL
 62
     4
 10
89.726393502074757
 20
-18.898715298616001
 30
0.0
 42
-0.4142135623744271
  0
VERTEX
  5
248C
  8
SAPA_PROFIL
 62
     4
 10
90.126393502075757
 20
-18.498715298616808
 30
0.0
  0
VERTEX
  5
248D
  8
SAPA_PROFIL
 62
     4
 10
93.526393502076758
 20
-18.498715298615451
 30
0.0
 42
-0.4142135623724291
  0
VERTEX
  5
248E
  8
SAPA_PROFIL
 62
     4
 10
93.926393502076394
 20
-18.898715298616001
 30
0.0
  0
VERTEX
  5
248F
  8
SAPA_PROFIL
 62
     4
 10
93.926393502082746
 20
-19.081151369052769
 30
0.0
 42
-0.1318219888653524
  0
VERTEX
  5
2490
  8
SAPA_PROFIL
 62
     4
 10
93.886101105545364
 20
-19.23132447152512
 30
0.0
  0
VERTEX
  5
2491
  8
SAPA_PROFIL
 62
     4
 10
93.077417644321031
 20
-20.629852172004771
 30
0.0
  0
VERTEX
  5
2492
  8
SAPA_PROFIL
 62
     4
 10
92.810303116108003
 20
-20.629852172004771
 30
0.0
 42
0.577350269189159
  0
VERTEX
  5
2493
  8
SAPA_PROFIL
 62
     4
 10
92.628437781313423
 20
-20.944852172004371
 30
0.0
  0
VERTEX
  5
2494
  8
SAPA_PROFIL
 62
     4
 10
92.830174459990531
 20
-21.29427034922303
 30
0.0
 42
0.0612687673629489
  0
VERTEX
  5
2495
  8
SAPA_PROFIL
 62
     4
 10
92.843757830676736
 20
-21.586945782323252
 30
0.0
 42
0.2694959974285039
  0
VERTEX
  5
2496
  8
SAPA_PROFIL
 62
     4
 10
93.036889805020692
 20
-21.818464828723769
 30
0.0
  0
VERTEX
  5
2497
  8
SAPA_PROFIL
 62
     4
 10
95.497719995473858
 20
-22.714133769633431
 30
0.0
 42
-0.3152987888784035
  0
VERTEX
  5
2498
  8
SAPA_PROFIL
 62
     4
 10
95.826709923810427
 20
-23.183980080026661
 30
0.0
  0
VERTEX
  5
2499
  8
SAPA_PROFIL
 62
     4
 10
95.826709923808835
 20
-24.565479665231098
 30
0.0
 42
-0.2539676464741841
  0
VERTEX
  5
249A
  8
SAPA_PROFIL
 62
     4
 10
95.690101634313564
 20
-24.817080835615169
 30
0.0
  0
VERTEX
  5
249B
  8
SAPA_PROFIL
 62
     4
 10
95.283541438308575
 20
-25.08110411399182
 30
0.0
 42
-0.5862177598324623
  0
VERTEX
  5
249C
  8
SAPA_PROFIL
 62
     4
 10
94.826709923812075
 20
-24.825362298753468
 30
0.0
  0
VERTEX
  5
249D
  8
SAPA_PROFIL
 62
     4
 10
94.826709923819735
 20
-23.884187618243661
 30
0.0
 42
0.3152987888813165
  0
VERTEX
  5
249E
  8
SAPA_PROFIL
 62
     4
 10
94.497719995482996
 20
-23.414341307845898
 30
0.0
  0
VERTEX
  5
249F
  8
SAPA_PROFIL
 62
     4
 10
93.297719995471766
 20
-22.977577026721939
 30
0.0
 42
0.5205670505515651
  0
VERTEX
  5
24A0
  8
SAPA_PROFIL
 62
     4
 10
92.626709923809017
 20
-23.447423337115168
 30
0.0
  0
VERTEX
  5
24A1
  8
SAPA_PROFIL
 62
     4
 10
92.626709923808988
 20
-28.463864277784019
 30
0.0
 42
0.3702522326300203
  0
VERTEX
  5
24A2
  8
SAPA_PROFIL
 62
     4
 10
92.881169876474701
 20
-28.760387639577349
 30
0.0
 42
0.0982365330332397
  0
VERTEX
  5
24A3
  8
SAPA_PROFIL
 62
     4
 10
94.568856651469702
 20
-28.850840397788289
 30
0.0
 42
0.3735060174783164
  0
VERTEX
  5
24A4
  8
SAPA_PROFIL
 62
     4
 10
94.826709923809744
 20
-28.553815729877311
 30
0.0
  0
VERTEX
  5
24A5
  8
SAPA_PROFIL
 62
     4
 10
94.826709923810654
 20
-28.125362298754649
 30
0.0
 42
-0.5920056181162531
  0
VERTEX
  5
24A6
  8
SAPA_PROFIL
 62
     4
 10
95.287913426338577
 20
-27.872353542437249
 30
0.0
  0
VERTEX
  5
24A7
  8
SAPA_PROFIL
 62
     4
 10
95.690101634316875
 20
-28.13353761859295
 30
0.0
 42
-0.2539676464746725
  0
VERTEX
  5
24A8
  8
SAPA_PROFIL
 62
     4
 10
95.826709923812217
 20
-28.385138788976722
 30
0.0
  0
VERTEX
  5
24A9
  8
SAPA_PROFIL
 62
     4
 10
95.826709923810654
 20
-50.612291808342398
 30
0.0
 42
-0.2539676464741819
  0
VERTEX
  5
24AA
  8
SAPA_PROFIL
 62
     4
 10
95.690101634316875
 20
-50.863892978725261
 30
0.0
  0
VERTEX
  5
24AB
  8
SAPA_PROFIL
 62
     4
 10
95.287913426338534
 20
-51.125077054879071
 30
0.0
 42
-0.5920055144124249
  0
VERTEX
  5
24AC
  8
SAPA_PROFIL
 62
     4
 10
94.826709923810654
 20
-50.872068298563562
 30
0.0
  0
VERTEX
  5
24AD
  8
SAPA_PROFIL
 62
     4
 10
94.826709949085654
 20
-50.443614821273343
 30
0.0
 42
0.3735060174775405
  0
VERTEX
  5
24AE
  8
SAPA_PROFIL
 62
     4
 10
94.568856676745568
 20
-50.146590153363647
 30
0.0
 42
0.0355900683670349
  0
VERTEX
  5
24AF
  8
SAPA_PROFIL
 62
     4
 10
93.952983089945789
 20
-50.102696589331401
 30
0.0
 42
0.0624282003873116
  0
VERTEX
  5
24B0
  8
SAPA_PROFIL
 62
     4
 10
92.881169901750653
 20
-50.237042911574342
 30
0.0
 42
0.3702522326309292
  0
VERTEX
  5
24B1
  8
SAPA_PROFIL
 62
     4
 10
92.626709949084926
 20
-50.533566273367711
 30
0.0
  0
VERTEX
  5
24B2
  8
SAPA_PROFIL
 62
     4
 10
92.626709923808789
 20
-55.55000726020122
 30
0.0
 42
0.5205670505515692
  0
VERTEX
  5
24B3
  8
SAPA_PROFIL
 62
     4
 10
93.297719995471766
 20
-56.019853570594449
 30
0.0
  0
VERTEX
  5
24B4
  8
SAPA_PROFIL
 62
     4
 10
94.497719995481205
 20
-55.583089289469491
 30
0.0
 42
0.3152987888807539
  0
VERTEX
  5
24B5
  8
SAPA_PROFIL
 62
     4
 10
94.826709923818825
 20
-55.11324297907364
 30
0.0
  0
VERTEX
  5
24B6
  8
SAPA_PROFIL
 62
     4
 10
94.826709923812004
 20
-54.172068298564561
 30
0.0
 42
-0.5862175119221242
  0
VERTEX
  5
24B7
  8
SAPA_PROFIL
 62
     4
 10
95.283541249567151
 20
-53.916326367582599
 30
0.0
 42
0.0000002084758573
  0
SEQEND
  5
24B8
  8
SAPA_PROFIL
 62
     4
  0
POLYLINE
  5
17DD
  8
SAPA_PROFIL
 62
     4
 66
     1
 10
0.0
 20
0.0
 30
0.0
  0
VERTEX
  5
24B9
  8
SAPA_PROFIL
 62
     4
 10
70.205571761767999
 20
-48.548044421055842
 30
0.0
 42
0.5571646428658034
  0
VERTEX
  5
24BA
  8
SAPA_PROFIL
 62
     4
 10
71.073290675923545
 20
-48.011083916918992
 30
0.0
  0
VERTEX
  5
24BB
  8
SAPA_PROFIL
 62
     4
 10
71.073290675922635
 20
-30.986346680397791
 30
0.0
 42
0.5571645048035741
  0
VERTEX
  5
24BC
  8
SAPA_PROFIL
 62
     4
 10
70.205571988056434
 20
-30.449386063436759
 30
0.0
  0
VERTEX
  5
24BD
  8
SAPA_PROFIL
 62
     4
 10
68.539431331988439
 20
-31.2800931509835
 30
0.0
 42
0.284385813979063
  0
VERTEX
  5
24BE
  8
SAPA_PROFIL
 62
     4
 10
68.373290675921012
 20
-31.54857345946386
 30
0.0
  0
VERTEX
  5
24BF
  8
SAPA_PROFIL
 62
     4
 10
68.373290675921425
 20
-47.448857137853167
 30
0.0
 42
0.2843858139786238
  0
VERTEX
  5
24C0
  8
SAPA_PROFIL
 62
     4
 10
68.539431331988354
 20
-47.717337446333438
 30
0.0
  0
VERTEX
  5
24C1
  8
SAPA_PROFIL
 62
     4
 10
70.205571988057741
 20
-48.548044533880557
 30
0.0
  0
SEQEND
  5
24C2
  8
SAPA_PROFIL
 62
     4
  0
POLYLINE
  5
17DE
  8
SAPA_PROFIL
 62
     4
 66
     1
 10
0.0
 20
0.0
 30
0.0
 70
     1
  0
VERTEX
  5
24C3
  8
SAPA_PROFIL
 62
     4
 10
68.016459161423256
 20
-25.081104113991231
 30
0.0
  0
VERTEX
  5
24C4
  8
SAPA_PROFIL
 62
     4
 10
67.609898965419106
 20
-24.817080835615219
 30
0.0
 42
-0.2539676464751066
  0
VERTEX
  5
24C5
  8
SAPA_PROFIL
 62
     4
 10
67.473290675922996
 20
-24.565479665230519
 30
0.0
  0
VERTEX
  5
24C6
  8
SAPA_PROFIL
 62
     4
 10
67.473290675922954
 20
-23.183980080025169
 30
0.0
 42
-0.3152987888790479
  0
VERTEX
  5
24C7
  8
SAPA_PROFIL
 62
     4
 10
67.802280604261114
 20
-22.714133769632848
 30
0.0
  0
VERTEX
  5
24C8
  8
SAPA_PROFIL
 62
     4
 10
70.263110794712361
 20
-21.818464828724181
 30
0.0
 42
0.2694959974287434
  0
VERTEX
  5
24C9
  8
SAPA_PROFIL
 62
     4
 10
70.456242769056246
 20
-21.586945782322822
 30
0.0
 42
0.0612686379508233
  0
VERTEX
  5
24CA
  8
SAPA_PROFIL
 62
     4
 10
70.469826139686759
 20
-21.294270349469539
 30
0.0
  0
VERTEX
  5
24CB
  8
SAPA_PROFIL
 62
     4
 10
70.67156281841558
 20
-20.944852172161269
 30
0.0
 42
0.5773502691891679
  0
VERTEX
  5
24CC
  8
SAPA_PROFIL
 62
     4
 10
70.489697483621001
 20
-20.629852172161691
 30
0.0
  0
VERTEX
  5
24CD
  8
SAPA_PROFIL
 62
     4
 10
70.222582955494687
 20
-20.629852172161449
 30
0.0
  0
VERTEX
  5
24CE
  8
SAPA_PROFIL
 62
     4
 10
69.413899494186325
 20
-19.23132447152722
 30
0.0
 42
-0.1318219888653519
  0
VERTEX
  5
24CF
  8
SAPA_PROFIL
 62
     4
 10
69.373607097648929
 20
-19.081151369054879
 30
0.0
  0
VERTEX
  5
24D0
  8
SAPA_PROFIL
 62
     4
 10
69.373607097655295
 20
-18.8987152986181
 30
0.0
 42
-0.4142135623724291
  0
VERTEX
  5
24D1
  8
SAPA_PROFIL
 62
     4
 10
69.773607097654903
 20
-18.49871529861754
 30
0.0
  0
VERTEX
  5
24D2
  8
SAPA_PROFIL
 62
     4
 10
73.173607097655903
 20
-18.498715298618809
 30
0.0
 42
-0.4142135623744271
  0
VERTEX
  5
24D3
  8
SAPA_PROFIL
 62
     4
 10
73.573607097656932
 20
-18.89871529861799
 30
0.0
  0
VERTEX
  5
24D4
  8
SAPA_PROFIL
 62
     4
 10
73.573607097657572
 20
-19.07833054088929
 30
0.0
 42
-0.1316524975874005
  0
VERTEX
  5
24D5
  8
SAPA_PROFIL
 62
     4
 10
73.533414718791974
 20
-19.228330540886098
 30
0.0
  0
VERTEX
  5
24D6
  8
SAPA_PROFIL
 62
     4
 10
72.607265272139486
 20
-20.832468437888391
 30
0.0
 42
0.1316524975875904
  0
VERTEX
  5
24D7
  8
SAPA_PROFIL
 62
     4
 10
72.47329067592473
 20
-21.3324684378901
 30
0.0
  0
VERTEX
  5
24D8
  8
SAPA_PROFIL
 62
     4
 10
72.473290675924744
 20
-21.748715298617469
 30
0.0
 42
0.4142135623730951
  0
VERTEX
  5
24D9
  8
SAPA_PROFIL
 62
     4
 10
73.473290675924773
 20
-22.748715298617441
 30
0.0
  0
VERTEX
  5
24DA
  8
SAPA_PROFIL
 62
     4
 10
76.473290675922044
 20
-22.748715298617359
 30
0.0
 42
-0.9999996830128083
  0
VERTEX
  5
24DB
  8
SAPA_PROFIL
 62
     4
 10
76.473290675923892
 20
-23.748715298617359
 30
0.0
  0
VERTEX
  5
24DC
  8
SAPA_PROFIL
 62
     4
 10
73.473290675923892
 20
-23.748715298617441
 30
0.0
 42
0.4142135623730951
  0
VERTEX
  5
24DD
  8
SAPA_PROFIL
 62
     4
 10
72.47329067592392
 20
-24.748715298617469
 30
0.0
  0
VERTEX
  5
24DE
  8
SAPA_PROFIL
 62
     4
 10
72.473290675924702
 20
-54.248715298702052
 30
0.0
 42
0.4142135623730951
  0
VERTEX
  5
24DF
  8
SAPA_PROFIL
 62
     4
 10
73.47329067592473
 20
-55.248715298702017
 30
0.0
  0
VERTEX
  5
24E0
  8
SAPA_PROFIL
 62
     4
 10
76.473290675922911
 20
-55.248715298701939
 30
0.0
 42
-0.9999999999999998
  0
VERTEX
  5
24E1
  8
SAPA_PROFIL
 62
     4
 10
76.473290675922939
 20
-56.248715298701939
 30
0.0
  0
VERTEX
  5
24E2
  8
SAPA_PROFIL
 62
     4
 10
73.473290675924744
 20
-56.248715298702017
 30
0.0
 42
0.4142135623736278
  0
VERTEX
  5
24E3
  8
SAPA_PROFIL
 62
     4
 10
72.473290675924787
 20
-57.248715298702052
 30
0.0
  0
VERTEX
  5
24E4
  8
SAPA_PROFIL
 62
     4
 10
72.473290675924801
 20
-57.664962159428512
 30
0.0
 42
0.1316524975874375
  0
VERTEX
  5
24E5
  8
SAPA_PROFIL
 62
     4
 10
72.60726527214085
 20
-58.164962159428711
 30
0.0
  0
VERTEX
  5
24E6
  8
SAPA_PROFIL
 62
     4
 10
73.533414718793068
 20
-59.769100056430631
 30
0.0
 42
-0.1316524975874
  0
VERTEX
  5
24E7
  8
SAPA_PROFIL
 62
     4
 10
73.573607097658666
 20
-59.919100056430167
 30
0.0
  0
VERTEX
  5
24E8
  8
SAPA_PROFIL
 62
     4
 10
73.573607097658041
 20
-60.098715298701478
 30
0.0
 42
-0.4142135623744271
  0
VERTEX
  5
24E9
  8
SAPA_PROFIL
 62
     4
 10
73.17360709765704
 20
-60.498715298700667
 30
0.0
  0
VERTEX
  5
24EA
  8
SAPA_PROFIL
 62
     4
 10
69.77360709765604
 20
-60.49871529870213
 30
0.0
 42
-0.4142135623724291
  0
VERTEX
  5
24EB
  8
SAPA_PROFIL
 62
     4
 10
69.373607097656404
 20
-60.098715298701592
 30
0.0
  0
VERTEX
  5
24EC
  8
SAPA_PROFIL
 62
     4
 10
69.373607097650023
 20
-59.916279228264813
 30
0.0
 42
-0.1318219888653524
  0
VERTEX
  5
24ED
  8
SAPA_PROFIL
 62
     4
 10
69.413899494187405
 20
-59.766106125792462
 30
0.0
  0
VERTEX
  5
24EE
  8
SAPA_PROFIL
 62
     4
 10
70.222582955411696
 20
-58.367578425312793
 30
0.0
  0
VERTEX
  5
24EF
  8
SAPA_PROFIL
 62
     4
 10
70.489697483624752
 20
-58.367578425312779
 30
0.0
 42
0.577350269189159
  0
VERTEX
  5
24F0
  8
SAPA_PROFIL
 62
     4
 10
70.671562818419304
 20
-58.052578425313179
 30
0.0
  0
VERTEX
  5
24F1
  8
SAPA_PROFIL
 62
     4
 10
70.469826139742196
 20
-57.703160248094527
 30
0.0
 42
0.0612687673629489
  0
VERTEX
  5
24F2
  8
SAPA_PROFIL
 62
     4
 10
70.456242769055976
 20
-57.410484814994312
 30
0.0
 42
0.2694959974285039
  0
VERTEX
  5
24F3
  8
SAPA_PROFIL
 62
     4
 10
70.26311079471202
 20
-57.178965768593798
 30
0.0
  0
VERTEX
  5
24F4
  8
SAPA_PROFIL
 62
     4
 10
67.802280604258826
 20
-56.283296827684197
 30
0.0
 42
-0.3152987888784035
  0
VERTEX
  5
24F5
  8
SAPA_PROFIL
 62
     4
 10
67.473290675922243
 20
-55.813450517290981
 30
0.0
  0
VERTEX
  5
24F6
  8
SAPA_PROFIL
 62
     4
 10
67.473290675923806
 20
-54.431950932086536
 30
0.0
 42
-0.2539676464741841
  0
VERTEX
  5
24F7
  8
SAPA_PROFIL
 62
     4
 10
67.609898965419063
 20
-54.180349761702473
 30
0.0
  0
VERTEX
  5
24F8
  8
SAPA_PROFIL
 62
     4
 10
68.016459161424038
 20
-53.916326483325811
 30
0.0
 42
-0.5862177598324623
  0
VERTEX
  5
24F9
  8
SAPA_PROFIL
 62
     4
 10
68.473290675920552
 20
-54.172068298564142
 30
0.0
  0
VERTEX
  5
24FA
  8
SAPA_PROFIL
 62
     4
 10
68.473290675912907
 20
-55.113242979073952
 30
0.0
 42
0.3152987888813165
  0
VERTEX
  5
24FB
  8
SAPA_PROFIL
 62
     4
 10
68.802280604249674
 20
-55.583089289471701
 30
0.0
  0
VERTEX
  5
24FC
  8
SAPA_PROFIL
 62
     4
 10
70.002280604260918
 20
-56.019853570595629
 30
0.0
 42
0.5205670505515651
  0
VERTEX
  5
24FD
  8
SAPA_PROFIL
 62
     4
 10
70.673290675923653
 20
-55.550007260202392
 30
0.0
  0
VERTEX
  5
24FE
  8
SAPA_PROFIL
 62
     4
 10
70.673290675923525
 20
-50.533566319533527
 30
0.0
 42
0.3702522326300203
  0
VERTEX
  5
24FF
  8
SAPA_PROFIL
 62
     4
 10
70.418830723257827
 20
-50.237042957740208
 30
0.0
 42
0.0982365330332397
  0
VERTEX
  5
2500
  8
SAPA_PROFIL
 62
     4
 10
68.731143948262826
 20
-50.146590199529307
 30
0.0
 42
0.3735060174783164
  0
VERTEX
  5
2501
  8
SAPA_PROFIL
 62
     4
 10
68.473290675922797
 20
-50.443614867440303
 30
0.0
  0
VERTEX
  5
2502
  8
SAPA_PROFIL
 62
     4
 10
68.473290675921874
 20
-50.872068298562951
 30
0.0
 42
-0.5920056181162531
  0
VERTEX
  5
2503
  8
SAPA_PROFIL
 62
     4
 10
68.012087173393979
 20
-51.125077054880371
 30
0.0
  0
VERTEX
  5
2504
  8
SAPA_PROFIL
 62
     4
 10
67.609898965415667
 20
-50.863892978724678
 30
0.0
 42
-0.2539676464746725
  0
VERTEX
  5
2505
  8
SAPA_PROFIL
 62
     4
 10
67.473290675920296
 20
-50.61229180834092
 30
0.0
  0
VERTEX
  5
2506
  8
SAPA_PROFIL
 62
     4
 10
67.473290675921291
 20
-28.38513878897524
 30
0.0
 42
-0.2539676464741819
  0
VERTEX
  5
2507
  8
SAPA_PROFIL
 62
     4
 10
67.609898965415056
 20
-28.133537618592381
 30
0.0
  0
VERTEX
  5
2508
  8
SAPA_PROFIL
 62
     4
 10
68.012087173393382
 20
-27.87235354243855
 30
0.0
 42
-0.5920055144124249
  0
VERTEX
  5
2509
  8
SAPA_PROFIL
 62
     4
 10
68.473290675921277
 20
-28.125362298754052
 30
0.0
  0
VERTEX
  5
250A
  8
SAPA_PROFIL
 62
     4
 10
68.473290650646277
 20
-28.553815776044271
 30
0.0
 42
0.3735060174775405
  0
VERTEX
  5
250B
  8
SAPA_PROFIL
 62
     4
 10
68.731143922986377
 20
-28.850840443953949
 30
0.0
 42
0.0355900683670349
  0
VERTEX
  5
250C
  8
SAPA_PROFIL
 62
     4
 10
69.34701750978617
 20
-28.894734007986191
 30
0.0
 42
0.0624282003873116
  0
VERTEX
  5
250D
  8
SAPA_PROFIL
 62
     4
 10
70.418830697981292
 20
-28.760387685743218
 30
0.0
 42
0.3702522326309292
  0
VERTEX
  5
250E
  8
SAPA_PROFIL
 62
     4
 10
70.673290650647004
 20
-28.463864323949839
 30
0.0
  0
VERTEX
  5
250F
  8
SAPA_PROFIL
 62
     4
 10
70.673290675923013
 20
-23.44742333711633
 30
0.0
 42
0.5205670505515692
  0
VERTEX
  5
2510
  8
SAPA_PROFIL
 62
     4
 10
70.002280604260022
 20
-22.977577026723122
 30
0.0
  0
VERTEX
  5
2511
  8
SAPA_PROFIL
 62
     4
 10
68.802280604250598
 20
-23.414341307848101
 30
0.0
 42
0.3152987888807539
  0
VERTEX
  5
2512
  8
SAPA_PROFIL
 62
     4
 10
68.473290675912978
 20
-23.884187618243971
 30
0.0
  0
VERTEX
  5
2513
  8
SAPA_PROFIL
 62
     4
 10
68.473290675919813
 20
-24.825362298753049
 30
0.0
 42
-0.5862175119221242
  0
VERTEX
  5
2514
  8
SAPA_PROFIL
 62
     4
 10
68.016459350164695
 20
-25.081104229735018
 30
0.0
 42
0.0000002084758573
  0
SEQEND
  5
2515
  8
SAPA_PROFIL
 62
     4
  0
POLYLINE
  5
17DF
  8
SAPA_PROFIL
 66
     1
 10
0.0
 20
0.0
 30
0.0
 70
     1
  0
VERTEX
  5
2516
  8
SAPA_PROFIL
 10
-45.000000000000561
 20
48.799999999999038
 30
0.0
  0
VERTEX
  5
2517
  8
SAPA_PROFIL
 10
-45.000000000000561
 20
50.799999999999052
 30
0.0
  0
VERTEX
  5
2518
  8
SAPA_PROFIL
 10
-30.656854249492991
 20
50.799999999999052
 30
0.0
  0
VERTEX
  5
2519
  8
SAPA_PROFIL
 10
-25.000000000000568
 20
45.143145750506612
 30
0.0
  0
VERTEX
  5
251A
  8
SAPA_PROFIL
 10
-25.000000000000568
 20
25.799999999999049
 30
0.0
  0
VERTEX
  5
251B
  8
SAPA_PROFIL
 10
-27.000000000000568
 20
25.799999999999049
 30
0.0
  0
VERTEX
  5
251C
  8
SAPA_PROFIL
 10
-27.000000000000568
 20
31.107179676971551
 30
0.0
  0
VERTEX
  5
251D
  8
SAPA_PROFIL
 10
-26.600000000000708
 20
31.799999999999049
 30
0.0
  0
VERTEX
  5
251E
  8
SAPA_PROFIL
 10
-27.000000000000568
 20
32.492820323026763
 30
0.0
  0
VERTEX
  5
251F
  8
SAPA_PROFIL
 10
-27.000000000000568
 20
43.486291501014421
 30
0.0
 42
0.1989123673796584
  0
VERTEX
  5
2520
  8
SAPA_PROFIL
 10
-27.585786437627458
 20
44.900505063387527
 30
0.0
  0
VERTEX
  5
2521
  8
SAPA_PROFIL
 10
-30.899494936612321
 20
48.214213562372152
 30
0.0
 42
0.1989123673796572
  0
VERTEX
  5
2522
  8
SAPA_PROFIL
 10
-32.31370849898542
 20
48.799999999999038
 30
0.0
  0
VERTEX
  5
2523
  8
SAPA_PROFIL
 10
-38.307179676973078
 20
48.799999999999038
 30
0.0
  0
VERTEX
  5
2524
  8
SAPA_PROFIL
 10
-39.000000000000568
 20
49.199999999999129
 30
0.0
  0
VERTEX
  5
2525
  8
SAPA_PROFIL
 10
-39.692820323028279
 20
48.799999999999038
 30
0.0
  0
SEQEND
  5
2526
  8
SAPA_PROFIL
  0
POLYLINE
  5
17E0
  8
SAPA_PROFIL
 66
     1
 10
0.0
 20
0.0
 30
0.0
 70
     1
  0
VERTEX
  5
2527
  8
SAPA_PROFIL
 10
-14.9585786437575
 20
-62.691421355248387
 30
0.0
 42
-0.4142135623730879
  0
VERTEX
  5
2528
  8
SAPA_PROFIL
 10
-15.4585786437575
 20
-62.191421355248387
 30
0.0
  0
VERTEX
  5
2529
  8
SAPA_PROFIL
 10
-15.45857864375728
 20
-57.391421355248212
 30
0.0
 42
0.4142135623731014
  0
VERTEX
  5
252A
  8
SAPA_PROFIL
 10
-15.95857864375728
 20
-56.891421355248212
 30
0.0
  0
VERTEX
  5
252B
  8
SAPA_PROFIL
 10
-23.058578643756618
 20
-56.891421355247978
 30
0.0
 42
-0.4142135623730951
  0
VERTEX
  5
252C
  8
SAPA_PROFIL
 10
-23.558578643756618
 20
-56.391421355247992
 30
0.0
  0
VERTEX
  5
252D
  8
SAPA_PROFIL
 10
-23.558578643756618
 20
-46.791421355247621
 30
0.0
 42
-0.4142135623731054
  0
VERTEX
  5
252E
  8
SAPA_PROFIL
 10
-23.058578643756618
 20
-46.291421355247607
 30
0.0
  0
VERTEX
  5
252F
  8
SAPA_PROFIL
 10
-16.958578643756709
 20
-46.291421355247849
 30
0.0
 42
-0.4142135623730822
  0
VERTEX
  5
2530
  8
SAPA_PROFIL
 10
-16.458578643756709
 20
-46.791421355247842
 30
0.0
  0
VERTEX
  5
2531
  8
SAPA_PROFIL
 10
-16.458578643756709
 20
-51.891421355248667
 30
0.0
 42
0.4142135623730919
  0
VERTEX
  5
2532
  8
SAPA_PROFIL
 10
-15.958578643756709
 20
-52.391421355248667
 30
0.0
  0
VERTEX
  5
2533
  8
SAPA_PROFIL
 10
-12.25857864375984
 20
-52.391421355248667
 30
0.0
 42
-0.414213562373061
  0
VERTEX
  5
2534
  8
SAPA_PROFIL
 10
-11.75857864375984
 20
-52.89142135524866
 30
0.0
  0
VERTEX
  5
2535
  8
SAPA_PROFIL
 10
-11.75857864375882
 20
-62.191421355248387
 30
0.0
 42
-0.414213562373165
  0
VERTEX
  5
2536
  8
SAPA_PROFIL
 10
-12.25857864375882
 20
-62.691421355248387
 30
0.0
  0
SEQEND
  5
2537
  8
SAPA_PROFIL
  0
POLYLINE
  5
17E1
  8
SAPA_PROFIL
 66
     1
 10
0.0
 20
0.0
 30
0.0
 70
     1
  0
VERTEX
  5
2538
  8
SAPA_PROFIL
 10
-18.058578643756729
 20
-64.191421355248281
 30
0.0
  0
VERTEX
  5
2539
  8
SAPA_PROFIL
 10
-18.644962659517539
 20
-63.726497935682907
 30
0.0
 42
-0.7105995015651415
  0
VERTEX
  5
253A
  8
SAPA_PROFIL
 10
-18.45857864375682
 20
-63.191421355248053
 30
0.0
  0
VERTEX
  5
253B
  8
SAPA_PROFIL
 10
-17.45857864375693
 20
-63.191421355248281
 30
0.0
 42
0.4142135623731451
  0
VERTEX
  5
253C
  8
SAPA_PROFIL
 10
-16.95857864375682
 20
-62.691421355248281
 30
0.0
  0
VERTEX
  5
253D
  8
SAPA_PROFIL
 10
-16.95857864375682
 20
-58.89142135524844
 30
0.0
 42
0.4142135623730951
  0
VERTEX
  5
253E
  8
SAPA_PROFIL
 10
-17.45857864375682
 20
-58.39142135524844
 30
0.0
  0
VERTEX
  5
253F
  8
SAPA_PROFIL
 10
-23.058578643756729
 20
-58.391421355247992
 30
0.0
 42
0.4142135623730951
  0
VERTEX
  5
2540
  8
SAPA_PROFIL
 10
-23.558578643756729
 20
-58.891421355247992
 30
0.0
  0
VERTEX
  5
2541
  8
SAPA_PROFIL
 10
-23.558578643756729
 20
-62.69142135524816
 30
0.0
 42
0.4142135623730368
  0
VERTEX
  5
2542
  8
SAPA_PROFIL
 10
-23.058578643756849
 20
-63.191421355248167
 30
0.0
  0
VERTEX
  5
2543
  8
SAPA_PROFIL
 10
-22.058578643756729
 20
-63.191421355248281
 30
0.0
 42
-0.7105995015650846
  0
VERTEX
  5
2544
  8
SAPA_PROFIL
 10
-21.872194627996009
 20
-63.726497935682907
 30
0.0
  0
VERTEX
  5
2545
  8
SAPA_PROFIL
 10
-22.45857864375683
 20
-64.191421355248281
 30
0.0
  0
VERTEX
  5
2546
  8
SAPA_PROFIL
 10
-24.558578643756849
 20
-64.191421355248281
 30
0.0
 42
-0.4142135623730951
  0
VERTEX
  5
2547
  8
SAPA_PROFIL
 10
-25.058578643756849
 20
-63.691421355248281
 30
0.0
  0
VERTEX
  5
2548
  8
SAPA_PROFIL
 10
-25.058578643756618
 20
-44.791421355247621
 30
0.0
 42
-0.4142135623730951
  0
VERTEX
  5
2549
  8
SAPA_PROFIL
 10
-24.558578643756618
 20
-44.291421355247621
 30
0.0
  0
VERTEX
  5
254A
  8
SAPA_PROFIL
 10
-22.958578643756709
 20
-44.291421355247387
 30
0.0
  0
VERTEX
  5
254B
  8
SAPA_PROFIL
 10
-22.958578643756709
 20
-44.291421355247387
 30
0.0
 42
0.4142135623730868
  0
VERTEX
  5
254C
  8
SAPA_PROFIL
 10
-22.458578643756709
 20
-44.791421355247387
 30
0.0
  0
VERTEX
  5
254D
  8
SAPA_PROFIL
 10
-15.458578643756709
 20
-44.791421355247621
 30
0.0
 42
-0.4142135623730951
  0
VERTEX
  5
254E
  8
SAPA_PROFIL
 10
-14.958578643756709
 20
-45.291421355247621
 30
0.0
  0
VERTEX
  5
254F
  8
SAPA_PROFIL
 10
-14.958578643756709
 20
-50.391421355247978
 30
0.0
 42
0.4142135623730951
  0
VERTEX
  5
2550
  8
SAPA_PROFIL
 10
-14.458578643756709
 20
-50.891421355247992
 30
0.0
  0
VERTEX
  5
2551
  8
SAPA_PROFIL
 10
-11.458578643756709
 20
-50.891421355248212
 30
0.0
 42
0.4142135623730951
  0
VERTEX
  5
2552
  8
SAPA_PROFIL
 10
-10.958578643756709
 20
-50.391421355248099
 30
0.0
  0
VERTEX
  5
2553
  8
SAPA_PROFIL
 10
-10.958578643757621
 20
-34.491421355247667
 30
0.0
 42
0.4142135623730951
  0
VERTEX
  5
2554
  8
SAPA_PROFIL
 10
-11.25857864375757
 20
-34.191421355247712
 30
0.0
  0
VERTEX
  5
2555
  8
SAPA_PROFIL
 10
-12.546789523465231
 20
-34.191421355247833
 30
0.0
 42
-0.6681786379192988
  0
VERTEX
  5
2556
  8
SAPA_PROFIL
 10
-12.75892155782128
 20
-33.679289320891833
 30
0.0
  0
VERTEX
  5
2557
  8
SAPA_PROFIL
 10
-10.55892155782135
 20
-31.47928932089167
 30
0.0
 42
-0.1989123673796285
  0
VERTEX
  5
2558
  8
SAPA_PROFIL
 10
-10.34678952346542
 20
-31.391421355247761
 30
0.0
  0
VERTEX
  5
2559
  8
SAPA_PROFIL
 10
-9.7585786437574598
 20
-31.39142135524753
 30
0.0
 42
-0.4142135623730951
  0
VERTEX
  5
255A
  8
SAPA_PROFIL
 10
-9.4585786437576171
 20
-31.691421355247599
 30
0.0
  0
VERTEX
  5
255B
  8
SAPA_PROFIL
 10
-9.4585786437576171
 20
-50.39142135524844
 30
0.0
 42
0.4142135623730951
  0
VERTEX
  5
255C
  8
SAPA_PROFIL
 10
-8.9585786437576171
 20
-50.89142135524844
 30
0.0
  0
VERTEX
  5
255D
  8
SAPA_PROFIL
 10
-7.2585786437577999
 20
-50.89142135524844
 30
0.0
 42
0.4142135623730951
  0
VERTEX
  5
255E
  8
SAPA_PROFIL
 10
-6.7585786437577999
 20
-50.39142135524844
 30
0.0
  0
VERTEX
  5
255F
  8
SAPA_PROFIL
 10
-6.7585786437580282
 20
-38.891421355248667
 30
0.0
 42
-0.4142135623730951
  0
VERTEX
  5
2560
  8
SAPA_PROFIL
 10
-6.2585786437580282
 20
-38.391421355248667
 30
0.0
  0
VERTEX
  5
2561
  8
SAPA_PROFIL
 10
-5.7585786437577999
 20
-38.391421355248667
 30
0.0
 42
-0.4142135623730951
  0
VERTEX
  5
2562
  8
SAPA_PROFIL
 10
-5.2585786437577999
 20
-38.891421355248667
 30
0.0
  0
VERTEX
  5
2563
  8
SAPA_PROFIL
 10
-5.258578643758824
 20
-51.891421355248667
 30
0.0
 42
-0.4142135623730951
  0
VERTEX
  5
2564
  8
SAPA_PROFIL
 10
-5.758578643758824
 20
-52.391421355248667
 30
0.0
  0
VERTEX
  5
2565
  8
SAPA_PROFIL
 10
-9.7585786437598472
 20
-52.391421355248781
 30
0.0
 42
0.4142135623731284
  0
VERTEX
  5
2566
  8
SAPA_PROFIL
 10
-10.258578643759851
 20
-52.891421355248887
 30
0.0
  0
VERTEX
  5
2567
  8
SAPA_PROFIL
 10
-10.2585786437586
 20
-63.691421355248501
 30
0.0
 42
-0.4142135623730951
  0
VERTEX
  5
2568
  8
SAPA_PROFIL
 10
-10.75857864375859
 20
-64.191421355248494
 30
0.0
  0
SEQEND
  5
2569
  8
SAPA_PROFIL
  0
POLYLINE
  5
17E2
  8
SAPA_PROFIL
 66
     1
 10
0.0
 20
0.0
 30
0.0
 70
     1
  0
VERTEX
  5
256A
  8
SAPA_PROFIL
 10
22.800000000000178
 20
-91.098475071207986
 30
0.0
  0
VERTEX
  5
256B
  8
SAPA_PROFIL
 10
23.800000000000178
 20
-91.098475071207986
 30
0.0
  0
VERTEX
  5
256C
  8
SAPA_PROFIL
 10
23.800000000000178
 20
-88.498475071207835
 30
0.0
 42
-0.4142135623730951
  0
VERTEX
  5
256D
  8
SAPA_PROFIL
 10
24.300000000000178
 20
-87.998475071207821
 30
0.0
  0
VERTEX
  5
256E
  8
SAPA_PROFIL
 10
24.700000000000269
 20
-87.998475071207821
 30
0.0
 42
-0.4142135623730951
  0
VERTEX
  5
256F
  8
SAPA_PROFIL
 10
25.000000000000231
 20
-88.298475071207775
 30
0.0
  0
VERTEX
  5
2570
  8
SAPA_PROFIL
 10
25.000000000000231
 20
-105.9999999990104
 30
0.0
 42
-0.4142135623730951
  0
VERTEX
  5
2571
  8
SAPA_PROFIL
 10
24.500000000000231
 20
-106.4999999990104
 30
0.0
  0
VERTEX
  5
2572
  8
SAPA_PROFIL
 10
-24.499999999999769
 20
-106.4999999990104
 30
0.0
 42
-0.4142135623730951
  0
VERTEX
  5
2573
  8
SAPA_PROFIL
 10
-24.999999999999769
 20
-105.9999999990104
 30
0.0
  0
VERTEX
  5
2574
  8
SAPA_PROFIL
 10
-24.999999999999769
 20
-88.298475071207775
 30
0.0
 42
-0.4142135623730951
  0
VERTEX
  5
2575
  8
SAPA_PROFIL
 10
-24.699999999999822
 20
-87.998475071207821
 30
0.0
  0
VERTEX
  5
2576
  8
SAPA_PROFIL
 10
-24.299999999999731
 20
-87.998475071207821
 30
0.0
 42
-0.4142135623730951
  0
VERTEX
  5
2577
  8
SAPA_PROFIL
 10
-23.799999999999731
 20
-88.498475071207835
 30
0.0
  0
VERTEX
  5
2578
  8
SAPA_PROFIL
 10
-23.799999999999731
 20
-91.098475071207986
 30
0.0
  0
VERTEX
  5
2579
  8
SAPA_PROFIL
 10
-22.799999999999731
 20
-91.098475071207986
 30
0.0
  0
VERTEX
  5
257A
  8
SAPA_PROFIL
 10
-22.22033922157857
 20
-92.102507830840963
 30
0.0
 42
-0.4155392929676362
  0
VERTEX
  5
257B
  8
SAPA_PROFIL
 10
-22.51631264788443
 20
-93.197126802632965
 30
0.0
  0
VERTEX
  5
257C
  8
SAPA_PROFIL
 10
-23.799999999999731
 20
-93.938264040931927
 30
0.0
  0
VERTEX
  5
257D
  8
SAPA_PROFIL
 10
-23.799999999999731
 20
-104.09999999901061
 30
0.0
 42
0.4142135623730951
  0
VERTEX
  5
257E
  8
SAPA_PROFIL
 10
-22.799999999999731
 20
-105.09999999901061
 30
0.0
  0
VERTEX
  5
257F
  8
SAPA_PROFIL
 10
22.800000000000178
 20
-105.09999999901061
 30
0.0
 42
0.4142135623730951
  0
VERTEX
  5
2580
  8
SAPA_PROFIL
 10
23.800000000000178
 20
-104.09999999901061
 30
0.0
  0
VERTEX
  5
2581
  8
SAPA_PROFIL
 10
23.800000000000178
 20
-93.938264040931927
 30
0.0
  0
VERTEX
  5
2582
  8
SAPA_PROFIL
 10
22.516312647884892
 20
-93.197126802632965
 30
0.0
 42
-0.4155392929676362
  0
VERTEX
  5
2583
  8
SAPA_PROFIL
 10
22.220339221579032
 20
-92.102507830840963
 30
0.0
  0
SEQEND
  5
2584
  8
SAPA_PROFIL
  0
POLYLINE
  5
17E3
  8
SAPA_PROFIL
 66
     1
 10
0.0
 20
0.0
 30
0.0
 70
     1
  0
VERTEX
  5
2585
  8
SAPA_PROFIL
 10
-20.85000000000036
 20
-86.499999999010456
 30
0.0
 42
-0.1989123673797145
  0
VERTEX
  5
2586
  8
SAPA_PROFIL
 10
-20.637867965644091
 20
-86.587867964654379
 30
0.0
  0
VERTEX
  5
2587
  8
SAPA_PROFIL
 10
-20.237867965644451
 20
-86.987867964654455
 30
0.0
 42
-0.668178637919182
  0
VERTEX
  5
2588
  8
SAPA_PROFIL
 10
-20.450000000000269
 20
-87.499999999010484
 30
0.0
  0
VERTEX
  5
2589
  8
SAPA_PROFIL
 10
-21.300000000000178
 20
-87.499999999010484
 30
0.0
 42
0.4142135623730284
  0
VERTEX
  5
258A
  8
SAPA_PROFIL
 10
-21.800000000000178
 20
-87.999999999010456
 30
0.0
  0
VERTEX
  5
258B
  8
SAPA_PROFIL
 10
-21.800000000000178
 20
-88.390808928730607
 30
0.0
 42
0.17632698070845
  0
VERTEX
  5
258C
  8
SAPA_PROFIL
 10
-21.729813332935919
 20
-88.583645211636394
 30
0.0
  0
VERTEX
  5
258D
  8
SAPA_PROFIL
 10
-20.211721773135199
 20
-90.392836281916061
 30
0.0
 42
0.2216946626429421
  0
VERTEX
  5
258E
  8
SAPA_PROFIL
 10
-19.98190844019928
 20
-90.499999999010015
 30
0.0
  0
VERTEX
  5
258F
  8
SAPA_PROFIL
 10
-16.450000000000269
 20
-90.499999999010456
 30
0.0
 42
0.4142135623730951
  0
VERTEX
  5
2590
  8
SAPA_PROFIL
 10
-16.150000000000091
 20
-90.199999999010288
 30
0.0
  0
VERTEX
  5
2591
  8
SAPA_PROFIL
 10
-16.150000000000539
 20
-87.799999999010197
 30
0.0
 42
0.4142135623730951
  0
VERTEX
  5
2592
  8
SAPA_PROFIL
 10
-16.450000000000269
 20
-87.499999999010484
 30
0.0
  0
VERTEX
  5
2593
  8
SAPA_PROFIL
 10
-16.85000000000036
 20
-87.499999999010484
 30
0.0
 42
-0.6681786379193188
  0
VERTEX
  5
2594
  8
SAPA_PROFIL
 10
-17.062132034356178
 20
-86.987867964654455
 30
0.0
  0
VERTEX
  5
2595
  8
SAPA_PROFIL
 10
-16.662132034356091
 20
-86.587867964654379
 30
0.0
 42
-0.198912367379658
  0
VERTEX
  5
2596
  8
SAPA_PROFIL
 10
-16.450000000000269
 20
-86.499999999010456
 30
0.0
  0
VERTEX
  5
2597
  8
SAPA_PROFIL
 10
-14.65000000000054
 20
-86.499999999010015
 30
0.0
 42
-0.4142135623731284
  0
VERTEX
  5
2598
  8
SAPA_PROFIL
 10
-14.15000000000054
 20
-86.999999999010015
 30
0.0
  0
VERTEX
  5
2599
  8
SAPA_PROFIL
 10
-14.150000000000089
 20
-91.499999999010925
 30
0.0
 42
-0.4142135623730951
  0
VERTEX
  5
259A
  8
SAPA_PROFIL
 10
-14.650000000000089
 20
-91.999999999010925
 30
0.0
  0
VERTEX
  5
259B
  8
SAPA_PROFIL
 10
-18.650000000000091
 20
-91.999999999010015
 30
0.0
 42
0.4142135623729619
  0
VERTEX
  5
259C
  8
SAPA_PROFIL
 10
-19.150000000000091
 20
-92.499999999010015
 30
0.0
  0
VERTEX
  5
259D
  8
SAPA_PROFIL
 10
-19.150000000000091
 20
-94.516956646213657
 30
0.0
 42
0.1763269807084973
  0
VERTEX
  5
259E
  8
SAPA_PROFIL
 10
-19.033022221559349
 20
-94.838350451057053
 30
0.0
  0
VERTEX
  5
259F
  8
SAPA_PROFIL
 10
-16.949501460030199
 20
-97.321393803853425
 30
0.0
 42
0.2216946626428772
  0
VERTEX
  5
25A0
  8
SAPA_PROFIL
 10
-16.566479238470951
 20
-97.499999999010015
 30
0.0
  0
VERTEX
  5
25A1
  8
SAPA_PROFIL
 10
-10.56853372839123
 20
-97.499999999010484
 30
0.0
 42
0.315298788878991
  0
VERTEX
  5
25A2
  8
SAPA_PROFIL
 10
-10.098687417998461
 20
-97.171010070673219
 30
0.0
  0
VERTEX
  5
25A3
  8
SAPA_PROFIL
 10
-8.6380638705318233
 20
-93.157979855684516
 30
0.0
 42
-0.3152987888789731
  0
VERTEX
  5
25A4
  8
SAPA_PROFIL
 10
-7.6983712497458319
 20
-92.499999999010015
 30
0.0
  0
VERTEX
  5
25A5
  8
SAPA_PROFIL
 10
-6.6500000000000901
 20
-92.499999999010015
 30
0.0
 42
0.4142135623732616
  0
VERTEX
  5
25A6
  8
SAPA_PROFIL
 10
-6.3499999999999091
 20
-92.199999999010288
 30
0.0
  0
VERTEX
  5
25A7
  8
SAPA_PROFIL
 10
-6.3499999999999091
 20
-91.799999999010197
 30
0.0
 42
-0.4142135623731506
  0
VERTEX
  5
25A8
  8
SAPA_PROFIL
 10
-6.050000000000181
 20
-91.499999999010015
 30
0.0
  0
VERTEX
  5
25A9
  8
SAPA_PROFIL
 10
-5.6500000000000901
 20
-91.499999999010015
 30
0.0
 42
-0.4142135623731505
  0
VERTEX
  5
25AA
  8
SAPA_PROFIL
 10
-5.3499999999999091
 20
-91.799999999010197
 30
0.0
  0
VERTEX
  5
25AB
  8
SAPA_PROFIL
 10
-5.3499999999999091
 20
-92.199999999010288
 30
0.0
 42
0.4142135623732061
  0
VERTEX
  5
25AC
  8
SAPA_PROFIL
 10
-5.050000000000181
 20
-92.499999999010015
 30
0.0
  0
VERTEX
  5
25AD
  8
SAPA_PROFIL
 10
-0.6242640687119092
 20
-92.499999999010015
 30
0.0
 42
-0.198912367379577
  0
VERTEX
  5
25AE
  8
SAPA_PROFIL
 10
-0.4121320343560911
 20
-92.587867964654379
 30
0.0
  0
VERTEX
  5
25AF
  8
SAPA_PROFIL
 10
0.0
 20
-92.999999999010015
 30
0.0
  0
VERTEX
  5
25B0
  8
SAPA_PROFIL
 10
0.4121320343560911
 20
-92.587867964654379
 30
0.0
 42
-0.1989123673795771
  0
VERTEX
  5
25B1
  8
SAPA_PROFIL
 10
0.6242640687119092
 20
-92.499999999010015
 30
0.0
  0
VERTEX
  5
25B2
  8
SAPA_PROFIL
 10
5.0499999999997272
 20
-92.499999999010015
 30
0.0
 42
0.4142135623732059
  0
VERTEX
  5
25B3
  8
SAPA_PROFIL
 10
5.3499999999999091
 20
-92.199999999010288
 30
0.0
  0
VERTEX
  5
25B4
  8
SAPA_PROFIL
 10
5.3499999999999091
 20
-91.799999999010197
 30
0.0
 42
-0.4142135623731506
  0
VERTEX
  5
25B5
  8
SAPA_PROFIL
 10
5.6500000000000901
 20
-91.499999999010015
 30
0.0
  0
VERTEX
  5
25B6
  8
SAPA_PROFIL
 10
6.0499999999997272
 20
-91.499999999010015
 30
0.0
 42
-0.4142135623731505
  0
VERTEX
  5
25B7
  8
SAPA_PROFIL
 10
6.3499999999999091
 20
-91.799999999010197
 30
0.0
  0
VERTEX
  5
25B8
  8
SAPA_PROFIL
 10
6.3499999999999091
 20
-92.199999999010288
 30
0.0
 42
0.4142135623732615
  0
VERTEX
  5
25B9
  8
SAPA_PROFIL
 10
6.6500000000000901
 20
-92.499999999010015
 30
0.0
  0
VERTEX
  5
25BA
  8
SAPA_PROFIL
 10
7.698371249745378
 20
-92.499999999010015
 30
0.0
 42
-0.3152987888789731
  0
VERTEX
  5
25BB
  8
SAPA_PROFIL
 10
8.6380638705313686
 20
-93.157979855684516
 30
0.0
  0
VERTEX
  5
25BC
  8
SAPA_PROFIL
 10
10.09868741799801
 20
-97.171010070673219
 30
0.0
 42
0.315298788878991
  0
VERTEX
  5
25BD
  8
SAPA_PROFIL
 10
10.56853372839123
 20
-97.499999999010484
 30
0.0
  0
VERTEX
  5
25BE
  8
SAPA_PROFIL
 10
16.566479238470489
 20
-97.499999999010015
 30
0.0
 42
0.2216946626428772
  0
VERTEX
  5
25BF
  8
SAPA_PROFIL
 10
16.949501460029751
 20
-97.321393803853425
 30
0.0
  0
VERTEX
  5
25C0
  8
SAPA_PROFIL
 10
19.033022221559349
 20
-94.838350451057053
 30
0.0
 42
0.1763269807084973
  0
VERTEX
  5
25C1
  8
SAPA_PROFIL
 10
19.150000000000091
 20
-94.516956646213657
 30
0.0
  0
VERTEX
  5
25C2
  8
SAPA_PROFIL
 10
19.150000000000091
 20
-92.499999999010015
 30
0.0
 42
0.4142135623729619
  0
VERTEX
  5
25C3
  8
SAPA_PROFIL
 10
18.650000000000091
 20
-91.999999999010015
 30
0.0
  0
VERTEX
  5
25C4
  8
SAPA_PROFIL
 10
14.650000000000089
 20
-91.999999999010925
 30
0.0
 42
-0.4142135623730951
  0
VERTEX
  5
25C5
  8
SAPA_PROFIL
 10
14.150000000000089
 20
-91.499999999010925
 30
0.0
  0
VERTEX
  5
25C6
  8
SAPA_PROFIL
 10
14.150000000000089
 20
-86.999999999010015
 30
0.0
 42
-0.4142135623731285
  0
VERTEX
  5
25C7
  8
SAPA_PROFIL
 10
14.650000000000089
 20
-86.499999999010015
 30
0.0
  0
VERTEX
  5
25C8
  8
SAPA_PROFIL
 10
16.450000000000269
 20
-86.499999999010456
 30
0.0
 42
-0.198912367379658
  0
VERTEX
  5
25C9
  8
SAPA_PROFIL
 10
16.662132034356091
 20
-86.587867964654379
 30
0.0
  0
VERTEX
  5
25CA
  8
SAPA_PROFIL
 10
17.062132034356178
 20
-86.987867964654455
 30
0.0
 42
-0.6681786379193188
  0
VERTEX
  5
25CB
  8
SAPA_PROFIL
 10
16.849999999999909
 20
-87.499999999010484
 30
0.0
  0
VERTEX
  5
25CC
  8
SAPA_PROFIL
 10
16.450000000000269
 20
-87.499999999010484
 30
0.0
 42
0.4142135623730951
  0
VERTEX
  5
25CD
  8
SAPA_PROFIL
 10
16.150000000000091
 20
-87.799999999010197
 30
0.0
  0
VERTEX
  5
25CE
  8
SAPA_PROFIL
 10
16.150000000000091
 20
-90.199999999010288
 30
0.0
 42
0.4142135623730951
  0
VERTEX
  5
25CF
  8
SAPA_PROFIL
 10
16.450000000000269
 20
-90.499999999010456
 30
0.0
  0
VERTEX
  5
25D0
  8
SAPA_PROFIL
 10
19.98190844019928
 20
-90.499999999010015
 30
0.0
 42
0.221694662642942
  0
VERTEX
  5
25D1
  8
SAPA_PROFIL
 10
20.211721773134741
 20
-90.392836281916061
 30
0.0
  0
VERTEX
  5
25D2
  8
SAPA_PROFIL
 10
21.729813332935471
 20
-88.583645211636394
 30
0.0
 42
0.1763269807084499
  0
VERTEX
  5
25D3
  8
SAPA_PROFIL
 10
21.799999999999731
 20
-88.390808928730607
 30
0.0
  0
VERTEX
  5
25D4
  8
SAPA_PROFIL
 10
21.800000000000178
 20
-87.999999999010456
 30
0.0
 42
0.4142135623730284
  0
VERTEX
  5
25D5
  8
SAPA_PROFIL
 10
21.300000000000178
 20
-87.499999999010484
 30
0.0
  0
VERTEX
  5
25D6
  8
SAPA_PROFIL
 10
20.450000000000269
 20
-87.499999999010484
 30
0.0
 42
-0.668178637919182
  0
VERTEX
  5
25D7
  8
SAPA_PROFIL
 10
20.237867965644
 20
-86.987867964654455
 30
0.0
  0
VERTEX
  5
25D8
  8
SAPA_PROFIL
 10
20.637867965644091
 20
-86.587867964654379
 30
0.0
 42
-0.1989123673797144
  0
VERTEX
  5
25D9
  8
SAPA_PROFIL
 10
20.849999999999909
 20
-86.499999999010456
 30
0.0
  0
VERTEX
  5
25DA
  8
SAPA_PROFIL
 10
23.300000000000178
 20
-86.499999999010456
 30
0.0
 42
-0.4142135623730951
  0
VERTEX
  5
25DB
  8
SAPA_PROFIL
 10
23.800000000000178
 20
-86.99999999901047
 30
0.0
  0
VERTEX
  5
25DC
  8
SAPA_PROFIL
 10
23.800000000000178
 20
-90.699999999010274
 30
0.0
 42
-0.4142135623730951
  0
VERTEX
  5
25DD
  8
SAPA_PROFIL
 10
23.500000000000451
 20
-90.99999999901047
 30
0.0
  0
VERTEX
  5
25DE
  8
SAPA_PROFIL
 10
22.473205080757001
 20
-90.99999999901047
 30
0.0
 42
0.2679491924311428
  0
VERTEX
  5
25DF
  8
SAPA_PROFIL
 10
22.21339745962177
 20
-91.149999999010575
 30
0.0
  0
VERTEX
  5
25E0
  8
SAPA_PROFIL
 10
21.325961894323431
 20
-92.687083486550804
 30
0.0
 42
0.4142135623731709
  0
VERTEX
  5
25E1
  8
SAPA_PROFIL
 10
21.435769515459011
 20
-93.096891107686133
 30
0.0
  0
VERTEX
  5
25E2
  8
SAPA_PROFIL
 10
21.96791111376206
 20
-93.404123202713436
 30
0.0
 42
-0.4663076581551056
  0
VERTEX
  5
25E3
  8
SAPA_PROFIL
 10
22.233955556881028
 20
-94.912936216184335
 30
0.0
  0
VERTEX
  5
25E4
  8
SAPA_PROFIL
 10
18.115270605417209
 20
-99.821393803853425
 30
0.0
 42
-0.2216946626428921
  0
VERTEX
  5
25E5
  8
SAPA_PROFIL
 10
17.732248383857488
 20
-99.999999999010484
 30
0.0
  0
VERTEX
  5
25E6
  8
SAPA_PROFIL
 10
9.7002075382097246
 20
-99.999999999010484
 30
0.0
 42
-0.3152987888789878
  0
VERTEX
  5
25E7
  8
SAPA_PROFIL
 10
8.760514917423734
 20
-99.342020142335983
 30
0.0
  0
VERTEX
  5
25E8
  8
SAPA_PROFIL
 10
7.4196339112449996
 20
-95.657979855684516
 30
0.0
 42
0.3152987888789804
  0
VERTEX
  5
25E9
  8
SAPA_PROFIL
 10
6.479941290459009
 20
-94.999999999010015
 30
0.0
  0
VERTEX
  5
25EA
  8
SAPA_PROFIL
 10
-6.4799412904594638
 20
-94.999999999010015
 30
0.0
 42
0.3152987888789804
  0
VERTEX
  5
25EB
  8
SAPA_PROFIL
 10
-7.4196339112454552
 20
-95.657979855684516
 30
0.0
  0
VERTEX
  5
25EC
  8
SAPA_PROFIL
 10
-8.760514917423734
 20
-99.342020142335983
 30
0.0
 42
-0.3152987888789877
  0
VERTEX
  5
25ED
  8
SAPA_PROFIL
 10
-9.7002075382097246
 20
-99.999999999010484
 30
0.0
  0
VERTEX
  5
25EE
  8
SAPA_PROFIL
 10
-17.73224838385795
 20
-99.999999999010484
 30
0.0
 42
-0.2216946626428921
  0
VERTEX
  5
25EF
  8
SAPA_PROFIL
 10
-18.115270605417209
 20
-99.821393803853425
 30
0.0
  0
VERTEX
  5
25F0
  8
SAPA_PROFIL
 10
-22.233955556881028
 20
-94.912936216184335
 30
0.0
 42
-0.4663076581551056
  0
VERTEX
  5
25F1
  8
SAPA_PROFIL
 10
-21.967911113762511
 20
-93.404123202713436
 30
0.0
  0
VERTEX
  5
25F2
  8
SAPA_PROFIL
 10
-21.435769515459011
 20
-93.096891107686133
 30
0.0
 42
0.414213562373157
  0
VERTEX
  5
25F3
  8
SAPA_PROFIL
 10
-21.325961894323878
 20
-92.687083486550804
 30
0.0
  0
VERTEX
  5
25F4
  8
SAPA_PROFIL
 10
-22.213397459622229
 20
-91.149999999010575
 30
0.0
 42
0.2679491924311554
  0
VERTEX
  5
25F5
  8
SAPA_PROFIL
 10
-22.473205080757449
 20
-90.99999999901047
 30
0.0
  0
VERTEX
  5
25F6
  8
SAPA_PROFIL
 10
-23.500000000000451
 20
-90.99999999901047
 30
0.0
 42
-0.4142135623730951
  0
VERTEX
  5
25F7
  8
SAPA_PROFIL
 10
-23.80000000000064
 20
-90.699999999010274
 30
0.0
  0
VERTEX
  5
25F8
  8
SAPA_PROFIL
 10
-23.800000000000178
 20
-86.99999999901047
 30
0.0
 42
-0.4142135623730951
  0
VERTEX
  5
25F9
  8
SAPA_PROFIL
 10
-23.300000000000178
 20
-86.499999999010456
 30
0.0
  0
SEQEND
  5
25FA
  8
SAPA_PROFIL
  0
POLYLINE
  5
17E4
  8
SAPA_PROFIL
 62
     4
 66
     1
 10
0.0
 20
0.0
 30
0.0
 70
     1
  0
VERTEX
  5
25FB
  8
SAPA_PROFIL
 62
     4
 10
1.055634910786466
 20
-88.358578641879717
 30
0.0
 42
0.1989123671061458
  0
VERTEX
  5
25FC
  8
SAPA_PROFIL
 62
     4
 10
0.2071067742556352
 20
-88.00710678019658
 30
0.0
  0
VERTEX
  5
25FD
  8
SAPA_PROFIL
 62
     4
 10
-0.2071067742555215
 20
-88.00710678019658
 30
0.0
 42
0.1989123671061505
  0
VERTEX
  5
25FE
  8
SAPA_PROFIL
 62
     4
 10
-1.0556349107863521
 20
-88.358578641879717
 30
0.0
  0
VERTEX
  5
25FF
  8
SAPA_PROFIL
 62
     4
 10
-3.287867965867235
 20
-90.590811692262079
 30
0.0
 42
-0.6681786375387371
  0
VERTEX
  5
2600
  8
SAPA_PROFIL
 62
     4
 10
-3.7999999999999541
 20
-90.378679657682881
 30
0.0
  0
VERTEX
  5
2601
  8
SAPA_PROFIL
 62
     4
 10
-3.7999999999999541
 20
-73.799999999010083
 30
0.0
 42
-0.4142135623731034
  0
VERTEX
  5
2602
  8
SAPA_PROFIL
 62
     4
 10
-3.4999999999999432
 20
-73.499999999010072
 30
0.0
  0
VERTEX
  5
2603
  8
SAPA_PROFIL
 62
     4
 10
3.4999999999999432
 20
-73.499999999010072
 30
0.0
 42
-0.4142135623731034
  0
VERTEX
  5
2604
  8
SAPA_PROFIL
 62
     4
 10
3.8000000000000109
 20
-73.799999999010083
 30
0.0
  0
VERTEX
  5
2605
  8
SAPA_PROFIL
 62
     4
 10
3.8000000000000682
 20
-90.378679657682881
 30
0.0
 42
-0.6681786375387019
  0
VERTEX
  5
2606
  8
SAPA_PROFIL
 62
     4
 10
3.2878679658673491
 20
-90.590811692262079
 30
0.0
  0
SEQEND
  5
2607
  8
SAPA_PROFIL
 62
     4
  0
POLYLINE
  5
17E5
  8
SAPA_PROFIL
 62
     4
 66
     1
 10
0.0
 20
0.0
 30
0.0
 70
     1
  0
VERTEX
  5
2608
  8
SAPA_PROFIL
 62
     4
 10
-3.7999999999999541
 20
-72.19999999901006
 30
0.0
  0
VERTEX
  5
2609
  8
SAPA_PROFIL
 62
     4
 10
-3.7999999999999541
 20
-53.999999999010022
 30
0.0
 42
-0.4142135623730951
  0
VERTEX
  5
260A
  8
SAPA_PROFIL
 62
     4
 10
-3.5
 20
-53.699999999010011
 30
0.0
  0
VERTEX
  5
260B
  8
SAPA_PROFIL
 62
     4
 10
-2.6029437251521581
 20
-53.69999999901006
 30
0.0
  0
VERTEX
  5
260C
  8
SAPA_PROFIL
 62
     4
 10
-1.0499999999999541
 20
-52.147056273857629
 30
0.0
  0
VERTEX
  5
260D
  8
SAPA_PROFIL
 62
     4
 10
-1.0499999999999541
 20
-46.568653346957198
 30
0.0
  0
VERTEX
  5
260E
  8
SAPA_PROFIL
 62
     4
 10
-0.4763139720814138
 20
-45.57499999901006
 30
0.0
 42
-0.5773502691896344
  0
VERTEX
  5
260F
  8
SAPA_PROFIL
 62
     4
 10
0.4763139720814707
 20
-45.574999999009997
 30
0.0
  0
VERTEX
  5
2610
  8
SAPA_PROFIL
 62
     4
 10
1.050000000000068
 20
-46.568653346957369
 30
0.0
  0
VERTEX
  5
2611
  8
SAPA_PROFIL
 62
     4
 10
1.050000000000068
 20
-52.1470562738578
 30
0.0
  0
VERTEX
  5
2612
  8
SAPA_PROFIL
 62
     4
 10
2.6029437251522718
 20
-53.69999999901006
 30
0.0
  0
VERTEX
  5
2613
  8
SAPA_PROFIL
 62
     4
 10
3.5000000000001128
 20
-53.699999999010011
 30
0.0
 42
-0.4142135623730951
  0
VERTEX
  5
2614
  8
SAPA_PROFIL
 62
     4
 10
3.8000000000000682
 20
-53.999999999010022
 30
0.0
  0
VERTEX
  5
2615
  8
SAPA_PROFIL
 62
     4
 10
3.8000000000000109
 20
-72.19999999901006
 30
0.0
 42
-0.4142135623730951
  0
VERTEX
  5
2616
  8
SAPA_PROFIL
 62
     4
 10
3.500000000000056
 20
-72.499999999010015
 30
0.0
  0
VERTEX
  5
2617
  8
SAPA_PROFIL
 62
     4
 10
-3.500000000000056
 20
-72.499999999010072
 30
0.0
 42
-0.4142135623730951
  0
SEQEND
  5
2618
  8
SAPA_PROFIL
 62
     4
  0
POLYLINE
  5
17E6
  8
SAPA_PROFIL
 62
     4
 66
     1
 10
0.0
 20
0.0
 30
0.0
 70
     1
  0
VERTEX
  5
2619
  8
SAPA_PROFIL
 62
     4
 10
0.3535533839706204
 20
-89.353553389603292
 30
0.0
 42
0.4142135623730951
  0
VERTEX
  5
261A
  8
SAPA_PROFIL
 62
     4
 10
-0.3535533972159328
 20
-89.353553389603292
 30
0.0
  0
VERTEX
  5
261B
  8
SAPA_PROFIL
 62
     4
 10
-3.5
 20
-92.499999999010015
 30
0.0
  0
VERTEX
  5
261C
  8
SAPA_PROFIL
 62
     4
 10
-5.0
 20
-92.499999999010015
 30
0.0
  0
VERTEX
  5
261D
  8
SAPA_PROFIL
 62
     4
 10
-5.0
 20
-52.999999999010008
 30
0.0
 42
-0.4142135623730951
  0
VERTEX
  5
261E
  8
SAPA_PROFIL
 62
     4
 10
-4.5
 20
-52.499999999010008
 30
0.0
  0
VERTEX
  5
261F
  8
SAPA_PROFIL
 62
     4
 10
-3.0999999999999091
 20
-52.499999999010008
 30
0.0
  0
VERTEX
  5
2620
  8
SAPA_PROFIL
 62
     4
 10
-2.25
 20
-51.649999999010049
 30
0.0
  0
VERTEX
  5
2621
  8
SAPA_PROFIL
 62
     4
 10
-2.25
 20
-47.047114316039988
 30
0.0
  0
VERTEX
  5
2622
  8
SAPA_PROFIL
 62
     4
 10
-1.1691342951090169
 20
-45.174999999010019
 30
0.0
 42
-0.5773502691896344
  0
VERTEX
  5
2623
  8
SAPA_PROFIL
 62
     4
 10
1.169134295109074
 20
-45.174999999010019
 30
0.0
  0
VERTEX
  5
2624
  8
SAPA_PROFIL
 62
     4
 10
2.2500000000001128
 20
-47.047114316040172
 30
0.0
  0
VERTEX
  5
2625
  8
SAPA_PROFIL
 62
     4
 10
2.2500000000001128
 20
-51.649999999010049
 30
0.0
  0
VERTEX
  5
2626
  8
SAPA_PROFIL
 62
     4
 10
3.1000000000000218
 20
-52.499999999010008
 30
0.0
  0
VERTEX
  5
2627
  8
SAPA_PROFIL
 62
     4
 10
4.5
 20
-52.499999999010008
 30
0.0
 42
-0.4142135623730951
  0
VERTEX
  5
2628
  8
SAPA_PROFIL
 62
     4
 10
5.0
 20
-52.999999999010008
 30
0.0
  0
VERTEX
  5
2629
  8
SAPA_PROFIL
 62
     4
 10
5.0
 20
-92.499999999010015
 30
0.0
  0
VERTEX
  5
262A
  8
SAPA_PROFIL
 62
     4
 10
3.5
 20
-92.499999999010015
 30
0.0
  0
SEQEND
  5
262B
  8
SAPA_PROFIL
 62
     4
  0
POLYLINE
  5
17E7
  8
SAPA_PROFIL
 66
     1
 10
0.0
 20
0.0
 30
0.0
 70
     1
  0
VERTEX
  5
262C
  8
SAPA_PROFIL
 10
-2.700000000000272
 20
-33.050000000001091
 30
0.0
  0
VERTEX
  5
262D
  8
SAPA_PROFIL
 10
-2.0767196966983188
 20
-31.67376540642476
 30
0.0
 42
0.5450207798987328
  0
VERTEX
  5
262E
  8
SAPA_PROFIL
 10
-2.350000000000136
 20
-31.25000000000114
 30
0.0
  0
VERTEX
  5
262F
  8
SAPA_PROFIL
 10
-2.700000000000272
 20
-31.25000000000114
 30
0.0
  0
VERTEX
  5
2630
  8
SAPA_PROFIL
 10
-2.700000000000272
 20
-31.00000000000114
 30
0.0
 42
-0.4142135623730951
  0
VERTEX
  5
2631
  8
SAPA_PROFIL
 10
-1.700000000000272
 20
-30.00000000000114
 30
0.0
  0
VERTEX
  5
2632
  8
SAPA_PROFIL
 10
1.6999999999998181
 20
-30.00000000000114
 30
0.0
 42
-0.4142135623730951
  0
VERTEX
  5
2633
  8
SAPA_PROFIL
 10
2.6999999999998181
 20
-31.00000000000114
 30
0.0
  0
VERTEX
  5
2634
  8
SAPA_PROFIL
 10
2.6999999999998181
 20
-32.150000000001
 30
0.0
  0
VERTEX
  5
2635
  8
SAPA_PROFIL
 10
2.3499999999996808
 20
-32.150000000001
 30
0.0
 42
0.5450200690651551
  0
VERTEX
  5
2636
  8
SAPA_PROFIL
 10
2.0767189999999109
 20
-32.573765000001011
 30
0.0
  0
VERTEX
  5
2637
  8
SAPA_PROFIL
 10
2.6999999999998181
 20
-33.950000000000948
 30
0.0
  0
VERTEX
  5
2638
  8
SAPA_PROFIL
 10
2.3499999999996808
 20
-33.950000000000948
 30
0.0
 42
0.5450200690651692
  0
VERTEX
  5
2639
  8
SAPA_PROFIL
 10
2.0767189999999109
 20
-34.373765000000958
 30
0.0
  0
VERTEX
  5
263A
  8
SAPA_PROFIL
 10
2.6999999999998181
 20
-35.750000000001137
 30
0.0
  0
VERTEX
  5
263B
  8
SAPA_PROFIL
 10
2.3499999999996808
 20
-35.750000000001137
 30
0.0
 42
0.5450200690651619
  0
VERTEX
  5
263C
  8
SAPA_PROFIL
 10
2.0767189999999109
 20
-36.17376500000114
 30
0.0
  0
VERTEX
  5
263D
  8
SAPA_PROFIL
 10
2.6999999999998181
 20
-37.550000000001091
 30
0.0
  0
VERTEX
  5
263E
  8
SAPA_PROFIL
 10
2.3499999999996808
 20
-37.550000000001091
 30
0.0
 42
0.5450200690651619
  0
VERTEX
  5
263F
  8
SAPA_PROFIL
 10
2.0767189999999109
 20
-37.973765000001102
 30
0.0
  0
VERTEX
  5
2640
  8
SAPA_PROFIL
 10
2.6999999999998181
 20
-39.350000000001053
 30
0.0
  0
VERTEX
  5
2641
  8
SAPA_PROFIL
 10
2.3499999999996808
 20
-39.350000000001053
 30
0.0
 42
0.5450200690651692
  0
VERTEX
  5
2642
  8
SAPA_PROFIL
 10
2.0767189999999109
 20
-39.773765000001049
 30
0.0
  0
VERTEX
  5
2643
  8
SAPA_PROFIL
 10
2.6999999999998181
 20
-41.150000000001
 30
0.0
  0
VERTEX
  5
2644
  8
SAPA_PROFIL
 10
2.6999999999998181
 20
-41.450000000000948
 30
0.0
  0
VERTEX
  5
2645
  8
SAPA_PROFIL
 10
-2.42826763351104
 20
-41.450000000000948
 30
0.0
  0
VERTEX
  5
2646
  8
SAPA_PROFIL
 10
-2.0767196966983188
 20
-40.673765406424756
 30
0.0
 42
0.5450207798987328
  0
VERTEX
  5
2647
  8
SAPA_PROFIL
 10
-2.350000000000136
 20
-40.250000000001137
 30
0.0
  0
VERTEX
  5
2648
  8
SAPA_PROFIL
 10
-2.700000000000272
 20
-40.250000000001137
 30
0.0
  0
VERTEX
  5
2649
  8
SAPA_PROFIL
 10
-2.0767200000002499
 20
-38.873765000000958
 30
0.0
 42
0.5450205149791638
  0
VERTEX
  5
264A
  8
SAPA_PROFIL
 10
-2.350000000000136
 20
-38.450000000000962
 30
0.0
  0
VERTEX
  5
264B
  8
SAPA_PROFIL
 10
-2.700000000000272
 20
-38.450000000000962
 30
0.0
  0
VERTEX
  5
264C
  8
SAPA_PROFIL
 10
-2.0767196966983188
 20
-37.073765406424627
 30
0.0
 42
0.545020779898768
  0
VERTEX
  5
264D
  8
SAPA_PROFIL
 10
-2.350000000000136
 20
-36.650000000001
 30
0.0
  0
VERTEX
  5
264E
  8
SAPA_PROFIL
 10
-2.700000000000272
 20
-36.650000000001
 30
0.0
  0
VERTEX
  5
264F
  8
SAPA_PROFIL
 10
-2.0767196966983188
 20
-35.273765406424673
 30
0.0
 42
0.54502077989874
  0
VERTEX
  5
2650
  8
SAPA_PROFIL
 10
-2.350000000000136
 20
-34.850000000001053
 30
0.0
  0
VERTEX
  5
2651
  8
SAPA_PROFIL
 10
-2.700000000000272
 20
-34.850000000001053
 30
0.0
  0
VERTEX
  5
2652
  8
SAPA_PROFIL
 10
-2.0767196966983188
 20
-33.473765406424718
 30
0.0
 42
0.545020779898761
  0
VERTEX
  5
2653
  8
SAPA_PROFIL
 10
-2.350000000000136
 20
-33.050000000001091
 30
0.0
  0
SEQEND
  5
2654
  8
SAPA_PROFIL
  0
POLYLINE
  5
17E8
  8
SAPA_PROFIL
 66
     1
 10
0.0
 20
0.0
 30
0.0
 70
     1
  0
VERTEX
  5
2655
  8
SAPA_PROFIL
 10
-23.000000000000231
 20
58.024264068710863
 30
0.0
 42
0.1989123673796753
  0
VERTEX
  5
2656
  8
SAPA_PROFIL
 10
-22.912132034356091
 20
57.812132034355052
 30
0.0
  0
VERTEX
  5
2657
  8
SAPA_PROFIL
 10
-21.187867965644269
 20
56.087867965642999
 30
0.0
 42
-0.1989123673796753
  0
VERTEX
  5
2658
  8
SAPA_PROFIL
 10
-21.10000000000014
 20
55.875735931286947
 30
0.0
  0
VERTEX
  5
2659
  8
SAPA_PROFIL
 10
-21.10000000000014
 20
55.299999999999052
 30
0.0
 42
-0.4142135623730951
  0
VERTEX
  5
265A
  8
SAPA_PROFIL
 10
-21.400000000000318
 20
54.999999999998863
 30
0.0
  0
VERTEX
  5
265B
  8
SAPA_PROFIL
 10
-22.700000000000269
 20
54.999999999998863
 30
0.0
 42
0.4142135623730951
  0
VERTEX
  5
265C
  8
SAPA_PROFIL
 10
-23.000000000000231
 20
54.699999999998909
 30
0.0
  0
VERTEX
  5
265D
  8
SAPA_PROFIL
 10
-23.000000000000231
 20
29.99999999999886
 30
0.0
 42
0.4142135623730951
  0
VERTEX
  5
265E
  8
SAPA_PROFIL
 10
-22.000000000000231
 20
28.99999999999887
 30
0.0
  0
VERTEX
  5
265F
  8
SAPA_PROFIL
 10
-17.600000000000129
 20
28.99999999999887
 30
0.0
 42
-0.4142135623730951
  0
VERTEX
  5
2660
  8
SAPA_PROFIL
 10
-17.300000000000178
 20
28.699999999998909
 30
0.0
  0
VERTEX
  5
2661
  8
SAPA_PROFIL
 10
-17.300000000000178
 20
26.399999999998961
 30
0.0
 42
-0.4142135623730951
  0
VERTEX
  5
2662
  8
SAPA_PROFIL
 10
-17.600000000000129
 20
26.099999999999
 30
0.0
  0
VERTEX
  5
2663
  8
SAPA_PROFIL
 10
-18.100000000000129
 20
26.099999999999
 30
0.0
 42
-0.4142135623730951
  0
VERTEX
  5
2664
  8
SAPA_PROFIL
 10
-18.400000000000318
 20
26.399999999998961
 30
0.0
  0
VERTEX
  5
2665
  8
SAPA_PROFIL
 10
-18.400000000000318
 20
26.736626924633359
 30
0.0
 42
0.5535245743249297
  0
VERTEX
  5
2666
  8
SAPA_PROFIL
 10
-22.71055421153164
 20
24.96410760212348
 30
0.0
  0
VERTEX
  5
2667
  8
SAPA_PROFIL
 10
-22.42322330470347
 20
24.67677669529553
 30
0.0
 42
-0.4142135623729421
  0
VERTEX
  5
2668
  8
SAPA_PROFIL
 10
-22.42322330470347
 20
24.32322330470242
 30
0.0
  0
VERTEX
  5
2669
  8
SAPA_PROFIL
 10
-22.71055421153164
 20
24.035892397874481
 30
0.0
 42
0.5535245743249292
  0
VERTEX
  5
266A
  8
SAPA_PROFIL
 10
-18.400000000000318
 20
22.26337307536437
 30
0.0
  0
VERTEX
  5
266B
  8
SAPA_PROFIL
 10
-18.400000000000318
 20
22.599999999999
 30
0.0
 42
-0.4142135623730951
  0
VERTEX
  5
266C
  8
SAPA_PROFIL
 10
-18.100000000000129
 20
22.899999999998961
 30
0.0
  0
VERTEX
  5
266D
  8
SAPA_PROFIL
 10
-17.600000000000129
 20
22.899999999998961
 30
0.0
 42
-0.4142135623730951
  0
VERTEX
  5
266E
  8
SAPA_PROFIL
 10
-17.300000000000178
 20
22.599999999999
 30
0.0
  0
VERTEX
  5
266F
  8
SAPA_PROFIL
 10
-17.300000000000178
 20
21.49999999999886
 30
0.0
 42
-0.4142135623730951
  0
VERTEX
  5
2670
  8
SAPA_PROFIL
 10
-18.800000000000178
 20
19.99999999999886
 30
0.0
  0
VERTEX
  5
2671
  8
SAPA_PROFIL
 10
-21.63397459621569
 20
19.99999999999886
 30
0.0
 42
-0.267949192431143
  0
VERTEX
  5
2672
  8
SAPA_PROFIL
 10
-22.066987298107961
 20
20.24999999999886
 30
0.0
 42
0.767326987978956
  0
VERTEX
  5
2673
  8
SAPA_PROFIL
 10
-23.000000000000231
 20
19.99999999999886
 30
0.0
  0
VERTEX
  5
2674
  8
SAPA_PROFIL
 10
-23.000000000000231
 20
-15.00000000000113
 30
0.0
 42
0.4142135623730951
  0
VERTEX
  5
2675
  8
SAPA_PROFIL
 10
-22.000000000000231
 20
-16.00000000000114
 30
0.0
  0
VERTEX
  5
2676
  8
SAPA_PROFIL
 10
-17.600000000000129
 20
-16.00000000000114
 30
0.0
 42
-0.4142135623730951
  0
VERTEX
  5
2677
  8
SAPA_PROFIL
 10
-17.300000000000178
 20
-16.300000000001091
 30
0.0
  0
VERTEX
  5
2678
  8
SAPA_PROFIL
 10
-17.300000000000178
 20
-18.600000000001039
 30
0.0
 42
-0.4142135623730951
  0
VERTEX
  5
2679
  8
SAPA_PROFIL
 10
-17.600000000000129
 20
-18.900000000001
 30
0.0
  0
VERTEX
  5
267A
  8
SAPA_PROFIL
 10
-18.100000000000129
 20
-18.900000000001
 30
0.0
 42
-0.4142135623730951
  0
VERTEX
  5
267B
  8
SAPA_PROFIL
 10
-18.400000000000318
 20
-18.600000000001039
 30
0.0
  0
VERTEX
  5
267C
  8
SAPA_PROFIL
 10
-18.400000000000318
 20
-18.263373075366641
 30
0.0
 42
0.5535245743249297
  0
VERTEX
  5
267D
  8
SAPA_PROFIL
 10
-22.71055421153164
 20
-20.03589239787652
 30
0.0
  0
VERTEX
  5
267E
  8
SAPA_PROFIL
 10
-22.42322330470347
 20
-20.32322330470447
 30
0.0
 42
-0.4142135623730243
  0
VERTEX
  5
267F
  8
SAPA_PROFIL
 10
-22.423223304703701
 20
-20.67677669529758
 30
0.0
  0
VERTEX
  5
2680
  8
SAPA_PROFIL
 10
-22.71055421153164
 20
-20.96410760212553
 30
0.0
 42
0.5535245743249292
  0
VERTEX
  5
2681
  8
SAPA_PROFIL
 10
-18.400000000000318
 20
-22.73662692463563
 30
0.0
  0
VERTEX
  5
2682
  8
SAPA_PROFIL
 10
-18.400000000000318
 20
-22.400000000001
 30
0.0
 42
-0.4142135623730951
  0
VERTEX
  5
2683
  8
SAPA_PROFIL
 10
-18.100000000000129
 20
-22.100000000001049
 30
0.0
  0
VERTEX
  5
2684
  8
SAPA_PROFIL
 10
-17.600000000000129
 20
-22.100000000001049
 30
0.0
 42
-0.4142135623730951
  0
VERTEX
  5
2685
  8
SAPA_PROFIL
 10
-17.300000000000178
 20
-22.400000000001
 30
0.0
  0
VERTEX
  5
2686
  8
SAPA_PROFIL
 10
-17.300000000000178
 20
-23.50000000000114
 30
0.0
 42
-0.4142135623730951
  0
VERTEX
  5
2687
  8
SAPA_PROFIL
 10
-18.800000000000178
 20
-25.00000000000114
 30
0.0
  0
VERTEX
  5
2688
  8
SAPA_PROFIL
 10
-21.780384757729511
 20
-25.00000000000114
 30
0.0
 42
-0.2679491924311188
  0
VERTEX
  5
2689
  8
SAPA_PROFIL
 10
-22.040192378864958
 20
-24.850000000001049
 30
0.0
 42
0.7673269879789557
  0
VERTEX
  5
268A
  8
SAPA_PROFIL
 10
-22.600000000000129
 20
-25.00000000000114
 30
0.0
  0
VERTEX
  5
268B
  8
SAPA_PROFIL
 10
-22.599999999999909
 20
-27.00000000000114
 30
0.0
 42
0.4142137811865366
  0
VERTEX
  5
268C
  8
SAPA_PROFIL
 10
-21.600000747075459
 20
-28.00000000000114
 30
0.0
  0
VERTEX
  5
268D
  8
SAPA_PROFIL
 10
21.599999999999682
 20
-28.00000000000114
 30
0.0
 42
0.4142140000000124
  0
VERTEX
  5
268E
  8
SAPA_PROFIL
 10
22.599999999999682
 20
-27.00000000000114
 30
0.0
  0
VERTEX
  5
268F
  8
SAPA_PROFIL
 10
22.599999999999682
 20
-25.00000000000114
 30
0.0
 42
0.7673269879789457
  0
VERTEX
  5
2690
  8
SAPA_PROFIL
 10
22.0401923788645
 20
-24.850000000001049
 30
0.0
 42
-0.2679491924311191
  0
VERTEX
  5
2691
  8
SAPA_PROFIL
 10
21.780384757729049
 20
-25.00000000000114
 30
0.0
  0
VERTEX
  5
2692
  8
SAPA_PROFIL
 10
18.799999999999731
 20
-25.00000000000114
 30
0.0
 42
-0.4142135623730951
  0
VERTEX
  5
2693
  8
SAPA_PROFIL
 10
17.299999999999731
 20
-23.50000000000114
 30
0.0
  0
VERTEX
  5
2694
  8
SAPA_PROFIL
 10
17.299999999999731
 20
-22.400000000001
 30
0.0
 42
-0.4142135623730951
  0
VERTEX
  5
2695
  8
SAPA_PROFIL
 10
17.599999999999682
 20
-22.100000000001049
 30
0.0
  0
VERTEX
  5
2696
  8
SAPA_PROFIL
 10
18.099999999999682
 20
-22.100000000001049
 30
0.0
 42
-0.4142135623730951
  0
VERTEX
  5
2697
  8
SAPA_PROFIL
 10
18.39999999999986
 20
-22.400000000001
 30
0.0
  0
VERTEX
  5
2698
  8
SAPA_PROFIL
 10
18.39999999999986
 20
-22.73662692463563
 30
0.0
 42
0.5535245743249307
  0
VERTEX
  5
2699
  8
SAPA_PROFIL
 10
22.710554211531189
 20
-20.96410760212553
 30
0.0
  0
VERTEX
  5
269A
  8
SAPA_PROFIL
 10
22.423223304703239
 20
-20.67677669529758
 30
0.0
 42
-0.4142135623730951
  0
VERTEX
  5
269B
  8
SAPA_PROFIL
 10
22.423223304703239
 20
-20.32322330470447
 30
0.0
  0
VERTEX
  5
269C
  8
SAPA_PROFIL
 10
22.710554211531189
 20
-20.03589239787652
 30
0.0
 42
0.553524574324932
  0
VERTEX
  5
269D
  8
SAPA_PROFIL
 10
18.39999999999986
 20
-18.263373075366641
 30
0.0
  0
VERTEX
  5
269E
  8
SAPA_PROFIL
 10
18.39999999999986
 20
-18.600000000001039
 30
0.0
 42
-0.4142135623730951
  0
VERTEX
  5
269F
  8
SAPA_PROFIL
 10
18.099999999999682
 20
-18.900000000001
 30
0.0
  0
VERTEX
  5
26A0
  8
SAPA_PROFIL
 10
17.599999999999682
 20
-18.900000000001
 30
0.0
 42
-0.4142135623730951
  0
VERTEX
  5
26A1
  8
SAPA_PROFIL
 10
17.299999999999731
 20
-18.600000000001039
 30
0.0
  0
VERTEX
  5
26A2
  8
SAPA_PROFIL
 10
17.299999999999731
 20
-16.300000000001091
 30
0.0
 42
-0.4142135623730951
  0
VERTEX
  5
26A3
  8
SAPA_PROFIL
 10
17.599999999999682
 20
-16.00000000000114
 30
0.0
  0
VERTEX
  5
26A4
  8
SAPA_PROFIL
 10
21.999999999999769
 20
-16.00000000000114
 30
0.0
 42
0.4142135623730951
  0
VERTEX
  5
26A5
  8
SAPA_PROFIL
 10
22.999999999999769
 20
-15.00000000000113
 30
0.0
  0
VERTEX
  5
26A6
  8
SAPA_PROFIL
 10
22.999999999999769
 20
19.99999999999886
 30
0.0
 42
0.7673269879789569
  0
VERTEX
  5
26A7
  8
SAPA_PROFIL
 10
22.066987298107509
 20
20.24999999999886
 30
0.0
 42
-0.2679491924311163
  0
VERTEX
  5
26A8
  8
SAPA_PROFIL
 10
21.633974596215239
 20
19.99999999999886
 30
0.0
  0
VERTEX
  5
26A9
  8
SAPA_PROFIL
 10
18.799999999999731
 20
19.99999999999886
 30
0.0
 42
-0.4142135623730951
  0
VERTEX
  5
26AA
  8
SAPA_PROFIL
 10
17.299999999999731
 20
21.49999999999886
 30
0.0
  0
VERTEX
  5
26AB
  8
SAPA_PROFIL
 10
17.299999999999731
 20
22.599999999999
 30
0.0
 42
-0.4142135623730951
  0
VERTEX
  5
26AC
  8
SAPA_PROFIL
 10
17.599999999999682
 20
22.899999999998961
 30
0.0
  0
VERTEX
  5
26AD
  8
SAPA_PROFIL
 10
18.099999999999682
 20
22.899999999998961
 30
0.0
 42
-0.4142135623730951
  0
VERTEX
  5
26AE
  8
SAPA_PROFIL
 10
18.39999999999986
 20
22.599999999999
 30
0.0
  0
VERTEX
  5
26AF
  8
SAPA_PROFIL
 10
18.39999999999986
 20
22.26337307536437
 30
0.0
 42
0.5535245743249307
  0
VERTEX
  5
26B0
  8
SAPA_PROFIL
 10
22.710554211531189
 20
24.035892397874481
 30
0.0
  0
VERTEX
  5
26B1
  8
SAPA_PROFIL
 10
22.423223304703239
 20
24.32322330470242
 30
0.0
 42
-0.4142135623731068
  0
VERTEX
  5
26B2
  8
SAPA_PROFIL
 10
22.423223304703011
 20
24.67677669529553
 30
0.0
  0
VERTEX
  5
26B3
  8
SAPA_PROFIL
 10
22.710554211531189
 20
24.96410760212348
 30
0.0
 42
0.553524574324932
  0
VERTEX
  5
26B4
  8
SAPA_PROFIL
 10
18.39999999999986
 20
26.736626924633359
 30
0.0
  0
VERTEX
  5
26B5
  8
SAPA_PROFIL
 10
18.39999999999986
 20
26.399999999998961
 30
0.0
 42
-0.4142135623730951
  0
VERTEX
  5
26B6
  8
SAPA_PROFIL
 10
18.099999999999682
 20
26.099999999999
 30
0.0
  0
VERTEX
  5
26B7
  8
SAPA_PROFIL
 10
17.599999999999682
 20
26.099999999999
 30
0.0
 42
-0.4142135623730951
  0
VERTEX
  5
26B8
  8
SAPA_PROFIL
 10
17.299999999999731
 20
26.399999999998961
 30
0.0
  0
VERTEX
  5
26B9
  8
SAPA_PROFIL
 10
17.299999999999731
 20
28.699999999998909
 30
0.0
 42
-0.4142135623730951
  0
VERTEX
  5
26BA
  8
SAPA_PROFIL
 10
17.599999999999682
 20
28.99999999999887
 30
0.0
  0
VERTEX
  5
26BB
  8
SAPA_PROFIL
 10
21.999999999999769
 20
28.99999999999887
 30
0.0
 42
0.4142135623730951
  0
VERTEX
  5
26BC
  8
SAPA_PROFIL
 10
22.999999999999769
 20
29.99999999999886
 30
0.0
  0
VERTEX
  5
26BD
  8
SAPA_PROFIL
 10
22.999999999999769
 20
54.699999999998909
 30
0.0
 42
0.4142135623730951
  0
VERTEX
  5
26BE
  8
SAPA_PROFIL
 10
22.699999999999822
 20
54.999999999998863
 30
0.0
  0
VERTEX
  5
26BF
  8
SAPA_PROFIL
 10
21.39999999999986
 20
54.999999999998863
 30
0.0
 42
-0.4142135623730951
  0
VERTEX
  5
26C0
  8
SAPA_PROFIL
 10
21.099999999999682
 20
55.299999999999052
 30
0.0
  0
VERTEX
  5
26C1
  8
SAPA_PROFIL
 10
21.099999999999682
 20
55.875735931286947
 30
0.0
 42
-0.1989123673796752
  0
VERTEX
  5
26C2
  8
SAPA_PROFIL
 10
21.187867965643822
 20
56.087867965642999
 30
0.0
  0
VERTEX
  5
26C3
  8
SAPA_PROFIL
 10
22.91213203435586
 20
57.812132034355052
 30
0.0
 42
0.1989123673796057
  0
VERTEX
  5
26C4
  8
SAPA_PROFIL
 10
22.999999999999769
 20
58.024264068710863
 30
0.0
  0
VERTEX
  5
26C5
  8
SAPA_PROFIL
 10
22.999999999999769
 20
61.499999999998863
 30
0.0
 42
0.4142135623730951
  0
VERTEX
  5
26C6
  8
SAPA_PROFIL
 10
21.999999999999769
 20
62.499999999998863
 30
0.0
  0
VERTEX
  5
26C7
  8
SAPA_PROFIL
 10
-22.000000000000231
 20
62.499999999998863
 30
0.0
 42
0.4142135623730951
  0
VERTEX
  5
26C8
  8
SAPA_PROFIL
 10
-23.000000000000231
 20
61.499999999998863
 30
0.0
  0
SEQEND
  5
26C9
  8
SAPA_PROFIL
  0
POLYLINE
  5
17E9
  8
SAPA_PROFIL
 66
     1
 10
0.0
 20
0.0
 30
0.0
 70
     1
  0
VERTEX
  5
26CA
  8
SAPA_PROFIL
 10
-6.0000000000002274
 20
-30.00000000000114
 30
0.0
 42
-0.4142135623730951
  0
VERTEX
  5
26CB
  8
SAPA_PROFIL
 10
-5.0000000000002274
 20
-31.00000000000114
 30
0.0
  0
VERTEX
  5
26CC
  8
SAPA_PROFIL
 10
-5.0000000000002274
 20
-52.200000000000948
 30
0.0
 42
0.4142135623730951
  0
VERTEX
  5
26CD
  8
SAPA_PROFIL
 10
-4.700000000000272
 20
-52.50000000000113
 30
0.0
  0
VERTEX
  5
26CE
  8
SAPA_PROFIL
 10
-3.0757360000002332
 20
-52.50000000000113
 30
0.0
  0
VERTEX
  5
26CF
  8
SAPA_PROFIL
 10
-2.2378679656442269
 20
-51.562132034356871
 30
0.0
 42
0.668178637919305
  0
VERTEX
  5
26D0
  8
SAPA_PROFIL
 10
-2.450000000000272
 20
-51.050000000001091
 30
0.0
  0
VERTEX
  5
26D1
  8
SAPA_PROFIL
 10
-2.700000000000272
 20
-51.050000000001091
 30
0.0
  0
VERTEX
  5
26D2
  8
SAPA_PROFIL
 10
-2.1767196966982278
 20
-49.673765406424756
 30
0.0
 42
0.5450207798987201
  0
VERTEX
  5
26D3
  8
SAPA_PROFIL
 10
-2.450000000000272
 20
-49.250000000001137
 30
0.0
  0
VERTEX
  5
26D4
  8
SAPA_PROFIL
 10
-2.700000000000272
 20
-49.250000000001137
 30
0.0
  0
VERTEX
  5
26D5
  8
SAPA_PROFIL
 10
-2.1767196966982278
 20
-47.873765406424567
 30
0.0
 42
0.5450207798987201
  0
VERTEX
  5
26D6
  8
SAPA_PROFIL
 10
-2.450000000000272
 20
-47.450000000000962
 30
0.0
  0
VERTEX
  5
26D7
  8
SAPA_PROFIL
 10
-2.700000000000272
 20
-47.450000000000962
 30
0.0
  0
VERTEX
  5
26D8
  8
SAPA_PROFIL
 10
-2.1767196966982278
 20
-46.07376540642462
 30
0.0
 42
0.5450207798987342
  0
VERTEX
  5
26D9
  8
SAPA_PROFIL
 10
-2.450000000000272
 20
-45.650000000000993
 30
0.0
  0
VERTEX
  5
26DA
  8
SAPA_PROFIL
 10
-2.700000000000272
 20
-45.650000000000993
 30
0.0
  0
VERTEX
  5
26DB
  8
SAPA_PROFIL
 10
-2.1767196966982278
 20
-44.273765406424673
 30
0.0
 42
0.5450207798987201
  0
VERTEX
  5
26DC
  8
SAPA_PROFIL
 10
-2.450000000000272
 20
-43.850000000001039
 30
0.0
  0
VERTEX
  5
26DD
  8
SAPA_PROFIL
 10
-2.700000000000272
 20
-43.850000000001039
 30
0.0
  0
VERTEX
  5
26DE
  8
SAPA_PROFIL
 10
-2.4722372826161059
 20
-43.126282705194853
 30
0.0
 42
-0.2945484962563026
  0
VERTEX
  5
26DF
  8
SAPA_PROFIL
 10
-2.1988824689378812
 20
-42.950048040246656
 30
0.0
  0
VERTEX
  5
26E0
  8
SAPA_PROFIL
 10
-1.2642999377483191
 20
-42.950255222213173
 30
0.0
 42
0.3475954753796591
  0
VERTEX
  5
26E1
  8
SAPA_PROFIL
 10
-0.9723265106783856
 20
-42.719501178044077
 30
0.0
 42
-0.790522909611319
  0
VERTEX
  5
26E2
  8
SAPA_PROFIL
 10
0.973664089865224
 20
-42.71949097360357
 30
0.0
 42
0.3476065658631364
  0
VERTEX
  5
26E3
  8
SAPA_PROFIL
 10
1.2656518108867649
 20
-42.950241952335773
 30
0.0
  0
VERTEX
  5
26E4
  8
SAPA_PROFIL
 10
1.8499926620931999
 20
-42.950095231626847
 30
0.0
 42
-0.4102317530969976
  0
VERTEX
  5
26E5
  8
SAPA_PROFIL
 10
2.1500282985855388
 20
-43.245946879780369
 30
0.0
 42
0.0712587206050384
  0
VERTEX
  5
26E6
  8
SAPA_PROFIL
 10
2.1632556124550311
 20
-43.329990804708579
 30
0.0
  0
VERTEX
  5
26E7
  8
SAPA_PROFIL
 10
2.6999999999998181
 20
-44.750000000001137
 30
0.0
  0
VERTEX
  5
26E8
  8
SAPA_PROFIL
 10
2.4499999999998181
 20
-44.750000000001137
 30
0.0
 42
0.5450200690651619
  0
VERTEX
  5
26E9
  8
SAPA_PROFIL
 10
2.17671899999982
 20
-45.173765000001133
 30
0.0
  0
VERTEX
  5
26EA
  8
SAPA_PROFIL
 10
2.6999999999998181
 20
-46.550000000001091
 30
0.0
  0
VERTEX
  5
26EB
  8
SAPA_PROFIL
 10
2.4499999999998181
 20
-46.550000000000857
 30
0.0
 42
0.545020069065176
  0
VERTEX
  5
26EC
  8
SAPA_PROFIL
 10
2.17671899999982
 20
-46.973765000001087
 30
0.0
  0
VERTEX
  5
26ED
  8
SAPA_PROFIL
 10
2.6999999999998181
 20
-48.350000000001039
 30
0.0
  0
VERTEX
  5
26EE
  8
SAPA_PROFIL
 10
2.4499999999998181
 20
-48.350000000001039
 30
0.0
 42
0.5450200690651692
  0
VERTEX
  5
26EF
  8
SAPA_PROFIL
 10
2.17671899999982
 20
-48.773765000001049
 30
0.0
  0
VERTEX
  5
26F0
  8
SAPA_PROFIL
 10
2.6999999999998181
 20
-50.150000000001
 30
0.0
  0
VERTEX
  5
26F1
  8
SAPA_PROFIL
 10
2.1499999999998631
 20
-50.150000000001
 30
0.0
  0
VERTEX
  5
26F2
  8
SAPA_PROFIL
 10
2.1499999999998631
 20
-51.350000000001039
 30
0.0
 42
0.1989123673797004
  0
VERTEX
  5
26F3
  8
SAPA_PROFIL
 10
2.2378679999997071
 20
-51.562132000001156
 30
0.0
  0
VERTEX
  5
26F4
  8
SAPA_PROFIL
 10
3.075735999999778
 20
-52.50000000000113
 30
0.0
  0
VERTEX
  5
26F5
  8
SAPA_PROFIL
 10
4.6999999999998181
 20
-52.50000000000113
 30
0.0
 42
0.4142135623730951
  0
VERTEX
  5
26F6
  8
SAPA_PROFIL
 10
4.9999999999997717
 20
-52.200000000000948
 30
0.0
  0
VERTEX
  5
26F7
  8
SAPA_PROFIL
 10
4.9999999999997717
 20
-31.00000000000114
 30
0.0
 42
-0.4142135623730951
  0
VERTEX
  5
26F8
  8
SAPA_PROFIL
 10
5.9999999999997717
 20
-30.00000000000114
 30
0.0
  0
VERTEX
  5
26F9
  8
SAPA_PROFIL
 10
14.19999999999982
 20
-30.00000000000114
 30
0.0
 42
-0.4142135623730951
  0
VERTEX
  5
26FA
  8
SAPA_PROFIL
 10
14.69999999999982
 20
-30.50000000000114
 30
0.0
  0
VERTEX
  5
26FB
  8
SAPA_PROFIL
 10
14.69999999999982
 20
-33.700000000000962
 30
0.0
 42
-0.4142135623730951
  0
VERTEX
  5
26FC
  8
SAPA_PROFIL
 10
14.19999999999982
 20
-34.200000000000962
 30
0.0
  0
VERTEX
  5
26FD
  8
SAPA_PROFIL
 10
11.299999999999731
 20
-34.200000000000962
 30
0.0
 42
0.4142135623730951
  0
VERTEX
  5
26FE
  8
SAPA_PROFIL
 10
10.999999999999771
 20
-34.500000000001137
 30
0.0
  0
VERTEX
  5
26FF
  8
SAPA_PROFIL
 10
10.999999999999771
 20
-35.200000000000948
 30
0.0
 42
0.4142135623730951
  0
VERTEX
  5
2700
  8
SAPA_PROFIL
 10
11.299999999999731
 20
-35.500000000001137
 30
0.0
  0
VERTEX
  5
2701
  8
SAPA_PROFIL
 10
17.999999999999769
 20
-35.500000000001137
 30
0.0
  0
VERTEX
  5
2702
  8
SAPA_PROFIL
 10
18.586384015500471
 20
-35.035076580641999
 30
0.0
 42
0.7105995019814511
  0
VERTEX
  5
2703
  8
SAPA_PROFIL
 10
18.39999999999986
 20
-34.500000000001137
 30
0.0
  0
VERTEX
  5
2704
  8
SAPA_PROFIL
 10
16.499999999999769
 20
-34.500000000001137
 30
0.0
 42
-0.4142135623730951
  0
VERTEX
  5
2705
  8
SAPA_PROFIL
 10
16.199999999999822
 20
-34.200000000000962
 30
0.0
  0
VERTEX
  5
2706
  8
SAPA_PROFIL
 10
16.199999999999822
 20
-30.300000000001091
 30
0.0
 42
-0.4142135623730951
  0
VERTEX
  5
2707
  8
SAPA_PROFIL
 10
16.499999999999769
 20
-30.00000000000114
 30
0.0
  0
VERTEX
  5
2708
  8
SAPA_PROFIL
 10
23.199999999999822
 20
-30.00000000000114
 30
0.0
 42
-0.4142135623730951
  0
VERTEX
  5
2709
  8
SAPA_PROFIL
 10
23.499999999999769
 20
-30.300000000001091
 30
0.0
  0
VERTEX
  5
270A
  8
SAPA_PROFIL
 10
23.499999999999769
 20
-34.200000000000962
 30
0.0
 42
-0.4142135623730951
  0
VERTEX
  5
270B
  8
SAPA_PROFIL
 10
23.199999999999822
 20
-34.500000000001137
 30
0.0
  0
VERTEX
  5
270C
  8
SAPA_PROFIL
 10
21.999999999999769
 20
-34.500000000001137
 30
0.0
 42
0.7105990647993611
  0
VERTEX
  5
270D
  8
SAPA_PROFIL
 10
21.81361599999968
 20
-35.035076000001027
 30
0.0
  0
VERTEX
  5
270E
  8
SAPA_PROFIL
 10
22.39999999999986
 20
-35.500000000001137
 30
0.0
  0
VERTEX
  5
270F
  8
SAPA_PROFIL
 10
24.699999999999822
 20
-35.500000000001137
 30
0.0
 42
0.4142135623730951
  0
VERTEX
  5
2710
  8
SAPA_PROFIL
 10
24.999999999999769
 20
-35.200000000000948
 30
0.0
  0
VERTEX
  5
2711
  8
SAPA_PROFIL
 10
24.999999999999769
 20
63.999999999998863
 30
0.0
 42
0.4142135623730951
  0
VERTEX
  5
2712
  8
SAPA_PROFIL
 10
24.499999999999769
 20
64.499999999998863
 30
0.0
  0
VERTEX
  5
2713
  8
SAPA_PROFIL
 10
-24.500000000000231
 20
64.499999999998863
 30
0.0
 42
0.4142135623730951
  0
VERTEX
  5
2714
  8
SAPA_PROFIL
 10
-25.000000000000231
 20
63.999999999998863
 30
0.0
  0
VERTEX
  5
2715
  8
SAPA_PROFIL
 10
-25.000000000000231
 20
-35.200000000000948
 30
0.0
 42
0.4142135623730951
  0
VERTEX
  5
2716
  8
SAPA_PROFIL
 10
-24.700000000000269
 20
-35.500000000001137
 30
0.0
  0
VERTEX
  5
2717
  8
SAPA_PROFIL
 10
-22.400000000000318
 20
-35.500000000001137
 30
0.0
  0
VERTEX
  5
2718
  8
SAPA_PROFIL
 10
-21.81361598449962
 20
-35.035076580641999
 30
0.0
 42
0.7105995019814511
  0
VERTEX
  5
2719
  8
SAPA_PROFIL
 10
-22.000000000000231
 20
-34.500000000001137
 30
0.0
  0
VERTEX
  5
271A
  8
SAPA_PROFIL
 10
-23.200000000000269
 20
-34.500000000001137
 30
0.0
 42
-0.4142135623730951
  0
VERTEX
  5
271B
  8
SAPA_PROFIL
 10
-23.500000000000231
 20
-34.200000000000962
 30
0.0
  0
VERTEX
  5
271C
  8
SAPA_PROFIL
 10
-23.500000000000231
 20
-30.300000000001091
 30
0.0
 42
-0.4142135623730951
  0
VERTEX
  5
271D
  8
SAPA_PROFIL
 10
-23.200000000000269
 20
-30.00000000000114
 30
0.0
  0
VERTEX
  5
271E
  8
SAPA_PROFIL
 10
-16.500000000000231
 20
-30.00000000000114
 30
0.0
 42
-0.4142135623730951
  0
VERTEX
  5
271F
  8
SAPA_PROFIL
 10
-16.200000000000269
 20
-30.300000000001091
 30
0.0
  0
VERTEX
  5
2720
  8
SAPA_PROFIL
 10
-16.200000000000269
 20
-34.200000000000962
 30
0.0
 42
-0.4142135623730951
  0
VERTEX
  5
2721
  8
SAPA_PROFIL
 10
-16.500000000000231
 20
-34.500000000001137
 30
0.0
  0
VERTEX
  5
2722
  8
SAPA_PROFIL
 10
-18.400000000000318
 20
-34.500000000001137
 30
0.0
 42
0.7105995019814511
  0
VERTEX
  5
2723
  8
SAPA_PROFIL
 10
-18.586384015500919
 20
-35.035076580641999
 30
0.0
  0
VERTEX
  5
2724
  8
SAPA_PROFIL
 10
-18.000000000000231
 20
-35.500000000001137
 30
0.0
  0
VERTEX
  5
2725
  8
SAPA_PROFIL
 10
-11.30000000000018
 20
-35.500000000001137
 30
0.0
 42
0.4142135623730951
  0
VERTEX
  5
2726
  8
SAPA_PROFIL
 10
-11.00000000000022
 20
-35.200000000000948
 30
0.0
  0
VERTEX
  5
2727
  8
SAPA_PROFIL
 10
-11.00000000000022
 20
-34.500000000001137
 30
0.0
 42
0.4142135623730951
  0
VERTEX
  5
2728
  8
SAPA_PROFIL
 10
-11.30000000000018
 20
-34.200000000000962
 30
0.0
  0
VERTEX
  5
2729
  8
SAPA_PROFIL
 10
-14.200000000000269
 20
-34.200000000000962
 30
0.0
 42
-0.4142135623730951
  0
VERTEX
  5
272A
  8
SAPA_PROFIL
 10
-14.700000000000269
 20
-33.700000000000962
 30
0.0
  0
VERTEX
  5
272B
  8
SAPA_PROFIL
 10
-14.700000000000269
 20
-30.50000000000114
 30
0.0
 42
-0.4142135623730951
  0
VERTEX
  5
272C
  8
SAPA_PROFIL
 10
-14.200000000000269
 20
-30.00000000000114
 30
0.0
  0
SEQEND
  5
272D
  8
SAPA_PROFIL
  0
POLYLINE
  5
1821
  8
SAPA_GLAS
 66
     1
 10
0.0
 20
0.0
 30
0.0
  0
VERTEX
  5
274C
  8
SAPA_GLAS
 10
-75.522593981594582
 20
-76.499999999011266
 30
0.0
  0
VERTEX
  5
274D
  8
SAPA_GLAS
 10
-11.000967646493329
 20
-76.49999999901172
 30
0.0
  0
VERTEX
  5
274E
  8
SAPA_GLAS
 10
-11.000967646493329
 20
-82.499999999011038
 30
0.0
  0
VERTEX
  5
274F
  8
SAPA_GLAS
 10
-75.522593981594582
 20
-82.499999999011038
 30
0.0
  0
SEQEND
  5
2750
  8
SAPA_GLAS
  0
POLYLINE
  5
1822
  8
SAPA_GLAS
 66
     1
 10
0.0
 20
0.0
 30
0.0
 70
     1
  0
VERTEX
  5
2751
  8
SAPA_GLAS
 10
110.9999999998263
 20
-67.501284435459041
 30
0.0
  0
VERTEX
  5
2752
  8
SAPA_GLAS
 10
110.9999999998263
 20
-52.501284435459041
 30
0.0
  0
VERTEX
  5
2753
  8
SAPA_GLAS
 10
100.9999999998263
 20
-52.501284435459041
 30
0.0
  0
VERTEX
  5
2754
  8
SAPA_GLAS
 10
100.9999999998263
 20
-67.501284435459041
 30
0.0
  0
SEQEND
  5
2755
  8
SAPA_GLAS
  0
POLYLINE
  5
1823
  8
SAPA_GLAS
 66
     1
 10
0.0
 20
0.0
 30
0.0
 70
     1
  0
VERTEX
  5
2756
  8
SAPA_GLAS
 10
110.9999999998263
 20
-48.501284435459041
 30
0.0
  0
VERTEX
  5
2757
  8
SAPA_GLAS
 10
110.9999999998263
 20
-33.501284435459041
 30
0.0
  0
VERTEX
  5
2758
  8
SAPA_GLAS
 10
100.9999999998263
 20
-33.501284435459041
 30
0.0
  0
VERTEX
  5
2759
  8
SAPA_GLAS
 10
100.9999999998263
 20
-48.501284435459041
 30
0.0
  0
SEQEND
  5
275A
  8
SAPA_GLAS
  0
POLYLINE
  5
1824
  8
SAPA_GLAS
 66
     1
 10
0.0
 20
0.0
 30
0.0
  0
VERTEX
  5
275B
  8
SAPA_GLAS
 10
130.999999999826
 20
-48.501284435459041
 30
0.0
  0
VERTEX
  5
275C
  8
SAPA_GLAS
 10
100.999999999826
 20
-48.501284435459041
 30
0.0
  0
VERTEX
  5
275D
  8
SAPA_GLAS
 10
100.999999999826
 20
-52.501284435459041
 30
0.0
  0
VERTEX
  5
275E
  8
SAPA_GLAS
 10
130.999999999826
 20
-52.501284435459041
 30
0.0
  0
SEQEND
  5
275F
  8
SAPA_GLAS
  0
POLYLINE
  5
1825
  8
SAPA_GLAS
 66
     1
 10
0.0
 20
0.0
 30
0.0
  0
VERTEX
  5
2760
  8
SAPA_GLAS
 10
130.999999999826
 20
-27.501284435459041
 30
0.0
  0
VERTEX
  5
2761
  8
SAPA_GLAS
 10
100.999999999826
 20
-27.501284435459041
 30
0.0
  0
VERTEX
  5
2762
  8
SAPA_GLAS
 10
100.999999999826
 20
-33.501284435459041
 30
0.0
  0
VERTEX
  5
2763
  8
SAPA_GLAS
 10
130.999999999826
 20
-33.501284435459041
 30
0.0
  0
SEQEND
  5
2764
  8
SAPA_GLAS
  0
POLYLINE
  5
1826
  8
SAPA_GLAS
 66
     1
 10
0.0
 20
0.0
 30
0.0
  0
VERTEX
  5
2765
  8
SAPA_GLAS
 10
130.999999999826
 20
-73.501284435459041
 30
0.0
  0
VERTEX
  5
2766
  8
SAPA_GLAS
 10
100.999999999826
 20
-73.501284435459041
 30
0.0
  0
VERTEX
  5
2767
  8
SAPA_GLAS
 10
100.999999999826
 20
-67.501284435459041
 30
0.0
  0
VERTEX
  5
2768
  8
SAPA_GLAS
 10
130.999999999826
 20
-67.501284435459041
 30
0.0
  0
SEQEND
  5
2769
  8
SAPA_GLAS
  0
POLYLINE
  5
182E
  8
SAPA_FYLLNING
 66
     1
 10
0.0
 20
0.0
 30
0.0
  0
VERTEX
  5
2774
  8
SAPA_FYLLNING
 10
-75.551914392872362
 20
-44.291421355247621
 30
0.0
  0
VERTEX
  5
2775
  8
SAPA_FYLLNING
 10
-14.06443431039097
 20
-44.291421355247621
 30
0.0
  0
VERTEX
  5
2776
  8
SAPA_FYLLNING
 10
-14.06443431039097
 20
-36.291421355247621
 30
0.0
  0
VERTEX
  5
2777
  8
SAPA_FYLLNING
 10
-75.551914392872376
 20
-36.291421355247621
 30
0.0
  0
SEQEND
  5
2778
  8
SAPA_FYLLNING
  0
LINE
  5
182F
  8
SAPA_FYLLNING
 10
-26.000000000000231
 20
52.499999999998863
 30
0.0
 11
-75.000000000000227
 21
52.499999999998799
 31
0.0
  0
POLYLINE
  5
1830
  8
SAPA_FYLLNING
 66
     1
 10
0.0
 20
0.0
 30
0.0
  0
VERTEX
  5
2779
  8
SAPA_FYLLNING
 10
-75.000000000000227
 20
50.999999999998799
 30
0.0
  0
VERTEX
  5
277A
  8
SAPA_FYLLNING
 10
-26.000000000000231
 20
50.999999999998799
 30
0.0
  0
VERTEX
  5
277B
  8
SAPA_FYLLNING
 10
-26.000000000000242
 20
62.499999999998863
 30
0.0
  0
VERTEX
  5
277C
  8
SAPA_FYLLNING
 10
-75.000000000000227
 20
62.499999999998863
 30
0.0
  0
SEQEND
  5
277D
  8
SAPA_FYLLNING
  0
LINE
  5
183B
  8
SAPA_ISOLATOR
 10
25.000017830633741
 20
-19.383797312183962
 30
0.0
 11
31.194641597816599
 21
-19.383797312183962
 31
0.0
  0
LINE
  5
183C
  8
SAPA_ISOLATOR
 10
25.000017830633741
 20
-44.578680595395731
 30
0.0
 11
25.000017830633741
 21
-19.383797312183962
 31
0.0
  0
LINE
  5
183D
  8
SAPA_ISOLATOR
 10
31.194641597818421
 20
-44.578680595395731
 30
0.0
 11
25.000017830633741
 21
-44.578680595395731
 31
0.0
  0
LINE
  5
183E
  8
SAPA_ISOLATOR
 10
31.200017830633669
 20
-19.383797312183962
 30
0.0
 11
31.194641597818421
 21
-44.578680595395731
 31
0.0
  0
LINE
  5
183F
  8
SAPA_ISOLATOR
 10
31.194641597818421
 20
-44.578680595395731
 30
0.0
 11
25.000017830633741
 21
-19.383797312183962
 31
0.0
  0
LINE
  5
1840
  8
SAPA_ISOLATOR
 10
31.216605133519121
 20
-19.383797312183962
 30
0.0
 11
25.011228900703941
 21
-44.578680595395731
 31
0.0
  0
CIRCLE
  5
1864
  8
SAPA_FOGBAND
 10
18.616845196571941
 20
-84.637568219766294
 30
0.0
 40
0.2549509756796394
  0
INSERT
  5
1865
  8
SAPA_FOGBAND
  6
CONTINUOUS
  2
*U188
 10
0.0
 20
0.0
 30
0.0
1001
ACAD
1002
{
1000
R14_HATCH_DATA
1000
1865
1011
1.0
1021
0.0
1031
0.0
1021
0.0
1031
0.0
1011
0.0
1021
0.0
1031
0.0
1021
1.0
1031
0.0
1011
0.0
1021
0.0
1031
0.0
1021
0.0
1031
1.0
1040
0.0
1010
0.0
1020
0.0
1030
1.0
1000
SOLID
1070
     1
1070
     1
1071
        1
1071
        1
1071
        1
1070
     2
1040
18.616845196571941
1040
-84.637568219766294
1040
0.2549509756796394
1040
-3.1415926535897931
1040
3.1415926535897931
1070
     0
1071
        1
1005
1864
1070
     0
1070
     1
1071
        1
1040
18.853584098142051
1040
-84.555716722437396
1040
0.0
1002
}
  0
POLYLINE
  5
1866
  8
SAPA_FOGBAND
 66
     1
 10
0.0
 20
0.0
 30
0.0
 70
     1
  0
VERTEX
  5
292D
  8
SAPA_FOGBAND
 10
17.71684519657197
 20
-87.599999999010834
 30
0.0
 42
-0.9999999999999998
  0
VERTEX
  5
292E
  8
SAPA_FOGBAND
 10
19.516845196571921
 20
-87.599999999010834
 30
0.0
  0
VERTEX
  5
292F
  8
SAPA_FOGBAND
 10
19.516845196571921
 20
-88.199999999010856
 30
0.0
 42
-0.9999999999999998
  0
VERTEX
  5
2930
  8
SAPA_FOGBAND
 10
17.71684519657197
 20
-88.199999999010856
 30
0.0
  0
SEQEND
  5
2931
  8
SAPA_FOGBAND
  0
POLYLINE
  5
1867
  8
SAPA_FOGBAND
 66
     1
 10
0.0
 20
0.0
 30
0.0
 70
     1
  0
VERTEX
  5
2932
  8
SAPA_FOGBAND
 10
27.244721504745151
 20
-82.499999999010811
 30
0.0
 42
-0.0775891054856093
  0
VERTEX
  5
2933
  8
SAPA_FOGBAND
 10
23.77793977432259
 20
-82.816635983072175
 30
0.0
  0
VERTEX
  5
2934
  8
SAPA_FOGBAND
 10
23.540050281493791
 20
-82.599999999010777
 30
0.0
 42
0.5773502691896298
  0
VERTEX
  5
2935
  8
SAPA_FOGBAND
 10
23.193640119979928
 20
-82.599999999010777
 30
0.0
  0
VERTEX
  5
2936
  8
SAPA_FOGBAND
 10
22.955592503249139
 20
-82.816909853233824
 30
0.0
  0
VERTEX
  5
2937
  8
SAPA_FOGBAND
 10
22.178097893332509
 20
-82.816909853233824
 30
0.0
  0
VERTEX
  5
2938
  8
SAPA_FOGBAND
 10
21.940050281493772
 20
-82.599999999010777
 30
0.0
 42
0.577350269189699
  0
VERTEX
  5
2939
  8
SAPA_FOGBAND
 10
21.593640119980019
 20
-82.599999999010777
 30
0.0
  0
VERTEX
  5
293A
  8
SAPA_FOGBAND
 10
21.35559250324923
 20
-82.816909853233824
 30
0.0
  0
VERTEX
  5
293B
  8
SAPA_FOGBAND
 10
20.57809789333248
 20
-82.816909853233824
 30
0.0
  0
VERTEX
  5
293C
  8
SAPA_FOGBAND
 10
20.340050281493738
 20
-82.599999999010777
 30
0.0
 42
0.577350269189699
  0
VERTEX
  5
293D
  8
SAPA_FOGBAND
 10
19.99364011998
 20
-82.599999999010777
 30
0.0
  0
VERTEX
  5
293E
  8
SAPA_FOGBAND
 10
19.755592503249201
 20
-82.816909853233824
 30
0.0
  0
VERTEX
  5
293F
  8
SAPA_FOGBAND
 10
18.97809789333246
 20
-82.816909853233824
 30
0.0
  0
VERTEX
  5
2940
  8
SAPA_FOGBAND
 10
18.740050281493829
 20
-82.599999999010777
 30
0.0
 42
0.5773502691896298
  0
VERTEX
  5
2941
  8
SAPA_FOGBAND
 10
18.393640119979981
 20
-82.599999999010777
 30
0.0
  0
VERTEX
  5
2942
  8
SAPA_FOGBAND
 10
18.155592503249181
 20
-82.816909853233824
 30
0.0
  0
VERTEX
  5
2943
  8
SAPA_FOGBAND
 10
17.378097893332441
 20
-82.816909853233824
 30
0.0
  0
VERTEX
  5
2944
  8
SAPA_FOGBAND
 10
17.14005028149381
 20
-82.599999999010777
 30
0.0
 42
0.5773502691896298
  0
VERTEX
  5
2945
  8
SAPA_FOGBAND
 10
16.793640119979951
 20
-82.599999999010777
 30
0.0
  0
VERTEX
  5
2946
  8
SAPA_FOGBAND
 10
16.555592503249159
 20
-82.816909853233824
 30
0.0
  0
VERTEX
  5
2947
  8
SAPA_FOGBAND
 10
15.778097889167499
 20
-82.816909853233824
 30
0.0
  0
VERTEX
  5
2948
  8
SAPA_FOGBAND
 10
15.54005027732876
 20
-82.599999999010777
 30
0.0
 42
0.577350269189699
  0
VERTEX
  5
2949
  8
SAPA_FOGBAND
 10
15.193640115815009
 20
-82.599999999010777
 30
0.0
  0
VERTEX
  5
294A
  8
SAPA_FOGBAND
 10
14.39364011625992
 20
-83.673330067495272
 30
0.0
 42
0.1316524987190269
  0
VERTEX
  5
294B
  8
SAPA_FOGBAND
 10
14.366845196571941
 20
-83.773330068265977
 30
0.0
  0
VERTEX
  5
294C
  8
SAPA_FOGBAND
 10
14.36684519657183
 20
-86.299999999010765
 30
0.0
 42
0.4142135623730951
  0
VERTEX
  5
294D
  8
SAPA_FOGBAND
 10
14.566845196571871
 20
-86.499999999010825
 30
0.0
  0
VERTEX
  5
294E
  8
SAPA_FOGBAND
 10
16.616845196571941
 20
-86.499999999010825
 30
0.0
 42
-0.4142135623730951
  0
VERTEX
  5
294F
  8
SAPA_FOGBAND
 10
17.116845196571941
 20
-86.999999999010811
 30
0.0
  0
VERTEX
  5
2950
  8
SAPA_FOGBAND
 10
17.116845196571941
 20
-87.726794918253987
 30
0.0
  0
VERTEX
  5
2951
  8
SAPA_FOGBAND
 10
16.86508138755141
 20
-87.794254827564373
 30
0.0
 42
0.4740571810232869
  0
VERTEX
  5
2952
  8
SAPA_FOGBAND
 10
16.737787525187851
 20
-88.076537413203027
 30
0.0
  0
VERTEX
  5
2953
  8
SAPA_FOGBAND
 10
17.357888027946391
 20
-89.522743549962797
 30
0.0
 42
0.2846003776495916
  0
VERTEX
  5
2954
  8
SAPA_FOGBAND
 10
17.80553220640661
 20
-89.799999999010765
 30
0.0
  0
VERTEX
  5
2955
  8
SAPA_FOGBAND
 10
19.428158186737161
 20
-89.799999999010765
 30
0.0
 42
0.2846003776495917
  0
VERTEX
  5
2956
  8
SAPA_FOGBAND
 10
19.875802365197391
 20
-89.522743549962797
 30
0.0
  0
VERTEX
  5
2957
  8
SAPA_FOGBAND
 10
20.49590286795592
 20
-88.076537413203027
 30
0.0
 42
0.4740571810232869
  0
VERTEX
  5
2958
  8
SAPA_FOGBAND
 10
20.368609005592361
 20
-87.794254827564373
 30
0.0
  0
VERTEX
  5
2959
  8
SAPA_FOGBAND
 10
20.116845196571941
 20
-87.726794918253987
 30
0.0
  0
VERTEX
  5
295A
  8
SAPA_FOGBAND
 10
20.116845196571941
 20
-86.999999999010811
 30
0.0
 42
-0.4142135623730951
  0
VERTEX
  5
295B
  8
SAPA_FOGBAND
 10
20.616845196571951
 20
-86.499999999010825
 30
0.0
  0
VERTEX
  5
295C
  8
SAPA_FOGBAND
 10
23.666845196571899
 20
-86.499999999010825
 30
0.0
 42
-0.4142135623730951
  0
VERTEX
  5
295D
  8
SAPA_FOGBAND
 10
23.866845196571941
 20
-86.699999999010856
 30
0.0
  0
VERTEX
  5
295E
  8
SAPA_FOGBAND
 10
23.86684519657183
 20
-87.599999999010834
 30
0.0
 42
0.4142135623731784
  0
VERTEX
  5
295F
  8
SAPA_FOGBAND
 10
24.066845196571879
 20
-87.799999999010765
 30
0.0
  0
VERTEX
  5
2960
  8
SAPA_FOGBAND
 10
24.766845196571921
 20
-87.799999999010879
 30
0.0
 42
0.4142135623730398
  0
VERTEX
  5
2961
  8
SAPA_FOGBAND
 10
25.066845196571879
 20
-87.499999999010811
 30
0.0
  0
VERTEX
  5
2962
  8
SAPA_FOGBAND
 10
25.066845196571879
 20
-86.689488222359273
 30
0.0
 42
-0.1316524975873973
  0
VERTEX
  5
2963
  8
SAPA_FOGBAND
 10
25.33479438900304
 20
-85.689488222359273
 30
0.0
  0
VERTEX
  5
2964
  8
SAPA_FOGBAND
 10
30.497639539043458
 20
-83.099920230267344
 30
0.0
 42
0.7057658529986604
  0
VERTEX
  5
2965
  8
SAPA_FOGBAND
 10
30.230046363685119
 20
-82.499999999010811
 30
0.0
  0
SEQEND
  5
2966
  8
SAPA_FOGBAND
  0
POLYLINE
  5
1868
  8
SAPA_FOGBAND
 66
     1
 10
0.0
 20
0.0
 30
0.0
 70
     1
  0
VERTEX
  5
2967
  8
SAPA_FOGBAND
 10
19.303393549234301
 20
-34.185369502362803
 30
0.0
 42
0.9999999999999998
  0
VERTEX
  5
2968
  8
SAPA_FOGBAND
 10
21.103393549234308
 20
-34.185369502362803
 30
0.0
  0
VERTEX
  5
2969
  8
SAPA_FOGBAND
 10
21.103393549234308
 20
-33.585369502362781
 30
0.0
 42
0.9999999999999998
  0
VERTEX
  5
296A
  8
SAPA_FOGBAND
 10
19.303393549234301
 20
-33.585369502362781
 30
0.0
  0
SEQEND
  5
296B
  8
SAPA_FOGBAND
  0
POLYLINE
  5
1869
  8
SAPA_FOGBAND
 66
     1
 10
0.0
 20
0.0
 30
0.0
  0
VERTEX
  5
296C
  8
SAPA_FOGBAND
 10
23.803393549234301
 20
-35.80000000000161
 30
0.0
  0
VERTEX
  5
296D
  8
SAPA_FOGBAND
 10
23.803393549234301
 20
-35.500000000001542
 30
0.0
  0
VERTEX
  5
296E
  8
SAPA_FOGBAND
 10
23.803393549234301
 20
-35.80000000000161
 30
0.0
 42
-0.4142135623730951
  0
VERTEX
  5
296F
  8
SAPA_FOGBAND
 10
23.303393549234301
 20
-36.30000000000161
 30
0.0
  0
VERTEX
  5
2970
  8
SAPA_FOGBAND
 10
16.003393549234339
 20
-36.30000000000161
 30
0.0
 42
-0.4142135623730951
  0
VERTEX
  5
2971
  8
SAPA_FOGBAND
 10
15.503393549234341
 20
-35.80000000000161
 30
0.0
  0
VERTEX
  5
2972
  8
SAPA_FOGBAND
 10
15.503393549234341
 20
-35.500000000001542
 30
0.0
  0
SEQEND
  5
2973
  8
SAPA_FOGBAND
  0
POLYLINE
  5
186A
  8
SAPA_FOGBAND
 66
     1
 10
0.0
 20
0.0
 30
0.0
 70
     1
  0
VERTEX
  5
2974
  8
SAPA_FOGBAND
 10
17.151678439530649
 20
-40.100000000001543
 30
0.0
  0
VERTEX
  5
2975
  8
SAPA_FOGBAND
 10
20.24632254885649
 20
-40.100000000001543
 30
0.0
 42
-1.024758115298622
  0
VERTEX
  5
2976
  8
SAPA_FOGBAND
 10
20.24632254885649
 20
-43.281531792787028
 30
0.0
  0
VERTEX
  5
2977
  8
SAPA_FOGBAND
 10
17.151678439530649
 20
-43.281531792787028
 30
0.0
 42
-0.9558128803175696
  0
SEQEND
  5
2978
  8
SAPA_FOGBAND
  0
POLYLINE
  5
186B
  8
SAPA_FOGBAND
 66
     1
 10
0.0
 20
0.0
 30
0.0
 70
     1
  0
VERTEX
  5
2979
  8
SAPA_FOGBAND
 10
7.9203481004113563
 20
-41.936054126747187
 30
0.0
 42
0.6274939020253784
  0
VERTEX
  5
297A
  8
SAPA_FOGBAND
 10
7.9312729228444967
 20
-43.494698620708917
 30
0.0
  0
VERTEX
  5
297B
  8
SAPA_FOGBAND
 10
11.90713291620915
 20
-44.058441624631669
 30
0.0
 42
0.4459602482749359
  0
VERTEX
  5
297C
  8
SAPA_FOGBAND
 10
12.90339354923435
 20
-43.163604270399311
 30
0.0
  0
VERTEX
  5
297D
  8
SAPA_FOGBAND
 10
12.90339354923435
 20
-40.440292945534601
 30
0.0
 42
0.6245270939358744
  0
VERTEX
  5
297E
  8
SAPA_FOGBAND
 10
11.44999687671914
 20
-39.730537971723898
 30
0.0
  0
SEQEND
  5
297F
  8
SAPA_FOGBAND
  0
POLYLINE
  5
186C
  8
SAPA_FOGBAND
 66
     1
 10
0.0
 20
0.0
 30
0.0
 70
     1
  0
VERTEX
  5
2980
  8
SAPA_FOGBAND
 10
18.703393549234331
 20
-34.058574583119658
 30
0.0
  0
VERTEX
  5
2981
  8
SAPA_FOGBAND
 10
18.45162974021386
 20
-33.991114673809257
 30
0.0
 42
-0.4740571810232144
  0
VERTEX
  5
2982
  8
SAPA_FOGBAND
 10
18.324335877850238
 20
-33.70883208817061
 30
0.0
  0
VERTEX
  5
2983
  8
SAPA_FOGBAND
 10
18.944436380608831
 20
-32.262625951410719
 30
0.0
 42
-0.2846003776496053
  0
VERTEX
  5
2984
  8
SAPA_FOGBAND
 10
19.392080559069001
 20
-31.985369502362751
 30
0.0
  0
VERTEX
  5
2985
  8
SAPA_FOGBAND
 10
21.014706539399612
 20
-31.985369502362751
 30
0.0
 42
-0.2846003776496027
  0
VERTEX
  5
2986
  8
SAPA_FOGBAND
 10
21.462350717859781
 20
-32.262625951410719
 30
0.0
  0
VERTEX
  5
2987
  8
SAPA_FOGBAND
 10
22.082451220618371
 20
-33.708832088170659
 30
0.0
 42
-0.4740571810232332
  0
VERTEX
  5
2988
  8
SAPA_FOGBAND
 10
21.955157358254809
 20
-33.991114673809257
 30
0.0
  0
VERTEX
  5
2989
  8
SAPA_FOGBAND
 10
21.703393549234331
 20
-34.058574583119658
 30
0.0
  0
VERTEX
  5
298A
  8
SAPA_FOGBAND
 10
21.703393549234331
 20
-35.000000000001542
 30
0.0
 42
0.4142135623730951
  0
VERTEX
  5
298B
  8
SAPA_FOGBAND
 10
22.203393549234331
 20
-35.500000000001542
 30
0.0
  0
VERTEX
  5
298C
  8
SAPA_FOGBAND
 10
24.71555371261579
 20
-35.500000000001599
 30
0.0
 42
-0.4027293761437467
  0
VERTEX
  5
298D
  8
SAPA_FOGBAND
 10
25.01532126621365
 20
-35.788192637470907
 30
0.0
  0
VERTEX
  5
298E
  8
SAPA_FOGBAND
 10
25.503161080883078
 20
-45.188192637470941
 30
0.0
 42
-0.4257917699693538
  0
VERTEX
  5
298F
  8
SAPA_FOGBAND
 10
25.203393527285218
 20
-45.500000000001592
 30
0.0
  0
VERTEX
  5
2990
  8
SAPA_FOGBAND
 10
11.49785986806134
 20
-45.500000000001592
 30
0.0
  0
VERTEX
  5
2991
  8
SAPA_FOGBAND
 10
5.894718270334466
 20
-44.723465082318967
 30
0.0
 42
-0.322530093016903
  0
VERTEX
  5
2992
  8
SAPA_FOGBAND
 10
5.2033935272851979
 20
-43.729387777212999
 30
0.0
  0
VERTEX
  5
2993
  8
SAPA_FOGBAND
 10
5.2033935272851979
 20
-42.498644220775418
 30
0.0
 42
-0.2325311832130604
  0
VERTEX
  5
2994
  8
SAPA_FOGBAND
 10
5.3980562839784181
 20
-42.102703356693617
 30
0.0
  0
VERTEX
  5
2995
  8
SAPA_FOGBAND
 10
14.564619511885921
 20
-35.708118271838103
 30
0.0
 42
-0.1657205760184606
  0
VERTEX
  5
2996
  8
SAPA_FOGBAND
 10
15.175293998499541
 20
-35.500000000001542
 30
0.0
  0
VERTEX
  5
2997
  8
SAPA_FOGBAND
 10
18.203393549234331
 20
-35.500000000001542
 30
0.0
 42
0.4142135623730951
  0
VERTEX
  5
2998
  8
SAPA_FOGBAND
 10
18.703393549234331
 20
-35.000000000001542
 30
0.0
  0
SEQEND
  5
2999
  8
SAPA_FOGBAND
  0
POLYLINE
  5
186D
  8
SAPA_FOGBAND
 66
     1
 10
0.0
 20
0.0
 30
0.0
 70
     1
  0
VERTEX
  5
299A
  8
SAPA_FOGBAND
 10
28.001338375370509
 20
3.1910442658326441
 30
0.0
  0
VERTEX
  5
299B
  8
SAPA_FOGBAND
 10
28.001338375370509
 20
0.3577253014129127
 30
0.0
 42
-0.577350269189628
  0
VERTEX
  5
299C
  8
SAPA_FOGBAND
 10
27.55133837537047
 20
0.0979176802774617
 30
0.0
  0
VERTEX
  5
299D
  8
SAPA_FOGBAND
 10
25.51020108666723
 20
1.796883022029689
 30
0.0
 42
0.8769764629927237
  0
VERTEX
  5
299E
  8
SAPA_FOGBAND
 10
25.14806905231131
 20
1.32494336653842
 30
0.0
  0
VERTEX
  5
299F
  8
SAPA_FOGBAND
 10
27.708445156556952
 20
-1.868076234720049
 30
0.0
 42
-0.1989123673796493
  0
VERTEX
  5
29A0
  8
SAPA_FOGBAND
 10
28.001338375370509
 20
-2.575183015906489
 30
0.0
  0
VERTEX
  5
29A1
  8
SAPA_FOGBAND
 10
28.001338375370509
 20
-4.2116358188102154
 30
0.0
 42
-0.577350269189628
  0
VERTEX
  5
29A2
  8
SAPA_FOGBAND
 10
27.55133837537047
 20
-4.471443439945439
 30
0.0
  0
VERTEX
  5
29A3
  8
SAPA_FOGBAND
 10
25.511069839847611
 20
-3.7028462713806931
 30
0.0
 42
0.8769764629928424
  0
VERTEX
  5
29A4
  8
SAPA_FOGBAND
 10
25.148937805491698
 20
-4.1747859268719623
 30
0.0
  0
VERTEX
  5
29A5
  8
SAPA_FOGBAND
 10
29.282961428401279
 20
-7.7768364612505394
 30
0.0
 42
0.1989123673796579
  0
VERTEX
  5
29A6
  8
SAPA_FOGBAND
 10
29.990068209587719
 20
-8.0697296800638725
 30
0.0
  0
VERTEX
  5
29A7
  8
SAPA_FOGBAND
 10
29.999999999900918
 20
-8.0697296800638725
 30
0.0
 42
0.4142135623730951
  0
VERTEX
  5
29A8
  8
SAPA_FOGBAND
 10
30.999999999900918
 20
-7.0697296800638716
 30
0.0
  0
VERTEX
  5
29A9
  8
SAPA_FOGBAND
 10
32.16408459902442
 20
0.1652628207033757
 30
0.0
 42
0.6261632875160376
  0
VERTEX
  5
29AA
  8
SAPA_FOGBAND
 10
31.722117795598081
 20
0.4751197492220598
 30
0.0
  0
VERTEX
  5
29AB
  8
SAPA_FOGBAND
 10
31.445776149611959
 20
0.3214817544332362
 30
0.0
 42
-0.5719685712689121
  0
VERTEX
  5
29AC
  8
SAPA_FOGBAND
 10
30.999999999901039
 20
0.5836826586566275
 30
0.0
  0
VERTEX
  5
29AD
  8
SAPA_FOGBAND
 10
30.999999999900918
 20
3.3302703199359911
 30
0.0
 42
-0.4142135623730118
  0
VERTEX
  5
29AE
  8
SAPA_FOGBAND
 10
31.29999999990088
 20
3.6302703199361721
 30
0.0
  0
VERTEX
  5
29AF
  8
SAPA_FOGBAND
 10
32.699999999900967
 20
3.6302703199359452
 30
0.0
 42
0.7754026414785753
  0
VERTEX
  5
29B0
  8
SAPA_FOGBAND
 10
32.844707868206861
 20
4.1930623153438509
 30
0.0
  0
VERTEX
  5
29B1
  8
SAPA_FOGBAND
 10
25.501101552726201
 20
7.9039471192749451
 30
0.0
 42
0.8680589103333867
  0
VERTEX
  5
29B2
  8
SAPA_FOGBAND
 10
25.144261650064269
 20
7.4290230895111762
 30
0.0
  0
VERTEX
  5
29B3
  8
SAPA_FOGBAND
 10
27.708445156556952
 20
3.8981510470190841
 30
0.0
 42
-0.1989123673796493
  0
SEQEND
  5
29B4
  8
SAPA_FOGBAND
  0
POLYLINE
  5
186E
  8
SAPA_FOGBAND
 62
     2
 10
105.7737854458744
 20
-23.90990906367249
 30
0.0
 66
     1
 70
     8
  0
VERTEX
  8
SAPA_FOGBAND
  5
2ADE
 10
105.774
 20
-23.9099
 30
0.000000
  70
    32
  0
VERTEX
  8
SAPA_FOGBAND
  5
2ADF
 10
105.771
 20
-23.9786
 30
0.000000
  70
    32
  0
VERTEX
  8
SAPA_FOGBAND
  5
2AE0
 10
105.763
 20
-24.0471
 30
0.000000
  70
    32
  0
VERTEX
  8
SAPA_FOGBAND
  5
2AE1
 10
105.750
 20
-24.1153
 30
0.000000
  70
    32
  0
VERTEX
  8
SAPA_FOGBAND
  5
2AE2
 10
105.732
 20
-24.1830
 30
0.000000
  70
    32
  0
VERTEX
  8
SAPA_FOGBAND
  5
2AE3
 10
105.709
 20
-24.2501
 30
0.000000
  70
    32
  0
VERTEX
  8
SAPA_FOGBAND
  5
2AE4
 10
105.680
 20
-24.3163
 30
0.000000
  70
    32
  0
VERTEX
  8
SAPA_FOGBAND
  5
2AE5
 10
105.647
 20
-24.3816
 30
0.000000
  70
    32
  0
VERTEX
  8
SAPA_FOGBAND
  5
2AE6
 10
105.609
 20
-24.4457
 30
0.000000
  70
    32
  0
VERTEX
  8
SAPA_FOGBAND
  5
2AE7
 10
105.566
 20
-24.5085
 30
0.000000
  70
    32
  0
VERTEX
  8
SAPA_FOGBAND
  5
2AE8
 10
105.518
 20
-24.5699
 30
0.000000
  70
    32
  0
VERTEX
  8
SAPA_FOGBAND
  5
2AE9
 10
105.465
 20
-24.6297
 30
0.000000
  70
    32
  0
VERTEX
  8
SAPA_FOGBAND
  5
2AEA
 10
105.408
 20
-24.6877
 30
0.000000
  70
    32
  0
VERTEX
  8
SAPA_FOGBAND
  5
2AEB
 10
105.347
 20
-24.7439
 30
0.000000
  70
    32
  0
VERTEX
  8
SAPA_FOGBAND
  5
2AEC
 10
105.282
 20
-24.7981
 30
0.000000
  70
    32
  0
VERTEX
  8
SAPA_FOGBAND
  5
2AED
 10
105.212
 20
-24.8501
 30
0.000000
  70
    32
  0
VERTEX
  8
SAPA_FOGBAND
  5
2AEE
 10
105.139
 20
-24.8999
 30
0.000000
  70
    32
  0
VERTEX
  8
SAPA_FOGBAND
  5
2AEF
 10
105.062
 20
-24.9472
 30
0.000000
  70
    32
  0
VERTEX
  8
SAPA_FOGBAND
  5
2AF0
 10
104.981
 20
-24.9921
 30
0.000000
  70
    32
  0
VERTEX
  8
SAPA_FOGBAND
  5
2AF1
 10
104.897
 20
-25.0344
 30
0.000000
  70
    32
  0
VERTEX
  8
SAPA_FOGBAND
  5
2AF2
 10
104.810
 20
-25.0740
 30
0.000000
  70
    32
  0
VERTEX
  8
SAPA_FOGBAND
  5
2AF3
 10
104.720
 20
-25.1107
 30
0.000000
  70
    32
  0
VERTEX
  8
SAPA_FOGBAND
  5
2AF4
 10
104.628
 20
-25.1446
 30
0.000000
  70
    32
  0
VERTEX
  8
SAPA_FOGBAND
  5
2AF5
 10
104.533
 20
-25.1755
 30
0.000000
  70
    32
  0
VERTEX
  8
SAPA_FOGBAND
  5
2AF6
 10
104.436
 20
-25.2033
 30
0.000000
  70
    32
  0
VERTEX
  8
SAPA_FOGBAND
  5
2AF7
 10
104.336
 20
-25.2281
 30
0.000000
  70
    32
  0
VERTEX
  8
SAPA_FOGBAND
  5
2AF8
 10
104.235
 20
-25.2496
 30
0.000000
  70
    32
  0
VERTEX
  8
SAPA_FOGBAND
  5
2AF9
 10
104.133
 20
-25.2680
 30
0.000000
  70
    32
  0
VERTEX
  8
SAPA_FOGBAND
  5
2AFA
 10
104.029
 20
-25.2830
 30
0.000000
  70
    32
  0
VERTEX
  8
SAPA_FOGBAND
  5
2AFB
 10
103.924
 20
-25.2948
 30
0.000000
  70
    32
  0
VERTEX
  8
SAPA_FOGBAND
  5
2AFC
 10
103.818
 20
-25.3032
 30
0.000000
  70
    32
  0
VERTEX
  8
SAPA_FOGBAND
  5
2AFD
 10
103.712
 20
-25.3082
 30
0.000000
  70
    32
  0
VERTEX
  8
SAPA_FOGBAND
  5
2AFE
 10
103.606
 20
-25.3099
 30
0.000000
  70
    32
  0
VERTEX
  8
SAPA_FOGBAND
  5
2AFF
 10
103.500
 20
-25.3082
 30
0.000000
  70
    32
  0
VERTEX
  8
SAPA_FOGBAND
  5
2B00
 10
103.394
 20
-25.3032
 30
0.000000
  70
    32
  0
VERTEX
  8
SAPA_FOGBAND
  5
2B01
 10
103.288
 20
-25.2948
 30
0.000000
  70
    32
  0
VERTEX
  8
SAPA_FOGBAND
  5
2B02
 10
103.183
 20
-25.2830
 30
0.000000
  70
    32
  0
VERTEX
  8
SAPA_FOGBAND
  5
2B03
 10
103.079
 20
-25.2680
 30
0.000000
  70
    32
  0
VERTEX
  8
SAPA_FOGBAND
  5
2B04
 10
102.977
 20
-25.2496
 30
0.000000
  70
    32
  0
VERTEX
  8
SAPA_FOGBAND
  5
2B05
 10
102.876
 20
-25.2281
 30
0.000000
  70
    32
  0
VERTEX
  8
SAPA_FOGBAND
  5
2B06
 10
102.776
 20
-25.2033
 30
0.000000
  70
    32
  0
VERTEX
  8
SAPA_FOGBAND
  5
2B07
 10
102.679
 20
-25.1755
 30
0.000000
  70
    32
  0
VERTEX
  8
SAPA_FOGBAND
  5
2B08
 10
102.584
 20
-25.1446
 30
0.000000
  70
    32
  0
VERTEX
  8
SAPA_FOGBAND
  5
2B09
 10
102.492
 20
-25.1107
 30
0.000000
  70
    32
  0
VERTEX
  8
SAPA_FOGBAND
  5
2B0A
 10
102.402
 20
-25.0740
 30
0.000000
  70
    32
  0
VERTEX
  8
SAPA_FOGBAND
  5
2B0B
 10
102.315
 20
-25.0344
 30
0.000000
  70
    32
  0
VERTEX
  8
SAPA_FOGBAND
  5
2B0C
 10
102.231
 20
-24.9921
 30
0.000000
  70
    32
  0
VERTEX
  8
SAPA_FOGBAND
  5
2B0D
 10
102.150
 20
-24.9472
 30
0.000000
  70
    32
  0
VERTEX
  8
SAPA_FOGBAND
  5
2B0E
 10
102.073
 20
-24.8999
 30
0.000000
  70
    32
  0
VERTEX
  8
SAPA_FOGBAND
  5
2B0F
 10
102.000
 20
-24.8501
 30
0.000000
  70
    32
  0
VERTEX
  8
SAPA_FOGBAND
  5
2B10
 10
101.930
 20
-24.7981
 30
0.000000
  70
    32
  0
VERTEX
  8
SAPA_FOGBAND
  5
2B11
 10
101.865
 20
-24.7439
 30
0.000000
  70
    32
  0
VERTEX
  8
SAPA_FOGBAND
  5
2B12
 10
101.804
 20
-24.6877
 30
0.000000
  70
    32
  0
VERTEX
  8
SAPA_FOGBAND
  5
2B13
 10
101.747
 20
-24.6297
 30
0.000000
  70
    32
  0
VERTEX
  8
SAPA_FOGBAND
  5
2B14
 10
101.694
 20
-24.5699
 30
0.000000
  70
    32
  0
VERTEX
  8
SAPA_FOGBAND
  5
2B15
 10
101.646
 20
-24.5085
 30
0.000000
  70
    32
  0
VERTEX
  8
SAPA_FOGBAND
  5
2B16
 10
101.603
 20
-24.4457
 30
0.000000
  70
    32
  0
VERTEX
  8
SAPA_FOGBAND
  5
2B17
 10
101.565
 20
-24.3816
 30
0.000000
  70
    32
  0
VERTEX
  8
SAPA_FOGBAND
  5
2B18
 10
101.532
 20
-24.3163
 30
0.000000
  70
    32
  0
VERTEX
  8
SAPA_FOGBAND
  5
2B19
 10
101.503
 20
-24.2501
 30
0.000000
  70
    32
  0
VERTEX
  8
SAPA_FOGBAND
  5
2B1A
 10
101.480
 20
-24.1830
 30
0.000000
  70
    32
  0
VERTEX
  8
SAPA_FOGBAND
  5
2B1B
 10
101.462
 20
-24.1153
 30
0.000000
  70
    32
  0
VERTEX
  8
SAPA_FOGBAND
  5
2B1C
 10
101.449
 20
-24.0471
 30
0.000000
  70
    32
  0
VERTEX
  8
SAPA_FOGBAND
  5
2B1D
 10
101.441
 20
-23.9786
 30
0.000000
  70
    32
  0
VERTEX
  8
SAPA_FOGBAND
  5
2B1E
 10
101.438
 20
-23.9099
 30
0.000000
  70
    32
  0
VERTEX
  8
SAPA_FOGBAND
  5
2B1F
 10
101.441
 20
-23.8412
 30
0.000000
  70
    32
  0
VERTEX
  8
SAPA_FOGBAND
  5
2B20
 10
101.449
 20
-23.7727
 30
0.000000
  70
    32
  0
VERTEX
  8
SAPA_FOGBAND
  5
2B21
 10
101.462
 20
-23.7045
 30
0.000000
  70
    32
  0
VERTEX
  8
SAPA_FOGBAND
  5
2B22
 10
101.480
 20
-23.6368
 30
0.000000
  70
    32
  0
VERTEX
  8
SAPA_FOGBAND
  5
2B23
 10
101.503
 20
-23.5697
 30
0.000000
  70
    32
  0
VERTEX
  8
SAPA_FOGBAND
  5
2B24
 10
101.532
 20
-23.5035
 30
0.000000
  70
    32
  0
VERTEX
  8
SAPA_FOGBAND
  5
2B25
 10
101.565
 20
-23.4383
 30
0.000000
  70
    32
  0
VERTEX
  8
SAPA_FOGBAND
  5
2B26
 10
101.603
 20
-23.3742
 30
0.000000
  70
    32
  0
VERTEX
  8
SAPA_FOGBAND
  5
2B27
 10
101.646
 20
-23.3113
 30
0.000000
  70
    32
  0
VERTEX
  8
SAPA_FOGBAND
  5
2B28
 10
101.694
 20
-23.2500
 30
0.000000
  70
    32
  0
VERTEX
  8
SAPA_FOGBAND
  5
2B29
 10
101.747
 20
-23.1902
 30
0.000000
  70
    32
  0
VERTEX
  8
SAPA_FOGBAND
  5
2B2A
 10
101.804
 20
-23.1321
 30
0.000000
  70
    32
  0
VERTEX
  8
SAPA_FOGBAND
  5
2B2B
 10
101.865
 20
-23.0759
 30
0.000000
  70
    32
  0
VERTEX
  8
SAPA_FOGBAND
  5
2B2C
 10
101.930
 20
-23.0218
 30
0.000000
  70
    32
  0
VERTEX
  8
SAPA_FOGBAND
  5
2B2D
 10
102.000
 20
-22.9697
 30
0.000000
  70
    32
  0
VERTEX
  8
SAPA_FOGBAND
  5
2B2E
 10
102.073
 20
-22.9200
 30
0.000000
  70
    32
  0
VERTEX
  8
SAPA_FOGBAND
  5
2B2F
 10
102.150
 20
-22.8726
 30
0.000000
  70
    32
  0
VERTEX
  8
SAPA_FOGBAND
  5
2B30
 10
102.231
 20
-22.8277
 30
0.000000
  70
    32
  0
VERTEX
  8
SAPA_FOGBAND
  5
2B31
 10
102.315
 20
-22.7854
 30
0.000000
  70
    32
  0
VERTEX
  8
SAPA_FOGBAND
  5
2B32
 10
102.402
 20
-22.7459
 30
0.000000
  70
    32
  0
VERTEX
  8
SAPA_FOGBAND
  5
2B33
 10
102.492
 20
-22.7091
 30
0.000000
  70
    32
  0
VERTEX
  8
SAPA_FOGBAND
  5
2B34
 10
102.584
 20
-22.6752
 30
0.000000
  70
    32
  0
VERTEX
  8
SAPA_FOGBAND
  5
2B35
 10
102.679
 20
-22.6443
 30
0.000000
  70
    32
  0
VERTEX
  8
SAPA_FOGBAND
  5
2B36
 10
102.776
 20
-22.6165
 30
0.000000
  70
    32
  0
VERTEX
  8
SAPA_FOGBAND
  5
2B37
 10
102.876
 20
-22.5917
 30
0.000000
  70
    32
  0
VERTEX
  8
SAPA_FOGBAND
  5
2B38
 10
102.977
 20
-22.5702
 30
0.000000
  70
    32
  0
VERTEX
  8
SAPA_FOGBAND
  5
2B39
 10
103.079
 20
-22.5519
 30
0.000000
  70
    32
  0
VERTEX
  8
SAPA_FOGBAND
  5
2B3A
 10
103.183
 20
-22.5368
 30
0.000000
  70
    32
  0
VERTEX
  8
SAPA_FOGBAND
  5
2B3B
 10
103.288
 20
-22.5251
 30
0.000000
  70
    32
  0
VERTEX
  8
SAPA_FOGBAND
  5
2B3C
 10
103.394
 20
-22.5167
 30
0.000000
  70
    32
  0
VERTEX
  8
SAPA_FOGBAND
  5
2B3D
 10
103.500
 20
-22.5116
 30
0.000000
  70
    32
  0
VERTEX
  8
SAPA_FOGBAND
  5
2B3E
 10
103.606
 20
-22.5099
 30
0.000000
  70
    32
  0
VERTEX
  8
SAPA_FOGBAND
  5
2B3F
 10
103.712
 20
-22.5116
 30
0.000000
  70
    32
  0
VERTEX
  8
SAPA_FOGBAND
  5
2B40
 10
103.818
 20
-22.5167
 30
0.000000
  70
    32
  0
VERTEX
  8
SAPA_FOGBAND
  5
2B41
 10
103.924
 20
-22.5251
 30
0.000000
  70
    32
  0
VERTEX
  8
SAPA_FOGBAND
  5
2B42
 10
104.029
 20
-22.5368
 30
0.000000
  70
    32
  0
VERTEX
  8
SAPA_FOGBAND
  5
2B43
 10
104.133
 20
-22.5519
 30
0.000000
  70
    32
  0
VERTEX
  8
SAPA_FOGBAND
  5
2B44
 10
104.235
 20
-22.5702
 30
0.000000
  70
    32
  0
VERTEX
  8
SAPA_FOGBAND
  5
2B45
 10
104.336
 20
-22.5917
 30
0.000000
  70
    32
  0
VERTEX
  8
SAPA_FOGBAND
  5
2B46
 10
104.436
 20
-22.6165
 30
0.000000
  70
    32
  0
VERTEX
  8
SAPA_FOGBAND
  5
2B47
 10
104.533
 20
-22.6443
 30
0.000000
  70
    32
  0
VERTEX
  8
SAPA_FOGBAND
  5
2B48
 10
104.628
 20
-22.6752
 30
0.000000
  70
    32
  0
VERTEX
  8
SAPA_FOGBAND
  5
2B49
 10
104.720
 20
-22.7091
 30
0.000000
  70
    32
  0
VERTEX
  8
SAPA_FOGBAND
  5
2B4A
 10
104.810
 20
-22.7459
 30
0.000000
  70
    32
  0
VERTEX
  8
SAPA_FOGBAND
  5
2B4B
 10
104.897
 20
-22.7854
 30
0.000000
  70
    32
  0
VERTEX
  8
SAPA_FOGBAND
  5
2B4C
 10
104.981
 20
-22.8277
 30
0.000000
  70
    32
  0
VERTEX
  8
SAPA_FOGBAND
  5
2B4D
 10
105.062
 20
-22.8726
 30
0.000000
  70
    32
  0
VERTEX
  8
SAPA_FOGBAND
  5
2B4E
 10
105.139
 20
-22.9200
 30
0.000000
  70
    32
  0
VERTEX
  8
SAPA_FOGBAND
  5
2B4F
 10
105.212
 20
-22.9697
 30
0.000000
  70
    32
  0
VERTEX
  8
SAPA_FOGBAND
  5
2B50
 10
105.282
 20
-23.0218
 30
0.000000
  70
    32
  0
VERTEX
  8
SAPA_FOGBAND
  5
2B51
 10
105.347
 20
-23.0759
 30
0.000000
  70
    32
  0
VERTEX
  8
SAPA_FOGBAND
  5
2B52
 10
105.408
 20
-23.1321
 30
0.000000
  70
    32
  0
VERTEX
  8
SAPA_FOGBAND
  5
2B53
 10
105.465
 20
-23.1902
 30
0.000000
  70
    32
  0
VERTEX
  8
SAPA_FOGBAND
  5
2B54
 10
105.518
 20
-23.2500
 30
0.000000
  70
    32
  0
VERTEX
  8
SAPA_FOGBAND
  5
2B55
 10
105.566
 20
-23.3113
 30
0.000000
  70
    32
  0
VERTEX
  8
SAPA_FOGBAND
  5
2B56
 10
105.609
 20
-23.3742
 30
0.000000
  70
    32
  0
VERTEX
  8
SAPA_FOGBAND
  5
2B57
 10
105.647
 20
-23.4383
 30
0.000000
  70
    32
  0
VERTEX
  8
SAPA_FOGBAND
  5
2B58
 10
105.680
 20
-23.5035
 30
0.000000
  70
    32
  0
VERTEX
  8
SAPA_FOGBAND
  5
2B59
 10
105.709
 20
-23.5697
 30
0.000000
  70
    32
  0
VERTEX
  8
SAPA_FOGBAND
  5
2B5A
 10
105.732
 20
-23.6368
 30
0.000000
  70
    32
  0
VERTEX
  8
SAPA_FOGBAND
  5
2B5B
 10
105.750
 20
-23.7045
 30
0.000000
  70
    32
  0
VERTEX
  8
SAPA_FOGBAND
  5
2B5C
 10
105.763
 20
-23.7727
 30
0.000000
  70
    32
  0
VERTEX
  8
SAPA_FOGBAND
  5
2B5D
 10
105.771
 20
-23.8412
 30
0.000000
  70
    32
  0
VERTEX
  8
SAPA_FOGBAND
  5
2B5E
 10
105.774
 20
-23.9099
 30
0.000000
  70
    32
  0
SEQEND
  8
SAPA_FOGBAND
  5
2B5F
  0
POLYLINE
  5
186F
  8
SAPA_FOGBAND
 62
     2
 10
115.29118830492544
 20
-22.17512304093955
 30
0.0
 66
     1
 70
     8
  0
VERTEX
  8
SAPA_FOGBAND
  5
2B60
 10
115.291
 20
-22.1751
 30
0.000000
  70
    32
  0
VERTEX
  8
SAPA_FOGBAND
  5
2B61
 10
115.287
 20
-22.2634
 30
0.000000
  70
    32
  0
VERTEX
  8
SAPA_FOGBAND
  5
2B62
 10
115.276
 20
-22.3516
 30
0.000000
  70
    32
  0
VERTEX
  8
SAPA_FOGBAND
  5
2B63
 10
115.258
 20
-22.4392
 30
0.000000
  70
    32
  0
VERTEX
  8
SAPA_FOGBAND
  5
2B64
 10
115.232
 20
-22.5263
 30
0.000000
  70
    32
  0
VERTEX
  8
SAPA_FOGBAND
  5
2B65
 10
115.199
 20
-22.6125
 30
0.000000
  70
    32
  0
VERTEX
  8
SAPA_FOGBAND
  5
2B66
 10
115.158
 20
-22.6976
 30
0.000000
  70
    32
  0
VERTEX
  8
SAPA_FOGBAND
  5
2B67
 10
115.111
 20
-22.7815
 30
0.000000
  70
    32
  0
VERTEX
  8
SAPA_FOGBAND
  5
2B68
 10
115.056
 20
-22.8640
 30
0.000000
  70
    32
  0
VERTEX
  8
SAPA_FOGBAND
  5
2B69
 10
114.995
 20
-22.9447
 30
0.000000
  70
    32
  0
VERTEX
  8
SAPA_FOGBAND
  5
2B6A
 10
114.927
 20
-23.0236
 30
0.000000
  70
    32
  0
VERTEX
  8
SAPA_FOGBAND
  5
2B6B
 10
114.852
 20
-23.1005
 30
0.000000
  70
    32
  0
VERTEX
  8
SAPA_FOGBAND
  5
2B6C
 10
114.771
 20
-23.1751
 30
0.000000
  70
    32
  0
VERTEX
  8
SAPA_FOGBAND
  5
2B6D
 10
114.684
 20
-23.2474
 30
0.000000
  70
    32
  0
VERTEX
  8
SAPA_FOGBAND
  5
2B6E
 10
114.591
 20
-23.3170
 30
0.000000
  70
    32
  0
VERTEX
  8
SAPA_FOGBAND
  5
2B6F
 10
114.492
 20
-23.3839
 30
0.000000
  70
    32
  0
VERTEX
  8
SAPA_FOGBAND
  5
2B70
 10
114.388
 20
-23.4479
 30
0.000000
  70
    32
  0
VERTEX
  8
SAPA_FOGBAND
  5
2B71
 10
114.278
 20
-23.5088
 30
0.000000
  70
    32
  0
VERTEX
  8
SAPA_FOGBAND
  5
2B72
 10
114.163
 20
-23.5665
 30
0.000000
  70
    32
  0
VERTEX
  8
SAPA_FOGBAND
  5
2B73
 10
114.044
 20
-23.6209
 30
0.000000
  70
    32
  0
VERTEX
  8
SAPA_FOGBAND
  5
2B74
 10
113.920
 20
-23.6718
 30
0.000000
  70
    32
  0
VERTEX
  8
SAPA_FOGBAND
  5
2B75
 10
113.792
 20
-23.7190
 30
0.000000
  70
    32
  0
VERTEX
  8
SAPA_FOGBAND
  5
2B76
 10
113.660
 20
-23.7626
 30
0.000000
  70
    32
  0
VERTEX
  8
SAPA_FOGBAND
  5
2B77
 10
113.525
 20
-23.8023
 30
0.000000
  70
    32
  0
VERTEX
  8
SAPA_FOGBAND
  5
2B78
 10
113.387
 20
-23.8381
 30
0.000000
  70
    32
  0
VERTEX
  8
SAPA_FOGBAND
  5
2B79
 10
113.245
 20
-23.8699
 30
0.000000
  70
    32
  0
VERTEX
  8
SAPA_FOGBAND
  5
2B7A
 10
113.102
 20
-23.8976
 30
0.000000
  70
    32
  0
VERTEX
  8
SAPA_FOGBAND
  5
2B7B
 10
112.956
 20
-23.9212
 30
0.000000
  70
    32
  0
VERTEX
  8
SAPA_FOGBAND
  5
2B7C
 10
112.808
 20
-23.9405
 30
0.000000
  70
    32
  0
VERTEX
  8
SAPA_FOGBAND
  5
2B7D
 10
112.659
 20
-23.9556
 30
0.000000
  70
    32
  0
VERTEX
  8
SAPA_FOGBAND
  5
2B7E
 10
112.508
 20
-23.9665
 30
0.000000
  70
    32
  0
VERTEX
  8
SAPA_FOGBAND
  5
2B7F
 10
112.357
 20
-23.9730
 30
0.000000
  70
    32
  0
VERTEX
  8
SAPA_FOGBAND
  5
2B80
 10
112.206
 20
-23.9751
 30
0.000000
  70
    32
  0
VERTEX
  8
SAPA_FOGBAND
  5
2B81
 10
112.055
 20
-23.9730
 30
0.000000
  70
    32
  0
VERTEX
  8
SAPA_FOGBAND
  5
2B82
 10
111.904
 20
-23.9665
 30
0.000000
  70
    32
  0
VERTEX
  8
SAPA_FOGBAND
  5
2B83
 10
111.753
 20
-23.9556
 30
0.000000
  70
    32
  0
VERTEX
  8
SAPA_FOGBAND
  5
2B84
 10
111.604
 20
-23.9405
 30
0.000000
  70
    32
  0
VERTEX
  8
SAPA_FOGBAND
  5
2B85
 10
111.456
 20
-23.9212
 30
0.000000
  70
    32
  0
VERTEX
  8
SAPA_FOGBAND
  5
2B86
 10
111.310
 20
-23.8976
 30
0.000000
  70
    32
  0
VERTEX
  8
SAPA_FOGBAND
  5
2B87
 10
111.167
 20
-23.8699
 30
0.000000
  70
    32
  0
VERTEX
  8
SAPA_FOGBAND
  5
2B88
 10
111.025
 20
-23.8381
 30
0.000000
  70
    32
  0
VERTEX
  8
SAPA_FOGBAND
  5
2B89
 10
110.887
 20
-23.8023
 30
0.000000
  70
    32
  0
VERTEX
  8
SAPA_FOGBAND
  5
2B8A
 10
110.752
 20
-23.7626
 30
0.000000
  70
    32
  0
VERTEX
  8
SAPA_FOGBAND
  5
2B8B
 10
110.620
 20
-23.7190
 30
0.000000
  70
    32
  0
VERTEX
  8
SAPA_FOGBAND
  5
2B8C
 10
110.492
 20
-23.6718
 30
0.000000
  70
    32
  0
VERTEX
  8
SAPA_FOGBAND
  5
2B8D
 10
110.368
 20
-23.6209
 30
0.000000
  70
    32
  0
VERTEX
  8
SAPA_FOGBAND
  5
2B8E
 10
110.249
 20
-23.5665
 30
0.000000
  70
    32
  0
VERTEX
  8
SAPA_FOGBAND
  5
2B8F
 10
110.134
 20
-23.5088
 30
0.000000
  70
    32
  0
VERTEX
  8
SAPA_FOGBAND
  5
2B90
 10
110.024
 20
-23.4479
 30
0.000000
  70
    32
  0
VERTEX
  8
SAPA_FOGBAND
  5
2B91
 10
109.920
 20
-23.3839
 30
0.000000
  70
    32
  0
VERTEX
  8
SAPA_FOGBAND
  5
2B92
 10
109.821
 20
-23.3170
 30
0.000000
  70
    32
  0
VERTEX
  8
SAPA_FOGBAND
  5
2B93
 10
109.728
 20
-23.2474
 30
0.000000
  70
    32
  0
VERTEX
  8
SAPA_FOGBAND
  5
2B94
 10
109.641
 20
-23.1751
 30
0.000000
  70
    32
  0
VERTEX
  8
SAPA_FOGBAND
  5
2B95
 10
109.560
 20
-23.1005
 30
0.000000
  70
    32
  0
VERTEX
  8
SAPA_FOGBAND
  5
2B96
 10
109.485
 20
-23.0236
 30
0.000000
  70
    32
  0
VERTEX
  8
SAPA_FOGBAND
  5
2B97
 10
109.417
 20
-22.9447
 30
0.000000
  70
    32
  0
VERTEX
  8
SAPA_FOGBAND
  5
2B98
 10
109.356
 20
-22.8640
 30
0.000000
  70
    32
  0
VERTEX
  8
SAPA_FOGBAND
  5
2B99
 10
109.301
 20
-22.7815
 30
0.000000
  70
    32
  0
VERTEX
  8
SAPA_FOGBAND
  5
2B9A
 10
109.254
 20
-22.6976
 30
0.000000
  70
    32
  0
VERTEX
  8
SAPA_FOGBAND
  5
2B9B
 10
109.213
 20
-22.6125
 30
0.000000
  70
    32
  0
VERTEX
  8
SAPA_FOGBAND
  5
2B9C
 10
109.180
 20
-22.5263
 30
0.000000
  70
    32
  0
VERTEX
  8
SAPA_FOGBAND
  5
2B9D
 10
109.154
 20
-22.4392
 30
0.000000
  70
    32
  0
VERTEX
  8
SAPA_FOGBAND
  5
2B9E
 10
109.136
 20
-22.3516
 30
0.000000
  70
    32
  0
VERTEX
  8
SAPA_FOGBAND
  5
2B9F
 10
109.124
 20
-22.2634
 30
0.000000
  70
    32
  0
VERTEX
  8
SAPA_FOGBAND
  5
2BA0
 10
109.121
 20
-22.1751
 30
0.000000
  70
    32
  0
VERTEX
  8
SAPA_FOGBAND
  5
2BA1
 10
109.124
 20
-22.0868
 30
0.000000
  70
    32
  0
VERTEX
  8
SAPA_FOGBAND
  5
2BA2
 10
109.136
 20
-21.9987
 30
0.000000
  70
    32
  0
VERTEX
  8
SAPA_FOGBAND
  5
2BA3
 10
109.154
 20
-21.9110
 30
0.000000
  70
    32
  0
VERTEX
  8
SAPA_FOGBAND
  5
2BA4
 10
109.180
 20
-21.8240
 30
0.000000
  70
    32
  0
VERTEX
  8
SAPA_FOGBAND
  5
2BA5
 10
109.213
 20
-21.7378
 30
0.000000
  70
    32
  0
VERTEX
  8
SAPA_FOGBAND
  5
2BA6
 10
109.254
 20
-21.6526
 30
0.000000
  70
    32
  0
VERTEX
  8
SAPA_FOGBAND
  5
2BA7
 10
109.301
 20
-21.5687
 30
0.000000
  70
    32
  0
VERTEX
  8
SAPA_FOGBAND
  5
2BA8
 10
109.356
 20
-21.4863
 30
0.000000
  70
    32
  0
VERTEX
  8
SAPA_FOGBAND
  5
2BA9
 10
109.417
 20
-21.4055
 30
0.000000
  70
    32
  0
VERTEX
  8
SAPA_FOGBAND
  5
2BAA
 10
109.485
 20
-21.3266
 30
0.000000
  70
    32
  0
VERTEX
  8
SAPA_FOGBAND
  5
2BAB
 10
109.560
 20
-21.2497
 30
0.000000
  70
    32
  0
VERTEX
  8
SAPA_FOGBAND
  5
2BAC
 10
109.641
 20
-21.1751
 30
0.000000
  70
    32
  0
VERTEX
  8
SAPA_FOGBAND
  5
2BAD
 10
109.728
 20
-21.1029
 30
0.000000
  70
    32
  0
VERTEX
  8
SAPA_FOGBAND
  5
2BAE
 10
109.821
 20
-21.0332
 30
0.000000
  70
    32
  0
VERTEX
  8
SAPA_FOGBAND
  5
2BAF
 10
109.920
 20
-20.9663
 30
0.000000
  70
    32
  0
VERTEX
  8
SAPA_FOGBAND
  5
2BB0
 10
110.024
 20
-20.9023
 30
0.000000
  70
    32
  0
VERTEX
  8
SAPA_FOGBAND
  5
2BB1
 10
110.134
 20
-20.8414
 30
0.000000
  70
    32
  0
VERTEX
  8
SAPA_FOGBAND
  5
2BB2
 10
110.249
 20
-20.7837
 30
0.000000
  70
    32
  0
VERTEX
  8
SAPA_FOGBAND
  5
2BB3
 10
110.368
 20
-20.7293
 30
0.000000
  70
    32
  0
VERTEX
  8
SAPA_FOGBAND
  5
2BB4
 10
110.492
 20
-20.6785
 30
0.000000
  70
    32
  0
VERTEX
  8
SAPA_FOGBAND
  5
2BB5
 10
110.620
 20
-20.6312
 30
0.000000
  70
    32
  0
VERTEX
  8
SAPA_FOGBAND
  5
2BB6
 10
110.752
 20
-20.5877
 30
0.000000
  70
    32
  0
VERTEX
  8
SAPA_FOGBAND
  5
2BB7
 10
110.887
 20
-20.5479
 30
0.000000
  70
    32
  0
VERTEX
  8
SAPA_FOGBAND
  5
2BB8
 10
111.025
 20
-20.5121
 30
0.000000
  70
    32
  0
VERTEX
  8
SAPA_FOGBAND
  5
2BB9
 10
111.167
 20
-20.4803
 30
0.000000
  70
    32
  0
VERTEX
  8
SAPA_FOGBAND
  5
2BBA
 10
111.310
 20
-20.4526
 30
0.000000
  70
    32
  0
VERTEX
  8
SAPA_FOGBAND
  5
2BBB
 10
111.456
 20
-20.4291
 30
0.000000
  70
    32
  0
VERTEX
  8
SAPA_FOGBAND
  5
2BBC
 10
111.604
 20
-20.4097
 30
0.000000
  70
    32
  0
VERTEX
  8
SAPA_FOGBAND
  5
2BBD
 10
111.753
 20
-20.3946
 30
0.000000
  70
    32
  0
VERTEX
  8
SAPA_FOGBAND
  5
2BBE
 10
111.904
 20
-20.3838
 30
0.000000
  70
    32
  0
VERTEX
  8
SAPA_FOGBAND
  5
2BBF
 10
112.055
 20
-20.3773
 30
0.000000
  70
    32
  0
VERTEX
  8
SAPA_FOGBAND
  5
2BC0
 10
112.206
 20
-20.3751
 30
0.000000
  70
    32
  0
VERTEX
  8
SAPA_FOGBAND
  5
2BC1
 10
112.357
 20
-20.3773
 30
0.000000
  70
    32
  0
VERTEX
  8
SAPA_FOGBAND
  5
2BC2
 10
112.508
 20
-20.3838
 30
0.000000
  70
    32
  0
VERTEX
  8
SAPA_FOGBAND
  5
2BC3
 10
112.659
 20
-20.3946
 30
0.000000
  70
    32
  0
VERTEX
  8
SAPA_FOGBAND
  5
2BC4
 10
112.808
 20
-20.4097
 30
0.000000
  70
    32
  0
VERTEX
  8
SAPA_FOGBAND
  5
2BC5
 10
112.956
 20
-20.4291
 30
0.000000
  70
    32
  0
VERTEX
  8
SAPA_FOGBAND
  5
2BC6
 10
113.102
 20
-20.4526
 30
0.000000
  70
    32
  0
VERTEX
  8
SAPA_FOGBAND
  5
2BC7
 10
113.245
 20
-20.4803
 30
0.000000
  70
    32
  0
VERTEX
  8
SAPA_FOGBAND
  5
2BC8
 10
113.387
 20
-20.5121
 30
0.000000
  70
    32
  0
VERTEX
  8
SAPA_FOGBAND
  5
2BC9
 10
113.525
 20
-20.5479
 30
0.000000
  70
    32
  0
VERTEX
  8
SAPA_FOGBAND
  5
2BCA
 10
113.660
 20
-20.5877
 30
0.000000
  70
    32
  0
VERTEX
  8
SAPA_FOGBAND
  5
2BCB
 10
113.792
 20
-20.6312
 30
0.000000
  70
    32
  0
VERTEX
  8
SAPA_FOGBAND
  5
2BCC
 10
113.920
 20
-20.6785
 30
0.000000
  70
    32
  0
VERTEX
  8
SAPA_FOGBAND
  5
2BCD
 10
114.044
 20
-20.7293
 30
0.000000
  70
    32
  0
VERTEX
  8
SAPA_FOGBAND
  5
2BCE
 10
114.163
 20
-20.7837
 30
0.000000
  70
    32
  0
VERTEX
  8
SAPA_FOGBAND
  5
2BCF
 10
114.278
 20
-20.8414
 30
0.000000
  70
    32
  0
VERTEX
  8
SAPA_FOGBAND
  5
2BD0
 10
114.388
 20
-20.9023
 30
0.000000
  70
    32
  0
VERTEX
  8
SAPA_FOGBAND
  5
2BD1
 10
114.492
 20
-20.9663
 30
0.000000
  70
    32
  0
VERTEX
  8
SAPA_FOGBAND
  5
2BD2
 10
114.591
 20
-21.0332
 30
0.000000
  70
    32
  0
VERTEX
  8
SAPA_FOGBAND
  5
2BD3
 10
114.684
 20
-21.1029
 30
0.000000
  70
    32
  0
VERTEX
  8
SAPA_FOGBAND
  5
2BD4
 10
114.771
 20
-21.1751
 30
0.000000
  70
    32
  0
VERTEX
  8
SAPA_FOGBAND
  5
2BD5
 10
114.852
 20
-21.2497
 30
0.000000
  70
    32
  0
VERTEX
  8
SAPA_FOGBAND
  5
2BD6
 10
114.927
 20
-21.3266
 30
0.000000
  70
    32
  0
VERTEX
  8
SAPA_FOGBAND
  5
2BD7
 10
114.995
 20
-21.4055
 30
0.000000
  70
    32
  0
VERTEX
  8
SAPA_FOGBAND
  5
2BD8
 10
115.056
 20
-21.4863
 30
0.000000
  70
    32
  0
VERTEX
  8
SAPA_FOGBAND
  5
2BD9
 10
115.111
 20
-21.5687
 30
0.000000
  70
    32
  0
VERTEX
  8
SAPA_FOGBAND
  5
2BDA
 10
115.158
 20
-21.6526
 30
0.000000
  70
    32
  0
VERTEX
  8
SAPA_FOGBAND
  5
2BDB
 10
115.199
 20
-21.7378
 30
0.000000
  70
    32
  0
VERTEX
  8
SAPA_FOGBAND
  5
2BDC
 10
115.232
 20
-21.8240
 30
0.000000
  70
    32
  0
VERTEX
  8
SAPA_FOGBAND
  5
2BDD
 10
115.258
 20
-21.9110
 30
0.000000
  70
    32
  0
VERTEX
  8
SAPA_FOGBAND
  5
2BDE
 10
115.276
 20
-21.9987
 30
0.000000
  70
    32
  0
VERTEX
  8
SAPA_FOGBAND
  5
2BDF
 10
115.287
 20
-22.0868
 30
0.000000
  70
    32
  0
VERTEX
  8
SAPA_FOGBAND
  5
2BE0
 10
115.291
 20
-22.1751
 30
0.000000
  70
    32
  0
SEQEND
  8
SAPA_FOGBAND
  5
2BE1
  0
POLYLINE
  5
1870
  8
SAPA_FOGBAND
 62
     2
 66
     1
 10
0.0
 20
0.0
 30
0.0
 70
     1
  0
VERTEX
  5
29B5
  8
SAPA_FOGBAND
 62
     2
 10
104.7622733468862
 20
-27.475123040939561
 30
0.0
  0
VERTEX
  5
29B6
  8
SAPA_FOGBAND
 62
     2
 10
118.4427379961849
 20
-27.475123040939561
 30
0.0
 42
0.427966335106886
  0
VERTEX
  5
29B7
  8
SAPA_FOGBAND
 62
     2
 10
118.7424105639049
 20
-27.161110469580301
 30
0.0
  0
VERTEX
  5
29B8
  8
SAPA_FOGBAND
 62
     2
 10
118.2561106558253
 20
-18.961110469580301
 30
0.0
 42
0.4005932428724212
  0
VERTEX
  5
29B9
  8
SAPA_FOGBAND
 62
     2
 10
117.9564380881053
 20
-18.67512304093955
 30
0.0
  0
VERTEX
  5
29BA
  8
SAPA_FOGBAND
 62
     2
 10
116.14273799618491
 20
-18.67512304093955
 30
0.0
  0
VERTEX
  5
29BB
  8
SAPA_FOGBAND
 62
     2
 10
116.14273799618491
 20
-16.975123040939561
 30
0.0
 42
0.4142135623730951
  0
VERTEX
  5
29BC
  8
SAPA_FOGBAND
 62
     2
 10
115.84273799618489
 20
-16.67512304093955
 30
0.0
  0
VERTEX
  5
29BD
  8
SAPA_FOGBAND
 62
     2
 10
108.423957232559
 20
-16.67512304093955
 30
0.0
 42
0.1379343940649207
  0
VERTEX
  5
29BE
  8
SAPA_FOGBAND
 62
     2
 10
107.9027389235106
 20
-16.821699655794351
 30
0.0
  0
VERTEX
  5
29BF
  8
SAPA_FOGBAND
 62
     2
 10
95.982128841660725
 20
-24.228917893702668
 30
0.0
 42
0.2613472755167645
  0
VERTEX
  5
29C0
  8
SAPA_FOGBAND
 62
     2
 10
95.742737996184928
 20
-24.655629586275278
 30
0.0
  0
VERTEX
  5
29C1
  8
SAPA_FOGBAND
 62
     2
 10
95.742737996184928
 20
-25.650326203438478
 30
0.0
 42
0.3915187749346393
  0
VERTEX
  5
29C2
  8
SAPA_FOGBAND
 62
     2
 10
96.664715695958449
 20
-26.64727781744358
 30
0.0
  0
VERTEX
  5
29C3
  8
SAPA_FOGBAND
 62
     2
 10
104.72326219677301
 20
-27.47359884794211
 30
0.0
 42
0.0195279011117891
  0
SEQEND
  5
29C4
  8
SAPA_FOGBAND
 62
     2
  0
POLYLINE
  5
1871
  8
SAPA_FOGBAND
 66
     1
 10
0.0
 20
0.0
 30
0.0
 70
     1
  0
VERTEX
  5
29C5
  8
SAPA_FOGBAND
 10
64.805446441378763
 20
-63.364139620038848
 30
0.0
 42
-0.1579553886371987
  0
VERTEX
  5
29C6
  8
SAPA_FOGBAND
 10
68.069274485494816
 20
-63.511199126503222
 30
0.0
 42
-1.0
  0
VERTEX
  5
29C7
  8
SAPA_FOGBAND
 10
66.80665149655556
 20
-66.882516849264334
 30
0.0
 42
-0.1276248526686838
  0
VERTEX
  5
29C8
  8
SAPA_FOGBAND
 10
65.038998988077992
 20
-65.641204427578742
 30
0.0
  0
VERTEX
  5
29C9
  8
SAPA_FOGBAND
 10
64.129652464509263
 20
-64.571815755006327
 30
0.0
 42
-0.5691506674918112
  0
VERTEX
  5
29CA
  8
SAPA_FOGBAND
 10
64.519888220227358
 20
-63.43312456036923
 30
0.0
 42
0.0156300267407041
  0
SEQEND
  5
29CB
  8
SAPA_FOGBAND
  0
POLYLINE
  5
1872
  8
SAPA_FOGBAND
 66
     1
 10
0.0
 20
0.0
 30
0.0
 70
     1
  0
VERTEX
  5
29CC
  8
SAPA_FOGBAND
 10
53.502595000825522
 20
-70.573627995651435
 30
0.0
 42
0.3888787318529789
  0
VERTEX
  5
29CD
  8
SAPA_FOGBAND
 10
54.788951195737127
 20
-69.586572171141455
 30
0.0
  0
VERTEX
  5
29CE
  8
SAPA_FOGBAND
 10
54.915466130527648
 20
-68.869070321555085
 30
0.0
 42
1.0
  0
VERTEX
  5
29CF
  8
SAPA_FOGBAND
 10
55.019655037128132
 20
-68.278185669747785
 30
0.0
  0
VERTEX
  5
29D0
  8
SAPA_FOGBAND
 10
55.127058507377797
 20
-67.669070321554813
 30
0.0
 42
0.9999999999999067
  0
VERTEX
  5
29D1
  8
SAPA_FOGBAND
 10
55.231247413977833
 20
-67.078185669747512
 30
0.0
  0
VERTEX
  5
29D2
  8
SAPA_FOGBAND
 10
55.292032020639219
 20
-66.733459035078653
 30
0.0
 42
-0.3345953195020691
  0
VERTEX
  5
29D3
  8
SAPA_FOGBAND
 10
57.492730245000303
 20
-64.68127474082516
 30
0.0
  0
VERTEX
  5
29D4
  8
SAPA_FOGBAND
 10
61.506537650012199
 20
-64.328166967908004
 30
0.0
 42
-0.2564696513213821
  0
VERTEX
  5
29D5
  8
SAPA_FOGBAND
 10
63.961031848719131
 20
-65.454099133849994
 30
0.0
  0
VERTEX
  5
29D6
  8
SAPA_FOGBAND
 10
64.505731577349934
 20
-66.094664314068581
 30
0.0
 42
0.1276248526686853
  0
VERTEX
  5
29D7
  8
SAPA_FOGBAND
 10
66.561141470928987
 20
-67.538050850912285
 30
0.0
 42
1.0
  0
VERTEX
  5
29D8
  8
SAPA_FOGBAND
 10
68.314784511121843
 20
-62.855665124855342
 30
0.0
 42
0.1579553886371977
  0
VERTEX
  5
29D9
  8
SAPA_FOGBAND
 10
64.619884838537246
 20
-62.689182664706863
 30
0.0
 42
-0.0604483959424258
  0
VERTEX
  5
29DA
  8
SAPA_FOGBAND
 10
61.229772777551943
 20
-62.790275199159929
 30
0.0
  0
VERTEX
  5
29DB
  8
SAPA_FOGBAND
 10
56.072206021184449
 20
-62.578194357941221
 30
0.0
 42
-0.3286126757704555
  0
VERTEX
  5
29DC
  8
SAPA_FOGBAND
 10
54.639561914714932
 20
-61.522638802385558
 30
0.0
 42
0.2704382184496639
  0
VERTEX
  5
29DD
  8
SAPA_FOGBAND
 10
53.52105338957859
 20
-60.608962527245552
 30
0.0
  0
VERTEX
  5
29DE
  8
SAPA_FOGBAND
 10
53.720917154706278
 20
-64.478194357941305
 30
0.0
  0
VERTEX
  5
29DF
  8
SAPA_FOGBAND
 10
52.520917154706467
 20
-64.478194357941305
 30
0.0
  0
VERTEX
  5
29E0
  8
SAPA_FOGBAND
 10
51.45985274915688
 20
-64.532666120980679
 30
0.0
  0
VERTEX
  5
29E1
  8
SAPA_FOGBAND
 10
51.460821759014607
 20
-63.982820212175596
 30
0.0
 42
0.6068148963145658
  0
VERTEX
  5
29E2
  8
SAPA_FOGBAND
 10
50.941230678192142
 20
-63.867629642800551
 30
0.0
  0
VERTEX
  5
29E3
  8
SAPA_FOGBAND
 10
49.56490499230199
 20
-65.683042452821013
 30
0.0
 42
0.4400105308918406
  0
VERTEX
  5
29E4
  8
SAPA_FOGBAND
 10
49.765626246388592
 20
-67.207671744059411
 30
0.0
  0
VERTEX
  5
29E5
  8
SAPA_FOGBAND
 10
51.782589170611352
 20
-68.730873125475085
 30
0.0
 42
0.5205670505516999
  0
VERTEX
  5
29E6
  8
SAPA_FOGBAND
 10
52.244439849403307
 20
-68.562773225719042
 30
0.0
  0
VERTEX
  5
29E7
  8
SAPA_FOGBAND
 10
52.271035480438279
 20
-67.81793411428643
 30
0.0
  0
VERTEX
  5
29E8
  8
SAPA_FOGBAND
 10
53.560948289286671
 20
-68.017445057740446
 30
0.0
  0
SEQEND
  5
29E9
  8
SAPA_FOGBAND
  0
CIRCLE
  5
1873
  8
SAPA_FOGBAND
 10
55.116112603380088
 20
-63.997051921926733
 30
0.0
 40
0.3
  0
POLYLINE
  5
1874
  8
SAPA_FOGBAND
 66
     1
 10
0.0
 20
0.0
 30
0.0
 70
     1
  0
VERTEX
  5
29EA
  8
SAPA_FOGBAND
 10
51.307464885984473
 20
-67.178194357941123
 30
0.0
  0
VERTEX
  5
29EB
  8
SAPA_FOGBAND
 10
53.220917154706278
 20
-67.178194357941123
 30
0.0
 42
0.4142135623730951
  0
VERTEX
  5
29EC
  8
SAPA_FOGBAND
 10
53.720917154706278
 20
-66.678194357941123
 30
0.0
  0
VERTEX
  5
29ED
  8
SAPA_FOGBAND
 10
53.720917154706278
 20
-65.878194357941396
 30
0.0
 42
0.4142135623730951
  0
VERTEX
  5
29EE
  8
SAPA_FOGBAND
 10
53.220917154706278
 20
-65.378194357941396
 30
0.0
  0
VERTEX
  5
29EF
  8
SAPA_FOGBAND
 10
51.144813342639956
 20
-65.378194357941396
 30
0.0
 42
0.2216946626429447
  0
VERTEX
  5
29F0
  8
SAPA_FOGBAND
 10
50.685186676768119
 20
-65.592521792129304
 30
0.0
  0
VERTEX
  5
29F1
  8
SAPA_FOGBAND
 10
50.325049629475643
 20
-66.021716412066183
 30
0.0
 42
0.4400105308918337
  0
VERTEX
  5
29F2
  8
SAPA_FOGBAND
 10
50.412214312417063
 20
-66.683797910999914
 30
0.0
  0
VERTEX
  5
29F3
  8
SAPA_FOGBAND
 10
50.96331902417365
 20
-67.069685584514744
 30
0.0
 42
0.153914721059829
  0
SEQEND
  5
29F4
  8
SAPA_FOGBAND
  0
POLYLINE
  5
1875
  8
SAPA_FOGBAND
 66
     1
 10
0.0
 20
0.0
 30
0.0
 70
     1
  0
VERTEX
  5
29F5
  8
SAPA_FOGBAND
 10
72.761691587341531
 20
-78.598715291458063
 30
0.0
  0
VERTEX
  5
29F6
  8
SAPA_FOGBAND
 10
72.761691587341531
 20
-79.598715291458063
 30
0.0
 42
-0.9999999999999998
  0
VERTEX
  5
29F7
  8
SAPA_FOGBAND
 10
71.557532129462302
 20
-79.598715291458063
 30
0.0
  0
VERTEX
  5
29F8
  8
SAPA_FOGBAND
 10
71.557532129462302
 20
-78.598715291458063
 30
0.0
 42
-0.9999999999999998
  0
SEQEND
  5
29F9
  8
SAPA_FOGBAND
  0
POLYLINE
  5
1876
  8
SAPA_FOGBAND
 66
     1
 10
0.0
 20
0.0
 30
0.0
 70
     1
  0
VERTEX
  5
29FA
  8
SAPA_FOGBAND
 10
70.192327582216677
 20
-79.522567588814397
 30
0.0
  0
VERTEX
  5
29FB
  8
SAPA_FOGBAND
 10
71.050386292526127
 20
-80.908332675759937
 30
0.0
 42
0.2528723899644565
  0
VERTEX
  5
29FC
  8
SAPA_FOGBAND
 10
71.21767056871137
 20
-80.998715291458055
 30
0.0
  0
VERTEX
  5
29FD
  8
SAPA_FOGBAND
 10
73.101553148092449
 20
-80.998715291458055
 30
0.0
 42
0.2528723899644564
  0
VERTEX
  5
29FE
  8
SAPA_FOGBAND
 10
73.268837424277692
 20
-80.908332675759937
 30
0.0
  0
VERTEX
  5
29FF
  8
SAPA_FOGBAND
 10
74.126896134587156
 20
-79.522567588814397
 30
0.0
 42
0.5108224790788402
  0
VERTEX
  5
2A00
  8
SAPA_FOGBAND
 10
74.011375667422413
 20
-79.219765039254725
 30
0.0
  0
VERTEX
  5
2A01
  8
SAPA_FOGBAND
 10
73.609611858401919
 20
-79.098715291458063
 30
0.0
  0
VERTEX
  5
2A02
  8
SAPA_FOGBAND
 10
73.609611858401919
 20
-77.998715291458069
 30
0.0
  0
VERTEX
  5
2A03
  8
SAPA_FOGBAND
 10
75.474346462260186
 20
-77.998715291458069
 30
0.0
 42
0.0874886635259237
  0
VERTEX
  5
2A04
  8
SAPA_FOGBAND
 10
75.542750490925314
 20
-77.986653815615256
 30
0.0
  0
VERTEX
  5
2A05
  8
SAPA_FOGBAND
 10
79.075494636965431
 20
-77.430840101178475
 30
0.0
 42
0.9391885369168745
  0
VERTEX
  5
2A06
  8
SAPA_FOGBAND
 10
78.962728667233932
 20
-77.047883582505861
 30
0.0
  0
VERTEX
  5
2A07
  8
SAPA_FOGBAND
 10
75.090534861996957
 20
-77.198715291458072
 30
0.0
  0
VERTEX
  5
2A08
  8
SAPA_FOGBAND
 10
74.260359895148326
 20
-77.003999510883432
 30
0.0
 42
0.0576596372120268
  0
VERTEX
  5
2A09
  8
SAPA_FOGBAND
 10
74.214689721126206
 20
-76.998715291458069
 30
0.0
  0
VERTEX
  5
2A0A
  8
SAPA_FOGBAND
 10
69.809611858401894
 20
-76.998715291458069
 30
0.0
 42
0.4142135623730951
  0
VERTEX
  5
2A0B
  8
SAPA_FOGBAND
 10
69.209611858401914
 20
-77.598715291458063
 30
0.0
  0
VERTEX
  5
2A0C
  8
SAPA_FOGBAND
 10
69.209611858401914
 20
-77.798715291458066
 30
0.0
 42
0.4142135623730951
  0
VERTEX
  5
2A0D
  8
SAPA_FOGBAND
 10
69.409611858401917
 20
-77.998715291458069
 30
0.0
  0
VERTEX
  5
2A0E
  8
SAPA_FOGBAND
 10
70.709611858401914
 20
-77.998715291458069
 30
0.0
  0
VERTEX
  5
2A0F
  8
SAPA_FOGBAND
 10
70.709611858401914
 20
-79.098715291458063
 30
0.0
  0
VERTEX
  5
2A10
  8
SAPA_FOGBAND
 10
70.307848049381406
 20
-79.219765039254725
 30
0.0
 42
0.51082247907884
  0
SEQEND
  5
2A11
  8
SAPA_FOGBAND
  0
POLYLINE
  5
1877
  8
SAPA_FOGBAND
 66
     1
 10
0.0
 20
0.0
 30
0.0000000195376815
 70
     1
  0
VERTEX
  5
2A12
  8
SAPA_FOGBAND
 10
50.887868548666901
 20
10.55136515144347
 30
0.0000000195376815
  0
VERTEX
  5
2A13
  8
SAPA_FOGBAND
 10
50.787868548666907
 20
10.55136515144347
 30
0.0000000195376815
 42
0.4142135623730959
  0
VERTEX
  5
2A14
  8
SAPA_FOGBAND
 10
50.087868548666911
 20
9.8513651514434883
 30
0.0000000195376815
  0
VERTEX
  5
2A15
  8
SAPA_FOGBAND
 10
50.08786854866689
 20
8.751365151443494
 30
0.0000000195376815
 42
0.4142135623730961
  0
VERTEX
  5
2A16
  8
SAPA_FOGBAND
 10
50.287868548666907
 20
8.5513651514434752
 30
0.0000000195376815
  0
VERTEX
  5
2A17
  8
SAPA_FOGBAND
 10
51.387868548666901
 20
8.5513651514434752
 30
0.0000000195376815
 42
0.4142135623730956
  0
VERTEX
  5
2A18
  8
SAPA_FOGBAND
 10
51.587868548666918
 20
8.751365151443494
 30
0.0000000195376815
  0
VERTEX
  5
2A19
  8
SAPA_FOGBAND
 10
51.58786854866689
 20
9.8513651514434883
 30
0.0000000195376815
 42
0.4142135623730946
  0
SEQEND
  5
2A1A
  8
SAPA_FOGBAND
  0
POLYLINE
  5
1878
  8
SAPA_FOGBAND
 66
     1
 10
0.0
 20
0.0
 30
0.0000000195376815
 70
     1
  0
VERTEX
  5
2A1B
  8
SAPA_FOGBAND
 10
52.387868548666901
 20
9.251365151443494
 30
0.0000000195376815
  0
VERTEX
  5
2A1C
  8
SAPA_FOGBAND
 10
52.387868548666901
 20
8.6035995861704038
 30
0.0000000195376815
 42
0.4416942457848324
  0
VERTEX
  5
2A1D
  8
SAPA_FOGBAND
 10
52.606422908294817
 20
8.4044621066774567
 30
0.0000000195376815
  0
VERTEX
  5
2A1E
  8
SAPA_FOGBAND
 10
53.569314189038998
 20
8.4941781719355038
 30
0.0000000195376815
 42
-0.4416942457847888
  0
VERTEX
  5
2A1F
  8
SAPA_FOGBAND
 10
53.787868548666907
 20
8.2950406924425852
 30
0.0000000195376815
  0
VERTEX
  5
2A20
  8
SAPA_FOGBAND
 10
53.787868548666907
 20
7.7450583528510171
 30
0.0000000195376815
 42
-0.5445962197109612
  0
VERTEX
  5
2A21
  8
SAPA_FOGBAND
 10
53.08218950326183
 20
7.2893214437891771
 30
0.0000000195376815
  0
VERTEX
  5
2A22
  8
SAPA_FOGBAND
 10
52.723138349976573
 20
7.4513651514434818
 30
0.0000000195376815
  0
VERTEX
  5
2A23
  8
SAPA_FOGBAND
 10
51.250179111228668
 20
7.4513651514434853
 30
0.0000000195376815
 42
-0.3364379234965429
  0
VERTEX
  5
2A24
  8
SAPA_FOGBAND
 10
50.178435381613831
 20
7.6388719692852334
 30
0.0000000195376815
  0
VERTEX
  5
2A25
  8
SAPA_FOGBAND
 10
49.616571745790132
 20
7.6388719692852334
 30
0.0000000195376815
 42
0.1919812372740509
  0
VERTEX
  5
2A26
  8
SAPA_FOGBAND
 10
49.27258469819008
 20
7.5017395912679632
 30
0.0000000195376815
  0
VERTEX
  5
2A27
  8
SAPA_FOGBAND
 10
48.88071776778682
 20
7.1302621149778789
 30
0.0000000195376815
 42
0.7712067734688043
  0
VERTEX
  5
2A28
  8
SAPA_FOGBAND
 10
51.453149467660928
 20
4.3206281192972176
 30
0.0000000195376815
 42
0.152544453744271
  0
VERTEX
  5
2A29
  8
SAPA_FOGBAND
 10
52.322575217501097
 20
5.2125033880509974
 30
0.0000000195376815
 42
-0.6229515670381967
  0
VERTEX
  5
2A2A
  8
SAPA_FOGBAND
 10
52.797515402276851
 20
5.1126211042284657
 30
0.0000000195376815
 42
-0.2412896305485237
  0
VERTEX
  5
2A2B
  8
SAPA_FOGBAND
 10
52.760764130978728
 20
4.7091562898863328
 30
0.0000000195376815
 42
-0.0924947384438033
  0
VERTEX
  5
2A2C
  8
SAPA_FOGBAND
 10
52.138771222248451
 20
4.0186558778449166
 30
0.0000000195376815
 42
-0.8622191196043894
  0
VERTEX
  5
2A2D
  8
SAPA_FOGBAND
 10
48.314900068507157
 20
7.5945676298207578
 30
0.0000000195376815
  0
VERTEX
  5
2A2E
  8
SAPA_FOGBAND
 10
47.884340930625903
 20
7.7099356031098836
 30
0.0000000195376815
 42
-0.9163311740173991
  0
VERTEX
  5
2A2F
  8
SAPA_FOGBAND
 10
48.022730845765992
 20
8.4947838128622237
 30
0.0000000195376815
  0
VERTEX
  5
2A30
  8
SAPA_FOGBAND
 10
49.07043740011737
 20
8.4031213666546734
 30
0.0000000195376815
 42
0.4400105308918151
  0
VERTEX
  5
2A31
  8
SAPA_FOGBAND
 10
49.2878685486669
 20
8.6023603062730132
 30
0.0000000195376815
  0
VERTEX
  5
2A32
  8
SAPA_FOGBAND
 10
49.2878685486669
 20
9.4513651514434827
 30
0.0000000195376815
  0
VERTEX
  5
2A33
  8
SAPA_FOGBAND
 10
48.887868548666901
 20
9.4513651514434827
 30
0.0000000195376815
 42
-0.5693809839207585
  0
VERTEX
  5
2A34
  8
SAPA_FOGBAND
 10
48.712314503103372
 20
9.7471815231461232
 30
0.0000000195376815
  0
VERTEX
  5
2A35
  8
SAPA_FOGBAND
 10
49.417280103002398
 20
11.03881426655142
 30
0.0000000195376815
 42
-0.2743878130875472
  0
VERTEX
  5
2A36
  8
SAPA_FOGBAND
 10
49.943942239693129
 20
11.351365151443501
 30
0.0000000195376815
  0
VERTEX
  5
2A37
  8
SAPA_FOGBAND
 10
51.731794857640679
 20
11.35136515144349
 30
0.0000000195376815
 42
-0.2743878130875473
  0
VERTEX
  5
2A38
  8
SAPA_FOGBAND
 10
52.258456994331397
 20
11.038814266551411
 30
0.0000000195376815
  0
VERTEX
  5
2A39
  8
SAPA_FOGBAND
 10
52.963422594230487
 20
9.7471815231461534
 30
0.0000000195376815
 42
-0.5693809839208271
  0
VERTEX
  5
2A3A
  8
SAPA_FOGBAND
 10
52.787868548666907
 20
9.4513651514434507
 30
0.0000000195376815
  0
VERTEX
  5
2A3B
  8
SAPA_FOGBAND
 10
52.387868548666901
 20
9.4513651514434827
 30
0.0000000195376815
  0
VERTEX
  5
2A3C
  8
SAPA_FOGBAND
 10
52.387868548666901
 20
8.6023603062730132
 30
0.0000000195376815
  0
SEQEND
  5
2A3D
  8
SAPA_FOGBAND
  0
CIRCLE
  5
1879
  8
SAPA_FOGBAND
 10
-18.679356795600139
 20
-84.641571726353149
 30
0.0
 40
0.2549509756796394
  0
INSERT
  5
187A
  8
SAPA_FOGBAND
  6
CONTINUOUS
  2
*U189
 10
0.0
 20
0.0
 30
0.0
1001
ACAD
1002
{
1000
R14_HATCH_DATA
1000
187A
1011
1.0
1021
0.0
1031
0.0
1021
0.0
1031
0.0
1011
0.0
1021
0.0
1031
0.0
1021
1.0
1031
0.0
1011
0.0
1021
0.0
1031
0.0
1021
0.0
1031
1.0
1040
0.0
1010
0.0
1020
0.0
1030
1.0
1000
SOLID
1070
     1
1070
     1
1071
        1
1071
        1
1071
        1
1070
     2
1040
-18.679356795600139
1040
-84.641571726353149
1040
0.2549509756796394
1040
0.0
1040
6.2831853071795862
1070
     1
1071
        1
1005
1879
1070
     0
1070
     1
1071
        1
1040
-18.916095697170249
1040
-84.559720229024265
1040
0.0
1002
}
  0
POLYLINE
  5
187B
  8
SAPA_FOGBAND
 66
     1
 10
0.0
 20
0.0
 30
0.0
 70
     1
  0
VERTEX
  5
2A4F
  8
SAPA_FOGBAND
 10
-17.779356795600162
 20
-87.604003505597674
 30
0.0
 42
0.9999999999999998
  0
VERTEX
  5
2A50
  8
SAPA_FOGBAND
 10
-19.57935679560012
 20
-87.604003505597674
 30
0.0
  0
VERTEX
  5
2A51
  8
SAPA_FOGBAND
 10
-19.57935679560012
 20
-88.204003505597697
 30
0.0
 42
0.9999999999999998
  0
VERTEX
  5
2A52
  8
SAPA_FOGBAND
 10
-17.779356795600162
 20
-88.204003505597697
 30
0.0
  0
SEQEND
  5
2A53
  8
SAPA_FOGBAND
  0
POLYLINE
  5
187C
  8
SAPA_FOGBAND
 66
     1
 10
0.0
 20
0.0
 30
0.0
 70
     1
  0
VERTEX
  5
2A54
  8
SAPA_FOGBAND
 10
-27.307233103773338
 20
-82.504003505597666
 30
0.0
 42
0.0775891054856093
  0
VERTEX
  5
2A55
  8
SAPA_FOGBAND
 10
-23.840451373350788
 20
-82.820639489659015
 30
0.0
  0
VERTEX
  5
2A56
  8
SAPA_FOGBAND
 10
-23.602561880521989
 20
-82.604003505597632
 30
0.0
 42
-0.5773502691896298
  0
VERTEX
  5
2A57
  8
SAPA_FOGBAND
 10
-23.25615171900813
 20
-82.604003505597632
 30
0.0
  0
VERTEX
  5
2A58
  8
SAPA_FOGBAND
 10
-23.018104102277341
 20
-82.820913359820679
 30
0.0
  0
VERTEX
  5
2A59
  8
SAPA_FOGBAND
 10
-22.240609492360701
 20
-82.820913359820679
 30
0.0
  0
VERTEX
  5
2A5A
  8
SAPA_FOGBAND
 10
-22.00256188052197
 20
-82.604003505597632
 30
0.0
 42
-0.577350269189699
  0
VERTEX
  5
2A5B
  8
SAPA_FOGBAND
 10
-21.656151719008221
 20
-82.604003505597632
 30
0.0
  0
VERTEX
  5
2A5C
  8
SAPA_FOGBAND
 10
-21.418104102277422
 20
-82.820913359820679
 30
0.0
  0
VERTEX
  5
2A5D
  8
SAPA_FOGBAND
 10
-20.640609492360682
 20
-82.820913359820679
 30
0.0
  0
VERTEX
  5
2A5E
  8
SAPA_FOGBAND
 10
-20.40256188052194
 20
-82.604003505597632
 30
0.0
 42
-0.577350269189699
  0
VERTEX
  5
2A5F
  8
SAPA_FOGBAND
 10
-20.056151719008199
 20
-82.604003505597632
 30
0.0
  0
VERTEX
  5
2A60
  8
SAPA_FOGBAND
 10
-19.818104102277399
 20
-82.820913359820679
 30
0.0
  0
VERTEX
  5
2A61
  8
SAPA_FOGBAND
 10
-19.040609492360659
 20
-82.820913359820679
 30
0.0
  0
VERTEX
  5
2A62
  8
SAPA_FOGBAND
 10
-18.802561880522031
 20
-82.604003505597632
 30
0.0
 42
-0.5773502691896298
  0
VERTEX
  5
2A63
  8
SAPA_FOGBAND
 10
-18.456151719008169
 20
-82.604003505597632
 30
0.0
  0
VERTEX
  5
2A64
  8
SAPA_FOGBAND
 10
-18.21810410227738
 20
-82.820913359820679
 30
0.0
  0
VERTEX
  5
2A65
  8
SAPA_FOGBAND
 10
-17.440609492360629
 20
-82.820913359820679
 30
0.0
  0
VERTEX
  5
2A66
  8
SAPA_FOGBAND
 10
-17.202561880522008
 20
-82.604003505597632
 30
0.0
 42
-0.5773502691896298
  0
VERTEX
  5
2A67
  8
SAPA_FOGBAND
 10
-16.85615171900815
 20
-82.604003505597632
 30
0.0
  0
VERTEX
  5
2A68
  8
SAPA_FOGBAND
 10
-16.618104102277361
 20
-82.820913359820679
 30
0.0
  0
VERTEX
  5
2A69
  8
SAPA_FOGBAND
 10
-15.840609488195691
 20
-82.820913359820679
 30
0.0
  0
VERTEX
  5
2A6A
  8
SAPA_FOGBAND
 10
-15.60256187635696
 20
-82.604003505597632
 30
0.0
 42
-0.577350269189699
  0
VERTEX
  5
2A6B
  8
SAPA_FOGBAND
 10
-15.25615171484321
 20
-82.604003505597632
 30
0.0
  0
VERTEX
  5
2A6C
  8
SAPA_FOGBAND
 10
-14.45615171528811
 20
-83.677333574082127
 30
0.0
 42
-0.1316524987190269
  0
VERTEX
  5
2A6D
  8
SAPA_FOGBAND
 10
-14.429356795600141
 20
-83.777333574852832
 30
0.0
  0
VERTEX
  5
2A6E
  8
SAPA_FOGBAND
 10
-14.429356795600031
 20
-86.30400350559762
 30
0.0
 42
-0.4142135623730951
  0
VERTEX
  5
2A6F
  8
SAPA_FOGBAND
 10
-14.629356795600071
 20
-86.504003505597666
 30
0.0
  0
VERTEX
  5
2A70
  8
SAPA_FOGBAND
 10
-16.679356795600139
 20
-86.504003505597666
 30
0.0
 42
0.4142135623730951
  0
VERTEX
  5
2A71
  8
SAPA_FOGBAND
 10
-17.179356795600139
 20
-87.004003505597666
 30
0.0
  0
VERTEX
  5
2A72
  8
SAPA_FOGBAND
 10
-17.179356795600139
 20
-87.730798424840827
 30
0.0
  0
VERTEX
  5
2A73
  8
SAPA_FOGBAND
 10
-16.927592986579612
 20
-87.798258334151214
 30
0.0
 42
-0.4740571810232869
  0
VERTEX
  5
2A74
  8
SAPA_FOGBAND
 10
-16.80029912421605
 20
-88.080540919789883
 30
0.0
  0
VERTEX
  5
2A75
  8
SAPA_FOGBAND
 10
-17.420399626974579
 20
-89.526747056549652
 30
0.0
 42
-0.2846003776495916
  0
VERTEX
  5
2A76
  8
SAPA_FOGBAND
 10
-17.868043805434809
 20
-89.80400350559762
 30
0.0
  0
VERTEX
  5
2A77
  8
SAPA_FOGBAND
 10
-19.490669785765359
 20
-89.80400350559762
 30
0.0
 42
-0.2846003776495917
  0
VERTEX
  5
2A78
  8
SAPA_FOGBAND
 10
-19.938313964225578
 20
-89.526747056549652
 30
0.0
  0
VERTEX
  5
2A79
  8
SAPA_FOGBAND
 10
-20.558414466984122
 20
-88.080540919789883
 30
0.0
 42
-0.4740571810232869
  0
VERTEX
  5
2A7A
  8
SAPA_FOGBAND
 10
-20.43112060462056
 20
-87.798258334151214
 30
0.0
  0
VERTEX
  5
2A7B
  8
SAPA_FOGBAND
 10
-20.179356795600139
 20
-87.730798424840827
 30
0.0
  0
VERTEX
  5
2A7C
  8
SAPA_FOGBAND
 10
-20.179356795600139
 20
-87.004003505597666
 30
0.0
 42
0.4142135623730951
  0
VERTEX
  5
2A7D
  8
SAPA_FOGBAND
 10
-20.679356795600139
 20
-86.504003505597666
 30
0.0
  0
VERTEX
  5
2A7E
  8
SAPA_FOGBAND
 10
-23.729356795600101
 20
-86.504003505597666
 30
0.0
 42
0.4142135623730951
  0
VERTEX
  5
2A7F
  8
SAPA_FOGBAND
 10
-23.929356795600139
 20
-86.704003505597726
 30
0.0
  0
VERTEX
  5
2A80
  8
SAPA_FOGBAND
 10
-23.929356795600029
 20
-87.604003505597674
 30
0.0
 42
-0.4142135623731784
  0
VERTEX
  5
2A81
  8
SAPA_FOGBAND
 10
-24.129356795600071
 20
-87.80400350559762
 30
0.0
  0
VERTEX
  5
2A82
  8
SAPA_FOGBAND
 10
-24.82935679560012
 20
-87.804003505597734
 30
0.0
 42
-0.4142135623730398
  0
VERTEX
  5
2A83
  8
SAPA_FOGBAND
 10
-25.129356795600071
 20
-87.504003505597666
 30
0.0
  0
VERTEX
  5
2A84
  8
SAPA_FOGBAND
 10
-25.129356795600071
 20
-86.693491728946114
 30
0.0
 42
0.1316524975873973
  0
VERTEX
  5
2A85
  8
SAPA_FOGBAND
 10
-25.397305988031238
 20
-85.693491728946128
 30
0.0
  0
VERTEX
  5
2A86
  8
SAPA_FOGBAND
 10
-30.56015113807166
 20
-83.103923736854199
 30
0.0
 42
-0.7057658529986604
  0
VERTEX
  5
2A87
  8
SAPA_FOGBAND
 10
-30.292557962713321
 20
-82.504003505597666
 30
0.0
  0
SEQEND
  5
2A88
  8
SAPA_FOGBAND
  0
POLYLINE
  5
187D
  8
SAPA_FOGBAND
 10
-15.203568545938213
 20
-71.635728587052398
 30
0.0
 66
     1
 70
     8
  0
VERTEX
  8
SAPA_FOGBAND
  5
2BE2
 10
-15.2036
 20
-71.6357
 30
0.000000
  70
    32
  0
VERTEX
  8
SAPA_FOGBAND
  5
2BE3
 10
-15.2081
 20
-71.7298
 30
0.000000
  70
    32
  0
VERTEX
  8
SAPA_FOGBAND
  5
2BE4
 10
-15.2215
 20
-71.8236
 30
0.000000
  70
    32
  0
VERTEX
  8
SAPA_FOGBAND
  5
2BE5
 10
-15.2440
 20
-71.9170
 30
0.000000
  70
    32
  0
VERTEX
  8
SAPA_FOGBAND
  5
2BE6
 10
-15.2753
 20
-72.0097
 30
0.000000
  70
    32
  0
VERTEX
  8
SAPA_FOGBAND
  5
2BE7
 10
-15.3154
 20
-72.1014
 30
0.000000
  70
    32
  0
VERTEX
  8
SAPA_FOGBAND
  5
2BE8
 10
-15.3642
 20
-72.1921
 30
0.000000
  70
    32
  0
VERTEX
  8
SAPA_FOGBAND
  5
2BE9
 10
-15.4217
 20
-72.2814
 30
0.000000
  70
    32
  0
VERTEX
  8
SAPA_FOGBAND
  5
2BEA
 10
-15.4876
 20
-72.3692
 30
0.000000
  70
    32
  0
VERTEX
  8
SAPA_FOGBAND
  5
2BEB
 10
-15.5618
 20
-72.4552
 30
0.000000
  70
    32
  0
VERTEX
  8
SAPA_FOGBAND
  5
2BEC
 10
-15.6442
 20
-72.5392
 30
0.000000
  70
    32
  0
VERTEX
  8
SAPA_FOGBAND
  5
2BED
 10
-15.7344
 20
-72.6211
 30
0.000000
  70
    32
  0
VERTEX
  8
SAPA_FOGBAND
  5
2BEE
 10
-15.8324
 20
-72.7006
 30
0.000000
  70
    32
  0
VERTEX
  8
SAPA_FOGBAND
  5
2BEF
 10
-15.9379
 20
-72.7775
 30
0.000000
  70
    32
  0
VERTEX
  8
SAPA_FOGBAND
  5
2BF0
 10
-16.0505
 20
-72.8517
 30
0.000000
  70
    32
  0
VERTEX
  8
SAPA_FOGBAND
  5
2BF1
 10
-16.1702
 20
-72.9229
 30
0.000000
  70
    32
  0
VERTEX
  8
SAPA_FOGBAND
  5
2BF2
 10
-16.2964
 20
-72.9910
 30
0.000000
  70
    32
  0
VERTEX
  8
SAPA_FOGBAND
  5
2BF3
 10
-16.4291
 20
-73.0559
 30
0.000000
  70
    32
  0
VERTEX
  8
SAPA_FOGBAND
  5
2BF4
 10
-16.5678
 20
-73.1173
 30
0.000000
  70
    32
  0
VERTEX
  8
SAPA_FOGBAND
  5
2BF5
 10
-16.7121
 20
-73.1752
 30
0.000000
  70
    32
  0
VERTEX
  8
SAPA_FOGBAND
  5
2BF6
 10
-16.8619
 20
-73.2294
 30
0.000000
  70
    32
  0
VERTEX
  8
SAPA_FOGBAND
  5
2BF7
 10
-17.0166
 20
-73.2797
 30
0.000000
  70
    32
  0
VERTEX
  8
SAPA_FOGBAND
  5
2BF8
 10
-17.1760
 20
-73.3261
 30
0.000000
  70
    32
  0
VERTEX
  8
SAPA_FOGBAND
  5
2BF9
 10
-17.3395
 20
-73.3684
 30
0.000000
  70
    32
  0
VERTEX
  8
SAPA_FOGBAND
  5
2BFA
 10
-17.5070
 20
-73.4065
 30
0.000000
  70
    32
  0
VERTEX
  8
SAPA_FOGBAND
  5
2BFB
 10
-17.6778
 20
-73.4404
 30
0.000000
  70
    32
  0
VERTEX
  8
SAPA_FOGBAND
  5
2BFC
 10
-17.8517
 20
-73.4699
 30
0.000000
  70
    32
  0
VERTEX
  8
SAPA_FOGBAND
  5
2BFD
 10
-18.0282
 20
-73.4950
 30
0.000000
  70
    32
  0
VERTEX
  8
SAPA_FOGBAND
  5
2BFE
 10
-18.2069
 20
-73.5156
 30
0.000000
  70
    32
  0
VERTEX
  8
SAPA_FOGBAND
  5
2BFF
 10
-18.3874
 20
-73.5317
 30
0.000000
  70
    32
  0
VERTEX
  8
SAPA_FOGBAND
  5
2C00
 10
-18.5692
 20
-73.5432
 30
0.000000
  70
    32
  0
VERTEX
  8
SAPA_FOGBAND
  5
2C01
 10
-18.7518
 20
-73.5501
 30
0.000000
  70
    32
  0
VERTEX
  8
SAPA_FOGBAND
  5
2C02
 10
-18.9349
 20
-73.5524
 30
0.000000
  70
    32
  0
VERTEX
  8
SAPA_FOGBAND
  5
2C03
 10
-19.1180
 20
-73.5501
 30
0.000000
  70
    32
  0
VERTEX
  8
SAPA_FOGBAND
  5
2C04
 10
-19.3006
 20
-73.5432
 30
0.000000
  70
    32
  0
VERTEX
  8
SAPA_FOGBAND
  5
2C05
 10
-19.4824
 20
-73.5317
 30
0.000000
  70
    32
  0
VERTEX
  8
SAPA_FOGBAND
  5
2C06
 10
-19.6628
 20
-73.5156
 30
0.000000
  70
    32
  0
VERTEX
  8
SAPA_FOGBAND
  5
2C07
 10
-19.8415
 20
-73.4950
 30
0.000000
  70
    32
  0
VERTEX
  8
SAPA_FOGBAND
  5
2C08
 10
-20.0180
 20
-73.4699
 30
0.000000
  70
    32
  0
VERTEX
  8
SAPA_FOGBAND
  5
2C09
 10
-20.1919
 20
-73.4404
 30
0.000000
  70
    32
  0
VERTEX
  8
SAPA_FOGBAND
  5
2C0A
 10
-20.3628
 20
-73.4065
 30
0.000000
  70
    32
  0
VERTEX
  8
SAPA_FOGBAND
  5
2C0B
 10
-20.5302
 20
-73.3684
 30
0.000000
  70
    32
  0
VERTEX
  8
SAPA_FOGBAND
  5
2C0C
 10
-20.6938
 20
-73.3261
 30
0.000000
  70
    32
  0
VERTEX
  8
SAPA_FOGBAND
  5
2C0D
 10
-20.8532
 20
-73.2797
 30
0.000000
  70
    32
  0
VERTEX
  8
SAPA_FOGBAND
  5
2C0E
 10
-21.0079
 20
-73.2294
 30
0.000000
  70
    32
  0
VERTEX
  8
SAPA_FOGBAND
  5
2C0F
 10
-21.1576
 20
-73.1752
 30
0.000000
  70
    32
  0
VERTEX
  8
SAPA_FOGBAND
  5
2C10
 10
-21.3020
 20
-73.1173
 30
0.000000
  70
    32
  0
VERTEX
  8
SAPA_FOGBAND
  5
2C11
 10
-21.4407
 20
-73.0559
 30
0.000000
  70
    32
  0
VERTEX
  8
SAPA_FOGBAND
  5
2C12
 10
-21.5733
 20
-72.9910
 30
0.000000
  70
    32
  0
VERTEX
  8
SAPA_FOGBAND
  5
2C13
 10
-21.6996
 20
-72.9229
 30
0.000000
  70
    32
  0
VERTEX
  8
SAPA_FOGBAND
  5
2C14
 10
-21.8192
 20
-72.8517
 30
0.000000
  70
    32
  0
VERTEX
  8
SAPA_FOGBAND
  5
2C15
 10
-21.9319
 20
-72.7775
 30
0.000000
  70
    32
  0
VERTEX
  8
SAPA_FOGBAND
  5
2C16
 10
-22.0374
 20
-72.7006
 30
0.000000
  70
    32
  0
VERTEX
  8
SAPA_FOGBAND
  5
2C17
 10
-22.1353
 20
-72.6211
 30
0.000000
  70
    32
  0
VERTEX
  8
SAPA_FOGBAND
  5
2C18
 10
-22.2256
 20
-72.5392
 30
0.000000
  70
    32
  0
VERTEX
  8
SAPA_FOGBAND
  5
2C19
 10
-22.3080
 20
-72.4552
 30
0.000000
  70
    32
  0
VERTEX
  8
SAPA_FOGBAND
  5
2C1A
 10
-22.3822
 20
-72.3692
 30
0.000000
  70
    32
  0
VERTEX
  8
SAPA_FOGBAND
  5
2C1B
 10
-22.4481
 20
-72.2814
 30
0.000000
  70
    32
  0
VERTEX
  8
SAPA_FOGBAND
  5
2C1C
 10
-22.5055
 20
-72.1921
 30
0.000000
  70
    32
  0
VERTEX
  8
SAPA_FOGBAND
  5
2C1D
 10
-22.5544
 20
-72.1014
 30
0.000000
  70
    32
  0
VERTEX
  8
SAPA_FOGBAND
  5
2C1E
 10
-22.5945
 20
-72.0097
 30
0.000000
  70
    32
  0
VERTEX
  8
SAPA_FOGBAND
  5
2C1F
 10
-22.6258
 20
-71.9170
 30
0.000000
  70
    32
  0
VERTEX
  8
SAPA_FOGBAND
  5
2C20
 10
-22.6482
 20
-71.8236
 30
0.000000
  70
    32
  0
VERTEX
  8
SAPA_FOGBAND
  5
2C21
 10
-22.6617
 20
-71.7298
 30
0.000000
  70
    32
  0
VERTEX
  8
SAPA_FOGBAND
  5
2C22
 10
-22.6662
 20
-71.6357
 30
0.000000
  70
    32
  0
VERTEX
  8
SAPA_FOGBAND
  5
2C23
 10
-22.6617
 20
-71.5417
 30
0.000000
  70
    32
  0
VERTEX
  8
SAPA_FOGBAND
  5
2C24
 10
-22.6482
 20
-71.4479
 30
0.000000
  70
    32
  0
VERTEX
  8
SAPA_FOGBAND
  5
2C25
 10
-22.6258
 20
-71.3545
 30
0.000000
  70
    32
  0
VERTEX
  8
SAPA_FOGBAND
  5
2C26
 10
-22.5945
 20
-71.2618
 30
0.000000
  70
    32
  0
VERTEX
  8
SAPA_FOGBAND
  5
2C27
 10
-22.5544
 20
-71.1700
 30
0.000000
  70
    32
  0
VERTEX
  8
SAPA_FOGBAND
  5
2C28
 10
-22.5055
 20
-71.0793
 30
0.000000
  70
    32
  0
VERTEX
  8
SAPA_FOGBAND
  5
2C29
 10
-22.4481
 20
-70.9900
 30
0.000000
  70
    32
  0
VERTEX
  8
SAPA_FOGBAND
  5
2C2A
 10
-22.3822
 20
-70.9022
 30
0.000000
  70
    32
  0
VERTEX
  8
SAPA_FOGBAND
  5
2C2B
 10
-22.3080
 20
-70.8162
 30
0.000000
  70
    32
  0
VERTEX
  8
SAPA_FOGBAND
  5
2C2C
 10
-22.2256
 20
-70.7322
 30
0.000000
  70
    32
  0
VERTEX
  8
SAPA_FOGBAND
  5
2C2D
 10
-22.1353
 20
-70.6504
 30
0.000000
  70
    32
  0
VERTEX
  8
SAPA_FOGBAND
  5
2C2E
 10
-22.0374
 20
-70.5709
 30
0.000000
  70
    32
  0
VERTEX
  8
SAPA_FOGBAND
  5
2C2F
 10
-21.9319
 20
-70.4940
 30
0.000000
  70
    32
  0
VERTEX
  8
SAPA_FOGBAND
  5
2C30
 10
-21.8192
 20
-70.4198
 30
0.000000
  70
    32
  0
VERTEX
  8
SAPA_FOGBAND
  5
2C31
 10
-21.6996
 20
-70.3486
 30
0.000000
  70
    32
  0
VERTEX
  8
SAPA_FOGBAND
  5
2C32
 10
-21.5733
 20
-70.2804
 30
0.000000
  70
    32
  0
VERTEX
  8
SAPA_FOGBAND
  5
2C33
 10
-21.4407
 20
-70.2156
 30
0.000000
  70
    32
  0
VERTEX
  8
SAPA_FOGBAND
  5
2C34
 10
-21.3020
 20
-70.1541
 30
0.000000
  70
    32
  0
VERTEX
  8
SAPA_FOGBAND
  5
2C35
 10
-21.1576
 20
-70.0962
 30
0.000000
  70
    32
  0
VERTEX
  8
SAPA_FOGBAND
  5
2C36
 10
-21.0079
 20
-70.0421
 30
0.000000
  70
    32
  0
VERTEX
  8
SAPA_FOGBAND
  5
2C37
 10
-20.8532
 20
-69.9917
 30
0.000000
  70
    32
  0
VERTEX
  8
SAPA_FOGBAND
  5
2C38
 10
-20.6938
 20
-69.9454
 30
0.000000
  70
    32
  0
VERTEX
  8
SAPA_FOGBAND
  5
2C39
 10
-20.5302
 20
-69.9031
 30
0.000000
  70
    32
  0
VERTEX
  8
SAPA_FOGBAND
  5
2C3A
 10
-20.3628
 20
-69.8649
 30
0.000000
  70
    32
  0
VERTEX
  8
SAPA_FOGBAND
  5
2C3B
 10
-20.1919
 20
-69.8311
 30
0.000000
  70
    32
  0
VERTEX
  8
SAPA_FOGBAND
  5
2C3C
 10
-20.0180
 20
-69.8016
 30
0.000000
  70
    32
  0
VERTEX
  8
SAPA_FOGBAND
  5
2C3D
 10
-19.8415
 20
-69.7765
 30
0.000000
  70
    32
  0
VERTEX
  8
SAPA_FOGBAND
  5
2C3E
 10
-19.6628
 20
-69.7559
 30
0.000000
  70
    32
  0
VERTEX
  8
SAPA_FOGBAND
  5
2C3F
 10
-19.4824
 20
-69.7398
 30
0.000000
  70
    32
  0
VERTEX
  8
SAPA_FOGBAND
  5
2C40
 10
-19.3006
 20
-69.7283
 30
0.000000
  70
    32
  0
VERTEX
  8
SAPA_FOGBAND
  5
2C41
 10
-19.1180
 20
-69.7213
 30
0.000000
  70
    32
  0
VERTEX
  8
SAPA_FOGBAND
  5
2C42
 10
-18.9349
 20
-69.7190
 30
0.000000
  70
    32
  0
VERTEX
  8
SAPA_FOGBAND
  5
2C43
 10
-18.7518
 20
-69.7213
 30
0.000000
  70
    32
  0
VERTEX
  8
SAPA_FOGBAND
  5
2C44
 10
-18.5692
 20
-69.7283
 30
0.000000
  70
    32
  0
VERTEX
  8
SAPA_FOGBAND
  5
2C45
 10
-18.3874
 20
-69.7398
 30
0.000000
  70
    32
  0
VERTEX
  8
SAPA_FOGBAND
  5
2C46
 10
-18.2069
 20
-69.7559
 30
0.000000
  70
    32
  0
VERTEX
  8
SAPA_FOGBAND
  5
2C47
 10
-18.0282
 20
-69.7765
 30
0.000000
  70
    32
  0
VERTEX
  8
SAPA_FOGBAND
  5
2C48
 10
-17.8517
 20
-69.8016
 30
0.000000
  70
    32
  0
VERTEX
  8
SAPA_FOGBAND
  5
2C49
 10
-17.6778
 20
-69.8311
 30
0.000000
  70
    32
  0
VERTEX
  8
SAPA_FOGBAND
  5
2C4A
 10
-17.5070
 20
-69.8649
 30
0.000000
  70
    32
  0
VERTEX
  8
SAPA_FOGBAND
  5
2C4B
 10
-17.3395
 20
-69.9031
 30
0.000000
  70
    32
  0
VERTEX
  8
SAPA_FOGBAND
  5
2C4C
 10
-17.1760
 20
-69.9454
 30
0.000000
  70
    32
  0
VERTEX
  8
SAPA_FOGBAND
  5
2C4D
 10
-17.0166
 20
-69.9917
 30
0.000000
  70
    32
  0
VERTEX
  8
SAPA_FOGBAND
  5
2C4E
 10
-16.8619
 20
-70.0421
 30
0.000000
  70
    32
  0
VERTEX
  8
SAPA_FOGBAND
  5
2C4F
 10
-16.7121
 20
-70.0962
 30
0.000000
  70
    32
  0
VERTEX
  8
SAPA_FOGBAND
  5
2C50
 10
-16.5678
 20
-70.1541
 30
0.000000
  70
    32
  0
VERTEX
  8
SAPA_FOGBAND
  5
2C51
 10
-16.4291
 20
-70.2156
 30
0.000000
  70
    32
  0
VERTEX
  8
SAPA_FOGBAND
  5
2C52
 10
-16.2964
 20
-70.2804
 30
0.000000
  70
    32
  0
VERTEX
  8
SAPA_FOGBAND
  5
2C53
 10
-16.1702
 20
-70.3486
 30
0.000000
  70
    32
  0
VERTEX
  8
SAPA_FOGBAND
  5
2C54
 10
-16.0505
 20
-70.4198
 30
0.000000
  70
    32
  0
VERTEX
  8
SAPA_FOGBAND
  5
2C55
 10
-15.9379
 20
-70.4940
 30
0.000000
  70
    32
  0
VERTEX
  8
SAPA_FOGBAND
  5
2C56
 10
-15.8324
 20
-70.5709
 30
0.000000
  70
    32
  0
VERTEX
  8
SAPA_FOGBAND
  5
2C57
 10
-15.7344
 20
-70.6504
 30
0.000000
  70
    32
  0
VERTEX
  8
SAPA_FOGBAND
  5
2C58
 10
-15.6442
 20
-70.7322
 30
0.000000
  70
    32
  0
VERTEX
  8
SAPA_FOGBAND
  5
2C59
 10
-15.5618
 20
-70.8162
 30
0.000000
  70
    32
  0
VERTEX
  8
SAPA_FOGBAND
  5
2C5A
 10
-15.4876
 20
-70.9022
 30
0.000000
  70
    32
  0
VERTEX
  8
SAPA_FOGBAND
  5
2C5B
 10
-15.4217
 20
-70.9900
 30
0.000000
  70
    32
  0
VERTEX
  8
SAPA_FOGBAND
  5
2C5C
 10
-15.3642
 20
-71.0793
 30
0.000000
  70
    32
  0
VERTEX
  8
SAPA_FOGBAND
  5
2C5D
 10
-15.3154
 20
-71.1700
 30
0.000000
  70
    32
  0
VERTEX
  8
SAPA_FOGBAND
  5
2C5E
 10
-15.2753
 20
-71.2618
 30
0.000000
  70
    32
  0
VERTEX
  8
SAPA_FOGBAND
  5
2C5F
 10
-15.2440
 20
-71.3545
 30
0.000000
  70
    32
  0
VERTEX
  8
SAPA_FOGBAND
  5
2C60
 10
-15.2215
 20
-71.4479
 30
0.000000
  70
    32
  0
VERTEX
  8
SAPA_FOGBAND
  5
2C61
 10
-15.2081
 20
-71.5417
 30
0.000000
  70
    32
  0
VERTEX
  8
SAPA_FOGBAND
  5
2C62
 10
-15.2036
 20
-71.6357
 30
0.000000
  70
    32
  0
SEQEND
  8
SAPA_FOGBAND
  5
2C63
  0
POLYLINE
  5
187E
  8
SAPA_FOGBAND
 66
     1
 10
0.0
 20
0.0
 30
0.0
  0
VERTEX
  5
2A89
  8
SAPA_FOGBAND
 10
-23.8092529808774
 20
-64.491421355248264
 30
0.0
  0
VERTEX
  5
2A8A
  8
SAPA_FOGBAND
 10
-23.8092529808774
 20
-64.191421355248309
 30
0.0
  0
VERTEX
  5
2A8B
  8
SAPA_FOGBAND
 10
-23.8092529808774
 20
-64.491421355248264
 30
0.0
 42
0.4142135623730951
  0
VERTEX
  5
2A8C
  8
SAPA_FOGBAND
 10
-23.3092529808774
 20
-64.991421355248264
 30
0.0
  0
VERTEX
  5
2A8D
  8
SAPA_FOGBAND
 10
-16.009252980877449
 20
-64.99142135524832
 30
0.0
 42
0.4142135623730951
  0
VERTEX
  5
2A8E
  8
SAPA_FOGBAND
 10
-15.50925298087745
 20
-64.49142135524832
 30
0.0
  0
VERTEX
  5
2A8F
  8
SAPA_FOGBAND
 10
-15.50925298087745
 20
-64.191421355248309
 30
0.0
  0
SEQEND
  5
2A90
  8
SAPA_FOGBAND
  0
POLYLINE
  5
187F
  8
SAPA_FOGBAND
 66
     1
 10
0.0
 20
0.0
 30
0.0
 70
     1
  0
VERTEX
  5
2A91
  8
SAPA_FOGBAND
 10
-21.109252980877411
 20
-62.276790857609541
 30
0.0
  0
VERTEX
  5
2A92
  8
SAPA_FOGBAND
 10
-21.109252980877411
 20
-62.876790857609507
 30
0.0
 42
0.9999999999999998
  0
VERTEX
  5
2A93
  8
SAPA_FOGBAND
 10
-19.30925298087746
 20
-62.876790857609507
 30
0.0
  0
VERTEX
  5
2A94
  8
SAPA_FOGBAND
 10
-19.3092529808774
 20
-62.276790857609541
 30
0.0
 42
0.9999999999999998
  0
SEQEND
  5
2A95
  8
SAPA_FOGBAND
  0
POLYLINE
  5
1880
  8
SAPA_FOGBAND
 66
     1
 10
0.0
 20
0.0
 30
0.0
 70
     1
  0
VERTEX
  5
2A96
  8
SAPA_FOGBAND
 10
-10.846536117898919
 20
-69.686637672611454
 30
0.0
 42
0.646356061736289
  0
VERTEX
  5
2A97
  8
SAPA_FOGBAND
 10
-12.50925298087745
 20
-70.43550772777715
 30
0.0
  0
VERTEX
  5
2A98
  8
SAPA_FOGBAND
 10
-12.50925298087745
 20
-73.914480339237215
 30
0.0
 42
0.4879283649264857
  0
VERTEX
  5
2A99
  8
SAPA_FOGBAND
 10
-11.266717355841109
 20
-74.884622839382573
 30
0.0
  0
VERTEX
  5
2A9A
  8
SAPA_FOGBAND
 10
-8.3889199395013438
 20
-74.165173485297629
 30
0.0
 42
0.3441507314089108
  0
VERTEX
  5
2A9B
  8
SAPA_FOGBAND
 10
-7.631455564537676
 20
-73.1950309851523
 30
0.0
  0
VERTEX
  5
2A9C
  8
SAPA_FOGBAND
 10
-7.6314555645376743
 20
-72.982231105069005
 30
0.0
 42
0.214804042991016
  0
VERTEX
  5
2A9D
  8
SAPA_FOGBAND
 10
-7.9687387015591566
 20
-72.233361049903294
 30
0.0
  0
SEQEND
  5
2A9E
  8
SAPA_FOGBAND
  0
POLYLINE
  5
1881
  8
SAPA_FOGBAND
 66
     1
 10
0.0
 20
0.0
 30
0.0
 70
     1
  0
VERTEX
  5
2A9F
  8
SAPA_FOGBAND
 10
-18.20925298087743
 20
-64.191421355248309
 30
0.0
 42
-0.4142135623730951
  0
VERTEX
  5
2AA0
  8
SAPA_FOGBAND
 10
-18.709252980877441
 20
-63.691421355248309
 30
0.0
  0
VERTEX
  5
2AA1
  8
SAPA_FOGBAND
 10
-18.709252980877441
 20
-62.749995938366432
 30
0.0
  0
VERTEX
  5
2AA2
  8
SAPA_FOGBAND
 10
-18.45748917185696
 20
-62.682536029055967
 30
0.0
 42
0.474057181023226
  0
VERTEX
  5
2AA3
  8
SAPA_FOGBAND
 10
-18.330195309493352
 20
-62.40025344341737
 30
0.0
  0
VERTEX
  5
2AA4
  8
SAPA_FOGBAND
 10
-18.950295812251991
 20
-60.954047306657479
 30
0.0
 42
0.2846003776496053
  0
VERTEX
  5
2AA5
  8
SAPA_FOGBAND
 10
-19.3979399907121
 20
-60.676790857609518
 30
0.0
  0
VERTEX
  5
2AA6
  8
SAPA_FOGBAND
 10
-21.020565971042711
 20
-60.676790857609518
 30
0.0
 42
0.2846003776496055
  0
VERTEX
  5
2AA7
  8
SAPA_FOGBAND
 10
-21.46821014950288
 20
-60.954047306657479
 30
0.0
  0
VERTEX
  5
2AA8
  8
SAPA_FOGBAND
 10
-22.08831065226147
 20
-62.400253443417313
 30
0.0
 42
0.474057181023226
  0
VERTEX
  5
2AA9
  8
SAPA_FOGBAND
 10
-21.961016789897911
 20
-62.682536029055967
 30
0.0
  0
VERTEX
  5
2AAA
  8
SAPA_FOGBAND
 10
-21.709252980877441
 20
-62.749995938366432
 30
0.0
  0
VERTEX
  5
2AAB
  8
SAPA_FOGBAND
 10
-21.709252980877441
 20
-63.691421355248309
 30
0.0
 42
-0.4142135623730951
  0
VERTEX
  5
2AAC
  8
SAPA_FOGBAND
 10
-22.209252980877441
 20
-64.191421355248309
 30
0.0
  0
VERTEX
  5
2AAD
  8
SAPA_FOGBAND
 10
-24.721413144258889
 20
-64.191421355248252
 30
0.0
 42
0.4052499559557504
  0
VERTEX
  5
2AAE
  8
SAPA_FOGBAND
 10
-25.02127177856002
 20
-64.48221269437559
 30
0.0
  0
VERTEX
  5
2AAF
  8
SAPA_FOGBAND
 10
-25.509111593229449
 20
-75.882212694375596
 30
0.0
 42
0.4232343445545565
  0
VERTEX
  5
2AB0
  8
SAPA_FOGBAND
 10
-25.209252958928321
 20
-76.191421355248281
 30
0.0
  0
VERTEX
  5
2AB1
  8
SAPA_FOGBAND
 10
-11.570805793686279
 20
-76.191421355248281
 30
0.0
 42
0.0613213552369726
  0
VERTEX
  5
2AB2
  8
SAPA_FOGBAND
 10
-11.44953798116811
 20
-76.176492605320959
 30
0.0
  0
VERTEX
  5
2AB3
  8
SAPA_FOGBAND
 10
-5.9667173558411104
 20
-75.105787448989176
 30
0.0
 42
0.3441507314089092
  0
VERTEX
  5
2AB4
  8
SAPA_FOGBAND
 10
-5.2092529808774488
 20
-74.135644948843847
 30
0.0
  0
VERTEX
  5
2AB5
  8
SAPA_FOGBAND
 10
-5.209252980877447
 20
-72.897560780315644
 30
0.0
 42
0.2148040429910146
  0
VERTEX
  5
2AB6
  8
SAPA_FOGBAND
 10
-5.377894549388186
 20
-72.523125752732781
 30
0.0
  0
VERTEX
  5
2AB7
  8
SAPA_FOGBAND
 10
-14.508943680882821
 20
-64.442551300082556
 30
0.0
 42
0.1831167524995932
  0
VERTEX
  5
2AB8
  8
SAPA_FOGBAND
 10
-15.17166054386135
 20
-64.191421355248309
 30
0.0
  0
SEQEND
  5
2AB9
  8
SAPA_FOGBAND
  0
LINE
  5
1882
  8
SAPA_FOGBAND
 10
48.500000257789218
 20
8.5012846353587577
 30
0.0
 11
48.500000257789218
 21
8.5012846353587577
 31
0.0
  0
DIMENSION
  5
188B
  8
SAPA_MATT
  2
*D179
 10
118.00000000207829
 20
-125.65246760755331
 30
0.0
 11
99.25000000207838
 21
-123.15246760755331
 31
0.0
 70
     0
 13
80.500000002078366
 23
-81.998715298616148
 33
0.0
 14
118.00000000207829
 24
-81.998715298616148
 34
0.0
1001
ACAD
1000
DSTYLE
1002
{
1070
   287
1070
     4
1070
    40
1040
1.0
1070
   279
1070
     1
1002
}
  0
DIMENSION
  5
188C
  8
SAPA_MATT
  2
*D178
 10
80.50000029994942
 20
-125.65246760755331
 30
0.0
 11
78.000000299896442
 21
-123.15246760755331
 31
0.0
 70
     0
 13
75.500000299843464
 23
-81.998715167729216
 33
0.0
 14
80.50000029994942
 24
-81.998715651403174
 34
0.0
1001
ACAD
1000
DSTYLE
1002
{
1070
   287
1070
     4
1070
    40
1040
1.0
1070
   279
1070
     1
1002
}
  0
DIMENSION
  5
188D
  8
SAPA_MATT
  2
*D177
 10
75.499999999900012
 20
-125.65375231270581
 30
0.0
 11
50.24999999995017
 21
-123.15375231270581
 31
0.0
 70
     0
 13
25.000000000000341
 23
-105.9999999990105
 33
0.0
 14
75.499999999900012
 24
-81.998715294908109
 34
0.0
1001
ACAD
1000
DSTYLE
1002
{
1070
   287
1070
     4
1070
    40
1040
1.0
1070
   279
1070
     1
1002
}
  0
DIMENSION
  5
188E
  8
SAPA_MATT
  2
*D176
 10
25.000000000000341
 20
-125.65375231270581
 30
0.0
 11
0.0000000000003412
 21
-123.15375231270581
 31
0.0
 70
     0
 13
-24.999999999999659
 23
-105.9999999990104
 33
0.0
 14
25.000000000000341
 24
-105.9999999990104
 34
0.0
1001
ACAD
1000
DSTYLE
1002
{
1070
    40
1040
1.0
1002
}
  0
VIEWPORT
  5
C4
 67
     1
  8
0
 10
143.06236603067589
 20
116.00969601843509
 30
0.0
 40
369.98580003443811
 41
256.8421457311839
 68
     1
 69
     1
1001
ACAD
1000
MVIEW
1002
{
1070
    16
1010
0.0
1020
0.0
1030
0.0
1010
0.0
1020
0.0
1030
1.0
1040
0.0
1040
256.8421457311839
1040
99.112914085388169
1040
143.07606935501099
1040
50.0
1040
0.0
1040
0.0
1070
     0
1070
     0
1070
     1
1070
     1
1070
     0
1070
     0
1070
     0
1070
     0
1040
0.0
1040
0.0
1040
0.0
1040
10.0
1040
10.0
1040
10.0
1040
10.0
1070
     0
1002
{
1002
}
1002
}
  0
ENDSEC
  0
EOF
