  0
SECTION
  2
HEADER
  9
$ACADVER
  1
AC1009
  9
$INSBASE
 10
0.0
 20
0.0
 30
0.0
  9
$EXTMIN
 10
-131.15375231270579
 20
-133.62503425618289
 30
0.0
  9
$EXTMAX
 10
82.009403434165677
 20
75.551914392872547
 30
0.0000000195376815
  9
$LIMMIN
 10
0.0
 20
0.0
  9
$LIMMAX
 10
790.0
 20
790.0
  9
$ORTHOMODE
 70
     0
  9
$REGENMODE
 70
     1
  9
$FILLMODE
 70
     1
  9
$QTEXTMODE
 70
     0
  9
$MIRRTEXT
 70
     1
  9
$DRAGMODE
 70
     2
  9
$LTSCALE
 40
4.0
  9
$OSMODE
 70
   167
  9
$ATTMODE
 70
     1
  9
$TEXTSIZE
 40
3.5
  9
$TRACEWID
 40
0.05
  9
$TEXTSTYLE
  7
ISO
  9
$CLAYER
  8
0
  9
$CELTYPE
  6
BYLAYER
  9
$CECOLOR
 62
   256
  9
$DIMSCALE
 40
0.0
  9
$DIMASZ
 40
3.0
  9
$DIMEXO
 40
1.5
  9
$DIMDLI
 40
10.0
  9
$DIMRND
 40
0.0
  9
$DIMDLE
 40
0.0
  9
$DIMEXE
 40
1.5
  9
$DIMTP
 40
0.0
  9
$DIMTM
 40
0.0
  9
$DIMTXT
 40
3.0
  9
$DIMCEN
 40
-5.0
  9
$DIMTSZ
 40
0.0
  9
$DIMTOL
 70
     0
  9
$DIMLIM
 70
     0
  9
$DIMTIH
 70
     0
  9
$DIMTOH
 70
     0
  9
$DIMSE1
 70
     0
  9
$DIMSE2
 70
     0
  9
$DIMTAD
 70
     1
  9
$DIMZIN
 70
     8
  9
$DIMBLK
  1

  9
$DIMASO
 70
     1
  9
$DIMSHO
 70
     1
  9
$DIMPOST
  1

  9
$DIMAPOST
  1

  9
$DIMALT
 70
     0
  9
$DIMALTD
 70
     0
  9
$DIMALTF
 40
25.399999999999999
  9
$DIMLFAC
 40
-1.0
  9
$DIMTOFL
 70
     1
  9
$DIMTVP
 40
0.0
  9
$DIMTIX
 70
     0
  9
$DIMSOXD
 70
     0
  9
$DIMSAH
 70
     0
  9
$DIMBLK1
  1

  9
$DIMBLK2
  1

  9
$DIMSTYLE
  2
MASKIN
  9
$DIMCLRD
 70
   256
  9
$DIMCLRE
 70
   256
  9
$DIMCLRT
 70
     2
  9
$DIMTFAC
 40
1.0
  9
$DIMGAP
 40
1.0
  9
$LUNITS
 70
     2
  9
$LUPREC
 70
     8
  9
$SKETCHINC
 40
0.1
  9
$FILLETRAD
 40
0.0
  9
$AUNITS
 70
     0
  9
$AUPREC
 70
     8
  9
$MENU
  1
ACAD
  9
$ELEVATION
 40
0.0
  9
$PELEVATION
 40
0.0
  9
$THICKNESS
 40
0.0
  9
$LIMCHECK
 70
     0
  9
$BLIPMODE
 70
     0
  9
$CHAMFERA
 40
0.0
  9
$CHAMFERB
 40
0.0
  9
$SKPOLY
 70
     0
  9
$TDCREATE
 40
2454859.5577701968
  9
$TDUPDATE
 40
2458453.474616922
  9
$TDINDWG
 40
0.0178562963
  9
$TDUSRTIMER
 40
0.0178561111
  9
$USRTIMER
 70
     1
  9
$ANGBASE
 50
0.0
  9
$ANGDIR
 70
     0
  9
$PDMODE
 70
     0
  9
$PDSIZE
 40
0.0
  9
$PLINEWID
 40
0.0
  9
$COORDS
 70
     1
  9
$SPLFRAME
 70
     0
  9
$SPLINETYPE
 70
     6
  9
$SPLINESEGS
 70
     8
  9
$ATTDIA
 70
     1
  9
$ATTREQ
 70
     1
  9
$HANDLING
 70
     1
  9
$HANDSEED
  5
2CD4
  9
$SURFTAB1
 70
     6
  9
$SURFTAB2
 70
     6
  9
$SURFTYPE
 70
     6
  9
$SURFU
 70
     6
  9
$SURFV
 70
     6
  9
$UCSNAME
  2

  9
$UCSORG
 10
0.0
 20
0.0
 30
0.0
  9
$UCSXDIR
 10
1.0
 20
0.0
 30
0.0
  9
$UCSYDIR
 10
0.0
 20
1.0
 30
0.0
  9
$PUCSNAME
  2

  9
$PUCSORG
 10
0.0
 20
0.0
 30
0.0
  9
$PUCSXDIR
 10
1.0
 20
0.0
 30
0.0
  9
$PUCSYDIR
 10
0.0
 20
1.0
 30
0.0
  9
$USERI1
 70
     0
  9
$USERI2
 70
     0
  9
$USERI3
 70
     0
  9
$USERI4
 70
     0
  9
$USERI5
 70
     0
  9
$USERR1
 40
0.0
  9
$USERR2
 40
0.0
  9
$USERR3
 40
0.0
  9
$USERR4
 40
0.0
  9
$USERR5
 40
0.0
  9
$WORLDVIEW
 70
     1
  9
$SHADEDGE
 70
     3
  9
$SHADEDIF
 70
    70
  9
$TILEMODE
 70
     1
  9
$MAXACTVP
 70
    16
  9
$PLIMCHECK
 70
     0
  9
$PEXTMIN
 10
1.0000000000000000E+020
 20
1.0000000000000000E+020
 30
1.0000000000000000E+020
  9
$PEXTMAX
 10
-1.0000000000000000E+020
 20
-1.0000000000000000E+020
 30
-1.0000000000000000E+020
  9
$PLIMMIN
 10
-5.069427490234375
 20
-5.8737497329711914
  9
$PLIMMAX
 10
291.89889526367187
 20
204.0995779037475
  9
$UNITMODE
 70
     0
  9
$VISRETAIN
 70
     1
  9
$PLINEGEN
 70
     0
  9
$PSLTSCALE
 70
     1
  0
ENDSEC
  0
SECTION
  2
TABLES
  0
TABLE
  2
VPORT
 70
     1
  0
VPORT
  2
*ACTIVE
 70
     0
 10
0.0
 20
0.0
 11
1.0
 21
1.0
 12
46.047771326511878
 22
29.538998727261809
 13
0.0
 23
0.0
 14
1.0
 24
1.0
 15
0.0
 25
0.0
 16
0.0
 26
0.0
 36
1.0
 17
0.0
 27
0.0
 37
0.0
 40
242.82248996256391
 41
1.7265193370165739
 42
50.0
 43
0.0
 44
0.0
 50
0.0
 51
0.0
 71
     0
 72
   100
 73
     1
 74
     1
 75
     0
 76
     0
 77
     0
 78
     0
  0
ENDTAB
  0
TABLE
  2
LTYPE
 70
    60
  0
LTYPE
  2
CONTINUOUS
 70
     0
  3
Solid line
 72
    65
 73
     0
 40
0.0
  0
LTYPE
  2
BYGG-01482201$0$NEWDOT
 70
     0
  3
____ . ____ . ____ . ____ . ____ . ____ . ____
 72
    65
 73
     4
 40
2.0
 49
1.0
 49
-0.5
 49
0.0
 49
-0.5
  0
LTYPE
  2
BYGG-014357$0$NEWDOT
 70
     0
  3
____ . ____ . ____ . ____ . ____ . ____ . ____
 72
    65
 73
     4
 40
2.0
 49
1.0
 49
-0.5
 49
0.0
 49
-0.5
  0
LTYPE
  2
BYGG-014357$0$DASHDOT
 70
     0
  3
__ . __ . __ . __ . __ . __ . __ . __ . __ . __
 72
    65
 73
     4
 40
1.0
 49
0.5
 49
-0.25
 49
0.0
 49
-0.25
  0
LTYPE
  2
BYGG-014357$0$DASHED
 70
     0
  3
__ __ __ __ __ __ __ __ __ __ __ __ __ __ __
 72
    65
 73
     2
 40
0.75
 49
0.5
 49
-0.25
  0
LTYPE
  2
BYGG-014279$0$NEWDOT
 70
     0
  3
____ . ____ . ____ . ____ . ____ . ____ . ____
 72
    65
 73
     4
 40
2.0
 49
1.0
 49
-0.5
 49
0.0
 49
-0.5
  0
LTYPE
  2
BYGG-01482201$0$ZIGZAG
 70
     0
  3
Zig zag /\/\/\/\/\/\/\/\/\/\/\/\/\/\/\/\/\/\/\/\/\/\/\/
 72
    65
 73
     4
 40
20.32254
 49
0.00254
 49
-5.0800000000000001
 49
-10.16
 49
-5.0800000000000001
  0
LTYPE
  2
BYGG-014279$0$ZIGZAG
 70
     0
  3
Zig zag /\/\/\/\/\/\/\/\/\/\/\/\/\/\/\/\/\/\/\/\/\/\/\/
 72
    65
 73
     4
 40
20.32254
 49
0.00254
 49
-5.0800000000000001
 49
-10.16
 49
-5.0800000000000001
  0
LTYPE
  2
BYGG-024756$0$NEWDOT
 70
     0
  3
____ . ____ . ____ . ____ . ____ . ____ . ____
 72
    65
 73
     4
 40
2.0
 49
1.0
 49
-0.5
 49
0.0
 49
-0.5
  0
LTYPE
  2
BYGG-024756$0$DASHDOT
 70
     0
  3
__ . __ . __ . __ . __ . __ . __ . __ . __ . __
 72
    65
 73
     4
 40
1.0
 49
0.5
 49
-0.25
 49
0.0
 49
-0.25
  0
LTYPE
  2
BYGG-024798$0$NEWDOT
 70
     0
  3
____ . ____ . ____ . ____ . ____ . ____ . ____
 72
    65
 73
     4
 40
2.0
 49
1.0
 49
-0.5
 49
0.0
 49
-0.5
  0
LTYPE
  2
BYGG-024799$0$NEWDOT
 70
     0
  3
____ . ____ . ____ . ____ . ____ . ____ . ____
 72
    65
 73
     4
 40
2.0
 49
1.0
 49
-0.5
 49
0.0
 49
-0.5
  0
LTYPE
  2
BYGG-024799$0$DASHDOT
 70
     0
  3
__ . __ . __ . __ . __ . __ . __ . __ . __ . __
 72
    65
 73
     4
 40
1.0
 49
0.5
 49
-0.25
 49
0.0
 49
-0.25
  0
LTYPE
  2
BYGG-020805$0$NEWDOT
 70
     0
  3
____ . ____ . ____ . ____ . ____ . ____ . ____
 72
    65
 73
     4
 40
2.0
 49
1.0
 49
-0.5
 49
0.0
 49
-0.5
  0
LTYPE
  2
BYGG-020805$0$DASHDOT
 70
     0
  3
__ . __ . __ . __ . __ . __ . __ . __ . __ . __
 72
    65
 73
     4
 40
1.0
 49
0.5
 49
-0.25
 49
0.0
 49
-0.25
  0
LTYPE
  2
BYGG-020805$0$DASHED
 70
     0
  3
__ __ __ __ __ __ __ __ __ __ __ __ __ __ __
 72
    65
 73
     2
 40
0.75
 49
0.5
 49
-0.25
  0
LTYPE
  2
BYGG-020805$0$PHANTOM
 70
     0
  3
Phantom ______  __  __  ______  __  __  ______
 72
    65
 73
     6
 40
63.5
 49
31.75
 49
-6.3499999999999988
 49
6.3499999999999988
 49
-6.3499999999999988
 49
6.3499999999999988
 49
-6.3499999999999988
  0
LTYPE
  2
BYGG-025652$0$NEWDOT
 70
     0
  3
____ . ____ . ____ . ____ . ____ . ____ . ____
 72
    65
 73
     4
 40
2.0
 49
1.0
 49
-0.5
 49
0.0
 49
-0.5
  0
LTYPE
  2
BYGG-025652$0$DASHDOT
 70
     0
  3
__ . __ . __ . __ . __ . __ . __ . __ . __ . __
 72
    65
 73
     4
 40
1.0
 49
0.5
 49
-0.25
 49
0.0
 49
-0.25
  0
LTYPE
  2
BYGG-025652$0$DASHED
 70
     0
  3
__ __ __ __ __ __ __ __ __ __ __ __ __ __ __
 72
    65
 73
     2
 40
0.75
 49
0.5
 49
-0.25
  0
LTYPE
  2
BYGG-025652$0$PHANTOM
 70
     0
  3
Phantom ______  __  __  ______  __  __  ______
 72
    65
 73
     6
 40
63.5
 49
31.75
 49
-6.3499999999999988
 49
6.3499999999999988
 49
-6.3499999999999988
 49
6.3499999999999988
 49
-6.3499999999999988
  0
LTYPE
  2
BYGG-014411$0$NEWDOT
 70
     0
  3
____ . ____ . ____ . ____ . ____ . ____ . ____
 72
    65
 73
     4
 40
2.0
 49
1.0
 49
-0.5
 49
0.0
 49
-0.5
  0
LTYPE
  2
BYGG-014411$0$ZIGZAG
 70
     0
  3
Zig zag /\/\/\/\/\/\/\/\/\/\/\/\/\/\/\/\/\/\/\/\/\/\/\/
 72
    65
 73
     4
 40
20.32254
 49
0.00254
 49
-5.0800000000000001
 49
-10.16
 49
-5.0800000000000001
  0
LTYPE
  2
BYGG-036624$0$NEWDOT
 70
     0
  3
____ . ____ . ____ . ____ . ____ . ____ . ____
 72
    65
 73
     4
 40
2.0
 49
1.0
 49
-0.5
 49
0.0
 49
-0.5
  0
LTYPE
  2
BYGG-036624$0$DASHDOT
 70
     0
  3
__ . __ . __ . __ . __ . __ . __ . __ . __ . __
 72
    65
 73
     4
 40
1.0
 49
0.5
 49
-0.25
 49
0.0
 49
-0.25
  0
LTYPE
  2
BYGG-036624$0$DASHED
 70
     0
  3
__ __ __ __ __ __ __ __ __ __ __ __ __ __ __
 72
    65
 73
     2
 40
0.75
 49
0.5
 49
-0.25
  0
LTYPE
  2
BYGG-036624$0$PHANTOM
 70
     0
  3
Phantom ______  __  __  ______  __  __  ______
 72
    65
 73
     6
 40
63.5
 49
31.75
 49
-6.3499999999999988
 49
6.3499999999999988
 49
-6.3499999999999988
 49
6.3499999999999988
 49
-6.3499999999999988
  0
LTYPE
  2
BYGG-036419$0$NEWDOT
 70
     0
  3
____ . ____ . ____ . ____ . ____ . ____ . ____
 72
    65
 73
     4
 40
2.0
 49
1.0
 49
-0.5
 49
0.0
 49
-0.5
  0
LTYPE
  2
BYGG-036419$0$BYGG-024778|NEWDOT
 70
     0
  3
____ . ____ . ____ . ____ . ____ . ____ . ____
 72
    65
 73
     4
 40
2.0
 49
1.0
 49
-0.5
 49
0.0
 49
-0.5
  0
LTYPE
  2
BYGG-036419$0$BYGG-035431|NEWDOT
 70
     0
  3
____ . ____ . ____ . ____ . ____ . ____ . ____
 72
    65
 73
     4
 40
2.0
 49
1.0
 49
-0.5
 49
0.0
 49
-0.5
  0
LTYPE
  2
BYGG-036419$0$BYGG-0354310
 70
     0
  3
__ __ __ __ __ __ __ __ __ __ __ __ __ __ __
 72
    65
 73
     2
 40
0.75
 49
0.5
 49
-0.25
  0
LTYPE
  2
BYGG-036419$0$BYGG-0354311
 70
     0
  3
Zig zag /\/\/\/\/\/\/\/\/\/\/\/\/\/\/\/\/\/\/\/\/\/\/\/
 72
    65
 73
     4
 40
20.32254
 49
0.00254
 49
-5.0800000000000001
 49
-10.16
 49
-5.0800000000000001
  0
LTYPE
  2
BYGG-036419$0$BYGG-035435|NEWDOT
 70
     0
  3
____ . ____ . ____ . ____ . ____ . ____ . ____
 72
    65
 73
     4
 40
2.0
 49
1.0
 49
-0.5
 49
0.0
 49
-0.5
  0
LTYPE
  2
BYGG-036419$0$BYGG-014411|NEWDOT
 70
     0
  3
____ . ____ . ____ . ____ . ____ . ____ . ____
 72
    65
 73
     4
 40
2.0
 49
1.0
 49
-0.5
 49
0.0
 49
-0.5
  0
LTYPE
  2
BYGG-036419$0$BYGG-0144110
 70
     0
  3
Zig zag /\/\/\/\/\/\/\/\/\/\/\/\/\/\/\/\/\/\/\/\/\/\/\/
 72
    65
 73
     4
 40
20.32254
 49
0.00254
 49
-5.0800000000000001
 49
-10.16
 49
-5.0800000000000001
  0
LTYPE
  2
BYGG-036419$0$BYGG-024787|NEWDOT
 70
     0
  3
____ . ____ . ____ . ____ . ____ . ____ . ____
 72
    65
 73
     4
 40
2.0
 49
1.0
 49
-0.5
 49
0.0
 49
-0.5
  0
LTYPE
  2
BYGG-036419$0$BYGG-024788|NEWDOT
 70
     0
  3
____ . ____ . ____ . ____ . ____ . ____ . ____
 72
    65
 73
     4
 40
2.0
 49
1.0
 49
-0.5
 49
0.0
 49
-0.5
  0
LTYPE
  2
BYGG-036419$0$BYGG-024789|NEWDOT
 70
     0
  3
____ . ____ . ____ . ____ . ____ . ____ . ____
 72
    65
 73
     4
 40
2.0
 49
1.0
 49
-0.5
 49
0.0
 49
-0.5
  0
LTYPE
  2
BYGG-036419$0$BYGG-024817|NEWDOT
 70
     0
  3
____ . ____ . ____ . ____ . ____ . ____ . ____
 72
    65
 73
     4
 40
2.0
 49
1.0
 49
-0.5
 49
0.0
 49
-0.5
  0
LTYPE
  2
BYGG-036419$0$BYGG-024794|NEWDOT
 70
     0
  3
____ . ____ . ____ . ____ . ____ . ____ . ____
 72
    65
 73
     4
 40
2.0
 49
1.0
 49
-0.5
 49
0.0
 49
-0.5
  0
LTYPE
  2
BYGG-033167$0$NEWDOT
 70
     0
  3
____ . ____ . ____ . ____ . ____ . ____ . ____
 72
    65
 73
     4
 40
2.0
 49
1.0
 49
-0.5
 49
0.0
 49
-0.5
  0
LTYPE
  2
BYGG-033167$0$DASHDOT
 70
     0
  3
__ . __ . __ . __ . __ . __ . __ . __ . __ . __
 72
    65
 73
     4
 40
1.0
 49
0.5
 49
-0.25
 49
0.0
 49
-0.25
  0
LTYPE
  2
BYGG-033167$0$DASHED
 70
     0
  3
__ __ __ __ __ __ __ __ __ __ __ __ __ __ __
 72
    65
 73
     2
 40
0.75
 49
0.5
 49
-0.25
  0
LTYPE
  2
BYGG-033167$0$PHANTOM
 70
     0
  3
Phantom ______  __  __  ______  __  __  ______
 72
    65
 73
     6
 40
63.5
 49
31.75
 49
-6.3499999999999988
 49
6.3499999999999988
 49
-6.3499999999999988
 49
6.3499999999999988
 49
-6.3499999999999988
  0
LTYPE
  2
BYGG-033167$0$BYGG-020132$
 70
     0
  3
____ . ____ . ____ . ____ . ____ . ____ . ____
 72
    65
 73
     4
 40
2.0
 49
1.0
 49
-0.5
 49
0.0
 49
-0.5
  0
LTYPE
  2
BYGG-033167$0$BYGG-024943$
 70
     0
  3
____ . ____ . ____ . ____ . ____ . ____ . ____
 72
    65
 73
     4
 40
2.0
 49
1.0
 49
-0.5
 49
0.0
 49
-0.5
  0
LTYPE
  2
BYGG-026410$0$NEWDOT
 70
     0
  3
____ . ____ . ____ . ____ . ____ . ____ . ____
 72
    65
 73
     4
 40
2.0
 49
1.0
 49
-0.5
 49
0.0
 49
-0.5
  0
LTYPE
  2
BYGG-026410$0$DASHDOT
 70
     0
  3
__ . __ . __ . __ . __ . __ . __ . __ . __ . __
 72
    65
 73
     4
 40
1.0
 49
0.5
 49
-0.25
 49
0.0
 49
-0.25
  0
LTYPE
  2
BYGG-026410$0$DASHED
 70
     0
  3
__ __ __ __ __ __ __ __ __ __ __ __ __ __ __
 72
    65
 73
     2
 40
0.75
 49
0.5
 49
-0.25
  0
LTYPE
  2
BYGG-026410$0$PHANTOM
 70
     0
  3
Phantom ______  __  __  ______  __  __  ______
 72
    65
 73
     6
 40
63.5
 49
31.75
 49
-6.3499999999999988
 49
6.3499999999999988
 49
-6.3499999999999988
 49
6.3499999999999988
 49
-6.3499999999999988
  0
LTYPE
  2
BYGG-030185$0$PHANTOM2
 70
     0
  3
Phantom (.5x) ___ _ _ ___ _ _ ___ _ _ ___ _ _
 72
    65
 73
     6
 40
1.25
 49
0.625
 49
-0.125
 49
0.125
 49
-0.125
 49
0.125
 49
-0.125
  0
LTYPE
  2
BYGG-024798$0$DASHDOT
 70
     0
  3
__ . __ . __ . __ . __ . __ . __ . __ . __ . __
 72
    65
 73
     4
 40
1.0
 49
0.5
 49
-0.25
 49
0.0
 49
-0.25
  0
LTYPE
  2
BYGG-014089$0$PHANTOM2
 70
     0
  3
Phantom (.5x) ___ _ _ ___ _ _ ___ _ _ ___ _ _
 72
    65
 73
     6
 40
1.25
 49
0.625
 49
-0.125
 49
0.125
 49
-0.125
 49
0.125
 49
-0.125
  0
LTYPE
  2
BYGG-014108$0$PHANTOM2
 70
     0
  3
Phantom (.5x) ___ _ _ ___ _ _ ___ _ _ ___ _ _
 72
    65
 73
     6
 40
1.25
 49
0.625
 49
-0.125
 49
0.125
 49
-0.125
 49
0.125
 49
-0.125
  0
LTYPE
  2
BYGG-025652$0$PHANTOM2
 70
     0
  3
Phantom (.5x) ___ _ _ ___ _ _ ___ _ _ ___ _ _
 72
    65
 73
     6
 40
1.25
 49
0.625
 49
-0.125
 49
0.125
 49
-0.125
 49
0.125
 49
-0.125
  0
LTYPE
  2
BYGG-014411$0$PHANTOM2
 70
     0
  3
Phantom (.5x) ___ _ _ ___ _ _ ___ _ _ ___ _ _
 72
    65
 73
     6
 40
1.25
 49
0.625
 49
-0.125
 49
0.125
 49
-0.125
 49
0.125
 49
-0.125
  0
LTYPE
  2
BYGG-014090$0$PHANTOM2
 70
     0
  3
Phantom (.5x) ___ _ _ ___ _ _ ___ _ _ ___ _ _
 72
    65
 73
     6
 40
1.25
 49
0.625
 49
-0.125
 49
0.125
 49
-0.125
 49
0.125
 49
-0.125
  0
LTYPE
  2
BYGG-014088$0$PHANTOM2
 70
     0
  3
Phantom (.5x) ___ _ _ ___ _ _ ___ _ _ ___ _ _
 72
    65
 73
     6
 40
1.25
 49
0.625
 49
-0.125
 49
0.125
 49
-0.125
 49
0.125
 49
-0.125
  0
LTYPE
  2
BYGG-036419$0$DASHDOT
 70
     0
  3
__ . __ . __ . __ . __ . __ . __ . __ . __ . __
 72
    65
 73
     4
 40
1.0
 49
0.5
 49
-0.25
 49
0.0
 49
-0.25
  0
LTYPE
  2
BYGG-036419$0$PHANTOM2
 70
     0
  3
Phantom (.5x) ___ _ _ ___ _ _ ___ _ _ ___ _ _
 72
    65
 73
     6
 40
1.25
 49
0.625
 49
-0.125
 49
0.125
 49
-0.125
 49
0.125
 49
-0.125
  0
ENDTAB
  0
TABLE
  2
LAYER
 70
   349
  0
LAYER
  2
0
 70
     0
 62
     7
  6
CONTINUOUS
  0
LAYER
  2
DEFPOINTS
 70
     0
 62
     7
  6
CONTINUOUS
  0
LAYER
  2
SAPA_ARTIKELNR
 70
     0
 62
     4
  6
CONTINUOUS
  0
LAYER
  2
SAPA_LIGHT
 70
     1
 62
     1
  6
CONTINUOUS
  0
LAYER
  2
SAPA_FYLLNING
 70
     0
 62
     4
  6
CONTINUOUS
  0
LAYER
  2
SAPA_ISOLATOR
 70
     0
 62
     4
  6
CONTINUOUS
  0
LAYER
  2
SAPA_MATT
 70
     0
 62
     1
  6
CONTINUOUS
  0
LAYER
  2
SAPA_GLAS
 70
     0
 62
     4
  6
CONTINUOUS
  0
LAYER
  2
SAPA_FOGBAND
 70
     0
 62
     2
  6
CONTINUOUS
  0
LAYER
  2
SAPA_PROFIL
 70
     0
 62
     7
  6
CONTINUOUS
  0
ENDTAB
  0
TABLE
  2
STYLE
 70
    73
  0
STYLE
  2
STANDARD
 70
     0
 40
0.0
 41
1.0
 50
0.0
 71
     0
 42
0.2
  3
txt
  4

  0
STYLE
  2
ISO
 70
     0
 40
0.0
 41
1.0
 50
0.0
 71
     0
 42
3.5
  3
txt
  4

  0
STYLE
  2

 70
     1
 40
0.0
 41
1.0
 50
0.0
 71
     0
 42
0.2
  3
ltypeshp.shx
  4

  0
STYLE
  2
BYGG-021589$0$STANDARD
 70
     0
 40
0.0
 41
1.0
 50
0.0
 71
     0
 42
0.2
  3
txt
  4

  0
STYLE
  2
BYGG-021589$0$ISO
 70
     0
 40
0.0
 41
1.0
 50
0.0
 71
     0
 42
3.5
  3
isocp3.shx
  4

  0
STYLE
  2
BYGG-01482201$0$STANDARD
 70
     0
 40
0.0
 41
1.0
 50
0.0
 71
     0
 42
0.2
  3
txt
  4

  0
STYLE
  2
BYGG-01482201$0$ISO
 70
     0
 40
0.0
 41
1.0
 50
0.0
 71
     0
 42
3.5
  3
isocp3.shx
  4

  0
STYLE
  2
BYGG-021802$0$STANDARD
 70
     0
 40
0.0
 41
1.0
 50
0.0
 71
     0
 42
0.2
  3
txt
  4

  0
STYLE
  2
BYGG-021802$0$ISO
 70
     0
 40
0.0
 41
1.0
 50
0.0
 71
     0
 42
3.5
  3
isocp3.shx
  4

  0
STYLE
  2
BYGG-014357$0$STANDARD
 70
     0
 40
0.0
 41
1.0
 50
0.0
 71
     0
 42
0.2
  3
txt
  4

  0
STYLE
  2
BYGG-014357$0$ISO
 70
     0
 40
0.0
 41
1.0
 50
0.0
 71
     0
 42
3.5
  3
isocp3.shx
  4

  0
STYLE
  2
BYGG-014063$0$STANDARD
 70
     0
 40
0.0
 41
1.0
 50
0.0
 71
     0
 42
0.2
  3
txt
  4

  0
STYLE
  2
BYGG-014063$0$ISO
 70
     0
 40
0.0
 41
1.0
 50
0.0
 71
     0
 42
3.5
  3
isocp3.shx
  4

  0
STYLE
  2
BYGG-021582$0$STANDARD
 70
     0
 40
0.0
 41
1.0
 50
0.0
 71
     0
 42
0.2
  3
txt
  4

  0
STYLE
  2
BYGG-021582$0$ISO
 70
     0
 40
0.0
 41
1.0
 50
0.0
 71
     0
 42
3.5
  3
isocp3.shx
  4

  0
STYLE
  2
BYGG-014279$0$STANDARD
 70
     0
 40
0.0
 41
1.0
 50
0.0
 71
     0
 42
0.2
  3
TXT.shx
  4

  0
STYLE
  2
BYGG-014279$0$ISO
 70
     0
 40
0.0
 41
1.0
 50
0.0
 71
     0
 42
3.5
  3
iso
  4

  0
STYLE
  2
BYGG-022681$0$STANDARD
 70
     0
 40
0.0
 41
1.0
 50
0.0
 71
     0
 42
0.2
  3
txt
  4

  0
STYLE
  2
BYGG-022681$0$ISO
 70
     0
 40
0.0
 41
1.0
 50
0.0
 71
     0
 42
3.5
  3
txt
  4

  0
STYLE
  2
BYGG-014306$0$STANDARD
 70
     0
 40
0.0
 41
1.0
 50
0.0
 71
     0
 42
0.2
  3
txt
  4

  0
STYLE
  2
BYGG-022676$0$STANDARD
 70
     0
 40
0.0
 41
1.0
 50
0.0
 71
     0
 42
0.2
  3
txt
  4

  0
STYLE
  2
BYGG-022676$0$ISO
 70
     0
 40
0.0
 41
1.0
 50
0.0
 71
     0
 42
3.5
  3
txt
  4

  0
STYLE
  2
BYGG-022676$0$ANNOTATIVE
 70
     0
 40
0.0
 41
1.0
 50
0.0
 71
     0
 42
0.2
  3
txt
  4

  0
STYLE
  2
BYGG-025109$0$STANDARD
 70
     0
 40
0.0
 41
1.0
 50
0.0
 71
     0
 42
0.2
  3
txt
  4

  0
STYLE
  2
BYGG-025109$0$ISO
 70
     0
 40
0.0
 41
1.0
 50
0.0
 71
     0
 42
3.5
  3
txt
  4

  0
STYLE
  2
BYGG-020805$0$STANDARD
 70
     0
 40
0.0
 41
1.0
 50
0.0
 71
     0
 42
0.2
  3
txt
  4

  0
STYLE
  2
BYGG-020805$0$ISO
 70
     0
 40
0.0
 41
1.0
 50
0.0
 71
     0
 42
3.5
  3
txt
  4

  0
STYLE
  2
BYGG-026395$0$STANDARD
 70
     0
 40
0.0
 41
1.0
 50
0.0
 71
     0
 42
0.2
  3
txt
  4

  0
STYLE
  2
BYGG-026395$0$ISO
 70
     0
 40
0.0
 41
1.0
 50
0.0
 71
     0
 42
3.5
  3
isocp3.shx
  4

  0
STYLE
  2
BYGG-030185$0$STANDARD
 70
     0
 40
0.0
 41
1.0
 50
0.0
 71
     0
 42
0.2
  3
txt
  4

  0
STYLE
  2
BYGG-030185$0$ISO
 70
     0
 40
0.0
 41
1.0
 50
0.0
 71
     0
 42
7.0
  3
ISO
  4

  0
STYLE
  2
BYGG-024798$0$STANDARD
 70
     0
 40
0.0
 41
1.0
 50
0.0
 71
     0
 42
0.2
  3
txt
  4

  0
STYLE
  2
BYGG-024798$0$ISO
 70
     0
 40
0.0
 41
1.0
 50
0.0
 71
     0
 42
3.5
  3
txt
  4

  0
STYLE
  2
BYGG-024799$0$STANDARD
 70
     0
 40
0.0
 41
1.0
 50
0.0
 71
     0
 42
0.2
  3
txt
  4

  0
STYLE
  2
BYGG-024799$0$ISO
 70
     0
 40
0.0
 41
1.0
 50
0.0
 71
     0
 42
3.5
  3
txt
  4

  0
STYLE
  2
BYGG-028980$0$STANDARD
 70
     0
 40
0.0
 41
1.0
 50
0.0
 71
     0
 42
0.2
  3
txt
  4

  0
STYLE
  2
BYGG-028980$0$ISO
 70
     0
 40
0.0
 41
1.0
 50
0.0
 71
     0
 42
3.5
  3
txt
  4

  0
STYLE
  2
BYGG-014089$0$STANDARD
 70
     0
 40
0.0
 41
1.0
 50
0.0
 71
     0
 42
0.2
  3
txt
  4

  0
STYLE
  2
BYGG-014089$0$ANNOTATIVE
 70
     0
 40
0.0
 41
1.0
 50
0.0
 71
     0
 42
3.5
  3
txt
  4

  0
STYLE
  2
BYGG-014108$0$STANDARD
 70
     0
 40
0.0
 41
1.0
 50
0.0
 71
     0
 42
0.4
  3
txt
  4

  0
STYLE
  2
BYGG-014108$0$SIMPLEX
 70
     0
 40
0.0
 41
1.0
 50
0.0
 71
     0
 42
0.2
  3
simplex
  4

  0
STYLE
  2
BYGG-019611$0$STANDARD
 70
     0
 40
0.0
 41
1.0
 50
0.0
 71
     0
 42
0.2
  3
txt
  4

  0
STYLE
  2
BYGG-019611$0$ISO
 70
     0
 40
0.0
 41
1.0
 50
0.0
 71
     0
 42
3.5
  3
txt
  4

  0
STYLE
  2
BYGG-025652$0$STANDARD
 70
     0
 40
0.0
 41
1.0
 50
0.0
 71
     0
 42
0.2
  3
txt
  4

  0
STYLE
  2
BYGG-025652$0$ISO
 70
     0
 40
0.0
 41
1.0
 50
0.0
 71
     0
 42
3.5
  3
txt
  4

  0
STYLE
  2
BYGG-025652$0$ANNOTATIVE
 70
     0
 40
0.0
 41
1.0
 50
0.0
 71
     0
 42
0.2
  3
txt
  4

  0
STYLE
  2
BYGG-014411$0$STANDARD
 70
     0
 40
0.0
 41
1.0
 50
0.0
 71
     0
 42
0.2
  3
txt
  4

  0
STYLE
  2
BYGG-014411$0$ISO
 70
     0
 40
0.0
 41
1.0
 50
0.0
 71
     0
 42
3.5
  3
isocp3.shx
  4

  0
STYLE
  2
BYGG-014090$0$STANDARD
 70
     0
 40
0.0
 41
1.0
 50
0.0
 71
     0
 42
0.2
  3
txt
  4

  0
STYLE
  2
BYGG-014090$0$SIMPLEX
 70
     0
 40
0.0
 41
1.0
 50
0.0
 71
     0
 42
0.2
  3
simplex
  4

  0
STYLE
  2
BYGG-014088$0$STANDARD
 70
     0
 40
0.0
 41
1.0
 50
0.0
 71
     0
 42
0.4
  3
txt
  4

  0
STYLE
  2
BYGG-036624$0$STANDARD
 70
     0
 40
0.0
 41
1.0
 50
0.0
 71
     0
 42
0.2
  3
txt
  4

  0
STYLE
  2
BYGG-036624$0$ISO
 70
     0
 40
0.0
 41
1.0
 50
0.0
 71
     0
 42
3.5
  3
txt
  4

  0
STYLE
  2
BYGG-036419$0$STANDARD
 70
     0
 40
0.0
 41
1.0
 50
0.0
 71
     0
 42
0.2
  3
txt
  4

  0
STYLE
  2
BYGG-036419$0$ISO
 70
     0
 40
0.0
 41
1.0
 50
0.0
 71
     0
 42
3.5
  3
txt
  4

  0
STYLE
  2
BYGG-036419$0$BYGG-024778$
 70
     0
 40
0.0
 41
1.0
 50
0.0
 71
     0
 42
3.5
  3
txt
  4

  0
STYLE
  2
BYGG-036419$0$BYGG-035431$
 70
     0
 40
0.0
 41
1.0
 50
0.0
 71
     0
 42
3.5
  3
txt
  4

  0
STYLE
  2
BYGG-036419$0$BYGG-035435$
 70
     0
 40
0.0
 41
1.0
 50
0.0
 71
     0
 42
3.5
  3
txt
  4

  0
STYLE
  2
BYGG-036419$0$BYGG-014411$
 70
     0
 40
0.0
 41
1.0
 50
0.0
 71
     0
 42
3.5
  3
isocp3.shx
  4

  0
STYLE
  2
BYGG-036419$0$BYGG-024787$
 70
     0
 40
0.0
 41
1.0
 50
0.0
 71
     0
 42
3.5
  3
txt
  4

  0
STYLE
  2
BYGG-036419$0$BYGG-024788$
 70
     0
 40
0.0
 41
1.0
 50
0.0
 71
     0
 42
3.5
  3
txt
  4

  0
STYLE
  2
BYGG-036419$0$BYGG-024789$
 70
     0
 40
0.0
 41
1.0
 50
0.0
 71
     0
 42
3.5
  3
txt
  4

  0
STYLE
  2
BYGG-036419$0$BYGG-024817$
 70
     0
 40
0.0
 41
1.0
 50
0.0
 71
     0
 42
3.5
  3
txt
  4

  0
STYLE
  2
BYGG-036419$0$BYGG-024794$
 70
     0
 40
0.0
 41
1.0
 50
0.0
 71
     0
 42
3.5
  3
txt
  4

  0
STYLE
  2
BYGG-024756$0$STANDARD
 70
     0
 40
0.0
 41
1.0
 50
0.0
 71
     0
 42
0.2
  3
txt
  4

  0
STYLE
  2
BYGG-024756$0$ISO
 70
     0
 40
0.0
 41
1.0
 50
0.0
 71
     0
 42
3.5
  3
txt
  4

  0
STYLE
  2
BYGG-033167$0$STANDARD
 70
     0
 40
0.0
 41
1.0
 50
0.0
 71
     0
 42
0.2
  3
txt
  4

  0
STYLE
  2
BYGG-033167$0$ISO
 70
     0
 40
0.0
 41
1.0
 50
0.0
 71
     0
 42
3.5
  3
txt
  4

  0
STYLE
  2
BYGG-033167$0$BYGG-020132$
 70
     0
 40
0.0
 41
1.0
 50
0.0
 71
     0
 42
3.5
  3
txt
  4

  0
STYLE
  2
BYGG-033167$0$BYGG-024943$
 70
     0
 40
0.0
 41
1.0
 50
0.0
 71
     0
 42
3.5
  3
txt
  4

  0
STYLE
  2
BYGG-026410$0$STANDARD
 70
     0
 40
0.0
 41
1.0
 50
0.0
 71
     0
 42
0.2
  3
txt
  4

  0
STYLE
  2
BYGG-026410$0$ISO
 70
     0
 40
0.0
 41
1.0
 50
0.0
 71
     0
 42
3.5
  3
txt
  4

  0
STYLE
  2
BYGG-035883$0$STANDARD
 70
     0
 40
0.0
 41
1.0
 50
0.0
 71
     0
 42
0.2
  3
txt
  4

  0
ENDTAB
  0
TABLE
  2
VIEW
 70
     0
  0
ENDTAB
  0
TABLE
  2
UCS
 70
     0
  0
ENDTAB
  0
TABLE
  2
APPID
 70
    45
  0
APPID
  2
ACAD
 70
     0
  0
APPID
  2
ACAD_DSTYLE_DIMTEXT_FILL
 70
     0
  0
APPID
  2
ACAD_DSTYLE_DIMEXT_LENGTH
 70
     0
  0
APPID
  2
ACAD_DSTYLE_DIMEXT_ENABLED
 70
     0
  0
APPID
  2
ACAD_DSTYLE_DIM_LINETYPE
 70
     0
  0
APPID
  2
ACAD_DSTYLE_DIM_EXT1_LINETYPE
 70
     0
  0
APPID
  2
ACAD_DSTYLE_DIM_EXT2_LINETYPE
 70
     0
  0
APPID
  2
ACAD_DSTYLE_DIMJOGGED_JOGA
 70
     0
  0
APPID
  2
ACAD_DSTYLE_DIMARC_LENGTH_
 70
     0
  0
APPID
  2
ACAD_PSEXT
 70
     0
  0
APPID
  2
ACAD_MLEADERVER
 70
     0
  0
APPID
  2
AMG_ARCHIVE11
 70
     0
  0
APPID
  2
ACAD_EXEMPT_FROM_CAD_STANDARDS
 70
     0
  0
APPID
  2
ACADANNOTATIVE
 70
     0
  0
APPID
  2
ACAECLAYERSTANDARD
 70
     0
  0
APPID
  2
DCO15
 70
     0
  0
APPID
  2
ACDBDYNAMICBLOCKGUID
 70
     0
  0
APPID
  2
ACDBBLOCKREPETAG
 70
     0
  0
APPID
  2
GENIUS_GENODEF_13
 70
     0
  0
APPID
  2
GENIUS_GENTRA_14
 70
     0
  0
APPID
  2
GENIUS_GENOLIS_13
 70
     0
  0
APPID
  2
GENIUS_GENOENT_13
 70
     0
  0
APPID
  2
GENIUS_GENOBJ-N-TIT_13
 70
     0
  0
APPID
  2
GENIUS_GENTITLE_13
 70
     0
  0
APPID
  2
GENIUS_GENOREF_13
 70
     0
  0
APPID
  2
GENIUS_GENSCREG_15
 70
     0
  0
APPID
  2
GENIUS_GENOBJ-N-SDF_13
 70
     0
  0
APPID
  2
GENIUS_GENOBJ-N-CRS_13
 70
     0
  0
APPID
  2
RC_PROFILE
 70
     0
  0
APPID
  2
AME_SOL
 70
     0
  0
APPID
  2
ACAUTHENVIRON
 70
     0
  0
APPID
  2
ACDBDYNAMICBLOCKTRUENAME
 70
     0
  0
APPID
  2
ACAD_NAV_VCDISPLAY
 70
     0
  0
APPID
  2
ACAD_DSTYLE_DIMRADIAL_EXTENSION
 70
     0
  0
APPID
  2
ACAD_OBJECT_CHANGE_GUID
 70
     0
  0
APPID
  2
ACCMTRANSPARENCY
 70
     0
  0
APPID
  2
AVE_RENDER
 70
     0
  0
APPID
  2
AVE_ENTITY_MATERIAL
 70
     0
  0
APPID
  2
AVE_FINISH
 70
     0
  0
APPID
  2
AVE_MATERIAL
 70
     0
  0
APPID
  2
AVE_GLOBAL
 70
     0
  0
APPID
  2
4M_RENDER
 70
     0
  0
APPID
  2
LIBMAN
 70
     0
  0
APPID
  2
AUTOBUILD
 70
     0
  0
APPID
  2
AEC_XDATA_BOUND_SPACE
 70
     0
  0
ENDTAB
  0
TABLE
  2
DIMSTYLE
 70
    68
  0
DIMSTYLE
  2
STANDARD
 70
     0
  3

  4

  5

  6

  7

 40
1.0
 41
0.18
 42
0.0625
 43
0.38
 44
0.18
 45
0.0
 46
0.0
 47
0.0
 48
0.0
140
0.18
141
0.09
142
0.0
143
25.399999999999999
144
1.0
145
0.0
146
1.0
147
0.09
 71
     0
 72
     0
 73
     1
 74
     1
 75
     0
 76
     0
 77
     0
 78
     0
170
     0
171
     2
172
     0
173
     0
174
     0
175
     0
176
     0
177
     0
178
     0
  0
DIMSTYLE
  2
MASKIN
 70
     0
  3

  4

  5

  6

  7

 40
0.0
 41
3.0
 42
1.5
 43
10.0
 44
1.5
 45
0.0
 46
0.0
 47
0.0
 48
0.0
140
3.0
141
-5.0
142
0.0
143
25.399999999999999
144
-1.0
145
0.0
146
1.0
147
1.0
 71
     0
 72
     0
 73
     0
 74
     0
 75
     0
 76
     0
 77
     1
 78
     8
170
     0
171
     0
172
     1
173
     0
174
     0
175
     0
176
   256
177
   256
178
     2
  0
DIMSTYLE
  2
BYGG-021589$0$MASKIN
 70
     0
  3

  4

  5

  6

  7

 40
0.0
 41
3.0
 42
1.5
 43
10.0
 44
1.5
 45
0.0
 46
0.0
 47
0.0
 48
0.0
140
3.0
141
-5.0
142
0.0
143
25.399999999999999
144
-1.0
145
0.0
146
1.0
147
1.0
 71
     0
 72
     0
 73
     0
 74
     0
 75
     0
 76
     0
 77
     1
 78
     8
170
     0
171
     0
172
     1
173
     0
174
     0
175
     0
176
   256
177
   256
178
   256
  0
DIMSTYLE
  2
BYGG-01482201$0$STANDARD
 70
     0
  3

  4

  5

  6

  7

 40
1.0
 41
0.18
 42
0.0625
 43
0.38
 44
0.18
 45
0.0
 46
0.0
 47
0.0
 48
0.0
140
0.18
141
0.09
142
0.0
143
25.399999999999999
144
1.0
145
0.0
146
1.0
147
0.09
 71
     0
 72
     0
 73
     1
 74
     1
 75
     0
 76
     0
 77
     0
 78
     0
170
     0
171
     2
172
     0
173
     0
174
     0
175
     0
176
     0
177
     0
178
     0
  0
DIMSTYLE
  2
BYGG-01482201$0$MASKIN
 70
     0
  3

  4

  5

  6

  7

 40
0.0
 41
3.0
 42
1.5
 43
10.0
 44
1.5
 45
0.0
 46
0.0
 47
0.0
 48
0.0
140
3.0
141
-5.0
142
0.0
143
25.399999999999999
144
-1.0
145
0.0
146
1.0
147
1.0
 71
     0
 72
     0
 73
     0
 74
     1
 75
     0
 76
     0
 77
     1
 78
     8
170
     0
171
     0
172
     1
173
     0
174
     0
175
     0
176
   256
177
   256
178
     2
  0
DIMSTYLE
  2
BYGG-021802$0$MASKIN
 70
     0
  3

  4

  5

  6

  7

 40
0.0
 41
3.0
 42
1.5
 43
10.0
 44
1.5
 45
0.0
 46
0.0
 47
0.0
 48
0.0
140
3.0
141
-5.0
142
0.0
143
25.399999999999999
144
-1.0
145
0.0
146
1.0
147
1.0
 71
     0
 72
     0
 73
     0
 74
     0
 75
     0
 76
     0
 77
     1
 78
     8
170
     0
171
     0
172
     1
173
     0
174
     0
175
     0
176
   256
177
   256
178
   256
  0
DIMSTYLE
  2
BYGG-014357$0$MASKIN
 70
     0
  3

  4

  5

  6

  7

 40
0.0
 41
3.0
 42
1.5
 43
10.0
 44
1.5
 45
0.0
 46
0.0
 47
0.0
 48
0.0
140
3.0
141
-5.0
142
0.0
143
25.399999999999999
144
-1.0
145
0.0
146
1.0
147
1.0
 71
     0
 72
     0
 73
     0
 74
     0
 75
     0
 76
     0
 77
     1
 78
     8
170
     0
171
     0
172
     1
173
     0
174
     0
175
     0
176
   256
177
   256
178
   256
  0
DIMSTYLE
  2
BYGG-014357$0$MASKIN1
 70
     0
  3

  4

  5

  6

  7

 40
1.0
 41
3.0
 42
1.5
 43
10.0
 44
1.5
 45
0.0
 46
0.0
 47
0.0
 48
0.0
140
3.0
141
-5.0
142
0.0
143
25.399999999999999
144
1.0
145
0.0
146
1.0
147
0.9
 71
     0
 72
     0
 73
     0
 74
     0
 75
     0
 76
     0
 77
     1
 78
     8
170
     0
171
     0
172
     1
173
     0
174
     0
175
     0
176
   256
177
   256
178
   256
  0
DIMSTYLE
  2
BYGG-014357$0$MASKIN2
 70
     0
  3

  4

  5

  6

  7

 40
1.0
 41
3.0
 42
1.5
 43
10.0
 44
1.5
 45
0.0
 46
0.0
 47
0.0
 48
0.0
140
3.0
141
-5.0
142
0.0
143
25.399999999999999
144
1.0
145
0.0
146
1.0
147
0.9
 71
     0
 72
     0
 73
     0
 74
     0
 75
     0
 76
     0
 77
     1
 78
     8
170
     0
171
     0
172
     1
173
     0
174
     0
175
     0
176
   256
177
   256
178
   256
  0
DIMSTYLE
  2
BYGG-014357$0$MASKIN3
 70
     0
  3

  4

  5

  6

  7

 40
1.0
 41
3.0
 42
1.5
 43
10.0
 44
1.5
 45
0.0
 46
0.0
 47
0.0
 48
0.0
140
3.0
141
-5.0
142
0.0
143
25.399999999999999
144
1.0
145
0.0
146
1.0
147
0.9
 71
     0
 72
     0
 73
     0
 74
     0
 75
     0
 76
     0
 77
     1
 78
     8
170
     0
171
     0
172
     1
173
     0
174
     0
175
     0
176
   256
177
   256
178
   256
  0
DIMSTYLE
  2
BYGG-014357$0$DMST_1
 70
     0
  3

  4

  5

  6

  7

 40
1.0
 41
0.7000000000000002
 42
0.0
 43
7.0
 44
0.4
 45
0.0
 46
0.0
 47
0.15
 48
0.15
140
0.7000000000000002
141
0.0
142
0.0
143
25.399999999999999
144
1.0
145
0.0
146
0.7
147
0.09
 71
     1
 72
     0
 73
     0
 74
     0
 75
     0
 76
     0
 77
     1
 78
     9
170
     0
171
     2
172
     0
173
     0
174
     0
175
     0
176
     1
177
     1
178
     2
  0
DIMSTYLE
  2
BYGG-014063$0$MASKIN
 70
     0
  3

  4

  5

  6

  7

 40
0.0
 41
3.0
 42
1.5
 43
10.0
 44
1.5
 45
0.0
 46
0.0
 47
0.0
 48
0.0
140
3.0
141
-5.0
142
0.0
143
25.399999999999999
144
-1.0
145
0.0
146
1.0
147
1.0
 71
     0
 72
     0
 73
     0
 74
     0
 75
     0
 76
     0
 77
     1
 78
     8
170
     0
171
     0
172
     1
173
     0
174
     0
175
     0
176
   256
177
   256
178
   256
  0
DIMSTYLE
  2
BYGG-014063$0$STANDARD
 70
     0
  3

  4

  5

  6

  7

 40
1.0
 41
0.18
 42
0.0625
 43
0.38
 44
0.18
 45
0.0
 46
0.0
 47
0.0
 48
0.0
140
0.18
141
0.09
142
0.0
143
25.399999999999999
144
1.0
145
0.0
146
1.0
147
0.09
 71
     0
 72
     0
 73
     1
 74
     1
 75
     0
 76
     0
 77
     0
 78
     0
170
     0
171
     2
172
     0
173
     0
174
     0
175
     0
176
     0
177
     0
178
     0
  0
DIMSTYLE
  2
BYGG-021582$0$MASKIN
 70
     0
  3

  4

  5

  6

  7

 40
0.0
 41
3.0
 42
1.5
 43
10.0
 44
1.5
 45
0.0
 46
0.0
 47
0.0
 48
0.0
140
3.0
141
-5.0
142
0.0
143
25.399999999999999
144
-1.0
145
0.0
146
1.0
147
1.0
 71
     0
 72
     0
 73
     0
 74
     0
 75
     0
 76
     0
 77
     1
 78
     8
170
     0
171
     0
172
     1
173
     0
174
     0
175
     0
176
   256
177
   256
178
   256
  0
DIMSTYLE
  2
BYGG-014279$0$STANDARD
 70
     0
  3

  4

  5

  6

  7

 40
1.0
 41
0.18
 42
0.0625
 43
0.38
 44
0.18
 45
0.0
 46
0.0
 47
0.0
 48
0.0
140
0.18
141
0.09
142
0.0
143
25.399999999999999
144
1.0
145
0.0
146
1.0
147
0.09
 71
     0
 72
     0
 73
     1
 74
     1
 75
     0
 76
     0
 77
     0
 78
     0
170
     0
171
     2
172
     0
173
     0
174
     0
175
     0
176
     0
177
     0
178
     0
  0
DIMSTYLE
  2
BYGG-014279$0$MASKIN
 70
     0
  3

  4

  5

  6

  7

 40
0.0
 41
3.0
 42
1.5
 43
10.0
 44
1.5
 45
0.0
 46
0.0
 47
0.0
 48
0.0
140
3.0
141
-5.0
142
0.0
143
25.399999999999999
144
-1.0
145
0.0
146
1.0
147
1.0
 71
     0
 72
     0
 73
     0
 74
     1
 75
     0
 76
     0
 77
     1
 78
     8
170
     0
171
     0
172
     1
173
     0
174
     0
175
     0
176
   256
177
   256
178
     2
  0
DIMSTYLE
  2
BYGG-022681$0$STANDARD
 70
     0
  3

  4

  5

  6

  7

 40
1.0
 41
0.18
 42
0.0625
 43
0.38
 44
0.18
 45
0.0
 46
0.0
 47
0.0
 48
0.0
140
0.18
141
0.09
142
0.0
143
25.399999999999999
144
1.0
145
0.0
146
1.0
147
0.09
 71
     0
 72
     0
 73
     1
 74
     1
 75
     0
 76
     0
 77
     0
 78
     0
170
     0
171
     2
172
     0
173
     0
174
     0
175
     0
176
     0
177
     0
178
     0
  0
DIMSTYLE
  2
BYGG-022681$0$MASKIN
 70
     0
  3

  4

  5

  6

  7

 40
0.0
 41
3.0
 42
1.5
 43
10.0
 44
1.5
 45
0.0
 46
0.0
 47
0.0
 48
0.0
140
3.0
141
-5.0
142
0.0
143
25.399999999999999
144
-1.0
145
0.0
146
1.0
147
1.0
 71
     0
 72
     0
 73
     0
 74
     0
 75
     0
 76
     0
 77
     1
 78
     8
170
     0
171
     0
172
     1
173
     0
174
     0
175
     0
176
   256
177
   256
178
     2
  0
DIMSTYLE
  2
BYGG-014306$0$STANDARD
 70
     0
  3

  4

  5

  6

  7

 40
1.0
 41
0.18
 42
0.0625
 43
0.38
 44
0.18
 45
0.0
 46
0.0
 47
0.0
 48
0.0
140
0.18
141
0.09
142
0.0
143
25.399999999999999
144
1.0
145
0.0
146
1.0
147
0.09
 71
     0
 72
     0
 73
     1
 74
     1
 75
     0
 76
     0
 77
     0
 78
     0
170
     0
171
     2
172
     0
173
     0
174
     0
175
     0
176
     0
177
     0
178
     0
  0
DIMSTYLE
  2
BYGG-022676$0$STANDARD
 70
     0
  3

  4

  5

  6

  7

 40
1.0
 41
0.18
 42
0.0625
 43
0.38
 44
0.18
 45
0.0
 46
0.0
 47
0.0
 48
0.0
140
0.18
141
0.09
142
0.0
143
25.399999999999999
144
1.0
145
0.0
146
1.0
147
0.09
 71
     0
 72
     0
 73
     1
 74
     1
 75
     0
 76
     0
 77
     0
 78
     0
170
     0
171
     2
172
     0
173
     0
174
     0
175
     0
176
     0
177
     0
178
     0
  0
DIMSTYLE
  2
BYGG-022676$0$MASKIN
 70
     0
  3

  4

  5

  6

  7

 40
0.0
 41
3.0
 42
1.5
 43
10.0
 44
1.5
 45
0.0
 46
0.0
 47
0.0
 48
0.0
140
3.0
141
-5.0
142
0.0
143
25.399999999999999
144
-1.0
145
0.0
146
1.0
147
1.0
 71
     0
 72
     0
 73
     0
 74
     0
 75
     0
 76
     0
 77
     1
 78
     8
170
     0
171
     0
172
     1
173
     0
174
     0
175
     0
176
   256
177
   256
178
     2
  0
DIMSTYLE
  2
BYGG-022676$0$ANNOTATIVE
 70
     0
  3

  4

  5

  6

  7

 40
1.0
 41
0.18
 42
0.0625
 43
0.38
 44
0.18
 45
0.0
 46
0.0
 47
0.0
 48
0.0
140
0.18
141
0.09
142
0.0
143
25.399999999999999
144
1.0
145
0.0
146
1.0
147
0.09
 71
     0
 72
     0
 73
     1
 74
     1
 75
     0
 76
     0
 77
     0
 78
     0
170
     0
171
     2
172
     0
173
     0
174
     0
175
     0
176
     0
177
     0
178
     0
  0
DIMSTYLE
  2
BYGG-025109$0$STANDARD
 70
     0
  3

  4

  5

  6

  7

 40
1.0
 41
0.18
 42
0.0625
 43
0.38
 44
0.18
 45
0.0
 46
0.0
 47
0.0
 48
0.0
140
0.18
141
0.09
142
0.0
143
25.399999999999999
144
1.0
145
0.0
146
1.0
147
0.09
 71
     0
 72
     0
 73
     1
 74
     1
 75
     0
 76
     0
 77
     0
 78
     0
170
     0
171
     2
172
     0
173
     0
174
     0
175
     0
176
     0
177
     0
178
     0
  0
DIMSTYLE
  2
BYGG-025109$0$MASKIN
 70
     0
  3

  4

  5

  6

  7

 40
0.0
 41
3.0
 42
1.5
 43
10.0
 44
1.5
 45
0.0
 46
0.0
 47
0.0
 48
0.0
140
3.0
141
-5.0
142
0.0
143
25.399999999999999
144
-1.0
145
0.0
146
1.0
147
1.0
 71
     0
 72
     0
 73
     0
 74
     0
 75
     0
 76
     0
 77
     1
 78
     8
170
     0
171
     0
172
     1
173
     0
174
     0
175
     0
176
   256
177
   256
178
     2
  0
DIMSTYLE
  2
BYGG-020805$0$STANDARD
 70
     0
  3

  4

  5

  6

  7

 40
1.0
 41
0.18
 42
0.0625
 43
0.38
 44
0.18
 45
0.0
 46
0.0
 47
0.0
 48
0.0
140
0.18
141
0.09
142
0.0
143
25.399999999999999
144
1.0
145
0.0
146
1.0
147
0.09
 71
     0
 72
     0
 73
     1
 74
     1
 75
     0
 76
     0
 77
     0
 78
     0
170
     0
171
     2
172
     0
173
     0
174
     0
175
     0
176
     0
177
     0
178
     0
  0
DIMSTYLE
  2
BYGG-020805$0$MASKIN
 70
     0
  3

  4

  5

  6

  7

 40
0.0
 41
3.0
 42
1.5
 43
10.0
 44
1.5
 45
0.0
 46
0.0
 47
0.0
 48
0.0
140
3.0
141
-5.0
142
0.0
143
25.399999999999999
144
-1.0
145
0.0
146
1.0
147
1.0
 71
     0
 72
     0
 73
     0
 74
     0
 75
     0
 76
     0
 77
     1
 78
     8
170
     0
171
     0
172
     1
173
     0
174
     0
175
     0
176
   256
177
   256
178
     2
  0
DIMSTYLE
  2
BYGG-026395$0$MASKIN
 70
     0
  3

  4

  5

  6

  7

 40
0.0
 41
3.0
 42
1.5
 43
10.0
 44
1.5
 45
0.0
 46
0.0
 47
0.0
 48
0.0
140
3.0
141
-5.0
142
0.0
143
25.399999999999999
144
-1.0
145
0.0
146
1.0
147
1.0
 71
     0
 72
     0
 73
     0
 74
     0
 75
     0
 76
     0
 77
     1
 78
     8
170
     0
171
     0
172
     1
173
     0
174
     0
175
     0
176
   256
177
   256
178
   256
  0
DIMSTYLE
  2
BYGG-030185$0$STANDARD
 70
     0
  3

  4

  5

  6

  7

 40
1.0
 41
0.18
 42
0.0625
 43
0.38
 44
0.18
 45
0.0
 46
0.0
 47
0.0
 48
0.0
140
0.18
141
0.09
142
0.0
143
25.399999999999999
144
1.0
145
0.0
146
1.0
147
0.09
 71
     0
 72
     0
 73
     1
 74
     1
 75
     0
 76
     0
 77
     0
 78
     0
170
     0
171
     2
172
     0
173
     0
174
     0
175
     0
176
     0
177
     0
178
     0
  0
DIMSTYLE
  2
BYGG-030185$0$MASKIN
 70
     0
  3

  4

  5

  6

  7

 40
0.0
 41
3.0
 42
1.5
 43
10.0
 44
1.5
 45
0.0
 46
0.0
 47
0.0
 48
0.0
140
3.0
141
-5.0
142
0.0
143
25.399999999999999
144
-1.0
145
0.0
146
1.0
147
1.0
 71
     0
 72
     0
 73
     0
 74
     1
 75
     0
 76
     0
 77
     1
 78
     8
170
     0
171
     0
172
     1
173
     0
174
     0
175
     0
176
   256
177
   256
178
     2
  0
DIMSTYLE
  2
BYGG-024798$0$MASKIN
 70
     0
  3

  4

  5

  6

  7

 40
0.0
 41
3.0
 42
1.5
 43
10.0
 44
1.5
 45
0.0
 46
0.0
 47
0.0
 48
0.0
140
3.0
141
-5.0
142
0.0
143
25.399999999999999
144
-1.0
145
0.0
146
1.0
147
1.0
 71
     0
 72
     0
 73
     0
 74
     0
 75
     0
 76
     0
 77
     1
 78
     8
170
     0
171
     0
172
     1
173
     0
174
     0
175
     0
176
   256
177
   256
178
     2
  0
DIMSTYLE
  2
BYGG-024798$0$STANDARD
 70
     0
  3

  4

  5

  6

  7

 40
1.0
 41
0.18
 42
0.0625
 43
0.38
 44
0.18
 45
0.0
 46
0.0
 47
0.0
 48
0.0
140
0.18
141
0.09
142
0.0
143
25.399999999999999
144
1.0
145
0.0
146
1.0
147
0.09
 71
     0
 72
     0
 73
     1
 74
     1
 75
     0
 76
     0
 77
     0
 78
     0
170
     0
171
     2
172
     0
173
     0
174
     0
175
     0
176
     0
177
     0
178
     0
  0
DIMSTYLE
  2
BYGG-024799$0$MASKIN
 70
     0
  3

  4

  5

  6

  7

 40
0.0
 41
3.0
 42
1.5
 43
10.0
 44
1.5
 45
0.0
 46
0.0
 47
0.0
 48
0.0
140
3.0
141
-5.0
142
0.0
143
25.399999999999999
144
-1.0
145
0.0
146
1.0
147
1.0
 71
     0
 72
     0
 73
     0
 74
     0
 75
     0
 76
     0
 77
     1
 78
     8
170
     0
171
     0
172
     1
173
     0
174
     0
175
     0
176
   256
177
   256
178
     2
  0
DIMSTYLE
  2
BYGG-024799$0$STANDARD
 70
     0
  3

  4

  5

  6

  7

 40
1.0
 41
0.18
 42
0.0625
 43
0.38
 44
0.18
 45
0.0
 46
0.0
 47
0.0
 48
0.0
140
0.18
141
0.09
142
0.0
143
25.399999999999999
144
1.0
145
0.0
146
1.0
147
0.09
 71
     0
 72
     0
 73
     1
 74
     1
 75
     0
 76
     0
 77
     0
 78
     0
170
     0
171
     2
172
     0
173
     0
174
     0
175
     0
176
     0
177
     0
178
     0
  0
DIMSTYLE
  2
BYGG-028980$0$STANDARD
 70
     0
  3

  4

  5

  6

  7

 40
1.0
 41
0.18
 42
0.0625
 43
0.38
 44
0.18
 45
0.0
 46
0.0
 47
0.0
 48
0.0
140
0.18
141
0.09
142
0.0
143
25.399999999999999
144
1.0
145
0.0
146
1.0
147
0.09
 71
     0
 72
     0
 73
     1
 74
     1
 75
     0
 76
     0
 77
     0
 78
     0
170
     0
171
     2
172
     0
173
     0
174
     0
175
     0
176
     0
177
     0
178
     0
  0
DIMSTYLE
  2
BYGG-028980$0$MASKIN
 70
     0
  3

  4

  5

  6

  7

 40
0.0
 41
3.0
 42
1.5
 43
10.0
 44
1.5
 45
0.0
 46
0.0
 47
0.0
 48
0.0
140
3.0
141
-5.0
142
0.0
143
25.399999999999999
144
-1.0
145
0.0
146
1.0
147
1.0
 71
     0
 72
     0
 73
     0
 74
     0
 75
     0
 76
     0
 77
     1
 78
     8
170
     0
171
     0
172
     1
173
     0
174
     0
175
     0
176
   256
177
   256
178
     2
  0
DIMSTYLE
  2
BYGG-014089$0$STANDARD
 70
     0
  3

  4

  5

  6

  7

 40
1.0
 41
0.18
 42
0.0625
 43
0.38
 44
0.18
 45
0.0
 46
0.0
 47
0.0
 48
0.0
140
0.18
141
0.09
142
0.0
143
25.399999999999999
144
1.0
145
0.0
146
1.0
147
0.09
 71
     0
 72
     0
 73
     1
 74
     1
 75
     0
 76
     0
 77
     0
 78
     0
170
     0
171
     2
172
     0
173
     0
174
     0
175
     0
176
     0
177
     0
178
     0
  0
DIMSTYLE
  2
BYGG-014108$0$STANDARD
 70
     0
  3

  4

  5

  6

  7

 40
1.0
 41
0.18
 42
0.0625
 43
0.38
 44
0.18
 45
0.0
 46
0.0
 47
0.0
 48
0.0
140
0.18
141
0.09
142
0.0
143
25.399999999999999
144
1.0
145
0.0
146
1.0
147
0.09
 71
     0
 72
     0
 73
     1
 74
     1
 75
     0
 76
     0
 77
     0
 78
     0
170
     0
171
     2
172
     0
173
     0
174
     0
175
     0
176
     0
177
     0
178
     0
  0
DIMSTYLE
  2
BYGG-019611$0$STANDARD
 70
     0
  3

  4

  5

  6

  7

 40
1.0
 41
0.18
 42
0.0625
 43
0.38
 44
0.18
 45
0.0
 46
0.0
 47
0.0
 48
0.0
140
0.18
141
0.09
142
0.0
143
25.399999999999999
144
1.0
145
0.0
146
1.0
147
0.09
 71
     0
 72
     0
 73
     1
 74
     1
 75
     0
 76
     0
 77
     0
 78
     0
170
     0
171
     2
172
     0
173
     0
174
     0
175
     0
176
     0
177
     0
178
     0
  0
DIMSTYLE
  2
BYGG-019611$0$MASKIN
 70
     0
  3

  4

  5

  6

  7

 40
0.0
 41
3.0
 42
1.5
 43
10.0
 44
1.5
 45
0.0
 46
0.0
 47
0.0
 48
0.0
140
3.0
141
-5.0
142
0.0
143
25.399999999999999
144
-1.0
145
0.0
146
1.0
147
1.0
 71
     0
 72
     0
 73
     0
 74
     0
 75
     0
 76
     0
 77
     1
 78
     8
170
     0
171
     0
172
     1
173
     0
174
     0
175
     0
176
   256
177
   256
178
     2
  0
DIMSTYLE
  2
BYGG-025652$0$STANDARD
 70
     0
  3

  4

  5

  6

  7

 40
1.0
 41
0.18
 42
0.0625
 43
0.38
 44
0.18
 45
0.0
 46
0.0
 47
0.0
 48
0.0
140
0.18
141
0.09
142
0.0
143
25.399999999999999
144
1.0
145
0.0
146
1.0
147
0.09
 71
     0
 72
     0
 73
     1
 74
     1
 75
     0
 76
     0
 77
     0
 78
     0
170
     0
171
     2
172
     0
173
     0
174
     0
175
     0
176
     0
177
     0
178
     0
  0
DIMSTYLE
  2
BYGG-025652$0$MASKIN
 70
     0
  3

  4

  5

  6

  7

 40
0.0
 41
3.0
 42
1.5
 43
10.0
 44
1.5
 45
0.0
 46
0.0
 47
0.0
 48
0.0
140
3.0
141
-5.0
142
0.0
143
25.399999999999999
144
-1.0
145
0.0
146
1.0
147
1.0
 71
     0
 72
     0
 73
     0
 74
     0
 75
     0
 76
     0
 77
     1
 78
     8
170
     0
171
     0
172
     1
173
     0
174
     0
175
     0
176
   256
177
   256
178
     2
  0
DIMSTYLE
  2
BYGG-025652$0$ANNOTATIVE
 70
     0
  3

  4

  5

  6

  7

 40
1.0
 41
0.18
 42
0.0625
 43
0.38
 44
0.18
 45
0.0
 46
0.0
 47
0.0
 48
0.0
140
0.18
141
0.09
142
0.0
143
25.399999999999999
144
1.0
145
0.0
146
1.0
147
0.09
 71
     0
 72
     0
 73
     1
 74
     1
 75
     0
 76
     0
 77
     0
 78
     0
170
     0
171
     2
172
     0
173
     0
174
     0
175
     0
176
     0
177
     0
178
     0
  0
DIMSTYLE
  2
BYGG-014411$0$MASKIN
 70
     0
  3

  4

  5

  6

  7

 40
0.0
 41
3.0
 42
1.5
 43
10.0
 44
1.5
 45
0.0
 46
0.0
 47
0.0
 48
0.0
140
3.0
141
-5.0
142
0.0
143
25.399999999999999
144
-1.0
145
0.0
146
1.0
147
1.0
 71
     0
 72
     0
 73
     0
 74
     0
 75
     0
 76
     0
 77
     1
 78
     8
170
     0
171
     0
172
     1
173
     0
174
     0
175
     0
176
   256
177
   256
178
   256
  0
DIMSTYLE
  2
BYGG-014411$0$STANDARD
 70
     0
  3

  4

  5

  6

  7

 40
1.0
 41
0.18
 42
0.0625
 43
0.38
 44
0.18
 45
0.0
 46
0.0
 47
0.0
 48
0.0
140
0.18
141
0.09
142
0.0
143
25.399999999999999
144
1.0
145
0.0
146
1.0
147
0.09
 71
     0
 72
     0
 73
     1
 74
     1
 75
     0
 76
     0
 77
     0
 78
     0
170
     0
171
     2
172
     0
173
     0
174
     0
175
     0
176
     0
177
     0
178
     0
  0
DIMSTYLE
  2
BYGG-014090$0$STANDARD
 70
     0
  3

  4

  5

  6

  7

 40
1.0
 41
0.18
 42
0.0625
 43
0.38
 44
0.18
 45
0.0
 46
0.0
 47
0.0
 48
0.0
140
0.18
141
0.09
142
0.0
143
25.399999999999999
144
1.0
145
0.0
146
1.0
147
0.09
 71
     0
 72
     0
 73
     1
 74
     1
 75
     0
 76
     0
 77
     0
 78
     0
170
     0
171
     2
172
     0
173
     0
174
     0
175
     0
176
     0
177
     0
178
     0
  0
DIMSTYLE
  2
BYGG-014088$0$STANDARD
 70
     0
  3

  4

  5

  6

  7

 40
1.0
 41
0.18
 42
0.0625
 43
0.38
 44
0.18
 45
0.0
 46
0.0
 47
0.0
 48
0.0
140
0.18
141
0.09
142
0.0
143
25.399999999999999
144
1.0
145
0.0
146
1.0
147
0.09
 71
     0
 72
     0
 73
     1
 74
     1
 75
     0
 76
     0
 77
     0
 78
     0
170
     0
171
     2
172
     0
173
     0
174
     0
175
     0
176
     0
177
     0
178
     0
  0
DIMSTYLE
  2
BYGG-036624$0$STANDARD
 70
     0
  3

  4

  5

  6

  7

 40
1.0
 41
0.18
 42
0.0625
 43
0.38
 44
0.18
 45
0.0
 46
0.0
 47
0.0
 48
0.0
140
0.18
141
0.09
142
0.0
143
25.399999999999999
144
1.0
145
0.0
146
1.0
147
0.09
 71
     0
 72
     0
 73
     1
 74
     1
 75
     0
 76
     0
 77
     0
 78
     0
170
     0
171
     2
172
     0
173
     0
174
     0
175
     0
176
     0
177
     0
178
     0
  0
DIMSTYLE
  2
BYGG-036624$0$MASKIN
 70
     0
  3

  4

  5

  6

  7

 40
0.0
 41
3.0
 42
1.5
 43
10.0
 44
1.5
 45
0.0
 46
0.0
 47
0.0
 48
0.0
140
3.0
141
-5.0
142
0.0
143
25.399999999999999
144
-1.0
145
0.0
146
1.0
147
1.0
 71
     0
 72
     0
 73
     0
 74
     0
 75
     0
 76
     0
 77
     1
 78
     8
170
     0
171
     0
172
     1
173
     0
174
     0
175
     0
176
   256
177
   256
178
     2
  0
DIMSTYLE
  2
BYGG-036419$0$STANDARD
 70
     0
  3

  4

  5

  6

  7

 40
1.0
 41
0.18
 42
0.0625
 43
0.38
 44
0.18
 45
0.0
 46
0.0
 47
0.0
 48
0.0
140
0.18
141
0.09
142
0.0
143
25.399999999999999
144
1.0
145
0.0
146
1.0
147
0.09
 71
     0
 72
     0
 73
     1
 74
     1
 75
     0
 76
     0
 77
     0
 78
     0
170
     0
171
     2
172
     0
173
     0
174
     0
175
     0
176
     0
177
     0
178
     0
  0
DIMSTYLE
  2
BYGG-036419$0$MASKIN
 70
     0
  3

  4

  5

  6

  7

 40
0.0
 41
3.0
 42
1.5
 43
10.0
 44
1.5
 45
0.0
 46
0.0
 47
0.0
 48
0.0
140
3.0
141
-5.0
142
0.0
143
25.399999999999999
144
-1.0
145
0.0
146
1.0
147
1.0
 71
     0
 72
     0
 73
     0
 74
     0
 75
     0
 76
     0
 77
     1
 78
     8
170
     0
171
     0
172
     1
173
     0
174
     0
175
     0
176
   256
177
   256
178
     2
  0
DIMSTYLE
  2
BYGG-036419$0$BYGG-024778$
 70
     0
  3

  4

  5

  6

  7

 40
0.0
 41
3.0
 42
1.5
 43
10.0
 44
1.5
 45
0.0
 46
0.0
 47
0.0
 48
0.0
140
3.0
141
-5.0
142
0.0
143
25.399999999999999
144
-1.0
145
0.0
146
1.0
147
1.0
 71
     0
 72
     0
 73
     0
 74
     0
 75
     0
 76
     0
 77
     1
 78
     8
170
     0
171
     0
172
     1
173
     0
174
     0
175
     0
176
   256
177
   256
178
     2
  0
DIMSTYLE
  2
BYGG-036419$0$BYGG-035431$
 70
     0
  3

  4

  5

  6

  7

 40
0.0
 41
3.0
 42
1.5
 43
10.0
 44
1.5
 45
0.0
 46
0.0
 47
0.0
 48
0.0
140
3.0
141
-5.0
142
0.0
143
25.399999999999999
144
-1.0
145
0.0
146
1.0
147
1.0
 71
     0
 72
     0
 73
     0
 74
     0
 75
     0
 76
     0
 77
     1
 78
     8
170
     0
171
     0
172
     1
173
     0
174
     0
175
     0
176
   256
177
   256
178
     2
  0
DIMSTYLE
  2
BYGG-036419$0$BYGG-035435$
 70
     0
  3

  4

  5

  6

  7

 40
0.0
 41
3.0
 42
1.5
 43
10.0
 44
1.5
 45
0.0
 46
0.0
 47
0.0
 48
0.0
140
3.0
141
-5.0
142
0.0
143
25.399999999999999
144
-1.0
145
0.0
146
1.0
147
1.0
 71
     0
 72
     0
 73
     0
 74
     0
 75
     0
 76
     0
 77
     1
 78
     8
170
     0
171
     0
172
     1
173
     0
174
     0
175
     0
176
   256
177
   256
178
     2
  0
DIMSTYLE
  2
BYGG-036419$0$BYGG-014411$
 70
     0
  3

  4

  5

  6

  7

 40
0.0
 41
3.0
 42
1.5
 43
10.0
 44
1.5
 45
0.0
 46
0.0
 47
0.0
 48
0.0
140
3.0
141
-5.0
142
0.0
143
25.399999999999999
144
-1.0
145
0.0
146
1.0
147
1.0
 71
     0
 72
     0
 73
     0
 74
     0
 75
     0
 76
     0
 77
     1
 78
     8
170
     0
171
     0
172
     1
173
     0
174
     0
175
     0
176
   256
177
   256
178
   256
  0
DIMSTYLE
  2
BYGG-036419$0$BYGG-024787$
 70
     0
  3

  4

  5

  6

  7

 40
0.0
 41
3.0
 42
1.5
 43
10.0
 44
1.5
 45
0.0
 46
0.0
 47
0.0
 48
0.0
140
3.0
141
-5.0
142
0.0
143
25.399999999999999
144
-1.0
145
0.0
146
1.0
147
1.0
 71
     0
 72
     0
 73
     0
 74
     0
 75
     0
 76
     0
 77
     1
 78
     8
170
     0
171
     0
172
     1
173
     0
174
     0
175
     0
176
   256
177
   256
178
     2
  0
DIMSTYLE
  2
BYGG-036419$0$BYGG-024788$
 70
     0
  3

  4

  5

  6

  7

 40
0.0
 41
3.0
 42
1.5
 43
10.0
 44
1.5
 45
0.0
 46
0.0
 47
0.0
 48
0.0
140
3.0
141
-5.0
142
0.0
143
25.399999999999999
144
-1.0
145
0.0
146
1.0
147
1.0
 71
     0
 72
     0
 73
     0
 74
     0
 75
     0
 76
     0
 77
     1
 78
     8
170
     0
171
     0
172
     1
173
     0
174
     0
175
     0
176
   256
177
   256
178
     2
  0
DIMSTYLE
  2
BYGG-036419$0$BYGG-024789$
 70
     0
  3

  4

  5

  6

  7

 40
0.0
 41
3.0
 42
1.5
 43
10.0
 44
1.5
 45
0.0
 46
0.0
 47
0.0
 48
0.0
140
3.0
141
-5.0
142
0.0
143
25.399999999999999
144
-1.0
145
0.0
146
1.0
147
1.0
 71
     0
 72
     0
 73
     0
 74
     0
 75
     0
 76
     0
 77
     1
 78
     8
170
     0
171
     0
172
     1
173
     0
174
     0
175
     0
176
   256
177
   256
178
     2
  0
DIMSTYLE
  2
BYGG-036419$0$BYGG-024817$
 70
     0
  3

  4

  5

  6

  7

 40
0.0
 41
3.0
 42
1.5
 43
10.0
 44
1.5
 45
0.0
 46
0.0
 47
0.0
 48
0.0
140
3.0
141
-5.0
142
0.0
143
25.399999999999999
144
-1.0
145
0.0
146
1.0
147
1.0
 71
     0
 72
     0
 73
     0
 74
     0
 75
     0
 76
     0
 77
     1
 78
     8
170
     0
171
     0
172
     1
173
     0
174
     0
175
     0
176
   256
177
   256
178
     2
  0
DIMSTYLE
  2
BYGG-036419$0$BYGG-024794$
 70
     0
  3

  4

  5

  6

  7

 40
0.0
 41
3.0
 42
1.5
 43
10.0
 44
1.5
 45
0.0
 46
0.0
 47
0.0
 48
0.0
140
3.0
141
-5.0
142
0.0
143
25.399999999999999
144
-1.0
145
0.0
146
1.0
147
1.0
 71
     0
 72
     0
 73
     0
 74
     0
 75
     0
 76
     0
 77
     1
 78
     8
170
     0
171
     0
172
     1
173
     0
174
     0
175
     0
176
   256
177
   256
178
     2
  0
DIMSTYLE
  2
BYGG-024756$0$MASKIN
 70
     0
  3

  4

  5

  6

  7

 40
0.0
 41
3.0
 42
1.5
 43
10.0
 44
1.5
 45
0.0
 46
0.0
 47
0.0
 48
0.0
140
3.0
141
-5.0
142
0.0
143
25.399999999999999
144
-1.0
145
0.0
146
1.0
147
1.0
 71
     0
 72
     0
 73
     0
 74
     0
 75
     0
 76
     0
 77
     1
 78
     8
170
     0
171
     0
172
     1
173
     0
174
     0
175
     0
176
   256
177
   256
178
     2
  0
DIMSTYLE
  2
BYGG-024756$0$STANDARD
 70
     0
  3

  4

  5

  6

  7

 40
1.0
 41
0.18
 42
0.0625
 43
0.38
 44
0.18
 45
0.0
 46
0.0
 47
0.0
 48
0.0
140
0.18
141
0.09
142
0.0
143
25.399999999999999
144
1.0
145
0.0
146
1.0
147
0.09
 71
     0
 72
     0
 73
     1
 74
     1
 75
     0
 76
     0
 77
     0
 78
     0
170
     0
171
     2
172
     0
173
     0
174
     0
175
     0
176
     0
177
     0
178
     0
  0
DIMSTYLE
  2
BYGG-033167$0$STANDARD
 70
     0
  3

  4

  5

  6

  7

 40
1.0
 41
0.18
 42
0.0625
 43
0.38
 44
0.18
 45
0.0
 46
0.0
 47
0.0
 48
0.0
140
0.18
141
0.09
142
0.0
143
25.399999999999999
144
1.0
145
0.0
146
1.0
147
0.09
 71
     0
 72
     0
 73
     1
 74
     1
 75
     0
 76
     0
 77
     0
 78
     0
170
     0
171
     2
172
     0
173
     0
174
     0
175
     0
176
     0
177
     0
178
     0
  0
DIMSTYLE
  2
BYGG-033167$0$MASKIN
 70
     0
  3

  4

  5

  6

  7

 40
0.0
 41
3.0
 42
1.5
 43
10.0
 44
1.5
 45
0.0
 46
0.0
 47
0.0
 48
0.0
140
3.0
141
-5.0
142
0.0
143
25.399999999999999
144
-1.0
145
0.0
146
1.0
147
1.0
 71
     0
 72
     0
 73
     0
 74
     0
 75
     0
 76
     0
 77
     1
 78
     8
170
     0
171
     0
172
     1
173
     0
174
     0
175
     0
176
   256
177
   256
178
     2
  0
DIMSTYLE
  2
BYGG-033167$0$BYGG-020132$
 70
     0
  3

  4

  5

  6

  7

 40
0.0
 41
3.0
 42
1.5
 43
10.0
 44
1.5
 45
0.0
 46
0.0
 47
0.0
 48
0.0
140
3.0
141
-5.0
142
0.0
143
25.399999999999999
144
-1.0
145
0.0
146
1.0
147
1.0
 71
     0
 72
     0
 73
     0
 74
     0
 75
     0
 76
     0
 77
     1
 78
     8
170
     0
171
     0
172
     1
173
     0
174
     0
175
     0
176
   256
177
   256
178
     2
  0
DIMSTYLE
  2
BYGG-033167$0$BYGG-024943$
 70
     0
  3

  4

  5

  6

  7

 40
0.0
 41
3.0
 42
1.5
 43
10.0
 44
1.5
 45
0.0
 46
0.0
 47
0.0
 48
0.0
140
3.0
141
-5.0
142
0.0
143
25.399999999999999
144
-1.0
145
0.0
146
1.0
147
1.0
 71
     0
 72
     0
 73
     0
 74
     0
 75
     0
 76
     0
 77
     1
 78
     8
170
     0
171
     0
172
     1
173
     0
174
     0
175
     0
176
   256
177
   256
178
     2
  0
DIMSTYLE
  2
BYGG-026410$0$STANDARD
 70
     0
  3

  4

  5

  6

  7

 40
1.0
 41
0.18
 42
0.0625
 43
0.38
 44
0.18
 45
0.0
 46
0.0
 47
0.0
 48
0.0
140
0.18
141
0.09
142
0.0
143
25.399999999999999
144
1.0
145
0.0
146
1.0
147
0.09
 71
     0
 72
     0
 73
     1
 74
     1
 75
     0
 76
     0
 77
     0
 78
     0
170
     0
171
     2
172
     0
173
     0
174
     0
175
     0
176
     0
177
     0
178
     0
  0
DIMSTYLE
  2
BYGG-026410$0$MASKIN
 70
     0
  3

  4

  5

  6

  7

 40
0.0
 41
3.0
 42
1.5
 43
10.0
 44
1.5
 45
0.0
 46
0.0
 47
0.0
 48
0.0
140
3.0
141
-5.0
142
0.0
143
25.399999999999999
144
-1.0
145
0.0
146
1.0
147
1.0
 71
     0
 72
     0
 73
     0
 74
     0
 75
     0
 76
     0
 77
     1
 78
     8
170
     0
171
     0
172
     1
173
     0
174
     0
175
     0
176
   256
177
   256
178
     2
  0
DIMSTYLE
  2
BYGG-035883$0$STANDARD
 70
     0
  3

  4

  5

  6

  7

 40
1.0
 41
0.18
 42
0.0625
 43
0.38
 44
0.18
 45
0.0
 46
0.0
 47
0.0
 48
0.0
140
0.18
141
0.09
142
0.0
143
25.399999999999999
144
1.0
145
0.0
146
1.0
147
0.09
 71
     0
 72
     0
 73
     1
 74
     1
 75
     0
 76
     0
 77
     0
 78
     0
170
     0
171
     2
172
     0
173
     0
174
     0
175
     0
176
     0
177
     0
178
     0
  0
ENDTAB
  0
ENDSEC
  0
SECTION
  2
BLOCKS
  0
BLOCK
  8
0
  2
$MODEL_SPACE
 70
     0
 10
0.0
 20
0.0
 30
0.0
  3
$MODEL_SPACE
  1

  0
ENDBLK
  5
37
  8
0
  0
BLOCK
 67
     1
  8
0
  2
$PAPER_SPACE
 70
     0
 10
0.0
 20
0.0
 30
0.0
  3
$PAPER_SPACE
  1

  0
ENDBLK
  5
35
 67
     1
  8
0
  0
BLOCK
  8
0
  2
*D176
 70
     1
 10
0.0
 20
0.0
 30
0.0
  3
*D176
  1

  0
LINE
  5
194E
  8
SAPA_MATT
 10
-107.4999999990104
 20
24.99999999999968
 30
0.0
 11
-127.15375231270581
 21
24.99999999999968
 31
0.0
  0
LINE
  5
194F
  8
SAPA_MATT
 10
-107.4999999990104
 20
-25.00000000000032
 30
0.0
 11
-127.15375231270581
 21
-25.00000000000032
 31
0.0
  0
LINE
  5
1950
  8
SAPA_MATT
 10
-125.65375231270581
 20
21.99999999999968
 30
0.0
 11
-125.65375231270581
 21
-22.00000000000032
 31
0.0
  0
SOLID
  5
1951
  8
SAPA_MATT
 10
-126.15375231270581
 20
21.99999999999968
 30
0.0
 11
-125.15375231270581
 21
21.99999999999968
 31
0.0
 12
-125.65375231270581
 22
24.99999999999968
 32
0.0
 13
-125.65375231270581
 23
24.99999999999968
 33
0.0
  0
SOLID
  5
1952
  8
SAPA_MATT
 10
-126.15375231270581
 20
-22.00000000000032
 30
0.0
 11
-125.15375231270581
 21
-22.00000000000032
 31
0.0
 12
-125.65375231270581
 22
-25.00000000000032
 32
0.0
 13
-125.65375231270581
 23
-25.00000000000032
 33
0.0
  0
INSERT
  5
1953
  8
0
  2
*U190
 10
0.0
 20
0.0
 30
0.0
  0
POINT
  5
1954
  8
DEFPOINTS
 62
     0
 10
-105.9999999990104
 20
24.99999999999968
 30
0.0
  0
POINT
  5
1955
  8
DEFPOINTS
 62
     0
 10
-105.9999999990104
 20
-25.00000000000032
 30
0.0
  0
POINT
  5
1956
  8
DEFPOINTS
 62
     0
 10
-125.65375231270581
 20
-25.00000000000032
 30
0.0
  0
ENDBLK
  5
1901
  8
0
  0
BLOCK
  8
0
  2
*D177
 70
     1
 10
0.0
 20
0.0
 30
0.0
  3
*D177
  1

  0
LINE
  5
2B3E
  8
SAPA_MATT
 10
-107.4999999990104
 20
-25.000000000000341
 30
0.0
 11
-127.15375231270581
 21
-25.000000000000341
 31
0.0
  0
LINE
  5
2B3F
  8
SAPA_MATT
 10
-83.498715294908123
 20
-75.499999999900012
 30
0.0
 11
-127.15375231270581
 21
-75.499999999899984
 31
0.0
  0
LINE
  5
2B40
  8
SAPA_MATT
 10
-125.65375231270581
 20
-28.000000000000341
 30
0.0
 11
-125.65375231270581
 21
-72.499999999899984
 31
0.0
  0
SOLID
  5
2B41
  8
SAPA_MATT
 10
-126.15375231270581
 20
-28.000000000000341
 30
0.0
 11
-125.15375231270581
 21
-28.000000000000341
 31
0.0
 12
-125.65375231270581
 22
-25.000000000000341
 32
0.0
 13
-125.65375231270581
 23
-25.000000000000341
 33
0.0
  0
SOLID
  5
2B42
  8
SAPA_MATT
 10
-126.15375231270581
 20
-72.499999999899984
 30
0.0
 11
-125.15375231270581
 21
-72.499999999899984
 31
0.0
 12
-125.65375231270581
 22
-75.499999999899984
 32
0.0
 13
-125.65375231270581
 23
-75.499999999899984
 33
0.0
  0
TEXT
  8
SAPA_MATT
  40
3
  5
2B4B
  62
2
  72
0
  71
0
 10
-134.154
 20
-55.5600
 30
0.000000
  1
50.5
  7
ISO
  0
POINT
  5
2B44
  8
DEFPOINTS
 62
     0
 10
-105.9999999990104
 20
-25.000000000000341
 30
0.0
  0
POINT
  5
2B45
  8
DEFPOINTS
 62
     0
 10
-81.998715294908109
 20
-75.499999999900012
 30
0.0
  0
POINT
  5
2B46
  8
DEFPOINTS
 62
     0
 10
-125.65375231270581
 20
-75.499999999899984
 30
0.0
  0
ENDBLK
  5
190D
  8
0
  0
BLOCK
  8
0
  2
*D178
 70
     1
 10
0.0
 20
0.0
 30
0.0
  3
*D178
  1

  0
LINE
  5
2B33
  8
SAPA_MATT
 10
-83.498715167729216
 20
-75.500000299843464
 30
0.0
 11
-127.15246760755331
 21
-75.50000029984345
 31
0.0
  0
LINE
  5
2B34
  8
SAPA_MATT
 10
-83.498715651403174
 20
-80.50000029994942
 30
0.0
 11
-127.15246760755331
 21
-80.500000299949406
 31
0.0
  0
LINE
  5
2B35
  8
SAPA_MATT
 10
-125.65246760755331
 20
-72.50000029984345
 30
0.0
 11
-125.65246760755331
 21
-69.500000299843435
 31
0.0
  0
LINE
  5
2B36
  8
SAPA_MATT
 10
-125.65246760755331
 20
-83.500000299949406
 30
0.0
 11
-125.65246760755331
 21
-86.500000299949406
 31
0.0
  0
LINE
  5
2B37
  8
SAPA_MATT
 10
-125.65246760755331
 20
-75.50000029984345
 30
0.0
 11
-125.65246760755331
 21
-80.500000299949406
 31
0.0
  0
SOLID
  5
2B38
  8
SAPA_MATT
 10
-126.15246760755331
 20
-72.50000029984345
 30
0.0
 11
-125.15246760755331
 21
-72.50000029984345
 31
0.0
 12
-125.65246760755331
 22
-75.50000029984345
 32
0.0
 13
-125.65246760755331
 23
-75.50000029984345
 33
0.0
  0
SOLID
  5
2B39
  8
SAPA_MATT
 10
-126.15246760755331
 20
-83.500000299949406
 30
0.0
 11
-125.15246760755331
 21
-83.500000299949406
 31
0.0
 12
-125.65246760755331
 22
-80.500000299949406
 32
0.0
 13
-125.65246760755331
 23
-80.500000299949406
 33
0.0
  0
TEXT
  8
SAPA_MATT
  40
3
  5
2B4C
  62
2
  72
0
  71
0
 10
-134.152
 20
-83.3100
 30
0.000000
  1
5
  7
ISO
  0
POINT
  5
2B3B
  8
DEFPOINTS
 62
     0
 10
-81.998715167729216
 20
-75.500000299843464
 30
0.0
  0
POINT
  5
2B3C
  8
DEFPOINTS
 62
     0
 10
-81.998715651403174
 20
-80.50000029994942
 30
0.0
  0
POINT
  5
2B3D
  8
DEFPOINTS
 62
     0
 10
-125.65246760755331
 20
-80.500000299949406
 30
0.0
  0
ENDBLK
  5
1919
  8
0
  0
BLOCK
  8
0
  2
*D179
 70
     1
 10
0.0
 20
0.0
 30
0.0
  3
*D179
  1

  0
LINE
  5
2B2A
  8
SAPA_MATT
 10
-83.498715298616162
 20
-80.500000002078366
 30
0.0
 11
-127.15246760755331
 21
-80.500000002078366
 31
0.0
  0
LINE
  5
2B2B
  8
SAPA_MATT
 10
-83.49871529861619
 20
-118.00000000207829
 30
0.0
 11
-127.15246760755331
 21
-118.00000000207829
 31
0.0
  0
LINE
  5
2B2C
  8
SAPA_MATT
 10
-125.65246760755331
 20
-83.500000002078352
 30
0.0
 11
-125.65246760755331
 21
-115.00000000207829
 31
0.0
  0
SOLID
  5
2B2D
  8
SAPA_MATT
 10
-126.15246760755331
 20
-83.500000002078352
 30
0.0
 11
-125.15246760755331
 21
-83.500000002078352
 31
0.0
 12
-125.65246760755331
 22
-80.500000002078366
 32
0.0
 13
-125.65246760755331
 23
-80.500000002078366
 33
0.0
  0
SOLID
  5
2B2E
  8
SAPA_MATT
 10
-126.15246760755331
 20
-115.00000000207829
 30
0.0
 11
-125.15246760755331
 21
-115.00000000207829
 31
0.0
 12
-125.65246760755331
 22
-118.00000000207829
 32
0.0
 13
-125.65246760755331
 23
-118.00000000207829
 33
0.0
  0
TEXT
  8
SAPA_MATT
  40
3
  5
2B4D
  62
2
  72
0
  71
0
 10
-134.152
 20
-104.560
 30
0.000000
  1
37.5
  7
ISO
  0
POINT
  5
2B30
  8
DEFPOINTS
 62
     0
 10
-81.998715298616148
 20
-80.500000002078366
 30
0.0
  0
POINT
  5
2B31
  8
DEFPOINTS
 62
     0
 10
-81.99871529861619
 20
-118.00000000207829
 30
0.0
  0
POINT
  5
2B32
  8
DEFPOINTS
 62
     0
 10
-125.65246760755331
 20
-118.00000000207829
 30
0.0
  0
ENDBLK
  5
1927
  8
0
  0
BLOCK
  8
0
  2
*U180
 70
     1
 10
0.0
 20
0.0
 30
0.0
  3
*U180
  1

  0
TEXT
  5
19B9
  8
SAPA_ARTIKELNR
 10
69.275152664003386
 20
-5.9587757026027566
 30
0.0
 40
3.5
  1
68654
 50
89.999999999999986
  7
ISO
  0
ENDBLK
  5
19BB
  8
0
  0
BLOCK
  8
0
  2
*U181
 70
     1
 10
0.0
 20
0.0
 30
0.0
  3
*U181
  1

  0
TEXT
  5
19BD
  8
SAPA_ARTIKELNR
 10
-99.921927123042451
 20
-6.5890640472481401
 30
0.0
 40
3.5
  1
42657
 50
89.999999999999986
  7
ISO
  0
ENDBLK
  5
19BF
  8
0
  0
BLOCK
  8
0
  2
*U182
 70
     1
 10
0.0
 20
0.0
 30
0.0
  3
*U182
  1

  0
TEXT
  5
19C1
  8
SAPA_ARTIKELNR
 10
-109.244870878372
 20
-6.8003290219345409
 30
0.0
 40
3.5
  1
42227
 50
89.999999999999986
  7
ISO
  0
ENDBLK
  5
19C3
  8
0
  0
BLOCK
  8
0
  2
*U183
 70
     1
 10
0.0
 20
0.0
 30
0.0
  3
*U183
  1

  0
TEXT
  5
1A23
  8
SAPA_ARTIKELNR
 10
8.7376763184233255
 20
-44.931267498536961
 30
0.0
 40
3.5
  1
86204
 50
89.999999999999986
  7
ISO
  0
ENDBLK
  5
1A25
  8
0
  0
BLOCK
  8
0
  2
*U184
 70
     1
 10
0.0
 20
0.0
 30
0.0
  3
*U184
  1

  0
TEXT
  5
1A27
  8
SAPA_ARTIKELNR
 10
18.805396466672669
 20
-80.226562916115853
 30
0.0
 40
3.5
  1
86302
 50
89.999999999999986
  7
ISO
  0
ENDBLK
  5
1A29
  8
0
  0
BLOCK
  8
0
  2
*U185
 70
     1
 10
0.0
 20
0.0
 30
0.0
  3
*U185
  1

  0
TEXT
  5
1A2B
  8
SAPA_ARTIKELNR
 10
7.0219693065158992
 20
-111.4324164643339
 30
0.0
 40
3.5
  1
42728
 50
89.999999999999986
  7
ISO
  0
ENDBLK
  5
1A2D
  8
0
  0
BLOCK
  8
0
  2
*U186
 70
     1
 10
0.0
 20
0.0
 30
0.0
  3
*U186
  1

  0
SOLID
  5
27EF
  8
SAPA_FOGBAND
  6
CONTINUOUS
 10
-84.637568219766536
 20
-18.361894220892069
 30
0.0
 11
-84.817845783539724
 21
-18.436567632798521
 31
0.0
 12
-84.457290655993333
 22
-18.436567632798521
 32
0.0
 13
-84.457290655993333
 23
-18.436567632798521
 33
0.0
210
0.0
220
0.0
230
1.0
  0
SOLID
  5
27F0
  8
SAPA_FOGBAND
  6
CONTINUOUS
 10
-84.817845783539724
 20
-18.436567632798521
 30
0.0
 11
-84.89251919544617
 21
-18.61684519657172
 31
0.0
 12
-84.382617244086902
 22
-18.61684519657172
 32
0.0
 13
-84.382617244086902
 23
-18.61684519657172
 33
0.0
210
0.0
220
0.0
230
1.0
  0
SOLID
  5
27F1
  8
SAPA_FOGBAND
  6
CONTINUOUS
 10
84.817845783539724
 20
-18.436567632798521
 30
0.0
 11
84.457290655993333
 21
-18.436567632798521
 31
0.0
 12
84.382617244086902
 22
-18.61684519657172
 32
0.0
 13
84.382617244086902
 23
-18.61684519657172
 33
0.0
210
0.0
220
0.0
230
-1.0
  0
SOLID
  5
27F2
  8
SAPA_FOGBAND
  6
CONTINUOUS
 10
84.817845783539724
 20
-18.797122760344909
 30
0.0
 11
84.457290655993333
 21
-18.797122760344909
 31
0.0
 12
84.637568219766536
 22
-18.871796172251361
 32
0.0
 13
84.637568219766536
 23
-18.871796172251361
 33
0.0
210
0.0
220
0.0
230
-1.0
  0
SOLID
  5
27F3
  8
SAPA_FOGBAND
  6
CONTINUOUS
 10
-84.89251919544617
 20
-18.61684519657172
 30
0.0
 11
-84.817845783539724
 21
-18.797122760344909
 31
0.0
 12
-84.457290655993333
 22
-18.797122760344909
 32
0.0
 13
-84.457290655993333
 23
-18.797122760344909
 33
0.0
210
0.0
220
0.0
230
1.0
  0
SOLID
  5
27F4
  8
SAPA_FOGBAND
  6
CONTINUOUS
 10
84.89251919544617
 20
-18.61684519657172
 30
0.0
 11
84.382617244086902
 21
-18.61684519657172
 31
0.0
 12
84.457290655993333
 22
-18.797122760344909
 32
0.0
 13
84.457290655993333
 23
-18.797122760344909
 33
0.0
210
0.0
220
0.0
230
-1.0
  0
LINE
  5
27F5
  8
SAPA_FOGBAND
  6
CONTINUOUS
 10
-84.637568219766536
 20
-18.361894220892069
 30
0.0
 11
-84.817845783539724
 21
-18.436567632798521
 31
0.0
  0
LINE
  5
27F6
  8
SAPA_FOGBAND
  6
CONTINUOUS
 10
-84.457290655993333
 20
-18.436567632798521
 30
0.0
 11
-84.637568219766536
 21
-18.361894220892069
 31
0.0
  0
LINE
  5
27F7
  8
SAPA_FOGBAND
  6
CONTINUOUS
 10
-84.817845783539724
 20
-18.436567632798521
 30
0.0
 11
-84.89251919544617
 21
-18.61684519657172
 31
0.0
  0
LINE
  5
27F8
  8
SAPA_FOGBAND
  6
CONTINUOUS
 10
-84.457290655993333
 20
-18.436567632798521
 30
0.0
 11
-84.382617244086902
 21
-18.61684519657172
 31
0.0
  0
LINE
  5
27F9
  8
SAPA_FOGBAND
  6
CONTINUOUS
 10
-84.457290655993333
 20
-18.797122760344909
 30
0.0
 11
-84.637568219766536
 21
-18.871796172251361
 31
0.0
  0
LINE
  5
27FA
  8
SAPA_FOGBAND
  6
CONTINUOUS
 10
-84.637568219766536
 20
-18.871796172251361
 30
0.0
 11
-84.817845783539724
 21
-18.797122760344909
 31
0.0
  0
LINE
  5
27FB
  8
SAPA_FOGBAND
  6
CONTINUOUS
 10
-84.89251919544617
 20
-18.61684519657172
 30
0.0
 11
-84.817845783539724
 21
-18.797122760344909
 31
0.0
  0
LINE
  5
27FC
  8
SAPA_FOGBAND
  6
CONTINUOUS
 10
-84.382617244086902
 20
-18.61684519657172
 30
0.0
 11
-84.457290655993333
 21
-18.797122760344909
 31
0.0
  0
ENDBLK
  5
27FE
  8
0
  0
BLOCK
  8
0
  2
*U187
 70
     1
 10
0.0
 20
0.0
 30
0.0
  3
*U187
  1

  0
SOLID
  5
2911
  8
SAPA_FOGBAND
  6
CONTINUOUS
 10
-84.641571726353391
 20
18.934307771280011
 30
0.0
 11
-84.821849290126579
 21
18.859634359373569
 31
0.0
 12
-84.461294162580188
 22
18.859634359373569
 32
0.0
 13
-84.461294162580188
 23
18.859634359373569
 33
0.0
210
0.0
220
0.0
230
1.0
  0
SOLID
  5
2912
  8
SAPA_FOGBAND
  6
CONTINUOUS
 10
-84.821849290126579
 20
18.859634359373569
 30
0.0
 11
-84.896522702033025
 21
18.67935679560037
 31
0.0
 12
-84.386620750673757
 22
18.67935679560037
 32
0.0
 13
-84.386620750673757
 23
18.67935679560037
 33
0.0
210
0.0
220
0.0
230
1.0
  0
SOLID
  5
2913
  8
SAPA_FOGBAND
  6
CONTINUOUS
 10
84.821849290126579
 20
18.859634359373569
 30
0.0
 11
84.461294162580188
 21
18.859634359373569
 31
0.0
 12
84.386620750673757
 22
18.67935679560037
 32
0.0
 13
84.386620750673757
 23
18.67935679560037
 33
0.0
210
0.0
220
0.0
230
-1.0
  0
SOLID
  5
2914
  8
SAPA_FOGBAND
  6
CONTINUOUS
 10
84.821849290126579
 20
18.499079231827171
 30
0.0
 11
84.461294162580188
 21
18.499079231827171
 31
0.0
 12
84.641571726353391
 22
18.424405819920729
 32
0.0
 13
84.641571726353391
 23
18.424405819920729
 33
0.0
210
0.0
220
0.0
230
-1.0
  0
SOLID
  5
2915
  8
SAPA_FOGBAND
  6
CONTINUOUS
 10
-84.896522702033025
 20
18.67935679560037
 30
0.0
 11
-84.821849290126579
 21
18.499079231827171
 31
0.0
 12
-84.461294162580188
 22
18.499079231827171
 32
0.0
 13
-84.461294162580188
 23
18.499079231827171
 33
0.0
210
0.0
220
0.0
230
1.0
  0
SOLID
  5
2916
  8
SAPA_FOGBAND
  6
CONTINUOUS
 10
84.896522702033025
 20
18.67935679560037
 30
0.0
 11
84.386620750673757
 21
18.67935679560037
 31
0.0
 12
84.461294162580188
 22
18.499079231827171
 32
0.0
 13
84.461294162580188
 23
18.499079231827171
 33
0.0
210
0.0
220
0.0
230
-1.0
  0
LINE
  5
2917
  8
SAPA_FOGBAND
  6
CONTINUOUS
 10
-84.641571726353391
 20
18.934307771280011
 30
0.0
 11
-84.821849290126579
 21
18.859634359373569
 31
0.0
  0
LINE
  5
2918
  8
SAPA_FOGBAND
  6
CONTINUOUS
 10
-84.461294162580188
 20
18.859634359373569
 30
0.0
 11
-84.641571726353391
 21
18.934307771280011
 31
0.0
  0
LINE
  5
2919
  8
SAPA_FOGBAND
  6
CONTINUOUS
 10
-84.821849290126579
 20
18.859634359373569
 30
0.0
 11
-84.896522702033025
 21
18.67935679560037
 31
0.0
  0
LINE
  5
291A
  8
SAPA_FOGBAND
  6
CONTINUOUS
 10
-84.461294162580188
 20
18.859634359373569
 30
0.0
 11
-84.386620750673757
 21
18.67935679560037
 31
0.0
  0
LINE
  5
291B
  8
SAPA_FOGBAND
  6
CONTINUOUS
 10
-84.461294162580188
 20
18.499079231827171
 30
0.0
 11
-84.641571726353391
 21
18.424405819920729
 31
0.0
  0
LINE
  5
291C
  8
SAPA_FOGBAND
  6
CONTINUOUS
 10
-84.641571726353391
 20
18.424405819920729
 30
0.0
 11
-84.821849290126579
 21
18.499079231827171
 31
0.0
  0
LINE
  5
291D
  8
SAPA_FOGBAND
  6
CONTINUOUS
 10
-84.896522702033025
 20
18.67935679560037
 30
0.0
 11
-84.821849290126579
 21
18.499079231827171
 31
0.0
  0
LINE
  5
291E
  8
SAPA_FOGBAND
  6
CONTINUOUS
 10
-84.386620750673757
 20
18.67935679560037
 30
0.0
 11
-84.461294162580188
 21
18.499079231827171
 31
0.0
  0
ENDBLK
  5
2920
  8
0
  0
BLOCK
  8
0
  2
*U188
 70
     1
 10
0.0
 20
0.0
 30
0.0
  3
*U188
  1

  0
SOLID
  5
298D
  8
SAPA_FOGBAND
  6
CONTINUOUS
 10
-84.637568219766536
 20
-18.361894220892069
 30
0.0
 11
-84.817845783539724
 21
-18.436567632798521
 31
0.0
 12
-84.457290655993333
 22
-18.436567632798521
 32
0.0
 13
-84.457290655993333
 23
-18.436567632798521
 33
0.0
210
0.0
220
0.0
230
1.0
  0
SOLID
  5
298E
  8
SAPA_FOGBAND
  6
CONTINUOUS
 10
-84.817845783539724
 20
-18.436567632798521
 30
0.0
 11
-84.89251919544617
 21
-18.61684519657172
 31
0.0
 12
-84.382617244086902
 22
-18.61684519657172
 32
0.0
 13
-84.382617244086902
 23
-18.61684519657172
 33
0.0
210
0.0
220
0.0
230
1.0
  0
SOLID
  5
298F
  8
SAPA_FOGBAND
  6
CONTINUOUS
 10
84.817845783539724
 20
-18.436567632798521
 30
0.0
 11
84.457290655993333
 21
-18.436567632798521
 31
0.0
 12
84.382617244086902
 22
-18.61684519657172
 32
0.0
 13
84.382617244086902
 23
-18.61684519657172
 33
0.0
210
0.0
220
0.0
230
-1.0
  0
SOLID
  5
2990
  8
SAPA_FOGBAND
  6
CONTINUOUS
 10
84.817845783539724
 20
-18.797122760344909
 30
0.0
 11
84.457290655993333
 21
-18.797122760344909
 31
0.0
 12
84.637568219766536
 22
-18.871796172251361
 32
0.0
 13
84.637568219766536
 23
-18.871796172251361
 33
0.0
210
0.0
220
0.0
230
-1.0
  0
SOLID
  5
2991
  8
SAPA_FOGBAND
  6
CONTINUOUS
 10
-84.89251919544617
 20
-18.61684519657172
 30
0.0
 11
-84.817845783539724
 21
-18.797122760344909
 31
0.0
 12
-84.457290655993333
 22
-18.797122760344909
 32
0.0
 13
-84.457290655993333
 23
-18.797122760344909
 33
0.0
210
0.0
220
0.0
230
1.0
  0
SOLID
  5
2992
  8
SAPA_FOGBAND
  6
CONTINUOUS
 10
84.89251919544617
 20
-18.61684519657172
 30
0.0
 11
84.382617244086902
 21
-18.61684519657172
 31
0.0
 12
84.457290655993333
 22
-18.797122760344909
 32
0.0
 13
84.457290655993333
 23
-18.797122760344909
 33
0.0
210
0.0
220
0.0
230
-1.0
  0
LINE
  5
2993
  8
SAPA_FOGBAND
  6
CONTINUOUS
 10
-84.637568219766536
 20
-18.361894220892069
 30
0.0
 11
-84.817845783539724
 21
-18.436567632798521
 31
0.0
  0
LINE
  5
2994
  8
SAPA_FOGBAND
  6
CONTINUOUS
 10
-84.457290655993333
 20
-18.436567632798521
 30
0.0
 11
-84.637568219766536
 21
-18.361894220892069
 31
0.0
  0
LINE
  5
2995
  8
SAPA_FOGBAND
  6
CONTINUOUS
 10
-84.817845783539724
 20
-18.436567632798521
 30
0.0
 11
-84.89251919544617
 21
-18.61684519657172
 31
0.0
  0
LINE
  5
2996
  8
SAPA_FOGBAND
  6
CONTINUOUS
 10
-84.457290655993333
 20
-18.436567632798521
 30
0.0
 11
-84.382617244086902
 21
-18.61684519657172
 31
0.0
  0
LINE
  5
2997
  8
SAPA_FOGBAND
  6
CONTINUOUS
 10
-84.457290655993333
 20
-18.797122760344909
 30
0.0
 11
-84.637568219766536
 21
-18.871796172251361
 31
0.0
  0
LINE
  5
2998
  8
SAPA_FOGBAND
  6
CONTINUOUS
 10
-84.637568219766536
 20
-18.871796172251361
 30
0.0
 11
-84.817845783539724
 21
-18.797122760344909
 31
0.0
  0
LINE
  5
2999
  8
SAPA_FOGBAND
  6
CONTINUOUS
 10
-84.89251919544617
 20
-18.61684519657172
 30
0.0
 11
-84.817845783539724
 21
-18.797122760344909
 31
0.0
  0
LINE
  5
299A
  8
SAPA_FOGBAND
  6
CONTINUOUS
 10
-84.382617244086902
 20
-18.61684519657172
 30
0.0
 11
-84.457290655993333
 21
-18.797122760344909
 31
0.0
  0
ENDBLK
  5
299C
  8
0
  0
BLOCK
  8
0
  2
*U189
 70
     1
 10
0.0
 20
0.0
 30
0.0
  3
*U189
  1

  0
SOLID
  5
2AAF
  8
SAPA_FOGBAND
  6
CONTINUOUS
 10
-84.641571726353391
 20
18.934307771280011
 30
0.0
 11
-84.821849290126579
 21
18.859634359373569
 31
0.0
 12
-84.461294162580188
 22
18.859634359373569
 32
0.0
 13
-84.461294162580188
 23
18.859634359373569
 33
0.0
210
0.0
220
0.0
230
1.0
  0
SOLID
  5
2AB0
  8
SAPA_FOGBAND
  6
CONTINUOUS
 10
-84.821849290126579
 20
18.859634359373569
 30
0.0
 11
-84.896522702033025
 21
18.67935679560037
 31
0.0
 12
-84.386620750673757
 22
18.67935679560037
 32
0.0
 13
-84.386620750673757
 23
18.67935679560037
 33
0.0
210
0.0
220
0.0
230
1.0
  0
SOLID
  5
2AB1
  8
SAPA_FOGBAND
  6
CONTINUOUS
 10
84.821849290126579
 20
18.859634359373569
 30
0.0
 11
84.461294162580188
 21
18.859634359373569
 31
0.0
 12
84.386620750673757
 22
18.67935679560037
 32
0.0
 13
84.386620750673757
 23
18.67935679560037
 33
0.0
210
0.0
220
0.0
230
-1.0
  0
SOLID
  5
2AB2
  8
SAPA_FOGBAND
  6
CONTINUOUS
 10
84.821849290126579
 20
18.499079231827171
 30
0.0
 11
84.461294162580188
 21
18.499079231827171
 31
0.0
 12
84.641571726353391
 22
18.424405819920729
 32
0.0
 13
84.641571726353391
 23
18.424405819920729
 33
0.0
210
0.0
220
0.0
230
-1.0
  0
SOLID
  5
2AB3
  8
SAPA_FOGBAND
  6
CONTINUOUS
 10
-84.896522702033025
 20
18.67935679560037
 30
0.0
 11
-84.821849290126579
 21
18.499079231827171
 31
0.0
 12
-84.461294162580188
 22
18.499079231827171
 32
0.0
 13
-84.461294162580188
 23
18.499079231827171
 33
0.0
210
0.0
220
0.0
230
1.0
  0
SOLID
  5
2AB4
  8
SAPA_FOGBAND
  6
CONTINUOUS
 10
84.896522702033025
 20
18.67935679560037
 30
0.0
 11
84.386620750673757
 21
18.67935679560037
 31
0.0
 12
84.461294162580188
 22
18.499079231827171
 32
0.0
 13
84.461294162580188
 23
18.499079231827171
 33
0.0
210
0.0
220
0.0
230
-1.0
  0
LINE
  5
2AB5
  8
SAPA_FOGBAND
  6
CONTINUOUS
 10
-84.641571726353391
 20
18.934307771280011
 30
0.0
 11
-84.821849290126579
 21
18.859634359373569
 31
0.0
  0
LINE
  5
2AB6
  8
SAPA_FOGBAND
  6
CONTINUOUS
 10
-84.461294162580188
 20
18.859634359373569
 30
0.0
 11
-84.641571726353391
 21
18.934307771280011
 31
0.0
  0
LINE
  5
2AB7
  8
SAPA_FOGBAND
  6
CONTINUOUS
 10
-84.821849290126579
 20
18.859634359373569
 30
0.0
 11
-84.896522702033025
 21
18.67935679560037
 31
0.0
  0
LINE
  5
2AB8
  8
SAPA_FOGBAND
  6
CONTINUOUS
 10
-84.461294162580188
 20
18.859634359373569
 30
0.0
 11
-84.386620750673757
 21
18.67935679560037
 31
0.0
  0
LINE
  5
2AB9
  8
SAPA_FOGBAND
  6
CONTINUOUS
 10
-84.461294162580188
 20
18.499079231827171
 30
0.0
 11
-84.641571726353391
 21
18.424405819920729
 31
0.0
  0
LINE
  5
2ABA
  8
SAPA_FOGBAND
  6
CONTINUOUS
 10
-84.641571726353391
 20
18.424405819920729
 30
0.0
 11
-84.821849290126579
 21
18.499079231827171
 31
0.0
  0
LINE
  5
2ABB
  8
SAPA_FOGBAND
  6
CONTINUOUS
 10
-84.896522702033025
 20
18.67935679560037
 30
0.0
 11
-84.821849290126579
 21
18.499079231827171
 31
0.0
  0
LINE
  5
2ABC
  8
SAPA_FOGBAND
  6
CONTINUOUS
 10
-84.386620750673757
 20
18.67935679560037
 30
0.0
 11
-84.461294162580188
 21
18.499079231827171
 31
0.0
  0
ENDBLK
  5
2ABE
  8
0
  0
BLOCK
  8
0
  2
*U190
 70
     1
 10
0.0
 20
0.0
 30
0.0
  3
*U190
  1

  0
TEXT
  5
2B48
  8
SAPA_MATT
 62
     2
 10
-126.65375231270581
 20
-2.1000000000003398
 30
0.0
 40
3.0
  1
50
 50
90.0
  7
ISO
  0
ENDBLK
  5
2B4A
  8
0
  0
ENDSEC
  0
SECTION
  2
ENTITIES
  0
INSERT
  5
6F2
  8
0
  2
*U180
 10
0.0
 20
0.0
 30
0.0
  0
INSERT
  5
6F3
  8
0
  2
*U181
 10
0.0
 20
0.0
 30
0.0
  0
INSERT
  5
6F4
  8
0
  2
*U182
 10
0.0
 20
0.0
 30
0.0
  0
POLYLINE
  5
720
  8
SAPA_LIGHT
 66
     1
 10
0.0
 20
0.0
 30
0.0
  0
VERTEX
  5
19C4
  8
SAPA_LIGHT
 10
-35.550000081740983
 20
-129.99999999996729
 30
0.0
  0
VERTEX
  5
19C5
  8
SAPA_LIGHT
 10
-35.550000081740983
 20
-99.999999999967315
 30
0.0
  0
VERTEX
  5
19C6
  8
SAPA_LIGHT
 10
-73.55000008174234
 20
-99.999999999967315
 30
0.0
  0
VERTEX
  5
19C7
  8
SAPA_LIGHT
 10
-73.550000081742354
 20
-129.9999999999684
 30
0.0
  0
SEQEND
  5
19C8
  8
SAPA_LIGHT
  0
POLYLINE
  5
7C1
  8
SAPA_LIGHT
 66
     1
 10
0.0
 20
0.0
 30
0.0
  0
VERTEX
  5
19C9
  8
SAPA_LIGHT
 10
-82.500000000018488
 20
-74.499999999966676
 30
0.0
  0
VERTEX
  5
19CA
  8
SAPA_LIGHT
 10
-82.499999999011948
 20
-12.9999999999986
 30
0.0
  0
VERTEX
  5
19CB
  8
SAPA_LIGHT
 10
-58.500000000002267
 20
-12.999999999998609
 30
0.0
  0
VERTEX
  5
19CC
  8
SAPA_LIGHT
 10
-58.51097598976515
 20
-30.19999999999968
 30
0.0
  0
VERTEX
  5
19CD
  8
SAPA_LIGHT
 10
-11.38861643487151
 20
-29.999999999999091
 30
0.0
  0
VERTEX
  5
19CE
  8
SAPA_LIGHT
 10
-8.5000000031935254
 20
-29.968745704598749
 30
0.0
  0
VERTEX
  5
19CF
  8
SAPA_LIGHT
 10
-8.5000000031935272
 20
-52.499999999998963
 30
0.0
  0
VERTEX
  5
19D0
  8
SAPA_LIGHT
 10
-77.050000003795518
 20
-52.499999999998863
 30
0.0
  0
VERTEX
  5
19D1
  8
SAPA_LIGHT
 10
-77.050000003795518
 20
-74.50000000017765
 30
0.0
  0
VERTEX
  5
19D2
  8
SAPA_LIGHT
 10
-82.500000000018488
 20
-74.500000000104052
 30
0.0
  0
SEQEND
  5
19D3
  8
SAPA_LIGHT
  0
POLYLINE
  5
7C2
  8
SAPA_LIGHT
 66
     1
 10
0.0
 20
0.0
 30
0.0
  0
VERTEX
  5
19D4
  8
SAPA_LIGHT
 10
-82.500000003812005
 20
-116.9999999999347
 30
0.0
  0
VERTEX
  5
19D5
  8
SAPA_LIGHT
 10
-82.500000003812019
 20
-79.499999999967471
 30
0.0
  0
VERTEX
  5
19D6
  8
SAPA_LIGHT
 10
-77.050000003795461
 20
-79.499999999967471
 30
0.0
  0
VERTEX
  5
19D7
  8
SAPA_LIGHT
 10
-77.050000003795518
 20
-72.500000000041823
 30
0.0
  0
VERTEX
  5
19D8
  8
SAPA_LIGHT
 10
-63.853716957736239
 20
-72.500000000041823
 30
0.0
  0
VERTEX
  5
19D9
  8
SAPA_LIGHT
 10
-63.853716957736253
 20
-66.500000000041595
 30
0.0
  0
VERTEX
  5
19DA
  8
SAPA_LIGHT
 10
-30.500000006902908
 20
-66.500000000042064
 30
0.0
  0
VERTEX
  5
19DB
  8
SAPA_LIGHT
 10
-30.500000006902908
 20
-64.000000000042519
 30
0.0
  0
VERTEX
  5
19DC
  8
SAPA_LIGHT
 10
-8.5000000031935325
 20
-64.000000000042476
 30
0.0
  0
VERTEX
  5
19DD
  8
SAPA_LIGHT
 10
-8.5000000031935272
 20
-46.50000000004205
 30
0.0
  0
VERTEX
  5
19DE
  8
SAPA_LIGHT
 10
1.0000000012918711
 20
-46.500000000042057
 30
0.0
  0
VERTEX
  5
19DF
  8
SAPA_LIGHT
 10
0.9999999961233195
 20
-87.783121633558267
 30
0.0
  0
VERTEX
  5
19E0
  8
SAPA_LIGHT
 10
-0.5000000038765674
 20
-90.381197844408007
 30
0.0
  0
VERTEX
  5
19E1
  8
SAPA_LIGHT
 10
-8.2679491998452086
 20
-94.866025403751777
 30
0.0
  0
VERTEX
  5
19E2
  8
SAPA_LIGHT
 10
-8.7679491998454644
 20
-94.999999999967486
 30
0.0
  0
VERTEX
  5
19E3
  8
SAPA_LIGHT
 10
-10.000000002071159
 20
-94.999999999967514
 30
0.0
  0
VERTEX
  5
19E4
  8
SAPA_LIGHT
 10
-10.000000002071159
 20
-116.9999999999812
 30
0.0
  0
VERTEX
  5
19E5
  8
SAPA_LIGHT
 10
-35.550000081742347
 20
-116.9999999999812
 30
0.0
  0
VERTEX
  5
19E6
  8
SAPA_LIGHT
 10
-35.55000008174234
 20
-94.69487763316404
 30
0.0
  0
VERTEX
  5
19E7
  8
SAPA_LIGHT
 10
-73.550000081741643
 20
-94.694877633164054
 30
0.0
  0
VERTEX
  5
19E8
  8
SAPA_LIGHT
 10
-73.550000081741715
 20
-117.0000000001466
 30
0.0
  0
VERTEX
  5
19E9
  8
SAPA_LIGHT
 10
-82.500000003812005
 20
-116.9999999999347
 30
0.0
  0
SEQEND
  5
19EA
  8
SAPA_LIGHT
  0
POLYLINE
  5
7C9
  8
SAPA_LIGHT
 66
     1
 10
0.0
 20
0.0
 30
0.0
  0
VERTEX
  5
19EB
  8
SAPA_LIGHT
 10
-35.550000081740201
 20
-129.99999999996771
 30
0.0
  0
VERTEX
  5
19EC
  8
SAPA_LIGHT
 10
-35.550000081740201
 20
-99.99999999996777
 30
0.0
  0
VERTEX
  5
19ED
  8
SAPA_LIGHT
 10
-73.550000081741672
 20
-99.999999999967315
 30
0.0
  0
VERTEX
  5
19EE
  8
SAPA_LIGHT
 10
-73.550000081741686
 20
-129.99999999996729
 30
0.0
  0
SEQEND
  5
19EF
  8
SAPA_LIGHT
  0
POLYLINE
  5
8FD
  8
SAPA_LIGHT
 66
     1
 10
0.0
 20
0.0
 30
0.0
 70
     1
  0
VERTEX
  5
19F0
  8
SAPA_LIGHT
 10
-106.4999999990104
 20
25.00000000000076
 30
0.0
  0
VERTEX
  5
19F1
  8
SAPA_LIGHT
 10
-106.4999999990104
 20
-24.99999999999924
 30
0.0
  0
VERTEX
  5
19F2
  8
SAPA_LIGHT
 10
-82.499999999011834
 20
-24.999999999999432
 30
0.0
  0
VERTEX
  5
19F3
  8
SAPA_LIGHT
 10
-82.499999999011834
 20
-4.9999999999995826
 30
0.0
  0
VERTEX
  5
19F4
  8
SAPA_LIGHT
 10
-44.499999999010242
 20
-4.9999999999995826
 30
0.0
  0
VERTEX
  5
19F5
  8
SAPA_LIGHT
 10
-44.499999999010242
 20
-24.999999999999432
 30
0.0
  0
VERTEX
  5
19F6
  8
SAPA_LIGHT
 10
64.499999999998863
 20
-24.999999999999769
 30
0.0
  0
VERTEX
  5
19F7
  8
SAPA_LIGHT
 10
64.499999999998863
 20
25.000000000000231
 30
0.0
  0
VERTEX
  5
19F8
  8
SAPA_LIGHT
 10
-45.500000000001812
 20
25.00000000000021
 30
0.0
  0
VERTEX
  5
19F9
  8
SAPA_LIGHT
 10
-45.500000000001812
 20
5.0000000000002061
 30
0.0
  0
VERTEX
  5
19FA
  8
SAPA_LIGHT
 10
-80.499999999010797
 20
4.9999999999999751
 30
0.0
  0
VERTEX
  5
19FB
  8
SAPA_LIGHT
 10
-80.499999999010797
 20
25.000000000000771
 30
0.0
  0
SEQEND
  5
19FC
  8
SAPA_LIGHT
  0
POLYLINE
  5
8FE
  8
SAPA_LIGHT
 66
     1
 10
0.0
 20
0.0
 30
0.0
  0
VERTEX
  5
19FD
  8
SAPA_LIGHT
 10
62.499999999998849
 20
75.000000000000682
 30
0.0
  0
VERTEX
  5
19FE
  8
SAPA_LIGHT
 10
62.499999999998849
 20
26.000000000000679
 30
0.0
  0
VERTEX
  5
19FF
  8
SAPA_LIGHT
 10
50.999999999998799
 20
26.000000000000679
 30
0.0
  0
VERTEX
  5
1A00
  8
SAPA_LIGHT
 10
50.999999999998792
 20
75.000000000000682
 30
0.0
  0
SEQEND
  5
1A01
  8
SAPA_LIGHT
  0
POLYLINE
  5
8FF
  8
SAPA_LIGHT
 66
     1
 10
0.0
 20
0.0
 30
0.0
  0
VERTEX
  5
1A02
  8
SAPA_LIGHT
 10
-45.50000000000172
 20
75.522593981594326
 30
0.0
  0
VERTEX
  5
1A03
  8
SAPA_LIGHT
 10
-45.506403657189757
 20
14.03511389911294
 30
0.0
  0
VERTEX
  5
1A04
  8
SAPA_LIGHT
 10
-54.501825424425867
 20
14.03511389911294
 30
0.0
  0
VERTEX
  5
1A05
  8
SAPA_LIGHT
 10
-54.501825424425888
 20
75.522593981594326
 30
0.0
  0
SEQEND
  5
1A06
  8
SAPA_LIGHT
  0
POLYLINE
  5
900
  8
SAPA_LIGHT
 66
     1
 10
0.0
 20
0.0
 30
0.0
  0
VERTEX
  5
1A07
  8
SAPA_LIGHT
 10
-74.499999999011038
 20
75.522593981595236
 30
0.0
  0
VERTEX
  5
1A08
  8
SAPA_LIGHT
 10
-74.499999999011493
 20
11.000000000000661
 30
0.0
  0
VERTEX
  5
1A09
  8
SAPA_LIGHT
 10
-80.499999999010797
 20
11.000000000000661
 30
0.0
  0
VERTEX
  5
1A0A
  8
SAPA_LIGHT
 10
-80.499999999010797
 20
75.522593981595236
 30
0.0
  0
SEQEND
  5
1A0B
  8
SAPA_LIGHT
  0
INSERT
  5
E0D
  8
0
  2
*U183
 10
0.0
 20
0.0
 30
0.0
  0
INSERT
  5
E0E
  8
0
  2
*U184
 10
0.0
 20
0.0
 30
0.0
  0
INSERT
  5
E0F
  8
0
  2
*U185
 10
0.0
 20
0.0
 30
0.0
  0
LINE
  5
1656
  8
SAPA_FYLLNING
 10
-29.856005620378941
 20
31.348467485783171
 30
0.0
 11
42.799999999999258
 21
31.348467485783178
 31
0.0
  0
ARC
  5
1657
  8
SAPA_FYLLNING
 10
42.799999999999258
 20
37.348467485783182
 30
0.0
 40
6.0
 50
270.0
 51
90.0
  0
LINE
  5
1658
  8
SAPA_FYLLNING
 10
42.799999999999258
 20
43.348467485783182
 30
0.0
 11
-29.856005620378941
 21
43.34846748578498
 31
0.0
  0
ARC
  5
1659
  8
SAPA_FYLLNING
 10
-29.856005620379008
 20
49.348467485783956
 30
0.0
 40
5.9999999999989688
 50
90.000000000000668
 51
270.00000000000068
  0
LINE
  5
165A
  8
SAPA_FYLLNING
 10
-29.856005620379079
 20
55.348467485782919
 30
0.0
 11
44.999999999998167
 21
55.348467485785001
 31
0.0
  0
ARC
  5
165B
  8
SAPA_FYLLNING
 10
44.999999999998167
 20
61.348467485784099
 30
0.0
 40
5.9999999999990967
 50
270.00000000000011
 51
90.0
  0
LINE
  5
165C
  8
SAPA_FYLLNING
 10
44.999999999998167
 20
67.348467485783189
 30
0.0
 11
-29.856005620378951
 21
67.348467485783161
 31
0.0
  0
POLYLINE
  5
1838
  8
SAPA_PROFIL
  6
CONTINUOUS
 66
     1
 10
0.0
 20
0.0
 30
0.0
 70
     1
  0
VERTEX
  5
2119
  8
SAPA_PROFIL
  6
CONTINUOUS
 10
-68.514627230068498
 20
-53.49999999901847
 30
0.0
 42
0.2596812337301868
  0
VERTEX
  5
211A
  8
SAPA_PROFIL
  6
CONTINUOUS
 10
-68.344596418528411
 20
-53.405306803770181
 30
0.0
  0
VERTEX
  5
211B
  8
SAPA_PROFIL
  6
CONTINUOUS
 10
-67.943669073976608
 20
-52.757960206146059
 30
0.0
 42
0.5877032589248397
  0
VERTEX
  5
211C
  8
SAPA_PROFIL
  6
CONTINUOUS
 10
-68.19871529128649
 20
-52.299999999018169
 30
0.0
  0
VERTEX
  5
211D
  8
SAPA_PROFIL
  6
CONTINUOUS
 10
-68.598715295421613
 20
-52.299999999018169
 30
0.0
 42
-0.4142135623731645
  0
VERTEX
  5
211E
  8
SAPA_PROFIL
  6
CONTINUOUS
 10
-68.898715295421823
 20
-51.999999999018478
 30
0.0
  0
VERTEX
  5
211F
  8
SAPA_PROFIL
  6
CONTINUOUS
 10
-68.898715295421809
 20
-48.79999999989996
 30
0.0
 42
-0.4142135623731021
  0
VERTEX
  5
2120
  8
SAPA_PROFIL
  6
CONTINUOUS
 10
-68.598715295421812
 20
-48.499999999899948
 30
0.0
  0
VERTEX
  5
2121
  8
SAPA_PROFIL
  6
CONTINUOUS
 10
-62.798715294908199
 20
-48.499999999899963
 30
0.0
 42
-0.4142135623730951
  0
VERTEX
  5
2122
  8
SAPA_PROFIL
  6
CONTINUOUS
 10
-62.498715294908209
 20
-48.799999999899953
 30
0.0
  0
VERTEX
  5
2123
  8
SAPA_PROFIL
  6
CONTINUOUS
 10
-62.498715294908202
 20
-51.199999999899958
 30
0.0
 42
-0.4142135623730811
  0
VERTEX
  5
2124
  8
SAPA_PROFIL
  6
CONTINUOUS
 10
-62.798715294908199
 20
-51.499999999899948
 30
0.0
  0
VERTEX
  5
2125
  8
SAPA_PROFIL
  6
CONTINUOUS
 10
-64.198715807173983
 20
-51.49999999989997
 30
0.0
 42
0.5920056181165752
  0
VERTEX
  5
2126
  8
SAPA_PROFIL
  6
CONTINUOUS
 10
-64.451724563491695
 20
-51.961203502425761
 30
0.0
  0
VERTEX
  5
2127
  8
SAPA_PROFIL
  6
CONTINUOUS
 10
-63.687149432391699
 20
-53.161203502425863
 30
0.0
 42
0.2562769736741619
  0
VERTEX
  5
2128
  8
SAPA_PROFIL
  6
CONTINUOUS
 10
-63.434140676074101
 20
-53.299999999899953
 30
0.0
  0
VERTEX
  5
2129
  8
SAPA_PROFIL
  6
CONTINUOUS
 10
-60.496550053245642
 20
-53.29999999990055
 30
0.0
  0
VERTEX
  5
212A
  8
SAPA_PROFIL
  6
CONTINUOUS
 10
-59.175433952305163
 20
-52.789377747997698
 30
0.0
 42
-0.4142135623730961
  0
VERTEX
  5
212B
  8
SAPA_PROFIL
  6
CONTINUOUS
 10
-58.801248996829337
 20
-52.989341792505101
 30
0.0
  0
VERTEX
  5
212C
  8
SAPA_PROFIL
  6
CONTINUOUS
 10
-58.77040164144897
 20
-53.101573983119494
 30
0.0
  0
VERTEX
  5
212D
  8
SAPA_PROFIL
  6
CONTINUOUS
 10
-57.261321413033492
 20
-53.18320863244363
 30
0.0
 42
0.494012837111175
  0
VERTEX
  5
212E
  8
SAPA_PROFIL
  6
CONTINUOUS
 10
-56.951741355807492
 20
-52.820948347026253
 30
0.0
  0
VERTEX
  5
212F
  8
SAPA_PROFIL
  6
CONTINUOUS
 10
-57.362823278441489
 20
-50.852383804783123
 30
0.0
 42
0.2216946626430119
  0
VERTEX
  5
2130
  8
SAPA_PROFIL
  6
CONTINUOUS
 10
-57.768632183596281
 20
-50.311503973306273
 30
0.0
  0
VERTEX
  5
2131
  8
SAPA_PROFIL
  6
CONTINUOUS
 10
-58.053314466827914
 20
-50.159370062197567
 30
0.0
 42
0.5773502691896845
  0
VERTEX
  5
2132
  8
SAPA_PROFIL
  6
CONTINUOUS
 10
-58.34747076708274
 20
-50.342323802307682
 30
0.0
  0
VERTEX
  5
2133
  8
SAPA_PROFIL
  6
CONTINUOUS
 10
-58.336909400855781
 20
-50.664081530525991
 30
0.0
  0
VERTEX
  5
2134
  8
SAPA_PROFIL
  6
CONTINUOUS
 10
-60.222753092716843
 20
-51.748645977497731
 30
0.0
  0
VERTEX
  5
2135
  8
SAPA_PROFIL
  6
CONTINUOUS
 10
-60.414136092710557
 20
-51.806719614486823
 30
0.0
 42
-0.7625858545244327
  0
VERTEX
  5
2136
  8
SAPA_PROFIL
  6
CONTINUOUS
 10
-60.59871529490804
 20
-51.476393533469789
 30
0.0
 42
0.2134217652834393
  0
VERTEX
  5
2137
  8
SAPA_PROFIL
  6
CONTINUOUS
 10
-60.498715294907932
 20
-51.252786735719681
 30
0.0
  0
VERTEX
  5
2138
  8
SAPA_PROFIL
  6
CONTINUOUS
 10
-60.498715294908102
 20
-51.252786999899868
 30
0.0
  0
VERTEX
  5
2139
  8
SAPA_PROFIL
  6
CONTINUOUS
 10
-60.498715294908202
 20
-47.39999999989994
 30
0.0
 42
-0.4142139999559429
  0
VERTEX
  5
213A
  8
SAPA_PROFIL
  6
CONTINUOUS
 10
-60.198715294908091
 20
-47.099999999900028
 30
0.0
  0
VERTEX
  5
213B
  8
SAPA_PROFIL
  6
CONTINUOUS
 10
-59.898715294908087
 20
-47.099999999900049
 30
0.0
  0
VERTEX
  5
213C
  8
SAPA_PROFIL
  6
CONTINUOUS
 10
-58.600161294908091
 20
-47.849720999899951
 30
0.0
  0
VERTEX
  5
213D
  8
SAPA_PROFIL
  6
CONTINUOUS
 10
-58.298206294906883
 20
-48.022873999897861
 30
0.0
 42
0.5763720000355616
  0
VERTEX
  5
213E
  8
SAPA_PROFIL
  6
CONTINUOUS
 10
-57.99871529490818
 20
-47.849375999899941
 30
0.0
  0
VERTEX
  5
213F
  8
SAPA_PROFIL
  6
CONTINUOUS
 10
-57.998715294907697
 20
-46.464914999900031
 30
0.0
 42
0.2679490000000105
  0
VERTEX
  5
2140
  8
SAPA_PROFIL
  6
CONTINUOUS
 10
-58.498715294907711
 20
-45.598888999899948
 30
0.0
  0
VERTEX
  5
2141
  8
SAPA_PROFIL
  6
CONTINUOUS
 10
-60.248715114697191
 20
-44.588527103944443
 30
0.0
 42
-0.2679493039457093
  0
VERTEX
  5
2142
  8
SAPA_PROFIL
  6
CONTINUOUS
 10
-60.498715294907598
 20
-44.155514298007738
 30
0.0
  0
VERTEX
  5
2143
  8
SAPA_PROFIL
  6
CONTINUOUS
 10
-60.498715294907711
 20
-40.344485999899831
 30
0.0
 42
-0.2679489999997284
  0
VERTEX
  5
2144
  8
SAPA_PROFIL
  6
CONTINUOUS
 10
-60.248715294907711
 20
-39.91147299990002
 30
0.0
  0
VERTEX
  5
2145
  8
SAPA_PROFIL
  6
CONTINUOUS
 10
-58.498715294907711
 20
-38.901110999900062
 30
0.0
 42
0.2679490000000243
  0
VERTEX
  5
2146
  8
SAPA_PROFIL
  6
CONTINUOUS
 10
-57.998715294907711
 20
-38.035084999899851
 30
0.0
  0
VERTEX
  5
2147
  8
SAPA_PROFIL
  6
CONTINUOUS
 10
-57.998715294908209
 20
-36.650623999899977
 30
0.0
 42
0.5763720000353817
  0
VERTEX
  5
2148
  8
SAPA_PROFIL
  6
CONTINUOUS
 10
-58.29820629490689
 20
-36.477125999902043
 30
0.0
  0
VERTEX
  5
2149
  8
SAPA_PROFIL
  6
CONTINUOUS
 10
-58.600161294908091
 20
-36.650278999900053
 30
0.0
  0
VERTEX
  5
214A
  8
SAPA_PROFIL
  6
CONTINUOUS
 10
-59.898715294908101
 20
-37.399999999899933
 30
0.0
  0
VERTEX
  5
214B
  8
SAPA_PROFIL
  6
CONTINUOUS
 10
-60.198715294908098
 20
-37.399999999899933
 30
0.0
 42
-0.4142139999560329
  0
VERTEX
  5
214C
  8
SAPA_PROFIL
  6
CONTINUOUS
 10
-60.498715294908159
 20
-37.099999999899978
 30
0.0
  0
VERTEX
  5
214D
  8
SAPA_PROFIL
  6
CONTINUOUS
 10
-60.498715294907932
 20
-33.247212999900007
 30
0.0
  0
VERTEX
  5
214E
  8
SAPA_PROFIL
  6
CONTINUOUS
 10
-60.498715294907932
 20
-33.24721326408023
 30
0.0
 42
0.2134217652834345
  0
VERTEX
  5
214F
  8
SAPA_PROFIL
  6
CONTINUOUS
 10
-60.598715294908047
 20
-33.023606466330122
 30
0.0
 42
-0.7625858545244327
  0
VERTEX
  5
2150
  8
SAPA_PROFIL
  6
CONTINUOUS
 10
-60.414136092710571
 20
-32.693280385313088
 30
0.0
  0
VERTEX
  5
2151
  8
SAPA_PROFIL
  6
CONTINUOUS
 10
-60.222753092716843
 20
-32.751354022302181
 30
0.0
  0
VERTEX
  5
2152
  8
SAPA_PROFIL
  6
CONTINUOUS
 10
-58.336909400855781
 20
-33.835918469273921
 30
0.0
  0
VERTEX
  5
2153
  8
SAPA_PROFIL
  6
CONTINUOUS
 10
-58.34747076708274
 20
-34.157676197492222
 30
0.0
 42
0.5773502691896831
  0
VERTEX
  5
2154
  8
SAPA_PROFIL
  6
CONTINUOUS
 10
-58.053314466827921
 20
-34.340629937602337
 30
0.0
  0
VERTEX
  5
2155
  8
SAPA_PROFIL
  6
CONTINUOUS
 10
-57.768632183596289
 20
-34.188496026493638
 30
0.0
 42
0.2216946626430123
  0
VERTEX
  5
2156
  8
SAPA_PROFIL
  6
CONTINUOUS
 10
-57.362823278441489
 20
-33.647616195016802
 30
0.0
  0
VERTEX
  5
2157
  8
SAPA_PROFIL
  6
CONTINUOUS
 10
-56.951741355807513
 20
-31.679051652773651
 30
0.0
 42
0.4940128371111735
  0
VERTEX
  5
2158
  8
SAPA_PROFIL
  6
CONTINUOUS
 10
-57.261321413033492
 20
-31.31679136735627
 30
0.0
  0
VERTEX
  5
2159
  8
SAPA_PROFIL
  6
CONTINUOUS
 10
-58.77040164144897
 20
-31.398426016680421
 30
0.0
  0
VERTEX
  5
215A
  8
SAPA_PROFIL
  6
CONTINUOUS
 10
-58.801248996829351
 20
-31.510658207294821
 30
0.0
 42
-0.4142135623730952
  0
VERTEX
  5
215B
  8
SAPA_PROFIL
  6
CONTINUOUS
 10
-59.175433952305163
 20
-31.71062225180221
 30
0.0
  0
VERTEX
  5
215C
  8
SAPA_PROFIL
  6
CONTINUOUS
 10
-60.496550053245677
 20
-31.199999999899351
 30
0.0
  0
VERTEX
  5
215D
  8
SAPA_PROFIL
  6
CONTINUOUS
 10
-63.434140676059101
 20
-31.199999999899951
 30
0.0
 42
0.256276973687627
  0
VERTEX
  5
215E
  8
SAPA_PROFIL
  6
CONTINUOUS
 10
-63.68714943240807
 20
-31.338796497399869
 30
0.0
  0
VERTEX
  5
215F
  8
SAPA_PROFIL
  6
CONTINUOUS
 10
-64.451724563508094
 20
-32.538796497399858
 30
0.0
 42
0.5920056180425383
  0
VERTEX
  5
2160
  8
SAPA_PROFIL
  6
CONTINUOUS
 10
-64.198715807108087
 20
-32.999999999899927
 30
0.0
  0
VERTEX
  5
2161
  8
SAPA_PROFIL
  6
CONTINUOUS
 10
-62.798715294908199
 20
-32.999999999899927
 30
0.0
 42
-0.4142139999560674
  0
VERTEX
  5
2162
  8
SAPA_PROFIL
  6
CONTINUOUS
 10
-62.498715294908209
 20
-33.299999999900052
 30
0.0
  0
VERTEX
  5
2163
  8
SAPA_PROFIL
  6
CONTINUOUS
 10
-62.498715294908209
 20
-35.699999999899937
 30
0.0
 42
-0.4142139999559601
  0
VERTEX
  5
2164
  8
SAPA_PROFIL
  6
CONTINUOUS
 10
-62.798715294908199
 20
-35.999999999899927
 30
0.0
  0
VERTEX
  5
2165
  8
SAPA_PROFIL
  6
CONTINUOUS
 10
-68.598715295421812
 20
-35.999999999899927
 30
0.0
 42
-0.414213562373102
  0
VERTEX
  5
2166
  8
SAPA_PROFIL
  6
CONTINUOUS
 10
-68.898715295421809
 20
-35.699999999899937
 30
0.0
  0
VERTEX
  5
2167
  8
SAPA_PROFIL
  6
CONTINUOUS
 10
-68.898715295421823
 20
-32.499999999899757
 30
0.0
 42
-0.4142135623732028
  0
VERTEX
  5
2168
  8
SAPA_PROFIL
  6
CONTINUOUS
 10
-68.598715295421613
 20
-32.199999999899887
 30
0.0
  0
VERTEX
  5
2169
  8
SAPA_PROFIL
  6
CONTINUOUS
 10
-68.198715291286504
 20
-32.199999999899859
 30
0.0
 42
0.5877032589248904
  0
VERTEX
  5
216A
  8
SAPA_PROFIL
  6
CONTINUOUS
 10
-67.943669073976608
 20
-31.742039792772282
 30
0.0
  0
VERTEX
  5
216B
  8
SAPA_PROFIL
  6
CONTINUOUS
 10
-68.344596418528354
 20
-31.09469319514805
 30
0.0
 42
0.2596812337301491
  0
VERTEX
  5
216C
  8
SAPA_PROFIL
  6
CONTINUOUS
 10
-68.514627230068498
 20
-30.99999999989976
 30
0.0
  0
VERTEX
  5
216D
  8
SAPA_PROFIL
  6
CONTINUOUS
 10
-69.998715295421704
 20
-30.99999999989976
 30
0.0
 42
0.4142135623730984
  0
VERTEX
  5
216E
  8
SAPA_PROFIL
  6
CONTINUOUS
 10
-70.298715295421502
 20
-31.299999999899761
 30
0.0
  0
VERTEX
  5
216F
  8
SAPA_PROFIL
  6
CONTINUOUS
 10
-70.2987152954219
 20
-35.699999999899937
 30
0.0
 42
-0.414213562373102
  0
VERTEX
  5
2170
  8
SAPA_PROFIL
  6
CONTINUOUS
 10
-70.598715295421897
 20
-35.999999999899927
 30
0.0
  0
VERTEX
  5
2171
  8
SAPA_PROFIL
  6
CONTINUOUS
 10
-80.198715294908126
 20
-35.999999999899849
 30
0.0
 42
-0.4142135623730188
  0
VERTEX
  5
2172
  8
SAPA_PROFIL
  6
CONTINUOUS
 10
-80.498715294908123
 20
-35.699999999899951
 30
0.0
  0
VERTEX
  5
2173
  8
SAPA_PROFIL
  6
CONTINUOUS
 10
-80.498715294908166
 20
-33.299999999900059
 30
0.0
 42
-0.4142135623730673
  0
VERTEX
  5
2174
  8
SAPA_PROFIL
  6
CONTINUOUS
 10
-80.198715294908155
 20
-32.999999999899941
 30
0.0
  0
VERTEX
  5
2175
  8
SAPA_PROFIL
  6
CONTINUOUS
 10
-78.798715561108153
 20
-32.999999999899892
 30
0.0
 42
0.5877032589046084
  0
VERTEX
  5
2176
  8
SAPA_PROFIL
  6
CONTINUOUS
 10
-78.543669343808148
 20
-32.542039792799862
 30
0.0
  0
VERTEX
  5
2177
  8
SAPA_PROFIL
  6
CONTINUOUS
 10
-79.410744701024683
 20
-31.142039792773399
 30
0.0
 42
0.2596812337311998
  0
VERTEX
  5
2178
  8
SAPA_PROFIL
  6
CONTINUOUS
 10
-79.665790918335361
 20
-30.999999999900052
 30
0.0
  0
VERTEX
  5
2179
  8
SAPA_PROFIL
  6
CONTINUOUS
 10
-80.410632088596074
 20
-30.999999999899931
 30
0.0
 42
-0.4023941304326696
  0
VERTEX
  5
217A
  8
SAPA_PROFIL
  6
CONTINUOUS
 10
-80.710385817209115
 20
-30.712153278576171
 30
0.0
  0
VERTEX
  5
217B
  8
SAPA_PROFIL
  6
CONTINUOUS
 10
-81.297184580208139
 20
-16.23909445709986
 30
0.0
 42
-0.4373282586143014
  0
VERTEX
  5
217C
  8
SAPA_PROFIL
  6
CONTINUOUS
 10
-80.798715299908153
 20
-15.69999999979993
 30
0.0
  0
VERTEX
  5
217D
  8
SAPA_PROFIL
  6
CONTINUOUS
 10
-79.969884212120135
 20
-15.69999999979985
 30
0.0
 42
-0.3639702342826234
  0
VERTEX
  5
217E
  8
SAPA_PROFIL
  6
CONTINUOUS
 10
-79.477480335609002
 20
-16.113175910994968
 30
0.0
  0
VERTEX
  5
217F
  8
SAPA_PROFIL
  6
CONTINUOUS
 10
-79.270534496108155
 20
-17.28682408859996
 30
0.0
 42
0.8390996312315433
  0
VERTEX
  5
2180
  8
SAPA_PROFIL
  6
CONTINUOUS
 10
-78.285726743108114
 20
-17.28682408859985
 30
0.0
  0
VERTEX
  5
2181
  8
SAPA_PROFIL
  6
CONTINUOUS
 10
-78.008880572108112
 20
-15.71675143259997
 30
0.0
 42
0.0436609428925317
  0
VERTEX
  5
2182
  8
SAPA_PROFIL
  6
CONTINUOUS
 10
-78.001284448619955
 20
-15.62992734379997
 30
0.0
  0
VERTEX
  5
2183
  8
SAPA_PROFIL
  6
CONTINUOUS
 10
-78.001284448608274
 20
-14.632455531699851
 30
0.0
 42
0.2896898633456171
  0
VERTEX
  5
2184
  8
SAPA_PROFIL
  6
CONTINUOUS
 10
-78.572713020179577
 20
-13.72894762872693
 30
0.0
 42
0.5507604245347207
  0
VERTEX
  5
2185
  8
SAPA_PROFIL
  6
CONTINUOUS
 10
-79.001284448708148
 20
-13.99999999961884
 30
0.0
  0
VERTEX
  5
2186
  8
SAPA_PROFIL
  6
CONTINUOUS
 10
-79.001284448708148
 20
-14.199999999699971
 30
0.0
 42
-0.4142135623730951
  0
VERTEX
  5
2187
  8
SAPA_PROFIL
  6
CONTINUOUS
 10
-79.301284448708159
 20
-14.499999999699959
 30
0.0
  0
VERTEX
  5
2188
  8
SAPA_PROFIL
  6
CONTINUOUS
 10
-80.798715299908153
 20
-14.499999999699959
 30
0.0
 42
-0.4142135623730951
  0
VERTEX
  5
2189
  8
SAPA_PROFIL
  6
CONTINUOUS
 10
-81.298715299908153
 20
-13.999999999699959
 30
0.0
  0
VERTEX
  5
218A
  8
SAPA_PROFIL
  6
CONTINUOUS
 10
-81.298715299908153
 20
-10.699999999699971
 30
0.0
 42
-0.4142135623730951
  0
VERTEX
  5
218B
  8
SAPA_PROFIL
  6
CONTINUOUS
 10
-80.798715299908153
 20
-10.199999999699971
 30
0.0
  0
VERTEX
  5
218C
  8
SAPA_PROFIL
  6
CONTINUOUS
 10
-79.301284448908135
 20
-10.199999999699971
 30
0.0
 42
-0.4142135623730673
  0
VERTEX
  5
218D
  8
SAPA_PROFIL
  6
CONTINUOUS
 10
-79.001284448908123
 20
-10.499999999699959
 30
0.0
  0
VERTEX
  5
218E
  8
SAPA_PROFIL
  6
CONTINUOUS
 10
-79.001284448908152
 20
-10.699999999699941
 30
0.0
 42
0.550760424592931
  0
VERTEX
  5
218F
  8
SAPA_PROFIL
  6
CONTINUOUS
 10
-78.572713020312548
 20
-10.971052370608049
 30
0.0
 42
0.2896898632971936
  0
VERTEX
  5
2190
  8
SAPA_PROFIL
  6
CONTINUOUS
 10
-78.00128444889522
 20
-10.06754446769995
 30
0.0
  0
VERTEX
  5
2191
  8
SAPA_PROFIL
  6
CONTINUOUS
 10
-78.001284448908152
 20
-9.2999999995999811
 30
0.0
 42
0.4142135620802001
  0
VERTEX
  5
2192
  8
SAPA_PROFIL
  6
CONTINUOUS
 10
-78.301284448908135
 20
-8.9999999998999343
 30
0.0
  0
VERTEX
  5
2193
  8
SAPA_PROFIL
  6
CONTINUOUS
 10
-81.998715294908123
 20
-8.9999999998999343
 30
0.0
 42
0.4142135623730951
  0
VERTEX
  5
2194
  8
SAPA_PROFIL
  6
CONTINUOUS
 10
-82.498715294908138
 20
-9.4999999998999343
 30
0.0
  0
VERTEX
  5
2195
  8
SAPA_PROFIL
  6
CONTINUOUS
 10
-82.498715295421704
 20
-74.999964610277459
 30
0.0
  0
VERTEX
  5
2196
  8
SAPA_PROFIL
  6
CONTINUOUS
 10
-82.498715294908123
 20
-74.999999999900012
 30
0.0
 42
0.4142135623730951
  0
VERTEX
  5
2197
  8
SAPA_PROFIL
  6
CONTINUOUS
 10
-81.998715294908109
 20
-75.499999999900012
 30
0.0
  0
VERTEX
  5
2198
  8
SAPA_PROFIL
  6
CONTINUOUS
 10
-78.30128444890812
 20
-75.499999999900012
 30
0.0
 42
0.4142135620801829
  0
VERTEX
  5
2199
  8
SAPA_PROFIL
  6
CONTINUOUS
 10
-78.001284448908166
 20
-75.200000000200021
 30
0.0
  0
VERTEX
  5
219A
  8
SAPA_PROFIL
  6
CONTINUOUS
 10
-78.001284448895206
 20
-74.432455532100022
 30
0.0
 42
0.2896898632971957
  0
VERTEX
  5
219B
  8
SAPA_PROFIL
  6
CONTINUOUS
 10
-78.57271302031252
 20
-73.528947629191862
 30
0.0
 42
0.5507604245929078
  0
VERTEX
  5
219C
  8
SAPA_PROFIL
  6
CONTINUOUS
 10
-79.001284448908137
 20
-73.800000000100027
 30
0.0
  0
VERTEX
  5
219D
  8
SAPA_PROFIL
  6
CONTINUOUS
 10
-79.001284448908095
 20
-74.000000000100016
 30
0.0
 42
-0.4142135623730673
  0
VERTEX
  5
219E
  8
SAPA_PROFIL
  6
CONTINUOUS
 10
-79.30128444890812
 20
-74.300000000100027
 30
0.0
  0
VERTEX
  5
219F
  8
SAPA_PROFIL
  6
CONTINUOUS
 10
-80.798715299908139
 20
-74.300000000100027
 30
0.0
 42
-0.4142135623730951
  0
VERTEX
  5
21A0
  8
SAPA_PROFIL
  6
CONTINUOUS
 10
-81.298715299908125
 20
-73.800000000100027
 30
0.0
  0
VERTEX
  5
21A1
  8
SAPA_PROFIL
  6
CONTINUOUS
 10
-81.298715299908125
 20
-70.500000000100016
 30
0.0
 42
-0.4142135623730951
  0
VERTEX
  5
21A2
  8
SAPA_PROFIL
  6
CONTINUOUS
 10
-80.798715299908139
 20
-70.000000000100016
 30
0.0
  0
VERTEX
  5
21A3
  8
SAPA_PROFIL
  6
CONTINUOUS
 10
-79.301284448708145
 20
-70.000000000100016
 30
0.0
 42
-0.4142135623730951
  0
VERTEX
  5
21A4
  8
SAPA_PROFIL
  6
CONTINUOUS
 10
-79.001284448708134
 20
-70.300000000100013
 30
0.0
  0
VERTEX
  5
21A5
  8
SAPA_PROFIL
  6
CONTINUOUS
 10
-79.001284448708134
 20
-70.500000000181075
 30
0.0
 42
0.5507604245346853
  0
VERTEX
  5
21A6
  8
SAPA_PROFIL
  6
CONTINUOUS
 10
-78.572713020179577
 20
-70.771052371073011
 30
0.0
 42
0.2896898633456226
  0
VERTEX
  5
21A7
  8
SAPA_PROFIL
  6
CONTINUOUS
 10
-78.001284448608232
 20
-69.867544468100093
 30
0.0
  0
VERTEX
  5
21A8
  8
SAPA_PROFIL
  6
CONTINUOUS
 10
-78.001284448619941
 20
-68.870072656000005
 30
0.0
 42
0.0436609428925318
  0
VERTEX
  5
21A9
  8
SAPA_PROFIL
  6
CONTINUOUS
 10
-78.008880572108126
 20
-68.783248567200005
 30
0.0
  0
VERTEX
  5
21AA
  8
SAPA_PROFIL
  6
CONTINUOUS
 10
-78.285726743108114
 20
-67.213175911200111
 30
0.0
 42
0.839099631231541
  0
VERTEX
  5
21AB
  8
SAPA_PROFIL
  6
CONTINUOUS
 10
-79.270534496108127
 20
-67.213175911200011
 30
0.0
  0
VERTEX
  5
21AC
  8
SAPA_PROFIL
  6
CONTINUOUS
 10
-79.477480335608973
 20
-68.386824088804985
 30
0.0
 42
-0.3639702342826299
  0
VERTEX
  5
21AD
  8
SAPA_PROFIL
  6
CONTINUOUS
 10
-79.969884212120121
 20
-68.800000000000125
 30
0.0
  0
VERTEX
  5
21AE
  8
SAPA_PROFIL
  6
CONTINUOUS
 10
-80.798715299908139
 20
-68.800000000000011
 30
0.0
 42
-0.4373282586143349
  0
VERTEX
  5
21AF
  8
SAPA_PROFIL
  6
CONTINUOUS
 10
-81.297184580208125
 20
-68.260905542700129
 30
0.0
  0
VERTEX
  5
21B0
  8
SAPA_PROFIL
  6
CONTINUOUS
 10
-80.710385817209115
 20
-53.787846721223779
 30
0.0
 42
-0.4023941304324869
  0
VERTEX
  5
21B1
  8
SAPA_PROFIL
  6
CONTINUOUS
 10
-80.410632088596174
 20
-53.499999999900183
 30
0.0
  0
VERTEX
  5
21B2
  8
SAPA_PROFIL
  6
CONTINUOUS
 10
-79.665790918335361
 20
-53.49999999989997
 30
0.0
 42
0.2596812337312756
  0
VERTEX
  5
21B3
  8
SAPA_PROFIL
  6
CONTINUOUS
 10
-79.410744701024626
 20
-53.357960207026551
 30
0.0
  0
VERTEX
  5
21B4
  8
SAPA_PROFIL
  6
CONTINUOUS
 10
-78.543669343808205
 20
-51.957960207000149
 30
0.0
 42
0.5877032589047035
  0
VERTEX
  5
21B5
  8
SAPA_PROFIL
  6
CONTINUOUS
 10
-78.798715561108153
 20
-51.499999999900062
 30
0.0
  0
VERTEX
  5
21B6
  8
SAPA_PROFIL
  6
CONTINUOUS
 10
-80.198715294908155
 20
-51.49999999989997
 30
0.0
 42
-0.4142135623730394
  0
VERTEX
  5
21B7
  8
SAPA_PROFIL
  6
CONTINUOUS
 10
-80.498715294908123
 20
-51.199999999899958
 30
0.0
  0
VERTEX
  5
21B8
  8
SAPA_PROFIL
  6
CONTINUOUS
 10
-80.498715294908166
 20
-48.79999999989996
 30
0.0
 42
-0.4142135623730675
  0
VERTEX
  5
21B9
  8
SAPA_PROFIL
  6
CONTINUOUS
 10
-80.198715294908155
 20
-48.49999999989997
 30
0.0
  0
VERTEX
  5
21BA
  8
SAPA_PROFIL
  6
CONTINUOUS
 10
-70.598715295421897
 20
-48.49999999989997
 30
0.0
 42
-0.4142135623730916
  0
VERTEX
  5
21BB
  8
SAPA_PROFIL
  6
CONTINUOUS
 10
-70.298715295421914
 20
-48.79999999989996
 30
0.0
  0
VERTEX
  5
21BC
  8
SAPA_PROFIL
  6
CONTINUOUS
 10
-70.298715295421701
 20
-53.199999999018267
 30
0.0
 42
0.4142135623732857
  0
VERTEX
  5
21BD
  8
SAPA_PROFIL
  6
CONTINUOUS
 10
-69.998715295421704
 20
-53.49999999901847
 30
0.0
  0
SEQEND
  5
21BE
  8
SAPA_PROFIL
  6
CONTINUOUS
  0
POLYLINE
  5
1839
  8
SAPA_PROFIL
 66
     1
 10
0.0
 20
0.0
 30
0.0
 70
     1
  0
VERTEX
  5
21BF
  8
SAPA_PROFIL
 10
-80.798715294908035
 20
-40.999999999899728
 30
0.0
  0
VERTEX
  5
21C0
  8
SAPA_PROFIL
 10
-80.798715294908035
 20
-37.999999999899742
 30
0.0
 42
-0.414213562373088
  0
VERTEX
  5
21C1
  8
SAPA_PROFIL
 10
-80.498715294908081
 20
-37.699999999900008
 30
0.0
  0
VERTEX
  5
21C2
  8
SAPA_PROFIL
 10
-62.498715294908081
 20
-37.699999999900001
 30
0.0
 42
-0.4142135623730812
  0
VERTEX
  5
21C3
  8
SAPA_PROFIL
 10
-62.198715294908133
 20
-37.999999999899728
 30
0.0
  0
VERTEX
  5
21C4
  8
SAPA_PROFIL
 10
-62.198715294908133
 20
-40.999999999899721
 30
0.0
 42
-0.4142135623730951
  0
VERTEX
  5
21C5
  8
SAPA_PROFIL
 10
-62.448715294908119
 20
-41.249999999899728
 30
0.0
  0
VERTEX
  5
21C6
  8
SAPA_PROFIL
 10
-62.498715294908081
 20
-41.249999999899728
 30
0.0
 42
0.4142135623730813
  0
VERTEX
  5
21C7
  8
SAPA_PROFIL
 10
-62.798715294908042
 20
-41.54999999989991
 30
0.0
  0
VERTEX
  5
21C8
  8
SAPA_PROFIL
 10
-62.798715294908042
 20
-42.949999999899987
 30
0.0
 42
0.4142135623730811
  0
VERTEX
  5
21C9
  8
SAPA_PROFIL
 10
-62.498715294908081
 20
-43.249999999899721
 30
0.0
  0
VERTEX
  5
21CA
  8
SAPA_PROFIL
 10
-62.448715294908119
 20
-43.249999999899721
 30
0.0
 42
-0.4142135623730951
  0
VERTEX
  5
21CB
  8
SAPA_PROFIL
 10
-62.198715294908133
 20
-43.499999999899721
 30
0.0
  0
VERTEX
  5
21CC
  8
SAPA_PROFIL
 10
-62.198715294908133
 20
-46.499999999899721
 30
0.0
 42
-0.4142135623730811
  0
VERTEX
  5
21CD
  8
SAPA_PROFIL
 10
-62.498715294908081
 20
-46.799999999899903
 30
0.0
  0
VERTEX
  5
21CE
  8
SAPA_PROFIL
 10
-80.498715294908081
 20
-46.79999999989991
 30
0.0
 42
-0.4142135623730882
  0
VERTEX
  5
21CF
  8
SAPA_PROFIL
 10
-80.798715294908035
 20
-46.499999999899728
 30
0.0
  0
VERTEX
  5
21D0
  8
SAPA_PROFIL
 10
-80.798715294908035
 20
-43.499999999899728
 30
0.0
 42
-0.4142135623730951
  0
VERTEX
  5
21D1
  8
SAPA_PROFIL
 10
-80.548715294908035
 20
-43.249999999899728
 30
0.0
  0
VERTEX
  5
21D2
  8
SAPA_PROFIL
 10
-80.498715294908081
 20
-43.249999999899728
 30
0.0
 42
0.4142135623730783
  0
VERTEX
  5
21D3
  8
SAPA_PROFIL
 10
-80.198715294908126
 20
-42.949999999900001
 30
0.0
  0
VERTEX
  5
21D4
  8
SAPA_PROFIL
 10
-80.198715294908126
 20
-41.549999999899917
 30
0.0
 42
0.4142135623730785
  0
VERTEX
  5
21D5
  8
SAPA_PROFIL
 10
-80.498715294908081
 20
-41.249999999899728
 30
0.0
  0
VERTEX
  5
21D6
  8
SAPA_PROFIL
 10
-80.548715294908035
 20
-41.249999999899728
 30
0.0
 42
-0.4142135623730951
  0
SEQEND
  5
21D7
  8
SAPA_PROFIL
  0
POLYLINE
  5
183A
  8
SAPA_PROFIL
 66
     1
 10
0.0
 20
0.0
 30
0.0
 70
     1
  0
VERTEX
  5
21D8
  8
SAPA_PROFIL
 10
-18.49871529482273
 20
-51.25278640439997
 30
0.0
 42
0.2134217652834387
  0
VERTEX
  5
21D9
  8
SAPA_PROFIL
 10
-18.398715294822601
 20
-51.476393202150078
 30
0.0
 42
-0.7625858545243238
  0
VERTEX
  5
21DA
  8
SAPA_PROFIL
 10
-18.583294497020081
 20
-51.806719283167091
 30
0.0
  0
VERTEX
  5
21DB
  8
SAPA_PROFIL
 10
-18.774677497013801
 20
-51.748645646177998
 30
0.0
  0
VERTEX
  5
21DC
  8
SAPA_PROFIL
 10
-20.66052118887486
 20
-50.664081199206272
 30
0.0
  0
VERTEX
  5
21DD
  8
SAPA_PROFIL
 10
-20.64995982264788
 20
-50.342323470987999
 30
0.0
 42
0.5773502691897449
  0
VERTEX
  5
21DE
  8
SAPA_PROFIL
 10
-20.94411612290272
 20
-50.159369730877842
 30
0.0
  0
VERTEX
  5
21DF
  8
SAPA_PROFIL
 10
-21.228798406134381
 20
-50.31150364198659
 30
0.0
 42
0.2216946626430184
  0
VERTEX
  5
21E0
  8
SAPA_PROFIL
 10
-21.634607311289152
 20
-50.852383473463391
 30
0.0
  0
VERTEX
  5
21E1
  8
SAPA_PROFIL
 10
-22.016053907416861
 20
-52.665613944121631
 30
0.0
 42
0.4769755326981644
  0
VERTEX
  5
21E2
  8
SAPA_PROFIL
 10
-21.7138010829104
 20
-53.037270819067508
 30
0.0
  0
VERTEX
  5
21E3
  8
SAPA_PROFIL
 10
-20.210700002148389
 20
-53.037187211183863
 30
0.0
  0
VERTEX
  5
21E4
  8
SAPA_PROFIL
 10
-20.19618159290129
 20
-52.989341461185369
 30
0.0
 42
-0.4142135623730956
  0
VERTEX
  5
21E5
  8
SAPA_PROFIL
 10
-19.821996637425471
 20
-52.789377416677979
 30
0.0
  0
VERTEX
  5
21E6
  8
SAPA_PROFIL
 10
-18.500879679273702
 20
-53.299999999900017
 30
0.0
  0
VERTEX
  5
21E7
  8
SAPA_PROFIL
 10
-18.49871529482273
 20
-53.299999999900017
 30
0.0
  0
VERTEX
  5
21E8
  8
SAPA_PROFIL
 10
-15.48623096131368
 20
-53.299999999900017
 30
0.0
 42
0.2596812337309464
  0
VERTEX
  5
21E9
  8
SAPA_PROFIL
 10
-15.316200149773721
 20
-53.205306804652032
 30
0.0
  0
VERTEX
  5
21EA
  8
SAPA_PROFIL
 10
-14.54366908070466
 20
-51.957960207028002
 30
0.0
 42
0.5877032589253032
  0
VERTEX
  5
21EB
  8
SAPA_PROFIL
 10
-14.79871529801469
 20
-51.499999999900012
 30
0.0
  0
VERTEX
  5
21EC
  8
SAPA_PROFIL
 10
-16.198715298014651
 20
-51.499999999900012
 30
0.0
 42
-0.4142135623730951
  0
VERTEX
  5
21ED
  8
SAPA_PROFIL
 10
-16.498715298014659
 20
-51.199999999900001
 30
0.0
  0
VERTEX
  5
21EE
  8
SAPA_PROFIL
 10
-16.49871529801473
 20
-48.799999999900017
 30
0.0
 42
-0.4142135623730882
  0
VERTEX
  5
21EF
  8
SAPA_PROFIL
 10
-16.198715298014651
 20
-48.499999999899941
 30
0.0
  0
VERTEX
  5
21F0
  8
SAPA_PROFIL
 10
1.2012847019853261
 20
-48.499999999899998
 30
0.0
 42
-0.4142135623730951
  0
VERTEX
  5
21F1
  8
SAPA_PROFIL
 10
1.501284701985337
 20
-48.79999999990001
 30
0.0
  0
VERTEX
  5
21F2
  8
SAPA_PROFIL
 10
1.50128470198528
 20
-51.199999999900001
 30
0.0
 42
-0.4142135623730951
  0
VERTEX
  5
21F3
  8
SAPA_PROFIL
 10
1.2012847019853261
 20
-51.499999999899948
 30
0.0
  0
VERTEX
  5
21F4
  8
SAPA_PROFIL
 10
-0.1987152980146511
 20
-51.499999999900012
 30
0.0
 42
0.587703258925294
  0
VERTEX
  5
21F5
  8
SAPA_PROFIL
 10
-0.4537615153246471
 20
-51.957960207028002
 30
0.0
  0
VERTEX
  5
21F6
  8
SAPA_PROFIL
 10
0.4426374619172684
 20
-53.405306804652
 30
0.0
 42
0.2596812337299331
  0
VERTEX
  5
21F7
  8
SAPA_PROFIL
 10
0.6126682734573415
 20
-53.499999999899998
 30
0.0
  0
VERTEX
  5
21F8
  8
SAPA_PROFIL
 10
3.3012847051352701
 20
-53.499999999899998
 30
0.0
 42
0.4142135623730951
  0
VERTEX
  5
21F9
  8
SAPA_PROFIL
 10
3.5012847051353151
 20
-53.29999999990001
 30
0.0
  0
VERTEX
  5
21FA
  8
SAPA_PROFIL
 10
3.5012847051353111
 20
-31.199999999901021
 30
0.0
 42
0.4142135623730951
  0
VERTEX
  5
21FB
  8
SAPA_PROFIL
 10
3.3012847051352661
 20
-30.999999999900972
 30
0.0
  0
VERTEX
  5
21FC
  8
SAPA_PROFIL
 10
0.6126682734573379
 20
-30.999999999900972
 30
0.0
 42
0.2596812337298758
  0
VERTEX
  5
21FD
  8
SAPA_PROFIL
 10
0.4426374619172649
 20
-31.09469319514897
 30
0.0
  0
VERTEX
  5
21FE
  8
SAPA_PROFIL
 10
-0.4537615153246506
 20
-32.542039792772982
 30
0.0
 42
0.5877032589253579
  0
VERTEX
  5
21FF
  8
SAPA_PROFIL
 10
-0.1987152980146547
 20
-32.99999999990002
 30
0.0
  0
VERTEX
  5
2200
  8
SAPA_PROFIL
 10
1.2012847019853219
 20
-32.99999999990002
 30
0.0
 42
-0.4142135623730951
  0
VERTEX
  5
2201
  8
SAPA_PROFIL
 10
1.501284701985319
 20
-33.299999999900017
 30
0.0
  0
VERTEX
  5
2202
  8
SAPA_PROFIL
 10
1.5012847019852771
 20
-35.699999999901017
 30
0.0
 42
-0.4142135623720961
  0
VERTEX
  5
2203
  8
SAPA_PROFIL
 10
1.2012847019853219
 20
-35.999999999899948
 30
0.0
  0
VERTEX
  5
2204
  8
SAPA_PROFIL
 10
-16.198715298014651
 20
-35.999999999900012
 30
0.0
 42
-0.4142135623730951
  0
VERTEX
  5
2205
  8
SAPA_PROFIL
 10
-16.49871529801468
 20
-35.699999999899987
 30
0.0
  0
VERTEX
  5
2206
  8
SAPA_PROFIL
 10
-16.498715298014741
 20
-33.299999999900017
 30
0.0
 42
-0.4142135623730882
  0
VERTEX
  5
2207
  8
SAPA_PROFIL
 10
-16.198715298014651
 20
-32.999999999899941
 30
0.0
  0
VERTEX
  5
2208
  8
SAPA_PROFIL
 10
-14.79871529801469
 20
-32.99999999990002
 30
0.0
 42
0.5877032589243584
  0
VERTEX
  5
2209
  8
SAPA_PROFIL
 10
-14.54366908070468
 20
-32.542039792772982
 30
0.0
  0
VERTEX
  5
220A
  8
SAPA_PROFIL
 10
-15.31620014977373
 20
-31.29469319514903
 30
0.0
 42
0.2596812337298608
  0
VERTEX
  5
220B
  8
SAPA_PROFIL
 10
-15.48623096131368
 20
-31.19999999989999
 30
0.0
  0
VERTEX
  5
220C
  8
SAPA_PROFIL
 10
-18.498715294822741
 20
-31.19999999989999
 30
0.0
  0
VERTEX
  5
220D
  8
SAPA_PROFIL
 10
-18.500879679270302
 20
-31.19999999989999
 30
0.0
  0
VERTEX
  5
220E
  8
SAPA_PROFIL
 10
-19.82199663742448
 20
-31.710622583122952
 30
0.0
 42
-0.4142135623730957
  0
VERTEX
  5
220F
  8
SAPA_PROFIL
 10
-20.196181592900292
 20
-31.510658538615559
 30
0.0
  0
VERTEX
  5
2210
  8
SAPA_PROFIL
 10
-20.210700002147401
 20
-31.462812788617072
 30
0.0
  0
VERTEX
  5
2211
  8
SAPA_PROFIL
 10
-21.713801082909409
 20
-31.46272918073343
 30
0.0
 42
0.4769755326981643
  0
VERTEX
  5
2212
  8
SAPA_PROFIL
 10
-22.01605390741587
 20
-31.834386055679289
 30
0.0
  0
VERTEX
  5
2213
  8
SAPA_PROFIL
 10
-21.634607311288139
 20
-33.647616526337551
 30
0.0
 42
0.2216946626430184
  0
VERTEX
  5
2214
  8
SAPA_PROFIL
 10
-21.228798406133361
 20
-34.18849635781433
 30
0.0
  0
VERTEX
  5
2215
  8
SAPA_PROFIL
 10
-20.944116122901711
 20
-34.340630268923093
 30
0.0
 42
0.5773502691897449
  0
VERTEX
  5
2216
  8
SAPA_PROFIL
 10
-20.649959822646899
 20
-34.157676528812907
 30
0.0
  0
VERTEX
  5
2217
  8
SAPA_PROFIL
 10
-20.660521188873869
 20
-33.835918800594669
 30
0.0
  0
VERTEX
  5
2218
  8
SAPA_PROFIL
 10
-18.77467749701281
 20
-32.751354353622929
 30
0.0
  0
VERTEX
  5
2219
  8
SAPA_PROFIL
 10
-18.583294497019089
 20
-32.693280716633843
 30
0.0
 42
-0.7625858545243238
  0
VERTEX
  5
221A
  8
SAPA_PROFIL
 10
-18.398715294821589
 20
-33.023606797650828
 30
0.0
 42
0.2134217652834387
  0
VERTEX
  5
221B
  8
SAPA_PROFIL
 10
-18.498715294821729
 20
-33.247213595400972
 30
0.0
  0
VERTEX
  5
221C
  8
SAPA_PROFIL
 10
-18.498715294822741
 20
-37.099999999899978
 30
0.0
 42
-0.4142135623730881
  0
VERTEX
  5
221D
  8
SAPA_PROFIL
 10
-18.798715294822699
 20
-37.399999999899933
 30
0.0
  0
VERTEX
  5
221E
  8
SAPA_PROFIL
 10
-19.09871529482265
 20
-37.399999999901013
 30
0.0
  0
VERTEX
  5
221F
  8
SAPA_PROFIL
 10
-20.69871529482165
 20
-36.476239569196977
 30
0.0
 42
0.5773502691910457
  0
VERTEX
  5
2220
  8
SAPA_PROFIL
 10
-20.998715294822741
 20
-36.649444649953978
 30
0.0
  0
VERTEX
  5
2221
  8
SAPA_PROFIL
 10
-20.998715294822741
 20
-38.035085296009022
 30
0.0
 42
0.2679491924309594
  0
VERTEX
  5
2222
  8
SAPA_PROFIL
 10
-20.498715294822741
 20
-38.90111069979401
 30
0.0
  0
VERTEX
  5
2223
  8
SAPA_PROFIL
 10
-18.748715294821729
 20
-39.911473670875978
 30
0.0
 42
-0.267949192416605
  0
VERTEX
  5
2224
  8
SAPA_PROFIL
 10
-18.498715294821881
 20
-40.344486372741017
 30
0.0
  0
VERTEX
  5
2225
  8
SAPA_PROFIL
 10
-18.498715294821729
 20
-44.155513627059968
 30
0.0
 42
-0.2679491924166034
  0
VERTEX
  5
2226
  8
SAPA_PROFIL
 10
-18.74871529482164
 20
-44.588526328925148
 30
0.0
  0
VERTEX
  5
2227
  8
SAPA_PROFIL
 10
-20.498715294822741
 20
-45.598889300006981
 30
0.0
 42
0.2679491924309617
  0
VERTEX
  5
2228
  8
SAPA_PROFIL
 10
-20.99871529482273
 20
-46.464914703791969
 30
0.0
  0
VERTEX
  5
2229
  8
SAPA_PROFIL
 10
-20.99871529482273
 20
-47.850555349847014
 30
0.0
 42
0.5773502691910514
  0
VERTEX
  5
222A
  8
SAPA_PROFIL
 10
-20.698715294821639
 20
-48.023760430604
 30
0.0
  0
VERTEX
  5
222B
  8
SAPA_PROFIL
 10
-19.09871529482264
 20
-47.099999999899978
 30
0.0
  0
VERTEX
  5
222C
  8
SAPA_PROFIL
 10
-18.798715294822699
 20
-47.099999999899978
 30
0.0
 42
-0.4142135623730951
  0
VERTEX
  5
222D
  8
SAPA_PROFIL
 10
-18.498715294822691
 20
-47.39999999989999
 30
0.0
  0
SEQEND
  5
222E
  8
SAPA_PROFIL
  0
POLYLINE
  5
183B
  8
SAPA_PROFIL
 66
     1
 10
0.0
 20
0.0
 30
0.0
 70
     1
  0
VERTEX
  5
222F
  8
SAPA_PROFIL
 10
1.801284705302272
 20
-37.999988381304981
 30
0.0
  0
VERTEX
  5
2230
  8
SAPA_PROFIL
 10
1.801284705558295
 20
-42.54999999989797
 30
0.0
 42
-0.4142135623895444
  0
VERTEX
  5
2231
  8
SAPA_PROFIL
 10
1.551284705558295
 20
-42.799999999912011
 30
0.0
  0
VERTEX
  5
2232
  8
SAPA_PROFIL
 10
1.401284705838328
 20
-42.799999999911961
 30
0.0
 42
0.4142135622515363
  0
VERTEX
  5
2233
  8
SAPA_PROFIL
 10
1.201284705838283
 20
-42.999999999829001
 30
0.0
  0
VERTEX
  5
2234
  8
SAPA_PROFIL
 10
1.2012847051752611
 20
-44.599999999828967
 30
0.0
 42
0.4142135624946333
  0
VERTEX
  5
2235
  8
SAPA_PROFIL
 10
1.4012847051753099
 20
-44.799999999912011
 30
0.0
  0
VERTEX
  5
2236
  8
SAPA_PROFIL
 10
1.5512847056983601
 20
-44.799999999912011
 30
0.0
 42
-0.4142135623577114
  0
VERTEX
  5
2237
  8
SAPA_PROFIL
 10
1.80128470569927
 20
-45.04999999989797
 30
0.0
  0
VERTEX
  5
2238
  8
SAPA_PROFIL
 10
1.801284705780329
 20
-46.499999999883009
 30
0.0
 42
-0.4142135623896886
  0
VERTEX
  5
2239
  8
SAPA_PROFIL
 10
1.5012847057802601
 20
-46.79999999990001
 30
0.0
  0
VERTEX
  5
223A
  8
SAPA_PROFIL
 10
-16.498715294343661
 20
-46.799999999900017
 30
0.0
 42
-0.4142135623565153
  0
VERTEX
  5
223B
  8
SAPA_PROFIL
 10
-16.798715294343729
 20
-46.499999999916987
 30
0.0
  0
VERTEX
  5
223C
  8
SAPA_PROFIL
 10
-16.798715294425701
 20
-45.049999999926001
 30
0.0
 42
-0.4142135623894778
  0
VERTEX
  5
223D
  8
SAPA_PROFIL
 10
-16.548715294425691
 20
-44.799999999912018
 30
0.0
  0
VERTEX
  5
223E
  8
SAPA_PROFIL
 10
-16.398715293738711
 20
-44.799999999912018
 30
0.0
 42
0.4142135624946436
  0
VERTEX
  5
223F
  8
SAPA_PROFIL
 10
-16.198715293738658
 20
-44.599999999828981
 30
0.0
  0
VERTEX
  5
2240
  8
SAPA_PROFIL
 10
-16.198715294402671
 20
-42.999999999829001
 30
0.0
 42
0.4142135622515466
  0
VERTEX
  5
2241
  8
SAPA_PROFIL
 10
-16.398715294402649
 20
-42.799999999912011
 30
0.0
  0
VERTEX
  5
2242
  8
SAPA_PROFIL
 10
-16.548715294566669
 20
-42.799999999912011
 30
0.0
 42
-0.4142135623567124
  0
VERTEX
  5
2243
  8
SAPA_PROFIL
 10
-16.798715294566669
 20
-42.549999999926001
 30
0.0
  0
VERTEX
  5
2244
  8
SAPA_PROFIL
 10
-16.798715294822699
 20
-37.999999999917002
 30
0.0
 42
-0.4142135623896818
  0
VERTEX
  5
2245
  8
SAPA_PROFIL
 10
-16.498715294822741
 20
-37.69999999989998
 30
0.0
  0
VERTEX
  5
2246
  8
SAPA_PROFIL
 10
1.501284705527304
 20
-37.69999999989998
 30
0.0
 42
-0.414202219059594
  0
SEQEND
  5
2247
  8
SAPA_PROFIL
  0
POLYLINE
  5
183C
  8
SAPA_PROFIL
 62
     4
 66
     1
 10
0.0
 20
0.0
 30
0.0
  0
VERTEX
  5
2248
  8
SAPA_PROFIL
 62
     4
 10
-30.449386172468309
 20
-50.59442883578361
 30
0.0
 42
0.5571646428658034
  0
VERTEX
  5
2249
  8
SAPA_PROFIL
 62
     4
 10
-30.986346676605141
 20
-49.726709921628057
 30
0.0
  0
VERTEX
  5
224A
  8
SAPA_PROFIL
 62
     4
 10
-48.011083913126342
 20
-49.726709921628533
 30
0.0
 42
0.5571645048035741
  0
VERTEX
  5
224B
  8
SAPA_PROFIL
 62
     4
 10
-48.548044530087388
 20
-50.594428609494692
 30
0.0
  0
VERTEX
  5
224C
  8
SAPA_PROFIL
 62
     4
 10
-47.717337442540703
 20
-52.260569265562722
 30
0.0
 42
0.284385813979063
  0
VERTEX
  5
224D
  8
SAPA_PROFIL
 62
     4
 10
-47.44885713406034
 20
-52.426709921630163
 30
0.0
  0
VERTEX
  5
224E
  8
SAPA_PROFIL
 62
     4
 10
-31.54857345567104
 20
-52.426709921630163
 30
0.0
 42
0.2843858139786238
  0
VERTEX
  5
224F
  8
SAPA_PROFIL
 62
     4
 10
-31.280093147190751
 20
-52.260569265563227
 30
0.0
  0
VERTEX
  5
2250
  8
SAPA_PROFIL
 62
     4
 10
-30.44938605964359
 20
-50.594428609493882
 30
0.0
  0
SEQEND
  5
2251
  8
SAPA_PROFIL
 62
     4
  0
POLYLINE
  5
183D
  8
SAPA_PROFIL
 62
     4
 66
     1
 10
0.0
 20
0.0
 30
0.0
 70
     1
  0
VERTEX
  5
2252
  8
SAPA_PROFIL
 62
     4
 10
-53.916326479532977
 20
-52.783541436127727
 30
0.0
  0
VERTEX
  5
2253
  8
SAPA_PROFIL
 62
     4
 10
-54.180349757908992
 20
-53.190101632131878
 30
0.0
 42
-0.2539676464751066
  0
VERTEX
  5
2254
  8
SAPA_PROFIL
 62
     4
 10
-54.431950928293702
 20
-53.32670992162798
 30
0.0
  0
VERTEX
  5
2255
  8
SAPA_PROFIL
 62
     4
 10
-55.813450513499049
 20
-53.32670992162798
 30
0.0
 42
-0.3152987888790479
  0
VERTEX
  5
2256
  8
SAPA_PROFIL
 62
     4
 10
-56.283296823891362
 20
-52.99771999328982
 30
0.0
  0
VERTEX
  5
2257
  8
SAPA_PROFIL
 62
     4
 10
-57.178965764799969
 20
-50.536889802838552
 30
0.0
 42
0.2694959974287434
  0
VERTEX
  5
2258
  8
SAPA_PROFIL
 62
     4
 10
-57.410484811201322
 20
-50.343757828494653
 30
0.0
 42
0.0612686379508233
  0
VERTEX
  5
2259
  8
SAPA_PROFIL
 62
     4
 10
-57.703160244054601
 20
-50.330174457864132
 30
0.0
  0
VERTEX
  5
225A
  8
SAPA_PROFIL
 62
     4
 10
-58.052578421362867
 20
-50.128437779135311
 30
0.0
 42
0.5773502691891679
  0
VERTEX
  5
225B
  8
SAPA_PROFIL
 62
     4
 10
-58.367578421362452
 20
-50.310303113929884
 30
0.0
  0
VERTEX
  5
225C
  8
SAPA_PROFIL
 62
     4
 10
-58.367578421362687
 20
-50.57741764205619
 30
0.0
  0
VERTEX
  5
225D
  8
SAPA_PROFIL
 62
     4
 10
-59.766106121996948
 20
-51.386101103364503
 30
0.0
 42
-0.1318219888653519
  0
VERTEX
  5
225E
  8
SAPA_PROFIL
 62
     4
 10
-59.916279224469292
 20
-51.426393499901899
 30
0.0
  0
VERTEX
  5
225F
  8
SAPA_PROFIL
 62
     4
 10
-60.098715294906071
 20
-51.426393499895539
 30
0.0
 42
-0.4142135623724291
  0
VERTEX
  5
2260
  8
SAPA_PROFIL
 62
     4
 10
-60.498715294906617
 20
-51.02639349989591
 30
0.0
  0
VERTEX
  5
2261
  8
SAPA_PROFIL
 62
     4
 10
-60.498715294905253
 20
-47.626393499894903
 30
0.0
 42
-0.4142135623744271
  0
VERTEX
  5
2262
  8
SAPA_PROFIL
 62
     4
 10
-60.098715294906071
 20
-47.226393499893902
 30
0.0
  0
VERTEX
  5
2263
  8
SAPA_PROFIL
 62
     4
 10
-59.919100052634768
 20
-47.226393499893263
 30
0.0
 42
-0.1316524975874005
  0
VERTEX
  5
2264
  8
SAPA_PROFIL
 62
     4
 10
-59.769100052637953
 20
-47.26658587875886
 30
0.0
  0
VERTEX
  5
2265
  8
SAPA_PROFIL
 62
     4
 10
-58.164962155635699
 20
-48.192735325411391
 30
0.0
 42
0.1316524975875904
  0
VERTEX
  5
2266
  8
SAPA_PROFIL
 62
     4
 10
-57.664962155633987
 20
-48.326709921626161
 30
0.0
  0
VERTEX
  5
2267
  8
SAPA_PROFIL
 62
     4
 10
-57.248715294906617
 20
-48.326709921626161
 30
0.0
 42
0.4142135623730951
  0
VERTEX
  5
2268
  8
SAPA_PROFIL
 62
     4
 10
-56.24871529490661
 20
-47.326709921626161
 30
0.0
  0
VERTEX
  5
2269
  8
SAPA_PROFIL
 62
     4
 10
-56.24871529490661
 20
-44.32670992162889
 30
0.0
 42
-0.9999996830128083
  0
VERTEX
  5
226A
  8
SAPA_PROFIL
 62
     4
 10
-55.248715294906617
 20
-44.326709921627071
 30
0.0
  0
VERTEX
  5
226B
  8
SAPA_PROFIL
 62
     4
 10
-55.248715294906617
 20
-47.326709921627071
 30
0.0
 42
0.4142135623730951
  0
VERTEX
  5
226C
  8
SAPA_PROFIL
 62
     4
 10
-54.248715294906617
 20
-48.326709921627071
 30
0.0
  0
VERTEX
  5
226D
  8
SAPA_PROFIL
 62
     4
 10
-24.748715294822041
 20
-48.326709921627057
 30
0.0
 42
0.4142135623730951
  0
VERTEX
  5
226E
  8
SAPA_PROFIL
 62
     4
 10
-23.748715294822041
 20
-47.326709921627057
 30
0.0
  0
VERTEX
  5
226F
  8
SAPA_PROFIL
 62
     4
 10
-23.748715294822041
 20
-44.326709921628868
 30
0.0
 42
-0.9999999999999998
  0
VERTEX
  5
2270
  8
SAPA_PROFIL
 62
     4
 10
-22.748715294822031
 20
-44.326709921628868
 30
0.0
  0
VERTEX
  5
2271
  8
SAPA_PROFIL
 62
     4
 10
-22.748715294822031
 20
-47.326709921627057
 30
0.0
 42
0.4142135623736278
  0
VERTEX
  5
2272
  8
SAPA_PROFIL
 62
     4
 10
-21.748715294822031
 20
-48.326709921627057
 30
0.0
  0
VERTEX
  5
2273
  8
SAPA_PROFIL
 62
     4
 10
-21.332468434095571
 20
-48.326709921627057
 30
0.0
 42
0.1316524975874375
  0
VERTEX
  5
2274
  8
SAPA_PROFIL
 62
     4
 10
-20.832468434095379
 20
-48.192735325411022
 30
0.0
  0
VERTEX
  5
2275
  8
SAPA_PROFIL
 62
     4
 10
-19.228330537093431
 20
-47.266585878758839
 30
0.0
 42
-0.1316524975874
  0
VERTEX
  5
2276
  8
SAPA_PROFIL
 62
     4
 10
-19.07833053709388
 20
-47.226393499893248
 30
0.0
  0
VERTEX
  5
2277
  8
SAPA_PROFIL
 62
     4
 10
-18.89871529482258
 20
-47.226393499893881
 30
0.0
 42
-0.4142135623744271
  0
VERTEX
  5
2278
  8
SAPA_PROFIL
 62
     4
 10
-18.498715294823398
 20
-47.626393499894888
 30
0.0
  0
VERTEX
  5
2279
  8
SAPA_PROFIL
 62
     4
 10
-18.498715294822031
 20
-51.026393499895889
 30
0.0
 42
-0.4142135623724291
  0
VERTEX
  5
227A
  8
SAPA_PROFIL
 62
     4
 10
-18.89871529482258
 20
-51.426393499895518
 30
0.0
  0
VERTEX
  5
227B
  8
SAPA_PROFIL
 62
     4
 10
-19.081151365259359
 20
-51.426393499901891
 30
0.0
 42
-0.1318219888653524
  0
VERTEX
  5
227C
  8
SAPA_PROFIL
 62
     4
 10
-19.231324467731699
 20
-51.386101103364503
 30
0.0
  0
VERTEX
  5
227D
  8
SAPA_PROFIL
 62
     4
 10
-20.629852168211361
 20
-50.577417642140169
 30
0.0
  0
VERTEX
  5
227E
  8
SAPA_PROFIL
 62
     4
 10
-20.629852168211361
 20
-50.310303113927127
 30
0.0
 42
0.577350269189159
  0
VERTEX
  5
227F
  8
SAPA_PROFIL
 62
     4
 10
-20.944852168210961
 20
-50.128437779132568
 30
0.0
  0
VERTEX
  5
2280
  8
SAPA_PROFIL
 62
     4
 10
-21.29427034542962
 20
-50.330174457809662
 30
0.0
 42
0.0612687673629489
  0
VERTEX
  5
2281
  8
SAPA_PROFIL
 62
     4
 10
-21.586945778529831
 20
-50.343757828495868
 30
0.0
 42
0.2694959974285039
  0
VERTEX
  5
2282
  8
SAPA_PROFIL
 62
     4
 10
-21.818464824930349
 20
-50.536889802839831
 30
0.0
  0
VERTEX
  5
2283
  8
SAPA_PROFIL
 62
     4
 10
-22.714133765840021
 20
-52.997719993292989
 30
0.0
 42
-0.3152987888784035
  0
VERTEX
  5
2284
  8
SAPA_PROFIL
 62
     4
 10
-23.18398007623324
 20
-53.326709921629572
 30
0.0
  0
VERTEX
  5
2285
  8
SAPA_PROFIL
 62
     4
 10
-24.565479661437681
 20
-53.326709921627973
 30
0.0
 42
-0.2539676464741841
  0
VERTEX
  5
2286
  8
SAPA_PROFIL
 62
     4
 10
-24.817080831821759
 20
-53.190101632132702
 30
0.0
  0
VERTEX
  5
2287
  8
SAPA_PROFIL
 62
     4
 10
-25.0811041101984
 20
-52.783541436127727
 30
0.0
 42
-0.5862177598324623
  0
VERTEX
  5
2288
  8
SAPA_PROFIL
 62
     4
 10
-24.825362294960051
 20
-52.32670992163122
 30
0.0
  0
VERTEX
  5
2289
  8
SAPA_PROFIL
 62
     4
 10
-23.884187614450241
 20
-52.326709921638887
 30
0.0
 42
0.3152987888813165
  0
VERTEX
  5
228A
  8
SAPA_PROFIL
 62
     4
 10
-23.414341304052481
 20
-51.997719993302127
 30
0.0
  0
VERTEX
  5
228B
  8
SAPA_PROFIL
 62
     4
 10
-22.977577022928529
 20
-50.79771999329089
 30
0.0
 42
0.5205670505515651
  0
VERTEX
  5
228C
  8
SAPA_PROFIL
 62
     4
 10
-23.447423333321751
 20
-50.126709921628148
 30
0.0
  0
VERTEX
  5
228D
  8
SAPA_PROFIL
 62
     4
 10
-28.463864273990598
 20
-50.126709921628127
 30
0.0
 42
0.3702522326300203
  0
VERTEX
  5
228E
  8
SAPA_PROFIL
 62
     4
 10
-28.760387635783928
 20
-50.381169874293832
 30
0.0
 42
0.0982365330332397
  0
VERTEX
  5
228F
  8
SAPA_PROFIL
 62
     4
 10
-28.850840393994869
 20
-52.06885664928884
 30
0.0
 42
0.3735060174783164
  0
VERTEX
  5
2290
  8
SAPA_PROFIL
 62
     4
 10
-28.55381572608389
 20
-52.326709921628868
 30
0.0
  0
VERTEX
  5
2291
  8
SAPA_PROFIL
 62
     4
 10
-28.125362294961239
 20
-52.326709921629792
 30
0.0
 42
-0.5920056181162531
  0
VERTEX
  5
2292
  8
SAPA_PROFIL
 62
     4
 10
-27.872353538643839
 20
-52.787913424157722
 30
0.0
  0
VERTEX
  5
2293
  8
SAPA_PROFIL
 62
     4
 10
-28.13353761479954
 20
-53.190101632136013
 30
0.0
 42
-0.2539676464746725
  0
VERTEX
  5
2294
  8
SAPA_PROFIL
 62
     4
 10
-28.385138785183301
 20
-53.32670992163137
 30
0.0
  0
VERTEX
  5
2295
  8
SAPA_PROFIL
 62
     4
 10
-50.612291804548988
 20
-53.326709921629799
 30
0.0
 42
-0.2539676464741819
  0
VERTEX
  5
2296
  8
SAPA_PROFIL
 62
     4
 10
-50.863892974931836
 20
-53.19010163213602
 30
0.0
  0
VERTEX
  5
2297
  8
SAPA_PROFIL
 62
     4
 10
-51.125077051085661
 20
-52.787913424157679
 30
0.0
 42
-0.5920055144124249
  0
VERTEX
  5
2298
  8
SAPA_PROFIL
 62
     4
 10
-50.872068294770152
 20
-52.326709921629792
 30
0.0
  0
VERTEX
  5
2299
  8
SAPA_PROFIL
 62
     4
 10
-50.443614817479919
 20
-52.326709946904799
 30
0.0
 42
0.3735060174775405
  0
VERTEX
  5
229A
  8
SAPA_PROFIL
 62
     4
 10
-50.146590149570237
 20
-52.068856674564721
 30
0.0
 42
0.0355900683670349
  0
VERTEX
  5
229B
  8
SAPA_PROFIL
 62
     4
 10
-50.102696585537991
 20
-51.45298308776492
 30
0.0
 42
0.0624282003873116
  0
VERTEX
  5
229C
  8
SAPA_PROFIL
 62
     4
 10
-50.237042907780918
 20
-50.381169899569791
 30
0.0
 42
0.3702522326309292
  0
VERTEX
  5
229D
  8
SAPA_PROFIL
 62
     4
 10
-50.533566269574301
 20
-50.126709946904079
 30
0.0
  0
VERTEX
  5
229E
  8
SAPA_PROFIL
 62
     4
 10
-55.550007256407802
 20
-50.126709921627942
 30
0.0
 42
0.5205670505515692
  0
VERTEX
  5
229F
  8
SAPA_PROFIL
 62
     4
 10
-56.019853566801032
 20
-50.797719993290912
 30
0.0
  0
VERTEX
  5
22A0
  8
SAPA_PROFIL
 62
     4
 10
-55.583089285676081
 20
-51.99771999330035
 30
0.0
 42
0.3152987888807539
  0
VERTEX
  5
22A1
  8
SAPA_PROFIL
 62
     4
 10
-55.11324297528023
 20
-52.326709921637978
 30
0.0
  0
VERTEX
  5
22A2
  8
SAPA_PROFIL
 62
     4
 10
-54.172068294771137
 20
-52.326709921631164
 30
0.0
 42
-0.5862175119221242
  0
VERTEX
  5
22A3
  8
SAPA_PROFIL
 62
     4
 10
-53.916326363789182
 20
-52.783541247386303
 30
0.0
 42
0.0000002084758573
  0
SEQEND
  5
22A4
  8
SAPA_PROFIL
 62
     4
  0
POLYLINE
  5
183E
  8
SAPA_PROFIL
 62
     4
 66
     1
 10
0.0
 20
0.0
 30
0.0
  0
VERTEX
  5
22A5
  8
SAPA_PROFIL
 62
     4
 10
-30.449386172468301
 20
-33.905571133529143
 30
0.0
 42
-0.5571646428658034
  0
VERTEX
  5
22A6
  8
SAPA_PROFIL
 62
     4
 10
-30.98634667660513
 20
-34.773290047684689
 30
0.0
  0
VERTEX
  5
22A7
  8
SAPA_PROFIL
 62
     4
 10
-48.011083913126328
 20
-34.773290047684227
 30
0.0
 42
-0.5571645048035741
  0
VERTEX
  5
22A8
  8
SAPA_PROFIL
 62
     4
 10
-48.548044530087381
 20
-33.905571359818062
 30
0.0
  0
VERTEX
  5
22A9
  8
SAPA_PROFIL
 62
     4
 10
-47.717337442540689
 20
-32.239430703750031
 30
0.0
 42
-0.284385813979063
  0
VERTEX
  5
22AA
  8
SAPA_PROFIL
 62
     4
 10
-47.448857134060333
 20
-32.07329004768259
 30
0.0
  0
VERTEX
  5
22AB
  8
SAPA_PROFIL
 62
     4
 10
-31.548573455671029
 20
-32.073290047682598
 30
0.0
 42
-0.2843858139786238
  0
VERTEX
  5
22AC
  8
SAPA_PROFIL
 62
     4
 10
-31.28009314719074
 20
-32.239430703749527
 30
0.0
  0
VERTEX
  5
22AD
  8
SAPA_PROFIL
 62
     4
 10
-30.449386059643579
 20
-33.905571359818872
 30
0.0
  0
SEQEND
  5
22AE
  8
SAPA_PROFIL
 62
     4
  0
POLYLINE
  5
183F
  8
SAPA_PROFIL
 62
     4
 66
     1
 10
0.0
 20
0.0
 30
0.0
 70
     1
  0
VERTEX
  5
22AF
  8
SAPA_PROFIL
 62
     4
 10
-53.91632647953297
 20
-31.716458533185019
 30
0.0
  0
VERTEX
  5
22B0
  8
SAPA_PROFIL
 62
     4
 10
-54.180349757908992
 20
-31.309898337180879
 30
0.0
 42
0.2539676464751066
  0
VERTEX
  5
22B1
  8
SAPA_PROFIL
 62
     4
 10
-54.431950928293702
 20
-31.17329004768477
 30
0.0
  0
VERTEX
  5
22B2
  8
SAPA_PROFIL
 62
     4
 10
-55.813450513499042
 20
-31.17329004768477
 30
0.0
 42
0.3152987888790479
  0
VERTEX
  5
22B3
  8
SAPA_PROFIL
 62
     4
 10
-56.283296823891362
 20
-31.50227997602293
 30
0.0
  0
VERTEX
  5
22B4
  8
SAPA_PROFIL
 62
     4
 10
-57.178965764799962
 20
-33.963110166474209
 30
0.0
 42
-0.2694959974287434
  0
VERTEX
  5
22B5
  8
SAPA_PROFIL
 62
     4
 10
-57.410484811201307
 20
-34.156242140818101
 30
0.0
 42
-0.0612686379508233
  0
VERTEX
  5
22B6
  8
SAPA_PROFIL
 62
     4
 10
-57.703160244054601
 20
-34.169825511448622
 30
0.0
  0
VERTEX
  5
22B7
  8
SAPA_PROFIL
 62
     4
 10
-58.05257842136286
 20
-34.371562190177443
 30
0.0
 42
-0.5773502691891679
  0
VERTEX
  5
22B8
  8
SAPA_PROFIL
 62
     4
 10
-58.367578421362438
 20
-34.189696855382877
 30
0.0
  0
VERTEX
  5
22B9
  8
SAPA_PROFIL
 62
     4
 10
-58.36757842136268
 20
-33.922582327256563
 30
0.0
  0
VERTEX
  5
22BA
  8
SAPA_PROFIL
 62
     4
 10
-59.766106121996941
 20
-33.113898865948237
 30
0.0
 42
0.1318219888653519
  0
VERTEX
  5
22BB
  8
SAPA_PROFIL
 62
     4
 10
-59.916279224469278
 20
-33.073606469410848
 30
0.0
  0
VERTEX
  5
22BC
  8
SAPA_PROFIL
 62
     4
 10
-60.098715294906057
 20
-33.073606469417221
 30
0.0
 42
0.4142135623724291
  0
VERTEX
  5
22BD
  8
SAPA_PROFIL
 62
     4
 10
-60.49871529490661
 20
-33.47360646941685
 30
0.0
  0
VERTEX
  5
22BE
  8
SAPA_PROFIL
 62
     4
 10
-60.498715294905239
 20
-36.873606469417851
 30
0.0
 42
0.4142135623744271
  0
VERTEX
  5
22BF
  8
SAPA_PROFIL
 62
     4
 10
-60.098715294906057
 20
-37.273606469418851
 30
0.0
  0
VERTEX
  5
22C0
  8
SAPA_PROFIL
 62
     4
 10
-59.919100052634761
 20
-37.273606469419491
 30
0.0
 42
0.1316524975874005
  0
VERTEX
  5
22C1
  8
SAPA_PROFIL
 62
     4
 10
-59.769100052637938
 20
-37.2334140905539
 30
0.0
  0
VERTEX
  5
22C2
  8
SAPA_PROFIL
 62
     4
 10
-58.164962155635692
 20
-36.307264643901362
 30
0.0
 42
-0.1316524975875904
  0
VERTEX
  5
22C3
  8
SAPA_PROFIL
 62
     4
 10
-57.66496215563398
 20
-36.173290047686592
 30
0.0
  0
VERTEX
  5
22C4
  8
SAPA_PROFIL
 62
     4
 10
-57.24871529490661
 20
-36.173290047686592
 30
0.0
 42
-0.4142135623730951
  0
VERTEX
  5
22C5
  8
SAPA_PROFIL
 62
     4
 10
-56.24871529490661
 20
-37.173290047686599
 30
0.0
  0
VERTEX
  5
22C6
  8
SAPA_PROFIL
 62
     4
 10
-56.24871529490661
 20
-40.173290047683857
 30
0.0
 42
0.9999996830128083
  0
VERTEX
  5
22C7
  8
SAPA_PROFIL
 62
     4
 10
-55.24871529490661
 20
-40.173290047685683
 30
0.0
  0
VERTEX
  5
22C8
  8
SAPA_PROFIL
 62
     4
 10
-55.24871529490661
 20
-37.173290047685683
 30
0.0
 42
-0.4142135623730951
  0
VERTEX
  5
22C9
  8
SAPA_PROFIL
 62
     4
 10
-54.24871529490661
 20
-36.173290047685683
 30
0.0
  0
VERTEX
  5
22CA
  8
SAPA_PROFIL
 62
     4
 10
-24.748715294822031
 20
-36.17329004768569
 30
0.0
 42
-0.4142135623730951
  0
VERTEX
  5
22CB
  8
SAPA_PROFIL
 62
     4
 10
-23.748715294822031
 20
-37.17329004768569
 30
0.0
  0
VERTEX
  5
22CC
  8
SAPA_PROFIL
 62
     4
 10
-23.748715294822031
 20
-40.173290047683871
 30
0.0
 42
0.9999999999999998
  0
VERTEX
  5
22CD
  8
SAPA_PROFIL
 62
     4
 10
-22.748715294822031
 20
-40.173290047683871
 30
0.0
  0
VERTEX
  5
22CE
  8
SAPA_PROFIL
 62
     4
 10
-22.748715294822031
 20
-37.17329004768569
 30
0.0
 42
-0.4142135623736278
  0
VERTEX
  5
22CF
  8
SAPA_PROFIL
 62
     4
 10
-21.748715294822031
 20
-36.17329004768569
 30
0.0
  0
VERTEX
  5
22D0
  8
SAPA_PROFIL
 62
     4
 10
-21.332468434095571
 20
-36.17329004768569
 30
0.0
 42
-0.1316524975874375
  0
VERTEX
  5
22D1
  8
SAPA_PROFIL
 62
     4
 10
-20.832468434095372
 20
-36.307264643901732
 30
0.0
  0
VERTEX
  5
22D2
  8
SAPA_PROFIL
 62
     4
 10
-19.22833053709342
 20
-37.2334140905539
 30
0.0
 42
0.1316524975874
  0
VERTEX
  5
22D3
  8
SAPA_PROFIL
 62
     4
 10
-19.078330537093869
 20
-37.273606469419491
 30
0.0
  0
VERTEX
  5
22D4
  8
SAPA_PROFIL
 62
     4
 10
-18.898715294822569
 20
-37.273606469418858
 30
0.0
 42
0.4142135623744271
  0
VERTEX
  5
22D5
  8
SAPA_PROFIL
 62
     4
 10
-18.498715294823391
 20
-36.873606469417858
 30
0.0
  0
VERTEX
  5
22D6
  8
SAPA_PROFIL
 62
     4
 10
-18.498715294822031
 20
-33.473606469416858
 30
0.0
 42
0.4142135623724291
  0
VERTEX
  5
22D7
  8
SAPA_PROFIL
 62
     4
 10
-18.898715294822569
 20
-33.073606469417221
 30
0.0
  0
VERTEX
  5
22D8
  8
SAPA_PROFIL
 62
     4
 10
-19.081151365259348
 20
-33.073606469410862
 30
0.0
 42
0.1318219888653524
  0
VERTEX
  5
22D9
  8
SAPA_PROFIL
 62
     4
 10
-19.231324467731689
 20
-33.113898865948251
 30
0.0
  0
VERTEX
  5
22DA
  8
SAPA_PROFIL
 62
     4
 10
-20.62985216821135
 20
-33.922582327172591
 30
0.0
  0
VERTEX
  5
22DB
  8
SAPA_PROFIL
 62
     4
 10
-20.62985216821135
 20
-34.18969685538562
 30
0.0
 42
-0.577350269189159
  0
VERTEX
  5
22DC
  8
SAPA_PROFIL
 62
     4
 10
-20.94485216821095
 20
-34.371562190180192
 30
0.0
  0
VERTEX
  5
22DD
  8
SAPA_PROFIL
 62
     4
 10
-21.294270345429609
 20
-34.169825511503078
 30
0.0
 42
-0.0612687673629489
  0
VERTEX
  5
22DE
  8
SAPA_PROFIL
 62
     4
 10
-21.58694577852982
 20
-34.156242140816872
 30
0.0
 42
-0.2694959974285039
  0
VERTEX
  5
22DF
  8
SAPA_PROFIL
 62
     4
 10
-21.818464824930349
 20
-33.963110166472923
 30
0.0
  0
VERTEX
  5
22E0
  8
SAPA_PROFIL
 62
     4
 10
-22.71413376584001
 20
-31.502279976019761
 30
0.0
 42
0.3152987888784035
  0
VERTEX
  5
22E1
  8
SAPA_PROFIL
 62
     4
 10
-23.18398007623323
 20
-31.173290047683189
 30
0.0
  0
VERTEX
  5
22E2
  8
SAPA_PROFIL
 62
     4
 10
-24.565479661437671
 20
-31.17329004768478
 30
0.0
 42
0.2539676464741841
  0
VERTEX
  5
22E3
  8
SAPA_PROFIL
 62
     4
 10
-24.817080831821752
 20
-31.309898337180051
 30
0.0
  0
VERTEX
  5
22E4
  8
SAPA_PROFIL
 62
     4
 10
-25.081104110198389
 20
-31.71645853318503
 30
0.0
 42
0.5862177598324623
  0
VERTEX
  5
22E5
  8
SAPA_PROFIL
 62
     4
 10
-24.825362294960041
 20
-32.173290047681533
 30
0.0
  0
VERTEX
  5
22E6
  8
SAPA_PROFIL
 62
     4
 10
-23.884187614450241
 20
-32.173290047673873
 30
0.0
 42
-0.3152987888813165
  0
VERTEX
  5
22E7
  8
SAPA_PROFIL
 62
     4
 10
-23.414341304052481
 20
-32.50227997601062
 30
0.0
  0
VERTEX
  5
22E8
  8
SAPA_PROFIL
 62
     4
 10
-22.977577022928521
 20
-33.702279976021849
 30
0.0
 42
-0.5205670505515651
  0
VERTEX
  5
22E9
  8
SAPA_PROFIL
 62
     4
 10
-23.447423333321741
 20
-34.373290047684598
 30
0.0
  0
VERTEX
  5
22EA
  8
SAPA_PROFIL
 62
     4
 10
-28.463864273990598
 20
-34.373290047684627
 30
0.0
 42
-0.3702522326300203
  0
VERTEX
  5
22EB
  8
SAPA_PROFIL
 62
     4
 10
-28.760387635783928
 20
-34.118830095018922
 30
0.0
 42
-0.0982365330332397
  0
VERTEX
  5
22EC
  8
SAPA_PROFIL
 62
     4
 10
-28.850840393994869
 20
-32.431143320023921
 30
0.0
 42
-0.3735060174783164
  0
VERTEX
  5
22ED
  8
SAPA_PROFIL
 62
     4
 10
-28.55381572608389
 20
-32.173290047683878
 30
0.0
  0
VERTEX
  5
22EE
  8
SAPA_PROFIL
 62
     4
 10
-28.125362294961231
 20
-32.173290047682961
 30
0.0
 42
0.5920056181162531
  0
VERTEX
  5
22EF
  8
SAPA_PROFIL
 62
     4
 10
-27.872353538643829
 20
-31.712086545155039
 30
0.0
  0
VERTEX
  5
22F0
  8
SAPA_PROFIL
 62
     4
 10
-28.133537614799529
 20
-31.30989833717674
 30
0.0
 42
0.2539676464746725
  0
VERTEX
  5
22F1
  8
SAPA_PROFIL
 62
     4
 10
-28.38513878518329
 20
-31.17329004768138
 30
0.0
  0
VERTEX
  5
22F2
  8
SAPA_PROFIL
 62
     4
 10
-50.612291804548981
 20
-31.173290047682961
 30
0.0
 42
0.2539676464741819
  0
VERTEX
  5
22F3
  8
SAPA_PROFIL
 62
     4
 10
-50.863892974931836
 20
-31.30989833717674
 30
0.0
  0
VERTEX
  5
22F4
  8
SAPA_PROFIL
 62
     4
 10
-51.125077051085647
 20
-31.712086545155071
 30
0.0
 42
0.5920055144124249
  0
VERTEX
  5
22F5
  8
SAPA_PROFIL
 62
     4
 10
-50.872068294770138
 20
-32.173290047682947
 30
0.0
  0
VERTEX
  5
22F6
  8
SAPA_PROFIL
 62
     4
 10
-50.443614817479919
 20
-32.173290022407947
 30
0.0
 42
-0.3735060174775405
  0
VERTEX
  5
22F7
  8
SAPA_PROFIL
 62
     4
 10
-50.14659014957023
 20
-32.43114329474804
 30
0.0
 42
-0.0355900683670349
  0
VERTEX
  5
22F8
  8
SAPA_PROFIL
 62
     4
 10
-50.102696585537977
 20
-33.047016881547833
 30
0.0
 42
-0.0624282003873116
  0
VERTEX
  5
22F9
  8
SAPA_PROFIL
 62
     4
 10
-50.237042907780911
 20
-34.118830069742963
 30
0.0
 42
-0.3702522326309292
  0
VERTEX
  5
22FA
  8
SAPA_PROFIL
 62
     4
 10
-50.533566269574287
 20
-34.373290022408682
 30
0.0
  0
VERTEX
  5
22FB
  8
SAPA_PROFIL
 62
     4
 10
-55.550007256407802
 20
-34.373290047684812
 30
0.0
 42
-0.5205670505515692
  0
VERTEX
  5
22FC
  8
SAPA_PROFIL
 62
     4
 10
-56.019853566801032
 20
-33.702279976021842
 30
0.0
  0
VERTEX
  5
22FD
  8
SAPA_PROFIL
 62
     4
 10
-55.583089285676067
 20
-32.502279976012403
 30
0.0
 42
-0.3152987888807539
  0
VERTEX
  5
22FE
  8
SAPA_PROFIL
 62
     4
 10
-55.113242975280222
 20
-32.173290047674769
 30
0.0
  0
VERTEX
  5
22FF
  8
SAPA_PROFIL
 62
     4
 10
-54.17206829477113
 20
-32.17329004768159
 30
0.0
 42
0.5862175119221242
  0
VERTEX
  5
2300
  8
SAPA_PROFIL
 62
     4
 10
-53.916326363789182
 20
-31.71645872192645
 30
0.0
 42
-0.0000002084758573
  0
SEQEND
  5
2301
  8
SAPA_PROFIL
 62
     4
  0
POLYLINE
  5
1840
  8
SAPA_PROFIL
 62
     4
 66
     1
 10
0.0
 20
0.0
 30
0.0
 70
     1
  0
VERTEX
  5
2302
  8
SAPA_PROFIL
 62
     4
 10
-68.702943553211838
 20
-14.899999995409029
 30
0.0
  0
VERTEX
  5
2303
  8
SAPA_PROFIL
 62
     4
 10
-72.897056102908749
 20
-14.89999999540721
 30
0.0
 42
-0.1989123673786592
  0
VERTEX
  5
2304
  8
SAPA_PROFIL
 62
     4
 10
-73.109188137264553
 20
-14.812132029763751
 30
0.0
  0
VERTEX
  5
2305
  8
SAPA_PROFIL
 62
     4
 10
-75.333452205975476
 20
-12.58786796105284
 30
0.0
 42
0.1989123673785438
  0
VERTEX
  5
2306
  8
SAPA_PROFIL
 62
     4
 10
-75.545584240331294
 20
-12.499999995409389
 30
0.0
  0
VERTEX
  5
2307
  8
SAPA_PROFIL
 62
     4
 10
-75.999999828059643
 20
-12.49999999541121
 30
0.0
 42
0.4142135623730951
  0
VERTEX
  5
2308
  8
SAPA_PROFIL
 62
     4
 10
-76.299999828059825
 20
-12.799999995410481
 30
0.0
  0
VERTEX
  5
2309
  8
SAPA_PROFIL
 62
     4
 10
-76.299999828059825
 20
-24.699999995409438
 30
0.0
 42
-0.4142135623730951
  0
VERTEX
  5
230A
  8
SAPA_PROFIL
 62
     4
 10
-76.799999828059839
 20
-25.199999995409438
 30
0.0
  0
VERTEX
  5
230B
  8
SAPA_PROFIL
 62
     4
 10
-78.499999828059643
 20
-25.199999995409438
 30
0.0
 42
0.4142135623739832
  0
VERTEX
  5
230C
  8
SAPA_PROFIL
 62
     4
 10
-78.799999828059825
 20
-25.499999995408711
 30
0.0
  0
VERTEX
  5
230D
  8
SAPA_PROFIL
 62
     4
 10
-78.799999828059825
 20
-29.199999995408302
 30
0.0
 42
0.414213562375759
  0
VERTEX
  5
230E
  8
SAPA_PROFIL
 62
     4
 10
-78.499999828059643
 20
-29.499999995409389
 30
0.0
  0
VERTEX
  5
230F
  8
SAPA_PROFIL
 62
     4
 10
-62.006576697656641
 20
-29.499999995407581
 30
0.0
 42
0.4142135623735391
  0
VERTEX
  5
2310
  8
SAPA_PROFIL
 62
     4
 10
-61.706576697656921
 20
-29.199999995408309
 30
0.0
  0
VERTEX
  5
2311
  8
SAPA_PROFIL
 62
     4
 10
-61.706576697656921
 20
-12.79999999541049
 30
0.0
 42
0.4142135623726511
  0
VERTEX
  5
2312
  8
SAPA_PROFIL
 62
     4
 10
-62.006576697656641
 20
-12.499999995409389
 30
0.0
  0
VERTEX
  5
2313
  8
SAPA_PROFIL
 62
     4
 10
-66.054415415787474
 20
-12.499999995409389
 30
0.0
 42
0.1989123673785438
  0
VERTEX
  5
2314
  8
SAPA_PROFIL
 62
     4
 10
-66.266547450143293
 20
-12.587867961052851
 30
0.0
  0
VERTEX
  5
2315
  8
SAPA_PROFIL
 62
     4
 10
-68.49081151885602
 20
-14.81213202976557
 30
0.0
 42
-0.1989123673798886
  0
SEQEND
  5
2316
  8
SAPA_PROFIL
 62
     4
  0
POLYLINE
  5
1841
  8
SAPA_PROFIL
 62
     4
 66
     1
 10
0.0
 20
0.0
 30
0.0
 70
     1
  0
VERTEX
  5
2317
  8
SAPA_PROFIL
 62
     4
 10
-47.299999828060059
 20
-29.4999999954094
 30
0.0
  0
VERTEX
  5
2318
  8
SAPA_PROFIL
 62
     4
 10
-60.10657669765655
 20
-29.499999995407581
 30
0.0
 42
-0.4142135623732061
  0
VERTEX
  5
2319
  8
SAPA_PROFIL
 62
     4
 10
-60.406576697656732
 20
-29.199999995408309
 30
0.0
  0
VERTEX
  5
231A
  8
SAPA_PROFIL
 62
     4
 10
-60.406576697656732
 20
-12.79999999541049
 30
0.0
 42
-0.4142135623730951
  0
VERTEX
  5
231B
  8
SAPA_PROFIL
 62
     4
 10
-60.10657669765655
 20
-12.499999995409389
 30
0.0
  0
VERTEX
  5
231C
  8
SAPA_PROFIL
 62
     4
 10
-47.299999828060059
 20
-12.499999995411221
 30
0.0
 42
-0.4142135623731173
  0
VERTEX
  5
231D
  8
SAPA_PROFIL
 62
     4
 10
-46.999999828059877
 20
-12.79999999541231
 30
0.0
  0
VERTEX
  5
231E
  8
SAPA_PROFIL
 62
     4
 10
-46.999999828059877
 20
-29.199999995410131
 30
0.0
 42
-0.4142135623730951
  0
SEQEND
  5
231F
  8
SAPA_PROFIL
 62
     4
  0
POLYLINE
  5
1842
  8
SAPA_PROFIL
 62
     4
 66
     1
 10
0.0
 20
0.0
 30
0.0
 70
     1
  0
VERTEX
  5
2320
  8
SAPA_PROFIL
 62
     4
 10
-45.999999828059877
 20
-10.999999995411221
 30
0.0
  0
VERTEX
  5
2321
  8
SAPA_PROFIL
 62
     4
 10
-66.675735759347475
 20
-10.999999995409389
 30
0.0
 42
0.1989123673799843
  0
VERTEX
  5
2322
  8
SAPA_PROFIL
 62
     4
 10
-66.887867793704203
 20
-11.08786796105467
 30
0.0
  0
VERTEX
  5
2323
  8
SAPA_PROFIL
 62
     4
 10
-69.112131862415112
 20
-13.31213202976557
 30
0.0
 42
-0.1989123673811184
  0
VERTEX
  5
2324
  8
SAPA_PROFIL
 62
     4
 10
-69.32426389677093
 20
-13.399999995409029
 30
0.0
  0
VERTEX
  5
2325
  8
SAPA_PROFIL
 62
     4
 10
-72.275735759348748
 20
-13.39999999540721
 30
0.0
 42
-0.1989123673785438
  0
VERTEX
  5
2326
  8
SAPA_PROFIL
 62
     4
 10
-72.487867793704567
 20
-13.312132029763751
 30
0.0
  0
VERTEX
  5
2327
  8
SAPA_PROFIL
 62
     4
 10
-74.712131862416385
 20
-11.087867961052851
 30
0.0
 42
0.1989123673785438
  0
VERTEX
  5
2328
  8
SAPA_PROFIL
 62
     4
 10
-74.924263896772203
 20
-10.999999995409389
 30
0.0
  0
VERTEX
  5
2329
  8
SAPA_PROFIL
 62
     4
 10
-77.299999828059839
 20
-10.99999999541121
 30
0.0
 42
0.4142135623730951
  0
VERTEX
  5
232A
  8
SAPA_PROFIL
 62
     4
 10
-77.799999828059839
 20
-11.49999999541121
 30
0.0
  0
VERTEX
  5
232B
  8
SAPA_PROFIL
 62
     4
 10
-77.799999828059839
 20
-23.39999999541017
 30
0.0
 42
-0.414213562373761
  0
VERTEX
  5
232C
  8
SAPA_PROFIL
 62
     4
 10
-78.099999828060021
 20
-23.699999995409438
 30
0.0
  0
VERTEX
  5
232D
  8
SAPA_PROFIL
 62
     4
 10
-79.799999828059839
 20
-23.699999995409438
 30
0.0
 42
0.4142135623730951
  0
VERTEX
  5
232E
  8
SAPA_PROFIL
 62
     4
 10
-80.299999828059839
 20
-24.199999995409438
 30
0.0
  0
VERTEX
  5
232F
  8
SAPA_PROFIL
 62
     4
 10
-80.299999828059839
 20
-30.499999995409389
 30
0.0
 42
0.4142135623730951
  0
VERTEX
  5
2330
  8
SAPA_PROFIL
 62
     4
 10
-79.799999828059839
 20
-30.999999995409389
 30
0.0
  0
VERTEX
  5
2331
  8
SAPA_PROFIL
 62
     4
 10
-78.799999828059498
 20
-30.999999995407581
 30
0.0
 42
-0.414213562373539
  0
VERTEX
  5
2332
  8
SAPA_PROFIL
 62
     4
 10
-78.499999828059543
 20
-31.29999999540685
 30
0.0
  0
VERTEX
  5
2333
  8
SAPA_PROFIL
 62
     4
 10
-78.499999828059998
 20
-32.899999995409033
 30
0.0
 42
-0.4142135623735391
  0
VERTEX
  5
2334
  8
SAPA_PROFIL
 62
     4
 10
-78.799999828059725
 20
-33.199999995408298
 30
0.0
  0
VERTEX
  5
2335
  8
SAPA_PROFIL
 62
     4
 10
-79.099999828059339
 20
-33.199999995406479
 30
0.0
 42
0.592337729603611
  0
VERTEX
  5
2336
  8
SAPA_PROFIL
 62
     4
 10
-79.352849910663593
 20
-33.661452266148054
 30
0.0
  0
VERTEX
  5
2337
  8
SAPA_PROFIL
 62
     4
 10
-78.075790642366741
 20
-35.361452266148788
 30
0.0
 42
0.2560149538738706
  0
VERTEX
  5
2338
  8
SAPA_PROFIL
 62
     4
 10
-77.822940559761577
 20
-35.499999995409397
 30
0.0
  0
VERTEX
  5
2339
  8
SAPA_PROFIL
 62
     4
 10
-77.599999828058998
 20
-35.499999995409397
 30
0.0
 42
0.4142135623733169
  0
VERTEX
  5
233A
  8
SAPA_PROFIL
 62
     4
 10
-77.299999828059725
 20
-35.199999995410117
 30
0.0
  0
VERTEX
  5
233B
  8
SAPA_PROFIL
 62
     4
 10
-77.299999828059725
 20
-31.29999999540685
 30
0.0
 42
-0.414213562373539
  0
VERTEX
  5
233C
  8
SAPA_PROFIL
 62
     4
 10
-76.999999828059771
 20
-30.999999995407581
 30
0.0
  0
VERTEX
  5
233D
  8
SAPA_PROFIL
 62
     4
 10
-65.999999828059543
 20
-30.9999999954094
 30
0.0
 42
-0.414213562373539
  0
VERTEX
  5
233E
  8
SAPA_PROFIL
 62
     4
 10
-65.699999828059589
 20
-31.299999995408669
 30
0.0
  0
VERTEX
  5
233F
  8
SAPA_PROFIL
 62
     4
 10
-65.699999828059589
 20
-35.199999995410117
 30
0.0
 42
0.4142135623730951
  0
VERTEX
  5
2340
  8
SAPA_PROFIL
 62
     4
 10
-65.399999828060317
 20
-35.499999995409397
 30
0.0
  0
VERTEX
  5
2341
  8
SAPA_PROFIL
 62
     4
 10
-65.177059096357738
 20
-35.499999995409397
 30
0.0
 42
0.2560149538738705
  0
VERTEX
  5
2342
  8
SAPA_PROFIL
 62
     4
 10
-64.924209013752574
 20
-35.361452266148788
 30
0.0
  0
VERTEX
  5
2343
  8
SAPA_PROFIL
 62
     4
 10
-63.647149745455721
 20
-33.661452266148061
 30
0.0
 42
0.592337729603611
  0
VERTEX
  5
2344
  8
SAPA_PROFIL
 62
     4
 10
-63.899999828059968
 20
-33.199999995406493
 30
0.0
  0
VERTEX
  5
2345
  8
SAPA_PROFIL
 62
     4
 10
-64.199999828059589
 20
-33.199999995408312
 30
0.0
 42
-0.4142135623735391
  0
VERTEX
  5
2346
  8
SAPA_PROFIL
 62
     4
 10
-64.499999828059316
 20
-32.899999995409033
 30
0.0
  0
VERTEX
  5
2347
  8
SAPA_PROFIL
 62
     4
 10
-64.499999828059771
 20
-31.299999995408669
 30
0.0
 42
-0.414213562373539
  0
VERTEX
  5
2348
  8
SAPA_PROFIL
 62
     4
 10
-64.199999828059816
 20
-30.9999999954094
 30
0.0
  0
VERTEX
  5
2349
  8
SAPA_PROFIL
 62
     4
 10
-45.999999828059877
 20
-30.999999995413042
 30
0.0
 42
0.414213562373126
  0
VERTEX
  5
234A
  8
SAPA_PROFIL
 62
     4
 10
-45.499999828059877
 20
-30.499999995413042
 30
0.0
  0
VERTEX
  5
234B
  8
SAPA_PROFIL
 62
     4
 10
-45.499999828059877
 20
-11.499999995411221
 30
0.0
 42
0.4142135623730951
  0
SEQEND
  5
234C
  8
SAPA_PROFIL
 62
     4
  0
POLYLINE
  5
1843
  8
SAPA_PROFIL
 66
     1
 10
0.0
 20
0.0
 30
0.0
 70
     1
  0
VERTEX
  5
234D
  8
SAPA_PROFIL
 10
0.6060446906867583
 20
-96.499999999825775
 30
0.0
  0
VERTEX
  5
234E
  8
SAPA_PROFIL
 10
0.3635007528396272
 20
-96.499999999825775
 30
0.0
 42
-0.2011813370902256
  0
VERTEX
  5
234F
  8
SAPA_PROFIL
 10
0.2208506630090596
 20
-96.440181852685726
 30
0.0
  0
VERTEX
  5
2350
  8
SAPA_PROFIL
 10
-0.6898614300148438
 20
-95.513434493956026
 30
0.0
  0
VERTEX
  5
2351
  8
SAPA_PROFIL
 10
-0.676653887271641
 20
-93.999999999823956
 30
0.0
 42
0.4931454260356012
  0
VERTEX
  5
2352
  8
SAPA_PROFIL
 10
-0.4558269982239836
 20
-92.428735039586115
 30
0.0
  0
VERTEX
  5
2353
  8
SAPA_PROFIL
 10
-1.505003570836777
 20
-91.361085202761785
 30
0.0
 42
0.6681786379164681
  0
VERTEX
  5
2354
  8
SAPA_PROFIL
 10
-1.8549038283217101
 20
-91.502454083215468
 30
0.0
  0
VERTEX
  5
2355
  8
SAPA_PROFIL
 10
-1.8941533169190159
 20
-95.999999999825775
 30
0.0
  0
VERTEX
  5
2356
  8
SAPA_PROFIL
 10
0.1833599423107444
 20
-98.114092851415478
 30
0.0
 42
-0.2038501166358263
  0
VERTEX
  5
2357
  8
SAPA_PROFIL
 10
0.326542798916762
 20
-98.478399630833295
 30
0.0
  0
VERTEX
  5
2358
  8
SAPA_PROFIL
 10
-0.0920833103721179
 20
-113.5831128834277
 30
0.0
 42
-0.4061212134736873
  0
VERTEX
  5
2359
  8
SAPA_PROFIL
 10
-3.0909317974715691
 20
-116.49999999981929
 30
0.0
  0
VERTEX
  5
235A
  8
SAPA_PROFIL
 10
-14.875123040939631
 20
-116.49999999981929
 30
0.0
 42
-0.4142135623730951
  0
VERTEX
  5
235B
  8
SAPA_PROFIL
 10
-15.375123040939631
 20
-115.99999999981929
 30
0.0
  0
VERTEX
  5
235C
  8
SAPA_PROFIL
 10
-15.375123040939631
 20
-104.41421356219421
 30
0.0
 42
-0.198912367379658
  0
VERTEX
  5
235D
  8
SAPA_PROFIL
 10
-15.08222982212618
 20
-103.7071067810076
 30
0.0
  0
VERTEX
  5
235E
  8
SAPA_PROFIL
 10
-14.70163104873569
 20
-103.32650800761709
 30
0.0
 42
0.1830252782112529
  0
VERTEX
  5
235F
  8
SAPA_PROFIL
 10
-14.119602506988089
 20
-102.0348401988858
 30
0.0
  0
VERTEX
  5
2360
  8
SAPA_PROFIL
 10
-13.39653777965753
 20
-91.601768170079978
 30
0.0
 42
0.668178637923616
  0
VERTEX
  5
2361
  8
SAPA_PROFIL
 10
-13.911688269446531
 20
-91.388385850546399
 30
0.0
  0
VERTEX
  5
2362
  8
SAPA_PROFIL
 10
-15.911170384369081
 20
-93.387867965468956
 30
0.0
 42
0.7332303362588345
  0
VERTEX
  5
2363
  8
SAPA_PROFIL
 10
-15.646943896711891
 20
-93.895442325728638
 30
0.0
  0
VERTEX
  5
2364
  8
SAPA_PROFIL
 10
-15.031132803313479
 20
-93.786858214942583
 30
0.0
 42
-0.4663076581593561
  0
VERTEX
  5
2365
  8
SAPA_PROFIL
 10
-14.679038350013281
 20
-94.082300540846006
 30
0.0
  0
VERTEX
  5
2366
  8
SAPA_PROFIL
 10
-15.41019797189375
 20
-101.8417776661983
 30
0.0
 42
-0.183025278211264
  0
VERTEX
  5
2367
  8
SAPA_PROFIL
 10
-15.70121224276755
 20
-102.487611570564
 30
0.0
  0
VERTEX
  5
2368
  8
SAPA_PROFIL
 10
-16.089336603312571
 20
-102.87573593110891
 30
0.0
 42
0.1989123673796518
  0
VERTEX
  5
2369
  8
SAPA_PROFIL
 10
-16.675123040939461
 20
-104.289949493482
 30
0.0
  0
VERTEX
  5
236A
  8
SAPA_PROFIL
 10
-16.675123040939582
 20
-115.6999999998348
 30
0.0
 42
-0.4142135623732283
  0
VERTEX
  5
236B
  8
SAPA_PROFIL
 10
-17.175123040939809
 20
-116.1999999998348
 30
0.0
  0
VERTEX
  5
236C
  8
SAPA_PROFIL
 10
-18.375123040939169
 20
-116.19999999983381
 30
0.0
 42
0.4142135623732062
  0
VERTEX
  5
236D
  8
SAPA_PROFIL
 10
-18.675123040939241
 20
-116.4999999998338
 30
0.0
  0
VERTEX
  5
236E
  8
SAPA_PROFIL
 10
-18.675123040939582
 20
-117.6999999998193
 30
0.0
 42
0.4142135623716247
  0
VERTEX
  5
236F
  8
SAPA_PROFIL
 10
-18.375123040938259
 20
-117.99999999981929
 30
0.0
  0
VERTEX
  5
2370
  8
SAPA_PROFIL
 10
1.601284701383747
 20
-117.99999999983289
 30
0.0
 42
0.4142135623732938
  0
VERTEX
  5
2371
  8
SAPA_PROFIL
 10
1.801284701383792
 20
-117.79999999983291
 30
0.0
  0
VERTEX
  5
2372
  8
SAPA_PROFIL
 10
1.801284701383792
 20
-96.204623886147104
 30
0.0
 42
0.4210020197690384
  0
VERTEX
  5
2373
  8
SAPA_PROFIL
 10
1.6013381593397751
 20
-95.999999999825775
 30
0.0
  0
VERTEX
  5
2374
  8
SAPA_PROFIL
 10
1.0133549961442441
 20
-95.999999999819295
 30
0.0
  0
VERTEX
  5
2375
  8
SAPA_PROFIL
 10
1.0133549961442441
 20
-96.299999999819306
 30
0.0
 42
-0.41421356237322
  0
VERTEX
  5
2376
  8
SAPA_PROFIL
 10
0.8133549961441985
 20
-96.499999999819181
 30
0.0
  0
VERTEX
  5
2377
  8
SAPA_PROFIL
 10
0.5961772306745843
 20
-96.499999999819295
 30
0.0
  0
SEQEND
  5
2378
  8
SAPA_PROFIL
  0
CIRCLE
  5
1844
  8
SAPA_PROFIL
 62
     2
 10
-79.309290847032173
 20
-114.6633409272397
 30
0.0
 40
0.8999999999999985
  0
POLYLINE
  5
1845
  8
SAPA_PROFIL
 62
     2
 66
     1
 10
0.0
 20
0.0
 30
0.0
  0
VERTEX
  5
2379
  8
SAPA_PROFIL
 62
     2
 10
-78.001284435459127
 20
-116.06334092723959
 30
0.0
  0
VERTEX
  5
237A
  8
SAPA_PROFIL
 62
     2
 10
-79.09220324561187
 20
-115.87098250724721
 30
0.0
  0
VERTEX
  5
237B
  8
SAPA_PROFIL
 62
     2
 10
-79.207902785131793
 20
-116.3027790671489
 30
0.0
 42
-0.4430158954262519
  0
VERTEX
  5
237C
  8
SAPA_PROFIL
 62
     2
 10
-79.471379213238777
 20
-116.438256114693
 30
0.0
  0
VERTEX
  5
237D
  8
SAPA_PROFIL
 62
     2
 10
-80.741866961156973
 20
-115.961307921474
 30
0.0
 42
-0.3125358528825162
  0
VERTEX
  5
237E
  8
SAPA_PROFIL
 62
     2
 10
-81.001284435458686
 20
-115.5868262083446
 30
0.0
  0
VERTEX
  5
237F
  8
SAPA_PROFIL
 62
     2
 10
-81.001284435459127
 20
-113.71667089243429
 30
0.0
 42
-0.3125358528825104
  0
VERTEX
  5
2380
  8
SAPA_PROFIL
 62
     2
 10
-80.741866961156973
 20
-113.3421891793049
 30
0.0
  0
VERTEX
  5
2381
  8
SAPA_PROFIL
 62
     2
 10
-79.471379213238777
 20
-112.86524098608569
 30
0.0
 42
-0.4430158954262519
  0
VERTEX
  5
2382
  8
SAPA_PROFIL
 62
     2
 10
-79.207902785131921
 20
-113.00071803362979
 30
0.0
  0
VERTEX
  5
2383
  8
SAPA_PROFIL
 62
     2
 10
-79.09220324561187
 20
-113.43251459353159
 30
0.0
  0
VERTEX
  5
2384
  8
SAPA_PROFIL
 62
     2
 10
-78.001284435459127
 20
-113.2402485503894
 30
0.0
  0
SEQEND
  5
2385
  8
SAPA_PROFIL
 62
     2
  0
POLYLINE
  5
1846
  8
SAPA_PROFIL
 62
     2
 66
     1
 10
0.0
 20
0.0
 30
0.0
 70
     1
  0
VERTEX
  5
2386
  8
SAPA_PROFIL
 62
     2
 10
-78.001284435459127
 20
-116.05174855038931
 30
0.0
 42
0.285714285714282
  0
VERTEX
  5
2387
  8
SAPA_PROFIL
 62
     2
 10
-78.001284435459127
 20
-113.25174855038929
 30
0.0
  0
VERTEX
  5
2388
  8
SAPA_PROFIL
 62
     2
 10
-78.001284435458672
 20
-111.17796838100151
 30
0.0
 42
-0.3882600129940275
  0
VERTEX
  5
2389
  8
SAPA_PROFIL
 62
     2
 10
-77.728073709179114
 20
-110.8791668836601
 30
0.0
  0
VERTEX
  5
238A
  8
SAPA_PROFIL
 62
     2
 10
-73.828073709179023
 20
-110.41295695973361
 30
0.0
 42
-0.4406523138893894
  0
VERTEX
  5
238B
  8
SAPA_PROFIL
 62
     2
 10
-73.501284435459127
 20
-110.7117584570754
 30
0.0
  0
VERTEX
  5
238C
  8
SAPA_PROFIL
 62
     2
 10
-73.501284435459127
 20
-112.42155045399581
 30
0.0
 42
-0.3394542588634375
  0
VERTEX
  5
238D
  8
SAPA_PROFIL
 62
     2
 10
-73.723638721928126
 20
-112.7113282018823
 30
0.0
  0
VERTEX
  5
238E
  8
SAPA_PROFIL
 62
     2
 10
-73.941224504095715
 20
-112.9137079298137
 30
0.0
 42
0.3394542588633663
  0
VERTEX
  5
238F
  8
SAPA_PROFIL
 62
     2
 10
-74.163578790564713
 20
-113.2034856777005
 30
0.0
  0
VERTEX
  5
2390
  8
SAPA_PROFIL
 62
     2
 10
-74.163578790564713
 20
-116.1000114230784
 30
0.0
 42
0.3394542588634373
  0
VERTEX
  5
2391
  8
SAPA_PROFIL
 62
     2
 10
-73.941224504095715
 20
-116.3897891709649
 30
0.0
  0
VERTEX
  5
2392
  8
SAPA_PROFIL
 62
     2
 10
-73.723638721928126
 20
-116.5921688988964
 30
0.0
 42
-0.3394542588633662
  0
VERTEX
  5
2393
  8
SAPA_PROFIL
 62
     2
 10
-73.501284435459127
 20
-116.88194664678311
 30
0.0
  0
VERTEX
  5
2394
  8
SAPA_PROFIL
 62
     2
 10
-73.501284435459127
 20
-118.5917386437032
 30
0.0
 42
-0.4406523138893994
  0
VERTEX
  5
2395
  8
SAPA_PROFIL
 62
     2
 10
-73.828073709179023
 20
-118.8905401410448
 30
0.0
  0
VERTEX
  5
2396
  8
SAPA_PROFIL
 62
     2
 10
-77.728073709179114
 20
-118.42433021711859
 30
0.0
 42
-0.3882600129940462
  0
VERTEX
  5
2397
  8
SAPA_PROFIL
 62
     2
 10
-78.001284435459127
 20
-118.12552871977719
 30
0.0
  0
VERTEX
  5
2398
  8
SAPA_PROFIL
 62
     2
 10
-78.001284435459127
 20
-116.06334092723959
 30
0.0
  0
SEQEND
  5
2399
  8
SAPA_PROFIL
 62
     2
  0
POLYLINE
  5
1847
  8
SAPA_PROFIL
 66
     1
 10
0.0
 20
0.0
 30
0.0
 70
     1
  0
VERTEX
  5
239A
  8
SAPA_PROFIL
 10
-21.228798409927659
 20
-70.488496764489611
 30
0.0
  0
VERTEX
  5
239B
  8
SAPA_PROFIL
 10
-20.944116126696009
 20
-70.640630675598402
 30
0.0
 42
0.5773502691897463
  0
VERTEX
  5
239C
  8
SAPA_PROFIL
 10
-20.649959826441201
 20
-70.457676935488195
 30
0.0
  0
VERTEX
  5
239D
  8
SAPA_PROFIL
 10
-20.66052119266816
 20
-70.135919207269936
 30
0.0
  0
VERTEX
  5
239E
  8
SAPA_PROFIL
 10
-18.774677500807108
 20
-69.05135476029821
 30
0.0
  0
VERTEX
  5
239F
  8
SAPA_PROFIL
 10
-18.583294500813381
 20
-68.993281123309146
 30
0.0
 42
-0.7625858545243257
  0
VERTEX
  5
23A0
  8
SAPA_PROFIL
 10
-18.398715298615919
 20
-69.323607204326123
 30
0.0
 42
0.2134217652834389
  0
VERTEX
  5
23A1
  8
SAPA_PROFIL
 10
-18.498715298616041
 20
-69.547214002076259
 30
0.0
  0
VERTEX
  5
23A2
  8
SAPA_PROFIL
 10
-18.498715298616041
 20
-73.400000002076226
 30
0.0
 42
-0.4142139999998963
  0
VERTEX
  5
23A3
  8
SAPA_PROFIL
 10
-18.798715298616081
 20
-73.700000002076251
 30
0.0
  0
VERTEX
  5
23A4
  8
SAPA_PROFIL
 10
-19.098715298616028
 20
-73.700000002076251
 30
0.0
  0
VERTEX
  5
23A5
  8
SAPA_PROFIL
 10
-20.698715298616019
 20
-72.776240002076193
 30
0.0
 42
0.5773500000002674
  0
VERTEX
  5
23A6
  8
SAPA_PROFIL
 10
-20.998715298616069
 20
-72.949445002076288
 30
0.0
  0
VERTEX
  5
23A7
  8
SAPA_PROFIL
 10
-20.998715298616069
 20
-74.335086002076252
 30
0.0
 42
0.267949000000023
  0
VERTEX
  5
23A8
  8
SAPA_PROFIL
 10
-20.498715298616069
 20
-75.201111002076274
 30
0.0
  0
VERTEX
  5
23A9
  8
SAPA_PROFIL
 10
-18.748715298616041
 20
-76.211474002076272
 30
0.0
 42
-0.2679489999999919
  0
VERTEX
  5
23AA
  8
SAPA_PROFIL
 10
-18.498715298616041
 20
-76.644487002076275
 30
0.0
  0
VERTEX
  5
23AB
  8
SAPA_PROFIL
 10
-18.498715298616041
 20
-86.655514002076245
 30
0.0
 42
-0.2679490000000193
  0
VERTEX
  5
23AC
  8
SAPA_PROFIL
 10
-18.748715298616041
 20
-87.088527002076276
 30
0.0
  0
VERTEX
  5
23AD
  8
SAPA_PROFIL
 10
-20.498715298616059
 20
-88.098890002076246
 30
0.0
 42
0.2679490000000211
  0
VERTEX
  5
23AE
  8
SAPA_PROFIL
 10
-20.998715298616069
 20
-88.964915002076296
 30
0.0
  0
VERTEX
  5
23AF
  8
SAPA_PROFIL
 10
-20.998715298616069
 20
-90.350556002076246
 30
0.0
 42
0.5773499999999721
  0
VERTEX
  5
23B0
  8
SAPA_PROFIL
 10
-20.698715298616062
 20
-90.523761002076242
 30
0.0
  0
VERTEX
  5
23B1
  8
SAPA_PROFIL
 10
-19.098715298616028
 20
-89.600000002076285
 30
0.0
  0
VERTEX
  5
23B2
  8
SAPA_PROFIL
 10
-18.79871529861607
 20
-89.600000002076285
 30
0.0
 42
-0.4142139999999657
  0
VERTEX
  5
23B3
  8
SAPA_PROFIL
 10
-18.49871529861603
 20
-89.90000000207624
 30
0.0
  0
VERTEX
  5
23B4
  8
SAPA_PROFIL
 10
-18.498715298616151
 20
-93.752787002076275
 30
0.0
 42
0.2134217652834387
  0
VERTEX
  5
23B5
  8
SAPA_PROFIL
 10
-18.398715298616011
 20
-93.976393799826397
 30
0.0
 42
-0.7625858545243244
  0
VERTEX
  5
23B6
  8
SAPA_PROFIL
 10
-18.583294500813491
 20
-94.306719880843389
 30
0.0
  0
VERTEX
  5
23B7
  8
SAPA_PROFIL
 10
-18.774677500807211
 20
-94.248646243854296
 30
0.0
  0
VERTEX
  5
23B8
  8
SAPA_PROFIL
 10
-20.660521192668281
 20
-93.164081796882556
 30
0.0
  0
VERTEX
  5
23B9
  8
SAPA_PROFIL
 10
-20.6499598264413
 20
-92.842324068664269
 30
0.0
 42
0.5773502691897466
  0
VERTEX
  5
23BA
  8
SAPA_PROFIL
 10
-20.944116126696141
 20
-92.659370328554132
 30
0.0
  0
VERTEX
  5
23BB
  8
SAPA_PROFIL
 10
-21.228798409927801
 20
-92.811504239662895
 30
0.0
 42
0.2216946626430191
  0
VERTEX
  5
23BC
  8
SAPA_PROFIL
 10
-21.634607315082569
 20
-93.352384071139667
 30
0.0
  0
VERTEX
  5
23BD
  8
SAPA_PROFIL
 10
-22.016053911210289
 20
-95.165614541797936
 30
0.0
 42
0.4769755326981641
  0
VERTEX
  5
23BE
  8
SAPA_PROFIL
 10
-21.71380108670381
 20
-95.537271416743806
 30
0.0
  0
VERTEX
  5
23BF
  8
SAPA_PROFIL
 10
-20.210700005941799
 20
-95.537187808860153
 30
0.0
  0
VERTEX
  5
23C0
  8
SAPA_PROFIL
 10
-20.196181596694711
 20
-95.489342058861666
 30
0.0
 42
-0.4142135623730953
  0
VERTEX
  5
23C1
  8
SAPA_PROFIL
 10
-19.821996641218892
 20
-95.28937801435427
 30
0.0
  0
VERTEX
  5
23C2
  8
SAPA_PROFIL
 10
-18.50088122378472
 20
-95.800000002076274
 30
0.0
  0
VERTEX
  5
23C3
  8
SAPA_PROFIL
 10
-18.49871529861603
 20
-95.800000002076274
 30
0.0
  0
VERTEX
  5
23C4
  8
SAPA_PROFIL
 10
-15.50623029861603
 20
-95.800000002076274
 30
0.0
 42
0.2596809999999277
  0
VERTEX
  5
23C5
  8
SAPA_PROFIL
 10
-15.33619929861605
 20
-95.705307002076253
 30
0.0
  0
VERTEX
  5
23C6
  8
SAPA_PROFIL
 10
-14.543668298616041
 20
-94.457961002076274
 30
0.0
 42
0.5877030000000004
  0
VERTEX
  5
23C7
  8
SAPA_PROFIL
 10
-14.79871529861607
 20
-94.000000002076263
 30
0.0
  0
VERTEX
  5
23C8
  8
SAPA_PROFIL
 10
-16.198715298616051
 20
-94.000000002076263
 30
0.0
 42
-0.4142135623731089
  0
VERTEX
  5
23C9
  8
SAPA_PROFIL
 10
-16.49871529861603
 20
-93.700000002076251
 30
0.0
  0
VERTEX
  5
23CA
  8
SAPA_PROFIL
 10
-16.49871529861603
 20
-91.300000002076274
 30
0.0
 42
-0.4142135623731088
  0
VERTEX
  5
23CB
  8
SAPA_PROFIL
 10
-16.198715298616051
 20
-91.000000002076277
 30
0.0
  0
VERTEX
  5
23CC
  8
SAPA_PROFIL
 10
-10.3987152986161
 20
-91.000000002076277
 30
0.0
  0
VERTEX
  5
23CD
  8
SAPA_PROFIL
 10
-8.3987152986160982
 20
-91.000000002076277
 30
0.0
  0
VERTEX
  5
23CE
  8
SAPA_PROFIL
 10
1.201284701383929
 20
-91.000000002076249
 30
0.0
 42
-0.4142139999999172
  0
VERTEX
  5
23CF
  8
SAPA_PROFIL
 10
1.501284701383927
 20
-91.30000000207626
 30
0.0
  0
VERTEX
  5
23D0
  8
SAPA_PROFIL
 10
1.5012847013839281
 20
-93.700000002076223
 30
0.0
 42
-0.4142139999999103
  0
VERTEX
  5
23D1
  8
SAPA_PROFIL
 10
1.201284701383931
 20
-94.000000002076234
 30
0.0
  0
VERTEX
  5
23D2
  8
SAPA_PROFIL
 10
-0.1987152986160527
 20
-94.000000002076234
 30
0.0
 42
0.5877030000000132
  0
VERTEX
  5
23D3
  8
SAPA_PROFIL
 10
-0.4537612986160529
 20
-94.45796100207626
 30
0.0
  0
VERTEX
  5
23D4
  8
SAPA_PROFIL
 10
0.4426377013839567
 20
-95.905307002076199
 30
0.0
 42
0.259681000000005
  0
VERTEX
  5
23D5
  8
SAPA_PROFIL
 10
0.6126687013839156
 20
-96.000000002076249
 30
0.0
  0
VERTEX
  5
23D6
  8
SAPA_PROFIL
 10
3.2333357013839619
 20
-96.00000000207622
 30
0.0
 42
0.1316520000000017
  0
VERTEX
  5
23D7
  8
SAPA_PROFIL
 10
3.733335701383969
 20
-95.866026002076225
 30
0.0
  0
VERTEX
  5
23D8
  8
SAPA_PROFIL
 10
11.50128470138397
 20
-91.381198002076246
 30
0.0
 42
0.267948999999994
  0
VERTEX
  5
23D9
  8
SAPA_PROFIL
 10
13.00128470138395
 20
-88.78312200207624
 30
0.0
  0
VERTEX
  5
23DA
  8
SAPA_PROFIL
 10
13.00128470138392
 20
-50.500000002076227
 30
0.0
 42
0.4142140000000114
  0
VERTEX
  5
23DB
  8
SAPA_PROFIL
 10
10.00128470138395
 20
-47.500000002076227
 30
0.0
  0
VERTEX
  5
23DC
  8
SAPA_PROFIL
 10
9.5012847013839465
 20
-47.500000002076149
 30
0.0
 42
0.4241420000000259
  0
VERTEX
  5
23DD
  8
SAPA_PROFIL
 10
8.5018557013839757
 20
-48.533773002076252
 30
0.0
 42
0.2988660000000032
  0
VERTEX
  5
23DE
  8
SAPA_PROFIL
 10
9.0727137013839698
 20
-49.471053002076189
 30
0.0
 42
0.55075999999996
  0
VERTEX
  5
23DF
  8
SAPA_PROFIL
 10
9.5012847013839465
 20
-49.200000002076237
 30
0.0
  0
VERTEX
  5
23E0
  8
SAPA_PROFIL
 10
9.5012847013839465
 20
-48.900000002076219
 30
0.0
 42
-0.4142139999998339
  0
VERTEX
  5
23E1
  8
SAPA_PROFIL
 10
9.7012847013839192
 20
-48.700000002076237
 30
0.0
  0
VERTEX
  5
23E2
  8
SAPA_PROFIL
 10
10.00128470138395
 20
-48.700000002076237
 30
0.0
 42
-0.4142139999999946
  0
VERTEX
  5
23E3
  8
SAPA_PROFIL
 10
11.80128470138396
 20
-50.500000002076227
 30
0.0
  0
VERTEX
  5
23E4
  8
SAPA_PROFIL
 10
11.80128470138396
 20
-51.200000002076237
 30
0.0
 42
-0.4142139999999852
  0
VERTEX
  5
23E5
  8
SAPA_PROFIL
 10
10.00128470138395
 20
-53.000000002076227
 30
0.0
  0
VERTEX
  5
23E6
  8
SAPA_PROFIL
 10
9.7012847013839227
 20
-53.000000002076227
 30
0.0
 42
-0.4142139999998025
  0
VERTEX
  5
23E7
  8
SAPA_PROFIL
 10
9.5012847013839483
 20
-52.800000002076253
 30
0.0
  0
VERTEX
  5
23E8
  8
SAPA_PROFIL
 10
9.5012847013839341
 20
-52.500000002076241
 30
0.0
 42
0.5507599999999105
  0
VERTEX
  5
23E9
  8
SAPA_PROFIL
 10
9.0727137013839219
 20
-52.22894800207618
 30
0.0
 42
0.2988660000000063
  0
VERTEX
  5
23EA
  8
SAPA_PROFIL
 10
8.5018557013838922
 20
-53.166228002076217
 30
0.0
 42
0.4241419999999882
  0
VERTEX
  5
23EB
  8
SAPA_PROFIL
 10
9.5012847013839483
 20
-54.200000002076237
 30
0.0
  0
VERTEX
  5
23EC
  8
SAPA_PROFIL
 10
10.801284701383951
 20
-54.200000002076237
 30
0.0
 42
-0.4142140000000128
  0
VERTEX
  5
23ED
  8
SAPA_PROFIL
 10
11.80128470138396
 20
-55.20000000207623
 30
0.0
  0
VERTEX
  5
23EE
  8
SAPA_PROFIL
 10
11.027694701383931
 20
-69.027929002076277
 30
0.0
 42
-0.3979379999999925
  0
VERTEX
  5
23EF
  8
SAPA_PROFIL
 10
10.52847570138395
 20
-69.500000002076249
 30
0.0
  0
VERTEX
  5
23F0
  8
SAPA_PROFIL
 10
6.0012847013839501
 20
-69.500000002076249
 30
0.0
 42
-0.4142140000000251
  0
VERTEX
  5
23F1
  8
SAPA_PROFIL
 10
5.5012847013839501
 20
-69.000000002076249
 30
0.0
  0
VERTEX
  5
23F2
  8
SAPA_PROFIL
 10
5.5012847013839501
 20
-65.500000002076234
 30
0.0
 42
0.4142140000000128
  0
VERTEX
  5
23F3
  8
SAPA_PROFIL
 10
5.0012847013839501
 20
-65.000000002076249
 30
0.0
  0
VERTEX
  5
23F4
  8
SAPA_PROFIL
 10
1.301284701383933
 20
-65.000000002076234
 30
0.0
 42
0.4142139999999104
  0
VERTEX
  5
23F5
  8
SAPA_PROFIL
 10
1.0012847013839281
 20
-65.30000000207626
 30
0.0
  0
VERTEX
  5
23F6
  8
SAPA_PROFIL
 10
1.0012847013839281
 20
-66.200000002076237
 30
0.0
 42
0.4142139999999101
  0
VERTEX
  5
23F7
  8
SAPA_PROFIL
 10
1.301284701383933
 20
-66.500000002076249
 30
0.0
  0
VERTEX
  5
23F8
  8
SAPA_PROFIL
 10
3.301284701383961
 20
-66.500000002076249
 30
0.0
 42
-0.4142139999999691
  0
VERTEX
  5
23F9
  8
SAPA_PROFIL
 10
3.5012847013839501
 20
-66.700000002076237
 30
0.0
  0
VERTEX
  5
23FA
  8
SAPA_PROFIL
 10
3.501284701383951
 20
-69.500000002076249
 30
0.0
 42
-0.577350269189605
  0
VERTEX
  5
23FB
  8
SAPA_PROFIL
 10
3.2012847013839472
 20
-69.673205082833121
 30
0.0
  0
VERTEX
  5
23FC
  8
SAPA_PROFIL
 10
2.9012847013839429
 20
-69.500000002076249
 30
0.0
  0
VERTEX
  5
23FD
  8
SAPA_PROFIL
 10
-0.8937152986160796
 20
-69.500000002076192
 30
0.0
 42
0.414213999999992
  0
VERTEX
  5
23FE
  8
SAPA_PROFIL
 10
-1.393715298616079
 20
-70.000000002076249
 30
0.0
  0
VERTEX
  5
23FF
  8
SAPA_PROFIL
 10
-1.393715298616079
 20
-70.700000002076237
 30
0.0
 42
-0.4142139999998548
  0
VERTEX
  5
2400
  8
SAPA_PROFIL
 10
-1.6937152986160271
 20
-71.000000002076249
 30
0.0
  0
VERTEX
  5
2401
  8
SAPA_PROFIL
 10
-6.8740992986160387
 20
-71.000000002076249
 30
0.0
  0
VERTEX
  5
2402
  8
SAPA_PROFIL
 10
-7.3937152986160806
 20
-71.30000000207626
 30
0.0
  0
VERTEX
  5
2403
  8
SAPA_PROFIL
 10
-7.9133302986160539
 20
-71.000000002076249
 30
0.0
  0
VERTEX
  5
2404
  8
SAPA_PROFIL
 10
-13.09371529861607
 20
-71.000000002076263
 30
0.0
 42
-0.4142140000000351
  0
VERTEX
  5
2405
  8
SAPA_PROFIL
 10
-13.39371529861608
 20
-70.700000002076251
 30
0.0
  0
VERTEX
  5
2406
  8
SAPA_PROFIL
 10
-13.393715298616019
 20
-70.000000002076263
 30
0.0
 42
0.4142140000000461
  0
VERTEX
  5
2407
  8
SAPA_PROFIL
 10
-13.89371529861608
 20
-69.500000002076263
 30
0.0
  0
VERTEX
  5
2408
  8
SAPA_PROFIL
 10
-15.89871529861607
 20
-69.500000002076263
 30
0.0
  0
VERTEX
  5
2409
  8
SAPA_PROFIL
 10
-16.198715298616062
 20
-69.673205082833135
 30
0.0
 42
-0.5773502691896303
  0
VERTEX
  5
240A
  8
SAPA_PROFIL
 10
-16.498715298616041
 20
-69.500000002076263
 30
0.0
  0
VERTEX
  5
240B
  8
SAPA_PROFIL
 10
-16.498715298616041
 20
-66.700000002076251
 30
0.0
 42
-0.414213999999813
  0
VERTEX
  5
240C
  8
SAPA_PROFIL
 10
-16.298715298616081
 20
-66.500000002076263
 30
0.0
  0
VERTEX
  5
240D
  8
SAPA_PROFIL
 10
-14.298715298616081
 20
-66.500000002076291
 30
0.0
 42
0.4142139999998962
  0
VERTEX
  5
240E
  8
SAPA_PROFIL
 10
-13.998715298616039
 20
-66.200000002076251
 30
0.0
  0
VERTEX
  5
240F
  8
SAPA_PROFIL
 10
-13.99871529861608
 20
-65.300000002076274
 30
0.0
 42
0.4142139999999103
  0
VERTEX
  5
2410
  8
SAPA_PROFIL
 10
-14.298715298616081
 20
-65.000000002076263
 30
0.0
  0
VERTEX
  5
2411
  8
SAPA_PROFIL
 10
-17.998715298616041
 20
-65.000000002076263
 30
0.0
 42
0.414214000000021
  0
VERTEX
  5
2412
  8
SAPA_PROFIL
 10
-18.498715298616041
 20
-65.500000002076263
 30
0.0
  0
VERTEX
  5
2413
  8
SAPA_PROFIL
 10
-18.498715298616041
 20
-67.200000002076251
 30
0.0
 42
-0.4142135623730951
  0
VERTEX
  5
2414
  8
SAPA_PROFIL
 10
-18.798715298616049
 20
-67.500000002076263
 30
0.0
  0
VERTEX
  5
2415
  8
SAPA_PROFIL
 10
-19.821996641218782
 20
-68.010622989798236
 30
0.0
 42
-0.4142135623730953
  0
VERTEX
  5
2416
  8
SAPA_PROFIL
 10
-20.19618159669459
 20
-67.810658945290839
 30
0.0
  0
VERTEX
  5
2417
  8
SAPA_PROFIL
 10
-20.210700005941689
 20
-67.762813195292352
 30
0.0
  0
VERTEX
  5
2418
  8
SAPA_PROFIL
 10
-21.713801086703711
 20
-67.762729587408714
 30
0.0
 42
0.4769755326981643
  0
VERTEX
  5
2419
  8
SAPA_PROFIL
 10
-22.016053911210172
 20
-68.13438646235457
 30
0.0
  0
VERTEX
  5
241A
  8
SAPA_PROFIL
 10
-21.634607315082469
 20
-69.947616933012824
 30
0.0
 42
0.2216946626430193
  0
SEQEND
  5
241B
  8
SAPA_PROFIL
  0
POLYLINE
  5
1848
  8
SAPA_PROFIL
 66
     1
 10
0.0
 20
0.0
 30
0.0
 70
     1
  0
VERTEX
  5
241C
  8
SAPA_PROFIL
 10
1.8012847013839379
 20
-87.400000002076226
 30
0.0
  0
VERTEX
  5
241D
  8
SAPA_PROFIL
 10
1.8012847013839379
 20
-89.000000002076234
 30
0.0
 42
-0.414214000000042
  0
VERTEX
  5
241E
  8
SAPA_PROFIL
 10
1.501284701383927
 20
-89.300000002076246
 30
0.0
  0
VERTEX
  5
241F
  8
SAPA_PROFIL
 10
-16.49871529861603
 20
-89.300000002076274
 30
0.0
 42
-0.4142140000001599
  0
VERTEX
  5
2420
  8
SAPA_PROFIL
 10
-16.79871529861607
 20
-89.000000002076263
 30
0.0
  0
VERTEX
  5
2421
  8
SAPA_PROFIL
 10
-16.798715298616081
 20
-87.40000000207624
 30
0.0
 42
-0.4142140000000628
  0
VERTEX
  5
2422
  8
SAPA_PROFIL
 10
-16.59871529861605
 20
-87.200000002076237
 30
0.0
  0
VERTEX
  5
2423
  8
SAPA_PROFIL
 10
-16.498715298616041
 20
-87.200000002076237
 30
0.0
 42
0.4142139999998963
  0
VERTEX
  5
2424
  8
SAPA_PROFIL
 10
-16.198715298616062
 20
-86.900000002076226
 30
0.0
  0
VERTEX
  5
2425
  8
SAPA_PROFIL
 10
-16.198715298616111
 20
-85.500000002076263
 30
0.0
 42
0.4142139999999518
  0
VERTEX
  5
2426
  8
SAPA_PROFIL
 10
-16.498715298616041
 20
-85.200000002076251
 30
0.0
  0
VERTEX
  5
2427
  8
SAPA_PROFIL
 10
-16.59871529861605
 20
-85.200000002076251
 30
0.0
 42
-0.4142139999999794
  0
VERTEX
  5
2428
  8
SAPA_PROFIL
 10
-16.798715298616081
 20
-85.000000002076249
 30
0.0
  0
VERTEX
  5
2429
  8
SAPA_PROFIL
 10
-16.798715298616081
 20
-72.000000002076263
 30
0.0
 42
-0.4142139999999962
  0
VERTEX
  5
242A
  8
SAPA_PROFIL
 10
-16.298715298616081
 20
-71.500000002076263
 30
0.0
  0
VERTEX
  5
242B
  8
SAPA_PROFIL
 10
-15.59371529861607
 20
-71.500000002076263
 30
0.0
 42
-0.4142140000000128
  0
VERTEX
  5
242C
  8
SAPA_PROFIL
 10
-15.09371529861607
 20
-72.000000002076263
 30
0.0
  0
VERTEX
  5
242D
  8
SAPA_PROFIL
 10
-15.09371529861607
 20
-72.200000002076251
 30
0.0
 42
0.4142140000000127
  0
VERTEX
  5
242E
  8
SAPA_PROFIL
 10
-14.59371529861607
 20
-72.700000002076251
 30
0.0
  0
VERTEX
  5
242F
  8
SAPA_PROFIL
 10
-0.1937152986160342
 20
-72.700000002076294
 30
0.0
 42
0.4142139999999795
  0
VERTEX
  5
2430
  8
SAPA_PROFIL
 10
0.3062847013839729
 20
-72.200000002076223
 30
0.0
  0
VERTEX
  5
2431
  8
SAPA_PROFIL
 10
0.3062847013839729
 20
-71.500000002076249
 30
0.0
 42
-0.4142140000000462
  0
VERTEX
  5
2432
  8
SAPA_PROFIL
 10
0.8062847013839729
 20
-71.000000002076249
 30
0.0
  0
VERTEX
  5
2433
  8
SAPA_PROFIL
 10
10.50128470138395
 20
-71.000000002076249
 30
0.0
 42
-0.4142140000000128
  0
VERTEX
  5
2434
  8
SAPA_PROFIL
 10
11.00128470138395
 20
-71.500000002076249
 30
0.0
  0
VERTEX
  5
2435
  8
SAPA_PROFIL
 10
11.00128470138395
 20
-88.78312200207624
 30
0.0
 42
-0.2679490000000162
  0
VERTEX
  5
2436
  8
SAPA_PROFIL
 10
10.50128470138395
 20
-89.649147002076276
 30
0.0
  0
VERTEX
  5
2437
  8
SAPA_PROFIL
 10
3.7512847013839572
 20
-93.546262002076261
 30
0.0
 42
-0.5773500000000551
  0
VERTEX
  5
2438
  8
SAPA_PROFIL
 10
3.3012847013839681
 20
-93.286454002076255
 30
0.0
  0
VERTEX
  5
2439
  8
SAPA_PROFIL
 10
3.301284701383945
 20
-86.700000002076237
 30
0.0
 42
0.4142140000000155
  0
VERTEX
  5
243A
  8
SAPA_PROFIL
 10
1.8012847013839379
 20
-85.200000002076223
 30
0.0
  0
VERTEX
  5
243B
  8
SAPA_PROFIL
 10
1.6012847013839071
 20
-85.200000002076223
 30
0.0
  0
VERTEX
  5
243C
  8
SAPA_PROFIL
 10
1.501284701383927
 20
-85.200000002076294
 30
0.0
 42
0.4142140000000836
  0
VERTEX
  5
243D
  8
SAPA_PROFIL
 10
1.201284701383929
 20
-85.500000002076234
 30
0.0
  0
VERTEX
  5
243E
  8
SAPA_PROFIL
 10
1.201284701383794
 20
-86.900000002076226
 30
0.0
 42
0.4142140000000351
  0
VERTEX
  5
243F
  8
SAPA_PROFIL
 10
1.501284701383927
 20
-87.200000002076237
 30
0.0
  0
VERTEX
  5
2440
  8
SAPA_PROFIL
 10
1.6012847013839071
 20
-87.200000002076237
 30
0.0
 42
-0.4142139999998962
  0
SEQEND
  5
2441
  8
SAPA_PROFIL
  0
POLYLINE
  5
1849
  8
SAPA_PROFIL
 66
     1
 10
0.0
 20
0.0
 30
0.0
 70
     1
  0
VERTEX
  5
2442
  8
SAPA_PROFIL
 10
-60.59871529861617
 20
-93.976394002078337
 30
0.0
 42
0.2134220000000103
  0
VERTEX
  5
2443
  8
SAPA_PROFIL
 10
-60.498715298616148
 20
-93.752787002078378
 30
0.0
  0
VERTEX
  5
2444
  8
SAPA_PROFIL
 10
-60.498715298616148
 20
-89.900000002078329
 30
0.0
 42
-0.414213999999924
  0
VERTEX
  5
2445
  8
SAPA_PROFIL
 10
-60.1987152986162
 20
-89.600000002078275
 30
0.0
  0
VERTEX
  5
2446
  8
SAPA_PROFIL
 10
-59.898715298616189
 20
-89.600000002078318
 30
0.0
  0
VERTEX
  5
2447
  8
SAPA_PROFIL
 10
-58.298715298616159
 20
-90.523761002078345
 30
0.0
 42
0.5773500000001196
  0
VERTEX
  5
2448
  8
SAPA_PROFIL
 10
-57.998715298616148
 20
-90.350556002078349
 30
0.0
  0
VERTEX
  5
2449
  8
SAPA_PROFIL
 10
-57.998715298616148
 20
-88.964915002078328
 30
0.0
 42
0.2679489999999719
  0
VERTEX
  5
244A
  8
SAPA_PROFIL
 10
-58.498715298616162
 20
-88.098890002078349
 30
0.0
  0
VERTEX
  5
244B
  8
SAPA_PROFIL
 10
-60.248715298616162
 20
-87.088527002078365
 30
0.0
 42
-0.267949000000012
  0
VERTEX
  5
244C
  8
SAPA_PROFIL
 10
-60.498715298616268
 20
-86.655514002078348
 30
0.0
  0
VERTEX
  5
244D
  8
SAPA_PROFIL
 10
-60.498715298616162
 20
-76.644487002078336
 30
0.0
 42
-0.2679490000000104
  0
VERTEX
  5
244E
  8
SAPA_PROFIL
 10
-60.248715298616133
 20
-76.211474002078404
 30
0.0
  0
VERTEX
  5
244F
  8
SAPA_PROFIL
 10
-58.498715298616162
 20
-75.201111002078335
 30
0.0
 42
0.2679489999999809
  0
VERTEX
  5
2450
  8
SAPA_PROFIL
 10
-57.998715298616162
 20
-74.335086002078341
 30
0.0
  0
VERTEX
  5
2451
  8
SAPA_PROFIL
 10
-57.998715298616162
 20
-72.949445002078335
 30
0.0
 42
0.5773500000001198
  0
VERTEX
  5
2452
  8
SAPA_PROFIL
 10
-58.298715298616173
 20
-72.776240002078339
 30
0.0
  0
VERTEX
  5
2453
  8
SAPA_PROFIL
 10
-59.898715298616203
 20
-73.700000002078355
 30
0.0
  0
VERTEX
  5
2454
  8
SAPA_PROFIL
 10
-60.198715298616207
 20
-73.700000002078355
 30
0.0
 42
-0.4142139999999795
  0
VERTEX
  5
2455
  8
SAPA_PROFIL
 10
-60.498715298616041
 20
-73.400000002078343
 30
0.0
  0
VERTEX
  5
2456
  8
SAPA_PROFIL
 10
-60.498715298616162
 20
-69.547214002078363
 30
0.0
 42
0.2134217652834391
  0
VERTEX
  5
2457
  8
SAPA_PROFIL
 10
-60.598715298616277
 20
-69.323607204328255
 30
0.0
 42
-0.7625858545243247
  0
VERTEX
  5
2458
  8
SAPA_PROFIL
 10
-60.414136096418822
 20
-68.993281123311235
 30
0.0
  0
VERTEX
  5
2459
  8
SAPA_PROFIL
 10
-60.222753096425087
 20
-69.051354760300313
 30
0.0
  0
VERTEX
  5
245A
  8
SAPA_PROFIL
 10
-58.33690940456404
 20
-70.135919207272067
 30
0.0
  0
VERTEX
  5
245B
  8
SAPA_PROFIL
 10
-58.34747077079102
 20
-70.457676935490326
 30
0.0
 42
0.5773502691897466
  0
VERTEX
  5
245C
  8
SAPA_PROFIL
 10
-58.053314470536172
 20
-70.640630675600491
 30
0.0
  0
VERTEX
  5
245D
  8
SAPA_PROFIL
 10
-57.768632187304533
 20
-70.488496764491742
 30
0.0
 42
0.2216946626430194
  0
VERTEX
  5
245E
  8
SAPA_PROFIL
 10
-57.362823282149748
 20
-69.947616933014942
 30
0.0
  0
VERTEX
  5
245F
  8
SAPA_PROFIL
 10
-56.981376686022031
 20
-68.134386462356701
 30
0.0
 42
0.4769755326981641
  0
VERTEX
  5
2460
  8
SAPA_PROFIL
 10
-57.283629510528499
 20
-67.762729587410817
 30
0.0
  0
VERTEX
  5
2461
  8
SAPA_PROFIL
 10
-58.786730591290507
 20
-67.76281319529447
 30
0.0
  0
VERTEX
  5
2462
  8
SAPA_PROFIL
 10
-58.801249000537609
 20
-67.810658945292957
 30
0.0
 42
-0.4142135623730951
  0
VERTEX
  5
2463
  8
SAPA_PROFIL
 10
-59.175433956013421
 20
-68.010622989800353
 30
0.0
  0
VERTEX
  5
2464
  8
SAPA_PROFIL
 10
-60.496551960714427
 20
-67.500000002078394
 30
0.0
  0
VERTEX
  5
2465
  8
SAPA_PROFIL
 10
-61.736611298616197
 20
-67.500000002078352
 30
0.0
 42
0.2914730000000021
  0
VERTEX
  5
2466
  8
SAPA_PROFIL
 10
-62.642919298616171
 20
-68.077382002078366
 30
0.0
  0
VERTEX
  5
2467
  8
SAPA_PROFIL
 10
-63.80502329861617
 20
-70.569522002078372
 30
0.0
 42
0.3888789999999682
  0
VERTEX
  5
2468
  8
SAPA_PROFIL
 10
-63.398715298616189
 20
-71.858166002078349
 30
0.0
  0
VERTEX
  5
2469
  8
SAPA_PROFIL
 10
-63.248715298616162
 20
-71.944769002078374
 30
0.0
 42
-0.2679490000000116
  0
VERTEX
  5
246A
  8
SAPA_PROFIL
 10
-62.998715298616112
 20
-72.377781002078336
 30
0.0
  0
VERTEX
  5
246B
  8
SAPA_PROFIL
 10
-62.998715298616148
 20
-80.500000002078366
 30
0.0
 42
-0.4142139999999962
  0
VERTEX
  5
246C
  8
SAPA_PROFIL
 10
-63.998715298616162
 20
-81.500000002078423
 30
0.0
  0
VERTEX
  5
246D
  8
SAPA_PROFIL
 10
-65.348715298616185
 20
-81.500000002078366
 30
0.0
 42
-0.4142140000000128
  0
VERTEX
  5
246E
  8
SAPA_PROFIL
 10
-65.848715298616185
 20
-81.000000002078366
 30
0.0
  0
VERTEX
  5
246F
  8
SAPA_PROFIL
 10
-65.848715298616185
 20
-77.867767783264924
 30
0.0
 42
0.198912367379658
  0
VERTEX
  5
2470
  8
SAPA_PROFIL
 10
-66.434501736243092
 20
-76.453554220891803
 30
0.0
  0
VERTEX
  5
2471
  8
SAPA_PROFIL
 10
-69.167795351287651
 20
-73.720260605847272
 30
0.0
 42
1.000556671980007
  0
VERTEX
  5
2472
  8
SAPA_PROFIL
 10
-70.229045298616185
 20
-74.780331002078356
 30
0.0
  0
VERTEX
  5
2473
  8
SAPA_PROFIL
 10
-67.595162298616174
 20
-77.414214002078381
 30
0.0
 42
-0.1989120000000246
  0
VERTEX
  5
2474
  8
SAPA_PROFIL
 10
-67.44871529861615
 20
-77.767767002078358
 30
0.0
  0
VERTEX
  5
2475
  8
SAPA_PROFIL
 10
-67.448715298616207
 20
-81.000000002078366
 30
0.0
 42
-0.4142140000000129
  0
VERTEX
  5
2476
  8
SAPA_PROFIL
 10
-67.948715298616193
 20
-81.500000002078366
 30
0.0
  0
VERTEX
  5
2477
  8
SAPA_PROFIL
 10
-74.948715298616207
 20
-81.500000002078366
 30
0.0
 42
-0.4142140000000128
  0
VERTEX
  5
2478
  8
SAPA_PROFIL
 10
-75.448715298616193
 20
-81.000000002078366
 30
0.0
  0
VERTEX
  5
2479
  8
SAPA_PROFIL
 10
-75.44871529861615
 20
-73.800000002078377
 30
0.0
 42
0.4142140000000351
  0
VERTEX
  5
247A
  8
SAPA_PROFIL
 10
-75.748715298616162
 20
-73.500000002078366
 30
0.0
  0
VERTEX
  5
247B
  8
SAPA_PROFIL
 10
-75.910938298616145
 20
-73.500000002078366
 30
0.0
 42
0.3482370000000729
  0
VERTEX
  5
247C
  8
SAPA_PROFIL
 10
-76.203012298616159
 20
-73.731495002078361
 30
0.0
  0
VERTEX
  5
247D
  8
SAPA_PROFIL
 10
-77.048715298616116
 20
-77.337170002078381
 30
0.0
  0
VERTEX
  5
247E
  8
SAPA_PROFIL
 10
-77.048715298616116
 20
-81.000000002078366
 30
0.0
 42
-0.4142139999999796
  0
VERTEX
  5
247F
  8
SAPA_PROFIL
 10
-77.548715298616116
 20
-81.500000002078423
 30
0.0
  0
VERTEX
  5
2480
  8
SAPA_PROFIL
 10
-79.998715298616162
 20
-81.500000002078366
 30
0.0
 42
-0.414214000000017
  0
VERTEX
  5
2481
  8
SAPA_PROFIL
 10
-80.498715298616176
 20
-81.000000002078366
 30
0.0
 42
0.4142140000000127
  0
VERTEX
  5
2482
  8
SAPA_PROFIL
 10
-80.998715298616162
 20
-80.500000002078366
 30
0.0
  0
VERTEX
  5
2483
  8
SAPA_PROFIL
 10
-81.998715298616148
 20
-80.500000002078366
 30
0.0
 42
0.414214000000017
  0
VERTEX
  5
2484
  8
SAPA_PROFIL
 10
-82.498715298616162
 20
-81.000000002078366
 30
0.0
  0
VERTEX
  5
2485
  8
SAPA_PROFIL
 10
-82.498715298616133
 20
-117.50000000207829
 30
0.0
  0
VERTEX
  5
2486
  8
SAPA_PROFIL
 10
-81.998715298616148
 20
-118.00000000207829
 30
0.0
  0
VERTEX
  5
2487
  8
SAPA_PROFIL
 10
-78.298715298616102
 20
-118.00000000207829
 30
0.0
 42
0.4142139999999863
  0
VERTEX
  5
2488
  8
SAPA_PROFIL
 10
-77.998715298616148
 20
-117.7000000020783
 30
0.0
  0
VERTEX
  5
2489
  8
SAPA_PROFIL
 10
-77.998715298616148
 20
-116.9324560020783
 30
0.0
 42
0.2896899999999678
  0
VERTEX
  5
248A
  8
SAPA_PROFIL
 10
-78.570144298616114
 20
-116.02894800207829
 30
0.0
 42
0.5507599999999711
  0
VERTEX
  5
248B
  8
SAPA_PROFIL
 10
-78.998715298616148
 20
-116.30000000207831
 30
0.0
  0
VERTEX
  5
248C
  8
SAPA_PROFIL
 10
-78.998715298616148
 20
-116.50000000207829
 30
0.0
 42
-0.4142139999998755
  0
VERTEX
  5
248D
  8
SAPA_PROFIL
 10
-79.298715298616102
 20
-116.80000000207831
 30
0.0
  0
VERTEX
  5
248E
  8
SAPA_PROFIL
 10
-80.798715298616116
 20
-116.80000000207831
 30
0.0
 42
-0.4142140000000503
  0
VERTEX
  5
248F
  8
SAPA_PROFIL
 10
-81.298715298616145
 20
-116.30000000207831
 30
0.0
  0
VERTEX
  5
2490
  8
SAPA_PROFIL
 10
-81.298715298616102
 20
-113.00000000207829
 30
0.0
 42
-0.4142140000000419
  0
VERTEX
  5
2491
  8
SAPA_PROFIL
 10
-80.798715298616116
 20
-112.50000000207839
 30
0.0
  0
VERTEX
  5
2492
  8
SAPA_PROFIL
 10
-79.298715298616102
 20
-112.50000000207829
 30
0.0
 42
-0.4142139999999794
  0
VERTEX
  5
2493
  8
SAPA_PROFIL
 10
-78.998715298616261
 20
-112.80000000207831
 30
0.0
  0
VERTEX
  5
2494
  8
SAPA_PROFIL
 10
-78.998715298616148
 20
-113.00000000207829
 30
0.0
 42
0.5507599999999436
  0
VERTEX
  5
2495
  8
SAPA_PROFIL
 10
-78.570144298616114
 20
-113.2710530020783
 30
0.0
 42
0.2896899999999595
  0
VERTEX
  5
2496
  8
SAPA_PROFIL
 10
-77.998715298616148
 20
-112.3675450020783
 30
0.0
  0
VERTEX
  5
2497
  8
SAPA_PROFIL
 10
-77.998715298616148
 20
-111.3700730020783
 30
0.0
 42
0.0436610000000022
  0
VERTEX
  5
2498
  8
SAPA_PROFIL
 10
-78.006311298616183
 20
-111.28324900207831
 30
0.0
  0
VERTEX
  5
2499
  8
SAPA_PROFIL
 10
-78.283158298616144
 20
-109.7131760020783
 30
0.0
 42
0.8391000000000101
  0
VERTEX
  5
249A
  8
SAPA_PROFIL
 10
-79.267965298616147
 20
-109.7131760020783
 30
0.0
  0
VERTEX
  5
249B
  8
SAPA_PROFIL
 10
-79.474911298616107
 20
-110.8868250020783
 30
0.0
 42
-0.3639700000000376
  0
VERTEX
  5
249C
  8
SAPA_PROFIL
 10
-79.967315298616185
 20
-111.30000000207841
 30
0.0
  0
VERTEX
  5
249D
  8
SAPA_PROFIL
 10
-80.798715298616116
 20
-111.30000000207841
 30
0.0
 42
-0.437328000000032
  0
VERTEX
  5
249E
  8
SAPA_PROFIL
 10
-81.297185298616185
 20
-110.7609060020783
 30
0.0
  0
VERTEX
  5
249F
  8
SAPA_PROFIL
 10
-80.710386298616157
 20
-96.287847002078365
 30
0.0
 42
-0.4023939999998692
  0
VERTEX
  5
24A0
  8
SAPA_PROFIL
 10
-80.410632298616164
 20
-96.000000002078266
 30
0.0
  0
VERTEX
  5
24A1
  8
SAPA_PROFIL
 10
-79.610099298616134
 20
-96.000000002078366
 30
0.0
 42
0.259680999999983
  0
VERTEX
  5
24A2
  8
SAPA_PROFIL
 10
-79.440068298616154
 20
-95.905307002078345
 30
0.0
  0
VERTEX
  5
24A3
  8
SAPA_PROFIL
 10
-78.543669298616109
 20
-94.457961002078378
 30
0.0
 42
0.5877029999999889
  0
VERTEX
  5
24A4
  8
SAPA_PROFIL
 10
-78.798715298616102
 20
-94.000000002078366
 30
0.0
  0
VERTEX
  5
24A5
  8
SAPA_PROFIL
 10
-80.198715298616136
 20
-94.000000002078366
 30
0.0
 42
-0.4142140000000349
  0
VERTEX
  5
24A6
  8
SAPA_PROFIL
 10
-80.498715298616034
 20
-93.700000002078355
 30
0.0
  0
VERTEX
  5
24A7
  8
SAPA_PROFIL
 10
-80.498715298616148
 20
-91.300000002078377
 30
0.0
 42
-0.4142140000000349
  0
VERTEX
  5
24A8
  8
SAPA_PROFIL
 10
-80.198715298616136
 20
-91.000000002078266
 30
0.0
  0
VERTEX
  5
24A9
  8
SAPA_PROFIL
 10
-72.018331298616175
 20
-91.000000002078366
 30
0.0
  0
VERTEX
  5
24AA
  8
SAPA_PROFIL
 10
-71.498715298616148
 20
-90.700000002078355
 30
0.0
  0
VERTEX
  5
24AB
  8
SAPA_PROFIL
 10
-70.97910029861616
 20
-91.000000002078366
 30
0.0
  0
VERTEX
  5
24AC
  8
SAPA_PROFIL
 10
-62.798715298616152
 20
-91.000000002078366
 30
0.0
 42
-0.4142135623730882
  0
VERTEX
  5
24AD
  8
SAPA_PROFIL
 10
-62.498715298616148
 20
-91.300000002078335
 30
0.0
  0
VERTEX
  5
24AE
  8
SAPA_PROFIL
 10
-62.498715298616141
 20
-93.700000002078355
 30
0.0
 42
-0.4142135623730882
  0
VERTEX
  5
24AF
  8
SAPA_PROFIL
 10
-62.798715298616152
 20
-94.000000002078366
 30
0.0
  0
VERTEX
  5
24B0
  8
SAPA_PROFIL
 10
-64.198715298616193
 20
-94.000000002078366
 30
0.0
 42
0.5877029999999041
  0
VERTEX
  5
24B1
  8
SAPA_PROFIL
 10
-64.453762298616184
 20
-94.457961002078378
 30
0.0
  0
VERTEX
  5
24B2
  8
SAPA_PROFIL
 10
-63.661230298616182
 20
-95.705307002078385
 30
0.0
 42
0.2596809999999552
  0
VERTEX
  5
24B3
  8
SAPA_PROFIL
 10
-63.491200298616178
 20
-95.800000002078363
 30
0.0
  0
VERTEX
  5
24B4
  8
SAPA_PROFIL
 10
-60.496549373447593
 20
-95.800000002078363
 30
0.0
  0
VERTEX
  5
24B5
  8
SAPA_PROFIL
 10
-59.175433956013407
 20
-95.289378014356373
 30
0.0
 42
-0.4142135623730953
  0
VERTEX
  5
24B6
  8
SAPA_PROFIL
 10
-58.801249000537588
 20
-95.489342058863784
 30
0.0
  0
VERTEX
  5
24B7
  8
SAPA_PROFIL
 10
-58.786730591290492
 20
-95.537187808862257
 30
0.0
  0
VERTEX
  5
24B8
  8
SAPA_PROFIL
 10
-57.283629510528478
 20
-95.537271416745895
 30
0.0
 42
0.4769755326981643
  0
VERTEX
  5
24B9
  8
SAPA_PROFIL
 10
-56.981376686022017
 20
-95.165614541800039
 30
0.0
  0
VERTEX
  5
24BA
  8
SAPA_PROFIL
 10
-57.362823282149741
 20
-93.352384071141799
 30
0.0
 42
0.2216946626430194
  0
VERTEX
  5
24BB
  8
SAPA_PROFIL
 10
-57.76863218730454
 20
-92.811504239665013
 30
0.0
  0
VERTEX
  5
24BC
  8
SAPA_PROFIL
 10
-58.053314470536179
 20
-92.659370328556236
 30
0.0
 42
0.5773502691897466
  0
VERTEX
  5
24BD
  8
SAPA_PROFIL
 10
-58.347470770790999
 20
-92.842324068666414
 30
0.0
  0
VERTEX
  5
24BE
  8
SAPA_PROFIL
 10
-58.336909404564032
 20
-93.164081796884673
 30
0.0
  0
VERTEX
  5
24BF
  8
SAPA_PROFIL
 10
-60.22275309642508
 20
-94.248646243856413
 30
0.0
  0
VERTEX
  5
24C0
  8
SAPA_PROFIL
 10
-60.414136096418801
 20
-94.306719880845492
 30
0.0
 42
-0.7625858545243257
  0
VERTEX
  5
24C1
  8
SAPA_PROFIL
 10
-60.598715298616277
 20
-93.976393799828486
 30
0.0
  0
SEQEND
  5
24C2
  8
SAPA_PROFIL
  0
POLYLINE
  5
184A
  8
SAPA_PROFIL
 66
     1
 10
0.0
 20
0.0
 30
0.0
 70
     1
  0
VERTEX
  5
24C3
  8
SAPA_PROFIL
 10
-62.1987152986162
 20
-83.500000002078366
 30
0.0
  0
VERTEX
  5
24C4
  8
SAPA_PROFIL
 10
-62.1987152986162
 20
-89.000000002078366
 30
0.0
 42
-0.4142139999999252
  0
VERTEX
  5
24C5
  8
SAPA_PROFIL
 10
-62.498715298616148
 20
-89.300000002078377
 30
0.0
  0
VERTEX
  5
24C6
  8
SAPA_PROFIL
 10
-80.498715298616148
 20
-89.300000002078377
 30
0.0
 42
-0.4142139999998691
  0
VERTEX
  5
24C7
  8
SAPA_PROFIL
 10
-80.798715298616116
 20
-89.000000002078366
 30
0.0
  0
VERTEX
  5
24C8
  8
SAPA_PROFIL
 10
-80.798715298616116
 20
-83.500000002078366
 30
0.0
 42
-0.4142135623730951
  0
VERTEX
  5
24C9
  8
SAPA_PROFIL
 10
-80.498715298616176
 20
-83.200000002078355
 30
0.0
  0
VERTEX
  5
24CA
  8
SAPA_PROFIL
 10
-62.498715298616148
 20
-83.200000002078355
 30
0.0
 42
-0.4142139999999803
  0
SEQEND
  5
24CB
  8
SAPA_PROFIL
  0
POLYLINE
  5
184B
  8
SAPA_PROFIL
 62
     4
 66
     1
 10
0.0
 20
0.0
 30
0.0
  0
VERTEX
  5
24CC
  8
SAPA_PROFIL
 62
     4
 10
-30.449386176261712
 20
-93.094428837964458
 30
0.0
 42
0.5571646428658034
  0
VERTEX
  5
24CD
  8
SAPA_PROFIL
 62
     4
 10
-30.98634668039854
 20
-92.226709923808883
 30
0.0
  0
VERTEX
  5
24CE
  8
SAPA_PROFIL
 62
     4
 10
-48.011083916919738
 20
-92.226709923809366
 30
0.0
 42
0.5571645048035741
  0
VERTEX
  5
24CF
  8
SAPA_PROFIL
 62
     4
 10
-48.548044533880798
 20
-93.094428611675525
 30
0.0
  0
VERTEX
  5
24D0
  8
SAPA_PROFIL
 62
     4
 10
-47.717337446334099
 20
-94.760569267743563
 30
0.0
 42
0.284385813979063
  0
VERTEX
  5
24D1
  8
SAPA_PROFIL
 62
     4
 10
-47.448857137853743
 20
-94.926709923811003
 30
0.0
  0
VERTEX
  5
24D2
  8
SAPA_PROFIL
 62
     4
 10
-31.548573459464439
 20
-94.926709923810975
 30
0.0
 42
0.2843858139786238
  0
VERTEX
  5
24D3
  8
SAPA_PROFIL
 62
     4
 10
-31.28009315098415
 20
-94.76056926774406
 30
0.0
  0
VERTEX
  5
24D4
  8
SAPA_PROFIL
 62
     4
 10
-30.44938606343699
 20
-93.094428611674715
 30
0.0
  0
SEQEND
  5
24D5
  8
SAPA_PROFIL
 62
     4
  0
POLYLINE
  5
184C
  8
SAPA_PROFIL
 62
     4
 66
     1
 10
0.0
 20
0.0
 30
0.0
 70
     1
  0
VERTEX
  5
24D6
  8
SAPA_PROFIL
 62
     4
 10
-53.91632648332638
 20
-95.283541438308575
 30
0.0
  0
VERTEX
  5
24D7
  8
SAPA_PROFIL
 62
     4
 10
-54.180349761702402
 20
-95.690101634312697
 30
0.0
 42
-0.2539676464751066
  0
VERTEX
  5
24D8
  8
SAPA_PROFIL
 62
     4
 10
-54.431950932087112
 20
-95.826709923808806
 30
0.0
  0
VERTEX
  5
24D9
  8
SAPA_PROFIL
 62
     4
 10
-55.813450517292452
 20
-95.826709923808806
 30
0.0
 42
-0.3152987888790479
  0
VERTEX
  5
24DA
  8
SAPA_PROFIL
 62
     4
 10
-56.283296827684772
 20
-95.497719995470675
 30
0.0
  0
VERTEX
  5
24DB
  8
SAPA_PROFIL
 62
     4
 10
-57.178965768593372
 20
-93.036889805019385
 30
0.0
 42
0.2694959974287434
  0
VERTEX
  5
24DC
  8
SAPA_PROFIL
 62
     4
 10
-57.410484814994717
 20
-92.843757830675486
 30
0.0
 42
0.0612686379508233
  0
VERTEX
  5
24DD
  8
SAPA_PROFIL
 62
     4
 10
-57.703160247848011
 20
-92.830174460044987
 30
0.0
  0
VERTEX
  5
24DE
  8
SAPA_PROFIL
 62
     4
 10
-58.05257842515627
 20
-92.628437781316165
 30
0.0
 42
0.5773502691891679
  0
VERTEX
  5
24DF
  8
SAPA_PROFIL
 62
     4
 10
-58.367578425155848
 20
-92.810303116110717
 30
0.0
  0
VERTEX
  5
24E0
  8
SAPA_PROFIL
 62
     4
 10
-58.36757842515609
 20
-93.07741764423703
 30
0.0
  0
VERTEX
  5
24E1
  8
SAPA_PROFIL
 62
     4
 10
-59.766106125790351
 20
-93.886101105545364
 30
0.0
 42
-0.1318219888653519
  0
VERTEX
  5
24E2
  8
SAPA_PROFIL
 62
     4
 10
-59.916279228262688
 20
-93.926393502082746
 30
0.0
  0
VERTEX
  5
24E3
  8
SAPA_PROFIL
 62
     4
 10
-60.098715298699467
 20
-93.926393502076365
 30
0.0
 42
-0.4142135623724291
  0
VERTEX
  5
24E4
  8
SAPA_PROFIL
 62
     4
 10
-60.49871529870002
 20
-93.526393502076743
 30
0.0
  0
VERTEX
  5
24E5
  8
SAPA_PROFIL
 62
     4
 10
-60.498715298698649
 20
-90.126393502075743
 30
0.0
 42
-0.4142135623744271
  0
VERTEX
  5
24E6
  8
SAPA_PROFIL
 62
     4
 10
-60.098715298699467
 20
-89.726393502074743
 30
0.0
  0
VERTEX
  5
24E7
  8
SAPA_PROFIL
 62
     4
 10
-59.919100056428171
 20
-89.726393502074103
 30
0.0
 42
-0.1316524975874005
  0
VERTEX
  5
24E8
  8
SAPA_PROFIL
 62
     4
 10
-59.769100056431348
 20
-89.766585880939701
 30
0.0
  0
VERTEX
  5
24E9
  8
SAPA_PROFIL
 62
     4
 10
-58.164962159429102
 20
-90.692735327592246
 30
0.0
 42
0.1316524975875904
  0
VERTEX
  5
24EA
  8
SAPA_PROFIL
 62
     4
 10
-57.66496215942739
 20
-90.826709923807002
 30
0.0
  0
VERTEX
  5
24EB
  8
SAPA_PROFIL
 62
     4
 10
-57.24871529870002
 20
-90.826709923807002
 30
0.0
 42
0.4142135623730951
  0
VERTEX
  5
24EC
  8
SAPA_PROFIL
 62
     4
 10
-56.24871529870002
 20
-89.826709923807002
 30
0.0
  0
VERTEX
  5
24ED
  8
SAPA_PROFIL
 62
     4
 10
-56.24871529870002
 20
-86.82670992380973
 30
0.0
 42
-0.9999996830128083
  0
VERTEX
  5
24EE
  8
SAPA_PROFIL
 62
     4
 10
-55.24871529870002
 20
-86.826709923807897
 30
0.0
  0
VERTEX
  5
24EF
  8
SAPA_PROFIL
 62
     4
 10
-55.24871529870002
 20
-89.826709923807911
 30
0.0
 42
0.4142135623730951
  0
VERTEX
  5
24F0
  8
SAPA_PROFIL
 62
     4
 10
-54.24871529870002
 20
-90.826709923807911
 30
0.0
  0
VERTEX
  5
24F1
  8
SAPA_PROFIL
 62
     4
 10
-24.748715298615441
 20
-90.826709923807897
 30
0.0
 42
0.4142135623730951
  0
VERTEX
  5
24F2
  8
SAPA_PROFIL
 62
     4
 10
-23.748715298615441
 20
-89.826709923807897
 30
0.0
  0
VERTEX
  5
24F3
  8
SAPA_PROFIL
 62
     4
 10
-23.748715298615441
 20
-86.826709923809716
 30
0.0
 42
-0.9999999999999998
  0
VERTEX
  5
24F4
  8
SAPA_PROFIL
 62
     4
 10
-22.748715298615441
 20
-86.826709923809716
 30
0.0
  0
VERTEX
  5
24F5
  8
SAPA_PROFIL
 62
     4
 10
-22.748715298615441
 20
-89.826709923807897
 30
0.0
 42
0.4142135623736278
  0
VERTEX
  5
24F6
  8
SAPA_PROFIL
 62
     4
 10
-21.748715298615441
 20
-90.826709923807897
 30
0.0
  0
VERTEX
  5
24F7
  8
SAPA_PROFIL
 62
     4
 10
-21.332468437888981
 20
-90.826709923807897
 30
0.0
 42
0.1316524975874375
  0
VERTEX
  5
24F8
  8
SAPA_PROFIL
 62
     4
 10
-20.832468437888782
 20
-90.692735327591862
 30
0.0
  0
VERTEX
  5
24F9
  8
SAPA_PROFIL
 62
     4
 10
-19.22833054088683
 20
-89.766585880939687
 30
0.0
 42
-0.1316524975874
  0
VERTEX
  5
24FA
  8
SAPA_PROFIL
 62
     4
 10
-19.078330540887279
 20
-89.726393502074103
 30
0.0
  0
VERTEX
  5
24FB
  8
SAPA_PROFIL
 62
     4
 10
-18.898715298615979
 20
-89.726393502074714
 30
0.0
 42
-0.4142135623744271
  0
VERTEX
  5
24FC
  8
SAPA_PROFIL
 62
     4
 10
-18.498715298616801
 20
-90.126393502075729
 30
0.0
  0
VERTEX
  5
24FD
  8
SAPA_PROFIL
 62
     4
 10
-18.498715298615441
 20
-93.526393502076715
 30
0.0
 42
-0.4142135623724291
  0
VERTEX
  5
24FE
  8
SAPA_PROFIL
 62
     4
 10
-18.898715298615979
 20
-93.926393502076365
 30
0.0
  0
VERTEX
  5
24FF
  8
SAPA_PROFIL
 62
     4
 10
-19.081151369052758
 20
-93.926393502082732
 30
0.0
 42
-0.1318219888653524
  0
VERTEX
  5
2500
  8
SAPA_PROFIL
 62
     4
 10
-19.231324471525099
 20
-93.886101105545364
 30
0.0
  0
VERTEX
  5
2501
  8
SAPA_PROFIL
 62
     4
 10
-20.62985217200476
 20
-93.077417644320988
 30
0.0
  0
VERTEX
  5
2502
  8
SAPA_PROFIL
 62
     4
 10
-20.62985217200476
 20
-92.810303116107974
 30
0.0
 42
0.577350269189159
  0
VERTEX
  5
2503
  8
SAPA_PROFIL
 62
     4
 10
-20.94485217200436
 20
-92.628437781313394
 30
0.0
  0
VERTEX
  5
2504
  8
SAPA_PROFIL
 62
     4
 10
-21.294270349223019
 20
-92.830174459990516
 30
0.0
 42
0.0612687673629489
  0
VERTEX
  5
2505
  8
SAPA_PROFIL
 62
     4
 10
-21.58694578232323
 20
-92.843757830676708
 30
0.0
 42
0.2694959974285039
  0
VERTEX
  5
2506
  8
SAPA_PROFIL
 62
     4
 10
-21.818464828723759
 20
-93.036889805020664
 30
0.0
  0
VERTEX
  5
2507
  8
SAPA_PROFIL
 62
     4
 10
-22.71413376963342
 20
-95.49771999547383
 30
0.0
 42
-0.3152987888784035
  0
VERTEX
  5
2508
  8
SAPA_PROFIL
 62
     4
 10
-23.18398008002664
 20
-95.826709923810412
 30
0.0
  0
VERTEX
  5
2509
  8
SAPA_PROFIL
 62
     4
 10
-24.565479665231081
 20
-95.826709923808806
 30
0.0
 42
-0.2539676464741841
  0
VERTEX
  5
250A
  8
SAPA_PROFIL
 62
     4
 10
-24.817080835615162
 20
-95.690101634313535
 30
0.0
  0
VERTEX
  5
250B
  8
SAPA_PROFIL
 62
     4
 10
-25.081104113991799
 20
-95.283541438308561
 30
0.0
 42
-0.5862177598324623
  0
VERTEX
  5
250C
  8
SAPA_PROFIL
 62
     4
 10
-24.825362298753451
 20
-94.826709923812075
 30
0.0
  0
VERTEX
  5
250D
  8
SAPA_PROFIL
 62
     4
 10
-23.884187618243651
 20
-94.82670992381972
 30
0.0
 42
0.3152987888813165
  0
VERTEX
  5
250E
  8
SAPA_PROFIL
 62
     4
 10
-23.414341307845891
 20
-94.497719995482953
 30
0.0
  0
VERTEX
  5
250F
  8
SAPA_PROFIL
 62
     4
 10
-22.977577026721931
 20
-93.297719995471738
 30
0.0
 42
0.5205670505515651
  0
VERTEX
  5
2510
  8
SAPA_PROFIL
 62
     4
 10
-23.447423337115151
 20
-92.626709923808988
 30
0.0
  0
VERTEX
  5
2511
  8
SAPA_PROFIL
 62
     4
 10
-28.463864277784008
 20
-92.626709923808946
 30
0.0
 42
0.3702522326300203
  0
VERTEX
  5
2512
  8
SAPA_PROFIL
 62
     4
 10
-28.760387639577338
 20
-92.881169876474686
 30
0.0
 42
0.0982365330332397
  0
VERTEX
  5
2513
  8
SAPA_PROFIL
 62
     4
 10
-28.850840397788279
 20
-94.568856651469673
 30
0.0
 42
0.3735060174783164
  0
VERTEX
  5
2514
  8
SAPA_PROFIL
 62
     4
 10
-28.5538157298773
 20
-94.826709923809716
 30
0.0
  0
VERTEX
  5
2515
  8
SAPA_PROFIL
 62
     4
 10
-28.125362298754641
 20
-94.826709923810625
 30
0.0
 42
-0.5920056181162531
  0
VERTEX
  5
2516
  8
SAPA_PROFIL
 62
     4
 10
-27.872353542437239
 20
-95.287913426338548
 30
0.0
  0
VERTEX
  5
2517
  8
SAPA_PROFIL
 62
     4
 10
-28.133537618592939
 20
-95.690101634316846
 30
0.0
 42
-0.2539676464746725
  0
VERTEX
  5
2518
  8
SAPA_PROFIL
 62
     4
 10
-28.3851387889767
 20
-95.826709923812217
 30
0.0
  0
VERTEX
  5
2519
  8
SAPA_PROFIL
 62
     4
 10
-50.612291808342391
 20
-95.82670992381064
 30
0.0
 42
-0.2539676464741819
  0
VERTEX
  5
251A
  8
SAPA_PROFIL
 62
     4
 10
-50.863892978725247
 20
-95.690101634316861
 30
0.0
  0
VERTEX
  5
251B
  8
SAPA_PROFIL
 62
     4
 10
-51.125077054879057
 20
-95.287913426338505
 30
0.0
 42
-0.5920055144124249
  0
VERTEX
  5
251C
  8
SAPA_PROFIL
 62
     4
 10
-50.872068298563548
 20
-94.826709923810654
 30
0.0
  0
VERTEX
  5
251D
  8
SAPA_PROFIL
 62
     4
 10
-50.443614821273329
 20
-94.826709949085654
 30
0.0
 42
0.3735060174775405
  0
VERTEX
  5
251E
  8
SAPA_PROFIL
 62
     4
 10
-50.14659015336364
 20
-94.568856676745554
 30
0.0
 42
0.0355900683670349
  0
VERTEX
  5
251F
  8
SAPA_PROFIL
 62
     4
 10
-50.102696589331387
 20
-93.952983089945761
 30
0.0
 42
0.0624282003873116
  0
VERTEX
  5
2520
  8
SAPA_PROFIL
 62
     4
 10
-50.237042911574321
 20
-92.881169901750638
 30
0.0
 42
0.3702522326309292
  0
VERTEX
  5
2521
  8
SAPA_PROFIL
 62
     4
 10
-50.533566273367697
 20
-92.626709949084912
 30
0.0
  0
VERTEX
  5
2522
  8
SAPA_PROFIL
 62
     4
 10
-55.550007260201212
 20
-92.626709923808775
 30
0.0
 42
0.5205670505515692
  0
VERTEX
  5
2523
  8
SAPA_PROFIL
 62
     4
 10
-56.019853570594442
 20
-93.297719995471738
 30
0.0
  0
VERTEX
  5
2524
  8
SAPA_PROFIL
 62
     4
 10
-55.583089289469477
 20
-94.497719995481191
 30
0.0
 42
0.3152987888807539
  0
VERTEX
  5
2525
  8
SAPA_PROFIL
 62
     4
 10
-55.113242979073632
 20
-94.826709923818825
 30
0.0
  0
VERTEX
  5
2526
  8
SAPA_PROFIL
 62
     4
 10
-54.17206829856454
 20
-94.826709923812004
 30
0.0
 42
-0.5862175119221242
  0
VERTEX
  5
2527
  8
SAPA_PROFIL
 62
     4
 10
-53.916326367582592
 20
-95.283541249567136
 30
0.0
 42
0.0000002084758573
  0
SEQEND
  5
2528
  8
SAPA_PROFIL
 62
     4
  0
POLYLINE
  5
184D
  8
SAPA_PROFIL
 62
     4
 66
     1
 10
0.0
 20
0.0
 30
0.0
  0
VERTEX
  5
2529
  8
SAPA_PROFIL
 62
     4
 10
-48.548044421055778
 20
-70.205571761767203
 30
0.0
 42
0.5571646428658034
  0
VERTEX
  5
252A
  8
SAPA_PROFIL
 62
     4
 10
-48.011083916918949
 20
-71.073290675922763
 30
0.0
  0
VERTEX
  5
252B
  8
SAPA_PROFIL
 62
     4
 10
-30.986346680397759
 20
-71.073290675922294
 30
0.0
 42
0.5571645048035741
  0
VERTEX
  5
252C
  8
SAPA_PROFIL
 62
     4
 10
-30.449386063436702
 20
-70.205571988056136
 30
0.0
  0
VERTEX
  5
252D
  8
SAPA_PROFIL
 62
     4
 10
-31.280093150983401
 20
-68.539431331988098
 30
0.0
 42
0.284385813979063
  0
VERTEX
  5
252E
  8
SAPA_PROFIL
 62
     4
 10
-31.54857345946375
 20
-68.373290675920643
 30
0.0
  0
VERTEX
  5
252F
  8
SAPA_PROFIL
 62
     4
 10
-47.448857137853061
 20
-68.373290675920671
 30
0.0
 42
0.2843858139786238
  0
VERTEX
  5
2530
  8
SAPA_PROFIL
 62
     4
 10
-47.717337446333339
 20
-68.539431331987601
 30
0.0
  0
VERTEX
  5
2531
  8
SAPA_PROFIL
 62
     4
 10
-48.548044533880507
 20
-70.205571988056946
 30
0.0
  0
SEQEND
  5
2532
  8
SAPA_PROFIL
 62
     4
  0
POLYLINE
  5
184E
  8
SAPA_PROFIL
 62
     4
 66
     1
 10
0.0
 20
0.0
 30
0.0
 70
     1
  0
VERTEX
  5
2533
  8
SAPA_PROFIL
 62
     4
 10
-25.08110411399111
 20
-68.016459161423086
 30
0.0
  0
VERTEX
  5
2534
  8
SAPA_PROFIL
 62
     4
 10
-24.817080835615101
 20
-67.60989896541895
 30
0.0
 42
-0.2539676464751066
  0
VERTEX
  5
2535
  8
SAPA_PROFIL
 62
     4
 10
-24.565479665230392
 20
-67.47329067592284
 30
0.0
  0
VERTEX
  5
2536
  8
SAPA_PROFIL
 62
     4
 10
-23.183980080025052
 20
-67.47329067592284
 30
0.0
 42
-0.3152987888790479
  0
VERTEX
  5
2537
  8
SAPA_PROFIL
 62
     4
 10
-22.714133769632731
 20
-67.802280604261
 30
0.0
  0
VERTEX
  5
2538
  8
SAPA_PROFIL
 62
     4
 10
-21.818464828724132
 20
-70.263110794712276
 30
0.0
 42
0.2694959974287434
  0
VERTEX
  5
2539
  8
SAPA_PROFIL
 62
     4
 10
-21.586945782322768
 20
-70.456242769056175
 30
0.0
 42
0.0612686379508233
  0
VERTEX
  5
253A
  8
SAPA_PROFIL
 62
     4
 10
-21.294270349469489
 20
-70.469826139686688
 30
0.0
  0
VERTEX
  5
253B
  8
SAPA_PROFIL
 62
     4
 10
-20.94485217216123
 20
-70.671562818415509
 30
0.0
 42
0.5773502691891679
  0
VERTEX
  5
253C
  8
SAPA_PROFIL
 62
     4
 10
-20.629852172161641
 20
-70.489697483620944
 30
0.0
  0
VERTEX
  5
253D
  8
SAPA_PROFIL
 62
     4
 10
-20.629852172161399
 20
-70.22258295549463
 30
0.0
  0
VERTEX
  5
253E
  8
SAPA_PROFIL
 62
     4
 10
-19.231324471527142
 20
-69.41389949418631
 30
0.0
 42
-0.1318219888653519
  0
VERTEX
  5
253F
  8
SAPA_PROFIL
 62
     4
 10
-19.081151369054801
 20
-69.373607097648915
 30
0.0
  0
VERTEX
  5
2540
  8
SAPA_PROFIL
 62
     4
 10
-18.898715298618018
 20
-69.373607097655281
 30
0.0
 42
-0.4142135623724291
  0
VERTEX
  5
2541
  8
SAPA_PROFIL
 62
     4
 10
-18.498715298617469
 20
-69.773607097654903
 30
0.0
  0
VERTEX
  5
2542
  8
SAPA_PROFIL
 62
     4
 10
-18.498715298618841
 20
-73.173607097655903
 30
0.0
 42
-0.4142135623744271
  0
VERTEX
  5
2543
  8
SAPA_PROFIL
 62
     4
 10
-18.898715298618018
 20
-73.573607097656918
 30
0.0
  0
VERTEX
  5
2544
  8
SAPA_PROFIL
 62
     4
 10
-19.078330540889318
 20
-73.573607097657558
 30
0.0
 42
-0.1316524975874005
  0
VERTEX
  5
2545
  8
SAPA_PROFIL
 62
     4
 10
-19.228330540886141
 20
-73.53341471879196
 30
0.0
  0
VERTEX
  5
2546
  8
SAPA_PROFIL
 62
     4
 10
-20.832468437888402
 20
-72.607265272139429
 30
0.0
 42
0.1316524975875904
  0
VERTEX
  5
2547
  8
SAPA_PROFIL
 62
     4
 10
-21.33246843789011
 20
-72.473290675924659
 30
0.0
  0
VERTEX
  5
2548
  8
SAPA_PROFIL
 62
     4
 10
-21.74871529861748
 20
-72.473290675924659
 30
0.0
 42
0.4142135623730951
  0
VERTEX
  5
2549
  8
SAPA_PROFIL
 62
     4
 10
-22.74871529861748
 20
-73.473290675924659
 30
0.0
  0
VERTEX
  5
254A
  8
SAPA_PROFIL
 62
     4
 10
-22.74871529861748
 20
-76.47329067592193
 30
0.0
 42
-0.9999996830128083
  0
VERTEX
  5
254B
  8
SAPA_PROFIL
 62
     4
 10
-23.748715298617469
 20
-76.473290675923749
 30
0.0
  0
VERTEX
  5
254C
  8
SAPA_PROFIL
 62
     4
 10
-23.748715298617469
 20
-73.473290675923749
 30
0.0
 42
0.4142135623730951
  0
VERTEX
  5
254D
  8
SAPA_PROFIL
 62
     4
 10
-24.74871529861748
 20
-72.473290675923735
 30
0.0
  0
VERTEX
  5
254E
  8
SAPA_PROFIL
 62
     4
 10
-54.248715298702052
 20
-72.473290675923764
 30
0.0
 42
0.4142135623730951
  0
VERTEX
  5
254F
  8
SAPA_PROFIL
 62
     4
 10
-55.248715298702059
 20
-73.473290675923764
 30
0.0
  0
VERTEX
  5
2550
  8
SAPA_PROFIL
 62
     4
 10
-55.248715298702059
 20
-76.473290675921945
 30
0.0
 42
-0.9999999999999998
  0
VERTEX
  5
2551
  8
SAPA_PROFIL
 62
     4
 10
-56.248715298702059
 20
-76.473290675921945
 30
0.0
  0
VERTEX
  5
2552
  8
SAPA_PROFIL
 62
     4
 10
-56.248715298702059
 20
-73.473290675923764
 30
0.0
 42
0.4142135623736278
  0
VERTEX
  5
2553
  8
SAPA_PROFIL
 62
     4
 10
-57.248715298702059
 20
-72.473290675923764
 30
0.0
  0
VERTEX
  5
2554
  8
SAPA_PROFIL
 62
     4
 10
-57.664962159428519
 20
-72.473290675923764
 30
0.0
 42
0.1316524975874375
  0
VERTEX
  5
2555
  8
SAPA_PROFIL
 62
     4
 10
-58.164962159428718
 20
-72.607265272139799
 30
0.0
  0
VERTEX
  5
2556
  8
SAPA_PROFIL
 62
     4
 10
-59.769100056430659
 20
-73.533414718791974
 30
0.0
 42
-0.1316524975874
  0
VERTEX
  5
2557
  8
SAPA_PROFIL
 62
     4
 10
-59.91910005643021
 20
-73.573607097657558
 30
0.0
  0
VERTEX
  5
2558
  8
SAPA_PROFIL
 62
     4
 10
-60.098715298701507
 20
-73.573607097656932
 30
0.0
 42
-0.4142135623744271
  0
VERTEX
  5
2559
  8
SAPA_PROFIL
 62
     4
 10
-60.498715298700702
 20
-73.173607097655932
 30
0.0
  0
VERTEX
  5
255A
  8
SAPA_PROFIL
 62
     4
 10
-60.498715298702052
 20
-69.773607097654931
 30
0.0
 42
-0.4142135623724291
  0
VERTEX
  5
255B
  8
SAPA_PROFIL
 62
     4
 10
-60.098715298701507
 20
-69.373607097655295
 30
0.0
  0
VERTEX
  5
255C
  8
SAPA_PROFIL
 62
     4
 10
-59.916279228264742
 20
-69.373607097648929
 30
0.0
 42
-0.1318219888653524
  0
VERTEX
  5
255D
  8
SAPA_PROFIL
 62
     4
 10
-59.76610612579239
 20
-69.41389949418631
 30
0.0
  0
VERTEX
  5
255E
  8
SAPA_PROFIL
 62
     4
 10
-58.367578425312729
 20
-70.222582955410658
 30
0.0
  0
VERTEX
  5
255F
  8
SAPA_PROFIL
 62
     4
 10
-58.367578425312729
 20
-70.489697483623686
 30
0.0
 42
0.577350269189159
  0
VERTEX
  5
2560
  8
SAPA_PROFIL
 62
     4
 10
-58.052578425313143
 20
-70.671562818418252
 30
0.0
  0
VERTEX
  5
2561
  8
SAPA_PROFIL
 62
     4
 10
-57.703160248094477
 20
-70.469826139741144
 30
0.0
 42
0.0612687673629489
  0
VERTEX
  5
2562
  8
SAPA_PROFIL
 62
     4
 10
-57.410484814994263
 20
-70.456242769054938
 30
0.0
 42
0.2694959974285039
  0
VERTEX
  5
2563
  8
SAPA_PROFIL
 62
     4
 10
-57.178965768593741
 20
-70.263110794710997
 30
0.0
  0
VERTEX
  5
2564
  8
SAPA_PROFIL
 62
     4
 10
-56.283296827684069
 20
-67.802280604257831
 30
0.0
 42
-0.3152987888784035
  0
VERTEX
  5
2565
  8
SAPA_PROFIL
 62
     4
 10
-55.813450517290853
 20
-67.473290675921248
 30
0.0
  0
VERTEX
  5
2566
  8
SAPA_PROFIL
 62
     4
 10
-54.431950932086409
 20
-67.473290675922854
 30
0.0
 42
-0.2539676464741841
  0
VERTEX
  5
2567
  8
SAPA_PROFIL
 62
     4
 10
-54.180349761702331
 20
-67.609898965418125
 30
0.0
  0
VERTEX
  5
2568
  8
SAPA_PROFIL
 62
     4
 10
-53.916326483325697
 20
-68.0164591614231
 30
0.0
 42
-0.5862177598324623
  0
VERTEX
  5
2569
  8
SAPA_PROFIL
 62
     4
 10
-54.172068298564042
 20
-68.4732906759196
 30
0.0
  0
VERTEX
  5
256A
  8
SAPA_PROFIL
 62
     4
 10
-55.113242979073853
 20
-68.47329067591194
 30
0.0
 42
0.3152987888813165
  0
VERTEX
  5
256B
  8
SAPA_PROFIL
 62
     4
 10
-55.583089289471609
 20
-68.802280604248693
 30
0.0
  0
VERTEX
  5
256C
  8
SAPA_PROFIL
 62
     4
 10
-56.019853570595572
 20
-70.002280604259923
 30
0.0
 42
0.5205670505515651
  0
VERTEX
  5
256D
  8
SAPA_PROFIL
 62
     4
 10
-55.550007260202342
 20
-70.673290675922672
 30
0.0
  0
VERTEX
  5
256E
  8
SAPA_PROFIL
 62
     4
 10
-50.533566319533492
 20
-70.673290675922686
 30
0.0
 42
0.3702522326300203
  0
VERTEX
  5
256F
  8
SAPA_PROFIL
 62
     4
 10
-50.237042957740158
 20
-70.418830723256988
 30
0.0
 42
0.0982365330332397
  0
VERTEX
  5
2570
  8
SAPA_PROFIL
 62
     4
 10
-50.146590199529221
 20
-68.731143948261973
 30
0.0
 42
0.3735060174783164
  0
VERTEX
  5
2571
  8
SAPA_PROFIL
 62
     4
 10
-50.443614867440203
 20
-68.473290675921945
 30
0.0
  0
VERTEX
  5
2572
  8
SAPA_PROFIL
 62
     4
 10
-50.872068298562859
 20
-68.473290675921035
 30
0.0
 42
-0.5920056181162531
  0
VERTEX
  5
2573
  8
SAPA_PROFIL
 62
     4
 10
-51.125077054880258
 20
-68.012087173393112
 30
0.0
  0
VERTEX
  5
2574
  8
SAPA_PROFIL
 62
     4
 10
-50.863892978724557
 20
-67.609898965414814
 30
0.0
 42
-0.2539676464746725
  0
VERTEX
  5
2575
  8
SAPA_PROFIL
 62
     4
 10
-50.612291808340792
 20
-67.473290675919444
 30
0.0
  0
VERTEX
  5
2576
  8
SAPA_PROFIL
 62
     4
 10
-28.385138788975109
 20
-67.473290675921021
 30
0.0
 42
-0.2539676464741819
  0
VERTEX
  5
2577
  8
SAPA_PROFIL
 62
     4
 10
-28.13353761859225
 20
-67.6098989654148
 30
0.0
  0
VERTEX
  5
2578
  8
SAPA_PROFIL
 62
     4
 10
-27.872353542438439
 20
-68.012087173393141
 30
0.0
 42
-0.5920055144124249
  0
VERTEX
  5
2579
  8
SAPA_PROFIL
 62
     4
 10
-28.125362298753949
 20
-68.473290675921021
 30
0.0
  0
VERTEX
  5
257A
  8
SAPA_PROFIL
 62
     4
 10
-28.553815776044171
 20
-68.473290650646021
 30
0.0
 42
0.3735060174775405
  0
VERTEX
  5
257B
  8
SAPA_PROFIL
 62
     4
 10
-28.85084044395386
 20
-68.731143922986107
 30
0.0
 42
0.0355900683670349
  0
VERTEX
  5
257C
  8
SAPA_PROFIL
 62
     4
 10
-28.894734007986109
 20
-69.347017509785886
 30
0.0
 42
0.0624282003873116
  0
VERTEX
  5
257D
  8
SAPA_PROFIL
 62
     4
 10
-28.760387685743169
 20
-70.418830697981022
 30
0.0
 42
0.3702522326309292
  0
VERTEX
  5
257E
  8
SAPA_PROFIL
 62
     4
 10
-28.463864323949789
 20
-70.673290650646749
 30
0.0
  0
VERTEX
  5
257F
  8
SAPA_PROFIL
 62
     4
 10
-23.447423337116291
 20
-70.673290675922885
 30
0.0
 42
0.5205670505515692
  0
VERTEX
  5
2580
  8
SAPA_PROFIL
 62
     4
 10
-22.977577026723061
 20
-70.002280604259909
 30
0.0
  0
VERTEX
  5
2581
  8
SAPA_PROFIL
 62
     4
 10
-23.414341307848009
 20
-68.802280604250456
 30
0.0
 42
0.3152987888807539
  0
VERTEX
  5
2582
  8
SAPA_PROFIL
 62
     4
 10
-23.88418761824386
 20
-68.473290675912835
 30
0.0
  0
VERTEX
  5
2583
  8
SAPA_PROFIL
 62
     4
 10
-24.82536229875295
 20
-68.473290675919657
 30
0.0
 42
-0.5862175119221242
  0
VERTEX
  5
2584
  8
SAPA_PROFIL
 62
     4
 10
-25.081104229734908
 20
-68.016459350164524
 30
0.0
 42
0.0000002084758573
  0
SEQEND
  5
2585
  8
SAPA_PROFIL
 62
     4
  0
POLYLINE
  5
184F
  8
SAPA_PROFIL
 66
     1
 10
0.0
 20
0.0
 30
0.0
 70
     1
  0
VERTEX
  5
2586
  8
SAPA_PROFIL
 10
-62.691421355248508
 20
14.958578643757839
 30
0.0
 42
-0.4142135623730879
  0
VERTEX
  5
2587
  8
SAPA_PROFIL
 10
-62.191421355248508
 20
15.458578643757839
 30
0.0
  0
VERTEX
  5
2588
  8
SAPA_PROFIL
 10
-57.391421355248333
 20
15.458578643757621
 30
0.0
 42
0.4142135623731014
  0
VERTEX
  5
2589
  8
SAPA_PROFIL
 10
-56.891421355248319
 20
15.958578643757621
 30
0.0
  0
VERTEX
  5
258A
  8
SAPA_PROFIL
 10
-56.891421355248099
 20
23.05857864375696
 30
0.0
 42
-0.4142135623730951
  0
VERTEX
  5
258B
  8
SAPA_PROFIL
 10
-56.391421355248099
 20
23.55857864375696
 30
0.0
  0
VERTEX
  5
258C
  8
SAPA_PROFIL
 10
-46.791421355247728
 20
23.55857864375696
 30
0.0
 42
-0.4142135623731054
  0
VERTEX
  5
258D
  8
SAPA_PROFIL
 10
-46.291421355247728
 20
23.05857864375696
 30
0.0
  0
VERTEX
  5
258E
  8
SAPA_PROFIL
 10
-46.291421355247962
 20
16.95857864375705
 30
0.0
 42
-0.4142135623730822
  0
VERTEX
  5
258F
  8
SAPA_PROFIL
 10
-46.791421355247962
 20
16.45857864375705
 30
0.0
  0
VERTEX
  5
2590
  8
SAPA_PROFIL
 10
-51.891421355248781
 20
16.45857864375705
 30
0.0
 42
0.4142135623730919
  0
VERTEX
  5
2591
  8
SAPA_PROFIL
 10
-52.391421355248781
 20
15.95857864375705
 30
0.0
  0
VERTEX
  5
2592
  8
SAPA_PROFIL
 10
-52.391421355248781
 20
12.25857864376019
 30
0.0
 42
-0.414213562373061
  0
VERTEX
  5
2593
  8
SAPA_PROFIL
 10
-52.891421355248781
 20
11.75857864376019
 30
0.0
  0
VERTEX
  5
2594
  8
SAPA_PROFIL
 10
-62.191421355248508
 20
11.75857864375916
 30
0.0
 42
-0.414213562373165
  0
VERTEX
  5
2595
  8
SAPA_PROFIL
 10
-62.691421355248508
 20
12.25857864375916
 30
0.0
  0
SEQEND
  5
2596
  8
SAPA_PROFIL
  0
POLYLINE
  5
1850
  8
SAPA_PROFIL
 66
     1
 10
0.0
 20
0.0
 30
0.0
 70
     1
  0
VERTEX
  5
2597
  8
SAPA_PROFIL
 10
-64.191421355248394
 20
18.05857864375707
 30
0.0
  0
VERTEX
  5
2598
  8
SAPA_PROFIL
 10
-63.726497935683028
 20
18.644962659517891
 30
0.0
 42
-0.7105995015651415
  0
VERTEX
  5
2599
  8
SAPA_PROFIL
 10
-63.191421355248167
 20
18.458578643757161
 30
0.0
  0
VERTEX
  5
259A
  8
SAPA_PROFIL
 10
-63.191421355248387
 20
17.458578643757281
 30
0.0
 42
0.4142135623731451
  0
VERTEX
  5
259B
  8
SAPA_PROFIL
 10
-62.691421355248387
 20
16.958578643757161
 30
0.0
  0
VERTEX
  5
259C
  8
SAPA_PROFIL
 10
-58.891421355248553
 20
16.958578643757161
 30
0.0
 42
0.4142135623730951
  0
VERTEX
  5
259D
  8
SAPA_PROFIL
 10
-58.391421355248561
 20
17.458578643757161
 30
0.0
  0
VERTEX
  5
259E
  8
SAPA_PROFIL
 10
-58.391421355248092
 20
23.05857864375707
 30
0.0
 42
0.4142135623730951
  0
VERTEX
  5
259F
  8
SAPA_PROFIL
 10
-58.891421355248099
 20
23.55857864375707
 30
0.0
  0
VERTEX
  5
25A0
  8
SAPA_PROFIL
 10
-62.691421355248281
 20
23.55857864375707
 30
0.0
 42
0.4142135623730368
  0
VERTEX
  5
25A1
  8
SAPA_PROFIL
 10
-63.191421355248281
 20
23.05857864375719
 30
0.0
  0
VERTEX
  5
25A2
  8
SAPA_PROFIL
 10
-63.191421355248387
 20
22.05857864375707
 30
0.0
 42
-0.7105995015650846
  0
VERTEX
  5
25A3
  8
SAPA_PROFIL
 10
-63.726497935683028
 20
21.87219462799635
 30
0.0
  0
VERTEX
  5
25A4
  8
SAPA_PROFIL
 10
-64.191421355248394
 20
22.458578643757161
 30
0.0
  0
VERTEX
  5
25A5
  8
SAPA_PROFIL
 10
-64.191421355248394
 20
24.55857864375719
 30
0.0
 42
-0.4142135623730951
  0
VERTEX
  5
25A6
  8
SAPA_PROFIL
 10
-63.691421355248387
 20
25.05857864375719
 30
0.0
  0
VERTEX
  5
25A7
  8
SAPA_PROFIL
 10
-44.791421355247742
 20
25.05857864375696
 30
0.0
 42
-0.4142135623730951
  0
VERTEX
  5
25A8
  8
SAPA_PROFIL
 10
-44.291421355247728
 20
24.55857864375696
 30
0.0
  0
VERTEX
  5
25A9
  8
SAPA_PROFIL
 10
-44.291421355247508
 20
22.95857864375705
 30
0.0
  0
VERTEX
  5
25AA
  8
SAPA_PROFIL
 10
-44.291421355247508
 20
22.95857864375705
 30
0.0
 42
0.4142135623730868
  0
VERTEX
  5
25AB
  8
SAPA_PROFIL
 10
-44.7914213552475
 20
22.45857864375705
 30
0.0
  0
VERTEX
  5
25AC
  8
SAPA_PROFIL
 10
-44.791421355247742
 20
15.45857864375705
 30
0.0
 42
-0.4142135623730951
  0
VERTEX
  5
25AD
  8
SAPA_PROFIL
 10
-45.291421355247728
 20
14.95857864375705
 30
0.0
  0
VERTEX
  5
25AE
  8
SAPA_PROFIL
 10
-50.391421355248099
 20
14.95857864375705
 30
0.0
 42
0.4142135623730951
  0
VERTEX
  5
25AF
  8
SAPA_PROFIL
 10
-50.891421355248092
 20
14.45857864375705
 30
0.0
  0
VERTEX
  5
25B0
  8
SAPA_PROFIL
 10
-50.891421355248319
 20
11.45857864375705
 30
0.0
 42
0.4142135623730951
  0
VERTEX
  5
25B1
  8
SAPA_PROFIL
 10
-50.391421355248212
 20
10.95857864375705
 30
0.0
  0
VERTEX
  5
25B2
  8
SAPA_PROFIL
 10
-34.49142135524778
 20
10.95857864375796
 30
0.0
 42
0.4142135623730951
  0
VERTEX
  5
25B3
  8
SAPA_PROFIL
 10
-34.191421355247833
 20
11.258578643757909
 30
0.0
  0
VERTEX
  5
25B4
  8
SAPA_PROFIL
 10
-34.19142135524794
 20
12.546789523465581
 30
0.0
 42
-0.6681786379192988
  0
VERTEX
  5
25B5
  8
SAPA_PROFIL
 10
-33.679289320891939
 20
12.758921557821621
 30
0.0
  0
VERTEX
  5
25B6
  8
SAPA_PROFIL
 10
-31.47928932089178
 20
10.558921557821691
 30
0.0
 42
-0.1989123673796285
  0
VERTEX
  5
25B7
  8
SAPA_PROFIL
 10
-31.391421355247871
 20
10.346789523465761
 30
0.0
  0
VERTEX
  5
25B8
  8
SAPA_PROFIL
 10
-31.39142135524764
 20
9.7585786437578008
 30
0.0
 42
-0.4142135623730951
  0
VERTEX
  5
25B9
  8
SAPA_PROFIL
 10
-31.691421355247709
 20
9.4585786437579582
 30
0.0
  0
VERTEX
  5
25BA
  8
SAPA_PROFIL
 10
-50.391421355248553
 20
9.4585786437579582
 30
0.0
 42
0.4142135623730951
  0
VERTEX
  5
25BB
  8
SAPA_PROFIL
 10
-50.891421355248561
 20
8.9585786437579582
 30
0.0
  0
VERTEX
  5
25BC
  8
SAPA_PROFIL
 10
-50.891421355248561
 20
7.258578643758141
 30
0.0
 42
0.4142135623730951
  0
VERTEX
  5
25BD
  8
SAPA_PROFIL
 10
-50.391421355248553
 20
6.758578643758141
 30
0.0
  0
VERTEX
  5
25BE
  8
SAPA_PROFIL
 10
-38.891421355248781
 20
6.7585786437583693
 30
0.0
 42
-0.4142135623730951
  0
VERTEX
  5
25BF
  8
SAPA_PROFIL
 10
-38.391421355248781
 20
6.2585786437583693
 30
0.0
  0
VERTEX
  5
25C0
  8
SAPA_PROFIL
 10
-38.391421355248781
 20
5.758578643758141
 30
0.0
 42
-0.4142135623730951
  0
VERTEX
  5
25C1
  8
SAPA_PROFIL
 10
-38.891421355248781
 20
5.258578643758141
 30
0.0
  0
VERTEX
  5
25C2
  8
SAPA_PROFIL
 10
-51.891421355248781
 20
5.2585786437591651
 30
0.0
 42
-0.4142135623730951
  0
VERTEX
  5
25C3
  8
SAPA_PROFIL
 10
-52.391421355248781
 20
5.7585786437591651
 30
0.0
  0
VERTEX
  5
25C4
  8
SAPA_PROFIL
 10
-52.391421355248902
 20
9.7585786437601882
 30
0.0
 42
0.4142135623731284
  0
VERTEX
  5
25C5
  8
SAPA_PROFIL
 10
-52.891421355249008
 20
10.25857864376019
 30
0.0
  0
VERTEX
  5
25C6
  8
SAPA_PROFIL
 10
-63.691421355248622
 20
10.258578643758931
 30
0.0
 42
-0.4142135623730951
  0
VERTEX
  5
25C7
  8
SAPA_PROFIL
 10
-64.191421355248622
 20
10.758578643758939
 30
0.0
  0
SEQEND
  5
25C8
  8
SAPA_PROFIL
  0
POLYLINE
  5
1851
  8
SAPA_PROFIL
 66
     1
 10
0.0
 20
0.0
 30
0.0
 70
     1
  0
VERTEX
  5
25C9
  8
SAPA_PROFIL
 10
48.799999999999038
 20
45.000000000000561
 30
0.0
  0
VERTEX
  5
25CA
  8
SAPA_PROFIL
 10
50.799999999999052
 20
45.000000000000561
 30
0.0
  0
VERTEX
  5
25CB
  8
SAPA_PROFIL
 10
50.799999999999052
 20
30.656854249492991
 30
0.0
  0
VERTEX
  5
25CC
  8
SAPA_PROFIL
 10
45.143145750506612
 20
25.000000000000568
 30
0.0
  0
VERTEX
  5
25CD
  8
SAPA_PROFIL
 10
25.799999999999049
 20
25.000000000000568
 30
0.0
  0
VERTEX
  5
25CE
  8
SAPA_PROFIL
 10
25.799999999999049
 20
27.000000000000568
 30
0.0
  0
VERTEX
  5
25CF
  8
SAPA_PROFIL
 10
31.107179676971551
 20
27.000000000000568
 30
0.0
  0
VERTEX
  5
25D0
  8
SAPA_PROFIL
 10
31.799999999999049
 20
26.600000000000708
 30
0.0
  0
VERTEX
  5
25D1
  8
SAPA_PROFIL
 10
32.492820323026763
 20
27.000000000000568
 30
0.0
  0
VERTEX
  5
25D2
  8
SAPA_PROFIL
 10
43.486291501014421
 20
27.000000000000568
 30
0.0
 42
0.1989123673796584
  0
VERTEX
  5
25D3
  8
SAPA_PROFIL
 10
44.900505063387527
 20
27.585786437627458
 30
0.0
  0
VERTEX
  5
25D4
  8
SAPA_PROFIL
 10
48.214213562372152
 20
30.899494936612321
 30
0.0
 42
0.1989123673796572
  0
VERTEX
  5
25D5
  8
SAPA_PROFIL
 10
48.799999999999038
 20
32.31370849898542
 30
0.0
  0
VERTEX
  5
25D6
  8
SAPA_PROFIL
 10
48.799999999999038
 20
38.307179676973078
 30
0.0
  0
VERTEX
  5
25D7
  8
SAPA_PROFIL
 10
49.199999999999129
 20
39.000000000000568
 30
0.0
  0
VERTEX
  5
25D8
  8
SAPA_PROFIL
 10
48.799999999999038
 20
39.692820323028279
 30
0.0
  0
SEQEND
  5
25D9
  8
SAPA_PROFIL
  0
POLYLINE
  5
1852
  8
SAPA_PROFIL
 66
     1
 10
0.0
 20
0.0
 30
0.0
 70
     1
  0
VERTEX
  5
25DA
  8
SAPA_PROFIL
 10
-91.098475071208
 20
-22.800000000000189
 30
0.0
  0
VERTEX
  5
25DB
  8
SAPA_PROFIL
 10
-91.098475071208
 20
-23.800000000000189
 30
0.0
  0
VERTEX
  5
25DC
  8
SAPA_PROFIL
 10
-88.498475071207835
 20
-23.800000000000189
 30
0.0
 42
-0.4142135623730951
  0
VERTEX
  5
25DD
  8
SAPA_PROFIL
 10
-87.998475071207835
 20
-24.300000000000189
 30
0.0
  0
VERTEX
  5
25DE
  8
SAPA_PROFIL
 10
-87.998475071207835
 20
-24.70000000000028
 30
0.0
 42
-0.4142135623730951
  0
VERTEX
  5
25DF
  8
SAPA_PROFIL
 10
-88.298475071207804
 20
-25.000000000000231
 30
0.0
  0
VERTEX
  5
25E0
  8
SAPA_PROFIL
 10
-105.9999999990105
 20
-25.000000000000231
 30
0.0
 42
-0.4142135623730951
  0
VERTEX
  5
25E1
  8
SAPA_PROFIL
 10
-106.4999999990104
 20
-24.500000000000231
 30
0.0
  0
VERTEX
  5
25E2
  8
SAPA_PROFIL
 10
-106.4999999990104
 20
24.499999999999769
 30
0.0
 42
-0.4142135623730951
  0
VERTEX
  5
25E3
  8
SAPA_PROFIL
 10
-105.9999999990104
 20
24.999999999999769
 30
0.0
  0
VERTEX
  5
25E4
  8
SAPA_PROFIL
 10
-88.298475071207775
 20
24.999999999999769
 30
0.0
 42
-0.4142135623730951
  0
VERTEX
  5
25E5
  8
SAPA_PROFIL
 10
-87.998475071207821
 20
24.699999999999811
 30
0.0
  0
VERTEX
  5
25E6
  8
SAPA_PROFIL
 10
-87.998475071207821
 20
24.29999999999972
 30
0.0
 42
-0.4142135623730951
  0
VERTEX
  5
25E7
  8
SAPA_PROFIL
 10
-88.498475071207835
 20
23.79999999999972
 30
0.0
  0
VERTEX
  5
25E8
  8
SAPA_PROFIL
 10
-91.098475071207986
 20
23.79999999999972
 30
0.0
  0
VERTEX
  5
25E9
  8
SAPA_PROFIL
 10
-91.098475071207986
 20
22.79999999999972
 30
0.0
  0
VERTEX
  5
25EA
  8
SAPA_PROFIL
 10
-92.102507830840963
 20
22.22033922157857
 30
0.0
 42
-0.4155392929676362
  0
VERTEX
  5
25EB
  8
SAPA_PROFIL
 10
-93.197126802632965
 20
22.51631264788443
 30
0.0
  0
VERTEX
  5
25EC
  8
SAPA_PROFIL
 10
-93.938264040931927
 20
23.79999999999972
 30
0.0
  0
VERTEX
  5
25ED
  8
SAPA_PROFIL
 10
-104.09999999901061
 20
23.799999999999731
 30
0.0
 42
0.4142135623730951
  0
VERTEX
  5
25EE
  8
SAPA_PROFIL
 10
-105.09999999901061
 20
22.799999999999731
 30
0.0
  0
VERTEX
  5
25EF
  8
SAPA_PROFIL
 10
-105.09999999901061
 20
-22.800000000000178
 30
0.0
 42
0.4142135623730951
  0
VERTEX
  5
25F0
  8
SAPA_PROFIL
 10
-104.09999999901061
 20
-23.800000000000178
 30
0.0
  0
VERTEX
  5
25F1
  8
SAPA_PROFIL
 10
-93.938264040931955
 20
-23.800000000000189
 30
0.0
  0
VERTEX
  5
25F2
  8
SAPA_PROFIL
 10
-93.197126802632994
 20
-22.516312647884892
 30
0.0
 42
-0.4155392929676362
  0
VERTEX
  5
25F3
  8
SAPA_PROFIL
 10
-92.102507830840992
 20
-22.220339221579032
 30
0.0
  0
SEQEND
  5
25F4
  8
SAPA_PROFIL
  0
POLYLINE
  5
1853
  8
SAPA_PROFIL
 66
     1
 10
0.0
 20
0.0
 30
0.0
 70
     1
  0
VERTEX
  5
25F5
  8
SAPA_PROFIL
 10
-86.499999999010456
 20
20.85000000000036
 30
0.0
 42
-0.1989123673797145
  0
VERTEX
  5
25F6
  8
SAPA_PROFIL
 10
-86.587867964654379
 20
20.637867965644091
 30
0.0
  0
VERTEX
  5
25F7
  8
SAPA_PROFIL
 10
-86.987867964654455
 20
20.237867965644451
 30
0.0
 42
-0.668178637919182
  0
VERTEX
  5
25F8
  8
SAPA_PROFIL
 10
-87.499999999010484
 20
20.450000000000269
 30
0.0
  0
VERTEX
  5
25F9
  8
SAPA_PROFIL
 10
-87.499999999010484
 20
21.300000000000178
 30
0.0
 42
0.4142135623730284
  0
VERTEX
  5
25FA
  8
SAPA_PROFIL
 10
-87.999999999010456
 20
21.800000000000178
 30
0.0
  0
VERTEX
  5
25FB
  8
SAPA_PROFIL
 10
-88.390808928730607
 20
21.800000000000178
 30
0.0
 42
0.17632698070845
  0
VERTEX
  5
25FC
  8
SAPA_PROFIL
 10
-88.583645211636394
 20
21.729813332935919
 30
0.0
  0
VERTEX
  5
25FD
  8
SAPA_PROFIL
 10
-90.392836281916061
 20
20.211721773135199
 30
0.0
 42
0.2216946626429421
  0
VERTEX
  5
25FE
  8
SAPA_PROFIL
 10
-90.499999999010015
 20
19.98190844019928
 30
0.0
  0
VERTEX
  5
25FF
  8
SAPA_PROFIL
 10
-90.499999999010456
 20
16.450000000000269
 30
0.0
 42
0.4142135623730951
  0
VERTEX
  5
2600
  8
SAPA_PROFIL
 10
-90.199999999010288
 20
16.150000000000091
 30
0.0
  0
VERTEX
  5
2601
  8
SAPA_PROFIL
 10
-87.799999999010197
 20
16.150000000000539
 30
0.0
 42
0.4142135623730951
  0
VERTEX
  5
2602
  8
SAPA_PROFIL
 10
-87.499999999010484
 20
16.450000000000269
 30
0.0
  0
VERTEX
  5
2603
  8
SAPA_PROFIL
 10
-87.499999999010484
 20
16.85000000000036
 30
0.0
 42
-0.6681786379193188
  0
VERTEX
  5
2604
  8
SAPA_PROFIL
 10
-86.987867964654455
 20
17.062132034356178
 30
0.0
  0
VERTEX
  5
2605
  8
SAPA_PROFIL
 10
-86.587867964654379
 20
16.662132034356091
 30
0.0
 42
-0.198912367379658
  0
VERTEX
  5
2606
  8
SAPA_PROFIL
 10
-86.499999999010456
 20
16.450000000000269
 30
0.0
  0
VERTEX
  5
2607
  8
SAPA_PROFIL
 10
-86.499999999010015
 20
14.65000000000054
 30
0.0
 42
-0.4142135623731284
  0
VERTEX
  5
2608
  8
SAPA_PROFIL
 10
-86.999999999010015
 20
14.15000000000054
 30
0.0
  0
VERTEX
  5
2609
  8
SAPA_PROFIL
 10
-91.499999999010925
 20
14.150000000000089
 30
0.0
 42
-0.4142135623730951
  0
VERTEX
  5
260A
  8
SAPA_PROFIL
 10
-91.999999999010925
 20
14.650000000000089
 30
0.0
  0
VERTEX
  5
260B
  8
SAPA_PROFIL
 10
-91.999999999010015
 20
18.650000000000091
 30
0.0
 42
0.4142135623729619
  0
VERTEX
  5
260C
  8
SAPA_PROFIL
 10
-92.499999999010015
 20
19.150000000000091
 30
0.0
  0
VERTEX
  5
260D
  8
SAPA_PROFIL
 10
-94.516956646213657
 20
19.150000000000091
 30
0.0
 42
0.1763269807084973
  0
VERTEX
  5
260E
  8
SAPA_PROFIL
 10
-94.838350451057053
 20
19.033022221559349
 30
0.0
  0
VERTEX
  5
260F
  8
SAPA_PROFIL
 10
-97.321393803853425
 20
16.949501460030199
 30
0.0
 42
0.2216946626428772
  0
VERTEX
  5
2610
  8
SAPA_PROFIL
 10
-97.499999999010015
 20
16.566479238470951
 30
0.0
  0
VERTEX
  5
2611
  8
SAPA_PROFIL
 10
-97.499999999010484
 20
10.56853372839123
 30
0.0
 42
0.315298788878991
  0
VERTEX
  5
2612
  8
SAPA_PROFIL
 10
-97.171010070673219
 20
10.098687417998461
 30
0.0
  0
VERTEX
  5
2613
  8
SAPA_PROFIL
 10
-93.157979855684516
 20
8.6380638705318233
 30
0.0
 42
-0.3152987888789731
  0
VERTEX
  5
2614
  8
SAPA_PROFIL
 10
-92.499999999010015
 20
7.6983712497458319
 30
0.0
  0
VERTEX
  5
2615
  8
SAPA_PROFIL
 10
-92.499999999010015
 20
6.6500000000000901
 30
0.0
 42
0.4142135623732616
  0
VERTEX
  5
2616
  8
SAPA_PROFIL
 10
-92.199999999010288
 20
6.3499999999999091
 30
0.0
  0
VERTEX
  5
2617
  8
SAPA_PROFIL
 10
-91.799999999010197
 20
6.3499999999999091
 30
0.0
 42
-0.4142135623731506
  0
VERTEX
  5
2618
  8
SAPA_PROFIL
 10
-91.499999999010015
 20
6.050000000000181
 30
0.0
  0
VERTEX
  5
2619
  8
SAPA_PROFIL
 10
-91.499999999010015
 20
5.6500000000000901
 30
0.0
 42
-0.4142135623731505
  0
VERTEX
  5
261A
  8
SAPA_PROFIL
 10
-91.799999999010197
 20
5.3499999999999091
 30
0.0
  0
VERTEX
  5
261B
  8
SAPA_PROFIL
 10
-92.199999999010288
 20
5.3499999999999091
 30
0.0
 42
0.4142135623732061
  0
VERTEX
  5
261C
  8
SAPA_PROFIL
 10
-92.499999999010015
 20
5.050000000000181
 30
0.0
  0
VERTEX
  5
261D
  8
SAPA_PROFIL
 10
-92.499999999010015
 20
0.6242640687119092
 30
0.0
 42
-0.198912367379577
  0
VERTEX
  5
261E
  8
SAPA_PROFIL
 10
-92.587867964654379
 20
0.4121320343560911
 30
0.0
  0
VERTEX
  5
261F
  8
SAPA_PROFIL
 10
-92.999999999010015
 20
0.0
 30
0.0
  0
VERTEX
  5
2620
  8
SAPA_PROFIL
 10
-92.587867964654379
 20
-0.4121320343560911
 30
0.0
 42
-0.1989123673795771
  0
VERTEX
  5
2621
  8
SAPA_PROFIL
 10
-92.499999999010015
 20
-0.6242640687119092
 30
0.0
  0
VERTEX
  5
2622
  8
SAPA_PROFIL
 10
-92.499999999010015
 20
-5.0499999999997272
 30
0.0
 42
0.4142135623732059
  0
VERTEX
  5
2623
  8
SAPA_PROFIL
 10
-92.199999999010288
 20
-5.3499999999999091
 30
0.0
  0
VERTEX
  5
2624
  8
SAPA_PROFIL
 10
-91.799999999010197
 20
-5.3499999999999091
 30
0.0
 42
-0.4142135623731506
  0
VERTEX
  5
2625
  8
SAPA_PROFIL
 10
-91.499999999010015
 20
-5.6500000000000901
 30
0.0
  0
VERTEX
  5
2626
  8
SAPA_PROFIL
 10
-91.499999999010015
 20
-6.0499999999997272
 30
0.0
 42
-0.4142135623731505
  0
VERTEX
  5
2627
  8
SAPA_PROFIL
 10
-91.799999999010197
 20
-6.3499999999999091
 30
0.0
  0
VERTEX
  5
2628
  8
SAPA_PROFIL
 10
-92.199999999010288
 20
-6.3499999999999091
 30
0.0
 42
0.4142135623732615
  0
VERTEX
  5
2629
  8
SAPA_PROFIL
 10
-92.499999999010015
 20
-6.6500000000000901
 30
0.0
  0
VERTEX
  5
262A
  8
SAPA_PROFIL
 10
-92.499999999010015
 20
-7.698371249745378
 30
0.0
 42
-0.3152987888789731
  0
VERTEX
  5
262B
  8
SAPA_PROFIL
 10
-93.157979855684516
 20
-8.6380638705313686
 30
0.0
  0
VERTEX
  5
262C
  8
SAPA_PROFIL
 10
-97.171010070673219
 20
-10.09868741799801
 30
0.0
 42
0.315298788878991
  0
VERTEX
  5
262D
  8
SAPA_PROFIL
 10
-97.499999999010484
 20
-10.56853372839123
 30
0.0
  0
VERTEX
  5
262E
  8
SAPA_PROFIL
 10
-97.499999999010015
 20
-16.566479238470489
 30
0.0
 42
0.2216946626428772
  0
VERTEX
  5
262F
  8
SAPA_PROFIL
 10
-97.321393803853425
 20
-16.949501460029751
 30
0.0
  0
VERTEX
  5
2630
  8
SAPA_PROFIL
 10
-94.838350451057053
 20
-19.033022221559349
 30
0.0
 42
0.1763269807084973
  0
VERTEX
  5
2631
  8
SAPA_PROFIL
 10
-94.516956646213657
 20
-19.150000000000091
 30
0.0
  0
VERTEX
  5
2632
  8
SAPA_PROFIL
 10
-92.499999999010015
 20
-19.150000000000091
 30
0.0
 42
0.4142135623729619
  0
VERTEX
  5
2633
  8
SAPA_PROFIL
 10
-91.999999999010015
 20
-18.650000000000091
 30
0.0
  0
VERTEX
  5
2634
  8
SAPA_PROFIL
 10
-91.999999999010925
 20
-14.650000000000089
 30
0.0
 42
-0.4142135623730951
  0
VERTEX
  5
2635
  8
SAPA_PROFIL
 10
-91.499999999010925
 20
-14.150000000000089
 30
0.0
  0
VERTEX
  5
2636
  8
SAPA_PROFIL
 10
-86.999999999010015
 20
-14.150000000000089
 30
0.0
 42
-0.4142135623731285
  0
VERTEX
  5
2637
  8
SAPA_PROFIL
 10
-86.499999999010015
 20
-14.650000000000089
 30
0.0
  0
VERTEX
  5
2638
  8
SAPA_PROFIL
 10
-86.499999999010456
 20
-16.450000000000269
 30
0.0
 42
-0.198912367379658
  0
VERTEX
  5
2639
  8
SAPA_PROFIL
 10
-86.587867964654379
 20
-16.662132034356091
 30
0.0
  0
VERTEX
  5
263A
  8
SAPA_PROFIL
 10
-86.987867964654455
 20
-17.062132034356178
 30
0.0
 42
-0.6681786379193188
  0
VERTEX
  5
263B
  8
SAPA_PROFIL
 10
-87.499999999010484
 20
-16.849999999999909
 30
0.0
  0
VERTEX
  5
263C
  8
SAPA_PROFIL
 10
-87.499999999010484
 20
-16.450000000000269
 30
0.0
 42
0.4142135623730951
  0
VERTEX
  5
263D
  8
SAPA_PROFIL
 10
-87.799999999010197
 20
-16.150000000000091
 30
0.0
  0
VERTEX
  5
263E
  8
SAPA_PROFIL
 10
-90.199999999010288
 20
-16.150000000000091
 30
0.0
 42
0.4142135623730951
  0
VERTEX
  5
263F
  8
SAPA_PROFIL
 10
-90.499999999010456
 20
-16.450000000000269
 30
0.0
  0
VERTEX
  5
2640
  8
SAPA_PROFIL
 10
-90.499999999010015
 20
-19.98190844019928
 30
0.0
 42
0.221694662642942
  0
VERTEX
  5
2641
  8
SAPA_PROFIL
 10
-90.392836281916061
 20
-20.211721773134741
 30
0.0
  0
VERTEX
  5
2642
  8
SAPA_PROFIL
 10
-88.583645211636394
 20
-21.729813332935471
 30
0.0
 42
0.1763269807084499
  0
VERTEX
  5
2643
  8
SAPA_PROFIL
 10
-88.390808928730607
 20
-21.799999999999731
 30
0.0
  0
VERTEX
  5
2644
  8
SAPA_PROFIL
 10
-87.999999999010456
 20
-21.800000000000178
 30
0.0
 42
0.4142135623730284
  0
VERTEX
  5
2645
  8
SAPA_PROFIL
 10
-87.499999999010484
 20
-21.300000000000178
 30
0.0
  0
VERTEX
  5
2646
  8
SAPA_PROFIL
 10
-87.499999999010484
 20
-20.450000000000269
 30
0.0
 42
-0.668178637919182
  0
VERTEX
  5
2647
  8
SAPA_PROFIL
 10
-86.987867964654455
 20
-20.237867965644
 30
0.0
  0
VERTEX
  5
2648
  8
SAPA_PROFIL
 10
-86.587867964654379
 20
-20.637867965644091
 30
0.0
 42
-0.1989123673797144
  0
VERTEX
  5
2649
  8
SAPA_PROFIL
 10
-86.499999999010456
 20
-20.849999999999909
 30
0.0
  0
VERTEX
  5
264A
  8
SAPA_PROFIL
 10
-86.499999999010456
 20
-23.300000000000178
 30
0.0
 42
-0.4142135623730951
  0
VERTEX
  5
264B
  8
SAPA_PROFIL
 10
-86.99999999901047
 20
-23.800000000000178
 30
0.0
  0
VERTEX
  5
264C
  8
SAPA_PROFIL
 10
-90.699999999010274
 20
-23.800000000000178
 30
0.0
 42
-0.4142135623730951
  0
VERTEX
  5
264D
  8
SAPA_PROFIL
 10
-90.99999999901047
 20
-23.500000000000451
 30
0.0
  0
VERTEX
  5
264E
  8
SAPA_PROFIL
 10
-90.99999999901047
 20
-22.473205080757001
 30
0.0
 42
0.2679491924311428
  0
VERTEX
  5
264F
  8
SAPA_PROFIL
 10
-91.149999999010575
 20
-22.21339745962177
 30
0.0
  0
VERTEX
  5
2650
  8
SAPA_PROFIL
 10
-92.687083486550804
 20
-21.325961894323431
 30
0.0
 42
0.4142135623731709
  0
VERTEX
  5
2651
  8
SAPA_PROFIL
 10
-93.096891107686133
 20
-21.435769515459011
 30
0.0
  0
VERTEX
  5
2652
  8
SAPA_PROFIL
 10
-93.404123202713436
 20
-21.96791111376206
 30
0.0
 42
-0.4663076581551056
  0
VERTEX
  5
2653
  8
SAPA_PROFIL
 10
-94.912936216184335
 20
-22.233955556881028
 30
0.0
  0
VERTEX
  5
2654
  8
SAPA_PROFIL
 10
-99.821393803853425
 20
-18.115270605417209
 30
0.0
 42
-0.2216946626428921
  0
VERTEX
  5
2655
  8
SAPA_PROFIL
 10
-99.999999999010484
 20
-17.732248383857488
 30
0.0
  0
VERTEX
  5
2656
  8
SAPA_PROFIL
 10
-99.999999999010484
 20
-9.7002075382097246
 30
0.0
 42
-0.3152987888789878
  0
VERTEX
  5
2657
  8
SAPA_PROFIL
 10
-99.342020142335983
 20
-8.760514917423734
 30
0.0
  0
VERTEX
  5
2658
  8
SAPA_PROFIL
 10
-95.657979855684516
 20
-7.4196339112449996
 30
0.0
 42
0.3152987888789804
  0
VERTEX
  5
2659
  8
SAPA_PROFIL
 10
-94.999999999010015
 20
-6.479941290459009
 30
0.0
  0
VERTEX
  5
265A
  8
SAPA_PROFIL
 10
-94.999999999010015
 20
6.4799412904594638
 30
0.0
 42
0.3152987888789804
  0
VERTEX
  5
265B
  8
SAPA_PROFIL
 10
-95.657979855684516
 20
7.4196339112454552
 30
0.0
  0
VERTEX
  5
265C
  8
SAPA_PROFIL
 10
-99.342020142335983
 20
8.760514917423734
 30
0.0
 42
-0.3152987888789877
  0
VERTEX
  5
265D
  8
SAPA_PROFIL
 10
-99.999999999010484
 20
9.7002075382097246
 30
0.0
  0
VERTEX
  5
265E
  8
SAPA_PROFIL
 10
-99.999999999010484
 20
17.73224838385795
 30
0.0
 42
-0.2216946626428921
  0
VERTEX
  5
265F
  8
SAPA_PROFIL
 10
-99.821393803853425
 20
18.115270605417209
 30
0.0
  0
VERTEX
  5
2660
  8
SAPA_PROFIL
 10
-94.912936216184335
 20
22.233955556881028
 30
0.0
 42
-0.4663076581551056
  0
VERTEX
  5
2661
  8
SAPA_PROFIL
 10
-93.404123202713436
 20
21.967911113762511
 30
0.0
  0
VERTEX
  5
2662
  8
SAPA_PROFIL
 10
-93.096891107686133
 20
21.435769515459011
 30
0.0
 42
0.414213562373157
  0
VERTEX
  5
2663
  8
SAPA_PROFIL
 10
-92.687083486550804
 20
21.325961894323878
 30
0.0
  0
VERTEX
  5
2664
  8
SAPA_PROFIL
 10
-91.149999999010575
 20
22.213397459622229
 30
0.0
 42
0.2679491924311554
  0
VERTEX
  5
2665
  8
SAPA_PROFIL
 10
-90.99999999901047
 20
22.473205080757449
 30
0.0
  0
VERTEX
  5
2666
  8
SAPA_PROFIL
 10
-90.99999999901047
 20
23.500000000000451
 30
0.0
 42
-0.4142135623730951
  0
VERTEX
  5
2667
  8
SAPA_PROFIL
 10
-90.699999999010274
 20
23.80000000000064
 30
0.0
  0
VERTEX
  5
2668
  8
SAPA_PROFIL
 10
-86.99999999901047
 20
23.800000000000178
 30
0.0
 42
-0.4142135623730951
  0
VERTEX
  5
2669
  8
SAPA_PROFIL
 10
-86.499999999010456
 20
23.300000000000178
 30
0.0
  0
SEQEND
  5
266A
  8
SAPA_PROFIL
  0
POLYLINE
  5
1854
  8
SAPA_PROFIL
 62
     4
 66
     1
 10
0.0
 20
0.0
 30
0.0
 70
     1
  0
VERTEX
  5
266B
  8
SAPA_PROFIL
 62
     4
 10
-88.358578641879717
 20
-1.055634910786466
 30
0.0
 42
0.1989123671061458
  0
VERTEX
  5
266C
  8
SAPA_PROFIL
 62
     4
 10
-88.00710678019658
 20
-0.2071067742556352
 30
0.0
  0
VERTEX
  5
266D
  8
SAPA_PROFIL
 62
     4
 10
-88.00710678019658
 20
0.2071067742555215
 30
0.0
 42
0.1989123671061505
  0
VERTEX
  5
266E
  8
SAPA_PROFIL
 62
     4
 10
-88.358578641879717
 20
1.0556349107863521
 30
0.0
  0
VERTEX
  5
266F
  8
SAPA_PROFIL
 62
     4
 10
-90.590811692262079
 20
3.287867965867235
 30
0.0
 42
-0.6681786375387371
  0
VERTEX
  5
2670
  8
SAPA_PROFIL
 62
     4
 10
-90.378679657682881
 20
3.7999999999999541
 30
0.0
  0
VERTEX
  5
2671
  8
SAPA_PROFIL
 62
     4
 10
-73.799999999010083
 20
3.7999999999999541
 30
0.0
 42
-0.4142135623731034
  0
VERTEX
  5
2672
  8
SAPA_PROFIL
 62
     4
 10
-73.499999999010072
 20
3.4999999999999432
 30
0.0
  0
VERTEX
  5
2673
  8
SAPA_PROFIL
 62
     4
 10
-73.499999999010072
 20
-3.4999999999999432
 30
0.0
 42
-0.4142135623731034
  0
VERTEX
  5
2674
  8
SAPA_PROFIL
 62
     4
 10
-73.799999999010083
 20
-3.8000000000000109
 30
0.0
  0
VERTEX
  5
2675
  8
SAPA_PROFIL
 62
     4
 10
-90.378679657682881
 20
-3.8000000000000682
 30
0.0
 42
-0.6681786375387019
  0
VERTEX
  5
2676
  8
SAPA_PROFIL
 62
     4
 10
-90.590811692262079
 20
-3.2878679658673491
 30
0.0
  0
SEQEND
  5
2677
  8
SAPA_PROFIL
 62
     4
  0
POLYLINE
  5
1855
  8
SAPA_PROFIL
 62
     4
 66
     1
 10
0.0
 20
0.0
 30
0.0
 70
     1
  0
VERTEX
  5
2678
  8
SAPA_PROFIL
 62
     4
 10
-72.19999999901006
 20
3.7999999999999541
 30
0.0
  0
VERTEX
  5
2679
  8
SAPA_PROFIL
 62
     4
 10
-53.999999999010022
 20
3.7999999999999541
 30
0.0
 42
-0.4142135623730951
  0
VERTEX
  5
267A
  8
SAPA_PROFIL
 62
     4
 10
-53.699999999010011
 20
3.5
 30
0.0
  0
VERTEX
  5
267B
  8
SAPA_PROFIL
 62
     4
 10
-53.69999999901006
 20
2.6029437251521581
 30
0.0
  0
VERTEX
  5
267C
  8
SAPA_PROFIL
 62
     4
 10
-52.147056273857629
 20
1.0499999999999541
 30
0.0
  0
VERTEX
  5
267D
  8
SAPA_PROFIL
 62
     4
 10
-46.568653346957198
 20
1.0499999999999541
 30
0.0
  0
VERTEX
  5
267E
  8
SAPA_PROFIL
 62
     4
 10
-45.57499999901006
 20
0.4763139720814138
 30
0.0
 42
-0.5773502691896344
  0
VERTEX
  5
267F
  8
SAPA_PROFIL
 62
     4
 10
-45.574999999009997
 20
-0.4763139720814707
 30
0.0
  0
VERTEX
  5
2680
  8
SAPA_PROFIL
 62
     4
 10
-46.568653346957369
 20
-1.050000000000068
 30
0.0
  0
VERTEX
  5
2681
  8
SAPA_PROFIL
 62
     4
 10
-52.1470562738578
 20
-1.050000000000068
 30
0.0
  0
VERTEX
  5
2682
  8
SAPA_PROFIL
 62
     4
 10
-53.69999999901006
 20
-2.6029437251522718
 30
0.0
  0
VERTEX
  5
2683
  8
SAPA_PROFIL
 62
     4
 10
-53.699999999010011
 20
-3.5000000000001128
 30
0.0
 42
-0.4142135623730951
  0
VERTEX
  5
2684
  8
SAPA_PROFIL
 62
     4
 10
-53.999999999010022
 20
-3.8000000000000682
 30
0.0
  0
VERTEX
  5
2685
  8
SAPA_PROFIL
 62
     4
 10
-72.19999999901006
 20
-3.8000000000000109
 30
0.0
 42
-0.4142135623730951
  0
VERTEX
  5
2686
  8
SAPA_PROFIL
 62
     4
 10
-72.499999999010015
 20
-3.500000000000056
 30
0.0
  0
VERTEX
  5
2687
  8
SAPA_PROFIL
 62
     4
 10
-72.499999999010072
 20
3.500000000000056
 30
0.0
 42
-0.4142135623730951
  0
SEQEND
  5
2688
  8
SAPA_PROFIL
 62
     4
  0
POLYLINE
  5
1856
  8
SAPA_PROFIL
 62
     4
 66
     1
 10
0.0
 20
0.0
 30
0.0
 70
     1
  0
VERTEX
  5
2689
  8
SAPA_PROFIL
 62
     4
 10
-89.353553389603292
 20
-0.3535533839706204
 30
0.0
 42
0.4142135623730951
  0
VERTEX
  5
268A
  8
SAPA_PROFIL
 62
     4
 10
-89.353553389603292
 20
0.3535533972159328
 30
0.0
  0
VERTEX
  5
268B
  8
SAPA_PROFIL
 62
     4
 10
-92.499999999010015
 20
3.5
 30
0.0
  0
VERTEX
  5
268C
  8
SAPA_PROFIL
 62
     4
 10
-92.499999999010015
 20
5.0
 30
0.0
  0
VERTEX
  5
268D
  8
SAPA_PROFIL
 62
     4
 10
-52.999999999010008
 20
5.0
 30
0.0
 42
-0.4142135623730951
  0
VERTEX
  5
268E
  8
SAPA_PROFIL
 62
     4
 10
-52.499999999010008
 20
4.5
 30
0.0
  0
VERTEX
  5
268F
  8
SAPA_PROFIL
 62
     4
 10
-52.499999999010008
 20
3.0999999999999091
 30
0.0
  0
VERTEX
  5
2690
  8
SAPA_PROFIL
 62
     4
 10
-51.649999999010049
 20
2.25
 30
0.0
  0
VERTEX
  5
2691
  8
SAPA_PROFIL
 62
     4
 10
-47.047114316039988
 20
2.25
 30
0.0
  0
VERTEX
  5
2692
  8
SAPA_PROFIL
 62
     4
 10
-45.174999999010019
 20
1.1691342951090169
 30
0.0
 42
-0.5773502691896344
  0
VERTEX
  5
2693
  8
SAPA_PROFIL
 62
     4
 10
-45.174999999010019
 20
-1.169134295109074
 30
0.0
  0
VERTEX
  5
2694
  8
SAPA_PROFIL
 62
     4
 10
-47.047114316040172
 20
-2.2500000000001128
 30
0.0
  0
VERTEX
  5
2695
  8
SAPA_PROFIL
 62
     4
 10
-51.649999999010049
 20
-2.2500000000001128
 30
0.0
  0
VERTEX
  5
2696
  8
SAPA_PROFIL
 62
     4
 10
-52.499999999010008
 20
-3.1000000000000218
 30
0.0
  0
VERTEX
  5
2697
  8
SAPA_PROFIL
 62
     4
 10
-52.499999999010008
 20
-4.5
 30
0.0
 42
-0.4142135623730951
  0
VERTEX
  5
2698
  8
SAPA_PROFIL
 62
     4
 10
-52.999999999010008
 20
-5.0
 30
0.0
  0
VERTEX
  5
2699
  8
SAPA_PROFIL
 62
     4
 10
-92.499999999010015
 20
-5.0
 30
0.0
  0
VERTEX
  5
269A
  8
SAPA_PROFIL
 62
     4
 10
-92.499999999010015
 20
-3.5
 30
0.0
  0
SEQEND
  5
269B
  8
SAPA_PROFIL
 62
     4
  0
POLYLINE
  5
1857
  8
SAPA_PROFIL
 66
     1
 10
0.0
 20
0.0
 30
0.0
 70
     1
  0
VERTEX
  5
269C
  8
SAPA_PROFIL
 10
-33.050000000001091
 20
2.700000000000272
 30
0.0
  0
VERTEX
  5
269D
  8
SAPA_PROFIL
 10
-31.67376540642476
 20
2.0767196966983188
 30
0.0
 42
0.5450207798987328
  0
VERTEX
  5
269E
  8
SAPA_PROFIL
 10
-31.25000000000114
 20
2.350000000000136
 30
0.0
  0
VERTEX
  5
269F
  8
SAPA_PROFIL
 10
-31.25000000000114
 20
2.700000000000272
 30
0.0
  0
VERTEX
  5
26A0
  8
SAPA_PROFIL
 10
-31.00000000000114
 20
2.700000000000272
 30
0.0
 42
-0.4142135623730951
  0
VERTEX
  5
26A1
  8
SAPA_PROFIL
 10
-30.00000000000114
 20
1.700000000000272
 30
0.0
  0
VERTEX
  5
26A2
  8
SAPA_PROFIL
 10
-30.00000000000114
 20
-1.6999999999998181
 30
0.0
 42
-0.4142135623730951
  0
VERTEX
  5
26A3
  8
SAPA_PROFIL
 10
-31.00000000000114
 20
-2.6999999999998181
 30
0.0
  0
VERTEX
  5
26A4
  8
SAPA_PROFIL
 10
-32.150000000001
 20
-2.6999999999998181
 30
0.0
  0
VERTEX
  5
26A5
  8
SAPA_PROFIL
 10
-32.150000000001
 20
-2.3499999999996808
 30
0.0
 42
0.5450200690651551
  0
VERTEX
  5
26A6
  8
SAPA_PROFIL
 10
-32.573765000001011
 20
-2.0767189999999109
 30
0.0
  0
VERTEX
  5
26A7
  8
SAPA_PROFIL
 10
-33.950000000000948
 20
-2.6999999999998181
 30
0.0
  0
VERTEX
  5
26A8
  8
SAPA_PROFIL
 10
-33.950000000000948
 20
-2.3499999999996808
 30
0.0
 42
0.5450200690651692
  0
VERTEX
  5
26A9
  8
SAPA_PROFIL
 10
-34.373765000000958
 20
-2.0767189999999109
 30
0.0
  0
VERTEX
  5
26AA
  8
SAPA_PROFIL
 10
-35.750000000001137
 20
-2.6999999999998181
 30
0.0
  0
VERTEX
  5
26AB
  8
SAPA_PROFIL
 10
-35.750000000001137
 20
-2.3499999999996808
 30
0.0
 42
0.5450200690651619
  0
VERTEX
  5
26AC
  8
SAPA_PROFIL
 10
-36.17376500000114
 20
-2.0767189999999109
 30
0.0
  0
VERTEX
  5
26AD
  8
SAPA_PROFIL
 10
-37.550000000001091
 20
-2.6999999999998181
 30
0.0
  0
VERTEX
  5
26AE
  8
SAPA_PROFIL
 10
-37.550000000001091
 20
-2.3499999999996808
 30
0.0
 42
0.5450200690651619
  0
VERTEX
  5
26AF
  8
SAPA_PROFIL
 10
-37.973765000001102
 20
-2.0767189999999109
 30
0.0
  0
VERTEX
  5
26B0
  8
SAPA_PROFIL
 10
-39.350000000001053
 20
-2.6999999999998181
 30
0.0
  0
VERTEX
  5
26B1
  8
SAPA_PROFIL
 10
-39.350000000001053
 20
-2.3499999999996808
 30
0.0
 42
0.5450200690651692
  0
VERTEX
  5
26B2
  8
SAPA_PROFIL
 10
-39.773765000001049
 20
-2.0767189999999109
 30
0.0
  0
VERTEX
  5
26B3
  8
SAPA_PROFIL
 10
-41.150000000001
 20
-2.6999999999998181
 30
0.0
  0
VERTEX
  5
26B4
  8
SAPA_PROFIL
 10
-41.450000000000948
 20
-2.6999999999998181
 30
0.0
  0
VERTEX
  5
26B5
  8
SAPA_PROFIL
 10
-41.450000000000948
 20
2.42826763351104
 30
0.0
  0
VERTEX
  5
26B6
  8
SAPA_PROFIL
 10
-40.673765406424756
 20
2.0767196966983188
 30
0.0
 42
0.5450207798987328
  0
VERTEX
  5
26B7
  8
SAPA_PROFIL
 10
-40.250000000001137
 20
2.350000000000136
 30
0.0
  0
VERTEX
  5
26B8
  8
SAPA_PROFIL
 10
-40.250000000001137
 20
2.700000000000272
 30
0.0
  0
VERTEX
  5
26B9
  8
SAPA_PROFIL
 10
-38.873765000000958
 20
2.0767200000002499
 30
0.0
 42
0.5450205149791638
  0
VERTEX
  5
26BA
  8
SAPA_PROFIL
 10
-38.450000000000962
 20
2.350000000000136
 30
0.0
  0
VERTEX
  5
26BB
  8
SAPA_PROFIL
 10
-38.450000000000962
 20
2.700000000000272
 30
0.0
  0
VERTEX
  5
26BC
  8
SAPA_PROFIL
 10
-37.073765406424627
 20
2.0767196966983188
 30
0.0
 42
0.545020779898768
  0
VERTEX
  5
26BD
  8
SAPA_PROFIL
 10
-36.650000000001
 20
2.350000000000136
 30
0.0
  0
VERTEX
  5
26BE
  8
SAPA_PROFIL
 10
-36.650000000001
 20
2.700000000000272
 30
0.0
  0
VERTEX
  5
26BF
  8
SAPA_PROFIL
 10
-35.273765406424673
 20
2.0767196966983188
 30
0.0
 42
0.54502077989874
  0
VERTEX
  5
26C0
  8
SAPA_PROFIL
 10
-34.850000000001053
 20
2.350000000000136
 30
0.0
  0
VERTEX
  5
26C1
  8
SAPA_PROFIL
 10
-34.850000000001053
 20
2.700000000000272
 30
0.0
  0
VERTEX
  5
26C2
  8
SAPA_PROFIL
 10
-33.473765406424718
 20
2.0767196966983188
 30
0.0
 42
0.545020779898761
  0
VERTEX
  5
26C3
  8
SAPA_PROFIL
 10
-33.050000000001091
 20
2.350000000000136
 30
0.0
  0
SEQEND
  5
26C4
  8
SAPA_PROFIL
  0
POLYLINE
  5
1858
  8
SAPA_PROFIL
 66
     1
 10
0.0
 20
0.0
 30
0.0
 70
     1
  0
VERTEX
  5
26C5
  8
SAPA_PROFIL
 10
58.024264068710863
 20
23.000000000000231
 30
0.0
 42
0.1989123673796753
  0
VERTEX
  5
26C6
  8
SAPA_PROFIL
 10
57.812132034355052
 20
22.912132034356091
 30
0.0
  0
VERTEX
  5
26C7
  8
SAPA_PROFIL
 10
56.087867965642999
 20
21.187867965644269
 30
0.0
 42
-0.1989123673796753
  0
VERTEX
  5
26C8
  8
SAPA_PROFIL
 10
55.875735931286947
 20
21.10000000000014
 30
0.0
  0
VERTEX
  5
26C9
  8
SAPA_PROFIL
 10
55.299999999999052
 20
21.10000000000014
 30
0.0
 42
-0.4142135623730951
  0
VERTEX
  5
26CA
  8
SAPA_PROFIL
 10
54.999999999998863
 20
21.400000000000318
 30
0.0
  0
VERTEX
  5
26CB
  8
SAPA_PROFIL
 10
54.999999999998863
 20
22.700000000000269
 30
0.0
 42
0.4142135623730951
  0
VERTEX
  5
26CC
  8
SAPA_PROFIL
 10
54.699999999998909
 20
23.000000000000231
 30
0.0
  0
VERTEX
  5
26CD
  8
SAPA_PROFIL
 10
29.99999999999886
 20
23.000000000000231
 30
0.0
 42
0.4142135623730951
  0
VERTEX
  5
26CE
  8
SAPA_PROFIL
 10
28.99999999999887
 20
22.000000000000231
 30
0.0
  0
VERTEX
  5
26CF
  8
SAPA_PROFIL
 10
28.99999999999887
 20
17.600000000000129
 30
0.0
 42
-0.4142135623730951
  0
VERTEX
  5
26D0
  8
SAPA_PROFIL
 10
28.699999999998909
 20
17.300000000000178
 30
0.0
  0
VERTEX
  5
26D1
  8
SAPA_PROFIL
 10
26.399999999998961
 20
17.300000000000178
 30
0.0
 42
-0.4142135623730951
  0
VERTEX
  5
26D2
  8
SAPA_PROFIL
 10
26.099999999999
 20
17.600000000000129
 30
0.0
  0
VERTEX
  5
26D3
  8
SAPA_PROFIL
 10
26.099999999999
 20
18.100000000000129
 30
0.0
 42
-0.4142135623730951
  0
VERTEX
  5
26D4
  8
SAPA_PROFIL
 10
26.399999999998961
 20
18.400000000000318
 30
0.0
  0
VERTEX
  5
26D5
  8
SAPA_PROFIL
 10
26.736626924633359
 20
18.400000000000318
 30
0.0
 42
0.5535245743249297
  0
VERTEX
  5
26D6
  8
SAPA_PROFIL
 10
24.96410760212348
 20
22.71055421153164
 30
0.0
  0
VERTEX
  5
26D7
  8
SAPA_PROFIL
 10
24.67677669529553
 20
22.42322330470347
 30
0.0
 42
-0.4142135623729421
  0
VERTEX
  5
26D8
  8
SAPA_PROFIL
 10
24.32322330470242
 20
22.42322330470347
 30
0.0
  0
VERTEX
  5
26D9
  8
SAPA_PROFIL
 10
24.035892397874481
 20
22.71055421153164
 30
0.0
 42
0.5535245743249292
  0
VERTEX
  5
26DA
  8
SAPA_PROFIL
 10
22.26337307536437
 20
18.400000000000318
 30
0.0
  0
VERTEX
  5
26DB
  8
SAPA_PROFIL
 10
22.599999999999
 20
18.400000000000318
 30
0.0
 42
-0.4142135623730951
  0
VERTEX
  5
26DC
  8
SAPA_PROFIL
 10
22.899999999998961
 20
18.100000000000129
 30
0.0
  0
VERTEX
  5
26DD
  8
SAPA_PROFIL
 10
22.899999999998961
 20
17.600000000000129
 30
0.0
 42
-0.4142135623730951
  0
VERTEX
  5
26DE
  8
SAPA_PROFIL
 10
22.599999999999
 20
17.300000000000178
 30
0.0
  0
VERTEX
  5
26DF
  8
SAPA_PROFIL
 10
21.49999999999886
 20
17.300000000000178
 30
0.0
 42
-0.4142135623730951
  0
VERTEX
  5
26E0
  8
SAPA_PROFIL
 10
19.99999999999886
 20
18.800000000000178
 30
0.0
  0
VERTEX
  5
26E1
  8
SAPA_PROFIL
 10
19.99999999999886
 20
21.63397459621569
 30
0.0
 42
-0.267949192431143
  0
VERTEX
  5
26E2
  8
SAPA_PROFIL
 10
20.24999999999886
 20
22.066987298107961
 30
0.0
 42
0.767326987978956
  0
VERTEX
  5
26E3
  8
SAPA_PROFIL
 10
19.99999999999886
 20
23.000000000000231
 30
0.0
  0
VERTEX
  5
26E4
  8
SAPA_PROFIL
 10
-15.00000000000113
 20
23.000000000000231
 30
0.0
 42
0.4142135623730951
  0
VERTEX
  5
26E5
  8
SAPA_PROFIL
 10
-16.00000000000114
 20
22.000000000000231
 30
0.0
  0
VERTEX
  5
26E6
  8
SAPA_PROFIL
 10
-16.00000000000114
 20
17.600000000000129
 30
0.0
 42
-0.4142135623730951
  0
VERTEX
  5
26E7
  8
SAPA_PROFIL
 10
-16.300000000001091
 20
17.300000000000178
 30
0.0
  0
VERTEX
  5
26E8
  8
SAPA_PROFIL
 10
-18.600000000001039
 20
17.300000000000178
 30
0.0
 42
-0.4142135623730951
  0
VERTEX
  5
26E9
  8
SAPA_PROFIL
 10
-18.900000000001
 20
17.600000000000129
 30
0.0
  0
VERTEX
  5
26EA
  8
SAPA_PROFIL
 10
-18.900000000001
 20
18.100000000000129
 30
0.0
 42
-0.4142135623730951
  0
VERTEX
  5
26EB
  8
SAPA_PROFIL
 10
-18.600000000001039
 20
18.400000000000318
 30
0.0
  0
VERTEX
  5
26EC
  8
SAPA_PROFIL
 10
-18.263373075366641
 20
18.400000000000318
 30
0.0
 42
0.5535245743249297
  0
VERTEX
  5
26ED
  8
SAPA_PROFIL
 10
-20.03589239787652
 20
22.71055421153164
 30
0.0
  0
VERTEX
  5
26EE
  8
SAPA_PROFIL
 10
-20.32322330470447
 20
22.42322330470347
 30
0.0
 42
-0.4142135623730243
  0
VERTEX
  5
26EF
  8
SAPA_PROFIL
 10
-20.67677669529758
 20
22.423223304703701
 30
0.0
  0
VERTEX
  5
26F0
  8
SAPA_PROFIL
 10
-20.96410760212553
 20
22.71055421153164
 30
0.0
 42
0.5535245743249292
  0
VERTEX
  5
26F1
  8
SAPA_PROFIL
 10
-22.73662692463563
 20
18.400000000000318
 30
0.0
  0
VERTEX
  5
26F2
  8
SAPA_PROFIL
 10
-22.400000000001
 20
18.400000000000318
 30
0.0
 42
-0.4142135623730951
  0
VERTEX
  5
26F3
  8
SAPA_PROFIL
 10
-22.100000000001049
 20
18.100000000000129
 30
0.0
  0
VERTEX
  5
26F4
  8
SAPA_PROFIL
 10
-22.100000000001049
 20
17.600000000000129
 30
0.0
 42
-0.4142135623730951
  0
VERTEX
  5
26F5
  8
SAPA_PROFIL
 10
-22.400000000001
 20
17.300000000000178
 30
0.0
  0
VERTEX
  5
26F6
  8
SAPA_PROFIL
 10
-23.50000000000114
 20
17.300000000000178
 30
0.0
 42
-0.4142135623730951
  0
VERTEX
  5
26F7
  8
SAPA_PROFIL
 10
-25.00000000000114
 20
18.800000000000178
 30
0.0
  0
VERTEX
  5
26F8
  8
SAPA_PROFIL
 10
-25.00000000000114
 20
21.780384757729511
 30
0.0
 42
-0.2679491924311188
  0
VERTEX
  5
26F9
  8
SAPA_PROFIL
 10
-24.850000000001049
 20
22.040192378864958
 30
0.0
 42
0.7673269879789557
  0
VERTEX
  5
26FA
  8
SAPA_PROFIL
 10
-25.00000000000114
 20
22.600000000000129
 30
0.0
  0
VERTEX
  5
26FB
  8
SAPA_PROFIL
 10
-27.00000000000114
 20
22.599999999999909
 30
0.0
 42
0.4142137811865366
  0
VERTEX
  5
26FC
  8
SAPA_PROFIL
 10
-28.00000000000114
 20
21.600000747075459
 30
0.0
  0
VERTEX
  5
26FD
  8
SAPA_PROFIL
 10
-28.00000000000114
 20
-21.599999999999682
 30
0.0
 42
0.4142140000000124
  0
VERTEX
  5
26FE
  8
SAPA_PROFIL
 10
-27.00000000000114
 20
-22.599999999999682
 30
0.0
  0
VERTEX
  5
26FF
  8
SAPA_PROFIL
 10
-25.00000000000114
 20
-22.599999999999682
 30
0.0
 42
0.7673269879789457
  0
VERTEX
  5
2700
  8
SAPA_PROFIL
 10
-24.850000000001049
 20
-22.0401923788645
 30
0.0
 42
-0.2679491924311191
  0
VERTEX
  5
2701
  8
SAPA_PROFIL
 10
-25.00000000000114
 20
-21.780384757729049
 30
0.0
  0
VERTEX
  5
2702
  8
SAPA_PROFIL
 10
-25.00000000000114
 20
-18.799999999999731
 30
0.0
 42
-0.4142135623730951
  0
VERTEX
  5
2703
  8
SAPA_PROFIL
 10
-23.50000000000114
 20
-17.299999999999731
 30
0.0
  0
VERTEX
  5
2704
  8
SAPA_PROFIL
 10
-22.400000000001
 20
-17.299999999999731
 30
0.0
 42
-0.4142135623730951
  0
VERTEX
  5
2705
  8
SAPA_PROFIL
 10
-22.100000000001049
 20
-17.599999999999682
 30
0.0
  0
VERTEX
  5
2706
  8
SAPA_PROFIL
 10
-22.100000000001049
 20
-18.099999999999682
 30
0.0
 42
-0.4142135623730951
  0
VERTEX
  5
2707
  8
SAPA_PROFIL
 10
-22.400000000001
 20
-18.39999999999986
 30
0.0
  0
VERTEX
  5
2708
  8
SAPA_PROFIL
 10
-22.73662692463563
 20
-18.39999999999986
 30
0.0
 42
0.5535245743249307
  0
VERTEX
  5
2709
  8
SAPA_PROFIL
 10
-20.96410760212553
 20
-22.710554211531189
 30
0.0
  0
VERTEX
  5
270A
  8
SAPA_PROFIL
 10
-20.67677669529758
 20
-22.423223304703239
 30
0.0
 42
-0.4142135623730951
  0
VERTEX
  5
270B
  8
SAPA_PROFIL
 10
-20.32322330470447
 20
-22.423223304703239
 30
0.0
  0
VERTEX
  5
270C
  8
SAPA_PROFIL
 10
-20.03589239787652
 20
-22.710554211531189
 30
0.0
 42
0.553524574324932
  0
VERTEX
  5
270D
  8
SAPA_PROFIL
 10
-18.263373075366641
 20
-18.39999999999986
 30
0.0
  0
VERTEX
  5
270E
  8
SAPA_PROFIL
 10
-18.600000000001039
 20
-18.39999999999986
 30
0.0
 42
-0.4142135623730951
  0
VERTEX
  5
270F
  8
SAPA_PROFIL
 10
-18.900000000001
 20
-18.099999999999682
 30
0.0
  0
VERTEX
  5
2710
  8
SAPA_PROFIL
 10
-18.900000000001
 20
-17.599999999999682
 30
0.0
 42
-0.4142135623730951
  0
VERTEX
  5
2711
  8
SAPA_PROFIL
 10
-18.600000000001039
 20
-17.299999999999731
 30
0.0
  0
VERTEX
  5
2712
  8
SAPA_PROFIL
 10
-16.300000000001091
 20
-17.299999999999731
 30
0.0
 42
-0.4142135623730951
  0
VERTEX
  5
2713
  8
SAPA_PROFIL
 10
-16.00000000000114
 20
-17.599999999999682
 30
0.0
  0
VERTEX
  5
2714
  8
SAPA_PROFIL
 10
-16.00000000000114
 20
-21.999999999999769
 30
0.0
 42
0.4142135623730951
  0
VERTEX
  5
2715
  8
SAPA_PROFIL
 10
-15.00000000000113
 20
-22.999999999999769
 30
0.0
  0
VERTEX
  5
2716
  8
SAPA_PROFIL
 10
19.99999999999886
 20
-22.999999999999769
 30
0.0
 42
0.7673269879789569
  0
VERTEX
  5
2717
  8
SAPA_PROFIL
 10
20.24999999999886
 20
-22.066987298107509
 30
0.0
 42
-0.2679491924311163
  0
VERTEX
  5
2718
  8
SAPA_PROFIL
 10
19.99999999999886
 20
-21.633974596215239
 30
0.0
  0
VERTEX
  5
2719
  8
SAPA_PROFIL
 10
19.99999999999886
 20
-18.799999999999731
 30
0.0
 42
-0.4142135623730951
  0
VERTEX
  5
271A
  8
SAPA_PROFIL
 10
21.49999999999886
 20
-17.299999999999731
 30
0.0
  0
VERTEX
  5
271B
  8
SAPA_PROFIL
 10
22.599999999999
 20
-17.299999999999731
 30
0.0
 42
-0.4142135623730951
  0
VERTEX
  5
271C
  8
SAPA_PROFIL
 10
22.899999999998961
 20
-17.599999999999682
 30
0.0
  0
VERTEX
  5
271D
  8
SAPA_PROFIL
 10
22.899999999998961
 20
-18.099999999999682
 30
0.0
 42
-0.4142135623730951
  0
VERTEX
  5
271E
  8
SAPA_PROFIL
 10
22.599999999999
 20
-18.39999999999986
 30
0.0
  0
VERTEX
  5
271F
  8
SAPA_PROFIL
 10
22.26337307536437
 20
-18.39999999999986
 30
0.0
 42
0.5535245743249307
  0
VERTEX
  5
2720
  8
SAPA_PROFIL
 10
24.035892397874481
 20
-22.710554211531189
 30
0.0
  0
VERTEX
  5
2721
  8
SAPA_PROFIL
 10
24.32322330470242
 20
-22.423223304703239
 30
0.0
 42
-0.4142135623731068
  0
VERTEX
  5
2722
  8
SAPA_PROFIL
 10
24.67677669529553
 20
-22.423223304703011
 30
0.0
  0
VERTEX
  5
2723
  8
SAPA_PROFIL
 10
24.96410760212348
 20
-22.710554211531189
 30
0.0
 42
0.553524574324932
  0
VERTEX
  5
2724
  8
SAPA_PROFIL
 10
26.736626924633359
 20
-18.39999999999986
 30
0.0
  0
VERTEX
  5
2725
  8
SAPA_PROFIL
 10
26.399999999998961
 20
-18.39999999999986
 30
0.0
 42
-0.4142135623730951
  0
VERTEX
  5
2726
  8
SAPA_PROFIL
 10
26.099999999999
 20
-18.099999999999682
 30
0.0
  0
VERTEX
  5
2727
  8
SAPA_PROFIL
 10
26.099999999999
 20
-17.599999999999682
 30
0.0
 42
-0.4142135623730951
  0
VERTEX
  5
2728
  8
SAPA_PROFIL
 10
26.399999999998961
 20
-17.299999999999731
 30
0.0
  0
VERTEX
  5
2729
  8
SAPA_PROFIL
 10
28.699999999998909
 20
-17.299999999999731
 30
0.0
 42
-0.4142135623730951
  0
VERTEX
  5
272A
  8
SAPA_PROFIL
 10
28.99999999999887
 20
-17.599999999999682
 30
0.0
  0
VERTEX
  5
272B
  8
SAPA_PROFIL
 10
28.99999999999887
 20
-21.999999999999769
 30
0.0
 42
0.4142135623730951
  0
VERTEX
  5
272C
  8
SAPA_PROFIL
 10
29.99999999999886
 20
-22.999999999999769
 30
0.0
  0
VERTEX
  5
272D
  8
SAPA_PROFIL
 10
54.699999999998909
 20
-22.999999999999769
 30
0.0
 42
0.4142135623730951
  0
VERTEX
  5
272E
  8
SAPA_PROFIL
 10
54.999999999998863
 20
-22.699999999999822
 30
0.0
  0
VERTEX
  5
272F
  8
SAPA_PROFIL
 10
54.999999999998863
 20
-21.39999999999986
 30
0.0
 42
-0.4142135623730951
  0
VERTEX
  5
2730
  8
SAPA_PROFIL
 10
55.299999999999052
 20
-21.099999999999682
 30
0.0
  0
VERTEX
  5
2731
  8
SAPA_PROFIL
 10
55.875735931286947
 20
-21.099999999999682
 30
0.0
 42
-0.1989123673796752
  0
VERTEX
  5
2732
  8
SAPA_PROFIL
 10
56.087867965642999
 20
-21.187867965643822
 30
0.0
  0
VERTEX
  5
2733
  8
SAPA_PROFIL
 10
57.812132034355052
 20
-22.91213203435586
 30
0.0
 42
0.1989123673796057
  0
VERTEX
  5
2734
  8
SAPA_PROFIL
 10
58.024264068710863
 20
-22.999999999999769
 30
0.0
  0
VERTEX
  5
2735
  8
SAPA_PROFIL
 10
61.499999999998863
 20
-22.999999999999769
 30
0.0
 42
0.4142135623730951
  0
VERTEX
  5
2736
  8
SAPA_PROFIL
 10
62.499999999998863
 20
-21.999999999999769
 30
0.0
  0
VERTEX
  5
2737
  8
SAPA_PROFIL
 10
62.499999999998863
 20
22.000000000000231
 30
0.0
 42
0.4142135623730951
  0
VERTEX
  5
2738
  8
SAPA_PROFIL
 10
61.499999999998863
 20
23.000000000000231
 30
0.0
  0
SEQEND
  5
2739
  8
SAPA_PROFIL
  0
POLYLINE
  5
1859
  8
SAPA_PROFIL
 66
     1
 10
0.0
 20
0.0
 30
0.0
 70
     1
  0
VERTEX
  5
273A
  8
SAPA_PROFIL
 10
-30.00000000000114
 20
6.0000000000002274
 30
0.0
 42
-0.4142135623730951
  0
VERTEX
  5
273B
  8
SAPA_PROFIL
 10
-31.00000000000114
 20
5.0000000000002274
 30
0.0
  0
VERTEX
  5
273C
  8
SAPA_PROFIL
 10
-52.200000000000948
 20
5.0000000000002274
 30
0.0
 42
0.4142135623730951
  0
VERTEX
  5
273D
  8
SAPA_PROFIL
 10
-52.50000000000113
 20
4.700000000000272
 30
0.0
  0
VERTEX
  5
273E
  8
SAPA_PROFIL
 10
-52.50000000000113
 20
3.0757360000002332
 30
0.0
  0
VERTEX
  5
273F
  8
SAPA_PROFIL
 10
-51.562132034356871
 20
2.2378679656442269
 30
0.0
 42
0.668178637919305
  0
VERTEX
  5
2740
  8
SAPA_PROFIL
 10
-51.050000000001091
 20
2.450000000000272
 30
0.0
  0
VERTEX
  5
2741
  8
SAPA_PROFIL
 10
-51.050000000001091
 20
2.700000000000272
 30
0.0
  0
VERTEX
  5
2742
  8
SAPA_PROFIL
 10
-49.673765406424756
 20
2.1767196966982278
 30
0.0
 42
0.5450207798987201
  0
VERTEX
  5
2743
  8
SAPA_PROFIL
 10
-49.250000000001137
 20
2.450000000000272
 30
0.0
  0
VERTEX
  5
2744
  8
SAPA_PROFIL
 10
-49.250000000001137
 20
2.700000000000272
 30
0.0
  0
VERTEX
  5
2745
  8
SAPA_PROFIL
 10
-47.873765406424567
 20
2.1767196966982278
 30
0.0
 42
0.5450207798987201
  0
VERTEX
  5
2746
  8
SAPA_PROFIL
 10
-47.450000000000962
 20
2.450000000000272
 30
0.0
  0
VERTEX
  5
2747
  8
SAPA_PROFIL
 10
-47.450000000000962
 20
2.700000000000272
 30
0.0
  0
VERTEX
  5
2748
  8
SAPA_PROFIL
 10
-46.07376540642462
 20
2.1767196966982278
 30
0.0
 42
0.5450207798987342
  0
VERTEX
  5
2749
  8
SAPA_PROFIL
 10
-45.650000000000993
 20
2.450000000000272
 30
0.0
  0
VERTEX
  5
274A
  8
SAPA_PROFIL
 10
-45.650000000000993
 20
2.700000000000272
 30
0.0
  0
VERTEX
  5
274B
  8
SAPA_PROFIL
 10
-44.273765406424673
 20
2.1767196966982278
 30
0.0
 42
0.5450207798987201
  0
VERTEX
  5
274C
  8
SAPA_PROFIL
 10
-43.850000000001039
 20
2.450000000000272
 30
0.0
  0
VERTEX
  5
274D
  8
SAPA_PROFIL
 10
-43.850000000001039
 20
2.700000000000272
 30
0.0
  0
VERTEX
  5
274E
  8
SAPA_PROFIL
 10
-43.126282705194853
 20
2.4722372826161059
 30
0.0
 42
-0.2945484962563026
  0
VERTEX
  5
274F
  8
SAPA_PROFIL
 10
-42.950048040246656
 20
2.1988824689378812
 30
0.0
  0
VERTEX
  5
2750
  8
SAPA_PROFIL
 10
-42.950255222213173
 20
1.2642999377483191
 30
0.0
 42
0.3475954753796591
  0
VERTEX
  5
2751
  8
SAPA_PROFIL
 10
-42.719501178044077
 20
0.9723265106783856
 30
0.0
 42
-0.790522909611319
  0
VERTEX
  5
2752
  8
SAPA_PROFIL
 10
-42.71949097360357
 20
-0.973664089865224
 30
0.0
 42
0.3476065658631364
  0
VERTEX
  5
2753
  8
SAPA_PROFIL
 10
-42.950241952335773
 20
-1.2656518108867649
 30
0.0
  0
VERTEX
  5
2754
  8
SAPA_PROFIL
 10
-42.950095231626847
 20
-1.8499926620931999
 30
0.0
 42
-0.4102317530969976
  0
VERTEX
  5
2755
  8
SAPA_PROFIL
 10
-43.245946879780369
 20
-2.1500282985855388
 30
0.0
 42
0.0712587206050384
  0
VERTEX
  5
2756
  8
SAPA_PROFIL
 10
-43.329990804708579
 20
-2.1632556124550311
 30
0.0
  0
VERTEX
  5
2757
  8
SAPA_PROFIL
 10
-44.750000000001137
 20
-2.6999999999998181
 30
0.0
  0
VERTEX
  5
2758
  8
SAPA_PROFIL
 10
-44.750000000001137
 20
-2.4499999999998181
 30
0.0
 42
0.5450200690651619
  0
VERTEX
  5
2759
  8
SAPA_PROFIL
 10
-45.173765000001133
 20
-2.17671899999982
 30
0.0
  0
VERTEX
  5
275A
  8
SAPA_PROFIL
 10
-46.550000000001091
 20
-2.6999999999998181
 30
0.0
  0
VERTEX
  5
275B
  8
SAPA_PROFIL
 10
-46.550000000000857
 20
-2.4499999999998181
 30
0.0
 42
0.545020069065176
  0
VERTEX
  5
275C
  8
SAPA_PROFIL
 10
-46.973765000001087
 20
-2.17671899999982
 30
0.0
  0
VERTEX
  5
275D
  8
SAPA_PROFIL
 10
-48.350000000001039
 20
-2.6999999999998181
 30
0.0
  0
VERTEX
  5
275E
  8
SAPA_PROFIL
 10
-48.350000000001039
 20
-2.4499999999998181
 30
0.0
 42
0.5450200690651692
  0
VERTEX
  5
275F
  8
SAPA_PROFIL
 10
-48.773765000001049
 20
-2.17671899999982
 30
0.0
  0
VERTEX
  5
2760
  8
SAPA_PROFIL
 10
-50.150000000001
 20
-2.6999999999998181
 30
0.0
  0
VERTEX
  5
2761
  8
SAPA_PROFIL
 10
-50.150000000001
 20
-2.1499999999998631
 30
0.0
  0
VERTEX
  5
2762
  8
SAPA_PROFIL
 10
-51.350000000001039
 20
-2.1499999999998631
 30
0.0
 42
0.1989123673797004
  0
VERTEX
  5
2763
  8
SAPA_PROFIL
 10
-51.562132000001156
 20
-2.2378679999997071
 30
0.0
  0
VERTEX
  5
2764
  8
SAPA_PROFIL
 10
-52.50000000000113
 20
-3.075735999999778
 30
0.0
  0
VERTEX
  5
2765
  8
SAPA_PROFIL
 10
-52.50000000000113
 20
-4.6999999999998181
 30
0.0
 42
0.4142135623730951
  0
VERTEX
  5
2766
  8
SAPA_PROFIL
 10
-52.200000000000948
 20
-4.9999999999997717
 30
0.0
  0
VERTEX
  5
2767
  8
SAPA_PROFIL
 10
-31.00000000000114
 20
-4.9999999999997717
 30
0.0
 42
-0.4142135623730951
  0
VERTEX
  5
2768
  8
SAPA_PROFIL
 10
-30.00000000000114
 20
-5.9999999999997717
 30
0.0
  0
VERTEX
  5
2769
  8
SAPA_PROFIL
 10
-30.00000000000114
 20
-14.19999999999982
 30
0.0
 42
-0.4142135623730951
  0
VERTEX
  5
276A
  8
SAPA_PROFIL
 10
-30.50000000000114
 20
-14.69999999999982
 30
0.0
  0
VERTEX
  5
276B
  8
SAPA_PROFIL
 10
-33.700000000000962
 20
-14.69999999999982
 30
0.0
 42
-0.4142135623730951
  0
VERTEX
  5
276C
  8
SAPA_PROFIL
 10
-34.200000000000962
 20
-14.19999999999982
 30
0.0
  0
VERTEX
  5
276D
  8
SAPA_PROFIL
 10
-34.200000000000962
 20
-11.299999999999731
 30
0.0
 42
0.4142135623730951
  0
VERTEX
  5
276E
  8
SAPA_PROFIL
 10
-34.500000000001137
 20
-10.999999999999771
 30
0.0
  0
VERTEX
  5
276F
  8
SAPA_PROFIL
 10
-35.200000000000948
 20
-10.999999999999771
 30
0.0
 42
0.4142135623730951
  0
VERTEX
  5
2770
  8
SAPA_PROFIL
 10
-35.500000000001137
 20
-11.299999999999731
 30
0.0
  0
VERTEX
  5
2771
  8
SAPA_PROFIL
 10
-35.500000000001137
 20
-17.999999999999769
 30
0.0
  0
VERTEX
  5
2772
  8
SAPA_PROFIL
 10
-35.035076580641999
 20
-18.586384015500471
 30
0.0
 42
0.7105995019814511
  0
VERTEX
  5
2773
  8
SAPA_PROFIL
 10
-34.500000000001137
 20
-18.39999999999986
 30
0.0
  0
VERTEX
  5
2774
  8
SAPA_PROFIL
 10
-34.500000000001137
 20
-16.499999999999769
 30
0.0
 42
-0.4142135623730951
  0
VERTEX
  5
2775
  8
SAPA_PROFIL
 10
-34.200000000000962
 20
-16.199999999999822
 30
0.0
  0
VERTEX
  5
2776
  8
SAPA_PROFIL
 10
-30.300000000001091
 20
-16.199999999999822
 30
0.0
 42
-0.4142135623730951
  0
VERTEX
  5
2777
  8
SAPA_PROFIL
 10
-30.00000000000114
 20
-16.499999999999769
 30
0.0
  0
VERTEX
  5
2778
  8
SAPA_PROFIL
 10
-30.00000000000114
 20
-23.199999999999822
 30
0.0
 42
-0.4142135623730951
  0
VERTEX
  5
2779
  8
SAPA_PROFIL
 10
-30.300000000001091
 20
-23.499999999999769
 30
0.0
  0
VERTEX
  5
277A
  8
SAPA_PROFIL
 10
-34.200000000000962
 20
-23.499999999999769
 30
0.0
 42
-0.4142135623730951
  0
VERTEX
  5
277B
  8
SAPA_PROFIL
 10
-34.500000000001137
 20
-23.199999999999822
 30
0.0
  0
VERTEX
  5
277C
  8
SAPA_PROFIL
 10
-34.500000000001137
 20
-21.999999999999769
 30
0.0
 42
0.7105990647993611
  0
VERTEX
  5
277D
  8
SAPA_PROFIL
 10
-35.035076000001027
 20
-21.81361599999968
 30
0.0
  0
VERTEX
  5
277E
  8
SAPA_PROFIL
 10
-35.500000000001137
 20
-22.39999999999986
 30
0.0
  0
VERTEX
  5
277F
  8
SAPA_PROFIL
 10
-35.500000000001137
 20
-24.699999999999822
 30
0.0
 42
0.4142135623730951
  0
VERTEX
  5
2780
  8
SAPA_PROFIL
 10
-35.200000000000948
 20
-24.999999999999769
 30
0.0
  0
VERTEX
  5
2781
  8
SAPA_PROFIL
 10
63.999999999998863
 20
-24.999999999999769
 30
0.0
 42
0.4142135623730951
  0
VERTEX
  5
2782
  8
SAPA_PROFIL
 10
64.499999999998863
 20
-24.499999999999769
 30
0.0
  0
VERTEX
  5
2783
  8
SAPA_PROFIL
 10
64.499999999998863
 20
24.500000000000231
 30
0.0
 42
0.4142135623730951
  0
VERTEX
  5
2784
  8
SAPA_PROFIL
 10
63.999999999998863
 20
25.000000000000231
 30
0.0
  0
VERTEX
  5
2785
  8
SAPA_PROFIL
 10
-35.200000000000948
 20
25.000000000000231
 30
0.0
 42
0.4142135623730951
  0
VERTEX
  5
2786
  8
SAPA_PROFIL
 10
-35.500000000001137
 20
24.700000000000269
 30
0.0
  0
VERTEX
  5
2787
  8
SAPA_PROFIL
 10
-35.500000000001137
 20
22.400000000000318
 30
0.0
  0
VERTEX
  5
2788
  8
SAPA_PROFIL
 10
-35.035076580641999
 20
21.81361598449962
 30
0.0
 42
0.7105995019814511
  0
VERTEX
  5
2789
  8
SAPA_PROFIL
 10
-34.500000000001137
 20
22.000000000000231
 30
0.0
  0
VERTEX
  5
278A
  8
SAPA_PROFIL
 10
-34.500000000001137
 20
23.200000000000269
 30
0.0
 42
-0.4142135623730951
  0
VERTEX
  5
278B
  8
SAPA_PROFIL
 10
-34.200000000000962
 20
23.500000000000231
 30
0.0
  0
VERTEX
  5
278C
  8
SAPA_PROFIL
 10
-30.300000000001091
 20
23.500000000000231
 30
0.0
 42
-0.4142135623730951
  0
VERTEX
  5
278D
  8
SAPA_PROFIL
 10
-30.00000000000114
 20
23.200000000000269
 30
0.0
  0
VERTEX
  5
278E
  8
SAPA_PROFIL
 10
-30.00000000000114
 20
16.500000000000231
 30
0.0
 42
-0.4142135623730951
  0
VERTEX
  5
278F
  8
SAPA_PROFIL
 10
-30.300000000001091
 20
16.200000000000269
 30
0.0
  0
VERTEX
  5
2790
  8
SAPA_PROFIL
 10
-34.200000000000962
 20
16.200000000000269
 30
0.0
 42
-0.4142135623730951
  0
VERTEX
  5
2791
  8
SAPA_PROFIL
 10
-34.500000000001137
 20
16.500000000000231
 30
0.0
  0
VERTEX
  5
2792
  8
SAPA_PROFIL
 10
-34.500000000001137
 20
18.400000000000318
 30
0.0
 42
0.7105995019814511
  0
VERTEX
  5
2793
  8
SAPA_PROFIL
 10
-35.035076580641999
 20
18.586384015500919
 30
0.0
  0
VERTEX
  5
2794
  8
SAPA_PROFIL
 10
-35.500000000001137
 20
18.000000000000231
 30
0.0
  0
VERTEX
  5
2795
  8
SAPA_PROFIL
 10
-35.500000000001137
 20
11.30000000000018
 30
0.0
 42
0.4142135623730951
  0
VERTEX
  5
2796
  8
SAPA_PROFIL
 10
-35.200000000000948
 20
11.00000000000022
 30
0.0
  0
VERTEX
  5
2797
  8
SAPA_PROFIL
 10
-34.500000000001137
 20
11.00000000000022
 30
0.0
 42
0.4142135623730951
  0
VERTEX
  5
2798
  8
SAPA_PROFIL
 10
-34.200000000000962
 20
11.30000000000018
 30
0.0
  0
VERTEX
  5
2799
  8
SAPA_PROFIL
 10
-34.200000000000962
 20
14.200000000000269
 30
0.0
 42
-0.4142135623730951
  0
VERTEX
  5
279A
  8
SAPA_PROFIL
 10
-33.700000000000962
 20
14.700000000000269
 30
0.0
  0
VERTEX
  5
279B
  8
SAPA_PROFIL
 10
-30.50000000000114
 20
14.700000000000269
 30
0.0
 42
-0.4142135623730951
  0
VERTEX
  5
279C
  8
SAPA_PROFIL
 10
-30.00000000000114
 20
14.200000000000269
 30
0.0
  0
SEQEND
  5
279D
  8
SAPA_PROFIL
  0
POLYLINE
  5
1891
  8
SAPA_GLAS
 66
     1
 10
0.0
 20
0.0
 30
0.0
  0
VERTEX
  5
27BC
  8
SAPA_GLAS
 10
-76.499999999011493
 20
75.522593981594753
 30
0.0
  0
VERTEX
  5
27BD
  8
SAPA_GLAS
 10
-76.499999999011962
 20
11.00096764649351
 30
0.0
  0
VERTEX
  5
27BE
  8
SAPA_GLAS
 10
-82.499999999011266
 20
11.000967646493519
 30
0.0
  0
VERTEX
  5
27BF
  8
SAPA_GLAS
 10
-82.499999999011266
 20
75.522593981594753
 30
0.0
  0
SEQEND
  5
27C0
  8
SAPA_GLAS
  0
POLYLINE
  5
1892
  8
SAPA_GLAS
 66
     1
 10
0.0
 20
0.0
 30
0.0
 70
     1
  0
VERTEX
  5
27C1
  8
SAPA_GLAS
 10
-67.501284435459013
 20
-110.9999999998263
 30
0.0
  0
VERTEX
  5
27C2
  8
SAPA_GLAS
 10
-52.501284435459013
 20
-110.9999999998263
 30
0.0
  0
VERTEX
  5
27C3
  8
SAPA_GLAS
 10
-52.501284435459013
 20
-100.9999999998263
 30
0.0
  0
VERTEX
  5
27C4
  8
SAPA_GLAS
 10
-67.501284435459013
 20
-100.9999999998263
 30
0.0
  0
SEQEND
  5
27C5
  8
SAPA_GLAS
  0
POLYLINE
  5
1893
  8
SAPA_GLAS
 66
     1
 10
0.0
 20
0.0
 30
0.0
 70
     1
  0
VERTEX
  5
27C6
  8
SAPA_GLAS
 10
-48.50128443545902
 20
-110.9999999998263
 30
0.0
  0
VERTEX
  5
27C7
  8
SAPA_GLAS
 10
-33.50128443545902
 20
-110.9999999998263
 30
0.0
  0
VERTEX
  5
27C8
  8
SAPA_GLAS
 10
-33.50128443545902
 20
-100.9999999998263
 30
0.0
  0
VERTEX
  5
27C9
  8
SAPA_GLAS
 10
-48.50128443545902
 20
-100.9999999998263
 30
0.0
  0
SEQEND
  5
27CA
  8
SAPA_GLAS
  0
POLYLINE
  5
1894
  8
SAPA_GLAS
 66
     1
 10
0.0
 20
0.0
 30
0.0
  0
VERTEX
  5
27CB
  8
SAPA_GLAS
 10
-48.50128443545902
 20
-130.999999999826
 30
0.0
  0
VERTEX
  5
27CC
  8
SAPA_GLAS
 10
-48.50128443545902
 20
-100.999999999826
 30
0.0
  0
VERTEX
  5
27CD
  8
SAPA_GLAS
 10
-52.501284435459013
 20
-100.999999999826
 30
0.0
  0
VERTEX
  5
27CE
  8
SAPA_GLAS
 10
-52.501284435459027
 20
-130.999999999826
 30
0.0
  0
SEQEND
  5
27CF
  8
SAPA_GLAS
  0
POLYLINE
  5
1895
  8
SAPA_GLAS
 66
     1
 10
0.0
 20
0.0
 30
0.0
  0
VERTEX
  5
27D0
  8
SAPA_GLAS
 10
-27.50128443545902
 20
-130.999999999826
 30
0.0
  0
VERTEX
  5
27D1
  8
SAPA_GLAS
 10
-27.501284435459009
 20
-100.999999999826
 30
0.0
  0
VERTEX
  5
27D2
  8
SAPA_GLAS
 10
-33.50128443545902
 20
-100.999999999826
 30
0.0
  0
VERTEX
  5
27D3
  8
SAPA_GLAS
 10
-33.50128443545902
 20
-130.999999999826
 30
0.0
  0
SEQEND
  5
27D4
  8
SAPA_GLAS
  0
POLYLINE
  5
1896
  8
SAPA_GLAS
 66
     1
 10
0.0
 20
0.0
 30
0.0
  0
VERTEX
  5
27D5
  8
SAPA_GLAS
 10
-73.501284435459013
 20
-130.999999999826
 30
0.0
  0
VERTEX
  5
27D6
  8
SAPA_GLAS
 10
-73.501284435459013
 20
-100.999999999826
 30
0.0
  0
VERTEX
  5
27D7
  8
SAPA_GLAS
 10
-67.501284435459013
 20
-100.999999999826
 30
0.0
  0
VERTEX
  5
27D8
  8
SAPA_GLAS
 10
-67.501284435459027
 20
-130.999999999826
 30
0.0
  0
SEQEND
  5
27D9
  8
SAPA_GLAS
  0
LINE
  5
189E
  8
SAPA_FYLLNING
 10
52.49999999999887
 20
26.000000000000231
 30
0.0
 11
52.49999999999882
 21
75.000000000000227
 31
0.0
  0
POLYLINE
  5
189F
  8
SAPA_FYLLNING
 66
     1
 10
0.0
 20
0.0
 30
0.0
  0
VERTEX
  5
27E4
  8
SAPA_FYLLNING
 10
50.99999999999882
 20
75.000000000000227
 30
0.0
  0
VERTEX
  5
27E5
  8
SAPA_FYLLNING
 10
50.999999999998813
 20
26.000000000000231
 30
0.0
  0
VERTEX
  5
27E6
  8
SAPA_FYLLNING
 10
62.49999999999887
 20
26.000000000000242
 30
0.0
  0
VERTEX
  5
27E7
  8
SAPA_FYLLNING
 10
62.499999999998877
 20
75.000000000000227
 30
0.0
  0
SEQEND
  5
27E8
  8
SAPA_FYLLNING
  0
POLYLINE
  5
18A0
  8
SAPA_FYLLNING
 66
     1
 10
0.0
 20
0.0
 30
0.0
  0
VERTEX
  5
27E9
  8
SAPA_FYLLNING
 10
-44.291421355247842
 20
75.551914392872533
 30
0.0
  0
VERTEX
  5
27EA
  8
SAPA_FYLLNING
 10
-44.291421355247863
 20
14.064434310391141
 30
0.0
  0
VERTEX
  5
27EB
  8
SAPA_FYLLNING
 10
-36.291421355247863
 20
14.064434310391141
 30
0.0
  0
VERTEX
  5
27EC
  8
SAPA_FYLLNING
 10
-36.291421355247849
 20
75.551914392872547
 30
0.0
  0
SEQEND
  5
27ED
  8
SAPA_FYLLNING
  0
LINE
  5
18AB
  8
SAPA_ISOLATOR
 10
-19.383797312183969
 20
-25.00001783063373
 30
0.0
 11
-19.383797312183969
 21
-31.194641597816599
 31
0.0
  0
LINE
  5
18AC
  8
SAPA_ISOLATOR
 10
-44.578680595395731
 20
-25.00001783063373
 30
0.0
 11
-19.383797312183969
 21
-25.00001783063373
 31
0.0
  0
LINE
  5
18AD
  8
SAPA_ISOLATOR
 10
-44.578680595395731
 20
-31.194641597818411
 30
0.0
 11
-44.578680595395731
 21
-25.00001783063373
 31
0.0
  0
LINE
  5
18AE
  8
SAPA_ISOLATOR
 10
-19.383797312183969
 20
-31.200017830633669
 30
0.0
 11
-44.578680595395731
 21
-31.194641597818411
 31
0.0
  0
LINE
  5
18AF
  8
SAPA_ISOLATOR
 10
-44.578680595395731
 20
-31.194641597818411
 30
0.0
 11
-19.383797312183969
 21
-25.00001783063373
 31
0.0
  0
LINE
  5
18B0
  8
SAPA_ISOLATOR
 10
-19.383797312183969
 20
-31.216605133519121
 30
0.0
 11
-44.578680595395731
 21
-25.01122890070393
 31
0.0
  0
CIRCLE
  5
18D4
  8
SAPA_FOGBAND
 10
-84.637568219766536
 20
-18.61684519657172
 30
0.0
 40
0.2549509756796394
  0
INSERT
  5
18D5
  8
SAPA_FOGBAND
  6
CONTINUOUS
  2
*U188
 10
0.0
 20
0.0
 30
0.0
1001
ACAD
1002
{
1000
R14_HATCH_DATA
1000
18D5
1011
1.0
1021
0.0
1031
0.0
1021
0.0
1031
0.0
1011
0.0
1021
0.0
1031
0.0
1021
1.0
1031
0.0
1011
0.0
1021
0.0
1031
0.0
1021
0.0
1031
1.0
1040
0.0
1010
0.0
1020
0.0
1030
1.0
1000
SOLID
1070
     1
1070
     1
1071
        1
1071
        1
1071
        1
1070
     2
1040
-84.637568219766536
1040
-18.61684519657172
1040
0.2549509756796394
1040
-1.5707963267948959
1040
4.7123889803846888
1070
     0
1071
        1
1005
18D4
1070
     0
1070
     1
1071
        1
1040
-84.555716722437623
1040
-18.85358409814182
1040
0.0
1002
}
  0
POLYLINE
  5
18D6
  8
SAPA_FOGBAND
 66
     1
 10
0.0
 20
0.0
 30
0.0
 70
     1
  0
VERTEX
  5
299D
  8
SAPA_FOGBAND
 10
-87.599999999011061
 20
-17.71684519657174
 30
0.0
 42
-0.9999999999999998
  0
VERTEX
  5
299E
  8
SAPA_FOGBAND
 10
-87.599999999011061
 20
-19.51684519657169
 30
0.0
  0
VERTEX
  5
299F
  8
SAPA_FOGBAND
 10
-88.199999999011084
 20
-19.51684519657169
 30
0.0
 42
-0.9999999999999998
  0
VERTEX
  5
29A0
  8
SAPA_FOGBAND
 10
-88.199999999011084
 20
-17.71684519657174
 30
0.0
  0
SEQEND
  5
29A1
  8
SAPA_FOGBAND
  0
POLYLINE
  5
18D7
  8
SAPA_FOGBAND
 66
     1
 10
0.0
 20
0.0
 30
0.0
 70
     1
  0
VERTEX
  5
29A2
  8
SAPA_FOGBAND
 10
-82.499999999011038
 20
-27.24472150474492
 30
0.0
 42
-0.0775891054856093
  0
VERTEX
  5
29A3
  8
SAPA_FOGBAND
 10
-82.816635983072374
 20
-23.777939774322359
 30
0.0
  0
VERTEX
  5
29A4
  8
SAPA_FOGBAND
 10
-82.599999999011004
 20
-23.54005028149356
 30
0.0
 42
0.5773502691896298
  0
VERTEX
  5
29A5
  8
SAPA_FOGBAND
 10
-82.599999999011004
 20
-23.193640119979701
 30
0.0
  0
VERTEX
  5
29A6
  8
SAPA_FOGBAND
 10
-82.816909853234066
 20
-22.955592503248909
 30
0.0
  0
VERTEX
  5
29A7
  8
SAPA_FOGBAND
 10
-82.816909853234066
 20
-22.178097893332279
 30
0.0
  0
VERTEX
  5
29A8
  8
SAPA_FOGBAND
 10
-82.599999999011004
 20
-21.940050281493541
 30
0.0
 42
0.577350269189699
  0
VERTEX
  5
29A9
  8
SAPA_FOGBAND
 10
-82.599999999011004
 20
-21.593640119979799
 30
0.0
  0
VERTEX
  5
29AA
  8
SAPA_FOGBAND
 10
-82.816909853234066
 20
-21.355592503248999
 30
0.0
  0
VERTEX
  5
29AB
  8
SAPA_FOGBAND
 10
-82.816909853234066
 20
-20.578097893332259
 30
0.0
  0
VERTEX
  5
29AC
  8
SAPA_FOGBAND
 10
-82.599999999011004
 20
-20.340050281493522
 30
0.0
 42
0.577350269189699
  0
VERTEX
  5
29AD
  8
SAPA_FOGBAND
 10
-82.599999999011004
 20
-19.993640119979769
 30
0.0
  0
VERTEX
  5
29AE
  8
SAPA_FOGBAND
 10
-82.816909853234066
 20
-19.75559250324898
 30
0.0
  0
VERTEX
  5
29AF
  8
SAPA_FOGBAND
 10
-82.816909853234066
 20
-18.97809789333223
 30
0.0
  0
VERTEX
  5
29B0
  8
SAPA_FOGBAND
 10
-82.599999999011004
 20
-18.740050281493609
 30
0.0
 42
0.5773502691896298
  0
VERTEX
  5
29B1
  8
SAPA_FOGBAND
 10
-82.599999999011004
 20
-18.39364011997975
 30
0.0
  0
VERTEX
  5
29B2
  8
SAPA_FOGBAND
 10
-82.816909853234066
 20
-18.15559250324895
 30
0.0
  0
VERTEX
  5
29B3
  8
SAPA_FOGBAND
 10
-82.816909853234066
 20
-17.37809789333221
 30
0.0
  0
VERTEX
  5
29B4
  8
SAPA_FOGBAND
 10
-82.599999999011004
 20
-17.140050281493579
 30
0.0
 42
0.5773502691896298
  0
VERTEX
  5
29B5
  8
SAPA_FOGBAND
 10
-82.599999999011004
 20
-16.793640119979731
 30
0.0
  0
VERTEX
  5
29B6
  8
SAPA_FOGBAND
 10
-82.816909853234066
 20
-16.555592503248931
 30
0.0
  0
VERTEX
  5
29B7
  8
SAPA_FOGBAND
 10
-82.816909853234066
 20
-15.77809788916727
 30
0.0
  0
VERTEX
  5
29B8
  8
SAPA_FOGBAND
 10
-82.599999999011004
 20
-15.540050277328531
 30
0.0
 42
0.577350269189699
  0
VERTEX
  5
29B9
  8
SAPA_FOGBAND
 10
-82.599999999011004
 20
-15.193640115814789
 30
0.0
  0
VERTEX
  5
29BA
  8
SAPA_FOGBAND
 10
-83.673330067495499
 20
-14.393640116259689
 30
0.0
 42
0.1316524987190269
  0
VERTEX
  5
29BB
  8
SAPA_FOGBAND
 10
-83.773330068266205
 20
-14.36684519657172
 30
0.0
  0
VERTEX
  5
29BC
  8
SAPA_FOGBAND
 10
-86.299999999011007
 20
-14.3668451965716
 30
0.0
 42
0.4142135623730951
  0
VERTEX
  5
29BD
  8
SAPA_FOGBAND
 10
-86.499999999011024
 20
-14.56684519657165
 30
0.0
  0
VERTEX
  5
29BE
  8
SAPA_FOGBAND
 10
-86.499999999011024
 20
-16.61684519657171
 30
0.0
 42
-0.4142135623730951
  0
VERTEX
  5
29BF
  8
SAPA_FOGBAND
 10
-86.999999999011038
 20
-17.11684519657171
 30
0.0
  0
VERTEX
  5
29C0
  8
SAPA_FOGBAND
 10
-87.726794918254186
 20
-17.11684519657171
 30
0.0
  0
VERTEX
  5
29C1
  8
SAPA_FOGBAND
 10
-87.7942548275646
 20
-16.865081387551179
 30
0.0
 42
0.4740571810232869
  0
VERTEX
  5
29C2
  8
SAPA_FOGBAND
 10
-88.076537413203255
 20
-16.737787525187631
 30
0.0
  0
VERTEX
  5
29C3
  8
SAPA_FOGBAND
 10
-89.522743549963025
 20
-17.35788802794616
 30
0.0
 42
0.2846003776495916
  0
VERTEX
  5
29C4
  8
SAPA_FOGBAND
 10
-89.799999999010993
 20
-17.805532206406379
 30
0.0
  0
VERTEX
  5
29C5
  8
SAPA_FOGBAND
 10
-89.799999999010993
 20
-19.42815818673693
 30
0.0
 42
0.2846003776495917
  0
VERTEX
  5
29C6
  8
SAPA_FOGBAND
 10
-89.522743549963025
 20
-19.87580236519716
 30
0.0
  0
VERTEX
  5
29C7
  8
SAPA_FOGBAND
 10
-88.076537413203255
 20
-20.495902867955689
 30
0.0
 42
0.4740571810232869
  0
VERTEX
  5
29C8
  8
SAPA_FOGBAND
 10
-87.7942548275646
 20
-20.368609005592131
 30
0.0
  0
VERTEX
  5
29C9
  8
SAPA_FOGBAND
 10
-87.726794918254186
 20
-20.11684519657172
 30
0.0
  0
VERTEX
  5
29CA
  8
SAPA_FOGBAND
 10
-86.999999999011038
 20
-20.11684519657172
 30
0.0
 42
-0.4142135623730951
  0
VERTEX
  5
29CB
  8
SAPA_FOGBAND
 10
-86.499999999011024
 20
-20.61684519657172
 30
0.0
  0
VERTEX
  5
29CC
  8
SAPA_FOGBAND
 10
-86.499999999011024
 20
-23.666845196571671
 30
0.0
 42
-0.4142135623730951
  0
VERTEX
  5
29CD
  8
SAPA_FOGBAND
 10
-86.699999999011084
 20
-23.86684519657172
 30
0.0
  0
VERTEX
  5
29CE
  8
SAPA_FOGBAND
 10
-87.599999999011061
 20
-23.8668451965716
 30
0.0
 42
0.4142135623731784
  0
VERTEX
  5
29CF
  8
SAPA_FOGBAND
 10
-87.799999999010979
 20
-24.066845196571649
 30
0.0
  0
VERTEX
  5
29D0
  8
SAPA_FOGBAND
 10
-87.799999999011106
 20
-24.76684519657169
 30
0.0
 42
0.4142135623730398
  0
VERTEX
  5
29D1
  8
SAPA_FOGBAND
 10
-87.499999999011038
 20
-25.066845196571649
 30
0.0
  0
VERTEX
  5
29D2
  8
SAPA_FOGBAND
 10
-86.6894882223595
 20
-25.066845196571649
 30
0.0
 42
-0.1316524975873973
  0
VERTEX
  5
29D3
  8
SAPA_FOGBAND
 10
-85.689488222359515
 20
-25.334794389002809
 30
0.0
  0
VERTEX
  5
29D4
  8
SAPA_FOGBAND
 10
-83.099920230267557
 20
-30.497639539043231
 30
0.0
 42
0.7057658529986604
  0
VERTEX
  5
29D5
  8
SAPA_FOGBAND
 10
-82.499999999011038
 20
-30.230046363684892
 30
0.0
  0
SEQEND
  5
29D6
  8
SAPA_FOGBAND
  0
POLYLINE
  5
18D8
  8
SAPA_FOGBAND
 66
     1
 10
0.0
 20
0.0
 30
0.0
 70
     1
  0
VERTEX
  5
29D7
  8
SAPA_FOGBAND
 10
-34.185369502362803
 20
-19.30339354923429
 30
0.0
 42
0.9999999999999998
  0
VERTEX
  5
29D8
  8
SAPA_FOGBAND
 10
-34.185369502362803
 20
-21.103393549234301
 30
0.0
  0
VERTEX
  5
29D9
  8
SAPA_FOGBAND
 10
-33.585369502362781
 20
-21.103393549234301
 30
0.0
 42
0.9999999999999998
  0
VERTEX
  5
29DA
  8
SAPA_FOGBAND
 10
-33.585369502362781
 20
-19.30339354923429
 30
0.0
  0
SEQEND
  5
29DB
  8
SAPA_FOGBAND
  0
POLYLINE
  5
18D9
  8
SAPA_FOGBAND
 66
     1
 10
0.0
 20
0.0
 30
0.0
  0
VERTEX
  5
29DC
  8
SAPA_FOGBAND
 10
-35.80000000000161
 20
-23.80339354923429
 30
0.0
  0
VERTEX
  5
29DD
  8
SAPA_FOGBAND
 10
-35.500000000001542
 20
-23.80339354923429
 30
0.0
  0
VERTEX
  5
29DE
  8
SAPA_FOGBAND
 10
-35.80000000000161
 20
-23.80339354923429
 30
0.0
 42
-0.4142135623730951
  0
VERTEX
  5
29DF
  8
SAPA_FOGBAND
 10
-36.30000000000161
 20
-23.30339354923429
 30
0.0
  0
VERTEX
  5
29E0
  8
SAPA_FOGBAND
 10
-36.300000000001617
 20
-16.003393549234339
 30
0.0
 42
-0.4142135623730951
  0
VERTEX
  5
29E1
  8
SAPA_FOGBAND
 10
-35.800000000001617
 20
-15.503393549234341
 30
0.0
  0
VERTEX
  5
29E2
  8
SAPA_FOGBAND
 10
-35.500000000001549
 20
-15.503393549234341
 30
0.0
  0
SEQEND
  5
29E3
  8
SAPA_FOGBAND
  0
POLYLINE
  5
18DA
  8
SAPA_FOGBAND
 66
     1
 10
0.0
 20
0.0
 30
0.0
 70
     1
  0
VERTEX
  5
29E4
  8
SAPA_FOGBAND
 10
-40.100000000001543
 20
-17.151678439530642
 30
0.0
  0
VERTEX
  5
29E5
  8
SAPA_FOGBAND
 10
-40.100000000001543
 20
-20.24632254885648
 30
0.0
 42
-1.024758115298622
  0
VERTEX
  5
29E6
  8
SAPA_FOGBAND
 10
-43.281531792787042
 20
-20.24632254885648
 30
0.0
  0
VERTEX
  5
29E7
  8
SAPA_FOGBAND
 10
-43.281531792787042
 20
-17.151678439530642
 30
0.0
 42
-0.9558128803175696
  0
SEQEND
  5
29E8
  8
SAPA_FOGBAND
  0
POLYLINE
  5
18DB
  8
SAPA_FOGBAND
 66
     1
 10
0.0
 20
0.0
 30
0.0
 70
     1
  0
VERTEX
  5
29E9
  8
SAPA_FOGBAND
 10
-41.936054126747187
 20
-7.9203481004113492
 30
0.0
 42
0.6274939020253784
  0
VERTEX
  5
29EA
  8
SAPA_FOGBAND
 10
-43.494698620708917
 20
-7.9312729228444896
 30
0.0
  0
VERTEX
  5
29EB
  8
SAPA_FOGBAND
 10
-44.058441624631669
 20
-11.90713291620915
 30
0.0
 42
0.4459602482749359
  0
VERTEX
  5
29EC
  8
SAPA_FOGBAND
 10
-43.163604270399311
 20
-12.903393549234339
 30
0.0
  0
VERTEX
  5
29ED
  8
SAPA_FOGBAND
 10
-40.440292945534608
 20
-12.903393549234339
 30
0.0
 42
0.6245270939358744
  0
VERTEX
  5
29EE
  8
SAPA_FOGBAND
 10
-39.730537971723898
 20
-11.44999687671913
 30
0.0
  0
SEQEND
  5
29EF
  8
SAPA_FOGBAND
  0
POLYLINE
  5
18DC
  8
SAPA_FOGBAND
 66
     1
 10
0.0
 20
0.0
 30
0.0
 70
     1
  0
VERTEX
  5
29F0
  8
SAPA_FOGBAND
 10
-34.058574583119672
 20
-18.703393549234331
 30
0.0
  0
VERTEX
  5
29F1
  8
SAPA_FOGBAND
 10
-33.991114673809257
 20
-18.45162974021385
 30
0.0
 42
-0.4740571810232144
  0
VERTEX
  5
29F2
  8
SAPA_FOGBAND
 10
-33.70883208817061
 20
-18.324335877850238
 30
0.0
  0
VERTEX
  5
29F3
  8
SAPA_FOGBAND
 10
-32.262625951410733
 20
-18.944436380608831
 30
0.0
 42
-0.2846003776496053
  0
VERTEX
  5
29F4
  8
SAPA_FOGBAND
 10
-31.985369502362762
 20
-19.39208055906899
 30
0.0
  0
VERTEX
  5
29F5
  8
SAPA_FOGBAND
 10
-31.985369502362762
 20
-21.014706539399601
 30
0.0
 42
-0.2846003776496027
  0
VERTEX
  5
29F6
  8
SAPA_FOGBAND
 10
-32.262625951410719
 20
-21.462350717859771
 30
0.0
  0
VERTEX
  5
29F7
  8
SAPA_FOGBAND
 10
-33.708832088170659
 20
-22.08245122061836
 30
0.0
 42
-0.4740571810232332
  0
VERTEX
  5
29F8
  8
SAPA_FOGBAND
 10
-33.991114673809257
 20
-21.955157358254802
 30
0.0
  0
VERTEX
  5
29F9
  8
SAPA_FOGBAND
 10
-34.058574583119658
 20
-21.703393549234331
 30
0.0
  0
VERTEX
  5
29FA
  8
SAPA_FOGBAND
 10
-35.000000000001542
 20
-21.703393549234331
 30
0.0
 42
0.4142135623730951
  0
VERTEX
  5
29FB
  8
SAPA_FOGBAND
 10
-35.500000000001542
 20
-22.203393549234331
 30
0.0
  0
VERTEX
  5
29FC
  8
SAPA_FOGBAND
 10
-35.500000000001599
 20
-24.71555371261578
 30
0.0
 42
-0.4027293761437467
  0
VERTEX
  5
29FD
  8
SAPA_FOGBAND
 10
-35.788192637470907
 20
-25.01532126621364
 30
0.0
  0
VERTEX
  5
29FE
  8
SAPA_FOGBAND
 10
-45.188192637470941
 20
-25.503161080883071
 30
0.0
 42
-0.4257917699693538
  0
VERTEX
  5
29FF
  8
SAPA_FOGBAND
 10
-45.500000000001592
 20
-25.203393527285211
 30
0.0
  0
VERTEX
  5
2A00
  8
SAPA_FOGBAND
 10
-45.500000000001599
 20
-11.49785986806133
 30
0.0
  0
VERTEX
  5
2A01
  8
SAPA_FOGBAND
 10
-44.723465082318981
 20
-5.8947182703344607
 30
0.0
 42
-0.322530093016903
  0
VERTEX
  5
2A02
  8
SAPA_FOGBAND
 10
-43.729387777213013
 20
-5.2033935272851908
 30
0.0
  0
VERTEX
  5
2A03
  8
SAPA_FOGBAND
 10
-42.498644220775432
 20
-5.2033935272851908
 30
0.0
 42
-0.2325311832130604
  0
VERTEX
  5
2A04
  8
SAPA_FOGBAND
 10
-42.102703356693617
 20
-5.3980562839784101
 30
0.0
  0
VERTEX
  5
2A05
  8
SAPA_FOGBAND
 10
-35.708118271838103
 20
-14.56461951188591
 30
0.0
 42
-0.1657205760184606
  0
VERTEX
  5
2A06
  8
SAPA_FOGBAND
 10
-35.500000000001549
 20
-15.17529399849953
 30
0.0
  0
VERTEX
  5
2A07
  8
SAPA_FOGBAND
 10
-35.500000000001549
 20
-18.203393549234331
 30
0.0
 42
0.4142135623730951
  0
VERTEX
  5
2A08
  8
SAPA_FOGBAND
 10
-35.000000000001549
 20
-18.703393549234331
 30
0.0
  0
SEQEND
  5
2A09
  8
SAPA_FOGBAND
  0
POLYLINE
  5
18DD
  8
SAPA_FOGBAND
 66
     1
 10
0.0
 20
0.0
 30
0.0
 70
     1
  0
VERTEX
  5
2A0A
  8
SAPA_FOGBAND
 10
3.191044265832637
 20
-28.001338375370509
 30
0.0
  0
VERTEX
  5
2A0B
  8
SAPA_FOGBAND
 10
0.3577253014129065
 20
-28.001338375370509
 30
0.0
 42
-0.577350269189628
  0
VERTEX
  5
2A0C
  8
SAPA_FOGBAND
 10
0.0979176802774555
 20
-27.55133837537047
 30
0.0
  0
VERTEX
  5
2A0D
  8
SAPA_FOGBAND
 10
1.796883022029683
 20
-25.51020108666723
 30
0.0
 42
0.8769764629927237
  0
VERTEX
  5
2A0E
  8
SAPA_FOGBAND
 10
1.324943366538414
 20
-25.14806905231131
 30
0.0
  0
VERTEX
  5
2A0F
  8
SAPA_FOGBAND
 10
-1.8680762347200559
 20
-27.708445156556952
 30
0.0
 42
-0.1989123673796493
  0
VERTEX
  5
2A10
  8
SAPA_FOGBAND
 10
-2.5751830159064948
 20
-28.001338375370509
 30
0.0
  0
VERTEX
  5
2A11
  8
SAPA_FOGBAND
 10
-4.2116358188102208
 20
-28.001338375370509
 30
0.0
 42
-0.577350269189628
  0
VERTEX
  5
2A12
  8
SAPA_FOGBAND
 10
-4.4714434399454452
 20
-27.55133837537047
 30
0.0
  0
VERTEX
  5
2A13
  8
SAPA_FOGBAND
 10
-3.7028462713806989
 20
-25.511069839847611
 30
0.0
 42
0.8769764629928424
  0
VERTEX
  5
2A14
  8
SAPA_FOGBAND
 10
-4.1747859268719676
 20
-25.148937805491698
 30
0.0
  0
VERTEX
  5
2A15
  8
SAPA_FOGBAND
 10
-7.7768364612505456
 20
-29.282961428401279
 30
0.0
 42
0.1989123673796579
  0
VERTEX
  5
2A16
  8
SAPA_FOGBAND
 10
-8.0697296800638796
 20
-29.990068209587719
 30
0.0
  0
VERTEX
  5
2A17
  8
SAPA_FOGBAND
 10
-8.0697296800638796
 20
-29.999999999900918
 30
0.0
 42
0.4142135623730951
  0
VERTEX
  5
2A18
  8
SAPA_FOGBAND
 10
-7.0697296800638787
 20
-30.999999999900918
 30
0.0
  0
VERTEX
  5
2A19
  8
SAPA_FOGBAND
 10
0.1652628207033686
 20
-32.16408459902442
 30
0.0
 42
0.6261632875160376
  0
VERTEX
  5
2A1A
  8
SAPA_FOGBAND
 10
0.4751197492220527
 20
-31.722117795598081
 30
0.0
  0
VERTEX
  5
2A1B
  8
SAPA_FOGBAND
 10
0.3214817544332291
 20
-31.445776149611959
 30
0.0
 42
-0.5719685712689121
  0
VERTEX
  5
2A1C
  8
SAPA_FOGBAND
 10
0.5836826586566204
 20
-30.999999999901039
 30
0.0
  0
VERTEX
  5
2A1D
  8
SAPA_FOGBAND
 10
3.330270319935984
 20
-30.999999999900918
 30
0.0
 42
-0.4142135623730118
  0
VERTEX
  5
2A1E
  8
SAPA_FOGBAND
 10
3.6302703199361659
 20
-31.29999999990088
 30
0.0
  0
VERTEX
  5
2A1F
  8
SAPA_FOGBAND
 10
3.6302703199359381
 20
-32.699999999900967
 30
0.0
 42
0.7754026414785753
  0
VERTEX
  5
2A20
  8
SAPA_FOGBAND
 10
4.1930623153438438
 20
-32.844707868206861
 30
0.0
  0
VERTEX
  5
2A21
  8
SAPA_FOGBAND
 10
7.9039471192749398
 20
-25.501101552726201
 30
0.0
 42
0.8680589103333867
  0
VERTEX
  5
2A22
  8
SAPA_FOGBAND
 10
7.42902308951117
 20
-25.144261650064269
 30
0.0
  0
VERTEX
  5
2A23
  8
SAPA_FOGBAND
 10
3.898151047019077
 20
-27.708445156556952
 30
0.0
 42
-0.1989123673796493
  0
SEQEND
  5
2A24
  8
SAPA_FOGBAND
  0
POLYLINE
  5
18DE
  8
SAPA_FOGBAND
 62
     2
 10
-23.909909063672458
 20
-105.7737854458744
 30
0.0
 66
     1
 70
     8
  0
VERTEX
  8
SAPA_FOGBAND
  5
2B4E
 10
-23.9099
 20
-105.774
 30
0.000000
  70
    32
  0
VERTEX
  8
SAPA_FOGBAND
  5
2B4F
 10
-23.9786
 20
-105.771
 30
0.000000
  70
    32
  0
VERTEX
  8
SAPA_FOGBAND
  5
2B50
 10
-24.0471
 20
-105.763
 30
0.000000
  70
    32
  0
VERTEX
  8
SAPA_FOGBAND
  5
2B51
 10
-24.1153
 20
-105.750
 30
0.000000
  70
    32
  0
VERTEX
  8
SAPA_FOGBAND
  5
2B52
 10
-24.1830
 20
-105.732
 30
0.000000
  70
    32
  0
VERTEX
  8
SAPA_FOGBAND
  5
2B53
 10
-24.2501
 20
-105.709
 30
0.000000
  70
    32
  0
VERTEX
  8
SAPA_FOGBAND
  5
2B54
 10
-24.3163
 20
-105.680
 30
0.000000
  70
    32
  0
VERTEX
  8
SAPA_FOGBAND
  5
2B55
 10
-24.3816
 20
-105.647
 30
0.000000
  70
    32
  0
VERTEX
  8
SAPA_FOGBAND
  5
2B56
 10
-24.4457
 20
-105.609
 30
0.000000
  70
    32
  0
VERTEX
  8
SAPA_FOGBAND
  5
2B57
 10
-24.5085
 20
-105.566
 30
0.000000
  70
    32
  0
VERTEX
  8
SAPA_FOGBAND
  5
2B58
 10
-24.5699
 20
-105.518
 30
0.000000
  70
    32
  0
VERTEX
  8
SAPA_FOGBAND
  5
2B59
 10
-24.6297
 20
-105.465
 30
0.000000
  70
    32
  0
VERTEX
  8
SAPA_FOGBAND
  5
2B5A
 10
-24.6877
 20
-105.408
 30
0.000000
  70
    32
  0
VERTEX
  8
SAPA_FOGBAND
  5
2B5B
 10
-24.7439
 20
-105.347
 30
0.000000
  70
    32
  0
VERTEX
  8
SAPA_FOGBAND
  5
2B5C
 10
-24.7981
 20
-105.282
 30
0.000000
  70
    32
  0
VERTEX
  8
SAPA_FOGBAND
  5
2B5D
 10
-24.8501
 20
-105.212
 30
0.000000
  70
    32
  0
VERTEX
  8
SAPA_FOGBAND
  5
2B5E
 10
-24.8999
 20
-105.139
 30
0.000000
  70
    32
  0
VERTEX
  8
SAPA_FOGBAND
  5
2B5F
 10
-24.9472
 20
-105.062
 30
0.000000
  70
    32
  0
VERTEX
  8
SAPA_FOGBAND
  5
2B60
 10
-24.9921
 20
-104.981
 30
0.000000
  70
    32
  0
VERTEX
  8
SAPA_FOGBAND
  5
2B61
 10
-25.0344
 20
-104.897
 30
0.000000
  70
    32
  0
VERTEX
  8
SAPA_FOGBAND
  5
2B62
 10
-25.0740
 20
-104.810
 30
0.000000
  70
    32
  0
VERTEX
  8
SAPA_FOGBAND
  5
2B63
 10
-25.1107
 20
-104.720
 30
0.000000
  70
    32
  0
VERTEX
  8
SAPA_FOGBAND
  5
2B64
 10
-25.1446
 20
-104.628
 30
0.000000
  70
    32
  0
VERTEX
  8
SAPA_FOGBAND
  5
2B65
 10
-25.1755
 20
-104.533
 30
0.000000
  70
    32
  0
VERTEX
  8
SAPA_FOGBAND
  5
2B66
 10
-25.2033
 20
-104.436
 30
0.000000
  70
    32
  0
VERTEX
  8
SAPA_FOGBAND
  5
2B67
 10
-25.2281
 20
-104.336
 30
0.000000
  70
    32
  0
VERTEX
  8
SAPA_FOGBAND
  5
2B68
 10
-25.2496
 20
-104.235
 30
0.000000
  70
    32
  0
VERTEX
  8
SAPA_FOGBAND
  5
2B69
 10
-25.2680
 20
-104.133
 30
0.000000
  70
    32
  0
VERTEX
  8
SAPA_FOGBAND
  5
2B6A
 10
-25.2830
 20
-104.029
 30
0.000000
  70
    32
  0
VERTEX
  8
SAPA_FOGBAND
  5
2B6B
 10
-25.2948
 20
-103.924
 30
0.000000
  70
    32
  0
VERTEX
  8
SAPA_FOGBAND
  5
2B6C
 10
-25.3032
 20
-103.818
 30
0.000000
  70
    32
  0
VERTEX
  8
SAPA_FOGBAND
  5
2B6D
 10
-25.3082
 20
-103.712
 30
0.000000
  70
    32
  0
VERTEX
  8
SAPA_FOGBAND
  5
2B6E
 10
-25.3099
 20
-103.606
 30
0.000000
  70
    32
  0
VERTEX
  8
SAPA_FOGBAND
  5
2B6F
 10
-25.3082
 20
-103.500
 30
0.000000
  70
    32
  0
VERTEX
  8
SAPA_FOGBAND
  5
2B70
 10
-25.3032
 20
-103.394
 30
0.000000
  70
    32
  0
VERTEX
  8
SAPA_FOGBAND
  5
2B71
 10
-25.2948
 20
-103.288
 30
0.000000
  70
    32
  0
VERTEX
  8
SAPA_FOGBAND
  5
2B72
 10
-25.2830
 20
-103.183
 30
0.000000
  70
    32
  0
VERTEX
  8
SAPA_FOGBAND
  5
2B73
 10
-25.2680
 20
-103.079
 30
0.000000
  70
    32
  0
VERTEX
  8
SAPA_FOGBAND
  5
2B74
 10
-25.2496
 20
-102.977
 30
0.000000
  70
    32
  0
VERTEX
  8
SAPA_FOGBAND
  5
2B75
 10
-25.2281
 20
-102.876
 30
0.000000
  70
    32
  0
VERTEX
  8
SAPA_FOGBAND
  5
2B76
 10
-25.2033
 20
-102.776
 30
0.000000
  70
    32
  0
VERTEX
  8
SAPA_FOGBAND
  5
2B77
 10
-25.1755
 20
-102.679
 30
0.000000
  70
    32
  0
VERTEX
  8
SAPA_FOGBAND
  5
2B78
 10
-25.1446
 20
-102.584
 30
0.000000
  70
    32
  0
VERTEX
  8
SAPA_FOGBAND
  5
2B79
 10
-25.1107
 20
-102.492
 30
0.000000
  70
    32
  0
VERTEX
  8
SAPA_FOGBAND
  5
2B7A
 10
-25.0740
 20
-102.402
 30
0.000000
  70
    32
  0
VERTEX
  8
SAPA_FOGBAND
  5
2B7B
 10
-25.0344
 20
-102.315
 30
0.000000
  70
    32
  0
VERTEX
  8
SAPA_FOGBAND
  5
2B7C
 10
-24.9921
 20
-102.231
 30
0.000000
  70
    32
  0
VERTEX
  8
SAPA_FOGBAND
  5
2B7D
 10
-24.9472
 20
-102.150
 30
0.000000
  70
    32
  0
VERTEX
  8
SAPA_FOGBAND
  5
2B7E
 10
-24.8999
 20
-102.073
 30
0.000000
  70
    32
  0
VERTEX
  8
SAPA_FOGBAND
  5
2B7F
 10
-24.8501
 20
-102.000
 30
0.000000
  70
    32
  0
VERTEX
  8
SAPA_FOGBAND
  5
2B80
 10
-24.7981
 20
-101.930
 30
0.000000
  70
    32
  0
VERTEX
  8
SAPA_FOGBAND
  5
2B81
 10
-24.7439
 20
-101.865
 30
0.000000
  70
    32
  0
VERTEX
  8
SAPA_FOGBAND
  5
2B82
 10
-24.6877
 20
-101.804
 30
0.000000
  70
    32
  0
VERTEX
  8
SAPA_FOGBAND
  5
2B83
 10
-24.6297
 20
-101.747
 30
0.000000
  70
    32
  0
VERTEX
  8
SAPA_FOGBAND
  5
2B84
 10
-24.5699
 20
-101.694
 30
0.000000
  70
    32
  0
VERTEX
  8
SAPA_FOGBAND
  5
2B85
 10
-24.5085
 20
-101.646
 30
0.000000
  70
    32
  0
VERTEX
  8
SAPA_FOGBAND
  5
2B86
 10
-24.4457
 20
-101.603
 30
0.000000
  70
    32
  0
VERTEX
  8
SAPA_FOGBAND
  5
2B87
 10
-24.3816
 20
-101.565
 30
0.000000
  70
    32
  0
VERTEX
  8
SAPA_FOGBAND
  5
2B88
 10
-24.3163
 20
-101.532
 30
0.000000
  70
    32
  0
VERTEX
  8
SAPA_FOGBAND
  5
2B89
 10
-24.2501
 20
-101.503
 30
0.000000
  70
    32
  0
VERTEX
  8
SAPA_FOGBAND
  5
2B8A
 10
-24.1830
 20
-101.480
 30
0.000000
  70
    32
  0
VERTEX
  8
SAPA_FOGBAND
  5
2B8B
 10
-24.1153
 20
-101.462
 30
0.000000
  70
    32
  0
VERTEX
  8
SAPA_FOGBAND
  5
2B8C
 10
-24.0471
 20
-101.449
 30
0.000000
  70
    32
  0
VERTEX
  8
SAPA_FOGBAND
  5
2B8D
 10
-23.9786
 20
-101.441
 30
0.000000
  70
    32
  0
VERTEX
  8
SAPA_FOGBAND
  5
2B8E
 10
-23.9099
 20
-101.438
 30
0.000000
  70
    32
  0
VERTEX
  8
SAPA_FOGBAND
  5
2B8F
 10
-23.8412
 20
-101.441
 30
0.000000
  70
    32
  0
VERTEX
  8
SAPA_FOGBAND
  5
2B90
 10
-23.7727
 20
-101.449
 30
0.000000
  70
    32
  0
VERTEX
  8
SAPA_FOGBAND
  5
2B91
 10
-23.7045
 20
-101.462
 30
0.000000
  70
    32
  0
VERTEX
  8
SAPA_FOGBAND
  5
2B92
 10
-23.6368
 20
-101.480
 30
0.000000
  70
    32
  0
VERTEX
  8
SAPA_FOGBAND
  5
2B93
 10
-23.5697
 20
-101.503
 30
0.000000
  70
    32
  0
VERTEX
  8
SAPA_FOGBAND
  5
2B94
 10
-23.5035
 20
-101.532
 30
0.000000
  70
    32
  0
VERTEX
  8
SAPA_FOGBAND
  5
2B95
 10
-23.4383
 20
-101.565
 30
0.000000
  70
    32
  0
VERTEX
  8
SAPA_FOGBAND
  5
2B96
 10
-23.3742
 20
-101.603
 30
0.000000
  70
    32
  0
VERTEX
  8
SAPA_FOGBAND
  5
2B97
 10
-23.3113
 20
-101.646
 30
0.000000
  70
    32
  0
VERTEX
  8
SAPA_FOGBAND
  5
2B98
 10
-23.2500
 20
-101.694
 30
0.000000
  70
    32
  0
VERTEX
  8
SAPA_FOGBAND
  5
2B99
 10
-23.1902
 20
-101.747
 30
0.000000
  70
    32
  0
VERTEX
  8
SAPA_FOGBAND
  5
2B9A
 10
-23.1321
 20
-101.804
 30
0.000000
  70
    32
  0
VERTEX
  8
SAPA_FOGBAND
  5
2B9B
 10
-23.0759
 20
-101.865
 30
0.000000
  70
    32
  0
VERTEX
  8
SAPA_FOGBAND
  5
2B9C
 10
-23.0218
 20
-101.930
 30
0.000000
  70
    32
  0
VERTEX
  8
SAPA_FOGBAND
  5
2B9D
 10
-22.9697
 20
-102.000
 30
0.000000
  70
    32
  0
VERTEX
  8
SAPA_FOGBAND
  5
2B9E
 10
-22.9200
 20
-102.073
 30
0.000000
  70
    32
  0
VERTEX
  8
SAPA_FOGBAND
  5
2B9F
 10
-22.8726
 20
-102.150
 30
0.000000
  70
    32
  0
VERTEX
  8
SAPA_FOGBAND
  5
2BA0
 10
-22.8277
 20
-102.231
 30
0.000000
  70
    32
  0
VERTEX
  8
SAPA_FOGBAND
  5
2BA1
 10
-22.7854
 20
-102.315
 30
0.000000
  70
    32
  0
VERTEX
  8
SAPA_FOGBAND
  5
2BA2
 10
-22.7459
 20
-102.402
 30
0.000000
  70
    32
  0
VERTEX
  8
SAPA_FOGBAND
  5
2BA3
 10
-22.7091
 20
-102.492
 30
0.000000
  70
    32
  0
VERTEX
  8
SAPA_FOGBAND
  5
2BA4
 10
-22.6752
 20
-102.584
 30
0.000000
  70
    32
  0
VERTEX
  8
SAPA_FOGBAND
  5
2BA5
 10
-22.6443
 20
-102.679
 30
0.000000
  70
    32
  0
VERTEX
  8
SAPA_FOGBAND
  5
2BA6
 10
-22.6165
 20
-102.776
 30
0.000000
  70
    32
  0
VERTEX
  8
SAPA_FOGBAND
  5
2BA7
 10
-22.5917
 20
-102.876
 30
0.000000
  70
    32
  0
VERTEX
  8
SAPA_FOGBAND
  5
2BA8
 10
-22.5702
 20
-102.977
 30
0.000000
  70
    32
  0
VERTEX
  8
SAPA_FOGBAND
  5
2BA9
 10
-22.5519
 20
-103.079
 30
0.000000
  70
    32
  0
VERTEX
  8
SAPA_FOGBAND
  5
2BAA
 10
-22.5368
 20
-103.183
 30
0.000000
  70
    32
  0
VERTEX
  8
SAPA_FOGBAND
  5
2BAB
 10
-22.5251
 20
-103.288
 30
0.000000
  70
    32
  0
VERTEX
  8
SAPA_FOGBAND
  5
2BAC
 10
-22.5167
 20
-103.394
 30
0.000000
  70
    32
  0
VERTEX
  8
SAPA_FOGBAND
  5
2BAD
 10
-22.5116
 20
-103.500
 30
0.000000
  70
    32
  0
VERTEX
  8
SAPA_FOGBAND
  5
2BAE
 10
-22.5099
 20
-103.606
 30
0.000000
  70
    32
  0
VERTEX
  8
SAPA_FOGBAND
  5
2BAF
 10
-22.5116
 20
-103.712
 30
0.000000
  70
    32
  0
VERTEX
  8
SAPA_FOGBAND
  5
2BB0
 10
-22.5167
 20
-103.818
 30
0.000000
  70
    32
  0
VERTEX
  8
SAPA_FOGBAND
  5
2BB1
 10
-22.5251
 20
-103.924
 30
0.000000
  70
    32
  0
VERTEX
  8
SAPA_FOGBAND
  5
2BB2
 10
-22.5368
 20
-104.029
 30
0.000000
  70
    32
  0
VERTEX
  8
SAPA_FOGBAND
  5
2BB3
 10
-22.5519
 20
-104.133
 30
0.000000
  70
    32
  0
VERTEX
  8
SAPA_FOGBAND
  5
2BB4
 10
-22.5702
 20
-104.235
 30
0.000000
  70
    32
  0
VERTEX
  8
SAPA_FOGBAND
  5
2BB5
 10
-22.5917
 20
-104.336
 30
0.000000
  70
    32
  0
VERTEX
  8
SAPA_FOGBAND
  5
2BB6
 10
-22.6165
 20
-104.436
 30
0.000000
  70
    32
  0
VERTEX
  8
SAPA_FOGBAND
  5
2BB7
 10
-22.6443
 20
-104.533
 30
0.000000
  70
    32
  0
VERTEX
  8
SAPA_FOGBAND
  5
2BB8
 10
-22.6752
 20
-104.628
 30
0.000000
  70
    32
  0
VERTEX
  8
SAPA_FOGBAND
  5
2BB9
 10
-22.7091
 20
-104.720
 30
0.000000
  70
    32
  0
VERTEX
  8
SAPA_FOGBAND
  5
2BBA
 10
-22.7459
 20
-104.810
 30
0.000000
  70
    32
  0
VERTEX
  8
SAPA_FOGBAND
  5
2BBB
 10
-22.7854
 20
-104.897
 30
0.000000
  70
    32
  0
VERTEX
  8
SAPA_FOGBAND
  5
2BBC
 10
-22.8277
 20
-104.981
 30
0.000000
  70
    32
  0
VERTEX
  8
SAPA_FOGBAND
  5
2BBD
 10
-22.8726
 20
-105.062
 30
0.000000
  70
    32
  0
VERTEX
  8
SAPA_FOGBAND
  5
2BBE
 10
-22.9200
 20
-105.139
 30
0.000000
  70
    32
  0
VERTEX
  8
SAPA_FOGBAND
  5
2BBF
 10
-22.9697
 20
-105.212
 30
0.000000
  70
    32
  0
VERTEX
  8
SAPA_FOGBAND
  5
2BC0
 10
-23.0218
 20
-105.282
 30
0.000000
  70
    32
  0
VERTEX
  8
SAPA_FOGBAND
  5
2BC1
 10
-23.0759
 20
-105.347
 30
0.000000
  70
    32
  0
VERTEX
  8
SAPA_FOGBAND
  5
2BC2
 10
-23.1321
 20
-105.408
 30
0.000000
  70
    32
  0
VERTEX
  8
SAPA_FOGBAND
  5
2BC3
 10
-23.1902
 20
-105.465
 30
0.000000
  70
    32
  0
VERTEX
  8
SAPA_FOGBAND
  5
2BC4
 10
-23.2500
 20
-105.518
 30
0.000000
  70
    32
  0
VERTEX
  8
SAPA_FOGBAND
  5
2BC5
 10
-23.3113
 20
-105.566
 30
0.000000
  70
    32
  0
VERTEX
  8
SAPA_FOGBAND
  5
2BC6
 10
-23.3742
 20
-105.609
 30
0.000000
  70
    32
  0
VERTEX
  8
SAPA_FOGBAND
  5
2BC7
 10
-23.4383
 20
-105.647
 30
0.000000
  70
    32
  0
VERTEX
  8
SAPA_FOGBAND
  5
2BC8
 10
-23.5035
 20
-105.680
 30
0.000000
  70
    32
  0
VERTEX
  8
SAPA_FOGBAND
  5
2BC9
 10
-23.5697
 20
-105.709
 30
0.000000
  70
    32
  0
VERTEX
  8
SAPA_FOGBAND
  5
2BCA
 10
-23.6368
 20
-105.732
 30
0.000000
  70
    32
  0
VERTEX
  8
SAPA_FOGBAND
  5
2BCB
 10
-23.7045
 20
-105.750
 30
0.000000
  70
    32
  0
VERTEX
  8
SAPA_FOGBAND
  5
2BCC
 10
-23.7727
 20
-105.763
 30
0.000000
  70
    32
  0
VERTEX
  8
SAPA_FOGBAND
  5
2BCD
 10
-23.8412
 20
-105.771
 30
0.000000
  70
    32
  0
VERTEX
  8
SAPA_FOGBAND
  5
2BCE
 10
-23.9099
 20
-105.774
 30
0.000000
  70
    32
  0
SEQEND
  8
SAPA_FOGBAND
  5
2BCF
  0
POLYLINE
  5
18DF
  8
SAPA_FOGBAND
 62
     2
 10
-22.175123040939528
 20
-115.29118830492544
 30
0.0
 66
     1
 70
     8
  0
VERTEX
  8
SAPA_FOGBAND
  5
2BD0
 10
-22.1751
 20
-115.291
 30
0.000000
  70
    32
  0
VERTEX
  8
SAPA_FOGBAND
  5
2BD1
 10
-22.2634
 20
-115.287
 30
0.000000
  70
    32
  0
VERTEX
  8
SAPA_FOGBAND
  5
2BD2
 10
-22.3516
 20
-115.276
 30
0.000000
  70
    32
  0
VERTEX
  8
SAPA_FOGBAND
  5
2BD3
 10
-22.4392
 20
-115.258
 30
0.000000
  70
    32
  0
VERTEX
  8
SAPA_FOGBAND
  5
2BD4
 10
-22.5263
 20
-115.232
 30
0.000000
  70
    32
  0
VERTEX
  8
SAPA_FOGBAND
  5
2BD5
 10
-22.6125
 20
-115.199
 30
0.000000
  70
    32
  0
VERTEX
  8
SAPA_FOGBAND
  5
2BD6
 10
-22.6976
 20
-115.158
 30
0.000000
  70
    32
  0
VERTEX
  8
SAPA_FOGBAND
  5
2BD7
 10
-22.7815
 20
-115.111
 30
0.000000
  70
    32
  0
VERTEX
  8
SAPA_FOGBAND
  5
2BD8
 10
-22.8640
 20
-115.056
 30
0.000000
  70
    32
  0
VERTEX
  8
SAPA_FOGBAND
  5
2BD9
 10
-22.9447
 20
-114.995
 30
0.000000
  70
    32
  0
VERTEX
  8
SAPA_FOGBAND
  5
2BDA
 10
-23.0236
 20
-114.927
 30
0.000000
  70
    32
  0
VERTEX
  8
SAPA_FOGBAND
  5
2BDB
 10
-23.1005
 20
-114.852
 30
0.000000
  70
    32
  0
VERTEX
  8
SAPA_FOGBAND
  5
2BDC
 10
-23.1751
 20
-114.771
 30
0.000000
  70
    32
  0
VERTEX
  8
SAPA_FOGBAND
  5
2BDD
 10
-23.2474
 20
-114.684
 30
0.000000
  70
    32
  0
VERTEX
  8
SAPA_FOGBAND
  5
2BDE
 10
-23.3170
 20
-114.591
 30
0.000000
  70
    32
  0
VERTEX
  8
SAPA_FOGBAND
  5
2BDF
 10
-23.3839
 20
-114.492
 30
0.000000
  70
    32
  0
VERTEX
  8
SAPA_FOGBAND
  5
2BE0
 10
-23.4479
 20
-114.388
 30
0.000000
  70
    32
  0
VERTEX
  8
SAPA_FOGBAND
  5
2BE1
 10
-23.5088
 20
-114.278
 30
0.000000
  70
    32
  0
VERTEX
  8
SAPA_FOGBAND
  5
2BE2
 10
-23.5665
 20
-114.163
 30
0.000000
  70
    32
  0
VERTEX
  8
SAPA_FOGBAND
  5
2BE3
 10
-23.6209
 20
-114.044
 30
0.000000
  70
    32
  0
VERTEX
  8
SAPA_FOGBAND
  5
2BE4
 10
-23.6718
 20
-113.920
 30
0.000000
  70
    32
  0
VERTEX
  8
SAPA_FOGBAND
  5
2BE5
 10
-23.7190
 20
-113.792
 30
0.000000
  70
    32
  0
VERTEX
  8
SAPA_FOGBAND
  5
2BE6
 10
-23.7626
 20
-113.660
 30
0.000000
  70
    32
  0
VERTEX
  8
SAPA_FOGBAND
  5
2BE7
 10
-23.8023
 20
-113.525
 30
0.000000
  70
    32
  0
VERTEX
  8
SAPA_FOGBAND
  5
2BE8
 10
-23.8381
 20
-113.387
 30
0.000000
  70
    32
  0
VERTEX
  8
SAPA_FOGBAND
  5
2BE9
 10
-23.8699
 20
-113.245
 30
0.000000
  70
    32
  0
VERTEX
  8
SAPA_FOGBAND
  5
2BEA
 10
-23.8976
 20
-113.102
 30
0.000000
  70
    32
  0
VERTEX
  8
SAPA_FOGBAND
  5
2BEB
 10
-23.9212
 20
-112.956
 30
0.000000
  70
    32
  0
VERTEX
  8
SAPA_FOGBAND
  5
2BEC
 10
-23.9405
 20
-112.808
 30
0.000000
  70
    32
  0
VERTEX
  8
SAPA_FOGBAND
  5
2BED
 10
-23.9556
 20
-112.659
 30
0.000000
  70
    32
  0
VERTEX
  8
SAPA_FOGBAND
  5
2BEE
 10
-23.9665
 20
-112.508
 30
0.000000
  70
    32
  0
VERTEX
  8
SAPA_FOGBAND
  5
2BEF
 10
-23.9730
 20
-112.357
 30
0.000000
  70
    32
  0
VERTEX
  8
SAPA_FOGBAND
  5
2BF0
 10
-23.9751
 20
-112.206
 30
0.000000
  70
    32
  0
VERTEX
  8
SAPA_FOGBAND
  5
2BF1
 10
-23.9730
 20
-112.055
 30
0.000000
  70
    32
  0
VERTEX
  8
SAPA_FOGBAND
  5
2BF2
 10
-23.9665
 20
-111.904
 30
0.000000
  70
    32
  0
VERTEX
  8
SAPA_FOGBAND
  5
2BF3
 10
-23.9556
 20
-111.753
 30
0.000000
  70
    32
  0
VERTEX
  8
SAPA_FOGBAND
  5
2BF4
 10
-23.9405
 20
-111.604
 30
0.000000
  70
    32
  0
VERTEX
  8
SAPA_FOGBAND
  5
2BF5
 10
-23.9212
 20
-111.456
 30
0.000000
  70
    32
  0
VERTEX
  8
SAPA_FOGBAND
  5
2BF6
 10
-23.8976
 20
-111.310
 30
0.000000
  70
    32
  0
VERTEX
  8
SAPA_FOGBAND
  5
2BF7
 10
-23.8699
 20
-111.167
 30
0.000000
  70
    32
  0
VERTEX
  8
SAPA_FOGBAND
  5
2BF8
 10
-23.8381
 20
-111.025
 30
0.000000
  70
    32
  0
VERTEX
  8
SAPA_FOGBAND
  5
2BF9
 10
-23.8023
 20
-110.887
 30
0.000000
  70
    32
  0
VERTEX
  8
SAPA_FOGBAND
  5
2BFA
 10
-23.7626
 20
-110.752
 30
0.000000
  70
    32
  0
VERTEX
  8
SAPA_FOGBAND
  5
2BFB
 10
-23.7190
 20
-110.620
 30
0.000000
  70
    32
  0
VERTEX
  8
SAPA_FOGBAND
  5
2BFC
 10
-23.6718
 20
-110.492
 30
0.000000
  70
    32
  0
VERTEX
  8
SAPA_FOGBAND
  5
2BFD
 10
-23.6209
 20
-110.368
 30
0.000000
  70
    32
  0
VERTEX
  8
SAPA_FOGBAND
  5
2BFE
 10
-23.5665
 20
-110.249
 30
0.000000
  70
    32
  0
VERTEX
  8
SAPA_FOGBAND
  5
2BFF
 10
-23.5088
 20
-110.134
 30
0.000000
  70
    32
  0
VERTEX
  8
SAPA_FOGBAND
  5
2C00
 10
-23.4479
 20
-110.024
 30
0.000000
  70
    32
  0
VERTEX
  8
SAPA_FOGBAND
  5
2C01
 10
-23.3839
 20
-109.920
 30
0.000000
  70
    32
  0
VERTEX
  8
SAPA_FOGBAND
  5
2C02
 10
-23.3170
 20
-109.821
 30
0.000000
  70
    32
  0
VERTEX
  8
SAPA_FOGBAND
  5
2C03
 10
-23.2474
 20
-109.728
 30
0.000000
  70
    32
  0
VERTEX
  8
SAPA_FOGBAND
  5
2C04
 10
-23.1751
 20
-109.641
 30
0.000000
  70
    32
  0
VERTEX
  8
SAPA_FOGBAND
  5
2C05
 10
-23.1005
 20
-109.560
 30
0.000000
  70
    32
  0
VERTEX
  8
SAPA_FOGBAND
  5
2C06
 10
-23.0236
 20
-109.485
 30
0.000000
  70
    32
  0
VERTEX
  8
SAPA_FOGBAND
  5
2C07
 10
-22.9447
 20
-109.417
 30
0.000000
  70
    32
  0
VERTEX
  8
SAPA_FOGBAND
  5
2C08
 10
-22.8640
 20
-109.356
 30
0.000000
  70
    32
  0
VERTEX
  8
SAPA_FOGBAND
  5
2C09
 10
-22.7815
 20
-109.301
 30
0.000000
  70
    32
  0
VERTEX
  8
SAPA_FOGBAND
  5
2C0A
 10
-22.6976
 20
-109.254
 30
0.000000
  70
    32
  0
VERTEX
  8
SAPA_FOGBAND
  5
2C0B
 10
-22.6125
 20
-109.213
 30
0.000000
  70
    32
  0
VERTEX
  8
SAPA_FOGBAND
  5
2C0C
 10
-22.5263
 20
-109.180
 30
0.000000
  70
    32
  0
VERTEX
  8
SAPA_FOGBAND
  5
2C0D
 10
-22.4392
 20
-109.154
 30
0.000000
  70
    32
  0
VERTEX
  8
SAPA_FOGBAND
  5
2C0E
 10
-22.3516
 20
-109.136
 30
0.000000
  70
    32
  0
VERTEX
  8
SAPA_FOGBAND
  5
2C0F
 10
-22.2634
 20
-109.124
 30
0.000000
  70
    32
  0
VERTEX
  8
SAPA_FOGBAND
  5
2C10
 10
-22.1751
 20
-109.121
 30
0.000000
  70
    32
  0
VERTEX
  8
SAPA_FOGBAND
  5
2C11
 10
-22.0868
 20
-109.124
 30
0.000000
  70
    32
  0
VERTEX
  8
SAPA_FOGBAND
  5
2C12
 10
-21.9987
 20
-109.136
 30
0.000000
  70
    32
  0
VERTEX
  8
SAPA_FOGBAND
  5
2C13
 10
-21.9110
 20
-109.154
 30
0.000000
  70
    32
  0
VERTEX
  8
SAPA_FOGBAND
  5
2C14
 10
-21.8240
 20
-109.180
 30
0.000000
  70
    32
  0
VERTEX
  8
SAPA_FOGBAND
  5
2C15
 10
-21.7378
 20
-109.213
 30
0.000000
  70
    32
  0
VERTEX
  8
SAPA_FOGBAND
  5
2C16
 10
-21.6526
 20
-109.254
 30
0.000000
  70
    32
  0
VERTEX
  8
SAPA_FOGBAND
  5
2C17
 10
-21.5687
 20
-109.301
 30
0.000000
  70
    32
  0
VERTEX
  8
SAPA_FOGBAND
  5
2C18
 10
-21.4863
 20
-109.356
 30
0.000000
  70
    32
  0
VERTEX
  8
SAPA_FOGBAND
  5
2C19
 10
-21.4055
 20
-109.417
 30
0.000000
  70
    32
  0
VERTEX
  8
SAPA_FOGBAND
  5
2C1A
 10
-21.3266
 20
-109.485
 30
0.000000
  70
    32
  0
VERTEX
  8
SAPA_FOGBAND
  5
2C1B
 10
-21.2497
 20
-109.560
 30
0.000000
  70
    32
  0
VERTEX
  8
SAPA_FOGBAND
  5
2C1C
 10
-21.1751
 20
-109.641
 30
0.000000
  70
    32
  0
VERTEX
  8
SAPA_FOGBAND
  5
2C1D
 10
-21.1029
 20
-109.728
 30
0.000000
  70
    32
  0
VERTEX
  8
SAPA_FOGBAND
  5
2C1E
 10
-21.0332
 20
-109.821
 30
0.000000
  70
    32
  0
VERTEX
  8
SAPA_FOGBAND
  5
2C1F
 10
-20.9663
 20
-109.920
 30
0.000000
  70
    32
  0
VERTEX
  8
SAPA_FOGBAND
  5
2C20
 10
-20.9023
 20
-110.024
 30
0.000000
  70
    32
  0
VERTEX
  8
SAPA_FOGBAND
  5
2C21
 10
-20.8414
 20
-110.134
 30
0.000000
  70
    32
  0
VERTEX
  8
SAPA_FOGBAND
  5
2C22
 10
-20.7837
 20
-110.249
 30
0.000000
  70
    32
  0
VERTEX
  8
SAPA_FOGBAND
  5
2C23
 10
-20.7293
 20
-110.368
 30
0.000000
  70
    32
  0
VERTEX
  8
SAPA_FOGBAND
  5
2C24
 10
-20.6785
 20
-110.492
 30
0.000000
  70
    32
  0
VERTEX
  8
SAPA_FOGBAND
  5
2C25
 10
-20.6312
 20
-110.620
 30
0.000000
  70
    32
  0
VERTEX
  8
SAPA_FOGBAND
  5
2C26
 10
-20.5877
 20
-110.752
 30
0.000000
  70
    32
  0
VERTEX
  8
SAPA_FOGBAND
  5
2C27
 10
-20.5479
 20
-110.887
 30
0.000000
  70
    32
  0
VERTEX
  8
SAPA_FOGBAND
  5
2C28
 10
-20.5121
 20
-111.025
 30
0.000000
  70
    32
  0
VERTEX
  8
SAPA_FOGBAND
  5
2C29
 10
-20.4803
 20
-111.167
 30
0.000000
  70
    32
  0
VERTEX
  8
SAPA_FOGBAND
  5
2C2A
 10
-20.4526
 20
-111.310
 30
0.000000
  70
    32
  0
VERTEX
  8
SAPA_FOGBAND
  5
2C2B
 10
-20.4291
 20
-111.456
 30
0.000000
  70
    32
  0
VERTEX
  8
SAPA_FOGBAND
  5
2C2C
 10
-20.4097
 20
-111.604
 30
0.000000
  70
    32
  0
VERTEX
  8
SAPA_FOGBAND
  5
2C2D
 10
-20.3946
 20
-111.753
 30
0.000000
  70
    32
  0
VERTEX
  8
SAPA_FOGBAND
  5
2C2E
 10
-20.3838
 20
-111.904
 30
0.000000
  70
    32
  0
VERTEX
  8
SAPA_FOGBAND
  5
2C2F
 10
-20.3773
 20
-112.055
 30
0.000000
  70
    32
  0
VERTEX
  8
SAPA_FOGBAND
  5
2C30
 10
-20.3751
 20
-112.206
 30
0.000000
  70
    32
  0
VERTEX
  8
SAPA_FOGBAND
  5
2C31
 10
-20.3773
 20
-112.357
 30
0.000000
  70
    32
  0
VERTEX
  8
SAPA_FOGBAND
  5
2C32
 10
-20.3838
 20
-112.508
 30
0.000000
  70
    32
  0
VERTEX
  8
SAPA_FOGBAND
  5
2C33
 10
-20.3946
 20
-112.659
 30
0.000000
  70
    32
  0
VERTEX
  8
SAPA_FOGBAND
  5
2C34
 10
-20.4097
 20
-112.808
 30
0.000000
  70
    32
  0
VERTEX
  8
SAPA_FOGBAND
  5
2C35
 10
-20.4291
 20
-112.956
 30
0.000000
  70
    32
  0
VERTEX
  8
SAPA_FOGBAND
  5
2C36
 10
-20.4526
 20
-113.102
 30
0.000000
  70
    32
  0
VERTEX
  8
SAPA_FOGBAND
  5
2C37
 10
-20.4803
 20
-113.245
 30
0.000000
  70
    32
  0
VERTEX
  8
SAPA_FOGBAND
  5
2C38
 10
-20.5121
 20
-113.387
 30
0.000000
  70
    32
  0
VERTEX
  8
SAPA_FOGBAND
  5
2C39
 10
-20.5479
 20
-113.525
 30
0.000000
  70
    32
  0
VERTEX
  8
SAPA_FOGBAND
  5
2C3A
 10
-20.5877
 20
-113.660
 30
0.000000
  70
    32
  0
VERTEX
  8
SAPA_FOGBAND
  5
2C3B
 10
-20.6312
 20
-113.792
 30
0.000000
  70
    32
  0
VERTEX
  8
SAPA_FOGBAND
  5
2C3C
 10
-20.6785
 20
-113.920
 30
0.000000
  70
    32
  0
VERTEX
  8
SAPA_FOGBAND
  5
2C3D
 10
-20.7293
 20
-114.044
 30
0.000000
  70
    32
  0
VERTEX
  8
SAPA_FOGBAND
  5
2C3E
 10
-20.7837
 20
-114.163
 30
0.000000
  70
    32
  0
VERTEX
  8
SAPA_FOGBAND
  5
2C3F
 10
-20.8414
 20
-114.278
 30
0.000000
  70
    32
  0
VERTEX
  8
SAPA_FOGBAND
  5
2C40
 10
-20.9023
 20
-114.388
 30
0.000000
  70
    32
  0
VERTEX
  8
SAPA_FOGBAND
  5
2C41
 10
-20.9663
 20
-114.492
 30
0.000000
  70
    32
  0
VERTEX
  8
SAPA_FOGBAND
  5
2C42
 10
-21.0332
 20
-114.591
 30
0.000000
  70
    32
  0
VERTEX
  8
SAPA_FOGBAND
  5
2C43
 10
-21.1029
 20
-114.684
 30
0.000000
  70
    32
  0
VERTEX
  8
SAPA_FOGBAND
  5
2C44
 10
-21.1751
 20
-114.771
 30
0.000000
  70
    32
  0
VERTEX
  8
SAPA_FOGBAND
  5
2C45
 10
-21.2497
 20
-114.852
 30
0.000000
  70
    32
  0
VERTEX
  8
SAPA_FOGBAND
  5
2C46
 10
-21.3266
 20
-114.927
 30
0.000000
  70
    32
  0
VERTEX
  8
SAPA_FOGBAND
  5
2C47
 10
-21.4055
 20
-114.995
 30
0.000000
  70
    32
  0
VERTEX
  8
SAPA_FOGBAND
  5
2C48
 10
-21.4863
 20
-115.056
 30
0.000000
  70
    32
  0
VERTEX
  8
SAPA_FOGBAND
  5
2C49
 10
-21.5687
 20
-115.111
 30
0.000000
  70
    32
  0
VERTEX
  8
SAPA_FOGBAND
  5
2C4A
 10
-21.6526
 20
-115.158
 30
0.000000
  70
    32
  0
VERTEX
  8
SAPA_FOGBAND
  5
2C4B
 10
-21.7378
 20
-115.199
 30
0.000000
  70
    32
  0
VERTEX
  8
SAPA_FOGBAND
  5
2C4C
 10
-21.8240
 20
-115.232
 30
0.000000
  70
    32
  0
VERTEX
  8
SAPA_FOGBAND
  5
2C4D
 10
-21.9110
 20
-115.258
 30
0.000000
  70
    32
  0
VERTEX
  8
SAPA_FOGBAND
  5
2C4E
 10
-21.9987
 20
-115.276
 30
0.000000
  70
    32
  0
VERTEX
  8
SAPA_FOGBAND
  5
2C4F
 10
-22.0868
 20
-115.287
 30
0.000000
  70
    32
  0
VERTEX
  8
SAPA_FOGBAND
  5
2C50
 10
-22.1751
 20
-115.291
 30
0.000000
  70
    32
  0
SEQEND
  8
SAPA_FOGBAND
  5
2C51
  0
POLYLINE
  5
18E0
  8
SAPA_FOGBAND
 62
     2
 66
     1
 10
0.0
 20
0.0
 30
0.0
 70
     1
  0
VERTEX
  5
2A25
  8
SAPA_FOGBAND
 62
     2
 10
-27.475123040939529
 20
-104.7622733468862
 30
0.0
  0
VERTEX
  5
2A26
  8
SAPA_FOGBAND
 62
     2
 10
-27.475123040939529
 20
-118.4427379961849
 30
0.0
 42
0.427966335106886
  0
VERTEX
  5
2A27
  8
SAPA_FOGBAND
 62
     2
 10
-27.161110469580269
 20
-118.7424105639049
 30
0.0
  0
VERTEX
  5
2A28
  8
SAPA_FOGBAND
 62
     2
 10
-18.96111046958028
 20
-118.2561106558253
 30
0.0
 42
0.4005932428724212
  0
VERTEX
  5
2A29
  8
SAPA_FOGBAND
 62
     2
 10
-18.675123040939528
 20
-117.9564380881053
 30
0.0
  0
VERTEX
  5
2A2A
  8
SAPA_FOGBAND
 62
     2
 10
-18.675123040939528
 20
-116.14273799618491
 30
0.0
  0
VERTEX
  5
2A2B
  8
SAPA_FOGBAND
 62
     2
 10
-16.97512304093954
 20
-116.14273799618491
 30
0.0
 42
0.4142135623730951
  0
VERTEX
  5
2A2C
  8
SAPA_FOGBAND
 62
     2
 10
-16.675123040939528
 20
-115.84273799618489
 30
0.0
  0
VERTEX
  5
2A2D
  8
SAPA_FOGBAND
 62
     2
 10
-16.675123040939528
 20
-108.423957232559
 30
0.0
 42
0.1379343940649207
  0
VERTEX
  5
2A2E
  8
SAPA_FOGBAND
 62
     2
 10
-16.821699655794319
 20
-107.9027389235106
 30
0.0
  0
VERTEX
  5
2A2F
  8
SAPA_FOGBAND
 62
     2
 10
-24.22891789370264
 20
-95.982128841660725
 30
0.0
 42
0.2613472755167645
  0
VERTEX
  5
2A30
  8
SAPA_FOGBAND
 62
     2
 10
-24.65562958627525
 20
-95.742737996184928
 30
0.0
  0
VERTEX
  5
2A31
  8
SAPA_FOGBAND
 62
     2
 10
-25.65032620343845
 20
-95.742737996184928
 30
0.0
 42
0.3915187749346393
  0
VERTEX
  5
2A32
  8
SAPA_FOGBAND
 62
     2
 10
-26.647277817443548
 20
-96.664715695958449
 30
0.0
  0
VERTEX
  5
2A33
  8
SAPA_FOGBAND
 62
     2
 10
-27.473598847942078
 20
-104.72326219677301
 30
0.0
 42
0.0195279011117891
  0
SEQEND
  5
2A34
  8
SAPA_FOGBAND
 62
     2
  0
POLYLINE
  5
18E1
  8
SAPA_FOGBAND
 66
     1
 10
0.0
 20
0.0
 30
0.0
 70
     1
  0
VERTEX
  5
2A35
  8
SAPA_FOGBAND
 10
-63.364139620038742
 20
-64.805446441378763
 30
0.0
 42
-0.1579553886371987
  0
VERTEX
  5
2A36
  8
SAPA_FOGBAND
 10
-63.511199126503101
 20
-68.069274485494816
 30
0.0
 42
-1.0
  0
VERTEX
  5
2A37
  8
SAPA_FOGBAND
 10
-66.882516849264221
 20
-66.80665149655556
 30
0.0
 42
-0.1276248526686838
  0
VERTEX
  5
2A38
  8
SAPA_FOGBAND
 10
-65.641204427578629
 20
-65.038998988077992
 30
0.0
  0
VERTEX
  5
2A39
  8
SAPA_FOGBAND
 10
-64.571815755006213
 20
-64.129652464509263
 30
0.0
 42
-0.5691506674918112
  0
VERTEX
  5
2A3A
  8
SAPA_FOGBAND
 10
-63.433124560369123
 20
-64.519888220227358
 30
0.0
 42
0.0156300267407041
  0
SEQEND
  5
2A3B
  8
SAPA_FOGBAND
  0
POLYLINE
  5
18E2
  8
SAPA_FOGBAND
 66
     1
 10
0.0
 20
0.0
 30
0.0
 70
     1
  0
VERTEX
  5
2A3C
  8
SAPA_FOGBAND
 10
-70.573627995651321
 20
-53.502595000825522
 30
0.0
 42
0.3888787318529789
  0
VERTEX
  5
2A3D
  8
SAPA_FOGBAND
 10
-69.586572171141341
 20
-54.788951195737127
 30
0.0
  0
VERTEX
  5
2A3E
  8
SAPA_FOGBAND
 10
-68.869070321554972
 20
-54.915466130527648
 30
0.0
 42
1.0
  0
VERTEX
  5
2A3F
  8
SAPA_FOGBAND
 10
-68.278185669747671
 20
-55.019655037128132
 30
0.0
  0
VERTEX
  5
2A40
  8
SAPA_FOGBAND
 10
-67.669070321554699
 20
-55.127058507377797
 30
0.0
 42
0.9999999999999067
  0
VERTEX
  5
2A41
  8
SAPA_FOGBAND
 10
-67.078185669747398
 20
-55.231247413977833
 30
0.0
  0
VERTEX
  5
2A42
  8
SAPA_FOGBAND
 10
-66.733459035078539
 20
-55.292032020639219
 30
0.0
 42
-0.3345953195020691
  0
VERTEX
  5
2A43
  8
SAPA_FOGBAND
 10
-64.681274740825046
 20
-57.492730245000303
 30
0.0
  0
VERTEX
  5
2A44
  8
SAPA_FOGBAND
 10
-64.32816696790789
 20
-61.506537650012199
 30
0.0
 42
-0.2564696513213821
  0
VERTEX
  5
2A45
  8
SAPA_FOGBAND
 10
-65.454099133849894
 20
-63.961031848719131
 30
0.0
  0
VERTEX
  5
2A46
  8
SAPA_FOGBAND
 10
-66.094664314068467
 20
-64.505731577349934
 30
0.0
 42
0.1276248526686853
  0
VERTEX
  5
2A47
  8
SAPA_FOGBAND
 10
-67.538050850912185
 20
-66.561141470928987
 30
0.0
 42
1.0
  0
VERTEX
  5
2A48
  8
SAPA_FOGBAND
 10
-62.855665124855221
 20
-68.314784511121843
 30
0.0
 42
0.1579553886371977
  0
VERTEX
  5
2A49
  8
SAPA_FOGBAND
 10
-62.689182664706749
 20
-64.619884838537246
 30
0.0
 42
-0.0604483959424258
  0
VERTEX
  5
2A4A
  8
SAPA_FOGBAND
 10
-62.790275199159822
 20
-61.229772777551943
 30
0.0
  0
VERTEX
  5
2A4B
  8
SAPA_FOGBAND
 10
-62.578194357941101
 20
-56.072206021184449
 30
0.0
 42
-0.3286126757704555
  0
VERTEX
  5
2A4C
  8
SAPA_FOGBAND
 10
-61.522638802385437
 20
-54.639561914714932
 30
0.0
 42
0.2704382184496639
  0
VERTEX
  5
2A4D
  8
SAPA_FOGBAND
 10
-60.608962527245438
 20
-53.52105338957859
 30
0.0
  0
VERTEX
  5
2A4E
  8
SAPA_FOGBAND
 10
-64.478194357941192
 20
-53.720917154706278
 30
0.0
  0
VERTEX
  5
2A4F
  8
SAPA_FOGBAND
 10
-64.478194357941192
 20
-52.520917154706467
 30
0.0
  0
VERTEX
  5
2A50
  8
SAPA_FOGBAND
 10
-64.532666120980565
 20
-51.45985274915688
 30
0.0
  0
VERTEX
  5
2A51
  8
SAPA_FOGBAND
 10
-63.982820212175483
 20
-51.460821759014607
 30
0.0
 42
0.6068148963145658
  0
VERTEX
  5
2A52
  8
SAPA_FOGBAND
 10
-63.867629642800438
 20
-50.941230678192142
 30
0.0
  0
VERTEX
  5
2A53
  8
SAPA_FOGBAND
 10
-65.683042452820899
 20
-49.56490499230199
 30
0.0
 42
0.4400105308918406
  0
VERTEX
  5
2A54
  8
SAPA_FOGBAND
 10
-67.207671744059297
 20
-49.765626246388592
 30
0.0
  0
VERTEX
  5
2A55
  8
SAPA_FOGBAND
 10
-68.730873125474972
 20
-51.782589170611352
 30
0.0
 42
0.5205670505516999
  0
VERTEX
  5
2A56
  8
SAPA_FOGBAND
 10
-68.562773225718928
 20
-52.244439849403307
 30
0.0
  0
VERTEX
  5
2A57
  8
SAPA_FOGBAND
 10
-67.817934114286317
 20
-52.271035480438279
 30
0.0
  0
VERTEX
  5
2A58
  8
SAPA_FOGBAND
 10
-68.017445057740332
 20
-53.560948289286671
 30
0.0
  0
SEQEND
  5
2A59
  8
SAPA_FOGBAND
  0
CIRCLE
  5
18E3
  8
SAPA_FOGBAND
 10
-63.997051921926612
 20
-55.116112603380088
 30
0.0
 40
0.3
  0
POLYLINE
  5
18E4
  8
SAPA_FOGBAND
 66
     1
 10
0.0
 20
0.0
 30
0.0
 70
     1
  0
VERTEX
  5
2A5A
  8
SAPA_FOGBAND
 10
-67.17819435794101
 20
-51.307464885984473
 30
0.0
  0
VERTEX
  5
2A5B
  8
SAPA_FOGBAND
 10
-67.17819435794101
 20
-53.220917154706278
 30
0.0
 42
0.4142135623730951
  0
VERTEX
  5
2A5C
  8
SAPA_FOGBAND
 10
-66.678194357940995
 20
-53.720917154706278
 30
0.0
  0
VERTEX
  5
2A5D
  8
SAPA_FOGBAND
 10
-65.878194357941283
 20
-53.720917154706278
 30
0.0
 42
0.4142135623730951
  0
VERTEX
  5
2A5E
  8
SAPA_FOGBAND
 10
-65.378194357941283
 20
-53.220917154706278
 30
0.0
  0
VERTEX
  5
2A5F
  8
SAPA_FOGBAND
 10
-65.378194357941283
 20
-51.144813342639956
 30
0.0
 42
0.2216946626429447
  0
VERTEX
  5
2A60
  8
SAPA_FOGBAND
 10
-65.59252179212919
 20
-50.685186676768119
 30
0.0
  0
VERTEX
  5
2A61
  8
SAPA_FOGBAND
 10
-66.02171641206607
 20
-50.325049629475643
 30
0.0
 42
0.4400105308918337
  0
VERTEX
  5
2A62
  8
SAPA_FOGBAND
 10
-66.6837979109998
 20
-50.412214312417063
 30
0.0
  0
VERTEX
  5
2A63
  8
SAPA_FOGBAND
 10
-67.069685584514644
 20
-50.96331902417365
 30
0.0
 42
0.153914721059829
  0
SEQEND
  5
2A64
  8
SAPA_FOGBAND
  0
POLYLINE
  5
18E5
  8
SAPA_FOGBAND
 66
     1
 10
0.0
 20
0.0
 30
0.0
 70
     1
  0
VERTEX
  5
2A65
  8
SAPA_FOGBAND
 10
-78.598715291458049
 20
-72.761691587341517
 30
0.0
  0
VERTEX
  5
2A66
  8
SAPA_FOGBAND
 10
-79.598715291458049
 20
-72.761691587341517
 30
0.0
 42
-0.9999999999999998
  0
VERTEX
  5
2A67
  8
SAPA_FOGBAND
 10
-79.598715291458049
 20
-71.557532129462288
 30
0.0
  0
VERTEX
  5
2A68
  8
SAPA_FOGBAND
 10
-78.598715291458049
 20
-71.557532129462288
 30
0.0
 42
-0.9999999999999998
  0
SEQEND
  5
2A69
  8
SAPA_FOGBAND
  0
POLYLINE
  5
18E6
  8
SAPA_FOGBAND
 66
     1
 10
0.0
 20
0.0
 30
0.0
 70
     1
  0
VERTEX
  5
2A6A
  8
SAPA_FOGBAND
 10
-79.522567588814368
 20
-70.192327582216663
 30
0.0
  0
VERTEX
  5
2A6B
  8
SAPA_FOGBAND
 10
-80.908332675759908
 20
-71.050386292526127
 30
0.0
 42
0.2528723899644565
  0
VERTEX
  5
2A6C
  8
SAPA_FOGBAND
 10
-80.998715291458041
 20
-71.217670568711355
 30
0.0
  0
VERTEX
  5
2A6D
  8
SAPA_FOGBAND
 10
-80.998715291458041
 20
-73.101553148092449
 30
0.0
 42
0.2528723899644564
  0
VERTEX
  5
2A6E
  8
SAPA_FOGBAND
 10
-80.908332675759908
 20
-73.268837424277663
 30
0.0
  0
VERTEX
  5
2A6F
  8
SAPA_FOGBAND
 10
-79.522567588814368
 20
-74.126896134587142
 30
0.0
 42
0.5108224790788402
  0
VERTEX
  5
2A70
  8
SAPA_FOGBAND
 10
-79.219765039254696
 20
-74.011375667422413
 30
0.0
  0
VERTEX
  5
2A71
  8
SAPA_FOGBAND
 10
-79.098715291458049
 20
-73.609611858401905
 30
0.0
  0
VERTEX
  5
2A72
  8
SAPA_FOGBAND
 10
-77.998715291458041
 20
-73.609611858401905
 30
0.0
  0
VERTEX
  5
2A73
  8
SAPA_FOGBAND
 10
-77.998715291458041
 20
-75.474346462260172
 30
0.0
 42
0.0874886635259237
  0
VERTEX
  5
2A74
  8
SAPA_FOGBAND
 10
-77.986653815615227
 20
-75.5427504909253
 30
0.0
  0
VERTEX
  5
2A75
  8
SAPA_FOGBAND
 10
-77.430840101178461
 20
-79.075494636965431
 30
0.0
 42
0.9391885369168745
  0
VERTEX
  5
2A76
  8
SAPA_FOGBAND
 10
-77.047883582505833
 20
-78.962728667233932
 30
0.0
  0
VERTEX
  5
2A77
  8
SAPA_FOGBAND
 10
-77.198715291458043
 20
-75.090534861996943
 30
0.0
  0
VERTEX
  5
2A78
  8
SAPA_FOGBAND
 10
-77.003999510883403
 20
-74.260359895148326
 30
0.0
 42
0.0576596372120268
  0
VERTEX
  5
2A79
  8
SAPA_FOGBAND
 10
-76.998715291458041
 20
-74.214689721126192
 30
0.0
  0
VERTEX
  5
2A7A
  8
SAPA_FOGBAND
 10
-76.998715291458041
 20
-69.809611858401894
 30
0.0
 42
0.4142135623730951
  0
VERTEX
  5
2A7B
  8
SAPA_FOGBAND
 10
-77.598715291458035
 20
-69.2096118584019
 30
0.0
  0
VERTEX
  5
2A7C
  8
SAPA_FOGBAND
 10
-77.798715291458052
 20
-69.2096118584019
 30
0.0
 42
0.4142135623730951
  0
VERTEX
  5
2A7D
  8
SAPA_FOGBAND
 10
-77.998715291458041
 20
-69.409611858401902
 30
0.0
  0
VERTEX
  5
2A7E
  8
SAPA_FOGBAND
 10
-77.998715291458041
 20
-70.709611858401885
 30
0.0
  0
VERTEX
  5
2A7F
  8
SAPA_FOGBAND
 10
-79.098715291458049
 20
-70.709611858401885
 30
0.0
  0
VERTEX
  5
2A80
  8
SAPA_FOGBAND
 10
-79.219765039254696
 20
-70.307848049381391
 30
0.0
 42
0.51082247907884
  0
SEQEND
  5
2A81
  8
SAPA_FOGBAND
  0
POLYLINE
  5
18E7
  8
SAPA_FOGBAND
 66
     1
 10
0.0
 20
0.0
 30
0.0000000195376815
 70
     1
  0
VERTEX
  5
2A82
  8
SAPA_FOGBAND
 10
10.5513651514435
 20
-50.887868548666901
 30
0.0000000195376815
  0
VERTEX
  5
2A83
  8
SAPA_FOGBAND
 10
10.5513651514435
 20
-50.787868548666907
 30
0.0000000195376815
 42
0.4142135623730959
  0
VERTEX
  5
2A84
  8
SAPA_FOGBAND
 10
9.8513651514435168
 20
-50.087868548666911
 30
0.0000000195376815
  0
VERTEX
  5
2A85
  8
SAPA_FOGBAND
 10
8.7513651514435224
 20
-50.087868548666897
 30
0.0000000195376815
 42
0.4142135623730961
  0
VERTEX
  5
2A86
  8
SAPA_FOGBAND
 10
8.5513651514435054
 20
-50.287868548666907
 30
0.0000000195376815
  0
VERTEX
  5
2A87
  8
SAPA_FOGBAND
 10
8.5513651514435054
 20
-51.387868548666901
 30
0.0000000195376815
 42
0.4142135623730956
  0
VERTEX
  5
2A88
  8
SAPA_FOGBAND
 10
8.7513651514435224
 20
-51.587868548666933
 30
0.0000000195376815
  0
VERTEX
  5
2A89
  8
SAPA_FOGBAND
 10
9.8513651514435168
 20
-51.58786854866689
 30
0.0000000195376815
 42
0.4142135623730946
  0
SEQEND
  5
2A8A
  8
SAPA_FOGBAND
  0
POLYLINE
  5
18E8
  8
SAPA_FOGBAND
 66
     1
 10
0.0
 20
0.0
 30
0.0000000195376815
 70
     1
  0
VERTEX
  5
2A8B
  8
SAPA_FOGBAND
 10
9.2513651514435224
 20
-52.387868548666908
 30
0.0000000195376815
  0
VERTEX
  5
2A8C
  8
SAPA_FOGBAND
 10
8.6035995861704322
 20
-52.387868548666908
 30
0.0000000195376815
 42
0.4416942457848324
  0
VERTEX
  5
2A8D
  8
SAPA_FOGBAND
 10
8.4044621066774852
 20
-52.606422908294817
 30
0.0000000195376815
  0
VERTEX
  5
2A8E
  8
SAPA_FOGBAND
 10
8.4941781719355323
 20
-53.569314189038998
 30
0.0000000195376815
 42
-0.4416942457847888
  0
VERTEX
  5
2A8F
  8
SAPA_FOGBAND
 10
8.2950406924426137
 20
-53.787868548666907
 30
0.0000000195376815
  0
VERTEX
  5
2A90
  8
SAPA_FOGBAND
 10
7.7450583528510473
 20
-53.787868548666907
 30
0.0000000195376815
 42
-0.5445962197109612
  0
VERTEX
  5
2A91
  8
SAPA_FOGBAND
 10
7.2893214437892064
 20
-53.08218950326183
 30
0.0000000195376815
  0
VERTEX
  5
2A92
  8
SAPA_FOGBAND
 10
7.4513651514435111
 20
-52.723138349976573
 30
0.0000000195376815
  0
VERTEX
  5
2A93
  8
SAPA_FOGBAND
 10
7.4513651514435129
 20
-51.250179111228668
 30
0.0000000195376815
 42
-0.3364379234965429
  0
VERTEX
  5
2A94
  8
SAPA_FOGBAND
 10
7.6388719692852609
 20
-50.178435381613831
 30
0.0000000195376815
  0
VERTEX
  5
2A95
  8
SAPA_FOGBAND
 10
7.6388719692852609
 20
-49.616571745790132
 30
0.0000000195376815
 42
0.1919812372740509
  0
VERTEX
  5
2A96
  8
SAPA_FOGBAND
 10
7.5017395912679907
 20
-49.27258469819008
 30
0.0000000195376815
  0
VERTEX
  5
2A97
  8
SAPA_FOGBAND
 10
7.1302621149779082
 20
-48.88071776778682
 30
0.0000000195376815
 42
0.7712067734688043
  0
VERTEX
  5
2A98
  8
SAPA_FOGBAND
 10
4.320628119297246
 20
-51.453149467660943
 30
0.0000000195376815
 42
0.152544453744271
  0
VERTEX
  5
2A99
  8
SAPA_FOGBAND
 10
5.212503388051025
 20
-52.322575217501097
 30
0.0000000195376815
 42
-0.6229515670381967
  0
VERTEX
  5
2A9A
  8
SAPA_FOGBAND
 10
5.112621104228495
 20
-52.797515402276851
 30
0.0000000195376815
 42
-0.2412896305485237
  0
VERTEX
  5
2A9B
  8
SAPA_FOGBAND
 10
4.7091562898863621
 20
-52.760764130978728
 30
0.0000000195376815
 42
-0.0924947384438033
  0
VERTEX
  5
2A9C
  8
SAPA_FOGBAND
 10
4.018655877844945
 20
-52.138771222248451
 30
0.0000000195376815
 42
-0.8622191196043894
  0
VERTEX
  5
2A9D
  8
SAPA_FOGBAND
 10
7.5945676298207863
 20
-48.314900068507157
 30
0.0000000195376815
  0
VERTEX
  5
2A9E
  8
SAPA_FOGBAND
 10
7.7099356031099111
 20
-47.884340930625903
 30
0.0000000195376815
 42
-0.9163311740173991
  0
VERTEX
  5
2A9F
  8
SAPA_FOGBAND
 10
8.4947838128622521
 20
-48.022730845765999
 30
0.0000000195376815
  0
VERTEX
  5
2AA0
  8
SAPA_FOGBAND
 10
8.4031213666547018
 20
-49.07043740011737
 30
0.0000000195376815
 42
0.4400105308918151
  0
VERTEX
  5
2AA1
  8
SAPA_FOGBAND
 10
8.6023603062730416
 20
-49.287868548666907
 30
0.0000000195376815
  0
VERTEX
  5
2AA2
  8
SAPA_FOGBAND
 10
9.4513651514435111
 20
-49.2878685486669
 30
0.0000000195376815
  0
VERTEX
  5
2AA3
  8
SAPA_FOGBAND
 10
9.4513651514435111
 20
-48.887868548666901
 30
0.0000000195376815
 42
-0.5693809839207585
  0
VERTEX
  5
2AA4
  8
SAPA_FOGBAND
 10
9.7471815231461534
 20
-48.712314503103372
 30
0.0000000195376815
  0
VERTEX
  5
2AA5
  8
SAPA_FOGBAND
 10
11.03881426655145
 20
-49.417280103002398
 30
0.0000000195376815
 42
-0.2743878130875472
  0
VERTEX
  5
2AA6
  8
SAPA_FOGBAND
 10
11.351365151443529
 20
-49.943942239693129
 30
0.0000000195376815
  0
VERTEX
  5
2AA7
  8
SAPA_FOGBAND
 10
11.35136515144351
 20
-51.731794857640679
 30
0.0000000195376815
 42
-0.2743878130875473
  0
VERTEX
  5
2AA8
  8
SAPA_FOGBAND
 10
11.038814266551441
 20
-52.258456994331397
 30
0.0000000195376815
  0
VERTEX
  5
2AA9
  8
SAPA_FOGBAND
 10
9.7471815231461818
 20
-52.963422594230487
 30
0.0000000195376815
 42
-0.5693809839208271
  0
VERTEX
  5
2AAA
  8
SAPA_FOGBAND
 10
9.4513651514434791
 20
-52.787868548666907
 30
0.0000000195376815
  0
VERTEX
  5
2AAB
  8
SAPA_FOGBAND
 10
9.4513651514435111
 20
-52.387868548666901
 30
0.0000000195376815
  0
VERTEX
  5
2AAC
  8
SAPA_FOGBAND
 10
8.6023603062730416
 20
-52.387868548666908
 30
0.0000000195376815
  0
SEQEND
  5
2AAD
  8
SAPA_FOGBAND
  0
CIRCLE
  5
18E9
  8
SAPA_FOGBAND
 10
-84.641571726353391
 20
18.67935679560037
 30
0.0
 40
0.2549509756796394
  0
INSERT
  5
18EA
  8
SAPA_FOGBAND
  6
CONTINUOUS
  2
*U189
 10
0.0
 20
0.0
 30
0.0
1001
ACAD
1002
{
1000
R14_HATCH_DATA
1000
18EA
1011
1.0
1021
0.0
1031
0.0
1021
0.0
1031
0.0
1011
0.0
1021
0.0
1031
0.0
1021
1.0
1031
0.0
1011
0.0
1021
0.0
1031
0.0
1021
0.0
1031
1.0
1040
0.0
1010
0.0
1020
0.0
1030
1.0
1000
SOLID
1070
     1
1070
     1
1071
        1
1071
        1
1071
        1
1070
     2
1040
-84.641571726353391
1040
18.67935679560037
1040
0.2549509756796394
1040
-1.5707963267948959
1040
4.7123889803846888
1070
     1
1071
        1
1005
18E9
1070
     0
1070
     1
1071
        1
1040
-84.559720229024478
1040
18.916095697170469
1040
0.0
1002
}
  0
POLYLINE
  5
18EB
  8
SAPA_FOGBAND
 66
     1
 10
0.0
 20
0.0
 30
0.0
 70
     1
  0
VERTEX
  5
2ABF
  8
SAPA_FOGBAND
 10
-87.604003505597916
 20
17.779356795600389
 30
0.0
 42
0.9999999999999998
  0
VERTEX
  5
2AC0
  8
SAPA_FOGBAND
 10
-87.604003505597916
 20
19.579356795600351
 30
0.0
  0
VERTEX
  5
2AC1
  8
SAPA_FOGBAND
 10
-88.204003505597925
 20
19.579356795600351
 30
0.0
 42
0.9999999999999998
  0
VERTEX
  5
2AC2
  8
SAPA_FOGBAND
 10
-88.204003505597925
 20
17.779356795600389
 30
0.0
  0
SEQEND
  5
2AC3
  8
SAPA_FOGBAND
  0
POLYLINE
  5
18EC
  8
SAPA_FOGBAND
 66
     1
 10
0.0
 20
0.0
 30
0.0
 70
     1
  0
VERTEX
  5
2AC4
  8
SAPA_FOGBAND
 10
-82.504003505597893
 20
27.307233103773569
 30
0.0
 42
0.0775891054856093
  0
VERTEX
  5
2AC5
  8
SAPA_FOGBAND
 10
-82.820639489659257
 20
23.840451373351009
 30
0.0
  0
VERTEX
  5
2AC6
  8
SAPA_FOGBAND
 10
-82.604003505597859
 20
23.60256188052222
 30
0.0
 42
-0.5773502691896298
  0
VERTEX
  5
2AC7
  8
SAPA_FOGBAND
 10
-82.604003505597859
 20
23.256151719008361
 30
0.0
  0
VERTEX
  5
2AC8
  8
SAPA_FOGBAND
 10
-82.820913359820906
 20
23.018104102277562
 30
0.0
  0
VERTEX
  5
2AC9
  8
SAPA_FOGBAND
 10
-82.820913359820906
 20
22.240609492360932
 30
0.0
  0
VERTEX
  5
2ACA
  8
SAPA_FOGBAND
 10
-82.604003505597859
 20
22.002561880522201
 30
0.0
 42
-0.577350269189699
  0
VERTEX
  5
2ACB
  8
SAPA_FOGBAND
 10
-82.604003505597859
 20
21.656151719008449
 30
0.0
  0
VERTEX
  5
2ACC
  8
SAPA_FOGBAND
 10
-82.820913359820906
 20
21.418104102277649
 30
0.0
  0
VERTEX
  5
2ACD
  8
SAPA_FOGBAND
 10
-82.820913359820906
 20
20.640609492360909
 30
0.0
  0
VERTEX
  5
2ACE
  8
SAPA_FOGBAND
 10
-82.604003505597859
 20
20.402561880522171
 30
0.0
 42
-0.577350269189699
  0
VERTEX
  5
2ACF
  8
SAPA_FOGBAND
 10
-82.604003505597859
 20
20.05615171900843
 30
0.0
  0
VERTEX
  5
2AD0
  8
SAPA_FOGBAND
 10
-82.820913359820906
 20
19.81810410227763
 30
0.0
  0
VERTEX
  5
2AD1
  8
SAPA_FOGBAND
 10
-82.820913359820906
 20
19.040609492360879
 30
0.0
  0
VERTEX
  5
2AD2
  8
SAPA_FOGBAND
 10
-82.604003505597859
 20
18.802561880522259
 30
0.0
 42
-0.5773502691896298
  0
VERTEX
  5
2AD3
  8
SAPA_FOGBAND
 10
-82.604003505597859
 20
18.4561517190084
 30
0.0
  0
VERTEX
  5
2AD4
  8
SAPA_FOGBAND
 10
-82.820913359820906
 20
18.218104102277611
 30
0.0
  0
VERTEX
  5
2AD5
  8
SAPA_FOGBAND
 10
-82.820913359820906
 20
17.44060949236086
 30
0.0
  0
VERTEX
  5
2AD6
  8
SAPA_FOGBAND
 10
-82.604003505597859
 20
17.202561880522239
 30
0.0
 42
-0.5773502691896298
  0
VERTEX
  5
2AD7
  8
SAPA_FOGBAND
 10
-82.604003505597859
 20
16.85615171900838
 30
0.0
  0
VERTEX
  5
2AD8
  8
SAPA_FOGBAND
 10
-82.820913359820906
 20
16.618104102277581
 30
0.0
  0
VERTEX
  5
2AD9
  8
SAPA_FOGBAND
 10
-82.820913359820906
 20
15.84060948819592
 30
0.0
  0
VERTEX
  5
2ADA
  8
SAPA_FOGBAND
 10
-82.604003505597859
 20
15.60256187635718
 30
0.0
 42
-0.577350269189699
  0
VERTEX
  5
2ADB
  8
SAPA_FOGBAND
 10
-82.604003505597859
 20
15.25615171484344
 30
0.0
  0
VERTEX
  5
2ADC
  8
SAPA_FOGBAND
 10
-83.677333574082354
 20
14.456151715288341
 30
0.0
 42
-0.1316524987190269
  0
VERTEX
  5
2ADD
  8
SAPA_FOGBAND
 10
-83.77733357485306
 20
14.42935679560037
 30
0.0
  0
VERTEX
  5
2ADE
  8
SAPA_FOGBAND
 10
-86.304003505597848
 20
14.429356795600251
 30
0.0
 42
-0.4142135623730951
  0
VERTEX
  5
2ADF
  8
SAPA_FOGBAND
 10
-86.504003505597893
 20
14.6293567956003
 30
0.0
  0
VERTEX
  5
2AE0
  8
SAPA_FOGBAND
 10
-86.504003505597893
 20
16.67935679560037
 30
0.0
 42
0.4142135623730951
  0
VERTEX
  5
2AE1
  8
SAPA_FOGBAND
 10
-87.004003505597893
 20
17.17935679560037
 30
0.0
  0
VERTEX
  5
2AE2
  8
SAPA_FOGBAND
 10
-87.730798424841055
 20
17.17935679560037
 30
0.0
  0
VERTEX
  5
2AE3
  8
SAPA_FOGBAND
 10
-87.798258334151456
 20
16.927592986579839
 30
0.0
 42
-0.4740571810232869
  0
VERTEX
  5
2AE4
  8
SAPA_FOGBAND
 10
-88.08054091979011
 20
16.800299124216281
 30
0.0
  0
VERTEX
  5
2AE5
  8
SAPA_FOGBAND
 10
-89.52674705654988
 20
17.42039962697481
 30
0.0
 42
-0.2846003776495916
  0
VERTEX
  5
2AE6
  8
SAPA_FOGBAND
 10
-89.804003505597848
 20
17.868043805435029
 30
0.0
  0
VERTEX
  5
2AE7
  8
SAPA_FOGBAND
 10
-89.804003505597848
 20
19.49066978576559
 30
0.0
 42
-0.2846003776495917
  0
VERTEX
  5
2AE8
  8
SAPA_FOGBAND
 10
-89.52674705654988
 20
19.938313964225809
 30
0.0
  0
VERTEX
  5
2AE9
  8
SAPA_FOGBAND
 10
-88.08054091979011
 20
20.558414466984349
 30
0.0
 42
-0.4740571810232869
  0
VERTEX
  5
2AEA
  8
SAPA_FOGBAND
 10
-87.798258334151456
 20
20.431120604620791
 30
0.0
  0
VERTEX
  5
2AEB
  8
SAPA_FOGBAND
 10
-87.730798424841055
 20
20.17935679560037
 30
0.0
  0
VERTEX
  5
2AEC
  8
SAPA_FOGBAND
 10
-87.004003505597893
 20
20.17935679560037
 30
0.0
 42
0.4142135623730951
  0
VERTEX
  5
2AED
  8
SAPA_FOGBAND
 10
-86.504003505597893
 20
20.67935679560037
 30
0.0
  0
VERTEX
  5
2AEE
  8
SAPA_FOGBAND
 10
-86.504003505597893
 20
23.729356795600332
 30
0.0
 42
0.4142135623730951
  0
VERTEX
  5
2AEF
  8
SAPA_FOGBAND
 10
-86.704003505597925
 20
23.92935679560037
 30
0.0
  0
VERTEX
  5
2AF0
  8
SAPA_FOGBAND
 10
-87.604003505597916
 20
23.92935679560026
 30
0.0
 42
-0.4142135623731784
  0
VERTEX
  5
2AF1
  8
SAPA_FOGBAND
 10
-87.804003505597848
 20
24.129356795600302
 30
0.0
  0
VERTEX
  5
2AF2
  8
SAPA_FOGBAND
 10
-87.804003505597962
 20
24.829356795600351
 30
0.0
 42
-0.4142135623730398
  0
VERTEX
  5
2AF3
  8
SAPA_FOGBAND
 10
-87.504003505597893
 20
25.129356795600302
 30
0.0
  0
VERTEX
  5
2AF4
  8
SAPA_FOGBAND
 10
-86.693491728946356
 20
25.129356795600302
 30
0.0
 42
0.1316524975873973
  0
VERTEX
  5
2AF5
  8
SAPA_FOGBAND
 10
-85.693491728946356
 20
25.397305988031459
 30
0.0
  0
VERTEX
  5
2AF6
  8
SAPA_FOGBAND
 10
-83.103923736854426
 20
30.560151138071891
 30
0.0
 42
-0.7057658529986604
  0
VERTEX
  5
2AF7
  8
SAPA_FOGBAND
 10
-82.504003505597893
 20
30.292557962713548
 30
0.0
  0
SEQEND
  5
2AF8
  8
SAPA_FOGBAND
  0
POLYLINE
  5
18ED
  8
SAPA_FOGBAND
 10
-71.63572858705264
 20
15.203568545938394
 30
0.0
 66
     1
 70
     8
  0
VERTEX
  8
SAPA_FOGBAND
  5
2C52
 10
-71.6357
 20
15.2036
 30
0.000000
  70
    32
  0
VERTEX
  8
SAPA_FOGBAND
  5
2C53
 10
-71.7298
 20
15.2081
 30
0.000000
  70
    32
  0
VERTEX
  8
SAPA_FOGBAND
  5
2C54
 10
-71.8236
 20
15.2215
 30
0.000000
  70
    32
  0
VERTEX
  8
SAPA_FOGBAND
  5
2C55
 10
-71.9170
 20
15.2440
 30
0.000000
  70
    32
  0
VERTEX
  8
SAPA_FOGBAND
  5
2C56
 10
-72.0097
 20
15.2753
 30
0.000000
  70
    32
  0
VERTEX
  8
SAPA_FOGBAND
  5
2C57
 10
-72.1014
 20
15.3154
 30
0.000000
  70
    32
  0
VERTEX
  8
SAPA_FOGBAND
  5
2C58
 10
-72.1921
 20
15.3642
 30
0.000000
  70
    32
  0
VERTEX
  8
SAPA_FOGBAND
  5
2C59
 10
-72.2814
 20
15.4217
 30
0.000000
  70
    32
  0
VERTEX
  8
SAPA_FOGBAND
  5
2C5A
 10
-72.3692
 20
15.4876
 30
0.000000
  70
    32
  0
VERTEX
  8
SAPA_FOGBAND
  5
2C5B
 10
-72.4552
 20
15.5618
 30
0.000000
  70
    32
  0
VERTEX
  8
SAPA_FOGBAND
  5
2C5C
 10
-72.5392
 20
15.6442
 30
0.000000
  70
    32
  0
VERTEX
  8
SAPA_FOGBAND
  5
2C5D
 10
-72.6211
 20
15.7344
 30
0.000000
  70
    32
  0
VERTEX
  8
SAPA_FOGBAND
  5
2C5E
 10
-72.7006
 20
15.8324
 30
0.000000
  70
    32
  0
VERTEX
  8
SAPA_FOGBAND
  5
2C5F
 10
-72.7775
 20
15.9379
 30
0.000000
  70
    32
  0
VERTEX
  8
SAPA_FOGBAND
  5
2C60
 10
-72.8517
 20
16.0505
 30
0.000000
  70
    32
  0
VERTEX
  8
SAPA_FOGBAND
  5
2C61
 10
-72.9229
 20
16.1702
 30
0.000000
  70
    32
  0
VERTEX
  8
SAPA_FOGBAND
  5
2C62
 10
-72.9910
 20
16.2964
 30
0.000000
  70
    32
  0
VERTEX
  8
SAPA_FOGBAND
  5
2C63
 10
-73.0559
 20
16.4291
 30
0.000000
  70
    32
  0
VERTEX
  8
SAPA_FOGBAND
  5
2C64
 10
-73.1173
 20
16.5678
 30
0.000000
  70
    32
  0
VERTEX
  8
SAPA_FOGBAND
  5
2C65
 10
-73.1752
 20
16.7121
 30
0.000000
  70
    32
  0
VERTEX
  8
SAPA_FOGBAND
  5
2C66
 10
-73.2294
 20
16.8619
 30
0.000000
  70
    32
  0
VERTEX
  8
SAPA_FOGBAND
  5
2C67
 10
-73.2797
 20
17.0166
 30
0.000000
  70
    32
  0
VERTEX
  8
SAPA_FOGBAND
  5
2C68
 10
-73.3261
 20
17.1760
 30
0.000000
  70
    32
  0
VERTEX
  8
SAPA_FOGBAND
  5
2C69
 10
-73.3684
 20
17.3395
 30
0.000000
  70
    32
  0
VERTEX
  8
SAPA_FOGBAND
  5
2C6A
 10
-73.4065
 20
17.5070
 30
0.000000
  70
    32
  0
VERTEX
  8
SAPA_FOGBAND
  5
2C6B
 10
-73.4404
 20
17.6778
 30
0.000000
  70
    32
  0
VERTEX
  8
SAPA_FOGBAND
  5
2C6C
 10
-73.4699
 20
17.8517
 30
0.000000
  70
    32
  0
VERTEX
  8
SAPA_FOGBAND
  5
2C6D
 10
-73.4950
 20
18.0282
 30
0.000000
  70
    32
  0
VERTEX
  8
SAPA_FOGBAND
  5
2C6E
 10
-73.5156
 20
18.2069
 30
0.000000
  70
    32
  0
VERTEX
  8
SAPA_FOGBAND
  5
2C6F
 10
-73.5317
 20
18.3874
 30
0.000000
  70
    32
  0
VERTEX
  8
SAPA_FOGBAND
  5
2C70
 10
-73.5432
 20
18.5692
 30
0.000000
  70
    32
  0
VERTEX
  8
SAPA_FOGBAND
  5
2C71
 10
-73.5501
 20
18.7518
 30
0.000000
  70
    32
  0
VERTEX
  8
SAPA_FOGBAND
  5
2C72
 10
-73.5524
 20
18.9349
 30
0.000000
  70
    32
  0
VERTEX
  8
SAPA_FOGBAND
  5
2C73
 10
-73.5501
 20
19.1180
 30
0.000000
  70
    32
  0
VERTEX
  8
SAPA_FOGBAND
  5
2C74
 10
-73.5432
 20
19.3006
 30
0.000000
  70
    32
  0
VERTEX
  8
SAPA_FOGBAND
  5
2C75
 10
-73.5317
 20
19.4824
 30
0.000000
  70
    32
  0
VERTEX
  8
SAPA_FOGBAND
  5
2C76
 10
-73.5156
 20
19.6628
 30
0.000000
  70
    32
  0
VERTEX
  8
SAPA_FOGBAND
  5
2C77
 10
-73.4950
 20
19.8415
 30
0.000000
  70
    32
  0
VERTEX
  8
SAPA_FOGBAND
  5
2C78
 10
-73.4699
 20
20.0180
 30
0.000000
  70
    32
  0
VERTEX
  8
SAPA_FOGBAND
  5
2C79
 10
-73.4404
 20
20.1919
 30
0.000000
  70
    32
  0
VERTEX
  8
SAPA_FOGBAND
  5
2C7A
 10
-73.4065
 20
20.3628
 30
0.000000
  70
    32
  0
VERTEX
  8
SAPA_FOGBAND
  5
2C7B
 10
-73.3684
 20
20.5302
 30
0.000000
  70
    32
  0
VERTEX
  8
SAPA_FOGBAND
  5
2C7C
 10
-73.3261
 20
20.6938
 30
0.000000
  70
    32
  0
VERTEX
  8
SAPA_FOGBAND
  5
2C7D
 10
-73.2797
 20
20.8532
 30
0.000000
  70
    32
  0
VERTEX
  8
SAPA_FOGBAND
  5
2C7E
 10
-73.2294
 20
21.0079
 30
0.000000
  70
    32
  0
VERTEX
  8
SAPA_FOGBAND
  5
2C7F
 10
-73.1752
 20
21.1576
 30
0.000000
  70
    32
  0
VERTEX
  8
SAPA_FOGBAND
  5
2C80
 10
-73.1173
 20
21.3020
 30
0.000000
  70
    32
  0
VERTEX
  8
SAPA_FOGBAND
  5
2C81
 10
-73.0559
 20
21.4407
 30
0.000000
  70
    32
  0
VERTEX
  8
SAPA_FOGBAND
  5
2C82
 10
-72.9910
 20
21.5733
 30
0.000000
  70
    32
  0
VERTEX
  8
SAPA_FOGBAND
  5
2C83
 10
-72.9229
 20
21.6996
 30
0.000000
  70
    32
  0
VERTEX
  8
SAPA_FOGBAND
  5
2C84
 10
-72.8517
 20
21.8192
 30
0.000000
  70
    32
  0
VERTEX
  8
SAPA_FOGBAND
  5
2C85
 10
-72.7775
 20
21.9319
 30
0.000000
  70
    32
  0
VERTEX
  8
SAPA_FOGBAND
  5
2C86
 10
-72.7006
 20
22.0374
 30
0.000000
  70
    32
  0
VERTEX
  8
SAPA_FOGBAND
  5
2C87
 10
-72.6211
 20
22.1353
 30
0.000000
  70
    32
  0
VERTEX
  8
SAPA_FOGBAND
  5
2C88
 10
-72.5392
 20
22.2256
 30
0.000000
  70
    32
  0
VERTEX
  8
SAPA_FOGBAND
  5
2C89
 10
-72.4552
 20
22.3080
 30
0.000000
  70
    32
  0
VERTEX
  8
SAPA_FOGBAND
  5
2C8A
 10
-72.3692
 20
22.3822
 30
0.000000
  70
    32
  0
VERTEX
  8
SAPA_FOGBAND
  5
2C8B
 10
-72.2814
 20
22.4481
 30
0.000000
  70
    32
  0
VERTEX
  8
SAPA_FOGBAND
  5
2C8C
 10
-72.1921
 20
22.5055
 30
0.000000
  70
    32
  0
VERTEX
  8
SAPA_FOGBAND
  5
2C8D
 10
-72.1014
 20
22.5544
 30
0.000000
  70
    32
  0
VERTEX
  8
SAPA_FOGBAND
  5
2C8E
 10
-72.0097
 20
22.5945
 30
0.000000
  70
    32
  0
VERTEX
  8
SAPA_FOGBAND
  5
2C8F
 10
-71.9170
 20
22.6258
 30
0.000000
  70
    32
  0
VERTEX
  8
SAPA_FOGBAND
  5
2C90
 10
-71.8236
 20
22.6482
 30
0.000000
  70
    32
  0
VERTEX
  8
SAPA_FOGBAND
  5
2C91
 10
-71.7298
 20
22.6617
 30
0.000000
  70
    32
  0
VERTEX
  8
SAPA_FOGBAND
  5
2C92
 10
-71.6357
 20
22.6662
 30
0.000000
  70
    32
  0
VERTEX
  8
SAPA_FOGBAND
  5
2C93
 10
-71.5417
 20
22.6617
 30
0.000000
  70
    32
  0
VERTEX
  8
SAPA_FOGBAND
  5
2C94
 10
-71.4479
 20
22.6482
 30
0.000000
  70
    32
  0
VERTEX
  8
SAPA_FOGBAND
  5
2C95
 10
-71.3545
 20
22.6258
 30
0.000000
  70
    32
  0
VERTEX
  8
SAPA_FOGBAND
  5
2C96
 10
-71.2618
 20
22.5945
 30
0.000000
  70
    32
  0
VERTEX
  8
SAPA_FOGBAND
  5
2C97
 10
-71.1700
 20
22.5544
 30
0.000000
  70
    32
  0
VERTEX
  8
SAPA_FOGBAND
  5
2C98
 10
-71.0793
 20
22.5055
 30
0.000000
  70
    32
  0
VERTEX
  8
SAPA_FOGBAND
  5
2C99
 10
-70.9900
 20
22.4481
 30
0.000000
  70
    32
  0
VERTEX
  8
SAPA_FOGBAND
  5
2C9A
 10
-70.9022
 20
22.3822
 30
0.000000
  70
    32
  0
VERTEX
  8
SAPA_FOGBAND
  5
2C9B
 10
-70.8162
 20
22.3080
 30
0.000000
  70
    32
  0
VERTEX
  8
SAPA_FOGBAND
  5
2C9C
 10
-70.7322
 20
22.2256
 30
0.000000
  70
    32
  0
VERTEX
  8
SAPA_FOGBAND
  5
2C9D
 10
-70.6504
 20
22.1353
 30
0.000000
  70
    32
  0
VERTEX
  8
SAPA_FOGBAND
  5
2C9E
 10
-70.5709
 20
22.0374
 30
0.000000
  70
    32
  0
VERTEX
  8
SAPA_FOGBAND
  5
2C9F
 10
-70.4940
 20
21.9319
 30
0.000000
  70
    32
  0
VERTEX
  8
SAPA_FOGBAND
  5
2CA0
 10
-70.4198
 20
21.8192
 30
0.000000
  70
    32
  0
VERTEX
  8
SAPA_FOGBAND
  5
2CA1
 10
-70.3486
 20
21.6996
 30
0.000000
  70
    32
  0
VERTEX
  8
SAPA_FOGBAND
  5
2CA2
 10
-70.2804
 20
21.5733
 30
0.000000
  70
    32
  0
VERTEX
  8
SAPA_FOGBAND
  5
2CA3
 10
-70.2156
 20
21.4407
 30
0.000000
  70
    32
  0
VERTEX
  8
SAPA_FOGBAND
  5
2CA4
 10
-70.1541
 20
21.3020
 30
0.000000
  70
    32
  0
VERTEX
  8
SAPA_FOGBAND
  5
2CA5
 10
-70.0962
 20
21.1576
 30
0.000000
  70
    32
  0
VERTEX
  8
SAPA_FOGBAND
  5
2CA6
 10
-70.0421
 20
21.0079
 30
0.000000
  70
    32
  0
VERTEX
  8
SAPA_FOGBAND
  5
2CA7
 10
-69.9917
 20
20.8532
 30
0.000000
  70
    32
  0
VERTEX
  8
SAPA_FOGBAND
  5
2CA8
 10
-69.9454
 20
20.6938
 30
0.000000
  70
    32
  0
VERTEX
  8
SAPA_FOGBAND
  5
2CA9
 10
-69.9031
 20
20.5302
 30
0.000000
  70
    32
  0
VERTEX
  8
SAPA_FOGBAND
  5
2CAA
 10
-69.8649
 20
20.3628
 30
0.000000
  70
    32
  0
VERTEX
  8
SAPA_FOGBAND
  5
2CAB
 10
-69.8311
 20
20.1919
 30
0.000000
  70
    32
  0
VERTEX
  8
SAPA_FOGBAND
  5
2CAC
 10
-69.8016
 20
20.0180
 30
0.000000
  70
    32
  0
VERTEX
  8
SAPA_FOGBAND
  5
2CAD
 10
-69.7765
 20
19.8415
 30
0.000000
  70
    32
  0
VERTEX
  8
SAPA_FOGBAND
  5
2CAE
 10
-69.7559
 20
19.6628
 30
0.000000
  70
    32
  0
VERTEX
  8
SAPA_FOGBAND
  5
2CAF
 10
-69.7398
 20
19.4824
 30
0.000000
  70
    32
  0
VERTEX
  8
SAPA_FOGBAND
  5
2CB0
 10
-69.7283
 20
19.3006
 30
0.000000
  70
    32
  0
VERTEX
  8
SAPA_FOGBAND
  5
2CB1
 10
-69.7213
 20
19.1180
 30
0.000000
  70
    32
  0
VERTEX
  8
SAPA_FOGBAND
  5
2CB2
 10
-69.7190
 20
18.9349
 30
0.000000
  70
    32
  0
VERTEX
  8
SAPA_FOGBAND
  5
2CB3
 10
-69.7213
 20
18.7518
 30
0.000000
  70
    32
  0
VERTEX
  8
SAPA_FOGBAND
  5
2CB4
 10
-69.7283
 20
18.5692
 30
0.000000
  70
    32
  0
VERTEX
  8
SAPA_FOGBAND
  5
2CB5
 10
-69.7398
 20
18.3874
 30
0.000000
  70
    32
  0
VERTEX
  8
SAPA_FOGBAND
  5
2CB6
 10
-69.7559
 20
18.2069
 30
0.000000
  70
    32
  0
VERTEX
  8
SAPA_FOGBAND
  5
2CB7
 10
-69.7765
 20
18.0282
 30
0.000000
  70
    32
  0
VERTEX
  8
SAPA_FOGBAND
  5
2CB8
 10
-69.8016
 20
17.8517
 30
0.000000
  70
    32
  0
VERTEX
  8
SAPA_FOGBAND
  5
2CB9
 10
-69.8311
 20
17.6778
 30
0.000000
  70
    32
  0
VERTEX
  8
SAPA_FOGBAND
  5
2CBA
 10
-69.8649
 20
17.5070
 30
0.000000
  70
    32
  0
VERTEX
  8
SAPA_FOGBAND
  5
2CBB
 10
-69.9031
 20
17.3395
 30
0.000000
  70
    32
  0
VERTEX
  8
SAPA_FOGBAND
  5
2CBC
 10
-69.9454
 20
17.1760
 30
0.000000
  70
    32
  0
VERTEX
  8
SAPA_FOGBAND
  5
2CBD
 10
-69.9917
 20
17.0166
 30
0.000000
  70
    32
  0
VERTEX
  8
SAPA_FOGBAND
  5
2CBE
 10
-70.0421
 20
16.8619
 30
0.000000
  70
    32
  0
VERTEX
  8
SAPA_FOGBAND
  5
2CBF
 10
-70.0962
 20
16.7121
 30
0.000000
  70
    32
  0
VERTEX
  8
SAPA_FOGBAND
  5
2CC0
 10
-70.1541
 20
16.5678
 30
0.000000
  70
    32
  0
VERTEX
  8
SAPA_FOGBAND
  5
2CC1
 10
-70.2156
 20
16.4291
 30
0.000000
  70
    32
  0
VERTEX
  8
SAPA_FOGBAND
  5
2CC2
 10
-70.2804
 20
16.2964
 30
0.000000
  70
    32
  0
VERTEX
  8
SAPA_FOGBAND
  5
2CC3
 10
-70.3486
 20
16.1702
 30
0.000000
  70
    32
  0
VERTEX
  8
SAPA_FOGBAND
  5
2CC4
 10
-70.4198
 20
16.0505
 30
0.000000
  70
    32
  0
VERTEX
  8
SAPA_FOGBAND
  5
2CC5
 10
-70.4940
 20
15.9379
 30
0.000000
  70
    32
  0
VERTEX
  8
SAPA_FOGBAND
  5
2CC6
 10
-70.5709
 20
15.8324
 30
0.000000
  70
    32
  0
VERTEX
  8
SAPA_FOGBAND
  5
2CC7
 10
-70.6504
 20
15.7344
 30
0.000000
  70
    32
  0
VERTEX
  8
SAPA_FOGBAND
  5
2CC8
 10
-70.7322
 20
15.6442
 30
0.000000
  70
    32
  0
VERTEX
  8
SAPA_FOGBAND
  5
2CC9
 10
-70.8162
 20
15.5618
 30
0.000000
  70
    32
  0
VERTEX
  8
SAPA_FOGBAND
  5
2CCA
 10
-70.9022
 20
15.4876
 30
0.000000
  70
    32
  0
VERTEX
  8
SAPA_FOGBAND
  5
2CCB
 10
-70.9900
 20
15.4217
 30
0.000000
  70
    32
  0
VERTEX
  8
SAPA_FOGBAND
  5
2CCC
 10
-71.0793
 20
15.3642
 30
0.000000
  70
    32
  0
VERTEX
  8
SAPA_FOGBAND
  5
2CCD
 10
-71.1700
 20
15.3154
 30
0.000000
  70
    32
  0
VERTEX
  8
SAPA_FOGBAND
  5
2CCE
 10
-71.2618
 20
15.2753
 30
0.000000
  70
    32
  0
VERTEX
  8
SAPA_FOGBAND
  5
2CCF
 10
-71.3545
 20
15.2440
 30
0.000000
  70
    32
  0
VERTEX
  8
SAPA_FOGBAND
  5
2CD0
 10
-71.4479
 20
15.2215
 30
0.000000
  70
    32
  0
VERTEX
  8
SAPA_FOGBAND
  5
2CD1
 10
-71.5417
 20
15.2081
 30
0.000000
  70
    32
  0
VERTEX
  8
SAPA_FOGBAND
  5
2CD2
 10
-71.6357
 20
15.2036
 30
0.000000
  70
    32
  0
SEQEND
  8
SAPA_FOGBAND
  5
2CD3
  0
POLYLINE
  5
18EE
  8
SAPA_FOGBAND
 66
     1
 10
0.0
 20
0.0
 30
0.0
  0
VERTEX
  5
2AF9
  8
SAPA_FOGBAND
 10
-64.491421355248505
 20
23.809252980877581
 30
0.0
  0
VERTEX
  5
2AFA
  8
SAPA_FOGBAND
 10
-64.191421355248551
 20
23.809252980877581
 30
0.0
  0
VERTEX
  5
2AFB
  8
SAPA_FOGBAND
 10
-64.491421355248505
 20
23.809252980877581
 30
0.0
 42
0.4142135623730951
  0
VERTEX
  5
2AFC
  8
SAPA_FOGBAND
 10
-64.991421355248505
 20
23.309252980877581
 30
0.0
  0
VERTEX
  5
2AFD
  8
SAPA_FOGBAND
 10
-64.991421355248562
 20
16.009252980877619
 30
0.0
 42
0.4142135623730951
  0
VERTEX
  5
2AFE
  8
SAPA_FOGBAND
 10
-64.491421355248562
 20
15.509252980877619
 30
0.0
  0
VERTEX
  5
2AFF
  8
SAPA_FOGBAND
 10
-64.191421355248551
 20
15.509252980877619
 30
0.0
  0
SEQEND
  5
2B00
  8
SAPA_FOGBAND
  0
POLYLINE
  5
18EF
  8
SAPA_FOGBAND
 66
     1
 10
0.0
 20
0.0
 30
0.0
 70
     1
  0
VERTEX
  5
2B01
  8
SAPA_FOGBAND
 10
-62.276790857609782
 20
21.109252980877589
 30
0.0
  0
VERTEX
  5
2B02
  8
SAPA_FOGBAND
 10
-62.876790857609748
 20
21.109252980877589
 30
0.0
 42
0.9999999999999998
  0
VERTEX
  5
2B03
  8
SAPA_FOGBAND
 10
-62.876790857609748
 20
19.309252980877641
 30
0.0
  0
VERTEX
  5
2B04
  8
SAPA_FOGBAND
 10
-62.276790857609782
 20
19.309252980877581
 30
0.0
 42
0.9999999999999998
  0
SEQEND
  5
2B05
  8
SAPA_FOGBAND
  0
POLYLINE
  5
18F0
  8
SAPA_FOGBAND
 66
     1
 10
0.0
 20
0.0
 30
0.0
 70
     1
  0
VERTEX
  5
2B06
  8
SAPA_FOGBAND
 10
-69.686637672611695
 20
10.846536117899101
 30
0.0
 42
0.646356061736289
  0
VERTEX
  5
2B07
  8
SAPA_FOGBAND
 10
-70.435507727777392
 20
12.509252980877619
 30
0.0
  0
VERTEX
  5
2B08
  8
SAPA_FOGBAND
 10
-73.914480339237457
 20
12.50925298087763
 30
0.0
 42
0.4879283649264857
  0
VERTEX
  5
2B09
  8
SAPA_FOGBAND
 10
-74.884622839382814
 20
11.266717355841291
 30
0.0
  0
VERTEX
  5
2B0A
  8
SAPA_FOGBAND
 10
-74.165173485297871
 20
8.3889199395015215
 30
0.0
 42
0.3441507314089108
  0
VERTEX
  5
2B0B
  8
SAPA_FOGBAND
 10
-73.195030985152542
 20
7.6314555645378528
 30
0.0
  0
VERTEX
  5
2B0C
  8
SAPA_FOGBAND
 10
-72.982231105069246
 20
7.631455564537851
 30
0.0
 42
0.214804042991016
  0
VERTEX
  5
2B0D
  8
SAPA_FOGBAND
 10
-72.233361049903522
 20
7.9687387015593352
 30
0.0
  0
SEQEND
  5
2B0E
  8
SAPA_FOGBAND
  0
POLYLINE
  5
18F1
  8
SAPA_FOGBAND
 66
     1
 10
0.0
 20
0.0
 30
0.0
 70
     1
  0
VERTEX
  5
2B0F
  8
SAPA_FOGBAND
 10
-64.191421355248551
 20
18.209252980877611
 30
0.0
 42
-0.4142135623730951
  0
VERTEX
  5
2B10
  8
SAPA_FOGBAND
 10
-63.691421355248551
 20
18.709252980877611
 30
0.0
  0
VERTEX
  5
2B11
  8
SAPA_FOGBAND
 10
-62.749995938366673
 20
18.709252980877611
 30
0.0
  0
VERTEX
  5
2B12
  8
SAPA_FOGBAND
 10
-62.682536029056209
 20
18.457489171857141
 30
0.0
 42
0.474057181023226
  0
VERTEX
  5
2B13
  8
SAPA_FOGBAND
 10
-62.400253443417611
 20
18.330195309493519
 30
0.0
  0
VERTEX
  5
2B14
  8
SAPA_FOGBAND
 10
-60.954047306657728
 20
18.950295812252168
 30
0.0
 42
0.2846003776496053
  0
VERTEX
  5
2B15
  8
SAPA_FOGBAND
 10
-60.67679085760976
 20
19.397939990712281
 30
0.0
  0
VERTEX
  5
2B16
  8
SAPA_FOGBAND
 10
-60.67679085760976
 20
21.020565971042888
 30
0.0
 42
0.2846003776496055
  0
VERTEX
  5
2B17
  8
SAPA_FOGBAND
 10
-60.954047306657728
 20
21.468210149503062
 30
0.0
  0
VERTEX
  5
2B18
  8
SAPA_FOGBAND
 10
-62.400253443417562
 20
22.088310652261651
 30
0.0
 42
0.474057181023226
  0
VERTEX
  5
2B19
  8
SAPA_FOGBAND
 10
-62.682536029056209
 20
21.961016789898089
 30
0.0
  0
VERTEX
  5
2B1A
  8
SAPA_FOGBAND
 10
-62.749995938366673
 20
21.709252980877618
 30
0.0
  0
VERTEX
  5
2B1B
  8
SAPA_FOGBAND
 10
-63.691421355248551
 20
21.709252980877618
 30
0.0
 42
-0.4142135623730951
  0
VERTEX
  5
2B1C
  8
SAPA_FOGBAND
 10
-64.191421355248551
 20
22.209252980877611
 30
0.0
  0
VERTEX
  5
2B1D
  8
SAPA_FOGBAND
 10
-64.191421355248494
 20
24.721413144259071
 30
0.0
 42
0.4052499559557504
  0
VERTEX
  5
2B1E
  8
SAPA_FOGBAND
 10
-64.482212694375832
 20
25.021271778560202
 30
0.0
  0
VERTEX
  5
2B1F
  8
SAPA_FOGBAND
 10
-75.882212694375838
 20
25.50911159322963
 30
0.0
 42
0.4232343445545565
  0
VERTEX
  5
2B20
  8
SAPA_FOGBAND
 10
-76.191421355248522
 20
25.209252958928499
 30
0.0
  0
VERTEX
  5
2B21
  8
SAPA_FOGBAND
 10
-76.191421355248522
 20
11.57080579368645
 30
0.0
 42
0.0613213552369726
  0
VERTEX
  5
2B22
  8
SAPA_FOGBAND
 10
-76.176492605321201
 20
11.44953798116828
 30
0.0
  0
VERTEX
  5
2B23
  8
SAPA_FOGBAND
 10
-75.105787448989417
 20
5.966717355841288
 30
0.0
 42
0.3441507314089092
  0
VERTEX
  5
2B24
  8
SAPA_FOGBAND
 10
-74.135644948844089
 20
5.2092529808776273
 30
0.0
  0
VERTEX
  5
2B25
  8
SAPA_FOGBAND
 10
-72.897560780315871
 20
5.2092529808776247
 30
0.0
 42
0.2148040429910146
  0
VERTEX
  5
2B26
  8
SAPA_FOGBAND
 10
-72.523125752733023
 20
5.3778945493883628
 30
0.0
  0
VERTEX
  5
2B27
  8
SAPA_FOGBAND
 10
-64.442551300082783
 20
14.508943680883
 30
0.0
 42
0.1831167524995932
  0
VERTEX
  5
2B28
  8
SAPA_FOGBAND
 10
-64.191421355248551
 20
15.171660543861529
 30
0.0
  0
SEQEND
  5
2B29
  8
SAPA_FOGBAND
  0
LINE
  5
18F2
  8
SAPA_FOGBAND
 10
8.5012846353587879
 20
-48.500000257789218
 30
0.0
 11
8.5012846353587879
 21
-48.500000257789218
 31
0.0
  0
DIMENSION
  5
18FB
  8
SAPA_MATT
  2
*D179
 10
-125.65246760755331
 20
-118.00000000207829
 30
0.0
 11
-128.15246760755329
 21
-99.25000000207838
 31
0.0
 70
     0
 13
-81.998715298616148
 23
-80.500000002078366
 33
0.0
 14
-81.99871529861619
 24
-118.00000000207829
 34
0.0
 50
270.0
1001
ACAD
1000
DSTYLE
1002
{
1070
   287
1070
     4
1070
    40
1040
1.0
1070
   279
1070
     1
1002
}
  0
DIMENSION
  5
18FC
  8
SAPA_MATT
  2
*D178
 10
-125.65246760755331
 20
-80.500000299949406
 30
0.0
 11
-128.15246760755329
 21
-78.000000299896442
 31
0.0
 70
     0
 13
-81.998715167729216
 23
-75.500000299843464
 33
0.0
 14
-81.998715651403174
 24
-80.50000029994942
 34
0.0
 50
270.0
1001
ACAD
1000
DSTYLE
1002
{
1070
   287
1070
     4
1070
    40
1040
1.0
1070
   279
1070
     1
1002
}
  0
DIMENSION
  5
18FD
  8
SAPA_MATT
  2
*D177
 10
-125.65375231270581
 20
-75.499999999899984
 30
0.0
 11
-128.15375231270579
 21
-50.249999999950191
 31
0.0
 70
     0
 13
-105.9999999990104
 23
-25.000000000000341
 33
0.0
 14
-81.998715294908109
 24
-75.499999999900012
 34
0.0
 50
270.0
1001
ACAD
1000
DSTYLE
1002
{
1070
   287
1070
     4
1070
    40
1040
1.0
1070
   279
1070
     1
1002
}
  0
DIMENSION
  5
18FE
  8
SAPA_MATT
  2
*D176
 10
-125.65375231270581
 20
-25.00000000000032
 30
0.0
 11
-128.15375231270579
 21
-0.0000000000003402
 31
0.0
 70
     0
 13
-105.9999999990104
 23
24.99999999999968
 33
0.0
 14
-105.9999999990104
 24
-25.00000000000032
 34
0.0
 50
270.0
1001
ACAD
1000
DSTYLE
1002
{
1070
    40
1040
1.0
1002
}
  0
VIEWPORT
  5
C4
 67
     1
  8
0
 10
143.06236603067589
 20
116.00969601843509
 30
0.0
 40
369.98580003443811
 41
256.8421457311839
 68
     1
 69
     1
1001
ACAD
1000
MVIEW
1002
{
1070
    16
1010
0.0
1020
0.0
1030
0.0
1010
0.0
1020
0.0
1030
1.0
1040
0.0
1040
256.8421457311839
1040
99.112914085388169
1040
143.07606935501099
1040
50.0
1040
0.0
1040
0.0
1070
     0
1070
     0
1070
     1
1070
     1
1070
     0
1070
     0
1070
     0
1070
     0
1040
0.0
1040
0.0
1040
0.0
1040
10.0
1040
10.0
1040
10.0
1040
10.0
1070
     0
1002
{
1002
}
1002
}
  0
ENDSEC
  0
EOF
