  0
SECTION
  2
HEADER
  9
$ACADVER
  1
AC1009
  9
$INSBASE
 10
0.0
 20
0.0
 30
0.0
  9
$EXTMIN
 10
-106.4999999990109
 20
-77.645505967891694
 30
0.0
  9
$EXTMAX
 10
373.42091924236098
 20
151.52625810581009
 30
0.0000000195376815
  9
$LIMMIN
 10
0.0
 20
0.0
  9
$LIMMAX
 10
790.0
 20
790.0
  9
$ORTHOMODE
 70
     0
  9
$REGENMODE
 70
     1
  9
$FILLMODE
 70
     1
  9
$QTEXTMODE
 70
     0
  9
$MIRRTEXT
 70
     1
  9
$DRAGMODE
 70
     2
  9
$LTSCALE
 40
4.0
  9
$OSMODE
 70
   167
  9
$ATTMODE
 70
     1
  9
$TEXTSIZE
 40
3.5
  9
$TRACEWID
 40
0.05
  9
$TEXTSTYLE
  7
ISO
  9
$CLAYER
  8
0
  9
$CELTYPE
  6
BYLAYER
  9
$CECOLOR
 62
   256
  9
$DIMSCALE
 40
0.0
  9
$DIMASZ
 40
3.0
  9
$DIMEXO
 40
1.5
  9
$DIMDLI
 40
10.0
  9
$DIMRND
 40
0.0
  9
$DIMDLE
 40
0.0
  9
$DIMEXE
 40
1.5
  9
$DIMTP
 40
0.0
  9
$DIMTM
 40
0.0
  9
$DIMTXT
 40
3.0
  9
$DIMCEN
 40
-5.0
  9
$DIMTSZ
 40
0.0
  9
$DIMTOL
 70
     0
  9
$DIMLIM
 70
     0
  9
$DIMTIH
 70
     0
  9
$DIMTOH
 70
     0
  9
$DIMSE1
 70
     0
  9
$DIMSE2
 70
     0
  9
$DIMTAD
 70
     1
  9
$DIMZIN
 70
     8
  9
$DIMBLK
  1

  9
$DIMASO
 70
     1
  9
$DIMSHO
 70
     1
  9
$DIMPOST
  1

  9
$DIMAPOST
  1

  9
$DIMALT
 70
     0
  9
$DIMALTD
 70
     0
  9
$DIMALTF
 40
25.399999999999999
  9
$DIMLFAC
 40
-1.0
  9
$DIMTOFL
 70
     1
  9
$DIMTVP
 40
0.0
  9
$DIMTIX
 70
     0
  9
$DIMSOXD
 70
     0
  9
$DIMSAH
 70
     0
  9
$DIMBLK1
  1

  9
$DIMBLK2
  1

  9
$DIMSTYLE
  2
MASKIN
  9
$DIMCLRD
 70
   256
  9
$DIMCLRE
 70
   256
  9
$DIMCLRT
 70
     2
  9
$DIMTFAC
 40
1.0
  9
$DIMGAP
 40
1.0
  9
$LUNITS
 70
     2
  9
$LUPREC
 70
     8
  9
$SKETCHINC
 40
0.1
  9
$FILLETRAD
 40
0.0
  9
$AUNITS
 70
     0
  9
$AUPREC
 70
     8
  9
$MENU
  1
ACAD
  9
$ELEVATION
 40
0.0
  9
$PELEVATION
 40
0.0
  9
$THICKNESS
 40
0.0
  9
$LIMCHECK
 70
     0
  9
$BLIPMODE
 70
     0
  9
$CHAMFERA
 40
0.0
  9
$CHAMFERB
 40
0.0
  9
$SKPOLY
 70
     0
  9
$TDCREATE
 40
2454859.4973943871
  9
$TDUPDATE
 40
2458466.5512538771
  9
$TDINDWG
 40
0.020851412
  9
$TDUSRTIMER
 40
0.0208512269
  9
$USRTIMER
 70
     1
  9
$ANGBASE
 50
0.0
  9
$ANGDIR
 70
     0
  9
$PDMODE
 70
     0
  9
$PDSIZE
 40
0.0
  9
$PLINEWID
 40
0.0
  9
$COORDS
 70
     1
  9
$SPLFRAME
 70
     0
  9
$SPLINETYPE
 70
     6
  9
$SPLINESEGS
 70
     8
  9
$ATTDIA
 70
     1
  9
$ATTREQ
 70
     1
  9
$HANDLING
 70
     1
  9
$HANDSEED
  5
2D7C
  9
$SURFTAB1
 70
     6
  9
$SURFTAB2
 70
     6
  9
$SURFTYPE
 70
     6
  9
$SURFU
 70
     6
  9
$SURFV
 70
     6
  9
$UCSNAME
  2

  9
$UCSORG
 10
0.0
 20
0.0
 30
0.0
  9
$UCSXDIR
 10
1.0
 20
0.0
 30
0.0
  9
$UCSYDIR
 10
0.0
 20
1.0
 30
0.0
  9
$PUCSNAME
  2

  9
$PUCSORG
 10
0.0
 20
0.0
 30
0.0
  9
$PUCSXDIR
 10
1.0
 20
0.0
 30
0.0
  9
$PUCSYDIR
 10
0.0
 20
1.0
 30
0.0
  9
$USERI1
 70
     0
  9
$USERI2
 70
     0
  9
$USERI3
 70
     0
  9
$USERI4
 70
     0
  9
$USERI5
 70
     0
  9
$USERR1
 40
0.0
  9
$USERR2
 40
0.0
  9
$USERR3
 40
0.0
  9
$USERR4
 40
0.0
  9
$USERR5
 40
0.0
  9
$WORLDVIEW
 70
     1
  9
$SHADEDGE
 70
     3
  9
$SHADEDIF
 70
    70
  9
$TILEMODE
 70
     1
  9
$MAXACTVP
 70
    16
  9
$PLIMCHECK
 70
     0
  9
$PEXTMIN
 10
1.0000000000000000E+020
 20
1.0000000000000000E+020
 30
1.0000000000000000E+020
  9
$PEXTMAX
 10
-1.0000000000000000E+020
 20
-1.0000000000000000E+020
 30
-1.0000000000000000E+020
  9
$PLIMMIN
 10
-5.069427490234375
 20
-5.8737497329711914
  9
$PLIMMAX
 10
291.89889526367187
 20
204.0995779037475
  9
$UNITMODE
 70
     0
  9
$VISRETAIN
 70
     1
  9
$PLINEGEN
 70
     0
  9
$PSLTSCALE
 70
     1
  0
ENDSEC
  0
SECTION
  2
TABLES
  0
TABLE
  2
VPORT
 70
     1
  0
VPORT
  2
*ACTIVE
 70
     0
 10
0.0
 20
0.0
 11
1.0
 21
1.0
 12
135.80506318862891
 22
170.8060234346589
 13
0.0
 23
0.0
 14
1.0
 24
1.0
 15
0.0
 25
0.0
 16
0.0
 26
0.0
 36
1.0
 17
0.0
 27
0.0
 37
0.0
 40
349.8534340688592
 41
1.452861952861952
 42
50.0
 43
0.0
 44
0.0
 50
0.0
 51
0.0
 71
     0
 72
   100
 73
     1
 74
     1
 75
     0
 76
     0
 77
     0
 78
     0
  0
ENDTAB
  0
TABLE
  2
LTYPE
 70
    85
  0
LTYPE
  2
CONTINUOUS
 70
     0
  3
Solid line
 72
    65
 73
     0
 40
0.0
  0
LTYPE
  2
BYGG-01482201$0$NEWDOT
 70
     0
  3
____ . ____ . ____ . ____ . ____ . ____ . ____
 72
    65
 73
     4
 40
2.0
 49
1.0
 49
-0.5
 49
0.0
 49
-0.5
  0
LTYPE
  2
BYGG-014357$0$NEWDOT
 70
     0
  3
____ . ____ . ____ . ____ . ____ . ____ . ____
 72
    65
 73
     4
 40
2.0
 49
1.0
 49
-0.5
 49
0.0
 49
-0.5
  0
LTYPE
  2
BYGG-014357$0$DASHDOT
 70
     0
  3
__ . __ . __ . __ . __ . __ . __ . __ . __ . __
 72
    65
 73
     4
 40
1.0
 49
0.5
 49
-0.25
 49
0.0
 49
-0.25
  0
LTYPE
  2
BYGG-014357$0$DASHED
 70
     0
  3
__ __ __ __ __ __ __ __ __ __ __ __ __ __ __
 72
    65
 73
     2
 40
0.75
 49
0.5
 49
-0.25
  0
LTYPE
  2
BYGG-014279$0$NEWDOT
 70
     0
  3
____ . ____ . ____ . ____ . ____ . ____ . ____
 72
    65
 73
     4
 40
2.0
 49
1.0
 49
-0.5
 49
0.0
 49
-0.5
  0
LTYPE
  2
BYGG-01482201$0$ZIGZAG
 70
     0
  3
Zig zag /\/\/\/\/\/\/\/\/\/\/\/\/\/\/\/\/\/\/\/\/\/\/\/
 72
    65
 73
     4
 40
20.32254
 49
0.00254
 49
-5.0800000000000001
 49
-10.16
 49
-5.0800000000000001
  0
LTYPE
  2
BYGG-014279$0$ZIGZAG
 70
     0
  3
Zig zag /\/\/\/\/\/\/\/\/\/\/\/\/\/\/\/\/\/\/\/\/\/\/\/
 72
    65
 73
     4
 40
20.32254
 49
0.00254
 49
-5.0800000000000001
 49
-10.16
 49
-5.0800000000000001
  0
LTYPE
  2
BYGG-024754$0$DASHDOT
 70
     0
  3
__ . __ . __ . __ . __ . __ . __ . __ . __ . __
 72
    65
 73
     4
 40
1.0
 49
0.5
 49
-0.25
 49
0.0
 49
-0.25
  0
LTYPE
  2
BYGG-024754$0$NEWDOT
 70
     0
  3
____ . ____ . ____ . ____ . ____ . ____ . ____
 72
    65
 73
     4
 40
2.0
 49
1.0
 49
-0.5
 49
0.0
 49
-0.5
  0
LTYPE
  2
BYGG-020805$0$NEWDOT
 70
     0
  3
____ . ____ . ____ . ____ . ____ . ____ . ____
 72
    65
 73
     4
 40
2.0
 49
1.0
 49
-0.5
 49
0.0
 49
-0.5
  0
LTYPE
  2
BYGG-020805$0$DASHDOT
 70
     0
  3
__ . __ . __ . __ . __ . __ . __ . __ . __ . __
 72
    65
 73
     4
 40
1.0
 49
0.5
 49
-0.25
 49
0.0
 49
-0.25
  0
LTYPE
  2
BYGG-020805$0$DASHED
 70
     0
  3
__ __ __ __ __ __ __ __ __ __ __ __ __ __ __
 72
    65
 73
     2
 40
0.75
 49
0.5
 49
-0.25
  0
LTYPE
  2
BYGG-020805$0$PHANTOM
 70
     0
  3
Phantom ______  __  __  ______  __  __  ______
 72
    65
 73
     6
 40
63.5
 49
31.75
 49
-6.3499999999999988
 49
6.3499999999999988
 49
-6.3499999999999988
 49
6.3499999999999988
 49
-6.3499999999999988
  0
LTYPE
  2
BYGG-024788$0$NEWDOT
 70
     0
  3
____ . ____ . ____ . ____ . ____ . ____ . ____
 72
    65
 73
     4
 40
2.0
 49
1.0
 49
-0.5
 49
0.0
 49
-0.5
  0
LTYPE
  2
BYGG-024789$0$NEWDOT
 70
     0
  3
____ . ____ . ____ . ____ . ____ . ____ . ____
 72
    65
 73
     4
 40
2.0
 49
1.0
 49
-0.5
 49
0.0
 49
-0.5
  0
LTYPE
  2
BYGG-01409101$0$DASHDOT
 70
     0
  3
__ . __ . __ . __ . __ . __ . __ . __ . __ . __
 72
    65
 73
     4
 40
1.0
 49
0.5
 49
-0.25
 49
0.0
 49
-0.25
  0
LTYPE
  2
BYGG-01409101$0$HIDDEN
 70
     0
  3
_ _ _ _ _ _ _ _ _ _ _ _ _ _ _ _ _ _ _ _ _ _ _
 72
    65
 73
     2
 40
0.375
 49
0.25
 49
-0.125
  0
LTYPE
  2
BYGG-026410$0$NEWDOT
 70
     0
  3
____ . ____ . ____ . ____ . ____ . ____ . ____
 72
    65
 73
     4
 40
2.0
 49
1.0
 49
-0.5
 49
0.0
 49
-0.5
  0
LTYPE
  2
BYGG-026410$0$DASHDOT
 70
     0
  3
__ . __ . __ . __ . __ . __ . __ . __ . __ . __
 72
    65
 73
     4
 40
1.0
 49
0.5
 49
-0.25
 49
0.0
 49
-0.25
  0
LTYPE
  2
BYGG-026410$0$DASHED
 70
     0
  3
__ __ __ __ __ __ __ __ __ __ __ __ __ __ __
 72
    65
 73
     2
 40
0.75
 49
0.5
 49
-0.25
  0
LTYPE
  2
BYGG-026410$0$PHANTOM
 70
     0
  3
Phantom ______  __  __  ______  __  __  ______
 72
    65
 73
     6
 40
63.5
 49
31.75
 49
-6.3499999999999988
 49
6.3499999999999988
 49
-6.3499999999999988
 49
6.3499999999999988
 49
-6.3499999999999988
  0
LTYPE
  2
BYGG-033167$0$NEWDOT
 70
     0
  3
____ . ____ . ____ . ____ . ____ . ____ . ____
 72
    65
 73
     4
 40
2.0
 49
1.0
 49
-0.5
 49
0.0
 49
-0.5
  0
LTYPE
  2
BYGG-033167$0$DASHDOT
 70
     0
  3
__ . __ . __ . __ . __ . __ . __ . __ . __ . __
 72
    65
 73
     4
 40
1.0
 49
0.5
 49
-0.25
 49
0.0
 49
-0.25
  0
LTYPE
  2
BYGG-033167$0$DASHED
 70
     0
  3
__ __ __ __ __ __ __ __ __ __ __ __ __ __ __
 72
    65
 73
     2
 40
0.75
 49
0.5
 49
-0.25
  0
LTYPE
  2
BYGG-033167$0$PHANTOM
 70
     0
  3
Phantom ______  __  __  ______  __  __  ______
 72
    65
 73
     6
 40
63.5
 49
31.75
 49
-6.3499999999999988
 49
6.3499999999999988
 49
-6.3499999999999988
 49
6.3499999999999988
 49
-6.3499999999999988
  0
LTYPE
  2
BYGG-033167$0$BYGG-020132$
 70
     0
  3
____ . ____ . ____ . ____ . ____ . ____ . ____
 72
    65
 73
     4
 40
2.0
 49
1.0
 49
-0.5
 49
0.0
 49
-0.5
  0
LTYPE
  2
BYGG-033167$0$BYGG-024943$
 70
     0
  3
____ . ____ . ____ . ____ . ____ . ____ . ____
 72
    65
 73
     4
 40
2.0
 49
1.0
 49
-0.5
 49
0.0
 49
-0.5
  0
LTYPE
  2
BYGG-035836$0$NEWDOT
 70
     0
  3
____ . ____ . ____ . ____ . ____ . ____ . ____
 72
    65
 73
     4
 40
2.0
 49
1.0
 49
-0.5
 49
0.0
 49
-0.5
  0
LTYPE
  2
BYGG-035836$0$DASHDOT
 70
     0
  3
__ . __ . __ . __ . __ . __ . __ . __ . __ . __
 72
    65
 73
     4
 40
1.0
 49
0.5
 49
-0.25
 49
0.0
 49
-0.25
  0
LTYPE
  2
BYGG-025652$0$NEWDOT
 70
     0
  3
____ . ____ . ____ . ____ . ____ . ____ . ____
 72
    65
 73
     4
 40
2.0
 49
1.0
 49
-0.5
 49
0.0
 49
-0.5
  0
LTYPE
  2
BYGG-025652$0$DASHDOT
 70
     0
  3
__ . __ . __ . __ . __ . __ . __ . __ . __ . __
 72
    65
 73
     4
 40
1.0
 49
0.5
 49
-0.25
 49
0.0
 49
-0.25
  0
LTYPE
  2
BYGG-025652$0$DASHED
 70
     0
  3
__ __ __ __ __ __ __ __ __ __ __ __ __ __ __
 72
    65
 73
     2
 40
0.75
 49
0.5
 49
-0.25
  0
LTYPE
  2
BYGG-025652$0$PHANTOM
 70
     0
  3
Phantom ______  __  __  ______  __  __  ______
 72
    65
 73
     6
 40
63.5
 49
31.75
 49
-6.3499999999999988
 49
6.3499999999999988
 49
-6.3499999999999988
 49
6.3499999999999988
 49
-6.3499999999999988
  0
LTYPE
  2
BYGG-014411$0$NEWDOT
 70
     0
  3
____ . ____ . ____ . ____ . ____ . ____ . ____
 72
    65
 73
     4
 40
2.0
 49
1.0
 49
-0.5
 49
0.0
 49
-0.5
  0
LTYPE
  2
BYGG-014411$0$ZIGZAG
 70
     0
  3
Zig zag /\/\/\/\/\/\/\/\/\/\/\/\/\/\/\/\/\/\/\/\/\/\/\/
 72
    65
 73
     4
 40
20.32254
 49
0.00254
 49
-5.0800000000000001
 49
-10.16
 49
-5.0800000000000001
  0
LTYPE
  2
BYGG-035833$0$PHANTOM2
 70
     0
  3
Phantom (.5x) ___ _ _ ___ _ _ ___ _ _ ___ _ _
 72
    65
 73
     6
 40
1.25
 49
0.625
 49
-0.125
 49
0.125
 49
-0.125
 49
0.125
 49
-0.125
  0
LTYPE
  2
BYGG-01409101$0$PHANTOM2
 70
     0
  3
Phantom (.5x) ___ _ _ ___ _ _ ___ _ _ ___ _ _
 72
    65
 73
     6
 40
1.25
 49
0.625
 49
-0.125
 49
0.125
 49
-0.125
 49
0.125
 49
-0.125
  0
LTYPE
  2
BYGG-035836$0$PHANTOM2
 70
     0
  3
Phantom (.5x) ___ _ _ ___ _ _ ___ _ _ ___ _ _
 72
    65
 73
     6
 40
1.25
 49
0.625
 49
-0.125
 49
0.125
 49
-0.125
 49
0.125
 49
-0.125
  0
LTYPE
  2
BYGG-035836$0$BYGG-024778|NEWDOT
 70
     0
  3
____ . ____ . ____ . ____ . ____ . ____ . ____
 72
    65
 73
     4
 40
2.0
 49
1.0
 49
-0.5
 49
0.0
 49
-0.5
  0
LTYPE
  2
BYGG-035836$0$BYGG-0247780
 70
     0
  3
__ . __ . __ . __ . __ . __ . __ . __ . __ . __
 72
    65
 73
     4
 40
1.0
 49
0.5
 49
-0.25
 49
0.0
 49
-0.25
  0
LTYPE
  2
BYGG-035836$0$BYGG-0140910
 70
     0
  3
__ . __ . __ . __ . __ . __ . __ . __ . __ . __
 72
    65
 73
     4
 40
1.0
 49
0.5
 49
-0.25
 49
0.0
 49
-0.25
  0
LTYPE
  2
BYGG-035836$0$BYGG-0140911
 70
     0
  3
_ _ _ _ _ _ _ _ _ _ _ _ _ _ _ _ _ _ _ _ _ _ _
 72
    65
 73
     2
 40
0.375
 49
0.25
 49
-0.125
  0
LTYPE
  2
BYGG-035836$0$BYGG-035431|NEWDOT
 70
     0
  3
____ . ____ . ____ . ____ . ____ . ____ . ____
 72
    65
 73
     4
 40
2.0
 49
1.0
 49
-0.5
 49
0.0
 49
-0.5
  0
LTYPE
  2
BYGG-035836$0$BYGG-0354310
 70
     0
  3
__ . __ . __ . __ . __ . __ . __ . __ . __ . __
 72
    65
 73
     4
 40
1.0
 49
0.5
 49
-0.25
 49
0.0
 49
-0.25
  0
LTYPE
  2
BYGG-035836$0$BYGG-0354311
 70
     0
  3
__ __ __ __ __ __ __ __ __ __ __ __ __ __ __
 72
    65
 73
     2
 40
0.75
 49
0.5
 49
-0.25
  0
LTYPE
  2
BYGG-035836$0$BYGG-0354312
 70
     0
  3
Phantom ______  __  __  ______  __  __  ______
 72
    65
 73
     6
 40
63.5
 49
31.75
 49
-6.3499999999999988
 49
6.3499999999999988
 49
-6.3499999999999988
 49
6.3499999999999988
 49
-6.3499999999999988
  0
LTYPE
  2
BYGG-035836$0$BYGG-0354313
 70
     0
  3
Zig zag /\/\/\/\/\/\/\/\/\/\/\/\/\/\/\/\/\/\/\/\/\/\/\/
 72
    65
 73
     4
 40
20.32254
 49
0.00254
 49
-5.0800000000000001
 49
-10.16
 49
-5.0800000000000001
  0
LTYPE
  2
BYGG-035836$0$BYGG-035435|NEWDOT
 70
     0
  3
____ . ____ . ____ . ____ . ____ . ____ . ____
 72
    65
 73
     4
 40
2.0
 49
1.0
 49
-0.5
 49
0.0
 49
-0.5
  0
LTYPE
  2
BYGG-035836$0$BYGG-025652|NEWDOT
 70
     0
  3
____ . ____ . ____ . ____ . ____ . ____ . ____
 72
    65
 73
     4
 40
2.0
 49
1.0
 49
-0.5
 49
0.0
 49
-0.5
  0
LTYPE
  2
BYGG-035836$0$BYGG-0256520
 70
     0
  3
__ . __ . __ . __ . __ . __ . __ . __ . __ . __
 72
    65
 73
     4
 40
1.0
 49
0.5
 49
-0.25
 49
0.0
 49
-0.25
  0
LTYPE
  2
BYGG-035836$0$BYGG-0256521
 70
     0
  3
__ __ __ __ __ __ __ __ __ __ __ __ __ __ __
 72
    65
 73
     2
 40
0.75
 49
0.5
 49
-0.25
  0
LTYPE
  2
BYGG-035836$0$BYGG-0256522
 70
     0
  3
Phantom ______  __  __  ______  __  __  ______
 72
    65
 73
     6
 40
63.5
 49
31.75
 49
-6.3499999999999988
 49
6.3499999999999988
 49
-6.3499999999999988
 49
6.3499999999999988
 49
-6.3499999999999988
  0
LTYPE
  2
BYGG-035836$0$BYGG-014411|NEWDOT
 70
     0
  3
____ . ____ . ____ . ____ . ____ . ____ . ____
 72
    65
 73
     4
 40
2.0
 49
1.0
 49
-0.5
 49
0.0
 49
-0.5
  0
LTYPE
  2
BYGG-035836$0$BYGG-0144110
 70
     0
  3
Zig zag /\/\/\/\/\/\/\/\/\/\/\/\/\/\/\/\/\/\/\/\/\/\/\/
 72
    65
 73
     4
 40
20.32254
 49
0.00254
 49
-5.0800000000000001
 49
-10.16
 49
-5.0800000000000001
  0
LTYPE
  2
BYGG-035836$0$BYGG-035044|NEWDOT
 70
     0
  3
____ . ____ . ____ . ____ . ____ . ____ . ____
 72
    65
 73
     4
 40
2.0
 49
1.0
 49
-0.5
 49
0.0
 49
-0.5
  0
LTYPE
  2
BYGG-035836$0$BYGG-0350440
 70
     0
  3
__ . __ . __ . __ . __ . __ . __ . __ . __ . __
 72
    65
 73
     4
 40
1.0
 49
0.5
 49
-0.25
 49
0.0
 49
-0.25
  0
LTYPE
  2
BYGG-035836$0$BYGG-0350441
 70
     0
  3
__ __ __ __ __ __ __ __ __ __ __ __ __ __ __
 72
    65
 73
     2
 40
0.75
 49
0.5
 49
-0.25
  0
LTYPE
  2
BYGG-035836$0$BYGG-0350442
 70
     0
  3
Phantom ______  __  __  ______  __  __  ______
 72
    65
 73
     6
 40
63.5
 49
31.75
 49
-6.3499999999999988
 49
6.3499999999999988
 49
-6.3499999999999988
 49
6.3499999999999988
 49
-6.3499999999999988
  0
LTYPE
  2
BYGG-035836$0$BYGG-024787|NEWDOT
 70
     0
  3
____ . ____ . ____ . ____ . ____ . ____ . ____
 72
    65
 73
     4
 40
2.0
 49
1.0
 49
-0.5
 49
0.0
 49
-0.5
  0
LTYPE
  2
BYGG-035836$0$BYGG-024788|NEWDOT
 70
     0
  3
____ . ____ . ____ . ____ . ____ . ____ . ____
 72
    65
 73
     4
 40
2.0
 49
1.0
 49
-0.5
 49
0.0
 49
-0.5
  0
LTYPE
  2
BYGG-035836$0$BYGG-024789|NEWDOT
 70
     0
  3
____ . ____ . ____ . ____ . ____ . ____ . ____
 72
    65
 73
     4
 40
2.0
 49
1.0
 49
-0.5
 49
0.0
 49
-0.5
  0
LTYPE
  2
BYGG-035836$0$BYGG-020805|NEWDOT
 70
     0
  3
____ . ____ . ____ . ____ . ____ . ____ . ____
 72
    65
 73
     4
 40
2.0
 49
1.0
 49
-0.5
 49
0.0
 49
-0.5
  0
LTYPE
  2
BYGG-035836$0$BYGG-0208050
 70
     0
  3
__ . __ . __ . __ . __ . __ . __ . __ . __ . __
 72
    65
 73
     4
 40
1.0
 49
0.5
 49
-0.25
 49
0.0
 49
-0.25
  0
LTYPE
  2
BYGG-035836$0$BYGG-0208051
 70
     0
  3
__ __ __ __ __ __ __ __ __ __ __ __ __ __ __
 72
    65
 73
     2
 40
0.75
 49
0.5
 49
-0.25
  0
LTYPE
  2
BYGG-035836$0$BYGG-0208052
 70
     0
  3
Phantom ______  __  __  ______  __  __  ______
 72
    65
 73
     6
 40
63.5
 49
31.75
 49
-6.3499999999999988
 49
6.3499999999999988
 49
-6.3499999999999988
 49
6.3499999999999988
 49
-6.3499999999999988
  0
LTYPE
  2
BYGG-035836$0$BYGG-026410|NEWDOT
 70
     0
  3
____ . ____ . ____ . ____ . ____ . ____ . ____
 72
    65
 73
     4
 40
2.0
 49
1.0
 49
-0.5
 49
0.0
 49
-0.5
  0
LTYPE
  2
BYGG-035836$0$BYGG-0264100
 70
     0
  3
__ . __ . __ . __ . __ . __ . __ . __ . __ . __
 72
    65
 73
     4
 40
1.0
 49
0.5
 49
-0.25
 49
0.0
 49
-0.25
  0
LTYPE
  2
BYGG-035836$0$BYGG-0264101
 70
     0
  3
__ __ __ __ __ __ __ __ __ __ __ __ __ __ __
 72
    65
 73
     2
 40
0.75
 49
0.5
 49
-0.25
  0
LTYPE
  2
BYGG-035836$0$BYGG-0264102
 70
     0
  3
Phantom ______  __  __  ______  __  __  ______
 72
    65
 73
     6
 40
63.5
 49
31.75
 49
-6.3499999999999988
 49
6.3499999999999988
 49
-6.3499999999999988
 49
6.3499999999999988
 49
-6.3499999999999988
  0
LTYPE
  2
BYGG-035836$0$BYGG-024817|NEWDOT
 70
     0
  3
____ . ____ . ____ . ____ . ____ . ____ . ____
 72
    65
 73
     4
 40
2.0
 49
1.0
 49
-0.5
 49
0.0
 49
-0.5
  0
LTYPE
  2
BYGG-035836$0$BYGG-024794|NEWDOT
 70
     0
  3
____ . ____ . ____ . ____ . ____ . ____ . ____
 72
    65
 73
     4
 40
2.0
 49
1.0
 49
-0.5
 49
0.0
 49
-0.5
  0
LTYPE
  2
BYGG-035836$0$BYGG-0247940
 70
     0
  3
__ . __ . __ . __ . __ . __ . __ . __ . __ . __
 72
    65
 73
     4
 40
1.0
 49
0.5
 49
-0.25
 49
0.0
 49
-0.25
  0
LTYPE
  2
BYGG-035836$0$BYGG-033167|NEWDOT
 70
     0
  3
____ . ____ . ____ . ____ . ____ . ____ . ____
 72
    65
 73
     4
 40
2.0
 49
1.0
 49
-0.5
 49
0.0
 49
-0.5
  0
LTYPE
  2
BYGG-035836$0$BYGG-0331670
 70
     0
  3
__ . __ . __ . __ . __ . __ . __ . __ . __ . __
 72
    65
 73
     4
 40
1.0
 49
0.5
 49
-0.25
 49
0.0
 49
-0.25
  0
LTYPE
  2
BYGG-035836$0$BYGG-0331671
 70
     0
  3
__ __ __ __ __ __ __ __ __ __ __ __ __ __ __
 72
    65
 73
     2
 40
0.75
 49
0.5
 49
-0.25
  0
LTYPE
  2
BYGG-035836$0$BYGG-0331672
 70
     0
  3
Phantom ______  __  __  ______  __  __  ______
 72
    65
 73
     6
 40
63.5
 49
31.75
 49
-6.3499999999999988
 49
6.3499999999999988
 49
-6.3499999999999988
 49
6.3499999999999988
 49
-6.3499999999999988
  0
LTYPE
  2
BYGG-035836$0$BYGG-0331673
 70
     0
  3
____ . ____ . ____ . ____ . ____ . ____ . ____
 72
    65
 73
     4
 40
2.0
 49
1.0
 49
-0.5
 49
0.0
 49
-0.5
  0
LTYPE
  2
BYGG-035836$0$BYGG-0331674
 70
     0
  3
____ . ____ . ____ . ____ . ____ . ____ . ____
 72
    65
 73
     4
 40
2.0
 49
1.0
 49
-0.5
 49
0.0
 49
-0.5
  0
LTYPE
  2
BYGG-025652$0$PHANTOM2
 70
     0
  3
Phantom (.5x) ___ _ _ ___ _ _ ___ _ _ ___ _ _
 72
    65
 73
     6
 40
1.25
 49
0.625
 49
-0.125
 49
0.125
 49
-0.125
 49
0.125
 49
-0.125
  0
LTYPE
  2
BYGG-014411$0$PHANTOM2
 70
     0
  3
Phantom (.5x) ___ _ _ ___ _ _ ___ _ _ ___ _ _
 72
    65
 73
     6
 40
1.25
 49
0.625
 49
-0.125
 49
0.125
 49
-0.125
 49
0.125
 49
-0.125
  0
LTYPE
  2
BYGG-014090$0$PHANTOM2
 70
     0
  3
Phantom (.5x) ___ _ _ ___ _ _ ___ _ _ ___ _ _
 72
    65
 73
     6
 40
1.25
 49
0.625
 49
-0.125
 49
0.125
 49
-0.125
 49
0.125
 49
-0.125
  0
LTYPE
  2
BYGG-014088$0$PHANTOM2
 70
     0
  3
Phantom (.5x) ___ _ _ ___ _ _ ___ _ _ ___ _ _
 72
    65
 73
     6
 40
1.25
 49
0.625
 49
-0.125
 49
0.125
 49
-0.125
 49
0.125
 49
-0.125
  0
LTYPE
  2
BYGG-024788$0$DASHDOT
 70
     0
  3
__ . __ . __ . __ . __ . __ . __ . __ . __ . __
 72
    65
 73
     4
 40
1.0
 49
0.5
 49
-0.25
 49
0.0
 49
-0.25
  0
LTYPE
  2
BYGG-024789$0$DASHDOT
 70
     0
  3
__ . __ . __ . __ . __ . __ . __ . __ . __ . __
 72
    65
 73
     4
 40
1.0
 49
0.5
 49
-0.25
 49
0.0
 49
-0.25
  0
ENDTAB
  0
TABLE
  2
LAYER
 70
   254
  0
LAYER
  2
0
 70
     0
 62
     7
  6
CONTINUOUS
  0
LAYER
  2
DEFPOINTS
 70
     0
 62
     7
  6
CONTINUOUS
  0
LAYER
  2
SAPA_ARTIKELNR
 70
     0
 62
     4
  6
CONTINUOUS
  0
LAYER
  2
SAPA_LIGHT
 70
     1
 62
     1
  6
CONTINUOUS
  0
LAYER
  2
SAPA_ISOLATOR
 70
     0
 62
     4
  6
CONTINUOUS
  0
LAYER
  2
SAPA_MATT
 70
     0
 62
     1
  6
CONTINUOUS
  0
LAYER
  2
SAPA_GLAS
 70
     0
 62
     4
  6
CONTINUOUS
  0
LAYER
  2
SAPA_FOGBAND
 70
     0
 62
     2
  6
CONTINUOUS
  0
LAYER
  2
SAPA_PROFIL
 70
     0
 62
     7
  6
CONTINUOUS
  0
ENDTAB
  0
TABLE
  2
STYLE
 70
    56
  0
STYLE
  2
STANDARD
 70
     0
 40
0.0
 41
1.0
 50
0.0
 71
     0
 42
0.2
  3
txt
  4

  0
STYLE
  2
ISO
 70
     0
 40
0.0
 41
1.0
 50
0.0
 71
     0
 42
3.5
  3
txt
  4

  0
STYLE
  2

 70
     1
 40
0.0
 41
1.0
 50
0.0
 71
     0
 42
0.2
  3
ltypeshp.shx
  4

  0
STYLE
  2
BYGG-021589$0$STANDARD
 70
     0
 40
0.0
 41
1.0
 50
0.0
 71
     0
 42
0.2
  3
txt
  4

  0
STYLE
  2
BYGG-021589$0$ISO
 70
     0
 40
0.0
 41
1.0
 50
0.0
 71
     0
 42
3.5
  3
isocp3.shx
  4

  0
STYLE
  2
BYGG-01482201$0$STANDARD
 70
     0
 40
0.0
 41
1.0
 50
0.0
 71
     0
 42
0.2
  3
txt
  4

  0
STYLE
  2
BYGG-01482201$0$ISO
 70
     0
 40
0.0
 41
1.0
 50
0.0
 71
     0
 42
3.5
  3
isocp3.shx
  4

  0
STYLE
  2
BYGG-021802$0$STANDARD
 70
     0
 40
0.0
 41
1.0
 50
0.0
 71
     0
 42
0.2
  3
txt
  4

  0
STYLE
  2
BYGG-021802$0$ISO
 70
     0
 40
0.0
 41
1.0
 50
0.0
 71
     0
 42
3.5
  3
isocp3.shx
  4

  0
STYLE
  2
BYGG-014357$0$STANDARD
 70
     0
 40
0.0
 41
1.0
 50
0.0
 71
     0
 42
0.2
  3
txt
  4

  0
STYLE
  2
BYGG-014357$0$ISO
 70
     0
 40
0.0
 41
1.0
 50
0.0
 71
     0
 42
3.5
  3
isocp3.shx
  4

  0
STYLE
  2
BYGG-014063$0$STANDARD
 70
     0
 40
0.0
 41
1.0
 50
0.0
 71
     0
 42
0.2
  3
txt
  4

  0
STYLE
  2
BYGG-014063$0$ISO
 70
     0
 40
0.0
 41
1.0
 50
0.0
 71
     0
 42
3.5
  3
isocp3.shx
  4

  0
STYLE
  2
BYGG-021582$0$STANDARD
 70
     0
 40
0.0
 41
1.0
 50
0.0
 71
     0
 42
0.2
  3
txt
  4

  0
STYLE
  2
BYGG-021582$0$ISO
 70
     0
 40
0.0
 41
1.0
 50
0.0
 71
     0
 42
3.5
  3
isocp3.shx
  4

  0
STYLE
  2
BYGG-014279$0$STANDARD
 70
     0
 40
0.0
 41
1.0
 50
0.0
 71
     0
 42
0.2
  3
TXT.shx
  4

  0
STYLE
  2
BYGG-014279$0$ISO
 70
     0
 40
0.0
 41
1.0
 50
0.0
 71
     0
 42
3.5
  3
iso
  4

  0
STYLE
  2
BYGG-022668$0$STANDARD
 70
     0
 40
0.0
 41
1.0
 50
0.0
 71
     0
 42
0.2
  3
txt
  4

  0
STYLE
  2
BYGG-022668$0$ISO
 70
     0
 40
0.0
 41
1.0
 50
0.0
 71
     0
 42
3.5
  3
txt
  4

  0
STYLE
  2
BYGG-035833$0$STANDARD
 70
     0
 40
0.0
 41
1.0
 50
0.0
 71
     0
 42
0.2
  3
txt
  4

  0
STYLE
  2
BYGG-035833$0$ISO
 70
     0
 40
0.0
 41
1.0
 50
0.0
 71
     0
 42
3.5
  3
txt
  4

  0
STYLE
  2
BYGG-028980$0$STANDARD
 70
     0
 40
0.0
 41
1.0
 50
0.0
 71
     0
 42
0.2
  3
txt
  4

  0
STYLE
  2
BYGG-028980$0$ISO
 70
     0
 40
0.0
 41
1.0
 50
0.0
 71
     0
 42
3.5
  3
txt
  4

  0
STYLE
  2
BYGG-008055$0$STANDARD
 70
     0
 40
0.0
 41
1.0
 50
0.0
 71
     0
 42
0.2
  3
txt
  4

  0
STYLE
  2
BYGG-008055$0$ISO
 70
     0
 40
0.0
 41
1.0
 50
0.0
 71
     0
 42
3.5
  3
txt
  4

  0
STYLE
  2
BYGG-01409101$0$STANDARD
 70
     0
 40
0.0
 41
1.0
 50
0.0
 71
     0
 42
0.4
  3
txt
  4

  0
STYLE
  2
BYGG-01409101$0$SIMPLEX
 70
     0
 40
0.0
 41
1.0
 50
0.0
 71
     0
 42
0.2
  3
simplex
  4

  0
STYLE
  2
BYGG-020805$0$STANDARD
 70
     0
 40
0.0
 41
1.0
 50
0.0
 71
     0
 42
0.2
  3
txt
  4

  0
STYLE
  2
BYGG-020805$0$ISO
 70
     0
 40
0.0
 41
1.0
 50
0.0
 71
     0
 42
3.5
  3
txt
  4

  0
STYLE
  2
BYGG-026410$0$STANDARD
 70
     0
 40
0.0
 41
1.0
 50
0.0
 71
     0
 42
0.2
  3
txt
  4

  0
STYLE
  2
BYGG-026410$0$ISO
 70
     0
 40
0.0
 41
1.0
 50
0.0
 71
     0
 42
3.5
  3
txt
  4

  0
STYLE
  2
BYGG-033167$0$STANDARD
 70
     0
 40
0.0
 41
1.0
 50
0.0
 71
     0
 42
0.2
  3
txt
  4

  0
STYLE
  2
BYGG-033167$0$ISO
 70
     0
 40
0.0
 41
1.0
 50
0.0
 71
     0
 42
3.5
  3
txt
  4

  0
STYLE
  2
BYGG-033167$0$BYGG-020132$
 70
     0
 40
0.0
 41
1.0
 50
0.0
 71
     0
 42
3.5
  3
txt
  4

  0
STYLE
  2
BYGG-033167$0$BYGG-024943$
 70
     0
 40
0.0
 41
1.0
 50
0.0
 71
     0
 42
3.5
  3
txt
  4

  0
STYLE
  2
BYGG-035836$0$STANDARD
 70
     0
 40
0.0
 41
1.0
 50
0.0
 71
     0
 42
0.2
  3
txt
  4

  0
STYLE
  2
BYGG-035836$0$ISO
 70
     0
 40
0.0
 41
1.0
 50
0.0
 71
     0
 42
3.5
  3
txt
  4

  0
STYLE
  2
BYGG-024754$0$STANDARD
 70
     0
 40
0.0
 41
1.0
 50
0.0
 71
     0
 42
0.2
  3
txt
  4

  0
STYLE
  2
BYGG-024754$0$ISO
 70
     0
 40
0.0
 41
1.0
 50
0.0
 71
     0
 42
3.5
  3
txt
  4

  0
STYLE
  2
BYGG-035883$0$STANDARD
 70
     0
 40
0.0
 41
1.0
 50
0.0
 71
     0
 42
0.2
  3
txt
  4

  0
STYLE
  2
BYGG-025652$0$STANDARD
 70
     0
 40
0.0
 41
1.0
 50
0.0
 71
     0
 42
0.2
  3
txt
  4

  0
STYLE
  2
BYGG-025652$0$ISO
 70
     0
 40
0.0
 41
1.0
 50
0.0
 71
     0
 42
3.5
  3
txt
  4

  0
STYLE
  2
BYGG-025652$0$ANNOTATIVE
 70
     0
 40
0.0
 41
1.0
 50
0.0
 71
     0
 42
0.2
  3
txt
  4

  0
STYLE
  2
BYGG-014411$0$STANDARD
 70
     0
 40
0.0
 41
1.0
 50
0.0
 71
     0
 42
0.2
  3
txt
  4

  0
STYLE
  2
BYGG-014411$0$ISO
 70
     0
 40
0.0
 41
1.0
 50
0.0
 71
     0
 42
3.5
  3
isocp3.shx
  4

  0
STYLE
  2
BYGG-014090$0$STANDARD
 70
     0
 40
0.0
 41
1.0
 50
0.0
 71
     0
 42
0.2
  3
txt
  4

  0
STYLE
  2
BYGG-014090$0$SIMPLEX
 70
     0
 40
0.0
 41
1.0
 50
0.0
 71
     0
 42
0.2
  3
simplex
  4

  0
STYLE
  2
BYGG-014088$0$STANDARD
 70
     0
 40
0.0
 41
1.0
 50
0.0
 71
     0
 42
0.4
  3
txt
  4

  0
STYLE
  2
BYGG-035260$0$STANDARD
 70
     0
 40
0.0
 41
1.0
 50
0.0
 71
     0
 42
0.2
  3
txt
  4

  0
STYLE
  2
BYGG-035260$0$ISO
 70
     0
 40
0.0
 41
1.0
 50
0.0
 71
     0
 42
3.5
  3
txt
  4

  0
STYLE
  2
BYGG-024788$0$STANDARD
 70
     0
 40
0.0
 41
1.0
 50
0.0
 71
     0
 42
0.2
  3
txt
  4

  0
STYLE
  2
BYGG-024788$0$ISO
 70
     0
 40
0.0
 41
1.0
 50
0.0
 71
     0
 42
3.5
  3
txt
  4

  0
STYLE
  2
BYGG-024789$0$STANDARD
 70
     0
 40
0.0
 41
1.0
 50
0.0
 71
     0
 42
0.2
  3
txt
  4

  0
STYLE
  2
BYGG-024789$0$ISO
 70
     0
 40
0.0
 41
1.0
 50
0.0
 71
     0
 42
3.5
  3
txt
  4

  0
STYLE
  2
BYGG-012215$0$STANDARD
 70
     0
 40
0.0
 41
1.0
 50
0.0
 71
     0
 42
0.2
  3
txt
  4

  0
STYLE
  2
BYGG-012215$0$ISO
 70
     0
 40
0.0
 41
1.0
 50
0.0
 71
     0
 42
3.5
  3
isocp.shx
  4

  0
ENDTAB
  0
TABLE
  2
VIEW
 70
     0
  0
ENDTAB
  0
TABLE
  2
UCS
 70
     0
  0
ENDTAB
  0
TABLE
  2
APPID
 70
    38
  0
APPID
  2
ACAD
 70
     0
  0
APPID
  2
ACAD_DSTYLE_DIMTEXT_FILL
 70
     0
  0
APPID
  2
ACAD_DSTYLE_DIMEXT_LENGTH
 70
     0
  0
APPID
  2
ACAD_DSTYLE_DIMEXT_ENABLED
 70
     0
  0
APPID
  2
ACAD_DSTYLE_DIM_LINETYPE
 70
     0
  0
APPID
  2
ACAD_DSTYLE_DIM_EXT1_LINETYPE
 70
     0
  0
APPID
  2
ACAD_DSTYLE_DIM_EXT2_LINETYPE
 70
     0
  0
APPID
  2
ACAD_DSTYLE_DIMJOGGED_JOGA
 70
     0
  0
APPID
  2
ACAD_DSTYLE_DIMARC_LENGTH_
 70
     0
  0
APPID
  2
ACAD_PSEXT
 70
     0
  0
APPID
  2
ACAD_MLEADERVER
 70
     0
  0
APPID
  2
AMG_ARCHIVE11
 70
     0
  0
APPID
  2
ACAD_EXEMPT_FROM_CAD_STANDARDS
 70
     0
  0
APPID
  2
ACADANNOTATIVE
 70
     0
  0
APPID
  2
ACAECLAYERSTANDARD
 70
     0
  0
APPID
  2
DCO15
 70
     0
  0
APPID
  2
ACDBDYNAMICBLOCKGUID
 70
     0
  0
APPID
  2
ACDBBLOCKREPETAG
 70
     0
  0
APPID
  2
AME_SOL
 70
     0
  0
APPID
  2
CONTENTTABDATA
 70
     0
  0
APPID
  2
CONTENTCURRENTTAB
 70
     0
  0
APPID
  2
GENIUS_GENODEF_13
 70
     0
  0
APPID
  2
GENIUS_GENTRA_14
 70
     0
  0
APPID
  2
GENIUS_GENOLIS_13
 70
     0
  0
APPID
  2
GENIUS_GENOENT_13
 70
     0
  0
APPID
  2
GENIUS_GENOBJ-N-TIT_13
 70
     0
  0
APPID
  2
GENIUS_GENTITLE_13
 70
     0
  0
APPID
  2
GENIUS_GENOREF_13
 70
     0
  0
APPID
  2
GENIUS_GENSCREG_15
 70
     0
  0
APPID
  2
GENIUS_GENOBJ-N-SDF_13
 70
     0
  0
APPID
  2
GENIUS_GENOBJ-N-CRS_13
 70
     0
  0
APPID
  2
ACAUTHENVIRON
 70
     0
  0
APPID
  2
ACDBDYNAMICBLOCKTRUENAME
 70
     0
  0
APPID
  2
ACAD_NAV_VCDISPLAY
 70
     0
  0
APPID
  2
ACAD_DSTYLE_DIMRADIAL_EXTENSION
 70
     0
  0
APPID
  2
ACAD_OBJECT_CHANGE_GUID
 70
     0
  0
APPID
  2
ACCMTRANSPARENCY
 70
     0
  0
APPID
  2
AEC_XDATA_BOUND_SPACE
 70
     0
  0
ENDTAB
  0
TABLE
  2
DIMSTYLE
 70
    52
  0
DIMSTYLE
  2
STANDARD
 70
     0
  3

  4

  5

  6

  7

 40
1.0
 41
0.18
 42
0.0625
 43
0.38
 44
0.18
 45
0.0
 46
0.0
 47
0.0
 48
0.0
140
0.18
141
0.09
142
0.0
143
25.399999999999999
144
1.0
145
0.0
146
1.0
147
0.09
 71
     0
 72
     0
 73
     1
 74
     1
 75
     0
 76
     0
 77
     0
 78
     0
170
     0
171
     2
172
     0
173
     0
174
     0
175
     0
176
     0
177
     0
178
     0
  0
DIMSTYLE
  2
MASKIN
 70
     0
  3

  4

  5

  6

  7

 40
0.0
 41
3.0
 42
1.5
 43
10.0
 44
1.5
 45
0.0
 46
0.0
 47
0.0
 48
0.0
140
3.0
141
-5.0
142
0.0
143
25.399999999999999
144
-1.0
145
0.0
146
1.0
147
1.0
 71
     0
 72
     0
 73
     0
 74
     0
 75
     0
 76
     0
 77
     1
 78
     8
170
     0
171
     0
172
     1
173
     0
174
     0
175
     0
176
   256
177
   256
178
     2
  0
DIMSTYLE
  2
BYGG-021589$0$MASKIN
 70
     0
  3

  4

  5

  6

  7

 40
0.0
 41
3.0
 42
1.5
 43
10.0
 44
1.5
 45
0.0
 46
0.0
 47
0.0
 48
0.0
140
3.0
141
-5.0
142
0.0
143
25.399999999999999
144
-1.0
145
0.0
146
1.0
147
1.0
 71
     0
 72
     0
 73
     0
 74
     0
 75
     0
 76
     0
 77
     1
 78
     8
170
     0
171
     0
172
     1
173
     0
174
     0
175
     0
176
   256
177
   256
178
   256
  0
DIMSTYLE
  2
BYGG-01482201$0$STANDARD
 70
     0
  3

  4

  5

  6

  7

 40
1.0
 41
0.18
 42
0.0625
 43
0.38
 44
0.18
 45
0.0
 46
0.0
 47
0.0
 48
0.0
140
0.18
141
0.09
142
0.0
143
25.399999999999999
144
1.0
145
0.0
146
1.0
147
0.09
 71
     0
 72
     0
 73
     1
 74
     1
 75
     0
 76
     0
 77
     0
 78
     0
170
     0
171
     2
172
     0
173
     0
174
     0
175
     0
176
     0
177
     0
178
     0
  0
DIMSTYLE
  2
BYGG-01482201$0$MASKIN
 70
     0
  3

  4

  5

  6

  7

 40
0.0
 41
3.0
 42
1.5
 43
10.0
 44
1.5
 45
0.0
 46
0.0
 47
0.0
 48
0.0
140
3.0
141
-5.0
142
0.0
143
25.399999999999999
144
-1.0
145
0.0
146
1.0
147
1.0
 71
     0
 72
     0
 73
     0
 74
     1
 75
     0
 76
     0
 77
     1
 78
     8
170
     0
171
     0
172
     1
173
     0
174
     0
175
     0
176
   256
177
   256
178
     2
  0
DIMSTYLE
  2
BYGG-021802$0$MASKIN
 70
     0
  3

  4

  5

  6

  7

 40
0.0
 41
3.0
 42
1.5
 43
10.0
 44
1.5
 45
0.0
 46
0.0
 47
0.0
 48
0.0
140
3.0
141
-5.0
142
0.0
143
25.399999999999999
144
-1.0
145
0.0
146
1.0
147
1.0
 71
     0
 72
     0
 73
     0
 74
     0
 75
     0
 76
     0
 77
     1
 78
     8
170
     0
171
     0
172
     1
173
     0
174
     0
175
     0
176
   256
177
   256
178
   256
  0
DIMSTYLE
  2
BYGG-014357$0$MASKIN
 70
     0
  3

  4

  5

  6

  7

 40
0.0
 41
3.0
 42
1.5
 43
10.0
 44
1.5
 45
0.0
 46
0.0
 47
0.0
 48
0.0
140
3.0
141
-5.0
142
0.0
143
25.399999999999999
144
-1.0
145
0.0
146
1.0
147
1.0
 71
     0
 72
     0
 73
     0
 74
     0
 75
     0
 76
     0
 77
     1
 78
     8
170
     0
171
     0
172
     1
173
     0
174
     0
175
     0
176
   256
177
   256
178
   256
  0
DIMSTYLE
  2
BYGG-014357$0$MASKIN1
 70
     0
  3

  4

  5

  6

  7

 40
1.0
 41
3.0
 42
1.5
 43
10.0
 44
1.5
 45
0.0
 46
0.0
 47
0.0
 48
0.0
140
3.0
141
-5.0
142
0.0
143
25.399999999999999
144
1.0
145
0.0
146
1.0
147
0.9
 71
     0
 72
     0
 73
     0
 74
     0
 75
     0
 76
     0
 77
     1
 78
     8
170
     0
171
     0
172
     1
173
     0
174
     0
175
     0
176
   256
177
   256
178
   256
  0
DIMSTYLE
  2
BYGG-014357$0$MASKIN2
 70
     0
  3

  4

  5

  6

  7

 40
1.0
 41
3.0
 42
1.5
 43
10.0
 44
1.5
 45
0.0
 46
0.0
 47
0.0
 48
0.0
140
3.0
141
-5.0
142
0.0
143
25.399999999999999
144
1.0
145
0.0
146
1.0
147
0.9
 71
     0
 72
     0
 73
     0
 74
     0
 75
     0
 76
     0
 77
     1
 78
     8
170
     0
171
     0
172
     1
173
     0
174
     0
175
     0
176
   256
177
   256
178
   256
  0
DIMSTYLE
  2
BYGG-014357$0$MASKIN3
 70
     0
  3

  4

  5

  6

  7

 40
1.0
 41
3.0
 42
1.5
 43
10.0
 44
1.5
 45
0.0
 46
0.0
 47
0.0
 48
0.0
140
3.0
141
-5.0
142
0.0
143
25.399999999999999
144
1.0
145
0.0
146
1.0
147
0.9
 71
     0
 72
     0
 73
     0
 74
     0
 75
     0
 76
     0
 77
     1
 78
     8
170
     0
171
     0
172
     1
173
     0
174
     0
175
     0
176
   256
177
   256
178
   256
  0
DIMSTYLE
  2
BYGG-014357$0$DMST_1
 70
     0
  3

  4

  5

  6

  7

 40
1.0
 41
0.7000000000000002
 42
0.0
 43
7.0
 44
0.4
 45
0.0
 46
0.0
 47
0.15
 48
0.15
140
0.7000000000000002
141
0.0
142
0.0
143
25.399999999999999
144
1.0
145
0.0
146
0.7
147
0.09
 71
     1
 72
     0
 73
     0
 74
     0
 75
     0
 76
     0
 77
     1
 78
     9
170
     0
171
     2
172
     0
173
     0
174
     0
175
     0
176
     1
177
     1
178
     2
  0
DIMSTYLE
  2
BYGG-014063$0$MASKIN
 70
     0
  3

  4

  5

  6

  7

 40
0.0
 41
3.0
 42
1.5
 43
10.0
 44
1.5
 45
0.0
 46
0.0
 47
0.0
 48
0.0
140
3.0
141
-5.0
142
0.0
143
25.399999999999999
144
-1.0
145
0.0
146
1.0
147
1.0
 71
     0
 72
     0
 73
     0
 74
     0
 75
     0
 76
     0
 77
     1
 78
     8
170
     0
171
     0
172
     1
173
     0
174
     0
175
     0
176
   256
177
   256
178
   256
  0
DIMSTYLE
  2
BYGG-014063$0$STANDARD
 70
     0
  3

  4

  5

  6

  7

 40
1.0
 41
0.18
 42
0.0625
 43
0.38
 44
0.18
 45
0.0
 46
0.0
 47
0.0
 48
0.0
140
0.18
141
0.09
142
0.0
143
25.399999999999999
144
1.0
145
0.0
146
1.0
147
0.09
 71
     0
 72
     0
 73
     1
 74
     1
 75
     0
 76
     0
 77
     0
 78
     0
170
     0
171
     2
172
     0
173
     0
174
     0
175
     0
176
     0
177
     0
178
     0
  0
DIMSTYLE
  2
BYGG-021582$0$MASKIN
 70
     0
  3

  4

  5

  6

  7

 40
0.0
 41
3.0
 42
1.5
 43
10.0
 44
1.5
 45
0.0
 46
0.0
 47
0.0
 48
0.0
140
3.0
141
-5.0
142
0.0
143
25.399999999999999
144
-1.0
145
0.0
146
1.0
147
1.0
 71
     0
 72
     0
 73
     0
 74
     0
 75
     0
 76
     0
 77
     1
 78
     8
170
     0
171
     0
172
     1
173
     0
174
     0
175
     0
176
   256
177
   256
178
   256
  0
DIMSTYLE
  2
BYGG-014279$0$STANDARD
 70
     0
  3

  4

  5

  6

  7

 40
1.0
 41
0.18
 42
0.0625
 43
0.38
 44
0.18
 45
0.0
 46
0.0
 47
0.0
 48
0.0
140
0.18
141
0.09
142
0.0
143
25.399999999999999
144
1.0
145
0.0
146
1.0
147
0.09
 71
     0
 72
     0
 73
     1
 74
     1
 75
     0
 76
     0
 77
     0
 78
     0
170
     0
171
     2
172
     0
173
     0
174
     0
175
     0
176
     0
177
     0
178
     0
  0
DIMSTYLE
  2
BYGG-014279$0$MASKIN
 70
     0
  3

  4

  5

  6

  7

 40
0.0
 41
3.0
 42
1.5
 43
10.0
 44
1.5
 45
0.0
 46
0.0
 47
0.0
 48
0.0
140
3.0
141
-5.0
142
0.0
143
25.399999999999999
144
-1.0
145
0.0
146
1.0
147
1.0
 71
     0
 72
     0
 73
     0
 74
     1
 75
     0
 76
     0
 77
     1
 78
     8
170
     0
171
     0
172
     1
173
     0
174
     0
175
     0
176
   256
177
   256
178
     2
  0
DIMSTYLE
  2
BYGG-022668$0$STANDARD
 70
     0
  3

  4

  5

  6

  7

 40
1.0
 41
0.18
 42
0.0625
 43
0.38
 44
0.18
 45
0.0
 46
0.0
 47
0.0
 48
0.0
140
0.18
141
0.09
142
0.0
143
25.399999999999999
144
1.0
145
0.0
146
1.0
147
0.09
 71
     0
 72
     0
 73
     1
 74
     1
 75
     0
 76
     0
 77
     0
 78
     0
170
     0
171
     2
172
     0
173
     0
174
     0
175
     0
176
     0
177
     0
178
     0
  0
DIMSTYLE
  2
BYGG-022668$0$MASKIN
 70
     0
  3

  4

  5

  6

  7

 40
0.0
 41
3.0
 42
1.5
 43
10.0
 44
1.5
 45
0.0
 46
0.0
 47
0.0
 48
0.0
140
3.0
141
-5.0
142
0.0
143
25.399999999999999
144
-1.0
145
0.0
146
1.0
147
1.0
 71
     0
 72
     0
 73
     0
 74
     0
 75
     0
 76
     0
 77
     1
 78
     8
170
     0
171
     0
172
     1
173
     0
174
     0
175
     0
176
   256
177
   256
178
     2
  0
DIMSTYLE
  2
BYGG-035833$0$STANDARD
 70
     0
  3

  4

  5

  6

  7

 40
1.0
 41
0.18
 42
0.0625
 43
0.38
 44
0.18
 45
0.0
 46
0.0
 47
0.0
 48
0.0
140
0.18
141
0.09
142
0.0
143
25.399999999999999
144
1.0
145
0.0
146
1.0
147
0.09
 71
     0
 72
     0
 73
     1
 74
     1
 75
     0
 76
     0
 77
     0
 78
     0
170
     0
171
     2
172
     0
173
     0
174
     0
175
     0
176
     0
177
     0
178
     0
  0
DIMSTYLE
  2
BYGG-035833$0$MASKIN
 70
     0
  3

  4

  5

  6

  7

 40
0.0
 41
3.0
 42
1.5
 43
10.0
 44
1.5
 45
0.0
 46
0.0
 47
0.0
 48
0.0
140
3.0
141
-5.0
142
0.0
143
25.399999999999999
144
-1.0
145
0.0
146
1.0
147
1.0
 71
     0
 72
     0
 73
     0
 74
     0
 75
     0
 76
     0
 77
     1
 78
     8
170
     0
171
     0
172
     1
173
     0
174
     0
175
     0
176
   256
177
   256
178
     2
  0
DIMSTYLE
  2
BYGG-028980$0$STANDARD
 70
     0
  3

  4

  5

  6

  7

 40
1.0
 41
0.18
 42
0.0625
 43
0.38
 44
0.18
 45
0.0
 46
0.0
 47
0.0
 48
0.0
140
0.18
141
0.09
142
0.0
143
25.399999999999999
144
1.0
145
0.0
146
1.0
147
0.09
 71
     0
 72
     0
 73
     1
 74
     1
 75
     0
 76
     0
 77
     0
 78
     0
170
     0
171
     2
172
     0
173
     0
174
     0
175
     0
176
     0
177
     0
178
     0
  0
DIMSTYLE
  2
BYGG-028980$0$MASKIN
 70
     0
  3

  4

  5

  6

  7

 40
0.0
 41
3.0
 42
1.5
 43
10.0
 44
1.5
 45
0.0
 46
0.0
 47
0.0
 48
0.0
140
3.0
141
-5.0
142
0.0
143
25.399999999999999
144
-1.0
145
0.0
146
1.0
147
1.0
 71
     0
 72
     0
 73
     0
 74
     0
 75
     0
 76
     0
 77
     1
 78
     8
170
     0
171
     0
172
     1
173
     0
174
     0
175
     0
176
   256
177
   256
178
     2
  0
DIMSTYLE
  2
BYGG-008055$0$STANDARD
 70
     0
  3

  4

  5

  6

  7

 40
1.0
 41
0.18
 42
0.0625
 43
0.38
 44
0.18
 45
0.0
 46
0.0
 47
0.0
 48
0.0
140
0.18
141
0.09
142
0.0
143
25.399999999999999
144
1.0
145
0.0
146
1.0
147
0.09
 71
     0
 72
     0
 73
     1
 74
     1
 75
     0
 76
     0
 77
     0
 78
     0
170
     0
171
     2
172
     0
173
     0
174
     0
175
     0
176
     0
177
     0
178
     0
  0
DIMSTYLE
  2
BYGG-008055$0$MASKIN
 70
     0
  3

  4

  5

  6

  7

 40
0.0
 41
3.0
 42
1.5
 43
10.0
 44
1.5
 45
0.0
 46
0.0
 47
0.0
 48
0.0
140
3.0
141
-5.0
142
0.0
143
25.399999999999999
144
-1.0
145
0.0
146
1.0
147
1.0
 71
     0
 72
     0
 73
     0
 74
     0
 75
     0
 76
     0
 77
     1
 78
     8
170
     0
171
     0
172
     1
173
     0
174
     0
175
     0
176
   256
177
   256
178
     2
  0
DIMSTYLE
  2
BYGG-01409101$0$STANDARD
 70
     0
  3

  4

  5

  6

  7

 40
1.0
 41
0.18
 42
0.0625
 43
0.38
 44
0.18
 45
0.0
 46
0.0
 47
0.0
 48
0.0
140
0.18
141
0.09
142
0.0
143
25.399999999999999
144
1.0
145
0.0
146
1.0
147
0.09
 71
     0
 72
     0
 73
     1
 74
     1
 75
     0
 76
     0
 77
     0
 78
     0
170
     0
171
     2
172
     0
173
     0
174
     0
175
     0
176
     0
177
     0
178
     0
  0
DIMSTYLE
  2
BYGG-020805$0$STANDARD
 70
     0
  3

  4

  5

  6

  7

 40
1.0
 41
0.18
 42
0.0625
 43
0.38
 44
0.18
 45
0.0
 46
0.0
 47
0.0
 48
0.0
140
0.18
141
0.09
142
0.0
143
25.399999999999999
144
1.0
145
0.0
146
1.0
147
0.09
 71
     0
 72
     0
 73
     1
 74
     1
 75
     0
 76
     0
 77
     0
 78
     0
170
     0
171
     2
172
     0
173
     0
174
     0
175
     0
176
     0
177
     0
178
     0
  0
DIMSTYLE
  2
BYGG-020805$0$MASKIN
 70
     0
  3

  4

  5

  6

  7

 40
0.0
 41
3.0
 42
1.5
 43
10.0
 44
1.5
 45
0.0
 46
0.0
 47
0.0
 48
0.0
140
3.0
141
-5.0
142
0.0
143
25.399999999999999
144
-1.0
145
0.0
146
1.0
147
1.0
 71
     0
 72
     0
 73
     0
 74
     0
 75
     0
 76
     0
 77
     1
 78
     8
170
     0
171
     0
172
     1
173
     0
174
     0
175
     0
176
   256
177
   256
178
     2
  0
DIMSTYLE
  2
BYGG-026410$0$STANDARD
 70
     0
  3

  4

  5

  6

  7

 40
1.0
 41
0.18
 42
0.0625
 43
0.38
 44
0.18
 45
0.0
 46
0.0
 47
0.0
 48
0.0
140
0.18
141
0.09
142
0.0
143
25.399999999999999
144
1.0
145
0.0
146
1.0
147
0.09
 71
     0
 72
     0
 73
     1
 74
     1
 75
     0
 76
     0
 77
     0
 78
     0
170
     0
171
     2
172
     0
173
     0
174
     0
175
     0
176
     0
177
     0
178
     0
  0
DIMSTYLE
  2
BYGG-026410$0$MASKIN
 70
     0
  3

  4

  5

  6

  7

 40
0.0
 41
3.0
 42
1.5
 43
10.0
 44
1.5
 45
0.0
 46
0.0
 47
0.0
 48
0.0
140
3.0
141
-5.0
142
0.0
143
25.399999999999999
144
-1.0
145
0.0
146
1.0
147
1.0
 71
     0
 72
     0
 73
     0
 74
     0
 75
     0
 76
     0
 77
     1
 78
     8
170
     0
171
     0
172
     1
173
     0
174
     0
175
     0
176
   256
177
   256
178
     2
  0
DIMSTYLE
  2
BYGG-033167$0$STANDARD
 70
     0
  3

  4

  5

  6

  7

 40
1.0
 41
0.18
 42
0.0625
 43
0.38
 44
0.18
 45
0.0
 46
0.0
 47
0.0
 48
0.0
140
0.18
141
0.09
142
0.0
143
25.399999999999999
144
1.0
145
0.0
146
1.0
147
0.09
 71
     0
 72
     0
 73
     1
 74
     1
 75
     0
 76
     0
 77
     0
 78
     0
170
     0
171
     2
172
     0
173
     0
174
     0
175
     0
176
     0
177
     0
178
     0
  0
DIMSTYLE
  2
BYGG-033167$0$MASKIN
 70
     0
  3

  4

  5

  6

  7

 40
0.0
 41
3.0
 42
1.5
 43
10.0
 44
1.5
 45
0.0
 46
0.0
 47
0.0
 48
0.0
140
3.0
141
-5.0
142
0.0
143
25.399999999999999
144
-1.0
145
0.0
146
1.0
147
1.0
 71
     0
 72
     0
 73
     0
 74
     0
 75
     0
 76
     0
 77
     1
 78
     8
170
     0
171
     0
172
     1
173
     0
174
     0
175
     0
176
   256
177
   256
178
     2
  0
DIMSTYLE
  2
BYGG-033167$0$BYGG-020132$
 70
     0
  3

  4

  5

  6

  7

 40
0.0
 41
3.0
 42
1.5
 43
10.0
 44
1.5
 45
0.0
 46
0.0
 47
0.0
 48
0.0
140
3.0
141
-5.0
142
0.0
143
25.399999999999999
144
-1.0
145
0.0
146
1.0
147
1.0
 71
     0
 72
     0
 73
     0
 74
     0
 75
     0
 76
     0
 77
     1
 78
     8
170
     0
171
     0
172
     1
173
     0
174
     0
175
     0
176
   256
177
   256
178
     2
  0
DIMSTYLE
  2
BYGG-033167$0$BYGG-024943$
 70
     0
  3

  4

  5

  6

  7

 40
0.0
 41
3.0
 42
1.5
 43
10.0
 44
1.5
 45
0.0
 46
0.0
 47
0.0
 48
0.0
140
3.0
141
-5.0
142
0.0
143
25.399999999999999
144
-1.0
145
0.0
146
1.0
147
1.0
 71
     0
 72
     0
 73
     0
 74
     0
 75
     0
 76
     0
 77
     1
 78
     8
170
     0
171
     0
172
     1
173
     0
174
     0
175
     0
176
   256
177
   256
178
     2
  0
DIMSTYLE
  2
BYGG-035836$0$STANDARD
 70
     0
  3

  4

  5

  6

  7

 40
1.0
 41
0.18
 42
0.0625
 43
0.38
 44
0.18
 45
0.0
 46
0.0
 47
0.0
 48
0.0
140
0.18
141
0.09
142
0.0
143
25.399999999999999
144
1.0
145
0.0
146
1.0
147
0.09
 71
     0
 72
     0
 73
     1
 74
     1
 75
     0
 76
     0
 77
     0
 78
     0
170
     0
171
     2
172
     0
173
     0
174
     0
175
     0
176
     0
177
     0
178
     0
  0
DIMSTYLE
  2
BYGG-035836$0$MASKIN
 70
     0
  3

  4

  5

  6

  7

 40
0.0
 41
3.0
 42
1.5
 43
10.0
 44
1.5
 45
0.0
 46
0.0
 47
0.0
 48
0.0
140
3.0
141
-5.0
142
0.0
143
25.399999999999999
144
-1.0
145
0.0
146
1.0
147
1.0
 71
     0
 72
     0
 73
     0
 74
     0
 75
     0
 76
     0
 77
     1
 78
     8
170
     0
171
     0
172
     1
173
     0
174
     0
175
     0
176
   256
177
   256
178
     2
  0
DIMSTYLE
  2
BYGG-024754$0$MASKIN
 70
     0
  3

  4

  5

  6

  7

 40
0.0
 41
3.0
 42
1.5
 43
10.0
 44
1.5
 45
0.0
 46
0.0
 47
0.0
 48
0.0
140
3.0
141
-5.0
142
0.0
143
25.399999999999999
144
-1.0
145
0.0
146
1.0
147
1.0
 71
     0
 72
     0
 73
     0
 74
     0
 75
     0
 76
     0
 77
     1
 78
     8
170
     0
171
     0
172
     1
173
     0
174
     0
175
     0
176
   256
177
   256
178
     2
  0
DIMSTYLE
  2
BYGG-024754$0$STANDARD
 70
     0
  3

  4

  5

  6

  7

 40
1.0
 41
0.18
 42
0.0625
 43
0.38
 44
0.18
 45
0.0
 46
0.0
 47
0.0
 48
0.0
140
0.18
141
0.09
142
0.0
143
25.399999999999999
144
1.0
145
0.0
146
1.0
147
0.09
 71
     0
 72
     0
 73
     1
 74
     1
 75
     0
 76
     0
 77
     0
 78
     0
170
     0
171
     2
172
     0
173
     0
174
     0
175
     0
176
     0
177
     0
178
     0
  0
DIMSTYLE
  2
BYGG-035883$0$STANDARD
 70
     0
  3

  4

  5

  6

  7

 40
1.0
 41
0.18
 42
0.0625
 43
0.38
 44
0.18
 45
0.0
 46
0.0
 47
0.0
 48
0.0
140
0.18
141
0.09
142
0.0
143
25.399999999999999
144
1.0
145
0.0
146
1.0
147
0.09
 71
     0
 72
     0
 73
     1
 74
     1
 75
     0
 76
     0
 77
     0
 78
     0
170
     0
171
     2
172
     0
173
     0
174
     0
175
     0
176
     0
177
     0
178
     0
  0
DIMSTYLE
  2
BYGG-025652$0$STANDARD
 70
     0
  3

  4

  5

  6

  7

 40
1.0
 41
0.18
 42
0.0625
 43
0.38
 44
0.18
 45
0.0
 46
0.0
 47
0.0
 48
0.0
140
0.18
141
0.09
142
0.0
143
25.399999999999999
144
1.0
145
0.0
146
1.0
147
0.09
 71
     0
 72
     0
 73
     1
 74
     1
 75
     0
 76
     0
 77
     0
 78
     0
170
     0
171
     2
172
     0
173
     0
174
     0
175
     0
176
     0
177
     0
178
     0
  0
DIMSTYLE
  2
BYGG-025652$0$MASKIN
 70
     0
  3

  4

  5

  6

  7

 40
0.0
 41
3.0
 42
1.5
 43
10.0
 44
1.5
 45
0.0
 46
0.0
 47
0.0
 48
0.0
140
3.0
141
-5.0
142
0.0
143
25.399999999999999
144
-1.0
145
0.0
146
1.0
147
1.0
 71
     0
 72
     0
 73
     0
 74
     0
 75
     0
 76
     0
 77
     1
 78
     8
170
     0
171
     0
172
     1
173
     0
174
     0
175
     0
176
   256
177
   256
178
     2
  0
DIMSTYLE
  2
BYGG-025652$0$ANNOTATIVE
 70
     0
  3

  4

  5

  6

  7

 40
1.0
 41
0.18
 42
0.0625
 43
0.38
 44
0.18
 45
0.0
 46
0.0
 47
0.0
 48
0.0
140
0.18
141
0.09
142
0.0
143
25.399999999999999
144
1.0
145
0.0
146
1.0
147
0.09
 71
     0
 72
     0
 73
     1
 74
     1
 75
     0
 76
     0
 77
     0
 78
     0
170
     0
171
     2
172
     0
173
     0
174
     0
175
     0
176
     0
177
     0
178
     0
  0
DIMSTYLE
  2
BYGG-014411$0$MASKIN
 70
     0
  3

  4

  5

  6

  7

 40
0.0
 41
3.0
 42
1.5
 43
10.0
 44
1.5
 45
0.0
 46
0.0
 47
0.0
 48
0.0
140
3.0
141
-5.0
142
0.0
143
25.399999999999999
144
-1.0
145
0.0
146
1.0
147
1.0
 71
     0
 72
     0
 73
     0
 74
     0
 75
     0
 76
     0
 77
     1
 78
     8
170
     0
171
     0
172
     1
173
     0
174
     0
175
     0
176
   256
177
   256
178
   256
  0
DIMSTYLE
  2
BYGG-014411$0$STANDARD
 70
     0
  3

  4

  5

  6

  7

 40
1.0
 41
0.18
 42
0.0625
 43
0.38
 44
0.18
 45
0.0
 46
0.0
 47
0.0
 48
0.0
140
0.18
141
0.09
142
0.0
143
25.399999999999999
144
1.0
145
0.0
146
1.0
147
0.09
 71
     0
 72
     0
 73
     1
 74
     1
 75
     0
 76
     0
 77
     0
 78
     0
170
     0
171
     2
172
     0
173
     0
174
     0
175
     0
176
     0
177
     0
178
     0
  0
DIMSTYLE
  2
BYGG-014090$0$STANDARD
 70
     0
  3

  4

  5

  6

  7

 40
1.0
 41
0.18
 42
0.0625
 43
0.38
 44
0.18
 45
0.0
 46
0.0
 47
0.0
 48
0.0
140
0.18
141
0.09
142
0.0
143
25.399999999999999
144
1.0
145
0.0
146
1.0
147
0.09
 71
     0
 72
     0
 73
     1
 74
     1
 75
     0
 76
     0
 77
     0
 78
     0
170
     0
171
     2
172
     0
173
     0
174
     0
175
     0
176
     0
177
     0
178
     0
  0
DIMSTYLE
  2
BYGG-014088$0$STANDARD
 70
     0
  3

  4

  5

  6

  7

 40
1.0
 41
0.18
 42
0.0625
 43
0.38
 44
0.18
 45
0.0
 46
0.0
 47
0.0
 48
0.0
140
0.18
141
0.09
142
0.0
143
25.399999999999999
144
1.0
145
0.0
146
1.0
147
0.09
 71
     0
 72
     0
 73
     1
 74
     1
 75
     0
 76
     0
 77
     0
 78
     0
170
     0
171
     2
172
     0
173
     0
174
     0
175
     0
176
     0
177
     0
178
     0
  0
DIMSTYLE
  2
BYGG-035260$0$STANDARD
 70
     0
  3

  4

  5

  6

  7

 40
1.0
 41
0.18
 42
0.0625
 43
0.38
 44
0.18
 45
0.0
 46
0.0
 47
0.0
 48
0.0
140
0.18
141
0.09
142
0.0
143
25.399999999999999
144
1.0
145
0.0
146
1.0
147
0.09
 71
     0
 72
     0
 73
     1
 74
     1
 75
     0
 76
     0
 77
     0
 78
     0
170
     0
171
     2
172
     0
173
     0
174
     0
175
     0
176
     0
177
     0
178
     0
  0
DIMSTYLE
  2
BYGG-035260$0$MASKIN
 70
     0
  3

  4

  5

  6

  7

 40
0.0
 41
3.0
 42
1.5
 43
10.0
 44
1.5
 45
0.0
 46
0.0
 47
0.0
 48
0.0
140
3.0
141
-5.0
142
0.0
143
25.399999999999999
144
-1.0
145
0.0
146
1.0
147
1.0
 71
     0
 72
     0
 73
     0
 74
     0
 75
     0
 76
     0
 77
     1
 78
     8
170
     0
171
     0
172
     1
173
     0
174
     0
175
     0
176
   256
177
   256
178
     2
  0
DIMSTYLE
  2
BYGG-024788$0$MASKIN
 70
     0
  3

  4

  5

  6

  7

 40
0.0
 41
3.0
 42
1.5
 43
10.0
 44
1.5
 45
0.0
 46
0.0
 47
0.0
 48
0.0
140
3.0
141
-5.0
142
0.0
143
25.399999999999999
144
-1.0
145
0.0
146
1.0
147
1.0
 71
     0
 72
     0
 73
     0
 74
     0
 75
     0
 76
     0
 77
     1
 78
     8
170
     0
171
     0
172
     1
173
     0
174
     0
175
     0
176
   256
177
   256
178
     2
  0
DIMSTYLE
  2
BYGG-024788$0$STANDARD
 70
     0
  3

  4

  5

  6

  7

 40
1.0
 41
0.18
 42
0.0625
 43
0.38
 44
0.18
 45
0.0
 46
0.0
 47
0.0
 48
0.0
140
0.18
141
0.09
142
0.0
143
25.399999999999999
144
1.0
145
0.0
146
1.0
147
0.09
 71
     0
 72
     0
 73
     1
 74
     1
 75
     0
 76
     0
 77
     0
 78
     0
170
     0
171
     2
172
     0
173
     0
174
     0
175
     0
176
     0
177
     0
178
     0
  0
DIMSTYLE
  2
BYGG-024789$0$MASKIN
 70
     0
  3

  4

  5

  6

  7

 40
0.0
 41
3.0
 42
1.5
 43
10.0
 44
1.5
 45
0.0
 46
0.0
 47
0.0
 48
0.0
140
3.0
141
-5.0
142
0.0
143
25.399999999999999
144
-1.0
145
0.0
146
1.0
147
1.0
 71
     0
 72
     0
 73
     0
 74
     0
 75
     0
 76
     0
 77
     1
 78
     8
170
     0
171
     0
172
     1
173
     0
174
     0
175
     0
176
   256
177
   256
178
     2
  0
DIMSTYLE
  2
BYGG-024789$0$STANDARD
 70
     0
  3

  4

  5

  6

  7

 40
1.0
 41
0.18
 42
0.0625
 43
0.38
 44
0.18
 45
0.0
 46
0.0
 47
0.0
 48
0.0
140
0.18
141
0.09
142
0.0
143
25.399999999999999
144
1.0
145
0.0
146
1.0
147
0.09
 71
     0
 72
     0
 73
     1
 74
     1
 75
     0
 76
     0
 77
     0
 78
     0
170
     0
171
     2
172
     0
173
     0
174
     0
175
     0
176
     0
177
     0
178
     0
  0
DIMSTYLE
  2
BYGG-012215$0$STANDARD
 70
     0
  3

  4

  5

  6

  7

 40
1.0
 41
0.18
 42
0.0625
 43
0.38
 44
0.18
 45
0.0
 46
0.0
 47
0.0
 48
0.0
140
0.18
141
0.09
142
0.0
143
25.399999999999999
144
1.0
145
0.0
146
1.0
147
0.09
 71
     0
 72
     0
 73
     1
 74
     1
 75
     0
 76
     0
 77
     0
 78
     0
170
     0
171
     2
172
     0
173
     0
174
     0
175
     0
176
     0
177
     0
178
     0
  0
ENDTAB
  0
ENDSEC
  0
SECTION
  2
BLOCKS
  0
BLOCK
  8
0
  2
$MODEL_SPACE
 70
     0
 10
0.0
 20
0.0
 30
0.0
  3
$MODEL_SPACE
  1

  0
ENDBLK
  5
37
  8
0
  0
BLOCK
 67
     1
  8
0
  2
$PAPER_SPACE
 70
     0
 10
0.0
 20
0.0
 30
0.0
  3
$PAPER_SPACE
  1

  0
ENDBLK
  5
35
 67
     1
  8
0
  0
BLOCK
  8
0
  2
*D135
 70
     1
 10
0.0
 20
0.0
 30
0.0
  3
*D135
  1

  0
LINE
  5
19D8
  8
SAPA_MATT
 10
183.91151580918509
 20
-54.531049254314667
 30
0.0
 11
163.96444257917531
 21
-54.531049254314659
 31
0.0
  0
LINE
  5
19D9
  8
SAPA_MATT
 10
183.91151580918509
 20
-4.5310492543146657
 30
0.0
 11
163.96444257917531
 21
-4.5310492543146612
 31
0.0
  0
LINE
  5
19DA
  8
SAPA_MATT
 10
165.46444257917531
 20
-51.531049254314659
 30
0.0
 11
165.46444257917531
 21
-7.5310492543146612
 31
0.0
  0
SOLID
  5
19DB
  8
SAPA_MATT
 10
164.9644425791754
 20
-51.531049254314659
 30
0.0
 11
165.96444257917531
 21
-51.531049254314659
 31
0.0
 12
165.46444257917531
 22
-54.531049254314659
 32
0.0
 13
165.46444257917531
 23
-54.531049254314659
 33
0.0
  0
SOLID
  5
19DC
  8
SAPA_MATT
 10
164.9644425791754
 20
-7.5310492543146612
 30
0.0
 11
165.96444257917531
 21
-7.5310492543146612
 31
0.0
 12
165.46444257917531
 22
-4.5310492543146612
 32
0.0
 13
165.46444257917531
 23
-4.5310492543146612
 33
0.0
  0
INSERT
  5
19DD
  8
0
  2
*U152
 10
0.0
 20
0.0
 30
0.0
  0
POINT
  5
19DE
  8
DEFPOINTS
 62
     0
 10
185.41151580918509
 20
-54.531049254314667
 30
0.0
  0
POINT
  5
19DF
  8
DEFPOINTS
 62
     0
 10
185.41151580918509
 20
-4.5310492543146657
 30
0.0
  0
POINT
  5
19E0
  8
DEFPOINTS
 62
     0
 10
165.46444257917531
 20
-4.5310492543146612
 30
0.0
  0
ENDBLK
  5
19A4
  8
0
  0
BLOCK
  8
0
  2
*D136
 70
     1
 10
0.0
 20
0.0
 30
0.0
  3
*D136
  1

  0
LINE
  5
2BE7
  8
SAPA_MATT
 10
183.91151580918509
 20
-4.5310492543146657
 30
0.0
 11
163.96444257917531
 21
-4.5310492543146612
 31
0.0
  0
LINE
  5
2BE8
  8
SAPA_MATT
 10
200.6847407138637
 20
17.96895074572819
 30
0.0
 11
163.96444257917531
 21
17.968950745728211
 31
0.0
  0
LINE
  5
2BE9
  8
SAPA_MATT
 10
165.46444257917531
 20
-1.531049254314661
 30
0.0
 11
165.46444257917531
 21
14.968950745728201
 31
0.0
  0
SOLID
  5
2BEA
  8
SAPA_MATT
 10
164.9644425791754
 20
-1.531049254314661
 30
0.0
 11
165.96444257917531
 21
-1.531049254314661
 31
0.0
 12
165.46444257917531
 22
-4.5310492543146612
 32
0.0
 13
165.46444257917531
 23
-4.5310492543146612
 33
0.0
  0
SOLID
  5
2BEB
  8
SAPA_MATT
 10
164.9644425791754
 20
14.968950745728201
 30
0.0
 11
165.96444257917531
 21
14.968950745728201
 31
0.0
 12
165.46444257917531
 22
17.968950745728211
 32
0.0
 13
165.46444257917531
 23
17.968950745728211
 33
0.0
  0
TEXT
  8
SAPA_MATT
  40
3
  5
2BF4
  62
2
  72
0
  71
0
 10
156.964
 20
1.40895
 30
0.000000
  1
22.5
  7
ISO
  0
POINT
  5
2BED
  8
DEFPOINTS
 62
     0
 10
185.41151580918509
 20
-4.5310492543146657
 30
0.0
  0
POINT
  5
2BEE
  8
DEFPOINTS
 62
     0
 10
202.1847407138637
 20
17.96895074572819
 30
0.0
  0
POINT
  5
2BEF
  8
DEFPOINTS
 62
     0
 10
165.46444257917531
 20
17.968950745728211
 30
0.0
  0
ENDBLK
  5
19B0
  8
0
  0
BLOCK
  8
0
  2
*D137
 70
     1
 10
0.0
 20
0.0
 30
0.0
  3
*D137
  1

  0
LINE
  5
2BDE
  8
SAPA_MATT
 10
200.6847407138637
 20
17.96895074572819
 30
0.0
 11
163.96444257917531
 21
17.968950745728211
 31
0.0
  0
LINE
  5
2BDF
  8
SAPA_MATT
 10
207.2115158004961
 20
109.96895074572809
 30
0.0
 11
163.9644425791754
 21
109.96895074572809
 31
0.0
  0
LINE
  5
2BE0
  8
SAPA_MATT
 10
165.46444257917531
 20
20.968950745728211
 30
0.0
 11
165.4644425791754
 21
106.96895074572809
 31
0.0
  0
SOLID
  5
2BE1
  8
SAPA_MATT
 10
164.9644425791754
 20
20.968950745728211
 30
0.0
 11
165.96444257917531
 21
20.968950745728211
 31
0.0
 12
165.46444257917531
 22
17.968950745728211
 32
0.0
 13
165.46444257917531
 23
17.968950745728211
 33
0.0
  0
SOLID
  5
2BE2
  8
SAPA_MATT
 10
164.9644425791754
 20
106.96895074572809
 30
0.0
 11
165.9644425791754
 21
106.96895074572809
 31
0.0
 12
165.4644425791754
 22
109.96895074572809
 32
0.0
 13
165.4644425791754
 23
109.96895074572809
 33
0.0
  0
TEXT
  8
SAPA_MATT
  40
3
  5
2BF5
  62
2
  72
0
  71
0
 10
156.964
 20
58.6590
 30
0.000000
  1
92
  7
ISO
  0
POINT
  5
2BE4
  8
DEFPOINTS
 62
     0
 10
202.1847407138637
 20
17.96895074572819
 30
0.0
  0
POINT
  5
2BE5
  8
DEFPOINTS
 62
     0
 10
208.7115158004961
 20
109.96895074572809
 30
0.0
  0
POINT
  5
2BE6
  8
DEFPOINTS
 62
     0
 10
165.4644425791754
 20
109.96895074572809
 30
0.0
  0
ENDBLK
  5
19BC
  8
0
  0
BLOCK
  8
0
  2
*U138
 70
     1
 10
0.0
 20
0.0
 30
0.0
  3
*U138
  1

  0
TEXT
  5
1A8D
  8
SAPA_ARTIKELNR
 10
308.03286435669008
 20
13.95655298001796
 30
0.0
 40
3.5
  1
86053
 50
89.999999999999957
  7
ISO
  0
ENDBLK
  5
1A8F
  8
0
  0
BLOCK
  8
0
  2
*U139
 70
     1
 10
0.0
 20
0.0
 30
0.0
  3
*U139
  1

  0
TEXT
  5
1A91
  8
SAPA_ARTIKELNR
 10
301.21428678814931
 20
59.286429945895669
 30
0.0
 40
3.5
  1
86312
 50
89.999999999999986
  7
ISO
  0
ENDBLK
  5
1A93
  8
0
  0
BLOCK
  8
0
  2
*U140
 70
     1
 10
0.0
 20
0.0
 30
0.0
  3
*U140
  1

  0
TEXT
  5
1A95
  8
SAPA_ARTIKELNR
 10
300.58879562879872
 20
91.616995107928162
 30
0.0
 40
3.5
  1
42728
 50
89.999999999999986
  7
ISO
  0
ENDBLK
  5
1A97
  8
0
  0
BLOCK
  8
0
  2
*U141
 70
     1
 10
0.0
 20
0.0
 30
0.0
  3
*U141
  1

  0
TEXT
  5
1A99
  8
SAPA_ARTIKELNR
 10
361.02477612668213
 20
-35.874015115930291
 30
0.0
 40
3.5
  1
68654
 50
89.999999999999986
  7
ISO
  0
ENDBLK
  5
1A9B
  8
0
  0
BLOCK
  8
0
  2
*U142
 70
     1
 10
0.0
 20
0.0
 30
0.0
  3
*U142
  1

  0
TEXT
  5
1A9D
  8
SAPA_ARTIKELNR
 10
191.99448841869039
 20
-36.315967216294098
 30
0.0
 40
3.5
  1
42657
 50
89.999999999999986
  7
ISO
  0
ENDBLK
  5
1A9F
  8
0
  0
BLOCK
  8
0
  2
*U143
 70
     1
 10
0.0
 20
0.0
 30
0.0
  3
*U143
  1

  0
TEXT
  5
1AA1
  8
SAPA_ARTIKELNR
 10
182.7103152395008
 20
-36.570707007225678
 30
0.0
 40
3.5
  1
42227
 50
89.999999999999986
  7
ISO
  0
ENDBLK
  5
1AA3
  8
0
  0
BLOCK
  8
0
  2
*U144
 70
     1
 10
0.0
 20
0.0
 30
0.0
  3
*U144
  1

  0
SOLID
  5
1D82
  8
SAPA_PROFIL
  6
CONTINUOUS
 62
     2
 10
204.47723603951891
 20
23.87608561449338
 30
0.0000000195376815
 11
204.3004593442223
 21
23.802862309790019
 31
0.0000000195376815
 12
204.6540127348155
 22
23.802862309790019
 32
0.0000000195376815
 13
204.6540127348155
 23
23.802862309790019
 33
0.0000000195376815
210
0.0
220
0.0
230
1.0
  0
SOLID
  5
1D83
  8
SAPA_PROFIL
  6
CONTINUOUS
 62
     2
 10
204.3004593442223
 20
23.802862309790019
 30
0.0000000195376815
 11
204.22723603951891
 21
23.62608561449338
 31
0.0000000195376815
 12
204.72723603951891
 22
23.62608561449338
 32
0.0000000195376815
 13
204.72723603951891
 23
23.62608561449338
 33
0.0000000195376815
210
0.0
220
0.0
230
1.0
  0
SOLID
  5
1D84
  8
SAPA_PROFIL
  6
CONTINUOUS
 62
     2
 10
-204.3004593442223
 20
23.802862309790019
 30
-0.0000000195376815
 11
-204.6540127348155
 21
23.802862309790019
 31
-0.0000000195376815
 12
-204.72723603951891
 22
23.62608561449338
 32
-0.0000000195376815
 13
-204.72723603951891
 23
23.62608561449338
 33
-0.0000000195376815
210
0.0
220
0.0
230
-1.0
  0
SOLID
  5
1D85
  8
SAPA_PROFIL
  6
CONTINUOUS
 62
     2
 10
-204.3004593442223
 20
23.449308919196749
 30
-0.0000000195376815
 11
-204.6540127348155
 21
23.449308919196749
 31
-0.0000000195376815
 12
-204.47723603951891
 22
23.37608561449338
 32
-0.0000000195376815
 13
-204.47723603951891
 23
23.37608561449338
 33
-0.0000000195376815
210
0.0
220
0.0
230
-1.0
  0
SOLID
  5
1D86
  8
SAPA_PROFIL
  6
CONTINUOUS
 62
     2
 10
204.22723603951891
 20
23.62608561449338
 30
0.0000000195376815
 11
204.3004593442223
 21
23.449308919196749
 31
0.0000000195376815
 12
204.6540127348155
 22
23.449308919196749
 32
0.0000000195376815
 13
204.6540127348155
 23
23.449308919196749
 33
0.0000000195376815
210
0.0
220
0.0
230
1.0
  0
SOLID
  5
1D87
  8
SAPA_PROFIL
  6
CONTINUOUS
 62
     2
 10
-204.22723603951891
 20
23.62608561449338
 30
-0.0000000195376815
 11
-204.72723603951891
 21
23.62608561449338
 31
-0.0000000195376815
 12
-204.6540127348155
 22
23.449308919196749
 32
-0.0000000195376815
 13
-204.6540127348155
 23
23.449308919196749
 33
-0.0000000195376815
210
0.0
220
0.0
230
-1.0
  0
LINE
  5
1D88
  8
SAPA_PROFIL
  6
CONTINUOUS
 62
     2
 10
204.47723603951891
 20
23.87608561449338
 30
0.0000000195376815
 11
204.3004593442223
 21
23.802862309790019
 31
0.0000000195376815
  0
LINE
  5
1D89
  8
SAPA_PROFIL
  6
CONTINUOUS
 62
     2
 10
204.6540127348155
 20
23.802862309790019
 30
0.0000000195376815
 11
204.47723603951891
 21
23.87608561449338
 31
0.0000000195376815
  0
LINE
  5
1D8A
  8
SAPA_PROFIL
  6
CONTINUOUS
 62
     2
 10
204.3004593442223
 20
23.802862309790019
 30
0.0000000195376815
 11
204.22723603951891
 21
23.62608561449338
 31
0.0000000195376815
  0
LINE
  5
1D8B
  8
SAPA_PROFIL
  6
CONTINUOUS
 62
     2
 10
204.6540127348155
 20
23.802862309790019
 30
0.0000000195376815
 11
204.72723603951891
 21
23.62608561449338
 31
0.0000000195376815
  0
LINE
  5
1D8C
  8
SAPA_PROFIL
  6
CONTINUOUS
 62
     2
 10
204.6540127348155
 20
23.449308919196749
 30
0.0000000195376815
 11
204.47723603951891
 21
23.37608561449338
 31
0.0000000195376815
  0
LINE
  5
1D8D
  8
SAPA_PROFIL
  6
CONTINUOUS
 62
     2
 10
204.47723603951891
 20
23.37608561449338
 30
0.0000000195376815
 11
204.3004593442223
 21
23.449308919196749
 31
0.0000000195376815
  0
LINE
  5
1D8E
  8
SAPA_PROFIL
  6
CONTINUOUS
 62
     2
 10
204.22723603951891
 20
23.62608561449338
 30
0.0000000195376815
 11
204.3004593442223
 21
23.449308919196749
 31
0.0000000195376815
  0
LINE
  5
1D8F
  8
SAPA_PROFIL
  6
CONTINUOUS
 62
     2
 10
204.72723603951891
 20
23.62608561449338
 30
0.0000000195376815
 11
204.6540127348155
 21
23.449308919196749
 31
0.0000000195376815
  0
ENDBLK
  5
1D91
  8
0
  0
BLOCK
  8
0
  2
*U145
 70
     1
 10
0.0
 20
0.0
 30
0.0
  3
*U145
  1

  0
SOLID
  5
1DBF
  8
SAPA_PROFIL
  6
CONTINUOUS
 62
     2
 10
297.78721702325231
 20
44.503237938104391
 30
0.0000000195376815
 11
297.6104403279557
 21
44.430014633401022
 31
0.0000000195376815
 12
297.96399371854892
 22
44.430014633401022
 32
0.0000000195376815
 13
297.96399371854892
 23
44.430014633401022
 33
0.0000000195376815
210
0.0
220
0.0
230
1.0
  0
SOLID
  5
1DC0
  8
SAPA_PROFIL
  6
CONTINUOUS
 62
     2
 10
297.6104403279557
 20
44.430014633401022
 30
0.0000000195376815
 11
297.53721702325231
 21
44.253237938104391
 31
0.0000000195376815
 12
298.03721702325231
 22
44.253237938104391
 32
0.0000000195376815
 13
298.03721702325231
 23
44.253237938104391
 33
0.0000000195376815
210
0.0
220
0.0
230
1.0
  0
SOLID
  5
1DC1
  8
SAPA_PROFIL
  6
CONTINUOUS
 62
     2
 10
-297.6104403279557
 20
44.430014633401022
 30
-0.0000000195376815
 11
-297.96399371854892
 21
44.430014633401022
 31
-0.0000000195376815
 12
-298.03721702325231
 22
44.253237938104391
 32
-0.0000000195376815
 13
-298.03721702325231
 23
44.253237938104391
 33
-0.0000000195376815
210
0.0
220
0.0
230
-1.0
  0
SOLID
  5
1DC2
  8
SAPA_PROFIL
  6
CONTINUOUS
 62
     2
 10
-297.6104403279557
 20
44.076461242807753
 30
-0.0000000195376815
 11
-297.96399371854892
 21
44.076461242807753
 31
-0.0000000195376815
 12
-297.78721702325231
 22
44.003237938104377
 32
-0.0000000195376815
 13
-297.78721702325231
 23
44.003237938104377
 33
-0.0000000195376815
210
0.0
220
0.0
230
-1.0
  0
SOLID
  5
1DC3
  8
SAPA_PROFIL
  6
CONTINUOUS
 62
     2
 10
297.53721702325231
 20
44.253237938104391
 30
0.0000000195376815
 11
297.6104403279557
 21
44.076461242807753
 31
0.0000000195376815
 12
297.96399371854892
 22
44.076461242807753
 32
0.0000000195376815
 13
297.96399371854892
 23
44.076461242807753
 33
0.0000000195376815
210
0.0
220
0.0
230
1.0
  0
SOLID
  5
1DC4
  8
SAPA_PROFIL
  6
CONTINUOUS
 62
     2
 10
-297.53721702325231
 20
44.253237938104391
 30
-0.0000000195376815
 11
-298.03721702325231
 21
44.253237938104391
 31
-0.0000000195376815
 12
-297.96399371854892
 22
44.076461242807753
 32
-0.0000000195376815
 13
-297.96399371854892
 23
44.076461242807753
 33
-0.0000000195376815
210
0.0
220
0.0
230
-1.0
  0
LINE
  5
1DC5
  8
SAPA_PROFIL
  6
CONTINUOUS
 62
     2
 10
297.78721702325231
 20
44.503237938104391
 30
0.0000000195376815
 11
297.6104403279557
 21
44.430014633401022
 31
0.0000000195376815
  0
LINE
  5
1DC6
  8
SAPA_PROFIL
  6
CONTINUOUS
 62
     2
 10
297.96399371854892
 20
44.430014633401022
 30
0.0000000195376815
 11
297.78721702325231
 21
44.503237938104391
 31
0.0000000195376815
  0
LINE
  5
1DC7
  8
SAPA_PROFIL
  6
CONTINUOUS
 62
     2
 10
297.6104403279557
 20
44.430014633401022
 30
0.0000000195376815
 11
297.53721702325231
 21
44.253237938104391
 31
0.0000000195376815
  0
LINE
  5
1DC8
  8
SAPA_PROFIL
  6
CONTINUOUS
 62
     2
 10
297.96399371854892
 20
44.430014633401022
 30
0.0000000195376815
 11
298.03721702325231
 21
44.253237938104391
 31
0.0000000195376815
  0
LINE
  5
1DC9
  8
SAPA_PROFIL
  6
CONTINUOUS
 62
     2
 10
297.96399371854892
 20
44.076461242807753
 30
0.0000000195376815
 11
297.78721702325231
 21
44.003237938104377
 31
0.0000000195376815
  0
LINE
  5
1DCA
  8
SAPA_PROFIL
  6
CONTINUOUS
 62
     2
 10
297.78721702325231
 20
44.003237938104377
 30
0.0000000195376815
 11
297.6104403279557
 21
44.076461242807753
 31
0.0000000195376815
  0
LINE
  5
1DCB
  8
SAPA_PROFIL
  6
CONTINUOUS
 62
     2
 10
297.53721702325231
 20
44.253237938104391
 30
0.0000000195376815
 11
297.6104403279557
 21
44.076461242807753
 31
0.0000000195376815
  0
LINE
  5
1DCC
  8
SAPA_PROFIL
  6
CONTINUOUS
 62
     2
 10
298.03721702325231
 20
44.253237938104391
 30
0.0000000195376815
 11
297.96399371854892
 21
44.076461242807753
 31
0.0000000195376815
  0
ENDBLK
  5
1DCE
  8
0
  0
BLOCK
  8
0
  2
*U146
 70
     1
 10
0.0
 20
0.0
 30
0.0
  3
*U146
  1

  0
SOLID
  5
246D
  8
SAPA_PROFIL
  6
CONTINUOUS
 62
     2
 10
204.47723603951891
 20
23.87608561449338
 30
0.0000000195376815
 11
204.3004593442223
 21
23.802862309790019
 31
0.0000000195376815
 12
204.6540127348155
 22
23.802862309790019
 32
0.0000000195376815
 13
204.6540127348155
 23
23.802862309790019
 33
0.0000000195376815
210
0.0
220
0.0
230
1.0
  0
SOLID
  5
246E
  8
SAPA_PROFIL
  6
CONTINUOUS
 62
     2
 10
204.3004593442223
 20
23.802862309790019
 30
0.0000000195376815
 11
204.22723603951891
 21
23.62608561449338
 31
0.0000000195376815
 12
204.72723603951891
 22
23.62608561449338
 32
0.0000000195376815
 13
204.72723603951891
 23
23.62608561449338
 33
0.0000000195376815
210
0.0
220
0.0
230
1.0
  0
SOLID
  5
246F
  8
SAPA_PROFIL
  6
CONTINUOUS
 62
     2
 10
-204.3004593442223
 20
23.802862309790019
 30
-0.0000000195376815
 11
-204.6540127348155
 21
23.802862309790019
 31
-0.0000000195376815
 12
-204.72723603951891
 22
23.62608561449338
 32
-0.0000000195376815
 13
-204.72723603951891
 23
23.62608561449338
 33
-0.0000000195376815
210
0.0
220
0.0
230
-1.0
  0
SOLID
  5
2470
  8
SAPA_PROFIL
  6
CONTINUOUS
 62
     2
 10
-204.3004593442223
 20
23.449308919196749
 30
-0.0000000195376815
 11
-204.6540127348155
 21
23.449308919196749
 31
-0.0000000195376815
 12
-204.47723603951891
 22
23.37608561449338
 32
-0.0000000195376815
 13
-204.47723603951891
 23
23.37608561449338
 33
-0.0000000195376815
210
0.0
220
0.0
230
-1.0
  0
SOLID
  5
2471
  8
SAPA_PROFIL
  6
CONTINUOUS
 62
     2
 10
204.22723603951891
 20
23.62608561449338
 30
0.0000000195376815
 11
204.3004593442223
 21
23.449308919196749
 31
0.0000000195376815
 12
204.6540127348155
 22
23.449308919196749
 32
0.0000000195376815
 13
204.6540127348155
 23
23.449308919196749
 33
0.0000000195376815
210
0.0
220
0.0
230
1.0
  0
SOLID
  5
2472
  8
SAPA_PROFIL
  6
CONTINUOUS
 62
     2
 10
-204.22723603951891
 20
23.62608561449338
 30
-0.0000000195376815
 11
-204.72723603951891
 21
23.62608561449338
 31
-0.0000000195376815
 12
-204.6540127348155
 22
23.449308919196749
 32
-0.0000000195376815
 13
-204.6540127348155
 23
23.449308919196749
 33
-0.0000000195376815
210
0.0
220
0.0
230
-1.0
  0
LINE
  5
2473
  8
SAPA_PROFIL
  6
CONTINUOUS
 62
     2
 10
204.47723603951891
 20
23.87608561449338
 30
0.0000000195376815
 11
204.3004593442223
 21
23.802862309790019
 31
0.0000000195376815
  0
LINE
  5
2474
  8
SAPA_PROFIL
  6
CONTINUOUS
 62
     2
 10
204.6540127348155
 20
23.802862309790019
 30
0.0000000195376815
 11
204.47723603951891
 21
23.87608561449338
 31
0.0000000195376815
  0
LINE
  5
2475
  8
SAPA_PROFIL
  6
CONTINUOUS
 62
     2
 10
204.3004593442223
 20
23.802862309790019
 30
0.0000000195376815
 11
204.22723603951891
 21
23.62608561449338
 31
0.0000000195376815
  0
LINE
  5
2476
  8
SAPA_PROFIL
  6
CONTINUOUS
 62
     2
 10
204.6540127348155
 20
23.802862309790019
 30
0.0000000195376815
 11
204.72723603951891
 21
23.62608561449338
 31
0.0000000195376815
  0
LINE
  5
2477
  8
SAPA_PROFIL
  6
CONTINUOUS
 62
     2
 10
204.6540127348155
 20
23.449308919196749
 30
0.0000000195376815
 11
204.47723603951891
 21
23.37608561449338
 31
0.0000000195376815
  0
LINE
  5
2478
  8
SAPA_PROFIL
  6
CONTINUOUS
 62
     2
 10
204.47723603951891
 20
23.37608561449338
 30
0.0000000195376815
 11
204.3004593442223
 21
23.449308919196749
 31
0.0000000195376815
  0
LINE
  5
2479
  8
SAPA_PROFIL
  6
CONTINUOUS
 62
     2
 10
204.22723603951891
 20
23.62608561449338
 30
0.0000000195376815
 11
204.3004593442223
 21
23.449308919196749
 31
0.0000000195376815
  0
LINE
  5
247A
  8
SAPA_PROFIL
  6
CONTINUOUS
 62
     2
 10
204.72723603951891
 20
23.62608561449338
 30
0.0000000195376815
 11
204.6540127348155
 21
23.449308919196749
 31
0.0000000195376815
  0
ENDBLK
  5
247C
  8
0
  0
BLOCK
  8
0
  2
*U147
 70
     1
 10
0.0
 20
0.0
 30
0.0
  3
*U147
  1

  0
SOLID
  5
24AA
  8
SAPA_PROFIL
  6
CONTINUOUS
 62
     2
 10
297.78721702325231
 20
44.503237938104391
 30
0.0000000195376815
 11
297.6104403279557
 21
44.430014633401022
 31
0.0000000195376815
 12
297.96399371854892
 22
44.430014633401022
 32
0.0000000195376815
 13
297.96399371854892
 23
44.430014633401022
 33
0.0000000195376815
210
0.0
220
0.0
230
1.0
  0
SOLID
  5
24AB
  8
SAPA_PROFIL
  6
CONTINUOUS
 62
     2
 10
297.6104403279557
 20
44.430014633401022
 30
0.0000000195376815
 11
297.53721702325231
 21
44.253237938104391
 31
0.0000000195376815
 12
298.03721702325231
 22
44.253237938104391
 32
0.0000000195376815
 13
298.03721702325231
 23
44.253237938104391
 33
0.0000000195376815
210
0.0
220
0.0
230
1.0
  0
SOLID
  5
24AC
  8
SAPA_PROFIL
  6
CONTINUOUS
 62
     2
 10
-297.6104403279557
 20
44.430014633401022
 30
-0.0000000195376815
 11
-297.96399371854892
 21
44.430014633401022
 31
-0.0000000195376815
 12
-298.03721702325231
 22
44.253237938104391
 32
-0.0000000195376815
 13
-298.03721702325231
 23
44.253237938104391
 33
-0.0000000195376815
210
0.0
220
0.0
230
-1.0
  0
SOLID
  5
24AD
  8
SAPA_PROFIL
  6
CONTINUOUS
 62
     2
 10
-297.6104403279557
 20
44.076461242807753
 30
-0.0000000195376815
 11
-297.96399371854892
 21
44.076461242807753
 31
-0.0000000195376815
 12
-297.78721702325231
 22
44.003237938104377
 32
-0.0000000195376815
 13
-297.78721702325231
 23
44.003237938104377
 33
-0.0000000195376815
210
0.0
220
0.0
230
-1.0
  0
SOLID
  5
24AE
  8
SAPA_PROFIL
  6
CONTINUOUS
 62
     2
 10
297.53721702325231
 20
44.253237938104391
 30
0.0000000195376815
 11
297.6104403279557
 21
44.076461242807753
 31
0.0000000195376815
 12
297.96399371854892
 22
44.076461242807753
 32
0.0000000195376815
 13
297.96399371854892
 23
44.076461242807753
 33
0.0000000195376815
210
0.0
220
0.0
230
1.0
  0
SOLID
  5
24AF
  8
SAPA_PROFIL
  6
CONTINUOUS
 62
     2
 10
-297.53721702325231
 20
44.253237938104391
 30
-0.0000000195376815
 11
-298.03721702325231
 21
44.253237938104391
 31
-0.0000000195376815
 12
-297.96399371854892
 22
44.076461242807753
 32
-0.0000000195376815
 13
-297.96399371854892
 23
44.076461242807753
 33
-0.0000000195376815
210
0.0
220
0.0
230
-1.0
  0
LINE
  5
24B0
  8
SAPA_PROFIL
  6
CONTINUOUS
 62
     2
 10
297.78721702325231
 20
44.503237938104391
 30
0.0000000195376815
 11
297.6104403279557
 21
44.430014633401022
 31
0.0000000195376815
  0
LINE
  5
24B1
  8
SAPA_PROFIL
  6
CONTINUOUS
 62
     2
 10
297.96399371854892
 20
44.430014633401022
 30
0.0000000195376815
 11
297.78721702325231
 21
44.503237938104391
 31
0.0000000195376815
  0
LINE
  5
24B2
  8
SAPA_PROFIL
  6
CONTINUOUS
 62
     2
 10
297.6104403279557
 20
44.430014633401022
 30
0.0000000195376815
 11
297.53721702325231
 21
44.253237938104391
 31
0.0000000195376815
  0
LINE
  5
24B3
  8
SAPA_PROFIL
  6
CONTINUOUS
 62
     2
 10
297.96399371854892
 20
44.430014633401022
 30
0.0000000195376815
 11
298.03721702325231
 21
44.253237938104391
 31
0.0000000195376815
  0
LINE
  5
24B4
  8
SAPA_PROFIL
  6
CONTINUOUS
 62
     2
 10
297.96399371854892
 20
44.076461242807753
 30
0.0000000195376815
 11
297.78721702325231
 21
44.003237938104377
 31
0.0000000195376815
  0
LINE
  5
24B5
  8
SAPA_PROFIL
  6
CONTINUOUS
 62
     2
 10
297.78721702325231
 20
44.003237938104377
 30
0.0000000195376815
 11
297.6104403279557
 21
44.076461242807753
 31
0.0000000195376815
  0
LINE
  5
24B6
  8
SAPA_PROFIL
  6
CONTINUOUS
 62
     2
 10
297.53721702325231
 20
44.253237938104391
 30
0.0000000195376815
 11
297.6104403279557
 21
44.076461242807753
 31
0.0000000195376815
  0
LINE
  5
24B7
  8
SAPA_PROFIL
  6
CONTINUOUS
 62
     2
 10
298.03721702325231
 20
44.253237938104391
 30
0.0000000195376815
 11
297.96399371854892
 21
44.076461242807753
 31
0.0000000195376815
  0
ENDBLK
  5
24B9
  8
0
  0
BLOCK
  8
0
  2
*U148
 70
     1
 10
0.0
 20
0.0
 30
0.0
  3
*U148
  1

  0
SOLID
  5
297A
  8
SAPA_FOGBAND
  6
CONTINUOUS
 10
206.7739475811737
 20
-10.62244086988712
 30
0.0
 11
206.5936700174006
 21
-10.69711428179356
 31
0.0
 12
206.95422514494689
 22
-10.69711428179356
 32
0.0
 13
206.95422514494689
 23
-10.69711428179356
 33
0.0
210
0.0
220
0.0
230
1.0
  0
SOLID
  5
297B
  8
SAPA_FOGBAND
  6
CONTINUOUS
 10
206.5936700174006
 20
-10.69711428179356
 30
0.0
 11
206.5189966054941
 21
-10.877391845566761
 31
0.0
 12
207.02889855685339
 22
-10.877391845566761
 32
0.0
 13
207.02889855685339
 23
-10.877391845566761
 33
0.0
210
0.0
220
0.0
230
1.0
  0
SOLID
  5
297C
  8
SAPA_FOGBAND
  6
CONTINUOUS
 10
-206.5936700174006
 20
-10.69711428179356
 30
0.0
 11
-206.95422514494689
 21
-10.69711428179356
 31
0.0
 12
-207.02889855685339
 22
-10.877391845566761
 32
0.0
 13
-207.02889855685339
 23
-10.877391845566761
 33
0.0
210
0.0
220
0.0
230
-1.0
  0
SOLID
  5
297D
  8
SAPA_FOGBAND
  6
CONTINUOUS
 10
-206.5936700174006
 20
-11.05766940933996
 30
0.0
 11
-206.95422514494689
 21
-11.05766940933996
 31
0.0
 12
-206.7739475811737
 22
-11.1323428212464
 32
0.0
 13
-206.7739475811737
 23
-11.1323428212464
 33
0.0
210
0.0
220
0.0
230
-1.0
  0
SOLID
  5
297E
  8
SAPA_FOGBAND
  6
CONTINUOUS
 10
206.5189966054941
 20
-10.877391845566761
 30
0.0
 11
206.5936700174006
 21
-11.05766940933996
 31
0.0
 12
206.95422514494689
 22
-11.05766940933996
 32
0.0
 13
206.95422514494689
 23
-11.05766940933996
 33
0.0
210
0.0
220
0.0
230
1.0
  0
SOLID
  5
297F
  8
SAPA_FOGBAND
  6
CONTINUOUS
 10
-206.5189966054941
 20
-10.877391845566761
 30
0.0
 11
-207.02889855685339
 21
-10.877391845566761
 31
0.0
 12
-206.95422514494689
 22
-11.05766940933996
 32
0.0
 13
-206.95422514494689
 23
-11.05766940933996
 33
0.0
210
0.0
220
0.0
230
-1.0
  0
LINE
  5
2980
  8
SAPA_FOGBAND
  6
CONTINUOUS
 10
206.7739475811737
 20
-10.62244086988712
 30
0.0
 11
206.5936700174006
 21
-10.69711428179356
 31
0.0
  0
LINE
  5
2981
  8
SAPA_FOGBAND
  6
CONTINUOUS
 10
206.95422514494689
 20
-10.69711428179356
 30
0.0
 11
206.7739475811737
 21
-10.62244086988712
 31
0.0
  0
LINE
  5
2982
  8
SAPA_FOGBAND
  6
CONTINUOUS
 10
206.5936700174006
 20
-10.69711428179356
 30
0.0
 11
206.5189966054941
 21
-10.877391845566761
 31
0.0
  0
LINE
  5
2983
  8
SAPA_FOGBAND
  6
CONTINUOUS
 10
206.95422514494689
 20
-10.69711428179356
 30
0.0
 11
207.02889855685339
 21
-10.877391845566761
 31
0.0
  0
LINE
  5
2984
  8
SAPA_FOGBAND
  6
CONTINUOUS
 10
206.95422514494689
 20
-11.05766940933996
 30
0.0
 11
206.7739475811737
 21
-11.1323428212464
 31
0.0
  0
LINE
  5
2985
  8
SAPA_FOGBAND
  6
CONTINUOUS
 10
206.7739475811737
 20
-11.1323428212464
 30
0.0
 11
206.5936700174006
 21
-11.05766940933996
 31
0.0
  0
LINE
  5
2986
  8
SAPA_FOGBAND
  6
CONTINUOUS
 10
206.5189966054941
 20
-10.877391845566761
 30
0.0
 11
206.5936700174006
 21
-11.05766940933996
 31
0.0
  0
LINE
  5
2987
  8
SAPA_FOGBAND
  6
CONTINUOUS
 10
207.02889855685339
 20
-10.877391845566761
 30
0.0
 11
206.95422514494689
 21
-11.05766940933996
 31
0.0
  0
ENDBLK
  5
2989
  8
0
  0
BLOCK
  8
0
  2
*U149
 70
     1
 10
0.0
 20
0.0
 30
0.0
  3
*U149
  1

  0
SOLID
  5
2A13
  8
SAPA_FOGBAND
  6
CONTINUOUS
 10
206.38304895283571
 20
-47.905455074248181
 30
0.0
 11
206.20277138906249
 21
-47.980128486154619
 31
0.0
 12
206.5633265166089
 22
-47.980128486154619
 32
0.0
 13
206.5633265166089
 23
-47.980128486154619
 33
0.0
210
0.0
220
0.0
230
1.0
  0
SOLID
  5
2A14
  8
SAPA_FOGBAND
  6
CONTINUOUS
 10
206.20277138906249
 20
-47.980128486154619
 30
0.0
 11
206.1280979771561
 21
-48.160406049927822
 31
0.0
 12
206.6379999285154
 22
-48.160406049927822
 32
0.0
 13
206.6379999285154
 23
-48.160406049927822
 33
0.0
210
0.0
220
0.0
230
1.0
  0
SOLID
  5
2A15
  8
SAPA_FOGBAND
  6
CONTINUOUS
 10
-206.20277138906249
 20
-47.980128486154619
 30
0.0
 11
-206.5633265166089
 21
-47.980128486154619
 31
0.0
 12
-206.6379999285154
 22
-48.160406049927822
 32
0.0
 13
-206.6379999285154
 23
-48.160406049927822
 33
0.0
210
0.0
220
0.0
230
-1.0
  0
SOLID
  5
2A16
  8
SAPA_FOGBAND
  6
CONTINUOUS
 10
-206.20277138906249
 20
-48.340683613701017
 30
0.0
 11
-206.5633265166089
 21
-48.340683613701017
 31
0.0
 12
-206.38304895283571
 22
-48.415357025607463
 32
0.0
 13
-206.38304895283571
 23
-48.415357025607463
 33
0.0
210
0.0
220
0.0
230
-1.0
  0
SOLID
  5
2A17
  8
SAPA_FOGBAND
  6
CONTINUOUS
 10
206.1280979771561
 20
-48.160406049927822
 30
0.0
 11
206.20277138906249
 21
-48.340683613701017
 31
0.0
 12
206.5633265166089
 22
-48.340683613701017
 32
0.0
 13
206.5633265166089
 23
-48.340683613701017
 33
0.0
210
0.0
220
0.0
230
1.0
  0
SOLID
  5
2A18
  8
SAPA_FOGBAND
  6
CONTINUOUS
 10
-206.1280979771561
 20
-48.160406049927822
 30
0.0
 11
-206.6379999285154
 21
-48.160406049927822
 31
0.0
 12
-206.5633265166089
 22
-48.340683613701017
 32
0.0
 13
-206.5633265166089
 23
-48.340683613701017
 33
0.0
210
0.0
220
0.0
230
-1.0
  0
LINE
  5
2A19
  8
SAPA_FOGBAND
  6
CONTINUOUS
 10
206.38304895283571
 20
-47.905455074248181
 30
0.0
 11
206.20277138906249
 21
-47.980128486154619
 31
0.0
  0
LINE
  5
2A1A
  8
SAPA_FOGBAND
  6
CONTINUOUS
 10
206.5633265166089
 20
-47.980128486154619
 30
0.0
 11
206.38304895283571
 21
-47.905455074248181
 31
0.0
  0
LINE
  5
2A1B
  8
SAPA_FOGBAND
  6
CONTINUOUS
 10
206.20277138906249
 20
-47.980128486154619
 30
0.0
 11
206.1280979771561
 21
-48.160406049927822
 31
0.0
  0
LINE
  5
2A1C
  8
SAPA_FOGBAND
  6
CONTINUOUS
 10
206.5633265166089
 20
-47.980128486154619
 30
0.0
 11
206.6379999285154
 21
-48.160406049927822
 31
0.0
  0
LINE
  5
2A1D
  8
SAPA_FOGBAND
  6
CONTINUOUS
 10
206.5633265166089
 20
-48.340683613701017
 30
0.0
 11
206.38304895283571
 21
-48.415357025607463
 31
0.0
  0
LINE
  5
2A1E
  8
SAPA_FOGBAND
  6
CONTINUOUS
 10
206.38304895283571
 20
-48.415357025607463
 30
0.0
 11
206.20277138906249
 21
-48.340683613701017
 31
0.0
  0
LINE
  5
2A1F
  8
SAPA_FOGBAND
  6
CONTINUOUS
 10
206.1280979771561
 20
-48.160406049927822
 30
0.0
 11
206.20277138906249
 21
-48.340683613701017
 31
0.0
  0
LINE
  5
2A20
  8
SAPA_FOGBAND
  6
CONTINUOUS
 10
206.6379999285154
 20
-48.160406049927822
 30
0.0
 11
206.5633265166089
 21
-48.340683613701017
 31
0.0
  0
ENDBLK
  5
2A22
  8
0
  0
BLOCK
  8
0
  2
*U150
 70
     1
 10
0.0
 20
0.0
 30
0.0
  3
*U150
  1

  0
SOLID
  5
2ACC
  8
SAPA_FOGBAND
  6
CONTINUOUS
 10
206.7739475811737
 20
-10.62244086988712
 30
0.0
 11
206.5936700174006
 21
-10.69711428179356
 31
0.0
 12
206.95422514494689
 22
-10.69711428179356
 32
0.0
 13
206.95422514494689
 23
-10.69711428179356
 33
0.0
210
0.0
220
0.0
230
1.0
  0
SOLID
  5
2ACD
  8
SAPA_FOGBAND
  6
CONTINUOUS
 10
206.5936700174006
 20
-10.69711428179356
 30
0.0
 11
206.5189966054941
 21
-10.877391845566761
 31
0.0
 12
207.02889855685339
 22
-10.877391845566761
 32
0.0
 13
207.02889855685339
 23
-10.877391845566761
 33
0.0
210
0.0
220
0.0
230
1.0
  0
SOLID
  5
2ACE
  8
SAPA_FOGBAND
  6
CONTINUOUS
 10
-206.5936700174006
 20
-10.69711428179356
 30
0.0
 11
-206.95422514494689
 21
-10.69711428179356
 31
0.0
 12
-207.02889855685339
 22
-10.877391845566761
 32
0.0
 13
-207.02889855685339
 23
-10.877391845566761
 33
0.0
210
0.0
220
0.0
230
-1.0
  0
SOLID
  5
2ACF
  8
SAPA_FOGBAND
  6
CONTINUOUS
 10
-206.5936700174006
 20
-11.05766940933996
 30
0.0
 11
-206.95422514494689
 21
-11.05766940933996
 31
0.0
 12
-206.7739475811737
 22
-11.1323428212464
 32
0.0
 13
-206.7739475811737
 23
-11.1323428212464
 33
0.0
210
0.0
220
0.0
230
-1.0
  0
SOLID
  5
2AD0
  8
SAPA_FOGBAND
  6
CONTINUOUS
 10
206.5189966054941
 20
-10.877391845566761
 30
0.0
 11
206.5936700174006
 21
-11.05766940933996
 31
0.0
 12
206.95422514494689
 22
-11.05766940933996
 32
0.0
 13
206.95422514494689
 23
-11.05766940933996
 33
0.0
210
0.0
220
0.0
230
1.0
  0
SOLID
  5
2AD1
  8
SAPA_FOGBAND
  6
CONTINUOUS
 10
-206.5189966054941
 20
-10.877391845566761
 30
0.0
 11
-207.02889855685339
 21
-10.877391845566761
 31
0.0
 12
-206.95422514494689
 22
-11.05766940933996
 32
0.0
 13
-206.95422514494689
 23
-11.05766940933996
 33
0.0
210
0.0
220
0.0
230
-1.0
  0
LINE
  5
2AD2
  8
SAPA_FOGBAND
  6
CONTINUOUS
 10
206.7739475811737
 20
-10.62244086988712
 30
0.0
 11
206.5936700174006
 21
-10.69711428179356
 31
0.0
  0
LINE
  5
2AD3
  8
SAPA_FOGBAND
  6
CONTINUOUS
 10
206.95422514494689
 20
-10.69711428179356
 30
0.0
 11
206.7739475811737
 21
-10.62244086988712
 31
0.0
  0
LINE
  5
2AD4
  8
SAPA_FOGBAND
  6
CONTINUOUS
 10
206.5936700174006
 20
-10.69711428179356
 30
0.0
 11
206.5189966054941
 21
-10.877391845566761
 31
0.0
  0
LINE
  5
2AD5
  8
SAPA_FOGBAND
  6
CONTINUOUS
 10
206.95422514494689
 20
-10.69711428179356
 30
0.0
 11
207.02889855685339
 21
-10.877391845566761
 31
0.0
  0
LINE
  5
2AD6
  8
SAPA_FOGBAND
  6
CONTINUOUS
 10
206.95422514494689
 20
-11.05766940933996
 30
0.0
 11
206.7739475811737
 21
-11.1323428212464
 31
0.0
  0
LINE
  5
2AD7
  8
SAPA_FOGBAND
  6
CONTINUOUS
 10
206.7739475811737
 20
-11.1323428212464
 30
0.0
 11
206.5936700174006
 21
-11.05766940933996
 31
0.0
  0
LINE
  5
2AD8
  8
SAPA_FOGBAND
  6
CONTINUOUS
 10
206.5189966054941
 20
-10.877391845566761
 30
0.0
 11
206.5936700174006
 21
-11.05766940933996
 31
0.0
  0
LINE
  5
2AD9
  8
SAPA_FOGBAND
  6
CONTINUOUS
 10
207.02889855685339
 20
-10.877391845566761
 30
0.0
 11
206.95422514494689
 21
-11.05766940933996
 31
0.0
  0
ENDBLK
  5
2ADB
  8
0
  0
BLOCK
  8
0
  2
*U151
 70
     1
 10
0.0
 20
0.0
 30
0.0
  3
*U151
  1

  0
SOLID
  5
2B65
  8
SAPA_FOGBAND
  6
CONTINUOUS
 10
206.38304895283571
 20
-47.905455074248181
 30
0.0
 11
206.20277138906249
 21
-47.980128486154619
 31
0.0
 12
206.5633265166089
 22
-47.980128486154619
 32
0.0
 13
206.5633265166089
 23
-47.980128486154619
 33
0.0
210
0.0
220
0.0
230
1.0
  0
SOLID
  5
2B66
  8
SAPA_FOGBAND
  6
CONTINUOUS
 10
206.20277138906249
 20
-47.980128486154619
 30
0.0
 11
206.1280979771561
 21
-48.160406049927822
 31
0.0
 12
206.6379999285154
 22
-48.160406049927822
 32
0.0
 13
206.6379999285154
 23
-48.160406049927822
 33
0.0
210
0.0
220
0.0
230
1.0
  0
SOLID
  5
2B67
  8
SAPA_FOGBAND
  6
CONTINUOUS
 10
-206.20277138906249
 20
-47.980128486154619
 30
0.0
 11
-206.5633265166089
 21
-47.980128486154619
 31
0.0
 12
-206.6379999285154
 22
-48.160406049927822
 32
0.0
 13
-206.6379999285154
 23
-48.160406049927822
 33
0.0
210
0.0
220
0.0
230
-1.0
  0
SOLID
  5
2B68
  8
SAPA_FOGBAND
  6
CONTINUOUS
 10
-206.20277138906249
 20
-48.340683613701017
 30
0.0
 11
-206.5633265166089
 21
-48.340683613701017
 31
0.0
 12
-206.38304895283571
 22
-48.415357025607463
 32
0.0
 13
-206.38304895283571
 23
-48.415357025607463
 33
0.0
210
0.0
220
0.0
230
-1.0
  0
SOLID
  5
2B69
  8
SAPA_FOGBAND
  6
CONTINUOUS
 10
206.1280979771561
 20
-48.160406049927822
 30
0.0
 11
206.20277138906249
 21
-48.340683613701017
 31
0.0
 12
206.5633265166089
 22
-48.340683613701017
 32
0.0
 13
206.5633265166089
 23
-48.340683613701017
 33
0.0
210
0.0
220
0.0
230
1.0
  0
SOLID
  5
2B6A
  8
SAPA_FOGBAND
  6
CONTINUOUS
 10
-206.1280979771561
 20
-48.160406049927822
 30
0.0
 11
-206.6379999285154
 21
-48.160406049927822
 31
0.0
 12
-206.5633265166089
 22
-48.340683613701017
 32
0.0
 13
-206.5633265166089
 23
-48.340683613701017
 33
0.0
210
0.0
220
0.0
230
-1.0
  0
LINE
  5
2B6B
  8
SAPA_FOGBAND
  6
CONTINUOUS
 10
206.38304895283571
 20
-47.905455074248181
 30
0.0
 11
206.20277138906249
 21
-47.980128486154619
 31
0.0
  0
LINE
  5
2B6C
  8
SAPA_FOGBAND
  6
CONTINUOUS
 10
206.5633265166089
 20
-47.980128486154619
 30
0.0
 11
206.38304895283571
 21
-47.905455074248181
 31
0.0
  0
LINE
  5
2B6D
  8
SAPA_FOGBAND
  6
CONTINUOUS
 10
206.20277138906249
 20
-47.980128486154619
 30
0.0
 11
206.1280979771561
 21
-48.160406049927822
 31
0.0
  0
LINE
  5
2B6E
  8
SAPA_FOGBAND
  6
CONTINUOUS
 10
206.5633265166089
 20
-47.980128486154619
 30
0.0
 11
206.6379999285154
 21
-48.160406049927822
 31
0.0
  0
LINE
  5
2B6F
  8
SAPA_FOGBAND
  6
CONTINUOUS
 10
206.5633265166089
 20
-48.340683613701017
 30
0.0
 11
206.38304895283571
 21
-48.415357025607463
 31
0.0
  0
LINE
  5
2B70
  8
SAPA_FOGBAND
  6
CONTINUOUS
 10
206.38304895283571
 20
-48.415357025607463
 30
0.0
 11
206.20277138906249
 21
-48.340683613701017
 31
0.0
  0
LINE
  5
2B71
  8
SAPA_FOGBAND
  6
CONTINUOUS
 10
206.1280979771561
 20
-48.160406049927822
 30
0.0
 11
206.20277138906249
 21
-48.340683613701017
 31
0.0
  0
LINE
  5
2B72
  8
SAPA_FOGBAND
  6
CONTINUOUS
 10
206.6379999285154
 20
-48.160406049927822
 30
0.0
 11
206.5633265166089
 21
-48.340683613701017
 31
0.0
  0
ENDBLK
  5
2B74
  8
0
  0
BLOCK
  8
0
  2
*U152
 70
     1
 10
0.0
 20
0.0
 30
0.0
  3
*U152
  1

  0
TEXT
  5
2BF1
  8
SAPA_MATT
 62
     2
 10
164.46444257917531
 20
-31.63104925431464
 30
0.0
 40
3.0
  1
50
 50
90.0
  7
ISO
  0
ENDBLK
  5
2BF3
  8
0
  0
ENDSEC
  0
SECTION
  2
ENTITIES
  0
POLYLINE
  5
773
  8
SAPA_LIGHT
 66
     1
 10
0.0
 20
0.0
 30
0.0
  0
VERTEX
  5
1A3E
  8
SAPA_LIGHT
 10
-35.776775165780073
 20
151.49999999999801
 30
0.0
  0
VERTEX
  5
1A3F
  8
SAPA_LIGHT
 10
-35.776775165780073
 20
121.499999999998
 30
0.0
  0
VERTEX
  5
1A40
  8
SAPA_LIGHT
 10
-73.776775165781743
 20
121.4999999999982
 30
0.0
  0
VERTEX
  5
1A41
  8
SAPA_LIGHT
 10
-73.776775165781658
 20
151.52625810581009
 30
0.0
  0
SEQEND
  5
1A42
  8
SAPA_LIGHT
  0
POLYLINE
  5
896
  8
SAPA_LIGHT
 66
     1
 10
0.0
 20
0.0
 30
0.0
  0
VERTEX
  5
1A43
  8
SAPA_LIGHT
 10
-82.526775089649504
 20
12.994088294299569
 30
0.0
  0
VERTEX
  5
1A44
  8
SAPA_LIGHT
 10
-58.526775089649497
 20
12.994088294299569
 30
0.0
  0
VERTEX
  5
1A45
  8
SAPA_LIGHT
 10
-58.526775089649497
 20
30.19999999999829
 30
0.0
  0
VERTEX
  5
1A46
  8
SAPA_LIGHT
 10
-2.526775093622172
 20
29.99999999999898
 30
0.0
  0
VERTEX
  5
1A47
  8
SAPA_LIGHT
 10
-0.5267750936214897
 20
29.999999999998948
 30
0.0
  0
VERTEX
  5
1A48
  8
SAPA_LIGHT
 10
-0.5267750936214667
 20
78.500000000000284
 30
0.0
  0
VERTEX
  5
1A49
  8
SAPA_LIGHT
 10
-8.7267750861112034
 20
78.500000000000284
 30
0.0
  0
VERTEX
  5
1A4A
  8
SAPA_LIGHT
 10
-8.7267750861112052
 20
67.999999999999034
 30
0.0
  0
VERTEX
  5
1A4B
  8
SAPA_LIGHT
 10
-28.22677509284209
 20
67.999999999999034
 30
0.0
  0
VERTEX
  5
1A4C
  8
SAPA_LIGHT
 10
-28.2267750928421
 20
52.299999999999109
 30
0.0
  0
VERTEX
  5
1A4D
  8
SAPA_LIGHT
 10
-79.638158661121324
 20
52.499999999997343
 30
0.0
  0
VERTEX
  5
1A4E
  8
SAPA_LIGHT
 10
-82.526775089649476
 20
52.499999999997371
 30
0.0
  0
VERTEX
  5
1A4F
  8
SAPA_LIGHT
 10
-82.526775089649504
 20
12.994088294299569
 30
0.0
  0
SEQEND
  5
1A50
  8
SAPA_LIGHT
  0
POLYLINE
  5
897
  8
SAPA_LIGHT
 66
     1
 10
0.0
 20
0.0
 30
0.0
 70
     1
  0
VERTEX
  5
1A51
  8
SAPA_LIGHT
 10
-91.640988651526342
 20
68.585786437118813
 30
0.0
  0
VERTEX
  5
1A52
  8
SAPA_LIGHT
 10
-92.226775089153008
 20
67.171572874746047
 30
0.0
  0
VERTEX
  5
1A53
  8
SAPA_LIGHT
 10
-92.226775089153008
 20
46.499999999999638
 30
0.0
  0
VERTEX
  5
1A54
  8
SAPA_LIGHT
 10
-82.526775089649476
 20
46.499999999999638
 30
0.0
  0
VERTEX
  5
1A55
  8
SAPA_LIGHT
 10
-82.526775089649476
 20
63.999999999997819
 30
0.0
  0
VERTEX
  5
1A56
  8
SAPA_LIGHT
 10
-61.91376717185598
 20
63.999999999998053
 30
0.0
  0
VERTEX
  5
1A57
  8
SAPA_LIGHT
 10
-61.414985146726089
 20
64.465121763125907
 30
0.0
  0
VERTEX
  5
1A58
  8
SAPA_LIGHT
 10
-60.71290381369424
 20
74.505352591882783
 30
0.0
  0
VERTEX
  5
1A59
  8
SAPA_LIGHT
 10
-8.7267750861112034
 20
74.499999999998025
 30
0.0
  0
VERTEX
  5
1A5A
  8
SAPA_LIGHT
 10
-8.7267750861111928
 20
138.5000000000118
 30
0.0
  0
VERTEX
  5
1A5B
  8
SAPA_LIGHT
 10
-35.776775165783
 20
138.5000000000118
 30
0.0
  0
VERTEX
  5
1A5C
  8
SAPA_LIGHT
 10
-35.776775165783
 20
116.19487763319481
 30
0.0
  0
VERTEX
  5
1A5D
  8
SAPA_LIGHT
 10
-73.776775165781743
 20
116.19487763319481
 30
0.0
  0
VERTEX
  5
1A5E
  8
SAPA_LIGHT
 10
-73.776775165781743
 20
138.50000000017741
 30
0.0
  0
VERTEX
  5
1A5F
  8
SAPA_LIGHT
 10
-83.226775086169852
 20
138.50000000017741
 30
0.0
  0
VERTEX
  5
1A60
  8
SAPA_LIGHT
 10
-83.226775086123496
 20
77.414213564895519
 30
0.0
  0
VERTEX
  5
1A61
  8
SAPA_LIGHT
 10
-83.519668304936815
 20
76.70710678370834
 30
0.0
  0
SEQEND
  5
1A62
  8
SAPA_LIGHT
  0
POLYLINE
  5
8E7
  8
SAPA_LIGHT
 66
     1
 10
0.0
 20
0.0
 30
0.0
  0
VERTEX
  5
1A63
  8
SAPA_LIGHT
 10
-44.499999999010811
 20
-40.999999999995673
 30
0.0
  0
VERTEX
  5
1A64
  8
SAPA_LIGHT
 10
-44.499999999010811
 20
-10.999999999995669
 30
0.0
  0
VERTEX
  5
1A65
  8
SAPA_LIGHT
 10
-82.499999999012374
 20
-10.99999999999566
 30
0.0
  0
VERTEX
  5
1A66
  8
SAPA_LIGHT
 10
-82.499999999012417
 20
-40.999999999995673
 30
0.0
  0
SEQEND
  5
1A67
  8
SAPA_LIGHT
  0
POLYLINE
  5
8FC
  8
SAPA_LIGHT
 66
     1
 10
0.0
 20
0.0
 30
0.0
  0
VERTEX
  5
1A68
  8
SAPA_LIGHT
 10
-82.499999999012388
 20
4.9999999999995879
 30
0.0
  0
VERTEX
  5
1A69
  8
SAPA_LIGHT
 10
-58.526775089649512
 20
4.999999999999698
 30
0.0
  0
VERTEX
  5
1A6A
  8
SAPA_LIGHT
 10
-58.526775089649497
 20
24.999999999999439
 30
0.0
  0
VERTEX
  5
1A6B
  8
SAPA_LIGHT
 10
64.499999999998408
 20
24.99999999999979
 30
0.0
  0
VERTEX
  5
1A6C
  8
SAPA_LIGHT
 10
64.499999999998408
 20
-25.00000000000021
 30
0.0
  0
VERTEX
  5
1A6D
  8
SAPA_LIGHT
 10
-44.499999999010811
 20
-25.000000000000188
 30
0.0
  0
VERTEX
  5
1A6E
  8
SAPA_LIGHT
 10
-44.499999999010811
 20
-5.0000000000001901
 30
0.0
  0
VERTEX
  5
1A6F
  8
SAPA_LIGHT
 10
-82.499999999012388
 20
-4.9999999999999556
 30
0.0
  0
VERTEX
  5
1A70
  8
SAPA_LIGHT
 10
-82.499999999012289
 20
-25.00000000000075
 30
0.0
  0
VERTEX
  5
1A71
  8
SAPA_LIGHT
 10
-106.4999999990109
 20
-25.00000000000075
 30
0.0
  0
VERTEX
  5
1A72
  8
SAPA_LIGHT
 10
-106.4999999990109
 20
24.99999999999925
 30
0.0
  0
VERTEX
  5
1A73
  8
SAPA_LIGHT
 10
-82.526775089649504
 20
24.999999999999329
 30
0.0
  0
VERTEX
  5
1A74
  8
SAPA_LIGHT
 10
-82.526775089649391
 20
4.9999999999995604
 30
0.0
  0
SEQEND
  5
1A75
  8
SAPA_LIGHT
  0
INSERT
  5
F03
  8
0
  2
*U138
 10
0.0
 20
0.0
 30
0.0
  0
INSERT
  5
F04
  8
0
  2
*U139
 10
0.0
 20
0.0
 30
0.0
  0
INSERT
  5
F05
  8
0
  2
*U140
 10
0.0
 20
0.0
 30
0.0
  0
INSERT
  5
F66
  8
0
  2
*U141
 10
0.0
 20
0.0
 30
0.0
  0
INSERT
  5
F67
  8
0
  2
*U142
 10
0.0
 20
0.0
 30
0.0
  0
INSERT
  5
F68
  8
0
  2
*U143
 10
0.0
 20
0.0
 30
0.0
  0
POLYLINE
  5
1910
  8
SAPA_PROFIL
 66
     1
 10
0.0
 20
0.0
 30
0.0
 70
     1
  0
VERTEX
  5
21E7
  8
SAPA_PROFIL
 10
292.0162757897985
 20
88.468950745727881
 30
0.0
  0
VERTEX
  5
21E8
  8
SAPA_PROFIL
 10
291.77373185195142
 20
88.468950745727881
 30
0.0
 42
0.2011813370902256
  0
VERTEX
  5
21E9
  8
SAPA_PROFIL
 10
291.63108176212091
 20
88.409132598587831
 30
0.0
  0
VERTEX
  5
21EA
  8
SAPA_PROFIL
 10
290.72036966909701
 20
87.482385239858132
 30
0.0
  0
VERTEX
  5
21EB
  8
SAPA_PROFIL
 10
290.7335772118401
 20
85.968950745726048
 30
0.0
 42
-0.4931454260356012
  0
VERTEX
  5
21EC
  8
SAPA_PROFIL
 10
290.95440410088781
 20
84.397685785488221
 30
0.0
  0
VERTEX
  5
21ED
  8
SAPA_PROFIL
 10
289.90522752827502
 20
83.330035948663877
 30
0.0
 42
-0.6681786379164681
  0
VERTEX
  5
21EE
  8
SAPA_PROFIL
 10
289.55532727079009
 20
83.471404829117574
 30
0.0
  0
VERTEX
  5
21EF
  8
SAPA_PROFIL
 10
289.51607778219278
 20
87.968950745727881
 30
0.0
  0
VERTEX
  5
21F0
  8
SAPA_PROFIL
 10
291.59359104142248
 20
90.083043597317584
 30
0.0
 42
0.2038501166358263
  0
VERTEX
  5
21F1
  8
SAPA_PROFIL
 10
291.7367738980285
 20
90.447350376735386
 30
0.0
  0
VERTEX
  5
21F2
  8
SAPA_PROFIL
 10
291.31814778873968
 20
105.55206362932979
 30
0.0
 42
0.4061212134736873
  0
VERTEX
  5
21F3
  8
SAPA_PROFIL
 10
288.31929930164023
 20
108.4689507457214
 30
0.0
  0
VERTEX
  5
21F4
  8
SAPA_PROFIL
 10
276.53510805817223
 20
108.4689507457214
 30
0.0
 42
0.4142135623730951
  0
VERTEX
  5
21F5
  8
SAPA_PROFIL
 10
276.03510805817223
 20
107.9689507457214
 30
0.0
  0
VERTEX
  5
21F6
  8
SAPA_PROFIL
 10
276.03510805817223
 20
96.383164308096326
 30
0.0
 42
0.198912367379658
  0
VERTEX
  5
21F7
  8
SAPA_PROFIL
 10
276.32800127698562
 20
95.676057526909787
 30
0.0
  0
VERTEX
  5
21F8
  8
SAPA_PROFIL
 10
276.70860005037611
 20
95.295458753519227
 30
0.0
 42
-0.1830252782112529
  0
VERTEX
  5
21F9
  8
SAPA_PROFIL
 10
277.29062859212371
 20
94.00379094478788
 30
0.0
  0
VERTEX
  5
21FA
  8
SAPA_PROFIL
 10
278.01369331945432
 20
83.570718915982084
 30
0.0
 42
-0.668178637923616
  0
VERTEX
  5
21FB
  8
SAPA_PROFIL
 10
277.49854282966533
 20
83.357336596448505
 30
0.0
  0
VERTEX
  5
21FC
  8
SAPA_PROFIL
 10
275.49906071474271
 20
85.356818711371048
 30
0.0
 42
-0.7332303362588345
  0
VERTEX
  5
21FD
  8
SAPA_PROFIL
 10
275.76328720239991
 20
85.864393071630744
 30
0.0
  0
VERTEX
  5
21FE
  8
SAPA_PROFIL
 10
276.37909829579831
 20
85.755808960844689
 30
0.0
 42
0.4663076581593561
  0
VERTEX
  5
21FF
  8
SAPA_PROFIL
 10
276.73119274909851
 20
86.051251286748126
 30
0.0
  0
VERTEX
  5
2200
  8
SAPA_PROFIL
 10
276.0000331272181
 20
93.810728412100417
 30
0.0
 42
0.183025278211264
  0
VERTEX
  5
2201
  8
SAPA_PROFIL
 10
275.70901885634419
 20
94.456562316466119
 30
0.0
  0
VERTEX
  5
2202
  8
SAPA_PROFIL
 10
275.32089449579922
 20
94.844686677011083
 30
0.0
 42
-0.1989123673796518
  0
VERTEX
  5
2203
  8
SAPA_PROFIL
 10
274.73510805817227
 20
96.258900239384133
 30
0.0
  0
VERTEX
  5
2204
  8
SAPA_PROFIL
 10
274.73510805817222
 20
107.66895074573689
 30
0.0
 42
0.4142135623732283
  0
VERTEX
  5
2205
  8
SAPA_PROFIL
 10
274.23510805817199
 20
108.16895074573689
 30
0.0
  0
VERTEX
  5
2206
  8
SAPA_PROFIL
 10
273.03510805817263
 20
108.1689507457359
 30
0.0
 42
-0.4142135623732062
  0
VERTEX
  5
2207
  8
SAPA_PROFIL
 10
272.73510805817261
 20
108.4689507457359
 30
0.0
  0
VERTEX
  5
2208
  8
SAPA_PROFIL
 10
272.73510805817222
 20
109.6689507457214
 30
0.0
 42
-0.4142135623716247
  0
VERTEX
  5
2209
  8
SAPA_PROFIL
 10
273.03510805817348
 20
109.9689507457214
 30
0.0
  0
VERTEX
  5
220A
  8
SAPA_PROFIL
 10
293.01151580049549
 20
109.968950745735
 30
0.0
 42
-0.4142135623732938
  0
VERTEX
  5
220B
  8
SAPA_PROFIL
 10
293.21151580049559
 20
109.768950745735
 30
0.0
  0
VERTEX
  5
220C
  8
SAPA_PROFIL
 10
293.21151580049559
 20
88.173574632049196
 30
0.0
 42
-0.4210020197690384
  0
VERTEX
  5
220D
  8
SAPA_PROFIL
 10
293.01156925845157
 20
87.968950745727881
 30
0.0
  0
VERTEX
  5
220E
  8
SAPA_PROFIL
 10
292.42358609525598
 20
87.968950745721386
 30
0.0
  0
VERTEX
  5
220F
  8
SAPA_PROFIL
 10
292.42358609525598
 20
88.268950745721398
 30
0.0
 42
0.41421356237322
  0
VERTEX
  5
2210
  8
SAPA_PROFIL
 10
292.223586095256
 20
88.468950745721287
 30
0.0
  0
VERTEX
  5
2211
  8
SAPA_PROFIL
 10
292.00640832978638
 20
88.468950745721401
 30
0.0
  0
SEQEND
  5
2212
  8
SAPA_PROFIL
  0
CIRCLE
  5
1911
  8
SAPA_PROFIL
 62
     2
 10
212.1009402520796
 20
106.63229167314179
 30
0.0
 40
0.8999999999999985
  0
POLYLINE
  5
1912
  8
SAPA_PROFIL
 62
     2
 66
     1
 10
0.0
 20
0.0
 30
0.0
  0
VERTEX
  5
2213
  8
SAPA_PROFIL
 62
     2
 10
213.4089466636527
 20
108.0322916731418
 30
0.0
  0
VERTEX
  5
2214
  8
SAPA_PROFIL
 62
     2
 10
212.3180278534999
 20
107.8399332531494
 30
0.0
  0
VERTEX
  5
2215
  8
SAPA_PROFIL
 62
     2
 10
212.20232831397999
 20
108.271729813051
 30
0.0
 42
0.4430158954262519
  0
VERTEX
  5
2216
  8
SAPA_PROFIL
 62
     2
 10
211.93885188587299
 20
108.4072068605951
 30
0.0
  0
VERTEX
  5
2217
  8
SAPA_PROFIL
 62
     2
 10
210.6683641379548
 20
107.93025866737609
 30
0.0
 42
0.3125358528825162
  0
VERTEX
  5
2218
  8
SAPA_PROFIL
 62
     2
 10
210.4089466636531
 20
107.5557769542467
 30
0.0
  0
VERTEX
  5
2219
  8
SAPA_PROFIL
 62
     2
 10
210.4089466636527
 20
105.6856216383364
 30
0.0
 42
0.3125358528825104
  0
VERTEX
  5
221A
  8
SAPA_PROFIL
 62
     2
 10
210.6683641379548
 20
105.311139925207
 30
0.0
  0
VERTEX
  5
221B
  8
SAPA_PROFIL
 62
     2
 10
211.93885188587299
 20
104.8341917319878
 30
0.0
 42
0.4430158954262519
  0
VERTEX
  5
221C
  8
SAPA_PROFIL
 62
     2
 10
212.2023283139799
 20
104.9696687795319
 30
0.0
  0
VERTEX
  5
221D
  8
SAPA_PROFIL
 62
     2
 10
212.3180278534999
 20
105.4014653394338
 30
0.0
  0
VERTEX
  5
221E
  8
SAPA_PROFIL
 62
     2
 10
213.4089466636527
 20
105.2091992962915
 30
0.0
  0
SEQEND
  5
221F
  8
SAPA_PROFIL
 62
     2
  0
POLYLINE
  5
1913
  8
SAPA_PROFIL
 62
     2
 66
     1
 10
0.0
 20
0.0
 30
0.0
 70
     1
  0
VERTEX
  5
2220
  8
SAPA_PROFIL
 62
     2
 10
213.4089466636527
 20
108.0206992962915
 30
0.0
 42
-0.285714285714282
  0
VERTEX
  5
2221
  8
SAPA_PROFIL
 62
     2
 10
213.4089466636527
 20
105.2206992962915
 30
0.0
  0
VERTEX
  5
2222
  8
SAPA_PROFIL
 62
     2
 10
213.4089466636531
 20
103.1469191269036
 30
0.0
 42
0.3882600129940275
  0
VERTEX
  5
2223
  8
SAPA_PROFIL
 62
     2
 10
213.68215738993271
 20
102.8481176295622
 30
0.0
  0
VERTEX
  5
2224
  8
SAPA_PROFIL
 62
     2
 10
217.5821573899328
 20
102.3819077056357
 30
0.0
 42
0.4406523138893894
  0
VERTEX
  5
2225
  8
SAPA_PROFIL
 62
     2
 10
217.9089466636527
 20
102.6807092029776
 30
0.0
  0
VERTEX
  5
2226
  8
SAPA_PROFIL
 62
     2
 10
217.9089466636527
 20
104.3905011998979
 30
0.0
 42
0.3394542588634375
  0
VERTEX
  5
2227
  8
SAPA_PROFIL
 62
     2
 10
217.6865923771837
 20
104.6802789477844
 30
0.0
  0
VERTEX
  5
2228
  8
SAPA_PROFIL
 62
     2
 10
217.46900659501611
 20
104.8826586757159
 30
0.0
 42
-0.3394542588633663
  0
VERTEX
  5
2229
  8
SAPA_PROFIL
 62
     2
 10
217.24665230854711
 20
105.1724364236026
 30
0.0
  0
VERTEX
  5
222A
  8
SAPA_PROFIL
 62
     2
 10
217.24665230854711
 20
108.06896216898051
 30
0.0
 42
-0.3394542588634373
  0
VERTEX
  5
222B
  8
SAPA_PROFIL
 62
     2
 10
217.46900659501611
 20
108.35873991686709
 30
0.0
  0
VERTEX
  5
222C
  8
SAPA_PROFIL
 62
     2
 10
217.6865923771837
 20
108.5611196447985
 30
0.0
 42
0.3394542588633662
  0
VERTEX
  5
222D
  8
SAPA_PROFIL
 62
     2
 10
217.9089466636527
 20
108.8508973926852
 30
0.0
  0
VERTEX
  5
222E
  8
SAPA_PROFIL
 62
     2
 10
217.9089466636527
 20
110.5606893896054
 30
0.0
 42
0.4406523138893994
  0
VERTEX
  5
222F
  8
SAPA_PROFIL
 62
     2
 10
217.5821573899328
 20
110.859490886947
 30
0.0
  0
VERTEX
  5
2230
  8
SAPA_PROFIL
 62
     2
 10
213.68215738993271
 20
110.3932809630207
 30
0.0
 42
0.3882600129940462
  0
VERTEX
  5
2231
  8
SAPA_PROFIL
 62
     2
 10
213.4089466636527
 20
110.0944794656793
 30
0.0
  0
VERTEX
  5
2232
  8
SAPA_PROFIL
 62
     2
 10
213.4089466636527
 20
108.0322916731418
 30
0.0
  0
SEQEND
  5
2233
  8
SAPA_PROFIL
 62
     2
  0
POLYLINE
  5
1914
  8
SAPA_PROFIL
 66
     1
 10
0.0
 20
0.0
 30
0.0
 70
     1
  0
VERTEX
  5
2234
  8
SAPA_PROFIL
 10
293.01151580049623
 20
74.268950745728077
 30
0.0
 42
-0.4142135623730951
  0
VERTEX
  5
2235
  8
SAPA_PROFIL
 10
293.21151580049627
 20
74.068950745728031
 30
0.0
  0
VERTEX
  5
2236
  8
SAPA_PROFIL
 10
293.21151580049622
 20
65.868950745728043
 30
0.0
 42
-0.4142135623730951
  0
VERTEX
  5
2237
  8
SAPA_PROFIL
 10
293.01151580049623
 20
65.66895074572804
 30
0.0
  0
VERTEX
  5
2238
  8
SAPA_PROFIL
 10
292.91151580049632
 20
65.66895074572804
 30
0.0
 42
0.4142135623730951
  0
VERTEX
  5
2239
  8
SAPA_PROFIL
 10
292.61151580049631
 20
65.368950745728029
 30
0.0
  0
VERTEX
  5
223A
  8
SAPA_PROFIL
 10
292.61151580049631
 20
63.968950745728051
 30
0.0
 42
0.4142135623730951
  0
VERTEX
  5
223B
  8
SAPA_PROFIL
 10
292.91151580049632
 20
63.66895074572804
 30
0.0
  0
VERTEX
  5
223C
  8
SAPA_PROFIL
 10
293.01151580049623
 20
63.668950745728083
 30
0.0
 42
-0.4142135623730951
  0
VERTEX
  5
223D
  8
SAPA_PROFIL
 10
293.21151580049627
 20
63.46895074572803
 30
0.0
  0
VERTEX
  5
223E
  8
SAPA_PROFIL
 10
293.21151580049627
 20
61.968950745728037
 30
0.0
 42
-0.4142135623730951
  0
VERTEX
  5
223F
  8
SAPA_PROFIL
 10
292.91151580049632
 20
61.66895074572804
 30
0.0
  0
VERTEX
  5
2240
  8
SAPA_PROFIL
 10
274.91151580049632
 20
61.668950745728047
 30
0.0
 42
-0.4142135623730951
  0
VERTEX
  5
2241
  8
SAPA_PROFIL
 10
274.61151580049619
 20
61.968950745728037
 30
0.0
  0
VERTEX
  5
2242
  8
SAPA_PROFIL
 10
274.61151580049631
 20
63.468950745728037
 30
0.0
 42
-0.4142135623730951
  0
VERTEX
  5
2243
  8
SAPA_PROFIL
 10
274.8115158004963
 20
63.668950745728047
 30
0.0
  0
VERTEX
  5
2244
  8
SAPA_PROFIL
 10
274.91151580049632
 20
63.668950745728047
 30
0.0
 42
0.4142135623730951
  0
VERTEX
  5
2245
  8
SAPA_PROFIL
 10
275.21151580049627
 20
63.968950745728058
 30
0.0
  0
VERTEX
  5
2246
  8
SAPA_PROFIL
 10
275.21151580049627
 20
65.368950745728029
 30
0.0
 42
0.4142135623730951
  0
VERTEX
  5
2247
  8
SAPA_PROFIL
 10
274.91151580049632
 20
65.66895074572804
 30
0.0
  0
VERTEX
  5
2248
  8
SAPA_PROFIL
 10
274.8115158004963
 20
65.668950745728011
 30
0.0
 42
-0.4142135623730951
  0
VERTEX
  5
2249
  8
SAPA_PROFIL
 10
274.61151580049619
 20
65.868950745728057
 30
0.0
  0
VERTEX
  5
224A
  8
SAPA_PROFIL
 10
274.61151580049631
 20
74.068950745728046
 30
0.0
 42
-0.4142135623730951
  0
VERTEX
  5
224B
  8
SAPA_PROFIL
 10
274.8115158004963
 20
74.268950745728034
 30
0.0
  0
VERTEX
  5
224C
  8
SAPA_PROFIL
 10
274.91151580049632
 20
74.268950745728034
 30
0.0
 42
0.4142135623730951
  0
VERTEX
  5
224D
  8
SAPA_PROFIL
 10
275.21151580049627
 20
74.568950745728074
 30
0.0
  0
VERTEX
  5
224E
  8
SAPA_PROFIL
 10
275.21151580049627
 20
75.968950745728023
 30
0.0
 42
0.4142135623730951
  0
VERTEX
  5
224F
  8
SAPA_PROFIL
 10
274.91151580049632
 20
76.268950745728034
 30
0.0
  0
VERTEX
  5
2250
  8
SAPA_PROFIL
 10
274.8115158004963
 20
76.268950745728006
 30
0.0
 42
-0.4142135623730951
  0
VERTEX
  5
2251
  8
SAPA_PROFIL
 10
274.61151580049619
 20
76.468950745728051
 30
0.0
  0
VERTEX
  5
2252
  8
SAPA_PROFIL
 10
274.61151580049619
 20
77.968950745728023
 30
0.0
 42
-0.4142135623731096
  0
VERTEX
  5
2253
  8
SAPA_PROFIL
 10
274.91151580049632
 20
78.268950745728034
 30
0.0
  0
VERTEX
  5
2254
  8
SAPA_PROFIL
 10
276.3115158004963
 20
78.268950745728034
 30
0.0
 42
0.4142135623730868
  0
VERTEX
  5
2255
  8
SAPA_PROFIL
 10
276.61151580049619
 20
78.568950745728003
 30
0.0
  0
VERTEX
  5
2256
  8
SAPA_PROFIL
 10
276.61151580049631
 20
79.468950745728023
 30
0.0
 42
0.4142135623730888
  0
VERTEX
  5
2257
  8
SAPA_PROFIL
 10
276.31151580049641
 20
79.768950745728034
 30
0.0
  0
VERTEX
  5
2258
  8
SAPA_PROFIL
 10
274.91151580049632
 20
79.768950745728063
 30
0.0
 42
-0.4142135623730951
  0
VERTEX
  5
2259
  8
SAPA_PROFIL
 10
274.61151580049619
 20
80.068950745728074
 30
0.0
  0
VERTEX
  5
225A
  8
SAPA_PROFIL
 10
274.61151580049631
 20
80.768950745728034
 30
0.0
 42
-0.4142139999999085
  0
VERTEX
  5
225B
  8
SAPA_PROFIL
 10
275.11151580049619
 20
81.268950745728034
 30
0.0
  0
VERTEX
  5
225C
  8
SAPA_PROFIL
 10
292.71151580049622
 20
81.26895074572802
 30
0.0
 42
-0.4142135623730951
  0
VERTEX
  5
225D
  8
SAPA_PROFIL
 10
293.21151580049627
 20
80.768950745728006
 30
0.0
  0
VERTEX
  5
225E
  8
SAPA_PROFIL
 10
293.21151580049627
 20
80.068950745728003
 30
0.0
 42
-0.4142135623730826
  0
VERTEX
  5
225F
  8
SAPA_PROFIL
 10
292.91151580049632
 20
79.76895074572802
 30
0.0
  0
VERTEX
  5
2260
  8
SAPA_PROFIL
 10
291.51151580049628
 20
79.76895074572802
 30
0.0
 42
0.4142135623730951
  0
VERTEX
  5
2261
  8
SAPA_PROFIL
 10
291.21151580049627
 20
79.468950745728037
 30
0.0
  0
VERTEX
  5
2262
  8
SAPA_PROFIL
 10
291.21151580049627
 20
78.568950745728003
 30
0.0
 42
0.4142135623730951
  0
VERTEX
  5
2263
  8
SAPA_PROFIL
 10
291.51151580049628
 20
78.26895074572802
 30
0.0
  0
VERTEX
  5
2264
  8
SAPA_PROFIL
 10
292.91151580049632
 20
78.268950745728034
 30
0.0
 42
-0.4142135623730951
  0
VERTEX
  5
2265
  8
SAPA_PROFIL
 10
293.21151580049627
 20
77.968950745728023
 30
0.0
  0
VERTEX
  5
2266
  8
SAPA_PROFIL
 10
293.21151580049622
 20
76.468950745728037
 30
0.0
 42
-0.4142135623730639
  0
VERTEX
  5
2267
  8
SAPA_PROFIL
 10
293.01151580049623
 20
76.26895074572802
 30
0.0
  0
VERTEX
  5
2268
  8
SAPA_PROFIL
 10
292.91151580049632
 20
76.26895074572802
 30
0.0
 42
0.4142135623730951
  0
VERTEX
  5
2269
  8
SAPA_PROFIL
 10
292.61151580049631
 20
75.968950745728023
 30
0.0
  0
VERTEX
  5
226A
  8
SAPA_PROFIL
 10
292.61151580049631
 20
74.568950745728046
 30
0.0
 42
0.4142135623730951
  0
VERTEX
  5
226B
  8
SAPA_PROFIL
 10
292.91151580049632
 20
74.26895074572802
 30
0.0
  0
SEQEND
  5
226C
  8
SAPA_PROFIL
  0
POLYLINE
  5
1915
  8
SAPA_PROFIL
 66
     1
 10
0.0
 20
0.0
 30
0.0
 70
     1
  0
VERTEX
  5
226D
  8
SAPA_PROFIL
 10
273.01151580049623
 20
47.79255774572799
 30
0.0
 42
-0.2134220000001013
  0
VERTEX
  5
226E
  8
SAPA_PROFIL
 10
272.9115158004962
 20
48.016164745728062
 30
0.0
  0
VERTEX
  5
226F
  8
SAPA_PROFIL
 10
272.91151580049632
 20
51.868950745728078
 30
0.0
 42
0.4142140000000627
  0
VERTEX
  5
2270
  8
SAPA_PROFIL
 10
272.61151580049619
 20
52.168950745728061
 30
0.0
  0
VERTEX
  5
2271
  8
SAPA_PROFIL
 10
272.32036780049617
 20
52.168950745728061
 30
0.0
  0
VERTEX
  5
2272
  8
SAPA_PROFIL
 10
270.71100680049631
 20
51.246076745727997
 30
0.0
 42
-0.5763720000003777
  0
VERTEX
  5
2273
  8
SAPA_PROFIL
 10
270.4115158004962
 20
51.419574745728077
 30
0.0
  0
VERTEX
  5
2274
  8
SAPA_PROFIL
 10
270.41151580049609
 20
52.804035745728058
 30
0.0
 42
-0.2679489999999971
  0
VERTEX
  5
2275
  8
SAPA_PROFIL
 10
270.91151580049632
 20
53.67006174572807
 30
0.0
  0
VERTEX
  5
2276
  8
SAPA_PROFIL
 10
272.66151571307432
 20
54.680424195254957
 30
0.0
 42
0.267949246527973
  0
VERTEX
  5
2277
  8
SAPA_PROFIL
 10
272.91151580049632
 20
55.11343694762018
 30
0.0
  0
VERTEX
  5
2278
  8
SAPA_PROFIL
 10
272.91151580049632
 20
78.624464543835984
 30
0.0
 42
0.2679492465278876
  0
VERTEX
  5
2279
  8
SAPA_PROFIL
 10
272.66151571307432
 20
79.057477296201057
 30
0.0
  0
VERTEX
  5
227A
  8
SAPA_PROFIL
 10
270.91151580049632
 20
80.067839745728094
 30
0.0
 42
-0.2679490000000044
  0
VERTEX
  5
227B
  8
SAPA_PROFIL
 10
270.41151580049632
 20
80.933865745727957
 30
0.0
  0
VERTEX
  5
227C
  8
SAPA_PROFIL
 10
270.4115158004962
 20
82.318326745728044
 30
0.0
 42
-0.5763720000001444
  0
VERTEX
  5
227D
  8
SAPA_PROFIL
 10
270.71100680049631
 20
82.491824745728053
 30
0.0
  0
VERTEX
  5
227E
  8
SAPA_PROFIL
 10
271.01296180049621
 20
82.318671745727954
 30
0.0
  0
VERTEX
  5
227F
  8
SAPA_PROFIL
 10
272.31151580049618
 20
81.568950745727918
 30
0.0
  0
VERTEX
  5
2280
  8
SAPA_PROFIL
 10
272.61151580049619
 20
81.568950745727918
 30
0.0
 42
0.4142140000001184
  0
VERTEX
  5
2281
  8
SAPA_PROFIL
 10
272.91151580049632
 20
81.868950745728057
 30
0.0
  0
VERTEX
  5
2282
  8
SAPA_PROFIL
 10
272.9115158004962
 20
85.721737745727935
 30
0.0
 42
-0.2134213298316648
  0
VERTEX
  5
2283
  8
SAPA_PROFIL
 10
273.01151580049628
 20
85.945344279297757
 30
0.0
 42
0.7625858545243225
  0
VERTEX
  5
2284
  8
SAPA_PROFIL
 10
272.8269365982988
 20
86.275670360314791
 30
0.0
  0
VERTEX
  5
2285
  8
SAPA_PROFIL
 10
272.63555359830508
 20
86.217596723325698
 30
0.0
  0
VERTEX
  5
2286
  8
SAPA_PROFIL
 10
270.74970990644402
 20
85.133032276353944
 30
0.0
  0
VERTEX
  5
2287
  8
SAPA_PROFIL
 10
270.7602712726711
 20
84.811274548135685
 30
0.0
 42
-0.577350269189744
  0
VERTEX
  5
2288
  8
SAPA_PROFIL
 10
270.46611497241622
 20
84.628320808025535
 30
0.0
  0
VERTEX
  5
2289
  8
SAPA_PROFIL
 10
270.18143268918448
 20
84.780454719134269
 30
0.0
 42
-0.221694662643019
  0
VERTEX
  5
228A
  8
SAPA_PROFIL
 10
269.77562378402968
 20
85.321334550611084
 30
0.0
  0
VERTEX
  5
228B
  8
SAPA_PROFIL
 10
269.39417718790202
 20
87.13456502126931
 30
0.0
 42
-0.4769755326981643
  0
VERTEX
  5
228C
  8
SAPA_PROFIL
 10
269.69643001240848
 20
87.506221896215209
 30
0.0
  0
VERTEX
  5
228D
  8
SAPA_PROFIL
 10
271.19953109317049
 20
87.506138288331556
 30
0.0
  0
VERTEX
  5
228E
  8
SAPA_PROFIL
 10
271.21404950241759
 20
87.458292538333055
 30
0.0
 42
0.4142135623730948
  0
VERTEX
  5
228F
  8
SAPA_PROFIL
 10
271.58823445789341
 20
87.258328493825687
 30
0.0
  0
VERTEX
  5
2290
  8
SAPA_PROFIL
 10
272.90935055883273
 20
87.768950745728034
 30
0.0
  0
VERTEX
  5
2291
  8
SAPA_PROFIL
 10
275.84694118163151
 20
87.768950745728034
 30
0.0
 42
-0.2562769736732229
  0
VERTEX
  5
2292
  8
SAPA_PROFIL
 10
276.09994993794851
 20
87.630154248254854
 30
0.0
  0
VERTEX
  5
2293
  8
SAPA_PROFIL
 10
276.86452506905488
 20
86.430154248254837
 30
0.0
 42
-0.5920056181179316
  0
VERTEX
  5
2294
  8
SAPA_PROFIL
 10
276.61151631273788
 20
85.968950745728037
 30
0.0
  0
VERTEX
  5
2295
  8
SAPA_PROFIL
 10
275.21151580049627
 20
85.968950745728037
 30
0.0
 42
0.4142140000001124
  0
VERTEX
  5
2296
  8
SAPA_PROFIL
 10
274.91151580049632
 20
85.668950745728026
 30
0.0
  0
VERTEX
  5
2297
  8
SAPA_PROFIL
 10
274.91151580049632
 20
83.268950745728034
 30
0.0
 42
0.4142140000000917
  0
VERTEX
  5
2298
  8
SAPA_PROFIL
 10
275.21151580049627
 20
82.968950745728165
 30
0.0
  0
VERTEX
  5
2299
  8
SAPA_PROFIL
 10
292.61151580049631
 20
82.968950745728051
 30
0.0
 42
0.4142140000000501
  0
VERTEX
  5
229A
  8
SAPA_PROFIL
 10
292.91151580049632
 20
83.268950745728006
 30
0.0
  0
VERTEX
  5
229B
  8
SAPA_PROFIL
 10
292.91151580049632
 20
85.668950745728026
 30
0.0
 42
0.4142140000001063
  0
VERTEX
  5
229C
  8
SAPA_PROFIL
 10
292.61151580049631
 20
85.968950745728037
 30
0.0
  0
VERTEX
  5
229D
  8
SAPA_PROFIL
 10
291.21151606671378
 20
85.968950745728065
 30
0.0
 42
-0.5877032589249778
  0
VERTEX
  5
229E
  8
SAPA_PROFIL
 10
290.95646984940379
 20
86.426910952855678
 30
0.0
  0
VERTEX
  5
229F
  8
SAPA_PROFIL
 10
291.82354520661198
 20
87.826910952855741
 30
0.0
 42
-0.2596812337301606
  0
VERTEX
  5
22A0
  8
SAPA_PROFIL
 10
292.07859142392209
 20
87.968950745728051
 30
0.0
  0
VERTEX
  5
22A1
  8
SAPA_PROFIL
 10
294.61151580049631
 20
87.968950745728236
 30
0.0
 42
-0.4142140000001063
  0
VERTEX
  5
22A2
  8
SAPA_PROFIL
 10
294.91151580049632
 20
87.66895074572804
 30
0.0
  0
VERTEX
  5
22A3
  8
SAPA_PROFIL
 10
294.91151580049632
 20
46.268950745728162
 30
0.0
 42
-0.4142135623730951
  0
VERTEX
  5
22A4
  8
SAPA_PROFIL
 10
294.61151580049631
 20
45.968950745728151
 30
0.0
  0
VERTEX
  5
22A5
  8
SAPA_PROFIL
 10
292.36151580049631
 20
45.968950745728151
 30
0.0
 42
-0.4142135623730951
  0
VERTEX
  5
22A6
  8
SAPA_PROFIL
 10
292.0615158004963
 20
46.268950745728162
 30
0.0
  0
VERTEX
  5
22A7
  8
SAPA_PROFIL
 10
292.0615158004963
 20
47.383044834938218
 30
0.0
  0
VERTEX
  5
22A8
  8
SAPA_PROFIL
 10
292.25129354838288
 20
48.091305032197411
 30
0.0
 42
0.49314542603132
  0
VERTEX
  5
22A9
  8
SAPA_PROFIL
 10
291.96151580049627
 20
48.468950745728179
 30
0.0
  0
VERTEX
  5
22AA
  8
SAPA_PROFIL
 10
290.61151580049631
 20
48.468950745728151
 30
0.0
 42
-0.4142135623730951
  0
VERTEX
  5
22AB
  8
SAPA_PROFIL
 10
290.3115158004963
 20
48.768950745728162
 30
0.0
  0
VERTEX
  5
22AC
  8
SAPA_PROFIL
 10
290.3115158004963
 20
49.668950745728139
 30
0.0
 42
-0.4142135623730951
  0
VERTEX
  5
22AD
  8
SAPA_PROFIL
 10
290.61151580049631
 20
49.968950745728151
 30
0.0
  0
VERTEX
  5
22AE
  8
SAPA_PROFIL
 10
292.71151580049622
 20
49.968950745728151
 30
0.0
 42
0.4142135623730951
  0
VERTEX
  5
22AF
  8
SAPA_PROFIL
 10
293.21151580049627
 20
50.468950745728151
 30
0.0
  0
VERTEX
  5
22B0
  8
SAPA_PROFIL
 10
293.21151580049627
 20
59.468950745728051
 30
0.0
 42
0.4142135623730951
  0
VERTEX
  5
22B1
  8
SAPA_PROFIL
 10
292.71151580049622
 20
59.968950745728051
 30
0.0
  0
VERTEX
  5
22B2
  8
SAPA_PROFIL
 10
284.43113104276699
 20
59.968950745728051
 30
0.0
  0
VERTEX
  5
22B3
  8
SAPA_PROFIL
 10
283.91151580049632
 20
60.268950745728063
 30
0.0
  0
VERTEX
  5
22B4
  8
SAPA_PROFIL
 10
283.39190055822547
 20
59.968950745728051
 30
0.0
  0
VERTEX
  5
22B5
  8
SAPA_PROFIL
 10
275.71151580049627
 20
59.968950745728058
 30
0.0
 42
0.4142135623730951
  0
VERTEX
  5
22B6
  8
SAPA_PROFIL
 10
275.21151580049627
 20
59.468950745728058
 30
0.0
  0
VERTEX
  5
22B7
  8
SAPA_PROFIL
 10
275.21151580049627
 20
50.468950745728158
 30
0.0
 42
0.4142135623730951
  0
VERTEX
  5
22B8
  8
SAPA_PROFIL
 10
275.71151580049627
 20
49.968950745728151
 30
0.0
  0
VERTEX
  5
22B9
  8
SAPA_PROFIL
 10
277.21151580049622
 20
49.968950745728137
 30
0.0
 42
-0.4142135623730951
  0
VERTEX
  5
22BA
  8
SAPA_PROFIL
 10
277.51151580049623
 20
49.668950745728139
 30
0.0
  0
VERTEX
  5
22BB
  8
SAPA_PROFIL
 10
277.51151580049623
 20
48.768950745728169
 30
0.0
 42
-0.4142135623730951
  0
VERTEX
  5
22BC
  8
SAPA_PROFIL
 10
277.21151580049622
 20
48.468950745728158
 30
0.0
  0
VERTEX
  5
22BD
  8
SAPA_PROFIL
 10
275.86151580049631
 20
48.468950745728179
 30
0.0
 42
0.4931454260312944
  0
VERTEX
  5
22BE
  8
SAPA_PROFIL
 10
275.57173805260948
 20
48.091305032197418
 30
0.0
  0
VERTEX
  5
22BF
  8
SAPA_PROFIL
 10
275.76151580049623
 20
47.383044834938232
 30
0.0
  0
VERTEX
  5
22C0
  8
SAPA_PROFIL
 10
275.76151580049623
 20
46.268950745728169
 30
0.0
 42
-0.4142135623730951
  0
VERTEX
  5
22C1
  8
SAPA_PROFIL
 10
275.46151580049622
 20
45.968950745728158
 30
0.0
  0
VERTEX
  5
22C2
  8
SAPA_PROFIL
 10
272.90935246259443
 20
45.968950745728158
 30
0.0
  0
VERTEX
  5
22C3
  8
SAPA_PROFIL
 10
271.58823445789352
 20
46.47957373345006
 30
0.0
 42
0.4142135623730948
  0
VERTEX
  5
22C4
  8
SAPA_PROFIL
 10
271.21404950241759
 20
46.279609688942656
 30
0.0
  0
VERTEX
  5
22C5
  8
SAPA_PROFIL
 10
271.19953109317061
 20
46.231763938944169
 30
0.0
  0
VERTEX
  5
22C6
  8
SAPA_PROFIL
 10
269.69643001240848
 20
46.231680331060531
 30
0.0
 42
-0.4769755326981643
  0
VERTEX
  5
22C7
  8
SAPA_PROFIL
 10
269.39417718790207
 20
46.603337206006387
 30
0.0
  0
VERTEX
  5
22C8
  8
SAPA_PROFIL
 10
269.77562378402979
 20
48.416567676664648
 30
0.0
 42
-0.2216946626430187
  0
VERTEX
  5
22C9
  8
SAPA_PROFIL
 10
270.18143268918459
 20
48.957447508141428
 30
0.0
  0
VERTEX
  5
22CA
  8
SAPA_PROFIL
 10
270.46611497241622
 20
49.109581419250212
 30
0.0
 42
-0.5773502691897444
  0
VERTEX
  5
22CB
  8
SAPA_PROFIL
 10
270.7602712726711
 20
48.926627679140019
 30
0.0
  0
VERTEX
  5
22CC
  8
SAPA_PROFIL
 10
270.74970990644408
 20
48.604869950921767
 30
0.0
  0
VERTEX
  5
22CD
  8
SAPA_PROFIL
 10
272.63555359830519
 20
47.520305503950027
 30
0.0
  0
VERTEX
  5
22CE
  8
SAPA_PROFIL
 10
272.8269365982988
 20
47.462231866960948
 30
0.0
 42
0.7626853783874326
  0
SEQEND
  5
22CF
  8
SAPA_PROFIL
  0
POLYLINE
  5
1916
  8
SAPA_PROFIL
 66
     1
 10
0.0
 20
0.0
 30
0.0
 70
     1
  0
VERTEX
  5
22D0
  8
SAPA_PROFIL
 10
233.06276032832119
 20
84.811273812316173
 30
0.0
  0
VERTEX
  5
22D1
  8
SAPA_PROFIL
 10
233.07332169454821
 20
85.133031540534418
 30
0.0
  0
VERTEX
  5
22D2
  8
SAPA_PROFIL
 10
231.1874780026871
 20
86.217595987506158
 30
0.0
  0
VERTEX
  5
22D3
  8
SAPA_PROFIL
 10
230.99609500269341
 20
86.275669624495265
 30
0.0
 42
0.7625858545243297
  0
VERTEX
  5
22D4
  8
SAPA_PROFIL
 10
230.81151580049601
 20
85.945343543478245
 30
0.0
 42
-0.2134217652834355
  0
VERTEX
  5
22D5
  8
SAPA_PROFIL
 10
230.91151580049609
 20
85.721736745728109
 30
0.0
  0
VERTEX
  5
22D6
  8
SAPA_PROFIL
 10
230.91151580049609
 20
81.868950745728014
 30
0.0
 42
0.4142139999999934
  0
VERTEX
  5
22D7
  8
SAPA_PROFIL
 10
231.2115158004961
 20
81.568950745728117
 30
0.0
  0
VERTEX
  5
22D8
  8
SAPA_PROFIL
 10
231.51151580049611
 20
81.568950745728117
 30
0.0
  0
VERTEX
  5
22D9
  8
SAPA_PROFIL
 10
233.11151580049611
 20
82.49271074572799
 30
0.0
 42
-0.5773499999999043
  0
VERTEX
  5
22DA
  8
SAPA_PROFIL
 10
233.41151580049609
 20
82.319505745728023
 30
0.0
  0
VERTEX
  5
22DB
  8
SAPA_PROFIL
 10
233.4115158004962
 20
80.933865745728141
 30
0.0
 42
-0.2679489999999989
  0
VERTEX
  5
22DC
  8
SAPA_PROFIL
 10
232.91151580049609
 20
80.067839745728037
 30
0.0
  0
VERTEX
  5
22DD
  8
SAPA_PROFIL
 10
231.16151580049609
 20
79.057476745728096
 30
0.0
 42
0.2679490000000071
  0
VERTEX
  5
22DE
  8
SAPA_PROFIL
 10
230.91151580049609
 20
78.624464745727991
 30
0.0
  0
VERTEX
  5
22DF
  8
SAPA_PROFIL
 10
230.91151580049601
 20
55.113436745728009
 30
0.0
 42
0.2679490000000263
  0
VERTEX
  5
22E0
  8
SAPA_PROFIL
 10
231.16151580049601
 20
54.68042474572804
 30
0.0
  0
VERTEX
  5
22E1
  8
SAPA_PROFIL
 10
232.91151580049601
 20
53.670061745727999
 30
0.0
 42
-0.26794899999998
  0
VERTEX
  5
22E2
  8
SAPA_PROFIL
 10
233.41151580049601
 20
52.804035745728029
 30
0.0
  0
VERTEX
  5
22E3
  8
SAPA_PROFIL
 10
233.41151580049601
 20
51.418395745728027
 30
0.0
 42
-0.5773499999998807
  0
VERTEX
  5
22E4
  8
SAPA_PROFIL
 10
233.11151580049599
 20
51.245190745728038
 30
0.0
  0
VERTEX
  5
22E5
  8
SAPA_PROFIL
 10
231.511515800496
 20
52.168950745728033
 30
0.0
  0
VERTEX
  5
22E6
  8
SAPA_PROFIL
 10
231.21151580049599
 20
52.168950745728033
 30
0.0
 42
0.4142140000000629
  0
VERTEX
  5
22E7
  8
SAPA_PROFIL
 10
230.91151580049601
 20
51.868950745728007
 30
0.0
  0
VERTEX
  5
22E8
  8
SAPA_PROFIL
 10
230.91151580049601
 20
48.016164745728027
 30
0.0
 42
-0.2134217652834357
  0
VERTEX
  5
22E9
  8
SAPA_PROFIL
 10
230.81151580049581
 20
47.792557947977947
 30
0.0
 42
0.7625858545243294
  0
VERTEX
  5
22EA
  8
SAPA_PROFIL
 10
230.99609500269329
 20
47.46223186696092
 30
0.0
  0
VERTEX
  5
22EB
  8
SAPA_PROFIL
 10
231.18747800268699
 20
47.520305503950013
 30
0.0
  0
VERTEX
  5
22EC
  8
SAPA_PROFIL
 10
233.0733216945481
 20
48.604869950921753
 30
0.0
  0
VERTEX
  5
22ED
  8
SAPA_PROFIL
 10
233.0627603283211
 20
48.926627679140033
 30
0.0
 42
-0.5773502691897452
  0
VERTEX
  5
22EE
  8
SAPA_PROFIL
 10
233.3569166285759
 20
49.109581419250183
 30
0.0
  0
VERTEX
  5
22EF
  8
SAPA_PROFIL
 10
233.64159891180759
 20
48.957447508141421
 30
0.0
 42
-0.22169466264302
  0
VERTEX
  5
22F0
  8
SAPA_PROFIL
 10
234.04740781696239
 20
48.416567676664627
 30
0.0
  0
VERTEX
  5
22F1
  8
SAPA_PROFIL
 10
234.42885441309011
 20
46.603337206006373
 30
0.0
 42
-0.4769755326981634
  0
VERTEX
  5
22F2
  8
SAPA_PROFIL
 10
234.12660158858361
 20
46.231680331060502
 30
0.0
  0
VERTEX
  5
22F3
  8
SAPA_PROFIL
 10
232.6235005078216
 20
46.231763938944148
 30
0.0
  0
VERTEX
  5
22F4
  8
SAPA_PROFIL
 10
232.6089820985745
 20
46.279609688942642
 30
0.0
 42
0.4142135623730948
  0
VERTEX
  5
22F5
  8
SAPA_PROFIL
 10
232.23479714309869
 20
46.479573733450032
 30
0.0
  0
VERTEX
  5
22F6
  8
SAPA_PROFIL
 10
231.09801882175381
 20
45.968950745728122
 30
0.0
 42
0.3939104818403477
  0
VERTEX
  5
22F7
  8
SAPA_PROFIL
 10
230.89850601140111
 20
45.782902036176083
 30
0.0
  0
VERTEX
  5
22F8
  8
SAPA_PROFIL
 10
230.2098089910908
 20
35.934072745728038
 30
0.0
 42
-0.3939100000000344
  0
VERTEX
  5
22F9
  8
SAPA_PROFIL
 10
229.71102699109099
 20
35.468950745728122
 30
0.0
  0
VERTEX
  5
22FA
  8
SAPA_PROFIL
 10
226.71151580049599
 20
35.468950745728037
 30
0.0
 42
-0.4142140000000351
  0
VERTEX
  5
22FB
  8
SAPA_PROFIL
 10
226.41151580049601
 20
35.76895074572802
 30
0.0
  0
VERTEX
  5
22FC
  8
SAPA_PROFIL
 10
226.41151580049609
 20
36.668950745728033
 30
0.0
 42
-0.4142140000001184
  0
VERTEX
  5
22FD
  8
SAPA_PROFIL
 10
226.71151580049599
 20
36.968950745728122
 30
0.0
  0
VERTEX
  5
22FE
  8
SAPA_PROFIL
 10
228.71151580049599
 20
36.968950745728122
 30
0.0
 42
0.4142139999999795
  0
VERTEX
  5
22FF
  8
SAPA_PROFIL
 10
228.91151580049601
 20
37.168950745728033
 30
0.0
  0
VERTEX
  5
2300
  8
SAPA_PROFIL
 10
228.91151580049601
 20
39.26895074572802
 30
0.0
  0
VERTEX
  5
2301
  8
SAPA_PROFIL
 10
229.07807580049601
 20
39.890561745728021
 30
0.0
 42
0.5773500000000461
  0
VERTEX
  5
2302
  8
SAPA_PROFIL
 10
228.83312680049599
 20
40.135510745728119
 30
0.0
  0
VERTEX
  5
2303
  8
SAPA_PROFIL
 10
228.21151580049599
 20
39.968950745728122
 30
0.0
  0
VERTEX
  5
2304
  8
SAPA_PROFIL
 10
226.41151580049601
 20
39.968950745728122
 30
0.0
 42
-0.4142140000000129
  0
VERTEX
  5
2305
  8
SAPA_PROFIL
 10
225.91151580049601
 20
40.468950745728122
 30
0.0
  0
VERTEX
  5
2306
  8
SAPA_PROFIL
 10
225.91151580049601
 20
41.168950745728019
 30
0.0
 42
0.4142140000001183
  0
VERTEX
  5
2307
  8
SAPA_PROFIL
 10
225.61151580049599
 20
41.468950745728122
 30
0.0
  0
VERTEX
  5
2308
  8
SAPA_PROFIL
 10
214.2115158004961
 20
41.468950745728129
 30
0.0
 42
0.4142140000001183
  0
VERTEX
  5
2309
  8
SAPA_PROFIL
 10
213.91151580049601
 20
41.168950745728033
 30
0.0
  0
VERTEX
  5
230A
  8
SAPA_PROFIL
 10
213.91151580049601
 20
40.468950745728122
 30
0.0
 42
-0.4142139999999961
  0
VERTEX
  5
230B
  8
SAPA_PROFIL
 10
213.41151580049601
 20
39.968950745728129
 30
0.0
  0
VERTEX
  5
230C
  8
SAPA_PROFIL
 10
209.61151580049599
 20
39.968950745728129
 30
0.0
  0
VERTEX
  5
230D
  8
SAPA_PROFIL
 10
208.98990480049599
 20
40.135510745728133
 30
0.0
 42
0.5773500000000463
  0
VERTEX
  5
230E
  8
SAPA_PROFIL
 10
208.744955800496
 20
39.890561745728029
 30
0.0
  0
VERTEX
  5
230F
  8
SAPA_PROFIL
 10
208.91151580049601
 20
39.268950745728027
 30
0.0
  0
VERTEX
  5
2310
  8
SAPA_PROFIL
 10
208.91151580049601
 20
37.168950745728033
 30
0.0
 42
0.4142139999999587
  0
VERTEX
  5
2311
  8
SAPA_PROFIL
 10
209.11151580049599
 20
36.968950745728129
 30
0.0
  0
VERTEX
  5
2312
  8
SAPA_PROFIL
 10
211.11151580049599
 20
36.968950745728243
 30
0.0
 42
-0.4142140000001182
  0
VERTEX
  5
2313
  8
SAPA_PROFIL
 10
211.41151580049601
 20
36.668950745728033
 30
0.0
  0
VERTEX
  5
2314
  8
SAPA_PROFIL
 10
211.41151580049589
 20
35.768950745728027
 30
0.0
 42
-0.4142140000000489
  0
VERTEX
  5
2315
  8
SAPA_PROFIL
 10
211.11151580049599
 20
35.468950745728129
 30
0.0
  0
VERTEX
  5
2316
  8
SAPA_PROFIL
 10
207.41151580049601
 20
35.468950745728129
 30
0.0
 42
-0.4142140000000129
  0
VERTEX
  5
2317
  8
SAPA_PROFIL
 10
206.91151580049601
 20
35.968950745728129
 30
0.0
  0
VERTEX
  5
2318
  8
SAPA_PROFIL
 10
206.91151580049601
 20
42.933416745728138
 30
0.0
 42
0.6681789999999829
  0
VERTEX
  5
2319
  8
SAPA_PROFIL
 10
206.057962800496
 20
43.28696974572803
 30
0.0
  0
VERTEX
  5
231A
  8
SAPA_PROFIL
 10
202.1324275162996
 20
39.361435342651617
 30
0.0
 42
0.1844274607451788
  0
VERTEX
  5
231B
  8
SAPA_PROFIL
 10
201.84109542346991
 20
38.710185203472548
 30
0.0
  0
VERTEX
  5
231C
  8
SAPA_PROFIL
 10
201.11151580049599
 20
25.66895074572804
 30
0.0
 42
0.4142140000000085
  0
VERTEX
  5
231D
  8
SAPA_PROFIL
 10
202.11151580049599
 20
24.668950745728029
 30
0.0
  0
VERTEX
  5
231E
  8
SAPA_PROFIL
 10
202.91151580049601
 20
24.668950745728029
 30
0.0
 42
-0.4241419999999986
  0
VERTEX
  5
231F
  8
SAPA_PROFIL
 10
203.91094580049599
 20
23.63517874572803
 30
0.0
 42
-0.2988660000000008
  0
VERTEX
  5
2320
  8
SAPA_PROFIL
 10
203.34008680049601
 20
22.697898745728079
 30
0.0
 42
-0.5507600000000796
  0
VERTEX
  5
2321
  8
SAPA_PROFIL
 10
202.91151580049601
 20
22.968950745728161
 30
0.0
  0
VERTEX
  5
2322
  8
SAPA_PROFIL
 10
202.91151580049601
 20
23.268950745728059
 30
0.0
 42
0.4142140000000836
  0
VERTEX
  5
2323
  8
SAPA_PROFIL
 10
202.71151580049599
 20
23.468950745728161
 30
0.0
  0
VERTEX
  5
2324
  8
SAPA_PROFIL
 10
202.41151580049601
 20
23.468950745728161
 30
0.0
 42
0.414214000000005
  0
VERTEX
  5
2325
  8
SAPA_PROFIL
 10
200.61151580049599
 20
21.66895074572804
 30
0.0
  0
VERTEX
  5
2326
  8
SAPA_PROFIL
 10
200.61151580049599
 20
20.968950745728161
 30
0.0
 42
0.4142140000000096
  0
VERTEX
  5
2327
  8
SAPA_PROFIL
 10
202.41151580049601
 20
19.168950745728029
 30
0.0
  0
VERTEX
  5
2328
  8
SAPA_PROFIL
 10
202.71151580049599
 20
19.168950745728029
 30
0.0
 42
0.4142139999998755
  0
VERTEX
  5
2329
  8
SAPA_PROFIL
 10
202.91151580049601
 20
19.368950745728021
 30
0.0
  0
VERTEX
  5
232A
  8
SAPA_PROFIL
 10
202.91151580049601
 20
19.668950745728029
 30
0.0
 42
-0.5507599999999295
  0
VERTEX
  5
232B
  8
SAPA_PROFIL
 10
203.3400868004961
 20
19.940002745728059
 30
0.0
 42
-0.2988659999999675
  0
VERTEX
  5
232C
  8
SAPA_PROFIL
 10
203.91094580049599
 20
19.00272274572816
 30
0.0
 42
-0.4241420000000073
  0
VERTEX
  5
232D
  8
SAPA_PROFIL
 10
202.91151580049601
 20
17.968950745728161
 30
0.0
  0
VERTEX
  5
232E
  8
SAPA_PROFIL
 10
202.41151580049601
 20
17.968950745728218
 30
0.0
 42
-0.4142139999999961
  0
VERTEX
  5
232F
  8
SAPA_PROFIL
 10
199.41151580049601
 20
20.968950745728161
 30
0.0
  0
VERTEX
  5
2330
  8
SAPA_PROFIL
 10
199.41151580049601
 20
38.640523745728053
 30
0.0
 42
-0.1989119999999969
  0
VERTEX
  5
2331
  8
SAPA_PROFIL
 10
199.99730180049599
 20
40.054736745728043
 30
0.0
  0
VERTEX
  5
2332
  8
SAPA_PROFIL
 10
208.11862258168259
 20
48.176057526914647
 30
0.0
 42
0.1989123673796552
  0
VERTEX
  5
2333
  8
SAPA_PROFIL
 10
208.41151580049601
 20
48.883164308101207
 30
0.0
  0
VERTEX
  5
2334
  8
SAPA_PROFIL
 10
208.4115158004962
 20
109.668950745728
 30
0.0
 42
-0.4142140000001184
  0
VERTEX
  5
2335
  8
SAPA_PROFIL
 10
208.7115158004961
 20
109.96895074572809
 30
0.0
  0
VERTEX
  5
2336
  8
SAPA_PROFIL
 10
213.11151580049611
 20
109.96895074572819
 30
0.0
 42
-0.4142140000001182
  0
VERTEX
  5
2337
  8
SAPA_PROFIL
 10
213.41151580049609
 20
109.668950745728
 30
0.0
  0
VERTEX
  5
2338
  8
SAPA_PROFIL
 10
213.41151580049601
 20
108.9014057457281
 30
0.0
 42
-0.28969000000001
  0
VERTEX
  5
2339
  8
SAPA_PROFIL
 10
212.84008680049601
 20
107.99789874572819
 30
0.0
 42
-0.5507599999998729
  0
VERTEX
  5
233A
  8
SAPA_PROFIL
 10
212.41151580049609
 20
108.26895074572801
 30
0.0
  0
VERTEX
  5
233B
  8
SAPA_PROFIL
 10
212.41151580049609
 20
108.46895074572809
 30
0.0
 42
0.4142139999999657
  0
VERTEX
  5
233C
  8
SAPA_PROFIL
 10
212.11151580049611
 20
108.76895074572801
 30
0.0
  0
VERTEX
  5
233D
  8
SAPA_PROFIL
 10
210.61151580049611
 20
108.76895074572801
 30
0.0
 42
0.4142140000000127
  0
VERTEX
  5
233E
  8
SAPA_PROFIL
 10
210.11151580049611
 20
108.26895074572801
 30
0.0
  0
VERTEX
  5
233F
  8
SAPA_PROFIL
 10
210.11151580049611
 20
104.96895074572809
 30
0.0
 42
0.4142140000000129
  0
VERTEX
  5
2340
  8
SAPA_PROFIL
 10
210.61151580049611
 20
104.46895074572809
 30
0.0
  0
VERTEX
  5
2341
  8
SAPA_PROFIL
 10
212.11151580049611
 20
104.46895074572809
 30
0.0
 42
0.4142140000000212
  0
VERTEX
  5
2342
  8
SAPA_PROFIL
 10
212.41151580049609
 20
104.76895074572801
 30
0.0
  0
VERTEX
  5
2343
  8
SAPA_PROFIL
 10
212.41151580049601
 20
104.96895074572809
 30
0.0
 42
-0.5507599999998787
  0
VERTEX
  5
2344
  8
SAPA_PROFIL
 10
212.8400868004961
 20
105.24000274572801
 30
0.0
 42
-0.2896900000000023
  0
VERTEX
  5
2345
  8
SAPA_PROFIL
 10
213.41151580049609
 20
104.336494745728
 30
0.0
  0
VERTEX
  5
2346
  8
SAPA_PROFIL
 10
213.41151580049609
 20
103.339023745728
 30
0.0
 42
-0.0436610000000149
  0
VERTEX
  5
2347
  8
SAPA_PROFIL
 10
213.403919800496
 20
103.25219874572799
 30
0.0
  0
VERTEX
  5
2348
  8
SAPA_PROFIL
 10
213.12707380049599
 20
101.682126745728
 30
0.0
 42
-0.8390999999999697
  0
VERTEX
  5
2349
  8
SAPA_PROFIL
 10
212.14226580049609
 20
101.682126745728
 30
0.0
  0
VERTEX
  5
234A
  8
SAPA_PROFIL
 10
211.9353198004961
 20
102.855774745728
 30
0.0
 42
0.363969999999953
  0
VERTEX
  5
234B
  8
SAPA_PROFIL
 10
211.44291580049611
 20
103.26895074572801
 30
0.0
  0
VERTEX
  5
234C
  8
SAPA_PROFIL
 10
210.61151580049611
 20
103.26895074572801
 30
0.0
 42
0.4373280000000488
  0
VERTEX
  5
234D
  8
SAPA_PROFIL
 10
210.11304680049611
 20
102.729855745728
 30
0.0
  0
VERTEX
  5
234E
  8
SAPA_PROFIL
 10
210.69984480049609
 20
88.256797745728036
 30
0.0
 42
0.4023940000000065
  0
VERTEX
  5
234F
  8
SAPA_PROFIL
 10
210.9995988004961
 20
87.968950745728122
 30
0.0
  0
VERTEX
  5
2350
  8
SAPA_PROFIL
 10
211.8001318004961
 20
87.968950745728094
 30
0.0
 42
-0.259680999999859
  0
VERTEX
  5
2351
  8
SAPA_PROFIL
 10
211.97016280049601
 20
87.874257745728144
 30
0.0
  0
VERTEX
  5
2352
  8
SAPA_PROFIL
 10
212.86656180049599
 20
86.426910745727966
 30
0.0
 42
-0.587702999999994
  0
VERTEX
  5
2353
  8
SAPA_PROFIL
 10
212.61151580049611
 20
85.968950745728108
 30
0.0
  0
VERTEX
  5
2354
  8
SAPA_PROFIL
 10
211.2115158004961
 20
85.968950745728108
 30
0.0
 42
0.4142140000001183
  0
VERTEX
  5
2355
  8
SAPA_PROFIL
 10
210.91151580049609
 20
85.668950745728026
 30
0.0
  0
VERTEX
  5
2356
  8
SAPA_PROFIL
 10
210.91151580049609
 20
83.268950745727992
 30
0.0
 42
0.4142140000000488
  0
VERTEX
  5
2357
  8
SAPA_PROFIL
 10
211.2115158004961
 20
82.968950745728122
 30
0.0
  0
VERTEX
  5
2358
  8
SAPA_PROFIL
 10
219.39190080049599
 20
82.968950745728122
 30
0.0
  0
VERTEX
  5
2359
  8
SAPA_PROFIL
 10
219.91151580049609
 20
82.668950745728026
 30
0.0
  0
VERTEX
  5
235A
  8
SAPA_PROFIL
 10
220.43113080049611
 20
82.968950745728122
 30
0.0
  0
VERTEX
  5
235B
  8
SAPA_PROFIL
 10
228.61151580049611
 20
82.968950745728122
 30
0.0
 42
0.4142140000000352
  0
VERTEX
  5
235C
  8
SAPA_PROFIL
 10
228.91151580049609
 20
83.268950745728006
 30
0.0
  0
VERTEX
  5
235D
  8
SAPA_PROFIL
 10
228.91151580049609
 20
85.668950745728026
 30
0.0
 42
0.4142140000001183
  0
VERTEX
  5
235E
  8
SAPA_PROFIL
 10
228.61151580049611
 20
85.968950745728108
 30
0.0
  0
VERTEX
  5
235F
  8
SAPA_PROFIL
 10
227.2115158004961
 20
85.968950745728108
 30
0.0
 42
-0.5920054160709578
  0
VERTEX
  5
2360
  8
SAPA_PROFIL
 10
226.9585072877386
 20
86.430154083842567
 30
0.0
  0
VERTEX
  5
2361
  8
SAPA_PROFIL
 10
227.7525603175603
 20
87.676419740055863
 30
0.0
 42
-0.2562769852931694
  0
VERTEX
  5
2362
  8
SAPA_PROFIL
 10
227.92123282645889
 20
87.76895074572802
 30
0.0
  0
VERTEX
  5
2363
  8
SAPA_PROFIL
 10
230.91367913839809
 20
87.768950745727992
 30
0.0
  0
VERTEX
  5
2364
  8
SAPA_PROFIL
 10
232.2347971430988
 20
87.258327758006132
 30
0.0
 42
0.4142135623730951
  0
VERTEX
  5
2365
  8
SAPA_PROFIL
 10
232.60898209857459
 20
87.458291802513529
 30
0.0
  0
VERTEX
  5
2366
  8
SAPA_PROFIL
 10
232.62350050782169
 20
87.506137552512016
 30
0.0
  0
VERTEX
  5
2367
  8
SAPA_PROFIL
 10
234.1266015885837
 20
87.506221160395626
 30
0.0
 42
-0.4769755326981629
  0
VERTEX
  5
2368
  8
SAPA_PROFIL
 10
234.42885441309019
 20
87.134564285449784
 30
0.0
  0
VERTEX
  5
2369
  8
SAPA_PROFIL
 10
234.0474078169625
 20
85.321333814791544
 30
0.0
 42
-0.2216946626430201
  0
VERTEX
  5
236A
  8
SAPA_PROFIL
 10
233.64159891180771
 20
84.780453983314757
 30
0.0
  0
VERTEX
  5
236B
  8
SAPA_PROFIL
 10
233.35691662857599
 20
84.628320072205995
 30
0.0
 42
-0.5773502691897454
  0
SEQEND
  5
236C
  8
SAPA_PROFIL
  0
POLYLINE
  5
1917
  8
SAPA_PROFIL
 66
     1
 10
0.0
 20
0.0
 30
0.0
 70
     1
  0
VERTEX
  5
236D
  8
SAPA_PROFIL
 10
227.2115158004961
 20
76.168950745728026
 30
0.0
  0
VERTEX
  5
236E
  8
SAPA_PROFIL
 10
227.2115158004961
 20
75.068950745728145
 30
0.0
 42
0.4142140000001272
  0
VERTEX
  5
236F
  8
SAPA_PROFIL
 10
227.51151580049611
 20
74.768950745727992
 30
0.0
  0
VERTEX
  5
2370
  8
SAPA_PROFIL
 10
228.91151580049609
 20
74.768950745728048
 30
0.0
 42
-0.4142139999999867
  0
VERTEX
  5
2371
  8
SAPA_PROFIL
 10
229.2115158004961
 20
74.468950745728094
 30
0.0
  0
VERTEX
  5
2372
  8
SAPA_PROFIL
 10
229.2115158004961
 20
72.968950745728094
 30
0.0
 42
-0.4142140000000095
  0
VERTEX
  5
2373
  8
SAPA_PROFIL
 10
229.01151580049611
 20
72.768950745727992
 30
0.0
  0
VERTEX
  5
2374
  8
SAPA_PROFIL
 10
228.8115158004961
 20
72.768950745727992
 30
0.0
 42
0.4142139999999782
  0
VERTEX
  5
2375
  8
SAPA_PROFIL
 10
228.61151580049611
 20
72.568950745728145
 30
0.0
  0
VERTEX
  5
2376
  8
SAPA_PROFIL
 10
228.61151580049611
 20
70.968950745728094
 30
0.0
 42
0.4142140000000095
  0
VERTEX
  5
2377
  8
SAPA_PROFIL
 10
228.8115158004961
 20
70.768950745727992
 30
0.0
  0
VERTEX
  5
2378
  8
SAPA_PROFIL
 10
228.91151580049609
 20
70.768950745728048
 30
0.0
 42
-0.4142139999999867
  0
VERTEX
  5
2379
  8
SAPA_PROFIL
 10
229.2115158004961
 20
70.468950745728094
 30
0.0
  0
VERTEX
  5
237A
  8
SAPA_PROFIL
 10
229.21151580049599
 20
48.168950745728019
 30
0.0
 42
-0.4142139999999783
  0
VERTEX
  5
237B
  8
SAPA_PROFIL
 10
229.011515800496
 20
47.968950745728087
 30
0.0
  0
VERTEX
  5
237C
  8
SAPA_PROFIL
 10
228.81151580049601
 20
47.968950745728087
 30
0.0
 42
0.4142140000000666
  0
VERTEX
  5
237D
  8
SAPA_PROFIL
 10
228.61151580049599
 20
47.768950745728013
 30
0.0
  0
VERTEX
  5
237E
  8
SAPA_PROFIL
 10
228.61151580049599
 20
46.168950745728019
 30
0.0
 42
0.4142139999999783
  0
VERTEX
  5
237F
  8
SAPA_PROFIL
 10
228.81151580049601
 20
45.968950745728122
 30
0.0
  0
VERTEX
  5
2380
  8
SAPA_PROFIL
 10
228.992890991091
 20
45.968950745728151
 30
0.0
 42
-0.4348120000001544
  0
VERTEX
  5
2381
  8
SAPA_PROFIL
 10
229.19240399109091
 20
45.754999745728021
 30
0.0
  0
VERTEX
  5
2382
  8
SAPA_PROFIL
 10
228.96018199109091
 20
42.434072745728038
 30
0.0
 42
-0.3939100000000382
  0
VERTEX
  5
2383
  8
SAPA_PROFIL
 10
228.46139999109101
 20
41.968950745728122
 30
0.0
  0
VERTEX
  5
2384
  8
SAPA_PROFIL
 10
228.11151580049599
 20
41.968950745728122
 30
0.0
 42
-0.4142140000000158
  0
VERTEX
  5
2385
  8
SAPA_PROFIL
 10
227.61151580049599
 20
42.468950745728122
 30
0.0
  0
VERTEX
  5
2386
  8
SAPA_PROFIL
 10
227.61151580049599
 20
42.668950745728019
 30
0.0
 42
0.4142139999999461
  0
VERTEX
  5
2387
  8
SAPA_PROFIL
 10
227.11151580049599
 20
43.168950745728019
 30
0.0
  0
VERTEX
  5
2388
  8
SAPA_PROFIL
 10
220.43113080049599
 20
43.168950745728019
 30
0.0
  0
VERTEX
  5
2389
  8
SAPA_PROFIL
 10
219.91151580049609
 20
42.868950745728043
 30
0.0
  0
VERTEX
  5
238A
  8
SAPA_PROFIL
 10
219.39190080049599
 20
43.168950745728019
 30
0.0
  0
VERTEX
  5
238B
  8
SAPA_PROFIL
 10
212.71151580049599
 20
43.168950745728033
 30
0.0
 42
0.4142135623730951
  0
VERTEX
  5
238C
  8
SAPA_PROFIL
 10
212.2115158004961
 20
42.668950745728033
 30
0.0
  0
VERTEX
  5
238D
  8
SAPA_PROFIL
 10
212.2115158004961
 20
42.36895074572805
 30
0.0
 42
-0.4142139999999596
  0
VERTEX
  5
238E
  8
SAPA_PROFIL
 10
211.71151580049599
 20
41.86895074572805
 30
0.0
  0
VERTEX
  5
238F
  8
SAPA_PROFIL
 10
209.41151580049601
 20
41.868950745728128
 30
0.0
 42
-0.4142139999999638
  0
VERTEX
  5
2390
  8
SAPA_PROFIL
 10
208.91151580049601
 20
42.36895074572805
 30
0.0
  0
VERTEX
  5
2391
  8
SAPA_PROFIL
 10
208.91151580049589
 20
45.468950745728122
 30
0.0
 42
-0.4142139999999575
  0
VERTEX
  5
2392
  8
SAPA_PROFIL
 10
209.41151580049601
 20
45.968950745728122
 30
0.0
  0
VERTEX
  5
2393
  8
SAPA_PROFIL
 10
211.011515800496
 20
45.968950745728122
 30
0.0
 42
0.4142139999999908
  0
VERTEX
  5
2394
  8
SAPA_PROFIL
 10
211.21151580049599
 20
46.168950745728033
 30
0.0
  0
VERTEX
  5
2395
  8
SAPA_PROFIL
 10
211.21151580049599
 20
47.76895074572802
 30
0.0
 42
0.4142140000001083
  0
VERTEX
  5
2396
  8
SAPA_PROFIL
 10
211.011515800496
 20
47.968950745728101
 30
0.0
  0
VERTEX
  5
2397
  8
SAPA_PROFIL
 10
210.21151580049599
 20
47.968950745728101
 30
0.0
 42
-0.41421399999997
  0
VERTEX
  5
2398
  8
SAPA_PROFIL
 10
210.011515800496
 20
48.168950745728033
 30
0.0
  0
VERTEX
  5
2399
  8
SAPA_PROFIL
 10
210.01151580049611
 20
70.568950745728159
 30
0.0
 42
-0.4142140000000115
  0
VERTEX
  5
239A
  8
SAPA_PROFIL
 10
210.2115158004961
 20
70.768950745728006
 30
0.0
  0
VERTEX
  5
239B
  8
SAPA_PROFIL
 10
211.01151580049611
 20
70.768950745728006
 30
0.0
 42
0.4142140000000511
  0
VERTEX
  5
239C
  8
SAPA_PROFIL
 10
211.21151580049599
 20
70.968950745728094
 30
0.0
  0
VERTEX
  5
239D
  8
SAPA_PROFIL
 10
211.21151580049599
 20
72.568950745728159
 30
0.0
 42
0.4142139999999991
  0
VERTEX
  5
239E
  8
SAPA_PROFIL
 10
211.01151580049611
 20
72.768950745728006
 30
0.0
  0
VERTEX
  5
239F
  8
SAPA_PROFIL
 10
210.2115158004961
 20
72.768950745728063
 30
0.0
 42
-0.4142139999999887
  0
VERTEX
  5
23A0
  8
SAPA_PROFIL
 10
210.011515800496
 20
72.968950745728108
 30
0.0
  0
VERTEX
  5
23A1
  8
SAPA_PROFIL
 10
210.011515800496
 20
74.468950745728108
 30
0.0
 42
-0.4142139999999851
  0
VERTEX
  5
23A2
  8
SAPA_PROFIL
 10
210.31151580049601
 20
74.76895074572812
 30
0.0
  0
VERTEX
  5
23A3
  8
SAPA_PROFIL
 10
212.31151580049601
 20
74.768950745728006
 30
0.0
 42
0.4142140000001313
  0
VERTEX
  5
23A4
  8
SAPA_PROFIL
 10
212.61151580049611
 20
75.068950745728159
 30
0.0
  0
VERTEX
  5
23A5
  8
SAPA_PROFIL
 10
212.61151580049611
 20
76.16895074572804
 30
0.0
 42
0.4142140000001307
  0
VERTEX
  5
23A6
  8
SAPA_PROFIL
 10
212.31151580049601
 20
76.468950745728094
 30
0.0
  0
VERTEX
  5
23A7
  8
SAPA_PROFIL
 10
210.61151580049611
 20
76.468950745728094
 30
0.0
 42
-0.2186970000000204
  0
VERTEX
  5
23A8
  8
SAPA_PROFIL
 10
210.23219380049611
 20
76.64319774572806
 30
0.0
 42
-0.1792769999999948
  0
VERTEX
  5
23A9
  8
SAPA_PROFIL
 10
210.11151580049611
 20
76.968950745728108
 30
0.0
  0
VERTEX
  5
23AA
  8
SAPA_PROFIL
 10
210.11151580049611
 20
80.768950745728006
 30
0.0
 42
-0.4142140000000074
  0
VERTEX
  5
23AB
  8
SAPA_PROFIL
 10
210.61151580049611
 20
81.268950745728006
 30
0.0
  0
VERTEX
  5
23AC
  8
SAPA_PROFIL
 10
228.7115158004961
 20
81.268950745727977
 30
0.0
 42
-0.4142140000000116
  0
VERTEX
  5
23AD
  8
SAPA_PROFIL
 10
229.2115158004961
 20
80.768950745727992
 30
0.0
  0
VERTEX
  5
23AE
  8
SAPA_PROFIL
 10
229.2115158004961
 20
76.968950745728094
 30
0.0
 42
-0.4142140000000116
  0
VERTEX
  5
23AF
  8
SAPA_PROFIL
 10
228.7115158004961
 20
76.468950745728094
 30
0.0
  0
VERTEX
  5
23B0
  8
SAPA_PROFIL
 10
227.51151580049611
 20
76.468950745728094
 30
0.0
 42
0.4142140000001266
  0
SEQEND
  5
23B1
  8
SAPA_PROFIL
  0
POLYLINE
  5
1918
  8
SAPA_PROFIL
 62
     4
 66
     1
 10
0.0
 20
0.0
 30
0.0
  0
VERTEX
  5
23B2
  8
SAPA_PROFIL
 62
     4
 10
260.96084492293591
 20
85.063379581613916
 30
0.0
 42
-0.5571646428658034
  0
VERTEX
  5
23B3
  8
SAPA_PROFIL
 62
     4
 10
260.4238844187991
 20
84.195660667458355
 30
0.0
  0
VERTEX
  5
23B4
  8
SAPA_PROFIL
 62
     4
 10
243.3991471822778
 20
84.195660667458824
 30
0.0
 42
-0.5571645048035741
  0
VERTEX
  5
23B5
  8
SAPA_PROFIL
 62
     4
 10
242.86218656531679
 20
85.063379355324969
 30
0.0
  0
VERTEX
  5
23B6
  8
SAPA_PROFIL
 62
     4
 10
243.69289365286349
 20
86.729520011393021
 30
0.0
 42
-0.284385813979063
  0
VERTEX
  5
23B7
  8
SAPA_PROFIL
 62
     4
 10
243.96137396134381
 20
86.895660667460461
 30
0.0
  0
VERTEX
  5
23B8
  8
SAPA_PROFIL
 62
     4
 10
259.8616576397331
 20
86.895660667460433
 30
0.0
 42
-0.2843858139786238
  0
VERTEX
  5
23B9
  8
SAPA_PROFIL
 62
     4
 10
260.13013794821342
 20
86.729520011393532
 30
0.0
  0
VERTEX
  5
23BA
  8
SAPA_PROFIL
 62
     4
 10
260.9608450357606
 20
85.063379355324173
 30
0.0
  0
SEQEND
  5
23BB
  8
SAPA_PROFIL
 62
     4
  0
POLYLINE
  5
1919
  8
SAPA_PROFIL
 62
     4
 66
     1
 10
0.0
 20
0.0
 30
0.0
 70
     1
  0
VERTEX
  5
23BC
  8
SAPA_PROFIL
 62
     4
 10
237.4939046158712
 20
87.252492181958047
 30
0.0
  0
VERTEX
  5
23BD
  8
SAPA_PROFIL
 62
     4
 10
237.22988133749519
 20
87.659052377962155
 30
0.0
 42
0.2539676464751066
  0
VERTEX
  5
23BE
  8
SAPA_PROFIL
 62
     4
 10
236.97828016711051
 20
87.795660667458264
 30
0.0
  0
VERTEX
  5
23BF
  8
SAPA_PROFIL
 62
     4
 10
235.59678058190519
 20
87.795660667458264
 30
0.0
 42
0.3152987888790479
  0
VERTEX
  5
23C0
  8
SAPA_PROFIL
 62
     4
 10
235.12693427151279
 20
87.466670739120119
 30
0.0
  0
VERTEX
  5
23C1
  8
SAPA_PROFIL
 62
     4
 10
234.2312653306042
 20
85.005840548668843
 30
0.0
 42
-0.2694959974287434
  0
VERTEX
  5
23C2
  8
SAPA_PROFIL
 62
     4
 10
233.9997462842029
 20
84.812708574324944
 30
0.0
 42
-0.0612686379508233
  0
VERTEX
  5
23C3
  8
SAPA_PROFIL
 62
     4
 10
233.70707085134961
 20
84.799125203694445
 30
0.0
  0
VERTEX
  5
23C4
  8
SAPA_PROFIL
 62
     4
 10
233.3576526740413
 20
84.597388524965609
 30
0.0
 42
-0.5773502691891679
  0
VERTEX
  5
23C5
  8
SAPA_PROFIL
 62
     4
 10
233.0426526740417
 20
84.779253859760175
 30
0.0
  0
VERTEX
  5
23C6
  8
SAPA_PROFIL
 62
     4
 10
233.04265267404151
 20
85.046368387886474
 30
0.0
  0
VERTEX
  5
23C7
  8
SAPA_PROFIL
 62
     4
 10
231.6441249734072
 20
85.855051849194808
 30
0.0
 42
0.1318219888653519
  0
VERTEX
  5
23C8
  8
SAPA_PROFIL
 62
     4
 10
231.49395187093489
 20
85.895344245732204
 30
0.0
  0
VERTEX
  5
23C9
  8
SAPA_PROFIL
 62
     4
 10
231.31151580049811
 20
85.895344245725823
 30
0.0
 42
0.4142135623724291
  0
VERTEX
  5
23CA
  8
SAPA_PROFIL
 62
     4
 10
230.9115158004976
 20
85.495344245726201
 30
0.0
  0
VERTEX
  5
23CB
  8
SAPA_PROFIL
 62
     4
 10
230.9115158004989
 20
82.095344245725201
 30
0.0
 42
0.4142135623744271
  0
VERTEX
  5
23CC
  8
SAPA_PROFIL
 62
     4
 10
231.31151580049811
 20
81.695344245724201
 30
0.0
  0
VERTEX
  5
23CD
  8
SAPA_PROFIL
 62
     4
 10
231.49113104276941
 20
81.695344245723561
 30
0.0
 42
0.1316524975874005
  0
VERTEX
  5
23CE
  8
SAPA_PROFIL
 62
     4
 10
231.6411310427662
 20
81.735536624589159
 30
0.0
  0
VERTEX
  5
23CF
  8
SAPA_PROFIL
 62
     4
 10
233.24526893976849
 20
82.661686071241704
 30
0.0
 42
-0.1316524975875904
  0
VERTEX
  5
23D0
  8
SAPA_PROFIL
 62
     4
 10
233.7452689397702
 20
82.79566066745646
 30
0.0
  0
VERTEX
  5
23D1
  8
SAPA_PROFIL
 62
     4
 10
234.1615158004976
 20
82.79566066745646
 30
0.0
 42
-0.4142135623730951
  0
VERTEX
  5
23D2
  8
SAPA_PROFIL
 62
     4
 10
235.1615158004976
 20
81.79566066745646
 30
0.0
  0
VERTEX
  5
23D3
  8
SAPA_PROFIL
 62
     4
 10
235.1615158004976
 20
78.795660667459188
 30
0.0
 42
0.9999996830128083
  0
VERTEX
  5
23D4
  8
SAPA_PROFIL
 62
     4
 10
236.1615158004976
 20
78.795660667457369
 30
0.0
  0
VERTEX
  5
23D5
  8
SAPA_PROFIL
 62
     4
 10
236.1615158004976
 20
81.795660667457369
 30
0.0
 42
-0.4142135623730951
  0
VERTEX
  5
23D6
  8
SAPA_PROFIL
 62
     4
 10
237.1615158004976
 20
82.795660667457355
 30
0.0
  0
VERTEX
  5
23D7
  8
SAPA_PROFIL
 62
     4
 10
266.66151580058209
 20
82.795660667457355
 30
0.0
 42
-0.4142135623730951
  0
VERTEX
  5
23D8
  8
SAPA_PROFIL
 62
     4
 10
267.66151580058221
 20
81.795660667457355
 30
0.0
  0
VERTEX
  5
23D9
  8
SAPA_PROFIL
 62
     4
 10
267.66151580058221
 20
78.795660667459174
 30
0.0
 42
0.9999999999999998
  0
VERTEX
  5
23DA
  8
SAPA_PROFIL
 62
     4
 10
268.66151580058209
 20
78.795660667459174
 30
0.0
  0
VERTEX
  5
23DB
  8
SAPA_PROFIL
 62
     4
 10
268.66151580058209
 20
81.795660667457355
 30
0.0
 42
-0.4142135623736278
  0
VERTEX
  5
23DC
  8
SAPA_PROFIL
 62
     4
 10
269.66151580058221
 20
82.795660667457355
 30
0.0
  0
VERTEX
  5
23DD
  8
SAPA_PROFIL
 62
     4
 10
270.07776266130861
 20
82.795660667457355
 30
0.0
 42
-0.1316524975874375
  0
VERTEX
  5
23DE
  8
SAPA_PROFIL
 62
     4
 10
270.57776266130878
 20
82.66168607124132
 30
0.0
  0
VERTEX
  5
23DF
  8
SAPA_PROFIL
 62
     4
 10
272.18190055831082
 20
81.735536624589145
 30
0.0
 42
0.1316524975874
  0
VERTEX
  5
23E0
  8
SAPA_PROFIL
 62
     4
 10
272.33190055831028
 20
81.695344245723561
 30
0.0
  0
VERTEX
  5
23E1
  8
SAPA_PROFIL
 62
     4
 10
272.51151580058161
 20
81.695344245724186
 30
0.0
 42
0.4142135623744271
  0
VERTEX
  5
23E2
  8
SAPA_PROFIL
 62
     4
 10
272.91151580058079
 20
82.095344245725187
 30
0.0
  0
VERTEX
  5
23E3
  8
SAPA_PROFIL
 62
     4
 10
272.91151580058209
 20
85.495344245726173
 30
0.0
 42
0.4142135623724291
  0
VERTEX
  5
23E4
  8
SAPA_PROFIL
 62
     4
 10
272.51151580058161
 20
85.895344245725809
 30
0.0
  0
VERTEX
  5
23E5
  8
SAPA_PROFIL
 62
     4
 10
272.32907973014483
 20
85.89534424573219
 30
0.0
 42
0.1318219888653524
  0
VERTEX
  5
23E6
  8
SAPA_PROFIL
 62
     4
 10
272.17890662767252
 20
85.855051849194808
 30
0.0
  0
VERTEX
  5
23E7
  8
SAPA_PROFIL
 62
     4
 10
270.78037892719283
 20
85.046368387970446
 30
0.0
  0
VERTEX
  5
23E8
  8
SAPA_PROFIL
 62
     4
 10
270.78037892719283
 20
84.779253859757418
 30
0.0
 42
-0.577350269189159
  0
VERTEX
  5
23E9
  8
SAPA_PROFIL
 62
     4
 10
270.46537892719323
 20
84.597388524962867
 30
0.0
  0
VERTEX
  5
23EA
  8
SAPA_PROFIL
 62
     4
 10
270.11596074997459
 20
84.799125203639974
 30
0.0
 42
-0.0612687673629489
  0
VERTEX
  5
23EB
  8
SAPA_PROFIL
 62
     4
 10
269.82328531687438
 20
84.812708574326166
 30
0.0
 42
-0.2694959974285039
  0
VERTEX
  5
23EC
  8
SAPA_PROFIL
 62
     4
 10
269.59176627047378
 20
85.005840548670122
 30
0.0
  0
VERTEX
  5
23ED
  8
SAPA_PROFIL
 62
     4
 10
268.69609732956422
 20
87.466670739123288
 30
0.0
 42
0.3152987888784035
  0
VERTEX
  5
23EE
  8
SAPA_PROFIL
 62
     4
 10
268.22625101917089
 20
87.79566066745987
 30
0.0
  0
VERTEX
  5
23EF
  8
SAPA_PROFIL
 62
     4
 10
266.84475143396651
 20
87.795660667458264
 30
0.0
 42
0.2539676464741841
  0
VERTEX
  5
23F0
  8
SAPA_PROFIL
 62
     4
 10
266.5931502635824
 20
87.659052377962993
 30
0.0
  0
VERTEX
  5
23F1
  8
SAPA_PROFIL
 62
     4
 10
266.32912698520579
 20
87.252492181958019
 30
0.0
 42
0.5862177598324623
  0
VERTEX
  5
23F2
  8
SAPA_PROFIL
 62
     4
 10
266.5848688004441
 20
86.795660667461519
 30
0.0
  0
VERTEX
  5
23F3
  8
SAPA_PROFIL
 62
     4
 10
267.526043480954
 20
86.795660667469178
 30
0.0
 42
-0.3152987888813165
  0
VERTEX
  5
23F4
  8
SAPA_PROFIL
 62
     4
 10
267.99588979135171
 20
86.466670739132425
 30
0.0
  0
VERTEX
  5
23F5
  8
SAPA_PROFIL
 62
     4
 10
268.4326540724756
 20
85.266670739121196
 30
0.0
 42
-0.5205670505515651
  0
VERTEX
  5
23F6
  8
SAPA_PROFIL
 62
     4
 10
267.96280776208238
 20
84.595660667458446
 30
0.0
  0
VERTEX
  5
23F7
  8
SAPA_PROFIL
 62
     4
 10
262.94636682141351
 20
84.595660667458432
 30
0.0
 42
-0.3702522326300203
  0
VERTEX
  5
23F8
  8
SAPA_PROFIL
 62
     4
 10
262.64984345962017
 20
84.850120620124144
 30
0.0
 42
-0.0982365330332397
  0
VERTEX
  5
23F9
  8
SAPA_PROFIL
 62
     4
 10
262.55939070140931
 20
86.537807395119145
 30
0.0
 42
-0.3735060174783164
  0
VERTEX
  5
23FA
  8
SAPA_PROFIL
 62
     4
 10
262.8564153693203
 20
86.795660667459174
 30
0.0
  0
VERTEX
  5
23FB
  8
SAPA_PROFIL
 62
     4
 10
263.28486880044289
 20
86.795660667460083
 30
0.0
 42
0.5920056181162531
  0
VERTEX
  5
23FC
  8
SAPA_PROFIL
 62
     4
 10
263.53787755676041
 20
87.256864169988006
 30
0.0
  0
VERTEX
  5
23FD
  8
SAPA_PROFIL
 62
     4
 10
263.27669348060459
 20
87.659052377966304
 30
0.0
 42
0.2539676464746725
  0
VERTEX
  5
23FE
  8
SAPA_PROFIL
 62
     4
 10
263.02509231022088
 20
87.795660667461675
 30
0.0
  0
VERTEX
  5
23FF
  8
SAPA_PROFIL
 62
     4
 10
240.7979392908552
 20
87.795660667460098
 30
0.0
 42
0.2539676464741819
  0
VERTEX
  5
2400
  8
SAPA_PROFIL
 62
     4
 10
240.54633812047231
 20
87.659052377966319
 30
0.0
  0
VERTEX
  5
2401
  8
SAPA_PROFIL
 62
     4
 10
240.28515404431849
 20
87.256864169987963
 30
0.0
 42
0.5920055144124249
  0
VERTEX
  5
2402
  8
SAPA_PROFIL
 62
     4
 10
240.53816280063401
 20
86.795660667460098
 30
0.0
  0
VERTEX
  5
2403
  8
SAPA_PROFIL
 62
     4
 10
240.96661627792429
 20
86.795660692735098
 30
0.0
 42
-0.3735060174775405
  0
VERTEX
  5
2404
  8
SAPA_PROFIL
 62
     4
 10
241.263640945834
 20
86.537807420395012
 30
0.0
 42
-0.0355900683670349
  0
VERTEX
  5
2405
  8
SAPA_PROFIL
 62
     4
 10
241.3075345098662
 20
85.921933833595233
 30
0.0
 42
-0.0624282003873116
  0
VERTEX
  5
2406
  8
SAPA_PROFIL
 62
     4
 10
241.1731881876232
 20
84.850120645400096
 30
0.0
 42
-0.3702522326309292
  0
VERTEX
  5
2407
  8
SAPA_PROFIL
 62
     4
 10
240.87666482582989
 20
84.59566069273437
 30
0.0
  0
VERTEX
  5
2408
  8
SAPA_PROFIL
 62
     4
 10
235.8602238389964
 20
84.595660667458233
 30
0.0
 42
-0.5205670505515692
  0
VERTEX
  5
2409
  8
SAPA_PROFIL
 62
     4
 10
235.39037752860321
 20
85.266670739121196
 30
0.0
  0
VERTEX
  5
240A
  8
SAPA_PROFIL
 62
     4
 10
235.82714180972809
 20
86.466670739130635
 30
0.0
 42
-0.3152987888807539
  0
VERTEX
  5
240B
  8
SAPA_PROFIL
 62
     4
 10
236.29698812012401
 20
86.795660667468269
 30
0.0
  0
VERTEX
  5
240C
  8
SAPA_PROFIL
 62
     4
 10
237.23816280063301
 20
86.795660667461448
 30
0.0
 42
0.5862175119221242
  0
VERTEX
  5
240D
  8
SAPA_PROFIL
 62
     4
 10
237.493904731615
 20
87.252491993216594
 30
0.0
 42
-0.0000002084758573
  0
SEQEND
  5
240E
  8
SAPA_PROFIL
 62
     4
  0
POLYLINE
  5
191A
  8
SAPA_PROFIL
 62
     4
 66
     1
 10
0.0
 20
0.0
 30
0.0
  0
VERTEX
  5
240F
  8
SAPA_PROFIL
 62
     4
 10
260.96084492293591
 20
48.674522909846367
 30
0.0
 42
0.5571646428658034
  0
VERTEX
  5
2410
  8
SAPA_PROFIL
 62
     4
 10
260.4238844187991
 20
49.54224182400192
 30
0.0
  0
VERTEX
  5
2411
  8
SAPA_PROFIL
 62
     4
 10
243.3991471822778
 20
49.542241824001501
 30
0.0
 42
0.5571645048035741
  0
VERTEX
  5
2412
  8
SAPA_PROFIL
 62
     4
 10
242.86218656531679
 20
48.674523136135328
 30
0.0
  0
VERTEX
  5
2413
  8
SAPA_PROFIL
 62
     4
 10
243.69289365286349
 20
47.00838248006729
 30
0.0
 42
0.284385813979063
  0
VERTEX
  5
2414
  8
SAPA_PROFIL
 62
     4
 10
243.96137396134381
 20
46.842241823999863
 30
0.0
  0
VERTEX
  5
2415
  8
SAPA_PROFIL
 62
     4
 10
259.8616576397331
 20
46.842241823999821
 30
0.0
 42
0.2843858139786238
  0
VERTEX
  5
2416
  8
SAPA_PROFIL
 62
     4
 10
260.13013794821342
 20
47.00838248006675
 30
0.0
  0
VERTEX
  5
2417
  8
SAPA_PROFIL
 62
     4
 10
260.9608450357606
 20
48.674523136136102
 30
0.0
  0
SEQEND
  5
2418
  8
SAPA_PROFIL
 62
     4
  0
POLYLINE
  5
191B
  8
SAPA_PROFIL
 62
     4
 66
     1
 10
0.0
 20
0.0
 30
0.0
 70
     1
  0
VERTEX
  5
2419
  8
SAPA_PROFIL
 62
     4
 10
237.4939046158712
 20
46.485410309502292
 30
0.0
  0
VERTEX
  5
241A
  8
SAPA_PROFIL
 62
     4
 10
237.22988133749519
 20
46.078850113498149
 30
0.0
 42
-0.2539676464751066
  0
VERTEX
  5
241B
  8
SAPA_PROFIL
 62
     4
 10
236.97828016711051
 20
45.942241824002053
 30
0.0
  0
VERTEX
  5
241C
  8
SAPA_PROFIL
 62
     4
 10
235.59678058190519
 20
45.94224182400206
 30
0.0
 42
-0.3152987888790479
  0
VERTEX
  5
241D
  8
SAPA_PROFIL
 62
     4
 10
235.12693427151279
 20
46.271231752340221
 30
0.0
  0
VERTEX
  5
241E
  8
SAPA_PROFIL
 62
     4
 10
234.2312653306042
 20
48.732061942791489
 30
0.0
 42
0.2694959974287434
  0
VERTEX
  5
241F
  8
SAPA_PROFIL
 62
     4
 10
233.9997462842029
 20
48.925193917135388
 30
0.0
 42
0.0612686379508233
  0
VERTEX
  5
2420
  8
SAPA_PROFIL
 62
     4
 10
233.70707085134961
 20
48.938777287765902
 30
0.0
  0
VERTEX
  5
2421
  8
SAPA_PROFIL
 62
     4
 10
233.3576526740413
 20
49.140513966494723
 30
0.0
 42
0.5773502691891679
  0
VERTEX
  5
2422
  8
SAPA_PROFIL
 62
     4
 10
233.0426526740417
 20
48.958648631700157
 30
0.0
  0
VERTEX
  5
2423
  8
SAPA_PROFIL
 62
     4
 10
233.04265267404151
 20
48.691534103573851
 30
0.0
  0
VERTEX
  5
2424
  8
SAPA_PROFIL
 62
     4
 10
231.6441249734072
 20
47.882850642265531
 30
0.0
 42
-0.1318219888653519
  0
VERTEX
  5
2425
  8
SAPA_PROFIL
 62
     4
 10
231.49395187093489
 20
47.842558245728142
 30
0.0
  0
VERTEX
  5
2426
  8
SAPA_PROFIL
 62
     4
 10
231.31151580049811
 20
47.842558245734509
 30
0.0
 42
-0.4142135623724291
  0
VERTEX
  5
2427
  8
SAPA_PROFIL
 62
     4
 10
230.9115158004976
 20
48.242558245734138
 30
0.0
  0
VERTEX
  5
2428
  8
SAPA_PROFIL
 62
     4
 10
230.9115158004989
 20
51.642558245735152
 30
0.0
 42
-0.4142135623744271
  0
VERTEX
  5
2429
  8
SAPA_PROFIL
 62
     4
 10
231.31151580049811
 20
52.042558245736139
 30
0.0
  0
VERTEX
  5
242A
  8
SAPA_PROFIL
 62
     4
 10
231.49113104276941
 20
52.042558245736778
 30
0.0
 42
-0.1316524975874005
  0
VERTEX
  5
242B
  8
SAPA_PROFIL
 62
     4
 10
231.6411310427662
 20
52.00236586687118
 30
0.0
  0
VERTEX
  5
242C
  8
SAPA_PROFIL
 62
     4
 10
233.24526893976849
 20
51.076216420218643
 30
0.0
 42
0.1316524975875904
  0
VERTEX
  5
242D
  8
SAPA_PROFIL
 62
     4
 10
233.7452689397702
 20
50.942241824003879
 30
0.0
  0
VERTEX
  5
242E
  8
SAPA_PROFIL
 62
     4
 10
234.1615158004976
 20
50.942241824003879
 30
0.0
 42
0.4142135623730951
  0
VERTEX
  5
242F
  8
SAPA_PROFIL
 62
     4
 10
235.1615158004976
 20
51.942241824003879
 30
0.0
  0
VERTEX
  5
2430
  8
SAPA_PROFIL
 62
     4
 10
235.1615158004976
 20
54.942241824001151
 30
0.0
 42
-0.9999996830128083
  0
VERTEX
  5
2431
  8
SAPA_PROFIL
 62
     4
 10
236.1615158004976
 20
54.942241824002963
 30
0.0
  0
VERTEX
  5
2432
  8
SAPA_PROFIL
 62
     4
 10
236.1615158004976
 20
51.94224182400297
 30
0.0
 42
0.4142135623730951
  0
VERTEX
  5
2433
  8
SAPA_PROFIL
 62
     4
 10
237.1615158004976
 20
50.942241824002963
 30
0.0
  0
VERTEX
  5
2434
  8
SAPA_PROFIL
 62
     4
 10
266.66151580058209
 20
50.942241824002899
 30
0.0
 42
0.4142135623730951
  0
VERTEX
  5
2435
  8
SAPA_PROFIL
 62
     4
 10
267.66151580058221
 20
51.942241824002899
 30
0.0
  0
VERTEX
  5
2436
  8
SAPA_PROFIL
 62
     4
 10
267.66151580058221
 20
54.942241824001087
 30
0.0
 42
-0.9999999999999998
  0
VERTEX
  5
2437
  8
SAPA_PROFIL
 62
     4
 10
268.66151580058209
 20
54.942241824001087
 30
0.0
  0
VERTEX
  5
2438
  8
SAPA_PROFIL
 62
     4
 10
268.66151580058209
 20
51.942241824002899
 30
0.0
 42
0.4142135623736278
  0
VERTEX
  5
2439
  8
SAPA_PROFIL
 62
     4
 10
269.66151580058221
 20
50.942241824002899
 30
0.0
  0
VERTEX
  5
243A
  8
SAPA_PROFIL
 62
     4
 10
270.07776266130861
 20
50.942241824002899
 30
0.0
 42
0.1316524975874375
  0
VERTEX
  5
243B
  8
SAPA_PROFIL
 62
     4
 10
270.57776266130878
 20
51.076216420218927
 30
0.0
  0
VERTEX
  5
243C
  8
SAPA_PROFIL
 62
     4
 10
272.18190055831082
 20
52.002365866871109
 30
0.0
 42
-0.1316524975874
  0
VERTEX
  5
243D
  8
SAPA_PROFIL
 62
     4
 10
272.33190055831028
 20
52.0425582457367
 30
0.0
  0
VERTEX
  5
243E
  8
SAPA_PROFIL
 62
     4
 10
272.51151580058161
 20
52.042558245736068
 30
0.0
 42
-0.4142135623744271
  0
VERTEX
  5
243F
  8
SAPA_PROFIL
 62
     4
 10
272.91151580058079
 20
51.642558245735067
 30
0.0
  0
VERTEX
  5
2440
  8
SAPA_PROFIL
 62
     4
 10
272.91151580058209
 20
48.24255824573406
 30
0.0
 42
-0.4142135623724291
  0
VERTEX
  5
2441
  8
SAPA_PROFIL
 62
     4
 10
272.51151580058161
 20
47.84255824573443
 30
0.0
  0
VERTEX
  5
2442
  8
SAPA_PROFIL
 62
     4
 10
272.32907973014483
 20
47.842558245728057
 30
0.0
 42
-0.1318219888653524
  0
VERTEX
  5
2443
  8
SAPA_PROFIL
 62
     4
 10
272.17890662767252
 20
47.882850642265453
 30
0.0
  0
VERTEX
  5
2444
  8
SAPA_PROFIL
 62
     4
 10
270.78037892719283
 20
48.691534103489793
 30
0.0
  0
VERTEX
  5
2445
  8
SAPA_PROFIL
 62
     4
 10
270.78037892719283
 20
48.958648631702829
 30
0.0
 42
0.577350269189159
  0
VERTEX
  5
2446
  8
SAPA_PROFIL
 62
     4
 10
270.46537892719323
 20
49.140513966497387
 30
0.0
  0
VERTEX
  5
2447
  8
SAPA_PROFIL
 62
     4
 10
270.11596074997459
 20
48.938777287820287
 30
0.0
 42
0.0612687673629489
  0
VERTEX
  5
2448
  8
SAPA_PROFIL
 62
     4
 10
269.82328531687438
 20
48.925193917134081
 30
0.0
 42
0.2694959974285039
  0
VERTEX
  5
2449
  8
SAPA_PROFIL
 62
     4
 10
269.59176627047378
 20
48.732061942790132
 30
0.0
  0
VERTEX
  5
244A
  8
SAPA_PROFIL
 62
     4
 10
268.69609732956422
 20
46.271231752336973
 30
0.0
 42
-0.3152987888784035
  0
VERTEX
  5
244B
  8
SAPA_PROFIL
 62
     4
 10
268.22625101917089
 20
45.942241824000391
 30
0.0
  0
VERTEX
  5
244C
  8
SAPA_PROFIL
 62
     4
 10
266.84475143396651
 20
45.942241824001989
 30
0.0
 42
-0.2539676464741841
  0
VERTEX
  5
244D
  8
SAPA_PROFIL
 62
     4
 10
266.5931502635824
 20
46.078850113497261
 30
0.0
  0
VERTEX
  5
244E
  8
SAPA_PROFIL
 62
     4
 10
266.32912698520579
 20
46.485410309502242
 30
0.0
 42
-0.5862177598324623
  0
VERTEX
  5
244F
  8
SAPA_PROFIL
 62
     4
 10
266.5848688004441
 20
46.942241823998742
 30
0.0
  0
VERTEX
  5
2450
  8
SAPA_PROFIL
 62
     4
 10
267.526043480954
 20
46.942241823991083
 30
0.0
 42
0.3152987888813165
  0
VERTEX
  5
2451
  8
SAPA_PROFIL
 62
     4
 10
267.99588979135171
 20
47.271231752327829
 30
0.0
  0
VERTEX
  5
2452
  8
SAPA_PROFIL
 62
     4
 10
268.4326540724756
 20
48.471231752339072
 30
0.0
 42
0.5205670505515651
  0
VERTEX
  5
2453
  8
SAPA_PROFIL
 62
     4
 10
267.96280776208238
 20
49.142241824001808
 30
0.0
  0
VERTEX
  5
2454
  8
SAPA_PROFIL
 62
     4
 10
262.94636682141351
 20
49.14224182400185
 30
0.0
 42
0.3702522326300203
  0
VERTEX
  5
2455
  8
SAPA_PROFIL
 62
     4
 10
262.64984345962017
 20
48.887781871336138
 30
0.0
 42
0.0982365330332397
  0
VERTEX
  5
2456
  8
SAPA_PROFIL
 62
     4
 10
262.55939070140931
 20
47.20009509634113
 30
0.0
 42
0.3735060174783164
  0
VERTEX
  5
2457
  8
SAPA_PROFIL
 62
     4
 10
262.8564153693203
 20
46.942241824001101
 30
0.0
  0
VERTEX
  5
2458
  8
SAPA_PROFIL
 62
     4
 10
263.28486880044289
 20
46.942241824000178
 30
0.0
 42
-0.5920056181162531
  0
VERTEX
  5
2459
  8
SAPA_PROFIL
 62
     4
 10
263.53787755676041
 20
46.481038321472262
 30
0.0
  0
VERTEX
  5
245A
  8
SAPA_PROFIL
 62
     4
 10
263.27669348060459
 20
46.078850113493957
 30
0.0
 42
-0.2539676464746725
  0
VERTEX
  5
245B
  8
SAPA_PROFIL
 62
     4
 10
263.02509231022088
 20
45.9422418239986
 30
0.0
  0
VERTEX
  5
245C
  8
SAPA_PROFIL
 62
     4
 10
240.7979392908552
 20
45.94224182400022
 30
0.0
 42
-0.2539676464741819
  0
VERTEX
  5
245D
  8
SAPA_PROFIL
 62
     4
 10
240.54633812047231
 20
46.078850113493999
 30
0.0
  0
VERTEX
  5
245E
  8
SAPA_PROFIL
 62
     4
 10
240.28515404431849
 20
46.48103832147234
 30
0.0
 42
-0.5920055144124249
  0
VERTEX
  5
245F
  8
SAPA_PROFIL
 62
     4
 10
240.53816280063401
 20
46.942241824000227
 30
0.0
  0
VERTEX
  5
2460
  8
SAPA_PROFIL
 62
     4
 10
240.96661627792429
 20
46.94224179872522
 30
0.0
 42
0.3735060174775405
  0
VERTEX
  5
2461
  8
SAPA_PROFIL
 62
     4
 10
241.263640945834
 20
47.200095071065313
 30
0.0
 42
0.0355900683670349
  0
VERTEX
  5
2462
  8
SAPA_PROFIL
 62
     4
 10
241.3075345098662
 20
47.815968657865099
 30
0.0
 42
0.0624282003873116
  0
VERTEX
  5
2463
  8
SAPA_PROFIL
 62
     4
 10
241.1731881876232
 20
48.887781846060228
 30
0.0
 42
0.3702522326309292
  0
VERTEX
  5
2464
  8
SAPA_PROFIL
 62
     4
 10
240.87666482582989
 20
49.142241798725941
 30
0.0
  0
VERTEX
  5
2465
  8
SAPA_PROFIL
 62
     4
 10
235.8602238389964
 20
49.142241824002099
 30
0.0
 42
0.5205670505515692
  0
VERTEX
  5
2466
  8
SAPA_PROFIL
 62
     4
 10
235.39037752860321
 20
48.471231752339129
 30
0.0
  0
VERTEX
  5
2467
  8
SAPA_PROFIL
 62
     4
 10
235.82714180972809
 20
47.271231752329683
 30
0.0
 42
0.3152987888807539
  0
VERTEX
  5
2468
  8
SAPA_PROFIL
 62
     4
 10
236.29698812012401
 20
46.942241823992063
 30
0.0
  0
VERTEX
  5
2469
  8
SAPA_PROFIL
 62
     4
 10
237.23816280063301
 20
46.94224182399887
 30
0.0
 42
-0.5862175119221242
  0
VERTEX
  5
246A
  8
SAPA_PROFIL
 62
     4
 10
237.493904731615
 20
46.485410498243731
 30
0.0
 42
0.0000002084758573
  0
SEQEND
  5
246B
  8
SAPA_PROFIL
 62
     4
  0
CIRCLE
  5
191C
  8
SAPA_PROFIL
 62
     2
 10
204.47723603951891
 20
23.62608561449338
 30
0.0000000195376815
 40
0.25
  0
INSERT
  5
191D
  8
SAPA_PROFIL
  6
CONTINUOUS
 62
     2
  2
*U146
 10
0.0
 20
0.0
 30
0.0
1001
ACAD
1002
{
1000
R14_HATCH_DATA
1000
191D
1011
1.0
1021
0.0
1031
0.0
1021
0.0
1031
0.0
1011
0.0
1021
0.0
1031
0.0
1021
1.0
1031
0.0
1011
0.0
1021
0.0
1031
0.0
1021
0.0
1031
1.0
1040
0.0000000195376815
1010
0.0
1020
0.0
1030
1.0
1000
SOLID
1070
     1
1070
     1
1071
        1
1071
        7
1070
     1
1070
     1
1071
        2
1040
204.72723603951891
1040
23.62608561449338
1040
-1.0
1040
204.22723603951891
1040
23.62608561449338
1040
-1.0
1071
        1
1005
191C
1070
     0
1070
     1
1040
0.0095408196840103
1071
        1
1040
204.57723603951899
1040
23.62608561449338
1040
0.0000000195376815
1002
}
  0
POLYLINE
  5
191E
  8
SAPA_PROFIL
 62
     2
 66
     1
 10
0.0
 20
0.0
 30
0.0000000195376815
 70
     1
  0
VERTEX
  5
247D
  8
SAPA_PROFIL
 62
     2
 10
201.80285680065299
 20
21.294552613150351
 30
0.0000000195376815
  0
VERTEX
  5
247E
  8
SAPA_PROFIL
 62
     2
 10
201.80285680065299
 20
21.194552613150361
 30
0.0000000195376815
 42
0.4142135623730959
  0
VERTEX
  5
247F
  8
SAPA_PROFIL
 62
     2
 10
202.50285680065301
 20
20.494552613150361
 30
0.0000000195376815
  0
VERTEX
  5
2480
  8
SAPA_PROFIL
 62
     2
 10
203.602856800653
 20
20.494552613150351
 30
0.0000000195376815
 42
0.4142135623730961
  0
VERTEX
  5
2481
  8
SAPA_PROFIL
 62
     2
 10
203.80285680065299
 20
20.69455261315035
 30
0.0000000195376815
  0
VERTEX
  5
2482
  8
SAPA_PROFIL
 62
     2
 10
203.80285680065299
 20
21.794552613150358
 30
0.0000000195376815
 42
0.4142135623730956
  0
VERTEX
  5
2483
  8
SAPA_PROFIL
 62
     2
 10
203.602856800653
 20
21.994552613150351
 30
0.0000000195376815
  0
VERTEX
  5
2484
  8
SAPA_PROFIL
 62
     2
 10
202.50285680065301
 20
21.994552613150351
 30
0.0000000195376815
 42
0.4142135623730946
  0
SEQEND
  5
2485
  8
SAPA_PROFIL
 62
     2
  0
POLYLINE
  5
191F
  8
SAPA_PROFIL
 62
     2
 66
     1
 10
0.0
 20
0.0
 30
0.0000000195376815
  0
VERTEX
  5
2486
  8
SAPA_PROFIL
 62
     2
 10
203.102856800653
 20
22.794552613150351
 30
0.0000000195376815
  0
VERTEX
  5
2487
  8
SAPA_PROFIL
 62
     2
 10
203.75062236592609
 20
22.794552613150351
 30
0.0000000195376815
 42
0.4416942457848117
  0
VERTEX
  5
2488
  8
SAPA_PROFIL
 62
     2
 10
203.94975984541901
 20
23.01310697277826
 30
0.0000000195376815
  0
VERTEX
  5
2489
  8
SAPA_PROFIL
 62
     2
 10
203.86004378016099
 20
23.975998253522441
 30
0.0000000195376815
 42
-0.4416942457848106
  0
VERTEX
  5
248A
  8
SAPA_PROFIL
 62
     2
 10
204.05918125965391
 20
24.19455261315035
 30
0.0000000195376815
  0
VERTEX
  5
248B
  8
SAPA_PROFIL
 62
     2
 10
204.60916359924551
 20
24.194552613150361
 30
0.0000000195376815
 42
-0.5445962197109637
  0
VERTEX
  5
248C
  8
SAPA_PROFIL
 62
     2
 10
205.06490050830729
 20
23.48887356774528
 30
0.0000000195376815
  0
VERTEX
  5
248D
  8
SAPA_PROFIL
 62
     2
 10
204.90285680065301
 20
23.129822414460019
 30
0.0000000195376815
  0
VERTEX
  5
248E
  8
SAPA_PROFIL
 62
     2
 10
204.90285680065301
 20
21.656863175712122
 30
0.0000000195376815
 42
-0.336437923496554
  0
VERTEX
  5
248F
  8
SAPA_PROFIL
 62
     2
 10
204.71534998281129
 20
20.585119446097291
 30
0.0000000195376815
  0
VERTEX
  5
2490
  8
SAPA_PROFIL
 62
     2
 10
204.71534998281129
 20
20.023255810273561
 30
0.0000000195376815
 42
0.1919812372740513
  0
VERTEX
  5
2491
  8
SAPA_PROFIL
 62
     2
 10
204.85248236082859
 20
19.67926876267353
 30
0.0000000195376815
  0
VERTEX
  5
2492
  8
SAPA_PROFIL
 62
     2
 10
205.2239598371186
 20
19.287401832270231
 30
0.0000000195376815
 42
0.9249153594910841
  0
VERTEX
  5
2493
  8
SAPA_PROFIL
 62
     2
 10
207.4576546521979
 20
20.953179760792452
 30
0.0000000195376815
  0
VERTEX
  5
2494
  8
SAPA_PROFIL
 62
     2
 10
206.9241065969463
 20
22.037724700461212
 30
0.0000000195376815
 42
-0.4184584792862776
  0
VERTEX
  5
2495
  8
SAPA_PROFIL
 62
     2
 10
207.32785871736601
 20
22.624427017032641
 30
0.0000000195376815
 42
-0.3891337693453737
  0
VERTEX
  5
2496
  8
SAPA_PROFIL
 62
     2
 10
207.5559480253086
 20
22.479260125492171
 30
0.0000000195376815
  0
VERTEX
  5
2497
  8
SAPA_PROFIL
 62
     2
 10
208.1188530777965
 20
21.39336403492716
 30
0.0000000195376815
 42
-0.8864286961344978
  0
VERTEX
  5
2498
  8
SAPA_PROFIL
 62
     2
 10
204.75965432227579
 20
18.721584132990611
 30
0.0000000195376815
  0
VERTEX
  5
2499
  8
SAPA_PROFIL
 62
     2
 10
204.6442863489867
 20
18.29102499510936
 30
0.0000000195376815
 42
-0.9163311740174273
  0
VERTEX
  5
249A
  8
SAPA_PROFIL
 62
     2
 10
203.8594381392343
 20
18.429414910249431
 30
0.0000000195376815
  0
VERTEX
  5
249B
  8
SAPA_PROFIL
 62
     2
 10
203.95110058544179
 20
19.47712146460082
 30
0.0000000195376815
 42
0.4400105308918339
  0
VERTEX
  5
249C
  8
SAPA_PROFIL
 62
     2
 10
203.75186164582351
 20
19.69455261315035
 30
0.0000000195376815
  0
VERTEX
  5
249D
  8
SAPA_PROFIL
 62
     2
 10
202.90285680065301
 20
19.69455261315035
 30
0.0000000195376815
  0
VERTEX
  5
249E
  8
SAPA_PROFIL
 62
     2
 10
202.90285680065301
 20
19.294552613150351
 30
0.0000000195376815
 42
-0.569380983920789
  0
VERTEX
  5
249F
  8
SAPA_PROFIL
 62
     2
 10
202.6070404289504
 20
19.118998567586772
 30
0.0000000195376815
  0
VERTEX
  5
24A0
  8
SAPA_PROFIL
 62
     2
 10
201.3154076855451
 20
19.82396416748583
 30
0.0000000195376815
 42
-0.274387813087548
  0
VERTEX
  5
24A1
  8
SAPA_PROFIL
 62
     2
 10
201.00285680065301
 20
20.350626304176579
 30
0.0000000195376815
  0
VERTEX
  5
24A2
  8
SAPA_PROFIL
 62
     2
 10
201.00285680065301
 20
22.138478922124129
 30
0.0000000195376815
 42
-0.274387813087548
  0
VERTEX
  5
24A3
  8
SAPA_PROFIL
 62
     2
 10
201.3154076855451
 20
22.665141058814871
 30
0.0000000195376815
  0
VERTEX
  5
24A4
  8
SAPA_PROFIL
 62
     2
 10
202.6070404289504
 20
23.37010665871394
 30
0.0000000195376815
 42
-0.5693809839207892
  0
VERTEX
  5
24A5
  8
SAPA_PROFIL
 62
     2
 10
202.90285680065301
 20
23.194552613150361
 30
0.0000000195376815
  0
VERTEX
  5
24A6
  8
SAPA_PROFIL
 62
     2
 10
202.90285680065301
 20
22.794552613150358
 30
0.0000000195376815
  0
VERTEX
  5
24A7
  8
SAPA_PROFIL
 62
     2
 10
203.75186164582351
 20
22.794552613150358
 30
0.0000000195376815
  0
SEQEND
  5
24A8
  8
SAPA_PROFIL
 62
     2
  0
CIRCLE
  5
1920
  8
SAPA_PROFIL
 62
     2
 10
297.78721702325231
 20
44.253237938104391
 30
0.0000000195376815
 40
0.25
  0
INSERT
  5
1921
  8
SAPA_PROFIL
  6
CONTINUOUS
 62
     2
  2
*U147
 10
0.0
 20
0.0
 30
0.0
1001
ACAD
1002
{
1000
R14_HATCH_DATA
1000
1921
1011
1.0
1021
0.0
1031
0.0
1021
0.0
1031
0.0
1011
0.0
1021
0.0
1031
0.0
1021
1.0
1031
0.0
1011
0.0
1021
0.0
1031
0.0
1021
0.0
1031
1.0
1040
0.0000000195376815
1010
0.0
1020
0.0
1030
1.0
1000
SOLID
1070
     1
1070
     1
1071
        1
1071
        7
1070
     1
1070
     1
1071
        2
1040
297.53721702325231
1040
44.253237938104391
1040
-1.0
1040
298.03721702325231
1040
44.253237938104391
1040
-1.0
1071
        1
1005
1920
1070
     0
1070
     1
1040
0.0095408196840103
1071
        1
1040
297.68721702325229
1040
44.253237938104391
1040
0.0000000195376815
1002
}
  0
POLYLINE
  5
1922
  8
SAPA_PROFIL
 62
     2
 66
     1
 10
0.0
 20
0.0
 30
0.0000000195376815
 70
     1
  0
VERTEX
  5
24BA
  8
SAPA_PROFIL
 62
     2
 10
300.46159626211829
 20
46.584770939447417
 30
0.0000000195376815
  0
VERTEX
  5
24BB
  8
SAPA_PROFIL
 62
     2
 10
300.46159626211829
 20
46.684770939447411
 30
0.0000000195376815
 42
0.4142135623730959
  0
VERTEX
  5
24BC
  8
SAPA_PROFIL
 62
     2
 10
299.76159626211819
 20
47.384770939447421
 30
0.0000000195376815
  0
VERTEX
  5
24BD
  8
SAPA_PROFIL
 62
     2
 10
298.66159626211822
 20
47.384770939447421
 30
0.0000000195376815
 42
0.4142135623730961
  0
VERTEX
  5
24BE
  8
SAPA_PROFIL
 62
     2
 10
298.46159626211818
 20
47.184770939447411
 30
0.0000000195376815
  0
VERTEX
  5
24BF
  8
SAPA_PROFIL
 62
     2
 10
298.46159626211818
 20
46.084770939447409
 30
0.0000000195376815
 42
0.4142135623730956
  0
VERTEX
  5
24C0
  8
SAPA_PROFIL
 62
     2
 10
298.66159626211822
 20
45.884770939447407
 30
0.0000000195376815
  0
VERTEX
  5
24C1
  8
SAPA_PROFIL
 62
     2
 10
299.76159626211819
 20
45.884770939447407
 30
0.0000000195376815
 42
0.4142135623730946
  0
SEQEND
  5
24C2
  8
SAPA_PROFIL
 62
     2
  0
POLYLINE
  5
1923
  8
SAPA_PROFIL
 62
     2
 66
     1
 10
0.0
 20
0.0
 30
0.0000000195376815
  0
VERTEX
  5
24C3
  8
SAPA_PROFIL
 62
     2
 10
299.16159626211822
 20
45.084770939447417
 30
0.0000000195376815
  0
VERTEX
  5
24C4
  8
SAPA_PROFIL
 62
     2
 10
298.5138306968451
 20
45.084770939447417
 30
0.0000000195376815
 42
0.4416942457848117
  0
VERTEX
  5
24C5
  8
SAPA_PROFIL
 62
     2
 10
298.31469321735221
 20
44.866216579819508
 30
0.0000000195376815
  0
VERTEX
  5
24C6
  8
SAPA_PROFIL
 62
     2
 10
298.40440928261017
 20
43.903325299075327
 30
0.0000000195376815
 42
-0.4416942457848106
  0
VERTEX
  5
24C7
  8
SAPA_PROFIL
 62
     2
 10
298.20527180311728
 20
43.684770939447418
 30
0.0000000195376815
  0
VERTEX
  5
24C8
  8
SAPA_PROFIL
 62
     2
 10
297.65528946352578
 20
43.684770939447418
 30
0.0000000195376815
 42
-0.5445962197109637
  0
VERTEX
  5
24C9
  8
SAPA_PROFIL
 62
     2
 10
297.19955255446382
 20
44.390449984852502
 30
0.0000000195376815
  0
VERTEX
  5
24CA
  8
SAPA_PROFIL
 62
     2
 10
297.36159626211821
 20
44.749501138137752
 30
0.0000000195376815
  0
VERTEX
  5
24CB
  8
SAPA_PROFIL
 62
     2
 10
297.36159626211821
 20
46.222460376885643
 30
0.0000000195376815
 42
-0.336437923496554
  0
VERTEX
  5
24CC
  8
SAPA_PROFIL
 62
     2
 10
297.54910307995988
 20
47.294204106500487
 30
0.0000000195376815
  0
VERTEX
  5
24CD
  8
SAPA_PROFIL
 62
     2
 10
297.54910307995988
 20
47.856067742324207
 30
0.0000000195376815
 42
0.1919812372740513
  0
VERTEX
  5
24CE
  8
SAPA_PROFIL
 62
     2
 10
297.41197070194272
 20
48.200054789924238
 30
0.0000000195376815
  0
VERTEX
  5
24CF
  8
SAPA_PROFIL
 62
     2
 10
297.0404932256526
 20
48.591921720327541
 30
0.0000000195376815
 42
0.9249153594910841
  0
VERTEX
  5
24D0
  8
SAPA_PROFIL
 62
     2
 10
294.80679841057338
 20
46.926143791805323
 30
0.0000000195376815
  0
VERTEX
  5
24D1
  8
SAPA_PROFIL
 62
     2
 10
295.34034646582501
 20
45.841598852136549
 30
0.0000000195376815
 42
-0.4184584792862776
  0
VERTEX
  5
24D2
  8
SAPA_PROFIL
 62
     2
 10
294.9365943454053
 20
45.25489653556513
 30
0.0000000195376815
 42
-0.3891337693453737
  0
VERTEX
  5
24D3
  8
SAPA_PROFIL
 62
     2
 10
294.70850503746271
 20
45.400063427105607
 30
0.0000000195376815
  0
VERTEX
  5
24D4
  8
SAPA_PROFIL
 62
     2
 10
294.14559998497469
 20
46.485959517670608
 30
0.0000000195376815
 42
-0.8864286961344978
  0
VERTEX
  5
24D5
  8
SAPA_PROFIL
 62
     2
 10
297.50479874049552
 20
49.157739419607161
 30
0.0000000195376815
  0
VERTEX
  5
24D6
  8
SAPA_PROFIL
 62
     2
 10
297.62016671378461
 20
49.588298557488422
 30
0.0000000195376815
 42
-0.9163311740174273
  0
VERTEX
  5
24D7
  8
SAPA_PROFIL
 62
     2
 10
298.40501492353701
 20
49.44990864234834
 30
0.0000000195376815
  0
VERTEX
  5
24D8
  8
SAPA_PROFIL
 62
     2
 10
298.31335247732937
 20
48.402202087996962
 30
0.0000000195376815
 42
0.4400105308918339
  0
VERTEX
  5
24D9
  8
SAPA_PROFIL
 62
     2
 10
298.51259141694771
 20
48.184770939447418
 30
0.0000000195376815
  0
VERTEX
  5
24DA
  8
SAPA_PROFIL
 62
     2
 10
299.36159626211821
 20
48.184770939447418
 30
0.0000000195376815
  0
VERTEX
  5
24DB
  8
SAPA_PROFIL
 62
     2
 10
299.36159626211821
 20
48.584770939447417
 30
0.0000000195376815
 42
-0.569380983920789
  0
VERTEX
  5
24DC
  8
SAPA_PROFIL
 62
     2
 10
299.65741263382091
 20
48.760324985011003
 30
0.0000000195376815
  0
VERTEX
  5
24DD
  8
SAPA_PROFIL
 62
     2
 10
300.94904537722618
 20
48.055359385111942
 30
0.0000000195376815
 42
-0.274387813087548
  0
VERTEX
  5
24DE
  8
SAPA_PROFIL
 62
     2
 10
301.26159626211819
 20
47.528697248421203
 30
0.0000000195376815
  0
VERTEX
  5
24DF
  8
SAPA_PROFIL
 62
     2
 10
301.2615962621183
 20
45.740844630473639
 30
0.0000000195376815
 42
-0.274387813087548
  0
VERTEX
  5
24E0
  8
SAPA_PROFIL
 62
     2
 10
300.94904537722618
 20
45.2141824937829
 30
0.0000000195376815
  0
VERTEX
  5
24E1
  8
SAPA_PROFIL
 62
     2
 10
299.65741263382091
 20
44.509216893883817
 30
0.0000000195376815
 42
-0.5693809839207892
  0
VERTEX
  5
24E2
  8
SAPA_PROFIL
 62
     2
 10
299.36159626211821
 20
44.684770939447411
 30
0.0000000195376815
  0
VERTEX
  5
24E3
  8
SAPA_PROFIL
 62
     2
 10
299.36159626211821
 20
45.084770939447409
 30
0.0000000195376815
  0
VERTEX
  5
24E4
  8
SAPA_PROFIL
 62
     2
 10
298.51259141694771
 20
45.084770939447409
 30
0.0000000195376815
  0
SEQEND
  5
24E5
  8
SAPA_PROFIL
 62
     2
  0
POLYLINE
  5
1924
  8
SAPA_PROFIL
 62
     4
 66
     1
 10
0.0
 20
0.0
 30
0.0
 70
     1
  0
VERTEX
  5
24E6
  8
SAPA_PROFIL
 62
     4
 10
222.70728766929679
 20
-14.6310492587141
 30
0.0
  0
VERTEX
  5
24E7
  8
SAPA_PROFIL
 62
     4
 10
218.51317511959991
 20
-14.631049258715921
 30
0.0
 42
0.1989123673786592
  0
VERTEX
  5
24E8
  8
SAPA_PROFIL
 62
     4
 10
218.30104308524409
 20
-14.71891722435937
 30
0.0
  0
VERTEX
  5
24E9
  8
SAPA_PROFIL
 62
     4
 10
216.07677901653321
 20
-16.943181293070278
 30
0.0
 42
-0.1989123673785438
  0
VERTEX
  5
24EA
  8
SAPA_PROFIL
 62
     4
 10
215.86464698217731
 20
-17.031049258713729
 30
0.0
  0
VERTEX
  5
24EB
  8
SAPA_PROFIL
 62
     4
 10
215.410231394449
 20
-17.031049258711921
 30
0.0
 42
-0.4142135623730951
  0
VERTEX
  5
24EC
  8
SAPA_PROFIL
 62
     4
 10
215.11023139444879
 20
-16.731049258712641
 30
0.0
  0
VERTEX
  5
24ED
  8
SAPA_PROFIL
 62
     4
 10
215.11023139444879
 20
-4.8310492587136906
 30
0.0
 42
0.4142135623730951
  0
VERTEX
  5
24EE
  8
SAPA_PROFIL
 62
     4
 10
214.61023139444879
 20
-4.3310492587136906
 30
0.0
  0
VERTEX
  5
24EF
  8
SAPA_PROFIL
 62
     4
 10
212.910231394449
 20
-4.3310492587136906
 30
0.0
 42
-0.4142135623739832
  0
VERTEX
  5
24F0
  8
SAPA_PROFIL
 62
     4
 10
212.61023139444879
 20
-4.0310492587144182
 30
0.0
  0
VERTEX
  5
24F1
  8
SAPA_PROFIL
 62
     4
 10
212.61023139444879
 20
-0.3310492587148279
 30
0.0
 42
-0.414213562375759
  0
VERTEX
  5
24F2
  8
SAPA_PROFIL
 62
     4
 10
212.910231394449
 20
-0.0310492587137366
 30
0.0
  0
VERTEX
  5
24F3
  8
SAPA_PROFIL
 62
     4
 10
229.40365452485199
 20
-0.0310492587155591
 30
0.0
 42
-0.4142135623735391
  0
VERTEX
  5
24F4
  8
SAPA_PROFIL
 62
     4
 10
229.70365452485169
 20
-0.3310492587148317
 30
0.0
  0
VERTEX
  5
24F5
  8
SAPA_PROFIL
 62
     4
 10
229.70365452485169
 20
-16.731049258712648
 30
0.0
 42
-0.4142135623726511
  0
VERTEX
  5
24F6
  8
SAPA_PROFIL
 62
     4
 10
229.40365452485199
 20
-17.03104925871374
 30
0.0
  0
VERTEX
  5
24F7
  8
SAPA_PROFIL
 62
     4
 10
225.35581580672121
 20
-17.03104925871374
 30
0.0
 42
-0.1989123673785438
  0
VERTEX
  5
24F8
  8
SAPA_PROFIL
 62
     4
 10
225.14368377236531
 20
-16.943181293070278
 30
0.0
  0
VERTEX
  5
24F9
  8
SAPA_PROFIL
 62
     4
 10
222.91941970365261
 20
-14.718917224357559
 30
0.0
 42
0.1989123673798886
  0
SEQEND
  5
24FA
  8
SAPA_PROFIL
 62
     4
  0
POLYLINE
  5
1925
  8
SAPA_PROFIL
 62
     4
 66
     1
 10
0.0
 20
0.0
 30
0.0
 70
     1
  0
VERTEX
  5
24FB
  8
SAPA_PROFIL
 62
     4
 10
244.11023139444859
 20
-0.0310492587137434
 30
0.0
  0
VERTEX
  5
24FC
  8
SAPA_PROFIL
 62
     4
 10
231.30365452485211
 20
-0.0310492587155595
 30
0.0
 42
0.4142135623732061
  0
VERTEX
  5
24FD
  8
SAPA_PROFIL
 62
     4
 10
231.0036545248519
 20
-0.3310492587148319
 30
0.0
  0
VERTEX
  5
24FE
  8
SAPA_PROFIL
 62
     4
 10
231.0036545248519
 20
-16.731049258712648
 30
0.0
 42
0.4142135623730951
  0
VERTEX
  5
24FF
  8
SAPA_PROFIL
 62
     4
 10
231.30365452485211
 20
-17.03104925871374
 30
0.0
  0
VERTEX
  5
2500
  8
SAPA_PROFIL
 62
     4
 10
244.11023139444859
 20
-17.031049258711921
 30
0.0
 42
0.4142135623731173
  0
VERTEX
  5
2501
  8
SAPA_PROFIL
 62
     4
 10
244.41023139444869
 20
-16.731049258710829
 30
0.0
  0
VERTEX
  5
2502
  8
SAPA_PROFIL
 62
     4
 10
244.41023139444869
 20
-0.331049258713016
 30
0.0
 42
0.4142135623730951
  0
SEQEND
  5
2503
  8
SAPA_PROFIL
 62
     4
  0
POLYLINE
  5
1926
  8
SAPA_PROFIL
 62
     4
 66
     1
 10
0.0
 20
0.0
 30
0.0
 70
     1
  0
VERTEX
  5
2504
  8
SAPA_PROFIL
 62
     4
 10
245.41023139444869
 20
-18.531049258711921
 30
0.0
  0
VERTEX
  5
2505
  8
SAPA_PROFIL
 62
     4
 10
224.7344954631611
 20
-18.53104925871374
 30
0.0
 42
-0.1989123673799843
  0
VERTEX
  5
2506
  8
SAPA_PROFIL
 62
     4
 10
224.5223634288044
 20
-18.443181293068459
 30
0.0
  0
VERTEX
  5
2507
  8
SAPA_PROFIL
 62
     4
 10
222.29809936009349
 20
-16.218917224357561
 30
0.0
 42
0.1989123673811184
  0
VERTEX
  5
2508
  8
SAPA_PROFIL
 62
     4
 10
222.0859673257377
 20
-16.1310492587141
 30
0.0
  0
VERTEX
  5
2509
  8
SAPA_PROFIL
 62
     4
 10
219.13449546315991
 20
-16.131049258715919
 30
0.0
 42
0.1989123673785438
  0
VERTEX
  5
250A
  8
SAPA_PROFIL
 62
     4
 10
218.922363428804
 20
-16.21891722435937
 30
0.0
  0
VERTEX
  5
250B
  8
SAPA_PROFIL
 62
     4
 10
216.6980993600923
 20
-18.443181293070278
 30
0.0
 42
-0.1989123673785438
  0
VERTEX
  5
250C
  8
SAPA_PROFIL
 62
     4
 10
216.4859673257364
 20
-18.531049258713729
 30
0.0
  0
VERTEX
  5
250D
  8
SAPA_PROFIL
 62
     4
 10
214.11023139444879
 20
-18.531049258711921
 30
0.0
 42
-0.4142135623730951
  0
VERTEX
  5
250E
  8
SAPA_PROFIL
 62
     4
 10
213.61023139444879
 20
-18.031049258711921
 30
0.0
  0
VERTEX
  5
250F
  8
SAPA_PROFIL
 62
     4
 10
213.61023139444879
 20
-6.131049258712963
 30
0.0
 42
0.414213562373761
  0
VERTEX
  5
2510
  8
SAPA_PROFIL
 62
     4
 10
213.31023139444861
 20
-5.8310492587136906
 30
0.0
  0
VERTEX
  5
2511
  8
SAPA_PROFIL
 62
     4
 10
211.61023139444879
 20
-5.8310492587136897
 30
0.0
 42
-0.4142135623730951
  0
VERTEX
  5
2512
  8
SAPA_PROFIL
 62
     4
 10
211.11023139444879
 20
-5.3310492587136897
 30
0.0
  0
VERTEX
  5
2513
  8
SAPA_PROFIL
 62
     4
 10
211.11023139444879
 20
0.9689507412862639
 30
0.0
 42
-0.4142135623730951
  0
VERTEX
  5
2514
  8
SAPA_PROFIL
 62
     4
 10
211.61023139444879
 20
1.468950741286263
 30
0.0
  0
VERTEX
  5
2515
  8
SAPA_PROFIL
 62
     4
 10
212.6102313944491
 20
1.468950741284444
 30
0.0
 42
0.414213562373539
  0
VERTEX
  5
2516
  8
SAPA_PROFIL
 62
     4
 10
212.91023139444911
 20
1.768950741283716
 30
0.0
  0
VERTEX
  5
2517
  8
SAPA_PROFIL
 62
     4
 10
212.9102313944486
 20
3.3689507412858992
 30
0.0
 42
0.4142135623735391
  0
VERTEX
  5
2518
  8
SAPA_PROFIL
 62
     4
 10
212.6102313944489
 20
3.6689507412851721
 30
0.0
  0
VERTEX
  5
2519
  8
SAPA_PROFIL
 62
     4
 10
212.31023139444929
 20
3.6689507412833531
 30
0.0
 42
-0.592337729603611
  0
VERTEX
  5
251A
  8
SAPA_PROFIL
 62
     4
 10
212.05738131184501
 20
4.1304030120249271
 30
0.0
  0
VERTEX
  5
251B
  8
SAPA_PROFIL
 62
     4
 10
213.33444058014189
 20
5.8304030120256538
 30
0.0
 42
-0.2560149538738706
  0
VERTEX
  5
251C
  8
SAPA_PROFIL
 62
     4
 10
213.58729066274699
 20
5.968950741286263
 30
0.0
  0
VERTEX
  5
251D
  8
SAPA_PROFIL
 62
     4
 10
213.81023139444969
 20
5.968950741286263
 30
0.0
 42
-0.4142135623733169
  0
VERTEX
  5
251E
  8
SAPA_PROFIL
 62
     4
 10
214.1102313944489
 20
5.6689507412869897
 30
0.0
  0
VERTEX
  5
251F
  8
SAPA_PROFIL
 62
     4
 10
214.1102313944489
 20
1.768950741283716
 30
0.0
 42
0.414213562373539
  0
VERTEX
  5
2520
  8
SAPA_PROFIL
 62
     4
 10
214.41023139444891
 20
1.468950741284444
 30
0.0
  0
VERTEX
  5
2521
  8
SAPA_PROFIL
 62
     4
 10
225.41023139444911
 20
1.4689507412862599
 30
0.0
 42
0.414213562373539
  0
VERTEX
  5
2522
  8
SAPA_PROFIL
 62
     4
 10
225.7102313944491
 20
1.7689507412855321
 30
0.0
  0
VERTEX
  5
2523
  8
SAPA_PROFIL
 62
     4
 10
225.7102313944491
 20
5.6689507412869871
 30
0.0
 42
-0.4142135623730951
  0
VERTEX
  5
2524
  8
SAPA_PROFIL
 62
     4
 10
226.01023139444831
 20
5.9689507412862604
 30
0.0
  0
VERTEX
  5
2525
  8
SAPA_PROFIL
 62
     4
 10
226.23317212615089
 20
5.9689507412862604
 30
0.0
 42
-0.2560149538738705
  0
VERTEX
  5
2526
  8
SAPA_PROFIL
 62
     4
 10
226.486022208756
 20
5.830403012025652
 30
0.0
  0
VERTEX
  5
2527
  8
SAPA_PROFIL
 62
     4
 10
227.76308147705291
 20
4.1304030120249244
 30
0.0
 42
-0.592337729603611
  0
VERTEX
  5
2528
  8
SAPA_PROFIL
 62
     4
 10
227.5102313944486
 20
3.6689507412833491
 30
0.0
  0
VERTEX
  5
2529
  8
SAPA_PROFIL
 62
     4
 10
227.21023139444901
 20
3.6689507412851681
 30
0.0
 42
0.4142135623735391
  0
VERTEX
  5
252A
  8
SAPA_PROFIL
 62
     4
 10
226.91023139444931
 20
3.3689507412858961
 30
0.0
  0
VERTEX
  5
252B
  8
SAPA_PROFIL
 62
     4
 10
226.91023139444891
 20
1.7689507412855321
 30
0.0
 42
0.414213562373539
  0
VERTEX
  5
252C
  8
SAPA_PROFIL
 62
     4
 10
227.21023139444881
 20
1.4689507412862599
 30
0.0
  0
VERTEX
  5
252D
  8
SAPA_PROFIL
 62
     4
 10
245.41023139444869
 20
1.4689507412898939
 30
0.0
 42
-0.414213562373126
  0
VERTEX
  5
252E
  8
SAPA_PROFIL
 62
     4
 10
245.91023139444869
 20
0.968950741289894
 30
0.0
  0
VERTEX
  5
252F
  8
SAPA_PROFIL
 62
     4
 10
245.91023139444869
 20
-18.031049258711921
 30
0.0
 42
-0.4142135623730951
  0
SEQEND
  5
2530
  8
SAPA_PROFIL
 62
     4
  0
POLYLINE
  5
1927
  8
SAPA_PROFIL
 66
     1
 10
0.0
 20
0.0
 30
0.0
 70
     1
  0
VERTEX
  5
2531
  8
SAPA_PROFIL
 10
280.61151580049648
 20
17.56895035247199
 30
0.0
  0
VERTEX
  5
2532
  8
SAPA_PROFIL
 10
280.61151580049648
 20
18.668950352471899
 30
0.0
 42
0.4142135623730882
  0
VERTEX
  5
2533
  8
SAPA_PROFIL
 10
280.31151580049652
 20
18.96895035247185
 30
0.0
  0
VERTEX
  5
2534
  8
SAPA_PROFIL
 10
274.91151580049637
 20
18.968950352472081
 30
0.0
 42
-0.4142135623730916
  0
VERTEX
  5
2535
  8
SAPA_PROFIL
 10
274.61151580049642
 20
19.268950352472029
 30
0.0
  0
VERTEX
  5
2536
  8
SAPA_PROFIL
 10
274.61151580049619
 20
21.46895035247185
 30
0.0
 42
-0.4142135623730916
  0
VERTEX
  5
2537
  8
SAPA_PROFIL
 10
274.91151580049637
 20
21.768950352472039
 30
0.0
  0
VERTEX
  5
2538
  8
SAPA_PROFIL
 10
276.61151580049648
 20
21.768950352472039
 30
0.0
 42
0.4142135623730916
  0
VERTEX
  5
2539
  8
SAPA_PROFIL
 10
276.91151580049637
 20
22.06895035247199
 30
0.0
  0
VERTEX
  5
253A
  8
SAPA_PROFIL
 10
276.91151580049637
 20
36.96895035247185
 30
0.0
 42
-0.4142135623730951
  0
VERTEX
  5
253B
  8
SAPA_PROFIL
 10
277.41151580049637
 20
37.46895035247185
 30
0.0
  0
VERTEX
  5
253C
  8
SAPA_PROFIL
 10
279.96151579971649
 20
37.468950352472078
 30
0.0
 42
-0.4142135623730898
  0
VERTEX
  5
253D
  8
SAPA_PROFIL
 10
280.16151579971648
 20
37.268950352472032
 30
0.0
  0
VERTEX
  5
253E
  8
SAPA_PROFIL
 10
280.16151579971648
 20
37.168950352471903
 30
0.0
 42
0.4142135623730951
  0
VERTEX
  5
253F
  8
SAPA_PROFIL
 10
280.36151579971659
 20
36.96895035247185
 30
0.0
  0
VERTEX
  5
2540
  8
SAPA_PROFIL
 10
287.46151579971649
 20
36.96895035247185
 30
0.0
 42
0.4142135623730977
  0
VERTEX
  5
2541
  8
SAPA_PROFIL
 10
287.66151579971648
 20
37.168950352471903
 30
0.0
  0
VERTEX
  5
2542
  8
SAPA_PROFIL
 10
287.66151579971682
 20
37.268950352472032
 30
0.0
 42
-0.4142135623730951
  0
VERTEX
  5
2543
  8
SAPA_PROFIL
 10
287.86151579971659
 20
37.46895035247185
 30
0.0
  0
VERTEX
  5
2544
  8
SAPA_PROFIL
 10
291.71151579971649
 20
37.468950352472078
 30
0.0
 42
-0.4142135623730977
  0
VERTEX
  5
2545
  8
SAPA_PROFIL
 10
291.91151579971648
 20
37.268950352472032
 30
0.0
  0
VERTEX
  5
2546
  8
SAPA_PROFIL
 10
291.91151579971648
 20
37.168950352471903
 30
0.0
 42
0.4142135623730925
  0
VERTEX
  5
2547
  8
SAPA_PROFIL
 10
292.11151579971659
 20
36.96895035247185
 30
0.0
  0
VERTEX
  5
2548
  8
SAPA_PROFIL
 10
299.21151579971649
 20
36.96895035247185
 30
0.0
 42
0.4142135623730951
  0
VERTEX
  5
2549
  8
SAPA_PROFIL
 10
299.41151579971648
 20
37.168950352471903
 30
0.0
  0
VERTEX
  5
254A
  8
SAPA_PROFIL
 10
299.41151579971682
 20
37.268950352472032
 30
0.0
 42
-0.4142135623730956
  0
VERTEX
  5
254B
  8
SAPA_PROFIL
 10
299.61151579971659
 20
37.46895035247185
 30
0.0
  0
VERTEX
  5
254C
  8
SAPA_PROFIL
 10
300.71151579971649
 20
37.46895035247185
 30
0.0
 42
-0.4142135623730951
  0
VERTEX
  5
254D
  8
SAPA_PROFIL
 10
301.21151579971649
 20
36.96895035247185
 30
0.0
  0
VERTEX
  5
254E
  8
SAPA_PROFIL
 10
301.21151579971649
 20
5.1689503524717217
 30
0.0
 42
-0.4142135623730991
  0
VERTEX
  5
254F
  8
SAPA_PROFIL
 10
300.71151579971638
 20
4.6689503524717209
 30
0.0
  0
VERTEX
  5
2550
  8
SAPA_PROFIL
 10
295.41151580044641
 20
4.6689503524718372
 30
0.0
 42
-0.4142135623730883
  0
VERTEX
  5
2551
  8
SAPA_PROFIL
 10
294.91151580044641
 20
5.1689503524718381
 30
0.0
  0
VERTEX
  5
2552
  8
SAPA_PROFIL
 10
294.91151580044641
 20
11.76895035247203
 30
0.0
 42
0.4142135623730951
  0
VERTEX
  5
2553
  8
SAPA_PROFIL
 10
294.41151580044641
 20
12.26895035247203
 30
0.0
  0
VERTEX
  5
2554
  8
SAPA_PROFIL
 10
292.81151579904662
 20
12.26895035247203
 30
0.0
 42
0.4142135624903096
  0
VERTEX
  5
2555
  8
SAPA_PROFIL
 10
292.6115157990464
 20
12.068950352391949
 30
0.0
  0
VERTEX
  5
2556
  8
SAPA_PROFIL
 10
292.61151579970658
 20
10.46895035239204
 30
0.0
 42
0.4142135622562109
  0
VERTEX
  5
2557
  8
SAPA_PROFIL
 10
292.81151579970629
 20
10.26895035247203
 30
0.0
  0
VERTEX
  5
2558
  8
SAPA_PROFIL
 10
292.96151579988651
 20
10.26895035247203
 30
0.0
 42
-0.4142135622561501
  0
VERTEX
  5
2559
  8
SAPA_PROFIL
 10
293.21151579988651
 20
10.018950352571849
 30
0.0
  0
VERTEX
  5
255A
  8
SAPA_PROFIL
 10
293.21151580049627
 20
8.4689503525919037
 30
0.0
 42
-0.4142135624903061
  0
VERTEX
  5
255B
  8
SAPA_PROFIL
 10
292.91151580049637
 20
8.1689503524718958
 30
0.0
  0
VERTEX
  5
255C
  8
SAPA_PROFIL
 10
274.91151580049637
 20
8.1689503524718994
 30
0.0
 42
-0.4142135623730916
  0
VERTEX
  5
255D
  8
SAPA_PROFIL
 10
274.61151580049642
 20
8.4689503524718521
 30
0.0
  0
VERTEX
  5
255E
  8
SAPA_PROFIL
 10
274.61151580049642
 20
10.018950352472039
 30
0.0
 42
-0.4142135623730951
  0
VERTEX
  5
255F
  8
SAPA_PROFIL
 10
274.86151580049642
 20
10.26895035247203
 30
0.0
  0
VERTEX
  5
2560
  8
SAPA_PROFIL
 10
275.01151580049651
 20
10.26895035247203
 30
0.0
 42
0.4142135623730951
  0
VERTEX
  5
2561
  8
SAPA_PROFIL
 10
275.21151580049627
 20
10.46895035247185
 30
0.0
  0
VERTEX
  5
2562
  8
SAPA_PROFIL
 10
275.21151580049627
 20
12.06895035247199
 30
0.0
 42
0.4142135623730951
  0
VERTEX
  5
2563
  8
SAPA_PROFIL
 10
275.01151580049651
 20
12.26895035247203
 30
0.0
  0
VERTEX
  5
2564
  8
SAPA_PROFIL
 10
274.86151580049642
 20
12.26895035247203
 30
0.0
 42
-0.4142135623730951
  0
VERTEX
  5
2565
  8
SAPA_PROFIL
 10
274.61151580049642
 20
12.518950352472039
 30
0.0
  0
VERTEX
  5
2566
  8
SAPA_PROFIL
 10
274.61151580049619
 20
16.96895035247185
 30
0.0
 42
-0.4142135623730916
  0
VERTEX
  5
2567
  8
SAPA_PROFIL
 10
274.91151580049637
 20
17.268950352472029
 30
0.0
  0
VERTEX
  5
2568
  8
SAPA_PROFIL
 10
280.31151580049652
 20
17.268950352472029
 30
0.0
 42
0.4142135623730882
  0
SEQEND
  5
2569
  8
SAPA_PROFIL
  0
POLYLINE
  5
1928
  8
SAPA_PROFIL
 66
     1
 10
0.0
 20
0.0
 30
0.0
 70
     1
  0
VERTEX
  5
256A
  8
SAPA_PROFIL
 10
270.76027127267122
 20
4.6266268813839613
 30
0.0
  0
VERTEX
  5
256B
  8
SAPA_PROFIL
 10
270.7497099064442
 20
4.3048691531657157
 30
0.0
  0
VERTEX
  5
256C
  8
SAPA_PROFIL
 10
272.63555359830531
 20
3.2203047061939758
 30
0.0
  0
VERTEX
  5
256D
  8
SAPA_PROFIL
 10
272.82693659829903
 20
3.1622310692048972
 30
0.0
 42
0.7625858545243294
  0
VERTEX
  5
256E
  8
SAPA_PROFIL
 10
273.01151580049651
 20
3.4925571502218888
 30
0.0
 42
-0.2134217652834381
  0
VERTEX
  5
256F
  8
SAPA_PROFIL
 10
272.91151580049637
 20
3.7161639479720252
 30
0.0
  0
VERTEX
  5
2570
  8
SAPA_PROFIL
 10
272.91151580049637
 20
7.5689503524719921
 30
0.0
 42
0.4142135623730951
  0
VERTEX
  5
2571
  8
SAPA_PROFIL
 10
272.61151580049642
 20
7.8689503524719457
 30
0.0
  0
VERTEX
  5
2572
  8
SAPA_PROFIL
 10
272.31151580049652
 20
7.8689503524719457
 30
0.0
  0
VERTEX
  5
2573
  8
SAPA_PROFIL
 10
270.71151580049928
 20
6.9451899217667172
 30
0.0
 42
-0.5773502691952483
  0
VERTEX
  5
2574
  8
SAPA_PROFIL
 10
270.41151580049637
 20
7.1183950025219547
 30
0.0
  0
VERTEX
  5
2575
  8
SAPA_PROFIL
 10
270.41151580050018
 20
8.5040356485819526
 30
0.0
 42
-0.2679491924305239
  0
VERTEX
  5
2576
  8
SAPA_PROFIL
 10
270.91151580049637
 20
9.3700610523619243
 30
0.0
  0
VERTEX
  5
2577
  8
SAPA_PROFIL
 10
272.66151580049637
 20
10.38042402345191
 30
0.0
 42
0.2679491924144411
  0
VERTEX
  5
2578
  8
SAPA_PROFIL
 10
272.91151580049637
 20
10.81343672531189
 30
0.0
  0
VERTEX
  5
2579
  8
SAPA_PROFIL
 10
272.91151580049637
 20
14.62446397963204
 30
0.0
 42
0.2679491924144411
  0
VERTEX
  5
257A
  8
SAPA_PROFIL
 10
272.66151580049637
 20
15.05747668149202
 30
0.0
  0
VERTEX
  5
257B
  8
SAPA_PROFIL
 10
270.9115158004945
 20
16.06783965257867
 30
0.0
 42
-0.2679491924305256
  0
VERTEX
  5
257C
  8
SAPA_PROFIL
 10
270.41151580049637
 20
16.933865056361999
 30
0.0
  0
VERTEX
  5
257D
  8
SAPA_PROFIL
 10
270.4115158005024
 20
18.319505702421981
 30
0.0
 42
-0.5773502691952338
  0
VERTEX
  5
257E
  8
SAPA_PROFIL
 10
270.71151580049627
 20
18.492710783171979
 30
0.0
  0
VERTEX
  5
257F
  8
SAPA_PROFIL
 10
272.31151580049652
 20
17.56895035247199
 30
0.0
  0
VERTEX
  5
2580
  8
SAPA_PROFIL
 10
272.61151580049642
 20
17.56895035247199
 30
0.0
 42
0.4142135623730916
  0
VERTEX
  5
2581
  8
SAPA_PROFIL
 10
272.91151580049637
 20
17.868950352471941
 30
0.0
  0
VERTEX
  5
2582
  8
SAPA_PROFIL
 10
272.91151580049637
 20
21.721736756971911
 30
0.0
 42
-0.2134217652834381
  0
VERTEX
  5
2583
  8
SAPA_PROFIL
 10
273.01151580049651
 20
21.945343554722019
 30
0.0
 42
0.7625858545243248
  0
VERTEX
  5
2584
  8
SAPA_PROFIL
 10
272.82693659829903
 20
22.275669635739039
 30
0.0
  0
VERTEX
  5
2585
  8
SAPA_PROFIL
 10
272.63555359830531
 20
22.21759599874995
 30
0.0
  0
VERTEX
  5
2586
  8
SAPA_PROFIL
 10
270.7497099064442
 20
21.13303155177821
 30
0.0
  0
VERTEX
  5
2587
  8
SAPA_PROFIL
 10
270.76027127267122
 20
20.811273823559951
 30
0.0
 42
-0.5773502691897449
  0
VERTEX
  5
2588
  8
SAPA_PROFIL
 10
270.46611497241639
 20
20.62832008344979
 30
0.0
  0
VERTEX
  5
2589
  8
SAPA_PROFIL
 10
270.1814326891847
 20
20.780453994558538
 30
0.0
 42
-0.221694662643019
  0
VERTEX
  5
258A
  8
SAPA_PROFIL
 10
269.7756237840299
 20
21.321333826035339
 30
0.0
  0
VERTEX
  5
258B
  8
SAPA_PROFIL
 10
269.3941771879023
 20
23.134564296693579
 30
0.0
 42
-0.476975532698164
  0
VERTEX
  5
258C
  8
SAPA_PROFIL
 10
269.69643001240871
 20
23.50622117163946
 30
0.0
  0
VERTEX
  5
258D
  8
SAPA_PROFIL
 10
271.19953109317072
 20
23.506137563755811
 30
0.0
  0
VERTEX
  5
258E
  8
SAPA_PROFIL
 10
271.21404950241782
 20
23.45829181375732
 30
0.0
 42
0.4142135623730948
  0
VERTEX
  5
258F
  8
SAPA_PROFIL
 10
271.58823445789358
 20
23.25832776924992
 30
0.0
  0
VERTEX
  5
2590
  8
SAPA_PROFIL
 10
272.90935141604558
 20
23.768950352472039
 30
0.0
  0
VERTEX
  5
2591
  8
SAPA_PROFIL
 10
274.71151580049639
 20
23.768950352472039
 30
0.0
 42
0.4142135623730951
  0
VERTEX
  5
2592
  8
SAPA_PROFIL
 10
275.21151580049639
 20
24.268950352472039
 30
0.0
  0
VERTEX
  5
2593
  8
SAPA_PROFIL
 10
275.2115158004965
 20
39.268950352472032
 30
0.0
 42
-0.4142135623730951
  0
VERTEX
  5
2594
  8
SAPA_PROFIL
 10
275.41151580049637
 20
39.46895035247185
 30
0.0
  0
VERTEX
  5
2595
  8
SAPA_PROFIL
 10
281.46151579971649
 20
39.468950352472078
 30
0.0
 42
-0.4142135623730951
  0
VERTEX
  5
2596
  8
SAPA_PROFIL
 10
281.6615157997166
 20
39.268950352472032
 30
0.0
  0
VERTEX
  5
2597
  8
SAPA_PROFIL
 10
281.6615157997166
 20
39.168950352471903
 30
0.0
 42
0.4142135623730898
  0
VERTEX
  5
2598
  8
SAPA_PROFIL
 10
281.86151579971659
 20
38.96895035247185
 30
0.0
  0
VERTEX
  5
2599
  8
SAPA_PROFIL
 10
283.39190055743649
 20
38.96895035247185
 30
0.0
  0
VERTEX
  5
259A
  8
SAPA_PROFIL
 10
283.9115157997166
 20
38.668950352471889
 30
0.0
  0
VERTEX
  5
259B
  8
SAPA_PROFIL
 10
284.43113104198648
 20
38.96895035247185
 30
0.0
  0
VERTEX
  5
259C
  8
SAPA_PROFIL
 10
285.96151579971649
 20
38.96895035247185
 30
0.0
 42
0.4142135623730977
  0
VERTEX
  5
259D
  8
SAPA_PROFIL
 10
286.1615157997166
 20
39.168950352471903
 30
0.0
  0
VERTEX
  5
259E
  8
SAPA_PROFIL
 10
286.16151579971682
 20
39.268950352472032
 30
0.0
 42
-0.4142135623730951
  0
VERTEX
  5
259F
  8
SAPA_PROFIL
 10
286.36151579971659
 20
39.46895035247185
 30
0.0
  0
VERTEX
  5
25A0
  8
SAPA_PROFIL
 10
293.21151579971649
 20
39.468950352472078
 30
0.0
 42
-0.4142135623730977
  0
VERTEX
  5
25A1
  8
SAPA_PROFIL
 10
293.41151579971648
 20
39.268950352472032
 30
0.0
  0
VERTEX
  5
25A2
  8
SAPA_PROFIL
 10
293.41151579971648
 20
39.168950352471903
 30
0.0
 42
0.4142135623730925
  0
VERTEX
  5
25A3
  8
SAPA_PROFIL
 10
293.61151579971659
 20
38.96895035247185
 30
0.0
  0
VERTEX
  5
25A4
  8
SAPA_PROFIL
 10
295.14190055744649
 20
38.96895035247185
 30
0.0
  0
VERTEX
  5
25A5
  8
SAPA_PROFIL
 10
295.66151579971648
 20
38.668950352471889
 30
0.0
  0
VERTEX
  5
25A6
  8
SAPA_PROFIL
 10
296.18113104198648
 20
38.96895035247185
 30
0.0
  0
VERTEX
  5
25A7
  8
SAPA_PROFIL
 10
297.71151579971649
 20
38.96895035247185
 30
0.0
 42
0.4142135623730951
  0
VERTEX
  5
25A8
  8
SAPA_PROFIL
 10
297.91151579971648
 20
39.168950352471903
 30
0.0
  0
VERTEX
  5
25A9
  8
SAPA_PROFIL
 10
297.91151579971671
 20
39.268950352472032
 30
0.0
 42
-0.4142135623730956
  0
VERTEX
  5
25AA
  8
SAPA_PROFIL
 10
298.11151579971659
 20
39.46895035247185
 30
0.0
  0
VERTEX
  5
25AB
  8
SAPA_PROFIL
 10
300.4115157997166
 20
39.46895035247185
 30
0.0
 42
0.4142135623730951
  0
VERTEX
  5
25AC
  8
SAPA_PROFIL
 10
300.9115157997166
 20
39.96895035247185
 30
0.0
  0
VERTEX
  5
25AD
  8
SAPA_PROFIL
 10
300.9115157997166
 20
42.768950352201912
 30
0.0
 42
0.4142135623789555
  0
VERTEX
  5
25AE
  8
SAPA_PROFIL
 10
300.41151579970648
 20
43.268950352201912
 30
0.0
  0
VERTEX
  5
25AF
  8
SAPA_PROFIL
 10
299.41151580488662
 20
43.268950352197592
 30
0.0
 42
-0.4241420668412967
  0
VERTEX
  5
25B0
  8
SAPA_PROFIL
 10
298.41208624947518
 20
44.302722586081849
 30
0.0
 42
-0.2988658713648185
  0
VERTEX
  5
25B1
  8
SAPA_PROFIL
 10
298.98294437624941
 20
45.240002723036
 30
0.0
 42
-0.5507604245835073
  0
VERTEX
  5
25B2
  8
SAPA_PROFIL
 10
299.41151580483648
 20
44.968950352191953
 30
0.0
  0
VERTEX
  5
25B3
  8
SAPA_PROFIL
 10
299.41151580485649
 20
44.668950352202003
 30
0.0
 42
0.4142135623730991
  0
VERTEX
  5
25B4
  8
SAPA_PROFIL
 10
299.61151580486631
 20
44.468950352211962
 30
0.0
  0
VERTEX
  5
25B5
  8
SAPA_PROFIL
 10
299.91151580498638
 20
44.468950352231971
 30
0.0
 42
0.4142135623552241
  0
VERTEX
  5
25B6
  8
SAPA_PROFIL
 10
301.71151580488652
 20
46.268950352221921
 30
0.0
  0
VERTEX
  5
25B7
  8
SAPA_PROFIL
 10
301.71151580488652
 20
46.968950352442057
 30
0.0
 42
0.4142135623616988
  0
VERTEX
  5
25B8
  8
SAPA_PROFIL
 10
299.91151580498638
 20
48.768950352442019
 30
0.0
  0
VERTEX
  5
25B9
  8
SAPA_PROFIL
 10
299.61151580486631
 20
48.768950352462028
 30
0.0
 42
0.4142135623730961
  0
VERTEX
  5
25BA
  8
SAPA_PROFIL
 10
299.41151580485649
 20
48.56895035247198
 30
0.0
  0
VERTEX
  5
25BB
  8
SAPA_PROFIL
 10
299.41151580483
 20
48.26895035248203
 30
0.0
 42
-0.5507604245782387
  0
VERTEX
  5
25BC
  8
SAPA_PROFIL
 10
298.98294437625532
 20
47.997897981639227
 30
0.0
 42
-0.2988658713672381
  0
VERTEX
  5
25BD
  8
SAPA_PROFIL
 10
298.4120862494803
 20
48.935178118602032
 30
0.0
 42
-0.4241420668383466
  0
VERTEX
  5
25BE
  8
SAPA_PROFIL
 10
299.41151580488662
 20
49.96895035247185
 30
0.0
  0
VERTEX
  5
25BF
  8
SAPA_PROFIL
 10
299.91151580489662
 20
49.968950352473158
 30
0.0
 42
-0.4142307599392823
  0
VERTEX
  5
25C0
  8
SAPA_PROFIL
 10
302.9115157997166
 20
46.968774205041839
 30
0.0
  0
VERTEX
  5
25C1
  8
SAPA_PROFIL
 10
302.9115157997166
 20
1.7689503524717161
 30
0.0
 42
-0.4142135623731129
  0
VERTEX
  5
25C2
  8
SAPA_PROFIL
 10
302.61151579971653
 20
1.468950352471718
 30
0.0
  0
VERTEX
  5
25C3
  8
SAPA_PROFIL
 10
300.9115157997166
 20
1.4689503524717471
 30
0.0
 42
-0.4142135623730951
  0
VERTEX
  5
25C4
  8
SAPA_PROFIL
 10
300.4115157997166
 20
1.968950352471748
 30
0.0
  0
VERTEX
  5
25C5
  8
SAPA_PROFIL
 10
300.4115157997166
 20
2.4689503524717482
 30
0.0
 42
0.4142135623730909
  0
VERTEX
  5
25C6
  8
SAPA_PROFIL
 10
299.91151579971648
 20
2.9689503524717482
 30
0.0
  0
VERTEX
  5
25C7
  8
SAPA_PROFIL
 10
295.41151580044641
 20
2.9689503524718339
 30
0.0
 42
0.4142135623730987
  0
VERTEX
  5
25C8
  8
SAPA_PROFIL
 10
294.91151580044641
 20
2.4689503524718339
 30
0.0
  0
VERTEX
  5
25C9
  8
SAPA_PROFIL
 10
294.91151580044641
 20
2.168950352471851
 30
0.0
 42
-0.4142135623731013
  0
VERTEX
  5
25CA
  8
SAPA_PROFIL
 10
294.41151580044641
 20
1.6689503524718521
 30
0.0
  0
VERTEX
  5
25CB
  8
SAPA_PROFIL
 10
291.89903146059629
 20
1.6689503524728899
 30
0.0
 42
-0.2596812337322467
  0
VERTEX
  5
25CC
  8
SAPA_PROFIL
 10
291.72900064905627
 20
1.7636435477219821
 30
0.0
  0
VERTEX
  5
25CD
  8
SAPA_PROFIL
 10
290.95646957999452
 20
3.0109901453471082
 30
0.0
 42
-0.5877032589214299
  0
VERTEX
  5
25CE
  8
SAPA_PROFIL
 10
291.2115157973065
 20
3.468950352471849
 30
0.0
  0
VERTEX
  5
25CF
  8
SAPA_PROFIL
 10
292.61151579729642
 20
3.468950352471849
 30
0.0
 42
0.414213562382866
  0
VERTEX
  5
25D0
  8
SAPA_PROFIL
 10
292.91151579729632
 20
3.7689503524720172
 30
0.0
  0
VERTEX
  5
25D1
  8
SAPA_PROFIL
 10
292.91151579730632
 20
6.168950352471894
 30
0.0
 42
0.4142135623828573
  0
VERTEX
  5
25D2
  8
SAPA_PROFIL
 10
292.61151579729642
 20
6.4689503524718486
 30
0.0
  0
VERTEX
  5
25D3
  8
SAPA_PROFIL
 10
275.2115157973065
 20
6.4689503524718539
 30
0.0
 42
0.4142135623730917
  0
VERTEX
  5
25D4
  8
SAPA_PROFIL
 10
274.91151579729632
 20
6.1689503524719003
 30
0.0
  0
VERTEX
  5
25D5
  8
SAPA_PROFIL
 10
274.91151579730632
 20
3.768950352472022
 30
0.0
 42
0.414213562373088
  0
VERTEX
  5
25D6
  8
SAPA_PROFIL
 10
275.2115157973065
 20
3.4689503524718539
 30
0.0
  0
VERTEX
  5
25D7
  8
SAPA_PROFIL
 10
276.61151579729642
 20
3.4689503524816172
 30
0.0
 42
-0.5877032589211888
  0
VERTEX
  5
25D8
  8
SAPA_PROFIL
 10
276.86656201461648
 20
3.010990145341967
 30
0.0
  0
VERTEX
  5
25D9
  8
SAPA_PROFIL
 10
276.09403094554727
 20
1.7636435477214609
 30
0.0
 42
-0.2596812337322492
  0
VERTEX
  5
25DA
  8
SAPA_PROFIL
 10
275.92400013400641
 20
1.6689503524718989
 30
0.0
  0
VERTEX
  5
25DB
  8
SAPA_PROFIL
 10
272.90935141604558
 20
1.6689503524719
 30
0.0
  0
VERTEX
  5
25DC
  8
SAPA_PROFIL
 10
271.58823445789358
 20
2.1795729356940021
 30
0.0
 42
0.4142135623730948
  0
VERTEX
  5
25DD
  8
SAPA_PROFIL
 10
271.21404950241782
 20
1.9796088911866061
 30
0.0
  0
VERTEX
  5
25DE
  8
SAPA_PROFIL
 10
271.19953109317072
 20
1.9317631411881191
 30
0.0
  0
VERTEX
  5
25DF
  8
SAPA_PROFIL
 10
269.69643001240871
 20
1.9316795333044801
 30
0.0
 42
-0.4769755326981641
  0
VERTEX
  5
25E0
  8
SAPA_PROFIL
 10
269.3941771879023
 20
2.3033364082503369
 30
0.0
  0
VERTEX
  5
25E1
  8
SAPA_PROFIL
 10
269.7756237840299
 20
4.1165668789085901
 30
0.0
 42
-0.2216946626430198
  0
VERTEX
  5
25E2
  8
SAPA_PROFIL
 10
270.1814326891847
 20
4.6574467103853774
 30
0.0
  0
VERTEX
  5
25E3
  8
SAPA_PROFIL
 10
270.46611497241639
 20
4.8095806214941543
 30
0.0
 42
-0.5773502691897449
  0
SEQEND
  5
25E4
  8
SAPA_PROFIL
  0
POLYLINE
  5
1929
  8
SAPA_PROFIL
 66
     1
 10
0.0
 20
0.0
 30
0.0
 70
     1
  0
VERTEX
  5
25E5
  8
SAPA_PROFIL
 10
227.97609041933049
 20
23.768950565612109
 30
0.0
  0
VERTEX
  5
25E6
  8
SAPA_PROFIL
 10
231.44694066939641
 20
23.768950565612109
 30
0.0
 42
-0.2562806632247012
  0
VERTEX
  5
25E7
  8
SAPA_PROFIL
 10
231.69995165813901
 20
23.630150564295501
 30
0.0
  0
VERTEX
  5
25E8
  8
SAPA_PROFIL
 10
232.4645223241713
 20
22.430157572215201
 30
0.0
 42
-0.5920102940260154
  0
VERTEX
  5
25E9
  8
SAPA_PROFIL
 10
232.21151580049639
 20
21.968950565612101
 30
0.0
  0
VERTEX
  5
25EA
  8
SAPA_PROFIL
 10
230.9115158004964
 20
21.968950565612101
 30
0.0
 42
0.4142135623730811
  0
VERTEX
  5
25EB
  8
SAPA_PROFIL
 10
230.61151580049639
 20
21.668950565612089
 30
0.0
  0
VERTEX
  5
25EC
  8
SAPA_PROFIL
 10
230.61151580049639
 20
19.268950565612109
 30
0.0
 42
0.4142135623730813
  0
VERTEX
  5
25ED
  8
SAPA_PROFIL
 10
230.9115158004964
 20
18.968950565612101
 30
0.0
  0
VERTEX
  5
25EE
  8
SAPA_PROFIL
 10
236.61151580049639
 20
18.96895056561209
 30
0.0
 42
0.4142135623730951
  0
VERTEX
  5
25EF
  8
SAPA_PROFIL
 10
236.9115158004964
 20
19.268950565612109
 30
0.0
  0
VERTEX
  5
25F0
  8
SAPA_PROFIL
 10
236.9115158004964
 20
22.268950565612109
 30
0.0
 42
0.4142135623730951
  0
VERTEX
  5
25F1
  8
SAPA_PROFIL
 10
236.61151580049639
 20
22.56895056561212
 30
0.0
  0
VERTEX
  5
25F2
  8
SAPA_PROFIL
 10
236.21151580049639
 20
22.56895056561212
 30
0.0
 42
-0.5862224898308311
  0
VERTEX
  5
25F3
  8
SAPA_PROFIL
 10
235.9557761936307
 20
23.025785681195948
 30
0.0
  0
VERTEX
  5
25F4
  8
SAPA_PROFIL
 10
236.32371893237999
 20
23.625782080085301
 30
0.0
 42
-0.2608609301244445
  0
VERTEX
  5
25F5
  8
SAPA_PROFIL
 10
236.57946074763129
 20
23.768950565612109
 30
0.0
  0
VERTEX
  5
25F6
  8
SAPA_PROFIL
 10
238.91368172566459
 20
23.768950565612109
 30
0.0
  0
VERTEX
  5
25F7
  8
SAPA_PROFIL
 10
240.2347971430992
 20
23.25832857788993
 30
0.0
 42
0.4142135623730951
  0
VERTEX
  5
25F8
  8
SAPA_PROFIL
 10
240.60898209857501
 20
23.45829262239733
 30
0.0
  0
VERTEX
  5
25F9
  8
SAPA_PROFIL
 10
240.63982945395529
 20
23.570524813011719
 30
0.0
  0
VERTEX
  5
25FA
  8
SAPA_PROFIL
 10
242.1489096823708
 20
23.65215946233587
 30
0.0
 42
-0.4940128371111638
  0
VERTEX
  5
25FB
  8
SAPA_PROFIL
 10
242.45848973959681
 20
23.289899176918489
 30
0.0
  0
VERTEX
  5
25FC
  8
SAPA_PROFIL
 10
242.04740781696279
 20
21.321334634675349
 30
0.0
 42
-0.2216946626430206
  0
VERTEX
  5
25FD
  8
SAPA_PROFIL
 10
241.64159891180799
 20
20.780454803198559
 30
0.0
  0
VERTEX
  5
25FE
  8
SAPA_PROFIL
 10
241.35691662857641
 20
20.628320892089789
 30
0.0
 42
-0.5773502691897697
  0
VERTEX
  5
25FF
  8
SAPA_PROFIL
 10
241.06276032832159
 20
20.811274632199972
 30
0.0
  0
VERTEX
  5
2600
  8
SAPA_PROFIL
 10
241.07332169454861
 20
21.13303236041822
 30
0.0
  0
VERTEX
  5
2601
  8
SAPA_PROFIL
 10
239.1874780026875
 20
22.21759680738996
 30
0.0
  0
VERTEX
  5
2602
  8
SAPA_PROFIL
 10
238.99609500269381
 20
22.275670444379081
 30
0.0
 42
0.7625858545242855
  0
VERTEX
  5
2603
  8
SAPA_PROFIL
 10
238.81151580049621
 20
21.945344363362079
 30
0.0
 42
-0.2134217652834255
  0
VERTEX
  5
2604
  8
SAPA_PROFIL
 10
238.9115158004964
 20
21.721737565611939
 30
0.0
  0
VERTEX
  5
2605
  8
SAPA_PROFIL
 10
238.9115158004964
 20
21.721736767935688
 30
0.0
  0
VERTEX
  5
2606
  8
SAPA_PROFIL
 10
238.9115158004964
 20
17.8689503415121
 30
0.0
 42
0.4142135623730813
  0
VERTEX
  5
2607
  8
SAPA_PROFIL
 10
239.21151557639641
 20
17.56895056561212
 30
0.0
  0
VERTEX
  5
2608
  8
SAPA_PROFIL
 10
239.50265956472231
 20
17.56895056561212
 30
0.0
  0
VERTEX
  5
2609
  8
SAPA_PROFIL
 10
241.11202480049641
 20
18.491824565612099
 30
0.0
 42
-0.5763720000354632
  0
VERTEX
  5
260A
  8
SAPA_PROFIL
 10
241.4115158004989
 20
18.3183265656121
 30
0.0
  0
VERTEX
  5
260B
  8
SAPA_PROFIL
 10
241.4115158004964
 20
16.933865626612061
 30
0.0
 42
-0.2679492465330345
  0
VERTEX
  5
260C
  8
SAPA_PROFIL
 10
240.9115150564937
 20
16.067839136062108
 30
0.0
  0
VERTEX
  5
260D
  8
SAPA_PROFIL
 10
238.4115156256363
 20
14.62446446471939
 30
0.0
 42
-0.5773502018859325
  0
VERTEX
  5
260E
  8
SAPA_PROFIL
 10
236.9115158004964
 20
15.49048996945934
 30
0.0
  0
VERTEX
  5
260F
  8
SAPA_PROFIL
 10
236.91151580049649
 20
15.968950565612079
 30
0.0
 42
0.4142135623731117
  0
VERTEX
  5
2610
  8
SAPA_PROFIL
 10
236.4115158004964
 20
16.46895056561209
 30
0.0
  0
VERTEX
  5
2611
  8
SAPA_PROFIL
 10
232.41151580049689
 20
16.468950565612101
 30
0.0
 42
0.4142135623730667
  0
VERTEX
  5
2612
  8
SAPA_PROFIL
 10
230.91151580049689
 20
14.96895056561211
 30
0.0
  0
VERTEX
  5
2613
  8
SAPA_PROFIL
 10
230.91151580049689
 20
10.813436565611999
 30
0.0
 42
0.2679489999997879
  0
VERTEX
  5
2614
  8
SAPA_PROFIL
 10
231.16151580049689
 20
10.38042356561216
 30
0.0
  0
VERTEX
  5
2615
  8
SAPA_PROFIL
 10
232.91151580049689
 20
9.3700615656122004
 30
0.0
 42
-0.2679490000000182
  0
VERTEX
  5
2616
  8
SAPA_PROFIL
 10
233.41151580049689
 20
8.5040355656119964
 30
0.0
  0
VERTEX
  5
2617
  8
SAPA_PROFIL
 10
233.4115158004964
 20
7.1195745656121217
 30
0.0
 42
-0.5763720000355433
  0
VERTEX
  5
2618
  8
SAPA_PROFIL
 10
233.11202480049761
 20
6.9460765656142591
 30
0.0
  0
VERTEX
  5
2619
  8
SAPA_PROFIL
 10
232.81006980049639
 20
7.1192295656121116
 30
0.0
  0
VERTEX
  5
261A
  8
SAPA_PROFIL
 10
231.5115158004964
 20
7.8689505656121339
 30
0.0
  0
VERTEX
  5
261B
  8
SAPA_PROFIL
 10
231.21151580049639
 20
7.8689505656121339
 30
0.0
 42
0.4142139999559567
  0
VERTEX
  5
261C
  8
SAPA_PROFIL
 10
230.9115158004964
 20
7.5689505656121234
 30
0.0
  0
VERTEX
  5
261D
  8
SAPA_PROFIL
 10
230.91151580049649
 20
3.7161635656122018
 30
0.0
  0
VERTEX
  5
261E
  8
SAPA_PROFIL
 10
230.91151580049649
 20
3.7161638297924169
 30
0.0
 42
-0.2134217652834347
  0
VERTEX
  5
261F
  8
SAPA_PROFIL
 10
230.81151580049641
 20
3.4925570320423089
 30
0.0
 42
0.7625858545244203
  0
VERTEX
  5
2620
  8
SAPA_PROFIL
 10
230.99609500269389
 20
3.1622309510252751
 30
0.0
  0
VERTEX
  5
2621
  8
SAPA_PROFIL
 10
231.18747800268761
 20
3.2203045880143679
 30
0.0
  0
VERTEX
  5
2622
  8
SAPA_PROFIL
 10
233.07332169454861
 20
4.3048690349861083
 30
0.0
  0
VERTEX
  5
2623
  8
SAPA_PROFIL
 10
233.0627603283217
 20
4.6266267632044089
 30
0.0
 42
-0.5773502691896965
  0
VERTEX
  5
2624
  8
SAPA_PROFIL
 10
233.3569166285765
 20
4.8095805033145309
 30
0.0
  0
VERTEX
  5
2625
  8
SAPA_PROFIL
 10
233.6415989118081
 20
4.657446592205825
 30
0.0
 42
-0.2216946626430113
  0
VERTEX
  5
2626
  8
SAPA_PROFIL
 10
234.0474078169629
 20
4.1165667607289818
 30
0.0
  0
VERTEX
  5
2627
  8
SAPA_PROFIL
 10
234.4584897395969
 20
2.1480022184858392
 30
0.0
 42
-0.4940128371111879
  0
VERTEX
  5
2628
  8
SAPA_PROFIL
 10
234.148909682371
 20
1.785741933068461
 30
0.0
  0
VERTEX
  5
2629
  8
SAPA_PROFIL
 10
232.63982945395551
 20
1.867376582392605
 30
0.0
  0
VERTEX
  5
262A
  8
SAPA_PROFIL
 10
232.6089820985751
 20
1.9796087730069969
 30
0.0
 42
0.4142135623730951
  0
VERTEX
  5
262B
  8
SAPA_PROFIL
 10
232.23479714309931
 20
2.1795728175143938
 30
0.0
  0
VERTEX
  5
262C
  8
SAPA_PROFIL
 10
230.91368104216019
 20
1.6689505656120891
 30
0.0
  0
VERTEX
  5
262D
  8
SAPA_PROFIL
 10
227.9760904193964
 20
1.6689505656121171
 30
0.0
 42
-0.2562769737328989
  0
VERTEX
  5
262E
  8
SAPA_PROFIL
 10
227.72308166299641
 20
1.8077470631120709
 30
0.0
  0
VERTEX
  5
262F
  8
SAPA_PROFIL
 10
226.9585065318964
 20
3.0077470631120882
 30
0.0
 42
-0.5920056180423133
  0
VERTEX
  5
2630
  8
SAPA_PROFIL
 10
227.2115152882964
 20
3.4689505656120998
 30
0.0
  0
VERTEX
  5
2631
  8
SAPA_PROFIL
 10
228.61151580049639
 20
3.4689505656120998
 30
0.0
 42
0.4142139999559564
  0
VERTEX
  5
2632
  8
SAPA_PROFIL
 10
228.9115158004964
 20
3.7689505656121121
 30
0.0
  0
VERTEX
  5
2633
  8
SAPA_PROFIL
 10
228.9115158004964
 20
6.1689505656120893
 30
0.0
 42
0.4142139999559704
  0
VERTEX
  5
2634
  8
SAPA_PROFIL
 10
228.61151580049639
 20
6.4689505656120998
 30
0.0
  0
VERTEX
  5
2635
  8
SAPA_PROFIL
 10
211.21151580049639
 20
6.4689505656120749
 30
0.0
 42
0.4142135623730883
  0
VERTEX
  5
2636
  8
SAPA_PROFIL
 10
210.9115158004964
 20
6.168950565612092
 30
0.0
  0
VERTEX
  5
2637
  8
SAPA_PROFIL
 10
210.9115158004964
 20
3.7689505656121152
 30
0.0
 42
0.414213562373088
  0
VERTEX
  5
2638
  8
SAPA_PROFIL
 10
211.21151580049639
 20
3.4689505656121038
 30
0.0
  0
VERTEX
  5
2639
  8
SAPA_PROFIL
 10
212.61151553429639
 20
3.4689505656121038
 30
0.0
 42
-0.5877032589045511
  0
VERTEX
  5
263A
  8
SAPA_PROFIL
 10
212.86656175159641
 20
3.0109903585120739
 30
0.0
  0
VERTEX
  5
263B
  8
SAPA_PROFIL
 10
211.99948639437989
 20
1.610990358485523
 30
0.0
 42
-0.2596812337312886
  0
VERTEX
  5
263C
  8
SAPA_PROFIL
 10
211.74444017706921
 20
1.468950565612104
 30
0.0
  0
VERTEX
  5
263D
  8
SAPA_PROFIL
 10
210.9995990068085
 20
1.4689505656120749
 30
0.0
 42
0.4023941304326261
  0
VERTEX
  5
263E
  8
SAPA_PROFIL
 10
210.6998452781954
 20
1.1811038442883299
 30
0.0
  0
VERTEX
  5
263F
  8
SAPA_PROFIL
 10
210.1130465151964
 20
-13.29195497718792
 30
0.0
 42
0.4373282586143569
  0
VERTEX
  5
2640
  8
SAPA_PROFIL
 10
210.61151579549639
 20
-13.831049434487889
 30
0.0
  0
VERTEX
  5
2641
  8
SAPA_PROFIL
 10
211.44034688328441
 20
-13.83104943448792
 30
0.0
 42
0.3639702342826228
  0
VERTEX
  5
2642
  8
SAPA_PROFIL
 10
211.93275075979551
 20
-13.41787352329281
 30
0.0
  0
VERTEX
  5
2643
  8
SAPA_PROFIL
 10
212.1396965992964
 20
-12.244225345687889
 30
0.0
 42
-0.8390996312316115
  0
VERTEX
  5
2644
  8
SAPA_PROFIL
 10
213.12450435229641
 20
-12.244225345687919
 30
0.0
  0
VERTEX
  5
2645
  8
SAPA_PROFIL
 10
213.4013505232964
 20
-13.81429800168787
 30
0.0
 42
-0.0436609428925334
  0
VERTEX
  5
2646
  8
SAPA_PROFIL
 10
213.40894664678461
 20
-13.901122090487871
 30
0.0
  0
VERTEX
  5
2647
  8
SAPA_PROFIL
 10
213.40894664679641
 20
-14.8985939025879
 30
0.0
 42
-0.2896898633456297
  0
VERTEX
  5
2648
  8
SAPA_PROFIL
 10
212.83751807522501
 20
-15.80210180556089
 30
0.0
 42
-0.5507604245347145
  0
VERTEX
  5
2649
  8
SAPA_PROFIL
 10
212.40894664669639
 20
-15.531049434668979
 30
0.0
  0
VERTEX
  5
264A
  8
SAPA_PROFIL
 10
212.40894664669639
 20
-15.33104943458788
 30
0.0
 42
0.4142135623730951
  0
VERTEX
  5
264B
  8
SAPA_PROFIL
 10
212.10894664669641
 20
-15.031049434587869
 30
0.0
  0
VERTEX
  5
264C
  8
SAPA_PROFIL
 10
210.61151579549639
 20
-15.031049434587869
 30
0.0
 42
0.4142135623730951
  0
VERTEX
  5
264D
  8
SAPA_PROFIL
 10
210.11151579549639
 20
-15.531049434587869
 30
0.0
  0
VERTEX
  5
264E
  8
SAPA_PROFIL
 10
210.11151579549639
 20
-18.831049434587879
 30
0.0
 42
0.4142135623730951
  0
VERTEX
  5
264F
  8
SAPA_PROFIL
 10
210.61151579549639
 20
-19.331049434587879
 30
0.0
  0
VERTEX
  5
2650
  8
SAPA_PROFIL
 10
212.10894664649641
 20
-19.331049434587879
 30
0.0
 42
0.414213562373088
  0
VERTEX
  5
2651
  8
SAPA_PROFIL
 10
212.40894664649639
 20
-19.031049434587871
 30
0.0
  0
VERTEX
  5
2652
  8
SAPA_PROFIL
 10
212.40894664649639
 20
-18.831049434587911
 30
0.0
 42
-0.5507604245929426
  0
VERTEX
  5
2653
  8
SAPA_PROFIL
 10
212.83751807509199
 20
-18.559997063679798
 30
0.0
 42
-0.2896898632971971
  0
VERTEX
  5
2654
  8
SAPA_PROFIL
 10
213.40894664650929
 20
-19.46350496658787
 30
0.0
  0
VERTEX
  5
2655
  8
SAPA_PROFIL
 10
213.40894664649639
 20
-20.231049434687851
 30
0.0
 42
-0.4142135620802244
  0
VERTEX
  5
2656
  8
SAPA_PROFIL
 10
213.10894664649641
 20
-20.531049434387899
 30
0.0
  0
VERTEX
  5
2657
  8
SAPA_PROFIL
 10
209.4115158004964
 20
-20.531049434387899
 30
0.0
 42
-0.4142135623730951
  0
VERTEX
  5
2658
  8
SAPA_PROFIL
 10
208.9115158004964
 20
-20.031049434387899
 30
0.0
  0
VERTEX
  5
2659
  8
SAPA_PROFIL
 10
208.9115158004964
 20
23.668950565612089
 30
0.0
 42
-0.4142135623731227
  0
VERTEX
  5
265A
  8
SAPA_PROFIL
 10
209.21151580049639
 20
23.968950565612111
 30
0.0
  0
VERTEX
  5
265B
  8
SAPA_PROFIL
 10
211.74444017706921
 20
23.968950565612111
 30
0.0
 42
-0.2596812337312977
  0
VERTEX
  5
265C
  8
SAPA_PROFIL
 10
211.99948639437989
 20
23.826910772738721
 30
0.0
  0
VERTEX
  5
265D
  8
SAPA_PROFIL
 10
212.86656175157989
 20
22.426910772738712
 30
0.0
 42
-0.5877032589235304
  0
VERTEX
  5
265E
  8
SAPA_PROFIL
 10
212.61151553426919
 20
21.968950565612129
 30
0.0
  0
VERTEX
  5
265F
  8
SAPA_PROFIL
 10
211.21151580049639
 20
21.968950565612079
 30
0.0
 42
0.4142135623730744
  0
VERTEX
  5
2660
  8
SAPA_PROFIL
 10
210.9115158004964
 20
21.668950565612089
 30
0.0
  0
VERTEX
  5
2661
  8
SAPA_PROFIL
 10
210.9115158004964
 20
19.268950565612109
 30
0.0
 42
0.4142135623730813
  0
VERTEX
  5
2662
  8
SAPA_PROFIL
 10
211.21151580049639
 20
18.968950565612101
 30
0.0
  0
VERTEX
  5
2663
  8
SAPA_PROFIL
 10
228.61151580049639
 20
18.968950565612101
 30
0.0
 42
0.4142135623730951
  0
VERTEX
  5
2664
  8
SAPA_PROFIL
 10
228.9115158004964
 20
19.268950565612109
 30
0.0
  0
VERTEX
  5
2665
  8
SAPA_PROFIL
 10
228.9115158004964
 20
21.668950565612089
 30
0.0
 42
0.4142135623730951
  0
VERTEX
  5
2666
  8
SAPA_PROFIL
 10
228.61151580049639
 20
21.968950565612101
 30
0.0
  0
VERTEX
  5
2667
  8
SAPA_PROFIL
 10
227.21151528823049
 20
21.968950565612101
 30
0.0
 42
-0.5920056181166487
  0
VERTEX
  5
2668
  8
SAPA_PROFIL
 10
226.9585065319128
 20
22.430154068137949
 30
0.0
  0
VERTEX
  5
2669
  8
SAPA_PROFIL
 10
227.72308166301289
 20
23.630154068137941
 30
0.0
 42
-0.2562769736742707
  0
SEQEND
  5
266A
  8
SAPA_PROFIL
  0
POLYLINE
  5
192A
  8
SAPA_PROFIL
 66
     1
 10
0.0
 20
0.0
 30
0.0
 70
     1
  0
VERTEX
  5
266B
  8
SAPA_PROFIL
 10
210.61151580049651
 20
11.46895056561215
 30
0.0
  0
VERTEX
  5
266C
  8
SAPA_PROFIL
 10
210.61151580049639
 20
8.4689505656121185
 30
0.0
 42
0.414213562373088
  0
VERTEX
  5
266D
  8
SAPA_PROFIL
 10
210.9115158004964
 20
8.1689505656121071
 30
0.0
  0
VERTEX
  5
266E
  8
SAPA_PROFIL
 10
228.9115158004964
 20
8.1689505656121035
 30
0.0
 42
0.4142135623730812
  0
VERTEX
  5
266F
  8
SAPA_PROFIL
 10
229.21151580049639
 20
8.4689505656121131
 30
0.0
  0
VERTEX
  5
2670
  8
SAPA_PROFIL
 10
229.21151580049639
 20
11.46895056561214
 30
0.0
 42
0.4142135623730951
  0
VERTEX
  5
2671
  8
SAPA_PROFIL
 10
228.96151580049639
 20
11.71895056561214
 30
0.0
  0
VERTEX
  5
2672
  8
SAPA_PROFIL
 10
228.9115158004964
 20
11.71895056561214
 30
0.0
 42
-0.4142135623730813
  0
VERTEX
  5
2673
  8
SAPA_PROFIL
 10
228.61151580049639
 20
12.018950565612149
 30
0.0
  0
VERTEX
  5
2674
  8
SAPA_PROFIL
 10
228.61151580049639
 20
13.41895056561213
 30
0.0
 42
-0.4142135623730811
  0
VERTEX
  5
2675
  8
SAPA_PROFIL
 10
228.9115158004964
 20
13.71895056561214
 30
0.0
  0
VERTEX
  5
2676
  8
SAPA_PROFIL
 10
228.96151580049639
 20
13.71895056561214
 30
0.0
 42
0.4142135623730951
  0
VERTEX
  5
2677
  8
SAPA_PROFIL
 10
229.21151580049639
 20
13.96895056561214
 30
0.0
  0
VERTEX
  5
2678
  8
SAPA_PROFIL
 10
229.21151580049639
 20
16.968950565612111
 30
0.0
 42
0.4142135623730811
  0
VERTEX
  5
2679
  8
SAPA_PROFIL
 10
228.9115158004964
 20
17.268950565612119
 30
0.0
  0
VERTEX
  5
267A
  8
SAPA_PROFIL
 10
210.9115158004964
 20
17.26895056561213
 30
0.0
 42
0.4142135623730882
  0
VERTEX
  5
267B
  8
SAPA_PROFIL
 10
210.61151580049639
 20
16.968950565612118
 30
0.0
  0
VERTEX
  5
267C
  8
SAPA_PROFIL
 10
210.61151580049651
 20
13.96895056561215
 30
0.0
 42
0.4142135623730951
  0
VERTEX
  5
267D
  8
SAPA_PROFIL
 10
210.86151580049651
 20
13.71895056561214
 30
0.0
  0
VERTEX
  5
267E
  8
SAPA_PROFIL
 10
210.9115158004964
 20
13.71895056561214
 30
0.0
 42
-0.4142135623730783
  0
VERTEX
  5
267F
  8
SAPA_PROFIL
 10
211.21151580049639
 20
13.41895056561213
 30
0.0
  0
VERTEX
  5
2680
  8
SAPA_PROFIL
 10
211.21151580049639
 20
12.01895056561216
 30
0.0
 42
-0.4142135623730785
  0
VERTEX
  5
2681
  8
SAPA_PROFIL
 10
210.9115158004964
 20
11.71895056561214
 30
0.0
  0
VERTEX
  5
2682
  8
SAPA_PROFIL
 10
210.86151580049651
 20
11.71895056561214
 30
0.0
 42
0.4142135623730951
  0
SEQEND
  5
2683
  8
SAPA_PROFIL
  0
POLYLINE
  5
192B
  8
SAPA_PROFIL
 62
     4
 66
     1
 10
0.0
 20
0.0
 30
0.0
 70
     1
  0
VERTEX
  5
2684
  8
SAPA_PROFIL
 62
     4
 10
268.51148085928429
 20
18.795226673116961
 30
0.0
  0
VERTEX
  5
2685
  8
SAPA_PROFIL
 62
     4
 10
269.92395136580052
 20
18.79522667311695
 30
0.0
 42
-0.131652497586976
  0
VERTEX
  5
2686
  8
SAPA_PROFIL
 62
     4
 10
270.52395136579457
 20
18.634457157658279
 30
0.0
  0
VERTEX
  5
2687
  8
SAPA_PROFIL
 62
     4
 10
272.15074628503771
 20
17.695226673116949
 30
0.0
  0
VERTEX
  5
2688
  8
SAPA_PROFIL
 62
     4
 10
272.51151580049049
 20
17.695226673116949
 30
0.0
 42
0.4142135623774056
  0
VERTEX
  5
2689
  8
SAPA_PROFIL
 62
     4
 10
272.91151580049637
 20
18.095226673116951
 30
0.0
  0
VERTEX
  5
268A
  8
SAPA_PROFIL
 62
     4
 10
272.91151580049637
 20
21.495460436326891
 30
0.0
 42
0.4140423535610515
  0
VERTEX
  5
268B
  8
SAPA_PROFIL
 62
     4
 10
272.51174963201481
 20
21.895460367980409
 30
0.0
  0
VERTEX
  5
268C
  8
SAPA_PROFIL
 62
     4
 10
272.20516828969397
 20
21.895639588961529
 30
0.0
 42
0.1318011781904093
  0
VERTEX
  5
268D
  8
SAPA_PROFIL
 62
     4
 10
272.10505137393687
 20
21.868844703892311
 30
0.0
  0
VERTEX
  5
268E
  8
SAPA_PROFIL
 62
     4
 10
271.11151580049642
 20
21.295226673116961
 30
0.0
  0
VERTEX
  5
268F
  8
SAPA_PROFIL
 62
     4
 10
270.78081659497923
 20
21.104297397790809
 30
0.0
  0
VERTEX
  5
2690
  8
SAPA_PROFIL
 62
     4
 10
270.780816594979
 20
20.779370050361099
 30
0.0
 42
-0.5773502691891608
  0
VERTEX
  5
2691
  8
SAPA_PROFIL
 62
     4
 10
270.4658165949794
 20
20.597504715566529
 30
0.0
  0
VERTEX
  5
2692
  8
SAPA_PROFIL
 62
     4
 10
270.12335211873028
 20
20.79522667311695
 30
0.0
  0
VERTEX
  5
2693
  8
SAPA_PROFIL
 62
     4
 10
269.95195339314472
 20
20.795226673116961
 30
0.0
 42
-0.3160287592665776
  0
VERTEX
  5
2694
  8
SAPA_PROFIL
 62
     4
 10
269.76383389866101
 20
20.927321917796039
 30
0.0
  0
VERTEX
  5
2695
  8
SAPA_PROFIL
 62
     4
 10
268.83623703931772
 20
23.497083806101401
 30
0.0
 42
0.316028759266576
  0
VERTEX
  5
2696
  8
SAPA_PROFIL
 62
     4
 10
268.55405779759479
 20
23.695226673116949
 30
0.0
  0
VERTEX
  5
2697
  8
SAPA_PROFIL
 62
     4
 10
243.2694114714283
 20
23.695226673116959
 30
0.0
 42
0.3165658232699168
  0
VERTEX
  5
2698
  8
SAPA_PROFIL
 62
     4
 10
242.9870338529586
 20
23.496532549488538
 30
0.0
  0
VERTEX
  5
2699
  8
SAPA_PROFIL
 62
     4
 10
242.06543494694799
 20
20.927689422204221
 30
0.0
 42
-0.3165658232699177
  0
VERTEX
  5
269A
  8
SAPA_PROFIL
 62
     4
 10
241.8771832012981
 20
20.795226673116961
 30
0.0
  0
VERTEX
  5
269B
  8
SAPA_PROFIL
 62
     4
 10
241.70011715029119
 20
20.795226673116961
 30
0.0
  0
VERTEX
  5
269C
  8
SAPA_PROFIL
 62
     4
 10
241.3576526740421
 20
20.59750471556654
 30
0.0
 42
-0.5773502691891606
  0
VERTEX
  5
269D
  8
SAPA_PROFIL
 62
     4
 10
241.0426526740425
 20
20.779370050361099
 30
0.0
  0
VERTEX
  5
269E
  8
SAPA_PROFIL
 62
     4
 10
241.0426526740423
 20
21.104044710036629
 30
0.0
  0
VERTEX
  5
269F
  8
SAPA_PROFIL
 62
     4
 10
239.71798022705761
 20
21.868844703891341
 30
0.0
 42
0.1318011781904023
  0
VERTEX
  5
26A0
  8
SAPA_PROFIL
 62
     4
 10
239.61786331129881
 20
21.89563958896154
 30
0.0
  0
VERTEX
  5
26A1
  8
SAPA_PROFIL
 62
     4
 10
239.31128196898189
 20
21.895460367980419
 30
0.0
 42
0.4140423535610308
  0
VERTEX
  5
26A2
  8
SAPA_PROFIL
 62
     4
 10
238.9115158004964
 20
21.495460436326901
 30
0.0
  0
VERTEX
  5
26A3
  8
SAPA_PROFIL
 62
     4
 10
238.9115158004964
 20
18.09522667312088
 30
0.0
 42
0.4142135623716591
  0
VERTEX
  5
26A4
  8
SAPA_PROFIL
 62
     4
 10
239.31151580049641
 20
17.695226673116959
 30
0.0
  0
VERTEX
  5
26A5
  8
SAPA_PROFIL
 62
     4
 10
239.61869547746591
 20
17.69522667311697
 30
0.0
 42
0.1316524975869762
  0
VERTEX
  5
26A6
  8
SAPA_PROFIL
 62
     4
 10
239.7186954774688
 20
17.722021592360068
 30
0.0
  0
VERTEX
  5
26A7
  8
SAPA_PROFIL
 62
     4
 10
241.29908023520491
 20
18.634457157662201
 30
0.0
 42
-0.1316524975869854
  0
VERTEX
  5
26A8
  8
SAPA_PROFIL
 62
     4
 10
241.8990802351982
 20
18.795226673116961
 30
0.0
  0
VERTEX
  5
26A9
  8
SAPA_PROFIL
 62
     4
 10
243.32099434338869
 20
18.795226673116961
 30
0.0
 42
0.3157785644731398
  0
VERTEX
  5
26AA
  8
SAPA_PROFIL
 62
     4
 10
243.60308078149629
 20
18.993112808053048
 30
0.0
  0
VERTEX
  5
26AB
  8
SAPA_PROFIL
 62
     4
 10
244.4972769969323
 20
21.46330258316123
 30
0.0
 42
-0.3157785644731169
  0
VERTEX
  5
26AC
  8
SAPA_PROFIL
 62
     4
 10
244.68533462233381
 20
21.595226673116979
 30
0.0
  0
VERTEX
  5
26AD
  8
SAPA_PROFIL
 62
     4
 10
267.14968187111168
 20
21.595226673116969
 30
0.0
 42
-0.3160287592666924
  0
VERTEX
  5
26AE
  8
SAPA_PROFIL
 62
     4
 10
267.3378013655938
 20
21.463131428439858
 30
0.0
  0
VERTEX
  5
26AF
  8
SAPA_PROFIL
 62
     4
 10
268.22930161755869
 20
18.993369540135681
 30
0.0
 42
0.3160287592666751
  0
SEQEND
  5
26B0
  8
SAPA_PROFIL
 62
     4
  0
POLYLINE
  5
192C
  8
SAPA_PROFIL
 62
     4
 66
     1
 10
0.0
 20
0.0
 30
0.0
  0
VERTEX
  5
26B1
  8
SAPA_PROFIL
 62
     4
 10
242.86218667805881
 20
4.3745218143337956
 30
0.0
 42
-0.5571646428658034
  0
VERTEX
  5
26B2
  8
SAPA_PROFIL
 62
     4
 10
243.39914718219561
 20
5.242240728489346
 30
0.0
  0
VERTEX
  5
26B3
  8
SAPA_PROFIL
 62
     4
 10
260.42388441871691
 20
5.2422407284888841
 30
0.0
 42
-0.5571645048035741
  0
VERTEX
  5
26B4
  8
SAPA_PROFIL
 62
     4
 10
260.96084503567789
 20
4.3745220406227157
 30
0.0
  0
VERTEX
  5
26B5
  8
SAPA_PROFIL
 62
     4
 10
260.13013794813122
 20
2.7083813845546878
 30
0.0
 42
-0.284385813979063
  0
VERTEX
  5
26B6
  8
SAPA_PROFIL
 62
     4
 10
259.8616576396509
 20
2.542240728487247
 30
0.0
  0
VERTEX
  5
26B7
  8
SAPA_PROFIL
 62
     4
 10
243.9613739612615
 20
2.5422407284872528
 30
0.0
 42
-0.2843858139786238
  0
VERTEX
  5
26B8
  8
SAPA_PROFIL
 62
     4
 10
243.69289365278129
 20
2.708381384554182
 30
0.0
  0
VERTEX
  5
26B9
  8
SAPA_PROFIL
 62
     4
 10
242.86218656523411
 20
4.3745220406235283
 30
0.0
  0
SEQEND
  5
26BA
  8
SAPA_PROFIL
 62
     4
  0
POLYLINE
  5
192D
  8
SAPA_PROFIL
 62
     4
 66
     1
 10
0.0
 20
0.0
 30
0.0
 70
     1
  0
VERTEX
  5
26BB
  8
SAPA_PROFIL
 62
     4
 10
266.32912698512348
 20
2.1854092139896739
 30
0.0
  0
VERTEX
  5
26BC
  8
SAPA_PROFIL
 62
     4
 10
266.59315026349952
 20
1.7788490179855301
 30
0.0
 42
0.2539676464751066
  0
VERTEX
  5
26BD
  8
SAPA_PROFIL
 62
     4
 10
266.8447514338842
 20
1.642240728489428
 30
0.0
  0
VERTEX
  5
26BE
  8
SAPA_PROFIL
 62
     4
 10
268.22625101908949
 20
1.6422407284894269
 30
0.0
 42
0.3152987888790479
  0
VERTEX
  5
26BF
  8
SAPA_PROFIL
 62
     4
 10
268.6960973294818
 20
1.9712306568275879
 30
0.0
  0
VERTEX
  5
26C0
  8
SAPA_PROFIL
 62
     4
 10
269.59176627039051
 20
4.4320608472788621
 30
0.0
 42
-0.2694959974287434
  0
VERTEX
  5
26C1
  8
SAPA_PROFIL
 62
     4
 10
269.82328531679178
 20
4.625192821622754
 30
0.0
 42
-0.0612686379508233
  0
VERTEX
  5
26C2
  8
SAPA_PROFIL
 62
     4
 10
270.11596074964513
 20
4.6387761922532746
 30
0.0
  0
VERTEX
  5
26C3
  8
SAPA_PROFIL
 62
     4
 10
270.46537892695341
 20
4.8405128709820957
 30
0.0
 42
-0.5773502691891679
  0
VERTEX
  5
26C4
  8
SAPA_PROFIL
 62
     4
 10
270.78037892695289
 20
4.658647536187531
 30
0.0
  0
VERTEX
  5
26C5
  8
SAPA_PROFIL
 62
     4
 10
270.78037892695318
 20
4.3915330080612121
 30
0.0
  0
VERTEX
  5
26C6
  8
SAPA_PROFIL
 62
     4
 10
272.17890662758742
 20
3.582849546752894
 30
0.0
 42
0.1318219888653519
  0
VERTEX
  5
26C7
  8
SAPA_PROFIL
 62
     4
 10
272.32907973005979
 20
3.542557150215504
 30
0.0
  0
VERTEX
  5
26C8
  8
SAPA_PROFIL
 62
     4
 10
272.51151580049662
 20
3.54255715022187
 30
0.0
 42
0.4142135623724291
  0
VERTEX
  5
26C9
  8
SAPA_PROFIL
 62
     4
 10
272.91151580049711
 20
3.9425571502215071
 30
0.0
  0
VERTEX
  5
26CA
  8
SAPA_PROFIL
 62
     4
 10
272.91151580049581
 20
7.3425571502225067
 30
0.0
 42
0.4142135623744271
  0
VERTEX
  5
26CB
  8
SAPA_PROFIL
 62
     4
 10
272.51151580049662
 20
7.7425571502235071
 30
0.0
  0
VERTEX
  5
26CC
  8
SAPA_PROFIL
 62
     4
 10
272.33190055822519
 20
7.7425571502241404
 30
0.0
 42
0.1316524975874005
  0
VERTEX
  5
26CD
  8
SAPA_PROFIL
 62
     4
 10
272.18190055822839
 20
7.7023647713585461
 30
0.0
  0
VERTEX
  5
26CE
  8
SAPA_PROFIL
 62
     4
 10
270.57776266122619
 20
6.7762153247060093
 30
0.0
 42
-0.1316524975875904
  0
VERTEX
  5
26CF
  8
SAPA_PROFIL
 62
     4
 10
270.07776266122448
 20
6.6422407284912461
 30
0.0
  0
VERTEX
  5
26D0
  8
SAPA_PROFIL
 62
     4
 10
269.66151580049711
 20
6.6422407284912461
 30
0.0
 42
-0.4142135623730951
  0
VERTEX
  5
26D1
  8
SAPA_PROFIL
 62
     4
 10
268.66151580049711
 20
7.642240728491247
 30
0.0
  0
VERTEX
  5
26D2
  8
SAPA_PROFIL
 62
     4
 10
268.66151580049711
 20
10.64224072848851
 30
0.0
 42
0.9999996830128083
  0
VERTEX
  5
26D3
  8
SAPA_PROFIL
 62
     4
 10
267.66151580049711
 20
10.64224072849033
 30
0.0
  0
VERTEX
  5
26D4
  8
SAPA_PROFIL
 62
     4
 10
267.66151580049711
 20
7.6422407284903366
 30
0.0
 42
-0.4142135623730951
  0
VERTEX
  5
26D5
  8
SAPA_PROFIL
 62
     4
 10
266.66151580049711
 20
6.6422407284903366
 30
0.0
  0
VERTEX
  5
26D6
  8
SAPA_PROFIL
 62
     4
 10
237.1615158004125
 20
6.6422407284903482
 30
0.0
 42
-0.4142135623730951
  0
VERTEX
  5
26D7
  8
SAPA_PROFIL
 62
     4
 10
236.1615158004125
 20
7.6422407284903482
 30
0.0
  0
VERTEX
  5
26D8
  8
SAPA_PROFIL
 62
     4
 10
236.1615158004125
 20
10.642240728488529
 30
0.0
 42
0.9999999999999998
  0
VERTEX
  5
26D9
  8
SAPA_PROFIL
 62
     4
 10
235.16151580041259
 20
10.642240728488529
 30
0.0
  0
VERTEX
  5
26DA
  8
SAPA_PROFIL
 62
     4
 10
235.16151580041259
 20
7.6422407284903482
 30
0.0
 42
-0.4142135623736278
  0
VERTEX
  5
26DB
  8
SAPA_PROFIL
 62
     4
 10
234.1615158004125
 20
6.6422407284903491
 30
0.0
  0
VERTEX
  5
26DC
  8
SAPA_PROFIL
 62
     4
 10
233.7452689396861
 20
6.6422407284903491
 30
0.0
 42
-0.1316524975874375
  0
VERTEX
  5
26DD
  8
SAPA_PROFIL
 62
     4
 10
233.2452689396859
 20
6.7762153247063841
 30
0.0
  0
VERTEX
  5
26DE
  8
SAPA_PROFIL
 62
     4
 10
231.6411310426839
 20
7.7023647713585603
 30
0.0
 42
0.1316524975874
  0
VERTEX
  5
26DF
  8
SAPA_PROFIL
 62
     4
 10
231.4911310426844
 20
7.742557150224151
 30
0.0
  0
VERTEX
  5
26E0
  8
SAPA_PROFIL
 62
     4
 10
231.3115158004131
 20
7.7425571502235178
 30
0.0
 42
0.4142135623744271
  0
VERTEX
  5
26E1
  8
SAPA_PROFIL
 62
     4
 10
230.91151580041389
 20
7.3425571502225182
 30
0.0
  0
VERTEX
  5
26E2
  8
SAPA_PROFIL
 62
     4
 10
230.9115158004125
 20
3.9425571502215182
 30
0.0
 42
0.4142135623724291
  0
VERTEX
  5
26E3
  8
SAPA_PROFIL
 62
     4
 10
231.3115158004131
 20
3.542557150221882
 30
0.0
  0
VERTEX
  5
26E4
  8
SAPA_PROFIL
 62
     4
 10
231.49395187084991
 20
3.5425571502155151
 30
0.0
 42
0.1318219888653524
  0
VERTEX
  5
26E5
  8
SAPA_PROFIL
 62
     4
 10
231.64412497332219
 20
3.5828495467529038
 30
0.0
  0
VERTEX
  5
26E6
  8
SAPA_PROFIL
 62
     4
 10
233.04265267380191
 20
4.391533007977241
 30
0.0
  0
VERTEX
  5
26E7
  8
SAPA_PROFIL
 62
     4
 10
233.04265267380191
 20
4.6586475361902764
 30
0.0
 42
-0.577350269189159
  0
VERTEX
  5
26E8
  8
SAPA_PROFIL
 62
     4
 10
233.3576526738014
 20
4.8405128709848428
 30
0.0
  0
VERTEX
  5
26E9
  8
SAPA_PROFIL
 62
     4
 10
233.70707085102009
 20
4.6387761923077369
 30
0.0
 42
-0.0612687673629489
  0
VERTEX
  5
26EA
  8
SAPA_PROFIL
 62
     4
 10
233.99974628412031
 20
4.625192821621531
 30
0.0
 42
-0.2694959974285039
  0
VERTEX
  5
26EB
  8
SAPA_PROFIL
 62
     4
 10
234.23126533052081
 20
4.4320608472775822
 30
0.0
  0
VERTEX
  5
26EC
  8
SAPA_PROFIL
 62
     4
 10
235.12693427143051
 20
1.9712306568244149
 30
0.0
 42
0.3152987888784035
  0
VERTEX
  5
26ED
  8
SAPA_PROFIL
 62
     4
 10
235.59678058182379
 20
1.64224072848784
 30
0.0
  0
VERTEX
  5
26EE
  8
SAPA_PROFIL
 62
     4
 10
236.9782801670282
 20
1.6422407284894369
 30
0.0
 42
0.2539676464741841
  0
VERTEX
  5
26EF
  8
SAPA_PROFIL
 62
     4
 10
237.22988133741219
 20
1.778849017984709
 30
0.0
  0
VERTEX
  5
26F0
  8
SAPA_PROFIL
 62
     4
 10
237.49390461578889
 20
2.1854092139896841
 30
0.0
 42
0.5862177598324623
  0
VERTEX
  5
26F1
  8
SAPA_PROFIL
 62
     4
 10
237.23816280055061
 20
2.6422407284861911
 30
0.0
  0
VERTEX
  5
26F2
  8
SAPA_PROFIL
 62
     4
 10
236.29698812004071
 20
2.6422407284785239
 30
0.0
 42
-0.3152987888813165
  0
VERTEX
  5
26F3
  8
SAPA_PROFIL
 62
     4
 10
235.827141809643
 20
2.971230656815278
 30
0.0
  0
VERTEX
  5
26F4
  8
SAPA_PROFIL
 62
     4
 10
235.390377528519
 20
4.1712306568265074
 30
0.0
 42
-0.5205670505515651
  0
VERTEX
  5
26F5
  8
SAPA_PROFIL
 62
     4
 10
235.86022383891219
 20
4.8422407284892559
 30
0.0
  0
VERTEX
  5
26F6
  8
SAPA_PROFIL
 62
     4
 10
240.87666477958109
 20
4.8422407284892808
 30
0.0
 42
-0.3702522326300203
  0
VERTEX
  5
26F7
  8
SAPA_PROFIL
 62
     4
 10
241.1731881413744
 20
4.5877807758235747
 30
0.0
 42
-0.0982365330332397
  0
VERTEX
  5
26F8
  8
SAPA_PROFIL
 62
     4
 10
241.2636408995854
 20
2.9000940008285681
 30
0.0
 42
-0.3735060174783164
  0
VERTEX
  5
26F9
  8
SAPA_PROFIL
 62
     4
 10
240.96661623167441
 20
2.6422407284885319
 30
0.0
  0
VERTEX
  5
26FA
  8
SAPA_PROFIL
 62
     4
 10
240.53816280055179
 20
2.6422407284876179
 30
0.0
 42
0.5920056181162531
  0
VERTEX
  5
26FB
  8
SAPA_PROFIL
 62
     4
 10
240.2851540442343
 20
2.1810372259596948
 30
0.0
  0
VERTEX
  5
26FC
  8
SAPA_PROFIL
 62
     4
 10
240.54633812039009
 20
1.7788490179813969
 30
0.0
 42
0.2539676464746725
  0
VERTEX
  5
26FD
  8
SAPA_PROFIL
 62
     4
 10
240.7979392907738
 20
1.642240728486035
 30
0.0
  0
VERTEX
  5
26FE
  8
SAPA_PROFIL
 62
     4
 10
263.02509231013948
 20
1.6422407284876099
 30
0.0
 42
0.2539676464741819
  0
VERTEX
  5
26FF
  8
SAPA_PROFIL
 62
     4
 10
263.2766934805224
 20
1.7788490179813889
 30
0.0
  0
VERTEX
  5
2700
  8
SAPA_PROFIL
 62
     4
 10
263.53787755667622
 20
2.1810372259597228
 30
0.0
 42
0.5920055144124249
  0
VERTEX
  5
2701
  8
SAPA_PROFIL
 62
     4
 10
263.2848688003607
 20
2.6422407284876099
 30
0.0
  0
VERTEX
  5
2702
  8
SAPA_PROFIL
 62
     4
 10
262.85641532307039
 20
2.6422407032126021
 30
0.0
 42
-0.3735060174775405
  0
VERTEX
  5
2703
  8
SAPA_PROFIL
 62
     4
 10
262.55939065516071
 20
2.900093975552696
 30
0.0
 42
-0.0355900683670349
  0
VERTEX
  5
2704
  8
SAPA_PROFIL
 62
     4
 10
262.5154970911284
 20
3.51596756235248
 30
0.0
 42
-0.0624282003873116
  0
VERTEX
  5
2705
  8
SAPA_PROFIL
 62
     4
 10
262.6498434133714
 20
4.5877807505476076
 30
0.0
 42
-0.3702522326309292
  0
VERTEX
  5
2706
  8
SAPA_PROFIL
 62
     4
 10
262.94636677516479
 20
4.8422407032133314
 30
0.0
  0
VERTEX
  5
2707
  8
SAPA_PROFIL
 62
     4
 10
267.96280776199831
 20
4.8422407284894664
 30
0.0
 42
-0.5205670505515692
  0
VERTEX
  5
2708
  8
SAPA_PROFIL
 62
     4
 10
268.43265407239147
 20
4.1712306568264959
 30
0.0
  0
VERTEX
  5
2709
  8
SAPA_PROFIL
 62
     4
 10
267.99588979126662
 20
2.9712306568170499
 30
0.0
 42
-0.3152987888807539
  0
VERTEX
  5
270A
  8
SAPA_PROFIL
 62
     4
 10
267.52604348087073
 20
2.6422407284794232
 30
0.0
  0
VERTEX
  5
270B
  8
SAPA_PROFIL
 62
     4
 10
266.58486880036162
 20
2.6422407284862448
 30
0.0
 42
0.5862175119221242
  0
VERTEX
  5
270C
  8
SAPA_PROFIL
 62
     4
 10
266.32912686937971
 20
2.185409402731108
 30
0.0
 42
-0.0000002084758573
  0
SEQEND
  5
270D
  8
SAPA_PROFIL
 62
     4
  0
POLYLINE
  5
192E
  8
SAPA_PROFIL
 66
     1
 10
0.0
 20
0.0
 30
0.0
 70
     1
  0
VERTEX
  5
270E
  8
SAPA_PROFIL
 10
200.31304073698831
 20
-6.731049254314704
 30
0.0
  0
VERTEX
  5
270F
  8
SAPA_PROFIL
 10
200.31304073698831
 20
-5.731049254314704
 30
0.0
  0
VERTEX
  5
2710
  8
SAPA_PROFIL
 10
202.91304073698851
 20
-5.731049254314704
 30
0.0
 42
0.4142135623730951
  0
VERTEX
  5
2711
  8
SAPA_PROFIL
 10
203.41304073698851
 20
-5.231049254314704
 30
0.0
  0
VERTEX
  5
2712
  8
SAPA_PROFIL
 10
203.41304073698851
 20
-4.8310492543146131
 30
0.0
 42
0.4142135623730951
  0
VERTEX
  5
2713
  8
SAPA_PROFIL
 10
203.11304073698849
 20
-4.5310492543146594
 30
0.0
  0
VERTEX
  5
2714
  8
SAPA_PROFIL
 10
185.4115158091858
 20
-4.5310492543146657
 30
0.0
 42
0.4142135623730951
  0
VERTEX
  5
2715
  8
SAPA_PROFIL
 10
184.9115158091858
 20
-5.0310492543146657
 30
0.0
  0
VERTEX
  5
2716
  8
SAPA_PROFIL
 10
184.9115158091858
 20
-54.031049254314667
 30
0.0
 42
0.4142135623730951
  0
VERTEX
  5
2717
  8
SAPA_PROFIL
 10
185.4115158091858
 20
-54.531049254314667
 30
0.0
  0
VERTEX
  5
2718
  8
SAPA_PROFIL
 10
203.11304073698849
 20
-54.531049254314659
 30
0.0
 42
0.4142135623730951
  0
VERTEX
  5
2719
  8
SAPA_PROFIL
 10
203.41304073698851
 20
-54.231049254314698
 30
0.0
  0
VERTEX
  5
271A
  8
SAPA_PROFIL
 10
203.41304073698851
 20
-53.831049254314607
 30
0.0
 42
0.4142135623730951
  0
VERTEX
  5
271B
  8
SAPA_PROFIL
 10
202.91304073698851
 20
-53.331049254314607
 30
0.0
  0
VERTEX
  5
271C
  8
SAPA_PROFIL
 10
200.31304073698831
 20
-53.331049254314607
 30
0.0
  0
VERTEX
  5
271D
  8
SAPA_PROFIL
 10
200.31304073698831
 20
-52.331049254314621
 30
0.0
  0
VERTEX
  5
271E
  8
SAPA_PROFIL
 10
199.30900797735529
 20
-51.751388475893449
 30
0.0
 42
0.4155392929676362
  0
VERTEX
  5
271F
  8
SAPA_PROFIL
 10
198.21438900556331
 20
-52.04736190219932
 30
0.0
  0
VERTEX
  5
2720
  8
SAPA_PROFIL
 10
197.4732517672644
 20
-53.331049254314607
 30
0.0
  0
VERTEX
  5
2721
  8
SAPA_PROFIL
 10
187.31151580918569
 20
-53.331049254314621
 30
0.0
 42
-0.4142135623730951
  0
VERTEX
  5
2722
  8
SAPA_PROFIL
 10
186.31151580918569
 20
-52.331049254314621
 30
0.0
  0
VERTEX
  5
2723
  8
SAPA_PROFIL
 10
186.31151580918569
 20
-6.731049254314712
 30
0.0
 42
-0.4142135623730951
  0
VERTEX
  5
2724
  8
SAPA_PROFIL
 10
187.31151580918569
 20
-5.731049254314712
 30
0.0
  0
VERTEX
  5
2725
  8
SAPA_PROFIL
 10
197.4732517672644
 20
-5.731049254314704
 30
0.0
  0
VERTEX
  5
2726
  8
SAPA_PROFIL
 10
198.21438900556331
 20
-7.0147366064299979
 30
0.0
 42
0.4155392929676362
  0
VERTEX
  5
2727
  8
SAPA_PROFIL
 10
199.30900797735529
 20
-7.3107100327358623
 30
0.0
  0
SEQEND
  5
2728
  8
SAPA_PROFIL
  0
POLYLINE
  5
192F
  8
SAPA_PROFIL
 66
     1
 10
0.0
 20
0.0
 30
0.0
 70
     1
  0
VERTEX
  5
2729
  8
SAPA_PROFIL
 10
204.91151580918481
 20
-50.38104925431503
 30
0.0
 42
0.1989123673797145
  0
VERTEX
  5
272A
  8
SAPA_PROFIL
 10
204.8236478435409
 20
-50.16891721995875
 30
0.0
  0
VERTEX
  5
272B
  8
SAPA_PROFIL
 10
204.42364784354081
 20
-49.768917219959121
 30
0.0
 42
0.668178637919182
  0
VERTEX
  5
272C
  8
SAPA_PROFIL
 10
203.91151580918481
 20
-49.981049254314939
 30
0.0
  0
VERTEX
  5
272D
  8
SAPA_PROFIL
 10
203.91151580918481
 20
-50.831049254314841
 30
0.0
 42
-0.4142135623730284
  0
VERTEX
  5
272E
  8
SAPA_PROFIL
 10
203.41151580918481
 20
-51.331049254314848
 30
0.0
  0
VERTEX
  5
272F
  8
SAPA_PROFIL
 10
203.02070687946471
 20
-51.331049254314848
 30
0.0
 42
-0.17632698070845
  0
VERTEX
  5
2730
  8
SAPA_PROFIL
 10
202.82787059655891
 20
-51.260862587250593
 30
0.0
  0
VERTEX
  5
2731
  8
SAPA_PROFIL
 10
201.01867952627919
 20
-49.742771027449862
 30
0.0
 42
-0.2216946626429421
  0
VERTEX
  5
2732
  8
SAPA_PROFIL
 10
200.91151580918529
 20
-49.51295769451395
 30
0.0
  0
VERTEX
  5
2733
  8
SAPA_PROFIL
 10
200.91151580918481
 20
-45.981049254314939
 30
0.0
 42
-0.4142135623730951
  0
VERTEX
  5
2734
  8
SAPA_PROFIL
 10
201.21151580918499
 20
-45.681049254314757
 30
0.0
  0
VERTEX
  5
2735
  8
SAPA_PROFIL
 10
203.61151580918511
 20
-45.681049254315212
 30
0.0
 42
-0.4142135623730951
  0
VERTEX
  5
2736
  8
SAPA_PROFIL
 10
203.91151580918481
 20
-45.981049254314939
 30
0.0
  0
VERTEX
  5
2737
  8
SAPA_PROFIL
 10
203.91151580918481
 20
-46.38104925431503
 30
0.0
 42
0.6681786379193188
  0
VERTEX
  5
2738
  8
SAPA_PROFIL
 10
204.42364784354081
 20
-46.593181288670841
 30
0.0
  0
VERTEX
  5
2739
  8
SAPA_PROFIL
 10
204.8236478435409
 20
-46.19318128867075
 30
0.0
 42
0.198912367379658
  0
VERTEX
  5
273A
  8
SAPA_PROFIL
 10
204.91151580918481
 20
-45.981049254314939
 30
0.0
  0
VERTEX
  5
273B
  8
SAPA_PROFIL
 10
204.91151580918529
 20
-44.181049254315212
 30
0.0
 42
0.4142135623731284
  0
VERTEX
  5
273C
  8
SAPA_PROFIL
 10
204.41151580918529
 20
-43.681049254315212
 30
0.0
  0
VERTEX
  5
273D
  8
SAPA_PROFIL
 10
199.91151580918441
 20
-43.681049254314757
 30
0.0
 42
0.4142135623730951
  0
VERTEX
  5
273E
  8
SAPA_PROFIL
 10
199.41151580918441
 20
-44.18104925431475
 30
0.0
  0
VERTEX
  5
273F
  8
SAPA_PROFIL
 10
199.41151580918529
 20
-48.181049254314757
 30
0.0
 42
-0.4142135623729619
  0
VERTEX
  5
2740
  8
SAPA_PROFIL
 10
198.91151580918529
 20
-48.681049254314757
 30
0.0
  0
VERTEX
  5
2741
  8
SAPA_PROFIL
 10
196.89455916198159
 20
-48.681049254314757
 30
0.0
 42
-0.1763269807084973
  0
VERTEX
  5
2742
  8
SAPA_PROFIL
 10
196.57316535713821
 20
-48.564071475874009
 30
0.0
  0
VERTEX
  5
2743
  8
SAPA_PROFIL
 10
194.09012200434191
 20
-46.480550714344872
 30
0.0
 42
-0.2216946626428772
  0
VERTEX
  5
2744
  8
SAPA_PROFIL
 10
193.91151580918529
 20
-46.097528492785607
 30
0.0
  0
VERTEX
  5
2745
  8
SAPA_PROFIL
 10
193.91151580918481
 20
-40.09958298270589
 30
0.0
 42
-0.315298788878991
  0
VERTEX
  5
2746
  8
SAPA_PROFIL
 10
194.24050573752211
 20
-39.629736672313129
 30
0.0
  0
VERTEX
  5
2747
  8
SAPA_PROFIL
 10
198.25353595251079
 20
-38.16911312484649
 30
0.0
 42
0.3152987888789731
  0
VERTEX
  5
2748
  8
SAPA_PROFIL
 10
198.91151580918529
 20
-37.229420504060499
 30
0.0
  0
VERTEX
  5
2749
  8
SAPA_PROFIL
 10
198.91151580918529
 20
-36.181049254314757
 30
0.0
 42
-0.4142135623732616
  0
VERTEX
  5
274A
  8
SAPA_PROFIL
 10
199.21151580918499
 20
-35.881049254314583
 30
0.0
  0
VERTEX
  5
274B
  8
SAPA_PROFIL
 10
199.61151580918511
 20
-35.881049254314583
 30
0.0
 42
0.4142135623731506
  0
VERTEX
  5
274C
  8
SAPA_PROFIL
 10
199.91151580918529
 20
-35.581049254314848
 30
0.0
  0
VERTEX
  5
274D
  8
SAPA_PROFIL
 10
199.91151580918529
 20
-35.181049254314757
 30
0.0
 42
0.4142135623731505
  0
VERTEX
  5
274E
  8
SAPA_PROFIL
 10
199.61151580918511
 20
-34.881049254314583
 30
0.0
  0
VERTEX
  5
274F
  8
SAPA_PROFIL
 10
199.21151580918499
 20
-34.881049254314583
 30
0.0
 42
-0.4142135623732061
  0
VERTEX
  5
2750
  8
SAPA_PROFIL
 10
198.91151580918529
 20
-34.581049254314848
 30
0.0
  0
VERTEX
  5
2751
  8
SAPA_PROFIL
 10
198.9115158091852
 20
-30.155313323026579
 30
0.0
 42
0.198912367379577
  0
VERTEX
  5
2752
  8
SAPA_PROFIL
 10
198.8236478435409
 20
-29.943181288670761
 30
0.0
  0
VERTEX
  5
2753
  8
SAPA_PROFIL
 10
198.4115158091852
 20
-29.53104925431467
 30
0.0
  0
VERTEX
  5
2754
  8
SAPA_PROFIL
 10
198.8236478435409
 20
-29.118917219958568
 30
0.0
 42
0.1989123673795771
  0
VERTEX
  5
2755
  8
SAPA_PROFIL
 10
198.9115158091852
 20
-28.906785185602761
 30
0.0
  0
VERTEX
  5
2756
  8
SAPA_PROFIL
 10
198.9115158091852
 20
-24.481049254314939
 30
0.0
 42
-0.4142135623732059
  0
VERTEX
  5
2757
  8
SAPA_PROFIL
 10
199.2115158091849
 20
-24.181049254314761
 30
0.0
  0
VERTEX
  5
2758
  8
SAPA_PROFIL
 10
199.61151580918499
 20
-24.181049254314761
 30
0.0
 42
0.4142135623731506
  0
VERTEX
  5
2759
  8
SAPA_PROFIL
 10
199.9115158091852
 20
-23.881049254314568
 30
0.0
  0
VERTEX
  5
275A
  8
SAPA_PROFIL
 10
199.9115158091852
 20
-23.481049254314939
 30
0.0
 42
0.4142135623731505
  0
VERTEX
  5
275B
  8
SAPA_PROFIL
 10
199.61151580918499
 20
-23.181049254314761
 30
0.0
  0
VERTEX
  5
275C
  8
SAPA_PROFIL
 10
199.2115158091849
 20
-23.181049254314761
 30
0.0
 42
-0.4142135623732615
  0
VERTEX
  5
275D
  8
SAPA_PROFIL
 10
198.9115158091852
 20
-22.881049254314579
 30
0.0
  0
VERTEX
  5
275E
  8
SAPA_PROFIL
 10
198.9115158091852
 20
-21.832678004569289
 30
0.0
 42
0.3152987888789731
  0
VERTEX
  5
275F
  8
SAPA_PROFIL
 10
198.2535359525107
 20
-20.892985383783302
 30
0.0
  0
VERTEX
  5
2760
  8
SAPA_PROFIL
 10
194.240505737522
 20
-19.432361836316659
 30
0.0
 42
-0.315298788878991
  0
VERTEX
  5
2761
  8
SAPA_PROFIL
 10
193.91151580918481
 20
-18.962515525923429
 30
0.0
  0
VERTEX
  5
2762
  8
SAPA_PROFIL
 10
193.9115158091852
 20
-12.964570015844171
 30
0.0
 42
-0.2216946626428772
  0
VERTEX
  5
2763
  8
SAPA_PROFIL
 10
194.09012200434179
 20
-12.58154779428491
 30
0.0
  0
VERTEX
  5
2764
  8
SAPA_PROFIL
 10
196.57316535713809
 20
-10.49802703275531
 30
0.0
 42
-0.1763269807084973
  0
VERTEX
  5
2765
  8
SAPA_PROFIL
 10
196.89455916198159
 20
-10.38104925431457
 30
0.0
  0
VERTEX
  5
2766
  8
SAPA_PROFIL
 10
198.9115158091852
 20
-10.38104925431457
 30
0.0
 42
-0.4142135623729619
  0
VERTEX
  5
2767
  8
SAPA_PROFIL
 10
199.4115158091852
 20
-10.88104925431457
 30
0.0
  0
VERTEX
  5
2768
  8
SAPA_PROFIL
 10
199.41151580918429
 20
-14.88104925431457
 30
0.0
 42
0.4142135623730951
  0
VERTEX
  5
2769
  8
SAPA_PROFIL
 10
199.91151580918429
 20
-15.38104925431457
 30
0.0
  0
VERTEX
  5
276A
  8
SAPA_PROFIL
 10
204.4115158091852
 20
-15.38104925431457
 30
0.0
 42
0.4142135623731285
  0
VERTEX
  5
276B
  8
SAPA_PROFIL
 10
204.9115158091852
 20
-14.88104925431457
 30
0.0
  0
VERTEX
  5
276C
  8
SAPA_PROFIL
 10
204.91151580918481
 20
-13.08104925431439
 30
0.0
 42
0.198912367379658
  0
VERTEX
  5
276D
  8
SAPA_PROFIL
 10
204.8236478435409
 20
-12.86891721995857
 30
0.0
  0
VERTEX
  5
276E
  8
SAPA_PROFIL
 10
204.42364784354081
 20
-12.468917219958479
 30
0.0
 42
0.6681786379193188
  0
VERTEX
  5
276F
  8
SAPA_PROFIL
 10
203.91151580918481
 20
-12.681049254314759
 30
0.0
  0
VERTEX
  5
2770
  8
SAPA_PROFIL
 10
203.91151580918481
 20
-13.08104925431439
 30
0.0
 42
-0.4142135623730951
  0
VERTEX
  5
2771
  8
SAPA_PROFIL
 10
203.61151580918499
 20
-13.38104925431457
 30
0.0
  0
VERTEX
  5
2772
  8
SAPA_PROFIL
 10
201.2115158091849
 20
-13.38104925431457
 30
0.0
 42
-0.4142135623730951
  0
VERTEX
  5
2773
  8
SAPA_PROFIL
 10
200.91151580918481
 20
-13.08104925431439
 30
0.0
  0
VERTEX
  5
2774
  8
SAPA_PROFIL
 10
200.9115158091852
 20
-9.5491408141153897
 30
0.0
 42
-0.221694662642942
  0
VERTEX
  5
2775
  8
SAPA_PROFIL
 10
201.01867952627919
 20
-9.3193274811799256
 30
0.0
  0
VERTEX
  5
2776
  8
SAPA_PROFIL
 10
202.8278705965588
 20
-7.8012359213792024
 30
0.0
 42
-0.1763269807084499
  0
VERTEX
  5
2777
  8
SAPA_PROFIL
 10
203.0207068794646
 20
-7.7310492543149394
 30
0.0
  0
VERTEX
  5
2778
  8
SAPA_PROFIL
 10
203.41151580918481
 20
-7.7310492543144838
 30
0.0
 42
-0.4142135623730284
  0
VERTEX
  5
2779
  8
SAPA_PROFIL
 10
203.91151580918481
 20
-8.2310492543144846
 30
0.0
  0
VERTEX
  5
277A
  8
SAPA_PROFIL
 10
203.91151580918481
 20
-9.0810492543143937
 30
0.0
 42
0.668178637919182
  0
VERTEX
  5
277B
  8
SAPA_PROFIL
 10
204.42364784354081
 20
-9.2931812886706666
 30
0.0
  0
VERTEX
  5
277C
  8
SAPA_PROFIL
 10
204.8236478435409
 20
-8.8931812886705757
 30
0.0
 42
0.1989123673797144
  0
VERTEX
  5
277D
  8
SAPA_PROFIL
 10
204.91151580918481
 20
-8.6810492543147575
 30
0.0
  0
VERTEX
  5
277E
  8
SAPA_PROFIL
 10
204.91151580918481
 20
-6.2310492543144838
 30
0.0
 42
0.4142135623730951
  0
VERTEX
  5
277F
  8
SAPA_PROFIL
 10
204.41151580918481
 20
-5.7310492543144838
 30
0.0
  0
VERTEX
  5
2780
  8
SAPA_PROFIL
 10
200.71151580918499
 20
-5.7310492543144838
 30
0.0
 42
0.4142135623730951
  0
VERTEX
  5
2781
  8
SAPA_PROFIL
 10
200.41151580918481
 20
-6.0310492543142109
 30
0.0
  0
VERTEX
  5
2782
  8
SAPA_PROFIL
 10
200.41151580918481
 20
-7.057844173557668
 30
0.0
 42
-0.2679491924311428
  0
VERTEX
  5
2783
  8
SAPA_PROFIL
 10
200.26151580918469
 20
-7.3176517946928916
 30
0.0
  0
VERTEX
  5
2784
  8
SAPA_PROFIL
 10
198.7244323216444
 20
-8.2050873599912393
 30
0.0
 42
-0.4142135623731709
  0
VERTEX
  5
2785
  8
SAPA_PROFIL
 10
198.31462470050911
 20
-8.0952797388556519
 30
0.0
  0
VERTEX
  5
2786
  8
SAPA_PROFIL
 10
198.00739260548181
 20
-7.563138140552609
 30
0.0
 42
0.4663076581551056
  0
VERTEX
  5
2787
  8
SAPA_PROFIL
 10
196.49857959201091
 20
-7.2970936974336382
 30
0.0
  0
VERTEX
  5
2788
  8
SAPA_PROFIL
 10
191.59012200434179
 20
-11.41577864889746
 30
0.0
 42
0.2216946626428921
  0
VERTEX
  5
2789
  8
SAPA_PROFIL
 10
191.41151580918481
 20
-11.798800870457169
 30
0.0
  0
VERTEX
  5
278A
  8
SAPA_PROFIL
 10
191.41151580918481
 20
-19.830841716104938
 30
0.0
 42
0.3152987888789878
  0
VERTEX
  5
278B
  8
SAPA_PROFIL
 10
192.06949566585931
 20
-20.770534336890929
 30
0.0
  0
VERTEX
  5
278C
  8
SAPA_PROFIL
 10
195.7535359525107
 20
-22.11141534306967
 30
0.0
 42
-0.3152987888789804
  0
VERTEX
  5
278D
  8
SAPA_PROFIL
 10
196.4115158091852
 20
-23.05110796385566
 30
0.0
  0
VERTEX
  5
278E
  8
SAPA_PROFIL
 10
196.41151580918529
 20
-36.010990544774131
 30
0.0
 42
-0.3152987888789804
  0
VERTEX
  5
278F
  8
SAPA_PROFIL
 10
195.75353595251079
 20
-36.950683165560122
 30
0.0
  0
VERTEX
  5
2790
  8
SAPA_PROFIL
 10
192.06949566585931
 20
-38.291564171738401
 30
0.0
 42
0.3152987888789877
  0
VERTEX
  5
2791
  8
SAPA_PROFIL
 10
191.41151580918481
 20
-39.231256792524391
 30
0.0
  0
VERTEX
  5
2792
  8
SAPA_PROFIL
 10
191.41151580918481
 20
-47.26329763817261
 30
0.0
 42
0.2216946626428921
  0
VERTEX
  5
2793
  8
SAPA_PROFIL
 10
191.59012200434191
 20
-47.646319859731882
 30
0.0
  0
VERTEX
  5
2794
  8
SAPA_PROFIL
 10
196.49857959201091
 20
-51.765004811195688
 30
0.0
 42
0.4663076581551056
  0
VERTEX
  5
2795
  8
SAPA_PROFIL
 10
198.0073926054819
 20
-51.498960368077171
 30
0.0
  0
VERTEX
  5
2796
  8
SAPA_PROFIL
 10
198.31462470050911
 20
-50.966818769773681
 30
0.0
 42
-0.414213562373157
  0
VERTEX
  5
2797
  8
SAPA_PROFIL
 10
198.72443232164451
 20
-50.857011148638549
 30
0.0
  0
VERTEX
  5
2798
  8
SAPA_PROFIL
 10
200.2615158091848
 20
-51.744446713936902
 30
0.0
 42
-0.2679491924311554
  0
VERTEX
  5
2799
  8
SAPA_PROFIL
 10
200.41151580918489
 20
-52.004254335072119
 30
0.0
  0
VERTEX
  5
279A
  8
SAPA_PROFIL
 10
200.41151580918489
 20
-53.031049254315121
 30
0.0
 42
0.4142135623730951
  0
VERTEX
  5
279B
  8
SAPA_PROFIL
 10
200.71151580918499
 20
-53.33104925431531
 30
0.0
  0
VERTEX
  5
279C
  8
SAPA_PROFIL
 10
204.41151580918481
 20
-53.331049254314841
 30
0.0
 42
0.4142135623730951
  0
VERTEX
  5
279D
  8
SAPA_PROFIL
 10
204.91151580918481
 20
-52.831049254314848
 30
0.0
  0
SEQEND
  5
279E
  8
SAPA_PROFIL
  0
POLYLINE
  5
1930
  8
SAPA_PROFIL
 62
     4
 66
     1
 10
0.0
 20
0.0
 30
0.0
 70
     1
  0
VERTEX
  5
279F
  8
SAPA_PROFIL
 62
     4
 10
203.05293716631559
 20
-28.475414343528321
 30
0.0
 42
-0.1989123671061458
  0
VERTEX
  5
27A0
  8
SAPA_PROFIL
 62
     4
 10
203.40440902799881
 20
-29.323942480059149
 30
0.0
  0
VERTEX
  5
27A1
  8
SAPA_PROFIL
 62
     4
 10
203.40440902799881
 20
-29.738156028570302
 30
0.0
 42
-0.1989123671061505
  0
VERTEX
  5
27A2
  8
SAPA_PROFIL
 62
     4
 10
203.05293716631559
 20
-30.586684165101129
 30
0.0
  0
VERTEX
  5
27A3
  8
SAPA_PROFIL
 62
     4
 10
200.8207041159333
 20
-32.818917220182023
 30
0.0
 42
0.6681786375387371
  0
VERTEX
  5
27A4
  8
SAPA_PROFIL
 62
     4
 10
201.03283615051251
 20
-33.331049254314742
 30
0.0
  0
VERTEX
  5
27A5
  8
SAPA_PROFIL
 62
     4
 10
217.61151580918531
 20
-33.331049254314742
 30
0.0
 42
0.4142135623731034
  0
VERTEX
  5
27A6
  8
SAPA_PROFIL
 62
     4
 10
217.91151580918529
 20
-33.03104925431473
 30
0.0
  0
VERTEX
  5
27A7
  8
SAPA_PROFIL
 62
     4
 10
217.91151580918529
 20
-26.031049254314841
 30
0.0
 42
0.4142135623731034
  0
VERTEX
  5
27A8
  8
SAPA_PROFIL
 62
     4
 10
217.61151580918531
 20
-25.731049254314769
 30
0.0
  0
VERTEX
  5
27A9
  8
SAPA_PROFIL
 62
     4
 10
201.03283615051251
 20
-25.731049254314708
 30
0.0
 42
0.6681786375387019
  0
VERTEX
  5
27AA
  8
SAPA_PROFIL
 62
     4
 10
200.8207041159333
 20
-26.243181288447431
 30
0.0
  0
SEQEND
  5
27AB
  8
SAPA_PROFIL
 62
     4
  0
POLYLINE
  5
1931
  8
SAPA_PROFIL
 62
     4
 66
     1
 10
0.0
 20
0.0
 30
0.0
 70
     1
  0
VERTEX
  5
27AC
  8
SAPA_PROFIL
 62
     4
 10
219.2115158091853
 20
-33.331049254314742
 30
0.0
  0
VERTEX
  5
27AD
  8
SAPA_PROFIL
 62
     4
 10
237.4115158091854
 20
-33.331049254314742
 30
0.0
 42
0.4142135623730951
  0
VERTEX
  5
27AE
  8
SAPA_PROFIL
 62
     4
 10
237.71151580918541
 20
-33.03104925431478
 30
0.0
  0
VERTEX
  5
27AF
  8
SAPA_PROFIL
 62
     4
 10
237.7115158091853
 20
-32.133992979466939
 30
0.0
  0
VERTEX
  5
27B0
  8
SAPA_PROFIL
 62
     4
 10
239.2644595343377
 20
-30.581049254314738
 30
0.0
  0
VERTEX
  5
27B1
  8
SAPA_PROFIL
 62
     4
 10
244.84286246123821
 20
-30.581049254314738
 30
0.0
  0
VERTEX
  5
27B2
  8
SAPA_PROFIL
 62
     4
 10
245.8365158091853
 20
-30.007363226396201
 30
0.0
 42
0.5773502691896344
  0
VERTEX
  5
27B3
  8
SAPA_PROFIL
 62
     4
 10
245.8365158091853
 20
-29.05473528223331
 30
0.0
  0
VERTEX
  5
27B4
  8
SAPA_PROFIL
 62
     4
 10
244.84286246123801
 20
-28.481049254314708
 30
0.0
  0
VERTEX
  5
27B5
  8
SAPA_PROFIL
 62
     4
 10
239.26445953433759
 20
-28.481049254314708
 30
0.0
  0
VERTEX
  5
27B6
  8
SAPA_PROFIL
 62
     4
 10
237.7115158091853
 20
-26.928105529162512
 30
0.0
  0
VERTEX
  5
27B7
  8
SAPA_PROFIL
 62
     4
 10
237.71151580918541
 20
-26.03104925431467
 30
0.0
 42
0.4142135623730951
  0
VERTEX
  5
27B8
  8
SAPA_PROFIL
 62
     4
 10
237.4115158091854
 20
-25.731049254314708
 30
0.0
  0
VERTEX
  5
27B9
  8
SAPA_PROFIL
 62
     4
 10
219.2115158091853
 20
-25.731049254314769
 30
0.0
 42
0.4142135623730951
  0
VERTEX
  5
27BA
  8
SAPA_PROFIL
 62
     4
 10
218.91151580918529
 20
-26.03104925431472
 30
0.0
  0
VERTEX
  5
27BB
  8
SAPA_PROFIL
 62
     4
 10
218.91151580918529
 20
-33.031049254314837
 30
0.0
 42
0.4142135623730951
  0
SEQEND
  5
27BC
  8
SAPA_PROFIL
 62
     4
  0
POLYLINE
  5
1932
  8
SAPA_PROFIL
 62
     4
 66
     1
 10
0.0
 20
0.0
 30
0.0
 70
     1
  0
VERTEX
  5
27BD
  8
SAPA_PROFIL
 62
     4
 10
202.0579624185921
 20
-29.17749587034416
 30
0.0
 42
-0.4142135623730951
  0
VERTEX
  5
27BE
  8
SAPA_PROFIL
 62
     4
 10
202.0579624185921
 20
-29.884602651530709
 30
0.0
  0
VERTEX
  5
27BF
  8
SAPA_PROFIL
 62
     4
 10
198.91151580918529
 20
-33.03104925431478
 30
0.0
  0
VERTEX
  5
27C0
  8
SAPA_PROFIL
 62
     4
 10
198.91151580918529
 20
-34.53104925431478
 30
0.0
  0
VERTEX
  5
27C1
  8
SAPA_PROFIL
 62
     4
 10
238.41151580918529
 20
-34.53104925431478
 30
0.0
 42
0.4142135623730951
  0
VERTEX
  5
27C2
  8
SAPA_PROFIL
 62
     4
 10
238.9115158091854
 20
-34.03104925431478
 30
0.0
  0
VERTEX
  5
27C3
  8
SAPA_PROFIL
 62
     4
 10
238.9115158091854
 20
-32.631049254314689
 30
0.0
  0
VERTEX
  5
27C4
  8
SAPA_PROFIL
 62
     4
 10
239.76151580918531
 20
-31.78104925431478
 30
0.0
  0
VERTEX
  5
27C5
  8
SAPA_PROFIL
 62
     4
 10
244.36440149215539
 20
-31.78104925431478
 30
0.0
  0
VERTEX
  5
27C6
  8
SAPA_PROFIL
 62
     4
 10
246.23651580918531
 20
-30.700183549423802
 30
0.0
 42
0.5773502691896344
  0
VERTEX
  5
27C7
  8
SAPA_PROFIL
 62
     4
 10
246.23651580918531
 20
-28.361914959205709
 30
0.0
  0
VERTEX
  5
27C8
  8
SAPA_PROFIL
 62
     4
 10
244.3644014921552
 20
-27.28104925431467
 30
0.0
  0
VERTEX
  5
27C9
  8
SAPA_PROFIL
 62
     4
 10
239.76151580918531
 20
-27.28104925431467
 30
0.0
  0
VERTEX
  5
27CA
  8
SAPA_PROFIL
 62
     4
 10
238.9115158091854
 20
-26.431049254314761
 30
0.0
  0
VERTEX
  5
27CB
  8
SAPA_PROFIL
 62
     4
 10
238.9115158091854
 20
-25.03104925431478
 30
0.0
 42
0.4142135623730951
  0
VERTEX
  5
27CC
  8
SAPA_PROFIL
 62
     4
 10
238.41151580918529
 20
-24.53104925431478
 30
0.0
  0
VERTEX
  5
27CD
  8
SAPA_PROFIL
 62
     4
 10
198.91151580918529
 20
-24.53104925431478
 30
0.0
  0
VERTEX
  5
27CE
  8
SAPA_PROFIL
 62
     4
 10
198.91151580918529
 20
-26.03104925431478
 30
0.0
  0
SEQEND
  5
27CF
  8
SAPA_PROFIL
 62
     4
  0
POLYLINE
  5
1933
  8
SAPA_PROFIL
 66
     1
 10
0.0
 20
0.0
 30
0.0
 70
     1
  0
VERTEX
  5
27D0
  8
SAPA_PROFIL
 10
258.36151580819433
 20
-32.231049254314939
 30
0.0
  0
VERTEX
  5
27D1
  8
SAPA_PROFIL
 10
259.7377504017706
 20
-31.607768951012989
 30
0.0
 42
-0.5450207798987328
  0
VERTEX
  5
27D2
  8
SAPA_PROFIL
 10
260.16151580819422
 20
-31.881049254314799
 30
0.0
  0
VERTEX
  5
27D3
  8
SAPA_PROFIL
 10
260.16151580819422
 20
-32.231049254314939
 30
0.0
  0
VERTEX
  5
27D4
  8
SAPA_PROFIL
 10
260.41151580819422
 20
-32.231049254314939
 30
0.0
 42
0.4142135623730951
  0
VERTEX
  5
27D5
  8
SAPA_PROFIL
 10
261.41151580819422
 20
-31.231049254314939
 30
0.0
  0
VERTEX
  5
27D6
  8
SAPA_PROFIL
 10
261.41151580819422
 20
-27.831049254314848
 30
0.0
 42
0.4142135623730951
  0
VERTEX
  5
27D7
  8
SAPA_PROFIL
 10
260.41151580819422
 20
-26.831049254314848
 30
0.0
  0
VERTEX
  5
27D8
  8
SAPA_PROFIL
 10
259.26151580819442
 20
-26.831049254314848
 30
0.0
  0
VERTEX
  5
27D9
  8
SAPA_PROFIL
 10
259.26151580819442
 20
-27.181049254314988
 30
0.0
 42
-0.5450200690651551
  0
VERTEX
  5
27DA
  8
SAPA_PROFIL
 10
258.83775080819441
 20
-27.454330254314758
 30
0.0
  0
VERTEX
  5
27DB
  8
SAPA_PROFIL
 10
257.46151580819441
 20
-26.831049254314848
 30
0.0
  0
VERTEX
  5
27DC
  8
SAPA_PROFIL
 10
257.46151580819441
 20
-27.181049254314988
 30
0.0
 42
-0.5450200690651692
  0
VERTEX
  5
27DD
  8
SAPA_PROFIL
 10
257.0377508081944
 20
-27.454330254314758
 30
0.0
  0
VERTEX
  5
27DE
  8
SAPA_PROFIL
 10
255.6615158081942
 20
-26.831049254314848
 30
0.0
  0
VERTEX
  5
27DF
  8
SAPA_PROFIL
 10
255.6615158081942
 20
-27.181049254314988
 30
0.0
 42
-0.5450200690651619
  0
VERTEX
  5
27E0
  8
SAPA_PROFIL
 10
255.23775080819419
 20
-27.454330254314758
 30
0.0
  0
VERTEX
  5
27E1
  8
SAPA_PROFIL
 10
253.8615158081943
 20
-26.831049254314848
 30
0.0
  0
VERTEX
  5
27E2
  8
SAPA_PROFIL
 10
253.8615158081943
 20
-27.181049254314988
 30
0.0
 42
-0.5450200690651619
  0
VERTEX
  5
27E3
  8
SAPA_PROFIL
 10
253.43775080819429
 20
-27.454330254314758
 30
0.0
  0
VERTEX
  5
27E4
  8
SAPA_PROFIL
 10
252.06151580819429
 20
-26.831049254314848
 30
0.0
  0
VERTEX
  5
27E5
  8
SAPA_PROFIL
 10
252.06151580819429
 20
-27.181049254314988
 30
0.0
 42
-0.5450200690651692
  0
VERTEX
  5
27E6
  8
SAPA_PROFIL
 10
251.63775080819431
 20
-27.454330254314758
 30
0.0
  0
VERTEX
  5
27E7
  8
SAPA_PROFIL
 10
250.26151580819439
 20
-26.831049254314848
 30
0.0
  0
VERTEX
  5
27E8
  8
SAPA_PROFIL
 10
249.96151580819441
 20
-26.831049254314848
 30
0.0
  0
VERTEX
  5
27E9
  8
SAPA_PROFIL
 10
249.96151580819441
 20
-31.959316887825711
 30
0.0
  0
VERTEX
  5
27EA
  8
SAPA_PROFIL
 10
250.7377504017706
 20
-31.607768951012989
 30
0.0
 42
-0.5450207798987328
  0
VERTEX
  5
27EB
  8
SAPA_PROFIL
 10
251.1615158081942
 20
-31.881049254314799
 30
0.0
  0
VERTEX
  5
27EC
  8
SAPA_PROFIL
 10
251.1615158081942
 20
-32.231049254314939
 30
0.0
  0
VERTEX
  5
27ED
  8
SAPA_PROFIL
 10
252.5377508081944
 20
-31.60776925431492
 30
0.0
 42
-0.5450205149791638
  0
VERTEX
  5
27EE
  8
SAPA_PROFIL
 10
252.96151580819441
 20
-31.881049254314799
 30
0.0
  0
VERTEX
  5
27EF
  8
SAPA_PROFIL
 10
252.96151580819441
 20
-32.231049254314939
 30
0.0
  0
VERTEX
  5
27F0
  8
SAPA_PROFIL
 10
254.33775040177079
 20
-31.607768951012989
 30
0.0
 42
-0.545020779898768
  0
VERTEX
  5
27F1
  8
SAPA_PROFIL
 10
254.7615158081943
 20
-31.881049254314799
 30
0.0
  0
VERTEX
  5
27F2
  8
SAPA_PROFIL
 10
254.7615158081943
 20
-32.231049254314939
 30
0.0
  0
VERTEX
  5
27F3
  8
SAPA_PROFIL
 10
256.13775040177069
 20
-31.607768951012989
 30
0.0
 42
-0.54502077989874
  0
VERTEX
  5
27F4
  8
SAPA_PROFIL
 10
256.56151580819432
 20
-31.881049254314799
 30
0.0
  0
VERTEX
  5
27F5
  8
SAPA_PROFIL
 10
256.56151580819432
 20
-32.231049254314939
 30
0.0
  0
VERTEX
  5
27F6
  8
SAPA_PROFIL
 10
257.93775040177059
 20
-31.607768951012989
 30
0.0
 42
-0.545020779898761
  0
VERTEX
  5
27F7
  8
SAPA_PROFIL
 10
258.36151580819433
 20
-31.881049254314799
 30
0.0
  0
SEQEND
  5
27F8
  8
SAPA_PROFIL
  0
POLYLINE
  5
1934
  8
SAPA_PROFIL
 66
     1
 10
0.0
 20
0.0
 30
0.0
 70
     1
  0
VERTEX
  5
27F9
  8
SAPA_PROFIL
 10
349.43577987690622
 20
-52.531049254314901
 30
0.0
 42
-0.1989123673796753
  0
VERTEX
  5
27FA
  8
SAPA_PROFIL
 10
349.22364784255041
 20
-52.44318128867075
 30
0.0
  0
VERTEX
  5
27FB
  8
SAPA_PROFIL
 10
347.4993837738383
 20
-50.718917219958939
 30
0.0
 42
0.1989123673796753
  0
VERTEX
  5
27FC
  8
SAPA_PROFIL
 10
347.28725173948231
 20
-50.631049254314803
 30
0.0
  0
VERTEX
  5
27FD
  8
SAPA_PROFIL
 10
346.71151580819441
 20
-50.631049254314803
 30
0.0
 42
0.4142135623730951
  0
VERTEX
  5
27FE
  8
SAPA_PROFIL
 10
346.41151580819422
 20
-50.931049254314978
 30
0.0
  0
VERTEX
  5
27FF
  8
SAPA_PROFIL
 10
346.41151580819422
 20
-52.231049254314939
 30
0.0
 42
-0.4142135623730951
  0
VERTEX
  5
2800
  8
SAPA_PROFIL
 10
346.11151580819433
 20
-52.531049254314901
 30
0.0
  0
VERTEX
  5
2801
  8
SAPA_PROFIL
 10
321.41151580819422
 20
-52.531049254314901
 30
0.0
 42
-0.4142135623730951
  0
VERTEX
  5
2802
  8
SAPA_PROFIL
 10
320.41151580819422
 20
-51.531049254314887
 30
0.0
  0
VERTEX
  5
2803
  8
SAPA_PROFIL
 10
320.41151580819422
 20
-47.131049254314803
 30
0.0
 42
0.4142135623730951
  0
VERTEX
  5
2804
  8
SAPA_PROFIL
 10
320.11151580819433
 20
-46.831049254314848
 30
0.0
  0
VERTEX
  5
2805
  8
SAPA_PROFIL
 10
317.81151580819432
 20
-46.831049254314848
 30
0.0
 42
0.4142135623730951
  0
VERTEX
  5
2806
  8
SAPA_PROFIL
 10
317.51151580819442
 20
-47.131049254314803
 30
0.0
  0
VERTEX
  5
2807
  8
SAPA_PROFIL
 10
317.51151580819442
 20
-47.631049254314803
 30
0.0
 42
0.4142135623730951
  0
VERTEX
  5
2808
  8
SAPA_PROFIL
 10
317.81151580819432
 20
-47.931049254314992
 30
0.0
  0
VERTEX
  5
2809
  8
SAPA_PROFIL
 10
318.14814273282872
 20
-47.931049254314992
 30
0.0
 42
-0.5535245743249297
  0
VERTEX
  5
280A
  8
SAPA_PROFIL
 10
316.37562341031889
 20
-52.24160346584631
 30
0.0
  0
VERTEX
  5
280B
  8
SAPA_PROFIL
 10
316.08829250349089
 20
-51.954272559018129
 30
0.0
 42
0.4142135623729421
  0
VERTEX
  5
280C
  8
SAPA_PROFIL
 10
315.73473911289778
 20
-51.954272559018129
 30
0.0
  0
VERTEX
  5
280D
  8
SAPA_PROFIL
 10
315.44740820606978
 20
-52.24160346584631
 30
0.0
 42
-0.5535245743249292
  0
VERTEX
  5
280E
  8
SAPA_PROFIL
 10
313.67488888355967
 20
-47.931049254314992
 30
0.0
  0
VERTEX
  5
280F
  8
SAPA_PROFIL
 10
314.01151580819442
 20
-47.931049254314992
 30
0.0
 42
0.4142135623730951
  0
VERTEX
  5
2810
  8
SAPA_PROFIL
 10
314.31151580819432
 20
-47.631049254314803
 30
0.0
  0
VERTEX
  5
2811
  8
SAPA_PROFIL
 10
314.31151580819432
 20
-47.131049254314803
 30
0.0
 42
0.4142135623730951
  0
VERTEX
  5
2812
  8
SAPA_PROFIL
 10
314.01151580819442
 20
-46.831049254314848
 30
0.0
  0
VERTEX
  5
2813
  8
SAPA_PROFIL
 10
312.91151580819422
 20
-46.831049254314848
 30
0.0
 42
0.4142135623730951
  0
VERTEX
  5
2814
  8
SAPA_PROFIL
 10
311.41151580819422
 20
-48.331049254314841
 30
0.0
  0
VERTEX
  5
2815
  8
SAPA_PROFIL
 10
311.41151580819422
 20
-51.165023850530361
 30
0.0
 42
0.267949192431143
  0
VERTEX
  5
2816
  8
SAPA_PROFIL
 10
311.66151580819422
 20
-51.598036552422627
 30
0.0
 42
-0.767326987978956
  0
VERTEX
  5
2817
  8
SAPA_PROFIL
 10
311.41151580819422
 20
-52.531049254314901
 30
0.0
  0
VERTEX
  5
2818
  8
SAPA_PROFIL
 10
276.41151580819422
 20
-52.531049254314901
 30
0.0
 42
-0.4142135623730951
  0
VERTEX
  5
2819
  8
SAPA_PROFIL
 10
275.41151580819422
 20
-51.531049254314887
 30
0.0
  0
VERTEX
  5
281A
  8
SAPA_PROFIL
 10
275.41151580819422
 20
-47.131049254314803
 30
0.0
 42
0.4142135623730951
  0
VERTEX
  5
281B
  8
SAPA_PROFIL
 10
275.11151580819433
 20
-46.831049254314848
 30
0.0
  0
VERTEX
  5
281C
  8
SAPA_PROFIL
 10
272.81151580819432
 20
-46.831049254314848
 30
0.0
 42
0.4142135623730951
  0
VERTEX
  5
281D
  8
SAPA_PROFIL
 10
272.51151580819442
 20
-47.131049254314803
 30
0.0
  0
VERTEX
  5
281E
  8
SAPA_PROFIL
 10
272.51151580819442
 20
-47.631049254314803
 30
0.0
 42
0.4142135623730951
  0
VERTEX
  5
281F
  8
SAPA_PROFIL
 10
272.81151580819432
 20
-47.931049254314992
 30
0.0
  0
VERTEX
  5
2820
  8
SAPA_PROFIL
 10
273.14814273282872
 20
-47.931049254314992
 30
0.0
 42
-0.5535245743249297
  0
VERTEX
  5
2821
  8
SAPA_PROFIL
 10
271.37562341031878
 20
-52.24160346584631
 30
0.0
  0
VERTEX
  5
2822
  8
SAPA_PROFIL
 10
271.08829250349089
 20
-51.954272559018129
 30
0.0
 42
0.4142135623730243
  0
VERTEX
  5
2823
  8
SAPA_PROFIL
 10
270.73473911289778
 20
-51.954272559018371
 30
0.0
  0
VERTEX
  5
2824
  8
SAPA_PROFIL
 10
270.44740820606978
 20
-52.24160346584631
 30
0.0
 42
-0.5535245743249292
  0
VERTEX
  5
2825
  8
SAPA_PROFIL
 10
268.67488888355967
 20
-47.931049254314992
 30
0.0
  0
VERTEX
  5
2826
  8
SAPA_PROFIL
 10
269.01151580819442
 20
-47.931049254314992
 30
0.0
 42
0.4142135623730951
  0
VERTEX
  5
2827
  8
SAPA_PROFIL
 10
269.31151580819432
 20
-47.631049254314803
 30
0.0
  0
VERTEX
  5
2828
  8
SAPA_PROFIL
 10
269.31151580819432
 20
-47.131049254314803
 30
0.0
 42
0.4142135623730951
  0
VERTEX
  5
2829
  8
SAPA_PROFIL
 10
269.01151580819442
 20
-46.831049254314848
 30
0.0
  0
VERTEX
  5
282A
  8
SAPA_PROFIL
 10
267.91151580819422
 20
-46.831049254314848
 30
0.0
 42
0.4142135623730951
  0
VERTEX
  5
282B
  8
SAPA_PROFIL
 10
266.41151580819422
 20
-48.331049254314841
 30
0.0
  0
VERTEX
  5
282C
  8
SAPA_PROFIL
 10
266.41151580819422
 20
-51.311434012044167
 30
0.0
 42
0.2679491924311188
  0
VERTEX
  5
282D
  8
SAPA_PROFIL
 10
266.56151580819432
 20
-51.571241633179632
 30
0.0
 42
-0.7673269879789557
  0
VERTEX
  5
282E
  8
SAPA_PROFIL
 10
266.41151580819422
 20
-52.131049254314803
 30
0.0
  0
VERTEX
  5
282F
  8
SAPA_PROFIL
 10
264.41151580819422
 20
-52.131049254314583
 30
0.0
 42
-0.4142137811865366
  0
VERTEX
  5
2830
  8
SAPA_PROFIL
 10
263.41151580819422
 20
-51.131050001390122
 30
0.0
  0
VERTEX
  5
2831
  8
SAPA_PROFIL
 10
263.41151580819422
 20
-7.931049254314984
 30
0.0
 42
-0.4142140000000124
  0
VERTEX
  5
2832
  8
SAPA_PROFIL
 10
264.41151580819422
 20
-6.931049254314984
 30
0.0
  0
VERTEX
  5
2833
  8
SAPA_PROFIL
 10
266.41151580819422
 20
-6.931049254314984
 30
0.0
 42
-0.7673269879789457
  0
VERTEX
  5
2834
  8
SAPA_PROFIL
 10
266.56151580819432
 20
-7.4908568754501621
 30
0.0
 42
0.2679491924311191
  0
VERTEX
  5
2835
  8
SAPA_PROFIL
 10
266.41151580819422
 20
-7.7506644965856131
 30
0.0
  0
VERTEX
  5
2836
  8
SAPA_PROFIL
 10
266.41151580819422
 20
-10.731049254314939
 30
0.0
 42
0.4142135623730951
  0
VERTEX
  5
2837
  8
SAPA_PROFIL
 10
267.91151580819422
 20
-12.231049254314939
 30
0.0
  0
VERTEX
  5
2838
  8
SAPA_PROFIL
 10
269.01151580819442
 20
-12.231049254314939
 30
0.0
 42
0.4142135623730951
  0
VERTEX
  5
2839
  8
SAPA_PROFIL
 10
269.31151580819432
 20
-11.93104925431498
 30
0.0
  0
VERTEX
  5
283A
  8
SAPA_PROFIL
 10
269.31151580819432
 20
-11.43104925431498
 30
0.0
 42
0.4142135623730951
  0
VERTEX
  5
283B
  8
SAPA_PROFIL
 10
269.01151580819442
 20
-11.131049254314799
 30
0.0
  0
VERTEX
  5
283C
  8
SAPA_PROFIL
 10
268.67488888355967
 20
-11.131049254314799
 30
0.0
 42
-0.5535245743249307
  0
VERTEX
  5
283D
  8
SAPA_PROFIL
 10
270.44740820606978
 20
-6.8204950427834774
 30
0.0
  0
VERTEX
  5
283E
  8
SAPA_PROFIL
 10
270.73473911289778
 20
-7.1078259496114242
 30
0.0
 42
0.4142135623730951
  0
VERTEX
  5
283F
  8
SAPA_PROFIL
 10
271.08829250349089
 20
-7.1078259496114242
 30
0.0
  0
VERTEX
  5
2840
  8
SAPA_PROFIL
 10
271.37562341031878
 20
-6.8204950427834774
 30
0.0
 42
-0.553524574324932
  0
VERTEX
  5
2841
  8
SAPA_PROFIL
 10
273.14814273282872
 20
-11.131049254314799
 30
0.0
  0
VERTEX
  5
2842
  8
SAPA_PROFIL
 10
272.81151580819432
 20
-11.131049254314799
 30
0.0
 42
0.4142135623730951
  0
VERTEX
  5
2843
  8
SAPA_PROFIL
 10
272.51151580819442
 20
-11.43104925431498
 30
0.0
  0
VERTEX
  5
2844
  8
SAPA_PROFIL
 10
272.51151580819442
 20
-11.93104925431498
 30
0.0
 42
0.4142135623730951
  0
VERTEX
  5
2845
  8
SAPA_PROFIL
 10
272.81151580819432
 20
-12.231049254314939
 30
0.0
  0
VERTEX
  5
2846
  8
SAPA_PROFIL
 10
275.11151580819433
 20
-12.231049254314939
 30
0.0
 42
0.4142135623730951
  0
VERTEX
  5
2847
  8
SAPA_PROFIL
 10
275.41151580819422
 20
-11.93104925431498
 30
0.0
  0
VERTEX
  5
2848
  8
SAPA_PROFIL
 10
275.41151580819422
 20
-7.531049254314893
 30
0.0
 42
-0.4142135623730951
  0
VERTEX
  5
2849
  8
SAPA_PROFIL
 10
276.41151580819422
 20
-6.531049254314893
 30
0.0
  0
VERTEX
  5
284A
  8
SAPA_PROFIL
 10
311.41151580819422
 20
-6.531049254314893
 30
0.0
 42
-0.7673269879789569
  0
VERTEX
  5
284B
  8
SAPA_PROFIL
 10
311.66151580819422
 20
-7.4640619562071597
 30
0.0
 42
0.2679491924311163
  0
VERTEX
  5
284C
  8
SAPA_PROFIL
 10
311.41151580819422
 20
-7.8970746580994273
 30
0.0
  0
VERTEX
  5
284D
  8
SAPA_PROFIL
 10
311.41151580819422
 20
-10.731049254314939
 30
0.0
 42
0.4142135623730951
  0
VERTEX
  5
284E
  8
SAPA_PROFIL
 10
312.91151580819422
 20
-12.231049254314939
 30
0.0
  0
VERTEX
  5
284F
  8
SAPA_PROFIL
 10
314.01151580819442
 20
-12.231049254314939
 30
0.0
 42
0.4142135623730951
  0
VERTEX
  5
2850
  8
SAPA_PROFIL
 10
314.31151580819432
 20
-11.93104925431498
 30
0.0
  0
VERTEX
  5
2851
  8
SAPA_PROFIL
 10
314.31151580819432
 20
-11.43104925431498
 30
0.0
 42
0.4142135623730951
  0
VERTEX
  5
2852
  8
SAPA_PROFIL
 10
314.01151580819442
 20
-11.131049254314799
 30
0.0
  0
VERTEX
  5
2853
  8
SAPA_PROFIL
 10
313.67488888355967
 20
-11.131049254314799
 30
0.0
 42
-0.5535245743249307
  0
VERTEX
  5
2854
  8
SAPA_PROFIL
 10
315.44740820606978
 20
-6.8204950427834774
 30
0.0
  0
VERTEX
  5
2855
  8
SAPA_PROFIL
 10
315.73473911289778
 20
-7.1078259496114242
 30
0.0
 42
0.4142135623731068
  0
VERTEX
  5
2856
  8
SAPA_PROFIL
 10
316.08829250349089
 20
-7.1078259496116507
 30
0.0
  0
VERTEX
  5
2857
  8
SAPA_PROFIL
 10
316.37562341031889
 20
-6.8204950427834774
 30
0.0
 42
-0.553524574324932
  0
VERTEX
  5
2858
  8
SAPA_PROFIL
 10
318.14814273282872
 20
-11.131049254314799
 30
0.0
  0
VERTEX
  5
2859
  8
SAPA_PROFIL
 10
317.81151580819432
 20
-11.131049254314799
 30
0.0
 42
0.4142135623730951
  0
VERTEX
  5
285A
  8
SAPA_PROFIL
 10
317.51151580819442
 20
-11.43104925431498
 30
0.0
  0
VERTEX
  5
285B
  8
SAPA_PROFIL
 10
317.51151580819442
 20
-11.93104925431498
 30
0.0
 42
0.4142135623730951
  0
VERTEX
  5
285C
  8
SAPA_PROFIL
 10
317.81151580819432
 20
-12.231049254314939
 30
0.0
  0
VERTEX
  5
285D
  8
SAPA_PROFIL
 10
320.11151580819433
 20
-12.231049254314939
 30
0.0
 42
0.4142135623730951
  0
VERTEX
  5
285E
  8
SAPA_PROFIL
 10
320.41151580819422
 20
-11.93104925431498
 30
0.0
  0
VERTEX
  5
285F
  8
SAPA_PROFIL
 10
320.41151580819422
 20
-7.531049254314893
 30
0.0
 42
-0.4142135623730951
  0
VERTEX
  5
2860
  8
SAPA_PROFIL
 10
321.41151580819422
 20
-6.531049254314893
 30
0.0
  0
VERTEX
  5
2861
  8
SAPA_PROFIL
 10
346.11151580819433
 20
-6.531049254314893
 30
0.0
 42
-0.4142135623730951
  0
VERTEX
  5
2862
  8
SAPA_PROFIL
 10
346.41151580819422
 20
-6.8310492543148484
 30
0.0
  0
VERTEX
  5
2863
  8
SAPA_PROFIL
 10
346.41151580819422
 20
-8.1310492543148012
 30
0.0
 42
0.4142135623730951
  0
VERTEX
  5
2864
  8
SAPA_PROFIL
 10
346.71151580819441
 20
-8.4310492543149849
 30
0.0
  0
VERTEX
  5
2865
  8
SAPA_PROFIL
 10
347.28725173948231
 20
-8.4310492543149849
 30
0.0
 42
0.1989123673796752
  0
VERTEX
  5
2866
  8
SAPA_PROFIL
 10
347.4993837738383
 20
-8.3431812886708485
 30
0.0
  0
VERTEX
  5
2867
  8
SAPA_PROFIL
 10
349.22364784255041
 20
-6.618917219958802
 30
0.0
 42
-0.1989123673796057
  0
VERTEX
  5
2868
  8
SAPA_PROFIL
 10
349.43577987690622
 20
-6.531049254314893
 30
0.0
  0
VERTEX
  5
2869
  8
SAPA_PROFIL
 10
352.91151580819422
 20
-6.531049254314893
 30
0.0
 42
-0.4142135623730951
  0
VERTEX
  5
286A
  8
SAPA_PROFIL
 10
353.91151580819422
 20
-7.531049254314893
 30
0.0
  0
VERTEX
  5
286B
  8
SAPA_PROFIL
 10
353.91151580819422
 20
-51.531049254314887
 30
0.0
 42
-0.4142135623730951
  0
VERTEX
  5
286C
  8
SAPA_PROFIL
 10
352.91151580819422
 20
-52.531049254314901
 30
0.0
  0
SEQEND
  5
286D
  8
SAPA_PROFIL
  0
POLYLINE
  5
1935
  8
SAPA_PROFIL
 66
     1
 10
0.0
 20
0.0
 30
0.0
 70
     1
  0
VERTEX
  5
286E
  8
SAPA_PROFIL
 10
261.41151580819422
 20
-35.531049254314887
 30
0.0
 42
0.4142135623730951
  0
VERTEX
  5
286F
  8
SAPA_PROFIL
 10
260.41151580819422
 20
-34.531049254314887
 30
0.0
  0
VERTEX
  5
2870
  8
SAPA_PROFIL
 10
239.21151580819441
 20
-34.531049254314887
 30
0.0
 42
-0.4142135623730951
  0
VERTEX
  5
2871
  8
SAPA_PROFIL
 10
238.9115158081942
 20
-34.231049254314939
 30
0.0
  0
VERTEX
  5
2872
  8
SAPA_PROFIL
 10
238.9115158081942
 20
-32.6067852543149
 30
0.0
  0
VERTEX
  5
2873
  8
SAPA_PROFIL
 10
239.8493837738385
 20
-31.768917219958901
 30
0.0
 42
-0.668178637919305
  0
VERTEX
  5
2874
  8
SAPA_PROFIL
 10
240.3615158081943
 20
-31.981049254314939
 30
0.0
  0
VERTEX
  5
2875
  8
SAPA_PROFIL
 10
240.3615158081943
 20
-32.231049254314939
 30
0.0
  0
VERTEX
  5
2876
  8
SAPA_PROFIL
 10
241.7377504017706
 20
-31.707768951012898
 30
0.0
 42
-0.5450207798987201
  0
VERTEX
  5
2877
  8
SAPA_PROFIL
 10
242.1615158081942
 20
-31.981049254314939
 30
0.0
  0
VERTEX
  5
2878
  8
SAPA_PROFIL
 10
242.1615158081942
 20
-32.231049254314939
 30
0.0
  0
VERTEX
  5
2879
  8
SAPA_PROFIL
 10
243.53775040177081
 20
-31.707768951012898
 30
0.0
 42
-0.5450207798987201
  0
VERTEX
  5
287A
  8
SAPA_PROFIL
 10
243.96151580819441
 20
-31.981049254314939
 30
0.0
  0
VERTEX
  5
287B
  8
SAPA_PROFIL
 10
243.96151580819441
 20
-32.231049254314939
 30
0.0
  0
VERTEX
  5
287C
  8
SAPA_PROFIL
 10
245.33775040177071
 20
-31.707768951012898
 30
0.0
 42
-0.5450207798987342
  0
VERTEX
  5
287D
  8
SAPA_PROFIL
 10
245.76151580819439
 20
-31.981049254314939
 30
0.0
  0
VERTEX
  5
287E
  8
SAPA_PROFIL
 10
245.76151580819439
 20
-32.231049254314939
 30
0.0
  0
VERTEX
  5
287F
  8
SAPA_PROFIL
 10
247.13775040177069
 20
-31.707768951012898
 30
0.0
 42
-0.5450207798987201
  0
VERTEX
  5
2880
  8
SAPA_PROFIL
 10
247.56151580819429
 20
-31.981049254314939
 30
0.0
  0
VERTEX
  5
2881
  8
SAPA_PROFIL
 10
247.56151580819429
 20
-32.231049254314939
 30
0.0
  0
VERTEX
  5
2882
  8
SAPA_PROFIL
 10
248.28523310300051
 20
-32.003286536930773
 30
0.0
 42
0.2945484962563026
  0
VERTEX
  5
2883
  8
SAPA_PROFIL
 10
248.4614677679487
 20
-31.729931723252552
 30
0.0
  0
VERTEX
  5
2884
  8
SAPA_PROFIL
 10
248.46126058598219
 20
-30.795349192062989
 30
0.0
 42
-0.3475954753796591
  0
VERTEX
  5
2885
  8
SAPA_PROFIL
 10
248.69201463015131
 20
-30.503375764993049
 30
0.0
 42
0.790522909611319
  0
VERTEX
  5
2886
  8
SAPA_PROFIL
 10
248.69202483459179
 20
-28.557385164449439
 30
0.0
 42
-0.3476065658631364
  0
VERTEX
  5
2887
  8
SAPA_PROFIL
 10
248.46127385585959
 20
-28.265397443427901
 30
0.0
  0
VERTEX
  5
2888
  8
SAPA_PROFIL
 10
248.46142057656851
 20
-27.68105659222147
 30
0.0
 42
0.4102317530969976
  0
VERTEX
  5
2889
  8
SAPA_PROFIL
 10
248.16556892841501
 20
-27.381020955729131
 30
0.0
 42
-0.0712587206050384
  0
VERTEX
  5
288A
  8
SAPA_PROFIL
 10
248.0815250034868
 20
-27.367793641859631
 30
0.0
  0
VERTEX
  5
288B
  8
SAPA_PROFIL
 10
246.6615158081942
 20
-26.831049254314848
 30
0.0
  0
VERTEX
  5
288C
  8
SAPA_PROFIL
 10
246.6615158081942
 20
-27.081049254314848
 30
0.0
 42
-0.5450200690651619
  0
VERTEX
  5
288D
  8
SAPA_PROFIL
 10
246.23775080819419
 20
-27.354330254314849
 30
0.0
  0
VERTEX
  5
288E
  8
SAPA_PROFIL
 10
244.8615158081943
 20
-26.831049254314848
 30
0.0
  0
VERTEX
  5
288F
  8
SAPA_PROFIL
 10
244.8615158081945
 20
-27.081049254314848
 30
0.0
 42
-0.545020069065176
  0
VERTEX
  5
2890
  8
SAPA_PROFIL
 10
244.43775080819421
 20
-27.354330254314849
 30
0.0
  0
VERTEX
  5
2891
  8
SAPA_PROFIL
 10
243.06151580819429
 20
-26.831049254314848
 30
0.0
  0
VERTEX
  5
2892
  8
SAPA_PROFIL
 10
243.06151580819429
 20
-27.081049254314848
 30
0.0
 42
-0.5450200690651692
  0
VERTEX
  5
2893
  8
SAPA_PROFIL
 10
242.63775080819431
 20
-27.354330254314849
 30
0.0
  0
VERTEX
  5
2894
  8
SAPA_PROFIL
 10
241.26151580819439
 20
-26.831049254314848
 30
0.0
  0
VERTEX
  5
2895
  8
SAPA_PROFIL
 10
241.26151580819439
 20
-27.38104925431481
 30
0.0
  0
VERTEX
  5
2896
  8
SAPA_PROFIL
 10
240.06151580819429
 20
-27.38104925431481
 30
0.0
 42
-0.1989123673797004
  0
VERTEX
  5
2897
  8
SAPA_PROFIL
 10
239.8493838081942
 20
-27.293181254314959
 30
0.0
  0
VERTEX
  5
2898
  8
SAPA_PROFIL
 10
238.9115158081942
 20
-26.455313254314891
 30
0.0
  0
VERTEX
  5
2899
  8
SAPA_PROFIL
 10
238.9115158081942
 20
-24.831049254314848
 30
0.0
 42
-0.4142135623730951
  0
VERTEX
  5
289A
  8
SAPA_PROFIL
 10
239.21151580819441
 20
-24.53104925431489
 30
0.0
  0
VERTEX
  5
289B
  8
SAPA_PROFIL
 10
260.41151580819422
 20
-24.53104925431489
 30
0.0
 42
0.4142135623730951
  0
VERTEX
  5
289C
  8
SAPA_PROFIL
 10
261.41151580819422
 20
-23.53104925431489
 30
0.0
  0
VERTEX
  5
289D
  8
SAPA_PROFIL
 10
261.41151580819422
 20
-15.33104925431485
 30
0.0
 42
0.4142135623730951
  0
VERTEX
  5
289E
  8
SAPA_PROFIL
 10
260.91151580819422
 20
-14.83104925431485
 30
0.0
  0
VERTEX
  5
289F
  8
SAPA_PROFIL
 10
257.71151580819441
 20
-14.83104925431485
 30
0.0
 42
0.4142135623730951
  0
VERTEX
  5
28A0
  8
SAPA_PROFIL
 10
257.21151580819441
 20
-15.33104925431485
 30
0.0
  0
VERTEX
  5
28A1
  8
SAPA_PROFIL
 10
257.21151580819441
 20
-18.231049254314939
 30
0.0
 42
-0.4142135623730951
  0
VERTEX
  5
28A2
  8
SAPA_PROFIL
 10
256.91151580819422
 20
-18.53104925431489
 30
0.0
  0
VERTEX
  5
28A3
  8
SAPA_PROFIL
 10
256.21151580819441
 20
-18.53104925431489
 30
0.0
 42
-0.4142135623730951
  0
VERTEX
  5
28A4
  8
SAPA_PROFIL
 10
255.9115158081942
 20
-18.231049254314939
 30
0.0
  0
VERTEX
  5
28A5
  8
SAPA_PROFIL
 10
255.9115158081942
 20
-11.53104925431489
 30
0.0
  0
VERTEX
  5
28A6
  8
SAPA_PROFIL
 10
256.37643922755342
 20
-10.94466523881419
 30
0.0
 42
-0.7105995019814511
  0
VERTEX
  5
28A7
  8
SAPA_PROFIL
 10
256.91151580819422
 20
-11.131049254314799
 30
0.0
  0
VERTEX
  5
28A8
  8
SAPA_PROFIL
 10
256.91151580819422
 20
-13.03104925431489
 30
0.0
 42
0.4142135623730951
  0
VERTEX
  5
28A9
  8
SAPA_PROFIL
 10
257.21151580819441
 20
-13.33104925431485
 30
0.0
  0
VERTEX
  5
28AA
  8
SAPA_PROFIL
 10
261.11151580819433
 20
-13.33104925431485
 30
0.0
 42
0.4142135623730951
  0
VERTEX
  5
28AB
  8
SAPA_PROFIL
 10
261.41151580819422
 20
-13.03104925431489
 30
0.0
  0
VERTEX
  5
28AC
  8
SAPA_PROFIL
 10
261.41151580819422
 20
-6.3310492543148484
 30
0.0
 42
0.4142135623730951
  0
VERTEX
  5
28AD
  8
SAPA_PROFIL
 10
261.11151580819433
 20
-6.031049254314893
 30
0.0
  0
VERTEX
  5
28AE
  8
SAPA_PROFIL
 10
257.21151580819441
 20
-6.031049254314893
 30
0.0
 42
0.4142135623730951
  0
VERTEX
  5
28AF
  8
SAPA_PROFIL
 10
256.91151580819422
 20
-6.3310492543148484
 30
0.0
  0
VERTEX
  5
28B0
  8
SAPA_PROFIL
 10
256.91151580819422
 20
-7.531049254314893
 30
0.0
 42
-0.7105990647993611
  0
VERTEX
  5
28B1
  8
SAPA_PROFIL
 10
256.37643980819428
 20
-7.7174332543149831
 30
0.0
  0
VERTEX
  5
28B2
  8
SAPA_PROFIL
 10
255.9115158081942
 20
-7.1310492543148021
 30
0.0
  0
VERTEX
  5
28B3
  8
SAPA_PROFIL
 10
255.9115158081942
 20
-4.8310492543148484
 30
0.0
 42
-0.4142135623730951
  0
VERTEX
  5
28B4
  8
SAPA_PROFIL
 10
256.21151580819441
 20
-4.531049254314893
 30
0.0
  0
VERTEX
  5
28B5
  8
SAPA_PROFIL
 10
355.41151580819422
 20
-4.531049254314893
 30
0.0
 42
-0.4142135623730951
  0
VERTEX
  5
28B6
  8
SAPA_PROFIL
 10
355.91151580819422
 20
-5.031049254314893
 30
0.0
  0
VERTEX
  5
28B7
  8
SAPA_PROFIL
 10
355.91151580819422
 20
-54.031049254314887
 30
0.0
 42
-0.4142135623730951
  0
VERTEX
  5
28B8
  8
SAPA_PROFIL
 10
355.41151580819422
 20
-54.531049254314887
 30
0.0
  0
VERTEX
  5
28B9
  8
SAPA_PROFIL
 10
256.21151580819441
 20
-54.531049254314887
 30
0.0
 42
-0.4142135623730951
  0
VERTEX
  5
28BA
  8
SAPA_PROFIL
 10
255.9115158081942
 20
-54.231049254314939
 30
0.0
  0
VERTEX
  5
28BB
  8
SAPA_PROFIL
 10
255.9115158081942
 20
-51.931049254314978
 30
0.0
  0
VERTEX
  5
28BC
  8
SAPA_PROFIL
 10
256.37643922755342
 20
-51.344665238814279
 30
0.0
 42
-0.7105995019814511
  0
VERTEX
  5
28BD
  8
SAPA_PROFIL
 10
256.91151580819422
 20
-51.531049254314887
 30
0.0
  0
VERTEX
  5
28BE
  8
SAPA_PROFIL
 10
256.91151580819422
 20
-52.731049254314939
 30
0.0
 42
0.4142135623730951
  0
VERTEX
  5
28BF
  8
SAPA_PROFIL
 10
257.21151580819441
 20
-53.031049254314887
 30
0.0
  0
VERTEX
  5
28C0
  8
SAPA_PROFIL
 10
261.11151580819433
 20
-53.031049254314887
 30
0.0
 42
0.4142135623730951
  0
VERTEX
  5
28C1
  8
SAPA_PROFIL
 10
261.41151580819422
 20
-52.731049254314939
 30
0.0
  0
VERTEX
  5
28C2
  8
SAPA_PROFIL
 10
261.41151580819422
 20
-46.031049254314887
 30
0.0
 42
0.4142135623730951
  0
VERTEX
  5
28C3
  8
SAPA_PROFIL
 10
261.11151580819433
 20
-45.731049254314932
 30
0.0
  0
VERTEX
  5
28C4
  8
SAPA_PROFIL
 10
257.21151580819441
 20
-45.731049254314932
 30
0.0
 42
0.4142135623730951
  0
VERTEX
  5
28C5
  8
SAPA_PROFIL
 10
256.91151580819422
 20
-46.031049254314887
 30
0.0
  0
VERTEX
  5
28C6
  8
SAPA_PROFIL
 10
256.91151580819422
 20
-47.931049254314992
 30
0.0
 42
-0.7105995019814511
  0
VERTEX
  5
28C7
  8
SAPA_PROFIL
 10
256.37643922755342
 20
-48.117433269815592
 30
0.0
  0
VERTEX
  5
28C8
  8
SAPA_PROFIL
 10
255.9115158081942
 20
-47.531049254314887
 30
0.0
  0
VERTEX
  5
28C9
  8
SAPA_PROFIL
 10
255.9115158081942
 20
-40.831049254314841
 30
0.0
 42
-0.4142135623730951
  0
VERTEX
  5
28CA
  8
SAPA_PROFIL
 10
256.21151580819441
 20
-40.531049254314887
 30
0.0
  0
VERTEX
  5
28CB
  8
SAPA_PROFIL
 10
256.91151580819422
 20
-40.531049254314887
 30
0.0
 42
-0.4142135623730951
  0
VERTEX
  5
28CC
  8
SAPA_PROFIL
 10
257.21151580819441
 20
-40.831049254314841
 30
0.0
  0
VERTEX
  5
28CD
  8
SAPA_PROFIL
 10
257.21151580819441
 20
-43.731049254314932
 30
0.0
 42
0.4142135623730951
  0
VERTEX
  5
28CE
  8
SAPA_PROFIL
 10
257.71151580819441
 20
-44.231049254314939
 30
0.0
  0
VERTEX
  5
28CF
  8
SAPA_PROFIL
 10
260.91151580819422
 20
-44.231049254314939
 30
0.0
 42
0.4142135623730951
  0
VERTEX
  5
28D0
  8
SAPA_PROFIL
 10
261.41151580819422
 20
-43.731049254314932
 30
0.0
  0
SEQEND
  5
28D1
  8
SAPA_PROFIL
  0
POLYLINE
  5
1944
  8
SAPA_GLAS
 66
     1
 10
0.0
 20
0.0
 30
0.0
  0
VERTEX
  5
2906
  8
SAPA_GLAS
 10
242.9115158091852
 20
-70.531049254310588
 30
0.0
  0
VERTEX
  5
2907
  8
SAPA_GLAS
 10
242.9115158091852
 20
-40.531049254310588
 30
0.0
  0
VERTEX
  5
2908
  8
SAPA_GLAS
 10
246.9115158091852
 20
-40.531049254310588
 30
0.0
  0
VERTEX
  5
2909
  8
SAPA_GLAS
 10
246.9115158091852
 20
-70.531049254310588
 30
0.0
  0
SEQEND
  5
290A
  8
SAPA_GLAS
  0
POLYLINE
  5
1945
  8
SAPA_GLAS
 66
     1
 10
0.0
 20
0.0
 30
0.0
  0
VERTEX
  5
290B
  8
SAPA_GLAS
 10
230.9115158091852
 20
-50.531049254309679
 30
0.0
  0
VERTEX
  5
290C
  8
SAPA_GLAS
 10
242.9115158091852
 20
-50.531049254309679
 30
0.0
  0
VERTEX
  5
290D
  8
SAPA_GLAS
 10
242.9115158091852
 20
-40.531049254310588
 30
0.0
  0
VERTEX
  5
290E
  8
SAPA_GLAS
 10
230.9115158091852
 20
-40.531049254310588
 30
0.0
  0
VERTEX
  5
290F
  8
SAPA_GLAS
 10
230.9115158091852
 20
-50.531049254309679
 30
0.0
  0
SEQEND
  5
2910
  8
SAPA_GLAS
  0
POLYLINE
  5
1946
  8
SAPA_GLAS
 66
     1
 10
0.0
 20
0.0
 30
0.0
  0
VERTEX
  5
2911
  8
SAPA_GLAS
 10
226.9115158091852
 20
-70.531049254310588
 30
0.0
  0
VERTEX
  5
2912
  8
SAPA_GLAS
 10
226.9115158091852
 20
-40.531049254310588
 30
0.0
  0
VERTEX
  5
2913
  8
SAPA_GLAS
 10
230.9115158091852
 20
-40.531049254310588
 30
0.0
  0
VERTEX
  5
2914
  8
SAPA_GLAS
 10
230.9115158091852
 20
-70.531049254310588
 30
0.0
  0
SEQEND
  5
2915
  8
SAPA_GLAS
  0
POLYLINE
  5
1947
  8
SAPA_GLAS
 66
     1
 10
0.0
 20
0.0
 30
0.0
  0
VERTEX
  5
2916
  8
SAPA_GLAS
 10
214.9115158091837
 20
-50.531049254309671
 30
0.0
  0
VERTEX
  5
2917
  8
SAPA_GLAS
 10
226.9115158091852
 20
-50.531049254309671
 30
0.0
  0
VERTEX
  5
2918
  8
SAPA_GLAS
 10
226.9115158091852
 20
-40.531049254310588
 30
0.0
  0
VERTEX
  5
2919
  8
SAPA_GLAS
 10
214.9115158091837
 20
-40.531049254310581
 30
0.0
  0
VERTEX
  5
291A
  8
SAPA_GLAS
 10
214.9115158091837
 20
-50.531049254309671
 30
0.0
  0
SEQEND
  5
291B
  8
SAPA_GLAS
  0
POLYLINE
  5
1948
  8
SAPA_GLAS
 66
     1
 10
0.0
 20
0.0
 30
0.0
  0
VERTEX
  5
291C
  8
SAPA_GLAS
 10
208.9115158091837
 20
-70.531049254310574
 30
0.0
  0
VERTEX
  5
291D
  8
SAPA_GLAS
 10
208.9115158091837
 20
-40.531049254310581
 30
0.0
  0
VERTEX
  5
291E
  8
SAPA_GLAS
 10
214.9115158091837
 20
-40.531049254310581
 30
0.0
  0
VERTEX
  5
291F
  8
SAPA_GLAS
 10
214.9115158091837
 20
-70.531049254310574
 30
0.0
  0
SEQEND
  5
2920
  8
SAPA_GLAS
  0
POLYLINE
  5
1949
  8
SAPA_GLAS
 66
     1
 10
0.0
 20
0.0
 30
0.0
 70
     1
  0
VERTEX
  5
2921
  8
SAPA_GLAS
 10
223.9089466636527
 20
102.96895074572841
 30
0.0
  0
VERTEX
  5
2922
  8
SAPA_GLAS
 10
238.9089466636527
 20
102.96895074572841
 30
0.0
  0
VERTEX
  5
2923
  8
SAPA_GLAS
 10
238.9089466636527
 20
92.968950745728435
 30
0.0
  0
VERTEX
  5
2924
  8
SAPA_GLAS
 10
223.9089466636527
 20
92.968950745728435
 30
0.0
  0
SEQEND
  5
2925
  8
SAPA_GLAS
  0
POLYLINE
  5
194A
  8
SAPA_GLAS
 66
     1
 10
0.0
 20
0.0
 30
0.0
 70
     1
  0
VERTEX
  5
2926
  8
SAPA_GLAS
 10
242.9089466636527
 20
102.96895074572841
 30
0.0
  0
VERTEX
  5
2927
  8
SAPA_GLAS
 10
257.90894666365273
 20
102.96895074572841
 30
0.0
  0
VERTEX
  5
2928
  8
SAPA_GLAS
 10
257.90894666365273
 20
92.968950745728435
 30
0.0
  0
VERTEX
  5
2929
  8
SAPA_GLAS
 10
242.9089466636527
 20
92.968950745728435
 30
0.0
  0
SEQEND
  5
292A
  8
SAPA_GLAS
  0
POLYLINE
  5
194B
  8
SAPA_GLAS
 66
     1
 10
0.0
 20
0.0
 30
0.0
  0
VERTEX
  5
292B
  8
SAPA_GLAS
 10
242.9089466636527
 20
122.96895074572819
 30
0.0
  0
VERTEX
  5
292C
  8
SAPA_GLAS
 10
242.9089466636527
 20
92.968950745728193
 30
0.0
  0
VERTEX
  5
292D
  8
SAPA_GLAS
 10
238.9089466636527
 20
92.968950745728193
 30
0.0
  0
VERTEX
  5
292E
  8
SAPA_GLAS
 10
238.9089466636527
 20
122.96895074572819
 30
0.0
  0
SEQEND
  5
292F
  8
SAPA_GLAS
  0
POLYLINE
  5
194C
  8
SAPA_GLAS
 66
     1
 10
0.0
 20
0.0
 30
0.0
  0
VERTEX
  5
2930
  8
SAPA_GLAS
 10
263.90894666365273
 20
122.96895074572819
 30
0.0
  0
VERTEX
  5
2931
  8
SAPA_GLAS
 10
263.90894666365273
 20
92.968950745728193
 30
0.0
  0
VERTEX
  5
2932
  8
SAPA_GLAS
 10
257.90894666365273
 20
92.968950745728193
 30
0.0
  0
VERTEX
  5
2933
  8
SAPA_GLAS
 10
257.90894666365273
 20
122.96895074572819
 30
0.0
  0
SEQEND
  5
2934
  8
SAPA_GLAS
  0
POLYLINE
  5
194D
  8
SAPA_GLAS
 66
     1
 10
0.0
 20
0.0
 30
0.0
  0
VERTEX
  5
2935
  8
SAPA_GLAS
 10
217.9089466636527
 20
122.96895074572819
 30
0.0
  0
VERTEX
  5
2936
  8
SAPA_GLAS
 10
217.9089466636527
 20
92.968950745728193
 30
0.0
  0
VERTEX
  5
2937
  8
SAPA_GLAS
 10
223.9089466636527
 20
92.968950745728193
 30
0.0
  0
VERTEX
  5
2938
  8
SAPA_GLAS
 10
223.9089466636527
 20
122.96895074572819
 30
0.0
  0
SEQEND
  5
2939
  8
SAPA_GLAS
  0
LINE
  5
1959
  8
SAPA_ISOLATOR
 10
302.02643391431781
 20
-4.5577412500156127
 30
0.0
 11
302.02643391431781
 21
1.636882517167247
 31
0.0
  0
LINE
  5
195A
  8
SAPA_ISOLATOR
 10
245.91023139444869
 20
-4.557741250015602
 30
0.0
 11
302.02643391431781
 21
-4.5577412500156127
 31
0.0
  0
LINE
  5
195B
  8
SAPA_ISOLATOR
 10
245.91023139444869
 20
1.6368825171690771
 30
0.0
 11
245.91023139444869
 21
-4.557741250015602
 31
0.0
  0
LINE
  5
195C
  8
SAPA_ISOLATOR
 10
302.02643391431781
 20
1.642258749984318
 30
0.0
 11
245.91023139444869
 21
1.6368825171690771
 31
0.0
  0
LINE
  5
195D
  8
SAPA_ISOLATOR
 10
243.3203529436698
 20
18.795226673116961
 30
0.0
 11
243.3209943433931
 21
18.795226673116961
 31
0.0
  0
LINE
  5
195E
  8
SAPA_ISOLATOR
 10
245.91023139444869
 20
1.6368825171690771
 30
0.0
 11
302.02643391431781
 21
-4.5577412500156127
 31
0.0
  0
LINE
  5
195F
  8
SAPA_ISOLATOR
 10
302.02643391431781
 20
1.658846052869773
 30
0.0
 11
245.91023139444869
 21
-4.5465301799453988
 31
0.0
  0
POLYLINE
  5
197E
  8
SAPA_FOGBAND
 62
     2
 10
267.5003220354393
 20
97.742736191776515
 30
0.0
 66
     1
 70
     8
  0
VERTEX
  8
SAPA_FOGBAND
  5
2BF6
 10
267.500
 20
97.7427
 30
0.000000
  70
    32
  0
VERTEX
  8
SAPA_FOGBAND
  5
2BF7
 10
267.432
 20
97.7401
 30
0.000000
  70
    32
  0
VERTEX
  8
SAPA_FOGBAND
  5
2BF8
 10
267.363
 20
97.7323
 30
0.000000
  70
    32
  0
VERTEX
  8
SAPA_FOGBAND
  5
2BF9
 10
267.295
 20
97.7193
 30
0.000000
  70
    32
  0
VERTEX
  8
SAPA_FOGBAND
  5
2BFA
 10
267.227
 20
97.7011
 30
0.000000
  70
    32
  0
VERTEX
  8
SAPA_FOGBAND
  5
2BFB
 10
267.160
 20
97.6778
 30
0.000000
  70
    32
  0
VERTEX
  8
SAPA_FOGBAND
  5
2BFC
 10
267.094
 20
97.6494
 30
0.000000
  70
    32
  0
VERTEX
  8
SAPA_FOGBAND
  5
2BFD
 10
267.029
 20
97.6160
 30
0.000000
  70
    32
  0
VERTEX
  8
SAPA_FOGBAND
  5
2BFE
 10
266.965
 20
97.5777
 30
0.000000
  70
    32
  0
VERTEX
  8
SAPA_FOGBAND
  5
2BFF
 10
266.902
 20
97.5346
 30
0.000000
  70
    32
  0
VERTEX
  8
SAPA_FOGBAND
  5
2C00
 10
266.840
 20
97.4868
 30
0.000000
  70
    32
  0
VERTEX
  8
SAPA_FOGBAND
  5
2C01
 10
266.781
 20
97.4343
 30
0.000000
  70
    32
  0
VERTEX
  8
SAPA_FOGBAND
  5
2C02
 10
266.723
 20
97.3774
 30
0.000000
  70
    32
  0
VERTEX
  8
SAPA_FOGBAND
  5
2C03
 10
266.666
 20
97.3161
 30
0.000000
  70
    32
  0
VERTEX
  8
SAPA_FOGBAND
  5
2C04
 10
266.612
 20
97.2507
 30
0.000000
  70
    32
  0
VERTEX
  8
SAPA_FOGBAND
  5
2C05
 10
266.560
 20
97.1812
 30
0.000000
  70
    32
  0
VERTEX
  8
SAPA_FOGBAND
  5
2C06
 10
266.510
 20
97.1078
 30
0.000000
  70
    32
  0
VERTEX
  8
SAPA_FOGBAND
  5
2C07
 10
266.463
 20
97.0307
 30
0.000000
  70
    32
  0
VERTEX
  8
SAPA_FOGBAND
  5
2C08
 10
266.418
 20
96.9502
 30
0.000000
  70
    32
  0
VERTEX
  8
SAPA_FOGBAND
  5
2C09
 10
266.376
 20
96.8663
 30
0.000000
  70
    32
  0
VERTEX
  8
SAPA_FOGBAND
  5
2C0A
 10
266.336
 20
96.7793
 30
0.000000
  70
    32
  0
VERTEX
  8
SAPA_FOGBAND
  5
2C0B
 10
266.300
 20
96.6894
 30
0.000000
  70
    32
  0
VERTEX
  8
SAPA_FOGBAND
  5
2C0C
 10
266.266
 20
96.5968
 30
0.000000
  70
    32
  0
VERTEX
  8
SAPA_FOGBAND
  5
2C0D
 10
266.235
 20
96.5018
 30
0.000000
  70
    32
  0
VERTEX
  8
SAPA_FOGBAND
  5
2C0E
 10
266.207
 20
96.4045
 30
0.000000
  70
    32
  0
VERTEX
  8
SAPA_FOGBAND
  5
2C0F
 10
266.182
 20
96.3053
 30
0.000000
  70
    32
  0
VERTEX
  8
SAPA_FOGBAND
  5
2C10
 10
266.161
 20
96.2042
 30
0.000000
  70
    32
  0
VERTEX
  8
SAPA_FOGBAND
  5
2C11
 10
266.142
 20
96.1017
 30
0.000000
  70
    32
  0
VERTEX
  8
SAPA_FOGBAND
  5
2C12
 10
266.127
 20
95.9979
 30
0.000000
  70
    32
  0
VERTEX
  8
SAPA_FOGBAND
  5
2C13
 10
266.115
 20
95.8930
 30
0.000000
  70
    32
  0
VERTEX
  8
SAPA_FOGBAND
  5
2C14
 10
266.107
 20
95.7874
 30
0.000000
  70
    32
  0
VERTEX
  8
SAPA_FOGBAND
  5
2C15
 10
266.102
 20
95.6813
 30
0.000000
  70
    32
  0
VERTEX
  8
SAPA_FOGBAND
  5
2C16
 10
266.100
 20
95.5749
 30
0.000000
  70
    32
  0
VERTEX
  8
SAPA_FOGBAND
  5
2C17
 10
266.102
 20
95.4686
 30
0.000000
  70
    32
  0
VERTEX
  8
SAPA_FOGBAND
  5
2C18
 10
266.107
 20
95.3625
 30
0.000000
  70
    32
  0
VERTEX
  8
SAPA_FOGBAND
  5
2C19
 10
266.115
 20
95.2569
 30
0.000000
  70
    32
  0
VERTEX
  8
SAPA_FOGBAND
  5
2C1A
 10
266.127
 20
95.1520
 30
0.000000
  70
    32
  0
VERTEX
  8
SAPA_FOGBAND
  5
2C1B
 10
266.142
 20
95.0482
 30
0.000000
  70
    32
  0
VERTEX
  8
SAPA_FOGBAND
  5
2C1C
 10
266.161
 20
94.9457
 30
0.000000
  70
    32
  0
VERTEX
  8
SAPA_FOGBAND
  5
2C1D
 10
266.182
 20
94.8446
 30
0.000000
  70
    32
  0
VERTEX
  8
SAPA_FOGBAND
  5
2C1E
 10
266.207
 20
94.7454
 30
0.000000
  70
    32
  0
VERTEX
  8
SAPA_FOGBAND
  5
2C1F
 10
266.235
 20
94.6481
 30
0.000000
  70
    32
  0
VERTEX
  8
SAPA_FOGBAND
  5
2C20
 10
266.266
 20
94.5531
 30
0.000000
  70
    32
  0
VERTEX
  8
SAPA_FOGBAND
  5
2C21
 10
266.300
 20
94.4605
 30
0.000000
  70
    32
  0
VERTEX
  8
SAPA_FOGBAND
  5
2C22
 10
266.336
 20
94.3706
 30
0.000000
  70
    32
  0
VERTEX
  8
SAPA_FOGBAND
  5
2C23
 10
266.376
 20
94.2836
 30
0.000000
  70
    32
  0
VERTEX
  8
SAPA_FOGBAND
  5
2C24
 10
266.418
 20
94.1997
 30
0.000000
  70
    32
  0
VERTEX
  8
SAPA_FOGBAND
  5
2C25
 10
266.463
 20
94.1191
 30
0.000000
  70
    32
  0
VERTEX
  8
SAPA_FOGBAND
  5
2C26
 10
266.510
 20
94.0421
 30
0.000000
  70
    32
  0
VERTEX
  8
SAPA_FOGBAND
  5
2C27
 10
266.560
 20
93.9687
 30
0.000000
  70
    32
  0
VERTEX
  8
SAPA_FOGBAND
  5
2C28
 10
266.612
 20
93.8992
 30
0.000000
  70
    32
  0
VERTEX
  8
SAPA_FOGBAND
  5
2C29
 10
266.666
 20
93.8338
 30
0.000000
  70
    32
  0
VERTEX
  8
SAPA_FOGBAND
  5
2C2A
 10
266.723
 20
93.7725
 30
0.000000
  70
    32
  0
VERTEX
  8
SAPA_FOGBAND
  5
2C2B
 10
266.781
 20
93.7156
 30
0.000000
  70
    32
  0
VERTEX
  8
SAPA_FOGBAND
  5
2C2C
 10
266.840
 20
93.6631
 30
0.000000
  70
    32
  0
VERTEX
  8
SAPA_FOGBAND
  5
2C2D
 10
266.902
 20
93.6153
 30
0.000000
  70
    32
  0
VERTEX
  8
SAPA_FOGBAND
  5
2C2E
 10
266.965
 20
93.5722
 30
0.000000
  70
    32
  0
VERTEX
  8
SAPA_FOGBAND
  5
2C2F
 10
267.029
 20
93.5339
 30
0.000000
  70
    32
  0
VERTEX
  8
SAPA_FOGBAND
  5
2C30
 10
267.094
 20
93.5005
 30
0.000000
  70
    32
  0
VERTEX
  8
SAPA_FOGBAND
  5
2C31
 10
267.160
 20
93.4721
 30
0.000000
  70
    32
  0
VERTEX
  8
SAPA_FOGBAND
  5
2C32
 10
267.227
 20
93.4488
 30
0.000000
  70
    32
  0
VERTEX
  8
SAPA_FOGBAND
  5
2C33
 10
267.295
 20
93.4306
 30
0.000000
  70
    32
  0
VERTEX
  8
SAPA_FOGBAND
  5
2C34
 10
267.363
 20
93.4176
 30
0.000000
  70
    32
  0
VERTEX
  8
SAPA_FOGBAND
  5
2C35
 10
267.432
 20
93.4098
 30
0.000000
  70
    32
  0
VERTEX
  8
SAPA_FOGBAND
  5
2C36
 10
267.500
 20
93.4072
 30
0.000000
  70
    32
  0
VERTEX
  8
SAPA_FOGBAND
  5
2C37
 10
267.569
 20
93.4098
 30
0.000000
  70
    32
  0
VERTEX
  8
SAPA_FOGBAND
  5
2C38
 10
267.638
 20
93.4176
 30
0.000000
  70
    32
  0
VERTEX
  8
SAPA_FOGBAND
  5
2C39
 10
267.706
 20
93.4306
 30
0.000000
  70
    32
  0
VERTEX
  8
SAPA_FOGBAND
  5
2C3A
 10
267.773
 20
93.4488
 30
0.000000
  70
    32
  0
VERTEX
  8
SAPA_FOGBAND
  5
2C3B
 10
267.840
 20
93.4721
 30
0.000000
  70
    32
  0
VERTEX
  8
SAPA_FOGBAND
  5
2C3C
 10
267.907
 20
93.5005
 30
0.000000
  70
    32
  0
VERTEX
  8
SAPA_FOGBAND
  5
2C3D
 10
267.972
 20
93.5339
 30
0.000000
  70
    32
  0
VERTEX
  8
SAPA_FOGBAND
  5
2C3E
 10
268.036
 20
93.5722
 30
0.000000
  70
    32
  0
VERTEX
  8
SAPA_FOGBAND
  5
2C3F
 10
268.099
 20
93.6153
 30
0.000000
  70
    32
  0
VERTEX
  8
SAPA_FOGBAND
  5
2C40
 10
268.160
 20
93.6631
 30
0.000000
  70
    32
  0
VERTEX
  8
SAPA_FOGBAND
  5
2C41
 10
268.220
 20
93.7156
 30
0.000000
  70
    32
  0
VERTEX
  8
SAPA_FOGBAND
  5
2C42
 10
268.278
 20
93.7725
 30
0.000000
  70
    32
  0
VERTEX
  8
SAPA_FOGBAND
  5
2C43
 10
268.334
 20
93.8338
 30
0.000000
  70
    32
  0
VERTEX
  8
SAPA_FOGBAND
  5
2C44
 10
268.388
 20
93.8992
 30
0.000000
  70
    32
  0
VERTEX
  8
SAPA_FOGBAND
  5
2C45
 10
268.441
 20
93.9687
 30
0.000000
  70
    32
  0
VERTEX
  8
SAPA_FOGBAND
  5
2C46
 10
268.490
 20
94.0421
 30
0.000000
  70
    32
  0
VERTEX
  8
SAPA_FOGBAND
  5
2C47
 10
268.538
 20
94.1191
 30
0.000000
  70
    32
  0
VERTEX
  8
SAPA_FOGBAND
  5
2C48
 10
268.583
 20
94.1997
 30
0.000000
  70
    32
  0
VERTEX
  8
SAPA_FOGBAND
  5
2C49
 10
268.625
 20
94.2836
 30
0.000000
  70
    32
  0
VERTEX
  8
SAPA_FOGBAND
  5
2C4A
 10
268.664
 20
94.3706
 30
0.000000
  70
    32
  0
VERTEX
  8
SAPA_FOGBAND
  5
2C4B
 10
268.701
 20
94.4605
 30
0.000000
  70
    32
  0
VERTEX
  8
SAPA_FOGBAND
  5
2C4C
 10
268.735
 20
94.5531
 30
0.000000
  70
    32
  0
VERTEX
  8
SAPA_FOGBAND
  5
2C4D
 10
268.766
 20
94.6481
 30
0.000000
  70
    32
  0
VERTEX
  8
SAPA_FOGBAND
  5
2C4E
 10
268.794
 20
94.7454
 30
0.000000
  70
    32
  0
VERTEX
  8
SAPA_FOGBAND
  5
2C4F
 10
268.818
 20
94.8446
 30
0.000000
  70
    32
  0
VERTEX
  8
SAPA_FOGBAND
  5
2C50
 10
268.840
 20
94.9457
 30
0.000000
  70
    32
  0
VERTEX
  8
SAPA_FOGBAND
  5
2C51
 10
268.858
 20
95.0482
 30
0.000000
  70
    32
  0
VERTEX
  8
SAPA_FOGBAND
  5
2C52
 10
268.873
 20
95.1520
 30
0.000000
  70
    32
  0
VERTEX
  8
SAPA_FOGBAND
  5
2C53
 10
268.885
 20
95.2569
 30
0.000000
  70
    32
  0
VERTEX
  8
SAPA_FOGBAND
  5
2C54
 10
268.894
 20
95.3625
 30
0.000000
  70
    32
  0
VERTEX
  8
SAPA_FOGBAND
  5
2C55
 10
268.899
 20
95.4686
 30
0.000000
  70
    32
  0
VERTEX
  8
SAPA_FOGBAND
  5
2C56
 10
268.900
 20
95.5749
 30
0.000000
  70
    32
  0
VERTEX
  8
SAPA_FOGBAND
  5
2C57
 10
268.899
 20
95.6813
 30
0.000000
  70
    32
  0
VERTEX
  8
SAPA_FOGBAND
  5
2C58
 10
268.894
 20
95.7874
 30
0.000000
  70
    32
  0
VERTEX
  8
SAPA_FOGBAND
  5
2C59
 10
268.885
 20
95.8930
 30
0.000000
  70
    32
  0
VERTEX
  8
SAPA_FOGBAND
  5
2C5A
 10
268.873
 20
95.9979
 30
0.000000
  70
    32
  0
VERTEX
  8
SAPA_FOGBAND
  5
2C5B
 10
268.858
 20
96.1017
 30
0.000000
  70
    32
  0
VERTEX
  8
SAPA_FOGBAND
  5
2C5C
 10
268.840
 20
96.2042
 30
0.000000
  70
    32
  0
VERTEX
  8
SAPA_FOGBAND
  5
2C5D
 10
268.818
 20
96.3053
 30
0.000000
  70
    32
  0
VERTEX
  8
SAPA_FOGBAND
  5
2C5E
 10
268.794
 20
96.4045
 30
0.000000
  70
    32
  0
VERTEX
  8
SAPA_FOGBAND
  5
2C5F
 10
268.766
 20
96.5018
 30
0.000000
  70
    32
  0
VERTEX
  8
SAPA_FOGBAND
  5
2C60
 10
268.735
 20
96.5968
 30
0.000000
  70
    32
  0
VERTEX
  8
SAPA_FOGBAND
  5
2C61
 10
268.701
 20
96.6894
 30
0.000000
  70
    32
  0
VERTEX
  8
SAPA_FOGBAND
  5
2C62
 10
268.664
 20
96.7793
 30
0.000000
  70
    32
  0
VERTEX
  8
SAPA_FOGBAND
  5
2C63
 10
268.625
 20
96.8663
 30
0.000000
  70
    32
  0
VERTEX
  8
SAPA_FOGBAND
  5
2C64
 10
268.583
 20
96.9502
 30
0.000000
  70
    32
  0
VERTEX
  8
SAPA_FOGBAND
  5
2C65
 10
268.538
 20
97.0307
 30
0.000000
  70
    32
  0
VERTEX
  8
SAPA_FOGBAND
  5
2C66
 10
268.490
 20
97.1078
 30
0.000000
  70
    32
  0
VERTEX
  8
SAPA_FOGBAND
  5
2C67
 10
268.441
 20
97.1812
 30
0.000000
  70
    32
  0
VERTEX
  8
SAPA_FOGBAND
  5
2C68
 10
268.388
 20
97.2507
 30
0.000000
  70
    32
  0
VERTEX
  8
SAPA_FOGBAND
  5
2C69
 10
268.334
 20
97.3161
 30
0.000000
  70
    32
  0
VERTEX
  8
SAPA_FOGBAND
  5
2C6A
 10
268.278
 20
97.3774
 30
0.000000
  70
    32
  0
VERTEX
  8
SAPA_FOGBAND
  5
2C6B
 10
268.220
 20
97.4343
 30
0.000000
  70
    32
  0
VERTEX
  8
SAPA_FOGBAND
  5
2C6C
 10
268.160
 20
97.4868
 30
0.000000
  70
    32
  0
VERTEX
  8
SAPA_FOGBAND
  5
2C6D
 10
268.099
 20
97.5346
 30
0.000000
  70
    32
  0
VERTEX
  8
SAPA_FOGBAND
  5
2C6E
 10
268.036
 20
97.5777
 30
0.000000
  70
    32
  0
VERTEX
  8
SAPA_FOGBAND
  5
2C6F
 10
267.972
 20
97.6160
 30
0.000000
  70
    32
  0
VERTEX
  8
SAPA_FOGBAND
  5
2C70
 10
267.907
 20
97.6494
 30
0.000000
  70
    32
  0
VERTEX
  8
SAPA_FOGBAND
  5
2C71
 10
267.840
 20
97.6778
 30
0.000000
  70
    32
  0
VERTEX
  8
SAPA_FOGBAND
  5
2C72
 10
267.773
 20
97.7011
 30
0.000000
  70
    32
  0
VERTEX
  8
SAPA_FOGBAND
  5
2C73
 10
267.706
 20
97.7193
 30
0.000000
  70
    32
  0
VERTEX
  8
SAPA_FOGBAND
  5
2C74
 10
267.638
 20
97.7323
 30
0.000000
  70
    32
  0
VERTEX
  8
SAPA_FOGBAND
  5
2C75
 10
267.569
 20
97.7401
 30
0.000000
  70
    32
  0
VERTEX
  8
SAPA_FOGBAND
  5
2C76
 10
267.500
 20
97.7427
 30
0.000000
  70
    32
  0
SEQEND
  8
SAPA_FOGBAND
  5
2C77
  0
POLYLINE
  5
197F
  8
SAPA_FOGBAND
 62
     2
 10
269.23510805817222
 20
107.26013905082753
 30
0.0
 66
     1
 70
     8
  0
VERTEX
  8
SAPA_FOGBAND
  5
2C78
 10
269.235
 20
107.260
 30
0.000000
  70
    32
  0
VERTEX
  8
SAPA_FOGBAND
  5
2C79
 10
269.147
 20
107.256
 30
0.000000
  70
    32
  0
VERTEX
  8
SAPA_FOGBAND
  5
2C7A
 10
269.059
 20
107.245
 30
0.000000
  70
    32
  0
VERTEX
  8
SAPA_FOGBAND
  5
2C7B
 10
268.971
 20
107.227
 30
0.000000
  70
    32
  0
VERTEX
  8
SAPA_FOGBAND
  5
2C7C
 10
268.884
 20
107.201
 30
0.000000
  70
    32
  0
VERTEX
  8
SAPA_FOGBAND
  5
2C7D
 10
268.798
 20
107.168
 30
0.000000
  70
    32
  0
VERTEX
  8
SAPA_FOGBAND
  5
2C7E
 10
268.713
 20
107.127
 30
0.000000
  70
    32
  0
VERTEX
  8
SAPA_FOGBAND
  5
2C7F
 10
268.629
 20
107.080
 30
0.000000
  70
    32
  0
VERTEX
  8
SAPA_FOGBAND
  5
2C80
 10
268.546
 20
107.025
 30
0.000000
  70
    32
  0
VERTEX
  8
SAPA_FOGBAND
  5
2C81
 10
268.466
 20
106.964
 30
0.000000
  70
    32
  0
VERTEX
  8
SAPA_FOGBAND
  5
2C82
 10
268.387
 20
106.896
 30
0.000000
  70
    32
  0
VERTEX
  8
SAPA_FOGBAND
  5
2C83
 10
268.310
 20
106.821
 30
0.000000
  70
    32
  0
VERTEX
  8
SAPA_FOGBAND
  5
2C84
 10
268.235
 20
106.740
 30
0.000000
  70
    32
  0
VERTEX
  8
SAPA_FOGBAND
  5
2C85
 10
268.163
 20
106.653
 30
0.000000
  70
    32
  0
VERTEX
  8
SAPA_FOGBAND
  5
2C86
 10
268.093
 20
106.560
 30
0.000000
  70
    32
  0
VERTEX
  8
SAPA_FOGBAND
  5
2C87
 10
268.026
 20
106.461
 30
0.000000
  70
    32
  0
VERTEX
  8
SAPA_FOGBAND
  5
2C88
 10
267.962
 20
106.356
 30
0.000000
  70
    32
  0
VERTEX
  8
SAPA_FOGBAND
  5
2C89
 10
267.901
 20
106.247
 30
0.000000
  70
    32
  0
VERTEX
  8
SAPA_FOGBAND
  5
2C8A
 10
267.844
 20
106.132
 30
0.000000
  70
    32
  0
VERTEX
  8
SAPA_FOGBAND
  5
2C8B
 10
267.789
 20
106.013
 30
0.000000
  70
    32
  0
VERTEX
  8
SAPA_FOGBAND
  5
2C8C
 10
267.738
 20
105.889
 30
0.000000
  70
    32
  0
VERTEX
  8
SAPA_FOGBAND
  5
2C8D
 10
267.691
 20
105.761
 30
0.000000
  70
    32
  0
VERTEX
  8
SAPA_FOGBAND
  5
2C8E
 10
267.648
 20
105.629
 30
0.000000
  70
    32
  0
VERTEX
  8
SAPA_FOGBAND
  5
2C8F
 10
267.608
 20
105.494
 30
0.000000
  70
    32
  0
VERTEX
  8
SAPA_FOGBAND
  5
2C90
 10
267.572
 20
105.356
 30
0.000000
  70
    32
  0
VERTEX
  8
SAPA_FOGBAND
  5
2C91
 10
267.540
 20
105.214
 30
0.000000
  70
    32
  0
VERTEX
  8
SAPA_FOGBAND
  5
2C92
 10
267.513
 20
105.071
 30
0.000000
  70
    32
  0
VERTEX
  8
SAPA_FOGBAND
  5
2C93
 10
267.489
 20
104.925
 30
0.000000
  70
    32
  0
VERTEX
  8
SAPA_FOGBAND
  5
2C94
 10
267.470
 20
104.777
 30
0.000000
  70
    32
  0
VERTEX
  8
SAPA_FOGBAND
  5
2C95
 10
267.455
 20
104.628
 30
0.000000
  70
    32
  0
VERTEX
  8
SAPA_FOGBAND
  5
2C96
 10
267.444
 20
104.477
 30
0.000000
  70
    32
  0
VERTEX
  8
SAPA_FOGBAND
  5
2C97
 10
267.437
 20
104.326
 30
0.000000
  70
    32
  0
VERTEX
  8
SAPA_FOGBAND
  5
2C98
 10
267.435
 20
104.175
 30
0.000000
  70
    32
  0
VERTEX
  8
SAPA_FOGBAND
  5
2C99
 10
267.437
 20
104.024
 30
0.000000
  70
    32
  0
VERTEX
  8
SAPA_FOGBAND
  5
2C9A
 10
267.444
 20
103.873
 30
0.000000
  70
    32
  0
VERTEX
  8
SAPA_FOGBAND
  5
2C9B
 10
267.455
 20
103.722
 30
0.000000
  70
    32
  0
VERTEX
  8
SAPA_FOGBAND
  5
2C9C
 10
267.470
 20
103.573
 30
0.000000
  70
    32
  0
VERTEX
  8
SAPA_FOGBAND
  5
2C9D
 10
267.489
 20
103.425
 30
0.000000
  70
    32
  0
VERTEX
  8
SAPA_FOGBAND
  5
2C9E
 10
267.513
 20
103.279
 30
0.000000
  70
    32
  0
VERTEX
  8
SAPA_FOGBAND
  5
2C9F
 10
267.540
 20
103.136
 30
0.000000
  70
    32
  0
VERTEX
  8
SAPA_FOGBAND
  5
2CA0
 10
267.572
 20
102.994
 30
0.000000
  70
    32
  0
VERTEX
  8
SAPA_FOGBAND
  5
2CA1
 10
267.608
 20
102.856
 30
0.000000
  70
    32
  0
VERTEX
  8
SAPA_FOGBAND
  5
2CA2
 10
267.648
 20
102.721
 30
0.000000
  70
    32
  0
VERTEX
  8
SAPA_FOGBAND
  5
2CA3
 10
267.691
 20
102.589
 30
0.000000
  70
    32
  0
VERTEX
  8
SAPA_FOGBAND
  5
2CA4
 10
267.738
 20
102.461
 30
0.000000
  70
    32
  0
VERTEX
  8
SAPA_FOGBAND
  5
2CA5
 10
267.789
 20
102.337
 30
0.000000
  70
    32
  0
VERTEX
  8
SAPA_FOGBAND
  5
2CA6
 10
267.844
 20
102.218
 30
0.000000
  70
    32
  0
VERTEX
  8
SAPA_FOGBAND
  5
2CA7
 10
267.901
 20
102.103
 30
0.000000
  70
    32
  0
VERTEX
  8
SAPA_FOGBAND
  5
2CA8
 10
267.962
 20
101.993
 30
0.000000
  70
    32
  0
VERTEX
  8
SAPA_FOGBAND
  5
2CA9
 10
268.026
 20
101.889
 30
0.000000
  70
    32
  0
VERTEX
  8
SAPA_FOGBAND
  5
2CAA
 10
268.093
 20
101.790
 30
0.000000
  70
    32
  0
VERTEX
  8
SAPA_FOGBAND
  5
2CAB
 10
268.163
 20
101.697
 30
0.000000
  70
    32
  0
VERTEX
  8
SAPA_FOGBAND
  5
2CAC
 10
268.235
 20
101.610
 30
0.000000
  70
    32
  0
VERTEX
  8
SAPA_FOGBAND
  5
2CAD
 10
268.310
 20
101.529
 30
0.000000
  70
    32
  0
VERTEX
  8
SAPA_FOGBAND
  5
2CAE
 10
268.387
 20
101.454
 30
0.000000
  70
    32
  0
VERTEX
  8
SAPA_FOGBAND
  5
2CAF
 10
268.466
 20
101.386
 30
0.000000
  70
    32
  0
VERTEX
  8
SAPA_FOGBAND
  5
2CB0
 10
268.546
 20
101.325
 30
0.000000
  70
    32
  0
VERTEX
  8
SAPA_FOGBAND
  5
2CB1
 10
268.629
 20
101.270
 30
0.000000
  70
    32
  0
VERTEX
  8
SAPA_FOGBAND
  5
2CB2
 10
268.713
 20
101.223
 30
0.000000
  70
    32
  0
VERTEX
  8
SAPA_FOGBAND
  5
2CB3
 10
268.798
 20
101.182
 30
0.000000
  70
    32
  0
VERTEX
  8
SAPA_FOGBAND
  5
2CB4
 10
268.884
 20
101.149
 30
0.000000
  70
    32
  0
VERTEX
  8
SAPA_FOGBAND
  5
2CB5
 10
268.971
 20
101.123
 30
0.000000
  70
    32
  0
VERTEX
  8
SAPA_FOGBAND
  5
2CB6
 10
269.059
 20
101.105
 30
0.000000
  70
    32
  0
VERTEX
  8
SAPA_FOGBAND
  5
2CB7
 10
269.147
 20
101.093
 30
0.000000
  70
    32
  0
VERTEX
  8
SAPA_FOGBAND
  5
2CB8
 10
269.235
 20
101.090
 30
0.000000
  70
    32
  0
VERTEX
  8
SAPA_FOGBAND
  5
2CB9
 10
269.323
 20
101.093
 30
0.000000
  70
    32
  0
VERTEX
  8
SAPA_FOGBAND
  5
2CBA
 10
269.412
 20
101.105
 30
0.000000
  70
    32
  0
VERTEX
  8
SAPA_FOGBAND
  5
2CBB
 10
269.499
 20
101.123
 30
0.000000
  70
    32
  0
VERTEX
  8
SAPA_FOGBAND
  5
2CBC
 10
269.586
 20
101.149
 30
0.000000
  70
    32
  0
VERTEX
  8
SAPA_FOGBAND
  5
2CBD
 10
269.672
 20
101.182
 30
0.000000
  70
    32
  0
VERTEX
  8
SAPA_FOGBAND
  5
2CBE
 10
269.758
 20
101.223
 30
0.000000
  70
    32
  0
VERTEX
  8
SAPA_FOGBAND
  5
2CBF
 10
269.842
 20
101.270
 30
0.000000
  70
    32
  0
VERTEX
  8
SAPA_FOGBAND
  5
2CC0
 10
269.924
 20
101.325
 30
0.000000
  70
    32
  0
VERTEX
  8
SAPA_FOGBAND
  5
2CC1
 10
270.005
 20
101.386
 30
0.000000
  70
    32
  0
VERTEX
  8
SAPA_FOGBAND
  5
2CC2
 10
270.084
 20
101.454
 30
0.000000
  70
    32
  0
VERTEX
  8
SAPA_FOGBAND
  5
2CC3
 10
270.160
 20
101.529
 30
0.000000
  70
    32
  0
VERTEX
  8
SAPA_FOGBAND
  5
2CC4
 10
270.235
 20
101.610
 30
0.000000
  70
    32
  0
VERTEX
  8
SAPA_FOGBAND
  5
2CC5
 10
270.307
 20
101.697
 30
0.000000
  70
    32
  0
VERTEX
  8
SAPA_FOGBAND
  5
2CC6
 10
270.377
 20
101.790
 30
0.000000
  70
    32
  0
VERTEX
  8
SAPA_FOGBAND
  5
2CC7
 10
270.444
 20
101.889
 30
0.000000
  70
    32
  0
VERTEX
  8
SAPA_FOGBAND
  5
2CC8
 10
270.508
 20
101.993
 30
0.000000
  70
    32
  0
VERTEX
  8
SAPA_FOGBAND
  5
2CC9
 10
270.569
 20
102.103
 30
0.000000
  70
    32
  0
VERTEX
  8
SAPA_FOGBAND
  5
2CCA
 10
270.627
 20
102.218
 30
0.000000
  70
    32
  0
VERTEX
  8
SAPA_FOGBAND
  5
2CCB
 10
270.681
 20
102.337
 30
0.000000
  70
    32
  0
VERTEX
  8
SAPA_FOGBAND
  5
2CCC
 10
270.732
 20
102.461
 30
0.000000
  70
    32
  0
VERTEX
  8
SAPA_FOGBAND
  5
2CCD
 10
270.779
 20
102.589
 30
0.000000
  70
    32
  0
VERTEX
  8
SAPA_FOGBAND
  5
2CCE
 10
270.823
 20
102.721
 30
0.000000
  70
    32
  0
VERTEX
  8
SAPA_FOGBAND
  5
2CCF
 10
270.862
 20
102.856
 30
0.000000
  70
    32
  0
VERTEX
  8
SAPA_FOGBAND
  5
2CD0
 10
270.898
 20
102.994
 30
0.000000
  70
    32
  0
VERTEX
  8
SAPA_FOGBAND
  5
2CD1
 10
270.930
 20
103.136
 30
0.000000
  70
    32
  0
VERTEX
  8
SAPA_FOGBAND
  5
2CD2
 10
270.958
 20
103.279
 30
0.000000
  70
    32
  0
VERTEX
  8
SAPA_FOGBAND
  5
2CD3
 10
270.981
 20
103.425
 30
0.000000
  70
    32
  0
VERTEX
  8
SAPA_FOGBAND
  5
2CD4
 10
271.001
 20
103.573
 30
0.000000
  70
    32
  0
VERTEX
  8
SAPA_FOGBAND
  5
2CD5
 10
271.016
 20
103.722
 30
0.000000
  70
    32
  0
VERTEX
  8
SAPA_FOGBAND
  5
2CD6
 10
271.026
 20
103.873
 30
0.000000
  70
    32
  0
VERTEX
  8
SAPA_FOGBAND
  5
2CD7
 10
271.033
 20
104.024
 30
0.000000
  70
    32
  0
VERTEX
  8
SAPA_FOGBAND
  5
2CD8
 10
271.035
 20
104.175
 30
0.000000
  70
    32
  0
VERTEX
  8
SAPA_FOGBAND
  5
2CD9
 10
271.033
 20
104.326
 30
0.000000
  70
    32
  0
VERTEX
  8
SAPA_FOGBAND
  5
2CDA
 10
271.026
 20
104.477
 30
0.000000
  70
    32
  0
VERTEX
  8
SAPA_FOGBAND
  5
2CDB
 10
271.016
 20
104.628
 30
0.000000
  70
    32
  0
VERTEX
  8
SAPA_FOGBAND
  5
2CDC
 10
271.001
 20
104.777
 30
0.000000
  70
    32
  0
VERTEX
  8
SAPA_FOGBAND
  5
2CDD
 10
270.981
 20
104.925
 30
0.000000
  70
    32
  0
VERTEX
  8
SAPA_FOGBAND
  5
2CDE
 10
270.958
 20
105.071
 30
0.000000
  70
    32
  0
VERTEX
  8
SAPA_FOGBAND
  5
2CDF
 10
270.930
 20
105.214
 30
0.000000
  70
    32
  0
VERTEX
  8
SAPA_FOGBAND
  5
2CE0
 10
270.898
 20
105.356
 30
0.000000
  70
    32
  0
VERTEX
  8
SAPA_FOGBAND
  5
2CE1
 10
270.862
 20
105.494
 30
0.000000
  70
    32
  0
VERTEX
  8
SAPA_FOGBAND
  5
2CE2
 10
270.823
 20
105.629
 30
0.000000
  70
    32
  0
VERTEX
  8
SAPA_FOGBAND
  5
2CE3
 10
270.779
 20
105.761
 30
0.000000
  70
    32
  0
VERTEX
  8
SAPA_FOGBAND
  5
2CE4
 10
270.732
 20
105.889
 30
0.000000
  70
    32
  0
VERTEX
  8
SAPA_FOGBAND
  5
2CE5
 10
270.681
 20
106.013
 30
0.000000
  70
    32
  0
VERTEX
  8
SAPA_FOGBAND
  5
2CE6
 10
270.627
 20
106.132
 30
0.000000
  70
    32
  0
VERTEX
  8
SAPA_FOGBAND
  5
2CE7
 10
270.569
 20
106.247
 30
0.000000
  70
    32
  0
VERTEX
  8
SAPA_FOGBAND
  5
2CE8
 10
270.508
 20
106.356
 30
0.000000
  70
    32
  0
VERTEX
  8
SAPA_FOGBAND
  5
2CE9
 10
270.444
 20
106.461
 30
0.000000
  70
    32
  0
VERTEX
  8
SAPA_FOGBAND
  5
2CEA
 10
270.377
 20
106.560
 30
0.000000
  70
    32
  0
VERTEX
  8
SAPA_FOGBAND
  5
2CEB
 10
270.307
 20
106.653
 30
0.000000
  70
    32
  0
VERTEX
  8
SAPA_FOGBAND
  5
2CEC
 10
270.235
 20
106.740
 30
0.000000
  70
    32
  0
VERTEX
  8
SAPA_FOGBAND
  5
2CED
 10
270.160
 20
106.821
 30
0.000000
  70
    32
  0
VERTEX
  8
SAPA_FOGBAND
  5
2CEE
 10
270.084
 20
106.896
 30
0.000000
  70
    32
  0
VERTEX
  8
SAPA_FOGBAND
  5
2CEF
 10
270.005
 20
106.964
 30
0.000000
  70
    32
  0
VERTEX
  8
SAPA_FOGBAND
  5
2CF0
 10
269.924
 20
107.025
 30
0.000000
  70
    32
  0
VERTEX
  8
SAPA_FOGBAND
  5
2CF1
 10
269.842
 20
107.080
 30
0.000000
  70
    32
  0
VERTEX
  8
SAPA_FOGBAND
  5
2CF2
 10
269.758
 20
107.127
 30
0.000000
  70
    32
  0
VERTEX
  8
SAPA_FOGBAND
  5
2CF3
 10
269.672
 20
107.168
 30
0.000000
  70
    32
  0
VERTEX
  8
SAPA_FOGBAND
  5
2CF4
 10
269.586
 20
107.201
 30
0.000000
  70
    32
  0
VERTEX
  8
SAPA_FOGBAND
  5
2CF5
 10
269.499
 20
107.227
 30
0.000000
  70
    32
  0
VERTEX
  8
SAPA_FOGBAND
  5
2CF6
 10
269.412
 20
107.245
 30
0.000000
  70
    32
  0
VERTEX
  8
SAPA_FOGBAND
  5
2CF7
 10
269.323
 20
107.256
 30
0.000000
  70
    32
  0
VERTEX
  8
SAPA_FOGBAND
  5
2CF8
 10
269.235
 20
107.260
 30
0.000000
  70
    32
  0
SEQEND
  8
SAPA_FOGBAND
  5
2CF9
  0
POLYLINE
  5
1980
  8
SAPA_FOGBAND
 62
     2
 66
     1
 10
0.0
 20
0.0
 30
0.0
 70
     1
  0
VERTEX
  5
2A8C
  8
SAPA_FOGBAND
 62
     2
 10
263.9351080581722
 20
96.731224092788395
 30
0.0
  0
VERTEX
  5
2A8D
  8
SAPA_FOGBAND
 62
     2
 10
263.9351080581722
 20
110.41168874208709
 30
0.0
 42
-0.427966335106886
  0
VERTEX
  5
2A8E
  8
SAPA_FOGBAND
 62
     2
 10
264.24912062953149
 20
110.7113613098071
 30
0.0
  0
VERTEX
  5
2A8F
  8
SAPA_FOGBAND
 62
     2
 10
272.44912062953148
 20
110.2250614017274
 30
0.0
 42
-0.4005932428724212
  0
VERTEX
  5
2A90
  8
SAPA_FOGBAND
 62
     2
 10
272.73510805817222
 20
109.92538883400741
 30
0.0
  0
VERTEX
  5
2A91
  8
SAPA_FOGBAND
 62
     2
 10
272.73510805817222
 20
108.111688742087
 30
0.0
  0
VERTEX
  5
2A92
  8
SAPA_FOGBAND
 62
     2
 10
274.4351080581722
 20
108.111688742087
 30
0.0
 42
-0.4142135623730951
  0
VERTEX
  5
2A93
  8
SAPA_FOGBAND
 62
     2
 10
274.73510805817222
 20
107.811688742087
 30
0.0
  0
VERTEX
  5
2A94
  8
SAPA_FOGBAND
 62
     2
 10
274.73510805817222
 20
100.3929079784611
 30
0.0
 42
-0.1379343940649207
  0
VERTEX
  5
2A95
  8
SAPA_FOGBAND
 62
     2
 10
274.58853144331738
 20
99.871689669412746
 30
0.0
  0
VERTEX
  5
2A96
  8
SAPA_FOGBAND
 62
     2
 10
267.18131320540908
 20
87.951079587562859
 30
0.0
 42
-0.2613472755167645
  0
VERTEX
  5
2A97
  8
SAPA_FOGBAND
 62
     2
 10
266.75460151283647
 20
87.711688742087063
 30
0.0
  0
VERTEX
  5
2A98
  8
SAPA_FOGBAND
 62
     2
 10
265.75990489567329
 20
87.711688742087063
 30
0.0
 42
-0.3915187749346393
  0
VERTEX
  5
2A99
  8
SAPA_FOGBAND
 62
     2
 10
264.76295328166822
 20
88.633666441860584
 30
0.0
  0
VERTEX
  5
2A9A
  8
SAPA_FOGBAND
 62
     2
 10
263.93663225116973
 20
96.692212942675155
 30
0.0
 42
-0.0195279011117891
  0
SEQEND
  5
2A9B
  8
SAPA_FOGBAND
 62
     2
  0
POLYLINE
  5
1981
  8
SAPA_FOGBAND
 66
     1
 10
0.0
 20
0.0
 30
0.0
 70
     1
  0
VERTEX
  5
2A9C
  8
SAPA_FOGBAND
 10
232.51050703943039
 20
21.706399965251759
 30
0.0
  0
VERTEX
  5
2A9D
  8
SAPA_FOGBAND
 10
232.45603527639099
 20
22.767464370802259
 30
0.0
  0
VERTEX
  5
2A9E
  8
SAPA_FOGBAND
 10
232.45603527639099
 20
23.967464370801171
 30
0.0
  0
VERTEX
  5
2A9F
  8
SAPA_FOGBAND
 10
228.5868034456953
 20
23.767600605672559
 30
0.0
 42
-0.27043821844966
  0
VERTEX
  5
2AA0
  8
SAPA_FOGBAND
 10
229.5004797208353
 20
24.88610913081072
 30
0.0
 42
0.3286126757704537
  0
VERTEX
  5
2AA1
  8
SAPA_FOGBAND
 10
230.5560352763909
 20
26.318753237280252
 30
0.0
  0
VERTEX
  5
2AA2
  8
SAPA_FOGBAND
 10
230.76811611760971
 20
31.476319993646829
 30
0.0
 42
0.0599432899033443
  0
VERTEX
  5
2AA3
  8
SAPA_FOGBAND
 10
230.3154622461538
 20
34.866432054631218
 30
0.0
 42
-0.157955388637198
  0
VERTEX
  5
2AA4
  8
SAPA_FOGBAND
 10
230.4819447063023
 20
38.56133172721718
 30
0.0
 42
-1.0
  0
VERTEX
  5
2AA5
  8
SAPA_FOGBAND
 10
235.16433043235929
 20
36.80768868702296
 30
0.0
 42
-0.1276248526686841
  0
VERTEX
  5
2AA6
  8
SAPA_FOGBAND
 10
233.7209438955156
 20
34.752278793443907
 30
0.0
  0
VERTEX
  5
2AA7
  8
SAPA_FOGBAND
 10
233.080378715297
 20
34.207579064813103
 30
0.0
 42
0.2690919765229106
  0
VERTEX
  5
2AA8
  8
SAPA_FOGBAND
 10
232.30600788635769
 20
31.753084866107091
 30
0.0
  0
VERTEX
  5
2AA9
  8
SAPA_FOGBAND
 10
232.56595285784539
 20
28.798267296295879
 30
0.0
 42
-0.8721869480932502
  0
VERTEX
  5
2AAA
  8
SAPA_FOGBAND
 10
232.6180458893495
 20
28.206121182169461
 30
0.0
  0
VERTEX
  5
2AAB
  8
SAPA_FOGBAND
 10
232.6591156592749
 20
27.739277461095192
 30
0.0
 42
0.334595319502071
  0
VERTEX
  5
2AAC
  8
SAPA_FOGBAND
 10
234.7112999535284
 20
25.538579236735021
 30
0.0
  0
VERTEX
  5
2AAD
  8
SAPA_FOGBAND
 10
236.8469112400048
 20
25.162013346622981
 30
0.0
  0
VERTEX
  5
2AAE
  8
SAPA_FOGBAND
 10
237.5644130895912
 20
25.035498411832009
 30
0.0
 42
-0.3888787318529754
  0
VERTEX
  5
2AAF
  8
SAPA_FOGBAND
 10
238.55146891410121
 20
23.749142216919498
 30
0.0
  0
VERTEX
  5
2AB0
  8
SAPA_FOGBAND
 10
235.99528597619019
 20
23.807495505382459
 30
0.0
  0
VERTEX
  5
2AB1
  8
SAPA_FOGBAND
 10
235.7957750327362
 20
22.517582696532259
 30
0.0
  0
VERTEX
  5
2AB2
  8
SAPA_FOGBAND
 10
236.54061414416881
 20
22.490987065498189
 30
0.0
 42
-0.5205670505516686
  0
VERTEX
  5
2AB3
  8
SAPA_FOGBAND
 10
236.7087140439248
 20
22.029136386706231
 30
0.0
  0
VERTEX
  5
2AB4
  8
SAPA_FOGBAND
 10
235.18551266250921
 20
20.012173462483471
 30
0.0
 42
-0.4400105308918329
  0
VERTEX
  5
2AB5
  8
SAPA_FOGBAND
 10
233.66088337127081
 20
19.811452208396869
 30
0.0
  0
VERTEX
  5
2AB6
  8
SAPA_FOGBAND
 10
231.84547056125029
 20
21.18777789428794
 30
0.0
 42
-0.6068148963145877
  0
VERTEX
  5
2AB7
  8
SAPA_FOGBAND
 10
231.96066113062531
 20
21.707368975109489
 30
0.0
  0
SEQEND
  5
2AB8
  8
SAPA_FOGBAND
  0
POLYLINE
  5
1982
  8
SAPA_FOGBAND
 66
     1
 10
0.0
 20
0.0
 30
0.0
 70
     1
  0
VERTEX
  5
2AB9
  8
SAPA_FOGBAND
 10
231.06683196409071
 20
34.684987220040973
 30
0.0
 42
0.0156300267407041
  0
VERTEX
  5
2ABA
  8
SAPA_FOGBAND
 10
230.99784702376039
 20
34.970545441191462
 30
0.0
 42
-0.1579553886371987
  0
VERTEX
  5
2ABB
  8
SAPA_FOGBAND
 10
231.14490653022469
 20
38.234373485306598
 30
0.0
 42
-0.9999999999999998
  0
VERTEX
  5
2ABC
  8
SAPA_FOGBAND
 10
234.51622425298581
 20
36.971750496367349
 30
0.0
 42
-0.127624852668684
  0
VERTEX
  5
2ABD
  8
SAPA_FOGBAND
 10
233.2749118313003
 20
35.204097987890243
 30
0.0
  0
VERTEX
  5
2ABE
  8
SAPA_FOGBAND
 10
232.2055231587278
 20
34.29475146432106
 30
0.0
 42
-0.5691506674918107
  0
SEQEND
  5
2ABF
  8
SAPA_FOGBAND
  0
POLYLINE
  5
1983
  8
SAPA_FOGBAND
 66
     1
 10
0.0
 20
0.0
 30
0.0
 70
     1
  0
VERTEX
  5
2AC0
  8
SAPA_FOGBAND
 10
233.3634630986657
 20
21.30991234245176
 30
0.0
 42
0.2216946626429447
  0
VERTEX
  5
2AC1
  8
SAPA_FOGBAND
 10
233.5777905328535
 20
20.850285676581741
 30
0.0
  0
VERTEX
  5
2AC2
  8
SAPA_FOGBAND
 10
234.00698515279041
 20
20.490148629288338
 30
0.0
 42
0.4400105308918338
  0
VERTEX
  5
2AC3
  8
SAPA_FOGBAND
 10
234.66906665172419
 20
20.577313312230221
 30
0.0
  0
VERTEX
  5
2AC4
  8
SAPA_FOGBAND
 10
235.05495432523901
 20
21.128418023986342
 30
0.0
 42
0.153914721059829
  0
VERTEX
  5
2AC5
  8
SAPA_FOGBAND
 10
235.1634630986654
 20
21.472563885797172
 30
0.0
  0
VERTEX
  5
2AC6
  8
SAPA_FOGBAND
 10
235.1634630986654
 20
23.38601615451898
 30
0.0
 42
0.4142135623730949
  0
VERTEX
  5
2AC7
  8
SAPA_FOGBAND
 10
234.6634630986654
 20
23.88601615451898
 30
0.0
  0
VERTEX
  5
2AC8
  8
SAPA_FOGBAND
 10
233.8634630986657
 20
23.88601615451898
 30
0.0
 42
0.414213562373095
  0
VERTEX
  5
2AC9
  8
SAPA_FOGBAND
 10
233.3634630986657
 20
23.38601615451898
 30
0.0
  0
SEQEND
  5
2ACA
  8
SAPA_FOGBAND
  0
CIRCLE
  5
1984
  8
SAPA_FOGBAND
 10
231.98232066265101
 20
25.2812116031937
 30
0.0
 40
0.3
  0
CIRCLE
  5
1985
  8
SAPA_FOGBAND
 10
206.7739475811737
 20
-10.877391845566761
 30
0.0
 40
0.2549509756796394
  0
INSERT
  5
1986
  8
SAPA_FOGBAND
  6
CONTINUOUS
  2
*U150
 10
0.0
 20
0.0
 30
0.0
1001
ACAD
1002
{
1000
R14_HATCH_DATA
1000
1986
1011
1.0
1021
0.0
1031
0.0
1021
0.0
1031
0.0
1011
0.0
1021
0.0
1031
0.0
1021
1.0
1031
0.0
1011
0.0
1021
0.0
1031
0.0
1021
0.0
1031
1.0
1040
0.0
1010
0.0
1020
0.0
1030
1.0
1000
SOLID
1070
     1
1070
     1
1071
        1
1071
        1
1071
        1
1070
     2
1040
206.7739475811737
1040
-10.877391845566761
1040
0.2549509756796394
1040
-1.5707963267948959
1040
4.7123889803846888
1070
     1
1071
        1
1005
1985
1070
     0
1070
     1
1071
        1
1040
206.8557990785026
1040
-10.640652943996651
1040
0.0
1002
}
  0
POLYLINE
  5
1987
  8
SAPA_FOGBAND
 66
     1
 10
0.0
 20
0.0
 30
0.0
 70
     1
  0
VERTEX
  5
2ADC
  8
SAPA_FOGBAND
 10
203.8115158019292
 20
-11.77739184556674
 30
0.0
 42
0.9999999999999998
  0
VERTEX
  5
2ADD
  8
SAPA_FOGBAND
 10
203.8115158019292
 20
-9.9773918455667854
 30
0.0
  0
VERTEX
  5
2ADE
  8
SAPA_FOGBAND
 10
203.21151580192921
 20
-9.9773918455667854
 30
0.0
 42
0.9999999999999998
  0
VERTEX
  5
2ADF
  8
SAPA_FOGBAND
 10
203.21151580192921
 20
-11.77739184556674
 30
0.0
  0
SEQEND
  5
2AE0
  8
SAPA_FOGBAND
  0
POLYLINE
  5
1988
  8
SAPA_FOGBAND
 66
     1
 10
0.0
 20
0.0
 30
0.0
 70
     1
  0
VERTEX
  5
2AE1
  8
SAPA_FOGBAND
 10
208.9115158019292
 20
-2.2495155373935631
 30
0.0
 42
0.0775891054856093
  0
VERTEX
  5
2AE2
  8
SAPA_FOGBAND
 10
208.59487981786791
 20
-5.7162972678161159
 30
0.0
  0
VERTEX
  5
2AE3
  8
SAPA_FOGBAND
 10
208.8115158019292
 20
-5.954186760644915
 30
0.0
 42
-0.5773502691896298
  0
VERTEX
  5
2AE4
  8
SAPA_FOGBAND
 10
208.8115158019292
 20
-6.3005969221587739
 30
0.0
  0
VERTEX
  5
2AE5
  8
SAPA_FOGBAND
 10
208.59460594770621
 20
-6.53864453888957
 30
0.0
  0
VERTEX
  5
2AE6
  8
SAPA_FOGBAND
 10
208.59460594770621
 20
-7.3161391488062
 30
0.0
  0
VERTEX
  5
2AE7
  8
SAPA_FOGBAND
 10
208.8115158019292
 20
-7.5541867606449378
 30
0.0
 42
-0.577350269189699
  0
VERTEX
  5
2AE8
  8
SAPA_FOGBAND
 10
208.8115158019292
 20
-7.9005969221586829
 30
0.0
  0
VERTEX
  5
2AE9
  8
SAPA_FOGBAND
 10
208.59460594770621
 20
-8.1386445388894781
 30
0.0
  0
VERTEX
  5
2AEA
  8
SAPA_FOGBAND
 10
208.59460594770621
 20
-8.9161391488062236
 30
0.0
  0
VERTEX
  5
2AEB
  8
SAPA_FOGBAND
 10
208.8115158019292
 20
-9.1541867606449614
 30
0.0
 42
-0.577350269189699
  0
VERTEX
  5
2AEC
  8
SAPA_FOGBAND
 10
208.8115158019292
 20
-9.5005969221587065
 30
0.0
  0
VERTEX
  5
2AED
  8
SAPA_FOGBAND
 10
208.59460594770621
 20
-9.7386445388895027
 30
0.0
  0
VERTEX
  5
2AEE
  8
SAPA_FOGBAND
 10
208.59460594770621
 20
-10.516139148806239
 30
0.0
  0
VERTEX
  5
2AEF
  8
SAPA_FOGBAND
 10
208.8115158019292
 20
-10.75418676064487
 30
0.0
 42
-0.5773502691896298
  0
VERTEX
  5
2AF0
  8
SAPA_FOGBAND
 10
208.8115158019292
 20
-11.100596922158729
 30
0.0
  0
VERTEX
  5
2AF1
  8
SAPA_FOGBAND
 10
208.59460594770621
 20
-11.33864453888952
 30
0.0
  0
VERTEX
  5
2AF2
  8
SAPA_FOGBAND
 10
208.59460594770621
 20
-12.116139148806271
 30
0.0
  0
VERTEX
  5
2AF3
  8
SAPA_FOGBAND
 10
208.8115158019292
 20
-12.35418676064489
 30
0.0
 42
-0.5773502691896298
  0
VERTEX
  5
2AF4
  8
SAPA_FOGBAND
 10
208.8115158019292
 20
-12.70059692215875
 30
0.0
  0
VERTEX
  5
2AF5
  8
SAPA_FOGBAND
 10
208.59460594770621
 20
-12.93864453888955
 30
0.0
  0
VERTEX
  5
2AF6
  8
SAPA_FOGBAND
 10
208.59460594770621
 20
-13.716139152971209
 30
0.0
  0
VERTEX
  5
2AF7
  8
SAPA_FOGBAND
 10
208.8115158019292
 20
-13.95418676480995
 30
0.0
 42
-0.577350269189699
  0
VERTEX
  5
2AF8
  8
SAPA_FOGBAND
 10
208.8115158019292
 20
-14.30059692632369
 30
0.0
  0
VERTEX
  5
2AF9
  8
SAPA_FOGBAND
 10
207.73818573344479
 20
-15.10059692587879
 30
0.0
 42
-0.1316524987190269
  0
VERTEX
  5
2AFA
  8
SAPA_FOGBAND
 10
207.63818573267409
 20
-15.127391845566761
 30
0.0
  0
VERTEX
  5
2AFB
  8
SAPA_FOGBAND
 10
205.1115158019293
 20
-15.127391845566869
 30
0.0
 42
-0.4142135623730951
  0
VERTEX
  5
2AFC
  8
SAPA_FOGBAND
 10
204.9115158019292
 20
-14.927391845566831
 30
0.0
  0
VERTEX
  5
2AFD
  8
SAPA_FOGBAND
 10
204.9115158019292
 20
-12.877391845566761
 30
0.0
 42
0.4142135623730951
  0
VERTEX
  5
2AFE
  8
SAPA_FOGBAND
 10
204.4115158019292
 20
-12.377391845566761
 30
0.0
  0
VERTEX
  5
2AFF
  8
SAPA_FOGBAND
 10
203.68472088268601
 20
-12.377391845566761
 30
0.0
  0
VERTEX
  5
2B00
  8
SAPA_FOGBAND
 10
203.61726097337561
 20
-12.62915565458729
 30
0.0
 42
-0.4740571810232869
  0
VERTEX
  5
2B01
  8
SAPA_FOGBAND
 10
203.33497838773701
 20
-12.75644951695085
 30
0.0
  0
VERTEX
  5
2B02
  8
SAPA_FOGBAND
 10
201.88877225097721
 20
-12.136349014192319
 30
0.0
 42
-0.2846003776495916
  0
VERTEX
  5
2B03
  8
SAPA_FOGBAND
 10
201.6115158019293
 20
-11.688704835732089
 30
0.0
  0
VERTEX
  5
2B04
  8
SAPA_FOGBAND
 10
201.6115158019293
 20
-10.066078855401541
 30
0.0
 42
-0.2846003776495917
  0
VERTEX
  5
2B05
  8
SAPA_FOGBAND
 10
201.88877225097721
 20
-9.6184346769413196
 30
0.0
  0
VERTEX
  5
2B06
  8
SAPA_FOGBAND
 10
203.33497838773701
 20
-8.9983341741827871
 30
0.0
 42
-0.4740571810232869
  0
VERTEX
  5
2B07
  8
SAPA_FOGBAND
 10
203.61726097337561
 20
-9.1256280365463454
 30
0.0
  0
VERTEX
  5
2B08
  8
SAPA_FOGBAND
 10
203.68472088268601
 20
-9.3773918455667626
 30
0.0
  0
VERTEX
  5
2B09
  8
SAPA_FOGBAND
 10
204.4115158019292
 20
-9.3773918455667626
 30
0.0
 42
0.4142135623730951
  0
VERTEX
  5
2B0A
  8
SAPA_FOGBAND
 10
204.9115158019292
 20
-8.8773918455667626
 30
0.0
  0
VERTEX
  5
2B0B
  8
SAPA_FOGBAND
 10
204.9115158019292
 20
-5.8273918455668081
 30
0.0
 42
0.4142135623730951
  0
VERTEX
  5
2B0C
  8
SAPA_FOGBAND
 10
204.71151580192921
 20
-5.6273918455667618
 30
0.0
  0
VERTEX
  5
2B0D
  8
SAPA_FOGBAND
 10
203.8115158019292
 20
-5.6273918455668763
 30
0.0
 42
-0.4142135623731784
  0
VERTEX
  5
2B0E
  8
SAPA_FOGBAND
 10
203.6115158019293
 20
-5.42739184556683
 30
0.0
  0
VERTEX
  5
2B0F
  8
SAPA_FOGBAND
 10
203.6115158019291
 20
-4.7273918455667854
 30
0.0
 42
-0.4142135623730398
  0
VERTEX
  5
2B10
  8
SAPA_FOGBAND
 10
203.9115158019292
 20
-4.42739184556683
 30
0.0
  0
VERTEX
  5
2B11
  8
SAPA_FOGBAND
 10
204.72202757858079
 20
-4.42739184556683
 30
0.0
 42
0.1316524975873973
  0
VERTEX
  5
2B12
  8
SAPA_FOGBAND
 10
205.72202757858079
 20
-4.1594426531356703
 30
0.0
  0
VERTEX
  5
2B13
  8
SAPA_FOGBAND
 10
208.31159557067269
 20
1.003402496904755
 30
0.0
 42
-0.7057658529986604
  0
VERTEX
  5
2B14
  8
SAPA_FOGBAND
 10
208.9115158019292
 20
0.7358093215464124
 30
0.0
  0
SEQEND
  5
2B15
  8
SAPA_FOGBAND
  0
POLYLINE
  5
1989
  8
SAPA_FOGBAND
 66
     1
 10
0.0
 20
0.0
 30
0.0
 70
     1
  0
VERTEX
  5
2B16
  8
SAPA_FOGBAND
 10
257.22486172014578
 20
-10.22765570488885
 30
0.0
 42
-0.9999999999999998
  0
VERTEX
  5
2B17
  8
SAPA_FOGBAND
 10
257.22486172014578
 20
-8.4276557048888421
 30
0.0
  0
VERTEX
  5
2B18
  8
SAPA_FOGBAND
 10
257.82486172014592
 20
-8.4276557048888421
 30
0.0
 42
-0.9999999999999998
  0
VERTEX
  5
2B19
  8
SAPA_FOGBAND
 10
257.82486172014592
 20
-10.22765570488885
 30
0.0
  0
SEQEND
  5
2B1A
  8
SAPA_FOGBAND
  0
POLYLINE
  5
198A
  8
SAPA_FOGBAND
 66
     1
 10
0.0
 20
0.0
 30
0.0
  0
VERTEX
  5
2B1B
  8
SAPA_FOGBAND
 10
255.610231222507
 20
-5.7276557048888517
 30
0.0
  0
VERTEX
  5
2B1C
  8
SAPA_FOGBAND
 10
255.91023122250709
 20
-5.7276557048888517
 30
0.0
  0
VERTEX
  5
2B1D
  8
SAPA_FOGBAND
 10
255.610231222507
 20
-5.7276557048888517
 30
0.0
 42
0.4142135623730951
  0
VERTEX
  5
2B1E
  8
SAPA_FOGBAND
 10
255.110231222507
 20
-6.2276557048888508
 30
0.0
  0
VERTEX
  5
2B1F
  8
SAPA_FOGBAND
 10
255.110231222507
 20
-13.52765570488881
 30
0.0
 42
0.4142135623730951
  0
VERTEX
  5
2B20
  8
SAPA_FOGBAND
 10
255.610231222507
 20
-14.02765570488881
 30
0.0
  0
VERTEX
  5
2B21
  8
SAPA_FOGBAND
 10
255.91023122250709
 20
-14.02765570488881
 30
0.0
  0
SEQEND
  5
2B22
  8
SAPA_FOGBAND
  0
POLYLINE
  5
198B
  8
SAPA_FOGBAND
 66
     1
 10
0.0
 20
0.0
 30
0.0
 70
     1
  0
VERTEX
  5
2B23
  8
SAPA_FOGBAND
 10
251.3102312225071
 20
-12.3793708145925
 30
0.0
  0
VERTEX
  5
2B24
  8
SAPA_FOGBAND
 10
251.3102312225071
 20
-9.2847267052666673
 30
0.0
 42
1.024758115298622
  0
VERTEX
  5
2B25
  8
SAPA_FOGBAND
 10
248.12869942972159
 20
-9.2847267052666655
 30
0.0
  0
VERTEX
  5
2B26
  8
SAPA_FOGBAND
 10
248.12869942972159
 20
-12.3793708145925
 30
0.0
 42
0.9558128803175696
  0
SEQEND
  5
2B27
  8
SAPA_FOGBAND
  0
POLYLINE
  5
198C
  8
SAPA_FOGBAND
 66
     1
 10
0.0
 20
0.0
 30
0.0
 70
     1
  0
VERTEX
  5
2B28
  8
SAPA_FOGBAND
 10
249.47417709576141
 20
-21.610701153711791
 30
0.0
 42
-0.6274939020253784
  0
VERTEX
  5
2B29
  8
SAPA_FOGBAND
 10
247.9155326017997
 20
-21.599776331278662
 30
0.0
  0
VERTEX
  5
2B2A
  8
SAPA_FOGBAND
 10
247.351789597877
 20
-17.623916337914
 30
0.0
 42
-0.4459602482749359
  0
VERTEX
  5
2B2B
  8
SAPA_FOGBAND
 10
248.2466269521093
 20
-16.627655704888799
 30
0.0
  0
VERTEX
  5
2B2C
  8
SAPA_FOGBAND
 10
250.96993827697401
 20
-16.627655704888799
 30
0.0
 42
-0.6245270939358744
  0
VERTEX
  5
2B2D
  8
SAPA_FOGBAND
 10
251.67969325078479
 20
-18.08105237740401
 30
0.0
  0
SEQEND
  5
2B2E
  8
SAPA_FOGBAND
  0
POLYLINE
  5
198D
  8
SAPA_FOGBAND
 66
     1
 10
0.0
 20
0.0
 30
0.0
 70
     1
  0
VERTEX
  5
2B2F
  8
SAPA_FOGBAND
 10
257.35165663938898
 20
-10.827655704888819
 30
0.0
  0
VERTEX
  5
2B30
  8
SAPA_FOGBAND
 10
257.41911654869938
 20
-11.07941951390929
 30
0.0
 42
0.4740571810232144
  0
VERTEX
  5
2B31
  8
SAPA_FOGBAND
 10
257.70139913433798
 20
-11.20671337627291
 30
0.0
  0
VERTEX
  5
2B32
  8
SAPA_FOGBAND
 10
259.14760527109792
 20
-10.586612873514319
 30
0.0
 42
0.2846003776496053
  0
VERTEX
  5
2B33
  8
SAPA_FOGBAND
 10
259.42486172014588
 20
-10.13896869505415
 30
0.0
  0
VERTEX
  5
2B34
  8
SAPA_FOGBAND
 10
259.42486172014588
 20
-8.5163427147235424
 30
0.0
 42
0.2846003776496027
  0
VERTEX
  5
2B35
  8
SAPA_FOGBAND
 10
259.14760527109792
 20
-8.0686985362633763
 30
0.0
  0
VERTEX
  5
2B36
  8
SAPA_FOGBAND
 10
257.70139913433798
 20
-7.4485980335047861
 30
0.0
 42
0.4740571810232332
  0
VERTEX
  5
2B37
  8
SAPA_FOGBAND
 10
257.41911654869938
 20
-7.5758918958683443
 30
0.0
  0
VERTEX
  5
2B38
  8
SAPA_FOGBAND
 10
257.35165663938898
 20
-7.8276557048888176
 30
0.0
  0
VERTEX
  5
2B39
  8
SAPA_FOGBAND
 10
256.41023122250709
 20
-7.8276557048888176
 30
0.0
 42
-0.4142135623730951
  0
VERTEX
  5
2B3A
  8
SAPA_FOGBAND
 10
255.91023122250709
 20
-7.3276557048888176
 30
0.0
  0
VERTEX
  5
2B3B
  8
SAPA_FOGBAND
 10
255.91023122250701
 20
-4.8154955415073664
 30
0.0
 42
0.4027293761437467
  0
VERTEX
  5
2B3C
  8
SAPA_FOGBAND
 10
255.6220385850377
 20
-4.5157279879095062
 30
0.0
  0
VERTEX
  5
2B3D
  8
SAPA_FOGBAND
 10
246.22203858503769
 20
-4.0278881732400746
 30
0.0
 42
0.4257917699693538
  0
VERTEX
  5
2B3E
  8
SAPA_FOGBAND
 10
245.91023122250701
 20
-4.3276557268379348
 30
0.0
  0
VERTEX
  5
2B3F
  8
SAPA_FOGBAND
 10
245.91023122250701
 20
-18.03318938606181
 30
0.0
  0
VERTEX
  5
2B40
  8
SAPA_FOGBAND
 10
246.6867661401896
 20
-23.636330983788689
 30
0.0
 42
0.322530093016903
  0
VERTEX
  5
2B41
  8
SAPA_FOGBAND
 10
247.68084344529561
 20
-24.32765572683795
 30
0.0
  0
VERTEX
  5
2B42
  8
SAPA_FOGBAND
 10
248.91158700173321
 20
-24.32765572683795
 30
0.0
 42
0.2325311832130604
  0
VERTEX
  5
2B43
  8
SAPA_FOGBAND
 10
249.30752786581499
 20
-24.132992970144741
 30
0.0
  0
VERTEX
  5
2B44
  8
SAPA_FOGBAND
 10
255.7021129506706
 20
-14.96642974223723
 30
0.0
 42
0.1657205760184606
  0
VERTEX
  5
2B45
  8
SAPA_FOGBAND
 10
255.91023122250709
 20
-14.35575525562361
 30
0.0
  0
VERTEX
  5
2B46
  8
SAPA_FOGBAND
 10
255.91023122250709
 20
-11.327655704888819
 30
0.0
 42
-0.4142135623730951
  0
VERTEX
  5
2B47
  8
SAPA_FOGBAND
 10
256.41023122250709
 20
-10.827655704888819
 30
0.0
  0
SEQEND
  5
2B48
  8
SAPA_FOGBAND
  0
POLYLINE
  5
198E
  8
SAPA_FOGBAND
 66
     1
 10
0.0
 20
0.0
 30
0.0
 70
     1
  0
VERTEX
  5
2B49
  8
SAPA_FOGBAND
 10
302.47228974561312
 20
-1.5297112720587269
 30
0.0
  0
VERTEX
  5
2B4A
  8
SAPA_FOGBAND
 10
299.63897078119328
 20
-1.5297112720587269
 30
0.0
 42
0.577350269189628
  0
VERTEX
  5
2B4B
  8
SAPA_FOGBAND
 10
299.37916316005789
 20
-1.979711272058772
 30
0.0
  0
VERTEX
  5
2B4C
  8
SAPA_FOGBAND
 10
301.07812850181011
 20
-4.0208485607620128
 30
0.0
 42
-0.8769764629927237
  0
VERTEX
  5
2B4D
  8
SAPA_FOGBAND
 10
300.6061888463189
 20
-4.382980595117921
 30
0.0
  0
VERTEX
  5
2B4E
  8
SAPA_FOGBAND
 10
297.41316924506037
 20
-1.822604490872286
 30
0.0
 42
0.1989123673796493
  0
VERTEX
  5
2B4F
  8
SAPA_FOGBAND
 10
296.70606246387388
 20
-1.529711272058726
 30
0.0
  0
VERTEX
  5
2B50
  8
SAPA_FOGBAND
 10
295.06960966097017
 20
-1.529711272058726
 30
0.0
 42
0.577350269189628
  0
VERTEX
  5
2B51
  8
SAPA_FOGBAND
 10
294.80980203983501
 20
-1.9797112720587711
 30
0.0
  0
VERTEX
  5
2B52
  8
SAPA_FOGBAND
 10
295.57839920839967
 20
-4.0199798075816267
 30
0.0
 42
-0.8769764629928424
  0
VERTEX
  5
2B53
  8
SAPA_FOGBAND
 10
295.10645955290852
 20
-4.3821118419375358
 30
0.0
  0
VERTEX
  5
2B54
  8
SAPA_FOGBAND
 10
291.50440901852988
 20
-0.248088219027955
 30
0.0
 42
-0.1989123673796579
  0
VERTEX
  5
2B55
  8
SAPA_FOGBAND
 10
291.21151579971649
 20
0.4590185621584846
 30
0.0
  0
VERTEX
  5
2B56
  8
SAPA_FOGBAND
 10
291.21151579971649
 20
0.4689503524716879
 30
0.0
 42
-0.4142135623730951
  0
VERTEX
  5
2B57
  8
SAPA_FOGBAND
 10
292.21151579971649
 20
1.4689503524716869
 30
0.0
  0
VERTEX
  5
2B58
  8
SAPA_FOGBAND
 10
299.4465083004838
 20
2.6330349515951839
 30
0.0
 42
-0.6261632875160376
  0
VERTEX
  5
2B59
  8
SAPA_FOGBAND
 10
299.75636522900248
 20
2.1910681481688452
 30
0.0
  0
VERTEX
  5
2B5A
  8
SAPA_FOGBAND
 10
299.60272723421372
 20
1.9147265021827229
 30
0.0
 42
0.5719685712689121
  0
VERTEX
  5
2B5B
  8
SAPA_FOGBAND
 10
299.86492813843699
 20
1.4689503524717999
 30
0.0
  0
VERTEX
  5
2B5C
  8
SAPA_FOGBAND
 10
302.61151579971641
 20
1.4689503524716849
 30
0.0
 42
0.4142135623730118
  0
VERTEX
  5
2B5D
  8
SAPA_FOGBAND
 10
302.9115157997166
 20
1.7689503524716399
 30
0.0
  0
VERTEX
  5
2B5E
  8
SAPA_FOGBAND
 10
302.91151579971643
 20
3.1689503524717311
 30
0.0
 42
-0.7754026414785753
  0
VERTEX
  5
2B5F
  8
SAPA_FOGBAND
 10
303.47430779512428
 20
3.3136582207776168
 30
0.0
  0
VERTEX
  5
2B60
  8
SAPA_FOGBAND
 10
307.18519259905543
 20
-4.0299480947030393
 30
0.0
 42
-0.8680589103333867
  0
VERTEX
  5
2B61
  8
SAPA_FOGBAND
 10
306.7102685692916
 20
-4.386787997364971
 30
0.0
  0
VERTEX
  5
2B62
  8
SAPA_FOGBAND
 10
303.17939652679951
 20
-1.822604490872288
 30
0.0
 42
0.1989123673796493
  0
SEQEND
  5
2B63
  8
SAPA_FOGBAND
  0
CIRCLE
  5
198F
  8
SAPA_FOGBAND
 10
206.38304895283571
 20
-48.160406049927822
 30
0.0
 40
0.2549509756796394
  0
INSERT
  5
1990
  8
SAPA_FOGBAND
  6
CONTINUOUS
  2
*U151
 10
0.0
 20
0.0
 30
0.0
1001
ACAD
1002
{
1000
R14_HATCH_DATA
1000
1990
1011
1.0
1021
0.0
1031
0.0
1021
0.0
1031
0.0
1011
0.0
1021
0.0
1031
0.0
1021
1.0
1031
0.0
1011
0.0
1021
0.0
1031
0.0
1021
0.0
1031
1.0
1040
0.0
1010
0.0
1020
0.0
1030
1.0
1000
SOLID
1070
     1
1070
     1
1071
        1
1071
        1
1071
        1
1070
     2
1040
206.38304895283571
1040
-48.160406049927822
1040
0.2549509756796394
1040
-1.5707963267948959
1040
4.7123889803846888
1070
     0
1071
        1
1005
198F
1070
     0
1070
     1
1071
        1
1040
-144.78010295187121
1040
-607.05221003894451
1040
0.0
1002
}
  0
POLYLINE
  5
1991
  8
SAPA_FOGBAND
 66
     1
 10
0.0
 20
0.0
 30
0.0
 70
     1
  0
VERTEX
  5
2B75
  8
SAPA_FOGBAND
 10
203.81151580918441
 20
-47.260406049928179
 30
0.0
 42
-0.9999999999999998
  0
VERTEX
  5
2B76
  8
SAPA_FOGBAND
 10
203.81151580918441
 20
-49.060406049928368
 30
0.0
  0
VERTEX
  5
2B77
  8
SAPA_FOGBAND
 10
203.21151580918411
 20
-49.060406049928368
 30
0.0
 42
-0.9999999999999998
  0
VERTEX
  5
2B78
  8
SAPA_FOGBAND
 10
203.21151580918411
 20
-47.260406049928179
 30
0.0
  0
SEQEND
  5
2B79
  8
SAPA_FOGBAND
  0
POLYLINE
  5
1992
  8
SAPA_FOGBAND
 66
     1
 10
0.0
 20
0.0
 30
0.0
 70
     1
  0
VERTEX
  5
2B7A
  8
SAPA_FOGBAND
 10
207.2472871043359
 20
-43.910406049927822
 30
0.0
  0
VERTEX
  5
2B7B
  8
SAPA_FOGBAND
 10
205.1115158091846
 20
-43.910406049927822
 30
0.0
 42
0.4142135623730951
  0
VERTEX
  5
2B7C
  8
SAPA_FOGBAND
 10
204.91151580918481
 20
-44.11040604992764
 30
0.0
  0
VERTEX
  5
2B7D
  8
SAPA_FOGBAND
 10
204.91151580918481
 20
-46.160406049927822
 30
0.0
 42
-0.4142135623730951
  0
VERTEX
  5
2B7E
  8
SAPA_FOGBAND
 10
204.41151580918481
 20
-46.660406049927822
 30
0.0
  0
VERTEX
  5
2B7F
  8
SAPA_FOGBAND
 10
203.68472088994099
 20
-46.660406049927822
 30
0.0
  0
VERTEX
  5
2B80
  8
SAPA_FOGBAND
 10
203.6172609806311
 20
-46.408642240907511
 30
0.0
 42
0.4740571810232154
  0
VERTEX
  5
2B81
  8
SAPA_FOGBAND
 10
203.33497839499279
 20
-46.28134837854418
 30
0.0
  0
VERTEX
  5
2B82
  8
SAPA_FOGBAND
 10
201.88877225823239
 20
-46.90144888130294
 30
0.0
 42
0.2846003776496056
  0
VERTEX
  5
2B83
  8
SAPA_FOGBAND
 10
201.6115158091846
 20
-47.349093059762943
 30
0.0
  0
VERTEX
  5
2B84
  8
SAPA_FOGBAND
 10
201.6115158091846
 20
-48.971719040093603
 30
0.0
 42
0.2846003776496054
  0
VERTEX
  5
2B85
  8
SAPA_FOGBAND
 10
201.88877225823239
 20
-49.419363218553613
 30
0.0
  0
VERTEX
  5
2B86
  8
SAPA_FOGBAND
 10
203.33497839499279
 20
-50.039463721312359
 30
0.0
 42
0.4740571810232154
  0
VERTEX
  5
2B87
  8
SAPA_FOGBAND
 10
203.6172609806311
 20
-49.912169858948118
 30
0.0
  0
VERTEX
  5
2B88
  8
SAPA_FOGBAND
 10
203.68472088994099
 20
-49.660406049927822
 30
0.0
  0
VERTEX
  5
2B89
  8
SAPA_FOGBAND
 10
204.41151580918481
 20
-49.660406049927822
 30
0.0
 42
-0.4142135623730951
  0
VERTEX
  5
2B8A
  8
SAPA_FOGBAND
 10
204.91151580918481
 20
-50.160406049927822
 30
0.0
  0
VERTEX
  5
2B8B
  8
SAPA_FOGBAND
 10
204.91151580918481
 20
-53.210406049927997
 30
0.0
 42
-0.4142135623730951
  0
VERTEX
  5
2B8C
  8
SAPA_FOGBAND
 10
204.71151580918411
 20
-53.410406049927822
 30
0.0
  0
VERTEX
  5
2B8D
  8
SAPA_FOGBAND
 10
203.81151580918441
 20
-53.410406049927822
 30
0.0
 42
0.4142135623730951
  0
VERTEX
  5
2B8E
  8
SAPA_FOGBAND
 10
203.6115158091846
 20
-53.61040604992764
 30
0.0
  0
VERTEX
  5
2B8F
  8
SAPA_FOGBAND
 10
203.6115158091846
 20
-54.310406049928368
 30
0.0
 42
0.4142135623730951
  0
VERTEX
  5
2B90
  8
SAPA_FOGBAND
 10
203.91151580918481
 20
-54.61040604992764
 30
0.0
  0
VERTEX
  5
2B91
  8
SAPA_FOGBAND
 10
204.72202758583651
 20
-54.61040604992764
 30
0.0
 42
-0.1316524975873982
  0
VERTEX
  5
2B92
  8
SAPA_FOGBAND
 10
205.72202758583651
 20
-54.878355242359483
 30
0.0
  0
VERTEX
  5
2B93
  8
SAPA_FOGBAND
 10
208.35739450418021
 20
-58.849067779460952
 30
0.0
 42
0.876976462992761
  0
VERTEX
  5
2B94
  8
SAPA_FOGBAND
 10
208.87473584029641
 20
-58.746162189551121
 30
0.0
  0
VERTEX
  5
2B95
  8
SAPA_FOGBAND
 10
208.32089104375271
 20
-53.321500627678923
 30
0.0
 42
-0.1353185728426623
  0
VERTEX
  5
2B96
  8
SAPA_FOGBAND
 10
208.32089104375271
 20
-53.321500627678923
 30
0.0
  0
VERTEX
  5
2B97
  8
SAPA_FOGBAND
 10
208.73292773615259
 20
-53.08361113485013
 30
0.0
 42
0.5773502691896196
  0
VERTEX
  5
2B98
  8
SAPA_FOGBAND
 10
208.73292773615259
 20
-52.737200973335582
 30
0.0
  0
VERTEX
  5
2B99
  8
SAPA_FOGBAND
 10
208.3206171735913
 20
-52.499153356604673
 30
0.0
  0
VERTEX
  5
2B9A
  8
SAPA_FOGBAND
 10
208.3206171735913
 20
-51.72165874668849
 30
0.0
  0
VERTEX
  5
2B9B
  8
SAPA_FOGBAND
 10
208.73292773615259
 20
-51.48361113484976
 30
0.0
 42
0.5773502691896196
  0
VERTEX
  5
2B9C
  8
SAPA_FOGBAND
 10
208.73292773615259
 20
-51.137200973336121
 30
0.0
  0
VERTEX
  5
2B9D
  8
SAPA_FOGBAND
 10
208.3206171735913
 20
-50.899153356605218
 30
0.0
  0
VERTEX
  5
2B9E
  8
SAPA_FOGBAND
 10
208.3206171735913
 20
-50.121658746688126
 30
0.0
  0
VERTEX
  5
2B9F
  8
SAPA_FOGBAND
 10
208.73292773615259
 20
-49.883611134850298
 30
0.0
 42
0.5773502691896196
  0
VERTEX
  5
2BA0
  8
SAPA_FOGBAND
 10
208.73292773615259
 20
-49.537200973335757
 30
0.0
  0
VERTEX
  5
2BA1
  8
SAPA_FOGBAND
 10
208.3206171735913
 20
-49.299153356605757
 30
0.0
  0
VERTEX
  5
2BA2
  8
SAPA_FOGBAND
 10
208.3206171735913
 20
-48.521658746688679
 30
0.0
  0
VERTEX
  5
2BA3
  8
SAPA_FOGBAND
 10
208.73292773615259
 20
-48.283611134849941
 30
0.0
 42
0.5773502691896196
  0
VERTEX
  5
2BA4
  8
SAPA_FOGBAND
 10
208.73292773615259
 20
-47.93720097333631
 30
0.0
  0
VERTEX
  5
2BA5
  8
SAPA_FOGBAND
 10
208.3206171735913
 20
-47.6991533566054
 30
0.0
  0
VERTEX
  5
2BA6
  8
SAPA_FOGBAND
 10
208.3206171735913
 20
-46.921658746688308
 30
0.0
  0
VERTEX
  5
2BA7
  8
SAPA_FOGBAND
 10
208.73292773615259
 20
-46.683611134849578
 30
0.0
 42
0.5773502691896196
  0
VERTEX
  5
2BA8
  8
SAPA_FOGBAND
 10
208.73292773615259
 20
-46.337200973335939
 30
0.0
  0
VERTEX
  5
2BA9
  8
SAPA_FOGBAND
 10
208.3206171735913
 20
-46.099153356605029
 30
0.0
  0
VERTEX
  5
2BAA
  8
SAPA_FOGBAND
 10
208.3206171735913
 20
-45.321658742523383
 30
0.0
  0
VERTEX
  5
2BAB
  8
SAPA_FOGBAND
 10
208.73292773615259
 20
-45.083611130684631
 30
0.0
 42
0.5773502691896196
  0
VERTEX
  5
2BAC
  8
SAPA_FOGBAND
 10
208.73292773615259
 20
-44.737200969171013
 30
0.0
  0
VERTEX
  5
2BAD
  8
SAPA_FOGBAND
 10
207.3472871051066
 20
-43.93720096961647
 30
0.0
 42
0.1316524987190407
  0
SEQEND
  5
2BAE
  8
SAPA_FOGBAND
  0
POLYLINE
  5
1993
  8
SAPA_FOGBAND
 66
     1
 10
0.0
 20
0.0
 30
0.0
 70
     1
  0
VERTEX
  5
2BAF
  8
SAPA_FOGBAND
 10
257.4204011353782
 20
-51.48414024785076
 30
0.0
 42
0.4740571810231764
  0
VERTEX
  5
2BB0
  8
SAPA_FOGBAND
 10
257.70268372101651
 20
-51.611434110214091
 30
0.0
  0
VERTEX
  5
2BB1
  8
SAPA_FOGBAND
 10
259.14888985777691
 20
-50.991333607455331
 30
0.0
 42
0.2846003776496257
  0
VERTEX
  5
2BB2
  8
SAPA_FOGBAND
 10
259.42614630682471
 20
-50.543689428995329
 30
0.0
  0
VERTEX
  5
2BB3
  8
SAPA_FOGBAND
 10
259.42614630682471
 20
-48.921063448664668
 30
0.0
 42
0.2846003776496159
  0
VERTEX
  5
2BB4
  8
SAPA_FOGBAND
 10
259.14888985777691
 20
-48.473419270204673
 30
0.0
  0
VERTEX
  5
2BB5
  8
SAPA_FOGBAND
 10
257.70268372101651
 20
-47.853318767445913
 30
0.0
 42
0.4740571810232354
  0
VERTEX
  5
2BB6
  8
SAPA_FOGBAND
 10
257.4204011353782
 20
-47.980612629809237
 30
0.0
  0
VERTEX
  5
2BB7
  8
SAPA_FOGBAND
 10
257.35294122606729
 20
-48.232376438830457
 30
0.0
  0
VERTEX
  5
2BB8
  8
SAPA_FOGBAND
 10
256.41151580918591
 20
-48.232376438830457
 30
0.0
 42
-0.4142135623730951
  0
VERTEX
  5
2BB9
  8
SAPA_FOGBAND
 10
255.91151580918589
 20
-47.73237643883045
 30
0.0
  0
VERTEX
  5
2BBA
  8
SAPA_FOGBAND
 10
255.91151580918589
 20
-44.704276888095833
 30
0.0
 42
0.1657205760184635
  0
VERTEX
  5
2BBB
  8
SAPA_FOGBAND
 10
255.7033975373493
 20
-44.093602401482038
 30
0.0
  0
VERTEX
  5
2BBC
  8
SAPA_FOGBAND
 10
250.8088124524937
 20
-34.72571201100461
 30
0.0
 42
0.2325311832130358
  0
VERTEX
  5
2BBD
  8
SAPA_FOGBAND
 10
250.41287158841149
 20
-34.531049254311498
 30
0.0
  0
VERTEX
  5
2BBE
  8
SAPA_FOGBAND
 10
248.6821280319744
 20
-34.531049254311498
 30
0.0
 42
0.3826682380870913
  0
VERTEX
  5
2BBF
  8
SAPA_FOGBAND
 10
247.68805072686871
 20
-35.422373997360651
 30
0.0
  0
VERTEX
  5
2BC0
  8
SAPA_FOGBAND
 10
246.9115158091852
 20
-41.026842757657739
 30
0.0
  0
VERTEX
  5
2BC1
  8
SAPA_FOGBAND
 10
246.9115158091852
 20
-54.732376416880712
 30
0.0
 42
0.4257917699693507
  0
VERTEX
  5
2BC2
  8
SAPA_FOGBAND
 10
247.2233231717162
 20
-55.032143970478742
 30
0.0
  0
VERTEX
  5
2BC3
  8
SAPA_FOGBAND
 10
255.62332317171661
 20
-54.544304155809428
 30
0.0
 42
0.4027293761437475
  0
VERTEX
  5
2BC4
  8
SAPA_FOGBAND
 10
255.91151580918589
 20
-54.24453660221139
 30
0.0
  0
VERTEX
  5
2BC5
  8
SAPA_FOGBAND
 10
255.91151580918589
 20
-51.73237643883045
 30
0.0
 42
-0.4142135623730951
  0
VERTEX
  5
2BC6
  8
SAPA_FOGBAND
 10
256.41151580918591
 20
-51.232376438829547
 30
0.0
  0
VERTEX
  5
2BC7
  8
SAPA_FOGBAND
 10
257.35294122606729
 20
-51.232376438829547
 30
0.0
  0
SEQEND
  5
2BC8
  8
SAPA_FOGBAND
  0
POLYLINE
  5
1994
  8
SAPA_FOGBAND
 66
     1
 10
0.0
 20
0.0
 30
0.0
 70
     1
  0
VERTEX
  5
2BC9
  8
SAPA_FOGBAND
 10
257.8261463068244
 20
-48.832376438829911
 30
0.0
  0
VERTEX
  5
2BCA
  8
SAPA_FOGBAND
 10
257.22614630682489
 20
-48.832376438829911
 30
0.0
 42
0.9999999999999998
  0
VERTEX
  5
2BCB
  8
SAPA_FOGBAND
 10
257.22614630682489
 20
-50.6323764388301
 30
0.0
  0
VERTEX
  5
2BCC
  8
SAPA_FOGBAND
 10
257.8261463068244
 20
-50.6323764388301
 30
0.0
 42
0.9999999999999998
  0
SEQEND
  5
2BCD
  8
SAPA_FOGBAND
  0
POLYLINE
  5
1995
  8
SAPA_FOGBAND
 66
     1
 10
0.0
 20
0.0
 30
0.0
  0
VERTEX
  5
2BCE
  8
SAPA_FOGBAND
 10
255.91151580918589
 20
-53.332376438829911
 30
0.0
  0
VERTEX
  5
2BCF
  8
SAPA_FOGBAND
 10
255.6115158091857
 20
-53.332376438829911
 30
0.0
 42
-0.4142135623730951
  0
VERTEX
  5
2BD0
  8
SAPA_FOGBAND
 10
255.1115158091857
 20
-52.832376438829911
 30
0.0
  0
VERTEX
  5
2BD1
  8
SAPA_FOGBAND
 10
255.1115158091857
 20
-45.532376438829722
 30
0.0
 42
-0.4142135623730951
  0
VERTEX
  5
2BD2
  8
SAPA_FOGBAND
 10
255.6115158091857
 20
-45.032376438829729
 30
0.0
  0
VERTEX
  5
2BD3
  8
SAPA_FOGBAND
 10
255.91151580918589
 20
-45.032376438830632
 30
0.0
  0
SEQEND
  5
2BD4
  8
SAPA_FOGBAND
  0
POLYLINE
  5
1996
  8
SAPA_FOGBAND
 10
253.07012366813029
 20
-48.514152587743929
 30
0.0
 66
     1
 70
     8
  0
VERTEX
  8
SAPA_FOGBAND
  5
2CFA
 10
253.070
 20
-48.5142
 30
0.000000
  70
    32
  0
VERTEX
  8
SAPA_FOGBAND
  5
2CFB
 10
253.066
 20
-48.6760
 30
0.000000
  70
    32
  0
VERTEX
  8
SAPA_FOGBAND
  5
2CFC
 10
253.059
 20
-48.8374
 30
0.000000
  70
    32
  0
VERTEX
  8
SAPA_FOGBAND
  5
2CFD
 10
253.047
 20
-48.9979
 30
0.000000
  70
    32
  0
VERTEX
  8
SAPA_FOGBAND
  5
2CFE
 10
253.031
 20
-49.1573
 30
0.000000
  70
    32
  0
VERTEX
  8
SAPA_FOGBAND
  5
2CFF
 10
253.012
 20
-49.3151
 30
0.000000
  70
    32
  0
VERTEX
  8
SAPA_FOGBAND
  5
2D00
 10
252.988
 20
-49.4709
 30
0.000000
  70
    32
  0
VERTEX
  8
SAPA_FOGBAND
  5
2D01
 10
252.960
 20
-49.6243
 30
0.000000
  70
    32
  0
VERTEX
  8
SAPA_FOGBAND
  5
2D02
 10
252.929
 20
-49.7751
 30
0.000000
  70
    32
  0
VERTEX
  8
SAPA_FOGBAND
  5
2D03
 10
252.894
 20
-49.9227
 30
0.000000
  70
    32
  0
VERTEX
  8
SAPA_FOGBAND
  5
2D04
 10
252.855
 20
-50.0670
 30
0.000000
  70
    32
  0
VERTEX
  8
SAPA_FOGBAND
  5
2D05
 10
252.813
 20
-50.2074
 30
0.000000
  70
    32
  0
VERTEX
  8
SAPA_FOGBAND
  5
2D06
 10
252.767
 20
-50.3437
 30
0.000000
  70
    32
  0
VERTEX
  8
SAPA_FOGBAND
  5
2D07
 10
252.718
 20
-50.4756
 30
0.000000
  70
    32
  0
VERTEX
  8
SAPA_FOGBAND
  5
2D08
 10
252.666
 20
-50.6027
 30
0.000000
  70
    32
  0
VERTEX
  8
SAPA_FOGBAND
  5
2D09
 10
252.611
 20
-50.7248
 30
0.000000
  70
    32
  0
VERTEX
  8
SAPA_FOGBAND
  5
2D0A
 10
252.553
 20
-50.8415
 30
0.000000
  70
    32
  0
VERTEX
  8
SAPA_FOGBAND
  5
2D0B
 10
252.492
 20
-50.9525
 30
0.000000
  70
    32
  0
VERTEX
  8
SAPA_FOGBAND
  5
2D0C
 10
252.428
 20
-51.0576
 30
0.000000
  70
    32
  0
VERTEX
  8
SAPA_FOGBAND
  5
2D0D
 10
252.361
 20
-51.1566
 30
0.000000
  70
    32
  0
VERTEX
  8
SAPA_FOGBAND
  5
2D0E
 10
252.293
 20
-51.2491
 30
0.000000
  70
    32
  0
VERTEX
  8
SAPA_FOGBAND
  5
2D0F
 10
252.222
 20
-51.3350
 30
0.000000
  70
    32
  0
VERTEX
  8
SAPA_FOGBAND
  5
2D10
 10
252.149
 20
-51.4141
 30
0.000000
  70
    32
  0
VERTEX
  8
SAPA_FOGBAND
  5
2D11
 10
252.074
 20
-51.4861
 30
0.000000
  70
    32
  0
VERTEX
  8
SAPA_FOGBAND
  5
2D12
 10
251.998
 20
-51.5510
 30
0.000000
  70
    32
  0
VERTEX
  8
SAPA_FOGBAND
  5
2D13
 10
251.920
 20
-51.6085
 30
0.000000
  70
    32
  0
VERTEX
  8
SAPA_FOGBAND
  5
2D14
 10
251.841
 20
-51.6585
 30
0.000000
  70
    32
  0
VERTEX
  8
SAPA_FOGBAND
  5
2D15
 10
251.761
 20
-51.7009
 30
0.000000
  70
    32
  0
VERTEX
  8
SAPA_FOGBAND
  5
2D16
 10
251.680
 20
-51.7355
 30
0.000000
  70
    32
  0
VERTEX
  8
SAPA_FOGBAND
  5
2D17
 10
251.598
 20
-51.7624
 30
0.000000
  70
    32
  0
VERTEX
  8
SAPA_FOGBAND
  5
2D18
 10
251.515
 20
-51.7814
 30
0.000000
  70
    32
  0
VERTEX
  8
SAPA_FOGBAND
  5
2D19
 10
251.433
 20
-51.7925
 30
0.000000
  70
    32
  0
VERTEX
  8
SAPA_FOGBAND
  5
2D1A
 10
251.350
 20
-51.7956
 30
0.000000
  70
    32
  0
VERTEX
  8
SAPA_FOGBAND
  5
2D1B
 10
251.267
 20
-51.7908
 30
0.000000
  70
    32
  0
VERTEX
  8
SAPA_FOGBAND
  5
2D1C
 10
251.184
 20
-51.7781
 30
0.000000
  70
    32
  0
VERTEX
  8
SAPA_FOGBAND
  5
2D1D
 10
251.102
 20
-51.7575
 30
0.000000
  70
    32
  0
VERTEX
  8
SAPA_FOGBAND
  5
2D1E
 10
251.021
 20
-51.7290
 30
0.000000
  70
    32
  0
VERTEX
  8
SAPA_FOGBAND
  5
2D1F
 10
250.941
 20
-51.6927
 30
0.000000
  70
    32
  0
VERTEX
  8
SAPA_FOGBAND
  5
2D20
 10
250.861
 20
-51.6487
 30
0.000000
  70
    32
  0
VERTEX
  8
SAPA_FOGBAND
  5
2D21
 10
250.783
 20
-51.5972
 30
0.000000
  70
    32
  0
VERTEX
  8
SAPA_FOGBAND
  5
2D22
 10
250.706
 20
-51.5381
 30
0.000000
  70
    32
  0
VERTEX
  8
SAPA_FOGBAND
  5
2D23
 10
250.631
 20
-51.4718
 30
0.000000
  70
    32
  0
VERTEX
  8
SAPA_FOGBAND
  5
2D24
 10
250.558
 20
-51.3983
 30
0.000000
  70
    32
  0
VERTEX
  8
SAPA_FOGBAND
  5
2D25
 10
250.487
 20
-51.3177
 30
0.000000
  70
    32
  0
VERTEX
  8
SAPA_FOGBAND
  5
2D26
 10
250.418
 20
-51.2304
 30
0.000000
  70
    32
  0
VERTEX
  8
SAPA_FOGBAND
  5
2D27
 10
250.351
 20
-51.1365
 30
0.000000
  70
    32
  0
VERTEX
  8
SAPA_FOGBAND
  5
2D28
 10
250.287
 20
-51.0363
 30
0.000000
  70
    32
  0
VERTEX
  8
SAPA_FOGBAND
  5
2D29
 10
250.225
 20
-50.9299
 30
0.000000
  70
    32
  0
VERTEX
  8
SAPA_FOGBAND
  5
2D2A
 10
250.166
 20
-50.8177
 30
0.000000
  70
    32
  0
VERTEX
  8
SAPA_FOGBAND
  5
2D2B
 10
250.110
 20
-50.6999
 30
0.000000
  70
    32
  0
VERTEX
  8
SAPA_FOGBAND
  5
2D2C
 10
250.057
 20
-50.5768
 30
0.000000
  70
    32
  0
VERTEX
  8
SAPA_FOGBAND
  5
2D2D
 10
250.007
 20
-50.4486
 30
0.000000
  70
    32
  0
VERTEX
  8
SAPA_FOGBAND
  5
2D2E
 10
249.961
 20
-50.3158
 30
0.000000
  70
    32
  0
VERTEX
  8
SAPA_FOGBAND
  5
2D2F
 10
249.918
 20
-50.1786
 30
0.000000
  70
    32
  0
VERTEX
  8
SAPA_FOGBAND
  5
2D30
 10
249.879
 20
-50.0373
 30
0.000000
  70
    32
  0
VERTEX
  8
SAPA_FOGBAND
  5
2D31
 10
249.843
 20
-49.8924
 30
0.000000
  70
    32
  0
VERTEX
  8
SAPA_FOGBAND
  5
2D32
 10
249.811
 20
-49.7440
 30
0.000000
  70
    32
  0
VERTEX
  8
SAPA_FOGBAND
  5
2D33
 10
249.782
 20
-49.5927
 30
0.000000
  70
    32
  0
VERTEX
  8
SAPA_FOGBAND
  5
2D34
 10
249.758
 20
-49.4387
 30
0.000000
  70
    32
  0
VERTEX
  8
SAPA_FOGBAND
  5
2D35
 10
249.737
 20
-49.2825
 30
0.000000
  70
    32
  0
VERTEX
  8
SAPA_FOGBAND
  5
2D36
 10
249.721
 20
-49.1243
 30
0.000000
  70
    32
  0
VERTEX
  8
SAPA_FOGBAND
  5
2D37
 10
249.708
 20
-48.9647
 30
0.000000
  70
    32
  0
VERTEX
  8
SAPA_FOGBAND
  5
2D38
 10
249.700
 20
-48.8039
 30
0.000000
  70
    32
  0
VERTEX
  8
SAPA_FOGBAND
  5
2D39
 10
249.695
 20
-48.6424
 30
0.000000
  70
    32
  0
VERTEX
  8
SAPA_FOGBAND
  5
2D3A
 10
249.695
 20
-48.4806
 30
0.000000
  70
    32
  0
VERTEX
  8
SAPA_FOGBAND
  5
2D3B
 10
249.699
 20
-48.3187
 30
0.000000
  70
    32
  0
VERTEX
  8
SAPA_FOGBAND
  5
2D3C
 10
249.706
 20
-48.1574
 30
0.000000
  70
    32
  0
VERTEX
  8
SAPA_FOGBAND
  5
2D3D
 10
249.718
 20
-47.9968
 30
0.000000
  70
    32
  0
VERTEX
  8
SAPA_FOGBAND
  5
2D3E
 10
249.734
 20
-47.8374
 30
0.000000
  70
    32
  0
VERTEX
  8
SAPA_FOGBAND
  5
2D3F
 10
249.753
 20
-47.6796
 30
0.000000
  70
    32
  0
VERTEX
  8
SAPA_FOGBAND
  5
2D40
 10
249.777
 20
-47.5238
 30
0.000000
  70
    32
  0
VERTEX
  8
SAPA_FOGBAND
  5
2D41
 10
249.805
 20
-47.3704
 30
0.000000
  70
    32
  0
VERTEX
  8
SAPA_FOGBAND
  5
2D42
 10
249.836
 20
-47.2196
 30
0.000000
  70
    32
  0
VERTEX
  8
SAPA_FOGBAND
  5
2D43
 10
249.871
 20
-47.0720
 30
0.000000
  70
    32
  0
VERTEX
  8
SAPA_FOGBAND
  5
2D44
 10
249.910
 20
-46.9277
 30
0.000000
  70
    32
  0
VERTEX
  8
SAPA_FOGBAND
  5
2D45
 10
249.952
 20
-46.7873
 30
0.000000
  70
    32
  0
VERTEX
  8
SAPA_FOGBAND
  5
2D46
 10
249.998
 20
-46.6510
 30
0.000000
  70
    32
  0
VERTEX
  8
SAPA_FOGBAND
  5
2D47
 10
250.047
 20
-46.5191
 30
0.000000
  70
    32
  0
VERTEX
  8
SAPA_FOGBAND
  5
2D48
 10
250.099
 20
-46.3920
 30
0.000000
  70
    32
  0
VERTEX
  8
SAPA_FOGBAND
  5
2D49
 10
250.154
 20
-46.2699
 30
0.000000
  70
    32
  0
VERTEX
  8
SAPA_FOGBAND
  5
2D4A
 10
250.212
 20
-46.1532
 30
0.000000
  70
    32
  0
VERTEX
  8
SAPA_FOGBAND
  5
2D4B
 10
250.274
 20
-46.0422
 30
0.000000
  70
    32
  0
VERTEX
  8
SAPA_FOGBAND
  5
2D4C
 10
250.337
 20
-45.9371
 30
0.000000
  70
    32
  0
VERTEX
  8
SAPA_FOGBAND
  5
2D4D
 10
250.404
 20
-45.8382
 30
0.000000
  70
    32
  0
VERTEX
  8
SAPA_FOGBAND
  5
2D4E
 10
250.472
 20
-45.7456
 30
0.000000
  70
    32
  0
VERTEX
  8
SAPA_FOGBAND
  5
2D4F
 10
250.543
 20
-45.6597
 30
0.000000
  70
    32
  0
VERTEX
  8
SAPA_FOGBAND
  5
2D50
 10
250.616
 20
-45.5806
 30
0.000000
  70
    32
  0
VERTEX
  8
SAPA_FOGBAND
  5
2D51
 10
250.691
 20
-45.5086
 30
0.000000
  70
    32
  0
VERTEX
  8
SAPA_FOGBAND
  5
2D52
 10
250.767
 20
-45.4437
 30
0.000000
  70
    32
  0
VERTEX
  8
SAPA_FOGBAND
  5
2D53
 10
250.845
 20
-45.3862
 30
0.000000
  70
    32
  0
VERTEX
  8
SAPA_FOGBAND
  5
2D54
 10
250.924
 20
-45.3362
 30
0.000000
  70
    32
  0
VERTEX
  8
SAPA_FOGBAND
  5
2D55
 10
251.004
 20
-45.2939
 30
0.000000
  70
    32
  0
VERTEX
  8
SAPA_FOGBAND
  5
2D56
 10
251.085
 20
-45.2592
 30
0.000000
  70
    32
  0
VERTEX
  8
SAPA_FOGBAND
  5
2D57
 10
251.167
 20
-45.2323
 30
0.000000
  70
    32
  0
VERTEX
  8
SAPA_FOGBAND
  5
2D58
 10
251.250
 20
-45.2133
 30
0.000000
  70
    32
  0
VERTEX
  8
SAPA_FOGBAND
  5
2D59
 10
251.332
 20
-45.2022
 30
0.000000
  70
    32
  0
VERTEX
  8
SAPA_FOGBAND
  5
2D5A
 10
251.415
 20
-45.1991
 30
0.000000
  70
    32
  0
VERTEX
  8
SAPA_FOGBAND
  5
2D5B
 10
251.498
 20
-45.2039
 30
0.000000
  70
    32
  0
VERTEX
  8
SAPA_FOGBAND
  5
2D5C
 10
251.581
 20
-45.2166
 30
0.000000
  70
    32
  0
VERTEX
  8
SAPA_FOGBAND
  5
2D5D
 10
251.663
 20
-45.2373
 30
0.000000
  70
    32
  0
VERTEX
  8
SAPA_FOGBAND
  5
2D5E
 10
251.744
 20
-45.2657
 30
0.000000
  70
    32
  0
VERTEX
  8
SAPA_FOGBAND
  5
2D5F
 10
251.824
 20
-45.3020
 30
0.000000
  70
    32
  0
VERTEX
  8
SAPA_FOGBAND
  5
2D60
 10
251.904
 20
-45.3460
 30
0.000000
  70
    32
  0
VERTEX
  8
SAPA_FOGBAND
  5
2D61
 10
251.982
 20
-45.3975
 30
0.000000
  70
    32
  0
VERTEX
  8
SAPA_FOGBAND
  5
2D62
 10
252.059
 20
-45.4566
 30
0.000000
  70
    32
  0
VERTEX
  8
SAPA_FOGBAND
  5
2D63
 10
252.134
 20
-45.5229
 30
0.000000
  70
    32
  0
VERTEX
  8
SAPA_FOGBAND
  5
2D64
 10
252.207
 20
-45.5965
 30
0.000000
  70
    32
  0
VERTEX
  8
SAPA_FOGBAND
  5
2D65
 10
252.278
 20
-45.6770
 30
0.000000
  70
    32
  0
VERTEX
  8
SAPA_FOGBAND
  5
2D66
 10
252.347
 20
-45.7643
 30
0.000000
  70
    32
  0
VERTEX
  8
SAPA_FOGBAND
  5
2D67
 10
252.414
 20
-45.8582
 30
0.000000
  70
    32
  0
VERTEX
  8
SAPA_FOGBAND
  5
2D68
 10
252.478
 20
-45.9584
 30
0.000000
  70
    32
  0
VERTEX
  8
SAPA_FOGBAND
  5
2D69
 10
252.540
 20
-46.0648
 30
0.000000
  70
    32
  0
VERTEX
  8
SAPA_FOGBAND
  5
2D6A
 10
252.599
 20
-46.1770
 30
0.000000
  70
    32
  0
VERTEX
  8
SAPA_FOGBAND
  5
2D6B
 10
252.655
 20
-46.2948
 30
0.000000
  70
    32
  0
VERTEX
  8
SAPA_FOGBAND
  5
2D6C
 10
252.708
 20
-46.4179
 30
0.000000
  70
    32
  0
VERTEX
  8
SAPA_FOGBAND
  5
2D6D
 10
252.758
 20
-46.5461
 30
0.000000
  70
    32
  0
VERTEX
  8
SAPA_FOGBAND
  5
2D6E
 10
252.804
 20
-46.6789
 30
0.000000
  70
    32
  0
VERTEX
  8
SAPA_FOGBAND
  5
2D6F
 10
252.847
 20
-46.8161
 30
0.000000
  70
    32
  0
VERTEX
  8
SAPA_FOGBAND
  5
2D70
 10
252.886
 20
-46.9574
 30
0.000000
  70
    32
  0
VERTEX
  8
SAPA_FOGBAND
  5
2D71
 10
252.922
 20
-47.1023
 30
0.000000
  70
    32
  0
VERTEX
  8
SAPA_FOGBAND
  5
2D72
 10
252.954
 20
-47.2507
 30
0.000000
  70
    32
  0
VERTEX
  8
SAPA_FOGBAND
  5
2D73
 10
252.983
 20
-47.4020
 30
0.000000
  70
    32
  0
VERTEX
  8
SAPA_FOGBAND
  5
2D74
 10
253.007
 20
-47.5560
 30
0.000000
  70
    32
  0
VERTEX
  8
SAPA_FOGBAND
  5
2D75
 10
253.028
 20
-47.7122
 30
0.000000
  70
    32
  0
VERTEX
  8
SAPA_FOGBAND
  5
2D76
 10
253.044
 20
-47.8704
 30
0.000000
  70
    32
  0
VERTEX
  8
SAPA_FOGBAND
  5
2D77
 10
253.057
 20
-48.0300
 30
0.000000
  70
    32
  0
VERTEX
  8
SAPA_FOGBAND
  5
2D78
 10
253.065
 20
-48.1908
 30
0.000000
  70
    32
  0
VERTEX
  8
SAPA_FOGBAND
  5
2D79
 10
253.070
 20
-48.3523
 30
0.000000
  70
    32
  0
VERTEX
  8
SAPA_FOGBAND
  5
2D7A
 10
253.070
 20
-48.5142
 30
0.000000
  70
    32
  0
SEQEND
  8
SAPA_FOGBAND
  5
2D7B
  0
POLYLINE
  5
1997
  8
SAPA_FOGBAND
 66
     1
 10
0.0
 20
0.0
 30
0.0
 70
     1
  0
VERTEX
  5
2BD5
  8
SAPA_FOGBAND
 10
248.4581909432234
 20
-38.422374019309487
 30
0.0
  0
VERTEX
  5
2BD6
  8
SAPA_FOGBAND
 10
247.9662386033331
 20
-41.423701181878883
 30
0.0
 42
0.4464785874932524
  0
VERTEX
  5
2BD7
  8
SAPA_FOGBAND
 10
248.9603159084389
 20
-42.532376438830632
 30
0.0
  0
VERTEX
  5
2BD8
  8
SAPA_FOGBAND
 10
252.06136806259639
 20
-42.532376438830632
 30
0.0
 42
0.622676997742357
  0
VERTEX
  5
2BD9
  8
SAPA_FOGBAND
 10
252.8532497907598
 20
-40.92170195221685
 30
0.0
  0
VERTEX
  5
2BDA
  8
SAPA_FOGBAND
 10
250.37821446824259
 20
-37.920374789647461
 30
0.0
 42
0.6488456670267916
  0
VERTEX
  5
2BDB
  8
SAPA_FOGBAND
 10
248.4581909432234
 20
-38.422374019309487
 30
0.0
  0
VERTEX
  5
2BDC
  8
SAPA_FOGBAND
 10
248.4581909432234
 20
-38.422374019309487
 30
0.0
 42
0.7183425420956111
  0
SEQEND
  5
2BDD
  8
SAPA_FOGBAND
  0
DIMENSION
  5
199F
  8
SAPA_MATT
  2
*D137
 10
165.4644425791754
 20
109.96895074572809
 30
0.0
 11
162.96444257917531
 21
63.968950745728179
 31
0.0
 70
     0
 13
202.1847407138637
 23
17.96895074572819
 33
0.0
 14
208.7115158004961
 24
109.96895074572809
 34
0.0
 50
90.0
1001
ACAD
1000
DSTYLE
1002
{
1070
   287
1070
     4
1070
    40
1040
1.0
1070
   279
1070
     1
1002
}
  0
DIMENSION
  5
19A0
  8
SAPA_MATT
  2
*D136
 10
165.46444257917531
 20
17.968950745728211
 30
0.0
 11
162.96444257917531
 21
6.718950745706799
 31
0.0
 70
     0
 13
185.41151580918509
 23
-4.5310492543146657
 33
0.0
 14
202.1847407138637
 24
17.96895074572819
 34
0.0
 50
90.0
1001
ACAD
1000
DSTYLE
1002
{
1070
   287
1070
     4
1070
    40
1040
1.0
1070
   279
1070
     1
1002
}
  0
DIMENSION
  5
19A1
  8
SAPA_MATT
  2
*D135
 10
165.46444257917531
 20
-4.5310492543146612
 30
0.0
 11
162.96444257917531
 21
-29.531049254314642
 31
0.0
 70
     0
 13
185.41151580918509
 23
-54.531049254314667
 33
0.0
 14
185.41151580918509
 24
-4.5310492543146657
 34
0.0
 50
90.0
1001
ACAD
1000
DSTYLE
1002
{
1070
    40
1040
1.0
1002
}
  0
VIEWPORT
  5
C4
 67
     1
  8
0
 10
143.06236603067589
 20
116.00969601843509
 30
0.0
 40
369.98580003443811
 41
256.8421457311839
 68
     1
 69
     1
1001
ACAD
1000
MVIEW
1002
{
1070
    16
1010
0.0
1020
0.0
1030
0.0
1010
0.0
1020
0.0
1030
1.0
1040
0.0
1040
256.8421457311839
1040
99.112914085388169
1040
143.07606935501099
1040
50.0
1040
0.0
1040
0.0
1070
     0
1070
     0
1070
     1
1070
     1
1070
     0
1070
     0
1070
     0
1070
     0
1040
0.0
1040
0.0
1040
0.0
1040
10.0
1040
10.0
1040
10.0
1040
10.0
1070
     0
1002
{
1002
}
1002
}
  0
ENDSEC
  0
EOF
