  0
SECTION
  2
HEADER
  9
$ACADVER
  1
AC1009
  9
$INSBASE
 10
0.0
 20
0.0
 30
0.0
  9
$EXTMIN
 10
-140.74999999901041
 20
-141.12503395628261
 30
0.0
  9
$EXTMAX
 10
82.009403434165677
 20
75.585729413463582
 30
0.0000000195376815
  9
$LIMMIN
 10
0.0
 20
0.0
  9
$LIMMAX
 10
790.0
 20
790.0
  9
$ORTHOMODE
 70
     0
  9
$REGENMODE
 70
     1
  9
$FILLMODE
 70
     1
  9
$QTEXTMODE
 70
     0
  9
$MIRRTEXT
 70
     1
  9
$DRAGMODE
 70
     2
  9
$LTSCALE
 40
4.0
  9
$OSMODE
 70
   167
  9
$ATTMODE
 70
     1
  9
$TEXTSIZE
 40
3.5
  9
$TRACEWID
 40
0.05
  9
$TEXTSTYLE
  7
ISO
  9
$CLAYER
  8
0
  9
$CELTYPE
  6
BYLAYER
  9
$CECOLOR
 62
   256
  9
$DIMSCALE
 40
0.0
  9
$DIMASZ
 40
3.0
  9
$DIMEXO
 40
1.5
  9
$DIMDLI
 40
10.0
  9
$DIMRND
 40
0.0
  9
$DIMDLE
 40
0.0
  9
$DIMEXE
 40
1.5
  9
$DIMTP
 40
0.0
  9
$DIMTM
 40
0.0
  9
$DIMTXT
 40
3.5
  9
$DIMCEN
 40
-5.0
  9
$DIMTSZ
 40
0.0
  9
$DIMTOL
 70
     0
  9
$DIMLIM
 70
     0
  9
$DIMTIH
 70
     0
  9
$DIMTOH
 70
     0
  9
$DIMSE1
 70
     0
  9
$DIMSE2
 70
     0
  9
$DIMTAD
 70
     1
  9
$DIMZIN
 70
     8
  9
$DIMBLK
  1

  9
$DIMASO
 70
     1
  9
$DIMSHO
 70
     1
  9
$DIMPOST
  1

  9
$DIMAPOST
  1

  9
$DIMALT
 70
     0
  9
$DIMALTD
 70
     0
  9
$DIMALTF
 40
25.399999999999999
  9
$DIMLFAC
 40
-1.0
  9
$DIMTOFL
 70
     1
  9
$DIMTVP
 40
0.0
  9
$DIMTIX
 70
     0
  9
$DIMSOXD
 70
     0
  9
$DIMSAH
 70
     0
  9
$DIMBLK1
  1

  9
$DIMBLK2
  1

  9
$DIMSTYLE
  2
MASKIN
  9
$DIMCLRD
 70
   256
  9
$DIMCLRE
 70
   256
  9
$DIMCLRT
 70
     2
  9
$DIMTFAC
 40
1.0
  9
$DIMGAP
 40
1.0
  9
$LUNITS
 70
     2
  9
$LUPREC
 70
     8
  9
$SKETCHINC
 40
0.1
  9
$FILLETRAD
 40
0.0
  9
$AUNITS
 70
     0
  9
$AUPREC
 70
     8
  9
$MENU
  1
ACAD
  9
$ELEVATION
 40
0.0
  9
$PELEVATION
 40
0.0
  9
$THICKNESS
 40
0.0
  9
$LIMCHECK
 70
     0
  9
$BLIPMODE
 70
     0
  9
$CHAMFERA
 40
0.0
  9
$CHAMFERB
 40
0.0
  9
$SKPOLY
 70
     0
  9
$TDCREATE
 40
2454981.3237536349
  9
$TDUPDATE
 40
2457105.5485216551
  9
$TDINDWG
 40
0.0798975116
  9
$TDUSRTIMER
 40
0.0798973264
  9
$USRTIMER
 70
     1
  9
$ANGBASE
 50
0.0
  9
$ANGDIR
 70
     0
  9
$PDMODE
 70
     0
  9
$PDSIZE
 40
0.0
  9
$PLINEWID
 40
0.0
  9
$COORDS
 70
     1
  9
$SPLFRAME
 70
     0
  9
$SPLINETYPE
 70
     6
  9
$SPLINESEGS
 70
     8
  9
$ATTDIA
 70
     0
  9
$ATTREQ
 70
     1
  9
$HANDLING
 70
     1
  9
$HANDSEED
  5
292E
  9
$SURFTAB1
 70
     6
  9
$SURFTAB2
 70
     6
  9
$SURFTYPE
 70
     6
  9
$SURFU
 70
     6
  9
$SURFV
 70
     6
  9
$UCSNAME
  2

  9
$UCSORG
 10
0.0
 20
0.0
 30
0.0
  9
$UCSXDIR
 10
1.0
 20
0.0
 30
0.0
  9
$UCSYDIR
 10
0.0
 20
1.0
 30
0.0
  9
$PUCSNAME
  2

  9
$PUCSORG
 10
0.0
 20
0.0
 30
0.0
  9
$PUCSXDIR
 10
1.0
 20
0.0
 30
0.0
  9
$PUCSYDIR
 10
0.0
 20
1.0
 30
0.0
  9
$USERI1
 70
     0
  9
$USERI2
 70
     0
  9
$USERI3
 70
     0
  9
$USERI4
 70
     0
  9
$USERI5
 70
     0
  9
$USERR1
 40
0.0
  9
$USERR2
 40
0.0
  9
$USERR3
 40
0.0
  9
$USERR4
 40
0.0
  9
$USERR5
 40
0.0
  9
$WORLDVIEW
 70
     1
  9
$SHADEDGE
 70
     3
  9
$SHADEDIF
 70
    70
  9
$TILEMODE
 70
     1
  9
$MAXACTVP
 70
    16
  9
$PLIMCHECK
 70
     0
  9
$PEXTMIN
 10
1.0000000000000000E+020
 20
1.0000000000000000E+020
 30
1.0000000000000000E+020
  9
$PEXTMAX
 10
-1.0000000000000000E+020
 20
-1.0000000000000000E+020
 30
-1.0000000000000000E+020
  9
$PLIMMIN
 10
-5.069427490234375
 20
-5.8737497329711914
  9
$PLIMMAX
 10
291.89889526367187
 20
204.0995779037475
  9
$UNITMODE
 70
     0
  9
$VISRETAIN
 70
     1
  9
$PLINEGEN
 70
     0
  9
$PSLTSCALE
 70
     1
  0
ENDSEC
  0
SECTION
  2
TABLES
  0
TABLE
  2
VPORT
 70
     1
  0
VPORT
  2
*ACTIVE
 70
     0
 10
0.0
 20
0.0
 11
1.0
 21
1.0
 12
-27.019437938693791
 22
84.711010347575609
 13
0.0
 23
0.0
 14
1.0
 24
1.0
 15
0.0
 25
0.0
 16
0.0
 26
0.0
 36
1.0
 17
0.0
 27
0.0
 37
0.0
 40
296.94809496272347
 41
1.7436619718309849
 42
50.0
 43
0.0
 44
0.0
 50
0.0
 51
0.0
 71
     0
 72
   100
 73
     1
 74
     1
 75
     0
 76
     0
 77
     0
 78
     0
  0
ENDTAB
  0
TABLE
  2
LTYPE
 70
    44
  0
LTYPE
  2
CONTINUOUS
 70
     0
  3
Solid line
 72
    65
 73
     0
 40
0.0
  0
LTYPE
  2
BYGG-01482201$0$NEWDOT
 70
     0
  3
____ . ____ . ____ . ____ . ____ . ____ . ____
 72
    65
 73
     4
 40
2.0
 49
1.0
 49
-0.5
 49
0.0
 49
-0.5
  0
LTYPE
  2
BYGG-023714$0$NEWDOT
 70
     0
  3
____ . ____ . ____ . ____ . ____ . ____ . ____
 72
    65
 73
     4
 40
2.0
 49
1.0
 49
-0.5
 49
0.0
 49
-0.5
  0
LTYPE
  2
BYGG-023714$0$DASHDOT
 70
     0
  3
__ . __ . __ . __ . __ . __ . __ . __ . __ . __
 72
    65
 73
     4
 40
1.0
 49
0.5
 49
-0.25
 49
0.0
 49
-0.25
  0
LTYPE
  2
BYGG-023714$0$DASHED
 70
     0
  3
__ __ __ __ __ __ __ __ __ __ __ __ __ __ __
 72
    65
 73
     2
 40
0.75
 49
0.5
 49
-0.25
  0
LTYPE
  2
BYGG-023714$0$PHANTOM
 70
     0
  3
Phantom ______  __  __  ______  __  __  ______
 72
    65
 73
     6
 40
63.5
 49
31.75
 49
-6.3499999999999988
 49
6.3499999999999988
 49
-6.3499999999999988
 49
6.3499999999999988
 49
-6.3499999999999988
  0
LTYPE
  2
BYGG-014279$0$NEWDOT
 70
     0
  3
____ . ____ . ____ . ____ . ____ . ____ . ____
 72
    65
 73
     4
 40
2.0
 49
1.0
 49
-0.5
 49
0.0
 49
-0.5
  0
LTYPE
  2
BYGG-01482201$0$ZIGZAG
 70
     0
  3
Zig zag /\/\/\/\/\/\/\/\/\/\/\/\/\/\/\/\/\/\/\/\/\/\/\/
 72
    65
 73
     4
 40
20.32254
 49
0.00254
 49
-5.0800000000000001
 49
-10.16
 49
-5.0800000000000001
  0
LTYPE
  2
BYGG-014279$0$ZIGZAG
 70
     0
  3
Zig zag /\/\/\/\/\/\/\/\/\/\/\/\/\/\/\/\/\/\/\/\/\/\/\/
 72
    65
 73
     4
 40
20.32254
 49
0.00254
 49
-5.0800000000000001
 49
-10.16
 49
-5.0800000000000001
  0
LTYPE
  2
BYGG-023714$0$ZIGZAG
 70
     0
  3
Zig zag /\/\/\/\/\/\/\/\/\/\/\/\/\/\/\/\/\/\/\/\/\/\/\/
 72
    65
 73
     4
 40
20.32254
 49
0.00254
 49
-5.0800000000000001
 49
-10.16
 49
-5.0800000000000001
  0
LTYPE
  2
BYGG-020805$0$NEWDOT
 70
     0
  3
____ . ____ . ____ . ____ . ____ . ____ . ____
 72
    65
 73
     4
 40
2.0
 49
1.0
 49
-0.5
 49
0.0
 49
-0.5
  0
LTYPE
  2
BYGG-020805$0$DASHDOT
 70
     0
  3
__ . __ . __ . __ . __ . __ . __ . __ . __ . __
 72
    65
 73
     4
 40
1.0
 49
0.5
 49
-0.25
 49
0.0
 49
-0.25
  0
LTYPE
  2
BYGG-020805$0$DASHED
 70
     0
  3
__ __ __ __ __ __ __ __ __ __ __ __ __ __ __
 72
    65
 73
     2
 40
0.75
 49
0.5
 49
-0.25
  0
LTYPE
  2
BYGG-020805$0$PHANTOM
 70
     0
  3
Phantom ______  __  __  ______  __  __  ______
 72
    65
 73
     6
 40
63.5
 49
31.75
 49
-6.3499999999999988
 49
6.3499999999999988
 49
-6.3499999999999988
 49
6.3499999999999988
 49
-6.3499999999999988
  0
LTYPE
  2
BYGG-033246$0$NEWDOT
 70
     0
  3
____ . ____ . ____ . ____ . ____ . ____ . ____
 72
    65
 73
     4
 40
2.0
 49
1.0
 49
-0.5
 49
0.0
 49
-0.5
  0
LTYPE
  2
BYGG-033246$0$DASHDOT
 70
     0
  3
__ . __ . __ . __ . __ . __ . __ . __ . __ . __
 72
    65
 73
     4
 40
1.0
 49
0.5
 49
-0.25
 49
0.0
 49
-0.25
  0
LTYPE
  2
BYGG-033246$0$DASHED
 70
     0
  3
__ __ __ __ __ __ __ __ __ __ __ __ __ __ __
 72
    65
 73
     2
 40
0.75
 49
0.5
 49
-0.25
  0
LTYPE
  2
BYGG-033246$0$PHANTOM
 70
     0
  3
Phantom ______  __  __  ______  __  __  ______
 72
    65
 73
     6
 40
63.5
 49
31.75
 49
-6.3499999999999988
 49
6.3499999999999988
 49
-6.3499999999999988
 49
6.3499999999999988
 49
-6.3499999999999988
  0
LTYPE
  2
BYGG-024943$0$NEWDOT
 70
     0
  3
____ . ____ . ____ . ____ . ____ . ____ . ____
 72
    65
 73
     4
 40
2.0
 49
1.0
 49
-0.5
 49
0.0
 49
-0.5
  0
LTYPE
  2
BYGG-024943$0$DASHDOT
 70
     0
  3
__ . __ . __ . __ . __ . __ . __ . __ . __ . __
 72
    65
 73
     4
 40
1.0
 49
0.5
 49
-0.25
 49
0.0
 49
-0.25
  0
LTYPE
  2
BYGG-020132$0$NEWDOT
 70
     0
  3
____ . ____ . ____ . ____ . ____ . ____ . ____
 72
    65
 73
     4
 40
2.0
 49
1.0
 49
-0.5
 49
0.0
 49
-0.5
  0
LTYPE
  2
BYGG-020132$0$DASHDOT
 70
     0
  3
__ . __ . __ . __ . __ . __ . __ . __ . __ . __
 72
    65
 73
     4
 40
1.0
 49
0.5
 49
-0.25
 49
0.0
 49
-0.25
  0
LTYPE
  2
BYGG-026410$0$NEWDOT
 70
     0
  3
____ . ____ . ____ . ____ . ____ . ____ . ____
 72
    65
 73
     4
 40
2.0
 49
1.0
 49
-0.5
 49
0.0
 49
-0.5
  0
LTYPE
  2
BYGG-026410$0$DASHDOT
 70
     0
  3
__ . __ . __ . __ . __ . __ . __ . __ . __ . __
 72
    65
 73
     4
 40
1.0
 49
0.5
 49
-0.25
 49
0.0
 49
-0.25
  0
LTYPE
  2
BYGG-026410$0$DASHED
 70
     0
  3
__ __ __ __ __ __ __ __ __ __ __ __ __ __ __
 72
    65
 73
     2
 40
0.75
 49
0.5
 49
-0.25
  0
LTYPE
  2
BYGG-026410$0$PHANTOM
 70
     0
  3
Phantom ______  __  __  ______  __  __  ______
 72
    65
 73
     6
 40
63.5
 49
31.75
 49
-6.3499999999999988
 49
6.3499999999999988
 49
-6.3499999999999988
 49
6.3499999999999988
 49
-6.3499999999999988
  0
LTYPE
  2
BYGG-033169$0$NEWDOT
 70
     0
  3
____ . ____ . ____ . ____ . ____ . ____ . ____
 72
    65
 73
     4
 40
2.0
 49
1.0
 49
-0.5
 49
0.0
 49
-0.5
  0
LTYPE
  2
BYGG-033169$0$DASHDOT
 70
     0
  3
__ . __ . __ . __ . __ . __ . __ . __ . __ . __
 72
    65
 73
     4
 40
1.0
 49
0.5
 49
-0.25
 49
0.0
 49
-0.25
  0
LTYPE
  2
BYGG-033169$0$DASHED
 70
     0
  3
__ __ __ __ __ __ __ __ __ __ __ __ __ __ __
 72
    65
 73
     2
 40
0.75
 49
0.5
 49
-0.25
  0
LTYPE
  2
BYGG-033169$0$PHANTOM
 70
     0
  3
Phantom ______  __  __  ______  __  __  ______
 72
    65
 73
     6
 40
63.5
 49
31.75
 49
-6.3499999999999988
 49
6.3499999999999988
 49
-6.3499999999999988
 49
6.3499999999999988
 49
-6.3499999999999988
  0
LTYPE
  2
BYGG-024798$0$NEWDOT
 70
     0
  3
____ . ____ . ____ . ____ . ____ . ____ . ____
 72
    65
 73
     4
 40
2.0
 49
1.0
 49
-0.5
 49
0.0
 49
-0.5
  0
LTYPE
  2
BYGG-024799$0$NEWDOT
 70
     0
  3
____ . ____ . ____ . ____ . ____ . ____ . ____
 72
    65
 73
     4
 40
2.0
 49
1.0
 49
-0.5
 49
0.0
 49
-0.5
  0
LTYPE
  2
BYGG-024799$0$DASHDOT
 70
     0
  3
__ . __ . __ . __ . __ . __ . __ . __ . __ . __
 72
    65
 73
     4
 40
1.0
 49
0.5
 49
-0.25
 49
0.0
 49
-0.25
  0
LTYPE
  2
BYGG-025652$0$NEWDOT
 70
     0
  3
____ . ____ . ____ . ____ . ____ . ____ . ____
 72
    65
 73
     4
 40
2.0
 49
1.0
 49
-0.5
 49
0.0
 49
-0.5
  0
LTYPE
  2
BYGG-025652$0$DASHDOT
 70
     0
  3
__ . __ . __ . __ . __ . __ . __ . __ . __ . __
 72
    65
 73
     4
 40
1.0
 49
0.5
 49
-0.25
 49
0.0
 49
-0.25
  0
LTYPE
  2
BYGG-025652$0$DASHED
 70
     0
  3
__ __ __ __ __ __ __ __ __ __ __ __ __ __ __
 72
    65
 73
     2
 40
0.75
 49
0.5
 49
-0.25
  0
LTYPE
  2
BYGG-025652$0$PHANTOM
 70
     0
  3
Phantom ______  __  __  ______  __  __  ______
 72
    65
 73
     6
 40
63.5
 49
31.75
 49
-6.3499999999999988
 49
6.3499999999999988
 49
-6.3499999999999988
 49
6.3499999999999988
 49
-6.3499999999999988
  0
LTYPE
  2
BYGG-014411$0$NEWDOT
 70
     0
  3
____ . ____ . ____ . ____ . ____ . ____ . ____
 72
    65
 73
     4
 40
2.0
 49
1.0
 49
-0.5
 49
0.0
 49
-0.5
  0
LTYPE
  2
BYGG-014411$0$ZIGZAG
 70
     0
  3
Zig zag /\/\/\/\/\/\/\/\/\/\/\/\/\/\/\/\/\/\/\/\/\/\/\/
 72
    65
 73
     4
 40
20.32254
 49
0.00254
 49
-5.0800000000000001
 49
-10.16
 49
-5.0800000000000001
  0
LTYPE
  2
BYGG-030185$0$PHANTOM2
 70
     0
  3
Phantom (.5x) ___ _ _ ___ _ _ ___ _ _ ___ _ _
 72
    65
 73
     6
 40
1.25
 49
0.625
 49
-0.125
 49
0.125
 49
-0.125
 49
0.125
 49
-0.125
  0
LTYPE
  2
BYGG-024798$0$DASHDOT
 70
     0
  3
__ . __ . __ . __ . __ . __ . __ . __ . __ . __
 72
    65
 73
     4
 40
1.0
 49
0.5
 49
-0.25
 49
0.0
 49
-0.25
  0
LTYPE
  2
BYGG-014089$0$PHANTOM2
 70
     0
  3
Phantom (.5x) ___ _ _ ___ _ _ ___ _ _ ___ _ _
 72
    65
 73
     6
 40
1.25
 49
0.625
 49
-0.125
 49
0.125
 49
-0.125
 49
0.125
 49
-0.125
  0
LTYPE
  2
BYGG-014108$0$PHANTOM2
 70
     0
  3
Phantom (.5x) ___ _ _ ___ _ _ ___ _ _ ___ _ _
 72
    65
 73
     6
 40
1.25
 49
0.625
 49
-0.125
 49
0.125
 49
-0.125
 49
0.125
 49
-0.125
  0
LTYPE
  2
BYGG-014411$0$PHANTOM2
 70
     0
  3
Phantom (.5x) ___ _ _ ___ _ _ ___ _ _ ___ _ _
 72
    65
 73
     6
 40
1.25
 49
0.625
 49
-0.125
 49
0.125
 49
-0.125
 49
0.125
 49
-0.125
  0
ENDTAB
  0
TABLE
  2
LAYER
 70
   258
  0
LAYER
  2
0
 70
     0
 62
     7
  6
CONTINUOUS
  0
LAYER
  2
DEFPOINTS
 70
     0
 62
     7
  6
CONTINUOUS
  0
LAYER
  2
SAPA_LIGHT
 70
     1
 62
     1
  6
CONTINUOUS
  0
LAYER
  2
SAPA_ARTIKELNR
 70
     0
 62
     4
  6
CONTINUOUS
  0
LAYER
  2
SAPA_FYLLNING
 70
     0
 62
     4
  6
CONTINUOUS
  0
LAYER
  2
SAPA_ISOLATOR
 70
     0
 62
     4
  6
CONTINUOUS
  0
LAYER
  2
SAPA_MATT
 70
     0
 62
     1
  6
CONTINUOUS
  0
LAYER
  2
SAPA_GLAS
 70
     0
 62
     4
  6
CONTINUOUS
  0
LAYER
  2
SAPA_FOGBAND
 70
     0
 62
     2
  6
CONTINUOUS
  0
LAYER
  2
SAPA_PROFIL
 70
     0
 62
     7
  6
CONTINUOUS
  0
ENDTAB
  0
TABLE
  2
STYLE
 70
    56
  0
STYLE
  2
STANDARD
 70
     0
 40
0.0
 41
1.0
 50
0.0
 71
     0
 42
0.2
  3
txt
  4

  0
STYLE
  2
ISO
 70
     0
 40
0.0
 41
1.0
 50
0.0
 71
     0
 42
3.5
  3
txt
  4

  0
STYLE
  2

 70
     1
 40
0.0
 41
1.0
 50
0.0
 71
     0
 42
0.2
  3
ltypeshp.shx
  4

  0
STYLE
  2
BYGG-021589$0$STANDARD
 70
     0
 40
0.0
 41
1.0
 50
0.0
 71
     0
 42
0.2
  3
txt
  4

  0
STYLE
  2
BYGG-021589$0$ISO
 70
     0
 40
0.0
 41
1.0
 50
0.0
 71
     0
 42
3.5
  3
isocp3.shx
  4

  0
STYLE
  2
BYGG-01482201$0$STANDARD
 70
     0
 40
0.0
 41
1.0
 50
0.0
 71
     0
 42
0.2
  3
txt
  4

  0
STYLE
  2
BYGG-01482201$0$ISO
 70
     0
 40
0.0
 41
1.0
 50
0.0
 71
     0
 42
3.5
  3
isocp3.shx
  4

  0
STYLE
  2
BYGG-021582$0$STANDARD
 70
     0
 40
0.0
 41
1.0
 50
0.0
 71
     0
 42
0.2
  3
txt
  4

  0
STYLE
  2
BYGG-021582$0$ISO
 70
     0
 40
0.0
 41
1.0
 50
0.0
 71
     0
 42
3.5
  3
isocp3.shx
  4

  0
STYLE
  2
BYGG-014279$0$STANDARD
 70
     0
 40
0.0
 41
1.0
 50
0.0
 71
     0
 42
0.2
  3
TXT.shx
  4

  0
STYLE
  2
BYGG-014279$0$ISO
 70
     0
 40
0.0
 41
1.0
 50
0.0
 71
     0
 42
3.5
  3
iso
  4

  0
STYLE
  2
BYGG-023940$0$STANDARD
 70
     0
 40
0.0
 41
1.0
 50
0.0
 71
     0
 42
0.2
  3
txt
  4

  0
STYLE
  2
BYGG-023940$0$ISO
 70
     0
 40
0.0
 41
1.0
 50
0.0
 71
     0
 42
3.5
  3
txt
  4

  0
STYLE
  2
BYGG-025110$0$STANDARD
 70
     0
 40
0.0
 41
1.0
 50
0.0
 71
     0
 42
0.2
  3
txt
  4

  0
STYLE
  2
BYGG-025110$0$ISO
 70
     0
 40
0.0
 41
1.0
 50
0.0
 71
     0
 42
3.5
  3
txt
  4

  0
STYLE
  2
BYGG-020805$0$STANDARD
 70
     0
 40
0.0
 41
1.0
 50
0.0
 71
     0
 42
0.2
  3
txt
  4

  0
STYLE
  2
BYGG-020805$0$ISO
 70
     0
 40
0.0
 41
1.0
 50
0.0
 71
     0
 42
3.5
  3
txt
  4

  0
STYLE
  2
BYGG-014117$0$STANDARD
 70
     0
 40
0.0
 41
1.0
 50
0.0
 71
     0
 42
0.2
  3
txt
  4

  0
STYLE
  2
BYGG-014117$0$ISO
 70
     0
 40
0.0
 41
1.0
 50
0.0
 71
     0
 42
3.5
  3
isocp3.shx
  4

  0
STYLE
  2
BYGG-022681$0$STANDARD
 70
     0
 40
0.0
 41
1.0
 50
0.0
 71
     0
 42
0.2
  3
txt
  4

  0
STYLE
  2
BYGG-022681$0$ISO
 70
     0
 40
0.0
 41
1.0
 50
0.0
 71
     0
 42
3.5
  3
txt
  4

  0
STYLE
  2
BYGG-014306$0$STANDARD
 70
     0
 40
0.0
 41
1.0
 50
0.0
 71
     0
 42
0.2
  3
txt
  4

  0
STYLE
  2
BYGG-023717$0$STANDARD
 70
     0
 40
0.0
 41
1.0
 50
0.0
 71
     0
 42
0.2
  3
txt
  4

  0
STYLE
  2
BYGG-023717$0$ISO
 70
     0
 40
0.0
 41
1.0
 50
0.0
 71
     0
 42
3.5
  3
txt
  4

  0
STYLE
  2
BYGG-023714$0$STANDARD
 70
     0
 40
0.0
 41
1.0
 50
0.0
 71
     0
 42
0.2
  3
txt
  4

  0
STYLE
  2
BYGG-023714$0$ISO
 70
     0
 40
0.0
 41
1.0
 50
0.0
 71
     0
 42
3.5
  3
txt
  4

  0
STYLE
  2
BYGG-019338$0$STANDARD
 70
     0
 40
0.0
 41
1.0
 50
0.0
 71
     0
 42
0.2
  3
txt
  4

  0
STYLE
  2
BYGG-019338$0$ISO
 70
     0
 40
0.0
 41
1.0
 50
0.0
 71
     0
 42
3.5
  3
txt
  4

  0
STYLE
  2
BYGG-033246$0$STANDARD
 70
     0
 40
0.0
 41
1.0
 50
0.0
 71
     0
 42
0.2
  3
txt
  4

  0
STYLE
  2
BYGG-033246$0$ISO
 70
     0
 40
0.0
 41
1.0
 50
0.0
 71
     0
 42
3.5
  3
txt
  4

  0
STYLE
  2
BYGG-024943$0$STANDARD
 70
     0
 40
0.0
 41
1.0
 50
0.0
 71
     0
 42
0.2
  3
txt
  4

  0
STYLE
  2
BYGG-024943$0$ISO
 70
     0
 40
0.0
 41
1.0
 50
0.0
 71
     0
 42
3.5
  3
txt
  4

  0
STYLE
  2
BYGG-020132$0$STANDARD
 70
     0
 40
0.0
 41
1.0
 50
0.0
 71
     0
 42
0.2
  3
txt
  4

  0
STYLE
  2
BYGG-020132$0$ISO
 70
     0
 40
0.0
 41
1.0
 50
0.0
 71
     0
 42
3.5
  3
txt
  4

  0
STYLE
  2
BYGG-028980$0$STANDARD
 70
     0
 40
0.0
 41
1.0
 50
0.0
 71
     0
 42
0.2
  3
txt
  4

  0
STYLE
  2
BYGG-028980$0$ISO
 70
     0
 40
0.0
 41
1.0
 50
0.0
 71
     0
 42
3.5
  3
txt
  4

  0
STYLE
  2
BYGG-026410$0$STANDARD
 70
     0
 40
0.0
 41
1.0
 50
0.0
 71
     0
 42
0.2
  3
txt
  4

  0
STYLE
  2
BYGG-026410$0$ISO
 70
     0
 40
0.0
 41
1.0
 50
0.0
 71
     0
 42
3.5
  3
txt
  4

  0
STYLE
  2
BYGG-033169$0$STANDARD
 70
     0
 40
0.0
 41
1.0
 50
0.0
 71
     0
 42
0.2
  3
txt
  4

  0
STYLE
  2
BYGG-033169$0$ISO
 70
     0
 40
0.0
 41
1.0
 50
0.0
 71
     0
 42
3.5
  3
txt
  4

  0
STYLE
  2
BYGG-030185$0$STANDARD
 70
     0
 40
0.0
 41
1.0
 50
0.0
 71
     0
 42
0.2
  3
txt
  4

  0
STYLE
  2
BYGG-030185$0$ISO
 70
     0
 40
0.0
 41
1.0
 50
0.0
 71
     0
 42
7.0
  3
ISO
  4

  0
STYLE
  2
BYGG-024798$0$STANDARD
 70
     0
 40
0.0
 41
1.0
 50
0.0
 71
     0
 42
0.2
  3
txt
  4

  0
STYLE
  2
BYGG-024798$0$ISO
 70
     0
 40
0.0
 41
1.0
 50
0.0
 71
     0
 42
3.5
  3
txt
  4

  0
STYLE
  2
BYGG-024799$0$STANDARD
 70
     0
 40
0.0
 41
1.0
 50
0.0
 71
     0
 42
0.2
  3
txt
  4

  0
STYLE
  2
BYGG-024799$0$ISO
 70
     0
 40
0.0
 41
1.0
 50
0.0
 71
     0
 42
3.5
  3
txt
  4

  0
STYLE
  2
BYGG-014089$0$STANDARD
 70
     0
 40
0.0
 41
1.0
 50
0.0
 71
     0
 42
0.2
  3
txt
  4

  0
STYLE
  2
BYGG-014089$0$ANNOTATIVE
 70
     0
 40
0.0
 41
1.0
 50
0.0
 71
     0
 42
3.5
  3
txt
  4

  0
STYLE
  2
BYGG-014108$0$STANDARD
 70
     0
 40
0.0
 41
1.0
 50
0.0
 71
     0
 42
0.4
  3
txt
  4

  0
STYLE
  2
BYGG-014108$0$SIMPLEX
 70
     0
 40
0.0
 41
1.0
 50
0.0
 71
     0
 42
0.2
  3
simplex
  4

  0
STYLE
  2
BYGG-019611$0$STANDARD
 70
     0
 40
0.0
 41
1.0
 50
0.0
 71
     0
 42
0.2
  3
txt
  4

  0
STYLE
  2
BYGG-019611$0$ISO
 70
     0
 40
0.0
 41
1.0
 50
0.0
 71
     0
 42
3.5
  3
txt
  4

  0
STYLE
  2
BYGG-025652$0$STANDARD
 70
     0
 40
0.0
 41
1.0
 50
0.0
 71
     0
 42
0.2
  3
txt
  4

  0
STYLE
  2
BYGG-025652$0$ISO
 70
     0
 40
0.0
 41
1.0
 50
0.0
 71
     0
 42
3.5
  3
txt
  4

  0
STYLE
  2
BYGG-014411$0$STANDARD
 70
     0
 40
0.0
 41
1.0
 50
0.0
 71
     0
 42
0.2
  3
txt
  4

  0
STYLE
  2
BYGG-014411$0$ISO
 70
     0
 40
0.0
 41
1.0
 50
0.0
 71
     0
 42
3.5
  3
isocp3.shx
  4

  0
ENDTAB
  0
TABLE
  2
VIEW
 70
     0
  0
ENDTAB
  0
TABLE
  2
UCS
 70
     0
  0
ENDTAB
  0
TABLE
  2
APPID
 70
    35
  0
APPID
  2
ACAD
 70
     0
  0
APPID
  2
ACAD_DSTYLE_DIMTEXT_FILL
 70
     0
  0
APPID
  2
ACAD_DSTYLE_DIMEXT_LENGTH
 70
     0
  0
APPID
  2
ACAD_DSTYLE_DIMEXT_ENABLED
 70
     0
  0
APPID
  2
ACAD_DSTYLE_DIM_LINETYPE
 70
     0
  0
APPID
  2
ACAD_DSTYLE_DIM_EXT1_LINETYPE
 70
     0
  0
APPID
  2
ACAD_DSTYLE_DIM_EXT2_LINETYPE
 70
     0
  0
APPID
  2
ACAD_DSTYLE_DIMJOGGED_JOGA
 70
     0
  0
APPID
  2
ACAD_DSTYLE_DIMARC_LENGTH_
 70
     0
  0
APPID
  2
ACAD_PSEXT
 70
     0
  0
APPID
  2
ACAD_MLEADERVER
 70
     0
  0
APPID
  2
AMG_ARCHIVE11
 70
     0
  0
APPID
  2
ACADANNOTATIVE
 70
     0
  0
APPID
  2
ACAECLAYERSTANDARD
 70
     0
  0
APPID
  2
ACAD_EXEMPT_FROM_CAD_STANDARDS
 70
     0
  0
APPID
  2
ACDBDYNAMICBLOCKGUID
 70
     0
  0
APPID
  2
ACDBBLOCKREPETAG
 70
     0
  0
APPID
  2
ACAUTHENVIRON
 70
     0
  0
APPID
  2
ACAD_DSTYLE_DIMJAG
 70
     0
  0
APPID
  2
ACAD_DSTYLE_DIMTALN
 70
     0
  0
APPID
  2
AME_SOL
 70
     0
  0
APPID
  2
ACAD_NAV_VCDISPLAY
 70
     0
  0
APPID
  2
ACAD_DSTYLE_DIMRADIAL_EXTENSION
 70
     0
  0
APPID
  2
ACAD_OBJECT_CHANGE_GUID
 70
     0
  0
APPID
  2
ACCMTRANSPARENCY
 70
     0
  0
APPID
  2
AVE_RENDER
 70
     0
  0
APPID
  2
AVE_ENTITY_MATERIAL
 70
     0
  0
APPID
  2
AVE_FINISH
 70
     0
  0
APPID
  2
AVE_MATERIAL
 70
     0
  0
APPID
  2
AVE_GLOBAL
 70
     0
  0
APPID
  2
4M_RENDER
 70
     0
  0
APPID
  2
LIBMAN
 70
     0
  0
APPID
  2
AUTOBUILD
 70
     0
  0
APPID
  2
ACDBDYNAMICBLOCKTRUENAME
 70
     0
  0
APPID
  2
AEC_XDATA_BOUND_SPACE
 70
     0
  0
ENDTAB
  0
TABLE
  2
DIMSTYLE
 70
    49
  0
DIMSTYLE
  2
MASKIN
 70
     0
  3

  4

  5

  6

  7

 40
0.0
 41
3.0
 42
1.5
 43
10.0
 44
1.5
 45
0.0
 46
0.0
 47
0.0
 48
0.0
140
3.5
141
-5.0
142
0.0
143
25.399999999999999
144
-1.0
145
0.0
146
1.0
147
1.0
 71
     0
 72
     0
 73
     0
 74
     0
 75
     0
 76
     0
 77
     1
 78
     8
170
     0
171
     0
172
     1
173
     0
174
     0
175
     0
176
   256
177
   256
178
     2
  0
DIMSTYLE
  2
BYGG-021589$0$MASKIN
 70
     0
  3

  4

  5

  6

  7

 40
0.0
 41
3.0
 42
1.5
 43
10.0
 44
1.5
 45
0.0
 46
0.0
 47
0.0
 48
0.0
140
3.0
141
-5.0
142
0.0
143
25.399999999999999
144
-1.0
145
0.0
146
1.0
147
1.0
 71
     0
 72
     0
 73
     0
 74
     0
 75
     0
 76
     0
 77
     1
 78
     8
170
     0
171
     0
172
     1
173
     0
174
     0
175
     0
176
   256
177
   256
178
   256
  0
DIMSTYLE
  2
BYGG-01482201$0$STANDARD
 70
     0
  3

  4

  5

  6

  7

 40
1.0
 41
0.18
 42
0.0625
 43
0.38
 44
0.18
 45
0.0
 46
0.0
 47
0.0
 48
0.0
140
0.18
141
0.09
142
0.0
143
25.399999999999999
144
1.0
145
0.0
146
1.0
147
0.09
 71
     0
 72
     0
 73
     1
 74
     1
 75
     0
 76
     0
 77
     0
 78
     0
170
     0
171
     2
172
     0
173
     0
174
     0
175
     0
176
     0
177
     0
178
     0
  0
DIMSTYLE
  2
BYGG-01482201$0$MASKIN
 70
     0
  3

  4

  5

  6

  7

 40
0.0
 41
3.0
 42
1.5
 43
10.0
 44
1.5
 45
0.0
 46
0.0
 47
0.0
 48
0.0
140
3.0
141
-5.0
142
0.0
143
25.399999999999999
144
-1.0
145
0.0
146
1.0
147
1.0
 71
     0
 72
     0
 73
     0
 74
     1
 75
     0
 76
     0
 77
     1
 78
     8
170
     0
171
     0
172
     1
173
     0
174
     0
175
     0
176
   256
177
   256
178
     2
  0
DIMSTYLE
  2
BYGG-021582$0$MASKIN
 70
     0
  3

  4

  5

  6

  7

 40
0.0
 41
3.0
 42
1.5
 43
10.0
 44
1.5
 45
0.0
 46
0.0
 47
0.0
 48
0.0
140
3.0
141
-5.0
142
0.0
143
25.399999999999999
144
-1.0
145
0.0
146
1.0
147
1.0
 71
     0
 72
     0
 73
     0
 74
     0
 75
     0
 76
     0
 77
     1
 78
     8
170
     0
171
     0
172
     1
173
     0
174
     0
175
     0
176
   256
177
   256
178
   256
  0
DIMSTYLE
  2
BYGG-014279$0$STANDARD
 70
     0
  3

  4

  5

  6

  7

 40
1.0
 41
0.18
 42
0.0625
 43
0.38
 44
0.18
 45
0.0
 46
0.0
 47
0.0
 48
0.0
140
0.18
141
0.09
142
0.0
143
25.399999999999999
144
1.0
145
0.0
146
1.0
147
0.09
 71
     0
 72
     0
 73
     1
 74
     1
 75
     0
 76
     0
 77
     0
 78
     0
170
     0
171
     2
172
     0
173
     0
174
     0
175
     0
176
     0
177
     0
178
     0
  0
DIMSTYLE
  2
BYGG-014279$0$MASKIN
 70
     0
  3

  4

  5

  6

  7

 40
0.0
 41
3.0
 42
1.5
 43
10.0
 44
1.5
 45
0.0
 46
0.0
 47
0.0
 48
0.0
140
3.0
141
-5.0
142
0.0
143
25.399999999999999
144
-1.0
145
0.0
146
1.0
147
1.0
 71
     0
 72
     0
 73
     0
 74
     1
 75
     0
 76
     0
 77
     1
 78
     8
170
     0
171
     0
172
     1
173
     0
174
     0
175
     0
176
   256
177
   256
178
     2
  0
DIMSTYLE
  2
BYGG-023940$0$STANDARD
 70
     0
  3

  4

  5

  6

  7

 40
1.0
 41
0.18
 42
0.0625
 43
0.38
 44
0.18
 45
0.0
 46
0.0
 47
0.0
 48
0.0
140
0.18
141
0.09
142
0.0
143
25.399999999999999
144
1.0
145
0.0
146
1.0
147
0.09
 71
     0
 72
     0
 73
     1
 74
     1
 75
     0
 76
     0
 77
     0
 78
     0
170
     0
171
     2
172
     0
173
     0
174
     0
175
     0
176
     0
177
     0
178
     0
  0
DIMSTYLE
  2
BYGG-023940$0$MASKIN
 70
     0
  3

  4

  5

  6

  7

 40
0.0
 41
3.0
 42
1.5
 43
10.0
 44
1.5
 45
0.0
 46
0.0
 47
0.0
 48
0.0
140
3.0
141
-5.0
142
0.0
143
25.399999999999999
144
-1.0
145
0.0
146
1.0
147
1.0
 71
     0
 72
     0
 73
     0
 74
     0
 75
     0
 76
     0
 77
     1
 78
     8
170
     0
171
     0
172
     1
173
     0
174
     0
175
     0
176
   256
177
   256
178
     2
  0
DIMSTYLE
  2
BYGG-025110$0$STANDARD
 70
     0
  3

  4

  5

  6

  7

 40
1.0
 41
0.18
 42
0.0625
 43
0.38
 44
0.18
 45
0.0
 46
0.0
 47
0.0
 48
0.0
140
0.18
141
0.09
142
0.0
143
25.399999999999999
144
1.0
145
0.0
146
1.0
147
0.09
 71
     0
 72
     0
 73
     1
 74
     1
 75
     0
 76
     0
 77
     0
 78
     0
170
     0
171
     2
172
     0
173
     0
174
     0
175
     0
176
     0
177
     0
178
     0
  0
DIMSTYLE
  2
BYGG-025110$0$MASKIN
 70
     0
  3

  4

  5

  6

  7

 40
0.0
 41
3.0
 42
1.5
 43
10.0
 44
1.5
 45
0.0
 46
0.0
 47
0.0
 48
0.0
140
3.0
141
-5.0
142
0.0
143
25.399999999999999
144
-1.0
145
0.0
146
1.0
147
1.0
 71
     0
 72
     0
 73
     0
 74
     0
 75
     0
 76
     0
 77
     1
 78
     8
170
     0
171
     0
172
     1
173
     0
174
     0
175
     0
176
   256
177
   256
178
     2
  0
DIMSTYLE
  2
BYGG-020805$0$STANDARD
 70
     0
  3

  4

  5

  6

  7

 40
1.0
 41
0.18
 42
0.0625
 43
0.38
 44
0.18
 45
0.0
 46
0.0
 47
0.0
 48
0.0
140
0.18
141
0.09
142
0.0
143
25.399999999999999
144
1.0
145
0.0
146
1.0
147
0.09
 71
     0
 72
     0
 73
     1
 74
     1
 75
     0
 76
     0
 77
     0
 78
     0
170
     0
171
     2
172
     0
173
     0
174
     0
175
     0
176
     0
177
     0
178
     0
  0
DIMSTYLE
  2
BYGG-020805$0$MASKIN
 70
     0
  3

  4

  5

  6

  7

 40
0.0
 41
3.0
 42
1.5
 43
10.0
 44
1.5
 45
0.0
 46
0.0
 47
0.0
 48
0.0
140
3.0
141
-5.0
142
0.0
143
25.399999999999999
144
-1.0
145
0.0
146
1.0
147
1.0
 71
     0
 72
     0
 73
     0
 74
     0
 75
     0
 76
     0
 77
     1
 78
     8
170
     0
171
     0
172
     1
173
     0
174
     0
175
     0
176
   256
177
   256
178
     2
  0
DIMSTYLE
  2
BYGG-014117$0$MASKIN
 70
     0
  3

  4

  5

  6

  7

 40
0.0
 41
3.0
 42
1.5
 43
10.0
 44
1.5
 45
0.0
 46
0.0
 47
0.0
 48
0.0
140
3.0
141
-5.0
142
0.0
143
25.399999999999999
144
-1.0
145
0.0
146
1.0
147
1.0
 71
     0
 72
     0
 73
     0
 74
     0
 75
     0
 76
     0
 77
     1
 78
     8
170
     0
171
     0
172
     1
173
     0
174
     0
175
     0
176
   256
177
   256
178
   256
  0
DIMSTYLE
  2
BYGG-022681$0$STANDARD
 70
     0
  3

  4

  5

  6

  7

 40
1.0
 41
0.18
 42
0.0625
 43
0.38
 44
0.18
 45
0.0
 46
0.0
 47
0.0
 48
0.0
140
0.18
141
0.09
142
0.0
143
25.399999999999999
144
1.0
145
0.0
146
1.0
147
0.09
 71
     0
 72
     0
 73
     1
 74
     1
 75
     0
 76
     0
 77
     0
 78
     0
170
     0
171
     2
172
     0
173
     0
174
     0
175
     0
176
     0
177
     0
178
     0
  0
DIMSTYLE
  2
BYGG-022681$0$MASKIN
 70
     0
  3

  4

  5

  6

  7

 40
0.0
 41
3.0
 42
1.5
 43
10.0
 44
1.5
 45
0.0
 46
0.0
 47
0.0
 48
0.0
140
3.0
141
-5.0
142
0.0
143
25.399999999999999
144
-1.0
145
0.0
146
1.0
147
1.0
 71
     0
 72
     0
 73
     0
 74
     0
 75
     0
 76
     0
 77
     1
 78
     8
170
     0
171
     0
172
     1
173
     0
174
     0
175
     0
176
   256
177
   256
178
     2
  0
DIMSTYLE
  2
BYGG-014306$0$STANDARD
 70
     0
  3

  4

  5

  6

  7

 40
1.0
 41
0.18
 42
0.0625
 43
0.38
 44
0.18
 45
0.0
 46
0.0
 47
0.0
 48
0.0
140
0.18
141
0.09
142
0.0
143
25.399999999999999
144
1.0
145
0.0
146
1.0
147
0.09
 71
     0
 72
     0
 73
     1
 74
     1
 75
     0
 76
     0
 77
     0
 78
     0
170
     0
171
     2
172
     0
173
     0
174
     0
175
     0
176
     0
177
     0
178
     0
  0
DIMSTYLE
  2
BYGG-023717$0$STANDARD
 70
     0
  3

  4

  5

  6

  7

 40
1.0
 41
0.18
 42
0.0625
 43
0.38
 44
0.18
 45
0.0
 46
0.0
 47
0.0
 48
0.0
140
0.18
141
0.09
142
0.0
143
25.399999999999999
144
1.0
145
0.0
146
1.0
147
0.09
 71
     0
 72
     0
 73
     1
 74
     1
 75
     0
 76
     0
 77
     0
 78
     0
170
     0
171
     2
172
     0
173
     0
174
     0
175
     0
176
     0
177
     0
178
     0
  0
DIMSTYLE
  2
BYGG-023717$0$MASKIN
 70
     0
  3

  4

  5

  6

  7

 40
0.0
 41
3.0
 42
1.5
 43
10.0
 44
1.5
 45
0.0
 46
0.0
 47
0.0
 48
0.0
140
3.0
141
-5.0
142
0.0
143
25.399999999999999
144
-1.0
145
0.0
146
1.0
147
1.0
 71
     0
 72
     0
 73
     0
 74
     0
 75
     0
 76
     0
 77
     1
 78
     8
170
     0
171
     0
172
     1
173
     0
174
     0
175
     0
176
   256
177
   256
178
     2
  0
DIMSTYLE
  2
BYGG-023714$0$STANDARD
 70
     0
  3

  4

  5

  6

  7

 40
1.0
 41
0.18
 42
0.0625
 43
0.38
 44
0.18
 45
0.0
 46
0.0
 47
0.0
 48
0.0
140
0.18
141
0.09
142
0.0
143
25.399999999999999
144
1.0
145
0.0
146
1.0
147
0.09
 71
     0
 72
     0
 73
     1
 74
     1
 75
     0
 76
     0
 77
     0
 78
     0
170
     0
171
     2
172
     0
173
     0
174
     0
175
     0
176
     0
177
     0
178
     0
  0
DIMSTYLE
  2
BYGG-023714$0$MASKIN
 70
     0
  3

  4

  5

  6

  7

 40
0.0
 41
3.0
 42
1.5
 43
10.0
 44
1.5
 45
0.0
 46
0.0
 47
0.0
 48
0.0
140
3.0
141
-5.0
142
0.0
143
25.399999999999999
144
-1.0
145
0.0
146
1.0
147
1.0
 71
     0
 72
     0
 73
     0
 74
     0
 75
     0
 76
     0
 77
     1
 78
     8
170
     0
171
     0
172
     1
173
     0
174
     0
175
     0
176
   256
177
   256
178
     2
  0
DIMSTYLE
  2
BYGG-019338$0$STANDARD
 70
     0
  3

  4

  5

  6

  7

 40
1.0
 41
0.18
 42
0.0625
 43
0.38
 44
0.18
 45
0.0
 46
0.0
 47
0.0
 48
0.0
140
0.18
141
0.09
142
0.0
143
25.399999999999999
144
1.0
145
0.0
146
1.0
147
0.09
 71
     0
 72
     0
 73
     1
 74
     1
 75
     0
 76
     0
 77
     0
 78
     0
170
     0
171
     2
172
     0
173
     0
174
     0
175
     0
176
     0
177
     0
178
     0
  0
DIMSTYLE
  2
BYGG-019338$0$MASKIN
 70
     0
  3

  4

  5

  6

  7

 40
0.0
 41
3.0
 42
1.5
 43
10.0
 44
1.5
 45
0.0
 46
0.0
 47
0.0
 48
0.0
140
3.0
141
-5.0
142
0.0
143
25.399999999999999
144
-1.0
145
0.0
146
1.0
147
1.0
 71
     0
 72
     0
 73
     0
 74
     0
 75
     0
 76
     0
 77
     1
 78
     8
170
     0
171
     0
172
     1
173
     0
174
     0
175
     0
176
   256
177
   256
178
     2
  0
DIMSTYLE
  2
BYGG-033246$0$STANDARD
 70
     0
  3

  4

  5

  6

  7

 40
1.0
 41
0.18
 42
0.0625
 43
0.38
 44
0.18
 45
0.0
 46
0.0
 47
0.0
 48
0.0
140
0.18
141
0.09
142
0.0
143
25.399999999999999
144
1.0
145
0.0
146
1.0
147
0.09
 71
     0
 72
     0
 73
     1
 74
     1
 75
     0
 76
     0
 77
     0
 78
     0
170
     0
171
     2
172
     0
173
     0
174
     0
175
     0
176
     0
177
     0
178
     0
  0
DIMSTYLE
  2
BYGG-033246$0$MASKIN
 70
     0
  3

  4

  5

  6

  7

 40
0.0
 41
3.0
 42
1.5
 43
10.0
 44
1.5
 45
0.0
 46
0.0
 47
0.0
 48
0.0
140
3.0
141
-5.0
142
0.0
143
25.399999999999999
144
-1.0
145
0.0
146
1.0
147
1.0
 71
     0
 72
     0
 73
     0
 74
     0
 75
     0
 76
     0
 77
     1
 78
     8
170
     0
171
     0
172
     1
173
     0
174
     0
175
     0
176
   256
177
   256
178
     2
  0
DIMSTYLE
  2
BYGG-024943$0$STANDARD
 70
     0
  3

  4

  5

  6

  7

 40
1.0
 41
0.18
 42
0.0625
 43
0.38
 44
0.18
 45
0.0
 46
0.0
 47
0.0
 48
0.0
140
0.18
141
0.09
142
0.0
143
25.399999999999999
144
1.0
145
0.0
146
1.0
147
0.09
 71
     0
 72
     0
 73
     1
 74
     1
 75
     0
 76
     0
 77
     0
 78
     0
170
     0
171
     2
172
     0
173
     0
174
     0
175
     0
176
     0
177
     0
178
     0
  0
DIMSTYLE
  2
BYGG-024943$0$MASKIN
 70
     0
  3

  4

  5

  6

  7

 40
0.0
 41
3.0
 42
1.5
 43
10.0
 44
1.5
 45
0.0
 46
0.0
 47
0.0
 48
0.0
140
3.0
141
-5.0
142
0.0
143
25.399999999999999
144
-1.0
145
0.0
146
1.0
147
1.0
 71
     0
 72
     0
 73
     0
 74
     0
 75
     0
 76
     0
 77
     1
 78
     8
170
     0
171
     0
172
     1
173
     0
174
     0
175
     0
176
   256
177
   256
178
     2
  0
DIMSTYLE
  2
BYGG-020132$0$MASKIN
 70
     0
  3

  4

  5

  6

  7

 40
0.0
 41
3.0
 42
1.5
 43
10.0
 44
1.5
 45
0.0
 46
0.0
 47
0.0
 48
0.0
140
3.0
141
-5.0
142
0.0
143
25.399999999999999
144
-1.0
145
0.0
146
1.0
147
1.0
 71
     0
 72
     0
 73
     0
 74
     0
 75
     0
 76
     0
 77
     1
 78
     8
170
     0
171
     0
172
     1
173
     0
174
     0
175
     0
176
   256
177
   256
178
     2
  0
DIMSTYLE
  2
BYGG-020132$0$STANDARD
 70
     0
  3

  4

  5

  6

  7

 40
1.0
 41
0.18
 42
0.0625
 43
0.38
 44
0.18
 45
0.0
 46
0.0
 47
0.0
 48
0.0
140
0.18
141
0.09
142
0.0
143
25.399999999999999
144
1.0
145
0.0
146
1.0
147
0.09
 71
     0
 72
     0
 73
     1
 74
     1
 75
     0
 76
     0
 77
     0
 78
     0
170
     0
171
     2
172
     0
173
     0
174
     0
175
     0
176
     0
177
     0
178
     0
  0
DIMSTYLE
  2
BYGG-028980$0$STANDARD
 70
     0
  3

  4

  5

  6

  7

 40
1.0
 41
0.18
 42
0.0625
 43
0.38
 44
0.18
 45
0.0
 46
0.0
 47
0.0
 48
0.0
140
0.18
141
0.09
142
0.0
143
25.399999999999999
144
1.0
145
0.0
146
1.0
147
0.09
 71
     0
 72
     0
 73
     1
 74
     1
 75
     0
 76
     0
 77
     0
 78
     0
170
     0
171
     2
172
     0
173
     0
174
     0
175
     0
176
     0
177
     0
178
     0
  0
DIMSTYLE
  2
BYGG-028980$0$MASKIN
 70
     0
  3

  4

  5

  6

  7

 40
0.0
 41
3.0
 42
1.5
 43
10.0
 44
1.5
 45
0.0
 46
0.0
 47
0.0
 48
0.0
140
3.0
141
-5.0
142
0.0
143
25.399999999999999
144
-1.0
145
0.0
146
1.0
147
1.0
 71
     0
 72
     0
 73
     0
 74
     0
 75
     0
 76
     0
 77
     1
 78
     8
170
     0
171
     0
172
     1
173
     0
174
     0
175
     0
176
   256
177
   256
178
     2
  0
DIMSTYLE
  2
BYGG-026410$0$STANDARD
 70
     0
  3

  4

  5

  6

  7

 40
1.0
 41
0.18
 42
0.0625
 43
0.38
 44
0.18
 45
0.0
 46
0.0
 47
0.0
 48
0.0
140
0.18
141
0.09
142
0.0
143
25.399999999999999
144
1.0
145
0.0
146
1.0
147
0.09
 71
     0
 72
     0
 73
     1
 74
     1
 75
     0
 76
     0
 77
     0
 78
     0
170
     0
171
     2
172
     0
173
     0
174
     0
175
     0
176
     0
177
     0
178
     0
  0
DIMSTYLE
  2
BYGG-026410$0$MASKIN
 70
     0
  3

  4

  5

  6

  7

 40
0.0
 41
3.0
 42
1.5
 43
10.0
 44
1.5
 45
0.0
 46
0.0
 47
0.0
 48
0.0
140
3.0
141
-5.0
142
0.0
143
25.399999999999999
144
-1.0
145
0.0
146
1.0
147
1.0
 71
     0
 72
     0
 73
     0
 74
     0
 75
     0
 76
     0
 77
     1
 78
     8
170
     0
171
     0
172
     1
173
     0
174
     0
175
     0
176
   256
177
   256
178
     2
  0
DIMSTYLE
  2
BYGG-033169$0$STANDARD
 70
     0
  3

  4

  5

  6

  7

 40
1.0
 41
0.18
 42
0.0625
 43
0.38
 44
0.18
 45
0.0
 46
0.0
 47
0.0
 48
0.0
140
0.18
141
0.09
142
0.0
143
25.399999999999999
144
1.0
145
0.0
146
1.0
147
0.09
 71
     0
 72
     0
 73
     1
 74
     1
 75
     0
 76
     0
 77
     0
 78
     0
170
     0
171
     2
172
     0
173
     0
174
     0
175
     0
176
     0
177
     0
178
     0
  0
DIMSTYLE
  2
BYGG-033169$0$MASKIN
 70
     0
  3

  4

  5

  6

  7

 40
0.0
 41
3.0
 42
1.5
 43
10.0
 44
1.5
 45
0.0
 46
0.0
 47
0.0
 48
0.0
140
3.0
141
-5.0
142
0.0
143
25.399999999999999
144
-1.0
145
0.0
146
1.0
147
1.0
 71
     0
 72
     0
 73
     0
 74
     0
 75
     0
 76
     0
 77
     1
 78
     8
170
     0
171
     0
172
     1
173
     0
174
     0
175
     0
176
   256
177
   256
178
     2
  0
DIMSTYLE
  2
BYGG-030185$0$STANDARD
 70
     0
  3

  4

  5

  6

  7

 40
1.0
 41
0.18
 42
0.0625
 43
0.38
 44
0.18
 45
0.0
 46
0.0
 47
0.0
 48
0.0
140
0.18
141
0.09
142
0.0
143
25.399999999999999
144
1.0
145
0.0
146
1.0
147
0.09
 71
     0
 72
     0
 73
     1
 74
     1
 75
     0
 76
     0
 77
     0
 78
     0
170
     0
171
     2
172
     0
173
     0
174
     0
175
     0
176
     0
177
     0
178
     0
  0
DIMSTYLE
  2
BYGG-030185$0$MASKIN
 70
     0
  3

  4

  5

  6

  7

 40
0.0
 41
3.0
 42
1.5
 43
10.0
 44
1.5
 45
0.0
 46
0.0
 47
0.0
 48
0.0
140
3.0
141
-5.0
142
0.0
143
25.399999999999999
144
-1.0
145
0.0
146
1.0
147
1.0
 71
     0
 72
     0
 73
     0
 74
     1
 75
     0
 76
     0
 77
     1
 78
     8
170
     0
171
     0
172
     1
173
     0
174
     0
175
     0
176
   256
177
   256
178
     2
  0
DIMSTYLE
  2
BYGG-024798$0$MASKIN
 70
     0
  3

  4

  5

  6

  7

 40
0.0
 41
3.0
 42
1.5
 43
10.0
 44
1.5
 45
0.0
 46
0.0
 47
0.0
 48
0.0
140
3.0
141
-5.0
142
0.0
143
25.399999999999999
144
-1.0
145
0.0
146
1.0
147
1.0
 71
     0
 72
     0
 73
     0
 74
     0
 75
     0
 76
     0
 77
     1
 78
     8
170
     0
171
     0
172
     1
173
     0
174
     0
175
     0
176
   256
177
   256
178
     2
  0
DIMSTYLE
  2
BYGG-024798$0$STANDARD
 70
     0
  3

  4

  5

  6

  7

 40
1.0
 41
0.18
 42
0.0625
 43
0.38
 44
0.18
 45
0.0
 46
0.0
 47
0.0
 48
0.0
140
0.18
141
0.09
142
0.0
143
25.399999999999999
144
1.0
145
0.0
146
1.0
147
0.09
 71
     0
 72
     0
 73
     1
 74
     1
 75
     0
 76
     0
 77
     0
 78
     0
170
     0
171
     2
172
     0
173
     0
174
     0
175
     0
176
     0
177
     0
178
     0
  0
DIMSTYLE
  2
BYGG-024799$0$MASKIN
 70
     0
  3

  4

  5

  6

  7

 40
0.0
 41
3.0
 42
1.5
 43
10.0
 44
1.5
 45
0.0
 46
0.0
 47
0.0
 48
0.0
140
3.0
141
-5.0
142
0.0
143
25.399999999999999
144
-1.0
145
0.0
146
1.0
147
1.0
 71
     0
 72
     0
 73
     0
 74
     0
 75
     0
 76
     0
 77
     1
 78
     8
170
     0
171
     0
172
     1
173
     0
174
     0
175
     0
176
   256
177
   256
178
     2
  0
DIMSTYLE
  2
BYGG-024799$0$STANDARD
 70
     0
  3

  4

  5

  6

  7

 40
1.0
 41
0.18
 42
0.0625
 43
0.38
 44
0.18
 45
0.0
 46
0.0
 47
0.0
 48
0.0
140
0.18
141
0.09
142
0.0
143
25.399999999999999
144
1.0
145
0.0
146
1.0
147
0.09
 71
     0
 72
     0
 73
     1
 74
     1
 75
     0
 76
     0
 77
     0
 78
     0
170
     0
171
     2
172
     0
173
     0
174
     0
175
     0
176
     0
177
     0
178
     0
  0
DIMSTYLE
  2
BYGG-014089$0$STANDARD
 70
     0
  3

  4

  5

  6

  7

 40
1.0
 41
0.18
 42
0.0625
 43
0.38
 44
0.18
 45
0.0
 46
0.0
 47
0.0
 48
0.0
140
0.18
141
0.09
142
0.0
143
25.399999999999999
144
1.0
145
0.0
146
1.0
147
0.09
 71
     0
 72
     0
 73
     1
 74
     1
 75
     0
 76
     0
 77
     0
 78
     0
170
     0
171
     2
172
     0
173
     0
174
     0
175
     0
176
     0
177
     0
178
     0
  0
DIMSTYLE
  2
BYGG-014108$0$STANDARD
 70
     0
  3

  4

  5

  6

  7

 40
1.0
 41
0.18
 42
0.0625
 43
0.38
 44
0.18
 45
0.0
 46
0.0
 47
0.0
 48
0.0
140
0.18
141
0.09
142
0.0
143
25.399999999999999
144
1.0
145
0.0
146
1.0
147
0.09
 71
     0
 72
     0
 73
     1
 74
     1
 75
     0
 76
     0
 77
     0
 78
     0
170
     0
171
     2
172
     0
173
     0
174
     0
175
     0
176
     0
177
     0
178
     0
  0
DIMSTYLE
  2
BYGG-019611$0$STANDARD
 70
     0
  3

  4

  5

  6

  7

 40
1.0
 41
0.18
 42
0.0625
 43
0.38
 44
0.18
 45
0.0
 46
0.0
 47
0.0
 48
0.0
140
0.18
141
0.09
142
0.0
143
25.399999999999999
144
1.0
145
0.0
146
1.0
147
0.09
 71
     0
 72
     0
 73
     1
 74
     1
 75
     0
 76
     0
 77
     0
 78
     0
170
     0
171
     2
172
     0
173
     0
174
     0
175
     0
176
     0
177
     0
178
     0
  0
DIMSTYLE
  2
BYGG-019611$0$MASKIN
 70
     0
  3

  4

  5

  6

  7

 40
0.0
 41
3.0
 42
1.5
 43
10.0
 44
1.5
 45
0.0
 46
0.0
 47
0.0
 48
0.0
140
3.0
141
-5.0
142
0.0
143
25.399999999999999
144
-1.0
145
0.0
146
1.0
147
1.0
 71
     0
 72
     0
 73
     0
 74
     0
 75
     0
 76
     0
 77
     1
 78
     8
170
     0
171
     0
172
     1
173
     0
174
     0
175
     0
176
   256
177
   256
178
     2
  0
DIMSTYLE
  2
BYGG-025652$0$STANDARD
 70
     0
  3

  4

  5

  6

  7

 40
1.0
 41
0.18
 42
0.0625
 43
0.38
 44
0.18
 45
0.0
 46
0.0
 47
0.0
 48
0.0
140
0.18
141
0.09
142
0.0
143
25.399999999999999
144
1.0
145
0.0
146
1.0
147
0.09
 71
     0
 72
     0
 73
     1
 74
     1
 75
     0
 76
     0
 77
     0
 78
     0
170
     0
171
     2
172
     0
173
     0
174
     0
175
     0
176
     0
177
     0
178
     0
  0
DIMSTYLE
  2
BYGG-025652$0$MASKIN
 70
     0
  3

  4

  5

  6

  7

 40
0.0
 41
3.0
 42
1.5
 43
10.0
 44
1.5
 45
0.0
 46
0.0
 47
0.0
 48
0.0
140
3.0
141
-5.0
142
0.0
143
25.399999999999999
144
-1.0
145
0.0
146
1.0
147
1.0
 71
     0
 72
     0
 73
     0
 74
     0
 75
     0
 76
     0
 77
     1
 78
     8
170
     0
171
     0
172
     1
173
     0
174
     0
175
     0
176
   256
177
   256
178
     2
  0
DIMSTYLE
  2
BYGG-014411$0$MASKIN
 70
     0
  3

  4

  5

  6

  7

 40
0.0
 41
3.0
 42
1.5
 43
10.0
 44
1.5
 45
0.0
 46
0.0
 47
0.0
 48
0.0
140
3.0
141
-5.0
142
0.0
143
25.399999999999999
144
-1.0
145
0.0
146
1.0
147
1.0
 71
     0
 72
     0
 73
     0
 74
     0
 75
     0
 76
     0
 77
     1
 78
     8
170
     0
171
     0
172
     1
173
     0
174
     0
175
     0
176
   256
177
   256
178
   256
  0
DIMSTYLE
  2
BYGG-014411$0$STANDARD
 70
     0
  3

  4

  5

  6

  7

 40
1.0
 41
0.18
 42
0.0625
 43
0.38
 44
0.18
 45
0.0
 46
0.0
 47
0.0
 48
0.0
140
0.18
141
0.09
142
0.0
143
25.399999999999999
144
1.0
145
0.0
146
1.0
147
0.09
 71
     0
 72
     0
 73
     1
 74
     1
 75
     0
 76
     0
 77
     0
 78
     0
170
     0
171
     2
172
     0
173
     0
174
     0
175
     0
176
     0
177
     0
178
     0
  0
ENDTAB
  0
ENDSEC
  0
SECTION
  2
BLOCKS
  0
BLOCK
  8
0
  2
$MODEL_SPACE
 70
     0
 10
0.0
 20
0.0
 30
0.0
  3
$MODEL_SPACE
  1

  0
ENDBLK
  5
37
  8
0
  0
BLOCK
 67
     1
  8
0
  2
$PAPER_SPACE
 70
     0
 10
0.0
 20
0.0
 30
0.0
  3
$PAPER_SPACE
  1

  0
ENDBLK
  5
35
 67
     1
  8
0
  0
BLOCK
  8
0
  2
*D86
 70
     1
 10
0.0
 20
0.0
 30
0.0
  3
*D86
  1

  0
LINE
  5
165F
  8
SAPA_MATT
 10
-91.498715170683099
 20
-82.99999999994327
 30
0.0
 11
-135.99999999901041
 21
-82.999999999943256
 31
0.0
  0
LINE
  5
1660
  8
SAPA_MATT
 10
-115.4999999990104
 20
-25.00000000009781
 30
0.0
 11
-135.99999999901041
 21
-25.00000000009781
 31
0.0
  0
LINE
  5
1661
  8
SAPA_MATT
 10
-134.49999999901041
 20
-79.999999999943256
 30
0.0
 11
-134.49999999901041
 21
-28.000000000097799
 31
0.0
  0
SOLID
  5
1662
  8
SAPA_MATT
 10
-134.99999999901041
 20
-79.999999999943256
 30
0.0
 11
-133.99999999901041
 21
-79.999999999943256
 31
0.0
 12
-134.49999999901041
 22
-82.999999999943256
 32
0.0
 13
-134.49999999901041
 23
-82.999999999943256
 33
0.0
  0
SOLID
  5
1663
  8
SAPA_MATT
 10
-134.99999999901041
 20
-28.000000000097799
 30
0.0
 11
-133.99999999901041
 21
-28.000000000097799
 31
0.0
 12
-134.49999999901041
 22
-25.00000000009781
 32
0.0
 13
-134.49999999901041
 23
-25.00000000009781
 33
0.0
  0
INSERT
  5
1664
  8
0
  2
*U102
 10
0.0
 20
0.0
 30
0.0
  0
POINT
  5
1665
  8
DEFPOINTS
 62
     0
 10
-89.998715170683127
 20
-82.99999999994327
 30
0.0
  0
POINT
  5
1666
  8
DEFPOINTS
 62
     0
 10
-113.9999999990104
 20
-25.00000000009781
 30
0.0
  0
POINT
  5
1667
  8
DEFPOINTS
 62
     0
 10
-134.49999999901041
 20
-25.00000000009781
 30
0.0
  0
ENDBLK
  5
161B
  8
0
  0
BLOCK
  8
0
  2
*D87
 70
     1
 10
0.0
 20
0.0
 30
0.0
  3
*D87
  1

  0
LINE
  5
1654
  8
SAPA_MATT
 10
-91.498715170683099
 20
-82.99999999994327
 30
0.0
 11
-135.9999999990105
 21
-82.999999999943256
 31
0.0
  0
LINE
  5
1655
  8
SAPA_MATT
 10
-91.498715301570044
 20
-87.999999702178144
 30
0.0
 11
-135.9999999990105
 21
-87.99999970217813
 31
0.0
  0
LINE
  5
1656
  8
SAPA_MATT
 10
-134.4999999990105
 20
-79.999999999943256
 30
0.0
 11
-134.4999999990105
 21
-76.999999999943256
 31
0.0
  0
LINE
  5
1657
  8
SAPA_MATT
 10
-134.4999999990105
 20
-90.999999702178144
 30
0.0
 11
-134.4999999990105
 21
-93.999999702178116
 31
0.0
  0
LINE
  5
1658
  8
SAPA_MATT
 10
-134.4999999990105
 20
-82.999999999943256
 30
0.0
 11
-134.4999999990105
 21
-87.99999970217813
 31
0.0
  0
SOLID
  5
1659
  8
SAPA_MATT
 10
-134.9999999990105
 20
-79.999999999943256
 30
0.0
 11
-133.9999999990105
 21
-79.999999999943256
 31
0.0
 12
-134.4999999990105
 22
-82.999999999943256
 32
0.0
 13
-134.4999999990105
 23
-82.999999999943256
 33
0.0
  0
SOLID
  5
165A
  8
SAPA_MATT
 10
-134.9999999990105
 20
-90.999999702178144
 30
0.0
 11
-133.9999999990105
 21
-90.999999702178144
 31
0.0
 12
-134.4999999990105
 22
-87.99999970217813
 32
0.0
 13
-134.4999999990105
 23
-87.99999970217813
 33
0.0
  0
INSERT
  5
165B
  8
0
  2
*U101
 10
0.0
 20
0.0
 30
0.0
  0
POINT
  5
165C
  8
DEFPOINTS
 62
     0
 10
-89.998715170683127
 20
-82.99999999994327
 30
0.0
  0
POINT
  5
165D
  8
DEFPOINTS
 62
     0
 10
-89.998715301570059
 20
-87.999999702178144
 30
0.0
  0
POINT
  5
165E
  8
DEFPOINTS
 62
     0
 10
-134.4999999990105
 20
-87.99999970217813
 30
0.0
  0
ENDBLK
  5
1627
  8
0
  0
BLOCK
  8
0
  2
*D88
 70
     1
 10
0.0
 20
0.0
 30
0.0
  3
*D88
  1

  0
LINE
  5
164B
  8
SAPA_MATT
 10
-90.998715301570059
 20
-87.999999702178144
 30
0.0
 11
-135.99999999901041
 21
-87.99999970217813
 31
0.0
  0
LINE
  5
164C
  8
SAPA_MATT
 10
-89.000000006768289
 20
-125.4999997021781
 30
0.0
 11
-135.99999999901041
 21
-125.4999997021781
 31
0.0
  0
LINE
  5
164D
  8
SAPA_MATT
 10
-134.49999999901041
 20
-90.999999702178144
 30
0.0
 11
-134.49999999901041
 21
-122.4999997021781
 31
0.0
  0
SOLID
  5
164E
  8
SAPA_MATT
 10
-134.99999999901041
 20
-90.999999702178144
 30
0.0
 11
-133.99999999901041
 21
-90.999999702178144
 31
0.0
 12
-134.49999999901041
 22
-87.99999970217813
 32
0.0
 13
-134.49999999901041
 23
-87.99999970217813
 33
0.0
  0
SOLID
  5
164F
  8
SAPA_MATT
 10
-134.99999999901041
 20
-122.4999997021781
 30
0.0
 11
-133.99999999901041
 21
-122.4999997021781
 31
0.0
 12
-134.49999999901041
 22
-125.4999997021781
 32
0.0
 13
-134.49999999901041
 23
-125.4999997021781
 33
0.0
  0
INSERT
  5
1650
  8
0
  2
*U100
 10
0.0
 20
0.0
 30
0.0
  0
POINT
  5
1651
  8
DEFPOINTS
 62
     0
 10
-89.498715301570059
 20
-87.999999702178144
 30
0.0
  0
POINT
  5
1652
  8
DEFPOINTS
 62
     0
 10
-87.500000006768289
 20
-125.4999997021781
 30
0.0
  0
POINT
  5
1653
  8
DEFPOINTS
 62
     0
 10
-134.49999999901041
 20
-125.4999997021781
 30
0.0
  0
ENDBLK
  5
1635
  8
0
  0
BLOCK
  8
0
  2
*D89
 70
     1
 10
0.0
 20
0.0
 30
0.0
  3
*D89
  1

  0
LINE
  5
1668
  8
SAPA_MATT
 10
-115.4999999990104
 20
25.000000000000931
 30
0.0
 11
-135.99999999901041
 21
25.000000000000941
 31
0.0
  0
LINE
  5
1669
  8
SAPA_MATT
 10
-115.4999999990104
 20
-24.999999999999069
 30
0.0
 11
-135.99999999901041
 21
-24.999999999999069
 31
0.0
  0
LINE
  5
166A
  8
SAPA_MATT
 10
-134.49999999901041
 20
22.000000000000931
 30
0.0
 11
-134.49999999901041
 21
-21.999999999999059
 31
0.0
  0
SOLID
  5
166B
  8
SAPA_MATT
 10
-134.99999999901041
 20
22.000000000000931
 30
0.0
 11
-133.99999999901041
 21
22.000000000000931
 31
0.0
 12
-134.49999999901041
 22
25.000000000000941
 32
0.0
 13
-134.49999999901041
 23
25.000000000000941
 33
0.0
  0
SOLID
  5
166C
  8
SAPA_MATT
 10
-134.99999999901041
 20
-21.999999999999059
 30
0.0
 11
-133.99999999901041
 21
-21.999999999999059
 31
0.0
 12
-134.49999999901041
 22
-24.999999999999069
 32
0.0
 13
-134.49999999901041
 23
-24.999999999999069
 33
0.0
  0
INSERT
  5
166D
  8
0
  2
*U103
 10
0.0
 20
0.0
 30
0.0
  0
POINT
  5
166E
  8
DEFPOINTS
 62
     0
 10
-113.9999999990104
 20
25.000000000000931
 30
0.0
  0
POINT
  5
166F
  8
DEFPOINTS
 62
     0
 10
-113.9999999990104
 20
-24.999999999999069
 30
0.0
  0
POINT
  5
1670
  8
DEFPOINTS
 62
     0
 10
-134.49999999901041
 20
-24.999999999999069
 30
0.0
  0
ENDBLK
  5
1641
  8
0
  0
BLOCK
  8
0
  2
*U90
 70
     1
 10
0.0
 20
0.0
 30
0.0
  3
*U90
  1

  0
TEXT
  5
16DD
  8
SAPA_ARTIKELNR
 10
69.898756082997011
 20
-5.9354829007731844
 30
0.0
 40
3.5
  1
68654
 50
90.0
  7
ISO
  0
ENDBLK
  5
16DF
  8
0
  0
BLOCK
  8
0
  2
*U91
 70
     1
 10
0.0
 20
0.0
 30
0.0
  3
*U91
  1

  0
TEXT
  5
16E1
  8
SAPA_ARTIKELNR
 10
-100.5321007722961
 20
-5.9354829007731533
 30
0.0
 40
3.5
  1
42848
 50
90.0
  7
ISO
  0
ENDBLK
  5
16E3
  8
0
  0
BLOCK
  8
0
  2
*U92
 70
     1
 10
0.0
 20
0.0
 30
0.0
  3
*U92
  1

  0
TEXT
  5
16E5
  8
SAPA_ARTIKELNR
 10
-116.2121713266682
 20
-5.9354829007731498
 30
0.0
 40
3.5
  1
42227
 50
90.0
  7
ISO
  0
ENDBLK
  5
16E7
  8
0
  0
BLOCK
  8
0
  2
*U93
 70
     1
 10
0.0
 20
0.0
 30
0.0
  3
*U93
  1

  0
TEXT
  5
16F8
  8
SAPA_ARTIKELNR
 10
0.8144467660030443
 20
-48.265310742901349
 30
0.0
 40
3.5
  1
86201
 50
90.0
  7
ISO
  0
ENDBLK
  5
16FA
  8
0
  0
BLOCK
  8
0
  2
*U94
 70
     1
 10
0.0
 20
0.0
 30
0.0
  3
*U94
  1

  0
TEXT
  5
16FC
  8
SAPA_ARTIKELNR
 10
10.56743116125338
 20
-84.209132659344874
 30
0.0
 40
3.5
  1
86302
 50
90.0
  7
ISO
  0
ENDBLK
  5
16FE
  8
0
  0
BLOCK
  8
0
  2
*U95
 70
     1
 10
0.0
 20
0.0
 30
0.0
  3
*U95
  1

  0
TEXT
  5
1700
  8
SAPA_ARTIKELNR
 10
-0.9924156982829117
 20
-119.765122060854
 30
0.0
 40
3.5
  1
42726
 50
90.0
  7
ISO
  0
ENDBLK
  5
1702
  8
0
  0
BLOCK
  8
0
  2
*U96
 70
     1
 10
0.0
 20
0.0
 30
0.0
  3
*U96
  1

  0
SOLID
  5
258A
  8
SAPA_FOGBAND
  6
CONTINUOUS
 10
-92.637568222720802
 20
-18.35970973098997
 30
0.0
 11
-92.817845786494004
 21
-18.434383142896412
 31
0.0
 12
-92.457290658947599
 22
-18.434383142896412
 32
0.0
 13
-92.457290658947599
 23
-18.434383142896412
 33
0.0
210
0.0
220
0.0
230
1.0
  0
SOLID
  5
258B
  8
SAPA_FOGBAND
  6
CONTINUOUS
 10
-92.817845786494004
 20
-18.434383142896412
 30
0.0
 11
-92.892519198400436
 21
-18.614660706669611
 31
0.0
 12
-92.382617247041154
 22
-18.614660706669611
 32
0.0
 13
-92.382617247041154
 23
-18.614660706669611
 33
0.0
210
0.0
220
0.0
230
1.0
  0
SOLID
  5
258C
  8
SAPA_FOGBAND
  6
CONTINUOUS
 10
92.817845786494004
 20
-18.434383142896412
 30
0.0
 11
92.457290658947599
 21
-18.434383142896412
 31
0.0
 12
92.382617247041154
 22
-18.614660706669611
 32
0.0
 13
92.382617247041154
 23
-18.614660706669611
 33
0.0
210
0.0
220
0.0
230
-1.0
  0
SOLID
  5
258D
  8
SAPA_FOGBAND
  6
CONTINUOUS
 10
92.817845786494004
 20
-18.79493827044281
 30
0.0
 11
92.457290658947599
 21
-18.79493827044281
 31
0.0
 12
92.637568222720802
 22
-18.869611682349252
 32
0.0
 13
92.637568222720802
 23
-18.869611682349252
 33
0.0
210
0.0
220
0.0
230
-1.0
  0
SOLID
  5
258E
  8
SAPA_FOGBAND
  6
CONTINUOUS
 10
-92.892519198400436
 20
-18.614660706669611
 30
0.0
 11
-92.817845786494004
 21
-18.79493827044281
 31
0.0
 12
-92.457290658947599
 22
-18.79493827044281
 32
0.0
 13
-92.457290658947599
 23
-18.79493827044281
 33
0.0
210
0.0
220
0.0
230
1.0
  0
SOLID
  5
258F
  8
SAPA_FOGBAND
  6
CONTINUOUS
 10
92.892519198400436
 20
-18.614660706669611
 30
0.0
 11
92.382617247041154
 21
-18.614660706669611
 31
0.0
 12
92.457290658947599
 22
-18.79493827044281
 32
0.0
 13
92.457290658947599
 23
-18.79493827044281
 33
0.0
210
0.0
220
0.0
230
-1.0
  0
LINE
  5
2590
  8
SAPA_FOGBAND
  6
CONTINUOUS
 10
-92.637568222720802
 20
-18.35970973098997
 30
0.0
 11
-92.817845786494004
 21
-18.434383142896412
 31
0.0
  0
LINE
  5
2591
  8
SAPA_FOGBAND
  6
CONTINUOUS
 10
-92.457290658947599
 20
-18.434383142896412
 30
0.0
 11
-92.637568222720802
 21
-18.35970973098997
 31
0.0
  0
LINE
  5
2592
  8
SAPA_FOGBAND
  6
CONTINUOUS
 10
-92.817845786494004
 20
-18.434383142896412
 30
0.0
 11
-92.892519198400436
 21
-18.614660706669611
 31
0.0
  0
LINE
  5
2593
  8
SAPA_FOGBAND
  6
CONTINUOUS
 10
-92.457290658947599
 20
-18.434383142896412
 30
0.0
 11
-92.382617247041154
 21
-18.614660706669611
 31
0.0
  0
LINE
  5
2594
  8
SAPA_FOGBAND
  6
CONTINUOUS
 10
-92.457290658947599
 20
-18.79493827044281
 30
0.0
 11
-92.637568222720802
 21
-18.869611682349252
 31
0.0
  0
LINE
  5
2595
  8
SAPA_FOGBAND
  6
CONTINUOUS
 10
-92.637568222720802
 20
-18.869611682349252
 30
0.0
 11
-92.817845786494004
 21
-18.79493827044281
 31
0.0
  0
LINE
  5
2596
  8
SAPA_FOGBAND
  6
CONTINUOUS
 10
-92.892519198400436
 20
-18.614660706669611
 30
0.0
 11
-92.817845786494004
 21
-18.79493827044281
 31
0.0
  0
LINE
  5
2597
  8
SAPA_FOGBAND
  6
CONTINUOUS
 10
-92.382617247041154
 20
-18.614660706669611
 30
0.0
 11
-92.457290658947599
 21
-18.79493827044281
 31
0.0
  0
ENDBLK
  5
2599
  8
0
  0
BLOCK
  8
0
  2
*U97
 70
     1
 10
0.0
 20
0.0
 30
0.0
  3
*U97
  1

  0
SOLID
  5
2608
  8
SAPA_FOGBAND
  6
CONTINUOUS
 10
-92.63756821976574
 20
18.895903570166499
 30
0.0
 11
-92.817845783538942
 21
18.821230158260061
 31
0.0
 12
-92.457290655992537
 22
18.821230158260061
 32
0.0
 13
-92.457290655992537
 23
18.821230158260061
 33
0.0
210
0.0
220
0.0
230
1.0
  0
SOLID
  5
2609
  8
SAPA_FOGBAND
  6
CONTINUOUS
 10
-92.817845783538942
 20
18.821230158260061
 30
0.0
 11
-92.892519195445374
 21
18.640952594486858
 31
0.0
 12
-92.382617244086106
 22
18.640952594486858
 32
0.0
 13
-92.382617244086106
 23
18.640952594486858
 33
0.0
210
0.0
220
0.0
230
1.0
  0
SOLID
  5
260A
  8
SAPA_FOGBAND
  6
CONTINUOUS
 10
92.817845783538942
 20
18.821230158260061
 30
0.0
 11
92.457290655992537
 21
18.821230158260061
 31
0.0
 12
92.382617244086106
 22
18.640952594486858
 32
0.0
 13
92.382617244086106
 23
18.640952594486858
 33
0.0
210
0.0
220
0.0
230
-1.0
  0
SOLID
  5
260B
  8
SAPA_FOGBAND
  6
CONTINUOUS
 10
92.817845783538942
 20
18.460675030713659
 30
0.0
 11
92.457290655992537
 21
18.460675030713659
 31
0.0
 12
92.63756821976574
 22
18.386001618807221
 32
0.0
 13
92.63756821976574
 23
18.386001618807221
 33
0.0
210
0.0
220
0.0
230
-1.0
  0
SOLID
  5
260C
  8
SAPA_FOGBAND
  6
CONTINUOUS
 10
-92.892519195445374
 20
18.640952594486858
 30
0.0
 11
-92.817845783538942
 21
18.460675030713659
 31
0.0
 12
-92.457290655992537
 22
18.460675030713659
 32
0.0
 13
-92.457290655992537
 23
18.460675030713659
 33
0.0
210
0.0
220
0.0
230
1.0
  0
SOLID
  5
260D
  8
SAPA_FOGBAND
  6
CONTINUOUS
 10
92.892519195445374
 20
18.640952594486858
 30
0.0
 11
92.382617244086106
 21
18.640952594486858
 31
0.0
 12
92.457290655992537
 22
18.460675030713659
 32
0.0
 13
92.457290655992537
 23
18.460675030713659
 33
0.0
210
0.0
220
0.0
230
-1.0
  0
LINE
  5
260E
  8
SAPA_FOGBAND
  6
CONTINUOUS
 10
-92.63756821976574
 20
18.895903570166499
 30
0.0
 11
-92.817845783538942
 21
18.821230158260061
 31
0.0
  0
LINE
  5
260F
  8
SAPA_FOGBAND
  6
CONTINUOUS
 10
-92.457290655992537
 20
18.821230158260061
 30
0.0
 11
-92.63756821976574
 21
18.895903570166499
 31
0.0
  0
LINE
  5
2610
  8
SAPA_FOGBAND
  6
CONTINUOUS
 10
-92.817845783538942
 20
18.821230158260061
 30
0.0
 11
-92.892519195445374
 21
18.640952594486858
 31
0.0
  0
LINE
  5
2611
  8
SAPA_FOGBAND
  6
CONTINUOUS
 10
-92.457290655992537
 20
18.821230158260061
 30
0.0
 11
-92.382617244086106
 21
18.640952594486858
 31
0.0
  0
LINE
  5
2612
  8
SAPA_FOGBAND
  6
CONTINUOUS
 10
-92.457290655992537
 20
18.460675030713659
 30
0.0
 11
-92.63756821976574
 21
18.386001618807221
 31
0.0
  0
LINE
  5
2613
  8
SAPA_FOGBAND
  6
CONTINUOUS
 10
-92.63756821976574
 20
18.386001618807221
 30
0.0
 11
-92.817845783538942
 21
18.460675030713659
 31
0.0
  0
LINE
  5
2614
  8
SAPA_FOGBAND
  6
CONTINUOUS
 10
-92.892519195445374
 20
18.640952594486858
 30
0.0
 11
-92.817845783538942
 21
18.460675030713659
 31
0.0
  0
LINE
  5
2615
  8
SAPA_FOGBAND
  6
CONTINUOUS
 10
-92.382617244086106
 20
18.640952594486858
 30
0.0
 11
-92.457290655992537
 21
18.460675030713659
 31
0.0
  0
ENDBLK
  5
2617
  8
0
  0
BLOCK
  8
0
  2
*U98
 70
     1
 10
0.0
 20
0.0
 30
0.0
  3
*U98
  1

  0
SOLID
  5
2791
  8
SAPA_FOGBAND
  6
CONTINUOUS
 10
-92.637568222720802
 20
-18.35970973098997
 30
0.0
 11
-92.817845786494004
 21
-18.434383142896412
 31
0.0
 12
-92.457290658947599
 22
-18.434383142896412
 32
0.0
 13
-92.457290658947599
 23
-18.434383142896412
 33
0.0
210
0.0
220
0.0
230
1.0
  0
SOLID
  5
2792
  8
SAPA_FOGBAND
  6
CONTINUOUS
 10
-92.817845786494004
 20
-18.434383142896412
 30
0.0
 11
-92.892519198400436
 21
-18.614660706669611
 31
0.0
 12
-92.382617247041154
 22
-18.614660706669611
 32
0.0
 13
-92.382617247041154
 23
-18.614660706669611
 33
0.0
210
0.0
220
0.0
230
1.0
  0
SOLID
  5
2793
  8
SAPA_FOGBAND
  6
CONTINUOUS
 10
92.817845786494004
 20
-18.434383142896412
 30
0.0
 11
92.457290658947599
 21
-18.434383142896412
 31
0.0
 12
92.382617247041154
 22
-18.614660706669611
 32
0.0
 13
92.382617247041154
 23
-18.614660706669611
 33
0.0
210
0.0
220
0.0
230
-1.0
  0
SOLID
  5
2794
  8
SAPA_FOGBAND
  6
CONTINUOUS
 10
92.817845786494004
 20
-18.79493827044281
 30
0.0
 11
92.457290658947599
 21
-18.79493827044281
 31
0.0
 12
92.637568222720802
 22
-18.869611682349252
 32
0.0
 13
92.637568222720802
 23
-18.869611682349252
 33
0.0
210
0.0
220
0.0
230
-1.0
  0
SOLID
  5
2795
  8
SAPA_FOGBAND
  6
CONTINUOUS
 10
-92.892519198400436
 20
-18.614660706669611
 30
0.0
 11
-92.817845786494004
 21
-18.79493827044281
 31
0.0
 12
-92.457290658947599
 22
-18.79493827044281
 32
0.0
 13
-92.457290658947599
 23
-18.79493827044281
 33
0.0
210
0.0
220
0.0
230
1.0
  0
SOLID
  5
2796
  8
SAPA_FOGBAND
  6
CONTINUOUS
 10
92.892519198400436
 20
-18.614660706669611
 30
0.0
 11
92.382617247041154
 21
-18.614660706669611
 31
0.0
 12
92.457290658947599
 22
-18.79493827044281
 32
0.0
 13
92.457290658947599
 23
-18.79493827044281
 33
0.0
210
0.0
220
0.0
230
-1.0
  0
LINE
  5
2797
  8
SAPA_FOGBAND
  6
CONTINUOUS
 10
-92.637568222720802
 20
-18.35970973098997
 30
0.0
 11
-92.817845786494004
 21
-18.434383142896412
 31
0.0
  0
LINE
  5
2798
  8
SAPA_FOGBAND
  6
CONTINUOUS
 10
-92.457290658947599
 20
-18.434383142896412
 30
0.0
 11
-92.637568222720802
 21
-18.35970973098997
 31
0.0
  0
LINE
  5
2799
  8
SAPA_FOGBAND
  6
CONTINUOUS
 10
-92.817845786494004
 20
-18.434383142896412
 30
0.0
 11
-92.892519198400436
 21
-18.614660706669611
 31
0.0
  0
LINE
  5
279A
  8
SAPA_FOGBAND
  6
CONTINUOUS
 10
-92.457290658947599
 20
-18.434383142896412
 30
0.0
 11
-92.382617247041154
 21
-18.614660706669611
 31
0.0
  0
LINE
  5
279B
  8
SAPA_FOGBAND
  6
CONTINUOUS
 10
-92.457290658947599
 20
-18.79493827044281
 30
0.0
 11
-92.637568222720802
 21
-18.869611682349252
 31
0.0
  0
LINE
  5
279C
  8
SAPA_FOGBAND
  6
CONTINUOUS
 10
-92.637568222720802
 20
-18.869611682349252
 30
0.0
 11
-92.817845786494004
 21
-18.79493827044281
 31
0.0
  0
LINE
  5
279D
  8
SAPA_FOGBAND
  6
CONTINUOUS
 10
-92.892519198400436
 20
-18.614660706669611
 30
0.0
 11
-92.817845786494004
 21
-18.79493827044281
 31
0.0
  0
LINE
  5
279E
  8
SAPA_FOGBAND
  6
CONTINUOUS
 10
-92.382617247041154
 20
-18.614660706669611
 30
0.0
 11
-92.457290658947599
 21
-18.79493827044281
 31
0.0
  0
ENDBLK
  5
27A0
  8
0
  0
BLOCK
  8
0
  2
*U99
 70
     1
 10
0.0
 20
0.0
 30
0.0
  3
*U99
  1

  0
SOLID
  5
280F
  8
SAPA_FOGBAND
  6
CONTINUOUS
 10
-92.63756821976574
 20
18.895903570166499
 30
0.0
 11
-92.817845783538942
 21
18.821230158260061
 31
0.0
 12
-92.457290655992537
 22
18.821230158260061
 32
0.0
 13
-92.457290655992537
 23
18.821230158260061
 33
0.0
210
0.0
220
0.0
230
1.0
  0
SOLID
  5
2810
  8
SAPA_FOGBAND
  6
CONTINUOUS
 10
-92.817845783538942
 20
18.821230158260061
 30
0.0
 11
-92.892519195445374
 21
18.640952594486858
 31
0.0
 12
-92.382617244086106
 22
18.640952594486858
 32
0.0
 13
-92.382617244086106
 23
18.640952594486858
 33
0.0
210
0.0
220
0.0
230
1.0
  0
SOLID
  5
2811
  8
SAPA_FOGBAND
  6
CONTINUOUS
 10
92.817845783538942
 20
18.821230158260061
 30
0.0
 11
92.457290655992537
 21
18.821230158260061
 31
0.0
 12
92.382617244086106
 22
18.640952594486858
 32
0.0
 13
92.382617244086106
 23
18.640952594486858
 33
0.0
210
0.0
220
0.0
230
-1.0
  0
SOLID
  5
2812
  8
SAPA_FOGBAND
  6
CONTINUOUS
 10
92.817845783538942
 20
18.460675030713659
 30
0.0
 11
92.457290655992537
 21
18.460675030713659
 31
0.0
 12
92.63756821976574
 22
18.386001618807221
 32
0.0
 13
92.63756821976574
 23
18.386001618807221
 33
0.0
210
0.0
220
0.0
230
-1.0
  0
SOLID
  5
2813
  8
SAPA_FOGBAND
  6
CONTINUOUS
 10
-92.892519195445374
 20
18.640952594486858
 30
0.0
 11
-92.817845783538942
 21
18.460675030713659
 31
0.0
 12
-92.457290655992537
 22
18.460675030713659
 32
0.0
 13
-92.457290655992537
 23
18.460675030713659
 33
0.0
210
0.0
220
0.0
230
1.0
  0
SOLID
  5
2814
  8
SAPA_FOGBAND
  6
CONTINUOUS
 10
92.892519195445374
 20
18.640952594486858
 30
0.0
 11
92.382617244086106
 21
18.640952594486858
 31
0.0
 12
92.457290655992537
 22
18.460675030713659
 32
0.0
 13
92.457290655992537
 23
18.460675030713659
 33
0.0
210
0.0
220
0.0
230
-1.0
  0
LINE
  5
2815
  8
SAPA_FOGBAND
  6
CONTINUOUS
 10
-92.63756821976574
 20
18.895903570166499
 30
0.0
 11
-92.817845783538942
 21
18.821230158260061
 31
0.0
  0
LINE
  5
2816
  8
SAPA_FOGBAND
  6
CONTINUOUS
 10
-92.457290655992537
 20
18.821230158260061
 30
0.0
 11
-92.63756821976574
 21
18.895903570166499
 31
0.0
  0
LINE
  5
2817
  8
SAPA_FOGBAND
  6
CONTINUOUS
 10
-92.817845783538942
 20
18.821230158260061
 30
0.0
 11
-92.892519195445374
 21
18.640952594486858
 31
0.0
  0
LINE
  5
2818
  8
SAPA_FOGBAND
  6
CONTINUOUS
 10
-92.457290655992537
 20
18.821230158260061
 30
0.0
 11
-92.382617244086106
 21
18.640952594486858
 31
0.0
  0
LINE
  5
2819
  8
SAPA_FOGBAND
  6
CONTINUOUS
 10
-92.457290655992537
 20
18.460675030713659
 30
0.0
 11
-92.63756821976574
 21
18.386001618807221
 31
0.0
  0
LINE
  5
281A
  8
SAPA_FOGBAND
  6
CONTINUOUS
 10
-92.63756821976574
 20
18.386001618807221
 30
0.0
 11
-92.817845783538942
 21
18.460675030713659
 31
0.0
  0
LINE
  5
281B
  8
SAPA_FOGBAND
  6
CONTINUOUS
 10
-92.892519195445374
 20
18.640952594486858
 30
0.0
 11
-92.817845783538942
 21
18.460675030713659
 31
0.0
  0
LINE
  5
281C
  8
SAPA_FOGBAND
  6
CONTINUOUS
 10
-92.382617244086106
 20
18.640952594486858
 30
0.0
 11
-92.457290655992537
 21
18.460675030713659
 31
0.0
  0
ENDBLK
  5
281E
  8
0
  0
BLOCK
  8
0
  2
*U100
 70
     1
 10
0.0
 20
0.0
 30
0.0
  3
*U100
  1

  0
TEXT
  5
291F
  8
SAPA_MATT
 62
     2
 10
-135.49999999901041
 20
-110.9499997021781
 30
0.0
 40
3.5
  1
37.5
 50
90.0
  7
ISO
  0
ENDBLK
  5
2921
  8
0
  0
BLOCK
  8
0
  2
*U101
 70
     1
 10
0.0
 20
0.0
 30
0.0
  3
*U101
  1

  0
TEXT
  5
2923
  8
SAPA_MATT
 62
     2
 10
-135.4999999990105
 20
-86.724999851060687
 30
0.0
 40
3.5
  1
5
 50
90.0
  7
ISO
  0
ENDBLK
  5
2925
  8
0
  0
BLOCK
  8
0
  2
*U102
 70
     1
 10
0.0
 20
0.0
 30
0.0
  3
*U102
  1

  0
TEXT
  5
2927
  8
SAPA_MATT
 62
     2
 10
-135.49999999901041
 20
-56.450000000020552
 30
0.0
 40
3.5
  1
58
 50
90.0
  7
ISO
  0
ENDBLK
  5
2929
  8
0
  0
BLOCK
  8
0
  2
*U103
 70
     1
 10
0.0
 20
0.0
 30
0.0
  3
*U103
  1

  0
TEXT
  5
292B
  8
SAPA_MATT
 62
     2
 10
-135.4999999990105
 20
-2.4499999999990849
 30
0.0
 40
3.5
  1
50
 50
90.0
  7
ISO
  0
ENDBLK
  5
292D
  8
0
  0
ENDSEC
  0
SECTION
  2
ENTITIES
  0
POLYLINE
  5
7C5
  8
SAPA_LIGHT
 66
     1
 10
0.0
 20
0.0
 30
0.0
  0
VERTEX
  5
16A6
  8
SAPA_LIGHT
 10
-35.500000000001137
 20
5.0000000000000027
 30
0.0
  0
VERTEX
  5
16A7
  8
SAPA_LIGHT
 10
-35.500000000001137
 20
24.999999999999879
 30
0.0
  0
VERTEX
  5
16A8
  8
SAPA_LIGHT
 10
64.499999999998863
 20
25.00000000000022
 30
0.0
  0
VERTEX
  5
16A9
  8
SAPA_LIGHT
 10
64.499999999998863
 20
-24.99999999999979
 30
0.0
  0
VERTEX
  5
16AA
  8
SAPA_LIGHT
 10
-48.499999999018208
 20
-24.999999999999201
 30
0.0
  0
VERTEX
  5
16AB
  8
SAPA_LIGHT
 10
-48.499999999002277
 20
-4.9999999999997629
 30
0.0
  0
VERTEX
  5
16AC
  8
SAPA_LIGHT
 10
-90.499999999011777
 20
-4.9999999999995852
 30
0.0
  0
VERTEX
  5
16AD
  8
SAPA_LIGHT
 10
-90.499999999208171
 20
-24.999999999836731
 30
0.0
  0
VERTEX
  5
16AE
  8
SAPA_LIGHT
 10
-114.4999999990105
 20
-24.999999999999069
 30
0.0
  0
VERTEX
  5
16AF
  8
SAPA_LIGHT
 10
-114.4999999990105
 20
25.000000000000931
 30
0.0
  0
VERTEX
  5
16B0
  8
SAPA_LIGHT
 10
-90.499999999011735
 20
25.000000000000021
 30
0.0
  0
VERTEX
  5
16B1
  8
SAPA_LIGHT
 10
-90.499999999011735
 20
25.000000000000021
 30
0.0
  0
VERTEX
  5
16B2
  8
SAPA_LIGHT
 10
-87.499999999010015
 20
25.000000000000011
 30
0.0
  0
VERTEX
  5
16B3
  8
SAPA_LIGHT
 10
-87.499999999010015
 20
5.0000000000000027
 30
0.0
  0
VERTEX
  5
16B4
  8
SAPA_LIGHT
 10
-35.500000000001137
 20
5.0000000000000027
 30
0.0
  0
SEQEND
  5
16B5
  8
SAPA_LIGHT
  0
POLYLINE
  5
7C6
  8
SAPA_LIGHT
 66
     1
 10
0.0
 20
0.0
 30
0.0
  0
VERTEX
  5
16B6
  8
SAPA_LIGHT
 10
-90.500000003728104
 20
-74.499999999966562
 30
0.0
  0
VERTEX
  5
16B7
  8
SAPA_LIGHT
 10
-90.500000002721535
 20
-11.862517060944
 30
0.0
  0
VERTEX
  5
16B8
  8
SAPA_LIGHT
 10
-48.494512004128808
 20
-11.862517060944
 30
0.0
  0
VERTEX
  5
16B9
  8
SAPA_LIGHT
 10
-48.505487993891677
 20
-30.19999999999958
 30
0.0
  0
VERTEX
  5
16BA
  8
SAPA_LIGHT
 10
-19.388616438581099
 20
-29.99999999999897
 30
0.0
  0
VERTEX
  5
16BB
  8
SAPA_LIGHT
 10
-16.500000006903129
 20
-29.968745704598629
 30
0.0
  0
VERTEX
  5
16BC
  8
SAPA_LIGHT
 10
-16.500000006903129
 20
-52.499999999998863
 30
0.0
  0
VERTEX
  5
16BD
  8
SAPA_LIGHT
 10
-85.050000007505105
 20
-52.499999999998728
 30
0.0
  0
VERTEX
  5
16BE
  8
SAPA_LIGHT
 10
-85.050000007505105
 20
-74.500000000177565
 30
0.0
  0
VERTEX
  5
16BF
  8
SAPA_LIGHT
 10
-90.500000003728104
 20
-74.500000000103896
 30
0.0
  0
SEQEND
  5
16C0
  8
SAPA_LIGHT
  0
POLYLINE
  5
7C8
  8
SAPA_LIGHT
 66
     1
 10
0.0
 20
0.0
 30
0.0
  0
VERTEX
  5
16C1
  8
SAPA_LIGHT
 10
-39.550000085492478
 20
-135.5000000030644
 30
0.0
  0
VERTEX
  5
16C2
  8
SAPA_LIGHT
 10
-39.550000085492478
 20
-105.5000000030644
 30
0.0
  0
VERTEX
  5
16C3
  8
SAPA_LIGHT
 10
-81.550000085463935
 20
-105.5000000030639
 30
0.0
  0
VERTEX
  5
16C4
  8
SAPA_LIGHT
 10
-81.550000085463935
 20
-135.50000000306389
 30
0.0
  0
SEQEND
  5
16C5
  8
SAPA_LIGHT
  0
POLYLINE
  5
7E8
  8
SAPA_LIGHT
 66
     1
 10
0.0
 20
0.0
 30
0.0
 70
     1
  0
VERTEX
  5
16C6
  8
SAPA_LIGHT
 10
-16.76794920356777
 20
-100.5000000030642
 30
0.0
  0
VERTEX
  5
16C7
  8
SAPA_LIGHT
 10
-18.000000005793439
 20
-100.5000000030642
 30
0.0
  0
VERTEX
  5
16C8
  8
SAPA_LIGHT
 10
-18.000000005793439
 20
-122.5000000030779
 30
0.0
  0
VERTEX
  5
16C9
  8
SAPA_LIGHT
 10
-39.550000085494638
 20
-122.5000000030779
 30
0.0
  0
VERTEX
  5
16CA
  8
SAPA_LIGHT
 10
-39.550000085494638
 20
-100.1948776362608
 30
0.0
  0
VERTEX
  5
16CB
  8
SAPA_LIGHT
 10
-81.550000085463935
 20
-100.1948776362608
 30
0.0
  0
VERTEX
  5
16CC
  8
SAPA_LIGHT
 10
-81.550000085464006
 20
-122.5000000032433
 30
0.0
  0
VERTEX
  5
16CD
  8
SAPA_LIGHT
 10
-90.500000007534283
 20
-122.5000000030314
 30
0.0
  0
VERTEX
  5
16CE
  8
SAPA_LIGHT
 10
-90.500000007521649
 20
-79.499999999967358
 30
0.0
  0
VERTEX
  5
16CF
  8
SAPA_LIGHT
 10
-85.050000007505062
 20
-79.499999999967358
 30
0.0
  0
VERTEX
  5
16D0
  8
SAPA_LIGHT
 10
-85.050000007505105
 20
-72.500000000041695
 30
0.0
  0
VERTEX
  5
16D1
  8
SAPA_LIGHT
 10
-71.853716961445812
 20
-72.500000000041695
 30
0.0
  0
VERTEX
  5
16D2
  8
SAPA_LIGHT
 10
-71.853716961445869
 20
-66.500000000041481
 30
0.0
  0
VERTEX
  5
16D3
  8
SAPA_LIGHT
 10
-38.50000001061251
 20
-66.50000000004195
 30
0.0
  0
VERTEX
  5
16D4
  8
SAPA_LIGHT
 10
-38.50000001061251
 20
-64.000000000042405
 30
0.0
  0
VERTEX
  5
16D5
  8
SAPA_LIGHT
 10
-16.500000006903129
 20
-64.000000000042405
 30
0.0
  0
VERTEX
  5
16D6
  8
SAPA_LIGHT
 10
-16.500000006903129
 20
-46.50000000004195
 30
0.0
  0
VERTEX
  5
16D7
  8
SAPA_LIGHT
 10
-7.00000000241773
 20
-46.50000000004195
 30
0.0
  0
VERTEX
  5
16D8
  8
SAPA_LIGHT
 10
-7.0000000071514288
 20
-89.241941785629706
 30
0.0
  0
VERTEX
  5
16D9
  8
SAPA_LIGHT
 10
-11.999834608119061
 20
-97.901828296234044
 30
0.0
  0
VERTEX
  5
16DA
  8
SAPA_LIGHT
 10
-16.267949203567479
 20
-100.36602540684849
 30
0.0
  0
SEQEND
  5
16DB
  8
SAPA_LIGHT
  0
INSERT
  5
7F5
  8
0
  2
*U90
 10
0.0
 20
0.0
 30
0.0
  0
INSERT
  5
7F6
  8
0
  2
*U91
 10
0.0
 20
0.0
 30
0.0
  0
INSERT
  5
7F7
  8
0
  2
*U92
 10
0.0
 20
0.0
 30
0.0
  0
POLYLINE
  5
9D0
  8
SAPA_LIGHT
 66
     1
 10
0.0
 20
0.0
 30
0.0
  0
VERTEX
  5
16E8
  8
SAPA_LIGHT
 10
62.499999999998799
 20
75.000000000000284
 30
0.0
  0
VERTEX
  5
16E9
  8
SAPA_LIGHT
 10
62.499999999998799
 20
26.000000000000298
 30
0.0
  0
VERTEX
  5
16EA
  8
SAPA_LIGHT
 10
50.999999999998693
 20
26.000000000000298
 30
0.0
  0
VERTEX
  5
16EB
  8
SAPA_LIGHT
 10
50.999999999998693
 20
75.000000000000284
 30
0.0
  0
SEQEND
  5
16EC
  8
SAPA_LIGHT
  0
POLYLINE
  5
9D1
  8
SAPA_LIGHT
 66
     1
 10
0.0
 20
0.0
 30
0.0
  0
VERTEX
  5
16ED
  8
SAPA_LIGHT
 10
-35.50000000000108
 20
75.522593981593843
 30
0.0
  0
VERTEX
  5
16EE
  8
SAPA_LIGHT
 10
-35.506403657189139
 20
14.03511389911246
 30
0.0
  0
VERTEX
  5
16EF
  8
SAPA_LIGHT
 10
-43.50000000000108
 20
14.03511389911251
 30
0.0
  0
VERTEX
  5
16F0
  8
SAPA_LIGHT
 10
-43.50000000000108
 20
75.5225939815939
 30
0.0
  0
SEQEND
  5
16F1
  8
SAPA_LIGHT
  0
POLYLINE
  5
9D2
  8
SAPA_LIGHT
 66
     1
 10
0.0
 20
0.0
 30
0.0
  0
VERTEX
  5
16F2
  8
SAPA_LIGHT
 10
-79.49999999900956
 20
75.522593981594866
 30
0.0
  0
VERTEX
  5
16F3
  8
SAPA_LIGHT
 10
-79.499999999010015
 20
11.0000000000003
 30
0.0
  0
VERTEX
  5
16F4
  8
SAPA_LIGHT
 10
-87.499999999010015
 20
11.00000000000024
 30
0.0
  0
VERTEX
  5
16F5
  8
SAPA_LIGHT
 10
-87.499999999010015
 20
75.52259398159481
 30
0.0
  0
SEQEND
  5
16F6
  8
SAPA_LIGHT
  0
INSERT
  5
D3D
  8
0
  2
*U93
 10
0.0
 20
0.0
 30
0.0
  0
INSERT
  5
D3E
  8
0
  2
*U94
 10
0.0
 20
0.0
 30
0.0
  0
INSERT
  5
D3F
  8
0
  2
*U95
 10
0.0
 20
0.0
 30
0.0
  0
LINE
  5
1365
  8
SAPA_FYLLNING
 10
-29.50000000000199
 20
31.348467485783161
 30
0.0
 11
42.799999999999223
 21
31.348467485783221
 31
0.0
  0
ARC
  5
1366
  8
SAPA_FYLLNING
 10
42.799999999999223
 20
37.34846748578321
 30
0.0
 40
5.999999999999992
 50
270.0
 51
90.0
  0
LINE
  5
1367
  8
SAPA_FYLLNING
 10
42.799999999999223
 20
43.348467485783203
 30
0.0
 11
-29.50000000000199
 21
43.348467485784958
 31
0.0
  0
ARC
  5
1368
  8
SAPA_FYLLNING
 10
-29.500000000002078
 20
49.348467485783942
 30
0.0
 40
5.9999999999989759
 50
90.00000000000081
 51
270.0000000000008
  0
LINE
  5
1369
  8
SAPA_FYLLNING
 10
-29.50000000000216
 20
55.348467485782919
 30
0.0
 11
44.999999999998117
 21
55.348467485785022
 31
0.0
  0
ARC
  5
136A
  8
SAPA_FYLLNING
 10
44.999999999998117
 20
61.348467485784113
 30
0.0
 40
5.9999999999990896
 50
270.0
 51
90.0
  0
LINE
  5
136B
  8
SAPA_FYLLNING
 10
44.999999999998117
 20
67.348467485783203
 30
0.0
 11
-29.50000000000199
 21
67.348467485783146
 31
0.0
  0
POLYLINE
  5
1536
  8
SAPA_PROFIL
 66
     1
 10
0.0
 20
0.0
 30
0.0
 70
     1
  0
VERTEX
  5
1D77
  8
SAPA_PROFIL
 10
-7.3939031363878476
 20
-103.9953758136034
 30
0.0
  0
VERTEX
  5
1D78
  8
SAPA_PROFIL
 10
-7.6364470742349786
 20
-103.9953758136034
 30
0.0
 42
-0.2011813370902256
  0
VERTEX
  5
1D79
  8
SAPA_PROFIL
 10
-7.7790971640655471
 20
-103.9355576664634
 30
0.0
  0
VERTEX
  5
1D7A
  8
SAPA_PROFIL
 10
-8.6898092570894505
 20
-103.0088103077337
 30
0.0
  0
VERTEX
  5
1D7B
  8
SAPA_PROFIL
 10
-8.6766017143462477
 20
-101.4953758136016
 30
0.0
 42
0.4931454260356012
  0
VERTEX
  5
1D7C
  8
SAPA_PROFIL
 10
-8.4557748252985903
 20
-99.9241108533638
 30
0.0
  0
VERTEX
  5
1D7D
  8
SAPA_PROFIL
 10
-9.5049513979113822
 20
-98.856461016539455
 30
0.0
 42
0.6681786379164681
  0
VERTEX
  5
1D7E
  8
SAPA_PROFIL
 10
-9.8548516553963168
 20
-98.997829896993153
 30
0.0
  0
VERTEX
  5
1D7F
  8
SAPA_PROFIL
 10
-9.8941011439936233
 20
-103.4953758136034
 30
0.0
  0
VERTEX
  5
1D80
  8
SAPA_PROFIL
 10
-7.8165878847638623
 20
-105.60946866519311
 30
0.0
 42
-0.2038501166358263
  0
VERTEX
  5
1D81
  8
SAPA_PROFIL
 10
-7.6734050281578439
 20
-105.97377544461089
 30
0.0
  0
VERTEX
  5
1D82
  8
SAPA_PROFIL
 10
-8.0920311374467246
 20
-121.0784886972054
 30
0.0
 42
-0.4061212134736873
  0
VERTEX
  5
1D83
  8
SAPA_PROFIL
 10
-11.09087962454617
 20
-123.99537581359699
 30
0.0
  0
VERTEX
  5
1D84
  8
SAPA_PROFIL
 10
-22.875070868014241
 20
-123.99537581359699
 30
0.0
 42
-0.4142135623730951
  0
VERTEX
  5
1D85
  8
SAPA_PROFIL
 10
-23.37507086801423
 20
-123.49537581359689
 30
0.0
  0
VERTEX
  5
1D86
  8
SAPA_PROFIL
 10
-23.37507086801423
 20
-111.9095893759719
 30
0.0
 42
-0.198912367379658
  0
VERTEX
  5
1D87
  8
SAPA_PROFIL
 10
-23.082177649200791
 20
-111.20248259478529
 30
0.0
  0
VERTEX
  5
1D88
  8
SAPA_PROFIL
 10
-22.701578875810299
 20
-110.82188382139481
 30
0.0
 42
0.1830252782112529
  0
VERTEX
  5
1D89
  8
SAPA_PROFIL
 10
-22.119550334062691
 20
-109.5302160126634
 30
0.0
  0
VERTEX
  5
1D8A
  8
SAPA_PROFIL
 10
-21.396485606732139
 20
-99.097143983857677
 30
0.0
 42
0.668178637923616
  0
VERTEX
  5
1D8B
  8
SAPA_PROFIL
 10
-21.911636096521139
 20
-98.883761664324084
 30
0.0
  0
VERTEX
  5
1D8C
  8
SAPA_PROFIL
 10
-23.911118211443689
 20
-100.8832437792466
 30
0.0
 42
0.7332303362588345
  0
VERTEX
  5
1D8D
  8
SAPA_PROFIL
 10
-23.646891723786499
 20
-101.39081813950629
 30
0.0
  0
VERTEX
  5
1D8E
  8
SAPA_PROFIL
 10
-23.03108063038809
 20
-101.2822340287202
 30
0.0
 42
-0.4663076581593561
  0
VERTEX
  5
1D8F
  8
SAPA_PROFIL
 10
-22.678986177087889
 20
-101.5776763546237
 30
0.0
  0
VERTEX
  5
1D90
  8
SAPA_PROFIL
 10
-23.410145798968362
 20
-109.337153479976
 30
0.0
 42
-0.183025278211264
  0
VERTEX
  5
1D91
  8
SAPA_PROFIL
 10
-23.70116006984216
 20
-109.9829873843417
 30
0.0
  0
VERTEX
  5
1D92
  8
SAPA_PROFIL
 10
-24.089284430387181
 20
-110.3711117448866
 30
0.0
 42
0.1989123673796518
  0
VERTEX
  5
1D93
  8
SAPA_PROFIL
 10
-24.675070868014078
 20
-111.7853253072597
 30
0.0
  0
VERTEX
  5
1D94
  8
SAPA_PROFIL
 10
-24.675070868014188
 20
-123.1953758136125
 30
0.0
 42
-0.4142135623732283
  0
VERTEX
  5
1D95
  8
SAPA_PROFIL
 10
-25.175070868014419
 20
-123.6953758136125
 30
0.0
  0
VERTEX
  5
1D96
  8
SAPA_PROFIL
 10
-26.375070868013779
 20
-123.69537581361151
 30
0.0
 42
0.4142135623732062
  0
VERTEX
  5
1D97
  8
SAPA_PROFIL
 10
-26.675070868013851
 20
-123.9953758136115
 30
0.0
  0
VERTEX
  5
1D98
  8
SAPA_PROFIL
 10
-26.675070868014188
 20
-125.195375813597
 30
0.0
 42
0.4142135623716247
  0
VERTEX
  5
1D99
  8
SAPA_PROFIL
 10
-26.37507086801287
 20
-125.49537581359699
 30
0.0
  0
VERTEX
  5
1D9A
  8
SAPA_PROFIL
 10
-6.3986631256908586
 20
-125.49537581361049
 30
0.0
 42
0.4142135623732938
  0
VERTEX
  5
1D9B
  8
SAPA_PROFIL
 10
-6.198663125690814
 20
-125.2953758136106
 30
0.0
  0
VERTEX
  5
1D9C
  8
SAPA_PROFIL
 10
-6.198663125690814
 20
-103.6999996999248
 30
0.0
 42
0.4210020197690384
  0
VERTEX
  5
1D9D
  8
SAPA_PROFIL
 10
-6.3986096677348314
 20
-103.4953758136034
 30
0.0
  0
VERTEX
  5
1D9E
  8
SAPA_PROFIL
 10
-6.9865928309303618
 20
-103.49537581359699
 30
0.0
  0
VERTEX
  5
1D9F
  8
SAPA_PROFIL
 10
-6.9865928309303618
 20
-103.795375813597
 30
0.0
 42
-0.41421356237322
  0
VERTEX
  5
1DA0
  8
SAPA_PROFIL
 10
-7.1865928309304081
 20
-103.99537581359679
 30
0.0
  0
VERTEX
  5
1DA1
  8
SAPA_PROFIL
 10
-7.4037705964000224
 20
-103.99537581359699
 30
0.0
  0
SEQEND
  5
1DA2
  8
SAPA_PROFIL
  0
POLYLINE
  5
1537
  8
SAPA_PROFIL
 66
     1
 10
0.0
 20
0.0
 30
0.0
 70
     1
  0
VERTEX
  5
1DA3
  8
SAPA_PROFIL
 10
-29.228798412881549
 20
-77.988496464589375
 30
0.0
  0
VERTEX
  5
1DA4
  8
SAPA_PROFIL
 10
-28.944116129649899
 20
-78.140630375698152
 30
0.0
 42
0.5773502691897463
  0
VERTEX
  5
1DA5
  8
SAPA_PROFIL
 10
-28.649959829395101
 20
-77.957676635587958
 30
0.0
  0
VERTEX
  5
1DA6
  8
SAPA_PROFIL
 10
-28.66052119562206
 20
-77.635918907369714
 30
0.0
  0
VERTEX
  5
1DA7
  8
SAPA_PROFIL
 10
-26.774677503761009
 20
-76.551354460397974
 30
0.0
  0
VERTEX
  5
1DA8
  8
SAPA_PROFIL
 10
-26.583294503767281
 20
-76.493280823408895
 30
0.0
 42
-0.7625858545243257
  0
VERTEX
  5
1DA9
  8
SAPA_PROFIL
 10
-26.398715301569819
 20
-76.823606904425887
 30
0.0
 42
0.2134217652834389
  0
VERTEX
  5
1DAA
  8
SAPA_PROFIL
 10
-26.498715301569941
 20
-77.047213702176009
 30
0.0
  0
VERTEX
  5
1DAB
  8
SAPA_PROFIL
 10
-26.498715301569941
 20
-80.89999970217599
 30
0.0
 42
-0.4142139999998963
  0
VERTEX
  5
1DAC
  8
SAPA_PROFIL
 10
-26.798715301569981
 20
-81.199999702176001
 30
0.0
  0
VERTEX
  5
1DAD
  8
SAPA_PROFIL
 10
-27.098715301569939
 20
-81.199999702176001
 30
0.0
  0
VERTEX
  5
1DAE
  8
SAPA_PROFIL
 10
-28.698715301569909
 20
-80.276239702175957
 30
0.0
 42
0.5773500000002674
  0
VERTEX
  5
1DAF
  8
SAPA_PROFIL
 10
-28.998715301569959
 20
-80.449444702176038
 30
0.0
  0
VERTEX
  5
1DB0
  8
SAPA_PROFIL
 10
-28.998715301569959
 20
-81.835085702176002
 30
0.0
 42
0.267949000000023
  0
VERTEX
  5
1DB1
  8
SAPA_PROFIL
 10
-28.49871530156997
 20
-82.701110702176038
 30
0.0
  0
VERTEX
  5
1DB2
  8
SAPA_PROFIL
 10
-26.748715301569941
 20
-83.711473702176022
 30
0.0
 42
-0.2679489999999919
  0
VERTEX
  5
1DB3
  8
SAPA_PROFIL
 10
-26.498715301569941
 20
-84.144486702176039
 30
0.0
  0
VERTEX
  5
1DB4
  8
SAPA_PROFIL
 10
-26.498715301569941
 20
-94.155513702175995
 30
0.0
 42
-0.2679490000000193
  0
VERTEX
  5
1DB5
  8
SAPA_PROFIL
 10
-26.748715301569941
 20
-94.588526702175997
 30
0.0
  0
VERTEX
  5
1DB6
  8
SAPA_PROFIL
 10
-28.498715301569948
 20
-95.598889702175995
 30
0.0
 42
0.2679490000000211
  0
VERTEX
  5
1DB7
  8
SAPA_PROFIL
 10
-28.998715301569959
 20
-96.464914702176046
 30
0.0
  0
VERTEX
  5
1DB8
  8
SAPA_PROFIL
 10
-28.998715301569959
 20
-97.850555702175996
 30
0.0
 42
0.5773499999999721
  0
VERTEX
  5
1DB9
  8
SAPA_PROFIL
 10
-28.698715301569951
 20
-98.023760702175991
 30
0.0
  0
VERTEX
  5
1DBA
  8
SAPA_PROFIL
 10
-27.098715301569939
 20
-97.099999702176035
 30
0.0
  0
VERTEX
  5
1DBB
  8
SAPA_PROFIL
 10
-26.79871530156997
 20
-97.099999702176035
 30
0.0
 42
-0.4142139999999657
  0
VERTEX
  5
1DBC
  8
SAPA_PROFIL
 10
-26.498715301569931
 20
-97.39999970217599
 30
0.0
  0
VERTEX
  5
1DBD
  8
SAPA_PROFIL
 10
-26.498715301570051
 20
-101.252786702176
 30
0.0
 42
0.2134217652834387
  0
VERTEX
  5
1DBE
  8
SAPA_PROFIL
 10
-26.398715301569911
 20
-101.4763934999261
 30
0.0
 42
-0.7625858545243244
  0
VERTEX
  5
1DBF
  8
SAPA_PROFIL
 10
-26.583294503767391
 20
-101.8067195809431
 30
0.0
  0
VERTEX
  5
1DC0
  8
SAPA_PROFIL
 10
-26.774677503761112
 20
-101.748645943954
 30
0.0
  0
VERTEX
  5
1DC1
  8
SAPA_PROFIL
 10
-28.660521195622181
 20
-100.66408149698231
 30
0.0
  0
VERTEX
  5
1DC2
  8
SAPA_PROFIL
 10
-28.6499598293952
 20
-100.342323768764
 30
0.0
 42
0.5773502691897466
  0
VERTEX
  5
1DC3
  8
SAPA_PROFIL
 10
-28.94411612965003
 20
-100.1593700286539
 30
0.0
  0
VERTEX
  5
1DC4
  8
SAPA_PROFIL
 10
-29.228798412881702
 20
-100.3115039397626
 30
0.0
 42
0.2216946626430191
  0
VERTEX
  5
1DC5
  8
SAPA_PROFIL
 10
-29.634607318036458
 20
-100.8523837712394
 30
0.0
  0
VERTEX
  5
1DC6
  8
SAPA_PROFIL
 10
-30.016053914164178
 20
-102.6656142418977
 30
0.0
 42
0.4769755326981641
  0
VERTEX
  5
1DC7
  8
SAPA_PROFIL
 10
-29.713801089657711
 20
-103.0372711168435
 30
0.0
  0
VERTEX
  5
1DC8
  8
SAPA_PROFIL
 10
-28.210700008895699
 20
-103.0371875089599
 30
0.0
  0
VERTEX
  5
1DC9
  8
SAPA_PROFIL
 10
-28.196181599648611
 20
-102.9893417589614
 30
0.0
 42
-0.4142135623730953
  0
VERTEX
  5
1DCA
  8
SAPA_PROFIL
 10
-27.821996644172788
 20
-102.78937771445401
 30
0.0
  0
VERTEX
  5
1DCB
  8
SAPA_PROFIL
 10
-26.50088122673861
 20
-103.299999702176
 30
0.0
  0
VERTEX
  5
1DCC
  8
SAPA_PROFIL
 10
-26.498715301569931
 20
-103.299999702176
 30
0.0
  0
VERTEX
  5
1DCD
  8
SAPA_PROFIL
 10
-23.506230301569929
 20
-103.299999702176
 30
0.0
 42
0.2596809999999277
  0
VERTEX
  5
1DCE
  8
SAPA_PROFIL
 10
-23.336199301569948
 20
-103.205306702176
 30
0.0
  0
VERTEX
  5
1DCF
  8
SAPA_PROFIL
 10
-22.543668301569941
 20
-101.957960702176
 30
0.0
 42
0.5877030000000004
  0
VERTEX
  5
1DD0
  8
SAPA_PROFIL
 10
-22.79871530156997
 20
-101.499999702176
 30
0.0
  0
VERTEX
  5
1DD1
  8
SAPA_PROFIL
 10
-24.198715301569951
 20
-101.499999702176
 30
0.0
 42
-0.4142135623731089
  0
VERTEX
  5
1DD2
  8
SAPA_PROFIL
 10
-24.498715301569931
 20
-101.199999702176
 30
0.0
  0
VERTEX
  5
1DD3
  8
SAPA_PROFIL
 10
-24.498715301569931
 20
-98.799999702176024
 30
0.0
 42
-0.4142135623731088
  0
VERTEX
  5
1DD4
  8
SAPA_PROFIL
 10
-24.198715301569951
 20
-98.499999702176027
 30
0.0
  0
VERTEX
  5
1DD5
  8
SAPA_PROFIL
 10
-18.39871530156999
 20
-98.499999702176027
 30
0.0
  0
VERTEX
  5
1DD6
  8
SAPA_PROFIL
 10
-16.39871530156999
 20
-98.499999702176027
 30
0.0
  0
VERTEX
  5
1DD7
  8
SAPA_PROFIL
 10
-6.798715301569966
 20
-98.499999702176027
 30
0.0
 42
-0.4142139999999172
  0
VERTEX
  5
1DD8
  8
SAPA_PROFIL
 10
-6.4987153015699688
 20
-98.799999702176024
 30
0.0
  0
VERTEX
  5
1DD9
  8
SAPA_PROFIL
 10
-6.498715301569967
 20
-101.199999702176
 30
0.0
 42
-0.4142139999999103
  0
VERTEX
  5
1DDA
  8
SAPA_PROFIL
 10
-6.7987153015699651
 20
-101.499999702176
 30
0.0
  0
VERTEX
  5
1DDB
  8
SAPA_PROFIL
 10
-8.1987153015699494
 20
-101.499999702176
 30
0.0
 42
0.5877030000000132
  0
VERTEX
  5
1DDC
  8
SAPA_PROFIL
 10
-8.4537613015699495
 20
-101.957960702176
 30
0.0
  0
VERTEX
  5
1DDD
  8
SAPA_PROFIL
 10
-7.55736230156994
 20
-103.40530670217601
 30
0.0
 42
0.259681000000005
  0
VERTEX
  5
1DDE
  8
SAPA_PROFIL
 10
-7.3873313015699811
 20
-103.499999702176
 30
0.0
  0
VERTEX
  5
1DDF
  8
SAPA_PROFIL
 10
-4.766664301569933
 20
-103.499999702176
 30
0.0
 42
0.1316520000000017
  0
VERTEX
  5
1DE0
  8
SAPA_PROFIL
 10
-4.2666643015699259
 20
-103.366025702176
 30
0.0
  0
VERTEX
  5
1DE1
  8
SAPA_PROFIL
 10
3.501284698430073
 20
-98.881197702175996
 30
0.0
 42
0.267948999999994
  0
VERTEX
  5
1DE2
  8
SAPA_PROFIL
 10
5.0012846984300579
 20
-96.283121702176004
 30
0.0
  0
VERTEX
  5
1DE3
  8
SAPA_PROFIL
 10
5.0012846984300294
 20
-57.999999702175991
 30
0.0
 42
0.4142140000000114
  0
VERTEX
  5
1DE4
  8
SAPA_PROFIL
 10
2.001284698430049
 20
-54.999999702175991
 30
0.0
  0
VERTEX
  5
1DE5
  8
SAPA_PROFIL
 10
1.501284698430049
 20
-54.999999702175899
 30
0.0
 42
0.4241420000000259
  0
VERTEX
  5
1DE6
  8
SAPA_PROFIL
 10
0.501855698430079
 20
-56.033772702176002
 30
0.0
 42
0.2988660000000032
  0
VERTEX
  5
1DE7
  8
SAPA_PROFIL
 10
1.0727136984300729
 20
-56.971052702175939
 30
0.0
 42
0.55075999999996
  0
VERTEX
  5
1DE8
  8
SAPA_PROFIL
 10
1.5012846984300501
 20
-56.699999702175987
 30
0.0
  0
VERTEX
  5
1DE9
  8
SAPA_PROFIL
 10
1.5012846984300501
 20
-56.399999702175982
 30
0.0
 42
-0.4142139999998339
  0
VERTEX
  5
1DEA
  8
SAPA_PROFIL
 10
1.7012846984300241
 20
-56.199999702175987
 30
0.0
  0
VERTEX
  5
1DEB
  8
SAPA_PROFIL
 10
2.001284698430057
 20
-56.199999702175987
 30
0.0
 42
-0.4142139999999946
  0
VERTEX
  5
1DEC
  8
SAPA_PROFIL
 10
3.8012846984300621
 20
-57.999999702175991
 30
0.0
  0
VERTEX
  5
1DED
  8
SAPA_PROFIL
 10
3.8012846984300621
 20
-58.699999702175987
 30
0.0
 42
-0.4142139999999852
  0
VERTEX
  5
1DEE
  8
SAPA_PROFIL
 10
2.0012846984300512
 20
-60.499999702175991
 30
0.0
  0
VERTEX
  5
1DEF
  8
SAPA_PROFIL
 10
1.7012846984300249
 20
-60.499999702175991
 30
0.0
 42
-0.4142139999998025
  0
VERTEX
  5
1DF0
  8
SAPA_PROFIL
 10
1.501284698430051
 20
-60.299999702176002
 30
0.0
  0
VERTEX
  5
1DF1
  8
SAPA_PROFIL
 10
1.5012846984300361
 20
-59.999999702175991
 30
0.0
 42
0.5507599999999105
  0
VERTEX
  5
1DF2
  8
SAPA_PROFIL
 10
1.0727136984300241
 20
-59.72894770217593
 30
0.0
 42
0.2988660000000063
  0
VERTEX
  5
1DF3
  8
SAPA_PROFIL
 10
0.5018556984299947
 20
-60.666227702175981
 30
0.0
 42
0.4241419999999882
  0
VERTEX
  5
1DF4
  8
SAPA_PROFIL
 10
1.501284698430051
 20
-61.699999702175987
 30
0.0
  0
VERTEX
  5
1DF5
  8
SAPA_PROFIL
 10
2.801284698430055
 20
-61.699999702175987
 30
0.0
 42
-0.4142140000000128
  0
VERTEX
  5
1DF6
  8
SAPA_PROFIL
 10
3.801284698430063
 20
-62.699999702175987
 30
0.0
  0
VERTEX
  5
1DF7
  8
SAPA_PROFIL
 10
3.027694698430039
 20
-76.527928702176041
 30
0.0
 42
-0.3979379999999925
  0
VERTEX
  5
1DF8
  8
SAPA_PROFIL
 10
2.5284756984300558
 20
-76.999999702176012
 30
0.0
  0
VERTEX
  5
1DF9
  8
SAPA_PROFIL
 10
-1.998715301569945
 20
-76.999999702176012
 30
0.0
 42
-0.4142140000000251
  0
VERTEX
  5
1DFA
  8
SAPA_PROFIL
 10
-2.4987153015699448
 20
-76.499999702176012
 30
0.0
  0
VERTEX
  5
1DFB
  8
SAPA_PROFIL
 10
-2.4987153015699461
 20
-72.999999702176012
 30
0.0
 42
0.4142140000000128
  0
VERTEX
  5
1DFC
  8
SAPA_PROFIL
 10
-2.9987153015699461
 20
-72.499999702176012
 30
0.0
  0
VERTEX
  5
1DFD
  8
SAPA_PROFIL
 10
-6.6987153015699628
 20
-72.499999702175998
 30
0.0
 42
0.4142139999999104
  0
VERTEX
  5
1DFE
  8
SAPA_PROFIL
 10
-6.998715301569967
 20
-72.799999702176024
 30
0.0
  0
VERTEX
  5
1DFF
  8
SAPA_PROFIL
 10
-6.998715301569967
 20
-73.699999702176001
 30
0.0
 42
0.4142139999999101
  0
VERTEX
  5
1E00
  8
SAPA_PROFIL
 10
-6.6987153015699628
 20
-73.999999702176012
 30
0.0
  0
VERTEX
  5
1E01
  8
SAPA_PROFIL
 10
-4.6987153015699352
 20
-73.999999702176012
 30
0.0
 42
-0.4142139999999691
  0
VERTEX
  5
1E02
  8
SAPA_PROFIL
 10
-4.4987153015699457
 20
-74.199999702176001
 30
0.0
  0
VERTEX
  5
1E03
  8
SAPA_PROFIL
 10
-4.4987153015699439
 20
-76.999999702176012
 30
0.0
 42
-0.577350269189605
  0
VERTEX
  5
1E04
  8
SAPA_PROFIL
 10
-4.7987153015699491
 20
-77.173204782932885
 30
0.0
  0
VERTEX
  5
1E05
  8
SAPA_PROFIL
 10
-5.0987153015699533
 20
-76.999999702176012
 30
0.0
  0
VERTEX
  5
1E06
  8
SAPA_PROFIL
 10
-8.8937153015699764
 20
-76.999999702175955
 30
0.0
 42
0.414213999999992
  0
VERTEX
  5
1E07
  8
SAPA_PROFIL
 10
-9.3937153015699764
 20
-77.499999702176012
 30
0.0
  0
VERTEX
  5
1E08
  8
SAPA_PROFIL
 10
-9.3937153015699764
 20
-78.199999702176001
 30
0.0
 42
-0.4142139999998548
  0
VERTEX
  5
1E09
  8
SAPA_PROFIL
 10
-9.6937153015699238
 20
-78.499999702176012
 30
0.0
  0
VERTEX
  5
1E0A
  8
SAPA_PROFIL
 10
-14.874099301569929
 20
-78.499999702176012
 30
0.0
  0
VERTEX
  5
1E0B
  8
SAPA_PROFIL
 10
-15.39371530156998
 20
-78.799999702176024
 30
0.0
  0
VERTEX
  5
1E0C
  8
SAPA_PROFIL
 10
-15.91333030156995
 20
-78.499999702176012
 30
0.0
  0
VERTEX
  5
1E0D
  8
SAPA_PROFIL
 10
-21.093715301569961
 20
-78.499999702176012
 30
0.0
 42
-0.4142140000000351
  0
VERTEX
  5
1E0E
  8
SAPA_PROFIL
 10
-21.393715301569969
 20
-78.199999702176001
 30
0.0
  0
VERTEX
  5
1E0F
  8
SAPA_PROFIL
 10
-21.39371530156992
 20
-77.499999702176012
 30
0.0
 42
0.4142140000000461
  0
VERTEX
  5
1E10
  8
SAPA_PROFIL
 10
-21.89371530156998
 20
-76.999999702176012
 30
0.0
  0
VERTEX
  5
1E11
  8
SAPA_PROFIL
 10
-23.898715301569968
 20
-76.999999702176012
 30
0.0
  0
VERTEX
  5
1E12
  8
SAPA_PROFIL
 10
-24.198715301569958
 20
-77.173204782932885
 30
0.0
 42
-0.5773502691896303
  0
VERTEX
  5
1E13
  8
SAPA_PROFIL
 10
-24.498715301569941
 20
-76.999999702176012
 30
0.0
  0
VERTEX
  5
1E14
  8
SAPA_PROFIL
 10
-24.498715301569941
 20
-74.199999702176001
 30
0.0
 42
-0.414213999999813
  0
VERTEX
  5
1E15
  8
SAPA_PROFIL
 10
-24.298715301569981
 20
-73.999999702176012
 30
0.0
  0
VERTEX
  5
1E16
  8
SAPA_PROFIL
 10
-22.298715301569981
 20
-73.999999702176041
 30
0.0
 42
0.4142139999998962
  0
VERTEX
  5
1E17
  8
SAPA_PROFIL
 10
-21.998715301569941
 20
-73.699999702176001
 30
0.0
  0
VERTEX
  5
1E18
  8
SAPA_PROFIL
 10
-21.99871530156998
 20
-72.799999702176024
 30
0.0
 42
0.4142139999999103
  0
VERTEX
  5
1E19
  8
SAPA_PROFIL
 10
-22.298715301569981
 20
-72.499999702176012
 30
0.0
  0
VERTEX
  5
1E1A
  8
SAPA_PROFIL
 10
-25.998715301569941
 20
-72.499999702176027
 30
0.0
 42
0.414214000000021
  0
VERTEX
  5
1E1B
  8
SAPA_PROFIL
 10
-26.498715301569941
 20
-72.999999702176012
 30
0.0
  0
VERTEX
  5
1E1C
  8
SAPA_PROFIL
 10
-26.498715301569941
 20
-74.699999702176001
 30
0.0
 42
-0.4142135623730951
  0
VERTEX
  5
1E1D
  8
SAPA_PROFIL
 10
-26.798715301569949
 20
-74.999999702176012
 30
0.0
  0
VERTEX
  5
1E1E
  8
SAPA_PROFIL
 10
-27.821996644172678
 20
-75.510622689898
 30
0.0
 42
-0.4142135623730953
  0
VERTEX
  5
1E1F
  8
SAPA_PROFIL
 10
-28.19618159964849
 20
-75.310658645390603
 30
0.0
  0
VERTEX
  5
1E20
  8
SAPA_PROFIL
 10
-28.210700008895589
 20
-75.262812895392116
 30
0.0
  0
VERTEX
  5
1E21
  8
SAPA_PROFIL
 10
-29.713801089657601
 20
-75.262729287508478
 30
0.0
 42
0.4769755326981643
  0
VERTEX
  5
1E22
  8
SAPA_PROFIL
 10
-30.016053914164068
 20
-75.634386162454334
 30
0.0
  0
VERTEX
  5
1E23
  8
SAPA_PROFIL
 10
-29.63460731803637
 20
-77.447616633112574
 30
0.0
 42
0.2216946626430193
  0
SEQEND
  5
1E24
  8
SAPA_PROFIL
  0
POLYLINE
  5
1538
  8
SAPA_PROFIL
 66
     1
 10
0.0
 20
0.0
 30
0.0
 70
     1
  0
VERTEX
  5
1E25
  8
SAPA_PROFIL
 10
-6.1987153015699583
 20
-94.89999970217599
 30
0.0
  0
VERTEX
  5
1E26
  8
SAPA_PROFIL
 10
-6.1987153015699583
 20
-96.499999702176012
 30
0.0
 42
-0.414214000000042
  0
VERTEX
  5
1E27
  8
SAPA_PROFIL
 10
-6.4987153015699688
 20
-96.799999702176024
 30
0.0
  0
VERTEX
  5
1E28
  8
SAPA_PROFIL
 10
-24.498715301569931
 20
-96.799999702176024
 30
0.0
 42
-0.4142140000001599
  0
VERTEX
  5
1E29
  8
SAPA_PROFIL
 10
-24.79871530156997
 20
-96.499999702176012
 30
0.0
  0
VERTEX
  5
1E2A
  8
SAPA_PROFIL
 10
-24.798715301569981
 20
-94.89999970217599
 30
0.0
 42
-0.4142140000000628
  0
VERTEX
  5
1E2B
  8
SAPA_PROFIL
 10
-24.59871530156995
 20
-94.699999702176001
 30
0.0
  0
VERTEX
  5
1E2C
  8
SAPA_PROFIL
 10
-24.498715301569941
 20
-94.699999702176001
 30
0.0
 42
0.4142139999998963
  0
VERTEX
  5
1E2D
  8
SAPA_PROFIL
 10
-24.198715301569958
 20
-94.399999702175975
 30
0.0
  0
VERTEX
  5
1E2E
  8
SAPA_PROFIL
 10
-24.198715301570012
 20
-92.999999702176012
 30
0.0
 42
0.4142139999999518
  0
VERTEX
  5
1E2F
  8
SAPA_PROFIL
 10
-24.498715301569941
 20
-92.699999702176001
 30
0.0
  0
VERTEX
  5
1E30
  8
SAPA_PROFIL
 10
-24.59871530156995
 20
-92.699999702176001
 30
0.0
 42
-0.4142139999999794
  0
VERTEX
  5
1E31
  8
SAPA_PROFIL
 10
-24.798715301569981
 20
-92.499999702176012
 30
0.0
  0
VERTEX
  5
1E32
  8
SAPA_PROFIL
 10
-24.798715301569981
 20
-79.499999702176012
 30
0.0
 42
-0.4142139999999962
  0
VERTEX
  5
1E33
  8
SAPA_PROFIL
 10
-24.298715301569981
 20
-78.999999702176012
 30
0.0
  0
VERTEX
  5
1E34
  8
SAPA_PROFIL
 10
-23.593715301569961
 20
-78.999999702176012
 30
0.0
 42
-0.4142140000000128
  0
VERTEX
  5
1E35
  8
SAPA_PROFIL
 10
-23.093715301569969
 20
-79.499999702176012
 30
0.0
  0
VERTEX
  5
1E36
  8
SAPA_PROFIL
 10
-23.093715301569969
 20
-79.699999702176001
 30
0.0
 42
0.4142140000000127
  0
VERTEX
  5
1E37
  8
SAPA_PROFIL
 10
-22.593715301569969
 20
-80.199999702176001
 30
0.0
  0
VERTEX
  5
1E38
  8
SAPA_PROFIL
 10
-8.1937153015699309
 20
-80.199999702176058
 30
0.0
 42
0.4142139999999795
  0
VERTEX
  5
1E39
  8
SAPA_PROFIL
 10
-7.6937153015699229
 20
-79.699999702176001
 30
0.0
  0
VERTEX
  5
1E3A
  8
SAPA_PROFIL
 10
-7.6937153015699229
 20
-78.999999702176012
 30
0.0
 42
-0.4142140000000462
  0
VERTEX
  5
1E3B
  8
SAPA_PROFIL
 10
-7.1937153015699229
 20
-78.499999702176012
 30
0.0
  0
VERTEX
  5
1E3C
  8
SAPA_PROFIL
 10
2.5012846984300552
 20
-78.499999702176012
 30
0.0
 42
-0.4142140000000128
  0
VERTEX
  5
1E3D
  8
SAPA_PROFIL
 10
3.0012846984300552
 20
-78.999999702176012
 30
0.0
  0
VERTEX
  5
1E3E
  8
SAPA_PROFIL
 10
3.0012846984300579
 20
-96.283121702176004
 30
0.0
 42
-0.2679490000000162
  0
VERTEX
  5
1E3F
  8
SAPA_PROFIL
 10
2.5012846984300592
 20
-97.14914670217604
 30
0.0
  0
VERTEX
  5
1E40
  8
SAPA_PROFIL
 10
-4.2487153015699386
 20
-101.046261702176
 30
0.0
 42
-0.5773500000000551
  0
VERTEX
  5
1E41
  8
SAPA_PROFIL
 10
-4.6987153015699281
 20
-100.786453702176
 30
0.0
  0
VERTEX
  5
1E42
  8
SAPA_PROFIL
 10
-4.6987153015699512
 20
-94.199999702176015
 30
0.0
 42
0.4142140000000155
  0
VERTEX
  5
1E43
  8
SAPA_PROFIL
 10
-6.1987153015699583
 20
-92.699999702176001
 30
0.0
  0
VERTEX
  5
1E44
  8
SAPA_PROFIL
 10
-6.3987153015699887
 20
-92.699999702176001
 30
0.0
  0
VERTEX
  5
1E45
  8
SAPA_PROFIL
 10
-6.4987153015699688
 20
-92.699999702176058
 30
0.0
 42
0.4142140000000836
  0
VERTEX
  5
1E46
  8
SAPA_PROFIL
 10
-6.798715301569966
 20
-92.999999702176012
 30
0.0
  0
VERTEX
  5
1E47
  8
SAPA_PROFIL
 10
-6.798715301570101
 20
-94.399999702175975
 30
0.0
 42
0.4142140000000351
  0
VERTEX
  5
1E48
  8
SAPA_PROFIL
 10
-6.4987153015699688
 20
-94.699999702176001
 30
0.0
  0
VERTEX
  5
1E49
  8
SAPA_PROFIL
 10
-6.3987153015699887
 20
-94.699999702176001
 30
0.0
 42
-0.4142139999998962
  0
SEQEND
  5
1E4A
  8
SAPA_PROFIL
  0
POLYLINE
  5
1539
  8
SAPA_PROFIL
 66
     1
 10
0.0
 20
0.0
 30
0.0
 70
     1
  0
VERTEX
  5
1E4B
  8
SAPA_PROFIL
 10
-68.598715301570081
 20
-101.4763937021781
 30
0.0
 42
0.2134220000000103
  0
VERTEX
  5
1E4C
  8
SAPA_PROFIL
 10
-68.498715301570059
 20
-101.2527867021781
 30
0.0
  0
VERTEX
  5
1E4D
  8
SAPA_PROFIL
 10
-68.498715301570059
 20
-97.399999702178093
 30
0.0
 42
-0.414213999999924
  0
VERTEX
  5
1E4E
  8
SAPA_PROFIL
 10
-68.198715301570104
 20
-97.099999702178025
 30
0.0
  0
VERTEX
  5
1E4F
  8
SAPA_PROFIL
 10
-67.898715301570093
 20
-97.099999702178081
 30
0.0
  0
VERTEX
  5
1E50
  8
SAPA_PROFIL
 10
-66.29871530157007
 20
-98.023760702178095
 30
0.0
 42
0.5773500000001196
  0
VERTEX
  5
1E51
  8
SAPA_PROFIL
 10
-65.998715301570059
 20
-97.850555702178099
 30
0.0
  0
VERTEX
  5
1E52
  8
SAPA_PROFIL
 10
-65.998715301570059
 20
-96.464914702178078
 30
0.0
 42
0.2679489999999719
  0
VERTEX
  5
1E53
  8
SAPA_PROFIL
 10
-66.498715301570059
 20
-95.598889702178099
 30
0.0
  0
VERTEX
  5
1E54
  8
SAPA_PROFIL
 10
-68.248715301570059
 20
-94.588526702178115
 30
0.0
 42
-0.267949000000012
  0
VERTEX
  5
1E55
  8
SAPA_PROFIL
 10
-68.498715301570172
 20
-94.155513702178098
 30
0.0
  0
VERTEX
  5
1E56
  8
SAPA_PROFIL
 10
-68.498715301570059
 20
-84.144486702178085
 30
0.0
 42
-0.2679490000000104
  0
VERTEX
  5
1E57
  8
SAPA_PROFIL
 10
-68.24871530157003
 20
-83.711473702178154
 30
0.0
  0
VERTEX
  5
1E58
  8
SAPA_PROFIL
 10
-66.498715301570059
 20
-82.701110702178084
 30
0.0
 42
0.2679489999999809
  0
VERTEX
  5
1E59
  8
SAPA_PROFIL
 10
-65.998715301570059
 20
-81.835085702178077
 30
0.0
  0
VERTEX
  5
1E5A
  8
SAPA_PROFIL
 10
-65.998715301570059
 20
-80.449444702178084
 30
0.0
 42
0.5773500000001198
  0
VERTEX
  5
1E5B
  8
SAPA_PROFIL
 10
-66.29871530157007
 20
-80.276239702178074
 30
0.0
  0
VERTEX
  5
1E5C
  8
SAPA_PROFIL
 10
-67.898715301570093
 20
-81.199999702178104
 30
0.0
  0
VERTEX
  5
1E5D
  8
SAPA_PROFIL
 10
-68.198715301570104
 20
-81.199999702178104
 30
0.0
 42
-0.4142139999999795
  0
VERTEX
  5
1E5E
  8
SAPA_PROFIL
 10
-68.498715301569945
 20
-80.899999702178079
 30
0.0
  0
VERTEX
  5
1E5F
  8
SAPA_PROFIL
 10
-68.498715301570059
 20
-77.047213702178112
 30
0.0
 42
0.2134217652834391
  0
VERTEX
  5
1E60
  8
SAPA_PROFIL
 10
-68.598715301570181
 20
-76.823606904428004
 30
0.0
 42
-0.7625858545243247
  0
VERTEX
  5
1E61
  8
SAPA_PROFIL
 10
-68.414136099372712
 20
-76.493280823410984
 30
0.0
  0
VERTEX
  5
1E62
  8
SAPA_PROFIL
 10
-68.222753099378991
 20
-76.551354460400077
 30
0.0
  0
VERTEX
  5
1E63
  8
SAPA_PROFIL
 10
-66.336909407517936
 20
-77.635918907371817
 30
0.0
  0
VERTEX
  5
1E64
  8
SAPA_PROFIL
 10
-66.347470773744917
 20
-77.957676635590076
 30
0.0
 42
0.5773502691897466
  0
VERTEX
  5
1E65
  8
SAPA_PROFIL
 10
-66.053314473490076
 20
-78.140630375700241
 30
0.0
  0
VERTEX
  5
1E66
  8
SAPA_PROFIL
 10
-65.76863219025843
 20
-77.988496464591492
 30
0.0
 42
0.2216946626430194
  0
VERTEX
  5
1E67
  8
SAPA_PROFIL
 10
-65.362823285103644
 20
-77.447616633114691
 30
0.0
  0
VERTEX
  5
1E68
  8
SAPA_PROFIL
 10
-64.981376688975928
 20
-75.634386162456451
 30
0.0
 42
0.4769755326981641
  0
VERTEX
  5
1E69
  8
SAPA_PROFIL
 10
-65.283629513482396
 20
-75.262729287510567
 30
0.0
  0
VERTEX
  5
1E6A
  8
SAPA_PROFIL
 10
-66.786730594244403
 20
-75.262812895394219
 30
0.0
  0
VERTEX
  5
1E6B
  8
SAPA_PROFIL
 10
-66.801249003491506
 20
-75.310658645392706
 30
0.0
 42
-0.4142135623730951
  0
VERTEX
  5
1E6C
  8
SAPA_PROFIL
 10
-67.175433958967318
 20
-75.510622689900103
 30
0.0
  0
VERTEX
  5
1E6D
  8
SAPA_PROFIL
 10
-68.496551963668324
 20
-74.999999702178158
 30
0.0
  0
VERTEX
  5
1E6E
  8
SAPA_PROFIL
 10
-69.736611301570093
 20
-74.999999702178101
 30
0.0
 42
0.2914730000000021
  0
VERTEX
  5
1E6F
  8
SAPA_PROFIL
 10
-70.64291930157006
 20
-75.577381702178116
 30
0.0
  0
VERTEX
  5
1E70
  8
SAPA_PROFIL
 10
-71.80502330157006
 20
-78.069521702178122
 30
0.0
 42
0.3888789999999682
  0
VERTEX
  5
1E71
  8
SAPA_PROFIL
 10
-71.398715301570093
 20
-79.358165702178084
 30
0.0
  0
VERTEX
  5
1E72
  8
SAPA_PROFIL
 10
-71.248715301570059
 20
-79.444768702178123
 30
0.0
 42
-0.2679490000000116
  0
VERTEX
  5
1E73
  8
SAPA_PROFIL
 10
-70.998715301570016
 20
-79.877780702178086
 30
0.0
  0
VERTEX
  5
1E74
  8
SAPA_PROFIL
 10
-70.998715301570059
 20
-87.999999702178116
 30
0.0
 42
-0.4142139999999962
  0
VERTEX
  5
1E75
  8
SAPA_PROFIL
 10
-71.998715301570059
 20
-88.999999702178187
 30
0.0
  0
VERTEX
  5
1E76
  8
SAPA_PROFIL
 10
-73.348715301570081
 20
-88.999999702178116
 30
0.0
 42
-0.4142140000000128
  0
VERTEX
  5
1E77
  8
SAPA_PROFIL
 10
-73.848715301570081
 20
-88.499999702178116
 30
0.0
  0
VERTEX
  5
1E78
  8
SAPA_PROFIL
 10
-73.848715301570081
 20
-85.367767483364673
 30
0.0
 42
0.198912367379658
  0
VERTEX
  5
1E79
  8
SAPA_PROFIL
 10
-74.434501739196989
 20
-83.953553920991567
 30
0.0
  0
VERTEX
  5
1E7A
  8
SAPA_PROFIL
 10
-77.167795354241548
 20
-81.220260305947008
 30
0.0
 42
1.000556671980007
  0
VERTEX
  5
1E7B
  8
SAPA_PROFIL
 10
-78.229045301570096
 20
-82.280330702178105
 30
0.0
  0
VERTEX
  5
1E7C
  8
SAPA_PROFIL
 10
-75.59516230157007
 20
-84.914213702178117
 30
0.0
 42
-0.1989120000000246
  0
VERTEX
  5
1E7D
  8
SAPA_PROFIL
 10
-75.448715301570047
 20
-85.267766702178108
 30
0.0
  0
VERTEX
  5
1E7E
  8
SAPA_PROFIL
 10
-75.448715301570104
 20
-88.499999702178116
 30
0.0
 42
-0.4142140000000129
  0
VERTEX
  5
1E7F
  8
SAPA_PROFIL
 10
-75.948715301570104
 20
-88.999999702178116
 30
0.0
  0
VERTEX
  5
1E80
  8
SAPA_PROFIL
 10
-82.948715301570104
 20
-88.999999702178116
 30
0.0
 42
-0.4142140000000128
  0
VERTEX
  5
1E81
  8
SAPA_PROFIL
 10
-83.448715301570104
 20
-88.499999702178116
 30
0.0
  0
VERTEX
  5
1E82
  8
SAPA_PROFIL
 10
-83.448715301570047
 20
-81.299999702178127
 30
0.0
 42
0.4142140000000351
  0
VERTEX
  5
1E83
  8
SAPA_PROFIL
 10
-83.748715301570059
 20
-80.999999702178116
 30
0.0
  0
VERTEX
  5
1E84
  8
SAPA_PROFIL
 10
-83.910938301570042
 20
-80.999999702178116
 30
0.0
 42
0.3482370000000729
  0
VERTEX
  5
1E85
  8
SAPA_PROFIL
 10
-84.203012301570055
 20
-81.231494702178111
 30
0.0
  0
VERTEX
  5
1E86
  8
SAPA_PROFIL
 10
-85.048715301570013
 20
-84.83716970217813
 30
0.0
  0
VERTEX
  5
1E87
  8
SAPA_PROFIL
 10
-85.048715301570013
 20
-88.499999702178116
 30
0.0
 42
-0.4142139999999796
  0
VERTEX
  5
1E88
  8
SAPA_PROFIL
 10
-85.548715301570013
 20
-88.999999702178187
 30
0.0
  0
VERTEX
  5
1E89
  8
SAPA_PROFIL
 10
-87.998715301570044
 20
-88.999999702178116
 30
0.0
 42
-0.414214000000017
  0
VERTEX
  5
1E8A
  8
SAPA_PROFIL
 10
-88.498715301570059
 20
-88.499999702178116
 30
0.0
 42
0.4142140000000127
  0
VERTEX
  5
1E8B
  8
SAPA_PROFIL
 10
-88.998715301570044
 20
-87.999999702178116
 30
0.0
  0
VERTEX
  5
1E8C
  8
SAPA_PROFIL
 10
-89.998715301570059
 20
-87.999999702178116
 30
0.0
 42
0.414214000000017
  0
VERTEX
  5
1E8D
  8
SAPA_PROFIL
 10
-90.498715301570044
 20
-88.499999702178116
 30
0.0
  0
VERTEX
  5
1E8E
  8
SAPA_PROFIL
 10
-90.498715301570044
 20
-124.9999997021781
 30
0.0
  0
VERTEX
  5
1E8F
  8
SAPA_PROFIL
 10
-89.998715301570044
 20
-125.4999997021781
 30
0.0
  0
VERTEX
  5
1E90
  8
SAPA_PROFIL
 10
-86.298715301569999
 20
-125.4999997021781
 30
0.0
 42
0.4142139999999863
  0
VERTEX
  5
1E91
  8
SAPA_PROFIL
 10
-85.998715301570044
 20
-125.1999997021781
 30
0.0
  0
VERTEX
  5
1E92
  8
SAPA_PROFIL
 10
-85.998715301570044
 20
-124.4324557021781
 30
0.0
 42
0.2896899999999678
  0
VERTEX
  5
1E93
  8
SAPA_PROFIL
 10
-86.570144301570011
 20
-123.5289477021781
 30
0.0
 42
0.5507599999999711
  0
VERTEX
  5
1E94
  8
SAPA_PROFIL
 10
-86.998715301570044
 20
-123.7999997021781
 30
0.0
  0
VERTEX
  5
1E95
  8
SAPA_PROFIL
 10
-86.998715301570044
 20
-123.9999997021781
 30
0.0
 42
-0.4142139999998755
  0
VERTEX
  5
1E96
  8
SAPA_PROFIL
 10
-87.298715301569999
 20
-124.2999997021781
 30
0.0
  0
VERTEX
  5
1E97
  8
SAPA_PROFIL
 10
-88.798715301569999
 20
-124.2999997021781
 30
0.0
 42
-0.4142140000000503
  0
VERTEX
  5
1E98
  8
SAPA_PROFIL
 10
-89.298715301570056
 20
-123.7999997021781
 30
0.0
  0
VERTEX
  5
1E99
  8
SAPA_PROFIL
 10
-89.298715301569985
 20
-120.4999997021781
 30
0.0
 42
-0.4142140000000419
  0
VERTEX
  5
1E9A
  8
SAPA_PROFIL
 10
-88.798715301569999
 20
-119.9999997021782
 30
0.0
  0
VERTEX
  5
1E9B
  8
SAPA_PROFIL
 10
-87.298715301569999
 20
-119.9999997021781
 30
0.0
 42
-0.4142139999999794
  0
VERTEX
  5
1E9C
  8
SAPA_PROFIL
 10
-86.998715301570158
 20
-120.2999997021781
 30
0.0
  0
VERTEX
  5
1E9D
  8
SAPA_PROFIL
 10
-86.998715301570044
 20
-120.4999997021781
 30
0.0
 42
0.5507599999999436
  0
VERTEX
  5
1E9E
  8
SAPA_PROFIL
 10
-86.570144301570011
 20
-120.7710527021781
 30
0.0
 42
0.2896899999999595
  0
VERTEX
  5
1E9F
  8
SAPA_PROFIL
 10
-85.998715301570044
 20
-119.86754470217809
 30
0.0
  0
VERTEX
  5
1EA0
  8
SAPA_PROFIL
 10
-85.998715301570044
 20
-118.87007270217811
 30
0.0
 42
0.0436610000000022
  0
VERTEX
  5
1EA1
  8
SAPA_PROFIL
 10
-86.006311301570079
 20
-118.7832487021781
 30
0.0
  0
VERTEX
  5
1EA2
  8
SAPA_PROFIL
 10
-86.283158301570055
 20
-117.21317570217811
 30
0.0
 42
0.8391000000000101
  0
VERTEX
  5
1EA3
  8
SAPA_PROFIL
 10
-87.267965301570044
 20
-117.21317570217811
 30
0.0
  0
VERTEX
  5
1EA4
  8
SAPA_PROFIL
 10
-87.474911301569989
 20
-118.3868247021781
 30
0.0
 42
-0.3639700000000376
  0
VERTEX
  5
1EA5
  8
SAPA_PROFIL
 10
-87.967315301570096
 20
-118.7999997021782
 30
0.0
  0
VERTEX
  5
1EA6
  8
SAPA_PROFIL
 10
-88.798715301569999
 20
-118.7999997021781
 30
0.0
 42
-0.437328000000032
  0
VERTEX
  5
1EA7
  8
SAPA_PROFIL
 10
-89.297185301570096
 20
-118.26090570217811
 30
0.0
  0
VERTEX
  5
1EA8
  8
SAPA_PROFIL
 10
-88.710386301570068
 20
-103.7878467021781
 30
0.0
 42
-0.4023939999998692
  0
VERTEX
  5
1EA9
  8
SAPA_PROFIL
 10
-88.410632301570061
 20
-103.499999702178
 30
0.0
  0
VERTEX
  5
1EAA
  8
SAPA_PROFIL
 10
-87.610099301570031
 20
-103.4999997021781
 30
0.0
 42
0.259680999999983
  0
VERTEX
  5
1EAB
  8
SAPA_PROFIL
 10
-87.440068301570051
 20
-103.40530670217809
 30
0.0
  0
VERTEX
  5
1EAC
  8
SAPA_PROFIL
 10
-86.543669301570006
 20
-101.9579607021781
 30
0.0
 42
0.5877029999999889
  0
VERTEX
  5
1EAD
  8
SAPA_PROFIL
 10
-86.798715301569985
 20
-101.4999997021781
 30
0.0
  0
VERTEX
  5
1EAE
  8
SAPA_PROFIL
 10
-88.198715301570033
 20
-101.4999997021781
 30
0.0
 42
-0.4142140000000349
  0
VERTEX
  5
1EAF
  8
SAPA_PROFIL
 10
-88.498715301569945
 20
-101.1999997021781
 30
0.0
  0
VERTEX
  5
1EB0
  8
SAPA_PROFIL
 10
-88.498715301570044
 20
-98.799999702178127
 30
0.0
 42
-0.4142140000000349
  0
VERTEX
  5
1EB1
  8
SAPA_PROFIL
 10
-88.198715301570033
 20
-98.499999702178016
 30
0.0
  0
VERTEX
  5
1EB2
  8
SAPA_PROFIL
 10
-80.018331301570086
 20
-98.499999702178116
 30
0.0
  0
VERTEX
  5
1EB3
  8
SAPA_PROFIL
 10
-79.498715301570044
 20
-98.199999702178104
 30
0.0
  0
VERTEX
  5
1EB4
  8
SAPA_PROFIL
 10
-78.979100301570057
 20
-98.499999702178116
 30
0.0
  0
VERTEX
  5
1EB5
  8
SAPA_PROFIL
 10
-70.798715301570041
 20
-98.499999702178116
 30
0.0
 42
-0.4142135623730882
  0
VERTEX
  5
1EB6
  8
SAPA_PROFIL
 10
-70.498715301570044
 20
-98.799999702178084
 30
0.0
  0
VERTEX
  5
1EB7
  8
SAPA_PROFIL
 10
-70.498715301570044
 20
-101.1999997021781
 30
0.0
 42
-0.4142135623730882
  0
VERTEX
  5
1EB8
  8
SAPA_PROFIL
 10
-70.798715301570041
 20
-101.4999997021781
 30
0.0
  0
VERTEX
  5
1EB9
  8
SAPA_PROFIL
 10
-72.198715301570104
 20
-101.4999997021781
 30
0.0
 42
0.5877029999999041
  0
VERTEX
  5
1EBA
  8
SAPA_PROFIL
 10
-72.45376230157008
 20
-101.9579607021781
 30
0.0
  0
VERTEX
  5
1EBB
  8
SAPA_PROFIL
 10
-71.661230301570072
 20
-103.20530670217811
 30
0.0
 42
0.2596809999999552
  0
VERTEX
  5
1EBC
  8
SAPA_PROFIL
 10
-71.491200301570075
 20
-103.2999997021781
 30
0.0
  0
VERTEX
  5
1EBD
  8
SAPA_PROFIL
 10
-68.496549376401489
 20
-103.2999997021781
 30
0.0
  0
VERTEX
  5
1EBE
  8
SAPA_PROFIL
 10
-67.175433958967304
 20
-102.78937771445609
 30
0.0
 42
-0.4142135623730953
  0
VERTEX
  5
1EBF
  8
SAPA_PROFIL
 10
-66.801249003491492
 20
-102.9893417589635
 30
0.0
  0
VERTEX
  5
1EC0
  8
SAPA_PROFIL
 10
-66.786730594244389
 20
-103.03718750896201
 30
0.0
  0
VERTEX
  5
1EC1
  8
SAPA_PROFIL
 10
-65.283629513482381
 20
-103.0372711168456
 30
0.0
 42
0.4769755326981643
  0
VERTEX
  5
1EC2
  8
SAPA_PROFIL
 10
-64.981376688975914
 20
-102.6656142418998
 30
0.0
  0
VERTEX
  5
1EC3
  8
SAPA_PROFIL
 10
-65.362823285103644
 20
-100.85238377124151
 30
0.0
 42
0.2216946626430194
  0
VERTEX
  5
1EC4
  8
SAPA_PROFIL
 10
-65.768632190258444
 20
-100.31150393976471
 30
0.0
  0
VERTEX
  5
1EC5
  8
SAPA_PROFIL
 10
-66.053314473490076
 20
-100.159370028656
 30
0.0
 42
0.5773502691897466
  0
VERTEX
  5
1EC6
  8
SAPA_PROFIL
 10
-66.347470773744902
 20
-100.34232376876609
 30
0.0
  0
VERTEX
  5
1EC7
  8
SAPA_PROFIL
 10
-66.336909407517936
 20
-100.66408149698439
 30
0.0
  0
VERTEX
  5
1EC8
  8
SAPA_PROFIL
 10
-68.222753099378977
 20
-101.74864594395611
 30
0.0
  0
VERTEX
  5
1EC9
  8
SAPA_PROFIL
 10
-68.414136099372683
 20
-101.8067195809452
 30
0.0
 42
-0.7625858545243257
  0
VERTEX
  5
1ECA
  8
SAPA_PROFIL
 10
-68.598715301570181
 20
-101.47639349992819
 30
0.0
  0
SEQEND
  5
1ECB
  8
SAPA_PROFIL
  0
POLYLINE
  5
153A
  8
SAPA_PROFIL
 66
     1
 10
0.0
 20
0.0
 30
0.0
 70
     1
  0
VERTEX
  5
1ECC
  8
SAPA_PROFIL
 10
-70.198715301570104
 20
-90.999999702178116
 30
0.0
  0
VERTEX
  5
1ECD
  8
SAPA_PROFIL
 10
-70.198715301570104
 20
-96.499999702178116
 30
0.0
 42
-0.4142139999999252
  0
VERTEX
  5
1ECE
  8
SAPA_PROFIL
 10
-70.498715301570044
 20
-96.799999702178141
 30
0.0
  0
VERTEX
  5
1ECF
  8
SAPA_PROFIL
 10
-88.498715301570044
 20
-96.799999702178141
 30
0.0
 42
-0.4142139999998691
  0
VERTEX
  5
1ED0
  8
SAPA_PROFIL
 10
-88.798715301569999
 20
-96.499999702178116
 30
0.0
  0
VERTEX
  5
1ED1
  8
SAPA_PROFIL
 10
-88.798715301570013
 20
-90.999999702178116
 30
0.0
 42
-0.4142135623730951
  0
VERTEX
  5
1ED2
  8
SAPA_PROFIL
 10
-88.498715301570059
 20
-90.699999702178104
 30
0.0
  0
VERTEX
  5
1ED3
  8
SAPA_PROFIL
 10
-70.498715301570044
 20
-90.699999702178104
 30
0.0
 42
-0.4142139999999803
  0
SEQEND
  5
1ED4
  8
SAPA_PROFIL
  0
POLYLINE
  5
153B
  8
SAPA_PROFIL
 62
     4
 66
     1
 10
0.0
 20
0.0
 30
0.0
  0
VERTEX
  5
1ED5
  8
SAPA_PROFIL
 62
     4
 10
-38.449386179215608
 20
-100.59442853806419
 30
0.0
 42
0.5571646428658034
  0
VERTEX
  5
1ED6
  8
SAPA_PROFIL
 62
     4
 10
-38.986346683352437
 20
-99.726709623908661
 30
0.0
  0
VERTEX
  5
1ED7
  8
SAPA_PROFIL
 62
     4
 10
-56.011083919873627
 20
-99.726709623909144
 30
0.0
 42
0.5571645048035741
  0
VERTEX
  5
1ED8
  8
SAPA_PROFIL
 62
     4
 10
-56.548044536834688
 20
-100.5944283117753
 30
0.0
  0
VERTEX
  5
1ED9
  8
SAPA_PROFIL
 62
     4
 10
-55.717337449287989
 20
-102.2605689678433
 30
0.0
 42
0.284385813979063
  0
VERTEX
  5
1EDA
  8
SAPA_PROFIL
 62
     4
 10
-55.448857140807647
 20
-102.4267096239107
 30
0.0
  0
VERTEX
  5
1EDB
  8
SAPA_PROFIL
 62
     4
 10
-39.548573462418332
 20
-102.4267096239107
 30
0.0
 42
0.2843858139786238
  0
VERTEX
  5
1EDC
  8
SAPA_PROFIL
 62
     4
 10
-39.280093153938047
 20
-102.2605689678438
 30
0.0
  0
VERTEX
  5
1EDD
  8
SAPA_PROFIL
 62
     4
 10
-38.449386066390893
 20
-100.59442831177439
 30
0.0
  0
SEQEND
  5
1EDE
  8
SAPA_PROFIL
 62
     4
  0
POLYLINE
  5
153C
  8
SAPA_PROFIL
 62
     4
 66
     1
 10
0.0
 20
0.0
 30
0.0
 70
     1
  0
VERTEX
  5
1EDF
  8
SAPA_PROFIL
 62
     4
 10
-61.916326486280283
 20
-102.7835411384083
 30
0.0
  0
VERTEX
  5
1EE0
  8
SAPA_PROFIL
 62
     4
 10
-62.180349764656292
 20
-103.1901013344125
 30
0.0
 42
-0.2539676464751066
  0
VERTEX
  5
1EE1
  8
SAPA_PROFIL
 62
     4
 10
-62.431950935041002
 20
-103.3267096239086
 30
0.0
  0
VERTEX
  5
1EE2
  8
SAPA_PROFIL
 62
     4
 10
-63.813450520246342
 20
-103.3267096239086
 30
0.0
 42
-0.3152987888790479
  0
VERTEX
  5
1EE3
  8
SAPA_PROFIL
 62
     4
 10
-64.283296830638662
 20
-102.9977196955704
 30
0.0
  0
VERTEX
  5
1EE4
  8
SAPA_PROFIL
 62
     4
 10
-65.178965771547269
 20
-100.53688950511911
 30
0.0
 42
0.2694959974287434
  0
VERTEX
  5
1EE5
  8
SAPA_PROFIL
 62
     4
 10
-65.410484817948628
 20
-100.34375753077521
 30
0.0
 42
0.0612686379508233
  0
VERTEX
  5
1EE6
  8
SAPA_PROFIL
 62
     4
 10
-65.703160250801901
 20
-100.33017416014469
 30
0.0
  0
VERTEX
  5
1EE7
  8
SAPA_PROFIL
 62
     4
 10
-66.052578428110166
 20
-100.1284374814159
 30
0.0
 42
0.5773502691891679
  0
VERTEX
  5
1EE8
  8
SAPA_PROFIL
 62
     4
 10
-66.367578428109752
 20
-100.3103028162104
 30
0.0
  0
VERTEX
  5
1EE9
  8
SAPA_PROFIL
 62
     4
 10
-66.367578428109994
 20
-100.57741734433679
 30
0.0
  0
VERTEX
  5
1EEA
  8
SAPA_PROFIL
 62
     4
 10
-67.766106128744241
 20
-101.3861008056451
 30
0.0
 42
-0.1318219888653519
  0
VERTEX
  5
1EEB
  8
SAPA_PROFIL
 62
     4
 10
-67.916279231216592
 20
-101.4263932021825
 30
0.0
  0
VERTEX
  5
1EEC
  8
SAPA_PROFIL
 62
     4
 10
-68.098715301653371
 20
-101.4263932021761
 30
0.0
 42
-0.4142135623724291
  0
VERTEX
  5
1EED
  8
SAPA_PROFIL
 62
     4
 10
-68.498715301653917
 20
-101.02639320217649
 30
0.0
  0
VERTEX
  5
1EEE
  8
SAPA_PROFIL
 62
     4
 10
-68.498715301652553
 20
-97.626393202175521
 30
0.0
 42
-0.4142135623744271
  0
VERTEX
  5
1EEF
  8
SAPA_PROFIL
 62
     4
 10
-68.098715301653371
 20
-97.226393202174506
 30
0.0
  0
VERTEX
  5
1EF0
  8
SAPA_PROFIL
 62
     4
 10
-67.919100059382075
 20
-97.226393202173867
 30
0.0
 42
-0.1316524975874005
  0
VERTEX
  5
1EF1
  8
SAPA_PROFIL
 62
     4
 10
-67.769100059385252
 20
-97.266585581039465
 30
0.0
  0
VERTEX
  5
1EF2
  8
SAPA_PROFIL
 62
     4
 10
-66.164962162382992
 20
-98.192735027691995
 30
0.0
 42
0.1316524975875904
  0
VERTEX
  5
1EF3
  8
SAPA_PROFIL
 62
     4
 10
-65.664962162381286
 20
-98.326709623906766
 30
0.0
  0
VERTEX
  5
1EF4
  8
SAPA_PROFIL
 62
     4
 10
-65.248715301653917
 20
-98.326709623906766
 30
0.0
 42
0.4142135623730951
  0
VERTEX
  5
1EF5
  8
SAPA_PROFIL
 62
     4
 10
-64.248715301653917
 20
-97.326709623906766
 30
0.0
  0
VERTEX
  5
1EF6
  8
SAPA_PROFIL
 62
     4
 10
-64.248715301653917
 20
-94.326709623909494
 30
0.0
 42
-0.9999996830128083
  0
VERTEX
  5
1EF7
  8
SAPA_PROFIL
 62
     4
 10
-63.248715301653917
 20
-94.326709623907675
 30
0.0
  0
VERTEX
  5
1EF8
  8
SAPA_PROFIL
 62
     4
 10
-63.248715301653917
 20
-97.326709623907675
 30
0.0
 42
0.4142135623730951
  0
VERTEX
  5
1EF9
  8
SAPA_PROFIL
 62
     4
 10
-62.24871530165391
 20
-98.326709623907675
 30
0.0
  0
VERTEX
  5
1EFA
  8
SAPA_PROFIL
 62
     4
 10
-32.748715301569327
 20
-98.326709623907661
 30
0.0
 42
0.4142135623730951
  0
VERTEX
  5
1EFB
  8
SAPA_PROFIL
 62
     4
 10
-31.74871530156933
 20
-97.326709623907661
 30
0.0
  0
VERTEX
  5
1EFC
  8
SAPA_PROFIL
 62
     4
 10
-31.74871530156933
 20
-94.326709623909494
 30
0.0
 42
-0.9999999999999998
  0
VERTEX
  5
1EFD
  8
SAPA_PROFIL
 62
     4
 10
-30.74871530156933
 20
-94.326709623909494
 30
0.0
  0
VERTEX
  5
1EFE
  8
SAPA_PROFIL
 62
     4
 10
-30.74871530156933
 20
-97.326709623907661
 30
0.0
 42
0.4142135623736278
  0
VERTEX
  5
1EFF
  8
SAPA_PROFIL
 62
     4
 10
-29.748715301569341
 20
-98.326709623907661
 30
0.0
  0
VERTEX
  5
1F00
  8
SAPA_PROFIL
 62
     4
 10
-29.33246844084287
 20
-98.326709623907661
 30
0.0
 42
0.1316524975874375
  0
VERTEX
  5
1F01
  8
SAPA_PROFIL
 62
     4
 10
-28.832468440842678
 20
-98.192735027691626
 30
0.0
  0
VERTEX
  5
1F02
  8
SAPA_PROFIL
 62
     4
 10
-27.22833054384073
 20
-97.26658558103945
 30
0.0
 42
-0.1316524975874
  0
VERTEX
  5
1F03
  8
SAPA_PROFIL
 62
     4
 10
-27.078330543841179
 20
-97.226393202173867
 30
0.0
  0
VERTEX
  5
1F04
  8
SAPA_PROFIL
 62
     4
 10
-26.898715301569879
 20
-97.226393202174492
 30
0.0
 42
-0.4142135623744271
  0
VERTEX
  5
1F05
  8
SAPA_PROFIL
 62
     4
 10
-26.498715301570702
 20
-97.626393202175507
 30
0.0
  0
VERTEX
  5
1F06
  8
SAPA_PROFIL
 62
     4
 10
-26.49871530156933
 20
-101.02639320217649
 30
0.0
 42
-0.4142135623724291
  0
VERTEX
  5
1F07
  8
SAPA_PROFIL
 62
     4
 10
-26.898715301569879
 20
-101.4263932021761
 30
0.0
  0
VERTEX
  5
1F08
  8
SAPA_PROFIL
 62
     4
 10
-27.081151372006659
 20
-101.4263932021825
 30
0.0
 42
-0.1318219888653524
  0
VERTEX
  5
1F09
  8
SAPA_PROFIL
 62
     4
 10
-27.23132447447901
 20
-101.3861008056451
 30
0.0
  0
VERTEX
  5
1F0A
  8
SAPA_PROFIL
 62
     4
 10
-28.629852174958661
 20
-100.5774173444207
 30
0.0
  0
VERTEX
  5
1F0B
  8
SAPA_PROFIL
 62
     4
 10
-28.629852174958661
 20
-100.3103028162077
 30
0.0
 42
0.577350269189159
  0
VERTEX
  5
1F0C
  8
SAPA_PROFIL
 62
     4
 10
-28.94485217495826
 20
-100.1284374814132
 30
0.0
  0
VERTEX
  5
1F0D
  8
SAPA_PROFIL
 62
     4
 10
-29.29427035217692
 20
-100.33017416009029
 30
0.0
 42
0.0612687673629489
  0
VERTEX
  5
1F0E
  8
SAPA_PROFIL
 62
     4
 10
-29.58694578527713
 20
-100.3437575307765
 30
0.0
 42
0.2694959974285039
  0
VERTEX
  5
1F0F
  8
SAPA_PROFIL
 62
     4
 10
-29.818464831677652
 20
-100.5368895051204
 30
0.0
  0
VERTEX
  5
1F10
  8
SAPA_PROFIL
 62
     4
 10
-30.714133772587321
 20
-102.99771969557359
 30
0.0
 42
-0.3152987888784035
  0
VERTEX
  5
1F11
  8
SAPA_PROFIL
 62
     4
 10
-31.18398008298054
 20
-103.32670962391011
 30
0.0
  0
VERTEX
  5
1F12
  8
SAPA_PROFIL
 62
     4
 10
-32.565479668184977
 20
-103.3267096239085
 30
0.0
 42
-0.2539676464741841
  0
VERTEX
  5
1F13
  8
SAPA_PROFIL
 62
     4
 10
-32.817080838569048
 20
-103.1901013344133
 30
0.0
  0
VERTEX
  5
1F14
  8
SAPA_PROFIL
 62
     4
 10
-33.081104116945703
 20
-102.7835411384083
 30
0.0
 42
-0.5862177598324623
  0
VERTEX
  5
1F15
  8
SAPA_PROFIL
 62
     4
 10
-32.825362301707351
 20
-102.3267096239118
 30
0.0
  0
VERTEX
  5
1F16
  8
SAPA_PROFIL
 62
     4
 10
-31.88418762119754
 20
-102.3267096239194
 30
0.0
 42
0.3152987888813165
  0
VERTEX
  5
1F17
  8
SAPA_PROFIL
 62
     4
 10
-31.414341310799792
 20
-101.9977196955827
 30
0.0
  0
VERTEX
  5
1F18
  8
SAPA_PROFIL
 62
     4
 10
-30.977577029675832
 20
-100.7977196955715
 30
0.0
 42
0.5205670505515651
  0
VERTEX
  5
1F19
  8
SAPA_PROFIL
 62
     4
 10
-31.447423340069051
 20
-100.1267096239087
 30
0.0
  0
VERTEX
  5
1F1A
  8
SAPA_PROFIL
 62
     4
 10
-36.463864280737901
 20
-100.1267096239087
 30
0.0
 42
0.3702522326300203
  0
VERTEX
  5
1F1B
  8
SAPA_PROFIL
 62
     4
 10
-36.760387642531228
 20
-100.38116957657439
 30
0.0
 42
0.0982365330332397
  0
VERTEX
  5
1F1C
  8
SAPA_PROFIL
 62
     4
 10
-36.850840400742172
 20
-102.06885635156939
 30
0.0
 42
0.3735060174783164
  0
VERTEX
  5
1F1D
  8
SAPA_PROFIL
 62
     4
 10
-36.55381573283119
 20
-102.32670962390949
 30
0.0
  0
VERTEX
  5
1F1E
  8
SAPA_PROFIL
 62
     4
 10
-36.125362301708527
 20
-102.3267096239104
 30
0.0
 42
-0.5920056181162531
  0
VERTEX
  5
1F1F
  8
SAPA_PROFIL
 62
     4
 10
-35.872353545391142
 20
-102.7879131264383
 30
0.0
  0
VERTEX
  5
1F20
  8
SAPA_PROFIL
 62
     4
 10
-36.133537621546843
 20
-103.1901013344166
 30
0.0
 42
-0.2539676464746725
  0
VERTEX
  5
1F21
  8
SAPA_PROFIL
 62
     4
 10
-36.385138791930601
 20
-103.3267096239119
 30
0.0
  0
VERTEX
  5
1F22
  8
SAPA_PROFIL
 62
     4
 10
-58.612291811296288
 20
-103.3267096239104
 30
0.0
 42
-0.2539676464741819
  0
VERTEX
  5
1F23
  8
SAPA_PROFIL
 62
     4
 10
-58.863892981679143
 20
-103.1901013344166
 30
0.0
  0
VERTEX
  5
1F24
  8
SAPA_PROFIL
 62
     4
 10
-59.125077057832947
 20
-102.7879131264383
 30
0.0
 42
-0.5920055144124249
  0
VERTEX
  5
1F25
  8
SAPA_PROFIL
 62
     4
 10
-58.872068301517437
 20
-102.3267096239104
 30
0.0
  0
VERTEX
  5
1F26
  8
SAPA_PROFIL
 62
     4
 10
-58.443614824227232
 20
-102.3267096491854
 30
0.0
 42
0.3735060174775405
  0
VERTEX
  5
1F27
  8
SAPA_PROFIL
 62
     4
 10
-58.146590156317536
 20
-102.0688563768453
 30
0.0
 42
0.0355900683670349
  0
VERTEX
  5
1F28
  8
SAPA_PROFIL
 62
     4
 10
-58.102696592285277
 20
-101.4529827900455
 30
0.0
 42
0.0624282003873116
  0
VERTEX
  5
1F29
  8
SAPA_PROFIL
 62
     4
 10
-58.237042914528217
 20
-100.3811696018504
 30
0.0
 42
0.3702522326309292
  0
VERTEX
  5
1F2A
  8
SAPA_PROFIL
 62
     4
 10
-58.533566276321601
 20
-100.1267096491847
 30
0.0
  0
VERTEX
  5
1F2B
  8
SAPA_PROFIL
 62
     4
 10
-63.550007263155109
 20
-100.1267096239085
 30
0.0
 42
0.5205670505515692
  0
VERTEX
  5
1F2C
  8
SAPA_PROFIL
 62
     4
 10
-64.019853573548332
 20
-100.7977196955715
 30
0.0
  0
VERTEX
  5
1F2D
  8
SAPA_PROFIL
 62
     4
 10
-63.583089292423381
 20
-101.9977196955809
 30
0.0
 42
0.3152987888807539
  0
VERTEX
  5
1F2E
  8
SAPA_PROFIL
 62
     4
 10
-63.113242982027529
 20
-102.3267096239186
 30
0.0
  0
VERTEX
  5
1F2F
  8
SAPA_PROFIL
 62
     4
 10
-62.172068301518451
 20
-102.3267096239117
 30
0.0
 42
-0.5862175119221242
  0
VERTEX
  5
1F30
  8
SAPA_PROFIL
 62
     4
 10
-61.916326370536488
 20
-102.7835409496669
 30
0.0
 42
0.0000002084758573
  0
SEQEND
  5
1F31
  8
SAPA_PROFIL
 62
     4
  0
POLYLINE
  5
153D
  8
SAPA_PROFIL
 62
     4
 66
     1
 10
0.0
 20
0.0
 30
0.0
  0
VERTEX
  5
1F32
  8
SAPA_PROFIL
 62
     4
 10
-56.548044424009682
 20
-77.705571461866953
 30
0.0
 42
0.5571646428658034
  0
VERTEX
  5
1F33
  8
SAPA_PROFIL
 62
     4
 10
-56.011083919872853
 20
-78.573290376022513
 30
0.0
  0
VERTEX
  5
1F34
  8
SAPA_PROFIL
 62
     4
 10
-38.986346683351663
 20
-78.573290376022044
 30
0.0
 42
0.5571645048035741
  0
VERTEX
  5
1F35
  8
SAPA_PROFIL
 62
     4
 10
-38.449386066390602
 20
-77.705571688155885
 30
0.0
  0
VERTEX
  5
1F36
  8
SAPA_PROFIL
 62
     4
 10
-39.280093153937301
 20
-76.039431032087833
 30
0.0
 42
0.284385813979063
  0
VERTEX
  5
1F37
  8
SAPA_PROFIL
 62
     4
 10
-39.54857346241765
 20
-75.873290376020407
 30
0.0
  0
VERTEX
  5
1F38
  8
SAPA_PROFIL
 62
     4
 10
-55.44885714080695
 20
-75.873290376020421
 30
0.0
 42
0.2843858139786238
  0
VERTEX
  5
1F39
  8
SAPA_PROFIL
 62
     4
 10
-55.717337449287243
 20
-76.03943103208735
 30
0.0
  0
VERTEX
  5
1F3A
  8
SAPA_PROFIL
 62
     4
 10
-56.548044536834396
 20
-77.705571688156695
 30
0.0
  0
SEQEND
  5
1F3B
  8
SAPA_PROFIL
 62
     4
  0
POLYLINE
  5
153E
  8
SAPA_PROFIL
 62
     4
 66
     1
 10
0.0
 20
0.0
 30
0.0
 70
     1
  0
VERTEX
  5
1F3C
  8
SAPA_PROFIL
 62
     4
 10
-33.081104116945014
 20
-75.516458861522835
 30
0.0
  0
VERTEX
  5
1F3D
  8
SAPA_PROFIL
 62
     4
 10
-32.817080838568998
 20
-75.109898665518699
 30
0.0
 42
-0.2539676464751066
  0
VERTEX
  5
1F3E
  8
SAPA_PROFIL
 62
     4
 10
-32.565479668184288
 20
-74.973290376022589
 30
0.0
  0
VERTEX
  5
1F3F
  8
SAPA_PROFIL
 62
     4
 10
-31.183980082978941
 20
-74.973290376022589
 30
0.0
 42
-0.3152987888790479
  0
VERTEX
  5
1F40
  8
SAPA_PROFIL
 62
     4
 10
-30.714133772586631
 20
-75.30228030436075
 30
0.0
  0
VERTEX
  5
1F41
  8
SAPA_PROFIL
 62
     4
 10
-29.818464831678028
 20
-77.763110494812025
 30
0.0
 42
0.2694959974287434
  0
VERTEX
  5
1F42
  8
SAPA_PROFIL
 62
     4
 10
-29.586945785276669
 20
-77.956242469155924
 30
0.0
 42
0.0612686379508233
  0
VERTEX
  5
1F43
  8
SAPA_PROFIL
 62
     4
 10
-29.294270352423389
 20
-77.969825839786424
 30
0.0
  0
VERTEX
  5
1F44
  8
SAPA_PROFIL
 62
     4
 10
-28.94485217511512
 20
-78.171562518515259
 30
0.0
 42
0.5773502691891679
  0
VERTEX
  5
1F45
  8
SAPA_PROFIL
 62
     4
 10
-28.629852175115541
 20
-77.989697183720693
 30
0.0
  0
VERTEX
  5
1F46
  8
SAPA_PROFIL
 62
     4
 10
-28.6298521751153
 20
-77.72258265559438
 30
0.0
  0
VERTEX
  5
1F47
  8
SAPA_PROFIL
 62
     4
 10
-27.231324474481038
 20
-76.91389919428606
 30
0.0
 42
-0.1318219888653519
  0
VERTEX
  5
1F48
  8
SAPA_PROFIL
 62
     4
 10
-27.081151372008701
 20
-76.873606797748664
 30
0.0
  0
VERTEX
  5
1F49
  8
SAPA_PROFIL
 62
     4
 10
-26.898715301571919
 20
-76.873606797755031
 30
0.0
 42
-0.4142135623724291
  0
VERTEX
  5
1F4A
  8
SAPA_PROFIL
 62
     4
 10
-26.498715301571369
 20
-77.273606797754667
 30
0.0
  0
VERTEX
  5
1F4B
  8
SAPA_PROFIL
 62
     4
 10
-26.498715301572741
 20
-80.673606797755653
 30
0.0
 42
-0.4142135623744271
  0
VERTEX
  5
1F4C
  8
SAPA_PROFIL
 62
     4
 10
-26.898715301571919
 20
-81.073606797756653
 30
0.0
  0
VERTEX
  5
1F4D
  8
SAPA_PROFIL
 62
     4
 10
-27.078330543843219
 20
-81.073606797757293
 30
0.0
 42
-0.1316524975874005
  0
VERTEX
  5
1F4E
  8
SAPA_PROFIL
 62
     4
 10
-27.228330543840041
 20
-81.033414418891695
 30
0.0
  0
VERTEX
  5
1F4F
  8
SAPA_PROFIL
 62
     4
 10
-28.832468440842291
 20
-80.107264972239179
 30
0.0
 42
0.1316524975875904
  0
VERTEX
  5
1F50
  8
SAPA_PROFIL
 62
     4
 10
-29.332468440844011
 20
-79.973290376024394
 30
0.0
  0
VERTEX
  5
1F51
  8
SAPA_PROFIL
 62
     4
 10
-29.74871530157138
 20
-79.973290376024394
 30
0.0
 42
0.4142135623730951
  0
VERTEX
  5
1F52
  8
SAPA_PROFIL
 62
     4
 10
-30.74871530157138
 20
-80.973290376024394
 30
0.0
  0
VERTEX
  5
1F53
  8
SAPA_PROFIL
 62
     4
 10
-30.74871530157138
 20
-83.973290376021666
 30
0.0
 42
-0.9999996830128083
  0
VERTEX
  5
1F54
  8
SAPA_PROFIL
 62
     4
 10
-31.748715301571369
 20
-83.973290376023499
 30
0.0
  0
VERTEX
  5
1F55
  8
SAPA_PROFIL
 62
     4
 10
-31.748715301571369
 20
-80.973290376023485
 30
0.0
 42
0.4142135623730951
  0
VERTEX
  5
1F56
  8
SAPA_PROFIL
 62
     4
 10
-32.748715301571373
 20
-79.973290376023499
 30
0.0
  0
VERTEX
  5
1F57
  8
SAPA_PROFIL
 62
     4
 10
-62.248715301655963
 20
-79.973290376023513
 30
0.0
 42
0.4142135623730951
  0
VERTEX
  5
1F58
  8
SAPA_PROFIL
 62
     4
 10
-63.248715301655949
 20
-80.973290376023513
 30
0.0
  0
VERTEX
  5
1F59
  8
SAPA_PROFIL
 62
     4
 10
-63.248715301655949
 20
-83.973290376021694
 30
0.0
 42
-0.9999999999999998
  0
VERTEX
  5
1F5A
  8
SAPA_PROFIL
 62
     4
 10
-64.248715301655949
 20
-83.973290376021694
 30
0.0
  0
VERTEX
  5
1F5B
  8
SAPA_PROFIL
 62
     4
 10
-64.248715301655949
 20
-80.973290376023513
 30
0.0
 42
0.4142135623736278
  0
VERTEX
  5
1F5C
  8
SAPA_PROFIL
 62
     4
 10
-65.248715301655949
 20
-79.973290376023513
 30
0.0
  0
VERTEX
  5
1F5D
  8
SAPA_PROFIL
 62
     4
 10
-65.664962162382409
 20
-79.973290376023513
 30
0.0
 42
0.1316524975874375
  0
VERTEX
  5
1F5E
  8
SAPA_PROFIL
 62
     4
 10
-66.164962162382594
 20
-80.107264972239534
 30
0.0
  0
VERTEX
  5
1F5F
  8
SAPA_PROFIL
 62
     4
 10
-67.769100059384556
 20
-81.033414418891724
 30
0.0
 42
-0.1316524975874
  0
VERTEX
  5
1F60
  8
SAPA_PROFIL
 62
     4
 10
-67.919100059384107
 20
-81.073606797757293
 30
0.0
  0
VERTEX
  5
1F61
  8
SAPA_PROFIL
 62
     4
 10
-68.098715301655403
 20
-81.073606797756682
 30
0.0
 42
-0.4142135623744271
  0
VERTEX
  5
1F62
  8
SAPA_PROFIL
 62
     4
 10
-68.498715301654585
 20
-80.673606797755681
 30
0.0
  0
VERTEX
  5
1F63
  8
SAPA_PROFIL
 62
     4
 10
-68.498715301655949
 20
-77.273606797754681
 30
0.0
 42
-0.4142135623724291
  0
VERTEX
  5
1F64
  8
SAPA_PROFIL
 62
     4
 10
-68.098715301655403
 20
-76.873606797755045
 30
0.0
  0
VERTEX
  5
1F65
  8
SAPA_PROFIL
 62
     4
 10
-67.916279231218624
 20
-76.873606797748678
 30
0.0
 42
-0.1318219888653524
  0
VERTEX
  5
1F66
  8
SAPA_PROFIL
 62
     4
 10
-67.766106128746287
 20
-76.91389919428606
 30
0.0
  0
VERTEX
  5
1F67
  8
SAPA_PROFIL
 62
     4
 10
-66.367578428266626
 20
-77.722582655510408
 30
0.0
  0
VERTEX
  5
1F68
  8
SAPA_PROFIL
 62
     4
 10
-66.367578428266626
 20
-77.989697183723436
 30
0.0
 42
0.577350269189159
  0
VERTEX
  5
1F69
  8
SAPA_PROFIL
 62
     4
 10
-66.052578428267026
 20
-78.171562518518002
 30
0.0
  0
VERTEX
  5
1F6A
  8
SAPA_PROFIL
 62
     4
 10
-65.703160251048374
 20
-77.969825839840894
 30
0.0
 42
0.0612687673629489
  0
VERTEX
  5
1F6B
  8
SAPA_PROFIL
 62
     4
 10
-65.410484817948159
 20
-77.956242469154688
 30
0.0
 42
0.2694959974285039
  0
VERTEX
  5
1F6C
  8
SAPA_PROFIL
 62
     4
 10
-65.178965771547638
 20
-77.763110494810746
 30
0.0
  0
VERTEX
  5
1F6D
  8
SAPA_PROFIL
 62
     4
 10
-64.283296830637966
 20
-75.302280304357581
 30
0.0
 42
-0.3152987888784035
  0
VERTEX
  5
1F6E
  8
SAPA_PROFIL
 62
     4
 10
-63.813450520244743
 20
-74.973290376020984
 30
0.0
  0
VERTEX
  5
1F6F
  8
SAPA_PROFIL
 62
     4
 10
-62.431950935040312
 20
-74.973290376022604
 30
0.0
 42
-0.2539676464741841
  0
VERTEX
  5
1F70
  8
SAPA_PROFIL
 62
     4
 10
-62.180349764656242
 20
-75.109898665517875
 30
0.0
  0
VERTEX
  5
1F71
  8
SAPA_PROFIL
 62
     4
 10
-61.916326486279587
 20
-75.51645886152285
 30
0.0
 42
-0.5862177598324623
  0
VERTEX
  5
1F72
  8
SAPA_PROFIL
 62
     4
 10
-62.172068301517939
 20
-75.973290376019349
 30
0.0
  0
VERTEX
  5
1F73
  8
SAPA_PROFIL
 62
     4
 10
-63.113242982027749
 20
-75.97329037601169
 30
0.0
 42
0.3152987888813165
  0
VERTEX
  5
1F74
  8
SAPA_PROFIL
 62
     4
 10
-63.583089292425498
 20
-76.302280304348443
 30
0.0
  0
VERTEX
  5
1F75
  8
SAPA_PROFIL
 62
     4
 10
-64.019853573549454
 20
-77.502280304359672
 30
0.0
 42
0.5205670505515651
  0
VERTEX
  5
1F76
  8
SAPA_PROFIL
 62
     4
 10
-63.550007263156239
 20
-78.173290376022422
 30
0.0
  0
VERTEX
  5
1F77
  8
SAPA_PROFIL
 62
     4
 10
-58.533566322487388
 20
-78.173290376022436
 30
0.0
 42
0.3702522326300203
  0
VERTEX
  5
1F78
  8
SAPA_PROFIL
 62
     4
 10
-58.237042960694048
 20
-77.918830423356724
 30
0.0
 42
0.0982365330332397
  0
VERTEX
  5
1F79
  8
SAPA_PROFIL
 62
     4
 10
-58.146590202483118
 20
-76.231143648361723
 30
0.0
 42
0.3735060174783164
  0
VERTEX
  5
1F7A
  8
SAPA_PROFIL
 62
     4
 10
-58.4436148703941
 20
-75.973290376021694
 30
0.0
  0
VERTEX
  5
1F7B
  8
SAPA_PROFIL
 62
     4
 10
-58.872068301516762
 20
-75.973290376020785
 30
0.0
 42
-0.5920056181162531
  0
VERTEX
  5
1F7C
  8
SAPA_PROFIL
 62
     4
 10
-59.125077057834147
 20
-75.512086873492862
 30
0.0
  0
VERTEX
  5
1F7D
  8
SAPA_PROFIL
 62
     4
 10
-58.863892981678447
 20
-75.109898665514564
 30
0.0
 42
-0.2539676464746725
  0
VERTEX
  5
1F7E
  8
SAPA_PROFIL
 62
     4
 10
-58.612291811294689
 20
-74.973290376019193
 30
0.0
  0
VERTEX
  5
1F7F
  8
SAPA_PROFIL
 62
     4
 10
-36.385138791929002
 20
-74.973290376020771
 30
0.0
 42
-0.2539676464741819
  0
VERTEX
  5
1F80
  8
SAPA_PROFIL
 62
     4
 10
-36.133537621546147
 20
-75.109898665514535
 30
0.0
  0
VERTEX
  5
1F81
  8
SAPA_PROFIL
 62
     4
 10
-35.872353545392343
 20
-75.512086873492891
 30
0.0
 42
-0.5920055144124249
  0
VERTEX
  5
1F82
  8
SAPA_PROFIL
 62
     4
 10
-36.125362301707852
 20
-75.973290376020771
 30
0.0
  0
VERTEX
  5
1F83
  8
SAPA_PROFIL
 62
     4
 10
-36.553815778998057
 20
-75.973290350745771
 30
0.0
 42
0.3735060174775405
  0
VERTEX
  5
1F84
  8
SAPA_PROFIL
 62
     4
 10
-36.850840446907753
 20
-76.231143623085856
 30
0.0
 42
0.0355900683670349
  0
VERTEX
  5
1F85
  8
SAPA_PROFIL
 62
     4
 10
-36.894734010940013
 20
-76.847017209885649
 30
0.0
 42
0.0624282003873116
  0
VERTEX
  5
1F86
  8
SAPA_PROFIL
 62
     4
 10
-36.760387688697072
 20
-77.918830398080772
 30
0.0
 42
0.3702522326309292
  0
VERTEX
  5
1F87
  8
SAPA_PROFIL
 62
     4
 10
-36.463864326903689
 20
-78.173290350746484
 30
0.0
  0
VERTEX
  5
1F88
  8
SAPA_PROFIL
 62
     4
 10
-31.447423340070181
 20
-78.173290376022635
 30
0.0
 42
0.5205670505515692
  0
VERTEX
  5
1F89
  8
SAPA_PROFIL
 62
     4
 10
-30.977577029676961
 20
-77.502280304359658
 30
0.0
  0
VERTEX
  5
1F8A
  8
SAPA_PROFIL
 62
     4
 10
-31.414341310801909
 20
-76.302280304350219
 30
0.0
 42
0.3152987888807539
  0
VERTEX
  5
1F8B
  8
SAPA_PROFIL
 62
     4
 10
-31.884187621197761
 20
-75.973290376012585
 30
0.0
  0
VERTEX
  5
1F8C
  8
SAPA_PROFIL
 62
     4
 10
-32.825362301706853
 20
-75.973290376019406
 30
0.0
 42
-0.5862175119221242
  0
VERTEX
  5
1F8D
  8
SAPA_PROFIL
 62
     4
 10
-33.081104232688801
 20
-75.516459050264274
 30
0.0
 42
0.0000002084758573
  0
SEQEND
  5
1F8E
  8
SAPA_PROFIL
 62
     4
  0
POLYLINE
  5
153F
  8
SAPA_PROFIL
 66
     1
 10
0.0
 20
0.0
 30
0.0
 70
     1
  0
VERTEX
  5
1F8F
  8
SAPA_PROFIL
 10
-87.001284576350542
 20
-10.69999999989059
 30
0.0
 42
0.5507604245874563
  0
VERTEX
  5
1F90
  8
SAPA_PROFIL
 10
-86.572713147767317
 20
-10.97105237073356
 30
0.0
 42
0.2896898632860104
  0
VERTEX
  5
1F91
  8
SAPA_PROFIL
 10
-86.001284576394625
 20
-10.067544467854869
 30
0.0
  0
VERTEX
  5
1F92
  8
SAPA_PROFIL
 10
-86.001284576394625
 20
-9.2999999998444292
 30
0.0
 42
0.4142135623901312
  0
VERTEX
  5
1F93
  8
SAPA_PROFIL
 10
-86.301284576412115
 20
-8.9999999998444196
 30
0.0
  0
VERTEX
  5
1F94
  8
SAPA_PROFIL
 10
-89.998715427517496
 20
-9.0000000000562181
 30
0.0
 42
0.4142342928453111
  0
VERTEX
  5
1F95
  8
SAPA_PROFIL
 10
-90.498715426235975
 20
-9.5000353889556663
 30
0.0
  0
VERTEX
  5
1F96
  8
SAPA_PROFIL
 10
-90.498715169402089
 20
-82.499964611043822
 30
0.0
 42
0.4142342928453111
  0
VERTEX
  5
1F97
  8
SAPA_PROFIL
 10
-89.998715170683624
 20
-82.99999999994327
 30
0.0
  0
VERTEX
  5
1F98
  8
SAPA_PROFIL
 10
-86.30128431957823
 20
-83.000000000155126
 30
0.0
 42
0.4142135623901312
  0
VERTEX
  5
1F99
  8
SAPA_PROFIL
 10
-86.001284319560696
 20
-82.700000000155043
 30
0.0
  0
VERTEX
  5
1F9A
  8
SAPA_PROFIL
 10
-86.001284319560767
 20
-81.932455532144616
 30
0.0
 42
0.2896898632860027
  0
VERTEX
  5
1F9B
  8
SAPA_PROFIL
 10
-86.572712890934113
 20
-81.028947629267321
 30
0.0
 42
0.5507604245874563
  0
VERTEX
  5
1F9C
  8
SAPA_PROFIL
 10
-87.001284319515122
 20
-81.300000000108895
 30
0.0
  0
VERTEX
  5
1F9D
  8
SAPA_PROFIL
 10
-87.001284319531777
 20
-81.500000000119186
 30
0.0
 42
-0.4142135623681295
  0
VERTEX
  5
1F9E
  8
SAPA_PROFIL
 10
-87.301284319544166
 20
-81.800000000101704
 30
0.0
  0
VERTEX
  5
1F9F
  8
SAPA_PROFIL
 10
-88.798715170555226
 20
-81.800000000042075
 30
0.0
 42
-0.4142135623609412
  0
VERTEX
  5
1FA0
  8
SAPA_PROFIL
 10
-89.298715170555226
 20
-81.300000000042075
 30
0.0
  0
VERTEX
  5
1FA1
  8
SAPA_PROFIL
 10
-89.298715170555226
 20
-78.000000000041155
 30
0.0
 42
-0.4142135623852489
  0
VERTEX
  5
1FA2
  8
SAPA_PROFIL
 10
-88.798715170534479
 20
-77.500000000041155
 30
0.0
  0
VERTEX
  5
1FA3
  8
SAPA_PROFIL
 10
-87.301284319577661
 20
-77.500000000100897
 30
0.0
 42
-0.4142135623780607
  0
VERTEX
  5
1FA4
  8
SAPA_PROFIL
 10
-87.001284319590042
 20
-77.800000000118359
 30
0.0
  0
VERTEX
  5
1FA5
  8
SAPA_PROFIL
 10
-87.001284319601126
 20
-78.000000000108372
 30
0.0
 42
0.5507604245840011
  0
VERTEX
  5
1FA6
  8
SAPA_PROFIL
 10
-86.572712891048084
 20
-78.271052371005453
 30
0.0
 42
0.2896898633203997
  0
VERTEX
  5
1FA7
  8
SAPA_PROFIL
 10
-86.001284319560767
 20
-77.367544468072339
 30
0.0
  0
VERTEX
  5
1FA8
  8
SAPA_PROFIL
 10
-86.001284319560767
 20
-76.326328322680098
 30
0.0
  0
VERTEX
  5
1FA9
  8
SAPA_PROFIL
 10
-86.285726613703403
 20
-74.713175911178354
 30
0.0
 42
0.8390996311772029
  0
VERTEX
  5
1FAA
  8
SAPA_PROFIL
 10
-87.270534366715623
 20
-74.713175911178354
 30
0.0
  0
VERTEX
  5
1FAB
  8
SAPA_PROFIL
 10
-87.477480206297656
 20
-75.886824088845373
 30
0.0
 42
-0.363970234266201
  0
VERTEX
  5
1FAC
  8
SAPA_PROFIL
 10
-87.969884082803745
 20
-76.300000000011863
 30
0.0
  0
VERTEX
  5
1FAD
  8
SAPA_PROFIL
 10
-88.798358715293006
 20
-76.300000000011863
 30
0.0
 42
-0.426132608942994
  0
VERTEX
  5
1FAE
  8
SAPA_PROFIL
 10
-89.297948262981393
 20
-75.779744535551259
 30
0.0
  0
VERTEX
  5
1FAF
  8
SAPA_PROFIL
 10
-88.710385687852224
 20
-61.287846721108338
 30
0.0
 42
-0.4023941304324702
  0
VERTEX
  5
1FB0
  8
SAPA_PROFIL
 10
-88.410631959239197
 20
-60.999999999784727
 30
0.0
  0
VERTEX
  5
1FB1
  8
SAPA_PROFIL
 10
-87.610098740874335
 20
-60.999999999784642
 30
0.0
 42
0.259681233730068
  0
VERTEX
  5
1FB2
  8
SAPA_PROFIL
 10
-87.440067929334276
 20
-60.905306804536501
 30
0.0
  0
VERTEX
  5
1FB3
  8
SAPA_PROFIL
 10
-86.543668952092077
 20
-59.457960206912418
 30
0.0
 42
0.5877032589250129
  0
VERTEX
  5
1FB4
  8
SAPA_PROFIL
 10
-86.798715169402129
 20
-58.999999999784727
 30
0.0
  0
VERTEX
  5
1FB5
  8
SAPA_PROFIL
 10
-88.198715169402107
 20
-58.999999999784698
 30
0.0
 42
-0.4142135623731242
  0
VERTEX
  5
1FB6
  8
SAPA_PROFIL
 10
-88.498715169402146
 20
-58.699999999784602
 30
0.0
  0
VERTEX
  5
1FB7
  8
SAPA_PROFIL
 10
-88.498715169402146
 20
-56.299999999784717
 30
0.0
 42
-0.4142135623730951
  0
VERTEX
  5
1FB8
  8
SAPA_PROFIL
 10
-88.198715169402135
 20
-55.999999999784727
 30
0.0
  0
VERTEX
  5
1FB9
  8
SAPA_PROFIL
 10
-78.598715169402141
 20
-55.999999999784727
 30
0.0
 42
-0.4142135623731409
  0
VERTEX
  5
1FBA
  8
SAPA_PROFIL
 10
-78.298715169402129
 20
-56.299999999784802
 30
0.0
  0
VERTEX
  5
1FBB
  8
SAPA_PROFIL
 10
-78.298715169402016
 20
-60.699999999784723
 30
0.0
 42
0.414213562373195
  0
VERTEX
  5
1FBC
  8
SAPA_PROFIL
 10
-77.998715169402004
 20
-60.999999999784819
 30
0.0
  0
VERTEX
  5
1FBD
  8
SAPA_PROFIL
 10
-76.514627104048799
 20
-60.999999999784727
 30
0.0
 42
0.2596812337301437
  0
VERTEX
  5
1FBE
  8
SAPA_PROFIL
 10
-76.344596292508726
 20
-60.905306804536501
 30
0.0
  0
VERTEX
  5
1FBF
  8
SAPA_PROFIL
 10
-75.943668947956951
 20
-60.257960206912429
 30
0.0
 42
0.587703258924989
  0
VERTEX
  5
1FC0
  8
SAPA_PROFIL
 10
-76.198715165267032
 20
-59.79999999978471
 30
0.0
  0
VERTEX
  5
1FC1
  8
SAPA_PROFIL
 10
-76.598715169402141
 20
-59.79999999978471
 30
0.0
 42
-0.4142135623731492
  0
VERTEX
  5
1FC2
  8
SAPA_PROFIL
 10
-76.898715169402152
 20
-59.499999999784819
 30
0.0
  0
VERTEX
  5
1FC3
  8
SAPA_PROFIL
 10
-76.898715169402095
 20
-56.299999999784717
 30
0.0
 42
-0.414213562373195
  0
VERTEX
  5
1FC4
  8
SAPA_PROFIL
 10
-76.598715169402141
 20
-55.999999999784727
 30
0.0
  0
VERTEX
  5
1FC5
  8
SAPA_PROFIL
 10
-70.798715169402129
 20
-55.999999999784727
 30
0.0
 42
-0.4142135623731242
  0
VERTEX
  5
1FC6
  8
SAPA_PROFIL
 10
-70.498715169402175
 20
-56.299999999784717
 30
0.0
  0
VERTEX
  5
1FC7
  8
SAPA_PROFIL
 10
-70.498715169402089
 20
-58.699999999784602
 30
0.0
 42
-0.4142135623730659
  0
VERTEX
  5
1FC8
  8
SAPA_PROFIL
 10
-70.798715169402101
 20
-58.999999999784727
 30
0.0
  0
VERTEX
  5
1FC9
  8
SAPA_PROFIL
 10
-72.198715169402107
 20
-58.999999999784727
 30
0.0
 42
0.5920056181179502
  0
VERTEX
  5
1FCA
  8
SAPA_PROFIL
 10
-72.451723925719108
 20
-59.46120350231152
 30
0.0
  0
VERTEX
  5
1FCB
  8
SAPA_PROFIL
 10
-71.657670919542525
 20
-60.707469001469143
 30
0.0
 42
0.2562769736732326
  0
VERTEX
  5
1FCC
  8
SAPA_PROFIL
 10
-71.488998415331167
 20
-60.799999999784603
 30
0.0
  0
VERTEX
  5
1FCD
  8
SAPA_PROFIL
 10
-68.492731505716051
 20
-60.799999999784681
 30
0.0
  0
VERTEX
  5
1FCE
  8
SAPA_PROFIL
 10
-67.175433829480312
 20
-60.290853600473547
 30
0.0
 42
-0.4142135623730958
  0
VERTEX
  5
1FCF
  8
SAPA_PROFIL
 10
-66.8012488740045
 20
-60.49081764498095
 30
0.0
  0
VERTEX
  5
1FD0
  8
SAPA_PROFIL
 10
-66.786730464757397
 20
-60.53866339497943
 30
0.0
  0
VERTEX
  5
1FD1
  8
SAPA_PROFIL
 10
-65.283629383995375
 20
-60.538747002863047
 30
0.0
 42
0.4769755326981641
  0
VERTEX
  5
1FD2
  8
SAPA_PROFIL
 10
-64.981376559488922
 20
-60.167090127917213
 30
0.0
  0
VERTEX
  5
1FD3
  8
SAPA_PROFIL
 10
-65.362823155616667
 20
-58.353859657258958
 30
0.0
 42
0.2216946626430181
  0
VERTEX
  5
1FD4
  8
SAPA_PROFIL
 10
-65.768632060771438
 20
-57.812979825782172
 30
0.0
  0
VERTEX
  5
1FD5
  8
SAPA_PROFIL
 10
-66.053314344003084
 20
-57.660845914673409
 30
0.0
 42
0.5773502691897454
  0
VERTEX
  5
1FD6
  8
SAPA_PROFIL
 10
-66.347470644257896
 20
-57.843799654783581
 30
0.0
  0
VERTEX
  5
1FD7
  8
SAPA_PROFIL
 10
-66.33690927803093
 20
-58.165557383001833
 30
0.0
  0
VERTEX
  5
1FD8
  8
SAPA_PROFIL
 10
-68.222752969891985
 20
-59.25012182997358
 30
0.0
  0
VERTEX
  5
1FD9
  8
SAPA_PROFIL
 10
-68.414135969885706
 20
-59.308195466962673
 30
0.0
 42
-0.7625858545243255
  0
VERTEX
  5
1FDA
  8
SAPA_PROFIL
 10
-68.598715172083217
 20
-58.977869385945667
 30
0.0
 42
0.2134217652834359
  0
VERTEX
  5
1FDB
  8
SAPA_PROFIL
 10
-68.498715172083081
 20
-58.75426258819553
 30
0.0
  0
VERTEX
  5
1FDC
  8
SAPA_PROFIL
 10
-68.498715172083124
 20
-54.901476183695543
 30
0.0
 42
-0.4142135623730035
  0
VERTEX
  5
1FDD
  8
SAPA_PROFIL
 10
-68.198715172083126
 20
-54.601476183695517
 30
0.0
  0
VERTEX
  5
1FDE
  8
SAPA_PROFIL
 10
-67.898715172083087
 20
-54.601476183695517
 30
0.0
  0
VERTEX
  5
1FDF
  8
SAPA_PROFIL
 10
-66.298715172083178
 20
-55.525236614398878
 30
0.0
 42
0.5773502691897307
  0
VERTEX
  5
1FE0
  8
SAPA_PROFIL
 10
-65.998715172083081
 20
-55.352031533642013
 30
0.0
  0
VERTEX
  5
1FE1
  8
SAPA_PROFIL
 10
-65.998715172083109
 20
-53.966390887586918
 30
0.0
 42
0.2679491924311169
  0
VERTEX
  5
1FE2
  8
SAPA_PROFIL
 10
-66.498715172083081
 20
-53.100365483802527
 30
0.0
  0
VERTEX
  5
1FE3
  8
SAPA_PROFIL
 10
-68.248715169470273
 20
-52.090002514229127
 30
0.0
 42
-0.2679491924311239
  0
VERTEX
  5
1FE4
  8
SAPA_PROFIL
 10
-68.498715169470273
 20
-51.656989812336917
 30
0.0
  0
VERTEX
  5
1FE5
  8
SAPA_PROFIL
 10
-68.498715169470273
 20
-40.343010188113887
 30
0.0
 42
-0.2679491924311547
  0
VERTEX
  5
1FE6
  8
SAPA_PROFIL
 10
-68.248715169470231
 20
-39.909997486221641
 30
0.0
  0
VERTEX
  5
1FE7
  8
SAPA_PROFIL
 10
-66.498715172083095
 20
-38.899634516648398
 30
0.0
 42
0.2679491924311272
  0
VERTEX
  5
1FE8
  8
SAPA_PROFIL
 10
-65.998715172083095
 20
-38.03360911286395
 30
0.0
  0
VERTEX
  5
1FE9
  8
SAPA_PROFIL
 10
-65.998715172083038
 20
-36.647968466808969
 30
0.0
 42
0.5773502691897177
  0
VERTEX
  5
1FEA
  8
SAPA_PROFIL
 10
-66.298715172083192
 20
-36.474763386052068
 30
0.0
  0
VERTEX
  5
1FEB
  8
SAPA_PROFIL
 10
-67.898715172083101
 20
-37.39852381675535
 30
0.0
  0
VERTEX
  5
1FEC
  8
SAPA_PROFIL
 10
-68.198715172083141
 20
-37.39852381675535
 30
0.0
 42
-0.4142135623730951
  0
VERTEX
  5
1FED
  8
SAPA_PROFIL
 10
-68.498715172083152
 20
-37.098523816755367
 30
0.0
  0
VERTEX
  5
1FEE
  8
SAPA_PROFIL
 10
-68.498715172083081
 20
-33.245737412255458
 30
0.0
 42
0.2134217652834361
  0
VERTEX
  5
1FEF
  8
SAPA_PROFIL
 10
-68.598715172083175
 20
-33.022130614505379
 30
0.0
 42
-0.7625858545243255
  0
VERTEX
  5
1FF0
  8
SAPA_PROFIL
 10
-68.41413596988572
 20
-32.691804533488337
 30
0.0
  0
VERTEX
  5
1FF1
  8
SAPA_PROFIL
 10
-68.222752969891999
 20
-32.749878170477437
 30
0.0
  0
VERTEX
  5
1FF2
  8
SAPA_PROFIL
 10
-66.336909278030944
 20
-33.834442617449177
 30
0.0
  0
VERTEX
  5
1FF3
  8
SAPA_PROFIL
 10
-66.347470644257925
 20
-34.15620034566745
 30
0.0
 42
0.5773502691897453
  0
VERTEX
  5
1FF4
  8
SAPA_PROFIL
 10
-66.053314344003084
 20
-34.339154085777601
 30
0.0
  0
VERTEX
  5
1FF5
  8
SAPA_PROFIL
 10
-65.768632060771452
 20
-34.187020174668838
 30
0.0
 42
0.2216946626430179
  0
VERTEX
  5
1FF6
  8
SAPA_PROFIL
 10
-65.362823155616653
 20
-33.646140343192052
 30
0.0
  0
VERTEX
  5
1FF7
  8
SAPA_PROFIL
 10
-64.981376559488936
 20
-31.832909872533818
 30
0.0
 42
0.4769755326981641
  0
VERTEX
  5
1FF8
  8
SAPA_PROFIL
 10
-65.283629383995404
 20
-31.46125299758793
 30
0.0
  0
VERTEX
  5
1FF9
  8
SAPA_PROFIL
 10
-66.786730464757412
 20
-31.46133660547158
 30
0.0
  0
VERTEX
  5
1FFA
  8
SAPA_PROFIL
 10
-66.801248874004514
 20
-31.50918235547007
 30
0.0
 42
-0.4142135623730953
  0
VERTEX
  5
1FFB
  8
SAPA_PROFIL
 10
-67.175433829480326
 20
-31.70914639997747
 30
0.0
  0
VERTEX
  5
1FFC
  8
SAPA_PROFIL
 10
-68.492731505716179
 20
-31.200000000666272
 30
0.0
  0
VERTEX
  5
1FFD
  8
SAPA_PROFIL
 10
-71.488998415331096
 20
-31.200000000666272
 30
0.0
 42
0.2562769736732409
  0
VERTEX
  5
1FFE
  8
SAPA_PROFIL
 10
-71.657670919542426
 20
-31.292530998981729
 30
0.0
  0
VERTEX
  5
1FFF
  8
SAPA_PROFIL
 10
-72.451723925719165
 20
-32.53879649813944
 30
0.0
 42
0.592005618117916
  0
VERTEX
  5
2000
  8
SAPA_PROFIL
 10
-72.198715169402121
 20
-33.000000000666262
 30
0.0
  0
VERTEX
  5
2001
  8
SAPA_PROFIL
 10
-70.798715169402115
 20
-33.000000000666262
 30
0.0
 42
-0.4142135623730951
  0
VERTEX
  5
2002
  8
SAPA_PROFIL
 10
-70.498715169402104
 20
-33.300000000666351
 30
0.0
  0
VERTEX
  5
2003
  8
SAPA_PROFIL
 10
-70.498715169402175
 20
-35.700000000666243
 30
0.0
 42
-0.4142135623731242
  0
VERTEX
  5
2004
  8
SAPA_PROFIL
 10
-70.798715169402143
 20
-36.000000000666248
 30
0.0
  0
VERTEX
  5
2005
  8
SAPA_PROFIL
 10
-76.598715169402155
 20
-36.00000000066629
 30
0.0
 42
-0.4142135623731866
  0
VERTEX
  5
2006
  8
SAPA_PROFIL
 10
-76.898715169402109
 20
-35.70000000066625
 30
0.0
  0
VERTEX
  5
2007
  8
SAPA_PROFIL
 10
-76.898715169402166
 20
-32.500000000666148
 30
0.0
 42
-0.4142135623731492
  0
VERTEX
  5
2008
  8
SAPA_PROFIL
 10
-76.598715169402155
 20
-32.20000000066625
 30
0.0
  0
VERTEX
  5
2009
  8
SAPA_PROFIL
 10
-76.198715165267046
 20
-32.200000000666222
 30
0.0
 42
0.5877032589250028
  0
VERTEX
  5
200A
  8
SAPA_PROFIL
 10
-75.943668947956994
 20
-31.742039793538542
 30
0.0
  0
VERTEX
  5
200B
  8
SAPA_PROFIL
 10
-76.344596292508754
 20
-31.094693195914491
 30
0.0
 42
0.259681233730169
  0
VERTEX
  5
200C
  8
SAPA_PROFIL
 10
-76.514627104048813
 20
-31.000000000666262
 30
0.0
  0
VERTEX
  5
200D
  8
SAPA_PROFIL
 10
-77.998715169402018
 20
-31.000000000666208
 30
0.0
 42
0.4142135623730951
  0
VERTEX
  5
200E
  8
SAPA_PROFIL
 10
-78.298715169401973
 20
-31.300000000666159
 30
0.0
  0
VERTEX
  5
200F
  8
SAPA_PROFIL
 10
-78.298715169402143
 20
-35.700000000666137
 30
0.0
 42
-0.414213562373041
  0
VERTEX
  5
2010
  8
SAPA_PROFIL
 10
-78.598715169402155
 20
-36.000000000666262
 30
0.0
  0
VERTEX
  5
2011
  8
SAPA_PROFIL
 10
-88.198715169402149
 20
-36.000000000666262
 30
0.0
 42
-0.4142135623730951
  0
VERTEX
  5
2012
  8
SAPA_PROFIL
 10
-88.498715169402175
 20
-35.70000000066625
 30
0.0
  0
VERTEX
  5
2013
  8
SAPA_PROFIL
 10
-88.498715169402175
 20
-33.300000000666358
 30
0.0
 42
-0.4142135623730951
  0
VERTEX
  5
2014
  8
SAPA_PROFIL
 10
-88.198715169402149
 20
-33.000000000666262
 30
0.0
  0
VERTEX
  5
2015
  8
SAPA_PROFIL
 10
-86.798715169402143
 20
-33.000000000666233
 30
0.0
 42
0.5877032589250129
  0
VERTEX
  5
2016
  8
SAPA_PROFIL
 10
-86.543668952092091
 20
-32.542039793538549
 30
0.0
  0
VERTEX
  5
2017
  8
SAPA_PROFIL
 10
-87.440067929334234
 20
-31.094693195914431
 30
0.0
 42
0.2596812337301122
  0
VERTEX
  5
2018
  8
SAPA_PROFIL
 10
-87.610098740874363
 20
-31.000000000666262
 30
0.0
  0
VERTEX
  5
2019
  8
SAPA_PROFIL
 10
-88.41063195923924
 20
-31.000000000666262
 30
0.0
 42
-0.4023941304324539
  0
VERTEX
  5
201A
  8
SAPA_PROFIL
 10
-88.710385687852295
 20
-30.712153279342662
 30
0.0
  0
VERTEX
  5
201B
  8
SAPA_PROFIL
 10
-89.297184707692864
 20
-16.239094457311641
 30
0.0
 42
-0.4373282586284287
  0
VERTEX
  5
201C
  8
SAPA_PROFIL
 10
-88.798715427389084
 20
-15.69999999998762
 30
0.0
  0
VERTEX
  5
201D
  8
SAPA_PROFIL
 10
-87.96988433963763
 20
-15.69999999998762
 30
0.0
 42
-0.363970234266201
  0
VERTEX
  5
201E
  8
SAPA_PROFIL
 10
-87.477480463131528
 20
-16.113175911154109
 30
0.0
  0
VERTEX
  5
201F
  8
SAPA_PROFIL
 10
-87.270534623549494
 20
-17.286824088821131
 30
0.0
 42
0.8390996311772029
  0
VERTEX
  5
2020
  8
SAPA_PROFIL
 10
-86.285726870537289
 20
-17.286824088821131
 30
0.0
  0
VERTEX
  5
2021
  8
SAPA_PROFIL
 10
-86.001284576394625
 20
-15.67367167731939
 30
0.0
  0
VERTEX
  5
2022
  8
SAPA_PROFIL
 10
-86.001284576394809
 20
-14.63245553192718
 30
0.0
 42
0.2896898633203997
  0
VERTEX
  5
2023
  8
SAPA_PROFIL
 10
-86.572713147881785
 20
-13.728947628993661
 30
0.0
 42
0.5507604245840011
  0
VERTEX
  5
2024
  8
SAPA_PROFIL
 10
-87.001284576435566
 20
-13.999999999891109
 30
0.0
  0
VERTEX
  5
2025
  8
SAPA_PROFIL
 10
-87.001284576423899
 20
-14.199999999881131
 30
0.0
 42
-0.4142135623780607
  0
VERTEX
  5
2026
  8
SAPA_PROFIL
 10
-87.301284576411533
 20
-14.49999999989859
 30
0.0
  0
VERTEX
  5
2027
  8
SAPA_PROFIL
 10
-88.798715427368336
 20
-14.49999999995833
 30
0.0
 42
-0.4142135623852489
  0
VERTEX
  5
2028
  8
SAPA_PROFIL
 10
-89.298715427389098
 20
-13.99999999995833
 30
0.0
  0
VERTEX
  5
2029
  8
SAPA_PROFIL
 10
-89.298715427389098
 20
-10.699999999957409
 30
0.0
 42
-0.4142135623609412
  0
VERTEX
  5
202A
  8
SAPA_PROFIL
 10
-88.798715427389084
 20
-10.199999999957409
 30
0.0
  0
VERTEX
  5
202B
  8
SAPA_PROFIL
 10
-87.301284576378052
 20
-10.199999999897781
 30
0.0
 42
-0.4142135623681295
  0
VERTEX
  5
202C
  8
SAPA_PROFIL
 10
-87.001284576365634
 20
-10.499999999880281
 30
0.0
  0
SEQEND
  5
202D
  8
SAPA_PROFIL
  0
POLYLINE
  5
1540
  8
SAPA_PROFIL
 66
     1
 10
0.0
 20
0.0
 30
0.0
 70
     1
  0
VERTEX
  5
202E
  8
SAPA_PROFIL
 10
-88.798715167492517
 20
-50.09999999984273
 30
0.0
  0
VERTEX
  5
202F
  8
SAPA_PROFIL
 10
-88.798715174175598
 20
-41.900000000724503
 30
0.0
 42
-0.4142135624581968
  0
VERTEX
  5
2030
  8
SAPA_PROFIL
 10
-88.598715174175567
 20
-41.700000000666357
 30
0.0
  0
VERTEX
  5
2031
  8
SAPA_PROFIL
 10
-88.498715172699747
 20
-41.700000000666357
 30
0.0
 42
0.4142135624945166
  0
VERTEX
  5
2032
  8
SAPA_PROFIL
 10
-88.19871517269975
 20
-41.400000000541979
 30
0.0
  0
VERTEX
  5
2033
  8
SAPA_PROFIL
 10
-88.198715173280121
 20
-40.000000000541966
 30
0.0
 42
0.4142135622516735
  0
VERTEX
  5
2034
  8
SAPA_PROFIL
 10
-88.498715173280104
 20
-39.700000000666371
 30
0.0
  0
VERTEX
  5
2035
  8
SAPA_PROFIL
 10
-88.59871517348283
 20
-39.700000000666371
 30
0.0
 42
-0.4142135622584164
  0
VERTEX
  5
2036
  8
SAPA_PROFIL
 10
-88.798715173482805
 20
-39.500000000744677
 30
0.0
  0
VERTEX
  5
2037
  8
SAPA_PROFIL
 10
-88.798715174109333
 20
-38.000000000783821
 30
0.0
 42
-0.4142135624877821
  0
VERTEX
  5
2038
  8
SAPA_PROFIL
 10
-88.498715174109336
 20
-37.700000000666357
 30
0.0
  0
VERTEX
  5
2039
  8
SAPA_PROFIL
 10
-70.49871516366764
 20
-37.700000000666329
 30
0.0
 42
-0.4142135623730784
  0
VERTEX
  5
203A
  8
SAPA_PROFIL
 10
-70.198715163667643
 20
-38.00000000066634
 30
0.0
  0
VERTEX
  5
203B
  8
SAPA_PROFIL
 10
-70.198715163667615
 20
-39.500000000666368
 30
0.0
 42
-0.4142135623730951
  0
VERTEX
  5
203C
  8
SAPA_PROFIL
 10
-70.398715163667632
 20
-39.700000000666357
 30
0.0
  0
VERTEX
  5
203D
  8
SAPA_PROFIL
 10
-70.498715163667612
 20
-39.700000000666357
 30
0.0
 42
0.4142135623730951
  0
VERTEX
  5
203E
  8
SAPA_PROFIL
 10
-70.798715163667609
 20
-40.000000000666333
 30
0.0
  0
VERTEX
  5
203F
  8
SAPA_PROFIL
 10
-70.798715163667609
 20
-41.400000000666338
 30
0.0
 42
0.4142135623730951
  0
VERTEX
  5
2040
  8
SAPA_PROFIL
 10
-70.498715163667612
 20
-41.70000000066635
 30
0.0
  0
VERTEX
  5
2041
  8
SAPA_PROFIL
 10
-70.39871516366766
 20
-41.70000000066635
 30
0.0
 42
-0.4142135623730701
  0
VERTEX
  5
2042
  8
SAPA_PROFIL
 10
-70.198715163667643
 20
-41.900000000666353
 30
0.0
  0
VERTEX
  5
2043
  8
SAPA_PROFIL
 10
-70.198715163667615
 20
-50.099999999784643
 30
0.0
 42
-0.4142135623730951
  0
VERTEX
  5
2044
  8
SAPA_PROFIL
 10
-70.398715163667646
 20
-50.299999999784617
 30
0.0
  0
VERTEX
  5
2045
  8
SAPA_PROFIL
 10
-70.498715163667612
 20
-50.299999999784617
 30
0.0
 42
0.4142135623730951
  0
VERTEX
  5
2046
  8
SAPA_PROFIL
 10
-70.798715163667595
 20
-50.599999999784629
 30
0.0
  0
VERTEX
  5
2047
  8
SAPA_PROFIL
 10
-70.798715163667609
 20
-51.999999999784649
 30
0.0
 42
0.4142135623730576
  0
VERTEX
  5
2048
  8
SAPA_PROFIL
 10
-70.498715163667669
 20
-52.299999999784688
 30
0.0
  0
VERTEX
  5
2049
  8
SAPA_PROFIL
 10
-70.398715163667575
 20
-52.299999999784688
 30
0.0
 42
-0.4142135623730326
  0
VERTEX
  5
204A
  8
SAPA_PROFIL
 10
-70.1987151636676
 20
-52.49999999978467
 30
0.0
  0
VERTEX
  5
204B
  8
SAPA_PROFIL
 10
-70.198715163667615
 20
-53.99999999978462
 30
0.0
 42
-0.4142135623730951
  0
VERTEX
  5
204C
  8
SAPA_PROFIL
 10
-70.49871516366764
 20
-54.299999999784603
 30
0.0
  0
VERTEX
  5
204D
  8
SAPA_PROFIL
 10
-88.498715174109321
 20
-54.299999999784632
 30
0.0
 42
-0.4142135624877821
  0
VERTEX
  5
204E
  8
SAPA_PROFIL
 10
-88.798715174109304
 20
-53.999999999667153
 30
0.0
  0
VERTEX
  5
204F
  8
SAPA_PROFIL
 10
-88.798715173482805
 20
-52.499999999706318
 30
0.0
 42
-0.4142135622584081
  0
VERTEX
  5
2050
  8
SAPA_PROFIL
 10
-88.598715173482816
 20
-52.299999999784632
 30
0.0
  0
VERTEX
  5
2051
  8
SAPA_PROFIL
 10
-88.498715173280104
 20
-52.299999999784632
 30
0.0
 42
0.4142135622516652
  0
VERTEX
  5
2052
  8
SAPA_PROFIL
 10
-88.198715173280107
 20
-51.999999999908987
 30
0.0
  0
VERTEX
  5
2053
  8
SAPA_PROFIL
 10
-88.198715172699735
 20
-50.599999999909009
 30
0.0
 42
0.4142135624945249
  0
VERTEX
  5
2054
  8
SAPA_PROFIL
 10
-88.498715172699747
 20
-50.299999999784632
 30
0.0
  0
VERTEX
  5
2055
  8
SAPA_PROFIL
 10
-88.598715167492529
 20
-50.299999999784632
 30
0.0
 42
-0.4142135622879767
  0
SEQEND
  5
2056
  8
SAPA_PROFIL
  0
POLYLINE
  5
1541
  8
SAPA_PROFIL
 66
     1
 10
0.0
 20
0.0
 30
0.0
 70
     1
  0
VERTEX
  5
2057
  8
SAPA_PROFIL
 10
-26.498715297776201
 20
-51.655513627132422
 30
0.0
 42
-0.267949192431007
  0
VERTEX
  5
2058
  8
SAPA_PROFIL
 10
-26.748715297776201
 20
-52.088526329024461
 30
0.0
  0
VERTEX
  5
2059
  8
SAPA_PROFIL
 10
-28.498715297776648
 20
-53.098889300106492
 30
0.0
 42
0.2679491924311281
  0
VERTEX
  5
205A
  8
SAPA_PROFIL
 10
-28.998715297776659
 20
-53.964914703891019
 30
0.0
  0
VERTEX
  5
205B
  8
SAPA_PROFIL
 10
-28.998715297776432
 20
-55.350555349946013
 30
0.0
 42
0.57735026918954
  0
VERTEX
  5
205C
  8
SAPA_PROFIL
 10
-28.69871529777647
 20
-55.523760430702822
 30
0.0
  0
VERTEX
  5
205D
  8
SAPA_PROFIL
 10
-27.098715297776788
 20
-54.599999999999653
 30
0.0
  0
VERTEX
  5
205E
  8
SAPA_PROFIL
 10
-26.79871529777661
 20
-54.599999999999653
 30
0.0
 42
-0.41421356237306
  0
VERTEX
  5
205F
  8
SAPA_PROFIL
 10
-26.498715297776432
 20
-54.899999999999842
 30
0.0
  0
VERTEX
  5
2060
  8
SAPA_PROFIL
 10
-26.498715297776432
 20
-58.752786404499339
 30
0.0
 42
0.2036002236709541
  0
VERTEX
  5
2061
  8
SAPA_PROFIL
 10
-26.40699016481263
 20
-58.968706713319733
 30
0.0
 42
-0.8292414158604859
  0
VERTEX
  5
2062
  8
SAPA_PROFIL
 10
-26.603123453344061
 20
-59.300702346339421
 30
0.0
  0
VERTEX
  5
2063
  8
SAPA_PROFIL
 10
-26.77467749996795
 20
-59.248645646277708
 30
0.0
  0
VERTEX
  5
2064
  8
SAPA_PROFIL
 10
-28.660521191828781
 20
-58.164081199305848
 30
0.0
  0
VERTEX
  5
2065
  8
SAPA_PROFIL
 10
-28.649959825602039
 20
-57.84232347108783
 30
0.0
 42
0.5773502691894565
  0
VERTEX
  5
2066
  8
SAPA_PROFIL
 10
-28.944116125856642
 20
-57.659369730977431
 30
0.0
  0
VERTEX
  5
2067
  8
SAPA_PROFIL
 10
-29.228798409087819
 20
-57.811503642085633
 30
0.0
 42
0.2216946626431577
  0
VERTEX
  5
2068
  8
SAPA_PROFIL
 10
-29.63460731424307
 20
-58.352383473563087
 30
0.0
  0
VERTEX
  5
2069
  8
SAPA_PROFIL
 10
-30.01605391037079
 20
-60.165613944220887
 30
0.0
 42
0.4757248385987928
  0
VERTEX
  5
206A
  8
SAPA_PROFIL
 10
-29.71505781991296
 20
-60.537270889071088
 30
0.0
  0
VERTEX
  5
206B
  8
SAPA_PROFIL
 10
-28.210700005102311
 20
-60.537187211283452
 30
0.0
  0
VERTEX
  5
206C
  8
SAPA_PROFIL
 10
-28.196181595854981
 20
-60.489341461284958
 30
0.0
 42
-0.4580511809928869
  0
VERTEX
  5
206D
  8
SAPA_PROFIL
 10
-27.78080121330591
 20
-60.305273745632093
 30
0.0
  0
VERTEX
  5
206E
  8
SAPA_PROFIL
 10
-26.498715297776659
 20
-60.799999999999471
 30
0.0
  0
VERTEX
  5
206F
  8
SAPA_PROFIL
 10
-23.48623096426827
 20
-60.799999999999471
 30
0.0
 42
0.2596812337301257
  0
VERTEX
  5
2070
  8
SAPA_PROFIL
 10
-23.3162001527282
 20
-60.705306804751409
 30
0.0
  0
VERTEX
  5
2071
  8
SAPA_PROFIL
 10
-22.5436690836586
 20
-59.457960207127343
 30
0.0
 42
0.5877032589249617
  0
VERTEX
  5
2072
  8
SAPA_PROFIL
 10
-22.798715300968709
 20
-58.999999999999737
 30
0.0
  0
VERTEX
  5
2073
  8
SAPA_PROFIL
 10
-24.232894087359181
 20
-58.999999999999737
 30
0.0
 42
-0.4683749459842228
  0
VERTEX
  5
2074
  8
SAPA_PROFIL
 10
-24.498715300968762
 20
-58.699999999999562
 30
0.0
  0
VERTEX
  5
2075
  8
SAPA_PROFIL
 10
-24.498715300968531
 20
-56.299999999999919
 30
0.0
 42
-0.4683749459847173
  0
VERTEX
  5
2076
  8
SAPA_PROFIL
 10
-24.232894087358961
 20
-55.999999999999737
 30
0.0
  0
VERTEX
  5
2077
  8
SAPA_PROFIL
 10
-18.398715300968622
 20
-55.999999999999737
 30
0.0
  0
VERTEX
  5
2078
  8
SAPA_PROFIL
 10
-16.398715300968611
 20
-55.999999999999737
 30
0.0
  0
VERTEX
  5
2079
  8
SAPA_PROFIL
 10
-6.798715300968718
 20
-55.999999999999737
 30
0.0
 42
-0.4142135623730951
  0
VERTEX
  5
207A
  8
SAPA_PROFIL
 10
-6.4987153009687626
 20
-56.299999999999471
 30
0.0
  0
VERTEX
  5
207B
  8
SAPA_PROFIL
 10
-6.4987153009687626
 20
-58.699999999999562
 30
0.0
 42
-0.4142135623730951
  0
VERTEX
  5
207C
  8
SAPA_PROFIL
 10
-6.798715300968718
 20
-58.999999999999737
 30
0.0
  0
VERTEX
  5
207D
  8
SAPA_PROFIL
 10
-8.1987153009688072
 20
-58.999999999999737
 30
0.0
 42
0.5877032589248625
  0
VERTEX
  5
207E
  8
SAPA_PROFIL
 10
-8.4537615182786912
 20
-59.457960207127343
 30
0.0
  0
VERTEX
  5
207F
  8
SAPA_PROFIL
 10
-7.5573625410365484
 20
-60.905306804751227
 30
0.0
 42
0.2596812337300832
  0
VERTEX
  5
2080
  8
SAPA_PROFIL
 10
-7.3873317294964753
 20
-60.999999999999737
 30
0.0
  0
VERTEX
  5
2081
  8
SAPA_PROFIL
 10
-4.6987152978190014
 20
-60.999999999999737
 30
0.0
 42
0.4142135623731107
  0
VERTEX
  5
2082
  8
SAPA_PROFIL
 10
-4.4987152978189551
 20
-60.799999999999471
 30
0.0
  0
VERTEX
  5
2083
  8
SAPA_PROFIL
 10
-4.4987152978189551
 20
-31.199999999999569
 30
0.0
 42
0.4142135623730273
  0
VERTEX
  5
2084
  8
SAPA_PROFIL
 10
-4.6987152978190014
 20
-30.999999999999751
 30
0.0
  0
VERTEX
  5
2085
  8
SAPA_PROFIL
 10
-7.3873317294967018
 20
-30.999999999999751
 30
0.0
 42
0.2596812337302099
  0
VERTEX
  5
2086
  8
SAPA_PROFIL
 10
-7.5573625410367749
 20
-31.0946931952478
 30
0.0
  0
VERTEX
  5
2087
  8
SAPA_PROFIL
 10
-8.4537615182789185
 20
-32.542039792871691
 30
0.0
 42
0.5877032589250762
  0
VERTEX
  5
2088
  8
SAPA_PROFIL
 10
-8.1987153009688072
 20
-32.999999999999737
 30
0.0
  0
VERTEX
  5
2089
  8
SAPA_PROFIL
 10
-6.798715300968718
 20
-32.999999999999737
 30
0.0
 42
-0.4142135623730951
  0
VERTEX
  5
208A
  8
SAPA_PROFIL
 10
-6.4987153009687626
 20
-33.299999999999471
 30
0.0
  0
VERTEX
  5
208B
  8
SAPA_PROFIL
 10
-6.4987153009687626
 20
-35.699999999999562
 30
0.0
 42
-0.4142135623730951
  0
VERTEX
  5
208C
  8
SAPA_PROFIL
 10
-6.798715300968718
 20
-35.999999999999751
 30
0.0
  0
VERTEX
  5
208D
  8
SAPA_PROFIL
 10
-16.398715300968838
 20
-35.999999999999751
 30
0.0
  0
VERTEX
  5
208E
  8
SAPA_PROFIL
 10
-18.398715300968838
 20
-35.999999999999751
 30
0.0
  0
VERTEX
  5
208F
  8
SAPA_PROFIL
 10
-24.232894087358499
 20
-35.999999999999751
 30
0.0
 42
-0.4683749459843959
  0
VERTEX
  5
2090
  8
SAPA_PROFIL
 10
-24.498715300968762
 20
-35.700000000000017
 30
0.0
  0
VERTEX
  5
2091
  8
SAPA_PROFIL
 10
-24.498715300968762
 20
-33.299999999999471
 30
0.0
 42
-0.4683749459842226
  0
VERTEX
  5
2092
  8
SAPA_PROFIL
 10
-24.232894087359181
 20
-32.999999999999737
 30
0.0
  0
VERTEX
  5
2093
  8
SAPA_PROFIL
 10
-22.79871530096894
 20
-32.999999999999737
 30
0.0
 42
0.5877032589249771
  0
VERTEX
  5
2094
  8
SAPA_PROFIL
 10
-22.54366908365883
 20
-32.542039792871691
 30
0.0
  0
VERTEX
  5
2095
  8
SAPA_PROFIL
 10
-23.3162001527282
 20
-31.294693195248069
 30
0.0
 42
0.2596812337301256
  0
VERTEX
  5
2096
  8
SAPA_PROFIL
 10
-23.48623096426827
 20
-31.199999999999569
 30
0.0
  0
VERTEX
  5
2097
  8
SAPA_PROFIL
 10
-26.498715297776659
 20
-31.199999999999569
 30
0.0
  0
VERTEX
  5
2098
  8
SAPA_PROFIL
 10
-27.780801213305679
 20
-31.694726254366941
 30
0.0
 42
-0.4580511809929225
  0
VERTEX
  5
2099
  8
SAPA_PROFIL
 10
-28.196181595854519
 20
-31.510658538714068
 30
0.0
  0
VERTEX
  5
209A
  8
SAPA_PROFIL
 10
-28.21070000510209
 20
-31.462812788715581
 30
0.0
  0
VERTEX
  5
209B
  8
SAPA_PROFIL
 10
-29.71505781991819
 20
-31.462729110927938
 30
0.0
 42
0.4757248385933691
  0
VERTEX
  5
209C
  8
SAPA_PROFIL
 10
-30.016053910370331
 20
-31.834386055777689
 30
0.0
  0
VERTEX
  5
209D
  8
SAPA_PROFIL
 10
-29.634607314242839
 20
-33.647616526435939
 30
0.0
 42
0.2350054070140314
  0
VERTEX
  5
209E
  8
SAPA_PROFIL
 10
-29.192626521520381
 20
-34.206665443318997
 30
0.0
 42
-0.0011882050611145
  0
VERTEX
  5
209F
  8
SAPA_PROFIL
 10
-29.193984199202951
 20
-34.207101034859733
 30
0.0
  0
VERTEX
  5
20A0
  8
SAPA_PROFIL
 10
-28.944116125856411
 20
-34.340630269021609
 30
0.0
 42
0.5773502691894562
  0
VERTEX
  5
20A1
  8
SAPA_PROFIL
 10
-28.649959825601812
 20
-34.157676528911651
 30
0.0
  0
VERTEX
  5
20A2
  8
SAPA_PROFIL
 10
-28.660521191828551
 20
-33.835918800693179
 30
0.0
  0
VERTEX
  5
20A3
  8
SAPA_PROFIL
 10
-26.774677499967272
 20
-32.751354353721332
 30
0.0
  0
VERTEX
  5
20A4
  8
SAPA_PROFIL
 10
-26.60312345334383
 20
-32.69929765365962
 30
0.0
 42
-0.8292414158590609
  0
VERTEX
  5
20A5
  8
SAPA_PROFIL
 10
-26.406990164811951
 20
-33.031293286678391
 30
0.0
 42
0.2036002236714843
  0
VERTEX
  5
20A6
  8
SAPA_PROFIL
 10
-26.498715297776201
 20
-33.247213595499232
 30
0.0
  0
VERTEX
  5
20A7
  8
SAPA_PROFIL
 10
-26.498715297776201
 20
-37.099999999999199
 30
0.0
 42
-0.4142135623731708
  0
VERTEX
  5
20A8
  8
SAPA_PROFIL
 10
-26.798715297776379
 20
-37.39999999999938
 30
0.0
  0
VERTEX
  5
20A9
  8
SAPA_PROFIL
 10
-27.098715297776561
 20
-37.39999999999938
 30
0.0
  0
VERTEX
  5
20AA
  8
SAPA_PROFIL
 10
-28.698715297776019
 20
-36.476239569295757
 30
0.0
 42
0.5773502691897499
  0
VERTEX
  5
20AB
  8
SAPA_PROFIL
 10
-28.998715297776201
 20
-36.64944465005258
 30
0.0
  0
VERTEX
  5
20AC
  8
SAPA_PROFIL
 10
-28.998715297776432
 20
-38.035085296108008
 30
0.0
 42
0.2679491924311548
  0
VERTEX
  5
20AD
  8
SAPA_PROFIL
 10
-28.498715297776432
 20
-38.901110699892541
 30
0.0
  0
VERTEX
  5
20AE
  8
SAPA_PROFIL
 10
-26.748715297776201
 20
-39.911473670974573
 30
0.0
 42
-0.2679491924310984
  0
VERTEX
  5
20AF
  8
SAPA_PROFIL
 10
-26.498715297776201
 20
-40.344486372867067
 30
0.0
  0
SEQEND
  5
20B0
  8
SAPA_PROFIL
  0
POLYLINE
  5
1542
  8
SAPA_PROFIL
 66
     1
 10
0.0
 20
0.0
 30
0.0
 70
     1
  0
VERTEX
  5
20B1
  8
SAPA_PROFIL
 10
-24.49871529437662
 20
-54.299999999837858
 30
0.0
 42
-0.4142135623730951
  0
VERTEX
  5
20B2
  8
SAPA_PROFIL
 10
-24.798715294376638
 20
-53.999999999837847
 30
0.0
  0
VERTEX
  5
20B3
  8
SAPA_PROFIL
 10
-24.798715294376638
 20
-52.499999999837847
 30
0.0
 42
-0.414213562372978
  0
VERTEX
  5
20B4
  8
SAPA_PROFIL
 10
-24.59871529437676
 20
-52.299999999837858
 30
0.0
  0
VERTEX
  5
20B5
  8
SAPA_PROFIL
 10
-24.498715295330289
 20
-52.299999999837858
 30
0.0
 42
0.4142135624945221
  0
VERTEX
  5
20B6
  8
SAPA_PROFIL
 10
-24.198715295330281
 20
-51.999999999713481
 30
0.0
  0
VERTEX
  5
20B7
  8
SAPA_PROFIL
 10
-24.198715295910699
 20
-50.599999999713447
 30
0.0
 42
0.4142135622516715
  0
VERTEX
  5
20B8
  8
SAPA_PROFIL
 10
-24.49871529591071
 20
-50.299999999837858
 30
0.0
  0
VERTEX
  5
20B9
  8
SAPA_PROFIL
 10
-24.59871529453865
 20
-50.299999999837858
 30
0.0
 42
-0.4142135621360125
  0
VERTEX
  5
20BA
  8
SAPA_PROFIL
 10
-24.798715294538638
 20
-50.09999999999976
 30
0.0
  0
VERTEX
  5
20BB
  8
SAPA_PROFIL
 10
-24.798715301014131
 20
-41.899999999999707
 30
0.0
 42
-0.4142135626101776
  0
VERTEX
  5
20BC
  8
SAPA_PROFIL
 10
-24.598715301014138
 20
-41.699999999837843
 30
0.0
  0
VERTEX
  5
20BD
  8
SAPA_PROFIL
 10
-24.498715299642029
 20
-41.699999999837843
 30
0.0
 42
0.4142135624945291
  0
VERTEX
  5
20BE
  8
SAPA_PROFIL
 10
-24.198715299642021
 20
-41.399999999713458
 30
0.0
  0
VERTEX
  5
20BF
  8
SAPA_PROFIL
 10
-24.19871530022251
 20
-39.999999999713481
 30
0.0
 42
0.4142135622516611
  0
VERTEX
  5
20C0
  8
SAPA_PROFIL
 10
-24.498715300222521
 20
-39.699999999837843
 30
0.0
  0
VERTEX
  5
20C1
  8
SAPA_PROFIL
 10
-24.59871530042513
 20
-39.699999999837843
 30
0.0
 42
-0.4142135622584299
  0
VERTEX
  5
20C2
  8
SAPA_PROFIL
 10
-24.798715300425179
 20
-39.499999999916128
 30
0.0
  0
VERTEX
  5
20C3
  8
SAPA_PROFIL
 10
-24.798715301049139
 20
-37.999999999962633
 30
0.0
 42
-0.4142135624949384
  0
VERTEX
  5
20C4
  8
SAPA_PROFIL
 10
-24.498715301049131
 20
-37.699999999837843
 30
0.0
  0
VERTEX
  5
20C5
  8
SAPA_PROFIL
 10
-6.498715290609959
 20
-37.699999999837843
 30
0.0
 42
-0.4142135623730743
  0
VERTEX
  5
20C6
  8
SAPA_PROFIL
 10
-6.1987152906099476
 20
-37.999999999837797
 30
0.0
  0
VERTEX
  5
20C7
  8
SAPA_PROFIL
 10
-6.1987152906098339
 20
-39.499999999837861
 30
0.0
 42
-0.4142135623730951
  0
VERTEX
  5
20C8
  8
SAPA_PROFIL
 10
-6.3987152906098226
 20
-39.699999999837843
 30
0.0
  0
VERTEX
  5
20C9
  8
SAPA_PROFIL
 10
-6.498715290609959
 20
-39.699999999837843
 30
0.0
 42
0.4142135623731125
  0
VERTEX
  5
20CA
  8
SAPA_PROFIL
 10
-6.7987152906099713
 20
-39.999999999837847
 30
0.0
  0
VERTEX
  5
20CB
  8
SAPA_PROFIL
 10
-6.7987152906099713
 20
-41.399999999837831
 30
0.0
 42
0.4142135623730951
  0
VERTEX
  5
20CC
  8
SAPA_PROFIL
 10
-6.498715290609959
 20
-41.699999999837843
 30
0.0
  0
VERTEX
  5
20CD
  8
SAPA_PROFIL
 10
-6.3987152906099372
 20
-41.699999999837843
 30
0.0
 42
-0.4142135623730951
  0
VERTEX
  5
20CE
  8
SAPA_PROFIL
 10
-6.1987152906099476
 20
-41.899999999837831
 30
0.0
  0
VERTEX
  5
20CF
  8
SAPA_PROFIL
 10
-6.1987152906099476
 20
-50.09999999983787
 30
0.0
 42
-0.4142135623730951
  0
VERTEX
  5
20D0
  8
SAPA_PROFIL
 10
-6.3987152906099372
 20
-50.299999999837858
 30
0.0
  0
VERTEX
  5
20D1
  8
SAPA_PROFIL
 10
-6.498715290609959
 20
-50.299999999837858
 30
0.0
 42
0.4142135623730951
  0
VERTEX
  5
20D2
  8
SAPA_PROFIL
 10
-6.7987152906099713
 20
-50.59999999983782
 30
0.0
  0
VERTEX
  5
20D3
  8
SAPA_PROFIL
 10
-6.7987152906099713
 20
-51.999999999837847
 30
0.0
 42
0.4142135623730951
  0
VERTEX
  5
20D4
  8
SAPA_PROFIL
 10
-6.498715290609959
 20
-52.299999999837858
 30
0.0
  0
VERTEX
  5
20D5
  8
SAPA_PROFIL
 10
-6.3987152906099372
 20
-52.299999999837858
 30
0.0
 42
-0.4142135623730951
  0
VERTEX
  5
20D6
  8
SAPA_PROFIL
 10
-6.1987152906099476
 20
-52.499999999837847
 30
0.0
  0
VERTEX
  5
20D7
  8
SAPA_PROFIL
 10
-6.1987152906098339
 20
-53.999999999837847
 30
0.0
 42
-0.4142135623731159
  0
VERTEX
  5
20D8
  8
SAPA_PROFIL
 10
-6.4987152906098462
 20
-54.299999999837858
 30
0.0
  0
SEQEND
  5
20D9
  8
SAPA_PROFIL
  0
POLYLINE
  5
1543
  8
SAPA_PROFIL
 62
     4
 66
     1
 10
0.0
 20
0.0
 30
0.0
  0
VERTEX
  5
20DA
  8
SAPA_PROFIL
 62
     4
 10
-38.449386111227192
 20
-58.067718914152771
 30
0.0
 42
0.5571646428658034
  0
VERTEX
  5
20DB
  8
SAPA_PROFIL
 62
     4
 10
-38.98634661536402
 20
-57.19999999999721
 30
0.0
  0
VERTEX
  5
20DC
  8
SAPA_PROFIL
 62
     4
 10
-56.011083851885211
 20
-57.199999999997672
 30
0.0
 42
0.5571645048035741
  0
VERTEX
  5
20DD
  8
SAPA_PROFIL
 62
     4
 10
-56.548044468846271
 20
-58.067718687863838
 30
0.0
  0
VERTEX
  5
20DE
  8
SAPA_PROFIL
 62
     4
 10
-55.717337381299572
 20
-59.733859343931869
 30
0.0
 42
0.284385813979063
  0
VERTEX
  5
20DF
  8
SAPA_PROFIL
 62
     4
 10
-55.448857072819223
 20
-59.899999999999302
 30
0.0
  0
VERTEX
  5
20E0
  8
SAPA_PROFIL
 62
     4
 10
-39.548573394429908
 20
-59.899999999999302
 30
0.0
 42
0.2843858139786238
  0
VERTEX
  5
20E1
  8
SAPA_PROFIL
 62
     4
 10
-39.280093085949623
 20
-59.73385934393238
 30
0.0
  0
VERTEX
  5
20E2
  8
SAPA_PROFIL
 62
     4
 10
-38.449385998402462
 20
-58.067718687863028
 30
0.0
  0
SEQEND
  5
20E3
  8
SAPA_PROFIL
 62
     4
  0
POLYLINE
  5
1544
  8
SAPA_PROFIL
 62
     4
 66
     1
 10
0.0
 20
0.0
 30
0.0
 70
     1
  0
VERTEX
  5
20E4
  8
SAPA_PROFIL
 62
     4
 10
-61.91632641829186
 20
-60.256831514496888
 30
0.0
  0
VERTEX
  5
20E5
  8
SAPA_PROFIL
 62
     4
 10
-62.180349696667868
 20
-60.663391710501031
 30
0.0
 42
-0.2539676464751066
  0
VERTEX
  5
20E6
  8
SAPA_PROFIL
 62
     4
 10
-62.431950867052578
 20
-60.799999999997141
 30
0.0
  0
VERTEX
  5
20E7
  8
SAPA_PROFIL
 62
     4
 10
-63.813450452257918
 20
-60.799999999997141
 30
0.0
 42
-0.3152987888790479
  0
VERTEX
  5
20E8
  8
SAPA_PROFIL
 62
     4
 10
-64.283296762650238
 20
-60.471010071658966
 30
0.0
  0
VERTEX
  5
20E9
  8
SAPA_PROFIL
 62
     4
 10
-65.178965703558845
 20
-58.010179881207691
 30
0.0
 42
0.2694959974287434
  0
VERTEX
  5
20EA
  8
SAPA_PROFIL
 62
     4
 10
-65.410484749960204
 20
-57.817047906863799
 30
0.0
 42
0.0612686379508233
  0
VERTEX
  5
20EB
  8
SAPA_PROFIL
 62
     4
 10
-65.703160182813477
 20
-57.803464536233278
 30
0.0
  0
VERTEX
  5
20EC
  8
SAPA_PROFIL
 62
     4
 10
-66.052578360121743
 20
-57.601727857504457
 30
0.0
 42
0.5773502691891679
  0
VERTEX
  5
20ED
  8
SAPA_PROFIL
 62
     4
 10
-66.367578360121328
 20
-57.783593192299023
 30
0.0
  0
VERTEX
  5
20EE
  8
SAPA_PROFIL
 62
     4
 10
-66.36757836012157
 20
-58.050707720425351
 30
0.0
  0
VERTEX
  5
20EF
  8
SAPA_PROFIL
 62
     4
 10
-67.766106060755817
 20
-58.859391181733663
 30
0.0
 42
-0.1318219888653519
  0
VERTEX
  5
20F0
  8
SAPA_PROFIL
 62
     4
 10
-67.916279163228154
 20
-58.899683578271052
 30
0.0
  0
VERTEX
  5
20F1
  8
SAPA_PROFIL
 62
     4
 10
-68.098715233664947
 20
-58.899683578264678
 30
0.0
 42
-0.4142135623724291
  0
VERTEX
  5
20F2
  8
SAPA_PROFIL
 62
     4
 10
-68.498715233665493
 20
-58.499683578265042
 30
0.0
  0
VERTEX
  5
20F3
  8
SAPA_PROFIL
 62
     4
 10
-68.498715233664129
 20
-55.099683578264049
 30
0.0
 42
-0.4142135623744271
  0
VERTEX
  5
20F4
  8
SAPA_PROFIL
 62
     4
 10
-68.098715233664947
 20
-54.699683578263048
 30
0.0
  0
VERTEX
  5
20F5
  8
SAPA_PROFIL
 62
     4
 10
-67.919099991393651
 20
-54.69968357826243
 30
0.0
 42
-0.1316524975874005
  0
VERTEX
  5
20F6
  8
SAPA_PROFIL
 62
     4
 10
-67.769099991396814
 20
-54.739875957128007
 30
0.0
  0
VERTEX
  5
20F7
  8
SAPA_PROFIL
 62
     4
 10
-66.164962094394568
 20
-55.666025403780552
 30
0.0
 42
0.1316524975875904
  0
VERTEX
  5
20F8
  8
SAPA_PROFIL
 62
     4
 10
-65.664962094392862
 20
-55.799999999995322
 30
0.0
  0
VERTEX
  5
20F9
  8
SAPA_PROFIL
 62
     4
 10
-65.248715233665493
 20
-55.799999999995322
 30
0.0
 42
0.4142135623730951
  0
VERTEX
  5
20FA
  8
SAPA_PROFIL
 62
     4
 10
-64.248715233665493
 20
-54.799999999995308
 30
0.0
  0
VERTEX
  5
20FB
  8
SAPA_PROFIL
 62
     4
 10
-64.248715233665493
 20
-51.799999999998043
 30
0.0
 42
-0.9999996830128083
  0
VERTEX
  5
20FC
  8
SAPA_PROFIL
 62
     4
 10
-63.2487152336655
 20
-51.799999999996231
 30
0.0
  0
VERTEX
  5
20FD
  8
SAPA_PROFIL
 62
     4
 10
-63.2487152336655
 20
-54.799999999996217
 30
0.0
 42
0.4142135623730951
  0
VERTEX
  5
20FE
  8
SAPA_PROFIL
 62
     4
 10
-62.248715233665493
 20
-55.799999999996217
 30
0.0
  0
VERTEX
  5
20FF
  8
SAPA_PROFIL
 62
     4
 10
-32.74871523358091
 20
-55.79999999999621
 30
0.0
 42
0.4142135623730951
  0
VERTEX
  5
2100
  8
SAPA_PROFIL
 62
     4
 10
-31.74871523358091
 20
-54.799999999996217
 30
0.0
  0
VERTEX
  5
2101
  8
SAPA_PROFIL
 62
     4
 10
-31.74871523358091
 20
-51.799999999998043
 30
0.0
 42
-0.9999999999999998
  0
VERTEX
  5
2102
  8
SAPA_PROFIL
 62
     4
 10
-30.74871523358091
 20
-51.799999999998043
 30
0.0
  0
VERTEX
  5
2103
  8
SAPA_PROFIL
 62
     4
 10
-30.74871523358091
 20
-54.799999999996217
 30
0.0
 42
0.4142135623736278
  0
VERTEX
  5
2104
  8
SAPA_PROFIL
 62
     4
 10
-29.74871523358091
 20
-55.79999999999621
 30
0.0
  0
VERTEX
  5
2105
  8
SAPA_PROFIL
 62
     4
 10
-29.33246837285445
 20
-55.79999999999621
 30
0.0
 42
0.1316524975874375
  0
VERTEX
  5
2106
  8
SAPA_PROFIL
 62
     4
 10
-28.832468372854251
 20
-55.666025403780168
 30
0.0
  0
VERTEX
  5
2107
  8
SAPA_PROFIL
 62
     4
 10
-27.228330475852299
 20
-54.739875957128
 30
0.0
 42
-0.1316524975874
  0
VERTEX
  5
2108
  8
SAPA_PROFIL
 62
     4
 10
-27.078330475852759
 20
-54.699683578262409
 30
0.0
  0
VERTEX
  5
2109
  8
SAPA_PROFIL
 62
     4
 10
-26.898715233581459
 20
-54.699683578263041
 30
0.0
 42
-0.4142135623744271
  0
VERTEX
  5
210A
  8
SAPA_PROFIL
 62
     4
 10
-26.498715233582271
 20
-55.099683578264042
 30
0.0
  0
VERTEX
  5
210B
  8
SAPA_PROFIL
 62
     4
 10
-26.49871523358091
 20
-58.499683578265042
 30
0.0
 42
-0.4142135623724291
  0
VERTEX
  5
210C
  8
SAPA_PROFIL
 62
     4
 10
-26.898715233581459
 20
-58.899683578264678
 30
0.0
  0
VERTEX
  5
210D
  8
SAPA_PROFIL
 62
     4
 10
-27.081151304018238
 20
-58.899683578271038
 30
0.0
 42
-0.1318219888653524
  0
VERTEX
  5
210E
  8
SAPA_PROFIL
 62
     4
 10
-27.231324406490579
 20
-58.859391181733649
 30
0.0
  0
VERTEX
  5
210F
  8
SAPA_PROFIL
 62
     4
 10
-28.62985210697024
 20
-58.050707720509322
 30
0.0
  0
VERTEX
  5
2110
  8
SAPA_PROFIL
 62
     4
 10
-28.62985210697024
 20
-57.783593192296287
 30
0.0
 42
0.577350269189159
  0
VERTEX
  5
2111
  8
SAPA_PROFIL
 62
     4
 10
-28.944852106969829
 20
-57.601727857501722
 30
0.0
  0
VERTEX
  5
2112
  8
SAPA_PROFIL
 62
     4
 10
-29.294270284188489
 20
-57.803464536178822
 30
0.0
 42
0.0612687673629489
  0
VERTEX
  5
2113
  8
SAPA_PROFIL
 62
     4
 10
-29.58694571728871
 20
-57.817047906865028
 30
0.0
 42
0.2694959974285039
  0
VERTEX
  5
2114
  8
SAPA_PROFIL
 62
     4
 10
-29.818464763689231
 20
-58.01017988120897
 30
0.0
  0
VERTEX
  5
2115
  8
SAPA_PROFIL
 62
     4
 10
-30.7141337045989
 20
-60.47101007166215
 30
0.0
 42
-0.3152987888784035
  0
VERTEX
  5
2116
  8
SAPA_PROFIL
 62
     4
 10
-31.18398001499212
 20
-60.799999999998718
 30
0.0
  0
VERTEX
  5
2117
  8
SAPA_PROFIL
 62
     4
 10
-32.565479600196561
 20
-60.799999999997127
 30
0.0
 42
-0.2539676464741841
  0
VERTEX
  5
2118
  8
SAPA_PROFIL
 62
     4
 10
-32.817080770580631
 20
-60.663391710501848
 30
0.0
  0
VERTEX
  5
2119
  8
SAPA_PROFIL
 62
     4
 10
-33.081104048957272
 20
-60.256831514496881
 30
0.0
 42
-0.5862177598324623
  0
VERTEX
  5
211A
  8
SAPA_PROFIL
 62
     4
 10
-32.825362233718927
 20
-59.800000000000367
 30
0.0
  0
VERTEX
  5
211B
  8
SAPA_PROFIL
 62
     4
 10
-31.88418755320912
 20
-59.800000000008041
 30
0.0
 42
0.3152987888813165
  0
VERTEX
  5
211C
  8
SAPA_PROFIL
 62
     4
 10
-31.414341242811361
 20
-59.471010071671287
 30
0.0
  0
VERTEX
  5
211D
  8
SAPA_PROFIL
 62
     4
 10
-30.977576961687401
 20
-58.271010071660058
 30
0.0
 42
0.5205670505515651
  0
VERTEX
  5
211E
  8
SAPA_PROFIL
 62
     4
 10
-31.447423272080631
 20
-57.599999999997308
 30
0.0
  0
VERTEX
  5
211F
  8
SAPA_PROFIL
 62
     4
 10
-36.463864212749478
 20
-57.59999999999728
 30
0.0
 42
0.3702522326300203
  0
VERTEX
  5
2120
  8
SAPA_PROFIL
 62
     4
 10
-36.760387574542811
 20
-57.854459952662978
 30
0.0
 42
0.0982365330332397
  0
VERTEX
  5
2121
  8
SAPA_PROFIL
 62
     4
 10
-36.850840332753748
 20
-59.542146727657993
 30
0.0
 42
0.3735060174783164
  0
VERTEX
  5
2122
  8
SAPA_PROFIL
 62
     4
 10
-36.553815664842773
 20
-59.799999999998029
 30
0.0
  0
VERTEX
  5
2123
  8
SAPA_PROFIL
 62
     4
 10
-36.125362233720111
 20
-59.799999999998938
 30
0.0
 42
-0.5920056181162531
  0
VERTEX
  5
2124
  8
SAPA_PROFIL
 62
     4
 10
-35.872353477402712
 20
-60.261203502526861
 30
0.0
  0
VERTEX
  5
2125
  8
SAPA_PROFIL
 62
     4
 10
-36.133537553558412
 20
-60.663391710505167
 30
0.0
 42
-0.2539676464746725
  0
VERTEX
  5
2126
  8
SAPA_PROFIL
 62
     4
 10
-36.385138723942177
 20
-60.800000000000523
 30
0.0
  0
VERTEX
  5
2127
  8
SAPA_PROFIL
 62
     4
 10
-58.612291743307857
 20
-60.799999999998953
 30
0.0
 42
-0.2539676464741819
  0
VERTEX
  5
2128
  8
SAPA_PROFIL
 62
     4
 10
-58.863892913690719
 20
-60.663391710505167
 30
0.0
  0
VERTEX
  5
2129
  8
SAPA_PROFIL
 62
     4
 10
-59.12507698984453
 20
-60.26120350252684
 30
0.0
 42
-0.5920055144124249
  0
VERTEX
  5
212A
  8
SAPA_PROFIL
 62
     4
 10
-58.872068233529021
 20
-59.799999999998953
 30
0.0
  0
VERTEX
  5
212B
  8
SAPA_PROFIL
 62
     4
 10
-58.443614756238802
 20
-59.80000002527396
 30
0.0
 42
0.3735060174775405
  0
VERTEX
  5
212C
  8
SAPA_PROFIL
 62
     4
 10
-58.146590088329113
 20
-59.54214675293386
 30
0.0
 42
0.0355900683670349
  0
VERTEX
  5
212D
  8
SAPA_PROFIL
 62
     4
 10
-58.10269652429686
 20
-58.926273166134081
 30
0.0
 42
0.0624282003873116
  0
VERTEX
  5
212E
  8
SAPA_PROFIL
 62
     4
 10
-58.237042846539801
 20
-57.854459977938951
 30
0.0
 42
0.3702522326309292
  0
VERTEX
  5
212F
  8
SAPA_PROFIL
 62
     4
 10
-58.53356620833317
 20
-57.600000025273232
 30
0.0
  0
VERTEX
  5
2130
  8
SAPA_PROFIL
 62
     4
 10
-63.550007195166678
 20
-57.599999999997102
 30
0.0
 42
0.5205670505515692
  0
VERTEX
  5
2131
  8
SAPA_PROFIL
 62
     4
 10
-64.019853505559908
 20
-58.271010071660072
 30
0.0
  0
VERTEX
  5
2132
  8
SAPA_PROFIL
 62
     4
 10
-63.58308922443495
 20
-59.471010071669511
 30
0.0
 42
0.3152987888807539
  0
VERTEX
  5
2133
  8
SAPA_PROFIL
 62
     4
 10
-63.113242914039098
 20
-59.800000000007138
 30
0.0
  0
VERTEX
  5
2134
  8
SAPA_PROFIL
 62
     4
 10
-62.17206823353002
 20
-59.800000000000317
 30
0.0
 42
-0.5862175119221242
  0
VERTEX
  5
2135
  8
SAPA_PROFIL
 62
     4
 10
-61.916326302548057
 20
-60.256831325755449
 30
0.0
 42
0.0000002084758573
  0
SEQEND
  5
2136
  8
SAPA_PROFIL
 62
     4
  0
POLYLINE
  5
1545
  8
SAPA_PROFIL
 62
     4
 66
     1
 10
0.0
 20
0.0
 30
0.0
  0
VERTEX
  5
2137
  8
SAPA_PROFIL
 62
     4
 10
-38.449386111227192
 20
-33.932281085846718
 30
0.0
 42
-0.5571646428658034
  0
VERTEX
  5
2138
  8
SAPA_PROFIL
 62
     4
 10
-38.98634661536402
 20
-34.800000000002257
 30
0.0
  0
VERTEX
  5
2139
  8
SAPA_PROFIL
 62
     4
 10
-56.011083851885211
 20
-34.800000000001802
 30
0.0
 42
-0.5571645048035741
  0
VERTEX
  5
213A
  8
SAPA_PROFIL
 62
     4
 10
-56.548044468846271
 20
-33.932281312135643
 30
0.0
  0
VERTEX
  5
213B
  8
SAPA_PROFIL
 62
     4
 10
-55.717337381299572
 20
-32.266140656067613
 30
0.0
 42
-0.284385813979063
  0
VERTEX
  5
213C
  8
SAPA_PROFIL
 62
     4
 10
-55.448857072819223
 20
-32.100000000000172
 30
0.0
  0
VERTEX
  5
213D
  8
SAPA_PROFIL
 62
     4
 10
-39.548573394429908
 20
-32.100000000000172
 30
0.0
 42
-0.2843858139786238
  0
VERTEX
  5
213E
  8
SAPA_PROFIL
 62
     4
 10
-39.280093085949623
 20
-32.266140656067101
 30
0.0
  0
VERTEX
  5
213F
  8
SAPA_PROFIL
 62
     4
 10
-38.449385998402462
 20
-33.932281312136453
 30
0.0
  0
SEQEND
  5
2140
  8
SAPA_PROFIL
 62
     4
  0
POLYLINE
  5
1546
  8
SAPA_PROFIL
 62
     4
 66
     1
 10
0.0
 20
0.0
 30
0.0
 70
     1
  0
VERTEX
  5
2141
  8
SAPA_PROFIL
 62
     4
 10
-61.91632641829186
 20
-31.74316848550259
 30
0.0
  0
VERTEX
  5
2142
  8
SAPA_PROFIL
 62
     4
 10
-62.180349696667868
 20
-31.33660828949845
 30
0.0
 42
0.2539676464751066
  0
VERTEX
  5
2143
  8
SAPA_PROFIL
 62
     4
 10
-62.431950867052578
 20
-31.200000000002351
 30
0.0
  0
VERTEX
  5
2144
  8
SAPA_PROFIL
 62
     4
 10
-63.813450452257918
 20
-31.200000000002351
 30
0.0
 42
0.3152987888790479
  0
VERTEX
  5
2145
  8
SAPA_PROFIL
 62
     4
 10
-64.283296762650238
 20
-31.528989928340511
 30
0.0
  0
VERTEX
  5
2146
  8
SAPA_PROFIL
 62
     4
 10
-65.178965703558845
 20
-33.989820118791791
 30
0.0
 42
-0.2694959974287434
  0
VERTEX
  5
2147
  8
SAPA_PROFIL
 62
     4
 10
-65.410484749960204
 20
-34.182952093135683
 30
0.0
 42
-0.0612686379508233
  0
VERTEX
  5
2148
  8
SAPA_PROFIL
 62
     4
 10
-65.703160182813477
 20
-34.196535463766203
 30
0.0
  0
VERTEX
  5
2149
  8
SAPA_PROFIL
 62
     4
 10
-66.052578360121743
 20
-34.398272142495017
 30
0.0
 42
-0.5773502691891679
  0
VERTEX
  5
214A
  8
SAPA_PROFIL
 62
     4
 10
-66.367578360121328
 20
-34.216406807700452
 30
0.0
  0
VERTEX
  5
214B
  8
SAPA_PROFIL
 62
     4
 10
-66.36757836012157
 20
-33.949292279574131
 30
0.0
  0
VERTEX
  5
214C
  8
SAPA_PROFIL
 62
     4
 10
-67.766106060755817
 20
-33.140608818265818
 30
0.0
 42
0.1318219888653519
  0
VERTEX
  5
214D
  8
SAPA_PROFIL
 62
     4
 10
-67.916279163228154
 20
-33.100316421728422
 30
0.0
  0
VERTEX
  5
214E
  8
SAPA_PROFIL
 62
     4
 10
-68.098715233664947
 20
-33.100316421734789
 30
0.0
 42
0.4142135623724291
  0
VERTEX
  5
214F
  8
SAPA_PROFIL
 62
     4
 10
-68.498715233665493
 20
-33.500316421734432
 30
0.0
  0
VERTEX
  5
2150
  8
SAPA_PROFIL
 62
     4
 10
-68.498715233664129
 20
-36.900316421735432
 30
0.0
 42
0.4142135623744271
  0
VERTEX
  5
2151
  8
SAPA_PROFIL
 62
     4
 10
-68.098715233664947
 20
-37.300316421736433
 30
0.0
  0
VERTEX
  5
2152
  8
SAPA_PROFIL
 62
     4
 10
-67.919099991393651
 20
-37.300316421737058
 30
0.0
 42
0.1316524975874005
  0
VERTEX
  5
2153
  8
SAPA_PROFIL
 62
     4
 10
-67.769099991396814
 20
-37.260124042871468
 30
0.0
  0
VERTEX
  5
2154
  8
SAPA_PROFIL
 62
     4
 10
-66.164962094394568
 20
-36.33397459621893
 30
0.0
 42
-0.1316524975875904
  0
VERTEX
  5
2155
  8
SAPA_PROFIL
 62
     4
 10
-65.664962094392862
 20
-36.200000000004167
 30
0.0
  0
VERTEX
  5
2156
  8
SAPA_PROFIL
 62
     4
 10
-65.248715233665493
 20
-36.200000000004167
 30
0.0
 42
-0.4142135623730951
  0
VERTEX
  5
2157
  8
SAPA_PROFIL
 62
     4
 10
-64.248715233665493
 20
-37.200000000004167
 30
0.0
  0
VERTEX
  5
2158
  8
SAPA_PROFIL
 62
     4
 10
-64.248715233665493
 20
-40.200000000001438
 30
0.0
 42
0.9999996830128083
  0
VERTEX
  5
2159
  8
SAPA_PROFIL
 62
     4
 10
-63.2487152336655
 20
-40.20000000000325
 30
0.0
  0
VERTEX
  5
215A
  8
SAPA_PROFIL
 62
     4
 10
-63.2487152336655
 20
-37.200000000003257
 30
0.0
 42
-0.4142135623730951
  0
VERTEX
  5
215B
  8
SAPA_PROFIL
 62
     4
 10
-62.248715233665493
 20
-36.200000000003257
 30
0.0
  0
VERTEX
  5
215C
  8
SAPA_PROFIL
 62
     4
 10
-32.74871523358091
 20
-36.200000000003257
 30
0.0
 42
-0.4142135623730951
  0
VERTEX
  5
215D
  8
SAPA_PROFIL
 62
     4
 10
-31.74871523358091
 20
-37.200000000003271
 30
0.0
  0
VERTEX
  5
215E
  8
SAPA_PROFIL
 62
     4
 10
-31.74871523358091
 20
-40.200000000001438
 30
0.0
 42
0.9999999999999998
  0
VERTEX
  5
215F
  8
SAPA_PROFIL
 62
     4
 10
-30.74871523358091
 20
-40.200000000001438
 30
0.0
  0
VERTEX
  5
2160
  8
SAPA_PROFIL
 62
     4
 10
-30.74871523358091
 20
-37.200000000003271
 30
0.0
 42
-0.4142135623736278
  0
VERTEX
  5
2161
  8
SAPA_PROFIL
 62
     4
 10
-29.74871523358091
 20
-36.200000000003257
 30
0.0
  0
VERTEX
  5
2162
  8
SAPA_PROFIL
 62
     4
 10
-29.33246837285445
 20
-36.200000000003257
 30
0.0
 42
-0.1316524975874375
  0
VERTEX
  5
2163
  8
SAPA_PROFIL
 62
     4
 10
-28.832468372854251
 20
-36.333974596219299
 30
0.0
  0
VERTEX
  5
2164
  8
SAPA_PROFIL
 62
     4
 10
-27.228330475852299
 20
-37.260124042871482
 30
0.0
 42
0.1316524975874
  0
VERTEX
  5
2165
  8
SAPA_PROFIL
 62
     4
 10
-27.078330475852759
 20
-37.300316421737058
 30
0.0
  0
VERTEX
  5
2166
  8
SAPA_PROFIL
 62
     4
 10
-26.898715233581459
 20
-37.300316421736433
 30
0.0
 42
0.4142135623744271
  0
VERTEX
  5
2167
  8
SAPA_PROFIL
 62
     4
 10
-26.498715233582271
 20
-36.900316421735432
 30
0.0
  0
VERTEX
  5
2168
  8
SAPA_PROFIL
 62
     4
 10
-26.49871523358091
 20
-33.500316421734432
 30
0.0
 42
0.4142135623724291
  0
VERTEX
  5
2169
  8
SAPA_PROFIL
 62
     4
 10
-26.898715233581459
 20
-33.100316421734803
 30
0.0
  0
VERTEX
  5
216A
  8
SAPA_PROFIL
 62
     4
 10
-27.081151304018238
 20
-33.100316421728429
 30
0.0
 42
0.1318219888653524
  0
VERTEX
  5
216B
  8
SAPA_PROFIL
 62
     4
 10
-27.231324406490579
 20
-33.140608818265832
 30
0.0
  0
VERTEX
  5
216C
  8
SAPA_PROFIL
 62
     4
 10
-28.62985210697024
 20
-33.949292279490159
 30
0.0
  0
VERTEX
  5
216D
  8
SAPA_PROFIL
 62
     4
 10
-28.62985210697024
 20
-34.216406807703201
 30
0.0
 42
-0.577350269189159
  0
VERTEX
  5
216E
  8
SAPA_PROFIL
 62
     4
 10
-28.944852106969829
 20
-34.39827214249776
 30
0.0
  0
VERTEX
  5
216F
  8
SAPA_PROFIL
 62
     4
 10
-29.294270284188489
 20
-34.196535463820652
 30
0.0
 42
-0.0612687673629489
  0
VERTEX
  5
2170
  8
SAPA_PROFIL
 62
     4
 10
-29.58694571728871
 20
-34.182952093134453
 30
0.0
 42
-0.2694959974285039
  0
VERTEX
  5
2171
  8
SAPA_PROFIL
 62
     4
 10
-29.818464763689231
 20
-33.989820118790497
 30
0.0
  0
VERTEX
  5
2172
  8
SAPA_PROFIL
 62
     4
 10
-30.7141337045989
 20
-31.528989928337339
 30
0.0
 42
0.3152987888784035
  0
VERTEX
  5
2173
  8
SAPA_PROFIL
 62
     4
 10
-31.18398001499212
 20
-31.20000000000076
 30
0.0
  0
VERTEX
  5
2174
  8
SAPA_PROFIL
 62
     4
 10
-32.565479600196561
 20
-31.200000000002351
 30
0.0
 42
0.2539676464741841
  0
VERTEX
  5
2175
  8
SAPA_PROFIL
 62
     4
 10
-32.817080770580631
 20
-31.336608289497629
 30
0.0
  0
VERTEX
  5
2176
  8
SAPA_PROFIL
 62
     4
 10
-33.081104048957272
 20
-31.743168485502601
 30
0.0
 42
0.5862177598324623
  0
VERTEX
  5
2177
  8
SAPA_PROFIL
 62
     4
 10
-32.825362233718927
 20
-32.199999999999108
 30
0.0
  0
VERTEX
  5
2178
  8
SAPA_PROFIL
 62
     4
 10
-31.88418755320912
 20
-32.199999999991441
 30
0.0
 42
-0.3152987888813165
  0
VERTEX
  5
2179
  8
SAPA_PROFIL
 62
     4
 10
-31.414341242811361
 20
-32.528989928328201
 30
0.0
  0
VERTEX
  5
217A
  8
SAPA_PROFIL
 62
     4
 10
-30.977576961687401
 20
-33.728989928339423
 30
0.0
 42
-0.5205670505515651
  0
VERTEX
  5
217B
  8
SAPA_PROFIL
 62
     4
 10
-31.447423272080631
 20
-34.400000000002173
 30
0.0
  0
VERTEX
  5
217C
  8
SAPA_PROFIL
 62
     4
 10
-36.463864212749478
 20
-34.400000000002201
 30
0.0
 42
-0.3702522326300203
  0
VERTEX
  5
217D
  8
SAPA_PROFIL
 62
     4
 10
-36.760387574542811
 20
-34.145540047336503
 30
0.0
 42
-0.0982365330332397
  0
VERTEX
  5
217E
  8
SAPA_PROFIL
 62
     4
 10
-36.850840332753748
 20
-32.457853272341488
 30
0.0
 42
-0.3735060174783164
  0
VERTEX
  5
217F
  8
SAPA_PROFIL
 62
     4
 10
-36.553815664842773
 20
-32.200000000001452
 30
0.0
  0
VERTEX
  5
2180
  8
SAPA_PROFIL
 62
     4
 10
-36.125362233720111
 20
-32.200000000000543
 30
0.0
 42
0.5920056181162531
  0
VERTEX
  5
2181
  8
SAPA_PROFIL
 62
     4
 10
-35.872353477402712
 20
-31.73879649747262
 30
0.0
  0
VERTEX
  5
2182
  8
SAPA_PROFIL
 62
     4
 10
-36.133537553558412
 20
-31.336608289494318
 30
0.0
 42
0.2539676464746725
  0
VERTEX
  5
2183
  8
SAPA_PROFIL
 62
     4
 10
-36.385138723942177
 20
-31.199999999998958
 30
0.0
  0
VERTEX
  5
2184
  8
SAPA_PROFIL
 62
     4
 10
-58.612291743307857
 20
-31.200000000000529
 30
0.0
 42
0.2539676464741819
  0
VERTEX
  5
2185
  8
SAPA_PROFIL
 62
     4
 10
-58.863892913690719
 20
-31.336608289494311
 30
0.0
  0
VERTEX
  5
2186
  8
SAPA_PROFIL
 62
     4
 10
-59.12507698984453
 20
-31.738796497472649
 30
0.0
 42
0.5920055144124249
  0
VERTEX
  5
2187
  8
SAPA_PROFIL
 62
     4
 10
-58.872068233529021
 20
-32.200000000000529
 30
0.0
  0
VERTEX
  5
2188
  8
SAPA_PROFIL
 62
     4
 10
-58.443614756238802
 20
-32.199999974725522
 30
0.0
 42
-0.3735060174775405
  0
VERTEX
  5
2189
  8
SAPA_PROFIL
 62
     4
 10
-58.146590088329113
 20
-32.457853247065621
 30
0.0
 42
-0.0355900683670349
  0
VERTEX
  5
218A
  8
SAPA_PROFIL
 62
     4
 10
-58.10269652429686
 20
-33.0737268338654
 30
0.0
 42
-0.0624282003873116
  0
VERTEX
  5
218B
  8
SAPA_PROFIL
 62
     4
 10
-58.237042846539801
 20
-34.14554002206053
 30
0.0
 42
-0.3702522326309292
  0
VERTEX
  5
218C
  8
SAPA_PROFIL
 62
     4
 10
-58.53356620833317
 20
-34.399999974726249
 30
0.0
  0
VERTEX
  5
218D
  8
SAPA_PROFIL
 62
     4
 10
-63.550007195166678
 20
-34.400000000002393
 30
0.0
 42
-0.5205670505515692
  0
VERTEX
  5
218E
  8
SAPA_PROFIL
 62
     4
 10
-64.019853505559908
 20
-33.728989928339423
 30
0.0
  0
VERTEX
  5
218F
  8
SAPA_PROFIL
 62
     4
 10
-63.58308922443495
 20
-32.52898992832997
 30
0.0
 42
-0.3152987888807539
  0
VERTEX
  5
2190
  8
SAPA_PROFIL
 62
     4
 10
-63.113242914039098
 20
-32.19999999999235
 30
0.0
  0
VERTEX
  5
2191
  8
SAPA_PROFIL
 62
     4
 10
-62.17206823353002
 20
-32.199999999999172
 30
0.0
 42
0.5862175119221242
  0
VERTEX
  5
2192
  8
SAPA_PROFIL
 62
     4
 10
-61.916326302548057
 20
-31.743168674244028
 30
0.0
 42
-0.0000002084758573
  0
SEQEND
  5
2193
  8
SAPA_PROFIL
 62
     4
  0
POLYLINE
  5
1547
  8
SAPA_PROFIL
 62
     4
 66
     1
 10
0.0
 20
0.0
 30
0.0
 70
     1
  0
VERTEX
  5
2194
  8
SAPA_PROFIL
 62
     4
 10
-76.70294355616636
 20
-14.90000000016429
 30
0.0
  0
VERTEX
  5
2195
  8
SAPA_PROFIL
 62
     4
 10
-80.897056105863257
 20
-14.90000000016247
 30
0.0
 42
-0.1989123673786592
  0
VERTEX
  5
2196
  8
SAPA_PROFIL
 62
     4
 10
-81.109188140219089
 20
-14.812132034519021
 30
0.0
  0
VERTEX
  5
2197
  8
SAPA_PROFIL
 62
     4
 10
-83.333452208929984
 20
-12.58786796580811
 30
0.0
 42
0.1989123673785438
  0
VERTEX
  5
2198
  8
SAPA_PROFIL
 62
     4
 10
-83.545584243285816
 20
-12.500000000164651
 30
0.0
  0
VERTEX
  5
2199
  8
SAPA_PROFIL
 62
     4
 10
-83.999999831014179
 20
-12.50000000016647
 30
0.0
 42
0.4142135623730951
  0
VERTEX
  5
219A
  8
SAPA_PROFIL
 62
     4
 10
-84.299999831014375
 20
-12.80000000016574
 30
0.0
  0
VERTEX
  5
219B
  8
SAPA_PROFIL
 62
     4
 10
-84.299999831014375
 20
-24.700000000162841
 30
0.0
 42
-0.4142135623730951
  0
VERTEX
  5
219C
  8
SAPA_PROFIL
 62
     4
 10
-84.799999831014361
 20
-25.200000000162831
 30
0.0
  0
VERTEX
  5
219D
  8
SAPA_PROFIL
 62
     4
 10
-86.499999831014179
 20
-25.200000000162831
 30
0.0
 42
0.4142135623739832
  0
VERTEX
  5
219E
  8
SAPA_PROFIL
 62
     4
 10
-86.799999831014375
 20
-25.50000000016211
 30
0.0
  0
VERTEX
  5
219F
  8
SAPA_PROFIL
 62
     4
 10
-86.799999831014375
 20
-29.200000000163559
 30
0.0
 42
0.414213562375759
  0
VERTEX
  5
21A0
  8
SAPA_PROFIL
 62
     4
 10
-86.499999831014179
 20
-29.500000000164661
 30
0.0
  0
VERTEX
  5
21A1
  8
SAPA_PROFIL
 62
     4
 10
-70.006576700611163
 20
-29.500000000162839
 30
0.0
 42
0.4142135623735391
  0
VERTEX
  5
21A2
  8
SAPA_PROFIL
 62
     4
 10
-69.706576700611436
 20
-29.200000000163559
 30
0.0
  0
VERTEX
  5
21A3
  8
SAPA_PROFIL
 62
     4
 10
-69.706576700611436
 20
-12.800000000165751
 30
0.0
 42
0.4142135623726511
  0
VERTEX
  5
21A4
  8
SAPA_PROFIL
 62
     4
 10
-70.006576700611163
 20
-12.500000000164659
 30
0.0
  0
VERTEX
  5
21A5
  8
SAPA_PROFIL
 62
     4
 10
-74.054415418741996
 20
-12.500000000164659
 30
0.0
 42
0.1989123673785438
  0
VERTEX
  5
21A6
  8
SAPA_PROFIL
 62
     4
 10
-74.266547453097814
 20
-12.58786796580811
 30
0.0
  0
VERTEX
  5
21A7
  8
SAPA_PROFIL
 62
     4
 10
-76.490811521810542
 20
-14.812132034520831
 30
0.0
 42
-0.1989123673798886
  0
SEQEND
  5
21A8
  8
SAPA_PROFIL
 62
     4
  0
POLYLINE
  5
1548
  8
SAPA_PROFIL
 62
     4
 66
     1
 10
0.0
 20
0.0
 30
0.0
 70
     1
  0
VERTEX
  5
21A9
  8
SAPA_PROFIL
 62
     4
 10
-57.181576700611352
 20
-29.500000000162839
 30
0.0
  0
VERTEX
  5
21AA
  8
SAPA_PROFIL
 62
     4
 10
-68.106576700611072
 20
-29.500000000162839
 30
0.0
 42
-0.4142135623732061
  0
VERTEX
  5
21AB
  8
SAPA_PROFIL
 62
     4
 10
-68.406576700611254
 20
-29.200000000163559
 30
0.0
  0
VERTEX
  5
21AC
  8
SAPA_PROFIL
 62
     4
 10
-68.406576700611254
 20
-12.800000000165751
 30
0.0
 42
-0.4142135623730951
  0
VERTEX
  5
21AD
  8
SAPA_PROFIL
 62
     4
 10
-68.106576700611072
 20
-12.500000000164659
 30
0.0
  0
VERTEX
  5
21AE
  8
SAPA_PROFIL
 62
     4
 10
-57.181576700611352
 20
-12.500000000164659
 30
0.0
 42
-0.4142135623731173
  0
VERTEX
  5
21AF
  8
SAPA_PROFIL
 62
     4
 10
-56.881576700611163
 20
-12.800000000165751
 30
0.0
  0
VERTEX
  5
21B0
  8
SAPA_PROFIL
 62
     4
 10
-56.881576700611163
 20
-29.200000000163559
 30
0.0
 42
-0.4142135623730951
  0
SEQEND
  5
21B1
  8
SAPA_PROFIL
 62
     4
  0
POLYLINE
  5
1549
  8
SAPA_PROFIL
 62
     4
 66
     1
 10
0.0
 20
0.0
 30
0.0
  0
VERTEX
  5
21B2
  8
SAPA_PROFIL
 62
     4
 10
-55.581576700611429
 20
-12.800000000165751
 30
0.0
 42
-0.4142135623731173
  0
VERTEX
  5
21B3
  8
SAPA_PROFIL
 62
     4
 10
-55.281576700611247
 20
-12.500000000164659
 30
0.0
  0
VERTEX
  5
21B4
  8
SAPA_PROFIL
 62
     4
 10
-47.499999831014406
 20
-12.50000000016648
 30
0.0
 42
-0.4142135623730951
  0
VERTEX
  5
21B5
  8
SAPA_PROFIL
 62
     4
 10
-46.999999831014406
 20
-13.00000000016648
 30
0.0
  0
VERTEX
  5
21B6
  8
SAPA_PROFIL
 62
     4
 10
-46.999999831014406
 20
-29.000000000164661
 30
0.0
 42
-0.4142135623730951
  0
VERTEX
  5
21B7
  8
SAPA_PROFIL
 62
     4
 10
-47.499999831014406
 20
-29.500000000164661
 30
0.0
  0
VERTEX
  5
21B8
  8
SAPA_PROFIL
 62
     4
 10
-55.281576700611247
 20
-29.500000000162839
 30
0.0
 42
-0.4142135623730951
  0
VERTEX
  5
21B9
  8
SAPA_PROFIL
 62
     4
 10
-55.581576700611429
 20
-29.20000000016357
 30
0.0
  0
VERTEX
  5
21BA
  8
SAPA_PROFIL
 62
     4
 10
-55.581576700611429
 20
-12.800000000165751
 30
0.0
  0
SEQEND
  5
21BB
  8
SAPA_PROFIL
 62
     4
  0
POLYLINE
  5
154A
  8
SAPA_PROFIL
 62
     4
 66
     1
 10
0.0
 20
0.0
 30
0.0
 70
     1
  0
VERTEX
  5
21BC
  8
SAPA_PROFIL
 62
     4
 10
-45.999999831014392
 20
-11.00000000016648
 30
0.0
  0
VERTEX
  5
21BD
  8
SAPA_PROFIL
 62
     4
 10
-74.675735762301997
 20
-11.000000000164659
 30
0.0
 42
0.1989123673799843
  0
VERTEX
  5
21BE
  8
SAPA_PROFIL
 62
     4
 10
-74.887867796658725
 20
-11.087867965809931
 30
0.0
  0
VERTEX
  5
21BF
  8
SAPA_PROFIL
 62
     4
 10
-77.112131865369633
 20
-13.312132034520831
 30
0.0
 42
-0.1989123673811184
  0
VERTEX
  5
21C0
  8
SAPA_PROFIL
 62
     4
 10
-77.324263899725452
 20
-13.40000000016429
 30
0.0
  0
VERTEX
  5
21C1
  8
SAPA_PROFIL
 62
     4
 10
-80.27573576230327
 20
-13.40000000016247
 30
0.0
 42
-0.1989123673785438
  0
VERTEX
  5
21C2
  8
SAPA_PROFIL
 62
     4
 10
-80.487867796659074
 20
-13.31213203451901
 30
0.0
  0
VERTEX
  5
21C3
  8
SAPA_PROFIL
 62
     4
 10
-82.712131865370907
 20
-11.08786796580811
 30
0.0
 42
0.1989123673785438
  0
VERTEX
  5
21C4
  8
SAPA_PROFIL
 62
     4
 10
-82.924263899726725
 20
-11.000000000164651
 30
0.0
  0
VERTEX
  5
21C5
  8
SAPA_PROFIL
 62
     4
 10
-85.299999831014361
 20
-11.00000000016647
 30
0.0
 42
0.4142135623730951
  0
VERTEX
  5
21C6
  8
SAPA_PROFIL
 62
     4
 10
-85.799999831014347
 20
-11.50000000016647
 30
0.0
  0
VERTEX
  5
21C7
  8
SAPA_PROFIL
 62
     4
 10
-85.799999831014347
 20
-23.400000000163558
 30
0.0
 42
-0.414213562373761
  0
VERTEX
  5
21C8
  8
SAPA_PROFIL
 62
     4
 10
-86.099999831014543
 20
-23.700000000162831
 30
0.0
  0
VERTEX
  5
21C9
  8
SAPA_PROFIL
 62
     4
 10
-87.799999831014361
 20
-23.700000000162831
 30
0.0
 42
0.4142135623730951
  0
VERTEX
  5
21CA
  8
SAPA_PROFIL
 62
     4
 10
-88.299999831014347
 20
-24.200000000162841
 30
0.0
  0
VERTEX
  5
21CB
  8
SAPA_PROFIL
 62
     4
 10
-88.299999831014347
 20
-30.500000000164661
 30
0.0
 42
0.4142135623730951
  0
VERTEX
  5
21CC
  8
SAPA_PROFIL
 62
     4
 10
-87.799999831014361
 20
-31.000000000164661
 30
0.0
  0
VERTEX
  5
21CD
  8
SAPA_PROFIL
 62
     4
 10
-86.799999831013992
 20
-31.000000000162832
 30
0.0
 42
-0.414213562373539
  0
VERTEX
  5
21CE
  8
SAPA_PROFIL
 62
     4
 10
-86.499999831014037
 20
-31.300000000162111
 30
0.0
  0
VERTEX
  5
21CF
  8
SAPA_PROFIL
 62
     4
 10
-86.499999831014506
 20
-32.90000000016429
 30
0.0
 42
-0.4142135623735391
  0
VERTEX
  5
21D0
  8
SAPA_PROFIL
 62
     4
 10
-86.799999831014219
 20
-33.200000000163563
 30
0.0
  0
VERTEX
  5
21D1
  8
SAPA_PROFIL
 62
     4
 10
-87.099999831013861
 20
-33.200000000161737
 30
0.0
 42
0.592337729603611
  0
VERTEX
  5
21D2
  8
SAPA_PROFIL
 62
     4
 10
-87.352849913618115
 20
-33.661452270903318
 30
0.0
  0
VERTEX
  5
21D3
  8
SAPA_PROFIL
 62
     4
 10
-86.075790645321263
 20
-35.361452270904053
 30
0.0
 42
0.2560149538738706
  0
VERTEX
  5
21D4
  8
SAPA_PROFIL
 62
     4
 10
-85.822940562716099
 20
-35.500000000164661
 30
0.0
  0
VERTEX
  5
21D5
  8
SAPA_PROFIL
 62
     4
 10
-85.599999831013491
 20
-35.500000000164661
 30
0.0
 42
0.4142135623733169
  0
VERTEX
  5
21D6
  8
SAPA_PROFIL
 62
     4
 10
-85.299999831014219
 20
-35.200000000165382
 30
0.0
  0
VERTEX
  5
21D7
  8
SAPA_PROFIL
 62
     4
 10
-85.299999831014219
 20
-31.300000000162111
 30
0.0
 42
-0.414213562373539
  0
VERTEX
  5
21D8
  8
SAPA_PROFIL
 62
     4
 10
-84.999999831014264
 20
-31.000000000162832
 30
0.0
  0
VERTEX
  5
21D9
  8
SAPA_PROFIL
 62
     4
 10
-73.999999831014094
 20
-31.000000000164661
 30
0.0
 42
-0.414213562373539
  0
VERTEX
  5
21DA
  8
SAPA_PROFIL
 62
     4
 10
-73.699999831014139
 20
-31.30000000016393
 30
0.0
  0
VERTEX
  5
21DB
  8
SAPA_PROFIL
 62
     4
 10
-73.699999831014139
 20
-35.200000000165382
 30
0.0
 42
0.4142135623730951
  0
VERTEX
  5
21DC
  8
SAPA_PROFIL
 62
     4
 10
-73.399999831014867
 20
-35.500000000164661
 30
0.0
  0
VERTEX
  5
21DD
  8
SAPA_PROFIL
 62
     4
 10
-73.17705909931226
 20
-35.500000000164661
 30
0.0
 42
0.2560149538738705
  0
VERTEX
  5
21DE
  8
SAPA_PROFIL
 62
     4
 10
-72.924209016707096
 20
-35.361452270904053
 30
0.0
  0
VERTEX
  5
21DF
  8
SAPA_PROFIL
 62
     4
 10
-71.647149748410243
 20
-33.661452270903318
 30
0.0
 42
0.592337729603611
  0
VERTEX
  5
21E0
  8
SAPA_PROFIL
 62
     4
 10
-71.899999831014497
 20
-33.200000000161737
 30
0.0
  0
VERTEX
  5
21E1
  8
SAPA_PROFIL
 62
     4
 10
-72.199999831014139
 20
-33.200000000163563
 30
0.0
 42
-0.4142135623735391
  0
VERTEX
  5
21E2
  8
SAPA_PROFIL
 62
     4
 10
-72.499999831013866
 20
-32.90000000016429
 30
0.0
  0
VERTEX
  5
21E3
  8
SAPA_PROFIL
 62
     4
 10
-72.499999831014321
 20
-31.30000000016393
 30
0.0
 42
-0.414213562373539
  0
VERTEX
  5
21E4
  8
SAPA_PROFIL
 62
     4
 10
-72.199999831014367
 20
-31.000000000164661
 30
0.0
  0
VERTEX
  5
21E5
  8
SAPA_PROFIL
 62
     4
 10
-45.999999831014399
 20
-31.000000000168299
 30
0.0
 42
0.414213562373126
  0
VERTEX
  5
21E6
  8
SAPA_PROFIL
 62
     4
 10
-45.499999831014399
 20
-30.500000000168299
 30
0.0
  0
VERTEX
  5
21E7
  8
SAPA_PROFIL
 62
     4
 10
-45.499999831014392
 20
-11.50000000016648
 30
0.0
 42
0.4142135623730951
  0
SEQEND
  5
21E8
  8
SAPA_PROFIL
 62
     4
  0
POLYLINE
  5
154B
  8
SAPA_PROFIL
 66
     1
 10
0.0
 20
0.0
 30
0.0
 70
     1
  0
VERTEX
  5
21E9
  8
SAPA_PROFIL
 10
-92.499999999011763
 20
-11.938375275004519
 30
0.0
 42
-0.2216946626428728
  0
VERTEX
  5
21EA
  8
SAPA_PROFIL
 10
-92.857212389325284
 20
-12.70441971812315
 30
0.0
  0
VERTEX
  5
21EB
  8
SAPA_PROFIL
 10
-94.142787608696437
 20
-13.783145410548039
 30
0.0
 42
0.2216946626428911
  0
VERTEX
  5
21EC
  8
SAPA_PROFIL
 10
-94.499999999009901
 20
-14.54918985366678
 30
0.0
  0
VERTEX
  5
21ED
  8
SAPA_PROFIL
 10
-94.499999999010413
 20
-16.325735931288339
 30
0.0
 42
-0.1989123673796749
  0
VERTEX
  5
21EE
  8
SAPA_PROFIL
 10
-94.587867964654322
 20
-16.537867965644612
 30
0.0
  0
VERTEX
  5
21EF
  8
SAPA_PROFIL
 10
-95.158578642773065
 20
-17.108578643762922
 30
0.0
 42
-0.6681786379193591
  0
VERTEX
  5
21F0
  8
SAPA_PROFIL
 10
-95.499999999010413
 20
-16.967157287525399
 30
0.0
  0
VERTEX
  5
21F1
  8
SAPA_PROFIL
 10
-95.499999999010186
 20
-16.000000000000199
 30
0.0
 42
0.4142135623730951
  0
VERTEX
  5
21F2
  8
SAPA_PROFIL
 10
-95.999999999009958
 20
-15.500000000000201
 30
0.0
  0
VERTEX
  5
21F3
  8
SAPA_PROFIL
 10
-96.390808928730564
 20
-15.500000000000201
 30
0.0
 42
0.1763269807084316
  0
VERTEX
  5
21F4
  8
SAPA_PROFIL
 10
-96.583645211636323
 20
-15.570186667064471
 30
0.0
  0
VERTEX
  5
21F5
  8
SAPA_PROFIL
 10
-98.321393803853141
 20
-17.028330869872409
 30
0.0
 42
0.2216946626429586
  0
VERTEX
  5
21F6
  8
SAPA_PROFIL
 10
-98.499999999009901
 20
-17.411353091431899
 30
0.0
  0
VERTEX
  5
21F7
  8
SAPA_PROFIL
 10
-98.499999999009972
 20
-19.981908440199248
 30
0.0
 42
0.2216946626429592
  0
VERTEX
  5
21F8
  8
SAPA_PROFIL
 10
-98.392836281916004
 20
-20.211721773135181
 30
0.0
  0
VERTEX
  5
21F9
  8
SAPA_PROFIL
 10
-96.583645211636352
 20
-21.729813332935901
 30
0.0
 42
0.1763269807084563
  0
VERTEX
  5
21FA
  8
SAPA_PROFIL
 10
-96.390808928730578
 20
-21.800000000000161
 30
0.0
  0
VERTEX
  5
21FB
  8
SAPA_PROFIL
 10
-95.999999999009972
 20
-21.800000000000161
 30
0.0
 42
0.4142135623730951
  0
VERTEX
  5
21FC
  8
SAPA_PROFIL
 10
-95.499999999010427
 20
-21.300000000000161
 30
0.0
  0
VERTEX
  5
21FD
  8
SAPA_PROFIL
 10
-95.499999999010427
 20
-20.33284271247474
 30
0.0
 42
-0.6681786379193841
  0
VERTEX
  5
21FE
  8
SAPA_PROFIL
 10
-95.158578642773094
 20
-20.191421356237679
 30
0.0
  0
VERTEX
  5
21FF
  8
SAPA_PROFIL
 10
-94.587867964654336
 20
-20.76213203435643
 30
0.0
 42
-0.1989123673796471
  0
VERTEX
  5
2200
  8
SAPA_PROFIL
 10
-94.499999999009972
 20
-20.974264068712252
 30
0.0
  0
VERTEX
  5
2201
  8
SAPA_PROFIL
 10
-94.499999999010427
 20
-23.300000000000161
 30
0.0
 42
-0.4142135623730951
  0
VERTEX
  5
2202
  8
SAPA_PROFIL
 10
-94.999999999010413
 20
-23.800000000000161
 30
0.0
  0
VERTEX
  5
2203
  8
SAPA_PROFIL
 10
-98.699999999010316
 20
-23.800000000000729
 30
0.0
 42
-0.4142135623729843
  0
VERTEX
  5
2204
  8
SAPA_PROFIL
 10
-98.999999999010484
 20
-23.500000000000661
 30
0.0
  0
VERTEX
  5
2205
  8
SAPA_PROFIL
 10
-98.99999999901037
 20
-22.473205080758341
 30
0.0
 42
0.26794919243117
  0
VERTEX
  5
2206
  8
SAPA_PROFIL
 10
-99.149999999010475
 20
-22.213397459622659
 30
0.0
  0
VERTEX
  5
2207
  8
SAPA_PROFIL
 10
-100.6580771356047
 20
-21.342708718851419
 30
0.0
 42
0.4142135623734465
  0
VERTEX
  5
2208
  8
SAPA_PROFIL
 10
-101.06788475674
 20
-21.452516339986659
 30
0.0
  0
VERTEX
  5
2209
  8
SAPA_PROFIL
 10
-101.38397459522599
 20
-22.000000000000551
 30
0.0
 42
-0.4663076581550835
  0
VERTEX
  5
220A
  8
SAPA_PROFIL
 10
-102.89278760869681
 20
-22.266044443119519
 30
0.0
  0
VERTEX
  5
220B
  8
SAPA_PROFIL
 10
-106.3928362819162
 20
-19.329154892317302
 30
0.0
 42
-0.2216946626429129
  0
VERTEX
  5
220C
  8
SAPA_PROFIL
 10
-106.4999999990102
 20
-19.09934155938161
 30
0.0
  0
VERTEX
  5
220D
  8
SAPA_PROFIL
 10
-106.4999999990102
 20
-17.950000000000021
 30
0.0
 42
-0.4142135623732061
  0
VERTEX
  5
220E
  8
SAPA_PROFIL
 10
-106.1999999990102
 20
-17.65000000000007
 30
0.0
  0
VERTEX
  5
220F
  8
SAPA_PROFIL
 10
-102.6932604937618
 20
-17.650000000000642
 30
0.0
 42
0.1763269807085094
  0
VERTEX
  5
2210
  8
SAPA_PROFIL
 10
-102.05047288407511
 20
-17.41604444311961
 30
0.0
  0
VERTEX
  5
2211
  8
SAPA_PROFIL
 10
-99.307163716104014
 20
-15.114134732069809
 30
0.0
 42
0.2216946626429509
  0
VERTEX
  5
2212
  8
SAPA_PROFIL
 10
-99.199999999009947
 20
-14.884321399134111
 30
0.0
  0
VERTEX
  5
2213
  8
SAPA_PROFIL
 10
-99.199999999009947
 20
-14.02421369658064
 30
0.0
 42
-0.4142135623731506
  0
VERTEX
  5
2214
  8
SAPA_PROFIL
 10
-98.899999999009935
 20
-13.72421369658068
 30
0.0
  0
VERTEX
  5
2215
  8
SAPA_PROFIL
 10
-97.759911398916984
 20
-13.72421369658068
 30
0.0
 42
0.1763269807084654
  0
VERTEX
  5
2216
  8
SAPA_PROFIL
 10
-97.567075116011054
 20
-13.654027029516421
 30
0.0
  0
VERTEX
  5
2217
  8
SAPA_PROFIL
 10
-95.557212389323297
 20
-11.96755195683577
 30
0.0
 42
0.2216946626429509
  0
VERTEX
  5
2218
  8
SAPA_PROFIL
 10
-95.199999999009833
 20
-11.2015075137168
 30
0.0
  0
VERTEX
  5
2219
  8
SAPA_PROFIL
 10
-95.199999999009947
 20
11.201507513716839
 30
0.0
 42
0.2216946626429508
  0
VERTEX
  5
221A
  8
SAPA_PROFIL
 10
-95.557212389323396
 20
11.967551956835811
 30
0.0
  0
VERTEX
  5
221B
  8
SAPA_PROFIL
 10
-97.567075116011154
 20
13.65402702951646
 30
0.0
 42
0.1763269807084657
  0
VERTEX
  5
221C
  8
SAPA_PROFIL
 10
-97.759911398917097
 20
13.724213696580721
 30
0.0
  0
VERTEX
  5
221D
  8
SAPA_PROFIL
 10
-98.899999999009935
 20
13.724213696580721
 30
0.0
 42
-0.4142135623730951
  0
VERTEX
  5
221E
  8
SAPA_PROFIL
 10
-99.19999999900989
 20
14.024213696580681
 30
0.0
  0
VERTEX
  5
221F
  8
SAPA_PROFIL
 10
-99.19999999900989
 20
14.88432139913415
 30
0.0
 42
0.2216946626429889
  0
VERTEX
  5
2220
  8
SAPA_PROFIL
 10
-99.307163716103958
 20
15.11413473206985
 30
0.0
  0
VERTEX
  5
2221
  8
SAPA_PROFIL
 10
-102.05047288407521
 20
17.416044443119649
 30
0.0
 42
0.1763269807085052
  0
VERTEX
  5
2222
  8
SAPA_PROFIL
 10
-102.6932604937619
 20
17.650000000000681
 30
0.0
  0
VERTEX
  5
2223
  8
SAPA_PROFIL
 10
-106.1999999990101
 20
17.649999999999999
 30
0.0
 42
-0.4142135623732062
  0
VERTEX
  5
2224
  8
SAPA_PROFIL
 10
-106.4999999990102
 20
17.94999999999995
 30
0.0
  0
VERTEX
  5
2225
  8
SAPA_PROFIL
 10
-106.4999999990102
 20
19.099341559381529
 30
0.0
 42
-0.2216946626429129
  0
VERTEX
  5
2226
  8
SAPA_PROFIL
 10
-106.3928362819162
 20
19.329154892317231
 30
0.0
  0
VERTEX
  5
2227
  8
SAPA_PROFIL
 10
-102.89278760869691
 20
22.266044443119561
 30
0.0
 42
-0.4663076581550919
  0
VERTEX
  5
2228
  8
SAPA_PROFIL
 10
-101.38397459522599
 20
22.00000000000059
 30
0.0
  0
VERTEX
  5
2229
  8
SAPA_PROFIL
 10
-101.06788475674
 20
21.452516339986708
 30
0.0
 42
0.4142135623731708
  0
VERTEX
  5
222A
  8
SAPA_PROFIL
 10
-100.6580771356047
 20
21.342708718851458
 30
0.0
  0
VERTEX
  5
222B
  8
SAPA_PROFIL
 10
-99.149999999010447
 20
22.213397459622708
 30
0.0
 42
0.26794919243117
  0
VERTEX
  5
222C
  8
SAPA_PROFIL
 10
-98.999999999010356
 20
22.47320508075838
 30
0.0
  0
VERTEX
  5
222D
  8
SAPA_PROFIL
 10
-98.999999999010356
 20
23.5000000000007
 30
0.0
 42
-0.4142135623729287
  0
VERTEX
  5
222E
  8
SAPA_PROFIL
 10
-98.699999999010288
 20
23.800000000000772
 30
0.0
  0
VERTEX
  5
222F
  8
SAPA_PROFIL
 10
-94.999999999010399
 20
23.8000000000002
 30
0.0
 42
-0.4142135623730951
  0
VERTEX
  5
2230
  8
SAPA_PROFIL
 10
-94.499999999010413
 20
23.3000000000002
 30
0.0
  0
VERTEX
  5
2231
  8
SAPA_PROFIL
 10
-94.499999999009944
 20
20.974264068712291
 30
0.0
 42
-0.1989123673796819
  0
VERTEX
  5
2232
  8
SAPA_PROFIL
 10
-94.587867964654322
 20
20.762132034356469
 30
0.0
  0
VERTEX
  5
2233
  8
SAPA_PROFIL
 10
-95.158578642773065
 20
20.191421356237718
 30
0.0
 42
-0.6681786379193841
  0
VERTEX
  5
2234
  8
SAPA_PROFIL
 10
-95.499999999010413
 20
20.332842712474768
 30
0.0
  0
VERTEX
  5
2235
  8
SAPA_PROFIL
 10
-95.499999999010413
 20
21.3000000000002
 30
0.0
 42
0.4142135623730951
  0
VERTEX
  5
2236
  8
SAPA_PROFIL
 10
-95.999999999009958
 20
21.80000000000021
 30
0.0
  0
VERTEX
  5
2237
  8
SAPA_PROFIL
 10
-96.390808928730564
 20
21.80000000000021
 30
0.0
 42
0.1763269807084561
  0
VERTEX
  5
2238
  8
SAPA_PROFIL
 10
-96.583645211636323
 20
21.72981333293594
 30
0.0
  0
VERTEX
  5
2239
  8
SAPA_PROFIL
 10
-98.392836281916004
 20
20.211721773135221
 30
0.0
 42
0.2216946626429592
  0
VERTEX
  5
223A
  8
SAPA_PROFIL
 10
-98.499999999009958
 20
19.981908440199302
 30
0.0
  0
VERTEX
  5
223B
  8
SAPA_PROFIL
 10
-98.499999999009901
 20
17.411353091431941
 30
0.0
 42
0.2216946626429736
  0
VERTEX
  5
223C
  8
SAPA_PROFIL
 10
-98.321393803853141
 20
17.028330869872448
 30
0.0
  0
VERTEX
  5
223D
  8
SAPA_PROFIL
 10
-96.583645211636323
 20
15.57018666706451
 30
0.0
 42
0.1763269807084407
  0
VERTEX
  5
223E
  8
SAPA_PROFIL
 10
-96.390808928730564
 20
15.50000000000024
 30
0.0
  0
VERTEX
  5
223F
  8
SAPA_PROFIL
 10
-95.999999999009958
 20
15.50000000000024
 30
0.0
 42
0.4142135623730951
  0
VERTEX
  5
2240
  8
SAPA_PROFIL
 10
-95.499999999010413
 20
16.000000000000249
 30
0.0
  0
VERTEX
  5
2241
  8
SAPA_PROFIL
 10
-95.499999999010413
 20
16.967157287525438
 30
0.0
 42
-0.6681786379193591
  0
VERTEX
  5
2242
  8
SAPA_PROFIL
 10
-95.158578642773065
 20
17.108578643762961
 30
0.0
  0
VERTEX
  5
2243
  8
SAPA_PROFIL
 10
-94.587867964654322
 20
16.537867965644661
 30
0.0
 42
-0.1989123673796749
  0
VERTEX
  5
2244
  8
SAPA_PROFIL
 10
-94.499999999010413
 20
16.325735931288381
 30
0.0
  0
VERTEX
  5
2245
  8
SAPA_PROFIL
 10
-94.499999999009901
 20
14.549189853666929
 30
0.0
 42
0.2216946626428804
  0
VERTEX
  5
2246
  8
SAPA_PROFIL
 10
-94.142787608696381
 20
13.78314541054819
 30
0.0
  0
VERTEX
  5
2247
  8
SAPA_PROFIL
 10
-92.857212389325241
 20
12.704419718123191
 30
0.0
 42
-0.2216946626428499
  0
VERTEX
  5
2248
  8
SAPA_PROFIL
 10
-92.499999999011763
 20
11.93837527500456
 30
0.0
  0
VERTEX
  5
2249
  8
SAPA_PROFIL
 10
-92.499999999009958
 20
6.6500000000001078
 30
0.0
 42
0.4142135623730951
  0
VERTEX
  5
224A
  8
SAPA_PROFIL
 10
-92.199999999010231
 20
6.3499999999999259
 30
0.0
  0
VERTEX
  5
224B
  8
SAPA_PROFIL
 10
-91.79999999901014
 20
6.3499999999999259
 30
0.0
 42
-0.4142135623730951
  0
VERTEX
  5
224C
  8
SAPA_PROFIL
 10
-91.499999999009958
 20
6.0500000000001988
 30
0.0
  0
VERTEX
  5
224D
  8
SAPA_PROFIL
 10
-91.499999999009958
 20
5.6500000000001078
 30
0.0
 42
-0.4142135623730951
  0
VERTEX
  5
224E
  8
SAPA_PROFIL
 10
-91.79999999901014
 20
5.3499999999999259
 30
0.0
  0
VERTEX
  5
224F
  8
SAPA_PROFIL
 10
-92.199999999010231
 20
5.3499999999999259
 30
0.0
 42
0.4142135623730951
  0
VERTEX
  5
2250
  8
SAPA_PROFIL
 10
-92.499999999009958
 20
5.0500000000001988
 30
0.0
  0
VERTEX
  5
2251
  8
SAPA_PROFIL
 10
-92.499999999009958
 20
0.624264068711927
 30
0.0
 42
-0.1989123673795535
  0
VERTEX
  5
2252
  8
SAPA_PROFIL
 10
-92.587867964653853
 20
0.4121320343561088
 30
0.0
  0
VERTEX
  5
2253
  8
SAPA_PROFIL
 10
-92.999999999009944
 20
0.0000000000000178
 30
0.0
  0
VERTEX
  5
2254
  8
SAPA_PROFIL
 10
-92.587867964653853
 20
-0.4121320343560733
 30
0.0
 42
-0.1989123673795536
  0
VERTEX
  5
2255
  8
SAPA_PROFIL
 10
-92.499999999009958
 20
-0.6242640687118916
 30
0.0
  0
VERTEX
  5
2256
  8
SAPA_PROFIL
 10
-92.499999999009958
 20
-5.0499999999997094
 30
0.0
 42
0.4142135623730951
  0
VERTEX
  5
2257
  8
SAPA_PROFIL
 10
-92.199999999010231
 20
-5.3499999999998913
 30
0.0
  0
VERTEX
  5
2258
  8
SAPA_PROFIL
 10
-91.79999999901014
 20
-5.3499999999998913
 30
0.0
 42
-0.4142135623730951
  0
VERTEX
  5
2259
  8
SAPA_PROFIL
 10
-91.499999999009958
 20
-5.6500000000000732
 30
0.0
  0
VERTEX
  5
225A
  8
SAPA_PROFIL
 10
-91.499999999009958
 20
-6.0500000000001641
 30
0.0
 42
-0.4142135623730951
  0
VERTEX
  5
225B
  8
SAPA_PROFIL
 10
-91.79999999901014
 20
-6.3499999999998913
 30
0.0
  0
VERTEX
  5
225C
  8
SAPA_PROFIL
 10
-92.199999999010231
 20
-6.3499999999998913
 30
0.0
 42
0.414213562373095
  0
VERTEX
  5
225D
  8
SAPA_PROFIL
 10
-92.499999999009958
 20
-6.6500000000000732
 30
0.0
  0
SEQEND
  5
225E
  8
SAPA_PROFIL
  0
POLYLINE
  5
154C
  8
SAPA_PROFIL
 66
     1
 10
0.0
 20
0.0
 30
0.0
 70
     1
  0
VERTEX
  5
225F
  8
SAPA_PROFIL
 10
48.799999999999038
 20
45.000000000000341
 30
0.0
  0
VERTEX
  5
2260
  8
SAPA_PROFIL
 10
50.799999999999052
 20
45.000000000000341
 30
0.0
  0
VERTEX
  5
2261
  8
SAPA_PROFIL
 10
50.799999999999052
 20
30.65685424949277
 30
0.0
  0
VERTEX
  5
2262
  8
SAPA_PROFIL
 10
45.143145750506612
 20
25.000000000000341
 30
0.0
  0
VERTEX
  5
2263
  8
SAPA_PROFIL
 10
25.799999999999049
 20
25.000000000000341
 30
0.0
  0
VERTEX
  5
2264
  8
SAPA_PROFIL
 10
25.799999999999049
 20
27.000000000000341
 30
0.0
  0
VERTEX
  5
2265
  8
SAPA_PROFIL
 10
31.107179676971551
 20
27.000000000000341
 30
0.0
  0
VERTEX
  5
2266
  8
SAPA_PROFIL
 10
31.799999999999049
 20
26.600000000000481
 30
0.0
  0
VERTEX
  5
2267
  8
SAPA_PROFIL
 10
32.492820323026763
 20
27.000000000000341
 30
0.0
  0
VERTEX
  5
2268
  8
SAPA_PROFIL
 10
43.486291501014421
 20
27.000000000000341
 30
0.0
 42
0.1989123673796584
  0
VERTEX
  5
2269
  8
SAPA_PROFIL
 10
44.900505063387527
 20
27.585786437627231
 30
0.0
  0
VERTEX
  5
226A
  8
SAPA_PROFIL
 10
48.214213562372152
 20
30.89949493661209
 30
0.0
 42
0.1989123673796572
  0
VERTEX
  5
226B
  8
SAPA_PROFIL
 10
48.799999999999038
 20
32.3137084989852
 30
0.0
  0
VERTEX
  5
226C
  8
SAPA_PROFIL
 10
48.799999999999038
 20
38.307179676972851
 30
0.0
  0
VERTEX
  5
226D
  8
SAPA_PROFIL
 10
49.199999999999129
 20
39.000000000000341
 30
0.0
  0
VERTEX
  5
226E
  8
SAPA_PROFIL
 10
48.799999999999038
 20
39.692820323028059
 30
0.0
  0
SEQEND
  5
226F
  8
SAPA_PROFIL
  0
POLYLINE
  5
154D
  8
SAPA_PROFIL
 66
     1
 10
0.0
 20
0.0
 30
0.0
 70
     1
  0
VERTEX
  5
2270
  8
SAPA_PROFIL
 10
-64.200000000001125
 20
15.69999999999982
 30
0.0
 42
-0.4142135623730951
  0
VERTEX
  5
2271
  8
SAPA_PROFIL
 10
-64.700000000001125
 20
15.199999999999809
 30
0.0
  0
VERTEX
  5
2272
  8
SAPA_PROFIL
 10
-69.500000000001293
 20
15.20000000000004
 30
0.0
 42
0.4142135623730951
  0
VERTEX
  5
2273
  8
SAPA_PROFIL
 10
-70.000000000001307
 20
14.70000000000004
 30
0.0
  0
VERTEX
  5
2274
  8
SAPA_PROFIL
 10
-70.000000000001307
 20
12.000000000001251
 30
0.0
 42
0.4142135623731617
  0
VERTEX
  5
2275
  8
SAPA_PROFIL
 10
-69.500000000001293
 20
11.500000000001251
 30
0.0
  0
VERTEX
  5
2276
  8
SAPA_PROFIL
 10
-52.200000000001523
 20
11.500000000002389
 30
0.0
 42
0.4142135623730617
  0
VERTEX
  5
2277
  8
SAPA_PROFIL
 10
-51.700000000001523
 20
12.000000000002389
 30
0.0
  0
VERTEX
  5
2278
  8
SAPA_PROFIL
 10
-51.700000000001523
 20
15.69999999999925
 30
0.0
 42
-0.4142135623730951
  0
VERTEX
  5
2279
  8
SAPA_PROFIL
 10
-51.200000000001523
 20
16.19999999999925
 30
0.0
  0
VERTEX
  5
227A
  8
SAPA_PROFIL
 10
-46.100000000000698
 20
16.19999999999925
 30
0.0
 42
0.4142135623730847
  0
VERTEX
  5
227B
  8
SAPA_PROFIL
 10
-45.600000000000698
 20
16.69999999999925
 30
0.0
  0
VERTEX
  5
227C
  8
SAPA_PROFIL
 10
-45.60000000000047
 20
22.799999999999159
 30
0.0
 42
0.4142135623731054
  0
VERTEX
  5
227D
  8
SAPA_PROFIL
 10
-46.100000000000477
 20
23.299999999999159
 30
0.0
  0
VERTEX
  5
227E
  8
SAPA_PROFIL
 10
-63.700000000000891
 20
23.299999999999159
 30
0.0
 42
0.4142135623730951
  0
VERTEX
  5
227F
  8
SAPA_PROFIL
 10
-64.200000000000898
 20
22.799999999999159
 30
0.0
  0
SEQEND
  5
2280
  8
SAPA_PROFIL
  0
POLYLINE
  5
154E
  8
SAPA_PROFIL
 66
     1
 10
0.0
 20
0.0
 30
0.0
 70
     1
  0
VERTEX
  5
2281
  8
SAPA_PROFIL
 10
-70.00000000000108
 20
16.69999999999936
 30
0.0
  0
VERTEX
  5
2282
  8
SAPA_PROFIL
 10
-66.200000000001353
 20
16.69999999999936
 30
0.0
 42
0.4142135623730951
  0
VERTEX
  5
2283
  8
SAPA_PROFIL
 10
-65.700000000001353
 20
17.19999999999936
 30
0.0
  0
VERTEX
  5
2284
  8
SAPA_PROFIL
 10
-65.700000000000884
 20
22.799999999999269
 30
0.0
 42
0.4142135623730951
  0
VERTEX
  5
2285
  8
SAPA_PROFIL
 10
-66.200000000000884
 20
23.299999999999159
 30
0.0
  0
VERTEX
  5
2286
  8
SAPA_PROFIL
 10
-70.00000000000108
 20
23.299999999999269
 30
0.0
 42
0.4142135623730477
  0
VERTEX
  5
2287
  8
SAPA_PROFIL
 10
-70.50000000000108
 20
22.799999999999379
 30
0.0
  0
VERTEX
  5
2288
  8
SAPA_PROFIL
 10
-70.500000000001307
 20
21.799999999999269
 30
0.0
 42
-0.7105995015650752
  0
VERTEX
  5
2289
  8
SAPA_PROFIL
 10
-71.035076580435941
 20
21.61361598423855
 30
0.0
  0
VERTEX
  5
228A
  8
SAPA_PROFIL
 10
-71.500000000001293
 20
22.19999999999936
 30
0.0
  0
VERTEX
  5
228B
  8
SAPA_PROFIL
 10
-71.500000000001293
 20
24.29999999999939
 30
0.0
 42
-0.4142135623730977
  0
VERTEX
  5
228C
  8
SAPA_PROFIL
 10
-71.000000000001307
 20
24.79999999999939
 30
0.0
  0
VERTEX
  5
228D
  8
SAPA_PROFIL
 10
-44.100000000000477
 20
24.799999999999159
 30
0.0
 42
-0.4142135623730927
  0
VERTEX
  5
228E
  8
SAPA_PROFIL
 10
-43.600000000000477
 20
24.299999999999159
 30
0.0
  0
VERTEX
  5
228F
  8
SAPA_PROFIL
 10
-43.60000000000025
 20
22.69999999999925
 30
0.0
  0
VERTEX
  5
2290
  8
SAPA_PROFIL
 10
-43.60000000000025
 20
22.69999999999925
 30
0.0
 42
0.4142135623730951
  0
VERTEX
  5
2291
  8
SAPA_PROFIL
 10
-44.10000000000025
 20
22.19999999999925
 30
0.0
  0
VERTEX
  5
2292
  8
SAPA_PROFIL
 10
-44.10000000000025
 20
15.19999999999925
 30
0.0
 42
-0.4142135623730951
  0
VERTEX
  5
2293
  8
SAPA_PROFIL
 10
-44.600000000000243
 20
14.69999999999925
 30
0.0
  0
VERTEX
  5
2294
  8
SAPA_PROFIL
 10
-49.700000000000841
 20
14.69999999999925
 30
0.0
 42
0.4142135623730951
  0
VERTEX
  5
2295
  8
SAPA_PROFIL
 10
-50.200000000000841
 20
14.19999999999925
 30
0.0
  0
VERTEX
  5
2296
  8
SAPA_PROFIL
 10
-50.200000000001069
 20
11.19999999999925
 30
0.0
 42
0.4142135623730951
  0
VERTEX
  5
2297
  8
SAPA_PROFIL
 10
-49.700000000001069
 20
10.69999999999925
 30
0.0
  0
VERTEX
  5
2298
  8
SAPA_PROFIL
 10
-33.800000000000523
 20
10.700000000000159
 30
0.0
 42
0.4142135623730951
  0
VERTEX
  5
2299
  8
SAPA_PROFIL
 10
-33.500000000000568
 20
11.00000000000011
 30
0.0
  0
VERTEX
  5
229A
  8
SAPA_PROFIL
 10
-33.500000000000568
 20
12.28821087970789
 30
0.0
 42
-0.6681786379192989
  0
VERTEX
  5
229B
  8
SAPA_PROFIL
 10
-32.987867965644803
 20
12.50034291406382
 30
0.0
  0
VERTEX
  5
229C
  8
SAPA_PROFIL
 10
-30.78786796564475
 20
10.30034291406389
 30
0.0
 42
-0.1989123673796284
  0
VERTEX
  5
229D
  8
SAPA_PROFIL
 10
-30.700000000000621
 20
10.08821087970796
 30
0.0
  0
VERTEX
  5
229E
  8
SAPA_PROFIL
 10
-30.700000000000621
 20
9.5
 30
0.0
 42
-0.4142135623730951
  0
VERTEX
  5
229F
  8
SAPA_PROFIL
 10
-31.000000000000568
 20
9.2000000000001592
 30
0.0
  0
VERTEX
  5
22A0
  8
SAPA_PROFIL
 10
-49.700000000001303
 20
9.2000000000001592
 30
0.0
 42
0.4142135623730951
  0
VERTEX
  5
22A1
  8
SAPA_PROFIL
 10
-50.200000000001303
 20
8.7000000000001592
 30
0.0
  0
VERTEX
  5
22A2
  8
SAPA_PROFIL
 10
-50.200000000001303
 20
7.0000000000003411
 30
0.0
 42
0.4142135623730951
  0
VERTEX
  5
22A3
  8
SAPA_PROFIL
 10
-49.700000000001303
 20
6.5000000000003411
 30
0.0
  0
VERTEX
  5
22A4
  8
SAPA_PROFIL
 10
-38.200000000001531
 20
6.5000000000005684
 30
0.0
 42
-0.4142135623731008
  0
VERTEX
  5
22A5
  8
SAPA_PROFIL
 10
-37.700000000001523
 20
6.0000000000005684
 30
0.0
  0
VERTEX
  5
22A6
  8
SAPA_PROFIL
 10
-37.700000000001523
 20
5.5000000000003411
 30
0.0
 42
-0.4142135623731177
  0
VERTEX
  5
22A7
  8
SAPA_PROFIL
 10
-38.200000000001531
 20
5.0000000000003411
 30
0.0
  0
VERTEX
  5
22A8
  8
SAPA_PROFIL
 10
-51.200000000001523
 20
5.0000000000013642
 30
0.0
 42
-0.4142135623730951
  0
VERTEX
  5
22A9
  8
SAPA_PROFIL
 10
-51.700000000001523
 20
5.5000000000013642
 30
0.0
  0
VERTEX
  5
22AA
  8
SAPA_PROFIL
 10
-51.700000000001751
 20
9.5000000000023874
 30
0.0
 42
0.4142135623731284
  0
VERTEX
  5
22AB
  8
SAPA_PROFIL
 10
-52.200000000001751
 20
10.00000000000238
 30
0.0
  0
VERTEX
  5
22AC
  8
SAPA_PROFIL
 10
-71.000000000001535
 20
10.00000000000113
 30
0.0
 42
-0.4142135623730951
  0
VERTEX
  5
22AD
  8
SAPA_PROFIL
 10
-71.500000000001535
 20
10.50000000000113
 30
0.0
  0
VERTEX
  5
22AE
  8
SAPA_PROFIL
 10
-71.500000000001293
 20
17.799999999999269
 30
0.0
  0
VERTEX
  5
22AF
  8
SAPA_PROFIL
 10
-71.035076580435941
 20
18.386384015760079
 30
0.0
 42
-0.7105995015651617
  0
VERTEX
  5
22B0
  8
SAPA_PROFIL
 10
-70.50000000000108
 20
18.19999999999936
 30
0.0
  0
VERTEX
  5
22B1
  8
SAPA_PROFIL
 10
-70.50000000000108
 20
17.199999999999481
 30
0.0
 42
0.4142135623731507
  0
SEQEND
  5
22B2
  8
SAPA_PROFIL
  0
POLYLINE
  5
154F
  8
SAPA_PROFIL
 66
     1
 10
0.0
 20
0.0
 30
0.0
 70
     1
  0
VERTEX
  5
22B3
  8
SAPA_PROFIL
 10
-99.098475071208014
 20
-22.799999999999049
 30
0.0
  0
VERTEX
  5
22B4
  8
SAPA_PROFIL
 10
-99.098475071208014
 20
-23.799999999999049
 30
0.0
  0
VERTEX
  5
22B5
  8
SAPA_PROFIL
 10
-96.498475071207835
 20
-23.799999999999049
 30
0.0
 42
-0.4142135623730951
  0
VERTEX
  5
22B6
  8
SAPA_PROFIL
 10
-95.998475071207835
 20
-24.299999999999059
 30
0.0
  0
VERTEX
  5
22B7
  8
SAPA_PROFIL
 10
-95.998475071207835
 20
-24.69999999999914
 30
0.0
 42
-0.4142135623730951
  0
VERTEX
  5
22B8
  8
SAPA_PROFIL
 10
-96.298475071207775
 20
-24.999999999999101
 30
0.0
  0
VERTEX
  5
22B9
  8
SAPA_PROFIL
 10
-113.9999999990105
 20
-24.999999999999091
 30
0.0
 42
-0.4142135623730951
  0
VERTEX
  5
22BA
  8
SAPA_PROFIL
 10
-114.4999999990105
 20
-24.499999999999091
 30
0.0
  0
VERTEX
  5
22BB
  8
SAPA_PROFIL
 10
-114.4999999990105
 20
24.500000000000909
 30
0.0
 42
-0.4142135623730951
  0
VERTEX
  5
22BC
  8
SAPA_PROFIL
 10
-113.9999999990104
 20
25.000000000000909
 30
0.0
  0
VERTEX
  5
22BD
  8
SAPA_PROFIL
 10
-96.298475071207775
 20
25.000000000000909
 30
0.0
 42
-0.4142135623730951
  0
VERTEX
  5
22BE
  8
SAPA_PROFIL
 10
-95.998475071207835
 20
24.700000000000951
 30
0.0
  0
VERTEX
  5
22BF
  8
SAPA_PROFIL
 10
-95.998475071207835
 20
24.30000000000086
 30
0.0
 42
-0.4142135623730951
  0
VERTEX
  5
22C0
  8
SAPA_PROFIL
 10
-96.498475071207821
 20
23.80000000000086
 30
0.0
  0
VERTEX
  5
22C1
  8
SAPA_PROFIL
 10
-99.098475071207986
 20
23.80000000000086
 30
0.0
  0
VERTEX
  5
22C2
  8
SAPA_PROFIL
 10
-99.098475071207986
 20
22.80000000000086
 30
0.0
  0
VERTEX
  5
22C3
  8
SAPA_PROFIL
 10
-100.10250783084101
 20
22.22033922157971
 30
0.0
 42
-0.4155392929676362
  0
VERTEX
  5
22C4
  8
SAPA_PROFIL
 10
-101.19712680263289
 20
22.51631264788557
 30
0.0
  0
VERTEX
  5
22C5
  8
SAPA_PROFIL
 10
-101.9382640409319
 20
23.80000000000086
 30
0.0
  0
VERTEX
  5
22C6
  8
SAPA_PROFIL
 10
-112.09999999901061
 20
23.80000000000086
 30
0.0
 42
0.4142135623730951
  0
VERTEX
  5
22C7
  8
SAPA_PROFIL
 10
-113.09999999901061
 20
22.80000000000086
 30
0.0
  0
VERTEX
  5
22C8
  8
SAPA_PROFIL
 10
-113.09999999901061
 20
-22.799999999999049
 30
0.0
 42
0.4142135623730951
  0
VERTEX
  5
22C9
  8
SAPA_PROFIL
 10
-112.09999999901061
 20
-23.799999999999041
 30
0.0
  0
VERTEX
  5
22CA
  8
SAPA_PROFIL
 10
-101.9382640409319
 20
-23.799999999999049
 30
0.0
  0
VERTEX
  5
22CB
  8
SAPA_PROFIL
 10
-101.19712680263289
 20
-22.516312647883758
 30
0.0
 42
-0.4155392929676362
  0
VERTEX
  5
22CC
  8
SAPA_PROFIL
 10
-100.10250783084101
 20
-22.220339221577891
 30
0.0
  0
SEQEND
  5
22CD
  8
SAPA_PROFIL
  0
POLYLINE
  5
1550
  8
SAPA_PROFIL
 66
     1
 10
0.0
 20
0.0
 30
0.0
 70
     1
  0
VERTEX
  5
22CE
  8
SAPA_PROFIL
 10
-33.050000000001091
 20
2.700000000000272
 30
0.0
  0
VERTEX
  5
22CF
  8
SAPA_PROFIL
 10
-31.67376540642476
 20
2.0767196966983188
 30
0.0
 42
0.5450207798987328
  0
VERTEX
  5
22D0
  8
SAPA_PROFIL
 10
-31.25000000000114
 20
2.350000000000136
 30
0.0
  0
VERTEX
  5
22D1
  8
SAPA_PROFIL
 10
-31.25000000000114
 20
2.700000000000272
 30
0.0
  0
VERTEX
  5
22D2
  8
SAPA_PROFIL
 10
-31.00000000000114
 20
2.700000000000272
 30
0.0
 42
-0.4142135623730951
  0
VERTEX
  5
22D3
  8
SAPA_PROFIL
 10
-30.00000000000114
 20
1.700000000000272
 30
0.0
  0
VERTEX
  5
22D4
  8
SAPA_PROFIL
 10
-30.00000000000114
 20
-1.6999999999998181
 30
0.0
 42
-0.4142135623730951
  0
VERTEX
  5
22D5
  8
SAPA_PROFIL
 10
-31.00000000000114
 20
-2.6999999999998181
 30
0.0
  0
VERTEX
  5
22D6
  8
SAPA_PROFIL
 10
-32.150000000001
 20
-2.6999999999998181
 30
0.0
  0
VERTEX
  5
22D7
  8
SAPA_PROFIL
 10
-32.150000000001
 20
-2.3499999999996808
 30
0.0
 42
0.5450200690651551
  0
VERTEX
  5
22D8
  8
SAPA_PROFIL
 10
-32.573765000001011
 20
-2.0767189999999109
 30
0.0
  0
VERTEX
  5
22D9
  8
SAPA_PROFIL
 10
-33.950000000000948
 20
-2.6999999999998181
 30
0.0
  0
VERTEX
  5
22DA
  8
SAPA_PROFIL
 10
-33.950000000000948
 20
-2.3499999999996808
 30
0.0
 42
0.5450200690651692
  0
VERTEX
  5
22DB
  8
SAPA_PROFIL
 10
-34.373765000000958
 20
-2.0767189999999109
 30
0.0
  0
VERTEX
  5
22DC
  8
SAPA_PROFIL
 10
-35.750000000001137
 20
-2.6999999999998181
 30
0.0
  0
VERTEX
  5
22DD
  8
SAPA_PROFIL
 10
-35.750000000001137
 20
-2.3499999999996808
 30
0.0
 42
0.5450200690651619
  0
VERTEX
  5
22DE
  8
SAPA_PROFIL
 10
-36.17376500000114
 20
-2.0767189999999109
 30
0.0
  0
VERTEX
  5
22DF
  8
SAPA_PROFIL
 10
-37.550000000001091
 20
-2.6999999999998181
 30
0.0
  0
VERTEX
  5
22E0
  8
SAPA_PROFIL
 10
-37.550000000001091
 20
-2.3499999999996808
 30
0.0
 42
0.5450200690651619
  0
VERTEX
  5
22E1
  8
SAPA_PROFIL
 10
-37.973765000001102
 20
-2.0767189999999109
 30
0.0
  0
VERTEX
  5
22E2
  8
SAPA_PROFIL
 10
-39.350000000001053
 20
-2.6999999999998181
 30
0.0
  0
VERTEX
  5
22E3
  8
SAPA_PROFIL
 10
-39.350000000001053
 20
-2.3499999999996808
 30
0.0
 42
0.5450200690651692
  0
VERTEX
  5
22E4
  8
SAPA_PROFIL
 10
-39.773765000001049
 20
-2.0767189999999109
 30
0.0
  0
VERTEX
  5
22E5
  8
SAPA_PROFIL
 10
-41.150000000001
 20
-2.6999999999998181
 30
0.0
  0
VERTEX
  5
22E6
  8
SAPA_PROFIL
 10
-41.450000000000948
 20
-2.6999999999998181
 30
0.0
  0
VERTEX
  5
22E7
  8
SAPA_PROFIL
 10
-41.450000000000948
 20
2.42826763351104
 30
0.0
  0
VERTEX
  5
22E8
  8
SAPA_PROFIL
 10
-40.673765406424756
 20
2.0767196966983188
 30
0.0
 42
0.5450207798987328
  0
VERTEX
  5
22E9
  8
SAPA_PROFIL
 10
-40.250000000001137
 20
2.350000000000136
 30
0.0
  0
VERTEX
  5
22EA
  8
SAPA_PROFIL
 10
-40.250000000001137
 20
2.700000000000272
 30
0.0
  0
VERTEX
  5
22EB
  8
SAPA_PROFIL
 10
-38.873765000000958
 20
2.0767200000002499
 30
0.0
 42
0.5450205149791638
  0
VERTEX
  5
22EC
  8
SAPA_PROFIL
 10
-38.450000000000962
 20
2.350000000000136
 30
0.0
  0
VERTEX
  5
22ED
  8
SAPA_PROFIL
 10
-38.450000000000962
 20
2.700000000000272
 30
0.0
  0
VERTEX
  5
22EE
  8
SAPA_PROFIL
 10
-37.073765406424627
 20
2.0767196966983188
 30
0.0
 42
0.545020779898768
  0
VERTEX
  5
22EF
  8
SAPA_PROFIL
 10
-36.650000000001
 20
2.350000000000136
 30
0.0
  0
VERTEX
  5
22F0
  8
SAPA_PROFIL
 10
-36.650000000001
 20
2.700000000000272
 30
0.0
  0
VERTEX
  5
22F1
  8
SAPA_PROFIL
 10
-35.273765406424673
 20
2.0767196966983188
 30
0.0
 42
0.54502077989874
  0
VERTEX
  5
22F2
  8
SAPA_PROFIL
 10
-34.850000000001053
 20
2.350000000000136
 30
0.0
  0
VERTEX
  5
22F3
  8
SAPA_PROFIL
 10
-34.850000000001053
 20
2.700000000000272
 30
0.0
  0
VERTEX
  5
22F4
  8
SAPA_PROFIL
 10
-33.473765406424718
 20
2.0767196966983188
 30
0.0
 42
0.545020779898761
  0
VERTEX
  5
22F5
  8
SAPA_PROFIL
 10
-33.050000000001091
 20
2.350000000000136
 30
0.0
  0
SEQEND
  5
22F6
  8
SAPA_PROFIL
  0
POLYLINE
  5
1551
  8
SAPA_PROFIL
 66
     1
 10
0.0
 20
0.0
 30
0.0
 70
     1
  0
VERTEX
  5
22F7
  8
SAPA_PROFIL
 10
58.024264068710863
 20
23.000000000000231
 30
0.0
 42
0.1989123673796753
  0
VERTEX
  5
22F8
  8
SAPA_PROFIL
 10
57.812132034355052
 20
22.912132034356091
 30
0.0
  0
VERTEX
  5
22F9
  8
SAPA_PROFIL
 10
56.087867965642999
 20
21.187867965644269
 30
0.0
 42
-0.1989123673796753
  0
VERTEX
  5
22FA
  8
SAPA_PROFIL
 10
55.875735931286947
 20
21.10000000000014
 30
0.0
  0
VERTEX
  5
22FB
  8
SAPA_PROFIL
 10
55.299999999999052
 20
21.10000000000014
 30
0.0
 42
-0.4142135623730951
  0
VERTEX
  5
22FC
  8
SAPA_PROFIL
 10
54.999999999998863
 20
21.400000000000318
 30
0.0
  0
VERTEX
  5
22FD
  8
SAPA_PROFIL
 10
54.999999999998863
 20
22.700000000000269
 30
0.0
 42
0.4142135623730951
  0
VERTEX
  5
22FE
  8
SAPA_PROFIL
 10
54.699999999998909
 20
23.000000000000231
 30
0.0
  0
VERTEX
  5
22FF
  8
SAPA_PROFIL
 10
29.99999999999886
 20
23.000000000000231
 30
0.0
 42
0.4142135623730951
  0
VERTEX
  5
2300
  8
SAPA_PROFIL
 10
28.99999999999887
 20
22.000000000000231
 30
0.0
  0
VERTEX
  5
2301
  8
SAPA_PROFIL
 10
28.99999999999887
 20
17.600000000000129
 30
0.0
 42
-0.4142135623730951
  0
VERTEX
  5
2302
  8
SAPA_PROFIL
 10
28.699999999998909
 20
17.300000000000178
 30
0.0
  0
VERTEX
  5
2303
  8
SAPA_PROFIL
 10
26.399999999998961
 20
17.300000000000178
 30
0.0
 42
-0.4142135623730951
  0
VERTEX
  5
2304
  8
SAPA_PROFIL
 10
26.099999999999
 20
17.600000000000129
 30
0.0
  0
VERTEX
  5
2305
  8
SAPA_PROFIL
 10
26.099999999999
 20
18.100000000000129
 30
0.0
 42
-0.4142135623730951
  0
VERTEX
  5
2306
  8
SAPA_PROFIL
 10
26.399999999998961
 20
18.400000000000318
 30
0.0
  0
VERTEX
  5
2307
  8
SAPA_PROFIL
 10
26.736626924633359
 20
18.400000000000318
 30
0.0
 42
0.5535245743249297
  0
VERTEX
  5
2308
  8
SAPA_PROFIL
 10
24.96410760212348
 20
22.71055421153164
 30
0.0
  0
VERTEX
  5
2309
  8
SAPA_PROFIL
 10
24.67677669529553
 20
22.42322330470347
 30
0.0
 42
-0.4142135623729421
  0
VERTEX
  5
230A
  8
SAPA_PROFIL
 10
24.32322330470242
 20
22.42322330470347
 30
0.0
  0
VERTEX
  5
230B
  8
SAPA_PROFIL
 10
24.035892397874481
 20
22.71055421153164
 30
0.0
 42
0.5535245743249292
  0
VERTEX
  5
230C
  8
SAPA_PROFIL
 10
22.26337307536437
 20
18.400000000000318
 30
0.0
  0
VERTEX
  5
230D
  8
SAPA_PROFIL
 10
22.599999999999
 20
18.400000000000318
 30
0.0
 42
-0.4142135623730951
  0
VERTEX
  5
230E
  8
SAPA_PROFIL
 10
22.899999999998961
 20
18.100000000000129
 30
0.0
  0
VERTEX
  5
230F
  8
SAPA_PROFIL
 10
22.899999999998961
 20
17.600000000000129
 30
0.0
 42
-0.4142135623730951
  0
VERTEX
  5
2310
  8
SAPA_PROFIL
 10
22.599999999999
 20
17.300000000000178
 30
0.0
  0
VERTEX
  5
2311
  8
SAPA_PROFIL
 10
21.49999999999886
 20
17.300000000000178
 30
0.0
 42
-0.4142135623730951
  0
VERTEX
  5
2312
  8
SAPA_PROFIL
 10
19.99999999999886
 20
18.800000000000178
 30
0.0
  0
VERTEX
  5
2313
  8
SAPA_PROFIL
 10
19.99999999999886
 20
21.63397459621569
 30
0.0
 42
-0.267949192431143
  0
VERTEX
  5
2314
  8
SAPA_PROFIL
 10
20.24999999999886
 20
22.066987298107961
 30
0.0
 42
0.767326987978956
  0
VERTEX
  5
2315
  8
SAPA_PROFIL
 10
19.99999999999886
 20
23.000000000000231
 30
0.0
  0
VERTEX
  5
2316
  8
SAPA_PROFIL
 10
-15.00000000000113
 20
23.000000000000231
 30
0.0
 42
0.4142135623730951
  0
VERTEX
  5
2317
  8
SAPA_PROFIL
 10
-16.00000000000114
 20
22.000000000000231
 30
0.0
  0
VERTEX
  5
2318
  8
SAPA_PROFIL
 10
-16.00000000000114
 20
17.600000000000129
 30
0.0
 42
-0.4142135623730951
  0
VERTEX
  5
2319
  8
SAPA_PROFIL
 10
-16.300000000001091
 20
17.300000000000178
 30
0.0
  0
VERTEX
  5
231A
  8
SAPA_PROFIL
 10
-18.600000000001039
 20
17.300000000000178
 30
0.0
 42
-0.4142135623730951
  0
VERTEX
  5
231B
  8
SAPA_PROFIL
 10
-18.900000000001
 20
17.600000000000129
 30
0.0
  0
VERTEX
  5
231C
  8
SAPA_PROFIL
 10
-18.900000000001
 20
18.100000000000129
 30
0.0
 42
-0.4142135623730951
  0
VERTEX
  5
231D
  8
SAPA_PROFIL
 10
-18.600000000001039
 20
18.400000000000318
 30
0.0
  0
VERTEX
  5
231E
  8
SAPA_PROFIL
 10
-18.263373075366641
 20
18.400000000000318
 30
0.0
 42
0.5535245743249297
  0
VERTEX
  5
231F
  8
SAPA_PROFIL
 10
-20.03589239787652
 20
22.71055421153164
 30
0.0
  0
VERTEX
  5
2320
  8
SAPA_PROFIL
 10
-20.32322330470447
 20
22.42322330470347
 30
0.0
 42
-0.4142135623730243
  0
VERTEX
  5
2321
  8
SAPA_PROFIL
 10
-20.67677669529758
 20
22.423223304703701
 30
0.0
  0
VERTEX
  5
2322
  8
SAPA_PROFIL
 10
-20.96410760212553
 20
22.71055421153164
 30
0.0
 42
0.5535245743249292
  0
VERTEX
  5
2323
  8
SAPA_PROFIL
 10
-22.73662692463563
 20
18.400000000000318
 30
0.0
  0
VERTEX
  5
2324
  8
SAPA_PROFIL
 10
-22.400000000001
 20
18.400000000000318
 30
0.0
 42
-0.4142135623730951
  0
VERTEX
  5
2325
  8
SAPA_PROFIL
 10
-22.100000000001049
 20
18.100000000000129
 30
0.0
  0
VERTEX
  5
2326
  8
SAPA_PROFIL
 10
-22.100000000001049
 20
17.600000000000129
 30
0.0
 42
-0.4142135623730951
  0
VERTEX
  5
2327
  8
SAPA_PROFIL
 10
-22.400000000001
 20
17.300000000000178
 30
0.0
  0
VERTEX
  5
2328
  8
SAPA_PROFIL
 10
-23.50000000000114
 20
17.300000000000178
 30
0.0
 42
-0.4142135623730951
  0
VERTEX
  5
2329
  8
SAPA_PROFIL
 10
-25.00000000000114
 20
18.800000000000178
 30
0.0
  0
VERTEX
  5
232A
  8
SAPA_PROFIL
 10
-25.00000000000114
 20
21.780384757729511
 30
0.0
 42
-0.2679491924311188
  0
VERTEX
  5
232B
  8
SAPA_PROFIL
 10
-24.850000000001049
 20
22.040192378864958
 30
0.0
 42
0.7673269879789557
  0
VERTEX
  5
232C
  8
SAPA_PROFIL
 10
-25.00000000000114
 20
22.600000000000129
 30
0.0
  0
VERTEX
  5
232D
  8
SAPA_PROFIL
 10
-27.00000000000114
 20
22.599999999999909
 30
0.0
 42
0.4142137811865366
  0
VERTEX
  5
232E
  8
SAPA_PROFIL
 10
-28.00000000000114
 20
21.600000747075459
 30
0.0
  0
VERTEX
  5
232F
  8
SAPA_PROFIL
 10
-28.00000000000114
 20
-21.599999999999682
 30
0.0
 42
0.4142140000000124
  0
VERTEX
  5
2330
  8
SAPA_PROFIL
 10
-27.00000000000114
 20
-22.599999999999682
 30
0.0
  0
VERTEX
  5
2331
  8
SAPA_PROFIL
 10
-25.00000000000114
 20
-22.599999999999682
 30
0.0
 42
0.7673269879789457
  0
VERTEX
  5
2332
  8
SAPA_PROFIL
 10
-24.850000000001049
 20
-22.0401923788645
 30
0.0
 42
-0.2679491924311191
  0
VERTEX
  5
2333
  8
SAPA_PROFIL
 10
-25.00000000000114
 20
-21.780384757729049
 30
0.0
  0
VERTEX
  5
2334
  8
SAPA_PROFIL
 10
-25.00000000000114
 20
-18.799999999999731
 30
0.0
 42
-0.4142135623730951
  0
VERTEX
  5
2335
  8
SAPA_PROFIL
 10
-23.50000000000114
 20
-17.299999999999731
 30
0.0
  0
VERTEX
  5
2336
  8
SAPA_PROFIL
 10
-22.400000000001
 20
-17.299999999999731
 30
0.0
 42
-0.4142135623730951
  0
VERTEX
  5
2337
  8
SAPA_PROFIL
 10
-22.100000000001049
 20
-17.599999999999682
 30
0.0
  0
VERTEX
  5
2338
  8
SAPA_PROFIL
 10
-22.100000000001049
 20
-18.099999999999682
 30
0.0
 42
-0.4142135623730951
  0
VERTEX
  5
2339
  8
SAPA_PROFIL
 10
-22.400000000001
 20
-18.39999999999986
 30
0.0
  0
VERTEX
  5
233A
  8
SAPA_PROFIL
 10
-22.73662692463563
 20
-18.39999999999986
 30
0.0
 42
0.5535245743249307
  0
VERTEX
  5
233B
  8
SAPA_PROFIL
 10
-20.96410760212553
 20
-22.710554211531189
 30
0.0
  0
VERTEX
  5
233C
  8
SAPA_PROFIL
 10
-20.67677669529758
 20
-22.423223304703239
 30
0.0
 42
-0.4142135623730951
  0
VERTEX
  5
233D
  8
SAPA_PROFIL
 10
-20.32322330470447
 20
-22.423223304703239
 30
0.0
  0
VERTEX
  5
233E
  8
SAPA_PROFIL
 10
-20.03589239787652
 20
-22.710554211531189
 30
0.0
 42
0.553524574324932
  0
VERTEX
  5
233F
  8
SAPA_PROFIL
 10
-18.263373075366641
 20
-18.39999999999986
 30
0.0
  0
VERTEX
  5
2340
  8
SAPA_PROFIL
 10
-18.600000000001039
 20
-18.39999999999986
 30
0.0
 42
-0.4142135623730951
  0
VERTEX
  5
2341
  8
SAPA_PROFIL
 10
-18.900000000001
 20
-18.099999999999682
 30
0.0
  0
VERTEX
  5
2342
  8
SAPA_PROFIL
 10
-18.900000000001
 20
-17.599999999999682
 30
0.0
 42
-0.4142135623730951
  0
VERTEX
  5
2343
  8
SAPA_PROFIL
 10
-18.600000000001039
 20
-17.299999999999731
 30
0.0
  0
VERTEX
  5
2344
  8
SAPA_PROFIL
 10
-16.300000000001091
 20
-17.299999999999731
 30
0.0
 42
-0.4142135623730951
  0
VERTEX
  5
2345
  8
SAPA_PROFIL
 10
-16.00000000000114
 20
-17.599999999999682
 30
0.0
  0
VERTEX
  5
2346
  8
SAPA_PROFIL
 10
-16.00000000000114
 20
-21.999999999999769
 30
0.0
 42
0.4142135623730951
  0
VERTEX
  5
2347
  8
SAPA_PROFIL
 10
-15.00000000000113
 20
-22.999999999999769
 30
0.0
  0
VERTEX
  5
2348
  8
SAPA_PROFIL
 10
19.99999999999886
 20
-22.999999999999769
 30
0.0
 42
0.7673269879789569
  0
VERTEX
  5
2349
  8
SAPA_PROFIL
 10
20.24999999999886
 20
-22.066987298107509
 30
0.0
 42
-0.2679491924311163
  0
VERTEX
  5
234A
  8
SAPA_PROFIL
 10
19.99999999999886
 20
-21.633974596215239
 30
0.0
  0
VERTEX
  5
234B
  8
SAPA_PROFIL
 10
19.99999999999886
 20
-18.799999999999731
 30
0.0
 42
-0.4142135623730951
  0
VERTEX
  5
234C
  8
SAPA_PROFIL
 10
21.49999999999886
 20
-17.299999999999731
 30
0.0
  0
VERTEX
  5
234D
  8
SAPA_PROFIL
 10
22.599999999999
 20
-17.299999999999731
 30
0.0
 42
-0.4142135623730951
  0
VERTEX
  5
234E
  8
SAPA_PROFIL
 10
22.899999999998961
 20
-17.599999999999682
 30
0.0
  0
VERTEX
  5
234F
  8
SAPA_PROFIL
 10
22.899999999998961
 20
-18.099999999999682
 30
0.0
 42
-0.4142135623730951
  0
VERTEX
  5
2350
  8
SAPA_PROFIL
 10
22.599999999999
 20
-18.39999999999986
 30
0.0
  0
VERTEX
  5
2351
  8
SAPA_PROFIL
 10
22.26337307536437
 20
-18.39999999999986
 30
0.0
 42
0.5535245743249307
  0
VERTEX
  5
2352
  8
SAPA_PROFIL
 10
24.035892397874481
 20
-22.710554211531189
 30
0.0
  0
VERTEX
  5
2353
  8
SAPA_PROFIL
 10
24.32322330470242
 20
-22.423223304703239
 30
0.0
 42
-0.4142135623731068
  0
VERTEX
  5
2354
  8
SAPA_PROFIL
 10
24.67677669529553
 20
-22.423223304703011
 30
0.0
  0
VERTEX
  5
2355
  8
SAPA_PROFIL
 10
24.96410760212348
 20
-22.710554211531189
 30
0.0
 42
0.553524574324932
  0
VERTEX
  5
2356
  8
SAPA_PROFIL
 10
26.736626924633359
 20
-18.39999999999986
 30
0.0
  0
VERTEX
  5
2357
  8
SAPA_PROFIL
 10
26.399999999998961
 20
-18.39999999999986
 30
0.0
 42
-0.4142135623730951
  0
VERTEX
  5
2358
  8
SAPA_PROFIL
 10
26.099999999999
 20
-18.099999999999682
 30
0.0
  0
VERTEX
  5
2359
  8
SAPA_PROFIL
 10
26.099999999999
 20
-17.599999999999682
 30
0.0
 42
-0.4142135623730951
  0
VERTEX
  5
235A
  8
SAPA_PROFIL
 10
26.399999999998961
 20
-17.299999999999731
 30
0.0
  0
VERTEX
  5
235B
  8
SAPA_PROFIL
 10
28.699999999998909
 20
-17.299999999999731
 30
0.0
 42
-0.4142135623730951
  0
VERTEX
  5
235C
  8
SAPA_PROFIL
 10
28.99999999999887
 20
-17.599999999999682
 30
0.0
  0
VERTEX
  5
235D
  8
SAPA_PROFIL
 10
28.99999999999887
 20
-21.999999999999769
 30
0.0
 42
0.4142135623730951
  0
VERTEX
  5
235E
  8
SAPA_PROFIL
 10
29.99999999999886
 20
-22.999999999999769
 30
0.0
  0
VERTEX
  5
235F
  8
SAPA_PROFIL
 10
54.699999999998909
 20
-22.999999999999769
 30
0.0
 42
0.4142135623730951
  0
VERTEX
  5
2360
  8
SAPA_PROFIL
 10
54.999999999998863
 20
-22.699999999999822
 30
0.0
  0
VERTEX
  5
2361
  8
SAPA_PROFIL
 10
54.999999999998863
 20
-21.39999999999986
 30
0.0
 42
-0.4142135623730951
  0
VERTEX
  5
2362
  8
SAPA_PROFIL
 10
55.299999999999052
 20
-21.099999999999682
 30
0.0
  0
VERTEX
  5
2363
  8
SAPA_PROFIL
 10
55.875735931286947
 20
-21.099999999999682
 30
0.0
 42
-0.1989123673796752
  0
VERTEX
  5
2364
  8
SAPA_PROFIL
 10
56.087867965642999
 20
-21.187867965643822
 30
0.0
  0
VERTEX
  5
2365
  8
SAPA_PROFIL
 10
57.812132034355052
 20
-22.91213203435586
 30
0.0
 42
0.1989123673796057
  0
VERTEX
  5
2366
  8
SAPA_PROFIL
 10
58.024264068710863
 20
-22.999999999999769
 30
0.0
  0
VERTEX
  5
2367
  8
SAPA_PROFIL
 10
61.499999999998863
 20
-22.999999999999769
 30
0.0
 42
0.4142135623730951
  0
VERTEX
  5
2368
  8
SAPA_PROFIL
 10
62.499999999998863
 20
-21.999999999999769
 30
0.0
  0
VERTEX
  5
2369
  8
SAPA_PROFIL
 10
62.499999999998863
 20
22.000000000000231
 30
0.0
 42
0.4142135623730951
  0
VERTEX
  5
236A
  8
SAPA_PROFIL
 10
61.499999999998863
 20
23.000000000000231
 30
0.0
  0
SEQEND
  5
236B
  8
SAPA_PROFIL
  0
POLYLINE
  5
1552
  8
SAPA_PROFIL
 66
     1
 10
0.0
 20
0.0
 30
0.0
 70
     1
  0
VERTEX
  5
236C
  8
SAPA_PROFIL
 10
-30.00000000000114
 20
6.0000000000002274
 30
0.0
 42
-0.4142135623730951
  0
VERTEX
  5
236D
  8
SAPA_PROFIL
 10
-31.00000000000114
 20
5.0000000000002274
 30
0.0
  0
VERTEX
  5
236E
  8
SAPA_PROFIL
 10
-52.200000000000948
 20
5.0000000000002274
 30
0.0
 42
0.4142135623730951
  0
VERTEX
  5
236F
  8
SAPA_PROFIL
 10
-52.50000000000113
 20
4.700000000000272
 30
0.0
  0
VERTEX
  5
2370
  8
SAPA_PROFIL
 10
-52.50000000000113
 20
3.0757360000002332
 30
0.0
  0
VERTEX
  5
2371
  8
SAPA_PROFIL
 10
-51.562132034356871
 20
2.2378679656442269
 30
0.0
 42
0.668178637919305
  0
VERTEX
  5
2372
  8
SAPA_PROFIL
 10
-51.050000000001091
 20
2.450000000000272
 30
0.0
  0
VERTEX
  5
2373
  8
SAPA_PROFIL
 10
-51.050000000001091
 20
2.700000000000272
 30
0.0
  0
VERTEX
  5
2374
  8
SAPA_PROFIL
 10
-49.673765406424756
 20
2.1767196966982278
 30
0.0
 42
0.5450207798987201
  0
VERTEX
  5
2375
  8
SAPA_PROFIL
 10
-49.250000000001137
 20
2.450000000000272
 30
0.0
  0
VERTEX
  5
2376
  8
SAPA_PROFIL
 10
-49.250000000001137
 20
2.700000000000272
 30
0.0
  0
VERTEX
  5
2377
  8
SAPA_PROFIL
 10
-47.873765406424567
 20
2.1767196966982278
 30
0.0
 42
0.5450207798987201
  0
VERTEX
  5
2378
  8
SAPA_PROFIL
 10
-47.450000000000962
 20
2.450000000000272
 30
0.0
  0
VERTEX
  5
2379
  8
SAPA_PROFIL
 10
-47.450000000000962
 20
2.700000000000272
 30
0.0
  0
VERTEX
  5
237A
  8
SAPA_PROFIL
 10
-46.07376540642462
 20
2.1767196966982278
 30
0.0
 42
0.5450207798987342
  0
VERTEX
  5
237B
  8
SAPA_PROFIL
 10
-45.650000000000993
 20
2.450000000000272
 30
0.0
  0
VERTEX
  5
237C
  8
SAPA_PROFIL
 10
-45.650000000000993
 20
2.700000000000272
 30
0.0
  0
VERTEX
  5
237D
  8
SAPA_PROFIL
 10
-44.273765406424673
 20
2.1767196966982278
 30
0.0
 42
0.5450207798987201
  0
VERTEX
  5
237E
  8
SAPA_PROFIL
 10
-43.850000000001039
 20
2.450000000000272
 30
0.0
  0
VERTEX
  5
237F
  8
SAPA_PROFIL
 10
-43.850000000001039
 20
2.700000000000272
 30
0.0
  0
VERTEX
  5
2380
  8
SAPA_PROFIL
 10
-43.126282705194853
 20
2.4722372826161059
 30
0.0
 42
-0.2945484962563026
  0
VERTEX
  5
2381
  8
SAPA_PROFIL
 10
-42.950048040246656
 20
2.1988824689378812
 30
0.0
  0
VERTEX
  5
2382
  8
SAPA_PROFIL
 10
-42.950255222213173
 20
1.2642999377483191
 30
0.0
 42
0.3475954753796591
  0
VERTEX
  5
2383
  8
SAPA_PROFIL
 10
-42.719501178044077
 20
0.9723265106783856
 30
0.0
 42
-0.790522909611319
  0
VERTEX
  5
2384
  8
SAPA_PROFIL
 10
-42.71949097360357
 20
-0.973664089865224
 30
0.0
 42
0.3476065658631364
  0
VERTEX
  5
2385
  8
SAPA_PROFIL
 10
-42.950241952335773
 20
-1.2656518108867649
 30
0.0
  0
VERTEX
  5
2386
  8
SAPA_PROFIL
 10
-42.950095231626847
 20
-1.8499926620931999
 30
0.0
 42
-0.4102317530969976
  0
VERTEX
  5
2387
  8
SAPA_PROFIL
 10
-43.245946879780369
 20
-2.1500282985855388
 30
0.0
 42
0.0712587206050384
  0
VERTEX
  5
2388
  8
SAPA_PROFIL
 10
-43.329990804708579
 20
-2.1632556124550311
 30
0.0
  0
VERTEX
  5
2389
  8
SAPA_PROFIL
 10
-44.750000000001137
 20
-2.6999999999998181
 30
0.0
  0
VERTEX
  5
238A
  8
SAPA_PROFIL
 10
-44.750000000001137
 20
-2.4499999999998181
 30
0.0
 42
0.5450200690651619
  0
VERTEX
  5
238B
  8
SAPA_PROFIL
 10
-45.173765000001133
 20
-2.17671899999982
 30
0.0
  0
VERTEX
  5
238C
  8
SAPA_PROFIL
 10
-46.550000000001091
 20
-2.6999999999998181
 30
0.0
  0
VERTEX
  5
238D
  8
SAPA_PROFIL
 10
-46.550000000000857
 20
-2.4499999999998181
 30
0.0
 42
0.545020069065176
  0
VERTEX
  5
238E
  8
SAPA_PROFIL
 10
-46.973765000001087
 20
-2.17671899999982
 30
0.0
  0
VERTEX
  5
238F
  8
SAPA_PROFIL
 10
-48.350000000001039
 20
-2.6999999999998181
 30
0.0
  0
VERTEX
  5
2390
  8
SAPA_PROFIL
 10
-48.350000000001039
 20
-2.4499999999998181
 30
0.0
 42
0.5450200690651692
  0
VERTEX
  5
2391
  8
SAPA_PROFIL
 10
-48.773765000001049
 20
-2.17671899999982
 30
0.0
  0
VERTEX
  5
2392
  8
SAPA_PROFIL
 10
-50.150000000001
 20
-2.6999999999998181
 30
0.0
  0
VERTEX
  5
2393
  8
SAPA_PROFIL
 10
-50.150000000001
 20
-2.1499999999998631
 30
0.0
  0
VERTEX
  5
2394
  8
SAPA_PROFIL
 10
-51.350000000001039
 20
-2.1499999999998631
 30
0.0
 42
0.1989123673797004
  0
VERTEX
  5
2395
  8
SAPA_PROFIL
 10
-51.562132000001156
 20
-2.2378679999997071
 30
0.0
  0
VERTEX
  5
2396
  8
SAPA_PROFIL
 10
-52.50000000000113
 20
-3.075735999999778
 30
0.0
  0
VERTEX
  5
2397
  8
SAPA_PROFIL
 10
-52.50000000000113
 20
-4.6999999999998181
 30
0.0
 42
0.4142135623730951
  0
VERTEX
  5
2398
  8
SAPA_PROFIL
 10
-52.200000000000948
 20
-4.9999999999997717
 30
0.0
  0
VERTEX
  5
2399
  8
SAPA_PROFIL
 10
-31.00000000000114
 20
-4.9999999999997717
 30
0.0
 42
-0.4142135623730951
  0
VERTEX
  5
239A
  8
SAPA_PROFIL
 10
-30.00000000000114
 20
-5.9999999999997717
 30
0.0
  0
VERTEX
  5
239B
  8
SAPA_PROFIL
 10
-30.00000000000114
 20
-14.19999999999982
 30
0.0
 42
-0.4142135623730951
  0
VERTEX
  5
239C
  8
SAPA_PROFIL
 10
-30.50000000000114
 20
-14.69999999999982
 30
0.0
  0
VERTEX
  5
239D
  8
SAPA_PROFIL
 10
-33.700000000000962
 20
-14.69999999999982
 30
0.0
 42
-0.4142135623730951
  0
VERTEX
  5
239E
  8
SAPA_PROFIL
 10
-34.200000000000962
 20
-14.19999999999982
 30
0.0
  0
VERTEX
  5
239F
  8
SAPA_PROFIL
 10
-34.200000000000962
 20
-11.299999999999731
 30
0.0
 42
0.4142135623730951
  0
VERTEX
  5
23A0
  8
SAPA_PROFIL
 10
-34.500000000001137
 20
-10.999999999999771
 30
0.0
  0
VERTEX
  5
23A1
  8
SAPA_PROFIL
 10
-35.200000000000948
 20
-10.999999999999771
 30
0.0
 42
0.4142135623730951
  0
VERTEX
  5
23A2
  8
SAPA_PROFIL
 10
-35.500000000001137
 20
-11.299999999999731
 30
0.0
  0
VERTEX
  5
23A3
  8
SAPA_PROFIL
 10
-35.500000000001137
 20
-17.999999999999769
 30
0.0
  0
VERTEX
  5
23A4
  8
SAPA_PROFIL
 10
-35.035076580641999
 20
-18.586384015500471
 30
0.0
 42
0.7105995019814511
  0
VERTEX
  5
23A5
  8
SAPA_PROFIL
 10
-34.500000000001137
 20
-18.39999999999986
 30
0.0
  0
VERTEX
  5
23A6
  8
SAPA_PROFIL
 10
-34.500000000001137
 20
-16.499999999999769
 30
0.0
 42
-0.4142135623730951
  0
VERTEX
  5
23A7
  8
SAPA_PROFIL
 10
-34.200000000000962
 20
-16.199999999999822
 30
0.0
  0
VERTEX
  5
23A8
  8
SAPA_PROFIL
 10
-30.300000000001091
 20
-16.199999999999822
 30
0.0
 42
-0.4142135623730951
  0
VERTEX
  5
23A9
  8
SAPA_PROFIL
 10
-30.00000000000114
 20
-16.499999999999769
 30
0.0
  0
VERTEX
  5
23AA
  8
SAPA_PROFIL
 10
-30.00000000000114
 20
-23.199999999999822
 30
0.0
 42
-0.4142135623730951
  0
VERTEX
  5
23AB
  8
SAPA_PROFIL
 10
-30.300000000001091
 20
-23.499999999999769
 30
0.0
  0
VERTEX
  5
23AC
  8
SAPA_PROFIL
 10
-34.200000000000962
 20
-23.499999999999769
 30
0.0
 42
-0.4142135623730951
  0
VERTEX
  5
23AD
  8
SAPA_PROFIL
 10
-34.500000000001137
 20
-23.199999999999822
 30
0.0
  0
VERTEX
  5
23AE
  8
SAPA_PROFIL
 10
-34.500000000001137
 20
-21.999999999999769
 30
0.0
 42
0.7105990647993611
  0
VERTEX
  5
23AF
  8
SAPA_PROFIL
 10
-35.035076000001027
 20
-21.81361599999968
 30
0.0
  0
VERTEX
  5
23B0
  8
SAPA_PROFIL
 10
-35.500000000001137
 20
-22.39999999999986
 30
0.0
  0
VERTEX
  5
23B1
  8
SAPA_PROFIL
 10
-35.500000000001137
 20
-24.699999999999822
 30
0.0
 42
0.4142135623730951
  0
VERTEX
  5
23B2
  8
SAPA_PROFIL
 10
-35.200000000000948
 20
-24.999999999999769
 30
0.0
  0
VERTEX
  5
23B3
  8
SAPA_PROFIL
 10
63.999999999998863
 20
-24.999999999999769
 30
0.0
 42
0.4142135623730951
  0
VERTEX
  5
23B4
  8
SAPA_PROFIL
 10
64.499999999998863
 20
-24.499999999999769
 30
0.0
  0
VERTEX
  5
23B5
  8
SAPA_PROFIL
 10
64.499999999998863
 20
24.500000000000231
 30
0.0
 42
0.4142135623730951
  0
VERTEX
  5
23B6
  8
SAPA_PROFIL
 10
63.999999999998863
 20
25.000000000000231
 30
0.0
  0
VERTEX
  5
23B7
  8
SAPA_PROFIL
 10
-35.200000000000948
 20
25.000000000000231
 30
0.0
 42
0.4142135623730951
  0
VERTEX
  5
23B8
  8
SAPA_PROFIL
 10
-35.500000000001137
 20
24.700000000000269
 30
0.0
  0
VERTEX
  5
23B9
  8
SAPA_PROFIL
 10
-35.500000000001137
 20
22.400000000000318
 30
0.0
  0
VERTEX
  5
23BA
  8
SAPA_PROFIL
 10
-35.035076580641999
 20
21.81361598449962
 30
0.0
 42
0.7105995019814511
  0
VERTEX
  5
23BB
  8
SAPA_PROFIL
 10
-34.500000000001137
 20
22.000000000000231
 30
0.0
  0
VERTEX
  5
23BC
  8
SAPA_PROFIL
 10
-34.500000000001137
 20
23.200000000000269
 30
0.0
 42
-0.4142135623730951
  0
VERTEX
  5
23BD
  8
SAPA_PROFIL
 10
-34.200000000000962
 20
23.500000000000231
 30
0.0
  0
VERTEX
  5
23BE
  8
SAPA_PROFIL
 10
-30.300000000001091
 20
23.500000000000231
 30
0.0
 42
-0.4142135623730951
  0
VERTEX
  5
23BF
  8
SAPA_PROFIL
 10
-30.00000000000114
 20
23.200000000000269
 30
0.0
  0
VERTEX
  5
23C0
  8
SAPA_PROFIL
 10
-30.00000000000114
 20
16.500000000000231
 30
0.0
 42
-0.4142135623730951
  0
VERTEX
  5
23C1
  8
SAPA_PROFIL
 10
-30.300000000001091
 20
16.200000000000269
 30
0.0
  0
VERTEX
  5
23C2
  8
SAPA_PROFIL
 10
-34.200000000000962
 20
16.200000000000269
 30
0.0
 42
-0.4142135623730951
  0
VERTEX
  5
23C3
  8
SAPA_PROFIL
 10
-34.500000000001137
 20
16.500000000000231
 30
0.0
  0
VERTEX
  5
23C4
  8
SAPA_PROFIL
 10
-34.500000000001137
 20
18.400000000000318
 30
0.0
 42
0.7105995019814511
  0
VERTEX
  5
23C5
  8
SAPA_PROFIL
 10
-35.035076580641999
 20
18.586384015500919
 30
0.0
  0
VERTEX
  5
23C6
  8
SAPA_PROFIL
 10
-35.500000000001137
 20
18.000000000000231
 30
0.0
  0
VERTEX
  5
23C7
  8
SAPA_PROFIL
 10
-35.500000000001137
 20
11.30000000000018
 30
0.0
 42
0.4142135623730951
  0
VERTEX
  5
23C8
  8
SAPA_PROFIL
 10
-35.200000000000948
 20
11.00000000000022
 30
0.0
  0
VERTEX
  5
23C9
  8
SAPA_PROFIL
 10
-34.500000000001137
 20
11.00000000000022
 30
0.0
 42
0.4142135623730951
  0
VERTEX
  5
23CA
  8
SAPA_PROFIL
 10
-34.200000000000962
 20
11.30000000000018
 30
0.0
  0
VERTEX
  5
23CB
  8
SAPA_PROFIL
 10
-34.200000000000962
 20
14.200000000000269
 30
0.0
 42
-0.4142135623730951
  0
VERTEX
  5
23CC
  8
SAPA_PROFIL
 10
-33.700000000000962
 20
14.700000000000269
 30
0.0
  0
VERTEX
  5
23CD
  8
SAPA_PROFIL
 10
-30.50000000000114
 20
14.700000000000269
 30
0.0
 42
-0.4142135623730951
  0
VERTEX
  5
23CE
  8
SAPA_PROFIL
 10
-30.00000000000114
 20
14.200000000000269
 30
0.0
  0
SEQEND
  5
23CF
  8
SAPA_PROFIL
  0
POLYLINE
  5
1593
  8
SAPA_GLAS
 66
     1
 10
0.0
 20
0.0
 30
0.0
  0
VERTEX
  5
23EE
  8
SAPA_GLAS
 10
-82.50000000000108
 20
75.585729413463582
 30
0.0
  0
VERTEX
  5
23EF
  8
SAPA_GLAS
 10
-82.500000000001535
 20
11.06410307836234
 30
0.0
  0
VERTEX
  5
23F0
  8
SAPA_GLAS
 10
-90.500000000001549
 20
11.064103078362351
 30
0.0
  0
VERTEX
  5
23F1
  8
SAPA_GLAS
 10
-90.500000000001535
 20
75.585729413463582
 30
0.0
  0
SEQEND
  5
23F2
  8
SAPA_GLAS
  0
POLYLINE
  5
1594
  8
SAPA_GLAS
 66
     1
 10
0.0
 20
0.0
 30
0.0
 70
     1
  0
VERTEX
  5
23F3
  8
SAPA_GLAS
 10
-74.663511128413035
 20
-118.4953758135967
 30
0.0
  0
VERTEX
  5
23F4
  8
SAPA_GLAS
 10
-59.663511128413028
 20
-118.4953758135967
 30
0.0
  0
VERTEX
  5
23F5
  8
SAPA_GLAS
 10
-59.663511128413028
 20
-108.4953758135967
 30
0.0
  0
VERTEX
  5
23F6
  8
SAPA_GLAS
 10
-74.663511128413035
 20
-108.4953758135967
 30
0.0
  0
SEQEND
  5
23F7
  8
SAPA_GLAS
  0
POLYLINE
  5
1595
  8
SAPA_GLAS
 66
     1
 10
0.0
 20
0.0
 30
0.0
 70
     1
  0
VERTEX
  5
23F8
  8
SAPA_GLAS
 10
-55.663511128413028
 20
-118.4953758135967
 30
0.0
  0
VERTEX
  5
23F9
  8
SAPA_GLAS
 10
-40.663511128413028
 20
-118.4953758135967
 30
0.0
  0
VERTEX
  5
23FA
  8
SAPA_GLAS
 10
-40.663511128413028
 20
-108.4953758135967
 30
0.0
  0
VERTEX
  5
23FB
  8
SAPA_GLAS
 10
-55.663511128413028
 20
-108.4953758135967
 30
0.0
  0
SEQEND
  5
23FC
  8
SAPA_GLAS
  0
POLYLINE
  5
1596
  8
SAPA_GLAS
 66
     1
 10
0.0
 20
0.0
 30
0.0
  0
VERTEX
  5
23FD
  8
SAPA_GLAS
 10
-55.663511128413049
 20
-138.49537581359661
 30
0.0
  0
VERTEX
  5
23FE
  8
SAPA_GLAS
 10
-55.663511128413028
 20
-108.4953758135966
 30
0.0
  0
VERTEX
  5
23FF
  8
SAPA_GLAS
 10
-59.663511128413028
 20
-108.4953758135966
 30
0.0
  0
VERTEX
  5
2400
  8
SAPA_GLAS
 10
-59.663511128413063
 20
-138.49537581359661
 30
0.0
  0
SEQEND
  5
2401
  8
SAPA_GLAS
  0
POLYLINE
  5
1597
  8
SAPA_GLAS
 66
     1
 10
0.0
 20
0.0
 30
0.0
  0
VERTEX
  5
2402
  8
SAPA_GLAS
 10
-34.663511128413042
 20
-138.4953758135965
 30
0.0
  0
VERTEX
  5
2403
  8
SAPA_GLAS
 10
-34.663511128413042
 20
-108.4953758135965
 30
0.0
  0
VERTEX
  5
2404
  8
SAPA_GLAS
 10
-40.663511128413028
 20
-108.4953758135965
 30
0.0
  0
VERTEX
  5
2405
  8
SAPA_GLAS
 10
-40.663511128413063
 20
-138.49537581359641
 30
0.0
  0
SEQEND
  5
2406
  8
SAPA_GLAS
  0
POLYLINE
  5
1598
  8
SAPA_GLAS
 66
     1
 10
0.0
 20
0.0
 30
0.0
  0
VERTEX
  5
2407
  8
SAPA_GLAS
 10
-80.663511128413049
 20
-138.49537581359641
 30
0.0
  0
VERTEX
  5
2408
  8
SAPA_GLAS
 10
-80.663511128413035
 20
-108.4953758135965
 30
0.0
  0
VERTEX
  5
2409
  8
SAPA_GLAS
 10
-74.663511128413035
 20
-108.4953758135965
 30
0.0
  0
VERTEX
  5
240A
  8
SAPA_GLAS
 10
-74.663511128413035
 20
-138.49537581359641
 30
0.0
  0
SEQEND
  5
240B
  8
SAPA_GLAS
  0
POLYLINE
  5
15A0
  8
SAPA_FYLLNING
 66
     1
 10
0.0
 20
0.0
 30
0.0
  0
VERTEX
  5
2416
  8
SAPA_FYLLNING
 10
-35.500000000001073
 20
75.522594355138153
 30
0.0
  0
VERTEX
  5
2417
  8
SAPA_FYLLNING
 10
-35.50000000000108
 20
14.035114272656751
 30
0.0
  0
VERTEX
  5
2418
  8
SAPA_FYLLNING
 10
-43.50000000000108
 20
14.035114272656751
 30
0.0
  0
VERTEX
  5
2419
  8
SAPA_FYLLNING
 10
-43.500000000001073
 20
75.522594355138153
 30
0.0
  0
SEQEND
  5
241A
  8
SAPA_FYLLNING
  0
LINE
  5
15A1
  8
SAPA_FYLLNING
 10
52.499999999998813
 20
26.000000000000021
 30
0.0
 11
52.499999999998757
 21
75.000000000000014
 31
0.0
  0
POLYLINE
  5
15A2
  8
SAPA_FYLLNING
 66
     1
 10
0.0
 20
0.0
 30
0.0
  0
VERTEX
  5
241B
  8
SAPA_FYLLNING
 10
50.999999999998771
 20
75.000000000000014
 30
0.0
  0
VERTEX
  5
241C
  8
SAPA_FYLLNING
 10
50.999999999998757
 20
26.000000000000021
 30
0.0
  0
VERTEX
  5
241D
  8
SAPA_FYLLNING
 10
62.499999999998813
 20
26.000000000000021
 30
0.0
  0
VERTEX
  5
241E
  8
SAPA_FYLLNING
 10
62.49999999999882
 20
75.000000000000014
 30
0.0
  0
SEQEND
  5
241F
  8
SAPA_FYLLNING
  0
LINE
  5
15B7
  8
SAPA_ISOLATOR
 10
-16.892423879848572
 20
-24.999999631037159
 30
0.0
 11
-16.892423879848572
 21
-30.994623398220089
 31
0.0
  0
LINE
  5
15B8
  8
SAPA_ISOLATOR
 10
-45.03802827347257
 20
-24.999999631037149
 30
0.0
 11
-16.892423879848572
 21
-24.999999631037159
 31
0.0
  0
LINE
  5
15B9
  8
SAPA_ISOLATOR
 10
-45.03802827347257
 20
-30.994623398221901
 30
0.0
 11
-45.03802827347257
 21
-24.999999631037149
 31
0.0
  0
LINE
  5
15BA
  8
SAPA_ISOLATOR
 10
-16.892423879848572
 20
-30.999999631037159
 30
0.0
 11
-45.03802827347257
 21
-30.994623398221901
 31
0.0
  0
POLYLINE
  5
15BB
  8
SAPA_ISOLATOR
 66
     1
 10
0.0
 20
0.0
 30
0.0
 70
     1
  0
VERTEX
  5
2498
  8
SAPA_ISOLATOR
 10
-55.235078053681541
 20
-8.8339473861456081
 30
0.0
 42
0.2133140774071598
  0
VERTEX
  5
2499
  8
SAPA_ISOLATOR
 10
-53.744915521943597
 20
-9.5000000000001137
 30
0.0
  0
VERTEX
  5
249A
  8
SAPA_ISOLATOR
 10
-53.573058613284672
 20
-9.5000000000001137
 30
0.0
 42
-0.9999999999999998
  0
VERTEX
  5
249B
  8
SAPA_ISOLATOR
 10
-53.573058613284672
 20
-10.00000000000011
 30
0.0
  0
VERTEX
  5
249C
  8
SAPA_ISOLATOR
 10
-54.532183152571243
 20
-10.00000000000011
 30
0.0
 42
-0.2072397715914422
  0
VERTEX
  5
249D
  8
SAPA_ISOLATOR
 10
-56.35558719549163
 20
-9.2103209337028602
 30
0.0
 42
-0.1421101772925093
  0
VERTEX
  5
249E
  8
SAPA_ISOLATOR
 10
-58.499999999010072
 20
-5.0000000000001128
 30
0.0
  0
VERTEX
  5
249F
  8
SAPA_ISOLATOR
 10
-56.687834754465086
 20
-5.0000000000001128
 30
0.0
 42
0.1860725815673001
  0
SEQEND
  5
24A0
  8
SAPA_ISOLATOR
  0
POLYLINE
  5
15BC
  8
SAPA_ISOLATOR
 66
     1
 10
0.0
 20
0.0
 30
0.0
 70
     1
  0
VERTEX
  5
24A1
  8
SAPA_ISOLATOR
 10
-55.235078053681541
 20
8.8339473861456081
 30
0.0
 42
-0.2133140774071598
  0
VERTEX
  5
24A2
  8
SAPA_ISOLATOR
 10
-53.744915521943597
 20
9.5
 30
0.0
  0
VERTEX
  5
24A3
  8
SAPA_ISOLATOR
 10
-53.573058613284672
 20
9.5
 30
0.0
 42
0.9999999999999998
  0
VERTEX
  5
24A4
  8
SAPA_ISOLATOR
 10
-53.573058613284672
 20
10.0
 30
0.0
  0
VERTEX
  5
24A5
  8
SAPA_ISOLATOR
 10
-54.532183152571243
 20
10.0
 30
0.0
 42
0.2072397715914422
  0
VERTEX
  5
24A6
  8
SAPA_ISOLATOR
 10
-56.35558719549163
 20
9.2103209337027465
 30
0.0
 42
0.1421101772925093
  0
VERTEX
  5
24A7
  8
SAPA_ISOLATOR
 10
-58.499999999010072
 20
5.0
 30
0.0
  0
VERTEX
  5
24A8
  8
SAPA_ISOLATOR
 10
-56.687834754465086
 20
5.0
 30
0.0
 42
-0.1860725815673001
  0
SEQEND
  5
24A9
  8
SAPA_ISOLATOR
  0
POLYLINE
  5
15BD
  8
SAPA_ISOLATOR
 66
     1
 10
0.0
 20
0.0
 30
0.0
 70
     1
  0
VERTEX
  5
24AA
  8
SAPA_ISOLATOR
 10
-70.235078053681534
 20
8.8339473861456081
 30
0.0
 42
-0.2133140774071598
  0
VERTEX
  5
24AB
  8
SAPA_ISOLATOR
 10
-68.744915521943597
 20
9.5
 30
0.0
  0
VERTEX
  5
24AC
  8
SAPA_ISOLATOR
 10
-68.573058613284672
 20
9.5
 30
0.0
 42
0.9999999999999998
  0
VERTEX
  5
24AD
  8
SAPA_ISOLATOR
 10
-68.573058613284672
 20
10.0
 30
0.0
  0
VERTEX
  5
24AE
  8
SAPA_ISOLATOR
 10
-69.532183152571235
 20
10.0
 30
0.0
 42
0.2072397715914422
  0
VERTEX
  5
24AF
  8
SAPA_ISOLATOR
 10
-71.355587195491637
 20
9.2103209337027465
 30
0.0
 42
0.1421101772925093
  0
VERTEX
  5
24B0
  8
SAPA_ISOLATOR
 10
-73.499999999010072
 20
5.0
 30
0.0
  0
VERTEX
  5
24B1
  8
SAPA_ISOLATOR
 10
-71.687834754465086
 20
5.0
 30
0.0
 42
-0.1860725815673001
  0
SEQEND
  5
24B2
  8
SAPA_ISOLATOR
  0
POLYLINE
  5
15BE
  8
SAPA_ISOLATOR
 66
     1
 10
0.0
 20
0.0
 30
0.0
 70
     1
  0
VERTEX
  5
24B3
  8
SAPA_ISOLATOR
 10
-84.235078053681079
 20
8.8339473861454962
 30
0.0
 42
-0.2133140774071598
  0
VERTEX
  5
24B4
  8
SAPA_ISOLATOR
 10
-82.744915521943142
 20
9.5
 30
0.0
  0
VERTEX
  5
24B5
  8
SAPA_ISOLATOR
 10
-82.573058613284218
 20
9.5
 30
0.0
 42
0.9999999999999998
  0
VERTEX
  5
24B6
  8
SAPA_ISOLATOR
 10
-82.573058613284218
 20
10.0
 30
0.0
  0
VERTEX
  5
24B7
  8
SAPA_ISOLATOR
 10
-83.532183152570795
 20
10.0
 30
0.0
 42
0.2072397715914422
  0
VERTEX
  5
24B8
  8
SAPA_ISOLATOR
 10
-85.355587195491182
 20
9.2103209337027465
 30
0.0
 42
0.1421101772925093
  0
VERTEX
  5
24B9
  8
SAPA_ISOLATOR
 10
-87.499999999009617
 20
5.0
 30
0.0
  0
VERTEX
  5
24BA
  8
SAPA_ISOLATOR
 10
-85.687834754464646
 20
5.0
 30
0.0
 42
-0.1860725815673001
  0
SEQEND
  5
24BB
  8
SAPA_ISOLATOR
  0
POLYLINE
  5
15BF
  8
SAPA_ISOLATOR
 66
     1
 10
0.0
 20
0.0
 30
0.0
 70
     1
  0
VERTEX
  5
24BC
  8
SAPA_ISOLATOR
 10
-70.235078053681534
 20
-8.8339473861456081
 30
0.0
 42
0.2133140774071598
  0
VERTEX
  5
24BD
  8
SAPA_ISOLATOR
 10
-68.744915521943597
 20
-9.5000000000001137
 30
0.0
  0
VERTEX
  5
24BE
  8
SAPA_ISOLATOR
 10
-68.573058613284672
 20
-9.5000000000001137
 30
0.0
 42
-0.9999999999999998
  0
VERTEX
  5
24BF
  8
SAPA_ISOLATOR
 10
-68.573058613284672
 20
-10.00000000000011
 30
0.0
  0
VERTEX
  5
24C0
  8
SAPA_ISOLATOR
 10
-69.532183152571235
 20
-10.00000000000011
 30
0.0
 42
-0.2072397715914422
  0
VERTEX
  5
24C1
  8
SAPA_ISOLATOR
 10
-71.355587195491637
 20
-9.2103209337028602
 30
0.0
 42
-0.1421101772925093
  0
VERTEX
  5
24C2
  8
SAPA_ISOLATOR
 10
-73.499999999010072
 20
-5.0000000000001128
 30
0.0
  0
VERTEX
  5
24C3
  8
SAPA_ISOLATOR
 10
-71.687834754465086
 20
-5.0000000000001128
 30
0.0
 42
0.1860725815673001
  0
SEQEND
  5
24C4
  8
SAPA_ISOLATOR
  0
POLYLINE
  5
15C0
  8
SAPA_ISOLATOR
 66
     1
 10
0.0
 20
0.0
 30
0.0
 70
     1
  0
VERTEX
  5
24C5
  8
SAPA_ISOLATOR
 10
-84.235078053681079
 20
-8.8339473861456081
 30
0.0
 42
0.2133140774071598
  0
VERTEX
  5
24C6
  8
SAPA_ISOLATOR
 10
-82.744915521943142
 20
-9.5
 30
0.0
  0
VERTEX
  5
24C7
  8
SAPA_ISOLATOR
 10
-82.573058613284218
 20
-9.5
 30
0.0
 42
-0.9999999999999998
  0
VERTEX
  5
24C8
  8
SAPA_ISOLATOR
 10
-82.573058613284218
 20
-10.0
 30
0.0
  0
VERTEX
  5
24C9
  8
SAPA_ISOLATOR
 10
-83.532183152570795
 20
-10.0
 30
0.0
 42
-0.2072397715914422
  0
VERTEX
  5
24CA
  8
SAPA_ISOLATOR
 10
-85.355587195491182
 20
-9.2103209337027465
 30
0.0
 42
-0.1421101772925093
  0
VERTEX
  5
24CB
  8
SAPA_ISOLATOR
 10
-87.499999999009617
 20
-5.0
 30
0.0
  0
VERTEX
  5
24CC
  8
SAPA_ISOLATOR
 10
-85.687834754464646
 20
-5.0
 30
0.0
 42
0.1860725815673001
  0
SEQEND
  5
24CD
  8
SAPA_ISOLATOR
  0
POLYLINE
  5
15C1
  8
SAPA_ISOLATOR
 66
     1
 10
0.0
 20
0.0
 30
0.0
 70
     1
  0
VERTEX
  5
24CE
  8
SAPA_ISOLATOR
 10
-52.999999999009958
 20
5.0
 30
0.0
 42
-0.4142135623730951
  0
VERTEX
  5
24CF
  8
SAPA_ISOLATOR
 10
-52.499999999010072
 20
4.4999999999998863
 30
0.0
  0
VERTEX
  5
24D0
  8
SAPA_ISOLATOR
 10
-52.499999999009958
 20
3.274264068711886
 30
0.0
 42
0.1989123673796232
  0
VERTEX
  5
24D1
  8
SAPA_ISOLATOR
 10
-52.412132033365928
 20
3.0621320343559542
 30
0.0
  0
VERTEX
  5
24D2
  8
SAPA_ISOLATOR
 10
-51.737867964654072
 20
2.38786796564409
 30
0.0
 42
0.198912367379658
  0
VERTEX
  5
24D3
  8
SAPA_ISOLATOR
 10
-51.525735930298033
 20
2.3000000000000682
 30
0.0
  0
VERTEX
  5
24D4
  8
SAPA_ISOLATOR
 10
-47.094967040794643
 20
2.3000000000000682
 30
0.0
 42
-0.0912836897734216
  0
VERTEX
  5
24D5
  8
SAPA_ISOLATOR
 10
-44.975410007192693
 20
1.0813583321901199
 30
0.0
 42
-0.4396415083054796
  0
VERTEX
  5
24D6
  8
SAPA_ISOLATOR
 10
-44.975410007192579
 20
-1.081358332190006
 30
0.0
 42
-0.0912836897734207
  0
VERTEX
  5
24D7
  8
SAPA_ISOLATOR
 10
-47.094967040794643
 20
-2.2999999999999541
 30
0.0
  0
VERTEX
  5
24D8
  8
SAPA_ISOLATOR
 10
-51.525735930298033
 20
-2.2999999999999541
 30
0.0
 42
0.198912367379658
  0
VERTEX
  5
24D9
  8
SAPA_ISOLATOR
 10
-51.737867964654072
 20
-2.38786796564409
 30
0.0
  0
VERTEX
  5
24DA
  8
SAPA_ISOLATOR
 10
-52.412132033365928
 20
-3.0621320343559542
 30
0.0
 42
0.1989123673796375
  0
VERTEX
  5
24DB
  8
SAPA_ISOLATOR
 10
-52.499999999009958
 20
-3.274264068711886
 30
0.0
  0
VERTEX
  5
24DC
  8
SAPA_ISOLATOR
 10
-52.499999999009958
 20
-4.5
 30
0.0
 42
-0.4142135623730951
  0
VERTEX
  5
24DD
  8
SAPA_ISOLATOR
 10
-52.999999999009958
 20
-5.0
 30
0.0
  0
VERTEX
  5
24DE
  8
SAPA_ISOLATOR
 10
-92.499999999009958
 20
-5.0
 30
0.0
  0
VERTEX
  5
24DF
  8
SAPA_ISOLATOR
 10
-92.499999999009958
 20
-3.6242640688968768
 30
0.0
 42
-0.1989123676531388
  0
VERTEX
  5
24E0
  8
SAPA_ISOLATOR
 10
-92.412132033142655
 20
-3.412132034317664
 30
0.0
  0
VERTEX
  5
24E1
  8
SAPA_ISOLATOR
 10
-89.353553389603178
 20
-0.3535533972160465
 30
0.0
 42
0.4142135623730478
  0
VERTEX
  5
24E2
  8
SAPA_ISOLATOR
 10
-89.353553389603178
 20
0.3535533839705067
 30
0.0
  0
VERTEX
  5
24E3
  8
SAPA_ISOLATOR
 10
-92.412132033589216
 20
3.4121320343942889
 30
0.0
 42
-0.1989123671061486
  0
VERTEX
  5
24E4
  8
SAPA_ISOLATOR
 10
-92.499999999009958
 20
3.6242640685269398
 30
0.0
  0
VERTEX
  5
24E5
  8
SAPA_ISOLATOR
 10
-92.499999999009844
 20
5.0
 30
0.0
  0
SEQEND
  5
24E6
  8
SAPA_ISOLATOR
  0
POLYLINE
  5
15C2
  8
SAPA_ISOLATOR
 66
     1
 10
0.0
 20
0.0
 30
0.0
 70
     1
  0
VERTEX
  5
24E7
  8
SAPA_ISOLATOR
 10
-51.981370848908512
 20
1.200000000000045
 30
0.0
 42
-0.1989123673796566
  0
VERTEX
  5
24E8
  8
SAPA_ISOLATOR
 10
-52.19350288326433
 20
1.2878679656440679
 30
0.0
  0
VERTEX
  5
24E9
  8
SAPA_ISOLATOR
 10
-53.512132033365958
 20
2.6064971157455821
 30
0.0
 42
-0.198912367379654
  0
VERTEX
  5
24EA
  8
SAPA_ISOLATOR
 10
-53.599999999009981
 20
2.8186291501015139
 30
0.0
  0
VERTEX
  5
24EB
  8
SAPA_ISOLATOR
 10
-53.599999999009981
 20
3.6000000000000218
 30
0.0
 42
0.4142135623730389
  0
VERTEX
  5
24EC
  8
SAPA_ISOLATOR
 10
-53.899999999009928
 20
3.8999999999999768
 30
0.0
  0
VERTEX
  5
24ED
  8
SAPA_ISOLATOR
 10
-64.5467671470754
 20
3.8999999999999768
 30
0.0
 42
0.4142135623730946
  0
VERTEX
  5
24EE
  8
SAPA_ISOLATOR
 10
-64.846767147075354
 20
3.6000000000000218
 30
0.0
  0
VERTEX
  5
24EF
  8
SAPA_ISOLATOR
 10
-64.846767147075354
 20
-3.6000000000000218
 30
0.0
 42
0.4142135623730956
  0
VERTEX
  5
24F0
  8
SAPA_ISOLATOR
 10
-64.5467671470754
 20
-3.8999999999999768
 30
0.0
  0
VERTEX
  5
24F1
  8
SAPA_ISOLATOR
 10
-53.899999999009928
 20
-3.8999999999999768
 30
0.0
 42
0.4142135623730514
  0
VERTEX
  5
24F2
  8
SAPA_ISOLATOR
 10
-53.599999999009981
 20
-3.6000000000000218
 30
0.0
  0
VERTEX
  5
24F3
  8
SAPA_ISOLATOR
 10
-53.599999999009981
 20
-2.8186291501015139
 30
0.0
 42
-0.198912367379658
  0
VERTEX
  5
24F4
  8
SAPA_ISOLATOR
 10
-53.512132033365837
 20
-2.6064971157455821
 30
0.0
  0
VERTEX
  5
24F5
  8
SAPA_ISOLATOR
 10
-52.193502883264443
 20
-1.2878679656440679
 30
0.0
 42
-0.1989123673796573
  0
VERTEX
  5
24F6
  8
SAPA_ISOLATOR
 10
-51.981370848908512
 20
-1.200000000000045
 30
0.0
  0
VERTEX
  5
24F7
  8
SAPA_ISOLATOR
 10
-46.992292378098171
 20
-1.200000000000045
 30
0.0
 42
0.082016165771189
  0
VERTEX
  5
24F8
  8
SAPA_ISOLATOR
 10
-45.40822517359657
 20
-0.2604570137376641
 30
0.0
 42
0.4155202927268181
  0
VERTEX
  5
24F9
  8
SAPA_ISOLATOR
 10
-45.408225173608393
 20
0.2604570137476685
 30
0.0
 42
0.0820161657705025
  0
VERTEX
  5
24FA
  8
SAPA_ISOLATOR
 10
-46.992292378098171
 20
1.200000000000045
 30
0.0
  0
SEQEND
  5
24FB
  8
SAPA_ISOLATOR
  0
POLYLINE
  5
15C3
  8
SAPA_ISOLATOR
 66
     1
 10
0.0
 20
0.0
 30
0.0
 70
     1
  0
VERTEX
  5
24FC
  8
SAPA_ISOLATOR
 10
-65.846767147075354
 20
3.6000000000000218
 30
0.0
 42
0.4142135623731076
  0
VERTEX
  5
24FD
  8
SAPA_ISOLATOR
 10
-66.146767147075423
 20
3.8999999999999768
 30
0.0
  0
VERTEX
  5
24FE
  8
SAPA_ISOLATOR
 10
-79.021661667209003
 20
3.8999999999999768
 30
0.0
 42
0.4142135623730659
  0
VERTEX
  5
24FF
  8
SAPA_ISOLATOR
 10
-79.321661667208957
 20
3.6000000000000218
 30
0.0
  0
VERTEX
  5
2500
  8
SAPA_ISOLATOR
 10
-79.321661667209071
 20
-3.6000000000000218
 30
0.0
 42
0.414213562373041
  0
VERTEX
  5
2501
  8
SAPA_ISOLATOR
 10
-79.021661667209003
 20
-3.8999999999999768
 30
0.0
  0
VERTEX
  5
2502
  8
SAPA_ISOLATOR
 10
-66.146767147075423
 20
-3.8999999999999768
 30
0.0
 42
0.4142135623730784
  0
VERTEX
  5
2503
  8
SAPA_ISOLATOR
 10
-65.846767147075468
 20
-3.6000000000000218
 30
0.0
  0
SEQEND
  5
2504
  8
SAPA_ISOLATOR
  0
POLYLINE
  5
15C4
  8
SAPA_ISOLATOR
 66
     1
 10
0.0
 20
0.0
 30
0.0
 70
     1
  0
VERTEX
  5
2505
  8
SAPA_ISOLATOR
 10
-80.321661667209071
 20
3.6000000000000218
 30
0.0
 42
0.4142135623730659
  0
VERTEX
  5
2506
  8
SAPA_ISOLATOR
 10
-80.621661667209025
 20
3.8999999999999768
 30
0.0
  0
VERTEX
  5
2507
  8
SAPA_ISOLATOR
 10
-90.378679657682881
 20
3.8999999999999768
 30
0.0
 42
0.6681786375386655
  0
VERTEX
  5
2508
  8
SAPA_ISOLATOR
 10
-90.661522370455089
 20
3.2171572878230559
 30
0.0
  0
VERTEX
  5
2509
  8
SAPA_ISOLATOR
 10
-88.575735929479436
 20
1.131370842457158
 30
0.0
 42
-0.4142135623730892
  0
VERTEX
  5
250A
  8
SAPA_ISOLATOR
 10
-88.575735930297981
 20
-1.131370856521243
 30
0.0
  0
VERTEX
  5
250B
  8
SAPA_ISOLATOR
 10
-90.661522365394774
 20
-3.2171572872276779
 30
0.0
 42
0.6681786382998773
  0
VERTEX
  5
250C
  8
SAPA_ISOLATOR
 10
-90.37867965321783
 20
-3.8999999999999768
 30
0.0
  0
VERTEX
  5
250D
  8
SAPA_ISOLATOR
 10
-80.621661667209125
 20
-3.8999999999999768
 30
0.0
 42
0.4142135623730951
  0
VERTEX
  5
250E
  8
SAPA_ISOLATOR
 10
-80.321661667209071
 20
-3.6000000000000218
 30
0.0
  0
SEQEND
  5
250F
  8
SAPA_ISOLATOR
  0
LINE
  5
15C5
  8
SAPA_ISOLATOR
 10
-45.03802827347257
 20
-30.994623398221901
 30
0.0
 11
-16.892423879848572
 21
-24.999999631037159
 31
0.0
  0
LINE
  5
15C6
  8
SAPA_ISOLATOR
 10
-16.892423879848572
 20
-31.016586933922611
 30
0.0
 11
-45.03802827347257
 21
-25.011210701107359
 31
0.0
  0
POLYLINE
  5
15EC
  8
SAPA_FOGBAND
 66
     1
 10
0.0
 20
0.0
 30
0.0
 70
     1
  0
VERTEX
  5
2717
  8
SAPA_FOGBAND
 10
-71.364139622992667
 20
-72.305446141478527
 30
0.0
 42
-0.1579553886371987
  0
VERTEX
  5
2718
  8
SAPA_FOGBAND
 10
-71.511199129457026
 20
-75.56927418559458
 30
0.0
 42
-1.0
  0
VERTEX
  5
2719
  8
SAPA_FOGBAND
 10
-74.882516852218146
 20
-74.306651196655324
 30
0.0
 42
-0.1276248526686838
  0
VERTEX
  5
271A
  8
SAPA_FOGBAND
 10
-73.641204430532554
 20
-72.538998688177756
 30
0.0
  0
VERTEX
  5
271B
  8
SAPA_FOGBAND
 10
-72.571815757960138
 20
-71.629652164609027
 30
0.0
 42
-0.5691506674918112
  0
VERTEX
  5
271C
  8
SAPA_FOGBAND
 10
-71.433124563323048
 20
-72.019887920327122
 30
0.0
 42
0.0156300267407041
  0
SEQEND
  5
271D
  8
SAPA_FOGBAND
  0
POLYLINE
  5
15ED
  8
SAPA_FOGBAND
 66
     1
 10
0.0
 20
0.0
 30
0.0
 70
     1
  0
VERTEX
  5
271E
  8
SAPA_FOGBAND
 10
-78.573627998605247
 20
-61.002594700925279
 30
0.0
 42
0.3888787318529789
  0
VERTEX
  5
271F
  8
SAPA_FOGBAND
 10
-77.586572174095267
 20
-62.288950895836891
 30
0.0
  0
VERTEX
  5
2720
  8
SAPA_FOGBAND
 10
-76.869070324508897
 20
-62.415465830627411
 30
0.0
 42
1.0
  0
VERTEX
  5
2721
  8
SAPA_FOGBAND
 10
-76.278185672701596
 20
-62.519654737227903
 30
0.0
  0
VERTEX
  5
2722
  8
SAPA_FOGBAND
 10
-75.669070324508624
 20
-62.62705820747756
 30
0.0
 42
0.9999999999999067
  0
VERTEX
  5
2723
  8
SAPA_FOGBAND
 10
-75.078185672701323
 20
-62.73124711407759
 30
0.0
  0
VERTEX
  5
2724
  8
SAPA_FOGBAND
 10
-74.733459038032464
 20
-62.792031720738983
 30
0.0
 42
-0.3345953195020691
  0
VERTEX
  5
2725
  8
SAPA_FOGBAND
 10
-72.681274743778971
 20
-64.992729945100066
 30
0.0
  0
VERTEX
  5
2726
  8
SAPA_FOGBAND
 10
-72.328166970861815
 20
-69.006537350111955
 30
0.0
 42
-0.2564696513213821
  0
VERTEX
  5
2727
  8
SAPA_FOGBAND
 10
-73.454099136803819
 20
-71.461031548818895
 30
0.0
  0
VERTEX
  5
2728
  8
SAPA_FOGBAND
 10
-74.094664317022392
 20
-72.005731277449698
 30
0.0
 42
0.1276248526686853
  0
VERTEX
  5
2729
  8
SAPA_FOGBAND
 10
-75.53805085386611
 20
-74.061141171028751
 30
0.0
 42
1.0
  0
VERTEX
  5
272A
  8
SAPA_FOGBAND
 10
-70.855665127809146
 20
-75.814784211221607
 30
0.0
 42
0.1579553886371977
  0
VERTEX
  5
272B
  8
SAPA_FOGBAND
 10
-70.689182667660674
 20
-72.11988453863701
 30
0.0
 42
-0.0604483959424258
  0
VERTEX
  5
272C
  8
SAPA_FOGBAND
 10
-70.790275202113747
 20
-68.729772477651693
 30
0.0
  0
VERTEX
  5
272D
  8
SAPA_FOGBAND
 10
-70.578194360895026
 20
-63.57220572128422
 30
0.0
 42
-0.3286126757704555
  0
VERTEX
  5
272E
  8
SAPA_FOGBAND
 10
-69.522638805339369
 20
-62.139561614814689
 30
0.0
 42
0.2704382184496639
  0
VERTEX
  5
272F
  8
SAPA_FOGBAND
 10
-68.608962530199364
 20
-61.021053089678347
 30
0.0
  0
VERTEX
  5
2730
  8
SAPA_FOGBAND
 10
-72.478194360895117
 20
-61.220916854806042
 30
0.0
  0
VERTEX
  5
2731
  8
SAPA_FOGBAND
 10
-72.478194360895117
 20
-60.020916854806231
 30
0.0
  0
VERTEX
  5
2732
  8
SAPA_FOGBAND
 10
-72.53266612393449
 20
-58.959852449256651
 30
0.0
  0
VERTEX
  5
2733
  8
SAPA_FOGBAND
 10
-71.982820215129408
 20
-58.960821459114371
 30
0.0
 42
0.6068148963145658
  0
VERTEX
  5
2734
  8
SAPA_FOGBAND
 10
-71.867629645754363
 20
-58.441230378291912
 30
0.0
  0
VERTEX
  5
2735
  8
SAPA_FOGBAND
 10
-73.683042455774824
 20
-57.064904692401761
 30
0.0
 42
0.4400105308918406
  0
VERTEX
  5
2736
  8
SAPA_FOGBAND
 10
-75.207671747013222
 20
-57.265625946488363
 30
0.0
  0
VERTEX
  5
2737
  8
SAPA_FOGBAND
 10
-76.730873128428897
 20
-59.282588870711109
 30
0.0
 42
0.5205670505516999
  0
VERTEX
  5
2738
  8
SAPA_FOGBAND
 10
-76.562773228672853
 20
-59.74443954950307
 30
0.0
  0
VERTEX
  5
2739
  8
SAPA_FOGBAND
 10
-75.817934117240242
 20
-59.77103518053805
 30
0.0
  0
VERTEX
  5
273A
  8
SAPA_FOGBAND
 10
-76.017445060694257
 20
-61.060947989386428
 30
0.0
  0
SEQEND
  5
273B
  8
SAPA_FOGBAND
  0
CIRCLE
  5
15EE
  8
SAPA_FOGBAND
 10
-71.997051924880523
 20
-62.616112303479852
 30
0.0
 40
0.3
  0
POLYLINE
  5
15EF
  8
SAPA_FOGBAND
 66
     1
 10
0.0
 20
0.0
 30
0.0
 70
     1
  0
VERTEX
  5
273C
  8
SAPA_FOGBAND
 10
-75.178194360894935
 20
-58.807464586084237
 30
0.0
  0
VERTEX
  5
273D
  8
SAPA_FOGBAND
 10
-75.178194360894935
 20
-60.720916854806049
 30
0.0
 42
0.4142135623730951
  0
VERTEX
  5
273E
  8
SAPA_FOGBAND
 10
-74.678194360894935
 20
-61.220916854806042
 30
0.0
  0
VERTEX
  5
273F
  8
SAPA_FOGBAND
 10
-73.878194360895208
 20
-61.220916854806042
 30
0.0
 42
0.4142135623730951
  0
VERTEX
  5
2740
  8
SAPA_FOGBAND
 10
-73.378194360895208
 20
-60.720916854806049
 30
0.0
  0
VERTEX
  5
2741
  8
SAPA_FOGBAND
 10
-73.378194360895208
 20
-58.64481304273972
 30
0.0
 42
0.2216946626429447
  0
VERTEX
  5
2742
  8
SAPA_FOGBAND
 10
-73.592521795083115
 20
-58.18518637686789
 30
0.0
  0
VERTEX
  5
2743
  8
SAPA_FOGBAND
 10
-74.021716415019995
 20
-57.8250493295754
 30
0.0
 42
0.4400105308918337
  0
VERTEX
  5
2744
  8
SAPA_FOGBAND
 10
-74.683797913953725
 20
-57.91221401251682
 30
0.0
  0
VERTEX
  5
2745
  8
SAPA_FOGBAND
 10
-75.06968558746857
 20
-58.463318724273407
 30
0.0
 42
0.153914721059829
  0
SEQEND
  5
2746
  8
SAPA_FOGBAND
  0
POLYLINE
  5
15F0
  8
SAPA_FOGBAND
 66
     1
 10
0.0
 20
0.0
 30
0.0
 70
     1
  0
VERTEX
  5
2747
  8
SAPA_FOGBAND
 10
-86.598715294411946
 20
-80.261691287441266
 30
0.0
  0
VERTEX
  5
2748
  8
SAPA_FOGBAND
 10
-87.598715294411946
 20
-80.261691287441266
 30
0.0
 42
-0.9999999999999998
  0
VERTEX
  5
2749
  8
SAPA_FOGBAND
 10
-87.598715294411946
 20
-79.057531829562024
 30
0.0
  0
VERTEX
  5
274A
  8
SAPA_FOGBAND
 10
-86.598715294411946
 20
-79.057531829562024
 30
0.0
 42
-0.9999999999999998
  0
SEQEND
  5
274B
  8
SAPA_FOGBAND
  0
POLYLINE
  5
15F1
  8
SAPA_FOGBAND
 66
     1
 10
0.0
 20
0.0
 30
0.0
 70
     1
  0
VERTEX
  5
274C
  8
SAPA_FOGBAND
 10
-87.522567591768265
 20
-77.692327282316413
 30
0.0
  0
VERTEX
  5
274D
  8
SAPA_FOGBAND
 10
-88.908332678713805
 20
-78.550385992625877
 30
0.0
 42
0.2528723899644565
  0
VERTEX
  5
274E
  8
SAPA_FOGBAND
 10
-88.998715294411937
 20
-78.717670268811105
 30
0.0
  0
VERTEX
  5
274F
  8
SAPA_FOGBAND
 10
-88.998715294411937
 20
-80.601552848192199
 30
0.0
 42
0.2528723899644564
  0
VERTEX
  5
2750
  8
SAPA_FOGBAND
 10
-88.908332678713805
 20
-80.768837124377427
 30
0.0
  0
VERTEX
  5
2751
  8
SAPA_FOGBAND
 10
-87.522567591768265
 20
-81.626895834686877
 30
0.0
 42
0.5108224790788402
  0
VERTEX
  5
2752
  8
SAPA_FOGBAND
 10
-87.219765042208607
 20
-81.511375367522163
 30
0.0
  0
VERTEX
  5
2753
  8
SAPA_FOGBAND
 10
-87.098715294411946
 20
-81.109611558501655
 30
0.0
  0
VERTEX
  5
2754
  8
SAPA_FOGBAND
 10
-85.998715294411923
 20
-81.109611558501655
 30
0.0
  0
VERTEX
  5
2755
  8
SAPA_FOGBAND
 10
-85.998715294411923
 20
-82.974346162359922
 30
0.0
 42
0.0874886635259237
  0
VERTEX
  5
2756
  8
SAPA_FOGBAND
 10
-85.986653818569124
 20
-83.042750191025036
 30
0.0
  0
VERTEX
  5
2757
  8
SAPA_FOGBAND
 10
-85.430840104132358
 20
-86.575494337065194
 30
0.0
 42
0.9391885369168745
  0
VERTEX
  5
2758
  8
SAPA_FOGBAND
 10
-85.047883585459715
 20
-86.462728367333682
 30
0.0
  0
VERTEX
  5
2759
  8
SAPA_FOGBAND
 10
-85.198715294411954
 20
-82.590534562096678
 30
0.0
  0
VERTEX
  5
275A
  8
SAPA_FOGBAND
 10
-85.0039995138373
 20
-81.760359595248076
 30
0.0
 42
0.0576596372120268
  0
VERTEX
  5
275B
  8
SAPA_FOGBAND
 10
-84.998715294411923
 20
-81.714689421225941
 30
0.0
  0
VERTEX
  5
275C
  8
SAPA_FOGBAND
 10
-84.998715294411923
 20
-77.309611558501643
 30
0.0
 42
0.4142135623730951
  0
VERTEX
  5
275D
  8
SAPA_FOGBAND
 10
-85.598715294411946
 20
-76.709611558501635
 30
0.0
  0
VERTEX
  5
275E
  8
SAPA_FOGBAND
 10
-85.798715294411949
 20
-76.709611558501635
 30
0.0
 42
0.4142135623730951
  0
VERTEX
  5
275F
  8
SAPA_FOGBAND
 10
-85.998715294411923
 20
-76.909611558501652
 30
0.0
  0
VERTEX
  5
2760
  8
SAPA_FOGBAND
 10
-85.998715294411923
 20
-78.209611558501649
 30
0.0
  0
VERTEX
  5
2761
  8
SAPA_FOGBAND
 10
-87.098715294411946
 20
-78.209611558501649
 30
0.0
  0
VERTEX
  5
2762
  8
SAPA_FOGBAND
 10
-87.219765042208607
 20
-77.807847749481141
 30
0.0
 42
0.51082247907884
  0
SEQEND
  5
2763
  8
SAPA_FOGBAND
  0
POLYLINE
  5
15F2
  8
SAPA_FOGBAND
 66
     1
 10
0.0
 20
0.0
 30
0.0000000195376815
 70
     1
  0
VERTEX
  5
2764
  8
SAPA_FOGBAND
 10
2.5513651484896092
 20
-58.387868248766658
 30
0.0000000195376815
  0
VERTEX
  5
2765
  8
SAPA_FOGBAND
 10
2.5513651484896092
 20
-58.287868248766657
 30
0.0000000195376815
 42
0.4142135623730959
  0
VERTEX
  5
2766
  8
SAPA_FOGBAND
 10
1.8513651484896201
 20
-57.587868248766682
 30
0.0000000195376815
  0
VERTEX
  5
2767
  8
SAPA_FOGBAND
 10
0.7513651484896262
 20
-57.587868248766647
 30
0.0000000195376815
 42
0.4142135623730961
  0
VERTEX
  5
2768
  8
SAPA_FOGBAND
 10
0.5513651484896092
 20
-57.787868248766671
 30
0.0000000195376815
  0
VERTEX
  5
2769
  8
SAPA_FOGBAND
 10
0.5513651484896092
 20
-58.887868248766672
 30
0.0000000195376815
 42
0.4142135623730956
  0
VERTEX
  5
276A
  8
SAPA_FOGBAND
 10
0.7513651484896262
 20
-59.087868248766682
 30
0.0000000195376815
  0
VERTEX
  5
276B
  8
SAPA_FOGBAND
 10
1.8513651484896201
 20
-59.087868248766647
 30
0.0000000195376815
 42
0.4142135623730946
  0
SEQEND
  5
276C
  8
SAPA_FOGBAND
  0
POLYLINE
  5
15F3
  8
SAPA_FOGBAND
 66
     1
 10
0.0
 20
0.0
 30
0.0000000195376815
 70
     1
  0
VERTEX
  5
276D
  8
SAPA_FOGBAND
 10
1.251365148489626
 20
-59.887868248766658
 30
0.0000000195376815
  0
VERTEX
  5
276E
  8
SAPA_FOGBAND
 10
0.6035995832165364
 20
-59.887868248766658
 30
0.0000000195376815
 42
0.4416942457848324
  0
VERTEX
  5
276F
  8
SAPA_FOGBAND
 10
0.4044621037235894
 20
-60.106422608394581
 30
0.0000000195376815
  0
VERTEX
  5
2770
  8
SAPA_FOGBAND
 10
0.4941781689816352
 20
-61.069313889138748
 30
0.0000000195376815
 42
-0.4416942457847888
  0
VERTEX
  5
2771
  8
SAPA_FOGBAND
 10
0.2950406894887165
 20
-61.287868248766671
 30
0.0000000195376815
  0
VERTEX
  5
2772
  8
SAPA_FOGBAND
 10
-0.2549416501028494
 20
-61.287868248766671
 30
0.0000000195376815
 42
-0.5445962197109612
  0
VERTEX
  5
2773
  8
SAPA_FOGBAND
 10
-0.7106785591646903
 20
-60.582189203361587
 30
0.0000000195376815
  0
VERTEX
  5
2774
  8
SAPA_FOGBAND
 10
-0.5486348515103856
 20
-60.223138050076329
 30
0.0000000195376815
  0
VERTEX
  5
2775
  8
SAPA_FOGBAND
 10
-0.5486348515103831
 20
-58.750178811328418
 30
0.0000000195376815
 42
-0.3364379234965429
  0
VERTEX
  5
2776
  8
SAPA_FOGBAND
 10
-0.3611280336686349
 20
-57.678435081713587
 30
0.0000000195376815
  0
VERTEX
  5
2777
  8
SAPA_FOGBAND
 10
-0.3611280336686349
 20
-57.116571445889889
 30
0.0000000195376815
 42
0.1919812372740509
  0
VERTEX
  5
2778
  8
SAPA_FOGBAND
 10
-0.4982604116859051
 20
-56.772584398289837
 30
0.0000000195376815
  0
VERTEX
  5
2779
  8
SAPA_FOGBAND
 10
-0.8697378879759884
 20
-56.380717467886569
 30
0.0000000195376815
 42
0.7712067734688043
  0
VERTEX
  5
277A
  8
SAPA_FOGBAND
 10
-3.6793718836566489
 20
-58.953149167760699
 30
0.0000000195376815
 42
0.152544453744271
  0
VERTEX
  5
277B
  8
SAPA_FOGBAND
 10
-2.7874966149028699
 20
-59.822574917600861
 30
0.0000000195376815
 42
-0.6229515670381967
  0
VERTEX
  5
277C
  8
SAPA_FOGBAND
 10
-2.8873788987254012
 20
-60.297515102376607
 30
0.0000000195376815
 42
-0.2412896305485237
  0
VERTEX
  5
277D
  8
SAPA_FOGBAND
 10
-3.2908437130675341
 20
-60.260763831078492
 30
0.0000000195376815
 42
-0.0924947384438033
  0
VERTEX
  5
277E
  8
SAPA_FOGBAND
 10
-3.9813441251089499
 20
-59.638770922348201
 30
0.0000000195376815
 42
-0.8622191196043894
  0
VERTEX
  5
277F
  8
SAPA_FOGBAND
 10
-0.4054323731331105
 20
-55.814899768606921
 30
0.0000000195376815
  0
VERTEX
  5
2780
  8
SAPA_FOGBAND
 10
-0.2900643998439847
 20
-55.384340630725653
 30
0.0000000195376815
 42
-0.9163311740173991
  0
VERTEX
  5
2781
  8
SAPA_FOGBAND
 10
0.4947838099083551
 20
-55.522730545865748
 30
0.0000000195376815
  0
VERTEX
  5
2782
  8
SAPA_FOGBAND
 10
0.4031213637008047
 20
-56.570437100217141
 30
0.0000000195376815
 42
0.4400105308918151
  0
VERTEX
  5
2783
  8
SAPA_FOGBAND
 10
0.602360303319145
 20
-56.787868248766671
 30
0.0000000195376815
  0
VERTEX
  5
2784
  8
SAPA_FOGBAND
 10
1.451365148489614
 20
-56.787868248766671
 30
0.0000000195376815
  0
VERTEX
  5
2785
  8
SAPA_FOGBAND
 10
1.451365148489614
 20
-56.387868248766672
 30
0.0000000195376815
 42
-0.5693809839207585
  0
VERTEX
  5
2786
  8
SAPA_FOGBAND
 10
1.747181520192256
 20
-56.212314203203121
 30
0.0000000195376815
  0
VERTEX
  5
2787
  8
SAPA_FOGBAND
 10
3.0388142635975579
 20
-56.917279803102147
 30
0.0000000195376815
 42
-0.2743878130875472
  0
VERTEX
  5
2788
  8
SAPA_FOGBAND
 10
3.3513651484896338
 20
-57.443941939792893
 30
0.0000000195376815
  0
VERTEX
  5
2789
  8
SAPA_FOGBAND
 10
3.3513651484896201
 20
-59.231794557740429
 30
0.0000000195376815
 42
-0.2743878130875473
  0
VERTEX
  5
278A
  8
SAPA_FOGBAND
 10
3.0388142635975481
 20
-59.75845669443116
 30
0.0000000195376815
  0
VERTEX
  5
278B
  8
SAPA_FOGBAND
 10
1.747181520192286
 20
-60.46342229433025
 30
0.0000000195376815
 42
-0.5693809839208271
  0
VERTEX
  5
278C
  8
SAPA_FOGBAND
 10
1.451365148489582
 20
-60.287868248766671
 30
0.0000000195376815
  0
VERTEX
  5
278D
  8
SAPA_FOGBAND
 10
1.4513651484896151
 20
-59.887868248766658
 30
0.0000000195376815
  0
VERTEX
  5
278E
  8
SAPA_FOGBAND
 10
0.6023603033191458
 20
-59.887868248766658
 30
0.0000000195376815
  0
SEQEND
  5
278F
  8
SAPA_FOGBAND
  0
CIRCLE
  5
15F4
  8
SAPA_FOGBAND
 10
-92.637568222720802
 20
-18.614660706669611
 30
0.0
 40
0.2549509756796394
  0
INSERT
  5
15F5
  8
SAPA_FOGBAND
  6
CONTINUOUS
  2
*U98
 10
0.0
 20
0.0
 30
0.0
1001
ACAD
1002
{
1000
R14_HATCH_DATA
1000
15F5
1011
1.0
1021
0.0
1031
0.0
1021
0.0
1031
0.0
1011
0.0
1021
0.0
1031
0.0
1021
1.0
1031
0.0
1011
0.0
1021
0.0
1031
0.0
1021
0.0
1031
1.0
1040
0.0
1010
0.0
1020
0.0
1030
1.0
1000
SOLID
1070
     1
1070
     1
1071
        1
1071
        1
1071
        1
1070
     2
1040
-92.637568222720802
1040
-18.614660706669611
1040
0.2549509756796394
1040
-1.5707963267948959
1040
4.7123889803846888
1070
     0
1071
        1
1005
15F4
1070
     0
1070
     1
1071
        1
1040
-92.555716725391903
1040
-18.851399608239721
1040
0.0
1002
}
  0
POLYLINE
  5
15F6
  8
SAPA_FOGBAND
 66
     1
 10
0.0
 20
0.0
 30
0.0
 70
     1
  0
VERTEX
  5
27A1
  8
SAPA_FOGBAND
 10
-95.600000001965327
 20
-17.71466070666963
 30
0.0
 42
-0.9999999999999998
  0
VERTEX
  5
27A2
  8
SAPA_FOGBAND
 10
-95.600000001965327
 20
-19.514660706669591
 30
0.0
  0
VERTEX
  5
27A3
  8
SAPA_FOGBAND
 10
-96.20000000196535
 20
-19.514660706669591
 30
0.0
 42
-0.9999999999999998
  0
VERTEX
  5
27A4
  8
SAPA_FOGBAND
 10
-96.20000000196535
 20
-17.71466070666963
 30
0.0
  0
SEQEND
  5
27A5
  8
SAPA_FOGBAND
  0
POLYLINE
  5
15F7
  8
SAPA_FOGBAND
 66
     1
 10
0.0
 20
0.0
 30
0.0
 70
     1
  0
VERTEX
  5
27A6
  8
SAPA_FOGBAND
 10
-90.500000001965304
 20
-27.24253701484281
 30
0.0
 42
-0.0775891054856093
  0
VERTEX
  5
27A7
  8
SAPA_FOGBAND
 10
-90.816635986026654
 20
-23.77575528442026
 30
0.0
  0
VERTEX
  5
27A8
  8
SAPA_FOGBAND
 10
-90.60000000196527
 20
-23.537865791591461
 30
0.0
 42
0.5773502691896298
  0
VERTEX
  5
27A9
  8
SAPA_FOGBAND
 10
-90.60000000196527
 20
-23.191455630077598
 30
0.0
  0
VERTEX
  5
27AA
  8
SAPA_FOGBAND
 10
-90.816909856188317
 20
-22.953408013346799
 30
0.0
  0
VERTEX
  5
27AB
  8
SAPA_FOGBAND
 10
-90.816909856188317
 20
-22.175913403430169
 30
0.0
  0
VERTEX
  5
27AC
  8
SAPA_FOGBAND
 10
-90.60000000196527
 20
-21.937865791591431
 30
0.0
 42
0.577350269189699
  0
VERTEX
  5
27AD
  8
SAPA_FOGBAND
 10
-90.60000000196527
 20
-21.591455630077689
 30
0.0
  0
VERTEX
  5
27AE
  8
SAPA_FOGBAND
 10
-90.816909856188317
 20
-21.35340801334689
 30
0.0
  0
VERTEX
  5
27AF
  8
SAPA_FOGBAND
 10
-90.816909856188317
 20
-20.57591340343015
 30
0.0
  0
VERTEX
  5
27B0
  8
SAPA_FOGBAND
 10
-90.60000000196527
 20
-20.337865791591408
 30
0.0
 42
0.577350269189699
  0
VERTEX
  5
27B1
  8
SAPA_FOGBAND
 10
-90.60000000196527
 20
-19.99145563007767
 30
0.0
  0
VERTEX
  5
27B2
  8
SAPA_FOGBAND
 10
-90.816909856188317
 20
-19.753408013346871
 30
0.0
  0
VERTEX
  5
27B3
  8
SAPA_FOGBAND
 10
-90.816909856188317
 20
-18.97591340343012
 30
0.0
  0
VERTEX
  5
27B4
  8
SAPA_FOGBAND
 10
-90.60000000196527
 20
-18.737865791591499
 30
0.0
 42
0.5773502691896298
  0
VERTEX
  5
27B5
  8
SAPA_FOGBAND
 10
-90.60000000196527
 20
-18.39145563007764
 30
0.0
  0
VERTEX
  5
27B6
  8
SAPA_FOGBAND
 10
-90.816909856188317
 20
-18.153408013346841
 30
0.0
  0
VERTEX
  5
27B7
  8
SAPA_FOGBAND
 10
-90.816909856188317
 20
-17.375913403430101
 30
0.0
  0
VERTEX
  5
27B8
  8
SAPA_FOGBAND
 10
-90.60000000196527
 20
-17.13786579159148
 30
0.0
 42
0.5773502691896298
  0
VERTEX
  5
27B9
  8
SAPA_FOGBAND
 10
-90.60000000196527
 20
-16.791455630077621
 30
0.0
  0
VERTEX
  5
27BA
  8
SAPA_FOGBAND
 10
-90.816909856188317
 20
-16.553408013346822
 30
0.0
  0
VERTEX
  5
27BB
  8
SAPA_FOGBAND
 10
-90.816909856188317
 20
-15.775913399265161
 30
0.0
  0
VERTEX
  5
27BC
  8
SAPA_FOGBAND
 10
-90.60000000196527
 20
-15.537865787426419
 30
0.0
 42
0.577350269189699
  0
VERTEX
  5
27BD
  8
SAPA_FOGBAND
 10
-90.60000000196527
 20
-15.191455625912679
 30
0.0
  0
VERTEX
  5
27BE
  8
SAPA_FOGBAND
 10
-91.673330070449765
 20
-14.39145562635758
 30
0.0
 42
0.1316524987190269
  0
VERTEX
  5
27BF
  8
SAPA_FOGBAND
 10
-91.773330071220471
 20
-14.364660706669611
 30
0.0
  0
VERTEX
  5
27C0
  8
SAPA_FOGBAND
 10
-94.300000001965259
 20
-14.3646607066695
 30
0.0
 42
0.4142135623730951
  0
VERTEX
  5
27C1
  8
SAPA_FOGBAND
 10
-94.500000001965304
 20
-14.564660706669541
 30
0.0
  0
VERTEX
  5
27C2
  8
SAPA_FOGBAND
 10
-94.500000001965304
 20
-16.614660706669611
 30
0.0
 42
-0.4142135623730951
  0
VERTEX
  5
27C3
  8
SAPA_FOGBAND
 10
-95.000000001965304
 20
-17.114660706669611
 30
0.0
  0
VERTEX
  5
27C4
  8
SAPA_FOGBAND
 10
-95.726794921208466
 20
-17.114660706669611
 30
0.0
  0
VERTEX
  5
27C5
  8
SAPA_FOGBAND
 10
-95.794254830518867
 20
-16.86289689764908
 30
0.0
 42
0.4740571810232869
  0
VERTEX
  5
27C6
  8
SAPA_FOGBAND
 10
-96.076537416157521
 20
-16.735603035285521
 30
0.0
  0
VERTEX
  5
27C7
  8
SAPA_FOGBAND
 10
-97.522743552917305
 20
-17.35570353804405
 30
0.0
 42
0.2846003776495916
  0
VERTEX
  5
27C8
  8
SAPA_FOGBAND
 10
-97.800000001965259
 20
-17.80334771650428
 30
0.0
  0
VERTEX
  5
27C9
  8
SAPA_FOGBAND
 10
-97.800000001965259
 20
-19.425973696834831
 30
0.0
 42
0.2846003776495917
  0
VERTEX
  5
27CA
  8
SAPA_FOGBAND
 10
-97.522743552917305
 20
-19.87361787529505
 30
0.0
  0
VERTEX
  5
27CB
  8
SAPA_FOGBAND
 10
-96.076537416157521
 20
-20.49371837805359
 30
0.0
 42
0.4740571810232869
  0
VERTEX
  5
27CC
  8
SAPA_FOGBAND
 10
-95.794254830518867
 20
-20.366424515690031
 30
0.0
  0
VERTEX
  5
27CD
  8
SAPA_FOGBAND
 10
-95.726794921208466
 20
-20.114660706669611
 30
0.0
  0
VERTEX
  5
27CE
  8
SAPA_FOGBAND
 10
-95.000000001965304
 20
-20.114660706669611
 30
0.0
 42
-0.4142135623730951
  0
VERTEX
  5
27CF
  8
SAPA_FOGBAND
 10
-94.500000001965304
 20
-20.614660706669611
 30
0.0
  0
VERTEX
  5
27D0
  8
SAPA_FOGBAND
 10
-94.500000001965304
 20
-23.664660706669569
 30
0.0
 42
-0.4142135623730951
  0
VERTEX
  5
27D1
  8
SAPA_FOGBAND
 10
-94.700000001965336
 20
-23.864660706669611
 30
0.0
  0
VERTEX
  5
27D2
  8
SAPA_FOGBAND
 10
-95.600000001965327
 20
-23.8646607066695
 30
0.0
 42
0.4142135623731784
  0
VERTEX
  5
27D3
  8
SAPA_FOGBAND
 10
-95.800000001965245
 20
-24.064660706669539
 30
0.0
  0
VERTEX
  5
27D4
  8
SAPA_FOGBAND
 10
-95.800000001965373
 20
-24.764660706669591
 30
0.0
 42
0.4142135623730398
  0
VERTEX
  5
27D5
  8
SAPA_FOGBAND
 10
-95.500000001965304
 20
-25.064660706669549
 30
0.0
  0
VERTEX
  5
27D6
  8
SAPA_FOGBAND
 10
-94.689488225313767
 20
-25.064660706669549
 30
0.0
 42
-0.1316524975873973
  0
VERTEX
  5
27D7
  8
SAPA_FOGBAND
 10
-93.689488225313767
 20
-25.33260989910071
 30
0.0
  0
VERTEX
  5
27D8
  8
SAPA_FOGBAND
 10
-91.099920233221823
 20
-30.495455049141128
 30
0.0
 42
0.7057658529986604
  0
VERTEX
  5
27D9
  8
SAPA_FOGBAND
 10
-90.500000001965304
 20
-30.227861873782789
 30
0.0
  0
SEQEND
  5
27DA
  8
SAPA_FOGBAND
  0
POLYLINE
  5
15F8
  8
SAPA_FOGBAND
 66
     1
 10
0.0
 20
0.0
 30
0.0
 70
     1
  0
VERTEX
  5
27DB
  8
SAPA_FOGBAND
 10
-34.185369502362363
 20
-19.297542939747611
 30
0.0
 42
0.9999999999999998
  0
VERTEX
  5
27DC
  8
SAPA_FOGBAND
 10
-34.185369502362363
 20
-21.09754293974763
 30
0.0
  0
VERTEX
  5
27DD
  8
SAPA_FOGBAND
 10
-33.58536950236234
 20
-21.09754293974763
 30
0.0
 42
0.9999999999999998
  0
VERTEX
  5
27DE
  8
SAPA_FOGBAND
 10
-33.58536950236234
 20
-19.297542939747611
 30
0.0
  0
SEQEND
  5
27DF
  8
SAPA_FOGBAND
  0
POLYLINE
  5
15F9
  8
SAPA_FOGBAND
 66
     1
 10
0.0
 20
0.0
 30
0.0
  0
VERTEX
  5
27E0
  8
SAPA_FOGBAND
 10
-35.80000000000117
 20
-23.797542939747618
 30
0.0
  0
VERTEX
  5
27E1
  8
SAPA_FOGBAND
 10
-35.500000000001101
 20
-23.797542939747618
 30
0.0
  0
VERTEX
  5
27E2
  8
SAPA_FOGBAND
 10
-35.80000000000117
 20
-23.797542939747618
 30
0.0
 42
-0.4142135623730951
  0
VERTEX
  5
27E3
  8
SAPA_FOGBAND
 10
-36.30000000000117
 20
-23.297542939747618
 30
0.0
  0
VERTEX
  5
27E4
  8
SAPA_FOGBAND
 10
-36.300000000001177
 20
-15.99754293974766
 30
0.0
 42
-0.4142135623730951
  0
VERTEX
  5
27E5
  8
SAPA_FOGBAND
 10
-35.800000000001177
 20
-15.49754293974766
 30
0.0
  0
VERTEX
  5
27E6
  8
SAPA_FOGBAND
 10
-35.500000000001108
 20
-15.49754293974766
 30
0.0
  0
SEQEND
  5
27E7
  8
SAPA_FOGBAND
  0
POLYLINE
  5
15FA
  8
SAPA_FOGBAND
 66
     1
 10
0.0
 20
0.0
 30
0.0
 70
     1
  0
VERTEX
  5
27E8
  8
SAPA_FOGBAND
 10
-40.100000000001103
 20
-17.145827830043959
 30
0.0
  0
VERTEX
  5
27E9
  8
SAPA_FOGBAND
 10
-40.100000000001103
 20
-20.240471939369801
 30
0.0
 42
-1.024758115298622
  0
VERTEX
  5
27EA
  8
SAPA_FOGBAND
 10
-43.281531792786602
 20
-20.240471939369801
 30
0.0
  0
VERTEX
  5
27EB
  8
SAPA_FOGBAND
 10
-43.281531792786602
 20
-17.145827830043959
 30
0.0
 42
-0.9558128803175696
  0
SEQEND
  5
27EC
  8
SAPA_FOGBAND
  0
POLYLINE
  5
15FB
  8
SAPA_FOGBAND
 66
     1
 10
0.0
 20
0.0
 30
0.0
 70
     1
  0
VERTEX
  5
27ED
  8
SAPA_FOGBAND
 10
-41.936054126746761
 20
-7.9144974909246697
 30
0.0
 42
0.6274939020253784
  0
VERTEX
  5
27EE
  8
SAPA_FOGBAND
 10
-43.49469862070849
 20
-7.925422313357811
 30
0.0
  0
VERTEX
  5
27EF
  8
SAPA_FOGBAND
 10
-44.058441624631229
 20
-11.90128230672247
 30
0.0
 42
0.4459602482749359
  0
VERTEX
  5
27F0
  8
SAPA_FOGBAND
 10
-43.163604270398878
 20
-12.897542939747661
 30
0.0
  0
VERTEX
  5
27F1
  8
SAPA_FOGBAND
 10
-40.440292945534168
 20
-12.897542939747661
 30
0.0
 42
0.6245270939358744
  0
VERTEX
  5
27F2
  8
SAPA_FOGBAND
 10
-39.730537971723457
 20
-11.44414626723246
 30
0.0
  0
SEQEND
  5
27F3
  8
SAPA_FOGBAND
  0
POLYLINE
  5
15FC
  8
SAPA_FOGBAND
 66
     1
 10
0.0
 20
0.0
 30
0.0
 70
     1
  0
VERTEX
  5
27F4
  8
SAPA_FOGBAND
 10
-34.058574583119231
 20
-18.697542939747649
 30
0.0
  0
VERTEX
  5
27F5
  8
SAPA_FOGBAND
 10
-33.991114673808823
 20
-18.445779130727171
 30
0.0
 42
-0.4740571810232144
  0
VERTEX
  5
27F6
  8
SAPA_FOGBAND
 10
-33.708832088170169
 20
-18.31848526836356
 30
0.0
  0
VERTEX
  5
27F7
  8
SAPA_FOGBAND
 10
-32.262625951410293
 20
-18.938585771122149
 30
0.0
 42
-0.2846003776496053
  0
VERTEX
  5
27F8
  8
SAPA_FOGBAND
 10
-31.985369502362321
 20
-19.386229949582312
 30
0.0
  0
VERTEX
  5
27F9
  8
SAPA_FOGBAND
 10
-31.985369502362321
 20
-21.008855929912929
 30
0.0
 42
-0.2846003776496027
  0
VERTEX
  5
27FA
  8
SAPA_FOGBAND
 10
-32.262625951410278
 20
-21.456500108373088
 30
0.0
  0
VERTEX
  5
27FB
  8
SAPA_FOGBAND
 10
-33.708832088170219
 20
-22.076600611131681
 30
0.0
 42
-0.4740571810232332
  0
VERTEX
  5
27FC
  8
SAPA_FOGBAND
 10
-33.991114673808823
 20
-21.949306748768119
 30
0.0
  0
VERTEX
  5
27FD
  8
SAPA_FOGBAND
 10
-34.058574583119217
 20
-21.697542939747649
 30
0.0
  0
VERTEX
  5
27FE
  8
SAPA_FOGBAND
 10
-35.000000000001101
 20
-21.697542939747649
 30
0.0
 42
0.4142135623730951
  0
VERTEX
  5
27FF
  8
SAPA_FOGBAND
 10
-35.500000000001101
 20
-22.197542939747649
 30
0.0
  0
VERTEX
  5
2800
  8
SAPA_FOGBAND
 10
-35.500000000001158
 20
-24.709703103129101
 30
0.0
 42
-0.4027293761437467
  0
VERTEX
  5
2801
  8
SAPA_FOGBAND
 10
-35.788192637470473
 20
-25.009470656726961
 30
0.0
  0
VERTEX
  5
2802
  8
SAPA_FOGBAND
 10
-45.1881926374705
 20
-25.497310471396389
 30
0.0
 42
-0.4257917699693538
  0
VERTEX
  5
2803
  8
SAPA_FOGBAND
 10
-45.500000000001158
 20
-25.197542917798529
 30
0.0
  0
VERTEX
  5
2804
  8
SAPA_FOGBAND
 10
-45.500000000001172
 20
-11.49200925857466
 30
0.0
  0
VERTEX
  5
2805
  8
SAPA_FOGBAND
 10
-44.723465082318533
 20
-5.888867660847783
 30
0.0
 42
-0.322530093016903
  0
VERTEX
  5
2806
  8
SAPA_FOGBAND
 10
-43.729387777212558
 20
-5.1975429177985131
 30
0.0
  0
VERTEX
  5
2807
  8
SAPA_FOGBAND
 10
-42.498644220774992
 20
-5.1975429177985131
 30
0.0
 42
-0.2325311832130604
  0
VERTEX
  5
2808
  8
SAPA_FOGBAND
 10
-42.102703356693183
 20
-5.3922056744917324
 30
0.0
  0
VERTEX
  5
2809
  8
SAPA_FOGBAND
 10
-35.708118271837662
 20
-14.55876890239923
 30
0.0
 42
-0.1657205760184606
  0
VERTEX
  5
280A
  8
SAPA_FOGBAND
 10
-35.500000000001108
 20
-15.16944338901285
 30
0.0
  0
VERTEX
  5
280B
  8
SAPA_FOGBAND
 10
-35.500000000001108
 20
-18.197542939747649
 30
0.0
 42
0.4142135623730951
  0
VERTEX
  5
280C
  8
SAPA_FOGBAND
 10
-35.000000000001108
 20
-18.697542939747649
 30
0.0
  0
SEQEND
  5
280D
  8
SAPA_FOGBAND
  0
CIRCLE
  5
15FD
  8
SAPA_FOGBAND
 10
-92.63756821976574
 20
18.640952594486858
 30
0.0
 40
0.2549509756796394
  0
INSERT
  5
15FE
  8
SAPA_FOGBAND
  6
CONTINUOUS
  2
*U99
 10
0.0
 20
0.0
 30
0.0
1001
ACAD
1002
{
1000
R14_HATCH_DATA
1000
15FE
1011
1.0
1021
0.0
1031
0.0
1021
0.0
1031
0.0
1011
0.0
1021
0.0
1031
0.0
1021
1.0
1031
0.0
1011
0.0
1021
0.0
1031
0.0
1021
0.0
1031
1.0
1040
0.0
1010
0.0
1020
0.0
1030
1.0
1000
SOLID
1070
     1
1070
     1
1071
        1
1071
        1
1071
        1
1070
     2
1040
-92.63756821976574
1040
18.640952594486858
1040
0.2549509756796394
1040
-1.5707963267948959
1040
4.7123889803846888
1070
     1
1071
        1
1005
15FD
1070
     0
1070
     1
1071
        1
1040
-92.555716722436841
1040
18.877691496056968
1040
0.0
1002
}
  0
POLYLINE
  5
15FF
  8
SAPA_FOGBAND
 66
     1
 10
0.0
 20
0.0
 30
0.0
 70
     1
  0
VERTEX
  5
281F
  8
SAPA_FOGBAND
 10
-95.599999999010265
 20
17.740952594486881
 30
0.0
 42
0.9999999999999998
  0
VERTEX
  5
2820
  8
SAPA_FOGBAND
 10
-95.599999999010265
 20
19.540952594486839
 30
0.0
  0
VERTEX
  5
2821
  8
SAPA_FOGBAND
 10
-96.199999999010288
 20
19.540952594486839
 30
0.0
 42
0.9999999999999998
  0
VERTEX
  5
2822
  8
SAPA_FOGBAND
 10
-96.199999999010288
 20
17.740952594486881
 30
0.0
  0
SEQEND
  5
2823
  8
SAPA_FOGBAND
  0
POLYLINE
  5
1600
  8
SAPA_FOGBAND
 66
     1
 10
0.0
 20
0.0
 30
0.0
 70
     1
  0
VERTEX
  5
2824
  8
SAPA_FOGBAND
 10
-90.499999999010228
 20
27.268828902660061
 30
0.0
 42
0.0775891054856093
  0
VERTEX
  5
2825
  8
SAPA_FOGBAND
 10
-90.816635983071592
 20
23.802047172237511
 30
0.0
  0
VERTEX
  5
2826
  8
SAPA_FOGBAND
 10
-90.599999999010208
 20
23.564157679408709
 30
0.0
 42
-0.5773502691896298
  0
VERTEX
  5
2827
  8
SAPA_FOGBAND
 10
-90.599999999010208
 20
23.21774751789485
 30
0.0
  0
VERTEX
  5
2828
  8
SAPA_FOGBAND
 10
-90.816909853233255
 20
22.97969990116405
 30
0.0
  0
VERTEX
  5
2829
  8
SAPA_FOGBAND
 10
-90.816909853233255
 20
22.20220529124742
 30
0.0
  0
VERTEX
  5
282A
  8
SAPA_FOGBAND
 10
-90.599999999010208
 20
21.964157679408689
 30
0.0
 42
-0.577350269189699
  0
VERTEX
  5
282B
  8
SAPA_FOGBAND
 10
-90.599999999010208
 20
21.617747517894941
 30
0.0
  0
VERTEX
  5
282C
  8
SAPA_FOGBAND
 10
-90.816909853233255
 20
21.379699901164152
 30
0.0
  0
VERTEX
  5
282D
  8
SAPA_FOGBAND
 10
-90.816909853233255
 20
20.602205291247401
 30
0.0
  0
VERTEX
  5
282E
  8
SAPA_FOGBAND
 10
-90.599999999010208
 20
20.36415767940866
 30
0.0
 42
-0.577350269189699
  0
VERTEX
  5
282F
  8
SAPA_FOGBAND
 10
-90.599999999010208
 20
20.017747517894922
 30
0.0
  0
VERTEX
  5
2830
  8
SAPA_FOGBAND
 10
-90.816909853233255
 20
19.779699901164118
 30
0.0
  0
VERTEX
  5
2831
  8
SAPA_FOGBAND
 10
-90.816909853233255
 20
19.002205291247378
 30
0.0
  0
VERTEX
  5
2832
  8
SAPA_FOGBAND
 10
-90.599999999010208
 20
18.764157679408751
 30
0.0
 42
-0.5773502691896298
  0
VERTEX
  5
2833
  8
SAPA_FOGBAND
 10
-90.599999999010208
 20
18.417747517894892
 30
0.0
  0
VERTEX
  5
2834
  8
SAPA_FOGBAND
 10
-90.816909853233255
 20
18.179699901164099
 30
0.0
  0
VERTEX
  5
2835
  8
SAPA_FOGBAND
 10
-90.816909853233255
 20
17.402205291247348
 30
0.0
  0
VERTEX
  5
2836
  8
SAPA_FOGBAND
 10
-90.599999999010208
 20
17.164157679408731
 30
0.0
 42
-0.5773502691896298
  0
VERTEX
  5
2837
  8
SAPA_FOGBAND
 10
-90.599999999010208
 20
16.817747517894869
 30
0.0
  0
VERTEX
  5
2838
  8
SAPA_FOGBAND
 10
-90.816909853233255
 20
16.579699901164069
 30
0.0
  0
VERTEX
  5
2839
  8
SAPA_FOGBAND
 10
-90.816909853233255
 20
15.80220528708241
 30
0.0
  0
VERTEX
  5
283A
  8
SAPA_FOGBAND
 10
-90.599999999010208
 20
15.564157675243679
 30
0.0
 42
-0.577350269189699
  0
VERTEX
  5
283B
  8
SAPA_FOGBAND
 10
-90.599999999010208
 20
15.217747513729931
 30
0.0
  0
VERTEX
  5
283C
  8
SAPA_FOGBAND
 10
-91.673330067494703
 20
14.417747514174829
 30
0.0
 42
-0.1316524987190269
  0
VERTEX
  5
283D
  8
SAPA_FOGBAND
 10
-91.773330068265409
 20
14.39095259448686
 30
0.0
  0
VERTEX
  5
283E
  8
SAPA_FOGBAND
 10
-94.299999999010197
 20
14.39095259448675
 30
0.0
 42
-0.4142135623730951
  0
VERTEX
  5
283F
  8
SAPA_FOGBAND
 10
-94.499999999010242
 20
14.59095259448679
 30
0.0
  0
VERTEX
  5
2840
  8
SAPA_FOGBAND
 10
-94.499999999010242
 20
16.640952594486858
 30
0.0
 42
0.4142135623730951
  0
VERTEX
  5
2841
  8
SAPA_FOGBAND
 10
-94.999999999010242
 20
17.140952594486858
 30
0.0
  0
VERTEX
  5
2842
  8
SAPA_FOGBAND
 10
-95.726794918253404
 20
17.140952594486858
 30
0.0
  0
VERTEX
  5
2843
  8
SAPA_FOGBAND
 10
-95.794254827563805
 20
16.889188785466331
 30
0.0
 42
-0.4740571810232869
  0
VERTEX
  5
2844
  8
SAPA_FOGBAND
 10
-96.076537413202459
 20
16.761894923102769
 30
0.0
  0
VERTEX
  5
2845
  8
SAPA_FOGBAND
 10
-97.522743549962243
 20
17.381995425861302
 30
0.0
 42
-0.2846003776495916
  0
VERTEX
  5
2846
  8
SAPA_FOGBAND
 10
-97.799999999010197
 20
17.829639604321532
 30
0.0
  0
VERTEX
  5
2847
  8
SAPA_FOGBAND
 10
-97.799999999010197
 20
19.452265584652078
 30
0.0
 42
-0.2846003776495917
  0
VERTEX
  5
2848
  8
SAPA_FOGBAND
 10
-97.522743549962243
 20
19.899909763112301
 30
0.0
  0
VERTEX
  5
2849
  8
SAPA_FOGBAND
 10
-96.076537413202459
 20
20.520010265870841
 30
0.0
 42
-0.4740571810232869
  0
VERTEX
  5
284A
  8
SAPA_FOGBAND
 10
-95.794254827563805
 20
20.392716403507279
 30
0.0
  0
VERTEX
  5
284B
  8
SAPA_FOGBAND
 10
-95.726794918253404
 20
20.140952594486858
 30
0.0
  0
VERTEX
  5
284C
  8
SAPA_FOGBAND
 10
-94.999999999010242
 20
20.140952594486858
 30
0.0
 42
0.4142135623730951
  0
VERTEX
  5
284D
  8
SAPA_FOGBAND
 10
-94.499999999010242
 20
20.640952594486858
 30
0.0
  0
VERTEX
  5
284E
  8
SAPA_FOGBAND
 10
-94.499999999010242
 20
23.69095259448682
 30
0.0
 42
0.4142135623730951
  0
VERTEX
  5
284F
  8
SAPA_FOGBAND
 10
-94.699999999010288
 20
23.890952594486858
 30
0.0
  0
VERTEX
  5
2850
  8
SAPA_FOGBAND
 10
-95.599999999010265
 20
23.890952594486748
 30
0.0
 42
-0.4142135623731784
  0
VERTEX
  5
2851
  8
SAPA_FOGBAND
 10
-95.799999999010197
 20
24.090952594486801
 30
0.0
  0
VERTEX
  5
2852
  8
SAPA_FOGBAND
 10
-95.799999999010325
 20
24.790952594486839
 30
0.0
 42
-0.4142135623730398
  0
VERTEX
  5
2853
  8
SAPA_FOGBAND
 10
-95.499999999010228
 20
25.090952594486801
 30
0.0
  0
VERTEX
  5
2854
  8
SAPA_FOGBAND
 10
-94.689488222358705
 20
25.090952594486801
 30
0.0
 42
0.1316524975873973
  0
VERTEX
  5
2855
  8
SAPA_FOGBAND
 10
-93.689488222358705
 20
25.358901786917961
 30
0.0
  0
VERTEX
  5
2856
  8
SAPA_FOGBAND
 10
-91.099920230266775
 20
30.52174693695838
 30
0.0
 42
-0.7057658529986604
  0
VERTEX
  5
2857
  8
SAPA_FOGBAND
 10
-90.499999999010228
 20
30.25415376160004
 30
0.0
  0
SEQEND
  5
2858
  8
SAPA_FOGBAND
  0
POLYLINE
  5
1601
  8
SAPA_FOGBAND
 66
     1
 10
0.0
 20
0.0
 30
0.0
 70
     1
  0
VERTEX
  5
2859
  8
SAPA_FOGBAND
 10
-70.185369502362619
 20
19.30265078761656
 30
0.0
 42
-0.9999999999999998
  0
VERTEX
  5
285A
  8
SAPA_FOGBAND
 10
-70.185369502362619
 20
21.102650787616579
 30
0.0
  0
VERTEX
  5
285B
  8
SAPA_FOGBAND
 10
-69.585369502362596
 20
21.102650787616579
 30
0.0
 42
-0.9999999999999998
  0
VERTEX
  5
285C
  8
SAPA_FOGBAND
 10
-69.585369502362596
 20
19.30265078761656
 30
0.0
  0
SEQEND
  5
285D
  8
SAPA_FOGBAND
  0
POLYLINE
  5
1602
  8
SAPA_FOGBAND
 66
     1
 10
0.0
 20
0.0
 30
0.0
  0
VERTEX
  5
285E
  8
SAPA_FOGBAND
 10
-71.800000000001432
 20
23.80265078761656
 30
0.0
  0
VERTEX
  5
285F
  8
SAPA_FOGBAND
 10
-71.500000000001364
 20
23.80265078761656
 30
0.0
  0
VERTEX
  5
2860
  8
SAPA_FOGBAND
 10
-71.800000000001432
 20
23.80265078761656
 30
0.0
 42
0.4142135623730951
  0
VERTEX
  5
2861
  8
SAPA_FOGBAND
 10
-72.300000000001432
 20
23.302650787616571
 30
0.0
  0
VERTEX
  5
2862
  8
SAPA_FOGBAND
 10
-72.300000000001432
 20
16.002650787616609
 30
0.0
 42
0.4142135623730951
  0
VERTEX
  5
2863
  8
SAPA_FOGBAND
 10
-71.800000000001432
 20
15.502650787616609
 30
0.0
  0
VERTEX
  5
2864
  8
SAPA_FOGBAND
 10
-71.500000000001364
 20
15.502650787616609
 30
0.0
  0
SEQEND
  5
2865
  8
SAPA_FOGBAND
  0
POLYLINE
  5
1603
  8
SAPA_FOGBAND
 66
     1
 10
0.0
 20
0.0
 30
0.0
 70
     1
  0
VERTEX
  5
2866
  8
SAPA_FOGBAND
 10
-76.000000000001364
 20
17.153582288121282
 30
0.0
  0
VERTEX
  5
2867
  8
SAPA_FOGBAND
 10
-76.000000000001364
 20
20.239515824897332
 30
0.0
 42
0.9695372397405709
  0
VERTEX
  5
2868
  8
SAPA_FOGBAND
 10
-79.581531792786862
 20
20.239515824897339
 30
0.0
  0
VERTEX
  5
2869
  8
SAPA_FOGBAND
 10
-79.581531792786862
 20
17.153582288121282
 30
0.0
 42
0.9063837695480113
  0
SEQEND
  5
286A
  8
SAPA_FOGBAND
  0
POLYLINE
  5
1604
  8
SAPA_FOGBAND
 66
     1
 10
0.0
 20
0.0
 30
0.0
 70
     1
  0
VERTEX
  5
286B
  8
SAPA_FOGBAND
 10
-78.511597533885535
 20
7.871561586684928
 30
0.0
  0
VERTEX
  5
286C
  8
SAPA_FOGBAND
 10
-78.511597533885535
 20
7.871561586684928
 30
0.0
 42
-0.611149385816862
  0
VERTEX
  5
286D
  8
SAPA_FOGBAND
 10
-80.391839663250622
 20
7.9033127537496561
 30
0.0
  0
VERTEX
  5
286E
  8
SAPA_FOGBAND
 10
-80.957681575505063
 20
11.89397553066582
 30
0.0
 42
-0.4464785874932439
  0
VERTEX
  5
286F
  8
SAPA_FOGBAND
 10
-79.963604270399145
 20
13.002650787616609
 30
0.0
  0
VERTEX
  5
2870
  8
SAPA_FOGBAND
 10
-76.940292945534438
 20
13.002650787616609
 30
0.0
 42
-0.622676997742357
  0
VERTEX
  5
2871
  8
SAPA_FOGBAND
 10
-76.148411217370992
 20
11.391976301002989
 30
0.0
  0
VERTEX
  5
2872
  8
SAPA_FOGBAND
 10
-78.511597533885535
 20
7.8715615866849262
 30
0.0
 42
-0.232531183213058
  0
SEQEND
  5
2873
  8
SAPA_FOGBAND
  0
POLYLINE
  5
1605
  8
SAPA_FOGBAND
 66
     1
 10
0.0
 20
0.0
 30
0.0
 70
     1
  0
VERTEX
  5
2874
  8
SAPA_FOGBAND
 10
-70.05857458311948
 20
18.702650787616601
 30
0.0
  0
VERTEX
  5
2875
  8
SAPA_FOGBAND
 10
-69.991114673809079
 20
18.45088697859612
 30
0.0
 42
0.4740571810232144
  0
VERTEX
  5
2876
  8
SAPA_FOGBAND
 10
-69.708832088170425
 20
18.323593116232509
 30
0.0
  0
VERTEX
  5
2877
  8
SAPA_FOGBAND
 10
-68.262625951410541
 20
18.943693618991102
 30
0.0
 42
0.2846003776496053
  0
VERTEX
  5
2878
  8
SAPA_FOGBAND
 10
-67.985369502362573
 20
19.391337797451261
 30
0.0
  0
VERTEX
  5
2879
  8
SAPA_FOGBAND
 10
-67.985369502362573
 20
21.013963777781878
 30
0.0
 42
0.2846003776496027
  0
VERTEX
  5
287A
  8
SAPA_FOGBAND
 10
-68.262625951410541
 20
21.461607956242041
 30
0.0
  0
VERTEX
  5
287B
  8
SAPA_FOGBAND
 10
-69.708832088170482
 20
22.08170845900063
 30
0.0
 42
0.4740571810232332
  0
VERTEX
  5
287C
  8
SAPA_FOGBAND
 10
-69.991114673809079
 20
21.954414596637069
 30
0.0
  0
VERTEX
  5
287D
  8
SAPA_FOGBAND
 10
-70.05857458311948
 20
21.702650787616601
 30
0.0
  0
VERTEX
  5
287E
  8
SAPA_FOGBAND
 10
-71.000000000001364
 20
21.702650787616601
 30
0.0
 42
-0.4142135623730951
  0
VERTEX
  5
287F
  8
SAPA_FOGBAND
 10
-71.500000000001364
 20
22.202650787616601
 30
0.0
  0
VERTEX
  5
2880
  8
SAPA_FOGBAND
 10
-71.500000000001421
 20
24.71481095099805
 30
0.0
 42
0.4027293761437467
  0
VERTEX
  5
2881
  8
SAPA_FOGBAND
 10
-71.788192637470715
 20
25.01457850459591
 30
0.0
  0
VERTEX
  5
2882
  8
SAPA_FOGBAND
 10
-82.188192637470763
 20
25.502418319265342
 30
0.0
 42
0.4257917699693538
  0
VERTEX
  5
2883
  8
SAPA_FOGBAND
 10
-82.500000000001421
 20
25.202650765667482
 30
0.0
  0
VERTEX
  5
2884
  8
SAPA_FOGBAND
 10
-82.500000000001421
 20
11.497117106443611
 30
0.0
  0
VERTEX
  5
2885
  8
SAPA_FOGBAND
 10
-81.723465082318796
 20
5.893975508716732
 30
0.0
 42
0.322530093016903
  0
VERTEX
  5
2886
  8
SAPA_FOGBAND
 10
-80.729387777212807
 20
5.202650765667463
 30
0.0
  0
VERTEX
  5
2887
  8
SAPA_FOGBAND
 10
-78.498644220775248
 20
5.2026507656674621
 30
0.0
 42
0.2325311832130604
  0
VERTEX
  5
2888
  8
SAPA_FOGBAND
 10
-78.102703356693425
 20
5.3973135223606814
 30
0.0
  0
VERTEX
  5
2889
  8
SAPA_FOGBAND
 10
-71.708118271837918
 20
14.563876750268181
 30
0.0
 42
0.1657205760184606
  0
VERTEX
  5
288A
  8
SAPA_FOGBAND
 10
-71.500000000001364
 20
15.174551236881801
 30
0.0
  0
VERTEX
  5
288B
  8
SAPA_FOGBAND
 10
-71.500000000001364
 20
18.202650787616601
 30
0.0
 42
-0.4142135623730951
  0
VERTEX
  5
288C
  8
SAPA_FOGBAND
 10
-71.000000000001364
 20
18.702650787616601
 30
0.0
  0
SEQEND
  5
288D
  8
SAPA_FOGBAND
  0
POLYLINE
  5
1606
  8
SAPA_FOGBAND
 66
     1
 10
0.0
 20
0.0
 30
0.0
 70
     1
  0
VERTEX
  5
288E
  8
SAPA_FOGBAND
 10
-4.939226056068355
 20
-28.499999999950159
 30
0.0
  0
VERTEX
  5
288F
  8
SAPA_FOGBAND
 10
-7.7725450204880868
 20
-28.499999999950159
 30
0.0
 42
-0.577350269189628
  0
VERTEX
  5
2890
  8
SAPA_FOGBAND
 10
-8.0323526416235396
 20
-28.04999999995011
 30
0.0
  0
VERTEX
  5
2891
  8
SAPA_FOGBAND
 10
-6.3333872998713101
 20
-25.51020108671646
 30
0.0
 42
0.8769764629927237
  0
VERTEX
  5
2892
  8
SAPA_FOGBAND
 10
-6.8053269553625793
 20
-25.148069052360551
 30
0.0
  0
VERTEX
  5
2893
  8
SAPA_FOGBAND
 10
-10.33239159560785
 20
-28.207106781136591
 30
0.0
 42
-0.1989123673796493
  0
VERTEX
  5
2894
  8
SAPA_FOGBAND
 10
-11.03949837679429
 20
-28.499999999950148
 30
0.0
  0
VERTEX
  5
2895
  8
SAPA_FOGBAND
 10
-12.955488910142639
 20
-28.499999999950148
 30
0.0
 42
-0.577350269189628
  0
VERTEX
  5
2896
  8
SAPA_FOGBAND
 10
-13.215296531277859
 20
-28.04999999995011
 30
0.0
  0
VERTEX
  5
2897
  8
SAPA_FOGBAND
 10
-11.833116593281691
 20
-25.511069839896841
 30
0.0
 42
0.8769764629928424
  0
VERTEX
  5
2898
  8
SAPA_FOGBAND
 10
-12.30505624877296
 20
-25.148937805540928
 30
0.0
  0
VERTEX
  5
2899
  8
SAPA_FOGBAND
 10
-15.907106783151541
 20
-29.282961428450509
 30
0.0
 42
0.1989123673796579
  0
VERTEX
  5
289A
  8
SAPA_FOGBAND
 10
-16.20000000196487
 20
-29.990068209636949
 30
0.0
  0
VERTEX
  5
289B
  8
SAPA_FOGBAND
 10
-16.20000000196487
 20
-29.999999999950148
 30
0.0
 42
0.4142135623730951
  0
VERTEX
  5
289C
  8
SAPA_FOGBAND
 10
-15.20000000196487
 20
-30.999999999950148
 30
0.0
  0
VERTEX
  5
289D
  8
SAPA_FOGBAND
 10
-7.9650075011976247
 20
-32.164084599073647
 30
0.0
 42
0.6261632875160376
  0
VERTEX
  5
289E
  8
SAPA_FOGBAND
 10
-7.6551505726789406
 20
-31.722117795647321
 30
0.0
  0
VERTEX
  5
289F
  8
SAPA_FOGBAND
 10
-7.8087885674677651
 20
-31.445776149661189
 30
0.0
 42
-0.5719685712689121
  0
VERTEX
  5
28A0
  8
SAPA_FOGBAND
 10
-7.5465876632443729
 20
-30.999999999950379
 30
0.0
  0
VERTEX
  5
28A1
  8
SAPA_FOGBAND
 10
-4.8000000019650102
 20
-30.999999999950159
 30
0.0
 42
-0.4142135623730118
  0
VERTEX
  5
28A2
  8
SAPA_FOGBAND
 10
-4.5000000019648283
 20
-31.29999999995011
 30
0.0
  0
VERTEX
  5
28A3
  8
SAPA_FOGBAND
 10
-4.5000000019650548
 20
-32.699999999950201
 30
0.0
 42
0.7754026414785753
  0
VERTEX
  5
28A4
  8
SAPA_FOGBAND
 10
-3.9372080065571491
 20
-32.844707868256087
 30
0.0
  0
VERTEX
  5
28A5
  8
SAPA_FOGBAND
 10
-0.2263232026260539
 20
-25.501101552775431
 30
0.0
 42
0.8680589103333867
  0
VERTEX
  5
28A6
  8
SAPA_FOGBAND
 10
-0.7012472323898236
 20
-25.144261650113499
 30
0.0
  0
VERTEX
  5
28A7
  8
SAPA_FOGBAND
 10
-4.2321192748819163
 20
-28.207106781136591
 30
0.0
 42
-0.1989123673796493
  0
SEQEND
  5
28A8
  8
SAPA_FOGBAND
  0
LINE
  5
1607
  8
SAPA_FOGBAND
 10
0.5012846324048912
 20
-55.999999957888981
 30
0.0
 11
0.5012846324048912
 21
-55.999999957888981
 31
0.0
  0
POLYLINE
  5
1608
  8
SAPA_FOGBAND
 66
     1
 10
0.0
 20
0.0
 30
0.0
 70
   129
  0
VERTEX
  5
28A9
  8
SAPA_FOGBAND
 10
-31.98157281142505
 20
-109.26160230937271
 30
0.0
  0
VERTEX
  5
28AA
  8
SAPA_FOGBAND
 10
-31.823436706292799
 20
-109.295367309667
 30
0.0
  0
VERTEX
  5
28AB
  8
SAPA_FOGBAND
 10
-31.649919873871799
 20
-109.4092930477978
 30
0.0
  0
VERTEX
  5
28AC
  8
SAPA_FOGBAND
 10
-31.469831982135648
 20
-109.61689353640131
 30
0.0
  0
VERTEX
  5
28AD
  8
SAPA_FOGBAND
 10
-31.300126755311229
 20
-109.9153139485401
 30
0.0
  0
VERTEX
  5
28AE
  8
SAPA_FOGBAND
 10
-31.15407331733789
 20
-110.29221360991581
 30
0.0
  0
VERTEX
  5
28AF
  8
SAPA_FOGBAND
 10
-31.040661933157612
 20
-110.7314540121172
 30
0.0
  0
VERTEX
  5
28B0
  8
SAPA_FOGBAND
 10
-30.96582245500408
 20
-111.2149689890239
 30
0.0
  0
VERTEX
  5
28B1
  8
SAPA_FOGBAND
 10
-30.933125507535539
 20
-111.7234782720659
 30
0.0
  0
VERTEX
  5
28B2
  8
SAPA_FOGBAND
 10
-30.94406571728819
 20
-112.237020947492
 30
0.0
  0
VERTEX
  5
28B3
  8
SAPA_FOGBAND
 10
-30.998146920574989
 20
-112.7354980923235
 30
0.0
  0
VERTEX
  5
28B4
  8
SAPA_FOGBAND
 10
-31.092856001620991
 20
-113.1992227239524
 30
0.0
  0
VERTEX
  5
28B5
  8
SAPA_FOGBAND
 10
-31.223497561339538
 20
-113.6094526504277
 30
0.0
  0
VERTEX
  5
28B6
  8
SAPA_FOGBAND
 10
-31.382736484058078
 20
-113.9489638094331
 30
0.0
  0
VERTEX
  5
28B7
  8
SAPA_FOGBAND
 10
-31.559601858181399
 20
-114.2031253002844
 30
0.0
  0
VERTEX
  5
28B8
  8
SAPA_FOGBAND
 10
-31.73850792387854
 20
-114.36327960949311
 30
0.0
  0
VERTEX
  5
28B9
  8
SAPA_FOGBAND
 10
-31.90401505003091
 20
-114.4346076824431
 30
0.0
  0
VERTEX
  5
28BA
  8
SAPA_FOGBAND
 10
-32.059130572819413
 20
-114.4346076824431
 30
0.0
  0
VERTEX
  5
28BB
  8
SAPA_FOGBAND
 10
-32.224637698972003
 20
-114.36327960949311
 30
0.0
  0
VERTEX
  5
28BC
  8
SAPA_FOGBAND
 10
-32.403543764669109
 20
-114.2031253002844
 30
0.0
  0
VERTEX
  5
28BD
  8
SAPA_FOGBAND
 10
-32.580409138792398
 20
-113.9489638094332
 30
0.0
  0
VERTEX
  5
28BE
  8
SAPA_FOGBAND
 10
-32.7396480615107
 20
-113.6094526504278
 30
0.0
  0
VERTEX
  5
28BF
  8
SAPA_FOGBAND
 10
-32.87028962122907
 20
-113.1992227239524
 30
0.0
  0
VERTEX
  5
28C0
  8
SAPA_FOGBAND
 10
-32.964998702275508
 20
-112.7354980923235
 30
0.0
  0
VERTEX
  5
28C1
  8
SAPA_FOGBAND
 10
-33.019079905562087
 20
-112.237020947492
 30
0.0
  0
VERTEX
  5
28C2
  8
SAPA_FOGBAND
 10
-33.030020115314947
 20
-111.7234782720658
 30
0.0
  0
VERTEX
  5
28C3
  8
SAPA_FOGBAND
 10
-32.997323167846432
 20
-111.2149689890239
 30
0.0
  0
VERTEX
  5
28C4
  8
SAPA_FOGBAND
 10
-32.922483689692903
 20
-110.7314540121172
 30
0.0
  0
VERTEX
  5
28C5
  8
SAPA_FOGBAND
 10
-32.809072305512203
 20
-110.2922136099159
 30
0.0
  0
VERTEX
  5
28C6
  8
SAPA_FOGBAND
 10
-32.663018867538817
 20
-109.9153139485401
 30
0.0
  0
VERTEX
  5
28C7
  8
SAPA_FOGBAND
 10
-32.493313640714369
 20
-109.61689353640131
 30
0.0
  0
VERTEX
  5
28C8
  8
SAPA_FOGBAND
 10
-32.313225748978439
 20
-109.4092930477978
 30
0.0
  0
VERTEX
  5
28C9
  8
SAPA_FOGBAND
 10
-32.139708916557503
 20
-109.295367309667
 30
0.0
  0
SEQEND
  5
28CA
  8
SAPA_FOGBAND
  0
POLYLINE
  5
1609
  8
SAPA_FOGBAND
 66
     1
 10
0.0
 20
0.0
 30
0.0
  0
VERTEX
  5
28CB
  8
SAPA_FOGBAND
 10
-86.163511128413035
 20
-123.551748250489
 30
0.0
 42
0.285714285714282
  0
VERTEX
  5
28CC
  8
SAPA_FOGBAND
 10
-86.163511128413035
 20
-120.7517482504888
 30
0.0
  0
VERTEX
  5
28CD
  8
SAPA_FOGBAND
 10
-86.163511128412566
 20
-118.6779680811012
 30
0.0
 42
-0.3882600129940275
  0
VERTEX
  5
28CE
  8
SAPA_FOGBAND
 10
-85.890300402133022
 20
-118.3791665837595
 30
0.0
  0
VERTEX
  5
28CF
  8
SAPA_FOGBAND
 10
-80.990300402132931
 20
-117.9129566598333
 30
0.0
 42
-0.4406523138893894
  0
VERTEX
  5
28D0
  8
SAPA_FOGBAND
 10
-80.663511128413035
 20
-118.2117581571754
 30
0.0
  0
VERTEX
  5
28D1
  8
SAPA_FOGBAND
 10
-80.663511128413035
 20
-119.9215501540955
 30
0.0
 42
-0.3394542588634375
  0
VERTEX
  5
28D2
  8
SAPA_FOGBAND
 10
-80.885865414882019
 20
-120.211327901982
 30
0.0
  0
VERTEX
  5
28D3
  8
SAPA_FOGBAND
 10
-81.103451197049623
 20
-120.4137076299137
 30
0.0
 42
0.3394542588633663
  0
VERTEX
  5
28D4
  8
SAPA_FOGBAND
 10
-81.325805483518621
 20
-120.70348537780021
 30
0.0
  0
VERTEX
  5
28D5
  8
SAPA_FOGBAND
 10
-81.325805483518621
 20
-123.60001112317811
 30
0.0
 42
0.3394542588634373
  0
VERTEX
  5
28D6
  8
SAPA_FOGBAND
 10
-81.103451197049623
 20
-123.8897888710646
 30
0.0
  0
VERTEX
  5
28D7
  8
SAPA_FOGBAND
 10
-80.885865414882019
 20
-124.0921685989958
 30
0.0
 42
-0.3394542588633662
  0
VERTEX
  5
28D8
  8
SAPA_FOGBAND
 10
-80.663511128413035
 20
-124.3819463468828
 30
0.0
  0
VERTEX
  5
28D9
  8
SAPA_FOGBAND
 10
-80.663511128413035
 20
-126.0917383438029
 30
0.0
 42
-0.4406523138893994
  0
VERTEX
  5
28DA
  8
SAPA_FOGBAND
 10
-80.990300402132931
 20
-126.3905398411445
 30
0.0
  0
VERTEX
  5
28DB
  8
SAPA_FOGBAND
 10
-85.890300402133022
 20
-125.9243299172183
 30
0.0
 42
-0.3882600129940462
  0
VERTEX
  5
28DC
  8
SAPA_FOGBAND
 10
-86.163511128413035
 20
-125.6255284198767
 30
0.0
  0
VERTEX
  5
28DD
  8
SAPA_FOGBAND
 10
-86.163511128413035
 20
-123.5633406273393
 30
0.0
  0
SEQEND
  5
28DE
  8
SAPA_FOGBAND
  0
POLYLINE
  5
160A
  8
SAPA_FOGBAND
 66
     1
 10
0.0
 20
0.0
 30
0.0
 70
   129
  0
VERTEX
  5
28DF
  8
SAPA_FOGBAND
 10
-30.81724472783883
 20
-116.9862618261453
 30
0.0
  0
VERTEX
  5
28E0
  8
SAPA_FOGBAND
 10
-30.65910862270659
 20
-117.0200268264396
 30
0.0
  0
VERTEX
  5
28E1
  8
SAPA_FOGBAND
 10
-30.485591790285579
 20
-117.13395256457039
 30
0.0
  0
VERTEX
  5
28E2
  8
SAPA_FOGBAND
 10
-30.30550389854945
 20
-117.3415530531739
 30
0.0
  0
VERTEX
  5
28E3
  8
SAPA_FOGBAND
 10
-30.13579867172502
 20
-117.63997346531271
 30
0.0
  0
VERTEX
  5
28E4
  8
SAPA_FOGBAND
 10
-29.98974523375168
 20
-118.0168731266884
 30
0.0
  0
VERTEX
  5
28E5
  8
SAPA_FOGBAND
 10
-29.876333849571399
 20
-118.4561135288898
 30
0.0
  0
VERTEX
  5
28E6
  8
SAPA_FOGBAND
 10
-29.801494371417871
 20
-118.93962850579651
 30
0.0
  0
VERTEX
  5
28E7
  8
SAPA_FOGBAND
 10
-29.76879742394933
 20
-119.44813778883849
 30
0.0
  0
VERTEX
  5
28E8
  8
SAPA_FOGBAND
 10
-29.779737633701991
 20
-119.9616804642646
 30
0.0
  0
VERTEX
  5
28E9
  8
SAPA_FOGBAND
 10
-29.83381883698879
 20
-120.4601576090961
 30
0.0
  0
VERTEX
  5
28EA
  8
SAPA_FOGBAND
 10
-29.928527918034789
 20
-120.92388224072501
 30
0.0
  0
VERTEX
  5
28EB
  8
SAPA_FOGBAND
 10
-30.05916947775334
 20
-121.3341121672004
 30
0.0
  0
VERTEX
  5
28EC
  8
SAPA_FOGBAND
 10
-30.218408400471869
 20
-121.6736233262058
 30
0.0
  0
VERTEX
  5
28ED
  8
SAPA_FOGBAND
 10
-30.395273774595189
 20
-121.9277848170571
 30
0.0
  0
VERTEX
  5
28EE
  8
SAPA_FOGBAND
 10
-30.574179840292341
 20
-122.08793912626579
 30
0.0
  0
VERTEX
  5
28EF
  8
SAPA_FOGBAND
 10
-30.73968696644469
 20
-122.15926719921571
 30
0.0
  0
VERTEX
  5
28F0
  8
SAPA_FOGBAND
 10
-30.894802489233211
 20
-122.15926719921571
 30
0.0
  0
VERTEX
  5
28F1
  8
SAPA_FOGBAND
 10
-31.06030961538579
 20
-122.0879391262657
 30
0.0
  0
VERTEX
  5
28F2
  8
SAPA_FOGBAND
 10
-31.2392156810829
 20
-121.9277848170571
 30
0.0
  0
VERTEX
  5
28F3
  8
SAPA_FOGBAND
 10
-31.416081055206192
 20
-121.6736233262058
 30
0.0
  0
VERTEX
  5
28F4
  8
SAPA_FOGBAND
 10
-31.575319977924501
 20
-121.3341121672005
 30
0.0
  0
VERTEX
  5
28F5
  8
SAPA_FOGBAND
 10
-31.70596153764286
 20
-120.92388224072501
 30
0.0
  0
VERTEX
  5
28F6
  8
SAPA_FOGBAND
 10
-31.80067061868931
 20
-120.4601576090961
 30
0.0
  0
VERTEX
  5
28F7
  8
SAPA_FOGBAND
 10
-31.854751821975881
 20
-119.9616804642646
 30
0.0
  0
VERTEX
  5
28F8
  8
SAPA_FOGBAND
 10
-31.865692031728742
 20
-119.44813778883849
 30
0.0
  0
VERTEX
  5
28F9
  8
SAPA_FOGBAND
 10
-31.832995084260212
 20
-118.93962850579651
 30
0.0
  0
VERTEX
  5
28FA
  8
SAPA_FOGBAND
 10
-31.758155606106691
 20
-118.4561135288898
 30
0.0
  0
VERTEX
  5
28FB
  8
SAPA_FOGBAND
 10
-31.64474422192599
 20
-118.01687312668849
 30
0.0
  0
VERTEX
  5
28FC
  8
SAPA_FOGBAND
 10
-31.498690783952611
 20
-117.63997346531271
 30
0.0
  0
VERTEX
  5
28FD
  8
SAPA_FOGBAND
 10
-31.32898555712816
 20
-117.3415530531739
 30
0.0
  0
VERTEX
  5
28FE
  8
SAPA_FOGBAND
 10
-31.148897665392219
 20
-117.13395256457039
 30
0.0
  0
VERTEX
  5
28FF
  8
SAPA_FOGBAND
 10
-30.975380832971279
 20
-117.0200268264396
 30
0.0
  0
SEQEND
  5
2900
  8
SAPA_FOGBAND
  0
POLYLINE
  5
160B
  8
SAPA_FOGBAND
 66
     1
 10
0.0
 20
0.0
 30
0.0
 70
     1
  0
VERTEX
  5
2901
  8
SAPA_FOGBAND
 10
-32.838714290911781
 20
-103.29537581359691
 30
0.0
 42
0.3915187749346351
  0
VERTEX
  5
2902
  8
SAPA_FOGBAND
 10
-33.835665904917199
 20
-104.2173535133703
 30
0.0
  0
VERTEX
  5
2903
  8
SAPA_FOGBAND
 10
-34.66198693541574
 20
-112.2759000141847
 30
0.0
 42
0.0195279011117888
  0
VERTEX
  5
2904
  8
SAPA_FOGBAND
 10
-34.663511128413042
 20
-112.314911164298
 30
0.0
  0
VERTEX
  5
2905
  8
SAPA_FOGBAND
 10
-34.663511128413042
 20
-125.99537581359679
 30
0.0
 42
0.4279663351069072
  0
VERTEX
  5
2906
  8
SAPA_FOGBAND
 10
-34.349498557053643
 20
-126.2950483813167
 30
0.0
  0
VERTEX
  5
2907
  8
SAPA_FOGBAND
 10
-26.961058296655128
 20
-125.808748473237
 30
0.0
 42
0.4005932428724028
  0
VERTEX
  5
2908
  8
SAPA_FOGBAND
 10
-26.675070868014171
 20
-125.50907590551709
 30
0.0
  0
VERTEX
  5
2909
  8
SAPA_FOGBAND
 10
-26.675070868014171
 20
-123.6953758135966
 30
0.0
  0
VERTEX
  5
290A
  8
SAPA_FOGBAND
 10
-24.975070868014349
 20
-123.6953758135966
 30
0.0
 42
0.4142135623730951
  0
VERTEX
  5
290B
  8
SAPA_FOGBAND
 10
-24.675070868014171
 20
-123.3953758135964
 30
0.0
  0
VERTEX
  5
290C
  8
SAPA_FOGBAND
 10
-24.67507086801416
 20
-115.976595049971
 30
0.0
 42
0.1379343940649189
  0
VERTEX
  5
290D
  8
SAPA_FOGBAND
 10
-24.82164748286905
 20
-115.45537674092211
 30
0.0
  0
VERTEX
  5
290E
  8
SAPA_FOGBAND
 10
-31.62886572077733
 20
-103.5347666590725
 30
0.0
 42
0.2613472755167633
  0
VERTEX
  5
290F
  8
SAPA_FOGBAND
 10
-32.05557741334988
 20
-103.29537581359691
 30
0.0
  0
SEQEND
  5
2910
  8
SAPA_FOGBAND
  0
POLYLINE
  5
160C
  8
SAPA_FOGBAND
 66
     1
 10
0.0
 20
0.0
 30
0.0
  0
VERTEX
  5
2911
  8
SAPA_FOGBAND
 10
-86.163511128413035
 20
-123.5633406273393
 30
0.0
  0
VERTEX
  5
2912
  8
SAPA_FOGBAND
 10
-87.254429938565778
 20
-123.3709822073467
 30
0.0
  0
VERTEX
  5
2913
  8
SAPA_FOGBAND
 10
-87.370129478085715
 20
-123.8027787672488
 30
0.0
 42
-0.4430158954262519
  0
VERTEX
  5
2914
  8
SAPA_FOGBAND
 10
-87.633605906192685
 20
-123.9382558147924
 30
0.0
  0
VERTEX
  5
2915
  8
SAPA_FOGBAND
 10
-88.904093654110881
 20
-123.4613076215735
 30
0.0
 42
-0.3125358528825162
  0
VERTEX
  5
2916
  8
SAPA_FOGBAND
 10
-89.16351112841258
 20
-123.0868259084443
 30
0.0
  0
VERTEX
  5
2917
  8
SAPA_FOGBAND
 10
-89.163511128413035
 20
-121.216670592534
 30
0.0
 42
-0.3125358528825104
  0
VERTEX
  5
2918
  8
SAPA_FOGBAND
 10
-88.904093654110881
 20
-120.8421888794044
 30
0.0
  0
VERTEX
  5
2919
  8
SAPA_FOGBAND
 10
-87.633605906192685
 20
-120.3652406861854
 30
0.0
 42
-0.4430158954262519
  0
VERTEX
  5
291A
  8
SAPA_FOGBAND
 10
-87.370129478085715
 20
-120.5007177337295
 30
0.0
  0
VERTEX
  5
291B
  8
SAPA_FOGBAND
 10
-87.254429938565778
 20
-120.9325142936311
 30
0.0
  0
VERTEX
  5
291C
  8
SAPA_FOGBAND
 10
-86.181741824798237
 20
-120.7433704372886
 30
0.0
  0
SEQEND
  5
291D
  8
SAPA_FOGBAND
  0
DIMENSION
  5
1615
  8
SAPA_MATT
  2
*D88
 10
-134.49999999901041
 20
-125.4999997021781
 30
0.0
 11
-137.24999999901041
 21
-106.7499997021781
 31
0.0
 70
     0
 13
-89.498715301570059
 23
-87.999999702178144
 33
0.0
 14
-87.500000006768289
 24
-125.4999997021781
 34
0.0
 50
270.0
1001
ACAD
1000
DSTYLE
1002
{
1070
    40
1040
1.0
1002
}
  0
DIMENSION
  5
1616
  8
SAPA_MATT
  2
*D87
 10
-134.4999999990105
 20
-87.99999970217813
 30
0.0
 11
-134.49999999901041
 21
-85.499999851060707
 31
0.0
 70
   128
  1
5
 13
-89.998715170683127
 23
-82.99999999994327
 33
0.0
 14
-89.998715301570059
 24
-87.999999702178144
 34
0.0
 50
270.0
1001
ACAD
1000
DSTYLE
1002
{
1070
    40
1040
1.0
1070
   271
1070
     6
1002
}
  0
DIMENSION
  5
1617
  8
SAPA_MATT
  2
*D86
 10
-134.49999999901041
 20
-25.00000000009781
 30
0.0
 11
-137.24999999901041
 21
-54.000000000020549
 31
0.0
 70
     0
 13
-89.998715170683127
 23
-82.99999999994327
 33
0.0
 14
-113.9999999990104
 24
-25.00000000009781
 34
0.0
 50
270.0
1001
ACAD
1000
DSTYLE
1002
{
1070
    40
1040
1.0
1002
}
  0
DIMENSION
  5
1618
  8
SAPA_MATT
  2
*D89
 10
-134.49999999901041
 20
-24.999999999999069
 30
0.0
 11
-137.24999999901041
 21
0.0000000000009145
 31
0.0
 70
     0
 13
-113.9999999990104
 23
25.000000000000931
 33
0.0
 14
-113.9999999990104
 24
-24.999999999999069
 34
0.0
 50
270.0
1001
ACAD
1000
DSTYLE
1002
{
1070
    40
1040
1.0
1002
}
  0
VIEWPORT
  5
C4
 67
     1
  8
0
 10
143.06236603067589
 20
116.00969601843509
 30
0.0
 40
369.98580003443811
 41
256.8421457311839
 68
     1
 69
     1
1001
ACAD
1000
MVIEW
1002
{
1070
    16
1010
0.0
1020
0.0
1030
0.0
1010
0.0
1020
0.0
1030
1.0
1040
0.0
1040
256.8421457311839
1040
99.112914085388169
1040
143.07606935501099
1040
50.0
1040
0.0
1040
0.0
1070
     0
1070
     0
1070
     1
1070
     1
1070
     0
1070
     0
1070
     0
1070
     0
1040
0.0
1040
0.0
1040
0.0
1040
10.0
1040
10.0
1040
10.0
1040
10.0
1070
     0
1002
{
1002
}
1002
}
  0
ENDSEC
  0
EOF
