  0
SECTION
  2
HEADER
  9
$ACADVER
  1
AC1009
  9
$INSBASE
 10
0.0
 20
0.0
 30
0.0
  9
$EXTMIN
 10
-140.7499999990105
 20
-48.114456713576843
 30
0.0
  9
$EXTMAX
 10
82.009403434165449
 20
142.11232478622131
 30
0.0000000195376815
  9
$LIMMIN
 10
0.0
 20
0.0
  9
$LIMMAX
 10
790.0
 20
790.0
  9
$ORTHOMODE
 70
     1
  9
$REGENMODE
 70
     1
  9
$FILLMODE
 70
     1
  9
$QTEXTMODE
 70
     0
  9
$MIRRTEXT
 70
     1
  9
$DRAGMODE
 70
     2
  9
$LTSCALE
 40
4.0
  9
$OSMODE
 70
   167
  9
$ATTMODE
 70
     1
  9
$TEXTSIZE
 40
3.5
  9
$TRACEWID
 40
0.05
  9
$TEXTSTYLE
  7
ISO
  9
$CLAYER
  8
0
  9
$CELTYPE
  6
BYLAYER
  9
$CECOLOR
 62
   256
  9
$DIMSCALE
 40
0.0
  9
$DIMASZ
 40
3.0
  9
$DIMEXO
 40
1.5
  9
$DIMDLI
 40
10.0
  9
$DIMRND
 40
0.0
  9
$DIMDLE
 40
0.0
  9
$DIMEXE
 40
1.5
  9
$DIMTP
 40
0.0
  9
$DIMTM
 40
0.0
  9
$DIMTXT
 40
3.5
  9
$DIMCEN
 40
-5.0
  9
$DIMTSZ
 40
0.0
  9
$DIMTOL
 70
     0
  9
$DIMLIM
 70
     0
  9
$DIMTIH
 70
     0
  9
$DIMTOH
 70
     0
  9
$DIMSE1
 70
     0
  9
$DIMSE2
 70
     0
  9
$DIMTAD
 70
     1
  9
$DIMZIN
 70
     8
  9
$DIMBLK
  1

  9
$DIMASO
 70
     1
  9
$DIMSHO
 70
     1
  9
$DIMPOST
  1

  9
$DIMAPOST
  1

  9
$DIMALT
 70
     0
  9
$DIMALTD
 70
     0
  9
$DIMALTF
 40
25.399999999999999
  9
$DIMLFAC
 40
-1.0
  9
$DIMTOFL
 70
     1
  9
$DIMTVP
 40
0.0
  9
$DIMTIX
 70
     0
  9
$DIMSOXD
 70
     0
  9
$DIMSAH
 70
     0
  9
$DIMBLK1
  1

  9
$DIMBLK2
  1

  9
$DIMSTYLE
  2
MASKIN
  9
$DIMCLRD
 70
   256
  9
$DIMCLRE
 70
   256
  9
$DIMCLRT
 70
     2
  9
$DIMTFAC
 40
1.0
  9
$DIMGAP
 40
1.0
  9
$LUNITS
 70
     2
  9
$LUPREC
 70
     8
  9
$SKETCHINC
 40
0.1
  9
$FILLETRAD
 40
0.0
  9
$AUNITS
 70
     0
  9
$AUPREC
 70
     8
  9
$MENU
  1
ACAD
  9
$ELEVATION
 40
0.0
  9
$PELEVATION
 40
0.0
  9
$THICKNESS
 40
0.0
  9
$LIMCHECK
 70
     0
  9
$BLIPMODE
 70
     0
  9
$CHAMFERA
 40
0.0
  9
$CHAMFERB
 40
0.0
  9
$SKPOLY
 70
     0
  9
$TDCREATE
 40
2454981.3237536349
  9
$TDUPDATE
 40
2457105.5524733681
  9
$TDINDWG
 40
0.0727187731
  9
$TDUSRTIMER
 40
0.072718588
  9
$USRTIMER
 70
     1
  9
$ANGBASE
 50
0.0
  9
$ANGDIR
 70
     0
  9
$PDMODE
 70
     0
  9
$PDSIZE
 40
0.0
  9
$PLINEWID
 40
0.0
  9
$COORDS
 70
     1
  9
$SPLFRAME
 70
     0
  9
$SPLINETYPE
 70
     6
  9
$SPLINESEGS
 70
     8
  9
$ATTDIA
 70
     0
  9
$ATTREQ
 70
     1
  9
$HANDLING
 70
     1
  9
$HANDSEED
  5
2757
  9
$SURFTAB1
 70
     6
  9
$SURFTAB2
 70
     6
  9
$SURFTYPE
 70
     6
  9
$SURFU
 70
     6
  9
$SURFV
 70
     6
  9
$UCSNAME
  2

  9
$UCSORG
 10
0.0
 20
0.0
 30
0.0
  9
$UCSXDIR
 10
1.0
 20
0.0
 30
0.0
  9
$UCSYDIR
 10
0.0
 20
1.0
 30
0.0
  9
$PUCSNAME
  2

  9
$PUCSORG
 10
0.0
 20
0.0
 30
0.0
  9
$PUCSXDIR
 10
1.0
 20
0.0
 30
0.0
  9
$PUCSYDIR
 10
0.0
 20
1.0
 30
0.0
  9
$USERI1
 70
     0
  9
$USERI2
 70
     0
  9
$USERI3
 70
     0
  9
$USERI4
 70
     0
  9
$USERI5
 70
     0
  9
$USERR1
 40
0.0
  9
$USERR2
 40
0.0
  9
$USERR3
 40
0.0
  9
$USERR4
 40
0.0
  9
$USERR5
 40
0.0
  9
$WORLDVIEW
 70
     1
  9
$SHADEDGE
 70
     3
  9
$SHADEDIF
 70
    70
  9
$TILEMODE
 70
     1
  9
$MAXACTVP
 70
    16
  9
$PLIMCHECK
 70
     0
  9
$PEXTMIN
 10
1.0000000000000000E+020
 20
1.0000000000000000E+020
 30
1.0000000000000000E+020
  9
$PEXTMAX
 10
-1.0000000000000000E+020
 20
-1.0000000000000000E+020
 30
-1.0000000000000000E+020
  9
$PLIMMIN
 10
-5.069427490234375
 20
-5.8737497329711914
  9
$PLIMMAX
 10
291.89889526367187
 20
204.0995779037475
  9
$UNITMODE
 70
     0
  9
$VISRETAIN
 70
     1
  9
$PLINEGEN
 70
     0
  9
$PSLTSCALE
 70
     1
  0
ENDSEC
  0
SECTION
  2
TABLES
  0
TABLE
  2
VPORT
 70
     1
  0
VPORT
  2
*ACTIVE
 70
     0
 10
0.0
 20
0.0
 11
1.0
 21
1.0
 12
-27.019437938693809
 22
150.1062316541192
 13
0.0
 23
0.0
 14
1.0
 24
1.0
 15
0.0
 25
0.0
 16
0.0
 26
0.0
 36
1.0
 17
0.0
 27
0.0
 37
0.0
 40
259.50358705309787
 41
1.7436619718309849
 42
50.0
 43
0.0
 44
0.0
 50
0.0
 51
0.0
 71
     0
 72
   100
 73
     1
 74
     1
 75
     0
 76
     0
 77
     0
 78
     0
  0
ENDTAB
  0
TABLE
  2
LTYPE
 70
    44
  0
LTYPE
  2
CONTINUOUS
 70
     0
  3
Solid line
 72
    65
 73
     0
 40
0.0
  0
LTYPE
  2
BYGG-01482201$0$NEWDOT
 70
     0
  3
____ . ____ . ____ . ____ . ____ . ____ . ____
 72
    65
 73
     4
 40
2.0
 49
1.0
 49
-0.5
 49
0.0
 49
-0.5
  0
LTYPE
  2
BYGG-023714$0$NEWDOT
 70
     0
  3
____ . ____ . ____ . ____ . ____ . ____ . ____
 72
    65
 73
     4
 40
2.0
 49
1.0
 49
-0.5
 49
0.0
 49
-0.5
  0
LTYPE
  2
BYGG-023714$0$DASHDOT
 70
     0
  3
__ . __ . __ . __ . __ . __ . __ . __ . __ . __
 72
    65
 73
     4
 40
1.0
 49
0.5
 49
-0.25
 49
0.0
 49
-0.25
  0
LTYPE
  2
BYGG-023714$0$DASHED
 70
     0
  3
__ __ __ __ __ __ __ __ __ __ __ __ __ __ __
 72
    65
 73
     2
 40
0.75
 49
0.5
 49
-0.25
  0
LTYPE
  2
BYGG-023714$0$PHANTOM
 70
     0
  3
Phantom ______  __  __  ______  __  __  ______
 72
    65
 73
     6
 40
63.5
 49
31.75
 49
-6.3499999999999988
 49
6.3499999999999988
 49
-6.3499999999999988
 49
6.3499999999999988
 49
-6.3499999999999988
  0
LTYPE
  2
BYGG-014279$0$NEWDOT
 70
     0
  3
____ . ____ . ____ . ____ . ____ . ____ . ____
 72
    65
 73
     4
 40
2.0
 49
1.0
 49
-0.5
 49
0.0
 49
-0.5
  0
LTYPE
  2
BYGG-01482201$0$ZIGZAG
 70
     0
  3
Zig zag /\/\/\/\/\/\/\/\/\/\/\/\/\/\/\/\/\/\/\/\/\/\/\/
 72
    65
 73
     4
 40
20.32254
 49
0.00254
 49
-5.0800000000000001
 49
-10.16
 49
-5.0800000000000001
  0
LTYPE
  2
BYGG-023714$0$ZIGZAG
 70
     0
  3
Zig zag /\/\/\/\/\/\/\/\/\/\/\/\/\/\/\/\/\/\/\/\/\/\/\/
 72
    65
 73
     4
 40
20.32254
 49
0.00254
 49
-5.0800000000000001
 49
-10.16
 49
-5.0800000000000001
  0
LTYPE
  2
BYGG-014279$0$ZIGZAG
 70
     0
  3
Zig zag /\/\/\/\/\/\/\/\/\/\/\/\/\/\/\/\/\/\/\/\/\/\/\/
 72
    65
 73
     4
 40
20.32254
 49
0.00254
 49
-5.0800000000000001
 49
-10.16
 49
-5.0800000000000001
  0
LTYPE
  2
BYGG-033246$0$NEWDOT
 70
     0
  3
____ . ____ . ____ . ____ . ____ . ____ . ____
 72
    65
 73
     4
 40
2.0
 49
1.0
 49
-0.5
 49
0.0
 49
-0.5
  0
LTYPE
  2
BYGG-033246$0$DASHDOT
 70
     0
  3
__ . __ . __ . __ . __ . __ . __ . __ . __ . __
 72
    65
 73
     4
 40
1.0
 49
0.5
 49
-0.25
 49
0.0
 49
-0.25
  0
LTYPE
  2
BYGG-033246$0$DASHED
 70
     0
  3
__ __ __ __ __ __ __ __ __ __ __ __ __ __ __
 72
    65
 73
     2
 40
0.75
 49
0.5
 49
-0.25
  0
LTYPE
  2
BYGG-033246$0$PHANTOM
 70
     0
  3
Phantom ______  __  __  ______  __  __  ______
 72
    65
 73
     6
 40
63.5
 49
31.75
 49
-6.3499999999999988
 49
6.3499999999999988
 49
-6.3499999999999988
 49
6.3499999999999988
 49
-6.3499999999999988
  0
LTYPE
  2
BYGG-024943$0$NEWDOT
 70
     0
  3
____ . ____ . ____ . ____ . ____ . ____ . ____
 72
    65
 73
     4
 40
2.0
 49
1.0
 49
-0.5
 49
0.0
 49
-0.5
  0
LTYPE
  2
BYGG-024943$0$DASHDOT
 70
     0
  3
__ . __ . __ . __ . __ . __ . __ . __ . __ . __
 72
    65
 73
     4
 40
1.0
 49
0.5
 49
-0.25
 49
0.0
 49
-0.25
  0
LTYPE
  2
BYGG-020132$0$NEWDOT
 70
     0
  3
____ . ____ . ____ . ____ . ____ . ____ . ____
 72
    65
 73
     4
 40
2.0
 49
1.0
 49
-0.5
 49
0.0
 49
-0.5
  0
LTYPE
  2
BYGG-020132$0$DASHDOT
 70
     0
  3
__ . __ . __ . __ . __ . __ . __ . __ . __ . __
 72
    65
 73
     4
 40
1.0
 49
0.5
 49
-0.25
 49
0.0
 49
-0.25
  0
LTYPE
  2
BYGG-020805$0$NEWDOT
 70
     0
  3
____ . ____ . ____ . ____ . ____ . ____ . ____
 72
    65
 73
     4
 40
2.0
 49
1.0
 49
-0.5
 49
0.0
 49
-0.5
  0
LTYPE
  2
BYGG-020805$0$DASHDOT
 70
     0
  3
__ . __ . __ . __ . __ . __ . __ . __ . __ . __
 72
    65
 73
     4
 40
1.0
 49
0.5
 49
-0.25
 49
0.0
 49
-0.25
  0
LTYPE
  2
BYGG-020805$0$DASHED
 70
     0
  3
__ __ __ __ __ __ __ __ __ __ __ __ __ __ __
 72
    65
 73
     2
 40
0.75
 49
0.5
 49
-0.25
  0
LTYPE
  2
BYGG-020805$0$PHANTOM
 70
     0
  3
Phantom ______  __  __  ______  __  __  ______
 72
    65
 73
     6
 40
63.5
 49
31.75
 49
-6.3499999999999988
 49
6.3499999999999988
 49
-6.3499999999999988
 49
6.3499999999999988
 49
-6.3499999999999988
  0
LTYPE
  2
BYGG-026410$0$NEWDOT
 70
     0
  3
____ . ____ . ____ . ____ . ____ . ____ . ____
 72
    65
 73
     4
 40
2.0
 49
1.0
 49
-0.5
 49
0.0
 49
-0.5
  0
LTYPE
  2
BYGG-026410$0$DASHDOT
 70
     0
  3
__ . __ . __ . __ . __ . __ . __ . __ . __ . __
 72
    65
 73
     4
 40
1.0
 49
0.5
 49
-0.25
 49
0.0
 49
-0.25
  0
LTYPE
  2
BYGG-026410$0$DASHED
 70
     0
  3
__ __ __ __ __ __ __ __ __ __ __ __ __ __ __
 72
    65
 73
     2
 40
0.75
 49
0.5
 49
-0.25
  0
LTYPE
  2
BYGG-026410$0$PHANTOM
 70
     0
  3
Phantom ______  __  __  ______  __  __  ______
 72
    65
 73
     6
 40
63.5
 49
31.75
 49
-6.3499999999999988
 49
6.3499999999999988
 49
-6.3499999999999988
 49
6.3499999999999988
 49
-6.3499999999999988
  0
LTYPE
  2
BYGG-033169$0$NEWDOT
 70
     0
  3
____ . ____ . ____ . ____ . ____ . ____ . ____
 72
    65
 73
     4
 40
2.0
 49
1.0
 49
-0.5
 49
0.0
 49
-0.5
  0
LTYPE
  2
BYGG-033169$0$DASHDOT
 70
     0
  3
__ . __ . __ . __ . __ . __ . __ . __ . __ . __
 72
    65
 73
     4
 40
1.0
 49
0.5
 49
-0.25
 49
0.0
 49
-0.25
  0
LTYPE
  2
BYGG-033169$0$DASHED
 70
     0
  3
__ __ __ __ __ __ __ __ __ __ __ __ __ __ __
 72
    65
 73
     2
 40
0.75
 49
0.5
 49
-0.25
  0
LTYPE
  2
BYGG-033169$0$PHANTOM
 70
     0
  3
Phantom ______  __  __  ______  __  __  ______
 72
    65
 73
     6
 40
63.5
 49
31.75
 49
-6.3499999999999988
 49
6.3499999999999988
 49
-6.3499999999999988
 49
6.3499999999999988
 49
-6.3499999999999988
  0
LTYPE
  2
BYGG-024798$0$NEWDOT
 70
     0
  3
____ . ____ . ____ . ____ . ____ . ____ . ____
 72
    65
 73
     4
 40
2.0
 49
1.0
 49
-0.5
 49
0.0
 49
-0.5
  0
LTYPE
  2
BYGG-024799$0$NEWDOT
 70
     0
  3
____ . ____ . ____ . ____ . ____ . ____ . ____
 72
    65
 73
     4
 40
2.0
 49
1.0
 49
-0.5
 49
0.0
 49
-0.5
  0
LTYPE
  2
BYGG-024799$0$DASHDOT
 70
     0
  3
__ . __ . __ . __ . __ . __ . __ . __ . __ . __
 72
    65
 73
     4
 40
1.0
 49
0.5
 49
-0.25
 49
0.0
 49
-0.25
  0
LTYPE
  2
BYGG-025652$0$NEWDOT
 70
     0
  3
____ . ____ . ____ . ____ . ____ . ____ . ____
 72
    65
 73
     4
 40
2.0
 49
1.0
 49
-0.5
 49
0.0
 49
-0.5
  0
LTYPE
  2
BYGG-025652$0$DASHDOT
 70
     0
  3
__ . __ . __ . __ . __ . __ . __ . __ . __ . __
 72
    65
 73
     4
 40
1.0
 49
0.5
 49
-0.25
 49
0.0
 49
-0.25
  0
LTYPE
  2
BYGG-025652$0$DASHED
 70
     0
  3
__ __ __ __ __ __ __ __ __ __ __ __ __ __ __
 72
    65
 73
     2
 40
0.75
 49
0.5
 49
-0.25
  0
LTYPE
  2
BYGG-025652$0$PHANTOM
 70
     0
  3
Phantom ______  __  __  ______  __  __  ______
 72
    65
 73
     6
 40
63.5
 49
31.75
 49
-6.3499999999999988
 49
6.3499999999999988
 49
-6.3499999999999988
 49
6.3499999999999988
 49
-6.3499999999999988
  0
LTYPE
  2
BYGG-014411$0$NEWDOT
 70
     0
  3
____ . ____ . ____ . ____ . ____ . ____ . ____
 72
    65
 73
     4
 40
2.0
 49
1.0
 49
-0.5
 49
0.0
 49
-0.5
  0
LTYPE
  2
BYGG-014411$0$ZIGZAG
 70
     0
  3
Zig zag /\/\/\/\/\/\/\/\/\/\/\/\/\/\/\/\/\/\/\/\/\/\/\/
 72
    65
 73
     4
 40
20.32254
 49
0.00254
 49
-5.0800000000000001
 49
-10.16
 49
-5.0800000000000001
  0
LTYPE
  2
BYGG-030185$0$PHANTOM2
 70
     0
  3
Phantom (.5x) ___ _ _ ___ _ _ ___ _ _ ___ _ _
 72
    65
 73
     6
 40
1.25
 49
0.625
 49
-0.125
 49
0.125
 49
-0.125
 49
0.125
 49
-0.125
  0
LTYPE
  2
BYGG-024798$0$DASHDOT
 70
     0
  3
__ . __ . __ . __ . __ . __ . __ . __ . __ . __
 72
    65
 73
     4
 40
1.0
 49
0.5
 49
-0.25
 49
0.0
 49
-0.25
  0
LTYPE
  2
BYGG-014089$0$PHANTOM2
 70
     0
  3
Phantom (.5x) ___ _ _ ___ _ _ ___ _ _ ___ _ _
 72
    65
 73
     6
 40
1.25
 49
0.625
 49
-0.125
 49
0.125
 49
-0.125
 49
0.125
 49
-0.125
  0
LTYPE
  2
BYGG-014108$0$PHANTOM2
 70
     0
  3
Phantom (.5x) ___ _ _ ___ _ _ ___ _ _ ___ _ _
 72
    65
 73
     6
 40
1.25
 49
0.625
 49
-0.125
 49
0.125
 49
-0.125
 49
0.125
 49
-0.125
  0
LTYPE
  2
BYGG-014411$0$PHANTOM2
 70
     0
  3
Phantom (.5x) ___ _ _ ___ _ _ ___ _ _ ___ _ _
 72
    65
 73
     6
 40
1.25
 49
0.625
 49
-0.125
 49
0.125
 49
-0.125
 49
0.125
 49
-0.125
  0
ENDTAB
  0
TABLE
  2
LAYER
 70
   254
  0
LAYER
  2
0
 70
     0
 62
     7
  6
CONTINUOUS
  0
LAYER
  2
DEFPOINTS
 70
     0
 62
     7
  6
CONTINUOUS
  0
LAYER
  2
SAPA_LIGHT
 70
     1
 62
     1
  6
CONTINUOUS
  0
LAYER
  2
SAPA_ARTIKELNR
 70
     0
 62
     4
  6
CONTINUOUS
  0
LAYER
  2
SAPA_ISOLATOR
 70
     0
 62
     4
  6
CONTINUOUS
  0
LAYER
  2
SAPA_MATT
 70
     0
 62
     1
  6
CONTINUOUS
  0
LAYER
  2
SAPA_GLAS
 70
     0
 62
     4
  6
CONTINUOUS
  0
LAYER
  2
SAPA_FOGBAND
 70
     0
 62
     2
  6
CONTINUOUS
  0
LAYER
  2
SAPA_PROFIL
 70
     0
 62
     7
  6
CONTINUOUS
  0
ENDTAB
  0
TABLE
  2
STYLE
 70
    49
  0
STYLE
  2
STANDARD
 70
     0
 40
0.0
 41
1.0
 50
0.0
 71
     0
 42
0.2
  3
txt
  4

  0
STYLE
  2
ISO
 70
     0
 40
0.0
 41
1.0
 50
0.0
 71
     0
 42
3.5
  3
txt
  4

  0
STYLE
  2

 70
     1
 40
0.0
 41
1.0
 50
0.0
 71
     0
 42
0.2
  3
ltypeshp.shx
  4

  0
STYLE
  2
BYGG-021589$0$STANDARD
 70
     0
 40
0.0
 41
1.0
 50
0.0
 71
     0
 42
0.2
  3
txt
  4

  0
STYLE
  2
BYGG-021589$0$ISO
 70
     0
 40
0.0
 41
1.0
 50
0.0
 71
     0
 42
3.5
  3
isocp3.shx
  4

  0
STYLE
  2
BYGG-01482201$0$STANDARD
 70
     0
 40
0.0
 41
1.0
 50
0.0
 71
     0
 42
0.2
  3
txt
  4

  0
STYLE
  2
BYGG-01482201$0$ISO
 70
     0
 40
0.0
 41
1.0
 50
0.0
 71
     0
 42
3.5
  3
isocp3.shx
  4

  0
STYLE
  2
BYGG-023717$0$STANDARD
 70
     0
 40
0.0
 41
1.0
 50
0.0
 71
     0
 42
0.2
  3
txt
  4

  0
STYLE
  2
BYGG-023717$0$ISO
 70
     0
 40
0.0
 41
1.0
 50
0.0
 71
     0
 42
3.5
  3
txt
  4

  0
STYLE
  2
BYGG-023714$0$STANDARD
 70
     0
 40
0.0
 41
1.0
 50
0.0
 71
     0
 42
0.2
  3
txt
  4

  0
STYLE
  2
BYGG-023714$0$ISO
 70
     0
 40
0.0
 41
1.0
 50
0.0
 71
     0
 42
3.5
  3
txt
  4

  0
STYLE
  2
BYGG-019338$0$STANDARD
 70
     0
 40
0.0
 41
1.0
 50
0.0
 71
     0
 42
0.2
  3
txt
  4

  0
STYLE
  2
BYGG-019338$0$ISO
 70
     0
 40
0.0
 41
1.0
 50
0.0
 71
     0
 42
3.5
  3
txt
  4

  0
STYLE
  2
BYGG-023917$0$STANDARD
 70
     0
 40
0.0
 41
1.0
 50
0.0
 71
     0
 42
0.2
  3
txt
  4

  0
STYLE
  2
BYGG-023917$0$ISO
 70
     0
 40
0.0
 41
1.0
 50
0.0
 71
     0
 42
3.5
  3
txt
  4

  0
STYLE
  2
BYGG-021582$0$STANDARD
 70
     0
 40
0.0
 41
1.0
 50
0.0
 71
     0
 42
0.2
  3
txt
  4

  0
STYLE
  2
BYGG-021582$0$ISO
 70
     0
 40
0.0
 41
1.0
 50
0.0
 71
     0
 42
3.5
  3
isocp3.shx
  4

  0
STYLE
  2
BYGG-014279$0$STANDARD
 70
     0
 40
0.0
 41
1.0
 50
0.0
 71
     0
 42
0.2
  3
TXT.shx
  4

  0
STYLE
  2
BYGG-014279$0$ISO
 70
     0
 40
0.0
 41
1.0
 50
0.0
 71
     0
 42
3.5
  3
iso
  4

  0
STYLE
  2
BYGG-033246$0$STANDARD
 70
     0
 40
0.0
 41
1.0
 50
0.0
 71
     0
 42
0.2
  3
txt
  4

  0
STYLE
  2
BYGG-033246$0$ISO
 70
     0
 40
0.0
 41
1.0
 50
0.0
 71
     0
 42
3.5
  3
txt
  4

  0
STYLE
  2
BYGG-024943$0$STANDARD
 70
     0
 40
0.0
 41
1.0
 50
0.0
 71
     0
 42
0.2
  3
txt
  4

  0
STYLE
  2
BYGG-024943$0$ISO
 70
     0
 40
0.0
 41
1.0
 50
0.0
 71
     0
 42
3.5
  3
txt
  4

  0
STYLE
  2
BYGG-020132$0$STANDARD
 70
     0
 40
0.0
 41
1.0
 50
0.0
 71
     0
 42
0.2
  3
txt
  4

  0
STYLE
  2
BYGG-020132$0$ISO
 70
     0
 40
0.0
 41
1.0
 50
0.0
 71
     0
 42
3.5
  3
txt
  4

  0
STYLE
  2
BYGG-028980$0$STANDARD
 70
     0
 40
0.0
 41
1.0
 50
0.0
 71
     0
 42
0.2
  3
txt
  4

  0
STYLE
  2
BYGG-028980$0$ISO
 70
     0
 40
0.0
 41
1.0
 50
0.0
 71
     0
 42
3.5
  3
txt
  4

  0
STYLE
  2
BYGG-020805$0$STANDARD
 70
     0
 40
0.0
 41
1.0
 50
0.0
 71
     0
 42
0.2
  3
txt
  4

  0
STYLE
  2
BYGG-020805$0$ISO
 70
     0
 40
0.0
 41
1.0
 50
0.0
 71
     0
 42
3.5
  3
txt
  4

  0
STYLE
  2
BYGG-026410$0$STANDARD
 70
     0
 40
0.0
 41
1.0
 50
0.0
 71
     0
 42
0.2
  3
txt
  4

  0
STYLE
  2
BYGG-026410$0$ISO
 70
     0
 40
0.0
 41
1.0
 50
0.0
 71
     0
 42
3.5
  3
txt
  4

  0
STYLE
  2
BYGG-033169$0$STANDARD
 70
     0
 40
0.0
 41
1.0
 50
0.0
 71
     0
 42
0.2
  3
txt
  4

  0
STYLE
  2
BYGG-033169$0$ISO
 70
     0
 40
0.0
 41
1.0
 50
0.0
 71
     0
 42
3.5
  3
txt
  4

  0
STYLE
  2
BYGG-030185$0$STANDARD
 70
     0
 40
0.0
 41
1.0
 50
0.0
 71
     0
 42
0.2
  3
txt
  4

  0
STYLE
  2
BYGG-030185$0$ISO
 70
     0
 40
0.0
 41
1.0
 50
0.0
 71
     0
 42
7.0
  3
ISO
  4

  0
STYLE
  2
BYGG-024798$0$STANDARD
 70
     0
 40
0.0
 41
1.0
 50
0.0
 71
     0
 42
0.2
  3
txt
  4

  0
STYLE
  2
BYGG-024798$0$ISO
 70
     0
 40
0.0
 41
1.0
 50
0.0
 71
     0
 42
3.5
  3
txt
  4

  0
STYLE
  2
BYGG-024799$0$STANDARD
 70
     0
 40
0.0
 41
1.0
 50
0.0
 71
     0
 42
0.2
  3
txt
  4

  0
STYLE
  2
BYGG-024799$0$ISO
 70
     0
 40
0.0
 41
1.0
 50
0.0
 71
     0
 42
3.5
  3
txt
  4

  0
STYLE
  2
BYGG-014089$0$STANDARD
 70
     0
 40
0.0
 41
1.0
 50
0.0
 71
     0
 42
0.2
  3
txt
  4

  0
STYLE
  2
BYGG-014089$0$ANNOTATIVE
 70
     0
 40
0.0
 41
1.0
 50
0.0
 71
     0
 42
3.5
  3
txt
  4

  0
STYLE
  2
BYGG-014108$0$STANDARD
 70
     0
 40
0.0
 41
1.0
 50
0.0
 71
     0
 42
0.4
  3
txt
  4

  0
STYLE
  2
BYGG-014108$0$SIMPLEX
 70
     0
 40
0.0
 41
1.0
 50
0.0
 71
     0
 42
0.2
  3
simplex
  4

  0
STYLE
  2
BYGG-019611$0$STANDARD
 70
     0
 40
0.0
 41
1.0
 50
0.0
 71
     0
 42
0.2
  3
txt
  4

  0
STYLE
  2
BYGG-019611$0$ISO
 70
     0
 40
0.0
 41
1.0
 50
0.0
 71
     0
 42
3.5
  3
txt
  4

  0
STYLE
  2
BYGG-025652$0$STANDARD
 70
     0
 40
0.0
 41
1.0
 50
0.0
 71
     0
 42
0.2
  3
txt
  4

  0
STYLE
  2
BYGG-025652$0$ISO
 70
     0
 40
0.0
 41
1.0
 50
0.0
 71
     0
 42
3.5
  3
txt
  4

  0
STYLE
  2
BYGG-014411$0$STANDARD
 70
     0
 40
0.0
 41
1.0
 50
0.0
 71
     0
 42
0.2
  3
txt
  4

  0
STYLE
  2
BYGG-014411$0$ISO
 70
     0
 40
0.0
 41
1.0
 50
0.0
 71
     0
 42
3.5
  3
isocp3.shx
  4

  0
ENDTAB
  0
TABLE
  2
VIEW
 70
     0
  0
ENDTAB
  0
TABLE
  2
UCS
 70
     0
  0
ENDTAB
  0
TABLE
  2
APPID
 70
    34
  0
APPID
  2
ACAD
 70
     0
  0
APPID
  2
ACAD_DSTYLE_DIMTEXT_FILL
 70
     0
  0
APPID
  2
ACAD_DSTYLE_DIMEXT_LENGTH
 70
     0
  0
APPID
  2
ACAD_DSTYLE_DIMEXT_ENABLED
 70
     0
  0
APPID
  2
ACAD_DSTYLE_DIM_LINETYPE
 70
     0
  0
APPID
  2
ACAD_DSTYLE_DIM_EXT1_LINETYPE
 70
     0
  0
APPID
  2
ACAD_DSTYLE_DIM_EXT2_LINETYPE
 70
     0
  0
APPID
  2
ACAD_DSTYLE_DIMJOGGED_JOGA
 70
     0
  0
APPID
  2
ACAD_DSTYLE_DIMARC_LENGTH_
 70
     0
  0
APPID
  2
ACAD_PSEXT
 70
     0
  0
APPID
  2
ACAD_MLEADERVER
 70
     0
  0
APPID
  2
AMG_ARCHIVE11
 70
     0
  0
APPID
  2
ACADANNOTATIVE
 70
     0
  0
APPID
  2
ACAECLAYERSTANDARD
 70
     0
  0
APPID
  2
ACAD_EXEMPT_FROM_CAD_STANDARDS
 70
     0
  0
APPID
  2
ACDBDYNAMICBLOCKGUID
 70
     0
  0
APPID
  2
ACDBBLOCKREPETAG
 70
     0
  0
APPID
  2
ACAUTHENVIRON
 70
     0
  0
APPID
  2
ACAD_DSTYLE_DIMJAG
 70
     0
  0
APPID
  2
ACAD_DSTYLE_DIMTALN
 70
     0
  0
APPID
  2
ACAD_NAV_VCDISPLAY
 70
     0
  0
APPID
  2
ACAD_DSTYLE_DIMRADIAL_EXTENSION
 70
     0
  0
APPID
  2
ACAD_OBJECT_CHANGE_GUID
 70
     0
  0
APPID
  2
ACCMTRANSPARENCY
 70
     0
  0
APPID
  2
AVE_RENDER
 70
     0
  0
APPID
  2
AVE_ENTITY_MATERIAL
 70
     0
  0
APPID
  2
AVE_FINISH
 70
     0
  0
APPID
  2
AVE_MATERIAL
 70
     0
  0
APPID
  2
AVE_GLOBAL
 70
     0
  0
APPID
  2
4M_RENDER
 70
     0
  0
APPID
  2
LIBMAN
 70
     0
  0
APPID
  2
AUTOBUILD
 70
     0
  0
APPID
  2
ACDBDYNAMICBLOCKTRUENAME
 70
     0
  0
APPID
  2
AEC_XDATA_BOUND_SPACE
 70
     0
  0
ENDTAB
  0
TABLE
  2
DIMSTYLE
 70
    43
  0
DIMSTYLE
  2
MASKIN
 70
     0
  3

  4

  5

  6

  7

 40
0.0
 41
3.0
 42
1.5
 43
10.0
 44
1.5
 45
0.0
 46
0.0
 47
0.0
 48
0.0
140
3.5
141
-5.0
142
0.0
143
25.399999999999999
144
-1.0
145
0.0
146
1.0
147
1.0
 71
     0
 72
     0
 73
     0
 74
     0
 75
     0
 76
     0
 77
     1
 78
     8
170
     0
171
     0
172
     1
173
     0
174
     0
175
     0
176
   256
177
   256
178
     2
  0
DIMSTYLE
  2
BYGG-021589$0$MASKIN
 70
     0
  3

  4

  5

  6

  7

 40
0.0
 41
3.0
 42
1.5
 43
10.0
 44
1.5
 45
0.0
 46
0.0
 47
0.0
 48
0.0
140
3.0
141
-5.0
142
0.0
143
25.399999999999999
144
-1.0
145
0.0
146
1.0
147
1.0
 71
     0
 72
     0
 73
     0
 74
     0
 75
     0
 76
     0
 77
     1
 78
     8
170
     0
171
     0
172
     1
173
     0
174
     0
175
     0
176
   256
177
   256
178
   256
  0
DIMSTYLE
  2
BYGG-01482201$0$STANDARD
 70
     0
  3

  4

  5

  6

  7

 40
1.0
 41
0.18
 42
0.0625
 43
0.38
 44
0.18
 45
0.0
 46
0.0
 47
0.0
 48
0.0
140
0.18
141
0.09
142
0.0
143
25.399999999999999
144
1.0
145
0.0
146
1.0
147
0.09
 71
     0
 72
     0
 73
     1
 74
     1
 75
     0
 76
     0
 77
     0
 78
     0
170
     0
171
     2
172
     0
173
     0
174
     0
175
     0
176
     0
177
     0
178
     0
  0
DIMSTYLE
  2
BYGG-01482201$0$MASKIN
 70
     0
  3

  4

  5

  6

  7

 40
0.0
 41
3.0
 42
1.5
 43
10.0
 44
1.5
 45
0.0
 46
0.0
 47
0.0
 48
0.0
140
3.0
141
-5.0
142
0.0
143
25.399999999999999
144
-1.0
145
0.0
146
1.0
147
1.0
 71
     0
 72
     0
 73
     0
 74
     1
 75
     0
 76
     0
 77
     1
 78
     8
170
     0
171
     0
172
     1
173
     0
174
     0
175
     0
176
   256
177
   256
178
     2
  0
DIMSTYLE
  2
BYGG-023717$0$STANDARD
 70
     0
  3

  4

  5

  6

  7

 40
1.0
 41
0.18
 42
0.0625
 43
0.38
 44
0.18
 45
0.0
 46
0.0
 47
0.0
 48
0.0
140
0.18
141
0.09
142
0.0
143
25.399999999999999
144
1.0
145
0.0
146
1.0
147
0.09
 71
     0
 72
     0
 73
     1
 74
     1
 75
     0
 76
     0
 77
     0
 78
     0
170
     0
171
     2
172
     0
173
     0
174
     0
175
     0
176
     0
177
     0
178
     0
  0
DIMSTYLE
  2
BYGG-023717$0$MASKIN
 70
     0
  3

  4

  5

  6

  7

 40
0.0
 41
3.0
 42
1.5
 43
10.0
 44
1.5
 45
0.0
 46
0.0
 47
0.0
 48
0.0
140
3.0
141
-5.0
142
0.0
143
25.399999999999999
144
-1.0
145
0.0
146
1.0
147
1.0
 71
     0
 72
     0
 73
     0
 74
     0
 75
     0
 76
     0
 77
     1
 78
     8
170
     0
171
     0
172
     1
173
     0
174
     0
175
     0
176
   256
177
   256
178
     2
  0
DIMSTYLE
  2
BYGG-023714$0$STANDARD
 70
     0
  3

  4

  5

  6

  7

 40
1.0
 41
0.18
 42
0.0625
 43
0.38
 44
0.18
 45
0.0
 46
0.0
 47
0.0
 48
0.0
140
0.18
141
0.09
142
0.0
143
25.399999999999999
144
1.0
145
0.0
146
1.0
147
0.09
 71
     0
 72
     0
 73
     1
 74
     1
 75
     0
 76
     0
 77
     0
 78
     0
170
     0
171
     2
172
     0
173
     0
174
     0
175
     0
176
     0
177
     0
178
     0
  0
DIMSTYLE
  2
BYGG-023714$0$MASKIN
 70
     0
  3

  4

  5

  6

  7

 40
0.0
 41
3.0
 42
1.5
 43
10.0
 44
1.5
 45
0.0
 46
0.0
 47
0.0
 48
0.0
140
3.0
141
-5.0
142
0.0
143
25.399999999999999
144
-1.0
145
0.0
146
1.0
147
1.0
 71
     0
 72
     0
 73
     0
 74
     0
 75
     0
 76
     0
 77
     1
 78
     8
170
     0
171
     0
172
     1
173
     0
174
     0
175
     0
176
   256
177
   256
178
     2
  0
DIMSTYLE
  2
BYGG-019338$0$STANDARD
 70
     0
  3

  4

  5

  6

  7

 40
1.0
 41
0.18
 42
0.0625
 43
0.38
 44
0.18
 45
0.0
 46
0.0
 47
0.0
 48
0.0
140
0.18
141
0.09
142
0.0
143
25.399999999999999
144
1.0
145
0.0
146
1.0
147
0.09
 71
     0
 72
     0
 73
     1
 74
     1
 75
     0
 76
     0
 77
     0
 78
     0
170
     0
171
     2
172
     0
173
     0
174
     0
175
     0
176
     0
177
     0
178
     0
  0
DIMSTYLE
  2
BYGG-019338$0$MASKIN
 70
     0
  3

  4

  5

  6

  7

 40
0.0
 41
3.0
 42
1.5
 43
10.0
 44
1.5
 45
0.0
 46
0.0
 47
0.0
 48
0.0
140
3.0
141
-5.0
142
0.0
143
25.399999999999999
144
-1.0
145
0.0
146
1.0
147
1.0
 71
     0
 72
     0
 73
     0
 74
     0
 75
     0
 76
     0
 77
     1
 78
     8
170
     0
171
     0
172
     1
173
     0
174
     0
175
     0
176
   256
177
   256
178
     2
  0
DIMSTYLE
  2
BYGG-023917$0$STANDARD
 70
     0
  3

  4

  5

  6

  7

 40
1.0
 41
0.18
 42
0.0625
 43
0.38
 44
0.18
 45
0.0
 46
0.0
 47
0.0
 48
0.0
140
0.18
141
0.09
142
0.0
143
25.399999999999999
144
1.0
145
0.0
146
1.0
147
0.09
 71
     0
 72
     0
 73
     1
 74
     1
 75
     0
 76
     0
 77
     0
 78
     0
170
     0
171
     2
172
     0
173
     0
174
     0
175
     0
176
     0
177
     0
178
     0
  0
DIMSTYLE
  2
BYGG-023917$0$MASKIN
 70
     0
  3

  4

  5

  6

  7

 40
0.0
 41
3.0
 42
1.5
 43
10.0
 44
1.5
 45
0.0
 46
0.0
 47
0.0
 48
0.0
140
3.0
141
-5.0
142
0.0
143
25.399999999999999
144
-1.0
145
0.0
146
1.0
147
1.0
 71
     0
 72
     0
 73
     0
 74
     0
 75
     0
 76
     0
 77
     1
 78
     8
170
     0
171
     0
172
     1
173
     0
174
     0
175
     0
176
   256
177
   256
178
     2
  0
DIMSTYLE
  2
BYGG-021582$0$MASKIN
 70
     0
  3

  4

  5

  6

  7

 40
0.0
 41
3.0
 42
1.5
 43
10.0
 44
1.5
 45
0.0
 46
0.0
 47
0.0
 48
0.0
140
3.0
141
-5.0
142
0.0
143
25.399999999999999
144
-1.0
145
0.0
146
1.0
147
1.0
 71
     0
 72
     0
 73
     0
 74
     0
 75
     0
 76
     0
 77
     1
 78
     8
170
     0
171
     0
172
     1
173
     0
174
     0
175
     0
176
   256
177
   256
178
   256
  0
DIMSTYLE
  2
BYGG-014279$0$STANDARD
 70
     0
  3

  4

  5

  6

  7

 40
1.0
 41
0.18
 42
0.0625
 43
0.38
 44
0.18
 45
0.0
 46
0.0
 47
0.0
 48
0.0
140
0.18
141
0.09
142
0.0
143
25.399999999999999
144
1.0
145
0.0
146
1.0
147
0.09
 71
     0
 72
     0
 73
     1
 74
     1
 75
     0
 76
     0
 77
     0
 78
     0
170
     0
171
     2
172
     0
173
     0
174
     0
175
     0
176
     0
177
     0
178
     0
  0
DIMSTYLE
  2
BYGG-014279$0$MASKIN
 70
     0
  3

  4

  5

  6

  7

 40
0.0
 41
3.0
 42
1.5
 43
10.0
 44
1.5
 45
0.0
 46
0.0
 47
0.0
 48
0.0
140
3.0
141
-5.0
142
0.0
143
25.399999999999999
144
-1.0
145
0.0
146
1.0
147
1.0
 71
     0
 72
     0
 73
     0
 74
     1
 75
     0
 76
     0
 77
     1
 78
     8
170
     0
171
     0
172
     1
173
     0
174
     0
175
     0
176
   256
177
   256
178
     2
  0
DIMSTYLE
  2
BYGG-033246$0$STANDARD
 70
     0
  3

  4

  5

  6

  7

 40
1.0
 41
0.18
 42
0.0625
 43
0.38
 44
0.18
 45
0.0
 46
0.0
 47
0.0
 48
0.0
140
0.18
141
0.09
142
0.0
143
25.399999999999999
144
1.0
145
0.0
146
1.0
147
0.09
 71
     0
 72
     0
 73
     1
 74
     1
 75
     0
 76
     0
 77
     0
 78
     0
170
     0
171
     2
172
     0
173
     0
174
     0
175
     0
176
     0
177
     0
178
     0
  0
DIMSTYLE
  2
BYGG-033246$0$MASKIN
 70
     0
  3

  4

  5

  6

  7

 40
0.0
 41
3.0
 42
1.5
 43
10.0
 44
1.5
 45
0.0
 46
0.0
 47
0.0
 48
0.0
140
3.0
141
-5.0
142
0.0
143
25.399999999999999
144
-1.0
145
0.0
146
1.0
147
1.0
 71
     0
 72
     0
 73
     0
 74
     0
 75
     0
 76
     0
 77
     1
 78
     8
170
     0
171
     0
172
     1
173
     0
174
     0
175
     0
176
   256
177
   256
178
     2
  0
DIMSTYLE
  2
BYGG-024943$0$STANDARD
 70
     0
  3

  4

  5

  6

  7

 40
1.0
 41
0.18
 42
0.0625
 43
0.38
 44
0.18
 45
0.0
 46
0.0
 47
0.0
 48
0.0
140
0.18
141
0.09
142
0.0
143
25.399999999999999
144
1.0
145
0.0
146
1.0
147
0.09
 71
     0
 72
     0
 73
     1
 74
     1
 75
     0
 76
     0
 77
     0
 78
     0
170
     0
171
     2
172
     0
173
     0
174
     0
175
     0
176
     0
177
     0
178
     0
  0
DIMSTYLE
  2
BYGG-024943$0$MASKIN
 70
     0
  3

  4

  5

  6

  7

 40
0.0
 41
3.0
 42
1.5
 43
10.0
 44
1.5
 45
0.0
 46
0.0
 47
0.0
 48
0.0
140
3.0
141
-5.0
142
0.0
143
25.399999999999999
144
-1.0
145
0.0
146
1.0
147
1.0
 71
     0
 72
     0
 73
     0
 74
     0
 75
     0
 76
     0
 77
     1
 78
     8
170
     0
171
     0
172
     1
173
     0
174
     0
175
     0
176
   256
177
   256
178
     2
  0
DIMSTYLE
  2
BYGG-020132$0$MASKIN
 70
     0
  3

  4

  5

  6

  7

 40
0.0
 41
3.0
 42
1.5
 43
10.0
 44
1.5
 45
0.0
 46
0.0
 47
0.0
 48
0.0
140
3.0
141
-5.0
142
0.0
143
25.399999999999999
144
-1.0
145
0.0
146
1.0
147
1.0
 71
     0
 72
     0
 73
     0
 74
     0
 75
     0
 76
     0
 77
     1
 78
     8
170
     0
171
     0
172
     1
173
     0
174
     0
175
     0
176
   256
177
   256
178
     2
  0
DIMSTYLE
  2
BYGG-020132$0$STANDARD
 70
     0
  3

  4

  5

  6

  7

 40
1.0
 41
0.18
 42
0.0625
 43
0.38
 44
0.18
 45
0.0
 46
0.0
 47
0.0
 48
0.0
140
0.18
141
0.09
142
0.0
143
25.399999999999999
144
1.0
145
0.0
146
1.0
147
0.09
 71
     0
 72
     0
 73
     1
 74
     1
 75
     0
 76
     0
 77
     0
 78
     0
170
     0
171
     2
172
     0
173
     0
174
     0
175
     0
176
     0
177
     0
178
     0
  0
DIMSTYLE
  2
BYGG-028980$0$STANDARD
 70
     0
  3

  4

  5

  6

  7

 40
1.0
 41
0.18
 42
0.0625
 43
0.38
 44
0.18
 45
0.0
 46
0.0
 47
0.0
 48
0.0
140
0.18
141
0.09
142
0.0
143
25.399999999999999
144
1.0
145
0.0
146
1.0
147
0.09
 71
     0
 72
     0
 73
     1
 74
     1
 75
     0
 76
     0
 77
     0
 78
     0
170
     0
171
     2
172
     0
173
     0
174
     0
175
     0
176
     0
177
     0
178
     0
  0
DIMSTYLE
  2
BYGG-028980$0$MASKIN
 70
     0
  3

  4

  5

  6

  7

 40
0.0
 41
3.0
 42
1.5
 43
10.0
 44
1.5
 45
0.0
 46
0.0
 47
0.0
 48
0.0
140
3.0
141
-5.0
142
0.0
143
25.399999999999999
144
-1.0
145
0.0
146
1.0
147
1.0
 71
     0
 72
     0
 73
     0
 74
     0
 75
     0
 76
     0
 77
     1
 78
     8
170
     0
171
     0
172
     1
173
     0
174
     0
175
     0
176
   256
177
   256
178
     2
  0
DIMSTYLE
  2
BYGG-020805$0$STANDARD
 70
     0
  3

  4

  5

  6

  7

 40
1.0
 41
0.18
 42
0.0625
 43
0.38
 44
0.18
 45
0.0
 46
0.0
 47
0.0
 48
0.0
140
0.18
141
0.09
142
0.0
143
25.399999999999999
144
1.0
145
0.0
146
1.0
147
0.09
 71
     0
 72
     0
 73
     1
 74
     1
 75
     0
 76
     0
 77
     0
 78
     0
170
     0
171
     2
172
     0
173
     0
174
     0
175
     0
176
     0
177
     0
178
     0
  0
DIMSTYLE
  2
BYGG-020805$0$MASKIN
 70
     0
  3

  4

  5

  6

  7

 40
0.0
 41
3.0
 42
1.5
 43
10.0
 44
1.5
 45
0.0
 46
0.0
 47
0.0
 48
0.0
140
3.0
141
-5.0
142
0.0
143
25.399999999999999
144
-1.0
145
0.0
146
1.0
147
1.0
 71
     0
 72
     0
 73
     0
 74
     0
 75
     0
 76
     0
 77
     1
 78
     8
170
     0
171
     0
172
     1
173
     0
174
     0
175
     0
176
   256
177
   256
178
     2
  0
DIMSTYLE
  2
BYGG-026410$0$STANDARD
 70
     0
  3

  4

  5

  6

  7

 40
1.0
 41
0.18
 42
0.0625
 43
0.38
 44
0.18
 45
0.0
 46
0.0
 47
0.0
 48
0.0
140
0.18
141
0.09
142
0.0
143
25.399999999999999
144
1.0
145
0.0
146
1.0
147
0.09
 71
     0
 72
     0
 73
     1
 74
     1
 75
     0
 76
     0
 77
     0
 78
     0
170
     0
171
     2
172
     0
173
     0
174
     0
175
     0
176
     0
177
     0
178
     0
  0
DIMSTYLE
  2
BYGG-026410$0$MASKIN
 70
     0
  3

  4

  5

  6

  7

 40
0.0
 41
3.0
 42
1.5
 43
10.0
 44
1.5
 45
0.0
 46
0.0
 47
0.0
 48
0.0
140
3.0
141
-5.0
142
0.0
143
25.399999999999999
144
-1.0
145
0.0
146
1.0
147
1.0
 71
     0
 72
     0
 73
     0
 74
     0
 75
     0
 76
     0
 77
     1
 78
     8
170
     0
171
     0
172
     1
173
     0
174
     0
175
     0
176
   256
177
   256
178
     2
  0
DIMSTYLE
  2
BYGG-033169$0$STANDARD
 70
     0
  3

  4

  5

  6

  7

 40
1.0
 41
0.18
 42
0.0625
 43
0.38
 44
0.18
 45
0.0
 46
0.0
 47
0.0
 48
0.0
140
0.18
141
0.09
142
0.0
143
25.399999999999999
144
1.0
145
0.0
146
1.0
147
0.09
 71
     0
 72
     0
 73
     1
 74
     1
 75
     0
 76
     0
 77
     0
 78
     0
170
     0
171
     2
172
     0
173
     0
174
     0
175
     0
176
     0
177
     0
178
     0
  0
DIMSTYLE
  2
BYGG-033169$0$MASKIN
 70
     0
  3

  4

  5

  6

  7

 40
0.0
 41
3.0
 42
1.5
 43
10.0
 44
1.5
 45
0.0
 46
0.0
 47
0.0
 48
0.0
140
3.0
141
-5.0
142
0.0
143
25.399999999999999
144
-1.0
145
0.0
146
1.0
147
1.0
 71
     0
 72
     0
 73
     0
 74
     0
 75
     0
 76
     0
 77
     1
 78
     8
170
     0
171
     0
172
     1
173
     0
174
     0
175
     0
176
   256
177
   256
178
     2
  0
DIMSTYLE
  2
BYGG-030185$0$STANDARD
 70
     0
  3

  4

  5

  6

  7

 40
1.0
 41
0.18
 42
0.0625
 43
0.38
 44
0.18
 45
0.0
 46
0.0
 47
0.0
 48
0.0
140
0.18
141
0.09
142
0.0
143
25.399999999999999
144
1.0
145
0.0
146
1.0
147
0.09
 71
     0
 72
     0
 73
     1
 74
     1
 75
     0
 76
     0
 77
     0
 78
     0
170
     0
171
     2
172
     0
173
     0
174
     0
175
     0
176
     0
177
     0
178
     0
  0
DIMSTYLE
  2
BYGG-030185$0$MASKIN
 70
     0
  3

  4

  5

  6

  7

 40
0.0
 41
3.0
 42
1.5
 43
10.0
 44
1.5
 45
0.0
 46
0.0
 47
0.0
 48
0.0
140
3.0
141
-5.0
142
0.0
143
25.399999999999999
144
-1.0
145
0.0
146
1.0
147
1.0
 71
     0
 72
     0
 73
     0
 74
     1
 75
     0
 76
     0
 77
     1
 78
     8
170
     0
171
     0
172
     1
173
     0
174
     0
175
     0
176
   256
177
   256
178
     2
  0
DIMSTYLE
  2
BYGG-024798$0$MASKIN
 70
     0
  3

  4

  5

  6

  7

 40
0.0
 41
3.0
 42
1.5
 43
10.0
 44
1.5
 45
0.0
 46
0.0
 47
0.0
 48
0.0
140
3.0
141
-5.0
142
0.0
143
25.399999999999999
144
-1.0
145
0.0
146
1.0
147
1.0
 71
     0
 72
     0
 73
     0
 74
     0
 75
     0
 76
     0
 77
     1
 78
     8
170
     0
171
     0
172
     1
173
     0
174
     0
175
     0
176
   256
177
   256
178
     2
  0
DIMSTYLE
  2
BYGG-024798$0$STANDARD
 70
     0
  3

  4

  5

  6

  7

 40
1.0
 41
0.18
 42
0.0625
 43
0.38
 44
0.18
 45
0.0
 46
0.0
 47
0.0
 48
0.0
140
0.18
141
0.09
142
0.0
143
25.399999999999999
144
1.0
145
0.0
146
1.0
147
0.09
 71
     0
 72
     0
 73
     1
 74
     1
 75
     0
 76
     0
 77
     0
 78
     0
170
     0
171
     2
172
     0
173
     0
174
     0
175
     0
176
     0
177
     0
178
     0
  0
DIMSTYLE
  2
BYGG-024799$0$MASKIN
 70
     0
  3

  4

  5

  6

  7

 40
0.0
 41
3.0
 42
1.5
 43
10.0
 44
1.5
 45
0.0
 46
0.0
 47
0.0
 48
0.0
140
3.0
141
-5.0
142
0.0
143
25.399999999999999
144
-1.0
145
0.0
146
1.0
147
1.0
 71
     0
 72
     0
 73
     0
 74
     0
 75
     0
 76
     0
 77
     1
 78
     8
170
     0
171
     0
172
     1
173
     0
174
     0
175
     0
176
   256
177
   256
178
     2
  0
DIMSTYLE
  2
BYGG-024799$0$STANDARD
 70
     0
  3

  4

  5

  6

  7

 40
1.0
 41
0.18
 42
0.0625
 43
0.38
 44
0.18
 45
0.0
 46
0.0
 47
0.0
 48
0.0
140
0.18
141
0.09
142
0.0
143
25.399999999999999
144
1.0
145
0.0
146
1.0
147
0.09
 71
     0
 72
     0
 73
     1
 74
     1
 75
     0
 76
     0
 77
     0
 78
     0
170
     0
171
     2
172
     0
173
     0
174
     0
175
     0
176
     0
177
     0
178
     0
  0
DIMSTYLE
  2
BYGG-014089$0$STANDARD
 70
     0
  3

  4

  5

  6

  7

 40
1.0
 41
0.18
 42
0.0625
 43
0.38
 44
0.18
 45
0.0
 46
0.0
 47
0.0
 48
0.0
140
0.18
141
0.09
142
0.0
143
25.399999999999999
144
1.0
145
0.0
146
1.0
147
0.09
 71
     0
 72
     0
 73
     1
 74
     1
 75
     0
 76
     0
 77
     0
 78
     0
170
     0
171
     2
172
     0
173
     0
174
     0
175
     0
176
     0
177
     0
178
     0
  0
DIMSTYLE
  2
BYGG-014108$0$STANDARD
 70
     0
  3

  4

  5

  6

  7

 40
1.0
 41
0.18
 42
0.0625
 43
0.38
 44
0.18
 45
0.0
 46
0.0
 47
0.0
 48
0.0
140
0.18
141
0.09
142
0.0
143
25.399999999999999
144
1.0
145
0.0
146
1.0
147
0.09
 71
     0
 72
     0
 73
     1
 74
     1
 75
     0
 76
     0
 77
     0
 78
     0
170
     0
171
     2
172
     0
173
     0
174
     0
175
     0
176
     0
177
     0
178
     0
  0
DIMSTYLE
  2
BYGG-019611$0$STANDARD
 70
     0
  3

  4

  5

  6

  7

 40
1.0
 41
0.18
 42
0.0625
 43
0.38
 44
0.18
 45
0.0
 46
0.0
 47
0.0
 48
0.0
140
0.18
141
0.09
142
0.0
143
25.399999999999999
144
1.0
145
0.0
146
1.0
147
0.09
 71
     0
 72
     0
 73
     1
 74
     1
 75
     0
 76
     0
 77
     0
 78
     0
170
     0
171
     2
172
     0
173
     0
174
     0
175
     0
176
     0
177
     0
178
     0
  0
DIMSTYLE
  2
BYGG-019611$0$MASKIN
 70
     0
  3

  4

  5

  6

  7

 40
0.0
 41
3.0
 42
1.5
 43
10.0
 44
1.5
 45
0.0
 46
0.0
 47
0.0
 48
0.0
140
3.0
141
-5.0
142
0.0
143
25.399999999999999
144
-1.0
145
0.0
146
1.0
147
1.0
 71
     0
 72
     0
 73
     0
 74
     0
 75
     0
 76
     0
 77
     1
 78
     8
170
     0
171
     0
172
     1
173
     0
174
     0
175
     0
176
   256
177
   256
178
     2
  0
DIMSTYLE
  2
BYGG-025652$0$STANDARD
 70
     0
  3

  4

  5

  6

  7

 40
1.0
 41
0.18
 42
0.0625
 43
0.38
 44
0.18
 45
0.0
 46
0.0
 47
0.0
 48
0.0
140
0.18
141
0.09
142
0.0
143
25.399999999999999
144
1.0
145
0.0
146
1.0
147
0.09
 71
     0
 72
     0
 73
     1
 74
     1
 75
     0
 76
     0
 77
     0
 78
     0
170
     0
171
     2
172
     0
173
     0
174
     0
175
     0
176
     0
177
     0
178
     0
  0
DIMSTYLE
  2
BYGG-025652$0$MASKIN
 70
     0
  3

  4

  5

  6

  7

 40
0.0
 41
3.0
 42
1.5
 43
10.0
 44
1.5
 45
0.0
 46
0.0
 47
0.0
 48
0.0
140
3.0
141
-5.0
142
0.0
143
25.399999999999999
144
-1.0
145
0.0
146
1.0
147
1.0
 71
     0
 72
     0
 73
     0
 74
     0
 75
     0
 76
     0
 77
     1
 78
     8
170
     0
171
     0
172
     1
173
     0
174
     0
175
     0
176
   256
177
   256
178
     2
  0
DIMSTYLE
  2
BYGG-014411$0$MASKIN
 70
     0
  3

  4

  5

  6

  7

 40
0.0
 41
3.0
 42
1.5
 43
10.0
 44
1.5
 45
0.0
 46
0.0
 47
0.0
 48
0.0
140
3.0
141
-5.0
142
0.0
143
25.399999999999999
144
-1.0
145
0.0
146
1.0
147
1.0
 71
     0
 72
     0
 73
     0
 74
     0
 75
     0
 76
     0
 77
     1
 78
     8
170
     0
171
     0
172
     1
173
     0
174
     0
175
     0
176
   256
177
   256
178
   256
  0
DIMSTYLE
  2
BYGG-014411$0$STANDARD
 70
     0
  3

  4

  5

  6

  7

 40
1.0
 41
0.18
 42
0.0625
 43
0.38
 44
0.18
 45
0.0
 46
0.0
 47
0.0
 48
0.0
140
0.18
141
0.09
142
0.0
143
25.399999999999999
144
1.0
145
0.0
146
1.0
147
0.09
 71
     0
 72
     0
 73
     1
 74
     1
 75
     0
 76
     0
 77
     0
 78
     0
170
     0
171
     2
172
     0
173
     0
174
     0
175
     0
176
     0
177
     0
178
     0
  0
ENDTAB
  0
ENDSEC
  0
SECTION
  2
BLOCKS
  0
BLOCK
  8
0
  2
$MODEL_SPACE
 70
     0
 10
0.0
 20
0.0
 30
0.0
  3
$MODEL_SPACE
  1

  0
ENDBLK
  5
37
  8
0
  0
BLOCK
 67
     1
  8
0
  2
$PAPER_SPACE
 70
     0
 10
0.0
 20
0.0
 30
0.0
  3
$PAPER_SPACE
  1

  0
ENDBLK
  5
35
 67
     1
  8
0
  0
BLOCK
  8
0
  2
*D81
 70
     1
 10
0.0
 20
0.0
 30
0.0
  3
*D81
  1

  0
LINE
  5
14C4
  8
SAPA_MATT
 10
-115.4999999990105
 20
-25.000000000000892
 30
0.0
 11
-135.99999999901041
 21
-25.000000000000892
 31
0.0
  0
LINE
  5
14C5
  8
SAPA_MATT
 10
-115.4999999990105
 20
24.999999999999108
 30
0.0
 11
-135.99999999901041
 21
24.999999999999119
 31
0.0
  0
LINE
  5
14C6
  8
SAPA_MATT
 10
-134.49999999901041
 20
-22.000000000000881
 30
0.0
 11
-134.49999999901041
 21
21.999999999999119
 31
0.0
  0
SOLID
  5
14C7
  8
SAPA_MATT
 10
-134.99999999901041
 20
-22.000000000000881
 30
0.0
 11
-133.99999999901041
 21
-22.000000000000881
 31
0.0
 12
-134.49999999901041
 22
-25.000000000000892
 32
0.0
 13
-134.49999999901041
 23
-25.000000000000892
 33
0.0
  0
SOLID
  5
14C8
  8
SAPA_MATT
 10
-134.99999999901041
 20
21.999999999999119
 30
0.0
 11
-133.99999999901041
 21
21.999999999999119
 31
0.0
 12
-134.49999999901041
 22
24.999999999999119
 32
0.0
 13
-134.49999999901041
 23
24.999999999999119
 33
0.0
  0
INSERT
  5
14C9
  8
0
  2
*U97
 10
0.0
 20
0.0
 30
0.0
  0
POINT
  5
14CA
  8
DEFPOINTS
 62
     0
 10
-113.9999999990105
 20
-25.000000000000892
 30
0.0
  0
POINT
  5
14CB
  8
DEFPOINTS
 62
     0
 10
-113.9999999990105
 20
24.999999999999108
 30
0.0
  0
POINT
  5
14CC
  8
DEFPOINTS
 62
     0
 10
-134.49999999901041
 20
24.999999999999119
 30
0.0
  0
ENDBLK
  5
1477
  8
0
  0
BLOCK
  8
0
  2
*D82
 70
     1
 10
0.0
 20
0.0
 30
0.0
  3
*D82
  1

  0
LINE
  5
14BB
  8
SAPA_MATT
 10
-91.498715170683099
 20
82.999999999943384
 30
0.0
 11
-135.99999999901041
 21
82.999999999943384
 31
0.0
  0
LINE
  5
14BC
  8
SAPA_MATT
 10
-115.4999999990104
 20
25.00000000009797
 30
0.0
 11
-135.99999999901041
 21
25.00000000009797
 31
0.0
  0
LINE
  5
14BD
  8
SAPA_MATT
 10
-134.49999999901041
 20
79.999999999943398
 30
0.0
 11
-134.49999999901041
 21
28.00000000009797
 31
0.0
  0
SOLID
  5
14BE
  8
SAPA_MATT
 10
-134.99999999901041
 20
79.999999999943398
 30
0.0
 11
-133.99999999901041
 21
79.999999999943398
 31
0.0
 12
-134.49999999901041
 22
82.999999999943384
 32
0.0
 13
-134.49999999901041
 23
82.999999999943384
 33
0.0
  0
SOLID
  5
14BF
  8
SAPA_MATT
 10
-134.99999999901041
 20
28.00000000009797
 30
0.0
 11
-133.99999999901041
 21
28.00000000009797
 31
0.0
 12
-134.49999999901041
 22
25.00000000009797
 32
0.0
 13
-134.49999999901041
 23
25.00000000009797
 33
0.0
  0
INSERT
  5
14C0
  8
0
  2
*U96
 10
0.0
 20
0.0
 30
0.0
  0
POINT
  5
14C1
  8
DEFPOINTS
 62
     0
 10
-89.998715170683127
 20
82.999999999943384
 30
0.0
  0
POINT
  5
14C2
  8
DEFPOINTS
 62
     0
 10
-113.9999999990104
 20
25.00000000009797
 30
0.0
  0
POINT
  5
14C3
  8
DEFPOINTS
 62
     0
 10
-134.49999999901041
 20
25.00000000009797
 30
0.0
  0
ENDBLK
  5
1483
  8
0
  0
BLOCK
  8
0
  2
*D83
 70
     1
 10
0.0
 20
0.0
 30
0.0
  3
*D83
  1

  0
LINE
  5
14B0
  8
SAPA_MATT
 10
-91.498715170683099
 20
82.999999999943384
 30
0.0
 11
-135.99999999901041
 21
82.999999999943384
 31
0.0
  0
LINE
  5
14B1
  8
SAPA_MATT
 10
-91.498715301570044
 20
87.999999702178243
 30
0.0
 11
-135.99999999901041
 21
87.999999702178272
 31
0.0
  0
LINE
  5
14B2
  8
SAPA_MATT
 10
-134.49999999901041
 20
79.999999999943398
 30
0.0
 11
-134.49999999901041
 21
76.999999999943384
 31
0.0
  0
LINE
  5
14B3
  8
SAPA_MATT
 10
-134.49999999901041
 20
90.999999702178286
 30
0.0
 11
-134.49999999901041
 21
93.999999702178272
 31
0.0
  0
LINE
  5
14B4
  8
SAPA_MATT
 10
-134.49999999901041
 20
82.999999999943384
 30
0.0
 11
-134.49999999901041
 21
87.999999702178272
 31
0.0
  0
SOLID
  5
14B5
  8
SAPA_MATT
 10
-134.99999999901041
 20
79.999999999943398
 30
0.0
 11
-133.99999999901041
 21
79.999999999943398
 31
0.0
 12
-134.49999999901041
 22
82.999999999943384
 32
0.0
 13
-134.49999999901041
 23
82.999999999943384
 33
0.0
  0
SOLID
  5
14B6
  8
SAPA_MATT
 10
-134.99999999901041
 20
90.999999702178286
 30
0.0
 11
-133.99999999901041
 21
90.999999702178286
 31
0.0
 12
-134.49999999901041
 22
87.999999702178272
 32
0.0
 13
-134.49999999901041
 23
87.999999702178272
 33
0.0
  0
INSERT
  5
14B7
  8
0
  2
*U95
 10
0.0
 20
0.0
 30
0.0
  0
POINT
  5
14B8
  8
DEFPOINTS
 62
     0
 10
-89.998715170683127
 20
82.999999999943384
 30
0.0
  0
POINT
  5
14B9
  8
DEFPOINTS
 62
     0
 10
-89.998715301570059
 20
87.999999702178243
 30
0.0
  0
POINT
  5
14BA
  8
DEFPOINTS
 62
     0
 10
-134.49999999901041
 20
87.999999702178272
 30
0.0
  0
ENDBLK
  5
148F
  8
0
  0
BLOCK
  8
0
  2
*D84
 70
     1
 10
0.0
 20
0.0
 30
0.0
  3
*D84
  1

  0
LINE
  5
14A7
  8
SAPA_MATT
 10
-90.998715301570059
 20
87.999999702178243
 30
0.0
 11
-135.99999999901041
 21
87.999999702178272
 31
0.0
  0
LINE
  5
14A8
  8
SAPA_MATT
 10
-89.000000006768289
 20
125.4999997021783
 30
0.0
 11
-135.99999999901041
 21
125.4999997021783
 31
0.0
  0
LINE
  5
14A9
  8
SAPA_MATT
 10
-134.49999999901041
 20
90.999999702178286
 30
0.0
 11
-134.49999999901041
 21
122.4999997021783
 31
0.0
  0
SOLID
  5
14AA
  8
SAPA_MATT
 10
-134.99999999901041
 20
90.999999702178286
 30
0.0
 11
-133.99999999901041
 21
90.999999702178286
 31
0.0
 12
-134.49999999901041
 22
87.999999702178272
 32
0.0
 13
-134.49999999901041
 23
87.999999702178272
 33
0.0
  0
SOLID
  5
14AB
  8
SAPA_MATT
 10
-134.99999999901041
 20
122.4999997021783
 30
0.0
 11
-133.99999999901041
 21
122.4999997021783
 31
0.0
 12
-134.49999999901041
 22
125.4999997021783
 32
0.0
 13
-134.49999999901041
 23
125.4999997021783
 33
0.0
  0
INSERT
  5
14AC
  8
0
  2
*U94
 10
0.0
 20
0.0
 30
0.0
  0
POINT
  5
14AD
  8
DEFPOINTS
 62
     0
 10
-89.498715301570059
 20
87.999999702178243
 30
0.0
  0
POINT
  5
14AE
  8
DEFPOINTS
 62
     0
 10
-87.500000006768289
 20
125.4999997021783
 30
0.0
  0
POINT
  5
14AF
  8
DEFPOINTS
 62
     0
 10
-134.49999999901041
 20
125.4999997021783
 30
0.0
  0
ENDBLK
  5
149D
  8
0
  0
BLOCK
  8
0
  2
*U85
 70
     1
 10
0.0
 20
0.0
 30
0.0
  3
*U85
  1

  0
TEXT
  5
1537
  8
SAPA_ARTIKELNR
 10
69.891053227683301
 20
-4.9441555408342204
 30
0.0
 40
3.5
  1
68654
 50
90.0
  7
ISO
  0
ENDBLK
  5
1539
  8
0
  0
BLOCK
  8
0
  2
*U86
 70
     1
 10
0.0
 20
0.0
 30
0.0
  3
*U86
  1

  0
TEXT
  5
153B
  8
SAPA_ARTIKELNR
 10
-100.5398036276098
 20
-4.9441555408341893
 30
0.0
 40
3.5
  1
42848
 50
90.0
  7
ISO
  0
ENDBLK
  5
153D
  8
0
  0
BLOCK
  8
0
  2
*U87
 70
     1
 10
0.0
 20
0.0
 30
0.0
  3
*U87
  1

  0
TEXT
  5
153F
  8
SAPA_ARTIKELNR
 10
-116.21987418198189
 20
-4.9441555408341857
 30
0.0
 40
3.5
  1
42227
 50
90.0
  7
ISO
  0
ENDBLK
  5
1541
  8
0
  0
BLOCK
  8
0
  2
*U88
 70
     1
 10
0.0
 20
0.0
 30
0.0
  3
*U88
  1

  0
TEXT
  5
1543
  8
SAPA_ARTIKELNR
 10
0.8944246613506265
 20
39.960029680513159
 30
0.0
 40
3.5
  1
86201
 50
90.0
  7
ISO
  0
ENDBLK
  5
1545
  8
0
  0
BLOCK
  8
0
  2
*U89
 70
     1
 10
0.0
 20
0.0
 30
0.0
  3
*U89
  1

  0
TEXT
  5
1547
  8
SAPA_ARTIKELNR
 10
10.64740905660102
 20
75.483577850529684
 30
0.0
 40
3.5
  1
86302
 50
90.0
  7
ISO
  0
ENDBLK
  5
1549
  8
0
  0
BLOCK
  8
0
  2
*U90
 70
     1
 10
0.0
 20
0.0
 30
0.0
  3
*U90
  1

  0
SOLID
  5
233D
  8
SAPA_FOGBAND
  6
CONTINUOUS
 10
-92.637568222720574
 20
18.869611682349479
 30
0.0
 11
-92.817845786493777
 21
18.794938270443041
 31
0.0
 12
-92.457290658947372
 22
18.794938270443041
 32
0.0
 13
-92.457290658947372
 23
18.794938270443041
 33
0.0
210
0.0
220
0.0
230
1.0
  0
SOLID
  5
233E
  8
SAPA_FOGBAND
  6
CONTINUOUS
 10
-92.817845786493777
 20
18.794938270443041
 30
0.0
 11
-92.892519198400208
 21
18.614660706669842
 31
0.0
 12
-92.382617247040926
 22
18.614660706669842
 32
0.0
 13
-92.382617247040926
 23
18.614660706669842
 33
0.0
210
0.0
220
0.0
230
1.0
  0
SOLID
  5
233F
  8
SAPA_FOGBAND
  6
CONTINUOUS
 10
92.817845786493777
 20
18.794938270443041
 30
0.0
 11
92.457290658947372
 21
18.794938270443041
 31
0.0
 12
92.382617247040926
 22
18.614660706669842
 32
0.0
 13
92.382617247040926
 23
18.614660706669842
 33
0.0
210
0.0
220
0.0
230
-1.0
  0
SOLID
  5
2340
  8
SAPA_FOGBAND
  6
CONTINUOUS
 10
92.817845786493777
 20
18.434383142896639
 30
0.0
 11
92.457290658947372
 21
18.434383142896639
 31
0.0
 12
92.637568222720574
 22
18.35970973099019
 32
0.0
 13
92.637568222720574
 23
18.35970973099019
 33
0.0
210
0.0
220
0.0
230
-1.0
  0
SOLID
  5
2341
  8
SAPA_FOGBAND
  6
CONTINUOUS
 10
-92.892519198400208
 20
18.614660706669842
 30
0.0
 11
-92.817845786493777
 21
18.434383142896639
 31
0.0
 12
-92.457290658947372
 22
18.434383142896639
 32
0.0
 13
-92.457290658947372
 23
18.434383142896639
 33
0.0
210
0.0
220
0.0
230
1.0
  0
SOLID
  5
2342
  8
SAPA_FOGBAND
  6
CONTINUOUS
 10
92.892519198400208
 20
18.614660706669842
 30
0.0
 11
92.382617247040926
 21
18.614660706669842
 31
0.0
 12
92.457290658947372
 22
18.434383142896639
 32
0.0
 13
92.457290658947372
 23
18.434383142896639
 33
0.0
210
0.0
220
0.0
230
-1.0
  0
LINE
  5
2343
  8
SAPA_FOGBAND
  6
CONTINUOUS
 10
-92.637568222720574
 20
18.869611682349479
 30
0.0
 11
-92.817845786493777
 21
18.794938270443041
 31
0.0
  0
LINE
  5
2344
  8
SAPA_FOGBAND
  6
CONTINUOUS
 10
-92.457290658947372
 20
18.794938270443041
 30
0.0
 11
-92.637568222720574
 21
18.869611682349479
 31
0.0
  0
LINE
  5
2345
  8
SAPA_FOGBAND
  6
CONTINUOUS
 10
-92.817845786493777
 20
18.794938270443041
 30
0.0
 11
-92.892519198400208
 21
18.614660706669842
 31
0.0
  0
LINE
  5
2346
  8
SAPA_FOGBAND
  6
CONTINUOUS
 10
-92.457290658947372
 20
18.794938270443041
 30
0.0
 11
-92.382617247040926
 21
18.614660706669842
 31
0.0
  0
LINE
  5
2347
  8
SAPA_FOGBAND
  6
CONTINUOUS
 10
-92.457290658947372
 20
18.434383142896639
 30
0.0
 11
-92.637568222720574
 21
18.35970973099019
 31
0.0
  0
LINE
  5
2348
  8
SAPA_FOGBAND
  6
CONTINUOUS
 10
-92.637568222720574
 20
18.35970973099019
 30
0.0
 11
-92.817845786493777
 21
18.434383142896639
 31
0.0
  0
LINE
  5
2349
  8
SAPA_FOGBAND
  6
CONTINUOUS
 10
-92.892519198400208
 20
18.614660706669842
 30
0.0
 11
-92.817845786493777
 21
18.434383142896639
 31
0.0
  0
LINE
  5
234A
  8
SAPA_FOGBAND
  6
CONTINUOUS
 10
-92.382617247040926
 20
18.614660706669842
 30
0.0
 11
-92.457290658947372
 21
18.434383142896639
 31
0.0
  0
ENDBLK
  5
234C
  8
0
  0
BLOCK
  8
0
  2
*U91
 70
     1
 10
0.0
 20
0.0
 30
0.0
  3
*U91
  1

  0
SOLID
  5
23F5
  8
SAPA_FOGBAND
  6
CONTINUOUS
 10
-93.028466855359909
 20
-18.37440581993463
 30
0.0
 11
-93.208744419133112
 21
-18.449079231841068
 31
0.0
 12
-92.848189291586706
 22
-18.449079231841068
 32
0.0
 13
-92.848189291586706
 23
-18.449079231841068
 33
0.0
210
0.0
220
0.0
230
1.0
  0
SOLID
  5
23F6
  8
SAPA_FOGBAND
  6
CONTINUOUS
 10
-93.208744419133112
 20
-18.449079231841068
 30
0.0
 11
-93.283417831039543
 21
-18.629356795614271
 31
0.0
 12
-92.773515879680275
 22
-18.629356795614271
 32
0.0
 13
-92.773515879680275
 23
-18.629356795614271
 33
0.0
210
0.0
220
0.0
230
1.0
  0
SOLID
  5
23F7
  8
SAPA_FOGBAND
  6
CONTINUOUS
 10
93.208744419133112
 20
-18.449079231841068
 30
0.0
 11
92.848189291586706
 21
-18.449079231841068
 31
0.0
 12
92.773515879680275
 22
-18.629356795614271
 32
0.0
 13
92.773515879680275
 23
-18.629356795614271
 33
0.0
210
0.0
220
0.0
230
-1.0
  0
SOLID
  5
23F8
  8
SAPA_FOGBAND
  6
CONTINUOUS
 10
93.208744419133112
 20
-18.80963435938747
 30
0.0
 11
92.848189291586706
 21
-18.80963435938747
 31
0.0
 12
93.028466855359909
 22
-18.884307771293908
 32
0.0
 13
93.028466855359909
 23
-18.884307771293908
 33
0.0
210
0.0
220
0.0
230
-1.0
  0
SOLID
  5
23F9
  8
SAPA_FOGBAND
  6
CONTINUOUS
 10
-93.283417831039543
 20
-18.629356795614271
 30
0.0
 11
-93.208744419133112
 21
-18.80963435938747
 31
0.0
 12
-92.848189291586706
 22
-18.80963435938747
 32
0.0
 13
-92.848189291586706
 23
-18.80963435938747
 33
0.0
210
0.0
220
0.0
230
1.0
  0
SOLID
  5
23FA
  8
SAPA_FOGBAND
  6
CONTINUOUS
 10
93.283417831039543
 20
-18.629356795614271
 30
0.0
 11
92.773515879680275
 21
-18.629356795614271
 31
0.0
 12
92.848189291586706
 22
-18.80963435938747
 32
0.0
 13
92.848189291586706
 23
-18.80963435938747
 33
0.0
210
0.0
220
0.0
230
-1.0
  0
LINE
  5
23FB
  8
SAPA_FOGBAND
  6
CONTINUOUS
 10
-93.028466855359909
 20
-18.37440581993463
 30
0.0
 11
-93.208744419133112
 21
-18.449079231841068
 31
0.0
  0
LINE
  5
23FC
  8
SAPA_FOGBAND
  6
CONTINUOUS
 10
-92.848189291586706
 20
-18.449079231841068
 30
0.0
 11
-93.028466855359909
 21
-18.37440581993463
 31
0.0
  0
LINE
  5
23FD
  8
SAPA_FOGBAND
  6
CONTINUOUS
 10
-93.208744419133112
 20
-18.449079231841068
 30
0.0
 11
-93.283417831039543
 21
-18.629356795614271
 31
0.0
  0
LINE
  5
23FE
  8
SAPA_FOGBAND
  6
CONTINUOUS
 10
-92.848189291586706
 20
-18.449079231841068
 30
0.0
 11
-92.773515879680275
 21
-18.629356795614271
 31
0.0
  0
LINE
  5
23FF
  8
SAPA_FOGBAND
  6
CONTINUOUS
 10
-92.848189291586706
 20
-18.80963435938747
 30
0.0
 11
-93.028466855359909
 21
-18.884307771293908
 31
0.0
  0
LINE
  5
2400
  8
SAPA_FOGBAND
  6
CONTINUOUS
 10
-93.028466855359909
 20
-18.884307771293908
 30
0.0
 11
-93.208744419133112
 21
-18.80963435938747
 31
0.0
  0
LINE
  5
2401
  8
SAPA_FOGBAND
  6
CONTINUOUS
 10
-93.283417831039543
 20
-18.629356795614271
 30
0.0
 11
-93.208744419133112
 21
-18.80963435938747
 31
0.0
  0
LINE
  5
2402
  8
SAPA_FOGBAND
  6
CONTINUOUS
 10
-92.773515879680275
 20
-18.629356795614271
 30
0.0
 11
-92.848189291586706
 21
-18.80963435938747
 31
0.0
  0
ENDBLK
  5
2404
  8
0
  0
BLOCK
  8
0
  2
*U92
 70
     1
 10
0.0
 20
0.0
 30
0.0
  3
*U92
  1

  0
SOLID
  5
253E
  8
SAPA_FOGBAND
  6
CONTINUOUS
 10
-92.637568222720574
 20
18.869611682349479
 30
0.0
 11
-92.817845786493777
 21
18.794938270443041
 31
0.0
 12
-92.457290658947372
 22
18.794938270443041
 32
0.0
 13
-92.457290658947372
 23
18.794938270443041
 33
0.0
210
0.0
220
0.0
230
1.0
  0
SOLID
  5
253F
  8
SAPA_FOGBAND
  6
CONTINUOUS
 10
-92.817845786493777
 20
18.794938270443041
 30
0.0
 11
-92.892519198400208
 21
18.614660706669842
 31
0.0
 12
-92.382617247040926
 22
18.614660706669842
 32
0.0
 13
-92.382617247040926
 23
18.614660706669842
 33
0.0
210
0.0
220
0.0
230
1.0
  0
SOLID
  5
2540
  8
SAPA_FOGBAND
  6
CONTINUOUS
 10
92.817845786493777
 20
18.794938270443041
 30
0.0
 11
92.457290658947372
 21
18.794938270443041
 31
0.0
 12
92.382617247040926
 22
18.614660706669842
 32
0.0
 13
92.382617247040926
 23
18.614660706669842
 33
0.0
210
0.0
220
0.0
230
-1.0
  0
SOLID
  5
2541
  8
SAPA_FOGBAND
  6
CONTINUOUS
 10
92.817845786493777
 20
18.434383142896639
 30
0.0
 11
92.457290658947372
 21
18.434383142896639
 31
0.0
 12
92.637568222720574
 22
18.35970973099019
 32
0.0
 13
92.637568222720574
 23
18.35970973099019
 33
0.0
210
0.0
220
0.0
230
-1.0
  0
SOLID
  5
2542
  8
SAPA_FOGBAND
  6
CONTINUOUS
 10
-92.892519198400208
 20
18.614660706669842
 30
0.0
 11
-92.817845786493777
 21
18.434383142896639
 31
0.0
 12
-92.457290658947372
 22
18.434383142896639
 32
0.0
 13
-92.457290658947372
 23
18.434383142896639
 33
0.0
210
0.0
220
0.0
230
1.0
  0
SOLID
  5
2543
  8
SAPA_FOGBAND
  6
CONTINUOUS
 10
92.892519198400208
 20
18.614660706669842
 30
0.0
 11
92.382617247040926
 21
18.614660706669842
 31
0.0
 12
92.457290658947372
 22
18.434383142896639
 32
0.0
 13
92.457290658947372
 23
18.434383142896639
 33
0.0
210
0.0
220
0.0
230
-1.0
  0
LINE
  5
2544
  8
SAPA_FOGBAND
  6
CONTINUOUS
 10
-92.637568222720574
 20
18.869611682349479
 30
0.0
 11
-92.817845786493777
 21
18.794938270443041
 31
0.0
  0
LINE
  5
2545
  8
SAPA_FOGBAND
  6
CONTINUOUS
 10
-92.457290658947372
 20
18.794938270443041
 30
0.0
 11
-92.637568222720574
 21
18.869611682349479
 31
0.0
  0
LINE
  5
2546
  8
SAPA_FOGBAND
  6
CONTINUOUS
 10
-92.817845786493777
 20
18.794938270443041
 30
0.0
 11
-92.892519198400208
 21
18.614660706669842
 31
0.0
  0
LINE
  5
2547
  8
SAPA_FOGBAND
  6
CONTINUOUS
 10
-92.457290658947372
 20
18.794938270443041
 30
0.0
 11
-92.382617247040926
 21
18.614660706669842
 31
0.0
  0
LINE
  5
2548
  8
SAPA_FOGBAND
  6
CONTINUOUS
 10
-92.457290658947372
 20
18.434383142896639
 30
0.0
 11
-92.637568222720574
 21
18.35970973099019
 31
0.0
  0
LINE
  5
2549
  8
SAPA_FOGBAND
  6
CONTINUOUS
 10
-92.637568222720574
 20
18.35970973099019
 30
0.0
 11
-92.817845786493777
 21
18.434383142896639
 31
0.0
  0
LINE
  5
254A
  8
SAPA_FOGBAND
  6
CONTINUOUS
 10
-92.892519198400208
 20
18.614660706669842
 30
0.0
 11
-92.817845786493777
 21
18.434383142896639
 31
0.0
  0
LINE
  5
254B
  8
SAPA_FOGBAND
  6
CONTINUOUS
 10
-92.382617247040926
 20
18.614660706669842
 30
0.0
 11
-92.457290658947372
 21
18.434383142896639
 31
0.0
  0
ENDBLK
  5
254D
  8
0
  0
BLOCK
  8
0
  2
*U93
 70
     1
 10
0.0
 20
0.0
 30
0.0
  3
*U93
  1

  0
SOLID
  5
25F6
  8
SAPA_FOGBAND
  6
CONTINUOUS
 10
-93.028466855359909
 20
-18.37440581993463
 30
0.0
 11
-93.208744419133112
 21
-18.449079231841068
 31
0.0
 12
-92.848189291586706
 22
-18.449079231841068
 32
0.0
 13
-92.848189291586706
 23
-18.449079231841068
 33
0.0
210
0.0
220
0.0
230
1.0
  0
SOLID
  5
25F7
  8
SAPA_FOGBAND
  6
CONTINUOUS
 10
-93.208744419133112
 20
-18.449079231841068
 30
0.0
 11
-93.283417831039543
 21
-18.629356795614271
 31
0.0
 12
-92.773515879680275
 22
-18.629356795614271
 32
0.0
 13
-92.773515879680275
 23
-18.629356795614271
 33
0.0
210
0.0
220
0.0
230
1.0
  0
SOLID
  5
25F8
  8
SAPA_FOGBAND
  6
CONTINUOUS
 10
93.208744419133112
 20
-18.449079231841068
 30
0.0
 11
92.848189291586706
 21
-18.449079231841068
 31
0.0
 12
92.773515879680275
 22
-18.629356795614271
 32
0.0
 13
92.773515879680275
 23
-18.629356795614271
 33
0.0
210
0.0
220
0.0
230
-1.0
  0
SOLID
  5
25F9
  8
SAPA_FOGBAND
  6
CONTINUOUS
 10
93.208744419133112
 20
-18.80963435938747
 30
0.0
 11
92.848189291586706
 21
-18.80963435938747
 31
0.0
 12
93.028466855359909
 22
-18.884307771293908
 32
0.0
 13
93.028466855359909
 23
-18.884307771293908
 33
0.0
210
0.0
220
0.0
230
-1.0
  0
SOLID
  5
25FA
  8
SAPA_FOGBAND
  6
CONTINUOUS
 10
-93.283417831039543
 20
-18.629356795614271
 30
0.0
 11
-93.208744419133112
 21
-18.80963435938747
 31
0.0
 12
-92.848189291586706
 22
-18.80963435938747
 32
0.0
 13
-92.848189291586706
 23
-18.80963435938747
 33
0.0
210
0.0
220
0.0
230
1.0
  0
SOLID
  5
25FB
  8
SAPA_FOGBAND
  6
CONTINUOUS
 10
93.283417831039543
 20
-18.629356795614271
 30
0.0
 11
92.773515879680275
 21
-18.629356795614271
 31
0.0
 12
92.848189291586706
 22
-18.80963435938747
 32
0.0
 13
92.848189291586706
 23
-18.80963435938747
 33
0.0
210
0.0
220
0.0
230
-1.0
  0
LINE
  5
25FC
  8
SAPA_FOGBAND
  6
CONTINUOUS
 10
-93.028466855359909
 20
-18.37440581993463
 30
0.0
 11
-93.208744419133112
 21
-18.449079231841068
 31
0.0
  0
LINE
  5
25FD
  8
SAPA_FOGBAND
  6
CONTINUOUS
 10
-92.848189291586706
 20
-18.449079231841068
 30
0.0
 11
-93.028466855359909
 21
-18.37440581993463
 31
0.0
  0
LINE
  5
25FE
  8
SAPA_FOGBAND
  6
CONTINUOUS
 10
-93.208744419133112
 20
-18.449079231841068
 30
0.0
 11
-93.283417831039543
 21
-18.629356795614271
 31
0.0
  0
LINE
  5
25FF
  8
SAPA_FOGBAND
  6
CONTINUOUS
 10
-92.848189291586706
 20
-18.449079231841068
 30
0.0
 11
-92.773515879680275
 21
-18.629356795614271
 31
0.0
  0
LINE
  5
2600
  8
SAPA_FOGBAND
  6
CONTINUOUS
 10
-92.848189291586706
 20
-18.80963435938747
 30
0.0
 11
-93.028466855359909
 21
-18.884307771293908
 31
0.0
  0
LINE
  5
2601
  8
SAPA_FOGBAND
  6
CONTINUOUS
 10
-93.028466855359909
 20
-18.884307771293908
 30
0.0
 11
-93.208744419133112
 21
-18.80963435938747
 31
0.0
  0
LINE
  5
2602
  8
SAPA_FOGBAND
  6
CONTINUOUS
 10
-93.283417831039543
 20
-18.629356795614271
 30
0.0
 11
-93.208744419133112
 21
-18.80963435938747
 31
0.0
  0
LINE
  5
2603
  8
SAPA_FOGBAND
  6
CONTINUOUS
 10
-92.773515879680275
 20
-18.629356795614271
 30
0.0
 11
-92.848189291586706
 21
-18.80963435938747
 31
0.0
  0
ENDBLK
  5
2605
  8
0
  0
BLOCK
  8
0
  2
*U94
 70
     1
 10
0.0
 20
0.0
 30
0.0
  3
*U94
  1

  0
TEXT
  5
26C6
  8
SAPA_MATT
 62
     2
 10
-135.4999999990105
 20
102.5499997021783
 30
0.0
 40
3.5
  1
37.5
 50
90.0
  7
ISO
  0
ENDBLK
  5
26C8
  8
0
  0
BLOCK
  8
0
  2
*U95
 70
     1
 10
0.0
 20
0.0
 30
0.0
  3
*U95
  1

  0
TEXT
  5
26CA
  8
SAPA_MATT
 62
     2
 10
-135.4999999990105
 20
84.274999851060826
 30
0.0
 40
3.5
  1
5
 50
90.0
  7
ISO
  0
ENDBLK
  5
26CC
  8
0
  0
BLOCK
  8
0
  2
*U96
 70
     1
 10
0.0
 20
0.0
 30
0.0
  3
*U96
  1

  0
TEXT
  5
26CE
  8
SAPA_MATT
 62
     2
 10
-135.49999999901041
 20
51.55000000002066
 30
0.0
 40
3.5
  1
58
 50
90.0
  7
ISO
  0
ENDBLK
  5
26D0
  8
0
  0
BLOCK
  8
0
  2
*U97
 70
     1
 10
0.0
 20
0.0
 30
0.0
  3
*U97
  1

  0
TEXT
  5
26D2
  8
SAPA_MATT
 62
     2
 10
-135.4999999990105
 20
-2.4500000000009039
 30
0.0
 40
3.5
  1
50
 50
90.0
  7
ISO
  0
ENDBLK
  5
26D4
  8
0
  0
ENDSEC
  0
SECTION
  2
ENTITIES
  0
POLYLINE
  5
7C4
  8
SAPA_LIGHT
 66
     1
 10
0.0
 20
0.0
 30
0.0
  0
VERTEX
  5
14FE
  8
SAPA_LIGHT
 10
-48.499999999010129
 20
-40.999999999996128
 30
0.0
  0
VERTEX
  5
14FF
  8
SAPA_LIGHT
 10
-48.499999999010129
 20
-10.99999999999612
 30
0.0
  0
VERTEX
  5
1500
  8
SAPA_LIGHT
 10
-90.499999999011735
 20
-10.99999999999589
 30
0.0
  0
VERTEX
  5
1501
  8
SAPA_LIGHT
 10
-90.499999999011735
 20
-40.999999999995893
 30
0.0
  0
SEQEND
  5
1502
  8
SAPA_LIGHT
  0
POLYLINE
  5
7C5
  8
SAPA_LIGHT
 66
     1
 10
0.0
 20
0.0
 30
0.0
 70
     1
  0
VERTEX
  5
1503
  8
SAPA_LIGHT
 10
-48.499999999010129
 20
-24.999999999999819
 30
0.0
  0
VERTEX
  5
1504
  8
SAPA_LIGHT
 10
64.499999999998863
 20
-25.000000000000242
 30
0.0
  0
VERTEX
  5
1505
  8
SAPA_LIGHT
 10
64.499999999998863
 20
24.999999999999758
 30
0.0
  0
VERTEX
  5
1506
  8
SAPA_LIGHT
 10
-48.499999999018193
 20
24.999999999999218
 30
0.0
  0
VERTEX
  5
1507
  8
SAPA_LIGHT
 10
-48.499999999002277
 20
4.9999999999997806
 30
0.0
  0
VERTEX
  5
1508
  8
SAPA_LIGHT
 10
-90.499999999011777
 20
4.9999999999996181
 30
0.0
  0
VERTEX
  5
1509
  8
SAPA_LIGHT
 10
-90.499999999208171
 20
24.999999999836771
 30
0.0
  0
VERTEX
  5
150A
  8
SAPA_LIGHT
 10
-114.4999999990105
 20
24.999999999999108
 30
0.0
  0
VERTEX
  5
150B
  8
SAPA_LIGHT
 10
-114.4999999990105
 20
-25.000000000000892
 30
0.0
  0
VERTEX
  5
150C
  8
SAPA_LIGHT
 10
-90.499999999011735
 20
-24.999999999999979
 30
0.0
  0
VERTEX
  5
150D
  8
SAPA_LIGHT
 10
-90.499999999011735
 20
-5.000000000000437
 30
0.0
  0
VERTEX
  5
150E
  8
SAPA_LIGHT
 10
-48.499999999010129
 20
-5.0000000000002176
 30
0.0
  0
SEQEND
  5
150F
  8
SAPA_LIGHT
  0
POLYLINE
  5
7C6
  8
SAPA_LIGHT
 66
     1
 10
0.0
 20
0.0
 30
0.0
  0
VERTEX
  5
1510
  8
SAPA_LIGHT
 10
-90.500000003728061
 20
74.49999999996659
 30
0.0
  0
VERTEX
  5
1511
  8
SAPA_LIGHT
 10
-90.500000002721535
 20
11.862517060944031
 30
0.0
  0
VERTEX
  5
1512
  8
SAPA_LIGHT
 10
-48.494512004128808
 20
11.86251706094402
 30
0.0
  0
VERTEX
  5
1513
  8
SAPA_LIGHT
 10
-48.50548799389167
 20
30.199999999999601
 30
0.0
  0
VERTEX
  5
1514
  8
SAPA_LIGHT
 10
-19.388616438581089
 20
29.99999999999898
 30
0.0
  0
VERTEX
  5
1515
  8
SAPA_LIGHT
 10
-16.500000006903111
 20
29.968745704598639
 30
0.0
  0
VERTEX
  5
1516
  8
SAPA_LIGHT
 10
-16.500000006903111
 20
52.499999999998863
 30
0.0
  0
VERTEX
  5
1517
  8
SAPA_LIGHT
 10
-85.050000007505091
 20
52.499999999998757
 30
0.0
  0
VERTEX
  5
1518
  8
SAPA_LIGHT
 10
-85.050000007505091
 20
74.500000000177593
 30
0.0
  0
VERTEX
  5
1519
  8
SAPA_LIGHT
 10
-90.500000003728061
 20
74.500000000103924
 30
0.0
  0
SEQEND
  5
151A
  8
SAPA_LIGHT
  0
POLYLINE
  5
7C8
  8
SAPA_LIGHT
 66
     1
 10
0.0
 20
0.0
 30
0.0
  0
VERTEX
  5
151B
  8
SAPA_LIGHT
 10
-39.550000085492428
 20
135.5000000030644
 30
0.0
  0
VERTEX
  5
151C
  8
SAPA_LIGHT
 10
-39.550000085492442
 20
105.5000000030644
 30
0.0
  0
VERTEX
  5
151D
  8
SAPA_LIGHT
 10
-81.550000085463907
 20
105.500000003064
 30
0.0
  0
VERTEX
  5
151E
  8
SAPA_LIGHT
 10
-81.550000085463893
 20
135.500000003064
 30
0.0
  0
SEQEND
  5
151F
  8
SAPA_LIGHT
  0
POLYLINE
  5
7E8
  8
SAPA_LIGHT
 66
     1
 10
0.0
 20
0.0
 30
0.0
 70
     1
  0
VERTEX
  5
1520
  8
SAPA_LIGHT
 10
-16.767949203567731
 20
100.5000000030642
 30
0.0
  0
VERTEX
  5
1521
  8
SAPA_LIGHT
 10
-18.00000000579341
 20
100.5000000030642
 30
0.0
  0
VERTEX
  5
1522
  8
SAPA_LIGHT
 10
-18.0000000057934
 20
122.5000000030779
 30
0.0
  0
VERTEX
  5
1523
  8
SAPA_LIGHT
 10
-39.550000085494602
 20
122.5000000030779
 30
0.0
  0
VERTEX
  5
1524
  8
SAPA_LIGHT
 10
-39.550000085494602
 20
100.1948776362608
 30
0.0
  0
VERTEX
  5
1525
  8
SAPA_LIGHT
 10
-81.550000085463907
 20
100.1948776362608
 30
0.0
  0
VERTEX
  5
1526
  8
SAPA_LIGHT
 10
-81.550000085463935
 20
122.5000000032434
 30
0.0
  0
VERTEX
  5
1527
  8
SAPA_LIGHT
 10
-90.500000007534226
 20
122.5000000030314
 30
0.0
  0
VERTEX
  5
1528
  8
SAPA_LIGHT
 10
-90.500000007521606
 20
79.499999999967386
 30
0.0
  0
VERTEX
  5
1529
  8
SAPA_LIGHT
 10
-85.050000007505034
 20
79.499999999967386
 30
0.0
  0
VERTEX
  5
152A
  8
SAPA_LIGHT
 10
-85.050000007505091
 20
72.500000000041737
 30
0.0
  0
VERTEX
  5
152B
  8
SAPA_LIGHT
 10
-71.853716961445784
 20
72.500000000041737
 30
0.0
  0
VERTEX
  5
152C
  8
SAPA_LIGHT
 10
-71.853716961445841
 20
66.50000000004151
 30
0.0
  0
VERTEX
  5
152D
  8
SAPA_LIGHT
 10
-38.500000010612482
 20
66.50000000004195
 30
0.0
  0
VERTEX
  5
152E
  8
SAPA_LIGHT
 10
-38.500000010612482
 20
64.000000000042405
 30
0.0
  0
VERTEX
  5
152F
  8
SAPA_LIGHT
 10
-16.500000006903111
 20
64.000000000042405
 30
0.0
  0
VERTEX
  5
1530
  8
SAPA_LIGHT
 10
-16.500000006903111
 20
46.50000000004195
 30
0.0
  0
VERTEX
  5
1531
  8
SAPA_LIGHT
 10
-7.0000000024177123
 20
46.50000000004195
 30
0.0
  0
VERTEX
  5
1532
  8
SAPA_LIGHT
 10
-7.0000000071513968
 20
89.241941785629706
 30
0.0
  0
VERTEX
  5
1533
  8
SAPA_LIGHT
 10
-11.99983460811902
 20
97.901828296234044
 30
0.0
  0
VERTEX
  5
1534
  8
SAPA_LIGHT
 10
-16.267949203567451
 20
100.36602540684849
 30
0.0
  0
SEQEND
  5
1535
  8
SAPA_LIGHT
  0
INSERT
  5
7F5
  8
0
  2
*U85
 10
0.0
 20
0.0
 30
0.0
  0
INSERT
  5
7F6
  8
0
  2
*U86
 10
0.0
 20
0.0
 30
0.0
  0
INSERT
  5
7F7
  8
0
  2
*U87
 10
0.0
 20
0.0
 30
0.0
  0
INSERT
  5
C30
  8
0
  2
*U88
 10
0.0
 20
0.0
 30
0.0
  0
INSERT
  5
C31
  8
0
  2
*U89
 10
0.0
 20
0.0
 30
0.0
  0
POLYLINE
  5
13C3
  8
SAPA_PROFIL
 66
     1
 10
0.0
 20
0.0
 30
0.0
 70
     1
  0
VERTEX
  5
1B66
  8
SAPA_PROFIL
 10
-7.3939031363877339
 20
103.9953758136036
 30
0.0
  0
VERTEX
  5
1B67
  8
SAPA_PROFIL
 10
-7.6364470742348649
 20
103.9953758136036
 30
0.0
 42
0.2011813370902256
  0
VERTEX
  5
1B68
  8
SAPA_PROFIL
 10
-7.7790971640654334
 20
103.9355576664635
 30
0.0
  0
VERTEX
  5
1B69
  8
SAPA_PROFIL
 10
-8.6898092570893368
 20
103.0088103077338
 30
0.0
  0
VERTEX
  5
1B6A
  8
SAPA_PROFIL
 10
-8.676601714346134
 20
101.4953758136017
 30
0.0
 42
-0.4931454260356012
  0
VERTEX
  5
1B6B
  8
SAPA_PROFIL
 10
-8.4557748252984766
 20
99.924110853363914
 30
0.0
  0
VERTEX
  5
1B6C
  8
SAPA_PROFIL
 10
-9.5049513979112703
 20
98.856461016539583
 30
0.0
 42
-0.6681786379164681
  0
VERTEX
  5
1B6D
  8
SAPA_PROFIL
 10
-9.8548516553962031
 20
98.997829896993267
 30
0.0
  0
VERTEX
  5
1B6E
  8
SAPA_PROFIL
 10
-9.8941011439935096
 20
103.4953758136035
 30
0.0
  0
VERTEX
  5
1B6F
  8
SAPA_PROFIL
 10
-7.8165878847637478
 20
105.60946866519321
 30
0.0
 42
0.2038501166358263
  0
VERTEX
  5
1B70
  8
SAPA_PROFIL
 10
-7.6734050281577311
 20
105.97377544461111
 30
0.0
  0
VERTEX
  5
1B71
  8
SAPA_PROFIL
 10
-8.0920311374466092
 20
121.0784886972055
 30
0.0
 42
0.4061212134736873
  0
VERTEX
  5
1B72
  8
SAPA_PROFIL
 10
-11.09087962454606
 20
123.99537581359709
 30
0.0
  0
VERTEX
  5
1B73
  8
SAPA_PROFIL
 10
-22.87507086801412
 20
123.99537581359709
 30
0.0
 42
0.4142135623730951
  0
VERTEX
  5
1B74
  8
SAPA_PROFIL
 10
-23.37507086801412
 20
123.49537581359709
 30
0.0
  0
VERTEX
  5
1B75
  8
SAPA_PROFIL
 10
-23.37507086801412
 20
111.909589375972
 30
0.0
 42
0.198912367379658
  0
VERTEX
  5
1B76
  8
SAPA_PROFIL
 10
-23.08217764920067
 20
111.20248259478539
 30
0.0
  0
VERTEX
  5
1B77
  8
SAPA_PROFIL
 10
-22.701578875810188
 20
110.82188382139491
 30
0.0
 42
-0.1830252782112529
  0
VERTEX
  5
1B78
  8
SAPA_PROFIL
 10
-22.119550334062581
 20
109.5302160126635
 30
0.0
  0
VERTEX
  5
1B79
  8
SAPA_PROFIL
 10
-21.396485606732028
 20
99.097143983857805
 30
0.0
 42
-0.668178637923616
  0
VERTEX
  5
1B7A
  8
SAPA_PROFIL
 10
-21.911636096521018
 20
98.883761664324197
 30
0.0
  0
VERTEX
  5
1B7B
  8
SAPA_PROFIL
 10
-23.911118211443579
 20
100.8832437792467
 30
0.0
 42
-0.7332303362588345
  0
VERTEX
  5
1B7C
  8
SAPA_PROFIL
 10
-23.646891723786378
 20
101.39081813950639
 30
0.0
  0
VERTEX
  5
1B7D
  8
SAPA_PROFIL
 10
-23.031080630387979
 20
101.2822340287204
 30
0.0
 42
0.4663076581593561
  0
VERTEX
  5
1B7E
  8
SAPA_PROFIL
 10
-22.678986177087779
 20
101.5776763546238
 30
0.0
  0
VERTEX
  5
1B7F
  8
SAPA_PROFIL
 10
-23.410145798968252
 20
109.3371534799761
 30
0.0
 42
0.183025278211264
  0
VERTEX
  5
1B80
  8
SAPA_PROFIL
 10
-23.70116006984205
 20
109.9829873843418
 30
0.0
  0
VERTEX
  5
1B81
  8
SAPA_PROFIL
 10
-24.089284430387071
 20
110.3711117448868
 30
0.0
 42
-0.1989123673796518
  0
VERTEX
  5
1B82
  8
SAPA_PROFIL
 10
-24.675070868013961
 20
111.7853253072598
 30
0.0
  0
VERTEX
  5
1B83
  8
SAPA_PROFIL
 10
-24.675070868014078
 20
123.1953758136126
 30
0.0
 42
0.4142135623732283
  0
VERTEX
  5
1B84
  8
SAPA_PROFIL
 10
-25.175070868014298
 20
123.6953758136126
 30
0.0
  0
VERTEX
  5
1B85
  8
SAPA_PROFIL
 10
-26.375070868013669
 20
123.69537581361161
 30
0.0
 42
-0.4142135623732062
  0
VERTEX
  5
1B86
  8
SAPA_PROFIL
 10
-26.675070868013741
 20
123.9953758136116
 30
0.0
  0
VERTEX
  5
1B87
  8
SAPA_PROFIL
 10
-26.675070868014071
 20
125.1953758135971
 30
0.0
 42
-0.4142135623716247
  0
VERTEX
  5
1B88
  8
SAPA_PROFIL
 10
-26.375070868012759
 20
125.49537581359709
 30
0.0
  0
VERTEX
  5
1B89
  8
SAPA_PROFIL
 10
-6.3986631256907449
 20
125.49537581361059
 30
0.0
 42
-0.4142135623732938
  0
VERTEX
  5
1B8A
  8
SAPA_PROFIL
 10
-6.1986631256907003
 20
125.2953758136107
 30
0.0
  0
VERTEX
  5
1B8B
  8
SAPA_PROFIL
 10
-6.1986631256907003
 20
103.6999996999249
 30
0.0
 42
-0.4210020197690384
  0
VERTEX
  5
1B8C
  8
SAPA_PROFIL
 10
-6.3986096677347168
 20
103.4953758136035
 30
0.0
  0
VERTEX
  5
1B8D
  8
SAPA_PROFIL
 10
-6.9865928309302481
 20
103.49537581359709
 30
0.0
  0
VERTEX
  5
1B8E
  8
SAPA_PROFIL
 10
-6.9865928309302481
 20
103.7953758135971
 30
0.0
 42
0.41421356237322
  0
VERTEX
  5
1B8F
  8
SAPA_PROFIL
 10
-7.1865928309302944
 20
103.99537581359699
 30
0.0
  0
VERTEX
  5
1B90
  8
SAPA_PROFIL
 10
-7.4037705963999079
 20
103.99537581359709
 30
0.0
  0
SEQEND
  5
1B91
  8
SAPA_PROFIL
  0
POLYLINE
  5
13C4
  8
SAPA_PROFIL
 66
     1
 10
0.0
 20
0.0
 30
0.0
 70
     1
  0
VERTEX
  5
1B92
  8
SAPA_PROFIL
 10
-29.228798412881581
 20
77.988496464589446
 30
0.0
  0
VERTEX
  5
1B93
  8
SAPA_PROFIL
 10
-28.944116129649942
 20
78.140630375698223
 30
0.0
 42
-0.5773502691897463
  0
VERTEX
  5
1B94
  8
SAPA_PROFIL
 10
-28.649959829395119
 20
77.95767663558803
 30
0.0
  0
VERTEX
  5
1B95
  8
SAPA_PROFIL
 10
-28.660521195622088
 20
77.635918907369785
 30
0.0
  0
VERTEX
  5
1B96
  8
SAPA_PROFIL
 10
-26.77467750376103
 20
76.551354460398045
 30
0.0
  0
VERTEX
  5
1B97
  8
SAPA_PROFIL
 10
-26.58329450376732
 20
76.493280823408966
 30
0.0
 42
0.7625858545243257
  0
VERTEX
  5
1B98
  8
SAPA_PROFIL
 10
-26.39871530156984
 20
76.823606904425958
 30
0.0
 42
-0.2134217652834389
  0
VERTEX
  5
1B99
  8
SAPA_PROFIL
 10
-26.49871530156997
 20
77.04721370217608
 30
0.0
  0
VERTEX
  5
1B9A
  8
SAPA_PROFIL
 10
-26.49871530156997
 20
80.899999702176061
 30
0.0
 42
0.4142139999998963
  0
VERTEX
  5
1B9B
  8
SAPA_PROFIL
 10
-26.798715301570009
 20
81.199999702176072
 30
0.0
  0
VERTEX
  5
1B9C
  8
SAPA_PROFIL
 10
-27.09871530156996
 20
81.199999702176072
 30
0.0
  0
VERTEX
  5
1B9D
  8
SAPA_PROFIL
 10
-28.698715301569941
 20
80.276239702176014
 30
0.0
 42
-0.5773500000002674
  0
VERTEX
  5
1B9E
  8
SAPA_PROFIL
 10
-28.998715301570002
 20
80.449444702176109
 30
0.0
  0
VERTEX
  5
1B9F
  8
SAPA_PROFIL
 10
-28.998715301570002
 20
81.835085702176073
 30
0.0
 42
-0.267949000000023
  0
VERTEX
  5
1BA0
  8
SAPA_PROFIL
 10
-28.498715301569991
 20
82.701110702176109
 30
0.0
  0
VERTEX
  5
1BA1
  8
SAPA_PROFIL
 10
-26.74871530156997
 20
83.711473702176093
 30
0.0
 42
0.2679489999999919
  0
VERTEX
  5
1BA2
  8
SAPA_PROFIL
 10
-26.49871530156997
 20
84.14448670217611
 30
0.0
  0
VERTEX
  5
1BA3
  8
SAPA_PROFIL
 10
-26.49871530156997
 20
94.155513702176066
 30
0.0
 42
0.2679490000000193
  0
VERTEX
  5
1BA4
  8
SAPA_PROFIL
 10
-26.748715301569959
 20
94.588526702176068
 30
0.0
  0
VERTEX
  5
1BA5
  8
SAPA_PROFIL
 10
-28.49871530156998
 20
95.598889702176066
 30
0.0
 42
-0.2679490000000211
  0
VERTEX
  5
1BA6
  8
SAPA_PROFIL
 10
-28.998715301569991
 20
96.464914702176117
 30
0.0
  0
VERTEX
  5
1BA7
  8
SAPA_PROFIL
 10
-28.998715301569991
 20
97.850555702176081
 30
0.0
 42
-0.5773499999999721
  0
VERTEX
  5
1BA8
  8
SAPA_PROFIL
 10
-28.69871530156998
 20
98.023760702176062
 30
0.0
  0
VERTEX
  5
1BA9
  8
SAPA_PROFIL
 10
-27.09871530156995
 20
97.099999702176106
 30
0.0
  0
VERTEX
  5
1BAA
  8
SAPA_PROFIL
 10
-26.798715301569999
 20
97.099999702176106
 30
0.0
 42
0.4142139999999657
  0
VERTEX
  5
1BAB
  8
SAPA_PROFIL
 10
-26.49871530156997
 20
97.399999702176061
 30
0.0
  0
VERTEX
  5
1BAC
  8
SAPA_PROFIL
 10
-26.498715301570069
 20
101.2527867021761
 30
0.0
 42
-0.2134217652834387
  0
VERTEX
  5
1BAD
  8
SAPA_PROFIL
 10
-26.39871530156994
 20
101.4763934999262
 30
0.0
 42
0.7625858545243244
  0
VERTEX
  5
1BAE
  8
SAPA_PROFIL
 10
-26.583294503767419
 20
101.8067195809432
 30
0.0
  0
VERTEX
  5
1BAF
  8
SAPA_PROFIL
 10
-26.77467750376114
 20
101.7486459439541
 30
0.0
  0
VERTEX
  5
1BB0
  8
SAPA_PROFIL
 10
-28.660521195622191
 20
100.6640814969824
 30
0.0
  0
VERTEX
  5
1BB1
  8
SAPA_PROFIL
 10
-28.649959829395218
 20
100.3423237687641
 30
0.0
 42
-0.5773502691897466
  0
VERTEX
  5
1BB2
  8
SAPA_PROFIL
 10
-28.944116129650059
 20
100.1593700286539
 30
0.0
  0
VERTEX
  5
1BB3
  8
SAPA_PROFIL
 10
-29.228798412881709
 20
100.3115039397627
 30
0.0
 42
-0.2216946626430191
  0
VERTEX
  5
1BB4
  8
SAPA_PROFIL
 10
-29.63460731803649
 20
100.8523837712395
 30
0.0
  0
VERTEX
  5
1BB5
  8
SAPA_PROFIL
 10
-30.01605391416421
 20
102.6656142418977
 30
0.0
 42
-0.4769755326981641
  0
VERTEX
  5
1BB6
  8
SAPA_PROFIL
 10
-29.713801089657739
 20
103.0372711168436
 30
0.0
  0
VERTEX
  5
1BB7
  8
SAPA_PROFIL
 10
-28.210700008895731
 20
103.03718750896
 30
0.0
  0
VERTEX
  5
1BB8
  8
SAPA_PROFIL
 10
-28.196181599648629
 20
102.9893417589615
 30
0.0
 42
0.4142135623730953
  0
VERTEX
  5
1BB9
  8
SAPA_PROFIL
 10
-27.82199664417281
 20
102.7893777144541
 30
0.0
  0
VERTEX
  5
1BBA
  8
SAPA_PROFIL
 10
-26.500881226738642
 20
103.29999970217609
 30
0.0
  0
VERTEX
  5
1BBB
  8
SAPA_PROFIL
 10
-26.498715301569959
 20
103.29999970217609
 30
0.0
  0
VERTEX
  5
1BBC
  8
SAPA_PROFIL
 10
-23.506230301569961
 20
103.29999970217609
 30
0.0
 42
-0.2596809999999277
  0
VERTEX
  5
1BBD
  8
SAPA_PROFIL
 10
-23.33619930156998
 20
103.2053067021761
 30
0.0
  0
VERTEX
  5
1BBE
  8
SAPA_PROFIL
 10
-22.543668301569969
 20
101.95796070217609
 30
0.0
 42
-0.5877030000000004
  0
VERTEX
  5
1BBF
  8
SAPA_PROFIL
 10
-22.798715301569999
 20
101.4999997021761
 30
0.0
  0
VERTEX
  5
1BC0
  8
SAPA_PROFIL
 10
-24.19871530156998
 20
101.4999997021761
 30
0.0
 42
0.4142135623731089
  0
VERTEX
  5
1BC1
  8
SAPA_PROFIL
 10
-24.498715301569959
 20
101.1999997021761
 30
0.0
  0
VERTEX
  5
1BC2
  8
SAPA_PROFIL
 10
-24.498715301569959
 20
98.799999702176095
 30
0.0
 42
0.4142135623731088
  0
VERTEX
  5
1BC3
  8
SAPA_PROFIL
 10
-24.19871530156998
 20
98.499999702176083
 30
0.0
  0
VERTEX
  5
1BC4
  8
SAPA_PROFIL
 10
-18.398715301570022
 20
98.499999702176083
 30
0.0
  0
VERTEX
  5
1BC5
  8
SAPA_PROFIL
 10
-16.398715301570022
 20
98.499999702176083
 30
0.0
  0
VERTEX
  5
1BC6
  8
SAPA_PROFIL
 10
-6.7987153015699944
 20
98.499999702176069
 30
0.0
 42
0.4142139999999172
  0
VERTEX
  5
1BC7
  8
SAPA_PROFIL
 10
-6.4987153015699972
 20
98.799999702176095
 30
0.0
  0
VERTEX
  5
1BC8
  8
SAPA_PROFIL
 10
-6.4987153015699972
 20
101.199999702176
 30
0.0
 42
0.4142139999999103
  0
VERTEX
  5
1BC9
  8
SAPA_PROFIL
 10
-6.7987153015699944
 20
101.499999702176
 30
0.0
  0
VERTEX
  5
1BCA
  8
SAPA_PROFIL
 10
-8.1987153015699796
 20
101.4999997021761
 30
0.0
 42
-0.5877030000000132
  0
VERTEX
  5
1BCB
  8
SAPA_PROFIL
 10
-8.4537613015699797
 20
101.95796070217609
 30
0.0
  0
VERTEX
  5
1BCC
  8
SAPA_PROFIL
 10
-7.5573623015699667
 20
103.40530670217601
 30
0.0
 42
-0.259681000000005
  0
VERTEX
  5
1BCD
  8
SAPA_PROFIL
 10
-7.3873313015700077
 20
103.499999702176
 30
0.0
  0
VERTEX
  5
1BCE
  8
SAPA_PROFIL
 10
-4.7666643015699606
 20
103.499999702176
 30
0.0
 42
-0.1316520000000017
  0
VERTEX
  5
1BCF
  8
SAPA_PROFIL
 10
-4.2666643015699544
 20
103.366025702176
 30
0.0
  0
VERTEX
  5
1BD0
  8
SAPA_PROFIL
 10
3.501284698430045
 20
98.881197702176067
 30
0.0
 42
-0.267948999999994
  0
VERTEX
  5
1BD1
  8
SAPA_PROFIL
 10
5.0012846984300303
 20
96.283121702176061
 30
0.0
  0
VERTEX
  5
1BD2
  8
SAPA_PROFIL
 10
5.0012846984299983
 20
57.999999702176062
 30
0.0
 42
-0.4142140000000114
  0
VERTEX
  5
1BD3
  8
SAPA_PROFIL
 10
2.0012846984300179
 20
54.999999702176062
 30
0.0
  0
VERTEX
  5
1BD4
  8
SAPA_PROFIL
 10
1.5012846984300181
 20
54.99999970217597
 30
0.0
 42
-0.4241420000000259
  0
VERTEX
  5
1BD5
  8
SAPA_PROFIL
 10
0.501855698430048
 20
56.033772702176073
 30
0.0
 42
-0.2988660000000032
  0
VERTEX
  5
1BD6
  8
SAPA_PROFIL
 10
1.0727136984300421
 20
56.97105270217601
 30
0.0
 42
-0.55075999999996
  0
VERTEX
  5
1BD7
  8
SAPA_PROFIL
 10
1.501284698430019
 20
56.699999702176058
 30
0.0
  0
VERTEX
  5
1BD8
  8
SAPA_PROFIL
 10
1.501284698430019
 20
56.399999702176054
 30
0.0
 42
0.4142139999998339
  0
VERTEX
  5
1BD9
  8
SAPA_PROFIL
 10
1.701284698429993
 20
56.199999702176058
 30
0.0
  0
VERTEX
  5
1BDA
  8
SAPA_PROFIL
 10
2.0012846984300259
 20
56.199999702176058
 30
0.0
 42
0.4142139999999946
  0
VERTEX
  5
1BDB
  8
SAPA_PROFIL
 10
3.801284698430031
 20
57.999999702176062
 30
0.0
  0
VERTEX
  5
1BDC
  8
SAPA_PROFIL
 10
3.801284698430031
 20
58.699999702176058
 30
0.0
 42
0.4142139999999852
  0
VERTEX
  5
1BDD
  8
SAPA_PROFIL
 10
2.0012846984300201
 20
60.499999702176062
 30
0.0
  0
VERTEX
  5
1BDE
  8
SAPA_PROFIL
 10
1.7012846984299941
 20
60.499999702176062
 30
0.0
 42
0.4142139999998025
  0
VERTEX
  5
1BDF
  8
SAPA_PROFIL
 10
1.5012846984300201
 20
60.299999702176073
 30
0.0
  0
VERTEX
  5
1BE0
  8
SAPA_PROFIL
 10
1.501284698430005
 20
59.999999702176062
 30
0.0
 42
-0.5507599999999105
  0
VERTEX
  5
1BE1
  8
SAPA_PROFIL
 10
1.072713698429993
 20
59.728947702176001
 30
0.0
 42
-0.2988660000000063
  0
VERTEX
  5
1BE2
  8
SAPA_PROFIL
 10
0.5018556984299645
 20
60.666227702176052
 30
0.0
 42
-0.4241419999999882
  0
VERTEX
  5
1BE3
  8
SAPA_PROFIL
 10
1.5012846984300201
 20
61.699999702176058
 30
0.0
  0
VERTEX
  5
1BE4
  8
SAPA_PROFIL
 10
2.8012846984300239
 20
61.699999702176058
 30
0.0
 42
0.4142140000000128
  0
VERTEX
  5
1BE5
  8
SAPA_PROFIL
 10
3.8012846984300319
 20
62.699999702176072
 30
0.0
  0
VERTEX
  5
1BE6
  8
SAPA_PROFIL
 10
3.0276946984300088
 20
76.527928702176084
 30
0.0
 42
0.3979379999999925
  0
VERTEX
  5
1BE7
  8
SAPA_PROFIL
 10
2.5284756984300261
 20
76.999999702176069
 30
0.0
  0
VERTEX
  5
1BE8
  8
SAPA_PROFIL
 10
-1.998715301569975
 20
76.999999702176083
 30
0.0
 42
0.4142140000000251
  0
VERTEX
  5
1BE9
  8
SAPA_PROFIL
 10
-2.498715301569975
 20
76.499999702176083
 30
0.0
  0
VERTEX
  5
1BEA
  8
SAPA_PROFIL
 10
-2.498715301569975
 20
72.999999702176083
 30
0.0
 42
-0.4142140000000128
  0
VERTEX
  5
1BEB
  8
SAPA_PROFIL
 10
-2.998715301569975
 20
72.499999702176083
 30
0.0
  0
VERTEX
  5
1BEC
  8
SAPA_PROFIL
 10
-6.6987153015699921
 20
72.499999702176069
 30
0.0
 42
-0.4142139999999104
  0
VERTEX
  5
1BED
  8
SAPA_PROFIL
 10
-6.9987153015699972
 20
72.799999702176095
 30
0.0
  0
VERTEX
  5
1BEE
  8
SAPA_PROFIL
 10
-6.9987153015699972
 20
73.699999702176072
 30
0.0
 42
-0.4142139999999101
  0
VERTEX
  5
1BEF
  8
SAPA_PROFIL
 10
-6.6987153015699921
 20
73.999999702176083
 30
0.0
  0
VERTEX
  5
1BF0
  8
SAPA_PROFIL
 10
-4.6987153015699636
 20
73.999999702176083
 30
0.0
 42
0.4142139999999691
  0
VERTEX
  5
1BF1
  8
SAPA_PROFIL
 10
-4.498715301569975
 20
74.199999702176072
 30
0.0
  0
VERTEX
  5
1BF2
  8
SAPA_PROFIL
 10
-4.4987153015699741
 20
76.999999702176083
 30
0.0
 42
0.577350269189605
  0
VERTEX
  5
1BF3
  8
SAPA_PROFIL
 10
-4.7987153015699784
 20
77.173204782932956
 30
0.0
  0
VERTEX
  5
1BF4
  8
SAPA_PROFIL
 10
-5.0987153015699818
 20
76.999999702176083
 30
0.0
  0
VERTEX
  5
1BF5
  8
SAPA_PROFIL
 10
-8.8937153015700048
 20
76.999999702176027
 30
0.0
 42
-0.414213999999992
  0
VERTEX
  5
1BF6
  8
SAPA_PROFIL
 10
-9.3937153015700048
 20
77.499999702176083
 30
0.0
  0
VERTEX
  5
1BF7
  8
SAPA_PROFIL
 10
-9.3937153015700048
 20
78.199999702176072
 30
0.0
 42
0.4142139999998548
  0
VERTEX
  5
1BF8
  8
SAPA_PROFIL
 10
-9.6937153015699522
 20
78.499999702176083
 30
0.0
  0
VERTEX
  5
1BF9
  8
SAPA_PROFIL
 10
-14.874099301569959
 20
78.499999702176083
 30
0.0
  0
VERTEX
  5
1BFA
  8
SAPA_PROFIL
 10
-15.393715301569999
 20
78.799999702176095
 30
0.0
  0
VERTEX
  5
1BFB
  8
SAPA_PROFIL
 10
-15.91333030156998
 20
78.499999702176083
 30
0.0
  0
VERTEX
  5
1BFC
  8
SAPA_PROFIL
 10
-21.09371530156999
 20
78.499999702176083
 30
0.0
 42
0.4142140000000351
  0
VERTEX
  5
1BFD
  8
SAPA_PROFIL
 10
-21.393715301570008
 20
78.199999702176072
 30
0.0
  0
VERTEX
  5
1BFE
  8
SAPA_PROFIL
 10
-21.393715301569951
 20
77.499999702176083
 30
0.0
 42
-0.4142140000000461
  0
VERTEX
  5
1BFF
  8
SAPA_PROFIL
 10
-21.893715301570001
 20
76.999999702176083
 30
0.0
  0
VERTEX
  5
1C00
  8
SAPA_PROFIL
 10
-23.89871530157
 20
76.999999702176083
 30
0.0
  0
VERTEX
  5
1C01
  8
SAPA_PROFIL
 10
-24.19871530156998
 20
77.173204782932956
 30
0.0
 42
0.5773502691896303
  0
VERTEX
  5
1C02
  8
SAPA_PROFIL
 10
-24.49871530156997
 20
76.999999702176083
 30
0.0
  0
VERTEX
  5
1C03
  8
SAPA_PROFIL
 10
-24.49871530156997
 20
74.199999702176072
 30
0.0
 42
0.414213999999813
  0
VERTEX
  5
1C04
  8
SAPA_PROFIL
 10
-24.298715301570009
 20
73.999999702176083
 30
0.0
  0
VERTEX
  5
1C05
  8
SAPA_PROFIL
 10
-22.298715301570009
 20
73.999999702176112
 30
0.0
 42
-0.4142139999998962
  0
VERTEX
  5
1C06
  8
SAPA_PROFIL
 10
-21.99871530156997
 20
73.699999702176072
 30
0.0
  0
VERTEX
  5
1C07
  8
SAPA_PROFIL
 10
-21.998715301570009
 20
72.799999702176095
 30
0.0
 42
-0.4142139999999103
  0
VERTEX
  5
1C08
  8
SAPA_PROFIL
 10
-22.298715301570009
 20
72.499999702176083
 30
0.0
  0
VERTEX
  5
1C09
  8
SAPA_PROFIL
 10
-25.99871530156997
 20
72.499999702176098
 30
0.0
 42
-0.414214000000021
  0
VERTEX
  5
1C0A
  8
SAPA_PROFIL
 10
-26.49871530156997
 20
72.999999702176083
 30
0.0
  0
VERTEX
  5
1C0B
  8
SAPA_PROFIL
 10
-26.49871530156997
 20
74.699999702176072
 30
0.0
 42
0.4142135623730951
  0
VERTEX
  5
1C0C
  8
SAPA_PROFIL
 10
-26.798715301569981
 20
74.999999702176083
 30
0.0
  0
VERTEX
  5
1C0D
  8
SAPA_PROFIL
 10
-27.82199664417271
 20
75.510622689898071
 30
0.0
 42
0.4142135623730953
  0
VERTEX
  5
1C0E
  8
SAPA_PROFIL
 10
-28.196181599648519
 20
75.310658645390674
 30
0.0
  0
VERTEX
  5
1C0F
  8
SAPA_PROFIL
 10
-28.210700008895621
 20
75.262812895392187
 30
0.0
  0
VERTEX
  5
1C10
  8
SAPA_PROFIL
 10
-29.713801089657629
 20
75.262729287508549
 30
0.0
 42
-0.4769755326981643
  0
VERTEX
  5
1C11
  8
SAPA_PROFIL
 10
-30.0160539141641
 20
75.634386162454405
 30
0.0
  0
VERTEX
  5
1C12
  8
SAPA_PROFIL
 10
-29.634607318036391
 20
77.447616633112645
 30
0.0
 42
-0.2216946626430193
  0
SEQEND
  5
1C13
  8
SAPA_PROFIL
  0
POLYLINE
  5
13C5
  8
SAPA_PROFIL
 66
     1
 10
0.0
 20
0.0
 30
0.0
 70
     1
  0
VERTEX
  5
1C14
  8
SAPA_PROFIL
 10
-6.1987153015699867
 20
94.899999702176046
 30
0.0
  0
VERTEX
  5
1C15
  8
SAPA_PROFIL
 10
-6.198715301569985
 20
96.499999702176055
 30
0.0
 42
0.414214000000042
  0
VERTEX
  5
1C16
  8
SAPA_PROFIL
 10
-6.4987153015699972
 20
96.799999702176081
 30
0.0
  0
VERTEX
  5
1C17
  8
SAPA_PROFIL
 10
-24.498715301569959
 20
96.799999702176095
 30
0.0
 42
0.4142140000001599
  0
VERTEX
  5
1C18
  8
SAPA_PROFIL
 10
-24.798715301569999
 20
96.499999702176083
 30
0.0
  0
VERTEX
  5
1C19
  8
SAPA_PROFIL
 10
-24.798715301569999
 20
94.899999702176061
 30
0.0
 42
0.4142140000000628
  0
VERTEX
  5
1C1A
  8
SAPA_PROFIL
 10
-24.598715301569971
 20
94.699999702176072
 30
0.0
  0
VERTEX
  5
1C1B
  8
SAPA_PROFIL
 10
-24.498715301569959
 20
94.699999702176072
 30
0.0
 42
-0.4142139999998963
  0
VERTEX
  5
1C1C
  8
SAPA_PROFIL
 10
-24.19871530156998
 20
94.399999702176061
 30
0.0
  0
VERTEX
  5
1C1D
  8
SAPA_PROFIL
 10
-24.19871530157004
 20
92.999999702176083
 30
0.0
 42
-0.4142139999999518
  0
VERTEX
  5
1C1E
  8
SAPA_PROFIL
 10
-24.498715301569959
 20
92.699999702176072
 30
0.0
  0
VERTEX
  5
1C1F
  8
SAPA_PROFIL
 10
-24.598715301569971
 20
92.699999702176072
 30
0.0
 42
0.4142139999999794
  0
VERTEX
  5
1C20
  8
SAPA_PROFIL
 10
-24.798715301569999
 20
92.499999702176083
 30
0.0
  0
VERTEX
  5
1C21
  8
SAPA_PROFIL
 10
-24.798715301570009
 20
79.499999702176083
 30
0.0
 42
0.4142139999999962
  0
VERTEX
  5
1C22
  8
SAPA_PROFIL
 10
-24.298715301570009
 20
78.999999702176083
 30
0.0
  0
VERTEX
  5
1C23
  8
SAPA_PROFIL
 10
-23.59371530156999
 20
78.999999702176083
 30
0.0
 42
0.4142140000000128
  0
VERTEX
  5
1C24
  8
SAPA_PROFIL
 10
-23.09371530156999
 20
79.499999702176083
 30
0.0
  0
VERTEX
  5
1C25
  8
SAPA_PROFIL
 10
-23.09371530156999
 20
79.699999702176072
 30
0.0
 42
-0.4142140000000127
  0
VERTEX
  5
1C26
  8
SAPA_PROFIL
 10
-22.59371530156999
 20
80.199999702176072
 30
0.0
  0
VERTEX
  5
1C27
  8
SAPA_PROFIL
 10
-8.1937153015699593
 20
80.199999702176129
 30
0.0
 42
-0.4142139999999795
  0
VERTEX
  5
1C28
  8
SAPA_PROFIL
 10
-7.6937153015699531
 20
79.699999702176072
 30
0.0
  0
VERTEX
  5
1C29
  8
SAPA_PROFIL
 10
-7.6937153015699531
 20
78.999999702176083
 30
0.0
 42
0.4142140000000462
  0
VERTEX
  5
1C2A
  8
SAPA_PROFIL
 10
-7.1937153015699531
 20
78.499999702176083
 30
0.0
  0
VERTEX
  5
1C2B
  8
SAPA_PROFIL
 10
2.501284698430025
 20
78.499999702176069
 30
0.0
 42
0.4142140000000128
  0
VERTEX
  5
1C2C
  8
SAPA_PROFIL
 10
3.001284698430025
 20
78.999999702176055
 30
0.0
  0
VERTEX
  5
1C2D
  8
SAPA_PROFIL
 10
3.0012846984300299
 20
96.283121702176061
 30
0.0
 42
0.2679490000000162
  0
VERTEX
  5
1C2E
  8
SAPA_PROFIL
 10
2.5012846984300299
 20
97.149146702176097
 30
0.0
  0
VERTEX
  5
1C2F
  8
SAPA_PROFIL
 10
-4.2487153015699679
 20
101.046261702176
 30
0.0
 42
0.5773500000000551
  0
VERTEX
  5
1C30
  8
SAPA_PROFIL
 10
-4.6987153015699574
 20
100.786453702176
 30
0.0
  0
VERTEX
  5
1C31
  8
SAPA_PROFIL
 10
-4.6987153015699796
 20
94.199999702176058
 30
0.0
 42
-0.4142140000000155
  0
VERTEX
  5
1C32
  8
SAPA_PROFIL
 10
-6.1987153015699867
 20
92.699999702176058
 30
0.0
  0
VERTEX
  5
1C33
  8
SAPA_PROFIL
 10
-6.398715301570018
 20
92.699999702176058
 30
0.0
  0
VERTEX
  5
1C34
  8
SAPA_PROFIL
 10
-6.4987153015699981
 20
92.699999702176115
 30
0.0
 42
-0.4142140000000836
  0
VERTEX
  5
1C35
  8
SAPA_PROFIL
 10
-6.7987153015699962
 20
92.999999702176069
 30
0.0
  0
VERTEX
  5
1C36
  8
SAPA_PROFIL
 10
-6.7987153015701312
 20
94.399999702176046
 30
0.0
 42
-0.4142140000000351
  0
VERTEX
  5
1C37
  8
SAPA_PROFIL
 10
-6.4987153015699981
 20
94.699999702176044
 30
0.0
  0
VERTEX
  5
1C38
  8
SAPA_PROFIL
 10
-6.398715301570018
 20
94.699999702176044
 30
0.0
 42
0.4142139999998962
  0
SEQEND
  5
1C39
  8
SAPA_PROFIL
  0
POLYLINE
  5
13C6
  8
SAPA_PROFIL
 66
     1
 10
0.0
 20
0.0
 30
0.0
 70
     1
  0
VERTEX
  5
1C3A
  8
SAPA_PROFIL
 10
-68.598715301570067
 20
101.4763937021782
 30
0.0
 42
-0.2134220000000103
  0
VERTEX
  5
1C3B
  8
SAPA_PROFIL
 10
-68.498715301570044
 20
101.2527867021782
 30
0.0
  0
VERTEX
  5
1C3C
  8
SAPA_PROFIL
 10
-68.498715301570044
 20
97.399999702178206
 30
0.0
 42
0.414213999999924
  0
VERTEX
  5
1C3D
  8
SAPA_PROFIL
 10
-68.198715301570076
 20
97.099999702178152
 30
0.0
  0
VERTEX
  5
1C3E
  8
SAPA_PROFIL
 10
-67.898715301570064
 20
97.099999702178195
 30
0.0
  0
VERTEX
  5
1C3F
  8
SAPA_PROFIL
 10
-66.298715301570056
 20
98.023760702178208
 30
0.0
 42
-0.5773500000001196
  0
VERTEX
  5
1C40
  8
SAPA_PROFIL
 10
-65.998715301570044
 20
97.850555702178212
 30
0.0
  0
VERTEX
  5
1C41
  8
SAPA_PROFIL
 10
-65.998715301570059
 20
96.464914702178191
 30
0.0
 42
-0.2679489999999719
  0
VERTEX
  5
1C42
  8
SAPA_PROFIL
 10
-66.498715301570059
 20
95.598889702178212
 30
0.0
  0
VERTEX
  5
1C43
  8
SAPA_PROFIL
 10
-68.248715301570059
 20
94.588526702178214
 30
0.0
 42
0.267949000000012
  0
VERTEX
  5
1C44
  8
SAPA_PROFIL
 10
-68.498715301570172
 20
94.155513702178212
 30
0.0
  0
VERTEX
  5
1C45
  8
SAPA_PROFIL
 10
-68.498715301570059
 20
84.144486702178199
 30
0.0
 42
0.2679490000000104
  0
VERTEX
  5
1C46
  8
SAPA_PROFIL
 10
-68.24871530157003
 20
83.711473702178253
 30
0.0
  0
VERTEX
  5
1C47
  8
SAPA_PROFIL
 10
-66.498715301570059
 20
82.701110702178198
 30
0.0
 42
-0.2679489999999809
  0
VERTEX
  5
1C48
  8
SAPA_PROFIL
 10
-65.998715301570059
 20
81.835085702178205
 30
0.0
  0
VERTEX
  5
1C49
  8
SAPA_PROFIL
 10
-65.998715301570059
 20
80.449444702178184
 30
0.0
 42
-0.5773500000001198
  0
VERTEX
  5
1C4A
  8
SAPA_PROFIL
 10
-66.29871530157007
 20
80.276239702178202
 30
0.0
  0
VERTEX
  5
1C4B
  8
SAPA_PROFIL
 10
-67.898715301570093
 20
81.199999702178218
 30
0.0
  0
VERTEX
  5
1C4C
  8
SAPA_PROFIL
 10
-68.198715301570104
 20
81.199999702178218
 30
0.0
 42
0.4142139999999795
  0
VERTEX
  5
1C4D
  8
SAPA_PROFIL
 10
-68.498715301569945
 20
80.899999702178206
 30
0.0
  0
VERTEX
  5
1C4E
  8
SAPA_PROFIL
 10
-68.498715301570059
 20
77.047213702178226
 30
0.0
 42
-0.2134217652834391
  0
VERTEX
  5
1C4F
  8
SAPA_PROFIL
 10
-68.598715301570181
 20
76.823606904428118
 30
0.0
 42
0.7625858545243247
  0
VERTEX
  5
1C50
  8
SAPA_PROFIL
 10
-68.414136099372712
 20
76.493280823411098
 30
0.0
  0
VERTEX
  5
1C51
  8
SAPA_PROFIL
 10
-68.222753099378991
 20
76.551354460400191
 30
0.0
  0
VERTEX
  5
1C52
  8
SAPA_PROFIL
 10
-66.336909407517936
 20
77.635918907371931
 30
0.0
  0
VERTEX
  5
1C53
  8
SAPA_PROFIL
 10
-66.347470773744902
 20
77.957676635590175
 30
0.0
 42
-0.5773502691897466
  0
VERTEX
  5
1C54
  8
SAPA_PROFIL
 10
-66.053314473490076
 20
78.140630375700354
 30
0.0
  0
VERTEX
  5
1C55
  8
SAPA_PROFIL
 10
-65.768632190258415
 20
77.988496464591606
 30
0.0
 42
-0.2216946626430194
  0
VERTEX
  5
1C56
  8
SAPA_PROFIL
 10
-65.362823285103644
 20
77.447616633114805
 30
0.0
  0
VERTEX
  5
1C57
  8
SAPA_PROFIL
 10
-64.981376688975928
 20
75.634386162456565
 30
0.0
 42
-0.4769755326981641
  0
VERTEX
  5
1C58
  8
SAPA_PROFIL
 10
-65.283629513482396
 20
75.26272928751068
 30
0.0
  0
VERTEX
  5
1C59
  8
SAPA_PROFIL
 10
-66.786730594244403
 20
75.262812895394333
 30
0.0
  0
VERTEX
  5
1C5A
  8
SAPA_PROFIL
 10
-66.801249003491506
 20
75.31065864539282
 30
0.0
 42
0.4142135623730951
  0
VERTEX
  5
1C5B
  8
SAPA_PROFIL
 10
-67.175433958967318
 20
75.510622689900217
 30
0.0
  0
VERTEX
  5
1C5C
  8
SAPA_PROFIL
 10
-68.496551963668324
 20
74.999999702178272
 30
0.0
  0
VERTEX
  5
1C5D
  8
SAPA_PROFIL
 10
-69.736611301570093
 20
74.999999702178215
 30
0.0
 42
-0.2914730000000021
  0
VERTEX
  5
1C5E
  8
SAPA_PROFIL
 10
-70.64291930157006
 20
75.577381702178229
 30
0.0
  0
VERTEX
  5
1C5F
  8
SAPA_PROFIL
 10
-71.80502330157006
 20
78.069521702178236
 30
0.0
 42
-0.3888789999999682
  0
VERTEX
  5
1C60
  8
SAPA_PROFIL
 10
-71.398715301570093
 20
79.358165702178212
 30
0.0
  0
VERTEX
  5
1C61
  8
SAPA_PROFIL
 10
-71.248715301570059
 20
79.444768702178223
 30
0.0
 42
0.2679490000000116
  0
VERTEX
  5
1C62
  8
SAPA_PROFIL
 10
-70.998715301570002
 20
79.8777807021782
 30
0.0
  0
VERTEX
  5
1C63
  8
SAPA_PROFIL
 10
-70.998715301570059
 20
87.999999702178229
 30
0.0
 42
0.4142139999999962
  0
VERTEX
  5
1C64
  8
SAPA_PROFIL
 10
-71.998715301570059
 20
88.999999702178286
 30
0.0
  0
VERTEX
  5
1C65
  8
SAPA_PROFIL
 10
-73.348715301570081
 20
88.999999702178229
 30
0.0
 42
0.4142140000000128
  0
VERTEX
  5
1C66
  8
SAPA_PROFIL
 10
-73.848715301570081
 20
88.499999702178215
 30
0.0
  0
VERTEX
  5
1C67
  8
SAPA_PROFIL
 10
-73.848715301570081
 20
85.367767483364787
 30
0.0
 42
-0.198912367379658
  0
VERTEX
  5
1C68
  8
SAPA_PROFIL
 10
-74.434501739196975
 20
83.953553920991666
 30
0.0
  0
VERTEX
  5
1C69
  8
SAPA_PROFIL
 10
-77.167795354241548
 20
81.220260305947136
 30
0.0
 42
-1.000556671980007
  0
VERTEX
  5
1C6A
  8
SAPA_PROFIL
 10
-78.229045301570096
 20
82.280330702178219
 30
0.0
  0
VERTEX
  5
1C6B
  8
SAPA_PROFIL
 10
-75.59516230157007
 20
84.914213702178245
 30
0.0
 42
0.1989120000000246
  0
VERTEX
  5
1C6C
  8
SAPA_PROFIL
 10
-75.448715301570047
 20
85.267766702178221
 30
0.0
  0
VERTEX
  5
1C6D
  8
SAPA_PROFIL
 10
-75.448715301570104
 20
88.499999702178215
 30
0.0
 42
0.4142140000000129
  0
VERTEX
  5
1C6E
  8
SAPA_PROFIL
 10
-75.948715301570104
 20
88.999999702178229
 30
0.0
  0
VERTEX
  5
1C6F
  8
SAPA_PROFIL
 10
-82.948715301570104
 20
88.999999702178229
 30
0.0
 42
0.4142140000000128
  0
VERTEX
  5
1C70
  8
SAPA_PROFIL
 10
-83.448715301570104
 20
88.499999702178215
 30
0.0
  0
VERTEX
  5
1C71
  8
SAPA_PROFIL
 10
-83.448715301570047
 20
81.299999702178241
 30
0.0
 42
-0.4142140000000351
  0
VERTEX
  5
1C72
  8
SAPA_PROFIL
 10
-83.748715301570059
 20
80.999999702178215
 30
0.0
  0
VERTEX
  5
1C73
  8
SAPA_PROFIL
 10
-83.910938301570042
 20
80.999999702178215
 30
0.0
 42
-0.3482370000000729
  0
VERTEX
  5
1C74
  8
SAPA_PROFIL
 10
-84.203012301570055
 20
81.231494702178225
 30
0.0
  0
VERTEX
  5
1C75
  8
SAPA_PROFIL
 10
-85.048715301570013
 20
84.837169702178244
 30
0.0
  0
VERTEX
  5
1C76
  8
SAPA_PROFIL
 10
-85.048715301570013
 20
88.499999702178215
 30
0.0
 42
0.4142139999999796
  0
VERTEX
  5
1C77
  8
SAPA_PROFIL
 10
-85.548715301570013
 20
88.999999702178286
 30
0.0
  0
VERTEX
  5
1C78
  8
SAPA_PROFIL
 10
-87.998715301570044
 20
88.999999702178229
 30
0.0
 42
0.414214000000017
  0
VERTEX
  5
1C79
  8
SAPA_PROFIL
 10
-88.498715301570044
 20
88.499999702178215
 30
0.0
 42
-0.4142140000000127
  0
VERTEX
  5
1C7A
  8
SAPA_PROFIL
 10
-88.998715301570044
 20
87.999999702178229
 30
0.0
  0
VERTEX
  5
1C7B
  8
SAPA_PROFIL
 10
-89.998715301570044
 20
87.999999702178229
 30
0.0
 42
-0.414214000000017
  0
VERTEX
  5
1C7C
  8
SAPA_PROFIL
 10
-90.498715301570044
 20
88.499999702178215
 30
0.0
  0
VERTEX
  5
1C7D
  8
SAPA_PROFIL
 10
-90.498715301570044
 20
124.9999997021782
 30
0.0
  0
VERTEX
  5
1C7E
  8
SAPA_PROFIL
 10
-89.998715301570044
 20
125.4999997021782
 30
0.0
  0
VERTEX
  5
1C7F
  8
SAPA_PROFIL
 10
-86.298715301569999
 20
125.4999997021782
 30
0.0
 42
-0.4142139999999863
  0
VERTEX
  5
1C80
  8
SAPA_PROFIL
 10
-85.998715301570044
 20
125.1999997021782
 30
0.0
  0
VERTEX
  5
1C81
  8
SAPA_PROFIL
 10
-85.998715301570044
 20
124.4324557021782
 30
0.0
 42
-0.2896899999999678
  0
VERTEX
  5
1C82
  8
SAPA_PROFIL
 10
-86.570144301570011
 20
123.5289477021782
 30
0.0
 42
-0.5507599999999711
  0
VERTEX
  5
1C83
  8
SAPA_PROFIL
 10
-86.998715301570044
 20
123.7999997021782
 30
0.0
  0
VERTEX
  5
1C84
  8
SAPA_PROFIL
 10
-86.998715301570044
 20
123.9999997021782
 30
0.0
 42
0.4142139999998755
  0
VERTEX
  5
1C85
  8
SAPA_PROFIL
 10
-87.298715301569999
 20
124.2999997021782
 30
0.0
  0
VERTEX
  5
1C86
  8
SAPA_PROFIL
 10
-88.798715301569999
 20
124.2999997021782
 30
0.0
 42
0.4142140000000503
  0
VERTEX
  5
1C87
  8
SAPA_PROFIL
 10
-89.298715301570056
 20
123.7999997021782
 30
0.0
  0
VERTEX
  5
1C88
  8
SAPA_PROFIL
 10
-89.298715301569985
 20
120.4999997021782
 30
0.0
 42
0.4142140000000419
  0
VERTEX
  5
1C89
  8
SAPA_PROFIL
 10
-88.798715301569999
 20
119.9999997021783
 30
0.0
  0
VERTEX
  5
1C8A
  8
SAPA_PROFIL
 10
-87.298715301569999
 20
119.9999997021782
 30
0.0
 42
0.4142139999999794
  0
VERTEX
  5
1C8B
  8
SAPA_PROFIL
 10
-86.998715301570158
 20
120.2999997021782
 30
0.0
  0
VERTEX
  5
1C8C
  8
SAPA_PROFIL
 10
-86.998715301570044
 20
120.4999997021782
 30
0.0
 42
-0.5507599999999436
  0
VERTEX
  5
1C8D
  8
SAPA_PROFIL
 10
-86.570144301570011
 20
120.7710527021782
 30
0.0
 42
-0.2896899999999595
  0
VERTEX
  5
1C8E
  8
SAPA_PROFIL
 10
-85.998715301570044
 20
119.86754470217819
 30
0.0
  0
VERTEX
  5
1C8F
  8
SAPA_PROFIL
 10
-85.998715301570044
 20
118.87007270217821
 30
0.0
 42
-0.0436610000000022
  0
VERTEX
  5
1C90
  8
SAPA_PROFIL
 10
-86.006311301570079
 20
118.7832487021782
 30
0.0
  0
VERTEX
  5
1C91
  8
SAPA_PROFIL
 10
-86.283158301570055
 20
117.21317570217821
 30
0.0
 42
-0.8391000000000101
  0
VERTEX
  5
1C92
  8
SAPA_PROFIL
 10
-87.267965301570044
 20
117.21317570217821
 30
0.0
  0
VERTEX
  5
1C93
  8
SAPA_PROFIL
 10
-87.474911301569989
 20
118.3868247021782
 30
0.0
 42
0.3639700000000376
  0
VERTEX
  5
1C94
  8
SAPA_PROFIL
 10
-87.967315301570096
 20
118.7999997021783
 30
0.0
  0
VERTEX
  5
1C95
  8
SAPA_PROFIL
 10
-88.798715301569999
 20
118.7999997021782
 30
0.0
 42
0.437328000000032
  0
VERTEX
  5
1C96
  8
SAPA_PROFIL
 10
-89.297185301570096
 20
118.26090570217821
 30
0.0
  0
VERTEX
  5
1C97
  8
SAPA_PROFIL
 10
-88.710386301570068
 20
103.7878467021782
 30
0.0
 42
0.4023939999998692
  0
VERTEX
  5
1C98
  8
SAPA_PROFIL
 10
-88.410632301570061
 20
103.4999997021781
 30
0.0
  0
VERTEX
  5
1C99
  8
SAPA_PROFIL
 10
-87.610099301570031
 20
103.4999997021782
 30
0.0
 42
-0.259680999999983
  0
VERTEX
  5
1C9A
  8
SAPA_PROFIL
 10
-87.440068301570051
 20
103.40530670217819
 30
0.0
  0
VERTEX
  5
1C9B
  8
SAPA_PROFIL
 10
-86.543669301570006
 20
101.9579607021782
 30
0.0
 42
-0.5877029999999889
  0
VERTEX
  5
1C9C
  8
SAPA_PROFIL
 10
-86.798715301569985
 20
101.4999997021782
 30
0.0
  0
VERTEX
  5
1C9D
  8
SAPA_PROFIL
 10
-88.198715301570033
 20
101.4999997021782
 30
0.0
 42
0.4142140000000349
  0
VERTEX
  5
1C9E
  8
SAPA_PROFIL
 10
-88.498715301569945
 20
101.1999997021782
 30
0.0
  0
VERTEX
  5
1C9F
  8
SAPA_PROFIL
 10
-88.498715301570044
 20
98.799999702178241
 30
0.0
 42
0.4142140000000349
  0
VERTEX
  5
1CA0
  8
SAPA_PROFIL
 10
-88.198715301570033
 20
98.499999702178116
 30
0.0
  0
VERTEX
  5
1CA1
  8
SAPA_PROFIL
 10
-80.018331301570086
 20
98.499999702178215
 30
0.0
  0
VERTEX
  5
1CA2
  8
SAPA_PROFIL
 10
-79.498715301570044
 20
98.199999702178204
 30
0.0
  0
VERTEX
  5
1CA3
  8
SAPA_PROFIL
 10
-78.979100301570057
 20
98.499999702178215
 30
0.0
  0
VERTEX
  5
1CA4
  8
SAPA_PROFIL
 10
-70.798715301570041
 20
98.499999702178215
 30
0.0
 42
0.4142135623730882
  0
VERTEX
  5
1CA5
  8
SAPA_PROFIL
 10
-70.498715301570044
 20
98.799999702178226
 30
0.0
  0
VERTEX
  5
1CA6
  8
SAPA_PROFIL
 10
-70.498715301570044
 20
101.1999997021782
 30
0.0
 42
0.4142135623730882
  0
VERTEX
  5
1CA7
  8
SAPA_PROFIL
 10
-70.798715301570041
 20
101.4999997021782
 30
0.0
  0
VERTEX
  5
1CA8
  8
SAPA_PROFIL
 10
-72.19871530157009
 20
101.4999997021782
 30
0.0
 42
-0.5877029999999041
  0
VERTEX
  5
1CA9
  8
SAPA_PROFIL
 10
-72.45376230157008
 20
101.9579607021782
 30
0.0
  0
VERTEX
  5
1CAA
  8
SAPA_PROFIL
 10
-71.661230301570072
 20
103.20530670217821
 30
0.0
 42
-0.2596809999999552
  0
VERTEX
  5
1CAB
  8
SAPA_PROFIL
 10
-71.491200301570075
 20
103.2999997021782
 30
0.0
  0
VERTEX
  5
1CAC
  8
SAPA_PROFIL
 10
-68.496549376401489
 20
103.2999997021782
 30
0.0
  0
VERTEX
  5
1CAD
  8
SAPA_PROFIL
 10
-67.175433958967304
 20
102.78937771445619
 30
0.0
 42
0.4142135623730953
  0
VERTEX
  5
1CAE
  8
SAPA_PROFIL
 10
-66.801249003491492
 20
102.9893417589636
 30
0.0
  0
VERTEX
  5
1CAF
  8
SAPA_PROFIL
 10
-66.786730594244389
 20
103.03718750896211
 30
0.0
  0
VERTEX
  5
1CB0
  8
SAPA_PROFIL
 10
-65.283629513482381
 20
103.0372711168457
 30
0.0
 42
-0.4769755326981643
  0
VERTEX
  5
1CB1
  8
SAPA_PROFIL
 10
-64.981376688975914
 20
102.6656142418999
 30
0.0
  0
VERTEX
  5
1CB2
  8
SAPA_PROFIL
 10
-65.36282328510363
 20
100.85238377124161
 30
0.0
 42
-0.2216946626430194
  0
VERTEX
  5
1CB3
  8
SAPA_PROFIL
 10
-65.76863219025843
 20
100.3115039397648
 30
0.0
  0
VERTEX
  5
1CB4
  8
SAPA_PROFIL
 10
-66.053314473490076
 20
100.1593700286561
 30
0.0
 42
-0.5773502691897466
  0
VERTEX
  5
1CB5
  8
SAPA_PROFIL
 10
-66.347470773744874
 20
100.34232376876631
 30
0.0
  0
VERTEX
  5
1CB6
  8
SAPA_PROFIL
 10
-66.336909407517922
 20
100.66408149698449
 30
0.0
  0
VERTEX
  5
1CB7
  8
SAPA_PROFIL
 10
-68.222753099378977
 20
101.74864594395621
 30
0.0
  0
VERTEX
  5
1CB8
  8
SAPA_PROFIL
 10
-68.414136099372683
 20
101.8067195809453
 30
0.0
 42
0.7625858545243257
  0
VERTEX
  5
1CB9
  8
SAPA_PROFIL
 10
-68.598715301570181
 20
101.47639349992831
 30
0.0
  0
SEQEND
  5
1CBA
  8
SAPA_PROFIL
  0
POLYLINE
  5
13C7
  8
SAPA_PROFIL
 66
     1
 10
0.0
 20
0.0
 30
0.0
 70
     1
  0
VERTEX
  5
1CBB
  8
SAPA_PROFIL
 10
-70.198715301570104
 20
90.999999702178215
 30
0.0
  0
VERTEX
  5
1CBC
  8
SAPA_PROFIL
 10
-70.19871530157009
 20
96.499999702178229
 30
0.0
 42
0.4142139999999252
  0
VERTEX
  5
1CBD
  8
SAPA_PROFIL
 10
-70.498715301570044
 20
96.799999702178241
 30
0.0
  0
VERTEX
  5
1CBE
  8
SAPA_PROFIL
 10
-88.498715301570044
 20
96.799999702178241
 30
0.0
 42
0.4142139999998691
  0
VERTEX
  5
1CBF
  8
SAPA_PROFIL
 10
-88.798715301569999
 20
96.499999702178229
 30
0.0
  0
VERTEX
  5
1CC0
  8
SAPA_PROFIL
 10
-88.798715301569999
 20
90.999999702178215
 30
0.0
 42
0.4142135623730951
  0
VERTEX
  5
1CC1
  8
SAPA_PROFIL
 10
-88.498715301570044
 20
90.699999702178204
 30
0.0
  0
VERTEX
  5
1CC2
  8
SAPA_PROFIL
 10
-70.498715301570044
 20
90.699999702178204
 30
0.0
 42
0.4142139999999803
  0
SEQEND
  5
1CC3
  8
SAPA_PROFIL
  0
POLYLINE
  5
13C8
  8
SAPA_PROFIL
 62
     4
 66
     1
 10
0.0
 20
0.0
 30
0.0
  0
VERTEX
  5
1CC4
  8
SAPA_PROFIL
 62
     4
 10
-38.449386179215622
 20
100.59442853806431
 30
0.0
 42
-0.5571646428658034
  0
VERTEX
  5
1CC5
  8
SAPA_PROFIL
 62
     4
 10
-38.986346683352451
 20
99.726709623908746
 30
0.0
  0
VERTEX
  5
1CC6
  8
SAPA_PROFIL
 62
     4
 10
-56.011083919873649
 20
99.726709623909215
 30
0.0
 42
-0.5571645048035741
  0
VERTEX
  5
1CC7
  8
SAPA_PROFIL
 62
     4
 10
-56.548044536834709
 20
100.5944283117754
 30
0.0
  0
VERTEX
  5
1CC8
  8
SAPA_PROFIL
 62
     4
 10
-55.71733744928801
 20
102.2605689678434
 30
0.0
 42
-0.284385813979063
  0
VERTEX
  5
1CC9
  8
SAPA_PROFIL
 62
     4
 10
-55.448857140807661
 20
102.4267096239108
 30
0.0
  0
VERTEX
  5
1CCA
  8
SAPA_PROFIL
 62
     4
 10
-39.548573462418346
 20
102.4267096239108
 30
0.0
 42
-0.2843858139786238
  0
VERTEX
  5
1CCB
  8
SAPA_PROFIL
 62
     4
 10
-39.280093153938061
 20
102.26056896784389
 30
0.0
  0
VERTEX
  5
1CCC
  8
SAPA_PROFIL
 62
     4
 10
-38.4493860663909
 20
100.59442831177449
 30
0.0
  0
SEQEND
  5
1CCD
  8
SAPA_PROFIL
 62
     4
  0
POLYLINE
  5
13C9
  8
SAPA_PROFIL
 62
     4
 66
     1
 10
0.0
 20
0.0
 30
0.0
 70
     1
  0
VERTEX
  5
1CCE
  8
SAPA_PROFIL
 62
     4
 10
-61.91632648628029
 20
102.7835411384084
 30
0.0
  0
VERTEX
  5
1CCF
  8
SAPA_PROFIL
 62
     4
 10
-62.180349764656313
 20
103.1901013344125
 30
0.0
 42
0.2539676464751066
  0
VERTEX
  5
1CD0
  8
SAPA_PROFIL
 62
     4
 10
-62.431950935041023
 20
103.3267096239086
 30
0.0
  0
VERTEX
  5
1CD1
  8
SAPA_PROFIL
 62
     4
 10
-63.813450520246363
 20
103.3267096239086
 30
0.0
 42
0.3152987888790479
  0
VERTEX
  5
1CD2
  8
SAPA_PROFIL
 62
     4
 10
-64.283296830638676
 20
102.9977196955705
 30
0.0
  0
VERTEX
  5
1CD3
  8
SAPA_PROFIL
 62
     4
 10
-65.178965771547283
 20
100.53688950511921
 30
0.0
 42
-0.2694959974287434
  0
VERTEX
  5
1CD4
  8
SAPA_PROFIL
 62
     4
 10
-65.410484817948642
 20
100.34375753077531
 30
0.0
 42
-0.0612686379508233
  0
VERTEX
  5
1CD5
  8
SAPA_PROFIL
 62
     4
 10
-65.703160250801915
 20
100.33017416014479
 30
0.0
  0
VERTEX
  5
1CD6
  8
SAPA_PROFIL
 62
     4
 10
-66.052578428110181
 20
100.128437481416
 30
0.0
 42
-0.5773502691891679
  0
VERTEX
  5
1CD7
  8
SAPA_PROFIL
 62
     4
 10
-66.367578428109766
 20
100.31030281621049
 30
0.0
  0
VERTEX
  5
1CD8
  8
SAPA_PROFIL
 62
     4
 10
-66.367578428109994
 20
100.57741734433679
 30
0.0
  0
VERTEX
  5
1CD9
  8
SAPA_PROFIL
 62
     4
 10
-67.766106128744255
 20
101.3861008056452
 30
0.0
 42
0.1318219888653519
  0
VERTEX
  5
1CDA
  8
SAPA_PROFIL
 62
     4
 10
-67.916279231216606
 20
101.4263932021826
 30
0.0
  0
VERTEX
  5
1CDB
  8
SAPA_PROFIL
 62
     4
 10
-68.098715301653385
 20
101.4263932021762
 30
0.0
 42
0.4142135623724291
  0
VERTEX
  5
1CDC
  8
SAPA_PROFIL
 62
     4
 10
-68.498715301653931
 20
101.02639320217661
 30
0.0
  0
VERTEX
  5
1CDD
  8
SAPA_PROFIL
 62
     4
 10
-68.498715301652567
 20
97.626393202175592
 30
0.0
 42
0.4142135623744271
  0
VERTEX
  5
1CDE
  8
SAPA_PROFIL
 62
     4
 10
-68.098715301653385
 20
97.226393202174606
 30
0.0
  0
VERTEX
  5
1CDF
  8
SAPA_PROFIL
 62
     4
 10
-67.919100059382089
 20
97.226393202173966
 30
0.0
 42
0.1316524975874005
  0
VERTEX
  5
1CE0
  8
SAPA_PROFIL
 62
     4
 10
-67.769100059385266
 20
97.266585581039564
 30
0.0
  0
VERTEX
  5
1CE1
  8
SAPA_PROFIL
 62
     4
 10
-66.164962162383006
 20
98.192735027692081
 30
0.0
 42
-0.1316524975875904
  0
VERTEX
  5
1CE2
  8
SAPA_PROFIL
 62
     4
 10
-65.6649621623813
 20
98.326709623906865
 30
0.0
  0
VERTEX
  5
1CE3
  8
SAPA_PROFIL
 62
     4
 10
-65.248715301653931
 20
98.326709623906865
 30
0.0
 42
-0.4142135623730951
  0
VERTEX
  5
1CE4
  8
SAPA_PROFIL
 62
     4
 10
-64.248715301653931
 20
97.326709623906851
 30
0.0
  0
VERTEX
  5
1CE5
  8
SAPA_PROFIL
 62
     4
 10
-64.248715301653931
 20
94.326709623909565
 30
0.0
 42
0.9999996830128083
  0
VERTEX
  5
1CE6
  8
SAPA_PROFIL
 62
     4
 10
-63.248715301653931
 20
94.32670962390776
 30
0.0
  0
VERTEX
  5
1CE7
  8
SAPA_PROFIL
 62
     4
 10
-63.248715301653931
 20
97.326709623907774
 30
0.0
 42
-0.4142135623730951
  0
VERTEX
  5
1CE8
  8
SAPA_PROFIL
 62
     4
 10
-62.248715301653931
 20
98.326709623907774
 30
0.0
  0
VERTEX
  5
1CE9
  8
SAPA_PROFIL
 62
     4
 10
-32.748715301569348
 20
98.326709623907746
 30
0.0
 42
-0.4142135623730951
  0
VERTEX
  5
1CEA
  8
SAPA_PROFIL
 62
     4
 10
-31.748715301569352
 20
97.326709623907746
 30
0.0
  0
VERTEX
  5
1CEB
  8
SAPA_PROFIL
 62
     4
 10
-31.748715301569352
 20
94.326709623909565
 30
0.0
 42
0.9999999999999998
  0
VERTEX
  5
1CEC
  8
SAPA_PROFIL
 62
     4
 10
-30.748715301569352
 20
94.326709623909565
 30
0.0
  0
VERTEX
  5
1CED
  8
SAPA_PROFIL
 62
     4
 10
-30.748715301569352
 20
97.326709623907746
 30
0.0
 42
-0.4142135623736278
  0
VERTEX
  5
1CEE
  8
SAPA_PROFIL
 62
     4
 10
-29.748715301569352
 20
98.326709623907746
 30
0.0
  0
VERTEX
  5
1CEF
  8
SAPA_PROFIL
 62
     4
 10
-29.332468440842892
 20
98.326709623907746
 30
0.0
 42
-0.1316524975874375
  0
VERTEX
  5
1CF0
  8
SAPA_PROFIL
 62
     4
 10
-28.832468440842689
 20
98.192735027691711
 30
0.0
  0
VERTEX
  5
1CF1
  8
SAPA_PROFIL
 62
     4
 10
-27.228330543840741
 20
97.266585581039536
 30
0.0
 42
0.1316524975874
  0
VERTEX
  5
1CF2
  8
SAPA_PROFIL
 62
     4
 10
-27.078330543841201
 20
97.226393202173966
 30
0.0
  0
VERTEX
  5
1CF3
  8
SAPA_PROFIL
 62
     4
 10
-26.89871530156989
 20
97.226393202174577
 30
0.0
 42
0.4142135623744271
  0
VERTEX
  5
1CF4
  8
SAPA_PROFIL
 62
     4
 10
-26.498715301570709
 20
97.626393202175592
 30
0.0
  0
VERTEX
  5
1CF5
  8
SAPA_PROFIL
 62
     4
 10
-26.498715301569352
 20
101.02639320217661
 30
0.0
 42
0.4142135623724291
  0
VERTEX
  5
1CF6
  8
SAPA_PROFIL
 62
     4
 10
-26.89871530156989
 20
101.4263932021762
 30
0.0
  0
VERTEX
  5
1CF7
  8
SAPA_PROFIL
 62
     4
 10
-27.081151372006669
 20
101.4263932021826
 30
0.0
 42
0.1318219888653524
  0
VERTEX
  5
1CF8
  8
SAPA_PROFIL
 62
     4
 10
-27.23132447447902
 20
101.3861008056452
 30
0.0
  0
VERTEX
  5
1CF9
  8
SAPA_PROFIL
 62
     4
 10
-28.629852174958671
 20
100.57741734442079
 30
0.0
  0
VERTEX
  5
1CFA
  8
SAPA_PROFIL
 62
     4
 10
-28.629852174958671
 20
100.31030281620779
 30
0.0
 42
-0.577350269189159
  0
VERTEX
  5
1CFB
  8
SAPA_PROFIL
 62
     4
 10
-28.944852174958271
 20
100.1284374814132
 30
0.0
  0
VERTEX
  5
1CFC
  8
SAPA_PROFIL
 62
     4
 10
-29.29427035217693
 20
100.33017416009029
 30
0.0
 42
-0.0612687673629489
  0
VERTEX
  5
1CFD
  8
SAPA_PROFIL
 62
     4
 10
-29.586945785277148
 20
100.3437575307766
 30
0.0
 42
-0.2694959974285039
  0
VERTEX
  5
1CFE
  8
SAPA_PROFIL
 62
     4
 10
-29.818464831677669
 20
100.5368895051205
 30
0.0
  0
VERTEX
  5
1CFF
  8
SAPA_PROFIL
 62
     4
 10
-30.714133772587331
 20
102.99771969557359
 30
0.0
 42
0.3152987888784035
  0
VERTEX
  5
1D00
  8
SAPA_PROFIL
 62
     4
 10
-31.183980082980561
 20
103.3267096239102
 30
0.0
  0
VERTEX
  5
1D01
  8
SAPA_PROFIL
 62
     4
 10
-32.565479668184992
 20
103.3267096239086
 30
0.0
 42
0.2539676464741841
  0
VERTEX
  5
1D02
  8
SAPA_PROFIL
 62
     4
 10
-32.817080838569069
 20
103.1901013344133
 30
0.0
  0
VERTEX
  5
1D03
  8
SAPA_PROFIL
 62
     4
 10
-33.08110411694571
 20
102.7835411384084
 30
0.0
 42
0.5862177598324623
  0
VERTEX
  5
1D04
  8
SAPA_PROFIL
 62
     4
 10
-32.825362301707372
 20
102.3267096239119
 30
0.0
  0
VERTEX
  5
1D05
  8
SAPA_PROFIL
 62
     4
 10
-31.884187621197562
 20
102.3267096239195
 30
0.0
 42
-0.3152987888813165
  0
VERTEX
  5
1D06
  8
SAPA_PROFIL
 62
     4
 10
-31.414341310799799
 20
101.9977196955828
 30
0.0
  0
VERTEX
  5
1D07
  8
SAPA_PROFIL
 62
     4
 10
-30.977577029675839
 20
100.7977196955716
 30
0.0
 42
-0.5205670505515651
  0
VERTEX
  5
1D08
  8
SAPA_PROFIL
 62
     4
 10
-31.447423340069061
 20
100.12670962390879
 30
0.0
  0
VERTEX
  5
1D09
  8
SAPA_PROFIL
 62
     4
 10
-36.463864280737923
 20
100.12670962390879
 30
0.0
 42
-0.3702522326300203
  0
VERTEX
  5
1D0A
  8
SAPA_PROFIL
 62
     4
 10
-36.760387642531242
 20
100.38116957657449
 30
0.0
 42
-0.0982365330332397
  0
VERTEX
  5
1D0B
  8
SAPA_PROFIL
 62
     4
 10
-36.850840400742193
 20
102.06885635156949
 30
0.0
 42
-0.3735060174783164
  0
VERTEX
  5
1D0C
  8
SAPA_PROFIL
 62
     4
 10
-36.553815732831211
 20
102.32670962390949
 30
0.0
  0
VERTEX
  5
1D0D
  8
SAPA_PROFIL
 62
     4
 10
-36.125362301708549
 20
102.3267096239105
 30
0.0
 42
0.5920056181162531
  0
VERTEX
  5
1D0E
  8
SAPA_PROFIL
 62
     4
 10
-35.87235354539115
 20
102.7879131264384
 30
0.0
  0
VERTEX
  5
1D0F
  8
SAPA_PROFIL
 62
     4
 10
-36.13353762154685
 20
103.1901013344167
 30
0.0
 42
0.2539676464746725
  0
VERTEX
  5
1D10
  8
SAPA_PROFIL
 62
     4
 10
-36.385138791930622
 20
103.326709623912
 30
0.0
  0
VERTEX
  5
1D11
  8
SAPA_PROFIL
 62
     4
 10
-58.612291811296302
 20
103.3267096239105
 30
0.0
 42
0.2539676464741819
  0
VERTEX
  5
1D12
  8
SAPA_PROFIL
 62
     4
 10
-58.863892981679157
 20
103.1901013344167
 30
0.0
  0
VERTEX
  5
1D13
  8
SAPA_PROFIL
 62
     4
 10
-59.125077057832968
 20
102.7879131264384
 30
0.0
 42
0.5920055144124249
  0
VERTEX
  5
1D14
  8
SAPA_PROFIL
 62
     4
 10
-58.872068301517459
 20
102.3267096239105
 30
0.0
  0
VERTEX
  5
1D15
  8
SAPA_PROFIL
 62
     4
 10
-58.44361482422724
 20
102.3267096491855
 30
0.0
 42
-0.3735060174775405
  0
VERTEX
  5
1D16
  8
SAPA_PROFIL
 62
     4
 10
-58.146590156317551
 20
102.0688563768454
 30
0.0
 42
-0.0355900683670349
  0
VERTEX
  5
1D17
  8
SAPA_PROFIL
 62
     4
 10
-58.102696592285298
 20
101.4529827900456
 30
0.0
 42
-0.0624282003873116
  0
VERTEX
  5
1D18
  8
SAPA_PROFIL
 62
     4
 10
-58.237042914528232
 20
100.3811696018505
 30
0.0
 42
-0.3702522326309292
  0
VERTEX
  5
1D19
  8
SAPA_PROFIL
 62
     4
 10
-58.533566276321622
 20
100.1267096491847
 30
0.0
  0
VERTEX
  5
1D1A
  8
SAPA_PROFIL
 62
     4
 10
-63.55000726315513
 20
100.1267096239086
 30
0.0
 42
-0.5205670505515692
  0
VERTEX
  5
1D1B
  8
SAPA_PROFIL
 62
     4
 10
-64.019853573548346
 20
100.7977196955716
 30
0.0
  0
VERTEX
  5
1D1C
  8
SAPA_PROFIL
 62
     4
 10
-63.583089292423402
 20
101.997719695581
 30
0.0
 42
-0.3152987888807539
  0
VERTEX
  5
1D1D
  8
SAPA_PROFIL
 62
     4
 10
-63.113242982027543
 20
102.3267096239186
 30
0.0
  0
VERTEX
  5
1D1E
  8
SAPA_PROFIL
 62
     4
 10
-62.172068301518451
 20
102.3267096239118
 30
0.0
 42
0.5862175119221242
  0
VERTEX
  5
1D1F
  8
SAPA_PROFIL
 62
     4
 10
-61.916326370536503
 20
102.783540949667
 30
0.0
 42
-0.0000002084758573
  0
SEQEND
  5
1D20
  8
SAPA_PROFIL
 62
     4
  0
POLYLINE
  5
13CA
  8
SAPA_PROFIL
 62
     4
 66
     1
 10
0.0
 20
0.0
 30
0.0
  0
VERTEX
  5
1D21
  8
SAPA_PROFIL
 62
     4
 10
-56.548044424009738
 20
77.705571461867848
 30
0.0
 42
-0.5571646428658034
  0
VERTEX
  5
1D22
  8
SAPA_PROFIL
 62
     4
 10
-56.011083919872881
 20
78.57329037602338
 30
0.0
  0
VERTEX
  5
1D23
  8
SAPA_PROFIL
 62
     4
 10
-38.986346683351677
 20
78.57329037602247
 30
0.0
 42
-0.5571645048035741
  0
VERTEX
  5
1D24
  8
SAPA_PROFIL
 62
     4
 10
-38.449386066390652
 20
77.705571688156283
 30
0.0
  0
VERTEX
  5
1D25
  8
SAPA_PROFIL
 62
     4
 10
-39.280093153937393
 20
76.039431032088274
 30
0.0
 42
-0.284385813979063
  0
VERTEX
  5
1D26
  8
SAPA_PROFIL
 62
     4
 10
-39.54857346241775
 20
75.873290376020847
 30
0.0
  0
VERTEX
  5
1D27
  8
SAPA_PROFIL
 62
     4
 10
-55.448857140807057
 20
75.873290376021274
 30
0.0
 42
-0.2843858139786238
  0
VERTEX
  5
1D28
  8
SAPA_PROFIL
 62
     4
 10
-55.717337449287342
 20
76.039431032088203
 30
0.0
  0
VERTEX
  5
1D29
  8
SAPA_PROFIL
 62
     4
 10
-56.54804453683446
 20
77.705571688157576
 30
0.0
  0
SEQEND
  5
1D2A
  8
SAPA_PROFIL
 62
     4
  0
POLYLINE
  5
13CB
  8
SAPA_PROFIL
 62
     4
 66
     1
 10
0.0
 20
0.0
 30
0.0
 70
     1
  0
VERTEX
  5
1D2B
  8
SAPA_PROFIL
 62
     4
 10
-33.08110411694512
 20
75.516458861523091
 30
0.0
  0
VERTEX
  5
1D2C
  8
SAPA_PROFIL
 62
     4
 10
-32.817080838569119
 20
75.109898665518955
 30
0.0
 42
0.2539676464751066
  0
VERTEX
  5
1D2D
  8
SAPA_PROFIL
 62
     4
 10
-32.565479668184423
 20
74.973290376022845
 30
0.0
  0
VERTEX
  5
1D2E
  8
SAPA_PROFIL
 62
     4
 10
-31.183980082979069
 20
74.973290376022803
 30
0.0
 42
0.3152987888790479
  0
VERTEX
  5
1D2F
  8
SAPA_PROFIL
 62
     4
 10
-30.714133772586749
 20
75.302280304360949
 30
0.0
  0
VERTEX
  5
1D30
  8
SAPA_PROFIL
 62
     4
 10
-29.818464831678082
 20
77.763110494812196
 30
0.0
 42
-0.2694959974287434
  0
VERTEX
  5
1D31
  8
SAPA_PROFIL
 62
     4
 10
-29.586945785276711
 20
77.956242469156081
 30
0.0
 42
-0.0612686379508233
  0
VERTEX
  5
1D32
  8
SAPA_PROFIL
 62
     4
 10
-29.294270352423439
 20
77.969825839786594
 30
0.0
  0
VERTEX
  5
1D33
  8
SAPA_PROFIL
 62
     4
 10
-28.94485217511517
 20
78.171562518515415
 30
0.0
 42
-0.5773502691891679
  0
VERTEX
  5
1D34
  8
SAPA_PROFIL
 62
     4
 10
-28.629852175115591
 20
77.989697183720835
 30
0.0
  0
VERTEX
  5
1D35
  8
SAPA_PROFIL
 62
     4
 10
-28.629852175115349
 20
77.722582655594522
 30
0.0
  0
VERTEX
  5
1D36
  8
SAPA_PROFIL
 62
     4
 10
-27.23132447448112
 20
76.913899194286145
 30
0.0
 42
0.1318219888653519
  0
VERTEX
  5
1D37
  8
SAPA_PROFIL
 62
     4
 10
-27.08115137200878
 20
76.873606797748764
 30
0.0
  0
VERTEX
  5
1D38
  8
SAPA_PROFIL
 62
     4
 10
-26.898715301572
 20
76.87360679775513
 30
0.0
 42
0.4142135623724291
  0
VERTEX
  5
1D39
  8
SAPA_PROFIL
 62
     4
 10
-26.498715301571441
 20
77.273606797754752
 30
0.0
  0
VERTEX
  5
1D3A
  8
SAPA_PROFIL
 62
     4
 10
-26.498715301572709
 20
80.673606797755752
 30
0.0
 42
0.4142135623744271
  0
VERTEX
  5
1D3B
  8
SAPA_PROFIL
 62
     4
 10
-26.89871530157188
 20
81.073606797756767
 30
0.0
  0
VERTEX
  5
1D3C
  8
SAPA_PROFIL
 62
     4
 10
-27.07833054384319
 20
81.073606797757407
 30
0.0
 42
0.1316524975874005
  0
VERTEX
  5
1D3D
  8
SAPA_PROFIL
 62
     4
 10
-27.228330543839999
 20
81.033414418891809
 30
0.0
  0
VERTEX
  5
1D3E
  8
SAPA_PROFIL
 62
     4
 10
-28.83246844084228
 20
80.107264972239335
 30
0.0
 42
-0.1316524975875904
  0
VERTEX
  5
1D3F
  8
SAPA_PROFIL
 62
     4
 10
-29.332468440844
 20
79.973290376024565
 30
0.0
  0
VERTEX
  5
1D40
  8
SAPA_PROFIL
 62
     4
 10
-29.748715301571369
 20
79.973290376024579
 30
0.0
 42
-0.4142135623730951
  0
VERTEX
  5
1D41
  8
SAPA_PROFIL
 62
     4
 10
-30.748715301571341
 20
80.973290376024607
 30
0.0
  0
VERTEX
  5
1D42
  8
SAPA_PROFIL
 62
     4
 10
-30.748715301571259
 20
83.973290376021879
 30
0.0
 42
0.9999996830128083
  0
VERTEX
  5
1D43
  8
SAPA_PROFIL
 62
     4
 10
-31.748715301571259
 20
83.973290376023726
 30
0.0
  0
VERTEX
  5
1D44
  8
SAPA_PROFIL
 62
     4
 10
-31.748715301571341
 20
80.973290376023726
 30
0.0
 42
-0.4142135623730951
  0
VERTEX
  5
1D45
  8
SAPA_PROFIL
 62
     4
 10
-32.748715301571373
 20
79.973290376023755
 30
0.0
  0
VERTEX
  5
1D46
  8
SAPA_PROFIL
 62
     4
 10
-62.248715301655949
 20
79.973290376024551
 30
0.0
 42
-0.4142135623730951
  0
VERTEX
  5
1D47
  8
SAPA_PROFIL
 62
     4
 10
-63.24871530165592
 20
80.973290376024579
 30
0.0
  0
VERTEX
  5
1D48
  8
SAPA_PROFIL
 62
     4
 10
-63.248715301655842
 20
83.97329037602276
 30
0.0
 42
0.9999999999999998
  0
VERTEX
  5
1D49
  8
SAPA_PROFIL
 62
     4
 10
-64.248715301655835
 20
83.973290376022788
 30
0.0
  0
VERTEX
  5
1D4A
  8
SAPA_PROFIL
 62
     4
 10
-64.24871530165592
 20
80.973290376024607
 30
0.0
 42
-0.4142135623736278
  0
VERTEX
  5
1D4B
  8
SAPA_PROFIL
 62
     4
 10
-65.248715301655949
 20
79.973290376024636
 30
0.0
  0
VERTEX
  5
1D4C
  8
SAPA_PROFIL
 62
     4
 10
-65.664962162382409
 20
79.973290376024636
 30
0.0
 42
-0.1316524975874375
  0
VERTEX
  5
1D4D
  8
SAPA_PROFIL
 62
     4
 10
-66.164962162382594
 20
80.107264972240685
 30
0.0
  0
VERTEX
  5
1D4E
  8
SAPA_PROFIL
 62
     4
 10
-67.769100059384527
 20
81.033414418892889
 30
0.0
 42
0.1316524975874
  0
VERTEX
  5
1D4F
  8
SAPA_PROFIL
 62
     4
 10
-67.919100059384078
 20
81.073606797758487
 30
0.0
  0
VERTEX
  5
1D50
  8
SAPA_PROFIL
 62
     4
 10
-68.098715301655375
 20
81.073606797757876
 30
0.0
 42
0.4142135623744271
  0
VERTEX
  5
1D51
  8
SAPA_PROFIL
 62
     4
 10
-68.49871530165457
 20
80.673606797756875
 30
0.0
  0
VERTEX
  5
1D52
  8
SAPA_PROFIL
 62
     4
 10
-68.49871530165602
 20
77.273606797755889
 30
0.0
 42
0.4142135623724291
  0
VERTEX
  5
1D53
  8
SAPA_PROFIL
 62
     4
 10
-68.098715301655488
 20
76.873606797756239
 30
0.0
  0
VERTEX
  5
1D54
  8
SAPA_PROFIL
 62
     4
 10
-67.916279231218709
 20
76.873606797749872
 30
0.0
 42
0.1318219888653524
  0
VERTEX
  5
1D55
  8
SAPA_PROFIL
 62
     4
 10
-67.766106128746372
 20
76.913899194287254
 30
0.0
  0
VERTEX
  5
1D56
  8
SAPA_PROFIL
 62
     4
 10
-66.367578428266683
 20
77.722582655511559
 30
0.0
  0
VERTEX
  5
1D57
  8
SAPA_PROFIL
 62
     4
 10
-66.367578428266683
 20
77.989697183724573
 30
0.0
 42
-0.577350269189159
  0
VERTEX
  5
1D58
  8
SAPA_PROFIL
 62
     4
 10
-66.052578428267083
 20
78.171562518519153
 30
0.0
  0
VERTEX
  5
1D59
  8
SAPA_PROFIL
 62
     4
 10
-65.703160251048416
 20
77.969825839842031
 30
0.0
 42
-0.0612687673629489
  0
VERTEX
  5
1D5A
  8
SAPA_PROFIL
 62
     4
 10
-65.410484817948202
 20
77.956242469155811
 30
0.0
 42
-0.2694959974285039
  0
VERTEX
  5
1D5B
  8
SAPA_PROFIL
 62
     4
 10
-65.178965771547695
 20
77.763110494811855
 30
0.0
  0
VERTEX
  5
1D5C
  8
SAPA_PROFIL
 62
     4
 10
-64.283296830638093
 20
75.302280304358675
 30
0.0
 42
0.3152987888784035
  0
VERTEX
  5
1D5D
  8
SAPA_PROFIL
 62
     4
 10
-63.813450520244878
 20
74.973290376022078
 30
0.0
  0
VERTEX
  5
1D5E
  8
SAPA_PROFIL
 62
     4
 10
-62.43195093504044
 20
74.973290376023641
 30
0.0
 42
0.2539676464741841
  0
VERTEX
  5
1D5F
  8
SAPA_PROFIL
 62
     4
 10
-62.180349764656363
 20
75.109898665518912
 30
0.0
  0
VERTEX
  5
1D60
  8
SAPA_PROFIL
 62
     4
 10
-61.916326486279708
 20
75.516458861523873
 30
0.0
 42
0.5862177598324623
  0
VERTEX
  5
1D61
  8
SAPA_PROFIL
 62
     4
 10
-62.172068301518038
 20
75.973290376020387
 30
0.0
  0
VERTEX
  5
1D62
  8
SAPA_PROFIL
 62
     4
 10
-63.113242982027849
 20
75.973290376012756
 30
0.0
 42
-0.3152987888813165
  0
VERTEX
  5
1D63
  8
SAPA_PROFIL
 62
     4
 10
-63.583089292425598
 20
76.302280304349509
 30
0.0
  0
VERTEX
  5
1D64
  8
SAPA_PROFIL
 62
     4
 10
-64.019853573549526
 20
77.502280304360752
 30
0.0
 42
-0.5205670505515651
  0
VERTEX
  5
1D65
  8
SAPA_PROFIL
 62
     4
 10
-63.550007263156282
 20
78.173290376023473
 30
0.0
  0
VERTEX
  5
1D66
  8
SAPA_PROFIL
 62
     4
 10
-58.533566322487431
 20
78.173290376023374
 30
0.0
 42
-0.3702522326300203
  0
VERTEX
  5
1D67
  8
SAPA_PROFIL
 62
     4
 10
-58.237042960694112
 20
77.918830423357676
 30
0.0
 42
-0.0982365330332397
  0
VERTEX
  5
1D68
  8
SAPA_PROFIL
 62
     4
 10
-58.14659020248321
 20
76.231143648362661
 30
0.0
 42
-0.3735060174783164
  0
VERTEX
  5
1D69
  8
SAPA_PROFIL
 62
     4
 10
-58.4436148703942
 20
75.973290376022632
 30
0.0
  0
VERTEX
  5
1D6A
  8
SAPA_PROFIL
 62
     4
 10
-58.872068301516848
 20
75.973290376021723
 30
0.0
 42
0.5920056181162531
  0
VERTEX
  5
1D6B
  8
SAPA_PROFIL
 62
     4
 10
-59.125077057834261
 20
75.512086873493814
 30
0.0
  0
VERTEX
  5
1D6C
  8
SAPA_PROFIL
 62
     4
 10
-58.863892981678582
 20
75.109898665515502
 30
0.0
 42
0.2539676464746725
  0
VERTEX
  5
1D6D
  8
SAPA_PROFIL
 62
     4
 10
-58.61229181129481
 20
74.973290376020145
 30
0.0
  0
VERTEX
  5
1D6E
  8
SAPA_PROFIL
 62
     4
 10
-36.38513879192913
 20
74.973290376021126
 30
0.0
 42
0.2539676464741819
  0
VERTEX
  5
1D6F
  8
SAPA_PROFIL
 62
     4
 10
-36.133537621546267
 20
75.109898665514891
 30
0.0
  0
VERTEX
  5
1D70
  8
SAPA_PROFIL
 62
     4
 10
-35.87235354539245
 20
75.512086873493217
 30
0.0
 42
0.5920055144124249
  0
VERTEX
  5
1D71
  8
SAPA_PROFIL
 62
     4
 10
-36.125362301707952
 20
75.973290376021112
 30
0.0
  0
VERTEX
  5
1D72
  8
SAPA_PROFIL
 62
     4
 10
-36.553815778998171
 20
75.973290350746126
 30
0.0
 42
-0.3735060174775405
  0
VERTEX
  5
1D73
  8
SAPA_PROFIL
 62
     4
 10
-36.850840446907853
 20
76.231143623086226
 30
0.0
 42
-0.0355900683670349
  0
VERTEX
  5
1D74
  8
SAPA_PROFIL
 62
     4
 10
-36.894734010940091
 20
76.847017209886005
 30
0.0
 42
-0.0624282003873116
  0
VERTEX
  5
1D75
  8
SAPA_PROFIL
 62
     4
 10
-36.760387688697122
 20
77.918830398081127
 30
0.0
 42
-0.3702522326309292
  0
VERTEX
  5
1D76
  8
SAPA_PROFIL
 62
     4
 10
-36.463864326903732
 20
78.173290350746839
 30
0.0
  0
VERTEX
  5
1D77
  8
SAPA_PROFIL
 62
     4
 10
-31.44742334007022
 20
78.173290376022834
 30
0.0
 42
-0.5205670505515692
  0
VERTEX
  5
1D78
  8
SAPA_PROFIL
 62
     4
 10
-30.977577029677018
 20
77.502280304359857
 30
0.0
  0
VERTEX
  5
1D79
  8
SAPA_PROFIL
 62
     4
 10
-31.414341310802001
 20
76.302280304350433
 30
0.0
 42
-0.3152987888807539
  0
VERTEX
  5
1D7A
  8
SAPA_PROFIL
 62
     4
 10
-31.88418762119786
 20
75.973290376012812
 30
0.0
  0
VERTEX
  5
1D7B
  8
SAPA_PROFIL
 62
     4
 10
-32.825362301706953
 20
75.973290376019662
 30
0.0
 42
0.5862175119221242
  0
VERTEX
  5
1D7C
  8
SAPA_PROFIL
 62
     4
 10
-33.081104232688922
 20
75.51645905026453
 30
0.0
 42
-0.0000002084758573
  0
SEQEND
  5
1D7D
  8
SAPA_PROFIL
 62
     4
  0
POLYLINE
  5
13CC
  8
SAPA_PROFIL
 66
     1
 10
0.0
 20
0.0
 30
0.0
 70
     1
  0
VERTEX
  5
1D7E
  8
SAPA_PROFIL
 10
-87.001284576350542
 20
10.699999999890681
 30
0.0
 42
-0.5507604245874563
  0
VERTEX
  5
1D7F
  8
SAPA_PROFIL
 10
-86.572713147767317
 20
10.97105237073364
 30
0.0
 42
-0.2896898632860104
  0
VERTEX
  5
1D80
  8
SAPA_PROFIL
 10
-86.001284576394625
 20
10.06754446785496
 30
0.0
  0
VERTEX
  5
1D81
  8
SAPA_PROFIL
 10
-86.001284576394625
 20
9.2999999998445162
 30
0.0
 42
-0.4142135623901312
  0
VERTEX
  5
1D82
  8
SAPA_PROFIL
 10
-86.301284576412115
 20
8.9999999998445048
 30
0.0
  0
VERTEX
  5
1D83
  8
SAPA_PROFIL
 10
-89.998715427517496
 20
9.0000000000563034
 30
0.0
 42
-0.4142342928453111
  0
VERTEX
  5
1D84
  8
SAPA_PROFIL
 10
-90.498715426235975
 20
9.5000353889557516
 30
0.0
  0
VERTEX
  5
1D85
  8
SAPA_PROFIL
 10
-90.498715169402089
 20
82.499964611043907
 30
0.0
 42
-0.4142342928453111
  0
VERTEX
  5
1D86
  8
SAPA_PROFIL
 10
-89.998715170683624
 20
82.999999999943356
 30
0.0
  0
VERTEX
  5
1D87
  8
SAPA_PROFIL
 10
-86.30128431957823
 20
83.000000000155197
 30
0.0
 42
-0.4142135623901312
  0
VERTEX
  5
1D88
  8
SAPA_PROFIL
 10
-86.001284319560696
 20
82.700000000155143
 30
0.0
  0
VERTEX
  5
1D89
  8
SAPA_PROFIL
 10
-86.001284319560767
 20
81.932455532144701
 30
0.0
 42
-0.2896898632860027
  0
VERTEX
  5
1D8A
  8
SAPA_PROFIL
 10
-86.572712890934113
 20
81.028947629267407
 30
0.0
 42
-0.5507604245874563
  0
VERTEX
  5
1D8B
  8
SAPA_PROFIL
 10
-87.001284319515122
 20
81.30000000010898
 30
0.0
  0
VERTEX
  5
1D8C
  8
SAPA_PROFIL
 10
-87.001284319531777
 20
81.500000000119286
 30
0.0
 42
0.4142135623681295
  0
VERTEX
  5
1D8D
  8
SAPA_PROFIL
 10
-87.301284319544166
 20
81.800000000101804
 30
0.0
  0
VERTEX
  5
1D8E
  8
SAPA_PROFIL
 10
-88.798715170555226
 20
81.800000000042161
 30
0.0
 42
0.4142135623609412
  0
VERTEX
  5
1D8F
  8
SAPA_PROFIL
 10
-89.298715170555226
 20
81.300000000042161
 30
0.0
  0
VERTEX
  5
1D90
  8
SAPA_PROFIL
 10
-89.298715170555226
 20
78.00000000004124
 30
0.0
 42
0.4142135623852489
  0
VERTEX
  5
1D91
  8
SAPA_PROFIL
 10
-88.798715170534479
 20
77.50000000004124
 30
0.0
  0
VERTEX
  5
1D92
  8
SAPA_PROFIL
 10
-87.301284319577661
 20
77.500000000100982
 30
0.0
 42
0.4142135623780607
  0
VERTEX
  5
1D93
  8
SAPA_PROFIL
 10
-87.001284319590042
 20
77.800000000118445
 30
0.0
  0
VERTEX
  5
1D94
  8
SAPA_PROFIL
 10
-87.001284319601126
 20
78.000000000108457
 30
0.0
 42
-0.5507604245840011
  0
VERTEX
  5
1D95
  8
SAPA_PROFIL
 10
-86.572712891048084
 20
78.271052371005524
 30
0.0
 42
-0.2896898633203997
  0
VERTEX
  5
1D96
  8
SAPA_PROFIL
 10
-86.001284319560767
 20
77.367544468072424
 30
0.0
  0
VERTEX
  5
1D97
  8
SAPA_PROFIL
 10
-86.001284319560767
 20
76.326328322680183
 30
0.0
  0
VERTEX
  5
1D98
  8
SAPA_PROFIL
 10
-86.285726613703403
 20
74.713175911178439
 30
0.0
 42
-0.8390996311772029
  0
VERTEX
  5
1D99
  8
SAPA_PROFIL
 10
-87.270534366715623
 20
74.713175911178439
 30
0.0
  0
VERTEX
  5
1D9A
  8
SAPA_PROFIL
 10
-87.477480206297656
 20
75.886824088845458
 30
0.0
 42
0.363970234266201
  0
VERTEX
  5
1D9B
  8
SAPA_PROFIL
 10
-87.969884082803745
 20
76.300000000011948
 30
0.0
  0
VERTEX
  5
1D9C
  8
SAPA_PROFIL
 10
-88.798358715293006
 20
76.300000000011948
 30
0.0
 42
0.426132608942994
  0
VERTEX
  5
1D9D
  8
SAPA_PROFIL
 10
-89.297948262981393
 20
75.779744535551345
 30
0.0
  0
VERTEX
  5
1D9E
  8
SAPA_PROFIL
 10
-88.710385687852224
 20
61.287846721108423
 30
0.0
 42
0.4023941304324702
  0
VERTEX
  5
1D9F
  8
SAPA_PROFIL
 10
-88.410631959239197
 20
60.999999999784819
 30
0.0
  0
VERTEX
  5
1DA0
  8
SAPA_PROFIL
 10
-87.610098740874335
 20
60.999999999784727
 30
0.0
 42
-0.259681233730068
  0
VERTEX
  5
1DA1
  8
SAPA_PROFIL
 10
-87.440067929334276
 20
60.905306804536593
 30
0.0
  0
VERTEX
  5
1DA2
  8
SAPA_PROFIL
 10
-86.543668952092077
 20
59.45796020691251
 30
0.0
 42
-0.5877032589250129
  0
VERTEX
  5
1DA3
  8
SAPA_PROFIL
 10
-86.798715169402129
 20
58.999999999784819
 30
0.0
  0
VERTEX
  5
1DA4
  8
SAPA_PROFIL
 10
-88.198715169402107
 20
58.999999999784791
 30
0.0
 42
0.4142135623731242
  0
VERTEX
  5
1DA5
  8
SAPA_PROFIL
 10
-88.498715169402146
 20
58.699999999784687
 30
0.0
  0
VERTEX
  5
1DA6
  8
SAPA_PROFIL
 10
-88.498715169402146
 20
56.299999999784802
 30
0.0
 42
0.4142135623730951
  0
VERTEX
  5
1DA7
  8
SAPA_PROFIL
 10
-88.198715169402135
 20
55.999999999784819
 30
0.0
  0
VERTEX
  5
1DA8
  8
SAPA_PROFIL
 10
-78.598715169402141
 20
55.999999999784819
 30
0.0
 42
0.4142135623731409
  0
VERTEX
  5
1DA9
  8
SAPA_PROFIL
 10
-78.298715169402129
 20
56.299999999784887
 30
0.0
  0
VERTEX
  5
1DAA
  8
SAPA_PROFIL
 10
-78.298715169402016
 20
60.699999999784808
 30
0.0
 42
-0.414213562373195
  0
VERTEX
  5
1DAB
  8
SAPA_PROFIL
 10
-77.998715169402004
 20
60.999999999784897
 30
0.0
  0
VERTEX
  5
1DAC
  8
SAPA_PROFIL
 10
-76.514627104048799
 20
60.999999999784819
 30
0.0
 42
-0.2596812337301437
  0
VERTEX
  5
1DAD
  8
SAPA_PROFIL
 10
-76.344596292508726
 20
60.905306804536593
 30
0.0
  0
VERTEX
  5
1DAE
  8
SAPA_PROFIL
 10
-75.943668947956951
 20
60.257960206912507
 30
0.0
 42
-0.587703258924989
  0
VERTEX
  5
1DAF
  8
SAPA_PROFIL
 10
-76.198715165267032
 20
59.799999999784802
 30
0.0
  0
VERTEX
  5
1DB0
  8
SAPA_PROFIL
 10
-76.598715169402141
 20
59.799999999784802
 30
0.0
 42
0.4142135623731492
  0
VERTEX
  5
1DB1
  8
SAPA_PROFIL
 10
-76.898715169402152
 20
59.499999999784912
 30
0.0
  0
VERTEX
  5
1DB2
  8
SAPA_PROFIL
 10
-76.898715169402095
 20
56.299999999784802
 30
0.0
 42
0.414213562373195
  0
VERTEX
  5
1DB3
  8
SAPA_PROFIL
 10
-76.598715169402141
 20
55.999999999784819
 30
0.0
  0
VERTEX
  5
1DB4
  8
SAPA_PROFIL
 10
-70.798715169402129
 20
55.999999999784819
 30
0.0
 42
0.4142135623731242
  0
VERTEX
  5
1DB5
  8
SAPA_PROFIL
 10
-70.498715169402161
 20
56.299999999784802
 30
0.0
  0
VERTEX
  5
1DB6
  8
SAPA_PROFIL
 10
-70.498715169402089
 20
58.699999999784687
 30
0.0
 42
0.4142135623730659
  0
VERTEX
  5
1DB7
  8
SAPA_PROFIL
 10
-70.798715169402101
 20
58.999999999784819
 30
0.0
  0
VERTEX
  5
1DB8
  8
SAPA_PROFIL
 10
-72.198715169402107
 20
58.999999999784819
 30
0.0
 42
-0.5920056181179502
  0
VERTEX
  5
1DB9
  8
SAPA_PROFIL
 10
-72.451723925719108
 20
59.461203502311612
 30
0.0
  0
VERTEX
  5
1DBA
  8
SAPA_PROFIL
 10
-71.657670919542525
 20
60.707469001469228
 30
0.0
 42
-0.2562769736732326
  0
VERTEX
  5
1DBB
  8
SAPA_PROFIL
 10
-71.488998415331167
 20
60.799999999784681
 30
0.0
  0
VERTEX
  5
1DBC
  8
SAPA_PROFIL
 10
-68.492731505716051
 20
60.799999999784767
 30
0.0
  0
VERTEX
  5
1DBD
  8
SAPA_PROFIL
 10
-67.175433829480312
 20
60.290853600473639
 30
0.0
 42
0.4142135623730958
  0
VERTEX
  5
1DBE
  8
SAPA_PROFIL
 10
-66.8012488740045
 20
60.490817644981043
 30
0.0
  0
VERTEX
  5
1DBF
  8
SAPA_PROFIL
 10
-66.786730464757397
 20
60.538663394979523
 30
0.0
  0
VERTEX
  5
1DC0
  8
SAPA_PROFIL
 10
-65.283629383995375
 20
60.53874700286314
 30
0.0
 42
-0.4769755326981641
  0
VERTEX
  5
1DC1
  8
SAPA_PROFIL
 10
-64.981376559488922
 20
60.167090127917298
 30
0.0
  0
VERTEX
  5
1DC2
  8
SAPA_PROFIL
 10
-65.362823155616653
 20
58.353859657259051
 30
0.0
 42
-0.2216946626430181
  0
VERTEX
  5
1DC3
  8
SAPA_PROFIL
 10
-65.768632060771438
 20
57.812979825782271
 30
0.0
  0
VERTEX
  5
1DC4
  8
SAPA_PROFIL
 10
-66.053314344003084
 20
57.660845914673502
 30
0.0
 42
-0.5773502691897454
  0
VERTEX
  5
1DC5
  8
SAPA_PROFIL
 10
-66.347470644257896
 20
57.84379965478368
 30
0.0
  0
VERTEX
  5
1DC6
  8
SAPA_PROFIL
 10
-66.33690927803093
 20
58.165557383001918
 30
0.0
  0
VERTEX
  5
1DC7
  8
SAPA_PROFIL
 10
-68.222752969891985
 20
59.250121829973672
 30
0.0
  0
VERTEX
  5
1DC8
  8
SAPA_PROFIL
 10
-68.414135969885706
 20
59.308195466962758
 30
0.0
 42
0.7625858545243255
  0
VERTEX
  5
1DC9
  8
SAPA_PROFIL
 10
-68.598715172083203
 20
58.977869385945752
 30
0.0
 42
-0.2134217652834359
  0
VERTEX
  5
1DCA
  8
SAPA_PROFIL
 10
-68.498715172083081
 20
58.754262588195623
 30
0.0
  0
VERTEX
  5
1DCB
  8
SAPA_PROFIL
 10
-68.498715172083124
 20
54.901476183695621
 30
0.0
 42
0.4142135623730035
  0
VERTEX
  5
1DCC
  8
SAPA_PROFIL
 10
-68.198715172083126
 20
54.601476183695603
 30
0.0
  0
VERTEX
  5
1DCD
  8
SAPA_PROFIL
 10
-67.898715172083087
 20
54.601476183695603
 30
0.0
  0
VERTEX
  5
1DCE
  8
SAPA_PROFIL
 10
-66.298715172083163
 20
55.525236614398978
 30
0.0
 42
-0.5773502691897307
  0
VERTEX
  5
1DCF
  8
SAPA_PROFIL
 10
-65.998715172083081
 20
55.352031533642112
 30
0.0
  0
VERTEX
  5
1DD0
  8
SAPA_PROFIL
 10
-65.998715172083109
 20
53.966390887587011
 30
0.0
 42
-0.2679491924311169
  0
VERTEX
  5
1DD1
  8
SAPA_PROFIL
 10
-66.498715172083081
 20
53.100365483802619
 30
0.0
  0
VERTEX
  5
1DD2
  8
SAPA_PROFIL
 10
-68.248715169470273
 20
52.090002514229212
 30
0.0
 42
0.2679491924311239
  0
VERTEX
  5
1DD3
  8
SAPA_PROFIL
 10
-68.498715169470273
 20
51.656989812337002
 30
0.0
  0
VERTEX
  5
1DD4
  8
SAPA_PROFIL
 10
-68.498715169470273
 20
40.343010188113979
 30
0.0
 42
0.2679491924311547
  0
VERTEX
  5
1DD5
  8
SAPA_PROFIL
 10
-68.248715169470216
 20
39.909997486221719
 30
0.0
  0
VERTEX
  5
1DD6
  8
SAPA_PROFIL
 10
-66.498715172083095
 20
38.89963451664849
 30
0.0
 42
-0.2679491924311272
  0
VERTEX
  5
1DD7
  8
SAPA_PROFIL
 10
-65.998715172083081
 20
38.033609112864042
 30
0.0
  0
VERTEX
  5
1DD8
  8
SAPA_PROFIL
 10
-65.998715172083038
 20
36.647968466809061
 30
0.0
 42
-0.5773502691897177
  0
VERTEX
  5
1DD9
  8
SAPA_PROFIL
 10
-66.298715172083178
 20
36.47476338605216
 30
0.0
  0
VERTEX
  5
1DDA
  8
SAPA_PROFIL
 10
-67.898715172083087
 20
37.398523816755443
 30
0.0
  0
VERTEX
  5
1DDB
  8
SAPA_PROFIL
 10
-68.198715172083126
 20
37.398523816755443
 30
0.0
 42
0.4142135623730951
  0
VERTEX
  5
1DDC
  8
SAPA_PROFIL
 10
-68.498715172083124
 20
37.098523816755453
 30
0.0
  0
VERTEX
  5
1DDD
  8
SAPA_PROFIL
 10
-68.498715172083081
 20
33.245737412255551
 30
0.0
 42
-0.2134217652834361
  0
VERTEX
  5
1DDE
  8
SAPA_PROFIL
 10
-68.598715172083175
 20
33.022130614505457
 30
0.0
 42
0.7625858545243255
  0
VERTEX
  5
1DDF
  8
SAPA_PROFIL
 10
-68.41413596988572
 20
32.69180453348843
 30
0.0
  0
VERTEX
  5
1DE0
  8
SAPA_PROFIL
 10
-68.222752969891999
 20
32.749878170477523
 30
0.0
  0
VERTEX
  5
1DE1
  8
SAPA_PROFIL
 10
-66.336909278030944
 20
33.834442617449263
 30
0.0
  0
VERTEX
  5
1DE2
  8
SAPA_PROFIL
 10
-66.347470644257925
 20
34.156200345667543
 30
0.0
 42
-0.5773502691897453
  0
VERTEX
  5
1DE3
  8
SAPA_PROFIL
 10
-66.053314344003084
 20
34.339154085777693
 30
0.0
  0
VERTEX
  5
1DE4
  8
SAPA_PROFIL
 10
-65.768632060771452
 20
34.187020174668923
 30
0.0
 42
-0.2216946626430179
  0
VERTEX
  5
1DE5
  8
SAPA_PROFIL
 10
-65.362823155616653
 20
33.646140343192137
 30
0.0
  0
VERTEX
  5
1DE6
  8
SAPA_PROFIL
 10
-64.981376559488936
 20
31.832909872533911
 30
0.0
 42
-0.4769755326981641
  0
VERTEX
  5
1DE7
  8
SAPA_PROFIL
 10
-65.283629383995404
 20
31.461252997588009
 30
0.0
  0
VERTEX
  5
1DE8
  8
SAPA_PROFIL
 10
-66.786730464757412
 20
31.461336605471669
 30
0.0
  0
VERTEX
  5
1DE9
  8
SAPA_PROFIL
 10
-66.801248874004514
 20
31.509182355470148
 30
0.0
 42
0.4142135623730953
  0
VERTEX
  5
1DEA
  8
SAPA_PROFIL
 10
-67.175433829480326
 20
31.709146399977548
 30
0.0
  0
VERTEX
  5
1DEB
  8
SAPA_PROFIL
 10
-68.492731505716179
 20
31.20000000066636
 30
0.0
  0
VERTEX
  5
1DEC
  8
SAPA_PROFIL
 10
-71.488998415331096
 20
31.200000000666371
 30
0.0
 42
-0.2562769736732409
  0
VERTEX
  5
1DED
  8
SAPA_PROFIL
 10
-71.657670919542426
 20
31.292530998981821
 30
0.0
  0
VERTEX
  5
1DEE
  8
SAPA_PROFIL
 10
-72.451723925719165
 20
32.538796498139533
 30
0.0
 42
-0.592005618117916
  0
VERTEX
  5
1DEF
  8
SAPA_PROFIL
 10
-72.198715169402121
 20
33.000000000666347
 30
0.0
  0
VERTEX
  5
1DF0
  8
SAPA_PROFIL
 10
-70.798715169402115
 20
33.00000000066634
 30
0.0
 42
0.4142135623730951
  0
VERTEX
  5
1DF1
  8
SAPA_PROFIL
 10
-70.498715169402104
 20
33.300000000666437
 30
0.0
  0
VERTEX
  5
1DF2
  8
SAPA_PROFIL
 10
-70.498715169402175
 20
35.700000000666329
 30
0.0
 42
0.4142135623731242
  0
VERTEX
  5
1DF3
  8
SAPA_PROFIL
 10
-70.798715169402129
 20
36.00000000066634
 30
0.0
  0
VERTEX
  5
1DF4
  8
SAPA_PROFIL
 10
-76.598715169402155
 20
36.000000000666383
 30
0.0
 42
0.4142135623731866
  0
VERTEX
  5
1DF5
  8
SAPA_PROFIL
 10
-76.898715169402109
 20
35.700000000666343
 30
0.0
  0
VERTEX
  5
1DF6
  8
SAPA_PROFIL
 10
-76.898715169402166
 20
32.50000000066624
 30
0.0
 42
0.4142135623731492
  0
VERTEX
  5
1DF7
  8
SAPA_PROFIL
 10
-76.598715169402155
 20
32.200000000666343
 30
0.0
  0
VERTEX
  5
1DF8
  8
SAPA_PROFIL
 10
-76.198715165267046
 20
32.200000000666307
 30
0.0
 42
-0.5877032589250028
  0
VERTEX
  5
1DF9
  8
SAPA_PROFIL
 10
-75.943668947956994
 20
31.74203979353862
 30
0.0
  0
VERTEX
  5
1DFA
  8
SAPA_PROFIL
 10
-76.344596292508754
 20
31.09469319591458
 30
0.0
 42
-0.259681233730169
  0
VERTEX
  5
1DFB
  8
SAPA_PROFIL
 10
-76.514627104048813
 20
31.000000000666351
 30
0.0
  0
VERTEX
  5
1DFC
  8
SAPA_PROFIL
 10
-77.998715169402018
 20
31.00000000066629
 30
0.0
 42
-0.4142135623730951
  0
VERTEX
  5
1DFD
  8
SAPA_PROFIL
 10
-78.298715169401973
 20
31.300000000666252
 30
0.0
  0
VERTEX
  5
1DFE
  8
SAPA_PROFIL
 10
-78.298715169402143
 20
35.700000000666222
 30
0.0
 42
0.414213562373041
  0
VERTEX
  5
1DFF
  8
SAPA_PROFIL
 10
-78.598715169402155
 20
36.000000000666347
 30
0.0
  0
VERTEX
  5
1E00
  8
SAPA_PROFIL
 10
-88.198715169402149
 20
36.000000000666347
 30
0.0
 42
0.4142135623730951
  0
VERTEX
  5
1E01
  8
SAPA_PROFIL
 10
-88.498715169402175
 20
35.700000000666343
 30
0.0
  0
VERTEX
  5
1E02
  8
SAPA_PROFIL
 10
-88.498715169402175
 20
33.300000000666437
 30
0.0
 42
0.4142135623730951
  0
VERTEX
  5
1E03
  8
SAPA_PROFIL
 10
-88.198715169402149
 20
33.000000000666347
 30
0.0
  0
VERTEX
  5
1E04
  8
SAPA_PROFIL
 10
-86.798715169402143
 20
33.000000000666319
 30
0.0
 42
-0.5877032589250129
  0
VERTEX
  5
1E05
  8
SAPA_PROFIL
 10
-86.543668952092091
 20
32.542039793538642
 30
0.0
  0
VERTEX
  5
1E06
  8
SAPA_PROFIL
 10
-87.440067929334234
 20
31.09469319591452
 30
0.0
 42
-0.2596812337301122
  0
VERTEX
  5
1E07
  8
SAPA_PROFIL
 10
-87.610098740874363
 20
31.000000000666351
 30
0.0
  0
VERTEX
  5
1E08
  8
SAPA_PROFIL
 10
-88.41063195923924
 20
31.000000000666351
 30
0.0
 42
0.4023941304324539
  0
VERTEX
  5
1E09
  8
SAPA_PROFIL
 10
-88.710385687852295
 20
30.71215327934274
 30
0.0
  0
VERTEX
  5
1E0A
  8
SAPA_PROFIL
 10
-89.297184707692864
 20
16.239094457311719
 30
0.0
 42
0.4373282586284287
  0
VERTEX
  5
1E0B
  8
SAPA_PROFIL
 10
-88.798715427389084
 20
15.69999999998771
 30
0.0
  0
VERTEX
  5
1E0C
  8
SAPA_PROFIL
 10
-87.96988433963763
 20
15.69999999998771
 30
0.0
 42
0.363970234266201
  0
VERTEX
  5
1E0D
  8
SAPA_PROFIL
 10
-87.477480463131528
 20
16.113175911154201
 30
0.0
  0
VERTEX
  5
1E0E
  8
SAPA_PROFIL
 10
-87.270534623549494
 20
17.28682408882122
 30
0.0
 42
-0.8390996311772029
  0
VERTEX
  5
1E0F
  8
SAPA_PROFIL
 10
-86.285726870537289
 20
17.28682408882122
 30
0.0
  0
VERTEX
  5
1E10
  8
SAPA_PROFIL
 10
-86.001284576394625
 20
15.67367167731947
 30
0.0
  0
VERTEX
  5
1E11
  8
SAPA_PROFIL
 10
-86.001284576394795
 20
14.63245553192726
 30
0.0
 42
-0.2896898633203997
  0
VERTEX
  5
1E12
  8
SAPA_PROFIL
 10
-86.572713147881785
 20
13.728947628993749
 30
0.0
 42
-0.5507604245840011
  0
VERTEX
  5
1E13
  8
SAPA_PROFIL
 10
-87.001284576435566
 20
13.9999999998912
 30
0.0
  0
VERTEX
  5
1E14
  8
SAPA_PROFIL
 10
-87.001284576423899
 20
14.199999999881211
 30
0.0
 42
0.4142135623780607
  0
VERTEX
  5
1E15
  8
SAPA_PROFIL
 10
-87.301284576411533
 20
14.49999999989868
 30
0.0
  0
VERTEX
  5
1E16
  8
SAPA_PROFIL
 10
-88.798715427368336
 20
14.499999999958421
 30
0.0
 42
0.4142135623852489
  0
VERTEX
  5
1E17
  8
SAPA_PROFIL
 10
-89.298715427389098
 20
13.999999999958421
 30
0.0
  0
VERTEX
  5
1E18
  8
SAPA_PROFIL
 10
-89.298715427389098
 20
10.6999999999575
 30
0.0
 42
0.4142135623609412
  0
VERTEX
  5
1E19
  8
SAPA_PROFIL
 10
-88.798715427389084
 20
10.1999999999575
 30
0.0
  0
VERTEX
  5
1E1A
  8
SAPA_PROFIL
 10
-87.301284576378052
 20
10.199999999897869
 30
0.0
 42
0.4142135623681295
  0
VERTEX
  5
1E1B
  8
SAPA_PROFIL
 10
-87.001284576365634
 20
10.499999999880369
 30
0.0
  0
SEQEND
  5
1E1C
  8
SAPA_PROFIL
  0
POLYLINE
  5
13CD
  8
SAPA_PROFIL
 66
     1
 10
0.0
 20
0.0
 30
0.0
 70
     1
  0
VERTEX
  5
1E1D
  8
SAPA_PROFIL
 10
-88.798715167492503
 20
50.099999999842822
 30
0.0
  0
VERTEX
  5
1E1E
  8
SAPA_PROFIL
 10
-88.798715174175598
 20
41.900000000724582
 30
0.0
 42
0.4142135624581968
  0
VERTEX
  5
1E1F
  8
SAPA_PROFIL
 10
-88.598715174175567
 20
41.700000000666449
 30
0.0
  0
VERTEX
  5
1E20
  8
SAPA_PROFIL
 10
-88.498715172699747
 20
41.700000000666449
 30
0.0
 42
-0.4142135624945166
  0
VERTEX
  5
1E21
  8
SAPA_PROFIL
 10
-88.19871517269975
 20
41.400000000542057
 30
0.0
  0
VERTEX
  5
1E22
  8
SAPA_PROFIL
 10
-88.198715173280121
 20
40.000000000542059
 30
0.0
 42
-0.4142135622516735
  0
VERTEX
  5
1E23
  8
SAPA_PROFIL
 10
-88.498715173280104
 20
39.700000000666449
 30
0.0
  0
VERTEX
  5
1E24
  8
SAPA_PROFIL
 10
-88.59871517348283
 20
39.700000000666449
 30
0.0
 42
0.4142135622584164
  0
VERTEX
  5
1E25
  8
SAPA_PROFIL
 10
-88.798715173482805
 20
39.500000000744762
 30
0.0
  0
VERTEX
  5
1E26
  8
SAPA_PROFIL
 10
-88.798715174109333
 20
38.000000000783899
 30
0.0
 42
0.4142135624877821
  0
VERTEX
  5
1E27
  8
SAPA_PROFIL
 10
-88.498715174109336
 20
37.700000000666449
 30
0.0
  0
VERTEX
  5
1E28
  8
SAPA_PROFIL
 10
-70.49871516366764
 20
37.700000000666407
 30
0.0
 42
0.4142135623730784
  0
VERTEX
  5
1E29
  8
SAPA_PROFIL
 10
-70.198715163667615
 20
38.000000000666418
 30
0.0
  0
VERTEX
  5
1E2A
  8
SAPA_PROFIL
 10
-70.1987151636676
 20
39.500000000666461
 30
0.0
 42
0.4142135623730951
  0
VERTEX
  5
1E2B
  8
SAPA_PROFIL
 10
-70.398715163667617
 20
39.700000000666442
 30
0.0
  0
VERTEX
  5
1E2C
  8
SAPA_PROFIL
 10
-70.498715163667612
 20
39.700000000666442
 30
0.0
 42
-0.4142135623730951
  0
VERTEX
  5
1E2D
  8
SAPA_PROFIL
 10
-70.798715163667595
 20
40.000000000666418
 30
0.0
  0
VERTEX
  5
1E2E
  8
SAPA_PROFIL
 10
-70.798715163667609
 20
41.400000000666431
 30
0.0
 42
-0.4142135623730951
  0
VERTEX
  5
1E2F
  8
SAPA_PROFIL
 10
-70.498715163667612
 20
41.700000000666442
 30
0.0
  0
VERTEX
  5
1E30
  8
SAPA_PROFIL
 10
-70.398715163667646
 20
41.700000000666442
 30
0.0
 42
0.4142135623730701
  0
VERTEX
  5
1E31
  8
SAPA_PROFIL
 10
-70.198715163667615
 20
41.900000000666431
 30
0.0
  0
VERTEX
  5
1E32
  8
SAPA_PROFIL
 10
-70.198715163667615
 20
50.099999999784721
 30
0.0
 42
0.4142135623730951
  0
VERTEX
  5
1E33
  8
SAPA_PROFIL
 10
-70.398715163667646
 20
50.29999999978471
 30
0.0
  0
VERTEX
  5
1E34
  8
SAPA_PROFIL
 10
-70.498715163667612
 20
50.29999999978471
 30
0.0
 42
-0.4142135623730951
  0
VERTEX
  5
1E35
  8
SAPA_PROFIL
 10
-70.798715163667595
 20
50.599999999784721
 30
0.0
  0
VERTEX
  5
1E36
  8
SAPA_PROFIL
 10
-70.798715163667609
 20
51.999999999784727
 30
0.0
 42
-0.4142135623730576
  0
VERTEX
  5
1E37
  8
SAPA_PROFIL
 10
-70.498715163667669
 20
52.299999999784781
 30
0.0
  0
VERTEX
  5
1E38
  8
SAPA_PROFIL
 10
-70.398715163667575
 20
52.299999999784781
 30
0.0
 42
0.4142135623730326
  0
VERTEX
  5
1E39
  8
SAPA_PROFIL
 10
-70.1987151636676
 20
52.499999999784762
 30
0.0
  0
VERTEX
  5
1E3A
  8
SAPA_PROFIL
 10
-70.198715163667615
 20
53.999999999784698
 30
0.0
 42
0.4142135623730951
  0
VERTEX
  5
1E3B
  8
SAPA_PROFIL
 10
-70.498715163667626
 20
54.299999999784688
 30
0.0
  0
VERTEX
  5
1E3C
  8
SAPA_PROFIL
 10
-88.498715174109321
 20
54.299999999784717
 30
0.0
 42
0.4142135624877821
  0
VERTEX
  5
1E3D
  8
SAPA_PROFIL
 10
-88.798715174109304
 20
53.999999999667232
 30
0.0
  0
VERTEX
  5
1E3E
  8
SAPA_PROFIL
 10
-88.798715173482805
 20
52.499999999706397
 30
0.0
 42
0.4142135622584081
  0
VERTEX
  5
1E3F
  8
SAPA_PROFIL
 10
-88.598715173482816
 20
52.29999999978471
 30
0.0
  0
VERTEX
  5
1E40
  8
SAPA_PROFIL
 10
-88.498715173280104
 20
52.29999999978471
 30
0.0
 42
-0.4142135622516652
  0
VERTEX
  5
1E41
  8
SAPA_PROFIL
 10
-88.198715173280107
 20
51.999999999909072
 30
0.0
  0
VERTEX
  5
1E42
  8
SAPA_PROFIL
 10
-88.198715172699735
 20
50.599999999909102
 30
0.0
 42
-0.4142135624945249
  0
VERTEX
  5
1E43
  8
SAPA_PROFIL
 10
-88.498715172699718
 20
50.29999999978471
 30
0.0
  0
VERTEX
  5
1E44
  8
SAPA_PROFIL
 10
-88.598715167492514
 20
50.29999999978471
 30
0.0
 42
0.4142135622879767
  0
SEQEND
  5
1E45
  8
SAPA_PROFIL
  0
POLYLINE
  5
13CE
  8
SAPA_PROFIL
 66
     1
 10
0.0
 20
0.0
 30
0.0
 70
     1
  0
VERTEX
  5
1E46
  8
SAPA_PROFIL
 10
-26.498715297776219
 20
51.655513627132521
 30
0.0
 42
0.267949192431007
  0
VERTEX
  5
1E47
  8
SAPA_PROFIL
 10
-26.748715297776219
 20
52.08852632902456
 30
0.0
  0
VERTEX
  5
1E48
  8
SAPA_PROFIL
 10
-28.49871529777667
 20
53.098889300106599
 30
0.0
 42
-0.2679491924311281
  0
VERTEX
  5
1E49
  8
SAPA_PROFIL
 10
-28.99871529777667
 20
53.964914703891132
 30
0.0
  0
VERTEX
  5
1E4A
  8
SAPA_PROFIL
 10
-28.998715297776439
 20
55.35055534994612
 30
0.0
 42
-0.57735026918954
  0
VERTEX
  5
1E4B
  8
SAPA_PROFIL
 10
-28.698715297776491
 20
55.523760430702922
 30
0.0
  0
VERTEX
  5
1E4C
  8
SAPA_PROFIL
 10
-27.09871529777681
 20
54.599999999999753
 30
0.0
  0
VERTEX
  5
1E4D
  8
SAPA_PROFIL
 10
-26.798715297776621
 20
54.599999999999753
 30
0.0
 42
0.41421356237306
  0
VERTEX
  5
1E4E
  8
SAPA_PROFIL
 10
-26.498715297776439
 20
54.899999999999942
 30
0.0
  0
VERTEX
  5
1E4F
  8
SAPA_PROFIL
 10
-26.498715297776439
 20
58.752786404499453
 30
0.0
 42
-0.2036002236709541
  0
VERTEX
  5
1E50
  8
SAPA_PROFIL
 10
-26.40699016481264
 20
58.96870671331984
 30
0.0
 42
0.8292414158604859
  0
VERTEX
  5
1E51
  8
SAPA_PROFIL
 10
-26.603123453344072
 20
59.30070234633952
 30
0.0
  0
VERTEX
  5
1E52
  8
SAPA_PROFIL
 10
-26.774677499967972
 20
59.248645646277822
 30
0.0
  0
VERTEX
  5
1E53
  8
SAPA_PROFIL
 10
-28.660521191828789
 20
58.164081199305961
 30
0.0
  0
VERTEX
  5
1E54
  8
SAPA_PROFIL
 10
-28.64995982560206
 20
57.842323471087937
 30
0.0
 42
-0.5773502691894565
  0
VERTEX
  5
1E55
  8
SAPA_PROFIL
 10
-28.944116125856649
 20
57.659369730977538
 30
0.0
  0
VERTEX
  5
1E56
  8
SAPA_PROFIL
 10
-29.22879840908783
 20
57.811503642085732
 30
0.0
 42
-0.2216946626431577
  0
VERTEX
  5
1E57
  8
SAPA_PROFIL
 10
-29.634607314243091
 20
58.352383473563201
 30
0.0
  0
VERTEX
  5
1E58
  8
SAPA_PROFIL
 10
-30.0160539103708
 20
60.165613944221001
 30
0.0
 42
-0.4757248385987928
  0
VERTEX
  5
1E59
  8
SAPA_PROFIL
 10
-29.715057819912971
 20
60.537270889071202
 30
0.0
  0
VERTEX
  5
1E5A
  8
SAPA_PROFIL
 10
-28.210700005102321
 20
60.537187211283559
 30
0.0
  0
VERTEX
  5
1E5B
  8
SAPA_PROFIL
 10
-28.196181595854998
 20
60.489341461285072
 30
0.0
 42
0.4580511809928869
  0
VERTEX
  5
1E5C
  8
SAPA_PROFIL
 10
-27.780801213305921
 20
60.305273745632199
 30
0.0
  0
VERTEX
  5
1E5D
  8
SAPA_PROFIL
 10
-26.49871529777667
 20
60.799999999999578
 30
0.0
  0
VERTEX
  5
1E5E
  8
SAPA_PROFIL
 10
-23.486230964268291
 20
60.799999999999578
 30
0.0
 42
-0.2596812337301257
  0
VERTEX
  5
1E5F
  8
SAPA_PROFIL
 10
-23.316200152728221
 20
60.705306804751523
 30
0.0
  0
VERTEX
  5
1E60
  8
SAPA_PROFIL
 10
-22.54366908365861
 20
59.457960207127442
 30
0.0
 42
-0.5877032589249617
  0
VERTEX
  5
1E61
  8
SAPA_PROFIL
 10
-22.79871530096873
 20
58.999999999999851
 30
0.0
  0
VERTEX
  5
1E62
  8
SAPA_PROFIL
 10
-24.232894087359199
 20
58.999999999999851
 30
0.0
 42
0.4683749459842228
  0
VERTEX
  5
1E63
  8
SAPA_PROFIL
 10
-24.498715300968769
 20
58.699999999999669
 30
0.0
  0
VERTEX
  5
1E64
  8
SAPA_PROFIL
 10
-24.498715300968541
 20
56.300000000000033
 30
0.0
 42
0.4683749459847173
  0
VERTEX
  5
1E65
  8
SAPA_PROFIL
 10
-24.232894087358972
 20
55.999999999999851
 30
0.0
  0
VERTEX
  5
1E66
  8
SAPA_PROFIL
 10
-18.398715300968629
 20
55.999999999999837
 30
0.0
  0
VERTEX
  5
1E67
  8
SAPA_PROFIL
 10
-16.398715300968629
 20
55.999999999999837
 30
0.0
  0
VERTEX
  5
1E68
  8
SAPA_PROFIL
 10
-6.7987153009687322
 20
55.999999999999829
 30
0.0
 42
0.4142135623730951
  0
VERTEX
  5
1E69
  8
SAPA_PROFIL
 10
-6.4987153009687768
 20
56.299999999999557
 30
0.0
  0
VERTEX
  5
1E6A
  8
SAPA_PROFIL
 10
-6.498715300968775
 20
58.699999999999648
 30
0.0
 42
0.4142135623730951
  0
VERTEX
  5
1E6B
  8
SAPA_PROFIL
 10
-6.7987153009687296
 20
58.999999999999837
 30
0.0
  0
VERTEX
  5
1E6C
  8
SAPA_PROFIL
 10
-8.1987153009688232
 20
58.999999999999837
 30
0.0
 42
-0.5877032589248625
  0
VERTEX
  5
1E6D
  8
SAPA_PROFIL
 10
-8.4537615182787018
 20
59.457960207127442
 30
0.0
  0
VERTEX
  5
1E6E
  8
SAPA_PROFIL
 10
-7.557362541036559
 20
60.905306804751334
 30
0.0
 42
-0.2596812337300832
  0
VERTEX
  5
1E6F
  8
SAPA_PROFIL
 10
-7.3873317294964851
 20
60.999999999999829
 30
0.0
  0
VERTEX
  5
1E70
  8
SAPA_PROFIL
 10
-4.6987152978190121
 20
60.999999999999829
 30
0.0
 42
-0.4142135623731107
  0
VERTEX
  5
1E71
  8
SAPA_PROFIL
 10
-4.4987152978189684
 20
60.799999999999557
 30
0.0
  0
VERTEX
  5
1E72
  8
SAPA_PROFIL
 10
-4.4987152978189844
 20
31.199999999999658
 30
0.0
 42
-0.4142135623730273
  0
VERTEX
  5
1E73
  8
SAPA_PROFIL
 10
-4.698715297819029
 20
30.99999999999984
 30
0.0
  0
VERTEX
  5
1E74
  8
SAPA_PROFIL
 10
-7.3873317294967311
 20
30.99999999999984
 30
0.0
 42
-0.2596812337302099
  0
VERTEX
  5
1E75
  8
SAPA_PROFIL
 10
-7.5573625410368042
 20
31.094693195247899
 30
0.0
  0
VERTEX
  5
1E76
  8
SAPA_PROFIL
 10
-8.4537615182789452
 20
32.54203979287179
 30
0.0
 42
-0.5877032589250762
  0
VERTEX
  5
1E77
  8
SAPA_PROFIL
 10
-8.1987153009688374
 20
32.999999999999851
 30
0.0
  0
VERTEX
  5
1E78
  8
SAPA_PROFIL
 10
-6.7987153009687438
 20
32.999999999999851
 30
0.0
 42
0.4142135623730951
  0
VERTEX
  5
1E79
  8
SAPA_PROFIL
 10
-6.4987153009687901
 20
33.299999999999571
 30
0.0
  0
VERTEX
  5
1E7A
  8
SAPA_PROFIL
 10
-6.4987153009687901
 20
35.699999999999662
 30
0.0
 42
0.4142135623730951
  0
VERTEX
  5
1E7B
  8
SAPA_PROFIL
 10
-6.798715300968742
 20
35.999999999999837
 30
0.0
  0
VERTEX
  5
1E7C
  8
SAPA_PROFIL
 10
-16.39871530096887
 20
35.999999999999837
 30
0.0
  0
VERTEX
  5
1E7D
  8
SAPA_PROFIL
 10
-18.39871530096887
 20
35.999999999999837
 30
0.0
  0
VERTEX
  5
1E7E
  8
SAPA_PROFIL
 10
-24.232894087358531
 20
35.999999999999837
 30
0.0
 42
0.4683749459843959
  0
VERTEX
  5
1E7F
  8
SAPA_PROFIL
 10
-24.498715300968779
 20
35.700000000000117
 30
0.0
  0
VERTEX
  5
1E80
  8
SAPA_PROFIL
 10
-24.498715300968779
 20
33.299999999999571
 30
0.0
 42
0.4683749459842226
  0
VERTEX
  5
1E81
  8
SAPA_PROFIL
 10
-24.23289408735922
 20
32.999999999999851
 30
0.0
  0
VERTEX
  5
1E82
  8
SAPA_PROFIL
 10
-22.798715300968968
 20
32.999999999999851
 30
0.0
 42
-0.5877032589249771
  0
VERTEX
  5
1E83
  8
SAPA_PROFIL
 10
-22.543669083658859
 20
32.54203979287179
 30
0.0
  0
VERTEX
  5
1E84
  8
SAPA_PROFIL
 10
-23.316200152728229
 20
31.294693195248168
 30
0.0
 42
-0.2596812337301256
  0
VERTEX
  5
1E85
  8
SAPA_PROFIL
 10
-23.486230964268302
 20
31.199999999999658
 30
0.0
  0
VERTEX
  5
1E86
  8
SAPA_PROFIL
 10
-26.49871529777668
 20
31.199999999999658
 30
0.0
  0
VERTEX
  5
1E87
  8
SAPA_PROFIL
 10
-27.780801213305711
 20
31.69472625436704
 30
0.0
 42
0.4580511809929225
  0
VERTEX
  5
1E88
  8
SAPA_PROFIL
 10
-28.196181595854561
 20
31.510658538714171
 30
0.0
  0
VERTEX
  5
1E89
  8
SAPA_PROFIL
 10
-28.210700005102112
 20
31.462812788715681
 30
0.0
  0
VERTEX
  5
1E8A
  8
SAPA_PROFIL
 10
-29.715057819918218
 20
31.462729110928048
 30
0.0
 42
-0.4757248385933691
  0
VERTEX
  5
1E8B
  8
SAPA_PROFIL
 10
-30.01605391037036
 20
31.834386055777799
 30
0.0
  0
VERTEX
  5
1E8C
  8
SAPA_PROFIL
 10
-29.634607314242871
 20
33.647616526436053
 30
0.0
 42
-0.2350054070140314
  0
VERTEX
  5
1E8D
  8
SAPA_PROFIL
 10
-29.19262652152041
 20
34.20666544331911
 30
0.0
 42
0.0011882050611145
  0
VERTEX
  5
1E8E
  8
SAPA_PROFIL
 10
-29.193984199202969
 20
34.207101034859853
 30
0.0
  0
VERTEX
  5
1E8F
  8
SAPA_PROFIL
 10
-28.944116125856439
 20
34.340630269021723
 30
0.0
 42
-0.5773502691894562
  0
VERTEX
  5
1E90
  8
SAPA_PROFIL
 10
-28.64995982560184
 20
34.157676528911757
 30
0.0
  0
VERTEX
  5
1E91
  8
SAPA_PROFIL
 10
-28.660521191828579
 20
33.835918800693292
 30
0.0
  0
VERTEX
  5
1E92
  8
SAPA_PROFIL
 10
-26.7746774999673
 20
32.751354353721418
 30
0.0
  0
VERTEX
  5
1E93
  8
SAPA_PROFIL
 10
-26.603123453343859
 20
32.699297653659713
 30
0.0
 42
0.8292414158590609
  0
VERTEX
  5
1E94
  8
SAPA_PROFIL
 10
-26.406990164811969
 20
33.031293286678491
 30
0.0
 42
-0.2036002236714843
  0
VERTEX
  5
1E95
  8
SAPA_PROFIL
 10
-26.498715297776229
 20
33.247213595499332
 30
0.0
  0
VERTEX
  5
1E96
  8
SAPA_PROFIL
 10
-26.498715297776229
 20
37.099999999999298
 30
0.0
 42
0.4142135623731708
  0
VERTEX
  5
1E97
  8
SAPA_PROFIL
 10
-26.798715297776411
 20
37.39999999999948
 30
0.0
  0
VERTEX
  5
1E98
  8
SAPA_PROFIL
 10
-27.098715297776589
 20
37.39999999999948
 30
0.0
  0
VERTEX
  5
1E99
  8
SAPA_PROFIL
 10
-28.698715297776051
 20
36.476239569295871
 30
0.0
 42
-0.5773502691897499
  0
VERTEX
  5
1E9A
  8
SAPA_PROFIL
 10
-28.998715297776229
 20
36.649444650052693
 30
0.0
  0
VERTEX
  5
1E9B
  8
SAPA_PROFIL
 10
-28.99871529777645
 20
38.035085296108122
 30
0.0
 42
-0.2679491924311548
  0
VERTEX
  5
1E9C
  8
SAPA_PROFIL
 10
-28.49871529777645
 20
38.901110699892662
 30
0.0
  0
VERTEX
  5
1E9D
  8
SAPA_PROFIL
 10
-26.748715297776219
 20
39.911473670974672
 30
0.0
 42
0.2679491924310984
  0
VERTEX
  5
1E9E
  8
SAPA_PROFIL
 10
-26.498715297776219
 20
40.344486372867159
 30
0.0
  0
SEQEND
  5
1E9F
  8
SAPA_PROFIL
  0
POLYLINE
  5
13CF
  8
SAPA_PROFIL
 66
     1
 10
0.0
 20
0.0
 30
0.0
 70
     1
  0
VERTEX
  5
1EA0
  8
SAPA_PROFIL
 10
-24.498715294376641
 20
54.299999999837972
 30
0.0
 42
0.4142135623730951
  0
VERTEX
  5
1EA1
  8
SAPA_PROFIL
 10
-24.798715294376649
 20
53.999999999837961
 30
0.0
  0
VERTEX
  5
1EA2
  8
SAPA_PROFIL
 10
-24.798715294376649
 20
52.499999999837961
 30
0.0
 42
0.414213562372978
  0
VERTEX
  5
1EA3
  8
SAPA_PROFIL
 10
-24.59871529437677
 20
52.299999999837972
 30
0.0
  0
VERTEX
  5
1EA4
  8
SAPA_PROFIL
 10
-24.4987152953303
 20
52.299999999837972
 30
0.0
 42
-0.4142135624945221
  0
VERTEX
  5
1EA5
  8
SAPA_PROFIL
 10
-24.198715295330292
 20
51.999999999713587
 30
0.0
  0
VERTEX
  5
1EA6
  8
SAPA_PROFIL
 10
-24.19871529591072
 20
50.599999999713553
 30
0.0
 42
-0.4142135622516715
  0
VERTEX
  5
1EA7
  8
SAPA_PROFIL
 10
-24.498715295910731
 20
50.299999999837972
 30
0.0
  0
VERTEX
  5
1EA8
  8
SAPA_PROFIL
 10
-24.598715294538671
 20
50.299999999837972
 30
0.0
 42
0.4142135621360125
  0
VERTEX
  5
1EA9
  8
SAPA_PROFIL
 10
-24.798715294538649
 20
50.099999999999874
 30
0.0
  0
VERTEX
  5
1EAA
  8
SAPA_PROFIL
 10
-24.798715301014148
 20
41.899999999999821
 30
0.0
 42
0.4142135626101776
  0
VERTEX
  5
1EAB
  8
SAPA_PROFIL
 10
-24.59871530101416
 20
41.699999999837942
 30
0.0
  0
VERTEX
  5
1EAC
  8
SAPA_PROFIL
 10
-24.498715299642051
 20
41.699999999837942
 30
0.0
 42
-0.4142135624945291
  0
VERTEX
  5
1EAD
  8
SAPA_PROFIL
 10
-24.198715299642039
 20
41.39999999971355
 30
0.0
  0
VERTEX
  5
1EAE
  8
SAPA_PROFIL
 10
-24.198715300222521
 20
39.99999999971358
 30
0.0
 42
-0.4142135622516611
  0
VERTEX
  5
1EAF
  8
SAPA_PROFIL
 10
-24.498715300222528
 20
39.699999999837942
 30
0.0
  0
VERTEX
  5
1EB0
  8
SAPA_PROFIL
 10
-24.598715300425152
 20
39.699999999837942
 30
0.0
 42
0.4142135622584299
  0
VERTEX
  5
1EB1
  8
SAPA_PROFIL
 10
-24.79871530042519
 20
39.499999999916227
 30
0.0
  0
VERTEX
  5
1EB2
  8
SAPA_PROFIL
 10
-24.798715301049171
 20
37.999999999962732
 30
0.0
 42
0.4142135624949384
  0
VERTEX
  5
1EB3
  8
SAPA_PROFIL
 10
-24.498715301049149
 20
37.699999999837942
 30
0.0
  0
VERTEX
  5
1EB4
  8
SAPA_PROFIL
 10
-6.4987152906099839
 20
37.699999999837942
 30
0.0
 42
0.4142135623730743
  0
VERTEX
  5
1EB5
  8
SAPA_PROFIL
 10
-6.1987152906099734
 20
37.999999999837897
 30
0.0
  0
VERTEX
  5
1EB6
  8
SAPA_PROFIL
 10
-6.198715290609857
 20
39.499999999837947
 30
0.0
 42
0.4142135623730951
  0
VERTEX
  5
1EB7
  8
SAPA_PROFIL
 10
-6.3987152906098457
 20
39.699999999837942
 30
0.0
  0
VERTEX
  5
1EB8
  8
SAPA_PROFIL
 10
-6.4987152906099821
 20
39.699999999837942
 30
0.0
 42
-0.4142135623731125
  0
VERTEX
  5
1EB9
  8
SAPA_PROFIL
 10
-6.7987152906099944
 20
39.999999999837961
 30
0.0
  0
VERTEX
  5
1EBA
  8
SAPA_PROFIL
 10
-6.7987152906099944
 20
41.399999999837931
 30
0.0
 42
-0.4142135623730951
  0
VERTEX
  5
1EBB
  8
SAPA_PROFIL
 10
-6.4987152906099821
 20
41.699999999837942
 30
0.0
  0
VERTEX
  5
1EBC
  8
SAPA_PROFIL
 10
-6.3987152906099602
 20
41.699999999837942
 30
0.0
 42
0.4142135623730951
  0
VERTEX
  5
1EBD
  8
SAPA_PROFIL
 10
-6.1987152906099707
 20
41.899999999837917
 30
0.0
  0
VERTEX
  5
1EBE
  8
SAPA_PROFIL
 10
-6.1987152906099663
 20
50.099999999837969
 30
0.0
 42
0.4142135623730951
  0
VERTEX
  5
1EBF
  8
SAPA_PROFIL
 10
-6.398715290609954
 20
50.299999999837958
 30
0.0
  0
VERTEX
  5
1EC0
  8
SAPA_PROFIL
 10
-6.4987152906099768
 20
50.299999999837958
 30
0.0
 42
-0.4142135623730951
  0
VERTEX
  5
1EC1
  8
SAPA_PROFIL
 10
-6.798715290609989
 20
50.599999999837912
 30
0.0
  0
VERTEX
  5
1EC2
  8
SAPA_PROFIL
 10
-6.7987152906099872
 20
51.999999999837947
 30
0.0
 42
-0.4142135623730951
  0
VERTEX
  5
1EC3
  8
SAPA_PROFIL
 10
-6.498715290609975
 20
52.299999999837958
 30
0.0
  0
VERTEX
  5
1EC4
  8
SAPA_PROFIL
 10
-6.3987152906099531
 20
52.299999999837958
 30
0.0
 42
0.4142135623730951
  0
VERTEX
  5
1EC5
  8
SAPA_PROFIL
 10
-6.1987152906099636
 20
52.499999999837947
 30
0.0
  0
VERTEX
  5
1EC6
  8
SAPA_PROFIL
 10
-6.1987152906098499
 20
53.999999999837939
 30
0.0
 42
0.4142135623731159
  0
VERTEX
  5
1EC7
  8
SAPA_PROFIL
 10
-6.4987152906098622
 20
54.299999999837951
 30
0.0
  0
SEQEND
  5
1EC8
  8
SAPA_PROFIL
  0
POLYLINE
  5
13D0
  8
SAPA_PROFIL
 62
     4
 66
     1
 10
0.0
 20
0.0
 30
0.0
  0
VERTEX
  5
1EC9
  8
SAPA_PROFIL
 62
     4
 10
-38.449386111227192
 20
58.067718914152863
 30
0.0
 42
-0.5571646428658034
  0
VERTEX
  5
1ECA
  8
SAPA_PROFIL
 62
     4
 10
-38.98634661536402
 20
57.199999999997317
 30
0.0
  0
VERTEX
  5
1ECB
  8
SAPA_PROFIL
 62
     4
 10
-56.011083851885211
 20
57.199999999997779
 30
0.0
 42
-0.5571645048035741
  0
VERTEX
  5
1ECC
  8
SAPA_PROFIL
 62
     4
 10
-56.548044468846271
 20
58.067718687863952
 30
0.0
  0
VERTEX
  5
1ECD
  8
SAPA_PROFIL
 62
     4
 10
-55.717337381299572
 20
59.733859343931968
 30
0.0
 42
-0.284385813979063
  0
VERTEX
  5
1ECE
  8
SAPA_PROFIL
 62
     4
 10
-55.448857072819223
 20
59.899999999999409
 30
0.0
  0
VERTEX
  5
1ECF
  8
SAPA_PROFIL
 62
     4
 10
-39.548573394429908
 20
59.899999999999409
 30
0.0
 42
-0.2843858139786238
  0
VERTEX
  5
1ED0
  8
SAPA_PROFIL
 62
     4
 10
-39.280093085949623
 20
59.73385934393248
 30
0.0
  0
VERTEX
  5
1ED1
  8
SAPA_PROFIL
 62
     4
 10
-38.449385998402462
 20
58.067718687863128
 30
0.0
  0
SEQEND
  5
1ED2
  8
SAPA_PROFIL
 62
     4
  0
POLYLINE
  5
13D1
  8
SAPA_PROFIL
 62
     4
 66
     1
 10
0.0
 20
0.0
 30
0.0
 70
     1
  0
VERTEX
  5
1ED3
  8
SAPA_PROFIL
 62
     4
 10
-61.91632641829186
 20
60.25683151449698
 30
0.0
  0
VERTEX
  5
1ED4
  8
SAPA_PROFIL
 62
     4
 10
-62.180349696667868
 20
60.663391710501131
 30
0.0
 42
0.2539676464751066
  0
VERTEX
  5
1ED5
  8
SAPA_PROFIL
 62
     4
 10
-62.431950867052578
 20
60.799999999997233
 30
0.0
  0
VERTEX
  5
1ED6
  8
SAPA_PROFIL
 62
     4
 10
-63.813450452257918
 20
60.799999999997233
 30
0.0
 42
0.3152987888790479
  0
VERTEX
  5
1ED7
  8
SAPA_PROFIL
 62
     4
 10
-64.283296762650238
 20
60.471010071659073
 30
0.0
  0
VERTEX
  5
1ED8
  8
SAPA_PROFIL
 62
     4
 10
-65.178965703558845
 20
58.01017988120779
 30
0.0
 42
-0.2694959974287434
  0
VERTEX
  5
1ED9
  8
SAPA_PROFIL
 62
     4
 10
-65.410484749960204
 20
57.817047906863898
 30
0.0
 42
-0.0612686379508233
  0
VERTEX
  5
1EDA
  8
SAPA_PROFIL
 62
     4
 10
-65.703160182813477
 20
57.803464536233378
 30
0.0
  0
VERTEX
  5
1EDB
  8
SAPA_PROFIL
 62
     4
 10
-66.052578360121743
 20
57.601727857504557
 30
0.0
 42
-0.5773502691891679
  0
VERTEX
  5
1EDC
  8
SAPA_PROFIL
 62
     4
 10
-66.367578360121328
 20
57.783593192299129
 30
0.0
  0
VERTEX
  5
1EDD
  8
SAPA_PROFIL
 62
     4
 10
-66.36757836012157
 20
58.05070772042545
 30
0.0
  0
VERTEX
  5
1EDE
  8
SAPA_PROFIL
 62
     4
 10
-67.766106060755817
 20
58.859391181733763
 30
0.0
 42
0.1318219888653519
  0
VERTEX
  5
1EDF
  8
SAPA_PROFIL
 62
     4
 10
-67.916279163228154
 20
58.899683578271151
 30
0.0
  0
VERTEX
  5
1EE0
  8
SAPA_PROFIL
 62
     4
 10
-68.098715233664947
 20
58.899683578264792
 30
0.0
 42
0.4142135623724291
  0
VERTEX
  5
1EE1
  8
SAPA_PROFIL
 62
     4
 10
-68.498715233665493
 20
58.499683578265149
 30
0.0
  0
VERTEX
  5
1EE2
  8
SAPA_PROFIL
 62
     4
 10
-68.498715233664129
 20
55.099683578264148
 30
0.0
 42
0.4142135623744271
  0
VERTEX
  5
1EE3
  8
SAPA_PROFIL
 62
     4
 10
-68.098715233664947
 20
54.699683578263141
 30
0.0
  0
VERTEX
  5
1EE4
  8
SAPA_PROFIL
 62
     4
 10
-67.919099991393651
 20
54.699683578262523
 30
0.0
 42
0.1316524975874005
  0
VERTEX
  5
1EE5
  8
SAPA_PROFIL
 62
     4
 10
-67.769099991396814
 20
54.739875957128113
 30
0.0
  0
VERTEX
  5
1EE6
  8
SAPA_PROFIL
 62
     4
 10
-66.164962094394568
 20
55.666025403780651
 30
0.0
 42
-0.1316524975875904
  0
VERTEX
  5
1EE7
  8
SAPA_PROFIL
 62
     4
 10
-65.664962094392862
 20
55.799999999995407
 30
0.0
  0
VERTEX
  5
1EE8
  8
SAPA_PROFIL
 62
     4
 10
-65.248715233665493
 20
55.799999999995407
 30
0.0
 42
-0.4142135623730951
  0
VERTEX
  5
1EE9
  8
SAPA_PROFIL
 62
     4
 10
-64.248715233665493
 20
54.799999999995421
 30
0.0
  0
VERTEX
  5
1EEA
  8
SAPA_PROFIL
 62
     4
 10
-64.248715233665493
 20
51.799999999998143
 30
0.0
 42
0.9999996830128083
  0
VERTEX
  5
1EEB
  8
SAPA_PROFIL
 62
     4
 10
-63.2487152336655
 20
51.799999999996317
 30
0.0
  0
VERTEX
  5
1EEC
  8
SAPA_PROFIL
 62
     4
 10
-63.2487152336655
 20
54.799999999996317
 30
0.0
 42
-0.4142135623730951
  0
VERTEX
  5
1EED
  8
SAPA_PROFIL
 62
     4
 10
-62.248715233665493
 20
55.799999999996317
 30
0.0
  0
VERTEX
  5
1EEE
  8
SAPA_PROFIL
 62
     4
 10
-32.74871523358091
 20
55.799999999996317
 30
0.0
 42
-0.4142135623730951
  0
VERTEX
  5
1EEF
  8
SAPA_PROFIL
 62
     4
 10
-31.74871523358091
 20
54.799999999996309
 30
0.0
  0
VERTEX
  5
1EF0
  8
SAPA_PROFIL
 62
     4
 10
-31.74871523358091
 20
51.799999999998143
 30
0.0
 42
0.9999999999999998
  0
VERTEX
  5
1EF1
  8
SAPA_PROFIL
 62
     4
 10
-30.74871523358091
 20
51.799999999998143
 30
0.0
  0
VERTEX
  5
1EF2
  8
SAPA_PROFIL
 62
     4
 10
-30.74871523358091
 20
54.799999999996309
 30
0.0
 42
-0.4142135623736278
  0
VERTEX
  5
1EF3
  8
SAPA_PROFIL
 62
     4
 10
-29.74871523358091
 20
55.799999999996317
 30
0.0
  0
VERTEX
  5
1EF4
  8
SAPA_PROFIL
 62
     4
 10
-29.33246837285445
 20
55.799999999996317
 30
0.0
 42
-0.1316524975874375
  0
VERTEX
  5
1EF5
  8
SAPA_PROFIL
 62
     4
 10
-28.832468372854251
 20
55.666025403780282
 30
0.0
  0
VERTEX
  5
1EF6
  8
SAPA_PROFIL
 62
     4
 10
-27.228330475852299
 20
54.739875957128099
 30
0.0
 42
0.1316524975874
  0
VERTEX
  5
1EF7
  8
SAPA_PROFIL
 62
     4
 10
-27.078330475852759
 20
54.699683578262508
 30
0.0
  0
VERTEX
  5
1EF8
  8
SAPA_PROFIL
 62
     4
 10
-26.898715233581459
 20
54.699683578263141
 30
0.0
 42
0.4142135623744271
  0
VERTEX
  5
1EF9
  8
SAPA_PROFIL
 62
     4
 10
-26.498715233582271
 20
55.099683578264148
 30
0.0
  0
VERTEX
  5
1EFA
  8
SAPA_PROFIL
 62
     4
 10
-26.49871523358091
 20
58.499683578265149
 30
0.0
 42
0.4142135623724291
  0
VERTEX
  5
1EFB
  8
SAPA_PROFIL
 62
     4
 10
-26.898715233581459
 20
58.899683578264792
 30
0.0
  0
VERTEX
  5
1EFC
  8
SAPA_PROFIL
 62
     4
 10
-27.081151304018238
 20
58.899683578271151
 30
0.0
 42
0.1318219888653524
  0
VERTEX
  5
1EFD
  8
SAPA_PROFIL
 62
     4
 10
-27.231324406490579
 20
58.859391181733749
 30
0.0
  0
VERTEX
  5
1EFE
  8
SAPA_PROFIL
 62
     4
 10
-28.62985210697024
 20
58.050707720509422
 30
0.0
  0
VERTEX
  5
1EFF
  8
SAPA_PROFIL
 62
     4
 10
-28.62985210697024
 20
57.783593192296387
 30
0.0
 42
-0.577350269189159
  0
VERTEX
  5
1F00
  8
SAPA_PROFIL
 62
     4
 10
-28.944852106969829
 20
57.601727857501821
 30
0.0
  0
VERTEX
  5
1F01
  8
SAPA_PROFIL
 62
     4
 10
-29.294270284188489
 20
57.803464536178929
 30
0.0
 42
-0.0612687673629489
  0
VERTEX
  5
1F02
  8
SAPA_PROFIL
 62
     4
 10
-29.58694571728871
 20
57.817047906865128
 30
0.0
 42
-0.2694959974285039
  0
VERTEX
  5
1F03
  8
SAPA_PROFIL
 62
     4
 10
-29.818464763689231
 20
58.010179881209083
 30
0.0
  0
VERTEX
  5
1F04
  8
SAPA_PROFIL
 62
     4
 10
-30.7141337045989
 20
60.471010071662249
 30
0.0
 42
0.3152987888784035
  0
VERTEX
  5
1F05
  8
SAPA_PROFIL
 62
     4
 10
-31.18398001499212
 20
60.799999999998818
 30
0.0
  0
VERTEX
  5
1F06
  8
SAPA_PROFIL
 62
     4
 10
-32.565479600196561
 20
60.799999999997219
 30
0.0
 42
0.2539676464741841
  0
VERTEX
  5
1F07
  8
SAPA_PROFIL
 62
     4
 10
-32.817080770580631
 20
60.663391710501948
 30
0.0
  0
VERTEX
  5
1F08
  8
SAPA_PROFIL
 62
     4
 10
-33.081104048957272
 20
60.25683151449698
 30
0.0
 42
0.5862177598324623
  0
VERTEX
  5
1F09
  8
SAPA_PROFIL
 62
     4
 10
-32.825362233718927
 20
59.800000000000473
 30
0.0
  0
VERTEX
  5
1F0A
  8
SAPA_PROFIL
 62
     4
 10
-31.88418755320912
 20
59.800000000008133
 30
0.0
 42
-0.3152987888813165
  0
VERTEX
  5
1F0B
  8
SAPA_PROFIL
 62
     4
 10
-31.414341242811361
 20
59.47101007167138
 30
0.0
  0
VERTEX
  5
1F0C
  8
SAPA_PROFIL
 62
     4
 10
-30.977576961687401
 20
58.271010071660157
 30
0.0
 42
-0.5205670505515651
  0
VERTEX
  5
1F0D
  8
SAPA_PROFIL
 62
     4
 10
-31.447423272080631
 20
57.599999999997408
 30
0.0
  0
VERTEX
  5
1F0E
  8
SAPA_PROFIL
 62
     4
 10
-36.463864212749478
 20
57.59999999999738
 30
0.0
 42
-0.3702522326300203
  0
VERTEX
  5
1F0F
  8
SAPA_PROFIL
 62
     4
 10
-36.760387574542811
 20
57.854459952663078
 30
0.0
 42
-0.0982365330332397
  0
VERTEX
  5
1F10
  8
SAPA_PROFIL
 62
     4
 10
-36.850840332753748
 20
59.542146727658093
 30
0.0
 42
-0.3735060174783164
  0
VERTEX
  5
1F11
  8
SAPA_PROFIL
 62
     4
 10
-36.553815664842773
 20
59.799999999998128
 30
0.0
  0
VERTEX
  5
1F12
  8
SAPA_PROFIL
 62
     4
 10
-36.125362233720111
 20
59.799999999999038
 30
0.0
 42
0.5920056181162531
  0
VERTEX
  5
1F13
  8
SAPA_PROFIL
 62
     4
 10
-35.872353477402712
 20
60.261203502526961
 30
0.0
  0
VERTEX
  5
1F14
  8
SAPA_PROFIL
 62
     4
 10
-36.133537553558412
 20
60.663391710505259
 30
0.0
 42
0.2539676464746725
  0
VERTEX
  5
1F15
  8
SAPA_PROFIL
 62
     4
 10
-36.385138723942177
 20
60.80000000000063
 30
0.0
  0
VERTEX
  5
1F16
  8
SAPA_PROFIL
 62
     4
 10
-58.612291743307857
 20
60.799999999999052
 30
0.0
 42
0.2539676464741819
  0
VERTEX
  5
1F17
  8
SAPA_PROFIL
 62
     4
 10
-58.863892913690719
 20
60.663391710505273
 30
0.0
  0
VERTEX
  5
1F18
  8
SAPA_PROFIL
 62
     4
 10
-59.12507698984453
 20
60.261203502526939
 30
0.0
 42
0.5920055144124249
  0
VERTEX
  5
1F19
  8
SAPA_PROFIL
 62
     4
 10
-58.872068233529021
 20
59.799999999999052
 30
0.0
  0
VERTEX
  5
1F1A
  8
SAPA_PROFIL
 62
     4
 10
-58.443614756238802
 20
59.800000025274059
 30
0.0
 42
-0.3735060174775405
  0
VERTEX
  5
1F1B
  8
SAPA_PROFIL
 62
     4
 10
-58.146590088329113
 20
59.542146752933959
 30
0.0
 42
-0.0355900683670349
  0
VERTEX
  5
1F1C
  8
SAPA_PROFIL
 62
     4
 10
-58.10269652429686
 20
58.92627316613418
 30
0.0
 42
-0.0624282003873116
  0
VERTEX
  5
1F1D
  8
SAPA_PROFIL
 62
     4
 10
-58.237042846539801
 20
57.854459977939051
 30
0.0
 42
-0.3702522326309292
  0
VERTEX
  5
1F1E
  8
SAPA_PROFIL
 62
     4
 10
-58.53356620833317
 20
57.600000025273332
 30
0.0
  0
VERTEX
  5
1F1F
  8
SAPA_PROFIL
 62
     4
 10
-63.550007195166678
 20
57.599999999997202
 30
0.0
 42
-0.5205670505515692
  0
VERTEX
  5
1F20
  8
SAPA_PROFIL
 62
     4
 10
-64.019853505559908
 20
58.271010071660157
 30
0.0
  0
VERTEX
  5
1F21
  8
SAPA_PROFIL
 62
     4
 10
-63.58308922443495
 20
59.47101007166961
 30
0.0
 42
-0.3152987888807539
  0
VERTEX
  5
1F22
  8
SAPA_PROFIL
 62
     4
 10
-63.113242914039098
 20
59.800000000007238
 30
0.0
  0
VERTEX
  5
1F23
  8
SAPA_PROFIL
 62
     4
 10
-62.17206823353002
 20
59.800000000000423
 30
0.0
 42
0.5862175119221242
  0
VERTEX
  5
1F24
  8
SAPA_PROFIL
 62
     4
 10
-61.916326302548057
 20
60.256831325755542
 30
0.0
 42
-0.0000002084758573
  0
SEQEND
  5
1F25
  8
SAPA_PROFIL
 62
     4
  0
POLYLINE
  5
13D2
  8
SAPA_PROFIL
 62
     4
 66
     1
 10
0.0
 20
0.0
 30
0.0
  0
VERTEX
  5
1F26
  8
SAPA_PROFIL
 62
     4
 10
-38.449386111227199
 20
33.932281085846803
 30
0.0
 42
0.5571646428658034
  0
VERTEX
  5
1F27
  8
SAPA_PROFIL
 62
     4
 10
-38.986346615364027
 20
34.800000000002363
 30
0.0
  0
VERTEX
  5
1F28
  8
SAPA_PROFIL
 62
     4
 10
-56.011083851885218
 20
34.800000000001901
 30
0.0
 42
0.5571645048035741
  0
VERTEX
  5
1F29
  8
SAPA_PROFIL
 62
     4
 10
-56.548044468846292
 20
33.932281312135729
 30
0.0
  0
VERTEX
  5
1F2A
  8
SAPA_PROFIL
 62
     4
 10
-55.717337381299579
 20
32.266140656067712
 30
0.0
 42
0.284385813979063
  0
VERTEX
  5
1F2B
  8
SAPA_PROFIL
 62
     4
 10
-55.448857072819237
 20
32.100000000000271
 30
0.0
  0
VERTEX
  5
1F2C
  8
SAPA_PROFIL
 62
     4
 10
-39.548573394429923
 20
32.100000000000257
 30
0.0
 42
0.2843858139786238
  0
VERTEX
  5
1F2D
  8
SAPA_PROFIL
 62
     4
 10
-39.280093085949638
 20
32.266140656067194
 30
0.0
  0
VERTEX
  5
1F2E
  8
SAPA_PROFIL
 62
     4
 10
-38.449385998402477
 20
33.932281312136531
 30
0.0
  0
SEQEND
  5
1F2F
  8
SAPA_PROFIL
 62
     4
  0
POLYLINE
  5
13D3
  8
SAPA_PROFIL
 62
     4
 66
     1
 10
0.0
 20
0.0
 30
0.0
 70
     1
  0
VERTEX
  5
1F30
  8
SAPA_PROFIL
 62
     4
 10
-61.916326418291867
 20
31.743168485502689
 30
0.0
  0
VERTEX
  5
1F31
  8
SAPA_PROFIL
 62
     4
 10
-62.180349696667882
 20
31.33660828949855
 30
0.0
 42
-0.2539676464751066
  0
VERTEX
  5
1F32
  8
SAPA_PROFIL
 62
     4
 10
-62.431950867052592
 20
31.200000000002451
 30
0.0
  0
VERTEX
  5
1F33
  8
SAPA_PROFIL
 62
     4
 10
-63.813450452257939
 20
31.200000000002451
 30
0.0
 42
-0.3152987888790479
  0
VERTEX
  5
1F34
  8
SAPA_PROFIL
 62
     4
 10
-64.283296762650252
 20
31.528989928340611
 30
0.0
  0
VERTEX
  5
1F35
  8
SAPA_PROFIL
 62
     4
 10
-65.178965703558859
 20
33.989820118791883
 30
0.0
 42
0.2694959974287434
  0
VERTEX
  5
1F36
  8
SAPA_PROFIL
 62
     4
 10
-65.410484749960219
 20
34.182952093135782
 30
0.0
 42
0.0612686379508233
  0
VERTEX
  5
1F37
  8
SAPA_PROFIL
 62
     4
 10
-65.703160182813491
 20
34.196535463766288
 30
0.0
  0
VERTEX
  5
1F38
  8
SAPA_PROFIL
 62
     4
 10
-66.052578360121757
 20
34.398272142495117
 30
0.0
 42
0.5773502691891679
  0
VERTEX
  5
1F39
  8
SAPA_PROFIL
 62
     4
 10
-66.367578360121342
 20
34.216406807700551
 30
0.0
  0
VERTEX
  5
1F3A
  8
SAPA_PROFIL
 62
     4
 10
-66.367578360121584
 20
33.94929227957423
 30
0.0
  0
VERTEX
  5
1F3B
  8
SAPA_PROFIL
 62
     4
 10
-67.766106060755845
 20
33.140608818265918
 30
0.0
 42
-0.1318219888653519
  0
VERTEX
  5
1F3C
  8
SAPA_PROFIL
 62
     4
 10
-67.916279163228182
 20
33.100316421728522
 30
0.0
  0
VERTEX
  5
1F3D
  8
SAPA_PROFIL
 62
     4
 10
-68.098715233664961
 20
33.100316421734888
 30
0.0
 42
-0.4142135623724291
  0
VERTEX
  5
1F3E
  8
SAPA_PROFIL
 62
     4
 10
-68.498715233665507
 20
33.500316421734532
 30
0.0
  0
VERTEX
  5
1F3F
  8
SAPA_PROFIL
 62
     4
 10
-68.498715233664143
 20
36.900316421735532
 30
0.0
 42
-0.4142135623744271
  0
VERTEX
  5
1F40
  8
SAPA_PROFIL
 62
     4
 10
-68.098715233664961
 20
37.300316421736532
 30
0.0
  0
VERTEX
  5
1F41
  8
SAPA_PROFIL
 62
     4
 10
-67.919099991393665
 20
37.300316421737172
 30
0.0
 42
-0.1316524975874005
  0
VERTEX
  5
1F42
  8
SAPA_PROFIL
 62
     4
 10
-67.769099991396843
 20
37.260124042871567
 30
0.0
  0
VERTEX
  5
1F43
  8
SAPA_PROFIL
 62
     4
 10
-66.164962094394582
 20
36.333974596219029
 30
0.0
 42
0.1316524975875904
  0
VERTEX
  5
1F44
  8
SAPA_PROFIL
 62
     4
 10
-65.664962094392877
 20
36.200000000004273
 30
0.0
  0
VERTEX
  5
1F45
  8
SAPA_PROFIL
 62
     4
 10
-65.248715233665507
 20
36.200000000004273
 30
0.0
 42
0.4142135623730951
  0
VERTEX
  5
1F46
  8
SAPA_PROFIL
 62
     4
 10
-64.248715233665507
 20
37.200000000004273
 30
0.0
  0
VERTEX
  5
1F47
  8
SAPA_PROFIL
 62
     4
 10
-64.248715233665507
 20
40.200000000001538
 30
0.0
 42
-0.9999996830128083
  0
VERTEX
  5
1F48
  8
SAPA_PROFIL
 62
     4
 10
-63.2487152336655
 20
40.200000000003357
 30
0.0
  0
VERTEX
  5
1F49
  8
SAPA_PROFIL
 62
     4
 10
-63.2487152336655
 20
37.200000000003357
 30
0.0
 42
0.4142135623730951
  0
VERTEX
  5
1F4A
  8
SAPA_PROFIL
 62
     4
 10
-62.248715233665507
 20
36.200000000003357
 30
0.0
  0
VERTEX
  5
1F4B
  8
SAPA_PROFIL
 62
     4
 10
-32.748715233580917
 20
36.200000000003349
 30
0.0
 42
0.4142135623730951
  0
VERTEX
  5
1F4C
  8
SAPA_PROFIL
 62
     4
 10
-31.748715233580921
 20
37.200000000003349
 30
0.0
  0
VERTEX
  5
1F4D
  8
SAPA_PROFIL
 62
     4
 10
-31.748715233580921
 20
40.200000000001531
 30
0.0
 42
-0.9999999999999998
  0
VERTEX
  5
1F4E
  8
SAPA_PROFIL
 62
     4
 10
-30.748715233580931
 20
40.200000000001531
 30
0.0
  0
VERTEX
  5
1F4F
  8
SAPA_PROFIL
 62
     4
 10
-30.748715233580931
 20
37.200000000003349
 30
0.0
 42
0.4142135623736278
  0
VERTEX
  5
1F50
  8
SAPA_PROFIL
 62
     4
 10
-29.748715233580931
 20
36.200000000003349
 30
0.0
  0
VERTEX
  5
1F51
  8
SAPA_PROFIL
 62
     4
 10
-29.332468372854471
 20
36.200000000003349
 30
0.0
 42
0.1316524975874375
  0
VERTEX
  5
1F52
  8
SAPA_PROFIL
 62
     4
 10
-28.832468372854262
 20
36.333974596219392
 30
0.0
  0
VERTEX
  5
1F53
  8
SAPA_PROFIL
 62
     4
 10
-27.228330475852321
 20
37.26012404287156
 30
0.0
 42
-0.1316524975874
  0
VERTEX
  5
1F54
  8
SAPA_PROFIL
 62
     4
 10
-27.07833047585277
 20
37.300316421737151
 30
0.0
  0
VERTEX
  5
1F55
  8
SAPA_PROFIL
 62
     4
 10
-26.89871523358147
 20
37.300316421736518
 30
0.0
 42
-0.4142135623744271
  0
VERTEX
  5
1F56
  8
SAPA_PROFIL
 62
     4
 10
-26.498715233582288
 20
36.900316421735518
 30
0.0
  0
VERTEX
  5
1F57
  8
SAPA_PROFIL
 62
     4
 10
-26.498715233580921
 20
33.500316421734517
 30
0.0
 42
-0.4142135623724291
  0
VERTEX
  5
1F58
  8
SAPA_PROFIL
 62
     4
 10
-26.89871523358147
 20
33.100316421734881
 30
0.0
  0
VERTEX
  5
1F59
  8
SAPA_PROFIL
 62
     4
 10
-27.081151304018249
 20
33.100316421728522
 30
0.0
 42
-0.1318219888653524
  0
VERTEX
  5
1F5A
  8
SAPA_PROFIL
 62
     4
 10
-27.2313244064906
 20
33.140608818265903
 30
0.0
  0
VERTEX
  5
1F5B
  8
SAPA_PROFIL
 62
     4
 10
-28.629852106970251
 20
33.949292279490237
 30
0.0
  0
VERTEX
  5
1F5C
  8
SAPA_PROFIL
 62
     4
 10
-28.629852106970251
 20
34.216406807703279
 30
0.0
 42
0.577350269189159
  0
VERTEX
  5
1F5D
  8
SAPA_PROFIL
 62
     4
 10
-28.944852106969851
 20
34.398272142497852
 30
0.0
  0
VERTEX
  5
1F5E
  8
SAPA_PROFIL
 62
     4
 10
-29.29427028418851
 20
34.196535463820737
 30
0.0
 42
0.0612687673629489
  0
VERTEX
  5
1F5F
  8
SAPA_PROFIL
 62
     4
 10
-29.586945717288721
 20
34.182952093134531
 30
0.0
 42
0.2694959974285039
  0
VERTEX
  5
1F60
  8
SAPA_PROFIL
 62
     4
 10
-29.818464763689239
 20
33.989820118790583
 30
0.0
  0
VERTEX
  5
1F61
  8
SAPA_PROFIL
 62
     4
 10
-30.714133704598911
 20
31.52898992833742
 30
0.0
 42
-0.3152987888784035
  0
VERTEX
  5
1F62
  8
SAPA_PROFIL
 62
     4
 10
-31.18398001499213
 20
31.200000000000841
 30
0.0
  0
VERTEX
  5
1F63
  8
SAPA_PROFIL
 62
     4
 10
-32.565479600196568
 20
31.20000000000244
 30
0.0
 42
-0.2539676464741841
  0
VERTEX
  5
1F64
  8
SAPA_PROFIL
 62
     4
 10
-32.817080770580652
 20
31.336608289497711
 30
0.0
  0
VERTEX
  5
1F65
  8
SAPA_PROFIL
 62
     4
 10
-33.081104048957293
 20
31.743168485502689
 30
0.0
 42
-0.5862177598324623
  0
VERTEX
  5
1F66
  8
SAPA_PROFIL
 62
     4
 10
-32.825362233718941
 20
32.199999999999193
 30
0.0
  0
VERTEX
  5
1F67
  8
SAPA_PROFIL
 62
     4
 10
-31.884187553209131
 20
32.199999999991533
 30
0.0
 42
0.3152987888813165
  0
VERTEX
  5
1F68
  8
SAPA_PROFIL
 62
     4
 10
-31.414341242811378
 20
32.528989928328279
 30
0.0
  0
VERTEX
  5
1F69
  8
SAPA_PROFIL
 62
     4
 10
-30.977576961687419
 20
33.728989928339509
 30
0.0
 42
0.5205670505515651
  0
VERTEX
  5
1F6A
  8
SAPA_PROFIL
 62
     4
 10
-31.447423272080641
 20
34.400000000002258
 30
0.0
  0
VERTEX
  5
1F6B
  8
SAPA_PROFIL
 62
     4
 10
-36.463864212749492
 20
34.400000000002287
 30
0.0
 42
0.3702522326300203
  0
VERTEX
  5
1F6C
  8
SAPA_PROFIL
 62
     4
 10
-36.760387574542818
 20
34.145540047336581
 30
0.0
 42
0.0982365330332397
  0
VERTEX
  5
1F6D
  8
SAPA_PROFIL
 62
     4
 10
-36.850840332753762
 20
32.45785327234158
 30
0.0
 42
0.3735060174783164
  0
VERTEX
  5
1F6E
  8
SAPA_PROFIL
 62
     4
 10
-36.55381566484278
 20
32.200000000001538
 30
0.0
  0
VERTEX
  5
1F6F
  8
SAPA_PROFIL
 62
     4
 10
-36.125362233720132
 20
32.200000000000621
 30
0.0
 42
-0.5920056181162531
  0
VERTEX
  5
1F70
  8
SAPA_PROFIL
 62
     4
 10
-35.872353477402733
 20
31.738796497472698
 30
0.0
  0
VERTEX
  5
1F71
  8
SAPA_PROFIL
 62
     4
 10
-36.133537553558433
 20
31.3366082894944
 30
0.0
 42
-0.2539676464746725
  0
VERTEX
  5
1F72
  8
SAPA_PROFIL
 62
     4
 10
-36.385138723942191
 20
31.19999999999904
 30
0.0
  0
VERTEX
  5
1F73
  8
SAPA_PROFIL
 62
     4
 10
-58.612291743307871
 20
31.200000000000632
 30
0.0
 42
-0.2539676464741819
  0
VERTEX
  5
1F74
  8
SAPA_PROFIL
 62
     4
 10
-58.863892913690741
 20
31.336608289494411
 30
0.0
  0
VERTEX
  5
1F75
  8
SAPA_PROFIL
 62
     4
 10
-59.125076989844537
 20
31.738796497472741
 30
0.0
 42
-0.5920055144124249
  0
VERTEX
  5
1F76
  8
SAPA_PROFIL
 62
     4
 10
-58.872068233529042
 20
32.200000000000628
 30
0.0
  0
VERTEX
  5
1F77
  8
SAPA_PROFIL
 62
     4
 10
-58.443614756238809
 20
32.199999974725621
 30
0.0
 42
0.3735060174775405
  0
VERTEX
  5
1F78
  8
SAPA_PROFIL
 62
     4
 10
-58.14659008832912
 20
32.457853247065707
 30
0.0
 42
0.0355900683670349
  0
VERTEX
  5
1F79
  8
SAPA_PROFIL
 62
     4
 10
-58.102696524296867
 20
33.073726833865493
 30
0.0
 42
0.0624282003873116
  0
VERTEX
  5
1F7A
  8
SAPA_PROFIL
 62
     4
 10
-58.237042846539808
 20
34.145540022060622
 30
0.0
 42
0.3702522326309292
  0
VERTEX
  5
1F7B
  8
SAPA_PROFIL
 62
     4
 10
-58.533566208333191
 20
34.399999974726349
 30
0.0
  0
VERTEX
  5
1F7C
  8
SAPA_PROFIL
 62
     4
 10
-63.5500071951667
 20
34.400000000002493
 30
0.0
 42
0.5205670505515692
  0
VERTEX
  5
1F7D
  8
SAPA_PROFIL
 62
     4
 10
-64.019853505559922
 20
33.728989928339523
 30
0.0
  0
VERTEX
  5
1F7E
  8
SAPA_PROFIL
 62
     4
 10
-63.583089224434971
 20
32.52898992833007
 30
0.0
 42
0.3152987888807539
  0
VERTEX
  5
1F7F
  8
SAPA_PROFIL
 62
     4
 10
-63.11324291403912
 20
32.199999999992443
 30
0.0
  0
VERTEX
  5
1F80
  8
SAPA_PROFIL
 62
     4
 10
-62.172068233530027
 20
32.199999999999257
 30
0.0
 42
-0.5862175119221242
  0
VERTEX
  5
1F81
  8
SAPA_PROFIL
 62
     4
 10
-61.916326302548079
 20
31.743168674244121
 30
0.0
 42
0.0000002084758573
  0
SEQEND
  5
1F82
  8
SAPA_PROFIL
 62
     4
  0
POLYLINE
  5
13D4
  8
SAPA_PROFIL
 62
     4
 66
     1
 10
0.0
 20
0.0
 30
0.0
 70
     1
  0
VERTEX
  5
1F83
  8
SAPA_PROFIL
 62
     4
 10
-76.702943556166389
 20
14.90000000016439
 30
0.0
  0
VERTEX
  5
1F84
  8
SAPA_PROFIL
 62
     4
 10
-80.8970561058633
 20
14.90000000016258
 30
0.0
 42
0.1989123673786592
  0
VERTEX
  5
1F85
  8
SAPA_PROFIL
 62
     4
 10
-81.109188140219118
 20
14.81213203451912
 30
0.0
  0
VERTEX
  5
1F86
  8
SAPA_PROFIL
 62
     4
 10
-83.333452208930026
 20
12.58786796580821
 30
0.0
 42
-0.1989123673785438
  0
VERTEX
  5
1F87
  8
SAPA_PROFIL
 62
     4
 10
-83.545584243285845
 20
12.500000000164761
 30
0.0
  0
VERTEX
  5
1F88
  8
SAPA_PROFIL
 62
     4
 10
-83.999999831014208
 20
12.50000000016658
 30
0.0
 42
-0.4142135623730951
  0
VERTEX
  5
1F89
  8
SAPA_PROFIL
 62
     4
 10
-84.299999831014375
 20
12.80000000016585
 30
0.0
  0
VERTEX
  5
1F8A
  8
SAPA_PROFIL
 62
     4
 10
-84.299999831014375
 20
24.700000000162941
 30
0.0
 42
0.4142135623730951
  0
VERTEX
  5
1F8B
  8
SAPA_PROFIL
 62
     4
 10
-84.799999831014389
 20
25.200000000162941
 30
0.0
  0
VERTEX
  5
1F8C
  8
SAPA_PROFIL
 62
     4
 10
-86.499999831014208
 20
25.200000000162941
 30
0.0
 42
-0.4142135623739832
  0
VERTEX
  5
1F8D
  8
SAPA_PROFIL
 62
     4
 10
-86.799999831014375
 20
25.50000000016221
 30
0.0
  0
VERTEX
  5
1F8E
  8
SAPA_PROFIL
 62
     4
 10
-86.799999831014375
 20
29.200000000163669
 30
0.0
 42
-0.414213562375759
  0
VERTEX
  5
1F8F
  8
SAPA_PROFIL
 62
     4
 10
-86.499999831014208
 20
29.500000000164761
 30
0.0
  0
VERTEX
  5
1F90
  8
SAPA_PROFIL
 62
     4
 10
-70.006576700611191
 20
29.500000000162942
 30
0.0
 42
-0.4142135623735391
  0
VERTEX
  5
1F91
  8
SAPA_PROFIL
 62
     4
 10
-69.706576700611464
 20
29.200000000163669
 30
0.0
  0
VERTEX
  5
1F92
  8
SAPA_PROFIL
 62
     4
 10
-69.706576700611464
 20
12.80000000016585
 30
0.0
 42
-0.4142135623726511
  0
VERTEX
  5
1F93
  8
SAPA_PROFIL
 62
     4
 10
-70.006576700611191
 20
12.50000000016475
 30
0.0
  0
VERTEX
  5
1F94
  8
SAPA_PROFIL
 62
     4
 10
-74.054415418742025
 20
12.50000000016475
 30
0.0
 42
-0.1989123673785438
  0
VERTEX
  5
1F95
  8
SAPA_PROFIL
 62
     4
 10
-74.266547453097843
 20
12.58786796580821
 30
0.0
  0
VERTEX
  5
1F96
  8
SAPA_PROFIL
 62
     4
 10
-76.490811521810571
 20
14.812132034520941
 30
0.0
 42
0.1989123673798886
  0
SEQEND
  5
1F97
  8
SAPA_PROFIL
 62
     4
  0
POLYLINE
  5
13D5
  8
SAPA_PROFIL
 62
     4
 66
     1
 10
0.0
 20
0.0
 30
0.0
 70
     1
  0
VERTEX
  5
1F98
  8
SAPA_PROFIL
 62
     4
 10
-57.181576700611373
 20
29.500000000162942
 30
0.0
  0
VERTEX
  5
1F99
  8
SAPA_PROFIL
 62
     4
 10
-68.1065767006111
 20
29.500000000162942
 30
0.0
 42
0.4142135623732061
  0
VERTEX
  5
1F9A
  8
SAPA_PROFIL
 62
     4
 10
-68.406576700611282
 20
29.200000000163669
 30
0.0
  0
VERTEX
  5
1F9B
  8
SAPA_PROFIL
 62
     4
 10
-68.406576700611282
 20
12.80000000016585
 30
0.0
 42
0.4142135623730951
  0
VERTEX
  5
1F9C
  8
SAPA_PROFIL
 62
     4
 10
-68.1065767006111
 20
12.50000000016475
 30
0.0
  0
VERTEX
  5
1F9D
  8
SAPA_PROFIL
 62
     4
 10
-57.18157670061138
 20
12.50000000016475
 30
0.0
 42
0.4142135623731173
  0
VERTEX
  5
1F9E
  8
SAPA_PROFIL
 62
     4
 10
-56.881576700611191
 20
12.80000000016584
 30
0.0
  0
VERTEX
  5
1F9F
  8
SAPA_PROFIL
 62
     4
 10
-56.881576700611191
 20
29.200000000163659
 30
0.0
 42
0.4142135623730951
  0
SEQEND
  5
1FA0
  8
SAPA_PROFIL
 62
     4
  0
POLYLINE
  5
13D6
  8
SAPA_PROFIL
 62
     4
 66
     1
 10
0.0
 20
0.0
 30
0.0
  0
VERTEX
  5
1FA1
  8
SAPA_PROFIL
 62
     4
 10
-55.581576700611471
 20
12.80000000016584
 30
0.0
 42
0.4142135623731173
  0
VERTEX
  5
1FA2
  8
SAPA_PROFIL
 62
     4
 10
-55.281576700611289
 20
12.50000000016475
 30
0.0
  0
VERTEX
  5
1FA3
  8
SAPA_PROFIL
 62
     4
 10
-47.499999831014442
 20
12.500000000166571
 30
0.0
 42
0.4142135623730951
  0
VERTEX
  5
1FA4
  8
SAPA_PROFIL
 62
     4
 10
-46.999999831014442
 20
13.000000000166571
 30
0.0
  0
VERTEX
  5
1FA5
  8
SAPA_PROFIL
 62
     4
 10
-46.999999831014428
 20
29.00000000016475
 30
0.0
 42
0.4142135623730951
  0
VERTEX
  5
1FA6
  8
SAPA_PROFIL
 62
     4
 10
-47.499999831014428
 20
29.50000000016475
 30
0.0
  0
VERTEX
  5
1FA7
  8
SAPA_PROFIL
 62
     4
 10
-55.281576700611282
 20
29.500000000162942
 30
0.0
 42
0.4142135623730951
  0
VERTEX
  5
1FA8
  8
SAPA_PROFIL
 62
     4
 10
-55.581576700611457
 20
29.200000000163659
 30
0.0
  0
VERTEX
  5
1FA9
  8
SAPA_PROFIL
 62
     4
 10
-55.581576700611471
 20
12.80000000016584
 30
0.0
  0
SEQEND
  5
1FAA
  8
SAPA_PROFIL
 62
     4
  0
POLYLINE
  5
13D7
  8
SAPA_PROFIL
 62
     4
 66
     1
 10
0.0
 20
0.0
 30
0.0
 70
     1
  0
VERTEX
  5
1FAB
  8
SAPA_PROFIL
 62
     4
 10
-45.999999831014442
 20
11.000000000166571
 30
0.0
  0
VERTEX
  5
1FAC
  8
SAPA_PROFIL
 62
     4
 10
-74.675735762302025
 20
11.000000000164761
 30
0.0
 42
-0.1989123673799843
  0
VERTEX
  5
1FAD
  8
SAPA_PROFIL
 62
     4
 10
-74.887867796658753
 20
11.08786796581003
 30
0.0
  0
VERTEX
  5
1FAE
  8
SAPA_PROFIL
 62
     4
 10
-77.112131865369662
 20
13.312132034520941
 30
0.0
 42
0.1989123673811184
  0
VERTEX
  5
1FAF
  8
SAPA_PROFIL
 62
     4
 10
-77.32426389972548
 20
13.40000000016439
 30
0.0
  0
VERTEX
  5
1FB0
  8
SAPA_PROFIL
 62
     4
 10
-80.275735762303285
 20
13.400000000162571
 30
0.0
 42
0.1989123673785438
  0
VERTEX
  5
1FB1
  8
SAPA_PROFIL
 62
     4
 10
-80.487867796659117
 20
13.31213203451912
 30
0.0
  0
VERTEX
  5
1FB2
  8
SAPA_PROFIL
 62
     4
 10
-82.712131865370935
 20
11.08786796580821
 30
0.0
 42
-0.1989123673785438
  0
VERTEX
  5
1FB3
  8
SAPA_PROFIL
 62
     4
 10
-82.924263899726753
 20
11.000000000164761
 30
0.0
  0
VERTEX
  5
1FB4
  8
SAPA_PROFIL
 62
     4
 10
-85.299999831014375
 20
11.00000000016658
 30
0.0
 42
-0.4142135623730951
  0
VERTEX
  5
1FB5
  8
SAPA_PROFIL
 62
     4
 10
-85.799999831014389
 20
11.50000000016658
 30
0.0
  0
VERTEX
  5
1FB6
  8
SAPA_PROFIL
 62
     4
 10
-85.799999831014389
 20
23.400000000163669
 30
0.0
 42
0.414213562373761
  0
VERTEX
  5
1FB7
  8
SAPA_PROFIL
 62
     4
 10
-86.099999831014586
 20
23.700000000162941
 30
0.0
  0
VERTEX
  5
1FB8
  8
SAPA_PROFIL
 62
     4
 10
-87.799999831014375
 20
23.700000000162941
 30
0.0
 42
-0.4142135623730951
  0
VERTEX
  5
1FB9
  8
SAPA_PROFIL
 62
     4
 10
-88.299999831014389
 20
24.200000000162941
 30
0.0
  0
VERTEX
  5
1FBA
  8
SAPA_PROFIL
 62
     4
 10
-88.299999831014389
 20
30.500000000164761
 30
0.0
 42
-0.4142135623730951
  0
VERTEX
  5
1FBB
  8
SAPA_PROFIL
 62
     4
 10
-87.799999831014375
 20
31.000000000164761
 30
0.0
  0
VERTEX
  5
1FBC
  8
SAPA_PROFIL
 62
     4
 10
-86.799999831014006
 20
31.000000000162942
 30
0.0
 42
0.414213562373539
  0
VERTEX
  5
1FBD
  8
SAPA_PROFIL
 62
     4
 10
-86.499999831014065
 20
31.300000000162221
 30
0.0
  0
VERTEX
  5
1FBE
  8
SAPA_PROFIL
 62
     4
 10
-86.49999983101452
 20
32.900000000164397
 30
0.0
 42
0.4142135623735391
  0
VERTEX
  5
1FBF
  8
SAPA_PROFIL
 62
     4
 10
-86.799999831014233
 20
33.200000000163669
 30
0.0
  0
VERTEX
  5
1FC0
  8
SAPA_PROFIL
 62
     4
 10
-87.099999831013875
 20
33.20000000016185
 30
0.0
 42
-0.592337729603611
  0
VERTEX
  5
1FC1
  8
SAPA_PROFIL
 62
     4
 10
-87.352849913618144
 20
33.661452270903418
 30
0.0
  0
VERTEX
  5
1FC2
  8
SAPA_PROFIL
 62
     4
 10
-86.075790645321305
 20
35.361452270904152
 30
0.0
 42
-0.2560149538738706
  0
VERTEX
  5
1FC3
  8
SAPA_PROFIL
 62
     4
 10
-85.822940562716127
 20
35.500000000164761
 30
0.0
  0
VERTEX
  5
1FC4
  8
SAPA_PROFIL
 62
     4
 10
-85.59999983101352
 20
35.500000000164761
 30
0.0
 42
-0.4142135623733169
  0
VERTEX
  5
1FC5
  8
SAPA_PROFIL
 62
     4
 10
-85.299999831014233
 20
35.200000000165488
 30
0.0
  0
VERTEX
  5
1FC6
  8
SAPA_PROFIL
 62
     4
 10
-85.299999831014233
 20
31.300000000162221
 30
0.0
 42
0.414213562373539
  0
VERTEX
  5
1FC7
  8
SAPA_PROFIL
 62
     4
 10
-84.999999831014307
 20
31.000000000162942
 30
0.0
  0
VERTEX
  5
1FC8
  8
SAPA_PROFIL
 62
     4
 10
-73.999999831014122
 20
31.000000000164761
 30
0.0
 42
0.414213562373539
  0
VERTEX
  5
1FC9
  8
SAPA_PROFIL
 62
     4
 10
-73.699999831014168
 20
31.30000000016403
 30
0.0
  0
VERTEX
  5
1FCA
  8
SAPA_PROFIL
 62
     4
 10
-73.699999831014168
 20
35.200000000165488
 30
0.0
 42
-0.4142135623730951
  0
VERTEX
  5
1FCB
  8
SAPA_PROFIL
 62
     4
 10
-73.399999831014895
 20
35.500000000164761
 30
0.0
  0
VERTEX
  5
1FCC
  8
SAPA_PROFIL
 62
     4
 10
-73.177059099312288
 20
35.500000000164761
 30
0.0
 42
-0.2560149538738705
  0
VERTEX
  5
1FCD
  8
SAPA_PROFIL
 62
     4
 10
-72.924209016707124
 20
35.361452270904152
 30
0.0
  0
VERTEX
  5
1FCE
  8
SAPA_PROFIL
 62
     4
 10
-71.647149748410271
 20
33.661452270903418
 30
0.0
 42
-0.592337729603611
  0
VERTEX
  5
1FCF
  8
SAPA_PROFIL
 62
     4
 10
-71.899999831014526
 20
33.20000000016185
 30
0.0
  0
VERTEX
  5
1FD0
  8
SAPA_PROFIL
 62
     4
 10
-72.199999831014154
 20
33.200000000163669
 30
0.0
 42
0.4142135623735391
  0
VERTEX
  5
1FD1
  8
SAPA_PROFIL
 62
     4
 10
-72.499999831013895
 20
32.900000000164397
 30
0.0
  0
VERTEX
  5
1FD2
  8
SAPA_PROFIL
 62
     4
 10
-72.49999983101435
 20
31.30000000016403
 30
0.0
 42
0.414213562373539
  0
VERTEX
  5
1FD3
  8
SAPA_PROFIL
 62
     4
 10
-72.199999831014395
 20
31.000000000164761
 30
0.0
  0
VERTEX
  5
1FD4
  8
SAPA_PROFIL
 62
     4
 10
-45.999999831014428
 20
31.000000000168392
 30
0.0
 42
-0.414213562373126
  0
VERTEX
  5
1FD5
  8
SAPA_PROFIL
 62
     4
 10
-45.499999831014428
 20
30.500000000168392
 30
0.0
  0
VERTEX
  5
1FD6
  8
SAPA_PROFIL
 62
     4
 10
-45.499999831014442
 20
11.500000000166571
 30
0.0
 42
-0.4142135623730951
  0
SEQEND
  5
1FD7
  8
SAPA_PROFIL
 62
     4
  0
POLYLINE
  5
13D8
  8
SAPA_PROFIL
 66
     1
 10
0.0
 20
0.0
 30
0.0
 70
     1
  0
VERTEX
  5
1FD8
  8
SAPA_PROFIL
 10
-99.098475071207261
 20
22.799999999999049
 30
0.0
  0
VERTEX
  5
1FD9
  8
SAPA_PROFIL
 10
-99.098475071207261
 20
23.799999999999049
 30
0.0
  0
VERTEX
  5
1FDA
  8
SAPA_PROFIL
 10
-96.49847507120711
 20
23.799999999999049
 30
0.0
 42
0.4142135623730951
  0
VERTEX
  5
1FDB
  8
SAPA_PROFIL
 10
-95.998475071207096
 20
24.299999999999059
 30
0.0
  0
VERTEX
  5
1FDC
  8
SAPA_PROFIL
 10
-95.998475071207096
 20
24.69999999999914
 30
0.0
 42
0.4142135623730951
  0
VERTEX
  5
1FDD
  8
SAPA_PROFIL
 10
-96.298475071207065
 20
24.999999999999101
 30
0.0
  0
VERTEX
  5
1FDE
  8
SAPA_PROFIL
 10
-113.9999999990097
 20
24.999999999999091
 30
0.0
 42
0.4142135623730951
  0
VERTEX
  5
1FDF
  8
SAPA_PROFIL
 10
-114.4999999990097
 20
24.499999999999091
 30
0.0
  0
VERTEX
  5
1FE0
  8
SAPA_PROFIL
 10
-114.4999999990097
 20
-24.500000000000909
 30
0.0
 42
0.4142135623730951
  0
VERTEX
  5
1FE1
  8
SAPA_PROFIL
 10
-113.9999999990097
 20
-25.000000000000909
 30
0.0
  0
VERTEX
  5
1FE2
  8
SAPA_PROFIL
 10
-96.298475071207037
 20
-25.000000000000909
 30
0.0
 42
0.4142135623730951
  0
VERTEX
  5
1FE3
  8
SAPA_PROFIL
 10
-95.998475071207082
 20
-24.700000000000951
 30
0.0
  0
VERTEX
  5
1FE4
  8
SAPA_PROFIL
 10
-95.998475071207082
 20
-24.30000000000086
 30
0.0
 42
0.4142135623730951
  0
VERTEX
  5
1FE5
  8
SAPA_PROFIL
 10
-96.498475071207096
 20
-23.80000000000086
 30
0.0
  0
VERTEX
  5
1FE6
  8
SAPA_PROFIL
 10
-99.098475071207247
 20
-23.80000000000086
 30
0.0
  0
VERTEX
  5
1FE7
  8
SAPA_PROFIL
 10
-99.098475071207247
 20
-22.80000000000086
 30
0.0
  0
VERTEX
  5
1FE8
  8
SAPA_PROFIL
 10
-100.1025078308402
 20
-22.2203392215797
 30
0.0
 42
0.4155392929676362
  0
VERTEX
  5
1FE9
  8
SAPA_PROFIL
 10
-101.1971268026322
 20
-22.51631264788557
 30
0.0
  0
VERTEX
  5
1FEA
  8
SAPA_PROFIL
 10
-101.9382640409312
 20
-23.80000000000086
 30
0.0
  0
VERTEX
  5
1FEB
  8
SAPA_PROFIL
 10
-112.0999999990099
 20
-23.80000000000086
 30
0.0
 42
-0.4142135623730951
  0
VERTEX
  5
1FEC
  8
SAPA_PROFIL
 10
-113.0999999990098
 20
-22.80000000000086
 30
0.0
  0
VERTEX
  5
1FED
  8
SAPA_PROFIL
 10
-113.0999999990099
 20
22.799999999999049
 30
0.0
 42
-0.4142135623730951
  0
VERTEX
  5
1FEE
  8
SAPA_PROFIL
 10
-112.0999999990099
 20
23.799999999999041
 30
0.0
  0
VERTEX
  5
1FEF
  8
SAPA_PROFIL
 10
-101.9382640409312
 20
23.799999999999049
 30
0.0
  0
VERTEX
  5
1FF0
  8
SAPA_PROFIL
 10
-101.1971268026322
 20
22.516312647883758
 30
0.0
 42
0.4155392929676362
  0
VERTEX
  5
1FF1
  8
SAPA_PROFIL
 10
-100.1025078308402
 20
22.220339221577891
 30
0.0
  0
SEQEND
  5
1FF2
  8
SAPA_PROFIL
  0
POLYLINE
  5
13D9
  8
SAPA_PROFIL
 66
     1
 10
0.0
 20
0.0
 30
0.0
 70
     1
  0
VERTEX
  5
1FF3
  8
SAPA_PROFIL
 10
-92.499999999011834
 20
11.938375275004571
 30
0.0
 42
0.2216946626428728
  0
VERTEX
  5
1FF4
  8
SAPA_PROFIL
 10
-92.857212389325355
 20
12.7044197181232
 30
0.0
  0
VERTEX
  5
1FF5
  8
SAPA_PROFIL
 10
-94.142787608696509
 20
13.78314541054808
 30
0.0
 42
-0.2216946626428911
  0
VERTEX
  5
1FF6
  8
SAPA_PROFIL
 10
-94.499999999009972
 20
14.54918985366683
 30
0.0
  0
VERTEX
  5
1FF7
  8
SAPA_PROFIL
 10
-94.499999999010484
 20
16.325735931288389
 30
0.0
 42
0.1989123673796749
  0
VERTEX
  5
1FF8
  8
SAPA_PROFIL
 10
-94.587867964654393
 20
16.537867965644661
 30
0.0
  0
VERTEX
  5
1FF9
  8
SAPA_PROFIL
 10
-95.158578642773151
 20
17.108578643762961
 30
0.0
 42
0.6681786379193591
  0
VERTEX
  5
1FFA
  8
SAPA_PROFIL
 10
-95.499999999010484
 20
16.967157287525449
 30
0.0
  0
VERTEX
  5
1FFB
  8
SAPA_PROFIL
 10
-95.499999999010257
 20
16.000000000000249
 30
0.0
 42
-0.4142135623730951
  0
VERTEX
  5
1FFC
  8
SAPA_PROFIL
 10
-95.999999999010029
 20
15.50000000000025
 30
0.0
  0
VERTEX
  5
1FFD
  8
SAPA_PROFIL
 10
-96.390808928730635
 20
15.50000000000025
 30
0.0
 42
-0.1763269807084316
  0
VERTEX
  5
1FFE
  8
SAPA_PROFIL
 10
-96.583645211636394
 20
15.57018666706451
 30
0.0
  0
VERTEX
  5
1FFF
  8
SAPA_PROFIL
 10
-98.321393803853212
 20
17.028330869872459
 30
0.0
 42
-0.2216946626429586
  0
VERTEX
  5
2000
  8
SAPA_PROFIL
 10
-98.499999999009972
 20
17.411353091431941
 30
0.0
  0
VERTEX
  5
2001
  8
SAPA_PROFIL
 10
-98.499999999010029
 20
19.981908440199302
 30
0.0
 42
-0.2216946626429592
  0
VERTEX
  5
2002
  8
SAPA_PROFIL
 10
-98.392836281916075
 20
20.211721773135221
 30
0.0
  0
VERTEX
  5
2003
  8
SAPA_PROFIL
 10
-96.583645211636394
 20
21.72981333293594
 30
0.0
 42
-0.1763269807084563
  0
VERTEX
  5
2004
  8
SAPA_PROFIL
 10
-96.390808928730635
 20
21.80000000000021
 30
0.0
  0
VERTEX
  5
2005
  8
SAPA_PROFIL
 10
-95.999999999010029
 20
21.80000000000021
 30
0.0
 42
-0.4142135623730951
  0
VERTEX
  5
2006
  8
SAPA_PROFIL
 10
-95.499999999010484
 20
21.30000000000021
 30
0.0
  0
VERTEX
  5
2007
  8
SAPA_PROFIL
 10
-95.499999999010484
 20
20.332842712474779
 30
0.0
 42
0.6681786379193841
  0
VERTEX
  5
2008
  8
SAPA_PROFIL
 10
-95.158578642773151
 20
20.191421356237718
 30
0.0
  0
VERTEX
  5
2009
  8
SAPA_PROFIL
 10
-94.587867964654393
 20
20.76213203435648
 30
0.0
 42
0.1989123673796471
  0
VERTEX
  5
200A
  8
SAPA_PROFIL
 10
-94.499999999010015
 20
20.974264068712301
 30
0.0
  0
VERTEX
  5
200B
  8
SAPA_PROFIL
 10
-94.499999999010484
 20
23.30000000000021
 30
0.0
 42
0.4142135623730951
  0
VERTEX
  5
200C
  8
SAPA_PROFIL
 10
-94.999999999010484
 20
23.80000000000021
 30
0.0
  0
VERTEX
  5
200D
  8
SAPA_PROFIL
 10
-98.699999999010359
 20
23.800000000000779
 30
0.0
 42
0.4142135623729843
  0
VERTEX
  5
200E
  8
SAPA_PROFIL
 10
-98.999999999010555
 20
23.500000000000711
 30
0.0
  0
VERTEX
  5
200F
  8
SAPA_PROFIL
 10
-98.999999999010427
 20
22.47320508075839
 30
0.0
 42
-0.26794919243117
  0
VERTEX
  5
2010
  8
SAPA_PROFIL
 10
-99.149999999010518
 20
22.213397459622708
 30
0.0
  0
VERTEX
  5
2011
  8
SAPA_PROFIL
 10
-100.6580771356048
 20
21.342708718851469
 30
0.0
 42
-0.4142135623734465
  0
VERTEX
  5
2012
  8
SAPA_PROFIL
 10
-101.06788475674
 20
21.452516339986708
 30
0.0
  0
VERTEX
  5
2013
  8
SAPA_PROFIL
 10
-101.38397459522599
 20
22.00000000000059
 30
0.0
 42
0.4663076581550835
  0
VERTEX
  5
2014
  8
SAPA_PROFIL
 10
-102.89278760869691
 20
22.266044443119569
 30
0.0
  0
VERTEX
  5
2015
  8
SAPA_PROFIL
 10
-106.3928362819163
 20
19.329154892317341
 30
0.0
 42
0.2216946626429129
  0
VERTEX
  5
2016
  8
SAPA_PROFIL
 10
-106.4999999990103
 20
19.099341559381649
 30
0.0
  0
VERTEX
  5
2017
  8
SAPA_PROFIL
 10
-106.4999999990103
 20
17.95000000000007
 30
0.0
 42
0.4142135623732061
  0
VERTEX
  5
2018
  8
SAPA_PROFIL
 10
-106.1999999990102
 20
17.650000000000109
 30
0.0
  0
VERTEX
  5
2019
  8
SAPA_PROFIL
 10
-102.6932604937618
 20
17.650000000000681
 30
0.0
 42
-0.1763269807085094
  0
VERTEX
  5
201A
  8
SAPA_PROFIL
 10
-102.05047288407511
 20
17.416044443119649
 30
0.0
  0
VERTEX
  5
201B
  8
SAPA_PROFIL
 10
-99.307163716104085
 20
15.11413473206985
 30
0.0
 42
-0.2216946626429509
  0
VERTEX
  5
201C
  8
SAPA_PROFIL
 10
-99.199999999010004
 20
14.88432139913416
 30
0.0
  0
VERTEX
  5
201D
  8
SAPA_PROFIL
 10
-99.199999999010004
 20
14.024213696580681
 30
0.0
 42
0.4142135623731506
  0
VERTEX
  5
201E
  8
SAPA_PROFIL
 10
-98.899999999010006
 20
13.72421369658073
 30
0.0
  0
VERTEX
  5
201F
  8
SAPA_PROFIL
 10
-97.759911398917055
 20
13.72421369658073
 30
0.0
 42
-0.1763269807084654
  0
VERTEX
  5
2020
  8
SAPA_PROFIL
 10
-97.567075116011125
 20
13.65402702951646
 30
0.0
  0
VERTEX
  5
2021
  8
SAPA_PROFIL
 10
-95.557212389323354
 20
11.967551956835811
 30
0.0
 42
-0.2216946626429509
  0
VERTEX
  5
2022
  8
SAPA_PROFIL
 10
-95.199999999009876
 20
11.201507513716839
 30
0.0
  0
VERTEX
  5
2023
  8
SAPA_PROFIL
 10
-95.199999999010004
 20
-11.201507513716789
 30
0.0
 42
-0.2216946626429508
  0
VERTEX
  5
2024
  8
SAPA_PROFIL
 10
-95.557212389323468
 20
-11.967551956835759
 30
0.0
  0
VERTEX
  5
2025
  8
SAPA_PROFIL
 10
-97.56707511601121
 20
-13.65402702951641
 30
0.0
 42
-0.1763269807084657
  0
VERTEX
  5
2026
  8
SAPA_PROFIL
 10
-97.759911398917154
 20
-13.72421369658068
 30
0.0
  0
VERTEX
  5
2027
  8
SAPA_PROFIL
 10
-98.899999999010006
 20
-13.72421369658068
 30
0.0
 42
0.4142135623730951
  0
VERTEX
  5
2028
  8
SAPA_PROFIL
 10
-99.199999999009947
 20
-14.024213696580629
 30
0.0
  0
VERTEX
  5
2029
  8
SAPA_PROFIL
 10
-99.199999999009947
 20
-14.884321399134111
 30
0.0
 42
-0.2216946626429889
  0
VERTEX
  5
202A
  8
SAPA_PROFIL
 10
-99.307163716104014
 20
-15.1141347320698
 30
0.0
  0
VERTEX
  5
202B
  8
SAPA_PROFIL
 10
-102.05047288407521
 20
-17.416044443119599
 30
0.0
 42
-0.1763269807085052
  0
VERTEX
  5
202C
  8
SAPA_PROFIL
 10
-102.693260493762
 20
-17.650000000000631
 30
0.0
  0
VERTEX
  5
202D
  8
SAPA_PROFIL
 10
-106.1999999990102
 20
-17.649999999999949
 30
0.0
 42
0.4142135623732062
  0
VERTEX
  5
202E
  8
SAPA_PROFIL
 10
-106.4999999990103
 20
-17.94999999999991
 30
0.0
  0
VERTEX
  5
202F
  8
SAPA_PROFIL
 10
-106.4999999990103
 20
-19.099341559381489
 30
0.0
 42
0.2216946626429129
  0
VERTEX
  5
2030
  8
SAPA_PROFIL
 10
-106.3928362819163
 20
-19.329154892317181
 30
0.0
  0
VERTEX
  5
2031
  8
SAPA_PROFIL
 10
-102.89278760869691
 20
-22.266044443119519
 30
0.0
 42
0.4663076581550919
  0
VERTEX
  5
2032
  8
SAPA_PROFIL
 10
-101.38397459522599
 20
-22.00000000000054
 30
0.0
  0
VERTEX
  5
2033
  8
SAPA_PROFIL
 10
-101.0678847567401
 20
-21.452516339986659
 30
0.0
 42
-0.4142135623731708
  0
VERTEX
  5
2034
  8
SAPA_PROFIL
 10
-100.6580771356048
 20
-21.342708718851419
 30
0.0
  0
VERTEX
  5
2035
  8
SAPA_PROFIL
 10
-99.149999999010504
 20
-22.213397459622659
 30
0.0
 42
-0.26794919243117
  0
VERTEX
  5
2036
  8
SAPA_PROFIL
 10
-98.999999999010413
 20
-22.473205080758341
 30
0.0
  0
VERTEX
  5
2037
  8
SAPA_PROFIL
 10
-98.999999999010413
 20
-23.500000000000661
 30
0.0
 42
0.4142135623729287
  0
VERTEX
  5
2038
  8
SAPA_PROFIL
 10
-98.699999999010345
 20
-23.800000000000729
 30
0.0
  0
VERTEX
  5
2039
  8
SAPA_PROFIL
 10
-94.999999999010484
 20
-23.80000000000015
 30
0.0
 42
0.4142135623730951
  0
VERTEX
  5
203A
  8
SAPA_PROFIL
 10
-94.49999999901047
 20
-23.300000000000161
 30
0.0
  0
VERTEX
  5
203B
  8
SAPA_PROFIL
 10
-94.499999999010015
 20
-20.974264068712252
 30
0.0
 42
0.1989123673796819
  0
VERTEX
  5
203C
  8
SAPA_PROFIL
 10
-94.587867964654365
 20
-20.76213203435643
 30
0.0
  0
VERTEX
  5
203D
  8
SAPA_PROFIL
 10
-95.158578642773136
 20
-20.191421356237669
 30
0.0
 42
0.6681786379193841
  0
VERTEX
  5
203E
  8
SAPA_PROFIL
 10
-95.499999999010456
 20
-20.332842712474729
 30
0.0
  0
VERTEX
  5
203F
  8
SAPA_PROFIL
 10
-95.499999999010456
 20
-21.30000000000015
 30
0.0
 42
-0.4142135623730951
  0
VERTEX
  5
2040
  8
SAPA_PROFIL
 10
-95.999999999010015
 20
-21.80000000000015
 30
0.0
  0
VERTEX
  5
2041
  8
SAPA_PROFIL
 10
-96.390808928730621
 20
-21.80000000000015
 30
0.0
 42
-0.1763269807084561
  0
VERTEX
  5
2042
  8
SAPA_PROFIL
 10
-96.583645211636394
 20
-21.72981333293589
 30
0.0
  0
VERTEX
  5
2043
  8
SAPA_PROFIL
 10
-98.392836281916075
 20
-20.211721773135171
 30
0.0
 42
-0.2216946626429592
  0
VERTEX
  5
2044
  8
SAPA_PROFIL
 10
-98.499999999010015
 20
-19.981908440199248
 30
0.0
  0
VERTEX
  5
2045
  8
SAPA_PROFIL
 10
-98.499999999009958
 20
-17.411353091431891
 30
0.0
 42
-0.2216946626429736
  0
VERTEX
  5
2046
  8
SAPA_PROFIL
 10
-98.321393803853212
 20
-17.028330869872399
 30
0.0
  0
VERTEX
  5
2047
  8
SAPA_PROFIL
 10
-96.583645211636394
 20
-15.57018666706446
 30
0.0
 42
-0.1763269807084407
  0
VERTEX
  5
2048
  8
SAPA_PROFIL
 10
-96.390808928730621
 20
-15.500000000000201
 30
0.0
  0
VERTEX
  5
2049
  8
SAPA_PROFIL
 10
-95.999999999010015
 20
-15.500000000000201
 30
0.0
 42
-0.4142135623730951
  0
VERTEX
  5
204A
  8
SAPA_PROFIL
 10
-95.499999999010456
 20
-16.000000000000199
 30
0.0
  0
VERTEX
  5
204B
  8
SAPA_PROFIL
 10
-95.499999999010456
 20
-16.967157287525389
 30
0.0
 42
0.6681786379193591
  0
VERTEX
  5
204C
  8
SAPA_PROFIL
 10
-95.158578642773136
 20
-17.108578643762911
 30
0.0
  0
VERTEX
  5
204D
  8
SAPA_PROFIL
 10
-94.587867964654365
 20
-16.537867965644601
 30
0.0
 42
0.1989123673796749
  0
VERTEX
  5
204E
  8
SAPA_PROFIL
 10
-94.49999999901047
 20
-16.325735931288332
 30
0.0
  0
VERTEX
  5
204F
  8
SAPA_PROFIL
 10
-94.499999999009944
 20
-14.54918985366689
 30
0.0
 42
-0.2216946626428804
  0
VERTEX
  5
2050
  8
SAPA_PROFIL
 10
-94.142787608696437
 20
-13.783145410548141
 30
0.0
  0
VERTEX
  5
2051
  8
SAPA_PROFIL
 10
-92.857212389325284
 20
-12.70441971812315
 30
0.0
 42
0.2216946626428499
  0
VERTEX
  5
2052
  8
SAPA_PROFIL
 10
-92.499999999011834
 20
-11.938375275004519
 30
0.0
  0
VERTEX
  5
2053
  8
SAPA_PROFIL
 10
-92.499999999010015
 20
-6.6500000000000616
 30
0.0
 42
-0.4142135623730951
  0
VERTEX
  5
2054
  8
SAPA_PROFIL
 10
-92.199999999010288
 20
-6.3499999999998797
 30
0.0
  0
VERTEX
  5
2055
  8
SAPA_PROFIL
 10
-91.799999999010197
 20
-6.3499999999998797
 30
0.0
 42
0.4142135623730951
  0
VERTEX
  5
2056
  8
SAPA_PROFIL
 10
-91.499999999010015
 20
-6.0500000000001526
 30
0.0
  0
VERTEX
  5
2057
  8
SAPA_PROFIL
 10
-91.499999999010015
 20
-5.6500000000000616
 30
0.0
 42
0.4142135623730951
  0
VERTEX
  5
2058
  8
SAPA_PROFIL
 10
-91.799999999010197
 20
-5.3499999999998797
 30
0.0
  0
VERTEX
  5
2059
  8
SAPA_PROFIL
 10
-92.199999999010288
 20
-5.3499999999998797
 30
0.0
 42
-0.4142135623730951
  0
VERTEX
  5
205A
  8
SAPA_PROFIL
 10
-92.499999999010015
 20
-5.0500000000001526
 30
0.0
  0
VERTEX
  5
205B
  8
SAPA_PROFIL
 10
-92.499999999010015
 20
-0.6242640687118808
 30
0.0
 42
0.1989123673795535
  0
VERTEX
  5
205C
  8
SAPA_PROFIL
 10
-92.587867964653924
 20
-0.4121320343560626
 30
0.0
  0
VERTEX
  5
205D
  8
SAPA_PROFIL
 10
-92.999999999010015
 20
0.0000000000000284
 30
0.0
  0
VERTEX
  5
205E
  8
SAPA_PROFIL
 10
-92.587867964653924
 20
0.4121320343561195
 30
0.0
 42
0.1989123673795536
  0
VERTEX
  5
205F
  8
SAPA_PROFIL
 10
-92.499999999010015
 20
0.6242640687119377
 30
0.0
  0
VERTEX
  5
2060
  8
SAPA_PROFIL
 10
-92.499999999010015
 20
5.0499999999997547
 30
0.0
 42
-0.4142135623730951
  0
VERTEX
  5
2061
  8
SAPA_PROFIL
 10
-92.199999999010288
 20
5.3499999999999366
 30
0.0
  0
VERTEX
  5
2062
  8
SAPA_PROFIL
 10
-91.799999999010197
 20
5.3499999999999366
 30
0.0
 42
0.4142135623730951
  0
VERTEX
  5
2063
  8
SAPA_PROFIL
 10
-91.499999999010015
 20
5.6500000000001194
 30
0.0
  0
VERTEX
  5
2064
  8
SAPA_PROFIL
 10
-91.499999999010015
 20
6.0500000000002103
 30
0.0
 42
0.4142135623730951
  0
VERTEX
  5
2065
  8
SAPA_PROFIL
 10
-91.799999999010197
 20
6.3499999999999366
 30
0.0
  0
VERTEX
  5
2066
  8
SAPA_PROFIL
 10
-92.199999999010288
 20
6.3499999999999366
 30
0.0
 42
-0.414213562373095
  0
VERTEX
  5
2067
  8
SAPA_PROFIL
 10
-92.499999999010015
 20
6.6500000000001194
 30
0.0
  0
SEQEND
  5
2068
  8
SAPA_PROFIL
  0
POLYLINE
  5
13DA
  8
SAPA_PROFIL
 66
     1
 10
0.0
 20
0.0
 30
0.0
 70
     1
  0
VERTEX
  5
2069
  8
SAPA_PROFIL
 10
-33.050000000001319
 20
-2.700000000000045
 30
0.0
  0
VERTEX
  5
206A
  8
SAPA_PROFIL
 10
-31.673765406424991
 20
-2.076719696698091
 30
0.0
 42
-0.5450207798987328
  0
VERTEX
  5
206B
  8
SAPA_PROFIL
 10
-31.250000000001371
 20
-2.3499999999999091
 30
0.0
  0
VERTEX
  5
206C
  8
SAPA_PROFIL
 10
-31.250000000001371
 20
-2.700000000000045
 30
0.0
  0
VERTEX
  5
206D
  8
SAPA_PROFIL
 10
-31.000000000001361
 20
-2.700000000000045
 30
0.0
 42
0.4142135623730951
  0
VERTEX
  5
206E
  8
SAPA_PROFIL
 10
-30.000000000001371
 20
-1.700000000000045
 30
0.0
  0
VERTEX
  5
206F
  8
SAPA_PROFIL
 10
-30.000000000001371
 20
1.700000000000045
 30
0.0
 42
0.4142135623730951
  0
VERTEX
  5
2070
  8
SAPA_PROFIL
 10
-31.000000000001361
 20
2.700000000000045
 30
0.0
  0
VERTEX
  5
2071
  8
SAPA_PROFIL
 10
-32.150000000001228
 20
2.700000000000045
 30
0.0
  0
VERTEX
  5
2072
  8
SAPA_PROFIL
 10
-32.150000000001228
 20
2.3499999999999091
 30
0.0
 42
-0.5450200690651551
  0
VERTEX
  5
2073
  8
SAPA_PROFIL
 10
-32.573765000001231
 20
2.0767190000001392
 30
0.0
  0
VERTEX
  5
2074
  8
SAPA_PROFIL
 10
-33.950000000001189
 20
2.700000000000045
 30
0.0
  0
VERTEX
  5
2075
  8
SAPA_PROFIL
 10
-33.950000000001189
 20
2.3499999999999091
 30
0.0
 42
-0.5450200690651692
  0
VERTEX
  5
2076
  8
SAPA_PROFIL
 10
-34.373765000001193
 20
2.0767190000001392
 30
0.0
  0
VERTEX
  5
2077
  8
SAPA_PROFIL
 10
-35.750000000001357
 20
2.700000000000045
 30
0.0
  0
VERTEX
  5
2078
  8
SAPA_PROFIL
 10
-35.750000000001357
 20
2.3499999999999091
 30
0.0
 42
-0.5450200690651619
  0
VERTEX
  5
2079
  8
SAPA_PROFIL
 10
-36.173765000001367
 20
2.0767190000001392
 30
0.0
  0
VERTEX
  5
207A
  8
SAPA_PROFIL
 10
-37.550000000001319
 20
2.700000000000045
 30
0.0
  0
VERTEX
  5
207B
  8
SAPA_PROFIL
 10
-37.550000000001319
 20
2.3499999999999091
 30
0.0
 42
-0.5450200690651619
  0
VERTEX
  5
207C
  8
SAPA_PROFIL
 10
-37.973765000001322
 20
2.0767190000001392
 30
0.0
  0
VERTEX
  5
207D
  8
SAPA_PROFIL
 10
-39.35000000000128
 20
2.700000000000045
 30
0.0
  0
VERTEX
  5
207E
  8
SAPA_PROFIL
 10
-39.35000000000128
 20
2.3499999999999091
 30
0.0
 42
-0.5450200690651692
  0
VERTEX
  5
207F
  8
SAPA_PROFIL
 10
-39.773765000001283
 20
2.0767190000001392
 30
0.0
  0
VERTEX
  5
2080
  8
SAPA_PROFIL
 10
-41.150000000001221
 20
2.700000000000045
 30
0.0
  0
VERTEX
  5
2081
  8
SAPA_PROFIL
 10
-41.450000000001182
 20
2.700000000000045
 30
0.0
  0
VERTEX
  5
2082
  8
SAPA_PROFIL
 10
-41.450000000001182
 20
-2.4282676335108131
 30
0.0
  0
VERTEX
  5
2083
  8
SAPA_PROFIL
 10
-40.673765406424991
 20
-2.076719696698091
 30
0.0
 42
-0.5450207798987328
  0
VERTEX
  5
2084
  8
SAPA_PROFIL
 10
-40.250000000001357
 20
-2.3499999999999091
 30
0.0
  0
VERTEX
  5
2085
  8
SAPA_PROFIL
 10
-40.250000000001357
 20
-2.700000000000045
 30
0.0
  0
VERTEX
  5
2086
  8
SAPA_PROFIL
 10
-38.873765000001193
 20
-2.0767200000000221
 30
0.0
 42
-0.5450205149791638
  0
VERTEX
  5
2087
  8
SAPA_PROFIL
 10
-38.450000000001182
 20
-2.3499999999999091
 30
0.0
  0
VERTEX
  5
2088
  8
SAPA_PROFIL
 10
-38.450000000001182
 20
-2.700000000000045
 30
0.0
  0
VERTEX
  5
2089
  8
SAPA_PROFIL
 10
-37.073765406424847
 20
-2.076719696698091
 30
0.0
 42
-0.545020779898768
  0
VERTEX
  5
208A
  8
SAPA_PROFIL
 10
-36.650000000001228
 20
-2.3499999999999091
 30
0.0
  0
VERTEX
  5
208B
  8
SAPA_PROFIL
 10
-36.650000000001228
 20
-2.700000000000045
 30
0.0
  0
VERTEX
  5
208C
  8
SAPA_PROFIL
 10
-35.2737654064249
 20
-2.076719696698091
 30
0.0
 42
-0.54502077989874
  0
VERTEX
  5
208D
  8
SAPA_PROFIL
 10
-34.850000000001273
 20
-2.3499999999999091
 30
0.0
  0
VERTEX
  5
208E
  8
SAPA_PROFIL
 10
-34.850000000001273
 20
-2.700000000000045
 30
0.0
  0
VERTEX
  5
208F
  8
SAPA_PROFIL
 10
-33.473765406424953
 20
-2.076719696698091
 30
0.0
 42
-0.545020779898761
  0
VERTEX
  5
2090
  8
SAPA_PROFIL
 10
-33.050000000001319
 20
-2.3499999999999091
 30
0.0
  0
SEQEND
  5
2091
  8
SAPA_PROFIL
  0
POLYLINE
  5
13DB
  8
SAPA_PROFIL
 66
     1
 10
0.0
 20
0.0
 30
0.0
 70
     1
  0
VERTEX
  5
2092
  8
SAPA_PROFIL
 10
58.024264068710629
 20
-23.0
 30
0.0
 42
-0.1989123673796753
  0
VERTEX
  5
2093
  8
SAPA_PROFIL
 10
57.812132034354811
 20
-22.91213203435586
 30
0.0
  0
VERTEX
  5
2094
  8
SAPA_PROFIL
 10
56.087867965642772
 20
-21.187867965644049
 30
0.0
 42
0.1989123673796753
  0
VERTEX
  5
2095
  8
SAPA_PROFIL
 10
55.875735931286727
 20
-21.099999999999909
 30
0.0
  0
VERTEX
  5
2096
  8
SAPA_PROFIL
 10
55.299999999998818
 20
-21.099999999999909
 30
0.0
 42
0.4142135623730951
  0
VERTEX
  5
2097
  8
SAPA_PROFIL
 10
54.999999999998643
 20
-21.400000000000091
 30
0.0
  0
VERTEX
  5
2098
  8
SAPA_PROFIL
 10
54.999999999998643
 20
-22.700000000000038
 30
0.0
 42
-0.4142135623730951
  0
VERTEX
  5
2099
  8
SAPA_PROFIL
 10
54.699999999998681
 20
-23.0
 30
0.0
  0
VERTEX
  5
209A
  8
SAPA_PROFIL
 10
29.999999999998639
 20
-23.0
 30
0.0
 42
-0.4142135623730951
  0
VERTEX
  5
209B
  8
SAPA_PROFIL
 10
28.999999999998629
 20
-22.0
 30
0.0
  0
VERTEX
  5
209C
  8
SAPA_PROFIL
 10
28.999999999998629
 20
-17.599999999999909
 30
0.0
 42
0.4142135623730951
  0
VERTEX
  5
209D
  8
SAPA_PROFIL
 10
28.699999999998681
 20
-17.299999999999951
 30
0.0
  0
VERTEX
  5
209E
  8
SAPA_PROFIL
 10
26.39999999999873
 20
-17.299999999999951
 30
0.0
 42
0.4142135623730951
  0
VERTEX
  5
209F
  8
SAPA_PROFIL
 10
26.099999999998769
 20
-17.599999999999909
 30
0.0
  0
VERTEX
  5
20A0
  8
SAPA_PROFIL
 10
26.099999999998769
 20
-18.099999999999909
 30
0.0
 42
0.4142135623730951
  0
VERTEX
  5
20A1
  8
SAPA_PROFIL
 10
26.39999999999873
 20
-18.400000000000091
 30
0.0
  0
VERTEX
  5
20A2
  8
SAPA_PROFIL
 10
26.736626924633129
 20
-18.400000000000091
 30
0.0
 42
-0.5535245743249297
  0
VERTEX
  5
20A3
  8
SAPA_PROFIL
 10
24.964107602123249
 20
-22.71055421153142
 30
0.0
  0
VERTEX
  5
20A4
  8
SAPA_PROFIL
 10
24.67677669529531
 20
-22.423223304703239
 30
0.0
 42
0.4142135623729421
  0
VERTEX
  5
20A5
  8
SAPA_PROFIL
 10
24.3232233047022
 20
-22.423223304703239
 30
0.0
  0
VERTEX
  5
20A6
  8
SAPA_PROFIL
 10
24.03589239787425
 20
-22.71055421153142
 30
0.0
 42
-0.5535245743249292
  0
VERTEX
  5
20A7
  8
SAPA_PROFIL
 10
22.26337307536415
 20
-18.400000000000091
 30
0.0
  0
VERTEX
  5
20A8
  8
SAPA_PROFIL
 10
22.599999999998769
 20
-18.400000000000091
 30
0.0
 42
0.4142135623730951
  0
VERTEX
  5
20A9
  8
SAPA_PROFIL
 10
22.89999999999873
 20
-18.099999999999909
 30
0.0
  0
VERTEX
  5
20AA
  8
SAPA_PROFIL
 10
22.89999999999873
 20
-17.599999999999909
 30
0.0
 42
0.4142135623730951
  0
VERTEX
  5
20AB
  8
SAPA_PROFIL
 10
22.599999999998769
 20
-17.299999999999951
 30
0.0
  0
VERTEX
  5
20AC
  8
SAPA_PROFIL
 10
21.499999999998639
 20
-17.299999999999951
 30
0.0
 42
0.4142135623730951
  0
VERTEX
  5
20AD
  8
SAPA_PROFIL
 10
19.999999999998629
 20
-18.799999999999951
 30
0.0
  0
VERTEX
  5
20AE
  8
SAPA_PROFIL
 10
19.999999999998629
 20
-21.63397459621547
 30
0.0
 42
0.267949192431143
  0
VERTEX
  5
20AF
  8
SAPA_PROFIL
 10
20.249999999998639
 20
-22.06698729810773
 30
0.0
 42
-0.767326987978956
  0
VERTEX
  5
20B0
  8
SAPA_PROFIL
 10
19.999999999998629
 20
-23.0
 30
0.0
  0
VERTEX
  5
20B1
  8
SAPA_PROFIL
 10
-15.000000000001361
 20
-23.0
 30
0.0
 42
-0.4142135623730951
  0
VERTEX
  5
20B2
  8
SAPA_PROFIL
 10
-16.000000000001361
 20
-22.0
 30
0.0
  0
VERTEX
  5
20B3
  8
SAPA_PROFIL
 10
-16.000000000001361
 20
-17.599999999999909
 30
0.0
 42
0.4142135623730951
  0
VERTEX
  5
20B4
  8
SAPA_PROFIL
 10
-16.300000000001319
 20
-17.299999999999951
 30
0.0
  0
VERTEX
  5
20B5
  8
SAPA_PROFIL
 10
-18.60000000000127
 20
-17.299999999999951
 30
0.0
 42
0.4142135623730951
  0
VERTEX
  5
20B6
  8
SAPA_PROFIL
 10
-18.900000000001231
 20
-17.599999999999909
 30
0.0
  0
VERTEX
  5
20B7
  8
SAPA_PROFIL
 10
-18.900000000001231
 20
-18.099999999999909
 30
0.0
 42
0.4142135623730951
  0
VERTEX
  5
20B8
  8
SAPA_PROFIL
 10
-18.60000000000127
 20
-18.400000000000091
 30
0.0
  0
VERTEX
  5
20B9
  8
SAPA_PROFIL
 10
-18.263373075366871
 20
-18.400000000000091
 30
0.0
 42
-0.5535245743249297
  0
VERTEX
  5
20BA
  8
SAPA_PROFIL
 10
-20.035892397876751
 20
-22.71055421153142
 30
0.0
  0
VERTEX
  5
20BB
  8
SAPA_PROFIL
 10
-20.323223304704701
 20
-22.423223304703239
 30
0.0
 42
0.4142135623730243
  0
VERTEX
  5
20BC
  8
SAPA_PROFIL
 10
-20.6767766952978
 20
-22.42322330470347
 30
0.0
  0
VERTEX
  5
20BD
  8
SAPA_PROFIL
 10
-20.96410760212575
 20
-22.71055421153142
 30
0.0
 42
-0.5535245743249292
  0
VERTEX
  5
20BE
  8
SAPA_PROFIL
 10
-22.736626924635861
 20
-18.400000000000091
 30
0.0
  0
VERTEX
  5
20BF
  8
SAPA_PROFIL
 10
-22.400000000001231
 20
-18.400000000000091
 30
0.0
 42
0.4142135623730951
  0
VERTEX
  5
20C0
  8
SAPA_PROFIL
 10
-22.10000000000127
 20
-18.099999999999909
 30
0.0
  0
VERTEX
  5
20C1
  8
SAPA_PROFIL
 10
-22.10000000000127
 20
-17.599999999999909
 30
0.0
 42
0.4142135623730951
  0
VERTEX
  5
20C2
  8
SAPA_PROFIL
 10
-22.400000000001231
 20
-17.299999999999951
 30
0.0
  0
VERTEX
  5
20C3
  8
SAPA_PROFIL
 10
-23.500000000001361
 20
-17.299999999999951
 30
0.0
 42
0.4142135623730951
  0
VERTEX
  5
20C4
  8
SAPA_PROFIL
 10
-25.000000000001371
 20
-18.799999999999951
 30
0.0
  0
VERTEX
  5
20C5
  8
SAPA_PROFIL
 10
-25.000000000001371
 20
-21.78038475772928
 30
0.0
 42
0.2679491924311188
  0
VERTEX
  5
20C6
  8
SAPA_PROFIL
 10
-24.85000000000127
 20
-22.040192378864731
 30
0.0
 42
-0.7673269879789557
  0
VERTEX
  5
20C7
  8
SAPA_PROFIL
 10
-25.000000000001371
 20
-22.599999999999909
 30
0.0
  0
VERTEX
  5
20C8
  8
SAPA_PROFIL
 10
-27.000000000001361
 20
-22.599999999999682
 30
0.0
 42
-0.4142137811865366
  0
VERTEX
  5
20C9
  8
SAPA_PROFIL
 10
-28.000000000001371
 20
-21.600000747075232
 30
0.0
  0
VERTEX
  5
20CA
  8
SAPA_PROFIL
 10
-28.000000000001371
 20
21.599999999999909
 30
0.0
 42
-0.4142140000000124
  0
VERTEX
  5
20CB
  8
SAPA_PROFIL
 10
-27.000000000001361
 20
22.599999999999909
 30
0.0
  0
VERTEX
  5
20CC
  8
SAPA_PROFIL
 10
-25.000000000001371
 20
22.599999999999909
 30
0.0
 42
-0.7673269879789457
  0
VERTEX
  5
20CD
  8
SAPA_PROFIL
 10
-24.85000000000127
 20
22.040192378864731
 30
0.0
 42
0.2679491924311191
  0
VERTEX
  5
20CE
  8
SAPA_PROFIL
 10
-25.000000000001371
 20
21.78038475772928
 30
0.0
  0
VERTEX
  5
20CF
  8
SAPA_PROFIL
 10
-25.000000000001371
 20
18.799999999999951
 30
0.0
 42
0.4142135623730951
  0
VERTEX
  5
20D0
  8
SAPA_PROFIL
 10
-23.500000000001361
 20
17.299999999999951
 30
0.0
  0
VERTEX
  5
20D1
  8
SAPA_PROFIL
 10
-22.400000000001231
 20
17.299999999999951
 30
0.0
 42
0.4142135623730951
  0
VERTEX
  5
20D2
  8
SAPA_PROFIL
 10
-22.10000000000127
 20
17.599999999999909
 30
0.0
  0
VERTEX
  5
20D3
  8
SAPA_PROFIL
 10
-22.10000000000127
 20
18.099999999999909
 30
0.0
 42
0.4142135623730951
  0
VERTEX
  5
20D4
  8
SAPA_PROFIL
 10
-22.400000000001231
 20
18.400000000000091
 30
0.0
  0
VERTEX
  5
20D5
  8
SAPA_PROFIL
 10
-22.736626924635861
 20
18.400000000000091
 30
0.0
 42
-0.5535245743249307
  0
VERTEX
  5
20D6
  8
SAPA_PROFIL
 10
-20.96410760212575
 20
22.71055421153142
 30
0.0
  0
VERTEX
  5
20D7
  8
SAPA_PROFIL
 10
-20.6767766952978
 20
22.42322330470347
 30
0.0
 42
0.4142135623730951
  0
VERTEX
  5
20D8
  8
SAPA_PROFIL
 10
-20.323223304704701
 20
22.42322330470347
 30
0.0
  0
VERTEX
  5
20D9
  8
SAPA_PROFIL
 10
-20.035892397876751
 20
22.71055421153142
 30
0.0
 42
-0.553524574324932
  0
VERTEX
  5
20DA
  8
SAPA_PROFIL
 10
-18.263373075366871
 20
18.400000000000091
 30
0.0
  0
VERTEX
  5
20DB
  8
SAPA_PROFIL
 10
-18.60000000000127
 20
18.400000000000091
 30
0.0
 42
0.4142135623730951
  0
VERTEX
  5
20DC
  8
SAPA_PROFIL
 10
-18.900000000001231
 20
18.099999999999909
 30
0.0
  0
VERTEX
  5
20DD
  8
SAPA_PROFIL
 10
-18.900000000001231
 20
17.599999999999909
 30
0.0
 42
0.4142135623730951
  0
VERTEX
  5
20DE
  8
SAPA_PROFIL
 10
-18.60000000000127
 20
17.299999999999951
 30
0.0
  0
VERTEX
  5
20DF
  8
SAPA_PROFIL
 10
-16.300000000001319
 20
17.299999999999951
 30
0.0
 42
0.4142135623730951
  0
VERTEX
  5
20E0
  8
SAPA_PROFIL
 10
-16.000000000001361
 20
17.599999999999909
 30
0.0
  0
VERTEX
  5
20E1
  8
SAPA_PROFIL
 10
-16.000000000001361
 20
22.0
 30
0.0
 42
-0.4142135623730951
  0
VERTEX
  5
20E2
  8
SAPA_PROFIL
 10
-15.000000000001361
 20
23.0
 30
0.0
  0
VERTEX
  5
20E3
  8
SAPA_PROFIL
 10
19.999999999998629
 20
23.0
 30
0.0
 42
-0.7673269879789569
  0
VERTEX
  5
20E4
  8
SAPA_PROFIL
 10
20.249999999998639
 20
22.06698729810773
 30
0.0
 42
0.2679491924311163
  0
VERTEX
  5
20E5
  8
SAPA_PROFIL
 10
19.999999999998629
 20
21.63397459621547
 30
0.0
  0
VERTEX
  5
20E6
  8
SAPA_PROFIL
 10
19.999999999998629
 20
18.799999999999951
 30
0.0
 42
0.4142135623730951
  0
VERTEX
  5
20E7
  8
SAPA_PROFIL
 10
21.499999999998639
 20
17.299999999999951
 30
0.0
  0
VERTEX
  5
20E8
  8
SAPA_PROFIL
 10
22.599999999998769
 20
17.299999999999951
 30
0.0
 42
0.4142135623730951
  0
VERTEX
  5
20E9
  8
SAPA_PROFIL
 10
22.89999999999873
 20
17.599999999999909
 30
0.0
  0
VERTEX
  5
20EA
  8
SAPA_PROFIL
 10
22.89999999999873
 20
18.099999999999909
 30
0.0
 42
0.4142135623730951
  0
VERTEX
  5
20EB
  8
SAPA_PROFIL
 10
22.599999999998769
 20
18.400000000000091
 30
0.0
  0
VERTEX
  5
20EC
  8
SAPA_PROFIL
 10
22.26337307536415
 20
18.400000000000091
 30
0.0
 42
-0.5535245743249307
  0
VERTEX
  5
20ED
  8
SAPA_PROFIL
 10
24.03589239787425
 20
22.71055421153142
 30
0.0
  0
VERTEX
  5
20EE
  8
SAPA_PROFIL
 10
24.3232233047022
 20
22.42322330470347
 30
0.0
 42
0.4142135623731068
  0
VERTEX
  5
20EF
  8
SAPA_PROFIL
 10
24.67677669529531
 20
22.423223304703239
 30
0.0
  0
VERTEX
  5
20F0
  8
SAPA_PROFIL
 10
24.964107602123249
 20
22.71055421153142
 30
0.0
 42
-0.553524574324932
  0
VERTEX
  5
20F1
  8
SAPA_PROFIL
 10
26.736626924633129
 20
18.400000000000091
 30
0.0
  0
VERTEX
  5
20F2
  8
SAPA_PROFIL
 10
26.39999999999873
 20
18.400000000000091
 30
0.0
 42
0.4142135623730951
  0
VERTEX
  5
20F3
  8
SAPA_PROFIL
 10
26.099999999998769
 20
18.099999999999909
 30
0.0
  0
VERTEX
  5
20F4
  8
SAPA_PROFIL
 10
26.099999999998769
 20
17.599999999999909
 30
0.0
 42
0.4142135623730951
  0
VERTEX
  5
20F5
  8
SAPA_PROFIL
 10
26.39999999999873
 20
17.299999999999951
 30
0.0
  0
VERTEX
  5
20F6
  8
SAPA_PROFIL
 10
28.699999999998681
 20
17.299999999999951
 30
0.0
 42
0.4142135623730951
  0
VERTEX
  5
20F7
  8
SAPA_PROFIL
 10
28.999999999998629
 20
17.599999999999909
 30
0.0
  0
VERTEX
  5
20F8
  8
SAPA_PROFIL
 10
28.999999999998629
 20
22.0
 30
0.0
 42
-0.4142135623730951
  0
VERTEX
  5
20F9
  8
SAPA_PROFIL
 10
29.999999999998639
 20
23.0
 30
0.0
  0
VERTEX
  5
20FA
  8
SAPA_PROFIL
 10
54.699999999998681
 20
23.0
 30
0.0
 42
-0.4142135623730951
  0
VERTEX
  5
20FB
  8
SAPA_PROFIL
 10
54.999999999998643
 20
22.700000000000038
 30
0.0
  0
VERTEX
  5
20FC
  8
SAPA_PROFIL
 10
54.999999999998643
 20
21.400000000000091
 30
0.0
 42
0.4142135623730951
  0
VERTEX
  5
20FD
  8
SAPA_PROFIL
 10
55.299999999998818
 20
21.099999999999909
 30
0.0
  0
VERTEX
  5
20FE
  8
SAPA_PROFIL
 10
55.875735931286727
 20
21.099999999999909
 30
0.0
 42
0.1989123673796752
  0
VERTEX
  5
20FF
  8
SAPA_PROFIL
 10
56.087867965642772
 20
21.187867965644049
 30
0.0
  0
VERTEX
  5
2100
  8
SAPA_PROFIL
 10
57.812132034354811
 20
22.912132034356091
 30
0.0
 42
-0.1989123673796057
  0
VERTEX
  5
2101
  8
SAPA_PROFIL
 10
58.024264068710629
 20
23.0
 30
0.0
  0
VERTEX
  5
2102
  8
SAPA_PROFIL
 10
61.499999999998629
 20
23.0
 30
0.0
 42
-0.4142135623730951
  0
VERTEX
  5
2103
  8
SAPA_PROFIL
 10
62.499999999998643
 20
22.0
 30
0.0
  0
VERTEX
  5
2104
  8
SAPA_PROFIL
 10
62.499999999998643
 20
-22.0
 30
0.0
 42
-0.4142135623730951
  0
VERTEX
  5
2105
  8
SAPA_PROFIL
 10
61.499999999998629
 20
-23.0
 30
0.0
  0
SEQEND
  5
2106
  8
SAPA_PROFIL
  0
POLYLINE
  5
13DC
  8
SAPA_PROFIL
 66
     1
 10
0.0
 20
0.0
 30
0.0
 70
     1
  0
VERTEX
  5
2107
  8
SAPA_PROFIL
 10
-30.000000000001371
 20
-6.0
 30
0.0
 42
0.4142135623730951
  0
VERTEX
  5
2108
  8
SAPA_PROFIL
 10
-31.000000000001361
 20
-5.0
 30
0.0
  0
VERTEX
  5
2109
  8
SAPA_PROFIL
 10
-52.200000000001182
 20
-5.0
 30
0.0
 42
-0.4142135623730951
  0
VERTEX
  5
210A
  8
SAPA_PROFIL
 10
-52.500000000001357
 20
-4.7000000000000446
 30
0.0
  0
VERTEX
  5
210B
  8
SAPA_PROFIL
 10
-52.500000000001357
 20
-3.0757360000000058
 30
0.0
  0
VERTEX
  5
210C
  8
SAPA_PROFIL
 10
-51.562132034357091
 20
-2.237867965643999
 30
0.0
 42
-0.668178637919305
  0
VERTEX
  5
210D
  8
SAPA_PROFIL
 10
-51.050000000001312
 20
-2.450000000000045
 30
0.0
  0
VERTEX
  5
210E
  8
SAPA_PROFIL
 10
-51.050000000001312
 20
-2.700000000000045
 30
0.0
  0
VERTEX
  5
210F
  8
SAPA_PROFIL
 10
-49.673765406424991
 20
-2.176719696698
 30
0.0
 42
-0.5450207798987201
  0
VERTEX
  5
2110
  8
SAPA_PROFIL
 10
-49.250000000001357
 20
-2.450000000000045
 30
0.0
  0
VERTEX
  5
2111
  8
SAPA_PROFIL
 10
-49.250000000001357
 20
-2.700000000000045
 30
0.0
  0
VERTEX
  5
2112
  8
SAPA_PROFIL
 10
-47.873765406424809
 20
-2.176719696698
 30
0.0
 42
-0.5450207798987201
  0
VERTEX
  5
2113
  8
SAPA_PROFIL
 10
-47.450000000001182
 20
-2.450000000000045
 30
0.0
  0
VERTEX
  5
2114
  8
SAPA_PROFIL
 10
-47.450000000001182
 20
-2.700000000000045
 30
0.0
  0
VERTEX
  5
2115
  8
SAPA_PROFIL
 10
-46.073765406424847
 20
-2.176719696698
 30
0.0
 42
-0.5450207798987342
  0
VERTEX
  5
2116
  8
SAPA_PROFIL
 10
-45.650000000001221
 20
-2.450000000000045
 30
0.0
  0
VERTEX
  5
2117
  8
SAPA_PROFIL
 10
-45.650000000001221
 20
-2.700000000000045
 30
0.0
  0
VERTEX
  5
2118
  8
SAPA_PROFIL
 10
-44.2737654064249
 20
-2.176719696698
 30
0.0
 42
-0.5450207798987201
  0
VERTEX
  5
2119
  8
SAPA_PROFIL
 10
-43.850000000001273
 20
-2.450000000000045
 30
0.0
  0
VERTEX
  5
211A
  8
SAPA_PROFIL
 10
-43.850000000001273
 20
-2.700000000000045
 30
0.0
  0
VERTEX
  5
211B
  8
SAPA_PROFIL
 10
-43.126282705195081
 20
-2.4722372826158781
 30
0.0
 42
0.2945484962563026
  0
VERTEX
  5
211C
  8
SAPA_PROFIL
 10
-42.950048040246877
 20
-2.1988824689376538
 30
0.0
  0
VERTEX
  5
211D
  8
SAPA_PROFIL
 10
-42.950255222213393
 20
-1.264299937748091
 30
0.0
 42
-0.3475954753796591
  0
VERTEX
  5
211E
  8
SAPA_PROFIL
 10
-42.719501178044311
 20
-0.9723265106781582
 30
0.0
 42
0.790522909611319
  0
VERTEX
  5
211F
  8
SAPA_PROFIL
 10
-42.71949097360379
 20
0.9736640898654513
 30
0.0
 42
-0.3476065658631364
  0
VERTEX
  5
2120
  8
SAPA_PROFIL
 10
-42.950241952336
 20
1.265651810886993
 30
0.0
  0
VERTEX
  5
2121
  8
SAPA_PROFIL
 10
-42.950095231627067
 20
1.8499926620934271
 30
0.0
 42
0.4102317530969976
  0
VERTEX
  5
2122
  8
SAPA_PROFIL
 10
-43.245946879780597
 20
2.1500282985857662
 30
0.0
 42
-0.0712587206050384
  0
VERTEX
  5
2123
  8
SAPA_PROFIL
 10
-43.329990804708807
 20
2.1632556124552589
 30
0.0
  0
VERTEX
  5
2124
  8
SAPA_PROFIL
 10
-44.750000000001357
 20
2.700000000000045
 30
0.0
  0
VERTEX
  5
2125
  8
SAPA_PROFIL
 10
-44.750000000001357
 20
2.450000000000045
 30
0.0
 42
-0.5450200690651619
  0
VERTEX
  5
2126
  8
SAPA_PROFIL
 10
-45.17376500000136
 20
2.1767190000000478
 30
0.0
  0
VERTEX
  5
2127
  8
SAPA_PROFIL
 10
-46.550000000001312
 20
2.700000000000045
 30
0.0
  0
VERTEX
  5
2128
  8
SAPA_PROFIL
 10
-46.550000000001091
 20
2.450000000000045
 30
0.0
 42
-0.545020069065176
  0
VERTEX
  5
2129
  8
SAPA_PROFIL
 10
-46.973765000001322
 20
2.1767190000000478
 30
0.0
  0
VERTEX
  5
212A
  8
SAPA_PROFIL
 10
-48.350000000001273
 20
2.700000000000045
 30
0.0
  0
VERTEX
  5
212B
  8
SAPA_PROFIL
 10
-48.350000000001273
 20
2.450000000000045
 30
0.0
 42
-0.5450200690651692
  0
VERTEX
  5
212C
  8
SAPA_PROFIL
 10
-48.773765000001283
 20
2.1767190000000478
 30
0.0
  0
VERTEX
  5
212D
  8
SAPA_PROFIL
 10
-50.150000000001228
 20
2.700000000000045
 30
0.0
  0
VERTEX
  5
212E
  8
SAPA_PROFIL
 10
-50.150000000001228
 20
2.1500000000000901
 30
0.0
  0
VERTEX
  5
212F
  8
SAPA_PROFIL
 10
-51.350000000001273
 20
2.1500000000000901
 30
0.0
 42
-0.1989123673797004
  0
VERTEX
  5
2130
  8
SAPA_PROFIL
 10
-51.562132000001377
 20
2.237867999999934
 30
0.0
  0
VERTEX
  5
2131
  8
SAPA_PROFIL
 10
-52.500000000001357
 20
3.0757360000000058
 30
0.0
  0
VERTEX
  5
2132
  8
SAPA_PROFIL
 10
-52.500000000001357
 20
4.7000000000000446
 30
0.0
 42
-0.4142135623730951
  0
VERTEX
  5
2133
  8
SAPA_PROFIL
 10
-52.200000000001182
 20
5.0
 30
0.0
  0
VERTEX
  5
2134
  8
SAPA_PROFIL
 10
-31.000000000001361
 20
5.0
 30
0.0
 42
0.4142135623730951
  0
VERTEX
  5
2135
  8
SAPA_PROFIL
 10
-30.000000000001371
 20
6.0
 30
0.0
  0
VERTEX
  5
2136
  8
SAPA_PROFIL
 10
-30.000000000001371
 20
14.20000000000004
 30
0.0
 42
0.4142135623730951
  0
VERTEX
  5
2137
  8
SAPA_PROFIL
 10
-30.500000000001371
 20
14.70000000000004
 30
0.0
  0
VERTEX
  5
2138
  8
SAPA_PROFIL
 10
-33.700000000001182
 20
14.70000000000004
 30
0.0
 42
0.4142135623730951
  0
VERTEX
  5
2139
  8
SAPA_PROFIL
 10
-34.200000000001182
 20
14.20000000000004
 30
0.0
  0
VERTEX
  5
213A
  8
SAPA_PROFIL
 10
-34.200000000001182
 20
11.299999999999949
 30
0.0
 42
-0.4142135623730951
  0
VERTEX
  5
213B
  8
SAPA_PROFIL
 10
-34.500000000001357
 20
11.0
 30
0.0
  0
VERTEX
  5
213C
  8
SAPA_PROFIL
 10
-35.200000000001189
 20
11.0
 30
0.0
 42
-0.4142135623730951
  0
VERTEX
  5
213D
  8
SAPA_PROFIL
 10
-35.500000000001371
 20
11.299999999999949
 30
0.0
  0
VERTEX
  5
213E
  8
SAPA_PROFIL
 10
-35.500000000001371
 20
18.0
 30
0.0
  0
VERTEX
  5
213F
  8
SAPA_PROFIL
 10
-35.035076580642233
 20
18.586384015500698
 30
0.0
 42
-0.7105995019814511
  0
VERTEX
  5
2140
  8
SAPA_PROFIL
 10
-34.500000000001357
 20
18.400000000000091
 30
0.0
  0
VERTEX
  5
2141
  8
SAPA_PROFIL
 10
-34.500000000001357
 20
16.5
 30
0.0
 42
0.4142135623730951
  0
VERTEX
  5
2142
  8
SAPA_PROFIL
 10
-34.200000000001182
 20
16.200000000000038
 30
0.0
  0
VERTEX
  5
2143
  8
SAPA_PROFIL
 10
-30.300000000001319
 20
16.200000000000038
 30
0.0
 42
0.4142135623730951
  0
VERTEX
  5
2144
  8
SAPA_PROFIL
 10
-30.000000000001371
 20
16.5
 30
0.0
  0
VERTEX
  5
2145
  8
SAPA_PROFIL
 10
-30.000000000001371
 20
23.200000000000049
 30
0.0
 42
0.4142135623730951
  0
VERTEX
  5
2146
  8
SAPA_PROFIL
 10
-30.300000000001319
 20
23.5
 30
0.0
  0
VERTEX
  5
2147
  8
SAPA_PROFIL
 10
-34.200000000001182
 20
23.5
 30
0.0
 42
0.4142135623730951
  0
VERTEX
  5
2148
  8
SAPA_PROFIL
 10
-34.500000000001357
 20
23.200000000000049
 30
0.0
  0
VERTEX
  5
2149
  8
SAPA_PROFIL
 10
-34.500000000001357
 20
22.0
 30
0.0
 42
-0.7105990647993611
  0
VERTEX
  5
214A
  8
SAPA_PROFIL
 10
-35.035076000001247
 20
21.813615999999911
 30
0.0
  0
VERTEX
  5
214B
  8
SAPA_PROFIL
 10
-35.500000000001371
 20
22.400000000000091
 30
0.0
  0
VERTEX
  5
214C
  8
SAPA_PROFIL
 10
-35.500000000001371
 20
24.700000000000049
 30
0.0
 42
-0.4142135623730951
  0
VERTEX
  5
214D
  8
SAPA_PROFIL
 10
-35.200000000001189
 20
25.0
 30
0.0
  0
VERTEX
  5
214E
  8
SAPA_PROFIL
 10
63.999999999998629
 20
25.0
 30
0.0
 42
-0.4142135623730951
  0
VERTEX
  5
214F
  8
SAPA_PROFIL
 10
64.499999999998636
 20
24.5
 30
0.0
  0
VERTEX
  5
2150
  8
SAPA_PROFIL
 10
64.499999999998636
 20
-24.5
 30
0.0
 42
-0.4142135623730951
  0
VERTEX
  5
2151
  8
SAPA_PROFIL
 10
63.999999999998629
 20
-25.0
 30
0.0
  0
VERTEX
  5
2152
  8
SAPA_PROFIL
 10
-35.200000000001189
 20
-25.0
 30
0.0
 42
-0.4142135623730951
  0
VERTEX
  5
2153
  8
SAPA_PROFIL
 10
-35.500000000001371
 20
-24.700000000000049
 30
0.0
  0
VERTEX
  5
2154
  8
SAPA_PROFIL
 10
-35.500000000001371
 20
-22.400000000000091
 30
0.0
  0
VERTEX
  5
2155
  8
SAPA_PROFIL
 10
-35.035076580642233
 20
-21.813615984499389
 30
0.0
 42
-0.7105995019814511
  0
VERTEX
  5
2156
  8
SAPA_PROFIL
 10
-34.500000000001357
 20
-22.0
 30
0.0
  0
VERTEX
  5
2157
  8
SAPA_PROFIL
 10
-34.500000000001357
 20
-23.200000000000049
 30
0.0
 42
0.4142135623730951
  0
VERTEX
  5
2158
  8
SAPA_PROFIL
 10
-34.200000000001182
 20
-23.5
 30
0.0
  0
VERTEX
  5
2159
  8
SAPA_PROFIL
 10
-30.300000000001319
 20
-23.5
 30
0.0
 42
0.4142135623730951
  0
VERTEX
  5
215A
  8
SAPA_PROFIL
 10
-30.000000000001371
 20
-23.200000000000049
 30
0.0
  0
VERTEX
  5
215B
  8
SAPA_PROFIL
 10
-30.000000000001371
 20
-16.5
 30
0.0
 42
0.4142135623730951
  0
VERTEX
  5
215C
  8
SAPA_PROFIL
 10
-30.300000000001319
 20
-16.200000000000038
 30
0.0
  0
VERTEX
  5
215D
  8
SAPA_PROFIL
 10
-34.200000000001182
 20
-16.200000000000038
 30
0.0
 42
0.4142135623730951
  0
VERTEX
  5
215E
  8
SAPA_PROFIL
 10
-34.500000000001357
 20
-16.5
 30
0.0
  0
VERTEX
  5
215F
  8
SAPA_PROFIL
 10
-34.500000000001357
 20
-18.400000000000091
 30
0.0
 42
-0.7105995019814511
  0
VERTEX
  5
2160
  8
SAPA_PROFIL
 10
-35.035076580642233
 20
-18.586384015500698
 30
0.0
  0
VERTEX
  5
2161
  8
SAPA_PROFIL
 10
-35.500000000001371
 20
-18.0
 30
0.0
  0
VERTEX
  5
2162
  8
SAPA_PROFIL
 10
-35.500000000001371
 20
-11.299999999999949
 30
0.0
 42
-0.4142135623730951
  0
VERTEX
  5
2163
  8
SAPA_PROFIL
 10
-35.200000000001189
 20
-11.0
 30
0.0
  0
VERTEX
  5
2164
  8
SAPA_PROFIL
 10
-34.500000000001357
 20
-11.0
 30
0.0
 42
-0.4142135623730951
  0
VERTEX
  5
2165
  8
SAPA_PROFIL
 10
-34.200000000001182
 20
-11.299999999999949
 30
0.0
  0
VERTEX
  5
2166
  8
SAPA_PROFIL
 10
-34.200000000001182
 20
-14.20000000000004
 30
0.0
 42
0.4142135623730951
  0
VERTEX
  5
2167
  8
SAPA_PROFIL
 10
-33.700000000001182
 20
-14.70000000000004
 30
0.0
  0
VERTEX
  5
2168
  8
SAPA_PROFIL
 10
-30.500000000001371
 20
-14.70000000000004
 30
0.0
 42
0.4142135623730951
  0
VERTEX
  5
2169
  8
SAPA_PROFIL
 10
-30.000000000001371
 20
-14.20000000000004
 30
0.0
  0
SEQEND
  5
216A
  8
SAPA_PROFIL
  0
LINE
  5
13DD
  8
SAPA_PROFIL
 10
-54.499999999010129
 20
-40.9999999999959
 30
0.0
 11
-54.499999999010122
 21
-10.9999999999959
 31
0.0
  0
POLYLINE
  5
13F5
  8
SAPA_GLAS
 66
     1
 10
0.0
 20
0.0
 30
0.0
  0
VERTEX
  5
219F
  8
SAPA_GLAS
 10
-72.49999999901172
 20
-40.999999999995893
 30
0.0
  0
VERTEX
  5
21A0
  8
SAPA_GLAS
 10
-72.49999999901172
 20
-10.99999999999589
 30
0.0
  0
VERTEX
  5
21A1
  8
SAPA_GLAS
 10
-66.49999999901172
 20
-10.99999999999589
 30
0.0
  0
VERTEX
  5
21A2
  8
SAPA_GLAS
 10
-66.49999999901172
 20
-40.999999999995893
 30
0.0
  0
SEQEND
  5
21A3
  8
SAPA_GLAS
  0
POLYLINE
  5
13F6
  8
SAPA_GLAS
 66
     1
 10
0.0
 20
0.0
 30
0.0
  0
VERTEX
  5
21A4
  8
SAPA_GLAS
 10
-90.499999999011735
 20
-40.999999999995893
 30
0.0
  0
VERTEX
  5
21A5
  8
SAPA_GLAS
 10
-90.499999999011735
 20
-10.99999999999589
 30
0.0
  0
VERTEX
  5
21A6
  8
SAPA_GLAS
 10
-84.499999999011706
 20
-10.99999999999589
 30
0.0
  0
VERTEX
  5
21A7
  8
SAPA_GLAS
 10
-84.499999999011706
 20
-40.999999999995893
 30
0.0
  0
SEQEND
  5
21A8
  8
SAPA_GLAS
  0
POLYLINE
  5
13F7
  8
SAPA_GLAS
 66
     1
 10
0.0
 20
0.0
 30
0.0
  0
VERTEX
  5
21A9
  8
SAPA_GLAS
 10
-54.499999999010129
 20
-40.999999999996803
 30
0.0
  0
VERTEX
  5
21AA
  8
SAPA_GLAS
 10
-54.499999999010122
 20
-10.99999999999681
 30
0.0
  0
VERTEX
  5
21AB
  8
SAPA_GLAS
 10
-48.499999999010129
 20
-10.99999999999681
 30
0.0
  0
VERTEX
  5
21AC
  8
SAPA_GLAS
 10
-48.499999999010129
 20
-40.999999999996803
 30
0.0
  0
SEQEND
  5
21AD
  8
SAPA_GLAS
  0
POLYLINE
  5
13F8
  8
SAPA_GLAS
 66
     1
 10
0.0
 20
0.0
 30
0.0
  0
VERTEX
  5
21AE
  8
SAPA_GLAS
 10
-84.499999999010129
 20
-20.99999999999589
 30
0.0
  0
VERTEX
  5
21AF
  8
SAPA_GLAS
 10
-72.499999999010129
 20
-20.9999999999959
 30
0.0
  0
VERTEX
  5
21B0
  8
SAPA_GLAS
 10
-72.499999999010129
 20
-10.999999999996801
 30
0.0
  0
VERTEX
  5
21B1
  8
SAPA_GLAS
 10
-84.499999999010129
 20
-10.999999999996801
 30
0.0
  0
VERTEX
  5
21B2
  8
SAPA_GLAS
 10
-84.499999999010129
 20
-20.99999999999589
 30
0.0
  0
SEQEND
  5
21B3
  8
SAPA_GLAS
  0
POLYLINE
  5
13F9
  8
SAPA_GLAS
 66
     1
 10
0.0
 20
0.0
 30
0.0
  0
VERTEX
  5
21B4
  8
SAPA_GLAS
 10
-66.499999999010114
 20
-20.9999999999959
 30
0.0
  0
VERTEX
  5
21B5
  8
SAPA_GLAS
 10
-54.499999999010129
 20
-20.9999999999959
 30
0.0
  0
VERTEX
  5
21B6
  8
SAPA_GLAS
 10
-54.499999999010122
 20
-10.99999999999681
 30
0.0
  0
VERTEX
  5
21B7
  8
SAPA_GLAS
 10
-66.499999999010114
 20
-10.999999999996801
 30
0.0
  0
VERTEX
  5
21B8
  8
SAPA_GLAS
 10
-66.499999999010114
 20
-20.9999999999959
 30
0.0
  0
SEQEND
  5
21B9
  8
SAPA_GLAS
  0
POLYLINE
  5
13FA
  8
SAPA_GLAS
 66
     1
 10
0.0
 20
0.0
 30
0.0
 70
     1
  0
VERTEX
  5
21BA
  8
SAPA_GLAS
 10
-74.663511128413006
 20
118.49537581359679
 30
0.0
  0
VERTEX
  5
21BB
  8
SAPA_GLAS
 10
-59.663511128413013
 20
118.49537581359679
 30
0.0
  0
VERTEX
  5
21BC
  8
SAPA_GLAS
 10
-59.663511128413013
 20
108.49537581359679
 30
0.0
  0
VERTEX
  5
21BD
  8
SAPA_GLAS
 10
-74.663511128413006
 20
108.49537581359679
 30
0.0
  0
SEQEND
  5
21BE
  8
SAPA_GLAS
  0
POLYLINE
  5
13FB
  8
SAPA_GLAS
 66
     1
 10
0.0
 20
0.0
 30
0.0
 70
     1
  0
VERTEX
  5
21BF
  8
SAPA_GLAS
 10
-55.663511128412999
 20
118.49537581359679
 30
0.0
  0
VERTEX
  5
21C0
  8
SAPA_GLAS
 10
-40.663511128412999
 20
118.49537581359679
 30
0.0
  0
VERTEX
  5
21C1
  8
SAPA_GLAS
 10
-40.663511128412999
 20
108.49537581359679
 30
0.0
  0
VERTEX
  5
21C2
  8
SAPA_GLAS
 10
-55.663511128412999
 20
108.49537581359679
 30
0.0
  0
SEQEND
  5
21C3
  8
SAPA_GLAS
  0
POLYLINE
  5
13FC
  8
SAPA_GLAS
 66
     1
 10
0.0
 20
0.0
 30
0.0
  0
VERTEX
  5
21C4
  8
SAPA_GLAS
 10
-55.663511128412999
 20
138.4953758135967
 30
0.0
  0
VERTEX
  5
21C5
  8
SAPA_GLAS
 10
-55.663511128412999
 20
108.4953758135967
 30
0.0
  0
VERTEX
  5
21C6
  8
SAPA_GLAS
 10
-59.663511128413013
 20
108.4953758135967
 30
0.0
  0
VERTEX
  5
21C7
  8
SAPA_GLAS
 10
-59.66351112841302
 20
138.4953758135967
 30
0.0
  0
SEQEND
  5
21C8
  8
SAPA_GLAS
  0
POLYLINE
  5
13FD
  8
SAPA_GLAS
 66
     1
 10
0.0
 20
0.0
 30
0.0
  0
VERTEX
  5
21C9
  8
SAPA_GLAS
 10
-34.663511128412999
 20
138.49537581359661
 30
0.0
  0
VERTEX
  5
21CA
  8
SAPA_GLAS
 10
-34.663511128413013
 20
108.4953758135966
 30
0.0
  0
VERTEX
  5
21CB
  8
SAPA_GLAS
 10
-40.663511128412999
 20
108.4953758135966
 30
0.0
  0
VERTEX
  5
21CC
  8
SAPA_GLAS
 10
-40.663511128413013
 20
138.49537581359661
 30
0.0
  0
SEQEND
  5
21CD
  8
SAPA_GLAS
  0
POLYLINE
  5
13FE
  8
SAPA_GLAS
 66
     1
 10
0.0
 20
0.0
 30
0.0
  0
VERTEX
  5
21CE
  8
SAPA_GLAS
 10
-80.663511128413006
 20
138.49537581359661
 30
0.0
  0
VERTEX
  5
21CF
  8
SAPA_GLAS
 10
-80.663511128413006
 20
108.4953758135966
 30
0.0
  0
VERTEX
  5
21D0
  8
SAPA_GLAS
 10
-74.663511128413006
 20
108.4953758135966
 30
0.0
  0
VERTEX
  5
21D1
  8
SAPA_GLAS
 10
-74.663511128412992
 20
138.49537581359661
 30
0.0
  0
SEQEND
  5
21D2
  8
SAPA_GLAS
  0
LINE
  5
1413
  8
SAPA_ISOLATOR
 10
-16.89242387984859
 20
24.999999631037241
 30
0.0
 11
-16.892423879848579
 21
30.99462339822017
 31
0.0
  0
LINE
  5
1414
  8
SAPA_ISOLATOR
 10
-45.038028273472591
 20
24.999999631037241
 30
0.0
 11
-16.89242387984859
 21
24.999999631037241
 31
0.0
  0
LINE
  5
1415
  8
SAPA_ISOLATOR
 10
-45.038028273472591
 20
30.994623398221989
 30
0.0
 11
-45.038028273472591
 21
24.999999631037241
 31
0.0
  0
LINE
  5
1416
  8
SAPA_ISOLATOR
 10
-16.892423879848579
 20
30.999999631037241
 30
0.0
 11
-45.038028273472591
 21
30.994623398221989
 31
0.0
  0
POLYLINE
  5
1417
  8
SAPA_ISOLATOR
 66
     1
 10
0.0
 20
0.0
 30
0.0
 70
     1
  0
VERTEX
  5
224B
  8
SAPA_ISOLATOR
 10
-55.235078053681832
 20
8.8339473861458373
 30
0.0
 42
-0.2133140774071598
  0
VERTEX
  5
224C
  8
SAPA_ISOLATOR
 10
-53.744915521943881
 20
9.5000000000003411
 30
0.0
  0
VERTEX
  5
224D
  8
SAPA_ISOLATOR
 10
-53.57305861328495
 20
9.5000000000003411
 30
0.0
 42
0.9999999999999998
  0
VERTEX
  5
224E
  8
SAPA_ISOLATOR
 10
-53.57305861328495
 20
10.000000000000339
 30
0.0
  0
VERTEX
  5
224F
  8
SAPA_ISOLATOR
 10
-54.53218315257152
 20
10.000000000000339
 30
0.0
 42
0.2072397715914422
  0
VERTEX
  5
2250
  8
SAPA_ISOLATOR
 10
-56.355587195491921
 20
9.2103209337030876
 30
0.0
 42
0.1421101772925093
  0
VERTEX
  5
2251
  8
SAPA_ISOLATOR
 10
-58.499999999010363
 20
5.0000000000003411
 30
0.0
  0
VERTEX
  5
2252
  8
SAPA_ISOLATOR
 10
-56.687834754465371
 20
5.0000000000003411
 30
0.0
 42
-0.1860725815673001
  0
SEQEND
  5
2253
  8
SAPA_ISOLATOR
  0
POLYLINE
  5
1418
  8
SAPA_ISOLATOR
 66
     1
 10
0.0
 20
0.0
 30
0.0
 70
     1
  0
VERTEX
  5
2254
  8
SAPA_ISOLATOR
 10
-55.235078053681832
 20
-8.8339473861453826
 30
0.0
 42
0.2133140774071598
  0
VERTEX
  5
2255
  8
SAPA_ISOLATOR
 10
-53.744915521943881
 20
-9.4999999999997726
 30
0.0
  0
VERTEX
  5
2256
  8
SAPA_ISOLATOR
 10
-53.57305861328495
 20
-9.4999999999997726
 30
0.0
 42
-0.9999999999999998
  0
VERTEX
  5
2257
  8
SAPA_ISOLATOR
 10
-53.57305861328495
 20
-9.9999999999997726
 30
0.0
  0
VERTEX
  5
2258
  8
SAPA_ISOLATOR
 10
-54.53218315257152
 20
-9.9999999999997726
 30
0.0
 42
-0.2072397715914422
  0
VERTEX
  5
2259
  8
SAPA_ISOLATOR
 10
-56.355587195491921
 20
-9.2103209337025191
 30
0.0
 42
-0.1421101772925093
  0
VERTEX
  5
225A
  8
SAPA_ISOLATOR
 10
-58.499999999010363
 20
-4.9999999999997717
 30
0.0
  0
VERTEX
  5
225B
  8
SAPA_ISOLATOR
 10
-56.687834754465371
 20
-4.9999999999997717
 30
0.0
 42
0.1860725815673001
  0
SEQEND
  5
225C
  8
SAPA_ISOLATOR
  0
POLYLINE
  5
1419
  8
SAPA_ISOLATOR
 66
     1
 10
0.0
 20
0.0
 30
0.0
 70
     1
  0
VERTEX
  5
225D
  8
SAPA_ISOLATOR
 10
-70.235078053681832
 20
-8.8339473861453826
 30
0.0
 42
0.2133140774071598
  0
VERTEX
  5
225E
  8
SAPA_ISOLATOR
 10
-68.744915521943881
 20
-9.4999999999997726
 30
0.0
  0
VERTEX
  5
225F
  8
SAPA_ISOLATOR
 10
-68.573058613284957
 20
-9.4999999999997726
 30
0.0
 42
-0.9999999999999998
  0
VERTEX
  5
2260
  8
SAPA_ISOLATOR
 10
-68.573058613284957
 20
-9.9999999999997726
 30
0.0
  0
VERTEX
  5
2261
  8
SAPA_ISOLATOR
 10
-69.53218315257152
 20
-9.9999999999997726
 30
0.0
 42
-0.2072397715914422
  0
VERTEX
  5
2262
  8
SAPA_ISOLATOR
 10
-71.355587195491921
 20
-9.2103209337025191
 30
0.0
 42
-0.1421101772925093
  0
VERTEX
  5
2263
  8
SAPA_ISOLATOR
 10
-73.499999999010356
 20
-4.9999999999997717
 30
0.0
  0
VERTEX
  5
2264
  8
SAPA_ISOLATOR
 10
-71.687834754465371
 20
-4.9999999999997717
 30
0.0
 42
0.1860725815673001
  0
SEQEND
  5
2265
  8
SAPA_ISOLATOR
  0
POLYLINE
  5
141A
  8
SAPA_ISOLATOR
 66
     1
 10
0.0
 20
0.0
 30
0.0
 70
     1
  0
VERTEX
  5
2266
  8
SAPA_ISOLATOR
 10
-84.235078053681363
 20
-8.8339473861452689
 30
0.0
 42
0.2133140774071598
  0
VERTEX
  5
2267
  8
SAPA_ISOLATOR
 10
-82.744915521943426
 20
-9.4999999999997726
 30
0.0
  0
VERTEX
  5
2268
  8
SAPA_ISOLATOR
 10
-82.573058613284502
 20
-9.4999999999997726
 30
0.0
 42
-0.9999999999999998
  0
VERTEX
  5
2269
  8
SAPA_ISOLATOR
 10
-82.573058613284502
 20
-9.9999999999997726
 30
0.0
  0
VERTEX
  5
226A
  8
SAPA_ISOLATOR
 10
-83.532183152571065
 20
-9.9999999999997726
 30
0.0
 42
-0.2072397715914422
  0
VERTEX
  5
226B
  8
SAPA_ISOLATOR
 10
-85.355587195491466
 20
-9.2103209337025191
 30
0.0
 42
-0.1421101772925093
  0
VERTEX
  5
226C
  8
SAPA_ISOLATOR
 10
-87.499999999009916
 20
-4.9999999999997717
 30
0.0
  0
VERTEX
  5
226D
  8
SAPA_ISOLATOR
 10
-85.687834754464916
 20
-4.9999999999997717
 30
0.0
 42
0.1860725815673001
  0
SEQEND
  5
226E
  8
SAPA_ISOLATOR
  0
POLYLINE
  5
141B
  8
SAPA_ISOLATOR
 66
     1
 10
0.0
 20
0.0
 30
0.0
 70
     1
  0
VERTEX
  5
226F
  8
SAPA_ISOLATOR
 10
-70.235078053681832
 20
8.8339473861458373
 30
0.0
 42
-0.2133140774071598
  0
VERTEX
  5
2270
  8
SAPA_ISOLATOR
 10
-68.744915521943881
 20
9.5000000000003411
 30
0.0
  0
VERTEX
  5
2271
  8
SAPA_ISOLATOR
 10
-68.573058613284957
 20
9.5000000000003411
 30
0.0
 42
0.9999999999999998
  0
VERTEX
  5
2272
  8
SAPA_ISOLATOR
 10
-68.573058613284957
 20
10.000000000000339
 30
0.0
  0
VERTEX
  5
2273
  8
SAPA_ISOLATOR
 10
-69.53218315257152
 20
10.000000000000339
 30
0.0
 42
0.2072397715914422
  0
VERTEX
  5
2274
  8
SAPA_ISOLATOR
 10
-71.355587195491921
 20
9.2103209337030876
 30
0.0
 42
0.1421101772925093
  0
VERTEX
  5
2275
  8
SAPA_ISOLATOR
 10
-73.499999999010356
 20
5.0000000000003411
 30
0.0
  0
VERTEX
  5
2276
  8
SAPA_ISOLATOR
 10
-71.687834754465371
 20
5.0000000000003411
 30
0.0
 42
-0.1860725815673001
  0
SEQEND
  5
2277
  8
SAPA_ISOLATOR
  0
POLYLINE
  5
141C
  8
SAPA_ISOLATOR
 66
     1
 10
0.0
 20
0.0
 30
0.0
 70
     1
  0
VERTEX
  5
2278
  8
SAPA_ISOLATOR
 10
-84.235078053681363
 20
8.8339473861458373
 30
0.0
 42
-0.2133140774071598
  0
VERTEX
  5
2279
  8
SAPA_ISOLATOR
 10
-82.744915521943426
 20
9.5000000000002274
 30
0.0
  0
VERTEX
  5
227A
  8
SAPA_ISOLATOR
 10
-82.573058613284502
 20
9.5000000000002274
 30
0.0
 42
0.9999999999999998
  0
VERTEX
  5
227B
  8
SAPA_ISOLATOR
 10
-82.573058613284502
 20
10.000000000000229
 30
0.0
  0
VERTEX
  5
227C
  8
SAPA_ISOLATOR
 10
-83.532183152571065
 20
10.000000000000229
 30
0.0
 42
0.2072397715914422
  0
VERTEX
  5
227D
  8
SAPA_ISOLATOR
 10
-85.355587195491466
 20
9.2103209337029721
 30
0.0
 42
0.1421101772925093
  0
VERTEX
  5
227E
  8
SAPA_ISOLATOR
 10
-87.499999999009916
 20
5.0000000000002274
 30
0.0
  0
VERTEX
  5
227F
  8
SAPA_ISOLATOR
 10
-85.687834754464916
 20
5.0000000000002274
 30
0.0
 42
-0.1860725815673001
  0
SEQEND
  5
2280
  8
SAPA_ISOLATOR
  0
POLYLINE
  5
141D
  8
SAPA_ISOLATOR
 66
     1
 10
0.0
 20
0.0
 30
0.0
 70
     1
  0
VERTEX
  5
2281
  8
SAPA_ISOLATOR
 10
-52.999999999010242
 20
-4.9999999999997717
 30
0.0
 42
0.4142135623730951
  0
VERTEX
  5
2282
  8
SAPA_ISOLATOR
 10
-52.499999999010349
 20
-4.4999999999996581
 30
0.0
  0
VERTEX
  5
2283
  8
SAPA_ISOLATOR
 10
-52.499999999010242
 20
-3.2742640687116591
 30
0.0
 42
-0.1989123673796232
  0
VERTEX
  5
2284
  8
SAPA_ISOLATOR
 10
-52.41213203336622
 20
-3.0621320343557268
 30
0.0
  0
VERTEX
  5
2285
  8
SAPA_ISOLATOR
 10
-51.737867964654349
 20
-2.3878679656438631
 30
0.0
 42
-0.198912367379658
  0
VERTEX
  5
2286
  8
SAPA_ISOLATOR
 10
-51.52573593029831
 20
-2.29999999999984
 30
0.0
  0
VERTEX
  5
2287
  8
SAPA_ISOLATOR
 10
-47.094967040794927
 20
-2.29999999999984
 30
0.0
 42
0.0912836897734216
  0
VERTEX
  5
2288
  8
SAPA_ISOLATOR
 10
-44.97541000719297
 20
-1.081358332189893
 30
0.0
 42
0.4396415083054796
  0
VERTEX
  5
2289
  8
SAPA_ISOLATOR
 10
-44.975410007192863
 20
1.081358332190234
 30
0.0
 42
0.0912836897734207
  0
VERTEX
  5
228A
  8
SAPA_ISOLATOR
 10
-47.094967040794927
 20
2.300000000000181
 30
0.0
  0
VERTEX
  5
228B
  8
SAPA_ISOLATOR
 10
-51.52573593029831
 20
2.300000000000181
 30
0.0
 42
-0.198912367379658
  0
VERTEX
  5
228C
  8
SAPA_ISOLATOR
 10
-51.737867964654349
 20
2.3878679656443178
 30
0.0
  0
VERTEX
  5
228D
  8
SAPA_ISOLATOR
 10
-52.41213203336622
 20
3.0621320343561811
 30
0.0
 42
-0.1989123673796375
  0
VERTEX
  5
228E
  8
SAPA_ISOLATOR
 10
-52.499999999010242
 20
3.274264068712113
 30
0.0
  0
VERTEX
  5
228F
  8
SAPA_ISOLATOR
 10
-52.499999999010242
 20
4.5000000000002274
 30
0.0
 42
0.4142135623730951
  0
VERTEX
  5
2290
  8
SAPA_ISOLATOR
 10
-52.999999999010242
 20
5.0000000000002274
 30
0.0
  0
VERTEX
  5
2291
  8
SAPA_ISOLATOR
 10
-92.499999999010242
 20
5.0000000000002274
 30
0.0
  0
VERTEX
  5
2292
  8
SAPA_ISOLATOR
 10
-92.499999999010242
 20
3.6242640688971051
 30
0.0
 42
0.1989123676531388
  0
VERTEX
  5
2293
  8
SAPA_ISOLATOR
 10
-92.412132033142925
 20
3.4121320343178918
 30
0.0
  0
VERTEX
  5
2294
  8
SAPA_ISOLATOR
 10
-89.353553389603476
 20
0.3535533972162739
 30
0.0
 42
-0.4142135623730478
  0
VERTEX
  5
2295
  8
SAPA_ISOLATOR
 10
-89.353553389603476
 20
-0.3535533839702794
 30
0.0
  0
VERTEX
  5
2296
  8
SAPA_ISOLATOR
 10
-92.412132033589515
 20
-3.412132034394062
 30
0.0
 42
0.1989123671061486
  0
VERTEX
  5
2297
  8
SAPA_ISOLATOR
 10
-92.499999999010242
 20
-3.6242640685267129
 30
0.0
  0
VERTEX
  5
2298
  8
SAPA_ISOLATOR
 10
-92.499999999010114
 20
-4.9999999999997717
 30
0.0
  0
SEQEND
  5
2299
  8
SAPA_ISOLATOR
  0
POLYLINE
  5
141E
  8
SAPA_ISOLATOR
 66
     1
 10
0.0
 20
0.0
 30
0.0
 70
     1
  0
VERTEX
  5
229A
  8
SAPA_ISOLATOR
 10
-51.981370848908803
 20
-1.1999999999998181
 30
0.0
 42
0.1989123673796566
  0
VERTEX
  5
229B
  8
SAPA_ISOLATOR
 10
-52.193502883264607
 20
-1.2878679656438401
 30
0.0
  0
VERTEX
  5
229C
  8
SAPA_ISOLATOR
 10
-53.512132033366242
 20
-2.6064971157453551
 30
0.0
 42
0.198912367379654
  0
VERTEX
  5
229D
  8
SAPA_ISOLATOR
 10
-53.599999999010272
 20
-2.818629150101287
 30
0.0
  0
VERTEX
  5
229E
  8
SAPA_ISOLATOR
 10
-53.599999999010272
 20
-3.5999999999997949
 30
0.0
 42
-0.4142135623730389
  0
VERTEX
  5
229F
  8
SAPA_ISOLATOR
 10
-53.899999999010213
 20
-3.899999999999749
 30
0.0
  0
VERTEX
  5
22A0
  8
SAPA_ISOLATOR
 10
-64.546767147075684
 20
-3.899999999999749
 30
0.0
 42
-0.4142135623730946
  0
VERTEX
  5
22A1
  8
SAPA_ISOLATOR
 10
-64.846767147075639
 20
-3.5999999999997949
 30
0.0
  0
VERTEX
  5
22A2
  8
SAPA_ISOLATOR
 10
-64.846767147075639
 20
3.6000000000002501
 30
0.0
 42
-0.4142135623730956
  0
VERTEX
  5
22A3
  8
SAPA_ISOLATOR
 10
-64.546767147075684
 20
3.9000000000002042
 30
0.0
  0
VERTEX
  5
22A4
  8
SAPA_ISOLATOR
 10
-53.899999999010213
 20
3.9000000000002042
 30
0.0
 42
-0.4142135623730514
  0
VERTEX
  5
22A5
  8
SAPA_ISOLATOR
 10
-53.599999999010272
 20
3.6000000000002501
 30
0.0
  0
VERTEX
  5
22A6
  8
SAPA_ISOLATOR
 10
-53.599999999010272
 20
2.8186291501017422
 30
0.0
 42
0.198912367379658
  0
VERTEX
  5
22A7
  8
SAPA_ISOLATOR
 10
-53.512132033366122
 20
2.6064971157458099
 30
0.0
  0
VERTEX
  5
22A8
  8
SAPA_ISOLATOR
 10
-52.193502883264728
 20
1.2878679656442951
 30
0.0
 42
0.1989123673796573
  0
VERTEX
  5
22A9
  8
SAPA_ISOLATOR
 10
-51.981370848908803
 20
1.200000000000272
 30
0.0
  0
VERTEX
  5
22AA
  8
SAPA_ISOLATOR
 10
-46.992292378098448
 20
1.200000000000272
 30
0.0
 42
-0.082016165771189
  0
VERTEX
  5
22AB
  8
SAPA_ISOLATOR
 10
-45.408225173596861
 20
0.2604570137378914
 30
0.0
 42
-0.4155202927268181
  0
VERTEX
  5
22AC
  8
SAPA_ISOLATOR
 10
-45.408225173608677
 20
-0.2604570137474411
 30
0.0
 42
-0.0820161657705025
  0
VERTEX
  5
22AD
  8
SAPA_ISOLATOR
 10
-46.992292378098448
 20
-1.1999999999998181
 30
0.0
  0
SEQEND
  5
22AE
  8
SAPA_ISOLATOR
  0
POLYLINE
  5
141F
  8
SAPA_ISOLATOR
 66
     1
 10
0.0
 20
0.0
 30
0.0
 70
     1
  0
VERTEX
  5
22AF
  8
SAPA_ISOLATOR
 10
-65.846767147075639
 20
-3.5999999999997949
 30
0.0
 42
-0.4142135623731076
  0
VERTEX
  5
22B0
  8
SAPA_ISOLATOR
 10
-66.146767147075707
 20
-3.899999999999749
 30
0.0
  0
VERTEX
  5
22B1
  8
SAPA_ISOLATOR
 10
-79.021661667209287
 20
-3.899999999999749
 30
0.0
 42
-0.4142135623730659
  0
VERTEX
  5
22B2
  8
SAPA_ISOLATOR
 10
-79.321661667209241
 20
-3.5999999999997949
 30
0.0
  0
VERTEX
  5
22B3
  8
SAPA_ISOLATOR
 10
-79.321661667209355
 20
3.6000000000002501
 30
0.0
 42
-0.414213562373041
  0
VERTEX
  5
22B4
  8
SAPA_ISOLATOR
 10
-79.021661667209287
 20
3.9000000000002042
 30
0.0
  0
VERTEX
  5
22B5
  8
SAPA_ISOLATOR
 10
-66.146767147075707
 20
3.9000000000002042
 30
0.0
 42
-0.4142135623730784
  0
VERTEX
  5
22B6
  8
SAPA_ISOLATOR
 10
-65.846767147075752
 20
3.6000000000002501
 30
0.0
  0
SEQEND
  5
22B7
  8
SAPA_ISOLATOR
  0
POLYLINE
  5
1420
  8
SAPA_ISOLATOR
 66
     1
 10
0.0
 20
0.0
 30
0.0
 70
     1
  0
VERTEX
  5
22B8
  8
SAPA_ISOLATOR
 10
-80.321661667209355
 20
-3.5999999999997949
 30
0.0
 42
-0.4142135623730659
  0
VERTEX
  5
22B9
  8
SAPA_ISOLATOR
 10
-80.62166166720931
 20
-3.899999999999749
 30
0.0
  0
VERTEX
  5
22BA
  8
SAPA_ISOLATOR
 10
-90.378679657683165
 20
-3.899999999999749
 30
0.0
 42
-0.6681786375386655
  0
VERTEX
  5
22BB
  8
SAPA_ISOLATOR
 10
-90.661522370455373
 20
-3.2171572878228281
 30
0.0
  0
VERTEX
  5
22BC
  8
SAPA_ISOLATOR
 10
-88.575735929479706
 20
-1.1313708424569311
 30
0.0
 42
0.4142135623730892
  0
VERTEX
  5
22BD
  8
SAPA_ISOLATOR
 10
-88.575735930298265
 20
1.1313708565214711
 30
0.0
  0
VERTEX
  5
22BE
  8
SAPA_ISOLATOR
 10
-90.661522365395058
 20
3.2171572872279048
 30
0.0
 42
-0.6681786382998773
  0
VERTEX
  5
22BF
  8
SAPA_ISOLATOR
 10
-90.378679653218114
 20
3.9000000000002042
 30
0.0
  0
VERTEX
  5
22C0
  8
SAPA_ISOLATOR
 10
-80.621661667209423
 20
3.9000000000002042
 30
0.0
 42
-0.4142135623730951
  0
VERTEX
  5
22C1
  8
SAPA_ISOLATOR
 10
-80.321661667209355
 20
3.6000000000002501
 30
0.0
  0
SEQEND
  5
22C2
  8
SAPA_ISOLATOR
  0
LINE
  5
1421
  8
SAPA_ISOLATOR
 10
-45.038028273472591
 20
30.994623398221989
 30
0.0
 11
-16.89242387984859
 21
24.999999631037241
 31
0.0
  0
LINE
  5
1422
  8
SAPA_ISOLATOR
 10
-16.892423879848579
 20
31.016586933922689
 30
0.0
 11
-45.038028273472591
 21
25.011210701107451
 31
0.0
  0
POLYLINE
  5
1448
  8
SAPA_FOGBAND
 66
     1
 10
0.0
 20
0.0
 30
0.0
 70
     1
  0
VERTEX
  5
24C4
  8
SAPA_FOGBAND
 10
-71.364139622992695
 20
72.305446141478583
 30
0.0
 42
0.1579553886371987
  0
VERTEX
  5
24C5
  8
SAPA_FOGBAND
 10
-71.511199129457054
 20
75.569274185594651
 30
0.0
 42
1.0
  0
VERTEX
  5
24C6
  8
SAPA_FOGBAND
 10
-74.882516852218174
 20
74.306651196655395
 30
0.0
 42
0.1276248526686838
  0
VERTEX
  5
24C7
  8
SAPA_FOGBAND
 10
-73.641204430532582
 20
72.538998688177827
 30
0.0
  0
VERTEX
  5
24C8
  8
SAPA_FOGBAND
 10
-72.571815757960167
 20
71.629652164609098
 30
0.0
 42
0.5691506674918112
  0
VERTEX
  5
24C9
  8
SAPA_FOGBAND
 10
-71.433124563323076
 20
72.019887920327193
 30
0.0
 42
-0.0156300267407041
  0
SEQEND
  5
24CA
  8
SAPA_FOGBAND
  0
POLYLINE
  5
1449
  8
SAPA_FOGBAND
 66
     1
 10
0.0
 20
0.0
 30
0.0
 70
     1
  0
VERTEX
  5
24CB
  8
SAPA_FOGBAND
 10
-78.573627998605275
 20
61.00259470092535
 30
0.0
 42
-0.3888787318529789
  0
VERTEX
  5
24CC
  8
SAPA_FOGBAND
 10
-77.586572174095295
 20
62.288950895836962
 30
0.0
  0
VERTEX
  5
24CD
  8
SAPA_FOGBAND
 10
-76.869070324508925
 20
62.415465830627483
 30
0.0
 42
-1.0
  0
VERTEX
  5
24CE
  8
SAPA_FOGBAND
 10
-76.278185672701625
 20
62.519654737227967
 30
0.0
  0
VERTEX
  5
24CF
  8
SAPA_FOGBAND
 10
-75.669070324508652
 20
62.627058207477631
 30
0.0
 42
-0.9999999999999067
  0
VERTEX
  5
24D0
  8
SAPA_FOGBAND
 10
-75.078185672701352
 20
62.731247114077661
 30
0.0
  0
VERTEX
  5
24D1
  8
SAPA_FOGBAND
 10
-74.733459038032493
 20
62.792031720739061
 30
0.0
 42
0.3345953195020691
  0
VERTEX
  5
24D2
  8
SAPA_FOGBAND
 10
-72.681274743778999
 20
64.992729945100137
 30
0.0
  0
VERTEX
  5
24D3
  8
SAPA_FOGBAND
 10
-72.328166970861844
 20
69.00653735011204
 30
0.0
 42
0.2564696513213821
  0
VERTEX
  5
24D4
  8
SAPA_FOGBAND
 10
-73.454099136803833
 20
71.461031548818966
 30
0.0
  0
VERTEX
  5
24D5
  8
SAPA_FOGBAND
 10
-74.094664317022421
 20
72.005731277449769
 30
0.0
 42
-0.1276248526686853
  0
VERTEX
  5
24D6
  8
SAPA_FOGBAND
 10
-75.538050853866125
 20
74.061141171028822
 30
0.0
 42
-1.0
  0
VERTEX
  5
24D7
  8
SAPA_FOGBAND
 10
-70.855665127809175
 20
75.814784211221664
 30
0.0
 42
-0.1579553886371977
  0
VERTEX
  5
24D8
  8
SAPA_FOGBAND
 10
-70.689182667660702
 20
72.119884538637081
 30
0.0
 42
0.0604483959424258
  0
VERTEX
  5
24D9
  8
SAPA_FOGBAND
 10
-70.790275202113776
 20
68.729772477651764
 30
0.0
  0
VERTEX
  5
24DA
  8
SAPA_FOGBAND
 10
-70.578194360895054
 20
63.572205721284291
 30
0.0
 42
0.3286126757704555
  0
VERTEX
  5
24DB
  8
SAPA_FOGBAND
 10
-69.522638805339398
 20
62.13956161481476
 30
0.0
 42
-0.2704382184496639
  0
VERTEX
  5
24DC
  8
SAPA_FOGBAND
 10
-68.608962530199392
 20
61.021053089678418
 30
0.0
  0
VERTEX
  5
24DD
  8
SAPA_FOGBAND
 10
-72.478194360895145
 20
61.220916854806113
 30
0.0
  0
VERTEX
  5
24DE
  8
SAPA_FOGBAND
 10
-72.478194360895145
 20
60.020916854806302
 30
0.0
  0
VERTEX
  5
24DF
  8
SAPA_FOGBAND
 10
-72.532666123934519
 20
58.959852449256722
 30
0.0
  0
VERTEX
  5
24E0
  8
SAPA_FOGBAND
 10
-71.982820215129436
 20
58.960821459114442
 30
0.0
 42
-0.6068148963145658
  0
VERTEX
  5
24E1
  8
SAPA_FOGBAND
 10
-71.867629645754391
 20
58.441230378291984
 30
0.0
  0
VERTEX
  5
24E2
  8
SAPA_FOGBAND
 10
-73.683042455774853
 20
57.064904692401832
 30
0.0
 42
-0.4400105308918406
  0
VERTEX
  5
24E3
  8
SAPA_FOGBAND
 10
-75.207671747013251
 20
57.265625946488427
 30
0.0
  0
VERTEX
  5
24E4
  8
SAPA_FOGBAND
 10
-76.730873128428925
 20
59.28258887071118
 30
0.0
 42
-0.5205670505516999
  0
VERTEX
  5
24E5
  8
SAPA_FOGBAND
 10
-76.562773228672881
 20
59.744439549503142
 30
0.0
  0
VERTEX
  5
24E6
  8
SAPA_FOGBAND
 10
-75.81793411724027
 20
59.771035180538121
 30
0.0
  0
VERTEX
  5
24E7
  8
SAPA_FOGBAND
 10
-76.017445060694286
 20
61.060947989386499
 30
0.0
  0
SEQEND
  5
24E8
  8
SAPA_FOGBAND
  0
CIRCLE
  5
144A
  8
SAPA_FOGBAND
 10
-71.997051924880566
 20
62.616112303479923
 30
0.0
 40
0.3
  0
POLYLINE
  5
144B
  8
SAPA_FOGBAND
 66
     1
 10
0.0
 20
0.0
 30
0.0
 70
     1
  0
VERTEX
  5
24E9
  8
SAPA_FOGBAND
 10
-75.178194360894963
 20
58.807464586084308
 30
0.0
  0
VERTEX
  5
24EA
  8
SAPA_FOGBAND
 10
-75.178194360894963
 20
60.72091685480612
 30
0.0
 42
-0.4142135623730951
  0
VERTEX
  5
24EB
  8
SAPA_FOGBAND
 10
-74.678194360894963
 20
61.220916854806113
 30
0.0
  0
VERTEX
  5
24EC
  8
SAPA_FOGBAND
 10
-73.878194360895236
 20
61.220916854806113
 30
0.0
 42
-0.4142135623730951
  0
VERTEX
  5
24ED
  8
SAPA_FOGBAND
 10
-73.378194360895236
 20
60.72091685480612
 30
0.0
  0
VERTEX
  5
24EE
  8
SAPA_FOGBAND
 10
-73.378194360895236
 20
58.644813042739791
 30
0.0
 42
-0.2216946626429447
  0
VERTEX
  5
24EF
  8
SAPA_FOGBAND
 10
-73.592521795083144
 20
58.185186376867961
 30
0.0
  0
VERTEX
  5
24F0
  8
SAPA_FOGBAND
 10
-74.021716415020023
 20
57.825049329575471
 30
0.0
 42
-0.4400105308918337
  0
VERTEX
  5
24F1
  8
SAPA_FOGBAND
 10
-74.683797913953754
 20
57.912214012516891
 30
0.0
  0
VERTEX
  5
24F2
  8
SAPA_FOGBAND
 10
-75.069685587468584
 20
58.463318724273478
 30
0.0
 42
-0.153914721059829
  0
SEQEND
  5
24F3
  8
SAPA_FOGBAND
  0
POLYLINE
  5
144C
  8
SAPA_FOGBAND
 66
     1
 10
0.0
 20
0.0
 30
0.0
 70
     1
  0
VERTEX
  5
24F4
  8
SAPA_FOGBAND
 10
-86.598715294411974
 20
80.26169128744138
 30
0.0
  0
VERTEX
  5
24F5
  8
SAPA_FOGBAND
 10
-87.598715294411974
 20
80.26169128744138
 30
0.0
 42
0.9999999999999998
  0
VERTEX
  5
24F6
  8
SAPA_FOGBAND
 10
-87.598715294411974
 20
79.057531829562151
 30
0.0
  0
VERTEX
  5
24F7
  8
SAPA_FOGBAND
 10
-86.598715294411974
 20
79.057531829562151
 30
0.0
 42
0.9999999999999998
  0
SEQEND
  5
24F8
  8
SAPA_FOGBAND
  0
POLYLINE
  5
144D
  8
SAPA_FOGBAND
 66
     1
 10
0.0
 20
0.0
 30
0.0
 70
     1
  0
VERTEX
  5
24F9
  8
SAPA_FOGBAND
 10
-87.522567591768279
 20
77.692327282316526
 30
0.0
  0
VERTEX
  5
24FA
  8
SAPA_FOGBAND
 10
-88.908332678713833
 20
78.550385992625991
 30
0.0
 42
-0.2528723899644565
  0
VERTEX
  5
24FB
  8
SAPA_FOGBAND
 10
-88.998715294411966
 20
78.717670268811219
 30
0.0
  0
VERTEX
  5
24FC
  8
SAPA_FOGBAND
 10
-88.998715294411966
 20
80.601552848192313
 30
0.0
 42
-0.2528723899644564
  0
VERTEX
  5
24FD
  8
SAPA_FOGBAND
 10
-88.908332678713833
 20
80.768837124377526
 30
0.0
  0
VERTEX
  5
24FE
  8
SAPA_FOGBAND
 10
-87.522567591768279
 20
81.626895834687005
 30
0.0
 42
-0.5108224790788402
  0
VERTEX
  5
24FF
  8
SAPA_FOGBAND
 10
-87.219765042208621
 20
81.511375367522277
 30
0.0
  0
VERTEX
  5
2500
  8
SAPA_FOGBAND
 10
-87.098715294411974
 20
81.109611558501754
 30
0.0
  0
VERTEX
  5
2501
  8
SAPA_FOGBAND
 10
-85.998715294411966
 20
81.109611558501754
 30
0.0
  0
VERTEX
  5
2502
  8
SAPA_FOGBAND
 10
-85.998715294411966
 20
82.974346162360035
 30
0.0
 42
-0.0874886635259237
  0
VERTEX
  5
2503
  8
SAPA_FOGBAND
 10
-85.986653818569167
 20
83.042750191025164
 30
0.0
  0
VERTEX
  5
2504
  8
SAPA_FOGBAND
 10
-85.430840104132386
 20
86.575494337065294
 30
0.0
 42
-0.9391885369168745
  0
VERTEX
  5
2505
  8
SAPA_FOGBAND
 10
-85.047883585459758
 20
86.462728367333796
 30
0.0
  0
VERTEX
  5
2506
  8
SAPA_FOGBAND
 10
-85.198715294411954
 20
82.590534562096806
 30
0.0
  0
VERTEX
  5
2507
  8
SAPA_FOGBAND
 10
-85.003999513837314
 20
81.76035959524819
 30
0.0
 42
-0.0576596372120268
  0
VERTEX
  5
2508
  8
SAPA_FOGBAND
 10
-84.998715294411966
 20
81.714689421226055
 30
0.0
  0
VERTEX
  5
2509
  8
SAPA_FOGBAND
 10
-84.998715294411966
 20
77.309611558501771
 30
0.0
 42
-0.4142135623730951
  0
VERTEX
  5
250A
  8
SAPA_FOGBAND
 10
-85.598715294411974
 20
76.709611558501763
 30
0.0
  0
VERTEX
  5
250B
  8
SAPA_FOGBAND
 10
-85.798715294411977
 20
76.709611558501763
 30
0.0
 42
-0.4142135623730951
  0
VERTEX
  5
250C
  8
SAPA_FOGBAND
 10
-85.998715294411966
 20
76.909611558501766
 30
0.0
  0
VERTEX
  5
250D
  8
SAPA_FOGBAND
 10
-85.998715294411966
 20
78.209611558501763
 30
0.0
  0
VERTEX
  5
250E
  8
SAPA_FOGBAND
 10
-87.098715294411974
 20
78.209611558501763
 30
0.0
  0
VERTEX
  5
250F
  8
SAPA_FOGBAND
 10
-87.219765042208621
 20
77.807847749481255
 30
0.0
 42
-0.51082247907884
  0
SEQEND
  5
2510
  8
SAPA_FOGBAND
  0
POLYLINE
  5
144E
  8
SAPA_FOGBAND
 66
     1
 10
0.0
 20
0.0
 30
0.0000000195376815
 70
     1
  0
VERTEX
  5
2511
  8
SAPA_FOGBAND
 10
2.5513651484895781
 20
58.387868248766729
 30
0.0000000195376815
  0
VERTEX
  5
2512
  8
SAPA_FOGBAND
 10
2.5513651484895781
 20
58.287868248766728
 30
0.0000000195376815
 42
-0.4142135623730959
  0
VERTEX
  5
2513
  8
SAPA_FOGBAND
 10
1.8513651484895901
 20
57.58786824876676
 30
0.0000000195376815
  0
VERTEX
  5
2514
  8
SAPA_FOGBAND
 10
0.7513651484895961
 20
57.587868248766718
 30
0.0000000195376815
 42
-0.4142135623730961
  0
VERTEX
  5
2515
  8
SAPA_FOGBAND
 10
0.551365148489579
 20
57.787868248766742
 30
0.0000000195376815
  0
VERTEX
  5
2516
  8
SAPA_FOGBAND
 10
0.551365148489579
 20
58.887868248766743
 30
0.0000000195376815
 42
-0.4142135623730956
  0
VERTEX
  5
2517
  8
SAPA_FOGBAND
 10
0.7513651484895961
 20
59.087868248766753
 30
0.0000000195376815
  0
VERTEX
  5
2518
  8
SAPA_FOGBAND
 10
1.8513651484895901
 20
59.087868248766718
 30
0.0000000195376815
 42
-0.4142135623730946
  0
SEQEND
  5
2519
  8
SAPA_FOGBAND
  0
POLYLINE
  5
144F
  8
SAPA_FOGBAND
 66
     1
 10
0.0
 20
0.0
 30
0.0000000195376815
 70
     1
  0
VERTEX
  5
251A
  8
SAPA_FOGBAND
 10
1.251365148489596
 20
59.887868248766729
 30
0.0000000195376815
  0
VERTEX
  5
251B
  8
SAPA_FOGBAND
 10
0.6035995832165062
 20
59.887868248766729
 30
0.0000000195376815
 42
-0.4416942457848324
  0
VERTEX
  5
251C
  8
SAPA_FOGBAND
 10
0.4044621037235592
 20
60.106422608394652
 30
0.0000000195376815
  0
VERTEX
  5
251D
  8
SAPA_FOGBAND
 10
0.4941781689816054
 20
61.069313889138819
 30
0.0000000195376815
 42
0.4416942457847888
  0
VERTEX
  5
251E
  8
SAPA_FOGBAND
 10
0.2950406894886868
 20
61.287868248766742
 30
0.0000000195376815
  0
VERTEX
  5
251F
  8
SAPA_FOGBAND
 10
-0.2549416501028796
 20
61.287868248766742
 30
0.0000000195376815
 42
0.5445962197109612
  0
VERTEX
  5
2520
  8
SAPA_FOGBAND
 10
-0.7106785591647205
 20
60.582189203361658
 30
0.0000000195376815
  0
VERTEX
  5
2521
  8
SAPA_FOGBAND
 10
-0.548634851510415
 20
60.2231380500764
 30
0.0000000195376815
  0
VERTEX
  5
2522
  8
SAPA_FOGBAND
 10
-0.5486348515104133
 20
58.750178811328489
 30
0.0000000195376815
 42
0.3364379234965429
  0
VERTEX
  5
2523
  8
SAPA_FOGBAND
 10
-0.3611280336686651
 20
57.678435081713658
 30
0.0000000195376815
  0
VERTEX
  5
2524
  8
SAPA_FOGBAND
 10
-0.3611280336686651
 20
57.11657144588996
 30
0.0000000195376815
 42
-0.1919812372740509
  0
VERTEX
  5
2525
  8
SAPA_FOGBAND
 10
-0.4982604116859362
 20
56.772584398289908
 30
0.0000000195376815
  0
VERTEX
  5
2526
  8
SAPA_FOGBAND
 10
-0.8697378879760195
 20
56.38071746788664
 30
0.0000000195376815
 42
-0.7712067734688043
  0
VERTEX
  5
2527
  8
SAPA_FOGBAND
 10
-3.6793718836566791
 20
58.95314916776077
 30
0.0000000195376815
 42
-0.152544453744271
  0
VERTEX
  5
2528
  8
SAPA_FOGBAND
 10
-2.787496614902901
 20
59.822574917600932
 30
0.0000000195376815
 42
0.6229515670381967
  0
VERTEX
  5
2529
  8
SAPA_FOGBAND
 10
-2.8873788987254301
 20
60.297515102376678
 30
0.0000000195376815
 42
0.2412896305485237
  0
VERTEX
  5
252A
  8
SAPA_FOGBAND
 10
-3.290843713067563
 20
60.260763831078563
 30
0.0000000195376815
 42
0.0924947384438033
  0
VERTEX
  5
252B
  8
SAPA_FOGBAND
 10
-3.9813441251089801
 20
59.638770922348272
 30
0.0000000195376815
 42
0.8622191196043894
  0
VERTEX
  5
252C
  8
SAPA_FOGBAND
 10
-0.4054323731331407
 20
55.814899768606992
 30
0.0000000195376815
  0
VERTEX
  5
252D
  8
SAPA_FOGBAND
 10
-0.2900643998440149
 20
55.384340630725717
 30
0.0000000195376815
 42
0.9163311740173991
  0
VERTEX
  5
252E
  8
SAPA_FOGBAND
 10
0.4947838099083244
 20
55.522730545865819
 30
0.0000000195376815
  0
VERTEX
  5
252F
  8
SAPA_FOGBAND
 10
0.4031213637007745
 20
56.570437100217212
 30
0.0000000195376815
 42
-0.4400105308918151
  0
VERTEX
  5
2530
  8
SAPA_FOGBAND
 10
0.6023603033191148
 20
56.787868248766742
 30
0.0000000195376815
  0
VERTEX
  5
2531
  8
SAPA_FOGBAND
 10
1.451365148489584
 20
56.787868248766742
 30
0.0000000195376815
  0
VERTEX
  5
2532
  8
SAPA_FOGBAND
 10
1.451365148489584
 20
56.387868248766743
 30
0.0000000195376815
 42
0.5693809839207585
  0
VERTEX
  5
2533
  8
SAPA_FOGBAND
 10
1.7471815201922261
 20
56.212314203203192
 30
0.0000000195376815
  0
VERTEX
  5
2534
  8
SAPA_FOGBAND
 10
3.0388142635975282
 20
56.917279803102218
 30
0.0000000195376815
 42
0.2743878130875472
  0
VERTEX
  5
2535
  8
SAPA_FOGBAND
 10
3.3513651484896032
 20
57.443941939792957
 30
0.0000000195376815
  0
VERTEX
  5
2536
  8
SAPA_FOGBAND
 10
3.351365148489589
 20
59.2317945577405
 30
0.0000000195376815
 42
0.2743878130875473
  0
VERTEX
  5
2537
  8
SAPA_FOGBAND
 10
3.0388142635975179
 20
59.758456694431231
 30
0.0000000195376815
  0
VERTEX
  5
2538
  8
SAPA_FOGBAND
 10
1.7471815201922549
 20
60.463422294330321
 30
0.0000000195376815
 42
0.5693809839208271
  0
VERTEX
  5
2539
  8
SAPA_FOGBAND
 10
1.451365148489552
 20
60.287868248766742
 30
0.0000000195376815
  0
VERTEX
  5
253A
  8
SAPA_FOGBAND
 10
1.4513651484895851
 20
59.887868248766729
 30
0.0000000195376815
  0
VERTEX
  5
253B
  8
SAPA_FOGBAND
 10
0.6023603033191156
 20
59.887868248766729
 30
0.0000000195376815
  0
SEQEND
  5
253C
  8
SAPA_FOGBAND
  0
CIRCLE
  5
1450
  8
SAPA_FOGBAND
 10
-92.637568222720574
 20
18.614660706669842
 30
0.0
 40
0.2549509756796394
  0
INSERT
  5
1451
  8
SAPA_FOGBAND
  6
CONTINUOUS
  2
*U92
 10
0.0
 20
0.0
 30
0.0
1001
ACAD
1002
{
1000
R14_HATCH_DATA
1000
1451
1011
1.0
1021
0.0
1031
0.0
1021
0.0
1031
0.0
1011
0.0
1021
0.0
1031
0.0
1021
1.0
1031
0.0
1011
0.0
1021
0.0
1031
0.0
1021
0.0
1031
1.0
1040
0.0
1010
0.0
1020
0.0
1030
1.0
1000
SOLID
1070
     1
1070
     1
1071
        1
1071
        1
1071
        1
1070
     2
1040
-92.637568222720574
1040
18.614660706669842
1040
0.2549509756796394
1040
-1.5707963267948959
1040
4.7123889803846888
1070
     1
1071
        1
1005
1450
1070
     0
1070
     1
1071
        1
1040
-92.555716725391676
1040
18.851399608239941
1040
0.0
1002
}
  0
POLYLINE
  5
1452
  8
SAPA_FOGBAND
 66
     1
 10
0.0
 20
0.0
 30
0.0
 70
     1
  0
VERTEX
  5
254E
  8
SAPA_FOGBAND
 10
-95.600000001965086
 20
17.714660706669861
 30
0.0
 42
0.9999999999999998
  0
VERTEX
  5
254F
  8
SAPA_FOGBAND
 10
-95.600000001965086
 20
19.514660706669812
 30
0.0
  0
VERTEX
  5
2550
  8
SAPA_FOGBAND
 10
-96.200000001965122
 20
19.514660706669812
 30
0.0
 42
0.9999999999999998
  0
VERTEX
  5
2551
  8
SAPA_FOGBAND
 10
-96.200000001965122
 20
17.714660706669861
 30
0.0
  0
SEQEND
  5
2552
  8
SAPA_FOGBAND
  0
POLYLINE
  5
1453
  8
SAPA_FOGBAND
 66
     1
 10
0.0
 20
0.0
 30
0.0
 70
     1
  0
VERTEX
  5
2553
  8
SAPA_FOGBAND
 10
-90.500000001965077
 20
27.242537014843041
 30
0.0
 42
0.0775891054856093
  0
VERTEX
  5
2554
  8
SAPA_FOGBAND
 10
-90.816635986026427
 20
23.775755284420491
 30
0.0
  0
VERTEX
  5
2555
  8
SAPA_FOGBAND
 10
-90.600000001965043
 20
23.537865791591688
 30
0.0
 42
-0.5773502691896298
  0
VERTEX
  5
2556
  8
SAPA_FOGBAND
 10
-90.600000001965043
 20
23.191455630077829
 30
0.0
  0
VERTEX
  5
2557
  8
SAPA_FOGBAND
 10
-90.81690985618809
 20
22.95340801334703
 30
0.0
  0
VERTEX
  5
2558
  8
SAPA_FOGBAND
 10
-90.81690985618809
 20
22.1759134034304
 30
0.0
  0
VERTEX
  5
2559
  8
SAPA_FOGBAND
 10
-90.600000001965043
 20
21.937865791591658
 30
0.0
 42
-0.577350269189699
  0
VERTEX
  5
255A
  8
SAPA_FOGBAND
 10
-90.600000001965043
 20
21.59145563007792
 30
0.0
  0
VERTEX
  5
255B
  8
SAPA_FOGBAND
 10
-90.81690985618809
 20
21.353408013347121
 30
0.0
  0
VERTEX
  5
255C
  8
SAPA_FOGBAND
 10
-90.81690985618809
 20
20.575913403430381
 30
0.0
  0
VERTEX
  5
255D
  8
SAPA_FOGBAND
 10
-90.600000001965043
 20
20.337865791591639
 30
0.0
 42
-0.577350269189699
  0
VERTEX
  5
255E
  8
SAPA_FOGBAND
 10
-90.600000001965043
 20
19.991455630077891
 30
0.0
  0
VERTEX
  5
255F
  8
SAPA_FOGBAND
 10
-90.81690985618809
 20
19.753408013347091
 30
0.0
  0
VERTEX
  5
2560
  8
SAPA_FOGBAND
 10
-90.81690985618809
 20
18.975913403430351
 30
0.0
  0
VERTEX
  5
2561
  8
SAPA_FOGBAND
 10
-90.600000001965043
 20
18.73786579159173
 30
0.0
 42
-0.5773502691896298
  0
VERTEX
  5
2562
  8
SAPA_FOGBAND
 10
-90.600000001965043
 20
18.391455630077871
 30
0.0
  0
VERTEX
  5
2563
  8
SAPA_FOGBAND
 10
-90.81690985618809
 20
18.153408013347072
 30
0.0
  0
VERTEX
  5
2564
  8
SAPA_FOGBAND
 10
-90.81690985618809
 20
17.375913403430332
 30
0.0
  0
VERTEX
  5
2565
  8
SAPA_FOGBAND
 10
-90.600000001965043
 20
17.137865791591711
 30
0.0
 42
-0.5773502691896298
  0
VERTEX
  5
2566
  8
SAPA_FOGBAND
 10
-90.600000001965043
 20
16.791455630077849
 30
0.0
  0
VERTEX
  5
2567
  8
SAPA_FOGBAND
 10
-90.81690985618809
 20
16.553408013347049
 30
0.0
  0
VERTEX
  5
2568
  8
SAPA_FOGBAND
 10
-90.81690985618809
 20
15.77591339926539
 30
0.0
  0
VERTEX
  5
2569
  8
SAPA_FOGBAND
 10
-90.600000001965043
 20
15.53786578742665
 30
0.0
 42
-0.577350269189699
  0
VERTEX
  5
256A
  8
SAPA_FOGBAND
 10
-90.600000001965043
 20
15.19145562591291
 30
0.0
  0
VERTEX
  5
256B
  8
SAPA_FOGBAND
 10
-91.673330070449538
 20
14.391455626357811
 30
0.0
 42
-0.1316524987190269
  0
VERTEX
  5
256C
  8
SAPA_FOGBAND
 10
-91.773330071220244
 20
14.36466070666984
 30
0.0
  0
VERTEX
  5
256D
  8
SAPA_FOGBAND
 10
-94.300000001965032
 20
14.364660706669721
 30
0.0
 42
-0.4142135623730951
  0
VERTEX
  5
256E
  8
SAPA_FOGBAND
 10
-94.500000001965077
 20
14.56466070666977
 30
0.0
  0
VERTEX
  5
256F
  8
SAPA_FOGBAND
 10
-94.500000001965077
 20
16.614660706669842
 30
0.0
 42
0.4142135623730951
  0
VERTEX
  5
2570
  8
SAPA_FOGBAND
 10
-95.000000001965077
 20
17.114660706669842
 30
0.0
  0
VERTEX
  5
2571
  8
SAPA_FOGBAND
 10
-95.726794921208239
 20
17.114660706669842
 30
0.0
  0
VERTEX
  5
2572
  8
SAPA_FOGBAND
 10
-95.794254830518625
 20
16.862896897649311
 30
0.0
 42
-0.4740571810232869
  0
VERTEX
  5
2573
  8
SAPA_FOGBAND
 10
-96.076537416157294
 20
16.735603035285749
 30
0.0
  0
VERTEX
  5
2574
  8
SAPA_FOGBAND
 10
-97.522743552917063
 20
17.355703538044281
 30
0.0
 42
-0.2846003776495916
  0
VERTEX
  5
2575
  8
SAPA_FOGBAND
 10
-97.800000001965032
 20
17.803347716504501
 30
0.0
  0
VERTEX
  5
2576
  8
SAPA_FOGBAND
 10
-97.800000001965032
 20
19.425973696835062
 30
0.0
 42
-0.2846003776495917
  0
VERTEX
  5
2577
  8
SAPA_FOGBAND
 10
-97.522743552917063
 20
19.873617875295281
 30
0.0
  0
VERTEX
  5
2578
  8
SAPA_FOGBAND
 10
-96.076537416157294
 20
20.49371837805381
 30
0.0
 42
-0.4740571810232869
  0
VERTEX
  5
2579
  8
SAPA_FOGBAND
 10
-95.794254830518625
 20
20.366424515690259
 30
0.0
  0
VERTEX
  5
257A
  8
SAPA_FOGBAND
 10
-95.726794921208239
 20
20.114660706669842
 30
0.0
  0
VERTEX
  5
257B
  8
SAPA_FOGBAND
 10
-95.000000001965077
 20
20.114660706669842
 30
0.0
 42
0.4142135623730951
  0
VERTEX
  5
257C
  8
SAPA_FOGBAND
 10
-94.500000001965077
 20
20.614660706669842
 30
0.0
  0
VERTEX
  5
257D
  8
SAPA_FOGBAND
 10
-94.500000001965077
 20
23.664660706669789
 30
0.0
 42
0.4142135623730951
  0
VERTEX
  5
257E
  8
SAPA_FOGBAND
 10
-94.700000001965108
 20
23.864660706669842
 30
0.0
  0
VERTEX
  5
257F
  8
SAPA_FOGBAND
 10
-95.600000001965086
 20
23.864660706669731
 30
0.0
 42
-0.4142135623731784
  0
VERTEX
  5
2580
  8
SAPA_FOGBAND
 10
-95.800000001965046
 20
24.06466070666977
 30
0.0
  0
VERTEX
  5
2581
  8
SAPA_FOGBAND
 10
-95.800000001965145
 20
24.764660706669819
 30
0.0
 42
-0.4142135623730398
  0
VERTEX
  5
2582
  8
SAPA_FOGBAND
 10
-95.500000001965077
 20
25.06466070666977
 30
0.0
  0
VERTEX
  5
2583
  8
SAPA_FOGBAND
 10
-94.689488225313539
 20
25.06466070666977
 30
0.0
 42
0.1316524975873973
  0
VERTEX
  5
2584
  8
SAPA_FOGBAND
 10
-93.689488225313539
 20
25.33260989910093
 30
0.0
  0
VERTEX
  5
2585
  8
SAPA_FOGBAND
 10
-91.099920233221624
 20
30.495455049141359
 30
0.0
 42
-0.7057658529986604
  0
VERTEX
  5
2586
  8
SAPA_FOGBAND
 10
-90.500000001965077
 20
30.227861873783009
 30
0.0
  0
SEQEND
  5
2587
  8
SAPA_FOGBAND
  0
POLYLINE
  5
1454
  8
SAPA_FOGBAND
 66
     1
 10
0.0
 20
0.0
 30
0.0
 70
     1
  0
VERTEX
  5
2588
  8
SAPA_FOGBAND
 10
-34.185369502362391
 20
19.2975429397477
 30
0.0
 42
-0.9999999999999998
  0
VERTEX
  5
2589
  8
SAPA_FOGBAND
 10
-34.185369502362377
 20
21.097542939747711
 30
0.0
  0
VERTEX
  5
258A
  8
SAPA_FOGBAND
 10
-33.585369502362347
 20
21.097542939747711
 30
0.0
 42
-0.9999999999999998
  0
VERTEX
  5
258B
  8
SAPA_FOGBAND
 10
-33.585369502362362
 20
19.2975429397477
 30
0.0
  0
SEQEND
  5
258C
  8
SAPA_FOGBAND
  0
POLYLINE
  5
1455
  8
SAPA_FOGBAND
 66
     1
 10
0.0
 20
0.0
 30
0.0
  0
VERTEX
  5
258D
  8
SAPA_FOGBAND
 10
-35.800000000001191
 20
23.7975429397477
 30
0.0
  0
VERTEX
  5
258E
  8
SAPA_FOGBAND
 10
-35.50000000000113
 20
23.7975429397477
 30
0.0
  0
VERTEX
  5
258F
  8
SAPA_FOGBAND
 10
-35.800000000001191
 20
23.7975429397477
 30
0.0
 42
0.4142135623730951
  0
VERTEX
  5
2590
  8
SAPA_FOGBAND
 10
-36.300000000001191
 20
23.2975429397477
 30
0.0
  0
VERTEX
  5
2591
  8
SAPA_FOGBAND
 10
-36.300000000001198
 20
15.99754293974774
 30
0.0
 42
0.4142135623730951
  0
VERTEX
  5
2592
  8
SAPA_FOGBAND
 10
-35.800000000001198
 20
15.49754293974774
 30
0.0
  0
VERTEX
  5
2593
  8
SAPA_FOGBAND
 10
-35.50000000000113
 20
15.49754293974774
 30
0.0
  0
SEQEND
  5
2594
  8
SAPA_FOGBAND
  0
POLYLINE
  5
1456
  8
SAPA_FOGBAND
 66
     1
 10
0.0
 20
0.0
 30
0.0
 70
     1
  0
VERTEX
  5
2595
  8
SAPA_FOGBAND
 10
-40.100000000001117
 20
17.145827830044048
 30
0.0
  0
VERTEX
  5
2596
  8
SAPA_FOGBAND
 10
-40.100000000001117
 20
20.24047193936989
 30
0.0
 42
1.024758115298622
  0
VERTEX
  5
2597
  8
SAPA_FOGBAND
 10
-43.281531792786623
 20
20.24047193936989
 30
0.0
  0
VERTEX
  5
2598
  8
SAPA_FOGBAND
 10
-43.281531792786623
 20
17.145827830044048
 30
0.0
 42
0.9558128803175696
  0
SEQEND
  5
2599
  8
SAPA_FOGBAND
  0
POLYLINE
  5
1457
  8
SAPA_FOGBAND
 66
     1
 10
0.0
 20
0.0
 30
0.0
 70
     1
  0
VERTEX
  5
259A
  8
SAPA_FOGBAND
 10
-41.936054126746782
 20
7.9144974909247567
 30
0.0
 42
-0.6274939020253784
  0
VERTEX
  5
259B
  8
SAPA_FOGBAND
 10
-43.494698620708512
 20
7.925422313357898
 30
0.0
  0
VERTEX
  5
259C
  8
SAPA_FOGBAND
 10
-44.05844162463125
 20
11.90128230672255
 30
0.0
 42
-0.4459602482749359
  0
VERTEX
  5
259D
  8
SAPA_FOGBAND
 10
-43.163604270398899
 20
12.897542939747749
 30
0.0
  0
VERTEX
  5
259E
  8
SAPA_FOGBAND
 10
-40.440292945534189
 20
12.897542939747749
 30
0.0
 42
-0.6245270939358744
  0
VERTEX
  5
259F
  8
SAPA_FOGBAND
 10
-39.730537971723493
 20
11.44414626723254
 30
0.0
  0
SEQEND
  5
25A0
  8
SAPA_FOGBAND
  0
POLYLINE
  5
1458
  8
SAPA_FOGBAND
 66
     1
 10
0.0
 20
0.0
 30
0.0
 70
     1
  0
VERTEX
  5
25A1
  8
SAPA_FOGBAND
 10
-34.058574583119238
 20
18.697542939747731
 30
0.0
  0
VERTEX
  5
25A2
  8
SAPA_FOGBAND
 10
-33.991114673808852
 20
18.44577913072726
 30
0.0
 42
0.4740571810232144
  0
VERTEX
  5
25A3
  8
SAPA_FOGBAND
 10
-33.70883208817019
 20
18.318485268363641
 30
0.0
  0
VERTEX
  5
25A4
  8
SAPA_FOGBAND
 10
-32.262625951410307
 20
18.938585771122231
 30
0.0
 42
0.2846003776496053
  0
VERTEX
  5
25A5
  8
SAPA_FOGBAND
 10
-31.985369502362332
 20
19.3862299495824
 30
0.0
  0
VERTEX
  5
25A6
  8
SAPA_FOGBAND
 10
-31.985369502362332
 20
21.008855929913011
 30
0.0
 42
0.2846003776496027
  0
VERTEX
  5
25A7
  8
SAPA_FOGBAND
 10
-32.2626259514103
 20
21.456500108373181
 30
0.0
  0
VERTEX
  5
25A8
  8
SAPA_FOGBAND
 10
-33.70883208817024
 20
22.07660061113177
 30
0.0
 42
0.4740571810232332
  0
VERTEX
  5
25A9
  8
SAPA_FOGBAND
 10
-33.991114673808838
 20
21.949306748768208
 30
0.0
  0
VERTEX
  5
25AA
  8
SAPA_FOGBAND
 10
-34.058574583119238
 20
21.697542939747741
 30
0.0
  0
VERTEX
  5
25AB
  8
SAPA_FOGBAND
 10
-35.000000000001123
 20
21.697542939747741
 30
0.0
 42
-0.4142135623730951
  0
VERTEX
  5
25AC
  8
SAPA_FOGBAND
 10
-35.50000000000113
 20
22.197542939747731
 30
0.0
  0
VERTEX
  5
25AD
  8
SAPA_FOGBAND
 10
-35.50000000000118
 20
24.70970310312919
 30
0.0
 42
0.4027293761437467
  0
VERTEX
  5
25AE
  8
SAPA_FOGBAND
 10
-35.788192637470488
 20
25.00947065672705
 30
0.0
  0
VERTEX
  5
25AF
  8
SAPA_FOGBAND
 10
-45.188192637470522
 20
25.497310471396482
 30
0.0
 42
0.4257917699693538
  0
VERTEX
  5
25B0
  8
SAPA_FOGBAND
 10
-45.500000000001172
 20
25.197542917798621
 30
0.0
  0
VERTEX
  5
25B1
  8
SAPA_FOGBAND
 10
-45.50000000000118
 20
11.49200925857474
 30
0.0
  0
VERTEX
  5
25B2
  8
SAPA_FOGBAND
 10
-44.723465082318562
 20
5.8888676608478683
 30
0.0
 42
0.322530093016903
  0
VERTEX
  5
25B3
  8
SAPA_FOGBAND
 10
-43.72938777721258
 20
5.1975429177986001
 30
0.0
  0
VERTEX
  5
25B4
  8
SAPA_FOGBAND
 10
-42.498644220775013
 20
5.1975429177986001
 30
0.0
 42
0.2325311832130604
  0
VERTEX
  5
25B5
  8
SAPA_FOGBAND
 10
-42.102703356693198
 20
5.3922056744918194
 30
0.0
  0
VERTEX
  5
25B6
  8
SAPA_FOGBAND
 10
-35.708118271837677
 20
14.55876890239932
 30
0.0
 42
0.1657205760184606
  0
VERTEX
  5
25B7
  8
SAPA_FOGBAND
 10
-35.50000000000113
 20
15.16944338901294
 30
0.0
  0
VERTEX
  5
25B8
  8
SAPA_FOGBAND
 10
-35.50000000000113
 20
18.197542939747731
 30
0.0
 42
-0.4142135623730951
  0
VERTEX
  5
25B9
  8
SAPA_FOGBAND
 10
-35.00000000000113
 20
18.697542939747731
 30
0.0
  0
SEQEND
  5
25BA
  8
SAPA_FOGBAND
  0
CIRCLE
  5
1459
  8
SAPA_FOGBAND
 10
-93.028466855359909
 20
-18.629356795614271
 30
0.0
 40
0.2549509756796394
  0
POLYLINE
  5
145A
  8
SAPA_FOGBAND
 66
     1
 10
0.0
 20
0.0
 30
0.0
 70
     1
  0
VERTEX
  5
25BB
  8
SAPA_FOGBAND
 10
-95.599999999010777
 20
-17.72935679561418
 30
0.0
 42
-0.9999999999999998
  0
VERTEX
  5
25BC
  8
SAPA_FOGBAND
 10
-95.599999999010777
 20
-19.529356795614131
 30
0.0
  0
VERTEX
  5
25BD
  8
SAPA_FOGBAND
 10
-96.199999999010814
 20
-19.529356795614131
 30
0.0
 42
-0.9999999999999998
  0
VERTEX
  5
25BE
  8
SAPA_FOGBAND
 10
-96.199999999010814
 20
-17.72935679561418
 30
0.0
  0
SEQEND
  5
25BF
  8
SAPA_FOGBAND
  0
POLYLINE
  5
145B
  8
SAPA_FOGBAND
 66
     1
 10
0.0
 20
0.0
 30
0.0
 70
     1
  0
VERTEX
  5
25C0
  8
SAPA_FOGBAND
 10
-92.164228703859578
 20
-14.379356795614269
 30
0.0
  0
VERTEX
  5
25C1
  8
SAPA_FOGBAND
 10
-94.299999999010694
 20
-14.37935679561404
 30
0.0
 42
0.4142135623730951
  0
VERTEX
  5
25C2
  8
SAPA_FOGBAND
 10
-94.499999999010754
 20
-14.579356795614091
 30
0.0
  0
VERTEX
  5
25C3
  8
SAPA_FOGBAND
 10
-94.499999999010754
 20
-16.629356795614271
 30
0.0
 42
-0.4142135623730951
  0
VERTEX
  5
25C4
  8
SAPA_FOGBAND
 10
-94.999999999010754
 20
-17.129356795614271
 30
0.0
  0
VERTEX
  5
25C5
  8
SAPA_FOGBAND
 10
-95.726794918253916
 20
-17.129356795614271
 30
0.0
  0
VERTEX
  5
25C6
  8
SAPA_FOGBAND
 10
-95.794254827564316
 20
-16.87759298659374
 30
0.0
 42
0.4740571810232154
  0
VERTEX
  5
25C7
  8
SAPA_FOGBAND
 10
-96.076537413202985
 20
-16.750299124230182
 30
0.0
  0
VERTEX
  5
25C8
  8
SAPA_FOGBAND
 10
-97.52274354996274
 20
-17.370399626988711
 30
0.0
 42
0.2846003776496056
  0
VERTEX
  5
25C9
  8
SAPA_FOGBAND
 10
-97.799999999010723
 20
-17.81804380544893
 30
0.0
  0
VERTEX
  5
25CA
  8
SAPA_FOGBAND
 10
-97.799999999010723
 20
-19.44066978577937
 30
0.0
 42
0.2846003776496054
  0
VERTEX
  5
25CB
  8
SAPA_FOGBAND
 10
-97.52274354996274
 20
-19.8883139642396
 30
0.0
  0
VERTEX
  5
25CC
  8
SAPA_FOGBAND
 10
-96.076537413202985
 20
-20.508414466998129
 30
0.0
 42
0.4740571810232154
  0
VERTEX
  5
25CD
  8
SAPA_FOGBAND
 10
-95.794254827564316
 20
-20.381120604634571
 30
0.0
  0
VERTEX
  5
25CE
  8
SAPA_FOGBAND
 10
-95.726794918253916
 20
-20.129356795614271
 30
0.0
  0
VERTEX
  5
25CF
  8
SAPA_FOGBAND
 10
-94.999999999010754
 20
-20.129356795614271
 30
0.0
 42
-0.4142135623730951
  0
VERTEX
  5
25D0
  8
SAPA_FOGBAND
 10
-94.499999999010754
 20
-20.629356795614271
 30
0.0
  0
VERTEX
  5
25D1
  8
SAPA_FOGBAND
 10
-94.499999999010754
 20
-23.679356795614229
 30
0.0
 42
-0.4142135623730951
  0
VERTEX
  5
25D2
  8
SAPA_FOGBAND
 10
-94.699999999010799
 20
-23.879356795614271
 30
0.0
  0
VERTEX
  5
25D3
  8
SAPA_FOGBAND
 10
-95.599999999010777
 20
-23.87935679561404
 30
0.0
 42
0.4142135623730951
  0
VERTEX
  5
25D4
  8
SAPA_FOGBAND
 10
-95.799999999010709
 20
-24.079356795614089
 30
0.0
  0
VERTEX
  5
25D5
  8
SAPA_FOGBAND
 10
-95.799999999010808
 20
-24.779356795614131
 30
0.0
 42
0.4142135623730951
  0
VERTEX
  5
25D6
  8
SAPA_FOGBAND
 10
-95.499999999010754
 20
-25.079356795614089
 30
0.0
  0
VERTEX
  5
25D7
  8
SAPA_FOGBAND
 10
-94.689488222359216
 20
-25.079356795614089
 30
0.0
 42
-0.1316524975873982
  0
VERTEX
  5
25D8
  8
SAPA_FOGBAND
 10
-93.689488222359216
 20
-25.34730598804525
 30
0.0
  0
VERTEX
  5
25D9
  8
SAPA_FOGBAND
 10
-91.054121304015041
 20
-29.318018525147401
 30
0.0
 42
0.876976462992761
  0
VERTEX
  5
25DA
  8
SAPA_FOGBAND
 10
-90.536779967898553
 20
-29.215112935237119
 30
0.0
  0
VERTEX
  5
25DB
  8
SAPA_FOGBAND
 10
-91.090624764442794
 20
-23.79045137336492
 30
0.0
 42
-0.1353185728426623
  0
VERTEX
  5
25DC
  8
SAPA_FOGBAND
 10
-91.090624764442794
 20
-23.79045137336492
 30
0.0
  0
VERTEX
  5
25DD
  8
SAPA_FOGBAND
 10
-90.678588072042601
 20
-23.552561880536121
 30
0.0
 42
0.5773502691896196
  0
VERTEX
  5
25DE
  8
SAPA_FOGBAND
 10
-90.678588072042601
 20
-23.206151719022259
 30
0.0
  0
VERTEX
  5
25DF
  8
SAPA_FOGBAND
 10
-91.090898634604443
 20
-22.968104102291349
 30
0.0
  0
VERTEX
  5
25E0
  8
SAPA_FOGBAND
 10
-91.090898634604443
 20
-22.190609492374719
 30
0.0
  0
VERTEX
  5
25E1
  8
SAPA_FOGBAND
 10
-90.678588072042601
 20
-21.952561880535981
 30
0.0
 42
0.5773502691896196
  0
VERTEX
  5
25E2
  8
SAPA_FOGBAND
 10
-90.678588072042601
 20
-21.60615171902235
 30
0.0
  0
VERTEX
  5
25E3
  8
SAPA_FOGBAND
 10
-91.090898634604443
 20
-21.36810410229144
 30
0.0
  0
VERTEX
  5
25E4
  8
SAPA_FOGBAND
 10
-91.090898634604443
 20
-20.59060949237481
 30
0.0
  0
VERTEX
  5
25E5
  8
SAPA_FOGBAND
 10
-90.678588072042601
 20
-20.352561880536069
 30
0.0
 42
0.5773502691896196
  0
VERTEX
  5
25E6
  8
SAPA_FOGBAND
 10
-90.678588072042601
 20
-20.00615171902222
 30
0.0
  0
VERTEX
  5
25E7
  8
SAPA_FOGBAND
 10
-91.090898634604443
 20
-19.768104102291531
 30
0.0
  0
VERTEX
  5
25E8
  8
SAPA_FOGBAND
 10
-91.090898634604443
 20
-18.99060949237467
 30
0.0
  0
VERTEX
  5
25E9
  8
SAPA_FOGBAND
 10
-90.678588072042601
 20
-18.75256188053616
 30
0.0
 42
0.5773502691896196
  0
VERTEX
  5
25EA
  8
SAPA_FOGBAND
 10
-90.678588072042601
 20
-18.406151719022301
 30
0.0
  0
VERTEX
  5
25EB
  8
SAPA_FOGBAND
 10
-91.090898634604443
 20
-18.168104102291391
 30
0.0
  0
VERTEX
  5
25EC
  8
SAPA_FOGBAND
 10
-91.090898634604443
 20
-17.390609492374761
 30
0.0
  0
VERTEX
  5
25ED
  8
SAPA_FOGBAND
 10
-90.678588072042601
 20
-17.15256188053603
 30
0.0
 42
0.5773502691896196
  0
VERTEX
  5
25EE
  8
SAPA_FOGBAND
 10
-90.678588072042601
 20
-16.806151719022171
 30
0.0
  0
VERTEX
  5
25EF
  8
SAPA_FOGBAND
 10
-91.090898634604443
 20
-16.568104102291478
 30
0.0
  0
VERTEX
  5
25F0
  8
SAPA_FOGBAND
 10
-91.090898634604443
 20
-15.790609488209819
 30
0.0
  0
VERTEX
  5
25F1
  8
SAPA_FOGBAND
 10
-90.678588072042601
 20
-15.55256187637108
 30
0.0
 42
0.5773502691896196
  0
VERTEX
  5
25F2
  8
SAPA_FOGBAND
 10
-90.678588072042601
 20
-15.206151714857221
 30
0.0
  0
VERTEX
  5
25F3
  8
SAPA_FOGBAND
 10
-92.064228703088872
 20
-14.40615171530224
 30
0.0
 42
0.1316524987190407
  0
SEQEND
  5
25F4
  8
SAPA_FOGBAND
  0
INSERT
  5
145C
  8
SAPA_FOGBAND
  6
CONTINUOUS
  2
*U93
 10
0.0
 20
0.0
 30
0.0
1001
ACAD
1002
{
1000
R14_HATCH_DATA
1000
145C
1011
1.0
1021
0.0
1031
0.0
1021
0.0
1031
0.0
1011
0.0
1021
0.0
1031
0.0
1021
1.0
1031
0.0
1011
0.0
1021
0.0
1031
0.0
1021
0.0
1031
1.0
1040
0.0
1010
0.0
1020
0.0
1030
1.0
1000
SOLID
1070
     1
1070
     1
1071
        1
1071
        1
1071
        1
1070
     2
1040
-93.028466855359909
1040
-18.629356795614271
1040
0.2549509756796394
1040
-1.5707963267948959
1040
4.7123889803846888
1070
     0
1071
        1
1005
1459
1070
     0
1070
     1
1071
        1
1040
-92.946615358031011
1040
-18.86609569718437
1040
0.0
1002
}
  0
POLYLINE
  5
145D
  8
SAPA_FOGBAND
 66
     1
 10
0.0
 20
0.0
 30
0.0
 70
     1
  0
VERTEX
  5
2606
  8
SAPA_FOGBAND
 10
-33.991114672817389
 20
-21.953090993536531
 30
0.0
 42
0.4740571810231764
  0
VERTEX
  5
2607
  8
SAPA_FOGBAND
 10
-33.708832087178848
 20
-22.080384855899862
 30
0.0
  0
VERTEX
  5
2608
  8
SAPA_FOGBAND
 10
-32.262625950418737
 20
-21.46028435314156
 30
0.0
 42
0.2846003776496257
  0
VERTEX
  5
2609
  8
SAPA_FOGBAND
 10
-31.985369501370879
 20
-21.012640174681341
 30
0.0
  0
VERTEX
  5
260A
  8
SAPA_FOGBAND
 10
-31.985369501370879
 20
-19.39001419435067
 30
0.0
 42
0.2846003776496159
  0
VERTEX
  5
260B
  8
SAPA_FOGBAND
 10
-32.262625950418972
 20
-18.94237001589045
 30
0.0
  0
VERTEX
  5
260C
  8
SAPA_FOGBAND
 10
-33.708832087178848
 20
-18.322269513132142
 30
0.0
 42
0.4740571810232354
  0
VERTEX
  5
260D
  8
SAPA_FOGBAND
 10
-33.991114672817389
 20
-18.449563375495469
 30
0.0
  0
VERTEX
  5
260E
  8
SAPA_FOGBAND
 10
-34.05857458212779
 20
-18.701327184515769
 30
0.0
  0
VERTEX
  5
260F
  8
SAPA_FOGBAND
 10
-34.999999999009901
 20
-18.701327184515769
 30
0.0
 42
-0.4142135623730951
  0
VERTEX
  5
2610
  8
SAPA_FOGBAND
 10
-35.499999999009901
 20
-18.201327184515769
 30
0.0
  0
VERTEX
  5
2611
  8
SAPA_FOGBAND
 10
-35.499999999009667
 20
-15.173227633781149
 30
0.0
 42
0.1657205760184635
  0
VERTEX
  5
2612
  8
SAPA_FOGBAND
 10
-35.708118270846292
 20
-14.56255314716781
 30
0.0
  0
VERTEX
  5
2613
  8
SAPA_FOGBAND
 10
-41.102703355702147
 20
-5.1946627566908283
 30
0.0
 42
0.2325311832130358
  0
VERTEX
  5
2614
  8
SAPA_FOGBAND
 10
-41.498644219784062
 20
-4.9999999999972671
 30
0.0
  0
VERTEX
  5
2615
  8
SAPA_FOGBAND
 10
-46.729387776221643
 20
-4.9999999999977192
 30
0.0
 42
0.3826682380870913
  0
VERTEX
  5
2616
  8
SAPA_FOGBAND
 10
-47.72346508132739
 20
-5.891324743046872
 30
0.0
  0
VERTEX
  5
2617
  8
SAPA_FOGBAND
 10
-48.499999999010129
 20
-11.49579350334351
 30
0.0
  0
VERTEX
  5
2618
  8
SAPA_FOGBAND
 10
-48.499999999010129
 20
-25.20132716256693
 30
0.0
 42
0.4257917699693507
  0
VERTEX
  5
2619
  8
SAPA_FOGBAND
 10
-48.18819263647935
 20
-25.50109471616474
 30
0.0
  0
VERTEX
  5
261A
  8
SAPA_FOGBAND
 10
-35.788192636478811
 20
-25.013254901495429
 30
0.0
 42
0.4027293761437475
  0
VERTEX
  5
261B
  8
SAPA_FOGBAND
 10
-35.499999999009667
 20
-24.713487347897619
 30
0.0
  0
VERTEX
  5
261C
  8
SAPA_FOGBAND
 10
-35.499999999009901
 20
-22.201327184515769
 30
0.0
 42
-0.4142135623730951
  0
VERTEX
  5
261D
  8
SAPA_FOGBAND
 10
-34.999999999009901
 20
-21.701327184515769
 30
0.0
  0
VERTEX
  5
261E
  8
SAPA_FOGBAND
 10
-34.05857458212779
 20
-21.701327184515769
 30
0.0
  0
SEQEND
  5
261F
  8
SAPA_FOGBAND
  0
POLYLINE
  5
145E
  8
SAPA_FOGBAND
 66
     1
 10
0.0
 20
0.0
 30
0.0
 70
     1
  0
VERTEX
  5
2620
  8
SAPA_FOGBAND
 10
-33.585369501371019
 20
-19.301327184515909
 30
0.0
  0
VERTEX
  5
2621
  8
SAPA_FOGBAND
 10
-34.185369501370928
 20
-19.301327184516129
 30
0.0
 42
0.9999999999999998
  0
VERTEX
  5
2622
  8
SAPA_FOGBAND
 10
-34.185369501370928
 20
-21.101327184516091
 30
0.0
  0
VERTEX
  5
2623
  8
SAPA_FOGBAND
 10
-33.585369501371019
 20
-21.101327184516091
 30
0.0
 42
0.9999999999999998
  0
SEQEND
  5
2624
  8
SAPA_FOGBAND
  0
POLYLINE
  5
145F
  8
SAPA_FOGBAND
 66
     1
 10
0.0
 20
0.0
 30
0.0
 70
     1
  0
VERTEX
  5
2625
  8
SAPA_FOGBAND
 10
-46.953324864972608
 20
-8.8913247649957086
 30
0.0
  0
VERTEX
  5
2626
  8
SAPA_FOGBAND
 10
-47.445277204862691
 20
-11.892651927565099
 30
0.0
 42
0.4464785874932524
  0
VERTEX
  5
2627
  8
SAPA_FOGBAND
 10
-46.451199899756709
 20
-13.001327184515951
 30
0.0
  0
VERTEX
  5
2628
  8
SAPA_FOGBAND
 10
-39.850147745599664
 20
-13.001327184515951
 30
0.0
 42
0.622676997742357
  0
VERTEX
  5
2629
  8
SAPA_FOGBAND
 10
-39.058266017436267
 20
-11.39065269790216
 30
0.0
  0
VERTEX
  5
262A
  8
SAPA_FOGBAND
 10
-41.533301339953248
 20
-8.3893255353327696
 30
0.0
 42
0.232531183213058
  0
VERTEX
  5
262B
  8
SAPA_FOGBAND
 10
-42.325183068116857
 20
-8.0000000219465583
 30
0.0
  0
VERTEX
  5
262C
  8
SAPA_FOGBAND
 10
-45.95924755986686
 20
-8.0000000219465548
 30
0.0
 42
0.3826682380870913
  0
SEQEND
  5
262D
  8
SAPA_FOGBAND
  0
POLYLINE
  5
1460
  8
SAPA_FOGBAND
 10
-42.113213331626859
 20
-22.264574318352985
 30
0.0
 66
     1
 70
     8
  0
VERTEX
  8
SAPA_FOGBAND
  5
26D5
 10
-42.1132
 20
-22.2646
 30
0.000000
  70
    32
  0
VERTEX
  8
SAPA_FOGBAND
  5
26D6
 10
-42.2294
 20
-22.2594
 30
0.000000
  70
    32
  0
VERTEX
  8
SAPA_FOGBAND
  5
26D7
 10
-42.3452
 20
-22.2464
 30
0.000000
  70
    32
  0
VERTEX
  8
SAPA_FOGBAND
  5
26D8
 10
-42.4604
 20
-22.2254
 30
0.000000
  70
    32
  0
VERTEX
  8
SAPA_FOGBAND
  5
26D9
 10
-42.5746
 20
-22.1966
 30
0.000000
  70
    32
  0
VERTEX
  8
SAPA_FOGBAND
  5
26DA
 10
-42.6877
 20
-22.1600
 30
0.000000
  70
    32
  0
VERTEX
  8
SAPA_FOGBAND
  5
26DB
 10
-42.7993
 20
-22.1157
 30
0.000000
  70
    32
  0
VERTEX
  8
SAPA_FOGBAND
  5
26DC
 10
-42.9092
 20
-22.0638
 30
0.000000
  70
    32
  0
VERTEX
  8
SAPA_FOGBAND
  5
26DD
 10
-43.0170
 20
-22.0045
 30
0.000000
  70
    32
  0
VERTEX
  8
SAPA_FOGBAND
  5
26DE
 10
-43.1226
 20
-21.9378
 30
0.000000
  70
    32
  0
VERTEX
  8
SAPA_FOGBAND
  5
26DF
 10
-43.2258
 20
-21.8640
 30
0.000000
  70
    32
  0
VERTEX
  8
SAPA_FOGBAND
  5
26E0
 10
-43.3261
 20
-21.7832
 30
0.000000
  70
    32
  0
VERTEX
  8
SAPA_FOGBAND
  5
26E1
 10
-43.4234
 20
-21.6956
 30
0.000000
  70
    32
  0
VERTEX
  8
SAPA_FOGBAND
  5
26E2
 10
-43.5176
 20
-21.6015
 30
0.000000
  70
    32
  0
VERTEX
  8
SAPA_FOGBAND
  5
26E3
 10
-43.6082
 20
-21.5009
 30
0.000000
  70
    32
  0
VERTEX
  8
SAPA_FOGBAND
  5
26E4
 10
-43.6952
 20
-21.3943
 30
0.000000
  70
    32
  0
VERTEX
  8
SAPA_FOGBAND
  5
26E5
 10
-43.7783
 20
-21.2819
 30
0.000000
  70
    32
  0
VERTEX
  8
SAPA_FOGBAND
  5
26E6
 10
-43.8572
 20
-21.1638
 30
0.000000
  70
    32
  0
VERTEX
  8
SAPA_FOGBAND
  5
26E7
 10
-43.9319
 20
-21.0405
 30
0.000000
  70
    32
  0
VERTEX
  8
SAPA_FOGBAND
  5
26E8
 10
-44.0022
 20
-20.9121
 30
0.000000
  70
    32
  0
VERTEX
  8
SAPA_FOGBAND
  5
26E9
 10
-44.0678
 20
-20.7791
 30
0.000000
  70
    32
  0
VERTEX
  8
SAPA_FOGBAND
  5
26EA
 10
-44.1286
 20
-20.6417
 30
0.000000
  70
    32
  0
VERTEX
  8
SAPA_FOGBAND
  5
26EB
 10
-44.1845
 20
-20.5003
 30
0.000000
  70
    32
  0
VERTEX
  8
SAPA_FOGBAND
  5
26EC
 10
-44.2354
 20
-20.3552
 30
0.000000
  70
    32
  0
VERTEX
  8
SAPA_FOGBAND
  5
26ED
 10
-44.2810
 20
-20.2067
 30
0.000000
  70
    32
  0
VERTEX
  8
SAPA_FOGBAND
  5
26EE
 10
-44.3213
 20
-20.0553
 30
0.000000
  70
    32
  0
VERTEX
  8
SAPA_FOGBAND
  5
26EF
 10
-44.3563
 20
-19.9012
 30
0.000000
  70
    32
  0
VERTEX
  8
SAPA_FOGBAND
  5
26F0
 10
-44.3857
 20
-19.7449
 30
0.000000
  70
    32
  0
VERTEX
  8
SAPA_FOGBAND
  5
26F1
 10
-44.4096
 20
-19.5866
 30
0.000000
  70
    32
  0
VERTEX
  8
SAPA_FOGBAND
  5
26F2
 10
-44.4279
 20
-19.4269
 30
0.000000
  70
    32
  0
VERTEX
  8
SAPA_FOGBAND
  5
26F3
 10
-44.4405
 20
-19.2661
 30
0.000000
  70
    32
  0
VERTEX
  8
SAPA_FOGBAND
  5
26F4
 10
-44.4475
 20
-19.1046
 30
0.000000
  70
    32
  0
VERTEX
  8
SAPA_FOGBAND
  5
26F5
 10
-44.4487
 20
-18.9427
 30
0.000000
  70
    32
  0
VERTEX
  8
SAPA_FOGBAND
  5
26F6
 10
-44.4442
 20
-18.7809
 30
0.000000
  70
    32
  0
VERTEX
  8
SAPA_FOGBAND
  5
26F7
 10
-44.4341
 20
-18.6196
 30
0.000000
  70
    32
  0
VERTEX
  8
SAPA_FOGBAND
  5
26F8
 10
-44.4183
 20
-18.4590
 30
0.000000
  70
    32
  0
VERTEX
  8
SAPA_FOGBAND
  5
26F9
 10
-44.3968
 20
-18.2997
 30
0.000000
  70
    32
  0
VERTEX
  8
SAPA_FOGBAND
  5
26FA
 10
-44.3698
 20
-18.1420
 30
0.000000
  70
    32
  0
VERTEX
  8
SAPA_FOGBAND
  5
26FB
 10
-44.3372
 20
-17.9863
 30
0.000000
  70
    32
  0
VERTEX
  8
SAPA_FOGBAND
  5
26FC
 10
-44.2992
 20
-17.8330
 30
0.000000
  70
    32
  0
VERTEX
  8
SAPA_FOGBAND
  5
26FD
 10
-44.2559
 20
-17.6823
 30
0.000000
  70
    32
  0
VERTEX
  8
SAPA_FOGBAND
  5
26FE
 10
-44.2073
 20
-17.5348
 30
0.000000
  70
    32
  0
VERTEX
  8
SAPA_FOGBAND
  5
26FF
 10
-44.1536
 20
-17.3907
 30
0.000000
  70
    32
  0
VERTEX
  8
SAPA_FOGBAND
  5
2700
 10
-44.0949
 20
-17.2504
 30
0.000000
  70
    32
  0
VERTEX
  8
SAPA_FOGBAND
  5
2701
 10
-44.0313
 20
-17.1143
 30
0.000000
  70
    32
  0
VERTEX
  8
SAPA_FOGBAND
  5
2702
 10
-43.9631
 20
-16.9826
 30
0.000000
  70
    32
  0
VERTEX
  8
SAPA_FOGBAND
  5
2703
 10
-43.8903
 20
-16.8557
 30
0.000000
  70
    32
  0
VERTEX
  8
SAPA_FOGBAND
  5
2704
 10
-43.8131
 20
-16.7339
 30
0.000000
  70
    32
  0
VERTEX
  8
SAPA_FOGBAND
  5
2705
 10
-43.7318
 20
-16.6174
 30
0.000000
  70
    32
  0
VERTEX
  8
SAPA_FOGBAND
  5
2706
 10
-43.6465
 20
-16.5066
 30
0.000000
  70
    32
  0
VERTEX
  8
SAPA_FOGBAND
  5
2707
 10
-43.5575
 20
-16.4018
 30
0.000000
  70
    32
  0
VERTEX
  8
SAPA_FOGBAND
  5
2708
 10
-43.4648
 20
-16.3031
 30
0.000000
  70
    32
  0
VERTEX
  8
SAPA_FOGBAND
  5
2709
 10
-43.3689
 20
-16.2108
 30
0.000000
  70
    32
  0
VERTEX
  8
SAPA_FOGBAND
  5
270A
 10
-43.2698
 20
-16.1252
 30
0.000000
  70
    32
  0
VERTEX
  8
SAPA_FOGBAND
  5
270B
 10
-43.1679
 20
-16.0464
 30
0.000000
  70
    32
  0
VERTEX
  8
SAPA_FOGBAND
  5
270C
 10
-43.0633
 20
-15.9746
 30
0.000000
  70
    32
  0
VERTEX
  8
SAPA_FOGBAND
  5
270D
 10
-42.9564
 20
-15.9101
 30
0.000000
  70
    32
  0
VERTEX
  8
SAPA_FOGBAND
  5
270E
 10
-42.8473
 20
-15.8529
 30
0.000000
  70
    32
  0
VERTEX
  8
SAPA_FOGBAND
  5
270F
 10
-42.7365
 20
-15.8032
 30
0.000000
  70
    32
  0
VERTEX
  8
SAPA_FOGBAND
  5
2710
 10
-42.6240
 20
-15.7612
 30
0.000000
  70
    32
  0
VERTEX
  8
SAPA_FOGBAND
  5
2711
 10
-42.5102
 20
-15.7268
 30
0.000000
  70
    32
  0
VERTEX
  8
SAPA_FOGBAND
  5
2712
 10
-42.3954
 20
-15.7003
 30
0.000000
  70
    32
  0
VERTEX
  8
SAPA_FOGBAND
  5
2713
 10
-42.2799
 20
-15.6816
 30
0.000000
  70
    32
  0
VERTEX
  8
SAPA_FOGBAND
  5
2714
 10
-42.1638
 20
-15.6709
 30
0.000000
  70
    32
  0
VERTEX
  8
SAPA_FOGBAND
  5
2715
 10
-42.0476
 20
-15.6680
 30
0.000000
  70
    32
  0
VERTEX
  8
SAPA_FOGBAND
  5
2716
 10
-41.9314
 20
-15.6732
 30
0.000000
  70
    32
  0
VERTEX
  8
SAPA_FOGBAND
  5
2717
 10
-41.8156
 20
-15.6862
 30
0.000000
  70
    32
  0
VERTEX
  8
SAPA_FOGBAND
  5
2718
 10
-41.7004
 20
-15.7072
 30
0.000000
  70
    32
  0
VERTEX
  8
SAPA_FOGBAND
  5
2719
 10
-41.5861
 20
-15.7360
 30
0.000000
  70
    32
  0
VERTEX
  8
SAPA_FOGBAND
  5
271A
 10
-41.4731
 20
-15.7726
 30
0.000000
  70
    32
  0
VERTEX
  8
SAPA_FOGBAND
  5
271B
 10
-41.3615
 20
-15.8169
 30
0.000000
  70
    32
  0
VERTEX
  8
SAPA_FOGBAND
  5
271C
 10
-41.2516
 20
-15.8688
 30
0.000000
  70
    32
  0
VERTEX
  8
SAPA_FOGBAND
  5
271D
 10
-41.1437
 20
-15.9281
 30
0.000000
  70
    32
  0
VERTEX
  8
SAPA_FOGBAND
  5
271E
 10
-41.0381
 20
-15.9948
 30
0.000000
  70
    32
  0
VERTEX
  8
SAPA_FOGBAND
  5
271F
 10
-40.9350
 20
-16.0686
 30
0.000000
  70
    32
  0
VERTEX
  8
SAPA_FOGBAND
  5
2720
 10
-40.8347
 20
-16.1494
 30
0.000000
  70
    32
  0
VERTEX
  8
SAPA_FOGBAND
  5
2721
 10
-40.7373
 20
-16.2370
 30
0.000000
  70
    32
  0
VERTEX
  8
SAPA_FOGBAND
  5
2722
 10
-40.6432
 20
-16.3312
 30
0.000000
  70
    32
  0
VERTEX
  8
SAPA_FOGBAND
  5
2723
 10
-40.5526
 20
-16.4317
 30
0.000000
  70
    32
  0
VERTEX
  8
SAPA_FOGBAND
  5
2724
 10
-40.4656
 20
-16.5383
 30
0.000000
  70
    32
  0
VERTEX
  8
SAPA_FOGBAND
  5
2725
 10
-40.3825
 20
-16.6507
 30
0.000000
  70
    32
  0
VERTEX
  8
SAPA_FOGBAND
  5
2726
 10
-40.3035
 20
-16.7688
 30
0.000000
  70
    32
  0
VERTEX
  8
SAPA_FOGBAND
  5
2727
 10
-40.2288
 20
-16.8921
 30
0.000000
  70
    32
  0
VERTEX
  8
SAPA_FOGBAND
  5
2728
 10
-40.1586
 20
-17.0205
 30
0.000000
  70
    32
  0
VERTEX
  8
SAPA_FOGBAND
  5
2729
 10
-40.0930
 20
-17.1535
 30
0.000000
  70
    32
  0
VERTEX
  8
SAPA_FOGBAND
  5
272A
 10
-40.0321
 20
-17.2909
 30
0.000000
  70
    32
  0
VERTEX
  8
SAPA_FOGBAND
  5
272B
 10
-39.9762
 20
-17.4323
 30
0.000000
  70
    32
  0
VERTEX
  8
SAPA_FOGBAND
  5
272C
 10
-39.9254
 20
-17.5774
 30
0.000000
  70
    32
  0
VERTEX
  8
SAPA_FOGBAND
  5
272D
 10
-39.8798
 20
-17.7259
 30
0.000000
  70
    32
  0
VERTEX
  8
SAPA_FOGBAND
  5
272E
 10
-39.8394
 20
-17.8773
 30
0.000000
  70
    32
  0
VERTEX
  8
SAPA_FOGBAND
  5
272F
 10
-39.8045
 20
-18.0314
 30
0.000000
  70
    32
  0
VERTEX
  8
SAPA_FOGBAND
  5
2730
 10
-39.7751
 20
-18.1878
 30
0.000000
  70
    32
  0
VERTEX
  8
SAPA_FOGBAND
  5
2731
 10
-39.7512
 20
-18.3460
 30
0.000000
  70
    32
  0
VERTEX
  8
SAPA_FOGBAND
  5
2732
 10
-39.7329
 20
-18.5057
 30
0.000000
  70
    32
  0
VERTEX
  8
SAPA_FOGBAND
  5
2733
 10
-39.7202
 20
-18.6665
 30
0.000000
  70
    32
  0
VERTEX
  8
SAPA_FOGBAND
  5
2734
 10
-39.7133
 20
-18.8280
 30
0.000000
  70
    32
  0
VERTEX
  8
SAPA_FOGBAND
  5
2735
 10
-39.7121
 20
-18.9899
 30
0.000000
  70
    32
  0
VERTEX
  8
SAPA_FOGBAND
  5
2736
 10
-39.7165
 20
-19.1517
 30
0.000000
  70
    32
  0
VERTEX
  8
SAPA_FOGBAND
  5
2737
 10
-39.7267
 20
-19.3131
 30
0.000000
  70
    32
  0
VERTEX
  8
SAPA_FOGBAND
  5
2738
 10
-39.7425
 20
-19.4736
 30
0.000000
  70
    32
  0
VERTEX
  8
SAPA_FOGBAND
  5
2739
 10
-39.7640
 20
-19.6329
 30
0.000000
  70
    32
  0
VERTEX
  8
SAPA_FOGBAND
  5
273A
 10
-39.7910
 20
-19.7906
 30
0.000000
  70
    32
  0
VERTEX
  8
SAPA_FOGBAND
  5
273B
 10
-39.8236
 20
-19.9463
 30
0.000000
  70
    32
  0
VERTEX
  8
SAPA_FOGBAND
  5
273C
 10
-39.8616
 20
-20.0997
 30
0.000000
  70
    32
  0
VERTEX
  8
SAPA_FOGBAND
  5
273D
 10
-39.9049
 20
-20.2503
 30
0.000000
  70
    32
  0
VERTEX
  8
SAPA_FOGBAND
  5
273E
 10
-39.9535
 20
-20.3978
 30
0.000000
  70
    32
  0
VERTEX
  8
SAPA_FOGBAND
  5
273F
 10
-40.0072
 20
-20.5419
 30
0.000000
  70
    32
  0
VERTEX
  8
SAPA_FOGBAND
  5
2740
 10
-40.0659
 20
-20.6822
 30
0.000000
  70
    32
  0
VERTEX
  8
SAPA_FOGBAND
  5
2741
 10
-40.1294
 20
-20.8183
 30
0.000000
  70
    32
  0
VERTEX
  8
SAPA_FOGBAND
  5
2742
 10
-40.1977
 20
-20.9500
 30
0.000000
  70
    32
  0
VERTEX
  8
SAPA_FOGBAND
  5
2743
 10
-40.2705
 20
-21.0769
 30
0.000000
  70
    32
  0
VERTEX
  8
SAPA_FOGBAND
  5
2744
 10
-40.3476
 20
-21.1988
 30
0.000000
  70
    32
  0
VERTEX
  8
SAPA_FOGBAND
  5
2745
 10
-40.4289
 20
-21.3152
 30
0.000000
  70
    32
  0
VERTEX
  8
SAPA_FOGBAND
  5
2746
 10
-40.5142
 20
-21.4260
 30
0.000000
  70
    32
  0
VERTEX
  8
SAPA_FOGBAND
  5
2747
 10
-40.6033
 20
-21.5309
 30
0.000000
  70
    32
  0
VERTEX
  8
SAPA_FOGBAND
  5
2748
 10
-40.6959
 20
-21.6295
 30
0.000000
  70
    32
  0
VERTEX
  8
SAPA_FOGBAND
  5
2749
 10
-40.7919
 20
-21.7218
 30
0.000000
  70
    32
  0
VERTEX
  8
SAPA_FOGBAND
  5
274A
 10
-40.8910
 20
-21.8074
 30
0.000000
  70
    32
  0
VERTEX
  8
SAPA_FOGBAND
  5
274B
 10
-40.9929
 20
-21.8862
 30
0.000000
  70
    32
  0
VERTEX
  8
SAPA_FOGBAND
  5
274C
 10
-41.0975
 20
-21.9580
 30
0.000000
  70
    32
  0
VERTEX
  8
SAPA_FOGBAND
  5
274D
 10
-41.2044
 20
-22.0225
 30
0.000000
  70
    32
  0
VERTEX
  8
SAPA_FOGBAND
  5
274E
 10
-41.3134
 20
-22.0797
 30
0.000000
  70
    32
  0
VERTEX
  8
SAPA_FOGBAND
  5
274F
 10
-41.4243
 20
-22.1294
 30
0.000000
  70
    32
  0
VERTEX
  8
SAPA_FOGBAND
  5
2750
 10
-41.5368
 20
-22.1715
 30
0.000000
  70
    32
  0
VERTEX
  8
SAPA_FOGBAND
  5
2751
 10
-41.6505
 20
-22.2058
 30
0.000000
  70
    32
  0
VERTEX
  8
SAPA_FOGBAND
  5
2752
 10
-41.7654
 20
-22.2323
 30
0.000000
  70
    32
  0
VERTEX
  8
SAPA_FOGBAND
  5
2753
 10
-41.8809
 20
-22.2510
 30
0.000000
  70
    32
  0
VERTEX
  8
SAPA_FOGBAND
  5
2754
 10
-41.9970
 20
-22.2618
 30
0.000000
  70
    32
  0
VERTEX
  8
SAPA_FOGBAND
  5
2755
 10
-42.1132
 20
-22.2646
 30
0.000000
  70
    32
  0
SEQEND
  8
SAPA_FOGBAND
  5
2756
  0
POLYLINE
  5
1461
  8
SAPA_FOGBAND
 66
     1
 10
0.0
 20
0.0
 30
0.0
  0
VERTEX
  5
262E
  8
SAPA_FOGBAND
 10
-35.499999999009667
 20
-23.801327184515682
 30
0.0
  0
VERTEX
  5
262F
  8
SAPA_FOGBAND
 10
-35.799999999009628
 20
-23.80132718451614
 30
0.0
 42
-0.4142135623730951
  0
VERTEX
  5
2630
  8
SAPA_FOGBAND
 10
-36.299999999009628
 20
-23.30132718451614
 30
0.0
  0
VERTEX
  5
2631
  8
SAPA_FOGBAND
 10
-36.299999999009628
 20
-16.001327184515951
 30
0.0
 42
-0.4142135623730951
  0
VERTEX
  5
2632
  8
SAPA_FOGBAND
 10
-35.799999999009628
 20
-15.501327184515951
 30
0.0
  0
VERTEX
  5
2633
  8
SAPA_FOGBAND
 10
-35.499999999009667
 20
-15.501327184515951
 30
0.0
  0
SEQEND
  5
2634
  8
SAPA_FOGBAND
  0
POLYLINE
  5
1462
  8
SAPA_FOGBAND
 66
     1
 10
0.0
 20
0.0
 30
0.0
 70
     1
  0
VERTEX
  5
2635
  8
SAPA_FOGBAND
 10
-4.9392260560683718
 20
28.49999999995023
 30
0.0
  0
VERTEX
  5
2636
  8
SAPA_FOGBAND
 10
-7.7725450204881037
 20
28.49999999995023
 30
0.0
 42
0.577350269189628
  0
VERTEX
  5
2637
  8
SAPA_FOGBAND
 10
-8.0323526416235556
 20
28.049999999950181
 30
0.0
  0
VERTEX
  5
2638
  8
SAPA_FOGBAND
 10
-6.3333872998713279
 20
25.510201086716531
 30
0.0
 42
-0.8769764629927237
  0
VERTEX
  5
2639
  8
SAPA_FOGBAND
 10
-6.805326955362597
 20
25.148069052360619
 30
0.0
  0
VERTEX
  5
263A
  8
SAPA_FOGBAND
 10
-10.33239159560787
 20
28.20710678113667
 30
0.0
 42
0.1989123673796493
  0
VERTEX
  5
263B
  8
SAPA_FOGBAND
 10
-11.03949837679431
 20
28.49999999995023
 30
0.0
  0
VERTEX
  5
263C
  8
SAPA_FOGBAND
 10
-12.955488910142661
 20
28.49999999995023
 30
0.0
 42
0.577350269189628
  0
VERTEX
  5
263D
  8
SAPA_FOGBAND
 10
-13.215296531277881
 20
28.049999999950192
 30
0.0
  0
VERTEX
  5
263E
  8
SAPA_FOGBAND
 10
-11.83311659328171
 20
25.511069839896919
 30
0.0
 42
-0.8769764629928424
  0
VERTEX
  5
263F
  8
SAPA_FOGBAND
 10
-12.30505624877298
 20
25.14893780554101
 30
0.0
  0
VERTEX
  5
2640
  8
SAPA_FOGBAND
 10
-15.90710678315155
 20
29.282961428450591
 30
0.0
 42
-0.1989123673796579
  0
VERTEX
  5
2641
  8
SAPA_FOGBAND
 10
-16.200000001964892
 20
29.99006820963703
 30
0.0
  0
VERTEX
  5
2642
  8
SAPA_FOGBAND
 10
-16.200000001964892
 20
29.99999999995023
 30
0.0
 42
-0.4142135623730951
  0
VERTEX
  5
2643
  8
SAPA_FOGBAND
 10
-15.20000000196489
 20
30.99999999995023
 30
0.0
  0
VERTEX
  5
2644
  8
SAPA_FOGBAND
 10
-7.9650075011976398
 20
32.164084599073732
 30
0.0
 42
-0.6261632875160376
  0
VERTEX
  5
2645
  8
SAPA_FOGBAND
 10
-7.6551505726789557
 20
31.722117795647389
 30
0.0
  0
VERTEX
  5
2646
  8
SAPA_FOGBAND
 10
-7.8087885674677802
 20
31.44577614966126
 30
0.0
 42
0.5719685712689121
  0
VERTEX
  5
2647
  8
SAPA_FOGBAND
 10
-7.5465876632443889
 20
30.99999999995045
 30
0.0
  0
VERTEX
  5
2648
  8
SAPA_FOGBAND
 10
-4.8000000019650262
 20
30.99999999995023
 30
0.0
 42
0.4142135623730118
  0
VERTEX
  5
2649
  8
SAPA_FOGBAND
 10
-4.5000000019648443
 20
31.299999999950181
 30
0.0
  0
VERTEX
  5
264A
  8
SAPA_FOGBAND
 10
-4.5000000019650699
 20
32.699999999950272
 30
0.0
 42
-0.7754026414785753
  0
VERTEX
  5
264B
  8
SAPA_FOGBAND
 10
-3.9372080065571642
 20
32.844707868256158
 30
0.0
  0
VERTEX
  5
264C
  8
SAPA_FOGBAND
 10
-0.2263232026260719
 20
25.501101552775499
 30
0.0
 42
-0.8680589103333867
  0
VERTEX
  5
264D
  8
SAPA_FOGBAND
 10
-0.7012472323898419
 20
25.14426165011357
 30
0.0
  0
VERTEX
  5
264E
  8
SAPA_FOGBAND
 10
-4.2321192748819332
 20
28.207106781136659
 30
0.0
 42
0.1989123673796493
  0
SEQEND
  5
264F
  8
SAPA_FOGBAND
  0
LINE
  5
1463
  8
SAPA_FOGBAND
 10
0.5012846324048592
 20
55.999999957889052
 30
0.0
 11
0.5012846324048592
 21
55.999999957889052
 31
0.0
  0
POLYLINE
  5
1464
  8
SAPA_FOGBAND
 66
     1
 10
0.0
 20
0.0
 30
0.0
 70
   129
  0
VERTEX
  5
2650
  8
SAPA_FOGBAND
 10
-31.981572811425021
 20
109.2616023093728
 30
0.0
  0
VERTEX
  5
2651
  8
SAPA_FOGBAND
 10
-31.823436706292782
 20
109.2953673096671
 30
0.0
  0
VERTEX
  5
2652
  8
SAPA_FOGBAND
 10
-31.64991987387177
 20
109.4092930477979
 30
0.0
  0
VERTEX
  5
2653
  8
SAPA_FOGBAND
 10
-31.46983198213562
 20
109.61689353640141
 30
0.0
  0
VERTEX
  5
2654
  8
SAPA_FOGBAND
 10
-31.300126755311211
 20
109.9153139485402
 30
0.0
  0
VERTEX
  5
2655
  8
SAPA_FOGBAND
 10
-31.154073317337861
 20
110.2922136099159
 30
0.0
  0
VERTEX
  5
2656
  8
SAPA_FOGBAND
 10
-31.04066193315758
 20
110.7314540121173
 30
0.0
  0
VERTEX
  5
2657
  8
SAPA_FOGBAND
 10
-30.965822455004052
 20
111.214968989024
 30
0.0
  0
VERTEX
  5
2658
  8
SAPA_FOGBAND
 10
-30.933125507535522
 20
111.723478272066
 30
0.0
  0
VERTEX
  5
2659
  8
SAPA_FOGBAND
 10
-30.944065717288161
 20
112.2370209474921
 30
0.0
  0
VERTEX
  5
265A
  8
SAPA_FOGBAND
 10
-30.99814692057496
 20
112.7354980923236
 30
0.0
  0
VERTEX
  5
265B
  8
SAPA_FOGBAND
 10
-31.092856001620969
 20
113.1992227239525
 30
0.0
  0
VERTEX
  5
265C
  8
SAPA_FOGBAND
 10
-31.223497561339521
 20
113.6094526504278
 30
0.0
  0
VERTEX
  5
265D
  8
SAPA_FOGBAND
 10
-31.38273648405805
 20
113.9489638094332
 30
0.0
  0
VERTEX
  5
265E
  8
SAPA_FOGBAND
 10
-31.55960185818137
 20
114.2031253002845
 30
0.0
  0
VERTEX
  5
265F
  8
SAPA_FOGBAND
 10
-31.738507923878512
 20
114.3632796094932
 30
0.0
  0
VERTEX
  5
2660
  8
SAPA_FOGBAND
 10
-31.904015050030878
 20
114.4346076824432
 30
0.0
  0
VERTEX
  5
2661
  8
SAPA_FOGBAND
 10
-32.059130572819377
 20
114.4346076824432
 30
0.0
  0
VERTEX
  5
2662
  8
SAPA_FOGBAND
 10
-32.224637698971968
 20
114.3632796094932
 30
0.0
  0
VERTEX
  5
2663
  8
SAPA_FOGBAND
 10
-32.403543764669081
 20
114.2031253002845
 30
0.0
  0
VERTEX
  5
2664
  8
SAPA_FOGBAND
 10
-32.580409138792369
 20
113.94896380943329
 30
0.0
  0
VERTEX
  5
2665
  8
SAPA_FOGBAND
 10
-32.739648061510671
 20
113.6094526504279
 30
0.0
  0
VERTEX
  5
2666
  8
SAPA_FOGBAND
 10
-32.870289621229041
 20
113.1992227239525
 30
0.0
  0
VERTEX
  5
2667
  8
SAPA_FOGBAND
 10
-32.96499870227548
 20
112.7354980923236
 30
0.0
  0
VERTEX
  5
2668
  8
SAPA_FOGBAND
 10
-33.019079905562059
 20
112.2370209474921
 30
0.0
  0
VERTEX
  5
2669
  8
SAPA_FOGBAND
 10
-33.030020115314933
 20
111.7234782720659
 30
0.0
  0
VERTEX
  5
266A
  8
SAPA_FOGBAND
 10
-32.997323167846403
 20
111.214968989024
 30
0.0
  0
VERTEX
  5
266B
  8
SAPA_FOGBAND
 10
-32.922483689692882
 20
110.7314540121173
 30
0.0
  0
VERTEX
  5
266C
  8
SAPA_FOGBAND
 10
-32.809072305512181
 20
110.292213609916
 30
0.0
  0
VERTEX
  5
266D
  8
SAPA_FOGBAND
 10
-32.663018867538788
 20
109.9153139485402
 30
0.0
  0
VERTEX
  5
266E
  8
SAPA_FOGBAND
 10
-32.493313640714341
 20
109.61689353640141
 30
0.0
  0
VERTEX
  5
266F
  8
SAPA_FOGBAND
 10
-32.313225748978397
 20
109.4092930477979
 30
0.0
  0
VERTEX
  5
2670
  8
SAPA_FOGBAND
 10
-32.139708916557467
 20
109.2953673096671
 30
0.0
  0
SEQEND
  5
2671
  8
SAPA_FOGBAND
  0
POLYLINE
  5
1465
  8
SAPA_FOGBAND
 66
     1
 10
0.0
 20
0.0
 30
0.0
  0
VERTEX
  5
2672
  8
SAPA_FOGBAND
 10
-86.163511128413006
 20
123.5517482504891
 30
0.0
 42
-0.285714285714282
  0
VERTEX
  5
2673
  8
SAPA_FOGBAND
 10
-86.163511128413006
 20
120.7517482504889
 30
0.0
  0
VERTEX
  5
2674
  8
SAPA_FOGBAND
 10
-86.163511128412566
 20
118.6779680811013
 30
0.0
 42
0.3882600129940275
  0
VERTEX
  5
2675
  8
SAPA_FOGBAND
 10
-85.890300402132993
 20
118.3791665837597
 30
0.0
  0
VERTEX
  5
2676
  8
SAPA_FOGBAND
 10
-80.990300402132917
 20
117.9129566598334
 30
0.0
 42
0.4406523138893894
  0
VERTEX
  5
2677
  8
SAPA_FOGBAND
 10
-80.663511128413006
 20
118.2117581571755
 30
0.0
  0
VERTEX
  5
2678
  8
SAPA_FOGBAND
 10
-80.663511128413006
 20
119.9215501540956
 30
0.0
 42
0.3394542588634375
  0
VERTEX
  5
2679
  8
SAPA_FOGBAND
 10
-80.885865414882005
 20
120.2113279019821
 30
0.0
  0
VERTEX
  5
267A
  8
SAPA_FOGBAND
 10
-81.103451197049594
 20
120.4137076299138
 30
0.0
 42
-0.3394542588633663
  0
VERTEX
  5
267B
  8
SAPA_FOGBAND
 10
-81.325805483518579
 20
120.70348537780031
 30
0.0
  0
VERTEX
  5
267C
  8
SAPA_FOGBAND
 10
-81.325805483518579
 20
123.60001112317821
 30
0.0
 42
-0.3394542588634373
  0
VERTEX
  5
267D
  8
SAPA_FOGBAND
 10
-81.103451197049594
 20
123.8897888710647
 30
0.0
  0
VERTEX
  5
267E
  8
SAPA_FOGBAND
 10
-80.885865414882005
 20
124.0921685989959
 30
0.0
 42
0.3394542588633662
  0
VERTEX
  5
267F
  8
SAPA_FOGBAND
 10
-80.663511128413006
 20
124.3819463468829
 30
0.0
  0
VERTEX
  5
2680
  8
SAPA_FOGBAND
 10
-80.663511128413006
 20
126.091738343803
 30
0.0
 42
0.4406523138893994
  0
VERTEX
  5
2681
  8
SAPA_FOGBAND
 10
-80.990300402132917
 20
126.3905398411447
 30
0.0
  0
VERTEX
  5
2682
  8
SAPA_FOGBAND
 10
-85.890300402132993
 20
125.9243299172184
 30
0.0
 42
0.3882600129940462
  0
VERTEX
  5
2683
  8
SAPA_FOGBAND
 10
-86.163511128413006
 20
125.6255284198768
 30
0.0
  0
VERTEX
  5
2684
  8
SAPA_FOGBAND
 10
-86.163511128413006
 20
123.5633406273395
 30
0.0
  0
SEQEND
  5
2685
  8
SAPA_FOGBAND
  0
POLYLINE
  5
1466
  8
SAPA_FOGBAND
 66
     1
 10
0.0
 20
0.0
 30
0.0
 70
   129
  0
VERTEX
  5
2686
  8
SAPA_FOGBAND
 10
-30.817244727838808
 20
116.98626182614539
 30
0.0
  0
VERTEX
  5
2687
  8
SAPA_FOGBAND
 10
-30.659108622706562
 20
117.0200268264397
 30
0.0
  0
VERTEX
  5
2688
  8
SAPA_FOGBAND
 10
-30.48559179028555
 20
117.13395256457051
 30
0.0
  0
VERTEX
  5
2689
  8
SAPA_FOGBAND
 10
-30.305503898549421
 20
117.341553053174
 30
0.0
  0
VERTEX
  5
268A
  8
SAPA_FOGBAND
 10
-30.135798671724991
 20
117.63997346531281
 30
0.0
  0
VERTEX
  5
268B
  8
SAPA_FOGBAND
 10
-29.989745233751648
 20
118.01687312668849
 30
0.0
  0
VERTEX
  5
268C
  8
SAPA_FOGBAND
 10
-29.87633384957137
 20
118.4561135288899
 30
0.0
  0
VERTEX
  5
268D
  8
SAPA_FOGBAND
 10
-29.801494371417839
 20
118.93962850579661
 30
0.0
  0
VERTEX
  5
268E
  8
SAPA_FOGBAND
 10
-29.768797423949302
 20
119.44813778883859
 30
0.0
  0
VERTEX
  5
268F
  8
SAPA_FOGBAND
 10
-29.779737633701949
 20
119.9616804642647
 30
0.0
  0
VERTEX
  5
2690
  8
SAPA_FOGBAND
 10
-29.833818836988751
 20
120.4601576090962
 30
0.0
  0
VERTEX
  5
2691
  8
SAPA_FOGBAND
 10
-29.928527918034749
 20
120.92388224072511
 30
0.0
  0
VERTEX
  5
2692
  8
SAPA_FOGBAND
 10
-30.059169477753301
 20
121.3341121672005
 30
0.0
  0
VERTEX
  5
2693
  8
SAPA_FOGBAND
 10
-30.218408400471841
 20
121.6736233262059
 30
0.0
  0
VERTEX
  5
2694
  8
SAPA_FOGBAND
 10
-30.395273774595161
 20
121.9277848170572
 30
0.0
  0
VERTEX
  5
2695
  8
SAPA_FOGBAND
 10
-30.57417984029231
 20
122.08793912626579
 30
0.0
  0
VERTEX
  5
2696
  8
SAPA_FOGBAND
 10
-30.739686966444658
 20
122.1592671992158
 30
0.0
  0
VERTEX
  5
2697
  8
SAPA_FOGBAND
 10
-30.894802489233172
 20
122.1592671992158
 30
0.0
  0
VERTEX
  5
2698
  8
SAPA_FOGBAND
 10
-31.060309615385751
 20
122.08793912626579
 30
0.0
  0
VERTEX
  5
2699
  8
SAPA_FOGBAND
 10
-31.239215681082872
 20
121.9277848170572
 30
0.0
  0
VERTEX
  5
269A
  8
SAPA_FOGBAND
 10
-31.41608105520616
 20
121.6736233262059
 30
0.0
  0
VERTEX
  5
269B
  8
SAPA_FOGBAND
 10
-31.575319977924462
 20
121.3341121672006
 30
0.0
  0
VERTEX
  5
269C
  8
SAPA_FOGBAND
 10
-31.705961537642828
 20
120.92388224072511
 30
0.0
  0
VERTEX
  5
269D
  8
SAPA_FOGBAND
 10
-31.800670618689271
 20
120.4601576090962
 30
0.0
  0
VERTEX
  5
269E
  8
SAPA_FOGBAND
 10
-31.854751821975849
 20
119.9616804642647
 30
0.0
  0
VERTEX
  5
269F
  8
SAPA_FOGBAND
 10
-31.86569203172871
 20
119.44813778883859
 30
0.0
  0
VERTEX
  5
26A0
  8
SAPA_FOGBAND
 10
-31.83299508426018
 20
118.93962850579661
 30
0.0
  0
VERTEX
  5
26A1
  8
SAPA_FOGBAND
 10
-31.758155606106659
 20
118.4561135288899
 30
0.0
  0
VERTEX
  5
26A2
  8
SAPA_FOGBAND
 10
-31.644744221925961
 20
118.01687312668859
 30
0.0
  0
VERTEX
  5
26A3
  8
SAPA_FOGBAND
 10
-31.498690783952579
 20
117.63997346531281
 30
0.0
  0
VERTEX
  5
26A4
  8
SAPA_FOGBAND
 10
-31.328985557128131
 20
117.341553053174
 30
0.0
  0
VERTEX
  5
26A5
  8
SAPA_FOGBAND
 10
-31.148897665392191
 20
117.13395256457051
 30
0.0
  0
VERTEX
  5
26A6
  8
SAPA_FOGBAND
 10
-30.975380832971261
 20
117.0200268264397
 30
0.0
  0
SEQEND
  5
26A7
  8
SAPA_FOGBAND
  0
POLYLINE
  5
1467
  8
SAPA_FOGBAND
 66
     1
 10
0.0
 20
0.0
 30
0.0
 70
     1
  0
VERTEX
  5
26A8
  8
SAPA_FOGBAND
 10
-32.838714290911753
 20
103.295375813597
 30
0.0
 42
-0.3915187749346351
  0
VERTEX
  5
26A9
  8
SAPA_FOGBAND
 10
-33.835665904917157
 20
104.2173535133704
 30
0.0
  0
VERTEX
  5
26AA
  8
SAPA_FOGBAND
 10
-34.661986935415712
 20
112.2759000141848
 30
0.0
 42
-0.0195279011117888
  0
VERTEX
  5
26AB
  8
SAPA_FOGBAND
 10
-34.663511128413013
 20
112.3149111642981
 30
0.0
  0
VERTEX
  5
26AC
  8
SAPA_FOGBAND
 10
-34.663511128412999
 20
125.99537581359689
 30
0.0
 42
-0.4279663351069072
  0
VERTEX
  5
26AD
  8
SAPA_FOGBAND
 10
-34.3494985570536
 20
126.2950483813168
 30
0.0
  0
VERTEX
  5
26AE
  8
SAPA_FOGBAND
 10
-26.961058296655089
 20
125.8087484732371
 30
0.0
 42
-0.4005932428724028
  0
VERTEX
  5
26AF
  8
SAPA_FOGBAND
 10
-26.675070868014132
 20
125.50907590551719
 30
0.0
  0
VERTEX
  5
26B0
  8
SAPA_FOGBAND
 10
-26.675070868014132
 20
123.6953758135967
 30
0.0
  0
VERTEX
  5
26B1
  8
SAPA_FOGBAND
 10
-24.97507086801431
 20
123.6953758135967
 30
0.0
 42
-0.4142135623730951
  0
VERTEX
  5
26B2
  8
SAPA_FOGBAND
 10
-24.675070868014132
 20
123.3953758135965
 30
0.0
  0
VERTEX
  5
26B3
  8
SAPA_FOGBAND
 10
-24.675070868014132
 20
115.9765950499711
 30
0.0
 42
-0.1379343940649189
  0
VERTEX
  5
26B4
  8
SAPA_FOGBAND
 10
-24.821647482869029
 20
115.4553767409222
 30
0.0
  0
VERTEX
  5
26B5
  8
SAPA_FOGBAND
 10
-31.628865720777299
 20
103.5347666590726
 30
0.0
 42
-0.2613472755167633
  0
VERTEX
  5
26B6
  8
SAPA_FOGBAND
 10
-32.055577413349852
 20
103.295375813597
 30
0.0
  0
SEQEND
  5
26B7
  8
SAPA_FOGBAND
  0
POLYLINE
  5
1468
  8
SAPA_FOGBAND
 66
     1
 10
0.0
 20
0.0
 30
0.0
  0
VERTEX
  5
26B8
  8
SAPA_FOGBAND
 10
-86.163511128413006
 20
123.5633406273395
 30
0.0
  0
VERTEX
  5
26B9
  8
SAPA_FOGBAND
 10
-87.254429938565735
 20
123.3709822073469
 30
0.0
  0
VERTEX
  5
26BA
  8
SAPA_FOGBAND
 10
-87.370129478085687
 20
123.8027787672489
 30
0.0
 42
0.4430158954262519
  0
VERTEX
  5
26BB
  8
SAPA_FOGBAND
 10
-87.633605906192656
 20
123.9382558147926
 30
0.0
  0
VERTEX
  5
26BC
  8
SAPA_FOGBAND
 10
-88.904093654110866
 20
123.4613076215736
 30
0.0
 42
0.3125358528825162
  0
VERTEX
  5
26BD
  8
SAPA_FOGBAND
 10
-89.163511128412551
 20
123.0868259084444
 30
0.0
  0
VERTEX
  5
26BE
  8
SAPA_FOGBAND
 10
-89.163511128413006
 20
121.2166705925341
 30
0.0
 42
0.3125358528825104
  0
VERTEX
  5
26BF
  8
SAPA_FOGBAND
 10
-88.904093654110866
 20
120.8421888794045
 30
0.0
  0
VERTEX
  5
26C0
  8
SAPA_FOGBAND
 10
-87.633605906192656
 20
120.3652406861855
 30
0.0
 42
0.4430158954262519
  0
VERTEX
  5
26C1
  8
SAPA_FOGBAND
 10
-87.370129478085687
 20
120.5007177337296
 30
0.0
  0
VERTEX
  5
26C2
  8
SAPA_FOGBAND
 10
-87.254429938565735
 20
120.9325142936312
 30
0.0
  0
VERTEX
  5
26C3
  8
SAPA_FOGBAND
 10
-86.181741824798223
 20
120.7433704372887
 30
0.0
  0
SEQEND
  5
26C4
  8
SAPA_FOGBAND
  0
DIMENSION
  5
1471
  8
SAPA_MATT
  2
*D84
 10
-134.49999999901041
 20
125.4999997021783
 30
0.0
 11
-137.2499999990105
 21
106.7499997021782
 31
0.0
 70
     0
 13
-89.498715301570059
 23
87.999999702178243
 33
0.0
 14
-87.500000006768289
 24
125.4999997021783
 34
0.0
 50
90.0
1001
ACAD
1000
DSTYLE
1002
{
1070
    40
1040
1.0
1002
}
  0
DIMENSION
  5
1472
  8
SAPA_MATT
  2
*D83
 10
-134.49999999901041
 20
87.999999702178272
 30
0.0
 11
-134.49999999901041
 21
85.499999851060807
 31
0.0
 70
   128
  1
5
 13
-89.998715170683127
 23
82.999999999943384
 33
0.0
 14
-89.998715301570059
 24
87.999999702178243
 34
0.0
 50
90.0
1001
ACAD
1000
DSTYLE
1002
{
1070
    40
1040
1.0
1070
   271
1070
     6
1002
}
  0
DIMENSION
  5
1473
  8
SAPA_MATT
  2
*D82
 10
-134.49999999901041
 20
25.00000000009797
 30
0.0
 11
-137.24999999901041
 21
54.000000000020663
 31
0.0
 70
     0
 13
-89.998715170683127
 23
82.999999999943384
 33
0.0
 14
-113.9999999990104
 24
25.00000000009797
 34
0.0
 50
90.0
1001
ACAD
1000
DSTYLE
1002
{
1070
    40
1040
1.0
1002
}
  0
DIMENSION
  5
1474
  8
SAPA_MATT
  2
*D81
 10
-134.49999999901041
 20
24.999999999999119
 30
0.0
 11
-137.24999999901041
 21
-0.0000000000009045
 31
0.0
 70
     0
 13
-113.9999999990105
 23
-25.000000000000892
 33
0.0
 14
-113.9999999990105
 24
24.999999999999108
 34
0.0
 50
89.999999999999986
1001
ACAD
1000
DSTYLE
1002
{
1070
    40
1040
1.0
1002
}
  0
VIEWPORT
  5
C4
 67
     1
  8
0
 10
143.06236603067589
 20
116.00969601843509
 30
0.0
 40
369.98580003443811
 41
256.8421457311839
 68
     1
 69
     1
1001
ACAD
1000
MVIEW
1002
{
1070
    16
1010
0.0
1020
0.0
1030
0.0
1010
0.0
1020
0.0
1030
1.0
1040
0.0
1040
256.8421457311839
1040
99.112914085388169
1040
143.07606935501099
1040
50.0
1040
0.0
1040
0.0
1070
     0
1070
     0
1070
     1
1070
     1
1070
     0
1070
     0
1070
     0
1070
     0
1040
0.0
1040
0.0
1040
0.0
1040
10.0
1040
10.0
1040
10.0
1040
10.0
1070
     0
1002
{
1002
}
1002
}
  0
ENDSEC
  0
EOF
