  0
SECTION
  2
HEADER
  9
$ACADVER
  1
AC1009
  9
$INSBASE
 10
0.0
 20
0.0
 30
0.0
  9
$EXTMIN
 10
-142.11232478622131
 20
-135.9999999990105
 30
0.0
  9
$EXTMAX
 10
48.114456713577042
 20
82.009403434165677
 30
0.0000000195376815
  9
$LIMMIN
 10
0.0
 20
0.0
  9
$LIMMAX
 10
790.0
 20
790.0
  9
$ORTHOMODE
 70
     1
  9
$REGENMODE
 70
     1
  9
$FILLMODE
 70
     1
  9
$QTEXTMODE
 70
     0
  9
$MIRRTEXT
 70
     1
  9
$DRAGMODE
 70
     2
  9
$LTSCALE
 40
4.0
  9
$OSMODE
 70
   167
  9
$ATTMODE
 70
     1
  9
$TEXTSIZE
 40
3.5
  9
$TRACEWID
 40
0.05
  9
$TEXTSTYLE
  7
ISO
  9
$CLAYER
  8
0
  9
$CELTYPE
  6
BYLAYER
  9
$CECOLOR
 62
   256
  9
$DIMSCALE
 40
0.0
  9
$DIMASZ
 40
3.0
  9
$DIMEXO
 40
1.5
  9
$DIMDLI
 40
10.0
  9
$DIMRND
 40
0.0
  9
$DIMDLE
 40
0.0
  9
$DIMEXE
 40
1.5
  9
$DIMTP
 40
0.0
  9
$DIMTM
 40
0.0
  9
$DIMTXT
 40
3.5
  9
$DIMCEN
 40
-5.0
  9
$DIMTSZ
 40
0.0
  9
$DIMTOL
 70
     0
  9
$DIMLIM
 70
     0
  9
$DIMTIH
 70
     0
  9
$DIMTOH
 70
     0
  9
$DIMSE1
 70
     0
  9
$DIMSE2
 70
     0
  9
$DIMTAD
 70
     1
  9
$DIMZIN
 70
     8
  9
$DIMBLK
  1

  9
$DIMASO
 70
     1
  9
$DIMSHO
 70
     1
  9
$DIMPOST
  1

  9
$DIMAPOST
  1

  9
$DIMALT
 70
     0
  9
$DIMALTD
 70
     0
  9
$DIMALTF
 40
25.399999999999999
  9
$DIMLFAC
 40
-1.0
  9
$DIMTOFL
 70
     1
  9
$DIMTVP
 40
0.0
  9
$DIMTIX
 70
     0
  9
$DIMSOXD
 70
     0
  9
$DIMSAH
 70
     0
  9
$DIMBLK1
  1

  9
$DIMBLK2
  1

  9
$DIMSTYLE
  2
MASKIN
  9
$DIMCLRD
 70
   256
  9
$DIMCLRE
 70
   256
  9
$DIMCLRT
 70
     2
  9
$DIMTFAC
 40
1.0
  9
$DIMGAP
 40
1.0
  9
$LUNITS
 70
     2
  9
$LUPREC
 70
     8
  9
$SKETCHINC
 40
0.1
  9
$FILLETRAD
 40
0.0
  9
$AUNITS
 70
     0
  9
$AUPREC
 70
     8
  9
$MENU
  1
ACAD
  9
$ELEVATION
 40
0.0
  9
$PELEVATION
 40
0.0
  9
$THICKNESS
 40
0.0
  9
$LIMCHECK
 70
     0
  9
$BLIPMODE
 70
     0
  9
$CHAMFERA
 40
0.0
  9
$CHAMFERB
 40
0.0
  9
$SKPOLY
 70
     0
  9
$TDCREATE
 40
2454981.3237536349
  9
$TDUPDATE
 40
2457105.550232477
  9
$TDINDWG
 40
0.0676172569
  9
$TDUSRTIMER
 40
0.0676170718
  9
$USRTIMER
 70
     1
  9
$ANGBASE
 50
0.0
  9
$ANGDIR
 70
     0
  9
$PDMODE
 70
     0
  9
$PDSIZE
 40
0.0
  9
$PLINEWID
 40
0.0
  9
$COORDS
 70
     1
  9
$SPLFRAME
 70
     0
  9
$SPLINETYPE
 70
     6
  9
$SPLINESEGS
 70
     8
  9
$ATTDIA
 70
     0
  9
$ATTREQ
 70
     1
  9
$HANDLING
 70
     1
  9
$HANDSEED
  5
271D
  9
$SURFTAB1
 70
     6
  9
$SURFTAB2
 70
     6
  9
$SURFTYPE
 70
     6
  9
$SURFU
 70
     6
  9
$SURFV
 70
     6
  9
$UCSNAME
  2

  9
$UCSORG
 10
0.0
 20
0.0
 30
0.0
  9
$UCSXDIR
 10
1.0
 20
0.0
 30
0.0
  9
$UCSYDIR
 10
0.0
 20
1.0
 30
0.0
  9
$PUCSNAME
  2

  9
$PUCSORG
 10
0.0
 20
0.0
 30
0.0
  9
$PUCSXDIR
 10
1.0
 20
0.0
 30
0.0
  9
$PUCSYDIR
 10
0.0
 20
1.0
 30
0.0
  9
$USERI1
 70
     0
  9
$USERI2
 70
     0
  9
$USERI3
 70
     0
  9
$USERI4
 70
     0
  9
$USERI5
 70
     0
  9
$USERR1
 40
0.0
  9
$USERR2
 40
0.0
  9
$USERR3
 40
0.0
  9
$USERR4
 40
0.0
  9
$USERR5
 40
0.0
  9
$WORLDVIEW
 70
     1
  9
$SHADEDGE
 70
     3
  9
$SHADEDIF
 70
    70
  9
$TILEMODE
 70
     1
  9
$MAXACTVP
 70
    16
  9
$PLIMCHECK
 70
     0
  9
$PEXTMIN
 10
1.0000000000000000E+020
 20
1.0000000000000000E+020
 30
1.0000000000000000E+020
  9
$PEXTMAX
 10
-1.0000000000000000E+020
 20
-1.0000000000000000E+020
 30
-1.0000000000000000E+020
  9
$PLIMMIN
 10
-5.069427490234375
 20
-5.8737497329711914
  9
$PLIMMAX
 10
291.89889526367187
 20
204.0995779037475
  9
$UNITMODE
 70
     0
  9
$VISRETAIN
 70
     1
  9
$PLINEGEN
 70
     0
  9
$PSLTSCALE
 70
     1
  0
ENDSEC
  0
SECTION
  2
TABLES
  0
TABLE
  2
VPORT
 70
     1
  0
VPORT
  2
*ACTIVE
 70
     0
 10
0.0
 20
0.0
 11
1.0
 21
1.0
 12
-46.989532090613693
 22
96.033571261376068
 13
0.0
 23
0.0
 14
1.0
 24
1.0
 15
0.0
 25
0.0
 16
0.0
 26
0.0
 36
1.0
 17
0.0
 27
0.0
 37
0.0
 40
303.76802960885863
 41
1.7436619718309849
 42
50.0
 43
0.0
 44
0.0
 50
0.0
 51
0.0
 71
     0
 72
   100
 73
     1
 74
     1
 75
     0
 76
     0
 77
     0
 78
     0
  0
ENDTAB
  0
TABLE
  2
LTYPE
 70
    44
  0
LTYPE
  2
CONTINUOUS
 70
     0
  3
Solid line
 72
    65
 73
     0
 40
0.0
  0
LTYPE
  2
BYGG-01482201$0$NEWDOT
 70
     0
  3
____ . ____ . ____ . ____ . ____ . ____ . ____
 72
    65
 73
     4
 40
2.0
 49
1.0
 49
-0.5
 49
0.0
 49
-0.5
  0
LTYPE
  2
BYGG-023714$0$NEWDOT
 70
     0
  3
____ . ____ . ____ . ____ . ____ . ____ . ____
 72
    65
 73
     4
 40
2.0
 49
1.0
 49
-0.5
 49
0.0
 49
-0.5
  0
LTYPE
  2
BYGG-023714$0$DASHDOT
 70
     0
  3
__ . __ . __ . __ . __ . __ . __ . __ . __ . __
 72
    65
 73
     4
 40
1.0
 49
0.5
 49
-0.25
 49
0.0
 49
-0.25
  0
LTYPE
  2
BYGG-023714$0$DASHED
 70
     0
  3
__ __ __ __ __ __ __ __ __ __ __ __ __ __ __
 72
    65
 73
     2
 40
0.75
 49
0.5
 49
-0.25
  0
LTYPE
  2
BYGG-023714$0$PHANTOM
 70
     0
  3
Phantom ______  __  __  ______  __  __  ______
 72
    65
 73
     6
 40
63.5
 49
31.75
 49
-6.3499999999999988
 49
6.3499999999999988
 49
-6.3499999999999988
 49
6.3499999999999988
 49
-6.3499999999999988
  0
LTYPE
  2
BYGG-014279$0$NEWDOT
 70
     0
  3
____ . ____ . ____ . ____ . ____ . ____ . ____
 72
    65
 73
     4
 40
2.0
 49
1.0
 49
-0.5
 49
0.0
 49
-0.5
  0
LTYPE
  2
BYGG-01482201$0$ZIGZAG
 70
     0
  3
Zig zag /\/\/\/\/\/\/\/\/\/\/\/\/\/\/\/\/\/\/\/\/\/\/\/
 72
    65
 73
     4
 40
20.32254
 49
0.00254
 49
-5.0800000000000001
 49
-10.16
 49
-5.0800000000000001
  0
LTYPE
  2
BYGG-023714$0$ZIGZAG
 70
     0
  3
Zig zag /\/\/\/\/\/\/\/\/\/\/\/\/\/\/\/\/\/\/\/\/\/\/\/
 72
    65
 73
     4
 40
20.32254
 49
0.00254
 49
-5.0800000000000001
 49
-10.16
 49
-5.0800000000000001
  0
LTYPE
  2
BYGG-014279$0$ZIGZAG
 70
     0
  3
Zig zag /\/\/\/\/\/\/\/\/\/\/\/\/\/\/\/\/\/\/\/\/\/\/\/
 72
    65
 73
     4
 40
20.32254
 49
0.00254
 49
-5.0800000000000001
 49
-10.16
 49
-5.0800000000000001
  0
LTYPE
  2
BYGG-033246$0$NEWDOT
 70
     0
  3
____ . ____ . ____ . ____ . ____ . ____ . ____
 72
    65
 73
     4
 40
2.0
 49
1.0
 49
-0.5
 49
0.0
 49
-0.5
  0
LTYPE
  2
BYGG-033246$0$DASHDOT
 70
     0
  3
__ . __ . __ . __ . __ . __ . __ . __ . __ . __
 72
    65
 73
     4
 40
1.0
 49
0.5
 49
-0.25
 49
0.0
 49
-0.25
  0
LTYPE
  2
BYGG-033246$0$DASHED
 70
     0
  3
__ __ __ __ __ __ __ __ __ __ __ __ __ __ __
 72
    65
 73
     2
 40
0.75
 49
0.5
 49
-0.25
  0
LTYPE
  2
BYGG-033246$0$PHANTOM
 70
     0
  3
Phantom ______  __  __  ______  __  __  ______
 72
    65
 73
     6
 40
63.5
 49
31.75
 49
-6.3499999999999988
 49
6.3499999999999988
 49
-6.3499999999999988
 49
6.3499999999999988
 49
-6.3499999999999988
  0
LTYPE
  2
BYGG-024943$0$NEWDOT
 70
     0
  3
____ . ____ . ____ . ____ . ____ . ____ . ____
 72
    65
 73
     4
 40
2.0
 49
1.0
 49
-0.5
 49
0.0
 49
-0.5
  0
LTYPE
  2
BYGG-024943$0$DASHDOT
 70
     0
  3
__ . __ . __ . __ . __ . __ . __ . __ . __ . __
 72
    65
 73
     4
 40
1.0
 49
0.5
 49
-0.25
 49
0.0
 49
-0.25
  0
LTYPE
  2
BYGG-020132$0$NEWDOT
 70
     0
  3
____ . ____ . ____ . ____ . ____ . ____ . ____
 72
    65
 73
     4
 40
2.0
 49
1.0
 49
-0.5
 49
0.0
 49
-0.5
  0
LTYPE
  2
BYGG-020132$0$DASHDOT
 70
     0
  3
__ . __ . __ . __ . __ . __ . __ . __ . __ . __
 72
    65
 73
     4
 40
1.0
 49
0.5
 49
-0.25
 49
0.0
 49
-0.25
  0
LTYPE
  2
BYGG-020805$0$NEWDOT
 70
     0
  3
____ . ____ . ____ . ____ . ____ . ____ . ____
 72
    65
 73
     4
 40
2.0
 49
1.0
 49
-0.5
 49
0.0
 49
-0.5
  0
LTYPE
  2
BYGG-020805$0$DASHDOT
 70
     0
  3
__ . __ . __ . __ . __ . __ . __ . __ . __ . __
 72
    65
 73
     4
 40
1.0
 49
0.5
 49
-0.25
 49
0.0
 49
-0.25
  0
LTYPE
  2
BYGG-020805$0$DASHED
 70
     0
  3
__ __ __ __ __ __ __ __ __ __ __ __ __ __ __
 72
    65
 73
     2
 40
0.75
 49
0.5
 49
-0.25
  0
LTYPE
  2
BYGG-020805$0$PHANTOM
 70
     0
  3
Phantom ______  __  __  ______  __  __  ______
 72
    65
 73
     6
 40
63.5
 49
31.75
 49
-6.3499999999999988
 49
6.3499999999999988
 49
-6.3499999999999988
 49
6.3499999999999988
 49
-6.3499999999999988
  0
LTYPE
  2
BYGG-026410$0$NEWDOT
 70
     0
  3
____ . ____ . ____ . ____ . ____ . ____ . ____
 72
    65
 73
     4
 40
2.0
 49
1.0
 49
-0.5
 49
0.0
 49
-0.5
  0
LTYPE
  2
BYGG-026410$0$DASHDOT
 70
     0
  3
__ . __ . __ . __ . __ . __ . __ . __ . __ . __
 72
    65
 73
     4
 40
1.0
 49
0.5
 49
-0.25
 49
0.0
 49
-0.25
  0
LTYPE
  2
BYGG-026410$0$DASHED
 70
     0
  3
__ __ __ __ __ __ __ __ __ __ __ __ __ __ __
 72
    65
 73
     2
 40
0.75
 49
0.5
 49
-0.25
  0
LTYPE
  2
BYGG-026410$0$PHANTOM
 70
     0
  3
Phantom ______  __  __  ______  __  __  ______
 72
    65
 73
     6
 40
63.5
 49
31.75
 49
-6.3499999999999988
 49
6.3499999999999988
 49
-6.3499999999999988
 49
6.3499999999999988
 49
-6.3499999999999988
  0
LTYPE
  2
BYGG-033169$0$NEWDOT
 70
     0
  3
____ . ____ . ____ . ____ . ____ . ____ . ____
 72
    65
 73
     4
 40
2.0
 49
1.0
 49
-0.5
 49
0.0
 49
-0.5
  0
LTYPE
  2
BYGG-033169$0$DASHDOT
 70
     0
  3
__ . __ . __ . __ . __ . __ . __ . __ . __ . __
 72
    65
 73
     4
 40
1.0
 49
0.5
 49
-0.25
 49
0.0
 49
-0.25
  0
LTYPE
  2
BYGG-033169$0$DASHED
 70
     0
  3
__ __ __ __ __ __ __ __ __ __ __ __ __ __ __
 72
    65
 73
     2
 40
0.75
 49
0.5
 49
-0.25
  0
LTYPE
  2
BYGG-033169$0$PHANTOM
 70
     0
  3
Phantom ______  __  __  ______  __  __  ______
 72
    65
 73
     6
 40
63.5
 49
31.75
 49
-6.3499999999999988
 49
6.3499999999999988
 49
-6.3499999999999988
 49
6.3499999999999988
 49
-6.3499999999999988
  0
LTYPE
  2
BYGG-024798$0$NEWDOT
 70
     0
  3
____ . ____ . ____ . ____ . ____ . ____ . ____
 72
    65
 73
     4
 40
2.0
 49
1.0
 49
-0.5
 49
0.0
 49
-0.5
  0
LTYPE
  2
BYGG-024799$0$NEWDOT
 70
     0
  3
____ . ____ . ____ . ____ . ____ . ____ . ____
 72
    65
 73
     4
 40
2.0
 49
1.0
 49
-0.5
 49
0.0
 49
-0.5
  0
LTYPE
  2
BYGG-024799$0$DASHDOT
 70
     0
  3
__ . __ . __ . __ . __ . __ . __ . __ . __ . __
 72
    65
 73
     4
 40
1.0
 49
0.5
 49
-0.25
 49
0.0
 49
-0.25
  0
LTYPE
  2
BYGG-025652$0$NEWDOT
 70
     0
  3
____ . ____ . ____ . ____ . ____ . ____ . ____
 72
    65
 73
     4
 40
2.0
 49
1.0
 49
-0.5
 49
0.0
 49
-0.5
  0
LTYPE
  2
BYGG-025652$0$DASHDOT
 70
     0
  3
__ . __ . __ . __ . __ . __ . __ . __ . __ . __
 72
    65
 73
     4
 40
1.0
 49
0.5
 49
-0.25
 49
0.0
 49
-0.25
  0
LTYPE
  2
BYGG-025652$0$DASHED
 70
     0
  3
__ __ __ __ __ __ __ __ __ __ __ __ __ __ __
 72
    65
 73
     2
 40
0.75
 49
0.5
 49
-0.25
  0
LTYPE
  2
BYGG-025652$0$PHANTOM
 70
     0
  3
Phantom ______  __  __  ______  __  __  ______
 72
    65
 73
     6
 40
63.5
 49
31.75
 49
-6.3499999999999988
 49
6.3499999999999988
 49
-6.3499999999999988
 49
6.3499999999999988
 49
-6.3499999999999988
  0
LTYPE
  2
BYGG-014411$0$NEWDOT
 70
     0
  3
____ . ____ . ____ . ____ . ____ . ____ . ____
 72
    65
 73
     4
 40
2.0
 49
1.0
 49
-0.5
 49
0.0
 49
-0.5
  0
LTYPE
  2
BYGG-014411$0$ZIGZAG
 70
     0
  3
Zig zag /\/\/\/\/\/\/\/\/\/\/\/\/\/\/\/\/\/\/\/\/\/\/\/
 72
    65
 73
     4
 40
20.32254
 49
0.00254
 49
-5.0800000000000001
 49
-10.16
 49
-5.0800000000000001
  0
LTYPE
  2
BYGG-030185$0$PHANTOM2
 70
     0
  3
Phantom (.5x) ___ _ _ ___ _ _ ___ _ _ ___ _ _
 72
    65
 73
     6
 40
1.25
 49
0.625
 49
-0.125
 49
0.125
 49
-0.125
 49
0.125
 49
-0.125
  0
LTYPE
  2
BYGG-024798$0$DASHDOT
 70
     0
  3
__ . __ . __ . __ . __ . __ . __ . __ . __ . __
 72
    65
 73
     4
 40
1.0
 49
0.5
 49
-0.25
 49
0.0
 49
-0.25
  0
LTYPE
  2
BYGG-014089$0$PHANTOM2
 70
     0
  3
Phantom (.5x) ___ _ _ ___ _ _ ___ _ _ ___ _ _
 72
    65
 73
     6
 40
1.25
 49
0.625
 49
-0.125
 49
0.125
 49
-0.125
 49
0.125
 49
-0.125
  0
LTYPE
  2
BYGG-014108$0$PHANTOM2
 70
     0
  3
Phantom (.5x) ___ _ _ ___ _ _ ___ _ _ ___ _ _
 72
    65
 73
     6
 40
1.25
 49
0.625
 49
-0.125
 49
0.125
 49
-0.125
 49
0.125
 49
-0.125
  0
LTYPE
  2
BYGG-014411$0$PHANTOM2
 70
     0
  3
Phantom (.5x) ___ _ _ ___ _ _ ___ _ _ ___ _ _
 72
    65
 73
     6
 40
1.25
 49
0.625
 49
-0.125
 49
0.125
 49
-0.125
 49
0.125
 49
-0.125
  0
ENDTAB
  0
TABLE
  2
LAYER
 70
   254
  0
LAYER
  2
0
 70
     0
 62
     7
  6
CONTINUOUS
  0
LAYER
  2
DEFPOINTS
 70
     0
 62
     7
  6
CONTINUOUS
  0
LAYER
  2
SAPA_LIGHT
 70
     1
 62
     1
  6
CONTINUOUS
  0
LAYER
  2
SAPA_ARTIKELNR
 70
     0
 62
     4
  6
CONTINUOUS
  0
LAYER
  2
SAPA_ISOLATOR
 70
     0
 62
     4
  6
CONTINUOUS
  0
LAYER
  2
SAPA_MATT
 70
     0
 62
     1
  6
CONTINUOUS
  0
LAYER
  2
SAPA_GLAS
 70
     0
 62
     4
  6
CONTINUOUS
  0
LAYER
  2
SAPA_FOGBAND
 70
     0
 62
     2
  6
CONTINUOUS
  0
LAYER
  2
SAPA_PROFIL
 70
     0
 62
     7
  6
CONTINUOUS
  0
ENDTAB
  0
TABLE
  2
STYLE
 70
    49
  0
STYLE
  2
STANDARD
 70
     0
 40
0.0
 41
1.0
 50
0.0
 71
     0
 42
0.2
  3
txt
  4

  0
STYLE
  2
ISO
 70
     0
 40
0.0
 41
1.0
 50
0.0
 71
     0
 42
3.5
  3
txt
  4

  0
STYLE
  2

 70
     1
 40
0.0
 41
1.0
 50
0.0
 71
     0
 42
0.2
  3
ltypeshp.shx
  4

  0
STYLE
  2
BYGG-021589$0$STANDARD
 70
     0
 40
0.0
 41
1.0
 50
0.0
 71
     0
 42
0.2
  3
txt
  4

  0
STYLE
  2
BYGG-021589$0$ISO
 70
     0
 40
0.0
 41
1.0
 50
0.0
 71
     0
 42
3.5
  3
isocp3.shx
  4

  0
STYLE
  2
BYGG-01482201$0$STANDARD
 70
     0
 40
0.0
 41
1.0
 50
0.0
 71
     0
 42
0.2
  3
txt
  4

  0
STYLE
  2
BYGG-01482201$0$ISO
 70
     0
 40
0.0
 41
1.0
 50
0.0
 71
     0
 42
3.5
  3
isocp3.shx
  4

  0
STYLE
  2
BYGG-023717$0$STANDARD
 70
     0
 40
0.0
 41
1.0
 50
0.0
 71
     0
 42
0.2
  3
txt
  4

  0
STYLE
  2
BYGG-023717$0$ISO
 70
     0
 40
0.0
 41
1.0
 50
0.0
 71
     0
 42
3.5
  3
txt
  4

  0
STYLE
  2
BYGG-023714$0$STANDARD
 70
     0
 40
0.0
 41
1.0
 50
0.0
 71
     0
 42
0.2
  3
txt
  4

  0
STYLE
  2
BYGG-023714$0$ISO
 70
     0
 40
0.0
 41
1.0
 50
0.0
 71
     0
 42
3.5
  3
txt
  4

  0
STYLE
  2
BYGG-019338$0$STANDARD
 70
     0
 40
0.0
 41
1.0
 50
0.0
 71
     0
 42
0.2
  3
txt
  4

  0
STYLE
  2
BYGG-019338$0$ISO
 70
     0
 40
0.0
 41
1.0
 50
0.0
 71
     0
 42
3.5
  3
txt
  4

  0
STYLE
  2
BYGG-023917$0$STANDARD
 70
     0
 40
0.0
 41
1.0
 50
0.0
 71
     0
 42
0.2
  3
txt
  4

  0
STYLE
  2
BYGG-023917$0$ISO
 70
     0
 40
0.0
 41
1.0
 50
0.0
 71
     0
 42
3.5
  3
txt
  4

  0
STYLE
  2
BYGG-021582$0$STANDARD
 70
     0
 40
0.0
 41
1.0
 50
0.0
 71
     0
 42
0.2
  3
txt
  4

  0
STYLE
  2
BYGG-021582$0$ISO
 70
     0
 40
0.0
 41
1.0
 50
0.0
 71
     0
 42
3.5
  3
isocp3.shx
  4

  0
STYLE
  2
BYGG-014279$0$STANDARD
 70
     0
 40
0.0
 41
1.0
 50
0.0
 71
     0
 42
0.2
  3
TXT.shx
  4

  0
STYLE
  2
BYGG-014279$0$ISO
 70
     0
 40
0.0
 41
1.0
 50
0.0
 71
     0
 42
3.5
  3
iso
  4

  0
STYLE
  2
BYGG-033246$0$STANDARD
 70
     0
 40
0.0
 41
1.0
 50
0.0
 71
     0
 42
0.2
  3
txt
  4

  0
STYLE
  2
BYGG-033246$0$ISO
 70
     0
 40
0.0
 41
1.0
 50
0.0
 71
     0
 42
3.5
  3
txt
  4

  0
STYLE
  2
BYGG-024943$0$STANDARD
 70
     0
 40
0.0
 41
1.0
 50
0.0
 71
     0
 42
0.2
  3
txt
  4

  0
STYLE
  2
BYGG-024943$0$ISO
 70
     0
 40
0.0
 41
1.0
 50
0.0
 71
     0
 42
3.5
  3
txt
  4

  0
STYLE
  2
BYGG-020132$0$STANDARD
 70
     0
 40
0.0
 41
1.0
 50
0.0
 71
     0
 42
0.2
  3
txt
  4

  0
STYLE
  2
BYGG-020132$0$ISO
 70
     0
 40
0.0
 41
1.0
 50
0.0
 71
     0
 42
3.5
  3
txt
  4

  0
STYLE
  2
BYGG-028980$0$STANDARD
 70
     0
 40
0.0
 41
1.0
 50
0.0
 71
     0
 42
0.2
  3
txt
  4

  0
STYLE
  2
BYGG-028980$0$ISO
 70
     0
 40
0.0
 41
1.0
 50
0.0
 71
     0
 42
3.5
  3
txt
  4

  0
STYLE
  2
BYGG-020805$0$STANDARD
 70
     0
 40
0.0
 41
1.0
 50
0.0
 71
     0
 42
0.2
  3
txt
  4

  0
STYLE
  2
BYGG-020805$0$ISO
 70
     0
 40
0.0
 41
1.0
 50
0.0
 71
     0
 42
3.5
  3
txt
  4

  0
STYLE
  2
BYGG-026410$0$STANDARD
 70
     0
 40
0.0
 41
1.0
 50
0.0
 71
     0
 42
0.2
  3
txt
  4

  0
STYLE
  2
BYGG-026410$0$ISO
 70
     0
 40
0.0
 41
1.0
 50
0.0
 71
     0
 42
3.5
  3
txt
  4

  0
STYLE
  2
BYGG-033169$0$STANDARD
 70
     0
 40
0.0
 41
1.0
 50
0.0
 71
     0
 42
0.2
  3
txt
  4

  0
STYLE
  2
BYGG-033169$0$ISO
 70
     0
 40
0.0
 41
1.0
 50
0.0
 71
     0
 42
3.5
  3
txt
  4

  0
STYLE
  2
BYGG-030185$0$STANDARD
 70
     0
 40
0.0
 41
1.0
 50
0.0
 71
     0
 42
0.2
  3
txt
  4

  0
STYLE
  2
BYGG-030185$0$ISO
 70
     0
 40
0.0
 41
1.0
 50
0.0
 71
     0
 42
7.0
  3
ISO
  4

  0
STYLE
  2
BYGG-024798$0$STANDARD
 70
     0
 40
0.0
 41
1.0
 50
0.0
 71
     0
 42
0.2
  3
txt
  4

  0
STYLE
  2
BYGG-024798$0$ISO
 70
     0
 40
0.0
 41
1.0
 50
0.0
 71
     0
 42
3.5
  3
txt
  4

  0
STYLE
  2
BYGG-024799$0$STANDARD
 70
     0
 40
0.0
 41
1.0
 50
0.0
 71
     0
 42
0.2
  3
txt
  4

  0
STYLE
  2
BYGG-024799$0$ISO
 70
     0
 40
0.0
 41
1.0
 50
0.0
 71
     0
 42
3.5
  3
txt
  4

  0
STYLE
  2
BYGG-014089$0$STANDARD
 70
     0
 40
0.0
 41
1.0
 50
0.0
 71
     0
 42
0.2
  3
txt
  4

  0
STYLE
  2
BYGG-014089$0$ANNOTATIVE
 70
     0
 40
0.0
 41
1.0
 50
0.0
 71
     0
 42
3.5
  3
txt
  4

  0
STYLE
  2
BYGG-014108$0$STANDARD
 70
     0
 40
0.0
 41
1.0
 50
0.0
 71
     0
 42
0.4
  3
txt
  4

  0
STYLE
  2
BYGG-014108$0$SIMPLEX
 70
     0
 40
0.0
 41
1.0
 50
0.0
 71
     0
 42
0.2
  3
simplex
  4

  0
STYLE
  2
BYGG-019611$0$STANDARD
 70
     0
 40
0.0
 41
1.0
 50
0.0
 71
     0
 42
0.2
  3
txt
  4

  0
STYLE
  2
BYGG-019611$0$ISO
 70
     0
 40
0.0
 41
1.0
 50
0.0
 71
     0
 42
3.5
  3
txt
  4

  0
STYLE
  2
BYGG-025652$0$STANDARD
 70
     0
 40
0.0
 41
1.0
 50
0.0
 71
     0
 42
0.2
  3
txt
  4

  0
STYLE
  2
BYGG-025652$0$ISO
 70
     0
 40
0.0
 41
1.0
 50
0.0
 71
     0
 42
3.5
  3
txt
  4

  0
STYLE
  2
BYGG-014411$0$STANDARD
 70
     0
 40
0.0
 41
1.0
 50
0.0
 71
     0
 42
0.2
  3
txt
  4

  0
STYLE
  2
BYGG-014411$0$ISO
 70
     0
 40
0.0
 41
1.0
 50
0.0
 71
     0
 42
3.5
  3
isocp3.shx
  4

  0
ENDTAB
  0
TABLE
  2
VIEW
 70
     0
  0
ENDTAB
  0
TABLE
  2
UCS
 70
     0
  0
ENDTAB
  0
TABLE
  2
APPID
 70
    34
  0
APPID
  2
ACAD
 70
     0
  0
APPID
  2
ACAD_DSTYLE_DIMTEXT_FILL
 70
     0
  0
APPID
  2
ACAD_DSTYLE_DIMEXT_LENGTH
 70
     0
  0
APPID
  2
ACAD_DSTYLE_DIMEXT_ENABLED
 70
     0
  0
APPID
  2
ACAD_DSTYLE_DIM_LINETYPE
 70
     0
  0
APPID
  2
ACAD_DSTYLE_DIM_EXT1_LINETYPE
 70
     0
  0
APPID
  2
ACAD_DSTYLE_DIM_EXT2_LINETYPE
 70
     0
  0
APPID
  2
ACAD_DSTYLE_DIMJOGGED_JOGA
 70
     0
  0
APPID
  2
ACAD_DSTYLE_DIMARC_LENGTH_
 70
     0
  0
APPID
  2
ACAD_PSEXT
 70
     0
  0
APPID
  2
ACAD_MLEADERVER
 70
     0
  0
APPID
  2
AMG_ARCHIVE11
 70
     0
  0
APPID
  2
ACADANNOTATIVE
 70
     0
  0
APPID
  2
ACAECLAYERSTANDARD
 70
     0
  0
APPID
  2
ACAD_EXEMPT_FROM_CAD_STANDARDS
 70
     0
  0
APPID
  2
ACDBDYNAMICBLOCKGUID
 70
     0
  0
APPID
  2
ACDBBLOCKREPETAG
 70
     0
  0
APPID
  2
ACAUTHENVIRON
 70
     0
  0
APPID
  2
ACAD_DSTYLE_DIMJAG
 70
     0
  0
APPID
  2
ACAD_DSTYLE_DIMTALN
 70
     0
  0
APPID
  2
ACAD_NAV_VCDISPLAY
 70
     0
  0
APPID
  2
ACAD_DSTYLE_DIMRADIAL_EXTENSION
 70
     0
  0
APPID
  2
ACAD_OBJECT_CHANGE_GUID
 70
     0
  0
APPID
  2
ACCMTRANSPARENCY
 70
     0
  0
APPID
  2
AVE_RENDER
 70
     0
  0
APPID
  2
AVE_ENTITY_MATERIAL
 70
     0
  0
APPID
  2
AVE_FINISH
 70
     0
  0
APPID
  2
AVE_MATERIAL
 70
     0
  0
APPID
  2
AVE_GLOBAL
 70
     0
  0
APPID
  2
4M_RENDER
 70
     0
  0
APPID
  2
LIBMAN
 70
     0
  0
APPID
  2
AUTOBUILD
 70
     0
  0
APPID
  2
ACDBDYNAMICBLOCKTRUENAME
 70
     0
  0
APPID
  2
AEC_XDATA_BOUND_SPACE
 70
     0
  0
ENDTAB
  0
TABLE
  2
DIMSTYLE
 70
    43
  0
DIMSTYLE
  2
MASKIN
 70
     0
  3

  4

  5

  6

  7

 40
0.0
 41
3.0
 42
1.5
 43
10.0
 44
1.5
 45
0.0
 46
0.0
 47
0.0
 48
0.0
140
3.5
141
-5.0
142
0.0
143
25.399999999999999
144
-1.0
145
0.0
146
1.0
147
1.0
 71
     0
 72
     0
 73
     0
 74
     0
 75
     0
 76
     0
 77
     1
 78
     8
170
     0
171
     0
172
     1
173
     0
174
     0
175
     0
176
   256
177
   256
178
     2
  0
DIMSTYLE
  2
BYGG-021589$0$MASKIN
 70
     0
  3

  4

  5

  6

  7

 40
0.0
 41
3.0
 42
1.5
 43
10.0
 44
1.5
 45
0.0
 46
0.0
 47
0.0
 48
0.0
140
3.0
141
-5.0
142
0.0
143
25.399999999999999
144
-1.0
145
0.0
146
1.0
147
1.0
 71
     0
 72
     0
 73
     0
 74
     0
 75
     0
 76
     0
 77
     1
 78
     8
170
     0
171
     0
172
     1
173
     0
174
     0
175
     0
176
   256
177
   256
178
   256
  0
DIMSTYLE
  2
BYGG-01482201$0$STANDARD
 70
     0
  3

  4

  5

  6

  7

 40
1.0
 41
0.18
 42
0.0625
 43
0.38
 44
0.18
 45
0.0
 46
0.0
 47
0.0
 48
0.0
140
0.18
141
0.09
142
0.0
143
25.399999999999999
144
1.0
145
0.0
146
1.0
147
0.09
 71
     0
 72
     0
 73
     1
 74
     1
 75
     0
 76
     0
 77
     0
 78
     0
170
     0
171
     2
172
     0
173
     0
174
     0
175
     0
176
     0
177
     0
178
     0
  0
DIMSTYLE
  2
BYGG-01482201$0$MASKIN
 70
     0
  3

  4

  5

  6

  7

 40
0.0
 41
3.0
 42
1.5
 43
10.0
 44
1.5
 45
0.0
 46
0.0
 47
0.0
 48
0.0
140
3.0
141
-5.0
142
0.0
143
25.399999999999999
144
-1.0
145
0.0
146
1.0
147
1.0
 71
     0
 72
     0
 73
     0
 74
     1
 75
     0
 76
     0
 77
     1
 78
     8
170
     0
171
     0
172
     1
173
     0
174
     0
175
     0
176
   256
177
   256
178
     2
  0
DIMSTYLE
  2
BYGG-023717$0$STANDARD
 70
     0
  3

  4

  5

  6

  7

 40
1.0
 41
0.18
 42
0.0625
 43
0.38
 44
0.18
 45
0.0
 46
0.0
 47
0.0
 48
0.0
140
0.18
141
0.09
142
0.0
143
25.399999999999999
144
1.0
145
0.0
146
1.0
147
0.09
 71
     0
 72
     0
 73
     1
 74
     1
 75
     0
 76
     0
 77
     0
 78
     0
170
     0
171
     2
172
     0
173
     0
174
     0
175
     0
176
     0
177
     0
178
     0
  0
DIMSTYLE
  2
BYGG-023717$0$MASKIN
 70
     0
  3

  4

  5

  6

  7

 40
0.0
 41
3.0
 42
1.5
 43
10.0
 44
1.5
 45
0.0
 46
0.0
 47
0.0
 48
0.0
140
3.0
141
-5.0
142
0.0
143
25.399999999999999
144
-1.0
145
0.0
146
1.0
147
1.0
 71
     0
 72
     0
 73
     0
 74
     0
 75
     0
 76
     0
 77
     1
 78
     8
170
     0
171
     0
172
     1
173
     0
174
     0
175
     0
176
   256
177
   256
178
     2
  0
DIMSTYLE
  2
BYGG-023714$0$STANDARD
 70
     0
  3

  4

  5

  6

  7

 40
1.0
 41
0.18
 42
0.0625
 43
0.38
 44
0.18
 45
0.0
 46
0.0
 47
0.0
 48
0.0
140
0.18
141
0.09
142
0.0
143
25.399999999999999
144
1.0
145
0.0
146
1.0
147
0.09
 71
     0
 72
     0
 73
     1
 74
     1
 75
     0
 76
     0
 77
     0
 78
     0
170
     0
171
     2
172
     0
173
     0
174
     0
175
     0
176
     0
177
     0
178
     0
  0
DIMSTYLE
  2
BYGG-023714$0$MASKIN
 70
     0
  3

  4

  5

  6

  7

 40
0.0
 41
3.0
 42
1.5
 43
10.0
 44
1.5
 45
0.0
 46
0.0
 47
0.0
 48
0.0
140
3.0
141
-5.0
142
0.0
143
25.399999999999999
144
-1.0
145
0.0
146
1.0
147
1.0
 71
     0
 72
     0
 73
     0
 74
     0
 75
     0
 76
     0
 77
     1
 78
     8
170
     0
171
     0
172
     1
173
     0
174
     0
175
     0
176
   256
177
   256
178
     2
  0
DIMSTYLE
  2
BYGG-019338$0$STANDARD
 70
     0
  3

  4

  5

  6

  7

 40
1.0
 41
0.18
 42
0.0625
 43
0.38
 44
0.18
 45
0.0
 46
0.0
 47
0.0
 48
0.0
140
0.18
141
0.09
142
0.0
143
25.399999999999999
144
1.0
145
0.0
146
1.0
147
0.09
 71
     0
 72
     0
 73
     1
 74
     1
 75
     0
 76
     0
 77
     0
 78
     0
170
     0
171
     2
172
     0
173
     0
174
     0
175
     0
176
     0
177
     0
178
     0
  0
DIMSTYLE
  2
BYGG-019338$0$MASKIN
 70
     0
  3

  4

  5

  6

  7

 40
0.0
 41
3.0
 42
1.5
 43
10.0
 44
1.5
 45
0.0
 46
0.0
 47
0.0
 48
0.0
140
3.0
141
-5.0
142
0.0
143
25.399999999999999
144
-1.0
145
0.0
146
1.0
147
1.0
 71
     0
 72
     0
 73
     0
 74
     0
 75
     0
 76
     0
 77
     1
 78
     8
170
     0
171
     0
172
     1
173
     0
174
     0
175
     0
176
   256
177
   256
178
     2
  0
DIMSTYLE
  2
BYGG-023917$0$STANDARD
 70
     0
  3

  4

  5

  6

  7

 40
1.0
 41
0.18
 42
0.0625
 43
0.38
 44
0.18
 45
0.0
 46
0.0
 47
0.0
 48
0.0
140
0.18
141
0.09
142
0.0
143
25.399999999999999
144
1.0
145
0.0
146
1.0
147
0.09
 71
     0
 72
     0
 73
     1
 74
     1
 75
     0
 76
     0
 77
     0
 78
     0
170
     0
171
     2
172
     0
173
     0
174
     0
175
     0
176
     0
177
     0
178
     0
  0
DIMSTYLE
  2
BYGG-023917$0$MASKIN
 70
     0
  3

  4

  5

  6

  7

 40
0.0
 41
3.0
 42
1.5
 43
10.0
 44
1.5
 45
0.0
 46
0.0
 47
0.0
 48
0.0
140
3.0
141
-5.0
142
0.0
143
25.399999999999999
144
-1.0
145
0.0
146
1.0
147
1.0
 71
     0
 72
     0
 73
     0
 74
     0
 75
     0
 76
     0
 77
     1
 78
     8
170
     0
171
     0
172
     1
173
     0
174
     0
175
     0
176
   256
177
   256
178
     2
  0
DIMSTYLE
  2
BYGG-021582$0$MASKIN
 70
     0
  3

  4

  5

  6

  7

 40
0.0
 41
3.0
 42
1.5
 43
10.0
 44
1.5
 45
0.0
 46
0.0
 47
0.0
 48
0.0
140
3.0
141
-5.0
142
0.0
143
25.399999999999999
144
-1.0
145
0.0
146
1.0
147
1.0
 71
     0
 72
     0
 73
     0
 74
     0
 75
     0
 76
     0
 77
     1
 78
     8
170
     0
171
     0
172
     1
173
     0
174
     0
175
     0
176
   256
177
   256
178
   256
  0
DIMSTYLE
  2
BYGG-014279$0$STANDARD
 70
     0
  3

  4

  5

  6

  7

 40
1.0
 41
0.18
 42
0.0625
 43
0.38
 44
0.18
 45
0.0
 46
0.0
 47
0.0
 48
0.0
140
0.18
141
0.09
142
0.0
143
25.399999999999999
144
1.0
145
0.0
146
1.0
147
0.09
 71
     0
 72
     0
 73
     1
 74
     1
 75
     0
 76
     0
 77
     0
 78
     0
170
     0
171
     2
172
     0
173
     0
174
     0
175
     0
176
     0
177
     0
178
     0
  0
DIMSTYLE
  2
BYGG-014279$0$MASKIN
 70
     0
  3

  4

  5

  6

  7

 40
0.0
 41
3.0
 42
1.5
 43
10.0
 44
1.5
 45
0.0
 46
0.0
 47
0.0
 48
0.0
140
3.0
141
-5.0
142
0.0
143
25.399999999999999
144
-1.0
145
0.0
146
1.0
147
1.0
 71
     0
 72
     0
 73
     0
 74
     1
 75
     0
 76
     0
 77
     1
 78
     8
170
     0
171
     0
172
     1
173
     0
174
     0
175
     0
176
   256
177
   256
178
     2
  0
DIMSTYLE
  2
BYGG-033246$0$STANDARD
 70
     0
  3

  4

  5

  6

  7

 40
1.0
 41
0.18
 42
0.0625
 43
0.38
 44
0.18
 45
0.0
 46
0.0
 47
0.0
 48
0.0
140
0.18
141
0.09
142
0.0
143
25.399999999999999
144
1.0
145
0.0
146
1.0
147
0.09
 71
     0
 72
     0
 73
     1
 74
     1
 75
     0
 76
     0
 77
     0
 78
     0
170
     0
171
     2
172
     0
173
     0
174
     0
175
     0
176
     0
177
     0
178
     0
  0
DIMSTYLE
  2
BYGG-033246$0$MASKIN
 70
     0
  3

  4

  5

  6

  7

 40
0.0
 41
3.0
 42
1.5
 43
10.0
 44
1.5
 45
0.0
 46
0.0
 47
0.0
 48
0.0
140
3.0
141
-5.0
142
0.0
143
25.399999999999999
144
-1.0
145
0.0
146
1.0
147
1.0
 71
     0
 72
     0
 73
     0
 74
     0
 75
     0
 76
     0
 77
     1
 78
     8
170
     0
171
     0
172
     1
173
     0
174
     0
175
     0
176
   256
177
   256
178
     2
  0
DIMSTYLE
  2
BYGG-024943$0$STANDARD
 70
     0
  3

  4

  5

  6

  7

 40
1.0
 41
0.18
 42
0.0625
 43
0.38
 44
0.18
 45
0.0
 46
0.0
 47
0.0
 48
0.0
140
0.18
141
0.09
142
0.0
143
25.399999999999999
144
1.0
145
0.0
146
1.0
147
0.09
 71
     0
 72
     0
 73
     1
 74
     1
 75
     0
 76
     0
 77
     0
 78
     0
170
     0
171
     2
172
     0
173
     0
174
     0
175
     0
176
     0
177
     0
178
     0
  0
DIMSTYLE
  2
BYGG-024943$0$MASKIN
 70
     0
  3

  4

  5

  6

  7

 40
0.0
 41
3.0
 42
1.5
 43
10.0
 44
1.5
 45
0.0
 46
0.0
 47
0.0
 48
0.0
140
3.0
141
-5.0
142
0.0
143
25.399999999999999
144
-1.0
145
0.0
146
1.0
147
1.0
 71
     0
 72
     0
 73
     0
 74
     0
 75
     0
 76
     0
 77
     1
 78
     8
170
     0
171
     0
172
     1
173
     0
174
     0
175
     0
176
   256
177
   256
178
     2
  0
DIMSTYLE
  2
BYGG-020132$0$MASKIN
 70
     0
  3

  4

  5

  6

  7

 40
0.0
 41
3.0
 42
1.5
 43
10.0
 44
1.5
 45
0.0
 46
0.0
 47
0.0
 48
0.0
140
3.0
141
-5.0
142
0.0
143
25.399999999999999
144
-1.0
145
0.0
146
1.0
147
1.0
 71
     0
 72
     0
 73
     0
 74
     0
 75
     0
 76
     0
 77
     1
 78
     8
170
     0
171
     0
172
     1
173
     0
174
     0
175
     0
176
   256
177
   256
178
     2
  0
DIMSTYLE
  2
BYGG-020132$0$STANDARD
 70
     0
  3

  4

  5

  6

  7

 40
1.0
 41
0.18
 42
0.0625
 43
0.38
 44
0.18
 45
0.0
 46
0.0
 47
0.0
 48
0.0
140
0.18
141
0.09
142
0.0
143
25.399999999999999
144
1.0
145
0.0
146
1.0
147
0.09
 71
     0
 72
     0
 73
     1
 74
     1
 75
     0
 76
     0
 77
     0
 78
     0
170
     0
171
     2
172
     0
173
     0
174
     0
175
     0
176
     0
177
     0
178
     0
  0
DIMSTYLE
  2
BYGG-028980$0$STANDARD
 70
     0
  3

  4

  5

  6

  7

 40
1.0
 41
0.18
 42
0.0625
 43
0.38
 44
0.18
 45
0.0
 46
0.0
 47
0.0
 48
0.0
140
0.18
141
0.09
142
0.0
143
25.399999999999999
144
1.0
145
0.0
146
1.0
147
0.09
 71
     0
 72
     0
 73
     1
 74
     1
 75
     0
 76
     0
 77
     0
 78
     0
170
     0
171
     2
172
     0
173
     0
174
     0
175
     0
176
     0
177
     0
178
     0
  0
DIMSTYLE
  2
BYGG-028980$0$MASKIN
 70
     0
  3

  4

  5

  6

  7

 40
0.0
 41
3.0
 42
1.5
 43
10.0
 44
1.5
 45
0.0
 46
0.0
 47
0.0
 48
0.0
140
3.0
141
-5.0
142
0.0
143
25.399999999999999
144
-1.0
145
0.0
146
1.0
147
1.0
 71
     0
 72
     0
 73
     0
 74
     0
 75
     0
 76
     0
 77
     1
 78
     8
170
     0
171
     0
172
     1
173
     0
174
     0
175
     0
176
   256
177
   256
178
     2
  0
DIMSTYLE
  2
BYGG-020805$0$STANDARD
 70
     0
  3

  4

  5

  6

  7

 40
1.0
 41
0.18
 42
0.0625
 43
0.38
 44
0.18
 45
0.0
 46
0.0
 47
0.0
 48
0.0
140
0.18
141
0.09
142
0.0
143
25.399999999999999
144
1.0
145
0.0
146
1.0
147
0.09
 71
     0
 72
     0
 73
     1
 74
     1
 75
     0
 76
     0
 77
     0
 78
     0
170
     0
171
     2
172
     0
173
     0
174
     0
175
     0
176
     0
177
     0
178
     0
  0
DIMSTYLE
  2
BYGG-020805$0$MASKIN
 70
     0
  3

  4

  5

  6

  7

 40
0.0
 41
3.0
 42
1.5
 43
10.0
 44
1.5
 45
0.0
 46
0.0
 47
0.0
 48
0.0
140
3.0
141
-5.0
142
0.0
143
25.399999999999999
144
-1.0
145
0.0
146
1.0
147
1.0
 71
     0
 72
     0
 73
     0
 74
     0
 75
     0
 76
     0
 77
     1
 78
     8
170
     0
171
     0
172
     1
173
     0
174
     0
175
     0
176
   256
177
   256
178
     2
  0
DIMSTYLE
  2
BYGG-026410$0$STANDARD
 70
     0
  3

  4

  5

  6

  7

 40
1.0
 41
0.18
 42
0.0625
 43
0.38
 44
0.18
 45
0.0
 46
0.0
 47
0.0
 48
0.0
140
0.18
141
0.09
142
0.0
143
25.399999999999999
144
1.0
145
0.0
146
1.0
147
0.09
 71
     0
 72
     0
 73
     1
 74
     1
 75
     0
 76
     0
 77
     0
 78
     0
170
     0
171
     2
172
     0
173
     0
174
     0
175
     0
176
     0
177
     0
178
     0
  0
DIMSTYLE
  2
BYGG-026410$0$MASKIN
 70
     0
  3

  4

  5

  6

  7

 40
0.0
 41
3.0
 42
1.5
 43
10.0
 44
1.5
 45
0.0
 46
0.0
 47
0.0
 48
0.0
140
3.0
141
-5.0
142
0.0
143
25.399999999999999
144
-1.0
145
0.0
146
1.0
147
1.0
 71
     0
 72
     0
 73
     0
 74
     0
 75
     0
 76
     0
 77
     1
 78
     8
170
     0
171
     0
172
     1
173
     0
174
     0
175
     0
176
   256
177
   256
178
     2
  0
DIMSTYLE
  2
BYGG-033169$0$STANDARD
 70
     0
  3

  4

  5

  6

  7

 40
1.0
 41
0.18
 42
0.0625
 43
0.38
 44
0.18
 45
0.0
 46
0.0
 47
0.0
 48
0.0
140
0.18
141
0.09
142
0.0
143
25.399999999999999
144
1.0
145
0.0
146
1.0
147
0.09
 71
     0
 72
     0
 73
     1
 74
     1
 75
     0
 76
     0
 77
     0
 78
     0
170
     0
171
     2
172
     0
173
     0
174
     0
175
     0
176
     0
177
     0
178
     0
  0
DIMSTYLE
  2
BYGG-033169$0$MASKIN
 70
     0
  3

  4

  5

  6

  7

 40
0.0
 41
3.0
 42
1.5
 43
10.0
 44
1.5
 45
0.0
 46
0.0
 47
0.0
 48
0.0
140
3.0
141
-5.0
142
0.0
143
25.399999999999999
144
-1.0
145
0.0
146
1.0
147
1.0
 71
     0
 72
     0
 73
     0
 74
     0
 75
     0
 76
     0
 77
     1
 78
     8
170
     0
171
     0
172
     1
173
     0
174
     0
175
     0
176
   256
177
   256
178
     2
  0
DIMSTYLE
  2
BYGG-030185$0$STANDARD
 70
     0
  3

  4

  5

  6

  7

 40
1.0
 41
0.18
 42
0.0625
 43
0.38
 44
0.18
 45
0.0
 46
0.0
 47
0.0
 48
0.0
140
0.18
141
0.09
142
0.0
143
25.399999999999999
144
1.0
145
0.0
146
1.0
147
0.09
 71
     0
 72
     0
 73
     1
 74
     1
 75
     0
 76
     0
 77
     0
 78
     0
170
     0
171
     2
172
     0
173
     0
174
     0
175
     0
176
     0
177
     0
178
     0
  0
DIMSTYLE
  2
BYGG-030185$0$MASKIN
 70
     0
  3

  4

  5

  6

  7

 40
0.0
 41
3.0
 42
1.5
 43
10.0
 44
1.5
 45
0.0
 46
0.0
 47
0.0
 48
0.0
140
3.0
141
-5.0
142
0.0
143
25.399999999999999
144
-1.0
145
0.0
146
1.0
147
1.0
 71
     0
 72
     0
 73
     0
 74
     1
 75
     0
 76
     0
 77
     1
 78
     8
170
     0
171
     0
172
     1
173
     0
174
     0
175
     0
176
   256
177
   256
178
     2
  0
DIMSTYLE
  2
BYGG-024798$0$MASKIN
 70
     0
  3

  4

  5

  6

  7

 40
0.0
 41
3.0
 42
1.5
 43
10.0
 44
1.5
 45
0.0
 46
0.0
 47
0.0
 48
0.0
140
3.0
141
-5.0
142
0.0
143
25.399999999999999
144
-1.0
145
0.0
146
1.0
147
1.0
 71
     0
 72
     0
 73
     0
 74
     0
 75
     0
 76
     0
 77
     1
 78
     8
170
     0
171
     0
172
     1
173
     0
174
     0
175
     0
176
   256
177
   256
178
     2
  0
DIMSTYLE
  2
BYGG-024798$0$STANDARD
 70
     0
  3

  4

  5

  6

  7

 40
1.0
 41
0.18
 42
0.0625
 43
0.38
 44
0.18
 45
0.0
 46
0.0
 47
0.0
 48
0.0
140
0.18
141
0.09
142
0.0
143
25.399999999999999
144
1.0
145
0.0
146
1.0
147
0.09
 71
     0
 72
     0
 73
     1
 74
     1
 75
     0
 76
     0
 77
     0
 78
     0
170
     0
171
     2
172
     0
173
     0
174
     0
175
     0
176
     0
177
     0
178
     0
  0
DIMSTYLE
  2
BYGG-024799$0$MASKIN
 70
     0
  3

  4

  5

  6

  7

 40
0.0
 41
3.0
 42
1.5
 43
10.0
 44
1.5
 45
0.0
 46
0.0
 47
0.0
 48
0.0
140
3.0
141
-5.0
142
0.0
143
25.399999999999999
144
-1.0
145
0.0
146
1.0
147
1.0
 71
     0
 72
     0
 73
     0
 74
     0
 75
     0
 76
     0
 77
     1
 78
     8
170
     0
171
     0
172
     1
173
     0
174
     0
175
     0
176
   256
177
   256
178
     2
  0
DIMSTYLE
  2
BYGG-024799$0$STANDARD
 70
     0
  3

  4

  5

  6

  7

 40
1.0
 41
0.18
 42
0.0625
 43
0.38
 44
0.18
 45
0.0
 46
0.0
 47
0.0
 48
0.0
140
0.18
141
0.09
142
0.0
143
25.399999999999999
144
1.0
145
0.0
146
1.0
147
0.09
 71
     0
 72
     0
 73
     1
 74
     1
 75
     0
 76
     0
 77
     0
 78
     0
170
     0
171
     2
172
     0
173
     0
174
     0
175
     0
176
     0
177
     0
178
     0
  0
DIMSTYLE
  2
BYGG-014089$0$STANDARD
 70
     0
  3

  4

  5

  6

  7

 40
1.0
 41
0.18
 42
0.0625
 43
0.38
 44
0.18
 45
0.0
 46
0.0
 47
0.0
 48
0.0
140
0.18
141
0.09
142
0.0
143
25.399999999999999
144
1.0
145
0.0
146
1.0
147
0.09
 71
     0
 72
     0
 73
     1
 74
     1
 75
     0
 76
     0
 77
     0
 78
     0
170
     0
171
     2
172
     0
173
     0
174
     0
175
     0
176
     0
177
     0
178
     0
  0
DIMSTYLE
  2
BYGG-014108$0$STANDARD
 70
     0
  3

  4

  5

  6

  7

 40
1.0
 41
0.18
 42
0.0625
 43
0.38
 44
0.18
 45
0.0
 46
0.0
 47
0.0
 48
0.0
140
0.18
141
0.09
142
0.0
143
25.399999999999999
144
1.0
145
0.0
146
1.0
147
0.09
 71
     0
 72
     0
 73
     1
 74
     1
 75
     0
 76
     0
 77
     0
 78
     0
170
     0
171
     2
172
     0
173
     0
174
     0
175
     0
176
     0
177
     0
178
     0
  0
DIMSTYLE
  2
BYGG-019611$0$STANDARD
 70
     0
  3

  4

  5

  6

  7

 40
1.0
 41
0.18
 42
0.0625
 43
0.38
 44
0.18
 45
0.0
 46
0.0
 47
0.0
 48
0.0
140
0.18
141
0.09
142
0.0
143
25.399999999999999
144
1.0
145
0.0
146
1.0
147
0.09
 71
     0
 72
     0
 73
     1
 74
     1
 75
     0
 76
     0
 77
     0
 78
     0
170
     0
171
     2
172
     0
173
     0
174
     0
175
     0
176
     0
177
     0
178
     0
  0
DIMSTYLE
  2
BYGG-019611$0$MASKIN
 70
     0
  3

  4

  5

  6

  7

 40
0.0
 41
3.0
 42
1.5
 43
10.0
 44
1.5
 45
0.0
 46
0.0
 47
0.0
 48
0.0
140
3.0
141
-5.0
142
0.0
143
25.399999999999999
144
-1.0
145
0.0
146
1.0
147
1.0
 71
     0
 72
     0
 73
     0
 74
     0
 75
     0
 76
     0
 77
     1
 78
     8
170
     0
171
     0
172
     1
173
     0
174
     0
175
     0
176
   256
177
   256
178
     2
  0
DIMSTYLE
  2
BYGG-025652$0$STANDARD
 70
     0
  3

  4

  5

  6

  7

 40
1.0
 41
0.18
 42
0.0625
 43
0.38
 44
0.18
 45
0.0
 46
0.0
 47
0.0
 48
0.0
140
0.18
141
0.09
142
0.0
143
25.399999999999999
144
1.0
145
0.0
146
1.0
147
0.09
 71
     0
 72
     0
 73
     1
 74
     1
 75
     0
 76
     0
 77
     0
 78
     0
170
     0
171
     2
172
     0
173
     0
174
     0
175
     0
176
     0
177
     0
178
     0
  0
DIMSTYLE
  2
BYGG-025652$0$MASKIN
 70
     0
  3

  4

  5

  6

  7

 40
0.0
 41
3.0
 42
1.5
 43
10.0
 44
1.5
 45
0.0
 46
0.0
 47
0.0
 48
0.0
140
3.0
141
-5.0
142
0.0
143
25.399999999999999
144
-1.0
145
0.0
146
1.0
147
1.0
 71
     0
 72
     0
 73
     0
 74
     0
 75
     0
 76
     0
 77
     1
 78
     8
170
     0
171
     0
172
     1
173
     0
174
     0
175
     0
176
   256
177
   256
178
     2
  0
DIMSTYLE
  2
BYGG-014411$0$MASKIN
 70
     0
  3

  4

  5

  6

  7

 40
0.0
 41
3.0
 42
1.5
 43
10.0
 44
1.5
 45
0.0
 46
0.0
 47
0.0
 48
0.0
140
3.0
141
-5.0
142
0.0
143
25.399999999999999
144
-1.0
145
0.0
146
1.0
147
1.0
 71
     0
 72
     0
 73
     0
 74
     0
 75
     0
 76
     0
 77
     1
 78
     8
170
     0
171
     0
172
     1
173
     0
174
     0
175
     0
176
   256
177
   256
178
   256
  0
DIMSTYLE
  2
BYGG-014411$0$STANDARD
 70
     0
  3

  4

  5

  6

  7

 40
1.0
 41
0.18
 42
0.0625
 43
0.38
 44
0.18
 45
0.0
 46
0.0
 47
0.0
 48
0.0
140
0.18
141
0.09
142
0.0
143
25.399999999999999
144
1.0
145
0.0
146
1.0
147
0.09
 71
     0
 72
     0
 73
     1
 74
     1
 75
     0
 76
     0
 77
     0
 78
     0
170
     0
171
     2
172
     0
173
     0
174
     0
175
     0
176
     0
177
     0
178
     0
  0
ENDTAB
  0
ENDSEC
  0
SECTION
  2
BLOCKS
  0
BLOCK
  8
0
  2
$MODEL_SPACE
 70
     0
 10
0.0
 20
0.0
 30
0.0
  3
$MODEL_SPACE
  1

  0
ENDBLK
  5
37
  8
0
  0
BLOCK
 67
     1
  8
0
  2
$PAPER_SPACE
 70
     0
 10
0.0
 20
0.0
 30
0.0
  3
$PAPER_SPACE
  1

  0
ENDBLK
  5
35
 67
     1
  8
0
  0
BLOCK
  8
0
  2
*D81
 70
     1
 10
0.0
 20
0.0
 30
0.0
  3
*D81
  1

  0
LINE
  5
148A
  8
SAPA_MATT
 10
25.000000000000909
 20
-115.4999999990105
 30
0.0
 11
25.000000000000909
 21
-135.99999999901041
 31
0.0
  0
LINE
  5
148B
  8
SAPA_MATT
 10
-24.999999999999091
 20
-115.4999999990105
 30
0.0
 11
-24.999999999999091
 21
-135.99999999901041
 31
0.0
  0
LINE
  5
148C
  8
SAPA_MATT
 10
22.000000000000909
 20
-134.49999999901041
 30
0.0
 11
-21.999999999999091
 21
-134.49999999901041
 31
0.0
  0
SOLID
  5
148D
  8
SAPA_MATT
 10
22.000000000000909
 20
-133.99999999901041
 30
0.0
 11
22.000000000000909
 21
-134.99999999901041
 31
0.0
 12
25.000000000000909
 22
-134.49999999901041
 32
0.0
 13
25.000000000000909
 23
-134.49999999901041
 33
0.0
  0
SOLID
  5
148E
  8
SAPA_MATT
 10
-21.999999999999091
 20
-133.99999999901041
 30
0.0
 11
-21.999999999999091
 21
-134.99999999901041
 31
0.0
 12
-24.999999999999091
 22
-134.49999999901041
 32
0.0
 13
-24.999999999999091
 23
-134.49999999901041
 33
0.0
  0
INSERT
  5
148F
  8
0
  2
*U97
 10
0.0
 20
0.0
 30
0.0
  0
POINT
  5
1490
  8
DEFPOINTS
 62
     0
 10
25.000000000000909
 20
-113.9999999990104
 30
0.0
  0
POINT
  5
1491
  8
DEFPOINTS
 62
     0
 10
-24.999999999999091
 20
-113.9999999990104
 30
0.0
  0
POINT
  5
1492
  8
DEFPOINTS
 62
     0
 10
-24.999999999999091
 20
-134.49999999901041
 30
0.0
  0
ENDBLK
  5
143D
  8
0
  0
BLOCK
  8
0
  2
*D82
 70
     1
 10
0.0
 20
0.0
 30
0.0
  3
*D82
  1

  0
LINE
  5
1481
  8
SAPA_MATT
 10
-82.999999999943299
 20
-91.498715170683141
 30
0.0
 11
-82.999999999943299
 21
-135.99999999901041
 31
0.0
  0
LINE
  5
1482
  8
SAPA_MATT
 10
-25.000000000097859
 20
-115.4999999990105
 30
0.0
 11
-25.000000000097859
 21
-135.99999999901041
 31
0.0
  0
LINE
  5
1483
  8
SAPA_MATT
 10
-79.999999999943284
 20
-134.49999999901041
 30
0.0
 11
-28.000000000097859
 21
-134.49999999901041
 31
0.0
  0
SOLID
  5
1484
  8
SAPA_MATT
 10
-79.999999999943284
 20
-133.99999999901041
 30
0.0
 11
-79.999999999943284
 21
-134.99999999901041
 31
0.0
 12
-82.999999999943299
 22
-134.49999999901041
 32
0.0
 13
-82.999999999943299
 23
-134.49999999901041
 33
0.0
  0
SOLID
  5
1485
  8
SAPA_MATT
 10
-28.000000000097859
 20
-133.99999999901041
 30
0.0
 11
-28.000000000097859
 21
-134.99999999901041
 31
0.0
 12
-25.000000000097859
 22
-134.49999999901041
 32
0.0
 13
-25.000000000097859
 23
-134.49999999901041
 33
0.0
  0
INSERT
  5
1486
  8
0
  2
*U96
 10
0.0
 20
0.0
 30
0.0
  0
POINT
  5
1487
  8
DEFPOINTS
 62
     0
 10
-82.999999999943299
 20
-89.998715170683141
 30
0.0
  0
POINT
  5
1488
  8
DEFPOINTS
 62
     0
 10
-25.000000000097859
 20
-113.9999999990104
 30
0.0
  0
POINT
  5
1489
  8
DEFPOINTS
 62
     0
 10
-25.000000000097859
 20
-134.49999999901041
 30
0.0
  0
ENDBLK
  5
1449
  8
0
  0
BLOCK
  8
0
  2
*D83
 70
     1
 10
0.0
 20
0.0
 30
0.0
  3
*D83
  1

  0
LINE
  5
1476
  8
SAPA_MATT
 10
-82.999999999943299
 20
-91.498715170683141
 30
0.0
 11
-82.999999999943299
 21
-135.9999999990105
 31
0.0
  0
LINE
  5
1477
  8
SAPA_MATT
 10
-87.999999702178158
 20
-91.498715301570087
 30
0.0
 11
-87.999999702178158
 21
-135.9999999990105
 31
0.0
  0
LINE
  5
1478
  8
SAPA_MATT
 10
-79.999999999943284
 20
-134.4999999990105
 30
0.0
 11
-76.999999999943299
 21
-134.4999999990105
 31
0.0
  0
LINE
  5
1479
  8
SAPA_MATT
 10
-90.999999702178172
 20
-134.4999999990105
 30
0.0
 11
-93.999999702178187
 21
-134.4999999990105
 31
0.0
  0
LINE
  5
147A
  8
SAPA_MATT
 10
-82.999999999943299
 20
-134.4999999990105
 30
0.0
 11
-87.999999702178158
 21
-134.4999999990105
 31
0.0
  0
SOLID
  5
147B
  8
SAPA_MATT
 10
-79.999999999943284
 20
-133.9999999990105
 30
0.0
 11
-79.999999999943284
 21
-134.9999999990105
 31
0.0
 12
-82.999999999943299
 22
-134.4999999990105
 32
0.0
 13
-82.999999999943299
 23
-134.4999999990105
 33
0.0
  0
SOLID
  5
147C
  8
SAPA_MATT
 10
-90.999999702178172
 20
-133.9999999990105
 30
0.0
 11
-90.999999702178172
 21
-134.9999999990105
 31
0.0
 12
-87.999999702178158
 22
-134.4999999990105
 32
0.0
 13
-87.999999702178158
 23
-134.4999999990105
 33
0.0
  0
INSERT
  5
147D
  8
0
  2
*U95
 10
0.0
 20
0.0
 30
0.0
  0
POINT
  5
147E
  8
DEFPOINTS
 62
     0
 10
-82.999999999943299
 20
-89.998715170683141
 30
0.0
  0
POINT
  5
147F
  8
DEFPOINTS
 62
     0
 10
-87.999999702178158
 20
-89.998715301570087
 30
0.0
  0
POINT
  5
1480
  8
DEFPOINTS
 62
     0
 10
-87.999999702178158
 20
-134.4999999990105
 30
0.0
  0
ENDBLK
  5
1455
  8
0
  0
BLOCK
  8
0
  2
*D84
 70
     1
 10
0.0
 20
0.0
 30
0.0
  3
*D84
  1

  0
LINE
  5
146D
  8
SAPA_MATT
 10
-87.999999702178158
 20
-90.998715301570087
 30
0.0
 11
-87.999999702178158
 21
-135.9999999990105
 31
0.0
  0
LINE
  5
146E
  8
SAPA_MATT
 10
-125.4999997021782
 20
-89.000000006768303
 30
0.0
 11
-125.4999997021782
 21
-135.9999999990105
 31
0.0
  0
LINE
  5
146F
  8
SAPA_MATT
 10
-90.999999702178172
 20
-134.4999999990105
 30
0.0
 11
-122.4999997021782
 21
-134.4999999990105
 31
0.0
  0
SOLID
  5
1470
  8
SAPA_MATT
 10
-90.999999702178172
 20
-133.9999999990105
 30
0.0
 11
-90.999999702178172
 21
-134.9999999990105
 31
0.0
 12
-87.999999702178158
 22
-134.4999999990105
 32
0.0
 13
-87.999999702178158
 23
-134.4999999990105
 33
0.0
  0
SOLID
  5
1471
  8
SAPA_MATT
 10
-122.4999997021782
 20
-133.9999999990105
 30
0.0
 11
-122.4999997021782
 21
-134.9999999990105
 31
0.0
 12
-125.4999997021782
 22
-134.4999999990105
 32
0.0
 13
-125.4999997021782
 23
-134.4999999990105
 33
0.0
  0
INSERT
  5
1472
  8
0
  2
*U94
 10
0.0
 20
0.0
 30
0.0
  0
POINT
  5
1473
  8
DEFPOINTS
 62
     0
 10
-87.999999702178158
 20
-89.498715301570087
 30
0.0
  0
POINT
  5
1474
  8
DEFPOINTS
 62
     0
 10
-125.4999997021782
 20
-87.500000006768317
 30
0.0
  0
POINT
  5
1475
  8
DEFPOINTS
 62
     0
 10
-125.4999997021782
 20
-134.4999999990105
 30
0.0
  0
ENDBLK
  5
1463
  8
0
  0
BLOCK
  8
0
  2
*U85
 70
     1
 10
0.0
 20
0.0
 30
0.0
  3
*U85
  1

  0
TEXT
  5
14FD
  8
SAPA_ARTIKELNR
 10
-6.4303857324217448
 20
66.451161059970673
 30
0.0
 40
3.5
  1
68654
  7
ISO
  0
ENDBLK
  5
14FF
  8
0
  0
BLOCK
  8
0
  2
*U86
 70
     1
 10
0.0
 20
0.0
 30
0.0
  3
*U86
  1

  0
TEXT
  5
1501
  8
SAPA_ARTIKELNR
 10
-6.4303857324217448
 20
-103.9796957953224
 30
0.0
 40
3.5
  1
42848
  7
ISO
  0
ENDBLK
  5
1503
  8
0
  0
BLOCK
  8
0
  2
*U87
 70
     1
 10
0.0
 20
0.0
 30
0.0
  3
*U87
  1

  0
TEXT
  5
1505
  8
SAPA_ARTIKELNR
 10
-6.4303857324217448
 20
-119.65976634969449
 30
0.0
 40
3.5
  1
42227
  7
ISO
  0
ENDBLK
  5
1507
  8
0
  0
BLOCK
  8
0
  2
*U88
 70
     1
 10
0.0
 20
0.0
 30
0.0
  3
*U88
  1

  0
TEXT
  5
1509
  8
SAPA_ARTIKELNR
 10
-49.078680108880747
 20
-3.0965450176462421
 30
0.0
 40
3.5
  1
86201
  7
ISO
  0
ENDBLK
  5
150B
  8
0
  0
BLOCK
  8
0
  2
*U89
 70
     1
 10
0.0
 20
0.0
 30
0.0
  3
*U89
  1

  0
TEXT
  5
150D
  8
SAPA_ARTIKELNR
 10
-84.602228278897257
 20
6.6564393776040944
 30
0.0
 40
3.5
  1
86302
  7
ISO
  0
ENDBLK
  5
150F
  8
0
  0
BLOCK
  8
0
  2
*U90
 70
     1
 10
0.0
 20
0.0
 30
0.0
  3
*U90
  1

  0
SOLID
  5
2303
  8
SAPA_FOGBAND
  6
CONTINUOUS
 10
-18.614660706669842
 20
-92.382617247040926
 30
0.0
 11
-18.794938270443041
 21
-92.457290658947372
 31
0.0
 12
-18.434383142896639
 22
-92.457290658947372
 32
0.0
 13
-18.434383142896639
 23
-92.457290658947372
 33
0.0
210
0.0
220
0.0
230
1.0
  0
SOLID
  5
2304
  8
SAPA_FOGBAND
  6
CONTINUOUS
 10
-18.794938270443041
 20
-92.457290658947372
 30
0.0
 11
-18.869611682349479
 21
-92.637568222720574
 31
0.0
 12
-18.35970973099019
 22
-92.637568222720574
 32
0.0
 13
-18.35970973099019
 23
-92.637568222720574
 33
0.0
210
0.0
220
0.0
230
1.0
  0
SOLID
  5
2305
  8
SAPA_FOGBAND
  6
CONTINUOUS
 10
18.794938270443041
 20
-92.457290658947372
 30
0.0
 11
18.434383142896639
 21
-92.457290658947372
 31
0.0
 12
18.35970973099019
 22
-92.637568222720574
 32
0.0
 13
18.35970973099019
 23
-92.637568222720574
 33
0.0
210
0.0
220
0.0
230
-1.0
  0
SOLID
  5
2306
  8
SAPA_FOGBAND
  6
CONTINUOUS
 10
18.794938270443041
 20
-92.817845786493777
 30
0.0
 11
18.434383142896639
 21
-92.817845786493777
 31
0.0
 12
18.614660706669842
 22
-92.892519198400208
 32
0.0
 13
18.614660706669842
 23
-92.892519198400208
 33
0.0
210
0.0
220
0.0
230
-1.0
  0
SOLID
  5
2307
  8
SAPA_FOGBAND
  6
CONTINUOUS
 10
-18.869611682349479
 20
-92.637568222720574
 30
0.0
 11
-18.794938270443041
 21
-92.817845786493777
 31
0.0
 12
-18.434383142896639
 22
-92.817845786493777
 32
0.0
 13
-18.434383142896639
 23
-92.817845786493777
 33
0.0
210
0.0
220
0.0
230
1.0
  0
SOLID
  5
2308
  8
SAPA_FOGBAND
  6
CONTINUOUS
 10
18.869611682349479
 20
-92.637568222720574
 30
0.0
 11
18.35970973099019
 21
-92.637568222720574
 31
0.0
 12
18.434383142896639
 22
-92.817845786493777
 32
0.0
 13
18.434383142896639
 23
-92.817845786493777
 33
0.0
210
0.0
220
0.0
230
-1.0
  0
LINE
  5
2309
  8
SAPA_FOGBAND
  6
CONTINUOUS
 10
-18.614660706669842
 20
-92.382617247040926
 30
0.0
 11
-18.794938270443041
 21
-92.457290658947372
 31
0.0
  0
LINE
  5
230A
  8
SAPA_FOGBAND
  6
CONTINUOUS
 10
-18.434383142896639
 20
-92.457290658947372
 30
0.0
 11
-18.614660706669842
 21
-92.382617247040926
 31
0.0
  0
LINE
  5
230B
  8
SAPA_FOGBAND
  6
CONTINUOUS
 10
-18.794938270443041
 20
-92.457290658947372
 30
0.0
 11
-18.869611682349479
 21
-92.637568222720574
 31
0.0
  0
LINE
  5
230C
  8
SAPA_FOGBAND
  6
CONTINUOUS
 10
-18.434383142896639
 20
-92.457290658947372
 30
0.0
 11
-18.35970973099019
 21
-92.637568222720574
 31
0.0
  0
LINE
  5
230D
  8
SAPA_FOGBAND
  6
CONTINUOUS
 10
-18.434383142896639
 20
-92.817845786493777
 30
0.0
 11
-18.614660706669842
 21
-92.892519198400208
 31
0.0
  0
LINE
  5
230E
  8
SAPA_FOGBAND
  6
CONTINUOUS
 10
-18.614660706669842
 20
-92.892519198400208
 30
0.0
 11
-18.794938270443041
 21
-92.817845786493777
 31
0.0
  0
LINE
  5
230F
  8
SAPA_FOGBAND
  6
CONTINUOUS
 10
-18.869611682349479
 20
-92.637568222720574
 30
0.0
 11
-18.794938270443041
 21
-92.817845786493777
 31
0.0
  0
LINE
  5
2310
  8
SAPA_FOGBAND
  6
CONTINUOUS
 10
-18.35970973099019
 20
-92.637568222720574
 30
0.0
 11
-18.434383142896639
 21
-92.817845786493777
 31
0.0
  0
ENDBLK
  5
2312
  8
0
  0
BLOCK
  8
0
  2
*U91
 70
     1
 10
0.0
 20
0.0
 30
0.0
  3
*U91
  1

  0
SOLID
  5
23BB
  8
SAPA_FOGBAND
  6
CONTINUOUS
 10
18.629356795614282
 20
-92.773515879680275
 30
0.0
 11
18.449079231841079
 21
-92.848189291586706
 31
0.0
 12
18.809634359387481
 22
-92.848189291586706
 32
0.0
 13
18.809634359387481
 23
-92.848189291586706
 33
0.0
210
0.0
220
0.0
230
1.0
  0
SOLID
  5
23BC
  8
SAPA_FOGBAND
  6
CONTINUOUS
 10
18.449079231841079
 20
-92.848189291586706
 30
0.0
 11
18.374405819934641
 21
-93.028466855359909
 31
0.0
 12
18.884307771293919
 22
-93.028466855359909
 32
0.0
 13
18.884307771293919
 23
-93.028466855359909
 33
0.0
210
0.0
220
0.0
230
1.0
  0
SOLID
  5
23BD
  8
SAPA_FOGBAND
  6
CONTINUOUS
 10
-18.449079231841079
 20
-92.848189291586706
 30
0.0
 11
-18.809634359387481
 21
-92.848189291586706
 31
0.0
 12
-18.884307771293919
 22
-93.028466855359909
 32
0.0
 13
-18.884307771293919
 23
-93.028466855359909
 33
0.0
210
0.0
220
0.0
230
-1.0
  0
SOLID
  5
23BE
  8
SAPA_FOGBAND
  6
CONTINUOUS
 10
-18.449079231841079
 20
-93.208744419133112
 30
0.0
 11
-18.809634359387481
 21
-93.208744419133112
 31
0.0
 12
-18.629356795614282
 22
-93.283417831039543
 32
0.0
 13
-18.629356795614282
 23
-93.283417831039543
 33
0.0
210
0.0
220
0.0
230
-1.0
  0
SOLID
  5
23BF
  8
SAPA_FOGBAND
  6
CONTINUOUS
 10
18.374405819934641
 20
-93.028466855359909
 30
0.0
 11
18.449079231841079
 21
-93.208744419133112
 31
0.0
 12
18.809634359387481
 22
-93.208744419133112
 32
0.0
 13
18.809634359387481
 23
-93.208744419133112
 33
0.0
210
0.0
220
0.0
230
1.0
  0
SOLID
  5
23C0
  8
SAPA_FOGBAND
  6
CONTINUOUS
 10
-18.374405819934641
 20
-93.028466855359909
 30
0.0
 11
-18.884307771293919
 21
-93.028466855359909
 31
0.0
 12
-18.809634359387481
 22
-93.208744419133112
 32
0.0
 13
-18.809634359387481
 23
-93.208744419133112
 33
0.0
210
0.0
220
0.0
230
-1.0
  0
LINE
  5
23C1
  8
SAPA_FOGBAND
  6
CONTINUOUS
 10
18.629356795614282
 20
-92.773515879680275
 30
0.0
 11
18.449079231841079
 21
-92.848189291586706
 31
0.0
  0
LINE
  5
23C2
  8
SAPA_FOGBAND
  6
CONTINUOUS
 10
18.809634359387481
 20
-92.848189291586706
 30
0.0
 11
18.629356795614282
 21
-92.773515879680275
 31
0.0
  0
LINE
  5
23C3
  8
SAPA_FOGBAND
  6
CONTINUOUS
 10
18.449079231841079
 20
-92.848189291586706
 30
0.0
 11
18.374405819934641
 21
-93.028466855359909
 31
0.0
  0
LINE
  5
23C4
  8
SAPA_FOGBAND
  6
CONTINUOUS
 10
18.809634359387481
 20
-92.848189291586706
 30
0.0
 11
18.884307771293919
 21
-93.028466855359909
 31
0.0
  0
LINE
  5
23C5
  8
SAPA_FOGBAND
  6
CONTINUOUS
 10
18.809634359387481
 20
-93.208744419133112
 30
0.0
 11
18.629356795614282
 21
-93.283417831039543
 31
0.0
  0
LINE
  5
23C6
  8
SAPA_FOGBAND
  6
CONTINUOUS
 10
18.629356795614282
 20
-93.283417831039543
 30
0.0
 11
18.449079231841079
 21
-93.208744419133112
 31
0.0
  0
LINE
  5
23C7
  8
SAPA_FOGBAND
  6
CONTINUOUS
 10
18.374405819934641
 20
-93.028466855359909
 30
0.0
 11
18.449079231841079
 21
-93.208744419133112
 31
0.0
  0
LINE
  5
23C8
  8
SAPA_FOGBAND
  6
CONTINUOUS
 10
18.884307771293919
 20
-93.028466855359909
 30
0.0
 11
18.809634359387481
 21
-93.208744419133112
 31
0.0
  0
ENDBLK
  5
23CA
  8
0
  0
BLOCK
  8
0
  2
*U92
 70
     1
 10
0.0
 20
0.0
 30
0.0
  3
*U92
  1

  0
SOLID
  5
2504
  8
SAPA_FOGBAND
  6
CONTINUOUS
 10
-18.614660706669842
 20
-92.382617247040926
 30
0.0
 11
-18.794938270443041
 21
-92.457290658947372
 31
0.0
 12
-18.434383142896639
 22
-92.457290658947372
 32
0.0
 13
-18.434383142896639
 23
-92.457290658947372
 33
0.0
210
0.0
220
0.0
230
1.0
  0
SOLID
  5
2505
  8
SAPA_FOGBAND
  6
CONTINUOUS
 10
-18.794938270443041
 20
-92.457290658947372
 30
0.0
 11
-18.869611682349479
 21
-92.637568222720574
 31
0.0
 12
-18.35970973099019
 22
-92.637568222720574
 32
0.0
 13
-18.35970973099019
 23
-92.637568222720574
 33
0.0
210
0.0
220
0.0
230
1.0
  0
SOLID
  5
2506
  8
SAPA_FOGBAND
  6
CONTINUOUS
 10
18.794938270443041
 20
-92.457290658947372
 30
0.0
 11
18.434383142896639
 21
-92.457290658947372
 31
0.0
 12
18.35970973099019
 22
-92.637568222720574
 32
0.0
 13
18.35970973099019
 23
-92.637568222720574
 33
0.0
210
0.0
220
0.0
230
-1.0
  0
SOLID
  5
2507
  8
SAPA_FOGBAND
  6
CONTINUOUS
 10
18.794938270443041
 20
-92.817845786493777
 30
0.0
 11
18.434383142896639
 21
-92.817845786493777
 31
0.0
 12
18.614660706669842
 22
-92.892519198400208
 32
0.0
 13
18.614660706669842
 23
-92.892519198400208
 33
0.0
210
0.0
220
0.0
230
-1.0
  0
SOLID
  5
2508
  8
SAPA_FOGBAND
  6
CONTINUOUS
 10
-18.869611682349479
 20
-92.637568222720574
 30
0.0
 11
-18.794938270443041
 21
-92.817845786493777
 31
0.0
 12
-18.434383142896639
 22
-92.817845786493777
 32
0.0
 13
-18.434383142896639
 23
-92.817845786493777
 33
0.0
210
0.0
220
0.0
230
1.0
  0
SOLID
  5
2509
  8
SAPA_FOGBAND
  6
CONTINUOUS
 10
18.869611682349479
 20
-92.637568222720574
 30
0.0
 11
18.35970973099019
 21
-92.637568222720574
 31
0.0
 12
18.434383142896639
 22
-92.817845786493777
 32
0.0
 13
18.434383142896639
 23
-92.817845786493777
 33
0.0
210
0.0
220
0.0
230
-1.0
  0
LINE
  5
250A
  8
SAPA_FOGBAND
  6
CONTINUOUS
 10
-18.614660706669842
 20
-92.382617247040926
 30
0.0
 11
-18.794938270443041
 21
-92.457290658947372
 31
0.0
  0
LINE
  5
250B
  8
SAPA_FOGBAND
  6
CONTINUOUS
 10
-18.434383142896639
 20
-92.457290658947372
 30
0.0
 11
-18.614660706669842
 21
-92.382617247040926
 31
0.0
  0
LINE
  5
250C
  8
SAPA_FOGBAND
  6
CONTINUOUS
 10
-18.794938270443041
 20
-92.457290658947372
 30
0.0
 11
-18.869611682349479
 21
-92.637568222720574
 31
0.0
  0
LINE
  5
250D
  8
SAPA_FOGBAND
  6
CONTINUOUS
 10
-18.434383142896639
 20
-92.457290658947372
 30
0.0
 11
-18.35970973099019
 21
-92.637568222720574
 31
0.0
  0
LINE
  5
250E
  8
SAPA_FOGBAND
  6
CONTINUOUS
 10
-18.434383142896639
 20
-92.817845786493777
 30
0.0
 11
-18.614660706669842
 21
-92.892519198400208
 31
0.0
  0
LINE
  5
250F
  8
SAPA_FOGBAND
  6
CONTINUOUS
 10
-18.614660706669842
 20
-92.892519198400208
 30
0.0
 11
-18.794938270443041
 21
-92.817845786493777
 31
0.0
  0
LINE
  5
2510
  8
SAPA_FOGBAND
  6
CONTINUOUS
 10
-18.869611682349479
 20
-92.637568222720574
 30
0.0
 11
-18.794938270443041
 21
-92.817845786493777
 31
0.0
  0
LINE
  5
2511
  8
SAPA_FOGBAND
  6
CONTINUOUS
 10
-18.35970973099019
 20
-92.637568222720574
 30
0.0
 11
-18.434383142896639
 21
-92.817845786493777
 31
0.0
  0
ENDBLK
  5
2513
  8
0
  0
BLOCK
  8
0
  2
*U93
 70
     1
 10
0.0
 20
0.0
 30
0.0
  3
*U93
  1

  0
SOLID
  5
25BC
  8
SAPA_FOGBAND
  6
CONTINUOUS
 10
18.629356795614282
 20
-92.773515879680275
 30
0.0
 11
18.449079231841079
 21
-92.848189291586706
 31
0.0
 12
18.809634359387481
 22
-92.848189291586706
 32
0.0
 13
18.809634359387481
 23
-92.848189291586706
 33
0.0
210
0.0
220
0.0
230
1.0
  0
SOLID
  5
25BD
  8
SAPA_FOGBAND
  6
CONTINUOUS
 10
18.449079231841079
 20
-92.848189291586706
 30
0.0
 11
18.374405819934641
 21
-93.028466855359909
 31
0.0
 12
18.884307771293919
 22
-93.028466855359909
 32
0.0
 13
18.884307771293919
 23
-93.028466855359909
 33
0.0
210
0.0
220
0.0
230
1.0
  0
SOLID
  5
25BE
  8
SAPA_FOGBAND
  6
CONTINUOUS
 10
-18.449079231841079
 20
-92.848189291586706
 30
0.0
 11
-18.809634359387481
 21
-92.848189291586706
 31
0.0
 12
-18.884307771293919
 22
-93.028466855359909
 32
0.0
 13
-18.884307771293919
 23
-93.028466855359909
 33
0.0
210
0.0
220
0.0
230
-1.0
  0
SOLID
  5
25BF
  8
SAPA_FOGBAND
  6
CONTINUOUS
 10
-18.449079231841079
 20
-93.208744419133112
 30
0.0
 11
-18.809634359387481
 21
-93.208744419133112
 31
0.0
 12
-18.629356795614282
 22
-93.283417831039543
 32
0.0
 13
-18.629356795614282
 23
-93.283417831039543
 33
0.0
210
0.0
220
0.0
230
-1.0
  0
SOLID
  5
25C0
  8
SAPA_FOGBAND
  6
CONTINUOUS
 10
18.374405819934641
 20
-93.028466855359909
 30
0.0
 11
18.449079231841079
 21
-93.208744419133112
 31
0.0
 12
18.809634359387481
 22
-93.208744419133112
 32
0.0
 13
18.809634359387481
 23
-93.208744419133112
 33
0.0
210
0.0
220
0.0
230
1.0
  0
SOLID
  5
25C1
  8
SAPA_FOGBAND
  6
CONTINUOUS
 10
-18.374405819934641
 20
-93.028466855359909
 30
0.0
 11
-18.884307771293919
 21
-93.028466855359909
 31
0.0
 12
-18.809634359387481
 22
-93.208744419133112
 32
0.0
 13
-18.809634359387481
 23
-93.208744419133112
 33
0.0
210
0.0
220
0.0
230
-1.0
  0
LINE
  5
25C2
  8
SAPA_FOGBAND
  6
CONTINUOUS
 10
18.629356795614282
 20
-92.773515879680275
 30
0.0
 11
18.449079231841079
 21
-92.848189291586706
 31
0.0
  0
LINE
  5
25C3
  8
SAPA_FOGBAND
  6
CONTINUOUS
 10
18.809634359387481
 20
-92.848189291586706
 30
0.0
 11
18.629356795614282
 21
-92.773515879680275
 31
0.0
  0
LINE
  5
25C4
  8
SAPA_FOGBAND
  6
CONTINUOUS
 10
18.449079231841079
 20
-92.848189291586706
 30
0.0
 11
18.374405819934641
 21
-93.028466855359909
 31
0.0
  0
LINE
  5
25C5
  8
SAPA_FOGBAND
  6
CONTINUOUS
 10
18.809634359387481
 20
-92.848189291586706
 30
0.0
 11
18.884307771293919
 21
-93.028466855359909
 31
0.0
  0
LINE
  5
25C6
  8
SAPA_FOGBAND
  6
CONTINUOUS
 10
18.809634359387481
 20
-93.208744419133112
 30
0.0
 11
18.629356795614282
 21
-93.283417831039543
 31
0.0
  0
LINE
  5
25C7
  8
SAPA_FOGBAND
  6
CONTINUOUS
 10
18.629356795614282
 20
-93.283417831039543
 30
0.0
 11
18.449079231841079
 21
-93.208744419133112
 31
0.0
  0
LINE
  5
25C8
  8
SAPA_FOGBAND
  6
CONTINUOUS
 10
18.374405819934641
 20
-93.028466855359909
 30
0.0
 11
18.449079231841079
 21
-93.208744419133112
 31
0.0
  0
LINE
  5
25C9
  8
SAPA_FOGBAND
  6
CONTINUOUS
 10
18.884307771293919
 20
-93.028466855359909
 30
0.0
 11
18.809634359387481
 21
-93.208744419133112
 31
0.0
  0
ENDBLK
  5
25CB
  8
0
  0
BLOCK
  8
0
  2
*U94
 70
     1
 10
0.0
 20
0.0
 30
0.0
  3
*U94
  1

  0
TEXT
  5
268C
  8
SAPA_MATT
 62
     2
 10
-110.9499997021782
 20
-133.4999999990105
 30
0.0
 40
3.5
  1
37.5
  7
ISO
  0
ENDBLK
  5
268E
  8
0
  0
BLOCK
  8
0
  2
*U95
 70
     1
 10
0.0
 20
0.0
 30
0.0
  3
*U95
  1

  0
TEXT
  5
2690
  8
SAPA_MATT
 62
     2
 10
-86.72499985106073
 20
-133.4999999990105
 30
0.0
 40
3.5
  1
5
  7
ISO
  0
ENDBLK
  5
2692
  8
0
  0
BLOCK
  8
0
  2
*U96
 70
     1
 10
0.0
 20
0.0
 30
0.0
  3
*U96
  1

  0
TEXT
  5
2694
  8
SAPA_MATT
 62
     2
 10
-56.45000000002058
 20
-133.49999999901041
 30
0.0
 40
3.5
  1
58
  7
ISO
  0
ENDBLK
  5
2696
  8
0
  0
BLOCK
  8
0
  2
*U97
 70
     1
 10
0.0
 20
0.0
 30
0.0
  3
*U97
  1

  0
TEXT
  5
2698
  8
SAPA_MATT
 62
     2
 10
-2.4499999999990911
 20
-133.49999999901041
 30
0.0
 40
3.5
  1
50
  7
ISO
  0
ENDBLK
  5
269A
  8
0
  0
ENDSEC
  0
SECTION
  2
ENTITIES
  0
POLYLINE
  5
7C4
  8
SAPA_LIGHT
 66
     1
 10
0.0
 20
0.0
 30
0.0
  0
VERTEX
  5
14C4
  8
SAPA_LIGHT
 10
40.999999999996128
 20
-48.499999999010129
 30
0.0
  0
VERTEX
  5
14C5
  8
SAPA_LIGHT
 10
10.999999999996129
 20
-48.499999999010129
 30
0.0
  0
VERTEX
  5
14C6
  8
SAPA_LIGHT
 10
10.999999999995911
 20
-90.499999999011735
 30
0.0
  0
VERTEX
  5
14C7
  8
SAPA_LIGHT
 10
40.999999999995907
 20
-90.499999999011735
 30
0.0
  0
SEQEND
  5
14C8
  8
SAPA_LIGHT
  0
POLYLINE
  5
7C5
  8
SAPA_LIGHT
 66
     1
 10
0.0
 20
0.0
 30
0.0
 70
     1
  0
VERTEX
  5
14C9
  8
SAPA_LIGHT
 10
24.999999999999829
 20
-48.499999999010129
 30
0.0
  0
VERTEX
  5
14CA
  8
SAPA_LIGHT
 10
25.000000000000231
 20
64.499999999998863
 30
0.0
  0
VERTEX
  5
14CB
  8
SAPA_LIGHT
 10
-24.999999999999769
 20
64.499999999998863
 30
0.0
  0
VERTEX
  5
14CC
  8
SAPA_LIGHT
 10
-24.999999999999201
 20
-48.4999999990182
 30
0.0
  0
VERTEX
  5
14CD
  8
SAPA_LIGHT
 10
-4.9999999999997717
 20
-48.499999999002277
 30
0.0
  0
VERTEX
  5
14CE
  8
SAPA_LIGHT
 10
-4.9999999999996021
 20
-90.499999999011777
 30
0.0
  0
VERTEX
  5
14CF
  8
SAPA_LIGHT
 10
-24.999999999836749
 20
-90.499999999208171
 30
0.0
  0
VERTEX
  5
14D0
  8
SAPA_LIGHT
 10
-24.999999999999091
 20
-114.4999999990105
 30
0.0
  0
VERTEX
  5
14D1
  8
SAPA_LIGHT
 10
25.000000000000909
 20
-114.4999999990105
 30
0.0
  0
VERTEX
  5
14D2
  8
SAPA_LIGHT
 10
25.0
 20
-90.499999999011735
 30
0.0
  0
VERTEX
  5
14D3
  8
SAPA_LIGHT
 10
5.0000000000004539
 20
-90.499999999011735
 30
0.0
  0
VERTEX
  5
14D4
  8
SAPA_LIGHT
 10
5.0000000000002274
 20
-48.499999999010129
 30
0.0
  0
SEQEND
  5
14D5
  8
SAPA_LIGHT
  0
POLYLINE
  5
7C6
  8
SAPA_LIGHT
 66
     1
 10
0.0
 20
0.0
 30
0.0
  0
VERTEX
  5
14D6
  8
SAPA_LIGHT
 10
-74.499999999966576
 20
-90.500000003728076
 30
0.0
  0
VERTEX
  5
14D7
  8
SAPA_LIGHT
 10
-11.862517060944009
 20
-90.500000002721535
 30
0.0
  0
VERTEX
  5
14D8
  8
SAPA_LIGHT
 10
-11.862517060944009
 20
-48.494512004128808
 30
0.0
  0
VERTEX
  5
14D9
  8
SAPA_LIGHT
 10
-30.199999999999591
 20
-48.505487993891677
 30
0.0
  0
VERTEX
  5
14DA
  8
SAPA_LIGHT
 10
-29.99999999999898
 20
-19.388616438581089
 30
0.0
  0
VERTEX
  5
14DB
  8
SAPA_LIGHT
 10
-29.968745704598629
 20
-16.500000006903122
 30
0.0
  0
VERTEX
  5
14DC
  8
SAPA_LIGHT
 10
-52.499999999998863
 20
-16.500000006903122
 30
0.0
  0
VERTEX
  5
14DD
  8
SAPA_LIGHT
 10
-52.499999999998749
 20
-85.050000007505105
 30
0.0
  0
VERTEX
  5
14DE
  8
SAPA_LIGHT
 10
-74.500000000177579
 20
-85.050000007505105
 30
0.0
  0
VERTEX
  5
14DF
  8
SAPA_LIGHT
 10
-74.500000000103896
 20
-90.500000003728076
 30
0.0
  0
SEQEND
  5
14E0
  8
SAPA_LIGHT
  0
POLYLINE
  5
7C8
  8
SAPA_LIGHT
 66
     1
 10
0.0
 20
0.0
 30
0.0
  0
VERTEX
  5
14E1
  8
SAPA_LIGHT
 10
-135.5000000030644
 20
-39.550000085492456
 30
0.0
  0
VERTEX
  5
14E2
  8
SAPA_LIGHT
 10
-105.5000000030644
 20
-39.550000085492456
 30
0.0
  0
VERTEX
  5
14E3
  8
SAPA_LIGHT
 10
-105.5000000030639
 20
-81.550000085463935
 30
0.0
  0
VERTEX
  5
14E4
  8
SAPA_LIGHT
 10
-135.50000000306389
 20
-81.550000085463935
 30
0.0
  0
SEQEND
  5
14E5
  8
SAPA_LIGHT
  0
POLYLINE
  5
7E8
  8
SAPA_LIGHT
 66
     1
 10
0.0
 20
0.0
 30
0.0
 70
     1
  0
VERTEX
  5
14E6
  8
SAPA_LIGHT
 10
-100.5000000030642
 20
-16.767949203567749
 30
0.0
  0
VERTEX
  5
14E7
  8
SAPA_LIGHT
 10
-100.5000000030642
 20
-18.000000005793421
 30
0.0
  0
VERTEX
  5
14E8
  8
SAPA_LIGHT
 10
-122.5000000030779
 20
-18.000000005793421
 30
0.0
  0
VERTEX
  5
14E9
  8
SAPA_LIGHT
 10
-122.5000000030779
 20
-39.550000085494617
 30
0.0
  0
VERTEX
  5
14EA
  8
SAPA_LIGHT
 10
-100.1948776362608
 20
-39.550000085494617
 30
0.0
  0
VERTEX
  5
14EB
  8
SAPA_LIGHT
 10
-100.1948776362608
 20
-81.550000085463935
 30
0.0
  0
VERTEX
  5
14EC
  8
SAPA_LIGHT
 10
-122.5000000032433
 20
-81.550000085463978
 30
0.0
  0
VERTEX
  5
14ED
  8
SAPA_LIGHT
 10
-122.5000000030314
 20
-90.500000007534254
 30
0.0
  0
VERTEX
  5
14EE
  8
SAPA_LIGHT
 10
-79.499999999967372
 20
-90.500000007521635
 30
0.0
  0
VERTEX
  5
14EF
  8
SAPA_LIGHT
 10
-79.499999999967372
 20
-85.050000007505034
 30
0.0
  0
VERTEX
  5
14F0
  8
SAPA_LIGHT
 10
-72.500000000041723
 20
-85.050000007505105
 30
0.0
  0
VERTEX
  5
14F1
  8
SAPA_LIGHT
 10
-72.500000000041723
 20
-71.853716961445798
 30
0.0
  0
VERTEX
  5
14F2
  8
SAPA_LIGHT
 10
-66.500000000041496
 20
-71.853716961445855
 30
0.0
  0
VERTEX
  5
14F3
  8
SAPA_LIGHT
 10
-66.50000000004195
 20
-38.500000010612503
 30
0.0
  0
VERTEX
  5
14F4
  8
SAPA_LIGHT
 10
-64.000000000042405
 20
-38.500000010612503
 30
0.0
  0
VERTEX
  5
14F5
  8
SAPA_LIGHT
 10
-64.000000000042405
 20
-16.500000006903122
 30
0.0
  0
VERTEX
  5
14F6
  8
SAPA_LIGHT
 10
-46.50000000004195
 20
-16.500000006903122
 30
0.0
  0
VERTEX
  5
14F7
  8
SAPA_LIGHT
 10
-46.50000000004195
 20
-7.0000000024177211
 30
0.0
  0
VERTEX
  5
14F8
  8
SAPA_LIGHT
 10
-89.241941785629706
 20
-7.0000000071514128
 30
0.0
  0
VERTEX
  5
14F9
  8
SAPA_LIGHT
 10
-97.901828296234044
 20
-11.999834608119039
 30
0.0
  0
VERTEX
  5
14FA
  8
SAPA_LIGHT
 10
-100.36602540684849
 20
-16.267949203567468
 30
0.0
  0
SEQEND
  5
14FB
  8
SAPA_LIGHT
  0
INSERT
  5
7F5
  8
0
  2
*U85
 10
0.0
 20
0.0
 30
0.0
  0
INSERT
  5
7F6
  8
0
  2
*U86
 10
0.0
 20
0.0
 30
0.0
  0
INSERT
  5
7F7
  8
0
  2
*U87
 10
0.0
 20
0.0
 30
0.0
  0
INSERT
  5
BD7
  8
0
  2
*U88
 10
0.0
 20
0.0
 30
0.0
  0
INSERT
  5
BD8
  8
0
  2
*U89
 10
0.0
 20
0.0
 30
0.0
  0
POLYLINE
  5
1389
  8
SAPA_PROFIL
 66
     1
 10
0.0
 20
0.0
 30
0.0
 70
     1
  0
VERTEX
  5
1B2C
  8
SAPA_PROFIL
 10
-103.9953758136035
 20
-7.3939031363878476
 30
0.0
  0
VERTEX
  5
1B2D
  8
SAPA_PROFIL
 10
-103.9953758136035
 20
-7.6364470742349786
 30
0.0
 42
0.2011813370902256
  0
VERTEX
  5
1B2E
  8
SAPA_PROFIL
 10
-103.9355576664634
 20
-7.7790971640655471
 30
0.0
  0
VERTEX
  5
1B2F
  8
SAPA_PROFIL
 10
-103.0088103077337
 20
-8.6898092570894505
 30
0.0
  0
VERTEX
  5
1B30
  8
SAPA_PROFIL
 10
-101.4953758136017
 20
-8.6766017143462477
 30
0.0
 42
-0.4931454260356012
  0
VERTEX
  5
1B31
  8
SAPA_PROFIL
 10
-99.924110853363857
 20
-8.4557748252985903
 30
0.0
  0
VERTEX
  5
1B32
  8
SAPA_PROFIL
 10
-98.856461016539541
 20
-9.5049513979113822
 30
0.0
 42
-0.6681786379164681
  0
VERTEX
  5
1B33
  8
SAPA_PROFIL
 10
-98.99782989699321
 20
-9.8548516553963168
 30
0.0
  0
VERTEX
  5
1B34
  8
SAPA_PROFIL
 10
-103.4953758136035
 20
-9.8941011439936233
 30
0.0
  0
VERTEX
  5
1B35
  8
SAPA_PROFIL
 10
-105.60946866519321
 20
-7.8165878847638623
 30
0.0
 42
0.2038501166358263
  0
VERTEX
  5
1B36
  8
SAPA_PROFIL
 10
-105.97377544461099
 20
-7.6734050281578439
 30
0.0
  0
VERTEX
  5
1B37
  8
SAPA_PROFIL
 10
-121.0784886972054
 20
-8.0920311374467246
 30
0.0
 42
0.4061212134736873
  0
VERTEX
  5
1B38
  8
SAPA_PROFIL
 10
-123.99537581359699
 20
-11.09087962454617
 30
0.0
  0
VERTEX
  5
1B39
  8
SAPA_PROFIL
 10
-123.99537581359699
 20
-22.875070868014241
 30
0.0
 42
0.4142135623730951
  0
VERTEX
  5
1B3A
  8
SAPA_PROFIL
 10
-123.49537581359699
 20
-23.37507086801423
 30
0.0
  0
VERTEX
  5
1B3B
  8
SAPA_PROFIL
 10
-111.9095893759719
 20
-23.37507086801423
 30
0.0
 42
0.198912367379658
  0
VERTEX
  5
1B3C
  8
SAPA_PROFIL
 10
-111.20248259478539
 20
-23.082177649200791
 30
0.0
  0
VERTEX
  5
1B3D
  8
SAPA_PROFIL
 10
-110.82188382139481
 20
-22.701578875810299
 30
0.0
 42
-0.1830252782112529
  0
VERTEX
  5
1B3E
  8
SAPA_PROFIL
 10
-109.5302160126635
 20
-22.119550334062691
 30
0.0
  0
VERTEX
  5
1B3F
  8
SAPA_PROFIL
 10
-99.097143983857734
 20
-21.396485606732139
 30
0.0
 42
-0.668178637923616
  0
VERTEX
  5
1B40
  8
SAPA_PROFIL
 10
-98.883761664324155
 20
-21.911636096521139
 30
0.0
  0
VERTEX
  5
1B41
  8
SAPA_PROFIL
 10
-100.8832437792467
 20
-23.911118211443689
 30
0.0
 42
-0.7332303362588345
  0
VERTEX
  5
1B42
  8
SAPA_PROFIL
 10
-101.39081813950639
 20
-23.646891723786499
 30
0.0
  0
VERTEX
  5
1B43
  8
SAPA_PROFIL
 10
-101.2822340287203
 20
-23.03108063038809
 30
0.0
 42
0.4663076581593561
  0
VERTEX
  5
1B44
  8
SAPA_PROFIL
 10
-101.5776763546237
 20
-22.678986177087889
 30
0.0
  0
VERTEX
  5
1B45
  8
SAPA_PROFIL
 10
-109.337153479976
 20
-23.410145798968362
 30
0.0
 42
0.183025278211264
  0
VERTEX
  5
1B46
  8
SAPA_PROFIL
 10
-109.9829873843417
 20
-23.70116006984216
 30
0.0
  0
VERTEX
  5
1B47
  8
SAPA_PROFIL
 10
-110.3711117448867
 20
-24.089284430387181
 30
0.0
 42
-0.1989123673796518
  0
VERTEX
  5
1B48
  8
SAPA_PROFIL
 10
-111.7853253072597
 20
-24.675070868014078
 30
0.0
  0
VERTEX
  5
1B49
  8
SAPA_PROFIL
 10
-123.1953758136125
 20
-24.675070868014188
 30
0.0
 42
0.4142135623732283
  0
VERTEX
  5
1B4A
  8
SAPA_PROFIL
 10
-123.6953758136125
 20
-25.175070868014419
 30
0.0
  0
VERTEX
  5
1B4B
  8
SAPA_PROFIL
 10
-123.69537581361161
 20
-26.375070868013779
 30
0.0
 42
-0.4142135623732062
  0
VERTEX
  5
1B4C
  8
SAPA_PROFIL
 10
-123.9953758136116
 20
-26.675070868013851
 30
0.0
  0
VERTEX
  5
1B4D
  8
SAPA_PROFIL
 10
-125.195375813597
 20
-26.675070868014188
 30
0.0
 42
-0.4142135623716247
  0
VERTEX
  5
1B4E
  8
SAPA_PROFIL
 10
-125.49537581359709
 20
-26.37507086801287
 30
0.0
  0
VERTEX
  5
1B4F
  8
SAPA_PROFIL
 10
-125.49537581361059
 20
-6.3986631256908586
 30
0.0
 42
-0.4142135623732938
  0
VERTEX
  5
1B50
  8
SAPA_PROFIL
 10
-125.2953758136106
 20
-6.198663125690814
 30
0.0
  0
VERTEX
  5
1B51
  8
SAPA_PROFIL
 10
-103.6999996999248
 20
-6.198663125690814
 30
0.0
 42
-0.4210020197690384
  0
VERTEX
  5
1B52
  8
SAPA_PROFIL
 10
-103.4953758136035
 20
-6.3986096677348314
 30
0.0
  0
VERTEX
  5
1B53
  8
SAPA_PROFIL
 10
-103.49537581359699
 20
-6.9865928309303618
 30
0.0
  0
VERTEX
  5
1B54
  8
SAPA_PROFIL
 10
-103.795375813597
 20
-6.9865928309303618
 30
0.0
 42
0.41421356237322
  0
VERTEX
  5
1B55
  8
SAPA_PROFIL
 10
-103.99537581359689
 20
-7.1865928309304081
 30
0.0
  0
VERTEX
  5
1B56
  8
SAPA_PROFIL
 10
-103.99537581359699
 20
-7.4037705964000224
 30
0.0
  0
SEQEND
  5
1B57
  8
SAPA_PROFIL
  0
POLYLINE
  5
138A
  8
SAPA_PROFIL
 66
     1
 10
0.0
 20
0.0
 30
0.0
 70
     1
  0
VERTEX
  5
1B58
  8
SAPA_PROFIL
 10
-77.988496464589389
 20
-29.228798412881599
 30
0.0
  0
VERTEX
  5
1B59
  8
SAPA_PROFIL
 10
-78.140630375698166
 20
-28.944116129649949
 30
0.0
 42
-0.5773502691897463
  0
VERTEX
  5
1B5A
  8
SAPA_PROFIL
 10
-77.957676635587973
 20
-28.64995982939514
 30
0.0
  0
VERTEX
  5
1B5B
  8
SAPA_PROFIL
 10
-77.635918907369714
 20
-28.660521195622099
 30
0.0
  0
VERTEX
  5
1B5C
  8
SAPA_PROFIL
 10
-76.551354460397988
 20
-26.77467750376104
 30
0.0
  0
VERTEX
  5
1B5D
  8
SAPA_PROFIL
 10
-76.493280823408909
 20
-26.58329450376732
 30
0.0
 42
0.7625858545243257
  0
VERTEX
  5
1B5E
  8
SAPA_PROFIL
 10
-76.823606904425901
 20
-26.398715301569862
 30
0.0
 42
-0.2134217652834389
  0
VERTEX
  5
1B5F
  8
SAPA_PROFIL
 10
-77.047213702176023
 20
-26.49871530156998
 30
0.0
  0
VERTEX
  5
1B60
  8
SAPA_PROFIL
 10
-80.899999702176004
 20
-26.49871530156998
 30
0.0
 42
0.4142139999998963
  0
VERTEX
  5
1B61
  8
SAPA_PROFIL
 10
-81.199999702176015
 20
-26.79871530157002
 30
0.0
  0
VERTEX
  5
1B62
  8
SAPA_PROFIL
 10
-81.199999702176015
 20
-27.098715301569971
 30
0.0
  0
VERTEX
  5
1B63
  8
SAPA_PROFIL
 10
-80.276239702175971
 20
-28.698715301569951
 30
0.0
 42
-0.5773500000002674
  0
VERTEX
  5
1B64
  8
SAPA_PROFIL
 10
-80.449444702176066
 20
-28.998715301570009
 30
0.0
  0
VERTEX
  5
1B65
  8
SAPA_PROFIL
 10
-81.835085702176016
 20
-28.998715301570009
 30
0.0
 42
-0.267949000000023
  0
VERTEX
  5
1B66
  8
SAPA_PROFIL
 10
-82.701110702176052
 20
-28.498715301570009
 30
0.0
  0
VERTEX
  5
1B67
  8
SAPA_PROFIL
 10
-83.711473702176036
 20
-26.74871530156998
 30
0.0
 42
0.2679489999999919
  0
VERTEX
  5
1B68
  8
SAPA_PROFIL
 10
-84.144486702176053
 20
-26.49871530156998
 30
0.0
  0
VERTEX
  5
1B69
  8
SAPA_PROFIL
 10
-94.155513702176023
 20
-26.49871530156998
 30
0.0
 42
0.2679490000000193
  0
VERTEX
  5
1B6A
  8
SAPA_PROFIL
 10
-94.58852670217604
 20
-26.74871530156998
 30
0.0
  0
VERTEX
  5
1B6B
  8
SAPA_PROFIL
 10
-95.598889702176024
 20
-28.498715301569991
 30
0.0
 42
-0.2679490000000211
  0
VERTEX
  5
1B6C
  8
SAPA_PROFIL
 10
-96.46491470217606
 20
-28.998715301570002
 30
0.0
  0
VERTEX
  5
1B6D
  8
SAPA_PROFIL
 10
-97.850555702176024
 20
-28.998715301570002
 30
0.0
 42
-0.5773499999999721
  0
VERTEX
  5
1B6E
  8
SAPA_PROFIL
 10
-98.023760702176034
 20
-28.69871530156999
 30
0.0
  0
VERTEX
  5
1B6F
  8
SAPA_PROFIL
 10
-97.099999702176063
 20
-27.098715301569971
 30
0.0
  0
VERTEX
  5
1B70
  8
SAPA_PROFIL
 10
-97.099999702176063
 20
-26.79871530157002
 30
0.0
 42
0.4142139999999657
  0
VERTEX
  5
1B71
  8
SAPA_PROFIL
 10
-97.399999702176032
 20
-26.49871530156998
 30
0.0
  0
VERTEX
  5
1B72
  8
SAPA_PROFIL
 10
-101.252786702176
 20
-26.49871530157009
 30
0.0
 42
-0.2134217652834387
  0
VERTEX
  5
1B73
  8
SAPA_PROFIL
 10
-101.4763934999262
 20
-26.39871530156995
 30
0.0
 42
0.7625858545243244
  0
VERTEX
  5
1B74
  8
SAPA_PROFIL
 10
-101.8067195809431
 20
-26.583294503767441
 30
0.0
  0
VERTEX
  5
1B75
  8
SAPA_PROFIL
 10
-101.748645943954
 20
-26.774677503761151
 30
0.0
  0
VERTEX
  5
1B76
  8
SAPA_PROFIL
 10
-100.66408149698231
 20
-28.660521195622209
 30
0.0
  0
VERTEX
  5
1B77
  8
SAPA_PROFIL
 10
-100.342323768764
 20
-28.649959829395229
 30
0.0
 42
-0.5773502691897466
  0
VERTEX
  5
1B78
  8
SAPA_PROFIL
 10
-100.1593700286539
 20
-28.94411612965007
 30
0.0
  0
VERTEX
  5
1B79
  8
SAPA_PROFIL
 10
-100.3115039397626
 20
-29.22879841288173
 30
0.0
 42
-0.2216946626430191
  0
VERTEX
  5
1B7A
  8
SAPA_PROFIL
 10
-100.8523837712394
 20
-29.634607318036501
 30
0.0
  0
VERTEX
  5
1B7B
  8
SAPA_PROFIL
 10
-102.6656142418977
 20
-30.016053914164221
 30
0.0
 42
-0.4769755326981641
  0
VERTEX
  5
1B7C
  8
SAPA_PROFIL
 10
-103.0372711168435
 20
-29.71380108965775
 30
0.0
  0
VERTEX
  5
1B7D
  8
SAPA_PROFIL
 10
-103.0371875089599
 20
-28.210700008895738
 30
0.0
  0
VERTEX
  5
1B7E
  8
SAPA_PROFIL
 10
-102.9893417589614
 20
-28.196181599648639
 30
0.0
 42
0.4142135623730953
  0
VERTEX
  5
1B7F
  8
SAPA_PROFIL
 10
-102.78937771445401
 20
-27.821996644172831
 30
0.0
  0
VERTEX
  5
1B80
  8
SAPA_PROFIL
 10
-103.299999702176
 20
-26.50088122673866
 30
0.0
  0
VERTEX
  5
1B81
  8
SAPA_PROFIL
 10
-103.299999702176
 20
-26.49871530156997
 30
0.0
  0
VERTEX
  5
1B82
  8
SAPA_PROFIL
 10
-103.299999702176
 20
-23.506230301569971
 30
0.0
 42
-0.2596809999999277
  0
VERTEX
  5
1B83
  8
SAPA_PROFIL
 10
-103.205306702176
 20
-23.336199301569991
 30
0.0
  0
VERTEX
  5
1B84
  8
SAPA_PROFIL
 10
-101.957960702176
 20
-22.54366830156998
 30
0.0
 42
-0.5877030000000004
  0
VERTEX
  5
1B85
  8
SAPA_PROFIL
 10
-101.499999702176
 20
-22.798715301570009
 30
0.0
  0
VERTEX
  5
1B86
  8
SAPA_PROFIL
 10
-101.499999702176
 20
-24.19871530156999
 30
0.0
 42
0.4142135623731089
  0
VERTEX
  5
1B87
  8
SAPA_PROFIL
 10
-101.199999702176
 20
-24.49871530156997
 30
0.0
  0
VERTEX
  5
1B88
  8
SAPA_PROFIL
 10
-98.799999702176052
 20
-24.49871530156997
 30
0.0
 42
0.4142135623731088
  0
VERTEX
  5
1B89
  8
SAPA_PROFIL
 10
-98.499999702176041
 20
-24.198715301570001
 30
0.0
  0
VERTEX
  5
1B8A
  8
SAPA_PROFIL
 10
-98.499999702176027
 20
-18.398715301570039
 30
0.0
  0
VERTEX
  5
1B8B
  8
SAPA_PROFIL
 10
-98.499999702176027
 20
-16.398715301570039
 30
0.0
  0
VERTEX
  5
1B8C
  8
SAPA_PROFIL
 10
-98.499999702176027
 20
-6.7987153015700068
 30
0.0
 42
0.4142139999999172
  0
VERTEX
  5
1B8D
  8
SAPA_PROFIL
 10
-98.799999702176024
 20
-6.4987153015700097
 30
0.0
  0
VERTEX
  5
1B8E
  8
SAPA_PROFIL
 10
-101.199999702176
 20
-6.4987153015700097
 30
0.0
 42
0.4142139999999103
  0
VERTEX
  5
1B8F
  8
SAPA_PROFIL
 10
-101.499999702176
 20
-6.7987153015700068
 30
0.0
  0
VERTEX
  5
1B90
  8
SAPA_PROFIL
 10
-101.499999702176
 20
-8.1987153015699921
 30
0.0
 42
-0.5877030000000132
  0
VERTEX
  5
1B91
  8
SAPA_PROFIL
 10
-101.957960702176
 20
-8.4537613015699922
 30
0.0
  0
VERTEX
  5
1B92
  8
SAPA_PROFIL
 10
-103.40530670217601
 20
-7.5573623015699818
 30
0.0
 42
-0.259681000000005
  0
VERTEX
  5
1B93
  8
SAPA_PROFIL
 10
-103.499999702176
 20
-7.3873313015700228
 30
0.0
  0
VERTEX
  5
1B94
  8
SAPA_PROFIL
 10
-103.499999702176
 20
-4.7666643015699757
 30
0.0
 42
-0.1316520000000017
  0
VERTEX
  5
1B95
  8
SAPA_PROFIL
 10
-103.366025702176
 20
-4.2666643015699686
 30
0.0
  0
VERTEX
  5
1B96
  8
SAPA_PROFIL
 10
-98.88119770217601
 20
3.5012846984300321
 30
0.0
 42
-0.267948999999994
  0
VERTEX
  5
1B97
  8
SAPA_PROFIL
 10
-96.283121702176018
 20
5.001284698430017
 30
0.0
  0
VERTEX
  5
1B98
  8
SAPA_PROFIL
 10
-57.999999702176012
 20
5.0012846984299912
 30
0.0
 42
-0.4142140000000114
  0
VERTEX
  5
1B99
  8
SAPA_PROFIL
 10
-54.999999702176012
 20
2.0012846984300121
 30
0.0
  0
VERTEX
  5
1B9A
  8
SAPA_PROFIL
 10
-54.999999702175927
 20
1.5012846984300121
 30
0.0
 42
-0.4241420000000259
  0
VERTEX
  5
1B9B
  8
SAPA_PROFIL
 10
-56.03377270217603
 20
0.5018556984300419
 30
0.0
 42
-0.2988660000000032
  0
VERTEX
  5
1B9C
  8
SAPA_PROFIL
 10
-56.971052702175967
 20
1.0727136984300361
 30
0.0
 42
-0.55075999999996
  0
VERTEX
  5
1B9D
  8
SAPA_PROFIL
 10
-56.699999702176022
 20
1.5012846984300121
 30
0.0
  0
VERTEX
  5
1B9E
  8
SAPA_PROFIL
 10
-56.399999702175997
 20
1.5012846984300121
 30
0.0
 42
0.4142139999998339
  0
VERTEX
  5
1B9F
  8
SAPA_PROFIL
 10
-56.199999702176022
 20
1.7012846984299861
 30
0.0
  0
VERTEX
  5
1BA0
  8
SAPA_PROFIL
 10
-56.199999702176022
 20
2.0012846984300192
 30
0.0
 42
0.4142139999999946
  0
VERTEX
  5
1BA1
  8
SAPA_PROFIL
 10
-57.999999702176012
 20
3.8012846984300239
 30
0.0
  0
VERTEX
  5
1BA2
  8
SAPA_PROFIL
 10
-58.699999702176022
 20
3.8012846984300239
 30
0.0
 42
0.4142139999999852
  0
VERTEX
  5
1BA3
  8
SAPA_PROFIL
 10
-60.499999702176012
 20
2.001284698430013
 30
0.0
  0
VERTEX
  5
1BA4
  8
SAPA_PROFIL
 10
-60.499999702176012
 20
1.701284698429987
 30
0.0
 42
0.4142139999998025
  0
VERTEX
  5
1BA5
  8
SAPA_PROFIL
 10
-60.299999702176017
 20
1.5012846984300121
 30
0.0
  0
VERTEX
  5
1BA6
  8
SAPA_PROFIL
 10
-59.999999702176012
 20
1.5012846984299979
 30
0.0
 42
-0.5507599999999105
  0
VERTEX
  5
1BA7
  8
SAPA_PROFIL
 10
-59.728947702175958
 20
1.0727136984299861
 30
0.0
 42
-0.2988660000000063
  0
VERTEX
  5
1BA8
  8
SAPA_PROFIL
 10
-60.666227702176002
 20
0.5018556984299574
 30
0.0
 42
-0.4241419999999882
  0
VERTEX
  5
1BA9
  8
SAPA_PROFIL
 10
-61.699999702176022
 20
1.501284698430013
 30
0.0
  0
VERTEX
  5
1BAA
  8
SAPA_PROFIL
 10
-61.699999702176022
 20
2.8012846984300168
 30
0.0
 42
0.4142140000000128
  0
VERTEX
  5
1BAB
  8
SAPA_PROFIL
 10
-62.699999702176008
 20
3.8012846984300239
 30
0.0
  0
VERTEX
  5
1BAC
  8
SAPA_PROFIL
 10
-76.527928702176055
 20
3.0276946984299991
 30
0.0
 42
0.3979379999999925
  0
VERTEX
  5
1BAD
  8
SAPA_PROFIL
 10
-76.999999702176027
 20
2.5284756984300172
 30
0.0
  0
VERTEX
  5
1BAE
  8
SAPA_PROFIL
 10
-76.999999702176027
 20
-1.9987153015699839
 30
0.0
 42
0.4142140000000251
  0
VERTEX
  5
1BAF
  8
SAPA_PROFIL
 10
-76.499999702176027
 20
-2.4987153015699839
 30
0.0
  0
VERTEX
  5
1BB0
  8
SAPA_PROFIL
 10
-72.999999702176027
 20
-2.4987153015699848
 30
0.0
 42
-0.4142140000000128
  0
VERTEX
  5
1BB1
  8
SAPA_PROFIL
 10
-72.499999702176027
 20
-2.9987153015699848
 30
0.0
  0
VERTEX
  5
1BB2
  8
SAPA_PROFIL
 10
-72.499999702176012
 20
-6.6987153015700018
 30
0.0
 42
-0.4142139999999104
  0
VERTEX
  5
1BB3
  8
SAPA_PROFIL
 10
-72.799999702176038
 20
-6.9987153015700061
 30
0.0
  0
VERTEX
  5
1BB4
  8
SAPA_PROFIL
 10
-73.699999702176015
 20
-6.9987153015700061
 30
0.0
 42
-0.4142139999999101
  0
VERTEX
  5
1BB5
  8
SAPA_PROFIL
 10
-73.999999702176027
 20
-6.6987153015700018
 30
0.0
  0
VERTEX
  5
1BB6
  8
SAPA_PROFIL
 10
-73.999999702176027
 20
-4.6987153015699743
 30
0.0
 42
0.4142139999999691
  0
VERTEX
  5
1BB7
  8
SAPA_PROFIL
 10
-74.199999702176015
 20
-4.4987153015699848
 30
0.0
  0
VERTEX
  5
1BB8
  8
SAPA_PROFIL
 10
-76.999999702176027
 20
-4.498715301569983
 30
0.0
 42
0.577350269189605
  0
VERTEX
  5
1BB9
  8
SAPA_PROFIL
 10
-77.173204782932899
 20
-4.7987153015699882
 30
0.0
  0
VERTEX
  5
1BBA
  8
SAPA_PROFIL
 10
-76.999999702176027
 20
-5.0987153015699924
 30
0.0
  0
VERTEX
  5
1BBB
  8
SAPA_PROFIL
 10
-76.999999702175955
 20
-8.8937153015700154
 30
0.0
 42
-0.414213999999992
  0
VERTEX
  5
1BBC
  8
SAPA_PROFIL
 10
-77.499999702176027
 20
-9.3937153015700154
 30
0.0
  0
VERTEX
  5
1BBD
  8
SAPA_PROFIL
 10
-78.199999702176015
 20
-9.3937153015700154
 30
0.0
 42
0.4142139999998548
  0
VERTEX
  5
1BBE
  8
SAPA_PROFIL
 10
-78.499999702176027
 20
-9.6937153015699629
 30
0.0
  0
VERTEX
  5
1BBF
  8
SAPA_PROFIL
 10
-78.499999702176027
 20
-14.87409930156997
 30
0.0
  0
VERTEX
  5
1BC0
  8
SAPA_PROFIL
 10
-78.799999702176024
 20
-15.39371530157001
 30
0.0
  0
VERTEX
  5
1BC1
  8
SAPA_PROFIL
 10
-78.499999702176027
 20
-15.913330301569991
 30
0.0
  0
VERTEX
  5
1BC2
  8
SAPA_PROFIL
 10
-78.499999702176027
 20
-21.093715301570001
 30
0.0
 42
0.4142140000000351
  0
VERTEX
  5
1BC3
  8
SAPA_PROFIL
 10
-78.199999702176015
 20
-21.393715301570008
 30
0.0
  0
VERTEX
  5
1BC4
  8
SAPA_PROFIL
 10
-77.499999702176027
 20
-21.393715301569959
 30
0.0
 42
-0.4142140000000461
  0
VERTEX
  5
1BC5
  8
SAPA_PROFIL
 10
-76.999999702176027
 20
-21.893715301570019
 30
0.0
  0
VERTEX
  5
1BC6
  8
SAPA_PROFIL
 10
-76.999999702176027
 20
-23.898715301570011
 30
0.0
  0
VERTEX
  5
1BC7
  8
SAPA_PROFIL
 10
-77.173204782932899
 20
-24.198715301570001
 30
0.0
 42
0.5773502691896303
  0
VERTEX
  5
1BC8
  8
SAPA_PROFIL
 10
-76.999999702176027
 20
-24.49871530156998
 30
0.0
  0
VERTEX
  5
1BC9
  8
SAPA_PROFIL
 10
-74.199999702176015
 20
-24.49871530156998
 30
0.0
 42
0.414213999999813
  0
VERTEX
  5
1BCA
  8
SAPA_PROFIL
 10
-73.999999702176027
 20
-24.29871530157002
 30
0.0
  0
VERTEX
  5
1BCB
  8
SAPA_PROFIL
 10
-73.999999702176055
 20
-22.29871530157002
 30
0.0
 42
-0.4142139999998962
  0
VERTEX
  5
1BCC
  8
SAPA_PROFIL
 10
-73.699999702176015
 20
-21.99871530156998
 30
0.0
  0
VERTEX
  5
1BCD
  8
SAPA_PROFIL
 10
-72.799999702176038
 20
-21.998715301570019
 30
0.0
 42
-0.4142139999999103
  0
VERTEX
  5
1BCE
  8
SAPA_PROFIL
 10
-72.499999702176027
 20
-22.29871530157002
 30
0.0
  0
VERTEX
  5
1BCF
  8
SAPA_PROFIL
 10
-72.499999702176041
 20
-25.99871530156998
 30
0.0
 42
-0.414214000000021
  0
VERTEX
  5
1BD0
  8
SAPA_PROFIL
 10
-72.999999702176027
 20
-26.49871530156998
 30
0.0
  0
VERTEX
  5
1BD1
  8
SAPA_PROFIL
 10
-74.699999702176015
 20
-26.49871530156998
 30
0.0
 42
0.4142135623730951
  0
VERTEX
  5
1BD2
  8
SAPA_PROFIL
 10
-74.999999702176027
 20
-26.798715301569992
 30
0.0
  0
VERTEX
  5
1BD3
  8
SAPA_PROFIL
 10
-75.510622689898014
 20
-27.821996644172721
 30
0.0
 42
0.4142135623730953
  0
VERTEX
  5
1BD4
  8
SAPA_PROFIL
 10
-75.310658645390617
 20
-28.196181599648529
 30
0.0
  0
VERTEX
  5
1BD5
  8
SAPA_PROFIL
 10
-75.26281289539213
 20
-28.210700008895639
 30
0.0
  0
VERTEX
  5
1BD6
  8
SAPA_PROFIL
 10
-75.262729287508492
 20
-29.71380108965764
 30
0.0
 42
-0.4769755326981643
  0
VERTEX
  5
1BD7
  8
SAPA_PROFIL
 10
-75.634386162454334
 20
-30.016053914164111
 30
0.0
  0
VERTEX
  5
1BD8
  8
SAPA_PROFIL
 10
-77.447616633112602
 20
-29.634607318036409
 30
0.0
 42
-0.2216946626430193
  0
SEQEND
  5
1BD9
  8
SAPA_PROFIL
  0
POLYLINE
  5
138B
  8
SAPA_PROFIL
 66
     1
 10
0.0
 20
0.0
 30
0.0
 70
     1
  0
VERTEX
  5
1BDA
  8
SAPA_PROFIL
 10
-94.899999702176004
 20
-6.1987153015699992
 30
0.0
  0
VERTEX
  5
1BDB
  8
SAPA_PROFIL
 10
-96.499999702176027
 20
-6.1987153015699992
 30
0.0
 42
0.414214000000042
  0
VERTEX
  5
1BDC
  8
SAPA_PROFIL
 10
-96.799999702176038
 20
-6.4987153015700097
 30
0.0
  0
VERTEX
  5
1BDD
  8
SAPA_PROFIL
 10
-96.799999702176066
 20
-24.49871530156998
 30
0.0
 42
0.4142140000001599
  0
VERTEX
  5
1BDE
  8
SAPA_PROFIL
 10
-96.499999702176055
 20
-24.79871530157002
 30
0.0
  0
VERTEX
  5
1BDF
  8
SAPA_PROFIL
 10
-94.899999702176004
 20
-24.79871530157002
 30
0.0
 42
0.4142140000000628
  0
VERTEX
  5
1BE0
  8
SAPA_PROFIL
 10
-94.699999702176029
 20
-24.598715301569989
 30
0.0
  0
VERTEX
  5
1BE1
  8
SAPA_PROFIL
 10
-94.699999702176029
 20
-24.49871530156998
 30
0.0
 42
-0.4142139999998963
  0
VERTEX
  5
1BE2
  8
SAPA_PROFIL
 10
-94.399999702176018
 20
-24.198715301570001
 30
0.0
  0
VERTEX
  5
1BE3
  8
SAPA_PROFIL
 10
-92.999999702176027
 20
-24.198715301570051
 30
0.0
 42
-0.4142139999999518
  0
VERTEX
  5
1BE4
  8
SAPA_PROFIL
 10
-92.699999702176015
 20
-24.49871530156998
 30
0.0
  0
VERTEX
  5
1BE5
  8
SAPA_PROFIL
 10
-92.699999702176015
 20
-24.598715301569989
 30
0.0
 42
0.4142139999999794
  0
VERTEX
  5
1BE6
  8
SAPA_PROFIL
 10
-92.499999702176041
 20
-24.79871530157002
 30
0.0
  0
VERTEX
  5
1BE7
  8
SAPA_PROFIL
 10
-79.499999702176027
 20
-24.79871530157002
 30
0.0
 42
0.4142139999999962
  0
VERTEX
  5
1BE8
  8
SAPA_PROFIL
 10
-78.999999702176027
 20
-24.29871530157002
 30
0.0
  0
VERTEX
  5
1BE9
  8
SAPA_PROFIL
 10
-78.999999702176027
 20
-23.593715301570001
 30
0.0
 42
0.4142140000000128
  0
VERTEX
  5
1BEA
  8
SAPA_PROFIL
 10
-79.499999702176027
 20
-23.093715301570011
 30
0.0
  0
VERTEX
  5
1BEB
  8
SAPA_PROFIL
 10
-79.699999702176015
 20
-23.093715301570011
 30
0.0
 42
-0.4142140000000127
  0
VERTEX
  5
1BEC
  8
SAPA_PROFIL
 10
-80.199999702176015
 20
-22.593715301570001
 30
0.0
  0
VERTEX
  5
1BED
  8
SAPA_PROFIL
 10
-80.199999702176072
 20
-8.1937153015699682
 30
0.0
 42
-0.4142139999999795
  0
VERTEX
  5
1BEE
  8
SAPA_PROFIL
 10
-79.699999702176015
 20
-7.693715301569962
 30
0.0
  0
VERTEX
  5
1BEF
  8
SAPA_PROFIL
 10
-78.999999702176027
 20
-7.693715301569962
 30
0.0
 42
0.4142140000000462
  0
VERTEX
  5
1BF0
  8
SAPA_PROFIL
 10
-78.499999702176027
 20
-7.193715301569962
 30
0.0
  0
VERTEX
  5
1BF1
  8
SAPA_PROFIL
 10
-78.499999702176027
 20
2.5012846984300152
 30
0.0
 42
0.4142140000000128
  0
VERTEX
  5
1BF2
  8
SAPA_PROFIL
 10
-78.999999702176027
 20
3.0012846984300152
 30
0.0
  0
VERTEX
  5
1BF3
  8
SAPA_PROFIL
 10
-96.283121702176018
 20
3.001284698430017
 30
0.0
 42
0.2679490000000162
  0
VERTEX
  5
1BF4
  8
SAPA_PROFIL
 10
-97.149146702176054
 20
2.501284698430017
 30
0.0
  0
VERTEX
  5
1BF5
  8
SAPA_PROFIL
 10
-101.046261702176
 20
-4.2487153015699821
 30
0.0
 42
0.5773500000000551
  0
VERTEX
  5
1BF6
  8
SAPA_PROFIL
 10
-100.786453702176
 20
-4.6987153015699699
 30
0.0
  0
VERTEX
  5
1BF7
  8
SAPA_PROFIL
 10
-94.199999702176015
 20
-4.6987153015699921
 30
0.0
 42
-0.4142140000000155
  0
VERTEX
  5
1BF8
  8
SAPA_PROFIL
 10
-92.699999702176015
 20
-6.1987153015699992
 30
0.0
  0
VERTEX
  5
1BF9
  8
SAPA_PROFIL
 10
-92.699999702176015
 20
-6.3987153015700304
 30
0.0
  0
VERTEX
  5
1BFA
  8
SAPA_PROFIL
 10
-92.699999702176072
 20
-6.4987153015700097
 30
0.0
 42
-0.4142140000000836
  0
VERTEX
  5
1BFB
  8
SAPA_PROFIL
 10
-92.999999702176027
 20
-6.7987153015700068
 30
0.0
  0
VERTEX
  5
1BFC
  8
SAPA_PROFIL
 10
-94.399999702176004
 20
-6.7987153015701418
 30
0.0
 42
-0.4142140000000351
  0
VERTEX
  5
1BFD
  8
SAPA_PROFIL
 10
-94.699999702176015
 20
-6.4987153015700097
 30
0.0
  0
VERTEX
  5
1BFE
  8
SAPA_PROFIL
 10
-94.699999702176015
 20
-6.3987153015700304
 30
0.0
 42
0.4142139999998962
  0
SEQEND
  5
1BFF
  8
SAPA_PROFIL
  0
POLYLINE
  5
138C
  8
SAPA_PROFIL
 66
     1
 10
0.0
 20
0.0
 30
0.0
 70
     1
  0
VERTEX
  5
1C00
  8
SAPA_PROFIL
 10
-101.4763937021781
 20
-68.598715301570095
 30
0.0
 42
-0.2134220000000103
  0
VERTEX
  5
1C01
  8
SAPA_PROFIL
 10
-101.2527867021782
 20
-68.498715301570073
 30
0.0
  0
VERTEX
  5
1C02
  8
SAPA_PROFIL
 10
-97.399999702178164
 20
-68.498715301570073
 30
0.0
 42
0.414213999999924
  0
VERTEX
  5
1C03
  8
SAPA_PROFIL
 10
-97.099999702178081
 20
-68.198715301570118
 30
0.0
  0
VERTEX
  5
1C04
  8
SAPA_PROFIL
 10
-97.099999702178152
 20
-67.898715301570107
 30
0.0
  0
VERTEX
  5
1C05
  8
SAPA_PROFIL
 10
-98.023760702178166
 20
-66.298715301570084
 30
0.0
 42
-0.5773500000001196
  0
VERTEX
  5
1C06
  8
SAPA_PROFIL
 10
-97.850555702178156
 20
-65.998715301570073
 30
0.0
  0
VERTEX
  5
1C07
  8
SAPA_PROFIL
 10
-96.464914702178135
 20
-65.998715301570073
 30
0.0
 42
-0.2679489999999719
  0
VERTEX
  5
1C08
  8
SAPA_PROFIL
 10
-95.598889702178155
 20
-66.498715301570073
 30
0.0
  0
VERTEX
  5
1C09
  8
SAPA_PROFIL
 10
-94.588526702178171
 20
-68.248715301570073
 30
0.0
 42
0.267949000000012
  0
VERTEX
  5
1C0A
  8
SAPA_PROFIL
 10
-94.155513702178155
 20
-68.498715301570201
 30
0.0
  0
VERTEX
  5
1C0B
  8
SAPA_PROFIL
 10
-84.144486702178128
 20
-68.498715301570087
 30
0.0
 42
0.2679490000000104
  0
VERTEX
  5
1C0C
  8
SAPA_PROFIL
 10
-83.71147370217821
 20
-68.248715301570059
 30
0.0
  0
VERTEX
  5
1C0D
  8
SAPA_PROFIL
 10
-82.701110702178127
 20
-66.498715301570073
 30
0.0
 42
-0.2679489999999809
  0
VERTEX
  5
1C0E
  8
SAPA_PROFIL
 10
-81.835085702178148
 20
-65.998715301570073
 30
0.0
  0
VERTEX
  5
1C0F
  8
SAPA_PROFIL
 10
-80.449444702178141
 20
-65.998715301570073
 30
0.0
 42
-0.5773500000001198
  0
VERTEX
  5
1C10
  8
SAPA_PROFIL
 10
-80.276239702178145
 20
-66.298715301570084
 30
0.0
  0
VERTEX
  5
1C11
  8
SAPA_PROFIL
 10
-81.199999702178175
 20
-67.898715301570107
 30
0.0
  0
VERTEX
  5
1C12
  8
SAPA_PROFIL
 10
-81.199999702178175
 20
-68.198715301570118
 30
0.0
 42
0.4142139999999795
  0
VERTEX
  5
1C13
  8
SAPA_PROFIL
 10
-80.899999702178164
 20
-68.498715301569945
 30
0.0
  0
VERTEX
  5
1C14
  8
SAPA_PROFIL
 10
-77.047213702178169
 20
-68.498715301570087
 30
0.0
 42
-0.2134217652834391
  0
VERTEX
  5
1C15
  8
SAPA_PROFIL
 10
-76.823606904428061
 20
-68.598715301570195
 30
0.0
 42
0.7625858545243247
  0
VERTEX
  5
1C16
  8
SAPA_PROFIL
 10
-76.493280823411055
 20
-68.414136099372726
 30
0.0
  0
VERTEX
  5
1C17
  8
SAPA_PROFIL
 10
-76.551354460400148
 20
-68.222753099379005
 30
0.0
  0
VERTEX
  5
1C18
  8
SAPA_PROFIL
 10
-77.635918907371874
 20
-66.33690940751795
 30
0.0
  0
VERTEX
  5
1C19
  8
SAPA_PROFIL
 10
-77.957676635590133
 20
-66.347470773744931
 30
0.0
 42
-0.5773502691897466
  0
VERTEX
  5
1C1A
  8
SAPA_PROFIL
 10
-78.140630375700312
 20
-66.05331447349009
 30
0.0
  0
VERTEX
  5
1C1B
  8
SAPA_PROFIL
 10
-77.988496464591549
 20
-65.768632190258444
 30
0.0
 42
-0.2216946626430194
  0
VERTEX
  5
1C1C
  8
SAPA_PROFIL
 10
-77.447616633114762
 20
-65.362823285103659
 30
0.0
  0
VERTEX
  5
1C1D
  8
SAPA_PROFIL
 10
-75.634386162456508
 20
-64.981376688975942
 30
0.0
 42
-0.4769755326981641
  0
VERTEX
  5
1C1E
  8
SAPA_PROFIL
 10
-75.262729287510638
 20
-65.28362951348241
 30
0.0
  0
VERTEX
  5
1C1F
  8
SAPA_PROFIL
 10
-75.262812895394291
 20
-66.786730594244418
 30
0.0
  0
VERTEX
  5
1C20
  8
SAPA_PROFIL
 10
-75.310658645392778
 20
-66.80124900349152
 30
0.0
 42
0.4142135623730951
  0
VERTEX
  5
1C21
  8
SAPA_PROFIL
 10
-75.510622689900174
 20
-67.175433958967332
 30
0.0
  0
VERTEX
  5
1C22
  8
SAPA_PROFIL
 10
-74.999999702178229
 20
-68.496551963668338
 30
0.0
  0
VERTEX
  5
1C23
  8
SAPA_PROFIL
 10
-74.999999702178172
 20
-69.736611301570107
 30
0.0
 42
-0.2914730000000021
  0
VERTEX
  5
1C24
  8
SAPA_PROFIL
 10
-75.577381702178172
 20
-70.642919301570075
 30
0.0
  0
VERTEX
  5
1C25
  8
SAPA_PROFIL
 10
-78.069521702178179
 20
-71.805023301570074
 30
0.0
 42
-0.3888789999999682
  0
VERTEX
  5
1C26
  8
SAPA_PROFIL
 10
-79.358165702178155
 20
-71.398715301570107
 30
0.0
  0
VERTEX
  5
1C27
  8
SAPA_PROFIL
 10
-79.44476870217818
 20
-71.248715301570073
 30
0.0
 42
0.2679490000000116
  0
VERTEX
  5
1C28
  8
SAPA_PROFIL
 10
-79.877780702178143
 20
-70.99871530157003
 30
0.0
  0
VERTEX
  5
1C29
  8
SAPA_PROFIL
 10
-87.999999702178158
 20
-70.998715301570073
 30
0.0
 42
0.4142139999999962
  0
VERTEX
  5
1C2A
  8
SAPA_PROFIL
 10
-88.999999702178229
 20
-71.998715301570073
 30
0.0
  0
VERTEX
  5
1C2B
  8
SAPA_PROFIL
 10
-88.999999702178187
 20
-73.348715301570095
 30
0.0
 42
0.4142140000000128
  0
VERTEX
  5
1C2C
  8
SAPA_PROFIL
 10
-88.499999702178172
 20
-73.848715301570095
 30
0.0
  0
VERTEX
  5
1C2D
  8
SAPA_PROFIL
 10
-85.36776748336473
 20
-73.848715301570095
 30
0.0
 42
-0.198912367379658
  0
VERTEX
  5
1C2E
  8
SAPA_PROFIL
 10
-83.953553920991624
 20
-74.434501739197003
 30
0.0
  0
VERTEX
  5
1C2F
  8
SAPA_PROFIL
 10
-81.220260305947079
 20
-77.167795354241562
 30
0.0
 42
-1.000556671980007
  0
VERTEX
  5
1C30
  8
SAPA_PROFIL
 10
-82.280330702178176
 20
-78.22904530157011
 30
0.0
  0
VERTEX
  5
1C31
  8
SAPA_PROFIL
 10
-84.914213702178188
 20
-75.595162301570085
 30
0.0
 42
0.1989120000000246
  0
VERTEX
  5
1C32
  8
SAPA_PROFIL
 10
-85.267766702178164
 20
-75.448715301570076
 30
0.0
  0
VERTEX
  5
1C33
  8
SAPA_PROFIL
 10
-88.499999702178172
 20
-75.448715301570118
 30
0.0
 42
0.4142140000000129
  0
VERTEX
  5
1C34
  8
SAPA_PROFIL
 10
-88.999999702178187
 20
-75.948715301570104
 30
0.0
  0
VERTEX
  5
1C35
  8
SAPA_PROFIL
 10
-88.999999702178187
 20
-82.948715301570118
 30
0.0
 42
0.4142140000000128
  0
VERTEX
  5
1C36
  8
SAPA_PROFIL
 10
-88.499999702178172
 20
-83.448715301570118
 30
0.0
  0
VERTEX
  5
1C37
  8
SAPA_PROFIL
 10
-81.299999702178184
 20
-83.448715301570047
 30
0.0
 42
-0.4142140000000351
  0
VERTEX
  5
1C38
  8
SAPA_PROFIL
 10
-80.999999702178172
 20
-83.748715301570059
 30
0.0
  0
VERTEX
  5
1C39
  8
SAPA_PROFIL
 10
-80.999999702178172
 20
-83.91093830157007
 30
0.0
 42
-0.3482370000000729
  0
VERTEX
  5
1C3A
  8
SAPA_PROFIL
 10
-81.231494702178153
 20
-84.203012301570055
 30
0.0
  0
VERTEX
  5
1C3B
  8
SAPA_PROFIL
 10
-84.837169702178187
 20
-85.048715301570013
 30
0.0
  0
VERTEX
  5
1C3C
  8
SAPA_PROFIL
 10
-88.499999702178172
 20
-85.048715301570013
 30
0.0
 42
0.4142139999999796
  0
VERTEX
  5
1C3D
  8
SAPA_PROFIL
 10
-88.999999702178229
 20
-85.548715301570027
 30
0.0
  0
VERTEX
  5
1C3E
  8
SAPA_PROFIL
 10
-88.999999702178187
 20
-87.998715301570073
 30
0.0
 42
0.414214000000017
  0
VERTEX
  5
1C3F
  8
SAPA_PROFIL
 10
-88.499999702178172
 20
-88.498715301570087
 30
0.0
 42
-0.4142140000000127
  0
VERTEX
  5
1C40
  8
SAPA_PROFIL
 10
-87.999999702178158
 20
-88.998715301570073
 30
0.0
  0
VERTEX
  5
1C41
  8
SAPA_PROFIL
 10
-87.999999702178158
 20
-89.998715301570059
 30
0.0
 42
-0.414214000000017
  0
VERTEX
  5
1C42
  8
SAPA_PROFIL
 10
-88.499999702178172
 20
-90.498715301570073
 30
0.0
  0
VERTEX
  5
1C43
  8
SAPA_PROFIL
 10
-124.9999997021781
 20
-90.498715301570073
 30
0.0
  0
VERTEX
  5
1C44
  8
SAPA_PROFIL
 10
-125.4999997021781
 20
-89.998715301570059
 30
0.0
  0
VERTEX
  5
1C45
  8
SAPA_PROFIL
 10
-125.4999997021781
 20
-86.298715301570013
 30
0.0
 42
-0.4142139999999863
  0
VERTEX
  5
1C46
  8
SAPA_PROFIL
 10
-125.1999997021781
 20
-85.998715301570087
 30
0.0
  0
VERTEX
  5
1C47
  8
SAPA_PROFIL
 10
-124.4324557021782
 20
-85.998715301570087
 30
0.0
 42
-0.2896899999999678
  0
VERTEX
  5
1C48
  8
SAPA_PROFIL
 10
-123.5289477021782
 20
-86.570144301570025
 30
0.0
 42
-0.5507599999999711
  0
VERTEX
  5
1C49
  8
SAPA_PROFIL
 10
-123.7999997021782
 20
-86.998715301570073
 30
0.0
  0
VERTEX
  5
1C4A
  8
SAPA_PROFIL
 10
-123.9999997021781
 20
-86.998715301570073
 30
0.0
 42
0.4142139999998755
  0
VERTEX
  5
1C4B
  8
SAPA_PROFIL
 10
-124.2999997021781
 20
-87.298715301570027
 30
0.0
  0
VERTEX
  5
1C4C
  8
SAPA_PROFIL
 10
-124.2999997021781
 20
-88.798715301570013
 30
0.0
 42
0.4142140000000503
  0
VERTEX
  5
1C4D
  8
SAPA_PROFIL
 10
-123.7999997021782
 20
-89.298715301570056
 30
0.0
  0
VERTEX
  5
1C4E
  8
SAPA_PROFIL
 10
-120.4999997021781
 20
-89.298715301570027
 30
0.0
 42
0.4142140000000419
  0
VERTEX
  5
1C4F
  8
SAPA_PROFIL
 10
-119.9999997021782
 20
-88.798715301570013
 30
0.0
  0
VERTEX
  5
1C50
  8
SAPA_PROFIL
 10
-119.9999997021782
 20
-87.298715301570027
 30
0.0
 42
0.4142139999999794
  0
VERTEX
  5
1C51
  8
SAPA_PROFIL
 10
-120.2999997021782
 20
-86.998715301570186
 30
0.0
  0
VERTEX
  5
1C52
  8
SAPA_PROFIL
 10
-120.4999997021781
 20
-86.998715301570073
 30
0.0
 42
-0.5507599999999436
  0
VERTEX
  5
1C53
  8
SAPA_PROFIL
 10
-120.7710527021781
 20
-86.570144301570025
 30
0.0
 42
-0.2896899999999595
  0
VERTEX
  5
1C54
  8
SAPA_PROFIL
 10
-119.86754470217809
 20
-85.998715301570087
 30
0.0
  0
VERTEX
  5
1C55
  8
SAPA_PROFIL
 10
-118.87007270217811
 20
-85.998715301570087
 30
0.0
 42
-0.0436610000000022
  0
VERTEX
  5
1C56
  8
SAPA_PROFIL
 10
-118.7832487021782
 20
-86.006311301570094
 30
0.0
  0
VERTEX
  5
1C57
  8
SAPA_PROFIL
 10
-117.21317570217811
 20
-86.283158301570083
 30
0.0
 42
-0.8391000000000101
  0
VERTEX
  5
1C58
  8
SAPA_PROFIL
 10
-117.21317570217811
 20
-87.267965301570086
 30
0.0
  0
VERTEX
  5
1C59
  8
SAPA_PROFIL
 10
-118.3868247021781
 20
-87.474911301570032
 30
0.0
 42
0.3639700000000376
  0
VERTEX
  5
1C5A
  8
SAPA_PROFIL
 10
-118.7999997021782
 20
-87.96731530157011
 30
0.0
  0
VERTEX
  5
1C5B
  8
SAPA_PROFIL
 10
-118.7999997021782
 20
-88.798715301570013
 30
0.0
 42
0.437328000000032
  0
VERTEX
  5
1C5C
  8
SAPA_PROFIL
 10
-118.26090570217811
 20
-89.29718530157011
 30
0.0
  0
VERTEX
  5
1C5D
  8
SAPA_PROFIL
 10
-103.7878467021781
 20
-88.710386301570097
 30
0.0
 42
0.4023939999998692
  0
VERTEX
  5
1C5E
  8
SAPA_PROFIL
 10
-103.499999702178
 20
-88.410632301570104
 30
0.0
  0
VERTEX
  5
1C5F
  8
SAPA_PROFIL
 10
-103.4999997021782
 20
-87.610099301570074
 30
0.0
 42
-0.259680999999983
  0
VERTEX
  5
1C60
  8
SAPA_PROFIL
 10
-103.40530670217809
 20
-87.440068301570079
 30
0.0
  0
VERTEX
  5
1C61
  8
SAPA_PROFIL
 10
-101.9579607021782
 20
-86.543669301570006
 30
0.0
 42
-0.5877029999999889
  0
VERTEX
  5
1C62
  8
SAPA_PROFIL
 10
-101.4999997021782
 20
-86.798715301570027
 30
0.0
  0
VERTEX
  5
1C63
  8
SAPA_PROFIL
 10
-101.4999997021782
 20
-88.198715301570076
 30
0.0
 42
0.4142140000000349
  0
VERTEX
  5
1C64
  8
SAPA_PROFIL
 10
-101.1999997021781
 20
-88.498715301569945
 30
0.0
  0
VERTEX
  5
1C65
  8
SAPA_PROFIL
 10
-98.799999702178184
 20
-88.498715301570087
 30
0.0
 42
0.4142140000000349
  0
VERTEX
  5
1C66
  8
SAPA_PROFIL
 10
-98.499999702178059
 20
-88.198715301570076
 30
0.0
  0
VERTEX
  5
1C67
  8
SAPA_PROFIL
 10
-98.499999702178172
 20
-80.018331301570115
 30
0.0
  0
VERTEX
  5
1C68
  8
SAPA_PROFIL
 10
-98.199999702178161
 20
-79.498715301570059
 30
0.0
  0
VERTEX
  5
1C69
  8
SAPA_PROFIL
 10
-98.499999702178172
 20
-78.979100301570085
 30
0.0
  0
VERTEX
  5
1C6A
  8
SAPA_PROFIL
 10
-98.499999702178172
 20
-70.798715301570056
 30
0.0
 42
0.4142135623730882
  0
VERTEX
  5
1C6B
  8
SAPA_PROFIL
 10
-98.799999702178155
 20
-70.498715301570073
 30
0.0
  0
VERTEX
  5
1C6C
  8
SAPA_PROFIL
 10
-101.1999997021781
 20
-70.498715301570044
 30
0.0
 42
0.4142135623730882
  0
VERTEX
  5
1C6D
  8
SAPA_PROFIL
 10
-101.4999997021782
 20
-70.798715301570056
 30
0.0
  0
VERTEX
  5
1C6E
  8
SAPA_PROFIL
 10
-101.4999997021782
 20
-72.198715301570104
 30
0.0
 42
-0.5877029999999041
  0
VERTEX
  5
1C6F
  8
SAPA_PROFIL
 10
-101.9579607021782
 20
-72.453762301570109
 30
0.0
  0
VERTEX
  5
1C70
  8
SAPA_PROFIL
 10
-103.20530670217821
 20
-71.6612303015701
 30
0.0
 42
-0.2596809999999552
  0
VERTEX
  5
1C71
  8
SAPA_PROFIL
 10
-103.2999997021782
 20
-71.491200301570103
 30
0.0
  0
VERTEX
  5
1C72
  8
SAPA_PROFIL
 10
-103.2999997021782
 20
-68.496549376401504
 30
0.0
  0
VERTEX
  5
1C73
  8
SAPA_PROFIL
 10
-102.78937771445619
 20
-67.175433958967332
 30
0.0
 42
0.4142135623730953
  0
VERTEX
  5
1C74
  8
SAPA_PROFIL
 10
-102.9893417589636
 20
-66.80124900349152
 30
0.0
  0
VERTEX
  5
1C75
  8
SAPA_PROFIL
 10
-103.03718750896211
 20
-66.786730594244418
 30
0.0
  0
VERTEX
  5
1C76
  8
SAPA_PROFIL
 10
-103.0372711168457
 20
-65.28362951348241
 30
0.0
 42
-0.4769755326981643
  0
VERTEX
  5
1C77
  8
SAPA_PROFIL
 10
-102.6656142418999
 20
-64.981376688975942
 30
0.0
  0
VERTEX
  5
1C78
  8
SAPA_PROFIL
 10
-100.85238377124161
 20
-65.362823285103659
 30
0.0
 42
-0.2216946626430194
  0
VERTEX
  5
1C79
  8
SAPA_PROFIL
 10
-100.3115039397648
 20
-65.768632190258444
 30
0.0
  0
VERTEX
  5
1C7A
  8
SAPA_PROFIL
 10
-100.159370028656
 20
-66.053314473490104
 30
0.0
 42
-0.5773502691897466
  0
VERTEX
  5
1C7B
  8
SAPA_PROFIL
 10
-100.34232376876621
 20
-66.347470773744917
 30
0.0
  0
VERTEX
  5
1C7C
  8
SAPA_PROFIL
 10
-100.66408149698449
 20
-66.33690940751795
 30
0.0
  0
VERTEX
  5
1C7D
  8
SAPA_PROFIL
 10
-101.74864594395621
 20
-68.222753099379005
 30
0.0
  0
VERTEX
  5
1C7E
  8
SAPA_PROFIL
 10
-101.8067195809453
 20
-68.414136099372712
 30
0.0
 42
0.7625858545243257
  0
VERTEX
  5
1C7F
  8
SAPA_PROFIL
 10
-101.47639349992831
 20
-68.598715301570195
 30
0.0
  0
SEQEND
  5
1C80
  8
SAPA_PROFIL
  0
POLYLINE
  5
138D
  8
SAPA_PROFIL
 66
     1
 10
0.0
 20
0.0
 30
0.0
 70
     1
  0
VERTEX
  5
1C81
  8
SAPA_PROFIL
 10
-90.999999702178172
 20
-70.198715301570104
 30
0.0
  0
VERTEX
  5
1C82
  8
SAPA_PROFIL
 10
-96.499999702178187
 20
-70.198715301570104
 30
0.0
 42
0.4142139999999252
  0
VERTEX
  5
1C83
  8
SAPA_PROFIL
 10
-96.799999702178184
 20
-70.498715301570073
 30
0.0
  0
VERTEX
  5
1C84
  8
SAPA_PROFIL
 10
-96.799999702178184
 20
-88.498715301570087
 30
0.0
 42
0.4142139999998691
  0
VERTEX
  5
1C85
  8
SAPA_PROFIL
 10
-96.499999702178187
 20
-88.798715301570013
 30
0.0
  0
VERTEX
  5
1C86
  8
SAPA_PROFIL
 10
-90.999999702178172
 20
-88.798715301570013
 30
0.0
 42
0.4142135623730951
  0
VERTEX
  5
1C87
  8
SAPA_PROFIL
 10
-90.699999702178161
 20
-88.498715301570087
 30
0.0
  0
VERTEX
  5
1C88
  8
SAPA_PROFIL
 10
-90.699999702178161
 20
-70.498715301570073
 30
0.0
 42
0.4142139999999803
  0
SEQEND
  5
1C89
  8
SAPA_PROFIL
  0
POLYLINE
  5
138E
  8
SAPA_PROFIL
 62
     4
 66
     1
 10
0.0
 20
0.0
 30
0.0
  0
VERTEX
  5
1C8A
  8
SAPA_PROFIL
 62
     4
 10
-100.59442853806419
 20
-38.449386179215622
 30
0.0
 42
-0.5571646428658034
  0
VERTEX
  5
1C8B
  8
SAPA_PROFIL
 62
     4
 10
-99.726709623908704
 20
-38.986346683352451
 30
0.0
  0
VERTEX
  5
1C8C
  8
SAPA_PROFIL
 62
     4
 10
-99.726709623909159
 20
-56.011083919873649
 30
0.0
 42
-0.5571645048035741
  0
VERTEX
  5
1C8D
  8
SAPA_PROFIL
 62
     4
 10
-100.5944283117753
 20
-56.548044536834709
 30
0.0
  0
VERTEX
  5
1C8E
  8
SAPA_PROFIL
 62
     4
 10
-102.2605689678433
 20
-55.71733744928801
 30
0.0
 42
-0.284385813979063
  0
VERTEX
  5
1C8F
  8
SAPA_PROFIL
 62
     4
 10
-102.4267096239108
 20
-55.448857140807661
 30
0.0
  0
VERTEX
  5
1C90
  8
SAPA_PROFIL
 62
     4
 10
-102.4267096239108
 20
-39.548573462418346
 30
0.0
 42
-0.2843858139786238
  0
VERTEX
  5
1C91
  8
SAPA_PROFIL
 62
     4
 10
-102.26056896784389
 20
-39.280093153938061
 30
0.0
  0
VERTEX
  5
1C92
  8
SAPA_PROFIL
 62
     4
 10
-100.59442831177449
 20
-38.4493860663909
 30
0.0
  0
SEQEND
  5
1C93
  8
SAPA_PROFIL
 62
     4
  0
POLYLINE
  5
138F
  8
SAPA_PROFIL
 62
     4
 66
     1
 10
0.0
 20
0.0
 30
0.0
 70
     1
  0
VERTEX
  5
1C94
  8
SAPA_PROFIL
 62
     4
 10
-102.7835411384083
 20
-61.91632648628029
 30
0.0
  0
VERTEX
  5
1C95
  8
SAPA_PROFIL
 62
     4
 10
-103.1901013344125
 20
-62.180349764656313
 30
0.0
 42
0.2539676464751066
  0
VERTEX
  5
1C96
  8
SAPA_PROFIL
 62
     4
 10
-103.3267096239086
 20
-62.431950935041023
 30
0.0
  0
VERTEX
  5
1C97
  8
SAPA_PROFIL
 62
     4
 10
-103.3267096239086
 20
-63.813450520246363
 30
0.0
 42
0.3152987888790479
  0
VERTEX
  5
1C98
  8
SAPA_PROFIL
 62
     4
 10
-102.9977196955704
 20
-64.283296830638676
 30
0.0
  0
VERTEX
  5
1C99
  8
SAPA_PROFIL
 62
     4
 10
-100.53688950511921
 20
-65.178965771547283
 30
0.0
 42
-0.2694959974287434
  0
VERTEX
  5
1C9A
  8
SAPA_PROFIL
 62
     4
 10
-100.34375753077531
 20
-65.410484817948642
 30
0.0
 42
-0.0612686379508233
  0
VERTEX
  5
1C9B
  8
SAPA_PROFIL
 62
     4
 10
-100.33017416014469
 20
-65.703160250801915
 30
0.0
  0
VERTEX
  5
1C9C
  8
SAPA_PROFIL
 62
     4
 10
-100.1284374814159
 20
-66.052578428110181
 30
0.0
 42
-0.5773502691891679
  0
VERTEX
  5
1C9D
  8
SAPA_PROFIL
 62
     4
 10
-100.31030281621049
 20
-66.367578428109766
 30
0.0
  0
VERTEX
  5
1C9E
  8
SAPA_PROFIL
 62
     4
 10
-100.57741734433679
 20
-66.367578428109994
 30
0.0
  0
VERTEX
  5
1C9F
  8
SAPA_PROFIL
 62
     4
 10
-101.3861008056451
 20
-67.766106128744255
 30
0.0
 42
0.1318219888653519
  0
VERTEX
  5
1CA0
  8
SAPA_PROFIL
 62
     4
 10
-101.4263932021825
 20
-67.916279231216606
 30
0.0
  0
VERTEX
  5
1CA1
  8
SAPA_PROFIL
 62
     4
 10
-101.4263932021761
 20
-68.098715301653385
 30
0.0
 42
0.4142135623724291
  0
VERTEX
  5
1CA2
  8
SAPA_PROFIL
 62
     4
 10
-101.02639320217649
 20
-68.498715301653931
 30
0.0
  0
VERTEX
  5
1CA3
  8
SAPA_PROFIL
 62
     4
 10
-97.626393202175535
 20
-68.498715301652567
 30
0.0
 42
0.4142135623744271
  0
VERTEX
  5
1CA4
  8
SAPA_PROFIL
 62
     4
 10
-97.226393202174535
 20
-68.098715301653385
 30
0.0
  0
VERTEX
  5
1CA5
  8
SAPA_PROFIL
 62
     4
 10
-97.226393202173895
 20
-67.919100059382089
 30
0.0
 42
0.1316524975874005
  0
VERTEX
  5
1CA6
  8
SAPA_PROFIL
 62
     4
 10
-97.266585581039493
 20
-67.769100059385266
 30
0.0
  0
VERTEX
  5
1CA7
  8
SAPA_PROFIL
 62
     4
 10
-98.192735027692024
 20
-66.164962162383006
 30
0.0
 42
-0.1316524975875904
  0
VERTEX
  5
1CA8
  8
SAPA_PROFIL
 62
     4
 10
-98.326709623906794
 20
-65.6649621623813
 30
0.0
  0
VERTEX
  5
1CA9
  8
SAPA_PROFIL
 62
     4
 10
-98.326709623906794
 20
-65.248715301653931
 30
0.0
 42
-0.4142135623730951
  0
VERTEX
  5
1CAA
  8
SAPA_PROFIL
 62
     4
 10
-97.326709623906794
 20
-64.248715301653931
 30
0.0
  0
VERTEX
  5
1CAB
  8
SAPA_PROFIL
 62
     4
 10
-94.326709623909522
 20
-64.248715301653931
 30
0.0
 42
0.9999996830128083
  0
VERTEX
  5
1CAC
  8
SAPA_PROFIL
 62
     4
 10
-94.326709623907703
 20
-63.248715301653931
 30
0.0
  0
VERTEX
  5
1CAD
  8
SAPA_PROFIL
 62
     4
 10
-97.326709623907703
 20
-63.248715301653931
 30
0.0
 42
-0.4142135623730951
  0
VERTEX
  5
1CAE
  8
SAPA_PROFIL
 62
     4
 10
-98.326709623907703
 20
-62.248715301653931
 30
0.0
  0
VERTEX
  5
1CAF
  8
SAPA_PROFIL
 62
     4
 10
-98.326709623907703
 20
-32.748715301569348
 30
0.0
 42
-0.4142135623730951
  0
VERTEX
  5
1CB0
  8
SAPA_PROFIL
 62
     4
 10
-97.326709623907703
 20
-31.748715301569352
 30
0.0
  0
VERTEX
  5
1CB1
  8
SAPA_PROFIL
 62
     4
 10
-94.326709623909522
 20
-31.748715301569352
 30
0.0
 42
0.9999999999999998
  0
VERTEX
  5
1CB2
  8
SAPA_PROFIL
 62
     4
 10
-94.326709623909522
 20
-30.748715301569352
 30
0.0
  0
VERTEX
  5
1CB3
  8
SAPA_PROFIL
 62
     4
 10
-97.326709623907703
 20
-30.748715301569352
 30
0.0
 42
-0.4142135623736278
  0
VERTEX
  5
1CB4
  8
SAPA_PROFIL
 62
     4
 10
-98.326709623907703
 20
-29.748715301569352
 30
0.0
  0
VERTEX
  5
1CB5
  8
SAPA_PROFIL
 62
     4
 10
-98.326709623907703
 20
-29.332468440842892
 30
0.0
 42
-0.1316524975874375
  0
VERTEX
  5
1CB6
  8
SAPA_PROFIL
 62
     4
 10
-98.192735027691668
 20
-28.832468440842689
 30
0.0
  0
VERTEX
  5
1CB7
  8
SAPA_PROFIL
 62
     4
 10
-97.266585581039493
 20
-27.228330543840741
 30
0.0
 42
0.1316524975874
  0
VERTEX
  5
1CB8
  8
SAPA_PROFIL
 62
     4
 10
-97.226393202173895
 20
-27.078330543841201
 30
0.0
  0
VERTEX
  5
1CB9
  8
SAPA_PROFIL
 62
     4
 10
-97.226393202174535
 20
-26.89871530156989
 30
0.0
 42
0.4142135623744271
  0
VERTEX
  5
1CBA
  8
SAPA_PROFIL
 62
     4
 10
-97.626393202175535
 20
-26.498715301570709
 30
0.0
  0
VERTEX
  5
1CBB
  8
SAPA_PROFIL
 62
     4
 10
-101.02639320217649
 20
-26.498715301569352
 30
0.0
 42
0.4142135623724291
  0
VERTEX
  5
1CBC
  8
SAPA_PROFIL
 62
     4
 10
-101.4263932021761
 20
-26.89871530156989
 30
0.0
  0
VERTEX
  5
1CBD
  8
SAPA_PROFIL
 62
     4
 10
-101.4263932021825
 20
-27.081151372006669
 30
0.0
 42
0.1318219888653524
  0
VERTEX
  5
1CBE
  8
SAPA_PROFIL
 62
     4
 10
-101.3861008056451
 20
-27.23132447447902
 30
0.0
  0
VERTEX
  5
1CBF
  8
SAPA_PROFIL
 62
     4
 10
-100.57741734442079
 20
-28.629852174958671
 30
0.0
  0
VERTEX
  5
1CC0
  8
SAPA_PROFIL
 62
     4
 10
-100.31030281620779
 20
-28.629852174958671
 30
0.0
 42
-0.577350269189159
  0
VERTEX
  5
1CC1
  8
SAPA_PROFIL
 62
     4
 10
-100.1284374814132
 20
-28.944852174958271
 30
0.0
  0
VERTEX
  5
1CC2
  8
SAPA_PROFIL
 62
     4
 10
-100.33017416009029
 20
-29.29427035217693
 30
0.0
 42
-0.0612687673629489
  0
VERTEX
  5
1CC3
  8
SAPA_PROFIL
 62
     4
 10
-100.3437575307765
 20
-29.586945785277148
 30
0.0
 42
-0.2694959974285039
  0
VERTEX
  5
1CC4
  8
SAPA_PROFIL
 62
     4
 10
-100.5368895051204
 20
-29.818464831677669
 30
0.0
  0
VERTEX
  5
1CC5
  8
SAPA_PROFIL
 62
     4
 10
-102.99771969557359
 20
-30.714133772587331
 30
0.0
 42
0.3152987888784035
  0
VERTEX
  5
1CC6
  8
SAPA_PROFIL
 62
     4
 10
-103.3267096239102
 20
-31.183980082980561
 30
0.0
  0
VERTEX
  5
1CC7
  8
SAPA_PROFIL
 62
     4
 10
-103.3267096239086
 20
-32.565479668184992
 30
0.0
 42
0.2539676464741841
  0
VERTEX
  5
1CC8
  8
SAPA_PROFIL
 62
     4
 10
-103.1901013344133
 20
-32.817080838569069
 30
0.0
  0
VERTEX
  5
1CC9
  8
SAPA_PROFIL
 62
     4
 10
-102.7835411384083
 20
-33.08110411694571
 30
0.0
 42
0.5862177598324623
  0
VERTEX
  5
1CCA
  8
SAPA_PROFIL
 62
     4
 10
-102.3267096239118
 20
-32.825362301707372
 30
0.0
  0
VERTEX
  5
1CCB
  8
SAPA_PROFIL
 62
     4
 10
-102.3267096239195
 20
-31.884187621197562
 30
0.0
 42
-0.3152987888813165
  0
VERTEX
  5
1CCC
  8
SAPA_PROFIL
 62
     4
 10
-101.9977196955828
 20
-31.414341310799799
 30
0.0
  0
VERTEX
  5
1CCD
  8
SAPA_PROFIL
 62
     4
 10
-100.7977196955715
 20
-30.977577029675839
 30
0.0
 42
-0.5205670505515651
  0
VERTEX
  5
1CCE
  8
SAPA_PROFIL
 62
     4
 10
-100.12670962390879
 20
-31.447423340069061
 30
0.0
  0
VERTEX
  5
1CCF
  8
SAPA_PROFIL
 62
     4
 10
-100.1267096239087
 20
-36.463864280737923
 30
0.0
 42
-0.3702522326300203
  0
VERTEX
  5
1CD0
  8
SAPA_PROFIL
 62
     4
 10
-100.38116957657449
 20
-36.760387642531242
 30
0.0
 42
-0.0982365330332397
  0
VERTEX
  5
1CD1
  8
SAPA_PROFIL
 62
     4
 10
-102.06885635156949
 20
-36.850840400742193
 30
0.0
 42
-0.3735060174783164
  0
VERTEX
  5
1CD2
  8
SAPA_PROFIL
 62
     4
 10
-102.32670962390949
 20
-36.553815732831211
 30
0.0
  0
VERTEX
  5
1CD3
  8
SAPA_PROFIL
 62
     4
 10
-102.3267096239104
 20
-36.125362301708549
 30
0.0
 42
0.5920056181162531
  0
VERTEX
  5
1CD4
  8
SAPA_PROFIL
 62
     4
 10
-102.7879131264383
 20
-35.87235354539115
 30
0.0
  0
VERTEX
  5
1CD5
  8
SAPA_PROFIL
 62
     4
 10
-103.1901013344166
 20
-36.13353762154685
 30
0.0
 42
0.2539676464746725
  0
VERTEX
  5
1CD6
  8
SAPA_PROFIL
 62
     4
 10
-103.326709623912
 20
-36.385138791930622
 30
0.0
  0
VERTEX
  5
1CD7
  8
SAPA_PROFIL
 62
     4
 10
-103.3267096239104
 20
-58.612291811296302
 30
0.0
 42
0.2539676464741819
  0
VERTEX
  5
1CD8
  8
SAPA_PROFIL
 62
     4
 10
-103.1901013344166
 20
-58.863892981679157
 30
0.0
  0
VERTEX
  5
1CD9
  8
SAPA_PROFIL
 62
     4
 10
-102.7879131264383
 20
-59.125077057832968
 30
0.0
 42
0.5920055144124249
  0
VERTEX
  5
1CDA
  8
SAPA_PROFIL
 62
     4
 10
-102.3267096239104
 20
-58.872068301517459
 30
0.0
  0
VERTEX
  5
1CDB
  8
SAPA_PROFIL
 62
     4
 10
-102.3267096491854
 20
-58.44361482422724
 30
0.0
 42
-0.3735060174775405
  0
VERTEX
  5
1CDC
  8
SAPA_PROFIL
 62
     4
 10
-102.0688563768453
 20
-58.146590156317551
 30
0.0
 42
-0.0355900683670349
  0
VERTEX
  5
1CDD
  8
SAPA_PROFIL
 62
     4
 10
-101.4529827900455
 20
-58.102696592285298
 30
0.0
 42
-0.0624282003873116
  0
VERTEX
  5
1CDE
  8
SAPA_PROFIL
 62
     4
 10
-100.3811696018504
 20
-58.237042914528232
 30
0.0
 42
-0.3702522326309292
  0
VERTEX
  5
1CDF
  8
SAPA_PROFIL
 62
     4
 10
-100.1267096491847
 20
-58.533566276321622
 30
0.0
  0
VERTEX
  5
1CE0
  8
SAPA_PROFIL
 62
     4
 10
-100.1267096239085
 20
-63.55000726315513
 30
0.0
 42
-0.5205670505515692
  0
VERTEX
  5
1CE1
  8
SAPA_PROFIL
 62
     4
 10
-100.7977196955715
 20
-64.019853573548346
 30
0.0
  0
VERTEX
  5
1CE2
  8
SAPA_PROFIL
 62
     4
 10
-101.997719695581
 20
-63.583089292423402
 30
0.0
 42
-0.3152987888807539
  0
VERTEX
  5
1CE3
  8
SAPA_PROFIL
 62
     4
 10
-102.3267096239186
 20
-63.113242982027543
 30
0.0
  0
VERTEX
  5
1CE4
  8
SAPA_PROFIL
 62
     4
 10
-102.3267096239118
 20
-62.172068301518451
 30
0.0
 42
0.5862175119221242
  0
VERTEX
  5
1CE5
  8
SAPA_PROFIL
 62
     4
 10
-102.7835409496669
 20
-61.916326370536503
 30
0.0
 42
-0.0000002084758573
  0
SEQEND
  5
1CE6
  8
SAPA_PROFIL
 62
     4
  0
POLYLINE
  5
1390
  8
SAPA_PROFIL
 62
     4
 66
     1
 10
0.0
 20
0.0
 30
0.0
  0
VERTEX
  5
1CE7
  8
SAPA_PROFIL
 62
     4
 10
-77.705571461867777
 20
-56.548044424009738
 30
0.0
 42
-0.5571646428658034
  0
VERTEX
  5
1CE8
  8
SAPA_PROFIL
 62
     4
 10
-78.573290376023323
 20
-56.011083919872881
 30
0.0
  0
VERTEX
  5
1CE9
  8
SAPA_PROFIL
 62
     4
 10
-78.573290376022413
 20
-38.986346683351691
 30
0.0
 42
-0.5571645048035741
  0
VERTEX
  5
1CEA
  8
SAPA_PROFIL
 62
     4
 10
-77.705571688156226
 20
-38.449386066390659
 30
0.0
  0
VERTEX
  5
1CEB
  8
SAPA_PROFIL
 62
     4
 10
-76.039431032088217
 20
-39.280093153937401
 30
0.0
 42
-0.284385813979063
  0
VERTEX
  5
1CEC
  8
SAPA_PROFIL
 62
     4
 10
-75.87329037602079
 20
-39.548573462417757
 30
0.0
  0
VERTEX
  5
1CED
  8
SAPA_PROFIL
 62
     4
 10
-75.873290376021217
 20
-55.448857140807057
 30
0.0
 42
-0.2843858139786238
  0
VERTEX
  5
1CEE
  8
SAPA_PROFIL
 62
     4
 10
-76.039431032088146
 20
-55.717337449287349
 30
0.0
  0
VERTEX
  5
1CEF
  8
SAPA_PROFIL
 62
     4
 10
-77.705571688157519
 20
-56.54804453683446
 30
0.0
  0
SEQEND
  5
1CF0
  8
SAPA_PROFIL
 62
     4
  0
POLYLINE
  5
1391
  8
SAPA_PROFIL
 62
     4
 66
     1
 10
0.0
 20
0.0
 30
0.0
 70
     1
  0
VERTEX
  5
1CF1
  8
SAPA_PROFIL
 62
     4
 10
-75.516458861523034
 20
-33.081104116945127
 30
0.0
  0
VERTEX
  5
1CF2
  8
SAPA_PROFIL
 62
     4
 10
-75.109898665518884
 20
-32.817080838569133
 30
0.0
 42
0.2539676464751066
  0
VERTEX
  5
1CF3
  8
SAPA_PROFIL
 62
     4
 10
-74.973290376022774
 20
-32.565479668184423
 30
0.0
  0
VERTEX
  5
1CF4
  8
SAPA_PROFIL
 62
     4
 10
-74.973290376022746
 20
-31.18398008297908
 30
0.0
 42
0.3152987888790479
  0
VERTEX
  5
1CF5
  8
SAPA_PROFIL
 62
     4
 10
-75.302280304360892
 20
-30.714133772586759
 30
0.0
  0
VERTEX
  5
1CF6
  8
SAPA_PROFIL
 62
     4
 10
-77.763110494812139
 20
-29.818464831678089
 30
0.0
 42
-0.2694959974287434
  0
VERTEX
  5
1CF7
  8
SAPA_PROFIL
 62
     4
 10
-77.956242469156024
 20
-29.586945785276718
 30
0.0
 42
-0.0612686379508233
  0
VERTEX
  5
1CF8
  8
SAPA_PROFIL
 62
     4
 10
-77.969825839786523
 20
-29.294270352423439
 30
0.0
  0
VERTEX
  5
1CF9
  8
SAPA_PROFIL
 62
     4
 10
-78.171562518515344
 20
-28.94485217511518
 30
0.0
 42
-0.5773502691891679
  0
VERTEX
  5
1CFA
  8
SAPA_PROFIL
 62
     4
 10
-77.989697183720764
 20
-28.629852175115591
 30
0.0
  0
VERTEX
  5
1CFB
  8
SAPA_PROFIL
 62
     4
 10
-77.722582655594465
 20
-28.62985217511536
 30
0.0
  0
VERTEX
  5
1CFC
  8
SAPA_PROFIL
 62
     4
 10
-76.913899194286103
 20
-27.231324474481131
 30
0.0
 42
0.1318219888653519
  0
VERTEX
  5
1CFD
  8
SAPA_PROFIL
 62
     4
 10
-76.873606797748707
 20
-27.08115137200878
 30
0.0
  0
VERTEX
  5
1CFE
  8
SAPA_PROFIL
 62
     4
 10
-76.873606797755073
 20
-26.898715301572
 30
0.0
 42
0.4142135623724291
  0
VERTEX
  5
1CFF
  8
SAPA_PROFIL
 62
     4
 10
-77.273606797754695
 20
-26.498715301571451
 30
0.0
  0
VERTEX
  5
1D00
  8
SAPA_PROFIL
 62
     4
 10
-80.673606797755696
 20
-26.498715301572719
 30
0.0
 42
0.4142135623744271
  0
VERTEX
  5
1D01
  8
SAPA_PROFIL
 62
     4
 10
-81.073606797756725
 20
-26.89871530157189
 30
0.0
  0
VERTEX
  5
1D02
  8
SAPA_PROFIL
 62
     4
 10
-81.073606797757364
 20
-27.078330543843201
 30
0.0
 42
0.1316524975874005
  0
VERTEX
  5
1D03
  8
SAPA_PROFIL
 62
     4
 10
-81.033414418891766
 20
-27.228330543840009
 30
0.0
  0
VERTEX
  5
1D04
  8
SAPA_PROFIL
 62
     4
 10
-80.107264972239264
 20
-28.832468440842291
 30
0.0
 42
-0.1316524975875904
  0
VERTEX
  5
1D05
  8
SAPA_PROFIL
 62
     4
 10
-79.973290376024508
 20
-29.332468440844011
 30
0.0
  0
VERTEX
  5
1D06
  8
SAPA_PROFIL
 62
     4
 10
-79.973290376024522
 20
-29.74871530157138
 30
0.0
 42
-0.4142135623730951
  0
VERTEX
  5
1D07
  8
SAPA_PROFIL
 62
     4
 10
-80.973290376024536
 20
-30.748715301571352
 30
0.0
  0
VERTEX
  5
1D08
  8
SAPA_PROFIL
 62
     4
 10
-83.973290376021808
 20
-30.74871530157127
 30
0.0
 42
0.9999996830128083
  0
VERTEX
  5
1D09
  8
SAPA_PROFIL
 62
     4
 10
-83.973290376023655
 20
-31.74871530157127
 30
0.0
  0
VERTEX
  5
1D0A
  8
SAPA_PROFIL
 62
     4
 10
-80.97329037602367
 20
-31.748715301571352
 30
0.0
 42
-0.4142135623730951
  0
VERTEX
  5
1D0B
  8
SAPA_PROFIL
 62
     4
 10
-79.973290376023684
 20
-32.748715301571373
 30
0.0
  0
VERTEX
  5
1D0C
  8
SAPA_PROFIL
 62
     4
 10
-79.973290376024465
 20
-62.248715301655963
 30
0.0
 42
-0.4142135623730951
  0
VERTEX
  5
1D0D
  8
SAPA_PROFIL
 62
     4
 10
-80.973290376024508
 20
-63.248715301655928
 30
0.0
  0
VERTEX
  5
1D0E
  8
SAPA_PROFIL
 62
     4
 10
-83.973290376022675
 20
-63.248715301655849
 30
0.0
 42
0.9999999999999998
  0
VERTEX
  5
1D0F
  8
SAPA_PROFIL
 62
     4
 10
-83.973290376022717
 20
-64.248715301655849
 30
0.0
  0
VERTEX
  5
1D10
  8
SAPA_PROFIL
 62
     4
 10
-80.973290376024536
 20
-64.24871530165592
 30
0.0
 42
-0.4142135623736278
  0
VERTEX
  5
1D11
  8
SAPA_PROFIL
 62
     4
 10
-79.973290376024565
 20
-65.248715301655949
 30
0.0
  0
VERTEX
  5
1D12
  8
SAPA_PROFIL
 62
     4
 10
-79.973290376024579
 20
-65.664962162382409
 30
0.0
 42
-0.1316524975874375
  0
VERTEX
  5
1D13
  8
SAPA_PROFIL
 62
     4
 10
-80.107264972240614
 20
-66.164962162382594
 30
0.0
  0
VERTEX
  5
1D14
  8
SAPA_PROFIL
 62
     4
 10
-81.033414418892846
 20
-67.769100059384527
 30
0.0
 42
0.1316524975874
  0
VERTEX
  5
1D15
  8
SAPA_PROFIL
 62
     4
 10
-81.073606797758444
 20
-67.919100059384078
 30
0.0
  0
VERTEX
  5
1D16
  8
SAPA_PROFIL
 62
     4
 10
-81.073606797757819
 20
-68.098715301655375
 30
0.0
 42
0.4142135623744271
  0
VERTEX
  5
1D17
  8
SAPA_PROFIL
 62
     4
 10
-80.673606797756804
 20
-68.498715301654585
 30
0.0
  0
VERTEX
  5
1D18
  8
SAPA_PROFIL
 62
     4
 10
-77.273606797755818
 20
-68.498715301656034
 30
0.0
 42
0.4142135623724291
  0
VERTEX
  5
1D19
  8
SAPA_PROFIL
 62
     4
 10
-76.873606797756182
 20
-68.098715301655488
 30
0.0
  0
VERTEX
  5
1D1A
  8
SAPA_PROFIL
 62
     4
 10
-76.873606797749801
 20
-67.916279231218709
 30
0.0
 42
0.1318219888653524
  0
VERTEX
  5
1D1B
  8
SAPA_PROFIL
 62
     4
 10
-76.913899194287183
 20
-67.766106128746372
 30
0.0
  0
VERTEX
  5
1D1C
  8
SAPA_PROFIL
 62
     4
 10
-77.722582655511474
 20
-66.367578428266697
 30
0.0
  0
VERTEX
  5
1D1D
  8
SAPA_PROFIL
 62
     4
 10
-77.98969718372453
 20
-66.367578428266683
 30
0.0
 42
-0.577350269189159
  0
VERTEX
  5
1D1E
  8
SAPA_PROFIL
 62
     4
 10
-78.171562518519082
 20
-66.052578428267083
 30
0.0
  0
VERTEX
  5
1D1F
  8
SAPA_PROFIL
 62
     4
 10
-77.969825839841974
 20
-65.70316025104843
 30
0.0
 42
-0.0612687673629489
  0
VERTEX
  5
1D20
  8
SAPA_PROFIL
 62
     4
 10
-77.956242469155754
 20
-65.410484817948216
 30
0.0
 42
-0.2694959974285039
  0
VERTEX
  5
1D21
  8
SAPA_PROFIL
 62
     4
 10
-77.763110494811784
 20
-65.178965771547695
 30
0.0
  0
VERTEX
  5
1D22
  8
SAPA_PROFIL
 62
     4
 10
-75.302280304358604
 20
-64.283296830638108
 30
0.0
 42
0.3152987888784035
  0
VERTEX
  5
1D23
  8
SAPA_PROFIL
 62
     4
 10
-74.973290376022021
 20
-63.813450520244892
 30
0.0
  0
VERTEX
  5
1D24
  8
SAPA_PROFIL
 62
     4
 10
-74.973290376023584
 20
-62.431950935040447
 30
0.0
 42
0.2539676464741841
  0
VERTEX
  5
1D25
  8
SAPA_PROFIL
 62
     4
 10
-75.109898665518841
 20
-62.18034976465637
 30
0.0
  0
VERTEX
  5
1D26
  8
SAPA_PROFIL
 62
     4
 10
-75.516458861523816
 20
-61.916326486279722
 30
0.0
 42
0.5862177598324623
  0
VERTEX
  5
1D27
  8
SAPA_PROFIL
 62
     4
 10
-75.97329037602033
 20
-62.172068301518053
 30
0.0
  0
VERTEX
  5
1D28
  8
SAPA_PROFIL
 62
     4
 10
-75.973290376012685
 20
-63.113242982027849
 30
0.0
 42
-0.3152987888813165
  0
VERTEX
  5
1D29
  8
SAPA_PROFIL
 62
     4
 10
-76.302280304349452
 20
-63.583089292425612
 30
0.0
  0
VERTEX
  5
1D2A
  8
SAPA_PROFIL
 62
     4
 10
-77.502280304360696
 20
-64.01985357354954
 30
0.0
 42
-0.5205670505515651
  0
VERTEX
  5
1D2B
  8
SAPA_PROFIL
 62
     4
 10
-78.173290376023431
 20
-63.550007263156289
 30
0.0
  0
VERTEX
  5
1D2C
  8
SAPA_PROFIL
 62
     4
 10
-78.173290376023317
 20
-58.533566322487431
 30
0.0
 42
-0.3702522326300203
  0
VERTEX
  5
1D2D
  8
SAPA_PROFIL
 62
     4
 10
-77.918830423357605
 20
-58.237042960694112
 30
0.0
 42
-0.0982365330332397
  0
VERTEX
  5
1D2E
  8
SAPA_PROFIL
 62
     4
 10
-76.231143648362604
 20
-58.146590202483218
 30
0.0
 42
-0.3735060174783164
  0
VERTEX
  5
1D2F
  8
SAPA_PROFIL
 62
     4
 10
-75.973290376022575
 20
-58.443614870394207
 30
0.0
  0
VERTEX
  5
1D30
  8
SAPA_PROFIL
 62
     4
 10
-75.973290376021666
 20
-58.872068301516862
 30
0.0
 42
0.5920056181162531
  0
VERTEX
  5
1D31
  8
SAPA_PROFIL
 62
     4
 10
-75.512086873493757
 20
-59.125077057834268
 30
0.0
  0
VERTEX
  5
1D32
  8
SAPA_PROFIL
 62
     4
 10
-75.109898665515445
 20
-58.863892981678589
 30
0.0
 42
0.2539676464746725
  0
VERTEX
  5
1D33
  8
SAPA_PROFIL
 62
     4
 10
-74.973290376020074
 20
-58.612291811294817
 30
0.0
  0
VERTEX
  5
1D34
  8
SAPA_PROFIL
 62
     4
 10
-74.973290376021055
 20
-36.385138791929137
 30
0.0
 42
0.2539676464741819
  0
VERTEX
  5
1D35
  8
SAPA_PROFIL
 62
     4
 10
-75.109898665514834
 20
-36.133537621546282
 30
0.0
  0
VERTEX
  5
1D36
  8
SAPA_PROFIL
 62
     4
 10
-75.512086873493161
 20
-35.872353545392457
 30
0.0
 42
0.5920055144124249
  0
VERTEX
  5
1D37
  8
SAPA_PROFIL
 62
     4
 10
-75.973290376021055
 20
-36.125362301707952
 30
0.0
  0
VERTEX
  5
1D38
  8
SAPA_PROFIL
 62
     4
 10
-75.973290350746055
 20
-36.553815778998171
 30
0.0
 42
-0.3735060174775405
  0
VERTEX
  5
1D39
  8
SAPA_PROFIL
 62
     4
 10
-76.231143623086155
 20
-36.850840446907853
 30
0.0
 42
-0.0355900683670349
  0
VERTEX
  5
1D3A
  8
SAPA_PROFIL
 62
     4
 10
-76.847017209885948
 20
-36.894734010940091
 30
0.0
 42
-0.0624282003873116
  0
VERTEX
  5
1D3B
  8
SAPA_PROFIL
 62
     4
 10
-77.91883039808107
 20
-36.760387688697122
 30
0.0
 42
-0.3702522326309292
  0
VERTEX
  5
1D3C
  8
SAPA_PROFIL
 62
     4
 10
-78.173290350746782
 20
-36.463864326903739
 30
0.0
  0
VERTEX
  5
1D3D
  8
SAPA_PROFIL
 62
     4
 10
-78.173290376022791
 20
-31.44742334007023
 30
0.0
 42
-0.5205670505515692
  0
VERTEX
  5
1D3E
  8
SAPA_PROFIL
 62
     4
 10
-77.5022803043598
 20
-30.977577029677029
 30
0.0
  0
VERTEX
  5
1D3F
  8
SAPA_PROFIL
 62
     4
 10
-76.302280304350376
 20
-31.414341310802008
 30
0.0
 42
-0.3152987888807539
  0
VERTEX
  5
1D40
  8
SAPA_PROFIL
 62
     4
 10
-75.973290376012756
 20
-31.884187621197871
 30
0.0
  0
VERTEX
  5
1D41
  8
SAPA_PROFIL
 62
     4
 10
-75.973290376019605
 20
-32.825362301706953
 30
0.0
 42
0.5862175119221242
  0
VERTEX
  5
1D42
  8
SAPA_PROFIL
 62
     4
 10
-75.516459050264473
 20
-33.081104232688922
 30
0.0
 42
-0.0000002084758573
  0
SEQEND
  5
1D43
  8
SAPA_PROFIL
 62
     4
  0
POLYLINE
  5
1392
  8
SAPA_PROFIL
 66
     1
 10
0.0
 20
0.0
 30
0.0
 70
     1
  0
VERTEX
  5
1D44
  8
SAPA_PROFIL
 10
-10.69999999989062
 20
-87.001284576350542
 30
0.0
 42
-0.5507604245874563
  0
VERTEX
  5
1D45
  8
SAPA_PROFIL
 10
-10.97105237073359
 20
-86.572713147767317
 30
0.0
 42
-0.2896898632860104
  0
VERTEX
  5
1D46
  8
SAPA_PROFIL
 10
-10.0675444678549
 20
-86.001284576394625
 30
0.0
  0
VERTEX
  5
1D47
  8
SAPA_PROFIL
 10
-9.2999999998444594
 20
-86.001284576394625
 30
0.0
 42
-0.4142135623901312
  0
VERTEX
  5
1D48
  8
SAPA_PROFIL
 10
-8.9999999998444462
 20
-86.301284576412115
 30
0.0
  0
VERTEX
  5
1D49
  8
SAPA_PROFIL
 10
-9.0000000000562466
 20
-89.998715427517496
 30
0.0
 42
-0.4142342928453111
  0
VERTEX
  5
1D4A
  8
SAPA_PROFIL
 10
-9.5000353889556948
 20
-90.498715426235975
 30
0.0
  0
VERTEX
  5
1D4B
  8
SAPA_PROFIL
 10
-82.499964611043865
 20
-90.498715169402104
 30
0.0
 42
-0.4142342928453111
  0
VERTEX
  5
1D4C
  8
SAPA_PROFIL
 10
-82.999999999943299
 20
-89.998715170683624
 30
0.0
  0
VERTEX
  5
1D4D
  8
SAPA_PROFIL
 10
-83.000000000155154
 20
-86.301284319578244
 30
0.0
 42
-0.4142135623901312
  0
VERTEX
  5
1D4E
  8
SAPA_PROFIL
 10
-82.700000000155086
 20
-86.001284319560725
 30
0.0
  0
VERTEX
  5
1D4F
  8
SAPA_PROFIL
 10
-81.932455532144644
 20
-86.001284319560767
 30
0.0
 42
-0.2896898632860027
  0
VERTEX
  5
1D50
  8
SAPA_PROFIL
 10
-81.028947629267364
 20
-86.572712890934127
 30
0.0
 42
-0.5507604245874563
  0
VERTEX
  5
1D51
  8
SAPA_PROFIL
 10
-81.300000000108923
 20
-87.001284319515136
 30
0.0
  0
VERTEX
  5
1D52
  8
SAPA_PROFIL
 10
-81.500000000119229
 20
-87.001284319531806
 30
0.0
 42
0.4142135623681295
  0
VERTEX
  5
1D53
  8
SAPA_PROFIL
 10
-81.800000000101718
 20
-87.301284319544195
 30
0.0
  0
VERTEX
  5
1D54
  8
SAPA_PROFIL
 10
-81.800000000042104
 20
-88.798715170555255
 30
0.0
 42
0.4142135623609412
  0
VERTEX
  5
1D55
  8
SAPA_PROFIL
 10
-81.300000000042104
 20
-89.298715170555241
 30
0.0
  0
VERTEX
  5
1D56
  8
SAPA_PROFIL
 10
-78.000000000041183
 20
-89.298715170555241
 30
0.0
 42
0.4142135623852489
  0
VERTEX
  5
1D57
  8
SAPA_PROFIL
 10
-77.500000000041183
 20
-88.798715170534507
 30
0.0
  0
VERTEX
  5
1D58
  8
SAPA_PROFIL
 10
-77.500000000100925
 20
-87.301284319577675
 30
0.0
 42
0.4142135623780607
  0
VERTEX
  5
1D59
  8
SAPA_PROFIL
 10
-77.800000000118374
 20
-87.001284319590056
 30
0.0
  0
VERTEX
  5
1D5A
  8
SAPA_PROFIL
 10
-78.0000000001084
 20
-87.001284319601126
 30
0.0
 42
-0.5507604245840011
  0
VERTEX
  5
1D5B
  8
SAPA_PROFIL
 10
-78.271052371005482
 20
-86.572712891048099
 30
0.0
 42
-0.2896898633203997
  0
VERTEX
  5
1D5C
  8
SAPA_PROFIL
 10
-77.367544468072353
 20
-86.001284319560767
 30
0.0
  0
VERTEX
  5
1D5D
  8
SAPA_PROFIL
 10
-76.326328322680126
 20
-86.001284319560767
 30
0.0
  0
VERTEX
  5
1D5E
  8
SAPA_PROFIL
 10
-74.713175911178382
 20
-86.285726613703432
 30
0.0
 42
-0.8390996311772029
  0
VERTEX
  5
1D5F
  8
SAPA_PROFIL
 10
-74.713175911178382
 20
-87.270534366715637
 30
0.0
  0
VERTEX
  5
1D60
  8
SAPA_PROFIL
 10
-75.886824088845401
 20
-87.47748020629767
 30
0.0
 42
0.363970234266201
  0
VERTEX
  5
1D61
  8
SAPA_PROFIL
 10
-76.300000000011892
 20
-87.969884082803773
 30
0.0
  0
VERTEX
  5
1D62
  8
SAPA_PROFIL
 10
-76.300000000011892
 20
-88.798358715293006
 30
0.0
 42
0.426132608942994
  0
VERTEX
  5
1D63
  8
SAPA_PROFIL
 10
-75.779744535551274
 20
-89.297948262981421
 30
0.0
  0
VERTEX
  5
1D64
  8
SAPA_PROFIL
 10
-61.287846721108359
 20
-88.710385687852252
 30
0.0
 42
0.4023941304324702
  0
VERTEX
  5
1D65
  8
SAPA_PROFIL
 10
-60.999999999784762
 20
-88.410631959239197
 30
0.0
  0
VERTEX
  5
1D66
  8
SAPA_PROFIL
 10
-60.999999999784677
 20
-87.610098740874363
 30
0.0
 42
-0.259681233730068
  0
VERTEX
  5
1D67
  8
SAPA_PROFIL
 10
-60.905306804536529
 20
-87.44006792933429
 30
0.0
  0
VERTEX
  5
1D68
  8
SAPA_PROFIL
 10
-59.457960206912439
 20
-86.543668952092091
 30
0.0
 42
-0.5877032589250129
  0
VERTEX
  5
1D69
  8
SAPA_PROFIL
 10
-58.999999999784762
 20
-86.798715169402143
 30
0.0
  0
VERTEX
  5
1D6A
  8
SAPA_PROFIL
 10
-58.999999999784727
 20
-88.198715169402121
 30
0.0
 42
0.4142135623731242
  0
VERTEX
  5
1D6B
  8
SAPA_PROFIL
 10
-58.699999999784637
 20
-88.498715169402175
 30
0.0
  0
VERTEX
  5
1D6C
  8
SAPA_PROFIL
 10
-56.299999999784738
 20
-88.498715169402175
 30
0.0
 42
0.4142135623730951
  0
VERTEX
  5
1D6D
  8
SAPA_PROFIL
 10
-55.999999999784762
 20
-88.198715169402149
 30
0.0
  0
VERTEX
  5
1D6E
  8
SAPA_PROFIL
 10
-55.999999999784762
 20
-78.598715169402155
 30
0.0
 42
0.4142135623731409
  0
VERTEX
  5
1D6F
  8
SAPA_PROFIL
 10
-56.299999999784831
 20
-78.298715169402143
 30
0.0
  0
VERTEX
  5
1D70
  8
SAPA_PROFIL
 10
-60.699999999784751
 20
-78.298715169402016
 30
0.0
 42
-0.414213562373195
  0
VERTEX
  5
1D71
  8
SAPA_PROFIL
 10
-60.999999999784848
 20
-77.998715169402018
 30
0.0
  0
VERTEX
  5
1D72
  8
SAPA_PROFIL
 10
-60.999999999784762
 20
-76.514627104048813
 30
0.0
 42
-0.2596812337301437
  0
VERTEX
  5
1D73
  8
SAPA_PROFIL
 10
-60.905306804536529
 20
-76.34459629250874
 30
0.0
  0
VERTEX
  5
1D74
  8
SAPA_PROFIL
 10
-60.25796020691245
 20
-75.943668947956951
 30
0.0
 42
-0.587703258924989
  0
VERTEX
  5
1D75
  8
SAPA_PROFIL
 10
-59.799999999784738
 20
-76.198715165267046
 30
0.0
  0
VERTEX
  5
1D76
  8
SAPA_PROFIL
 10
-59.799999999784738
 20
-76.598715169402155
 30
0.0
 42
0.4142135623731492
  0
VERTEX
  5
1D77
  8
SAPA_PROFIL
 10
-59.499999999784841
 20
-76.898715169402166
 30
0.0
  0
VERTEX
  5
1D78
  8
SAPA_PROFIL
 10
-56.299999999784738
 20
-76.898715169402109
 30
0.0
 42
0.414213562373195
  0
VERTEX
  5
1D79
  8
SAPA_PROFIL
 10
-55.999999999784762
 20
-76.598715169402155
 30
0.0
  0
VERTEX
  5
1D7A
  8
SAPA_PROFIL
 10
-55.999999999784762
 20
-70.798715169402143
 30
0.0
 42
0.4142135623731242
  0
VERTEX
  5
1D7B
  8
SAPA_PROFIL
 10
-56.299999999784738
 20
-70.498715169402175
 30
0.0
  0
VERTEX
  5
1D7C
  8
SAPA_PROFIL
 10
-58.699999999784637
 20
-70.498715169402104
 30
0.0
 42
0.4142135623730659
  0
VERTEX
  5
1D7D
  8
SAPA_PROFIL
 10
-58.999999999784762
 20
-70.798715169402115
 30
0.0
  0
VERTEX
  5
1D7E
  8
SAPA_PROFIL
 10
-58.999999999784762
 20
-72.198715169402121
 30
0.0
 42
-0.5920056181179502
  0
VERTEX
  5
1D7F
  8
SAPA_PROFIL
 10
-59.461203502311541
 20
-72.451723925719122
 30
0.0
  0
VERTEX
  5
1D80
  8
SAPA_PROFIL
 10
-60.707469001469178
 20
-71.657670919542539
 30
0.0
 42
-0.2562769736732326
  0
VERTEX
  5
1D81
  8
SAPA_PROFIL
 10
-60.799999999784632
 20
-71.488998415331181
 30
0.0
  0
VERTEX
  5
1D82
  8
SAPA_PROFIL
 10
-60.799999999784717
 20
-68.492731505716051
 30
0.0
  0
VERTEX
  5
1D83
  8
SAPA_PROFIL
 10
-60.290853600473582
 20
-67.175433829480326
 30
0.0
 42
0.4142135623730958
  0
VERTEX
  5
1D84
  8
SAPA_PROFIL
 10
-60.490817644980972
 20
-66.801248874004514
 30
0.0
  0
VERTEX
  5
1D85
  8
SAPA_PROFIL
 10
-60.538663394979473
 20
-66.786730464757412
 30
0.0
  0
VERTEX
  5
1D86
  8
SAPA_PROFIL
 10
-60.53874700286309
 20
-65.283629383995404
 30
0.0
 42
-0.4769755326981641
  0
VERTEX
  5
1D87
  8
SAPA_PROFIL
 10
-60.167090127917248
 20
-64.981376559488936
 30
0.0
  0
VERTEX
  5
1D88
  8
SAPA_PROFIL
 10
-58.353859657258987
 20
-65.362823155616667
 30
0.0
 42
-0.2216946626430181
  0
VERTEX
  5
1D89
  8
SAPA_PROFIL
 10
-57.8129798257822
 20
-65.768632060771452
 30
0.0
  0
VERTEX
  5
1D8A
  8
SAPA_PROFIL
 10
-57.660845914673438
 20
-66.053314344003098
 30
0.0
 42
-0.5773502691897454
  0
VERTEX
  5
1D8B
  8
SAPA_PROFIL
 10
-57.843799654783624
 20
-66.347470644257911
 30
0.0
  0
VERTEX
  5
1D8C
  8
SAPA_PROFIL
 10
-58.165557383001868
 20
-66.336909278030944
 30
0.0
  0
VERTEX
  5
1D8D
  8
SAPA_PROFIL
 10
-59.250121829973601
 20
-68.222752969891999
 30
0.0
  0
VERTEX
  5
1D8E
  8
SAPA_PROFIL
 10
-59.308195466962701
 20
-68.414135969885706
 30
0.0
 42
0.7625858545243255
  0
VERTEX
  5
1D8F
  8
SAPA_PROFIL
 10
-58.977869385945702
 20
-68.598715172083217
 30
0.0
 42
-0.2134217652834359
  0
VERTEX
  5
1D90
  8
SAPA_PROFIL
 10
-58.754262588195559
 20
-68.498715172083095
 30
0.0
  0
VERTEX
  5
1D91
  8
SAPA_PROFIL
 10
-54.901476183695557
 20
-68.498715172083152
 30
0.0
 42
0.4142135623730035
  0
VERTEX
  5
1D92
  8
SAPA_PROFIL
 10
-54.601476183695553
 20
-68.198715172083141
 30
0.0
  0
VERTEX
  5
1D93
  8
SAPA_PROFIL
 10
-54.601476183695553
 20
-67.898715172083101
 30
0.0
  0
VERTEX
  5
1D94
  8
SAPA_PROFIL
 10
-55.525236614398921
 20
-66.298715172083178
 30
0.0
 42
-0.5773502691897307
  0
VERTEX
  5
1D95
  8
SAPA_PROFIL
 10
-55.352031533642041
 20
-65.998715172083095
 30
0.0
  0
VERTEX
  5
1D96
  8
SAPA_PROFIL
 10
-53.966390887586947
 20
-65.998715172083124
 30
0.0
 42
-0.2679491924311169
  0
VERTEX
  5
1D97
  8
SAPA_PROFIL
 10
-53.100365483802562
 20
-66.498715172083095
 30
0.0
  0
VERTEX
  5
1D98
  8
SAPA_PROFIL
 10
-52.090002514229148
 20
-68.248715169470273
 30
0.0
 42
0.2679491924311239
  0
VERTEX
  5
1D99
  8
SAPA_PROFIL
 10
-51.656989812336953
 20
-68.498715169470273
 30
0.0
  0
VERTEX
  5
1D9A
  8
SAPA_PROFIL
 10
-40.343010188113929
 20
-68.498715169470273
 30
0.0
 42
0.2679491924311547
  0
VERTEX
  5
1D9B
  8
SAPA_PROFIL
 10
-39.90999748622167
 20
-68.248715169470231
 30
0.0
  0
VERTEX
  5
1D9C
  8
SAPA_PROFIL
 10
-38.89963451664844
 20
-66.498715172083095
 30
0.0
 42
-0.2679491924311272
  0
VERTEX
  5
1D9D
  8
SAPA_PROFIL
 10
-38.033609112863992
 20
-65.998715172083095
 30
0.0
  0
VERTEX
  5
1D9E
  8
SAPA_PROFIL
 10
-36.647968466808997
 20
-65.998715172083052
 30
0.0
 42
-0.5773502691897177
  0
VERTEX
  5
1D9F
  8
SAPA_PROFIL
 10
-36.474763386052111
 20
-66.298715172083192
 30
0.0
  0
VERTEX
  5
1DA0
  8
SAPA_PROFIL
 10
-37.398523816755393
 20
-67.898715172083101
 30
0.0
  0
VERTEX
  5
1DA1
  8
SAPA_PROFIL
 10
-37.398523816755393
 20
-68.198715172083141
 30
0.0
 42
0.4142135623730951
  0
VERTEX
  5
1DA2
  8
SAPA_PROFIL
 10
-37.09852381675541
 20
-68.498715172083152
 30
0.0
  0
VERTEX
  5
1DA3
  8
SAPA_PROFIL
 10
-33.245737412255487
 20
-68.498715172083081
 30
0.0
 42
-0.2134217652834361
  0
VERTEX
  5
1DA4
  8
SAPA_PROFIL
 10
-33.022130614505421
 20
-68.598715172083175
 30
0.0
 42
0.7625858545243255
  0
VERTEX
  5
1DA5
  8
SAPA_PROFIL
 10
-32.69180453348838
 20
-68.41413596988572
 30
0.0
  0
VERTEX
  5
1DA6
  8
SAPA_PROFIL
 10
-32.749878170477473
 20
-68.222752969891999
 30
0.0
  0
VERTEX
  5
1DA7
  8
SAPA_PROFIL
 10
-33.83444261744922
 20
-66.336909278030944
 30
0.0
  0
VERTEX
  5
1DA8
  8
SAPA_PROFIL
 10
-34.156200345667493
 20
-66.347470644257925
 30
0.0
 42
-0.5773502691897453
  0
VERTEX
  5
1DA9
  8
SAPA_PROFIL
 10
-34.339154085777643
 20
-66.053314344003084
 30
0.0
  0
VERTEX
  5
1DAA
  8
SAPA_PROFIL
 10
-34.187020174668881
 20
-65.768632060771452
 30
0.0
 42
-0.2216946626430179
  0
VERTEX
  5
1DAB
  8
SAPA_PROFIL
 10
-33.646140343192087
 20
-65.362823155616653
 30
0.0
  0
VERTEX
  5
1DAC
  8
SAPA_PROFIL
 10
-31.832909872533861
 20
-64.981376559488936
 30
0.0
 42
-0.4769755326981641
  0
VERTEX
  5
1DAD
  8
SAPA_PROFIL
 10
-31.461252997587959
 20
-65.283629383995404
 30
0.0
  0
VERTEX
  5
1DAE
  8
SAPA_PROFIL
 10
-31.461336605471619
 20
-66.786730464757412
 30
0.0
  0
VERTEX
  5
1DAF
  8
SAPA_PROFIL
 10
-31.509182355470099
 20
-66.801248874004514
 30
0.0
 42
0.4142135623730953
  0
VERTEX
  5
1DB0
  8
SAPA_PROFIL
 10
-31.709146399977499
 20
-67.175433829480326
 30
0.0
  0
VERTEX
  5
1DB1
  8
SAPA_PROFIL
 10
-31.200000000666311
 20
-68.492731505716179
 30
0.0
  0
VERTEX
  5
1DB2
  8
SAPA_PROFIL
 10
-31.200000000666311
 20
-71.488998415331096
 30
0.0
 42
-0.2562769736732409
  0
VERTEX
  5
1DB3
  8
SAPA_PROFIL
 10
-31.292530998981761
 20
-71.657670919542426
 30
0.0
  0
VERTEX
  5
1DB4
  8
SAPA_PROFIL
 10
-32.538796498139483
 20
-72.451723925719165
 30
0.0
 42
-0.592005618117916
  0
VERTEX
  5
1DB5
  8
SAPA_PROFIL
 10
-33.00000000066629
 20
-72.198715169402121
 30
0.0
  0
VERTEX
  5
1DB6
  8
SAPA_PROFIL
 10
-33.00000000066629
 20
-70.798715169402115
 30
0.0
 42
0.4142135623730951
  0
VERTEX
  5
1DB7
  8
SAPA_PROFIL
 10
-33.300000000666387
 20
-70.498715169402104
 30
0.0
  0
VERTEX
  5
1DB8
  8
SAPA_PROFIL
 10
-35.700000000666279
 20
-70.498715169402175
 30
0.0
 42
0.4142135623731242
  0
VERTEX
  5
1DB9
  8
SAPA_PROFIL
 10
-36.00000000066629
 20
-70.798715169402143
 30
0.0
  0
VERTEX
  5
1DBA
  8
SAPA_PROFIL
 10
-36.000000000666319
 20
-76.598715169402155
 30
0.0
 42
0.4142135623731866
  0
VERTEX
  5
1DBB
  8
SAPA_PROFIL
 10
-35.700000000666279
 20
-76.898715169402109
 30
0.0
  0
VERTEX
  5
1DBC
  8
SAPA_PROFIL
 10
-32.500000000666176
 20
-76.898715169402166
 30
0.0
 42
0.4142135623731492
  0
VERTEX
  5
1DBD
  8
SAPA_PROFIL
 10
-32.200000000666279
 20
-76.598715169402155
 30
0.0
  0
VERTEX
  5
1DBE
  8
SAPA_PROFIL
 10
-32.20000000066625
 20
-76.198715165267046
 30
0.0
 42
-0.5877032589250028
  0
VERTEX
  5
1DBF
  8
SAPA_PROFIL
 10
-31.74203979353857
 20
-75.943668947956994
 30
0.0
  0
VERTEX
  5
1DC0
  8
SAPA_PROFIL
 10
-31.09469319591452
 20
-76.344596292508754
 30
0.0
 42
-0.259681233730169
  0
VERTEX
  5
1DC1
  8
SAPA_PROFIL
 10
-31.00000000066629
 20
-76.514627104048813
 30
0.0
  0
VERTEX
  5
1DC2
  8
SAPA_PROFIL
 10
-31.00000000066624
 20
-77.998715169402018
 30
0.0
 42
-0.4142135623730951
  0
VERTEX
  5
1DC3
  8
SAPA_PROFIL
 10
-31.300000000666191
 20
-78.298715169401973
 30
0.0
  0
VERTEX
  5
1DC4
  8
SAPA_PROFIL
 10
-35.700000000666172
 20
-78.298715169402143
 30
0.0
 42
0.414213562373041
  0
VERTEX
  5
1DC5
  8
SAPA_PROFIL
 10
-36.00000000066629
 20
-78.598715169402155
 30
0.0
  0
VERTEX
  5
1DC6
  8
SAPA_PROFIL
 10
-36.00000000066629
 20
-88.198715169402149
 30
0.0
 42
0.4142135623730951
  0
VERTEX
  5
1DC7
  8
SAPA_PROFIL
 10
-35.700000000666279
 20
-88.498715169402175
 30
0.0
  0
VERTEX
  5
1DC8
  8
SAPA_PROFIL
 10
-33.300000000666387
 20
-88.498715169402175
 30
0.0
 42
0.4142135623730951
  0
VERTEX
  5
1DC9
  8
SAPA_PROFIL
 10
-33.00000000066629
 20
-88.198715169402149
 30
0.0
  0
VERTEX
  5
1DCA
  8
SAPA_PROFIL
 10
-33.000000000666262
 20
-86.798715169402143
 30
0.0
 42
-0.5877032589250129
  0
VERTEX
  5
1DCB
  8
SAPA_PROFIL
 10
-32.542039793538578
 20
-86.543668952092091
 30
0.0
  0
VERTEX
  5
1DCC
  8
SAPA_PROFIL
 10
-31.094693195914459
 20
-87.440067929334234
 30
0.0
 42
-0.2596812337301122
  0
VERTEX
  5
1DCD
  8
SAPA_PROFIL
 10
-31.00000000066629
 20
-87.610098740874363
 30
0.0
  0
VERTEX
  5
1DCE
  8
SAPA_PROFIL
 10
-31.00000000066629
 20
-88.41063195923924
 30
0.0
 42
0.4023941304324539
  0
VERTEX
  5
1DCF
  8
SAPA_PROFIL
 10
-30.71215327934269
 20
-88.710385687852295
 30
0.0
  0
VERTEX
  5
1DD0
  8
SAPA_PROFIL
 10
-16.239094457311658
 20
-89.297184707692864
 30
0.0
 42
0.4373282586284287
  0
VERTEX
  5
1DD1
  8
SAPA_PROFIL
 10
-15.69999999998765
 20
-88.798715427389084
 30
0.0
  0
VERTEX
  5
1DD2
  8
SAPA_PROFIL
 10
-15.69999999998765
 20
-87.96988433963763
 30
0.0
 42
0.363970234266201
  0
VERTEX
  5
1DD3
  8
SAPA_PROFIL
 10
-16.113175911154141
 20
-87.477480463131528
 30
0.0
  0
VERTEX
  5
1DD4
  8
SAPA_PROFIL
 10
-17.28682408882116
 20
-87.270534623549494
 30
0.0
 42
-0.8390996311772029
  0
VERTEX
  5
1DD5
  8
SAPA_PROFIL
 10
-17.28682408882116
 20
-86.285726870537289
 30
0.0
  0
VERTEX
  5
1DD6
  8
SAPA_PROFIL
 10
-15.673671677319421
 20
-86.001284576394625
 30
0.0
  0
VERTEX
  5
1DD7
  8
SAPA_PROFIL
 10
-14.632455531927199
 20
-86.001284576394795
 30
0.0
 42
-0.2896898633203997
  0
VERTEX
  5
1DD8
  8
SAPA_PROFIL
 10
-13.728947628993691
 20
-86.572713147881785
 30
0.0
 42
-0.5507604245840011
  0
VERTEX
  5
1DD9
  8
SAPA_PROFIL
 10
-13.99999999989114
 20
-87.001284576435566
 30
0.0
  0
VERTEX
  5
1DDA
  8
SAPA_PROFIL
 10
-14.199999999881159
 20
-87.001284576423899
 30
0.0
 42
0.4142135623780607
  0
VERTEX
  5
1DDB
  8
SAPA_PROFIL
 10
-14.49999999989862
 20
-87.301284576411533
 30
0.0
  0
VERTEX
  5
1DDC
  8
SAPA_PROFIL
 10
-14.49999999995836
 20
-88.798715427368336
 30
0.0
 42
0.4142135623852489
  0
VERTEX
  5
1DDD
  8
SAPA_PROFIL
 10
-13.99999999995836
 20
-89.298715427389098
 30
0.0
  0
VERTEX
  5
1DDE
  8
SAPA_PROFIL
 10
-10.69999999995744
 20
-89.298715427389098
 30
0.0
 42
0.4142135623609412
  0
VERTEX
  5
1DDF
  8
SAPA_PROFIL
 10
-10.19999999995744
 20
-88.798715427389084
 30
0.0
  0
VERTEX
  5
1DE0
  8
SAPA_PROFIL
 10
-10.199999999897811
 20
-87.301284576378052
 30
0.0
 42
0.4142135623681295
  0
VERTEX
  5
1DE1
  8
SAPA_PROFIL
 10
-10.499999999880311
 20
-87.001284576365634
 30
0.0
  0
SEQEND
  5
1DE2
  8
SAPA_PROFIL
  0
POLYLINE
  5
1393
  8
SAPA_PROFIL
 66
     1
 10
0.0
 20
0.0
 30
0.0
 70
     1
  0
VERTEX
  5
1DE3
  8
SAPA_PROFIL
 10
-50.099999999842773
 20
-88.798715167492517
 30
0.0
  0
VERTEX
  5
1DE4
  8
SAPA_PROFIL
 10
-41.900000000724532
 20
-88.798715174175598
 30
0.0
 42
0.4142135624581968
  0
VERTEX
  5
1DE5
  8
SAPA_PROFIL
 10
-41.700000000666392
 20
-88.598715174175567
 30
0.0
  0
VERTEX
  5
1DE6
  8
SAPA_PROFIL
 10
-41.700000000666392
 20
-88.498715172699747
 30
0.0
 42
-0.4142135624945166
  0
VERTEX
  5
1DE7
  8
SAPA_PROFIL
 10
-41.400000000542001
 20
-88.19871517269975
 30
0.0
  0
VERTEX
  5
1DE8
  8
SAPA_PROFIL
 10
-40.000000000542002
 20
-88.198715173280135
 30
0.0
 42
-0.4142135622516735
  0
VERTEX
  5
1DE9
  8
SAPA_PROFIL
 10
-39.700000000666392
 20
-88.498715173280104
 30
0.0
  0
VERTEX
  5
1DEA
  8
SAPA_PROFIL
 10
-39.700000000666392
 20
-88.59871517348283
 30
0.0
 42
0.4142135622584164
  0
VERTEX
  5
1DEB
  8
SAPA_PROFIL
 10
-39.500000000744713
 20
-88.798715173482805
 30
0.0
  0
VERTEX
  5
1DEC
  8
SAPA_PROFIL
 10
-38.000000000783842
 20
-88.798715174109333
 30
0.0
 42
0.4142135624877821
  0
VERTEX
  5
1DED
  8
SAPA_PROFIL
 10
-37.7000000006664
 20
-88.498715174109336
 30
0.0
  0
VERTEX
  5
1DEE
  8
SAPA_PROFIL
 10
-37.700000000666357
 20
-70.49871516366764
 30
0.0
 42
0.4142135623730784
  0
VERTEX
  5
1DEF
  8
SAPA_PROFIL
 10
-38.000000000666383
 20
-70.198715163667643
 30
0.0
  0
VERTEX
  5
1DF0
  8
SAPA_PROFIL
 10
-39.500000000666411
 20
-70.198715163667615
 30
0.0
 42
0.4142135623730951
  0
VERTEX
  5
1DF1
  8
SAPA_PROFIL
 10
-39.700000000666392
 20
-70.398715163667632
 30
0.0
  0
VERTEX
  5
1DF2
  8
SAPA_PROFIL
 10
-39.700000000666392
 20
-70.498715163667612
 30
0.0
 42
-0.4142135623730951
  0
VERTEX
  5
1DF3
  8
SAPA_PROFIL
 10
-40.000000000666368
 20
-70.798715163667609
 30
0.0
  0
VERTEX
  5
1DF4
  8
SAPA_PROFIL
 10
-41.400000000666367
 20
-70.798715163667623
 30
0.0
 42
-0.4142135623730951
  0
VERTEX
  5
1DF5
  8
SAPA_PROFIL
 10
-41.700000000666392
 20
-70.498715163667612
 30
0.0
  0
VERTEX
  5
1DF6
  8
SAPA_PROFIL
 10
-41.700000000666392
 20
-70.39871516366766
 30
0.0
 42
0.4142135623730701
  0
VERTEX
  5
1DF7
  8
SAPA_PROFIL
 10
-41.900000000666381
 20
-70.198715163667643
 30
0.0
  0
VERTEX
  5
1DF8
  8
SAPA_PROFIL
 10
-50.099999999784671
 20
-70.198715163667643
 30
0.0
 42
0.4142135623730951
  0
VERTEX
  5
1DF9
  8
SAPA_PROFIL
 10
-50.29999999978466
 20
-70.39871516366766
 30
0.0
  0
VERTEX
  5
1DFA
  8
SAPA_PROFIL
 10
-50.29999999978466
 20
-70.498715163667612
 30
0.0
 42
-0.4142135623730951
  0
VERTEX
  5
1DFB
  8
SAPA_PROFIL
 10
-50.599999999784671
 20
-70.798715163667609
 30
0.0
  0
VERTEX
  5
1DFC
  8
SAPA_PROFIL
 10
-51.999999999784677
 20
-70.798715163667623
 30
0.0
 42
-0.4142135623730576
  0
VERTEX
  5
1DFD
  8
SAPA_PROFIL
 10
-52.29999999978471
 20
-70.498715163667669
 30
0.0
  0
VERTEX
  5
1DFE
  8
SAPA_PROFIL
 10
-52.29999999978471
 20
-70.398715163667575
 30
0.0
 42
0.4142135623730326
  0
VERTEX
  5
1DFF
  8
SAPA_PROFIL
 10
-52.499999999784698
 20
-70.198715163667615
 30
0.0
  0
VERTEX
  5
1E00
  8
SAPA_PROFIL
 10
-53.999999999784649
 20
-70.198715163667643
 30
0.0
 42
0.4142135623730951
  0
VERTEX
  5
1E01
  8
SAPA_PROFIL
 10
-54.299999999784632
 20
-70.49871516366764
 30
0.0
  0
VERTEX
  5
1E02
  8
SAPA_PROFIL
 10
-54.29999999978466
 20
-88.498715174109336
 30
0.0
 42
0.4142135624877821
  0
VERTEX
  5
1E03
  8
SAPA_PROFIL
 10
-53.999999999667182
 20
-88.798715174109333
 30
0.0
  0
VERTEX
  5
1E04
  8
SAPA_PROFIL
 10
-52.499999999706347
 20
-88.798715173482819
 30
0.0
 42
0.4142135622584081
  0
VERTEX
  5
1E05
  8
SAPA_PROFIL
 10
-52.29999999978466
 20
-88.59871517348283
 30
0.0
  0
VERTEX
  5
1E06
  8
SAPA_PROFIL
 10
-52.29999999978466
 20
-88.498715173280104
 30
0.0
 42
-0.4142135622516652
  0
VERTEX
  5
1E07
  8
SAPA_PROFIL
 10
-51.999999999909022
 20
-88.198715173280121
 30
0.0
  0
VERTEX
  5
1E08
  8
SAPA_PROFIL
 10
-50.599999999909038
 20
-88.19871517269975
 30
0.0
 42
-0.4142135624945249
  0
VERTEX
  5
1E09
  8
SAPA_PROFIL
 10
-50.29999999978466
 20
-88.498715172699747
 30
0.0
  0
VERTEX
  5
1E0A
  8
SAPA_PROFIL
 10
-50.29999999978466
 20
-88.598715167492529
 30
0.0
 42
0.4142135622879767
  0
SEQEND
  5
1E0B
  8
SAPA_PROFIL
  0
POLYLINE
  5
1394
  8
SAPA_PROFIL
 66
     1
 10
0.0
 20
0.0
 30
0.0
 70
     1
  0
VERTEX
  5
1E0C
  8
SAPA_PROFIL
 10
-51.65551362713245
 20
-26.498715297776219
 30
0.0
 42
0.267949192431007
  0
VERTEX
  5
1E0D
  8
SAPA_PROFIL
 10
-52.088526329024489
 20
-26.748715297776219
 30
0.0
  0
VERTEX
  5
1E0E
  8
SAPA_PROFIL
 10
-53.098889300106528
 20
-28.49871529777668
 30
0.0
 42
-0.2679491924311281
  0
VERTEX
  5
1E0F
  8
SAPA_PROFIL
 10
-53.964914703891061
 20
-28.99871529777668
 30
0.0
  0
VERTEX
  5
1E10
  8
SAPA_PROFIL
 10
-55.350555349946042
 20
-28.99871529777645
 30
0.0
 42
-0.57735026918954
  0
VERTEX
  5
1E11
  8
SAPA_PROFIL
 10
-55.52376043070285
 20
-28.698715297776499
 30
0.0
  0
VERTEX
  5
1E12
  8
SAPA_PROFIL
 10
-54.599999999999682
 20
-27.09871529777681
 30
0.0
  0
VERTEX
  5
1E13
  8
SAPA_PROFIL
 10
-54.599999999999682
 20
-26.798715297776631
 30
0.0
 42
0.41421356237306
  0
VERTEX
  5
1E14
  8
SAPA_PROFIL
 10
-54.899999999999871
 20
-26.49871529777645
 30
0.0
  0
VERTEX
  5
1E15
  8
SAPA_PROFIL
 10
-58.752786404499382
 20
-26.49871529777645
 30
0.0
 42
-0.2036002236709541
  0
VERTEX
  5
1E16
  8
SAPA_PROFIL
 10
-58.968706713319769
 20
-26.406990164812651
 30
0.0
 42
0.8292414158604859
  0
VERTEX
  5
1E17
  8
SAPA_PROFIL
 10
-59.300702346339449
 20
-26.603123453344072
 30
0.0
  0
VERTEX
  5
1E18
  8
SAPA_PROFIL
 10
-59.248645646277751
 20
-26.774677499967972
 30
0.0
  0
VERTEX
  5
1E19
  8
SAPA_PROFIL
 10
-58.16408119930589
 20
-28.660521191828799
 30
0.0
  0
VERTEX
  5
1E1A
  8
SAPA_PROFIL
 10
-57.842323471087873
 20
-28.64995982560206
 30
0.0
 42
-0.5773502691894565
  0
VERTEX
  5
1E1B
  8
SAPA_PROFIL
 10
-57.659369730977467
 20
-28.944116125856659
 30
0.0
  0
VERTEX
  5
1E1C
  8
SAPA_PROFIL
 10
-57.811503642085661
 20
-29.22879840908784
 30
0.0
 42
-0.2216946626431577
  0
VERTEX
  5
1E1D
  8
SAPA_PROFIL
 10
-58.352383473563123
 20
-29.634607314243091
 30
0.0
  0
VERTEX
  5
1E1E
  8
SAPA_PROFIL
 10
-60.165613944220929
 20
-30.016053910370811
 30
0.0
 42
-0.4757248385987928
  0
VERTEX
  5
1E1F
  8
SAPA_PROFIL
 10
-60.537270889071131
 20
-29.715057819912978
 30
0.0
  0
VERTEX
  5
1E20
  8
SAPA_PROFIL
 10
-60.537187211283481
 20
-28.210700005102328
 30
0.0
  0
VERTEX
  5
1E21
  8
SAPA_PROFIL
 10
-60.489341461285001
 20
-28.196181595854998
 30
0.0
 42
0.4580511809928869
  0
VERTEX
  5
1E22
  8
SAPA_PROFIL
 10
-60.305273745632128
 20
-27.780801213305931
 30
0.0
  0
VERTEX
  5
1E23
  8
SAPA_PROFIL
 10
-60.799999999999507
 20
-26.49871529777668
 30
0.0
  0
VERTEX
  5
1E24
  8
SAPA_PROFIL
 10
-60.799999999999507
 20
-23.486230964268291
 30
0.0
 42
-0.2596812337301257
  0
VERTEX
  5
1E25
  8
SAPA_PROFIL
 10
-60.705306804751451
 20
-23.316200152728221
 30
0.0
  0
VERTEX
  5
1E26
  8
SAPA_PROFIL
 10
-59.457960207127371
 20
-22.543669083658621
 30
0.0
 42
-0.5877032589249617
  0
VERTEX
  5
1E27
  8
SAPA_PROFIL
 10
-58.99999999999978
 20
-22.79871530096873
 30
0.0
  0
VERTEX
  5
1E28
  8
SAPA_PROFIL
 10
-58.99999999999978
 20
-24.23289408735921
 30
0.0
 42
0.4683749459842228
  0
VERTEX
  5
1E29
  8
SAPA_PROFIL
 10
-58.699999999999598
 20
-24.498715300968779
 30
0.0
  0
VERTEX
  5
1E2A
  8
SAPA_PROFIL
 10
-56.299999999999962
 20
-24.498715300968549
 30
0.0
 42
0.4683749459847173
  0
VERTEX
  5
1E2B
  8
SAPA_PROFIL
 10
-55.99999999999978
 20
-24.232894087358979
 30
0.0
  0
VERTEX
  5
1E2C
  8
SAPA_PROFIL
 10
-55.99999999999978
 20
-18.398715300968639
 30
0.0
  0
VERTEX
  5
1E2D
  8
SAPA_PROFIL
 10
-55.99999999999978
 20
-16.398715300968639
 30
0.0
  0
VERTEX
  5
1E2E
  8
SAPA_PROFIL
 10
-55.999999999999773
 20
-6.7987153009687393
 30
0.0
 42
0.4142135623730951
  0
VERTEX
  5
1E2F
  8
SAPA_PROFIL
 10
-56.2999999999995
 20
-6.4987153009687839
 30
0.0
  0
VERTEX
  5
1E30
  8
SAPA_PROFIL
 10
-58.699999999999591
 20
-6.4987153009687839
 30
0.0
 42
0.4142135623730951
  0
VERTEX
  5
1E31
  8
SAPA_PROFIL
 10
-58.999999999999773
 20
-6.7987153009687393
 30
0.0
  0
VERTEX
  5
1E32
  8
SAPA_PROFIL
 10
-58.999999999999773
 20
-8.1987153009688285
 30
0.0
 42
-0.5877032589248625
  0
VERTEX
  5
1E33
  8
SAPA_PROFIL
 10
-59.457960207127371
 20
-8.4537615182787107
 30
0.0
  0
VERTEX
  5
1E34
  8
SAPA_PROFIL
 10
-60.905306804751262
 20
-7.557362541036567
 30
0.0
 42
-0.2596812337300832
  0
VERTEX
  5
1E35
  8
SAPA_PROFIL
 10
-60.999999999999773
 20
-7.387331729496494
 30
0.0
  0
VERTEX
  5
1E36
  8
SAPA_PROFIL
 10
-60.999999999999773
 20
-4.6987152978190219
 30
0.0
 42
-0.4142135623731107
  0
VERTEX
  5
1E37
  8
SAPA_PROFIL
 10
-60.7999999999995
 20
-4.4987152978189773
 30
0.0
  0
VERTEX
  5
1E38
  8
SAPA_PROFIL
 10
-31.199999999999591
 20
-4.4987152978189817
 30
0.0
 42
-0.4142135623730273
  0
VERTEX
  5
1E39
  8
SAPA_PROFIL
 10
-30.999999999999769
 20
-4.6987152978190281
 30
0.0
  0
VERTEX
  5
1E3A
  8
SAPA_PROFIL
 10
-30.999999999999769
 20
-7.3873317294967293
 30
0.0
 42
-0.2596812337302099
  0
VERTEX
  5
1E3B
  8
SAPA_PROFIL
 10
-31.094693195247832
 20
-7.5573625410368024
 30
0.0
  0
VERTEX
  5
1E3C
  8
SAPA_PROFIL
 10
-32.542039792871719
 20
-8.4537615182789452
 30
0.0
 42
-0.5877032589250762
  0
VERTEX
  5
1E3D
  8
SAPA_PROFIL
 10
-32.99999999999978
 20
-8.1987153009688356
 30
0.0
  0
VERTEX
  5
1E3E
  8
SAPA_PROFIL
 10
-32.99999999999978
 20
-6.7987153009687438
 30
0.0
 42
0.4142135623730951
  0
VERTEX
  5
1E3F
  8
SAPA_PROFIL
 10
-33.2999999999995
 20
-6.4987153009687901
 30
0.0
  0
VERTEX
  5
1E40
  8
SAPA_PROFIL
 10
-35.699999999999591
 20
-6.4987153009687884
 30
0.0
 42
0.4142135623730951
  0
VERTEX
  5
1E41
  8
SAPA_PROFIL
 10
-35.999999999999773
 20
-6.798715300968742
 30
0.0
  0
VERTEX
  5
1E42
  8
SAPA_PROFIL
 10
-35.999999999999773
 20
-16.39871530096887
 30
0.0
  0
VERTEX
  5
1E43
  8
SAPA_PROFIL
 10
-35.999999999999773
 20
-18.39871530096887
 30
0.0
  0
VERTEX
  5
1E44
  8
SAPA_PROFIL
 10
-35.999999999999773
 20
-24.232894087358531
 30
0.0
 42
0.4683749459843959
  0
VERTEX
  5
1E45
  8
SAPA_PROFIL
 10
-35.700000000000053
 20
-24.498715300968779
 30
0.0
  0
VERTEX
  5
1E46
  8
SAPA_PROFIL
 10
-33.2999999999995
 20
-24.498715300968779
 30
0.0
 42
0.4683749459842226
  0
VERTEX
  5
1E47
  8
SAPA_PROFIL
 10
-32.99999999999978
 20
-24.23289408735922
 30
0.0
  0
VERTEX
  5
1E48
  8
SAPA_PROFIL
 10
-32.99999999999978
 20
-22.798715300968968
 30
0.0
 42
-0.5877032589249771
  0
VERTEX
  5
1E49
  8
SAPA_PROFIL
 10
-32.542039792871719
 20
-22.543669083658859
 30
0.0
  0
VERTEX
  5
1E4A
  8
SAPA_PROFIL
 10
-31.294693195248101
 20
-23.316200152728229
 30
0.0
 42
-0.2596812337301256
  0
VERTEX
  5
1E4B
  8
SAPA_PROFIL
 10
-31.199999999999591
 20
-23.486230964268302
 30
0.0
  0
VERTEX
  5
1E4C
  8
SAPA_PROFIL
 10
-31.199999999999591
 20
-26.49871529777668
 30
0.0
  0
VERTEX
  5
1E4D
  8
SAPA_PROFIL
 10
-31.694726254366969
 20
-27.780801213305711
 30
0.0
 42
0.4580511809929225
  0
VERTEX
  5
1E4E
  8
SAPA_PROFIL
 10
-31.5106585387141
 20
-28.196181595854561
 30
0.0
  0
VERTEX
  5
1E4F
  8
SAPA_PROFIL
 10
-31.46281278871561
 20
-28.210700005102112
 30
0.0
  0
VERTEX
  5
1E50
  8
SAPA_PROFIL
 10
-31.462729110927981
 20
-29.715057819918218
 30
0.0
 42
-0.4757248385933691
  0
VERTEX
  5
1E51
  8
SAPA_PROFIL
 10
-31.834386055777731
 20
-30.01605391037036
 30
0.0
  0
VERTEX
  5
1E52
  8
SAPA_PROFIL
 10
-33.647616526435982
 20
-29.634607314242871
 30
0.0
 42
-0.2350054070140314
  0
VERTEX
  5
1E53
  8
SAPA_PROFIL
 10
-34.206665443319032
 20
-29.19262652152041
 30
0.0
 42
0.0011882050611145
  0
VERTEX
  5
1E54
  8
SAPA_PROFIL
 10
-34.207101034859761
 20
-29.193984199202969
 30
0.0
  0
VERTEX
  5
1E55
  8
SAPA_PROFIL
 10
-34.340630269021631
 20
-28.944116125856439
 30
0.0
 42
-0.5773502691894562
  0
VERTEX
  5
1E56
  8
SAPA_PROFIL
 10
-34.157676528911679
 20
-28.64995982560184
 30
0.0
  0
VERTEX
  5
1E57
  8
SAPA_PROFIL
 10
-33.835918800693207
 20
-28.660521191828579
 30
0.0
  0
VERTEX
  5
1E58
  8
SAPA_PROFIL
 10
-32.751354353721347
 20
-26.7746774999673
 30
0.0
  0
VERTEX
  5
1E59
  8
SAPA_PROFIL
 10
-32.699297653659642
 20
-26.603123453343859
 30
0.0
 42
0.8292414158590609
  0
VERTEX
  5
1E5A
  8
SAPA_PROFIL
 10
-33.031293286678419
 20
-26.406990164811969
 30
0.0
 42
-0.2036002236714843
  0
VERTEX
  5
1E5B
  8
SAPA_PROFIL
 10
-33.247213595499261
 20
-26.498715297776229
 30
0.0
  0
VERTEX
  5
1E5C
  8
SAPA_PROFIL
 10
-37.099999999999227
 20
-26.498715297776229
 30
0.0
 42
0.4142135623731708
  0
VERTEX
  5
1E5D
  8
SAPA_PROFIL
 10
-37.399999999999409
 20
-26.798715297776411
 30
0.0
  0
VERTEX
  5
1E5E
  8
SAPA_PROFIL
 10
-37.399999999999409
 20
-27.0987152977766
 30
0.0
  0
VERTEX
  5
1E5F
  8
SAPA_PROFIL
 10
-36.476239569295778
 20
-28.698715297776051
 30
0.0
 42
-0.5773502691897499
  0
VERTEX
  5
1E60
  8
SAPA_PROFIL
 10
-36.649444650052601
 20
-28.998715297776229
 30
0.0
  0
VERTEX
  5
1E61
  8
SAPA_PROFIL
 10
-38.035085296108043
 20
-28.99871529777646
 30
0.0
 42
-0.2679491924311548
  0
VERTEX
  5
1E62
  8
SAPA_PROFIL
 10
-38.90111069989257
 20
-28.49871529777646
 30
0.0
  0
VERTEX
  5
1E63
  8
SAPA_PROFIL
 10
-39.911473670974601
 20
-26.748715297776229
 30
0.0
 42
0.2679491924310984
  0
VERTEX
  5
1E64
  8
SAPA_PROFIL
 10
-40.344486372867088
 20
-26.498715297776229
 30
0.0
  0
SEQEND
  5
1E65
  8
SAPA_PROFIL
  0
POLYLINE
  5
1395
  8
SAPA_PROFIL
 66
     1
 10
0.0
 20
0.0
 30
0.0
 70
     1
  0
VERTEX
  5
1E66
  8
SAPA_PROFIL
 10
-54.299999999837901
 20
-24.498715294376652
 30
0.0
 42
0.4142135623730951
  0
VERTEX
  5
1E67
  8
SAPA_PROFIL
 10
-53.99999999983789
 20
-24.79871529437666
 30
0.0
  0
VERTEX
  5
1E68
  8
SAPA_PROFIL
 10
-52.499999999837883
 20
-24.79871529437666
 30
0.0
 42
0.414213562372978
  0
VERTEX
  5
1E69
  8
SAPA_PROFIL
 10
-52.299999999837901
 20
-24.598715294376781
 30
0.0
  0
VERTEX
  5
1E6A
  8
SAPA_PROFIL
 10
-52.299999999837901
 20
-24.49871529533031
 30
0.0
 42
-0.4142135624945221
  0
VERTEX
  5
1E6B
  8
SAPA_PROFIL
 10
-51.999999999713509
 20
-24.198715295330292
 30
0.0
  0
VERTEX
  5
1E6C
  8
SAPA_PROFIL
 10
-50.599999999713482
 20
-24.19871529591072
 30
0.0
 42
-0.4142135622516715
  0
VERTEX
  5
1E6D
  8
SAPA_PROFIL
 10
-50.299999999837901
 20
-24.498715295910738
 30
0.0
  0
VERTEX
  5
1E6E
  8
SAPA_PROFIL
 10
-50.299999999837901
 20
-24.598715294538671
 30
0.0
 42
0.4142135621360125
  0
VERTEX
  5
1E6F
  8
SAPA_PROFIL
 10
-50.099999999999802
 20
-24.79871529453866
 30
0.0
  0
VERTEX
  5
1E70
  8
SAPA_PROFIL
 10
-41.89999999999975
 20
-24.798715301014159
 30
0.0
 42
0.4142135626101776
  0
VERTEX
  5
1E71
  8
SAPA_PROFIL
 10
-41.699999999837871
 20
-24.59871530101417
 30
0.0
  0
VERTEX
  5
1E72
  8
SAPA_PROFIL
 10
-41.699999999837871
 20
-24.498715299642061
 30
0.0
 42
-0.4142135624945291
  0
VERTEX
  5
1E73
  8
SAPA_PROFIL
 10
-41.399999999713479
 20
-24.19871529964205
 30
0.0
  0
VERTEX
  5
1E74
  8
SAPA_PROFIL
 10
-39.999999999713509
 20
-24.198715300222531
 30
0.0
 42
-0.4142135622516611
  0
VERTEX
  5
1E75
  8
SAPA_PROFIL
 10
-39.699999999837871
 20
-24.498715300222539
 30
0.0
  0
VERTEX
  5
1E76
  8
SAPA_PROFIL
 10
-39.699999999837871
 20
-24.598715300425159
 30
0.0
 42
0.4142135622584299
  0
VERTEX
  5
1E77
  8
SAPA_PROFIL
 10
-39.499999999916163
 20
-24.798715300425201
 30
0.0
  0
VERTEX
  5
1E78
  8
SAPA_PROFIL
 10
-37.999999999962647
 20
-24.798715301049171
 30
0.0
 42
0.4142135624949384
  0
VERTEX
  5
1E79
  8
SAPA_PROFIL
 10
-37.699999999837871
 20
-24.49871530104916
 30
0.0
  0
VERTEX
  5
1E7A
  8
SAPA_PROFIL
 10
-37.699999999837871
 20
-6.4987152906099839
 30
0.0
 42
0.4142135623730743
  0
VERTEX
  5
1E7B
  8
SAPA_PROFIL
 10
-37.999999999837833
 20
-6.1987152906099734
 30
0.0
  0
VERTEX
  5
1E7C
  8
SAPA_PROFIL
 10
-39.499999999837883
 20
-6.1987152906098588
 30
0.0
 42
0.4142135623730951
  0
VERTEX
  5
1E7D
  8
SAPA_PROFIL
 10
-39.699999999837871
 20
-6.3987152906098483
 30
0.0
  0
VERTEX
  5
1E7E
  8
SAPA_PROFIL
 10
-39.699999999837871
 20
-6.4987152906099839
 30
0.0
 42
-0.4142135623731125
  0
VERTEX
  5
1E7F
  8
SAPA_PROFIL
 10
-39.999999999837883
 20
-6.7987152906099961
 30
0.0
  0
VERTEX
  5
1E80
  8
SAPA_PROFIL
 10
-41.399999999837853
 20
-6.7987152906099961
 30
0.0
 42
-0.4142135623730951
  0
VERTEX
  5
1E81
  8
SAPA_PROFIL
 10
-41.699999999837871
 20
-6.4987152906099839
 30
0.0
  0
VERTEX
  5
1E82
  8
SAPA_PROFIL
 10
-41.699999999837871
 20
-6.398715290609962
 30
0.0
 42
0.4142135623730951
  0
VERTEX
  5
1E83
  8
SAPA_PROFIL
 10
-41.899999999837853
 20
-6.1987152906099734
 30
0.0
  0
VERTEX
  5
1E84
  8
SAPA_PROFIL
 10
-50.099999999837898
 20
-6.1987152906099707
 30
0.0
 42
0.4142135623730951
  0
VERTEX
  5
1E85
  8
SAPA_PROFIL
 10
-50.299999999837901
 20
-6.3987152906099602
 30
0.0
  0
VERTEX
  5
1E86
  8
SAPA_PROFIL
 10
-50.299999999837901
 20
-6.4987152906099821
 30
0.0
 42
-0.4142135623730951
  0
VERTEX
  5
1E87
  8
SAPA_PROFIL
 10
-50.599999999837848
 20
-6.7987152906099944
 30
0.0
  0
VERTEX
  5
1E88
  8
SAPA_PROFIL
 10
-51.999999999837883
 20
-6.7987152906099944
 30
0.0
 42
-0.4142135623730951
  0
VERTEX
  5
1E89
  8
SAPA_PROFIL
 10
-52.299999999837887
 20
-6.4987152906099821
 30
0.0
  0
VERTEX
  5
1E8A
  8
SAPA_PROFIL
 10
-52.299999999837887
 20
-6.3987152906099602
 30
0.0
 42
0.4142135623730951
  0
VERTEX
  5
1E8B
  8
SAPA_PROFIL
 10
-52.499999999837883
 20
-6.1987152906099707
 30
0.0
  0
VERTEX
  5
1E8C
  8
SAPA_PROFIL
 10
-53.999999999837883
 20
-6.1987152906098562
 30
0.0
 42
0.4142135623731159
  0
VERTEX
  5
1E8D
  8
SAPA_PROFIL
 10
-54.299999999837887
 20
-6.4987152906098666
 30
0.0
  0
SEQEND
  5
1E8E
  8
SAPA_PROFIL
  0
POLYLINE
  5
1396
  8
SAPA_PROFIL
 62
     4
 66
     1
 10
0.0
 20
0.0
 30
0.0
  0
VERTEX
  5
1E8F
  8
SAPA_PROFIL
 62
     4
 10
-58.067718914152799
 20
-38.449386111227199
 30
0.0
 42
-0.5571646428658034
  0
VERTEX
  5
1E90
  8
SAPA_PROFIL
 62
     4
 10
-57.19999999999726
 20
-38.986346615364027
 30
0.0
  0
VERTEX
  5
1E91
  8
SAPA_PROFIL
 62
     4
 10
-57.199999999997708
 20
-56.011083851885218
 30
0.0
 42
-0.5571645048035741
  0
VERTEX
  5
1E92
  8
SAPA_PROFIL
 62
     4
 10
-58.067718687863881
 20
-56.548044468846292
 30
0.0
  0
VERTEX
  5
1E93
  8
SAPA_PROFIL
 62
     4
 10
-59.733859343931911
 20
-55.717337381299579
 30
0.0
 42
-0.284385813979063
  0
VERTEX
  5
1E94
  8
SAPA_PROFIL
 62
     4
 10
-59.899999999999352
 20
-55.448857072819237
 30
0.0
  0
VERTEX
  5
1E95
  8
SAPA_PROFIL
 62
     4
 10
-59.899999999999352
 20
-39.548573394429923
 30
0.0
 42
-0.2843858139786238
  0
VERTEX
  5
1E96
  8
SAPA_PROFIL
 62
     4
 10
-59.733859343932423
 20
-39.280093085949638
 30
0.0
  0
VERTEX
  5
1E97
  8
SAPA_PROFIL
 62
     4
 10
-58.067718687863078
 20
-38.449385998402477
 30
0.0
  0
SEQEND
  5
1E98
  8
SAPA_PROFIL
 62
     4
  0
POLYLINE
  5
1397
  8
SAPA_PROFIL
 62
     4
 66
     1
 10
0.0
 20
0.0
 30
0.0
 70
     1
  0
VERTEX
  5
1E99
  8
SAPA_PROFIL
 62
     4
 10
-60.256831514496923
 20
-61.916326418291867
 30
0.0
  0
VERTEX
  5
1E9A
  8
SAPA_PROFIL
 62
     4
 10
-60.66339171050106
 20
-62.180349696667882
 30
0.0
 42
0.2539676464751066
  0
VERTEX
  5
1E9B
  8
SAPA_PROFIL
 62
     4
 10
-60.799999999997169
 20
-62.431950867052592
 30
0.0
  0
VERTEX
  5
1E9C
  8
SAPA_PROFIL
 62
     4
 10
-60.799999999997169
 20
-63.813450452257939
 30
0.0
 42
0.3152987888790479
  0
VERTEX
  5
1E9D
  8
SAPA_PROFIL
 62
     4
 10
-60.471010071659009
 20
-64.283296762650252
 30
0.0
  0
VERTEX
  5
1E9E
  8
SAPA_PROFIL
 62
     4
 10
-58.010179881207733
 20
-65.178965703558859
 30
0.0
 42
-0.2694959974287434
  0
VERTEX
  5
1E9F
  8
SAPA_PROFIL
 62
     4
 10
-57.817047906863841
 20
-65.410484749960219
 30
0.0
 42
-0.0612686379508233
  0
VERTEX
  5
1EA0
  8
SAPA_PROFIL
 62
     4
 10
-57.803464536233321
 20
-65.703160182813491
 30
0.0
  0
VERTEX
  5
1EA1
  8
SAPA_PROFIL
 62
     4
 10
-57.6017278575045
 20
-66.052578360121757
 30
0.0
 42
-0.5773502691891679
  0
VERTEX
  5
1EA2
  8
SAPA_PROFIL
 62
     4
 10
-57.783593192299058
 20
-66.367578360121342
 30
0.0
  0
VERTEX
  5
1EA3
  8
SAPA_PROFIL
 62
     4
 10
-58.050707720425379
 20
-66.367578360121584
 30
0.0
  0
VERTEX
  5
1EA4
  8
SAPA_PROFIL
 62
     4
 10
-58.859391181733699
 20
-67.766106060755831
 30
0.0
 42
0.1318219888653519
  0
VERTEX
  5
1EA5
  8
SAPA_PROFIL
 62
     4
 10
-58.899683578271087
 20
-67.916279163228182
 30
0.0
  0
VERTEX
  5
1EA6
  8
SAPA_PROFIL
 62
     4
 10
-58.899683578264721
 20
-68.098715233664961
 30
0.0
 42
0.4142135623724291
  0
VERTEX
  5
1EA7
  8
SAPA_PROFIL
 62
     4
 10
-58.499683578265092
 20
-68.498715233665507
 30
0.0
  0
VERTEX
  5
1EA8
  8
SAPA_PROFIL
 62
     4
 10
-55.099683578264091
 20
-68.498715233664143
 30
0.0
 42
0.4142135623744271
  0
VERTEX
  5
1EA9
  8
SAPA_PROFIL
 62
     4
 10
-54.699683578263091
 20
-68.098715233664961
 30
0.0
  0
VERTEX
  5
1EAA
  8
SAPA_PROFIL
 62
     4
 10
-54.699683578262452
 20
-67.919099991393665
 30
0.0
 42
0.1316524975874005
  0
VERTEX
  5
1EAB
  8
SAPA_PROFIL
 62
     4
 10
-54.739875957128049
 20
-67.769099991396843
 30
0.0
  0
VERTEX
  5
1EAC
  8
SAPA_PROFIL
 62
     4
 10
-55.666025403780587
 20
-66.164962094394582
 30
0.0
 42
-0.1316524975875904
  0
VERTEX
  5
1EAD
  8
SAPA_PROFIL
 62
     4
 10
-55.79999999999535
 20
-65.664962094392877
 30
0.0
  0
VERTEX
  5
1EAE
  8
SAPA_PROFIL
 62
     4
 10
-55.79999999999535
 20
-65.248715233665507
 30
0.0
 42
-0.4142135623730951
  0
VERTEX
  5
1EAF
  8
SAPA_PROFIL
 62
     4
 10
-54.79999999999535
 20
-64.248715233665507
 30
0.0
  0
VERTEX
  5
1EB0
  8
SAPA_PROFIL
 62
     4
 10
-51.799999999998072
 20
-64.248715233665507
 30
0.0
 42
0.9999996830128083
  0
VERTEX
  5
1EB1
  8
SAPA_PROFIL
 62
     4
 10
-51.79999999999626
 20
-63.2487152336655
 30
0.0
  0
VERTEX
  5
1EB2
  8
SAPA_PROFIL
 62
     4
 10
-54.79999999999626
 20
-63.2487152336655
 30
0.0
 42
-0.4142135623730951
  0
VERTEX
  5
1EB3
  8
SAPA_PROFIL
 62
     4
 10
-55.79999999999626
 20
-62.248715233665507
 30
0.0
  0
VERTEX
  5
1EB4
  8
SAPA_PROFIL
 62
     4
 10
-55.79999999999626
 20
-32.748715233580917
 30
0.0
 42
-0.4142135623730951
  0
VERTEX
  5
1EB5
  8
SAPA_PROFIL
 62
     4
 10
-54.79999999999626
 20
-31.748715233580921
 30
0.0
  0
VERTEX
  5
1EB6
  8
SAPA_PROFIL
 62
     4
 10
-51.799999999998072
 20
-31.748715233580921
 30
0.0
 42
0.9999999999999998
  0
VERTEX
  5
1EB7
  8
SAPA_PROFIL
 62
     4
 10
-51.799999999998072
 20
-30.748715233580931
 30
0.0
  0
VERTEX
  5
1EB8
  8
SAPA_PROFIL
 62
     4
 10
-54.79999999999626
 20
-30.748715233580931
 30
0.0
 42
-0.4142135623736278
  0
VERTEX
  5
1EB9
  8
SAPA_PROFIL
 62
     4
 10
-55.79999999999626
 20
-29.748715233580931
 30
0.0
  0
VERTEX
  5
1EBA
  8
SAPA_PROFIL
 62
     4
 10
-55.79999999999626
 20
-29.332468372854471
 30
0.0
 42
-0.1316524975874375
  0
VERTEX
  5
1EBB
  8
SAPA_PROFIL
 62
     4
 10
-55.666025403780218
 20
-28.832468372854262
 30
0.0
  0
VERTEX
  5
1EBC
  8
SAPA_PROFIL
 62
     4
 10
-54.739875957128049
 20
-27.228330475852321
 30
0.0
 42
0.1316524975874
  0
VERTEX
  5
1EBD
  8
SAPA_PROFIL
 62
     4
 10
-54.699683578262459
 20
-27.07833047585277
 30
0.0
  0
VERTEX
  5
1EBE
  8
SAPA_PROFIL
 62
     4
 10
-54.699683578263091
 20
-26.89871523358147
 30
0.0
 42
0.4142135623744271
  0
VERTEX
  5
1EBF
  8
SAPA_PROFIL
 62
     4
 10
-55.099683578264091
 20
-26.498715233582288
 30
0.0
  0
VERTEX
  5
1EC0
  8
SAPA_PROFIL
 62
     4
 10
-58.499683578265092
 20
-26.498715233580921
 30
0.0
 42
0.4142135623724291
  0
VERTEX
  5
1EC1
  8
SAPA_PROFIL
 62
     4
 10
-58.899683578264721
 20
-26.89871523358147
 30
0.0
  0
VERTEX
  5
1EC2
  8
SAPA_PROFIL
 62
     4
 10
-58.899683578271087
 20
-27.081151304018249
 30
0.0
 42
0.1318219888653524
  0
VERTEX
  5
1EC3
  8
SAPA_PROFIL
 62
     4
 10
-58.859391181733699
 20
-27.2313244064906
 30
0.0
  0
VERTEX
  5
1EC4
  8
SAPA_PROFIL
 62
     4
 10
-58.050707720509358
 20
-28.629852106970251
 30
0.0
  0
VERTEX
  5
1EC5
  8
SAPA_PROFIL
 62
     4
 10
-57.783593192296323
 20
-28.629852106970251
 30
0.0
 42
-0.577350269189159
  0
VERTEX
  5
1EC6
  8
SAPA_PROFIL
 62
     4
 10
-57.601727857501757
 20
-28.944852106969851
 30
0.0
  0
VERTEX
  5
1EC7
  8
SAPA_PROFIL
 62
     4
 10
-57.803464536178872
 20
-29.29427028418851
 30
0.0
 42
-0.0612687673629489
  0
VERTEX
  5
1EC8
  8
SAPA_PROFIL
 62
     4
 10
-57.817047906865071
 20
-29.586945717288721
 30
0.0
 42
-0.2694959974285039
  0
VERTEX
  5
1EC9
  8
SAPA_PROFIL
 62
     4
 10
-58.010179881209027
 20
-29.818464763689239
 30
0.0
  0
VERTEX
  5
1ECA
  8
SAPA_PROFIL
 62
     4
 10
-60.471010071662192
 20
-30.714133704598911
 30
0.0
 42
0.3152987888784035
  0
VERTEX
  5
1ECB
  8
SAPA_PROFIL
 62
     4
 10
-60.799999999998768
 20
-31.18398001499213
 30
0.0
  0
VERTEX
  5
1ECC
  8
SAPA_PROFIL
 62
     4
 10
-60.799999999997169
 20
-32.565479600196568
 30
0.0
 42
0.2539676464741841
  0
VERTEX
  5
1ECD
  8
SAPA_PROFIL
 62
     4
 10
-60.663391710501898
 20
-32.817080770580652
 30
0.0
  0
VERTEX
  5
1ECE
  8
SAPA_PROFIL
 62
     4
 10
-60.256831514496923
 20
-33.081104048957293
 30
0.0
 42
0.5862177598324623
  0
VERTEX
  5
1ECF
  8
SAPA_PROFIL
 62
     4
 10
-59.800000000000423
 20
-32.825362233718941
 30
0.0
  0
VERTEX
  5
1ED0
  8
SAPA_PROFIL
 62
     4
 10
-59.800000000008083
 20
-31.884187553209131
 30
0.0
 42
-0.3152987888813165
  0
VERTEX
  5
1ED1
  8
SAPA_PROFIL
 62
     4
 10
-59.47101007167133
 20
-31.414341242811378
 30
0.0
  0
VERTEX
  5
1ED2
  8
SAPA_PROFIL
 62
     4
 10
-58.2710100716601
 20
-30.977576961687419
 30
0.0
 42
-0.5205670505515651
  0
VERTEX
  5
1ED3
  8
SAPA_PROFIL
 62
     4
 10
-57.599999999997351
 20
-31.447423272080641
 30
0.0
  0
VERTEX
  5
1ED4
  8
SAPA_PROFIL
 62
     4
 10
-57.599999999997323
 20
-36.463864212749492
 30
0.0
 42
-0.3702522326300203
  0
VERTEX
  5
1ED5
  8
SAPA_PROFIL
 62
     4
 10
-57.854459952663028
 20
-36.760387574542818
 30
0.0
 42
-0.0982365330332397
  0
VERTEX
  5
1ED6
  8
SAPA_PROFIL
 62
     4
 10
-59.542146727658043
 20
-36.850840332753762
 30
0.0
 42
-0.3735060174783164
  0
VERTEX
  5
1ED7
  8
SAPA_PROFIL
 62
     4
 10
-59.799999999998072
 20
-36.55381566484278
 30
0.0
  0
VERTEX
  5
1ED8
  8
SAPA_PROFIL
 62
     4
 10
-59.799999999998988
 20
-36.125362233720132
 30
0.0
 42
0.5920056181162531
  0
VERTEX
  5
1ED9
  8
SAPA_PROFIL
 62
     4
 10
-60.261203502526911
 20
-35.872353477402733
 30
0.0
  0
VERTEX
  5
1EDA
  8
SAPA_PROFIL
 62
     4
 10
-60.663391710505209
 20
-36.133537553558433
 30
0.0
 42
0.2539676464746725
  0
VERTEX
  5
1EDB
  8
SAPA_PROFIL
 62
     4
 10
-60.800000000000558
 20
-36.385138723942191
 30
0.0
  0
VERTEX
  5
1EDC
  8
SAPA_PROFIL
 62
     4
 10
-60.799999999998981
 20
-58.612291743307871
 30
0.0
 42
0.2539676464741819
  0
VERTEX
  5
1EDD
  8
SAPA_PROFIL
 62
     4
 10
-60.663391710505209
 20
-58.863892913690741
 30
0.0
  0
VERTEX
  5
1EDE
  8
SAPA_PROFIL
 62
     4
 10
-60.261203502526868
 20
-59.125076989844537
 30
0.0
 42
0.5920055144124249
  0
VERTEX
  5
1EDF
  8
SAPA_PROFIL
 62
     4
 10
-59.799999999998988
 20
-58.872068233529042
 30
0.0
  0
VERTEX
  5
1EE0
  8
SAPA_PROFIL
 62
     4
 10
-59.800000025274002
 20
-58.443614756238809
 30
0.0
 42
-0.3735060174775405
  0
VERTEX
  5
1EE1
  8
SAPA_PROFIL
 62
     4
 10
-59.542146752933903
 20
-58.14659008832912
 30
0.0
 42
-0.0355900683670349
  0
VERTEX
  5
1EE2
  8
SAPA_PROFIL
 62
     4
 10
-58.926273166134109
 20
-58.102696524296867
 30
0.0
 42
-0.0624282003873116
  0
VERTEX
  5
1EE3
  8
SAPA_PROFIL
 62
     4
 10
-57.854459977938987
 20
-58.237042846539808
 30
0.0
 42
-0.3702522326309292
  0
VERTEX
  5
1EE4
  8
SAPA_PROFIL
 62
     4
 10
-57.600000025273268
 20
-58.533566208333191
 30
0.0
  0
VERTEX
  5
1EE5
  8
SAPA_PROFIL
 62
     4
 10
-57.599999999997131
 20
-63.5500071951667
 30
0.0
 42
-0.5205670505515692
  0
VERTEX
  5
1EE6
  8
SAPA_PROFIL
 62
     4
 10
-58.2710100716601
 20
-64.019853505559922
 30
0.0
  0
VERTEX
  5
1EE7
  8
SAPA_PROFIL
 62
     4
 10
-59.471010071669546
 20
-63.583089224434971
 30
0.0
 42
-0.3152987888807539
  0
VERTEX
  5
1EE8
  8
SAPA_PROFIL
 62
     4
 10
-59.800000000007181
 20
-63.11324291403912
 30
0.0
  0
VERTEX
  5
1EE9
  8
SAPA_PROFIL
 62
     4
 10
-59.800000000000352
 20
-62.172068233530027
 30
0.0
 42
0.5862175119221242
  0
VERTEX
  5
1EEA
  8
SAPA_PROFIL
 62
     4
 10
-60.256831325755492
 20
-61.916326302548079
 30
0.0
 42
-0.0000002084758573
  0
SEQEND
  5
1EEB
  8
SAPA_PROFIL
 62
     4
  0
POLYLINE
  5
1398
  8
SAPA_PROFIL
 62
     4
 66
     1
 10
0.0
 20
0.0
 30
0.0
  0
VERTEX
  5
1EEC
  8
SAPA_PROFIL
 62
     4
 10
-33.932281085846753
 20
-38.449386111227199
 30
0.0
 42
0.5571646428658034
  0
VERTEX
  5
1EED
  8
SAPA_PROFIL
 62
     4
 10
-34.800000000002299
 20
-38.986346615364027
 30
0.0
  0
VERTEX
  5
1EEE
  8
SAPA_PROFIL
 62
     4
 10
-34.800000000001837
 20
-56.011083851885218
 30
0.0
 42
0.5571645048035741
  0
VERTEX
  5
1EEF
  8
SAPA_PROFIL
 62
     4
 10
-33.932281312135672
 20
-56.548044468846292
 30
0.0
  0
VERTEX
  5
1EF0
  8
SAPA_PROFIL
 62
     4
 10
-32.266140656067641
 20
-55.717337381299579
 30
0.0
 42
0.284385813979063
  0
VERTEX
  5
1EF1
  8
SAPA_PROFIL
 62
     4
 10
-32.1000000000002
 20
-55.448857072819237
 30
0.0
  0
VERTEX
  5
1EF2
  8
SAPA_PROFIL
 62
     4
 10
-32.1000000000002
 20
-39.548573394429923
 30
0.0
 42
0.2843858139786238
  0
VERTEX
  5
1EF3
  8
SAPA_PROFIL
 62
     4
 10
-32.26614065606713
 20
-39.280093085949638
 30
0.0
  0
VERTEX
  5
1EF4
  8
SAPA_PROFIL
 62
     4
 10
-33.932281312136482
 20
-38.449385998402477
 30
0.0
  0
SEQEND
  5
1EF5
  8
SAPA_PROFIL
 62
     4
  0
POLYLINE
  5
1399
  8
SAPA_PROFIL
 62
     4
 66
     1
 10
0.0
 20
0.0
 30
0.0
 70
     1
  0
VERTEX
  5
1EF6
  8
SAPA_PROFIL
 62
     4
 10
-31.743168485502629
 20
-61.916326418291867
 30
0.0
  0
VERTEX
  5
1EF7
  8
SAPA_PROFIL
 62
     4
 10
-31.336608289498489
 20
-62.180349696667882
 30
0.0
 42
-0.2539676464751066
  0
VERTEX
  5
1EF8
  8
SAPA_PROFIL
 62
     4
 10
-31.20000000000239
 20
-62.431950867052592
 30
0.0
  0
VERTEX
  5
1EF9
  8
SAPA_PROFIL
 62
     4
 10
-31.20000000000239
 20
-63.813450452257939
 30
0.0
 42
-0.3152987888790479
  0
VERTEX
  5
1EFA
  8
SAPA_PROFIL
 62
     4
 10
-31.52898992834054
 20
-64.283296762650252
 30
0.0
  0
VERTEX
  5
1EFB
  8
SAPA_PROFIL
 62
     4
 10
-33.989820118791819
 20
-65.178965703558859
 30
0.0
 42
0.2694959974287434
  0
VERTEX
  5
1EFC
  8
SAPA_PROFIL
 62
     4
 10
-34.182952093135711
 20
-65.410484749960219
 30
0.0
 42
0.0612686379508233
  0
VERTEX
  5
1EFD
  8
SAPA_PROFIL
 62
     4
 10
-34.196535463766232
 20
-65.703160182813491
 30
0.0
  0
VERTEX
  5
1EFE
  8
SAPA_PROFIL
 62
     4
 10
-34.398272142495053
 20
-66.052578360121757
 30
0.0
 42
0.5773502691891679
  0
VERTEX
  5
1EFF
  8
SAPA_PROFIL
 62
     4
 10
-34.216406807700487
 20
-66.367578360121342
 30
0.0
  0
VERTEX
  5
1F00
  8
SAPA_PROFIL
 62
     4
 10
-33.949292279574173
 20
-66.367578360121584
 30
0.0
  0
VERTEX
  5
1F01
  8
SAPA_PROFIL
 62
     4
 10
-33.140608818265846
 20
-67.766106060755831
 30
0.0
 42
-0.1318219888653519
  0
VERTEX
  5
1F02
  8
SAPA_PROFIL
 62
     4
 10
-33.100316421728472
 20
-67.916279163228182
 30
0.0
  0
VERTEX
  5
1F03
  8
SAPA_PROFIL
 62
     4
 10
-33.100316421734831
 20
-68.098715233664961
 30
0.0
 42
-0.4142135623724291
  0
VERTEX
  5
1F04
  8
SAPA_PROFIL
 62
     4
 10
-33.500316421734468
 20
-68.498715233665507
 30
0.0
  0
VERTEX
  5
1F05
  8
SAPA_PROFIL
 62
     4
 10
-36.900316421735468
 20
-68.498715233664143
 30
0.0
 42
-0.4142135623744271
  0
VERTEX
  5
1F06
  8
SAPA_PROFIL
 62
     4
 10
-37.300316421736468
 20
-68.098715233664961
 30
0.0
  0
VERTEX
  5
1F07
  8
SAPA_PROFIL
 62
     4
 10
-37.300316421737101
 20
-67.919099991393665
 30
0.0
 42
-0.1316524975874005
  0
VERTEX
  5
1F08
  8
SAPA_PROFIL
 62
     4
 10
-37.260124042871503
 20
-67.769099991396843
 30
0.0
  0
VERTEX
  5
1F09
  8
SAPA_PROFIL
 62
     4
 10
-36.333974596218958
 20
-66.164962094394582
 30
0.0
 42
0.1316524975875904
  0
VERTEX
  5
1F0A
  8
SAPA_PROFIL
 62
     4
 10
-36.200000000004202
 20
-65.664962094392877
 30
0.0
  0
VERTEX
  5
1F0B
  8
SAPA_PROFIL
 62
     4
 10
-36.200000000004202
 20
-65.248715233665507
 30
0.0
 42
0.4142135623730951
  0
VERTEX
  5
1F0C
  8
SAPA_PROFIL
 62
     4
 10
-37.200000000004202
 20
-64.248715233665507
 30
0.0
  0
VERTEX
  5
1F0D
  8
SAPA_PROFIL
 62
     4
 10
-40.200000000001467
 20
-64.248715233665507
 30
0.0
 42
-0.9999996830128083
  0
VERTEX
  5
1F0E
  8
SAPA_PROFIL
 62
     4
 10
-40.200000000003293
 20
-63.2487152336655
 30
0.0
  0
VERTEX
  5
1F0F
  8
SAPA_PROFIL
 62
     4
 10
-37.200000000003293
 20
-63.2487152336655
 30
0.0
 42
0.4142135623730951
  0
VERTEX
  5
1F10
  8
SAPA_PROFIL
 62
     4
 10
-36.2000000000033
 20
-62.248715233665507
 30
0.0
  0
VERTEX
  5
1F11
  8
SAPA_PROFIL
 62
     4
 10
-36.2000000000033
 20
-32.748715233580917
 30
0.0
 42
0.4142135623730951
  0
VERTEX
  5
1F12
  8
SAPA_PROFIL
 62
     4
 10
-37.200000000003293
 20
-31.748715233580921
 30
0.0
  0
VERTEX
  5
1F13
  8
SAPA_PROFIL
 62
     4
 10
-40.200000000001467
 20
-31.748715233580921
 30
0.0
 42
-0.9999999999999998
  0
VERTEX
  5
1F14
  8
SAPA_PROFIL
 62
     4
 10
-40.200000000001467
 20
-30.748715233580931
 30
0.0
  0
VERTEX
  5
1F15
  8
SAPA_PROFIL
 62
     4
 10
-37.200000000003293
 20
-30.748715233580931
 30
0.0
 42
0.4142135623736278
  0
VERTEX
  5
1F16
  8
SAPA_PROFIL
 62
     4
 10
-36.2000000000033
 20
-29.748715233580931
 30
0.0
  0
VERTEX
  5
1F17
  8
SAPA_PROFIL
 62
     4
 10
-36.2000000000033
 20
-29.332468372854471
 30
0.0
 42
0.1316524975874375
  0
VERTEX
  5
1F18
  8
SAPA_PROFIL
 62
     4
 10
-36.333974596219328
 20
-28.832468372854262
 30
0.0
  0
VERTEX
  5
1F19
  8
SAPA_PROFIL
 62
     4
 10
-37.260124042871503
 20
-27.228330475852321
 30
0.0
 42
-0.1316524975874
  0
VERTEX
  5
1F1A
  8
SAPA_PROFIL
 62
     4
 10
-37.300316421737101
 20
-27.07833047585277
 30
0.0
  0
VERTEX
  5
1F1B
  8
SAPA_PROFIL
 62
     4
 10
-37.300316421736461
 20
-26.89871523358147
 30
0.0
 42
-0.4142135623744271
  0
VERTEX
  5
1F1C
  8
SAPA_PROFIL
 62
     4
 10
-36.900316421735461
 20
-26.498715233582288
 30
0.0
  0
VERTEX
  5
1F1D
  8
SAPA_PROFIL
 62
     4
 10
-33.50031642173446
 20
-26.498715233580921
 30
0.0
 42
-0.4142135623724291
  0
VERTEX
  5
1F1E
  8
SAPA_PROFIL
 62
     4
 10
-33.100316421734831
 20
-26.89871523358147
 30
0.0
  0
VERTEX
  5
1F1F
  8
SAPA_PROFIL
 62
     4
 10
-33.100316421728458
 20
-27.081151304018249
 30
0.0
 42
-0.1318219888653524
  0
VERTEX
  5
1F20
  8
SAPA_PROFIL
 62
     4
 10
-33.140608818265846
 20
-27.2313244064906
 30
0.0
  0
VERTEX
  5
1F21
  8
SAPA_PROFIL
 62
     4
 10
-33.949292279490187
 20
-28.629852106970251
 30
0.0
  0
VERTEX
  5
1F22
  8
SAPA_PROFIL
 62
     4
 10
-34.216406807703223
 20
-28.629852106970251
 30
0.0
 42
0.577350269189159
  0
VERTEX
  5
1F23
  8
SAPA_PROFIL
 62
     4
 10
-34.398272142497788
 20
-28.944852106969851
 30
0.0
  0
VERTEX
  5
1F24
  8
SAPA_PROFIL
 62
     4
 10
-34.19653546382068
 20
-29.29427028418851
 30
0.0
 42
0.0612687673629489
  0
VERTEX
  5
1F25
  8
SAPA_PROFIL
 62
     4
 10
-34.182952093134467
 20
-29.586945717288721
 30
0.0
 42
0.2694959974285039
  0
VERTEX
  5
1F26
  8
SAPA_PROFIL
 62
     4
 10
-33.989820118790533
 20
-29.818464763689239
 30
0.0
  0
VERTEX
  5
1F27
  8
SAPA_PROFIL
 62
     4
 10
-31.52898992833736
 20
-30.714133704598911
 30
0.0
 42
-0.3152987888784035
  0
VERTEX
  5
1F28
  8
SAPA_PROFIL
 62
     4
 10
-31.200000000000792
 20
-31.18398001499213
 30
0.0
  0
VERTEX
  5
1F29
  8
SAPA_PROFIL
 62
     4
 10
-31.20000000000239
 20
-32.565479600196568
 30
0.0
 42
-0.2539676464741841
  0
VERTEX
  5
1F2A
  8
SAPA_PROFIL
 62
     4
 10
-31.336608289497661
 20
-32.817080770580652
 30
0.0
  0
VERTEX
  5
1F2B
  8
SAPA_PROFIL
 62
     4
 10
-31.743168485502629
 20
-33.081104048957293
 30
0.0
 42
-0.5862177598324623
  0
VERTEX
  5
1F2C
  8
SAPA_PROFIL
 62
     4
 10
-32.199999999999143
 20
-32.825362233718941
 30
0.0
  0
VERTEX
  5
1F2D
  8
SAPA_PROFIL
 62
     4
 10
-32.199999999991469
 20
-31.884187553209131
 30
0.0
 42
0.3152987888813165
  0
VERTEX
  5
1F2E
  8
SAPA_PROFIL
 62
     4
 10
-32.528989928328222
 20
-31.414341242811378
 30
0.0
  0
VERTEX
  5
1F2F
  8
SAPA_PROFIL
 62
     4
 10
-33.728989928339452
 20
-30.977576961687419
 30
0.0
 42
0.5205670505515651
  0
VERTEX
  5
1F30
  8
SAPA_PROFIL
 62
     4
 10
-34.400000000002201
 20
-31.447423272080641
 30
0.0
  0
VERTEX
  5
1F31
  8
SAPA_PROFIL
 62
     4
 10
-34.40000000000223
 20
-36.463864212749492
 30
0.0
 42
0.3702522326300203
  0
VERTEX
  5
1F32
  8
SAPA_PROFIL
 62
     4
 10
-34.145540047336517
 20
-36.760387574542818
 30
0.0
 42
0.0982365330332397
  0
VERTEX
  5
1F33
  8
SAPA_PROFIL
 62
     4
 10
-32.457853272341517
 20
-36.850840332753762
 30
0.0
 42
0.3735060174783164
  0
VERTEX
  5
1F34
  8
SAPA_PROFIL
 62
     4
 10
-32.200000000001481
 20
-36.55381566484278
 30
0.0
  0
VERTEX
  5
1F35
  8
SAPA_PROFIL
 62
     4
 10
-32.200000000000571
 20
-36.125362233720132
 30
0.0
 42
-0.5920056181162531
  0
VERTEX
  5
1F36
  8
SAPA_PROFIL
 62
     4
 10
-31.738796497472642
 20
-35.872353477402733
 30
0.0
  0
VERTEX
  5
1F37
  8
SAPA_PROFIL
 62
     4
 10
-31.33660828949434
 20
-36.133537553558433
 30
0.0
 42
-0.2539676464746725
  0
VERTEX
  5
1F38
  8
SAPA_PROFIL
 62
     4
 10
-31.19999999999898
 20
-36.385138723942191
 30
0.0
  0
VERTEX
  5
1F39
  8
SAPA_PROFIL
 62
     4
 10
-31.200000000000561
 20
-58.612291743307871
 30
0.0
 42
-0.2539676464741819
  0
VERTEX
  5
1F3A
  8
SAPA_PROFIL
 62
     4
 10
-31.33660828949434
 20
-58.863892913690741
 30
0.0
  0
VERTEX
  5
1F3B
  8
SAPA_PROFIL
 62
     4
 10
-31.738796497472681
 20
-59.125076989844537
 30
0.0
 42
-0.5920055144124249
  0
VERTEX
  5
1F3C
  8
SAPA_PROFIL
 62
     4
 10
-32.200000000000571
 20
-58.872068233529042
 30
0.0
  0
VERTEX
  5
1F3D
  8
SAPA_PROFIL
 62
     4
 10
-32.199999974725557
 20
-58.443614756238809
 30
0.0
 42
0.3735060174775405
  0
VERTEX
  5
1F3E
  8
SAPA_PROFIL
 62
     4
 10
-32.45785324706565
 20
-58.14659008832912
 30
0.0
 42
0.0355900683670349
  0
VERTEX
  5
1F3F
  8
SAPA_PROFIL
 62
     4
 10
-33.073726833865443
 20
-58.102696524296867
 30
0.0
 42
0.0624282003873116
  0
VERTEX
  5
1F40
  8
SAPA_PROFIL
 62
     4
 10
-34.145540022060558
 20
-58.237042846539808
 30
0.0
 42
0.3702522326309292
  0
VERTEX
  5
1F41
  8
SAPA_PROFIL
 62
     4
 10
-34.399999974726292
 20
-58.533566208333191
 30
0.0
  0
VERTEX
  5
1F42
  8
SAPA_PROFIL
 62
     4
 10
-34.400000000002422
 20
-63.5500071951667
 30
0.0
 42
0.5205670505515692
  0
VERTEX
  5
1F43
  8
SAPA_PROFIL
 62
     4
 10
-33.728989928339452
 20
-64.019853505559922
 30
0.0
  0
VERTEX
  5
1F44
  8
SAPA_PROFIL
 62
     4
 10
-32.528989928330013
 20
-63.583089224434971
 30
0.0
 42
0.3152987888807539
  0
VERTEX
  5
1F45
  8
SAPA_PROFIL
 62
     4
 10
-32.199999999992379
 20
-63.11324291403912
 30
0.0
  0
VERTEX
  5
1F46
  8
SAPA_PROFIL
 62
     4
 10
-32.1999999999992
 20
-62.172068233530027
 30
0.0
 42
-0.5862175119221242
  0
VERTEX
  5
1F47
  8
SAPA_PROFIL
 62
     4
 10
-31.743168674244071
 20
-61.916326302548079
 30
0.0
 42
0.0000002084758573
  0
SEQEND
  5
1F48
  8
SAPA_PROFIL
 62
     4
  0
POLYLINE
  5
139A
  8
SAPA_PROFIL
 62
     4
 66
     1
 10
0.0
 20
0.0
 30
0.0
 70
     1
  0
VERTEX
  5
1F49
  8
SAPA_PROFIL
 62
     4
 10
-14.900000000164329
 20
-76.702943556166389
 30
0.0
  0
VERTEX
  5
1F4A
  8
SAPA_PROFIL
 62
     4
 10
-14.90000000016251
 20
-80.8970561058633
 30
0.0
 42
0.1989123673786592
  0
VERTEX
  5
1F4B
  8
SAPA_PROFIL
 62
     4
 10
-14.81213203451906
 20
-81.109188140219118
 30
0.0
  0
VERTEX
  5
1F4C
  8
SAPA_PROFIL
 62
     4
 10
-12.587867965808149
 20
-83.333452208930026
 30
0.0
 42
-0.1989123673785438
  0
VERTEX
  5
1F4D
  8
SAPA_PROFIL
 62
     4
 10
-12.50000000016469
 20
-83.545584243285845
 30
0.0
  0
VERTEX
  5
1F4E
  8
SAPA_PROFIL
 62
     4
 10
-12.50000000016651
 20
-83.999999831014208
 30
0.0
 42
-0.4142135623730951
  0
VERTEX
  5
1F4F
  8
SAPA_PROFIL
 62
     4
 10
-12.80000000016579
 20
-84.299999831014375
 30
0.0
  0
VERTEX
  5
1F50
  8
SAPA_PROFIL
 62
     4
 10
-24.700000000162881
 20
-84.299999831014375
 30
0.0
 42
0.4142135623730951
  0
VERTEX
  5
1F51
  8
SAPA_PROFIL
 62
     4
 10
-25.200000000162881
 20
-84.799999831014389
 30
0.0
  0
VERTEX
  5
1F52
  8
SAPA_PROFIL
 62
     4
 10
-25.200000000162881
 20
-86.499999831014208
 30
0.0
 42
-0.4142135623739832
  0
VERTEX
  5
1F53
  8
SAPA_PROFIL
 62
     4
 10
-25.500000000162149
 20
-86.799999831014375
 30
0.0
  0
VERTEX
  5
1F54
  8
SAPA_PROFIL
 62
     4
 10
-29.200000000163609
 20
-86.799999831014375
 30
0.0
 42
-0.414213562375759
  0
VERTEX
  5
1F55
  8
SAPA_PROFIL
 62
     4
 10
-29.5000000001647
 20
-86.499999831014208
 30
0.0
  0
VERTEX
  5
1F56
  8
SAPA_PROFIL
 62
     4
 10
-29.500000000162881
 20
-70.006576700611191
 30
0.0
 42
-0.4142135623735391
  0
VERTEX
  5
1F57
  8
SAPA_PROFIL
 62
     4
 10
-29.200000000163609
 20
-69.706576700611464
 30
0.0
  0
VERTEX
  5
1F58
  8
SAPA_PROFIL
 62
     4
 10
-12.80000000016579
 20
-69.706576700611464
 30
0.0
 42
-0.4142135623726511
  0
VERTEX
  5
1F59
  8
SAPA_PROFIL
 62
     4
 10
-12.50000000016469
 20
-70.006576700611191
 30
0.0
  0
VERTEX
  5
1F5A
  8
SAPA_PROFIL
 62
     4
 10
-12.50000000016469
 20
-74.054415418742025
 30
0.0
 42
-0.1989123673785438
  0
VERTEX
  5
1F5B
  8
SAPA_PROFIL
 62
     4
 10
-12.587867965808149
 20
-74.266547453097843
 30
0.0
  0
VERTEX
  5
1F5C
  8
SAPA_PROFIL
 62
     4
 10
-14.81213203452088
 20
-76.490811521810571
 30
0.0
 42
0.1989123673798886
  0
SEQEND
  5
1F5D
  8
SAPA_PROFIL
 62
     4
  0
POLYLINE
  5
139B
  8
SAPA_PROFIL
 62
     4
 66
     1
 10
0.0
 20
0.0
 30
0.0
 70
     1
  0
VERTEX
  5
1F5E
  8
SAPA_PROFIL
 62
     4
 10
-29.500000000162881
 20
-57.181576700611373
 30
0.0
  0
VERTEX
  5
1F5F
  8
SAPA_PROFIL
 62
     4
 10
-29.500000000162881
 20
-68.1065767006111
 30
0.0
 42
0.4142135623732061
  0
VERTEX
  5
1F60
  8
SAPA_PROFIL
 62
     4
 10
-29.200000000163609
 20
-68.406576700611282
 30
0.0
  0
VERTEX
  5
1F61
  8
SAPA_PROFIL
 62
     4
 10
-12.80000000016579
 20
-68.406576700611282
 30
0.0
 42
0.4142135623730951
  0
VERTEX
  5
1F62
  8
SAPA_PROFIL
 62
     4
 10
-12.50000000016469
 20
-68.1065767006111
 30
0.0
  0
VERTEX
  5
1F63
  8
SAPA_PROFIL
 62
     4
 10
-12.50000000016469
 20
-57.181576700611373
 30
0.0
 42
0.4142135623731173
  0
VERTEX
  5
1F64
  8
SAPA_PROFIL
 62
     4
 10
-12.80000000016579
 20
-56.881576700611191
 30
0.0
  0
VERTEX
  5
1F65
  8
SAPA_PROFIL
 62
     4
 10
-29.200000000163609
 20
-56.881576700611191
 30
0.0
 42
0.4142135623730951
  0
SEQEND
  5
1F66
  8
SAPA_PROFIL
 62
     4
  0
POLYLINE
  5
139C
  8
SAPA_PROFIL
 62
     4
 66
     1
 10
0.0
 20
0.0
 30
0.0
  0
VERTEX
  5
1F67
  8
SAPA_PROFIL
 62
     4
 10
-12.80000000016579
 20
-55.581576700611457
 30
0.0
 42
0.4142135623731173
  0
VERTEX
  5
1F68
  8
SAPA_PROFIL
 62
     4
 10
-12.50000000016469
 20
-55.281576700611282
 30
0.0
  0
VERTEX
  5
1F69
  8
SAPA_PROFIL
 62
     4
 10
-12.50000000016651
 20
-47.499999831014428
 30
0.0
 42
0.4142135623730951
  0
VERTEX
  5
1F6A
  8
SAPA_PROFIL
 62
     4
 10
-13.00000000016651
 20
-46.999999831014428
 30
0.0
  0
VERTEX
  5
1F6B
  8
SAPA_PROFIL
 62
     4
 10
-29.0000000001647
 20
-46.999999831014428
 30
0.0
 42
0.4142135623730951
  0
VERTEX
  5
1F6C
  8
SAPA_PROFIL
 62
     4
 10
-29.5000000001647
 20
-47.499999831014428
 30
0.0
  0
VERTEX
  5
1F6D
  8
SAPA_PROFIL
 62
     4
 10
-29.500000000162881
 20
-55.281576700611282
 30
0.0
 42
0.4142135623730951
  0
VERTEX
  5
1F6E
  8
SAPA_PROFIL
 62
     4
 10
-29.200000000163609
 20
-55.581576700611457
 30
0.0
  0
VERTEX
  5
1F6F
  8
SAPA_PROFIL
 62
     4
 10
-12.80000000016579
 20
-55.581576700611457
 30
0.0
  0
SEQEND
  5
1F70
  8
SAPA_PROFIL
 62
     4
  0
POLYLINE
  5
139D
  8
SAPA_PROFIL
 62
     4
 66
     1
 10
0.0
 20
0.0
 30
0.0
 70
     1
  0
VERTEX
  5
1F71
  8
SAPA_PROFIL
 62
     4
 10
-11.00000000016651
 20
-45.999999831014428
 30
0.0
  0
VERTEX
  5
1F72
  8
SAPA_PROFIL
 62
     4
 10
-11.0000000001647
 20
-74.675735762302025
 30
0.0
 42
-0.1989123673799843
  0
VERTEX
  5
1F73
  8
SAPA_PROFIL
 62
     4
 10
-11.08786796580997
 20
-74.887867796658753
 30
0.0
  0
VERTEX
  5
1F74
  8
SAPA_PROFIL
 62
     4
 10
-13.31213203452088
 20
-77.112131865369662
 30
0.0
 42
0.1989123673811184
  0
VERTEX
  5
1F75
  8
SAPA_PROFIL
 62
     4
 10
-13.400000000164329
 20
-77.32426389972548
 30
0.0
  0
VERTEX
  5
1F76
  8
SAPA_PROFIL
 62
     4
 10
-13.40000000016251
 20
-80.275735762303285
 30
0.0
 42
0.1989123673785438
  0
VERTEX
  5
1F77
  8
SAPA_PROFIL
 62
     4
 10
-13.31213203451906
 20
-80.487867796659117
 30
0.0
  0
VERTEX
  5
1F78
  8
SAPA_PROFIL
 62
     4
 10
-11.087867965808149
 20
-82.712131865370935
 30
0.0
 42
-0.1989123673785438
  0
VERTEX
  5
1F79
  8
SAPA_PROFIL
 62
     4
 10
-11.0000000001647
 20
-82.924263899726753
 30
0.0
  0
VERTEX
  5
1F7A
  8
SAPA_PROFIL
 62
     4
 10
-11.00000000016651
 20
-85.299999831014375
 30
0.0
 42
-0.4142135623730951
  0
VERTEX
  5
1F7B
  8
SAPA_PROFIL
 62
     4
 10
-11.50000000016651
 20
-85.799999831014389
 30
0.0
  0
VERTEX
  5
1F7C
  8
SAPA_PROFIL
 62
     4
 10
-23.400000000163601
 20
-85.799999831014389
 30
0.0
 42
0.414213562373761
  0
VERTEX
  5
1F7D
  8
SAPA_PROFIL
 62
     4
 10
-23.700000000162881
 20
-86.099999831014586
 30
0.0
  0
VERTEX
  5
1F7E
  8
SAPA_PROFIL
 62
     4
 10
-23.700000000162881
 20
-87.799999831014375
 30
0.0
 42
-0.4142135623730951
  0
VERTEX
  5
1F7F
  8
SAPA_PROFIL
 62
     4
 10
-24.200000000162881
 20
-88.299999831014389
 30
0.0
  0
VERTEX
  5
1F80
  8
SAPA_PROFIL
 62
     4
 10
-30.5000000001647
 20
-88.299999831014389
 30
0.0
 42
-0.4142135623730951
  0
VERTEX
  5
1F81
  8
SAPA_PROFIL
 62
     4
 10
-31.0000000001647
 20
-87.799999831014375
 30
0.0
  0
VERTEX
  5
1F82
  8
SAPA_PROFIL
 62
     4
 10
-31.000000000162881
 20
-86.799999831014006
 30
0.0
 42
0.414213562373539
  0
VERTEX
  5
1F83
  8
SAPA_PROFIL
 62
     4
 10
-31.30000000016215
 20
-86.499999831014065
 30
0.0
  0
VERTEX
  5
1F84
  8
SAPA_PROFIL
 62
     4
 10
-32.90000000016434
 20
-86.49999983101452
 30
0.0
 42
0.4142135623735391
  0
VERTEX
  5
1F85
  8
SAPA_PROFIL
 62
     4
 10
-33.200000000163598
 20
-86.799999831014233
 30
0.0
  0
VERTEX
  5
1F86
  8
SAPA_PROFIL
 62
     4
 10
-33.200000000161793
 20
-87.099999831013875
 30
0.0
 42
-0.592337729603611
  0
VERTEX
  5
1F87
  8
SAPA_PROFIL
 62
     4
 10
-33.661452270903361
 20
-87.352849913618144
 30
0.0
  0
VERTEX
  5
1F88
  8
SAPA_PROFIL
 62
     4
 10
-35.361452270904088
 20
-86.075790645321305
 30
0.0
 42
-0.2560149538738706
  0
VERTEX
  5
1F89
  8
SAPA_PROFIL
 62
     4
 10
-35.500000000164697
 20
-85.822940562716127
 30
0.0
  0
VERTEX
  5
1F8A
  8
SAPA_PROFIL
 62
     4
 10
-35.500000000164697
 20
-85.59999983101352
 30
0.0
 42
-0.4142135623733169
  0
VERTEX
  5
1F8B
  8
SAPA_PROFIL
 62
     4
 10
-35.200000000165431
 20
-85.299999831014233
 30
0.0
  0
VERTEX
  5
1F8C
  8
SAPA_PROFIL
 62
     4
 10
-31.30000000016215
 20
-85.299999831014233
 30
0.0
 42
0.414213562373539
  0
VERTEX
  5
1F8D
  8
SAPA_PROFIL
 62
     4
 10
-31.000000000162881
 20
-84.999999831014307
 30
0.0
  0
VERTEX
  5
1F8E
  8
SAPA_PROFIL
 62
     4
 10
-31.0000000001647
 20
-73.999999831014122
 30
0.0
 42
0.414213562373539
  0
VERTEX
  5
1F8F
  8
SAPA_PROFIL
 62
     4
 10
-31.300000000163969
 20
-73.699999831014168
 30
0.0
  0
VERTEX
  5
1F90
  8
SAPA_PROFIL
 62
     4
 10
-35.200000000165431
 20
-73.699999831014168
 30
0.0
 42
-0.4142135623730951
  0
VERTEX
  5
1F91
  8
SAPA_PROFIL
 62
     4
 10
-35.500000000164697
 20
-73.399999831014895
 30
0.0
  0
VERTEX
  5
1F92
  8
SAPA_PROFIL
 62
     4
 10
-35.500000000164697
 20
-73.177059099312288
 30
0.0
 42
-0.2560149538738705
  0
VERTEX
  5
1F93
  8
SAPA_PROFIL
 62
     4
 10
-35.361452270904088
 20
-72.924209016707124
 30
0.0
  0
VERTEX
  5
1F94
  8
SAPA_PROFIL
 62
     4
 10
-33.661452270903361
 20
-71.647149748410271
 30
0.0
 42
-0.592337729603611
  0
VERTEX
  5
1F95
  8
SAPA_PROFIL
 62
     4
 10
-33.200000000161793
 20
-71.899999831014526
 30
0.0
  0
VERTEX
  5
1F96
  8
SAPA_PROFIL
 62
     4
 10
-33.200000000163598
 20
-72.199999831014154
 30
0.0
 42
0.4142135623735391
  0
VERTEX
  5
1F97
  8
SAPA_PROFIL
 62
     4
 10
-32.90000000016434
 20
-72.499999831013895
 30
0.0
  0
VERTEX
  5
1F98
  8
SAPA_PROFIL
 62
     4
 10
-31.300000000163969
 20
-72.49999983101435
 30
0.0
 42
0.414213562373539
  0
VERTEX
  5
1F99
  8
SAPA_PROFIL
 62
     4
 10
-31.0000000001647
 20
-72.199999831014395
 30
0.0
  0
VERTEX
  5
1F9A
  8
SAPA_PROFIL
 62
     4
 10
-31.000000000168338
 20
-45.999999831014428
 30
0.0
 42
-0.414213562373126
  0
VERTEX
  5
1F9B
  8
SAPA_PROFIL
 62
     4
 10
-30.500000000168331
 20
-45.499999831014428
 30
0.0
  0
VERTEX
  5
1F9C
  8
SAPA_PROFIL
 62
     4
 10
-11.50000000016651
 20
-45.499999831014428
 30
0.0
 42
-0.4142135623730951
  0
SEQEND
  5
1F9D
  8
SAPA_PROFIL
 62
     4
  0
POLYLINE
  5
139E
  8
SAPA_PROFIL
 66
     1
 10
0.0
 20
0.0
 30
0.0
 70
     1
  0
VERTEX
  5
1F9E
  8
SAPA_PROFIL
 10
-22.799999999999049
 20
-99.098475071207986
 30
0.0
  0
VERTEX
  5
1F9F
  8
SAPA_PROFIL
 10
-23.799999999999041
 20
-99.098475071207986
 30
0.0
  0
VERTEX
  5
1FA0
  8
SAPA_PROFIL
 10
-23.799999999999041
 20
-96.498475071207821
 30
0.0
 42
0.4142135623730951
  0
VERTEX
  5
1FA1
  8
SAPA_PROFIL
 10
-24.299999999999049
 20
-95.998475071207835
 30
0.0
  0
VERTEX
  5
1FA2
  8
SAPA_PROFIL
 10
-24.69999999999914
 20
-95.998475071207835
 30
0.0
 42
0.4142135623730951
  0
VERTEX
  5
1FA3
  8
SAPA_PROFIL
 10
-24.999999999999091
 20
-96.298475071207775
 30
0.0
  0
VERTEX
  5
1FA4
  8
SAPA_PROFIL
 10
-24.999999999999091
 20
-113.9999999990104
 30
0.0
 42
0.4142135623730951
  0
VERTEX
  5
1FA5
  8
SAPA_PROFIL
 10
-24.499999999999091
 20
-114.4999999990105
 30
0.0
  0
VERTEX
  5
1FA6
  8
SAPA_PROFIL
 10
24.500000000000909
 20
-114.4999999990105
 30
0.0
 42
0.4142135623730951
  0
VERTEX
  5
1FA7
  8
SAPA_PROFIL
 10
25.000000000000909
 20
-113.9999999990104
 30
0.0
  0
VERTEX
  5
1FA8
  8
SAPA_PROFIL
 10
25.000000000000909
 20
-96.298475071207775
 30
0.0
 42
0.4142135623730951
  0
VERTEX
  5
1FA9
  8
SAPA_PROFIL
 10
24.700000000000959
 20
-95.998475071207835
 30
0.0
  0
VERTEX
  5
1FAA
  8
SAPA_PROFIL
 10
24.300000000000871
 20
-95.998475071207835
 30
0.0
 42
0.4142135623730951
  0
VERTEX
  5
1FAB
  8
SAPA_PROFIL
 10
23.80000000000086
 20
-96.498475071207821
 30
0.0
  0
VERTEX
  5
1FAC
  8
SAPA_PROFIL
 10
23.80000000000086
 20
-99.098475071207986
 30
0.0
  0
VERTEX
  5
1FAD
  8
SAPA_PROFIL
 10
22.80000000000086
 20
-99.098475071207986
 30
0.0
  0
VERTEX
  5
1FAE
  8
SAPA_PROFIL
 10
22.22033922157971
 20
-100.10250783084101
 30
0.0
 42
0.4155392929676362
  0
VERTEX
  5
1FAF
  8
SAPA_PROFIL
 10
22.51631264788557
 20
-101.19712680263289
 30
0.0
  0
VERTEX
  5
1FB0
  8
SAPA_PROFIL
 10
23.80000000000086
 20
-101.9382640409319
 30
0.0
  0
VERTEX
  5
1FB1
  8
SAPA_PROFIL
 10
23.80000000000086
 20
-112.09999999901061
 30
0.0
 42
-0.4142135623730951
  0
VERTEX
  5
1FB2
  8
SAPA_PROFIL
 10
22.80000000000086
 20
-113.09999999901061
 30
0.0
  0
VERTEX
  5
1FB3
  8
SAPA_PROFIL
 10
-22.799999999999049
 20
-113.09999999901061
 30
0.0
 42
-0.4142135623730951
  0
VERTEX
  5
1FB4
  8
SAPA_PROFIL
 10
-23.799999999999041
 20
-112.09999999901061
 30
0.0
  0
VERTEX
  5
1FB5
  8
SAPA_PROFIL
 10
-23.799999999999041
 20
-101.9382640409319
 30
0.0
  0
VERTEX
  5
1FB6
  8
SAPA_PROFIL
 10
-22.516312647883751
 20
-101.19712680263289
 30
0.0
 42
0.4155392929676362
  0
VERTEX
  5
1FB7
  8
SAPA_PROFIL
 10
-22.220339221577891
 20
-100.10250783084101
 30
0.0
  0
SEQEND
  5
1FB8
  8
SAPA_PROFIL
  0
POLYLINE
  5
139F
  8
SAPA_PROFIL
 66
     1
 10
0.0
 20
0.0
 30
0.0
 70
     1
  0
VERTEX
  5
1FB9
  8
SAPA_PROFIL
 10
-11.938375275004541
 20
-92.499999999011834
 30
0.0
 42
0.2216946626428728
  0
VERTEX
  5
1FBA
  8
SAPA_PROFIL
 10
-12.70441971812317
 20
-92.857212389325355
 30
0.0
  0
VERTEX
  5
1FBB
  8
SAPA_PROFIL
 10
-13.783145410548061
 20
-94.142787608696494
 30
0.0
 42
-0.2216946626428911
  0
VERTEX
  5
1FBC
  8
SAPA_PROFIL
 10
-14.5491898536668
 20
-94.499999999009944
 30
0.0
  0
VERTEX
  5
1FBD
  8
SAPA_PROFIL
 10
-16.32573593128836
 20
-94.49999999901047
 30
0.0
 42
0.1989123673796749
  0
VERTEX
  5
1FBE
  8
SAPA_PROFIL
 10
-16.537867965644629
 20
-94.587867964654365
 30
0.0
  0
VERTEX
  5
1FBF
  8
SAPA_PROFIL
 10
-17.108578643762939
 20
-95.158578642773136
 30
0.0
 42
0.6681786379193591
  0
VERTEX
  5
1FC0
  8
SAPA_PROFIL
 10
-16.967157287525421
 20
-95.499999999010456
 30
0.0
  0
VERTEX
  5
1FC1
  8
SAPA_PROFIL
 10
-16.00000000000022
 20
-95.499999999010228
 30
0.0
 42
-0.4142135623730951
  0
VERTEX
  5
1FC2
  8
SAPA_PROFIL
 10
-15.500000000000229
 20
-95.999999999010015
 30
0.0
  0
VERTEX
  5
1FC3
  8
SAPA_PROFIL
 10
-15.500000000000229
 20
-96.390808928730621
 30
0.0
 42
-0.1763269807084316
  0
VERTEX
  5
1FC4
  8
SAPA_PROFIL
 10
-15.57018666706449
 20
-96.583645211636394
 30
0.0
  0
VERTEX
  5
1FC5
  8
SAPA_PROFIL
 10
-17.02833086987243
 20
-98.321393803853212
 30
0.0
 42
-0.2216946626429586
  0
VERTEX
  5
1FC6
  8
SAPA_PROFIL
 10
-17.41135309143192
 20
-98.499999999009958
 30
0.0
  0
VERTEX
  5
1FC7
  8
SAPA_PROFIL
 10
-19.98190844019928
 20
-98.499999999010015
 30
0.0
 42
-0.2216946626429592
  0
VERTEX
  5
1FC8
  8
SAPA_PROFIL
 10
-20.211721773135199
 20
-98.392836281916075
 30
0.0
  0
VERTEX
  5
1FC9
  8
SAPA_PROFIL
 10
-21.729813332935919
 20
-96.583645211636394
 30
0.0
 42
-0.1763269807084563
  0
VERTEX
  5
1FCA
  8
SAPA_PROFIL
 10
-21.800000000000178
 20
-96.390808928730621
 30
0.0
  0
VERTEX
  5
1FCB
  8
SAPA_PROFIL
 10
-21.800000000000178
 20
-95.999999999010015
 30
0.0
 42
-0.4142135623730951
  0
VERTEX
  5
1FCC
  8
SAPA_PROFIL
 10
-21.300000000000178
 20
-95.499999999010456
 30
0.0
  0
VERTEX
  5
1FCD
  8
SAPA_PROFIL
 10
-20.332842712474761
 20
-95.499999999010456
 30
0.0
 42
0.6681786379193841
  0
VERTEX
  5
1FCE
  8
SAPA_PROFIL
 10
-20.191421356237701
 20
-95.158578642773136
 30
0.0
  0
VERTEX
  5
1FCF
  8
SAPA_PROFIL
 10
-20.762132034356458
 20
-94.587867964654365
 30
0.0
 42
0.1989123673796471
  0
VERTEX
  5
1FD0
  8
SAPA_PROFIL
 10
-20.974264068712269
 20
-94.499999999010015
 30
0.0
  0
VERTEX
  5
1FD1
  8
SAPA_PROFIL
 10
-23.300000000000178
 20
-94.49999999901047
 30
0.0
 42
0.4142135623730951
  0
VERTEX
  5
1FD2
  8
SAPA_PROFIL
 10
-23.800000000000178
 20
-94.999999999010484
 30
0.0
  0
VERTEX
  5
1FD3
  8
SAPA_PROFIL
 10
-23.80000000000075
 20
-98.699999999010345
 30
0.0
 42
0.4142135623729843
  0
VERTEX
  5
1FD4
  8
SAPA_PROFIL
 10
-23.500000000000679
 20
-98.999999999010527
 30
0.0
  0
VERTEX
  5
1FD5
  8
SAPA_PROFIL
 10
-22.473205080758358
 20
-98.999999999010413
 30
0.0
 42
-0.26794919243117
  0
VERTEX
  5
1FD6
  8
SAPA_PROFIL
 10
-22.21339745962268
 20
-99.149999999010504
 30
0.0
  0
VERTEX
  5
1FD7
  8
SAPA_PROFIL
 10
-21.342708718851441
 20
-100.6580771356048
 30
0.0
 42
-0.4142135623734465
  0
VERTEX
  5
1FD8
  8
SAPA_PROFIL
 10
-21.45251633998669
 20
-101.06788475674
 30
0.0
  0
VERTEX
  5
1FD9
  8
SAPA_PROFIL
 10
-22.000000000000568
 20
-101.38397459522599
 30
0.0
 42
0.4663076581550835
  0
VERTEX
  5
1FDA
  8
SAPA_PROFIL
 10
-22.26604444311954
 20
-102.89278760869691
 30
0.0
  0
VERTEX
  5
1FDB
  8
SAPA_PROFIL
 10
-19.32915489231732
 20
-106.3928362819163
 30
0.0
 42
0.2216946626429129
  0
VERTEX
  5
1FDC
  8
SAPA_PROFIL
 10
-19.099341559381632
 20
-106.4999999990103
 30
0.0
  0
VERTEX
  5
1FDD
  8
SAPA_PROFIL
 10
-17.950000000000038
 20
-106.4999999990103
 30
0.0
 42
0.4142135623732061
  0
VERTEX
  5
1FDE
  8
SAPA_PROFIL
 10
-17.650000000000091
 20
-106.1999999990102
 30
0.0
  0
VERTEX
  5
1FDF
  8
SAPA_PROFIL
 10
-17.650000000000659
 20
-102.6932604937618
 30
0.0
 42
-0.1763269807085094
  0
VERTEX
  5
1FE0
  8
SAPA_PROFIL
 10
-17.416044443119631
 20
-102.05047288407511
 30
0.0
  0
VERTEX
  5
1FE1
  8
SAPA_PROFIL
 10
-15.11413473206983
 20
-99.307163716104085
 30
0.0
 42
-0.2216946626429509
  0
VERTEX
  5
1FE2
  8
SAPA_PROFIL
 10
-14.88432139913413
 20
-99.199999999010004
 30
0.0
  0
VERTEX
  5
1FE3
  8
SAPA_PROFIL
 10
-14.024213696580659
 20
-99.199999999010004
 30
0.0
 42
0.4142135623731506
  0
VERTEX
  5
1FE4
  8
SAPA_PROFIL
 10
-13.7242136965807
 20
-98.899999999010006
 30
0.0
  0
VERTEX
  5
1FE5
  8
SAPA_PROFIL
 10
-13.7242136965807
 20
-97.759911398917041
 30
0.0
 42
-0.1763269807084654
  0
VERTEX
  5
1FE6
  8
SAPA_PROFIL
 10
-13.65402702951644
 20
-97.567075116011097
 30
0.0
  0
VERTEX
  5
1FE7
  8
SAPA_PROFIL
 10
-11.96755195683579
 20
-95.557212389323354
 30
0.0
 42
-0.2216946626429509
  0
VERTEX
  5
1FE8
  8
SAPA_PROFIL
 10
-11.20150751371682
 20
-95.199999999009876
 30
0.0
  0
VERTEX
  5
1FE9
  8
SAPA_PROFIL
 10
11.20150751371682
 20
-95.199999999010004
 30
0.0
 42
-0.2216946626429508
  0
VERTEX
  5
1FEA
  8
SAPA_PROFIL
 10
11.96755195683579
 20
-95.557212389323468
 30
0.0
  0
VERTEX
  5
1FEB
  8
SAPA_PROFIL
 10
13.65402702951644
 20
-97.56707511601121
 30
0.0
 42
-0.1763269807084657
  0
VERTEX
  5
1FEC
  8
SAPA_PROFIL
 10
13.7242136965807
 20
-97.759911398917154
 30
0.0
  0
VERTEX
  5
1FED
  8
SAPA_PROFIL
 10
13.7242136965807
 20
-98.899999999010006
 30
0.0
 42
0.4142135623730951
  0
VERTEX
  5
1FEE
  8
SAPA_PROFIL
 10
14.024213696580659
 20
-99.199999999009947
 30
0.0
  0
VERTEX
  5
1FEF
  8
SAPA_PROFIL
 10
14.88432139913413
 20
-99.199999999009947
 30
0.0
 42
-0.2216946626429889
  0
VERTEX
  5
1FF0
  8
SAPA_PROFIL
 10
15.11413473206983
 20
-99.307163716104014
 30
0.0
  0
VERTEX
  5
1FF1
  8
SAPA_PROFIL
 10
17.416044443119631
 20
-102.05047288407521
 30
0.0
 42
-0.1763269807085052
  0
VERTEX
  5
1FF2
  8
SAPA_PROFIL
 10
17.650000000000659
 20
-102.693260493762
 30
0.0
  0
VERTEX
  5
1FF3
  8
SAPA_PROFIL
 10
17.649999999999981
 20
-106.1999999990102
 30
0.0
 42
0.4142135623732062
  0
VERTEX
  5
1FF4
  8
SAPA_PROFIL
 10
17.949999999999928
 20
-106.4999999990103
 30
0.0
  0
VERTEX
  5
1FF5
  8
SAPA_PROFIL
 10
19.099341559381511
 20
-106.4999999990103
 30
0.0
 42
0.2216946626429129
  0
VERTEX
  5
1FF6
  8
SAPA_PROFIL
 10
19.329154892317199
 20
-106.3928362819163
 30
0.0
  0
VERTEX
  5
1FF7
  8
SAPA_PROFIL
 10
22.26604444311954
 20
-102.89278760869691
 30
0.0
 42
0.4663076581550919
  0
VERTEX
  5
1FF8
  8
SAPA_PROFIL
 10
22.000000000000568
 20
-101.38397459522599
 30
0.0
  0
VERTEX
  5
1FF9
  8
SAPA_PROFIL
 10
21.45251633998669
 20
-101.0678847567401
 30
0.0
 42
-0.4142135623731708
  0
VERTEX
  5
1FFA
  8
SAPA_PROFIL
 10
21.342708718851441
 20
-100.6580771356048
 30
0.0
  0
VERTEX
  5
1FFB
  8
SAPA_PROFIL
 10
22.21339745962268
 20
-99.149999999010504
 30
0.0
 42
-0.26794919243117
  0
VERTEX
  5
1FFC
  8
SAPA_PROFIL
 10
22.473205080758358
 20
-98.999999999010413
 30
0.0
  0
VERTEX
  5
1FFD
  8
SAPA_PROFIL
 10
23.500000000000679
 20
-98.999999999010413
 30
0.0
 42
0.4142135623729287
  0
VERTEX
  5
1FFE
  8
SAPA_PROFIL
 10
23.80000000000075
 20
-98.699999999010345
 30
0.0
  0
VERTEX
  5
1FFF
  8
SAPA_PROFIL
 10
23.800000000000178
 20
-94.999999999010484
 30
0.0
 42
0.4142135623730951
  0
VERTEX
  5
2000
  8
SAPA_PROFIL
 10
23.300000000000178
 20
-94.49999999901047
 30
0.0
  0
VERTEX
  5
2001
  8
SAPA_PROFIL
 10
20.974264068712269
 20
-94.499999999010015
 30
0.0
 42
0.1989123673796819
  0
VERTEX
  5
2002
  8
SAPA_PROFIL
 10
20.762132034356458
 20
-94.587867964654365
 30
0.0
  0
VERTEX
  5
2003
  8
SAPA_PROFIL
 10
20.191421356237701
 20
-95.158578642773136
 30
0.0
 42
0.6681786379193841
  0
VERTEX
  5
2004
  8
SAPA_PROFIL
 10
20.332842712474761
 20
-95.499999999010456
 30
0.0
  0
VERTEX
  5
2005
  8
SAPA_PROFIL
 10
21.300000000000178
 20
-95.499999999010456
 30
0.0
 42
-0.4142135623730951
  0
VERTEX
  5
2006
  8
SAPA_PROFIL
 10
21.800000000000178
 20
-95.999999999010015
 30
0.0
  0
VERTEX
  5
2007
  8
SAPA_PROFIL
 10
21.800000000000178
 20
-96.390808928730621
 30
0.0
 42
-0.1763269807084561
  0
VERTEX
  5
2008
  8
SAPA_PROFIL
 10
21.729813332935919
 20
-96.583645211636394
 30
0.0
  0
VERTEX
  5
2009
  8
SAPA_PROFIL
 10
20.211721773135199
 20
-98.392836281916075
 30
0.0
 42
-0.2216946626429592
  0
VERTEX
  5
200A
  8
SAPA_PROFIL
 10
19.98190844019928
 20
-98.499999999010015
 30
0.0
  0
VERTEX
  5
200B
  8
SAPA_PROFIL
 10
17.41135309143192
 20
-98.499999999009958
 30
0.0
 42
-0.2216946626429736
  0
VERTEX
  5
200C
  8
SAPA_PROFIL
 10
17.02833086987243
 20
-98.321393803853212
 30
0.0
  0
VERTEX
  5
200D
  8
SAPA_PROFIL
 10
15.57018666706449
 20
-96.583645211636394
 30
0.0
 42
-0.1763269807084407
  0
VERTEX
  5
200E
  8
SAPA_PROFIL
 10
15.500000000000229
 20
-96.390808928730621
 30
0.0
  0
VERTEX
  5
200F
  8
SAPA_PROFIL
 10
15.500000000000229
 20
-95.999999999010015
 30
0.0
 42
-0.4142135623730951
  0
VERTEX
  5
2010
  8
SAPA_PROFIL
 10
16.00000000000022
 20
-95.499999999010456
 30
0.0
  0
VERTEX
  5
2011
  8
SAPA_PROFIL
 10
16.967157287525421
 20
-95.499999999010456
 30
0.0
 42
0.6681786379193591
  0
VERTEX
  5
2012
  8
SAPA_PROFIL
 10
17.108578643762939
 20
-95.158578642773136
 30
0.0
  0
VERTEX
  5
2013
  8
SAPA_PROFIL
 10
16.537867965644629
 20
-94.587867964654365
 30
0.0
 42
0.1989123673796749
  0
VERTEX
  5
2014
  8
SAPA_PROFIL
 10
16.32573593128836
 20
-94.49999999901047
 30
0.0
  0
VERTEX
  5
2015
  8
SAPA_PROFIL
 10
14.54918985366691
 20
-94.499999999009944
 30
0.0
 42
-0.2216946626428804
  0
VERTEX
  5
2016
  8
SAPA_PROFIL
 10
13.783145410548171
 20
-94.142787608696437
 30
0.0
  0
VERTEX
  5
2017
  8
SAPA_PROFIL
 10
12.70441971812317
 20
-92.857212389325284
 30
0.0
 42
0.2216946626428499
  0
VERTEX
  5
2018
  8
SAPA_PROFIL
 10
11.938375275004541
 20
-92.499999999011834
 30
0.0
  0
VERTEX
  5
2019
  8
SAPA_PROFIL
 10
6.6500000000000901
 20
-92.499999999010015
 30
0.0
 42
-0.4142135623730951
  0
VERTEX
  5
201A
  8
SAPA_PROFIL
 10
6.3499999999999091
 20
-92.199999999010288
 30
0.0
  0
VERTEX
  5
201B
  8
SAPA_PROFIL
 10
6.3499999999999091
 20
-91.799999999010197
 30
0.0
 42
0.4142135623730951
  0
VERTEX
  5
201C
  8
SAPA_PROFIL
 10
6.050000000000181
 20
-91.499999999010015
 30
0.0
  0
VERTEX
  5
201D
  8
SAPA_PROFIL
 10
5.6500000000000901
 20
-91.499999999010015
 30
0.0
 42
0.4142135623730951
  0
VERTEX
  5
201E
  8
SAPA_PROFIL
 10
5.3499999999999091
 20
-91.799999999010197
 30
0.0
  0
VERTEX
  5
201F
  8
SAPA_PROFIL
 10
5.3499999999999091
 20
-92.199999999010288
 30
0.0
 42
-0.4142135623730951
  0
VERTEX
  5
2020
  8
SAPA_PROFIL
 10
5.050000000000181
 20
-92.499999999010015
 30
0.0
  0
VERTEX
  5
2021
  8
SAPA_PROFIL
 10
0.6242640687119092
 20
-92.499999999010015
 30
0.0
 42
0.1989123673795535
  0
VERTEX
  5
2022
  8
SAPA_PROFIL
 10
0.4121320343560911
 20
-92.587867964653924
 30
0.0
  0
VERTEX
  5
2023
  8
SAPA_PROFIL
 10
0.0
 20
-92.999999999010015
 30
0.0
  0
VERTEX
  5
2024
  8
SAPA_PROFIL
 10
-0.4121320343560911
 20
-92.587867964653924
 30
0.0
 42
0.1989123673795536
  0
VERTEX
  5
2025
  8
SAPA_PROFIL
 10
-0.6242640687119092
 20
-92.499999999010015
 30
0.0
  0
VERTEX
  5
2026
  8
SAPA_PROFIL
 10
-5.0499999999997272
 20
-92.499999999010015
 30
0.0
 42
-0.4142135623730951
  0
VERTEX
  5
2027
  8
SAPA_PROFIL
 10
-5.3499999999999091
 20
-92.199999999010288
 30
0.0
  0
VERTEX
  5
2028
  8
SAPA_PROFIL
 10
-5.3499999999999091
 20
-91.799999999010197
 30
0.0
 42
0.4142135623730951
  0
VERTEX
  5
2029
  8
SAPA_PROFIL
 10
-5.6500000000000901
 20
-91.499999999010015
 30
0.0
  0
VERTEX
  5
202A
  8
SAPA_PROFIL
 10
-6.050000000000181
 20
-91.499999999010015
 30
0.0
 42
0.4142135623730951
  0
VERTEX
  5
202B
  8
SAPA_PROFIL
 10
-6.3499999999999091
 20
-91.799999999010197
 30
0.0
  0
VERTEX
  5
202C
  8
SAPA_PROFIL
 10
-6.3499999999999091
 20
-92.199999999010288
 30
0.0
 42
-0.414213562373095
  0
VERTEX
  5
202D
  8
SAPA_PROFIL
 10
-6.6500000000000901
 20
-92.499999999010015
 30
0.0
  0
SEQEND
  5
202E
  8
SAPA_PROFIL
  0
POLYLINE
  5
13A0
  8
SAPA_PROFIL
 66
     1
 10
0.0
 20
0.0
 30
0.0
 70
     1
  0
VERTEX
  5
202F
  8
SAPA_PROFIL
 10
2.700000000000272
 20
-33.050000000001091
 30
0.0
  0
VERTEX
  5
2030
  8
SAPA_PROFIL
 10
2.0767196966983188
 20
-31.67376540642476
 30
0.0
 42
-0.5450207798987328
  0
VERTEX
  5
2031
  8
SAPA_PROFIL
 10
2.350000000000136
 20
-31.25000000000114
 30
0.0
  0
VERTEX
  5
2032
  8
SAPA_PROFIL
 10
2.700000000000272
 20
-31.25000000000114
 30
0.0
  0
VERTEX
  5
2033
  8
SAPA_PROFIL
 10
2.700000000000272
 20
-31.00000000000114
 30
0.0
 42
0.4142135623730951
  0
VERTEX
  5
2034
  8
SAPA_PROFIL
 10
1.700000000000272
 20
-30.00000000000114
 30
0.0
  0
VERTEX
  5
2035
  8
SAPA_PROFIL
 10
-1.6999999999998181
 20
-30.00000000000114
 30
0.0
 42
0.4142135623730951
  0
VERTEX
  5
2036
  8
SAPA_PROFIL
 10
-2.6999999999998181
 20
-31.00000000000114
 30
0.0
  0
VERTEX
  5
2037
  8
SAPA_PROFIL
 10
-2.6999999999998181
 20
-32.150000000001
 30
0.0
  0
VERTEX
  5
2038
  8
SAPA_PROFIL
 10
-2.3499999999996808
 20
-32.150000000001
 30
0.0
 42
-0.5450200690651551
  0
VERTEX
  5
2039
  8
SAPA_PROFIL
 10
-2.0767189999999109
 20
-32.573765000001011
 30
0.0
  0
VERTEX
  5
203A
  8
SAPA_PROFIL
 10
-2.6999999999998181
 20
-33.950000000000948
 30
0.0
  0
VERTEX
  5
203B
  8
SAPA_PROFIL
 10
-2.3499999999996808
 20
-33.950000000000948
 30
0.0
 42
-0.5450200690651692
  0
VERTEX
  5
203C
  8
SAPA_PROFIL
 10
-2.0767189999999109
 20
-34.373765000000958
 30
0.0
  0
VERTEX
  5
203D
  8
SAPA_PROFIL
 10
-2.6999999999998181
 20
-35.750000000001137
 30
0.0
  0
VERTEX
  5
203E
  8
SAPA_PROFIL
 10
-2.3499999999996808
 20
-35.750000000001137
 30
0.0
 42
-0.5450200690651619
  0
VERTEX
  5
203F
  8
SAPA_PROFIL
 10
-2.0767189999999109
 20
-36.17376500000114
 30
0.0
  0
VERTEX
  5
2040
  8
SAPA_PROFIL
 10
-2.6999999999998181
 20
-37.550000000001091
 30
0.0
  0
VERTEX
  5
2041
  8
SAPA_PROFIL
 10
-2.3499999999996808
 20
-37.550000000001091
 30
0.0
 42
-0.5450200690651619
  0
VERTEX
  5
2042
  8
SAPA_PROFIL
 10
-2.0767189999999109
 20
-37.973765000001102
 30
0.0
  0
VERTEX
  5
2043
  8
SAPA_PROFIL
 10
-2.6999999999998181
 20
-39.350000000001053
 30
0.0
  0
VERTEX
  5
2044
  8
SAPA_PROFIL
 10
-2.3499999999996808
 20
-39.350000000001053
 30
0.0
 42
-0.5450200690651692
  0
VERTEX
  5
2045
  8
SAPA_PROFIL
 10
-2.0767189999999109
 20
-39.773765000001049
 30
0.0
  0
VERTEX
  5
2046
  8
SAPA_PROFIL
 10
-2.6999999999998181
 20
-41.150000000001
 30
0.0
  0
VERTEX
  5
2047
  8
SAPA_PROFIL
 10
-2.6999999999998181
 20
-41.450000000000948
 30
0.0
  0
VERTEX
  5
2048
  8
SAPA_PROFIL
 10
2.42826763351104
 20
-41.450000000000948
 30
0.0
  0
VERTEX
  5
2049
  8
SAPA_PROFIL
 10
2.0767196966983188
 20
-40.673765406424756
 30
0.0
 42
-0.5450207798987328
  0
VERTEX
  5
204A
  8
SAPA_PROFIL
 10
2.350000000000136
 20
-40.250000000001137
 30
0.0
  0
VERTEX
  5
204B
  8
SAPA_PROFIL
 10
2.700000000000272
 20
-40.250000000001137
 30
0.0
  0
VERTEX
  5
204C
  8
SAPA_PROFIL
 10
2.0767200000002499
 20
-38.873765000000958
 30
0.0
 42
-0.5450205149791638
  0
VERTEX
  5
204D
  8
SAPA_PROFIL
 10
2.350000000000136
 20
-38.450000000000962
 30
0.0
  0
VERTEX
  5
204E
  8
SAPA_PROFIL
 10
2.700000000000272
 20
-38.450000000000962
 30
0.0
  0
VERTEX
  5
204F
  8
SAPA_PROFIL
 10
2.0767196966983188
 20
-37.073765406424627
 30
0.0
 42
-0.545020779898768
  0
VERTEX
  5
2050
  8
SAPA_PROFIL
 10
2.350000000000136
 20
-36.650000000001
 30
0.0
  0
VERTEX
  5
2051
  8
SAPA_PROFIL
 10
2.700000000000272
 20
-36.650000000001
 30
0.0
  0
VERTEX
  5
2052
  8
SAPA_PROFIL
 10
2.0767196966983188
 20
-35.273765406424673
 30
0.0
 42
-0.54502077989874
  0
VERTEX
  5
2053
  8
SAPA_PROFIL
 10
2.350000000000136
 20
-34.850000000001053
 30
0.0
  0
VERTEX
  5
2054
  8
SAPA_PROFIL
 10
2.700000000000272
 20
-34.850000000001053
 30
0.0
  0
VERTEX
  5
2055
  8
SAPA_PROFIL
 10
2.0767196966983188
 20
-33.473765406424718
 30
0.0
 42
-0.545020779898761
  0
VERTEX
  5
2056
  8
SAPA_PROFIL
 10
2.350000000000136
 20
-33.050000000001091
 30
0.0
  0
SEQEND
  5
2057
  8
SAPA_PROFIL
  0
POLYLINE
  5
13A1
  8
SAPA_PROFIL
 66
     1
 10
0.0
 20
0.0
 30
0.0
 70
     1
  0
VERTEX
  5
2058
  8
SAPA_PROFIL
 10
23.000000000000231
 20
58.024264068710863
 30
0.0
 42
-0.1989123673796753
  0
VERTEX
  5
2059
  8
SAPA_PROFIL
 10
22.912132034356091
 20
57.812132034355052
 30
0.0
  0
VERTEX
  5
205A
  8
SAPA_PROFIL
 10
21.187867965644269
 20
56.087867965642999
 30
0.0
 42
0.1989123673796753
  0
VERTEX
  5
205B
  8
SAPA_PROFIL
 10
21.10000000000014
 20
55.875735931286947
 30
0.0
  0
VERTEX
  5
205C
  8
SAPA_PROFIL
 10
21.10000000000014
 20
55.299999999999052
 30
0.0
 42
0.4142135623730951
  0
VERTEX
  5
205D
  8
SAPA_PROFIL
 10
21.400000000000318
 20
54.999999999998863
 30
0.0
  0
VERTEX
  5
205E
  8
SAPA_PROFIL
 10
22.700000000000269
 20
54.999999999998863
 30
0.0
 42
-0.4142135623730951
  0
VERTEX
  5
205F
  8
SAPA_PROFIL
 10
23.000000000000231
 20
54.699999999998909
 30
0.0
  0
VERTEX
  5
2060
  8
SAPA_PROFIL
 10
23.000000000000231
 20
29.99999999999886
 30
0.0
 42
-0.4142135623730951
  0
VERTEX
  5
2061
  8
SAPA_PROFIL
 10
22.000000000000231
 20
28.99999999999887
 30
0.0
  0
VERTEX
  5
2062
  8
SAPA_PROFIL
 10
17.600000000000129
 20
28.99999999999887
 30
0.0
 42
0.4142135623730951
  0
VERTEX
  5
2063
  8
SAPA_PROFIL
 10
17.300000000000178
 20
28.699999999998909
 30
0.0
  0
VERTEX
  5
2064
  8
SAPA_PROFIL
 10
17.300000000000178
 20
26.399999999998961
 30
0.0
 42
0.4142135623730951
  0
VERTEX
  5
2065
  8
SAPA_PROFIL
 10
17.600000000000129
 20
26.099999999999
 30
0.0
  0
VERTEX
  5
2066
  8
SAPA_PROFIL
 10
18.100000000000129
 20
26.099999999999
 30
0.0
 42
0.4142135623730951
  0
VERTEX
  5
2067
  8
SAPA_PROFIL
 10
18.400000000000318
 20
26.399999999998961
 30
0.0
  0
VERTEX
  5
2068
  8
SAPA_PROFIL
 10
18.400000000000318
 20
26.736626924633359
 30
0.0
 42
-0.5535245743249297
  0
VERTEX
  5
2069
  8
SAPA_PROFIL
 10
22.71055421153164
 20
24.96410760212348
 30
0.0
  0
VERTEX
  5
206A
  8
SAPA_PROFIL
 10
22.42322330470347
 20
24.67677669529553
 30
0.0
 42
0.4142135623729421
  0
VERTEX
  5
206B
  8
SAPA_PROFIL
 10
22.42322330470347
 20
24.32322330470242
 30
0.0
  0
VERTEX
  5
206C
  8
SAPA_PROFIL
 10
22.71055421153164
 20
24.035892397874481
 30
0.0
 42
-0.5535245743249292
  0
VERTEX
  5
206D
  8
SAPA_PROFIL
 10
18.400000000000318
 20
22.26337307536437
 30
0.0
  0
VERTEX
  5
206E
  8
SAPA_PROFIL
 10
18.400000000000318
 20
22.599999999999
 30
0.0
 42
0.4142135623730951
  0
VERTEX
  5
206F
  8
SAPA_PROFIL
 10
18.100000000000129
 20
22.899999999998961
 30
0.0
  0
VERTEX
  5
2070
  8
SAPA_PROFIL
 10
17.600000000000129
 20
22.899999999998961
 30
0.0
 42
0.4142135623730951
  0
VERTEX
  5
2071
  8
SAPA_PROFIL
 10
17.300000000000178
 20
22.599999999999
 30
0.0
  0
VERTEX
  5
2072
  8
SAPA_PROFIL
 10
17.300000000000178
 20
21.49999999999886
 30
0.0
 42
0.4142135623730951
  0
VERTEX
  5
2073
  8
SAPA_PROFIL
 10
18.800000000000178
 20
19.99999999999886
 30
0.0
  0
VERTEX
  5
2074
  8
SAPA_PROFIL
 10
21.63397459621569
 20
19.99999999999886
 30
0.0
 42
0.267949192431143
  0
VERTEX
  5
2075
  8
SAPA_PROFIL
 10
22.066987298107961
 20
20.24999999999886
 30
0.0
 42
-0.767326987978956
  0
VERTEX
  5
2076
  8
SAPA_PROFIL
 10
23.000000000000231
 20
19.99999999999886
 30
0.0
  0
VERTEX
  5
2077
  8
SAPA_PROFIL
 10
23.000000000000231
 20
-15.00000000000113
 30
0.0
 42
-0.4142135623730951
  0
VERTEX
  5
2078
  8
SAPA_PROFIL
 10
22.000000000000231
 20
-16.00000000000114
 30
0.0
  0
VERTEX
  5
2079
  8
SAPA_PROFIL
 10
17.600000000000129
 20
-16.00000000000114
 30
0.0
 42
0.4142135623730951
  0
VERTEX
  5
207A
  8
SAPA_PROFIL
 10
17.300000000000178
 20
-16.300000000001091
 30
0.0
  0
VERTEX
  5
207B
  8
SAPA_PROFIL
 10
17.300000000000178
 20
-18.600000000001039
 30
0.0
 42
0.4142135623730951
  0
VERTEX
  5
207C
  8
SAPA_PROFIL
 10
17.600000000000129
 20
-18.900000000001
 30
0.0
  0
VERTEX
  5
207D
  8
SAPA_PROFIL
 10
18.100000000000129
 20
-18.900000000001
 30
0.0
 42
0.4142135623730951
  0
VERTEX
  5
207E
  8
SAPA_PROFIL
 10
18.400000000000318
 20
-18.600000000001039
 30
0.0
  0
VERTEX
  5
207F
  8
SAPA_PROFIL
 10
18.400000000000318
 20
-18.263373075366641
 30
0.0
 42
-0.5535245743249297
  0
VERTEX
  5
2080
  8
SAPA_PROFIL
 10
22.71055421153164
 20
-20.03589239787652
 30
0.0
  0
VERTEX
  5
2081
  8
SAPA_PROFIL
 10
22.42322330470347
 20
-20.32322330470447
 30
0.0
 42
0.4142135623730243
  0
VERTEX
  5
2082
  8
SAPA_PROFIL
 10
22.423223304703701
 20
-20.67677669529758
 30
0.0
  0
VERTEX
  5
2083
  8
SAPA_PROFIL
 10
22.71055421153164
 20
-20.96410760212553
 30
0.0
 42
-0.5535245743249292
  0
VERTEX
  5
2084
  8
SAPA_PROFIL
 10
18.400000000000318
 20
-22.73662692463563
 30
0.0
  0
VERTEX
  5
2085
  8
SAPA_PROFIL
 10
18.400000000000318
 20
-22.400000000001
 30
0.0
 42
0.4142135623730951
  0
VERTEX
  5
2086
  8
SAPA_PROFIL
 10
18.100000000000129
 20
-22.100000000001049
 30
0.0
  0
VERTEX
  5
2087
  8
SAPA_PROFIL
 10
17.600000000000129
 20
-22.100000000001049
 30
0.0
 42
0.4142135623730951
  0
VERTEX
  5
2088
  8
SAPA_PROFIL
 10
17.300000000000178
 20
-22.400000000001
 30
0.0
  0
VERTEX
  5
2089
  8
SAPA_PROFIL
 10
17.300000000000178
 20
-23.50000000000114
 30
0.0
 42
0.4142135623730951
  0
VERTEX
  5
208A
  8
SAPA_PROFIL
 10
18.800000000000178
 20
-25.00000000000114
 30
0.0
  0
VERTEX
  5
208B
  8
SAPA_PROFIL
 10
21.780384757729511
 20
-25.00000000000114
 30
0.0
 42
0.2679491924311188
  0
VERTEX
  5
208C
  8
SAPA_PROFIL
 10
22.040192378864958
 20
-24.850000000001049
 30
0.0
 42
-0.7673269879789557
  0
VERTEX
  5
208D
  8
SAPA_PROFIL
 10
22.600000000000129
 20
-25.00000000000114
 30
0.0
  0
VERTEX
  5
208E
  8
SAPA_PROFIL
 10
22.599999999999909
 20
-27.00000000000114
 30
0.0
 42
-0.4142137811865366
  0
VERTEX
  5
208F
  8
SAPA_PROFIL
 10
21.600000747075459
 20
-28.00000000000114
 30
0.0
  0
VERTEX
  5
2090
  8
SAPA_PROFIL
 10
-21.599999999999682
 20
-28.00000000000114
 30
0.0
 42
-0.4142140000000124
  0
VERTEX
  5
2091
  8
SAPA_PROFIL
 10
-22.599999999999682
 20
-27.00000000000114
 30
0.0
  0
VERTEX
  5
2092
  8
SAPA_PROFIL
 10
-22.599999999999682
 20
-25.00000000000114
 30
0.0
 42
-0.7673269879789457
  0
VERTEX
  5
2093
  8
SAPA_PROFIL
 10
-22.0401923788645
 20
-24.850000000001049
 30
0.0
 42
0.2679491924311191
  0
VERTEX
  5
2094
  8
SAPA_PROFIL
 10
-21.780384757729049
 20
-25.00000000000114
 30
0.0
  0
VERTEX
  5
2095
  8
SAPA_PROFIL
 10
-18.799999999999731
 20
-25.00000000000114
 30
0.0
 42
0.4142135623730951
  0
VERTEX
  5
2096
  8
SAPA_PROFIL
 10
-17.299999999999731
 20
-23.50000000000114
 30
0.0
  0
VERTEX
  5
2097
  8
SAPA_PROFIL
 10
-17.299999999999731
 20
-22.400000000001
 30
0.0
 42
0.4142135623730951
  0
VERTEX
  5
2098
  8
SAPA_PROFIL
 10
-17.599999999999682
 20
-22.100000000001049
 30
0.0
  0
VERTEX
  5
2099
  8
SAPA_PROFIL
 10
-18.099999999999682
 20
-22.100000000001049
 30
0.0
 42
0.4142135623730951
  0
VERTEX
  5
209A
  8
SAPA_PROFIL
 10
-18.39999999999986
 20
-22.400000000001
 30
0.0
  0
VERTEX
  5
209B
  8
SAPA_PROFIL
 10
-18.39999999999986
 20
-22.73662692463563
 30
0.0
 42
-0.5535245743249307
  0
VERTEX
  5
209C
  8
SAPA_PROFIL
 10
-22.710554211531189
 20
-20.96410760212553
 30
0.0
  0
VERTEX
  5
209D
  8
SAPA_PROFIL
 10
-22.423223304703239
 20
-20.67677669529758
 30
0.0
 42
0.4142135623730951
  0
VERTEX
  5
209E
  8
SAPA_PROFIL
 10
-22.423223304703239
 20
-20.32322330470447
 30
0.0
  0
VERTEX
  5
209F
  8
SAPA_PROFIL
 10
-22.710554211531189
 20
-20.03589239787652
 30
0.0
 42
-0.553524574324932
  0
VERTEX
  5
20A0
  8
SAPA_PROFIL
 10
-18.39999999999986
 20
-18.263373075366641
 30
0.0
  0
VERTEX
  5
20A1
  8
SAPA_PROFIL
 10
-18.39999999999986
 20
-18.600000000001039
 30
0.0
 42
0.4142135623730951
  0
VERTEX
  5
20A2
  8
SAPA_PROFIL
 10
-18.099999999999682
 20
-18.900000000001
 30
0.0
  0
VERTEX
  5
20A3
  8
SAPA_PROFIL
 10
-17.599999999999682
 20
-18.900000000001
 30
0.0
 42
0.4142135623730951
  0
VERTEX
  5
20A4
  8
SAPA_PROFIL
 10
-17.299999999999731
 20
-18.600000000001039
 30
0.0
  0
VERTEX
  5
20A5
  8
SAPA_PROFIL
 10
-17.299999999999731
 20
-16.300000000001091
 30
0.0
 42
0.4142135623730951
  0
VERTEX
  5
20A6
  8
SAPA_PROFIL
 10
-17.599999999999682
 20
-16.00000000000114
 30
0.0
  0
VERTEX
  5
20A7
  8
SAPA_PROFIL
 10
-21.999999999999769
 20
-16.00000000000114
 30
0.0
 42
-0.4142135623730951
  0
VERTEX
  5
20A8
  8
SAPA_PROFIL
 10
-22.999999999999769
 20
-15.00000000000113
 30
0.0
  0
VERTEX
  5
20A9
  8
SAPA_PROFIL
 10
-22.999999999999769
 20
19.99999999999886
 30
0.0
 42
-0.7673269879789569
  0
VERTEX
  5
20AA
  8
SAPA_PROFIL
 10
-22.066987298107509
 20
20.24999999999886
 30
0.0
 42
0.2679491924311163
  0
VERTEX
  5
20AB
  8
SAPA_PROFIL
 10
-21.633974596215239
 20
19.99999999999886
 30
0.0
  0
VERTEX
  5
20AC
  8
SAPA_PROFIL
 10
-18.799999999999731
 20
19.99999999999886
 30
0.0
 42
0.4142135623730951
  0
VERTEX
  5
20AD
  8
SAPA_PROFIL
 10
-17.299999999999731
 20
21.49999999999886
 30
0.0
  0
VERTEX
  5
20AE
  8
SAPA_PROFIL
 10
-17.299999999999731
 20
22.599999999999
 30
0.0
 42
0.4142135623730951
  0
VERTEX
  5
20AF
  8
SAPA_PROFIL
 10
-17.599999999999682
 20
22.899999999998961
 30
0.0
  0
VERTEX
  5
20B0
  8
SAPA_PROFIL
 10
-18.099999999999682
 20
22.899999999998961
 30
0.0
 42
0.4142135623730951
  0
VERTEX
  5
20B1
  8
SAPA_PROFIL
 10
-18.39999999999986
 20
22.599999999999
 30
0.0
  0
VERTEX
  5
20B2
  8
SAPA_PROFIL
 10
-18.39999999999986
 20
22.26337307536437
 30
0.0
 42
-0.5535245743249307
  0
VERTEX
  5
20B3
  8
SAPA_PROFIL
 10
-22.710554211531189
 20
24.035892397874481
 30
0.0
  0
VERTEX
  5
20B4
  8
SAPA_PROFIL
 10
-22.423223304703239
 20
24.32322330470242
 30
0.0
 42
0.4142135623731068
  0
VERTEX
  5
20B5
  8
SAPA_PROFIL
 10
-22.423223304703011
 20
24.67677669529553
 30
0.0
  0
VERTEX
  5
20B6
  8
SAPA_PROFIL
 10
-22.710554211531189
 20
24.96410760212348
 30
0.0
 42
-0.553524574324932
  0
VERTEX
  5
20B7
  8
SAPA_PROFIL
 10
-18.39999999999986
 20
26.736626924633359
 30
0.0
  0
VERTEX
  5
20B8
  8
SAPA_PROFIL
 10
-18.39999999999986
 20
26.399999999998961
 30
0.0
 42
0.4142135623730951
  0
VERTEX
  5
20B9
  8
SAPA_PROFIL
 10
-18.099999999999682
 20
26.099999999999
 30
0.0
  0
VERTEX
  5
20BA
  8
SAPA_PROFIL
 10
-17.599999999999682
 20
26.099999999999
 30
0.0
 42
0.4142135623730951
  0
VERTEX
  5
20BB
  8
SAPA_PROFIL
 10
-17.299999999999731
 20
26.399999999998961
 30
0.0
  0
VERTEX
  5
20BC
  8
SAPA_PROFIL
 10
-17.299999999999731
 20
28.699999999998909
 30
0.0
 42
0.4142135623730951
  0
VERTEX
  5
20BD
  8
SAPA_PROFIL
 10
-17.599999999999682
 20
28.99999999999887
 30
0.0
  0
VERTEX
  5
20BE
  8
SAPA_PROFIL
 10
-21.999999999999769
 20
28.99999999999887
 30
0.0
 42
-0.4142135623730951
  0
VERTEX
  5
20BF
  8
SAPA_PROFIL
 10
-22.999999999999769
 20
29.99999999999886
 30
0.0
  0
VERTEX
  5
20C0
  8
SAPA_PROFIL
 10
-22.999999999999769
 20
54.699999999998909
 30
0.0
 42
-0.4142135623730951
  0
VERTEX
  5
20C1
  8
SAPA_PROFIL
 10
-22.699999999999822
 20
54.999999999998863
 30
0.0
  0
VERTEX
  5
20C2
  8
SAPA_PROFIL
 10
-21.39999999999986
 20
54.999999999998863
 30
0.0
 42
0.4142135623730951
  0
VERTEX
  5
20C3
  8
SAPA_PROFIL
 10
-21.099999999999682
 20
55.299999999999052
 30
0.0
  0
VERTEX
  5
20C4
  8
SAPA_PROFIL
 10
-21.099999999999682
 20
55.875735931286947
 30
0.0
 42
0.1989123673796752
  0
VERTEX
  5
20C5
  8
SAPA_PROFIL
 10
-21.187867965643822
 20
56.087867965642999
 30
0.0
  0
VERTEX
  5
20C6
  8
SAPA_PROFIL
 10
-22.91213203435586
 20
57.812132034355052
 30
0.0
 42
-0.1989123673796057
  0
VERTEX
  5
20C7
  8
SAPA_PROFIL
 10
-22.999999999999769
 20
58.024264068710863
 30
0.0
  0
VERTEX
  5
20C8
  8
SAPA_PROFIL
 10
-22.999999999999769
 20
61.499999999998863
 30
0.0
 42
-0.4142135623730951
  0
VERTEX
  5
20C9
  8
SAPA_PROFIL
 10
-21.999999999999769
 20
62.499999999998863
 30
0.0
  0
VERTEX
  5
20CA
  8
SAPA_PROFIL
 10
22.000000000000231
 20
62.499999999998863
 30
0.0
 42
-0.4142135623730951
  0
VERTEX
  5
20CB
  8
SAPA_PROFIL
 10
23.000000000000231
 20
61.499999999998863
 30
0.0
  0
SEQEND
  5
20CC
  8
SAPA_PROFIL
  0
POLYLINE
  5
13A2
  8
SAPA_PROFIL
 66
     1
 10
0.0
 20
0.0
 30
0.0
 70
     1
  0
VERTEX
  5
20CD
  8
SAPA_PROFIL
 10
6.0000000000002274
 20
-30.00000000000114
 30
0.0
 42
0.4142135623730951
  0
VERTEX
  5
20CE
  8
SAPA_PROFIL
 10
5.0000000000002274
 20
-31.00000000000114
 30
0.0
  0
VERTEX
  5
20CF
  8
SAPA_PROFIL
 10
5.0000000000002274
 20
-52.200000000000948
 30
0.0
 42
-0.4142135623730951
  0
VERTEX
  5
20D0
  8
SAPA_PROFIL
 10
4.700000000000272
 20
-52.50000000000113
 30
0.0
  0
VERTEX
  5
20D1
  8
SAPA_PROFIL
 10
3.0757360000002332
 20
-52.50000000000113
 30
0.0
  0
VERTEX
  5
20D2
  8
SAPA_PROFIL
 10
2.2378679656442269
 20
-51.562132034356871
 30
0.0
 42
-0.668178637919305
  0
VERTEX
  5
20D3
  8
SAPA_PROFIL
 10
2.450000000000272
 20
-51.050000000001091
 30
0.0
  0
VERTEX
  5
20D4
  8
SAPA_PROFIL
 10
2.700000000000272
 20
-51.050000000001091
 30
0.0
  0
VERTEX
  5
20D5
  8
SAPA_PROFIL
 10
2.1767196966982278
 20
-49.673765406424756
 30
0.0
 42
-0.5450207798987201
  0
VERTEX
  5
20D6
  8
SAPA_PROFIL
 10
2.450000000000272
 20
-49.250000000001137
 30
0.0
  0
VERTEX
  5
20D7
  8
SAPA_PROFIL
 10
2.700000000000272
 20
-49.250000000001137
 30
0.0
  0
VERTEX
  5
20D8
  8
SAPA_PROFIL
 10
2.1767196966982278
 20
-47.873765406424567
 30
0.0
 42
-0.5450207798987201
  0
VERTEX
  5
20D9
  8
SAPA_PROFIL
 10
2.450000000000272
 20
-47.450000000000962
 30
0.0
  0
VERTEX
  5
20DA
  8
SAPA_PROFIL
 10
2.700000000000272
 20
-47.450000000000962
 30
0.0
  0
VERTEX
  5
20DB
  8
SAPA_PROFIL
 10
2.1767196966982278
 20
-46.07376540642462
 30
0.0
 42
-0.5450207798987342
  0
VERTEX
  5
20DC
  8
SAPA_PROFIL
 10
2.450000000000272
 20
-45.650000000000993
 30
0.0
  0
VERTEX
  5
20DD
  8
SAPA_PROFIL
 10
2.700000000000272
 20
-45.650000000000993
 30
0.0
  0
VERTEX
  5
20DE
  8
SAPA_PROFIL
 10
2.1767196966982278
 20
-44.273765406424673
 30
0.0
 42
-0.5450207798987201
  0
VERTEX
  5
20DF
  8
SAPA_PROFIL
 10
2.450000000000272
 20
-43.850000000001039
 30
0.0
  0
VERTEX
  5
20E0
  8
SAPA_PROFIL
 10
2.700000000000272
 20
-43.850000000001039
 30
0.0
  0
VERTEX
  5
20E1
  8
SAPA_PROFIL
 10
2.4722372826161059
 20
-43.126282705194853
 30
0.0
 42
0.2945484962563026
  0
VERTEX
  5
20E2
  8
SAPA_PROFIL
 10
2.1988824689378812
 20
-42.950048040246656
 30
0.0
  0
VERTEX
  5
20E3
  8
SAPA_PROFIL
 10
1.2642999377483191
 20
-42.950255222213173
 30
0.0
 42
-0.3475954753796591
  0
VERTEX
  5
20E4
  8
SAPA_PROFIL
 10
0.9723265106783856
 20
-42.719501178044077
 30
0.0
 42
0.790522909611319
  0
VERTEX
  5
20E5
  8
SAPA_PROFIL
 10
-0.973664089865224
 20
-42.71949097360357
 30
0.0
 42
-0.3476065658631364
  0
VERTEX
  5
20E6
  8
SAPA_PROFIL
 10
-1.2656518108867649
 20
-42.950241952335773
 30
0.0
  0
VERTEX
  5
20E7
  8
SAPA_PROFIL
 10
-1.8499926620931999
 20
-42.950095231626847
 30
0.0
 42
0.4102317530969976
  0
VERTEX
  5
20E8
  8
SAPA_PROFIL
 10
-2.1500282985855388
 20
-43.245946879780369
 30
0.0
 42
-0.0712587206050384
  0
VERTEX
  5
20E9
  8
SAPA_PROFIL
 10
-2.1632556124550311
 20
-43.329990804708579
 30
0.0
  0
VERTEX
  5
20EA
  8
SAPA_PROFIL
 10
-2.6999999999998181
 20
-44.750000000001137
 30
0.0
  0
VERTEX
  5
20EB
  8
SAPA_PROFIL
 10
-2.4499999999998181
 20
-44.750000000001137
 30
0.0
 42
-0.5450200690651619
  0
VERTEX
  5
20EC
  8
SAPA_PROFIL
 10
-2.17671899999982
 20
-45.173765000001133
 30
0.0
  0
VERTEX
  5
20ED
  8
SAPA_PROFIL
 10
-2.6999999999998181
 20
-46.550000000001091
 30
0.0
  0
VERTEX
  5
20EE
  8
SAPA_PROFIL
 10
-2.4499999999998181
 20
-46.550000000000857
 30
0.0
 42
-0.545020069065176
  0
VERTEX
  5
20EF
  8
SAPA_PROFIL
 10
-2.17671899999982
 20
-46.973765000001087
 30
0.0
  0
VERTEX
  5
20F0
  8
SAPA_PROFIL
 10
-2.6999999999998181
 20
-48.350000000001039
 30
0.0
  0
VERTEX
  5
20F1
  8
SAPA_PROFIL
 10
-2.4499999999998181
 20
-48.350000000001039
 30
0.0
 42
-0.5450200690651692
  0
VERTEX
  5
20F2
  8
SAPA_PROFIL
 10
-2.17671899999982
 20
-48.773765000001049
 30
0.0
  0
VERTEX
  5
20F3
  8
SAPA_PROFIL
 10
-2.6999999999998181
 20
-50.150000000001
 30
0.0
  0
VERTEX
  5
20F4
  8
SAPA_PROFIL
 10
-2.1499999999998631
 20
-50.150000000001
 30
0.0
  0
VERTEX
  5
20F5
  8
SAPA_PROFIL
 10
-2.1499999999998631
 20
-51.350000000001039
 30
0.0
 42
-0.1989123673797004
  0
VERTEX
  5
20F6
  8
SAPA_PROFIL
 10
-2.2378679999997071
 20
-51.562132000001156
 30
0.0
  0
VERTEX
  5
20F7
  8
SAPA_PROFIL
 10
-3.075735999999778
 20
-52.50000000000113
 30
0.0
  0
VERTEX
  5
20F8
  8
SAPA_PROFIL
 10
-4.6999999999998181
 20
-52.50000000000113
 30
0.0
 42
-0.4142135623730951
  0
VERTEX
  5
20F9
  8
SAPA_PROFIL
 10
-4.9999999999997717
 20
-52.200000000000948
 30
0.0
  0
VERTEX
  5
20FA
  8
SAPA_PROFIL
 10
-4.9999999999997717
 20
-31.00000000000114
 30
0.0
 42
0.4142135623730951
  0
VERTEX
  5
20FB
  8
SAPA_PROFIL
 10
-5.9999999999997717
 20
-30.00000000000114
 30
0.0
  0
VERTEX
  5
20FC
  8
SAPA_PROFIL
 10
-14.19999999999982
 20
-30.00000000000114
 30
0.0
 42
0.4142135623730951
  0
VERTEX
  5
20FD
  8
SAPA_PROFIL
 10
-14.69999999999982
 20
-30.50000000000114
 30
0.0
  0
VERTEX
  5
20FE
  8
SAPA_PROFIL
 10
-14.69999999999982
 20
-33.700000000000962
 30
0.0
 42
0.4142135623730951
  0
VERTEX
  5
20FF
  8
SAPA_PROFIL
 10
-14.19999999999982
 20
-34.200000000000962
 30
0.0
  0
VERTEX
  5
2100
  8
SAPA_PROFIL
 10
-11.299999999999731
 20
-34.200000000000962
 30
0.0
 42
-0.4142135623730951
  0
VERTEX
  5
2101
  8
SAPA_PROFIL
 10
-10.999999999999771
 20
-34.500000000001137
 30
0.0
  0
VERTEX
  5
2102
  8
SAPA_PROFIL
 10
-10.999999999999771
 20
-35.200000000000948
 30
0.0
 42
-0.4142135623730951
  0
VERTEX
  5
2103
  8
SAPA_PROFIL
 10
-11.299999999999731
 20
-35.500000000001137
 30
0.0
  0
VERTEX
  5
2104
  8
SAPA_PROFIL
 10
-17.999999999999769
 20
-35.500000000001137
 30
0.0
  0
VERTEX
  5
2105
  8
SAPA_PROFIL
 10
-18.586384015500471
 20
-35.035076580641999
 30
0.0
 42
-0.7105995019814511
  0
VERTEX
  5
2106
  8
SAPA_PROFIL
 10
-18.39999999999986
 20
-34.500000000001137
 30
0.0
  0
VERTEX
  5
2107
  8
SAPA_PROFIL
 10
-16.499999999999769
 20
-34.500000000001137
 30
0.0
 42
0.4142135623730951
  0
VERTEX
  5
2108
  8
SAPA_PROFIL
 10
-16.199999999999822
 20
-34.200000000000962
 30
0.0
  0
VERTEX
  5
2109
  8
SAPA_PROFIL
 10
-16.199999999999822
 20
-30.300000000001091
 30
0.0
 42
0.4142135623730951
  0
VERTEX
  5
210A
  8
SAPA_PROFIL
 10
-16.499999999999769
 20
-30.00000000000114
 30
0.0
  0
VERTEX
  5
210B
  8
SAPA_PROFIL
 10
-23.199999999999822
 20
-30.00000000000114
 30
0.0
 42
0.4142135623730951
  0
VERTEX
  5
210C
  8
SAPA_PROFIL
 10
-23.499999999999769
 20
-30.300000000001091
 30
0.0
  0
VERTEX
  5
210D
  8
SAPA_PROFIL
 10
-23.499999999999769
 20
-34.200000000000962
 30
0.0
 42
0.4142135623730951
  0
VERTEX
  5
210E
  8
SAPA_PROFIL
 10
-23.199999999999822
 20
-34.500000000001137
 30
0.0
  0
VERTEX
  5
210F
  8
SAPA_PROFIL
 10
-21.999999999999769
 20
-34.500000000001137
 30
0.0
 42
-0.7105990647993611
  0
VERTEX
  5
2110
  8
SAPA_PROFIL
 10
-21.81361599999968
 20
-35.035076000001027
 30
0.0
  0
VERTEX
  5
2111
  8
SAPA_PROFIL
 10
-22.39999999999986
 20
-35.500000000001137
 30
0.0
  0
VERTEX
  5
2112
  8
SAPA_PROFIL
 10
-24.699999999999822
 20
-35.500000000001137
 30
0.0
 42
-0.4142135623730951
  0
VERTEX
  5
2113
  8
SAPA_PROFIL
 10
-24.999999999999769
 20
-35.200000000000948
 30
0.0
  0
VERTEX
  5
2114
  8
SAPA_PROFIL
 10
-24.999999999999769
 20
63.999999999998863
 30
0.0
 42
-0.4142135623730951
  0
VERTEX
  5
2115
  8
SAPA_PROFIL
 10
-24.499999999999769
 20
64.499999999998863
 30
0.0
  0
VERTEX
  5
2116
  8
SAPA_PROFIL
 10
24.500000000000231
 20
64.499999999998863
 30
0.0
 42
-0.4142135623730951
  0
VERTEX
  5
2117
  8
SAPA_PROFIL
 10
25.000000000000231
 20
63.999999999998863
 30
0.0
  0
VERTEX
  5
2118
  8
SAPA_PROFIL
 10
25.000000000000231
 20
-35.200000000000948
 30
0.0
 42
-0.4142135623730951
  0
VERTEX
  5
2119
  8
SAPA_PROFIL
 10
24.700000000000269
 20
-35.500000000001137
 30
0.0
  0
VERTEX
  5
211A
  8
SAPA_PROFIL
 10
22.400000000000318
 20
-35.500000000001137
 30
0.0
  0
VERTEX
  5
211B
  8
SAPA_PROFIL
 10
21.81361598449962
 20
-35.035076580641999
 30
0.0
 42
-0.7105995019814511
  0
VERTEX
  5
211C
  8
SAPA_PROFIL
 10
22.000000000000231
 20
-34.500000000001137
 30
0.0
  0
VERTEX
  5
211D
  8
SAPA_PROFIL
 10
23.200000000000269
 20
-34.500000000001137
 30
0.0
 42
0.4142135623730951
  0
VERTEX
  5
211E
  8
SAPA_PROFIL
 10
23.500000000000231
 20
-34.200000000000962
 30
0.0
  0
VERTEX
  5
211F
  8
SAPA_PROFIL
 10
23.500000000000231
 20
-30.300000000001091
 30
0.0
 42
0.4142135623730951
  0
VERTEX
  5
2120
  8
SAPA_PROFIL
 10
23.200000000000269
 20
-30.00000000000114
 30
0.0
  0
VERTEX
  5
2121
  8
SAPA_PROFIL
 10
16.500000000000231
 20
-30.00000000000114
 30
0.0
 42
0.4142135623730951
  0
VERTEX
  5
2122
  8
SAPA_PROFIL
 10
16.200000000000269
 20
-30.300000000001091
 30
0.0
  0
VERTEX
  5
2123
  8
SAPA_PROFIL
 10
16.200000000000269
 20
-34.200000000000962
 30
0.0
 42
0.4142135623730951
  0
VERTEX
  5
2124
  8
SAPA_PROFIL
 10
16.500000000000231
 20
-34.500000000001137
 30
0.0
  0
VERTEX
  5
2125
  8
SAPA_PROFIL
 10
18.400000000000318
 20
-34.500000000001137
 30
0.0
 42
-0.7105995019814511
  0
VERTEX
  5
2126
  8
SAPA_PROFIL
 10
18.586384015500919
 20
-35.035076580641999
 30
0.0
  0
VERTEX
  5
2127
  8
SAPA_PROFIL
 10
18.000000000000231
 20
-35.500000000001137
 30
0.0
  0
VERTEX
  5
2128
  8
SAPA_PROFIL
 10
11.30000000000018
 20
-35.500000000001137
 30
0.0
 42
-0.4142135623730951
  0
VERTEX
  5
2129
  8
SAPA_PROFIL
 10
11.00000000000022
 20
-35.200000000000948
 30
0.0
  0
VERTEX
  5
212A
  8
SAPA_PROFIL
 10
11.00000000000022
 20
-34.500000000001137
 30
0.0
 42
-0.4142135623730951
  0
VERTEX
  5
212B
  8
SAPA_PROFIL
 10
11.30000000000018
 20
-34.200000000000962
 30
0.0
  0
VERTEX
  5
212C
  8
SAPA_PROFIL
 10
14.200000000000269
 20
-34.200000000000962
 30
0.0
 42
0.4142135623730951
  0
VERTEX
  5
212D
  8
SAPA_PROFIL
 10
14.700000000000269
 20
-33.700000000000962
 30
0.0
  0
VERTEX
  5
212E
  8
SAPA_PROFIL
 10
14.700000000000269
 20
-30.50000000000114
 30
0.0
 42
0.4142135623730951
  0
VERTEX
  5
212F
  8
SAPA_PROFIL
 10
14.200000000000269
 20
-30.00000000000114
 30
0.0
  0
SEQEND
  5
2130
  8
SAPA_PROFIL
  0
LINE
  5
13A3
  8
SAPA_PROFIL
 10
40.999999999995907
 20
-54.499999999010129
 30
0.0
 11
10.999999999995911
 21
-54.499999999010129
 31
0.0
  0
POLYLINE
  5
13BB
  8
SAPA_GLAS
 66
     1
 10
0.0
 20
0.0
 30
0.0
  0
VERTEX
  5
2165
  8
SAPA_GLAS
 10
40.999999999995907
 20
-72.49999999901172
 30
0.0
  0
VERTEX
  5
2166
  8
SAPA_GLAS
 10
10.999999999995911
 20
-72.49999999901172
 30
0.0
  0
VERTEX
  5
2167
  8
SAPA_GLAS
 10
10.999999999995911
 20
-66.49999999901172
 30
0.0
  0
VERTEX
  5
2168
  8
SAPA_GLAS
 10
40.999999999995907
 20
-66.49999999901172
 30
0.0
  0
SEQEND
  5
2169
  8
SAPA_GLAS
  0
POLYLINE
  5
13BC
  8
SAPA_GLAS
 66
     1
 10
0.0
 20
0.0
 30
0.0
  0
VERTEX
  5
216A
  8
SAPA_GLAS
 10
40.999999999995907
 20
-90.499999999011735
 30
0.0
  0
VERTEX
  5
216B
  8
SAPA_GLAS
 10
10.999999999995911
 20
-90.499999999011735
 30
0.0
  0
VERTEX
  5
216C
  8
SAPA_GLAS
 10
10.999999999995911
 20
-84.499999999011706
 30
0.0
  0
VERTEX
  5
216D
  8
SAPA_GLAS
 10
40.999999999995907
 20
-84.499999999011706
 30
0.0
  0
SEQEND
  5
216E
  8
SAPA_GLAS
  0
POLYLINE
  5
13BD
  8
SAPA_GLAS
 66
     1
 10
0.0
 20
0.0
 30
0.0
  0
VERTEX
  5
216F
  8
SAPA_GLAS
 10
40.99999999999681
 20
-54.499999999010129
 30
0.0
  0
VERTEX
  5
2170
  8
SAPA_GLAS
 10
10.99999999999681
 20
-54.499999999010129
 30
0.0
  0
VERTEX
  5
2171
  8
SAPA_GLAS
 10
10.99999999999681
 20
-48.499999999010129
 30
0.0
  0
VERTEX
  5
2172
  8
SAPA_GLAS
 10
40.99999999999681
 20
-48.499999999010129
 30
0.0
  0
SEQEND
  5
2173
  8
SAPA_GLAS
  0
POLYLINE
  5
13BE
  8
SAPA_GLAS
 66
     1
 10
0.0
 20
0.0
 30
0.0
  0
VERTEX
  5
2174
  8
SAPA_GLAS
 10
20.999999999995911
 20
-84.499999999010129
 30
0.0
  0
VERTEX
  5
2175
  8
SAPA_GLAS
 10
20.999999999995911
 20
-72.499999999010129
 30
0.0
  0
VERTEX
  5
2176
  8
SAPA_GLAS
 10
10.99999999999681
 20
-72.499999999010129
 30
0.0
  0
VERTEX
  5
2177
  8
SAPA_GLAS
 10
10.99999999999681
 20
-84.499999999010129
 30
0.0
  0
VERTEX
  5
2178
  8
SAPA_GLAS
 10
20.999999999995911
 20
-84.499999999010129
 30
0.0
  0
SEQEND
  5
2179
  8
SAPA_GLAS
  0
POLYLINE
  5
13BF
  8
SAPA_GLAS
 66
     1
 10
0.0
 20
0.0
 30
0.0
  0
VERTEX
  5
217A
  8
SAPA_GLAS
 10
20.999999999995911
 20
-66.499999999010114
 30
0.0
  0
VERTEX
  5
217B
  8
SAPA_GLAS
 10
20.999999999995911
 20
-54.499999999010129
 30
0.0
  0
VERTEX
  5
217C
  8
SAPA_GLAS
 10
10.99999999999681
 20
-54.499999999010129
 30
0.0
  0
VERTEX
  5
217D
  8
SAPA_GLAS
 10
10.99999999999681
 20
-66.499999999010114
 30
0.0
  0
VERTEX
  5
217E
  8
SAPA_GLAS
 10
20.999999999995911
 20
-66.499999999010114
 30
0.0
  0
SEQEND
  5
217F
  8
SAPA_GLAS
  0
POLYLINE
  5
13C0
  8
SAPA_GLAS
 66
     1
 10
0.0
 20
0.0
 30
0.0
 70
     1
  0
VERTEX
  5
2180
  8
SAPA_GLAS
 10
-118.49537581359679
 20
-74.663511128413063
 30
0.0
  0
VERTEX
  5
2181
  8
SAPA_GLAS
 10
-118.49537581359679
 20
-59.66351112841307
 30
0.0
  0
VERTEX
  5
2182
  8
SAPA_GLAS
 10
-108.49537581359679
 20
-59.66351112841307
 30
0.0
  0
VERTEX
  5
2183
  8
SAPA_GLAS
 10
-108.49537581359679
 20
-74.663511128413063
 30
0.0
  0
SEQEND
  5
2184
  8
SAPA_GLAS
  0
POLYLINE
  5
13C1
  8
SAPA_GLAS
 66
     1
 10
0.0
 20
0.0
 30
0.0
 70
     1
  0
VERTEX
  5
2185
  8
SAPA_GLAS
 10
-118.4953758135967
 20
-55.66351112841307
 30
0.0
  0
VERTEX
  5
2186
  8
SAPA_GLAS
 10
-118.4953758135967
 20
-40.66351112841307
 30
0.0
  0
VERTEX
  5
2187
  8
SAPA_GLAS
 10
-108.4953758135967
 20
-40.66351112841307
 30
0.0
  0
VERTEX
  5
2188
  8
SAPA_GLAS
 10
-108.49537581359679
 20
-55.66351112841307
 30
0.0
  0
SEQEND
  5
2189
  8
SAPA_GLAS
  0
POLYLINE
  5
13C2
  8
SAPA_GLAS
 66
     1
 10
0.0
 20
0.0
 30
0.0
  0
VERTEX
  5
218A
  8
SAPA_GLAS
 10
-138.49537581359661
 20
-55.66351112841307
 30
0.0
  0
VERTEX
  5
218B
  8
SAPA_GLAS
 10
-108.4953758135966
 20
-55.66351112841307
 30
0.0
  0
VERTEX
  5
218C
  8
SAPA_GLAS
 10
-108.4953758135966
 20
-59.66351112841307
 30
0.0
  0
VERTEX
  5
218D
  8
SAPA_GLAS
 10
-138.49537581359661
 20
-59.663511128413091
 30
0.0
  0
SEQEND
  5
218E
  8
SAPA_GLAS
  0
POLYLINE
  5
13C3
  8
SAPA_GLAS
 66
     1
 10
0.0
 20
0.0
 30
0.0
  0
VERTEX
  5
218F
  8
SAPA_GLAS
 10
-138.4953758135965
 20
-34.66351112841307
 30
0.0
  0
VERTEX
  5
2190
  8
SAPA_GLAS
 10
-108.4953758135965
 20
-34.66351112841307
 30
0.0
  0
VERTEX
  5
2191
  8
SAPA_GLAS
 10
-108.4953758135965
 20
-40.66351112841307
 30
0.0
  0
VERTEX
  5
2192
  8
SAPA_GLAS
 10
-138.4953758135965
 20
-40.663511128413077
 30
0.0
  0
SEQEND
  5
2193
  8
SAPA_GLAS
  0
POLYLINE
  5
13C4
  8
SAPA_GLAS
 66
     1
 10
0.0
 20
0.0
 30
0.0
  0
VERTEX
  5
2194
  8
SAPA_GLAS
 10
-138.4953758135965
 20
-80.663511128413063
 30
0.0
  0
VERTEX
  5
2195
  8
SAPA_GLAS
 10
-108.4953758135965
 20
-80.663511128413063
 30
0.0
  0
VERTEX
  5
2196
  8
SAPA_GLAS
 10
-108.4953758135965
 20
-74.663511128413063
 30
0.0
  0
VERTEX
  5
2197
  8
SAPA_GLAS
 10
-138.4953758135965
 20
-74.663511128413063
 30
0.0
  0
SEQEND
  5
2198
  8
SAPA_GLAS
  0
LINE
  5
13D9
  8
SAPA_ISOLATOR
 10
-24.999999631037181
 20
-16.8924238798486
 30
0.0
 11
-30.99462339822011
 21
-16.8924238798486
 31
0.0
  0
LINE
  5
13DA
  8
SAPA_ISOLATOR
 10
-24.999999631037181
 20
-45.038028273472598
 30
0.0
 11
-24.999999631037181
 21
-16.8924238798486
 31
0.0
  0
LINE
  5
13DB
  8
SAPA_ISOLATOR
 10
-30.994623398221929
 20
-45.038028273472598
 30
0.0
 11
-24.999999631037181
 21
-45.038028273472598
 31
0.0
  0
LINE
  5
13DC
  8
SAPA_ISOLATOR
 10
-30.999999631037181
 20
-16.8924238798486
 30
0.0
 11
-30.994623398221929
 21
-45.038028273472598
 31
0.0
  0
POLYLINE
  5
13DD
  8
SAPA_ISOLATOR
 66
     1
 10
0.0
 20
0.0
 30
0.0
 70
     1
  0
VERTEX
  5
2211
  8
SAPA_ISOLATOR
 10
-8.8339473861456081
 20
-55.235078053681598
 30
0.0
 42
-0.2133140774071598
  0
VERTEX
  5
2212
  8
SAPA_ISOLATOR
 10
-9.5000000000001137
 20
-53.744915521943653
 30
0.0
  0
VERTEX
  5
2213
  8
SAPA_ISOLATOR
 10
-9.5000000000001137
 20
-53.573058613284729
 30
0.0
 42
0.9999999999999998
  0
VERTEX
  5
2214
  8
SAPA_ISOLATOR
 10
-10.00000000000011
 20
-53.573058613284729
 30
0.0
  0
VERTEX
  5
2215
  8
SAPA_ISOLATOR
 10
-10.00000000000011
 20
-54.532183152571292
 30
0.0
 42
0.2072397715914422
  0
VERTEX
  5
2216
  8
SAPA_ISOLATOR
 10
-9.2103209337028602
 20
-56.355587195491701
 30
0.0
 42
0.1421101772925093
  0
VERTEX
  5
2217
  8
SAPA_ISOLATOR
 10
-5.0000000000001128
 20
-58.499999999010129
 30
0.0
  0
VERTEX
  5
2218
  8
SAPA_ISOLATOR
 10
-5.0000000000001128
 20
-56.687834754465143
 30
0.0
 42
-0.1860725815673001
  0
SEQEND
  5
2219
  8
SAPA_ISOLATOR
  0
POLYLINE
  5
13DE
  8
SAPA_ISOLATOR
 66
     1
 10
0.0
 20
0.0
 30
0.0
 70
     1
  0
VERTEX
  5
221A
  8
SAPA_ISOLATOR
 10
8.8339473861456081
 20
-55.235078053681598
 30
0.0
 42
0.2133140774071598
  0
VERTEX
  5
221B
  8
SAPA_ISOLATOR
 10
9.5
 20
-53.744915521943653
 30
0.0
  0
VERTEX
  5
221C
  8
SAPA_ISOLATOR
 10
9.5
 20
-53.573058613284729
 30
0.0
 42
-0.9999999999999998
  0
VERTEX
  5
221D
  8
SAPA_ISOLATOR
 10
10.0
 20
-53.573058613284729
 30
0.0
  0
VERTEX
  5
221E
  8
SAPA_ISOLATOR
 10
10.0
 20
-54.532183152571292
 30
0.0
 42
-0.2072397715914422
  0
VERTEX
  5
221F
  8
SAPA_ISOLATOR
 10
9.2103209337027465
 20
-56.355587195491701
 30
0.0
 42
-0.1421101772925093
  0
VERTEX
  5
2220
  8
SAPA_ISOLATOR
 10
5.0
 20
-58.499999999010129
 30
0.0
  0
VERTEX
  5
2221
  8
SAPA_ISOLATOR
 10
5.0
 20
-56.687834754465143
 30
0.0
 42
0.1860725815673001
  0
SEQEND
  5
2222
  8
SAPA_ISOLATOR
  0
POLYLINE
  5
13DF
  8
SAPA_ISOLATOR
 66
     1
 10
0.0
 20
0.0
 30
0.0
 70
     1
  0
VERTEX
  5
2223
  8
SAPA_ISOLATOR
 10
8.8339473861456081
 20
-70.235078053681605
 30
0.0
 42
0.2133140774071598
  0
VERTEX
  5
2224
  8
SAPA_ISOLATOR
 10
9.5
 20
-68.744915521943653
 30
0.0
  0
VERTEX
  5
2225
  8
SAPA_ISOLATOR
 10
9.5
 20
-68.573058613284729
 30
0.0
 42
-0.9999999999999998
  0
VERTEX
  5
2226
  8
SAPA_ISOLATOR
 10
10.0
 20
-68.573058613284729
 30
0.0
  0
VERTEX
  5
2227
  8
SAPA_ISOLATOR
 10
10.0
 20
-69.532183152571292
 30
0.0
 42
-0.2072397715914422
  0
VERTEX
  5
2228
  8
SAPA_ISOLATOR
 10
9.2103209337027465
 20
-71.355587195491694
 30
0.0
 42
-0.1421101772925093
  0
VERTEX
  5
2229
  8
SAPA_ISOLATOR
 10
5.0
 20
-73.499999999010129
 30
0.0
  0
VERTEX
  5
222A
  8
SAPA_ISOLATOR
 10
5.0
 20
-71.687834754465143
 30
0.0
 42
0.1860725815673001
  0
SEQEND
  5
222B
  8
SAPA_ISOLATOR
  0
POLYLINE
  5
13E0
  8
SAPA_ISOLATOR
 66
     1
 10
0.0
 20
0.0
 30
0.0
 70
     1
  0
VERTEX
  5
222C
  8
SAPA_ISOLATOR
 10
8.8339473861454962
 20
-84.235078053681164
 30
0.0
 42
0.2133140774071598
  0
VERTEX
  5
222D
  8
SAPA_ISOLATOR
 10
9.5
 20
-82.744915521943184
 30
0.0
  0
VERTEX
  5
222E
  8
SAPA_ISOLATOR
 10
9.5
 20
-82.573058613284275
 30
0.0
 42
-0.9999999999999998
  0
VERTEX
  5
222F
  8
SAPA_ISOLATOR
 10
10.0
 20
-82.573058613284275
 30
0.0
  0
VERTEX
  5
2230
  8
SAPA_ISOLATOR
 10
10.0
 20
-83.532183152570838
 30
0.0
 42
-0.2072397715914422
  0
VERTEX
  5
2231
  8
SAPA_ISOLATOR
 10
9.2103209337027465
 20
-85.355587195491239
 30
0.0
 42
-0.1421101772925093
  0
VERTEX
  5
2232
  8
SAPA_ISOLATOR
 10
5.0
 20
-87.499999999009674
 30
0.0
  0
VERTEX
  5
2233
  8
SAPA_ISOLATOR
 10
5.0
 20
-85.687834754464689
 30
0.0
 42
0.1860725815673001
  0
SEQEND
  5
2234
  8
SAPA_ISOLATOR
  0
POLYLINE
  5
13E1
  8
SAPA_ISOLATOR
 66
     1
 10
0.0
 20
0.0
 30
0.0
 70
     1
  0
VERTEX
  5
2235
  8
SAPA_ISOLATOR
 10
-8.8339473861456081
 20
-70.235078053681605
 30
0.0
 42
-0.2133140774071598
  0
VERTEX
  5
2236
  8
SAPA_ISOLATOR
 10
-9.5000000000001137
 20
-68.744915521943653
 30
0.0
  0
VERTEX
  5
2237
  8
SAPA_ISOLATOR
 10
-9.5000000000001137
 20
-68.573058613284729
 30
0.0
 42
0.9999999999999998
  0
VERTEX
  5
2238
  8
SAPA_ISOLATOR
 10
-10.00000000000011
 20
-68.573058613284729
 30
0.0
  0
VERTEX
  5
2239
  8
SAPA_ISOLATOR
 10
-10.00000000000011
 20
-69.532183152571292
 30
0.0
 42
0.2072397715914422
  0
VERTEX
  5
223A
  8
SAPA_ISOLATOR
 10
-9.2103209337028602
 20
-71.355587195491694
 30
0.0
 42
0.1421101772925093
  0
VERTEX
  5
223B
  8
SAPA_ISOLATOR
 10
-5.0000000000001128
 20
-73.499999999010129
 30
0.0
  0
VERTEX
  5
223C
  8
SAPA_ISOLATOR
 10
-5.0000000000001128
 20
-71.687834754465143
 30
0.0
 42
-0.1860725815673001
  0
SEQEND
  5
223D
  8
SAPA_ISOLATOR
  0
POLYLINE
  5
13E2
  8
SAPA_ISOLATOR
 66
     1
 10
0.0
 20
0.0
 30
0.0
 70
     1
  0
VERTEX
  5
223E
  8
SAPA_ISOLATOR
 10
-8.8339473861456081
 20
-84.235078053681164
 30
0.0
 42
-0.2133140774071598
  0
VERTEX
  5
223F
  8
SAPA_ISOLATOR
 10
-9.5
 20
-82.744915521943184
 30
0.0
  0
VERTEX
  5
2240
  8
SAPA_ISOLATOR
 10
-9.5
 20
-82.573058613284275
 30
0.0
 42
0.9999999999999998
  0
VERTEX
  5
2241
  8
SAPA_ISOLATOR
 10
-10.0
 20
-82.573058613284275
 30
0.0
  0
VERTEX
  5
2242
  8
SAPA_ISOLATOR
 10
-10.0
 20
-83.532183152570838
 30
0.0
 42
0.2072397715914422
  0
VERTEX
  5
2243
  8
SAPA_ISOLATOR
 10
-9.2103209337027465
 20
-85.355587195491239
 30
0.0
 42
0.1421101772925093
  0
VERTEX
  5
2244
  8
SAPA_ISOLATOR
 10
-5.0
 20
-87.499999999009674
 30
0.0
  0
VERTEX
  5
2245
  8
SAPA_ISOLATOR
 10
-5.0
 20
-85.687834754464689
 30
0.0
 42
-0.1860725815673001
  0
SEQEND
  5
2246
  8
SAPA_ISOLATOR
  0
POLYLINE
  5
13E3
  8
SAPA_ISOLATOR
 66
     1
 10
0.0
 20
0.0
 30
0.0
 70
     1
  0
VERTEX
  5
2247
  8
SAPA_ISOLATOR
 10
5.0
 20
-52.999999999010008
 30
0.0
 42
0.4142135623730951
  0
VERTEX
  5
2248
  8
SAPA_ISOLATOR
 10
4.4999999999998863
 20
-52.499999999010129
 30
0.0
  0
VERTEX
  5
2249
  8
SAPA_ISOLATOR
 10
3.274264068711886
 20
-52.499999999010008
 30
0.0
 42
-0.1989123673796232
  0
VERTEX
  5
224A
  8
SAPA_ISOLATOR
 10
3.0621320343559542
 20
-52.412132033365992
 30
0.0
  0
VERTEX
  5
224B
  8
SAPA_ISOLATOR
 10
2.38786796564409
 20
-51.737867964654129
 30
0.0
 42
-0.198912367379658
  0
VERTEX
  5
224C
  8
SAPA_ISOLATOR
 10
2.3000000000000682
 20
-51.525735930298083
 30
0.0
  0
VERTEX
  5
224D
  8
SAPA_ISOLATOR
 10
2.3000000000000682
 20
-47.094967040794693
 30
0.0
 42
0.0912836897734216
  0
VERTEX
  5
224E
  8
SAPA_ISOLATOR
 10
1.0813583321901199
 20
-44.97541000719275
 30
0.0
 42
0.4396415083054796
  0
VERTEX
  5
224F
  8
SAPA_ISOLATOR
 10
-1.081358332190006
 20
-44.975410007192629
 30
0.0
 42
0.0912836897734207
  0
VERTEX
  5
2250
  8
SAPA_ISOLATOR
 10
-2.2999999999999541
 20
-47.094967040794693
 30
0.0
  0
VERTEX
  5
2251
  8
SAPA_ISOLATOR
 10
-2.2999999999999541
 20
-51.525735930298083
 30
0.0
 42
-0.198912367379658
  0
VERTEX
  5
2252
  8
SAPA_ISOLATOR
 10
-2.38786796564409
 20
-51.737867964654129
 30
0.0
  0
VERTEX
  5
2253
  8
SAPA_ISOLATOR
 10
-3.0621320343559542
 20
-52.412132033365992
 30
0.0
 42
-0.1989123673796375
  0
VERTEX
  5
2254
  8
SAPA_ISOLATOR
 10
-3.274264068711886
 20
-52.499999999010008
 30
0.0
  0
VERTEX
  5
2255
  8
SAPA_ISOLATOR
 10
-4.5
 20
-52.499999999010008
 30
0.0
 42
0.4142135623730951
  0
VERTEX
  5
2256
  8
SAPA_ISOLATOR
 10
-5.0
 20
-52.999999999010008
 30
0.0
  0
VERTEX
  5
2257
  8
SAPA_ISOLATOR
 10
-5.0
 20
-92.499999999010015
 30
0.0
  0
VERTEX
  5
2258
  8
SAPA_ISOLATOR
 10
-3.6242640688968768
 20
-92.499999999010015
 30
0.0
 42
0.1989123676531388
  0
VERTEX
  5
2259
  8
SAPA_ISOLATOR
 10
-3.412132034317664
 20
-92.412132033142726
 30
0.0
  0
VERTEX
  5
225A
  8
SAPA_ISOLATOR
 10
-0.3535533972160465
 20
-89.353553389603235
 30
0.0
 42
-0.4142135623730478
  0
VERTEX
  5
225B
  8
SAPA_ISOLATOR
 10
0.3535533839705067
 20
-89.353553389603235
 30
0.0
  0
VERTEX
  5
225C
  8
SAPA_ISOLATOR
 10
3.4121320343942889
 20
-92.412132033589273
 30
0.0
 42
0.1989123671061486
  0
VERTEX
  5
225D
  8
SAPA_ISOLATOR
 10
3.6242640685269398
 20
-92.499999999010015
 30
0.0
  0
VERTEX
  5
225E
  8
SAPA_ISOLATOR
 10
5.0
 20
-92.499999999009916
 30
0.0
  0
SEQEND
  5
225F
  8
SAPA_ISOLATOR
  0
POLYLINE
  5
13E4
  8
SAPA_ISOLATOR
 66
     1
 10
0.0
 20
0.0
 30
0.0
 70
     1
  0
VERTEX
  5
2260
  8
SAPA_ISOLATOR
 10
1.200000000000045
 20
-51.981370848908568
 30
0.0
 42
0.1989123673796566
  0
VERTEX
  5
2261
  8
SAPA_ISOLATOR
 10
1.2878679656440679
 20
-52.193502883264379
 30
0.0
  0
VERTEX
  5
2262
  8
SAPA_ISOLATOR
 10
2.6064971157455821
 20
-53.512132033366022
 30
0.0
 42
0.198912367379654
  0
VERTEX
  5
2263
  8
SAPA_ISOLATOR
 10
2.8186291501015139
 20
-53.599999999010031
 30
0.0
  0
VERTEX
  5
2264
  8
SAPA_ISOLATOR
 10
3.6000000000000218
 20
-53.599999999010031
 30
0.0
 42
-0.4142135623730389
  0
VERTEX
  5
2265
  8
SAPA_ISOLATOR
 10
3.8999999999999768
 20
-53.899999999009992
 30
0.0
  0
VERTEX
  5
2266
  8
SAPA_ISOLATOR
 10
3.8999999999999768
 20
-64.546767147075457
 30
0.0
 42
-0.4142135623730946
  0
VERTEX
  5
2267
  8
SAPA_ISOLATOR
 10
3.6000000000000218
 20
-64.846767147075411
 30
0.0
  0
VERTEX
  5
2268
  8
SAPA_ISOLATOR
 10
-3.6000000000000218
 20
-64.846767147075411
 30
0.0
 42
-0.4142135623730956
  0
VERTEX
  5
2269
  8
SAPA_ISOLATOR
 10
-3.8999999999999768
 20
-64.546767147075457
 30
0.0
  0
VERTEX
  5
226A
  8
SAPA_ISOLATOR
 10
-3.8999999999999768
 20
-53.899999999009992
 30
0.0
 42
-0.4142135623730514
  0
VERTEX
  5
226B
  8
SAPA_ISOLATOR
 10
-3.6000000000000218
 20
-53.599999999010031
 30
0.0
  0
VERTEX
  5
226C
  8
SAPA_ISOLATOR
 10
-2.8186291501015139
 20
-53.599999999010031
 30
0.0
 42
0.198912367379658
  0
VERTEX
  5
226D
  8
SAPA_ISOLATOR
 10
-2.6064971157455821
 20
-53.512132033365901
 30
0.0
  0
VERTEX
  5
226E
  8
SAPA_ISOLATOR
 10
-1.2878679656440679
 20
-52.1935028832645
 30
0.0
 42
0.1989123673796573
  0
VERTEX
  5
226F
  8
SAPA_ISOLATOR
 10
-1.200000000000045
 20
-51.981370848908568
 30
0.0
  0
VERTEX
  5
2270
  8
SAPA_ISOLATOR
 10
-1.200000000000045
 20
-46.992292378098227
 30
0.0
 42
-0.082016165771189
  0
VERTEX
  5
2271
  8
SAPA_ISOLATOR
 10
-0.2604570137376641
 20
-45.408225173596627
 30
0.0
 42
-0.4155202927268181
  0
VERTEX
  5
2272
  8
SAPA_ISOLATOR
 10
0.2604570137476685
 20
-45.408225173608457
 30
0.0
 42
-0.0820161657705025
  0
VERTEX
  5
2273
  8
SAPA_ISOLATOR
 10
1.200000000000045
 20
-46.992292378098227
 30
0.0
  0
SEQEND
  5
2274
  8
SAPA_ISOLATOR
  0
POLYLINE
  5
13E5
  8
SAPA_ISOLATOR
 66
     1
 10
0.0
 20
0.0
 30
0.0
 70
     1
  0
VERTEX
  5
2275
  8
SAPA_ISOLATOR
 10
3.6000000000000218
 20
-65.846767147075411
 30
0.0
 42
-0.4142135623731076
  0
VERTEX
  5
2276
  8
SAPA_ISOLATOR
 10
3.8999999999999768
 20
-66.146767147075479
 30
0.0
  0
VERTEX
  5
2277
  8
SAPA_ISOLATOR
 10
3.8999999999999768
 20
-79.021661667209059
 30
0.0
 42
-0.4142135623730659
  0
VERTEX
  5
2278
  8
SAPA_ISOLATOR
 10
3.6000000000000218
 20
-79.321661667209014
 30
0.0
  0
VERTEX
  5
2279
  8
SAPA_ISOLATOR
 10
-3.6000000000000218
 20
-79.321661667209128
 30
0.0
 42
-0.414213562373041
  0
VERTEX
  5
227A
  8
SAPA_ISOLATOR
 10
-3.8999999999999768
 20
-79.021661667209059
 30
0.0
  0
VERTEX
  5
227B
  8
SAPA_ISOLATOR
 10
-3.8999999999999768
 20
-66.146767147075479
 30
0.0
 42
-0.4142135623730784
  0
VERTEX
  5
227C
  8
SAPA_ISOLATOR
 10
-3.6000000000000218
 20
-65.846767147075525
 30
0.0
  0
SEQEND
  5
227D
  8
SAPA_ISOLATOR
  0
POLYLINE
  5
13E6
  8
SAPA_ISOLATOR
 66
     1
 10
0.0
 20
0.0
 30
0.0
 70
     1
  0
VERTEX
  5
227E
  8
SAPA_ISOLATOR
 10
3.6000000000000218
 20
-80.321661667209113
 30
0.0
 42
-0.4142135623730659
  0
VERTEX
  5
227F
  8
SAPA_ISOLATOR
 10
3.8999999999999768
 20
-80.621661667209082
 30
0.0
  0
VERTEX
  5
2280
  8
SAPA_ISOLATOR
 10
3.8999999999999768
 20
-90.378679657682937
 30
0.0
 42
-0.6681786375386655
  0
VERTEX
  5
2281
  8
SAPA_ISOLATOR
 10
3.2171572878230559
 20
-90.661522370455145
 30
0.0
  0
VERTEX
  5
2282
  8
SAPA_ISOLATOR
 10
1.131370842457158
 20
-88.575735929479478
 30
0.0
 42
0.4142135623730892
  0
VERTEX
  5
2283
  8
SAPA_ISOLATOR
 10
-1.131370856521243
 20
-88.575735930298023
 30
0.0
  0
VERTEX
  5
2284
  8
SAPA_ISOLATOR
 10
-3.2171572872276779
 20
-90.661522365394831
 30
0.0
 42
-0.6681786382998773
  0
VERTEX
  5
2285
  8
SAPA_ISOLATOR
 10
-3.8999999999999768
 20
-90.378679653217887
 30
0.0
  0
VERTEX
  5
2286
  8
SAPA_ISOLATOR
 10
-3.8999999999999768
 20
-80.621661667209196
 30
0.0
 42
-0.4142135623730951
  0
VERTEX
  5
2287
  8
SAPA_ISOLATOR
 10
-3.6000000000000218
 20
-80.321661667209113
 30
0.0
  0
SEQEND
  5
2288
  8
SAPA_ISOLATOR
  0
LINE
  5
13E7
  8
SAPA_ISOLATOR
 10
-30.994623398221929
 20
-45.038028273472598
 30
0.0
 11
-24.999999631037181
 21
-16.8924238798486
 31
0.0
  0
LINE
  5
13E8
  8
SAPA_ISOLATOR
 10
-31.016586933922639
 20
-16.8924238798486
 30
0.0
 11
-25.011210701107391
 21
-45.038028273472598
 31
0.0
  0
POLYLINE
  5
140E
  8
SAPA_FOGBAND
 66
     1
 10
0.0
 20
0.0
 30
0.0
 70
     1
  0
VERTEX
  5
248A
  8
SAPA_FOGBAND
 10
-72.305446141478541
 20
-71.364139622992695
 30
0.0
 42
0.1579553886371987
  0
VERTEX
  5
248B
  8
SAPA_FOGBAND
 10
-75.569274185594594
 20
-71.511199129457054
 30
0.0
 42
1.0
  0
VERTEX
  5
248C
  8
SAPA_FOGBAND
 10
-74.306651196655324
 20
-74.882516852218174
 30
0.0
 42
0.1276248526686838
  0
VERTEX
  5
248D
  8
SAPA_FOGBAND
 10
-72.53899868817777
 20
-73.641204430532582
 30
0.0
  0
VERTEX
  5
248E
  8
SAPA_FOGBAND
 10
-71.629652164609041
 20
-72.571815757960167
 30
0.0
 42
0.5691506674918112
  0
VERTEX
  5
248F
  8
SAPA_FOGBAND
 10
-72.019887920327136
 20
-71.433124563323076
 30
0.0
 42
-0.0156300267407041
  0
SEQEND
  5
2490
  8
SAPA_FOGBAND
  0
POLYLINE
  5
140F
  8
SAPA_FOGBAND
 66
     1
 10
0.0
 20
0.0
 30
0.0
 70
     1
  0
VERTEX
  5
2491
  8
SAPA_FOGBAND
 10
-61.0025947009253
 20
-78.573627998605275
 30
0.0
 42
-0.3888787318529789
  0
VERTEX
  5
2492
  8
SAPA_FOGBAND
 10
-62.288950895836912
 20
-77.586572174095295
 30
0.0
  0
VERTEX
  5
2493
  8
SAPA_FOGBAND
 10
-62.415465830627419
 20
-76.869070324508925
 30
0.0
 42
-1.0
  0
VERTEX
  5
2494
  8
SAPA_FOGBAND
 10
-62.519654737227903
 20
-76.278185672701625
 30
0.0
  0
VERTEX
  5
2495
  8
SAPA_FOGBAND
 10
-62.627058207477582
 20
-75.669070324508652
 30
0.0
 42
-0.9999999999999067
  0
VERTEX
  5
2496
  8
SAPA_FOGBAND
 10
-62.731247114077597
 20
-75.078185672701352
 30
0.0
  0
VERTEX
  5
2497
  8
SAPA_FOGBAND
 10
-62.792031720738997
 20
-74.733459038032493
 30
0.0
 42
0.3345953195020691
  0
VERTEX
  5
2498
  8
SAPA_FOGBAND
 10
-64.992729945100081
 20
-72.681274743778999
 30
0.0
  0
VERTEX
  5
2499
  8
SAPA_FOGBAND
 10
-69.006537350111984
 20
-72.328166970861844
 30
0.0
 42
0.2564696513213821
  0
VERTEX
  5
249A
  8
SAPA_FOGBAND
 10
-71.461031548818909
 20
-73.454099136803833
 30
0.0
  0
VERTEX
  5
249B
  8
SAPA_FOGBAND
 10
-72.005731277449712
 20
-74.094664317022421
 30
0.0
 42
-0.1276248526686853
  0
VERTEX
  5
249C
  8
SAPA_FOGBAND
 10
-74.061141171028765
 20
-75.538050853866125
 30
0.0
 42
-1.0
  0
VERTEX
  5
249D
  8
SAPA_FOGBAND
 10
-75.814784211221621
 20
-70.855665127809175
 30
0.0
 42
-0.1579553886371977
  0
VERTEX
  5
249E
  8
SAPA_FOGBAND
 10
-72.119884538637024
 20
-70.689182667660702
 30
0.0
 42
0.0604483959424258
  0
VERTEX
  5
249F
  8
SAPA_FOGBAND
 10
-68.729772477651721
 20
-70.790275202113776
 30
0.0
  0
VERTEX
  5
24A0
  8
SAPA_FOGBAND
 10
-63.572205721284227
 20
-70.578194360895054
 30
0.0
 42
0.3286126757704555
  0
VERTEX
  5
24A1
  8
SAPA_FOGBAND
 10
-62.13956161481471
 20
-69.522638805339398
 30
0.0
 42
-0.2704382184496639
  0
VERTEX
  5
24A2
  8
SAPA_FOGBAND
 10
-61.021053089678361
 20
-68.608962530199392
 30
0.0
  0
VERTEX
  5
24A3
  8
SAPA_FOGBAND
 10
-61.220916854806063
 20
-72.478194360895145
 30
0.0
  0
VERTEX
  5
24A4
  8
SAPA_FOGBAND
 10
-60.020916854806252
 20
-72.478194360895145
 30
0.0
  0
VERTEX
  5
24A5
  8
SAPA_FOGBAND
 10
-58.959852449256658
 20
-72.532666123934519
 30
0.0
  0
VERTEX
  5
24A6
  8
SAPA_FOGBAND
 10
-58.960821459114392
 20
-71.982820215129436
 30
0.0
 42
-0.6068148963145658
  0
VERTEX
  5
24A7
  8
SAPA_FOGBAND
 10
-58.441230378291912
 20
-71.867629645754391
 30
0.0
  0
VERTEX
  5
24A8
  8
SAPA_FOGBAND
 10
-57.064904692401761
 20
-73.683042455774853
 30
0.0
 42
-0.4400105308918406
  0
VERTEX
  5
24A9
  8
SAPA_FOGBAND
 10
-57.26562594648837
 20
-75.207671747013251
 30
0.0
  0
VERTEX
  5
24AA
  8
SAPA_FOGBAND
 10
-59.28258887071113
 20
-76.730873128428925
 30
0.0
 42
-0.5205670505516999
  0
VERTEX
  5
24AB
  8
SAPA_FOGBAND
 10
-59.744439549503078
 20
-76.562773228672881
 30
0.0
  0
VERTEX
  5
24AC
  8
SAPA_FOGBAND
 10
-59.771035180538057
 20
-75.81793411724027
 30
0.0
  0
VERTEX
  5
24AD
  8
SAPA_FOGBAND
 10
-61.060947989386449
 20
-76.017445060694286
 30
0.0
  0
SEQEND
  5
24AE
  8
SAPA_FOGBAND
  0
CIRCLE
  5
1410
  8
SAPA_FOGBAND
 10
-62.616112303479873
 20
-71.997051924880566
 30
0.0
 40
0.3
  0
POLYLINE
  5
1411
  8
SAPA_FOGBAND
 66
     1
 10
0.0
 20
0.0
 30
0.0
 70
     1
  0
VERTEX
  5
24AF
  8
SAPA_FOGBAND
 10
-58.807464586084251
 20
-75.178194360894963
 30
0.0
  0
VERTEX
  5
24B0
  8
SAPA_FOGBAND
 10
-60.720916854806063
 20
-75.178194360894963
 30
0.0
 42
-0.4142135623730951
  0
VERTEX
  5
24B1
  8
SAPA_FOGBAND
 10
-61.220916854806063
 20
-74.678194360894963
 30
0.0
  0
VERTEX
  5
24B2
  8
SAPA_FOGBAND
 10
-61.220916854806063
 20
-73.878194360895236
 30
0.0
 42
-0.4142135623730951
  0
VERTEX
  5
24B3
  8
SAPA_FOGBAND
 10
-60.720916854806063
 20
-73.378194360895236
 30
0.0
  0
VERTEX
  5
24B4
  8
SAPA_FOGBAND
 10
-58.644813042739742
 20
-73.378194360895236
 30
0.0
 42
-0.2216946626429447
  0
VERTEX
  5
24B5
  8
SAPA_FOGBAND
 10
-58.185186376867897
 20
-73.592521795083144
 30
0.0
  0
VERTEX
  5
24B6
  8
SAPA_FOGBAND
 10
-57.825049329575421
 20
-74.021716415020023
 30
0.0
 42
-0.4400105308918337
  0
VERTEX
  5
24B7
  8
SAPA_FOGBAND
 10
-57.912214012516841
 20
-74.683797913953754
 30
0.0
  0
VERTEX
  5
24B8
  8
SAPA_FOGBAND
 10
-58.463318724273421
 20
-75.069685587468584
 30
0.0
 42
-0.153914721059829
  0
SEQEND
  5
24B9
  8
SAPA_FOGBAND
  0
POLYLINE
  5
1412
  8
SAPA_FOGBAND
 66
     1
 10
0.0
 20
0.0
 30
0.0
 70
     1
  0
VERTEX
  5
24BA
  8
SAPA_FOGBAND
 10
-80.261691287441309
 20
-86.598715294411974
 30
0.0
  0
VERTEX
  5
24BB
  8
SAPA_FOGBAND
 10
-80.261691287441309
 20
-87.598715294411974
 30
0.0
 42
0.9999999999999998
  0
VERTEX
  5
24BC
  8
SAPA_FOGBAND
 10
-79.05753182956208
 20
-87.598715294411974
 30
0.0
  0
VERTEX
  5
24BD
  8
SAPA_FOGBAND
 10
-79.05753182956208
 20
-86.598715294411974
 30
0.0
 42
0.9999999999999998
  0
SEQEND
  5
24BE
  8
SAPA_FOGBAND
  0
POLYLINE
  5
1413
  8
SAPA_FOGBAND
 66
     1
 10
0.0
 20
0.0
 30
0.0
 70
     1
  0
VERTEX
  5
24BF
  8
SAPA_FOGBAND
 10
-77.692327282316455
 20
-87.522567591768279
 30
0.0
  0
VERTEX
  5
24C0
  8
SAPA_FOGBAND
 10
-78.550385992625905
 20
-88.908332678713833
 30
0.0
 42
-0.2528723899644565
  0
VERTEX
  5
24C1
  8
SAPA_FOGBAND
 10
-78.717670268811148
 20
-88.998715294411966
 30
0.0
  0
VERTEX
  5
24C2
  8
SAPA_FOGBAND
 10
-80.601552848192242
 20
-88.998715294411966
 30
0.0
 42
-0.2528723899644564
  0
VERTEX
  5
24C3
  8
SAPA_FOGBAND
 10
-80.768837124377455
 20
-88.908332678713833
 30
0.0
  0
VERTEX
  5
24C4
  8
SAPA_FOGBAND
 10
-81.626895834686934
 20
-87.522567591768279
 30
0.0
 42
-0.5108224790788402
  0
VERTEX
  5
24C5
  8
SAPA_FOGBAND
 10
-81.511375367522191
 20
-87.219765042208621
 30
0.0
  0
VERTEX
  5
24C6
  8
SAPA_FOGBAND
 10
-81.109611558501683
 20
-87.098715294411974
 30
0.0
  0
VERTEX
  5
24C7
  8
SAPA_FOGBAND
 10
-81.109611558501683
 20
-85.998715294411966
 30
0.0
  0
VERTEX
  5
24C8
  8
SAPA_FOGBAND
 10
-82.974346162359964
 20
-85.998715294411966
 30
0.0
 42
-0.0874886635259237
  0
VERTEX
  5
24C9
  8
SAPA_FOGBAND
 10
-83.042750191025107
 20
-85.986653818569167
 30
0.0
  0
VERTEX
  5
24CA
  8
SAPA_FOGBAND
 10
-86.575494337065223
 20
-85.430840104132386
 30
0.0
 42
-0.9391885369168745
  0
VERTEX
  5
24CB
  8
SAPA_FOGBAND
 10
-86.462728367333725
 20
-85.047883585459758
 30
0.0
  0
VERTEX
  5
24CC
  8
SAPA_FOGBAND
 10
-82.590534562096735
 20
-85.198715294411954
 30
0.0
  0
VERTEX
  5
24CD
  8
SAPA_FOGBAND
 10
-81.760359595248104
 20
-85.003999513837314
 30
0.0
 42
-0.0576596372120268
  0
VERTEX
  5
24CE
  8
SAPA_FOGBAND
 10
-81.714689421225984
 20
-84.998715294411966
 30
0.0
  0
VERTEX
  5
24CF
  8
SAPA_FOGBAND
 10
-77.3096115585017
 20
-84.998715294411966
 30
0.0
 42
-0.4142135623730951
  0
VERTEX
  5
24D0
  8
SAPA_FOGBAND
 10
-76.709611558501692
 20
-85.598715294411974
 30
0.0
  0
VERTEX
  5
24D1
  8
SAPA_FOGBAND
 10
-76.709611558501692
 20
-85.798715294411977
 30
0.0
 42
-0.4142135623730951
  0
VERTEX
  5
24D2
  8
SAPA_FOGBAND
 10
-76.909611558501695
 20
-85.998715294411966
 30
0.0
  0
VERTEX
  5
24D3
  8
SAPA_FOGBAND
 10
-78.209611558501692
 20
-85.998715294411966
 30
0.0
  0
VERTEX
  5
24D4
  8
SAPA_FOGBAND
 10
-78.209611558501692
 20
-87.098715294411974
 30
0.0
  0
VERTEX
  5
24D5
  8
SAPA_FOGBAND
 10
-77.807847749481198
 20
-87.219765042208621
 30
0.0
 42
-0.51082247907884
  0
SEQEND
  5
24D6
  8
SAPA_FOGBAND
  0
POLYLINE
  5
1414
  8
SAPA_FOGBAND
 66
     1
 10
0.0
 20
0.0
 30
0.0000000195376815
 70
     1
  0
VERTEX
  5
24D7
  8
SAPA_FOGBAND
 10
-58.387868248766679
 20
2.5513651484895719
 30
0.0000000195376815
  0
VERTEX
  5
24D8
  8
SAPA_FOGBAND
 10
-58.287868248766692
 20
2.5513651484895719
 30
0.0000000195376815
 42
-0.4142135623730959
  0
VERTEX
  5
24D9
  8
SAPA_FOGBAND
 10
-57.587868248766689
 20
1.8513651484895839
 30
0.0000000195376815
  0
VERTEX
  5
24DA
  8
SAPA_FOGBAND
 10
-57.587868248766668
 20
0.7513651484895898
 30
0.0000000195376815
 42
-0.4142135623730961
  0
VERTEX
  5
24DB
  8
SAPA_FOGBAND
 10
-57.787868248766678
 20
0.5513651484895729
 30
0.0000000195376815
  0
VERTEX
  5
24DC
  8
SAPA_FOGBAND
 10
-58.887868248766672
 20
0.5513651484895729
 30
0.0000000195376815
 42
-0.4142135623730956
  0
VERTEX
  5
24DD
  8
SAPA_FOGBAND
 10
-59.087868248766704
 20
0.7513651484895898
 30
0.0000000195376815
  0
VERTEX
  5
24DE
  8
SAPA_FOGBAND
 10
-59.087868248766668
 20
1.8513651484895839
 30
0.0000000195376815
 42
-0.4142135623730946
  0
SEQEND
  5
24DF
  8
SAPA_FOGBAND
  0
POLYLINE
  5
1415
  8
SAPA_FOGBAND
 66
     1
 10
0.0
 20
0.0
 30
0.0000000195376815
 70
     1
  0
VERTEX
  5
24E0
  8
SAPA_FOGBAND
 10
-59.887868248766679
 20
1.2513651484895889
 30
0.0000000195376815
  0
VERTEX
  5
24E1
  8
SAPA_FOGBAND
 10
-59.887868248766679
 20
0.6035995832164997
 30
0.0000000195376815
 42
-0.4416942457848324
  0
VERTEX
  5
24E2
  8
SAPA_FOGBAND
 10
-60.106422608394602
 20
0.4044621037235526
 30
0.0000000195376815
  0
VERTEX
  5
24E3
  8
SAPA_FOGBAND
 10
-61.069313889138783
 20
0.4941781689815988
 30
0.0000000195376815
 42
0.4416942457847888
  0
VERTEX
  5
24E4
  8
SAPA_FOGBAND
 10
-61.287868248766692
 20
0.2950406894886801
 30
0.0000000195376815
  0
VERTEX
  5
24E5
  8
SAPA_FOGBAND
 10
-61.287868248766692
 20
-0.2549416501028867
 30
0.0000000195376815
 42
0.5445962197109612
  0
VERTEX
  5
24E6
  8
SAPA_FOGBAND
 10
-60.582189203361608
 20
-0.7106785591647276
 30
0.0000000195376815
  0
VERTEX
  5
24E7
  8
SAPA_FOGBAND
 10
-60.223138050076351
 20
-0.5486348515104221
 30
0.0000000195376815
  0
VERTEX
  5
24E8
  8
SAPA_FOGBAND
 10
-58.750178811328439
 20
-0.5486348515104194
 30
0.0000000195376815
 42
0.3364379234965429
  0
VERTEX
  5
24E9
  8
SAPA_FOGBAND
 10
-57.678435081713609
 20
-0.3611280336686713
 30
0.0000000195376815
  0
VERTEX
  5
24EA
  8
SAPA_FOGBAND
 10
-57.11657144588991
 20
-0.3611280336686713
 30
0.0000000195376815
 42
-0.1919812372740509
  0
VERTEX
  5
24EB
  8
SAPA_FOGBAND
 10
-56.772584398289851
 20
-0.4982604116859415
 30
0.0000000195376815
  0
VERTEX
  5
24EC
  8
SAPA_FOGBAND
 10
-56.380717467886598
 20
-0.8697378879760249
 30
0.0000000195376815
 42
-0.7712067734688043
  0
VERTEX
  5
24ED
  8
SAPA_FOGBAND
 10
-58.953149167760706
 20
-3.6793718836566862
 30
0.0000000195376815
 42
-0.152544453744271
  0
VERTEX
  5
24EE
  8
SAPA_FOGBAND
 10
-59.822574917600882
 20
-2.7874966149029068
 30
0.0000000195376815
 42
0.6229515670381967
  0
VERTEX
  5
24EF
  8
SAPA_FOGBAND
 10
-60.297515102376622
 20
-2.8873788987254381
 30
0.0000000195376815
 42
0.2412896305485237
  0
VERTEX
  5
24F0
  8
SAPA_FOGBAND
 10
-60.260763831078513
 20
-3.2908437130675701
 30
0.0000000195376815
 42
0.0924947384438033
  0
VERTEX
  5
24F1
  8
SAPA_FOGBAND
 10
-59.638770922348229
 20
-3.9813441251089872
 30
0.0000000195376815
 42
0.8622191196043894
  0
VERTEX
  5
24F2
  8
SAPA_FOGBAND
 10
-55.814899768606942
 20
-0.405432373133146
 30
0.0000000195376815
  0
VERTEX
  5
24F3
  8
SAPA_FOGBAND
 10
-55.384340630725681
 20
-0.2900643998440202
 30
0.0000000195376815
 42
0.9163311740173991
  0
VERTEX
  5
24F4
  8
SAPA_FOGBAND
 10
-55.52273054586577
 20
0.4947838099083186
 30
0.0000000195376815
  0
VERTEX
  5
24F5
  8
SAPA_FOGBAND
 10
-56.570437100217148
 20
0.4031213637007687
 30
0.0000000195376815
 42
-0.4400105308918151
  0
VERTEX
  5
24F6
  8
SAPA_FOGBAND
 10
-56.787868248766678
 20
0.602360303319109
 30
0.0000000195376815
  0
VERTEX
  5
24F7
  8
SAPA_FOGBAND
 10
-56.787868248766678
 20
1.451365148489578
 30
0.0000000195376815
  0
VERTEX
  5
24F8
  8
SAPA_FOGBAND
 10
-56.387868248766672
 20
1.4513651484895771
 30
0.0000000195376815
 42
0.5693809839207585
  0
VERTEX
  5
24F9
  8
SAPA_FOGBAND
 10
-56.21231420320315
 20
1.7471815201922201
 30
0.0000000195376815
  0
VERTEX
  5
24FA
  8
SAPA_FOGBAND
 10
-56.917279803102183
 20
3.038814263597521
 30
0.0000000195376815
 42
0.2743878130875472
  0
VERTEX
  5
24FB
  8
SAPA_FOGBAND
 10
-57.443941939792907
 20
3.351365148489597
 30
0.0000000195376815
  0
VERTEX
  5
24FC
  8
SAPA_FOGBAND
 10
-59.231794557740457
 20
3.3513651484895828
 30
0.0000000195376815
 42
0.2743878130875473
  0
VERTEX
  5
24FD
  8
SAPA_FOGBAND
 10
-59.758456694431182
 20
3.0388142635975122
 30
0.0000000195376815
  0
VERTEX
  5
24FE
  8
SAPA_FOGBAND
 10
-60.463422294330272
 20
1.7471815201922489
 30
0.0000000195376815
 42
0.5693809839208271
  0
VERTEX
  5
24FF
  8
SAPA_FOGBAND
 10
-60.287868248766678
 20
1.451365148489546
 30
0.0000000195376815
  0
VERTEX
  5
2500
  8
SAPA_FOGBAND
 10
-59.887868248766679
 20
1.451365148489578
 30
0.0000000195376815
  0
VERTEX
  5
2501
  8
SAPA_FOGBAND
 10
-59.887868248766679
 20
0.602360303319109
 30
0.0000000195376815
  0
SEQEND
  5
2502
  8
SAPA_FOGBAND
  0
CIRCLE
  5
1416
  8
SAPA_FOGBAND
 10
-18.614660706669842
 20
-92.637568222720574
 30
0.0
 40
0.2549509756796394
  0
INSERT
  5
1417
  8
SAPA_FOGBAND
  6
CONTINUOUS
  2
*U92
 10
0.0
 20
0.0
 30
0.0
1001
ACAD
1002
{
1000
R14_HATCH_DATA
1000
1417
1011
1.0
1021
0.0
1031
0.0
1021
0.0
1031
0.0
1011
0.0
1021
0.0
1031
0.0
1021
1.0
1031
0.0
1011
0.0
1021
0.0
1031
0.0
1021
0.0
1031
1.0
1040
0.0
1010
0.0
1020
0.0
1030
1.0
1000
SOLID
1070
     1
1070
     1
1071
        1
1071
        1
1071
        1
1070
     2
1040
-18.614660706669842
1040
-92.637568222720574
1040
0.2549509756796394
1040
0.0
1040
6.2831853071795862
1070
     1
1071
        1
1005
1416
1070
     0
1070
     1
1071
        1
1040
-18.851399608239941
1040
-92.555716725391676
1040
0.0
1002
}
  0
POLYLINE
  5
1418
  8
SAPA_FOGBAND
 66
     1
 10
0.0
 20
0.0
 30
0.0
 70
     1
  0
VERTEX
  5
2514
  8
SAPA_FOGBAND
 10
-17.714660706669861
 20
-95.600000001965086
 30
0.0
 42
0.9999999999999998
  0
VERTEX
  5
2515
  8
SAPA_FOGBAND
 10
-19.514660706669812
 20
-95.600000001965086
 30
0.0
  0
VERTEX
  5
2516
  8
SAPA_FOGBAND
 10
-19.514660706669812
 20
-96.200000001965122
 30
0.0
 42
0.9999999999999998
  0
VERTEX
  5
2517
  8
SAPA_FOGBAND
 10
-17.714660706669861
 20
-96.200000001965122
 30
0.0
  0
SEQEND
  5
2518
  8
SAPA_FOGBAND
  0
POLYLINE
  5
1419
  8
SAPA_FOGBAND
 66
     1
 10
0.0
 20
0.0
 30
0.0
 70
     1
  0
VERTEX
  5
2519
  8
SAPA_FOGBAND
 10
-27.242537014843041
 20
-90.500000001965077
 30
0.0
 42
0.0775891054856093
  0
VERTEX
  5
251A
  8
SAPA_FOGBAND
 10
-23.775755284420491
 20
-90.816635986026427
 30
0.0
  0
VERTEX
  5
251B
  8
SAPA_FOGBAND
 10
-23.537865791591688
 20
-90.600000001965043
 30
0.0
 42
-0.5773502691896298
  0
VERTEX
  5
251C
  8
SAPA_FOGBAND
 10
-23.191455630077829
 20
-90.600000001965043
 30
0.0
  0
VERTEX
  5
251D
  8
SAPA_FOGBAND
 10
-22.95340801334703
 20
-90.81690985618809
 30
0.0
  0
VERTEX
  5
251E
  8
SAPA_FOGBAND
 10
-22.1759134034304
 20
-90.81690985618809
 30
0.0
  0
VERTEX
  5
251F
  8
SAPA_FOGBAND
 10
-21.937865791591658
 20
-90.600000001965043
 30
0.0
 42
-0.577350269189699
  0
VERTEX
  5
2520
  8
SAPA_FOGBAND
 10
-21.59145563007792
 20
-90.600000001965043
 30
0.0
  0
VERTEX
  5
2521
  8
SAPA_FOGBAND
 10
-21.353408013347121
 20
-90.81690985618809
 30
0.0
  0
VERTEX
  5
2522
  8
SAPA_FOGBAND
 10
-20.575913403430381
 20
-90.81690985618809
 30
0.0
  0
VERTEX
  5
2523
  8
SAPA_FOGBAND
 10
-20.337865791591639
 20
-90.600000001965043
 30
0.0
 42
-0.577350269189699
  0
VERTEX
  5
2524
  8
SAPA_FOGBAND
 10
-19.991455630077891
 20
-90.600000001965043
 30
0.0
  0
VERTEX
  5
2525
  8
SAPA_FOGBAND
 10
-19.753408013347091
 20
-90.81690985618809
 30
0.0
  0
VERTEX
  5
2526
  8
SAPA_FOGBAND
 10
-18.975913403430351
 20
-90.81690985618809
 30
0.0
  0
VERTEX
  5
2527
  8
SAPA_FOGBAND
 10
-18.73786579159173
 20
-90.600000001965043
 30
0.0
 42
-0.5773502691896298
  0
VERTEX
  5
2528
  8
SAPA_FOGBAND
 10
-18.391455630077871
 20
-90.600000001965043
 30
0.0
  0
VERTEX
  5
2529
  8
SAPA_FOGBAND
 10
-18.153408013347072
 20
-90.81690985618809
 30
0.0
  0
VERTEX
  5
252A
  8
SAPA_FOGBAND
 10
-17.375913403430332
 20
-90.81690985618809
 30
0.0
  0
VERTEX
  5
252B
  8
SAPA_FOGBAND
 10
-17.137865791591711
 20
-90.600000001965043
 30
0.0
 42
-0.5773502691896298
  0
VERTEX
  5
252C
  8
SAPA_FOGBAND
 10
-16.791455630077849
 20
-90.600000001965043
 30
0.0
  0
VERTEX
  5
252D
  8
SAPA_FOGBAND
 10
-16.553408013347049
 20
-90.81690985618809
 30
0.0
  0
VERTEX
  5
252E
  8
SAPA_FOGBAND
 10
-15.77591339926539
 20
-90.81690985618809
 30
0.0
  0
VERTEX
  5
252F
  8
SAPA_FOGBAND
 10
-15.53786578742665
 20
-90.600000001965043
 30
0.0
 42
-0.577350269189699
  0
VERTEX
  5
2530
  8
SAPA_FOGBAND
 10
-15.19145562591291
 20
-90.600000001965043
 30
0.0
  0
VERTEX
  5
2531
  8
SAPA_FOGBAND
 10
-14.391455626357811
 20
-91.673330070449538
 30
0.0
 42
-0.1316524987190269
  0
VERTEX
  5
2532
  8
SAPA_FOGBAND
 10
-14.36466070666984
 20
-91.773330071220244
 30
0.0
  0
VERTEX
  5
2533
  8
SAPA_FOGBAND
 10
-14.364660706669721
 20
-94.300000001965032
 30
0.0
 42
-0.4142135623730951
  0
VERTEX
  5
2534
  8
SAPA_FOGBAND
 10
-14.56466070666977
 20
-94.500000001965077
 30
0.0
  0
VERTEX
  5
2535
  8
SAPA_FOGBAND
 10
-16.614660706669842
 20
-94.500000001965077
 30
0.0
 42
0.4142135623730951
  0
VERTEX
  5
2536
  8
SAPA_FOGBAND
 10
-17.114660706669842
 20
-95.000000001965077
 30
0.0
  0
VERTEX
  5
2537
  8
SAPA_FOGBAND
 10
-17.114660706669842
 20
-95.726794921208239
 30
0.0
  0
VERTEX
  5
2538
  8
SAPA_FOGBAND
 10
-16.862896897649311
 20
-95.794254830518625
 30
0.0
 42
-0.4740571810232869
  0
VERTEX
  5
2539
  8
SAPA_FOGBAND
 10
-16.735603035285749
 20
-96.076537416157294
 30
0.0
  0
VERTEX
  5
253A
  8
SAPA_FOGBAND
 10
-17.355703538044281
 20
-97.522743552917063
 30
0.0
 42
-0.2846003776495916
  0
VERTEX
  5
253B
  8
SAPA_FOGBAND
 10
-17.803347716504501
 20
-97.800000001965032
 30
0.0
  0
VERTEX
  5
253C
  8
SAPA_FOGBAND
 10
-19.425973696835062
 20
-97.800000001965032
 30
0.0
 42
-0.2846003776495917
  0
VERTEX
  5
253D
  8
SAPA_FOGBAND
 10
-19.873617875295281
 20
-97.522743552917063
 30
0.0
  0
VERTEX
  5
253E
  8
SAPA_FOGBAND
 10
-20.49371837805381
 20
-96.076537416157294
 30
0.0
 42
-0.4740571810232869
  0
VERTEX
  5
253F
  8
SAPA_FOGBAND
 10
-20.366424515690259
 20
-95.794254830518625
 30
0.0
  0
VERTEX
  5
2540
  8
SAPA_FOGBAND
 10
-20.114660706669842
 20
-95.726794921208239
 30
0.0
  0
VERTEX
  5
2541
  8
SAPA_FOGBAND
 10
-20.114660706669842
 20
-95.000000001965077
 30
0.0
 42
0.4142135623730951
  0
VERTEX
  5
2542
  8
SAPA_FOGBAND
 10
-20.614660706669842
 20
-94.500000001965077
 30
0.0
  0
VERTEX
  5
2543
  8
SAPA_FOGBAND
 10
-23.664660706669789
 20
-94.500000001965077
 30
0.0
 42
0.4142135623730951
  0
VERTEX
  5
2544
  8
SAPA_FOGBAND
 10
-23.864660706669842
 20
-94.700000001965108
 30
0.0
  0
VERTEX
  5
2545
  8
SAPA_FOGBAND
 10
-23.864660706669731
 20
-95.600000001965086
 30
0.0
 42
-0.4142135623731784
  0
VERTEX
  5
2546
  8
SAPA_FOGBAND
 10
-24.06466070666977
 20
-95.800000001965046
 30
0.0
  0
VERTEX
  5
2547
  8
SAPA_FOGBAND
 10
-24.764660706669819
 20
-95.800000001965145
 30
0.0
 42
-0.4142135623730398
  0
VERTEX
  5
2548
  8
SAPA_FOGBAND
 10
-25.06466070666977
 20
-95.500000001965077
 30
0.0
  0
VERTEX
  5
2549
  8
SAPA_FOGBAND
 10
-25.06466070666977
 20
-94.689488225313539
 30
0.0
 42
0.1316524975873973
  0
VERTEX
  5
254A
  8
SAPA_FOGBAND
 10
-25.33260989910093
 20
-93.689488225313539
 30
0.0
  0
VERTEX
  5
254B
  8
SAPA_FOGBAND
 10
-30.495455049141359
 20
-91.099920233221624
 30
0.0
 42
-0.7057658529986604
  0
VERTEX
  5
254C
  8
SAPA_FOGBAND
 10
-30.227861873783009
 20
-90.500000001965077
 30
0.0
  0
SEQEND
  5
254D
  8
SAPA_FOGBAND
  0
POLYLINE
  5
141A
  8
SAPA_FOGBAND
 66
     1
 10
0.0
 20
0.0
 30
0.0
 70
     1
  0
VERTEX
  5
254E
  8
SAPA_FOGBAND
 10
-19.29754293974764
 20
-34.185369502362391
 30
0.0
 42
-0.9999999999999998
  0
VERTEX
  5
254F
  8
SAPA_FOGBAND
 10
-21.097542939747651
 20
-34.185369502362391
 30
0.0
  0
VERTEX
  5
2550
  8
SAPA_FOGBAND
 10
-21.097542939747651
 20
-33.585369502362369
 30
0.0
 42
-0.9999999999999998
  0
VERTEX
  5
2551
  8
SAPA_FOGBAND
 10
-19.29754293974764
 20
-33.585369502362369
 30
0.0
  0
SEQEND
  5
2552
  8
SAPA_FOGBAND
  0
POLYLINE
  5
141B
  8
SAPA_FOGBAND
 66
     1
 10
0.0
 20
0.0
 30
0.0
  0
VERTEX
  5
2553
  8
SAPA_FOGBAND
 10
-23.79754293974764
 20
-35.800000000001212
 30
0.0
  0
VERTEX
  5
2554
  8
SAPA_FOGBAND
 10
-23.79754293974764
 20
-35.500000000001137
 30
0.0
  0
VERTEX
  5
2555
  8
SAPA_FOGBAND
 10
-23.79754293974764
 20
-35.800000000001212
 30
0.0
 42
0.4142135623730951
  0
VERTEX
  5
2556
  8
SAPA_FOGBAND
 10
-23.29754293974764
 20
-36.300000000001212
 30
0.0
  0
VERTEX
  5
2557
  8
SAPA_FOGBAND
 10
-15.99754293974769
 20
-36.300000000001212
 30
0.0
 42
0.4142135623730951
  0
VERTEX
  5
2558
  8
SAPA_FOGBAND
 10
-15.49754293974769
 20
-35.800000000001212
 30
0.0
  0
VERTEX
  5
2559
  8
SAPA_FOGBAND
 10
-15.49754293974769
 20
-35.500000000001137
 30
0.0
  0
SEQEND
  5
255A
  8
SAPA_FOGBAND
  0
POLYLINE
  5
141C
  8
SAPA_FOGBAND
 66
     1
 10
0.0
 20
0.0
 30
0.0
 70
     1
  0
VERTEX
  5
255B
  8
SAPA_FOGBAND
 10
-17.145827830043991
 20
-40.100000000001138
 30
0.0
  0
VERTEX
  5
255C
  8
SAPA_FOGBAND
 10
-20.240471939369829
 20
-40.100000000001138
 30
0.0
 42
1.024758115298622
  0
VERTEX
  5
255D
  8
SAPA_FOGBAND
 10
-20.240471939369829
 20
-43.28153179278663
 30
0.0
  0
VERTEX
  5
255E
  8
SAPA_FOGBAND
 10
-17.145827830043991
 20
-43.28153179278663
 30
0.0
 42
0.9558128803175696
  0
SEQEND
  5
255F
  8
SAPA_FOGBAND
  0
POLYLINE
  5
141D
  8
SAPA_FOGBAND
 66
     1
 10
0.0
 20
0.0
 30
0.0
 70
     1
  0
VERTEX
  5
2560
  8
SAPA_FOGBAND
 10
-7.914497490924699
 20
-41.936054126746789
 30
0.0
 42
-0.6274939020253784
  0
VERTEX
  5
2561
  8
SAPA_FOGBAND
 10
-7.9254223133578403
 20
-43.494698620708519
 30
0.0
  0
VERTEX
  5
2562
  8
SAPA_FOGBAND
 10
-11.901282306722489
 20
-44.058441624631271
 30
0.0
 42
-0.4459602482749359
  0
VERTEX
  5
2563
  8
SAPA_FOGBAND
 10
-12.897542939747691
 20
-43.163604270398913
 30
0.0
  0
VERTEX
  5
2564
  8
SAPA_FOGBAND
 10
-12.897542939747691
 20
-40.440292945534203
 30
0.0
 42
-0.6245270939358744
  0
VERTEX
  5
2565
  8
SAPA_FOGBAND
 10
-11.44414626723248
 20
-39.7305379717235
 30
0.0
  0
SEQEND
  5
2566
  8
SAPA_FOGBAND
  0
POLYLINE
  5
141E
  8
SAPA_FOGBAND
 66
     1
 10
0.0
 20
0.0
 30
0.0
 70
     1
  0
VERTEX
  5
2567
  8
SAPA_FOGBAND
 10
-18.697542939747681
 20
-34.058574583119253
 30
0.0
  0
VERTEX
  5
2568
  8
SAPA_FOGBAND
 10
-18.4457791307272
 20
-33.991114673808852
 30
0.0
 42
0.4740571810232144
  0
VERTEX
  5
2569
  8
SAPA_FOGBAND
 10
-18.318485268363592
 20
-33.708832088170197
 30
0.0
  0
VERTEX
  5
256A
  8
SAPA_FOGBAND
 10
-18.938585771122181
 20
-32.262625951410321
 30
0.0
 42
0.2846003776496053
  0
VERTEX
  5
256B
  8
SAPA_FOGBAND
 10
-19.38622994958234
 20
-31.985369502362349
 30
0.0
  0
VERTEX
  5
256C
  8
SAPA_FOGBAND
 10
-21.008855929912951
 20
-31.985369502362349
 30
0.0
 42
0.2846003776496027
  0
VERTEX
  5
256D
  8
SAPA_FOGBAND
 10
-21.45650010837312
 20
-32.262625951410321
 30
0.0
  0
VERTEX
  5
256E
  8
SAPA_FOGBAND
 10
-22.07660061113171
 20
-33.708832088170247
 30
0.0
 42
0.4740571810232332
  0
VERTEX
  5
256F
  8
SAPA_FOGBAND
 10
-21.949306748768151
 20
-33.991114673808852
 30
0.0
  0
VERTEX
  5
2570
  8
SAPA_FOGBAND
 10
-21.697542939747681
 20
-34.058574583119253
 30
0.0
  0
VERTEX
  5
2571
  8
SAPA_FOGBAND
 10
-21.697542939747681
 20
-35.000000000001137
 30
0.0
 42
-0.4142135623730951
  0
VERTEX
  5
2572
  8
SAPA_FOGBAND
 10
-22.197542939747681
 20
-35.500000000001137
 30
0.0
  0
VERTEX
  5
2573
  8
SAPA_FOGBAND
 10
-24.709703103129129
 20
-35.500000000001201
 30
0.0
 42
0.4027293761437467
  0
VERTEX
  5
2574
  8
SAPA_FOGBAND
 10
-25.00947065672699
 20
-35.788192637470502
 30
0.0
  0
VERTEX
  5
2575
  8
SAPA_FOGBAND
 10
-25.497310471396421
 20
-45.188192637470543
 30
0.0
 42
0.4257917699693538
  0
VERTEX
  5
2576
  8
SAPA_FOGBAND
 10
-25.197542917798561
 20
-45.500000000001187
 30
0.0
  0
VERTEX
  5
2577
  8
SAPA_FOGBAND
 10
-11.492009258574679
 20
-45.500000000001187
 30
0.0
  0
VERTEX
  5
2578
  8
SAPA_FOGBAND
 10
-5.8888676608478088
 20
-44.723465082318569
 30
0.0
 42
0.322530093016903
  0
VERTEX
  5
2579
  8
SAPA_FOGBAND
 10
-5.1975429177985406
 20
-43.729387777212587
 30
0.0
  0
VERTEX
  5
257A
  8
SAPA_FOGBAND
 10
-5.1975429177985406
 20
-42.49864422077502
 30
0.0
 42
0.2325311832130604
  0
VERTEX
  5
257B
  8
SAPA_FOGBAND
 10
-5.3922056744917599
 20
-42.102703356693212
 30
0.0
  0
VERTEX
  5
257C
  8
SAPA_FOGBAND
 10
-14.55876890239926
 20
-35.708118271837691
 30
0.0
 42
0.1657205760184606
  0
VERTEX
  5
257D
  8
SAPA_FOGBAND
 10
-15.16944338901288
 20
-35.500000000001137
 30
0.0
  0
VERTEX
  5
257E
  8
SAPA_FOGBAND
 10
-18.19754293974767
 20
-35.500000000001137
 30
0.0
 42
-0.4142135623730951
  0
VERTEX
  5
257F
  8
SAPA_FOGBAND
 10
-18.697542939747681
 20
-35.000000000001137
 30
0.0
  0
SEQEND
  5
2580
  8
SAPA_FOGBAND
  0
CIRCLE
  5
141F
  8
SAPA_FOGBAND
 10
18.629356795614282
 20
-93.028466855359909
 30
0.0
 40
0.2549509756796394
  0
POLYLINE
  5
1420
  8
SAPA_FOGBAND
 66
     1
 10
0.0
 20
0.0
 30
0.0
 70
     1
  0
VERTEX
  5
2581
  8
SAPA_FOGBAND
 10
17.729356795614191
 20
-95.599999999010777
 30
0.0
 42
-0.9999999999999998
  0
VERTEX
  5
2582
  8
SAPA_FOGBAND
 10
19.529356795614149
 20
-95.599999999010777
 30
0.0
  0
VERTEX
  5
2583
  8
SAPA_FOGBAND
 10
19.529356795614149
 20
-96.199999999010814
 30
0.0
 42
-0.9999999999999998
  0
VERTEX
  5
2584
  8
SAPA_FOGBAND
 10
17.729356795614191
 20
-96.199999999010814
 30
0.0
  0
SEQEND
  5
2585
  8
SAPA_FOGBAND
  0
POLYLINE
  5
1421
  8
SAPA_FOGBAND
 66
     1
 10
0.0
 20
0.0
 30
0.0
 70
     1
  0
VERTEX
  5
2586
  8
SAPA_FOGBAND
 10
14.37935679561428
 20
-92.164228703859578
 30
0.0
  0
VERTEX
  5
2587
  8
SAPA_FOGBAND
 10
14.379356795614051
 20
-94.299999999010694
 30
0.0
 42
0.4142135623730951
  0
VERTEX
  5
2588
  8
SAPA_FOGBAND
 10
14.5793567956141
 20
-94.499999999010754
 30
0.0
  0
VERTEX
  5
2589
  8
SAPA_FOGBAND
 10
16.629356795614282
 20
-94.499999999010754
 30
0.0
 42
-0.4142135623730951
  0
VERTEX
  5
258A
  8
SAPA_FOGBAND
 10
17.129356795614282
 20
-94.999999999010754
 30
0.0
  0
VERTEX
  5
258B
  8
SAPA_FOGBAND
 10
17.129356795614282
 20
-95.726794918253916
 30
0.0
  0
VERTEX
  5
258C
  8
SAPA_FOGBAND
 10
16.877592986593751
 20
-95.794254827564316
 30
0.0
 42
0.4740571810232154
  0
VERTEX
  5
258D
  8
SAPA_FOGBAND
 10
16.750299124230189
 20
-96.076537413202985
 30
0.0
  0
VERTEX
  5
258E
  8
SAPA_FOGBAND
 10
17.370399626988728
 20
-97.52274354996274
 30
0.0
 42
0.2846003776496056
  0
VERTEX
  5
258F
  8
SAPA_FOGBAND
 10
17.818043805448951
 20
-97.799999999010723
 30
0.0
  0
VERTEX
  5
2590
  8
SAPA_FOGBAND
 10
19.440669785779392
 20
-97.799999999010723
 30
0.0
 42
0.2846003776496054
  0
VERTEX
  5
2591
  8
SAPA_FOGBAND
 10
19.888313964239611
 20
-97.52274354996274
 30
0.0
  0
VERTEX
  5
2592
  8
SAPA_FOGBAND
 10
20.508414466998151
 20
-96.076537413202985
 30
0.0
 42
0.4740571810232154
  0
VERTEX
  5
2593
  8
SAPA_FOGBAND
 10
20.381120604634589
 20
-95.794254827564316
 30
0.0
  0
VERTEX
  5
2594
  8
SAPA_FOGBAND
 10
20.129356795614289
 20
-95.726794918253916
 30
0.0
  0
VERTEX
  5
2595
  8
SAPA_FOGBAND
 10
20.129356795614289
 20
-94.999999999010754
 30
0.0
 42
-0.4142135623730951
  0
VERTEX
  5
2596
  8
SAPA_FOGBAND
 10
20.629356795614282
 20
-94.499999999010754
 30
0.0
  0
VERTEX
  5
2597
  8
SAPA_FOGBAND
 10
23.67935679561424
 20
-94.499999999010754
 30
0.0
 42
-0.4142135623730951
  0
VERTEX
  5
2598
  8
SAPA_FOGBAND
 10
23.879356795614289
 20
-94.699999999010799
 30
0.0
  0
VERTEX
  5
2599
  8
SAPA_FOGBAND
 10
23.879356795614061
 20
-95.599999999010777
 30
0.0
 42
0.4142135623730951
  0
VERTEX
  5
259A
  8
SAPA_FOGBAND
 10
24.0793567956141
 20
-95.799999999010709
 30
0.0
  0
VERTEX
  5
259B
  8
SAPA_FOGBAND
 10
24.779356795614149
 20
-95.799999999010808
 30
0.0
 42
0.4142135623730951
  0
VERTEX
  5
259C
  8
SAPA_FOGBAND
 10
25.0793567956141
 20
-95.499999999010754
 30
0.0
  0
VERTEX
  5
259D
  8
SAPA_FOGBAND
 10
25.0793567956141
 20
-94.689488222359216
 30
0.0
 42
-0.1316524975873982
  0
VERTEX
  5
259E
  8
SAPA_FOGBAND
 10
25.347305988045271
 20
-93.689488222359216
 30
0.0
  0
VERTEX
  5
259F
  8
SAPA_FOGBAND
 10
29.318018525147409
 20
-91.054121304015041
 30
0.0
 42
0.876976462992761
  0
VERTEX
  5
25A0
  8
SAPA_FOGBAND
 10
29.21511293523713
 20
-90.536779967898553
 30
0.0
  0
VERTEX
  5
25A1
  8
SAPA_FOGBAND
 10
23.790451373364931
 20
-91.090624764442794
 30
0.0
 42
-0.1353185728426623
  0
VERTEX
  5
25A2
  8
SAPA_FOGBAND
 10
23.790451373364931
 20
-91.090624764442794
 30
0.0
  0
VERTEX
  5
25A3
  8
SAPA_FOGBAND
 10
23.552561880536128
 20
-90.678588072042601
 30
0.0
 42
0.5773502691896196
  0
VERTEX
  5
25A4
  8
SAPA_FOGBAND
 10
23.206151719022269
 20
-90.678588072042601
 30
0.0
  0
VERTEX
  5
25A5
  8
SAPA_FOGBAND
 10
22.96810410229136
 20
-91.090898634604443
 30
0.0
  0
VERTEX
  5
25A6
  8
SAPA_FOGBAND
 10
22.19060949237473
 20
-91.090898634604443
 30
0.0
  0
VERTEX
  5
25A7
  8
SAPA_FOGBAND
 10
21.952561880535988
 20
-90.678588072042601
 30
0.0
 42
0.5773502691896196
  0
VERTEX
  5
25A8
  8
SAPA_FOGBAND
 10
21.60615171902236
 20
-90.678588072042601
 30
0.0
  0
VERTEX
  5
25A9
  8
SAPA_FOGBAND
 10
21.368104102291451
 20
-91.090898634604443
 30
0.0
  0
VERTEX
  5
25AA
  8
SAPA_FOGBAND
 10
20.590609492374821
 20
-91.090898634604443
 30
0.0
  0
VERTEX
  5
25AB
  8
SAPA_FOGBAND
 10
20.35256188053609
 20
-90.678588072042601
 30
0.0
 42
0.5773502691896196
  0
VERTEX
  5
25AC
  8
SAPA_FOGBAND
 10
20.006151719022231
 20
-90.678588072042601
 30
0.0
  0
VERTEX
  5
25AD
  8
SAPA_FOGBAND
 10
19.768104102291542
 20
-91.090898634604443
 30
0.0
  0
VERTEX
  5
25AE
  8
SAPA_FOGBAND
 10
18.990609492374691
 20
-91.090898634604443
 30
0.0
  0
VERTEX
  5
25AF
  8
SAPA_FOGBAND
 10
18.752561880536181
 20
-90.678588072042601
 30
0.0
 42
0.5773502691896196
  0
VERTEX
  5
25B0
  8
SAPA_FOGBAND
 10
18.406151719022319
 20
-90.678588072042601
 30
0.0
  0
VERTEX
  5
25B1
  8
SAPA_FOGBAND
 10
18.168104102291409
 20
-91.090898634604443
 30
0.0
  0
VERTEX
  5
25B2
  8
SAPA_FOGBAND
 10
17.390609492374779
 20
-91.090898634604443
 30
0.0
  0
VERTEX
  5
25B3
  8
SAPA_FOGBAND
 10
17.152561880536041
 20
-90.678588072042601
 30
0.0
 42
0.5773502691896196
  0
VERTEX
  5
25B4
  8
SAPA_FOGBAND
 10
16.806151719022179
 20
-90.678588072042601
 30
0.0
  0
VERTEX
  5
25B5
  8
SAPA_FOGBAND
 10
16.5681041022915
 20
-91.090898634604443
 30
0.0
  0
VERTEX
  5
25B6
  8
SAPA_FOGBAND
 10
15.79060948820984
 20
-91.090898634604443
 30
0.0
  0
VERTEX
  5
25B7
  8
SAPA_FOGBAND
 10
15.552561876371101
 20
-90.678588072042601
 30
0.0
 42
0.5773502691896196
  0
VERTEX
  5
25B8
  8
SAPA_FOGBAND
 10
15.20615171485724
 20
-90.678588072042601
 30
0.0
  0
VERTEX
  5
25B9
  8
SAPA_FOGBAND
 10
14.406151715302251
 20
-92.064228703088872
 30
0.0
 42
0.1316524987190407
  0
SEQEND
  5
25BA
  8
SAPA_FOGBAND
  0
INSERT
  5
1422
  8
SAPA_FOGBAND
  6
CONTINUOUS
  2
*U93
 10
0.0
 20
0.0
 30
0.0
1001
ACAD
1002
{
1000
R14_HATCH_DATA
1000
1422
1011
1.0
1021
0.0
1031
0.0
1021
0.0
1031
0.0
1011
0.0
1021
0.0
1031
0.0
1021
1.0
1031
0.0
1011
0.0
1021
0.0
1031
0.0
1021
0.0
1031
1.0
1040
0.0
1010
0.0
1020
0.0
1030
1.0
1000
SOLID
1070
     1
1070
     1
1071
        1
1071
        1
1071
        1
1070
     2
1040
18.629356795614282
1040
-93.028466855359909
1040
0.2549509756796394
1040
-3.1415926535897931
1040
3.1415926535897931
1070
     0
1071
        1
1005
141F
1070
     0
1070
     1
1071
        1
1040
18.866095697184392
1040
-92.946615358031011
1040
0.0
1002
}
  0
POLYLINE
  5
1423
  8
SAPA_FOGBAND
 66
     1
 10
0.0
 20
0.0
 30
0.0
 70
     1
  0
VERTEX
  5
25CC
  8
SAPA_FOGBAND
 10
21.953090993536541
 20
-33.991114672817389
 30
0.0
 42
0.4740571810231764
  0
VERTEX
  5
25CD
  8
SAPA_FOGBAND
 10
22.080384855899869
 20
-33.708832087178848
 30
0.0
  0
VERTEX
  5
25CE
  8
SAPA_FOGBAND
 10
21.46028435314156
 20
-32.262625950418737
 30
0.0
 42
0.2846003776496257
  0
VERTEX
  5
25CF
  8
SAPA_FOGBAND
 10
21.012640174681341
 20
-31.985369501370879
 30
0.0
  0
VERTEX
  5
25D0
  8
SAPA_FOGBAND
 10
19.39001419435067
 20
-31.985369501370879
 30
0.0
 42
0.2846003776496159
  0
VERTEX
  5
25D1
  8
SAPA_FOGBAND
 10
18.94237001589045
 20
-32.262625950418972
 30
0.0
  0
VERTEX
  5
25D2
  8
SAPA_FOGBAND
 10
18.322269513132142
 20
-33.708832087178848
 30
0.0
 42
0.4740571810232354
  0
VERTEX
  5
25D3
  8
SAPA_FOGBAND
 10
18.449563375495469
 20
-33.991114672817389
 30
0.0
  0
VERTEX
  5
25D4
  8
SAPA_FOGBAND
 10
18.701327184515769
 20
-34.05857458212779
 30
0.0
  0
VERTEX
  5
25D5
  8
SAPA_FOGBAND
 10
18.701327184515769
 20
-34.999999999009901
 30
0.0
 42
-0.4142135623730951
  0
VERTEX
  5
25D6
  8
SAPA_FOGBAND
 10
18.201327184515769
 20
-35.499999999009901
 30
0.0
  0
VERTEX
  5
25D7
  8
SAPA_FOGBAND
 10
15.173227633781149
 20
-35.499999999009667
 30
0.0
 42
0.1657205760184635
  0
VERTEX
  5
25D8
  8
SAPA_FOGBAND
 10
14.56255314716782
 20
-35.708118270846292
 30
0.0
  0
VERTEX
  5
25D9
  8
SAPA_FOGBAND
 10
5.194662756690831
 20
-41.102703355702147
 30
0.0
 42
0.2325311832130358
  0
VERTEX
  5
25DA
  8
SAPA_FOGBAND
 10
4.9999999999972706
 20
-41.498644219784062
 30
0.0
  0
VERTEX
  5
25DB
  8
SAPA_FOGBAND
 10
4.9999999999977263
 20
-46.729387776221643
 30
0.0
 42
0.3826682380870913
  0
VERTEX
  5
25DC
  8
SAPA_FOGBAND
 10
5.89132474304688
 20
-47.72346508132739
 30
0.0
  0
VERTEX
  5
25DD
  8
SAPA_FOGBAND
 10
11.495793503343521
 20
-48.499999999010129
 30
0.0
  0
VERTEX
  5
25DE
  8
SAPA_FOGBAND
 10
25.20132716256694
 20
-48.499999999010129
 30
0.0
 42
0.4257917699693507
  0
VERTEX
  5
25DF
  8
SAPA_FOGBAND
 10
25.501094716164751
 20
-48.18819263647935
 30
0.0
  0
VERTEX
  5
25E0
  8
SAPA_FOGBAND
 10
25.013254901495429
 20
-35.788192636478811
 30
0.0
 42
0.4027293761437475
  0
VERTEX
  5
25E1
  8
SAPA_FOGBAND
 10
24.71348734789763
 20
-35.499999999009667
 30
0.0
  0
VERTEX
  5
25E2
  8
SAPA_FOGBAND
 10
22.20132718451578
 20
-35.499999999009901
 30
0.0
 42
-0.4142135623730951
  0
VERTEX
  5
25E3
  8
SAPA_FOGBAND
 10
21.701327184515769
 20
-34.999999999009901
 30
0.0
  0
VERTEX
  5
25E4
  8
SAPA_FOGBAND
 10
21.701327184515769
 20
-34.05857458212779
 30
0.0
  0
SEQEND
  5
25E5
  8
SAPA_FOGBAND
  0
POLYLINE
  5
1424
  8
SAPA_FOGBAND
 66
     1
 10
0.0
 20
0.0
 30
0.0
 70
     1
  0
VERTEX
  5
25E6
  8
SAPA_FOGBAND
 10
19.301327184515909
 20
-33.585369501371019
 30
0.0
  0
VERTEX
  5
25E7
  8
SAPA_FOGBAND
 10
19.30132718451614
 20
-34.185369501370928
 30
0.0
 42
0.9999999999999998
  0
VERTEX
  5
25E8
  8
SAPA_FOGBAND
 10
21.101327184516091
 20
-34.185369501370928
 30
0.0
  0
VERTEX
  5
25E9
  8
SAPA_FOGBAND
 10
21.101327184516091
 20
-33.585369501371019
 30
0.0
 42
0.9999999999999998
  0
SEQEND
  5
25EA
  8
SAPA_FOGBAND
  0
POLYLINE
  5
1425
  8
SAPA_FOGBAND
 66
     1
 10
0.0
 20
0.0
 30
0.0
 70
     1
  0
VERTEX
  5
25EB
  8
SAPA_FOGBAND
 10
8.8913247649957157
 20
-46.953324864972608
 30
0.0
  0
VERTEX
  5
25EC
  8
SAPA_FOGBAND
 10
11.89265192756511
 20
-47.445277204862691
 30
0.0
 42
0.4464785874932524
  0
VERTEX
  5
25ED
  8
SAPA_FOGBAND
 10
13.00132718451596
 20
-46.451199899756709
 30
0.0
  0
VERTEX
  5
25EE
  8
SAPA_FOGBAND
 10
13.00132718451596
 20
-39.850147745599664
 30
0.0
 42
0.622676997742357
  0
VERTEX
  5
25EF
  8
SAPA_FOGBAND
 10
11.390652697902169
 20
-39.058266017436267
 30
0.0
  0
VERTEX
  5
25F0
  8
SAPA_FOGBAND
 10
8.3893255353327731
 20
-41.533301339953248
 30
0.0
 42
0.232531183213058
  0
VERTEX
  5
25F1
  8
SAPA_FOGBAND
 10
8.0000000219465601
 20
-42.325183068116857
 30
0.0
  0
VERTEX
  5
25F2
  8
SAPA_FOGBAND
 10
8.0000000219465601
 20
-45.95924755986686
 30
0.0
 42
0.3826682380870913
  0
SEQEND
  5
25F3
  8
SAPA_FOGBAND
  0
POLYLINE
  5
1426
  8
SAPA_FOGBAND
 10
22.264574318352981
 20
-42.113213331626859
 30
0.0
 66
     1
 70
     8
  0
VERTEX
  8
SAPA_FOGBAND
  5
269B
 10
22.2646
 20
-42.1132
 30
0.000000
  70
    32
  0
VERTEX
  8
SAPA_FOGBAND
  5
269C
 10
22.2594
 20
-42.2294
 30
0.000000
  70
    32
  0
VERTEX
  8
SAPA_FOGBAND
  5
269D
 10
22.2464
 20
-42.3452
 30
0.000000
  70
    32
  0
VERTEX
  8
SAPA_FOGBAND
  5
269E
 10
22.2254
 20
-42.4604
 30
0.000000
  70
    32
  0
VERTEX
  8
SAPA_FOGBAND
  5
269F
 10
22.1966
 20
-42.5746
 30
0.000000
  70
    32
  0
VERTEX
  8
SAPA_FOGBAND
  5
26A0
 10
22.1600
 20
-42.6877
 30
0.000000
  70
    32
  0
VERTEX
  8
SAPA_FOGBAND
  5
26A1
 10
22.1157
 20
-42.7993
 30
0.000000
  70
    32
  0
VERTEX
  8
SAPA_FOGBAND
  5
26A2
 10
22.0638
 20
-42.9092
 30
0.000000
  70
    32
  0
VERTEX
  8
SAPA_FOGBAND
  5
26A3
 10
22.0045
 20
-43.0170
 30
0.000000
  70
    32
  0
VERTEX
  8
SAPA_FOGBAND
  5
26A4
 10
21.9378
 20
-43.1226
 30
0.000000
  70
    32
  0
VERTEX
  8
SAPA_FOGBAND
  5
26A5
 10
21.8640
 20
-43.2258
 30
0.000000
  70
    32
  0
VERTEX
  8
SAPA_FOGBAND
  5
26A6
 10
21.7832
 20
-43.3261
 30
0.000000
  70
    32
  0
VERTEX
  8
SAPA_FOGBAND
  5
26A7
 10
21.6956
 20
-43.4234
 30
0.000000
  70
    32
  0
VERTEX
  8
SAPA_FOGBAND
  5
26A8
 10
21.6015
 20
-43.5176
 30
0.000000
  70
    32
  0
VERTEX
  8
SAPA_FOGBAND
  5
26A9
 10
21.5009
 20
-43.6082
 30
0.000000
  70
    32
  0
VERTEX
  8
SAPA_FOGBAND
  5
26AA
 10
21.3943
 20
-43.6952
 30
0.000000
  70
    32
  0
VERTEX
  8
SAPA_FOGBAND
  5
26AB
 10
21.2819
 20
-43.7783
 30
0.000000
  70
    32
  0
VERTEX
  8
SAPA_FOGBAND
  5
26AC
 10
21.1638
 20
-43.8572
 30
0.000000
  70
    32
  0
VERTEX
  8
SAPA_FOGBAND
  5
26AD
 10
21.0405
 20
-43.9319
 30
0.000000
  70
    32
  0
VERTEX
  8
SAPA_FOGBAND
  5
26AE
 10
20.9121
 20
-44.0022
 30
0.000000
  70
    32
  0
VERTEX
  8
SAPA_FOGBAND
  5
26AF
 10
20.7791
 20
-44.0678
 30
0.000000
  70
    32
  0
VERTEX
  8
SAPA_FOGBAND
  5
26B0
 10
20.6417
 20
-44.1286
 30
0.000000
  70
    32
  0
VERTEX
  8
SAPA_FOGBAND
  5
26B1
 10
20.5003
 20
-44.1845
 30
0.000000
  70
    32
  0
VERTEX
  8
SAPA_FOGBAND
  5
26B2
 10
20.3552
 20
-44.2354
 30
0.000000
  70
    32
  0
VERTEX
  8
SAPA_FOGBAND
  5
26B3
 10
20.2067
 20
-44.2810
 30
0.000000
  70
    32
  0
VERTEX
  8
SAPA_FOGBAND
  5
26B4
 10
20.0553
 20
-44.3213
 30
0.000000
  70
    32
  0
VERTEX
  8
SAPA_FOGBAND
  5
26B5
 10
19.9012
 20
-44.3563
 30
0.000000
  70
    32
  0
VERTEX
  8
SAPA_FOGBAND
  5
26B6
 10
19.7449
 20
-44.3857
 30
0.000000
  70
    32
  0
VERTEX
  8
SAPA_FOGBAND
  5
26B7
 10
19.5866
 20
-44.4096
 30
0.000000
  70
    32
  0
VERTEX
  8
SAPA_FOGBAND
  5
26B8
 10
19.4269
 20
-44.4279
 30
0.000000
  70
    32
  0
VERTEX
  8
SAPA_FOGBAND
  5
26B9
 10
19.2661
 20
-44.4405
 30
0.000000
  70
    32
  0
VERTEX
  8
SAPA_FOGBAND
  5
26BA
 10
19.1046
 20
-44.4475
 30
0.000000
  70
    32
  0
VERTEX
  8
SAPA_FOGBAND
  5
26BB
 10
18.9427
 20
-44.4487
 30
0.000000
  70
    32
  0
VERTEX
  8
SAPA_FOGBAND
  5
26BC
 10
18.7809
 20
-44.4442
 30
0.000000
  70
    32
  0
VERTEX
  8
SAPA_FOGBAND
  5
26BD
 10
18.6196
 20
-44.4341
 30
0.000000
  70
    32
  0
VERTEX
  8
SAPA_FOGBAND
  5
26BE
 10
18.4590
 20
-44.4183
 30
0.000000
  70
    32
  0
VERTEX
  8
SAPA_FOGBAND
  5
26BF
 10
18.2997
 20
-44.3968
 30
0.000000
  70
    32
  0
VERTEX
  8
SAPA_FOGBAND
  5
26C0
 10
18.1420
 20
-44.3698
 30
0.000000
  70
    32
  0
VERTEX
  8
SAPA_FOGBAND
  5
26C1
 10
17.9863
 20
-44.3372
 30
0.000000
  70
    32
  0
VERTEX
  8
SAPA_FOGBAND
  5
26C2
 10
17.8330
 20
-44.2992
 30
0.000000
  70
    32
  0
VERTEX
  8
SAPA_FOGBAND
  5
26C3
 10
17.6823
 20
-44.2559
 30
0.000000
  70
    32
  0
VERTEX
  8
SAPA_FOGBAND
  5
26C4
 10
17.5348
 20
-44.2073
 30
0.000000
  70
    32
  0
VERTEX
  8
SAPA_FOGBAND
  5
26C5
 10
17.3907
 20
-44.1536
 30
0.000000
  70
    32
  0
VERTEX
  8
SAPA_FOGBAND
  5
26C6
 10
17.2504
 20
-44.0949
 30
0.000000
  70
    32
  0
VERTEX
  8
SAPA_FOGBAND
  5
26C7
 10
17.1143
 20
-44.0313
 30
0.000000
  70
    32
  0
VERTEX
  8
SAPA_FOGBAND
  5
26C8
 10
16.9826
 20
-43.9631
 30
0.000000
  70
    32
  0
VERTEX
  8
SAPA_FOGBAND
  5
26C9
 10
16.8557
 20
-43.8903
 30
0.000000
  70
    32
  0
VERTEX
  8
SAPA_FOGBAND
  5
26CA
 10
16.7339
 20
-43.8131
 30
0.000000
  70
    32
  0
VERTEX
  8
SAPA_FOGBAND
  5
26CB
 10
16.6174
 20
-43.7318
 30
0.000000
  70
    32
  0
VERTEX
  8
SAPA_FOGBAND
  5
26CC
 10
16.5066
 20
-43.6465
 30
0.000000
  70
    32
  0
VERTEX
  8
SAPA_FOGBAND
  5
26CD
 10
16.4018
 20
-43.5575
 30
0.000000
  70
    32
  0
VERTEX
  8
SAPA_FOGBAND
  5
26CE
 10
16.3031
 20
-43.4648
 30
0.000000
  70
    32
  0
VERTEX
  8
SAPA_FOGBAND
  5
26CF
 10
16.2108
 20
-43.3689
 30
0.000000
  70
    32
  0
VERTEX
  8
SAPA_FOGBAND
  5
26D0
 10
16.1252
 20
-43.2698
 30
0.000000
  70
    32
  0
VERTEX
  8
SAPA_FOGBAND
  5
26D1
 10
16.0464
 20
-43.1679
 30
0.000000
  70
    32
  0
VERTEX
  8
SAPA_FOGBAND
  5
26D2
 10
15.9746
 20
-43.0633
 30
0.000000
  70
    32
  0
VERTEX
  8
SAPA_FOGBAND
  5
26D3
 10
15.9101
 20
-42.9564
 30
0.000000
  70
    32
  0
VERTEX
  8
SAPA_FOGBAND
  5
26D4
 10
15.8529
 20
-42.8473
 30
0.000000
  70
    32
  0
VERTEX
  8
SAPA_FOGBAND
  5
26D5
 10
15.8032
 20
-42.7365
 30
0.000000
  70
    32
  0
VERTEX
  8
SAPA_FOGBAND
  5
26D6
 10
15.7612
 20
-42.6240
 30
0.000000
  70
    32
  0
VERTEX
  8
SAPA_FOGBAND
  5
26D7
 10
15.7268
 20
-42.5102
 30
0.000000
  70
    32
  0
VERTEX
  8
SAPA_FOGBAND
  5
26D8
 10
15.7003
 20
-42.3954
 30
0.000000
  70
    32
  0
VERTEX
  8
SAPA_FOGBAND
  5
26D9
 10
15.6816
 20
-42.2799
 30
0.000000
  70
    32
  0
VERTEX
  8
SAPA_FOGBAND
  5
26DA
 10
15.6709
 20
-42.1638
 30
0.000000
  70
    32
  0
VERTEX
  8
SAPA_FOGBAND
  5
26DB
 10
15.6680
 20
-42.0476
 30
0.000000
  70
    32
  0
VERTEX
  8
SAPA_FOGBAND
  5
26DC
 10
15.6732
 20
-41.9314
 30
0.000000
  70
    32
  0
VERTEX
  8
SAPA_FOGBAND
  5
26DD
 10
15.6862
 20
-41.8156
 30
0.000000
  70
    32
  0
VERTEX
  8
SAPA_FOGBAND
  5
26DE
 10
15.7072
 20
-41.7004
 30
0.000000
  70
    32
  0
VERTEX
  8
SAPA_FOGBAND
  5
26DF
 10
15.7360
 20
-41.5861
 30
0.000000
  70
    32
  0
VERTEX
  8
SAPA_FOGBAND
  5
26E0
 10
15.7726
 20
-41.4731
 30
0.000000
  70
    32
  0
VERTEX
  8
SAPA_FOGBAND
  5
26E1
 10
15.8169
 20
-41.3615
 30
0.000000
  70
    32
  0
VERTEX
  8
SAPA_FOGBAND
  5
26E2
 10
15.8688
 20
-41.2516
 30
0.000000
  70
    32
  0
VERTEX
  8
SAPA_FOGBAND
  5
26E3
 10
15.9281
 20
-41.1437
 30
0.000000
  70
    32
  0
VERTEX
  8
SAPA_FOGBAND
  5
26E4
 10
15.9948
 20
-41.0381
 30
0.000000
  70
    32
  0
VERTEX
  8
SAPA_FOGBAND
  5
26E5
 10
16.0686
 20
-40.9350
 30
0.000000
  70
    32
  0
VERTEX
  8
SAPA_FOGBAND
  5
26E6
 10
16.1494
 20
-40.8347
 30
0.000000
  70
    32
  0
VERTEX
  8
SAPA_FOGBAND
  5
26E7
 10
16.2370
 20
-40.7373
 30
0.000000
  70
    32
  0
VERTEX
  8
SAPA_FOGBAND
  5
26E8
 10
16.3312
 20
-40.6432
 30
0.000000
  70
    32
  0
VERTEX
  8
SAPA_FOGBAND
  5
26E9
 10
16.4317
 20
-40.5526
 30
0.000000
  70
    32
  0
VERTEX
  8
SAPA_FOGBAND
  5
26EA
 10
16.5383
 20
-40.4656
 30
0.000000
  70
    32
  0
VERTEX
  8
SAPA_FOGBAND
  5
26EB
 10
16.6507
 20
-40.3825
 30
0.000000
  70
    32
  0
VERTEX
  8
SAPA_FOGBAND
  5
26EC
 10
16.7688
 20
-40.3035
 30
0.000000
  70
    32
  0
VERTEX
  8
SAPA_FOGBAND
  5
26ED
 10
16.8921
 20
-40.2288
 30
0.000000
  70
    32
  0
VERTEX
  8
SAPA_FOGBAND
  5
26EE
 10
17.0205
 20
-40.1586
 30
0.000000
  70
    32
  0
VERTEX
  8
SAPA_FOGBAND
  5
26EF
 10
17.1535
 20
-40.0930
 30
0.000000
  70
    32
  0
VERTEX
  8
SAPA_FOGBAND
  5
26F0
 10
17.2909
 20
-40.0321
 30
0.000000
  70
    32
  0
VERTEX
  8
SAPA_FOGBAND
  5
26F1
 10
17.4323
 20
-39.9762
 30
0.000000
  70
    32
  0
VERTEX
  8
SAPA_FOGBAND
  5
26F2
 10
17.5774
 20
-39.9254
 30
0.000000
  70
    32
  0
VERTEX
  8
SAPA_FOGBAND
  5
26F3
 10
17.7259
 20
-39.8798
 30
0.000000
  70
    32
  0
VERTEX
  8
SAPA_FOGBAND
  5
26F4
 10
17.8773
 20
-39.8394
 30
0.000000
  70
    32
  0
VERTEX
  8
SAPA_FOGBAND
  5
26F5
 10
18.0314
 20
-39.8045
 30
0.000000
  70
    32
  0
VERTEX
  8
SAPA_FOGBAND
  5
26F6
 10
18.1878
 20
-39.7751
 30
0.000000
  70
    32
  0
VERTEX
  8
SAPA_FOGBAND
  5
26F7
 10
18.3460
 20
-39.7512
 30
0.000000
  70
    32
  0
VERTEX
  8
SAPA_FOGBAND
  5
26F8
 10
18.5057
 20
-39.7329
 30
0.000000
  70
    32
  0
VERTEX
  8
SAPA_FOGBAND
  5
26F9
 10
18.6665
 20
-39.7202
 30
0.000000
  70
    32
  0
VERTEX
  8
SAPA_FOGBAND
  5
26FA
 10
18.8280
 20
-39.7133
 30
0.000000
  70
    32
  0
VERTEX
  8
SAPA_FOGBAND
  5
26FB
 10
18.9899
 20
-39.7121
 30
0.000000
  70
    32
  0
VERTEX
  8
SAPA_FOGBAND
  5
26FC
 10
19.1517
 20
-39.7165
 30
0.000000
  70
    32
  0
VERTEX
  8
SAPA_FOGBAND
  5
26FD
 10
19.3131
 20
-39.7267
 30
0.000000
  70
    32
  0
VERTEX
  8
SAPA_FOGBAND
  5
26FE
 10
19.4736
 20
-39.7425
 30
0.000000
  70
    32
  0
VERTEX
  8
SAPA_FOGBAND
  5
26FF
 10
19.6329
 20
-39.7640
 30
0.000000
  70
    32
  0
VERTEX
  8
SAPA_FOGBAND
  5
2700
 10
19.7906
 20
-39.7910
 30
0.000000
  70
    32
  0
VERTEX
  8
SAPA_FOGBAND
  5
2701
 10
19.9463
 20
-39.8236
 30
0.000000
  70
    32
  0
VERTEX
  8
SAPA_FOGBAND
  5
2702
 10
20.0997
 20
-39.8616
 30
0.000000
  70
    32
  0
VERTEX
  8
SAPA_FOGBAND
  5
2703
 10
20.2503
 20
-39.9049
 30
0.000000
  70
    32
  0
VERTEX
  8
SAPA_FOGBAND
  5
2704
 10
20.3978
 20
-39.9535
 30
0.000000
  70
    32
  0
VERTEX
  8
SAPA_FOGBAND
  5
2705
 10
20.5419
 20
-40.0072
 30
0.000000
  70
    32
  0
VERTEX
  8
SAPA_FOGBAND
  5
2706
 10
20.6822
 20
-40.0659
 30
0.000000
  70
    32
  0
VERTEX
  8
SAPA_FOGBAND
  5
2707
 10
20.8183
 20
-40.1294
 30
0.000000
  70
    32
  0
VERTEX
  8
SAPA_FOGBAND
  5
2708
 10
20.9500
 20
-40.1977
 30
0.000000
  70
    32
  0
VERTEX
  8
SAPA_FOGBAND
  5
2709
 10
21.0769
 20
-40.2705
 30
0.000000
  70
    32
  0
VERTEX
  8
SAPA_FOGBAND
  5
270A
 10
21.1988
 20
-40.3476
 30
0.000000
  70
    32
  0
VERTEX
  8
SAPA_FOGBAND
  5
270B
 10
21.3152
 20
-40.4289
 30
0.000000
  70
    32
  0
VERTEX
  8
SAPA_FOGBAND
  5
270C
 10
21.4260
 20
-40.5142
 30
0.000000
  70
    32
  0
VERTEX
  8
SAPA_FOGBAND
  5
270D
 10
21.5309
 20
-40.6033
 30
0.000000
  70
    32
  0
VERTEX
  8
SAPA_FOGBAND
  5
270E
 10
21.6295
 20
-40.6959
 30
0.000000
  70
    32
  0
VERTEX
  8
SAPA_FOGBAND
  5
270F
 10
21.7218
 20
-40.7919
 30
0.000000
  70
    32
  0
VERTEX
  8
SAPA_FOGBAND
  5
2710
 10
21.8074
 20
-40.8910
 30
0.000000
  70
    32
  0
VERTEX
  8
SAPA_FOGBAND
  5
2711
 10
21.8862
 20
-40.9929
 30
0.000000
  70
    32
  0
VERTEX
  8
SAPA_FOGBAND
  5
2712
 10
21.9580
 20
-41.0975
 30
0.000000
  70
    32
  0
VERTEX
  8
SAPA_FOGBAND
  5
2713
 10
22.0225
 20
-41.2044
 30
0.000000
  70
    32
  0
VERTEX
  8
SAPA_FOGBAND
  5
2714
 10
22.0797
 20
-41.3134
 30
0.000000
  70
    32
  0
VERTEX
  8
SAPA_FOGBAND
  5
2715
 10
22.1294
 20
-41.4243
 30
0.000000
  70
    32
  0
VERTEX
  8
SAPA_FOGBAND
  5
2716
 10
22.1715
 20
-41.5368
 30
0.000000
  70
    32
  0
VERTEX
  8
SAPA_FOGBAND
  5
2717
 10
22.2058
 20
-41.6505
 30
0.000000
  70
    32
  0
VERTEX
  8
SAPA_FOGBAND
  5
2718
 10
22.2323
 20
-41.7654
 30
0.000000
  70
    32
  0
VERTEX
  8
SAPA_FOGBAND
  5
2719
 10
22.2510
 20
-41.8809
 30
0.000000
  70
    32
  0
VERTEX
  8
SAPA_FOGBAND
  5
271A
 10
22.2618
 20
-41.9970
 30
0.000000
  70
    32
  0
VERTEX
  8
SAPA_FOGBAND
  5
271B
 10
22.2646
 20
-42.1132
 30
0.000000
  70
    32
  0
SEQEND
  8
SAPA_FOGBAND
  5
271C
  0
POLYLINE
  5
1427
  8
SAPA_FOGBAND
 66
     1
 10
0.0
 20
0.0
 30
0.0
  0
VERTEX
  5
25F4
  8
SAPA_FOGBAND
 10
23.801327184515689
 20
-35.499999999009667
 30
0.0
  0
VERTEX
  5
25F5
  8
SAPA_FOGBAND
 10
23.80132718451614
 20
-35.799999999009628
 30
0.0
 42
-0.4142135623730951
  0
VERTEX
  5
25F6
  8
SAPA_FOGBAND
 10
23.30132718451614
 20
-36.299999999009628
 30
0.0
  0
VERTEX
  5
25F7
  8
SAPA_FOGBAND
 10
16.001327184515961
 20
-36.299999999009628
 30
0.0
 42
-0.4142135623730951
  0
VERTEX
  5
25F8
  8
SAPA_FOGBAND
 10
15.50132718451596
 20
-35.799999999009628
 30
0.0
  0
VERTEX
  5
25F9
  8
SAPA_FOGBAND
 10
15.50132718451596
 20
-35.499999999009667
 30
0.0
  0
SEQEND
  5
25FA
  8
SAPA_FOGBAND
  0
POLYLINE
  5
1428
  8
SAPA_FOGBAND
 66
     1
 10
0.0
 20
0.0
 30
0.0
 70
     1
  0
VERTEX
  5
25FB
  8
SAPA_FOGBAND
 10
-28.49999999995018
 20
-4.9392260560683852
 30
0.0
  0
VERTEX
  5
25FC
  8
SAPA_FOGBAND
 10
-28.49999999995018
 20
-7.772545020488117
 30
0.0
 42
0.577350269189628
  0
VERTEX
  5
25FD
  8
SAPA_FOGBAND
 10
-28.049999999950131
 20
-8.0323526416235662
 30
0.0
  0
VERTEX
  5
25FE
  8
SAPA_FOGBAND
 10
-25.510201086716481
 20
-6.3333872998713403
 30
0.0
 42
-0.8769764629927237
  0
VERTEX
  5
25FF
  8
SAPA_FOGBAND
 10
-25.148069052360569
 20
-6.8053269553626086
 30
0.0
  0
VERTEX
  5
2600
  8
SAPA_FOGBAND
 10
-28.20710678113662
 20
-10.332391595607881
 30
0.0
 42
0.1989123673796493
  0
VERTEX
  5
2601
  8
SAPA_FOGBAND
 10
-28.49999999995018
 20
-11.03949837679432
 30
0.0
  0
VERTEX
  5
2602
  8
SAPA_FOGBAND
 10
-28.49999999995018
 20
-12.95548891014267
 30
0.0
 42
0.577350269189628
  0
VERTEX
  5
2603
  8
SAPA_FOGBAND
 10
-28.049999999950131
 20
-13.21529653127789
 30
0.0
  0
VERTEX
  5
2604
  8
SAPA_FOGBAND
 10
-25.511069839896859
 20
-11.833116593281719
 30
0.0
 42
-0.8769764629928424
  0
VERTEX
  5
2605
  8
SAPA_FOGBAND
 10
-25.14893780554095
 20
-12.30505624877299
 30
0.0
  0
VERTEX
  5
2606
  8
SAPA_FOGBAND
 10
-29.282961428450541
 20
-15.907106783151569
 30
0.0
 42
-0.1989123673796579
  0
VERTEX
  5
2607
  8
SAPA_FOGBAND
 10
-29.990068209636981
 20
-16.200000001964899
 30
0.0
  0
VERTEX
  5
2608
  8
SAPA_FOGBAND
 10
-29.99999999995018
 20
-16.200000001964899
 30
0.0
 42
-0.4142135623730951
  0
VERTEX
  5
2609
  8
SAPA_FOGBAND
 10
-30.99999999995018
 20
-15.2000000019649
 30
0.0
  0
VERTEX
  5
260A
  8
SAPA_FOGBAND
 10
-32.164084599073682
 20
-7.9650075011976531
 30
0.0
 42
-0.6261632875160376
  0
VERTEX
  5
260B
  8
SAPA_FOGBAND
 10
-31.722117795647328
 20
-7.655150572678969
 30
0.0
  0
VERTEX
  5
260C
  8
SAPA_FOGBAND
 10
-31.44577614966121
 20
-7.8087885674677926
 30
0.0
 42
0.5719685712689121
  0
VERTEX
  5
260D
  8
SAPA_FOGBAND
 10
-30.999999999950401
 20
-7.5465876632444022
 30
0.0
  0
VERTEX
  5
260E
  8
SAPA_FOGBAND
 10
-30.99999999995018
 20
-4.8000000019650377
 30
0.0
 42
0.4142135623730118
  0
VERTEX
  5
260F
  8
SAPA_FOGBAND
 10
-31.299999999950131
 20
-4.5000000019648558
 30
0.0
  0
VERTEX
  5
2610
  8
SAPA_FOGBAND
 10
-32.699999999950222
 20
-4.5000000019650841
 30
0.0
 42
-0.7754026414785753
  0
VERTEX
  5
2611
  8
SAPA_FOGBAND
 10
-32.844707868256108
 20
-3.9372080065571771
 30
0.0
  0
VERTEX
  5
2612
  8
SAPA_FOGBAND
 10
-25.501101552775459
 20
-0.2263232026260837
 30
0.0
 42
-0.8680589103333867
  0
VERTEX
  5
2613
  8
SAPA_FOGBAND
 10
-25.144261650113521
 20
-0.7012472323898537
 30
0.0
  0
VERTEX
  5
2614
  8
SAPA_FOGBAND
 10
-28.20710678113662
 20
-4.2321192748819447
 30
0.0
 42
0.1989123673796493
  0
SEQEND
  5
2615
  8
SAPA_FOGBAND
  0
LINE
  5
1429
  8
SAPA_FOGBAND
 10
-55.999999957889003
 20
0.5012846324048539
 30
0.0
 11
-55.999999957889003
 21
0.5012846324048539
 31
0.0
  0
POLYLINE
  5
142A
  8
SAPA_FOGBAND
 66
     1
 10
0.0
 20
0.0
 30
0.0
 70
   129
  0
VERTEX
  5
2616
  8
SAPA_FOGBAND
 10
-109.2616023093728
 20
-31.981572811425082
 30
0.0
  0
VERTEX
  5
2617
  8
SAPA_FOGBAND
 10
-109.295367309667
 20
-31.823436706292838
 30
0.0
  0
VERTEX
  5
2618
  8
SAPA_FOGBAND
 10
-109.4092930477979
 20
-31.649919873871831
 30
0.0
  0
VERTEX
  5
2619
  8
SAPA_FOGBAND
 10
-109.61689353640141
 20
-31.469831982135691
 30
0.0
  0
VERTEX
  5
261A
  8
SAPA_FOGBAND
 10
-109.9153139485401
 20
-31.300126755311268
 30
0.0
  0
VERTEX
  5
261B
  8
SAPA_FOGBAND
 10
-110.29221360991581
 20
-31.154073317337929
 30
0.0
  0
VERTEX
  5
261C
  8
SAPA_FOGBAND
 10
-110.7314540121172
 20
-31.040661933157651
 30
0.0
  0
VERTEX
  5
261D
  8
SAPA_FOGBAND
 10
-111.2149689890239
 20
-30.965822455004119
 30
0.0
  0
VERTEX
  5
261E
  8
SAPA_FOGBAND
 10
-111.7234782720659
 20
-30.933125507535578
 30
0.0
  0
VERTEX
  5
261F
  8
SAPA_FOGBAND
 10
-112.237020947492
 20
-30.944065717288229
 30
0.0
  0
VERTEX
  5
2620
  8
SAPA_FOGBAND
 10
-112.7354980923235
 20
-30.998146920575032
 30
0.0
  0
VERTEX
  5
2621
  8
SAPA_FOGBAND
 10
-113.1992227239524
 20
-31.09285600162103
 30
0.0
  0
VERTEX
  5
2622
  8
SAPA_FOGBAND
 10
-113.6094526504278
 20
-31.223497561339581
 30
0.0
  0
VERTEX
  5
2623
  8
SAPA_FOGBAND
 10
-113.9489638094332
 20
-31.382736484058121
 30
0.0
  0
VERTEX
  5
2624
  8
SAPA_FOGBAND
 10
-114.2031253002845
 20
-31.559601858181431
 30
0.0
  0
VERTEX
  5
2625
  8
SAPA_FOGBAND
 10
-114.36327960949311
 20
-31.738507923878569
 30
0.0
  0
VERTEX
  5
2626
  8
SAPA_FOGBAND
 10
-114.4346076824431
 20
-31.904015050030939
 30
0.0
  0
VERTEX
  5
2627
  8
SAPA_FOGBAND
 10
-114.4346076824431
 20
-32.059130572819441
 30
0.0
  0
VERTEX
  5
2628
  8
SAPA_FOGBAND
 10
-114.36327960949311
 20
-32.224637698972032
 30
0.0
  0
VERTEX
  5
2629
  8
SAPA_FOGBAND
 10
-114.2031253002845
 20
-32.403543764669138
 30
0.0
  0
VERTEX
  5
262A
  8
SAPA_FOGBAND
 10
-113.9489638094332
 20
-32.58040913879244
 30
0.0
  0
VERTEX
  5
262B
  8
SAPA_FOGBAND
 10
-113.6094526504279
 20
-32.739648061510742
 30
0.0
  0
VERTEX
  5
262C
  8
SAPA_FOGBAND
 10
-113.1992227239524
 20
-32.870289621229098
 30
0.0
  0
VERTEX
  5
262D
  8
SAPA_FOGBAND
 10
-112.7354980923235
 20
-32.964998702275551
 30
0.0
  0
VERTEX
  5
262E
  8
SAPA_FOGBAND
 10
-112.237020947492
 20
-33.019079905562123
 30
0.0
  0
VERTEX
  5
262F
  8
SAPA_FOGBAND
 10
-111.7234782720659
 20
-33.03002011531499
 30
0.0
  0
VERTEX
  5
2630
  8
SAPA_FOGBAND
 10
-111.2149689890239
 20
-32.99732316784646
 30
0.0
  0
VERTEX
  5
2631
  8
SAPA_FOGBAND
 10
-110.7314540121173
 20
-32.922483689692939
 30
0.0
  0
VERTEX
  5
2632
  8
SAPA_FOGBAND
 10
-110.2922136099159
 20
-32.809072305512238
 30
0.0
  0
VERTEX
  5
2633
  8
SAPA_FOGBAND
 10
-109.9153139485401
 20
-32.663018867538852
 30
0.0
  0
VERTEX
  5
2634
  8
SAPA_FOGBAND
 10
-109.61689353640131
 20
-32.493313640714412
 30
0.0
  0
VERTEX
  5
2635
  8
SAPA_FOGBAND
 10
-109.4092930477978
 20
-32.313225748978468
 30
0.0
  0
VERTEX
  5
2636
  8
SAPA_FOGBAND
 10
-109.295367309667
 20
-32.139708916557531
 30
0.0
  0
SEQEND
  5
2637
  8
SAPA_FOGBAND
  0
POLYLINE
  5
142B
  8
SAPA_FOGBAND
 66
     1
 10
0.0
 20
0.0
 30
0.0
  0
VERTEX
  5
2638
  8
SAPA_FOGBAND
 10
-123.5517482504891
 20
-86.163511128413049
 30
0.0
 42
-0.285714285714282
  0
VERTEX
  5
2639
  8
SAPA_FOGBAND
 10
-120.7517482504889
 20
-86.163511128413049
 30
0.0
  0
VERTEX
  5
263A
  8
SAPA_FOGBAND
 10
-118.6779680811012
 20
-86.163511128412608
 30
0.0
 42
0.3882600129940275
  0
VERTEX
  5
263B
  8
SAPA_FOGBAND
 10
-118.3791665837596
 20
-85.89030040213305
 30
0.0
  0
VERTEX
  5
263C
  8
SAPA_FOGBAND
 10
-117.9129566598333
 20
-80.990300402132959
 30
0.0
 42
0.4406523138893894
  0
VERTEX
  5
263D
  8
SAPA_FOGBAND
 10
-118.2117581571754
 20
-80.663511128413063
 30
0.0
  0
VERTEX
  5
263E
  8
SAPA_FOGBAND
 10
-119.9215501540955
 20
-80.663511128413063
 30
0.0
 42
0.3394542588634375
  0
VERTEX
  5
263F
  8
SAPA_FOGBAND
 10
-120.2113279019821
 20
-80.885865414882062
 30
0.0
  0
VERTEX
  5
2640
  8
SAPA_FOGBAND
 10
-120.4137076299137
 20
-81.103451197049637
 30
0.0
 42
-0.3394542588633663
  0
VERTEX
  5
2641
  8
SAPA_FOGBAND
 10
-120.70348537780031
 20
-81.325805483518664
 30
0.0
  0
VERTEX
  5
2642
  8
SAPA_FOGBAND
 10
-123.60001112317811
 20
-81.325805483518664
 30
0.0
 42
-0.3394542588634373
  0
VERTEX
  5
2643
  8
SAPA_FOGBAND
 10
-123.8897888710647
 20
-81.103451197049637
 30
0.0
  0
VERTEX
  5
2644
  8
SAPA_FOGBAND
 10
-124.0921685989959
 20
-80.885865414882062
 30
0.0
 42
0.3394542588633662
  0
VERTEX
  5
2645
  8
SAPA_FOGBAND
 10
-124.3819463468829
 20
-80.663511128413063
 30
0.0
  0
VERTEX
  5
2646
  8
SAPA_FOGBAND
 10
-126.091738343803
 20
-80.663511128413063
 30
0.0
 42
0.4406523138893994
  0
VERTEX
  5
2647
  8
SAPA_FOGBAND
 10
-126.3905398411446
 20
-80.990300402132959
 30
0.0
  0
VERTEX
  5
2648
  8
SAPA_FOGBAND
 10
-125.9243299172183
 20
-85.89030040213305
 30
0.0
 42
0.3882600129940462
  0
VERTEX
  5
2649
  8
SAPA_FOGBAND
 10
-125.6255284198767
 20
-86.163511128413049
 30
0.0
  0
VERTEX
  5
264A
  8
SAPA_FOGBAND
 10
-123.5633406273394
 20
-86.163511128413049
 30
0.0
  0
SEQEND
  5
264B
  8
SAPA_FOGBAND
  0
POLYLINE
  5
142C
  8
SAPA_FOGBAND
 66
     1
 10
0.0
 20
0.0
 30
0.0
 70
   129
  0
VERTEX
  5
264C
  8
SAPA_FOGBAND
 10
-116.9862618261453
 20
-30.817244727838869
 30
0.0
  0
VERTEX
  5
264D
  8
SAPA_FOGBAND
 10
-117.0200268264396
 20
-30.659108622706629
 30
0.0
  0
VERTEX
  5
264E
  8
SAPA_FOGBAND
 10
-117.13395256457051
 20
-30.485591790285621
 30
0.0
  0
VERTEX
  5
264F
  8
SAPA_FOGBAND
 10
-117.3415530531739
 20
-30.305503898549478
 30
0.0
  0
VERTEX
  5
2650
  8
SAPA_FOGBAND
 10
-117.63997346531281
 20
-30.135798671725059
 30
0.0
  0
VERTEX
  5
2651
  8
SAPA_FOGBAND
 10
-118.0168731266884
 20
-29.989745233751709
 30
0.0
  0
VERTEX
  5
2652
  8
SAPA_FOGBAND
 10
-118.4561135288898
 20
-29.876333849571431
 30
0.0
  0
VERTEX
  5
2653
  8
SAPA_FOGBAND
 10
-118.93962850579651
 20
-29.801494371417899
 30
0.0
  0
VERTEX
  5
2654
  8
SAPA_FOGBAND
 10
-119.44813778883859
 20
-29.768797423949369
 30
0.0
  0
VERTEX
  5
2655
  8
SAPA_FOGBAND
 10
-119.9616804642647
 20
-29.779737633702009
 30
0.0
  0
VERTEX
  5
2656
  8
SAPA_FOGBAND
 10
-120.4601576090962
 20
-29.833818836988812
 30
0.0
  0
VERTEX
  5
2657
  8
SAPA_FOGBAND
 10
-120.92388224072511
 20
-29.92852791803482
 30
0.0
  0
VERTEX
  5
2658
  8
SAPA_FOGBAND
 10
-121.3341121672004
 20
-30.059169477753361
 30
0.0
  0
VERTEX
  5
2659
  8
SAPA_FOGBAND
 10
-121.6736233262058
 20
-30.218408400471901
 30
0.0
  0
VERTEX
  5
265A
  8
SAPA_FOGBAND
 10
-121.9277848170571
 20
-30.395273774595221
 30
0.0
  0
VERTEX
  5
265B
  8
SAPA_FOGBAND
 10
-122.08793912626579
 20
-30.57417984029237
 30
0.0
  0
VERTEX
  5
265C
  8
SAPA_FOGBAND
 10
-122.15926719921571
 20
-30.739686966444729
 30
0.0
  0
VERTEX
  5
265D
  8
SAPA_FOGBAND
 10
-122.15926719921571
 20
-30.894802489233239
 30
0.0
  0
VERTEX
  5
265E
  8
SAPA_FOGBAND
 10
-122.08793912626579
 20
-31.060309615385808
 30
0.0
  0
VERTEX
  5
265F
  8
SAPA_FOGBAND
 10
-121.9277848170571
 20
-31.239215681082928
 30
0.0
  0
VERTEX
  5
2660
  8
SAPA_FOGBAND
 10
-121.6736233262058
 20
-31.41608105520622
 30
0.0
  0
VERTEX
  5
2661
  8
SAPA_FOGBAND
 10
-121.3341121672005
 20
-31.575319977924519
 30
0.0
  0
VERTEX
  5
2662
  8
SAPA_FOGBAND
 10
-120.92388224072511
 20
-31.705961537642889
 30
0.0
  0
VERTEX
  5
2663
  8
SAPA_FOGBAND
 10
-120.4601576090962
 20
-31.800670618689331
 30
0.0
  0
VERTEX
  5
2664
  8
SAPA_FOGBAND
 10
-119.9616804642646
 20
-31.85475182197591
 30
0.0
  0
VERTEX
  5
2665
  8
SAPA_FOGBAND
 10
-119.44813778883849
 20
-31.865692031728781
 30
0.0
  0
VERTEX
  5
2666
  8
SAPA_FOGBAND
 10
-118.93962850579651
 20
-31.832995084260251
 30
0.0
  0
VERTEX
  5
2667
  8
SAPA_FOGBAND
 10
-118.4561135288898
 20
-31.75815560610673
 30
0.0
  0
VERTEX
  5
2668
  8
SAPA_FOGBAND
 10
-118.01687312668849
 20
-31.644744221926029
 30
0.0
  0
VERTEX
  5
2669
  8
SAPA_FOGBAND
 10
-117.63997346531281
 20
-31.49869078395264
 30
0.0
  0
VERTEX
  5
266A
  8
SAPA_FOGBAND
 10
-117.3415530531739
 20
-31.328985557128188
 30
0.0
  0
VERTEX
  5
266B
  8
SAPA_FOGBAND
 10
-117.13395256457039
 20
-31.148897665392258
 30
0.0
  0
VERTEX
  5
266C
  8
SAPA_FOGBAND
 10
-117.0200268264396
 20
-30.975380832971322
 30
0.0
  0
SEQEND
  5
266D
  8
SAPA_FOGBAND
  0
POLYLINE
  5
142D
  8
SAPA_FOGBAND
 66
     1
 10
0.0
 20
0.0
 30
0.0
 70
     1
  0
VERTEX
  5
266E
  8
SAPA_FOGBAND
 10
-103.295375813597
 20
-32.838714290911817
 30
0.0
 42
-0.3915187749346351
  0
VERTEX
  5
266F
  8
SAPA_FOGBAND
 10
-104.2173535133704
 20
-33.835665904917228
 30
0.0
  0
VERTEX
  5
2670
  8
SAPA_FOGBAND
 10
-112.2759000141847
 20
-34.661986935415783
 30
0.0
 42
-0.0195279011117888
  0
VERTEX
  5
2671
  8
SAPA_FOGBAND
 10
-112.314911164298
 20
-34.66351112841307
 30
0.0
  0
VERTEX
  5
2672
  8
SAPA_FOGBAND
 10
-125.99537581359679
 20
-34.66351112841307
 30
0.0
 42
-0.4279663351069072
  0
VERTEX
  5
2673
  8
SAPA_FOGBAND
 10
-126.2950483813167
 20
-34.349498557053671
 30
0.0
  0
VERTEX
  5
2674
  8
SAPA_FOGBAND
 10
-125.8087484732371
 20
-26.96105829665516
 30
0.0
 42
-0.4005932428724028
  0
VERTEX
  5
2675
  8
SAPA_FOGBAND
 10
-125.50907590551719
 20
-26.675070868014199
 30
0.0
  0
VERTEX
  5
2676
  8
SAPA_FOGBAND
 10
-123.6953758135967
 20
-26.675070868014199
 30
0.0
  0
VERTEX
  5
2677
  8
SAPA_FOGBAND
 10
-123.6953758135967
 20
-24.975070868014381
 30
0.0
 42
-0.4142135623730951
  0
VERTEX
  5
2678
  8
SAPA_FOGBAND
 10
-123.3953758135965
 20
-24.675070868014199
 30
0.0
  0
VERTEX
  5
2679
  8
SAPA_FOGBAND
 10
-115.9765950499711
 20
-24.675070868014199
 30
0.0
 42
-0.1379343940649189
  0
VERTEX
  5
267A
  8
SAPA_FOGBAND
 10
-115.4553767409222
 20
-24.821647482869089
 30
0.0
  0
VERTEX
  5
267B
  8
SAPA_FOGBAND
 10
-103.5347666590725
 20
-31.62886572077737
 30
0.0
 42
-0.2613472755167633
  0
VERTEX
  5
267C
  8
SAPA_FOGBAND
 10
-103.295375813597
 20
-32.055577413349923
 30
0.0
  0
SEQEND
  5
267D
  8
SAPA_FOGBAND
  0
POLYLINE
  5
142E
  8
SAPA_FOGBAND
 66
     1
 10
0.0
 20
0.0
 30
0.0
  0
VERTEX
  5
267E
  8
SAPA_FOGBAND
 10
-123.5633406273394
 20
-86.163511128413049
 30
0.0
  0
VERTEX
  5
267F
  8
SAPA_FOGBAND
 10
-123.3709822073468
 20
-87.254429938565806
 30
0.0
  0
VERTEX
  5
2680
  8
SAPA_FOGBAND
 10
-123.8027787672488
 20
-87.370129478085744
 30
0.0
 42
0.4430158954262519
  0
VERTEX
  5
2681
  8
SAPA_FOGBAND
 10
-123.9382558147925
 20
-87.633605906192713
 30
0.0
  0
VERTEX
  5
2682
  8
SAPA_FOGBAND
 10
-123.4613076215735
 20
-88.904093654110909
 30
0.0
 42
0.3125358528825162
  0
VERTEX
  5
2683
  8
SAPA_FOGBAND
 10
-123.0868259084443
 20
-89.163511128412594
 30
0.0
  0
VERTEX
  5
2684
  8
SAPA_FOGBAND
 10
-121.216670592534
 20
-89.163511128413063
 30
0.0
 42
0.3125358528825104
  0
VERTEX
  5
2685
  8
SAPA_FOGBAND
 10
-120.8421888794044
 20
-88.904093654110909
 30
0.0
  0
VERTEX
  5
2686
  8
SAPA_FOGBAND
 10
-120.3652406861855
 20
-87.633605906192713
 30
0.0
 42
0.4430158954262519
  0
VERTEX
  5
2687
  8
SAPA_FOGBAND
 10
-120.5007177337295
 20
-87.370129478085744
 30
0.0
  0
VERTEX
  5
2688
  8
SAPA_FOGBAND
 10
-120.9325142936312
 20
-87.254429938565806
 30
0.0
  0
VERTEX
  5
2689
  8
SAPA_FOGBAND
 10
-120.7433704372886
 20
-86.18174182479828
 30
0.0
  0
SEQEND
  5
268A
  8
SAPA_FOGBAND
  0
DIMENSION
  5
1437
  8
SAPA_MATT
  2
*D84
 10
-125.4999997021782
 20
-134.4999999990105
 30
0.0
 11
-106.7499997021782
 21
-131.7499999990105
 31
0.0
 70
     0
 13
-87.999999702178158
 23
-89.498715301570087
 33
0.0
 14
-125.4999997021782
 24
-87.500000006768317
 34
0.0
 50
180.0
1001
ACAD
1000
DSTYLE
1002
{
1070
    40
1040
1.0
1002
}
  0
DIMENSION
  5
1438
  8
SAPA_MATT
  2
*D83
 10
-87.999999702178158
 20
-134.4999999990105
 30
0.0
 11
-85.499999851060736
 21
-134.4999999990105
 31
0.0
 70
   128
  1
5
 13
-82.999999999943299
 23
-89.998715170683141
 33
0.0
 14
-87.999999702178158
 24
-89.998715301570087
 34
0.0
 50
180.0
1001
ACAD
1000
DSTYLE
1002
{
1070
    40
1040
1.0
1070
   271
1070
     6
1002
}
  0
DIMENSION
  5
1439
  8
SAPA_MATT
  2
*D82
 10
-25.000000000097859
 20
-134.49999999901041
 30
0.0
 11
-54.000000000020577
 21
-131.74999999901041
 31
0.0
 70
     0
 13
-82.999999999943299
 23
-89.998715170683141
 33
0.0
 14
-25.000000000097859
 24
-113.9999999990104
 34
0.0
 50
180.0
1001
ACAD
1000
DSTYLE
1002
{
1070
    40
1040
1.0
1002
}
  0
DIMENSION
  5
143A
  8
SAPA_MATT
  2
*D81
 10
-24.999999999999091
 20
-134.49999999901041
 30
0.0
 11
0.0000000000009097
 21
-131.74999999901041
 31
0.0
 70
     0
 13
25.000000000000909
 23
-113.9999999990104
 33
0.0
 14
-24.999999999999091
 24
-113.9999999990104
 34
0.0
 50
180.0
1001
ACAD
1000
DSTYLE
1002
{
1070
    40
1040
1.0
1002
}
  0
VIEWPORT
  5
C4
 67
     1
  8
0
 10
143.06236603067589
 20
116.00969601843509
 30
0.0
 40
369.98580003443811
 41
256.8421457311839
 68
     1
 69
     1
1001
ACAD
1000
MVIEW
1002
{
1070
    16
1010
0.0
1020
0.0
1030
0.0
1010
0.0
1020
0.0
1030
1.0
1040
0.0
1040
256.8421457311839
1040
99.112914085388169
1040
143.07606935501099
1040
50.0
1040
0.0
1040
0.0
1070
     0
1070
     0
1070
     1
1070
     1
1070
     0
1070
     0
1070
     0
1070
     0
1040
0.0
1040
0.0
1040
0.0
1040
10.0
1040
10.0
1040
10.0
1040
10.0
1070
     0
1002
{
1002
}
1002
}
  0
ENDSEC
  0
EOF
