  0
SECTION
  2
HEADER
  9
$ACADVER
  1
AC1009
  9
$INSBASE
 10
0.0
 20
0.0
 30
0.0
  9
$EXTMIN
 10
-48.114456713577063
 20
-127.3557794594702
 30
-0.2
  9
$EXTMAX
 10
183.00000000000011
 20
86.711765638890114
 30
0.1
  9
$LIMMIN
 10
0.0
 20
0.0
  9
$LIMMAX
 10
790.0
 20
790.0
  9
$ORTHOMODE
 70
     1
  9
$REGENMODE
 70
     1
  9
$FILLMODE
 70
     1
  9
$QTEXTMODE
 70
     0
  9
$MIRRTEXT
 70
     1
  9
$DRAGMODE
 70
     2
  9
$LTSCALE
 40
4.0
  9
$OSMODE
 70
   167
  9
$ATTMODE
 70
     1
  9
$TEXTSIZE
 40
3.5
  9
$TRACEWID
 40
0.05
  9
$TEXTSTYLE
  7
ISO
  9
$CLAYER
  8
0
  9
$CELTYPE
  6
BYLAYER
  9
$CECOLOR
 62
   256
  9
$DIMSCALE
 40
0.0
  9
$DIMASZ
 40
3.0
  9
$DIMEXO
 40
1.5
  9
$DIMDLI
 40
10.0
  9
$DIMRND
 40
0.0
  9
$DIMDLE
 40
0.0
  9
$DIMEXE
 40
1.5
  9
$DIMTP
 40
0.0
  9
$DIMTM
 40
0.0
  9
$DIMTXT
 40
3.0
  9
$DIMCEN
 40
-5.0
  9
$DIMTSZ
 40
0.0
  9
$DIMTOL
 70
     0
  9
$DIMLIM
 70
     0
  9
$DIMTIH
 70
     0
  9
$DIMTOH
 70
     0
  9
$DIMSE1
 70
     0
  9
$DIMSE2
 70
     0
  9
$DIMTAD
 70
     1
  9
$DIMZIN
 70
     8
  9
$DIMBLK
  1

  9
$DIMASO
 70
     1
  9
$DIMSHO
 70
     1
  9
$DIMPOST
  1

  9
$DIMAPOST
  1

  9
$DIMALT
 70
     0
  9
$DIMALTD
 70
     0
  9
$DIMALTF
 40
25.399999999999999
  9
$DIMLFAC
 40
-1.0
  9
$DIMTOFL
 70
     1
  9
$DIMTVP
 40
0.0
  9
$DIMTIX
 70
     0
  9
$DIMSOXD
 70
     0
  9
$DIMSAH
 70
     0
  9
$DIMBLK1
  1

  9
$DIMBLK2
  1

  9
$DIMSTYLE
  2
MASKIN
  9
$DIMCLRD
 70
   256
  9
$DIMCLRE
 70
   256
  9
$DIMCLRT
 70
     2
  9
$DIMTFAC
 40
1.0
  9
$DIMGAP
 40
1.0
  9
$LUNITS
 70
     2
  9
$LUPREC
 70
     8
  9
$SKETCHINC
 40
0.1
  9
$FILLETRAD
 40
0.0
  9
$AUNITS
 70
     0
  9
$AUPREC
 70
     8
  9
$MENU
  1
ACAD
  9
$ELEVATION
 40
0.0
  9
$PELEVATION
 40
0.0
  9
$THICKNESS
 40
0.0
  9
$LIMCHECK
 70
     0
  9
$BLIPMODE
 70
     0
  9
$CHAMFERA
 40
0.0
  9
$CHAMFERB
 40
0.0
  9
$SKPOLY
 70
     0
  9
$TDCREATE
 40
2454868.6656568749
  9
$TDUPDATE
 40
2456938.6740341089
  9
$TDINDWG
 40
0.0084475463
  9
$TDUSRTIMER
 40
0.0084473611
  9
$USRTIMER
 70
     1
  9
$ANGBASE
 50
0.0
  9
$ANGDIR
 70
     0
  9
$PDMODE
 70
     0
  9
$PDSIZE
 40
0.0
  9
$PLINEWID
 40
0.0
  9
$COORDS
 70
     1
  9
$SPLFRAME
 70
     0
  9
$SPLINETYPE
 70
     6
  9
$SPLINESEGS
 70
     8
  9
$ATTDIA
 70
     0
  9
$ATTREQ
 70
     1
  9
$HANDLING
 70
     1
  9
$HANDSEED
  5
2555
  9
$SURFTAB1
 70
     6
  9
$SURFTAB2
 70
     6
  9
$SURFTYPE
 70
     6
  9
$SURFU
 70
     6
  9
$SURFV
 70
     6
  9
$UCSNAME
  2

  9
$UCSORG
 10
0.0
 20
0.0
 30
0.0
  9
$UCSXDIR
 10
1.0
 20
0.0
 30
0.0
  9
$UCSYDIR
 10
0.0
 20
1.0
 30
0.0
  9
$PUCSNAME
  2

  9
$PUCSORG
 10
0.0
 20
0.0
 30
0.0
  9
$PUCSXDIR
 10
1.0
 20
0.0
 30
0.0
  9
$PUCSYDIR
 10
0.0
 20
1.0
 30
0.0
  9
$USERI1
 70
     0
  9
$USERI2
 70
     0
  9
$USERI3
 70
     0
  9
$USERI4
 70
     0
  9
$USERI5
 70
     0
  9
$USERR1
 40
0.0
  9
$USERR2
 40
0.0
  9
$USERR3
 40
0.0
  9
$USERR4
 40
0.0
  9
$USERR5
 40
0.0
  9
$WORLDVIEW
 70
     1
  9
$SHADEDGE
 70
     3
  9
$SHADEDIF
 70
    70
  9
$TILEMODE
 70
     1
  9
$MAXACTVP
 70
    16
  9
$PLIMCHECK
 70
     0
  9
$PEXTMIN
 10
1.0000000000000000E+020
 20
1.0000000000000000E+020
 30
1.0000000000000000E+020
  9
$PEXTMAX
 10
-1.0000000000000000E+020
 20
-1.0000000000000000E+020
 30
-1.0000000000000000E+020
  9
$PLIMMIN
 10
-5.069427490234375
 20
-5.8737497329711914
  9
$PLIMMAX
 10
291.89889526367187
 20
204.0995779037475
  9
$UNITMODE
 70
     0
  9
$VISRETAIN
 70
     1
  9
$PLINEGEN
 70
     0
  9
$PSLTSCALE
 70
     1
  0
ENDSEC
  0
SECTION
  2
TABLES
  0
TABLE
  2
VPORT
 70
     1
  0
VPORT
  2
*ACTIVE
 70
     0
 10
0.0
 20
0.0
 11
1.0
 21
1.0
 12
108.918674985259
 22
121.745372666031
 13
0.0
 23
0.0
 14
1.0
 24
1.0
 15
0.0
 25
0.0
 16
0.0
 26
0.0
 36
1.0
 17
0.0
 27
0.0
 37
0.0
 40
147.81498917961071
 41
3.6598639455782309
 42
50.0
 43
0.0
 44
0.0
 50
0.0
 51
0.0
 71
     0
 72
   100
 73
     1
 74
     1
 75
     0
 76
     0
 77
     0
 78
     0
  0
ENDTAB
  0
TABLE
  2
LTYPE
 70
    35
  0
LTYPE
  2
CONTINUOUS
 70
     0
  3
Solid line
 72
    65
 73
     0
 40
0.0
  0
LTYPE
  2
BYGG-01482201$0$NEWDOT
 70
     0
  3
____ . ____ . ____ . ____ . ____ . ____ . ____
 72
    65
 73
     4
 40
2.0
 49
1.0
 49
-0.5
 49
0.0
 49
-0.5
  0
LTYPE
  2
BYGG-014357$0$NEWDOT
 70
     0
  3
____ . ____ . ____ . ____ . ____ . ____ . ____
 72
    65
 73
     4
 40
2.0
 49
1.0
 49
-0.5
 49
0.0
 49
-0.5
  0
LTYPE
  2
BYGG-014357$0$DASHDOT
 70
     0
  3
__ . __ . __ . __ . __ . __ . __ . __ . __ . __
 72
    65
 73
     4
 40
1.0
 49
0.5
 49
-0.25
 49
0.0
 49
-0.25
  0
LTYPE
  2
BYGG-014357$0$DASHED
 70
     0
  3
__ __ __ __ __ __ __ __ __ __ __ __ __ __ __
 72
    65
 73
     2
 40
0.75
 49
0.5
 49
-0.25
  0
LTYPE
  2
BYGG-014412$0$NEWDOT
 70
     0
  3
____ . ____ . ____ . ____ . ____ . ____ . ____
 72
    65
 73
     4
 40
2.0
 49
1.0
 49
-0.5
 49
0.0
 49
-0.5
  0
LTYPE
  2
BYGG-014279$0$NEWDOT
 70
     0
  3
____ . ____ . ____ . ____ . ____ . ____ . ____
 72
    65
 73
     4
 40
2.0
 49
1.0
 49
-0.5
 49
0.0
 49
-0.5
  0
LTYPE
  2
BYGG-01482201$0$ZIGZAG
 70
     0
  3
Zig zag /\/\/\/\/\/\/\/\/\/\/\/\/\/\/\/\/\/\/\/\/\/\/\/
 72
    65
 73
     4
 40
20.32254
 49
0.00254
 49
-5.0800000000000001
 49
-10.16
 49
-5.0800000000000001
  0
LTYPE
  2
BYGG-021523$0$DASHDOT
 70
     0
  3
__ . __ . __ . __ . __ . __ . __ . __ . __ . __
 72
    65
 73
     4
 40
1.0
 49
0.5
 49
-0.25
 49
0.0
 49
-0.25
  0
LTYPE
  2
BYGG-025060$0$NEWDOT
 70
     0
  3
____ . ____ . ____ . ____ . ____ . ____ . ____
 72
    65
 73
     4
 40
2.0
 49
1.0
 49
-0.5
 49
0.0
 49
-0.5
  0
LTYPE
  2
BYGG-012216$0$DASHDOT
 70
     0
  3
__ . __ . __ . __ . __ . __ . __ . __ . __ . __
 72
    65
 73
     4
 40
1.0
 49
0.5
 49
-0.25
 49
0.0
 49
-0.25
  0
LTYPE
  2
BYGG-020805$0$NEWDOT
 70
     0
  3
____ . ____ . ____ . ____ . ____ . ____ . ____
 72
    65
 73
     4
 40
2.0
 49
1.0
 49
-0.5
 49
0.0
 49
-0.5
  0
LTYPE
  2
BYGG-020805$0$DASHDOT
 70
     0
  3
__ . __ . __ . __ . __ . __ . __ . __ . __ . __
 72
    65
 73
     4
 40
1.0
 49
0.5
 49
-0.25
 49
0.0
 49
-0.25
  0
LTYPE
  2
BYGG-020805$0$DASHED
 70
     0
  3
__ __ __ __ __ __ __ __ __ __ __ __ __ __ __
 72
    65
 73
     2
 40
0.75
 49
0.5
 49
-0.25
  0
LTYPE
  2
BYGG-020805$0$PHANTOM
 70
     0
  3
Phantom ______  __  __  ______  __  __  ______
 72
    65
 73
     6
 40
63.5
 49
31.75
 49
-6.3499999999999988
 49
6.3499999999999988
 49
-6.3499999999999988
 49
6.3499999999999988
 49
-6.3499999999999988
  0
LTYPE
  2
BYGG-021526$0$DASHDOT
 70
     0
  3
__ . __ . __ . __ . __ . __ . __ . __ . __ . __
 72
    65
 73
     4
 40
1.0
 49
0.5
 49
-0.25
 49
0.0
 49
-0.25
  0
LTYPE
  2
BYGG-024800$0$NEWDOT
 70
     0
  3
____ . ____ . ____ . ____ . ____ . ____ . ____
 72
    65
 73
     4
 40
2.0
 49
1.0
 49
-0.5
 49
0.0
 49
-0.5
  0
LTYPE
  2
BYGG-024807$0$NEWDOT
 70
     0
  3
____ . ____ . ____ . ____ . ____ . ____ . ____
 72
    65
 73
     4
 40
2.0
 49
1.0
 49
-0.5
 49
0.0
 49
-0.5
  0
LTYPE
  2
BYGG-024807$0$DASHDOT
 70
     0
  3
__ . __ . __ . __ . __ . __ . __ . __ . __ . __
 72
    65
 73
     4
 40
1.0
 49
0.5
 49
-0.25
 49
0.0
 49
-0.25
  0
LTYPE
  2
BYGG-014412$0$ZIGZAG
 70
     0
  3
Zig zag /\/\/\/\/\/\/\/\/\/\/\/\/\/\/\/\/\/\/\/\/\/\/\/
 72
    65
 73
     4
 40
20.32254
 49
0.00254
 49
-5.0800000000000001
 49
-10.16
 49
-5.0800000000000001
  0
LTYPE
  2
BYGG-014279$0$ZIGZAG
 70
     0
  3
Zig zag /\/\/\/\/\/\/\/\/\/\/\/\/\/\/\/\/\/\/\/\/\/\/\/
 72
    65
 73
     4
 40
20.32254
 49
0.00254
 49
-5.0800000000000001
 49
-10.16
 49
-5.0800000000000001
  0
LTYPE
  2
BYGG-033167$0$NEWDOT
 70
     0
  3
____ . ____ . ____ . ____ . ____ . ____ . ____
 72
    65
 73
     4
 40
2.0
 49
1.0
 49
-0.5
 49
0.0
 49
-0.5
  0
LTYPE
  2
BYGG-033167$0$DASHDOT
 70
     0
  3
__ . __ . __ . __ . __ . __ . __ . __ . __ . __
 72
    65
 73
     4
 40
1.0
 49
0.5
 49
-0.25
 49
0.0
 49
-0.25
  0
LTYPE
  2
BYGG-033167$0$DASHED
 70
     0
  3
__ __ __ __ __ __ __ __ __ __ __ __ __ __ __
 72
    65
 73
     2
 40
0.75
 49
0.5
 49
-0.25
  0
LTYPE
  2
BYGG-033167$0$PHANTOM
 70
     0
  3
Phantom ______  __  __  ______  __  __  ______
 72
    65
 73
     6
 40
63.5
 49
31.75
 49
-6.3499999999999988
 49
6.3499999999999988
 49
-6.3499999999999988
 49
6.3499999999999988
 49
-6.3499999999999988
  0
LTYPE
  2
BYGG-033167$0$BYGG-020132$
 70
     0
  3
____ . ____ . ____ . ____ . ____ . ____ . ____
 72
    65
 73
     4
 40
2.0
 49
1.0
 49
-0.5
 49
0.0
 49
-0.5
  0
LTYPE
  2
BYGG-033167$0$BYGG-024943$
 70
     0
  3
____ . ____ . ____ . ____ . ____ . ____ . ____
 72
    65
 73
     4
 40
2.0
 49
1.0
 49
-0.5
 49
0.0
 49
-0.5
  0
LTYPE
  2
BYGG-026410$0$NEWDOT
 70
     0
  3
____ . ____ . ____ . ____ . ____ . ____ . ____
 72
    65
 73
     4
 40
2.0
 49
1.0
 49
-0.5
 49
0.0
 49
-0.5
  0
LTYPE
  2
BYGG-026410$0$DASHDOT
 70
     0
  3
__ . __ . __ . __ . __ . __ . __ . __ . __ . __
 72
    65
 73
     4
 40
1.0
 49
0.5
 49
-0.25
 49
0.0
 49
-0.25
  0
LTYPE
  2
BYGG-026410$0$DASHED
 70
     0
  3
__ __ __ __ __ __ __ __ __ __ __ __ __ __ __
 72
    65
 73
     2
 40
0.75
 49
0.5
 49
-0.25
  0
LTYPE
  2
BYGG-026410$0$PHANTOM
 70
     0
  3
Phantom ______  __  __  ______  __  __  ______
 72
    65
 73
     6
 40
63.5
 49
31.75
 49
-6.3499999999999988
 49
6.3499999999999988
 49
-6.3499999999999988
 49
6.3499999999999988
 49
-6.3499999999999988
  0
LTYPE
  2
BYGG-021523$0$PHANTOM2
 70
     0
  3
Phantom (.5x) ___ _ _ ___ _ _ ___ _ _ ___ _ _
 72
    65
 73
     6
 40
1.25
 49
0.625
 49
-0.125
 49
0.125
 49
-0.125
 49
0.125
 49
-0.125
  0
LTYPE
  2
BYGG-025060$0$DASHDOT
 70
     0
  3
__ . __ . __ . __ . __ . __ . __ . __ . __ . __
 72
    65
 73
     4
 40
1.0
 49
0.5
 49
-0.25
 49
0.0
 49
-0.25
  0
LTYPE
  2
BYGG-024800$0$DASHDOT
 70
     0
  3
__ . __ . __ . __ . __ . __ . __ . __ . __ . __
 72
    65
 73
     4
 40
1.0
 49
0.5
 49
-0.25
 49
0.0
 49
-0.25
  0
LTYPE
  2
BYGG-014412$0$PHANTOM2
 70
     0
  3
Phantom (.5x) ___ _ _ ___ _ _ ___ _ _ ___ _ _
 72
    65
 73
     6
 40
1.25
 49
0.625
 49
-0.125
 49
0.125
 49
-0.125
 49
0.125
 49
-0.125
  0
ENDTAB
  0
TABLE
  2
LAYER
 70
   227
  0
LAYER
  2
0
 70
     0
 62
     7
  6
CONTINUOUS
  0
LAYER
  2
DEFPOINTS
 70
     0
 62
     7
  6
CONTINUOUS
  0
LAYER
  2
SAPA_ARTIKELNR
 70
     0
 62
     4
  6
CONTINUOUS
  0
LAYER
  2
SAPA_LIGHT
 70
     1
 62
     1
  6
CONTINUOUS
  0
LAYER
  2
SAPA_ISOLATOR
 70
     0
 62
     4
  6
CONTINUOUS
  0
LAYER
  2
SAPA_MATT
 70
     0
 62
     1
  6
CONTINUOUS
  0
LAYER
  2
SAPA_GLAS
 70
     0
 62
     4
  6
CONTINUOUS
  0
LAYER
  2
SAPA_FOGBAND
 70
     0
 62
     2
  6
CONTINUOUS
  0
LAYER
  2
SAPA_PROFIL
 70
     0
 62
     7
  6
CONTINUOUS
  0
ENDTAB
  0
TABLE
  2
STYLE
 70
    50
  0
STYLE
  2
STANDARD
 70
     0
 40
0.0
 41
1.0
 50
0.0
 71
     0
 42
0.2
  3
txt
  4

  0
STYLE
  2
ISO
 70
     0
 40
0.0
 41
1.0
 50
0.0
 71
     0
 42
3.5
  3
txt
  4

  0
STYLE
  2

 70
     1
 40
0.0
 41
1.0
 50
0.0
 71
     0
 42
0.2
  3
ltypeshp.shx
  4

  0
STYLE
  2
BYGG-021589$0$STANDARD
 70
     0
 40
0.0
 41
1.0
 50
0.0
 71
     0
 42
0.2
  3
txt
  4

  0
STYLE
  2
BYGG-021589$0$ISO
 70
     0
 40
0.0
 41
1.0
 50
0.0
 71
     0
 42
3.5
  3
isocp3.shx
  4

  0
STYLE
  2
BYGG-01482201$0$STANDARD
 70
     0
 40
0.0
 41
1.0
 50
0.0
 71
     0
 42
0.2
  3
txt
  4

  0
STYLE
  2
BYGG-01482201$0$ISO
 70
     0
 40
0.0
 41
1.0
 50
0.0
 71
     0
 42
3.5
  3
isocp3.shx
  4

  0
STYLE
  2
BYGG-021802$0$STANDARD
 70
     0
 40
0.0
 41
1.0
 50
0.0
 71
     0
 42
0.2
  3
txt
  4

  0
STYLE
  2
BYGG-021802$0$ISO
 70
     0
 40
0.0
 41
1.0
 50
0.0
 71
     0
 42
3.5
  3
isocp3.shx
  4

  0
STYLE
  2
BYGG-014357$0$STANDARD
 70
     0
 40
0.0
 41
1.0
 50
0.0
 71
     0
 42
0.2
  3
txt
  4

  0
STYLE
  2
BYGG-014357$0$ISO
 70
     0
 40
0.0
 41
1.0
 50
0.0
 71
     0
 42
3.5
  3
isocp3.shx
  4

  0
STYLE
  2
BYGG-014063$0$STANDARD
 70
     0
 40
0.0
 41
1.0
 50
0.0
 71
     0
 42
0.2
  3
txt
  4

  0
STYLE
  2
BYGG-014063$0$ISO
 70
     0
 40
0.0
 41
1.0
 50
0.0
 71
     0
 42
3.5
  3
isocp3.shx
  4

  0
STYLE
  2
BYGG-022668$0$STANDARD
 70
     0
 40
0.0
 41
1.0
 50
0.0
 71
     0
 42
0.2
  3
txt
  4

  0
STYLE
  2
BYGG-022668$0$ISO
 70
     0
 40
0.0
 41
1.0
 50
0.0
 71
     0
 42
3.5
  3
txt
  4

  0
STYLE
  2
BYGG-021523$0$STANDARD
 70
     0
 40
0.0
 41
1.0
 50
0.0
 71
     0
 42
0.2
  3
txt
  4

  0
STYLE
  2
BYGG-021523$0$ISO
 70
     0
 40
0.0
 41
1.0
 50
0.0
 71
     0
 42
7.0
  3
ISO
  4

  0
STYLE
  2
BYGG-021523$0$ANNOTATIVE
 70
     0
 40
0.0
 41
1.0
 50
0.0
 71
     0
 42
0.2
  3
txt
  4

  0
STYLE
  2
BYGG-025060$0$STANDARD
 70
     0
 40
0.0
 41
1.0
 50
0.0
 71
     0
 42
0.2
  3
txt
  4

  0
STYLE
  2
BYGG-025060$0$ISO
 70
     0
 40
0.0
 41
1.0
 50
0.0
 71
     0
 42
3.5
  3
txt
  4

  0
STYLE
  2
BYGG-012216$0$STANDARD
 70
     0
 40
0.0
 41
1.0
 50
0.0
 71
     0
 42
0.2
  3
txt
  4

  0
STYLE
  2
BYGG-012216$0$ISO
 70
     0
 40
0.0
 41
1.0
 50
0.0
 71
     0
 42
3.5
  3
txt
  4

  0
STYLE
  2
BYGG-024973$0$STANDARD
 70
     0
 40
0.0
 41
1.0
 50
0.0
 71
     0
 42
0.2
  3
txt
  4

  0
STYLE
  2
BYGG-024973$0$ISO
 70
     0
 40
0.0
 41
1.0
 50
0.0
 71
     0
 42
3.5
  3
txt
  4

  0
STYLE
  2
BYGG-021764$0$STANDARD
 70
     0
 40
0.0
 41
1.0
 50
0.0
 71
     0
 42
0.2
  3
txt
  4

  0
STYLE
  2
BYGG-021764$0$ISO
 70
     0
 40
0.0
 41
1.0
 50
0.0
 71
     0
 42
3.5
  3
txt
  4

  0
STYLE
  2
BYGG-020805$0$STANDARD
 70
     0
 40
0.0
 41
1.0
 50
0.0
 71
     0
 42
0.2
  3
txt
  4

  0
STYLE
  2
BYGG-020805$0$ISO
 70
     0
 40
0.0
 41
1.0
 50
0.0
 71
     0
 42
3.5
  3
txt
  4

  0
STYLE
  2
BYGG-033167$0$STANDARD
 70
     0
 40
0.0
 41
1.0
 50
0.0
 71
     0
 42
0.2
  3
txt
  4

  0
STYLE
  2
BYGG-033167$0$ISO
 70
     0
 40
0.0
 41
1.0
 50
0.0
 71
     0
 42
3.5
  3
txt
  4

  0
STYLE
  2
BYGG-033167$0$BYGG-020132$
 70
     0
 40
0.0
 41
1.0
 50
0.0
 71
     0
 42
3.5
  3
txt
  4

  0
STYLE
  2
BYGG-033167$0$BYGG-024943$
 70
     0
 40
0.0
 41
1.0
 50
0.0
 71
     0
 42
3.5
  3
txt
  4

  0
STYLE
  2
BYGG-026410$0$STANDARD
 70
     0
 40
0.0
 41
1.0
 50
0.0
 71
     0
 42
0.2
  3
txt
  4

  0
STYLE
  2
BYGG-026410$0$ISO
 70
     0
 40
0.0
 41
1.0
 50
0.0
 71
     0
 42
3.5
  3
txt
  4

  0
STYLE
  2
BYGG-021526$0$STANDARD
 70
     0
 40
0.0
 41
1.0
 50
0.0
 71
     0
 42
0.2
  3
txt
  4

  0
STYLE
  2
BYGG-021526$0$ISO
 70
     0
 40
0.0
 41
1.0
 50
0.0
 71
     0
 42
3.5
  3
isocp3.shx
  4

  0
STYLE
  2
BYGG-021526$0$ANNOTATIVE
 70
     0
 40
0.0
 41
1.0
 50
0.0
 71
     0
 42
0.2
  3
txt
  4

  0
STYLE
  2
BYGG-024800$0$STANDARD
 70
     0
 40
0.0
 41
1.0
 50
0.0
 71
     0
 42
0.2
  3
txt
  4

  0
STYLE
  2
BYGG-024800$0$ISO
 70
     0
 40
0.0
 41
1.0
 50
0.0
 71
     0
 42
3.5
  3
txt
  4

  0
STYLE
  2
BYGG-024807$0$STANDARD
 70
     0
 40
0.0
 41
1.0
 50
0.0
 71
     0
 42
0.2
  3
txt
  4

  0
STYLE
  2
BYGG-024807$0$ISO
 70
     0
 40
0.0
 41
1.0
 50
0.0
 71
     0
 42
3.5
  3
txt
  4

  0
STYLE
  2
BYGG-024807$0$ANNOTATIVE
 70
     0
 40
0.0
 41
1.0
 50
0.0
 71
     0
 42
0.2
  3
txt
  4

  0
STYLE
  2
BYGG-022843$0$STANDARD
 70
     0
 40
0.0
 41
1.0
 50
0.0
 71
     0
 42
0.2
  3
txt
  4

  0
STYLE
  2
BYGG-022843$0$ISO
 70
     0
 40
0.0
 41
1.0
 50
0.0
 71
     0
 42
3.5
  3
txt
  4

  0
STYLE
  2
BYGG-014412$0$STANDARD
 70
     0
 40
0.0
 41
1.0
 50
0.0
 71
     0
 42
0.2
  3
txt
  4

  0
STYLE
  2
BYGG-014412$0$ISO
 70
     0
 40
0.0
 41
1.0
 50
0.0
 71
     0
 42
3.5
  3
isocp3.shx
  4

  0
STYLE
  2
BYGG-021582$0$STANDARD
 70
     0
 40
0.0
 41
1.0
 50
0.0
 71
     0
 42
0.2
  3
txt
  4

  0
STYLE
  2
BYGG-021582$0$ISO
 70
     0
 40
0.0
 41
1.0
 50
0.0
 71
     0
 42
3.5
  3
isocp3.shx
  4

  0
STYLE
  2
BYGG-014279$0$STANDARD
 70
     0
 40
0.0
 41
1.0
 50
0.0
 71
     0
 42
0.2
  3
TXT.shx
  4

  0
STYLE
  2
BYGG-014279$0$ISO
 70
     0
 40
0.0
 41
1.0
 50
0.0
 71
     0
 42
3.5
  3
iso
  4

  0
ENDTAB
  0
TABLE
  2
VIEW
 70
     0
  0
ENDTAB
  0
TABLE
  2
UCS
 70
     0
  0
ENDTAB
  0
TABLE
  2
APPID
 70
    42
  0
APPID
  2
ACAD
 70
     0
  0
APPID
  2
ACAD_DSTYLE_DIMTEXT_FILL
 70
     0
  0
APPID
  2
ACAD_DSTYLE_DIMEXT_LENGTH
 70
     0
  0
APPID
  2
ACAD_DSTYLE_DIMEXT_ENABLED
 70
     0
  0
APPID
  2
ACAD_DSTYLE_DIM_LINETYPE
 70
     0
  0
APPID
  2
ACAD_DSTYLE_DIM_EXT1_LINETYPE
 70
     0
  0
APPID
  2
ACAD_DSTYLE_DIM_EXT2_LINETYPE
 70
     0
  0
APPID
  2
ACAD_DSTYLE_DIMJOGGED_JOGA
 70
     0
  0
APPID
  2
ACAD_DSTYLE_DIMARC_LENGTH_
 70
     0
  0
APPID
  2
ACAD_PSEXT
 70
     0
  0
APPID
  2
ACAD_MLEADERVER
 70
     0
  0
APPID
  2
AMG_ARCHIVE11
 70
     0
  0
APPID
  2
ACAD_EXEMPT_FROM_CAD_STANDARDS
 70
     0
  0
APPID
  2
ACADANNOTATIVE
 70
     0
  0
APPID
  2
ACAECLAYERSTANDARD
 70
     0
  0
APPID
  2
ACDBDYNAMICBLOCKGUID
 70
     0
  0
APPID
  2
ACDBBLOCKREPETAG
 70
     0
  0
APPID
  2
DCO15
 70
     0
  0
APPID
  2
ACAD_DSTYLE_DIMJAG
 70
     0
  0
APPID
  2
ACAD_DSTYLE_DIMTALN
 70
     0
  0
APPID
  2
RC_PROFILE
 70
     0
  0
APPID
  2
GENIUS_GENODEF_13
 70
     0
  0
APPID
  2
GENIUS_GENTRA_14
 70
     0
  0
APPID
  2
GENIUS_GENOLIS_13
 70
     0
  0
APPID
  2
GENIUS_GENOENT_13
 70
     0
  0
APPID
  2
GENIUS_GENOBJ-N-TIT_13
 70
     0
  0
APPID
  2
GENIUS_GENTITLE_13
 70
     0
  0
APPID
  2
GENIUS_GENOREF_13
 70
     0
  0
APPID
  2
GENIUS_GENSCREG_15
 70
     0
  0
APPID
  2
GENIUS_GENOBJ-N-SDF_13
 70
     0
  0
APPID
  2
GENIUS_GENOBJ-N-CRS_13
 70
     0
  0
APPID
  2
ACAUTHENVIRON
 70
     0
  0
APPID
  2
ACDBDYNAMICBLOCKTRUENAME
 70
     0
  0
APPID
  2
ACAD_NAV_VCDISPLAY
 70
     0
  0
APPID
  2
ACCMTRANSPARENCY
 70
     0
  0
APPID
  2
GRADIENTCOLOR1ACI
 70
     0
  0
APPID
  2
GRADIENTCOLOR2ACI
 70
     0
  0
APPID
  2
PE_URL
 70
     0
  0
APPID
  2
ACDBBLOCKREPBTAG
 70
     0
  0
APPID
  2
ACAD_DSTYLE_DIMRADIAL_EXTENSION
 70
     0
  0
APPID
  2
ACLAYERTOOLS
 70
     0
  0
APPID
  2
AEC_XDATA_BOUND_SPACE
 70
     0
  0
ENDTAB
  0
TABLE
  2
DIMSTYLE
 70
    50
  0
DIMSTYLE
  2
STANDARD
 70
     0
  3

  4

  5

  6

  7

 40
1.0
 41
0.18
 42
0.0625
 43
0.38
 44
0.18
 45
0.0
 46
0.0
 47
0.0
 48
0.0
140
0.18
141
0.09
142
0.0
143
25.399999999999999
144
1.0
145
0.0
146
1.0
147
0.09
 71
     0
 72
     0
 73
     1
 74
     1
 75
     0
 76
     0
 77
     0
 78
     0
170
     0
171
     2
172
     0
173
     0
174
     0
175
     0
176
     0
177
     0
178
     0
  0
DIMSTYLE
  2
MASKIN
 70
     0
  3

  4

  5

  6

  7

 40
0.0
 41
3.0
 42
1.5
 43
10.0
 44
1.5
 45
0.0
 46
0.0
 47
0.0
 48
0.0
140
3.0
141
-5.0
142
0.0
143
25.399999999999999
144
-1.0
145
0.0
146
1.0
147
1.0
 71
     0
 72
     0
 73
     0
 74
     0
 75
     0
 76
     0
 77
     1
 78
     8
170
     0
171
     0
172
     1
173
     0
174
     0
175
     0
176
   256
177
   256
178
     2
  0
DIMSTYLE
  2
BYGG-021589$0$MASKIN
 70
     0
  3

  4

  5

  6

  7

 40
0.0
 41
3.0
 42
1.5
 43
10.0
 44
1.5
 45
0.0
 46
0.0
 47
0.0
 48
0.0
140
3.0
141
-5.0
142
0.0
143
25.399999999999999
144
-1.0
145
0.0
146
1.0
147
1.0
 71
     0
 72
     0
 73
     0
 74
     0
 75
     0
 76
     0
 77
     1
 78
     8
170
     0
171
     0
172
     1
173
     0
174
     0
175
     0
176
   256
177
   256
178
   256
  0
DIMSTYLE
  2
BYGG-01482201$0$STANDARD
 70
     0
  3

  4

  5

  6

  7

 40
1.0
 41
0.18
 42
0.0625
 43
0.38
 44
0.18
 45
0.0
 46
0.0
 47
0.0
 48
0.0
140
0.18
141
0.09
142
0.0
143
25.399999999999999
144
1.0
145
0.0
146
1.0
147
0.09
 71
     0
 72
     0
 73
     1
 74
     1
 75
     0
 76
     0
 77
     0
 78
     0
170
     0
171
     2
172
     0
173
     0
174
     0
175
     0
176
     0
177
     0
178
     0
  0
DIMSTYLE
  2
BYGG-01482201$0$MASKIN
 70
     0
  3

  4

  5

  6

  7

 40
0.0
 41
3.0
 42
1.5
 43
10.0
 44
1.5
 45
0.0
 46
0.0
 47
0.0
 48
0.0
140
3.0
141
-5.0
142
0.0
143
25.399999999999999
144
-1.0
145
0.0
146
1.0
147
1.0
 71
     0
 72
     0
 73
     0
 74
     1
 75
     0
 76
     0
 77
     1
 78
     8
170
     0
171
     0
172
     1
173
     0
174
     0
175
     0
176
   256
177
   256
178
     2
  0
DIMSTYLE
  2
BYGG-021802$0$MASKIN
 70
     0
  3

  4

  5

  6

  7

 40
0.0
 41
3.0
 42
1.5
 43
10.0
 44
1.5
 45
0.0
 46
0.0
 47
0.0
 48
0.0
140
3.0
141
-5.0
142
0.0
143
25.399999999999999
144
-1.0
145
0.0
146
1.0
147
1.0
 71
     0
 72
     0
 73
     0
 74
     0
 75
     0
 76
     0
 77
     1
 78
     8
170
     0
171
     0
172
     1
173
     0
174
     0
175
     0
176
   256
177
   256
178
   256
  0
DIMSTYLE
  2
BYGG-014357$0$MASKIN
 70
     0
  3

  4

  5

  6

  7

 40
0.0
 41
3.0
 42
1.5
 43
10.0
 44
1.5
 45
0.0
 46
0.0
 47
0.0
 48
0.0
140
3.0
141
-5.0
142
0.0
143
25.399999999999999
144
-1.0
145
0.0
146
1.0
147
1.0
 71
     0
 72
     0
 73
     0
 74
     0
 75
     0
 76
     0
 77
     1
 78
     8
170
     0
171
     0
172
     1
173
     0
174
     0
175
     0
176
   256
177
   256
178
   256
  0
DIMSTYLE
  2
BYGG-014357$0$MASKIN1
 70
     0
  3

  4

  5

  6

  7

 40
1.0
 41
3.0
 42
1.5
 43
10.0
 44
1.5
 45
0.0
 46
0.0
 47
0.0
 48
0.0
140
3.0
141
-5.0
142
0.0
143
25.399999999999999
144
1.0
145
0.0
146
1.0
147
0.9
 71
     0
 72
     0
 73
     0
 74
     0
 75
     0
 76
     0
 77
     1
 78
     8
170
     0
171
     0
172
     1
173
     0
174
     0
175
     0
176
   256
177
   256
178
   256
  0
DIMSTYLE
  2
BYGG-014357$0$MASKIN2
 70
     0
  3

  4

  5

  6

  7

 40
1.0
 41
3.0
 42
1.5
 43
10.0
 44
1.5
 45
0.0
 46
0.0
 47
0.0
 48
0.0
140
3.0
141
-5.0
142
0.0
143
25.399999999999999
144
1.0
145
0.0
146
1.0
147
0.9
 71
     0
 72
     0
 73
     0
 74
     0
 75
     0
 76
     0
 77
     1
 78
     8
170
     0
171
     0
172
     1
173
     0
174
     0
175
     0
176
   256
177
   256
178
   256
  0
DIMSTYLE
  2
BYGG-014357$0$MASKIN3
 70
     0
  3

  4

  5

  6

  7

 40
1.0
 41
3.0
 42
1.5
 43
10.0
 44
1.5
 45
0.0
 46
0.0
 47
0.0
 48
0.0
140
3.0
141
-5.0
142
0.0
143
25.399999999999999
144
1.0
145
0.0
146
1.0
147
0.9
 71
     0
 72
     0
 73
     0
 74
     0
 75
     0
 76
     0
 77
     1
 78
     8
170
     0
171
     0
172
     1
173
     0
174
     0
175
     0
176
   256
177
   256
178
   256
  0
DIMSTYLE
  2
BYGG-014357$0$DMST_1
 70
     0
  3

  4

  5

  6

  7

 40
1.0
 41
0.7000000000000002
 42
0.0
 43
7.0
 44
0.4
 45
0.0
 46
0.0
 47
0.15
 48
0.15
140
0.7000000000000002
141
0.0
142
0.0
143
25.399999999999999
144
1.0
145
0.0
146
0.7
147
0.09
 71
     1
 72
     0
 73
     0
 74
     0
 75
     0
 76
     0
 77
     1
 78
     9
170
     0
171
     2
172
     0
173
     0
174
     0
175
     0
176
     1
177
     1
178
     2
  0
DIMSTYLE
  2
BYGG-014063$0$MASKIN
 70
     0
  3

  4

  5

  6

  7

 40
0.0
 41
3.0
 42
1.5
 43
10.0
 44
1.5
 45
0.0
 46
0.0
 47
0.0
 48
0.0
140
3.0
141
-5.0
142
0.0
143
25.399999999999999
144
-1.0
145
0.0
146
1.0
147
1.0
 71
     0
 72
     0
 73
     0
 74
     0
 75
     0
 76
     0
 77
     1
 78
     8
170
     0
171
     0
172
     1
173
     0
174
     0
175
     0
176
   256
177
   256
178
   256
  0
DIMSTYLE
  2
BYGG-014063$0$STANDARD
 70
     0
  3

  4

  5

  6

  7

 40
1.0
 41
0.18
 42
0.0625
 43
0.38
 44
0.18
 45
0.0
 46
0.0
 47
0.0
 48
0.0
140
0.18
141
0.09
142
0.0
143
25.399999999999999
144
1.0
145
0.0
146
1.0
147
0.09
 71
     0
 72
     0
 73
     1
 74
     1
 75
     0
 76
     0
 77
     0
 78
     0
170
     0
171
     2
172
     0
173
     0
174
     0
175
     0
176
     0
177
     0
178
     0
  0
DIMSTYLE
  2
BYGG-022668$0$STANDARD
 70
     0
  3

  4

  5

  6

  7

 40
1.0
 41
0.18
 42
0.0625
 43
0.38
 44
0.18
 45
0.0
 46
0.0
 47
0.0
 48
0.0
140
0.18
141
0.09
142
0.0
143
25.399999999999999
144
1.0
145
0.0
146
1.0
147
0.09
 71
     0
 72
     0
 73
     1
 74
     1
 75
     0
 76
     0
 77
     0
 78
     0
170
     0
171
     2
172
     0
173
     0
174
     0
175
     0
176
     0
177
     0
178
     0
  0
DIMSTYLE
  2
BYGG-022668$0$MASKIN
 70
     0
  3

  4

  5

  6

  7

 40
0.0
 41
3.0
 42
1.5
 43
10.0
 44
1.5
 45
0.0
 46
0.0
 47
0.0
 48
0.0
140
3.0
141
-5.0
142
0.0
143
25.399999999999999
144
-1.0
145
0.0
146
1.0
147
1.0
 71
     0
 72
     0
 73
     0
 74
     0
 75
     0
 76
     0
 77
     1
 78
     8
170
     0
171
     0
172
     1
173
     0
174
     0
175
     0
176
   256
177
   256
178
     2
  0
DIMSTYLE
  2
BYGG-021523$0$STANDARD
 70
     0
  3

  4

  5

  6

  7

 40
1.0
 41
0.18
 42
0.0625
 43
0.38
 44
0.18
 45
0.0
 46
0.0
 47
0.0
 48
0.0
140
0.18
141
0.09
142
0.0
143
25.399999999999999
144
1.0
145
0.0
146
1.0
147
0.09
 71
     0
 72
     0
 73
     1
 74
     1
 75
     0
 76
     0
 77
     0
 78
     0
170
     0
171
     2
172
     0
173
     0
174
     0
175
     0
176
     0
177
     0
178
     0
  0
DIMSTYLE
  2
BYGG-021523$0$MASKIN
 70
     0
  3

  4

  5

  6

  7

 40
0.0
 41
3.0
 42
1.5
 43
10.0
 44
1.5
 45
0.0
 46
0.0
 47
0.0
 48
0.0
140
3.0
141
-5.0
142
0.0
143
25.399999999999999
144
-1.0
145
0.0
146
1.0
147
1.0
 71
     0
 72
     0
 73
     0
 74
     1
 75
     0
 76
     0
 77
     1
 78
     8
170
     0
171
     0
172
     1
173
     0
174
     0
175
     0
176
   256
177
   256
178
     2
  0
DIMSTYLE
  2
BYGG-021523$0$ANNOTATIVE
 70
     0
  3

  4

  5

  6

  7

 40
1.0
 41
0.18
 42
0.0625
 43
0.38
 44
0.18
 45
0.0
 46
0.0
 47
0.0
 48
0.0
140
0.18
141
0.09
142
0.0
143
25.399999999999999
144
1.0
145
0.0
146
1.0
147
0.09
 71
     0
 72
     0
 73
     1
 74
     1
 75
     0
 76
     0
 77
     0
 78
     0
170
     0
171
     2
172
     0
173
     0
174
     0
175
     0
176
     0
177
     0
178
     0
  0
DIMSTYLE
  2
BYGG-025060$0$MASKIN
 70
     0
  3

  4

  5

  6

  7

 40
0.0
 41
3.0
 42
1.5
 43
10.0
 44
1.5
 45
0.0
 46
0.0
 47
0.0
 48
0.0
140
3.0
141
-5.0
142
0.0
143
25.399999999999999
144
-1.0
145
0.0
146
1.0
147
1.0
 71
     0
 72
     0
 73
     0
 74
     0
 75
     0
 76
     0
 77
     1
 78
     8
170
     0
171
     0
172
     1
173
     0
174
     0
175
     0
176
   256
177
   256
178
     2
  0
DIMSTYLE
  2
BYGG-025060$0$STANDARD
 70
     0
  3

  4

  5

  6

  7

 40
1.0
 41
0.18
 42
0.0625
 43
0.38
 44
0.18
 45
0.0
 46
0.0
 47
0.0
 48
0.0
140
0.18
141
0.09
142
0.0
143
25.399999999999999
144
1.0
145
0.0
146
1.0
147
0.09
 71
     0
 72
     0
 73
     1
 74
     1
 75
     0
 76
     0
 77
     0
 78
     0
170
     0
171
     2
172
     0
173
     0
174
     0
175
     0
176
     0
177
     0
178
     0
  0
DIMSTYLE
  2
BYGG-012216$0$MASKIN
 70
     0
  3

  4

  5

  6

  7

 40
0.0
 41
3.0
 42
1.5
 43
10.0
 44
1.5
 45
0.0
 46
0.0
 47
0.0
 48
0.0
140
3.0
141
-5.0
142
0.0
143
25.399999999999999
144
-1.0
145
0.0
146
1.0
147
1.0
 71
     0
 72
     0
 73
     0
 74
     0
 75
     0
 76
     0
 77
     1
 78
     8
170
     0
171
     0
172
     1
173
     0
174
     0
175
     0
176
   256
177
   256
178
     2
  0
DIMSTYLE
  2
BYGG-012216$0$STANDARD
 70
     0
  3

  4

  5

  6

  7

 40
1.0
 41
0.18
 42
0.0625
 43
0.38
 44
0.18
 45
0.0
 46
0.0
 47
0.0
 48
0.0
140
0.18
141
0.09
142
0.0
143
25.399999999999999
144
1.0
145
0.0
146
1.0
147
0.09
 71
     0
 72
     0
 73
     1
 74
     1
 75
     0
 76
     0
 77
     0
 78
     0
170
     0
171
     2
172
     0
173
     0
174
     0
175
     0
176
     0
177
     0
178
     0
  0
DIMSTYLE
  2
BYGG-024973$0$STANDARD
 70
     0
  3

  4

  5

  6

  7

 40
1.0
 41
0.18
 42
0.0625
 43
0.38
 44
0.18
 45
0.0
 46
0.0
 47
0.0
 48
0.0
140
0.18
141
0.09
142
0.0
143
25.399999999999999
144
1.0
145
0.0
146
1.0
147
0.09
 71
     0
 72
     0
 73
     1
 74
     1
 75
     0
 76
     0
 77
     0
 78
     0
170
     0
171
     2
172
     0
173
     0
174
     0
175
     0
176
     0
177
     0
178
     0
  0
DIMSTYLE
  2
BYGG-024973$0$MASKIN
 70
     0
  3

  4

  5

  6

  7

 40
0.0
 41
3.0
 42
1.5
 43
10.0
 44
1.5
 45
0.0
 46
0.0
 47
0.0
 48
0.0
140
3.0
141
-5.0
142
0.0
143
25.399999999999999
144
-1.0
145
0.0
146
1.0
147
1.0
 71
     0
 72
     0
 73
     0
 74
     0
 75
     0
 76
     0
 77
     1
 78
     8
170
     0
171
     0
172
     1
173
     0
174
     0
175
     0
176
   256
177
   256
178
     2
  0
DIMSTYLE
  2
BYGG-021764$0$STANDARD
 70
     0
  3

  4

  5

  6

  7

 40
1.0
 41
0.18
 42
0.0625
 43
0.38
 44
0.18
 45
0.0
 46
0.0
 47
0.0
 48
0.0
140
0.18
141
0.09
142
0.0
143
25.399999999999999
144
1.0
145
0.0
146
1.0
147
0.09
 71
     0
 72
     0
 73
     1
 74
     1
 75
     0
 76
     0
 77
     0
 78
     0
170
     0
171
     2
172
     0
173
     0
174
     0
175
     0
176
     0
177
     0
178
     0
  0
DIMSTYLE
  2
BYGG-021764$0$MASKIN
 70
     0
  3

  4

  5

  6

  7

 40
0.0
 41
3.0
 42
1.5
 43
10.0
 44
1.5
 45
0.0
 46
0.0
 47
0.0
 48
0.0
140
3.0
141
-5.0
142
0.0
143
25.399999999999999
144
-1.0
145
0.0
146
1.0
147
1.0
 71
     0
 72
     0
 73
     0
 74
     0
 75
     0
 76
     0
 77
     1
 78
     8
170
     0
171
     0
172
     1
173
     0
174
     0
175
     0
176
   256
177
   256
178
     2
  0
DIMSTYLE
  2
BYGG-020805$0$STANDARD
 70
     0
  3

  4

  5

  6

  7

 40
1.0
 41
0.18
 42
0.0625
 43
0.38
 44
0.18
 45
0.0
 46
0.0
 47
0.0
 48
0.0
140
0.18
141
0.09
142
0.0
143
25.399999999999999
144
1.0
145
0.0
146
1.0
147
0.09
 71
     0
 72
     0
 73
     1
 74
     1
 75
     0
 76
     0
 77
     0
 78
     0
170
     0
171
     2
172
     0
173
     0
174
     0
175
     0
176
     0
177
     0
178
     0
  0
DIMSTYLE
  2
BYGG-020805$0$MASKIN
 70
     0
  3

  4

  5

  6

  7

 40
0.0
 41
3.0
 42
1.5
 43
10.0
 44
1.5
 45
0.0
 46
0.0
 47
0.0
 48
0.0
140
3.0
141
-5.0
142
0.0
143
25.399999999999999
144
-1.0
145
0.0
146
1.0
147
1.0
 71
     0
 72
     0
 73
     0
 74
     0
 75
     0
 76
     0
 77
     1
 78
     8
170
     0
171
     0
172
     1
173
     0
174
     0
175
     0
176
   256
177
   256
178
     2
  0
DIMSTYLE
  2
BYGG-033167$0$STANDARD
 70
     0
  3

  4

  5

  6

  7

 40
1.0
 41
0.18
 42
0.0625
 43
0.38
 44
0.18
 45
0.0
 46
0.0
 47
0.0
 48
0.0
140
0.18
141
0.09
142
0.0
143
25.399999999999999
144
1.0
145
0.0
146
1.0
147
0.09
 71
     0
 72
     0
 73
     1
 74
     1
 75
     0
 76
     0
 77
     0
 78
     0
170
     0
171
     2
172
     0
173
     0
174
     0
175
     0
176
     0
177
     0
178
     0
  0
DIMSTYLE
  2
BYGG-033167$0$MASKIN
 70
     0
  3

  4

  5

  6

  7

 40
0.0
 41
3.0
 42
1.5
 43
10.0
 44
1.5
 45
0.0
 46
0.0
 47
0.0
 48
0.0
140
3.0
141
-5.0
142
0.0
143
25.399999999999999
144
-1.0
145
0.0
146
1.0
147
1.0
 71
     0
 72
     0
 73
     0
 74
     0
 75
     0
 76
     0
 77
     1
 78
     8
170
     0
171
     0
172
     1
173
     0
174
     0
175
     0
176
   256
177
   256
178
     2
  0
DIMSTYLE
  2
BYGG-033167$0$BYGG-020132$
 70
     0
  3

  4

  5

  6

  7

 40
0.0
 41
3.0
 42
1.5
 43
10.0
 44
1.5
 45
0.0
 46
0.0
 47
0.0
 48
0.0
140
3.0
141
-5.0
142
0.0
143
25.399999999999999
144
-1.0
145
0.0
146
1.0
147
1.0
 71
     0
 72
     0
 73
     0
 74
     0
 75
     0
 76
     0
 77
     1
 78
     8
170
     0
171
     0
172
     1
173
     0
174
     0
175
     0
176
   256
177
   256
178
     2
  0
DIMSTYLE
  2
BYGG-033167$0$BYGG-024943$
 70
     0
  3

  4

  5

  6

  7

 40
0.0
 41
3.0
 42
1.5
 43
10.0
 44
1.5
 45
0.0
 46
0.0
 47
0.0
 48
0.0
140
3.0
141
-5.0
142
0.0
143
25.399999999999999
144
-1.0
145
0.0
146
1.0
147
1.0
 71
     0
 72
     0
 73
     0
 74
     0
 75
     0
 76
     0
 77
     1
 78
     8
170
     0
171
     0
172
     1
173
     0
174
     0
175
     0
176
   256
177
   256
178
     2
  0
DIMSTYLE
  2
BYGG-026410$0$STANDARD
 70
     0
  3

  4

  5

  6

  7

 40
1.0
 41
0.18
 42
0.0625
 43
0.38
 44
0.18
 45
0.0
 46
0.0
 47
0.0
 48
0.0
140
0.18
141
0.09
142
0.0
143
25.399999999999999
144
1.0
145
0.0
146
1.0
147
0.09
 71
     0
 72
     0
 73
     1
 74
     1
 75
     0
 76
     0
 77
     0
 78
     0
170
     0
171
     2
172
     0
173
     0
174
     0
175
     0
176
     0
177
     0
178
     0
  0
DIMSTYLE
  2
BYGG-026410$0$MASKIN
 70
     0
  3

  4

  5

  6

  7

 40
0.0
 41
3.0
 42
1.5
 43
10.0
 44
1.5
 45
0.0
 46
0.0
 47
0.0
 48
0.0
140
3.0
141
-5.0
142
0.0
143
25.399999999999999
144
-1.0
145
0.0
146
1.0
147
1.0
 71
     0
 72
     0
 73
     0
 74
     0
 75
     0
 76
     0
 77
     1
 78
     8
170
     0
171
     0
172
     1
173
     0
174
     0
175
     0
176
   256
177
   256
178
     2
  0
DIMSTYLE
  2
BYGG-021526$0$MASKIN1
 70
     0
  3

  4

  5

  6

  7

 40
0.0
 41
3.0
 42
1.5
 43
10.0
 44
1.5
 45
0.0
 46
0.0
 47
0.0
 48
0.0
140
3.0
141
-5.0
142
0.0
143
25.399999999999999
144
-1.0
145
0.0
146
1.0
147
1.0
 71
     0
 72
     0
 73
     0
 74
     0
 75
     0
 76
     0
 77
     1
 78
     8
170
     0
171
     0
172
     1
173
     0
174
     0
175
     0
176
   256
177
   256
178
   256
  0
DIMSTYLE
  2
BYGG-021526$0$STANDARD
 70
     0
  3

  4

  5

  6

  7

 40
1.0
 41
0.18
 42
0.0625
 43
0.38
 44
0.18
 45
0.0
 46
0.0
 47
0.0
 48
0.0
140
0.18
141
0.09
142
0.0
143
25.399999999999999
144
1.0
145
0.0
146
1.0
147
0.09
 71
     0
 72
     0
 73
     1
 74
     1
 75
     0
 76
     0
 77
     0
 78
     0
170
     0
171
     2
172
     0
173
     0
174
     0
175
     0
176
     0
177
     0
178
     0
  0
DIMSTYLE
  2
BYGG-021526$0$ANNOTATIVE
 70
     0
  3

  4

  5

  6

  7

 40
1.0
 41
0.18
 42
0.0625
 43
0.38
 44
0.18
 45
0.0
 46
0.0
 47
0.0
 48
0.0
140
0.18
141
0.09
142
0.0
143
25.399999999999999
144
1.0
145
0.0
146
1.0
147
0.09
 71
     0
 72
     0
 73
     1
 74
     1
 75
     0
 76
     0
 77
     0
 78
     0
170
     0
171
     2
172
     0
173
     0
174
     0
175
     0
176
     0
177
     0
178
     0
  0
DIMSTYLE
  2
BYGG-021526$0$MASKIN
 70
     0
  3

  4

  5

  6

  7

 40
0.0
 41
3.0
 42
1.5
 43
10.0
 44
1.5
 45
0.0
 46
0.0
 47
0.0
 48
0.0
140
3.0
141
-5.0
142
0.0
143
25.399999999999999
144
-1.0
145
0.0
146
1.0
147
1.0
 71
     0
 72
     0
 73
     0
 74
     1
 75
     0
 76
     0
 77
     1
 78
     8
170
     0
171
     0
172
     1
173
     0
174
     0
175
     0
176
   256
177
   256
178
     2
  0
DIMSTYLE
  2
BYGG-024800$0$MASKIN
 70
     0
  3

  4

  5

  6

  7

 40
0.0
 41
3.0
 42
1.5
 43
10.0
 44
1.5
 45
0.0
 46
0.0
 47
0.0
 48
0.0
140
3.0
141
-5.0
142
0.0
143
25.399999999999999
144
-1.0
145
0.0
146
1.0
147
1.0
 71
     0
 72
     0
 73
     0
 74
     0
 75
     0
 76
     0
 77
     1
 78
     8
170
     0
171
     0
172
     1
173
     0
174
     0
175
     0
176
   256
177
   256
178
     2
  0
DIMSTYLE
  2
BYGG-024800$0$STANDARD
 70
     0
  3

  4

  5

  6

  7

 40
1.0
 41
0.18
 42
0.0625
 43
0.38
 44
0.18
 45
0.0
 46
0.0
 47
0.0
 48
0.0
140
0.18
141
0.09
142
0.0
143
25.399999999999999
144
1.0
145
0.0
146
1.0
147
0.09
 71
     0
 72
     0
 73
     1
 74
     1
 75
     0
 76
     0
 77
     0
 78
     0
170
     0
171
     2
172
     0
173
     0
174
     0
175
     0
176
     0
177
     0
178
     0
  0
DIMSTYLE
  2
BYGG-024807$0$MASKIN
 70
     0
  3

  4

  5

  6

  7

 40
0.0
 41
3.0
 42
1.5
 43
10.0
 44
1.5
 45
0.0
 46
0.0
 47
0.0
 48
0.0
140
3.0
141
-5.0
142
0.0
143
25.399999999999999
144
-1.0
145
0.0
146
1.0
147
1.0
 71
     0
 72
     0
 73
     0
 74
     0
 75
     0
 76
     0
 77
     1
 78
     8
170
     0
171
     0
172
     1
173
     0
174
     0
175
     0
176
   256
177
   256
178
     2
  0
DIMSTYLE
  2
BYGG-024807$0$STANDARD
 70
     0
  3

  4

  5

  6

  7

 40
1.0
 41
0.18
 42
0.0625
 43
0.38
 44
0.18
 45
0.0
 46
0.0
 47
0.0
 48
0.0
140
0.18
141
0.09
142
0.0
143
25.399999999999999
144
1.0
145
0.0
146
1.0
147
0.09
 71
     0
 72
     0
 73
     1
 74
     1
 75
     0
 76
     0
 77
     0
 78
     0
170
     0
171
     2
172
     0
173
     0
174
     0
175
     0
176
     0
177
     0
178
     0
  0
DIMSTYLE
  2
BYGG-024807$0$ANNOTATIVE
 70
     0
  3

  4

  5

  6

  7

 40
1.0
 41
0.18
 42
0.0625
 43
0.38
 44
0.18
 45
0.0
 46
0.0
 47
0.0
 48
0.0
140
0.18
141
0.09
142
0.0
143
25.399999999999999
144
1.0
145
0.0
146
1.0
147
0.09
 71
     0
 72
     0
 73
     1
 74
     1
 75
     0
 76
     0
 77
     0
 78
     0
170
     0
171
     2
172
     0
173
     0
174
     0
175
     0
176
     0
177
     0
178
     0
  0
DIMSTYLE
  2
BYGG-022843$0$STANDARD
 70
     0
  3

  4

  5

  6

  7

 40
1.0
 41
0.18
 42
0.0625
 43
0.38
 44
0.18
 45
0.0
 46
0.0
 47
0.0
 48
0.0
140
0.18
141
0.09
142
0.0
143
25.399999999999999
144
1.0
145
0.0
146
1.0
147
0.09
 71
     0
 72
     0
 73
     1
 74
     1
 75
     0
 76
     0
 77
     0
 78
     0
170
     0
171
     2
172
     0
173
     0
174
     0
175
     0
176
     0
177
     0
178
     0
  0
DIMSTYLE
  2
BYGG-022843$0$MASKIN
 70
     0
  3

  4

  5

  6

  7

 40
0.0
 41
3.0
 42
1.5
 43
10.0
 44
1.5
 45
0.0
 46
0.0
 47
0.0
 48
0.0
140
3.0
141
-5.0
142
0.0
143
25.399999999999999
144
-1.0
145
0.0
146
1.0
147
1.0
 71
     0
 72
     0
 73
     0
 74
     0
 75
     0
 76
     0
 77
     1
 78
     8
170
     0
171
     0
172
     1
173
     0
174
     0
175
     0
176
   256
177
   256
178
     2
  0
DIMSTYLE
  2
BYGG-014412$0$MASKIN
 70
     0
  3

  4

  5

  6

  7

 40
0.0
 41
3.0
 42
1.5
 43
10.0
 44
1.5
 45
0.0
 46
0.0
 47
0.0
 48
0.0
140
3.0
141
-5.0
142
0.0
143
25.399999999999999
144
-1.0
145
0.0
146
1.0
147
1.0
 71
     0
 72
     0
 73
     0
 74
     0
 75
     0
 76
     0
 77
     1
 78
     8
170
     0
171
     0
172
     1
173
     0
174
     0
175
     0
176
   256
177
   256
178
   256
  0
DIMSTYLE
  2
BYGG-014412$0$STANDARD
 70
     0
  3

  4

  5

  6

  7

 40
1.0
 41
0.18
 42
0.0625
 43
0.38
 44
0.18
 45
0.0
 46
0.0
 47
0.0
 48
0.0
140
0.18
141
0.09
142
0.0
143
25.399999999999999
144
1.0
145
0.0
146
1.0
147
0.09
 71
     0
 72
     0
 73
     1
 74
     1
 75
     0
 76
     0
 77
     0
 78
     0
170
     0
171
     2
172
     0
173
     0
174
     0
175
     0
176
     0
177
     0
178
     0
  0
DIMSTYLE
  2
BYGG-021582$0$MASKIN
 70
     0
  3

  4

  5

  6

  7

 40
0.0
 41
3.0
 42
1.5
 43
10.0
 44
1.5
 45
0.0
 46
0.0
 47
0.0
 48
0.0
140
3.0
141
-5.0
142
0.0
143
25.399999999999999
144
-1.0
145
0.0
146
1.0
147
1.0
 71
     0
 72
     0
 73
     0
 74
     0
 75
     0
 76
     0
 77
     1
 78
     8
170
     0
171
     0
172
     1
173
     0
174
     0
175
     0
176
   256
177
   256
178
   256
  0
DIMSTYLE
  2
BYGG-014279$0$STANDARD
 70
     0
  3

  4

  5

  6

  7

 40
1.0
 41
0.18
 42
0.0625
 43
0.38
 44
0.18
 45
0.0
 46
0.0
 47
0.0
 48
0.0
140
0.18
141
0.09
142
0.0
143
25.399999999999999
144
1.0
145
0.0
146
1.0
147
0.09
 71
     0
 72
     0
 73
     1
 74
     1
 75
     0
 76
     0
 77
     0
 78
     0
170
     0
171
     2
172
     0
173
     0
174
     0
175
     0
176
     0
177
     0
178
     0
  0
DIMSTYLE
  2
BYGG-014279$0$MASKIN
 70
     0
  3

  4

  5

  6

  7

 40
0.0
 41
3.0
 42
1.5
 43
10.0
 44
1.5
 45
0.0
 46
0.0
 47
0.0
 48
0.0
140
3.0
141
-5.0
142
0.0
143
25.399999999999999
144
-1.0
145
0.0
146
1.0
147
1.0
 71
     0
 72
     0
 73
     0
 74
     1
 75
     0
 76
     0
 77
     1
 78
     8
170
     0
171
     0
172
     1
173
     0
174
     0
175
     0
176
   256
177
   256
178
     2
  0
ENDTAB
  0
ENDSEC
  0
SECTION
  2
BLOCKS
  0
BLOCK
  8
0
  2
$MODEL_SPACE
 70
     0
 10
0.0
 20
0.0
 30
0.0
  3
$MODEL_SPACE
  1

  0
ENDBLK
  5
37
  8
0
  0
BLOCK
 67
     1
  8
0
  2
$PAPER_SPACE
 70
     0
 10
0.0
 20
0.0
 30
0.0
  3
$PAPER_SPACE
  1

  0
ENDBLK
  5
35
 67
     1
  8
0
  0
BLOCK
  8
0
  2
*D120
 70
     1
 10
0.0
 20
0.0
 30
0.0
  3
*D120
  1

  0
LINE
  5
150E
  8
SAPA_MATT
 10
-24.99999999999978
 20
-107.4999999990104
 30
0.0
 11
-24.99999999999978
 21
-127.3557794594702
 31
0.0
  0
LINE
  5
150F
  8
SAPA_MATT
 10
25.000000000000231
 20
-107.4999999990104
 30
0.0
 11
25.000000000000231
 21
-127.3557794594702
 31
0.0
  0
LINE
  5
1510
  8
SAPA_MATT
 10
-21.999999999999769
 20
-125.8557794594702
 30
0.0
 11
22.000000000000231
 21
-125.8557794594702
 31
0.0
  0
SOLID
  5
1511
  8
SAPA_MATT
 10
-21.999999999999769
 20
-125.3557794594702
 30
0.0
 11
-21.999999999999769
 21
-126.3557794594702
 31
0.0
 12
-24.99999999999978
 22
-125.8557794594702
 32
0.0
 13
-24.99999999999978
 23
-125.8557794594702
 33
0.0
  0
SOLID
  5
1512
  8
SAPA_MATT
 10
22.000000000000231
 20
-125.3557794594702
 30
0.0
 11
22.000000000000231
 21
-126.3557794594702
 31
0.0
 12
25.000000000000231
 22
-125.8557794594702
 32
0.0
 13
25.000000000000231
 23
-125.8557794594702
 33
0.0
  0
INSERT
  5
1513
  8
0
  2
*U142
 10
0.0
 20
0.0
 30
0.0
  0
POINT
  5
1514
  8
DEFPOINTS
 62
     0
 10
-24.99999999999978
 20
-105.9999999990104
 30
0.0
  0
POINT
  5
1515
  8
DEFPOINTS
 62
     0
 10
25.000000000000231
 20
-105.9999999990104
 30
0.0
  0
POINT
  5
1516
  8
DEFPOINTS
 62
     0
 10
25.000000000000231
 20
-125.8557794594702
 30
0.0
  0
ENDBLK
  5
14C1
  8
0
  0
BLOCK
  8
0
  2
*D121
 70
     1
 10
0.0
 20
0.0
 30
0.0
  3
*D121
  1

  0
LINE
  5
24C3
  8
SAPA_MATT
 10
25.000000000000231
 20
-107.4999999990104
 30
0.0
 11
25.000000000000231
 21
-127.3557794594702
 31
0.0
  0
LINE
  5
24C4
  8
SAPA_MATT
 10
76.000000000000057
 20
-76.299999251909554
 30
0.0
 11
76.000000000000057
 21
-127.3557794594702
 31
0.0
  0
LINE
  5
24C5
  8
SAPA_MATT
 10
28.000000000000231
 20
-125.8557794594702
 30
0.0
 11
73.000000000000057
 21
-125.8557794594702
 31
0.0
  0
SOLID
  5
24C6
  8
SAPA_MATT
 10
28.000000000000231
 20
-125.3557794594702
 30
0.0
 11
28.000000000000231
 21
-126.3557794594702
 31
0.0
 12
25.000000000000231
 22
-125.8557794594702
 32
0.0
 13
25.000000000000231
 23
-125.8557794594702
 33
0.0
  0
SOLID
  5
24C7
  8
SAPA_MATT
 10
73.000000000000057
 20
-125.3557794594702
 30
0.0
 11
73.000000000000057
 21
-126.3557794594702
 31
0.0
 12
76.000000000000057
 22
-125.8557794594702
 32
0.0
 13
76.000000000000057
 23
-125.8557794594702
 33
0.0
  0
TEXT
  8
SAPA_MATT
  40
3
  5
24D0
  62
2
  72
0
  71
0
 10
44.5000
 20
-128.666
 30
0.000000
  1
51
  7
ISO
  0
POINT
  5
24C9
  8
DEFPOINTS
 62
     0
 10
25.000000000000231
 20
-105.9999999990104
 30
0.0
  0
POINT
  5
24CA
  8
DEFPOINTS
 62
     0
 10
76.000000000000057
 20
-74.799999251909554
 30
0.0
  0
POINT
  5
24CB
  8
DEFPOINTS
 62
     0
 10
76.000000000000057
 20
-125.8557794594702
 30
0.0
  0
ENDBLK
  5
14CD
  8
0
  0
BLOCK
  8
0
  2
*D122
 70
     1
 10
0.0
 20
0.0
 30
0.0
  3
*D122
  1

  0
LINE
  5
24B8
  8
SAPA_MATT
 10
76.000000000000057
 20
-76.299999251909554
 30
0.0
 11
76.000000000000057
 21
-127.3557794594702
 31
0.0
  0
LINE
  5
24B9
  8
SAPA_MATT
 10
81.000000000000057
 20
-81.723359969942038
 30
0.0
 11
81.000000000000057
 21
-127.3557794594702
 31
0.0
  0
LINE
  5
24BA
  8
SAPA_MATT
 10
73.000000000000057
 20
-125.8557794594702
 30
0.0
 11
70.000000000000057
 21
-125.8557794594702
 31
0.0
  0
LINE
  5
24BB
  8
SAPA_MATT
 10
84.000000000000057
 20
-125.8557794594702
 30
0.0
 11
87.000000000000057
 21
-125.8557794594702
 31
0.0
  0
LINE
  5
24BC
  8
SAPA_MATT
 10
76.000000000000057
 20
-125.8557794594702
 30
0.0
 11
81.000000000000057
 21
-125.8557794594702
 31
0.0
  0
SOLID
  5
24BD
  8
SAPA_MATT
 10
73.000000000000057
 20
-125.3557794594702
 30
0.0
 11
73.000000000000057
 21
-126.3557794594702
 31
0.0
 12
76.000000000000057
 22
-125.8557794594702
 32
0.0
 13
76.000000000000057
 23
-125.8557794594702
 33
0.0
  0
SOLID
  5
24BE
  8
SAPA_MATT
 10
84.000000000000057
 20
-125.3557794594702
 30
0.0
 11
84.000000000000057
 21
-126.3557794594702
 31
0.0
 12
81.000000000000057
 22
-125.8557794594702
 32
0.0
 13
81.000000000000057
 23
-125.8557794594702
 33
0.0
  0
TEXT
  8
SAPA_MATT
  40
3
  5
24D1
  62
2
  72
0
  71
0
 10
72.5000
 20
-128.666
 30
0.000000
  1
5
  7
ISO
  0
POINT
  5
24C0
  8
DEFPOINTS
 62
     0
 10
76.000000000000057
 20
-74.799999251909554
 30
0.0
  0
POINT
  5
24C1
  8
DEFPOINTS
 62
     0
 10
81.000000000000057
 20
-80.223359969942038
 30
0.0
  0
POINT
  5
24C2
  8
DEFPOINTS
 62
     0
 10
81.000000000000057
 20
-125.8557794594702
 30
0.0
  0
ENDBLK
  5
14D9
  8
0
  0
BLOCK
  8
0
  2
*D123
 70
     1
 10
0.0
 20
0.0
 30
0.0
  3
*D123
  1

  0
LINE
  5
24AF
  8
SAPA_MATT
 10
80.999976179970474
 20
-81.999999963796014
 30
0.0
 11
80.999976179970474
 21
-127.3557794594702
 31
0.0
  0
LINE
  5
24B0
  8
SAPA_MATT
 10
169.99997618387761
 20
-83.499999996299636
 30
0.0
 11
169.99997618387761
 21
-127.3557794594702
 31
0.0
  0
LINE
  5
24B1
  8
SAPA_MATT
 10
83.999976179970474
 20
-125.8557794594702
 30
0.0
 11
166.99997618387761
 21
-125.8557794594702
 31
0.0
  0
SOLID
  5
24B2
  8
SAPA_MATT
 10
83.999976179970474
 20
-125.3557794594702
 30
0.0
 11
83.999976179970474
 21
-126.3557794594702
 31
0.0
 12
80.999976179970474
 22
-125.8557794594702
 32
0.0
 13
80.999976179970474
 23
-125.8557794594702
 33
0.0
  0
SOLID
  5
24B3
  8
SAPA_MATT
 10
166.99997618387761
 20
-125.3557794594702
 30
0.0
 11
166.99997618387761
 21
-126.3557794594702
 31
0.0
 12
169.99997618387761
 22
-125.8557794594702
 32
0.0
 13
169.99997618387761
 23
-125.8557794594702
 33
0.0
  0
TEXT
  8
SAPA_MATT
  40
3
  5
24D2
  62
2
  72
0
  71
0
 10
119.500
 20
-128.666
 30
0.000000
  1
89
  7
ISO
  0
POINT
  5
24B5
  8
DEFPOINTS
 62
     0
 10
80.999976179970474
 20
-80.499999963796
 30
0.0
  0
POINT
  5
24B6
  8
DEFPOINTS
 62
     0
 10
169.99997618387761
 20
-81.999999996299636
 30
0.0
  0
POINT
  5
24B7
  8
DEFPOINTS
 62
     0
 10
169.99997618387761
 20
-125.8557794594702
 30
0.0
  0
ENDBLK
  5
14E7
  8
0
  0
BLOCK
  8
0
  2
*U124
 70
     1
 10
0.0
 20
0.0
 30
0.0
  3
*U124
  1

  0
TEXT
  5
1547
  8
SAPA_ARTIKELNR
 10
-6.4303857324235638
 20
66.451161059970659
 30
0.0
 40
3.5
  1
68654
  7
ISO
  0
ENDBLK
  5
1549
  8
0
  0
BLOCK
  8
0
  2
*U125
 70
     1
 10
0.0
 20
0.0
 30
0.0
  3
*U125
  1

  0
TEXT
  5
154B
  8
SAPA_ARTIKELNR
 10
-6.4303857324235638
 20
-102.82938840410699
 30
0.0
 40
3.5
  1
42657
  7
ISO
  0
ENDBLK
  5
154D
  8
0
  0
BLOCK
  8
0
  2
*U126
 70
     1
 10
0.0
 20
0.0
 30
0.0
  3
*U126
  1

  0
TEXT
  5
154F
  8
SAPA_ARTIKELNR
 10
-6.4303857324235638
 20
-111.8951902723834
 30
0.0
 40
3.5
  1
42227
  7
ISO
  0
ENDBLK
  5
1551
  8
0
  0
BLOCK
  8
0
  2
*U127
 70
     1
 10
0.0
 20
0.0
 30
0.0
  3
*U127
  1

  0
TEXT
  5
1553
  8
SAPA_ARTIKELNR
 10
52.480902685832831
 20
-4.4737221603043054
 30
0.0
 40
3.5
  1
74423
  7
ISO
  0
ENDBLK
  5
1555
  8
0
  0
BLOCK
  8
0
  2
*U128
 70
     1
 10
0.0
 20
0.0
 30
0.0
  3
*U128
  1

  0
TEXT
  5
1557
  8
SAPA_ARTIKELNR
 10
118.37338000536
 20
-4.4737221603043054
 30
0.0
 40
3.5
  1
74424
  7
ISO
  0
ENDBLK
  5
1559
  8
0
  0
BLOCK
  8
0
  2
*U129
 70
     1
 10
0.0
 20
0.0
 30
0.0
  3
*U129
  1

  0
TEXT
  5
155B
  8
SAPA_ARTIKELNR
 10
153.4914724872377
 20
-4.4737221603043054
 30
0.0
 40
3.5
  1
42729
  7
ISO
  0
ENDBLK
  5
155D
  8
0
  0
BLOCK
  8
0
  2
*X130
 70
     1
 10
0.0
 20
0.0
 30
0.0
  3
*X130
  1

  0
LINE
  5
201E
  8
0
 62
     0
 10
141.7300499147301
 20
-60.0075
 30
0.0
 11
145.93004991473009
 21
-60.0075
 31
0.0
  0
LINE
  5
201F
  8
0
 62
     0
 10
142.21259970855161
 20
-58.896249999999988
 30
0.0
 11
145.4445277070123
 21
-58.896249999999988
 31
0.0
  0
LINE
  5
2020
  8
0
 62
     0
 10
142.79698744751209
 20
-57.784999999999989
 30
0.0
 11
144.8271846771211
 21
-57.784999999999989
 31
0.0
  0
LINE
  5
2021
  8
0
 62
     0
 10
142.83004991473001
 20
-56.673749999999991
 30
0.0
 11
146.42317207578881
 21
-56.673749999999991
 31
0.0
  0
LINE
  5
2022
  8
0
 62
     0
 10
143.6286975578316
 20
-55.562499999999993
 30
0.0
 11
147.72478963372799
 21
-55.562499999999993
 31
0.0
  0
LINE
  5
2023
  8
0
 62
     0
 10
145.924763843579
 20
-54.451249999999987
 30
0.0
 11
147.72478963372799
 21
-54.451249999999987
 31
0.0
  0
LINE
  5
2024
  8
0
 62
     0
 10
145.92478963372801
 20
-53.339999999999989
 30
0.0
 11
147.72478963372799
 21
-53.339999999999989
 31
0.0
  0
LINE
  5
2025
  8
0
 62
     0
 10
145.92478963372801
 20
-52.228749999999991
 30
0.0
 11
147.72478963372799
 21
-52.228749999999991
 31
0.0
  0
LINE
  5
2026
  8
0
 62
     0
 10
145.92478963372801
 20
-51.117499999999993
 30
0.0
 11
147.72478963372799
 21
-51.117499999999993
 31
0.0
  0
LINE
  5
2027
  8
0
 62
     0
 10
145.92478963372801
 20
-50.006249999999987
 30
0.0
 11
147.72478963372791
 21
-50.006249999999987
 31
0.0
  0
LINE
  5
2028
  8
0
 62
     0
 10
145.92478963372801
 20
-48.894999999999989
 30
0.0
 11
147.72478963372791
 21
-48.894999999999989
 31
0.0
  0
LINE
  5
2029
  8
0
 62
     0
 10
145.92478963372801
 20
-47.783749999999991
 30
0.0
 11
147.72478963372791
 21
-47.783749999999991
 31
0.0
  0
LINE
  5
202A
  8
0
 62
     0
 10
145.92478963372801
 20
-46.672499999999992
 30
0.0
 11
147.72478963372791
 21
-46.672499999999992
 31
0.0
  0
LINE
  5
202B
  8
0
 62
     0
 10
145.92478963372801
 20
-45.561249999999987
 30
0.0
 11
147.72478963372791
 21
-45.561249999999987
 31
0.0
  0
LINE
  5
202C
  8
0
 62
     0
 10
145.92478963372801
 20
-44.449999999999989
 30
0.0
 11
147.72478963372791
 21
-44.449999999999989
 31
0.0
  0
LINE
  5
202D
  8
0
 62
     0
 10
145.92478963372801
 20
-43.33874999999999
 30
0.0
 11
147.72478963372791
 21
-43.33874999999999
 31
0.0
  0
LINE
  5
202E
  8
0
 62
     0
 10
145.92478963372801
 20
-42.227499999999992
 30
0.0
 11
147.72478963372791
 21
-42.227499999999992
 31
0.0
  0
LINE
  5
202F
  8
0
 62
     0
 10
145.92478963372801
 20
-41.116249999999987
 30
0.0
 11
147.72478963372791
 21
-41.116249999999987
 31
0.0
  0
LINE
  5
2030
  8
0
 62
     0
 10
145.92478963372801
 20
-40.004999999999988
 30
0.0
 11
147.72478963372791
 21
-40.004999999999988
 31
0.0
  0
LINE
  5
2031
  8
0
 62
     0
 10
145.92478963372801
 20
-38.893749999999997
 30
0.0
 11
147.72478963372791
 21
-38.893749999999997
 31
0.0
  0
LINE
  5
2032
  8
0
 62
     0
 10
145.92478963372801
 20
-37.782499999999992
 30
0.0
 11
147.72478963372791
 21
-37.782499999999992
 31
0.0
  0
LINE
  5
2033
  8
0
 62
     0
 10
145.92478963372801
 20
-36.671249999999993
 30
0.0
 11
147.72478963372791
 21
-36.671249999999993
 31
0.0
  0
LINE
  5
2034
  8
0
 62
     0
 10
143.9652638026599
 20
-35.560000000000002
 30
0.0
 11
147.72478963372791
 21
-35.560000000000002
 31
0.0
  0
LINE
  5
2035
  8
0
 62
     0
 10
142.830052207964
 20
-34.448749999999997
 30
0.0
 11
146.759738320617
 21
-34.448749999999997
 31
0.0
  0
LINE
  5
2036
  8
0
 62
     0
 10
142.81970293316749
 20
-33.337499999999999
 30
0.0
 11
144.82648159519789
 21
-33.337499999999999
 31
0.0
  0
LINE
  5
2037
  8
0
 62
     0
 10
142.28332517136189
 20
-32.226249999999993
 30
0.0
 11
145.37684494217569
 21
-32.226249999999993
 31
0.0
  0
LINE
  5
2038
  8
0
 62
     0
 10
141.7300499147301
 20
-31.114999999999991
 30
0.0
 11
145.93004991473001
 21
-31.114999999999991
 31
0.0
  0
ENDBLK
  5
203A
  8
0
  0
BLOCK
  8
0
  2
*X131
 70
     1
 10
0.0
 20
0.0
 30
0.0
  3
*X131
  1

  0
LINE
  5
203C
  8
0
 62
     0
 10
97.372854813101355
 20
-60.068499338818619
 30
0.0
 11
101.5728548131014
 21
-60.068499338818619
 31
0.0
  0
LINE
  5
203D
  8
0
 62
     0
 10
97.821716325692236
 20
-58.95724933881862
 30
0.0
 11
101.1239931001024
 21
-58.95724933881862
 31
0.0
  0
LINE
  5
203E
  8
0
 62
     0
 10
98.499598886950096
 20
-57.845999338818622
 30
0.0
 11
100.5231864527927
 21
-57.845999338818622
 31
0.0
  0
LINE
  5
203F
  8
0
 62
     0
 10
98.472854813161675
 20
-56.734749338818617
 30
0.0
 11
100.4728548137038
 21
-56.734749338818617
 31
0.0
  0
LINE
  5
2040
  8
0
 62
     0
 10
98.472854813161675
 20
-55.623499338818611
 30
0.0
 11
100.4728548136778
 21
-55.623499338818611
 31
0.0
  0
LINE
  5
2041
  8
0
 62
     0
 10
98.472854813161675
 20
-54.51224933881862
 30
0.0
 11
100.47285481365191
 21
-54.51224933881862
 31
0.0
  0
LINE
  5
2042
  8
0
 62
     0
 10
98.472854813161675
 20
-53.400999338818622
 30
0.0
 11
100.472854813626
 21
-53.400999338818622
 31
0.0
  0
LINE
  5
2043
  8
0
 62
     0
 10
98.472854813161675
 20
-52.289749338818623
 30
0.0
 11
100.47285481360009
 21
-52.289749338818623
 31
0.0
  0
LINE
  5
2044
  8
0
 62
     0
 10
98.472854813161675
 20
-51.178499338818618
 30
0.0
 11
100.4728548135741
 21
-51.178499338818618
 31
0.0
  0
LINE
  5
2045
  8
0
 62
     0
 10
98.472854813161675
 20
-50.06724933881862
 30
0.0
 11
100.4728548135482
 21
-50.06724933881862
 31
0.0
  0
LINE
  5
2046
  8
0
 62
     0
 10
98.472854813161675
 20
-48.955999338818621
 30
0.0
 11
100.4728548135223
 21
-48.955999338818621
 31
0.0
  0
LINE
  5
2047
  8
0
 62
     0
 10
98.472854813161675
 20
-47.844749338818623
 30
0.0
 11
100.4728548134964
 21
-47.844749338818623
 31
0.0
  0
LINE
  5
2048
  8
0
 62
     0
 10
98.472854813161675
 20
-46.733499338818618
 30
0.0
 11
100.47285481347041
 21
-46.733499338818618
 31
0.0
  0
LINE
  5
2049
  8
0
 62
     0
 10
98.472854813161675
 20
-45.622249338818619
 30
0.0
 11
100.4728548134445
 21
-45.622249338818619
 31
0.0
  0
LINE
  5
204A
  8
0
 62
     0
 10
98.472854813161675
 20
-44.510999338818621
 30
0.0
 11
100.47285481341861
 21
-44.510999338818621
 31
0.0
  0
LINE
  5
204B
  8
0
 62
     0
 10
98.472854813161675
 20
-43.399749338818623
 30
0.0
 11
100.4728548133927
 21
-43.399749338818623
 31
0.0
  0
LINE
  5
204C
  8
0
 62
     0
 10
98.472854813161675
 20
-42.288499338818617
 30
0.0
 11
100.47285481336669
 21
-42.288499338818617
 31
0.0
  0
LINE
  5
204D
  8
0
 62
     0
 10
98.472854813161675
 20
-41.177249338818619
 30
0.0
 11
100.4728548133408
 21
-41.177249338818619
 31
0.0
  0
LINE
  5
204E
  8
0
 62
     0
 10
98.472854813161675
 20
-40.065999338818621
 30
0.0
 11
100.4728548133149
 21
-40.065999338818621
 31
0.0
  0
LINE
  5
204F
  8
0
 62
     0
 10
98.472854813161675
 20
-38.954749338818623
 30
0.0
 11
100.472854813289
 21
-38.954749338818623
 31
0.0
  0
LINE
  5
2050
  8
0
 62
     0
 10
98.472854813161675
 20
-37.843499338818631
 30
0.0
 11
100.472854813263
 21
-37.843499338818631
 31
0.0
  0
LINE
  5
2051
  8
0
 62
     0
 10
98.472854813161675
 20
-36.732249338818633
 30
0.0
 11
100.47285481323711
 21
-36.732249338818633
 31
0.0
  0
LINE
  5
2052
  8
0
 62
     0
 10
98.472854813161675
 20
-35.620999338818621
 30
0.0
 11
100.4728548132112
 21
-35.620999338818621
 31
0.0
  0
LINE
  5
2053
  8
0
 62
     0
 10
98.472854813161675
 20
-34.509749338818622
 30
0.0
 11
100.47285481318529
 21
-34.509749338818622
 31
0.0
  0
LINE
  5
2054
  8
0
 62
     0
 10
98.472854813161675
 20
-33.398499338818631
 30
0.0
 11
100.47697826820431
 21
-33.398499338818631
 31
0.0
  0
LINE
  5
2055
  8
0
 62
     0
 10
97.961922014497404
 20
-32.287249338818633
 30
0.0
 11
100.98378734871091
 21
-32.287249338818633
 31
0.0
  0
LINE
  5
2056
  8
0
 62
     0
 10
97.372854813107125
 20
-31.175999338818631
 30
0.0
 11
101.5728548131072
 21
-31.175999338818631
 31
0.0
  0
ENDBLK
  5
2058
  8
0
  0
BLOCK
  8
0
  2
*X132
 70
     1
 10
0.0
 20
0.0
 30
0.0
  3
*X132
  1

  0
LINE
  5
205A
  8
0
 62
     0
 10
33.273652144250633
 20
-59.388750107820798
 30
0.0
 11
37.076130231160313
 21
-59.388750107820798
 31
0.0
  0
LINE
  5
205B
  8
0
 62
     0
 10
34.306728355014279
 20
-58.277500107820799
 30
0.0
 11
36.434549744523352
 21
-58.277500107820799
 31
0.0
  0
LINE
  5
205C
  8
0
 62
     0
 10
33.934345709662892
 20
-57.166250107820787
 30
0.0
 11
36.17433495774975
 21
-57.166250107820787
 31
0.0
  0
LINE
  5
205D
  8
0
 62
     0
 10
31.303094855968322
 20
-56.055000107820803
 30
0.0
 11
36.041287094708551
 21
-56.055000107820803
 31
0.0
  0
LINE
  5
205E
  8
0
 62
     0
 10
31.279595238751831
 20
-54.94375010782079
 30
0.0
 11
33.675685945251089
 21
-54.94375010782079
 31
0.0
  0
LINE
  5
205F
  8
0
 62
     0
 10
31.279595238751831
 20
-53.832500107820799
 30
0.0
 11
33.079595238751793
 21
-53.832500107820799
 31
0.0
  0
LINE
  5
2060
  8
0
 62
     0
 10
31.279595238751831
 20
-52.721250107820801
 30
0.0
 11
33.079595238751793
 21
-52.721250107820801
 31
0.0
  0
LINE
  5
2061
  8
0
 62
     0
 10
31.279595238751838
 20
-51.610000107820788
 30
0.0
 11
33.0795952387518
 21
-51.610000107820788
 31
0.0
  0
LINE
  5
2062
  8
0
 62
     0
 10
31.279595238751838
 20
-50.498750107820797
 30
0.0
 11
33.079595238751807
 21
-50.498750107820797
 31
0.0
  0
LINE
  5
2063
  8
0
 62
     0
 10
31.279595238751838
 20
-49.387500107820792
 30
0.0
 11
33.079595238751821
 21
-49.387500107820792
 31
0.0
  0
LINE
  5
2064
  8
0
 62
     0
 10
31.279595238751849
 20
-48.2762501078208
 30
0.0
 11
33.079595238751821
 21
-48.2762501078208
 31
0.0
  0
LINE
  5
2065
  8
0
 62
     0
 10
31.279595238751849
 20
-47.165000107820802
 30
0.0
 11
33.079595238751828
 21
-47.165000107820802
 31
0.0
  0
LINE
  5
2066
  8
0
 62
     0
 10
31.27959523875186
 20
-46.05375010782079
 30
0.0
 11
33.079595238751828
 21
-46.05375010782079
 31
0.0
  0
LINE
  5
2067
  8
0
 62
     0
 10
31.27959523875186
 20
-44.942500107820798
 30
0.0
 11
33.079595238751828
 21
-44.942500107820798
 31
0.0
  0
LINE
  5
2068
  8
0
 62
     0
 10
31.27959523875186
 20
-43.831250107820793
 30
0.0
 11
33.079595238751828
 21
-43.831250107820793
 31
0.0
  0
LINE
  5
2069
  8
0
 62
     0
 10
31.27959523875187
 20
-42.720000107820788
 30
0.0
 11
33.079595238751828
 21
-42.720000107820788
 31
0.0
  0
LINE
  5
206A
  8
0
 62
     0
 10
31.27959523875187
 20
-41.608750107820789
 30
0.0
 11
33.079595238751828
 21
-41.608750107820789
 31
0.0
  0
LINE
  5
206B
  8
0
 62
     0
 10
31.279595238751881
 20
-40.497500107820791
 30
0.0
 11
33.079595238751828
 21
-40.497500107820791
 31
0.0
  0
LINE
  5
206C
  8
0
 62
     0
 10
31.279595238751892
 20
-39.3862501078208
 30
0.0
 11
33.079595238751828
 21
-39.3862501078208
 31
0.0
  0
LINE
  5
206D
  8
0
 62
     0
 10
31.279595238751892
 20
-38.275000107820802
 30
0.0
 11
33.079595238751828
 21
-38.275000107820802
 31
0.0
  0
LINE
  5
206E
  8
0
 62
     0
 10
31.279595238751899
 20
-37.163750107820803
 30
0.0
 11
33.079595238751828
 21
-37.163750107820803
 31
0.0
  0
LINE
  5
206F
  8
0
 62
     0
 10
31.279595238751909
 20
-36.052500107820798
 30
0.0
 11
33.685988156848062
 21
-36.052500107820798
 31
0.0
  0
LINE
  5
2070
  8
0
 62
     0
 10
31.304461348329252
 20
-34.9412501078208
 30
0.0
 11
36.043431950278531
 21
-34.9412501078208
 31
0.0
  0
LINE
  5
2071
  8
0
 62
     0
 10
33.944647921259907
 20
-33.830000107820801
 30
0.0
 11
36.174334957749892
 21
-33.830000107820801
 31
0.0
  0
LINE
  5
2072
  8
0
 62
     0
 10
34.304100578570299
 20
-32.718750107820803
 30
0.0
 11
36.436714633885742
 21
-32.718750107820803
 31
0.0
  0
LINE
  5
2073
  8
0
 62
     0
 10
33.270352322784852
 20
-31.607500107820801
 30
0.0
 11
37.078295120522753
 21
-31.607500107820801
 31
0.0
  0
ENDBLK
  5
2075
  8
0
  0
BLOCK
  8
0
  2
*X133
 70
     1
 10
0.0
 20
0.0
 30
0.0
  3
*X133
  1

  0
LINE
  5
2077
  8
0
 62
     0
 10
77.427121362238125
 20
-60.0075
 30
0.0
 11
81.627121362238171
 21
-60.0075
 31
0.0
  0
LINE
  5
2078
  8
0
 62
     0
 10
77.910962632268962
 20
-58.896249999999988
 30
0.0
 11
81.143280308232832
 21
-58.896249999999988
 31
0.0
  0
LINE
  5
2079
  8
0
 62
     0
 10
78.493299290464861
 20
-57.784999999999989
 30
0.0
 11
80.527121362179287
 21
-57.784999999999989
 31
0.0
  0
LINE
  5
207A
  8
0
 62
     0
 10
78.527121361638592
 20
-56.673749999999991
 30
0.0
 11
80.527121362179287
 21
-56.673749999999991
 31
0.0
  0
LINE
  5
207B
  8
0
 62
     0
 10
78.527121361664513
 20
-55.562499999999993
 30
0.0
 11
80.527121362179287
 21
-55.562499999999993
 31
0.0
  0
LINE
  5
207C
  8
0
 62
     0
 10
78.527121361690448
 20
-54.451249999999987
 30
0.0
 11
80.527121362179287
 21
-54.451249999999987
 31
0.0
  0
LINE
  5
207D
  8
0
 62
     0
 10
78.527121361716354
 20
-53.339999999999989
 30
0.0
 11
80.527121362179287
 21
-53.339999999999989
 31
0.0
  0
LINE
  5
207E
  8
0
 62
     0
 10
78.527121361742289
 20
-52.228749999999991
 30
0.0
 11
80.527121362179287
 21
-52.228749999999991
 31
0.0
  0
LINE
  5
207F
  8
0
 62
     0
 10
78.527121361768224
 20
-51.117499999999993
 30
0.0
 11
80.527121362179287
 21
-51.117499999999993
 31
0.0
  0
LINE
  5
2080
  8
0
 62
     0
 10
78.527121361794144
 20
-50.006249999999987
 30
0.0
 11
80.527121362179287
 21
-50.006249999999987
 31
0.0
  0
LINE
  5
2081
  8
0
 62
     0
 10
78.527121361820065
 20
-48.894999999999989
 30
0.0
 11
80.527121362179287
 21
-48.894999999999989
 31
0.0
  0
LINE
  5
2082
  8
0
 62
     0
 10
78.527121361845985
 20
-47.783749999999991
 30
0.0
 11
80.527121362179287
 21
-47.783749999999991
 31
0.0
  0
LINE
  5
2083
  8
0
 62
     0
 10
78.52712136187192
 20
-46.672499999999992
 30
0.0
 11
80.527121362179287
 21
-46.672499999999992
 31
0.0
  0
LINE
  5
2084
  8
0
 62
     0
 10
78.527121361897841
 20
-45.561249999999987
 30
0.0
 11
80.527121362179287
 21
-45.561249999999987
 31
0.0
  0
LINE
  5
2085
  8
0
 62
     0
 10
78.527121361923776
 20
-44.449999999999989
 30
0.0
 11
80.527121362179287
 21
-44.449999999999989
 31
0.0
  0
LINE
  5
2086
  8
0
 62
     0
 10
78.527121361949696
 20
-43.33874999999999
 30
0.0
 11
80.527121362179287
 21
-43.33874999999999
 31
0.0
  0
LINE
  5
2087
  8
0
 62
     0
 10
78.527121361975617
 20
-42.227499999999992
 30
0.0
 11
80.527121362179287
 21
-42.227499999999992
 31
0.0
  0
LINE
  5
2088
  8
0
 62
     0
 10
78.527121362001552
 20
-41.116249999999987
 30
0.0
 11
80.527121362179287
 21
-41.116249999999987
 31
0.0
  0
LINE
  5
2089
  8
0
 62
     0
 10
78.527121362027472
 20
-40.004999999999988
 30
0.0
 11
80.527121362179287
 21
-40.004999999999988
 31
0.0
  0
LINE
  5
208A
  8
0
 62
     0
 10
78.527121362053407
 20
-38.893749999999997
 30
0.0
 11
80.527121362179287
 21
-38.893749999999997
 31
0.0
  0
LINE
  5
208B
  8
0
 62
     0
 10
78.527121362079328
 20
-37.782499999999992
 30
0.0
 11
80.527121362179287
 21
-37.782499999999992
 31
0.0
  0
LINE
  5
208C
  8
0
 62
     0
 10
78.527121362105234
 20
-36.671249999999993
 30
0.0
 11
80.527121362179287
 21
-36.671249999999993
 31
0.0
  0
LINE
  5
208D
  8
0
 62
     0
 10
78.527121362131183
 20
-35.560000000000002
 30
0.0
 11
80.527121362179287
 21
-35.560000000000002
 31
0.0
  0
LINE
  5
208E
  8
0
 62
     0
 10
78.527121362157104
 20
-34.448749999999997
 30
0.0
 11
80.527121362179287
 21
-34.448749999999997
 31
0.0
  0
LINE
  5
208F
  8
0
 62
     0
 10
78.516353794705779
 20
-33.337499999999999
 30
0.0
 11
80.527121362179287
 21
-33.337499999999999
 31
0.0
  0
LINE
  5
2090
  8
0
 62
     0
 10
77.98120926959966
 20
-32.226249999999993
 30
0.0
 11
81.073033702259451
 21
-32.226249999999993
 31
0.0
  0
LINE
  5
2091
  8
0
 62
     0
 10
77.427121362235226
 20
-31.114999999999991
 30
0.0
 11
81.627121362235314
 21
-31.114999999999991
 31
0.0
  0
ENDBLK
  5
2093
  8
0
  0
BLOCK
  8
0
  2
*X134
 70
     1
 10
0.0
 20
0.0
 30
0.0
  3
*X134
  1

  0
LINE
  5
2095
  8
0
 62
     0
 10
141.7300499147301
 20
-60.0075
 30
0.0
 11
145.93004991473009
 21
-60.0075
 31
0.0
  0
LINE
  5
2096
  8
0
 62
     0
 10
142.21259970855161
 20
-58.896249999999988
 30
0.0
 11
145.4445277070123
 21
-58.896249999999988
 31
0.0
  0
LINE
  5
2097
  8
0
 62
     0
 10
142.79698744751209
 20
-57.784999999999989
 30
0.0
 11
144.8271846771211
 21
-57.784999999999989
 31
0.0
  0
LINE
  5
2098
  8
0
 62
     0
 10
142.83004991473001
 20
-56.673749999999991
 30
0.0
 11
146.42317207578881
 21
-56.673749999999991
 31
0.0
  0
LINE
  5
2099
  8
0
 62
     0
 10
143.6286975578316
 20
-55.562499999999993
 30
0.0
 11
147.72478963372799
 21
-55.562499999999993
 31
0.0
  0
LINE
  5
209A
  8
0
 62
     0
 10
145.924763843579
 20
-54.451249999999987
 30
0.0
 11
147.72478963372799
 21
-54.451249999999987
 31
0.0
  0
LINE
  5
209B
  8
0
 62
     0
 10
145.92478963372801
 20
-53.339999999999989
 30
0.0
 11
147.72478963372799
 21
-53.339999999999989
 31
0.0
  0
LINE
  5
209C
  8
0
 62
     0
 10
145.92478963372801
 20
-52.228749999999991
 30
0.0
 11
147.72478963372799
 21
-52.228749999999991
 31
0.0
  0
LINE
  5
209D
  8
0
 62
     0
 10
145.92478963372801
 20
-51.117499999999993
 30
0.0
 11
147.72478963372799
 21
-51.117499999999993
 31
0.0
  0
LINE
  5
209E
  8
0
 62
     0
 10
145.92478963372801
 20
-50.006249999999987
 30
0.0
 11
147.72478963372791
 21
-50.006249999999987
 31
0.0
  0
LINE
  5
209F
  8
0
 62
     0
 10
145.92478963372801
 20
-48.894999999999989
 30
0.0
 11
147.72478963372791
 21
-48.894999999999989
 31
0.0
  0
LINE
  5
20A0
  8
0
 62
     0
 10
145.92478963372801
 20
-47.783749999999991
 30
0.0
 11
147.72478963372791
 21
-47.783749999999991
 31
0.0
  0
LINE
  5
20A1
  8
0
 62
     0
 10
145.92478963372801
 20
-46.672499999999992
 30
0.0
 11
147.72478963372791
 21
-46.672499999999992
 31
0.0
  0
LINE
  5
20A2
  8
0
 62
     0
 10
145.92478963372801
 20
-45.561249999999987
 30
0.0
 11
147.72478963372791
 21
-45.561249999999987
 31
0.0
  0
LINE
  5
20A3
  8
0
 62
     0
 10
145.92478963372801
 20
-44.449999999999989
 30
0.0
 11
147.72478963372791
 21
-44.449999999999989
 31
0.0
  0
LINE
  5
20A4
  8
0
 62
     0
 10
145.92478963372801
 20
-43.33874999999999
 30
0.0
 11
147.72478963372791
 21
-43.33874999999999
 31
0.0
  0
LINE
  5
20A5
  8
0
 62
     0
 10
145.92478963372801
 20
-42.227499999999992
 30
0.0
 11
147.72478963372791
 21
-42.227499999999992
 31
0.0
  0
LINE
  5
20A6
  8
0
 62
     0
 10
145.92478963372801
 20
-41.116249999999987
 30
0.0
 11
147.72478963372791
 21
-41.116249999999987
 31
0.0
  0
LINE
  5
20A7
  8
0
 62
     0
 10
145.92478963372801
 20
-40.004999999999988
 30
0.0
 11
147.72478963372791
 21
-40.004999999999988
 31
0.0
  0
LINE
  5
20A8
  8
0
 62
     0
 10
145.92478963372801
 20
-38.893749999999997
 30
0.0
 11
147.72478963372791
 21
-38.893749999999997
 31
0.0
  0
LINE
  5
20A9
  8
0
 62
     0
 10
145.92478963372801
 20
-37.782499999999992
 30
0.0
 11
147.72478963372791
 21
-37.782499999999992
 31
0.0
  0
LINE
  5
20AA
  8
0
 62
     0
 10
145.92478963372801
 20
-36.671249999999993
 30
0.0
 11
147.72478963372791
 21
-36.671249999999993
 31
0.0
  0
LINE
  5
20AB
  8
0
 62
     0
 10
143.9652638026599
 20
-35.560000000000002
 30
0.0
 11
147.72478963372791
 21
-35.560000000000002
 31
0.0
  0
LINE
  5
20AC
  8
0
 62
     0
 10
142.830052207964
 20
-34.448749999999997
 30
0.0
 11
146.759738320617
 21
-34.448749999999997
 31
0.0
  0
LINE
  5
20AD
  8
0
 62
     0
 10
142.81970293316749
 20
-33.337499999999999
 30
0.0
 11
144.82648159519789
 21
-33.337499999999999
 31
0.0
  0
LINE
  5
20AE
  8
0
 62
     0
 10
142.28332517136189
 20
-32.226249999999993
 30
0.0
 11
145.37684494217569
 21
-32.226249999999993
 31
0.0
  0
LINE
  5
20AF
  8
0
 62
     0
 10
141.7300499147301
 20
-31.114999999999991
 30
0.0
 11
145.93004991473001
 21
-31.114999999999991
 31
0.0
  0
ENDBLK
  5
20B1
  8
0
  0
BLOCK
  8
0
  2
*X135
 70
     1
 10
0.0
 20
0.0
 30
0.0
  3
*X135
  1

  0
LINE
  5
20B3
  8
0
 62
     0
 10
97.372854813101355
 20
-60.068499338818619
 30
0.0
 11
101.5728548131014
 21
-60.068499338818619
 31
0.0
  0
LINE
  5
20B4
  8
0
 62
     0
 10
97.821716325692236
 20
-58.95724933881862
 30
0.0
 11
101.1239931001024
 21
-58.95724933881862
 31
0.0
  0
LINE
  5
20B5
  8
0
 62
     0
 10
98.499598886950096
 20
-57.845999338818622
 30
0.0
 11
100.5231864527927
 21
-57.845999338818622
 31
0.0
  0
LINE
  5
20B6
  8
0
 62
     0
 10
98.472854813161675
 20
-56.734749338818617
 30
0.0
 11
100.4728548137038
 21
-56.734749338818617
 31
0.0
  0
LINE
  5
20B7
  8
0
 62
     0
 10
98.472854813161675
 20
-55.623499338818611
 30
0.0
 11
100.4728548136778
 21
-55.623499338818611
 31
0.0
  0
LINE
  5
20B8
  8
0
 62
     0
 10
98.472854813161675
 20
-54.51224933881862
 30
0.0
 11
100.47285481365191
 21
-54.51224933881862
 31
0.0
  0
LINE
  5
20B9
  8
0
 62
     0
 10
98.472854813161675
 20
-53.400999338818622
 30
0.0
 11
100.472854813626
 21
-53.400999338818622
 31
0.0
  0
LINE
  5
20BA
  8
0
 62
     0
 10
98.472854813161675
 20
-52.289749338818623
 30
0.0
 11
100.47285481360009
 21
-52.289749338818623
 31
0.0
  0
LINE
  5
20BB
  8
0
 62
     0
 10
98.472854813161675
 20
-51.178499338818618
 30
0.0
 11
100.4728548135741
 21
-51.178499338818618
 31
0.0
  0
LINE
  5
20BC
  8
0
 62
     0
 10
98.472854813161675
 20
-50.06724933881862
 30
0.0
 11
100.4728548135482
 21
-50.06724933881862
 31
0.0
  0
LINE
  5
20BD
  8
0
 62
     0
 10
98.472854813161675
 20
-48.955999338818621
 30
0.0
 11
100.4728548135223
 21
-48.955999338818621
 31
0.0
  0
LINE
  5
20BE
  8
0
 62
     0
 10
98.472854813161675
 20
-47.844749338818623
 30
0.0
 11
100.4728548134964
 21
-47.844749338818623
 31
0.0
  0
LINE
  5
20BF
  8
0
 62
     0
 10
98.472854813161675
 20
-46.733499338818618
 30
0.0
 11
100.47285481347041
 21
-46.733499338818618
 31
0.0
  0
LINE
  5
20C0
  8
0
 62
     0
 10
98.472854813161675
 20
-45.622249338818619
 30
0.0
 11
100.4728548134445
 21
-45.622249338818619
 31
0.0
  0
LINE
  5
20C1
  8
0
 62
     0
 10
98.472854813161675
 20
-44.510999338818621
 30
0.0
 11
100.47285481341861
 21
-44.510999338818621
 31
0.0
  0
LINE
  5
20C2
  8
0
 62
     0
 10
98.472854813161675
 20
-43.399749338818623
 30
0.0
 11
100.4728548133927
 21
-43.399749338818623
 31
0.0
  0
LINE
  5
20C3
  8
0
 62
     0
 10
98.472854813161675
 20
-42.288499338818617
 30
0.0
 11
100.47285481336669
 21
-42.288499338818617
 31
0.0
  0
LINE
  5
20C4
  8
0
 62
     0
 10
98.472854813161675
 20
-41.177249338818619
 30
0.0
 11
100.4728548133408
 21
-41.177249338818619
 31
0.0
  0
LINE
  5
20C5
  8
0
 62
     0
 10
98.472854813161675
 20
-40.065999338818621
 30
0.0
 11
100.4728548133149
 21
-40.065999338818621
 31
0.0
  0
LINE
  5
20C6
  8
0
 62
     0
 10
98.472854813161675
 20
-38.954749338818623
 30
0.0
 11
100.472854813289
 21
-38.954749338818623
 31
0.0
  0
LINE
  5
20C7
  8
0
 62
     0
 10
98.472854813161675
 20
-37.843499338818631
 30
0.0
 11
100.472854813263
 21
-37.843499338818631
 31
0.0
  0
LINE
  5
20C8
  8
0
 62
     0
 10
98.472854813161675
 20
-36.732249338818633
 30
0.0
 11
100.47285481323711
 21
-36.732249338818633
 31
0.0
  0
LINE
  5
20C9
  8
0
 62
     0
 10
98.472854813161675
 20
-35.620999338818621
 30
0.0
 11
100.4728548132112
 21
-35.620999338818621
 31
0.0
  0
LINE
  5
20CA
  8
0
 62
     0
 10
98.472854813161675
 20
-34.509749338818622
 30
0.0
 11
100.47285481318529
 21
-34.509749338818622
 31
0.0
  0
LINE
  5
20CB
  8
0
 62
     0
 10
98.472854813161675
 20
-33.398499338818631
 30
0.0
 11
100.47697826820431
 21
-33.398499338818631
 31
0.0
  0
LINE
  5
20CC
  8
0
 62
     0
 10
97.961922014497404
 20
-32.287249338818633
 30
0.0
 11
100.98378734871091
 21
-32.287249338818633
 31
0.0
  0
LINE
  5
20CD
  8
0
 62
     0
 10
97.372854813107125
 20
-31.175999338818631
 30
0.0
 11
101.5728548131072
 21
-31.175999338818631
 31
0.0
  0
ENDBLK
  5
20CF
  8
0
  0
BLOCK
  8
0
  2
*X136
 70
     1
 10
0.0
 20
0.0
 30
0.0
  3
*X136
  1

  0
LINE
  5
20D1
  8
0
 62
     0
 10
33.273652144250633
 20
-59.388750107820798
 30
0.0
 11
37.076130231160313
 21
-59.388750107820798
 31
0.0
  0
LINE
  5
20D2
  8
0
 62
     0
 10
34.306728355014279
 20
-58.277500107820799
 30
0.0
 11
36.434549744523352
 21
-58.277500107820799
 31
0.0
  0
LINE
  5
20D3
  8
0
 62
     0
 10
33.934345709662892
 20
-57.166250107820787
 30
0.0
 11
36.17433495774975
 21
-57.166250107820787
 31
0.0
  0
LINE
  5
20D4
  8
0
 62
     0
 10
31.303094855968322
 20
-56.055000107820803
 30
0.0
 11
36.041287094708551
 21
-56.055000107820803
 31
0.0
  0
LINE
  5
20D5
  8
0
 62
     0
 10
31.279595238751831
 20
-54.94375010782079
 30
0.0
 11
33.675685945251089
 21
-54.94375010782079
 31
0.0
  0
LINE
  5
20D6
  8
0
 62
     0
 10
31.279595238751831
 20
-53.832500107820799
 30
0.0
 11
33.079595238751793
 21
-53.832500107820799
 31
0.0
  0
LINE
  5
20D7
  8
0
 62
     0
 10
31.279595238751831
 20
-52.721250107820801
 30
0.0
 11
33.079595238751793
 21
-52.721250107820801
 31
0.0
  0
LINE
  5
20D8
  8
0
 62
     0
 10
31.279595238751838
 20
-51.610000107820788
 30
0.0
 11
33.0795952387518
 21
-51.610000107820788
 31
0.0
  0
LINE
  5
20D9
  8
0
 62
     0
 10
31.279595238751838
 20
-50.498750107820797
 30
0.0
 11
33.079595238751807
 21
-50.498750107820797
 31
0.0
  0
LINE
  5
20DA
  8
0
 62
     0
 10
31.279595238751838
 20
-49.387500107820792
 30
0.0
 11
33.079595238751821
 21
-49.387500107820792
 31
0.0
  0
LINE
  5
20DB
  8
0
 62
     0
 10
31.279595238751849
 20
-48.2762501078208
 30
0.0
 11
33.079595238751821
 21
-48.2762501078208
 31
0.0
  0
LINE
  5
20DC
  8
0
 62
     0
 10
31.279595238751849
 20
-47.165000107820802
 30
0.0
 11
33.079595238751828
 21
-47.165000107820802
 31
0.0
  0
LINE
  5
20DD
  8
0
 62
     0
 10
31.27959523875186
 20
-46.05375010782079
 30
0.0
 11
33.079595238751828
 21
-46.05375010782079
 31
0.0
  0
LINE
  5
20DE
  8
0
 62
     0
 10
31.27959523875186
 20
-44.942500107820798
 30
0.0
 11
33.079595238751828
 21
-44.942500107820798
 31
0.0
  0
LINE
  5
20DF
  8
0
 62
     0
 10
31.27959523875186
 20
-43.831250107820793
 30
0.0
 11
33.079595238751828
 21
-43.831250107820793
 31
0.0
  0
LINE
  5
20E0
  8
0
 62
     0
 10
31.27959523875187
 20
-42.720000107820788
 30
0.0
 11
33.079595238751828
 21
-42.720000107820788
 31
0.0
  0
LINE
  5
20E1
  8
0
 62
     0
 10
31.27959523875187
 20
-41.608750107820789
 30
0.0
 11
33.079595238751828
 21
-41.608750107820789
 31
0.0
  0
LINE
  5
20E2
  8
0
 62
     0
 10
31.279595238751881
 20
-40.497500107820791
 30
0.0
 11
33.079595238751828
 21
-40.497500107820791
 31
0.0
  0
LINE
  5
20E3
  8
0
 62
     0
 10
31.279595238751892
 20
-39.3862501078208
 30
0.0
 11
33.079595238751828
 21
-39.3862501078208
 31
0.0
  0
LINE
  5
20E4
  8
0
 62
     0
 10
31.279595238751892
 20
-38.275000107820802
 30
0.0
 11
33.079595238751828
 21
-38.275000107820802
 31
0.0
  0
LINE
  5
20E5
  8
0
 62
     0
 10
31.279595238751899
 20
-37.163750107820803
 30
0.0
 11
33.079595238751828
 21
-37.163750107820803
 31
0.0
  0
LINE
  5
20E6
  8
0
 62
     0
 10
31.279595238751909
 20
-36.052500107820798
 30
0.0
 11
33.685988156848062
 21
-36.052500107820798
 31
0.0
  0
LINE
  5
20E7
  8
0
 62
     0
 10
31.304461348329252
 20
-34.9412501078208
 30
0.0
 11
36.043431950278531
 21
-34.9412501078208
 31
0.0
  0
LINE
  5
20E8
  8
0
 62
     0
 10
33.944647921259907
 20
-33.830000107820801
 30
0.0
 11
36.174334957749892
 21
-33.830000107820801
 31
0.0
  0
LINE
  5
20E9
  8
0
 62
     0
 10
34.304100578570299
 20
-32.718750107820803
 30
0.0
 11
36.436714633885742
 21
-32.718750107820803
 31
0.0
  0
LINE
  5
20EA
  8
0
 62
     0
 10
33.270352322784852
 20
-31.607500107820801
 30
0.0
 11
37.078295120522753
 21
-31.607500107820801
 31
0.0
  0
ENDBLK
  5
20EC
  8
0
  0
BLOCK
  8
0
  2
*X137
 70
     1
 10
0.0
 20
0.0
 30
0.0
  3
*X137
  1

  0
LINE
  5
20EE
  8
0
 62
     0
 10
77.427121362238125
 20
-60.0075
 30
0.0
 11
81.627121362238171
 21
-60.0075
 31
0.0
  0
LINE
  5
20EF
  8
0
 62
     0
 10
77.910962632268962
 20
-58.896249999999988
 30
0.0
 11
81.143280308232832
 21
-58.896249999999988
 31
0.0
  0
LINE
  5
20F0
  8
0
 62
     0
 10
78.493299290464861
 20
-57.784999999999989
 30
0.0
 11
80.527121362179287
 21
-57.784999999999989
 31
0.0
  0
LINE
  5
20F1
  8
0
 62
     0
 10
78.527121361638592
 20
-56.673749999999991
 30
0.0
 11
80.527121362179287
 21
-56.673749999999991
 31
0.0
  0
LINE
  5
20F2
  8
0
 62
     0
 10
78.527121361664513
 20
-55.562499999999993
 30
0.0
 11
80.527121362179287
 21
-55.562499999999993
 31
0.0
  0
LINE
  5
20F3
  8
0
 62
     0
 10
78.527121361690448
 20
-54.451249999999987
 30
0.0
 11
80.527121362179287
 21
-54.451249999999987
 31
0.0
  0
LINE
  5
20F4
  8
0
 62
     0
 10
78.527121361716354
 20
-53.339999999999989
 30
0.0
 11
80.527121362179287
 21
-53.339999999999989
 31
0.0
  0
LINE
  5
20F5
  8
0
 62
     0
 10
78.527121361742289
 20
-52.228749999999991
 30
0.0
 11
80.527121362179287
 21
-52.228749999999991
 31
0.0
  0
LINE
  5
20F6
  8
0
 62
     0
 10
78.527121361768224
 20
-51.117499999999993
 30
0.0
 11
80.527121362179287
 21
-51.117499999999993
 31
0.0
  0
LINE
  5
20F7
  8
0
 62
     0
 10
78.527121361794144
 20
-50.006249999999987
 30
0.0
 11
80.527121362179287
 21
-50.006249999999987
 31
0.0
  0
LINE
  5
20F8
  8
0
 62
     0
 10
78.527121361820065
 20
-48.894999999999989
 30
0.0
 11
80.527121362179287
 21
-48.894999999999989
 31
0.0
  0
LINE
  5
20F9
  8
0
 62
     0
 10
78.527121361845985
 20
-47.783749999999991
 30
0.0
 11
80.527121362179287
 21
-47.783749999999991
 31
0.0
  0
LINE
  5
20FA
  8
0
 62
     0
 10
78.52712136187192
 20
-46.672499999999992
 30
0.0
 11
80.527121362179287
 21
-46.672499999999992
 31
0.0
  0
LINE
  5
20FB
  8
0
 62
     0
 10
78.527121361897841
 20
-45.561249999999987
 30
0.0
 11
80.527121362179287
 21
-45.561249999999987
 31
0.0
  0
LINE
  5
20FC
  8
0
 62
     0
 10
78.527121361923776
 20
-44.449999999999989
 30
0.0
 11
80.527121362179287
 21
-44.449999999999989
 31
0.0
  0
LINE
  5
20FD
  8
0
 62
     0
 10
78.527121361949696
 20
-43.33874999999999
 30
0.0
 11
80.527121362179287
 21
-43.33874999999999
 31
0.0
  0
LINE
  5
20FE
  8
0
 62
     0
 10
78.527121361975617
 20
-42.227499999999992
 30
0.0
 11
80.527121362179287
 21
-42.227499999999992
 31
0.0
  0
LINE
  5
20FF
  8
0
 62
     0
 10
78.527121362001552
 20
-41.116249999999987
 30
0.0
 11
80.527121362179287
 21
-41.116249999999987
 31
0.0
  0
LINE
  5
2100
  8
0
 62
     0
 10
78.527121362027472
 20
-40.004999999999988
 30
0.0
 11
80.527121362179287
 21
-40.004999999999988
 31
0.0
  0
LINE
  5
2101
  8
0
 62
     0
 10
78.527121362053407
 20
-38.893749999999997
 30
0.0
 11
80.527121362179287
 21
-38.893749999999997
 31
0.0
  0
LINE
  5
2102
  8
0
 62
     0
 10
78.527121362079328
 20
-37.782499999999992
 30
0.0
 11
80.527121362179287
 21
-37.782499999999992
 31
0.0
  0
LINE
  5
2103
  8
0
 62
     0
 10
78.527121362105234
 20
-36.671249999999993
 30
0.0
 11
80.527121362179287
 21
-36.671249999999993
 31
0.0
  0
LINE
  5
2104
  8
0
 62
     0
 10
78.527121362131183
 20
-35.560000000000002
 30
0.0
 11
80.527121362179287
 21
-35.560000000000002
 31
0.0
  0
LINE
  5
2105
  8
0
 62
     0
 10
78.527121362157104
 20
-34.448749999999997
 30
0.0
 11
80.527121362179287
 21
-34.448749999999997
 31
0.0
  0
LINE
  5
2106
  8
0
 62
     0
 10
78.516353794705779
 20
-33.337499999999999
 30
0.0
 11
80.527121362179287
 21
-33.337499999999999
 31
0.0
  0
LINE
  5
2107
  8
0
 62
     0
 10
77.98120926959966
 20
-32.226249999999993
 30
0.0
 11
81.073033702259451
 21
-32.226249999999993
 31
0.0
  0
LINE
  5
2108
  8
0
 62
     0
 10
77.427121362235226
 20
-31.114999999999991
 30
0.0
 11
81.627121362235314
 21
-31.114999999999991
 31
0.0
  0
ENDBLK
  5
210A
  8
0
  0
BLOCK
  8
0
  2
*U138
 70
     1
 10
0.0
 20
0.0
 30
0.0
  3
*U138
  1

  0
SOLID
  5
210C
  8
SAPA_FOGBAND
  6
CONTINUOUS
 10
18.616845196720529
 20
-84.382617202080866
 30
0.0
 11
18.43656763294733
 21
-84.457290613987297
 31
0.0
 12
18.797122760493728
 22
-84.457290613987297
 32
0.0
 13
18.797122760493728
 23
-84.457290613987297
 33
0.0
210
0.0
220
0.0
230
1.0
  0
SOLID
  5
210D
  8
SAPA_FOGBAND
  6
CONTINUOUS
 10
18.43656763294733
 20
-84.457290613987297
 30
0.0
 11
18.361894221040892
 21
-84.637568177760485
 31
0.0
 12
18.87179617240017
 22
-84.637568177760485
 32
0.0
 13
18.87179617240017
 23
-84.637568177760485
 33
0.0
210
0.0
220
0.0
230
1.0
  0
SOLID
  5
210E
  8
SAPA_FOGBAND
  6
CONTINUOUS
 10
-18.43656763294733
 20
-84.457290613987297
 30
0.0
 11
-18.797122760493728
 21
-84.457290613987297
 31
0.0
 12
-18.87179617240017
 22
-84.637568177760485
 32
0.0
 13
-18.87179617240017
 23
-84.637568177760485
 33
0.0
210
0.0
220
0.0
230
-1.0
  0
SOLID
  5
210F
  8
SAPA_FOGBAND
  6
CONTINUOUS
 10
-18.43656763294733
 20
-84.817845741533716
 30
0.0
 11
-18.797122760493728
 21
-84.817845741533716
 31
0.0
 12
-18.616845196720529
 22
-84.892519153440134
 32
0.0
 13
-18.616845196720529
 23
-84.892519153440134
 33
0.0
210
0.0
220
0.0
230
-1.0
  0
SOLID
  5
2110
  8
SAPA_FOGBAND
  6
CONTINUOUS
 10
18.361894221040892
 20
-84.637568177760485
 30
0.0
 11
18.43656763294733
 21
-84.817845741533716
 31
0.0
 12
18.797122760493728
 22
-84.817845741533716
 32
0.0
 13
18.797122760493728
 23
-84.817845741533716
 33
0.0
210
0.0
220
0.0
230
1.0
  0
SOLID
  5
2111
  8
SAPA_FOGBAND
  6
CONTINUOUS
 10
-18.361894221040892
 20
-84.637568177760485
 30
0.0
 11
-18.87179617240017
 21
-84.637568177760485
 31
0.0
 12
-18.797122760493728
 22
-84.817845741533716
 32
0.0
 13
-18.797122760493728
 23
-84.817845741533716
 33
0.0
210
0.0
220
0.0
230
-1.0
  0
LINE
  5
2112
  8
SAPA_FOGBAND
  6
CONTINUOUS
 10
18.616845196720529
 20
-84.382617202080866
 30
0.0
 11
18.43656763294733
 21
-84.457290613987297
 31
0.0
  0
LINE
  5
2113
  8
SAPA_FOGBAND
  6
CONTINUOUS
 10
18.797122760493728
 20
-84.457290613987297
 30
0.0
 11
18.616845196720529
 21
-84.382617202080866
 31
0.0
  0
LINE
  5
2114
  8
SAPA_FOGBAND
  6
CONTINUOUS
 10
18.43656763294733
 20
-84.457290613987297
 30
0.0
 11
18.361894221040892
 21
-84.637568177760485
 31
0.0
  0
LINE
  5
2115
  8
SAPA_FOGBAND
  6
CONTINUOUS
 10
18.797122760493728
 20
-84.457290613987297
 30
0.0
 11
18.87179617240017
 21
-84.637568177760485
 31
0.0
  0
LINE
  5
2116
  8
SAPA_FOGBAND
  6
CONTINUOUS
 10
18.797122760493728
 20
-84.817845741533716
 30
0.0
 11
18.616845196720529
 21
-84.892519153440134
 31
0.0
  0
LINE
  5
2117
  8
SAPA_FOGBAND
  6
CONTINUOUS
 10
18.616845196720529
 20
-84.892519153440134
 30
0.0
 11
18.43656763294733
 21
-84.817845741533716
 31
0.0
  0
LINE
  5
2118
  8
SAPA_FOGBAND
  6
CONTINUOUS
 10
18.361894221040892
 20
-84.637568177760485
 30
0.0
 11
18.43656763294733
 21
-84.817845741533716
 31
0.0
  0
LINE
  5
2119
  8
SAPA_FOGBAND
  6
CONTINUOUS
 10
18.87179617240017
 20
-84.637568177760485
 30
0.0
 11
18.797122760493728
 21
-84.817845741533716
 31
0.0
  0
ENDBLK
  5
211B
  8
0
  0
BLOCK
  8
0
  2
*U139
 70
     1
 10
0.0
 20
0.0
 30
0.0
  3
*U139
  1

  0
SOLID
  5
218A
  8
SAPA_FOGBAND
  6
CONTINUOUS
 10
-18.629356795612921
 20
-84.773515879680104
 30
0.0
 11
-18.80963435938612
 21
-84.848189291586536
 31
0.0
 12
-18.449079231839718
 22
-84.848189291586536
 32
0.0
 13
-18.449079231839718
 23
-84.848189291586536
 33
0.0
210
0.0
220
0.0
230
1.0
  0
SOLID
  5
218B
  8
SAPA_FOGBAND
  6
CONTINUOUS
 10
-18.80963435938612
 20
-84.848189291586536
 30
0.0
 11
-18.884307771292558
 21
-85.028466855359738
 31
0.0
 12
-18.37440581993328
 22
-85.028466855359738
 32
0.0
 13
-18.37440581993328
 23
-85.028466855359738
 33
0.0
210
0.0
220
0.0
230
1.0
  0
SOLID
  5
218C
  8
SAPA_FOGBAND
  6
CONTINUOUS
 10
18.80963435938612
 20
-84.848189291586536
 30
0.0
 11
18.449079231839718
 21
-84.848189291586536
 31
0.0
 12
18.37440581993328
 22
-85.028466855359738
 32
0.0
 13
18.37440581993328
 23
-85.028466855359738
 33
0.0
210
0.0
220
0.0
230
-1.0
  0
SOLID
  5
218D
  8
SAPA_FOGBAND
  6
CONTINUOUS
 10
18.80963435938612
 20
-85.208744419132941
 30
0.0
 11
18.449079231839718
 21
-85.208744419132941
 31
0.0
 12
18.629356795612921
 22
-85.283417831039387
 32
0.0
 13
18.629356795612921
 23
-85.283417831039387
 33
0.0
210
0.0
220
0.0
230
-1.0
  0
SOLID
  5
218E
  8
SAPA_FOGBAND
  6
CONTINUOUS
 10
-18.884307771292558
 20
-85.028466855359738
 30
0.0
 11
-18.80963435938612
 21
-85.208744419132941
 31
0.0
 12
-18.449079231839718
 22
-85.208744419132941
 32
0.0
 13
-18.449079231839718
 23
-85.208744419132941
 33
0.0
210
0.0
220
0.0
230
1.0
  0
SOLID
  5
218F
  8
SAPA_FOGBAND
  6
CONTINUOUS
 10
18.884307771292558
 20
-85.028466855359738
 30
0.0
 11
18.37440581993328
 21
-85.028466855359738
 31
0.0
 12
18.449079231839718
 22
-85.208744419132941
 32
0.0
 13
18.449079231839718
 23
-85.208744419132941
 33
0.0
210
0.0
220
0.0
230
-1.0
  0
LINE
  5
2190
  8
SAPA_FOGBAND
  6
CONTINUOUS
 10
-18.629356795612921
 20
-84.773515879680104
 30
0.0
 11
-18.80963435938612
 21
-84.848189291586536
 31
0.0
  0
LINE
  5
2191
  8
SAPA_FOGBAND
  6
CONTINUOUS
 10
-18.449079231839718
 20
-84.848189291586536
 30
0.0
 11
-18.629356795612921
 21
-84.773515879680104
 31
0.0
  0
LINE
  5
2192
  8
SAPA_FOGBAND
  6
CONTINUOUS
 10
-18.80963435938612
 20
-84.848189291586536
 30
0.0
 11
-18.884307771292558
 21
-85.028466855359738
 31
0.0
  0
LINE
  5
2193
  8
SAPA_FOGBAND
  6
CONTINUOUS
 10
-18.449079231839718
 20
-84.848189291586536
 30
0.0
 11
-18.37440581993328
 21
-85.028466855359738
 31
0.0
  0
LINE
  5
2194
  8
SAPA_FOGBAND
  6
CONTINUOUS
 10
-18.449079231839718
 20
-85.208744419132941
 30
0.0
 11
-18.629356795612921
 21
-85.283417831039387
 31
0.0
  0
LINE
  5
2195
  8
SAPA_FOGBAND
  6
CONTINUOUS
 10
-18.629356795612921
 20
-85.283417831039387
 30
0.0
 11
-18.80963435938612
 21
-85.208744419132941
 31
0.0
  0
LINE
  5
2196
  8
SAPA_FOGBAND
  6
CONTINUOUS
 10
-18.884307771292558
 20
-85.028466855359738
 30
0.0
 11
-18.80963435938612
 21
-85.208744419132941
 31
0.0
  0
LINE
  5
2197
  8
SAPA_FOGBAND
  6
CONTINUOUS
 10
-18.37440581993328
 20
-85.028466855359738
 30
0.0
 11
-18.449079231839718
 21
-85.208744419132941
 31
0.0
  0
ENDBLK
  5
2199
  8
0
  0
BLOCK
  8
0
  2
*U140
 70
     1
 10
0.0
 20
0.0
 30
0.0
  3
*U140
  1

  0
SOLID
  5
22DE
  8
SAPA_FOGBAND
  6
CONTINUOUS
 10
18.616845196720529
 20
-84.382617202080866
 30
0.0
 11
18.43656763294733
 21
-84.457290613987297
 31
0.0
 12
18.797122760493728
 22
-84.457290613987297
 32
0.0
 13
18.797122760493728
 23
-84.457290613987297
 33
0.0
210
0.0
220
0.0
230
1.0
  0
SOLID
  5
22DF
  8
SAPA_FOGBAND
  6
CONTINUOUS
 10
18.43656763294733
 20
-84.457290613987297
 30
0.0
 11
18.361894221040892
 21
-84.637568177760485
 31
0.0
 12
18.87179617240017
 22
-84.637568177760485
 32
0.0
 13
18.87179617240017
 23
-84.637568177760485
 33
0.0
210
0.0
220
0.0
230
1.0
  0
SOLID
  5
22E0
  8
SAPA_FOGBAND
  6
CONTINUOUS
 10
-18.43656763294733
 20
-84.457290613987297
 30
0.0
 11
-18.797122760493728
 21
-84.457290613987297
 31
0.0
 12
-18.87179617240017
 22
-84.637568177760485
 32
0.0
 13
-18.87179617240017
 23
-84.637568177760485
 33
0.0
210
0.0
220
0.0
230
-1.0
  0
SOLID
  5
22E1
  8
SAPA_FOGBAND
  6
CONTINUOUS
 10
-18.43656763294733
 20
-84.817845741533716
 30
0.0
 11
-18.797122760493728
 21
-84.817845741533716
 31
0.0
 12
-18.616845196720529
 22
-84.892519153440134
 32
0.0
 13
-18.616845196720529
 23
-84.892519153440134
 33
0.0
210
0.0
220
0.0
230
-1.0
  0
SOLID
  5
22E2
  8
SAPA_FOGBAND
  6
CONTINUOUS
 10
18.361894221040892
 20
-84.637568177760485
 30
0.0
 11
18.43656763294733
 21
-84.817845741533716
 31
0.0
 12
18.797122760493728
 22
-84.817845741533716
 32
0.0
 13
18.797122760493728
 23
-84.817845741533716
 33
0.0
210
0.0
220
0.0
230
1.0
  0
SOLID
  5
22E3
  8
SAPA_FOGBAND
  6
CONTINUOUS
 10
-18.361894221040892
 20
-84.637568177760485
 30
0.0
 11
-18.87179617240017
 21
-84.637568177760485
 31
0.0
 12
-18.797122760493728
 22
-84.817845741533716
 32
0.0
 13
-18.797122760493728
 23
-84.817845741533716
 33
0.0
210
0.0
220
0.0
230
-1.0
  0
LINE
  5
22E4
  8
SAPA_FOGBAND
  6
CONTINUOUS
 10
18.616845196720529
 20
-84.382617202080866
 30
0.0
 11
18.43656763294733
 21
-84.457290613987297
 31
0.0
  0
LINE
  5
22E5
  8
SAPA_FOGBAND
  6
CONTINUOUS
 10
18.797122760493728
 20
-84.457290613987297
 30
0.0
 11
18.616845196720529
 21
-84.382617202080866
 31
0.0
  0
LINE
  5
22E6
  8
SAPA_FOGBAND
  6
CONTINUOUS
 10
18.43656763294733
 20
-84.457290613987297
 30
0.0
 11
18.361894221040892
 21
-84.637568177760485
 31
0.0
  0
LINE
  5
22E7
  8
SAPA_FOGBAND
  6
CONTINUOUS
 10
18.797122760493728
 20
-84.457290613987297
 30
0.0
 11
18.87179617240017
 21
-84.637568177760485
 31
0.0
  0
LINE
  5
22E8
  8
SAPA_FOGBAND
  6
CONTINUOUS
 10
18.797122760493728
 20
-84.817845741533716
 30
0.0
 11
18.616845196720529
 21
-84.892519153440134
 31
0.0
  0
LINE
  5
22E9
  8
SAPA_FOGBAND
  6
CONTINUOUS
 10
18.616845196720529
 20
-84.892519153440134
 30
0.0
 11
18.43656763294733
 21
-84.817845741533716
 31
0.0
  0
LINE
  5
22EA
  8
SAPA_FOGBAND
  6
CONTINUOUS
 10
18.361894221040892
 20
-84.637568177760485
 30
0.0
 11
18.43656763294733
 21
-84.817845741533716
 31
0.0
  0
LINE
  5
22EB
  8
SAPA_FOGBAND
  6
CONTINUOUS
 10
18.87179617240017
 20
-84.637568177760485
 30
0.0
 11
18.797122760493728
 21
-84.817845741533716
 31
0.0
  0
ENDBLK
  5
22ED
  8
0
  0
BLOCK
  8
0
  2
*U141
 70
     1
 10
0.0
 20
0.0
 30
0.0
  3
*U141
  1

  0
SOLID
  5
235C
  8
SAPA_FOGBAND
  6
CONTINUOUS
 10
-18.629356795612921
 20
-84.773515879680104
 30
0.0
 11
-18.80963435938612
 21
-84.848189291586536
 31
0.0
 12
-18.449079231839718
 22
-84.848189291586536
 32
0.0
 13
-18.449079231839718
 23
-84.848189291586536
 33
0.0
210
0.0
220
0.0
230
1.0
  0
SOLID
  5
235D
  8
SAPA_FOGBAND
  6
CONTINUOUS
 10
-18.80963435938612
 20
-84.848189291586536
 30
0.0
 11
-18.884307771292558
 21
-85.028466855359738
 31
0.0
 12
-18.37440581993328
 22
-85.028466855359738
 32
0.0
 13
-18.37440581993328
 23
-85.028466855359738
 33
0.0
210
0.0
220
0.0
230
1.0
  0
SOLID
  5
235E
  8
SAPA_FOGBAND
  6
CONTINUOUS
 10
18.80963435938612
 20
-84.848189291586536
 30
0.0
 11
18.449079231839718
 21
-84.848189291586536
 31
0.0
 12
18.37440581993328
 22
-85.028466855359738
 32
0.0
 13
18.37440581993328
 23
-85.028466855359738
 33
0.0
210
0.0
220
0.0
230
-1.0
  0
SOLID
  5
235F
  8
SAPA_FOGBAND
  6
CONTINUOUS
 10
18.80963435938612
 20
-85.208744419132941
 30
0.0
 11
18.449079231839718
 21
-85.208744419132941
 31
0.0
 12
18.629356795612921
 22
-85.283417831039387
 32
0.0
 13
18.629356795612921
 23
-85.283417831039387
 33
0.0
210
0.0
220
0.0
230
-1.0
  0
SOLID
  5
2360
  8
SAPA_FOGBAND
  6
CONTINUOUS
 10
-18.884307771292558
 20
-85.028466855359738
 30
0.0
 11
-18.80963435938612
 21
-85.208744419132941
 31
0.0
 12
-18.449079231839718
 22
-85.208744419132941
 32
0.0
 13
-18.449079231839718
 23
-85.208744419132941
 33
0.0
210
0.0
220
0.0
230
1.0
  0
SOLID
  5
2361
  8
SAPA_FOGBAND
  6
CONTINUOUS
 10
18.884307771292558
 20
-85.028466855359738
 30
0.0
 11
18.37440581993328
 21
-85.028466855359738
 31
0.0
 12
18.449079231839718
 22
-85.208744419132941
 32
0.0
 13
18.449079231839718
 23
-85.208744419132941
 33
0.0
210
0.0
220
0.0
230
-1.0
  0
LINE
  5
2362
  8
SAPA_FOGBAND
  6
CONTINUOUS
 10
-18.629356795612921
 20
-84.773515879680104
 30
0.0
 11
-18.80963435938612
 21
-84.848189291586536
 31
0.0
  0
LINE
  5
2363
  8
SAPA_FOGBAND
  6
CONTINUOUS
 10
-18.449079231839718
 20
-84.848189291586536
 30
0.0
 11
-18.629356795612921
 21
-84.773515879680104
 31
0.0
  0
LINE
  5
2364
  8
SAPA_FOGBAND
  6
CONTINUOUS
 10
-18.80963435938612
 20
-84.848189291586536
 30
0.0
 11
-18.884307771292558
 21
-85.028466855359738
 31
0.0
  0
LINE
  5
2365
  8
SAPA_FOGBAND
  6
CONTINUOUS
 10
-18.449079231839718
 20
-84.848189291586536
 30
0.0
 11
-18.37440581993328
 21
-85.028466855359738
 31
0.0
  0
LINE
  5
2366
  8
SAPA_FOGBAND
  6
CONTINUOUS
 10
-18.449079231839718
 20
-85.208744419132941
 30
0.0
 11
-18.629356795612921
 21
-85.283417831039387
 31
0.0
  0
LINE
  5
2367
  8
SAPA_FOGBAND
  6
CONTINUOUS
 10
-18.629356795612921
 20
-85.283417831039387
 30
0.0
 11
-18.80963435938612
 21
-85.208744419132941
 31
0.0
  0
LINE
  5
2368
  8
SAPA_FOGBAND
  6
CONTINUOUS
 10
-18.884307771292558
 20
-85.028466855359738
 30
0.0
 11
-18.80963435938612
 21
-85.208744419132941
 31
0.0
  0
LINE
  5
2369
  8
SAPA_FOGBAND
  6
CONTINUOUS
 10
-18.37440581993328
 20
-85.028466855359738
 30
0.0
 11
-18.449079231839718
 21
-85.208744419132941
 31
0.0
  0
ENDBLK
  5
236B
  8
0
  0
BLOCK
  8
0
  2
*U142
 70
     1
 10
0.0
 20
0.0
 30
0.0
  3
*U142
  1

  0
TEXT
  5
24CD
  8
SAPA_MATT
 62
     2
 10
-2.099999999999774
 20
-124.8557794594702
 30
0.0
 40
3.0
  1
50
  7
ISO
  0
ENDBLK
  5
24CF
  8
0
  0
ENDSEC
  0
SECTION
  2
ENTITIES
  0
INSERT
  5
72A
  8
0
  2
*U124
 10
0.0
 20
0.0
 30
0.0
  0
INSERT
  5
72B
  8
0
  2
*U125
 10
0.0
 20
0.0
 30
0.0
  0
INSERT
  5
72C
  8
0
  2
*U126
 10
0.0
 20
0.0
 30
0.0
  0
INSERT
  5
72D
  8
0
  2
*U127
 10
0.0
 20
0.0
 30
0.0
  0
INSERT
  5
72F
  8
0
  2
*U128
 10
0.0
 20
0.0
 30
0.0
  0
INSERT
  5
730
  8
0
  2
*U129
 10
0.0
 20
0.0
 30
0.0
  0
POLYLINE
  5
73A
  8
SAPA_LIGHT
 66
     1
 10
0.0
 20
0.0
 30
0.0
  0
VERTEX
  5
155E
  8
SAPA_LIGHT
 10
-40.999999999995673
 20
-44.499999999010242
 30
0.0
  0
VERTEX
  5
155F
  8
SAPA_LIGHT
 10
-10.99999999999568
 20
-44.499999999010242
 30
0.0
  0
VERTEX
  5
1560
  8
SAPA_LIGHT
 10
-10.99999999999587
 20
-82.499999999011905
 30
0.0
  0
VERTEX
  5
1561
  8
SAPA_LIGHT
 10
-41.026258105807749
 20
-82.499999999011834
 30
0.0
  0
SEQEND
  5
1562
  8
SAPA_LIGHT
  0
POLYLINE
  5
73D
  8
SAPA_LIGHT
 66
     1
 10
0.0
 20
0.0
 30
0.0
  0
VERTEX
  5
1563
  8
SAPA_LIGHT
 10
89.500000000000014
 20
-8.4999999752664301
 30
0.0
  0
VERTEX
  5
1564
  8
SAPA_LIGHT
 10
170.00000000001381
 20
-8.4999999752664266
 30
0.0
  0
VERTEX
  5
1565
  8
SAPA_LIGHT
 10
170.00000000001381
 20
-46.550000033388407
 30
0.0
  0
VERTEX
  5
1566
  8
SAPA_LIGHT
 10
147.6948538171072
 20
-46.550000033388407
 30
0.0
  0
VERTEX
  5
1567
  8
SAPA_LIGHT
 10
147.6948538171072
 20
-73.550000033388429
 30
0.0
  0
VERTEX
  5
1568
  8
SAPA_LIGHT
 10
169.99997618408969
 20
-73.550000033388372
 30
0.0
  0
VERTEX
  5
1569
  8
SAPA_LIGHT
 10
169.9999761840896
 20
-82.499999954809098
 30
0.0
  0
VERTEX
  5
156A
  8
SAPA_LIGHT
 10
89.500000000000014
 20
-82.499999956353491
 30
0.0
  0
VERTEX
  5
156B
  8
SAPA_LIGHT
 10
89.500000197971303
 20
-8.4999999752664337
 30
0.0
  0
SEQEND
  5
156C
  8
SAPA_LIGHT
  0
POLYLINE
  5
73E
  8
SAPA_LIGHT
 66
     1
 10
0.0
 20
0.0
 30
0.0
  0
VERTEX
  5
156D
  8
SAPA_LIGHT
 10
89.500000000000014
 20
-82.499999956353491
 30
0.0
  0
VERTEX
  5
156E
  8
SAPA_LIGHT
 10
9.0000000001055582
 20
-82.49999995635342
 30
0.0
  0
VERTEX
  5
156F
  8
SAPA_LIGHT
 10
9.0000000001055618
 20
-35.500000000001137
 30
0.0
  0
VERTEX
  5
1570
  8
SAPA_LIGHT
 10
24.99999999999989
 20
-35.50000000000118
 30
0.0
  0
VERTEX
  5
1571
  8
SAPA_LIGHT
 10
24.99999999999989
 20
-8.4999999570476064
 30
0.0
  0
VERTEX
  5
1572
  8
SAPA_LIGHT
 10
89.500000197971303
 20
-8.4999999586364794
 30
0.0
  0
SEQEND
  5
1573
  8
SAPA_LIGHT
  0
POLYLINE
  5
754
  8
SAPA_LIGHT
 66
     1
 10
0.0
 20
0.0
 30
0.0
  0
VERTEX
  5
1574
  8
SAPA_LIGHT
 10
5.0
 20
-82.499999999011905
 30
0.0
  0
VERTEX
  5
1575
  8
SAPA_LIGHT
 10
4.9999999999997149
 20
-35.500000000001137
 30
0.0
  0
VERTEX
  5
1576
  8
SAPA_LIGHT
 10
24.999999999999432
 20
-35.500000000001137
 30
0.0
  0
VERTEX
  5
1577
  8
SAPA_LIGHT
 10
24.999999999999769
 20
64.499999999998863
 30
0.0
  0
VERTEX
  5
1578
  8
SAPA_LIGHT
 10
-25.000000000000231
 20
64.499999999998863
 30
0.0
  0
VERTEX
  5
1579
  8
SAPA_LIGHT
 10
-25.000000000000231
 20
-44.499999999010242
 30
0.0
  0
VERTEX
  5
157A
  8
SAPA_LIGHT
 10
-5.0000000000002274
 20
-44.499999999010242
 30
0.0
  0
VERTEX
  5
157B
  8
SAPA_LIGHT
 10
-5.0
 20
-82.499999999011948
 30
0.0
  0
VERTEX
  5
157C
  8
SAPA_LIGHT
 10
-25.000000000000799
 20
-82.499999999011834
 30
0.0
  0
VERTEX
  5
157D
  8
SAPA_LIGHT
 10
-25.000000000000799
 20
-106.4999999990104
 30
0.0
  0
VERTEX
  5
157E
  8
SAPA_LIGHT
 10
24.999999999999201
 20
-106.4999999990104
 30
0.0
  0
VERTEX
  5
157F
  8
SAPA_LIGHT
 10
24.999999999999261
 20
-82.499999956353435
 30
0.0
  0
VERTEX
  5
1580
  8
SAPA_LIGHT
 10
4.9999999999999432
 20
-82.499999956353435
 30
0.0
  0
SEQEND
  5
1581
  8
SAPA_LIGHT
  0
POLYLINE
  5
13F6
  8
SAPA_PROFIL
 66
     1
 10
0.0
 20
0.0
 30
0.0
 70
     1
  0
VERTEX
  5
1AAF
  8
SAPA_PROFIL
 10
22.800000000000178
 20
-91.098475071207986
 30
0.0
  0
VERTEX
  5
1AB0
  8
SAPA_PROFIL
 10
23.800000000000178
 20
-91.098475071207986
 30
0.0
  0
VERTEX
  5
1AB1
  8
SAPA_PROFIL
 10
23.800000000000178
 20
-88.498475071207835
 30
0.0
 42
-0.4142135623730951
  0
VERTEX
  5
1AB2
  8
SAPA_PROFIL
 10
24.300000000000178
 20
-87.998475071207821
 30
0.0
  0
VERTEX
  5
1AB3
  8
SAPA_PROFIL
 10
24.700000000000269
 20
-87.998475071207821
 30
0.0
 42
-0.4142135623730951
  0
VERTEX
  5
1AB4
  8
SAPA_PROFIL
 10
25.000000000000231
 20
-88.298475071207775
 30
0.0
  0
VERTEX
  5
1AB5
  8
SAPA_PROFIL
 10
25.000000000000231
 20
-105.9999999990104
 30
0.0
 42
-0.4142135623730951
  0
VERTEX
  5
1AB6
  8
SAPA_PROFIL
 10
24.500000000000231
 20
-106.4999999990104
 30
0.0
  0
VERTEX
  5
1AB7
  8
SAPA_PROFIL
 10
-24.499999999999769
 20
-106.4999999990104
 30
0.0
 42
-0.4142135623730951
  0
VERTEX
  5
1AB8
  8
SAPA_PROFIL
 10
-24.999999999999769
 20
-105.9999999990104
 30
0.0
  0
VERTEX
  5
1AB9
  8
SAPA_PROFIL
 10
-24.999999999999769
 20
-88.298475071207775
 30
0.0
 42
-0.4142135623730951
  0
VERTEX
  5
1ABA
  8
SAPA_PROFIL
 10
-24.699999999999822
 20
-87.998475071207821
 30
0.0
  0
VERTEX
  5
1ABB
  8
SAPA_PROFIL
 10
-24.299999999999731
 20
-87.998475071207821
 30
0.0
 42
-0.4142135623730951
  0
VERTEX
  5
1ABC
  8
SAPA_PROFIL
 10
-23.799999999999731
 20
-88.498475071207835
 30
0.0
  0
VERTEX
  5
1ABD
  8
SAPA_PROFIL
 10
-23.799999999999731
 20
-91.098475071207986
 30
0.0
  0
VERTEX
  5
1ABE
  8
SAPA_PROFIL
 10
-22.799999999999731
 20
-91.098475071207986
 30
0.0
  0
VERTEX
  5
1ABF
  8
SAPA_PROFIL
 10
-22.22033922157857
 20
-92.102507830840963
 30
0.0
 42
-0.4155392929676362
  0
VERTEX
  5
1AC0
  8
SAPA_PROFIL
 10
-22.51631264788443
 20
-93.197126802632965
 30
0.0
  0
VERTEX
  5
1AC1
  8
SAPA_PROFIL
 10
-23.799999999999731
 20
-93.938264040931927
 30
0.0
  0
VERTEX
  5
1AC2
  8
SAPA_PROFIL
 10
-23.799999999999731
 20
-104.09999999901061
 30
0.0
 42
0.4142135623730951
  0
VERTEX
  5
1AC3
  8
SAPA_PROFIL
 10
-22.799999999999731
 20
-105.09999999901061
 30
0.0
  0
VERTEX
  5
1AC4
  8
SAPA_PROFIL
 10
22.800000000000178
 20
-105.09999999901061
 30
0.0
 42
0.4142135623730951
  0
VERTEX
  5
1AC5
  8
SAPA_PROFIL
 10
23.800000000000178
 20
-104.09999999901061
 30
0.0
  0
VERTEX
  5
1AC6
  8
SAPA_PROFIL
 10
23.800000000000178
 20
-93.938264040931927
 30
0.0
  0
VERTEX
  5
1AC7
  8
SAPA_PROFIL
 10
22.516312647884892
 20
-93.197126802632965
 30
0.0
 42
-0.4155392929676362
  0
VERTEX
  5
1AC8
  8
SAPA_PROFIL
 10
22.220339221579032
 20
-92.102507830840963
 30
0.0
  0
SEQEND
  5
1AC9
  8
SAPA_PROFIL
  0
POLYLINE
  5
13F7
  8
SAPA_PROFIL
 66
     1
 10
0.0
 20
0.0
 30
0.0
 70
     1
  0
VERTEX
  5
1ACA
  8
SAPA_PROFIL
 10
148.49999999999881
 20
-11.20000123295017
 30
0.0
  0
VERTEX
  5
1ACB
  8
SAPA_PROFIL
 10
148.49999999999881
 20
-11.41717899842001
 30
0.0
 42
-0.1988669396406178
  0
VERTEX
  5
1ACC
  8
SAPA_PROFIL
 10
148.44144607403561
 20
-11.558575632536529
 30
0.0
  0
VERTEX
  5
1ACD
  8
SAPA_PROFIL
 10
147.99999999999881
 20
-12.000176060025071
 30
0.0
  0
VERTEX
  5
1ACE
  8
SAPA_PROFIL
 10
147.5029437251512
 20
-12.497232334872701
 30
0.0
  0
VERTEX
  5
1ACF
  8
SAPA_PROFIL
 10
145.999599343592
 20
-12.497232334869979
 30
0.0
 42
0.4956073595117127
  0
VERTEX
  5
1AD0
  8
SAPA_PROFIL
 10
144.4225375228722
 20
-12.28325660035466
 30
0.0
  0
VERTEX
  5
1AD1
  8
SAPA_PROFIL
 10
143.36035882992491
 20
-13.345435293301991
 30
0.0
 42
0.668178637916663
  0
VERTEX
  5
1AD2
  8
SAPA_PROFIL
 10
143.50607793574969
 20
-13.697232334872981
 30
0.0
  0
VERTEX
  5
1AD3
  8
SAPA_PROFIL
 10
147.99999999999881
 20
-13.697232334872981
 30
0.0
  0
VERTEX
  5
1AD4
  8
SAPA_PROFIL
 10
150.07717188913841
 20
-11.620060445732859
 30
0.0
 42
-0.2061234514950604
  0
VERTEX
  5
1AD5
  8
SAPA_PROFIL
 10
150.4445774269995
 20
-11.473805755143299
 30
0.0
  0
VERTEX
  5
1AD6
  8
SAPA_PROFIL
 10
165.58311288360841
 20
-11.893369244535281
 30
0.0
 42
-0.406121213473704
  0
VERTEX
  5
1AD7
  8
SAPA_PROFIL
 10
168.5000000000002
 20
-14.89221773163467
 30
0.0
  0
VERTEX
  5
1AD8
  8
SAPA_PROFIL
 10
168.5000000000002
 20
-25.197051780068929
 30
0.0
 42
-0.4221057092148459
  0
VERTEX
  5
1AD9
  8
SAPA_PROFIL
 10
167.98656656964019
 20
-25.696871290441099
 30
0.0
  0
VERTEX
  5
1ADA
  8
SAPA_PROFIL
 10
143.59999999999869
 20
-25.041444207396811
 30
0.0
 42
0.6681786379238333
  0
VERTEX
  5
1ADB
  8
SAPA_PROFIL
 10
143.3878679656456
 20
-25.553576241755081
 30
0.0
  0
VERTEX
  5
1ADC
  8
SAPA_PROFIL
 10
145.3878679656429
 20
-27.553576241752811
 30
0.0
 42
0.7332303362586961
  0
VERTEX
  5
1ADD
  8
SAPA_PROFIL
 10
145.89544232590211
 20
-27.289349754095159
 30
0.0
  0
VERTEX
  5
1ADE
  8
SAPA_PROFIL
 10
145.79038475473061
 20
-26.693538660696731
 30
0.0
 42
-0.4663076581593897
  0
VERTEX
  5
1ADF
  8
SAPA_PROFIL
 10
146.085827080634
 20
-26.341444207396538
 30
0.0
  0
VERTEX
  5
1AE0
  8
SAPA_PROFIL
 10
168.01495595316709
 20
-26.99767989620932
 30
0.0
 42
-0.40547815976516
  0
VERTEX
  5
1AE1
  8
SAPA_PROFIL
 10
168.5000000000002
 20
-27.497456165618811
 30
0.0
  0
VERTEX
  5
1AE2
  8
SAPA_PROFIL
 10
168.5000000000002
 20
-31.761559772989589
 30
0.0
 42
-0.41421356237163
  0
VERTEX
  5
1AE3
  8
SAPA_PROFIL
 10
168.00000000000509
 20
-32.261559772989578
 30
0.0
  0
VERTEX
  5
1AE4
  8
SAPA_PROFIL
 10
156.3000000000018
 20
-32.261559772989578
 30
0.0
 42
0.4142135623729286
  0
VERTEX
  5
1AE5
  8
SAPA_PROFIL
 10
156.00000000000179
 20
-32.561559772989312
 30
0.0
  0
VERTEX
  5
1AE6
  8
SAPA_PROFIL
 10
156.00000000000151
 20
-33.261559772989358
 30
0.0
 42
0.4142135623733169
  0
VERTEX
  5
1AE7
  8
SAPA_PROFIL
 10
156.30000000000149
 20
-33.56155977298954
 30
0.0
  0
VERTEX
  5
1AE8
  8
SAPA_PROFIL
 10
167.70000000001571
 20
-33.56155977298954
 30
0.0
 42
-0.4142135623732283
  0
VERTEX
  5
1AE9
  8
SAPA_PROFIL
 10
168.20000000001571
 20
-34.061559772989767
 30
0.0
  0
VERTEX
  5
1AEA
  8
SAPA_PROFIL
 10
168.20000000001471
 20
-35.261559772989131
 30
0.0
 42
0.4142135623733169
  0
VERTEX
  5
1AEB
  8
SAPA_PROFIL
 10
168.50000000001481
 20
-35.561559772989312
 30
0.0
  0
VERTEX
  5
1AEC
  8
SAPA_PROFIL
 10
169.70000000000019
 20
-35.56155977298954
 30
0.0
 42
0.4142135623717077
  0
VERTEX
  5
1AED
  8
SAPA_PROFIL
 10
170.0000000000002
 20
-35.261559772988221
 30
0.0
  0
VERTEX
  5
1AEE
  8
SAPA_PROFIL
 10
170.0000000000137
 20
-10.299999953718039
 30
0.0
 42
0.4142135623732535
  0
VERTEX
  5
1AEF
  8
SAPA_PROFIL
 10
169.70000000001369
 20
-9.9999999537178592
 30
0.0
  0
VERTEX
  5
1AF0
  8
SAPA_PROFIL
 10
148.20456789856789
 20
-9.9999999537178592
 30
0.0
 42
0.4209196114694193
  0
VERTEX
  5
1AF1
  8
SAPA_PROFIL
 10
147.99999999999881
 20
-10.19994778267005
 30
0.0
  0
VERTEX
  5
1AF2
  8
SAPA_PROFIL
 10
147.99999999999881
 20
-11.00000123295035
 30
0.0
  0
VERTEX
  5
1AF3
  8
SAPA_PROFIL
 10
148.29999999999851
 20
-11.00000123295035
 30
0.0
 42
-0.4142135623730118
  0
SEQEND
  5
1AF4
  8
SAPA_PROFIL
  0
POLYLINE
  5
13F8
  8
SAPA_PROFIL
 66
     1
 10
0.0
 20
0.0
 30
0.0
 70
     1
  0
VERTEX
  5
1AF5
  8
SAPA_PROFIL
 10
97.544985430840981
 20
-30.499999952511871
 30
0.0
  0
VERTEX
  5
1AF6
  8
SAPA_PROFIL
 10
101.3977718353412
 20
-30.499999952511871
 30
0.0
 42
-0.4142135623731784
  0
VERTEX
  5
1AF7
  8
SAPA_PROFIL
 10
101.6977718353413
 20
-30.799999952511939
 30
0.0
  0
VERTEX
  5
1AF8
  8
SAPA_PROFIL
 10
101.6977718353412
 20
-31.099999952512292
 30
0.0
  0
VERTEX
  5
1AF9
  8
SAPA_PROFIL
 10
100.7740114046378
 20
-32.699999952511916
 30
0.0
 42
0.5773502691887984
  0
VERTEX
  5
1AFA
  8
SAPA_PROFIL
 10
100.9472164853948
 20
-32.999999952511871
 30
0.0
  0
VERTEX
  5
1AFB
  8
SAPA_PROFIL
 10
102.3328571314498
 20
-32.999999952511871
 30
0.0
 42
0.2679491924311038
  0
VERTEX
  5
1AFC
  8
SAPA_PROFIL
 10
103.1988825352342
 20
-32.499999952512042
 30
0.0
  0
VERTEX
  5
1AFD
  8
SAPA_PROFIL
 10
104.2092455048074
 20
-30.74999995512508
 30
0.0
 42
-0.2679491932396976
  0
VERTEX
  5
1AFE
  8
SAPA_PROFIL
 10
104.6422582082086
 20
-30.499999955125048
 30
0.0
  0
VERTEX
  5
1AFF
  8
SAPA_PROFIL
 10
137.2803609416396
 20
-30.499999955125009
 30
0.0
  0
VERTEX
  5
1B00
  8
SAPA_PROFIL
 10
137.79997618391019
 20
-30.199999955125008
 30
0.0
  0
VERTEX
  5
1B01
  8
SAPA_PROFIL
 10
138.31959142618089
 20
-30.499999955125009
 30
0.0
  0
VERTEX
  5
1B02
  8
SAPA_PROFIL
 10
138.6576941596123
 20
-30.499999955125009
 30
0.0
 42
-0.2679491916226445
  0
VERTEX
  5
1B03
  8
SAPA_PROFIL
 10
139.09070686150449
 20
-30.749999952511921
 30
0.0
  0
VERTEX
  5
1B04
  8
SAPA_PROFIL
 10
140.10106983258649
 20
-32.499999952511907
 30
0.0
 42
0.2679491924311319
  0
VERTEX
  5
1B05
  8
SAPA_PROFIL
 10
140.9670952363708
 20
-32.999999952511857
 30
0.0
  0
VERTEX
  5
1B06
  8
SAPA_PROFIL
 10
142.352735882426
 20
-32.999999952511857
 30
0.0
 42
0.5773502691893683
  0
VERTEX
  5
1B07
  8
SAPA_PROFIL
 10
142.52594096318299
 20
-32.699999952511902
 30
0.0
  0
VERTEX
  5
1B08
  8
SAPA_PROFIL
 10
141.60218053247951
 20
-31.099999952511869
 30
0.0
  0
VERTEX
  5
1B09
  8
SAPA_PROFIL
 10
141.60218053247951
 20
-30.799999952511929
 30
0.0
 42
-0.4142135623732059
  0
VERTEX
  5
1B0A
  8
SAPA_PROFIL
 10
141.90218053247969
 20
-30.49999995251186
 30
0.0
  0
VERTEX
  5
1B0B
  8
SAPA_PROFIL
 10
145.7549669369798
 20
-30.49999995251186
 30
0.0
 42
0.2134217652834387
  0
VERTEX
  5
1B0C
  8
SAPA_PROFIL
 10
145.97857373472991
 20
-30.399999952511742
 30
0.0
 42
-0.7625858545243238
  0
VERTEX
  5
1B0D
  8
SAPA_PROFIL
 10
146.30889981574691
 20
-30.584579154709221
 30
0.0
  0
VERTEX
  5
1B0E
  8
SAPA_PROFIL
 10
146.25082617875779
 20
-30.775962154702938
 30
0.0
  0
VERTEX
  5
1B0F
  8
SAPA_PROFIL
 10
145.16626173178611
 20
-32.661805846564
 30
0.0
  0
VERTEX
  5
1B10
  8
SAPA_PROFIL
 10
144.84450400356789
 20
-32.651244480337013
 30
0.0
 42
0.5773502691897466
  0
VERTEX
  5
1B11
  8
SAPA_PROFIL
 10
144.66155026345771
 20
-32.945400780591847
 30
0.0
  0
VERTEX
  5
1B12
  8
SAPA_PROFIL
 10
144.81368417456639
 20
-33.2300830638235
 30
0.0
 42
0.221694662643019
  0
VERTEX
  5
1B13
  8
SAPA_PROFIL
 10
145.3545640060432
 20
-33.635891968978292
 30
0.0
  0
VERTEX
  5
1B14
  8
SAPA_PROFIL
 10
147.16779447670149
 20
-34.017338565106002
 30
0.0
 42
0.476975532698164
  0
VERTEX
  5
1B15
  8
SAPA_PROFIL
 10
147.5394513516473
 20
-33.715085740599541
 30
0.0
  0
VERTEX
  5
1B16
  8
SAPA_PROFIL
 10
147.53936774376371
 20
-32.211984659837533
 30
0.0
  0
VERTEX
  5
1B17
  8
SAPA_PROFIL
 10
147.49152199376519
 20
-32.197466250590423
 30
0.0
 42
-0.4142135623730951
  0
VERTEX
  5
1B18
  8
SAPA_PROFIL
 10
147.29155794925779
 20
-31.823281295114619
 30
0.0
  0
VERTEX
  5
1B19
  8
SAPA_PROFIL
 10
147.79997618391039
 20
-30.507867575269231
 30
0.0
  0
VERTEX
  5
1B1A
  8
SAPA_PROFIL
 10
147.79997618391019
 20
-27.509716714095688
 30
0.0
 42
0.2562769736732418
  0
VERTEX
  5
1B1B
  8
SAPA_PROFIL
 10
147.70744518559479
 20
-27.341044209884348
 30
0.0
  0
VERTEX
  5
1B1C
  8
SAPA_PROFIL
 10
146.46117968643711
 20
-26.546991203707741
 30
0.0
 42
0.5920056181180006
  0
VERTEX
  5
1B1D
  8
SAPA_PROFIL
 10
145.99997618391041
 20
-26.79999996002481
 30
0.0
  0
VERTEX
  5
1B1E
  8
SAPA_PROFIL
 10
145.99997618391041
 20
-28.19999996002479
 30
0.0
 42
-0.4142135623731505
  0
VERTEX
  5
1B1F
  8
SAPA_PROFIL
 10
145.69997618391039
 20
-28.49999996002483
 30
0.0
  0
VERTEX
  5
1B20
  8
SAPA_PROFIL
 10
143.2999761839105
 20
-28.499999960024681
 30
0.0
 42
-0.4142135623729841
  0
VERTEX
  5
1B21
  8
SAPA_PROFIL
 10
142.99997618391041
 20
-28.19999996002479
 30
0.0
  0
VERTEX
  5
1B22
  8
SAPA_PROFIL
 10
142.99997618391049
 20
-10.799999960024721
 30
0.0
 42
-0.4142135623730882
  0
VERTEX
  5
1B23
  8
SAPA_PROFIL
 10
143.2999761839105
 20
-10.499999960024709
 30
0.0
  0
VERTEX
  5
1B24
  8
SAPA_PROFIL
 10
145.69997618391059
 20
-10.499999960024731
 30
0.0
 42
-0.4142135623730118
  0
VERTEX
  5
1B25
  8
SAPA_PROFIL
 10
145.99997618391041
 20
-10.799999960024801
 30
0.0
  0
VERTEX
  5
1B26
  8
SAPA_PROFIL
 10
145.99997618391041
 20
-12.19999996002481
 30
0.0
 42
0.5877032589249656
  0
VERTEX
  5
1B27
  8
SAPA_PROFIL
 10
146.45793639103789
 20
-12.455046177334919
 30
0.0
  0
VERTEX
  5
1B28
  8
SAPA_PROFIL
 10
147.90528298866229
 20
-11.55864720009272
 30
0.0
 42
0.2596812337301635
  0
VERTEX
  5
1B29
  8
SAPA_PROFIL
 10
147.99997618391041
 20
-11.38861638855262
 30
0.0
  0
VERTEX
  5
1B2A
  8
SAPA_PROFIL
 10
147.99997618391041
 20
-8.6999999551932028
 30
0.0
 42
0.4142135623732095
  0
VERTEX
  5
1B2B
  8
SAPA_PROFIL
 10
147.7999761839105
 20
-8.4999999551932142
 30
0.0
  0
VERTEX
  5
1B2C
  8
SAPA_PROFIL
 10
104.99997468976029
 20
-8.4999999551932195
 30
0.0
 42
0.4142135623730067
  0
VERTEX
  5
1B2D
  8
SAPA_PROFIL
 10
102.99997618391031
 20
-10.49999846104271
 30
0.0
  0
VERTEX
  5
1B2E
  8
SAPA_PROFIL
 10
102.99997618391031
 20
-16.200000702268131
 30
0.0
 42
-0.4142135623729993
  0
VERTEX
  5
1B2F
  8
SAPA_PROFIL
 10
101.9999769309853
 20
-17.199999955193231
 30
0.0
  0
VERTEX
  5
1B30
  8
SAPA_PROFIL
 10
94.498957183910207
 20
-17.199999955193132
 30
0.0
 42
0.4142135623730951
  0
VERTEX
  5
1B31
  8
SAPA_PROFIL
 10
93.498957183910306
 20
-18.199999955193139
 30
0.0
  0
VERTEX
  5
1B32
  8
SAPA_PROFIL
 10
93.498957183910306
 20
-18.69777510460812
 30
0.0
 42
0.4142135623729598
  0
VERTEX
  5
1B33
  8
SAPA_PROFIL
 10
93.698957034495308
 20
-18.897774955193221
 30
0.0
  0
VERTEX
  5
1B34
  8
SAPA_PROFIL
 10
95.296807747088963
 20
-18.897774955193139
 30
0.0
 42
-0.414645992438811
  0
VERTEX
  5
1B35
  8
SAPA_PROFIL
 10
95.496807529177417
 20
-19.098070191653669
 30
0.0
  0
VERTEX
  5
1B36
  8
SAPA_PROFIL
 10
95.498364036119298
 20
-30.50369651849401
 30
0.0
  0
VERTEX
  5
1B37
  8
SAPA_PROFIL
 10
96.008394418562602
 20
-31.823281295114612
 30
0.0
 42
-0.4142135623730951
  0
VERTEX
  5
1B38
  8
SAPA_PROFIL
 10
95.808430374055206
 20
-32.197466250590423
 30
0.0
  0
VERTEX
  5
1B39
  8
SAPA_PROFIL
 10
95.760584624056719
 20
-32.211984659837533
 30
0.0
  0
VERTEX
  5
1B3A
  8
SAPA_PROFIL
 10
95.76050101617308
 20
-33.715085740599541
 30
0.0
 42
0.4769755326981641
  0
VERTEX
  5
1B3B
  8
SAPA_PROFIL
 10
96.132157891118936
 20
-34.017338565106002
 30
0.0
  0
VERTEX
  5
1B3C
  8
SAPA_PROFIL
 10
97.945388361777205
 20
-33.635891968978292
 30
0.0
 42
0.2216946626430191
  0
VERTEX
  5
1B3D
  8
SAPA_PROFIL
 10
98.486268193253977
 20
-33.230083063823493
 30
0.0
  0
VERTEX
  5
1B3E
  8
SAPA_PROFIL
 10
98.638402104362754
 20
-32.945400780591839
 30
0.0
 42
0.5773502691897466
  0
VERTEX
  5
1B3F
  8
SAPA_PROFIL
 10
98.455448364252561
 20
-32.651244480337027
 30
0.0
  0
VERTEX
  5
1B40
  8
SAPA_PROFIL
 10
98.133690636034316
 20
-32.661805846564
 30
0.0
  0
VERTEX
  5
1B41
  8
SAPA_PROFIL
 10
97.049126189062576
 20
-30.775962154702938
 30
0.0
  0
VERTEX
  5
1B42
  8
SAPA_PROFIL
 10
96.991052552073484
 20
-30.584579154709211
 30
0.0
 42
-0.7625858545243257
  0
VERTEX
  5
1B43
  8
SAPA_PROFIL
 10
97.321378633090475
 20
-30.399999952511731
 30
0.0
 42
0.2134217652834391
  0
SEQEND
  5
1B44
  8
SAPA_PROFIL
  0
POLYLINE
  5
13F9
  8
SAPA_PROFIL
 66
     1
 10
0.0
 20
0.0
 30
0.0
 70
     1
  0
VERTEX
  5
1B45
  8
SAPA_PROFIL
 10
104.99997618391031
 20
-10.499999951975029
 30
0.0
  0
VERTEX
  5
1B46
  8
SAPA_PROFIL
 10
106.99997618391031
 20
-10.499999951975029
 30
0.0
  0
VERTEX
  5
1B47
  8
SAPA_PROFIL
 10
106.99997618391021
 20
-10.59999995197494
 30
0.0
 42
0.4142135623732199
  0
VERTEX
  5
1B48
  8
SAPA_PROFIL
 10
107.1999761839102
 20
-10.799999951975019
 30
0.0
  0
VERTEX
  5
1B49
  8
SAPA_PROFIL
 10
108.7999761839102
 20
-10.799999951975121
 30
0.0
 42
0.4142135623727933
  0
VERTEX
  5
1B4A
  8
SAPA_PROFIL
 10
108.99997618391031
 20
-10.59999995197523
 30
0.0
  0
VERTEX
  5
1B4B
  8
SAPA_PROFIL
 10
108.99997618391031
 20
-10.499999951975029
 30
0.0
  0
VERTEX
  5
1B4C
  8
SAPA_PROFIL
 10
137.29997618391019
 20
-10.49999995197502
 30
0.0
  0
VERTEX
  5
1B4D
  8
SAPA_PROFIL
 10
137.2999761839105
 20
-10.59999995197502
 30
0.0
 42
0.4142135623730847
  0
VERTEX
  5
1B4E
  8
SAPA_PROFIL
 10
137.49997618391049
 20
-10.799999951975011
 30
0.0
  0
VERTEX
  5
1B4F
  8
SAPA_PROFIL
 10
139.09997618391051
 20
-10.7999999519749
 30
0.0
 42
0.4142135623730847
  0
VERTEX
  5
1B50
  8
SAPA_PROFIL
 10
139.2999761839103
 20
-10.59999995197502
 30
0.0
  0
VERTEX
  5
1B51
  8
SAPA_PROFIL
 10
139.2999761839103
 20
-10.49999995197502
 30
0.0
  0
VERTEX
  5
1B52
  8
SAPA_PROFIL
 10
140.99997618391041
 20
-10.49999995197502
 30
0.0
 42
-0.4142135623730675
  0
VERTEX
  5
1B53
  8
SAPA_PROFIL
 10
141.2999761839103
 20
-10.799999951975011
 30
0.0
  0
VERTEX
  5
1B54
  8
SAPA_PROFIL
 10
141.2999761839103
 20
-28.399999951975008
 30
0.0
 42
-0.4142135623730673
  0
VERTEX
  5
1B55
  8
SAPA_PROFIL
 10
140.99997618391041
 20
-28.699999951974959
 30
0.0
  0
VERTEX
  5
1B56
  8
SAPA_PROFIL
 10
139.29997618391019
 20
-28.699999951974959
 30
0.0
  0
VERTEX
  5
1B57
  8
SAPA_PROFIL
 10
139.29997618391039
 20
-28.399999951974952
 30
0.0
 42
0.4142135623731367
  0
VERTEX
  5
1B58
  8
SAPA_PROFIL
 10
139.09997618391029
 20
-28.19999995197497
 30
0.0
  0
VERTEX
  5
1B59
  8
SAPA_PROFIL
 10
137.49997618391049
 20
-28.19999995197491
 30
0.0
 42
0.4142135623732407
  0
VERTEX
  5
1B5A
  8
SAPA_PROFIL
 10
137.29997618391039
 20
-28.399999951975119
 30
0.0
  0
VERTEX
  5
1B5B
  8
SAPA_PROFIL
 10
137.29997618391039
 20
-28.69999995197502
 30
0.0
  0
VERTEX
  5
1B5C
  8
SAPA_PROFIL
 10
108.99997618391011
 20
-28.69999995197503
 30
0.0
  0
VERTEX
  5
1B5D
  8
SAPA_PROFIL
 10
108.99997618391031
 20
-28.399999951974959
 30
0.0
 42
0.4142135623732199
  0
VERTEX
  5
1B5E
  8
SAPA_PROFIL
 10
108.7999761839102
 20
-28.19999995197497
 30
0.0
  0
VERTEX
  5
1B5F
  8
SAPA_PROFIL
 10
107.1999761839102
 20
-28.199999951975059
 30
0.0
 42
0.4142135623733448
  0
VERTEX
  5
1B60
  8
SAPA_PROFIL
 10
106.99997618391031
 20
-28.399999951975129
 30
0.0
  0
VERTEX
  5
1B61
  8
SAPA_PROFIL
 10
106.99997618391031
 20
-28.69999995197497
 30
0.0
  0
VERTEX
  5
1B62
  8
SAPA_PROFIL
 10
97.499976183910505
 20
-28.69999995197497
 30
0.0
 42
-0.4142135623732061
  0
VERTEX
  5
1B63
  8
SAPA_PROFIL
 10
97.199976183910394
 20
-28.399999951974959
 30
0.0
  0
VERTEX
  5
1B64
  8
SAPA_PROFIL
 10
97.199976183910394
 20
-19.199999955193132
 30
0.0
 42
-0.4142135623732059
  0
VERTEX
  5
1B65
  8
SAPA_PROFIL
 10
97.499976183910505
 20
-18.899999955193149
 30
0.0
  0
VERTEX
  5
1B66
  8
SAPA_PROFIL
 10
101.9999769309852
 20
-18.899999955193142
 30
0.0
 42
0.414213562373052
  0
VERTEX
  5
1B67
  8
SAPA_PROFIL
 10
104.6999761839102
 20
-16.200000702268301
 30
0.0
  0
VERTEX
  5
1B68
  8
SAPA_PROFIL
 10
104.6999761839102
 20
-10.799999951975019
 30
0.0
 42
-0.4142135623732891
  0
SEQEND
  5
1B69
  8
SAPA_PROFIL
  0
POLYLINE
  5
13FA
  8
SAPA_PROFIL
 66
     1
 10
0.0
 20
0.0
 30
0.1
 70
     1
  0
VERTEX
  5
1B6A
  8
SAPA_PROFIL
 10
103.200358715234
 20
-58.499999952429448
 30
0.1
 42
0.2679491924311119
  0
VERTEX
  5
1B6B
  8
SAPA_PROFIL
 10
102.3343333114497
 20
-57.999999952429548
 30
0.1
  0
VERTEX
  5
1B6C
  8
SAPA_PROFIL
 10
100.9486926653946
 20
-57.999999952429661
 30
0.1
 42
0.5773502691897603
  0
VERTEX
  5
1B6D
  8
SAPA_PROFIL
 10
100.7754875846378
 20
-58.299999952429609
 30
0.1
  0
VERTEX
  5
1B6E
  8
SAPA_PROFIL
 10
101.6992480153411
 20
-59.89999995242929
 30
0.1
  0
VERTEX
  5
1B6F
  8
SAPA_PROFIL
 10
101.6992480153411
 20
-60.199999952429472
 30
0.1
 42
-0.4142135623728995
  0
VERTEX
  5
1B70
  8
SAPA_PROFIL
 10
101.3992480153412
 20
-60.499999952429548
 30
0.1
  0
VERTEX
  5
1B71
  8
SAPA_PROFIL
 10
97.546461610841135
 20
-60.499999952429491
 30
0.1
 42
0.2134217652834313
  0
VERTEX
  5
1B72
  8
SAPA_PROFIL
 10
97.322854813091055
 20
-60.599999952429613
 30
0.1
 42
-0.7625858545243313
  0
VERTEX
  5
1B73
  8
SAPA_PROFIL
 10
96.992528732074021
 20
-60.415420750232137
 30
0.1
  0
VERTEX
  5
1B74
  8
SAPA_PROFIL
 10
97.050602369063114
 20
-60.224037750238431
 30
0.1
  0
VERTEX
  5
1B75
  8
SAPA_PROFIL
 10
98.135166816034854
 20
-58.338194058377361
 30
0.1
  0
VERTEX
  5
1B76
  8
SAPA_PROFIL
 10
98.456924544253127
 20
-58.348755424604363
 30
0.1
 42
0.5773502691897454
  0
VERTEX
  5
1B77
  8
SAPA_PROFIL
 10
98.639878284363292
 20
-58.054599124349508
 30
0.1
  0
VERTEX
  5
1B78
  8
SAPA_PROFIL
 10
98.487744373254543
 20
-57.769916841117862
 30
0.1
 42
0.2216946626430149
  0
VERTEX
  5
1B79
  8
SAPA_PROFIL
 10
97.946864541777728
 20
-57.364107935963077
 30
0.1
  0
VERTEX
  5
1B7A
  8
SAPA_PROFIL
 10
96.133634071119502
 20
-56.98266133983536
 30
0.1
 42
0.476975532698164
  0
VERTEX
  5
1B7B
  8
SAPA_PROFIL
 10
95.761977196173589
 20
-57.284914164341828
 30
0.1
  0
VERTEX
  5
1B7C
  8
SAPA_PROFIL
 10
95.762060804057256
 20
-58.788015245103828
 30
0.1
  0
VERTEX
  5
1B7D
  8
SAPA_PROFIL
 10
95.809906554055743
 20
-58.802533654350938
 30
0.1
 42
-0.4142135623730875
  0
VERTEX
  5
1B7E
  8
SAPA_PROFIL
 10
96.009870598563154
 20
-59.17671860982675
 30
0.1
  0
VERTEX
  5
1B7F
  8
SAPA_PROFIL
 10
95.499976179999393
 20
-60.495951611588779
 30
0.1
  0
VERTEX
  5
1B80
  8
SAPA_PROFIL
 10
95.499976179999393
 20
-80.231478349085606
 30
0.1
 42
-0.3821712090170728
  0
VERTEX
  5
1B81
  8
SAPA_PROFIL
 10
95.23309596409365
 20
-80.529644544187533
 30
0.1
  0
VERTEX
  5
1B82
  8
SAPA_PROFIL
 10
88.655125179999445
 20
-81.055484079152535
 30
0.1
 42
-0.4469990000000183
  0
VERTEX
  5
1B83
  8
SAPA_PROFIL
 10
88.099925179999445
 20
-80.558540079152536
 30
0.1
  0
VERTEX
  5
1B84
  8
SAPA_PROFIL
 10
88.099925179999417
 20
-78.79999995242953
 30
0.1
 42
0.414213999999998
  0
VERTEX
  5
1B85
  8
SAPA_PROFIL
 10
87.099925179999445
 20
-77.799999952429516
 30
0.1
  0
VERTEX
  5
1B86
  8
SAPA_PROFIL
 10
86.83238117999943
 20
-77.799999952429545
 30
0.1
 42
0.2896899999999924
  0
VERTEX
  5
1B87
  8
SAPA_PROFIL
 10
85.928873179999385
 20
-78.371427952429542
 30
0.1
 42
0.5507599999999715
  0
VERTEX
  5
1B88
  8
SAPA_PROFIL
 10
86.199925179999411
 20
-78.79999995242953
 30
0.1
  0
VERTEX
  5
1B89
  8
SAPA_PROFIL
 10
86.499925179999394
 20
-78.799999952429516
 30
0.1
 42
-0.4142140000001125
  0
VERTEX
  5
1B8A
  8
SAPA_PROFIL
 10
86.699925179999425
 20
-78.999999952429533
 30
0.1
  0
VERTEX
  5
1B8B
  8
SAPA_PROFIL
 10
86.699925179999425
 20
-80.099999952429556
 30
0.1
 42
-0.4142139999999939
  0
VERTEX
  5
1B8C
  8
SAPA_PROFIL
 10
85.699925179999397
 20
-81.099999952429556
 30
0.1
  0
VERTEX
  5
1B8D
  8
SAPA_PROFIL
 10
83.399976179999442
 20
-81.099999952429556
 30
0.1
 42
-0.4142139999999918
  0
VERTEX
  5
1B8E
  8
SAPA_PROFIL
 10
82.399976179999456
 20
-80.099999952429556
 30
0.1
  0
VERTEX
  5
1B8F
  8
SAPA_PROFIL
 10
82.399976179999413
 20
-78.999999952429533
 30
0.1
 42
-0.4142139999999378
  0
VERTEX
  5
1B90
  8
SAPA_PROFIL
 10
82.59997617999943
 20
-78.79999995242953
 30
0.1
  0
VERTEX
  5
1B91
  8
SAPA_PROFIL
 10
82.899925179999386
 20
-78.799999952429502
 30
0.1
 42
0.5507599999999796
  0
VERTEX
  5
1B92
  8
SAPA_PROFIL
 10
83.170978179999409
 20
-78.371427952429556
 30
0.1
 42
0.2896900000000027
  0
VERTEX
  5
1B93
  8
SAPA_PROFIL
 10
82.267470179999407
 20
-77.799999952429516
 30
0.1
  0
VERTEX
  5
1B94
  8
SAPA_PROFIL
 10
81.999976179999393
 20
-77.799999952429545
 30
0.1
 42
0.4142140000000064
  0
VERTEX
  5
1B95
  8
SAPA_PROFIL
 10
80.999976179999408
 20
-78.79999995242953
 30
0.1
  0
VERTEX
  5
1B96
  8
SAPA_PROFIL
 10
80.999976179999464
 20
-80.499999952429533
 30
0.1
 42
0.4142139999999918
  0
VERTEX
  5
1B97
  8
SAPA_PROFIL
 10
82.999976179999393
 20
-82.499999952429533
 30
0.1
  0
VERTEX
  5
1B98
  8
SAPA_PROFIL
 10
169.49997617999941
 20
-82.499999952429476
 30
0.1
 42
0.414213999999996
  0
VERTEX
  5
1B99
  8
SAPA_PROFIL
 10
169.99997617999929
 20
-81.999999952429505
 30
0.1
  0
VERTEX
  5
1B9A
  8
SAPA_PROFIL
 10
169.99997617999929
 20
-78.299999952429516
 30
0.1
 42
0.4142139999999107
  0
VERTEX
  5
1B9B
  8
SAPA_PROFIL
 10
169.6999761799994
 20
-77.999999952429533
 30
0.1
  0
VERTEX
  5
1B9C
  8
SAPA_PROFIL
 10
168.93243117999941
 20
-77.999999952429533
 30
0.1
 42
0.2896899999999864
  0
VERTEX
  5
1B9D
  8
SAPA_PROFIL
 10
168.0289231799994
 20
-78.571427952429502
 30
0.1
 42
0.5507600000000558
  0
VERTEX
  5
1B9E
  8
SAPA_PROFIL
 10
168.29997617999939
 20
-78.999999952429533
 30
0.1
  0
VERTEX
  5
1B9F
  8
SAPA_PROFIL
 10
168.49997617999941
 20
-78.999999952429533
 30
0.1
 42
-0.414214000000073
  0
VERTEX
  5
1BA0
  8
SAPA_PROFIL
 10
168.79997617999939
 20
-79.299999952429516
 30
0.1
  0
VERTEX
  5
1BA1
  8
SAPA_PROFIL
 10
168.79997617999939
 20
-80.799999952429516
 30
0.1
 42
-0.414213999999996
  0
VERTEX
  5
1BA2
  8
SAPA_PROFIL
 10
168.29997617999939
 20
-81.299999952429516
 30
0.1
  0
VERTEX
  5
1BA3
  8
SAPA_PROFIL
 10
164.99997617999929
 20
-81.299999952429516
 30
0.1
 42
-0.4142140000000002
  0
VERTEX
  5
1BA4
  8
SAPA_PROFIL
 10
164.49997617999929
 20
-80.799999952429516
 30
0.1
  0
VERTEX
  5
1BA5
  8
SAPA_PROFIL
 10
164.49997617999929
 20
-79.299999952429516
 30
0.1
 42
-0.4142140000000209
  0
VERTEX
  5
1BA6
  8
SAPA_PROFIL
 10
164.79997617999939
 20
-78.999999952429533
 30
0.1
  0
VERTEX
  5
1BA7
  8
SAPA_PROFIL
 10
164.99997617999929
 20
-78.99999995242959
 30
0.1
 42
0.5507600000000054
  0
VERTEX
  5
1BA8
  8
SAPA_PROFIL
 10
165.2710281799994
 20
-78.571427952429502
 30
0.1
 42
0.2896899999999876
  0
VERTEX
  5
1BA9
  8
SAPA_PROFIL
 10
164.36752017999939
 20
-77.999999952429533
 30
0.1
  0
VERTEX
  5
1BAA
  8
SAPA_PROFIL
 10
163.3700491799994
 20
-77.999999952429548
 30
0.1
 42
0.0436609999999812
  0
VERTEX
  5
1BAB
  8
SAPA_PROFIL
 10
163.28322417999939
 20
-78.00759595242954
 30
0.1
  0
VERTEX
  5
1BAC
  8
SAPA_PROFIL
 10
161.71315217999941
 20
-78.284441952429546
 30
0.1
 42
0.839099999999979
  0
VERTEX
  5
1BAD
  8
SAPA_PROFIL
 10
161.71315217999941
 20
-79.269249952429533
 30
0.1
  0
VERTEX
  5
1BAE
  8
SAPA_PROFIL
 10
162.8868001799994
 20
-79.476194952429523
 30
0.1
 42
-0.363970000000042
  0
VERTEX
  5
1BAF
  8
SAPA_PROFIL
 10
163.29997617999939
 20
-79.968598952429545
 30
0.1
  0
VERTEX
  5
1BB0
  8
SAPA_PROFIL
 10
163.29997617999939
 20
-80.779999952429506
 30
0.1
 42
-0.4373279999999794
  0
VERTEX
  5
1BB1
  8
SAPA_PROFIL
 10
162.76088117999939
 20
-81.278468952429535
 30
0.1
  0
VERTEX
  5
1BB2
  8
SAPA_PROFIL
 10
148.28782290658299
 20
-80.711670466033667
 30
0.1
 42
-0.4023941355298093
  0
VERTEX
  5
1BB3
  8
SAPA_PROFIL
 10
147.99997617999929
 20
-80.411916737207349
 30
0.1
  0
VERTEX
  5
1BB4
  8
SAPA_PROFIL
 10
147.99997617999929
 20
-79.611382952429523
 30
0.1
 42
0.2596810000001062
  0
VERTEX
  5
1BB5
  8
SAPA_PROFIL
 10
147.90528317999929
 20
-79.441351952429528
 30
0.1
  0
VERTEX
  5
1BB6
  8
SAPA_PROFIL
 10
146.45793617999939
 20
-78.544952952429441
 30
0.1
 42
0.5877030000000574
  0
VERTEX
  5
1BB7
  8
SAPA_PROFIL
 10
145.99997617999929
 20
-78.799999952429573
 30
0.1
  0
VERTEX
  5
1BB8
  8
SAPA_PROFIL
 10
145.99997617999929
 20
-80.199999952429536
 30
0.1
 42
-0.4142139999999773
  0
VERTEX
  5
1BB9
  8
SAPA_PROFIL
 10
145.6999761799994
 20
-80.499999952429533
 30
0.1
  0
VERTEX
  5
1BBA
  8
SAPA_PROFIL
 10
143.29997617999939
 20
-80.499999952429533
 30
0.1
 42
-0.4142140000000855
  0
VERTEX
  5
1BBB
  8
SAPA_PROFIL
 10
142.99997617999929
 20
-80.199999952429536
 30
0.1
  0
VERTEX
  5
1BBC
  8
SAPA_PROFIL
 10
142.99997617999929
 20
-62.799999952429552
 30
0.1
 42
-0.4142140000001167
  0
VERTEX
  5
1BBD
  8
SAPA_PROFIL
 10
143.29997617999939
 20
-62.49999995242954
 30
0.1
  0
VERTEX
  5
1BBE
  8
SAPA_PROFIL
 10
145.6999761799994
 20
-62.49999995242954
 30
0.1
 42
-0.4142140000000127
  0
VERTEX
  5
1BBF
  8
SAPA_PROFIL
 10
145.99997617999929
 20
-62.799999952429552
 30
0.1
  0
VERTEX
  5
1BC0
  8
SAPA_PROFIL
 10
145.99997617999929
 20
-64.199999952429536
 30
0.1
 42
0.5920054160710117
  0
VERTEX
  5
1BC1
  8
SAPA_PROFIL
 10
146.46117951811419
 20
-64.45300846518731
 30
0.1
  0
VERTEX
  5
1BC2
  8
SAPA_PROFIL
 10
147.7074451743272
 20
-63.658955435365648
 30
0.1
 42
0.2562769852931595
  0
VERTEX
  5
1BC3
  8
SAPA_PROFIL
 10
147.79997617999931
 20
-63.490282926467017
 30
0.1
  0
VERTEX
  5
1BC4
  8
SAPA_PROFIL
 10
147.79997617999931
 20
-60.495951611588488
 30
0.1
  0
VERTEX
  5
1BC5
  8
SAPA_PROFIL
 10
147.29008176143569
 20
-59.176718609826807
 30
0.1
 42
-0.4142135623730875
  0
VERTEX
  5
1BC6
  8
SAPA_PROFIL
 10
147.49004580594311
 20
-58.802533654350988
 30
0.1
  0
VERTEX
  5
1BC7
  8
SAPA_PROFIL
 10
147.5378915559416
 20
-58.788015245103892
 30
0.1
  0
VERTEX
  5
1BC8
  8
SAPA_PROFIL
 10
147.53797516382519
 20
-57.284914164341878
 30
0.1
 42
0.4769755326981641
  0
VERTEX
  5
1BC9
  8
SAPA_PROFIL
 10
147.16631828887941
 20
-56.98266133983541
 30
0.1
  0
VERTEX
  5
1BCA
  8
SAPA_PROFIL
 10
145.3530878182211
 20
-57.364107935963098
 30
0.1
 42
0.2216946626430149
  0
VERTEX
  5
1BCB
  8
SAPA_PROFIL
 10
144.81220798674431
 20
-57.769916841117933
 30
0.1
  0
VERTEX
  5
1BCC
  8
SAPA_PROFIL
 10
144.66007407563549
 20
-58.054599124349558
 30
0.1
 42
0.5773502691897454
  0
VERTEX
  5
1BCD
  8
SAPA_PROFIL
 10
144.8430278157457
 20
-58.348755424604391
 30
0.1
  0
VERTEX
  5
1BCE
  8
SAPA_PROFIL
 10
145.164785543964
 20
-58.338194058377432
 30
0.1
  0
VERTEX
  5
1BCF
  8
SAPA_PROFIL
 10
146.24934999093571
 20
-60.224037750238452
 30
0.1
  0
VERTEX
  5
1BD0
  8
SAPA_PROFIL
 10
146.30742362792481
 20
-60.415420750232173
 30
0.1
 42
-0.7625858545243333
  0
VERTEX
  5
1BD1
  8
SAPA_PROFIL
 10
145.9770975469078
 20
-60.599999952429648
 30
0.1
 42
0.2134217652834462
  0
VERTEX
  5
1BD2
  8
SAPA_PROFIL
 10
145.75349074915769
 20
-60.499999952429548
 30
0.1
  0
VERTEX
  5
1BD3
  8
SAPA_PROFIL
 10
141.9007043446575
 20
-60.499999952429548
 30
0.1
 42
-0.4142135623729119
  0
VERTEX
  5
1BD4
  8
SAPA_PROFIL
 10
141.60070434465769
 20
-60.199999952429472
 30
0.1
  0
VERTEX
  5
1BD5
  8
SAPA_PROFIL
 10
141.60070434465769
 20
-59.89999995242929
 30
0.1
  0
VERTEX
  5
1BD6
  8
SAPA_PROFIL
 10
142.52446477536111
 20
-58.299999952429673
 30
0.1
 42
0.5773502691897497
  0
VERTEX
  5
1BD7
  8
SAPA_PROFIL
 10
142.35125969460421
 20
-57.999999952429548
 30
0.1
  0
VERTEX
  5
1BD8
  8
SAPA_PROFIL
 10
140.96561904854909
 20
-57.999999952429377
 30
0.1
 42
0.2679491924311136
  0
VERTEX
  5
1BD9
  8
SAPA_PROFIL
 10
140.09959364476461
 20
-58.499999952429377
 30
0.1
  0
VERTEX
  5
1BDA
  8
SAPA_PROFIL
 10
139.08923067368249
 20
-60.249999952429569
 30
0.1
 42
-0.2679491924310958
  0
VERTEX
  5
1BDB
  8
SAPA_PROFIL
 10
138.65621797179031
 20
-60.499999952429548
 30
0.1
  0
VERTEX
  5
1BDC
  8
SAPA_PROFIL
 10
138.31959142226989
 20
-60.499999952429548
 30
0.1
  0
VERTEX
  5
1BDD
  8
SAPA_PROFIL
 10
137.79997617999931
 20
-60.79999995242953
 30
0.1
  0
VERTEX
  5
1BDE
  8
SAPA_PROFIL
 10
137.2803609377286
 20
-60.499999952429548
 30
0.1
  0
VERTEX
  5
1BDF
  8
SAPA_PROFIL
 10
104.6437343882085
 20
-60.499999952429548
 30
0.1
 42
-0.2679491924311033
  0
VERTEX
  5
1BE0
  8
SAPA_PROFIL
 10
104.2107216863163
 20
-60.249999952429569
 30
0.1
  0
SEQEND
  5
1BE1
  8
SAPA_PROFIL
  0
POLYLINE
  5
13FB
  8
SAPA_PROFIL
 66
     1
 10
0.0
 20
0.0
 30
0.1
 70
     1
  0
VERTEX
  5
1BE2
  8
SAPA_PROFIL
 10
139.0999761799994
 20
-62.799999952429552
 30
0.1
  0
VERTEX
  5
1BE3
  8
SAPA_PROFIL
 10
137.49997617999941
 20
-62.799999952429552
 30
0.1
 42
-0.4142135623730951
  0
VERTEX
  5
1BE4
  8
SAPA_PROFIL
 10
137.29997617999939
 20
-62.599999952429528
 30
0.1
  0
VERTEX
  5
1BE5
  8
SAPA_PROFIL
 10
137.29997617999939
 20
-62.299999868556213
 30
0.1
  0
VERTEX
  5
1BE6
  8
SAPA_PROFIL
 10
101.1999761799994
 20
-62.299999868556213
 30
0.1
  0
VERTEX
  5
1BE7
  8
SAPA_PROFIL
 10
101.1999761799994
 20
-62.599999952429528
 30
0.1
 42
-0.4142135623730951
  0
VERTEX
  5
1BE8
  8
SAPA_PROFIL
 10
100.99997617999939
 20
-62.799999952429552
 30
0.1
  0
VERTEX
  5
1BE9
  8
SAPA_PROFIL
 10
99.399976179999385
 20
-62.799999952429552
 30
0.1
 42
-0.4142135623730951
  0
VERTEX
  5
1BEA
  8
SAPA_PROFIL
 10
99.199976179999396
 20
-62.599999952429528
 30
0.1
  0
VERTEX
  5
1BEB
  8
SAPA_PROFIL
 10
99.199976179999396
 20
-62.299999868556213
 30
0.1
  0
VERTEX
  5
1BEC
  8
SAPA_PROFIL
 10
97.499976179999408
 20
-62.299999868556199
 30
0.1
 42
0.4142135623730951
  0
VERTEX
  5
1BED
  8
SAPA_PROFIL
 10
97.199976179999396
 20
-62.59999986855621
 30
0.1
  0
VERTEX
  5
1BEE
  8
SAPA_PROFIL
 10
97.199976179999396
 20
-80.199999952429536
 30
0.1
 42
0.4142135623730951
  0
VERTEX
  5
1BEF
  8
SAPA_PROFIL
 10
97.499976179999408
 20
-80.499999952429533
 30
0.1
  0
VERTEX
  5
1BF0
  8
SAPA_PROFIL
 10
99.199976179999396
 20
-80.499999952429533
 30
0.1
  0
VERTEX
  5
1BF1
  8
SAPA_PROFIL
 10
99.199976179999396
 20
-80.399999952429511
 30
0.1
 42
-0.4142135623730951
  0
VERTEX
  5
1BF2
  8
SAPA_PROFIL
 10
99.399976179999385
 20
-80.199999952429536
 30
0.1
  0
VERTEX
  5
1BF3
  8
SAPA_PROFIL
 10
100.99997617999939
 20
-80.199999952429536
 30
0.1
 42
-0.4142135623730951
  0
VERTEX
  5
1BF4
  8
SAPA_PROFIL
 10
101.1999761799994
 20
-80.399999952429511
 30
0.1
  0
VERTEX
  5
1BF5
  8
SAPA_PROFIL
 10
101.1999761799994
 20
-80.499999952429533
 30
0.1
  0
VERTEX
  5
1BF6
  8
SAPA_PROFIL
 10
137.29997617999939
 20
-80.499999952429533
 30
0.1
  0
VERTEX
  5
1BF7
  8
SAPA_PROFIL
 10
137.29997617999939
 20
-80.399999952429511
 30
0.1
 42
-0.4142135623730951
  0
VERTEX
  5
1BF8
  8
SAPA_PROFIL
 10
137.49997617999941
 20
-80.199999952429536
 30
0.1
  0
VERTEX
  5
1BF9
  8
SAPA_PROFIL
 10
139.0999761799994
 20
-80.199999952429536
 30
0.1
 42
-0.4142135623730951
  0
VERTEX
  5
1BFA
  8
SAPA_PROFIL
 10
139.29997617999939
 20
-80.399999952429511
 30
0.1
  0
VERTEX
  5
1BFB
  8
SAPA_PROFIL
 10
139.29997617999939
 20
-80.499999952429533
 30
0.1
  0
VERTEX
  5
1BFC
  8
SAPA_PROFIL
 10
140.99997617999941
 20
-80.499999952429533
 30
0.1
 42
0.4142135623730951
  0
VERTEX
  5
1BFD
  8
SAPA_PROFIL
 10
141.29997617999939
 20
-80.199999952429536
 30
0.1
  0
VERTEX
  5
1BFE
  8
SAPA_PROFIL
 10
141.29997617999939
 20
-62.59999986855621
 30
0.1
 42
0.4142135623730951
  0
VERTEX
  5
1BFF
  8
SAPA_PROFIL
 10
140.99997617999941
 20
-62.299999868556213
 30
0.1
  0
VERTEX
  5
1C00
  8
SAPA_PROFIL
 10
139.29997617999939
 20
-62.299999868556213
 30
0.1
  0
VERTEX
  5
1C01
  8
SAPA_PROFIL
 10
139.29997617999939
 20
-62.599999952429528
 30
0.1
 42
-0.4142135623730951
  0
SEQEND
  5
1C02
  8
SAPA_PROFIL
  0
POLYLINE
  5
13FC
  8
SAPA_PROFIL
 62
     4
 66
     1
 10
0.0
 20
0.0
 30
0.0
 70
     1
  0
VERTEX
  5
1C03
  8
SAPA_PROFIL
 62
     4
 10
144.8311420439808
 20
-57.462221481959872
 30
0.0
 42
-0.3137019356282051
  0
VERTEX
  5
1C04
  8
SAPA_PROFIL
 62
     4
 10
145.0287676695142
 20
-57.181271698413561
 30
0.0
  0
VERTEX
  5
1C05
  8
SAPA_PROFIL
 62
     4
 10
147.46159769105819
 20
-56.295793985542382
 30
0.0
 42
0.3152987888779321
  0
VERTEX
  5
1C06
  8
SAPA_PROFIL
 62
     4
 10
147.72478963372799
 20
-55.91991693722597
 30
0.0
  0
VERTEX
  5
1C07
  8
SAPA_PROFIL
 62
     4
 10
147.72478963372791
 20
-45.499999952511857
 30
0.0
  0
VERTEX
  5
1C08
  8
SAPA_PROFIL
 62
     4
 10
147.72478963372791
 20
-35.080082967793757
 30
0.0
 42
0.3152987888779395
  0
VERTEX
  5
1C09
  8
SAPA_PROFIL
 62
     4
 10
147.46159769105819
 20
-34.704205919481403
 30
0.0
  0
VERTEX
  5
1C0A
  8
SAPA_PROFIL
 62
     4
 10
145.02876766952249
 20
-33.818728206613208
 30
0.0
 42
-0.3138982169096283
  0
VERTEX
  5
1C0B
  8
SAPA_PROFIL
 62
     4
 10
144.83114204398211
 20
-33.537778423099027
 30
0.0
 42
-0.0157923906855865
  0
VERTEX
  5
1C0C
  8
SAPA_PROFIL
 62
     4
 10
144.82773891434249
 20
-33.186319890760167
 30
0.0
  0
VERTEX
  5
1C0D
  8
SAPA_PROFIL
 62
     4
 10
144.68906915723599
 20
-32.946136825977888
 30
0.0
 42
-0.5773502691889272
  0
VERTEX
  5
1C0E
  8
SAPA_PROFIL
 62
     4
 10
144.87093449203081
 20
-32.631136825978167
 30
0.0
  0
VERTEX
  5
1C0F
  8
SAPA_PROFIL
 62
     4
 10
145.1380490202437
 20
-32.631136825978061
 30
0.0
  0
VERTEX
  5
1C10
  8
SAPA_PROFIL
 62
     4
 10
145.334271086028
 20
-32.299999952511868
 30
0.0
  0
VERTEX
  5
1C11
  8
SAPA_PROFIL
 62
     4
 10
145.90191524952539
 20
-31.316679814531359
 30
0.0
 42
0.1316524975869703
  0
VERTEX
  5
1C12
  8
SAPA_PROFIL
 62
     4
 10
145.93004991473001
 20
-31.21167981453253
 30
0.0
  0
VERTEX
  5
1C13
  8
SAPA_PROFIL
 62
     4
 10
145.93004991473009
 20
-30.899999952509958
 30
0.0
 42
0.4142135623775584
  0
VERTEX
  5
1C14
  8
SAPA_PROFIL
 62
     4
 10
145.5300499147298
 20
-30.49999995251191
 30
0.0
  0
VERTEX
  5
1C15
  8
SAPA_PROFIL
 62
     4
 10
142.13004991473011
 20
-30.49999995251186
 30
0.0
 42
0.4142135623773978
  0
VERTEX
  5
1C16
  8
SAPA_PROFIL
 62
     4
 10
141.7300499147301
 20
-30.899999952511891
 30
0.0
  0
VERTEX
  5
1C17
  8
SAPA_PROFIL
 62
     4
 10
141.7300499147301
 20
-31.21167981453555
 30
0.0
 42
0.1316524975869708
  0
VERTEX
  5
1C18
  8
SAPA_PROFIL
 62
     4
 10
141.75818457993529
 20
-31.316679814532488
 30
0.0
  0
VERTEX
  5
1C19
  8
SAPA_PROFIL
 62
     4
 10
142.3259047262973
 20
-32.299999952511868
 30
0.0
  0
VERTEX
  5
1C1A
  8
SAPA_PROFIL
 62
     4
 10
142.6692803992695
 20
-32.894744064182753
 30
0.0
 42
-0.1316524975869772
  0
VERTEX
  5
1C1B
  8
SAPA_PROFIL
 62
     4
 10
142.83004991473001
 20
-33.494744064186122
 30
0.0
  0
VERTEX
  5
1C1C
  8
SAPA_PROFIL
 62
     4
 10
142.83004991472981
 20
-34.446608397072559
 30
0.0
 42
0.3152987888780149
  0
VERTEX
  5
1C1D
  8
SAPA_PROFIL
 62
     4
 10
143.4880297714042
 20
-35.386301017844048
 30
0.0
  0
VERTEX
  5
1C1E
  8
SAPA_PROFIL
 62
     4
 10
145.66159769105781
 20
-36.177415042753907
 30
0.0
 42
-0.3152987888779391
  0
VERTEX
  5
1C1F
  8
SAPA_PROFIL
 62
     4
 10
145.92478963372801
 20
-36.553292091068428
 30
0.0
  0
VERTEX
  5
1C20
  8
SAPA_PROFIL
 62
     4
 10
145.92478963372801
 20
-45.499999952511857
 30
0.0
  0
VERTEX
  5
1C21
  8
SAPA_PROFIL
 62
     4
 10
145.92478963372801
 20
-54.446707813955342
 30
0.0
 42
-0.3152987888779318
  0
VERTEX
  5
1C22
  8
SAPA_PROFIL
 62
     4
 10
145.66159769106159
 20
-54.822584862268499
 30
0.0
  0
VERTEX
  5
1C23
  8
SAPA_PROFIL
 62
     4
 10
143.4880297714044
 20
-55.613698887179609
 30
0.0
 42
0.3152987888779361
  0
VERTEX
  5
1C24
  8
SAPA_PROFIL
 62
     4
 10
142.83004991473001
 20
-56.553391507980201
 30
0.0
  0
VERTEX
  5
1C25
  8
SAPA_PROFIL
 62
     4
 10
142.83004991473001
 20
-57.505255840837712
 30
0.0
 42
-0.1316524975869766
  0
VERTEX
  5
1C26
  8
SAPA_PROFIL
 62
     4
 10
142.66928039927529
 20
-58.105255840830907
 30
0.0
  0
VERTEX
  5
1C27
  8
SAPA_PROFIL
 62
     4
 10
142.3300499147301
 20
-58.692820275539397
 30
0.0
  0
VERTEX
  5
1C28
  8
SAPA_PROFIL
 62
     4
 10
141.7581845799354
 20
-59.683320090491343
 30
0.0
 42
0.1316524975869832
  0
VERTEX
  5
1C29
  8
SAPA_PROFIL
 62
     4
 10
141.7300499147301
 20
-59.788320090494423
 30
0.0
  0
VERTEX
  5
1C2A
  8
SAPA_PROFIL
 62
     4
 10
141.7300499147301
 20
-60.099999952511929
 30
0.0
 42
0.414213562371655
  0
VERTEX
  5
1C2B
  8
SAPA_PROFIL
 62
     4
 10
142.130049914734
 20
-60.499999952511907
 30
0.0
  0
VERTEX
  5
1C2C
  8
SAPA_PROFIL
 62
     4
 10
145.53004991473011
 20
-60.499999952511907
 30
0.0
 42
0.4142135623716633
  0
VERTEX
  5
1C2D
  8
SAPA_PROFIL
 62
     4
 10
145.93004991473009
 20
-60.09999995250989
 30
0.0
  0
VERTEX
  5
1C2E
  8
SAPA_PROFIL
 62
     4
 10
145.93004991473009
 20
-59.78832009049124
 30
0.0
 42
0.1316524975869709
  0
VERTEX
  5
1C2F
  8
SAPA_PROFIL
 62
     4
 10
145.90191524952451
 20
-59.683320090490653
 30
0.0
  0
VERTEX
  5
1C30
  8
SAPA_PROFIL
 62
     4
 10
145.1380490202437
 20
-58.368863079045653
 30
0.0
  0
VERTEX
  5
1C31
  8
SAPA_PROFIL
 62
     4
 10
144.87093449203081
 20
-58.368863079045539
 30
0.0
 42
-0.5773502691889269
  0
VERTEX
  5
1C32
  8
SAPA_PROFIL
 62
     4
 10
144.68906915723599
 20
-58.053863079045833
 30
0.0
  0
VERTEX
  5
1C33
  8
SAPA_PROFIL
 62
     4
 10
144.82773891434249
 20
-57.813680014263532
 30
0.0
 42
-0.015792390685586
  0
SEQEND
  5
1C34
  8
SAPA_PROFIL
 62
     4
  0
POLYLINE
  5
13FD
  8
SAPA_PROFIL
 62
     4
 66
     1
 10
0.0
 20
0.0
 30
0.1
 70
     1
1001
RC_PROFILE
1002
{
1000
Contour
1002
}
  0
VERTEX
  5
1C35
  8
SAPA_PROFIL
 62
     4
 10
98.613835570585223
 20
-32.956136825977907
 30
0.1
 42
0.5773502691895099
  0
VERTEX
  5
1C36
  8
SAPA_PROFIL
 62
     4
 10
98.431970235790558
 20
-32.641136825978201
 30
0.1
  0
VERTEX
  5
1C37
  8
SAPA_PROFIL
 62
     4
 10
98.164855707577544
 20
-32.641136825978201
 30
0.1
  0
VERTEX
  5
1C38
  8
SAPA_PROFIL
 62
     4
 10
97.372854813109115
 20
-31.259999952561639
 30
0.1
  0
VERTEX
  5
1C39
  8
SAPA_PROFIL
 62
     4
 10
97.372854813100489
 20
-30.899999952561291
 30
0.1
 42
-0.4142135623731464
  0
VERTEX
  5
1C3A
  8
SAPA_PROFIL
 62
     4
 10
97.772854813091143
 20
-30.499999952551761
 30
0.1
  0
VERTEX
  5
1C3B
  8
SAPA_PROFIL
 62
     4
 10
101.17285481309111
 20
-30.49999995247201
 30
0.1
 42
-0.4142135623728774
  0
VERTEX
  5
1C3C
  8
SAPA_PROFIL
 62
     4
 10
101.57285481310061
 20
-30.89999995246227
 30
0.1
  0
VERTEX
  5
1C3D
  8
SAPA_PROFIL
 62
     4
 10
101.5728548131092
 20
-31.259999952462572
 30
0.1
  0
VERTEX
  5
1C3E
  8
SAPA_PROFIL
 62
     4
 10
100.6318669041958
 20
-32.900948248575212
 30
0.1
 42
0.130905717258469
  0
VERTEX
  5
1C3F
  8
SAPA_PROFIL
 62
     4
 10
100.4728548131617
 20
-33.497893952488468
 30
0.1
  0
VERTEX
  5
1C40
  8
SAPA_PROFIL
 62
     4
 10
100.4728548137217
 20
-57.502069290767949
 30
0.1
 42
0.1309134860018379
  0
VERTEX
  5
1C41
  8
SAPA_PROFIL
 62
     4
 10
100.6318669041958
 20
-58.0990516563662
 30
0.1
  0
VERTEX
  5
1C42
  8
SAPA_PROFIL
 62
     4
 10
101.5728548131092
 20
-59.739999952478612
 30
0.1
  0
VERTEX
  5
1C43
  8
SAPA_PROFIL
 62
     4
 10
101.57285481310061
 20
-60.099999952479017
 30
0.1
 42
-0.4142135623729619
  0
VERTEX
  5
1C44
  8
SAPA_PROFIL
 62
     4
 10
101.17285481309111
 20
-60.499999952469388
 30
0.1
  0
VERTEX
  5
1C45
  8
SAPA_PROFIL
 62
     4
 10
97.772854813091143
 20
-60.499999952389643
 30
0.1
 42
-0.4142135623730782
  0
VERTEX
  5
1C46
  8
SAPA_PROFIL
 62
     4
 10
97.372854813100602
 20
-60.09999995238006
 30
0.1
  0
VERTEX
  5
1C47
  8
SAPA_PROFIL
 62
     4
 10
97.372854813109115
 20
-59.739999952379812
 30
0.1
  0
VERTEX
  5
1C48
  8
SAPA_PROFIL
 62
     4
 10
98.164855707577544
 20
-58.35886307896304
 30
0.1
  0
VERTEX
  5
1C49
  8
SAPA_PROFIL
 62
     4
 10
98.431970235790558
 20
-58.358863078963147
 30
0.1
 42
0.5773502691896441
  0
VERTEX
  5
1C4A
  8
SAPA_PROFIL
 62
     4
 10
98.613835570585124
 20
-58.04386307896344
 30
0.1
  0
VERTEX
  5
1C4B
  8
SAPA_PROFIL
 62
     4
 10
98.472854813161675
 20
-57.799677244215538
 30
0.1
  0
VERTEX
  5
1C4C
  8
SAPA_PROFIL
 62
     4
 10
98.472854813161675
 20
-33.200322660725753
 30
0.1
  0
SEQEND
  5
1C4D
  8
SAPA_PROFIL
 62
     4
  0
POLYLINE
  5
13FE
  8
SAPA_PROFIL
  6
CONTINUOUS
 62
     4
 66
     1
 10
0.0
 20
0.0
 30
0.0
 70
     1
  0
VERTEX
  5
1C4E
  8
SAPA_PROFIL
  6
CONTINUOUS
 62
     4
 10
98.431970235790558
 20
-32.641136825978187
 30
0.0
  0
VERTEX
  5
1C4F
  8
SAPA_PROFIL
  6
CONTINUOUS
 62
     4
 10
98.164855707577544
 20
-32.641136825978187
 30
0.0
  0
VERTEX
  5
1C50
  8
SAPA_PROFIL
  6
CONTINUOUS
 62
     4
 10
97.372854813109115
 20
-31.259999952561639
 30
0.0
  0
VERTEX
  5
1C51
  8
SAPA_PROFIL
  6
CONTINUOUS
 62
     4
 10
97.372854813100489
 20
-30.899999952561281
 30
0.0
 42
-0.4142135623731473
  0
VERTEX
  5
1C52
  8
SAPA_PROFIL
  6
CONTINUOUS
 62
     4
 10
97.772854813091143
 20
-30.499999952551761
 30
0.0
  0
VERTEX
  5
1C53
  8
SAPA_PROFIL
  6
CONTINUOUS
 62
     4
 10
101.17285481309111
 20
-30.499999952471999
 30
0.0
 42
-0.4142135623728817
  0
VERTEX
  5
1C54
  8
SAPA_PROFIL
  6
CONTINUOUS
 62
     4
 10
101.57285481310061
 20
-30.89999995246227
 30
0.0
  0
VERTEX
  5
1C55
  8
SAPA_PROFIL
  6
CONTINUOUS
 62
     4
 10
101.5728548131092
 20
-31.259999952462572
 30
0.0
  0
VERTEX
  5
1C56
  8
SAPA_PROFIL
  6
CONTINUOUS
 62
     4
 10
100.6318669041958
 20
-32.900948248575197
 30
0.0
 42
0.1309057172584687
  0
VERTEX
  5
1C57
  8
SAPA_PROFIL
  6
CONTINUOUS
 62
     4
 10
100.4728548131617
 20
-33.497893952488461
 30
0.0
  0
VERTEX
  5
1C58
  8
SAPA_PROFIL
  6
CONTINUOUS
 62
     4
 10
100.4728548137217
 20
-57.502069290767949
 30
0.0
 42
0.1309134860018382
  0
VERTEX
  5
1C59
  8
SAPA_PROFIL
  6
CONTINUOUS
 62
     4
 10
100.6318669041958
 20
-58.0990516563662
 30
0.0
  0
VERTEX
  5
1C5A
  8
SAPA_PROFIL
  6
CONTINUOUS
 62
     4
 10
101.5728548131091
 20
-59.739999952478612
 30
0.0
  0
VERTEX
  5
1C5B
  8
SAPA_PROFIL
  6
CONTINUOUS
 62
     4
 10
101.57285481310061
 20
-60.099999952479017
 30
0.0
 42
-0.4142135623729598
  0
VERTEX
  5
1C5C
  8
SAPA_PROFIL
  6
CONTINUOUS
 62
     4
 10
101.17285481309111
 20
-60.499999952469388
 30
0.0
  0
VERTEX
  5
1C5D
  8
SAPA_PROFIL
  6
CONTINUOUS
 62
     4
 10
97.772854813091143
 20
-60.499999952389643
 30
0.0
 42
-0.4142135623730795
  0
VERTEX
  5
1C5E
  8
SAPA_PROFIL
  6
CONTINUOUS
 62
     4
 10
97.372854813100602
 20
-60.09999995238006
 30
0.0
  0
VERTEX
  5
1C5F
  8
SAPA_PROFIL
  6
CONTINUOUS
 62
     4
 10
97.372854813109115
 20
-59.739999952379812
 30
0.0
  0
VERTEX
  5
1C60
  8
SAPA_PROFIL
  6
CONTINUOUS
 62
     4
 10
98.164855707577544
 20
-58.35886307896304
 30
0.0
  0
VERTEX
  5
1C61
  8
SAPA_PROFIL
  6
CONTINUOUS
 62
     4
 10
98.431970235790558
 20
-58.358863078963147
 30
0.0
 42
0.5773502691896458
  0
VERTEX
  5
1C62
  8
SAPA_PROFIL
  6
CONTINUOUS
 62
     4
 10
98.613835570585124
 20
-58.04386307896344
 30
0.0
  0
VERTEX
  5
1C63
  8
SAPA_PROFIL
  6
CONTINUOUS
 62
     4
 10
98.472854813161675
 20
-57.799677244215538
 30
0.0
  0
VERTEX
  5
1C64
  8
SAPA_PROFIL
  6
CONTINUOUS
 62
     4
 10
98.472854813161675
 20
-33.200322660725739
 30
0.0
  0
VERTEX
  5
1C65
  8
SAPA_PROFIL
  6
CONTINUOUS
 62
     4
 10
98.613835570585223
 20
-32.9561368259779
 30
0.0
 42
0.5773502691895091
  0
SEQEND
  5
1C66
  8
SAPA_PROFIL
  6
CONTINUOUS
 62
     4
  0
POLYLINE
  5
13FF
  8
SAPA_PROFIL
 66
     1
 10
0.0
 20
0.0
 30
0.0
 70
     1
  0
VERTEX
  5
1C67
  8
SAPA_PROFIL
 10
81.453514564499969
 20
-30.49999995700481
 30
0.0
 42
0.2134217652834387
  0
VERTEX
  5
1C68
  8
SAPA_PROFIL
 10
81.677121362250077
 20
-30.399999957004699
 30
0.0
 42
-0.7625858545243219
  0
VERTEX
  5
1C69
  8
SAPA_PROFIL
 10
82.007447443267097
 20
-30.584579159202178
 30
0.0
  0
VERTEX
  5
1C6A
  8
SAPA_PROFIL
 10
81.949373806278004
 20
-30.775962159195899
 30
0.0
  0
VERTEX
  5
1C6B
  8
SAPA_PROFIL
 10
80.864809359306264
 20
-32.661805851056961
 30
0.0
  0
VERTEX
  5
1C6C
  8
SAPA_PROFIL
 10
80.543051631088005
 20
-32.651244484829967
 30
0.0
 42
0.5773502691897439
  0
VERTEX
  5
1C6D
  8
SAPA_PROFIL
 10
80.360097890977841
 20
-32.945400785084807
 30
0.0
  0
VERTEX
  5
1C6E
  8
SAPA_PROFIL
 10
80.512231802086575
 20
-33.230083068316453
 30
0.0
 42
0.2216946626430187
  0
VERTEX
  5
1C6F
  8
SAPA_PROFIL
 10
81.053111633563375
 20
-33.635891973471253
 30
0.0
  0
VERTEX
  5
1C70
  8
SAPA_PROFIL
 10
82.866342104221616
 20
-34.017338569598962
 30
0.0
 42
0.4769755326981641
  0
VERTEX
  5
1C71
  8
SAPA_PROFIL
 10
83.237998979167514
 20
-33.715085745092487
 30
0.0
  0
VERTEX
  5
1C72
  8
SAPA_PROFIL
 10
83.237915371283862
 20
-32.211984664330487
 30
0.0
  0
VERTEX
  5
1C73
  8
SAPA_PROFIL
 10
83.190069621285375
 20
-32.197466255083391
 30
0.0
 42
-0.4142135623730944
  0
VERTEX
  5
1C74
  8
SAPA_PROFIL
 10
82.990105576777978
 20
-31.823281299607569
 30
0.0
  0
VERTEX
  5
1C75
  8
SAPA_PROFIL
 10
83.499999995341454
 20
-30.504048297846161
 30
0.0
  0
VERTEX
  5
1C76
  8
SAPA_PROFIL
 10
83.499999995341526
 20
-10.76852156034866
 30
0.0
 42
-0.38217120901707
  0
VERTEX
  5
1C77
  8
SAPA_PROFIL
 10
83.766880211247255
 20
-10.47035536524673
 30
0.0
  0
VERTEX
  5
1C78
  8
SAPA_PROFIL
 10
90.344850995341488
 20
-9.9445158302817411
 30
0.0
 42
-0.4469990000000265
  0
VERTEX
  5
1C79
  8
SAPA_PROFIL
 10
90.900050995341616
 20
-10.44145983028179
 30
0.0
  0
VERTEX
  5
1C7A
  8
SAPA_PROFIL
 10
90.900050995341516
 20
-12.19999995700479
 30
0.0
 42
0.4142139999999868
  0
VERTEX
  5
1C7B
  8
SAPA_PROFIL
 10
91.900050995341445
 20
-13.19999995700476
 30
0.0
  0
VERTEX
  5
1C7C
  8
SAPA_PROFIL
 10
92.167594995341545
 20
-13.199999957004801
 30
0.0
 42
0.2896899999999956
  0
VERTEX
  5
1C7D
  8
SAPA_PROFIL
 10
93.071102995341533
 20
-12.628571957004731
 30
0.0
 42
0.5507599999999603
  0
VERTEX
  5
1C7E
  8
SAPA_PROFIL
 10
92.800050995341479
 20
-12.19999995700479
 30
0.0
  0
VERTEX
  5
1C7F
  8
SAPA_PROFIL
 10
92.500050995341525
 20
-12.19999995700479
 30
0.0
 42
-0.4142140000001095
  0
VERTEX
  5
1C80
  8
SAPA_PROFIL
 10
92.300050995341437
 20
-11.999999957004739
 30
0.0
  0
VERTEX
  5
1C81
  8
SAPA_PROFIL
 10
92.300050995341508
 20
-10.899999957004781
 30
0.0
 42
-0.4142139999999826
  0
VERTEX
  5
1C82
  8
SAPA_PROFIL
 10
93.300050995341465
 20
-9.8999999570048391
 30
0.0
  0
VERTEX
  5
1C83
  8
SAPA_PROFIL
 10
95.599999995341562
 20
-9.8999999570047894
 30
0.0
 42
-0.4142139999999877
  0
VERTEX
  5
1C84
  8
SAPA_PROFIL
 10
96.599999995341534
 20
-10.899999957004731
 30
0.0
  0
VERTEX
  5
1C85
  8
SAPA_PROFIL
 10
96.599999995341577
 20
-11.9999999570048
 30
0.0
 42
-0.4142139999999481
  0
VERTEX
  5
1C86
  8
SAPA_PROFIL
 10
96.399999995341474
 20
-12.199999957004749
 30
0.0
  0
VERTEX
  5
1C87
  8
SAPA_PROFIL
 10
96.100050995341562
 20
-12.199999957004801
 30
0.0
 42
0.5507600000000124
  0
VERTEX
  5
1C88
  8
SAPA_PROFIL
 10
95.828997995341496
 20
-12.628571957004789
 30
0.0
 42
0.2896899999999978
  0
VERTEX
  5
1C89
  8
SAPA_PROFIL
 10
96.732505995341427
 20
-13.19999995700482
 30
0.0
  0
VERTEX
  5
1C8A
  8
SAPA_PROFIL
 10
96.999999995341554
 20
-13.19999995700479
 30
0.0
 42
0.4142140000000002
  0
VERTEX
  5
1C8B
  8
SAPA_PROFIL
 10
97.99999999534154
 20
-12.199999957004779
 30
0.0
  0
VERTEX
  5
1C8C
  8
SAPA_PROFIL
 10
97.999999995341582
 20
-10.4999999570048
 30
0.0
 42
0.4142139999999887
  0
VERTEX
  5
1C8D
  8
SAPA_PROFIL
 10
95.999999995341511
 20
-8.4999999570047446
 30
0.0
  0
VERTEX
  5
1C8E
  8
SAPA_PROFIL
 10
31.199999995341582
 20
-8.4999999570048015
 30
0.0
 42
0.4142135623730847
  0
VERTEX
  5
1C8F
  8
SAPA_PROFIL
 10
30.999999995341579
 20
-8.6999999570047972
 30
0.0
  0
VERTEX
  5
1C90
  8
SAPA_PROFIL
 10
30.9999999953416
 20
-11.388616957004761
 30
0.0
 42
0.2596810000000924
  0
VERTEX
  5
1C91
  8
SAPA_PROFIL
 10
31.0946929953416
 20
-11.55864795700478
 30
0.0
  0
VERTEX
  5
1C92
  8
SAPA_PROFIL
 10
32.542039995341533
 20
-12.455046957004789
 30
0.0
 42
0.5877030000000333
  0
VERTEX
  5
1C93
  8
SAPA_PROFIL
 10
32.999999995341611
 20
-12.19999995700473
 30
0.0
  0
VERTEX
  5
1C94
  8
SAPA_PROFIL
 10
32.999999995341597
 20
-10.79999995700476
 30
0.0
 42
-0.4142139999999517
  0
VERTEX
  5
1C95
  8
SAPA_PROFIL
 10
33.299999995341523
 20
-10.49999995700478
 30
0.0
  0
VERTEX
  5
1C96
  8
SAPA_PROFIL
 10
35.699999995341528
 20
-10.49999995700481
 30
0.0
 42
-0.4142140000000525
  0
VERTEX
  5
1C97
  8
SAPA_PROFIL
 10
35.99999999534154
 20
-10.799999957004751
 30
0.0
  0
VERTEX
  5
1C98
  8
SAPA_PROFIL
 10
35.999999995341597
 20
-28.199999957004739
 30
0.0
 42
-0.4142140000001183
  0
VERTEX
  5
1C99
  8
SAPA_PROFIL
 10
35.6999999953415
 20
-28.499999957004931
 30
0.0
  0
VERTEX
  5
1C9A
  8
SAPA_PROFIL
 10
33.299999995341501
 20
-28.499999957004821
 30
0.0
 42
-0.4142140000000144
  0
VERTEX
  5
1C9B
  8
SAPA_PROFIL
 10
32.999999995341653
 20
-28.199999957004799
 30
0.0
  0
VERTEX
  5
1C9C
  8
SAPA_PROFIL
 10
32.999999995341597
 20
-26.799999957004768
 30
0.0
 42
0.5920054160710128
  0
VERTEX
  5
1C9D
  8
SAPA_PROFIL
 10
32.538796657226698
 20
-26.546991444247041
 30
0.0
  0
VERTEX
  5
1C9E
  8
SAPA_PROFIL
 10
31.29253100101371
 20
-27.341044474068649
 30
0.0
 42
0.2562769852931535
  0
VERTEX
  5
1C9F
  8
SAPA_PROFIL
 10
31.199999995341621
 20
-27.509716982967269
 30
0.0
  0
VERTEX
  5
1CA0
  8
SAPA_PROFIL
 10
31.199999995341599
 20
-30.50404829784565
 30
0.0
  0
VERTEX
  5
1CA1
  8
SAPA_PROFIL
 10
31.709894413905278
 20
-31.823281299607551
 30
0.0
 42
-0.4142135623730948
  0
VERTEX
  5
1CA2
  8
SAPA_PROFIL
 10
31.509930369397878
 20
-32.197466255083363
 30
0.0
  0
VERTEX
  5
1CA3
  8
SAPA_PROFIL
 10
31.462084619399391
 20
-32.211984664330473
 30
0.0
  0
VERTEX
  5
1CA4
  8
SAPA_PROFIL
 10
31.462001011515749
 20
-33.71508574509248
 30
0.0
 42
0.4769755326981646
  0
VERTEX
  5
1CA5
  8
SAPA_PROFIL
 10
31.833657886461609
 20
-34.017338569598941
 30
0.0
  0
VERTEX
  5
1CA6
  8
SAPA_PROFIL
 10
33.646888357119863
 20
-33.63589197347121
 30
0.0
 42
0.2216946626430189
  0
VERTEX
  5
1CA7
  8
SAPA_PROFIL
 10
34.18776818859665
 20
-33.230083068316418
 30
0.0
  0
VERTEX
  5
1CA8
  8
SAPA_PROFIL
 10
34.339902099705427
 20
-32.945400785084779
 30
0.0
 42
0.5773502691897443
  0
VERTEX
  5
1CA9
  8
SAPA_PROFIL
 10
34.156948359595241
 20
-32.651244484829967
 30
0.0
  0
VERTEX
  5
1CAA
  8
SAPA_PROFIL
 10
33.835190631376989
 20
-32.661805851056933
 30
0.0
  0
VERTEX
  5
1CAB
  8
SAPA_PROFIL
 10
32.750626184405249
 20
-30.775962159195881
 30
0.0
  0
VERTEX
  5
1CAC
  8
SAPA_PROFIL
 10
32.69255254741617
 20
-30.584579159202171
 30
0.0
 42
-0.7625858545243274
  0
VERTEX
  5
1CAD
  8
SAPA_PROFIL
 10
33.022878628433162
 20
-30.39999995700466
 30
0.0
 42
0.2134217652834391
  0
VERTEX
  5
1CAE
  8
SAPA_PROFIL
 10
33.246485426183291
 20
-30.499999957004778
 30
0.0
  0
VERTEX
  5
1CAF
  8
SAPA_PROFIL
 10
37.099271830683307
 20
-30.4999999570048
 30
0.0
 42
-0.4142135623729077
  0
VERTEX
  5
1CB0
  8
SAPA_PROFIL
 10
37.399271830683212
 20
-30.799999957004879
 30
0.0
  0
VERTEX
  5
1CB1
  8
SAPA_PROFIL
 10
37.399271830683261
 20
-31.09999995700506
 30
0.0
  0
VERTEX
  5
1CB2
  8
SAPA_PROFIL
 10
36.475511399979979
 20
-32.699999957004692
 30
0.0
 42
0.5773502691897674
  0
VERTEX
  5
1CB3
  8
SAPA_PROFIL
 10
36.648716480736738
 20
-32.99999995700481
 30
0.0
  0
VERTEX
  5
1CB4
  8
SAPA_PROFIL
 10
38.034357126791889
 20
-32.99999995700481
 30
0.0
 42
0.2679491924311062
  0
VERTEX
  5
1CB5
  8
SAPA_PROFIL
 10
38.900382530576323
 20
-32.499999957005002
 30
0.0
  0
VERTEX
  5
1CB6
  8
SAPA_PROFIL
 10
39.910745501658397
 20
-30.74999995700475
 30
0.0
 42
-0.267949192431108
  0
VERTEX
  5
1CB7
  8
SAPA_PROFIL
 10
40.343758203550607
 20
-30.4999999570048
 30
0.0
  0
VERTEX
  5
1CB8
  8
SAPA_PROFIL
 10
74.356241787132461
 20
-30.4999999570048
 30
0.0
 42
-0.2679491924311069
  0
VERTEX
  5
1CB9
  8
SAPA_PROFIL
 10
74.789254489024671
 20
-30.749999957004778
 30
0.0
  0
VERTEX
  5
1CBA
  8
SAPA_PROFIL
 10
75.799617460106759
 20
-32.499999957004917
 30
0.0
 42
0.2679491924311082
  0
VERTEX
  5
1CBB
  8
SAPA_PROFIL
 10
76.665642863891165
 20
-32.999999957004803
 30
0.0
  0
VERTEX
  5
1CBC
  8
SAPA_PROFIL
 10
78.051283509946273
 20
-32.999999957004803
 30
0.0
 42
0.5773502691897738
  0
VERTEX
  5
1CBD
  8
SAPA_PROFIL
 10
78.224488590703061
 20
-32.699999957004728
 30
0.0
  0
VERTEX
  5
1CBE
  8
SAPA_PROFIL
 10
77.300728159999807
 20
-31.09999995700505
 30
0.0
  0
VERTEX
  5
1CBF
  8
SAPA_PROFIL
 10
77.300728159999807
 20
-30.799999957004871
 30
0.0
 42
-0.4142135623729009
  0
VERTEX
  5
1CC0
  8
SAPA_PROFIL
 10
77.600728159999676
 20
-30.499999957004739
 30
0.0
  0
SEQEND
  5
1CC1
  8
SAPA_PROFIL
  0
POLYLINE
  5
1400
  8
SAPA_PROFIL
 66
     1
 10
0.0
 20
0.0
 30
0.0
 70
     1
  0
VERTEX
  5
1CC2
  8
SAPA_PROFIL
 10
79.799999995341565
 20
-28.399999957004781
 30
0.0
 42
0.4142135623730951
  0
VERTEX
  5
1CC3
  8
SAPA_PROFIL
 10
79.599999995341562
 20
-28.199999957004739
 30
0.0
  0
VERTEX
  5
1CC4
  8
SAPA_PROFIL
 10
77.99999999534154
 20
-28.199999957004788
 30
0.0
 42
0.4142135623730951
  0
VERTEX
  5
1CC5
  8
SAPA_PROFIL
 10
77.799999995341494
 20
-28.399999957004781
 30
0.0
  0
VERTEX
  5
1CC6
  8
SAPA_PROFIL
 10
77.799999995341494
 20
-28.700000040878109
 30
0.0
  0
VERTEX
  5
1CC7
  8
SAPA_PROFIL
 10
41.699999995341528
 20
-28.700000040878109
 30
0.0
  0
VERTEX
  5
1CC8
  8
SAPA_PROFIL
 10
41.69999999534155
 20
-28.399999957004791
 30
0.0
 42
0.4142135623730951
  0
VERTEX
  5
1CC9
  8
SAPA_PROFIL
 10
41.49999999534154
 20
-28.199999957004739
 30
0.0
  0
VERTEX
  5
1CCA
  8
SAPA_PROFIL
 10
39.899999995341517
 20
-28.199999957004788
 30
0.0
 42
0.4142135623730951
  0
VERTEX
  5
1CCB
  8
SAPA_PROFIL
 10
39.699999995341528
 20
-28.399999957004791
 30
0.0
  0
VERTEX
  5
1CCC
  8
SAPA_PROFIL
 10
39.699999995341528
 20
-28.700000040878109
 30
0.0
  0
VERTEX
  5
1CCD
  8
SAPA_PROFIL
 10
37.99999999534154
 20
-28.700000040878059
 30
0.0
 42
-0.4142135623730951
  0
VERTEX
  5
1CCE
  8
SAPA_PROFIL
 10
37.699999995341528
 20
-28.400000040878108
 30
0.0
  0
VERTEX
  5
1CCF
  8
SAPA_PROFIL
 10
37.699999995341557
 20
-10.79999995700476
 30
0.0
 42
-0.414213562373095
  0
VERTEX
  5
1CD0
  8
SAPA_PROFIL
 10
37.99999999534154
 20
-10.49999995700481
 30
0.0
  0
VERTEX
  5
1CD1
  8
SAPA_PROFIL
 10
39.699999995341528
 20
-10.49999995700481
 30
0.0
  0
VERTEX
  5
1CD2
  8
SAPA_PROFIL
 10
39.699999995341528
 20
-10.59999995700483
 30
0.0
 42
0.4142135623730951
  0
VERTEX
  5
1CD3
  8
SAPA_PROFIL
 10
39.899999995341517
 20
-10.79999995700476
 30
0.0
  0
VERTEX
  5
1CD4
  8
SAPA_PROFIL
 10
41.49999999534154
 20
-10.79999995700482
 30
0.0
 42
0.4142135623730951
  0
VERTEX
  5
1CD5
  8
SAPA_PROFIL
 10
41.699999995341528
 20
-10.59999995700483
 30
0.0
  0
VERTEX
  5
1CD6
  8
SAPA_PROFIL
 10
41.699999995341528
 20
-10.49999995700481
 30
0.0
  0
VERTEX
  5
1CD7
  8
SAPA_PROFIL
 10
77.799999995341494
 20
-10.4999999570048
 30
0.0
  0
VERTEX
  5
1CD8
  8
SAPA_PROFIL
 10
77.799999995341551
 20
-10.599999957004821
 30
0.0
 42
0.4142135623730951
  0
VERTEX
  5
1CD9
  8
SAPA_PROFIL
 10
77.99999999534154
 20
-10.79999995700476
 30
0.0
  0
VERTEX
  5
1CDA
  8
SAPA_PROFIL
 10
79.599999995341562
 20
-10.799999957004809
 30
0.0
 42
0.4142135623730898
  0
VERTEX
  5
1CDB
  8
SAPA_PROFIL
 10
79.799999995341494
 20
-10.599999957004821
 30
0.0
  0
VERTEX
  5
1CDC
  8
SAPA_PROFIL
 10
79.799999995341494
 20
-10.4999999570048
 30
0.0
  0
VERTEX
  5
1CDD
  8
SAPA_PROFIL
 10
81.49999999534154
 20
-10.499999957004739
 30
0.0
 42
-0.4142135623730953
  0
VERTEX
  5
1CDE
  8
SAPA_PROFIL
 10
81.799999995341494
 20
-10.79999995700476
 30
0.0
  0
VERTEX
  5
1CDF
  8
SAPA_PROFIL
 10
81.799999995341551
 20
-28.400000040878101
 30
0.0
 42
-0.4142135623730951
  0
VERTEX
  5
1CE0
  8
SAPA_PROFIL
 10
81.49999999534154
 20
-28.700000040878109
 30
0.0
  0
VERTEX
  5
1CE1
  8
SAPA_PROFIL
 10
79.799999995341494
 20
-28.700000040878109
 30
0.0
  0
SEQEND
  5
1CE2
  8
SAPA_PROFIL
  0
POLYLINE
  5
1401
  8
SAPA_PROFIL
 66
     1
 10
0.0
 20
0.0
 30
0.0
 70
     1
  0
VERTEX
  5
1CE3
  8
SAPA_PROFIL
 10
33.24648542549771
 20
-60.499999957005031
 30
0.0
  0
VERTEX
  5
1CE4
  8
SAPA_PROFIL
 10
37.099271829997761
 20
-60.499999957005031
 30
0.0
 42
0.414213562372901
  0
VERTEX
  5
1CE5
  8
SAPA_PROFIL
 10
37.39927182999763
 20
-60.199999957004962
 30
0.0
  0
VERTEX
  5
1CE6
  8
SAPA_PROFIL
 10
37.399271829997687
 20
-59.899999957004781
 30
0.0
  0
VERTEX
  5
1CE7
  8
SAPA_PROFIL
 10
36.475511399294398
 20
-58.299999957005113
 30
0.0
 42
-0.5773502691897976
  0
VERTEX
  5
1CE8
  8
SAPA_PROFIL
 10
36.648716480051156
 20
-57.999999957005031
 30
0.0
  0
VERTEX
  5
1CE9
  8
SAPA_PROFIL
 10
38.034357126106322
 20
-57.999999957005031
 30
0.0
 42
-0.2679491924311222
  0
VERTEX
  5
1CEA
  8
SAPA_PROFIL
 10
38.900382529890742
 20
-58.499999957004889
 30
0.0
  0
VERTEX
  5
1CEB
  8
SAPA_PROFIL
 10
39.910745500972823
 20
-60.249999957005059
 30
0.0
 42
0.2679491924310994
  0
VERTEX
  5
1CEC
  8
SAPA_PROFIL
 10
40.343758202865033
 20
-60.499999957005059
 30
0.0
  0
VERTEX
  5
1CED
  8
SAPA_PROFIL
 10
74.35624178644693
 20
-60.499999957005031
 30
0.0
 42
0.2679491924311005
  0
VERTEX
  5
1CEE
  8
SAPA_PROFIL
 10
74.789254488339139
 20
-60.249999957005059
 30
0.0
  0
VERTEX
  5
1CEF
  8
SAPA_PROFIL
 10
75.799617459421199
 20
-58.49999995700486
 30
0.0
 42
-0.2679491924311199
  0
VERTEX
  5
1CF0
  8
SAPA_PROFIL
 10
76.665642863205633
 20
-57.999999957005031
 30
0.0
  0
VERTEX
  5
1CF1
  8
SAPA_PROFIL
 10
78.05128350926077
 20
-57.999999957005024
 30
0.0
 42
-0.5773502691897738
  0
VERTEX
  5
1CF2
  8
SAPA_PROFIL
 10
78.224488590017557
 20
-58.299999957005099
 30
0.0
  0
VERTEX
  5
1CF3
  8
SAPA_PROFIL
 10
77.300728159314247
 20
-59.899999957004781
 30
0.0
  0
VERTEX
  5
1CF4
  8
SAPA_PROFIL
 10
77.300728159314247
 20
-60.199999957004962
 30
0.0
 42
0.414213562372901
  0
VERTEX
  5
1CF5
  8
SAPA_PROFIL
 10
77.600728159314173
 20
-60.499999957005087
 30
0.0
  0
VERTEX
  5
1CF6
  8
SAPA_PROFIL
 10
81.453514563814238
 20
-60.499999957005031
 30
0.0
 42
-0.2134217652834299
  0
VERTEX
  5
1CF7
  8
SAPA_PROFIL
 10
81.677121361564332
 20
-60.599999957005153
 30
0.0
 42
0.7625858545243327
  0
VERTEX
  5
1CF8
  8
SAPA_PROFIL
 10
82.007447442581366
 20
-60.415420754807677
 30
0.0
  0
VERTEX
  5
1CF9
  8
SAPA_PROFIL
 10
81.949373805592273
 20
-60.22403775481397
 30
0.0
  0
VERTEX
  5
1CFA
  8
SAPA_PROFIL
 10
80.864809358620533
 20
-58.338194062952901
 30
0.0
  0
VERTEX
  5
1CFB
  8
SAPA_PROFIL
 10
80.54305163040226
 20
-58.348755429179889
 30
0.0
 42
-0.5773502691897466
  0
VERTEX
  5
1CFC
  8
SAPA_PROFIL
 10
80.36009789029211
 20
-58.054599128925048
 30
0.0
  0
VERTEX
  5
1CFD
  8
SAPA_PROFIL
 10
80.512231801400844
 20
-57.769916845693402
 30
0.0
 42
-0.221694662643014
  0
VERTEX
  5
1CFE
  8
SAPA_PROFIL
 10
81.053111632877645
 20
-57.364107940538617
 30
0.0
  0
VERTEX
  5
1CFF
  8
SAPA_PROFIL
 10
82.866342103535885
 20
-56.9826613444109
 30
0.0
 42
-0.4769755326981641
  0
VERTEX
  5
1D00
  8
SAPA_PROFIL
 10
83.237998978481784
 20
-57.284914168917368
 30
0.0
  0
VERTEX
  5
1D01
  8
SAPA_PROFIL
 10
83.237915370598131
 20
-58.788015249679368
 30
0.0
  0
VERTEX
  5
1D02
  8
SAPA_PROFIL
 10
83.190069620599644
 20
-58.802533658926478
 30
0.0
 42
0.4142135623730878
  0
VERTEX
  5
1D03
  8
SAPA_PROFIL
 10
82.990105576092247
 20
-59.17671861440229
 30
0.0
  0
VERTEX
  5
1D04
  8
SAPA_PROFIL
 10
83.499999994655937
 20
-60.495951616164099
 30
0.0
  0
VERTEX
  5
1D05
  8
SAPA_PROFIL
 10
83.499999994655951
 20
-71.899999873157469
 30
0.0
 42
0.4142135623730847
  0
VERTEX
  5
1D06
  8
SAPA_PROFIL
 10
83.699999994655954
 20
-72.099999873157472
 30
0.0
  0
VERTEX
  5
1D07
  8
SAPA_PROFIL
 10
85.299999992586535
 20
-72.099999873157458
 30
0.0
 42
-0.4142135623730951
  0
VERTEX
  5
1D08
  8
SAPA_PROFIL
 10
85.499999992586552
 20
-72.299999873157475
 30
0.0
  0
VERTEX
  5
1D09
  8
SAPA_PROFIL
 10
85.499999992586552
 20
-72.799999873157958
 30
0.0
 42
-0.4142135623730951
  0
VERTEX
  5
1D0A
  8
SAPA_PROFIL
 10
84.499999992586908
 20
-73.799999873157532
 30
0.0
  0
VERTEX
  5
1D0B
  8
SAPA_PROFIL
 10
76.999999245512214
 20
-73.799999873157532
 30
0.0
 42
0.4142135623730951
  0
VERTEX
  5
1D0C
  8
SAPA_PROFIL
 10
75.999999992586623
 20
-74.799999126083122
 30
0.0
  0
VERTEX
  5
1D0D
  8
SAPA_PROFIL
 10
75.999999992586481
 20
-80.499999957005031
 30
0.0
 42
-0.4142135623730951
  0
VERTEX
  5
1D0E
  8
SAPA_PROFIL
 10
73.999999992586481
 20
-82.499999957005045
 30
0.0
  0
VERTEX
  5
1D0F
  8
SAPA_PROFIL
 10
9.4999999946560116
 20
-82.499999957005045
 30
0.0
 42
-0.4142139999999795
  0
VERTEX
  5
1D10
  8
SAPA_PROFIL
 10
8.9999999946560116
 20
-81.999999957005031
 30
0.0
  0
VERTEX
  5
1D11
  8
SAPA_PROFIL
 10
8.9999999946560258
 20
-78.299999957005014
 30
0.0
 42
-0.414213999999917
  0
VERTEX
  5
1D12
  8
SAPA_PROFIL
 10
9.2999999946559502
 20
-77.999999957005031
 30
0.0
  0
VERTEX
  5
1D13
  8
SAPA_PROFIL
 10
10.067544994655989
 20
-77.999999957005031
 30
0.0
 42
-0.2896899999999867
  0
VERTEX
  5
1D14
  8
SAPA_PROFIL
 10
10.971052994655951
 20
-78.571427957005028
 30
0.0
 42
-0.5507600000000635
  0
VERTEX
  5
1D15
  8
SAPA_PROFIL
 10
10.699999994656
 20
-78.999999957005031
 30
0.0
  0
VERTEX
  5
1D16
  8
SAPA_PROFIL
 10
10.49999999465601
 20
-78.999999957005031
 30
0.0
 42
0.4142140000000558
  0
VERTEX
  5
1D17
  8
SAPA_PROFIL
 10
10.19999999465594
 20
-79.299999957004999
 30
0.0
  0
VERTEX
  5
1D18
  8
SAPA_PROFIL
 10
10.199999994655981
 20
-80.799999957005014
 30
0.0
 42
0.4142139999999795
  0
VERTEX
  5
1D19
  8
SAPA_PROFIL
 10
10.699999994656
 20
-81.299999957004985
 30
0.0
  0
VERTEX
  5
1D1A
  8
SAPA_PROFIL
 10
13.99999999465604
 20
-81.299999957005014
 30
0.0
 42
0.4142140000000003
  0
VERTEX
  5
1D1B
  8
SAPA_PROFIL
 10
14.499999994656079
 20
-80.799999957005014
 30
0.0
  0
VERTEX
  5
1D1C
  8
SAPA_PROFIL
 10
14.49999999465604
 20
-79.299999957005014
 30
0.0
 42
0.4142140000000143
  0
VERTEX
  5
1D1D
  8
SAPA_PROFIL
 10
14.19999999465597
 20
-78.999999957004988
 30
0.0
  0
VERTEX
  5
1D1E
  8
SAPA_PROFIL
 10
13.99999999465604
 20
-78.999999957005031
 30
0.0
 42
-0.5507599999999967
  0
VERTEX
  5
1D1F
  8
SAPA_PROFIL
 10
13.728947994656041
 20
-78.571427957005014
 30
0.0
 42
-0.2896899999999865
  0
VERTEX
  5
1D20
  8
SAPA_PROFIL
 10
14.63245599465596
 20
-77.999999957005031
 30
0.0
  0
VERTEX
  5
1D21
  8
SAPA_PROFIL
 10
15.62992699465595
 20
-77.999999957005031
 30
0.0
 42
-0.0436609999999814
  0
VERTEX
  5
1D22
  8
SAPA_PROFIL
 10
15.716751994655921
 20
-78.007595957005037
 30
0.0
  0
VERTEX
  5
1D23
  8
SAPA_PROFIL
 10
17.286823994655951
 20
-78.284441957004987
 30
0.0
 42
-0.839099999999982
  0
VERTEX
  5
1D24
  8
SAPA_PROFIL
 10
17.286823994655951
 20
-79.269249957005044
 30
0.0
  0
VERTEX
  5
1D25
  8
SAPA_PROFIL
 10
16.113175994655951
 20
-79.476194957005021
 30
0.0
 42
0.3639700000000465
  0
VERTEX
  5
1D26
  8
SAPA_PROFIL
 10
15.699999994655951
 20
-79.968598957005057
 30
0.0
  0
VERTEX
  5
1D27
  8
SAPA_PROFIL
 10
15.699999994655951
 20
-80.779999957004989
 30
0.0
 42
0.4373279999999983
  0
VERTEX
  5
1D28
  8
SAPA_PROFIL
 10
16.239094994655961
 20
-81.278468957005046
 30
0.0
  0
VERTEX
  5
1D29
  8
SAPA_PROFIL
 10
30.71215326807236
 20
-80.711670470609164
 30
0.0
 42
0.4023941355297885
  0
VERTEX
  5
1D2A
  8
SAPA_PROFIL
 10
30.999999994656079
 20
-80.411916741782846
 30
0.0
  0
VERTEX
  5
1D2B
  8
SAPA_PROFIL
 10
30.999999994656051
 20
-79.61138295700502
 30
0.0
 42
-0.2596810000001162
  0
VERTEX
  5
1D2C
  8
SAPA_PROFIL
 10
31.094692994656061
 20
-79.441351957005025
 30
0.0
  0
VERTEX
  5
1D2D
  8
SAPA_PROFIL
 10
32.542039994655951
 20
-78.544952957005023
 30
0.0
 42
-0.5877030000000189
  0
VERTEX
  5
1D2E
  8
SAPA_PROFIL
 10
32.999999994656051
 20
-78.799999957005042
 30
0.0
  0
VERTEX
  5
1D2F
  8
SAPA_PROFIL
 10
32.999999994656051
 20
-80.199999957005005
 30
0.0
 42
0.4142139999999518
  0
VERTEX
  5
1D30
  8
SAPA_PROFIL
 10
33.299999994655948
 20
-80.499999957005016
 30
0.0
  0
VERTEX
  5
1D31
  8
SAPA_PROFIL
 10
35.699999994655961
 20
-80.499999957005031
 30
0.0
 42
0.4142140000000629
  0
VERTEX
  5
1D32
  8
SAPA_PROFIL
 10
35.999999994656001
 20
-80.199999957005005
 30
0.0
  0
VERTEX
  5
1D33
  8
SAPA_PROFIL
 10
35.999999994656022
 20
-62.799999957005042
 30
0.0
 42
0.4142140000001044
  0
VERTEX
  5
1D34
  8
SAPA_PROFIL
 10
35.699999994655961
 20
-62.499999957004952
 30
0.0
  0
VERTEX
  5
1D35
  8
SAPA_PROFIL
 10
33.299999994655948
 20
-62.499999957005031
 30
0.0
 42
0.4142140000000074
  0
VERTEX
  5
1D36
  8
SAPA_PROFIL
 10
32.999999994656079
 20
-62.799999957005042
 30
0.0
  0
VERTEX
  5
1D37
  8
SAPA_PROFIL
 10
32.999999994656079
 20
-64.199999957005019
 30
0.0
 42
-0.5920054160709848
  0
VERTEX
  5
1D38
  8
SAPA_PROFIL
 10
32.53879665654113
 20
-64.453008469762779
 30
0.0
  0
VERTEX
  5
1D39
  8
SAPA_PROFIL
 10
31.292531000328172
 20
-63.65895543994111
 30
0.0
 42
-0.2562769852931301
  0
VERTEX
  5
1D3A
  8
SAPA_PROFIL
 10
31.199999994656039
 20
-63.490282931042508
 30
0.0
  0
VERTEX
  5
1D3B
  8
SAPA_PROFIL
 10
31.199999994656039
 20
-60.495951616163509
 30
0.0
  0
VERTEX
  5
1D3C
  8
SAPA_PROFIL
 10
31.709894413219459
 20
-59.17671861440229
 30
0.0
 42
0.4142135623730872
  0
VERTEX
  5
1D3D
  8
SAPA_PROFIL
 10
31.509930368712059
 20
-58.802533658926478
 30
0.0
  0
VERTEX
  5
1D3E
  8
SAPA_PROFIL
 10
31.462084618713579
 20
-58.788015249679368
 30
0.0
  0
VERTEX
  5
1D3F
  8
SAPA_PROFIL
 10
31.462001010829951
 20
-57.284914168917368
 30
0.0
 42
-0.4769755326981643
  0
VERTEX
  5
1D40
  8
SAPA_PROFIL
 10
31.833657885775789
 20
-56.9826613444109
 30
0.0
  0
VERTEX
  5
1D41
  8
SAPA_PROFIL
 10
33.646888356434083
 20
-57.364107940538602
 30
0.0
 42
-0.221694662643016
  0
VERTEX
  5
1D42
  8
SAPA_PROFIL
 10
34.187768187910841
 20
-57.769916845693423
 30
0.0
  0
VERTEX
  5
1D43
  8
SAPA_PROFIL
 10
34.339902099019596
 20
-58.054599128925062
 30
0.0
 42
-0.5773502691897466
  0
VERTEX
  5
1D44
  8
SAPA_PROFIL
 10
34.156948358909418
 20
-58.348755429179882
 30
0.0
  0
VERTEX
  5
1D45
  8
SAPA_PROFIL
 10
33.83519063069118
 20
-58.338194062952901
 30
0.0
  0
VERTEX
  5
1D46
  8
SAPA_PROFIL
 10
32.75062618371944
 20
-60.22403775481397
 30
0.0
  0
VERTEX
  5
1D47
  8
SAPA_PROFIL
 10
32.69255254673034
 20
-60.415420754807677
 30
0.0
 42
0.7625858545243331
  0
VERTEX
  5
1D48
  8
SAPA_PROFIL
 10
33.022878627747353
 20
-60.599999957005153
 30
0.0
 42
-0.2134217652834442
  0
SEQEND
  5
1D49
  8
SAPA_PROFIL
  0
POLYLINE
  5
1402
  8
SAPA_PROFIL
 66
     1
 10
0.0
 20
0.0
 30
0.0
 70
     1
  0
VERTEX
  5
1D4A
  8
SAPA_PROFIL
 10
71.999999952586535
 20
-62.599999957005032
 30
0.0
 42
-0.4142135623730951
  0
VERTEX
  5
1D4B
  8
SAPA_PROFIL
 10
71.799999952586504
 20
-62.799999957005042
 30
0.0
  0
VERTEX
  5
1D4C
  8
SAPA_PROFIL
 10
70.199999952586467
 20
-62.799999957005006
 30
0.0
 42
-0.4142135623730951
  0
VERTEX
  5
1D4D
  8
SAPA_PROFIL
 10
69.999999952586464
 20
-62.599999957005032
 30
0.0
  0
VERTEX
  5
1D4E
  8
SAPA_PROFIL
 10
69.999999952586464
 20
-62.299999873131718
 30
0.0
  0
VERTEX
  5
1D4F
  8
SAPA_PROFIL
 10
41.699999994655947
 20
-62.299999873131718
 30
0.0
  0
VERTEX
  5
1D50
  8
SAPA_PROFIL
 10
41.699999994655947
 20
-62.599999957005032
 30
0.0
 42
-0.4142135623730951
  0
VERTEX
  5
1D51
  8
SAPA_PROFIL
 10
41.499999994655958
 20
-62.799999957005042
 30
0.0
  0
VERTEX
  5
1D52
  8
SAPA_PROFIL
 10
39.899999994655943
 20
-62.799999957005006
 30
0.0
 42
-0.4142135623730951
  0
VERTEX
  5
1D53
  8
SAPA_PROFIL
 10
39.699999994655961
 20
-62.599999957005032
 30
0.0
  0
VERTEX
  5
1D54
  8
SAPA_PROFIL
 10
39.699999994655961
 20
-62.299999873131718
 30
0.0
  0
VERTEX
  5
1D55
  8
SAPA_PROFIL
 10
37.999999994655973
 20
-62.299999873131718
 30
0.0
 42
0.4142135623730951
  0
VERTEX
  5
1D56
  8
SAPA_PROFIL
 10
37.699999994655947
 20
-62.599999873131679
 30
0.0
  0
VERTEX
  5
1D57
  8
SAPA_PROFIL
 10
37.699999994655947
 20
-80.199999957005005
 30
0.0
 42
0.4142135623730951
  0
VERTEX
  5
1D58
  8
SAPA_PROFIL
 10
37.999999994655973
 20
-80.499999957005031
 30
0.0
  0
VERTEX
  5
1D59
  8
SAPA_PROFIL
 10
39.699999994655961
 20
-80.499999957005031
 30
0.0
  0
VERTEX
  5
1D5A
  8
SAPA_PROFIL
 10
39.699999994655961
 20
-80.399999957005008
 30
0.0
 42
-0.4142135623730951
  0
VERTEX
  5
1D5B
  8
SAPA_PROFIL
 10
39.899999994655943
 20
-80.199999957005005
 30
0.0
  0
VERTEX
  5
1D5C
  8
SAPA_PROFIL
 10
41.499999994655958
 20
-80.199999957005005
 30
0.0
 42
-0.4142135623730951
  0
VERTEX
  5
1D5D
  8
SAPA_PROFIL
 10
41.699999994655947
 20
-80.399999957005008
 30
0.0
  0
VERTEX
  5
1D5E
  8
SAPA_PROFIL
 10
41.699999994655947
 20
-80.499999957005031
 30
0.0
  0
VERTEX
  5
1D5F
  8
SAPA_PROFIL
 10
69.999999952586464
 20
-80.499999957005031
 30
0.0
  0
VERTEX
  5
1D60
  8
SAPA_PROFIL
 10
69.999999952586464
 20
-80.399999957005008
 30
0.0
 42
-0.4142135623730951
  0
VERTEX
  5
1D61
  8
SAPA_PROFIL
 10
70.199999952586467
 20
-80.199999957005005
 30
0.0
  0
VERTEX
  5
1D62
  8
SAPA_PROFIL
 10
71.799999952586504
 20
-80.199999957005033
 30
0.0
 42
-0.4142135623730951
  0
VERTEX
  5
1D63
  8
SAPA_PROFIL
 10
71.999999952586464
 20
-80.399999957005008
 30
0.0
  0
VERTEX
  5
1D64
  8
SAPA_PROFIL
 10
71.999999952586464
 20
-80.499999957005031
 30
0.0
  0
VERTEX
  5
1D65
  8
SAPA_PROFIL
 10
73.99999999258651
 20
-80.499999957005031
 30
0.0
 42
0.4142135623732158
  0
VERTEX
  5
1D66
  8
SAPA_PROFIL
 10
74.299999992586606
 20
-80.199999957005048
 30
0.0
  0
VERTEX
  5
1D67
  8
SAPA_PROFIL
 10
74.299999992586535
 20
-74.799999126083122
 30
0.0
 42
-0.4142135623730951
  0
VERTEX
  5
1D68
  8
SAPA_PROFIL
 10
76.999999245512214
 20
-72.099999873157458
 30
0.0
  0
VERTEX
  5
1D69
  8
SAPA_PROFIL
 10
81.499999994655965
 20
-72.099999873157458
 30
0.0
 42
0.4142135623730951
  0
VERTEX
  5
1D6A
  8
SAPA_PROFIL
 10
81.799999994655963
 20
-71.799999873157475
 30
0.0
  0
VERTEX
  5
1D6B
  8
SAPA_PROFIL
 10
81.799999994655963
 20
-62.599999873131679
 30
0.0
 42
0.4142135623730951
  0
VERTEX
  5
1D6C
  8
SAPA_PROFIL
 10
81.499999994655951
 20
-62.299999873131718
 30
0.0
  0
VERTEX
  5
1D6D
  8
SAPA_PROFIL
 10
71.999999952586464
 20
-62.299999873131718
 30
0.0
  0
SEQEND
  5
1D6E
  8
SAPA_PROFIL
  0
POLYLINE
  5
1403
  8
SAPA_PROFIL
 62
     4
 66
     1
 10
0.0
 20
0.0
 30
0.0
 70
     1
  0
VERTEX
  5
1D6F
  8
SAPA_PROFIL
 62
     4
 10
34.173242828498992
 20
-57.462221486452989
 30
0.0
 42
0.3137019356282051
  0
VERTEX
  5
1D70
  8
SAPA_PROFIL
 62
     4
 10
33.975617202965573
 20
-57.181271702906677
 30
0.0
  0
VERTEX
  5
1D71
  8
SAPA_PROFIL
 62
     4
 10
31.542787181421549
 20
-56.295793990035492
 30
0.0
 42
-0.3152987888779321
  0
VERTEX
  5
1D72
  8
SAPA_PROFIL
 62
     4
 10
31.279595238751821
 20
-55.919916941719087
 30
0.0
  0
VERTEX
  5
1D73
  8
SAPA_PROFIL
 62
     4
 10
31.27959523875186
 20
-45.499999957004967
 30
0.0
  0
VERTEX
  5
1D74
  8
SAPA_PROFIL
 62
     4
 10
31.279595238751909
 20
-35.080082972286881
 30
0.0
 42
-0.3152987888779395
  0
VERTEX
  5
1D75
  8
SAPA_PROFIL
 62
     4
 10
31.54278718142163
 20
-34.704205923974513
 30
0.0
  0
VERTEX
  5
1D76
  8
SAPA_PROFIL
 62
     4
 10
33.975617202957316
 20
-33.818728211106333
 30
0.0
 42
0.3138982169096283
  0
VERTEX
  5
1D77
  8
SAPA_PROFIL
 62
     4
 10
34.173242828497678
 20
-33.537778427592137
 30
0.0
 42
0.0157923906855865
  0
VERTEX
  5
1D78
  8
SAPA_PROFIL
 62
     4
 10
34.176645958137271
 20
-33.186319895253291
 30
0.0
  0
VERTEX
  5
1D79
  8
SAPA_PROFIL
 62
     4
 10
34.315315715243798
 20
-32.946136830471012
 30
0.0
 42
0.5773502691889272
  0
VERTEX
  5
1D7A
  8
SAPA_PROFIL
 62
     4
 10
34.133450380449013
 20
-32.631136830471291
 30
0.0
  0
VERTEX
  5
1D7B
  8
SAPA_PROFIL
 62
     4
 10
33.866335852236091
 20
-32.631136830471178
 30
0.0
  0
VERTEX
  5
1D7C
  8
SAPA_PROFIL
 62
     4
 10
33.670113786451793
 20
-32.299999957004992
 30
0.0
  0
VERTEX
  5
1D7D
  8
SAPA_PROFIL
 62
     4
 10
33.102469622954352
 20
-31.316679819024468
 30
0.0
 42
-0.1316524975869703
  0
VERTEX
  5
1D7E
  8
SAPA_PROFIL
 62
     4
 10
33.074334957749777
 20
-31.211679819025651
 30
0.0
  0
VERTEX
  5
1D7F
  8
SAPA_PROFIL
 62
     4
 10
33.07433495774967
 20
-30.899999957003079
 30
0.0
 42
-0.4142135623775584
  0
VERTEX
  5
1D80
  8
SAPA_PROFIL
 62
     4
 10
33.474334957749988
 20
-30.499999957005031
 30
0.0
  0
VERTEX
  5
1D81
  8
SAPA_PROFIL
 62
     4
 10
36.874334957749738
 20
-30.499999957004981
 30
0.0
 42
-0.4142135623773978
  0
VERTEX
  5
1D82
  8
SAPA_PROFIL
 62
     4
 10
37.274334957749723
 20
-30.899999957005011
 30
0.0
  0
VERTEX
  5
1D83
  8
SAPA_PROFIL
 62
     4
 10
37.274334957749723
 20
-31.21167981902866
 30
0.0
 42
-0.1316524975869708
  0
VERTEX
  5
1D84
  8
SAPA_PROFIL
 62
     4
 10
37.246200292544479
 20
-31.316679819025609
 30
0.0
  0
VERTEX
  5
1D85
  8
SAPA_PROFIL
 62
     4
 10
36.678480146182437
 20
-32.299999957004992
 30
0.0
  0
VERTEX
  5
1D86
  8
SAPA_PROFIL
 62
     4
 10
36.335104473210322
 20
-32.894744068675863
 30
0.0
 42
0.1316524975869772
  0
VERTEX
  5
1D87
  8
SAPA_PROFIL
 62
     4
 10
36.174334957749807
 20
-33.494744068679239
 30
0.0
  0
VERTEX
  5
1D88
  8
SAPA_PROFIL
 62
     4
 10
36.174334957750027
 20
-34.446608401565669
 30
0.0
 42
-0.3152987888780149
  0
VERTEX
  5
1D89
  8
SAPA_PROFIL
 62
     4
 10
35.516355101075654
 20
-35.386301022337157
 30
0.0
  0
VERTEX
  5
1D8A
  8
SAPA_PROFIL
 62
     4
 10
33.342787181421961
 20
-36.177415047247031
 30
0.0
 42
0.3152987888779391
  0
VERTEX
  5
1D8B
  8
SAPA_PROFIL
 62
     4
 10
33.079595238751828
 20
-36.553292095561552
 30
0.0
  0
VERTEX
  5
1D8C
  8
SAPA_PROFIL
 62
     4
 10
33.079595238751828
 20
-45.499999957004967
 30
0.0
  0
VERTEX
  5
1D8D
  8
SAPA_PROFIL
 62
     4
 10
33.079595238751779
 20
-54.446707818448459
 30
0.0
 42
0.3152987888779318
  0
VERTEX
  5
1D8E
  8
SAPA_PROFIL
 62
     4
 10
33.342787181418203
 20
-54.822584866761623
 30
0.0
  0
VERTEX
  5
1D8F
  8
SAPA_PROFIL
 62
     4
 10
35.516355101075419
 20
-55.613698891672733
 30
0.0
 42
-0.3152987888779361
  0
VERTEX
  5
1D90
  8
SAPA_PROFIL
 62
     4
 10
36.17433495774975
 20
-56.553391512473318
 30
0.0
  0
VERTEX
  5
1D91
  8
SAPA_PROFIL
 62
     4
 10
36.17433495774975
 20
-57.505255845330822
 30
0.0
 42
0.1316524975869766
  0
VERTEX
  5
1D92
  8
SAPA_PROFIL
 62
     4
 10
36.335104473204467
 20
-58.105255845324031
 30
0.0
  0
VERTEX
  5
1D93
  8
SAPA_PROFIL
 62
     4
 10
36.674334957749693
 20
-58.692820280032521
 30
0.0
  0
VERTEX
  5
1D94
  8
SAPA_PROFIL
 62
     4
 10
37.246200292544422
 20
-59.683320094984452
 30
0.0
 42
-0.1316524975869832
  0
VERTEX
  5
1D95
  8
SAPA_PROFIL
 62
     4
 10
37.274334957749659
 20
-59.78832009498754
 30
0.0
  0
VERTEX
  5
1D96
  8
SAPA_PROFIL
 62
     4
 10
37.274334957749723
 20
-60.099999957005053
 30
0.0
 42
-0.414213562371655
  0
VERTEX
  5
1D97
  8
SAPA_PROFIL
 62
     4
 10
36.874334957745759
 20
-60.499999957005031
 30
0.0
  0
VERTEX
  5
1D98
  8
SAPA_PROFIL
 62
     4
 10
33.474334957749697
 20
-60.499999957005031
 30
0.0
 42
-0.4142135623716633
  0
VERTEX
  5
1D99
  8
SAPA_PROFIL
 62
     4
 10
33.074334957749727
 20
-60.099999957003007
 30
0.0
  0
VERTEX
  5
1D9A
  8
SAPA_PROFIL
 62
     4
 10
33.074334957749727
 20
-59.788320094984357
 30
0.0
 42
-0.1316524975869709
  0
VERTEX
  5
1D9B
  8
SAPA_PROFIL
 62
     4
 10
33.102469622955311
 20
-59.68332009498377
 30
0.0
  0
VERTEX
  5
1D9C
  8
SAPA_PROFIL
 62
     4
 10
33.866335852236091
 20
-58.36886308353877
 30
0.0
  0
VERTEX
  5
1D9D
  8
SAPA_PROFIL
 62
     4
 10
34.133450380449013
 20
-58.368863083538649
 30
0.0
 42
0.5773502691889269
  0
VERTEX
  5
1D9E
  8
SAPA_PROFIL
 62
     4
 10
34.315315715243798
 20
-58.053863083538943
 30
0.0
  0
VERTEX
  5
1D9F
  8
SAPA_PROFIL
 62
     4
 10
34.176645958137271
 20
-57.813680018756649
 30
0.0
 42
0.015792390685586
  0
SEQEND
  5
1DA0
  8
SAPA_PROFIL
 62
     4
  0
POLYLINE
  5
1404
  8
SAPA_PROFIL
 62
     4
 66
     1
 10
0.0
 20
0.0
 30
0.1
 70
     1
1001
RC_PROFILE
1002
{
1000
Contour
1002
}
  0
VERTEX
  5
1DA1
  8
SAPA_PROFIL
 62
     4
 10
80.386140604755724
 20
-32.956136830470797
 30
0.1
 42
-0.5773502691895099
  0
VERTEX
  5
1DA2
  8
SAPA_PROFIL
 62
     4
 10
80.568005939550403
 20
-32.64113683047109
 30
0.1
  0
VERTEX
  5
1DA3
  8
SAPA_PROFIL
 62
     4
 10
80.835120467763431
 20
-32.64113683047109
 30
0.1
  0
VERTEX
  5
1DA4
  8
SAPA_PROFIL
 62
     4
 10
81.627121362231819
 20
-31.259999957054529
 30
0.1
  0
VERTEX
  5
1DA5
  8
SAPA_PROFIL
 62
     4
 10
81.627121362240473
 20
-30.899999957054181
 30
0.1
 42
0.4142135623731464
  0
VERTEX
  5
1DA6
  8
SAPA_PROFIL
 62
     4
 10
81.227121362249804
 20
-30.499999957044651
 30
0.1
  0
VERTEX
  5
1DA7
  8
SAPA_PROFIL
 62
     4
 10
77.827121362249841
 20
-30.499999956964899
 30
0.1
 42
0.4142135623728774
  0
VERTEX
  5
1DA8
  8
SAPA_PROFIL
 62
     4
 10
77.427121362240314
 20
-30.89999995695516
 30
0.1
  0
VERTEX
  5
1DA9
  8
SAPA_PROFIL
 62
     4
 10
77.427121362231787
 20
-31.259999956955461
 30
0.1
  0
VERTEX
  5
1DAA
  8
SAPA_PROFIL
 62
     4
 10
78.368109271145158
 20
-32.900948253068087
 30
0.1
 42
-0.130905717258469
  0
VERTEX
  5
1DAB
  8
SAPA_PROFIL
 62
     4
 10
78.527121362179287
 20
-33.497893956981358
 30
0.1
  0
VERTEX
  5
1DAC
  8
SAPA_PROFIL
 62
     4
 10
78.527121361619265
 20
-57.502069295260839
 30
0.1
 42
-0.1309134860018379
  0
VERTEX
  5
1DAD
  8
SAPA_PROFIL
 62
     4
 10
78.368109271145158
 20
-58.099051660859089
 30
0.1
  0
VERTEX
  5
1DAE
  8
SAPA_PROFIL
 62
     4
 10
77.427121362231787
 20
-59.739999956971502
 30
0.1
  0
VERTEX
  5
1DAF
  8
SAPA_PROFIL
 62
     4
 10
77.427121362240314
 20
-60.099999956971907
 30
0.1
 42
0.4142135623729619
  0
VERTEX
  5
1DB0
  8
SAPA_PROFIL
 62
     4
 10
77.827121362249841
 20
-60.499999956962291
 30
0.1
  0
VERTEX
  5
1DB1
  8
SAPA_PROFIL
 62
     4
 10
81.227121362249804
 20
-60.499999956882533
 30
0.1
 42
0.4142135623730782
  0
VERTEX
  5
1DB2
  8
SAPA_PROFIL
 62
     4
 10
81.627121362240345
 20
-60.099999956872942
 30
0.1
  0
VERTEX
  5
1DB3
  8
SAPA_PROFIL
 62
     4
 10
81.627121362231819
 20
-59.739999956872708
 30
0.1
  0
VERTEX
  5
1DB4
  8
SAPA_PROFIL
 62
     4
 10
80.835120467763431
 20
-58.358863083455923
 30
0.1
  0
VERTEX
  5
1DB5
  8
SAPA_PROFIL
 62
     4
 10
80.568005939550403
 20
-58.358863083456043
 30
0.1
 42
-0.5773502691896441
  0
VERTEX
  5
1DB6
  8
SAPA_PROFIL
 62
     4
 10
80.386140604755838
 20
-58.04386308345633
 30
0.1
  0
VERTEX
  5
1DB7
  8
SAPA_PROFIL
 62
     4
 10
80.527121362179287
 20
-57.799677248708427
 30
0.1
  0
VERTEX
  5
1DB8
  8
SAPA_PROFIL
 62
     4
 10
80.527121362179287
 20
-33.200322665218643
 30
0.1
  0
SEQEND
  5
1DB9
  8
SAPA_PROFIL
 62
     4
  0
POLYLINE
  5
1405
  8
SAPA_PROFIL
  6
CONTINUOUS
 62
     4
 66
     1
 10
0.0
 20
0.0
 30
0.0
 70
     1
  0
VERTEX
  5
1DBA
  8
SAPA_PROFIL
  6
CONTINUOUS
 62
     4
 10
80.568005939550403
 20
-32.641136830471083
 30
0.0
  0
VERTEX
  5
1DBB
  8
SAPA_PROFIL
  6
CONTINUOUS
 62
     4
 10
80.835120467763431
 20
-32.641136830471083
 30
0.0
  0
VERTEX
  5
1DBC
  8
SAPA_PROFIL
  6
CONTINUOUS
 62
     4
 10
81.627121362231819
 20
-31.259999957054522
 30
0.0
  0
VERTEX
  5
1DBD
  8
SAPA_PROFIL
  6
CONTINUOUS
 62
     4
 10
81.627121362240473
 20
-30.89999995705417
 30
0.0
 42
0.4142135623731473
  0
VERTEX
  5
1DBE
  8
SAPA_PROFIL
  6
CONTINUOUS
 62
     4
 10
81.227121362249804
 20
-30.49999995704464
 30
0.0
  0
VERTEX
  5
1DBF
  8
SAPA_PROFIL
  6
CONTINUOUS
 62
     4
 10
77.827121362249841
 20
-30.499999956964889
 30
0.0
 42
0.4142135623728817
  0
VERTEX
  5
1DC0
  8
SAPA_PROFIL
  6
CONTINUOUS
 62
     4
 10
77.427121362240314
 20
-30.89999995695516
 30
0.0
  0
VERTEX
  5
1DC1
  8
SAPA_PROFIL
  6
CONTINUOUS
 62
     4
 10
77.427121362231787
 20
-31.259999956955461
 30
0.0
  0
VERTEX
  5
1DC2
  8
SAPA_PROFIL
  6
CONTINUOUS
 62
     4
 10
78.368109271145158
 20
-32.900948253068087
 30
0.0
 42
-0.1309057172584687
  0
VERTEX
  5
1DC3
  8
SAPA_PROFIL
  6
CONTINUOUS
 62
     4
 10
78.527121362179287
 20
-33.497893956981351
 30
0.0
  0
VERTEX
  5
1DC4
  8
SAPA_PROFIL
  6
CONTINUOUS
 62
     4
 10
78.527121361619265
 20
-57.502069295260839
 30
0.0
 42
-0.1309134860018382
  0
VERTEX
  5
1DC5
  8
SAPA_PROFIL
  6
CONTINUOUS
 62
     4
 10
78.368109271145158
 20
-58.099051660859089
 30
0.0
  0
VERTEX
  5
1DC6
  8
SAPA_PROFIL
  6
CONTINUOUS
 62
     4
 10
77.427121362231787
 20
-59.739999956971502
 30
0.0
  0
VERTEX
  5
1DC7
  8
SAPA_PROFIL
  6
CONTINUOUS
 62
     4
 10
77.427121362240314
 20
-60.099999956971907
 30
0.0
 42
0.4142135623729598
  0
VERTEX
  5
1DC8
  8
SAPA_PROFIL
  6
CONTINUOUS
 62
     4
 10
77.827121362249841
 20
-60.499999956962291
 30
0.0
  0
VERTEX
  5
1DC9
  8
SAPA_PROFIL
  6
CONTINUOUS
 62
     4
 10
81.227121362249804
 20
-60.499999956882533
 30
0.0
 42
0.4142135623730795
  0
VERTEX
  5
1DCA
  8
SAPA_PROFIL
  6
CONTINUOUS
 62
     4
 10
81.627121362240345
 20
-60.099999956872942
 30
0.0
  0
VERTEX
  5
1DCB
  8
SAPA_PROFIL
  6
CONTINUOUS
 62
     4
 10
81.627121362231819
 20
-59.739999956872708
 30
0.0
  0
VERTEX
  5
1DCC
  8
SAPA_PROFIL
  6
CONTINUOUS
 62
     4
 10
80.835120467763431
 20
-58.358863083455923
 30
0.0
  0
VERTEX
  5
1DCD
  8
SAPA_PROFIL
  6
CONTINUOUS
 62
     4
 10
80.568005939550403
 20
-58.358863083456043
 30
0.0
 42
-0.5773502691896458
  0
VERTEX
  5
1DCE
  8
SAPA_PROFIL
  6
CONTINUOUS
 62
     4
 10
80.386140604755838
 20
-58.04386308345633
 30
0.0
  0
VERTEX
  5
1DCF
  8
SAPA_PROFIL
  6
CONTINUOUS
 62
     4
 10
80.527121362179287
 20
-57.799677248708427
 30
0.0
  0
VERTEX
  5
1DD0
  8
SAPA_PROFIL
  6
CONTINUOUS
 62
     4
 10
80.527121362179287
 20
-33.200322665218629
 30
0.0
  0
VERTEX
  5
1DD1
  8
SAPA_PROFIL
  6
CONTINUOUS
 62
     4
 10
80.386140604755724
 20
-32.95613683047079
 30
0.0
 42
-0.5773502691895091
  0
SEQEND
  5
1DD2
  8
SAPA_PROFIL
  6
CONTINUOUS
 62
     4
  0
POLYLINE
  5
1406
  8
SAPA_PROFIL
 62
     4
 66
     1
 10
0.0
 20
0.0
 30
0.0
 70
     1
  0
VERTEX
  5
1DD3
  8
SAPA_PROFIL
 62
     4
 10
14.89999999555765
 20
-68.702943511206044
 30
0.0
  0
VERTEX
  5
1DD4
  8
SAPA_PROFIL
 62
     4
 10
14.899999995555831
 20
-72.897056060902955
 30
0.0
 42
-0.1989123673786592
  0
VERTEX
  5
1DD5
  8
SAPA_PROFIL
 62
     4
 10
14.81213202991237
 20
-73.109188095258773
 30
0.0
  0
VERTEX
  5
1DD6
  8
SAPA_PROFIL
 62
     4
 10
12.58786796120147
 20
-75.333452163969682
 30
0.0
 42
0.1989123673785438
  0
VERTEX
  5
1DD7
  8
SAPA_PROFIL
 62
     4
 10
12.49999999555801
 20
-75.5455841983255
 30
0.0
  0
VERTEX
  5
1DD8
  8
SAPA_PROFIL
 62
     4
 10
12.499999995559831
 20
-75.999999786053863
 30
0.0
 42
0.4142135623730951
  0
VERTEX
  5
1DD9
  8
SAPA_PROFIL
 62
     4
 10
12.7999999955591
 20
-76.299999786054045
 30
0.0
  0
VERTEX
  5
1DDA
  8
SAPA_PROFIL
 62
     4
 10
24.699999995558059
 20
-76.299999786054045
 30
0.0
 42
-0.4142135623730951
  0
VERTEX
  5
1DDB
  8
SAPA_PROFIL
 62
     4
 10
25.199999995558059
 20
-76.799999786054045
 30
0.0
  0
VERTEX
  5
1DDC
  8
SAPA_PROFIL
 62
     4
 10
25.199999995558059
 20
-78.499999786053863
 30
0.0
 42
0.4142135623739832
  0
VERTEX
  5
1DDD
  8
SAPA_PROFIL
 62
     4
 10
25.499999995557332
 20
-78.799999786054045
 30
0.0
  0
VERTEX
  5
1DDE
  8
SAPA_PROFIL
 62
     4
 10
29.199999995556919
 20
-78.799999786054045
 30
0.0
 42
0.414213562375759
  0
VERTEX
  5
1DDF
  8
SAPA_PROFIL
 62
     4
 10
29.499999995558021
 20
-78.499999786053863
 30
0.0
  0
VERTEX
  5
1DE0
  8
SAPA_PROFIL
 62
     4
 10
29.499999995556198
 20
-62.006576655650854
 30
0.0
 42
0.4142135623735391
  0
VERTEX
  5
1DE1
  8
SAPA_PROFIL
 62
     4
 10
29.199999995556919
 20
-61.706576655651119
 30
0.0
  0
VERTEX
  5
1DE2
  8
SAPA_PROFIL
 62
     4
 10
12.7999999955591
 20
-61.706576655651119
 30
0.0
 42
0.4142135623726511
  0
VERTEX
  5
1DE3
  8
SAPA_PROFIL
 62
     4
 10
12.49999999555801
 20
-62.006576655650854
 30
0.0
  0
VERTEX
  5
1DE4
  8
SAPA_PROFIL
 62
     4
 10
12.49999999555801
 20
-66.05441537378168
 30
0.0
 42
0.1989123673785438
  0
VERTEX
  5
1DE5
  8
SAPA_PROFIL
 62
     4
 10
12.58786796120147
 20
-66.266547408137498
 30
0.0
  0
VERTEX
  5
1DE6
  8
SAPA_PROFIL
 62
     4
 10
14.81213202991419
 20
-68.490811476850226
 30
0.0
 42
-0.1989123673798886
  0
SEQEND
  5
1DE7
  8
SAPA_PROFIL
 62
     4
  0
POLYLINE
  5
1407
  8
SAPA_PROFIL
 62
     4
 66
     1
 10
0.0
 20
0.0
 30
0.0
 70
     1
  0
VERTEX
  5
1DE8
  8
SAPA_PROFIL
 62
     4
 10
29.499999995558021
 20
-47.299999786054272
 30
0.0
  0
VERTEX
  5
1DE9
  8
SAPA_PROFIL
 62
     4
 10
29.499999995556198
 20
-60.106576655650763
 30
0.0
 42
-0.4142135623732061
  0
VERTEX
  5
1DEA
  8
SAPA_PROFIL
 62
     4
 10
29.199999995556919
 20
-60.406576655650937
 30
0.0
  0
VERTEX
  5
1DEB
  8
SAPA_PROFIL
 62
     4
 10
12.7999999955591
 20
-60.406576655650937
 30
0.0
 42
-0.4142135623730951
  0
VERTEX
  5
1DEC
  8
SAPA_PROFIL
 62
     4
 10
12.49999999555801
 20
-60.106576655650763
 30
0.0
  0
VERTEX
  5
1DED
  8
SAPA_PROFIL
 62
     4
 10
12.499999995559831
 20
-47.299999786054272
 30
0.0
 42
-0.4142135623731173
  0
VERTEX
  5
1DEE
  8
SAPA_PROFIL
 62
     4
 10
12.79999999556092
 20
-46.99999978605409
 30
0.0
  0
VERTEX
  5
1DEF
  8
SAPA_PROFIL
 62
     4
 10
29.199999995558741
 20
-46.99999978605409
 30
0.0
 42
-0.4142135623730951
  0
SEQEND
  5
1DF0
  8
SAPA_PROFIL
 62
     4
  0
POLYLINE
  5
1408
  8
SAPA_PROFIL
 62
     4
 66
     1
 10
0.0
 20
0.0
 30
0.0
 70
     1
  0
VERTEX
  5
1DF1
  8
SAPA_PROFIL
 62
     4
 10
10.999999995559831
 20
-45.99999978605409
 30
0.0
  0
VERTEX
  5
1DF2
  8
SAPA_PROFIL
 62
     4
 10
10.99999999555801
 20
-66.675735717341681
 30
0.0
 42
0.1989123673799843
  0
VERTEX
  5
1DF3
  8
SAPA_PROFIL
 62
     4
 10
11.08786796120329
 20
-66.887867751698408
 30
0.0
  0
VERTEX
  5
1DF4
  8
SAPA_PROFIL
 62
     4
 10
13.31213202991419
 20
-69.112131820409303
 30
0.0
 42
-0.1989123673811184
  0
VERTEX
  5
1DF5
  8
SAPA_PROFIL
 62
     4
 10
13.39999999555765
 20
-69.324263854765135
 30
0.0
  0
VERTEX
  5
1DF6
  8
SAPA_PROFIL
 62
     4
 10
13.399999995555831
 20
-72.275735717342954
 30
0.0
 42
-0.1989123673785438
  0
VERTEX
  5
1DF7
  8
SAPA_PROFIL
 62
     4
 10
13.31213202991238
 20
-72.487867751698772
 30
0.0
  0
VERTEX
  5
1DF8
  8
SAPA_PROFIL
 62
     4
 10
11.087867961201461
 20
-74.71213182041059
 30
0.0
 42
0.1989123673785438
  0
VERTEX
  5
1DF9
  8
SAPA_PROFIL
 62
     4
 10
10.99999999555801
 20
-74.924263854766394
 30
0.0
  0
VERTEX
  5
1DFA
  8
SAPA_PROFIL
 62
     4
 10
10.999999995559831
 20
-77.299999786054045
 30
0.0
 42
0.4142135623730951
  0
VERTEX
  5
1DFB
  8
SAPA_PROFIL
 62
     4
 10
11.499999995559831
 20
-77.799999786054045
 30
0.0
  0
VERTEX
  5
1DFC
  8
SAPA_PROFIL
 62
     4
 10
23.39999999555879
 20
-77.799999786054045
 30
0.0
 42
-0.414213562373761
  0
VERTEX
  5
1DFD
  8
SAPA_PROFIL
 62
     4
 10
23.699999995558059
 20
-78.099999786054227
 30
0.0
  0
VERTEX
  5
1DFE
  8
SAPA_PROFIL
 62
     4
 10
23.699999995558059
 20
-79.799999786054045
 30
0.0
 42
0.4142135623730951
  0
VERTEX
  5
1DFF
  8
SAPA_PROFIL
 62
     4
 10
24.199999995558059
 20
-80.299999786054045
 30
0.0
  0
VERTEX
  5
1E00
  8
SAPA_PROFIL
 62
     4
 10
30.49999999555801
 20
-80.299999786054045
 30
0.0
 42
0.4142135623730951
  0
VERTEX
  5
1E01
  8
SAPA_PROFIL
 62
     4
 10
30.999999995558021
 20
-79.799999786054045
 30
0.0
  0
VERTEX
  5
1E02
  8
SAPA_PROFIL
 62
     4
 10
30.999999995556198
 20
-78.799999786053704
 30
0.0
 42
-0.414213562373539
  0
VERTEX
  5
1E03
  8
SAPA_PROFIL
 62
     4
 10
31.299999995555471
 20
-78.499999786053735
 30
0.0
  0
VERTEX
  5
1E04
  8
SAPA_PROFIL
 62
     4
 10
32.89999999555765
 20
-78.499999786054204
 30
0.0
 42
-0.4142135623735391
  0
VERTEX
  5
1E05
  8
SAPA_PROFIL
 62
     4
 10
33.199999995556929
 20
-78.799999786053931
 30
0.0
  0
VERTEX
  5
1E06
  8
SAPA_PROFIL
 62
     4
 10
33.199999995555103
 20
-79.099999786053544
 30
0.0
 42
0.592337729603611
  0
VERTEX
  5
1E07
  8
SAPA_PROFIL
 62
     4
 10
33.661452266296678
 20
-79.352849868657799
 30
0.0
  0
VERTEX
  5
1E08
  8
SAPA_PROFIL
 62
     4
 10
35.361452266297412
 20
-78.075790600360946
 30
0.0
 42
0.2560149538738706
  0
VERTEX
  5
1E09
  8
SAPA_PROFIL
 62
     4
 10
35.499999995558007
 20
-77.822940517755782
 30
0.0
  0
VERTEX
  5
1E0A
  8
SAPA_PROFIL
 62
     4
 10
35.499999995558007
 20
-77.599999786053203
 30
0.0
 42
0.4142135623733169
  0
VERTEX
  5
1E0B
  8
SAPA_PROFIL
 62
     4
 10
35.199999995558741
 20
-77.299999786053931
 30
0.0
  0
VERTEX
  5
1E0C
  8
SAPA_PROFIL
 62
     4
 10
31.299999995555471
 20
-77.299999786053931
 30
0.0
 42
-0.414213562373539
  0
VERTEX
  5
1E0D
  8
SAPA_PROFIL
 62
     4
 10
30.999999995556198
 20
-76.999999786053976
 30
0.0
  0
VERTEX
  5
1E0E
  8
SAPA_PROFIL
 62
     4
 10
30.999999995558021
 20
-65.999999786053735
 30
0.0
 42
-0.414213562373539
  0
VERTEX
  5
1E0F
  8
SAPA_PROFIL
 62
     4
 10
31.29999999555729
 20
-65.699999786053795
 30
0.0
  0
VERTEX
  5
1E10
  8
SAPA_PROFIL
 62
     4
 10
35.199999995558741
 20
-65.699999786053795
 30
0.0
 42
0.4142135623730951
  0
VERTEX
  5
1E11
  8
SAPA_PROFIL
 62
     4
 10
35.499999995558007
 20
-65.399999786054522
 30
0.0
  0
VERTEX
  5
1E12
  8
SAPA_PROFIL
 62
     4
 10
35.499999995558007
 20
-65.177059054351943
 30
0.0
 42
0.2560149538738705
  0
VERTEX
  5
1E13
  8
SAPA_PROFIL
 62
     4
 10
35.361452266297412
 20
-64.924208971746779
 30
0.0
  0
VERTEX
  5
1E14
  8
SAPA_PROFIL
 62
     4
 10
33.661452266296678
 20
-63.647149703449927
 30
0.0
 42
0.592337729603611
  0
VERTEX
  5
1E15
  8
SAPA_PROFIL
 62
     4
 10
33.199999995555103
 20
-63.899999786054181
 30
0.0
  0
VERTEX
  5
1E16
  8
SAPA_PROFIL
 62
     4
 10
33.199999995556929
 20
-64.199999786053795
 30
0.0
 42
-0.4142135623735391
  0
VERTEX
  5
1E17
  8
SAPA_PROFIL
 62
     4
 10
32.89999999555765
 20
-64.499999786053522
 30
0.0
  0
VERTEX
  5
1E18
  8
SAPA_PROFIL
 62
     4
 10
31.29999999555729
 20
-64.499999786053976
 30
0.0
 42
-0.414213562373539
  0
VERTEX
  5
1E19
  8
SAPA_PROFIL
 62
     4
 10
30.999999995558021
 20
-64.199999786054022
 30
0.0
  0
VERTEX
  5
1E1A
  8
SAPA_PROFIL
 62
     4
 10
30.999999995561652
 20
-45.99999978605409
 30
0.0
 42
0.414213562373126
  0
VERTEX
  5
1E1B
  8
SAPA_PROFIL
 62
     4
 10
30.499999995561652
 20
-45.499999786054083
 30
0.0
  0
VERTEX
  5
1E1C
  8
SAPA_PROFIL
 62
     4
 10
11.499999995559831
 20
-45.499999786054083
 30
0.0
 42
0.4142135623730951
  0
SEQEND
  5
1E1D
  8
SAPA_PROFIL
 62
     4
  0
POLYLINE
  5
1409
  8
SAPA_PROFIL
 66
     1
 10
0.0
 20
0.0
 30
0.0
 70
     1
  0
VERTEX
  5
1E1E
  8
SAPA_PROFIL
 10
-20.85000000000036
 20
-86.499999999010456
 30
0.0
 42
-0.1989123673797145
  0
VERTEX
  5
1E1F
  8
SAPA_PROFIL
 10
-20.637867965644091
 20
-86.587867964654379
 30
0.0
  0
VERTEX
  5
1E20
  8
SAPA_PROFIL
 10
-20.237867965644451
 20
-86.987867964654455
 30
0.0
 42
-0.668178637919182
  0
VERTEX
  5
1E21
  8
SAPA_PROFIL
 10
-20.450000000000269
 20
-87.499999999010484
 30
0.0
  0
VERTEX
  5
1E22
  8
SAPA_PROFIL
 10
-21.300000000000178
 20
-87.499999999010484
 30
0.0
 42
0.4142135623730284
  0
VERTEX
  5
1E23
  8
SAPA_PROFIL
 10
-21.800000000000178
 20
-87.999999999010456
 30
0.0
  0
VERTEX
  5
1E24
  8
SAPA_PROFIL
 10
-21.800000000000178
 20
-88.390808928730607
 30
0.0
 42
0.17632698070845
  0
VERTEX
  5
1E25
  8
SAPA_PROFIL
 10
-21.729813332935919
 20
-88.583645211636394
 30
0.0
  0
VERTEX
  5
1E26
  8
SAPA_PROFIL
 10
-20.211721773135199
 20
-90.392836281916061
 30
0.0
 42
0.2216946626429421
  0
VERTEX
  5
1E27
  8
SAPA_PROFIL
 10
-19.98190844019928
 20
-90.499999999010015
 30
0.0
  0
VERTEX
  5
1E28
  8
SAPA_PROFIL
 10
-16.450000000000269
 20
-90.499999999010456
 30
0.0
 42
0.4142135623730951
  0
VERTEX
  5
1E29
  8
SAPA_PROFIL
 10
-16.150000000000091
 20
-90.199999999010288
 30
0.0
  0
VERTEX
  5
1E2A
  8
SAPA_PROFIL
 10
-16.150000000000539
 20
-87.799999999010197
 30
0.0
 42
0.4142135623730951
  0
VERTEX
  5
1E2B
  8
SAPA_PROFIL
 10
-16.450000000000269
 20
-87.499999999010484
 30
0.0
  0
VERTEX
  5
1E2C
  8
SAPA_PROFIL
 10
-16.85000000000036
 20
-87.499999999010484
 30
0.0
 42
-0.6681786379193188
  0
VERTEX
  5
1E2D
  8
SAPA_PROFIL
 10
-17.062132034356178
 20
-86.987867964654455
 30
0.0
  0
VERTEX
  5
1E2E
  8
SAPA_PROFIL
 10
-16.662132034356091
 20
-86.587867964654379
 30
0.0
 42
-0.198912367379658
  0
VERTEX
  5
1E2F
  8
SAPA_PROFIL
 10
-16.450000000000269
 20
-86.499999999010456
 30
0.0
  0
VERTEX
  5
1E30
  8
SAPA_PROFIL
 10
-14.65000000000054
 20
-86.499999999010015
 30
0.0
 42
-0.4142135623731284
  0
VERTEX
  5
1E31
  8
SAPA_PROFIL
 10
-14.15000000000054
 20
-86.999999999010015
 30
0.0
  0
VERTEX
  5
1E32
  8
SAPA_PROFIL
 10
-14.150000000000089
 20
-91.499999999010925
 30
0.0
 42
-0.4142135623730951
  0
VERTEX
  5
1E33
  8
SAPA_PROFIL
 10
-14.650000000000089
 20
-91.999999999010925
 30
0.0
  0
VERTEX
  5
1E34
  8
SAPA_PROFIL
 10
-18.650000000000091
 20
-91.999999999010015
 30
0.0
 42
0.4142135623729619
  0
VERTEX
  5
1E35
  8
SAPA_PROFIL
 10
-19.150000000000091
 20
-92.499999999010015
 30
0.0
  0
VERTEX
  5
1E36
  8
SAPA_PROFIL
 10
-19.150000000000091
 20
-94.516956646213657
 30
0.0
 42
0.1763269807084973
  0
VERTEX
  5
1E37
  8
SAPA_PROFIL
 10
-19.033022221559349
 20
-94.838350451057053
 30
0.0
  0
VERTEX
  5
1E38
  8
SAPA_PROFIL
 10
-16.949501460030199
 20
-97.321393803853425
 30
0.0
 42
0.2216946626428772
  0
VERTEX
  5
1E39
  8
SAPA_PROFIL
 10
-16.566479238470951
 20
-97.499999999010015
 30
0.0
  0
VERTEX
  5
1E3A
  8
SAPA_PROFIL
 10
-10.56853372839123
 20
-97.499999999010484
 30
0.0
 42
0.315298788878991
  0
VERTEX
  5
1E3B
  8
SAPA_PROFIL
 10
-10.098687417998461
 20
-97.171010070673219
 30
0.0
  0
VERTEX
  5
1E3C
  8
SAPA_PROFIL
 10
-8.6380638705318233
 20
-93.157979855684516
 30
0.0
 42
-0.3152987888789731
  0
VERTEX
  5
1E3D
  8
SAPA_PROFIL
 10
-7.6983712497458319
 20
-92.499999999010015
 30
0.0
  0
VERTEX
  5
1E3E
  8
SAPA_PROFIL
 10
-6.6500000000000901
 20
-92.499999999010015
 30
0.0
 42
0.4142135623732616
  0
VERTEX
  5
1E3F
  8
SAPA_PROFIL
 10
-6.3499999999999091
 20
-92.199999999010288
 30
0.0
  0
VERTEX
  5
1E40
  8
SAPA_PROFIL
 10
-6.3499999999999091
 20
-91.799999999010197
 30
0.0
 42
-0.4142135623731506
  0
VERTEX
  5
1E41
  8
SAPA_PROFIL
 10
-6.050000000000181
 20
-91.499999999010015
 30
0.0
  0
VERTEX
  5
1E42
  8
SAPA_PROFIL
 10
-5.6500000000000901
 20
-91.499999999010015
 30
0.0
 42
-0.4142135623731505
  0
VERTEX
  5
1E43
  8
SAPA_PROFIL
 10
-5.3499999999999091
 20
-91.799999999010197
 30
0.0
  0
VERTEX
  5
1E44
  8
SAPA_PROFIL
 10
-5.3499999999999091
 20
-92.199999999010288
 30
0.0
 42
0.4142135623732061
  0
VERTEX
  5
1E45
  8
SAPA_PROFIL
 10
-5.050000000000181
 20
-92.499999999010015
 30
0.0
  0
VERTEX
  5
1E46
  8
SAPA_PROFIL
 10
-0.6242640687119092
 20
-92.499999999010015
 30
0.0
 42
-0.198912367379577
  0
VERTEX
  5
1E47
  8
SAPA_PROFIL
 10
-0.4121320343560911
 20
-92.587867964654379
 30
0.0
  0
VERTEX
  5
1E48
  8
SAPA_PROFIL
 10
0.0
 20
-92.999999999010015
 30
0.0
  0
VERTEX
  5
1E49
  8
SAPA_PROFIL
 10
0.4121320343560911
 20
-92.587867964654379
 30
0.0
 42
-0.1989123673795771
  0
VERTEX
  5
1E4A
  8
SAPA_PROFIL
 10
0.6242640687119092
 20
-92.499999999010015
 30
0.0
  0
VERTEX
  5
1E4B
  8
SAPA_PROFIL
 10
5.0499999999997272
 20
-92.499999999010015
 30
0.0
 42
0.4142135623732059
  0
VERTEX
  5
1E4C
  8
SAPA_PROFIL
 10
5.3499999999999091
 20
-92.199999999010288
 30
0.0
  0
VERTEX
  5
1E4D
  8
SAPA_PROFIL
 10
5.3499999999999091
 20
-91.799999999010197
 30
0.0
 42
-0.4142135623731506
  0
VERTEX
  5
1E4E
  8
SAPA_PROFIL
 10
5.6500000000000901
 20
-91.499999999010015
 30
0.0
  0
VERTEX
  5
1E4F
  8
SAPA_PROFIL
 10
6.0499999999997272
 20
-91.499999999010015
 30
0.0
 42
-0.4142135623731505
  0
VERTEX
  5
1E50
  8
SAPA_PROFIL
 10
6.3499999999999091
 20
-91.799999999010197
 30
0.0
  0
VERTEX
  5
1E51
  8
SAPA_PROFIL
 10
6.3499999999999091
 20
-92.199999999010288
 30
0.0
 42
0.4142135623732615
  0
VERTEX
  5
1E52
  8
SAPA_PROFIL
 10
6.6500000000000901
 20
-92.499999999010015
 30
0.0
  0
VERTEX
  5
1E53
  8
SAPA_PROFIL
 10
7.698371249745378
 20
-92.499999999010015
 30
0.0
 42
-0.3152987888789731
  0
VERTEX
  5
1E54
  8
SAPA_PROFIL
 10
8.6380638705313686
 20
-93.157979855684516
 30
0.0
  0
VERTEX
  5
1E55
  8
SAPA_PROFIL
 10
10.09868741799801
 20
-97.171010070673219
 30
0.0
 42
0.315298788878991
  0
VERTEX
  5
1E56
  8
SAPA_PROFIL
 10
10.56853372839123
 20
-97.499999999010484
 30
0.0
  0
VERTEX
  5
1E57
  8
SAPA_PROFIL
 10
16.566479238470489
 20
-97.499999999010015
 30
0.0
 42
0.2216946626428772
  0
VERTEX
  5
1E58
  8
SAPA_PROFIL
 10
16.949501460029751
 20
-97.321393803853425
 30
0.0
  0
VERTEX
  5
1E59
  8
SAPA_PROFIL
 10
19.033022221559349
 20
-94.838350451057053
 30
0.0
 42
0.1763269807084973
  0
VERTEX
  5
1E5A
  8
SAPA_PROFIL
 10
19.150000000000091
 20
-94.516956646213657
 30
0.0
  0
VERTEX
  5
1E5B
  8
SAPA_PROFIL
 10
19.150000000000091
 20
-92.499999999010015
 30
0.0
 42
0.4142135623729619
  0
VERTEX
  5
1E5C
  8
SAPA_PROFIL
 10
18.650000000000091
 20
-91.999999999010015
 30
0.0
  0
VERTEX
  5
1E5D
  8
SAPA_PROFIL
 10
14.650000000000089
 20
-91.999999999010925
 30
0.0
 42
-0.4142135623730951
  0
VERTEX
  5
1E5E
  8
SAPA_PROFIL
 10
14.150000000000089
 20
-91.499999999010925
 30
0.0
  0
VERTEX
  5
1E5F
  8
SAPA_PROFIL
 10
14.150000000000089
 20
-86.999999999010015
 30
0.0
 42
-0.4142135623731285
  0
VERTEX
  5
1E60
  8
SAPA_PROFIL
 10
14.650000000000089
 20
-86.499999999010015
 30
0.0
  0
VERTEX
  5
1E61
  8
SAPA_PROFIL
 10
16.450000000000269
 20
-86.499999999010456
 30
0.0
 42
-0.198912367379658
  0
VERTEX
  5
1E62
  8
SAPA_PROFIL
 10
16.662132034356091
 20
-86.587867964654379
 30
0.0
  0
VERTEX
  5
1E63
  8
SAPA_PROFIL
 10
17.062132034356178
 20
-86.987867964654455
 30
0.0
 42
-0.6681786379193188
  0
VERTEX
  5
1E64
  8
SAPA_PROFIL
 10
16.849999999999909
 20
-87.499999999010484
 30
0.0
  0
VERTEX
  5
1E65
  8
SAPA_PROFIL
 10
16.450000000000269
 20
-87.499999999010484
 30
0.0
 42
0.4142135623730951
  0
VERTEX
  5
1E66
  8
SAPA_PROFIL
 10
16.150000000000091
 20
-87.799999999010197
 30
0.0
  0
VERTEX
  5
1E67
  8
SAPA_PROFIL
 10
16.150000000000091
 20
-90.199999999010288
 30
0.0
 42
0.4142135623730951
  0
VERTEX
  5
1E68
  8
SAPA_PROFIL
 10
16.450000000000269
 20
-90.499999999010456
 30
0.0
  0
VERTEX
  5
1E69
  8
SAPA_PROFIL
 10
19.98190844019928
 20
-90.499999999010015
 30
0.0
 42
0.221694662642942
  0
VERTEX
  5
1E6A
  8
SAPA_PROFIL
 10
20.211721773134741
 20
-90.392836281916061
 30
0.0
  0
VERTEX
  5
1E6B
  8
SAPA_PROFIL
 10
21.729813332935471
 20
-88.583645211636394
 30
0.0
 42
0.1763269807084499
  0
VERTEX
  5
1E6C
  8
SAPA_PROFIL
 10
21.799999999999731
 20
-88.390808928730607
 30
0.0
  0
VERTEX
  5
1E6D
  8
SAPA_PROFIL
 10
21.800000000000178
 20
-87.999999999010456
 30
0.0
 42
0.4142135623730284
  0
VERTEX
  5
1E6E
  8
SAPA_PROFIL
 10
21.300000000000178
 20
-87.499999999010484
 30
0.0
  0
VERTEX
  5
1E6F
  8
SAPA_PROFIL
 10
20.450000000000269
 20
-87.499999999010484
 30
0.0
 42
-0.668178637919182
  0
VERTEX
  5
1E70
  8
SAPA_PROFIL
 10
20.237867965644
 20
-86.987867964654455
 30
0.0
  0
VERTEX
  5
1E71
  8
SAPA_PROFIL
 10
20.637867965644091
 20
-86.587867964654379
 30
0.0
 42
-0.1989123673797144
  0
VERTEX
  5
1E72
  8
SAPA_PROFIL
 10
20.849999999999909
 20
-86.499999999010456
 30
0.0
  0
VERTEX
  5
1E73
  8
SAPA_PROFIL
 10
23.300000000000178
 20
-86.499999999010456
 30
0.0
 42
-0.4142135623730951
  0
VERTEX
  5
1E74
  8
SAPA_PROFIL
 10
23.800000000000178
 20
-86.99999999901047
 30
0.0
  0
VERTEX
  5
1E75
  8
SAPA_PROFIL
 10
23.800000000000178
 20
-90.699999999010274
 30
0.0
 42
-0.4142135623730951
  0
VERTEX
  5
1E76
  8
SAPA_PROFIL
 10
23.500000000000451
 20
-90.99999999901047
 30
0.0
  0
VERTEX
  5
1E77
  8
SAPA_PROFIL
 10
22.473205080757001
 20
-90.99999999901047
 30
0.0
 42
0.2679491924311428
  0
VERTEX
  5
1E78
  8
SAPA_PROFIL
 10
22.21339745962177
 20
-91.149999999010575
 30
0.0
  0
VERTEX
  5
1E79
  8
SAPA_PROFIL
 10
21.325961894323431
 20
-92.687083486550804
 30
0.0
 42
0.4142135623731709
  0
VERTEX
  5
1E7A
  8
SAPA_PROFIL
 10
21.435769515459011
 20
-93.096891107686133
 30
0.0
  0
VERTEX
  5
1E7B
  8
SAPA_PROFIL
 10
21.96791111376206
 20
-93.404123202713436
 30
0.0
 42
-0.4663076581551056
  0
VERTEX
  5
1E7C
  8
SAPA_PROFIL
 10
22.233955556881028
 20
-94.912936216184335
 30
0.0
  0
VERTEX
  5
1E7D
  8
SAPA_PROFIL
 10
18.115270605417209
 20
-99.821393803853425
 30
0.0
 42
-0.2216946626428921
  0
VERTEX
  5
1E7E
  8
SAPA_PROFIL
 10
17.732248383857488
 20
-99.999999999010484
 30
0.0
  0
VERTEX
  5
1E7F
  8
SAPA_PROFIL
 10
9.7002075382097246
 20
-99.999999999010484
 30
0.0
 42
-0.3152987888789878
  0
VERTEX
  5
1E80
  8
SAPA_PROFIL
 10
8.760514917423734
 20
-99.342020142335983
 30
0.0
  0
VERTEX
  5
1E81
  8
SAPA_PROFIL
 10
7.4196339112449996
 20
-95.657979855684516
 30
0.0
 42
0.3152987888789804
  0
VERTEX
  5
1E82
  8
SAPA_PROFIL
 10
6.479941290459009
 20
-94.999999999010015
 30
0.0
  0
VERTEX
  5
1E83
  8
SAPA_PROFIL
 10
-6.4799412904594638
 20
-94.999999999010015
 30
0.0
 42
0.3152987888789804
  0
VERTEX
  5
1E84
  8
SAPA_PROFIL
 10
-7.4196339112454552
 20
-95.657979855684516
 30
0.0
  0
VERTEX
  5
1E85
  8
SAPA_PROFIL
 10
-8.760514917423734
 20
-99.342020142335983
 30
0.0
 42
-0.3152987888789877
  0
VERTEX
  5
1E86
  8
SAPA_PROFIL
 10
-9.7002075382097246
 20
-99.999999999010484
 30
0.0
  0
VERTEX
  5
1E87
  8
SAPA_PROFIL
 10
-17.73224838385795
 20
-99.999999999010484
 30
0.0
 42
-0.2216946626428921
  0
VERTEX
  5
1E88
  8
SAPA_PROFIL
 10
-18.115270605417209
 20
-99.821393803853425
 30
0.0
  0
VERTEX
  5
1E89
  8
SAPA_PROFIL
 10
-22.233955556881028
 20
-94.912936216184335
 30
0.0
 42
-0.4663076581551056
  0
VERTEX
  5
1E8A
  8
SAPA_PROFIL
 10
-21.967911113762511
 20
-93.404123202713436
 30
0.0
  0
VERTEX
  5
1E8B
  8
SAPA_PROFIL
 10
-21.435769515459011
 20
-93.096891107686133
 30
0.0
 42
0.414213562373157
  0
VERTEX
  5
1E8C
  8
SAPA_PROFIL
 10
-21.325961894323878
 20
-92.687083486550804
 30
0.0
  0
VERTEX
  5
1E8D
  8
SAPA_PROFIL
 10
-22.213397459622229
 20
-91.149999999010575
 30
0.0
 42
0.2679491924311554
  0
VERTEX
  5
1E8E
  8
SAPA_PROFIL
 10
-22.473205080757449
 20
-90.99999999901047
 30
0.0
  0
VERTEX
  5
1E8F
  8
SAPA_PROFIL
 10
-23.500000000000451
 20
-90.99999999901047
 30
0.0
 42
-0.4142135623730951
  0
VERTEX
  5
1E90
  8
SAPA_PROFIL
 10
-23.80000000000064
 20
-90.699999999010274
 30
0.0
  0
VERTEX
  5
1E91
  8
SAPA_PROFIL
 10
-23.800000000000178
 20
-86.99999999901047
 30
0.0
 42
-0.4142135623730951
  0
VERTEX
  5
1E92
  8
SAPA_PROFIL
 10
-23.300000000000178
 20
-86.499999999010456
 30
0.0
  0
SEQEND
  5
1E93
  8
SAPA_PROFIL
  0
POLYLINE
  5
140A
  8
SAPA_PROFIL
 62
     4
 66
     1
 10
0.0
 20
0.0
 30
0.0
 70
     1
  0
VERTEX
  5
1E94
  8
SAPA_PROFIL
 62
     4
 10
1.055634910786466
 20
-88.358578641879717
 30
0.0
 42
0.1989123671061458
  0
VERTEX
  5
1E95
  8
SAPA_PROFIL
 62
     4
 10
0.2071067742556352
 20
-88.00710678019658
 30
0.0
  0
VERTEX
  5
1E96
  8
SAPA_PROFIL
 62
     4
 10
-0.2071067742555215
 20
-88.00710678019658
 30
0.0
 42
0.1989123671061505
  0
VERTEX
  5
1E97
  8
SAPA_PROFIL
 62
     4
 10
-1.0556349107863521
 20
-88.358578641879717
 30
0.0
  0
VERTEX
  5
1E98
  8
SAPA_PROFIL
 62
     4
 10
-3.287867965867235
 20
-90.590811692262079
 30
0.0
 42
-0.6681786375387371
  0
VERTEX
  5
1E99
  8
SAPA_PROFIL
 62
     4
 10
-3.7999999999999541
 20
-90.378679657682881
 30
0.0
  0
VERTEX
  5
1E9A
  8
SAPA_PROFIL
 62
     4
 10
-3.7999999999999541
 20
-73.799999999010083
 30
0.0
 42
-0.4142135623731034
  0
VERTEX
  5
1E9B
  8
SAPA_PROFIL
 62
     4
 10
-3.4999999999999432
 20
-73.499999999010072
 30
0.0
  0
VERTEX
  5
1E9C
  8
SAPA_PROFIL
 62
     4
 10
3.4999999999999432
 20
-73.499999999010072
 30
0.0
 42
-0.4142135623731034
  0
VERTEX
  5
1E9D
  8
SAPA_PROFIL
 62
     4
 10
3.8000000000000109
 20
-73.799999999010083
 30
0.0
  0
VERTEX
  5
1E9E
  8
SAPA_PROFIL
 62
     4
 10
3.8000000000000682
 20
-90.378679657682881
 30
0.0
 42
-0.6681786375387019
  0
VERTEX
  5
1E9F
  8
SAPA_PROFIL
 62
     4
 10
3.2878679658673491
 20
-90.590811692262079
 30
0.0
  0
SEQEND
  5
1EA0
  8
SAPA_PROFIL
 62
     4
  0
POLYLINE
  5
140B
  8
SAPA_PROFIL
 62
     4
 66
     1
 10
0.0
 20
0.0
 30
0.0
 70
     1
  0
VERTEX
  5
1EA1
  8
SAPA_PROFIL
 62
     4
 10
-3.7999999999999541
 20
-72.19999999901006
 30
0.0
  0
VERTEX
  5
1EA2
  8
SAPA_PROFIL
 62
     4
 10
-3.7999999999999541
 20
-53.999999999010022
 30
0.0
 42
-0.4142135623730951
  0
VERTEX
  5
1EA3
  8
SAPA_PROFIL
 62
     4
 10
-3.5
 20
-53.699999999010011
 30
0.0
  0
VERTEX
  5
1EA4
  8
SAPA_PROFIL
 62
     4
 10
-2.6029437251521581
 20
-53.69999999901006
 30
0.0
  0
VERTEX
  5
1EA5
  8
SAPA_PROFIL
 62
     4
 10
-1.0499999999999541
 20
-52.147056273857629
 30
0.0
  0
VERTEX
  5
1EA6
  8
SAPA_PROFIL
 62
     4
 10
-1.0499999999999541
 20
-46.568653346957198
 30
0.0
  0
VERTEX
  5
1EA7
  8
SAPA_PROFIL
 62
     4
 10
-0.4763139720814138
 20
-45.57499999901006
 30
0.0
 42
-0.5773502691896344
  0
VERTEX
  5
1EA8
  8
SAPA_PROFIL
 62
     4
 10
0.4763139720814707
 20
-45.574999999009997
 30
0.0
  0
VERTEX
  5
1EA9
  8
SAPA_PROFIL
 62
     4
 10
1.050000000000068
 20
-46.568653346957369
 30
0.0
  0
VERTEX
  5
1EAA
  8
SAPA_PROFIL
 62
     4
 10
1.050000000000068
 20
-52.1470562738578
 30
0.0
  0
VERTEX
  5
1EAB
  8
SAPA_PROFIL
 62
     4
 10
2.6029437251522718
 20
-53.69999999901006
 30
0.0
  0
VERTEX
  5
1EAC
  8
SAPA_PROFIL
 62
     4
 10
3.5000000000001128
 20
-53.699999999010011
 30
0.0
 42
-0.4142135623730951
  0
VERTEX
  5
1EAD
  8
SAPA_PROFIL
 62
     4
 10
3.8000000000000682
 20
-53.999999999010022
 30
0.0
  0
VERTEX
  5
1EAE
  8
SAPA_PROFIL
 62
     4
 10
3.8000000000000109
 20
-72.19999999901006
 30
0.0
 42
-0.4142135623730951
  0
VERTEX
  5
1EAF
  8
SAPA_PROFIL
 62
     4
 10
3.500000000000056
 20
-72.499999999010015
 30
0.0
  0
VERTEX
  5
1EB0
  8
SAPA_PROFIL
 62
     4
 10
-3.500000000000056
 20
-72.499999999010072
 30
0.0
 42
-0.4142135623730951
  0
SEQEND
  5
1EB1
  8
SAPA_PROFIL
 62
     4
  0
POLYLINE
  5
140C
  8
SAPA_PROFIL
 62
     4
 66
     1
 10
0.0
 20
0.0
 30
0.0
 70
     1
  0
VERTEX
  5
1EB2
  8
SAPA_PROFIL
 62
     4
 10
0.3535533839706204
 20
-89.353553389603292
 30
0.0
 42
0.4142135623730951
  0
VERTEX
  5
1EB3
  8
SAPA_PROFIL
 62
     4
 10
-0.3535533972159328
 20
-89.353553389603292
 30
0.0
  0
VERTEX
  5
1EB4
  8
SAPA_PROFIL
 62
     4
 10
-3.5
 20
-92.499999999010015
 30
0.0
  0
VERTEX
  5
1EB5
  8
SAPA_PROFIL
 62
     4
 10
-5.0
 20
-92.499999999010015
 30
0.0
  0
VERTEX
  5
1EB6
  8
SAPA_PROFIL
 62
     4
 10
-5.0
 20
-52.999999999010008
 30
0.0
 42
-0.4142135623730951
  0
VERTEX
  5
1EB7
  8
SAPA_PROFIL
 62
     4
 10
-4.5
 20
-52.499999999010008
 30
0.0
  0
VERTEX
  5
1EB8
  8
SAPA_PROFIL
 62
     4
 10
-3.0999999999999091
 20
-52.499999999010008
 30
0.0
  0
VERTEX
  5
1EB9
  8
SAPA_PROFIL
 62
     4
 10
-2.25
 20
-51.649999999010049
 30
0.0
  0
VERTEX
  5
1EBA
  8
SAPA_PROFIL
 62
     4
 10
-2.25
 20
-47.047114316039988
 30
0.0
  0
VERTEX
  5
1EBB
  8
SAPA_PROFIL
 62
     4
 10
-1.1691342951090169
 20
-45.174999999010019
 30
0.0
 42
-0.5773502691896344
  0
VERTEX
  5
1EBC
  8
SAPA_PROFIL
 62
     4
 10
1.169134295109074
 20
-45.174999999010019
 30
0.0
  0
VERTEX
  5
1EBD
  8
SAPA_PROFIL
 62
     4
 10
2.2500000000001128
 20
-47.047114316040172
 30
0.0
  0
VERTEX
  5
1EBE
  8
SAPA_PROFIL
 62
     4
 10
2.2500000000001128
 20
-51.649999999010049
 30
0.0
  0
VERTEX
  5
1EBF
  8
SAPA_PROFIL
 62
     4
 10
3.1000000000000218
 20
-52.499999999010008
 30
0.0
  0
VERTEX
  5
1EC0
  8
SAPA_PROFIL
 62
     4
 10
4.5
 20
-52.499999999010008
 30
0.0
 42
-0.4142135623730951
  0
VERTEX
  5
1EC1
  8
SAPA_PROFIL
 62
     4
 10
5.0
 20
-52.999999999010008
 30
0.0
  0
VERTEX
  5
1EC2
  8
SAPA_PROFIL
 62
     4
 10
5.0
 20
-92.499999999010015
 30
0.0
  0
VERTEX
  5
1EC3
  8
SAPA_PROFIL
 62
     4
 10
3.5
 20
-92.499999999010015
 30
0.0
  0
SEQEND
  5
1EC4
  8
SAPA_PROFIL
 62
     4
  0
POLYLINE
  5
140D
  8
SAPA_PROFIL
 66
     1
 10
0.0
 20
0.0
 30
0.0
 70
     1
  0
VERTEX
  5
1EC5
  8
SAPA_PROFIL
 10
-2.700000000000272
 20
-33.050000000001091
 30
0.0
  0
VERTEX
  5
1EC6
  8
SAPA_PROFIL
 10
-2.0767196966983188
 20
-31.67376540642476
 30
0.0
 42
0.5450207798987328
  0
VERTEX
  5
1EC7
  8
SAPA_PROFIL
 10
-2.350000000000136
 20
-31.25000000000114
 30
0.0
  0
VERTEX
  5
1EC8
  8
SAPA_PROFIL
 10
-2.700000000000272
 20
-31.25000000000114
 30
0.0
  0
VERTEX
  5
1EC9
  8
SAPA_PROFIL
 10
-2.700000000000272
 20
-31.00000000000114
 30
0.0
 42
-0.4142135623730951
  0
VERTEX
  5
1ECA
  8
SAPA_PROFIL
 10
-1.700000000000272
 20
-30.00000000000114
 30
0.0
  0
VERTEX
  5
1ECB
  8
SAPA_PROFIL
 10
1.6999999999998181
 20
-30.00000000000114
 30
0.0
 42
-0.4142135623730951
  0
VERTEX
  5
1ECC
  8
SAPA_PROFIL
 10
2.6999999999998181
 20
-31.00000000000114
 30
0.0
  0
VERTEX
  5
1ECD
  8
SAPA_PROFIL
 10
2.6999999999998181
 20
-32.150000000001
 30
0.0
  0
VERTEX
  5
1ECE
  8
SAPA_PROFIL
 10
2.3499999999996808
 20
-32.150000000001
 30
0.0
 42
0.5450200690651551
  0
VERTEX
  5
1ECF
  8
SAPA_PROFIL
 10
2.0767189999999109
 20
-32.573765000001011
 30
0.0
  0
VERTEX
  5
1ED0
  8
SAPA_PROFIL
 10
2.6999999999998181
 20
-33.950000000000948
 30
0.0
  0
VERTEX
  5
1ED1
  8
SAPA_PROFIL
 10
2.3499999999996808
 20
-33.950000000000948
 30
0.0
 42
0.5450200690651692
  0
VERTEX
  5
1ED2
  8
SAPA_PROFIL
 10
2.0767189999999109
 20
-34.373765000000958
 30
0.0
  0
VERTEX
  5
1ED3
  8
SAPA_PROFIL
 10
2.6999999999998181
 20
-35.750000000001137
 30
0.0
  0
VERTEX
  5
1ED4
  8
SAPA_PROFIL
 10
2.3499999999996808
 20
-35.750000000001137
 30
0.0
 42
0.5450200690651619
  0
VERTEX
  5
1ED5
  8
SAPA_PROFIL
 10
2.0767189999999109
 20
-36.17376500000114
 30
0.0
  0
VERTEX
  5
1ED6
  8
SAPA_PROFIL
 10
2.6999999999998181
 20
-37.550000000001091
 30
0.0
  0
VERTEX
  5
1ED7
  8
SAPA_PROFIL
 10
2.3499999999996808
 20
-37.550000000001091
 30
0.0
 42
0.5450200690651619
  0
VERTEX
  5
1ED8
  8
SAPA_PROFIL
 10
2.0767189999999109
 20
-37.973765000001102
 30
0.0
  0
VERTEX
  5
1ED9
  8
SAPA_PROFIL
 10
2.6999999999998181
 20
-39.350000000001053
 30
0.0
  0
VERTEX
  5
1EDA
  8
SAPA_PROFIL
 10
2.3499999999996808
 20
-39.350000000001053
 30
0.0
 42
0.5450200690651692
  0
VERTEX
  5
1EDB
  8
SAPA_PROFIL
 10
2.0767189999999109
 20
-39.773765000001049
 30
0.0
  0
VERTEX
  5
1EDC
  8
SAPA_PROFIL
 10
2.6999999999998181
 20
-41.150000000001
 30
0.0
  0
VERTEX
  5
1EDD
  8
SAPA_PROFIL
 10
2.6999999999998181
 20
-41.450000000000948
 30
0.0
  0
VERTEX
  5
1EDE
  8
SAPA_PROFIL
 10
-2.42826763351104
 20
-41.450000000000948
 30
0.0
  0
VERTEX
  5
1EDF
  8
SAPA_PROFIL
 10
-2.0767196966983188
 20
-40.673765406424756
 30
0.0
 42
0.5450207798987328
  0
VERTEX
  5
1EE0
  8
SAPA_PROFIL
 10
-2.350000000000136
 20
-40.250000000001137
 30
0.0
  0
VERTEX
  5
1EE1
  8
SAPA_PROFIL
 10
-2.700000000000272
 20
-40.250000000001137
 30
0.0
  0
VERTEX
  5
1EE2
  8
SAPA_PROFIL
 10
-2.0767200000002499
 20
-38.873765000000958
 30
0.0
 42
0.5450205149791638
  0
VERTEX
  5
1EE3
  8
SAPA_PROFIL
 10
-2.350000000000136
 20
-38.450000000000962
 30
0.0
  0
VERTEX
  5
1EE4
  8
SAPA_PROFIL
 10
-2.700000000000272
 20
-38.450000000000962
 30
0.0
  0
VERTEX
  5
1EE5
  8
SAPA_PROFIL
 10
-2.0767196966983188
 20
-37.073765406424627
 30
0.0
 42
0.545020779898768
  0
VERTEX
  5
1EE6
  8
SAPA_PROFIL
 10
-2.350000000000136
 20
-36.650000000001
 30
0.0
  0
VERTEX
  5
1EE7
  8
SAPA_PROFIL
 10
-2.700000000000272
 20
-36.650000000001
 30
0.0
  0
VERTEX
  5
1EE8
  8
SAPA_PROFIL
 10
-2.0767196966983188
 20
-35.273765406424673
 30
0.0
 42
0.54502077989874
  0
VERTEX
  5
1EE9
  8
SAPA_PROFIL
 10
-2.350000000000136
 20
-34.850000000001053
 30
0.0
  0
VERTEX
  5
1EEA
  8
SAPA_PROFIL
 10
-2.700000000000272
 20
-34.850000000001053
 30
0.0
  0
VERTEX
  5
1EEB
  8
SAPA_PROFIL
 10
-2.0767196966983188
 20
-33.473765406424718
 30
0.0
 42
0.545020779898761
  0
VERTEX
  5
1EEC
  8
SAPA_PROFIL
 10
-2.350000000000136
 20
-33.050000000001091
 30
0.0
  0
SEQEND
  5
1EED
  8
SAPA_PROFIL
  0
POLYLINE
  5
140E
  8
SAPA_PROFIL
 66
     1
 10
0.0
 20
0.0
 30
0.0
 70
     1
  0
VERTEX
  5
1EEE
  8
SAPA_PROFIL
 10
-23.000000000000231
 20
58.024264068710863
 30
0.0
 42
0.1989123673796753
  0
VERTEX
  5
1EEF
  8
SAPA_PROFIL
 10
-22.912132034356091
 20
57.812132034355052
 30
0.0
  0
VERTEX
  5
1EF0
  8
SAPA_PROFIL
 10
-21.187867965644269
 20
56.087867965642999
 30
0.0
 42
-0.1989123673796753
  0
VERTEX
  5
1EF1
  8
SAPA_PROFIL
 10
-21.10000000000014
 20
55.875735931286947
 30
0.0
  0
VERTEX
  5
1EF2
  8
SAPA_PROFIL
 10
-21.10000000000014
 20
55.299999999999052
 30
0.0
 42
-0.4142135623730951
  0
VERTEX
  5
1EF3
  8
SAPA_PROFIL
 10
-21.400000000000318
 20
54.999999999998863
 30
0.0
  0
VERTEX
  5
1EF4
  8
SAPA_PROFIL
 10
-22.700000000000269
 20
54.999999999998863
 30
0.0
 42
0.4142135623730951
  0
VERTEX
  5
1EF5
  8
SAPA_PROFIL
 10
-23.000000000000231
 20
54.699999999998909
 30
0.0
  0
VERTEX
  5
1EF6
  8
SAPA_PROFIL
 10
-23.000000000000231
 20
29.99999999999886
 30
0.0
 42
0.4142135623730951
  0
VERTEX
  5
1EF7
  8
SAPA_PROFIL
 10
-22.000000000000231
 20
28.99999999999887
 30
0.0
  0
VERTEX
  5
1EF8
  8
SAPA_PROFIL
 10
-17.600000000000129
 20
28.99999999999887
 30
0.0
 42
-0.4142135623730951
  0
VERTEX
  5
1EF9
  8
SAPA_PROFIL
 10
-17.300000000000178
 20
28.699999999998909
 30
0.0
  0
VERTEX
  5
1EFA
  8
SAPA_PROFIL
 10
-17.300000000000178
 20
26.399999999998961
 30
0.0
 42
-0.4142135623730951
  0
VERTEX
  5
1EFB
  8
SAPA_PROFIL
 10
-17.600000000000129
 20
26.099999999999
 30
0.0
  0
VERTEX
  5
1EFC
  8
SAPA_PROFIL
 10
-18.100000000000129
 20
26.099999999999
 30
0.0
 42
-0.4142135623730951
  0
VERTEX
  5
1EFD
  8
SAPA_PROFIL
 10
-18.400000000000318
 20
26.399999999998961
 30
0.0
  0
VERTEX
  5
1EFE
  8
SAPA_PROFIL
 10
-18.400000000000318
 20
26.736626924633359
 30
0.0
 42
0.5535245743249297
  0
VERTEX
  5
1EFF
  8
SAPA_PROFIL
 10
-22.71055421153164
 20
24.96410760212348
 30
0.0
  0
VERTEX
  5
1F00
  8
SAPA_PROFIL
 10
-22.42322330470347
 20
24.67677669529553
 30
0.0
 42
-0.4142135623729421
  0
VERTEX
  5
1F01
  8
SAPA_PROFIL
 10
-22.42322330470347
 20
24.32322330470242
 30
0.0
  0
VERTEX
  5
1F02
  8
SAPA_PROFIL
 10
-22.71055421153164
 20
24.035892397874481
 30
0.0
 42
0.5535245743249292
  0
VERTEX
  5
1F03
  8
SAPA_PROFIL
 10
-18.400000000000318
 20
22.26337307536437
 30
0.0
  0
VERTEX
  5
1F04
  8
SAPA_PROFIL
 10
-18.400000000000318
 20
22.599999999999
 30
0.0
 42
-0.4142135623730951
  0
VERTEX
  5
1F05
  8
SAPA_PROFIL
 10
-18.100000000000129
 20
22.899999999998961
 30
0.0
  0
VERTEX
  5
1F06
  8
SAPA_PROFIL
 10
-17.600000000000129
 20
22.899999999998961
 30
0.0
 42
-0.4142135623730951
  0
VERTEX
  5
1F07
  8
SAPA_PROFIL
 10
-17.300000000000178
 20
22.599999999999
 30
0.0
  0
VERTEX
  5
1F08
  8
SAPA_PROFIL
 10
-17.300000000000178
 20
21.49999999999886
 30
0.0
 42
-0.4142135623730951
  0
VERTEX
  5
1F09
  8
SAPA_PROFIL
 10
-18.800000000000178
 20
19.99999999999886
 30
0.0
  0
VERTEX
  5
1F0A
  8
SAPA_PROFIL
 10
-21.63397459621569
 20
19.99999999999886
 30
0.0
 42
-0.267949192431143
  0
VERTEX
  5
1F0B
  8
SAPA_PROFIL
 10
-22.066987298107961
 20
20.24999999999886
 30
0.0
 42
0.767326987978956
  0
VERTEX
  5
1F0C
  8
SAPA_PROFIL
 10
-23.000000000000231
 20
19.99999999999886
 30
0.0
  0
VERTEX
  5
1F0D
  8
SAPA_PROFIL
 10
-23.000000000000231
 20
-15.00000000000113
 30
0.0
 42
0.4142135623730951
  0
VERTEX
  5
1F0E
  8
SAPA_PROFIL
 10
-22.000000000000231
 20
-16.00000000000114
 30
0.0
  0
VERTEX
  5
1F0F
  8
SAPA_PROFIL
 10
-17.600000000000129
 20
-16.00000000000114
 30
0.0
 42
-0.4142135623730951
  0
VERTEX
  5
1F10
  8
SAPA_PROFIL
 10
-17.300000000000178
 20
-16.300000000001091
 30
0.0
  0
VERTEX
  5
1F11
  8
SAPA_PROFIL
 10
-17.300000000000178
 20
-18.600000000001039
 30
0.0
 42
-0.4142135623730951
  0
VERTEX
  5
1F12
  8
SAPA_PROFIL
 10
-17.600000000000129
 20
-18.900000000001
 30
0.0
  0
VERTEX
  5
1F13
  8
SAPA_PROFIL
 10
-18.100000000000129
 20
-18.900000000001
 30
0.0
 42
-0.4142135623730951
  0
VERTEX
  5
1F14
  8
SAPA_PROFIL
 10
-18.400000000000318
 20
-18.600000000001039
 30
0.0
  0
VERTEX
  5
1F15
  8
SAPA_PROFIL
 10
-18.400000000000318
 20
-18.263373075366641
 30
0.0
 42
0.5535245743249297
  0
VERTEX
  5
1F16
  8
SAPA_PROFIL
 10
-22.71055421153164
 20
-20.03589239787652
 30
0.0
  0
VERTEX
  5
1F17
  8
SAPA_PROFIL
 10
-22.42322330470347
 20
-20.32322330470447
 30
0.0
 42
-0.4142135623730243
  0
VERTEX
  5
1F18
  8
SAPA_PROFIL
 10
-22.423223304703701
 20
-20.67677669529758
 30
0.0
  0
VERTEX
  5
1F19
  8
SAPA_PROFIL
 10
-22.71055421153164
 20
-20.96410760212553
 30
0.0
 42
0.5535245743249292
  0
VERTEX
  5
1F1A
  8
SAPA_PROFIL
 10
-18.400000000000318
 20
-22.73662692463563
 30
0.0
  0
VERTEX
  5
1F1B
  8
SAPA_PROFIL
 10
-18.400000000000318
 20
-22.400000000001
 30
0.0
 42
-0.4142135623730951
  0
VERTEX
  5
1F1C
  8
SAPA_PROFIL
 10
-18.100000000000129
 20
-22.100000000001049
 30
0.0
  0
VERTEX
  5
1F1D
  8
SAPA_PROFIL
 10
-17.600000000000129
 20
-22.100000000001049
 30
0.0
 42
-0.4142135623730951
  0
VERTEX
  5
1F1E
  8
SAPA_PROFIL
 10
-17.300000000000178
 20
-22.400000000001
 30
0.0
  0
VERTEX
  5
1F1F
  8
SAPA_PROFIL
 10
-17.300000000000178
 20
-23.50000000000114
 30
0.0
 42
-0.4142135623730951
  0
VERTEX
  5
1F20
  8
SAPA_PROFIL
 10
-18.800000000000178
 20
-25.00000000000114
 30
0.0
  0
VERTEX
  5
1F21
  8
SAPA_PROFIL
 10
-21.780384757729511
 20
-25.00000000000114
 30
0.0
 42
-0.2679491924311188
  0
VERTEX
  5
1F22
  8
SAPA_PROFIL
 10
-22.040192378864958
 20
-24.850000000001049
 30
0.0
 42
0.7673269879789557
  0
VERTEX
  5
1F23
  8
SAPA_PROFIL
 10
-22.600000000000129
 20
-25.00000000000114
 30
0.0
  0
VERTEX
  5
1F24
  8
SAPA_PROFIL
 10
-22.599999999999909
 20
-27.00000000000114
 30
0.0
 42
0.4142137811865366
  0
VERTEX
  5
1F25
  8
SAPA_PROFIL
 10
-21.600000747075459
 20
-28.00000000000114
 30
0.0
  0
VERTEX
  5
1F26
  8
SAPA_PROFIL
 10
21.599999999999682
 20
-28.00000000000114
 30
0.0
 42
0.4142140000000124
  0
VERTEX
  5
1F27
  8
SAPA_PROFIL
 10
22.599999999999682
 20
-27.00000000000114
 30
0.0
  0
VERTEX
  5
1F28
  8
SAPA_PROFIL
 10
22.599999999999682
 20
-25.00000000000114
 30
0.0
 42
0.7673269879789457
  0
VERTEX
  5
1F29
  8
SAPA_PROFIL
 10
22.0401923788645
 20
-24.850000000001049
 30
0.0
 42
-0.2679491924311191
  0
VERTEX
  5
1F2A
  8
SAPA_PROFIL
 10
21.780384757729049
 20
-25.00000000000114
 30
0.0
  0
VERTEX
  5
1F2B
  8
SAPA_PROFIL
 10
18.799999999999731
 20
-25.00000000000114
 30
0.0
 42
-0.4142135623730951
  0
VERTEX
  5
1F2C
  8
SAPA_PROFIL
 10
17.299999999999731
 20
-23.50000000000114
 30
0.0
  0
VERTEX
  5
1F2D
  8
SAPA_PROFIL
 10
17.299999999999731
 20
-22.400000000001
 30
0.0
 42
-0.4142135623730951
  0
VERTEX
  5
1F2E
  8
SAPA_PROFIL
 10
17.599999999999682
 20
-22.100000000001049
 30
0.0
  0
VERTEX
  5
1F2F
  8
SAPA_PROFIL
 10
18.099999999999682
 20
-22.100000000001049
 30
0.0
 42
-0.4142135623730951
  0
VERTEX
  5
1F30
  8
SAPA_PROFIL
 10
18.39999999999986
 20
-22.400000000001
 30
0.0
  0
VERTEX
  5
1F31
  8
SAPA_PROFIL
 10
18.39999999999986
 20
-22.73662692463563
 30
0.0
 42
0.5535245743249307
  0
VERTEX
  5
1F32
  8
SAPA_PROFIL
 10
22.710554211531189
 20
-20.96410760212553
 30
0.0
  0
VERTEX
  5
1F33
  8
SAPA_PROFIL
 10
22.423223304703239
 20
-20.67677669529758
 30
0.0
 42
-0.4142135623730951
  0
VERTEX
  5
1F34
  8
SAPA_PROFIL
 10
22.423223304703239
 20
-20.32322330470447
 30
0.0
  0
VERTEX
  5
1F35
  8
SAPA_PROFIL
 10
22.710554211531189
 20
-20.03589239787652
 30
0.0
 42
0.553524574324932
  0
VERTEX
  5
1F36
  8
SAPA_PROFIL
 10
18.39999999999986
 20
-18.263373075366641
 30
0.0
  0
VERTEX
  5
1F37
  8
SAPA_PROFIL
 10
18.39999999999986
 20
-18.600000000001039
 30
0.0
 42
-0.4142135623730951
  0
VERTEX
  5
1F38
  8
SAPA_PROFIL
 10
18.099999999999682
 20
-18.900000000001
 30
0.0
  0
VERTEX
  5
1F39
  8
SAPA_PROFIL
 10
17.599999999999682
 20
-18.900000000001
 30
0.0
 42
-0.4142135623730951
  0
VERTEX
  5
1F3A
  8
SAPA_PROFIL
 10
17.299999999999731
 20
-18.600000000001039
 30
0.0
  0
VERTEX
  5
1F3B
  8
SAPA_PROFIL
 10
17.299999999999731
 20
-16.300000000001091
 30
0.0
 42
-0.4142135623730951
  0
VERTEX
  5
1F3C
  8
SAPA_PROFIL
 10
17.599999999999682
 20
-16.00000000000114
 30
0.0
  0
VERTEX
  5
1F3D
  8
SAPA_PROFIL
 10
21.999999999999769
 20
-16.00000000000114
 30
0.0
 42
0.4142135623730951
  0
VERTEX
  5
1F3E
  8
SAPA_PROFIL
 10
22.999999999999769
 20
-15.00000000000113
 30
0.0
  0
VERTEX
  5
1F3F
  8
SAPA_PROFIL
 10
22.999999999999769
 20
19.99999999999886
 30
0.0
 42
0.7673269879789569
  0
VERTEX
  5
1F40
  8
SAPA_PROFIL
 10
22.066987298107509
 20
20.24999999999886
 30
0.0
 42
-0.2679491924311163
  0
VERTEX
  5
1F41
  8
SAPA_PROFIL
 10
21.633974596215239
 20
19.99999999999886
 30
0.0
  0
VERTEX
  5
1F42
  8
SAPA_PROFIL
 10
18.799999999999731
 20
19.99999999999886
 30
0.0
 42
-0.4142135623730951
  0
VERTEX
  5
1F43
  8
SAPA_PROFIL
 10
17.299999999999731
 20
21.49999999999886
 30
0.0
  0
VERTEX
  5
1F44
  8
SAPA_PROFIL
 10
17.299999999999731
 20
22.599999999999
 30
0.0
 42
-0.4142135623730951
  0
VERTEX
  5
1F45
  8
SAPA_PROFIL
 10
17.599999999999682
 20
22.899999999998961
 30
0.0
  0
VERTEX
  5
1F46
  8
SAPA_PROFIL
 10
18.099999999999682
 20
22.899999999998961
 30
0.0
 42
-0.4142135623730951
  0
VERTEX
  5
1F47
  8
SAPA_PROFIL
 10
18.39999999999986
 20
22.599999999999
 30
0.0
  0
VERTEX
  5
1F48
  8
SAPA_PROFIL
 10
18.39999999999986
 20
22.26337307536437
 30
0.0
 42
0.5535245743249307
  0
VERTEX
  5
1F49
  8
SAPA_PROFIL
 10
22.710554211531189
 20
24.035892397874481
 30
0.0
  0
VERTEX
  5
1F4A
  8
SAPA_PROFIL
 10
22.423223304703239
 20
24.32322330470242
 30
0.0
 42
-0.4142135623731068
  0
VERTEX
  5
1F4B
  8
SAPA_PROFIL
 10
22.423223304703011
 20
24.67677669529553
 30
0.0
  0
VERTEX
  5
1F4C
  8
SAPA_PROFIL
 10
22.710554211531189
 20
24.96410760212348
 30
0.0
 42
0.553524574324932
  0
VERTEX
  5
1F4D
  8
SAPA_PROFIL
 10
18.39999999999986
 20
26.736626924633359
 30
0.0
  0
VERTEX
  5
1F4E
  8
SAPA_PROFIL
 10
18.39999999999986
 20
26.399999999998961
 30
0.0
 42
-0.4142135623730951
  0
VERTEX
  5
1F4F
  8
SAPA_PROFIL
 10
18.099999999999682
 20
26.099999999999
 30
0.0
  0
VERTEX
  5
1F50
  8
SAPA_PROFIL
 10
17.599999999999682
 20
26.099999999999
 30
0.0
 42
-0.4142135623730951
  0
VERTEX
  5
1F51
  8
SAPA_PROFIL
 10
17.299999999999731
 20
26.399999999998961
 30
0.0
  0
VERTEX
  5
1F52
  8
SAPA_PROFIL
 10
17.299999999999731
 20
28.699999999998909
 30
0.0
 42
-0.4142135623730951
  0
VERTEX
  5
1F53
  8
SAPA_PROFIL
 10
17.599999999999682
 20
28.99999999999887
 30
0.0
  0
VERTEX
  5
1F54
  8
SAPA_PROFIL
 10
21.999999999999769
 20
28.99999999999887
 30
0.0
 42
0.4142135623730951
  0
VERTEX
  5
1F55
  8
SAPA_PROFIL
 10
22.999999999999769
 20
29.99999999999886
 30
0.0
  0
VERTEX
  5
1F56
  8
SAPA_PROFIL
 10
22.999999999999769
 20
54.699999999998909
 30
0.0
 42
0.4142135623730951
  0
VERTEX
  5
1F57
  8
SAPA_PROFIL
 10
22.699999999999822
 20
54.999999999998863
 30
0.0
  0
VERTEX
  5
1F58
  8
SAPA_PROFIL
 10
21.39999999999986
 20
54.999999999998863
 30
0.0
 42
-0.4142135623730951
  0
VERTEX
  5
1F59
  8
SAPA_PROFIL
 10
21.099999999999682
 20
55.299999999999052
 30
0.0
  0
VERTEX
  5
1F5A
  8
SAPA_PROFIL
 10
21.099999999999682
 20
55.875735931286947
 30
0.0
 42
-0.1989123673796752
  0
VERTEX
  5
1F5B
  8
SAPA_PROFIL
 10
21.187867965643822
 20
56.087867965642999
 30
0.0
  0
VERTEX
  5
1F5C
  8
SAPA_PROFIL
 10
22.91213203435586
 20
57.812132034355052
 30
0.0
 42
0.1989123673796057
  0
VERTEX
  5
1F5D
  8
SAPA_PROFIL
 10
22.999999999999769
 20
58.024264068710863
 30
0.0
  0
VERTEX
  5
1F5E
  8
SAPA_PROFIL
 10
22.999999999999769
 20
61.499999999998863
 30
0.0
 42
0.4142135623730951
  0
VERTEX
  5
1F5F
  8
SAPA_PROFIL
 10
21.999999999999769
 20
62.499999999998863
 30
0.0
  0
VERTEX
  5
1F60
  8
SAPA_PROFIL
 10
-22.000000000000231
 20
62.499999999998863
 30
0.0
 42
0.4142135623730951
  0
VERTEX
  5
1F61
  8
SAPA_PROFIL
 10
-23.000000000000231
 20
61.499999999998863
 30
0.0
  0
SEQEND
  5
1F62
  8
SAPA_PROFIL
  0
POLYLINE
  5
140F
  8
SAPA_PROFIL
 66
     1
 10
0.0
 20
0.0
 30
0.0
 70
     1
  0
VERTEX
  5
1F63
  8
SAPA_PROFIL
 10
-6.0000000000002274
 20
-30.00000000000114
 30
0.0
 42
-0.4142135623730951
  0
VERTEX
  5
1F64
  8
SAPA_PROFIL
 10
-5.0000000000002274
 20
-31.00000000000114
 30
0.0
  0
VERTEX
  5
1F65
  8
SAPA_PROFIL
 10
-5.0000000000002274
 20
-52.200000000000948
 30
0.0
 42
0.4142135623730951
  0
VERTEX
  5
1F66
  8
SAPA_PROFIL
 10
-4.700000000000272
 20
-52.50000000000113
 30
0.0
  0
VERTEX
  5
1F67
  8
SAPA_PROFIL
 10
-3.0757360000002332
 20
-52.50000000000113
 30
0.0
  0
VERTEX
  5
1F68
  8
SAPA_PROFIL
 10
-2.2378679656442269
 20
-51.562132034356871
 30
0.0
 42
0.668178637919305
  0
VERTEX
  5
1F69
  8
SAPA_PROFIL
 10
-2.450000000000272
 20
-51.050000000001091
 30
0.0
  0
VERTEX
  5
1F6A
  8
SAPA_PROFIL
 10
-2.700000000000272
 20
-51.050000000001091
 30
0.0
  0
VERTEX
  5
1F6B
  8
SAPA_PROFIL
 10
-2.1767196966982278
 20
-49.673765406424756
 30
0.0
 42
0.5450207798987201
  0
VERTEX
  5
1F6C
  8
SAPA_PROFIL
 10
-2.450000000000272
 20
-49.250000000001137
 30
0.0
  0
VERTEX
  5
1F6D
  8
SAPA_PROFIL
 10
-2.700000000000272
 20
-49.250000000001137
 30
0.0
  0
VERTEX
  5
1F6E
  8
SAPA_PROFIL
 10
-2.1767196966982278
 20
-47.873765406424567
 30
0.0
 42
0.5450207798987201
  0
VERTEX
  5
1F6F
  8
SAPA_PROFIL
 10
-2.450000000000272
 20
-47.450000000000962
 30
0.0
  0
VERTEX
  5
1F70
  8
SAPA_PROFIL
 10
-2.700000000000272
 20
-47.450000000000962
 30
0.0
  0
VERTEX
  5
1F71
  8
SAPA_PROFIL
 10
-2.1767196966982278
 20
-46.07376540642462
 30
0.0
 42
0.5450207798987342
  0
VERTEX
  5
1F72
  8
SAPA_PROFIL
 10
-2.450000000000272
 20
-45.650000000000993
 30
0.0
  0
VERTEX
  5
1F73
  8
SAPA_PROFIL
 10
-2.700000000000272
 20
-45.650000000000993
 30
0.0
  0
VERTEX
  5
1F74
  8
SAPA_PROFIL
 10
-2.1767196966982278
 20
-44.273765406424673
 30
0.0
 42
0.5450207798987201
  0
VERTEX
  5
1F75
  8
SAPA_PROFIL
 10
-2.450000000000272
 20
-43.850000000001039
 30
0.0
  0
VERTEX
  5
1F76
  8
SAPA_PROFIL
 10
-2.700000000000272
 20
-43.850000000001039
 30
0.0
  0
VERTEX
  5
1F77
  8
SAPA_PROFIL
 10
-2.4722372826161059
 20
-43.126282705194853
 30
0.0
 42
-0.2945484962563026
  0
VERTEX
  5
1F78
  8
SAPA_PROFIL
 10
-2.1988824689378812
 20
-42.950048040246656
 30
0.0
  0
VERTEX
  5
1F79
  8
SAPA_PROFIL
 10
-1.2642999377483191
 20
-42.950255222213173
 30
0.0
 42
0.3475954753796591
  0
VERTEX
  5
1F7A
  8
SAPA_PROFIL
 10
-0.9723265106783856
 20
-42.719501178044077
 30
0.0
 42
-0.790522909611319
  0
VERTEX
  5
1F7B
  8
SAPA_PROFIL
 10
0.973664089865224
 20
-42.71949097360357
 30
0.0
 42
0.3476065658631364
  0
VERTEX
  5
1F7C
  8
SAPA_PROFIL
 10
1.2656518108867649
 20
-42.950241952335773
 30
0.0
  0
VERTEX
  5
1F7D
  8
SAPA_PROFIL
 10
1.8499926620931999
 20
-42.950095231626847
 30
0.0
 42
-0.4102317530969976
  0
VERTEX
  5
1F7E
  8
SAPA_PROFIL
 10
2.1500282985855388
 20
-43.245946879780369
 30
0.0
 42
0.0712587206050384
  0
VERTEX
  5
1F7F
  8
SAPA_PROFIL
 10
2.1632556124550311
 20
-43.329990804708579
 30
0.0
  0
VERTEX
  5
1F80
  8
SAPA_PROFIL
 10
2.6999999999998181
 20
-44.750000000001137
 30
0.0
  0
VERTEX
  5
1F81
  8
SAPA_PROFIL
 10
2.4499999999998181
 20
-44.750000000001137
 30
0.0
 42
0.5450200690651619
  0
VERTEX
  5
1F82
  8
SAPA_PROFIL
 10
2.17671899999982
 20
-45.173765000001133
 30
0.0
  0
VERTEX
  5
1F83
  8
SAPA_PROFIL
 10
2.6999999999998181
 20
-46.550000000001091
 30
0.0
  0
VERTEX
  5
1F84
  8
SAPA_PROFIL
 10
2.4499999999998181
 20
-46.550000000000857
 30
0.0
 42
0.545020069065176
  0
VERTEX
  5
1F85
  8
SAPA_PROFIL
 10
2.17671899999982
 20
-46.973765000001087
 30
0.0
  0
VERTEX
  5
1F86
  8
SAPA_PROFIL
 10
2.6999999999998181
 20
-48.350000000001039
 30
0.0
  0
VERTEX
  5
1F87
  8
SAPA_PROFIL
 10
2.4499999999998181
 20
-48.350000000001039
 30
0.0
 42
0.5450200690651692
  0
VERTEX
  5
1F88
  8
SAPA_PROFIL
 10
2.17671899999982
 20
-48.773765000001049
 30
0.0
  0
VERTEX
  5
1F89
  8
SAPA_PROFIL
 10
2.6999999999998181
 20
-50.150000000001
 30
0.0
  0
VERTEX
  5
1F8A
  8
SAPA_PROFIL
 10
2.1499999999998631
 20
-50.150000000001
 30
0.0
  0
VERTEX
  5
1F8B
  8
SAPA_PROFIL
 10
2.1499999999998631
 20
-51.350000000001039
 30
0.0
 42
0.1989123673797004
  0
VERTEX
  5
1F8C
  8
SAPA_PROFIL
 10
2.2378679999997071
 20
-51.562132000001156
 30
0.0
  0
VERTEX
  5
1F8D
  8
SAPA_PROFIL
 10
3.075735999999778
 20
-52.50000000000113
 30
0.0
  0
VERTEX
  5
1F8E
  8
SAPA_PROFIL
 10
4.6999999999998181
 20
-52.50000000000113
 30
0.0
 42
0.4142135623730951
  0
VERTEX
  5
1F8F
  8
SAPA_PROFIL
 10
4.9999999999997717
 20
-52.200000000000948
 30
0.0
  0
VERTEX
  5
1F90
  8
SAPA_PROFIL
 10
4.9999999999997717
 20
-31.00000000000114
 30
0.0
 42
-0.4142135623730951
  0
VERTEX
  5
1F91
  8
SAPA_PROFIL
 10
5.9999999999997717
 20
-30.00000000000114
 30
0.0
  0
VERTEX
  5
1F92
  8
SAPA_PROFIL
 10
14.19999999999982
 20
-30.00000000000114
 30
0.0
 42
-0.4142135623730951
  0
VERTEX
  5
1F93
  8
SAPA_PROFIL
 10
14.69999999999982
 20
-30.50000000000114
 30
0.0
  0
VERTEX
  5
1F94
  8
SAPA_PROFIL
 10
14.69999999999982
 20
-33.700000000000962
 30
0.0
 42
-0.4142135623730951
  0
VERTEX
  5
1F95
  8
SAPA_PROFIL
 10
14.19999999999982
 20
-34.200000000000962
 30
0.0
  0
VERTEX
  5
1F96
  8
SAPA_PROFIL
 10
11.299999999999731
 20
-34.200000000000962
 30
0.0
 42
0.4142135623730951
  0
VERTEX
  5
1F97
  8
SAPA_PROFIL
 10
10.999999999999771
 20
-34.500000000001137
 30
0.0
  0
VERTEX
  5
1F98
  8
SAPA_PROFIL
 10
10.999999999999771
 20
-35.200000000000948
 30
0.0
 42
0.4142135623730951
  0
VERTEX
  5
1F99
  8
SAPA_PROFIL
 10
11.299999999999731
 20
-35.500000000001137
 30
0.0
  0
VERTEX
  5
1F9A
  8
SAPA_PROFIL
 10
17.999999999999769
 20
-35.500000000001137
 30
0.0
  0
VERTEX
  5
1F9B
  8
SAPA_PROFIL
 10
18.586384015500471
 20
-35.035076580641999
 30
0.0
 42
0.7105995019814511
  0
VERTEX
  5
1F9C
  8
SAPA_PROFIL
 10
18.39999999999986
 20
-34.500000000001137
 30
0.0
  0
VERTEX
  5
1F9D
  8
SAPA_PROFIL
 10
16.499999999999769
 20
-34.500000000001137
 30
0.0
 42
-0.4142135623730951
  0
VERTEX
  5
1F9E
  8
SAPA_PROFIL
 10
16.199999999999822
 20
-34.200000000000962
 30
0.0
  0
VERTEX
  5
1F9F
  8
SAPA_PROFIL
 10
16.199999999999822
 20
-30.300000000001091
 30
0.0
 42
-0.4142135623730951
  0
VERTEX
  5
1FA0
  8
SAPA_PROFIL
 10
16.499999999999769
 20
-30.00000000000114
 30
0.0
  0
VERTEX
  5
1FA1
  8
SAPA_PROFIL
 10
23.199999999999822
 20
-30.00000000000114
 30
0.0
 42
-0.4142135623730951
  0
VERTEX
  5
1FA2
  8
SAPA_PROFIL
 10
23.499999999999769
 20
-30.300000000001091
 30
0.0
  0
VERTEX
  5
1FA3
  8
SAPA_PROFIL
 10
23.499999999999769
 20
-34.200000000000962
 30
0.0
 42
-0.4142135623730951
  0
VERTEX
  5
1FA4
  8
SAPA_PROFIL
 10
23.199999999999822
 20
-34.500000000001137
 30
0.0
  0
VERTEX
  5
1FA5
  8
SAPA_PROFIL
 10
21.999999999999769
 20
-34.500000000001137
 30
0.0
 42
0.7105990647993611
  0
VERTEX
  5
1FA6
  8
SAPA_PROFIL
 10
21.81361599999968
 20
-35.035076000001027
 30
0.0
  0
VERTEX
  5
1FA7
  8
SAPA_PROFIL
 10
22.39999999999986
 20
-35.500000000001137
 30
0.0
  0
VERTEX
  5
1FA8
  8
SAPA_PROFIL
 10
24.699999999999822
 20
-35.500000000001137
 30
0.0
 42
0.4142135623730951
  0
VERTEX
  5
1FA9
  8
SAPA_PROFIL
 10
24.999999999999769
 20
-35.200000000000948
 30
0.0
  0
VERTEX
  5
1FAA
  8
SAPA_PROFIL
 10
24.999999999999769
 20
63.999999999998863
 30
0.0
 42
0.4142135623730951
  0
VERTEX
  5
1FAB
  8
SAPA_PROFIL
 10
24.499999999999769
 20
64.499999999998863
 30
0.0
  0
VERTEX
  5
1FAC
  8
SAPA_PROFIL
 10
-24.500000000000231
 20
64.499999999998863
 30
0.0
 42
0.4142135623730951
  0
VERTEX
  5
1FAD
  8
SAPA_PROFIL
 10
-25.000000000000231
 20
63.999999999998863
 30
0.0
  0
VERTEX
  5
1FAE
  8
SAPA_PROFIL
 10
-25.000000000000231
 20
-35.200000000000948
 30
0.0
 42
0.4142135623730951
  0
VERTEX
  5
1FAF
  8
SAPA_PROFIL
 10
-24.700000000000269
 20
-35.500000000001137
 30
0.0
  0
VERTEX
  5
1FB0
  8
SAPA_PROFIL
 10
-22.400000000000318
 20
-35.500000000001137
 30
0.0
  0
VERTEX
  5
1FB1
  8
SAPA_PROFIL
 10
-21.81361598449962
 20
-35.035076580641999
 30
0.0
 42
0.7105995019814511
  0
VERTEX
  5
1FB2
  8
SAPA_PROFIL
 10
-22.000000000000231
 20
-34.500000000001137
 30
0.0
  0
VERTEX
  5
1FB3
  8
SAPA_PROFIL
 10
-23.200000000000269
 20
-34.500000000001137
 30
0.0
 42
-0.4142135623730951
  0
VERTEX
  5
1FB4
  8
SAPA_PROFIL
 10
-23.500000000000231
 20
-34.200000000000962
 30
0.0
  0
VERTEX
  5
1FB5
  8
SAPA_PROFIL
 10
-23.500000000000231
 20
-30.300000000001091
 30
0.0
 42
-0.4142135623730951
  0
VERTEX
  5
1FB6
  8
SAPA_PROFIL
 10
-23.200000000000269
 20
-30.00000000000114
 30
0.0
  0
VERTEX
  5
1FB7
  8
SAPA_PROFIL
 10
-16.500000000000231
 20
-30.00000000000114
 30
0.0
 42
-0.4142135623730951
  0
VERTEX
  5
1FB8
  8
SAPA_PROFIL
 10
-16.200000000000269
 20
-30.300000000001091
 30
0.0
  0
VERTEX
  5
1FB9
  8
SAPA_PROFIL
 10
-16.200000000000269
 20
-34.200000000000962
 30
0.0
 42
-0.4142135623730951
  0
VERTEX
  5
1FBA
  8
SAPA_PROFIL
 10
-16.500000000000231
 20
-34.500000000001137
 30
0.0
  0
VERTEX
  5
1FBB
  8
SAPA_PROFIL
 10
-18.400000000000318
 20
-34.500000000001137
 30
0.0
 42
0.7105995019814511
  0
VERTEX
  5
1FBC
  8
SAPA_PROFIL
 10
-18.586384015500919
 20
-35.035076580641999
 30
0.0
  0
VERTEX
  5
1FBD
  8
SAPA_PROFIL
 10
-18.000000000000231
 20
-35.500000000001137
 30
0.0
  0
VERTEX
  5
1FBE
  8
SAPA_PROFIL
 10
-11.30000000000018
 20
-35.500000000001137
 30
0.0
 42
0.4142135623730951
  0
VERTEX
  5
1FBF
  8
SAPA_PROFIL
 10
-11.00000000000022
 20
-35.200000000000948
 30
0.0
  0
VERTEX
  5
1FC0
  8
SAPA_PROFIL
 10
-11.00000000000022
 20
-34.500000000001137
 30
0.0
 42
0.4142135623730951
  0
VERTEX
  5
1FC1
  8
SAPA_PROFIL
 10
-11.30000000000018
 20
-34.200000000000962
 30
0.0
  0
VERTEX
  5
1FC2
  8
SAPA_PROFIL
 10
-14.200000000000269
 20
-34.200000000000962
 30
0.0
 42
-0.4142135623730951
  0
VERTEX
  5
1FC3
  8
SAPA_PROFIL
 10
-14.700000000000269
 20
-33.700000000000962
 30
0.0
  0
VERTEX
  5
1FC4
  8
SAPA_PROFIL
 10
-14.700000000000269
 20
-30.50000000000114
 30
0.0
 42
-0.4142135623730951
  0
VERTEX
  5
1FC5
  8
SAPA_PROFIL
 10
-14.200000000000269
 20
-30.00000000000114
 30
0.0
  0
SEQEND
  5
1FC6
  8
SAPA_PROFIL
  0
POLYLINE
  5
1449
  8
SAPA_GLAS
 66
     1
 10
0.0
 20
0.0
 30
0.0
  0
VERTEX
  5
1FF2
  8
SAPA_GLAS
 10
-40.999999999995673
 20
-48.499999999010242
 30
0.0
  0
VERTEX
  5
1FF3
  8
SAPA_GLAS
 10
-10.99999999999568
 20
-48.499999999010242
 30
0.0
  0
VERTEX
  5
1FF4
  8
SAPA_GLAS
 10
-10.99999999999568
 20
-44.499999999010242
 30
0.0
  0
VERTEX
  5
1FF5
  8
SAPA_GLAS
 10
-40.999999999995673
 20
-44.499999999010242
 30
0.0
  0
SEQEND
  5
1FF6
  8
SAPA_GLAS
  0
POLYLINE
  5
144A
  8
SAPA_GLAS
 66
     1
 10
0.0
 20
0.0
 30
0.0
  0
VERTEX
  5
1FF7
  8
SAPA_GLAS
 10
-20.99999999999477
 20
-60.499999999010242
 30
0.0
  0
VERTEX
  5
1FF8
  8
SAPA_GLAS
 10
-20.99999999999477
 20
-48.499999999010242
 30
0.0
  0
VERTEX
  5
1FF9
  8
SAPA_GLAS
 10
-10.99999999999568
 20
-48.499999999010242
 30
0.0
  0
VERTEX
  5
1FFA
  8
SAPA_GLAS
 10
-10.99999999999568
 20
-60.499999999010242
 30
0.0
  0
VERTEX
  5
1FFB
  8
SAPA_GLAS
 10
-20.99999999999477
 20
-60.499999999010242
 30
0.0
  0
SEQEND
  5
1FFC
  8
SAPA_GLAS
  0
POLYLINE
  5
144B
  8
SAPA_GLAS
 66
     1
 10
0.0
 20
0.0
 30
0.0
  0
VERTEX
  5
1FFD
  8
SAPA_GLAS
 10
-40.999999999995673
 20
-64.499999999010242
 30
0.0
  0
VERTEX
  5
1FFE
  8
SAPA_GLAS
 10
-10.99999999999568
 20
-64.499999999010242
 30
0.0
  0
VERTEX
  5
1FFF
  8
SAPA_GLAS
 10
-10.99999999999568
 20
-60.499999999010242
 30
0.0
  0
VERTEX
  5
2000
  8
SAPA_GLAS
 10
-40.999999999995673
 20
-60.499999999010242
 30
0.0
  0
SEQEND
  5
2001
  8
SAPA_GLAS
  0
POLYLINE
  5
144C
  8
SAPA_GLAS
 66
     1
 10
0.0
 20
0.0
 30
0.0
  0
VERTEX
  5
2002
  8
SAPA_GLAS
 10
-20.99999999999477
 20
-76.499999999011834
 30
0.0
  0
VERTEX
  5
2003
  8
SAPA_GLAS
 10
-20.99999999999477
 20
-64.499999999010242
 30
0.0
  0
VERTEX
  5
2004
  8
SAPA_GLAS
 10
-10.99999999999568
 20
-64.499999999010242
 30
0.0
  0
VERTEX
  5
2005
  8
SAPA_GLAS
 10
-10.99999999999568
 20
-76.499999999011834
 30
0.0
  0
VERTEX
  5
2006
  8
SAPA_GLAS
 10
-20.99999999999477
 20
-76.499999999011834
 30
0.0
  0
SEQEND
  5
2007
  8
SAPA_GLAS
  0
POLYLINE
  5
144D
  8
SAPA_GLAS
 66
     1
 10
0.0
 20
0.0
 30
0.0
  0
VERTEX
  5
2008
  8
SAPA_GLAS
 10
-40.999999999995673
 20
-82.499999999011834
 30
0.0
  0
VERTEX
  5
2009
  8
SAPA_GLAS
 10
-10.99999999999568
 20
-82.499999999011834
 30
0.0
  0
VERTEX
  5
200A
  8
SAPA_GLAS
 10
-10.99999999999568
 20
-76.499999999011834
 30
0.0
  0
VERTEX
  5
200B
  8
SAPA_GLAS
 10
-40.999999999995673
 20
-76.499999999011834
 30
0.0
  0
SEQEND
  5
200C
  8
SAPA_GLAS
  0
POLYLINE
  5
144E
  8
SAPA_GLAS
 66
     1
 10
0.0
 20
0.0
 30
0.0
  0
VERTEX
  5
200D
  8
SAPA_GLAS
 10
183.0
 20
-52.550000033388407
 30
0.0
  0
VERTEX
  5
200E
  8
SAPA_GLAS
 10
153.0
 20
-52.550000033388407
 30
0.0
  0
VERTEX
  5
200F
  8
SAPA_GLAS
 10
153.0
 20
-46.550000033388407
 30
0.0
  0
VERTEX
  5
2010
  8
SAPA_GLAS
 10
183.0
 20
-46.550000033388407
 30
0.0
  0
SEQEND
  5
2011
  8
SAPA_GLAS
  0
POLYLINE
  5
144F
  8
SAPA_GLAS
 66
     1
 10
0.0
 20
0.0
 30
0.0
  0
VERTEX
  5
2012
  8
SAPA_GLAS
 10
153.00000000000011
 20
-67.550000033388343
 30
0.0
  0
VERTEX
  5
2013
  8
SAPA_GLAS
 10
163.00000000000011
 20
-67.550000033388415
 30
0.0
  0
VERTEX
  5
2014
  8
SAPA_GLAS
 10
163.0
 20
-52.550000033388407
 30
0.0
  0
VERTEX
  5
2015
  8
SAPA_GLAS
 10
153.0
 20
-52.550000033388407
 30
0.0
  0
VERTEX
  5
2016
  8
SAPA_GLAS
 10
153.0
 20
-67.550000033388343
 30
0.0
  0
SEQEND
  5
2017
  8
SAPA_GLAS
  0
POLYLINE
  5
1450
  8
SAPA_GLAS
 66
     1
 10
0.0
 20
0.0
 30
0.0
  0
VERTEX
  5
2018
  8
SAPA_GLAS
 10
183.00000000000011
 20
-73.550000033388415
 30
0.0
  0
VERTEX
  5
2019
  8
SAPA_GLAS
 10
153.00000000000011
 20
-73.550000033388415
 30
0.0
  0
VERTEX
  5
201A
  8
SAPA_GLAS
 10
153.00000000000011
 20
-67.550000033388415
 30
0.0
  0
VERTEX
  5
201B
  8
SAPA_GLAS
 10
183.00000000000011
 20
-67.550000033388415
 30
0.0
  0
SEQEND
  5
201C
  8
SAPA_GLAS
  0
INSERT
  5
145F
  8
SAPA_ISOLATOR
  6
CONTINUOUS
  2
*X134
 10
0.0
 20
0.0
 30
0.0
1001
ACAD
1000
HATCH
1002
{
1070
    19
1000
ANSI31
1040
0.35
1040
5.4977871437821371
1000
R14_HATCH_DATA
1000
145F
1011
1.0
1021
0.0
1031
0.0
1021
0.0
1031
0.0
1011
0.0
1021
0.0
1031
0.0
1021
1.0
1031
0.0
1011
0.0
1021
0.0
1031
0.0
1021
0.0
1031
1.0
1040
0.0
1010
0.0
1020
0.0
1030
1.0
1000
ANSI31
1070
     0
1070
     0
1071
        1
1071
        1
1071
       49
1070
     2
1040
145.13181990313629
1040
-57.463742449953379
1040
0.3006817060114675
1040
-3.1365342331756252
1040
-1.9206162522843451
1070
     0
1070
     1
1040
145.0287676695142
1040
-57.181271698413561
1040
147.46159769105819
1040
-56.295793985542382
1070
     2
1040
147.3247896337254
1040
-55.91991693722624
1040
0.400000000002539
1040
5.0614548307880307
1040
6.2831853071802364
1070
     1
1070
     1
1040
147.72478963372799
1040
-55.91991693722597
1040
147.72478963372791
1040
-45.499999952511857
1070
     1
1040
147.72478963372791
1040
-45.499999952511857
1040
147.72478963372791
1040
-35.080082967793757
1070
     2
1040
147.32478963372819
1040
-35.080082967795498
1040
0.3999999999996488
1040
6.2831853071839641
1040
7.5049157835761973
1070
     1
1070
     1
1040
147.46159769105819
1040
-34.704205919481403
1040
145.02876766952249
1040
-33.818728206613208
1070
     2
1040
145.13166611246621
1040
-33.536365634465803
1040
0.3005273892841634
1040
1.9202588802441449
1040
3.1368916050751952
1070
     0
1070
     2
1040
150.39178511899109
1040
-33.308189659527507
1040
5.5653807064749881
1040
3.1003279234522898
1040
3.1634922354923591
1070
     0
1070
     1
1040
144.82773891434249
1040
-33.186319890760167
1040
144.68906915723599
1040
-32.946136825977888
1070
     2
1040
144.8709344920309
1040
-32.841136825978182
1040
0.2100000000000017
1040
2.6179938779930789
1040
4.7123889803841781
1070
     0
1070
     1
1040
144.87093449203081
1040
-32.631136825978167
1040
145.1380490202437
1040
-32.631136825978061
1070
     1
1040
145.1380490202437
1040
-32.631136825978061
1040
145.334271086028
1040
-32.299999952511868
1070
     1
1040
145.334271086028
1040
-32.299999952511868
1040
145.90191524952539
1040
-31.316679814531359
1070
     2
1040
145.7200499147319
1040
-31.211679814533088
1040
0.209999999998109
1040
5.7595865315855992
1040
6.283185307182225
1070
     1
1070
     1
1040
145.93004991473001
1040
-31.21167981453253
1040
145.93004991473009
1040
-30.899999952509958
1070
     2
1040
145.53004991473401
1040
-30.89999995250805
1040
0.3999999999961332
1040
6.2831853071748069
1040
7.8539816339849429
1070
     1
1070
     1
1040
145.5300499147298
1040
-30.49999995251191
1040
142.13004991473011
1040
-30.49999995251186
1070
     2
1040
142.1300499147271
1040
-30.899999952508921
1040
0.3999999999970676
1040
7.8539816339672077
1040
9.4247779607767956
1070
     1
1070
     1
1040
141.7300499147301
1040
-30.899999952511891
1040
141.7300499147301
1040
-31.21167981453555
1070
     2
1040
141.94004991472499
1040
-31.211679814533891
1040
0.2099999999949489
1040
3.1415926535976761
1040
3.6651914291943042
1070
     1
1070
     1
1040
141.75818457993529
1040
-31.316679814532488
1040
142.3259047262973
1040
-32.299999952511868
1070
     1
1040
142.3259047262973
1040
-32.299999952511868
1040
142.6692803992695
1040
-32.894744064182753
1070
     2
1040
141.63004991471911
1040
-33.494744064188858
1040
1.2000000000109059
1040
-0.5235987755989325
1040
-0.0000000000022795
1070
     0
1070
     1
1040
142.83004991473001
1040
-33.494744064186122
1040
142.83004991472981
1040
-34.446608397072559
1070
     2
1040
143.830049914722
1040
-34.446608397063542
1040
0.9999999999922533
1040
3.1415926535988019
1040
4.3633231299913087
1070
     1
1070
     1
1040
143.4880297714042
1040
-35.386301017844048
1040
145.66159769105781
1040
-36.177415042753907
1070
     2
1040
145.52478963372661
1040
-36.55329209106938
1040
0.4000000000013905
1040
-1.2217304763946191
1040
-0.0000000000023892
1070
     0
1070
     1
1040
145.92478963372801
1040
-36.553292091068428
1040
145.92478963372801
1040
-45.499999952511857
1070
     1
1040
145.92478963372801
1040
-45.499999952511857
1040
145.92478963372801
1040
-54.446707813955342
1070
     2
1040
145.5247896337294
1040
-54.44670781395633
1040
0.3999999999985775
1040
-0.0000000000024847
1040
1.2217304763897181
1070
     0
1070
     1
1040
145.66159769106159
1040
-54.822584862268499
1040
143.4880297714044
1040
-55.613698887179609
1070
     2
1040
143.83004991474331
1040
-56.553391507974773
1040
1.000000000013211
1040
8.2030474843825996
1040
9.4247779607748186
1070
     1
1070
     1
1040
142.83004991473001
1040
-56.553391507980201
1040
142.83004991473001
1040
-57.505255840837712
1070
     2
1040
141.63004991474099
1040
-57.50525584084069
1040
1.1999999999890261
1040
-0.0000000000024949
1040
0.5235987755941554
1070
     0
1070
     1
1040
142.66928039927529
1040
-58.105255840830907
1040
142.3300499147301
1040
-58.692820275539397
1070
     1
1040
142.3300499147301
1040
-58.692820275539397
1040
141.7581845799354
1040
-59.683320090491343
1070
     2
1040
141.94004991473651
1040
-59.788320090493002
1040
0.2100000000063851
1040
8.9011791851794602
1040
9.4247779607761366
1070
     1
1070
     1
1040
141.7300499147301
1040
-59.788320090494423
1040
141.7300499147301
1040
-60.099999952511929
1070
     2
1040
142.13004991473301
1040
-60.099999952508973
1040
0.40000000000295
1040
3.1415926535972249
1040
4.7123889803872041
1070
     1
1070
     1
1040
142.130049914734
1040
-60.499999952511907
1040
145.53004991473011
1040
-60.499999952511907
1070
     2
1040
145.5300499147281
1040
-60.099999952509933
1040
0.4000000000019782
1040
4.712388980389691
1040
6.283185307179699
1070
     1
1070
     1
1040
145.93004991473009
1040
-60.09999995250989
1040
145.93004991473009
1040
-59.78832009049124
1070
     2
1040
145.72004991472821
1040
-59.788320090491709
1040
0.2100000000019078
1040
6.2831853071818378
1040
6.8067840827784662
1070
     1
1070
     1
1040
145.90191524952451
1040
-59.683320090490653
1040
145.1380490202437
1040
-58.368863079045653
1070
     1
1040
145.1380490202437
1040
-58.368863079045653
1040
144.87093449203081
1040
-58.368863079045539
1070
     2
1040
144.8709344920309
1040
-58.158863079045538
1040
0.2100000000000017
1040
1.570796326795403
1040
3.6651914291865029
1070
     0
1070
     1
1040
144.68906915723599
1040
-58.053863079045833
1040
144.82773891434249
1040
-57.813680014263532
1070
     2
1040
150.3917851184336
1040
-57.69181024549313
1040
5.5653807059176952
1040
3.11969307168448
1040
3.1828573837245471
1070
     0
1071
        0
1070
     0
1070
     1
1040
5.4977871437821371
1040
0.35
1070
     0
1070
     1
1040
0.0
1040
0.0
1040
0.0
1040
0.0000000000000003
1040
1.111249999999999
1070
     0
1071
        1
1040
147.72478982674809
1040
-60.500000103327679
1040
0.0
1002
}
  0
INSERT
  5
1460
  8
SAPA_ISOLATOR
  6
CONTINUOUS
  2
*X135
 10
0.0
 20
0.0
 30
0.0
1001
ACAD
1000
HATCH
1002
{
1070
    19
1000
ANSI31
1040
0.35
1040
5.4977871437821371
1000
R14_HATCH_DATA
1000
1460
1011
1.0
1021
0.0
1031
0.0
1021
0.0
1031
0.0
1011
0.0
1021
0.0
1031
0.0
1021
1.0
1031
0.0
1011
0.0
1021
0.0
1031
0.0
1021
0.0
1031
1.0
1040
0.0
1010
0.0
1020
0.0
1030
1.0
1000
ANSI31
1070
     0
1070
     0
1071
        1
1071
        7
1070
     1
1070
     1
1071
       24
1040
100.4728548131617
1040
-33.497893952488468
1040
-0.1309057172584691
1040
100.6318669041958
1040
-32.900948248575212
1040
0.0
1040
101.5728548131092
1040
-31.259999952462572
1040
0.0
1040
101.57285481310061
1040
-30.89999995246227
1040
0.4142135623728775
1040
101.17285481309111
1040
-30.49999995247201
1040
0.0
1040
97.772854813091143
1040
-30.499999952551761
1040
0.4142135623731472
1040
97.372854813100489
1040
-30.899999952561291
1040
0.0
1040
97.372854813109115
1040
-31.259999952561639
1040
0.0
1040
98.164855707577544
1040
-32.641136825978201
1040
0.0
1040
98.431970235790558
1040
-32.641136825978201
1040
-0.5773502691895098
1040
98.613835570585223
1040
-32.956136825977907
1040
0.0
1040
98.472854813161675
1040
-33.200322660725753
1040
0.0
1040
98.472854813161675
1040
-57.799677244215538
1040
0.0
1040
98.613835570585124
1040
-58.04386307896344
1040
-0.5773502691896486
1040
98.431970235790558
1040
-58.358863078963147
1040
0.0
1040
98.164855707577544
1040
-58.35886307896304
1040
0.0
1040
97.372854813109115
1040
-59.739999952379812
1040
0.0
1040
97.372854813100602
1040
-60.09999995238006
1040
0.4142135623730794
1040
97.772854813091143
1040
-60.499999952389643
1040
0.0
1040
101.17285481309111
1040
-60.499999952469388
1040
0.4142135623729623
1040
101.57285481310061
1040
-60.099999952479017
1040
0.0
1040
101.5728548131092
1040
-59.739999952478612
1040
0.0
1040
100.6318669041958
1040
-58.0990516563662
1040
-0.1309134860018382
1040
100.4728548137217
1040
-57.502069290767949
1040
0.0
1071
        0
1070
     0
1070
     1
1040
5.4977871437821371
1040
0.35
1070
     0
1070
     1
1040
0.0
1040
66.544631942456846
1040
-84.515999338818617
1040
0.0000000000000003
1040
1.111249999999999
1070
     0
1040
0.1003283970076292
1071
        1
1040
99.687791031508652
1040
-46.0344345553452
1040
0.0
1002
}
  0
INSERT
  5
1461
  8
SAPA_ISOLATOR
  6
CONTINUOUS
  2
*X136
 10
0.0
 20
0.0
 30
0.0
1001
ACAD
1000
HATCH
1002
{
1070
    19
1000
ANSI31
1040
0.35
1040
5.4977871437821371
1000
R14_HATCH_DATA
1000
1461
1011
1.0
1021
0.0
1031
0.0
1021
0.0
1031
0.0
1011
0.0
1021
0.0
1031
0.0
1021
1.0
1031
0.0
1011
0.0
1021
0.0
1031
0.0
1021
0.0
1031
1.0
1040
0.0
1010
0.0
1020
0.0
1030
1.0
1000
ANSI31
1070
     0
1070
     0
1071
        1
1071
        1
1071
       49
1070
     2
1040
33.872564969343493
1040
-57.463742454446503
1040
0.3006817060114675
1040
0.0050584204141675
1040
1.2209764013054469
1070
     1
1070
     1
1040
33.975617202965573
1040
-57.181271702906677
1040
31.542787181421549
1040
-56.295793990035492
1070
     2
1040
31.67959523875437
1040
-55.919916941719357
1040
0.400000000002539
1040
1.919862177198238
1040
3.1415926535904428
1070
     0
1070
     1
1040
31.279595238751821
1040
-55.919916941719087
1040
31.27959523875186
1040
-45.499999957004967
1070
     1
1040
31.27959523875186
1040
-45.499999957004967
1040
31.279595238751909
1040
-35.080082972286881
1070
     2
1040
31.67959523875156
1040
-35.080082972288622
1040
0.3999999999996488
1040
3.1415926535941709
1040
4.3633231299864041
1070
     0
1070
     1
1040
31.54278718142163
1040
-34.704205923974513
1040
33.975617202957316
1040
-33.818728211106333
1070
     2
1040
33.872718760013591
1040
-33.53636563895892
1040
0.3005273892841634
1040
5.0618515338339378
1040
6.2784842586649878
1070
     1
1070
     2
1040
28.612599753488659
1040
-33.308189664020631
1040
5.5653807064749881
1040
6.2419205770420829
1040
6.3050848890821518
1070
     1
1070
     1
1040
34.176645958137271
1040
-33.186319895253291
1040
34.315315715243798
1040
-32.946136830471012
1070
     2
1040
34.133450380448899
1040
-32.841136830471299
1040
0.2100000000000017
1040
5.7595865315828716
1040
7.8539816339739712
1070
     1
1070
     1
1040
34.133450380449013
1040
-32.631136830471291
1040
33.866335852236091
1040
-32.631136830471178
1070
     1
1040
33.866335852236091
1040
-32.631136830471178
1040
33.670113786451793
1040
-32.299999957004992
1070
     1
1040
33.670113786451793
1040
-32.299999957004992
1040
33.102469622954352
1040
-31.316679819024468
1070
     2
1040
33.284334957747888
1040
-31.211679819026202
1040
0.209999999998109
1040
2.6179938779958061
1040
3.1415926535924319
1070
     0
1070
     1
1040
33.074334957749777
1040
-31.211679819025651
1040
33.07433495774967
1040
-30.899999957003079
1070
     2
1040
33.47433495774581
1040
-30.899999957001171
1040
0.3999999999961332
1040
3.1415926535850138
1040
4.7123889803951498
1070
     0
1070
     1
1040
33.474334957749988
1040
-30.499999957005031
1040
36.874334957749738
1040
-30.499999957004981
1070
     2
1040
36.874334957752652
1040
-30.899999957002041
1040
0.3999999999970676
1040
4.7123889803774146
1040
6.2831853071870016
1070
     0
1070
     1
1040
37.274334957749723
1040
-30.899999957005011
1040
37.274334957749723
1040
-31.21167981902866
1070
     2
1040
37.064334957754767
1040
-31.211679819027012
1040
0.2099999999949489
1040
0.0000000000078835
1040
0.5235987756045111
1070
     0
1070
     1
1040
37.246200292544479
1040
-31.316679819025609
1040
36.678480146182437
1040
-32.299999957004992
1070
     1
1040
36.678480146182437
1040
-32.299999957004992
1040
36.335104473210322
1040
-32.894744068675863
1070
     2
1040
37.374334957760709
1040
-33.494744068681982
1040
1.2000000000109059
1040
2.6179938779908598
1040
3.1415926535875132
1070
     1
1070
     1
1040
36.174334957749807
1040
-33.494744068679239
1040
36.174334957750027
1040
-34.446608401565669
1070
     2
1040
35.174334957757779
1040
-34.446608401556659
1040
0.9999999999922533
1040
0.0000000000090097
1040
1.221730476401516
1070
     0
1070
     1
1040
35.516355101075654
1040
-35.386301022337157
1040
33.342787181421961
1040
-36.177415047247031
1070
     2
1040
33.479595238753227
1040
-36.553292095562497
1040
0.4000000000013905
1040
1.9198621771951729
1040
3.141592653587403
1070
     1
1070
     1
1040
33.079595238751828
1040
-36.553292095561552
1040
33.079595238751828
1040
-45.499999957004967
1070
     1
1040
33.079595238751828
1040
-45.499999957004967
1040
33.079595238751779
1040
-54.446707818448459
1070
     2
1040
33.479595238750363
1040
-54.446707818449447
1040
0.3999999999985775
1040
3.141592653587308
1040
4.363323129979511
1070
     1
1070
     1
1040
33.342787181418203
1040
-54.822584866761623
1040
35.516355101075419
1040
-55.613698891672733
1070
     2
1040
35.174334957736541
1040
-56.553391512467883
1040
1.000000000013211
1040
5.0614548307928056
1040
6.2831853071850263
1070
     0
1070
     1
1040
36.17433495774975
1040
-56.553391512473318
1040
36.17433495774975
1040
-57.505255845330822
1070
     2
1040
37.374334957738782
1040
-57.505255845333807
1040
1.1999999999890261
1040
3.1415926535872978
1040
3.665191429183948
1070
     1
1070
     1
1040
36.335104473204467
1040
-58.105255845324031
1040
36.674334957749693
1040
-58.692820280032521
1070
     1
1040
36.674334957749693
1040
-58.692820280032521
1040
37.246200292544422
1040
-59.683320094984452
1070
     2
1040
37.06433495774327
1040
-59.788320094986119
1040
0.2100000000063851
1040
5.759586531589667
1040
6.2831853071863426
1070
     0
1070
     1
1040
37.274334957749659
1040
-59.78832009498754
1040
37.274334957749723
1040
-60.099999957005053
1070
     2
1040
36.874334957746768
1040
-60.09999995700209
1040
0.40000000000295
1040
0.0000000000074323
1040
1.570796326797411
1070
     0
1070
     1
1040
36.874334957745759
1040
-60.499999957005031
1040
33.474334957749697
1040
-60.499999957005031
1070
     2
1040
33.474334957751708
1040
-60.099999957003043
1040
0.4000000000019782
1040
1.5707963267998979
1040
3.1415926535899059
1070
     0
1070
     1
1040
33.074334957749727
1040
-60.099999957003007
1040
33.074334957749727
1040
-59.788320094984357
1070
     2
1040
33.284334957751639
1040
-59.788320094984833
1040
0.2100000000019078
1040
3.1415926535920451
1040
3.6651914291886731
1070
     0
1070
     1
1040
33.102469622955311
1040
-59.68332009498377
1040
33.866335852236091
1040
-58.36886308353877
1070
     1
1040
33.866335852236091
1040
-58.36886308353877
1040
34.133450380449013
1040
-58.368863083538649
1070
     2
1040
34.133450380448899
1040
-58.158863083538648
1040
0.2100000000000017
1040
4.7123889803851959
1040
6.8067840827762964
1070
     1
1070
     1
1040
34.315315715243798
1040
-58.053863083538943
1040
34.176645958137271
1040
-57.813680018756649
1070
     2
1040
28.612599754046158
1040
-57.691810249986247
1040
5.5653807059176952
1040
6.2612857252742726
1040
6.3244500373143397
1070
     1
1071
        0
1070
     0
1070
     1
1040
5.4977871437821371
1040
0.35
1070
     0
1070
     1
1040
0.0
1040
31.279595045731639
1040
-60.500000107820789
1040
0.0000000000000003
1040
1.111249999999999
1070
     0
1071
        1
1040
31.279595045731639
1040
-60.500000107820789
1040
0.0
1002
}
  0
INSERT
  5
1462
  8
SAPA_ISOLATOR
  6
CONTINUOUS
  2
*X137
 10
0.0
 20
0.0
 30
0.0
1001
ACAD
1000
HATCH
1002
{
1070
    19
1000
ANSI31
1040
0.35
1040
5.4977871437821371
1000
R14_HATCH_DATA
1000
1462
1011
1.0
1021
0.0
1031
0.0
1021
0.0
1031
0.0
1011
0.0
1021
0.0
1031
0.0
1021
1.0
1031
0.0
1011
0.0
1021
0.0
1031
0.0
1021
0.0
1031
1.0
1040
0.0
1010
0.0
1020
0.0
1030
1.0
1000
ANSI31
1070
     0
1070
     0
1071
        1
1071
        7
1070
     1
1070
     1
1071
       24
1040
78.527121362179287
1040
-33.497893956981358
1040
0.1309057172584691
1040
78.368109271145158
1040
-32.900948253068087
1040
0.0
1040
77.427121362231787
1040
-31.259999956955461
1040
0.0
1040
77.427121362240314
1040
-30.89999995695516
1040
-0.4142135623728775
1040
77.827121362249841
1040
-30.499999956964899
1040
0.0
1040
81.227121362249804
1040
-30.499999957044651
1040
-0.4142135623731472
1040
81.627121362240473
1040
-30.899999957054181
1040
0.0
1040
81.627121362231819
1040
-31.259999957054529
1040
0.0
1040
80.835120467763431
1040
-32.64113683047109
1040
0.0
1040
80.568005939550403
1040
-32.64113683047109
1040
0.5773502691895098
1040
80.386140604755724
1040
-32.956136830470797
1040
0.0
1040
80.527121362179287
1040
-33.200322665218643
1040
0.0
1040
80.527121362179287
1040
-57.799677248708427
1040
0.0
1040
80.386140604755838
1040
-58.04386308345633
1040
0.5773502691896486
1040
80.568005939550403
1040
-58.358863083456043
1040
0.0
1040
80.835120467763431
1040
-58.358863083455923
1040
0.0
1040
81.627121362231819
1040
-59.739999956872708
1040
0.0
1040
81.627121362240345
1040
-60.099999956872942
1040
-0.4142135623730794
1040
81.227121362249804
1040
-60.499999956882533
1040
0.0
1040
77.827121362249841
1040
-60.499999956962291
1040
-0.4142135623729623
1040
77.427121362240314
1040
-60.099999956971907
1040
0.0
1040
77.427121362231787
1040
-59.739999956971502
1040
0.0
1040
78.368109271145158
1040
-58.099051660859089
1040
0.1309134860018382
1040
78.527121361619265
1040
-57.502069295260839
1040
0.0
1071
        0
1070
     0
1070
     1
1040
5.4977871437821371
1040
0.35
1070
     0
1070
     1
1040
0.0
1040
0.0
1040
0.0
1040
0.0000000000000003
1040
1.111249999999999
1070
     0
1040
0.1003283970076292
1071
        1
1040
79.312185143832295
1040
-46.034434559838097
1040
0.0
1002
}
  0
LINE
  5
1463
  8
SAPA_ISOLATOR
 10
25.000017830782269
 20
-19.383797270178121
 30
0.0
 11
31.194641597965202
 21
-19.383797270178121
 31
0.0
  0
LINE
  5
1464
  8
SAPA_ISOLATOR
 10
25.000017830782269
 20
-44.57868055338988
 30
0.0
 11
25.000017830782269
 21
-19.383797270178121
 31
0.0
  0
LINE
  5
1465
  8
SAPA_ISOLATOR
 10
31.194641597967021
 20
-44.57868055338988
 30
0.0
 11
25.000017830782269
 21
-44.57868055338988
 31
0.0
  0
LINE
  5
1466
  8
SAPA_ISOLATOR
 10
31.200017830782269
 20
-19.383797270178121
 30
0.0
 11
31.194641597967021
 21
-44.57868055338988
 31
0.0
  0
LINE
  5
1467
  8
SAPA_ISOLATOR
 10
31.194641597967021
 20
-44.57868055338988
 30
0.0
 11
25.000017830782269
 21
-19.383797270178121
 31
0.0
  0
LINE
  5
1468
  8
SAPA_ISOLATOR
 10
31.216605133667731
 20
-19.383797270178121
 30
0.0
 11
25.011228900852469
 21
-44.57868055338988
 31
0.0
  0
CIRCLE
  5
1490
  8
SAPA_FOGBAND
 10
18.616845196720529
 20
-84.637568177760485
 30
0.0
 40
0.2549509756796394
  0
INSERT
  5
1491
  8
SAPA_FOGBAND
  6
CONTINUOUS
  2
*U140
 10
0.0
 20
0.0
 30
0.0
1001
ACAD
1002
{
1000
R14_HATCH_DATA
1000
1491
1011
1.0
1021
0.0
1031
0.0
1021
0.0
1031
0.0
1011
0.0
1021
0.0
1031
0.0
1021
1.0
1031
0.0
1011
0.0
1021
0.0
1031
0.0
1021
0.0
1031
1.0
1040
0.0
1010
0.0
1020
0.0
1030
1.0
1000
SOLID
1070
     1
1070
     1
1071
        1
1071
        1
1071
        1
1070
     2
1040
18.616845196720529
1040
-84.637568177760485
1040
0.2549509756796394
1040
-3.1415926535897931
1040
3.1415926535897931
1070
     0
1071
        1
1005
1490
1070
     0
1070
     1
1071
        1
1040
18.853584098290639
1040
-84.555716680431615
1040
0.0
1002
}
  0
POLYLINE
  5
1492
  8
SAPA_FOGBAND
 66
     1
 10
0.0
 20
0.0
 30
0.0
 70
     1
  0
VERTEX
  5
22EE
  8
SAPA_FOGBAND
 10
17.716845196720548
 20
-87.599999957005025
 30
0.0
 42
-0.9999999999999998
  0
VERTEX
  5
22EF
  8
SAPA_FOGBAND
 10
19.51684519672051
 20
-87.599999957005025
 30
0.0
  0
VERTEX
  5
22F0
  8
SAPA_FOGBAND
 10
19.51684519672051
 20
-88.199999957005033
 30
0.0
 42
-0.9999999999999998
  0
VERTEX
  5
22F1
  8
SAPA_FOGBAND
 10
17.716845196720548
 20
-88.199999957005033
 30
0.0
  0
SEQEND
  5
22F2
  8
SAPA_FOGBAND
  0
POLYLINE
  5
1493
  8
SAPA_FOGBAND
 66
     1
 10
0.0
 20
0.0
 30
0.0
 70
     1
  0
VERTEX
  5
22F3
  8
SAPA_FOGBAND
 10
27.244721504893729
 20
-82.499999957005002
 30
0.0
 42
-0.0775891054856093
  0
VERTEX
  5
22F4
  8
SAPA_FOGBAND
 10
23.777939774471179
 20
-82.816635941066352
 30
0.0
  0
VERTEX
  5
22F5
  8
SAPA_FOGBAND
 10
23.54005028164238
 20
-82.599999957004954
 30
0.0
 42
0.5773502691896298
  0
VERTEX
  5
22F6
  8
SAPA_FOGBAND
 10
23.193640120128521
 20
-82.599999957004954
 30
0.0
  0
VERTEX
  5
22F7
  8
SAPA_FOGBAND
 10
22.955592503397721
 20
-82.816909811228015
 30
0.0
  0
VERTEX
  5
22F8
  8
SAPA_FOGBAND
 10
22.178097893481091
 20
-82.816909811228015
 30
0.0
  0
VERTEX
  5
22F9
  8
SAPA_FOGBAND
 10
21.94005028164236
 20
-82.599999957004954
 30
0.0
 42
0.577350269189699
  0
VERTEX
  5
22FA
  8
SAPA_FOGBAND
 10
21.593640120128612
 20
-82.599999957004954
 30
0.0
  0
VERTEX
  5
22FB
  8
SAPA_FOGBAND
 10
21.355592503397819
 20
-82.816909811228015
 30
0.0
  0
VERTEX
  5
22FC
  8
SAPA_FOGBAND
 10
20.578097893481068
 20
-82.816909811228015
 30
0.0
  0
VERTEX
  5
22FD
  8
SAPA_FOGBAND
 10
20.340050281642341
 20
-82.599999957004954
 30
0.0
 42
0.577350269189699
  0
VERTEX
  5
22FE
  8
SAPA_FOGBAND
 10
19.993640120128589
 20
-82.599999957004954
 30
0.0
  0
VERTEX
  5
22FF
  8
SAPA_FOGBAND
 10
19.755592503397789
 20
-82.816909811228015
 30
0.0
  0
VERTEX
  5
2300
  8
SAPA_FOGBAND
 10
18.978097893481049
 20
-82.816909811228015
 30
0.0
  0
VERTEX
  5
2301
  8
SAPA_FOGBAND
 10
18.740050281642421
 20
-82.599999957004954
 30
0.0
 42
0.5773502691896298
  0
VERTEX
  5
2302
  8
SAPA_FOGBAND
 10
18.393640120128559
 20
-82.599999957004954
 30
0.0
  0
VERTEX
  5
2303
  8
SAPA_FOGBAND
 10
18.15559250339777
 20
-82.816909811228015
 30
0.0
  0
VERTEX
  5
2304
  8
SAPA_FOGBAND
 10
17.378097893481019
 20
-82.816909811228015
 30
0.0
  0
VERTEX
  5
2305
  8
SAPA_FOGBAND
 10
17.140050281642399
 20
-82.599999957004954
 30
0.0
 42
0.5773502691896298
  0
VERTEX
  5
2306
  8
SAPA_FOGBAND
 10
16.79364012012854
 20
-82.599999957004954
 30
0.0
  0
VERTEX
  5
2307
  8
SAPA_FOGBAND
 10
16.555592503397751
 20
-82.816909811228015
 30
0.0
  0
VERTEX
  5
2308
  8
SAPA_FOGBAND
 10
15.778097889316079
 20
-82.816909811228015
 30
0.0
  0
VERTEX
  5
2309
  8
SAPA_FOGBAND
 10
15.54005027747735
 20
-82.599999957004954
 30
0.0
 42
0.577350269189699
  0
VERTEX
  5
230A
  8
SAPA_FOGBAND
 10
15.1936401159636
 20
-82.599999957004954
 30
0.0
  0
VERTEX
  5
230B
  8
SAPA_FOGBAND
 10
14.3936401164085
 20
-83.673330025489463
 30
0.0
 42
0.1316524987190269
  0
VERTEX
  5
230C
  8
SAPA_FOGBAND
 10
14.366845196720529
 20
-83.773330026260155
 30
0.0
  0
VERTEX
  5
230D
  8
SAPA_FOGBAND
 10
14.366845196720419
 20
-86.299999957004957
 30
0.0
 42
0.4142135623730951
  0
VERTEX
  5
230E
  8
SAPA_FOGBAND
 10
14.566845196720459
 20
-86.499999957005002
 30
0.0
  0
VERTEX
  5
230F
  8
SAPA_FOGBAND
 10
16.616845196720529
 20
-86.499999957005002
 30
0.0
 42
-0.4142135623730951
  0
VERTEX
  5
2310
  8
SAPA_FOGBAND
 10
17.116845196720529
 20
-86.999999957004988
 30
0.0
  0
VERTEX
  5
2311
  8
SAPA_FOGBAND
 10
17.116845196720529
 20
-87.726794876248164
 30
0.0
  0
VERTEX
  5
2312
  8
SAPA_FOGBAND
 10
16.865081387699998
 20
-87.794254785558564
 30
0.0
 42
0.4740571810232869
  0
VERTEX
  5
2313
  8
SAPA_FOGBAND
 10
16.73778752533644
 20
-88.076537371197205
 30
0.0
  0
VERTEX
  5
2314
  8
SAPA_FOGBAND
 10
17.357888028094969
 20
-89.522743507956989
 30
0.0
 42
0.2846003776495916
  0
VERTEX
  5
2315
  8
SAPA_FOGBAND
 10
17.805532206555199
 20
-89.799999957004957
 30
0.0
  0
VERTEX
  5
2316
  8
SAPA_FOGBAND
 10
19.428158186885749
 20
-89.799999957004957
 30
0.0
 42
0.2846003776495917
  0
VERTEX
  5
2317
  8
SAPA_FOGBAND
 10
19.875802365345969
 20
-89.522743507956989
 30
0.0
  0
VERTEX
  5
2318
  8
SAPA_FOGBAND
 10
20.495902868104508
 20
-88.076537371197205
 30
0.0
 42
0.4740571810232869
  0
VERTEX
  5
2319
  8
SAPA_FOGBAND
 10
20.36860900574095
 20
-87.794254785558564
 30
0.0
  0
VERTEX
  5
231A
  8
SAPA_FOGBAND
 10
20.116845196720529
 20
-87.726794876248164
 30
0.0
  0
VERTEX
  5
231B
  8
SAPA_FOGBAND
 10
20.116845196720529
 20
-86.999999957004988
 30
0.0
 42
-0.4142135623730951
  0
VERTEX
  5
231C
  8
SAPA_FOGBAND
 10
20.616845196720529
 20
-86.499999957005002
 30
0.0
  0
VERTEX
  5
231D
  8
SAPA_FOGBAND
 10
23.666845196720491
 20
-86.499999957005002
 30
0.0
 42
-0.4142135623730951
  0
VERTEX
  5
231E
  8
SAPA_FOGBAND
 10
23.866845196720529
 20
-86.699999957005048
 30
0.0
  0
VERTEX
  5
231F
  8
SAPA_FOGBAND
 10
23.866845196720419
 20
-87.599999957005025
 30
0.0
 42
0.4142135623731784
  0
VERTEX
  5
2320
  8
SAPA_FOGBAND
 10
24.066845196720461
 20
-87.799999957004957
 30
0.0
  0
VERTEX
  5
2321
  8
SAPA_FOGBAND
 10
24.76684519672051
 20
-87.79999995700507
 30
0.0
 42
0.4142135623730398
  0
VERTEX
  5
2322
  8
SAPA_FOGBAND
 10
25.066845196720472
 20
-87.499999957005002
 30
0.0
  0
VERTEX
  5
2323
  8
SAPA_FOGBAND
 10
25.066845196720472
 20
-86.689488180353464
 30
0.0
 42
-0.1316524975873973
  0
VERTEX
  5
2324
  8
SAPA_FOGBAND
 10
25.334794389151629
 20
-85.689488180353464
 30
0.0
  0
VERTEX
  5
2325
  8
SAPA_FOGBAND
 10
30.497639539192051
 20
-83.099920188261535
 30
0.0
 42
0.7057658529986604
  0
VERTEX
  5
2326
  8
SAPA_FOGBAND
 10
30.230046363833711
 20
-82.499999957005002
 30
0.0
  0
SEQEND
  5
2327
  8
SAPA_FOGBAND
  0
POLYLINE
  5
1494
  8
SAPA_FOGBAND
 66
     1
 10
0.0
 20
0.0
 30
0.0
 70
     1
  0
VERTEX
  5
2328
  8
SAPA_FOGBAND
 10
19.30339354938296
 20
-34.185369460357037
 30
0.0
 42
0.9999999999999998
  0
VERTEX
  5
2329
  8
SAPA_FOGBAND
 10
21.103393549382972
 20
-34.185369460357037
 30
0.0
  0
VERTEX
  5
232A
  8
SAPA_FOGBAND
 10
21.103393549382972
 20
-33.585369460357022
 30
0.0
 42
0.9999999999999998
  0
VERTEX
  5
232B
  8
SAPA_FOGBAND
 10
19.30339354938296
 20
-33.585369460357022
 30
0.0
  0
SEQEND
  5
232C
  8
SAPA_FOGBAND
  0
POLYLINE
  5
1495
  8
SAPA_FOGBAND
 66
     1
 10
0.0
 20
0.0
 30
0.0
  0
VERTEX
  5
232D
  8
SAPA_FOGBAND
 10
23.80339354938296
 20
-35.799999957995851
 30
0.0
  0
VERTEX
  5
232E
  8
SAPA_FOGBAND
 10
23.80339354938296
 20
-35.499999957995783
 30
0.0
  0
VERTEX
  5
232F
  8
SAPA_FOGBAND
 10
23.80339354938296
 20
-35.799999957995851
 30
0.0
 42
-0.4142135623730951
  0
VERTEX
  5
2330
  8
SAPA_FOGBAND
 10
23.30339354938296
 20
-36.299999957995851
 30
0.0
  0
VERTEX
  5
2331
  8
SAPA_FOGBAND
 10
16.003393549382999
 20
-36.299999957995851
 30
0.0
 42
-0.4142135623730951
  0
VERTEX
  5
2332
  8
SAPA_FOGBAND
 10
15.503393549383
 20
-35.799999957995851
 30
0.0
  0
VERTEX
  5
2333
  8
SAPA_FOGBAND
 10
15.503393549383
 20
-35.499999957995783
 30
0.0
  0
SEQEND
  5
2334
  8
SAPA_FOGBAND
  0
POLYLINE
  5
1496
  8
SAPA_FOGBAND
 66
     1
 10
0.0
 20
0.0
 30
0.0
 70
     1
  0
VERTEX
  5
2335
  8
SAPA_FOGBAND
 10
17.151678439679308
 20
-40.099999957995777
 30
0.0
  0
VERTEX
  5
2336
  8
SAPA_FOGBAND
 10
20.24632254900515
 20
-40.099999957995777
 30
0.0
 42
-1.024758115298622
  0
VERTEX
  5
2337
  8
SAPA_FOGBAND
 10
20.24632254900515
 20
-43.281531750781269
 30
0.0
  0
VERTEX
  5
2338
  8
SAPA_FOGBAND
 10
17.151678439679308
 20
-43.281531750781269
 30
0.0
 42
-0.9558128803175696
  0
SEQEND
  5
2339
  8
SAPA_FOGBAND
  0
POLYLINE
  5
1497
  8
SAPA_FOGBAND
 66
     1
 10
0.0
 20
0.0
 30
0.0
 70
     1
  0
VERTEX
  5
233A
  8
SAPA_FOGBAND
 10
7.920348100560016
 20
-41.936054084741443
 30
0.0
 42
0.6274939020253784
  0
VERTEX
  5
233B
  8
SAPA_FOGBAND
 10
7.9312729229931573
 20
-43.494698578703172
 30
0.0
  0
VERTEX
  5
233C
  8
SAPA_FOGBAND
 10
11.90713291635781
 20
-44.05844158262591
 30
0.0
 42
0.4459602482749359
  0
VERTEX
  5
233D
  8
SAPA_FOGBAND
 10
12.90339354938301
 20
-43.163604228393552
 30
0.0
  0
VERTEX
  5
233E
  8
SAPA_FOGBAND
 10
12.90339354938301
 20
-40.440292903528842
 30
0.0
 42
0.6245270939358744
  0
VERTEX
  5
233F
  8
SAPA_FOGBAND
 10
11.4499968768678
 20
-39.730537929718139
 30
0.0
  0
SEQEND
  5
2340
  8
SAPA_FOGBAND
  0
POLYLINE
  5
1498
  8
SAPA_FOGBAND
 66
     1
 10
0.0
 20
0.0
 30
0.0
 70
     1
  0
VERTEX
  5
2341
  8
SAPA_FOGBAND
 10
18.703393549382991
 20
-34.058574541113899
 30
0.0
  0
VERTEX
  5
2342
  8
SAPA_FOGBAND
 10
18.45162974036252
 20
-33.991114631803498
 30
0.0
 42
-0.4740571810232144
  0
VERTEX
  5
2343
  8
SAPA_FOGBAND
 10
18.324335877998902
 20
-33.708832046164851
 30
0.0
  0
VERTEX
  5
2344
  8
SAPA_FOGBAND
 10
18.944436380757491
 20
-32.26262590940496
 30
0.0
 42
-0.2846003776496053
  0
VERTEX
  5
2345
  8
SAPA_FOGBAND
 10
19.392080559217661
 20
-31.985369460356988
 30
0.0
  0
VERTEX
  5
2346
  8
SAPA_FOGBAND
 10
21.014706539548271
 20
-31.985369460356988
 30
0.0
 42
-0.2846003776496027
  0
VERTEX
  5
2347
  8
SAPA_FOGBAND
 10
21.462350718008441
 20
-32.26262590940496
 30
0.0
  0
VERTEX
  5
2348
  8
SAPA_FOGBAND
 10
22.08245122076703
 20
-33.7088320461649
 30
0.0
 42
-0.4740571810232332
  0
VERTEX
  5
2349
  8
SAPA_FOGBAND
 10
21.955157358403468
 20
-33.991114631803498
 30
0.0
  0
VERTEX
  5
234A
  8
SAPA_FOGBAND
 10
21.703393549382991
 20
-34.058574541113899
 30
0.0
  0
VERTEX
  5
234B
  8
SAPA_FOGBAND
 10
21.703393549382991
 20
-34.99999995799579
 30
0.0
 42
0.4142135623730951
  0
VERTEX
  5
234C
  8
SAPA_FOGBAND
 10
22.203393549383001
 20
-35.499999957995783
 30
0.0
  0
VERTEX
  5
234D
  8
SAPA_FOGBAND
 10
24.71555371276445
 20
-35.49999995799584
 30
0.0
 42
-0.4027293761437467
  0
VERTEX
  5
234E
  8
SAPA_FOGBAND
 10
25.01532126636231
 20
-35.788192595465148
 30
0.0
  0
VERTEX
  5
234F
  8
SAPA_FOGBAND
 10
25.503161081031731
 20
-45.188192595465182
 30
0.0
 42
-0.4257917699693538
  0
VERTEX
  5
2350
  8
SAPA_FOGBAND
 10
25.203393527433882
 20
-45.499999957995833
 30
0.0
  0
VERTEX
  5
2351
  8
SAPA_FOGBAND
 10
11.49785986821
 20
-45.499999957995833
 30
0.0
  0
VERTEX
  5
2352
  8
SAPA_FOGBAND
 10
5.8947182704831258
 20
-44.723465040313208
 30
0.0
 42
-0.322530093016903
  0
VERTEX
  5
2353
  8
SAPA_FOGBAND
 10
5.2033935274338576
 20
-43.72938773520724
 30
0.0
  0
VERTEX
  5
2354
  8
SAPA_FOGBAND
 10
5.2033935274338576
 20
-42.498644178769659
 30
0.0
 42
-0.2325311832130604
  0
VERTEX
  5
2355
  8
SAPA_FOGBAND
 10
5.3980562841270769
 20
-42.102703314687858
 30
0.0
  0
VERTEX
  5
2356
  8
SAPA_FOGBAND
 10
14.56461951203458
 20
-35.708118229832337
 30
0.0
 42
-0.1657205760184606
  0
VERTEX
  5
2357
  8
SAPA_FOGBAND
 10
15.1752939986482
 20
-35.499999957995783
 30
0.0
  0
VERTEX
  5
2358
  8
SAPA_FOGBAND
 10
18.203393549382991
 20
-35.499999957995783
 30
0.0
 42
0.4142135623730951
  0
VERTEX
  5
2359
  8
SAPA_FOGBAND
 10
18.703393549382991
 20
-34.99999995799579
 30
0.0
  0
SEQEND
  5
235A
  8
SAPA_FOGBAND
  0
CIRCLE
  5
1499
  8
SAPA_FOGBAND
 10
-18.629356795612921
 20
-85.028466855359738
 30
0.0
 40
0.2549509756796394
  0
INSERT
  5
149A
  8
SAPA_FOGBAND
  6
CONTINUOUS
  2
*U141
 10
0.0
 20
0.0
 30
0.0
1001
ACAD
1002
{
1000
R14_HATCH_DATA
1000
149A
1011
1.0
1021
0.0
1031
0.0
1021
0.0
1031
0.0
1011
0.0
1021
0.0
1031
0.0
1021
1.0
1031
0.0
1011
0.0
1021
0.0
1031
0.0
1021
0.0
1031
1.0
1040
0.0
1010
0.0
1020
0.0
1030
1.0
1000
SOLID
1070
     1
1070
     1
1071
        1
1071
        1
1071
        1
1070
     2
1040
-18.629356795612921
1040
-85.028466855359738
1040
0.2549509756796394
1040
0.0
1040
6.2831853071795862
1070
     1
1071
        1
1005
1499
1070
     0
1070
     1
1071
        1
1040
-577.52116078462973
1040
-436.1916187600666
1040
0.0
1002
}
  0
POLYLINE
  5
149B
  8
SAPA_FOGBAND
 66
     1
 10
0.0
 20
0.0
 30
0.0
 70
     1
  0
VERTEX
  5
236C
  8
SAPA_FOGBAND
 10
-17.729356795613281
 20
-87.599999999011061
 30
0.0
 42
0.9999999999999998
  0
VERTEX
  5
236D
  8
SAPA_FOGBAND
 10
-19.52935679561347
 20
-87.599999999011061
 30
0.0
  0
VERTEX
  5
236E
  8
SAPA_FOGBAND
 10
-19.52935679561347
 20
-88.199999999011425
 30
0.0
 42
0.9999999999999998
  0
VERTEX
  5
236F
  8
SAPA_FOGBAND
 10
-17.729356795613281
 20
-88.199999999011425
 30
0.0
  0
SEQEND
  5
2370
  8
SAPA_FOGBAND
  0
POLYLINE
  5
149C
  8
SAPA_FOGBAND
 66
     1
 10
0.0
 20
0.0
 30
0.0
 70
     1
  0
VERTEX
  5
2371
  8
SAPA_FOGBAND
 10
-14.379356795612919
 20
-84.164228703859635
 30
0.0
  0
VERTEX
  5
2372
  8
SAPA_FOGBAND
 10
-14.379356795612919
 20
-86.299999999010865
 30
0.0
 42
-0.4142135623730951
  0
VERTEX
  5
2373
  8
SAPA_FOGBAND
 10
-14.579356795612741
 20
-86.499999999010683
 30
0.0
  0
VERTEX
  5
2374
  8
SAPA_FOGBAND
 10
-16.629356795612921
 20
-86.499999999010683
 30
0.0
 42
0.4142135623730951
  0
VERTEX
  5
2375
  8
SAPA_FOGBAND
 10
-17.129356795612921
 20
-86.999999999010697
 30
0.0
  0
VERTEX
  5
2376
  8
SAPA_FOGBAND
 10
-17.129356795612921
 20
-87.726794918254427
 30
0.0
  0
VERTEX
  5
2377
  8
SAPA_FOGBAND
 10
-16.87759298659261
 20
-87.794254827564373
 30
0.0
 42
-0.4740571810232154
  0
VERTEX
  5
2378
  8
SAPA_FOGBAND
 10
-16.750299124229279
 20
-88.076537413202686
 30
0.0
  0
VERTEX
  5
2379
  8
SAPA_FOGBAND
 10
-17.370399626988039
 20
-89.522743549963025
 30
0.0
 42
-0.2846003776496056
  0
VERTEX
  5
237A
  8
SAPA_FOGBAND
 10
-17.818043805448038
 20
-89.799999999010865
 30
0.0
  0
VERTEX
  5
237B
  8
SAPA_FOGBAND
 10
-19.440669785778709
 20
-89.799999999010865
 30
0.0
 42
-0.2846003776496054
  0
VERTEX
  5
237C
  8
SAPA_FOGBAND
 10
-19.888313964238701
 20
-89.522743549963025
 30
0.0
  0
VERTEX
  5
237D
  8
SAPA_FOGBAND
 10
-20.508414466997468
 20
-88.076537413202686
 30
0.0
 42
-0.4740571810232154
  0
VERTEX
  5
237E
  8
SAPA_FOGBAND
 10
-20.381120604633232
 20
-87.794254827564373
 30
0.0
  0
VERTEX
  5
237F
  8
SAPA_FOGBAND
 10
-20.129356795612921
 20
-87.726794918254427
 30
0.0
  0
VERTEX
  5
2380
  8
SAPA_FOGBAND
 10
-20.129356795612921
 20
-86.999999999010697
 30
0.0
 42
0.4142135623730951
  0
VERTEX
  5
2381
  8
SAPA_FOGBAND
 10
-20.629356795612921
 20
-86.499999999010683
 30
0.0
  0
VERTEX
  5
2382
  8
SAPA_FOGBAND
 10
-23.679356795613099
 20
-86.499999999010683
 30
0.0
 42
0.4142135623730951
  0
VERTEX
  5
2383
  8
SAPA_FOGBAND
 10
-23.879356795612921
 20
-86.699999999011425
 30
0.0
  0
VERTEX
  5
2384
  8
SAPA_FOGBAND
 10
-23.879356795612921
 20
-87.599999999011061
 30
0.0
 42
-0.4142135623730951
  0
VERTEX
  5
2385
  8
SAPA_FOGBAND
 10
-24.079356795612739
 20
-87.799999999010879
 30
0.0
  0
VERTEX
  5
2386
  8
SAPA_FOGBAND
 10
-24.77935679561347
 20
-87.799999999010879
 30
0.0
 42
-0.4142135623730951
  0
VERTEX
  5
2387
  8
SAPA_FOGBAND
 10
-25.079356795612739
 20
-87.499999999010683
 30
0.0
  0
VERTEX
  5
2388
  8
SAPA_FOGBAND
 10
-25.079356795612739
 20
-86.689488222358932
 30
0.0
 42
0.1316524975873982
  0
VERTEX
  5
2389
  8
SAPA_FOGBAND
 10
-25.347305988044582
 20
-85.689488222358946
 30
0.0
  0
VERTEX
  5
238A
  8
SAPA_FOGBAND
 10
-29.318018525146051
 20
-83.054121304015325
 30
0.0
 42
-0.876976462992761
  0
VERTEX
  5
238B
  8
SAPA_FOGBAND
 10
-29.21511293523622
 20
-82.536779967899065
 30
0.0
  0
VERTEX
  5
238C
  8
SAPA_FOGBAND
 10
-23.790451373364021
 20
-83.090624764442737
 30
0.0
 42
0.1353185728426623
  0
VERTEX
  5
238D
  8
SAPA_FOGBAND
 10
-23.790451373364021
 20
-83.090624764442737
 30
0.0
  0
VERTEX
  5
238E
  8
SAPA_FOGBAND
 10
-23.552561880535219
 20
-82.678588072042885
 30
0.0
 42
-0.5773502691896196
  0
VERTEX
  5
238F
  8
SAPA_FOGBAND
 10
-23.206151719020681
 20
-82.678588072042885
 30
0.0
  0
VERTEX
  5
2390
  8
SAPA_FOGBAND
 10
-22.968104102289772
 20
-83.090898634604173
 30
0.0
  0
VERTEX
  5
2391
  8
SAPA_FOGBAND
 10
-22.1906094923736
 20
-83.090898634604173
 30
0.0
  0
VERTEX
  5
2392
  8
SAPA_FOGBAND
 10
-21.952561880534859
 20
-82.678588072042885
 30
0.0
 42
-0.5773502691896196
  0
VERTEX
  5
2393
  8
SAPA_FOGBAND
 10
-21.606151719021231
 20
-82.678588072042885
 30
0.0
  0
VERTEX
  5
2394
  8
SAPA_FOGBAND
 10
-21.368104102290321
 20
-83.090898634604173
 30
0.0
  0
VERTEX
  5
2395
  8
SAPA_FOGBAND
 10
-20.590609492373229
 20
-83.090898634604173
 30
0.0
  0
VERTEX
  5
2396
  8
SAPA_FOGBAND
 10
-20.352561880535411
 20
-82.678588072042885
 30
0.0
 42
-0.5773502691896196
  0
VERTEX
  5
2397
  8
SAPA_FOGBAND
 10
-20.00615171902087
 20
-82.678588072042885
 30
0.0
  0
VERTEX
  5
2398
  8
SAPA_FOGBAND
 10
-19.768104102290859
 20
-83.090898634604173
 30
0.0
  0
VERTEX
  5
2399
  8
SAPA_FOGBAND
 10
-18.990609492373778
 20
-83.090898634604173
 30
0.0
  0
VERTEX
  5
239A
  8
SAPA_FOGBAND
 10
-18.75256188053504
 20
-82.678588072042885
 30
0.0
 42
-0.5773502691896196
  0
VERTEX
  5
239B
  8
SAPA_FOGBAND
 10
-18.406151719021409
 20
-82.678588072042885
 30
0.0
  0
VERTEX
  5
239C
  8
SAPA_FOGBAND
 10
-18.168104102290499
 20
-83.090898634604173
 30
0.0
  0
VERTEX
  5
239D
  8
SAPA_FOGBAND
 10
-17.390609492373411
 20
-83.090898634604173
 30
0.0
  0
VERTEX
  5
239E
  8
SAPA_FOGBAND
 10
-17.15256188053468
 20
-82.678588072042885
 30
0.0
 42
-0.5773502691896196
  0
VERTEX
  5
239F
  8
SAPA_FOGBAND
 10
-16.806151719021042
 20
-82.678588072042885
 30
0.0
  0
VERTEX
  5
23A0
  8
SAPA_FOGBAND
 10
-16.568104102290128
 20
-83.090898634604173
 30
0.0
  0
VERTEX
  5
23A1
  8
SAPA_FOGBAND
 10
-15.790609488208471
 20
-83.090898634604173
 30
0.0
  0
VERTEX
  5
23A2
  8
SAPA_FOGBAND
 10
-15.55256187636973
 20
-82.678588072042885
 30
0.0
 42
-0.5773502691896196
  0
VERTEX
  5
23A3
  8
SAPA_FOGBAND
 10
-15.2061517148561
 20
-82.678588072042885
 30
0.0
  0
VERTEX
  5
23A4
  8
SAPA_FOGBAND
 10
-14.40615171530157
 20
-84.064228703088915
 30
0.0
 42
-0.1316524987190407
  0
SEQEND
  5
23A5
  8
SAPA_FOGBAND
  0
POLYLINE
  5
149D
  8
SAPA_FOGBAND
 66
     1
 10
0.0
 20
0.0
 30
0.0
 70
     1
  0
VERTEX
  5
23A6
  8
SAPA_FOGBAND
 10
-21.953090993535849
 20
-33.991114672817268
 30
0.0
 42
-0.4740571810231764
  0
VERTEX
  5
23A7
  8
SAPA_FOGBAND
 10
-22.08038485589918
 20
-33.708832087178962
 30
0.0
  0
VERTEX
  5
23A8
  8
SAPA_FOGBAND
 10
-21.46028435314042
 20
-32.262625950418631
 30
0.0
 42
-0.2846003776496257
  0
VERTEX
  5
23A9
  8
SAPA_FOGBAND
 10
-21.012640174680431
 20
-31.985369501370769
 30
0.0
  0
VERTEX
  5
23AA
  8
SAPA_FOGBAND
 10
-19.39001419434976
 20
-31.985369501370769
 30
0.0
 42
-0.2846003776496159
  0
VERTEX
  5
23AB
  8
SAPA_FOGBAND
 10
-18.942370015889761
 20
-32.262625950418631
 30
0.0
  0
VERTEX
  5
23AC
  8
SAPA_FOGBAND
 10
-18.322269513131001
 20
-33.708832087178962
 30
0.0
 42
-0.4740571810232354
  0
VERTEX
  5
23AD
  8
SAPA_FOGBAND
 10
-18.449563375494328
 20
-33.991114672817268
 30
0.0
  0
VERTEX
  5
23AE
  8
SAPA_FOGBAND
 10
-18.701327184515549
 20
-34.058574582128131
 30
0.0
  0
VERTEX
  5
23AF
  8
SAPA_FOGBAND
 10
-18.701327184515549
 20
-34.99999999900956
 30
0.0
 42
0.4142135623730951
  0
VERTEX
  5
23B0
  8
SAPA_FOGBAND
 10
-18.201327184515549
 20
-35.49999999900956
 30
0.0
  0
VERTEX
  5
23B1
  8
SAPA_FOGBAND
 10
-15.17322763378092
 20
-35.49999999900956
 30
0.0
 42
-0.1657205760184635
  0
VERTEX
  5
23B2
  8
SAPA_FOGBAND
 10
-14.562553147167129
 20
-35.708118270846171
 30
0.0
  0
VERTEX
  5
23B3
  8
SAPA_FOGBAND
 10
-5.194662756689695
 20
-40.602703355701799
 30
0.0
 42
-0.2325311832130358
  0
VERTEX
  5
23B4
  8
SAPA_FOGBAND
 10
-4.9999999999965894
 20
-40.998644219783948
 30
0.0
  0
VERTEX
  5
23B5
  8
SAPA_FOGBAND
 10
-4.9999999999965894
 20
-42.729387776221067
 30
0.0
 42
-0.3826682380870913
  0
VERTEX
  5
23B6
  8
SAPA_FOGBAND
 10
-5.8913247430457432
 20
-43.723465081326808
 30
0.0
  0
VERTEX
  5
23B7
  8
SAPA_FOGBAND
 10
-11.49579350334284
 20
-44.499999999010242
 30
0.0
  0
VERTEX
  5
23B8
  8
SAPA_FOGBAND
 10
-25.2013271625658
 20
-44.499999999010242
 30
0.0
 42
-0.4257917699693507
  0
VERTEX
  5
23B9
  8
SAPA_FOGBAND
 10
-25.501094716163841
 20
-44.188192636479243
 30
0.0
  0
VERTEX
  5
23BA
  8
SAPA_FOGBAND
 10
-25.01325490149452
 20
-35.788192636478932
 30
0.0
 42
-0.4027293761437475
  0
VERTEX
  5
23BB
  8
SAPA_FOGBAND
 10
-24.713487347896489
 20
-35.49999999900956
 30
0.0
  0
VERTEX
  5
23BC
  8
SAPA_FOGBAND
 10
-22.201327184515549
 20
-35.49999999900956
 30
0.0
 42
0.4142135623730951
  0
VERTEX
  5
23BD
  8
SAPA_FOGBAND
 10
-21.701327184514639
 20
-34.99999999900956
 30
0.0
  0
VERTEX
  5
23BE
  8
SAPA_FOGBAND
 10
-21.701327184514639
 20
-34.058574582128131
 30
0.0
  0
SEQEND
  5
23BF
  8
SAPA_FOGBAND
  0
POLYLINE
  5
149E
  8
SAPA_FOGBAND
 66
     1
 10
0.0
 20
0.0
 30
0.0
 70
     1
  0
VERTEX
  5
23C0
  8
SAPA_FOGBAND
 10
-19.301327184514999
 20
-33.585369501371133
 30
0.0
  0
VERTEX
  5
23C1
  8
SAPA_FOGBAND
 10
-19.301327184514999
 20
-34.185369501370587
 30
0.0
 42
-0.9999999999999998
  0
VERTEX
  5
23C2
  8
SAPA_FOGBAND
 10
-21.101327184515181
 20
-34.185369501370587
 30
0.0
  0
VERTEX
  5
23C3
  8
SAPA_FOGBAND
 10
-21.101327184515181
 20
-33.585369501371133
 30
0.0
 42
-0.9999999999999998
  0
SEQEND
  5
23C4
  8
SAPA_FOGBAND
  0
POLYLINE
  5
149F
  8
SAPA_FOGBAND
 66
     1
 10
0.0
 20
0.0
 30
0.0
  0
VERTEX
  5
23C5
  8
SAPA_FOGBAND
 10
-23.801327184514999
 20
-35.49999999900956
 30
0.0
  0
VERTEX
  5
23C6
  8
SAPA_FOGBAND
 10
-23.801327184514999
 20
-35.799999999009742
 30
0.0
 42
0.4142135623730951
  0
VERTEX
  5
23C7
  8
SAPA_FOGBAND
 10
-23.301327184514999
 20
-36.299999999009742
 30
0.0
  0
VERTEX
  5
23C8
  8
SAPA_FOGBAND
 10
-16.001327184514821
 20
-36.299999999009742
 30
0.0
 42
0.4142135623730951
  0
VERTEX
  5
23C9
  8
SAPA_FOGBAND
 10
-15.501327184514819
 20
-35.799999999009742
 30
0.0
  0
VERTEX
  5
23CA
  8
SAPA_FOGBAND
 10
-15.501327184515731
 20
-35.49999999900956
 30
0.0
  0
SEQEND
  5
23CB
  8
SAPA_FOGBAND
  0
POLYLINE
  5
14A0
  8
SAPA_FOGBAND
 10
-22.264574318352743
 20
-40.061832548749742
 30
0.0
 66
     1
 70
     8
  0
VERTEX
  8
SAPA_FOGBAND
  5
24D3
 10
-22.2646
 20
-40.0618
 30
0.000000
  70
    32
  0
VERTEX
  8
SAPA_FOGBAND
  5
24D4
 10
-22.2598
 20
-40.1446
 30
0.000000
  70
    32
  0
VERTEX
  8
SAPA_FOGBAND
  5
24D5
 10
-22.2470
 20
-40.2271
 30
0.000000
  70
    32
  0
VERTEX
  8
SAPA_FOGBAND
  5
24D6
 10
-22.2264
 20
-40.3091
 30
0.000000
  70
    32
  0
VERTEX
  8
SAPA_FOGBAND
  5
24D7
 10
-22.1979
 20
-40.3904
 30
0.000000
  70
    32
  0
VERTEX
  8
SAPA_FOGBAND
  5
24D8
 10
-22.1616
 20
-40.4709
 30
0.000000
  70
    32
  0
VERTEX
  8
SAPA_FOGBAND
  5
24D9
 10
-22.1177
 20
-40.5503
 30
0.000000
  70
    32
  0
VERTEX
  8
SAPA_FOGBAND
  5
24DA
 10
-22.0661
 20
-40.6285
 30
0.000000
  70
    32
  0
VERTEX
  8
SAPA_FOGBAND
  5
24DB
 10
-22.0071
 20
-40.7052
 30
0.000000
  70
    32
  0
VERTEX
  8
SAPA_FOGBAND
  5
24DC
 10
-21.9407
 20
-40.7802
 30
0.000000
  70
    32
  0
VERTEX
  8
SAPA_FOGBAND
  5
24DD
 10
-21.8672
 20
-40.8535
 30
0.000000
  70
    32
  0
VERTEX
  8
SAPA_FOGBAND
  5
24DE
 10
-21.7867
 20
-40.9248
 30
0.000000
  70
    32
  0
VERTEX
  8
SAPA_FOGBAND
  5
24DF
 10
-21.6994
 20
-40.9939
 30
0.000000
  70
    32
  0
VERTEX
  8
SAPA_FOGBAND
  5
24E0
 10
-21.6055
 20
-41.0607
 30
0.000000
  70
    32
  0
VERTEX
  8
SAPA_FOGBAND
  5
24E1
 10
-21.5052
 20
-41.1250
 30
0.000000
  70
    32
  0
VERTEX
  8
SAPA_FOGBAND
  5
24E2
 10
-21.3989
 20
-41.1867
 30
0.000000
  70
    32
  0
VERTEX
  8
SAPA_FOGBAND
  5
24E3
 10
-21.2867
 20
-41.2455
 30
0.000000
  70
    32
  0
VERTEX
  8
SAPA_FOGBAND
  5
24E4
 10
-21.1688
 20
-41.3015
 30
0.000000
  70
    32
  0
VERTEX
  8
SAPA_FOGBAND
  5
24E5
 10
-21.0457
 20
-41.3544
 30
0.000000
  70
    32
  0
VERTEX
  8
SAPA_FOGBAND
  5
24E6
 10
-20.9176
 20
-41.4041
 30
0.000000
  70
    32
  0
VERTEX
  8
SAPA_FOGBAND
  5
24E7
 10
-20.7848
 20
-41.4504
 30
0.000000
  70
    32
  0
VERTEX
  8
SAPA_FOGBAND
  5
24E8
 10
-20.6475
 20
-41.4934
 30
0.000000
  70
    32
  0
VERTEX
  8
SAPA_FOGBAND
  5
24E9
 10
-20.5063
 20
-41.5328
 30
0.000000
  70
    32
  0
VERTEX
  8
SAPA_FOGBAND
  5
24EA
 10
-20.3613
 20
-41.5686
 30
0.000000
  70
    32
  0
VERTEX
  8
SAPA_FOGBAND
  5
24EB
 10
-20.2130
 20
-41.6007
 30
0.000000
  70
    32
  0
VERTEX
  8
SAPA_FOGBAND
  5
24EC
 10
-20.0616
 20
-41.6290
 30
0.000000
  70
    32
  0
VERTEX
  8
SAPA_FOGBAND
  5
24ED
 10
-19.9077
 20
-41.6535
 30
0.000000
  70
    32
  0
VERTEX
  8
SAPA_FOGBAND
  5
24EE
 10
-19.7514
 20
-41.6740
 30
0.000000
  70
    32
  0
VERTEX
  8
SAPA_FOGBAND
  5
24EF
 10
-19.5933
 20
-41.6906
 30
0.000000
  70
    32
  0
VERTEX
  8
SAPA_FOGBAND
  5
24F0
 10
-19.4336
 20
-41.7032
 30
0.000000
  70
    32
  0
VERTEX
  8
SAPA_FOGBAND
  5
24F1
 10
-19.2729
 20
-41.7117
 30
0.000000
  70
    32
  0
VERTEX
  8
SAPA_FOGBAND
  5
24F2
 10
-19.1114
 20
-41.7162
 30
0.000000
  70
    32
  0
VERTEX
  8
SAPA_FOGBAND
  5
24F3
 10
-18.9495
 20
-41.7166
 30
0.000000
  70
    32
  0
VERTEX
  8
SAPA_FOGBAND
  5
24F4
 10
-18.7877
 20
-41.7130
 30
0.000000
  70
    32
  0
VERTEX
  8
SAPA_FOGBAND
  5
24F5
 10
-18.6263
 20
-41.7053
 30
0.000000
  70
    32
  0
VERTEX
  8
SAPA_FOGBAND
  5
24F6
 10
-18.4657
 20
-41.6935
 30
0.000000
  70
    32
  0
VERTEX
  8
SAPA_FOGBAND
  5
24F7
 10
-18.3064
 20
-41.6778
 30
0.000000
  70
    32
  0
VERTEX
  8
SAPA_FOGBAND
  5
24F8
 10
-18.1486
 20
-41.6581
 30
0.000000
  70
    32
  0
VERTEX
  8
SAPA_FOGBAND
  5
24F9
 10
-17.9928
 20
-41.6344
 30
0.000000
  70
    32
  0
VERTEX
  8
SAPA_FOGBAND
  5
24FA
 10
-17.8393
 20
-41.6069
 30
0.000000
  70
    32
  0
VERTEX
  8
SAPA_FOGBAND
  5
24FB
 10
-17.6886
 20
-41.5756
 30
0.000000
  70
    32
  0
VERTEX
  8
SAPA_FOGBAND
  5
24FC
 10
-17.5409
 20
-41.5406
 30
0.000000
  70
    32
  0
VERTEX
  8
SAPA_FOGBAND
  5
24FD
 10
-17.3967
 20
-41.5019
 30
0.000000
  70
    32
  0
VERTEX
  8
SAPA_FOGBAND
  5
24FE
 10
-17.2562
 20
-41.4596
 30
0.000000
  70
    32
  0
VERTEX
  8
SAPA_FOGBAND
  5
24FF
 10
-17.1199
 20
-41.4140
 30
0.000000
  70
    32
  0
VERTEX
  8
SAPA_FOGBAND
  5
2500
 10
-16.9880
 20
-41.3650
 30
0.000000
  70
    32
  0
VERTEX
  8
SAPA_FOGBAND
  5
2501
 10
-16.8609
 20
-41.3127
 30
0.000000
  70
    32
  0
VERTEX
  8
SAPA_FOGBAND
  5
2502
 10
-16.7389
 20
-41.2574
 30
0.000000
  70
    32
  0
VERTEX
  8
SAPA_FOGBAND
  5
2503
 10
-16.6222
 20
-41.1991
 30
0.000000
  70
    32
  0
VERTEX
  8
SAPA_FOGBAND
  5
2504
 10
-16.5112
 20
-41.1380
 30
0.000000
  70
    32
  0
VERTEX
  8
SAPA_FOGBAND
  5
2505
 10
-16.4061
 20
-41.0742
 30
0.000000
  70
    32
  0
VERTEX
  8
SAPA_FOGBAND
  5
2506
 10
-16.3071
 20
-41.0079
 30
0.000000
  70
    32
  0
VERTEX
  8
SAPA_FOGBAND
  5
2507
 10
-16.2146
 20
-40.9393
 30
0.000000
  70
    32
  0
VERTEX
  8
SAPA_FOGBAND
  5
2508
 10
-16.1287
 20
-40.8685
 30
0.000000
  70
    32
  0
VERTEX
  8
SAPA_FOGBAND
  5
2509
 10
-16.0496
 20
-40.7956
 30
0.000000
  70
    32
  0
VERTEX
  8
SAPA_FOGBAND
  5
250A
 10
-15.9775
 20
-40.7209
 30
0.000000
  70
    32
  0
VERTEX
  8
SAPA_FOGBAND
  5
250B
 10
-15.9127
 20
-40.6445
 30
0.000000
  70
    32
  0
VERTEX
  8
SAPA_FOGBAND
  5
250C
 10
-15.8552
 20
-40.5666
 30
0.000000
  70
    32
  0
VERTEX
  8
SAPA_FOGBAND
  5
250D
 10
-15.8052
 20
-40.4875
 30
0.000000
  70
    32
  0
VERTEX
  8
SAPA_FOGBAND
  5
250E
 10
-15.7628
 20
-40.4072
 30
0.000000
  70
    32
  0
VERTEX
  8
SAPA_FOGBAND
  5
250F
 10
-15.7281
 20
-40.3260
 30
0.000000
  70
    32
  0
VERTEX
  8
SAPA_FOGBAND
  5
2510
 10
-15.7013
 20
-40.2442
 30
0.000000
  70
    32
  0
VERTEX
  8
SAPA_FOGBAND
  5
2511
 10
-15.6823
 20
-40.1617
 30
0.000000
  70
    32
  0
VERTEX
  8
SAPA_FOGBAND
  5
2512
 10
-15.6712
 20
-40.0790
 30
0.000000
  70
    32
  0
VERTEX
  8
SAPA_FOGBAND
  5
2513
 10
-15.6680
 20
-39.9962
 30
0.000000
  70
    32
  0
VERTEX
  8
SAPA_FOGBAND
  5
2514
 10
-15.6728
 20
-39.9134
 30
0.000000
  70
    32
  0
VERTEX
  8
SAPA_FOGBAND
  5
2515
 10
-15.6856
 20
-39.8309
 30
0.000000
  70
    32
  0
VERTEX
  8
SAPA_FOGBAND
  5
2516
 10
-15.7062
 20
-39.7489
 30
0.000000
  70
    32
  0
VERTEX
  8
SAPA_FOGBAND
  5
2517
 10
-15.7347
 20
-39.6676
 30
0.000000
  70
    32
  0
VERTEX
  8
SAPA_FOGBAND
  5
2518
 10
-15.7710
 20
-39.5871
 30
0.000000
  70
    32
  0
VERTEX
  8
SAPA_FOGBAND
  5
2519
 10
-15.8149
 20
-39.5077
 30
0.000000
  70
    32
  0
VERTEX
  8
SAPA_FOGBAND
  5
251A
 10
-15.8665
 20
-39.4296
 30
0.000000
  70
    32
  0
VERTEX
  8
SAPA_FOGBAND
  5
251B
 10
-15.9255
 20
-39.3529
 30
0.000000
  70
    32
  0
VERTEX
  8
SAPA_FOGBAND
  5
251C
 10
-15.9919
 20
-39.2778
 30
0.000000
  70
    32
  0
VERTEX
  8
SAPA_FOGBAND
  5
251D
 10
-16.0654
 20
-39.2045
 30
0.000000
  70
    32
  0
VERTEX
  8
SAPA_FOGBAND
  5
251E
 10
-16.1459
 20
-39.1332
 30
0.000000
  70
    32
  0
VERTEX
  8
SAPA_FOGBAND
  5
251F
 10
-16.2332
 20
-39.0641
 30
0.000000
  70
    32
  0
VERTEX
  8
SAPA_FOGBAND
  5
2520
 10
-16.3271
 20
-38.9973
 30
0.000000
  70
    32
  0
VERTEX
  8
SAPA_FOGBAND
  5
2521
 10
-16.4274
 20
-38.9330
 30
0.000000
  70
    32
  0
VERTEX
  8
SAPA_FOGBAND
  5
2522
 10
-16.5337
 20
-38.8713
 30
0.000000
  70
    32
  0
VERTEX
  8
SAPA_FOGBAND
  5
2523
 10
-16.6460
 20
-38.8125
 30
0.000000
  70
    32
  0
VERTEX
  8
SAPA_FOGBAND
  5
2524
 10
-16.7638
 20
-38.7565
 30
0.000000
  70
    32
  0
VERTEX
  8
SAPA_FOGBAND
  5
2525
 10
-16.8869
 20
-38.7036
 30
0.000000
  70
    32
  0
VERTEX
  8
SAPA_FOGBAND
  5
2526
 10
-17.0150
 20
-38.6539
 30
0.000000
  70
    32
  0
VERTEX
  8
SAPA_FOGBAND
  5
2527
 10
-17.1479
 20
-38.6076
 30
0.000000
  70
    32
  0
VERTEX
  8
SAPA_FOGBAND
  5
2528
 10
-17.2851
 20
-38.5646
 30
0.000000
  70
    32
  0
VERTEX
  8
SAPA_FOGBAND
  5
2529
 10
-17.4263
 20
-38.5252
 30
0.000000
  70
    32
  0
VERTEX
  8
SAPA_FOGBAND
  5
252A
 10
-17.5713
 20
-38.4894
 30
0.000000
  70
    32
  0
VERTEX
  8
SAPA_FOGBAND
  5
252B
 10
-17.7196
 20
-38.4573
 30
0.000000
  70
    32
  0
VERTEX
  8
SAPA_FOGBAND
  5
252C
 10
-17.8710
 20
-38.4290
 30
0.000000
  70
    32
  0
VERTEX
  8
SAPA_FOGBAND
  5
252D
 10
-18.0249
 20
-38.4045
 30
0.000000
  70
    32
  0
VERTEX
  8
SAPA_FOGBAND
  5
252E
 10
-18.1812
 20
-38.3840
 30
0.000000
  70
    32
  0
VERTEX
  8
SAPA_FOGBAND
  5
252F
 10
-18.3393
 20
-38.3674
 30
0.000000
  70
    32
  0
VERTEX
  8
SAPA_FOGBAND
  5
2530
 10
-18.4990
 20
-38.3548
 30
0.000000
  70
    32
  0
VERTEX
  8
SAPA_FOGBAND
  5
2531
 10
-18.6597
 20
-38.3463
 30
0.000000
  70
    32
  0
VERTEX
  8
SAPA_FOGBAND
  5
2532
 10
-18.8212
 20
-38.3418
 30
0.000000
  70
    32
  0
VERTEX
  8
SAPA_FOGBAND
  5
2533
 10
-18.9831
 20
-38.3414
 30
0.000000
  70
    32
  0
VERTEX
  8
SAPA_FOGBAND
  5
2534
 10
-19.1449
 20
-38.3450
 30
0.000000
  70
    32
  0
VERTEX
  8
SAPA_FOGBAND
  5
2535
 10
-19.3063
 20
-38.3527
 30
0.000000
  70
    32
  0
VERTEX
  8
SAPA_FOGBAND
  5
2536
 10
-19.4669
 20
-38.3645
 30
0.000000
  70
    32
  0
VERTEX
  8
SAPA_FOGBAND
  5
2537
 10
-19.6262
 20
-38.3802
 30
0.000000
  70
    32
  0
VERTEX
  8
SAPA_FOGBAND
  5
2538
 10
-19.7840
 20
-38.3999
 30
0.000000
  70
    32
  0
VERTEX
  8
SAPA_FOGBAND
  5
2539
 10
-19.9398
 20
-38.4236
 30
0.000000
  70
    32
  0
VERTEX
  8
SAPA_FOGBAND
  5
253A
 10
-20.0933
 20
-38.4511
 30
0.000000
  70
    32
  0
VERTEX
  8
SAPA_FOGBAND
  5
253B
 10
-20.2440
 20
-38.4824
 30
0.000000
  70
    32
  0
VERTEX
  8
SAPA_FOGBAND
  5
253C
 10
-20.3917
 20
-38.5175
 30
0.000000
  70
    32
  0
VERTEX
  8
SAPA_FOGBAND
  5
253D
 10
-20.5359
 20
-38.5561
 30
0.000000
  70
    32
  0
VERTEX
  8
SAPA_FOGBAND
  5
253E
 10
-20.6764
 20
-38.5984
 30
0.000000
  70
    32
  0
VERTEX
  8
SAPA_FOGBAND
  5
253F
 10
-20.8127
 20
-38.6440
 30
0.000000
  70
    32
  0
VERTEX
  8
SAPA_FOGBAND
  5
2540
 10
-20.9446
 20
-38.6931
 30
0.000000
  70
    32
  0
VERTEX
  8
SAPA_FOGBAND
  5
2541
 10
-21.0717
 20
-38.7453
 30
0.000000
  70
    32
  0
VERTEX
  8
SAPA_FOGBAND
  5
2542
 10
-21.1937
 20
-38.8006
 30
0.000000
  70
    32
  0
VERTEX
  8
SAPA_FOGBAND
  5
2543
 10
-21.3104
 20
-38.8589
 30
0.000000
  70
    32
  0
VERTEX
  8
SAPA_FOGBAND
  5
2544
 10
-21.4214
 20
-38.9200
 30
0.000000
  70
    32
  0
VERTEX
  8
SAPA_FOGBAND
  5
2545
 10
-21.5266
 20
-38.9838
 30
0.000000
  70
    32
  0
VERTEX
  8
SAPA_FOGBAND
  5
2546
 10
-21.6255
 20
-39.0501
 30
0.000000
  70
    32
  0
VERTEX
  8
SAPA_FOGBAND
  5
2547
 10
-21.7180
 20
-39.1187
 30
0.000000
  70
    32
  0
VERTEX
  8
SAPA_FOGBAND
  5
2548
 10
-21.8040
 20
-39.1896
 30
0.000000
  70
    32
  0
VERTEX
  8
SAPA_FOGBAND
  5
2549
 10
-21.8830
 20
-39.2624
 30
0.000000
  70
    32
  0
VERTEX
  8
SAPA_FOGBAND
  5
254A
 10
-21.9551
 20
-39.3371
 30
0.000000
  70
    32
  0
VERTEX
  8
SAPA_FOGBAND
  5
254B
 10
-22.0199
 20
-39.4135
 30
0.000000
  70
    32
  0
VERTEX
  8
SAPA_FOGBAND
  5
254C
 10
-22.0774
 20
-39.4914
 30
0.000000
  70
    32
  0
VERTEX
  8
SAPA_FOGBAND
  5
254D
 10
-22.1274
 20
-39.5705
 30
0.000000
  70
    32
  0
VERTEX
  8
SAPA_FOGBAND
  5
254E
 10
-22.1698
 20
-39.6508
 30
0.000000
  70
    32
  0
VERTEX
  8
SAPA_FOGBAND
  5
254F
 10
-22.2045
 20
-39.7320
 30
0.000000
  70
    32
  0
VERTEX
  8
SAPA_FOGBAND
  5
2550
 10
-22.2313
 20
-39.8139
 30
0.000000
  70
    32
  0
VERTEX
  8
SAPA_FOGBAND
  5
2551
 10
-22.2503
 20
-39.8963
 30
0.000000
  70
    32
  0
VERTEX
  8
SAPA_FOGBAND
  5
2552
 10
-22.2614
 20
-39.9790
 30
0.000000
  70
    32
  0
VERTEX
  8
SAPA_FOGBAND
  5
2553
 10
-22.2646
 20
-40.0618
 30
0.000000
  70
    32
  0
SEQEND
  8
SAPA_FOGBAND
  5
2554
  0
POLYLINE
  5
14A1
  8
SAPA_FOGBAND
 66
     1
 10
0.0
 20
0.0
 30
0.0
 70
     1
  0
VERTEX
  5
23CC
  8
SAPA_FOGBAND
 10
-8.8913247649945788
 20
-42.953324864972039
 30
0.0
  0
VERTEX
  5
23CD
  8
SAPA_FOGBAND
 10
-11.892651927563969
 20
-43.44527720486235
 30
0.0
 42
-0.4464785874932524
  0
VERTEX
  5
23CE
  8
SAPA_FOGBAND
 10
-13.001327184515731
 20
-42.451199899756602
 30
0.0
  0
VERTEX
  5
23CF
  8
SAPA_FOGBAND
 10
-13.001327184515731
 20
-39.350147745599088
 30
0.0
 42
-0.622676997742357
  0
VERTEX
  5
23D0
  8
SAPA_FOGBAND
 10
-11.39065269790194
 20
-38.558266017435699
 30
0.0
  0
VERTEX
  5
23D1
  8
SAPA_FOGBAND
 10
-8.3893255353325458
 20
-41.033301339952907
 30
0.0
 42
-0.6488456670267916
  0
VERTEX
  5
23D2
  8
SAPA_FOGBAND
 10
-8.8913247649945788
 20
-42.953324864972039
 30
0.0
  0
VERTEX
  5
23D3
  8
SAPA_FOGBAND
 10
-8.8913247649945788
 20
-42.953324864972039
 30
0.0
 42
-0.7183425420956111
  0
SEQEND
  5
23D4
  8
SAPA_FOGBAND
  0
POLYLINE
  5
14A2
  8
SAPA_FOGBAND
 66
     1
 10
0.0
 20
0.0
 30
0.0
 70
     1
  0
VERTEX
  5
23D5
  8
SAPA_FOGBAND
 10
28.499999995341589
 20
-8.9392260111082162
 30
0.0
  0
VERTEX
  5
23D6
  8
SAPA_FOGBAND
 10
28.499999995341589
 20
-11.772544975527939
 30
0.0
 42
-0.577350269189628
  0
VERTEX
  5
23D7
  8
SAPA_FOGBAND
 10
28.049999995341551
 20
-12.032352596663401
 30
0.0
  0
VERTEX
  5
23D8
  8
SAPA_FOGBAND
 10
25.393650498497571
 20
-9.8906383861784342
 30
0.0
 42
0.8769764629927237
  0
VERTEX
  5
23D9
  8
SAPA_FOGBAND
 10
25.031518464141659
 20
-10.3625780416697
 30
0.0
  0
VERTEX
  5
23DA
  8
SAPA_FOGBAND
 10
28.207106776528029
 20
-14.33239155064771
 30
0.0
 42
-0.1989123673796493
  0
VERTEX
  5
23DB
  8
SAPA_FOGBAND
 10
28.499999995341589
 20
-15.03949833183415
 30
0.0
  0
VERTEX
  5
23DC
  8
SAPA_FOGBAND
 10
28.499999995341589
 20
-16.790454461268691
 30
0.0
 42
-0.577350269189628
  0
VERTEX
  5
23DD
  8
SAPA_FOGBAND
 10
28.049999995341551
 20
-17.050262082403911
 30
0.0
  0
VERTEX
  5
23DE
  8
SAPA_FOGBAND
 10
25.394519251677959
 20
-14.96921403092389
 30
0.0
 42
0.8769764629928424
  0
VERTEX
  5
23DF
  8
SAPA_FOGBAND
 10
25.03238721732205
 20
-15.441153686415159
 30
0.0
  0
VERTEX
  5
23E0
  8
SAPA_FOGBAND
 10
29.28296142384195
 20
-19.907106738191391
 30
0.0
 42
0.1989123673796579
  0
VERTEX
  5
23E1
  8
SAPA_FOGBAND
 10
29.990068205028379
 20
-20.199999957004731
 30
0.0
  0
VERTEX
  5
23E2
  8
SAPA_FOGBAND
 10
29.999999995341589
 20
-20.199999957004731
 30
0.0
 42
0.4142135623730951
  0
VERTEX
  5
23E3
  8
SAPA_FOGBAND
 10
30.999999995341589
 20
-19.199999957004731
 30
0.0
  0
VERTEX
  5
23E4
  8
SAPA_FOGBAND
 10
32.164084594465088
 20
-11.96500745623748
 30
0.0
 42
0.6261632875160376
  0
VERTEX
  5
23E5
  8
SAPA_FOGBAND
 10
31.722117791038752
 20
-11.655150527718799
 30
0.0
  0
VERTEX
  5
23E6
  8
SAPA_FOGBAND
 10
31.44577614505263
 20
-11.808788522507619
 30
0.0
 42
-0.5719685712689121
  0
VERTEX
  5
23E7
  8
SAPA_FOGBAND
 10
30.9999999953417
 20
-11.54658761828423
 30
0.0
  0
VERTEX
  5
23E8
  8
SAPA_FOGBAND
 10
30.999999995341589
 20
-8.7999999570048697
 30
0.0
 42
-0.4142135623730118
  0
VERTEX
  5
23E9
  8
SAPA_FOGBAND
 10
31.299999995341551
 20
-8.4999999570046878
 30
0.0
  0
VERTEX
  5
23EA
  8
SAPA_FOGBAND
 10
32.699999995341642
 20
-8.4999999570049152
 30
0.0
 42
0.7754026414785753
  0
VERTEX
  5
23EB
  8
SAPA_FOGBAND
 10
32.844707863647521
 20
-7.937207961597009
 30
0.0
  0
VERTEX
  5
23EC
  8
SAPA_FOGBAND
 10
25.384550964556549
 20
-3.7835742889331789
 30
0.0
 42
0.8680589103333867
  0
VERTEX
  5
23ED
  8
SAPA_FOGBAND
 10
25.027711061894621
 20
-4.2584983186969492
 30
0.0
  0
VERTEX
  5
23EE
  8
SAPA_FOGBAND
 10
28.207106776528029
 20
-8.2321192299217767
 30
0.0
 42
-0.1989123673796493
  0
SEQEND
  5
23EF
  8
SAPA_FOGBAND
  0
CIRCLE
  5
14A3
  8
SAPA_FOGBAND
 10
94.466573513995968
 20
-13.84991947303172
 30
0.0000000195376815
 40
0.25
  0
POLYLINE
  5
14A4
  8
SAPA_FOGBAND
 66
     1
 10
0.0
 20
0.0
 30
0.0000000195376815
 70
     1
  0
VERTEX
  5
23F0
  8
SAPA_FOGBAND
 10
97.172995642623277
 20
-13.21601219191086
 30
0.0000000195376815
  0
VERTEX
  5
23F1
  8
SAPA_FOGBAND
 10
95.779643815959275
 20
-13.27054388833551
 30
0.0000000195376815
  0
VERTEX
  5
23F2
  8
SAPA_FOGBAND
 10
95.779643815959275
 20
-12.203277342951081
 30
0.0000000195376815
  0
VERTEX
  5
23F3
  8
SAPA_FOGBAND
 10
96.418337323017894
 20
-12.14226718485668
 30
0.0000000195376815
 42
0.4995370695832079
  0
VERTEX
  5
23F4
  8
SAPA_FOGBAND
 10
96.537690991771228
 20
-11.845550339422401
 30
0.0000000195376815
  0
VERTEX
  5
23F5
  8
SAPA_FOGBAND
 10
95.831655016537184
 20
-10.79289244483345
 30
0.0000000195376815
 42
0.250021237196914
  0
VERTEX
  5
23F6
  8
SAPA_FOGBAND
 10
95.001160651800888
 20
-10.34991947303172
 30
0.0000000195376815
  0
VERTEX
  5
23F7
  8
SAPA_FOGBAND
 10
93.931986376191048
 20
-10.34991947303172
 30
0.0000000195376815
 42
0.250021237196914
  0
VERTEX
  5
23F8
  8
SAPA_FOGBAND
 10
93.101492011456571
 20
-10.79289244483345
 30
0.0000000195376815
  0
VERTEX
  5
23F9
  8
SAPA_FOGBAND
 10
92.395456036222527
 20
-11.845550339422401
 30
0.0000000195376815
 42
0.4995370695831766
  0
VERTEX
  5
23FA
  8
SAPA_FOGBAND
 10
92.514809704975846
 20
-12.14226718485668
 30
0.0000000195376815
  0
VERTEX
  5
23FB
  8
SAPA_FOGBAND
 10
93.122304921739556
 20
-12.207904875036769
 30
0.0000000195376815
  0
VERTEX
  5
23FC
  8
SAPA_FOGBAND
 10
93.122304921739556
 20
-13.2751714204212
 30
0.0000000195376815
  0
VERTEX
  5
23FD
  8
SAPA_FOGBAND
 10
92.234004662545772
 20
-13.25746898183831
 30
0.0000000195376815
 42
0.4400105308918379
  0
VERTEX
  5
23FE
  8
SAPA_FOGBAND
 10
92.016573513997059
 20
-13.45670792145677
 30
0.0000000195376815
  0
VERTEX
  5
23FF
  8
SAPA_FOGBAND
 10
92.016573513997059
 20
-13.491703386867011
 30
0.0000000195376815
 42
0.3888787318529988
  0
VERTEX
  5
2400
  8
SAPA_FOGBAND
 10
92.564280068347998
 20
-14.089420205722149
 30
0.0000000195376815
  0
VERTEX
  5
2401
  8
SAPA_FOGBAND
 10
93.398587583474068
 20
-14.162412655189989
 30
0.0000000195376815
 42
-0.2668174844056302
  0
VERTEX
  5
2402
  8
SAPA_FOGBAND
 10
93.562059281436504
 20
-14.27636290784551
 30
0.0000000195376815
 42
0.6341045221175712
  0
VERTEX
  5
2403
  8
SAPA_FOGBAND
 10
95.371087746557237
 20
-14.27636290784551
 30
0.0000000195376815
 42
-0.2668174844056113
  0
VERTEX
  5
2404
  8
SAPA_FOGBAND
 10
95.534559444519687
 20
-14.162412655189989
 30
0.0000000195376815
  0
VERTEX
  5
2405
  8
SAPA_FOGBAND
 10
96.364280068347284
 20
-14.08982150671147
 30
0.0000000195376815
 42
-0.3932191662530252
  0
VERTEX
  5
2406
  8
SAPA_FOGBAND
 10
97.116573513997423
 20
-14.7333886143416
 30
0.0000000195376815
 42
-0.7365260079582157
  0
VERTEX
  5
2407
  8
SAPA_FOGBAND
 10
93.683771024739031
 20
-15.70616901443327
 30
0.0000000195376815
 42
1.00000000000107
  0
VERTEX
  5
2408
  8
SAPA_FOGBAND
 10
93.199728133394174
 20
-16.060714468978631
 30
0.0000000195376815
 42
0.7363451539893881
  0
VERTEX
  5
2409
  8
SAPA_FOGBAND
 10
97.716573513995954
 20
-14.7333886143416
 30
0.0000000195376815
  0
VERTEX
  5
240A
  8
SAPA_FOGBAND
 10
97.716573513995954
 20
-13.714109540956651
 30
0.0000000195376815
 42
0.4400105308918419
  0
SEQEND
  5
240B
  8
SAPA_FOGBAND
  0
LINE
  5
14A5
  8
SAPA_FOGBAND
 10
96.800753660138881
 20
-13.200000008235969
 30
0.0
 11
96.800753660137048
 21
-13.200000008235969
 31
0.0
  0
LINE
  5
14A6
  8
SAPA_FOGBAND
 10
96.800025500138887
 20
-13.200000008235969
 30
0.0
 11
96.800025500137053
 21
-13.200000008235969
 31
0.0
  0
POLYLINE
  5
14A7
  8
SAPA_FOGBAND
 66
     1
 10
0.0
 20
0.0
 30
0.0000000195376815
 70
     1
  0
VERTEX
  5
240C
  8
SAPA_FOGBAND
 10
93.665845353996701
 20
-13.001391335607989
 30
0.0000000195376815
 42
0.6341370759941026
  0
VERTEX
  5
240D
  8
SAPA_FOGBAND
 10
93.829481717632007
 20
-13.078530257191799
 30
0.0000000195376815
 42
-0.3592455179659193
  0
VERTEX
  5
240E
  8
SAPA_FOGBAND
 10
95.102208990359941
 20
-13.078530257191799
 30
0.0000000195376815
 42
0.6341370759941019
  0
VERTEX
  5
240F
  8
SAPA_FOGBAND
 10
95.265845353997065
 20
-13.001391335607989
 30
0.0000000195376815
  0
VERTEX
  5
2410
  8
SAPA_FOGBAND
 10
95.265845353997065
 20
-11.6499194730319
 30
0.0000000195376815
 42
0.4142135623730951
  0
VERTEX
  5
2411
  8
SAPA_FOGBAND
 10
94.765845353997065
 20
-11.1499194730319
 30
0.0000000195376815
  0
VERTEX
  5
2412
  8
SAPA_FOGBAND
 10
94.165845353996687
 20
-11.1499194730319
 30
0.0000000195376815
 42
0.4142135623730951
  0
VERTEX
  5
2413
  8
SAPA_FOGBAND
 10
93.665845353996701
 20
-11.6499194730319
 30
0.0000000195376815
  0
SEQEND
  5
2414
  8
SAPA_FOGBAND
  0
CIRCLE
  5
14A8
  8
SAPA_FOGBAND
 10
94.465845353995974
 20
-13.84991947303172
 30
0.0000000195376815
 40
0.25
  0
POLYLINE
  5
14A9
  8
SAPA_FOGBAND
 66
     1
 10
0.0
 20
0.0
 30
0.0000000195376815
 70
     1
  0
VERTEX
  5
2415
  8
SAPA_FOGBAND
 10
85.335607009913687
 20
-77.998608624969734
 30
0.0000000195376815
 42
0.6341370759941026
  0
VERTEX
  5
2416
  8
SAPA_FOGBAND
 10
85.171970646277472
 20
-77.921469703385938
 30
0.0000000195376815
 42
-0.3592455179659193
  0
VERTEX
  5
2417
  8
SAPA_FOGBAND
 10
83.899243373549993
 20
-77.921469703385938
 30
0.0000000195376815
 42
0.6341370759941019
  0
VERTEX
  5
2418
  8
SAPA_FOGBAND
 10
83.735607009913309
 20
-77.998608624969734
 30
0.0000000195376815
  0
VERTEX
  5
2419
  8
SAPA_FOGBAND
 10
83.735607009913309
 20
-79.350080487545839
 30
0.0000000195376815
 42
0.4142135623730951
  0
VERTEX
  5
241A
  8
SAPA_FOGBAND
 10
84.235607009913323
 20
-79.850080487545839
 30
0.0000000195376815
  0
VERTEX
  5
241B
  8
SAPA_FOGBAND
 10
84.835607009913673
 20
-79.850080487545839
 30
0.0000000195376815
 42
0.4142135623730951
  0
VERTEX
  5
241C
  8
SAPA_FOGBAND
 10
85.335607009913687
 20
-79.350080487545839
 30
0.0000000195376815
  0
SEQEND
  5
241D
  8
SAPA_FOGBAND
  0
CIRCLE
  5
14AA
  8
SAPA_FOGBAND
 10
84.535607009913505
 20
-77.15008048754602
 30
0.0000000195376815
 40
0.25
  0
POLYLINE
  5
14AB
  8
SAPA_FOGBAND
 66
     1
 10
0.0
 20
0.0
 30
0.0000000195376815
 70
     1
  0
VERTEX
  5
241E
  8
SAPA_FOGBAND
 10
81.829184881287105
 20
-77.783987768666876
 30
0.0000000195376815
  0
VERTEX
  5
241F
  8
SAPA_FOGBAND
 10
83.222536707952017
 20
-77.729456072242215
 30
0.0000000195376815
  0
VERTEX
  5
2420
  8
SAPA_FOGBAND
 10
83.222536707952017
 20
-78.796722617626656
 30
0.0000000195376815
  0
VERTEX
  5
2421
  8
SAPA_FOGBAND
 10
82.583843200893384
 20
-78.857732775721061
 30
0.0000000195376815
 42
0.4995370695832079
  0
VERTEX
  5
2422
  8
SAPA_FOGBAND
 10
82.464489532139154
 20
-79.154449621155337
 30
0.0000000195376815
  0
VERTEX
  5
2423
  8
SAPA_FOGBAND
 10
83.170525507373654
 20
-80.207107515744283
 30
0.0000000195376815
 42
0.250021237196914
  0
VERTEX
  5
2424
  8
SAPA_FOGBAND
 10
84.001019872108586
 20
-80.65008048754602
 30
0.0000000195376815
  0
VERTEX
  5
2425
  8
SAPA_FOGBAND
 10
85.070194147718425
 20
-80.65008048754602
 30
0.0000000195376815
 42
0.250021237196914
  0
VERTEX
  5
2426
  8
SAPA_FOGBAND
 10
85.900688512453826
 20
-80.207107515744283
 30
0.0000000195376815
  0
VERTEX
  5
2427
  8
SAPA_FOGBAND
 10
86.606724487687856
 20
-79.154449621155337
 30
0.0000000195376815
 42
0.4995370695831766
  0
VERTEX
  5
2428
  8
SAPA_FOGBAND
 10
86.487370818934082
 20
-78.857732775721061
 30
0.0000000195376815
  0
VERTEX
  5
2429
  8
SAPA_FOGBAND
 10
85.879875602171737
 20
-78.792095085540964
 30
0.0000000195376815
  0
VERTEX
  5
242A
  8
SAPA_FOGBAND
 10
85.879875602171737
 20
-77.724828540156537
 30
0.0000000195376815
  0
VERTEX
  5
242B
  8
SAPA_FOGBAND
 10
86.768175861363716
 20
-77.742530978739424
 30
0.0000000195376815
 42
0.4400105308918379
  0
VERTEX
  5
242C
  8
SAPA_FOGBAND
 10
86.985607009913323
 20
-77.543292039120971
 30
0.0000000195376815
  0
VERTEX
  5
242D
  8
SAPA_FOGBAND
 10
86.985607009913323
 20
-77.508296573710723
 30
0.0000000195376815
 42
0.3888787318529988
  0
VERTEX
  5
242E
  8
SAPA_FOGBAND
 10
86.437900455562371
 20
-76.91057975485559
 30
0.0000000195376815
  0
VERTEX
  5
242F
  8
SAPA_FOGBAND
 10
85.603592940436315
 20
-76.837587305387743
 30
0.0000000195376815
 42
-0.2668174844056302
  0
VERTEX
  5
2430
  8
SAPA_FOGBAND
 10
85.440121242473865
 20
-76.723637052732229
 30
0.0000000195376815
 42
0.6341045221175712
  0
VERTEX
  5
2431
  8
SAPA_FOGBAND
 10
83.631092777353146
 20
-76.723637052732229
 30
0.0000000195376815
 42
-0.2668174844056113
  0
VERTEX
  5
2432
  8
SAPA_FOGBAND
 10
83.467621079390696
 20
-76.837587305387743
 30
0.0000000195376815
  0
VERTEX
  5
2433
  8
SAPA_FOGBAND
 10
82.637900455562175
 20
-76.910178453866266
 30
0.0000000195376815
 42
-0.3932191662530252
  0
VERTEX
  5
2434
  8
SAPA_FOGBAND
 10
81.885607009913855
 20
-76.266611346236132
 30
0.0000000195376815
 42
-0.7365260079582157
  0
VERTEX
  5
2435
  8
SAPA_FOGBAND
 10
85.318409499171352
 20
-75.293830946144524
 30
0.0000000195376815
 42
1.00000000000107
  0
VERTEX
  5
2436
  8
SAPA_FOGBAND
 10
85.802452390515754
 20
-74.939285491599165
 30
0.0000000195376815
 42
0.7363451539893881
  0
VERTEX
  5
2437
  8
SAPA_FOGBAND
 10
81.285607009913505
 20
-76.266611346236132
 30
0.0000000195376815
  0
VERTEX
  5
2438
  8
SAPA_FOGBAND
 10
81.285607009913505
 20
-77.285890419621083
 30
0.0000000195376815
 42
0.4400105308918419
  0
SEQEND
  5
2439
  8
SAPA_FOGBAND
  0
LINE
  5
14AC
  8
SAPA_FOGBAND
 10
82.201426863772426
 20
-77.799999952341764
 30
0.0
 11
82.201426863773335
 21
-77.799999952341764
 31
0.0
  0
LINE
  5
14AD
  8
SAPA_FOGBAND
 10
82.052164955728173
 20
-77.799999910755375
 30
0.0
 11
82.052164955729083
 21
-77.799999910755375
 31
0.0
  0
POLYLINE
  5
14AE
  8
SAPA_FOGBAND
 66
     1
 10
0.0
 20
0.0
 30
0.0
 70
   129
  0
VERTEX
  5
243A
  8
SAPA_FOGBAND
 10
153.56171828626429
 20
-42.915180476311662
 30
0.0
  0
VERTEX
  5
243B
  8
SAPA_FOGBAND
 10
153.6122291129677
 20
-42.67861642086131
 30
0.0
  0
VERTEX
  5
243C
  8
SAPA_FOGBAND
 10
153.76193600019539
 20
-42.450602406736373
 30
0.0
  0
VERTEX
  5
243D
  8
SAPA_FOGBAND
 10
154.00542815098601
 20
-42.239379454492102
 30
0.0
  0
VERTEX
  5
243E
  8
SAPA_FOGBAND
 10
154.33390512459749
 20
-42.052581711958958
 30
0.0
  0
VERTEX
  5
243F
  8
SAPA_FOGBAND
 10
154.7354949073642
 20
-41.896960536248798
 30
0.0
  0
VERTEX
  5
2440
  8
SAPA_FOGBAND
 10
155.19568299820639
 20
-41.778140482118708
 30
0.0
  0
VERTEX
  5
2441
  8
SAPA_FOGBAND
 10
155.6978370005117
 20
-41.700416015907408
 30
0.0
  0
VERTEX
  5
2442
  8
SAPA_FOGBAND
 10
156.22380776028689
 20
-41.666596302333112
 30
0.0
  0
VERTEX
  5
2443
  8
SAPA_FOGBAND
 10
156.75458532387159
 20
-41.6779036739606
 30
0.0
  0
VERTEX
  5
2444
  8
SAPA_FOGBAND
 10
157.27098600718909
 20
-41.733929452918566
 30
0.0
  0
VERTEX
  5
2445
  8
SAPA_FOGBAND
 10
157.75434574407609
 20
-41.832648721581108
 30
0.0
  0
VERTEX
  5
2446
  8
SAPA_FOGBAND
 10
158.18719465426051
 20
-41.970493508368911
 30
0.0
  0
VERTEX
  5
2447
  8
SAPA_FOGBAND
 10
158.55388845035031
 20
-42.142481743536109
 30
0.0
  0
VERTEX
  5
2448
  8
SAPA_FOGBAND
 10
158.84117386314389
 20
-42.342397324152671
 30
0.0
  0
VERTEX
  5
2449
  8
SAPA_FOGBAND
 10
159.038667649308
 20
-42.563014780260119
 30
0.0
  0
VERTEX
  5
244A
  8
SAPA_FOGBAND
 10
159.13923186884631
 20
-42.796360422181571
 30
0.0
  0
VERTEX
  5
244B
  8
SAPA_FOGBAND
 10
159.13923186884631
 20
-43.034000530441972
 30
0.0
  0
VERTEX
  5
244C
  8
SAPA_FOGBAND
 10
159.038667649308
 20
-43.267346172363659
 30
0.0
  0
VERTEX
  5
244D
  8
SAPA_FOGBAND
 10
158.84117386314389
 20
-43.4879636284711
 30
0.0
  0
VERTEX
  5
244E
  8
SAPA_FOGBAND
 10
158.55388845035031
 20
-43.687879209087669
 30
0.0
  0
VERTEX
  5
244F
  8
SAPA_FOGBAND
 10
158.18719465426051
 20
-43.859867444254633
 30
0.0
  0
VERTEX
  5
2450
  8
SAPA_FOGBAND
 10
157.75434574407609
 20
-43.997712231042208
 30
0.0
  0
VERTEX
  5
2451
  8
SAPA_FOGBAND
 10
157.27098600718909
 20
-44.096431499705197
 30
0.0
  0
VERTEX
  5
2452
  8
SAPA_FOGBAND
 10
156.75458532387159
 20
-44.152457278662943
 30
0.0
  0
VERTEX
  5
2453
  8
SAPA_FOGBAND
 10
156.22380776028689
 20
-44.163764650290659
 30
0.0
  0
VERTEX
  5
2454
  8
SAPA_FOGBAND
 10
155.6978370005117
 20
-44.129944936716349
 30
0.0
  0
VERTEX
  5
2455
  8
SAPA_FOGBAND
 10
155.19568299820639
 20
-44.052220470505063
 30
0.0
  0
VERTEX
  5
2456
  8
SAPA_FOGBAND
 10
154.7354949073642
 20
-43.933400416374518
 30
0.0
  0
VERTEX
  5
2457
  8
SAPA_FOGBAND
 10
154.33390512459749
 20
-43.777779240664351
 30
0.0
  0
VERTEX
  5
2458
  8
SAPA_FOGBAND
 10
154.00542815098601
 20
-43.590981498131207
 30
0.0
  0
VERTEX
  5
2459
  8
SAPA_FOGBAND
 10
153.76193600019539
 20
-43.379758545887171
 30
0.0
  0
VERTEX
  5
245A
  8
SAPA_FOGBAND
 10
153.6122291129677
 20
-43.151744531762233
 30
0.0
  0
SEQEND
  5
245B
  8
SAPA_FOGBAND
  0
POLYLINE
  5
14AF
  8
SAPA_FOGBAND
 66
     1
 10
0.0
 20
0.0
 30
0.0
  0
VERTEX
  5
245C
  8
SAPA_FOGBAND
 10
168.0563724368923
 20
-78.050000033388415
 30
0.0
 42
0.285714285714282
  0
VERTEX
  5
245D
  8
SAPA_FOGBAND
 10
165.25637243689209
 20
-78.050000033388415
 30
0.0
  0
VERTEX
  5
245E
  8
SAPA_FOGBAND
 10
163.18259226750439
 20
-78.05000003338796
 30
0.0
 42
-0.3882600129940275
  0
VERTEX
  5
245F
  8
SAPA_FOGBAND
 10
162.88379077016279
 20
-77.776789307108402
 30
0.0
  0
VERTEX
  5
2460
  8
SAPA_FOGBAND
 10
162.41758084623649
 20
-73.876789307108311
 30
0.0
 42
-0.4406523138893894
  0
VERTEX
  5
2461
  8
SAPA_FOGBAND
 10
162.7163823435786
 20
-73.550000033388415
 30
0.0
  0
VERTEX
  5
2462
  8
SAPA_FOGBAND
 10
164.4261743404987
 20
-73.550000033388415
 30
0.0
 42
-0.3394542588634375
  0
VERTEX
  5
2463
  8
SAPA_FOGBAND
 10
164.71595208838519
 20
-73.772354319857413
 30
0.0
  0
VERTEX
  5
2464
  8
SAPA_FOGBAND
 10
164.91833181631691
 20
-73.989940102025002
 30
0.0
 42
0.3394542588633663
  0
VERTEX
  5
2465
  8
SAPA_FOGBAND
 10
165.20810956420351
 20
-74.212294388494001
 30
0.0
  0
VERTEX
  5
2466
  8
SAPA_FOGBAND
 10
168.10463530958131
 20
-74.212294388494001
 30
0.0
 42
0.3394542588634373
  0
VERTEX
  5
2467
  8
SAPA_FOGBAND
 10
168.39441305746789
 20
-73.989940102025002
 30
0.0
  0
VERTEX
  5
2468
  8
SAPA_FOGBAND
 10
168.59679278539909
 20
-73.772354319857413
 30
0.0
 42
-0.3394542588633662
  0
VERTEX
  5
2469
  8
SAPA_FOGBAND
 10
168.88657053328609
 20
-73.550000033388415
 30
0.0
  0
VERTEX
  5
246A
  8
SAPA_FOGBAND
 10
170.59636253020619
 20
-73.550000033388415
 30
0.0
 42
-0.4406523138893994
  0
VERTEX
  5
246B
  8
SAPA_FOGBAND
 10
170.89516402754779
 20
-73.876789307108311
 30
0.0
  0
VERTEX
  5
246C
  8
SAPA_FOGBAND
 10
170.42895410362149
 20
-77.776789307108402
 30
0.0
 42
-0.3882600129940462
  0
VERTEX
  5
246D
  8
SAPA_FOGBAND
 10
170.13015260627989
 20
-78.050000033388415
 30
0.0
  0
VERTEX
  5
246E
  8
SAPA_FOGBAND
 10
168.06796481374261
 20
-78.050000033388415
 30
0.0
  0
SEQEND
  5
246F
  8
SAPA_FOGBAND
  0
POLYLINE
  5
14B0
  8
SAPA_FOGBAND
 66
     1
 10
0.0
 20
0.0
 30
0.0
 70
   129
  0
VERTEX
  5
2470
  8
SAPA_FOGBAND
 10
161.28637780303691
 20
-39.703733632814192
 30
0.0
  0
VERTEX
  5
2471
  8
SAPA_FOGBAND
 10
161.33688862974029
 20
-39.467169577363848
 30
0.0
  0
VERTEX
  5
2472
  8
SAPA_FOGBAND
 10
161.48659551696801
 20
-39.23915556323891
 30
0.0
  0
VERTEX
  5
2473
  8
SAPA_FOGBAND
 10
161.7300876677586
 20
-39.02793261099464
 30
0.0
  0
VERTEX
  5
2474
  8
SAPA_FOGBAND
 10
162.05856464137011
 20
-38.841134868461502
 30
0.0
  0
VERTEX
  5
2475
  8
SAPA_FOGBAND
 10
162.46015442413679
 20
-38.685513692751329
 30
0.0
  0
VERTEX
  5
2476
  8
SAPA_FOGBAND
 10
162.9203425149789
 20
-38.566693638621238
 30
0.0
  0
VERTEX
  5
2477
  8
SAPA_FOGBAND
 10
163.42249651728429
 20
-38.488969172409952
 30
0.0
  0
VERTEX
  5
2478
  8
SAPA_FOGBAND
 10
163.94846727705959
 20
-38.455149458835649
 30
0.0
  0
VERTEX
  5
2479
  8
SAPA_FOGBAND
 10
164.4792448406443
 20
-38.46645683046313
 30
0.0
  0
VERTEX
  5
247A
  8
SAPA_FOGBAND
 10
164.99564552396171
 20
-38.522482609421097
 30
0.0
  0
VERTEX
  5
247B
  8
SAPA_FOGBAND
 10
165.47900526084871
 20
-38.621201878083639
 30
0.0
  0
VERTEX
  5
247C
  8
SAPA_FOGBAND
 10
165.91185417103321
 20
-38.759046664871448
 30
0.0
  0
VERTEX
  5
247D
  8
SAPA_FOGBAND
 10
166.2785479671229
 20
-38.93103490003864
 30
0.0
  0
VERTEX
  5
247E
  8
SAPA_FOGBAND
 10
166.56583337991651
 20
-39.130950480655201
 30
0.0
  0
VERTEX
  5
247F
  8
SAPA_FOGBAND
 10
166.7633271660807
 20
-39.351567936762649
 30
0.0
  0
VERTEX
  5
2480
  8
SAPA_FOGBAND
 10
166.8638913856189
 20
-39.584913578684109
 30
0.0
  0
VERTEX
  5
2481
  8
SAPA_FOGBAND
 10
166.8638913856189
 20
-39.822553686944502
 30
0.0
  0
VERTEX
  5
2482
  8
SAPA_FOGBAND
 10
166.7633271660807
 20
-40.05589932886619
 30
0.0
  0
VERTEX
  5
2483
  8
SAPA_FOGBAND
 10
166.56583337991651
 20
-40.27651678497363
 30
0.0
  0
VERTEX
  5
2484
  8
SAPA_FOGBAND
 10
166.2785479671229
 20
-40.476432365590199
 30
0.0
  0
VERTEX
  5
2485
  8
SAPA_FOGBAND
 10
165.91185417103321
 20
-40.648420600757163
 30
0.0
  0
VERTEX
  5
2486
  8
SAPA_FOGBAND
 10
165.47900526084871
 20
-40.786265387544738
 30
0.0
  0
VERTEX
  5
2487
  8
SAPA_FOGBAND
 10
164.99564552396171
 20
-40.884984656207727
 30
0.0
  0
VERTEX
  5
2488
  8
SAPA_FOGBAND
 10
164.4792448406443
 20
-40.941010435165467
 30
0.0
  0
VERTEX
  5
2489
  8
SAPA_FOGBAND
 10
163.94846727705959
 20
-40.952317806793189
 30
0.0
  0
VERTEX
  5
248A
  8
SAPA_FOGBAND
 10
163.42249651728429
 20
-40.918498093218879
 30
0.0
  0
VERTEX
  5
248B
  8
SAPA_FOGBAND
 10
162.9203425149789
 20
-40.840773627007593
 30
0.0
  0
VERTEX
  5
248C
  8
SAPA_FOGBAND
 10
162.46015442413679
 20
-40.721953572877048
 30
0.0
  0
VERTEX
  5
248D
  8
SAPA_FOGBAND
 10
162.05856464137011
 20
-40.566332397166882
 30
0.0
  0
VERTEX
  5
248E
  8
SAPA_FOGBAND
 10
161.7300876677586
 20
-40.379534654633737
 30
0.0
  0
VERTEX
  5
248F
  8
SAPA_FOGBAND
 10
161.48659551696801
 20
-40.168311702389701
 30
0.0
  0
VERTEX
  5
2490
  8
SAPA_FOGBAND
 10
161.33688862974029
 20
-39.940297688264771
 30
0.0
  0
SEQEND
  5
2491
  8
SAPA_FOGBAND
  0
POLYLINE
  5
14B1
  8
SAPA_FOGBAND
 66
     1
 10
0.0
 20
0.0
 30
0.0
 70
     1
  0
VERTEX
  5
2492
  8
SAPA_FOGBAND
 10
147.8000000000001
 20
-44.725203195887161
 30
0.0
 42
0.3915187749346351
  0
VERTEX
  5
2493
  8
SAPA_FOGBAND
 10
148.7219776997735
 20
-45.722154809892572
 30
0.0
  0
VERTEX
  5
2494
  8
SAPA_FOGBAND
 10
156.78052420058791
 20
-46.54847584039112
 30
0.0
 42
0.0195279011117888
  0
VERTEX
  5
2495
  8
SAPA_FOGBAND
 10
156.81953535070119
 20
-46.550000033388407
 30
0.0
  0
VERTEX
  5
2496
  8
SAPA_FOGBAND
 10
170.5
 20
-46.550000033388407
 30
0.0
 42
0.4279663351069072
  0
VERTEX
  5
2497
  8
SAPA_FOGBAND
 10
170.79967256771991
 20
-46.235987462029009
 30
0.0
  0
VERTEX
  5
2498
  8
SAPA_FOGBAND
 10
170.31337265964021
 20
-35.847547201630512
 30
0.0
 42
0.4005932428724028
  0
VERTEX
  5
2499
  8
SAPA_FOGBAND
 10
170.01370009192041
 20
-35.56155977298954
 30
0.0
  0
VERTEX
  5
249A
  8
SAPA_FOGBAND
 10
168.1999999999999
 20
-35.56155977298954
 30
0.0
  0
VERTEX
  5
249B
  8
SAPA_FOGBAND
 10
168.1999999999999
 20
-33.861559772989722
 30
0.0
 42
0.4142135623730951
  0
VERTEX
  5
249C
  8
SAPA_FOGBAND
 10
167.89999999999969
 20
-33.56155977298954
 30
0.0
  0
VERTEX
  5
249D
  8
SAPA_FOGBAND
 10
160.4812192363743
 20
-33.56155977298954
 30
0.0
 42
0.1379343940649189
  0
VERTEX
  5
249E
  8
SAPA_FOGBAND
 10
159.96000092732541
 20
-33.708136387844441
 30
0.0
  0
VERTEX
  5
249F
  8
SAPA_FOGBAND
 10
148.03939084547571
 20
-40.5153546257527
 30
0.0
 42
0.2613472755167633
  0
VERTEX
  5
24A0
  8
SAPA_FOGBAND
 10
147.8000000000001
 20
-40.94206631832526
 30
0.0
  0
SEQEND
  5
24A1
  8
SAPA_FOGBAND
  0
POLYLINE
  5
14B2
  8
SAPA_FOGBAND
 66
     1
 10
0.0
 20
0.0
 30
0.0
  0
VERTEX
  5
24A2
  8
SAPA_FOGBAND
 10
168.06796481374261
 20
-78.050000033388415
 30
0.0
  0
VERTEX
  5
24A3
  8
SAPA_FOGBAND
 10
167.87560639374999
 20
-79.140918843541158
 30
0.0
  0
VERTEX
  5
24A4
  8
SAPA_FOGBAND
 10
168.307402953652
 20
-79.256618383061095
 30
0.0
 42
-0.4430158954262519
  0
VERTEX
  5
24A5
  8
SAPA_FOGBAND
 10
168.4428800011957
 20
-79.520094811168065
 30
0.0
  0
VERTEX
  5
24A6
  8
SAPA_FOGBAND
 10
167.96593180797669
 20
-80.790582559086246
 30
0.0
 42
-0.3125358528825162
  0
VERTEX
  5
24A7
  8
SAPA_FOGBAND
 10
167.59145009484749
 20
-81.05000003338796
 30
0.0
  0
VERTEX
  5
24A8
  8
SAPA_FOGBAND
 10
165.72129477893719
 20
-81.050000033388415
 30
0.0
 42
-0.3125358528825104
  0
VERTEX
  5
24A9
  8
SAPA_FOGBAND
 10
165.34681306580759
 20
-80.790582559086246
 30
0.0
  0
VERTEX
  5
24AA
  8
SAPA_FOGBAND
 10
164.86986487258861
 20
-79.520094811168065
 30
0.0
 42
-0.4430158954262519
  0
VERTEX
  5
24AB
  8
SAPA_FOGBAND
 10
165.00534192013271
 20
-79.256618383061095
 30
0.0
  0
VERTEX
  5
24AC
  8
SAPA_FOGBAND
 10
165.43713848003441
 20
-79.140918843541158
 30
0.0
  0
VERTEX
  5
24AD
  8
SAPA_FOGBAND
 10
165.2479946236918
 20
-78.068230729773632
 30
0.0
  0
SEQEND
  5
24AE
  8
SAPA_FOGBAND
  0
DIMENSION
  5
14BB
  8
SAPA_MATT
  2
*D123
 10
169.99997618387761
 20
-125.8557794594702
 30
0.0
 11
125.499976181924
 21
-123.3557794594702
 31
0.0
 70
     0
 13
80.999976179970474
 23
-80.499999963796
 33
0.0
 14
169.99997618387761
 24
-81.999999996299636
 34
0.0
1001
ACAD
1000
DSTYLE
1002
{
1070
   287
1070
     4
1070
    40
1040
1.0
1070
   279
1070
     1
1002
}
  0
DIMENSION
  5
14BC
  8
SAPA_MATT
  2
*D122
 10
81.000000000000057
 20
-125.8557794594702
 30
0.0
 11
78.500000000000057
 21
-123.3557794594702
 31
0.0
 70
     0
 13
76.000000000000057
 23
-74.799999251909554
 33
0.0
 14
81.000000000000057
 24
-80.223359969942038
 34
0.0
1001
ACAD
1000
DSTYLE
1002
{
1070
   287
1070
     4
1070
    40
1040
1.0
1070
   279
1070
     1
1002
}
  0
DIMENSION
  5
14BD
  8
SAPA_MATT
  2
*D121
 10
76.000000000000057
 20
-125.8557794594702
 30
0.0
 11
50.500000000000142
 21
-123.3557794594702
 31
0.0
 70
     0
 13
25.000000000000231
 23
-105.9999999990104
 33
0.0
 14
76.000000000000057
 24
-74.799999251909554
 34
0.0
1001
ACAD
1000
DSTYLE
1002
{
1070
   287
1070
     4
1070
    40
1040
1.0
1070
   279
1070
     1
1002
}
  0
DIMENSION
  5
14BE
  8
SAPA_MATT
  2
*D120
 10
25.000000000000231
 20
-125.8557794594702
 30
0.0
 11
0.0000000000002258
 21
-123.3557794594702
 31
0.0
 70
     0
 13
-24.99999999999978
 23
-105.9999999990104
 33
0.0
 14
25.000000000000231
 24
-105.9999999990104
 34
0.0
1001
ACAD
1000
DSTYLE
1002
{
1070
    40
1040
1.0
1002
}
  0
VIEWPORT
  5
C4
 67
     1
  8
0
 10
143.06236603067589
 20
116.00969601843509
 30
0.0
 40
369.98580003443811
 41
256.8421457311839
 68
     1
 69
     1
1001
ACAD
1000
MVIEW
1002
{
1070
    16
1010
0.0
1020
0.0
1030
0.0
1010
0.0
1020
0.0
1030
1.0
1040
0.0
1040
256.8421457311839
1040
99.112914085388169
1040
143.07606935501099
1040
50.0
1040
0.0
1040
0.0
1070
     0
1070
     0
1070
     1
1070
     1
1070
     0
1070
     0
1070
     0
1070
     0
1040
0.0
1040
0.0
1040
0.0
1040
10.0
1040
10.0
1040
10.0
1040
10.0
1070
     0
1002
{
1002
}
1002
}
  0
ENDSEC
  0
EOF
