  0
SECTION
  2
HEADER
  9
$ACADVER
  1
AC1009
  9
$INSBASE
 10
0.0
 20
0.0
 30
0.0
  9
$EXTMIN
 10
-60.786845801902473
 20
7.4994446500556933
 30
-0.2
  9
$EXTMAX
 10
268.75325586288358
 20
140.0000000000004
 30
0.0000000048844772
  9
$LIMMIN
 10
0.0
 20
0.0
  9
$LIMMAX
 10
790.0
 20
790.0
  9
$ORTHOMODE
 70
     0
  9
$REGENMODE
 70
     1
  9
$FILLMODE
 70
     1
  9
$QTEXTMODE
 70
     0
  9
$MIRRTEXT
 70
     1
  9
$DRAGMODE
 70
     2
  9
$LTSCALE
 40
4.0
  9
$OSMODE
 70
   167
  9
$ATTMODE
 70
     1
  9
$TEXTSIZE
 40
3.5
  9
$TRACEWID
 40
0.05
  9
$TEXTSTYLE
  7
ISO
  9
$CLAYER
  8
0
  9
$CELTYPE
  6
BYLAYER
  9
$CECOLOR
 62
   256
  9
$DIMSCALE
 40
0.0
  9
$DIMASZ
 40
3.0
  9
$DIMEXO
 40
1.5
  9
$DIMDLI
 40
10.0
  9
$DIMRND
 40
0.0
  9
$DIMDLE
 40
0.0
  9
$DIMEXE
 40
1.5
  9
$DIMTP
 40
0.0
  9
$DIMTM
 40
0.0
  9
$DIMTXT
 40
3.0
  9
$DIMCEN
 40
-5.0
  9
$DIMTSZ
 40
0.0
  9
$DIMTOL
 70
     0
  9
$DIMLIM
 70
     0
  9
$DIMTIH
 70
     0
  9
$DIMTOH
 70
     0
  9
$DIMSE1
 70
     0
  9
$DIMSE2
 70
     0
  9
$DIMTAD
 70
     1
  9
$DIMZIN
 70
     8
  9
$DIMBLK
  1

  9
$DIMASO
 70
     1
  9
$DIMSHO
 70
     1
  9
$DIMPOST
  1

  9
$DIMAPOST
  1

  9
$DIMALT
 70
     0
  9
$DIMALTD
 70
     0
  9
$DIMALTF
 40
25.399999999999999
  9
$DIMLFAC
 40
-1.0
  9
$DIMTOFL
 70
     1
  9
$DIMTVP
 40
0.0
  9
$DIMTIX
 70
     0
  9
$DIMSOXD
 70
     0
  9
$DIMSAH
 70
     0
  9
$DIMBLK1
  1

  9
$DIMBLK2
  1

  9
$DIMSTYLE
  2
MASKIN
  9
$DIMCLRD
 70
   256
  9
$DIMCLRE
 70
   256
  9
$DIMCLRT
 70
     2
  9
$DIMTFAC
 40
1.0
  9
$DIMGAP
 40
1.0
  9
$LUNITS
 70
     2
  9
$LUPREC
 70
     8
  9
$SKETCHINC
 40
0.1
  9
$FILLETRAD
 40
0.0
  9
$AUNITS
 70
     0
  9
$AUPREC
 70
     8
  9
$MENU
  1
ACAD
  9
$ELEVATION
 40
0.0
  9
$PELEVATION
 40
0.0
  9
$THICKNESS
 40
0.0
  9
$LIMCHECK
 70
     0
  9
$BLIPMODE
 70
     0
  9
$CHAMFERA
 40
0.0
  9
$CHAMFERB
 40
0.0
  9
$SKPOLY
 70
     0
  9
$TDCREATE
 40
2458299.4382186462
  9
$TDUPDATE
 40
2458303.459062859
  9
$TDINDWG
 40
0.0804456829
  9
$TDUSRTIMER
 40
0.0804454514
  9
$USRTIMER
 70
     1
  9
$ANGBASE
 50
0.0
  9
$ANGDIR
 70
     0
  9
$PDMODE
 70
     0
  9
$PDSIZE
 40
0.0
  9
$PLINEWID
 40
0.0
  9
$COORDS
 70
     1
  9
$SPLFRAME
 70
     0
  9
$SPLINETYPE
 70
     6
  9
$SPLINESEGS
 70
     8
  9
$ATTDIA
 70
     1
  9
$ATTREQ
 70
     1
  9
$HANDLING
 70
     1
  9
$HANDSEED
  5
2611
  9
$SURFTAB1
 70
     6
  9
$SURFTAB2
 70
     6
  9
$SURFTYPE
 70
     6
  9
$SURFU
 70
     6
  9
$SURFV
 70
     6
  9
$UCSNAME
  2

  9
$UCSORG
 10
0.0
 20
0.0
 30
0.0
  9
$UCSXDIR
 10
1.0
 20
0.0
 30
0.0
  9
$UCSYDIR
 10
0.0
 20
1.0
 30
0.0
  9
$PUCSNAME
  2

  9
$PUCSORG
 10
0.0
 20
0.0
 30
0.0
  9
$PUCSXDIR
 10
1.0
 20
0.0
 30
0.0
  9
$PUCSYDIR
 10
0.0
 20
1.0
 30
0.0
  9
$USERI1
 70
     0
  9
$USERI2
 70
     0
  9
$USERI3
 70
     0
  9
$USERI4
 70
     0
  9
$USERI5
 70
     0
  9
$USERR1
 40
0.0
  9
$USERR2
 40
0.0
  9
$USERR3
 40
0.0
  9
$USERR4
 40
0.0
  9
$USERR5
 40
0.0
  9
$WORLDVIEW
 70
     1
  9
$SHADEDGE
 70
     3
  9
$SHADEDIF
 70
    70
  9
$TILEMODE
 70
     1
  9
$MAXACTVP
 70
    32
  9
$PLIMCHECK
 70
     0
  9
$PEXTMIN
 10
1.0000000000000000E+020
 20
1.0000000000000000E+020
 30
1.0000000000000000E+020
  9
$PEXTMAX
 10
-1.0000000000000000E+020
 20
-1.0000000000000000E+020
 30
-1.0000000000000000E+020
  9
$PLIMMIN
 10
-5.069427490234375
 20
-5.8737497329711914
  9
$PLIMMAX
 10
291.89889526367187
 20
204.0995779037475
  9
$UNITMODE
 70
     0
  9
$VISRETAIN
 70
     1
  9
$PLINEGEN
 70
     0
  9
$PSLTSCALE
 70
     1
  0
ENDSEC
  0
SECTION
  2
TABLES
  0
TABLE
  2
VPORT
 70
     1
  0
VPORT
  2
*ACTIVE
 70
     0
 10
0.0
 20
0.0
 11
1.0
 21
1.0
 12
104.0046119105689
 22
142.65007072497369
 13
0.0
 23
0.0
 14
1.0
 24
1.0
 15
0.0
 25
0.0
 16
0.0
 26
0.0
 36
1.0
 17
0.0
 27
0.0
 37
0.0
 40
188.48697957710721
 41
1.7265193370165739
 42
50.0
 43
0.0
 44
0.0
 50
0.0
 51
0.0
 71
     0
 72
   100
 73
     1
 74
     1
 75
     0
 76
     0
 77
     0
 78
     0
  0
ENDTAB
  0
TABLE
  2
LTYPE
 70
     1
  0
LTYPE
  2
CONTINUOUS
 70
     0
  3
Solid line
 72
    65
 73
     0
 40
0.0
  0
ENDTAB
  0
TABLE
  2
LAYER
 70
    23
  0
LAYER
  2
0
 70
     0
 62
     7
  6
CONTINUOUS
  0
LAYER
  2
DEFPOINTS
 70
     0
 62
     7
  6
CONTINUOUS
  0
LAYER
  2
SAPA_ARTIKELNR
 70
     0
 62
     4
  6
CONTINUOUS
  0
LAYER
  2
SAPA_ANSLUTNING
 70
     0
 62
     6
  6
CONTINUOUS
  0
LAYER
  2
SAPA_GLAS
 70
     0
 62
     4
  6
CONTINUOUS
  0
LAYER
  2
SAPA_FOGBAND
 70
     0
 62
     2
  6
CONTINUOUS
  0
LAYER
  2
SAPA_PROFIL
 70
     0
 62
     7
  6
CONTINUOUS
  0
LAYER
  2
SAPA_MATT
 70
     0
 62
     1
  6
CONTINUOUS
  0
ENDTAB
  0
TABLE
  2
STYLE
 70
     2
  0
STYLE
  2
STANDARD
 70
     0
 40
0.0
 41
1.0
 50
0.0
 71
     0
 42
0.2
  3
txt
  4

  0
STYLE
  2
ISO
 70
     0
 40
0.0
 41
1.0
 50
0.0
 71
     0
 42
3.5
  3
txt
  4

  0
ENDTAB
  0
TABLE
  2
VIEW
 70
     0
  0
ENDTAB
  0
TABLE
  2
UCS
 70
     0
  0
ENDTAB
  0
TABLE
  2
APPID
 70
    22
  0
APPID
  2
ACAD
 70
     0
  0
APPID
  2
ACAD_DSTYLE_DIMTEXT_FILL
 70
     0
  0
APPID
  2
ACAD_DSTYLE_DIMEXT_LENGTH
 70
     0
  0
APPID
  2
ACAD_DSTYLE_DIMEXT_ENABLED
 70
     0
  0
APPID
  2
ACAD_DSTYLE_DIM_LINETYPE
 70
     0
  0
APPID
  2
ACAD_DSTYLE_DIM_EXT1_LINETYPE
 70
     0
  0
APPID
  2
ACAD_DSTYLE_DIM_EXT2_LINETYPE
 70
     0
  0
APPID
  2
ACAD_DSTYLE_DIMJOGGED_JOGA
 70
     0
  0
APPID
  2
ACAD_DSTYLE_DIMARC_LENGTH_
 70
     0
  0
APPID
  2
ACAD_PSEXT
 70
     0
  0
APPID
  2
ACAD_MLEADERVER
 70
     0
  0
APPID
  2
ACAD_NAV_VCDISPLAY
 70
     0
  0
APPID
  2
GENIUS_GENODEF_13
 70
     0
  0
APPID
  2
RC_PROFILE
 70
     0
  0
APPID
  2
ACAECLAYERSTANDARD
 70
     0
  0
APPID
  2
GENIUS_GENOBJ-N-FIL_13
 70
     0
  0
APPID
  2
GENIUS_GENREC_14
 70
     0
  0
APPID
  2
GENIUS_GENOBJ-N-REC_13
 70
     0
  0
APPID
  2
ACCMTRANSPARENCY
 70
     0
  0
APPID
  2
GRADIENTCOLOR1ACI
 70
     0
  0
APPID
  2
GRADIENTCOLOR2ACI
 70
     0
  0
APPID
  2
ACAD_EXEMPT_FROM_CAD_STANDARDS
 70
     0
  0
ENDTAB
  0
TABLE
  2
DIMSTYLE
 70
     2
  0
DIMSTYLE
  2
STANDARD
 70
     0
  3

  4

  5

  6

  7

 40
1.0
 41
0.18
 42
0.0625
 43
0.38
 44
0.18
 45
0.0
 46
0.0
 47
0.0
 48
0.0
140
0.18
141
0.09
142
0.0
143
25.399999999999999
144
1.0
145
0.0
146
1.0
147
0.09
 71
     0
 72
     0
 73
     1
 74
     1
 75
     0
 76
     0
 77
     0
 78
     0
170
     0
171
     2
172
     0
173
     0
174
     0
175
     0
176
     0
177
     0
178
     0
  0
DIMSTYLE
  2
MASKIN
 70
     0
  3

  4

  5

  6

  7

 40
0.0
 41
3.0
 42
1.5
 43
10.0
 44
1.5
 45
0.0
 46
0.0
 47
0.0
 48
0.0
140
3.0
141
-5.0
142
0.0
143
25.399999999999999
144
-1.0
145
0.0
146
1.0
147
1.0
 71
     0
 72
     0
 73
     0
 74
     0
 75
     0
 76
     0
 77
     1
 78
     8
170
     0
171
     0
172
     1
173
     0
174
     0
175
     0
176
   256
177
   256
178
     2
  0
ENDTAB
  0
ENDSEC
  0
SECTION
  2
BLOCKS
  0
BLOCK
  8
0
  2
$MODEL_SPACE
 70
     0
 10
0.0
 20
0.0
 30
0.0
  3
$MODEL_SPACE
  1

  0
ENDBLK
  5
37
  8
0
  0
BLOCK
 67
     1
  8
0
  2
$PAPER_SPACE
 70
     0
 10
0.0
 20
0.0
 30
0.0
  3
$PAPER_SPACE
  1

  0
ENDBLK
  5
35
 67
     1
  8
0
  0
BLOCK
  8
0
  2
*D9
 70
     1
 10
0.0
 20
0.0
 30
0.0
  3
*D9
  1

  0
LINE
  5
2447
  8
SAPA_MATT
 10
-5.1999999293557257
 20
59.999444650055118
 30
0.0
 11
-56.24999985711203
 21
59.999444650055139
 31
0.0
  0
LINE
  5
2448
  8
SAPA_MATT
 10
-14.44999992883413
 20
124.9994446500537
 30
0.0
 11
-56.249999857112023
 21
124.9994446500537
 31
0.0
  0
LINE
  5
2449
  8
SAPA_MATT
 10
-54.74999985711203
 20
62.999444650055139
 30
0.0
 11
-54.749999857112009
 21
121.9994446500537
 31
0.0
  0
SOLID
  5
244A
  8
SAPA_MATT
 10
-55.24999985711203
 20
62.999444650055139
 30
0.0
 11
-54.24999985711203
 21
62.999444650055139
 31
0.0
 12
-54.74999985711203
 22
59.999444650055139
 32
0.0
 13
-54.74999985711203
 23
59.999444650055139
 33
0.0
  0
SOLID
  5
244B
  8
SAPA_MATT
 10
-55.249999857112009
 20
121.9994446500537
 30
0.0
 11
-54.249999857112023
 21
121.9994446500537
 31
0.0
 12
-54.749999857112009
 22
124.9994446500537
 32
0.0
 13
-54.749999857112009
 23
124.9994446500537
 33
0.0
  0
INSERT
  5
244C
  8
0
  2
*U22
 10
0.0
 20
0.0
 30
0.0
  0
POINT
  5
244D
  8
DEFPOINTS
 62
     0
 10
-3.6999999293557262
 20
59.999444650055118
 30
0.0
  0
POINT
  5
244E
  8
DEFPOINTS
 62
     0
 10
-12.94999992883413
 20
124.9994446500537
 30
0.0
  0
POINT
  5
244F
  8
DEFPOINTS
 62
     0
 10
-54.749999857112009
 20
124.9994446500537
 30
0.0
  0
ENDBLK
  5
23A2
  8
0
  0
BLOCK
  8
0
  2
*D10
 70
     1
 10
0.0
 20
0.0
 30
0.0
  3
*D10
  1

  0
LINE
  5
243E
  8
SAPA_MATT
 10
-14.44999992883413
 20
124.9994446500537
 30
0.0
 11
-44.249999857112002
 21
124.9994446500537
 31
0.0
  0
LINE
  5
243F
  8
SAPA_MATT
 10
-12.74999992883931
 20
64.99944465005558
 30
0.0
 11
-44.249999857112023
 21
64.999444650055594
 31
0.0
  0
LINE
  5
2440
  8
SAPA_MATT
 10
-42.749999857111987
 20
121.9994446500537
 30
0.0
 11
-42.749999857112009
 21
67.999444650055594
 31
0.0
  0
SOLID
  5
2441
  8
SAPA_MATT
 10
-43.249999857112002
 20
121.9994446500537
 30
0.0
 11
-42.249999857112002
 21
121.9994446500537
 31
0.0
 12
-42.749999857111987
 22
124.9994446500537
 32
0.0
 13
-42.749999857111987
 23
124.9994446500537
 33
0.0
  0
SOLID
  5
2442
  8
SAPA_MATT
 10
-43.249999857112009
 20
67.999444650055594
 30
0.0
 11
-42.249999857112009
 21
67.999444650055594
 31
0.0
 12
-42.749999857112009
 22
64.999444650055594
 32
0.0
 13
-42.749999857112009
 23
64.999444650055594
 33
0.0
  0
INSERT
  5
2443
  8
0
  2
*U21
 10
0.0
 20
0.0
 30
0.0
  0
POINT
  5
2444
  8
DEFPOINTS
 62
     0
 10
-12.94999992883413
 20
124.9994446500537
 30
0.0
  0
POINT
  5
2445
  8
DEFPOINTS
 62
     0
 10
-11.24999992883931
 20
64.99944465005558
 30
0.0
  0
POINT
  5
2446
  8
DEFPOINTS
 62
     0
 10
-42.749999857112009
 20
64.999444650055594
 30
0.0
  0
ENDBLK
  5
23AE
  8
0
  0
BLOCK
  8
0
  2
*D11
 70
     1
 10
0.0
 20
0.0
 30
0.0
  3
*D11
  1

  0
LINE
  5
2570
  8
SAPA_MATT
 10
-12.749999928838861
 20
64.99944465005558
 30
0.0
 11
-44.249999928859317
 21
64.999444650055594
 31
0.0
  0
LINE
  5
2571
  8
SAPA_MATT
 10
-5.1999999293557257
 20
59.999444650055118
 30
0.0
 11
-44.249999928859317
 21
59.999444650055132
 31
0.0
  0
LINE
  5
2572
  8
SAPA_MATT
 10
-42.749999928859317
 20
67.999444650055594
 30
0.0
 11
-42.749999928859317
 21
70.999444650055594
 31
0.0
  0
LINE
  5
2573
  8
SAPA_MATT
 10
-42.749999928859317
 20
56.999444650055132
 30
0.0
 11
-42.749999928859317
 21
53.999444650055132
 31
0.0
  0
LINE
  5
2574
  8
SAPA_MATT
 10
-42.749999928859317
 20
64.999444650055594
 30
0.0
 11
-42.749999928859317
 21
59.999444650055132
 31
0.0
  0
SOLID
  5
2575
  8
SAPA_MATT
 10
-43.249999928859317
 20
67.999444650055594
 30
0.0
 11
-42.249999928859317
 21
67.999444650055594
 31
0.0
 12
-42.749999928859317
 22
64.999444650055594
 32
0.0
 13
-42.749999928859317
 23
64.999444650055594
 33
0.0
  0
SOLID
  5
2576
  8
SAPA_MATT
 10
-43.249999928859317
 20
56.999444650055132
 30
0.0
 11
-42.249999928859317
 21
56.999444650055132
 31
0.0
 12
-42.749999928859317
 22
59.999444650055132
 32
0.0
 13
-42.749999928859317
 23
59.999444650055132
 33
0.0
  0
TEXT
  8
SAPA_MATT
  40
3
  5
258B
  62
2
  72
0
  71
0
 10
-51.2500
 20
57.1894
 30
0.000000
  1
5
  7
ISO
  0
POINT
  5
2578
  8
DEFPOINTS
 62
     0
 10
-11.249999928838861
 20
64.99944465005558
 30
0.0
  0
POINT
  5
2579
  8
DEFPOINTS
 62
     0
 10
-3.6999999293557262
 20
59.999444650055118
 30
0.0
  0
POINT
  5
257A
  8
DEFPOINTS
 62
     0
 10
-42.749999928859317
 20
59.999444650055132
 30
0.0
  0
ENDBLK
  5
23BA
  8
0
  0
BLOCK
  8
0
  2
*D12
 70
     1
 10
0.0
 20
0.0
 30
0.0
  3
*D12
  1

  0
LINE
  5
242A
  8
SAPA_MATT
 10
213.74999992810399
 20
65.499444650055693
 30
0.0
 11
213.74999992810399
 21
7.4994446500556933
 31
0.0
  0
LINE
  5
242B
  8
SAPA_MATT
 10
-13.250000071625889
 20
65.499444650055807
 30
0.0
 11
-13.250000071625889
 21
7.4994446500556933
 31
0.0
  0
LINE
  5
242C
  8
SAPA_MATT
 10
210.74999992810399
 20
8.9994446500556933
 30
0.0
 11
-10.250000071625889
 21
8.9994446500556933
 31
0.0
  0
SOLID
  5
242D
  8
SAPA_MATT
 10
210.74999992810399
 20
9.4994446500556933
 30
0.0
 11
210.74999992810399
 21
8.4994446500556933
 31
0.0
 12
213.74999992810399
 22
8.9994446500556933
 32
0.0
 13
213.74999992810399
 23
8.9994446500556933
 33
0.0
  0
SOLID
  5
242E
  8
SAPA_MATT
 10
-10.250000071625889
 20
9.4994446500556933
 30
0.0
 11
-10.250000071625889
 21
8.4994446500556933
 31
0.0
 12
-13.250000071625889
 22
8.9994446500556933
 32
0.0
 13
-13.250000071625889
 23
8.9994446500556933
 33
0.0
  0
INSERT
  5
242F
  8
0
  2
*U20
 10
0.0
 20
0.0
 30
0.0
  0
POINT
  5
2430
  8
DEFPOINTS
 62
     0
 10
213.74999992810399
 20
66.999444650055693
 30
0.0
  0
POINT
  5
2431
  8
DEFPOINTS
 62
     0
 10
-13.250000071625889
 20
66.999444650055807
 30
0.0
  0
POINT
  5
2432
  8
DEFPOINTS
 62
     0
 10
-13.250000071625889
 20
8.9994446500556933
 30
0.0
  0
ENDBLK
  5
23C8
  8
0
  0
BLOCK
  8
0
  2
*D13
 70
     1
 10
0.0
 20
0.0
 30
0.0
  3
*D13
  1

  0
LINE
  5
2567
  8
SAPA_MATT
 10
-5.2500000715681381
 20
63.999444650086048
 30
0.0
 11
-5.2500000715681399
 21
19.49944465005569
 31
0.0
  0
LINE
  5
2568
  8
SAPA_MATT
 10
-13.250000071625889
 20
65.499444650055807
 30
0.0
 11
-13.250000071625889
 21
19.49944465005569
 31
0.0
  0
LINE
  5
2569
  8
SAPA_MATT
 10
-8.2500000715681416
 20
20.99944465005569
 30
0.0
 11
-10.250000071625889
 21
20.99944465005569
 31
0.0
  0
TEXT
  8
SAPA_MATT
  40
3
  5
258C
  62
2
  72
0
  71
0
 10
-15.2500
 20
18.1894
 30
0.000000
  1
8
  7
ISO
  0
SOLID
  5
256B
  8
SAPA_MATT
 10
-8.2500000715681416
 20
21.49944465005569
 30
0.0
 11
-8.2500000715681416
 21
20.4994446500557
 31
0.0
 12
-5.2500000715681399
 22
20.99944465005569
 32
0.0
 13
-5.2500000715681399
 23
20.99944465005569
 33
0.0
  0
SOLID
  5
256C
  8
SAPA_MATT
 10
-10.250000071625889
 20
21.49944465005569
 30
0.0
 11
-10.250000071625889
 21
20.4994446500557
 31
0.0
 12
-13.250000071625889
 22
20.99944465005569
 32
0.0
 13
-13.250000071625889
 23
20.99944465005569
 33
0.0
  0
POINT
  5
256D
  8
DEFPOINTS
 62
     0
 10
-5.2500000715681381
 20
65.499444650086033
 30
0.0
  0
POINT
  5
256E
  8
DEFPOINTS
 62
     0
 10
-13.250000071625889
 20
66.999444650055807
 30
0.0
  0
POINT
  5
256F
  8
DEFPOINTS
 62
     0
 10
-13.250000071625889
 20
20.99944465005569
 30
0.0
  0
ENDBLK
  5
23D4
  8
0
  0
BLOCK
  8
0
  2
*D14
 70
     1
 10
0.0
 20
0.0
 30
0.0
  3
*D14
  1

  0
LINE
  5
255E
  8
SAPA_MATT
 10
51.749999927800218
 20
64.16744811205524
 30
0.0
 11
51.749999927800218
 21
19.49944465005569
 31
0.0
  0
LINE
  5
255F
  8
SAPA_MATT
 10
-5.2500000716258901
 20
63.999444650055807
 30
0.0
 11
-5.2500000716258928
 21
19.49944465005569
 31
0.0
  0
LINE
  5
2560
  8
SAPA_MATT
 10
48.749999927800218
 20
20.99944465005569
 30
0.0
 11
-2.2500000716258932
 21
20.99944465005569
 31
0.0
  0
SOLID
  5
2561
  8
SAPA_MATT
 10
48.749999927800218
 20
21.49944465005569
 30
0.0
 11
48.749999927800218
 21
20.4994446500557
 31
0.0
 12
51.749999927800218
 22
20.99944465005569
 32
0.0
 13
51.749999927800218
 23
20.99944465005569
 33
0.0
  0
SOLID
  5
2562
  8
SAPA_MATT
 10
-2.2500000716258932
 20
21.49944465005569
 30
0.0
 11
-2.2500000716258932
 21
20.4994446500557
 31
0.0
 12
-5.2500000716258928
 22
20.99944465005569
 32
0.0
 13
-5.2500000716258928
 23
20.99944465005569
 33
0.0
  0
TEXT
  8
SAPA_MATT
  40
3
  5
258D
  62
2
  72
0
  71
0
 10
17.2500
 20
18.1894
 30
0.000000
  1
57
  7
ISO
  0
POINT
  5
2564
  8
DEFPOINTS
 62
     0
 10
51.749999927800218
 20
65.66744811205524
 30
0.0
  0
POINT
  5
2565
  8
DEFPOINTS
 62
     0
 10
-5.2500000716258901
 20
65.499444650055807
 30
0.0
  0
POINT
  5
2566
  8
DEFPOINTS
 62
     0
 10
-5.2500000716258928
 20
20.99944465005569
 30
0.0
  0
ENDBLK
  5
23E0
  8
0
  0
BLOCK
  8
0
  2
*D15
 70
     1
 10
0.0
 20
0.0
 30
0.0
  3
*D15
  1

  0
LINE
  5
240F
  8
SAPA_MATT
 10
208.74999992810399
 20
65.499444650055693
 30
0.0
 11
208.74999992810399
 21
19.49944465005569
 31
0.0
  0
LINE
  5
2410
  8
SAPA_MATT
 10
51.749999927800218
 20
64.16744811205524
 30
0.0
 11
51.749999927800218
 21
19.49944465005569
 31
0.0
  0
LINE
  5
2411
  8
SAPA_MATT
 10
205.74999992810399
 20
20.99944465005569
 30
0.0
 11
54.749999927800218
 21
20.99944465005569
 31
0.0
  0
SOLID
  5
2412
  8
SAPA_MATT
 10
205.74999992810399
 20
21.49944465005569
 30
0.0
 11
205.74999992810399
 21
20.4994446500557
 31
0.0
 12
208.74999992810399
 22
20.99944465005569
 32
0.0
 13
208.74999992810399
 23
20.99944465005569
 33
0.0
  0
SOLID
  5
2413
  8
SAPA_MATT
 10
54.749999927800218
 20
21.49944465005569
 30
0.0
 11
54.749999927800218
 21
20.4994446500557
 31
0.0
 12
51.749999927800218
 22
20.99944465005569
 32
0.0
 13
51.749999927800218
 23
20.99944465005569
 33
0.0
  0
INSERT
  5
2414
  8
0
  2
*U19
 10
0.0
 20
0.0
 30
0.0
  0
POINT
  5
2415
  8
DEFPOINTS
 62
     0
 10
208.74999992810399
 20
66.999444650055693
 30
0.0
  0
POINT
  5
2416
  8
DEFPOINTS
 62
     0
 10
51.749999927800218
 20
65.66744811205524
 30
0.0
  0
POINT
  5
2417
  8
DEFPOINTS
 62
     0
 10
51.749999927800218
 20
20.99944465005569
 30
0.0
  0
ENDBLK
  5
23EC
  8
0
  0
BLOCK
  8
0
  2
*D16
 70
     1
 10
0.0
 20
0.0
 30
0.0
  3
*D16
  1

  0
LINE
  5
2553
  8
SAPA_MATT
 10
208.74999992804629
 20
63.999444650086048
 30
0.0
 11
208.74999992804629
 21
19.49944465005569
 31
0.0
  0
LINE
  5
2554
  8
SAPA_MATT
 10
213.74999992810399
 20
65.499444650055807
 30
0.0
 11
213.74999992810399
 21
19.49944465005569
 31
0.0
  0
LINE
  5
2555
  8
SAPA_MATT
 10
205.74999992804621
 20
20.99944465005569
 30
0.0
 11
202.74999992804621
 21
20.99944465005569
 31
0.0
  0
LINE
  5
2556
  8
SAPA_MATT
 10
216.74999992810399
 20
20.99944465005569
 30
0.0
 11
219.74999992810399
 21
20.99944465005569
 31
0.0
  0
TEXT
  8
SAPA_MATT
  40
3
  5
258E
  62
2
  72
0
  71
0
 10
205.250
 20
18.1894
 30
0.000000
  1
5
  7
ISO
  0
LINE
  5
2558
  8
SAPA_MATT
 10
208.74999992804629
 20
20.99944465005569
 30
0.0
 11
213.74999992810399
 21
20.99944465005569
 31
0.0
  0
SOLID
  5
2559
  8
SAPA_MATT
 10
205.74999992804621
 20
21.49944465005569
 30
0.0
 11
205.74999992804621
 21
20.4994446500557
 31
0.0
 12
208.74999992804629
 22
20.99944465005569
 32
0.0
 13
208.74999992804629
 23
20.99944465005569
 33
0.0
  0
SOLID
  5
255A
  8
SAPA_MATT
 10
216.74999992810399
 20
21.49944465005569
 30
0.0
 11
216.74999992810399
 21
20.4994446500557
 31
0.0
 12
213.74999992810399
 22
20.99944465005569
 32
0.0
 13
213.74999992810399
 23
20.99944465005569
 33
0.0
  0
POINT
  5
255B
  8
DEFPOINTS
 62
     0
 10
208.74999992804629
 20
65.499444650086033
 30
0.0
  0
POINT
  5
255C
  8
DEFPOINTS
 62
     0
 10
213.74999992810399
 20
66.999444650055807
 30
0.0
  0
POINT
  5
255D
  8
DEFPOINTS
 62
     0
 10
213.74999992810399
 20
20.99944465005569
 30
0.0
  0
ENDBLK
  5
23F8
  8
0
  0
BLOCK
  8
0
  2
*X17
 70
     1
 10
0.0
 20
0.0
 30
0.0
  3
*X17
  1

  0
LINE
  5
24AA
  8
0
 62
     0
 10
213.79522027018581
 20
76.582373814360636
 30
0.0
 11
213.74999986178409
 21
76.537153405958932
 31
0.0
  0
LINE
  5
24AB
  8
0
 62
     0
 10
213.9814873966541
 20
75.646108925695273
 30
0.0
 11
213.74999986958949
 21
75.414621398630743
 31
0.0
  0
LINE
  5
24AC
  8
0
 62
     0
 10
214.27875218290669
 20
74.820841696814256
 30
0.0
 11
213.749999877395
 21
74.292089391302568
 31
0.0
  0
LINE
  5
24AD
  8
0
 62
     0
 10
214.6691615684513
 20
74.088719067225213
 30
0.0
 11
213.74999988520051
 21
73.169557383974393
 31
0.0
  0
LINE
  5
24AE
  8
0
 62
     0
 10
215.1448146451244
 20
73.441840128764625
 30
0.0
 11
213.74999989300599
 21
72.047025376646189
 31
0.0
  0
LINE
  5
24AF
  8
0
 62
     0
 10
215.7043035533361
 20
72.878797021842715
 30
0.0
 11
213.74999990081139
 21
70.924493369318014
 31
0.0
  0
LINE
  5
24B0
  8
0
 62
     0
 10
216.35217565980631
 20
72.404137113179246
 30
0.0
 11
213.7499999086169
 21
69.801961361989854
 31
0.0
  0
LINE
  5
24B1
  8
0
 62
     0
 10
217.10075433923649
 20
72.030183777475798
 30
0.0
 11
213.7499999164223
 21
68.67942935466165
 31
0.0
  0
LINE
  5
24B2
  8
0
 62
     0
 10
217.9763856468326
 20
71.783283069938363
 30
0.0
 11
213.74999992422781
 21
67.556897347333489
 31
0.0
  0
LINE
  5
24B3
  8
0
 62
     0
 10
219.04073935688101
 20
71.725104764853057
 30
0.0
 11
213.6284355728713
 21
66.312800980843434
 31
0.0
  0
LINE
  5
24B4
  8
0
 62
     0
 10
223.74999985622529
 20
76.434365264197311
 30
0.0
 11
223.67363601449151
 21
76.358001422463587
 31
0.0
  0
LINE
  5
24B5
  8
0
 62
     0
 10
220.51608649436599
 20
72.077919887204388
 30
0.0
 11
214.1575709895877
 21
65.719404382426134
 31
0.0
  0
LINE
  5
24B6
  8
0
 62
     0
 10
223.74999985622529
 20
75.311833249063682
 30
0.0
 11
223.18998999812709
 21
74.751823390965512
 31
0.0
  0
LINE
  5
24B7
  8
0
 62
     0
 10
223.74999985622529
 20
74.189301233930024
 30
0.0
 11
215.39194301527371
 21
65.831244392978419
 31
0.0
  0
LINE
  5
24B8
  8
0
 62
     0
 10
223.74999985622529
 20
73.066769218796381
 30
0.0
 11
216.56505929446641
 21
65.881828657037516
 31
0.0
  0
LINE
  5
24B9
  8
0
 62
     0
 10
223.74999985622529
 20
71.944237203662723
 30
0.0
 11
217.685526957653
 21
65.879764305090447
 31
0.0
  0
LINE
  5
24BA
  8
0
 62
     0
 10
223.74999985622529
 20
70.82170518852908
 30
0.0
 11
218.75985116312989
 21
65.831556495433659
 31
0.0
  0
LINE
  5
24BB
  8
0
 62
     0
 10
223.74999985622529
 20
69.699173173395451
 30
0.0
 11
219.79308685851291
 21
65.7422601756831
 31
0.0
  0
LINE
  5
24BC
  8
0
 62
     0
 10
223.74999985622529
 20
68.576641158261808
 30
0.0
 11
220.7892502858102
 21
65.615891587846789
 31
0.0
  0
LINE
  5
24BD
  8
0
 62
     0
 10
223.74999985622529
 20
67.454109143128164
 30
0.0
 11
221.75159043940269
 21
65.455699726305596
 31
0.0
  0
LINE
  5
24BE
  8
0
 62
     0
 10
223.74999985622529
 20
66.331577127994507
 30
0.0
 11
222.68277470240369
 21
65.264351974172996
 31
0.0
  0
LINE
  5
24BF
  8
0
 62
     0
 10
223.74999985622529
 20
65.209045112860863
 30
0.0
 11
223.5850196665931
 21
65.044064923228703
 31
0.0
  0
LINE
  5
24C0
  8
0
 62
     0
 10
213.470341145254
 20
65.979431857696383
 30
0.0
 11
213.777073458666
 21
65.672699544284455
 31
0.0
  0
LINE
  5
24C1
  8
0
 62
     0
 10
213.7427695740285
 20
66.82953544405558
 30
0.0
 11
214.78821354547159
 21
65.784091472612431
 31
0.0
  0
LINE
  5
24C2
  8
0
 62
     0
 10
213.74999992153019
 20
67.944837111687505
 30
0.0
 11
215.83798903801971
 21
65.856847995198095
 31
0.0
  0
LINE
  5
24C3
  8
0
 62
     0
 10
213.74999991372479
 20
69.067369134626603
 30
0.0
 11
216.93080854172069
 21
65.886560506630715
 31
0.0
  0
LINE
  5
24C4
  8
0
 62
     0
 10
213.74999990591931
 20
70.189901157565714
 30
0.0
 11
218.07226908480521
 21
65.867631978679825
 31
0.0
  0
LINE
  5
24C5
  8
0
 62
     0
 10
213.74999989811391
 20
71.312433180504826
 30
0.0
 11
219.2696513944704
 21
65.792781684148295
 31
0.0
  0
LINE
  5
24C6
  8
0
 62
     0
 10
213.7499998903084
 20
72.434965203443923
 30
0.0
 11
220.53272112122011
 21
65.652243972532204
 31
0.0
  0
LINE
  5
24C7
  8
0
 62
     0
 10
213.74999988250289
 20
73.557497226383035
 30
0.0
 11
221.87510548690781
 21
65.432391621978113
 31
0.0
  0
LINE
  5
24C8
  8
0
 62
     0
 10
213.74999987469741
 20
74.680029249322146
 30
0.0
 11
223.31685120729179
 21
65.113177916727764
 31
0.0
  0
LINE
  5
24C9
  8
0
 62
     0
 10
217.71528936857271
 20
71.837271770580514
 30
0.0
 11
223.74999985622529
 21
65.802561282927982
 31
0.0
  0
LINE
  5
24CA
  8
0
 62
     0
 10
213.74999986689201
 20
75.802561272261244
 30
0.0
 11
214.0121673381843
 21
75.540393800968971
 31
0.0
  0
LINE
  5
24CB
  8
0
 62
     0
 10
218.95478285387091
 20
71.720310300415946
 30
0.0
 11
223.74999985622529
 21
66.925093298061654
 31
0.0
  0
LINE
  5
24CC
  8
0
 62
     0
 10
213.7499998590865
 20
76.925093295200369
 30
0.0
 11
213.76437497400661
 21
76.910718180280341
 31
0.0
  0
LINE
  5
24CD
  8
0
 62
     0
 10
219.92469780516129
 20
71.872927364259283
 30
0.0
 11
223.74999985622529
 21
68.047625313195283
 31
0.0
  0
LINE
  5
24CE
  8
0
 62
     0
 10
220.74012231234019
 20
72.180034872213938
 30
0.0
 11
223.7499998562252
 21
69.170157328328969
 31
0.0
  0
LINE
  5
24CF
  8
0
 62
     0
 10
221.44249082428669
 20
72.600198375401092
 30
0.0
 11
223.74999985622529
 21
70.292689343462584
 31
0.0
  0
LINE
  5
24D0
  8
0
 62
     0
 10
222.05074296977989
 20
73.114478245041596
 30
0.0
 11
223.74999985622529
 21
71.415221358596227
 31
0.0
  0
LINE
  5
24D1
  8
0
 62
     0
 10
222.573386503835
 20
73.714366726120062
 30
0.0
 11
223.7499998562252
 21
72.537753373729871
 31
0.0
  0
LINE
  5
24D2
  8
0
 62
     0
 10
223.01229298918261
 20
74.397992255906104
 30
0.0
 11
223.74999985622529
 21
73.6602853888635
 31
0.0
  0
LINE
  5
24D3
  8
0
 62
     0
 10
223.3634156461919
 20
75.169401614030519
 30
0.0
 11
223.74999985622529
 21
74.782817403997186
 31
0.0
  0
LINE
  5
24D4
  8
0
 62
     0
 10
223.6151857070993
 20
76.040163568256773
 30
0.0
 11
223.74999985622529
 21
75.905349419130815
 31
0.0
  0
LINE
  5
24D5
  8
0
 62
     0
 10
223.74279890649521
 20
77.03508238399445
 30
0.0
 11
223.74999985622529
 21
77.027881434264444
 31
0.0
  0
ENDBLK
  5
24D7
  8
0
  0
BLOCK
  8
0
  2
*X18
 70
     1
 10
0.0
 20
0.0
 30
0.0
  3
*X18
  1

  0
LINE
  5
24D9
  8
0
 62
     0
 10
217.2281050137571
 20
72.06959835465463
 30
0.0
 11
217.29131331940559
 21
71.960118357811197
 31
0.0
  0
LINE
  5
24DA
  8
0
 62
     0
 10
216.03748001375709
 20
74.13182134741632
 30
0.0
 11
216.4343550137572
 21
73.444413683162423
 31
0.0
  0
LINE
  5
24DB
  8
0
 62
     0
 10
214.84685501375719
 20
76.19404434017801
 30
0.0
 11
215.24373001375719
 21
75.506636675924113
 31
0.0
  0
LINE
  5
24DC
  8
0
 62
     0
 10
213.7879712927317
 20
78.028084744301609
 30
0.0
 11
214.0531050137572
 21
77.568859668685803
 31
0.0
  0
LINE
  5
24DD
  8
0
 62
     0
 10
218.41872972926109
 20
72.757005854654636
 30
0.0
 11
218.815604729261
 21
72.06959819040074
 31
0.0
  0
LINE
  5
24DE
  8
0
 62
     0
 10
217.2281047292611
 20
74.819228847416326
 30
0.0
 11
217.6249797292611
 21
74.131821183162415
 31
0.0
  0
LINE
  5
24DF
  8
0
 62
     0
 10
216.03747972926109
 20
76.881451840178016
 30
0.0
 11
216.43435472926109
 21
76.19404417592412
 31
0.0
  0
LINE
  5
24E0
  8
0
 62
     0
 10
214.84685472926111
 20
78.943674832939706
 30
0.0
 11
215.2437297292611
 21
78.25626716868581
 31
0.0
  0
LINE
  5
24E1
  8
0
 62
     0
 10
219.6093544447649
 20
73.444413354654628
 30
0.0
 11
220.0062294447649
 21
72.757005690400732
 31
0.0
  0
LINE
  5
24E2
  8
0
 62
     0
 10
218.41872944476489
 20
75.506636347416304
 30
0.0
 11
218.81560444476489
 21
74.819228683162422
 31
0.0
  0
LINE
  5
24E3
  8
0
 62
     0
 10
217.22810444476491
 20
77.568859340178008
 30
0.0
 11
217.6249794447649
 21
76.881451675924112
 31
0.0
  0
LINE
  5
24E4
  8
0
 62
     0
 10
216.0374794447649
 20
79.631082332939684
 30
0.0
 11
216.43435444476501
 21
78.943674668685802
 31
0.0
  0
LINE
  5
24E5
  8
0
 62
     0
 10
215.12616457204251
 20
81.209525994188169
 30
0.0
 11
215.24372944476499
 21
81.005897661447477
 31
0.0
  0
LINE
  5
24E6
  8
0
 62
     0
 10
220.7999791602688
 20
74.131820854654606
 30
0.0
 11
221.1968541602688
 21
73.444413190400709
 31
0.0
  0
LINE
  5
24E7
  8
0
 62
     0
 10
219.60935416026891
 20
76.194043847416296
 30
0.0
 11
220.0062291602689
 21
75.506636183162399
 31
0.0
  0
LINE
  5
24E8
  8
0
 62
     0
 10
218.4187291602689
 20
78.256266840177986
 30
0.0
 11
218.81560416026889
 21
77.568859175924089
 31
0.0
  0
LINE
  5
24E9
  8
0
 62
     0
 10
217.22810416026891
 20
80.318489832939676
 30
0.0
 11
217.62497916026891
 21
79.631082168685779
 31
0.0
  0
LINE
  5
24EA
  8
0
 62
     0
 10
216.16983192515599
 20
82.151471112394745
 30
0.0
 11
216.4343541602689
 21
81.693305161447455
 31
0.0
  0
LINE
  5
24EB
  8
0
 62
     0
 10
221.99060387577271
 20
74.819228354654626
 30
0.0
 11
222.3874788757727
 21
74.13182069040073
 31
0.0
  0
LINE
  5
24EC
  8
0
 62
     0
 10
220.79997887577269
 20
76.881451347416316
 30
0.0
 11
221.19685387577269
 21
76.19404368316242
 31
0.0
  0
LINE
  5
24ED
  8
0
 62
     0
 10
219.6093538757728
 20
78.943674340178006
 30
0.0
 11
220.00622887577271
 21
78.25626667592411
 31
0.0
  0
LINE
  5
24EE
  8
0
 62
     0
 10
218.41872887577281
 20
81.005897332939696
 30
0.0
 11
218.81560387577269
 21
80.318489668685785
 31
0.0
  0
LINE
  5
24EF
  8
0
 62
     0
 10
217.4104806012017
 20
82.752234571140349
 30
0.0
 11
217.6249788757728
 21
82.380712661447475
 31
0.0
  0
LINE
  5
24F0
  8
0
 62
     0
 10
223.18122859127661
 20
75.506635854654633
 30
0.0
 11
223.368306602632
 21
75.182607234008316
 31
0.0
  0
LINE
  5
24F1
  8
0
 62
     0
 10
221.99060359127671
 20
77.568858847416323
 30
0.0
 11
222.3874785912767
 21
76.881451183162426
 31
0.0
  0
LINE
  5
24F2
  8
0
 62
     0
 10
220.7999785912767
 20
79.631081840178012
 30
0.0
 11
221.19685359127669
 21
78.943674175924116
 31
0.0
  0
LINE
  5
24F3
  8
0
 62
     0
 10
219.60935359127669
 20
81.693304832939702
 30
0.0
 11
220.00622859127671
 21
81.005897168685806
 31
0.0
  0
LINE
  5
24F4
  8
0
 62
     0
 10
223.18122830678061
 20
78.2562663474163
 30
0.0
 11
223.5781033067806
 21
77.568858683162404
 31
0.0
  0
LINE
  5
24F5
  8
0
 62
     0
 10
221.9906033067806
 20
80.318489340178004
 30
0.0
 11
222.38747830678059
 21
79.631081675924094
 31
0.0
  0
LINE
  5
24F6
  8
0
 62
     0
 10
220.79997830678059
 20
82.38071233293968
 30
0.0
 11
221.19685330678061
 21
81.693304668685784
 31
0.0
  0
LINE
  5
24F7
  8
0
 62
     0
 10
214.053095056394
 20
77.568888413117975
 30
0.0
 11
213.7562891263369
 21
77.054805462271389
 31
0.0
  0
LINE
  5
24F8
  8
0
 62
     0
 10
215.24372005639401
 20
79.631111405879665
 30
0.0
 11
214.84684505639399
 21
78.943703741625754
 31
0.0
  0
LINE
  5
24F9
  8
0
 62
     0
 10
216.43434505639399
 20
81.693334398641355
 30
0.0
 11
216.03747005639389
 21
81.005926734387444
 31
0.0
  0
LINE
  5
24FA
  8
0
 62
     0
 10
215.24371977189779
 20
76.881480913117997
 30
0.0
 11
214.84684477189791
 21
76.1940732488641
 31
0.0
  0
LINE
  5
24FB
  8
0
 62
     0
 10
216.4343447718978
 20
78.943703905879687
 30
0.0
 11
216.0374697718978
 21
78.25629624162579
 31
0.0
  0
LINE
  5
24FC
  8
0
 62
     0
 10
217.62496977189781
 20
81.005926898641377
 30
0.0
 11
217.22809477189779
 21
80.318519234387495
 31
0.0
  0
LINE
  5
24FD
  8
0
 62
     0
 10
218.75183127575829
 20
82.957708276421144
 30
0.0
 11
218.4187197718978
 21
82.38074222714917
 31
0.0
  0
LINE
  5
24FE
  8
0
 62
     0
 10
215.24371948740179
 20
74.131850420356272
 30
0.0
 11
214.9698389897213
 21
73.657475483171396
 31
0.0
  0
LINE
  5
24FF
  8
0
 62
     0
 10
216.4343444874018
 20
76.194073413117962
 30
0.0
 11
216.03746948740181
 21
75.506665748864066
 31
0.0
  0
LINE
  5
2500
  8
0
 62
     0
 10
217.62496948740181
 20
78.256296405879652
 30
0.0
 11
217.22809448740171
 21
77.568888741625756
 31
0.0
  0
LINE
  5
2501
  8
0
 62
     0
 10
218.81559448740171
 20
80.318519398641342
 30
0.0
 11
218.41871948740169
 21
79.631111734387446
 31
0.0
  0
LINE
  5
2502
  8
0
 62
     0
 10
220.00621948740169
 20
82.380742391403032
 30
0.0
 11
219.6093444874017
 21
81.693334727149136
 31
0.0
  0
LINE
  5
2503
  8
0
 62
     0
 10
216.43434420290569
 20
73.444442920356295
 30
0.0
 11
216.0374692029057
 21
72.757035256102384
 31
0.0
  0
LINE
  5
2504
  8
0
 62
     0
 10
217.6249692029057
 20
75.506665913117985
 30
0.0
 11
217.22809420290571
 21
74.819258248864088
 31
0.0
  0
LINE
  5
2505
  8
0
 62
     0
 10
218.81559420290569
 20
77.568888905879675
 30
0.0
 11
218.41871920290569
 21
76.881481241625764
 31
0.0
  0
LINE
  5
2506
  8
0
 62
     0
 10
220.0062192029057
 20
79.631111898641365
 30
0.0
 11
219.60934420290559
 21
78.943704234387468
 31
0.0
  0
LINE
  5
2507
  8
0
 62
     0
 10
221.1968442029056
 20
81.693334891403055
 30
0.0
 11
220.7999692029056
 21
81.005927227149158
 31
0.0
  0
LINE
  5
2508
  8
0
 62
     0
 10
217.62496891840959
 20
72.757035420356274
 30
0.0
 11
217.2280939184096
 21
72.069627756102378
 31
0.0
  0
LINE
  5
2509
  8
0
 62
     0
 10
218.8155939184096
 20
74.819258413117964
 30
0.0
 11
218.41871891840961
 21
74.131850748864053
 31
0.0
  0
LINE
  5
250A
  8
0
 62
     0
 10
220.0062189184095
 20
76.881481405879654
 30
0.0
 11
219.60934391840959
 21
76.194073741625758
 31
0.0
  0
LINE
  5
250B
  8
0
 62
     0
 10
221.19684391840951
 20
78.943704398641344
 30
0.0
 11
220.7999689184096
 21
78.256296734387433
 31
0.0
  0
LINE
  5
250C
  8
0
 62
     0
 10
222.3874689184095
 20
81.005927391403034
 30
0.0
 11
221.9905939184095
 21
80.318519727149138
 31
0.0
  0
LINE
  5
250D
  8
0
 62
     0
 10
218.81559363391349
 20
72.069627920356325
 30
0.0
 11
218.61242073227021
 21
71.717722131988978
 31
0.0
  0
LINE
  5
250E
  8
0
 62
     0
 10
220.00621863391351
 20
74.131850913118015
 30
0.0
 11
219.60934363391351
 21
73.444443248864118
 31
0.0
  0
LINE
  5
250F
  8
0
 62
     0
 10
221.19684363391349
 20
76.194073905879705
 30
0.0
 11
220.79996863391349
 21
75.506666241625794
 31
0.0
  0
LINE
  5
2510
  8
0
 62
     0
 10
222.3874686339135
 20
78.256296898641395
 30
0.0
 11
221.99059363391351
 21
77.568889234387498
 31
0.0
  0
LINE
  5
2511
  8
0
 62
     0
 10
223.2589945468159
 20
79.765824059901291
 30
0.0
 11
223.1812186339134
 21
79.631112227149188
 31
0.0
  0
LINE
  5
2512
  8
0
 62
     0
 10
221.19684334941741
 20
73.444443413117952
 30
0.0
 11
220.79996834941741
 21
72.757035748864055
 31
0.0
  0
LINE
  5
2513
  8
0
 62
     0
 10
222.3874683494173
 20
75.506666405879642
 30
0.0
 11
221.99059334941731
 21
74.819258741625745
 31
0.0
  0
LINE
  5
2514
  8
0
 62
     0
 10
223.57809334941729
 20
77.568889398641332
 30
0.0
 11
223.18121834941729
 21
76.881481734387435
 31
0.0
  0
LINE
  5
2515
  8
0
 62
     0
 10
220.0062499284841
 20
72.757029999977604
 30
0.0
 11
220.79999992848411
 21
72.757029999977604
 31
0.0
  0
LINE
  5
2516
  8
0
 62
     0
 10
217.6249999284841
 20
72.757029999977604
 30
0.0
 11
218.41874992848409
 21
72.757029999977604
 31
0.0
  0
LINE
  5
2517
  8
0
 62
     0
 10
215.8507686758841
 20
72.757029999977604
 30
0.0
 11
216.0374999284841
 21
72.757029999977604
 31
0.0
  0
LINE
  5
2518
  8
0
 62
     0
 10
222.38749992848409
 20
74.131844999977602
 30
0.0
 11
222.85772739355309
 21
74.131844999977602
 31
0.0
  0
LINE
  5
2519
  8
0
 62
     0
 10
220.0062499284841
 20
74.131844999977602
 30
0.0
 11
220.79999992848411
 21
74.131844999977602
 31
0.0
  0
LINE
  5
251A
  8
0
 62
     0
 10
217.6249999284841
 20
74.131844999977602
 30
0.0
 11
218.41874992848409
 21
74.131844999977602
 31
0.0
  0
LINE
  5
251B
  8
0
 62
     0
 10
215.24374992848411
 20
74.131844999977602
 30
0.0
 11
216.0374999284841
 21
74.131844999977602
 31
0.0
  0
LINE
  5
251C
  8
0
 62
     0
 10
222.38749992848409
 20
75.506659999977614
 30
0.0
 11
223.18124992848411
 21
75.506659999977614
 31
0.0
  0
LINE
  5
251D
  8
0
 62
     0
 10
220.0062499284841
 20
75.506659999977614
 30
0.0
 11
220.79999992848411
 21
75.506659999977614
 31
0.0
  0
LINE
  5
251E
  8
0
 62
     0
 10
217.6249999284841
 20
75.506659999977614
 30
0.0
 11
218.41874992848409
 21
75.506659999977614
 31
0.0
  0
LINE
  5
251F
  8
0
 62
     0
 10
215.24374992848411
 20
75.506659999977614
 30
0.0
 11
216.0374999284841
 21
75.506659999977614
 31
0.0
  0
LINE
  5
2520
  8
0
 62
     0
 10
222.38749992848409
 20
76.881474999977598
 30
0.0
 11
223.18124992848411
 21
76.881474999977598
 31
0.0
  0
LINE
  5
2521
  8
0
 62
     0
 10
220.0062499284841
 20
76.881474999977598
 30
0.0
 11
220.79999992848411
 21
76.881474999977598
 31
0.0
  0
LINE
  5
2522
  8
0
 62
     0
 10
217.6249999284841
 20
76.881474999977598
 30
0.0
 11
218.41874992848409
 21
76.881474999977598
 31
0.0
  0
LINE
  5
2523
  8
0
 62
     0
 10
215.24374992848411
 20
76.881474999977598
 30
0.0
 11
216.0374999284841
 21
76.881474999977598
 31
0.0
  0
LINE
  5
2524
  8
0
 62
     0
 10
222.38749992848409
 20
78.256289999977611
 30
0.0
 11
223.18124992848411
 21
78.256289999977611
 31
0.0
  0
LINE
  5
2525
  8
0
 62
     0
 10
220.0062499284841
 20
78.256289999977611
 30
0.0
 11
220.79999992848411
 21
78.256289999977611
 31
0.0
  0
LINE
  5
2526
  8
0
 62
     0
 10
217.6249999284841
 20
78.256289999977611
 30
0.0
 11
218.41874992848409
 21
78.256289999977611
 31
0.0
  0
LINE
  5
2527
  8
0
 62
     0
 10
215.24374992848411
 20
78.256289999977611
 30
0.0
 11
216.0374999284841
 21
78.256289999977611
 31
0.0
  0
LINE
  5
2528
  8
0
 62
     0
 10
222.38749992848409
 20
79.631104999977595
 30
0.0
 11
223.18124992848411
 21
79.631104999977595
 31
0.0
  0
LINE
  5
2529
  8
0
 62
     0
 10
220.0062499284841
 20
79.631104999977595
 30
0.0
 11
220.79999992848411
 21
79.631104999977595
 31
0.0
  0
LINE
  5
252A
  8
0
 62
     0
 10
217.6249999284841
 20
79.631104999977595
 30
0.0
 11
218.41874992848409
 21
79.631104999977595
 31
0.0
  0
LINE
  5
252B
  8
0
 62
     0
 10
215.24374992848411
 20
79.631104999977595
 30
0.0
 11
216.0374999284841
 21
79.631104999977595
 31
0.0
  0
LINE
  5
252C
  8
0
 62
     0
 10
222.38749992848409
 20
81.005919999977607
 30
0.0
 11
222.53777211022819
 21
81.005919999977607
 31
0.0
  0
LINE
  5
252D
  8
0
 62
     0
 10
220.0062499284841
 20
81.005919999977607
 30
0.0
 11
220.79999992848411
 21
81.005919999977607
 31
0.0
  0
LINE
  5
252E
  8
0
 62
     0
 10
217.6249999284841
 20
81.005919999977607
 30
0.0
 11
218.41874992848409
 21
81.005919999977607
 31
0.0
  0
LINE
  5
252F
  8
0
 62
     0
 10
215.24374992848411
 20
81.005919999977607
 30
0.0
 11
216.0374999284841
 21
81.005919999977607
 31
0.0
  0
LINE
  5
2530
  8
0
 62
     0
 10
220.0062499284841
 20
82.380734999977605
 30
0.0
 11
220.79999992848411
 21
82.380734999977605
 31
0.0
  0
LINE
  5
2531
  8
0
 62
     0
 10
217.6249999284841
 20
82.380734999977605
 30
0.0
 11
218.41874992848409
 21
82.380734999977605
 31
0.0
  0
ENDBLK
  5
2533
  8
0
  0
BLOCK
  8
0
  2
*U19
 70
     1
 10
0.0
 20
0.0
 30
0.0
  3
*U19
  1

  0
TEXT
  5
257C
  8
SAPA_MATT
 62
     2
 10
131.39999992795211
 20
21.99944465005569
 30
0.0
 40
3.0
  1
157
  7
ISO
  0
ENDBLK
  5
257E
  8
0
  0
BLOCK
  8
0
  2
*U20
 70
     1
 10
0.0
 20
0.0
 30
0.0
  3
*U20
  1

  0
TEXT
  5
2580
  8
SAPA_MATT
 62
     2
 10
97.099999928239058
 20
9.9994446500556933
 30
0.0
 40
3.0
  1
227
  7
ISO
  0
ENDBLK
  5
2582
  8
0
  0
BLOCK
  8
0
  2
*U21
 70
     1
 10
0.0
 20
0.0
 30
0.0
  3
*U21
  1

  0
TEXT
  5
2584
  8
SAPA_MATT
 62
     2
 10
-43.749999857112023
 20
92.899444650054676
 30
0.0
 40
3.0
  1
60
 50
90.0
  7
ISO
  0
ENDBLK
  5
2586
  8
0
  0
BLOCK
  8
0
  2
*U22
 70
     1
 10
0.0
 20
0.0
 30
0.0
  3
*U22
  1

  0
TEXT
  5
2588
  8
SAPA_MATT
 62
     2
 10
-55.749999857112037
 20
90.399444650054448
 30
0.0
 40
3.0
  1
65
 50
90.0
  7
ISO
  0
ENDBLK
  5
258A
  8
0
  0
ENDSEC
  0
SECTION
  2
ENTITIES
  0
LINE
  5
1CAE
  8
SAPA_FOGBAND
 10
144.3504324596552
 20
70.088045158833779
 30
0.0
 11
149.34663578783139
 21
70.088045158831051
 31
0.0
  0
LINE
  5
1CAF
  8
SAPA_FOGBAND
 10
149.34663578783139
 20
69.938045158832324
 30
0.0
 11
144.3504324596552
 21
69.938045158832324
 31
0.0
  0
LINE
  5
1CB3
  8
SAPA_FOGBAND
 10
144.3504324596552
 20
78.588045158838327
 30
0.0
 11
148.9249593133099
 21
78.588045158834689
 31
0.0
  0
LINE
  5
1CB4
  8
SAPA_FOGBAND
 10
148.9249593133099
 20
78.438045158836871
 30
0.0
 11
144.3504324596552
 21
78.438045158836871
 31
0.0
  0
LINE
  5
1CB8
  8
SAPA_FOGBAND
 10
210.14956739588891
 20
70.088045158833779
 30
0.0
 11
205.25089830536029
 21
70.088045158831051
 31
0.0
  0
LINE
  5
1CB9
  8
SAPA_FOGBAND
 10
205.25089830536029
 20
69.938045158832324
 30
0.0
 11
210.14956739588891
 21
69.938045158832324
 31
0.0
  0
LINE
  5
1CBD
  8
SAPA_FOGBAND
 10
210.14956739588891
 20
78.588045158838327
 30
0.0
 11
205.68574742268541
 21
78.588045158834689
 31
0.0
  0
LINE
  5
1CBE
  8
SAPA_FOGBAND
 10
205.68574742268541
 20
78.438045158836871
 30
0.0
 11
210.14956739588891
 21
78.438045158836871
 31
0.0
  0
LINE
  5
1CC2
  8
SAPA_GLAS
 10
49.999999928224042
 20
60.199436650060882
 30
0.0
 11
49.249999928210848
 21
60.199436650060882
 31
0.0
  0
LINE
  5
1CC3
  8
SAPA_GLAS
 10
49.249999928210848
 20
72.999436650071743
 30
0.0
 11
49.999999928209952
 21
72.999436650072653
 31
0.0
  0
LINE
  5
1CC5
  8
SAPA_GLAS
 10
-3.5000000721406641
 20
60.199436650060882
 30
0.0
 11
-2.7500000721274769
 21
60.199436650060882
 31
0.0
  0
LINE
  5
1CC6
  8
SAPA_GLAS
 10
-2.7500000721274769
 20
72.999436650071743
 30
0.0
 11
-3.5000000721265669
 21
72.999436650072653
 31
0.0
  0
LINE
  5
1CCD
  8
SAPA_FOGBAND
 10
67.350432459630156
 20
70.088037158838347
 30
0.0
 11
72.346635787806463
 21
70.088037158835618
 31
0.0
  0
LINE
  5
1CCE
  8
SAPA_FOGBAND
 10
72.346635787806463
 20
69.938037158836892
 30
0.0
 11
67.350432459630156
 21
69.938037158836892
 31
0.0
  0
LINE
  5
1CD2
  8
SAPA_FOGBAND
 10
67.350432459630156
 20
78.588037158842894
 30
0.0
 11
71.924959313284944
 21
78.588037158839256
 31
0.0
  0
LINE
  5
1CD3
  8
SAPA_FOGBAND
 10
71.924959313284944
 20
78.438037158841439
 30
0.0
 11
67.350432459630156
 21
78.438037158841439
 31
0.0
  0
LINE
  5
1CD7
  8
SAPA_FOGBAND
 10
133.149567467417
 20
70.088037158838347
 30
0.0
 11
128.2508983768885
 21
70.088037158835618
 31
0.0
  0
LINE
  5
1CD8
  8
SAPA_FOGBAND
 10
128.2508983768885
 20
69.938037158836892
 30
0.0
 11
133.149567467417
 21
69.938037158836892
 31
0.0
  0
LINE
  5
1CDC
  8
SAPA_FOGBAND
 10
133.149567467417
 20
78.588037158842894
 30
0.0
 11
128.6857474942135
 21
78.588037158839256
 31
0.0
  0
LINE
  5
1CDD
  8
SAPA_FOGBAND
 10
128.6857474942135
 20
78.438037158841439
 30
0.0
 11
133.149567467417
 21
78.438037158841439
 31
0.0
  0
LINE
  5
1CE1
  8
SAPA_FOGBAND
 10
-9.6495675400751661
 20
70.088045158833779
 30
0.0
 11
-4.6533642118988601
 21
70.088045158831051
 31
0.0
  0
LINE
  5
1CE2
  8
SAPA_FOGBAND
 10
-4.6533642118988601
 20
69.938045158832324
 30
0.0
 11
-9.6495675400751661
 21
69.938045158832324
 31
0.0
  0
LINE
  5
1CE6
  8
SAPA_FOGBAND
 10
-9.6495675400751661
 20
78.588045158838327
 30
0.0
 11
-5.0750406864203788
 21
78.588045158834689
 31
0.0
  0
LINE
  5
1CE7
  8
SAPA_FOGBAND
 10
-5.0750406864203788
 20
78.438045158836871
 30
0.0
 11
-9.6495675400751661
 21
78.438045158836871
 31
0.0
  0
LINE
  5
1CEB
  8
SAPA_FOGBAND
 10
56.149567467381083
 20
70.088045158833779
 30
0.0
 11
51.250898376852547
 21
70.088045158831051
 31
0.0
  0
LINE
  5
1CEC
  8
SAPA_FOGBAND
 10
51.250898376852547
 20
69.938045158832324
 30
0.0
 11
56.149567467381083
 21
69.938045158832324
 31
0.0
  0
LINE
  5
1CF0
  8
SAPA_FOGBAND
 10
56.149567467381083
 20
78.588045158838327
 30
0.0
 11
51.685747494177569
 21
78.588045158834689
 31
0.0
  0
LINE
  5
1CF1
  8
SAPA_FOGBAND
 10
51.685747494177569
 20
78.438045158836871
 30
0.0
 11
56.149567467381083
 21
78.438045158836871
 31
0.0
  0
TEXT
  5
1CF3
  8
SAPA_ARTIKELNR
 10
-14.90454950585899
 20
89.437483755357334
 30
0.0000000048844772
 40
3.5
  1
D9K035
 50
90.0
  7
ISO
  0
LINE
  5
1CF4
  8
SAPA_ANSLUTNING
 10
-13.24999992848598
 20
140.0000000000004
 30
0.0
 11
223.74999985622529
 21
140.00000000000031
 31
0.0
  0
LINE
  5
1CF5
  8
SAPA_ANSLUTNING
 10
-13.250000071625889
 20
64.999999999994984
 30
0.0
 11
-60.786845801902473
 21
64.999999999994984
 31
0.0
  0
LINE
  5
1CF6
  8
SAPA_ANSLUTNING
 10
-13.24999992848598
 20
64.999999999994984
 30
0.0
 11
-13.24999992848598
 21
140.0000000000004
 31
0.0
  0
INSERT
  5
1CFA
  8
SAPA_ANSLUTNING
  6
CONTINUOUS
  2
*X17
 10
0.0
 20
0.0
 30
0.0
1001
ACAD
1000
HATCH
1002
{
1070
    19
1000
ANSI37
1040
0.25
1040
0.0
1000
R14_HATCH_DATA
1000
1CFA
1011
1.0
1021
0.0
1031
0.0
1021
0.0
1031
0.0
1011
0.0
1021
0.0
1031
0.0
1021
1.0
1031
0.0
1011
0.0
1021
0.0
1031
0.0
1021
0.0
1031
1.0
1040
0.0
1010
0.0
1020
0.0
1030
1.0
1000
ANSI37
1070
     0
1070
     0
1071
        1
1071
        1
1071
        6
1070
     3
1040
218.74999985622529
1040
77.336651236668445
1040
0.0
1040
5.6210574168242138
1040
0.8895123513655372
1040
1.5707963267948959
1040
2.144309431217978
1070
     1
1070
     3
1040
218.74999985622529
1040
77.336651236668445
1040
0.0
1040
5.6210574168242138
1040
0.8895123513655372
1040
2.144309431217978
1040
4.7123889803846888
1070
     1
1070
     1
1040
223.74999985622529
1040
77.336651236667763
1040
223.74999985622529
1040
64.99999999999261
1070
     2
1040
217.0782582802612
1040
40.351707880117708
1040
25.535278343560961
1040
1.3064530021775029
1040
1.7246828695821601
1070
     1
1070
     2
1040
211.7499999281045
1040
66.999444650055352
1040
1.9999999999999349
1040
5.4977871437820971
1040
6.283185307179699
1070
     1
1070
     1
1040
213.74999992810399
1040
66.999444650055565
1040
213.7499998562248
1040
77.336651236668203
1071
        0
1070
     0
1070
     1
1040
0.0
1040
0.25
1070
     0
1070
     2
1040
5.4977871437821371
1040
74.749999928484158
1040
124.9999999999776
1040
-0.5612660075668221
1040
-0.5612660075668221
1070
     0
1040
3.926990816987241
1040
74.749999928484158
1040
124.9999999999776
1040
-0.5612660075668221
1040
0.5612660075668221
1070
     0
1071
        1
1040
217.7486762754738
1040
68.579635287051701
1040
0.0
1002
}
  0
LINE
  5
1CFB
  8
SAPA_ANSLUTNING
 10
223.74999985622529
 20
64.99999999999261
 30
0.0
 11
268.75325586288358
 21
64.99999999999261
 31
0.0
  0
LINE
  5
1CFC
  8
SAPA_ANSLUTNING
 10
223.74999985622529
 20
139.99999999999801
 30
0.0
 11
223.74999985622529
 21
64.99999999999261
 31
0.0
  0
INSERT
  5
1CFD
  8
SAPA_ANSLUTNING
  6
CONTINUOUS
  2
*X18
 10
0.0
 20
0.0
 30
0.0
1001
ACAD
1000
HATCH
1002
{
1070
    19
1000
HEX
1040
0.25
1040
0.0
1000
ASC_BOUNDS
1070
     1
1070
     1
1070
     1
1005
1CFE
1000
ASC_SEEDPOINT
1011
218.9921098662999
1021
0.0
1031
0.0
1021
77.218313547611729
1031
0.0
1000
R14_HATCH_DATA
1000
1CFD
1011
1.0
1021
0.0
1031
0.0
1021
0.0
1031
0.0
1011
0.0
1021
0.0
1031
0.0
1021
1.0
1031
0.0
1011
0.0
1021
0.0
1031
0.0
1021
0.0
1031
1.0
1040
0.0
1010
0.0
1020
0.0
1030
1.0
1000
HEX
1070
     0
1070
     1
1071
        1
1071
        5
1071
        1
1070
     3
1040
218.74999985622529
1040
77.336651236668445
1040
0.0
1040
5.6210574168242138
1040
0.8895123513655372
1040
0.0
1040
6.2831853071795862
1070
     0
1071
        1
1005
1CFE
1070
     0
1070
     1
1040
0.0
1040
0.25
1070
     0
1070
     3
1040
0.0
1040
74.749999928484158
1040
124.9999999999776
1040
0.0
1040
-1.374814999999999
1070
     2
1040
0.79375
1040
-1.587499999999999
1040
4.1887902047863914
1040
74.749999928484158
1040
124.9999999999776
1040
-1.190624715503902
1040
0.6874074999999996
1070
     2
1040
0.7937499999999993
1040
-1.5874999999999979
1040
5.2359877559829879
1040
75.543749928483976
1040
124.9999999999776
1040
-1.190624715503902
1040
-0.6874075000000001
1070
     2
1040
0.79375
1040
-1.587499999999999
1040
0.0591690278051155
1071
        1
1040
218.9921098662999
1040
77.218313547611729
1040
0.0
1002
}
  0
POLYLINE
  5
1CFE
  8
SAPA_ANSLUTNING
 10
218.74999985622529
 20
82.957708653492659
 30
0.0
 66
     1
 70
     8
  0
VERTEX
  8
SAPA_ANSLUTNING
  5
258F
 10
218.750
 20
82.9577
 30
0.000000
  70
    32
  0
VERTEX
  8
SAPA_ANSLUTNING
  5
2590
 10
218.995
 20
82.9509
 30
0.000000
  70
    32
  0
VERTEX
  8
SAPA_ANSLUTNING
  5
2591
 10
219.240
 20
82.9306
 30
0.000000
  70
    32
  0
VERTEX
  8
SAPA_ANSLUTNING
  5
2592
 10
219.484
 20
82.8969
 30
0.000000
  70
    32
  0
VERTEX
  8
SAPA_ANSLUTNING
  5
2593
 10
219.725
 20
82.8497
 30
0.000000
  70
    32
  0
VERTEX
  8
SAPA_ANSLUTNING
  5
2594
 10
219.965
 20
82.7893
 30
0.000000
  70
    32
  0
VERTEX
  8
SAPA_ANSLUTNING
  5
2595
 10
220.201
 20
82.7157
 30
0.000000
  70
    32
  0
VERTEX
  8
SAPA_ANSLUTNING
  5
2596
 10
220.434
 20
82.6291
 30
0.000000
  70
    32
  0
VERTEX
  8
SAPA_ANSLUTNING
  5
2597
 10
220.663
 20
82.5298
 30
0.000000
  70
    32
  0
VERTEX
  8
SAPA_ANSLUTNING
  5
2598
 10
220.888
 20
82.4180
 30
0.000000
  70
    32
  0
VERTEX
  8
SAPA_ANSLUTNING
  5
2599
 10
221.107
 20
82.2940
 30
0.000000
  70
    32
  0
VERTEX
  8
SAPA_ANSLUTNING
  5
259A
 10
221.321
 20
82.1580
 30
0.000000
  70
    32
  0
VERTEX
  8
SAPA_ANSLUTNING
  5
259B
 10
221.528
 20
82.0104
 30
0.000000
  70
    32
  0
VERTEX
  8
SAPA_ANSLUTNING
  5
259C
 10
221.728
 20
81.8515
 30
0.000000
  70
    32
  0
VERTEX
  8
SAPA_ANSLUTNING
  5
259D
 10
221.922
 20
81.6818
 30
0.000000
  70
    32
  0
VERTEX
  8
SAPA_ANSLUTNING
  5
259E
 10
222.108
 20
81.5016
 30
0.000000
  70
    32
  0
VERTEX
  8
SAPA_ANSLUTNING
  5
259F
 10
222.286
 20
81.3113
 30
0.000000
  70
    32
  0
VERTEX
  8
SAPA_ANSLUTNING
  5
25A0
 10
222.455
 20
81.1115
 30
0.000000
  70
    32
  0
VERTEX
  8
SAPA_ANSLUTNING
  5
25A1
 10
222.615
 20
80.9026
 30
0.000000
  70
    32
  0
VERTEX
  8
SAPA_ANSLUTNING
  5
25A2
 10
222.766
 20
80.6851
 30
0.000000
  70
    32
  0
VERTEX
  8
SAPA_ANSLUTNING
  5
25A3
 10
222.907
 20
80.4595
 30
0.000000
  70
    32
  0
VERTEX
  8
SAPA_ANSLUTNING
  5
25A4
 10
223.039
 20
80.2265
 30
0.000000
  70
    32
  0
VERTEX
  8
SAPA_ANSLUTNING
  5
25A5
 10
223.160
 20
79.9864
 30
0.000000
  70
    32
  0
VERTEX
  8
SAPA_ANSLUTNING
  5
25A6
 10
223.270
 20
79.7400
 30
0.000000
  70
    32
  0
VERTEX
  8
SAPA_ANSLUTNING
  5
25A7
 10
223.369
 20
79.4877
 30
0.000000
  70
    32
  0
VERTEX
  8
SAPA_ANSLUTNING
  5
25A8
 10
223.458
 20
79.2303
 30
0.000000
  70
    32
  0
VERTEX
  8
SAPA_ANSLUTNING
  5
25A9
 10
223.535
 20
78.9684
 30
0.000000
  70
    32
  0
VERTEX
  8
SAPA_ANSLUTNING
  5
25AA
 10
223.600
 20
78.7025
 30
0.000000
  70
    32
  0
VERTEX
  8
SAPA_ANSLUTNING
  5
25AB
 10
223.654
 20
78.4333
 30
0.000000
  70
    32
  0
VERTEX
  8
SAPA_ANSLUTNING
  5
25AC
 10
223.696
 20
78.1614
 30
0.000000
  70
    32
  0
VERTEX
  8
SAPA_ANSLUTNING
  5
25AD
 10
223.726
 20
77.8876
 30
0.000000
  70
    32
  0
VERTEX
  8
SAPA_ANSLUTNING
  5
25AE
 10
223.744
 20
77.6125
 30
0.000000
  70
    32
  0
VERTEX
  8
SAPA_ANSLUTNING
  5
25AF
 10
223.750
 20
77.3367
 30
0.000000
  70
    32
  0
VERTEX
  8
SAPA_ANSLUTNING
  5
25B0
 10
223.744
 20
77.0608
 30
0.000000
  70
    32
  0
VERTEX
  8
SAPA_ANSLUTNING
  5
25B1
 10
223.726
 20
76.7857
 30
0.000000
  70
    32
  0
VERTEX
  8
SAPA_ANSLUTNING
  5
25B2
 10
223.696
 20
76.5119
 30
0.000000
  70
    32
  0
VERTEX
  8
SAPA_ANSLUTNING
  5
25B3
 10
223.654
 20
76.2400
 30
0.000000
  70
    32
  0
VERTEX
  8
SAPA_ANSLUTNING
  5
25B4
 10
223.600
 20
75.9708
 30
0.000000
  70
    32
  0
VERTEX
  8
SAPA_ANSLUTNING
  5
25B5
 10
223.535
 20
75.7049
 30
0.000000
  70
    32
  0
VERTEX
  8
SAPA_ANSLUTNING
  5
25B6
 10
223.458
 20
75.4430
 30
0.000000
  70
    32
  0
VERTEX
  8
SAPA_ANSLUTNING
  5
25B7
 10
223.369
 20
75.1856
 30
0.000000
  70
    32
  0
VERTEX
  8
SAPA_ANSLUTNING
  5
25B8
 10
223.270
 20
74.9333
 30
0.000000
  70
    32
  0
VERTEX
  8
SAPA_ANSLUTNING
  5
25B9
 10
223.160
 20
74.6869
 30
0.000000
  70
    32
  0
VERTEX
  8
SAPA_ANSLUTNING
  5
25BA
 10
223.039
 20
74.4469
 30
0.000000
  70
    32
  0
VERTEX
  8
SAPA_ANSLUTNING
  5
25BB
 10
222.907
 20
74.2138
 30
0.000000
  70
    32
  0
VERTEX
  8
SAPA_ANSLUTNING
  5
25BC
 10
222.766
 20
73.9882
 30
0.000000
  70
    32
  0
VERTEX
  8
SAPA_ANSLUTNING
  5
25BD
 10
222.615
 20
73.7707
 30
0.000000
  70
    32
  0
VERTEX
  8
SAPA_ANSLUTNING
  5
25BE
 10
222.455
 20
73.5618
 30
0.000000
  70
    32
  0
VERTEX
  8
SAPA_ANSLUTNING
  5
25BF
 10
222.286
 20
73.3620
 30
0.000000
  70
    32
  0
VERTEX
  8
SAPA_ANSLUTNING
  5
25C0
 10
222.108
 20
73.1717
 30
0.000000
  70
    32
  0
VERTEX
  8
SAPA_ANSLUTNING
  5
25C1
 10
221.922
 20
72.9915
 30
0.000000
  70
    32
  0
VERTEX
  8
SAPA_ANSLUTNING
  5
25C2
 10
221.728
 20
72.8218
 30
0.000000
  70
    32
  0
VERTEX
  8
SAPA_ANSLUTNING
  5
25C3
 10
221.528
 20
72.6629
 30
0.000000
  70
    32
  0
VERTEX
  8
SAPA_ANSLUTNING
  5
25C4
 10
221.321
 20
72.5153
 30
0.000000
  70
    32
  0
VERTEX
  8
SAPA_ANSLUTNING
  5
25C5
 10
221.107
 20
72.3793
 30
0.000000
  70
    32
  0
VERTEX
  8
SAPA_ANSLUTNING
  5
25C6
 10
220.888
 20
72.2553
 30
0.000000
  70
    32
  0
VERTEX
  8
SAPA_ANSLUTNING
  5
25C7
 10
220.663
 20
72.1435
 30
0.000000
  70
    32
  0
VERTEX
  8
SAPA_ANSLUTNING
  5
25C8
 10
220.434
 20
72.0442
 30
0.000000
  70
    32
  0
VERTEX
  8
SAPA_ANSLUTNING
  5
25C9
 10
220.201
 20
71.9576
 30
0.000000
  70
    32
  0
VERTEX
  8
SAPA_ANSLUTNING
  5
25CA
 10
219.965
 20
71.8840
 30
0.000000
  70
    32
  0
VERTEX
  8
SAPA_ANSLUTNING
  5
25CB
 10
219.725
 20
71.8236
 30
0.000000
  70
    32
  0
VERTEX
  8
SAPA_ANSLUTNING
  5
25CC
 10
219.484
 20
71.7764
 30
0.000000
  70
    32
  0
VERTEX
  8
SAPA_ANSLUTNING
  5
25CD
 10
219.240
 20
71.7427
 30
0.000000
  70
    32
  0
VERTEX
  8
SAPA_ANSLUTNING
  5
25CE
 10
218.995
 20
71.7224
 30
0.000000
  70
    32
  0
VERTEX
  8
SAPA_ANSLUTNING
  5
25CF
 10
218.750
 20
71.7156
 30
0.000000
  70
    32
  0
VERTEX
  8
SAPA_ANSLUTNING
  5
25D0
 10
218.505
 20
71.7224
 30
0.000000
  70
    32
  0
VERTEX
  8
SAPA_ANSLUTNING
  5
25D1
 10
218.260
 20
71.7427
 30
0.000000
  70
    32
  0
VERTEX
  8
SAPA_ANSLUTNING
  5
25D2
 10
218.016
 20
71.7764
 30
0.000000
  70
    32
  0
VERTEX
  8
SAPA_ANSLUTNING
  5
25D3
 10
217.775
 20
71.8236
 30
0.000000
  70
    32
  0
VERTEX
  8
SAPA_ANSLUTNING
  5
25D4
 10
217.535
 20
71.8840
 30
0.000000
  70
    32
  0
VERTEX
  8
SAPA_ANSLUTNING
  5
25D5
 10
217.299
 20
71.9576
 30
0.000000
  70
    32
  0
VERTEX
  8
SAPA_ANSLUTNING
  5
25D6
 10
217.066
 20
72.0442
 30
0.000000
  70
    32
  0
VERTEX
  8
SAPA_ANSLUTNING
  5
25D7
 10
216.837
 20
72.1435
 30
0.000000
  70
    32
  0
VERTEX
  8
SAPA_ANSLUTNING
  5
25D8
 10
216.612
 20
72.2553
 30
0.000000
  70
    32
  0
VERTEX
  8
SAPA_ANSLUTNING
  5
25D9
 10
216.393
 20
72.3793
 30
0.000000
  70
    32
  0
VERTEX
  8
SAPA_ANSLUTNING
  5
25DA
 10
216.179
 20
72.5153
 30
0.000000
  70
    32
  0
VERTEX
  8
SAPA_ANSLUTNING
  5
25DB
 10
215.972
 20
72.6629
 30
0.000000
  70
    32
  0
VERTEX
  8
SAPA_ANSLUTNING
  5
25DC
 10
215.772
 20
72.8218
 30
0.000000
  70
    32
  0
VERTEX
  8
SAPA_ANSLUTNING
  5
25DD
 10
215.578
 20
72.9915
 30
0.000000
  70
    32
  0
VERTEX
  8
SAPA_ANSLUTNING
  5
25DE
 10
215.392
 20
73.1717
 30
0.000000
  70
    32
  0
VERTEX
  8
SAPA_ANSLUTNING
  5
25DF
 10
215.214
 20
73.3620
 30
0.000000
  70
    32
  0
VERTEX
  8
SAPA_ANSLUTNING
  5
25E0
 10
215.045
 20
73.5618
 30
0.000000
  70
    32
  0
VERTEX
  8
SAPA_ANSLUTNING
  5
25E1
 10
214.885
 20
73.7707
 30
0.000000
  70
    32
  0
VERTEX
  8
SAPA_ANSLUTNING
  5
25E2
 10
214.734
 20
73.9882
 30
0.000000
  70
    32
  0
VERTEX
  8
SAPA_ANSLUTNING
  5
25E3
 10
214.593
 20
74.2138
 30
0.000000
  70
    32
  0
VERTEX
  8
SAPA_ANSLUTNING
  5
25E4
 10
214.461
 20
74.4469
 30
0.000000
  70
    32
  0
VERTEX
  8
SAPA_ANSLUTNING
  5
25E5
 10
214.340
 20
74.6869
 30
0.000000
  70
    32
  0
VERTEX
  8
SAPA_ANSLUTNING
  5
25E6
 10
214.230
 20
74.9333
 30
0.000000
  70
    32
  0
VERTEX
  8
SAPA_ANSLUTNING
  5
25E7
 10
214.131
 20
75.1856
 30
0.000000
  70
    32
  0
VERTEX
  8
SAPA_ANSLUTNING
  5
25E8
 10
214.042
 20
75.4430
 30
0.000000
  70
    32
  0
VERTEX
  8
SAPA_ANSLUTNING
  5
25E9
 10
213.965
 20
75.7049
 30
0.000000
  70
    32
  0
VERTEX
  8
SAPA_ANSLUTNING
  5
25EA
 10
213.900
 20
75.9708
 30
0.000000
  70
    32
  0
VERTEX
  8
SAPA_ANSLUTNING
  5
25EB
 10
213.846
 20
76.2400
 30
0.000000
  70
    32
  0
VERTEX
  8
SAPA_ANSLUTNING
  5
25EC
 10
213.804
 20
76.5119
 30
0.000000
  70
    32
  0
VERTEX
  8
SAPA_ANSLUTNING
  5
25ED
 10
213.774
 20
76.7857
 30
0.000000
  70
    32
  0
VERTEX
  8
SAPA_ANSLUTNING
  5
25EE
 10
213.756
 20
77.0608
 30
0.000000
  70
    32
  0
VERTEX
  8
SAPA_ANSLUTNING
  5
25EF
 10
213.750
 20
77.3367
 30
0.000000
  70
    32
  0
VERTEX
  8
SAPA_ANSLUTNING
  5
25F0
 10
213.756
 20
77.6125
 30
0.000000
  70
    32
  0
VERTEX
  8
SAPA_ANSLUTNING
  5
25F1
 10
213.774
 20
77.8876
 30
0.000000
  70
    32
  0
VERTEX
  8
SAPA_ANSLUTNING
  5
25F2
 10
213.804
 20
78.1614
 30
0.000000
  70
    32
  0
VERTEX
  8
SAPA_ANSLUTNING
  5
25F3
 10
213.846
 20
78.4333
 30
0.000000
  70
    32
  0
VERTEX
  8
SAPA_ANSLUTNING
  5
25F4
 10
213.900
 20
78.7025
 30
0.000000
  70
    32
  0
VERTEX
  8
SAPA_ANSLUTNING
  5
25F5
 10
213.965
 20
78.9684
 30
0.000000
  70
    32
  0
VERTEX
  8
SAPA_ANSLUTNING
  5
25F6
 10
214.042
 20
79.2303
 30
0.000000
  70
    32
  0
VERTEX
  8
SAPA_ANSLUTNING
  5
25F7
 10
214.131
 20
79.4877
 30
0.000000
  70
    32
  0
VERTEX
  8
SAPA_ANSLUTNING
  5
25F8
 10
214.230
 20
79.7400
 30
0.000000
  70
    32
  0
VERTEX
  8
SAPA_ANSLUTNING
  5
25F9
 10
214.340
 20
79.9864
 30
0.000000
  70
    32
  0
VERTEX
  8
SAPA_ANSLUTNING
  5
25FA
 10
214.461
 20
80.2265
 30
0.000000
  70
    32
  0
VERTEX
  8
SAPA_ANSLUTNING
  5
25FB
 10
214.593
 20
80.4595
 30
0.000000
  70
    32
  0
VERTEX
  8
SAPA_ANSLUTNING
  5
25FC
 10
214.734
 20
80.6851
 30
0.000000
  70
    32
  0
VERTEX
  8
SAPA_ANSLUTNING
  5
25FD
 10
214.885
 20
80.9026
 30
0.000000
  70
    32
  0
VERTEX
  8
SAPA_ANSLUTNING
  5
25FE
 10
215.045
 20
81.1115
 30
0.000000
  70
    32
  0
VERTEX
  8
SAPA_ANSLUTNING
  5
25FF
 10
215.214
 20
81.3113
 30
0.000000
  70
    32
  0
VERTEX
  8
SAPA_ANSLUTNING
  5
2600
 10
215.392
 20
81.5016
 30
0.000000
  70
    32
  0
VERTEX
  8
SAPA_ANSLUTNING
  5
2601
 10
215.578
 20
81.6818
 30
0.000000
  70
    32
  0
VERTEX
  8
SAPA_ANSLUTNING
  5
2602
 10
215.772
 20
81.8515
 30
0.000000
  70
    32
  0
VERTEX
  8
SAPA_ANSLUTNING
  5
2603
 10
215.972
 20
82.0104
 30
0.000000
  70
    32
  0
VERTEX
  8
SAPA_ANSLUTNING
  5
2604
 10
216.179
 20
82.1580
 30
0.000000
  70
    32
  0
VERTEX
  8
SAPA_ANSLUTNING
  5
2605
 10
216.393
 20
82.2940
 30
0.000000
  70
    32
  0
VERTEX
  8
SAPA_ANSLUTNING
  5
2606
 10
216.612
 20
82.4180
 30
0.000000
  70
    32
  0
VERTEX
  8
SAPA_ANSLUTNING
  5
2607
 10
216.837
 20
82.5298
 30
0.000000
  70
    32
  0
VERTEX
  8
SAPA_ANSLUTNING
  5
2608
 10
217.066
 20
82.6291
 30
0.000000
  70
    32
  0
VERTEX
  8
SAPA_ANSLUTNING
  5
2609
 10
217.299
 20
82.7157
 30
0.000000
  70
    32
  0
VERTEX
  8
SAPA_ANSLUTNING
  5
260A
 10
217.535
 20
82.7893
 30
0.000000
  70
    32
  0
VERTEX
  8
SAPA_ANSLUTNING
  5
260B
 10
217.775
 20
82.8497
 30
0.000000
  70
    32
  0
VERTEX
  8
SAPA_ANSLUTNING
  5
260C
 10
218.016
 20
82.8969
 30
0.000000
  70
    32
  0
VERTEX
  8
SAPA_ANSLUTNING
  5
260D
 10
218.260
 20
82.9306
 30
0.000000
  70
    32
  0
VERTEX
  8
SAPA_ANSLUTNING
  5
260E
 10
218.505
 20
82.9509
 30
0.000000
  70
    32
  0
VERTEX
  8
SAPA_ANSLUTNING
  5
260F
 10
218.750
 20
82.9577
 30
0.000000
  70
    32
  0
SEQEND
  8
SAPA_ANSLUTNING
  5
2610
  0
POLYLINE
  5
1CFF
  8
SAPA_ANSLUTNING
 66
     1
 10
0.0
 20
0.0
 30
0.0
  0
VERTEX
  5
2534
  8
SAPA_ANSLUTNING
 10
215.2510713995662
 20
81.352069590539145
 30
0.0
 42
-0.8812634091771133
  0
VERTEX
  5
2535
  8
SAPA_ANSLUTNING
 10
215.7499998562252
 20
85.288837618759445
 30
0.0
  0
VERTEX
  5
2536
  8
SAPA_ANSLUTNING
 10
221.7499998562252
 20
85.288837618759445
 30
0.0
 42
0.9999999999999998
  0
VERTEX
  5
2537
  8
SAPA_ANSLUTNING
 10
221.7499998562252
 20
89.288837618759416
 30
0.0
  0
VERTEX
  5
2538
  8
SAPA_ANSLUTNING
 10
215.7499998562252
 20
89.288837618759416
 30
0.0
 42
-0.9999999999999998
  0
VERTEX
  5
2539
  8
SAPA_ANSLUTNING
 10
215.7499998562252
 20
93.28883761875943
 30
0.0
  0
VERTEX
  5
253A
  8
SAPA_ANSLUTNING
 10
221.7499998562252
 20
93.28883761875943
 30
0.0
 42
0.9999999999999998
  0
VERTEX
  5
253B
  8
SAPA_ANSLUTNING
 10
221.7499998562252
 20
97.28883761875943
 30
0.0
  0
VERTEX
  5
253C
  8
SAPA_ANSLUTNING
 10
215.7499998562252
 20
97.28883761875943
 30
0.0
 42
-0.9999999999999998
  0
VERTEX
  5
253D
  8
SAPA_ANSLUTNING
 10
215.7499998562252
 20
101.2888376187594
 30
0.0
  0
VERTEX
  5
253E
  8
SAPA_ANSLUTNING
 10
221.7499998562252
 20
101.2888376187594
 30
0.0
 42
0.9999999999999998
  0
VERTEX
  5
253F
  8
SAPA_ANSLUTNING
 10
221.7499998562252
 20
105.2888376187594
 30
0.0
  0
VERTEX
  5
2540
  8
SAPA_ANSLUTNING
 10
215.7499998562252
 20
105.2888376187594
 30
0.0
 42
-0.9999999999999998
  0
VERTEX
  5
2541
  8
SAPA_ANSLUTNING
 10
215.7499998562252
 20
109.2888376187594
 30
0.0
  0
VERTEX
  5
2542
  8
SAPA_ANSLUTNING
 10
221.7499998562252
 20
109.2888376187594
 30
0.0
 42
0.9999999999999998
  0
VERTEX
  5
2543
  8
SAPA_ANSLUTNING
 10
221.7499998562252
 20
113.2888376187594
 30
0.0
  0
VERTEX
  5
2544
  8
SAPA_ANSLUTNING
 10
215.7499998562252
 20
113.2888376187594
 30
0.0
 42
-0.9999999999999998
  0
VERTEX
  5
2545
  8
SAPA_ANSLUTNING
 10
215.7499998562252
 20
117.2888376187594
 30
0.0
  0
VERTEX
  5
2546
  8
SAPA_ANSLUTNING
 10
221.7499998562252
 20
117.2888376187594
 30
0.0
 42
0.9999999999999998
  0
VERTEX
  5
2547
  8
SAPA_ANSLUTNING
 10
221.7499998562252
 20
121.2888376187594
 30
0.0
  0
VERTEX
  5
2548
  8
SAPA_ANSLUTNING
 10
215.7499998562252
 20
121.2888376187594
 30
0.0
 42
-0.9999999999999998
  0
VERTEX
  5
2549
  8
SAPA_ANSLUTNING
 10
215.7499998562252
 20
125.2888376187594
 30
0.0
  0
VERTEX
  5
254A
  8
SAPA_ANSLUTNING
 10
221.7499998562252
 20
125.2888376187594
 30
0.0
 42
0.9999999999999998
  0
VERTEX
  5
254B
  8
SAPA_ANSLUTNING
 10
221.7499998562252
 20
129.2888376187594
 30
0.0
  0
VERTEX
  5
254C
  8
SAPA_ANSLUTNING
 10
215.7499998562252
 20
129.2888376187594
 30
0.0
 42
-0.9999999999999998
  0
VERTEX
  5
254D
  8
SAPA_ANSLUTNING
 10
215.7499998562252
 20
133.2888376187594
 30
0.0
  0
VERTEX
  5
254E
  8
SAPA_ANSLUTNING
 10
221.7499998562252
 20
133.2888376187594
 30
0.0
 42
0.9999999999999998
  0
VERTEX
  5
254F
  8
SAPA_ANSLUTNING
 10
221.7499998562252
 20
137.2888376187594
 30
0.0
  0
VERTEX
  5
2550
  8
SAPA_ANSLUTNING
 10
215.7499998562252
 20
137.2888376187594
 30
0.0
 42
-0.5251735434384823
  0
VERTEX
  5
2551
  8
SAPA_ANSLUTNING
 10
213.8807090635687
 20
139.99999999999801
 30
0.0
 42
-0.5251735434384823
  0
SEQEND
  5
2552
  8
SAPA_ANSLUTNING
  0
ARC
  5
1D00
  8
SAPA_ANSLUTNING
 10
217.0782582802608
 20
40.351707880116571
 30
0.0
 40
25.53527834356208
 50
74.854243156957779
 51
98.817049425563766
  0
LINE
  5
1D01
  8
SAPA_ANSLUTNING
 10
-12.81323190026569
 20
137.9999999999925
 30
0.0
 11
-12.81323190026569
 21
126.9999999999925
 31
0.0
  0
ARC
  5
1D02
  8
SAPA_ANSLUTNING
 10
-10.81323190026569
 20
126.9999999999925
 30
0.0
 40
2.0
 50
180.0
 51
0.0
  0
LINE
  5
1D03
  8
SAPA_ANSLUTNING
 10
-8.8132319002656914
 20
126.9999999999925
 30
0.0
 11
-8.8132319002656914
 21
137.9999999999925
 31
0.0
  0
ARC
  5
1D04
  8
SAPA_ANSLUTNING
 10
-6.8132319002656914
 20
137.9999999999925
 30
0.0
 40
2.0
 50
0.0
 51
180.0
  0
LINE
  5
1D05
  8
SAPA_ANSLUTNING
 10
-4.8132319002656914
 20
137.9999999999925
 30
0.0
 11
-4.8132319002656914
 21
126.9999999999925
 31
0.0
  0
ARC
  5
1D06
  8
SAPA_ANSLUTNING
 10
-2.8132319002656909
 20
126.9999999999925
 30
0.0
 40
2.0
 50
180.0
 51
0.0
  0
LINE
  5
1D07
  8
SAPA_ANSLUTNING
 10
-0.8132319002656913
 20
126.9999999999925
 30
0.0
 11
-0.8132319002656913
 21
137.9999999999925
 31
0.0
  0
ARC
  5
1D08
  8
SAPA_ANSLUTNING
 10
1.186768099734308
 20
137.9999999999925
 30
0.0
 40
2.0
 50
0.0
 51
180.0
  0
LINE
  5
1D09
  8
SAPA_ANSLUTNING
 10
3.1867680997343082
 20
137.9999999999925
 30
0.0
 11
3.1867680997343082
 21
126.9999999999925
 31
0.0
  0
ARC
  5
1D0A
  8
SAPA_ANSLUTNING
 10
5.1867680997343077
 20
126.9999999999925
 30
0.0
 40
2.0
 50
180.0
 51
0.0
  0
LINE
  5
1D0B
  8
SAPA_ANSLUTNING
 10
7.1867680997343077
 20
126.9999999999925
 30
0.0
 11
7.1867680997343077
 21
137.9999999999925
 31
0.0
  0
ARC
  5
1D0C
  8
SAPA_ANSLUTNING
 10
9.1867680997343086
 20
137.9999999999925
 30
0.0
 40
2.0
 50
0.0
 51
180.0
  0
LINE
  5
1D0D
  8
SAPA_ANSLUTNING
 10
11.18676809973431
 20
137.9999999999925
 30
0.0
 11
11.18676809973431
 21
126.9999999999925
 31
0.0
  0
ARC
  5
1D0E
  8
SAPA_ANSLUTNING
 10
13.18676809973431
 20
126.9999999999925
 30
0.0
 40
2.0
 50
180.0
 51
0.0
  0
LINE
  5
1D0F
  8
SAPA_ANSLUTNING
 10
15.18676809973431
 20
126.9999999999925
 30
0.0
 11
15.18676809973431
 21
137.9999999999925
 31
0.0
  0
ARC
  5
1D10
  8
SAPA_ANSLUTNING
 10
17.186768099734309
 20
137.9999999999925
 30
0.0
 40
2.0
 50
0.0
 51
180.0
  0
LINE
  5
1D11
  8
SAPA_ANSLUTNING
 10
19.186768099734309
 20
137.9999999999925
 30
0.0
 11
19.186768099734309
 21
126.9999999999925
 31
0.0
  0
ARC
  5
1D12
  8
SAPA_ANSLUTNING
 10
21.186768099734309
 20
126.9999999999925
 30
0.0
 40
2.0
 50
180.0
 51
0.0
  0
LINE
  5
1D13
  8
SAPA_ANSLUTNING
 10
23.186768099734309
 20
126.9999999999925
 30
0.0
 11
23.186768099734309
 21
137.9999999999925
 31
0.0
  0
ARC
  5
1D14
  8
SAPA_ANSLUTNING
 10
25.186768099734309
 20
137.9999999999925
 30
0.0
 40
2.0
 50
0.0
 51
180.0
  0
LINE
  5
1D15
  8
SAPA_ANSLUTNING
 10
27.186768099734309
 20
137.9999999999925
 30
0.0
 11
27.186768099734309
 21
126.9999999999925
 31
0.0
  0
ARC
  5
1D16
  8
SAPA_ANSLUTNING
 10
29.186768099734309
 20
126.9999999999925
 30
0.0
 40
2.0
 50
180.0
 51
0.0
  0
LINE
  5
1D17
  8
SAPA_ANSLUTNING
 10
31.186768099734309
 20
126.9999999999925
 30
0.0
 11
31.186768099734309
 21
137.9999999999925
 31
0.0
  0
ARC
  5
1D18
  8
SAPA_ANSLUTNING
 10
33.186768099734309
 20
137.9999999999925
 30
0.0
 40
2.0
 50
0.0
 51
180.0
  0
LINE
  5
1D19
  8
SAPA_ANSLUTNING
 10
35.186768099734309
 20
137.9999999999925
 30
0.0
 11
35.186768099734309
 21
126.9999999999925
 31
0.0
  0
ARC
  5
1D1A
  8
SAPA_ANSLUTNING
 10
37.186768099734309
 20
126.9999999999925
 30
0.0
 40
2.0
 50
180.0
 51
0.0
  0
LINE
  5
1D1B
  8
SAPA_ANSLUTNING
 10
39.186768099734309
 20
126.9999999999925
 30
0.0
 11
39.186768099734309
 21
137.9999999999925
 31
0.0
  0
ARC
  5
1D1C
  8
SAPA_ANSLUTNING
 10
41.186768099734309
 20
137.9999999999925
 30
0.0
 40
2.0
 50
0.0
 51
180.0
  0
LINE
  5
1D1D
  8
SAPA_ANSLUTNING
 10
43.186768099734309
 20
137.9999999999925
 30
0.0
 11
43.186768099734309
 21
126.9999999999925
 31
0.0
  0
ARC
  5
1D1E
  8
SAPA_ANSLUTNING
 10
45.186768099734302
 20
126.9999999999925
 30
0.0
 40
2.0
 50
180.0
 51
0.0
  0
LINE
  5
1D1F
  8
SAPA_ANSLUTNING
 10
47.186768099734302
 20
126.9999999999925
 30
0.0
 11
47.186768099734302
 21
137.9999999999925
 31
0.0
  0
ARC
  5
1D20
  8
SAPA_ANSLUTNING
 10
49.186768099734309
 20
137.9999999999925
 30
0.0
 40
2.0
 50
0.0
 51
180.0
  0
LINE
  5
1D21
  8
SAPA_ANSLUTNING
 10
51.186768099734309
 20
137.9999999999925
 30
0.0
 11
51.186768099734309
 21
126.9999999999925
 31
0.0
  0
ARC
  5
1D22
  8
SAPA_ANSLUTNING
 10
53.186768099734309
 20
126.9999999999925
 30
0.0
 40
2.0
 50
180.0
 51
0.0
  0
LINE
  5
1D23
  8
SAPA_ANSLUTNING
 10
55.186768099734309
 20
126.9999999999925
 30
0.0
 11
55.186768099734309
 21
137.9999999999925
 31
0.0
  0
ARC
  5
1D24
  8
SAPA_ANSLUTNING
 10
57.186768099734302
 20
137.9999999999925
 30
0.0
 40
2.0
 50
0.0000000000065138
 51
180.0
  0
LINE
  5
1D25
  8
SAPA_ANSLUTNING
 10
59.186768099734309
 20
137.9999999999927
 30
0.0
 11
59.186768099734309
 21
126.9999999999925
 31
0.0
  0
ARC
  5
1D26
  8
SAPA_ANSLUTNING
 10
61.186768099734309
 20
126.9999999999925
 30
0.0
 40
2.0
 50
180.0
 51
0.0
  0
LINE
  5
1D27
  8
SAPA_ANSLUTNING
 10
63.186768099734309
 20
126.9999999999925
 30
0.0
 11
63.186768099734309
 21
137.9999999999925
 31
0.0
  0
ARC
  5
1D28
  8
SAPA_ANSLUTNING
 10
65.186768099734309
 20
137.9999999999925
 30
0.0
 40
2.0
 50
0.0
 51
180.0
  0
LINE
  5
1D29
  8
SAPA_ANSLUTNING
 10
67.186768099734294
 20
137.9999999999925
 30
0.0
 11
67.186768099734294
 21
126.9999999999925
 31
0.0
  0
ARC
  5
1D2A
  8
SAPA_ANSLUTNING
 10
69.186768099734309
 20
126.9999999999925
 30
0.0
 40
2.0
 50
180.0
 51
0.0
  0
LINE
  5
1D2B
  8
SAPA_ANSLUTNING
 10
71.186768099734309
 20
126.9999999999925
 30
0.0
 11
71.186768099734309
 21
137.9999999999925
 31
0.0
  0
ARC
  5
1D2C
  8
SAPA_ANSLUTNING
 10
73.186768099734309
 20
137.9999999999925
 30
0.0
 40
2.0
 50
0.0
 51
180.0
  0
LINE
  5
1D2D
  8
SAPA_ANSLUTNING
 10
75.186768099734309
 20
137.9999999999925
 30
0.0
 11
75.186768099734309
 21
126.9999999999925
 31
0.0
  0
ARC
  5
1D2E
  8
SAPA_ANSLUTNING
 10
77.186768099734294
 20
126.9999999999925
 30
0.0
 40
2.0
 50
180.0
 51
0.0
  0
LINE
  5
1D2F
  8
SAPA_ANSLUTNING
 10
79.186768099734309
 20
126.9999999999925
 30
0.0
 11
79.186768099734309
 21
137.9999999999925
 31
0.0
  0
ARC
  5
1D30
  8
SAPA_ANSLUTNING
 10
81.186768099734309
 20
137.9999999999925
 30
0.0
 40
2.0
 50
0.0
 51
180.0
  0
LINE
  5
1D31
  8
SAPA_ANSLUTNING
 10
83.186768099734294
 20
137.9999999999925
 30
0.0
 11
83.186768099734294
 21
126.9999999999925
 31
0.0
  0
ARC
  5
1D32
  8
SAPA_ANSLUTNING
 10
85.186768099734309
 20
126.9999999999925
 30
0.0
 40
2.0
 50
180.0
 51
0.0
  0
LINE
  5
1D33
  8
SAPA_ANSLUTNING
 10
87.186768099734294
 20
126.9999999999925
 30
0.0
 11
87.186768099734294
 21
137.9999999999925
 31
0.0
  0
ARC
  5
1D34
  8
SAPA_ANSLUTNING
 10
89.186768099734309
 20
137.9999999999925
 30
0.0
 40
2.0
 50
0.0
 51
180.0
  0
LINE
  5
1D35
  8
SAPA_ANSLUTNING
 10
91.186768099734309
 20
137.9999999999925
 30
0.0
 11
91.186768099734309
 21
126.9999999999925
 31
0.0
  0
ARC
  5
1D36
  8
SAPA_ANSLUTNING
 10
93.186768099734294
 20
126.9999999999925
 30
0.0
 40
2.0
 50
180.0
 51
0.0
  0
LINE
  5
1D37
  8
SAPA_ANSLUTNING
 10
95.186768099734309
 20
126.9999999999925
 30
0.0
 11
95.186768099734309
 21
137.9999999999925
 31
0.0
  0
ARC
  5
1D38
  8
SAPA_ANSLUTNING
 10
97.186768099734294
 20
137.9999999999925
 30
0.0
 40
2.0
 50
0.0
 51
180.0
  0
LINE
  5
1D39
  8
SAPA_ANSLUTNING
 10
99.186768099734309
 20
137.9999999999925
 30
0.0
 11
99.186768099734309
 21
126.9999999999925
 31
0.0
  0
ARC
  5
1D3A
  8
SAPA_ANSLUTNING
 10
101.18676809973429
 20
126.9999999999925
 30
0.0
 40
2.0
 50
180.0
 51
0.0
  0
LINE
  5
1D3B
  8
SAPA_ANSLUTNING
 10
103.18676809973429
 20
126.9999999999925
 30
0.0
 11
103.18676809973429
 21
137.9999999999925
 31
0.0
  0
ARC
  5
1D3C
  8
SAPA_ANSLUTNING
 10
105.18676809973429
 20
137.9999999999925
 30
0.0
 40
2.0
 50
0.0
 51
180.0
  0
LINE
  5
1D3D
  8
SAPA_ANSLUTNING
 10
107.18676809973429
 20
137.9999999999925
 30
0.0
 11
107.18676809973429
 21
126.9999999999925
 31
0.0
  0
ARC
  5
1D3E
  8
SAPA_ANSLUTNING
 10
109.18676809973429
 20
126.9999999999925
 30
0.0
 40
2.0
 50
180.0
 51
0.0
  0
LINE
  5
1D3F
  8
SAPA_ANSLUTNING
 10
111.18676809973429
 20
126.9999999999925
 30
0.0
 11
111.18676809973429
 21
137.9999999999925
 31
0.0
  0
ARC
  5
1D40
  8
SAPA_ANSLUTNING
 10
113.18676809973429
 20
137.9999999999925
 30
0.0
 40
2.0
 50
0.0
 51
180.0
  0
LINE
  5
1D41
  8
SAPA_ANSLUTNING
 10
115.18676809973429
 20
137.9999999999925
 30
0.0
 11
115.18676809973429
 21
126.9999999999925
 31
0.0
  0
ARC
  5
1D42
  8
SAPA_ANSLUTNING
 10
117.18676809973429
 20
126.9999999999925
 30
0.0
 40
2.0
 50
180.0
 51
0.0
  0
LINE
  5
1D43
  8
SAPA_ANSLUTNING
 10
119.18676809973429
 20
126.9999999999925
 30
0.0
 11
119.18676809973429
 21
137.9999999999925
 31
0.0
  0
ARC
  5
1D44
  8
SAPA_ANSLUTNING
 10
121.18676809973429
 20
137.9999999999925
 30
0.0
 40
2.0
 50
0.0
 51
180.0
  0
LINE
  5
1D45
  8
SAPA_ANSLUTNING
 10
123.18676809973429
 20
137.9999999999925
 30
0.0
 11
123.18676809973429
 21
126.9999999999925
 31
0.0
  0
ARC
  5
1D46
  8
SAPA_ANSLUTNING
 10
125.18676809973429
 20
126.9999999999925
 30
0.0
 40
2.0
 50
180.0
 51
0.0
  0
LINE
  5
1D47
  8
SAPA_ANSLUTNING
 10
127.18676809973429
 20
126.9999999999925
 30
0.0
 11
127.18676809973429
 21
137.9999999999925
 31
0.0
  0
ARC
  5
1D48
  8
SAPA_ANSLUTNING
 10
129.18676809973431
 20
137.9999999999925
 30
0.0
 40
2.0
 50
0.0
 51
180.0
  0
LINE
  5
1D49
  8
SAPA_ANSLUTNING
 10
131.18676809973431
 20
137.9999999999925
 30
0.0
 11
131.18676809973431
 21
126.9999999999925
 31
0.0
  0
ARC
  5
1D4A
  8
SAPA_ANSLUTNING
 10
133.18676809973431
 20
126.9999999999925
 30
0.0
 40
2.0
 50
180.0
 51
0.0
  0
LINE
  5
1D4B
  8
SAPA_ANSLUTNING
 10
135.18676809973431
 20
126.9999999999925
 30
0.0
 11
135.18676809973431
 21
137.9999999999925
 31
0.0
  0
ARC
  5
1D4C
  8
SAPA_ANSLUTNING
 10
137.18676809973431
 20
137.9999999999925
 30
0.0
 40
2.0
 50
0.0
 51
180.0
  0
LINE
  5
1D4D
  8
SAPA_ANSLUTNING
 10
139.18676809973431
 20
137.9999999999925
 30
0.0
 11
139.18676809973431
 21
126.9999999999925
 31
0.0
  0
ARC
  5
1D4E
  8
SAPA_ANSLUTNING
 10
141.18676809973431
 20
126.9999999999925
 30
0.0
 40
2.0
 50
180.0
 51
0.0
  0
LINE
  5
1D4F
  8
SAPA_ANSLUTNING
 10
143.18676809973431
 20
126.9999999999925
 30
0.0
 11
143.18676809973431
 21
137.9999999999925
 31
0.0
  0
ARC
  5
1D50
  8
SAPA_ANSLUTNING
 10
145.18676809973431
 20
137.9999999999925
 30
0.0
 40
2.0
 50
0.0
 51
180.0
  0
LINE
  5
1D51
  8
SAPA_ANSLUTNING
 10
147.18676809973431
 20
137.9999999999925
 30
0.0
 11
147.18676809973431
 21
126.9999999999925
 31
0.0
  0
ARC
  5
1D52
  8
SAPA_ANSLUTNING
 10
149.18676809973431
 20
126.9999999999925
 30
0.0
 40
2.0
 50
180.0
 51
0.0
  0
LINE
  5
1D53
  8
SAPA_ANSLUTNING
 10
151.18676809973431
 20
126.9999999999925
 30
0.0
 11
151.18676809973431
 21
137.9999999999925
 31
0.0
  0
ARC
  5
1D54
  8
SAPA_ANSLUTNING
 10
153.18676809973431
 20
137.9999999999925
 30
0.0
 40
2.0
 50
0.0
 51
180.0
  0
LINE
  5
1D55
  8
SAPA_ANSLUTNING
 10
155.18676809973431
 20
137.9999999999925
 30
0.0
 11
155.18676809973431
 21
126.9999999999925
 31
0.0
  0
ARC
  5
1D56
  8
SAPA_ANSLUTNING
 10
157.18676809973431
 20
126.9999999999925
 30
0.0
 40
2.0
 50
180.0
 51
0.0
  0
LINE
  5
1D57
  8
SAPA_ANSLUTNING
 10
159.18676809973431
 20
126.9999999999925
 30
0.0
 11
159.18676809973431
 21
137.9999999999925
 31
0.0
  0
ARC
  5
1D58
  8
SAPA_ANSLUTNING
 10
161.18676809973431
 20
137.9999999999925
 30
0.0
 40
2.0
 50
0.0
 51
180.0
  0
LINE
  5
1D59
  8
SAPA_ANSLUTNING
 10
163.18676809973431
 20
137.9999999999925
 30
0.0
 11
163.18676809973431
 21
126.9999999999925
 31
0.0
  0
ARC
  5
1D5A
  8
SAPA_ANSLUTNING
 10
165.18676809973431
 20
126.9999999999925
 30
0.0
 40
2.0
 50
180.0
 51
0.0
  0
LINE
  5
1D5B
  8
SAPA_ANSLUTNING
 10
167.18676809973431
 20
126.9999999999925
 30
0.0
 11
167.18676809973431
 21
137.9999999999925
 31
0.0
  0
ARC
  5
1D5C
  8
SAPA_ANSLUTNING
 10
169.18676809973431
 20
137.9999999999925
 30
0.0
 40
2.0
 50
0.0
 51
180.0
  0
LINE
  5
1D5D
  8
SAPA_ANSLUTNING
 10
171.18676809973431
 20
137.9999999999925
 30
0.0
 11
171.18676809973431
 21
126.9999999999925
 31
0.0
  0
ARC
  5
1D5E
  8
SAPA_ANSLUTNING
 10
173.18676809973431
 20
126.9999999999925
 30
0.0
 40
2.0
 50
180.0
 51
0.0
  0
LINE
  5
1D5F
  8
SAPA_ANSLUTNING
 10
175.18676809973431
 20
126.9999999999925
 30
0.0
 11
175.18676809973431
 21
137.9999999999925
 31
0.0
  0
ARC
  5
1D60
  8
SAPA_ANSLUTNING
 10
177.18676809973431
 20
137.9999999999925
 30
0.0
 40
2.0
 50
0.0
 51
180.0
  0
LINE
  5
1D61
  8
SAPA_ANSLUTNING
 10
179.18676809973431
 20
137.9999999999925
 30
0.0
 11
179.18676809973431
 21
126.9999999999925
 31
0.0
  0
ARC
  5
1D62
  8
SAPA_ANSLUTNING
 10
181.18676809973431
 20
126.9999999999925
 30
0.0
 40
2.0
 50
180.0
 51
0.0
  0
LINE
  5
1D63
  8
SAPA_ANSLUTNING
 10
183.18676809973431
 20
126.9999999999925
 30
0.0
 11
183.18676809973431
 21
137.9999999999925
 31
0.0
  0
ARC
  5
1D64
  8
SAPA_ANSLUTNING
 10
185.18676809973431
 20
137.9999999999925
 30
0.0
 40
2.0
 50
0.0
 51
180.0
  0
LINE
  5
1D65
  8
SAPA_ANSLUTNING
 10
187.18676809973431
 20
137.9999999999925
 30
0.0
 11
187.18676809973431
 21
126.9999999999925
 31
0.0
  0
ARC
  5
1D66
  8
SAPA_ANSLUTNING
 10
189.18676809973431
 20
126.9999999999925
 30
0.0
 40
2.0
 50
180.0
 51
0.0
  0
LINE
  5
1D67
  8
SAPA_ANSLUTNING
 10
191.18676809973431
 20
126.9999999999925
 30
0.0
 11
191.18676809973431
 21
137.9999999999925
 31
0.0
  0
ARC
  5
1D68
  8
SAPA_ANSLUTNING
 10
193.18676809973431
 20
137.9999999999925
 30
0.0
 40
2.0
 50
0.0
 51
180.0
  0
LINE
  5
1D69
  8
SAPA_ANSLUTNING
 10
195.18676809973431
 20
137.9999999999925
 30
0.0
 11
195.18676809973431
 21
126.9999999999925
 31
0.0
  0
ARC
  5
1D6A
  8
SAPA_ANSLUTNING
 10
197.18676809973431
 20
126.9999999999925
 30
0.0
 40
2.0
 50
180.0
 51
0.0
  0
LINE
  5
1D6B
  8
SAPA_ANSLUTNING
 10
199.18676809973431
 20
126.9999999999925
 30
0.0
 11
199.18676809973431
 21
137.9999999999925
 31
0.0
  0
ARC
  5
1D6C
  8
SAPA_ANSLUTNING
 10
201.18676809973431
 20
137.9999999999925
 30
0.0
 40
2.0
 50
0.0
 51
180.0
  0
LINE
  5
1D6D
  8
SAPA_ANSLUTNING
 10
203.18676809973431
 20
137.9999999999925
 30
0.0
 11
203.18676809973431
 21
126.9999999999925
 31
0.0
  0
ARC
  5
1D6E
  8
SAPA_ANSLUTNING
 10
205.18676809973431
 20
126.9999999999925
 30
0.0
 40
2.0
 50
180.0
 51
0.0
  0
LINE
  5
1D6F
  8
SAPA_ANSLUTNING
 10
207.18676809973431
 20
126.9999999999925
 30
0.0
 11
207.18676809973431
 21
137.9999999999925
 31
0.0
  0
ARC
  5
1D70
  8
SAPA_ANSLUTNING
 10
209.18676809973431
 20
137.9999999999925
 30
0.0
 40
2.0
 50
0.0
 51
180.0
  0
LINE
  5
1D71
  8
SAPA_ANSLUTNING
 10
211.18676809973431
 20
137.9999999999925
 30
0.0
 11
211.18676809973431
 21
126.9999999999925
 31
0.0
  0
ARC
  5
1D72
  8
SAPA_ANSLUTNING
 10
213.18676809973431
 20
126.9999999999925
 30
0.0
 40
2.0
 50
180.0
 51
0.0
  0
LINE
  5
1FD9
  8
SAPA_FOGBAND
 10
56.149567467381083
 20
78.363045158836144
 30
0.0
 11
51.935116827367438
 21
78.253047773653734
 31
0.0
  0
LINE
  5
1FDA
  8
SAPA_FOGBAND
 10
51.935116827367438
 20
78.253047773653734
 30
0.0
 11
51.935693326242017
 21
75.814954433231946
 31
0.0
  0
LINE
  5
1FDB
  8
SAPA_FOGBAND
 10
51.935693326242017
 20
75.814954433231946
 30
0.0
 11
56.149567467381083
 21
76.940355555696556
 31
0.0
  0
LINE
  5
1FDE
  8
SAPA_FOGBAND
 10
56.149567467381083
 20
80.085734761978657
 30
0.0
 11
51.935523611774897
 21
81.211181359294756
 31
0.0
  0
LINE
  5
1FDF
  8
SAPA_FOGBAND
 10
51.935523611774897
 20
81.211181359294756
 30
0.0
 11
51.935087470954841
 21
78.773043312745472
 31
0.0
  0
LINE
  5
1FE0
  8
SAPA_FOGBAND
 10
51.935087470954841
 20
78.773043312745472
 30
0.0
 11
56.149567467381083
 21
78.663045158839054
 31
0.0
  0
LINE
  5
1FE1
  8
SAPA_FOGBAND
 10
56.949567467382167
 20
75.363045158838872
 30
0.0
 11
56.149567467381083
 21
75.363045158838872
 31
0.0
  0
LINE
  5
1FE2
  8
SAPA_FOGBAND
 10
56.149567467381083
 20
75.363045158838872
 30
0.0
 11
56.149567467381083
 21
81.663045158836326
 31
0.0
  0
LINE
  5
1FE3
  8
SAPA_FOGBAND
 10
56.149567467381083
 20
81.663045158836326
 30
0.0
 11
56.949567467382167
 21
81.663045158836326
 31
0.0
  0
LINE
  5
1FE4
  8
SAPA_FOGBAND
 10
56.949567467382167
 20
81.663045158836326
 30
0.0
 11
56.949567467382167
 21
75.363045158838872
 31
0.0
  0
LINE
  5
1FE5
  8
SAPA_FOGBAND
 10
56.149567467381083
 20
69.863045158831596
 30
0.0
 11
51.500267710042408
 21
69.753047773650096
 31
0.0
  0
LINE
  5
1FE6
  8
SAPA_FOGBAND
 10
51.500267710042408
 20
69.753047773650096
 30
0.0
 11
51.50084420891698
 21
67.314954433227399
 31
0.0
  0
LINE
  5
1FE7
  8
SAPA_FOGBAND
 10
51.50084420891698
 20
67.314954433227399
 30
0.0
 11
56.149567467381083
 21
68.440355555692008
 31
0.0
  0
LINE
  5
1FE8
  8
SAPA_FOGBAND
 10
56.149567467381083
 20
71.585734761974095
 30
0.0
 11
51.500674494449861
 21
72.711181359290208
 31
0.0
  0
LINE
  5
1FE9
  8
SAPA_FOGBAND
 10
51.500674494449861
 20
72.711181359290208
 30
0.0
 11
51.500238353629811
 21
70.273043312741834
 31
0.0
  0
LINE
  5
1FEA
  8
SAPA_FOGBAND
 10
51.500238353629811
 20
70.273043312741834
 30
0.0
 11
56.149567467381083
 21
70.163045158834507
 31
0.0
  0
LINE
  5
1FEB
  8
SAPA_FOGBAND
 10
56.949567467382167
 20
66.863045158835234
 30
0.0
 11
56.149567467381083
 21
66.863045158835234
 31
0.0
  0
LINE
  5
1FEC
  8
SAPA_FOGBAND
 10
56.149567467381083
 20
66.863045158835234
 30
0.0
 11
56.149567467381083
 21
73.163045158831778
 31
0.0
  0
LINE
  5
1FED
  8
SAPA_FOGBAND
 10
56.149567467381083
 20
73.163045158831778
 30
0.0
 11
56.949567467382167
 21
73.163045158831778
 31
0.0
  0
LINE
  5
1FEE
  8
SAPA_FOGBAND
 10
56.949567467382167
 20
73.163045158831778
 30
0.0
 11
56.949567467382167
 21
66.863045158835234
 31
0.0
  0
LINE
  5
1FEF
  8
SAPA_FOGBAND
 10
-9.6495675400751661
 20
78.363045158836144
 30
0.0
 11
-5.32441001961024
 21
78.253047773653734
 31
0.0
  0
LINE
  5
1FF0
  8
SAPA_FOGBAND
 10
-5.32441001961024
 20
78.253047773653734
 30
0.0
 11
-5.3249865184848204
 21
75.814954433231946
 31
0.0
  0
LINE
  5
1FF1
  8
SAPA_FOGBAND
 10
-5.3249865184848204
 20
75.814954433231946
 30
0.0
 11
-9.6495675400751661
 21
76.940355555696556
 31
0.0
  0
LINE
  5
1FF2
  8
SAPA_FOGBAND
 10
-9.6495675400751661
 20
80.085734761978657
 30
0.0
 11
-5.3248168040176997
 21
81.211181359294756
 31
0.0
  0
LINE
  5
1FF3
  8
SAPA_FOGBAND
 10
-5.3248168040176997
 20
81.211181359294756
 30
0.0
 11
-5.324380663197644
 21
78.773043312745472
 31
0.0
  0
LINE
  5
1FF4
  8
SAPA_FOGBAND
 10
-5.324380663197644
 20
78.773043312745472
 30
0.0
 11
-9.6495675400751661
 21
78.663045158839054
 31
0.0
  0
LINE
  5
1FF5
  8
SAPA_FOGBAND
 10
-10.449567540076259
 20
75.363045158838872
 30
0.0
 11
-9.6495675400751661
 21
75.363045158838872
 31
0.0
  0
LINE
  5
1FF6
  8
SAPA_FOGBAND
 10
-9.6495675400751661
 20
75.363045158838872
 30
0.0
 11
-9.6495675400751661
 21
81.663045158836326
 31
0.0
  0
LINE
  5
1FF7
  8
SAPA_FOGBAND
 10
-9.6495675400751661
 20
81.663045158836326
 30
0.0
 11
-10.449567540076259
 21
81.663045158836326
 31
0.0
  0
LINE
  5
1FF8
  8
SAPA_FOGBAND
 10
-10.449567540076259
 20
81.663045158836326
 30
0.0
 11
-10.449567540076259
 21
75.363045158838872
 31
0.0
  0
LINE
  5
1FF9
  8
SAPA_FOGBAND
 10
-9.6495675400751661
 20
69.863045158831596
 30
0.0
 11
-4.9027335450887222
 21
69.753047773650096
 31
0.0
  0
LINE
  5
1FFA
  8
SAPA_FOGBAND
 10
-4.9027335450887222
 20
69.753047773650096
 30
0.0
 11
-4.9033100439633008
 21
67.314954433227399
 31
0.0
  0
LINE
  5
1FFB
  8
SAPA_FOGBAND
 10
-4.9033100439633008
 20
67.314954433227399
 30
0.0
 11
-9.6495675400751661
 21
68.440355555692008
 31
0.0
  0
LINE
  5
1FFC
  8
SAPA_FOGBAND
 10
-9.6495675400751661
 20
71.585734761974095
 30
0.0
 11
-4.9031403294961811
 21
72.711181359290208
 31
0.0
  0
LINE
  5
1FFD
  8
SAPA_FOGBAND
 10
-4.9031403294961811
 20
72.711181359290208
 30
0.0
 11
-4.9027041886761253
 21
70.273043312741834
 31
0.0
  0
LINE
  5
1FFE
  8
SAPA_FOGBAND
 10
-4.9027041886761253
 20
70.273043312741834
 30
0.0
 11
-9.6495675400751661
 21
70.163045158834507
 31
0.0
  0
LINE
  5
1FFF
  8
SAPA_FOGBAND
 10
-10.449567540076259
 20
66.863045158835234
 30
0.0
 11
-9.6495675400751661
 21
66.863045158835234
 31
0.0
  0
LINE
  5
2000
  8
SAPA_FOGBAND
 10
-9.6495675400751661
 20
66.863045158835234
 30
0.0
 11
-9.6495675400751661
 21
73.163045158831778
 31
0.0
  0
LINE
  5
2001
  8
SAPA_FOGBAND
 10
-9.6495675400751661
 20
73.163045158831778
 30
0.0
 11
-10.449567540076259
 21
73.163045158831778
 31
0.0
  0
LINE
  5
2002
  8
SAPA_FOGBAND
 10
-10.449567540076259
 20
73.163045158831778
 30
0.0
 11
-10.449567540076259
 21
66.863045158835234
 31
0.0
  0
LINE
  5
2003
  8
SAPA_FOGBAND
 10
133.149567467417
 20
78.363037158840712
 30
0.0
 11
128.93511682740331
 21
78.253039773658315
 31
0.0
  0
LINE
  5
2004
  8
SAPA_FOGBAND
 10
128.93511682740331
 20
78.253039773658315
 30
0.0
 11
128.93569332627791
 21
75.814946433236514
 31
0.0
  0
LINE
  5
2005
  8
SAPA_FOGBAND
 10
128.93569332627791
 20
75.814946433236514
 30
0.0
 11
133.149567467417
 21
76.940347555701123
 31
0.0
  0
LINE
  5
2006
  8
SAPA_FOGBAND
 10
133.149567467417
 20
80.08572676198321
 30
0.0
 11
128.93552361181079
 21
81.211173359299323
 31
0.0
  0
LINE
  5
2007
  8
SAPA_FOGBAND
 10
128.93552361181079
 20
81.211173359299323
 30
0.0
 11
128.93508747099071
 21
78.773035312750025
 31
0.0
  0
LINE
  5
2008
  8
SAPA_FOGBAND
 10
128.93508747099071
 20
78.773035312750025
 30
0.0
 11
133.149567467417
 21
78.663037158843622
 31
0.0
  0
LINE
  5
2009
  8
SAPA_FOGBAND
 10
133.94956746741809
 20
75.36303715884344
 30
0.0
 11
133.149567467417
 21
75.36303715884344
 31
0.0
  0
LINE
  5
200A
  8
SAPA_FOGBAND
 10
133.149567467417
 20
75.36303715884344
 30
0.0
 11
133.149567467417
 21
81.663037158840879
 31
0.0
  0
LINE
  5
200B
  8
SAPA_FOGBAND
 10
133.149567467417
 20
81.663037158840879
 30
0.0
 11
133.94956746741809
 21
81.663037158840879
 31
0.0
  0
LINE
  5
200C
  8
SAPA_FOGBAND
 10
133.94956746741809
 20
81.663037158840879
 30
0.0
 11
133.94956746741809
 21
75.36303715884344
 31
0.0
  0
LINE
  5
200D
  8
SAPA_FOGBAND
 10
133.149567467417
 20
69.863037158836164
 30
0.0
 11
128.5002677100783
 21
69.753039773654663
 31
0.0
  0
LINE
  5
200E
  8
SAPA_FOGBAND
 10
128.5002677100783
 20
69.753039773654663
 30
0.0
 11
128.50084420895291
 21
67.314946433231967
 31
0.0
  0
LINE
  5
200F
  8
SAPA_FOGBAND
 10
128.50084420895291
 20
67.314946433231967
 30
0.0
 11
133.149567467417
 21
68.440347555696576
 31
0.0
  0
LINE
  5
2010
  8
SAPA_FOGBAND
 10
133.149567467417
 20
71.585726761978663
 30
0.0
 11
128.50067449448579
 21
72.711173359294776
 31
0.0
  0
LINE
  5
2011
  8
SAPA_FOGBAND
 10
128.50067449448579
 20
72.711173359294776
 30
0.0
 11
128.50023835366571
 21
70.273035312746401
 31
0.0
  0
LINE
  5
2012
  8
SAPA_FOGBAND
 10
128.50023835366571
 20
70.273035312746401
 30
0.0
 11
133.149567467417
 21
70.163037158839074
 31
0.0
  0
LINE
  5
2013
  8
SAPA_FOGBAND
 10
133.94956746741809
 20
66.863037158839802
 30
0.0
 11
133.149567467417
 21
66.863037158839802
 31
0.0
  0
LINE
  5
2014
  8
SAPA_FOGBAND
 10
133.149567467417
 20
66.863037158839802
 30
0.0
 11
133.149567467417
 21
73.163037158836346
 31
0.0
  0
LINE
  5
2015
  8
SAPA_FOGBAND
 10
133.149567467417
 20
73.163037158836346
 30
0.0
 11
133.94956746741809
 21
73.163037158836346
 31
0.0
  0
LINE
  5
2016
  8
SAPA_FOGBAND
 10
133.94956746741809
 20
73.163037158836346
 30
0.0
 11
133.94956746741809
 21
66.863037158839802
 31
0.0
  0
LINE
  5
2017
  8
SAPA_FOGBAND
 10
67.350432459630156
 20
78.363037158840712
 30
0.0
 11
71.675589980095083
 21
78.253039773658315
 31
0.0
  0
LINE
  5
2018
  8
SAPA_FOGBAND
 10
71.675589980095083
 20
78.253039773658315
 30
0.0
 11
71.675013481220503
 21
75.814946433236514
 31
0.0
  0
LINE
  5
2019
  8
SAPA_FOGBAND
 10
71.675013481220503
 20
75.814946433236514
 30
0.0
 11
67.350432459630156
 21
76.940347555701123
 31
0.0
  0
LINE
  5
201A
  8
SAPA_FOGBAND
 10
67.350432459630156
 20
80.08572676198321
 30
0.0
 11
71.675183195687623
 21
81.211173359299323
 31
0.0
  0
LINE
  5
201B
  8
SAPA_FOGBAND
 10
71.675183195687623
 20
81.211173359299323
 30
0.0
 11
71.67561933650768
 21
78.773035312750025
 31
0.0
  0
LINE
  5
201C
  8
SAPA_FOGBAND
 10
71.67561933650768
 20
78.773035312750025
 30
0.0
 11
67.350432459630156
 21
78.663037158843622
 31
0.0
  0
LINE
  5
201D
  8
SAPA_FOGBAND
 10
66.550432459629064
 20
75.36303715884344
 30
0.0
 11
67.350432459630156
 21
75.36303715884344
 31
0.0
  0
LINE
  5
201E
  8
SAPA_FOGBAND
 10
67.350432459630156
 20
75.36303715884344
 30
0.0
 11
67.350432459630156
 21
81.663037158840879
 31
0.0
  0
LINE
  5
201F
  8
SAPA_FOGBAND
 10
67.350432459630156
 20
81.663037158840879
 30
0.0
 11
66.550432459629064
 21
81.663037158840879
 31
0.0
  0
LINE
  5
2020
  8
SAPA_FOGBAND
 10
66.550432459629064
 20
81.663037158840879
 30
0.0
 11
66.550432459629064
 21
75.36303715884344
 31
0.0
  0
LINE
  5
2021
  8
SAPA_FOGBAND
 10
67.350432459630156
 20
69.863037158836164
 30
0.0
 11
72.097266454616602
 21
69.753039773654663
 31
0.0
  0
LINE
  5
2022
  8
SAPA_FOGBAND
 10
72.097266454616602
 20
69.753039773654663
 30
0.0
 11
72.096689955742022
 21
67.314946433231967
 31
0.0
  0
LINE
  5
2023
  8
SAPA_FOGBAND
 10
72.096689955742022
 20
67.314946433231967
 30
0.0
 11
67.350432459630156
 21
68.440347555696576
 31
0.0
  0
LINE
  5
2024
  8
SAPA_FOGBAND
 10
67.350432459630156
 20
71.585726761978663
 30
0.0
 11
72.096859670209142
 21
72.711173359294776
 31
0.0
  0
LINE
  5
2025
  8
SAPA_FOGBAND
 10
72.096859670209142
 20
72.711173359294776
 30
0.0
 11
72.097295811029184
 21
70.273035312746401
 31
0.0
  0
LINE
  5
2026
  8
SAPA_FOGBAND
 10
72.097295811029184
 20
70.273035312746401
 30
0.0
 11
67.350432459630156
 21
70.163037158839074
 31
0.0
  0
LINE
  5
2027
  8
SAPA_FOGBAND
 10
66.550432459629064
 20
66.863037158839802
 30
0.0
 11
67.350432459630156
 21
66.863037158839802
 31
0.0
  0
LINE
  5
2028
  8
SAPA_FOGBAND
 10
67.350432459630156
 20
66.863037158839802
 30
0.0
 11
67.350432459630156
 21
73.163037158836346
 31
0.0
  0
LINE
  5
2029
  8
SAPA_FOGBAND
 10
67.350432459630156
 20
73.163037158836346
 30
0.0
 11
66.550432459629064
 21
73.163037158836346
 31
0.0
  0
LINE
  5
202A
  8
SAPA_FOGBAND
 10
66.550432459629064
 20
73.163037158836346
 30
0.0
 11
66.550432459629064
 21
66.863037158839802
 31
0.0
  0
LINE
  5
202B
  8
SAPA_GLAS
 10
5.2499999278893483
 20
40.999436650071743
 30
0.0
 11
5.2499999278893483
 21
72.999436650071743
 31
0.0
  0
LINE
  5
202C
  8
SAPA_GLAS
 10
5.2499999278893483
 20
72.999436650071743
 30
0.0
 11
-2.7500000721106508
 21
72.999436650071743
 31
0.0
  0
LINE
  5
202D
  8
SAPA_GLAS
 10
-2.7500000721106508
 20
72.999436650071743
 30
0.0
 11
-2.7500000721106508
 21
40.999436650071743
 31
0.0
  0
LINE
  5
202E
  8
SAPA_GLAS
 10
5.2499999278893483
 20
62.999436650071743
 30
0.0
 11
20.249999927889348
 21
62.999436650071743
 31
0.0
  0
LINE
  5
202F
  8
SAPA_GLAS
 10
20.249999927889348
 20
62.999436650071743
 30
0.0
 11
20.249999927889348
 21
72.999436650071743
 31
0.0
  0
LINE
  5
2030
  8
SAPA_GLAS
 10
20.249999927889348
 20
72.999436650071743
 30
0.0
 11
5.2499999278893483
 21
72.999436650071743
 31
0.0
  0
LINE
  5
2031
  8
SAPA_GLAS
 10
5.2499999278893483
 20
72.999436650071743
 30
0.0
 11
5.2499999278893483
 21
62.999436650071743
 31
0.0
  0
LINE
  5
2032
  8
SAPA_GLAS
 10
26.249999927889348
 20
40.999436650071743
 30
0.0
 11
26.249999927889348
 21
72.999436650071743
 31
0.0
  0
LINE
  5
2033
  8
SAPA_GLAS
 10
26.249999927889348
 20
72.999436650071743
 30
0.0
 11
20.249999927889348
 21
72.999436650071743
 31
0.0
  0
LINE
  5
2034
  8
SAPA_GLAS
 10
20.249999927889348
 20
72.999436650071743
 30
0.0
 11
20.249999927889348
 21
40.999436650071743
 31
0.0
  0
LINE
  5
2035
  8
SAPA_GLAS
 10
-3.486577297782993
 20
72.999436650072653
 30
0.0
 11
-2.75000007212748
 21
72.262859424417115
 31
0.0
1001
ACAD
1010
0.0
1020
0.0
1030
0.0
  0
LINE
  5
2036
  8
SAPA_GLAS
 10
-3.5000000724674361
 20
71.890327409623438
 30
0.0
 11
-2.750000072127484
 21
71.140327409283486
 31
0.0
1001
ACAD
1010
0.0
1020
0.0
1030
0.0
  0
LINE
  5
2037
  8
SAPA_GLAS
 10
-3.5000000724686302
 20
70.767795394491003
 30
0.0
 11
-2.7500000721274729
 21
70.017795394149843
 31
0.0
1001
ACAD
1010
0.0
1020
0.0
1030
0.0
  0
LINE
  5
2038
  8
SAPA_GLAS
 10
-3.5000000724698341
 20
69.645263379358553
 30
0.0
 11
-2.7500000721274729
 21
68.8952633790162
 31
0.0
1001
ACAD
1010
0.0
1020
0.0
1030
0.0
  0
LINE
  5
2039
  8
SAPA_GLAS
 10
-3.5000000724710278
 20
68.522731364226104
 30
0.0
 11
-2.7500000721274769
 21
67.772731363882556
 31
0.0
1001
ACAD
1010
0.0
1020
0.0
1030
0.0
  0
LINE
  5
203A
  8
SAPA_GLAS
 10
-3.5000000724722251
 20
67.400199349093654
 30
0.0
 11
-2.7500000721274729
 21
66.650199348748899
 31
0.0
1001
ACAD
1010
0.0
1020
0.0
1030
0.0
  0
LINE
  5
203B
  8
SAPA_GLAS
 10
-3.5000000724734259
 20
66.277667333961205
 30
0.0
 11
-2.7500000721274769
 21
65.527667333615256
 31
0.0
1001
ACAD
1010
0.0
1020
0.0
1030
0.0
  0
LINE
  5
203C
  8
SAPA_GLAS
 10
-3.5000000724746201
 20
65.155135318828755
 30
0.0
 11
-2.7500000721274729
 21
64.405135318481612
 31
0.0
1001
ACAD
1010
0.0
1020
0.0
1030
0.0
  0
LINE
  5
203D
  8
SAPA_GLAS
 10
-3.5000000724758129
 20
64.032603303696305
 30
0.0
 11
-2.7500000721274769
 21
63.282603303347969
 31
0.0
1001
ACAD
1010
0.0
1020
0.0
1030
0.0
  0
LINE
  5
203E
  8
SAPA_GLAS
 10
-3.5000000724770208
 20
62.91007128856387
 30
0.0
 11
-2.7500000721274769
 21
62.160071288214318
 31
0.0
1001
ACAD
1010
0.0
1020
0.0
1030
0.0
  0
LINE
  5
203F
  8
SAPA_GLAS
 10
-3.500000072478211
 20
61.787539273431413
 30
0.0
 11
-2.7500000721274729
 21
61.037539273080682
 31
0.0
1001
ACAD
1010
0.0
1020
0.0
1030
0.0
  0
LINE
  5
2040
  8
SAPA_GLAS
 10
-3.5000000724794051
 20
60.665007258298971
 30
0.0
 11
-3.034429464241323
 21
60.199436650060882
 31
0.0
1001
ACAD
1010
0.0
1020
0.0
1030
0.0
  0
LINE
  5
2041
  8
SAPA_GLAS
 10
-3.5000000724663352
 20
72.932149307580659
 30
0.0
 11
-3.4327127299744191
 21
72.999436650072568
 31
0.0
1001
ACAD
1010
0.0
1020
0.0
1030
0.0
  0
LINE
  5
2042
  8
SAPA_GLAS
 10
-3.5000000724675209
 20
71.809617292445836
 30
0.0
 11
-2.7500000721274702
 21
72.559617292785873
 31
0.0
1001
ACAD
1010
0.0
1020
0.0
1030
0.0
  0
LINE
  5
2043
  8
SAPA_GLAS
 10
-3.5000000724687221
 20
70.687085277310985
 30
0.0
 11
-2.7500000721274702
 21
71.43708527765223
 31
0.0
1001
ACAD
1010
0.0
1020
0.0
1030
0.0
  0
LINE
  5
2044
  8
SAPA_GLAS
 10
-3.5000000724699158
 20
69.564553262176133
 30
0.0
 11
-2.7500000721274631
 21
70.314553262518587
 31
0.0
1001
ACAD
1010
0.0
1020
0.0
1030
0.0
  0
LINE
  5
2045
  8
SAPA_GLAS
 10
-3.5000000724711242
 20
68.442021247041282
 30
0.0
 11
-2.7500000721274702
 21
69.192021247384943
 31
0.0
1001
ACAD
1010
0.0
1020
0.0
1030
0.0
  0
LINE
  5
2046
  8
SAPA_GLAS
 10
-3.5000000724723028
 20
67.319489231906459
 30
0.0
 11
-2.7500000721274631
 21
68.0694892322513
 31
0.0
1001
ACAD
1010
0.0
1020
0.0
1030
0.0
  0
LINE
  5
2047
  8
SAPA_GLAS
 10
-3.5000000724735041
 20
66.196957216771622
 30
0.0
 11
-2.7500000721274702
 21
66.946957217117657
 31
0.0
1001
ACAD
1010
0.0
1020
0.0
1030
0.0
  0
LINE
  5
2048
  8
SAPA_GLAS
 10
-3.5000000724746978
 20
65.074425201636785
 30
0.0
 11
-2.7500000721274631
 21
65.824425201984013
 31
0.0
1001
ACAD
1010
0.0
1020
0.0
1030
0.0
  0
LINE
  5
2049
  8
SAPA_GLAS
 10
-3.5000000724759128
 20
63.95189318650192
 30
0.0
 11
-2.7500000721274702
 21
64.701893186850356
 31
0.0
1001
ACAD
1010
0.0
1020
0.0
1030
0.0
  0
LINE
  5
204A
  8
SAPA_GLAS
 10
-3.5000000724770919
 20
62.82936117136709
 30
0.0
 11
-2.7500000721274702
 21
63.579361171716712
 31
0.0
1001
ACAD
1010
0.0
1020
0.0
1030
0.0
  0
LINE
  5
204B
  8
SAPA_GLAS
 10
-3.5000000724782931
 20
61.706829156232267
 30
0.0
 11
-2.7500000721274769
 21
62.456829156583069
 31
0.0
1001
ACAD
1010
0.0
1020
0.0
1030
0.0
  0
LINE
  5
204C
  8
SAPA_GLAS
 10
-3.5000000724794802
 20
60.584297141097423
 30
0.0
 11
-2.7500000721274631
 21
61.334297141449433
 31
0.0
1001
ACAD
1010
0.0
1020
0.0
1030
0.0
  0
LINE
  5
204D
  8
SAPA_GLAS
 10
-2.7623285483823841
 20
60.199436650060882
 30
0.0
 11
-2.7500000721274702
 21
60.211765126315797
 31
0.0
1001
ACAD
1010
0.0
1020
0.0
1030
0.0
  0
LINE
  5
204E
  8
SAPA_GLAS
 10
49.27242741349913
 20
72.999436650071772
 30
0.0
 11
49.999999928550409
 21
72.271864135020493
 31
0.0
1001
ACAD
1010
0.0
1020
0.0
1030
0.0
  0
LINE
  5
204F
  8
SAPA_GLAS
 10
49.249999928210862
 20
71.899332120226404
 30
0.0
 11
49.999999928551617
 21
71.149332119885642
 31
0.0
1001
ACAD
1010
0.0
1020
0.0
1030
0.0
  0
LINE
  5
2050
  8
SAPA_GLAS
 10
49.249999928210848
 20
70.776800105092761
 30
0.0
 11
49.999999928552803
 21
70.026800104750805
 31
0.0
1001
ACAD
1010
0.0
1020
0.0
1030
0.0
  0
LINE
  5
2051
  8
SAPA_GLAS
 10
49.249999928210862
 20
69.654268089959132
 30
0.0
 11
49.999999928554011
 21
68.904268089615982
 31
0.0
1001
ACAD
1010
0.0
1020
0.0
1030
0.0
  0
LINE
  5
2052
  8
SAPA_GLAS
 10
49.249999928210848
 20
68.531736074825474
 30
0.0
 11
49.999999928555198
 21
67.781736074481131
 31
0.0
1001
ACAD
1010
0.0
1020
0.0
1030
0.0
  0
LINE
  5
2053
  8
SAPA_GLAS
 10
49.249999928210862
 20
67.409204059691831
 30
0.0
 11
49.999999928556399
 21
66.659204059346294
 31
0.0
1001
ACAD
1010
0.0
1020
0.0
1030
0.0
  0
LINE
  5
2054
  8
SAPA_GLAS
 10
49.249999928210862
 20
66.286672044558188
 30
0.0
 11
49.999999928557592
 21
65.536672044211457
 31
0.0
1001
ACAD
1010
0.0
1020
0.0
1030
0.0
  0
LINE
  5
2055
  8
SAPA_GLAS
 10
49.249999928210862
 20
65.164140029424544
 30
0.0
 11
49.9999999285588
 21
64.414140029076606
 31
0.0
1001
ACAD
1010
0.0
1020
0.0
1030
0.0
  0
LINE
  5
2056
  8
SAPA_GLAS
 10
49.249999928210862
 20
64.041608014290901
 30
0.0
 11
49.999999928559987
 21
63.291608013941769
 31
0.0
1001
ACAD
1010
0.0
1020
0.0
1030
0.0
  0
LINE
  5
2057
  8
SAPA_GLAS
 10
49.249999928210862
 20
62.919075999157251
 30
0.0
 11
49.999999928561181
 21
62.169075998806917
 31
0.0
1001
ACAD
1010
0.0
1020
0.0
1030
0.0
  0
LINE
  5
2058
  8
SAPA_GLAS
 10
49.249999928210862
 20
61.796543984023607
 30
0.0
 11
49.999999928562382
 21
61.046543983672088
 31
0.0
1001
ACAD
1010
0.0
1020
0.0
1030
0.0
  0
LINE
  5
2059
  8
SAPA_GLAS
 10
49.249999928210862
 20
60.674011968889957
 30
0.0
 11
49.724575247039937
 21
60.199436650060882
 31
0.0
1001
ACAD
1010
0.0
1020
0.0
1030
0.0
  0
LINE
  5
205A
  8
SAPA_GLAS
 10
49.249999928210848
 20
72.92314459697657
 30
0.0
 11
49.32629198130612
 21
72.999436650071829
 31
0.0
1001
ACAD
1010
0.0
1020
0.0
1030
0.0
  0
LINE
  5
205B
  8
SAPA_GLAS
 10
49.249999928210869
 20
71.800612581842913
 30
0.0
 11
49.999999928550132
 21
72.550612582182168
 31
0.0
1001
ACAD
1010
0.0
1020
0.0
1030
0.0
  0
LINE
  5
205C
  8
SAPA_GLAS
 10
49.249999928210848
 20
70.678080566709284
 30
0.0
 11
49.999999928551311
 21
71.428080567049733
 31
0.0
1001
ACAD
1010
0.0
1020
0.0
1030
0.0
  0
LINE
  5
205D
  8
SAPA_GLAS
 10
49.249999928210869
 20
69.555548551575626
 30
0.0
 11
49.999999928552519
 21
70.305548551917283
 31
0.0
1001
ACAD
1010
0.0
1020
0.0
1030
0.0
  0
LINE
  5
205E
  8
SAPA_GLAS
 10
49.249999928210848
 20
68.433016536441983
 30
0.0
 11
49.999999928553713
 21
69.183016536784848
 31
0.0
1001
ACAD
1010
0.0
1020
0.0
1030
0.0
  0
LINE
  5
205F
  8
SAPA_GLAS
 10
49.249999928210862
 20
67.310484521308339
 30
0.0
 11
49.999999928554907
 21
68.060484521652398
 31
0.0
1001
ACAD
1010
0.0
1020
0.0
1030
0.0
  0
LINE
  5
2060
  8
SAPA_GLAS
 10
49.249999928210848
 20
66.187952506174696
 30
0.0
 11
49.9999999285561
 21
66.937952506519935
 31
0.0
1001
ACAD
1010
0.0
1020
0.0
1030
0.0
  0
LINE
  5
2061
  8
SAPA_GLAS
 10
49.249999928210848
 20
65.065420491041053
 30
0.0
 11
49.999999928557301
 21
65.815420491387499
 31
0.0
1001
ACAD
1010
0.0
1020
0.0
1030
0.0
  0
LINE
  5
2062
  8
SAPA_GLAS
 10
49.249999928210848
 20
63.942888475907409
 30
0.0
 11
49.999999928558488
 21
64.692888476255064
 31
0.0
1001
ACAD
1010
0.0
1020
0.0
1030
0.0
  0
LINE
  5
2063
  8
SAPA_GLAS
 10
49.249999928210848
 20
62.820356460773759
 30
0.0
 11
49.999999928559681
 21
63.5703564611226
 31
0.0
1001
ACAD
1010
0.0
1020
0.0
1030
0.0
  0
LINE
  5
2064
  8
SAPA_GLAS
 10
49.249999928210848
 20
61.697824445640123
 30
0.0
 11
49.999999928560882
 21
62.447824445990157
 31
0.0
1001
ACAD
1010
0.0
1020
0.0
1030
0.0
  0
LINE
  5
2065
  8
SAPA_GLAS
 10
49.249999928210848
 20
60.575292430506479
 30
0.0
 11
49.99999992856209
 21
61.325292430857701
 31
0.0
1001
ACAD
1010
0.0
1020
0.0
1030
0.0
  0
LINE
  5
2066
  8
SAPA_GLAS
 10
49.9966761628989
 20
60.199436650060882
 30
0.0
 11
49.999999928563291
 21
60.202760415725251
 31
0.0
1001
ACAD
1010
0.0
1020
0.0
1030
0.0
  0
LINE
  5
2067
  8
SAPA_GLAS
 10
26.249999928049871
 20
62.999436650071743
 30
0.0
 11
41.249999928049867
 21
62.999436650071743
 31
0.0
  0
LINE
  5
2068
  8
SAPA_GLAS
 10
41.249999928049867
 20
62.999436650071743
 30
0.0
 11
41.249999928049867
 21
72.999436650071743
 31
0.0
  0
LINE
  5
2069
  8
SAPA_GLAS
 10
41.249999928049867
 20
72.999436650071743
 30
0.0
 11
26.249999928049871
 21
72.999436650071743
 31
0.0
  0
LINE
  5
206A
  8
SAPA_GLAS
 10
26.249999928049871
 20
72.999436650071743
 30
0.0
 11
26.249999928049871
 21
62.999436650071743
 31
0.0
  0
LINE
  5
206B
  8
SAPA_GLAS
 10
49.249999928050329
 20
40.999436650071743
 30
0.0
 11
49.249999928050329
 21
72.999436650071743
 31
0.0
  0
LINE
  5
206C
  8
SAPA_GLAS
 10
49.249999928050329
 20
72.999436650071743
 30
0.0
 11
41.249999928050322
 21
72.999436650071743
 31
0.0
  0
LINE
  5
206D
  8
SAPA_GLAS
 10
41.249999928050322
 20
72.999436650071743
 30
0.0
 11
41.249999928050322
 21
40.999436650071743
 31
0.0
  0
LINE
  5
206E
  8
SAPA_FOGBAND
 10
210.14956739588891
 20
78.363045158836144
 30
0.0
 11
205.9351167558753
 21
78.253047773653734
 31
0.0
  0
LINE
  5
206F
  8
SAPA_FOGBAND
 10
205.9351167558753
 20
78.253047773653734
 30
0.0
 11
205.93569325474979
 21
75.814954433231946
 31
0.0
  0
LINE
  5
2070
  8
SAPA_FOGBAND
 10
205.93569325474979
 20
75.814954433231946
 30
0.0
 11
210.14956739588891
 21
76.940355555696556
 31
0.0
  0
LINE
  5
2071
  8
SAPA_FOGBAND
 10
210.14956739588891
 20
80.085734761978657
 30
0.0
 11
205.9355235402827
 21
81.211181359294756
 31
0.0
  0
LINE
  5
2072
  8
SAPA_FOGBAND
 10
205.9355235402827
 20
81.211181359294756
 30
0.0
 11
205.9350873994627
 21
78.773043312745472
 31
0.0
  0
LINE
  5
2073
  8
SAPA_FOGBAND
 10
205.9350873994627
 20
78.773043312745472
 30
0.0
 11
210.14956739588891
 21
78.663045158839054
 31
0.0
  0
LINE
  5
2074
  8
SAPA_FOGBAND
 10
210.94956739589
 20
75.363045158838872
 30
0.0
 11
210.14956739588891
 21
75.363045158838872
 31
0.0
  0
LINE
  5
2075
  8
SAPA_FOGBAND
 10
210.14956739588891
 20
75.363045158838872
 30
0.0
 11
210.14956739588891
 21
81.663045158836326
 31
0.0
  0
LINE
  5
2076
  8
SAPA_FOGBAND
 10
210.14956739588891
 20
81.663045158836326
 30
0.0
 11
210.94956739589
 21
81.663045158836326
 31
0.0
  0
LINE
  5
2077
  8
SAPA_FOGBAND
 10
210.94956739589
 20
81.663045158836326
 30
0.0
 11
210.94956739589
 21
75.363045158838872
 31
0.0
  0
LINE
  5
2078
  8
SAPA_FOGBAND
 10
210.14956739588891
 20
69.863045158831596
 30
0.0
 11
205.50026763855021
 21
69.753047773650096
 31
0.0
  0
LINE
  5
2079
  8
SAPA_FOGBAND
 10
205.50026763855021
 20
69.753047773650096
 30
0.0
 11
205.50084413742479
 21
67.314954433227399
 31
0.0
  0
LINE
  5
207A
  8
SAPA_FOGBAND
 10
205.50084413742479
 20
67.314954433227399
 30
0.0
 11
210.14956739588891
 21
68.440355555692008
 31
0.0
  0
LINE
  5
207B
  8
SAPA_FOGBAND
 10
210.14956739588891
 20
71.585734761974095
 30
0.0
 11
205.5006744229577
 21
72.711181359290208
 31
0.0
  0
LINE
  5
207C
  8
SAPA_FOGBAND
 10
205.5006744229577
 20
72.711181359290208
 30
0.0
 11
205.50023828213759
 21
70.273043312741834
 31
0.0
  0
LINE
  5
207D
  8
SAPA_FOGBAND
 10
205.50023828213759
 20
70.273043312741834
 30
0.0
 11
210.14956739588891
 21
70.163045158834507
 31
0.0
  0
LINE
  5
207E
  8
SAPA_FOGBAND
 10
210.94956739589
 20
66.863045158835234
 30
0.0
 11
210.14956739588891
 21
66.863045158835234
 31
0.0
  0
LINE
  5
207F
  8
SAPA_FOGBAND
 10
210.14956739588891
 20
66.863045158835234
 30
0.0
 11
210.14956739588891
 21
73.163045158831778
 31
0.0
  0
LINE
  5
2080
  8
SAPA_FOGBAND
 10
210.14956739588891
 20
73.163045158831778
 30
0.0
 11
210.94956739589
 21
73.163045158831778
 31
0.0
  0
LINE
  5
2081
  8
SAPA_FOGBAND
 10
210.94956739589
 20
73.163045158831778
 30
0.0
 11
210.94956739589
 21
66.863045158835234
 31
0.0
  0
LINE
  5
2082
  8
SAPA_FOGBAND
 10
144.3504324596552
 20
78.363045158836144
 30
0.0
 11
148.67558998012009
 21
78.253047773653734
 31
0.0
  0
LINE
  5
2083
  8
SAPA_FOGBAND
 10
148.67558998012009
 20
78.253047773653734
 30
0.0
 11
148.67501348124549
 21
75.814954433231946
 31
0.0
  0
LINE
  5
2084
  8
SAPA_FOGBAND
 10
148.67501348124549
 20
75.814954433231946
 30
0.0
 11
144.3504324596552
 21
76.940355555696556
 31
0.0
  0
LINE
  5
2085
  8
SAPA_FOGBAND
 10
144.3504324596552
 20
80.085734761978657
 30
0.0
 11
148.67518319571261
 21
81.211181359294756
 31
0.0
  0
LINE
  5
2086
  8
SAPA_FOGBAND
 10
148.67518319571261
 20
81.211181359294756
 30
0.0
 11
148.67561933653269
 21
78.773043312745472
 31
0.0
  0
LINE
  5
2087
  8
SAPA_FOGBAND
 10
148.67561933653269
 20
78.773043312745472
 30
0.0
 11
144.3504324596552
 21
78.663045158839054
 31
0.0
  0
LINE
  5
2088
  8
SAPA_FOGBAND
 10
143.5504324596541
 20
75.363045158838872
 30
0.0
 11
144.3504324596552
 21
75.363045158838872
 31
0.0
  0
LINE
  5
2089
  8
SAPA_FOGBAND
 10
144.3504324596552
 20
75.363045158838872
 30
0.0
 11
144.3504324596552
 21
81.663045158836326
 31
0.0
  0
LINE
  5
208A
  8
SAPA_FOGBAND
 10
144.3504324596552
 20
81.663045158836326
 30
0.0
 11
143.5504324596541
 21
81.663045158836326
 31
0.0
  0
LINE
  5
208B
  8
SAPA_FOGBAND
 10
143.5504324596541
 20
81.663045158836326
 30
0.0
 11
143.5504324596541
 21
75.363045158838872
 31
0.0
  0
LINE
  5
208C
  8
SAPA_FOGBAND
 10
144.3504324596552
 20
69.863045158831596
 30
0.0
 11
149.09726645464161
 21
69.753047773650096
 31
0.0
  0
LINE
  5
208D
  8
SAPA_FOGBAND
 10
149.09726645464161
 20
69.753047773650096
 30
0.0
 11
149.096689955767
 21
67.314954433227399
 31
0.0
  0
LINE
  5
208E
  8
SAPA_FOGBAND
 10
149.096689955767
 20
67.314954433227399
 30
0.0
 11
144.3504324596552
 21
68.440355555692008
 31
0.0
  0
LINE
  5
208F
  8
SAPA_FOGBAND
 10
144.3504324596552
 20
71.585734761974095
 30
0.0
 11
149.0968596702341
 21
72.711181359290208
 31
0.0
  0
LINE
  5
2090
  8
SAPA_FOGBAND
 10
149.0968596702341
 20
72.711181359290208
 30
0.0
 11
149.09729581105421
 21
70.273043312741834
 31
0.0
  0
LINE
  5
2091
  8
SAPA_FOGBAND
 10
149.09729581105421
 20
70.273043312741834
 30
0.0
 11
144.3504324596552
 21
70.163045158834507
 31
0.0
  0
LINE
  5
2092
  8
SAPA_FOGBAND
 10
143.5504324596541
 20
66.863045158835234
 30
0.0
 11
144.3504324596552
 21
66.863045158835234
 31
0.0
  0
LINE
  5
2093
  8
SAPA_FOGBAND
 10
144.3504324596552
 20
66.863045158835234
 30
0.0
 11
144.3504324596552
 21
73.163045158831778
 31
0.0
  0
LINE
  5
2094
  8
SAPA_FOGBAND
 10
144.3504324596552
 20
73.163045158831778
 30
0.0
 11
143.5504324596541
 21
73.163045158831778
 31
0.0
  0
LINE
  5
2095
  8
SAPA_FOGBAND
 10
143.5504324596541
 20
73.163045158831778
 30
0.0
 11
143.5504324596541
 21
66.863045158835234
 31
0.0
  0
ARC
  5
2096
  8
SAPA_PROFIL
 62
     4
 10
40.163422444692053
 20
81.016776419716166
 30
0.0
 40
1.341625249269492
 50
270.795569960786
 51
298.02441875660668
  0
LINE
  5
2097
  8
SAPA_PROFIL
 62
     4
 10
40.793782145389287
 20
79.832460179341865
 30
0.0
 11
42.513397387663183
 21
80.825280502370205
 31
0.0
  0
LINE
  5
2098
  8
SAPA_PROFIL
 62
     4
 10
42.513397387663183
 20
80.825280502370205
 30
0.0
 11
42.949999928041947
 21
80.825280502370205
 31
0.0
  0
ARC
  5
2099
  8
SAPA_PROFIL
 62
     4
 10
42.949999928041947
 20
80.575280502370234
 30
0.0
 40
0.25
 50
0.0
 51
90.0
  0
LINE
  5
209A
  8
SAPA_PROFIL
 62
     4
 10
43.199999928041962
 20
80.575280502370234
 30
0.0
 11
43.199999928041962
 21
76.97526850237125
 31
0.0
  0
ARC
  5
209B
  8
SAPA_PROFIL
 62
     4
 10
42.949999928041962
 20
76.97526850237125
 30
0.0
 40
0.2499999999999929
 50
269.99999999999841
 51
0.0
  0
LINE
  5
209C
  8
SAPA_PROFIL
 62
     4
 10
42.949999928041947
 20
76.72526850237125
 30
0.0
 11
42.513398006463369
 21
76.725280145105785
 31
0.0
  0
LINE
  5
209D
  8
SAPA_PROFIL
 62
     4
 10
42.513398006463369
 20
76.725280145105785
 30
0.0
 11
40.793782145395653
 21
77.718100825396391
 31
0.0
  0
ARC
  5
209E
  8
SAPA_PROFIL
 62
     4
 10
40.17980939523526
 20
76.597875720903758
 30
0.0
 40
1.277445428452834
 50
61.273742618020087
 51
89.542930992874489
  0
LINE
  5
209F
  8
SAPA_PROFIL
 62
     4
 10
40.189999928041743
 20
77.875280502371311
 30
0.0
 11
6.3099999280416341
 21
77.875280502371311
 31
0.0
  0
ARC
  5
20A0
  8
SAPA_PROFIL
 62
     4
 10
6.3201904608481163
 20
76.597875720903758
 30
0.0
 40
1.277445428452834
 50
90.457069007125469
 51
118.72625738197991
  0
LINE
  5
20A1
  8
SAPA_PROFIL
 62
     4
 10
5.7062177106877243
 20
77.718100825396391
 30
0.0
 11
3.9866018496200009
 21
76.725280145105785
 31
0.0
  0
LINE
  5
20A2
  8
SAPA_PROFIL
 62
     4
 10
3.9866018496200009
 20
76.725280145105785
 30
0.0
 11
3.549999928041415
 21
76.72526850237125
 31
0.0
  0
ARC
  5
20A3
  8
SAPA_PROFIL
 62
     4
 10
3.5499999280414118
 20
76.97526850237125
 30
0.0
 40
0.25
 50
180.0
 51
270.0000000000008
  0
LINE
  5
20A4
  8
SAPA_PROFIL
 62
     4
 10
3.299999928041415
 20
76.97526850237125
 30
0.0
 11
3.299999928041415
 21
80.575280502370234
 31
0.0
  0
ARC
  5
20A5
  8
SAPA_PROFIL
 62
     4
 10
3.549999928041415
 20
80.575280502370234
 30
0.0
 40
0.2499999999999996
 50
89.999999999999915
 51
180.0
  0
LINE
  5
20A6
  8
SAPA_PROFIL
 62
     4
 10
3.549999928041415
 20
80.825280502370205
 30
0.0
 11
3.9866024684201871
 21
80.825280502370205
 31
0.0
  0
LINE
  5
20A7
  8
SAPA_PROFIL
 62
     4
 10
3.9866024684201871
 20
80.825280502370205
 30
0.0
 11
5.7062177106940899
 21
79.832460179341865
 31
0.0
  0
ARC
  5
20A8
  8
SAPA_PROFIL
 62
     4
 10
6.3365774113917812
 20
81.016776419718042
 30
0.0
 40
1.341625249271361
 50
241.9755812434137
 51
269.20443003923452
  0
LINE
  5
20A9
  8
SAPA_PROFIL
 62
     4
 10
6.3179491204732576
 20
79.675280502370583
 30
0.0
 11
40.182050735611028
 21
79.675280502370583
 31
0.0
  0
ARC
  5
20AA
  8
SAPA_PROFIL
 10
43.493868968998747
 20
82.699436650060903
 30
0.0
 40
0.2999999999994713
 50
90.000000000065128
 51
144.3799302409254
  0
ARC
  5
20AB
  8
SAPA_PROFIL
 10
43.006130887090478
 20
83.048881300120243
 30
0.0
 40
0.2999999999994016
 50
269.99999999981412
 51
324.37993024349629
  0
LINE
  5
20AC
  8
SAPA_PROFIL
 10
43.006130887089512
 20
82.748881300120857
 30
0.0
 11
42.049999928054142
 21
82.748881300120857
 31
0.0
  0
ARC
  5
20AD
  8
SAPA_PROFIL
 10
42.049999928048152
 20
83.048881300125615
 30
0.0
 40
0.300000000004772
 50
207.12809249346429
 51
270.00000000114528
  0
ARC
  5
20AE
  8
SAPA_PROFIL
 10
41.516006323452743
 20
82.775292502370505
 30
0.0
 40
0.3000000000001409
 50
27.128092493313378
 51
89.999999999952507
  0
LINE
  5
20AF
  8
SAPA_PROFIL
 10
41.516006323452977
 20
83.075292502370644
 30
0.0
 11
39.338457968495732
 21
83.075292502370644
 31
0.0
  0
ARC
  5
20B0
  8
SAPA_PROFIL
 10
39.33845796849689
 20
82.775292502369823
 30
0.0
 40
0.3000000000008214
 50
90.000000000221192
 51
109.9999999999832
  0
LINE
  5
20B1
  8
SAPA_PROFIL
 10
39.235851925498991
 20
83.057200288606396
 30
0.0
 11
37.808498755453464
 21
82.537686220931278
 31
0.0
  0
ARC
  5
20B2
  8
SAPA_PROFIL
 10
37.911104798457806
 20
82.255778434690697
 30
0.0
 40
0.3000000000067923
 50
110.0000000008793
 51
200.00000000023709
  0
LINE
  5
20B3
  8
SAPA_PROFIL
 10
37.629197012216082
 20
82.153172391689509
 30
0.0
 11
37.697601040887548
 21
81.965233867539496
 31
0.0
  0
ARC
  5
20B4
  8
SAPA_PROFIL
 10
37.97950882711897
 20
82.067839910529926
 30
0.0
 40
0.2999999999934183
 50
199.99999999897989
 51
289.99999999896278
  0
LINE
  5
20B5
  8
SAPA_PROFIL
 10
38.082114870109308
 20
81.785932124298483
 30
0.0
 11
39.115776752978043
 21
82.162154281963808
 31
0.0
  0
ARC
  5
20B6
  8
SAPA_PROFIL
 10
39.218382795970818
 20
81.88024649572705
 30
0.0
 40
0.2999999999992438
 50
19.999999997807208
 51
109.9999999990529
  0
LINE
  5
20B7
  8
SAPA_PROFIL
 10
39.5002905822098
 20
81.982852538713701
 30
0.0
 11
40.159145889445881
 21
80.172662459374678
 31
0.0
  0
ARC
  5
20B8
  8
SAPA_PROFIL
 10
40.441053675681957
 20
80.275268502371091
 30
0.0
 40
0.2999999999998464
 50
199.99999999974611
 51
269.99999999997152
  0
LINE
  5
20B9
  8
SAPA_PROFIL
 10
40.441053675681808
 20
79.97526850237125
 30
0.0
 11
40.860769443500892
 21
79.97526850237125
 31
0.0
  0
ARC
  5
20BA
  8
SAPA_PROFIL
 10
40.860769443500153
 20
80.275268502370736
 30
0.0
 40
0.2999999999994856
 50
270.00000000013972
 51
300.00000000013767
  0
LINE
  5
20BB
  8
SAPA_PROFIL
 10
41.010769443500521
 20
80.015460881236208
 30
0.0
 11
42.499999928042143
 21
80.875268502370886
 31
0.0
  0
LINE
  5
20BC
  8
SAPA_PROFIL
 10
42.499999928042143
 20
80.875268502370886
 30
0.0
 11
42.949999928041947
 21
80.875280502371297
 31
0.0
  0
ARC
  5
20BD
  8
SAPA_PROFIL
 10
42.949999928041507
 20
80.575280502370674
 30
0.0
 40
0.3000000000006366
 50
359.99999999991309
 51
89.999999999914493
  0
LINE
  5
20BE
  8
SAPA_PROFIL
 10
43.249999928042143
 20
80.575280502370234
 30
0.0
 11
43.249999928042143
 21
76.97526850237125
 31
0.0
  0
ARC
  5
20BF
  8
SAPA_PROFIL
 10
42.9499999280415
 20
76.975268502370795
 30
0.0
 40
0.3000000000006366
 50
270.0000000000868
 51
0.0000000000868503
  0
LINE
  5
20C0
  8
SAPA_PROFIL
 10
42.949999928041947
 20
76.675268502370159
 30
0.0
 11
42.499999928042143
 21
76.675268502370159
 31
0.0
  0
LINE
  5
20C1
  8
SAPA_PROFIL
 10
42.499999928042143
 20
76.675268502370159
 30
0.0
 11
41.0107397969673
 21
77.535093239940466
 31
0.0
  0
ARC
  5
20C2
  8
SAPA_PROFIL
 10
40.86073979696998
 20
77.275285618804887
 30
0.0
 40
0.2999999999988705
 50
60.000000000468077
 51
89.996353133026474
  0
LINE
  5
20C3
  8
SAPA_PROFIL
 10
40.860758891920803
 20
77.575285618196062
 30
0.0
 11
40.749999928043962
 21
77.57529266798781
 31
0.0
  0
LINE
  5
20C4
  8
SAPA_PROFIL
 10
40.749999928043962
 20
77.57529266798781
 30
0.0
 11
40.749999928043962
 21
75.499436650071289
 31
0.0
  0
ARC
  5
20C5
  8
SAPA_PROFIL
 10
41.249999928043962
 20
75.499436650071289
 30
0.0
 40
0.5
 50
180.0
 51
270.0
  0
LINE
  5
20C6
  8
SAPA_PROFIL
 10
41.249999928043962
 20
74.999436650071289
 30
0.0
 11
46.499999927709268
 21
74.999436650071289
 31
0.0
  0
ARC
  5
20C7
  8
SAPA_PROFIL
 10
46.499999927709268
 20
75.499436650071289
 30
0.0
 40
0.5
 50
270.0
 51
0.0
  0
LINE
  5
20C8
  8
SAPA_PROFIL
 10
46.999999927709261
 20
75.499436650071289
 30
0.0
 11
46.999999927709261
 21
75.999436653654683
 31
0.0
  0
ARC
  5
20C9
  8
SAPA_PROFIL
 10
46.499999927709268
 20
75.999436653654683
 30
0.0
 40
0.5
 50
0.0
 51
90.0
  0
LINE
  5
20CA
  8
SAPA_PROFIL
 10
46.499999927709268
 20
76.499436653654683
 30
0.0
 11
45.499999927301808
 21
76.499436653660155
 31
0.0
  0
LINE
  5
20CB
  8
SAPA_PROFIL
 10
45.499999927301808
 20
76.499436653660155
 30
0.0
 11
45.49999992729726
 21
79.699436654113811
 31
0.0
  0
LINE
  5
20CC
  8
SAPA_PROFIL
 10
45.49999992729726
 20
79.699436654113811
 30
0.0
 11
49.999999928203117
 21
79.699436654106535
 31
0.0
  0
LINE
  5
20CD
  8
SAPA_PROFIL
 10
49.999999928203117
 20
79.699436654106535
 30
0.0
 11
49.999999928224952
 21
60.199436650061102
 31
0.0
  0
ARC
  5
20CE
  8
SAPA_PROFIL
 10
50.199999928225701
 20
60.199436650060662
 30
0.0
 40
0.2000000000007489
 50
179.99999999987381
 51
285.60191674432792
  0
ARC
  5
20CF
  8
SAPA_PROFIL
 10
49.984838294923733
 20
60.969959506019222
 30
0.0
 40
1.0000000000005631
 50
285.601916744535
 51
353.75641154149349
  0
ARC
  5
20D0
  8
SAPA_PROFIL
 10
-78.250000076410601
 20
74.999436650251667
 30
0.0
 40
130.00000000411981
 50
353.75641154140919
 51
359.99999999991093
  0
LINE
  5
20D1
  8
SAPA_PROFIL
 10
51.749999927709268
 20
74.999436650049461
 30
0.0
 11
51.749999927847512
 21
79.999436649969425
 31
0.0
  0
ARC
  5
20D2
  8
SAPA_PROFIL
 10
48.749999927847519
 20
79.999436650060389
 30
0.0
 40
2.9999999999999849
 50
359.99999999826269
 51
90.000000000000256
  0
LINE
  5
20D3
  8
SAPA_PROFIL
 10
48.749999927847512
 20
82.999436650060375
 30
0.0
 11
43.493868968998413
 21
82.999436650060375
 31
0.0
  0
ARC
  5
20D4
  8
SAPA_PROFIL
 10
3.0061308870855341
 20
82.699436650060903
 30
0.0
 40
0.2999999999994713
 50
35.620069759074717
 51
89.999999999935099
  0
ARC
  5
20D5
  8
SAPA_PROFIL
 10
3.493868968993799
 20
83.048881300120243
 30
0.0
 40
0.2999999999993999
 50
215.62006975650399
 51
270.00000000018639
  0
LINE
  5
20D6
  8
SAPA_PROFIL
 10
3.4938689689947751
 20
82.748881300120857
 30
0.0
 11
4.4499999280301381
 21
82.748881300120857
 31
0.0
  0
ARC
  5
20D7
  8
SAPA_PROFIL
 10
4.4499999280356759
 20
83.048881300124876
 30
0.0
 40
0.300000000004033
 50
269.9999999989422
 51
332.87190750662199
  0
ARC
  5
20D8
  8
SAPA_PROFIL
 10
4.9839935326306408
 20
82.775292502370505
 30
0.0
 40
0.3000000000001409
 50
90.000000000047507
 51
152.8719075066866
  0
LINE
  5
20D9
  8
SAPA_PROFIL
 10
4.983993532630393
 20
83.075292502370644
 30
0.0
 11
7.1615418875876449
 21
83.075292502370644
 31
0.0
  0
ARC
  5
20DA
  8
SAPA_PROFIL
 10
7.161541887586484
 20
82.775292502369823
 30
0.0
 40
0.3000000000008214
 50
70.000000000016186
 51
89.999999999778126
  0
LINE
  5
20DB
  8
SAPA_PROFIL
 10
7.264147930584385
 20
83.057200288606396
 30
0.0
 11
8.6915011006299192
 21
82.537686220931278
 31
0.0
  0
ARC
  5
20DC
  8
SAPA_PROFIL
 10
8.5888950576255745
 20
82.255778434690697
 30
0.0
 40
0.3000000000067911
 50
339.99999999976268
 51
69.999999999121343
  0
LINE
  5
20DD
  8
SAPA_PROFIL
 10
8.8708028438672955
 20
82.153172391689509
 30
0.0
 11
8.8023988151958292
 21
81.965233867539496
 31
0.0
  0
ARC
  5
20DE
  8
SAPA_PROFIL
 10
8.5204910289648694
 20
82.067839910529472
 30
0.0
 40
0.2999999999928355
 50
250.00000000108921
 51
340.00000000107201
  0
LINE
  5
20DF
  8
SAPA_PROFIL
 10
8.4178849859749771
 20
81.785932124298483
 30
0.0
 11
7.3842231031053407
 21
82.162154281963808
 31
0.0
  0
ARC
  5
20E0
  8
SAPA_PROFIL
 10
7.2816170601125609
 20
81.88024649572705
 30
0.0
 40
0.2999999999992429
 50
70.000000000947495
 51
160.00000000219291
  0
LINE
  5
20E1
  8
SAPA_PROFIL
 10
6.9997092738735773
 20
81.982852538713701
 30
0.0
 11
6.3408539666384049
 21
80.172662459374678
 31
0.0
  0
ARC
  5
20E2
  8
SAPA_PROFIL
 10
6.0589461804018692
 20
80.275268502371745
 30
0.0
 40
0.3000000000004965
 50
269.99999999994139
 51
340.00000000016621
  0
LINE
  5
20E3
  8
SAPA_PROFIL
 10
6.0589461804015619
 20
79.97526850237125
 30
0.0
 11
5.6392304125824921
 21
79.97526850237125
 31
0.0
  0
ARC
  5
20E4
  8
SAPA_PROFIL
 10
5.6392304125832213
 20
80.275268502370736
 30
0.0
 40
0.2999999999994856
 50
239.99999999986269
 51
269.99999999986079
  0
LINE
  5
20E5
  8
SAPA_PROFIL
 10
5.489230412582855
 20
80.015460881236208
 30
0.0
 11
3.999999928042143
 21
80.875268502370886
 31
0.0
  0
LINE
  5
20E6
  8
SAPA_PROFIL
 10
3.999999928042143
 20
80.875268502370886
 30
0.0
 11
3.549999928041415
 21
80.875280502371297
 31
0.0
  0
ARC
  5
20E7
  8
SAPA_PROFIL
 10
3.54999992804232
 20
80.575280502371129
 30
0.0
 40
0.3000000000001819
 50
90.000000000172676
 51
180.00000000017371
  0
LINE
  5
20E8
  8
SAPA_PROFIL
 10
3.249999928042143
 20
80.575280502370234
 30
0.0
 11
3.249999928042143
 21
76.97526850237125
 31
0.0
  0
ARC
  5
20E9
  8
SAPA_PROFIL
 10
3.5499999280423249
 20
76.975268502370341
 30
0.0
 40
0.3000000000001819
 50
179.99999999982629
 51
269.99999999982629
  0
LINE
  5
20EA
  8
SAPA_PROFIL
 10
3.549999928041415
 20
76.675268502370159
 30
0.0
 11
3.999999928042143
 21
76.675268502370159
 31
0.0
  0
LINE
  5
20EB
  8
SAPA_PROFIL
 10
3.999999928042143
 20
76.675268502370159
 30
0.0
 11
5.4892600591160772
 21
77.535093239940466
 31
0.0
  0
ARC
  5
20EC
  8
SAPA_PROFIL
 10
5.639260059113389
 20
77.275285618804887
 30
0.0
 40
0.2999999999988705
 50
90.003646866973526
 51
119.99999999953189
  0
LINE
  5
20ED
  8
SAPA_PROFIL
 10
5.6392409641625809
 20
77.575285618196062
 30
0.0
 11
5.7499999280403236
 21
77.57529266798781
 31
0.0
  0
LINE
  5
20EE
  8
SAPA_PROFIL
 10
5.7499999280403236
 20
77.57529266798781
 30
0.0
 11
5.7499999280403236
 21
75.499436650071289
 31
0.0
  0
ARC
  5
20EF
  8
SAPA_PROFIL
 10
5.2499999280403236
 20
75.499436650071289
 30
0.0
 40
0.5
 50
270.0
 51
0.0
  0
LINE
  5
20F0
  8
SAPA_PROFIL
 10
5.2499999280403236
 20
74.999436650071289
 30
0.0
 11
-0.0000000716249815
 21
74.999436650071289
 31
0.0
  0
ARC
  5
20F1
  8
SAPA_PROFIL
 10
-0.0000000716249817
 20
75.499436650071289
 30
0.0
 40
0.5
 50
180.0
 51
270.0
  0
LINE
  5
20F2
  8
SAPA_PROFIL
 10
-0.5000000716249815
 20
75.499436650071289
 30
0.0
 11
-0.5000000716249815
 21
75.999436653654683
 31
0.0
  0
ARC
  5
20F3
  8
SAPA_PROFIL
 10
-0.0000000716249817
 20
75.999436653654683
 30
0.0
 40
0.4999999999999999
 50
89.999999999999986
 51
180.0
  0
LINE
  5
20F4
  8
SAPA_PROFIL
 10
-0.0000000716249815
 20
76.499436653654683
 30
0.0
 11
0.9999999287815626
 21
76.499436653660155
 31
0.0
  0
LINE
  5
20F5
  8
SAPA_PROFIL
 10
0.9999999287815626
 20
76.499436653660155
 30
0.0
 11
0.9999999287861101
 21
79.699436654113811
 31
0.0
  0
LINE
  5
20F6
  8
SAPA_PROFIL
 10
0.9999999287861101
 20
79.699436654113811
 30
0.0
 11
-3.5000000721197462
 21
79.699436654106535
 31
0.0
  0
LINE
  5
20F7
  8
SAPA_PROFIL
 10
-3.5000000721197462
 20
79.699436654106535
 30
0.0
 11
-3.500000072141574
 21
60.199436650061102
 31
0.0
  0
ARC
  5
20F8
  8
SAPA_PROFIL
 10
-3.7000000721423252
 20
60.199436650060662
 30
0.0
 40
0.2000000000007507
 50
254.3980832556727
 51
0.0000000001262044
  0
ARC
  5
20F9
  8
SAPA_PROFIL
 10
-3.484838438840355
 20
60.969959506019222
 30
0.0
 40
1.0000000000005631
 50
186.24358845850639
 51
254.398083255465
  0
ARC
  5
20FA
  8
SAPA_PROFIL
 10
124.74999993249401
 20
74.999436650251667
 30
0.0
 40
130.00000000411981
 50
180.0000000000891
 51
186.24358845859081
  0
LINE
  5
20FB
  8
SAPA_PROFIL
 10
-5.2500000716258901
 20
74.999436650049461
 30
0.0
 11
-5.2500000717632238
 21
79.999436649969425
 31
0.0
  0
ARC
  5
20FC
  8
SAPA_PROFIL
 10
-2.2500000717632358
 20
79.999436650060389
 30
0.0
 40
2.9999999999999871
 50
89.999999999999758
 51
180.00000000173719
  0
LINE
  5
20FD
  8
SAPA_PROFIL
 10
-2.2500000717632238
 20
82.999436650060375
 30
0.0
 11
3.0061308870858729
 21
82.999436650060375
 31
0.0
  0
LINE
  5
20FE
  8
SAPA_PROFIL
 10
21.749999928359099
 20
122.6994446500558
 30
0.0
 11
21.749999928359099
 21
110.49944465005581
 31
0.0
  0
LINE
  5
20FF
  8
SAPA_PROFIL
 10
21.749999928359099
 20
110.49944465005581
 30
0.0
 11
-10.250000071640899
 21
110.49944465005581
 31
0.0
  0
LINE
  5
2100
  8
SAPA_PROFIL
 10
-10.250000071640899
 20
110.49944465005581
 30
0.0
 11
-10.250000071640899
 21
122.6994446500558
 31
0.0
  0
LINE
  5
2101
  8
SAPA_PROFIL
 10
-10.250000071640899
 20
122.6994446500558
 30
0.0
 11
21.749999928359099
 21
122.6994446500558
 31
0.0
  0
ARC
  5
2102
  8
SAPA_PROFIL
 10
24.749999928359099
 20
112.0994446500559
 30
0.0
 40
1.0
 50
180.0
 51
270.0
  0
LINE
  5
2103
  8
SAPA_PROFIL
 10
23.749999928359099
 20
112.0994446500559
 30
0.0
 11
23.749999928359099
 21
121.0994446500559
 31
0.0
  0
ARC
  5
2104
  8
SAPA_PROFIL
 10
24.749999928359099
 20
121.0994446500559
 30
0.0
 40
1.0
 50
90.0
 51
180.0
  0
LINE
  5
2105
  8
SAPA_PROFIL
 10
24.749999928359099
 20
122.0994446500559
 30
0.0
 11
27.24999996376118
 21
122.0994446500559
 31
0.0
  0
LINE
  5
2106
  8
SAPA_PROFIL
 10
27.24999996376118
 20
122.0994446500559
 30
0.0
 11
27.24999996376118
 21
122.6994446500558
 31
0.0
  0
LINE
  5
2107
  8
SAPA_PROFIL
 10
27.24999996376118
 20
122.6994446500558
 30
0.0
 11
44.749999963761177
 21
122.6994446500558
 31
0.0
  0
LINE
  5
2108
  8
SAPA_PROFIL
 10
44.749999963761177
 20
122.6994446500558
 30
0.0
 11
44.749999963761177
 21
110.49944465005581
 31
0.0
  0
LINE
  5
2109
  8
SAPA_PROFIL
 10
44.749999963761177
 20
110.49944465005581
 30
0.0
 11
27.24999996376118
 21
110.49944465005581
 31
0.0
  0
LINE
  5
210A
  8
SAPA_PROFIL
 10
27.24999996376118
 20
110.49944465005581
 30
0.0
 11
27.24999996376118
 21
111.0994446500559
 31
0.0
  0
LINE
  5
210B
  8
SAPA_PROFIL
 10
27.24999996376118
 20
111.0994446500559
 30
0.0
 11
24.749999928359099
 21
111.0994446500559
 31
0.0
  0
ARC
  5
210C
  8
SAPA_PROFIL
 10
51.535810366000533
 20
123.99946865005251
 30
0.0
 40
1.000000000000056
 50
315.00000000000699
 51
90.0
  0
LINE
  5
210D
  8
SAPA_PROFIL
 10
52.2429171471872
 20
123.292361868866
 30
0.0
 11
50.937867894018382
 21
121.98731261569679
 31
0.0
  0
ARC
  5
210E
  8
SAPA_PROFIL
 10
50.725735859662173
 20
122.199444650053
 30
0.0
 40
0.300000000000336
 50
269.99999999998641
 51
315.0
  0
LINE
  5
210F
  8
SAPA_PROFIL
 10
50.725735859662102
 20
121.8994446500527
 30
0.0
 11
50.139230412914912
 21
121.8994446500529
 31
0.0
  0
ARC
  5
2110
  8
SAPA_PROFIL
 10
50.139230412914557
 20
122.199444650053
 30
0.0
 40
0.3000000000000966
 50
240.0000000000675
 51
270.00000000006639
  0
LINE
  5
2111
  8
SAPA_PROFIL
 10
49.989230412914821
 20
121.9396370289174
 30
0.0
 11
48.499999928374102
 21
122.79944465005281
 31
0.0
  0
LINE
  5
2112
  8
SAPA_PROFIL
 10
48.499999928374102
 20
122.79944465005281
 30
0.0
 11
48.049999928373843
 21
122.79945665005251
 31
0.0
  0
ARC
  5
2113
  8
SAPA_PROFIL
 10
48.049999928374007
 20
122.49945665005259
 30
0.0
 40
0.2999999999998977
 50
90.000000000032571
 51
180.00000000003249
  0
LINE
  5
2114
  8
SAPA_PROFIL
 10
47.749999928374102
 20
122.49945665005249
 30
0.0
 11
47.749999928374102
 21
118.8994446500525
 31
0.0
  0
ARC
  5
2115
  8
SAPA_PROFIL
 10
48.049999928374227
 20
118.8994446500525
 30
0.0
 40
0.300000000000125
 50
180.0000000000108
 51
270.0000000000108
  0
LINE
  5
2116
  8
SAPA_PROFIL
 10
48.049999928374291
 20
118.5994446500524
 30
0.0
 11
48.499999928374102
 21
118.5994446500525
 31
0.0
  0
LINE
  5
2117
  8
SAPA_PROFIL
 10
48.499999928374102
 20
118.5994446500525
 30
0.0
 11
49.989260059448043
 21
119.4592693876215
 31
0.0
  0
ARC
  5
2118
  8
SAPA_PROFIL
 10
50.139260059448091
 20
119.1994617664859
 30
0.0
 40
0.3000000000002629
 50
90.003646867409074
 51
119.9999999999816
  0
LINE
  5
2119
  8
SAPA_PROFIL
 10
50.139240964495002
 20
119.49946176587839
 30
0.0
 11
50.249999928374109
 21
119.4994688156693
 31
0.0
  0
LINE
  5
211A
  8
SAPA_PROFIL
 10
50.249999928374109
 20
119.4994688156693
 30
0.0
 11
50.2499999283732
 21
117.8777568135648
 31
0.0
  0
ARC
  5
211B
  8
SAPA_PROFIL
 10
49.249999928373242
 20
117.8777568135648
 30
0.0
 40
0.9999999999999644
 50
299.99999999999881
 51
0.0
  0
LINE
  5
211C
  8
SAPA_PROFIL
 10
49.7499999283732
 20
117.0117314097804
 30
0.0
 11
48.249999928374109
 21
116.1457060059966
 31
0.0
  0
ARC
  5
211D
  8
SAPA_PROFIL
 10
48.749999928374201
 20
115.2796806022121
 30
0.0
 40
1.000000000000091
 50
120.0000000000031
 51
180.00000000000239
  0
LINE
  5
211E
  8
SAPA_PROFIL
 10
47.749999928374102
 20
115.2796806022121
 30
0.0
 11
47.749999928374102
 21
114.71920869789609
 31
0.0
  0
ARC
  5
211F
  8
SAPA_PROFIL
 10
48.749999928374002
 20
114.71920869789609
 30
0.0
 40
0.9999999999998934
 50
180.00000000000401
 51
240.0000000000035
  0
LINE
  5
2120
  8
SAPA_PROFIL
 10
48.249999928374109
 20
113.8531832941118
 30
0.0
 11
49.7499999283732
 21
112.9871578903268
 31
0.0
  0
ARC
  5
2121
  8
SAPA_PROFIL
 10
49.249999928373533
 20
112.1211324865415
 30
0.0
 40
1.0000000000005791
 50
0.000000000043968
 51
60.000000000041268
  0
LINE
  5
2122
  8
SAPA_PROFIL
 10
50.249999928374109
 20
112.12113248654219
 30
0.0
 11
50.249999928374109
 21
110.499420484439
 31
0.0
  0
LINE
  5
2123
  8
SAPA_PROFIL
 10
50.249999928374109
 20
110.499420484439
 30
0.0
 11
50.139240964495002
 21
110.4994275342297
 31
0.0
  0
ARC
  5
2124
  8
SAPA_PROFIL
 10
50.139260059448091
 20
110.79942753362231
 30
0.0
 40
0.3000000000002638
 50
240.00000000001839
 51
269.99635313259091
  0
LINE
  5
2125
  8
SAPA_PROFIL
 10
49.989260059448043
 20
110.5396199124867
 30
0.0
 11
48.499999928374102
 21
111.3994446500558
 31
0.0
  0
LINE
  5
2126
  8
SAPA_PROFIL
 10
48.499999928374102
 20
111.3994446500558
 30
0.0
 11
48.049999928374291
 21
111.3994446500559
 31
0.0
  0
ARC
  5
2127
  8
SAPA_PROFIL
 10
48.049999928374177
 20
111.0994446500558
 30
0.0
 40
0.3000000000000682
 50
89.999999999978314
 51
179.99999999997829
  0
LINE
  5
2128
  8
SAPA_PROFIL
 10
47.749999928374102
 20
111.0994446500559
 30
0.0
 11
47.749999928373647
 21
107.49943265005579
 31
0.0
  0
ARC
  5
2129
  8
SAPA_PROFIL
 10
48.049999928373722
 20
107.49943265005589
 30
0.0
 40
0.3000000000000682
 50
180.00000000002171
 51
270.0000000000216
  0
LINE
  5
212A
  8
SAPA_PROFIL
 10
48.049999928373843
 20
107.1994326500559
 30
0.0
 11
48.499999928374102
 21
107.1994446500555
 31
0.0
  0
LINE
  5
212B
  8
SAPA_PROFIL
 10
48.499999928374102
 20
107.1994446500555
 30
0.0
 11
49.989230412914821
 21
108.0592522711907
 31
0.0
  0
ARC
  5
212C
  8
SAPA_PROFIL
 10
50.139230412914984
 20
107.79944465005531
 30
0.0
 40
0.300000000000209
 50
90.000000000013571
 51
120.0000000000127
  0
LINE
  5
212D
  8
SAPA_PROFIL
 10
50.139230412914912
 20
108.0994446500555
 30
0.0
 11
50.725735859662102
 21
108.0994446500556
 31
0.0
  0
ARC
  5
212E
  8
SAPA_PROFIL
 10
50.725735859661953
 20
107.7994446500558
 30
0.0
 40
0.299999999999784
 50
44.999999999955861
 51
89.999999999970143
  0
LINE
  5
212F
  8
SAPA_PROFIL
 10
50.937867894017927
 20
108.01157668441139
 30
0.0
 11
52.2429171471872
 21
106.70652743124231
 31
0.0
  0
ARC
  5
2130
  8
SAPA_PROFIL
 10
51.535810366000547
 20
105.9994206500558
 30
0.0
 40
0.999999999999993
 50
269.99999999999881
 51
44.999999999991651
  0
LINE
  5
2131
  8
SAPA_PROFIL
 10
51.535810366000533
 20
104.9994206500558
 30
0.0
 11
47.949999928373011
 21
104.99944465005581
 31
0.0
  0
ARC
  5
2132
  8
SAPA_PROFIL
 10
47.749999928373427
 20
104.99944465005581
 30
0.0
 40
0.1999999999995907
 50
0.0
 51
180.0
  0
LINE
  5
2133
  8
SAPA_PROFIL
 10
47.549999928373829
 20
104.99944465005581
 30
0.0
 11
46.249999898824171
 21
104.99944465005581
 31
0.0
  0
ARC
  5
2134
  8
SAPA_PROFIL
 10
46.249999898968213
 20
105.99944464991199
 30
0.0
 40
0.9999999998561862
 50
179.9999999915581
 51
269.99999999174702
  0
LINE
  5
2135
  8
SAPA_PROFIL
 10
45.249999899112026
 20
105.9994446500593
 30
0.0
 11
45.249999899112026
 21
106.99944465005581
 31
0.0
  0
ARC
  5
2136
  8
SAPA_PROFIL
 10
44.249999899112019
 20
106.99944465005581
 30
0.0
 40
1.0
 50
0.0
 51
90.0
  0
LINE
  5
2137
  8
SAPA_PROFIL
 10
44.249999899112019
 20
107.99944465005581
 30
0.0
 11
38.137070189151018
 21
107.99944465005601
 31
0.0
  0
ARC
  5
2138
  8
SAPA_PROFIL
 10
38.137070189151068
 20
106.99944465005601
 30
0.0
 40
0.9999999999999715
 50
90.000000000002856
 51
154.99999999973531
  0
LINE
  5
2139
  8
SAPA_PROFIL
 10
37.230762402116397
 20
107.42206291180089
 30
0.0
 11
35.437699163769139
 21
103.5768263883015
 31
0.0
  0
ARC
  5
213A
  8
SAPA_PROFIL
 10
34.531391376734533
 20
103.9994446500464
 30
0.0
 40
0.9999999999999536
 50
269.9999999999992
 51
334.99999999972857
  0
LINE
  5
213B
  8
SAPA_PROFIL
 10
34.531391376734518
 20
102.9994446500465
 30
0.0
 11
31.482645903406141
 21
102.9994446500464
 31
0.0
  0
ARC
  5
213C
  8
SAPA_PROFIL
 10
31.4826459034064
 20
103.1994446500468
 30
0.0
 40
0.200000000000486
 50
150.89009105950339
 51
269.99999999992468
  0
ARC
  5
213D
  8
SAPA_PROFIL
 10
28.249999928374269
 20
104.999444650078
 30
0.0
 40
3.5000000000000231
 50
330.89009105957717
 51
355.08289966395131
  0
LINE
  5
213E
  8
SAPA_PROFIL
 10
31.73711908320411
 20
104.6994446500464
 30
0.0
 11
32.999999928374109
 21
104.6994446500464
 31
0.0
  0
ARC
  5
213F
  8
SAPA_PROFIL
 10
32.999999928374109
 20
105.1994446500464
 30
0.0
 40
0.5
 50
270.0
 51
0.0
  0
LINE
  5
2140
  8
SAPA_PROFIL
 10
33.499999928374109
 20
105.1994446500464
 30
0.0
 11
33.499999928374109
 21
107.49944465005601
 31
0.0
  0
ARC
  5
2141
  8
SAPA_PROFIL
 10
32.999999928374109
 20
107.49944465005601
 30
0.0
 40
0.5
 50
0.0
 51
90.0
  0
LINE
  5
2142
  8
SAPA_PROFIL
 10
32.999999928374109
 20
107.99944465005601
 30
0.0
 11
30.052775566142831
 21
107.99944465005601
 31
0.0
  0
ARC
  5
2143
  8
SAPA_PROFIL
 10
28.249999928374109
 20
104.99944465007761
 30
0.0
 40
3.500000000000413
 50
58.997280865428699
 51
121.00271913457129
  0
LINE
  5
2144
  8
SAPA_PROFIL
 10
26.447224290605391
 20
107.99944465005601
 30
0.0
 11
20.052775566142831
 21
107.99944465005601
 31
0.0
  0
ARC
  5
2145
  8
SAPA_PROFIL
 10
18.249999928374109
 20
104.99944465007761
 30
0.0
 40
3.500000000000413
 50
58.997280865428699
 51
121.00271913457129
  0
LINE
  5
2146
  8
SAPA_PROFIL
 10
16.447224290605391
 20
107.99944465005601
 30
0.0
 11
13.499999928374111
 21
107.99944465005601
 31
0.0
  0
ARC
  5
2147
  8
SAPA_PROFIL
 10
13.499999928374111
 20
107.49944465005601
 30
0.0
 40
0.5
 50
90.0
 51
180.0
  0
LINE
  5
2148
  8
SAPA_PROFIL
 10
12.999999928374111
 20
107.49944465005601
 30
0.0
 11
12.999999928374111
 21
105.1994446500464
 31
0.0
  0
ARC
  5
2149
  8
SAPA_PROFIL
 10
13.499999928374111
 20
105.1994446500464
 30
0.0
 40
0.5
 50
180.0
 51
270.0
  0
LINE
  5
214A
  8
SAPA_PROFIL
 10
13.499999928374111
 20
104.6994446500464
 30
0.0
 11
14.76288077354411
 21
104.6994446500465
 31
0.0
  0
ARC
  5
214B
  8
SAPA_PROFIL
 10
18.249999928374969
 20
104.999444650079
 30
0.0
 40
3.500000000001112
 50
184.91710033606159
 51
209.1099089404357
  0
ARC
  5
214C
  8
SAPA_PROFIL
 10
15.017353953342131
 20
103.1994446500469
 30
0.0
 40
0.2000000000004533
 50
269.9999999999842
 51
29.10990894039929
  0
LINE
  5
214D
  8
SAPA_PROFIL
 10
15.017353953342081
 20
102.9994446500465
 30
0.0
 11
11.96860848001324
 21
102.9994446500465
 31
0.0
  0
ARC
  5
214E
  8
SAPA_PROFIL
 10
11.968608480013231
 20
103.9994446500464
 30
0.0
 40
0.9999999999999573
 50
205.0000000002714
 51
270.0000000000008
  0
LINE
  5
214F
  8
SAPA_PROFIL
 10
11.062300692978621
 20
103.5768263883015
 30
0.0
 11
9.2692374546318206
 21
107.42206291180089
 31
0.0
  0
ARC
  5
2150
  8
SAPA_PROFIL
 10
8.3629296675971236
 20
106.99944465005601
 30
0.0
 40
1.0000000000000111
 50
25.000000000266219
 51
89.999999999995623
  0
LINE
  5
2151
  8
SAPA_PROFIL
 10
8.3629296675972
 20
107.99944465005601
 30
0.0
 11
-7.950000071626163
 21
107.99944465005591
 31
0.0
  0
LINE
  5
2152
  8
SAPA_PROFIL
 10
-7.950000071626163
 20
107.99944465005591
 30
0.0
 11
-7.950000071626163
 21
106.49944465005591
 31
0.0
  0
LINE
  5
2153
  8
SAPA_PROFIL
 10
-7.950000071626163
 20
106.49944465005591
 30
0.0
 11
-8.7500000716258892
 21
106.49944465005591
 31
0.0
  0
LINE
  5
2154
  8
SAPA_PROFIL
 10
-8.7500000716258892
 20
106.49944465005591
 30
0.0
 11
-8.7500000716258892
 21
107.99944465005591
 31
0.0
  0
LINE
  5
2155
  8
SAPA_PROFIL
 10
-8.7500000716258892
 20
107.99944465005591
 30
0.0
 11
-10.45000007162616
 21
107.99944465005591
 31
0.0
  0
LINE
  5
2156
  8
SAPA_PROFIL
 10
-10.45000007162616
 20
107.99944465005591
 30
0.0
 11
-10.750000071625889
 21
83.399444650055898
 31
0.0
  0
LINE
  5
2157
  8
SAPA_PROFIL
 10
-10.750000071625889
 20
83.399444650055898
 30
0.0
 11
-9.0500000716260711
 21
83.399444650055898
 31
0.0
  0
LINE
  5
2158
  8
SAPA_PROFIL
 10
-9.0500000716260711
 20
83.399444650055898
 30
0.0
 11
-9.0500000716260711
 21
85.399444650055884
 31
0.0
  0
LINE
  5
2159
  8
SAPA_PROFIL
 10
-9.0500000716260711
 20
85.399444650055884
 30
0.0
 11
-8.2500000716258892
 21
85.399444650055884
 31
0.0
  0
LINE
  5
215A
  8
SAPA_PROFIL
 10
-8.2500000716258892
 20
85.399444650055884
 30
0.0
 11
-8.2500000716258892
 21
81.249444650065357
 31
0.0
  0
ARC
  5
215B
  8
SAPA_PROFIL
 10
-8.7500000716259194
 20
81.249444650065257
 30
0.0
 40
0.5000000000000285
 50
270.0000000000033
 51
0.0000000000097707
  0
LINE
  5
215C
  8
SAPA_PROFIL
 10
-8.7500000716258892
 20
80.749444650065243
 30
0.0
 11
-9.2500000716077011
 21
80.749444650053064
 31
0.0
  0
LINE
  5
215D
  8
SAPA_PROFIL
 10
-9.2500000716077011
 20
80.749444650053064
 30
0.0
 11
-9.2500000716295272
 21
81.999444650027385
 31
0.0
  0
LINE
  5
215E
  8
SAPA_PROFIL
 10
-9.2500000716295272
 20
81.999444650027385
 30
0.0
 11
-10.65000007160824
 21
81.999444650063083
 31
0.0
  0
ARC
  5
215F
  8
SAPA_PROFIL
 10
-10.65000007160195
 20
81.699444650077069
 30
0.0
 40
0.2999999999860137
 50
90.000000001203006
 51
180.00000000266249
  0
LINE
  5
2160
  8
SAPA_PROFIL
 10
-10.95000007158796
 20
81.699444650063128
 30
0.0
 11
-10.950000071615699
 21
75.299444650058035
 31
0.0
  0
ARC
  5
2161
  8
SAPA_PROFIL
 10
-10.650000071625669
 20
75.299444650075856
 30
0.0
 40
0.2999999999900353
 50
180.00000000340339
 51
270.00000000193779
  0
LINE
  5
2162
  8
SAPA_PROFIL
 10
-10.650000071615519
 20
74.99944465008582
 30
0.0
 11
-9.2500000716295272
 21
74.999444650093665
 31
0.0
  0
LINE
  5
2163
  8
SAPA_PROFIL
 10
-9.2500000716295272
 20
74.999444650093665
 30
0.0
 11
-9.2500000716077011
 21
76.249444650067971
 31
0.0
  0
LINE
  5
2164
  8
SAPA_PROFIL
 10
-9.2500000716077011
 20
76.249444650067971
 30
0.0
 11
-8.7500000716258892
 21
76.249444650055807
 31
0.0
  0
ARC
  5
2165
  8
SAPA_PROFIL
 10
-8.7500000716258768
 20
75.749444650055821
 30
0.0
 40
0.4999999999999858
 50
359.99999999999841
 51
90.000000000001606
  0
LINE
  5
2166
  8
SAPA_PROFIL
 10
-8.2500000716258892
 20
75.749444650055807
 30
0.0
 11
-8.2500000716258892
 21
72.749444650055807
 31
0.0
  0
ARC
  5
2167
  8
SAPA_PROFIL
 10
-8.7500000716258768
 20
72.749444650048517
 30
0.0
 40
0.4999999999999858
 50
269.99999999999841
 51
0.0000000008353918
  0
LINE
  5
2168
  8
SAPA_PROFIL
 10
-8.7500000716258892
 20
72.249444650048531
 30
0.0
 11
-9.2500000716258892
 21
72.249444650048531
 31
0.0
  0
LINE
  5
2169
  8
SAPA_PROFIL
 10
-9.2500000716258892
 20
72.249444650048531
 30
0.0
 11
-9.2500000716254362
 21
73.699444650045621
 31
0.0
  0
LINE
  5
216A
  8
SAPA_PROFIL
 10
-9.2500000716254362
 20
73.699444650045621
 30
0.0
 11
-11.100000071618069
 21
73.699444650045621
 31
0.0
  0
ARC
  5
216B
  8
SAPA_PROFIL
 10
-11.10000007160172
 20
73.39944465005911
 30
0.0
 40
0.299999999986511
 50
90.000000003121869
 51
180.00000000313199
  0
LINE
  5
216C
  8
SAPA_PROFIL
 10
-11.40000007158824
 20
73.39944465004271
 30
0.0
 11
-11.40000007161734
 21
71.159252271186119
 31
0.0
  0
LINE
  5
216D
  8
SAPA_PROFIL
 10
-11.40000007161734
 20
71.159252271186119
 30
0.0
 11
-10.950000071622981
 21
70.899444650057262
 31
0.0
  0
LINE
  5
216E
  8
SAPA_PROFIL
 10
-10.950000071622981
 20
70.899444650057262
 30
0.0
 11
-10.950000071622981
 21
69.099444650047076
 31
0.0
  0
LINE
  5
216F
  8
SAPA_PROFIL
 10
-10.950000071622981
 20
69.099444650047076
 30
0.0
 11
-11.40000007161734
 21
68.839637028918219
 31
0.0
  0
LINE
  5
2170
  8
SAPA_PROFIL
 10
-11.40000007161734
 20
68.839637028918219
 30
0.0
 11
-11.40000007161734
 21
66.599444650061614
 31
0.0
  0
ARC
  5
2171
  8
SAPA_PROFIL
 10
-11.1000000716316
 20
66.599444650073337
 30
0.0
 40
0.2999999999857383
 50
180.00000000223631
 51
270.00000000293221
  0
LINE
  5
2172
  8
SAPA_PROFIL
 10
-11.10000007161625
 20
66.299444650087594
 30
0.0
 11
-9.2500000716254362
 21
66.299444650058717
 31
0.0
  0
LINE
  5
2173
  8
SAPA_PROFIL
 10
-9.2500000716254362
 20
66.299444650058717
 30
0.0
 11
-9.2500000716258892
 21
67.749444650055807
 31
0.0
  0
LINE
  5
2174
  8
SAPA_PROFIL
 10
-9.2500000716258892
 20
67.749444650055807
 30
0.0
 11
-8.7500000716258892
 21
67.749444650055807
 31
0.0
  0
ARC
  5
2175
  8
SAPA_PROFIL
 10
-8.7500000716258892
 20
67.249444650055807
 30
0.0
 40
0.5
 50
0.0
 51
90.0
  0
LINE
  5
2176
  8
SAPA_PROFIL
 10
-8.2500000716258892
 20
67.249444650055807
 30
0.0
 11
-8.2500000716258892
 21
65.499444650055807
 31
0.0
  0
ARC
  5
2177
  8
SAPA_PROFIL
 10
-8.7500000716259052
 20
65.499444650055821
 30
0.0
 40
0.5000000000000142
 50
270.00000000000171
 51
359.99999999999841
  0
LINE
  5
2178
  8
SAPA_PROFIL
 10
-8.7500000716258892
 20
64.999444650055807
 30
0.0
 11
-11.250000071625889
 21
64.99944465005558
 31
0.0
  0
ARC
  5
2179
  8
SAPA_PROFIL
 10
-11.250000071625889
 20
66.999444650055565
 30
0.0
 40
2.0
 50
180.0
 51
270.0
  0
LINE
  5
217A
  8
SAPA_PROFIL
 10
-13.250000071625889
 20
66.999444650055565
 30
0.0
 11
-13.250000071625889
 21
124.69944465005651
 31
0.0
  0
ARC
  5
217B
  8
SAPA_PROFIL
 10
-12.95000007162079
 20
124.6994446500459
 30
0.0
 40
0.3000000000051042
 50
90.000000000071594
 51
179.99999999797529
  0
LINE
  5
217C
  8
SAPA_PROFIL
 10
-12.95000007162116
 20
124.999444650051
 30
0.0
 11
47.549999928373381
 21
124.99944465005581
 31
0.0
  0
ARC
  5
217D
  8
SAPA_PROFIL
 10
47.7499999283732
 20
124.9994446500541
 30
0.0
 40
0.1999999999998181
 50
179.9999999995114
 51
359.99999999951149
  0
LINE
  5
217E
  8
SAPA_PROFIL
 10
47.949999928373011
 20
124.9994446500524
 30
0.0
 11
51.535810366000533
 21
124.99946865005251
 31
0.0
  0
LINE
  5
217F
  8
SAPA_PROFIL
 10
178.74999992811939
 20
122.6994446500558
 30
0.0
 11
178.74999992811939
 21
110.49944465005581
 31
0.0
  0
LINE
  5
2180
  8
SAPA_PROFIL
 10
178.74999992811939
 20
110.49944465005581
 30
0.0
 11
210.74999992811939
 21
110.49944465005581
 31
0.0
  0
LINE
  5
2181
  8
SAPA_PROFIL
 10
210.74999992811939
 20
110.49944465005581
 30
0.0
 11
210.74999992811939
 21
122.6994446500558
 31
0.0
  0
LINE
  5
2182
  8
SAPA_PROFIL
 10
210.74999992811939
 20
122.6994446500558
 30
0.0
 11
178.74999992811939
 21
122.6994446500558
 31
0.0
  0
ARC
  5
2183
  8
SAPA_PROFIL
 10
175.74999992811939
 20
112.0994446500559
 30
0.0
 40
1.0
 50
270.0
 51
0.0
  0
LINE
  5
2184
  8
SAPA_PROFIL
 10
176.74999992811939
 20
112.0994446500559
 30
0.0
 11
176.74999992811939
 21
121.0994446500559
 31
0.0
  0
ARC
  5
2185
  8
SAPA_PROFIL
 10
175.74999992811939
 20
121.0994446500559
 30
0.0
 40
1.0
 50
0.0
 51
90.0
  0
LINE
  5
2186
  8
SAPA_PROFIL
 10
175.74999992811939
 20
122.0994446500559
 30
0.0
 11
173.24999989271731
 21
122.0994446500559
 31
0.0
  0
LINE
  5
2187
  8
SAPA_PROFIL
 10
173.24999989271731
 20
122.0994446500559
 30
0.0
 11
173.24999989271731
 21
122.6994446500558
 31
0.0
  0
LINE
  5
2188
  8
SAPA_PROFIL
 10
173.24999989271731
 20
122.6994446500558
 30
0.0
 11
155.7499998927174
 21
122.6994446500558
 31
0.0
  0
LINE
  5
2189
  8
SAPA_PROFIL
 10
155.7499998927174
 20
122.6994446500558
 30
0.0
 11
155.7499998927174
 21
110.49944465005581
 31
0.0
  0
LINE
  5
218A
  8
SAPA_PROFIL
 10
155.7499998927174
 20
110.49944465005581
 30
0.0
 11
173.24999989271731
 21
110.49944465005581
 31
0.0
  0
LINE
  5
218B
  8
SAPA_PROFIL
 10
173.24999989271731
 20
110.49944465005581
 30
0.0
 11
173.24999989271731
 21
111.0994446500559
 31
0.0
  0
LINE
  5
218C
  8
SAPA_PROFIL
 10
173.24999989271731
 20
111.0994446500559
 30
0.0
 11
175.74999992811939
 21
111.0994446500559
 31
0.0
  0
LINE
  5
218D
  8
SAPA_PROFIL
 10
186.99999992810439
 20
104.6994446500463
 30
0.0
 11
185.73711908293441
 21
104.6994446500463
 31
0.0
  0
ARC
  5
218E
  8
SAPA_PROFIL
 10
182.2499999281047
 20
104.99944465007771
 30
0.0
 40
3.499999999999881
 50
330.89009105957717
 51
355.08289966395409
  0
ARC
  5
218F
  8
SAPA_PROFIL
 10
185.48264590313661
 20
103.1994446500467
 30
0.0
 40
0.2000000000003748
 50
150.89009105952289
 51
269.99999999994299
  0
LINE
  5
2190
  8
SAPA_PROFIL
 10
185.4826459031365
 20
102.9994446500464
 30
0.0
 11
188.53139137646531
 21
102.9994446500464
 31
0.0
  0
ARC
  5
2191
  8
SAPA_PROFIL
 10
188.53139137646519
 20
103.9994446500463
 30
0.0
 40
0.9999999999999715
 50
270.0000000000033
 51
334.99999999973551
  0
LINE
  5
2192
  8
SAPA_PROFIL
 10
189.4376991634999
 20
103.5768263883015
 30
0.0
 11
191.2307624018467
 21
107.42206291180089
 31
0.0
  0
ARC
  5
2193
  8
SAPA_PROFIL
 10
192.13707018888141
 20
106.99944465005601
 30
0.0
 40
0.999999999999982
 50
90.000000000003254
 51
154.9999999997348
  0
LINE
  5
2194
  8
SAPA_PROFIL
 10
192.1370701888813
 20
107.99944465005601
 30
0.0
 11
208.44999992810469
 21
107.99944465005581
 31
0.0
  0
LINE
  5
2195
  8
SAPA_PROFIL
 10
208.44999992810469
 20
107.99944465005581
 30
0.0
 11
208.44999992810469
 21
106.49944465005581
 31
0.0
  0
LINE
  5
2196
  8
SAPA_PROFIL
 10
208.44999992810469
 20
106.49944465005581
 30
0.0
 11
209.2499999281045
 21
106.49944465005581
 31
0.0
  0
LINE
  5
2197
  8
SAPA_PROFIL
 10
209.2499999281045
 20
106.49944465005581
 30
0.0
 11
209.2499999281045
 21
107.99944465005581
 31
0.0
  0
LINE
  5
2198
  8
SAPA_PROFIL
 10
209.2499999281045
 20
107.99944465005581
 30
0.0
 11
210.94999992810469
 21
107.99944465005581
 31
0.0
  0
LINE
  5
2199
  8
SAPA_PROFIL
 10
210.94999992810469
 20
107.99944465005581
 30
0.0
 11
211.24999992810439
 21
83.399444650055898
 31
0.0
  0
LINE
  5
219A
  8
SAPA_PROFIL
 10
211.24999992810439
 20
83.399444650055898
 30
0.0
 11
209.5499999281046
 21
83.399444650055898
 31
0.0
  0
LINE
  5
219B
  8
SAPA_PROFIL
 10
209.5499999281046
 20
83.399444650055898
 30
0.0
 11
209.5499999281046
 21
85.399444650055884
 31
0.0
  0
LINE
  5
219C
  8
SAPA_PROFIL
 10
209.5499999281046
 20
85.399444650055884
 30
0.0
 11
208.74999992810439
 21
85.399444650055884
 31
0.0
  0
LINE
  5
219D
  8
SAPA_PROFIL
 10
208.74999992810439
 20
85.399444650055884
 30
0.0
 11
208.74999992810439
 21
81.249444650065243
 31
0.0
  0
ARC
  5
219E
  8
SAPA_PROFIL
 10
209.24999992810439
 20
81.249444650065215
 30
0.0
 40
0.4999999999999716
 50
179.9999999999967
 51
270.0000000000033
  0
LINE
  5
219F
  8
SAPA_PROFIL
 10
209.2499999281045
 20
80.749444650065243
 30
0.0
 11
209.7499999280862
 21
80.749444650053064
 31
0.0
  0
LINE
  5
21A0
  8
SAPA_PROFIL
 10
209.7499999280862
 20
80.749444650053064
 30
0.0
 11
209.74999992810811
 21
81.999444650027385
 31
0.0
  0
LINE
  5
21A1
  8
SAPA_PROFIL
 10
209.74999992810811
 20
81.999444650027385
 30
0.0
 11
211.1499999280868
 21
81.999444650063083
 31
0.0
  0
ARC
  5
21A2
  8
SAPA_PROFIL
 10
211.14999992808049
 20
81.699444650077055
 30
0.0
 40
0.2999999999860279
 50
359.99999999734018
 51
89.999999998794948
  0
LINE
  5
21A3
  8
SAPA_PROFIL
 10
211.44999992806649
 20
81.699444650063128
 30
0.0
 11
211.44999992809429
 21
75.299444650057922
 31
0.0
  0
ARC
  5
21A4
  8
SAPA_PROFIL
 10
211.14999992810431
 20
75.299444650075785
 30
0.0
 40
0.2999999999899785
 50
269.99999999805129
 51
359.99999999658837
  0
LINE
  5
21A5
  8
SAPA_PROFIL
 10
211.1499999280941
 20
74.99944465008582
 30
0.0
 11
209.74999992810811
 21
74.999444650093551
 31
0.0
  0
LINE
  5
21A6
  8
SAPA_PROFIL
 10
209.74999992810811
 20
74.999444650093551
 30
0.0
 11
209.7499999280862
 21
76.249444650067858
 31
0.0
  0
LINE
  5
21A7
  8
SAPA_PROFIL
 10
209.7499999280862
 20
76.249444650067858
 30
0.0
 11
209.2499999281045
 21
76.249444650055807
 31
0.0
  0
ARC
  5
21A8
  8
SAPA_PROFIL
 10
209.2499999281045
 20
75.749444650055807
 30
0.0
 40
0.5
 50
90.0
 51
180.0
  0
LINE
  5
21A9
  8
SAPA_PROFIL
 10
208.74999992810439
 20
75.749444650055807
 30
0.0
 11
208.74999992810439
 21
72.749444650055807
 31
0.0
  0
ARC
  5
21AA
  8
SAPA_PROFIL
 10
209.2499999281045
 20
72.749444650048531
 30
0.0
 40
0.5
 50
179.99999999916619
 51
270.0
  0
LINE
  5
21AB
  8
SAPA_PROFIL
 10
209.2499999281045
 20
72.249444650048531
 30
0.0
 11
209.7499999281045
 21
72.249444650048417
 31
0.0
  0
LINE
  5
21AC
  8
SAPA_PROFIL
 10
209.7499999281045
 20
72.249444650048417
 30
0.0
 11
209.74999992810351
 21
73.699444650045507
 31
0.0
  0
LINE
  5
21AD
  8
SAPA_PROFIL
 10
209.74999992810351
 20
73.699444650045507
 30
0.0
 11
211.59999992809659
 21
73.699444650045621
 31
0.0
  0
ARC
  5
21AE
  8
SAPA_PROFIL
 10
211.59999992808019
 20
73.399444650059081
 30
0.0
 40
0.2999999999865395
 50
359.99999999687338
 51
89.999999996873385
  0
LINE
  5
21AF
  8
SAPA_PROFIL
 10
211.89999992806679
 20
73.39944465004271
 30
0.0
 11
211.89999992809589
 21
71.159252271186119
 31
0.0
  0
LINE
  5
21B0
  8
SAPA_PROFIL
 10
211.89999992809589
 20
71.159252271186119
 30
0.0
 11
211.44999992810151
 21
70.899444650057262
 31
0.0
  0
LINE
  5
21B1
  8
SAPA_PROFIL
 10
211.44999992810151
 20
70.899444650057262
 30
0.0
 11
211.44999992810151
 21
69.099444650046962
 31
0.0
  0
LINE
  5
21B2
  8
SAPA_PROFIL
 10
211.44999992810151
 20
69.099444650046962
 30
0.0
 11
211.89999992809589
 21
68.839637028918219
 31
0.0
  0
LINE
  5
21B3
  8
SAPA_PROFIL
 10
211.89999992809589
 20
68.839637028918219
 30
0.0
 11
211.89999992809589
 21
66.599444650061514
 31
0.0
  0
ARC
  5
21B4
  8
SAPA_PROFIL
 10
211.59999992811021
 20
66.599444650073281
 30
0.0
 40
0.2999999999856868
 50
269.99999999705801
 51
359.9999999977527
  0
LINE
  5
21B5
  8
SAPA_PROFIL
 10
211.5999999280948
 20
66.299444650087594
 30
0.0
 11
209.74999992810351
 21
66.299444650058717
 31
0.0
  0
LINE
  5
21B6
  8
SAPA_PROFIL
 10
209.74999992810351
 20
66.299444650058717
 30
0.0
 11
209.7499999281045
 21
67.749444650055807
 31
0.0
  0
LINE
  5
21B7
  8
SAPA_PROFIL
 10
209.7499999281045
 20
67.749444650055807
 30
0.0
 11
209.2499999281045
 21
67.749444650055807
 31
0.0
  0
ARC
  5
21B8
  8
SAPA_PROFIL
 10
209.2499999281045
 20
67.249444650055821
 30
0.0
 40
0.4999999999999858
 50
90.0
 51
180.00000000000159
  0
LINE
  5
21B9
  8
SAPA_PROFIL
 10
208.74999992810439
 20
67.249444650055807
 30
0.0
 11
208.74999992810439
 21
65.499444650055807
 31
0.0
  0
ARC
  5
21BA
  8
SAPA_PROFIL
 10
209.2499999281045
 20
65.499444650055807
 30
0.0
 40
0.5
 50
180.0
 51
270.0
  0
LINE
  5
21BB
  8
SAPA_PROFIL
 10
209.2499999281045
 20
64.999444650055807
 30
0.0
 11
211.74999992810399
 21
64.99944465005558
 31
0.0
  0
ARC
  5
21BC
  8
SAPA_PROFIL
 10
211.74999992810439
 20
66.999444650055651
 30
0.0
 40
2.0000000000000711
 50
269.99999999998943
 51
359.99999999999471
  0
LINE
  5
21BD
  8
SAPA_PROFIL
 10
213.7499999281045
 20
66.999444650055466
 30
0.0
 11
213.7499999281045
 21
124.69944465005651
 31
0.0
  0
ARC
  5
21BE
  8
SAPA_PROFIL
 10
213.4499999280994
 20
124.6994446500459
 30
0.0
 40
0.3000000000050704
 50
0.0000000020219846
 51
89.999999999934857
  0
LINE
  5
21BF
  8
SAPA_PROFIL
 10
213.44999992809969
 20
124.999444650051
 30
0.0
 11
152.9499999281052
 21
124.99944465005581
 31
0.0
  0
ARC
  5
21C0
  8
SAPA_PROFIL
 10
152.7499999281053
 20
124.9994446500541
 30
0.0
 40
0.1999999999998181
 50
180.00000000048851
 51
0.0000000004885332
  0
LINE
  5
21C1
  8
SAPA_PROFIL
 10
152.54999992810551
 20
124.9994446500524
 30
0.0
 11
148.96418949047799
 21
124.99946865005251
 31
0.0
  0
ARC
  5
21C2
  8
SAPA_PROFIL
 10
148.96418949047799
 20
123.99946865005251
 30
0.0
 40
1.000000000000042
 50
89.999999999998366
 51
224.9999999999948
  0
LINE
  5
21C3
  8
SAPA_PROFIL
 10
148.2570827092913
 20
123.292361868866
 30
0.0
 11
149.5621319624606
 21
121.98731261569679
 31
0.0
  0
ARC
  5
21C4
  8
SAPA_PROFIL
 10
149.77426399681659
 20
122.1994446500525
 30
0.0
 40
0.2999999999997633
 50
224.99999999995589
 51
269.99999999997289
  0
LINE
  5
21C5
  8
SAPA_PROFIL
 10
149.77426399681639
 20
121.8994446500527
 30
0.0
 11
150.36076944356361
 21
121.8994446500529
 31
0.0
  0
ARC
  5
21C6
  8
SAPA_PROFIL
 10
150.36076944356401
 20
122.199444650053
 30
0.0
 40
0.3000000000001108
 50
269.99999999993491
 51
299.9999999999323
  0
LINE
  5
21C7
  8
SAPA_PROFIL
 10
150.5107694435637
 20
121.9396370289174
 30
0.0
 11
151.99999992810439
 21
122.79944465005281
 31
0.0
  0
LINE
  5
21C8
  8
SAPA_PROFIL
 10
151.99999992810439
 20
122.79944465005281
 30
0.0
 11
152.44999992810469
 21
122.79945665005251
 31
0.0
  0
ARC
  5
21C9
  8
SAPA_PROFIL
 10
152.44999992810449
 20
122.49945665005259
 30
0.0
 40
0.2999999999998835
 50
359.9999999999647
 51
89.999999999967429
  0
LINE
  5
21CA
  8
SAPA_PROFIL
 10
152.74999992810439
 20
122.49945665005249
 30
0.0
 11
152.74999992810439
 21
118.8994446500525
 31
0.0
  0
ARC
  5
21CB
  8
SAPA_PROFIL
 10
152.44999992810429
 20
118.8994446500525
 30
0.0
 40
0.300000000000125
 50
269.99999999998909
 51
359.99999999998909
  0
LINE
  5
21CC
  8
SAPA_PROFIL
 10
152.44999992810421
 20
118.5994446500524
 30
0.0
 11
151.99999992810439
 21
118.5994446500525
 31
0.0
  0
LINE
  5
21CD
  8
SAPA_PROFIL
 10
151.99999992810439
 20
118.5994446500525
 30
0.0
 11
150.51073979703051
 21
119.4592693876215
 31
0.0
  0
ARC
  5
21CE
  8
SAPA_PROFIL
 10
150.36073979703039
 20
119.1994617664857
 30
0.0
 40
0.3000000000004073
 50
60.000000000024862
 51
89.996353132582755
  0
LINE
  5
21CF
  8
SAPA_PROFIL
 10
150.36075889198349
 20
119.49946176587839
 30
0.0
 11
150.24999992810439
 21
119.4994688156693
 31
0.0
  0
LINE
  5
21D0
  8
SAPA_PROFIL
 10
150.24999992810439
 20
119.4994688156693
 30
0.0
 11
150.2499999281053
 21
117.8777568135648
 31
0.0
  0
ARC
  5
21D1
  8
SAPA_PROFIL
 10
151.2499999281053
 20
117.8777568135648
 30
0.0
 40
0.9999999999999715
 50
180.0
 51
240.00000000000091
  0
LINE
  5
21D2
  8
SAPA_PROFIL
 10
150.7499999281053
 20
117.0117314097804
 30
0.0
 11
152.24999992810439
 21
116.1457060059966
 31
0.0
  0
ARC
  5
21D3
  8
SAPA_PROFIL
 10
151.7499999281043
 20
115.2796806022122
 30
0.0
 40
1.0000000000000751
 50
359.99999999999682
 51
59.999999999996852
  0
LINE
  5
21D4
  8
SAPA_PROFIL
 10
152.74999992810439
 20
115.2796806022121
 30
0.0
 11
152.74999992810439
 21
114.71920869789609
 31
0.0
  0
ARC
  5
21D5
  8
SAPA_PROFIL
 10
151.7499999281045
 20
114.71920869789609
 30
0.0
 40
0.9999999999998863
 50
299.99999999999648
 51
359.99999999999682
  0
LINE
  5
21D6
  8
SAPA_PROFIL
 10
152.24999992810439
 20
113.8531832941118
 30
0.0
 11
150.7499999281053
 21
112.9871578903268
 31
0.0
  0
ARC
  5
21D7
  8
SAPA_PROFIL
 10
151.2499999281049
 20
112.1211324865415
 30
0.0
 40
1.00000000000051
 50
119.9999999999567
 51
179.9999999999585
  0
LINE
  5
21D8
  8
SAPA_PROFIL
 10
150.24999992810439
 20
112.12113248654219
 30
0.0
 11
150.24999992810439
 21
110.499420484439
 31
0.0
  0
LINE
  5
21D9
  8
SAPA_PROFIL
 10
150.24999992810439
 20
110.499420484439
 30
0.0
 11
150.36075889198349
 21
110.4994275342298
 31
0.0
  0
ARC
  5
21DA
  8
SAPA_PROFIL
 10
150.36073979703019
 20
110.7994275336217
 30
0.0
 40
0.2999999999995532
 50
270.0036468674607
 51
300.00000000001887
  0
LINE
  5
21DB
  8
SAPA_PROFIL
 10
150.51073979703
 20
110.5396199124868
 30
0.0
 11
151.99999992810439
 21
111.3994446500558
 31
0.0
  0
LINE
  5
21DC
  8
SAPA_PROFIL
 10
151.99999992810439
 20
111.3994446500558
 30
0.0
 11
152.44999992810421
 21
111.3994446500559
 31
0.0
  0
ARC
  5
21DD
  8
SAPA_PROFIL
 10
152.4499999281044
 20
111.0994446500558
 30
0.0
 40
0.3000000000000682
 50
0.0000000000217126
 51
90.0000000000217
  0
LINE
  5
21DE
  8
SAPA_PROFIL
 10
152.74999992810439
 20
111.0994446500559
 30
0.0
 11
152.74999992810439
 21
107.49943265005579
 31
0.0
  0
ARC
  5
21DF
  8
SAPA_PROFIL
 10
152.4499999281044
 20
107.49943265005589
 30
0.0
 40
0.3000000000000682
 50
269.99999999997829
 51
359.99999999998101
  0
LINE
  5
21E0
  8
SAPA_PROFIL
 10
152.44999992810421
 20
107.1994326500559
 30
0.0
 11
151.99999992810439
 21
107.1994446500555
 31
0.0
  0
LINE
  5
21E1
  8
SAPA_PROFIL
 10
151.99999992810439
 20
107.1994446500555
 30
0.0
 11
150.5107694435637
 21
108.0592522711907
 31
0.0
  0
ARC
  5
21E2
  8
SAPA_PROFIL
 10
150.3607694435635
 20
107.79944465005519
 30
0.0
 40
0.3000000000002284
 50
59.999999999986329
 51
89.999999999983714
  0
LINE
  5
21E3
  8
SAPA_PROFIL
 10
150.36076944356361
 20
108.0994446500555
 30
0.0
 11
149.77426399681639
 21
108.0994446500556
 31
0.0
  0
ARC
  5
21E4
  8
SAPA_PROFIL
 10
149.77426399681659
 20
107.7994446500558
 30
0.0
 40
0.2999999999997698
 50
90.000000000027143
 51
135.00000000004411
  0
LINE
  5
21E5
  8
SAPA_PROFIL
 10
149.5621319624606
 20
108.01157668441139
 30
0.0
 11
148.2570827092913
 21
106.70652743124231
 31
0.0
  0
ARC
  5
21E6
  8
SAPA_PROFIL
 10
148.96418949047791
 20
105.9994206500558
 30
0.0
 40
0.9999999999999779
 50
135.00000000000631
 51
270.0000000000033
  0
LINE
  5
21E7
  8
SAPA_PROFIL
 10
148.96418949047799
 20
104.9994206500558
 30
0.0
 11
152.54999992810551
 21
104.99944465005591
 31
0.0
  0
ARC
  5
21E8
  8
SAPA_PROFIL
 10
152.7499999281051
 20
104.99944465005581
 30
0.0
 40
0.1999999999995907
 50
359.99999999998369
 51
179.99999999998369
  0
LINE
  5
21E9
  8
SAPA_PROFIL
 10
152.94999992810469
 20
104.99944465005581
 30
0.0
 11
154.24999995765441
 21
104.99944465005581
 31
0.0
  0
ARC
  5
21EA
  8
SAPA_PROFIL
 10
154.2499999575104
 20
105.99944464991189
 30
0.0
 40
0.9999999998561008
 50
270.00000000824809
 51
0.000000008446739
  0
LINE
  5
21EB
  8
SAPA_PROFIL
 10
155.2499999573665
 20
105.9994446500593
 30
0.0
 11
155.2499999573665
 21
106.99944465005581
 31
0.0
  0
ARC
  5
21EC
  8
SAPA_PROFIL
 10
156.2499999573665
 20
106.99944465005581
 30
0.0
 40
1.0
 50
90.0
 51
180.0
  0
LINE
  5
21ED
  8
SAPA_PROFIL
 10
156.2499999573665
 20
107.99944465005581
 30
0.0
 11
162.36292966732751
 21
107.99944465005601
 31
0.0
  0
ARC
  5
21EE
  8
SAPA_PROFIL
 10
162.36292966732751
 20
106.99944465005601
 30
0.0
 40
0.9999999999999715
 50
25.000000000264482
 51
89.999999999996746
  0
LINE
  5
21EF
  8
SAPA_PROFIL
 10
163.2692374543621
 20
107.42206291180089
 30
0.0
 11
165.0623006927089
 21
103.5768263883015
 31
0.0
  0
ARC
  5
21F0
  8
SAPA_PROFIL
 10
165.96860847974381
 20
103.9994446500467
 30
0.0
 40
1.000000000000332
 50
205.0000000002774
 51
270.00000000000978
  0
LINE
  5
21F1
  8
SAPA_PROFIL
 10
165.96860847974401
 20
102.9994446500464
 30
0.0
 11
169.01735395307239
 21
102.9994446500464
 31
0.0
  0
ARC
  5
21F2
  8
SAPA_PROFIL
 10
169.01735395307239
 20
103.1994446500468
 30
0.0
 40
0.2000000000005002
 50
269.99999999999193
 51
29.109908940413359
  0
ARC
  5
21F3
  8
SAPA_PROFIL
 10
172.24999992810439
 20
104.9994446500788
 30
0.0
 40
3.5000000000001998
 50
184.91710033606299
 51
209.10990894043979
  0
LINE
  5
21F4
  8
SAPA_PROFIL
 10
168.76288077327439
 20
104.6994446500463
 30
0.0
 11
167.49999992810439
 21
104.6994446500463
 31
0.0
  0
ARC
  5
21F5
  8
SAPA_PROFIL
 10
167.49999992810439
 20
105.1994446500463
 30
0.0
 40
0.5
 50
180.0
 51
270.0
  0
LINE
  5
21F6
  8
SAPA_PROFIL
 10
166.99999992810439
 20
105.1994446500463
 30
0.0
 11
166.99999992810439
 21
107.49944465005601
 31
0.0
  0
ARC
  5
21F7
  8
SAPA_PROFIL
 10
167.49999992810439
 20
107.49944465005601
 30
0.0
 40
0.5
 50
90.0
 51
180.0
  0
LINE
  5
21F8
  8
SAPA_PROFIL
 10
167.49999992810439
 20
107.99944465005601
 30
0.0
 11
170.44722429033621
 21
107.99944465005601
 31
0.0
  0
ARC
  5
21F9
  8
SAPA_PROFIL
 10
172.2499999281047
 20
104.999444650078
 30
0.0
 40
3.4999999999999671
 50
58.997280865428657
 51
121.00271913457129
  0
LINE
  5
21FA
  8
SAPA_PROFIL
 10
174.05277556587319
 20
107.99944465005601
 30
0.0
 11
180.44722429033621
 21
107.99944465005601
 31
0.0
  0
ARC
  5
21FB
  8
SAPA_PROFIL
 10
182.24999992810459
 20
104.999444650078
 30
0.0
 40
3.4999999999999671
 50
58.997280865428657
 51
121.00271913457129
  0
LINE
  5
21FC
  8
SAPA_PROFIL
 10
184.05277556587311
 20
107.99944465005601
 30
0.0
 11
186.99999992810439
 21
107.99944465005601
 31
0.0
  0
ARC
  5
21FD
  8
SAPA_PROFIL
 10
186.99999992810439
 20
107.49944465005601
 30
0.0
 40
0.5
 50
0.0
 51
90.0
  0
LINE
  5
21FE
  8
SAPA_PROFIL
 10
187.49999992810439
 20
107.49944465005601
 30
0.0
 11
187.49999992810439
 21
105.1994446500463
 31
0.0
  0
ARC
  5
21FF
  8
SAPA_PROFIL
 10
186.99999992810439
 20
105.1994446500463
 30
0.0
 40
0.5
 50
270.0
 51
0.0
  0
ARC
  5
2200
  8
SAPA_PROFIL
 62
     4
 10
50.125833080819653
 20
122.1494566175471
 30
0.0
 40
0.3000000000002245
 50
239.99999999998749
 51
269.99999999998511
  0
LINE
  5
2201
  8
SAPA_PROFIL
 62
     4
 10
49.975833080819477
 20
121.88964899641159
 30
0.0
 11
48.486602539974221
 21
122.7494566500539
 31
0.0
  0
LINE
  5
2202
  8
SAPA_PROFIL
 62
     4
 10
48.486602539974221
 20
122.7494566500539
 30
0.0
 11
48.049999999595912
 21
122.7494566500541
 31
0.0
  0
ARC
  5
2203
  8
SAPA_PROFIL
 62
     4
 10
48.049999999595912
 20
122.4994566500541
 30
0.0
 40
0.25
 50
90.0
 51
180.0
  0
LINE
  5
2204
  8
SAPA_PROFIL
 62
     4
 10
47.799999999595912
 20
122.4994566500541
 30
0.0
 11
47.799999999595912
 21
118.89944465005409
 31
0.0
  0
ARC
  5
2205
  8
SAPA_PROFIL
 62
     4
 10
48.049999999595912
 20
118.89944465005409
 30
0.0
 40
0.2499999999999929
 50
180.0
 51
270.00000000000171
  0
LINE
  5
2206
  8
SAPA_PROFIL
 62
     4
 10
48.049999999595912
 20
118.64944465005409
 30
0.0
 11
48.48660192117449
 21
118.6494562927894
 31
0.0
  0
LINE
  5
2207
  8
SAPA_PROFIL
 62
     4
 10
48.48660192117449
 20
118.6494562927894
 30
0.0
 11
49.975832968212217
 21
119.50926423868231
 31
0.0
  0
ARC
  5
2208
  8
SAPA_PROFIL
 62
     4
 10
50.125832968211917
 20
119.24945661754769
 30
0.0
 40
0.2999999999992309
 50
90.000000000013571
 51
120.00000000002019
  0
LINE
  5
2209
  8
SAPA_PROFIL
 62
     4
 10
50.125832968211853
 20
119.54945661754699
 30
0.0
 11
73.374166959463295
 21
119.54945661754699
 31
0.0
  0
ARC
  5
220A
  8
SAPA_PROFIL
 62
     4
 10
73.374166959463466
 20
119.2494566175469
 30
0.0
 40
0.3000000000000824
 50
60.000000000023569
 51
90.000000000029857
  0
LINE
  5
220B
  8
SAPA_PROFIL
 62
     4
 10
73.5241669594634
 20
119.50926423868231
 30
0.0
 11
75.01339800650112
 21
118.6494562927893
 31
0.0
  0
LINE
  5
220C
  8
SAPA_PROFIL
 62
     4
 10
75.01339800650112
 20
118.6494562927893
 30
0.0
 11
75.449999928079706
 21
118.64944465005409
 31
0.0
  0
ARC
  5
220D
  8
SAPA_PROFIL
 62
     4
 10
75.449999928079706
 20
118.89944465005409
 30
0.0
 40
0.25
 50
270.0
 51
0.0
  0
LINE
  5
220E
  8
SAPA_PROFIL
 62
     4
 10
75.699999928079706
 20
118.89944465005409
 30
0.0
 11
75.699999928079251
 21
122.4994566500541
 31
0.0
  0
ARC
  5
220F
  8
SAPA_PROFIL
 62
     4
 10
75.449999928079251
 20
122.4994566500541
 30
0.0
 40
0.25
 50
0.0
 51
90.0
  0
LINE
  5
2210
  8
SAPA_PROFIL
 62
     4
 10
75.449999928079251
 20
122.7494566500541
 30
0.0
 11
75.013397387700934
 21
122.7494566500539
 31
0.0
  0
LINE
  5
2211
  8
SAPA_PROFIL
 62
     4
 10
75.013397387700934
 20
122.7494566500539
 30
0.0
 11
73.524166846855678
 21
121.88964899641159
 31
0.0
  0
ARC
  5
2212
  8
SAPA_PROFIL
 62
     4
 10
73.374166846855957
 20
122.14945661754631
 30
0.0
 40
0.2999999999993119
 50
270.00000000001631
 51
300.0000000000145
  0
LINE
  5
2213
  8
SAPA_PROFIL
 62
     4
 10
73.374166846856042
 20
121.84945661754701
 30
0.0
 11
50.125833080819568
 21
121.84945661754691
 31
0.0
  0
LINE
  5
2214
  8
SAPA_PROFIL
 62
     4
 10
64.249999996470706
 20
81.651709582438684
 30
-0.2
 11
64.249999996470706
 21
67.451709582436592
 31
-0.2
1001
RC_PROFILE
1002
{
1000
Region
1002
}
  0
ARC
  5
2215
  8
SAPA_PROFIL
 62
     4
 10
63.749999996470699
 20
67.451709582436592
 30
-0.2
 40
0.5
 50
270.00000000020839
 51
0.0
1001
RC_PROFILE
1002
{
1000
Region
1002
}
  0
LINE
  5
2216
  8
SAPA_PROFIL
 62
     4
 10
63.749999996472518
 20
66.951709582436592
 30
-0.2
 11
59.74999999585134
 21
66.951709582433637
 31
-0.2
1001
RC_PROFILE
1002
{
1000
Region
1002
}
  0
ARC
  5
2217
  8
SAPA_PROFIL
 62
     4
 10
59.74999999585134
 20
67.451709582433637
 30
-0.2
 40
0.5
 50
180.0
 51
270.0
1001
RC_PROFILE
1002
{
1000
Region
1002
}
  0
LINE
  5
2218
  8
SAPA_PROFIL
 62
     4
 10
59.24999999585134
 20
67.451709582433637
 30
-0.2
 11
59.249999995844057
 21
81.651709582437533
 31
-0.2
1001
RC_PROFILE
1002
{
1000
Region
1002
}
  0
ARC
  5
2219
  8
SAPA_PROFIL
 62
     4
 10
59.749999995844057
 20
81.651709582438684
 30
-0.2
 40
0.5
 50
90.0
 51
180.0000000001302
1001
RC_PROFILE
1002
{
1000
Region
1002
}
  0
LINE
  5
221A
  8
SAPA_PROFIL
 62
     4
 10
59.749999995844057
 20
82.151709582438684
 30
-0.2
 11
63.749999996470699
 21
82.151709582438684
 31
-0.2
1001
RC_PROFILE
1002
{
1000
Region
1002
}
  0
ARC
  5
221B
  8
SAPA_PROFIL
 62
     4
 10
63.749999996470699
 20
81.651709582438684
 30
-0.2
 40
0.5
 50
0.0
 51
90.0
1001
RC_PROFILE
1002
{
1000
Region
1002
}
  0
ARC
  5
221C
  8
SAPA_PROFIL
 62
     4
 10
50.827259926451781
 20
107.215183138847
 30
0.0
 40
1.2000000000007129
 50
89.999999999971834
 51
119.99999999999299
1001
GENIUS_GENOBJ-N-FIL_13
1002
{
1000
OWNER
1000
GEN
1002
}
1001
GENIUS_GENODEF_13
1002
{
1000
HIER
1070
     0
1002
}
1002
{
1000
MANEDIT
1070
     0
1002
}
1002
{
1000
NOSEL
1070
     0
1002
}
1002
{
1000
BEHIND
1070
     0
1002
}
1002
{
1000
OTHER
1070
     0
1002
}
1002
{
1000
REACTOR
1002
}
  0
LINE
  5
221D
  8
SAPA_PROFIL
 62
     4
 10
50.227259926451552
 20
108.254413623389
 30
0.0
 11
48.486601985808193
 21
107.249444292791
 31
0.0
1001
GENIUS_GENOBJ-N-FIL_13
1002
{
1000
OWNER
1000
GEN
1002
}
1001
GENIUS_GENODEF_13
1002
{
1000
HIER
1070
     0
1002
}
1002
{
1000
MANEDIT
1070
     0
1002
}
1002
{
1000
NOSEL
1070
     0
1002
}
1002
{
1000
BEHIND
1070
     0
1002
}
1002
{
1000
OTHER
1070
     0
1002
}
1002
{
1000
REACTOR
1002
}
  0
LINE
  5
221E
  8
SAPA_PROFIL
 62
     4
 10
48.486601985808193
 20
107.249444292791
 30
0.0
 11
48.050000064229607
 21
107.24943265005579
 31
0.0
1001
GENIUS_GENOBJ-N-FIL_13
1002
{
1000
OWNER
1000
GEN
1002
}
1001
GENIUS_GENODEF_13
1002
{
1000
HIER
1070
     0
1002
}
1002
{
1000
MANEDIT
1070
     0
1002
}
1002
{
1000
NOSEL
1070
     0
1002
}
1002
{
1000
BEHIND
1070
     0
1002
}
1002
{
1000
OTHER
1070
     0
1002
}
1002
{
1000
REACTOR
1002
}
  0
ARC
  5
221F
  8
SAPA_PROFIL
 62
     4
 10
48.0500000642296
 20
107.49943265005579
 30
0.0
 40
0.25
 50
180.0
 51
270.00000000000171
1001
GENIUS_GENOBJ-N-FIL_13
1002
{
1000
OWNER
1000
GEN
1002
}
1001
GENIUS_GENODEF_13
1002
{
1000
HIER
1070
     0
1002
}
1002
{
1000
MANEDIT
1070
     0
1002
}
1002
{
1000
NOSEL
1070
     0
1002
}
1002
{
1000
BEHIND
1070
     0
1002
}
1002
{
1000
OTHER
1070
     0
1002
}
1002
{
1000
REACTOR
1002
}
  0
LINE
  5
2220
  8
SAPA_PROFIL
 62
     4
 10
47.800000064229607
 20
107.49943265005579
 30
0.0
 11
47.800000064230062
 21
111.0994446500558
 31
0.0
1001
GENIUS_GENOBJ-N-FIL_13
1002
{
1000
OWNER
1000
GEN
1002
}
1001
GENIUS_GENODEF_13
1002
{
1000
HIER
1070
     0
1002
}
1002
{
1000
MANEDIT
1070
     0
1002
}
1002
{
1000
NOSEL
1070
     0
1002
}
1002
{
1000
BEHIND
1070
     0
1002
}
1002
{
1000
OTHER
1070
     0
1002
}
1002
{
1000
REACTOR
1002
}
  0
ARC
  5
2221
  8
SAPA_PROFIL
 62
     4
 10
48.050000064230062
 20
111.0994446500558
 30
0.0
 40
0.25
 50
90.0
 51
180.0
1001
GENIUS_GENOBJ-N-FIL_13
1002
{
1000
OWNER
1000
GEN
1002
}
1001
GENIUS_GENODEF_13
1002
{
1000
HIER
1070
     0
1002
}
1002
{
1000
MANEDIT
1070
     0
1002
}
1002
{
1000
NOSEL
1070
     0
1002
}
1002
{
1000
BEHIND
1070
     0
1002
}
1002
{
1000
OTHER
1070
     0
1002
}
1002
{
1000
REACTOR
1002
}
  0
LINE
  5
2222
  8
SAPA_PROFIL
 62
     4
 10
48.050000064230062
 20
111.3494446500558
 30
0.0
 11
48.486602604608379
 21
111.3494446500557
 31
0.0
1001
GENIUS_GENOBJ-N-FIL_13
1002
{
1000
OWNER
1000
GEN
1002
}
1001
GENIUS_GENODEF_13
1002
{
1000
HIER
1070
     0
1002
}
1002
{
1000
MANEDIT
1070
     0
1002
}
1002
{
1000
NOSEL
1070
     0
1002
}
1002
{
1000
BEHIND
1070
     0
1002
}
1002
{
1000
OTHER
1070
     0
1002
}
1002
{
1000
REACTOR
1002
}
  0
LINE
  5
2223
  8
SAPA_PROFIL
 62
     4
 10
48.486602604608379
 20
111.3494446500557
 30
0.0
 11
50.172740202009209
 21
110.37595265430571
 31
0.0
1001
GENIUS_GENOBJ-N-FIL_13
1002
{
1000
OWNER
1000
GEN
1002
}
1001
GENIUS_GENODEF_13
1002
{
1000
HIER
1070
     0
1002
}
1002
{
1000
MANEDIT
1070
     0
1002
}
1002
{
1000
NOSEL
1070
     0
1002
}
1002
{
1000
BEHIND
1070
     0
1002
}
1002
{
1000
OTHER
1070
     0
1002
}
1002
{
1000
REACTOR
1002
}
  0
ARC
  5
2224
  8
SAPA_PROFIL
 62
     4
 10
50.772740202009231
 20
111.4151831388469
 30
0.0
 40
1.199999999999932
 50
239.9999999999969
 51
269.9999999999946
1001
GENIUS_GENOBJ-N-FIL_13
1002
{
1000
OWNER
1000
GEN
1002
}
1001
GENIUS_GENODEF_13
1002
{
1000
HIER
1070
     0
1002
}
1002
{
1000
MANEDIT
1070
     0
1002
}
1002
{
1000
NOSEL
1070
     0
1002
}
1002
{
1000
BEHIND
1070
     0
1002
}
1002
{
1000
OTHER
1070
     0
1002
}
1002
{
1000
REACTOR
1002
}
  0
LINE
  5
2225
  8
SAPA_PROFIL
 62
     4
 10
50.772740202009118
 20
110.215183138847
 30
0.0
 11
72.727259790300195
 21
110.215183138847
 31
0.0
1001
GENIUS_GENOBJ-N-FIL_13
1002
{
1000
OWNER
1000
GEN
1002
}
1001
GENIUS_GENODEF_13
1002
{
1000
HIER
1070
     0
1002
}
1002
{
1000
MANEDIT
1070
     0
1002
}
1002
{
1000
NOSEL
1070
     0
1002
}
1002
{
1000
BEHIND
1070
     0
1002
}
1002
{
1000
OTHER
1070
     0
1002
}
1002
{
1000
REACTOR
1002
}
  0
ARC
  5
2226
  8
SAPA_PROFIL
 62
     4
 10
72.727259790300081
 20
111.4151831388469
 30
0.0
 40
1.1999999999999451
 50
270.0000000000054
 51
300.00000000000279
1001
GENIUS_GENOBJ-N-FIL_13
1002
{
1000
OWNER
1000
GEN
1002
}
1001
GENIUS_GENODEF_13
1002
{
1000
HIER
1070
     0
1002
}
1002
{
1000
MANEDIT
1070
     0
1002
}
1002
{
1000
NOSEL
1070
     0
1002
}
1002
{
1000
BEHIND
1070
     0
1002
}
1002
{
1000
OTHER
1070
     0
1002
}
1002
{
1000
REACTOR
1002
}
  0
LINE
  5
2227
  8
SAPA_PROFIL
 62
     4
 10
73.327259790300104
 20
110.37595265430571
 30
0.0
 11
75.013397387700934
 21
111.3494446500557
 31
0.0
1001
GENIUS_GENOBJ-N-FIL_13
1002
{
1000
OWNER
1000
GEN
1002
}
1001
GENIUS_GENODEF_13
1002
{
1000
HIER
1070
     0
1002
}
1002
{
1000
MANEDIT
1070
     0
1002
}
1002
{
1000
NOSEL
1070
     0
1002
}
1002
{
1000
BEHIND
1070
     0
1002
}
1002
{
1000
OTHER
1070
     0
1002
}
1002
{
1000
REACTOR
1002
}
  0
LINE
  5
2228
  8
SAPA_PROFIL
 62
     4
 10
75.013397387700934
 20
111.3494446500557
 30
0.0
 11
75.449999928079251
 21
111.3494446500558
 31
0.0
1001
GENIUS_GENOBJ-N-FIL_13
1002
{
1000
OWNER
1000
GEN
1002
}
1001
GENIUS_GENODEF_13
1002
{
1000
HIER
1070
     0
1002
}
1002
{
1000
MANEDIT
1070
     0
1002
}
1002
{
1000
NOSEL
1070
     0
1002
}
1002
{
1000
BEHIND
1070
     0
1002
}
1002
{
1000
OTHER
1070
     0
1002
}
1002
{
1000
REACTOR
1002
}
  0
ARC
  5
2229
  8
SAPA_PROFIL
 62
     4
 10
75.449999928079251
 20
111.0994446500558
 30
0.0
 40
0.25
 50
0.0
 51
90.0
1001
GENIUS_GENOBJ-N-FIL_13
1002
{
1000
OWNER
1000
GEN
1002
}
1001
GENIUS_GENODEF_13
1002
{
1000
HIER
1070
     0
1002
}
1002
{
1000
MANEDIT
1070
     0
1002
}
1002
{
1000
NOSEL
1070
     0
1002
}
1002
{
1000
BEHIND
1070
     0
1002
}
1002
{
1000
OTHER
1070
     0
1002
}
1002
{
1000
REACTOR
1002
}
  0
LINE
  5
222A
  8
SAPA_PROFIL
 62
     4
 10
75.699999928079251
 20
111.0994446500558
 30
0.0
 11
75.699999928079251
 21
107.49943265005579
 31
0.0
1001
GENIUS_GENOBJ-N-FIL_13
1002
{
1000
OWNER
1000
GEN
1002
}
1001
GENIUS_GENODEF_13
1002
{
1000
HIER
1070
     0
1002
}
1002
{
1000
MANEDIT
1070
     0
1002
}
1002
{
1000
NOSEL
1070
     0
1002
}
1002
{
1000
BEHIND
1070
     0
1002
}
1002
{
1000
OTHER
1070
     0
1002
}
1002
{
1000
REACTOR
1002
}
  0
ARC
  5
222B
  8
SAPA_PROFIL
 62
     4
 10
75.449999928079251
 20
107.49943265005579
 30
0.0
 40
0.25
 50
270.0
 51
0.0
1001
GENIUS_GENOBJ-N-FIL_13
1002
{
1000
OWNER
1000
GEN
1002
}
1001
GENIUS_GENODEF_13
1002
{
1000
HIER
1070
     0
1002
}
1002
{
1000
MANEDIT
1070
     0
1002
}
1002
{
1000
NOSEL
1070
     0
1002
}
1002
{
1000
BEHIND
1070
     0
1002
}
1002
{
1000
OTHER
1070
     0
1002
}
1002
{
1000
REACTOR
1002
}
  0
LINE
  5
222C
  8
SAPA_PROFIL
 62
     4
 10
75.449999928079251
 20
107.24943265005579
 30
0.0
 11
75.01339800650112
 21
107.249444292791
 31
0.0
1001
GENIUS_GENOBJ-N-FIL_13
1002
{
1000
OWNER
1000
GEN
1002
}
1001
GENIUS_GENODEF_13
1002
{
1000
HIER
1070
     0
1002
}
1002
{
1000
MANEDIT
1070
     0
1002
}
1002
{
1000
NOSEL
1070
     0
1002
}
1002
{
1000
BEHIND
1070
     0
1002
}
1002
{
1000
OTHER
1070
     0
1002
}
1002
{
1000
REACTOR
1002
}
  0
LINE
  5
222D
  8
SAPA_PROFIL
 62
     4
 10
75.01339800650112
 20
107.249444292791
 30
0.0
 11
73.272740065857306
 21
108.254413623389
 31
0.0
1001
GENIUS_GENOBJ-N-FIL_13
1002
{
1000
OWNER
1000
GEN
1002
}
1001
GENIUS_GENODEF_13
1002
{
1000
HIER
1070
     0
1002
}
1002
{
1000
MANEDIT
1070
     0
1002
}
1002
{
1000
NOSEL
1070
     0
1002
}
1002
{
1000
BEHIND
1070
     0
1002
}
1002
{
1000
OTHER
1070
     0
1002
}
1002
{
1000
REACTOR
1002
}
  0
ARC
  5
222E
  8
SAPA_PROFIL
 62
     4
 10
72.672740065857283
 20
107.21518313884781
 30
0.0
 40
1.1999999999998761
 50
59.99999999999612
 51
90.000000000016954
1001
GENIUS_GENOBJ-N-FIL_13
1002
{
1000
OWNER
1000
GEN
1002
}
1001
GENIUS_GENODEF_13
1002
{
1000
HIER
1070
     0
1002
}
1002
{
1000
MANEDIT
1070
     0
1002
}
1002
{
1000
NOSEL
1070
     0
1002
}
1002
{
1000
BEHIND
1070
     0
1002
}
1002
{
1000
OTHER
1070
     0
1002
}
1002
{
1000
REACTOR
1002
}
  0
LINE
  5
222F
  8
SAPA_PROFIL
 62
     4
 10
72.672740065856942
 20
108.41518313884769
 30
0.0
 11
69.949999928328452
 21
108.415183138847
 31
0.0
1001
GENIUS_GENOBJ-N-FIL_13
1002
{
1000
OWNER
1000
GEN
1002
}
1001
GENIUS_GENODEF_13
1002
{
1000
HIER
1070
     0
1002
}
1002
{
1000
MANEDIT
1070
     0
1002
}
1002
{
1000
NOSEL
1070
     0
1002
}
1002
{
1000
BEHIND
1070
     0
1002
}
1002
{
1000
OTHER
1070
     0
1002
}
1002
{
1000
REACTOR
1002
}
  0
ARC
  5
2230
  8
SAPA_PROFIL
 62
     4
 10
69.949999928329021
 20
107.21518313884761
 30
0.0
 40
1.199999999999477
 50
90.000000000027143
 51
180.0000000002226
1001
GENIUS_GENOBJ-N-FIL_13
1002
{
1000
OWNER
1000
GEN
1002
}
1001
GENIUS_GENODEF_13
1002
{
1000
HIER
1070
     0
1002
}
1002
{
1000
MANEDIT
1070
     0
1002
}
1002
{
1000
NOSEL
1070
     0
1002
}
1002
{
1000
BEHIND
1070
     0
1002
}
1002
{
1000
OTHER
1070
     0
1002
}
1002
{
1000
REACTOR
1002
}
  0
LINE
  5
2231
  8
SAPA_PROFIL
 62
     4
 10
68.749999928329544
 20
107.2151831388429
 30
0.0
 11
68.749999928418674
 21
81.417448111921104
 31
0.0
1001
GENIUS_GENOBJ-N-FIL_13
1002
{
1000
OWNER
1000
GEN
1002
}
1001
GENIUS_GENODEF_13
1002
{
1000
HIER
1070
     0
1002
}
1002
{
1000
MANEDIT
1070
     0
1002
}
1002
{
1000
NOSEL
1070
     0
1002
}
1002
{
1000
BEHIND
1070
     0
1002
}
1002
{
1000
OTHER
1070
     0
1002
}
1002
{
1000
REACTOR
1002
}
  0
ARC
  5
2232
  8
SAPA_PROFIL
 62
     4
 10
68.249999928418674
 20
81.417448111921104
 30
0.0
 40
0.5
 50
270.0
 51
0.0
1001
GENIUS_GENOBJ-N-FIL_13
1002
{
1000
OWNER
1000
GEN
1002
}
1001
GENIUS_GENODEF_13
1002
{
1000
HIER
1070
     0
1002
}
1002
{
1000
MANEDIT
1070
     0
1002
}
1002
{
1000
NOSEL
1070
     0
1002
}
1002
{
1000
BEHIND
1070
     0
1002
}
1002
{
1000
OTHER
1070
     0
1002
}
1002
{
1000
REACTOR
1002
}
  0
LINE
  5
2233
  8
SAPA_PROFIL
 62
     4
 10
68.249999928418674
 20
80.91744811192109
 30
0.0
 11
68.049999928418856
 21
80.917448111920862
 31
0.0
1001
GENIUS_GENOBJ-N-FIL_13
1002
{
1000
OWNER
1000
GEN
1002
}
1001
GENIUS_GENODEF_13
1002
{
1000
HIER
1070
     0
1002
}
1002
{
1000
MANEDIT
1070
     0
1002
}
1002
{
1000
NOSEL
1070
     0
1002
}
1002
{
1000
BEHIND
1070
     0
1002
}
1002
{
1000
OTHER
1070
     0
1002
}
1002
{
1000
REACTOR
1002
}
  0
ARC
  5
2234
  8
SAPA_PROFIL
 62
     4
 10
68.049999928418856
 20
81.217448111921044
 30
0.0
 40
0.3000000000001819
 50
180.0
 51
270.0
1001
GENIUS_GENOBJ-N-FIL_13
1002
{
1000
OWNER
1000
GEN
1002
}
1001
GENIUS_GENODEF_13
1002
{
1000
HIER
1070
     0
1002
}
1002
{
1000
MANEDIT
1070
     0
1002
}
1002
{
1000
NOSEL
1070
     0
1002
}
1002
{
1000
BEHIND
1070
     0
1002
}
1002
{
1000
OTHER
1070
     0
1002
}
1002
{
1000
REACTOR
1002
}
  0
LINE
  5
2235
  8
SAPA_PROFIL
 62
     4
 10
67.749999928418674
 20
81.217448111921044
 30
0.0
 11
67.749999928418674
 21
81.867448111922954
 31
0.0
1001
GENIUS_GENOBJ-N-FIL_13
1002
{
1000
OWNER
1000
GEN
1002
}
1001
GENIUS_GENODEF_13
1002
{
1000
HIER
1070
     0
1002
}
1002
{
1000
MANEDIT
1070
     0
1002
}
1002
{
1000
NOSEL
1070
     0
1002
}
1002
{
1000
BEHIND
1070
     0
1002
}
1002
{
1000
OTHER
1070
     0
1002
}
1002
{
1000
REACTOR
1002
}
  0
ARC
  5
2236
  8
SAPA_PROFIL
 62
     4
 10
67.449999928418151
 20
81.867448111922386
 30
0.0
 40
0.300000000000523
 50
0.0000000001085629
 51
90.000000000108557
1001
GENIUS_GENOBJ-N-FIL_13
1002
{
1000
OWNER
1000
GEN
1002
}
1001
GENIUS_GENODEF_13
1002
{
1000
HIER
1070
     0
1002
}
1002
{
1000
MANEDIT
1070
     0
1002
}
1002
{
1000
NOSEL
1070
     0
1002
}
1002
{
1000
BEHIND
1070
     0
1002
}
1002
{
1000
OTHER
1070
     0
1002
}
1002
{
1000
REACTOR
1002
}
  0
LINE
  5
2237
  8
SAPA_PROFIL
 62
     4
 10
67.449999928417583
 20
82.167448111922894
 30
0.0
 11
66.549999928421585
 21
82.167448111921985
 31
0.0
1001
GENIUS_GENOBJ-N-FIL_13
1002
{
1000
OWNER
1000
GEN
1002
}
1001
GENIUS_GENODEF_13
1002
{
1000
HIER
1070
     0
1002
}
1002
{
1000
MANEDIT
1070
     0
1002
}
1002
{
1000
NOSEL
1070
     0
1002
}
1002
{
1000
BEHIND
1070
     0
1002
}
1002
{
1000
OTHER
1070
     0
1002
}
1002
{
1000
REACTOR
1002
}
  0
ARC
  5
2238
  8
SAPA_PROFIL
 62
     4
 10
66.54999992842113
 20
81.667448111922454
 30
0.0
 40
0.4999999999995453
 50
89.999999999947889
 51
179.9999999999479
1001
GENIUS_GENOBJ-N-FIL_13
1002
{
1000
OWNER
1000
GEN
1002
}
1001
GENIUS_GENODEF_13
1002
{
1000
HIER
1070
     0
1002
}
1002
{
1000
MANEDIT
1070
     0
1002
}
1002
{
1000
NOSEL
1070
     0
1002
}
1002
{
1000
BEHIND
1070
     0
1002
}
1002
{
1000
OTHER
1070
     0
1002
}
1002
{
1000
REACTOR
1002
}
  0
LINE
  5
2239
  8
SAPA_PROFIL
 62
     4
 10
66.049999928421585
 20
81.667448111922909
 30
0.0
 11
66.049999928421585
 21
75.667448111921075
 31
0.0
1001
GENIUS_GENOBJ-N-FIL_13
1002
{
1000
OWNER
1000
GEN
1002
}
1001
GENIUS_GENODEF_13
1002
{
1000
HIER
1070
     0
1002
}
1002
{
1000
MANEDIT
1070
     0
1002
}
1002
{
1000
NOSEL
1070
     0
1002
}
1002
{
1000
BEHIND
1070
     0
1002
}
1002
{
1000
OTHER
1070
     0
1002
}
1002
{
1000
REACTOR
1002
}
  0
ARC
  5
223A
  8
SAPA_PROFIL
 62
     4
 10
66.549999928421585
 20
75.667448111921075
 30
0.0
 40
0.5
 50
180.0
 51
270.0
1001
GENIUS_GENOBJ-N-FIL_13
1002
{
1000
OWNER
1000
GEN
1002
}
1001
GENIUS_GENODEF_13
1002
{
1000
HIER
1070
     0
1002
}
1002
{
1000
MANEDIT
1070
     0
1002
}
1002
{
1000
NOSEL
1070
     0
1002
}
1002
{
1000
BEHIND
1070
     0
1002
}
1002
{
1000
OTHER
1070
     0
1002
}
1002
{
1000
REACTOR
1002
}
  0
LINE
  5
223B
  8
SAPA_PROFIL
 62
     4
 10
66.549999928421585
 20
75.16744811192109
 30
0.0
 11
67.449999928420311
 21
75.16744811192109
 31
0.0
1001
GENIUS_GENOBJ-N-FIL_13
1002
{
1000
OWNER
1000
GEN
1002
}
1001
GENIUS_GENODEF_13
1002
{
1000
HIER
1070
     0
1002
}
1002
{
1000
MANEDIT
1070
     0
1002
}
1002
{
1000
NOSEL
1070
     0
1002
}
1002
{
1000
BEHIND
1070
     0
1002
}
1002
{
1000
OTHER
1070
     0
1002
}
1002
{
1000
REACTOR
1002
}
  0
ARC
  5
223C
  8
SAPA_PROFIL
 62
     4
 10
67.44999992841997
 20
75.467448111920703
 30
0.0
 40
0.2999999999996135
 50
270.0000000000652
 51
359.99999999967429
1001
GENIUS_GENOBJ-N-FIL_13
1002
{
1000
OWNER
1000
GEN
1002
}
1001
GENIUS_GENODEF_13
1002
{
1000
HIER
1070
     0
1002
}
1002
{
1000
MANEDIT
1070
     0
1002
}
1002
{
1000
NOSEL
1070
     0
1002
}
1002
{
1000
BEHIND
1070
     0
1002
}
1002
{
1000
OTHER
1070
     0
1002
}
1002
{
1000
REACTOR
1002
}
  0
LINE
  5
223D
  8
SAPA_PROFIL
 62
     4
 10
67.749999928419584
 20
75.467448111918983
 30
0.0
 11
67.749999928424131
 21
76.117448111920908
 31
0.0
1001
GENIUS_GENOBJ-N-FIL_13
1002
{
1000
OWNER
1000
GEN
1002
}
1001
GENIUS_GENODEF_13
1002
{
1000
HIER
1070
     0
1002
}
1002
{
1000
MANEDIT
1070
     0
1002
}
1002
{
1000
NOSEL
1070
     0
1002
}
1002
{
1000
BEHIND
1070
     0
1002
}
1002
{
1000
OTHER
1070
     0
1002
}
1002
{
1000
REACTOR
1002
}
  0
ARC
  5
223E
  8
SAPA_PROFIL
 62
     4
 10
68.049999928424199
 20
76.117448111918975
 30
0.0
 40
0.3000000000000682
 50
89.999999999630887
 51
179.99999999963089
1001
GENIUS_GENOBJ-N-FIL_13
1002
{
1000
OWNER
1000
GEN
1002
}
1001
GENIUS_GENODEF_13
1002
{
1000
HIER
1070
     0
1002
}
1002
{
1000
MANEDIT
1070
     0
1002
}
1002
{
1000
NOSEL
1070
     0
1002
}
1002
{
1000
BEHIND
1070
     0
1002
}
1002
{
1000
OTHER
1070
     0
1002
}
1002
{
1000
REACTOR
1002
}
  0
LINE
  5
223F
  8
SAPA_PROFIL
 62
     4
 10
68.049999928426132
 20
76.417448111919043
 30
0.0
 11
68.249999928418674
 21
76.417448111917906
 31
0.0
1001
GENIUS_GENOBJ-N-FIL_13
1002
{
1000
OWNER
1000
GEN
1002
}
1001
GENIUS_GENODEF_13
1002
{
1000
HIER
1070
     0
1002
}
1002
{
1000
MANEDIT
1070
     0
1002
}
1002
{
1000
NOSEL
1070
     0
1002
}
1002
{
1000
BEHIND
1070
     0
1002
}
1002
{
1000
OTHER
1070
     0
1002
}
1002
{
1000
REACTOR
1002
}
  0
ARC
  5
2240
  8
SAPA_PROFIL
 62
     4
 10
68.249999928418674
 20
75.917448111917906
 30
0.0
 40
0.5
 50
0.0
 51
90.0
1001
GENIUS_GENOBJ-N-FIL_13
1002
{
1000
OWNER
1000
GEN
1002
}
1001
GENIUS_GENODEF_13
1002
{
1000
HIER
1070
     0
1002
}
1002
{
1000
MANEDIT
1070
     0
1002
}
1002
{
1000
NOSEL
1070
     0
1002
}
1002
{
1000
BEHIND
1070
     0
1002
}
1002
{
1000
OTHER
1070
     0
1002
}
1002
{
1000
REACTOR
1002
}
  0
LINE
  5
2241
  8
SAPA_PROFIL
 62
     4
 10
68.749999928418674
 20
75.917448111917906
 30
0.0
 11
68.749999928418674
 21
72.917448111917906
 31
0.0
1001
GENIUS_GENOBJ-N-FIL_13
1002
{
1000
OWNER
1000
GEN
1002
}
1001
GENIUS_GENODEF_13
1002
{
1000
HIER
1070
     0
1002
}
1002
{
1000
MANEDIT
1070
     0
1002
}
1002
{
1000
NOSEL
1070
     0
1002
}
1002
{
1000
BEHIND
1070
     0
1002
}
1002
{
1000
OTHER
1070
     0
1002
}
1002
{
1000
REACTOR
1002
}
  0
ARC
  5
2242
  8
SAPA_PROFIL
 62
     4
 10
68.249999928418674
 20
72.917448111917906
 30
0.0
 40
0.5
 50
270.0
 51
0.0
1001
GENIUS_GENOBJ-N-FIL_13
1002
{
1000
OWNER
1000
GEN
1002
}
1001
GENIUS_GENODEF_13
1002
{
1000
HIER
1070
     0
1002
}
1002
{
1000
MANEDIT
1070
     0
1002
}
1002
{
1000
NOSEL
1070
     0
1002
}
1002
{
1000
BEHIND
1070
     0
1002
}
1002
{
1000
OTHER
1070
     0
1002
}
1002
{
1000
REACTOR
1002
}
  0
LINE
  5
2243
  8
SAPA_PROFIL
 62
     4
 10
68.249999928418674
 20
72.417448111917906
 30
0.0
 11
68.049999928418856
 21
72.417448111917906
 31
0.0
1001
GENIUS_GENOBJ-N-FIL_13
1002
{
1000
OWNER
1000
GEN
1002
}
1001
GENIUS_GENODEF_13
1002
{
1000
HIER
1070
     0
1002
}
1002
{
1000
MANEDIT
1070
     0
1002
}
1002
{
1000
NOSEL
1070
     0
1002
}
1002
{
1000
BEHIND
1070
     0
1002
}
1002
{
1000
OTHER
1070
     0
1002
}
1002
{
1000
REACTOR
1002
}
  0
ARC
  5
2244
  8
SAPA_PROFIL
 62
     4
 10
68.049999928418856
 20
72.717448111918074
 30
0.0
 40
0.3000000000001819
 50
180.0
 51
270.0
1001
GENIUS_GENOBJ-N-FIL_13
1002
{
1000
OWNER
1000
GEN
1002
}
1001
GENIUS_GENODEF_13
1002
{
1000
HIER
1070
     0
1002
}
1002
{
1000
MANEDIT
1070
     0
1002
}
1002
{
1000
NOSEL
1070
     0
1002
}
1002
{
1000
BEHIND
1070
     0
1002
}
1002
{
1000
OTHER
1070
     0
1002
}
1002
{
1000
REACTOR
1002
}
  0
LINE
  5
2245
  8
SAPA_PROFIL
 62
     4
 10
67.749999928418674
 20
72.717448111918074
 30
0.0
 11
67.749999928418674
 21
73.367448111917952
 31
0.0
1001
GENIUS_GENOBJ-N-FIL_13
1002
{
1000
OWNER
1000
GEN
1002
}
1001
GENIUS_GENODEF_13
1002
{
1000
HIER
1070
     0
1002
}
1002
{
1000
MANEDIT
1070
     0
1002
}
1002
{
1000
NOSEL
1070
     0
1002
}
1002
{
1000
BEHIND
1070
     0
1002
}
1002
{
1000
OTHER
1070
     0
1002
}
1002
{
1000
REACTOR
1002
}
  0
ARC
  5
2246
  8
SAPA_PROFIL
 62
     4
 10
67.449999928418151
 20
73.367448111917383
 30
0.0
 40
0.300000000000523
 50
0.0000000001085629
 51
90.000000000108557
1001
GENIUS_GENOBJ-N-FIL_13
1002
{
1000
OWNER
1000
GEN
1002
}
1001
GENIUS_GENODEF_13
1002
{
1000
HIER
1070
     0
1002
}
1002
{
1000
MANEDIT
1070
     0
1002
}
1002
{
1000
NOSEL
1070
     0
1002
}
1002
{
1000
BEHIND
1070
     0
1002
}
1002
{
1000
OTHER
1070
     0
1002
}
1002
{
1000
REACTOR
1002
}
  0
LINE
  5
2247
  8
SAPA_PROFIL
 62
     4
 10
67.449999928417583
 20
73.667448111917906
 30
0.0
 11
66.549999928421585
 21
73.667448111917906
 31
0.0
1001
GENIUS_GENOBJ-N-FIL_13
1002
{
1000
OWNER
1000
GEN
1002
}
1001
GENIUS_GENODEF_13
1002
{
1000
HIER
1070
     0
1002
}
1002
{
1000
MANEDIT
1070
     0
1002
}
1002
{
1000
NOSEL
1070
     0
1002
}
1002
{
1000
BEHIND
1070
     0
1002
}
1002
{
1000
OTHER
1070
     0
1002
}
1002
{
1000
REACTOR
1002
}
  0
ARC
  5
2248
  8
SAPA_PROFIL
 62
     4
 10
66.549999928421585
 20
73.167448111917906
 30
0.0
 40
0.5
 50
90.0
 51
180.0
1001
GENIUS_GENOBJ-N-FIL_13
1002
{
1000
OWNER
1000
GEN
1002
}
1001
GENIUS_GENODEF_13
1002
{
1000
HIER
1070
     0
1002
}
1002
{
1000
MANEDIT
1070
     0
1002
}
1002
{
1000
NOSEL
1070
     0
1002
}
1002
{
1000
BEHIND
1070
     0
1002
}
1002
{
1000
OTHER
1070
     0
1002
}
1002
{
1000
REACTOR
1002
}
  0
LINE
  5
2249
  8
SAPA_PROFIL
 62
     4
 10
66.049999928421585
 20
73.167448111917906
 30
0.0
 11
66.049999928421585
 21
67.167448111917906
 31
0.0
1001
GENIUS_GENOBJ-N-FIL_13
1002
{
1000
OWNER
1000
GEN
1002
}
1001
GENIUS_GENODEF_13
1002
{
1000
HIER
1070
     0
1002
}
1002
{
1000
MANEDIT
1070
     0
1002
}
1002
{
1000
NOSEL
1070
     0
1002
}
1002
{
1000
BEHIND
1070
     0
1002
}
1002
{
1000
OTHER
1070
     0
1002
}
1002
{
1000
REACTOR
1002
}
  0
ARC
  5
224A
  8
SAPA_PROFIL
 62
     4
 10
66.549999928421585
 20
67.167448111917906
 30
0.0
 40
0.5
 50
180.0
 51
270.0
1001
GENIUS_GENOBJ-N-FIL_13
1002
{
1000
OWNER
1000
GEN
1002
}
1001
GENIUS_GENODEF_13
1002
{
1000
HIER
1070
     0
1002
}
1002
{
1000
MANEDIT
1070
     0
1002
}
1002
{
1000
NOSEL
1070
     0
1002
}
1002
{
1000
BEHIND
1070
     0
1002
}
1002
{
1000
OTHER
1070
     0
1002
}
1002
{
1000
REACTOR
1002
}
  0
LINE
  5
224B
  8
SAPA_PROFIL
 62
     4
 10
66.549999928421585
 20
66.667448111917906
 30
0.0
 11
67.449999928417583
 21
66.667448111917906
 31
0.0
1001
GENIUS_GENOBJ-N-FIL_13
1002
{
1000
OWNER
1000
GEN
1002
}
1001
GENIUS_GENODEF_13
1002
{
1000
HIER
1070
     0
1002
}
1002
{
1000
MANEDIT
1070
     0
1002
}
1002
{
1000
NOSEL
1070
     0
1002
}
1002
{
1000
BEHIND
1070
     0
1002
}
1002
{
1000
OTHER
1070
     0
1002
}
1002
{
1000
REACTOR
1002
}
  0
ARC
  5
224C
  8
SAPA_PROFIL
 62
     4
 10
67.449999928418038
 20
66.967448111918543
 30
0.0
 40
0.3000000000006366
 50
269.99999999991309
 51
359.99999999991309
1001
GENIUS_GENOBJ-N-FIL_13
1002
{
1000
OWNER
1000
GEN
1002
}
1001
GENIUS_GENODEF_13
1002
{
1000
HIER
1070
     0
1002
}
1002
{
1000
MANEDIT
1070
     0
1002
}
1002
{
1000
NOSEL
1070
     0
1002
}
1002
{
1000
BEHIND
1070
     0
1002
}
1002
{
1000
OTHER
1070
     0
1002
}
1002
{
1000
REACTOR
1002
}
  0
LINE
  5
224D
  8
SAPA_PROFIL
 62
     4
 10
67.749999928418674
 20
66.967448111918088
 30
0.0
 11
67.749999928418674
 21
67.617448111917952
 31
0.0
1001
GENIUS_GENOBJ-N-FIL_13
1002
{
1000
OWNER
1000
GEN
1002
}
1001
GENIUS_GENODEF_13
1002
{
1000
HIER
1070
     0
1002
}
1002
{
1000
MANEDIT
1070
     0
1002
}
1002
{
1000
NOSEL
1070
     0
1002
}
1002
{
1000
BEHIND
1070
     0
1002
}
1002
{
1000
OTHER
1070
     0
1002
}
1002
{
1000
REACTOR
1002
}
  0
ARC
  5
224E
  8
SAPA_PROFIL
 62
     4
 10
68.049999928418742
 20
67.617448111917838
 30
0.0
 40
0.3000000000000682
 50
89.999999999978314
 51
179.99999999997829
1001
GENIUS_GENOBJ-N-FIL_13
1002
{
1000
OWNER
1000
GEN
1002
}
1001
GENIUS_GENODEF_13
1002
{
1000
HIER
1070
     0
1002
}
1002
{
1000
MANEDIT
1070
     0
1002
}
1002
{
1000
NOSEL
1070
     0
1002
}
1002
{
1000
BEHIND
1070
     0
1002
}
1002
{
1000
OTHER
1070
     0
1002
}
1002
{
1000
REACTOR
1002
}
  0
LINE
  5
224F
  8
SAPA_PROFIL
 62
     4
 10
68.049999928418856
 20
67.917448111917906
 30
0.0
 11
68.249999928418674
 21
67.917448111917906
 31
0.0
1001
GENIUS_GENOBJ-N-FIL_13
1002
{
1000
OWNER
1000
GEN
1002
}
1001
GENIUS_GENODEF_13
1002
{
1000
HIER
1070
     0
1002
}
1002
{
1000
MANEDIT
1070
     0
1002
}
1002
{
1000
NOSEL
1070
     0
1002
}
1002
{
1000
BEHIND
1070
     0
1002
}
1002
{
1000
OTHER
1070
     0
1002
}
1002
{
1000
REACTOR
1002
}
  0
ARC
  5
2250
  8
SAPA_PROFIL
 62
     4
 10
68.249999928418674
 20
67.417448111917906
 30
0.0
 40
0.5
 50
0.0
 51
90.0
1001
GENIUS_GENOBJ-N-FIL_13
1002
{
1000
OWNER
1000
GEN
1002
}
1001
GENIUS_GENODEF_13
1002
{
1000
HIER
1070
     0
1002
}
1002
{
1000
MANEDIT
1070
     0
1002
}
1002
{
1000
NOSEL
1070
     0
1002
}
1002
{
1000
BEHIND
1070
     0
1002
}
1002
{
1000
OTHER
1070
     0
1002
}
1002
{
1000
REACTOR
1002
}
  0
LINE
  5
2251
  8
SAPA_PROFIL
 62
     4
 10
68.749999928418674
 20
67.417448111917906
 30
0.0
 11
68.749999928417765
 21
65.667448111917906
 31
0.0
1001
GENIUS_GENOBJ-N-FIL_13
1002
{
1000
OWNER
1000
GEN
1002
}
1001
GENIUS_GENODEF_13
1002
{
1000
HIER
1070
     0
1002
}
1002
{
1000
MANEDIT
1070
     0
1002
}
1002
{
1000
NOSEL
1070
     0
1002
}
1002
{
1000
BEHIND
1070
     0
1002
}
1002
{
1000
OTHER
1070
     0
1002
}
1002
{
1000
REACTOR
1002
}
  0
ARC
  5
2252
  8
SAPA_PROFIL
 62
     4
 10
68.249999928250531
 20
65.66744811208514
 30
0.0
 40
0.5000000001672335
 50
269.99999998091471
 51
359.99999998083649
1001
GENIUS_GENOBJ-N-FIL_13
1002
{
1000
OWNER
1000
GEN
1002
}
1001
GENIUS_GENODEF_13
1002
{
1000
HIER
1070
     0
1002
}
1002
{
1000
MANEDIT
1070
     0
1002
}
1002
{
1000
NOSEL
1070
     0
1002
}
1002
{
1000
BEHIND
1070
     0
1002
}
1002
{
1000
OTHER
1070
     0
1002
}
1002
{
1000
REACTOR
1002
}
  0
LINE
  5
2253
  8
SAPA_PROFIL
 62
     4
 10
68.24999992808398
 20
65.167448111917906
 30
0.0
 11
55.249999928076697
 21
65.167448111917679
 31
0.0
1001
GENIUS_GENOBJ-N-FIL_13
1002
{
1000
OWNER
1000
GEN
1002
}
1001
GENIUS_GENODEF_13
1002
{
1000
HIER
1070
     0
1002
}
1002
{
1000
MANEDIT
1070
     0
1002
}
1002
{
1000
NOSEL
1070
     0
1002
}
1002
{
1000
BEHIND
1070
     0
1002
}
1002
{
1000
OTHER
1070
     0
1002
}
1002
{
1000
REACTOR
1002
}
  0
ARC
  5
2254
  8
SAPA_PROFIL
 62
     4
 10
55.249999927937552
 20
65.667448112055013
 30
0.0
 40
0.5000000001373337
 50
180.00000001591971
 51
270.00000001594572
1001
GENIUS_GENOBJ-N-FIL_13
1002
{
1000
OWNER
1000
GEN
1002
}
1001
GENIUS_GENODEF_13
1002
{
1000
HIER
1070
     0
1002
}
1002
{
1000
MANEDIT
1070
     0
1002
}
1002
{
1000
NOSEL
1070
     0
1002
}
1002
{
1000
BEHIND
1070
     0
1002
}
1002
{
1000
OTHER
1070
     0
1002
}
1002
{
1000
REACTOR
1002
}
  0
LINE
  5
2255
  8
SAPA_PROFIL
 62
     4
 10
54.749999927800218
 20
65.667448111916073
 30
0.0
 11
54.749999927800218
 21
67.417448111916073
 31
0.0
1001
GENIUS_GENOBJ-N-FIL_13
1002
{
1000
OWNER
1000
GEN
1002
}
1001
GENIUS_GENODEF_13
1002
{
1000
HIER
1070
     0
1002
}
1002
{
1000
MANEDIT
1070
     0
1002
}
1002
{
1000
NOSEL
1070
     0
1002
}
1002
{
1000
BEHIND
1070
     0
1002
}
1002
{
1000
OTHER
1070
     0
1002
}
1002
{
1000
REACTOR
1002
}
  0
ARC
  5
2256
  8
SAPA_PROFIL
 62
     4
 10
55.249999927800211
 20
67.417448111916073
 30
0.0
 40
0.5
 50
90.0
 51
180.0
1001
GENIUS_GENOBJ-N-FIL_13
1002
{
1000
OWNER
1000
GEN
1002
}
1001
GENIUS_GENODEF_13
1002
{
1000
HIER
1070
     0
1002
}
1002
{
1000
MANEDIT
1070
     0
1002
}
1002
{
1000
NOSEL
1070
     0
1002
}
1002
{
1000
BEHIND
1070
     0
1002
}
1002
{
1000
OTHER
1070
     0
1002
}
1002
{
1000
REACTOR
1002
}
  0
LINE
  5
2257
  8
SAPA_PROFIL
 62
     4
 10
55.249999927800211
 20
67.917448111916087
 30
0.0
 11
55.449999927800029
 21
67.917448111916087
 31
0.0
1001
GENIUS_GENOBJ-N-FIL_13
1002
{
1000
OWNER
1000
GEN
1002
}
1001
GENIUS_GENODEF_13
1002
{
1000
HIER
1070
     0
1002
}
1002
{
1000
MANEDIT
1070
     0
1002
}
1002
{
1000
NOSEL
1070
     0
1002
}
1002
{
1000
BEHIND
1070
     0
1002
}
1002
{
1000
OTHER
1070
     0
1002
}
1002
{
1000
REACTOR
1002
}
  0
ARC
  5
2258
  8
SAPA_PROFIL
 62
     4
 10
55.449999927800029
 20
67.617448111915905
 30
0.0
 40
0.3000000000001819
 50
0.0
 51
90.0
1001
GENIUS_GENOBJ-N-FIL_13
1002
{
1000
OWNER
1000
GEN
1002
}
1001
GENIUS_GENODEF_13
1002
{
1000
HIER
1070
     0
1002
}
1002
{
1000
MANEDIT
1070
     0
1002
}
1002
{
1000
NOSEL
1070
     0
1002
}
1002
{
1000
BEHIND
1070
     0
1002
}
1002
{
1000
OTHER
1070
     0
1002
}
1002
{
1000
REACTOR
1002
}
  0
LINE
  5
2259
  8
SAPA_PROFIL
 62
     4
 10
55.749999927800211
 20
67.617448111915905
 30
0.0
 11
55.749999927800211
 21
66.967448111916042
 31
0.0
1001
GENIUS_GENOBJ-N-FIL_13
1002
{
1000
OWNER
1000
GEN
1002
}
1001
GENIUS_GENODEF_13
1002
{
1000
HIER
1070
     0
1002
}
1002
{
1000
MANEDIT
1070
     0
1002
}
1002
{
1000
NOSEL
1070
     0
1002
}
1002
{
1000
BEHIND
1070
     0
1002
}
1002
{
1000
OTHER
1070
     0
1002
}
1002
{
1000
REACTOR
1002
}
  0
ARC
  5
225A
  8
SAPA_PROFIL
 62
     4
 10
56.049999927799831
 20
66.967448111915701
 30
0.0
 40
0.2999999999996135
 50
179.9999999999348
 51
269.99999999993491
1001
GENIUS_GENOBJ-N-FIL_13
1002
{
1000
OWNER
1000
GEN
1002
}
1001
GENIUS_GENODEF_13
1002
{
1000
HIER
1070
     0
1002
}
1002
{
1000
MANEDIT
1070
     0
1002
}
1002
{
1000
NOSEL
1070
     0
1002
}
1002
{
1000
BEHIND
1070
     0
1002
}
1002
{
1000
OTHER
1070
     0
1002
}
1002
{
1000
REACTOR
1002
}
  0
LINE
  5
225B
  8
SAPA_PROFIL
 62
     4
 10
56.04999992779949
 20
66.667448111916087
 30
0.0
 11
56.949999927797307
 21
66.667448111916087
 31
0.0
1001
GENIUS_GENOBJ-N-FIL_13
1002
{
1000
OWNER
1000
GEN
1002
}
1001
GENIUS_GENODEF_13
1002
{
1000
HIER
1070
     0
1002
}
1002
{
1000
MANEDIT
1070
     0
1002
}
1002
{
1000
NOSEL
1070
     0
1002
}
1002
{
1000
BEHIND
1070
     0
1002
}
1002
{
1000
OTHER
1070
     0
1002
}
1002
{
1000
REACTOR
1002
}
  0
ARC
  5
225C
  8
SAPA_PROFIL
 62
     4
 10
56.949999927797307
 20
67.167448111916087
 30
0.0
 40
0.5
 50
270.0
 51
0.0
1001
GENIUS_GENOBJ-N-FIL_13
1002
{
1000
OWNER
1000
GEN
1002
}
1001
GENIUS_GENODEF_13
1002
{
1000
HIER
1070
     0
1002
}
1002
{
1000
MANEDIT
1070
     0
1002
}
1002
{
1000
NOSEL
1070
     0
1002
}
1002
{
1000
BEHIND
1070
     0
1002
}
1002
{
1000
OTHER
1070
     0
1002
}
1002
{
1000
REACTOR
1002
}
  0
LINE
  5
225D
  8
SAPA_PROFIL
 62
     4
 10
57.449999927797307
 20
67.167448111916087
 30
0.0
 11
57.449999927797307
 21
73.167448111916073
 31
0.0
1001
GENIUS_GENOBJ-N-FIL_13
1002
{
1000
OWNER
1000
GEN
1002
}
1001
GENIUS_GENODEF_13
1002
{
1000
HIER
1070
     0
1002
}
1002
{
1000
MANEDIT
1070
     0
1002
}
1002
{
1000
NOSEL
1070
     0
1002
}
1002
{
1000
BEHIND
1070
     0
1002
}
1002
{
1000
OTHER
1070
     0
1002
}
1002
{
1000
REACTOR
1002
}
  0
ARC
  5
225E
  8
SAPA_PROFIL
 62
     4
 10
56.949999927797307
 20
73.167448111916073
 30
0.0
 40
0.5
 50
0.0
 51
90.0
1001
GENIUS_GENOBJ-N-FIL_13
1002
{
1000
OWNER
1000
GEN
1002
}
1001
GENIUS_GENODEF_13
1002
{
1000
HIER
1070
     0
1002
}
1002
{
1000
MANEDIT
1070
     0
1002
}
1002
{
1000
NOSEL
1070
     0
1002
}
1002
{
1000
BEHIND
1070
     0
1002
}
1002
{
1000
OTHER
1070
     0
1002
}
1002
{
1000
REACTOR
1002
}
  0
LINE
  5
225F
  8
SAPA_PROFIL
 62
     4
 10
56.949999927797307
 20
73.667448111916073
 30
0.0
 11
56.04999992779949
 21
73.667448111916073
 31
0.0
1001
GENIUS_GENOBJ-N-FIL_13
1002
{
1000
OWNER
1000
GEN
1002
}
1001
GENIUS_GENODEF_13
1002
{
1000
HIER
1070
     0
1002
}
1002
{
1000
MANEDIT
1070
     0
1002
}
1002
{
1000
NOSEL
1070
     0
1002
}
1002
{
1000
BEHIND
1070
     0
1002
}
1002
{
1000
OTHER
1070
     0
1002
}
1002
{
1000
REACTOR
1002
}
  0
ARC
  5
2260
  8
SAPA_PROFIL
 62
     4
 10
56.049999927799938
 20
73.36744811191636
 30
0.0
 40
0.2999999999997271
 50
90.000000000086857
 51
180.0000000000868
1001
GENIUS_GENOBJ-N-FIL_13
1002
{
1000
OWNER
1000
GEN
1002
}
1001
GENIUS_GENODEF_13
1002
{
1000
HIER
1070
     0
1002
}
1002
{
1000
MANEDIT
1070
     0
1002
}
1002
{
1000
NOSEL
1070
     0
1002
}
1002
{
1000
BEHIND
1070
     0
1002
}
1002
{
1000
OTHER
1070
     0
1002
}
1002
{
1000
REACTOR
1002
}
  0
LINE
  5
2261
  8
SAPA_PROFIL
 62
     4
 10
55.749999927800211
 20
73.367448111915905
 30
0.0
 11
55.749999927800211
 21
72.717448111916042
 31
0.0
1001
GENIUS_GENOBJ-N-FIL_13
1002
{
1000
OWNER
1000
GEN
1002
}
1001
GENIUS_GENODEF_13
1002
{
1000
HIER
1070
     0
1002
}
1002
{
1000
MANEDIT
1070
     0
1002
}
1002
{
1000
NOSEL
1070
     0
1002
}
1002
{
1000
BEHIND
1070
     0
1002
}
1002
{
1000
OTHER
1070
     0
1002
}
1002
{
1000
REACTOR
1002
}
  0
ARC
  5
2262
  8
SAPA_PROFIL
 62
     4
 10
55.44999992780015
 20
72.717448111916156
 30
0.0
 40
0.3000000000000682
 50
269.99999999997829
 51
359.99999999997829
1001
GENIUS_GENOBJ-N-FIL_13
1002
{
1000
OWNER
1000
GEN
1002
}
1001
GENIUS_GENODEF_13
1002
{
1000
HIER
1070
     0
1002
}
1002
{
1000
MANEDIT
1070
     0
1002
}
1002
{
1000
NOSEL
1070
     0
1002
}
1002
{
1000
BEHIND
1070
     0
1002
}
1002
{
1000
OTHER
1070
     0
1002
}
1002
{
1000
REACTOR
1002
}
  0
LINE
  5
2263
  8
SAPA_PROFIL
 62
     4
 10
55.449999927800029
 20
72.417448111916073
 30
0.0
 11
55.249999927800211
 21
72.417448111916073
 31
0.0
1001
GENIUS_GENOBJ-N-FIL_13
1002
{
1000
OWNER
1000
GEN
1002
}
1001
GENIUS_GENODEF_13
1002
{
1000
HIER
1070
     0
1002
}
1002
{
1000
MANEDIT
1070
     0
1002
}
1002
{
1000
NOSEL
1070
     0
1002
}
1002
{
1000
BEHIND
1070
     0
1002
}
1002
{
1000
OTHER
1070
     0
1002
}
1002
{
1000
REACTOR
1002
}
  0
ARC
  5
2264
  8
SAPA_PROFIL
 62
     4
 10
55.249999927800211
 20
72.917448111916087
 30
0.0
 40
0.5
 50
180.0
 51
270.0
1001
GENIUS_GENOBJ-N-FIL_13
1002
{
1000
OWNER
1000
GEN
1002
}
1001
GENIUS_GENODEF_13
1002
{
1000
HIER
1070
     0
1002
}
1002
{
1000
MANEDIT
1070
     0
1002
}
1002
{
1000
NOSEL
1070
     0
1002
}
1002
{
1000
BEHIND
1070
     0
1002
}
1002
{
1000
OTHER
1070
     0
1002
}
1002
{
1000
REACTOR
1002
}
  0
LINE
  5
2265
  8
SAPA_PROFIL
 62
     4
 10
54.749999927800218
 20
72.917448111916087
 30
0.0
 11
54.749999927800218
 21
75.917448111916087
 31
0.0
1001
GENIUS_GENOBJ-N-FIL_13
1002
{
1000
OWNER
1000
GEN
1002
}
1001
GENIUS_GENODEF_13
1002
{
1000
HIER
1070
     0
1002
}
1002
{
1000
MANEDIT
1070
     0
1002
}
1002
{
1000
NOSEL
1070
     0
1002
}
1002
{
1000
BEHIND
1070
     0
1002
}
1002
{
1000
OTHER
1070
     0
1002
}
1002
{
1000
REACTOR
1002
}
  0
ARC
  5
2266
  8
SAPA_PROFIL
 62
     4
 10
55.249999927800211
 20
75.917448111916087
 30
0.0
 40
0.5
 50
90.0
 51
180.0
1001
GENIUS_GENOBJ-N-FIL_13
1002
{
1000
OWNER
1000
GEN
1002
}
1001
GENIUS_GENODEF_13
1002
{
1000
HIER
1070
     0
1002
}
1002
{
1000
MANEDIT
1070
     0
1002
}
1002
{
1000
NOSEL
1070
     0
1002
}
1002
{
1000
BEHIND
1070
     0
1002
}
1002
{
1000
OTHER
1070
     0
1002
}
1002
{
1000
REACTOR
1002
}
  0
LINE
  5
2267
  8
SAPA_PROFIL
 62
     4
 10
55.249999927800211
 20
76.417448111916087
 30
0.0
 11
55.44999992779276
 21
76.417448111917224
 31
0.0
1001
GENIUS_GENOBJ-N-FIL_13
1002
{
1000
OWNER
1000
GEN
1002
}
1001
GENIUS_GENODEF_13
1002
{
1000
HIER
1070
     0
1002
}
1002
{
1000
MANEDIT
1070
     0
1002
}
1002
{
1000
NOSEL
1070
     0
1002
}
1002
{
1000
BEHIND
1070
     0
1002
}
1002
{
1000
OTHER
1070
     0
1002
}
1002
{
1000
REACTOR
1002
}
  0
ARC
  5
2268
  8
SAPA_PROFIL
 62
     4
 10
55.449999927794579
 20
76.117448111917042
 30
0.0
 40
0.3000000000001819
 50
0.0000000003908266
 51
90.000000000347399
1001
GENIUS_GENOBJ-N-FIL_13
1002
{
1000
OWNER
1000
GEN
1002
}
1001
GENIUS_GENODEF_13
1002
{
1000
HIER
1070
     0
1002
}
1002
{
1000
MANEDIT
1070
     0
1002
}
1002
{
1000
NOSEL
1070
     0
1002
}
1002
{
1000
BEHIND
1070
     0
1002
}
1002
{
1000
OTHER
1070
     0
1002
}
1002
{
1000
REACTOR
1002
}
  0
LINE
  5
2269
  8
SAPA_PROFIL
 62
     4
 10
55.749999927794761
 20
76.117448111919089
 30
0.0
 11
55.749999927797489
 21
75.467448111918088
 31
0.0
1001
GENIUS_GENOBJ-N-FIL_13
1002
{
1000
OWNER
1000
GEN
1002
}
1001
GENIUS_GENODEF_13
1002
{
1000
HIER
1070
     0
1002
}
1002
{
1000
MANEDIT
1070
     0
1002
}
1002
{
1000
NOSEL
1070
     0
1002
}
1002
{
1000
BEHIND
1070
     0
1002
}
1002
{
1000
OTHER
1070
     0
1002
}
1002
{
1000
REACTOR
1002
}
  0
ARC
  5
226A
  8
SAPA_PROFIL
 62
     4
 10
56.049999927798012
 20
75.467448111919566
 30
0.0
 40
0.300000000000523
 50
180.0000000002822
 51
270.00000000010863
1001
GENIUS_GENOBJ-N-FIL_13
1002
{
1000
OWNER
1000
GEN
1002
}
1001
GENIUS_GENODEF_13
1002
{
1000
HIER
1070
     0
1002
}
1002
{
1000
MANEDIT
1070
     0
1002
}
1002
{
1000
NOSEL
1070
     0
1002
}
1002
{
1000
BEHIND
1070
     0
1002
}
1002
{
1000
OTHER
1070
     0
1002
}
1002
{
1000
REACTOR
1002
}
  0
LINE
  5
226B
  8
SAPA_PROFIL
 62
     4
 10
56.049999927798581
 20
75.167448111919043
 30
0.0
 11
56.949999927797307
 21
75.167448111919043
 31
0.0
1001
GENIUS_GENOBJ-N-FIL_13
1002
{
1000
OWNER
1000
GEN
1002
}
1001
GENIUS_GENODEF_13
1002
{
1000
HIER
1070
     0
1002
}
1002
{
1000
MANEDIT
1070
     0
1002
}
1002
{
1000
NOSEL
1070
     0
1002
}
1002
{
1000
BEHIND
1070
     0
1002
}
1002
{
1000
OTHER
1070
     0
1002
}
1002
{
1000
REACTOR
1002
}
  0
ARC
  5
226C
  8
SAPA_PROFIL
 62
     4
 10
56.949999927797307
 20
75.667448111919043
 30
0.0
 40
0.5
 50
270.0
 51
0.0
1001
GENIUS_GENOBJ-N-FIL_13
1002
{
1000
OWNER
1000
GEN
1002
}
1001
GENIUS_GENODEF_13
1002
{
1000
HIER
1070
     0
1002
}
1002
{
1000
MANEDIT
1070
     0
1002
}
1002
{
1000
NOSEL
1070
     0
1002
}
1002
{
1000
BEHIND
1070
     0
1002
}
1002
{
1000
OTHER
1070
     0
1002
}
1002
{
1000
REACTOR
1002
}
  0
LINE
  5
226D
  8
SAPA_PROFIL
 62
     4
 10
57.449999927797307
 20
75.667448111919043
 30
0.0
 11
57.449999927790032
 21
81.667448111921075
 31
0.0
1001
GENIUS_GENOBJ-N-FIL_13
1002
{
1000
OWNER
1000
GEN
1002
}
1001
GENIUS_GENODEF_13
1002
{
1000
HIER
1070
     0
1002
}
1002
{
1000
MANEDIT
1070
     0
1002
}
1002
{
1000
NOSEL
1070
     0
1002
}
1002
{
1000
BEHIND
1070
     0
1002
}
1002
{
1000
OTHER
1070
     0
1002
}
1002
{
1000
REACTOR
1002
}
  0
ARC
  5
226E
  8
SAPA_PROFIL
 62
     4
 10
56.949999927790032
 20
81.667448111921075
 30
0.0
 40
0.5
 50
0.0
 51
90.0
1001
GENIUS_GENOBJ-N-FIL_13
1002
{
1000
OWNER
1000
GEN
1002
}
1001
GENIUS_GENODEF_13
1002
{
1000
HIER
1070
     0
1002
}
1002
{
1000
MANEDIT
1070
     0
1002
}
1002
{
1000
NOSEL
1070
     0
1002
}
1002
{
1000
BEHIND
1070
     0
1002
}
1002
{
1000
OTHER
1070
     0
1002
}
1002
{
1000
REACTOR
1002
}
  0
LINE
  5
226F
  8
SAPA_PROFIL
 62
     4
 10
56.949999927790032
 20
82.16744811192109
 30
0.0
 11
56.049999927793117
 21
82.16744811192109
 31
0.0
1001
GENIUS_GENOBJ-N-FIL_13
1002
{
1000
OWNER
1000
GEN
1002
}
1001
GENIUS_GENODEF_13
1002
{
1000
HIER
1070
     0
1002
}
1002
{
1000
MANEDIT
1070
     0
1002
}
1002
{
1000
NOSEL
1070
     0
1002
}
1002
{
1000
BEHIND
1070
     0
1002
}
1002
{
1000
OTHER
1070
     0
1002
}
1002
{
1000
REACTOR
1002
}
  0
ARC
  5
2270
  8
SAPA_PROFIL
 62
     4
 10
56.049999927793117
 20
81.867448111920893
 30
0.0
 40
0.3000000000001819
 50
90.0
 51
180.0
1001
GENIUS_GENOBJ-N-FIL_13
1002
{
1000
OWNER
1000
GEN
1002
}
1001
GENIUS_GENODEF_13
1002
{
1000
HIER
1070
     0
1002
}
1002
{
1000
MANEDIT
1070
     0
1002
}
1002
{
1000
NOSEL
1070
     0
1002
}
1002
{
1000
BEHIND
1070
     0
1002
}
1002
{
1000
OTHER
1070
     0
1002
}
1002
{
1000
REACTOR
1002
}
  0
LINE
  5
2271
  8
SAPA_PROFIL
 62
     4
 10
55.749999927792942
 20
81.867448111920893
 30
0.0
 11
55.749999927792942
 21
81.217448111918998
 31
0.0
1001
GENIUS_GENOBJ-N-FIL_13
1002
{
1000
OWNER
1000
GEN
1002
}
1001
GENIUS_GENODEF_13
1002
{
1000
HIER
1070
     0
1002
}
1002
{
1000
MANEDIT
1070
     0
1002
}
1002
{
1000
NOSEL
1070
     0
1002
}
1002
{
1000
BEHIND
1070
     0
1002
}
1002
{
1000
OTHER
1070
     0
1002
}
1002
{
1000
REACTOR
1002
}
  0
ARC
  5
2272
  8
SAPA_PROFIL
 62
     4
 10
55.449999927792867
 20
81.217448111919111
 30
0.0
 40
0.3000000000000682
 50
269.99999999997829
 51
359.99999999997829
1001
GENIUS_GENOBJ-N-FIL_13
1002
{
1000
OWNER
1000
GEN
1002
}
1001
GENIUS_GENODEF_13
1002
{
1000
HIER
1070
     0
1002
}
1002
{
1000
MANEDIT
1070
     0
1002
}
1002
{
1000
NOSEL
1070
     0
1002
}
1002
{
1000
BEHIND
1070
     0
1002
}
1002
{
1000
OTHER
1070
     0
1002
}
1002
{
1000
REACTOR
1002
}
  0
LINE
  5
2273
  8
SAPA_PROFIL
 62
     4
 10
55.44999992779276
 20
80.917448111919043
 30
0.0
 11
55.249999927792942
 21
80.917448111919043
 31
0.0
1001
GENIUS_GENOBJ-N-FIL_13
1002
{
1000
OWNER
1000
GEN
1002
}
1001
GENIUS_GENODEF_13
1002
{
1000
HIER
1070
     0
1002
}
1002
{
1000
MANEDIT
1070
     0
1002
}
1002
{
1000
NOSEL
1070
     0
1002
}
1002
{
1000
BEHIND
1070
     0
1002
}
1002
{
1000
OTHER
1070
     0
1002
}
1002
{
1000
REACTOR
1002
}
  0
ARC
  5
2274
  8
SAPA_PROFIL
 62
     4
 10
55.249999927792942
 20
81.417448111919029
 30
0.0
 40
0.5
 50
180.0
 51
270.0
1001
GENIUS_GENOBJ-N-FIL_13
1002
{
1000
OWNER
1000
GEN
1002
}
1001
GENIUS_GENODEF_13
1002
{
1000
HIER
1070
     0
1002
}
1002
{
1000
MANEDIT
1070
     0
1002
}
1002
{
1000
NOSEL
1070
     0
1002
}
1002
{
1000
BEHIND
1070
     0
1002
}
1002
{
1000
OTHER
1070
     0
1002
}
1002
{
1000
REACTOR
1002
}
  0
LINE
  5
2275
  8
SAPA_PROFIL
 62
     4
 10
54.749999927792942
 20
81.417448111919029
 30
0.0
 11
54.749999927874804
 21
107.2151831388429
 31
0.0
1001
GENIUS_GENOBJ-N-FIL_13
1002
{
1000
OWNER
1000
GEN
1002
}
1001
GENIUS_GENODEF_13
1002
{
1000
HIER
1070
     0
1002
}
1002
{
1000
MANEDIT
1070
     0
1002
}
1002
{
1000
NOSEL
1070
     0
1002
}
1002
{
1000
BEHIND
1070
     0
1002
}
1002
{
1000
OTHER
1070
     0
1002
}
1002
{
1000
REACTOR
1002
}
  0
ARC
  5
2276
  8
SAPA_PROFIL
 62
     4
 10
53.549999927874971
 20
107.215183138847
 30
0.0
 40
1.1999999999998181
 50
359.99999999980457
 51
90.0
1001
GENIUS_GENOBJ-N-FIL_13
1002
{
1000
OWNER
1000
GEN
1002
}
1001
GENIUS_GENODEF_13
1002
{
1000
HIER
1070
     0
1002
}
1002
{
1000
MANEDIT
1070
     0
1002
}
1002
{
1000
NOSEL
1070
     0
1002
}
1002
{
1000
BEHIND
1070
     0
1002
}
1002
{
1000
OTHER
1070
     0
1002
}
1002
{
1000
REACTOR
1002
}
  0
LINE
  5
2277
  8
SAPA_PROFIL
 62
     4
 10
53.549999927874971
 20
108.4151831388468
 30
0.0
 11
50.821518577794897
 21
108.415183138847
 31
0.0
1001
GENIUS_GENOBJ-N-FIL_13
1002
{
1000
OWNER
1000
GEN
1002
}
1001
GENIUS_GENODEF_13
1002
{
1000
HIER
1070
     0
1002
}
1002
{
1000
MANEDIT
1070
     0
1002
}
1002
{
1000
NOSEL
1070
     0
1002
}
1002
{
1000
BEHIND
1070
     0
1002
}
1002
{
1000
OTHER
1070
     0
1002
}
1002
{
1000
REACTOR
1002
}
  0
LINE
  5
2278
  8
SAPA_PROFIL
 62
     4
 10
58.449999995840237
 20
83.451709582436592
 30
0.0
 11
65.949999996398674
 21
83.451709582440685
 31
0.0
  0
ARC
  5
2279
  8
SAPA_PROFIL
 62
     4
 10
65.949999996398674
 20
84.451709582440685
 30
0.0
 40
1.0
 50
270.0
 51
0.0
  0
LINE
  5
227A
  8
SAPA_PROFIL
 62
     4
 10
66.949999996398674
 20
84.451709582440685
 30
0.0
 11
66.949999996414135
 21
107.5994446093645
 31
0.0
  0
ARC
  5
227B
  8
SAPA_PROFIL
 62
     4
 10
66.149999996413953
 20
107.5994446093645
 30
0.0
 40
0.8000000000001818
 50
0.0
 51
90.0
  0
LINE
  5
227C
  8
SAPA_PROFIL
 62
     4
 10
66.149999996413953
 20
108.39944460936459
 30
0.0
 11
57.349999995895359
 21
108.39944460936459
 31
0.0
  0
ARC
  5
227D
  8
SAPA_PROFIL
 62
     4
 10
57.349999995895359
 20
107.5994446093645
 30
0.0
 40
0.8000000000001818
 50
90.0
 51
180.00000000006511
  0
LINE
  5
227E
  8
SAPA_PROFIL
 62
     4
 10
56.54999999589517
 20
107.5994446093635
 30
0.0
 11
56.549999995918832
 21
84.451709582436592
 31
0.0
  0
ARC
  5
227F
  8
SAPA_PROFIL
 62
     4
 10
57.54999999591837
 20
84.451709582438184
 30
0.0
 40
0.9999999999995453
 50
180.00000000009121
 51
269.99999999997391
  0
LINE
  5
2280
  8
SAPA_PROFIL
 62
     4
 10
57.549999995917922
 20
83.451709582438639
 30
0.0
 11
58.449999995840237
 21
83.451709582436592
 31
0.0
  0
LINE
  5
2281
  8
SAPA_PROFIL
 10
125.04999999962141
 20
111.39943665006039
 30
0.0
 11
125.4999999996212
 21
111.3994366500603
 31
0.0
  0
LINE
  5
2282
  8
SAPA_PROFIL
 10
125.4999999996212
 20
111.3994366500603
 30
0.0
 11
126.9892601306951
 21
110.5396119124913
 31
0.0
  0
ARC
  5
2283
  8
SAPA_PROFIL
 10
127.13926013069521
 20
110.799419533627
 30
0.0
 40
0.3000000000004073
 50
240.0000000000249
 51
269.99635313258273
  0
LINE
  5
2284
  8
SAPA_PROFIL
 10
127.1392410357421
 20
110.49941953423431
 30
0.0
 11
127.2499999996212
 21
110.4994124844435
 31
0.0
  0
LINE
  5
2285
  8
SAPA_PROFIL
 10
127.2499999996212
 20
110.4994124844435
 30
0.0
 11
127.2499999996212
 21
112.1211244865468
 31
0.0
  0
ARC
  5
2286
  8
SAPA_PROFIL
 10
126.2499999996206
 20
112.12112448654609
 30
0.0
 40
1.0000000000005109
 50
0.0000000000415253
 51
60.000000000043222
  0
LINE
  5
2287
  8
SAPA_PROFIL
 10
126.7499999996203
 20
112.9871498903313
 30
0.0
 11
125.2499999996212
 21
113.8531752941162
 31
0.0
  0
ARC
  5
2288
  8
SAPA_PROFIL
 10
125.7499999996211
 20
114.7192006979006
 30
0.0
 40
0.9999999999999694
 50
180.0
 51
240.00000000000091
  0
LINE
  5
2289
  8
SAPA_PROFIL
 10
124.7499999996212
 20
114.7192006979006
 30
0.0
 11
124.7499999996212
 21
115.27967260221671
 31
0.0
  0
ARC
  5
228A
  8
SAPA_PROFIL
 10
125.7499999996211
 20
115.27967260221671
 30
0.0
 40
0.9999999999999715
 50
119.9999999999991
 51
180.0
  0
LINE
  5
228B
  8
SAPA_PROFIL
 10
125.2499999996212
 20
116.1456980060011
 30
0.0
 11
126.7499999996203
 21
117.01172340978491
 31
0.0
  0
ARC
  5
228C
  8
SAPA_PROFIL
 10
126.2499999996203
 20
117.8777488135694
 30
0.0
 40
0.9999999999999623
 50
299.99999999999852
 51
0.0
  0
LINE
  5
228D
  8
SAPA_PROFIL
 10
127.2499999996203
 20
117.8777488135694
 30
0.0
 11
127.2499999996212
 21
119.4994608156738
 31
0.0
  0
LINE
  5
228E
  8
SAPA_PROFIL
 10
127.2499999996212
 20
119.4994608156738
 30
0.0
 11
127.1392410357421
 21
119.499453765883
 31
0.0
  0
ARC
  5
228F
  8
SAPA_PROFIL
 10
127.1392601306954
 20
119.1994537664911
 30
0.0
 40
0.2999999999995532
 50
90.003646867460688
 51
120.0000000000189
  0
LINE
  5
2290
  8
SAPA_PROFIL
 10
126.9892601306956
 20
119.459261387626
 30
0.0
 11
125.4999999996212
 21
118.5994366500571
 31
0.0
  0
LINE
  5
2291
  8
SAPA_PROFIL
 10
125.4999999996212
 20
118.5994366500571
 30
0.0
 11
125.04999999962141
 21
118.5994366500568
 31
0.0
  0
ARC
  5
2292
  8
SAPA_PROFIL
 10
125.04999999962131
 20
118.899436650057
 30
0.0
 40
0.300000000000125
 50
180.0000000000108
 51
270.0000000000108
  0
LINE
  5
2293
  8
SAPA_PROFIL
 10
124.7499999996212
 20
118.8994366500569
 30
0.0
 11
124.7499999996212
 21
122.49944865005691
 31
0.0
  0
ARC
  5
2294
  8
SAPA_PROFIL
 10
125.04999999962099
 20
122.4994486500571
 30
0.0
 40
0.2999999999998835
 50
90.000000000029857
 51
180.0000000000353
  0
LINE
  5
2295
  8
SAPA_PROFIL
 10
125.04999999962089
 20
122.799448650057
 30
0.0
 11
125.4999999996212
 21
122.7994366500573
 31
0.0
  0
LINE
  5
2296
  8
SAPA_PROFIL
 10
125.4999999996212
 20
122.7994366500573
 30
0.0
 11
126.98923048416189
 21
121.939629028922
 31
0.0
  0
ARC
  5
2297
  8
SAPA_PROFIL
 10
127.1392304841618
 20
122.19943665005751
 30
0.0
 40
0.3000000000001711
 50
240.000000000027
 51
270.00000000002439
  0
LINE
  5
2298
  8
SAPA_PROFIL
 10
127.139230484162
 20
121.8994366500574
 30
0.0
 11
127.7257359309092
 21
121.8994366500573
 31
0.0
  0
ARC
  5
2299
  8
SAPA_PROFIL
 10
127.725735930909
 20
122.199436650057
 30
0.0
 40
0.2999999999997698
 50
270.0000000000299
 51
315.00000000004599
  0
LINE
  5
229A
  8
SAPA_PROFIL
 10
127.937867965265
 20
121.9873046157014
 30
0.0
 11
129.24291721843429
 21
123.29235386887041
 31
0.0
  0
ARC
  5
229B
  8
SAPA_PROFIL
 10
128.53581043724759
 20
123.999460650057
 30
0.0
 40
1.0000000000000979
 50
315.00000000000398
 51
90.0
  0
LINE
  5
229C
  8
SAPA_PROFIL
 10
128.53581043724759
 20
124.9994606500571
 30
0.0
 11
124.9499999996205
 21
124.99943665005689
 31
0.0
  0
ARC
  5
229D
  8
SAPA_PROFIL
 10
124.7499999996205
 20
124.9994366500587
 30
0.0
 40
0.2000000000000455
 50
179.9999999995114
 51
359.99999999951149
  0
LINE
  5
229E
  8
SAPA_PROFIL
 10
124.5499999996204
 20
124.9994366500603
 30
0.0
 11
75.949999999633292
 21
124.9994366500603
 31
0.0
  0
ARC
  5
229F
  8
SAPA_PROFIL
 10
75.749999999633474
 20
124.9994366500587
 30
0.0
 40
0.1999999999998181
 50
180.00000000048851
 51
0.0000000004885332
  0
LINE
  5
22A0
  8
SAPA_PROFIL
 10
75.549999999633656
 20
124.99943665005689
 30
0.0
 11
71.96418956200614
 21
124.9994606500571
 31
0.0
  0
ARC
  5
22A1
  8
SAPA_PROFIL
 10
71.964189562006112
 20
123.9994606500571
 30
0.0
 40
1.000000000000042
 50
89.999999999998366
 51
224.9999999999948
  0
LINE
  5
22A2
  8
SAPA_PROFIL
 10
71.257082780819474
 20
123.29235386887061
 30
0.0
 11
72.562132033988746
 21
121.9873046157014
 31
0.0
  0
ARC
  5
22A3
  8
SAPA_PROFIL
 10
72.774264068344721
 20
122.199436650057
 30
0.0
 40
0.2999999999997733
 50
224.9999999999539
 51
269.9999999999701
  0
LINE
  5
22A4
  8
SAPA_PROFIL
 10
72.774264068344564
 20
121.8994366500573
 30
0.0
 11
73.360769515091761
 21
121.8994366500575
 31
0.0
  0
ARC
  5
22A5
  8
SAPA_PROFIL
 10
73.360769515092102
 20
122.19943665005761
 30
0.0
 40
0.3000000000001108
 50
269.99999999993491
 51
299.9999999999323
  0
LINE
  5
22A6
  8
SAPA_PROFIL
 10
73.510769515091852
 20
121.939629028922
 30
0.0
 11
74.999999999632564
 21
122.7994366500573
 31
0.0
  0
LINE
  5
22A7
  8
SAPA_PROFIL
 10
74.999999999632564
 20
122.7994366500573
 30
0.0
 11
75.449999999632837
 21
122.7994486500571
 31
0.0
  0
ARC
  5
22A8
  8
SAPA_PROFIL
 10
75.449999999632666
 20
122.4994486500572
 30
0.0
 40
0.2999999999998977
 50
359.99999999996749
 51
89.999999999967429
  0
LINE
  5
22A9
  8
SAPA_PROFIL
 10
75.749999999632564
 20
122.499448650057
 30
0.0
 11
75.749999999632564
 21
118.899436650057
 31
0.0
  0
ARC
  5
22AA
  8
SAPA_PROFIL
 10
75.449999999632439
 20
118.8994366500571
 30
0.0
 40
0.300000000000125
 50
269.99999999998909
 51
359.99999999998909
  0
LINE
  5
22AB
  8
SAPA_PROFIL
 10
75.449999999632382
 20
118.599436650057
 30
0.0
 11
74.999999999632564
 21
118.5994366500571
 31
0.0
  0
LINE
  5
22AC
  8
SAPA_PROFIL
 10
74.999999999632564
 20
118.5994366500571
 30
0.0
 11
73.51073986855863
 21
119.459261387626
 31
0.0
  0
ARC
  5
22AD
  8
SAPA_PROFIL
 10
73.360739868558539
 20
119.19945376649029
 30
0.0
 40
0.3000000000004073
 50
60.000000000024862
 51
89.996353132582755
  0
LINE
  5
22AE
  8
SAPA_PROFIL
 10
73.360758963511671
 20
119.499453765883
 30
0.0
 11
73.249999999632564
 21
119.4994608156738
 31
0.0
  0
LINE
  5
22AF
  8
SAPA_PROFIL
 10
73.249999999632564
 20
119.4994608156738
 30
0.0
 11
73.249999999633474
 21
117.8777488135694
 31
0.0
  0
ARC
  5
22B0
  8
SAPA_PROFIL
 10
74.249999999633346
 20
117.8777488135694
 30
0.0
 40
0.9999999999998721
 50
180.00000000000321
 51
240.00000000000421
  0
LINE
  5
22B1
  8
SAPA_PROFIL
 10
73.749999999633474
 20
117.01172340978501
 30
0.0
 11
75.249999999632564
 21
116.1456980060012
 31
0.0
  0
ARC
  5
22B2
  8
SAPA_PROFIL
 10
74.749999999632493
 20
115.27967260221671
 30
0.0
 40
1.0000000000000679
 50
359.99999999999682
 51
59.999999999997563
  0
LINE
  5
22B3
  8
SAPA_PROFIL
 10
75.749999999632564
 20
115.27967260221671
 30
0.0
 11
75.749999999632564
 21
114.7192006979007
 31
0.0
  0
ARC
  5
22B4
  8
SAPA_PROFIL
 10
74.749999999632593
 20
114.7192006979007
 30
0.0
 40
0.9999999999999715
 50
299.9999999999992
 51
0.0
  0
LINE
  5
22B5
  8
SAPA_PROFIL
 10
75.249999999632564
 20
113.8531752941163
 30
0.0
 11
73.749999999633474
 21
112.9871498903313
 31
0.0
  0
ARC
  5
22B6
  8
SAPA_PROFIL
 10
74.249999999633076
 20
112.12112448654609
 30
0.0
 40
1.00000000000051
 50
119.9999999999567
 51
179.9999999999585
  0
LINE
  5
22B7
  8
SAPA_PROFIL
 10
73.249999999632564
 20
112.1211244865468
 30
0.0
 11
73.249999999632564
 21
110.4994124844436
 31
0.0
  0
LINE
  5
22B8
  8
SAPA_PROFIL
 10
73.249999999632564
 20
110.4994124844436
 30
0.0
 11
73.360758963511671
 21
110.49941953423441
 31
0.0
  0
ARC
  5
22B9
  8
SAPA_PROFIL
 10
73.360739868558312
 20
110.79941953362631
 30
0.0
 40
0.2999999999995532
 50
270.0036468674607
 51
300.00000000001887
  0
LINE
  5
22BA
  8
SAPA_PROFIL
 10
73.510739868558176
 20
110.5396119124914
 30
0.0
 11
74.999999999632564
 21
111.3994366500603
 31
0.0
  0
LINE
  5
22BB
  8
SAPA_PROFIL
 10
74.999999999632564
 20
111.3994366500603
 30
0.0
 11
75.449999999632382
 21
111.39943665006039
 31
0.0
  0
ARC
  5
22BC
  8
SAPA_PROFIL
 10
75.449999999632496
 20
111.0994366500604
 30
0.0
 40
0.3000000000000682
 50
0.0000000000217126
 51
90.0000000000217
  0
LINE
  5
22BD
  8
SAPA_PROFIL
 10
75.749999999632564
 20
111.0994366500605
 30
0.0
 11
75.749999999632564
 21
107.4994246500604
 31
0.0
  0
ARC
  5
22BE
  8
SAPA_PROFIL
 10
75.449999999632496
 20
107.4994246500605
 30
0.0
 40
0.3000000000000682
 50
269.99999999997829
 51
359.99999999997829
  0
LINE
  5
22BF
  8
SAPA_PROFIL
 10
75.449999999632382
 20
107.19942465006039
 30
0.0
 11
74.999999999632564
 21
107.19943665006009
 31
0.0
  0
LINE
  5
22C0
  8
SAPA_PROFIL
 10
74.999999999632564
 20
107.19943665006009
 30
0.0
 11
73.510769515091852
 21
108.0592442711953
 31
0.0
  0
ARC
  5
22C1
  8
SAPA_PROFIL
 10
73.36076951509169
 20
107.7994366500598
 30
0.0
 40
0.3000000000002213
 50
59.999999999988667
 51
89.999999999986443
  0
LINE
  5
22C2
  8
SAPA_PROFIL
 10
73.360769515091761
 20
108.09943665006
 30
0.0
 11
72.774264068344564
 21
108.0994366500601
 31
0.0
  0
ARC
  5
22C3
  8
SAPA_PROFIL
 10
72.774264068344721
 20
107.7994366500604
 30
0.0
 40
0.2999999999997698
 50
90.000000000029857
 51
135.00000000004599
  0
LINE
  5
22C4
  8
SAPA_PROFIL
 10
72.562132033988746
 20
108.01156868441601
 30
0.0
 11
71.257082780819474
 21
106.7065194312468
 31
0.0
  0
ARC
  5
22C5
  8
SAPA_PROFIL
 10
71.964189562006084
 20
105.99941265006041
 30
0.0
 40
0.9999999999999879
 50
135.00000000000691
 51
270.0000000000025
  0
LINE
  5
22C6
  8
SAPA_PROFIL
 10
71.96418956200614
 20
104.99941265006041
 30
0.0
 11
75.549999999633656
 21
104.9994366500605
 31
0.0
  0
ARC
  5
22C7
  8
SAPA_PROFIL
 10
75.749999999633246
 20
104.9994366500604
 30
0.0
 40
0.1999999999995907
 50
359.99999999998369
 51
179.99999999998369
  0
LINE
  5
22C8
  8
SAPA_PROFIL
 10
75.949999999632837
 20
104.9994366500603
 30
0.0
 11
77.250000029182502
 21
104.9994366500603
 31
0.0
  0
ARC
  5
22C9
  8
SAPA_PROFIL
 10
77.250000029038546
 20
105.9994366499164
 30
0.0
 40
0.9999999998561008
 50
270.00000000824809
 51
0.000000008446739
  0
LINE
  5
22CA
  8
SAPA_PROFIL
 10
78.250000028894647
 20
105.9994366500639
 30
0.0
 11
78.250000028894647
 21
106.9994366500603
 31
0.0
  0
ARC
  5
22CB
  8
SAPA_PROFIL
 10
79.250000028894647
 20
106.9994366500603
 30
0.0
 40
1.0
 50
90.0
 51
180.0
  0
LINE
  5
22CC
  8
SAPA_PROFIL
 10
79.250000028894647
 20
107.9994366500603
 30
0.0
 11
85.362929738855655
 21
107.9994366500606
 31
0.0
  0
ARC
  5
22CD
  8
SAPA_PROFIL
 10
85.362929738855598
 20
106.9994366500606
 30
0.0
 40
0.9999999999999715
 50
25.000000000264482
 51
89.999999999996746
  0
LINE
  5
22CE
  8
SAPA_PROFIL
 10
86.269237525890276
 20
107.4220549118055
 30
0.0
 11
88.062300764237065
 21
103.57681838830599
 31
0.0
  0
ARC
  5
22CF
  8
SAPA_PROFIL
 10
88.968608551271984
 20
103.99943665005119
 30
0.0
 40
1.000000000000332
 50
205.0000000002774
 51
270.00000000000978
  0
LINE
  5
22D0
  8
SAPA_PROFIL
 10
88.968608551272155
 20
102.9994366500509
 30
0.0
 11
92.017354024600536
 21
102.9994366500509
 31
0.0
  0
ARC
  5
22D1
  8
SAPA_PROFIL
 10
92.017354024600564
 20
103.1994366500514
 30
0.0
 40
0.2000000000005002
 50
269.99999999998778
 51
29.109908940415341
  0
ARC
  5
22D2
  8
SAPA_PROFIL
 10
95.249999999632507
 20
104.9994366500834
 30
0.0
 40
3.5000000000001998
 50
184.91710033606299
 51
209.10990894043979
  0
LINE
  5
22D3
  8
SAPA_PROFIL
 10
91.762880844802567
 20
104.6994366500509
 30
0.0
 11
90.499999999632564
 21
104.6994366500509
 31
0.0
  0
ARC
  5
22D4
  8
SAPA_PROFIL
 10
90.499999999632564
 20
105.1994366500508
 30
0.0
 40
0.5
 50
180.0
 51
270.0
  0
LINE
  5
22D5
  8
SAPA_PROFIL
 10
89.999999999632564
 20
105.1994366500508
 30
0.0
 11
89.999999999632564
 21
107.4994366500606
 31
0.0
  0
ARC
  5
22D6
  8
SAPA_PROFIL
 10
90.499999999632564
 20
107.4994366500606
 30
0.0
 40
0.5
 50
90.0
 51
180.0
  0
LINE
  5
22D7
  8
SAPA_PROFIL
 10
90.499999999632564
 20
107.9994366500606
 30
0.0
 11
93.447224361864301
 21
107.9994366500606
 31
0.0
  0
ARC
  5
22D8
  8
SAPA_PROFIL
 10
95.249999999632792
 20
104.9994366500825
 30
0.0
 40
3.4999999999999791
 50
58.997280865428777
 51
121.00271913457119
  0
LINE
  5
22D9
  8
SAPA_PROFIL
 10
97.052775637401282
 20
107.9994366500606
 30
0.0
 11
103.4472243618643
 21
107.9994366500606
 31
0.0
  0
ARC
  5
22DA
  8
SAPA_PROFIL
 10
105.24999999963281
 20
104.9994366500825
 30
0.0
 40
3.4999999999999791
 50
58.997280865428777
 51
121.00271913457119
  0
LINE
  5
22DB
  8
SAPA_PROFIL
 10
107.0527756374012
 20
107.9994366500606
 30
0.0
 11
109.99999999963249
 21
107.9994366500606
 31
0.0
  0
ARC
  5
22DC
  8
SAPA_PROFIL
 10
109.99999999963249
 20
107.4994366500606
 30
0.0
 40
0.5
 50
0.0
 51
90.0
  0
LINE
  5
22DD
  8
SAPA_PROFIL
 10
110.49999999963249
 20
107.4994366500606
 30
0.0
 11
110.49999999963249
 21
105.1994366500508
 31
0.0
  0
ARC
  5
22DE
  8
SAPA_PROFIL
 10
109.99999999963249
 20
105.1994366500508
 30
0.0
 40
0.5
 50
270.0
 51
0.0
  0
LINE
  5
22DF
  8
SAPA_PROFIL
 10
109.99999999963249
 20
104.6994366500509
 30
0.0
 11
108.7371191544625
 21
104.6994366500509
 31
0.0
  0
ARC
  5
22E0
  8
SAPA_PROFIL
 10
105.24999999963281
 20
104.9994366500823
 30
0.0
 40
3.4999999999998672
 50
330.89009105957712
 51
355.08289966395409
  0
ARC
  5
22E1
  8
SAPA_PROFIL
 10
108.48264597466481
 20
103.1994366500513
 30
0.0
 40
0.2000000000003748
 50
150.89009105952289
 51
269.99999999994299
  0
LINE
  5
22E2
  8
SAPA_PROFIL
 10
108.48264597466461
 20
102.9994366500509
 30
0.0
 11
111.5313914479934
 21
102.9994366500509
 31
0.0
  0
ARC
  5
22E3
  8
SAPA_PROFIL
 10
111.5313914479933
 20
103.9994366500509
 30
0.0
 40
0.9999999999999857
 50
270.0000000000033
 51
334.99999999973471
  0
LINE
  5
22E4
  8
SAPA_PROFIL
 10
112.43769923502801
 20
103.57681838830599
 30
0.0
 11
114.2307624733748
 21
107.4220549118055
 31
0.0
  0
ARC
  5
22E5
  8
SAPA_PROFIL
 10
115.1370702604095
 20
106.9994366500606
 30
0.0
 40
0.999999999999982
 50
90.000000000003254
 51
154.9999999997348
  0
LINE
  5
22E6
  8
SAPA_PROFIL
 10
115.1370702604094
 20
107.9994366500606
 30
0.0
 11
121.24999997037089
 21
107.9994366500605
 31
0.0
  0
ARC
  5
22E7
  8
SAPA_PROFIL
 10
121.24999997037089
 20
106.9994366500604
 30
0.0
 40
1.000000000000056
 50
359.99999999999682
 51
89.999999999996746
  0
LINE
  5
22E8
  8
SAPA_PROFIL
 10
122.24999997037089
 20
106.9994366500603
 30
0.0
 11
122.2499999703705
 21
105.9994366500638
 31
0.0
  0
ARC
  5
22E9
  8
SAPA_PROFIL
 10
123.2499999702265
 20
105.9994366499164
 30
0.0
 40
0.999999999856044
 50
179.99999999155651
 51
269.9999999917552
  0
LINE
  5
22EA
  8
SAPA_PROFIL
 10
123.2499999700826
 20
104.9994366500603
 30
0.0
 11
124.54999999962089
 21
104.9994366500603
 31
0.0
  0
ARC
  5
22EB
  8
SAPA_PROFIL
 10
124.7499999996205
 20
104.9994366500603
 30
0.0
 40
0.1999999999995907
 50
0.0
 51
180.0
  0
LINE
  5
22EC
  8
SAPA_PROFIL
 10
124.9499999996201
 20
104.9994366500603
 30
0.0
 11
128.53581043724759
 21
104.99941265006029
 31
0.0
  0
ARC
  5
22ED
  8
SAPA_PROFIL
 10
128.53581043724759
 20
105.99941265006029
 30
0.0
 40
1.000000000000042
 50
269.99999999999841
 51
44.99999999999482
  0
LINE
  5
22EE
  8
SAPA_PROFIL
 10
129.24291721843429
 20
106.7065194312468
 30
0.0
 11
127.937867965265
 21
108.01156868441591
 31
0.0
  0
ARC
  5
22EF
  8
SAPA_PROFIL
 10
127.725735930909
 20
107.7994366500603
 30
0.0
 40
0.2999999999997733
 50
44.999999999953943
 51
89.999999999970143
  0
LINE
  5
22F0
  8
SAPA_PROFIL
 10
127.7257359309092
 20
108.09943665006
 30
0.0
 11
127.139230484162
 21
108.09943665006
 31
0.0
  0
ARC
  5
22F1
  8
SAPA_PROFIL
 10
127.1392304841621
 20
107.7994366500598
 30
0.0
 40
0.3000000000002245
 50
90.000000000016286
 51
120.0000000000136
  0
LINE
  5
22F2
  8
SAPA_PROFIL
 10
126.98923048416189
 20
108.0592442711953
 30
0.0
 11
125.4999999996212
 21
107.19943665005989
 31
0.0
  0
LINE
  5
22F3
  8
SAPA_PROFIL
 10
125.4999999996212
 20
107.19943665005989
 30
0.0
 11
125.04999999962089
 21
107.19942465006029
 31
0.0
  0
ARC
  5
22F4
  8
SAPA_PROFIL
 10
125.04999999962109
 20
107.49942465006021
 30
0.0
 40
0.2999999999998977
 50
179.9999999999674
 51
269.99999999996737
  0
LINE
  5
22F5
  8
SAPA_PROFIL
 10
124.7499999996212
 20
107.4994246500604
 30
0.0
 11
124.7499999996212
 21
111.0994366500605
 31
0.0
  0
ARC
  5
22F6
  8
SAPA_PROFIL
 10
125.04999999962121
 20
111.0994366500604
 30
0.0
 40
0.3000000000000682
 50
89.999999999978314
 51
179.99999999997829
  0
LINE
  5
22F7
  8
SAPA_PROFIL
 10
78.499999999810825
 20
110.49943665007071
 30
0.0
 11
78.499999999810825
 21
122.699436650053
 31
0.0
  0
LINE
  5
22F8
  8
SAPA_PROFIL
 10
78.499999999810825
 20
122.699436650053
 30
0.0
 11
121.9999999994543
 21
122.6994366500677
 31
0.0
  0
LINE
  5
22F9
  8
SAPA_PROFIL
 10
121.9999999994543
 20
122.6994366500677
 30
0.0
 11
121.99999999944291
 21
110.49943665004849
 31
0.0
  0
LINE
  5
22FA
  8
SAPA_PROFIL
 10
121.99999999944291
 20
110.49943665004849
 30
0.0
 11
78.499999999810825
 21
110.49943665007071
 31
0.0
  0
ARC
  5
22FB
  8
SAPA_PROFIL
 62
     4
 10
127.1258330808446
 20
122.1494566175471
 30
0.0
 40
0.3000000000002245
 50
239.99999999998869
 51
269.99999999998641
  0
LINE
  5
22FC
  8
SAPA_PROFIL
 62
     4
 10
126.9758330808445
 20
121.88964899641159
 30
0.0
 11
125.4866025399992
 21
122.7494566500539
 31
0.0
  0
LINE
  5
22FD
  8
SAPA_PROFIL
 62
     4
 10
125.4866025399992
 20
122.7494566500539
 30
0.0
 11
125.04999999962089
 21
122.7494566500541
 31
0.0
  0
ARC
  5
22FE
  8
SAPA_PROFIL
 62
     4
 10
125.04999999962089
 20
122.4994566500541
 30
0.0
 40
0.25
 50
90.0
 51
180.0
  0
LINE
  5
22FF
  8
SAPA_PROFIL
 62
     4
 10
124.79999999962089
 20
122.4994566500541
 30
0.0
 11
124.79999999962089
 21
118.89944465005409
 31
0.0
  0
ARC
  5
2300
  8
SAPA_PROFIL
 62
     4
 10
125.04999999962089
 20
118.89944465005409
 30
0.0
 40
0.25
 50
180.0
 51
270.0
  0
LINE
  5
2301
  8
SAPA_PROFIL
 62
     4
 10
125.04999999962089
 20
118.64944465005409
 30
0.0
 11
125.48660192119949
 21
118.6494562927894
 31
0.0
  0
LINE
  5
2302
  8
SAPA_PROFIL
 62
     4
 10
125.48660192119949
 20
118.6494562927894
 30
0.0
 11
126.9758329682372
 21
119.50926423868231
 31
0.0
  0
ARC
  5
2303
  8
SAPA_PROFIL
 62
     4
 10
127.12583296823691
 20
119.24945661754769
 30
0.0
 40
0.2999999999992309
 50
90.000000000013571
 51
120.00000000002019
  0
LINE
  5
2304
  8
SAPA_PROFIL
 62
     4
 10
127.12583296823679
 20
119.54945661754699
 30
0.0
 11
150.37416695948829
 21
119.54945661754699
 31
0.0
  0
ARC
  5
2305
  8
SAPA_PROFIL
 62
     4
 10
150.37416695948849
 20
119.2494566175469
 30
0.0
 40
0.3000000000000824
 50
60.000000000025921
 51
90.000000000032571
  0
LINE
  5
2306
  8
SAPA_PROFIL
 62
     4
 10
150.52416695948841
 20
119.50926423868231
 30
0.0
 11
152.0133980065261
 21
118.6494562927893
 31
0.0
  0
LINE
  5
2307
  8
SAPA_PROFIL
 62
     4
 10
152.0133980065261
 20
118.6494562927893
 30
0.0
 11
152.44999992810469
 21
118.64944465005409
 31
0.0
  0
ARC
  5
2308
  8
SAPA_PROFIL
 62
     4
 10
152.44999992810469
 20
118.89944465005409
 30
0.0
 40
0.25
 50
270.0
 51
0.0
  0
LINE
  5
2309
  8
SAPA_PROFIL
 62
     4
 10
152.69999992810469
 20
118.89944465005409
 30
0.0
 11
152.69999992810421
 21
122.4994566500541
 31
0.0
  0
ARC
  5
230A
  8
SAPA_PROFIL
 62
     4
 10
152.44999992810421
 20
122.4994566500541
 30
0.0
 40
0.25
 50
0.0
 51
90.0
  0
LINE
  5
230B
  8
SAPA_PROFIL
 62
     4
 10
152.44999992810421
 20
122.7494566500541
 30
0.0
 11
152.01339738772589
 21
122.7494566500539
 31
0.0
  0
LINE
  5
230C
  8
SAPA_PROFIL
 62
     4
 10
152.01339738772589
 20
122.7494566500539
 30
0.0
 11
150.52416684688069
 21
121.88964899641159
 31
0.0
  0
ARC
  5
230D
  8
SAPA_PROFIL
 62
     4
 10
150.37416684688091
 20
122.14945661754631
 30
0.0
 40
0.2999999999993119
 50
270.00000000001631
 51
300.0000000000145
  0
LINE
  5
230E
  8
SAPA_PROFIL
 62
     4
 10
150.374166846881
 20
121.84945661754701
 30
0.0
 11
127.1258330808446
 21
121.84945661754691
 31
0.0
  0
LINE
  5
230F
  8
SAPA_PROFIL
 62
     4
 10
141.24999999649569
 20
81.651709582438684
 30
-0.2
 11
141.24999999649569
 21
67.451709582436592
 31
-0.2
1001
RC_PROFILE
1002
{
1000
Region
1002
}
  0
ARC
  5
2310
  8
SAPA_PROFIL
 62
     4
 10
140.74999999649569
 20
67.451709582436592
 30
-0.2
 40
0.5
 50
270.00000000020839
 51
0.0
1001
RC_PROFILE
1002
{
1000
Region
1002
}
  0
LINE
  5
2311
  8
SAPA_PROFIL
 62
     4
 10
140.74999999649751
 20
66.951709582436592
 30
-0.2
 11
136.74999999587629
 21
66.951709582433637
 31
-0.2
1001
RC_PROFILE
1002
{
1000
Region
1002
}
  0
ARC
  5
2312
  8
SAPA_PROFIL
 62
     4
 10
136.74999999587629
 20
67.451709582433637
 30
-0.2
 40
0.5
 50
180.0
 51
270.0
1001
RC_PROFILE
1002
{
1000
Region
1002
}
  0
LINE
  5
2313
  8
SAPA_PROFIL
 62
     4
 10
136.24999999587629
 20
67.451709582433637
 30
-0.2
 11
136.2499999958691
 21
81.651709582437533
 31
-0.2
1001
RC_PROFILE
1002
{
1000
Region
1002
}
  0
ARC
  5
2314
  8
SAPA_PROFIL
 62
     4
 10
136.74999999586899
 20
81.651709582438684
 30
-0.2
 40
0.5
 50
90.0
 51
180.0000000001302
1001
RC_PROFILE
1002
{
1000
Region
1002
}
  0
LINE
  5
2315
  8
SAPA_PROFIL
 62
     4
 10
136.74999999586899
 20
82.151709582438684
 30
-0.2
 11
140.74999999649569
 21
82.151709582438684
 31
-0.2
1001
RC_PROFILE
1002
{
1000
Region
1002
}
  0
ARC
  5
2316
  8
SAPA_PROFIL
 62
     4
 10
140.74999999649569
 20
81.651709582438684
 30
-0.2
 40
0.5
 50
0.0
 51
90.0
1001
RC_PROFILE
1002
{
1000
Region
1002
}
  0
ARC
  5
2317
  8
SAPA_PROFIL
 62
     4
 10
127.8272599264768
 20
107.215183138847
 30
0.0
 40
1.2000000000007129
 50
89.999999999972204
 51
119.99999999999319
1001
GENIUS_GENOBJ-N-FIL_13
1002
{
1000
OWNER
1000
GEN
1002
}
1001
GENIUS_GENODEF_13
1002
{
1000
HIER
1070
     0
1002
}
1002
{
1000
MANEDIT
1070
     0
1002
}
1002
{
1000
NOSEL
1070
     0
1002
}
1002
{
1000
BEHIND
1070
     0
1002
}
1002
{
1000
OTHER
1070
     0
1002
}
1002
{
1000
REACTOR
1002
}
  0
LINE
  5
2318
  8
SAPA_PROFIL
 62
     4
 10
127.22725992647651
 20
108.254413623389
 30
0.0
 11
125.4866019858332
 21
107.249444292791
 31
0.0
1001
GENIUS_GENOBJ-N-FIL_13
1002
{
1000
OWNER
1000
GEN
1002
}
1001
GENIUS_GENODEF_13
1002
{
1000
HIER
1070
     0
1002
}
1002
{
1000
MANEDIT
1070
     0
1002
}
1002
{
1000
NOSEL
1070
     0
1002
}
1002
{
1000
BEHIND
1070
     0
1002
}
1002
{
1000
OTHER
1070
     0
1002
}
1002
{
1000
REACTOR
1002
}
  0
LINE
  5
2319
  8
SAPA_PROFIL
 62
     4
 10
125.4866019858332
 20
107.249444292791
 30
0.0
 11
125.0500000642546
 21
107.24943265005579
 31
0.0
1001
GENIUS_GENOBJ-N-FIL_13
1002
{
1000
OWNER
1000
GEN
1002
}
1001
GENIUS_GENODEF_13
1002
{
1000
HIER
1070
     0
1002
}
1002
{
1000
MANEDIT
1070
     0
1002
}
1002
{
1000
NOSEL
1070
     0
1002
}
1002
{
1000
BEHIND
1070
     0
1002
}
1002
{
1000
OTHER
1070
     0
1002
}
1002
{
1000
REACTOR
1002
}
  0
ARC
  5
231A
  8
SAPA_PROFIL
 62
     4
 10
125.0500000642546
 20
107.49943265005579
 30
0.0
 40
0.25
 50
180.0
 51
270.0
1001
GENIUS_GENOBJ-N-FIL_13
1002
{
1000
OWNER
1000
GEN
1002
}
1001
GENIUS_GENODEF_13
1002
{
1000
HIER
1070
     0
1002
}
1002
{
1000
MANEDIT
1070
     0
1002
}
1002
{
1000
NOSEL
1070
     0
1002
}
1002
{
1000
BEHIND
1070
     0
1002
}
1002
{
1000
OTHER
1070
     0
1002
}
1002
{
1000
REACTOR
1002
}
  0
LINE
  5
231B
  8
SAPA_PROFIL
 62
     4
 10
124.8000000642546
 20
107.49943265005579
 30
0.0
 11
124.800000064255
 21
111.0994446500558
 31
0.0
1001
GENIUS_GENOBJ-N-FIL_13
1002
{
1000
OWNER
1000
GEN
1002
}
1001
GENIUS_GENODEF_13
1002
{
1000
HIER
1070
     0
1002
}
1002
{
1000
MANEDIT
1070
     0
1002
}
1002
{
1000
NOSEL
1070
     0
1002
}
1002
{
1000
BEHIND
1070
     0
1002
}
1002
{
1000
OTHER
1070
     0
1002
}
1002
{
1000
REACTOR
1002
}
  0
ARC
  5
231C
  8
SAPA_PROFIL
 62
     4
 10
125.0500000642551
 20
111.0994446500558
 30
0.0
 40
0.25
 50
90.0
 51
180.0
1001
GENIUS_GENOBJ-N-FIL_13
1002
{
1000
OWNER
1000
GEN
1002
}
1001
GENIUS_GENODEF_13
1002
{
1000
HIER
1070
     0
1002
}
1002
{
1000
MANEDIT
1070
     0
1002
}
1002
{
1000
NOSEL
1070
     0
1002
}
1002
{
1000
BEHIND
1070
     0
1002
}
1002
{
1000
OTHER
1070
     0
1002
}
1002
{
1000
REACTOR
1002
}
  0
LINE
  5
231D
  8
SAPA_PROFIL
 62
     4
 10
125.0500000642551
 20
111.3494446500558
 30
0.0
 11
125.4866026046334
 21
111.3494446500557
 31
0.0
1001
GENIUS_GENOBJ-N-FIL_13
1002
{
1000
OWNER
1000
GEN
1002
}
1001
GENIUS_GENODEF_13
1002
{
1000
HIER
1070
     0
1002
}
1002
{
1000
MANEDIT
1070
     0
1002
}
1002
{
1000
NOSEL
1070
     0
1002
}
1002
{
1000
BEHIND
1070
     0
1002
}
1002
{
1000
OTHER
1070
     0
1002
}
1002
{
1000
REACTOR
1002
}
  0
LINE
  5
231E
  8
SAPA_PROFIL
 62
     4
 10
125.4866026046334
 20
111.3494446500557
 30
0.0
 11
127.17274020203421
 21
110.37595265430571
 31
0.0
1001
GENIUS_GENOBJ-N-FIL_13
1002
{
1000
OWNER
1000
GEN
1002
}
1001
GENIUS_GENODEF_13
1002
{
1000
HIER
1070
     0
1002
}
1002
{
1000
MANEDIT
1070
     0
1002
}
1002
{
1000
NOSEL
1070
     0
1002
}
1002
{
1000
BEHIND
1070
     0
1002
}
1002
{
1000
OTHER
1070
     0
1002
}
1002
{
1000
REACTOR
1002
}
  0
ARC
  5
231F
  8
SAPA_PROFIL
 62
     4
 10
127.7727402020342
 20
111.4151831388469
 30
0.0
 40
1.199999999999932
 50
239.9999999999969
 51
269.9999999999946
1001
GENIUS_GENOBJ-N-FIL_13
1002
{
1000
OWNER
1000
GEN
1002
}
1001
GENIUS_GENODEF_13
1002
{
1000
HIER
1070
     0
1002
}
1002
{
1000
MANEDIT
1070
     0
1002
}
1002
{
1000
NOSEL
1070
     0
1002
}
1002
{
1000
BEHIND
1070
     0
1002
}
1002
{
1000
OTHER
1070
     0
1002
}
1002
{
1000
REACTOR
1002
}
  0
LINE
  5
2320
  8
SAPA_PROFIL
 62
     4
 10
127.7727402020341
 20
110.215183138847
 30
0.0
 11
149.72725979032521
 21
110.215183138847
 31
0.0
1001
GENIUS_GENOBJ-N-FIL_13
1002
{
1000
OWNER
1000
GEN
1002
}
1001
GENIUS_GENODEF_13
1002
{
1000
HIER
1070
     0
1002
}
1002
{
1000
MANEDIT
1070
     0
1002
}
1002
{
1000
NOSEL
1070
     0
1002
}
1002
{
1000
BEHIND
1070
     0
1002
}
1002
{
1000
OTHER
1070
     0
1002
}
1002
{
1000
REACTOR
1002
}
  0
ARC
  5
2321
  8
SAPA_PROFIL
 62
     4
 10
149.72725979032509
 20
111.4151831388469
 30
0.0
 40
1.1999999999999451
 50
270.0000000000054
 51
300.00000000000279
1001
GENIUS_GENOBJ-N-FIL_13
1002
{
1000
OWNER
1000
GEN
1002
}
1001
GENIUS_GENODEF_13
1002
{
1000
HIER
1070
     0
1002
}
1002
{
1000
MANEDIT
1070
     0
1002
}
1002
{
1000
NOSEL
1070
     0
1002
}
1002
{
1000
BEHIND
1070
     0
1002
}
1002
{
1000
OTHER
1070
     0
1002
}
1002
{
1000
REACTOR
1002
}
  0
LINE
  5
2322
  8
SAPA_PROFIL
 62
     4
 10
150.32725979032509
 20
110.37595265430571
 30
0.0
 11
152.01339738772589
 21
111.3494446500557
 31
0.0
1001
GENIUS_GENOBJ-N-FIL_13
1002
{
1000
OWNER
1000
GEN
1002
}
1001
GENIUS_GENODEF_13
1002
{
1000
HIER
1070
     0
1002
}
1002
{
1000
MANEDIT
1070
     0
1002
}
1002
{
1000
NOSEL
1070
     0
1002
}
1002
{
1000
BEHIND
1070
     0
1002
}
1002
{
1000
OTHER
1070
     0
1002
}
1002
{
1000
REACTOR
1002
}
  0
LINE
  5
2323
  8
SAPA_PROFIL
 62
     4
 10
152.01339738772589
 20
111.3494446500557
 30
0.0
 11
152.44999992810421
 21
111.3494446500558
 31
0.0
1001
GENIUS_GENOBJ-N-FIL_13
1002
{
1000
OWNER
1000
GEN
1002
}
1001
GENIUS_GENODEF_13
1002
{
1000
HIER
1070
     0
1002
}
1002
{
1000
MANEDIT
1070
     0
1002
}
1002
{
1000
NOSEL
1070
     0
1002
}
1002
{
1000
BEHIND
1070
     0
1002
}
1002
{
1000
OTHER
1070
     0
1002
}
1002
{
1000
REACTOR
1002
}
  0
ARC
  5
2324
  8
SAPA_PROFIL
 62
     4
 10
152.44999992810421
 20
111.0994446500558
 30
0.0
 40
0.25
 50
0.0
 51
90.0
1001
GENIUS_GENOBJ-N-FIL_13
1002
{
1000
OWNER
1000
GEN
1002
}
1001
GENIUS_GENODEF_13
1002
{
1000
HIER
1070
     0
1002
}
1002
{
1000
MANEDIT
1070
     0
1002
}
1002
{
1000
NOSEL
1070
     0
1002
}
1002
{
1000
BEHIND
1070
     0
1002
}
1002
{
1000
OTHER
1070
     0
1002
}
1002
{
1000
REACTOR
1002
}
  0
LINE
  5
2325
  8
SAPA_PROFIL
 62
     4
 10
152.69999992810421
 20
111.0994446500558
 30
0.0
 11
152.69999992810421
 21
107.49943265005579
 31
0.0
1001
GENIUS_GENOBJ-N-FIL_13
1002
{
1000
OWNER
1000
GEN
1002
}
1001
GENIUS_GENODEF_13
1002
{
1000
HIER
1070
     0
1002
}
1002
{
1000
MANEDIT
1070
     0
1002
}
1002
{
1000
NOSEL
1070
     0
1002
}
1002
{
1000
BEHIND
1070
     0
1002
}
1002
{
1000
OTHER
1070
     0
1002
}
1002
{
1000
REACTOR
1002
}
  0
ARC
  5
2326
  8
SAPA_PROFIL
 62
     4
 10
152.44999992810421
 20
107.49943265005579
 30
0.0
 40
0.25
 50
270.0
 51
0.0
1001
GENIUS_GENOBJ-N-FIL_13
1002
{
1000
OWNER
1000
GEN
1002
}
1001
GENIUS_GENODEF_13
1002
{
1000
HIER
1070
     0
1002
}
1002
{
1000
MANEDIT
1070
     0
1002
}
1002
{
1000
NOSEL
1070
     0
1002
}
1002
{
1000
BEHIND
1070
     0
1002
}
1002
{
1000
OTHER
1070
     0
1002
}
1002
{
1000
REACTOR
1002
}
  0
LINE
  5
2327
  8
SAPA_PROFIL
 62
     4
 10
152.44999992810421
 20
107.24943265005579
 30
0.0
 11
152.0133980065261
 21
107.249444292791
 31
0.0
1001
GENIUS_GENOBJ-N-FIL_13
1002
{
1000
OWNER
1000
GEN
1002
}
1001
GENIUS_GENODEF_13
1002
{
1000
HIER
1070
     0
1002
}
1002
{
1000
MANEDIT
1070
     0
1002
}
1002
{
1000
NOSEL
1070
     0
1002
}
1002
{
1000
BEHIND
1070
     0
1002
}
1002
{
1000
OTHER
1070
     0
1002
}
1002
{
1000
REACTOR
1002
}
  0
LINE
  5
2328
  8
SAPA_PROFIL
 62
     4
 10
152.0133980065261
 20
107.249444292791
 30
0.0
 11
150.27274006588229
 21
108.254413623389
 31
0.0
1001
GENIUS_GENOBJ-N-FIL_13
1002
{
1000
OWNER
1000
GEN
1002
}
1001
GENIUS_GENODEF_13
1002
{
1000
HIER
1070
     0
1002
}
1002
{
1000
MANEDIT
1070
     0
1002
}
1002
{
1000
NOSEL
1070
     0
1002
}
1002
{
1000
BEHIND
1070
     0
1002
}
1002
{
1000
OTHER
1070
     0
1002
}
1002
{
1000
REACTOR
1002
}
  0
ARC
  5
2329
  8
SAPA_PROFIL
 62
     4
 10
149.67274006588229
 20
107.21518313884781
 30
0.0
 40
1.1999999999998689
 50
59.99999999999671
 51
90.000000000017621
1001
GENIUS_GENOBJ-N-FIL_13
1002
{
1000
OWNER
1000
GEN
1002
}
1001
GENIUS_GENODEF_13
1002
{
1000
HIER
1070
     0
1002
}
1002
{
1000
MANEDIT
1070
     0
1002
}
1002
{
1000
NOSEL
1070
     0
1002
}
1002
{
1000
BEHIND
1070
     0
1002
}
1002
{
1000
OTHER
1070
     0
1002
}
1002
{
1000
REACTOR
1002
}
  0
LINE
  5
232A
  8
SAPA_PROFIL
 62
     4
 10
149.6727400658819
 20
108.41518313884769
 30
0.0
 11
146.94999992835341
 21
108.415183138847
 31
0.0
1001
GENIUS_GENOBJ-N-FIL_13
1002
{
1000
OWNER
1000
GEN
1002
}
1001
GENIUS_GENODEF_13
1002
{
1000
HIER
1070
     0
1002
}
1002
{
1000
MANEDIT
1070
     0
1002
}
1002
{
1000
NOSEL
1070
     0
1002
}
1002
{
1000
BEHIND
1070
     0
1002
}
1002
{
1000
OTHER
1070
     0
1002
}
1002
{
1000
REACTOR
1002
}
  0
ARC
  5
232B
  8
SAPA_PROFIL
 62
     4
 10
146.949999928354
 20
107.21518313884761
 30
0.0
 40
1.199999999999477
 50
90.000000000027143
 51
180.0000000002226
1001
GENIUS_GENOBJ-N-FIL_13
1002
{
1000
OWNER
1000
GEN
1002
}
1001
GENIUS_GENODEF_13
1002
{
1000
HIER
1070
     0
1002
}
1002
{
1000
MANEDIT
1070
     0
1002
}
1002
{
1000
NOSEL
1070
     0
1002
}
1002
{
1000
BEHIND
1070
     0
1002
}
1002
{
1000
OTHER
1070
     0
1002
}
1002
{
1000
REACTOR
1002
}
  0
LINE
  5
232C
  8
SAPA_PROFIL
 62
     4
 10
145.7499999283545
 20
107.2151831388429
 30
0.0
 11
145.74999992844371
 21
81.417448111921104
 31
0.0
1001
GENIUS_GENOBJ-N-FIL_13
1002
{
1000
OWNER
1000
GEN
1002
}
1001
GENIUS_GENODEF_13
1002
{
1000
HIER
1070
     0
1002
}
1002
{
1000
MANEDIT
1070
     0
1002
}
1002
{
1000
NOSEL
1070
     0
1002
}
1002
{
1000
BEHIND
1070
     0
1002
}
1002
{
1000
OTHER
1070
     0
1002
}
1002
{
1000
REACTOR
1002
}
  0
ARC
  5
232D
  8
SAPA_PROFIL
 62
     4
 10
145.24999992844371
 20
81.417448111921104
 30
0.0
 40
0.5
 50
270.0
 51
0.0
1001
GENIUS_GENOBJ-N-FIL_13
1002
{
1000
OWNER
1000
GEN
1002
}
1001
GENIUS_GENODEF_13
1002
{
1000
HIER
1070
     0
1002
}
1002
{
1000
MANEDIT
1070
     0
1002
}
1002
{
1000
NOSEL
1070
     0
1002
}
1002
{
1000
BEHIND
1070
     0
1002
}
1002
{
1000
OTHER
1070
     0
1002
}
1002
{
1000
REACTOR
1002
}
  0
LINE
  5
232E
  8
SAPA_PROFIL
 62
     4
 10
145.24999992844371
 20
80.91744811192109
 30
0.0
 11
145.04999992844381
 21
80.917448111920862
 31
0.0
1001
GENIUS_GENOBJ-N-FIL_13
1002
{
1000
OWNER
1000
GEN
1002
}
1001
GENIUS_GENODEF_13
1002
{
1000
HIER
1070
     0
1002
}
1002
{
1000
MANEDIT
1070
     0
1002
}
1002
{
1000
NOSEL
1070
     0
1002
}
1002
{
1000
BEHIND
1070
     0
1002
}
1002
{
1000
OTHER
1070
     0
1002
}
1002
{
1000
REACTOR
1002
}
  0
ARC
  5
232F
  8
SAPA_PROFIL
 62
     4
 10
145.04999992844381
 20
81.217448111921044
 30
0.0
 40
0.3000000000001819
 50
180.0
 51
270.0
1001
GENIUS_GENOBJ-N-FIL_13
1002
{
1000
OWNER
1000
GEN
1002
}
1001
GENIUS_GENODEF_13
1002
{
1000
HIER
1070
     0
1002
}
1002
{
1000
MANEDIT
1070
     0
1002
}
1002
{
1000
NOSEL
1070
     0
1002
}
1002
{
1000
BEHIND
1070
     0
1002
}
1002
{
1000
OTHER
1070
     0
1002
}
1002
{
1000
REACTOR
1002
}
  0
LINE
  5
2330
  8
SAPA_PROFIL
 62
     4
 10
144.74999992844371
 20
81.217448111921044
 30
0.0
 11
144.74999992844371
 21
81.867448111922954
 31
0.0
1001
GENIUS_GENOBJ-N-FIL_13
1002
{
1000
OWNER
1000
GEN
1002
}
1001
GENIUS_GENODEF_13
1002
{
1000
HIER
1070
     0
1002
}
1002
{
1000
MANEDIT
1070
     0
1002
}
1002
{
1000
NOSEL
1070
     0
1002
}
1002
{
1000
BEHIND
1070
     0
1002
}
1002
{
1000
OTHER
1070
     0
1002
}
1002
{
1000
REACTOR
1002
}
  0
ARC
  5
2331
  8
SAPA_PROFIL
 62
     4
 10
144.44999992844311
 20
81.867448111922386
 30
0.0
 40
0.300000000000523
 50
0.0000000001085629
 51
90.000000000108557
1001
GENIUS_GENOBJ-N-FIL_13
1002
{
1000
OWNER
1000
GEN
1002
}
1001
GENIUS_GENODEF_13
1002
{
1000
HIER
1070
     0
1002
}
1002
{
1000
MANEDIT
1070
     0
1002
}
1002
{
1000
NOSEL
1070
     0
1002
}
1002
{
1000
BEHIND
1070
     0
1002
}
1002
{
1000
OTHER
1070
     0
1002
}
1002
{
1000
REACTOR
1002
}
  0
LINE
  5
2332
  8
SAPA_PROFIL
 62
     4
 10
144.44999992844259
 20
82.167448111922894
 30
0.0
 11
143.5499999284466
 21
82.167448111921985
 31
0.0
1001
GENIUS_GENOBJ-N-FIL_13
1002
{
1000
OWNER
1000
GEN
1002
}
1001
GENIUS_GENODEF_13
1002
{
1000
HIER
1070
     0
1002
}
1002
{
1000
MANEDIT
1070
     0
1002
}
1002
{
1000
NOSEL
1070
     0
1002
}
1002
{
1000
BEHIND
1070
     0
1002
}
1002
{
1000
OTHER
1070
     0
1002
}
1002
{
1000
REACTOR
1002
}
  0
ARC
  5
2333
  8
SAPA_PROFIL
 62
     4
 10
143.54999992844611
 20
81.667448111922454
 30
0.0
 40
0.4999999999995453
 50
89.999999999947889
 51
179.9999999999479
1001
GENIUS_GENOBJ-N-FIL_13
1002
{
1000
OWNER
1000
GEN
1002
}
1001
GENIUS_GENODEF_13
1002
{
1000
HIER
1070
     0
1002
}
1002
{
1000
MANEDIT
1070
     0
1002
}
1002
{
1000
NOSEL
1070
     0
1002
}
1002
{
1000
BEHIND
1070
     0
1002
}
1002
{
1000
OTHER
1070
     0
1002
}
1002
{
1000
REACTOR
1002
}
  0
LINE
  5
2334
  8
SAPA_PROFIL
 62
     4
 10
143.0499999284466
 20
81.667448111922909
 30
0.0
 11
143.0499999284466
 21
75.667448111921075
 31
0.0
1001
GENIUS_GENOBJ-N-FIL_13
1002
{
1000
OWNER
1000
GEN
1002
}
1001
GENIUS_GENODEF_13
1002
{
1000
HIER
1070
     0
1002
}
1002
{
1000
MANEDIT
1070
     0
1002
}
1002
{
1000
NOSEL
1070
     0
1002
}
1002
{
1000
BEHIND
1070
     0
1002
}
1002
{
1000
OTHER
1070
     0
1002
}
1002
{
1000
REACTOR
1002
}
  0
ARC
  5
2335
  8
SAPA_PROFIL
 62
     4
 10
143.5499999284466
 20
75.667448111921075
 30
0.0
 40
0.5
 50
180.0
 51
270.0
1001
GENIUS_GENOBJ-N-FIL_13
1002
{
1000
OWNER
1000
GEN
1002
}
1001
GENIUS_GENODEF_13
1002
{
1000
HIER
1070
     0
1002
}
1002
{
1000
MANEDIT
1070
     0
1002
}
1002
{
1000
NOSEL
1070
     0
1002
}
1002
{
1000
BEHIND
1070
     0
1002
}
1002
{
1000
OTHER
1070
     0
1002
}
1002
{
1000
REACTOR
1002
}
  0
LINE
  5
2336
  8
SAPA_PROFIL
 62
     4
 10
143.5499999284466
 20
75.16744811192109
 30
0.0
 11
144.44999992844529
 21
75.16744811192109
 31
0.0
1001
GENIUS_GENOBJ-N-FIL_13
1002
{
1000
OWNER
1000
GEN
1002
}
1001
GENIUS_GENODEF_13
1002
{
1000
HIER
1070
     0
1002
}
1002
{
1000
MANEDIT
1070
     0
1002
}
1002
{
1000
NOSEL
1070
     0
1002
}
1002
{
1000
BEHIND
1070
     0
1002
}
1002
{
1000
OTHER
1070
     0
1002
}
1002
{
1000
REACTOR
1002
}
  0
ARC
  5
2337
  8
SAPA_PROFIL
 62
     4
 10
144.44999992844501
 20
75.467448111920703
 30
0.0
 40
0.2999999999996135
 50
270.0000000000652
 51
359.99999999967429
1001
GENIUS_GENOBJ-N-FIL_13
1002
{
1000
OWNER
1000
GEN
1002
}
1001
GENIUS_GENODEF_13
1002
{
1000
HIER
1070
     0
1002
}
1002
{
1000
MANEDIT
1070
     0
1002
}
1002
{
1000
NOSEL
1070
     0
1002
}
1002
{
1000
BEHIND
1070
     0
1002
}
1002
{
1000
OTHER
1070
     0
1002
}
1002
{
1000
REACTOR
1002
}
  0
LINE
  5
2338
  8
SAPA_PROFIL
 62
     4
 10
144.74999992844459
 20
75.467448111918983
 30
0.0
 11
144.74999992844911
 21
76.117448111920908
 31
0.0
1001
GENIUS_GENOBJ-N-FIL_13
1002
{
1000
OWNER
1000
GEN
1002
}
1001
GENIUS_GENODEF_13
1002
{
1000
HIER
1070
     0
1002
}
1002
{
1000
MANEDIT
1070
     0
1002
}
1002
{
1000
NOSEL
1070
     0
1002
}
1002
{
1000
BEHIND
1070
     0
1002
}
1002
{
1000
OTHER
1070
     0
1002
}
1002
{
1000
REACTOR
1002
}
  0
ARC
  5
2339
  8
SAPA_PROFIL
 62
     4
 10
145.04999992844921
 20
76.117448111918975
 30
0.0
 40
0.3000000000000682
 50
89.999999999630887
 51
179.99999999963089
1001
GENIUS_GENOBJ-N-FIL_13
1002
{
1000
OWNER
1000
GEN
1002
}
1001
GENIUS_GENODEF_13
1002
{
1000
HIER
1070
     0
1002
}
1002
{
1000
MANEDIT
1070
     0
1002
}
1002
{
1000
NOSEL
1070
     0
1002
}
1002
{
1000
BEHIND
1070
     0
1002
}
1002
{
1000
OTHER
1070
     0
1002
}
1002
{
1000
REACTOR
1002
}
  0
LINE
  5
233A
  8
SAPA_PROFIL
 62
     4
 10
145.04999992845109
 20
76.417448111919043
 30
0.0
 11
145.24999992844371
 21
76.417448111917906
 31
0.0
1001
GENIUS_GENOBJ-N-FIL_13
1002
{
1000
OWNER
1000
GEN
1002
}
1001
GENIUS_GENODEF_13
1002
{
1000
HIER
1070
     0
1002
}
1002
{
1000
MANEDIT
1070
     0
1002
}
1002
{
1000
NOSEL
1070
     0
1002
}
1002
{
1000
BEHIND
1070
     0
1002
}
1002
{
1000
OTHER
1070
     0
1002
}
1002
{
1000
REACTOR
1002
}
  0
ARC
  5
233B
  8
SAPA_PROFIL
 62
     4
 10
145.24999992844371
 20
75.917448111917906
 30
0.0
 40
0.5
 50
0.0
 51
90.0
1001
GENIUS_GENOBJ-N-FIL_13
1002
{
1000
OWNER
1000
GEN
1002
}
1001
GENIUS_GENODEF_13
1002
{
1000
HIER
1070
     0
1002
}
1002
{
1000
MANEDIT
1070
     0
1002
}
1002
{
1000
NOSEL
1070
     0
1002
}
1002
{
1000
BEHIND
1070
     0
1002
}
1002
{
1000
OTHER
1070
     0
1002
}
1002
{
1000
REACTOR
1002
}
  0
LINE
  5
233C
  8
SAPA_PROFIL
 62
     4
 10
145.74999992844371
 20
75.917448111917906
 30
0.0
 11
145.74999992844371
 21
72.917448111917906
 31
0.0
1001
GENIUS_GENOBJ-N-FIL_13
1002
{
1000
OWNER
1000
GEN
1002
}
1001
GENIUS_GENODEF_13
1002
{
1000
HIER
1070
     0
1002
}
1002
{
1000
MANEDIT
1070
     0
1002
}
1002
{
1000
NOSEL
1070
     0
1002
}
1002
{
1000
BEHIND
1070
     0
1002
}
1002
{
1000
OTHER
1070
     0
1002
}
1002
{
1000
REACTOR
1002
}
  0
ARC
  5
233D
  8
SAPA_PROFIL
 62
     4
 10
145.24999992844371
 20
72.917448111917906
 30
0.0
 40
0.5
 50
270.0
 51
0.0
1001
GENIUS_GENOBJ-N-FIL_13
1002
{
1000
OWNER
1000
GEN
1002
}
1001
GENIUS_GENODEF_13
1002
{
1000
HIER
1070
     0
1002
}
1002
{
1000
MANEDIT
1070
     0
1002
}
1002
{
1000
NOSEL
1070
     0
1002
}
1002
{
1000
BEHIND
1070
     0
1002
}
1002
{
1000
OTHER
1070
     0
1002
}
1002
{
1000
REACTOR
1002
}
  0
LINE
  5
233E
  8
SAPA_PROFIL
 62
     4
 10
145.24999992844371
 20
72.417448111917906
 30
0.0
 11
145.04999992844381
 21
72.417448111917906
 31
0.0
1001
GENIUS_GENOBJ-N-FIL_13
1002
{
1000
OWNER
1000
GEN
1002
}
1001
GENIUS_GENODEF_13
1002
{
1000
HIER
1070
     0
1002
}
1002
{
1000
MANEDIT
1070
     0
1002
}
1002
{
1000
NOSEL
1070
     0
1002
}
1002
{
1000
BEHIND
1070
     0
1002
}
1002
{
1000
OTHER
1070
     0
1002
}
1002
{
1000
REACTOR
1002
}
  0
ARC
  5
233F
  8
SAPA_PROFIL
 62
     4
 10
145.04999992844381
 20
72.717448111918074
 30
0.0
 40
0.3000000000001819
 50
180.0
 51
270.0
1001
GENIUS_GENOBJ-N-FIL_13
1002
{
1000
OWNER
1000
GEN
1002
}
1001
GENIUS_GENODEF_13
1002
{
1000
HIER
1070
     0
1002
}
1002
{
1000
MANEDIT
1070
     0
1002
}
1002
{
1000
NOSEL
1070
     0
1002
}
1002
{
1000
BEHIND
1070
     0
1002
}
1002
{
1000
OTHER
1070
     0
1002
}
1002
{
1000
REACTOR
1002
}
  0
LINE
  5
2340
  8
SAPA_PROFIL
 62
     4
 10
144.74999992844371
 20
72.717448111918074
 30
0.0
 11
144.74999992844371
 21
73.367448111917952
 31
0.0
1001
GENIUS_GENOBJ-N-FIL_13
1002
{
1000
OWNER
1000
GEN
1002
}
1001
GENIUS_GENODEF_13
1002
{
1000
HIER
1070
     0
1002
}
1002
{
1000
MANEDIT
1070
     0
1002
}
1002
{
1000
NOSEL
1070
     0
1002
}
1002
{
1000
BEHIND
1070
     0
1002
}
1002
{
1000
OTHER
1070
     0
1002
}
1002
{
1000
REACTOR
1002
}
  0
ARC
  5
2341
  8
SAPA_PROFIL
 62
     4
 10
144.44999992844311
 20
73.367448111917383
 30
0.0
 40
0.300000000000523
 50
0.0000000001085629
 51
90.000000000108557
1001
GENIUS_GENOBJ-N-FIL_13
1002
{
1000
OWNER
1000
GEN
1002
}
1001
GENIUS_GENODEF_13
1002
{
1000
HIER
1070
     0
1002
}
1002
{
1000
MANEDIT
1070
     0
1002
}
1002
{
1000
NOSEL
1070
     0
1002
}
1002
{
1000
BEHIND
1070
     0
1002
}
1002
{
1000
OTHER
1070
     0
1002
}
1002
{
1000
REACTOR
1002
}
  0
LINE
  5
2342
  8
SAPA_PROFIL
 62
     4
 10
144.44999992844259
 20
73.667448111917906
 30
0.0
 11
143.5499999284466
 21
73.667448111917906
 31
0.0
1001
GENIUS_GENOBJ-N-FIL_13
1002
{
1000
OWNER
1000
GEN
1002
}
1001
GENIUS_GENODEF_13
1002
{
1000
HIER
1070
     0
1002
}
1002
{
1000
MANEDIT
1070
     0
1002
}
1002
{
1000
NOSEL
1070
     0
1002
}
1002
{
1000
BEHIND
1070
     0
1002
}
1002
{
1000
OTHER
1070
     0
1002
}
1002
{
1000
REACTOR
1002
}
  0
ARC
  5
2343
  8
SAPA_PROFIL
 62
     4
 10
143.5499999284466
 20
73.167448111917906
 30
0.0
 40
0.5
 50
90.0
 51
180.0
1001
GENIUS_GENOBJ-N-FIL_13
1002
{
1000
OWNER
1000
GEN
1002
}
1001
GENIUS_GENODEF_13
1002
{
1000
HIER
1070
     0
1002
}
1002
{
1000
MANEDIT
1070
     0
1002
}
1002
{
1000
NOSEL
1070
     0
1002
}
1002
{
1000
BEHIND
1070
     0
1002
}
1002
{
1000
OTHER
1070
     0
1002
}
1002
{
1000
REACTOR
1002
}
  0
LINE
  5
2344
  8
SAPA_PROFIL
 62
     4
 10
143.0499999284466
 20
73.167448111917906
 30
0.0
 11
143.0499999284466
 21
67.167448111917906
 31
0.0
1001
GENIUS_GENOBJ-N-FIL_13
1002
{
1000
OWNER
1000
GEN
1002
}
1001
GENIUS_GENODEF_13
1002
{
1000
HIER
1070
     0
1002
}
1002
{
1000
MANEDIT
1070
     0
1002
}
1002
{
1000
NOSEL
1070
     0
1002
}
1002
{
1000
BEHIND
1070
     0
1002
}
1002
{
1000
OTHER
1070
     0
1002
}
1002
{
1000
REACTOR
1002
}
  0
ARC
  5
2345
  8
SAPA_PROFIL
 62
     4
 10
143.5499999284466
 20
67.167448111917906
 30
0.0
 40
0.5
 50
180.0
 51
270.0
1001
GENIUS_GENOBJ-N-FIL_13
1002
{
1000
OWNER
1000
GEN
1002
}
1001
GENIUS_GENODEF_13
1002
{
1000
HIER
1070
     0
1002
}
1002
{
1000
MANEDIT
1070
     0
1002
}
1002
{
1000
NOSEL
1070
     0
1002
}
1002
{
1000
BEHIND
1070
     0
1002
}
1002
{
1000
OTHER
1070
     0
1002
}
1002
{
1000
REACTOR
1002
}
  0
LINE
  5
2346
  8
SAPA_PROFIL
 62
     4
 10
143.5499999284466
 20
66.667448111917906
 30
0.0
 11
144.44999992844259
 21
66.667448111917906
 31
0.0
1001
GENIUS_GENOBJ-N-FIL_13
1002
{
1000
OWNER
1000
GEN
1002
}
1001
GENIUS_GENODEF_13
1002
{
1000
HIER
1070
     0
1002
}
1002
{
1000
MANEDIT
1070
     0
1002
}
1002
{
1000
NOSEL
1070
     0
1002
}
1002
{
1000
BEHIND
1070
     0
1002
}
1002
{
1000
OTHER
1070
     0
1002
}
1002
{
1000
REACTOR
1002
}
  0
ARC
  5
2347
  8
SAPA_PROFIL
 62
     4
 10
144.44999992844299
 20
66.967448111918543
 30
0.0
 40
0.3000000000006366
 50
269.99999999991309
 51
359.99999999991309
1001
GENIUS_GENOBJ-N-FIL_13
1002
{
1000
OWNER
1000
GEN
1002
}
1001
GENIUS_GENODEF_13
1002
{
1000
HIER
1070
     0
1002
}
1002
{
1000
MANEDIT
1070
     0
1002
}
1002
{
1000
NOSEL
1070
     0
1002
}
1002
{
1000
BEHIND
1070
     0
1002
}
1002
{
1000
OTHER
1070
     0
1002
}
1002
{
1000
REACTOR
1002
}
  0
LINE
  5
2348
  8
SAPA_PROFIL
 62
     4
 10
144.74999992844371
 20
66.967448111918088
 30
0.0
 11
144.74999992844371
 21
67.617448111917952
 31
0.0
1001
GENIUS_GENOBJ-N-FIL_13
1002
{
1000
OWNER
1000
GEN
1002
}
1001
GENIUS_GENODEF_13
1002
{
1000
HIER
1070
     0
1002
}
1002
{
1000
MANEDIT
1070
     0
1002
}
1002
{
1000
NOSEL
1070
     0
1002
}
1002
{
1000
BEHIND
1070
     0
1002
}
1002
{
1000
OTHER
1070
     0
1002
}
1002
{
1000
REACTOR
1002
}
  0
ARC
  5
2349
  8
SAPA_PROFIL
 62
     4
 10
145.0499999284437
 20
67.617448111917838
 30
0.0
 40
0.3000000000000682
 50
89.999999999978314
 51
179.99999999997829
1001
GENIUS_GENOBJ-N-FIL_13
1002
{
1000
OWNER
1000
GEN
1002
}
1001
GENIUS_GENODEF_13
1002
{
1000
HIER
1070
     0
1002
}
1002
{
1000
MANEDIT
1070
     0
1002
}
1002
{
1000
NOSEL
1070
     0
1002
}
1002
{
1000
BEHIND
1070
     0
1002
}
1002
{
1000
OTHER
1070
     0
1002
}
1002
{
1000
REACTOR
1002
}
  0
LINE
  5
234A
  8
SAPA_PROFIL
 62
     4
 10
145.04999992844381
 20
67.917448111917906
 30
0.0
 11
145.24999992844371
 21
67.917448111917906
 31
0.0
1001
GENIUS_GENOBJ-N-FIL_13
1002
{
1000
OWNER
1000
GEN
1002
}
1001
GENIUS_GENODEF_13
1002
{
1000
HIER
1070
     0
1002
}
1002
{
1000
MANEDIT
1070
     0
1002
}
1002
{
1000
NOSEL
1070
     0
1002
}
1002
{
1000
BEHIND
1070
     0
1002
}
1002
{
1000
OTHER
1070
     0
1002
}
1002
{
1000
REACTOR
1002
}
  0
ARC
  5
234B
  8
SAPA_PROFIL
 62
     4
 10
145.24999992844371
 20
67.417448111917906
 30
0.0
 40
0.5
 50
0.0
 51
90.0
1001
GENIUS_GENOBJ-N-FIL_13
1002
{
1000
OWNER
1000
GEN
1002
}
1001
GENIUS_GENODEF_13
1002
{
1000
HIER
1070
     0
1002
}
1002
{
1000
MANEDIT
1070
     0
1002
}
1002
{
1000
NOSEL
1070
     0
1002
}
1002
{
1000
BEHIND
1070
     0
1002
}
1002
{
1000
OTHER
1070
     0
1002
}
1002
{
1000
REACTOR
1002
}
  0
LINE
  5
234C
  8
SAPA_PROFIL
 62
     4
 10
145.74999992844371
 20
67.417448111917906
 30
0.0
 11
145.74999992844269
 21
65.667448111917906
 31
0.0
1001
GENIUS_GENOBJ-N-FIL_13
1002
{
1000
OWNER
1000
GEN
1002
}
1001
GENIUS_GENODEF_13
1002
{
1000
HIER
1070
     0
1002
}
1002
{
1000
MANEDIT
1070
     0
1002
}
1002
{
1000
NOSEL
1070
     0
1002
}
1002
{
1000
BEHIND
1070
     0
1002
}
1002
{
1000
OTHER
1070
     0
1002
}
1002
{
1000
REACTOR
1002
}
  0
ARC
  5
234D
  8
SAPA_PROFIL
 62
     4
 10
145.24999992827551
 20
65.66744811208514
 30
0.0
 40
0.5000000001672335
 50
269.99999998091471
 51
359.99999998083649
1001
GENIUS_GENOBJ-N-FIL_13
1002
{
1000
OWNER
1000
GEN
1002
}
1001
GENIUS_GENODEF_13
1002
{
1000
HIER
1070
     0
1002
}
1002
{
1000
MANEDIT
1070
     0
1002
}
1002
{
1000
NOSEL
1070
     0
1002
}
1002
{
1000
BEHIND
1070
     0
1002
}
1002
{
1000
OTHER
1070
     0
1002
}
1002
{
1000
REACTOR
1002
}
  0
LINE
  5
234E
  8
SAPA_PROFIL
 62
     4
 10
145.24999992810899
 20
65.167448111917906
 30
0.0
 11
132.24999992810169
 21
65.167448111917679
 31
0.0
1001
GENIUS_GENOBJ-N-FIL_13
1002
{
1000
OWNER
1000
GEN
1002
}
1001
GENIUS_GENODEF_13
1002
{
1000
HIER
1070
     0
1002
}
1002
{
1000
MANEDIT
1070
     0
1002
}
1002
{
1000
NOSEL
1070
     0
1002
}
1002
{
1000
BEHIND
1070
     0
1002
}
1002
{
1000
OTHER
1070
     0
1002
}
1002
{
1000
REACTOR
1002
}
  0
ARC
  5
234F
  8
SAPA_PROFIL
 62
     4
 10
132.24999992796251
 20
65.667448112055013
 30
0.0
 40
0.5000000001373337
 50
180.00000001591971
 51
270.00000001594572
1001
GENIUS_GENOBJ-N-FIL_13
1002
{
1000
OWNER
1000
GEN
1002
}
1001
GENIUS_GENODEF_13
1002
{
1000
HIER
1070
     0
1002
}
1002
{
1000
MANEDIT
1070
     0
1002
}
1002
{
1000
NOSEL
1070
     0
1002
}
1002
{
1000
BEHIND
1070
     0
1002
}
1002
{
1000
OTHER
1070
     0
1002
}
1002
{
1000
REACTOR
1002
}
  0
LINE
  5
2350
  8
SAPA_PROFIL
 62
     4
 10
131.7499999278252
 20
65.667448111916073
 30
0.0
 11
131.7499999278252
 21
67.417448111916073
 31
0.0
1001
GENIUS_GENOBJ-N-FIL_13
1002
{
1000
OWNER
1000
GEN
1002
}
1001
GENIUS_GENODEF_13
1002
{
1000
HIER
1070
     0
1002
}
1002
{
1000
MANEDIT
1070
     0
1002
}
1002
{
1000
NOSEL
1070
     0
1002
}
1002
{
1000
BEHIND
1070
     0
1002
}
1002
{
1000
OTHER
1070
     0
1002
}
1002
{
1000
REACTOR
1002
}
  0
ARC
  5
2351
  8
SAPA_PROFIL
 62
     4
 10
132.2499999278252
 20
67.417448111916073
 30
0.0
 40
0.5
 50
90.0
 51
180.0
1001
GENIUS_GENOBJ-N-FIL_13
1002
{
1000
OWNER
1000
GEN
1002
}
1001
GENIUS_GENODEF_13
1002
{
1000
HIER
1070
     0
1002
}
1002
{
1000
MANEDIT
1070
     0
1002
}
1002
{
1000
NOSEL
1070
     0
1002
}
1002
{
1000
BEHIND
1070
     0
1002
}
1002
{
1000
OTHER
1070
     0
1002
}
1002
{
1000
REACTOR
1002
}
  0
LINE
  5
2352
  8
SAPA_PROFIL
 62
     4
 10
132.2499999278252
 20
67.917448111916087
 30
0.0
 11
132.44999992782499
 21
67.917448111916087
 31
0.0
1001
GENIUS_GENOBJ-N-FIL_13
1002
{
1000
OWNER
1000
GEN
1002
}
1001
GENIUS_GENODEF_13
1002
{
1000
HIER
1070
     0
1002
}
1002
{
1000
MANEDIT
1070
     0
1002
}
1002
{
1000
NOSEL
1070
     0
1002
}
1002
{
1000
BEHIND
1070
     0
1002
}
1002
{
1000
OTHER
1070
     0
1002
}
1002
{
1000
REACTOR
1002
}
  0
ARC
  5
2353
  8
SAPA_PROFIL
 62
     4
 10
132.44999992782499
 20
67.617448111915905
 30
0.0
 40
0.3000000000001819
 50
0.0
 51
90.0
1001
GENIUS_GENOBJ-N-FIL_13
1002
{
1000
OWNER
1000
GEN
1002
}
1001
GENIUS_GENODEF_13
1002
{
1000
HIER
1070
     0
1002
}
1002
{
1000
MANEDIT
1070
     0
1002
}
1002
{
1000
NOSEL
1070
     0
1002
}
1002
{
1000
BEHIND
1070
     0
1002
}
1002
{
1000
OTHER
1070
     0
1002
}
1002
{
1000
REACTOR
1002
}
  0
LINE
  5
2354
  8
SAPA_PROFIL
 62
     4
 10
132.7499999278252
 20
67.617448111915905
 30
0.0
 11
132.7499999278252
 21
66.967448111916042
 31
0.0
1001
GENIUS_GENOBJ-N-FIL_13
1002
{
1000
OWNER
1000
GEN
1002
}
1001
GENIUS_GENODEF_13
1002
{
1000
HIER
1070
     0
1002
}
1002
{
1000
MANEDIT
1070
     0
1002
}
1002
{
1000
NOSEL
1070
     0
1002
}
1002
{
1000
BEHIND
1070
     0
1002
}
1002
{
1000
OTHER
1070
     0
1002
}
1002
{
1000
REACTOR
1002
}
  0
ARC
  5
2355
  8
SAPA_PROFIL
 62
     4
 10
133.04999992782481
 20
66.967448111915701
 30
0.0
 40
0.2999999999996135
 50
179.9999999999348
 51
269.99999999993491
1001
GENIUS_GENOBJ-N-FIL_13
1002
{
1000
OWNER
1000
GEN
1002
}
1001
GENIUS_GENODEF_13
1002
{
1000
HIER
1070
     0
1002
}
1002
{
1000
MANEDIT
1070
     0
1002
}
1002
{
1000
NOSEL
1070
     0
1002
}
1002
{
1000
BEHIND
1070
     0
1002
}
1002
{
1000
OTHER
1070
     0
1002
}
1002
{
1000
REACTOR
1002
}
  0
LINE
  5
2356
  8
SAPA_PROFIL
 62
     4
 10
133.0499999278245
 20
66.667448111916087
 30
0.0
 11
133.94999992782229
 21
66.667448111916087
 31
0.0
1001
GENIUS_GENOBJ-N-FIL_13
1002
{
1000
OWNER
1000
GEN
1002
}
1001
GENIUS_GENODEF_13
1002
{
1000
HIER
1070
     0
1002
}
1002
{
1000
MANEDIT
1070
     0
1002
}
1002
{
1000
NOSEL
1070
     0
1002
}
1002
{
1000
BEHIND
1070
     0
1002
}
1002
{
1000
OTHER
1070
     0
1002
}
1002
{
1000
REACTOR
1002
}
  0
ARC
  5
2357
  8
SAPA_PROFIL
 62
     4
 10
133.94999992782229
 20
67.167448111916087
 30
0.0
 40
0.5
 50
270.0
 51
0.0
1001
GENIUS_GENOBJ-N-FIL_13
1002
{
1000
OWNER
1000
GEN
1002
}
1001
GENIUS_GENODEF_13
1002
{
1000
HIER
1070
     0
1002
}
1002
{
1000
MANEDIT
1070
     0
1002
}
1002
{
1000
NOSEL
1070
     0
1002
}
1002
{
1000
BEHIND
1070
     0
1002
}
1002
{
1000
OTHER
1070
     0
1002
}
1002
{
1000
REACTOR
1002
}
  0
LINE
  5
2358
  8
SAPA_PROFIL
 62
     4
 10
134.44999992782229
 20
67.167448111916087
 30
0.0
 11
134.44999992782229
 21
73.167448111916073
 31
0.0
1001
GENIUS_GENOBJ-N-FIL_13
1002
{
1000
OWNER
1000
GEN
1002
}
1001
GENIUS_GENODEF_13
1002
{
1000
HIER
1070
     0
1002
}
1002
{
1000
MANEDIT
1070
     0
1002
}
1002
{
1000
NOSEL
1070
     0
1002
}
1002
{
1000
BEHIND
1070
     0
1002
}
1002
{
1000
OTHER
1070
     0
1002
}
1002
{
1000
REACTOR
1002
}
  0
ARC
  5
2359
  8
SAPA_PROFIL
 62
     4
 10
133.94999992782229
 20
73.167448111916073
 30
0.0
 40
0.5
 50
0.0
 51
90.0
1001
GENIUS_GENOBJ-N-FIL_13
1002
{
1000
OWNER
1000
GEN
1002
}
1001
GENIUS_GENODEF_13
1002
{
1000
HIER
1070
     0
1002
}
1002
{
1000
MANEDIT
1070
     0
1002
}
1002
{
1000
NOSEL
1070
     0
1002
}
1002
{
1000
BEHIND
1070
     0
1002
}
1002
{
1000
OTHER
1070
     0
1002
}
1002
{
1000
REACTOR
1002
}
  0
LINE
  5
235A
  8
SAPA_PROFIL
 62
     4
 10
133.94999992782229
 20
73.667448111916073
 30
0.0
 11
133.0499999278245
 21
73.667448111916073
 31
0.0
1001
GENIUS_GENOBJ-N-FIL_13
1002
{
1000
OWNER
1000
GEN
1002
}
1001
GENIUS_GENODEF_13
1002
{
1000
HIER
1070
     0
1002
}
1002
{
1000
MANEDIT
1070
     0
1002
}
1002
{
1000
NOSEL
1070
     0
1002
}
1002
{
1000
BEHIND
1070
     0
1002
}
1002
{
1000
OTHER
1070
     0
1002
}
1002
{
1000
REACTOR
1002
}
  0
ARC
  5
235B
  8
SAPA_PROFIL
 62
     4
 10
133.0499999278249
 20
73.36744811191636
 30
0.0
 40
0.2999999999997271
 50
90.000000000086857
 51
180.0000000000868
1001
GENIUS_GENOBJ-N-FIL_13
1002
{
1000
OWNER
1000
GEN
1002
}
1001
GENIUS_GENODEF_13
1002
{
1000
HIER
1070
     0
1002
}
1002
{
1000
MANEDIT
1070
     0
1002
}
1002
{
1000
NOSEL
1070
     0
1002
}
1002
{
1000
BEHIND
1070
     0
1002
}
1002
{
1000
OTHER
1070
     0
1002
}
1002
{
1000
REACTOR
1002
}
  0
LINE
  5
235C
  8
SAPA_PROFIL
 62
     4
 10
132.7499999278252
 20
73.367448111915905
 30
0.0
 11
132.7499999278252
 21
72.717448111916042
 31
0.0
1001
GENIUS_GENOBJ-N-FIL_13
1002
{
1000
OWNER
1000
GEN
1002
}
1001
GENIUS_GENODEF_13
1002
{
1000
HIER
1070
     0
1002
}
1002
{
1000
MANEDIT
1070
     0
1002
}
1002
{
1000
NOSEL
1070
     0
1002
}
1002
{
1000
BEHIND
1070
     0
1002
}
1002
{
1000
OTHER
1070
     0
1002
}
1002
{
1000
REACTOR
1002
}
  0
ARC
  5
235D
  8
SAPA_PROFIL
 62
     4
 10
132.4499999278251
 20
72.717448111916156
 30
0.0
 40
0.3000000000000682
 50
269.99999999997829
 51
359.99999999997829
1001
GENIUS_GENOBJ-N-FIL_13
1002
{
1000
OWNER
1000
GEN
1002
}
1001
GENIUS_GENODEF_13
1002
{
1000
HIER
1070
     0
1002
}
1002
{
1000
MANEDIT
1070
     0
1002
}
1002
{
1000
NOSEL
1070
     0
1002
}
1002
{
1000
BEHIND
1070
     0
1002
}
1002
{
1000
OTHER
1070
     0
1002
}
1002
{
1000
REACTOR
1002
}
  0
LINE
  5
235E
  8
SAPA_PROFIL
 62
     4
 10
132.44999992782499
 20
72.417448111916073
 30
0.0
 11
132.2499999278252
 21
72.417448111916073
 31
0.0
1001
GENIUS_GENOBJ-N-FIL_13
1002
{
1000
OWNER
1000
GEN
1002
}
1001
GENIUS_GENODEF_13
1002
{
1000
HIER
1070
     0
1002
}
1002
{
1000
MANEDIT
1070
     0
1002
}
1002
{
1000
NOSEL
1070
     0
1002
}
1002
{
1000
BEHIND
1070
     0
1002
}
1002
{
1000
OTHER
1070
     0
1002
}
1002
{
1000
REACTOR
1002
}
  0
ARC
  5
235F
  8
SAPA_PROFIL
 62
     4
 10
132.2499999278252
 20
72.917448111916087
 30
0.0
 40
0.5
 50
180.0
 51
270.0
1001
GENIUS_GENOBJ-N-FIL_13
1002
{
1000
OWNER
1000
GEN
1002
}
1001
GENIUS_GENODEF_13
1002
{
1000
HIER
1070
     0
1002
}
1002
{
1000
MANEDIT
1070
     0
1002
}
1002
{
1000
NOSEL
1070
     0
1002
}
1002
{
1000
BEHIND
1070
     0
1002
}
1002
{
1000
OTHER
1070
     0
1002
}
1002
{
1000
REACTOR
1002
}
  0
LINE
  5
2360
  8
SAPA_PROFIL
 62
     4
 10
131.7499999278252
 20
72.917448111916087
 30
0.0
 11
131.7499999278252
 21
75.917448111916087
 31
0.0
1001
GENIUS_GENOBJ-N-FIL_13
1002
{
1000
OWNER
1000
GEN
1002
}
1001
GENIUS_GENODEF_13
1002
{
1000
HIER
1070
     0
1002
}
1002
{
1000
MANEDIT
1070
     0
1002
}
1002
{
1000
NOSEL
1070
     0
1002
}
1002
{
1000
BEHIND
1070
     0
1002
}
1002
{
1000
OTHER
1070
     0
1002
}
1002
{
1000
REACTOR
1002
}
  0
ARC
  5
2361
  8
SAPA_PROFIL
 62
     4
 10
132.2499999278252
 20
75.917448111916087
 30
0.0
 40
0.5
 50
90.0
 51
180.0
1001
GENIUS_GENOBJ-N-FIL_13
1002
{
1000
OWNER
1000
GEN
1002
}
1001
GENIUS_GENODEF_13
1002
{
1000
HIER
1070
     0
1002
}
1002
{
1000
MANEDIT
1070
     0
1002
}
1002
{
1000
NOSEL
1070
     0
1002
}
1002
{
1000
BEHIND
1070
     0
1002
}
1002
{
1000
OTHER
1070
     0
1002
}
1002
{
1000
REACTOR
1002
}
  0
LINE
  5
2362
  8
SAPA_PROFIL
 62
     4
 10
132.2499999278252
 20
76.417448111916087
 30
0.0
 11
132.44999992781769
 21
76.417448111917224
 31
0.0
1001
GENIUS_GENOBJ-N-FIL_13
1002
{
1000
OWNER
1000
GEN
1002
}
1001
GENIUS_GENODEF_13
1002
{
1000
HIER
1070
     0
1002
}
1002
{
1000
MANEDIT
1070
     0
1002
}
1002
{
1000
NOSEL
1070
     0
1002
}
1002
{
1000
BEHIND
1070
     0
1002
}
1002
{
1000
OTHER
1070
     0
1002
}
1002
{
1000
REACTOR
1002
}
  0
ARC
  5
2363
  8
SAPA_PROFIL
 62
     4
 10
132.44999992781959
 20
76.117448111917042
 30
0.0
 40
0.3000000000001819
 50
0.0000000003908266
 51
90.000000000347399
1001
GENIUS_GENOBJ-N-FIL_13
1002
{
1000
OWNER
1000
GEN
1002
}
1001
GENIUS_GENODEF_13
1002
{
1000
HIER
1070
     0
1002
}
1002
{
1000
MANEDIT
1070
     0
1002
}
1002
{
1000
NOSEL
1070
     0
1002
}
1002
{
1000
BEHIND
1070
     0
1002
}
1002
{
1000
OTHER
1070
     0
1002
}
1002
{
1000
REACTOR
1002
}
  0
LINE
  5
2364
  8
SAPA_PROFIL
 62
     4
 10
132.74999992781969
 20
76.117448111919089
 30
0.0
 11
132.7499999278225
 21
75.467448111918088
 31
0.0
1001
GENIUS_GENOBJ-N-FIL_13
1002
{
1000
OWNER
1000
GEN
1002
}
1001
GENIUS_GENODEF_13
1002
{
1000
HIER
1070
     0
1002
}
1002
{
1000
MANEDIT
1070
     0
1002
}
1002
{
1000
NOSEL
1070
     0
1002
}
1002
{
1000
BEHIND
1070
     0
1002
}
1002
{
1000
OTHER
1070
     0
1002
}
1002
{
1000
REACTOR
1002
}
  0
ARC
  5
2365
  8
SAPA_PROFIL
 62
     4
 10
133.049999927823
 20
75.467448111919566
 30
0.0
 40
0.300000000000523
 50
180.0000000002822
 51
270.00000000010863
1001
GENIUS_GENOBJ-N-FIL_13
1002
{
1000
OWNER
1000
GEN
1002
}
1001
GENIUS_GENODEF_13
1002
{
1000
HIER
1070
     0
1002
}
1002
{
1000
MANEDIT
1070
     0
1002
}
1002
{
1000
NOSEL
1070
     0
1002
}
1002
{
1000
BEHIND
1070
     0
1002
}
1002
{
1000
OTHER
1070
     0
1002
}
1002
{
1000
REACTOR
1002
}
  0
LINE
  5
2366
  8
SAPA_PROFIL
 62
     4
 10
133.04999992782359
 20
75.167448111919043
 30
0.0
 11
133.94999992782229
 21
75.167448111919043
 31
0.0
1001
GENIUS_GENOBJ-N-FIL_13
1002
{
1000
OWNER
1000
GEN
1002
}
1001
GENIUS_GENODEF_13
1002
{
1000
HIER
1070
     0
1002
}
1002
{
1000
MANEDIT
1070
     0
1002
}
1002
{
1000
NOSEL
1070
     0
1002
}
1002
{
1000
BEHIND
1070
     0
1002
}
1002
{
1000
OTHER
1070
     0
1002
}
1002
{
1000
REACTOR
1002
}
  0
ARC
  5
2367
  8
SAPA_PROFIL
 62
     4
 10
133.94999992782229
 20
75.667448111919043
 30
0.0
 40
0.5
 50
270.0
 51
0.0
1001
GENIUS_GENOBJ-N-FIL_13
1002
{
1000
OWNER
1000
GEN
1002
}
1001
GENIUS_GENODEF_13
1002
{
1000
HIER
1070
     0
1002
}
1002
{
1000
MANEDIT
1070
     0
1002
}
1002
{
1000
NOSEL
1070
     0
1002
}
1002
{
1000
BEHIND
1070
     0
1002
}
1002
{
1000
OTHER
1070
     0
1002
}
1002
{
1000
REACTOR
1002
}
  0
LINE
  5
2368
  8
SAPA_PROFIL
 62
     4
 10
134.44999992782229
 20
75.667448111919043
 30
0.0
 11
134.44999992781501
 21
81.667448111921075
 31
0.0
1001
GENIUS_GENOBJ-N-FIL_13
1002
{
1000
OWNER
1000
GEN
1002
}
1001
GENIUS_GENODEF_13
1002
{
1000
HIER
1070
     0
1002
}
1002
{
1000
MANEDIT
1070
     0
1002
}
1002
{
1000
NOSEL
1070
     0
1002
}
1002
{
1000
BEHIND
1070
     0
1002
}
1002
{
1000
OTHER
1070
     0
1002
}
1002
{
1000
REACTOR
1002
}
  0
ARC
  5
2369
  8
SAPA_PROFIL
 62
     4
 10
133.94999992781501
 20
81.667448111921075
 30
0.0
 40
0.5
 50
0.0
 51
90.0
1001
GENIUS_GENOBJ-N-FIL_13
1002
{
1000
OWNER
1000
GEN
1002
}
1001
GENIUS_GENODEF_13
1002
{
1000
HIER
1070
     0
1002
}
1002
{
1000
MANEDIT
1070
     0
1002
}
1002
{
1000
NOSEL
1070
     0
1002
}
1002
{
1000
BEHIND
1070
     0
1002
}
1002
{
1000
OTHER
1070
     0
1002
}
1002
{
1000
REACTOR
1002
}
  0
LINE
  5
236A
  8
SAPA_PROFIL
 62
     4
 10
133.94999992781501
 20
82.16744811192109
 30
0.0
 11
133.04999992781811
 21
82.16744811192109
 31
0.0
1001
GENIUS_GENOBJ-N-FIL_13
1002
{
1000
OWNER
1000
GEN
1002
}
1001
GENIUS_GENODEF_13
1002
{
1000
HIER
1070
     0
1002
}
1002
{
1000
MANEDIT
1070
     0
1002
}
1002
{
1000
NOSEL
1070
     0
1002
}
1002
{
1000
BEHIND
1070
     0
1002
}
1002
{
1000
OTHER
1070
     0
1002
}
1002
{
1000
REACTOR
1002
}
  0
ARC
  5
236B
  8
SAPA_PROFIL
 62
     4
 10
133.04999992781811
 20
81.867448111920893
 30
0.0
 40
0.3000000000001819
 50
90.0
 51
180.0
1001
GENIUS_GENOBJ-N-FIL_13
1002
{
1000
OWNER
1000
GEN
1002
}
1001
GENIUS_GENODEF_13
1002
{
1000
HIER
1070
     0
1002
}
1002
{
1000
MANEDIT
1070
     0
1002
}
1002
{
1000
NOSEL
1070
     0
1002
}
1002
{
1000
BEHIND
1070
     0
1002
}
1002
{
1000
OTHER
1070
     0
1002
}
1002
{
1000
REACTOR
1002
}
  0
LINE
  5
236C
  8
SAPA_PROFIL
 62
     4
 10
132.7499999278179
 20
81.867448111920893
 30
0.0
 11
132.7499999278179
 21
81.217448111918998
 31
0.0
1001
GENIUS_GENOBJ-N-FIL_13
1002
{
1000
OWNER
1000
GEN
1002
}
1001
GENIUS_GENODEF_13
1002
{
1000
HIER
1070
     0
1002
}
1002
{
1000
MANEDIT
1070
     0
1002
}
1002
{
1000
NOSEL
1070
     0
1002
}
1002
{
1000
BEHIND
1070
     0
1002
}
1002
{
1000
OTHER
1070
     0
1002
}
1002
{
1000
REACTOR
1002
}
  0
ARC
  5
236D
  8
SAPA_PROFIL
 62
     4
 10
132.44999992781791
 20
81.217448111919111
 30
0.0
 40
0.3000000000000682
 50
269.99999999997829
 51
359.99999999997829
1001
GENIUS_GENOBJ-N-FIL_13
1002
{
1000
OWNER
1000
GEN
1002
}
1001
GENIUS_GENODEF_13
1002
{
1000
HIER
1070
     0
1002
}
1002
{
1000
MANEDIT
1070
     0
1002
}
1002
{
1000
NOSEL
1070
     0
1002
}
1002
{
1000
BEHIND
1070
     0
1002
}
1002
{
1000
OTHER
1070
     0
1002
}
1002
{
1000
REACTOR
1002
}
  0
LINE
  5
236E
  8
SAPA_PROFIL
 62
     4
 10
132.44999992781769
 20
80.917448111919043
 30
0.0
 11
132.2499999278179
 21
80.917448111919043
 31
0.0
1001
GENIUS_GENOBJ-N-FIL_13
1002
{
1000
OWNER
1000
GEN
1002
}
1001
GENIUS_GENODEF_13
1002
{
1000
HIER
1070
     0
1002
}
1002
{
1000
MANEDIT
1070
     0
1002
}
1002
{
1000
NOSEL
1070
     0
1002
}
1002
{
1000
BEHIND
1070
     0
1002
}
1002
{
1000
OTHER
1070
     0
1002
}
1002
{
1000
REACTOR
1002
}
  0
ARC
  5
236F
  8
SAPA_PROFIL
 62
     4
 10
132.2499999278179
 20
81.417448111919029
 30
0.0
 40
0.5
 50
180.0
 51
270.0
1001
GENIUS_GENOBJ-N-FIL_13
1002
{
1000
OWNER
1000
GEN
1002
}
1001
GENIUS_GENODEF_13
1002
{
1000
HIER
1070
     0
1002
}
1002
{
1000
MANEDIT
1070
     0
1002
}
1002
{
1000
NOSEL
1070
     0
1002
}
1002
{
1000
BEHIND
1070
     0
1002
}
1002
{
1000
OTHER
1070
     0
1002
}
1002
{
1000
REACTOR
1002
}
  0
LINE
  5
2370
  8
SAPA_PROFIL
 62
     4
 10
131.7499999278179
 20
81.417448111919029
 30
0.0
 11
131.74999992789981
 21
107.2151831388429
 31
0.0
1001
GENIUS_GENOBJ-N-FIL_13
1002
{
1000
OWNER
1000
GEN
1002
}
1001
GENIUS_GENODEF_13
1002
{
1000
HIER
1070
     0
1002
}
1002
{
1000
MANEDIT
1070
     0
1002
}
1002
{
1000
NOSEL
1070
     0
1002
}
1002
{
1000
BEHIND
1070
     0
1002
}
1002
{
1000
OTHER
1070
     0
1002
}
1002
{
1000
REACTOR
1002
}
  0
ARC
  5
2371
  8
SAPA_PROFIL
 62
     4
 10
130.54999992789999
 20
107.215183138847
 30
0.0
 40
1.1999999999998181
 50
359.99999999980457
 51
90.0
1001
GENIUS_GENOBJ-N-FIL_13
1002
{
1000
OWNER
1000
GEN
1002
}
1001
GENIUS_GENODEF_13
1002
{
1000
HIER
1070
     0
1002
}
1002
{
1000
MANEDIT
1070
     0
1002
}
1002
{
1000
NOSEL
1070
     0
1002
}
1002
{
1000
BEHIND
1070
     0
1002
}
1002
{
1000
OTHER
1070
     0
1002
}
1002
{
1000
REACTOR
1002
}
  0
LINE
  5
2372
  8
SAPA_PROFIL
 62
     4
 10
130.54999992789999
 20
108.4151831388468
 30
0.0
 11
127.8215185778199
 21
108.415183138847
 31
0.0
1001
GENIUS_GENOBJ-N-FIL_13
1002
{
1000
OWNER
1000
GEN
1002
}
1001
GENIUS_GENODEF_13
1002
{
1000
HIER
1070
     0
1002
}
1002
{
1000
MANEDIT
1070
     0
1002
}
1002
{
1000
NOSEL
1070
     0
1002
}
1002
{
1000
BEHIND
1070
     0
1002
}
1002
{
1000
OTHER
1070
     0
1002
}
1002
{
1000
REACTOR
1002
}
  0
LINE
  5
2373
  8
SAPA_PROFIL
 62
     4
 10
135.4499999958652
 20
83.451709582436592
 30
0.0
 11
142.94999999642371
 21
83.451709582440685
 31
0.0
  0
ARC
  5
2374
  8
SAPA_PROFIL
 62
     4
 10
142.94999999642371
 20
84.451709582440685
 30
0.0
 40
1.0
 50
270.0
 51
0.0
  0
LINE
  5
2375
  8
SAPA_PROFIL
 62
     4
 10
143.94999999642371
 20
84.451709582440685
 30
0.0
 11
143.94999999643909
 21
107.5994446093645
 31
0.0
  0
ARC
  5
2376
  8
SAPA_PROFIL
 62
     4
 10
143.14999999643891
 20
107.5994446093645
 30
0.0
 40
0.8000000000001818
 50
0.0
 51
90.0
  0
LINE
  5
2377
  8
SAPA_PROFIL
 62
     4
 10
143.14999999643891
 20
108.39944460936459
 30
0.0
 11
134.34999999592031
 21
108.39944460936459
 31
0.0
  0
ARC
  5
2378
  8
SAPA_PROFIL
 62
     4
 10
134.34999999592031
 20
107.5994446093645
 30
0.0
 40
0.8000000000001818
 50
90.0
 51
180.00000000006511
  0
LINE
  5
2379
  8
SAPA_PROFIL
 62
     4
 10
133.54999999592019
 20
107.5994446093635
 30
0.0
 11
133.54999999594381
 21
84.451709582436592
 31
0.0
  0
ARC
  5
237A
  8
SAPA_PROFIL
 62
     4
 10
134.54999999594341
 20
84.451709582438184
 30
0.0
 40
0.9999999999995453
 50
180.00000000009121
 51
269.99999999997391
  0
LINE
  5
237B
  8
SAPA_PROFIL
 62
     4
 10
134.5499999959429
 20
83.451709582438639
 30
0.0
 11
135.4499999958652
 21
83.451709582436592
 31
0.0
  0
DIMENSION
  5
2398
  8
SAPA_MATT
  2
*D16
 10
213.74999992810399
 20
20.99944465005569
 30
0.0
 11
211.24999992807511
 21
20.99944465005569
 31
0.0
 70
   128
 13
208.74999992804629
 23
65.499444650086033
 33
0.0
 14
213.74999992810399
 24
66.999444650055807
 34
0.0
 50
0.000000000000007
1001
ACAD
1000
DSTYLE
1002
{
1070
   287
1070
     4
1070
    40
1040
1.0
1070
   279
1070
     1
1002
}
  0
DIMENSION
  5
2399
  8
SAPA_MATT
  2
*D15
 10
51.749999927800218
 20
20.99944465005569
 30
0.0
 11
134.2499999279521
 21
20.99944465005569
 31
0.0
 70
   128
 13
208.74999992810399
 23
66.999444650055693
 33
0.0
 14
51.749999927800218
 24
65.66744811205524
 34
0.0
 50
180.0
1001
ACAD
1000
DSTYLE
1002
{
1070
    40
1040
1.0
1002
}
  0
DIMENSION
  5
239A
  8
SAPA_MATT
  2
*D14
 10
-5.2500000716258928
 20
20.99944465005569
 30
0.0
 11
23.249999928087171
 21
23.49944465005569
 31
0.0
 70
     0
 13
51.749999927800218
 23
65.66744811205524
 33
0.0
 14
-5.2500000716258901
 24
65.499444650055807
 34
0.0
 50
180.0
1001
ACAD
1000
DSTYLE
1002
{
1070
   287
1070
     4
1070
    40
1040
1.0
1070
   279
1070
     1
1002
}
  0
DIMENSION
  5
239B
  8
SAPA_MATT
  2
*D13
 10
-13.250000071625889
 20
20.99944465005569
 30
0.0
 11
-9.2500000715970181
 21
20.99944465005569
 31
0.0
 70
   128
 13
-5.2500000715681381
 23
65.499444650086033
 33
0.0
 14
-13.250000071625889
 24
66.999444650055807
 34
0.0
 50
180.0
1001
ACAD
1000
DSTYLE
1002
{
1070
   287
1070
     4
1070
    40
1040
1.0
1070
   279
1070
     1
1002
}
  0
DIMENSION
  5
239C
  8
SAPA_MATT
  2
*D12
 10
-13.250000071625889
 20
8.9994446500556933
 30
0.0
 11
100.24999992823901
 21
8.9994446500556933
 31
0.0
 70
   128
 13
213.74999992810399
 23
66.999444650055693
 33
0.0
 14
-13.250000071625889
 24
66.999444650055807
 34
0.0
 50
180.0
1001
ACAD
1000
DSTYLE
1002
{
1070
    40
1040
1.0
1002
}
  0
DIMENSION
  5
239D
  8
SAPA_MATT
  2
*D11
 10
-42.749999928859317
 20
59.999444650055132
 30
0.0
 11
-45.249999928859332
 21
62.499444650055352
 31
0.0
 70
     0
 13
-11.249999928838861
 23
64.99944465005558
 33
0.0
 14
-3.6999999293557262
 24
59.999444650055118
 34
0.0
 50
270.0
1001
ACAD
1000
DSTYLE
1002
{
1070
   287
1070
     4
1070
    40
1040
1.0
1070
   279
1070
     1
1002
}
  0
DIMENSION
  5
239E
  8
SAPA_MATT
  2
*D10
 10
-42.749999857112009
 20
64.999444650055594
 30
0.0
 11
-45.249999857112023
 21
94.999444650054684
 31
0.0
 70
     0
 13
-12.94999992883413
 23
124.9994446500537
 33
0.0
 14
-11.24999992883931
 24
64.99944465005558
 34
0.0
 50
270.0
1001
ACAD
1000
DSTYLE
1002
{
1070
    40
1040
1.0
1002
}
  0
DIMENSION
  5
239F
  8
SAPA_MATT
  2
*D9
 10
-54.749999857112009
 20
124.9994446500537
 30
0.0
 11
-57.24999985711203
 21
92.499444650054443
 31
0.0
 70
     0
 13
-3.6999999293557262
 23
59.999444650055118
 33
0.0
 14
-12.94999992883413
 24
124.9994446500537
 34
0.0
 50
270.0
1001
ACAD
1000
DSTYLE
1002
{
1070
    40
1040
1.0
1002
}
  0
VIEWPORT
  5
C4
 67
     1
  8
0
 10
160.5543545598442
 20
116.00969601843509
 30
0.0
 40
404.96977709277462
 41
256.8421457311839
 68
     1
 69
     1
1001
ACAD
1000
MVIEW
1002
{
1070
    16
1010
0.0
1020
0.0
1030
0.0
1010
0.0
1020
0.0
1030
1.0
1040
0.0
1040
256.8421457311839
1040
160.5543545598442
1040
116.00969601843509
1040
50.0
1040
0.0
1040
0.0
1070
     0
1070
   100
1070
     1
1070
     1
1070
     0
1070
     0
1070
     0
1070
     0
1040
0.0
1040
0.0
1040
0.0
1040
10.0
1040
10.0
1040
10.0
1040
10.0
1070
     0
1002
{
1002
}
1002
}
  0
ENDSEC
  0
EOF
