  0
SECTION
  2
HEADER
  9
$ACADVER
  1
AC1009
  9
$INSBASE
 10
0.0
 20
0.0
 30
0.0
  9
$EXTMIN
 10
-12.249999999499151
 20
-75.000000000693191
 30
-0.2
  9
$EXTMAX
 10
133.99999999973119
 20
68.25
 30
0.0000000048844772
  9
$LIMMIN
 10
0.0
 20
0.0
  9
$LIMMAX
 10
790.0
 20
790.0
  9
$ORTHOMODE
 70
     0
  9
$REGENMODE
 70
     1
  9
$FILLMODE
 70
     1
  9
$QTEXTMODE
 70
     0
  9
$MIRRTEXT
 70
     1
  9
$DRAGMODE
 70
     2
  9
$LTSCALE
 40
4.0
  9
$OSMODE
 70
   167
  9
$ATTMODE
 70
     1
  9
$TEXTSIZE
 40
3.5
  9
$TRACEWID
 40
0.05
  9
$TEXTSTYLE
  7
ISO
  9
$CLAYER
  8
0
  9
$CELTYPE
  6
BYLAYER
  9
$CECOLOR
 62
   256
  9
$DIMSCALE
 40
0.0
  9
$DIMASZ
 40
3.0
  9
$DIMEXO
 40
1.5
  9
$DIMDLI
 40
10.0
  9
$DIMRND
 40
0.0
  9
$DIMDLE
 40
0.0
  9
$DIMEXE
 40
1.5
  9
$DIMTP
 40
0.0
  9
$DIMTM
 40
0.0
  9
$DIMTXT
 40
3.5
  9
$DIMCEN
 40
-5.0
  9
$DIMTSZ
 40
0.0
  9
$DIMTOL
 70
     0
  9
$DIMLIM
 70
     0
  9
$DIMTIH
 70
     0
  9
$DIMTOH
 70
     0
  9
$DIMSE1
 70
     0
  9
$DIMSE2
 70
     0
  9
$DIMTAD
 70
     1
  9
$DIMZIN
 70
     8
  9
$DIMBLK
  1

  9
$DIMASO
 70
     1
  9
$DIMSHO
 70
     1
  9
$DIMPOST
  1

  9
$DIMAPOST
  1

  9
$DIMALT
 70
     0
  9
$DIMALTD
 70
     0
  9
$DIMALTF
 40
25.399999999999999
  9
$DIMLFAC
 40
-1.0
  9
$DIMTOFL
 70
     1
  9
$DIMTVP
 40
0.0
  9
$DIMTIX
 70
     0
  9
$DIMSOXD
 70
     0
  9
$DIMSAH
 70
     0
  9
$DIMBLK1
  1

  9
$DIMBLK2
  1

  9
$DIMSTYLE
  2
MASKIN
  9
$DIMCLRD
 70
   256
  9
$DIMCLRE
 70
   256
  9
$DIMCLRT
 70
     2
  9
$DIMTFAC
 40
1.0
  9
$DIMGAP
 40
1.0
  9
$LUNITS
 70
     2
  9
$LUPREC
 70
     8
  9
$SKETCHINC
 40
0.1
  9
$FILLETRAD
 40
0.0
  9
$AUNITS
 70
     0
  9
$AUPREC
 70
     8
  9
$MENU
  1
ACAD
  9
$ELEVATION
 40
0.0
  9
$PELEVATION
 40
0.0
  9
$THICKNESS
 40
0.0
  9
$LIMCHECK
 70
     0
  9
$BLIPMODE
 70
     0
  9
$CHAMFERA
 40
0.0
  9
$CHAMFERB
 40
0.0
  9
$SKPOLY
 70
     0
  9
$TDCREATE
 40
2455734.518348461
  9
$TDUPDATE
 40
2455993.5859041899
  9
$TDINDWG
 40
1.3083232986
  9
$TDUSRTIMER
 40
1.3083231134
  9
$USRTIMER
 70
     1
  9
$ANGBASE
 50
0.0
  9
$ANGDIR
 70
     0
  9
$PDMODE
 70
     0
  9
$PDSIZE
 40
0.0
  9
$PLINEWID
 40
0.0
  9
$COORDS
 70
     1
  9
$SPLFRAME
 70
     0
  9
$SPLINETYPE
 70
     6
  9
$SPLINESEGS
 70
     8
  9
$ATTDIA
 70
     0
  9
$ATTREQ
 70
     1
  9
$HANDLING
 70
     1
  9
$HANDSEED
  5
1EEE
  9
$SURFTAB1
 70
     6
  9
$SURFTAB2
 70
     6
  9
$SURFTYPE
 70
     6
  9
$SURFU
 70
     6
  9
$SURFV
 70
     6
  9
$UCSNAME
  2

  9
$UCSORG
 10
0.0
 20
0.0
 30
0.0
  9
$UCSXDIR
 10
1.0
 20
0.0
 30
0.0
  9
$UCSYDIR
 10
0.0
 20
1.0
 30
0.0
  9
$PUCSNAME
  2

  9
$PUCSORG
 10
0.0
 20
0.0
 30
0.0
  9
$PUCSXDIR
 10
1.0
 20
0.0
 30
0.0
  9
$PUCSYDIR
 10
0.0
 20
1.0
 30
0.0
  9
$USERI1
 70
     0
  9
$USERI2
 70
     0
  9
$USERI3
 70
     0
  9
$USERI4
 70
     0
  9
$USERI5
 70
     0
  9
$USERR1
 40
0.0
  9
$USERR2
 40
0.0
  9
$USERR3
 40
0.0
  9
$USERR4
 40
0.0
  9
$USERR5
 40
0.0
  9
$WORLDVIEW
 70
     1
  9
$SHADEDGE
 70
     3
  9
$SHADEDIF
 70
    70
  9
$TILEMODE
 70
     1
  9
$MAXACTVP
 70
    16
  9
$PLIMCHECK
 70
     0
  9
$PEXTMIN
 10
1.0000000000000000E+020
 20
1.0000000000000000E+020
 30
1.0000000000000000E+020
  9
$PEXTMAX
 10
-1.0000000000000000E+020
 20
-1.0000000000000000E+020
 30
-1.0000000000000000E+020
  9
$PLIMMIN
 10
-5.069427490234375
 20
-5.8737497329711914
  9
$PLIMMAX
 10
291.89889526367187
 20
204.0995779037475
  9
$UNITMODE
 70
     0
  9
$VISRETAIN
 70
     1
  9
$PLINEGEN
 70
     0
  9
$PSLTSCALE
 70
     1
  0
ENDSEC
  0
SECTION
  2
TABLES
  0
TABLE
  2
VPORT
 70
     1
  0
VPORT
  2
*ACTIVE
 70
     0
 10
0.0
 20
0.0
 11
1.0
 21
1.0
 12
60.876061069517363
 22
43.201480696469922
 13
0.0
 23
0.0
 14
1.0
 24
1.0
 15
0.0
 25
0.0
 16
0.0
 26
0.0
 36
1.0
 17
0.0
 27
0.0
 37
0.0
 40
154.50528412056281
 41
2.37391304347826
 42
50.0
 43
0.0
 44
0.0
 50
0.0
 51
0.0
 71
     0
 72
   100
 73
     1
 74
     1
 75
     0
 76
     0
 77
     0
 78
     0
  0
ENDTAB
  0
TABLE
  2
LTYPE
 70
     5
  0
LTYPE
  2
CONTINUOUS
 70
     0
  3
Solid line
 72
    65
 73
     0
 40
0.0
  0
LTYPE
  2
BYGG-027387$0$NEWDOT
 70
     0
  3
____ . ____ . ____ . ____ . ____ . ____ . ____
 72
    65
 73
     4
 40
2.0
 49
1.0
 49
-0.5
 49
0.0
 49
-0.5
  0
LTYPE
  2
BYGG-027929$0$NEWDOT
 70
     0
  3
____ . ____ . ____ . ____ . ____ . ____ . ____
 72
    65
 73
     4
 40
2.0
 49
1.0
 49
-0.5
 49
0.0
 49
-0.5
  0
LTYPE
  2
BYGG-027936$0$NEWDOT
 70
     0
  3
____ . ____ . ____ . ____ . ____ . ____ . ____
 72
    65
 73
     4
 40
2.0
 49
1.0
 49
-0.5
 49
0.0
 49
-0.5
  0
LTYPE
  2
BYGG-027385$0$NEWDOT
 70
     0
  3
____ . ____ . ____ . ____ . ____ . ____ . ____
 72
    65
 73
     4
 40
2.0
 49
1.0
 49
-0.5
 49
0.0
 49
-0.5
  0
ENDTAB
  0
TABLE
  2
LAYER
 70
    41
  0
LAYER
  2
0
 70
     0
 62
     7
  6
CONTINUOUS
  0
LAYER
  2
DEFPOINTS
 70
     0
 62
     7
  6
CONTINUOUS
  0
LAYER
  2
SAPA_ARTIKELNR
 70
     0
 62
     4
  6
CONTINUOUS
  0
LAYER
  2
SAPA_MATT
 70
     0
 62
     1
  6
CONTINUOUS
  0
LAYER
  2
SAPA_GLAS
 70
     0
 62
     4
  6
CONTINUOUS
  0
LAYER
  2
SAPA_FOGBAND
 70
     0
 62
     2
  6
CONTINUOUS
  0
LAYER
  2
SAPA_PROFIL
 70
     0
 62
     7
  6
CONTINUOUS
  0
ENDTAB
  0
TABLE
  2
STYLE
 70
    25
  0
STYLE
  2
STANDARD
 70
     0
 40
0.0
 41
1.0
 50
0.0
 71
     0
 42
0.2
  3
txt
  4

  0
STYLE
  2
ISO
 70
     0
 40
0.0
 41
1.0
 50
0.0
 71
     0
 42
3.5
  3
txt
  4

  0
STYLE
  2
BYGG-027392$0$STANDARD
 70
     0
 40
0.0
 41
1.0
 50
0.0
 71
     0
 42
0.2
  3
txt
  4

  0
STYLE
  2
BYGG-027392$0$ISO
 70
     0
 40
0.0
 41
1.0
 50
0.0
 71
     0
 42
3.5
  3
txt
  4

  0
STYLE
  2
BYGG-027460$0$STANDARD
 70
     0
 40
0.0
 41
1.0
 50
0.0
 71
     0
 42
0.2
  3
txt
  4

  0
STYLE
  2
BYGG-027460$0$ISO
 70
     0
 40
0.0
 41
1.0
 50
0.0
 71
     0
 42
3.5
  3
txt
  4

  0
STYLE
  2
BYGG-027387$0$STANDARD
 70
     0
 40
0.0
 41
1.0
 50
0.0
 71
     0
 42
0.2
  3
txt
  4

  0
STYLE
  2
BYGG-027387$0$ISO
 70
     0
 40
0.0
 41
1.0
 50
0.0
 71
     0
 42
3.5
  3
txt
  4

  0
STYLE
  2
BYGG-028567$0$STANDARD
 70
     0
 40
0.0
 41
1.0
 50
0.0
 71
     0
 42
0.2
  3
txt
  4

  0
STYLE
  2
BYGG-028567$0$ISO
 70
     0
 40
0.0
 41
1.0
 50
0.0
 71
     0
 42
3.5
  3
txt
  4

  0
STYLE
  2
BYGG-027929$0$STANDARD
 70
     0
 40
0.0
 41
1.0
 50
0.0
 71
     0
 42
2.5
  3
txt
  4

  0
STYLE
  2
BYGG-027929$0$BORDER
 70
     0
 40
12.0
 41
1.0
 50
0.0
 71
     0
 42
5.0
  3
txt
  4

  0
STYLE
  2
BYGG-027929$0$ISO
 70
     0
 40
0.0
 41
1.0
 50
0.0
 71
     0
 42
4.0
  3
txt
  4

  0
STYLE
  2
BYGG-028568$0$STANDARD
 70
     0
 40
0.0
 41
1.0
 50
0.0
 71
     0
 42
0.2
  3
txt
  4

  0
STYLE
  2
BYGG-028568$0$ISO
 70
     0
 40
0.0
 41
1.0
 50
0.0
 71
     0
 42
3.5
  3
txt
  4

  0
STYLE
  2
BYGG-027936$0$STANDARD
 70
     0
 40
0.0
 41
1.0
 50
0.0
 71
     0
 42
0.2
  3
txt
  4

  0
STYLE
  2
BYGG-027936$0$ISO
 70
     0
 40
0.0
 41
1.0
 50
0.0
 71
     0
 42
3.5
  3
txt
  4

  0
STYLE
  2
BYGG-008910$0$STANDARD
 70
     0
 40
0.0
 41
1.0
 50
0.0
 71
     0
 42
0.2
  3
txt
  4

  0
STYLE
  2
BYGG-008910$0$ISO
 70
     0
 40
0.0
 41
1.0
 50
0.0
 71
     0
 42
3.5
  3
txt
  4

  0
STYLE
  2
BYGG-027394$0$STANDARD
 70
     0
 40
0.0
 41
1.0
 50
0.0
 71
     0
 42
0.2
  3
txt
  4

  0
STYLE
  2
BYGG-027394$0$ISO
 70
     0
 40
0.0
 41
1.0
 50
0.0
 71
     0
 42
3.5
  3
txt
  4

  0
STYLE
  2
BYGG-027414$0$STANDARD
 70
     0
 40
0.0
 41
1.0
 50
0.0
 71
     0
 42
0.2
  3
txt
  4

  0
STYLE
  2
BYGG-027414$0$ISO
 70
     0
 40
0.0
 41
1.0
 50
0.0
 71
     0
 42
3.5
  3
txt
  4

  0
STYLE
  2
BYGG-027385$0$STANDARD
 70
     0
 40
0.0
 41
1.0
 50
0.0
 71
     0
 42
0.2
  3
txt
  4

  0
STYLE
  2
BYGG-027385$0$ISO
 70
     0
 40
0.0
 41
1.0
 50
0.0
 71
     0
 42
3.5
  3
txt
  4

  0
ENDTAB
  0
TABLE
  2
VIEW
 70
     0
  0
ENDTAB
  0
TABLE
  2
UCS
 70
     0
  0
ENDTAB
  0
TABLE
  2
APPID
 70
    30
  0
APPID
  2
ACAD
 70
     0
  0
APPID
  2
ACAD_DSTYLE_DIMTEXT_FILL
 70
     0
  0
APPID
  2
ACAD_DSTYLE_DIMEXT_LENGTH
 70
     0
  0
APPID
  2
ACAD_DSTYLE_DIMEXT_ENABLED
 70
     0
  0
APPID
  2
ACAD_DSTYLE_DIM_LINETYPE
 70
     0
  0
APPID
  2
ACAD_DSTYLE_DIM_EXT1_LINETYPE
 70
     0
  0
APPID
  2
ACAD_DSTYLE_DIM_EXT2_LINETYPE
 70
     0
  0
APPID
  2
ACAD_DSTYLE_DIMJOGGED_JOGA
 70
     0
  0
APPID
  2
ACAD_DSTYLE_DIMARC_LENGTH_
 70
     0
  0
APPID
  2
ACAD_PSEXT
 70
     0
  0
APPID
  2
ACAD_MLEADERVER
 70
     0
  0
APPID
  2
GENIUS_GENODEF_13
 70
     0
  0
APPID
  2
RC_PROFILE
 70
     0
  0
APPID
  2
ACAECLAYERSTANDARD
 70
     0
  0
APPID
  2
GENIUS_GENOBJ-N-FIL_13
 70
     0
  0
APPID
  2
ACADANNOTATIVE
 70
     0
  0
APPID
  2
ACAD_EXEMPT_FROM_CAD_STANDARDS
 70
     0
  0
APPID
  2
AEC_XDATA_BOUND_SPACE
 70
     0
  0
APPID
  2
ACAD_DSTYLE_DIMJAG
 70
     0
  0
APPID
  2
ACAD_DSTYLE_DIMTALN
 70
     0
  0
APPID
  2
GENIUS_GENREC_14
 70
     0
  0
APPID
  2
GENIUS_GENOBJ-N-REC_13
 70
     0
  0
APPID
  2
ACDBDYNAMICBLOCKTRUENAME
 70
     0
  0
APPID
  2
ACDBBLOCKREPETAG
 70
     0
  0
APPID
  2
ACDBDYNAMICBLOCKGUID
 70
     0
  0
APPID
  2
ACDBBLOCKREPBTAG
 70
     0
  0
APPID
  2
ACAD_NAV_VCDISPLAY
 70
     0
  0
APPID
  2
GRADIENTCOLOR1ACI
 70
     0
  0
APPID
  2
GRADIENTCOLOR2ACI
 70
     0
  0
APPID
  2
ACCMTRANSPARENCY
 70
     0
  0
ENDTAB
  0
TABLE
  2
DIMSTYLE
 70
    17
  0
DIMSTYLE
  2
MASKIN
 70
     0
  3

  4

  5

  6

  7

 40
0.0
 41
3.0
 42
1.5
 43
10.0
 44
1.5
 45
0.0
 46
0.0
 47
0.0
 48
0.0
140
3.5
141
-5.0
142
0.0
143
25.399999999999999
144
-1.0
145
0.0
146
1.0
147
1.0
 71
     0
 72
     0
 73
     0
 74
     0
 75
     0
 76
     0
 77
     1
 78
     8
170
     0
171
     0
172
     1
173
     0
174
     0
175
     0
176
   256
177
   256
178
     2
  0
DIMSTYLE
  2
BYGG-027392$0$MASKIN
 70
     0
  3

  4

  5

  6

  7

 40
0.0
 41
3.0
 42
1.5
 43
10.0
 44
1.5
 45
0.0
 46
0.0
 47
0.0
 48
0.0
140
3.0
141
-5.0
142
0.0
143
25.399999999999999
144
-1.0
145
0.0
146
1.0
147
1.0
 71
     0
 72
     0
 73
     0
 74
     0
 75
     0
 76
     0
 77
     1
 78
     8
170
     0
171
     0
172
     1
173
     0
174
     0
175
     0
176
   256
177
   256
178
     2
  0
DIMSTYLE
  2
BYGG-027460$0$MASKIN
 70
     0
  3

  4

  5

  6

  7

 40
0.0
 41
3.0
 42
1.5
 43
10.0
 44
1.5
 45
0.0
 46
0.0
 47
0.0
 48
0.0
140
3.0
141
-5.0
142
0.0
143
25.399999999999999
144
-1.0
145
0.0
146
1.0
147
1.0
 71
     0
 72
     0
 73
     0
 74
     0
 75
     0
 76
     0
 77
     1
 78
     8
170
     0
171
     0
172
     1
173
     0
174
     0
175
     0
176
   256
177
   256
178
     2
  0
DIMSTYLE
  2
BYGG-027387$0$MASKIN
 70
     0
  3

  4

  5

  6

  7

 40
0.0
 41
3.0
 42
1.5
 43
10.0
 44
1.5
 45
0.0
 46
0.0
 47
0.0
 48
0.0
140
3.0
141
-5.0
142
0.0
143
25.399999999999999
144
-1.0
145
0.0
146
1.0
147
1.0
 71
     0
 72
     0
 73
     0
 74
     0
 75
     0
 76
     0
 77
     1
 78
     8
170
     0
171
     0
172
     1
173
     0
174
     0
175
     0
176
   256
177
   256
178
     2
  0
DIMSTYLE
  2
BYGG-028567$0$STANDARD
 70
     0
  3

  4

  5

  6

  7

 40
1.0
 41
0.18
 42
0.0625
 43
0.38
 44
0.18
 45
0.0
 46
0.0
 47
0.0
 48
0.0
140
0.18
141
0.09
142
0.0
143
25.399999999999999
144
1.0
145
0.0
146
1.0
147
0.09
 71
     0
 72
     0
 73
     1
 74
     1
 75
     0
 76
     0
 77
     0
 78
     0
170
     0
171
     2
172
     0
173
     0
174
     0
175
     0
176
     0
177
     0
178
     0
  0
DIMSTYLE
  2
BYGG-028567$0$MASKIN
 70
     0
  3

  4

  5

  6

  7

 40
0.0
 41
3.0
 42
1.5
 43
10.0
 44
1.5
 45
0.0
 46
0.0
 47
0.0
 48
0.0
140
3.0
141
-5.0
142
0.0
143
25.399999999999999
144
-1.0
145
0.0
146
1.0
147
1.0
 71
     0
 72
     0
 73
     0
 74
     0
 75
     0
 76
     0
 77
     1
 78
     8
170
     0
171
     0
172
     1
173
     0
174
     0
175
     0
176
   256
177
   256
178
     2
  0
DIMSTYLE
  2
BYGG-027929$0$STANDARD
 70
     0
  3

  4

  5

  6

  7

 40
1.0
 41
0.18
 42
0.0625
 43
0.38
 44
0.18
 45
0.0
 46
0.0
 47
0.0
 48
0.0
140
0.18
141
0.09
142
0.0
143
25.399999999999999
144
1.0
145
0.0
146
1.0
147
0.09
 71
     0
 72
     0
 73
     1
 74
     1
 75
     0
 76
     0
 77
     0
 78
     0
170
     0
171
     2
172
     0
173
     0
174
     0
175
     0
176
     0
177
     0
178
     0
  0
DIMSTYLE
  2
BYGG-027929$0$MASKIN
 70
     0
  3

  4

  5

  6

  7

 40
0.0
 41
3.0
 42
1.5
 43
10.0
 44
1.5
 45
0.0
 46
0.0
 47
0.0
 48
0.0
140
3.0
141
-5.0
142
0.0
143
25.399999999999999
144
-1.0
145
0.0
146
1.0
147
1.0
 71
     0
 72
     0
 73
     0
 74
     1
 75
     0
 76
     0
 77
     1
 78
     8
170
     0
171
     0
172
     1
173
     0
174
     0
175
     0
176
   256
177
   256
178
     2
  0
DIMSTYLE
  2
BYGG-028568$0$STANDARD
 70
     0
  3

  4

  5

  6

  7

 40
1.0
 41
0.18
 42
0.0625
 43
0.38
 44
0.18
 45
0.0
 46
0.0
 47
0.0
 48
0.0
140
0.18
141
0.09
142
0.0
143
25.399999999999999
144
1.0
145
0.0
146
1.0
147
0.09
 71
     0
 72
     0
 73
     1
 74
     1
 75
     0
 76
     0
 77
     0
 78
     0
170
     0
171
     2
172
     0
173
     0
174
     0
175
     0
176
     0
177
     0
178
     0
  0
DIMSTYLE
  2
BYGG-028568$0$MASKIN
 70
     0
  3

  4

  5

  6

  7

 40
0.0
 41
3.0
 42
1.5
 43
10.0
 44
1.5
 45
0.0
 46
0.0
 47
0.0
 48
0.0
140
3.0
141
-5.0
142
0.0
143
25.399999999999999
144
-1.0
145
0.0
146
1.0
147
1.0
 71
     0
 72
     0
 73
     0
 74
     0
 75
     0
 76
     0
 77
     1
 78
     8
170
     0
171
     0
172
     1
173
     0
174
     0
175
     0
176
   256
177
   256
178
     2
  0
DIMSTYLE
  2
BYGG-027936$0$STANDARD
 70
     0
  3

  4

  5

  6

  7

 40
1.0
 41
0.18
 42
0.0625
 43
0.38
 44
0.18
 45
0.0
 46
0.0
 47
0.0
 48
0.0
140
0.18
141
0.09
142
0.0
143
25.399999999999999
144
1.0
145
0.0
146
1.0
147
0.09
 71
     0
 72
     0
 73
     1
 74
     1
 75
     0
 76
     0
 77
     0
 78
     0
170
     0
171
     2
172
     0
173
     0
174
     0
175
     0
176
     0
177
     0
178
     0
  0
DIMSTYLE
  2
BYGG-027936$0$MASKIN
 70
     0
  3

  4

  5

  6

  7

 40
0.0
 41
3.0
 42
1.5
 43
10.0
 44
1.5
 45
0.0
 46
0.0
 47
0.0
 48
0.0
140
3.0
141
-5.0
142
0.0
143
25.399999999999999
144
-1.0
145
0.0
146
1.0
147
1.0
 71
     0
 72
     0
 73
     0
 74
     0
 75
     0
 76
     0
 77
     1
 78
     8
170
     0
171
     0
172
     1
173
     0
174
     0
175
     0
176
   256
177
   256
178
     2
  0
DIMSTYLE
  2
BYGG-008910$0$STANDARD
 70
     0
  3

  4

  5

  6

  7

 40
1.0
 41
0.18
 42
0.0625
 43
0.38
 44
0.18
 45
0.0
 46
0.0
 47
0.0
 48
0.0
140
0.18
141
0.09
142
0.0
143
25.399999999999999
144
1.0
145
0.0
146
1.0
147
0.09
 71
     0
 72
     0
 73
     1
 74
     1
 75
     0
 76
     0
 77
     0
 78
     0
170
     0
171
     2
172
     0
173
     0
174
     0
175
     0
176
     0
177
     0
178
     0
  0
DIMSTYLE
  2
BYGG-008910$0$MASKIN
 70
     0
  3

  4

  5

  6

  7

 40
0.0
 41
3.0
 42
1.5
 43
10.0
 44
1.5
 45
0.0
 46
0.0
 47
0.0
 48
0.0
140
3.0
141
-5.0
142
0.0
143
25.399999999999999
144
-1.0
145
0.0
146
1.0
147
1.0
 71
     0
 72
     0
 73
     0
 74
     0
 75
     0
 76
     0
 77
     1
 78
     8
170
     0
171
     0
172
     1
173
     0
174
     0
175
     0
176
   256
177
   256
178
     2
  0
DIMSTYLE
  2
BYGG-027394$0$MASKIN
 70
     0
  3

  4

  5

  6

  7

 40
0.0
 41
3.0
 42
1.5
 43
10.0
 44
1.5
 45
0.0
 46
0.0
 47
0.0
 48
0.0
140
3.0
141
-5.0
142
0.0
143
25.399999999999999
144
-1.0
145
0.0
146
1.0
147
1.0
 71
     0
 72
     0
 73
     0
 74
     0
 75
     0
 76
     0
 77
     1
 78
     8
170
     0
171
     0
172
     1
173
     0
174
     0
175
     0
176
   256
177
   256
178
     2
  0
DIMSTYLE
  2
BYGG-027414$0$MASKIN
 70
     0
  3

  4

  5

  6

  7

 40
0.0
 41
3.0
 42
1.5
 43
10.0
 44
1.5
 45
0.0
 46
0.0
 47
0.0
 48
0.0
140
3.0
141
-5.0
142
0.0
143
25.399999999999999
144
-1.0
145
0.0
146
1.0
147
1.0
 71
     0
 72
     0
 73
     0
 74
     0
 75
     0
 76
     0
 77
     1
 78
     8
170
     0
171
     0
172
     1
173
     0
174
     0
175
     0
176
   256
177
   256
178
     2
  0
DIMSTYLE
  2
BYGG-027385$0$MASKIN
 70
     0
  3

  4

  5

  6

  7

 40
0.0
 41
3.0
 42
1.5
 43
10.0
 44
1.5
 45
0.0
 46
0.0
 47
0.0
 48
0.0
140
3.0
141
-5.0
142
0.0
143
25.399999999999999
144
-1.0
145
0.0
146
1.0
147
1.0
 71
     0
 72
     0
 73
     0
 74
     0
 75
     0
 76
     0
 77
     1
 78
     8
170
     0
171
     0
172
     1
173
     0
174
     0
175
     0
176
   256
177
   256
178
     2
  0
ENDTAB
  0
ENDSEC
  0
SECTION
  2
BLOCKS
  0
BLOCK
  8
0
  2
$MODEL_SPACE
 70
     0
 10
0.0
 20
0.0
 30
0.0
  3
$MODEL_SPACE
  1

  0
ENDBLK
  5
37
  8
0
  0
BLOCK
 67
     1
  8
0
  2
$PAPER_SPACE
 70
     0
 10
0.0
 20
0.0
 30
0.0
  3
$PAPER_SPACE
  1

  0
ENDBLK
  5
35
 67
     1
  8
0
  0
BLOCK
  8
0
  2
*D38
 70
     1
 10
0.0
 20
0.0
 30
0.0
  3
*D38
  1

  0
LINE
  5
1EDD
  8
SAPA_MATT
 10
15.500000000502229
 20
-49.499999999985477
 30
0.0
 11
-7.4999999994991633
 21
-49.499999999985477
 31
0.0
  0
LINE
  5
1EDE
  8
SAPA_MATT
 10
20.323940932426929
 20
31.499999999977721
 30
0.0
 11
-7.4999999994991446
 21
31.499999999977732
 31
0.0
  0
LINE
  5
1EDF
  8
SAPA_MATT
 10
-5.9999999994991633
 20
-46.499999999985477
 30
0.0
 11
-5.9999999994991464
 21
28.499999999977721
 31
0.0
  0
SOLID
  5
1EE0
  8
SAPA_MATT
 10
-6.4999999994991633
 20
-46.499999999985477
 30
0.0
 11
-5.4999999994991633
 21
-46.499999999985477
 31
0.0
 12
-5.9999999994991633
 22
-49.499999999985477
 32
0.0
 13
-5.9999999994991633
 23
-49.499999999985477
 33
0.0
  0
SOLID
  5
1EE1
  8
SAPA_MATT
 10
-6.4999999994991464
 20
28.499999999977721
 30
0.0
 11
-5.4999999994991464
 21
28.499999999977721
 31
0.0
 12
-5.9999999994991446
 22
31.499999999977721
 32
0.0
 13
-5.9999999994991446
 23
31.499999999977721
 33
0.0
  0
TEXT
  8
SAPA_MATT
  40
3.5
  5
1EEA
  62
2
  72
0
  71
0
 10
-15.7500
 20
-15.1950
 30
0.000000
  1
81
  7
ISO
  0
POINT
  5
1EE3
  8
DEFPOINTS
 62
     0
 10
17.000000000502229
 20
-49.499999999985491
 30
0.0
  0
POINT
  5
1EE4
  8
DEFPOINTS
 62
     0
 10
21.823940932426929
 20
31.499999999977721
 30
0.0
  0
POINT
  5
1EE5
  8
DEFPOINTS
 62
     0
 10
-5.9999999994991446
 20
31.499999999977721
 30
0.0
  0
ENDBLK
  5
17DB
  8
0
  0
BLOCK
  8
0
  2
*D39
 70
     1
 10
0.0
 20
0.0
 30
0.0
  3
*D39
  1

  0
LINE
  5
1ED4
  8
SAPA_MATT
 10
68.999999999504624
 20
16.499999999928249
 30
0.0
 11
68.999999999504624
 21
63.5
 31
0.0
  0
LINE
  5
1ED5
  8
SAPA_MATT
 10
19.000000000184158
 20
16.49999999992826
 30
0.0
 11
19.000000000184158
 21
63.5
 31
0.0
  0
LINE
  5
1ED6
  8
SAPA_MATT
 10
65.999999999504638
 20
62.0
 30
0.0
 11
22.000000000184169
 21
62.0
 31
0.0
  0
SOLID
  5
1ED7
  8
SAPA_MATT
 10
65.999999999504638
 20
62.5
 30
0.0
 11
65.999999999504638
 21
61.5
 31
0.0
 12
68.999999999504624
 22
62.0
 32
0.0
 13
68.999999999504624
 23
62.0
 33
0.0
  0
SOLID
  5
1ED8
  8
SAPA_MATT
 10
22.000000000184169
 20
62.5
 30
0.0
 11
22.000000000184169
 21
61.5
 31
0.0
 12
19.000000000184158
 22
62.0
 32
0.0
 13
19.000000000184158
 23
62.0
 33
0.0
  0
TEXT
  8
SAPA_MATT
  40
3.5
  5
1EEB
  62
2
  72
0
  71
0
 10
37.0000
 20
58.5550
 30
0.000000
  1
50
  7
ISO
  0
POINT
  5
1EDA
  8
DEFPOINTS
 62
     0
 10
68.999999999504624
 20
14.999999999928249
 30
0.0
  0
POINT
  5
1EDB
  8
DEFPOINTS
 62
     0
 10
19.000000000184158
 20
14.99999999992826
 30
0.0
  0
POINT
  5
1EDC
  8
DEFPOINTS
 62
     0
 10
19.000000000184158
 20
62.0
 30
0.0
  0
ENDBLK
  5
17E7
  8
0
  0
BLOCK
  8
0
  2
*D40
 70
     1
 10
0.0
 20
0.0
 30
0.0
  3
*D40
  1

  0
LINE
  5
1829
  8
SAPA_MATT
 10
14.000000000487701
 20
-2.5000000006589991
 30
0.0
 11
14.000000000487709
 21
63.5
 31
0.0
  0
LINE
  5
182A
  8
SAPA_MATT
 10
19.000000000184169
 20
16.49999999992826
 30
0.0
 11
19.00000000018418
 21
63.5
 31
0.0
  0
LINE
  5
182B
  8
SAPA_MATT
 10
11.000000000487709
 20
62.0
 30
0.0
 11
8.0000000004877077
 21
62.0
 31
0.0
  0
LINE
  5
182C
  8
SAPA_MATT
 10
22.00000000018418
 20
62.0
 30
0.0
 11
25.00000000018418
 21
62.0
 31
0.0
  0
LINE
  5
182D
  8
SAPA_MATT
 10
14.000000000487709
 20
62.0
 30
0.0
 11
19.00000000018418
 21
62.0
 31
0.0
  0
SOLID
  5
182E
  8
SAPA_MATT
 10
11.000000000487709
 20
62.5
 30
0.0
 11
11.000000000487709
 21
61.5
 31
0.0
 12
14.000000000487709
 22
62.0
 32
0.0
 13
14.000000000487709
 23
62.0
 33
0.0
  0
SOLID
  5
182F
  8
SAPA_MATT
 10
22.00000000018418
 20
62.5
 30
0.0
 11
22.00000000018418
 21
61.5
 31
0.0
 12
19.00000000018418
 22
62.0
 32
0.0
 13
19.00000000018418
 23
62.0
 33
0.0
  0
INSERT
  5
1830
  8
0
  2
*U51
 10
0.0
 20
0.0
 30
0.0
  0
POINT
  5
1831
  8
DEFPOINTS
 62
     0
 10
14.000000000487701
 20
-4.0000000006589991
 30
0.0
  0
POINT
  5
1832
  8
DEFPOINTS
 62
     0
 10
19.000000000184169
 20
14.99999999992826
 30
0.0
  0
POINT
  5
1833
  8
DEFPOINTS
 62
     0
 10
19.00000000018418
 20
62.0
 30
0.0
  0
ENDBLK
  5
17F3
  8
0
  0
BLOCK
  8
0
  2
*D41
 70
     1
 10
0.0
 20
0.0
 30
0.0
  3
*D41
  1

  0
LINE
  5
1ECB
  8
SAPA_MATT
 10
100.4999999997319
 20
-49.450000000876869
 30
0.0
 11
100.4999999997319
 21
-71.00000000001998
 31
0.0
  0
LINE
  5
1ECC
  8
SAPA_MATT
 10
14.000000000502229
 20
-47.999999999985491
 30
0.0
 11
14.000000000502229
 21
-71.00000000001998
 31
0.0
  0
LINE
  5
1ECD
  8
SAPA_MATT
 10
97.499999999731926
 20
-69.50000000001998
 30
0.0
 11
17.000000000502229
 21
-69.50000000001998
 31
0.0
  0
SOLID
  5
1ECE
  8
SAPA_MATT
 10
97.499999999731926
 20
-69.00000000001998
 30
0.0
 11
97.499999999731926
 21
-70.00000000001998
 31
0.0
 12
100.4999999997319
 22
-69.50000000001998
 32
0.0
 13
100.4999999997319
 23
-69.50000000001998
 33
0.0
  0
SOLID
  5
1ECF
  8
SAPA_MATT
 10
17.000000000502229
 20
-69.00000000001998
 30
0.0
 11
17.000000000502229
 21
-70.00000000001998
 31
0.0
 12
14.000000000502229
 22
-69.50000000001998
 32
0.0
 13
14.000000000502229
 23
-69.50000000001998
 33
0.0
  0
TEXT
  8
SAPA_MATT
  40
3.5
  5
1EEC
  62
2
  72
0
  71
0
 10
50.2500
 20
-72.9450
 30
0.000000
  1
86.5
  7
ISO
  0
POINT
  5
1ED1
  8
DEFPOINTS
 62
     0
 10
100.4999999997319
 20
-47.950000000876869
 30
0.0
  0
POINT
  5
1ED2
  8
DEFPOINTS
 62
     0
 10
14.000000000502229
 20
-46.499999999985491
 30
0.0
  0
POINT
  5
1ED3
  8
DEFPOINTS
 62
     0
 10
14.000000000502229
 20
-69.50000000001998
 30
0.0
  0
ENDBLK
  5
1801
  8
0
  0
BLOCK
  8
0
  2
*D42
 70
     1
 10
0.0
 20
0.0
 30
0.0
  3
*D42
  1

  0
LINE
  5
1EC2
  8
SAPA_MATT
 10
86.999999999556536
 20
-49.500000000614449
 30
0.0
 11
133.99999999973119
 21
-49.500000000614463
 31
0.0
  0
LINE
  5
1EC3
  8
SAPA_MATT
 10
86.999999999556479
 20
-2.5000000013061481
 30
0.0
 11
133.99999999973119
 21
-2.500000001306161
 31
0.0
  0
LINE
  5
1EC4
  8
SAPA_MATT
 10
132.49999999973119
 20
-46.500000000614449
 30
0.0
 11
132.49999999973119
 21
-5.5000000013061614
 31
0.0
  0
SOLID
  5
1EC5
  8
SAPA_MATT
 10
131.99999999973119
 20
-46.500000000614449
 30
0.0
 11
132.99999999973119
 21
-46.500000000614449
 31
0.0
 12
132.49999999973119
 22
-49.500000000614463
 32
0.0
 13
132.49999999973119
 23
-49.500000000614463
 33
0.0
  0
SOLID
  5
1EC6
  8
SAPA_MATT
 10
131.99999999973119
 20
-5.5000000013061614
 30
0.0
 11
132.99999999973119
 21
-5.5000000013061614
 31
0.0
 12
132.49999999973119
 22
-2.5000000013061601
 32
0.0
 13
132.49999999973119
 23
-2.5000000013061601
 33
0.0
  0
TEXT
  8
SAPA_MATT
  40
3.5
  5
1EED
  62
2
  72
0
  71
0
 10
122.750
 20
-32.1950
 30
0.000000
  1
47
  7
ISO
  0
POINT
  5
1EC8
  8
DEFPOINTS
 62
     0
 10
85.499999999556536
 20
-49.500000000614449
 30
0.0
  0
POINT
  5
1EC9
  8
DEFPOINTS
 62
     0
 10
85.499999999556479
 20
-2.5000000013061481
 30
0.0
  0
POINT
  5
1ECA
  8
DEFPOINTS
 62
     0
 10
132.49999999973119
 20
-2.5000000013061601
 30
0.0
  0
ENDBLK
  5
180D
  8
0
  0
BLOCK
  8
0
  2
*X43
 70
     1
 10
0.0
 20
0.0
 30
0.0
  3
*X43
  1

  0
LINE
  5
1C73
  8
0
 62
     0
 10
100.2999999997307
 20
-47.680151520207083
 30
0.0
 11
99.619848480385755
 21
-47.000000000862151
 31
0.0
  0
LINE
  5
1C74
  8
0
 62
     0
 10
99.247316465603546
 20
-47.750000001213579
 30
0.0
 11
98.497316465252126
 21
-47.000000000862151
 31
0.0
  0
LINE
  5
1C75
  8
0
 62
     0
 10
98.124784450468667
 20
-47.750000001212342
 30
0.0
 11
97.374784450118455
 21
-47.000000000862137
 31
0.0
  0
LINE
  5
1C76
  8
0
 62
     0
 10
97.002252435333787
 20
-47.75000000121112
 30
0.0
 11
96.252252434984825
 21
-47.000000000862137
 31
0.0
  0
LINE
  5
1C77
  8
0
 62
     0
 10
95.879720420198893
 20
-47.750000001209877
 30
0.0
 11
95.129720419851168
 21
-47.000000000862137
 31
0.0
  0
LINE
  5
1C78
  8
0
 62
     0
 10
94.757188405064014
 20
-47.750000001208647
 30
0.0
 11
94.007188404717525
 21
-47.000000000862137
 31
0.0
  0
LINE
  5
1C79
  8
0
 62
     0
 10
93.634656389929162
 20
-47.750000001207418
 30
0.0
 11
92.884656389583881
 21
-47.00000000086213
 31
0.0
  0
LINE
  5
1C7A
  8
0
 62
     0
 10
92.512124374794297
 20
-47.750000001206189
 30
0.0
 11
91.762124374450224
 21
-47.00000000086213
 31
0.0
  0
LINE
  5
1C7B
  8
0
 62
     0
 10
91.389592359659403
 20
-47.750000001204953
 30
0.0
 11
90.639592359316595
 21
-47.00000000086213
 31
0.0
  0
LINE
  5
1C7C
  8
0
 62
     0
 10
90.267060344524538
 20
-47.75000000120373
 30
0.0
 11
89.517060344182951
 21
-47.00000000086213
 31
0.0
  0
LINE
  5
1C7D
  8
0
 62
     0
 10
89.144528329389686
 20
-47.750000001202487
 30
0.0
 11
88.394528329049294
 21
-47.00000000086213
 31
0.0
  0
LINE
  5
1C7E
  8
0
 62
     0
 10
88.021996314254778
 20
-47.750000001201272
 30
0.0
 11
87.499999999719506
 21
-47.228003686665978
 31
0.0
  0
LINE
  5
1C7F
  8
0
 62
     0
 10
99.379720419449455
 20
-47.750000001213699
 30
0.0
 11
100.129720419801
 21
-47.000000000862137
 31
0.0
  0
LINE
  5
1C80
  8
0
 62
     0
 10
98.257188404317034
 20
-47.750000001212477
 30
0.0
 11
99.007188404667374
 21
-47.00000000086213
 31
0.0
  0
LINE
  5
1C81
  8
0
 62
     0
 10
97.134656389184613
 20
-47.750000001211241
 30
0.0
 11
97.884656389533717
 21
-47.000000000862137
 31
0.0
  0
LINE
  5
1C82
  8
0
 62
     0
 10
96.012124374052206
 20
-47.750000001210012
 30
0.0
 11
96.762124374400074
 21
-47.00000000086213
 31
0.0
  0
LINE
  5
1C83
  8
0
 62
     0
 10
94.889592358919785
 20
-47.750000001208768
 30
0.0
 11
95.639592359266445
 21
-47.00000000086213
 31
0.0
  0
LINE
  5
1C84
  8
0
 62
     0
 10
93.767060343787378
 20
-47.750000001207553
 30
0.0
 11
94.517060344132787
 21
-47.00000000086213
 31
0.0
  0
LINE
  5
1C85
  8
0
 62
     0
 10
92.644528328654957
 20
-47.750000001206317
 30
0.0
 11
93.394528328999144
 21
-47.00000000086213
 31
0.0
  0
LINE
  5
1C86
  8
0
 62
     0
 10
91.52199631352255
 20
-47.750000001205088
 30
0.0
 11
92.2719963138655
 21
-47.00000000086213
 31
0.0
  0
LINE
  5
1C87
  8
0
 62
     0
 10
90.399464298390114
 20
-47.750000001203851
 30
0.0
 11
91.149464298731857
 21
-47.00000000086213
 31
0.0
  0
LINE
  5
1C88
  8
0
 62
     0
 10
89.276932283257722
 20
-47.750000001202643
 30
0.0
 11
90.026932283598214
 21
-47.00000000086213
 31
0.0
  0
LINE
  5
1C89
  8
0
 62
     0
 10
88.154400268125286
 20
-47.750000001201393
 30
0.0
 11
88.90440026846457
 21
-47.00000000086213
 31
0.0
  0
LINE
  5
1C8A
  8
0
 62
     0
 10
87.499999999719449
 20
-47.281868254473622
 30
0.0
 11
87.781868253330913
 21
-47.00000000086213
 31
0.0
  0
ENDBLK
  5
1C8C
  8
0
  0
BLOCK
  8
0
  2
*X44
 70
     1
 10
0.0
 20
0.0
 30
0.0
  3
*X44
  1

  0
LINE
  5
1C8E
  8
0
 62
     0
 10
100.2760650554639
 20
-5.0000000008618146
 30
0.0
 11
99.526065055451625
 21
-4.2500000008495116
 31
0.0
  0
LINE
  5
1C8F
  8
0
 62
     0
 10
99.153533040330274
 20
-5.0000000008618146
 30
0.0
 11
98.403533040319203
 21
-4.2500000008507426
 31
0.0
  0
LINE
  5
1C90
  8
0
 62
     0
 10
98.031001025196645
 20
-5.0000000008618146
 30
0.0
 11
97.281001025186796
 21
-4.2500000008519692
 31
0.0
  0
LINE
  5
1C91
  8
0
 62
     0
 10
96.908469010062973
 20
-5.0000000008618084
 30
0.0
 11
96.158469010054375
 21
-4.2500000008532011
 31
0.0
  0
LINE
  5
1C92
  8
0
 62
     0
 10
95.785936994929315
 20
-5.0000000008618031
 30
0.0
 11
95.03593699492194
 21
-4.250000000854425
 31
0.0
  0
LINE
  5
1C93
  8
0
 62
     0
 10
94.663404979795686
 20
-5.000000000861804
 30
0.0
 11
93.913404979789547
 21
-4.2500000008556604
 31
0.0
  0
LINE
  5
1C94
  8
0
 62
     0
 10
93.540872964662043
 20
-5.0000000008618013
 30
0.0
 11
92.79087296465714
 21
-4.2500000008568861
 31
0.0
  0
LINE
  5
1C95
  8
0
 62
     0
 10
92.418340949528414
 20
-5.000000000861804
 30
0.0
 11
91.668340949524719
 21
-4.2500000008581198
 31
0.0
  0
LINE
  5
1C96
  8
0
 62
     0
 10
91.295808934394742
 20
-5.0000000008617951
 30
0.0
 11
90.545808934392284
 21
-4.2500000008593437
 31
0.0
  0
LINE
  5
1C97
  8
0
 62
     0
 10
90.173276919261099
 20
-5.0000000008617942
 30
0.0
 11
89.423276919259891
 21
-4.2500000008605774
 31
0.0
  0
LINE
  5
1C98
  8
0
 62
     0
 10
89.050744904127455
 20
-5.0000000008617924
 30
0.0
 11
88.300744904127455
 21
-4.2500000008618031
 31
0.0
  0
LINE
  5
1C99
  8
0
 62
     0
 10
87.928212888993798
 20
-5.0000000008617924
 30
0.0
 11
87.499999999719307
 21
-4.5717871115872866
 31
0.0
  0
LINE
  5
1C9A
  8
0
 62
     0
 10
99.473503844722885
 20
-5.0000000008618102
 30
0.0
 11
100.2235038447359
 21
-4.2500000008487566
 31
0.0
  0
LINE
  5
1C9B
  8
0
 62
     0
 10
98.350971829589227
 20
-5.0000000008618173
 30
0.0
 11
99.100971829601065
 21
-4.2500000008499788
 31
0.0
  0
LINE
  5
1C9C
  8
0
 62
     0
 10
97.228439814455598
 20
-5.0000000008618102
 30
0.0
 11
97.978439814466185
 21
-4.2500000008512151
 31
0.0
  0
LINE
  5
1C9D
  8
0
 62
     0
 10
96.105907799321955
 20
-5.0000000008618102
 30
0.0
 11
96.85590779933132
 21
-4.2500000008524381
 31
0.0
  0
LINE
  5
1C9E
  8
0
 62
     0
 10
94.983375784188325
 20
-5.0000000008618102
 30
0.0
 11
95.733375784196454
 21
-4.25000000085367
 31
0.0
  0
LINE
  5
1C9F
  8
0
 62
     0
 10
93.860843769054668
 20
-5.0000000008618102
 30
0.0
 11
94.610843769061574
 21
-4.250000000854893
 31
0.0
  0
LINE
  5
1CA0
  8
0
 62
     0
 10
92.738311753921025
 20
-5.0000000008618102
 30
0.0
 11
93.488311753926709
 21
-4.2500000008561294
 31
0.0
  0
LINE
  5
1CA1
  8
0
 62
     0
 10
91.615779738787381
 20
-5.0000000008617986
 30
0.0
 11
92.365779738791844
 21
-4.2500000008573444
 31
0.0
  0
LINE
  5
1CA2
  8
0
 62
     0
 10
90.493247723653724
 20
-5.0000000008618102
 30
0.0
 11
91.243247723656964
 21
-4.2500000008585843
 31
0.0
  0
LINE
  5
1CA3
  8
0
 62
     0
 10
89.370715708520095
 20
-5.0000000008617986
 30
0.0
 11
90.120715708522084
 21
-4.2500000008598056
 31
0.0
  0
LINE
  5
1CA4
  8
0
 62
     0
 10
88.248183693386451
 20
-5.0000000008618031
 30
0.0
 11
88.998183693387205
 21
-4.2500000008610392
 31
0.0
  0
LINE
  5
1CA5
  8
0
 62
     0
 10
87.499999999719364
 20
-4.6256516793952356
 30
0.0
 11
87.875651678252325
 21
-4.2500000008622614
 31
0.0
  0
ENDBLK
  5
1CA7
  8
0
  0
BLOCK
  8
0
  2
*X45
 70
     1
 10
0.0
 20
0.0
 30
0.0
  3
*X45
  1

  0
LINE
  5
1CC4
  8
0
 62
     0
 10
65.680151518979471
 20
29.800000000000171
 30
0.0
 11
64.999999999634525
 21
29.1198484806552
 31
0.0
  0
LINE
  5
1CC5
  8
0
 62
     0
 10
65.749999999985945
 20
28.747316465873009
 30
0.0
 11
64.999999999634525
 21
27.997316465521561
 31
0.0
  0
LINE
  5
1CC6
  8
0
 62
     0
 10
65.749999999984738
 20
27.624784450738129
 30
0.0
 11
64.999999999634539
 21
26.874784450387921
 31
0.0
  0
LINE
  5
1CC7
  8
0
 62
     0
 10
65.74999999998353
 20
26.50225243560325
 30
0.0
 11
64.999999999634554
 21
25.75225243525427
 31
0.0
  0
LINE
  5
1CC8
  8
0
 62
     0
 10
65.749999999982293
 20
25.379720420468381
 30
0.0
 11
64.999999999634554
 21
24.629720420120631
 31
0.0
  0
LINE
  5
1CC9
  8
0
 62
     0
 10
65.749999999981085
 20
24.257188405333508
 30
0.0
 11
64.999999999634582
 21
23.507188404986991
 31
0.0
  0
LINE
  5
1CCA
  8
0
 62
     0
 10
65.749999999979863
 20
23.134656390198629
 30
0.0
 11
64.999999999634596
 21
22.384656389853351
 31
0.0
  0
LINE
  5
1CCB
  8
0
 62
     0
 10
65.749999999978655
 20
22.01212437506376
 30
0.0
 11
64.999999999634611
 21
21.262124374719701
 31
0.0
  0
LINE
  5
1CCC
  8
0
 62
     0
 10
65.749999999977433
 20
20.88959235992888
 30
0.0
 11
64.999999999634625
 21
20.139592359586061
 31
0.0
  0
LINE
  5
1CCD
  8
0
 62
     0
 10
65.749999999976211
 20
19.767060344794011
 30
0.0
 11
64.999999999634625
 21
19.01706034445241
 31
0.0
  0
LINE
  5
1CCE
  8
0
 62
     0
 10
65.749999999975003
 20
18.644528329659138
 30
0.0
 11
64.999999999634625
 21
17.894528329318771
 31
0.0
  0
LINE
  5
1CCF
  8
0
 62
     0
 10
65.749999999973781
 20
17.521996314524259
 30
0.0
 11
65.228003685438509
 21
16.999999999988969
 31
0.0
  0
LINE
  5
1CD0
  8
0
 62
     0
 10
65.749999999986102
 20
28.8797204197189
 30
0.0
 11
64.999999999634511
 21
29.629720420070491
 31
0.0
  0
LINE
  5
1CD1
  8
0
 62
     0
 10
65.74999999998488
 20
27.7571884045865
 30
0.0
 11
64.999999999634525
 21
28.507188404936841
 31
0.0
  0
LINE
  5
1CD2
  8
0
 62
     0
 10
65.749999999983643
 20
26.634656389454079
 30
0.0
 11
64.999999999634539
 21
27.38465638980319
 31
0.0
  0
LINE
  5
1CD3
  8
0
 62
     0
 10
65.74999999998245
 20
25.512124374321662
 30
0.0
 11
64.999999999634554
 21
26.262124374669551
 31
0.0
  0
LINE
  5
1CD4
  8
0
 62
     0
 10
65.749999999981227
 20
24.389592359189241
 30
0.0
 11
64.999999999634554
 21
25.1395923595359
 31
0.0
  0
LINE
  5
1CD5
  8
0
 62
     0
 10
65.74999999998002
 20
23.26706034405683
 30
0.0
 11
64.999999999634582
 21
24.01706034440225
 31
0.0
  0
LINE
  5
1CD6
  8
0
 62
     0
 10
65.749999999978797
 20
22.144528328924419
 30
0.0
 11
64.999999999634582
 21
22.89452832926861
 31
0.0
  0
LINE
  5
1CD7
  8
0
 62
     0
 10
65.749999999977575
 20
21.021996313791998
 30
0.0
 11
64.999999999634596
 21
21.77199631413497
 31
0.0
  0
LINE
  5
1CD8
  8
0
 62
     0
 10
65.749999999976353
 20
19.899464298659591
 30
0.0
 11
64.999999999634611
 21
20.64946429900132
 31
0.0
  0
LINE
  5
1CD9
  8
0
 62
     0
 10
65.749999999975145
 20
18.77693228352717
 30
0.0
 11
64.999999999634625
 21
19.526932283867669
 31
0.0
  0
LINE
  5
1CDA
  8
0
 62
     0
 10
65.749999999973923
 20
17.654400268394749
 30
0.0
 11
64.999999999634625
 21
18.404400268734019
 31
0.0
  0
LINE
  5
1CDB
  8
0
 62
     0
 10
65.281868253246117
 20
16.999999999988919
 30
0.0
 11
64.999999999634653
 21
17.281868253600379
 31
0.0
  0
ENDBLK
  5
1CDD
  8
0
  0
BLOCK
  8
0
  2
*X46
 70
     1
 10
0.0
 20
0.0
 30
0.0
  3
*X46
  1

  0
LINE
  5
1CDF
  8
0
 62
     0
 10
22.999999999634181
 20
29.776065055732921
 30
0.0
 11
22.249999999621888
 21
29.026065055720618
 31
0.0
  0
LINE
  5
1CE0
  8
0
 62
     0
 10
22.999999999634198
 20
28.653533040599282
 30
0.0
 11
22.249999999623139
 21
27.903533040588201
 31
0.0
  0
LINE
  5
1CE1
  8
0
 62
     0
 10
22.999999999634209
 20
27.531001025465638
 30
0.0
 11
22.249999999624379
 21
26.78100102545579
 31
0.0
  0
LINE
  5
1CE2
  8
0
 62
     0
 10
22.99999999963422
 20
26.408469010331999
 30
0.0
 11
22.249999999625619
 21
25.65846901032338
 31
0.0
  0
LINE
  5
1CE3
  8
0
 62
     0
 10
22.99999999963423
 20
25.285936995198352
 30
0.0
 11
22.249999999626858
 21
24.535936995190969
 31
0.0
  0
LINE
  5
1CE4
  8
0
 62
     0
 10
22.999999999634252
 20
24.163404980064708
 30
0.0
 11
22.249999999628109
 21
23.413404980058552
 31
0.0
  0
LINE
  5
1CE5
  8
0
 62
     0
 10
22.999999999634252
 20
23.040872964931062
 30
0.0
 11
22.249999999629349
 21
22.29087296492613
 31
0.0
  0
LINE
  5
1CE6
  8
0
 62
     0
 10
22.999999999634269
 20
21.918340949797411
 30
0.0
 11
22.249999999630589
 21
21.16834094979372
 31
0.0
  0
LINE
  5
1CE7
  8
0
 62
     0
 10
22.99999999963428
 20
20.795808934663761
 30
0.0
 11
22.249999999631829
 21
20.045808934661299
 31
0.0
  0
LINE
  5
1CE8
  8
0
 62
     0
 10
22.999999999634291
 20
19.673276919530121
 30
0.0
 11
22.249999999633069
 21
18.923276919528892
 31
0.0
  0
LINE
  5
1CE9
  8
0
 62
     0
 10
22.999999999634301
 20
18.550744904396481
 30
0.0
 11
22.249999999634309
 21
17.800744904396481
 31
0.0
  0
LINE
  5
1CEA
  8
0
 62
     0
 10
22.999999999634309
 20
17.428212889262841
 30
0.0
 11
22.571787110359811
 21
16.999999999988329
 31
0.0
  0
LINE
  5
1CEB
  8
0
 62
     0
 10
22.999999999634191
 20
28.97350384499191
 30
0.0
 11
22.249999999621132
 21
29.723503845004959
 31
0.0
  0
LINE
  5
1CEC
  8
0
 62
     0
 10
22.999999999634209
 20
27.85097182985826
 30
0.0
 11
22.249999999622371
 21
28.60097182987009
 31
0.0
  0
LINE
  5
1CED
  8
0
 62
     0
 10
22.999999999634209
 20
26.728439814724609
 30
0.0
 11
22.249999999623601
 21
27.478439814735211
 31
0.0
  0
LINE
  5
1CEE
  8
0
 62
     0
 10
22.99999999963422
 20
25.60590779959098
 30
0.0
 11
22.249999999624841
 21
26.355907799600349
 31
0.0
  0
LINE
  5
1CEF
  8
0
 62
     0
 10
22.999999999634241
 20
24.48337578445733
 30
0.0
 11
22.249999999626091
 21
25.233375784465469
 31
0.0
  0
LINE
  5
1CF0
  8
0
 62
     0
 10
22.999999999634252
 20
23.36084376932369
 30
0.0
 11
22.249999999627331
 21
24.110843769330589
 31
0.0
  0
LINE
  5
1CF1
  8
0
 62
     0
 10
22.999999999634259
 20
22.23831175419004
 30
0.0
 11
22.249999999628571
 21
22.98831175419572
 31
0.0
  0
LINE
  5
1CF2
  8
0
 62
     0
 10
22.999999999634269
 20
21.1157797390564
 30
0.0
 11
22.249999999629821
 21
21.865779739060841
 31
0.0
  0
LINE
  5
1CF3
  8
0
 62
     0
 10
22.999999999634291
 20
19.99324772392275
 30
0.0
 11
22.249999999631061
 21
20.743247723925968
 31
0.0
  0
LINE
  5
1CF4
  8
0
 62
     0
 10
22.999999999634301
 20
18.870715708789099
 30
0.0
 11
22.249999999632291
 21
19.620715708791089
 31
0.0
  0
LINE
  5
1CF5
  8
0
 62
     0
 10
22.999999999634301
 20
17.748183693655459
 30
0.0
 11
22.24999999963353
 21
18.498183693656209
 31
0.0
  0
LINE
  5
1CF6
  8
0
 62
     0
 10
22.625651678167749
 20
16.999999999988379
 30
0.0
 11
22.249999999634781
 21
17.375651678521351
 31
0.0
  0
ENDBLK
  5
1CF8
  8
0
  0
BLOCK
  8
0
  2
*X47
 70
     1
 10
0.0
 20
0.0
 30
0.0
  3
*X47
  1

  0
LINE
  5
1D15
  8
0
 62
     0
 10
100.2999999997307
 20
-47.680151520207083
 30
0.0
 11
99.619848480385755
 21
-47.000000000862151
 31
0.0
  0
LINE
  5
1D16
  8
0
 62
     0
 10
99.247316465603546
 20
-47.750000001213579
 30
0.0
 11
98.497316465252126
 21
-47.000000000862151
 31
0.0
  0
LINE
  5
1D17
  8
0
 62
     0
 10
98.124784450468667
 20
-47.750000001212342
 30
0.0
 11
97.374784450118455
 21
-47.000000000862137
 31
0.0
  0
LINE
  5
1D18
  8
0
 62
     0
 10
97.002252435333787
 20
-47.75000000121112
 30
0.0
 11
96.252252434984825
 21
-47.000000000862137
 31
0.0
  0
LINE
  5
1D19
  8
0
 62
     0
 10
95.879720420198893
 20
-47.750000001209877
 30
0.0
 11
95.129720419851168
 21
-47.000000000862137
 31
0.0
  0
LINE
  5
1D1A
  8
0
 62
     0
 10
94.757188405064014
 20
-47.750000001208647
 30
0.0
 11
94.007188404717525
 21
-47.000000000862137
 31
0.0
  0
LINE
  5
1D1B
  8
0
 62
     0
 10
93.634656389929162
 20
-47.750000001207418
 30
0.0
 11
92.884656389583881
 21
-47.00000000086213
 31
0.0
  0
LINE
  5
1D1C
  8
0
 62
     0
 10
92.512124374794297
 20
-47.750000001206189
 30
0.0
 11
91.762124374450224
 21
-47.00000000086213
 31
0.0
  0
LINE
  5
1D1D
  8
0
 62
     0
 10
91.389592359659403
 20
-47.750000001204953
 30
0.0
 11
90.639592359316595
 21
-47.00000000086213
 31
0.0
  0
LINE
  5
1D1E
  8
0
 62
     0
 10
90.267060344524538
 20
-47.75000000120373
 30
0.0
 11
89.517060344182951
 21
-47.00000000086213
 31
0.0
  0
LINE
  5
1D1F
  8
0
 62
     0
 10
89.144528329389686
 20
-47.750000001202487
 30
0.0
 11
88.394528329049294
 21
-47.00000000086213
 31
0.0
  0
LINE
  5
1D20
  8
0
 62
     0
 10
88.021996314254778
 20
-47.750000001201272
 30
0.0
 11
87.499999999719506
 21
-47.228003686665978
 31
0.0
  0
LINE
  5
1D21
  8
0
 62
     0
 10
99.379720419449455
 20
-47.750000001213699
 30
0.0
 11
100.129720419801
 21
-47.000000000862137
 31
0.0
  0
LINE
  5
1D22
  8
0
 62
     0
 10
98.257188404317034
 20
-47.750000001212477
 30
0.0
 11
99.007188404667374
 21
-47.00000000086213
 31
0.0
  0
LINE
  5
1D23
  8
0
 62
     0
 10
97.134656389184613
 20
-47.750000001211241
 30
0.0
 11
97.884656389533717
 21
-47.000000000862137
 31
0.0
  0
LINE
  5
1D24
  8
0
 62
     0
 10
96.012124374052206
 20
-47.750000001210012
 30
0.0
 11
96.762124374400074
 21
-47.00000000086213
 31
0.0
  0
LINE
  5
1D25
  8
0
 62
     0
 10
94.889592358919785
 20
-47.750000001208768
 30
0.0
 11
95.639592359266445
 21
-47.00000000086213
 31
0.0
  0
LINE
  5
1D26
  8
0
 62
     0
 10
93.767060343787378
 20
-47.750000001207553
 30
0.0
 11
94.517060344132787
 21
-47.00000000086213
 31
0.0
  0
LINE
  5
1D27
  8
0
 62
     0
 10
92.644528328654957
 20
-47.750000001206317
 30
0.0
 11
93.394528328999144
 21
-47.00000000086213
 31
0.0
  0
LINE
  5
1D28
  8
0
 62
     0
 10
91.52199631352255
 20
-47.750000001205088
 30
0.0
 11
92.2719963138655
 21
-47.00000000086213
 31
0.0
  0
LINE
  5
1D29
  8
0
 62
     0
 10
90.399464298390114
 20
-47.750000001203851
 30
0.0
 11
91.149464298731857
 21
-47.00000000086213
 31
0.0
  0
LINE
  5
1D2A
  8
0
 62
     0
 10
89.276932283257722
 20
-47.750000001202643
 30
0.0
 11
90.026932283598214
 21
-47.00000000086213
 31
0.0
  0
LINE
  5
1D2B
  8
0
 62
     0
 10
88.154400268125286
 20
-47.750000001201393
 30
0.0
 11
88.90440026846457
 21
-47.00000000086213
 31
0.0
  0
LINE
  5
1D2C
  8
0
 62
     0
 10
87.499999999719449
 20
-47.281868254473622
 30
0.0
 11
87.781868253330913
 21
-47.00000000086213
 31
0.0
  0
ENDBLK
  5
1D2E
  8
0
  0
BLOCK
  8
0
  2
*X48
 70
     1
 10
0.0
 20
0.0
 30
0.0
  3
*X48
  1

  0
LINE
  5
1D30
  8
0
 62
     0
 10
100.2760650554639
 20
-5.0000000008618146
 30
0.0
 11
99.526065055451625
 21
-4.2500000008495116
 31
0.0
  0
LINE
  5
1D31
  8
0
 62
     0
 10
99.153533040330274
 20
-5.0000000008618146
 30
0.0
 11
98.403533040319203
 21
-4.2500000008507426
 31
0.0
  0
LINE
  5
1D32
  8
0
 62
     0
 10
98.031001025196645
 20
-5.0000000008618146
 30
0.0
 11
97.281001025186796
 21
-4.2500000008519692
 31
0.0
  0
LINE
  5
1D33
  8
0
 62
     0
 10
96.908469010062973
 20
-5.0000000008618084
 30
0.0
 11
96.158469010054375
 21
-4.2500000008532011
 31
0.0
  0
LINE
  5
1D34
  8
0
 62
     0
 10
95.785936994929315
 20
-5.0000000008618031
 30
0.0
 11
95.03593699492194
 21
-4.250000000854425
 31
0.0
  0
LINE
  5
1D35
  8
0
 62
     0
 10
94.663404979795686
 20
-5.000000000861804
 30
0.0
 11
93.913404979789547
 21
-4.2500000008556604
 31
0.0
  0
LINE
  5
1D36
  8
0
 62
     0
 10
93.540872964662043
 20
-5.0000000008618013
 30
0.0
 11
92.79087296465714
 21
-4.2500000008568861
 31
0.0
  0
LINE
  5
1D37
  8
0
 62
     0
 10
92.418340949528414
 20
-5.000000000861804
 30
0.0
 11
91.668340949524719
 21
-4.2500000008581198
 31
0.0
  0
LINE
  5
1D38
  8
0
 62
     0
 10
91.295808934394742
 20
-5.0000000008617951
 30
0.0
 11
90.545808934392284
 21
-4.2500000008593437
 31
0.0
  0
LINE
  5
1D39
  8
0
 62
     0
 10
90.173276919261099
 20
-5.0000000008617942
 30
0.0
 11
89.423276919259891
 21
-4.2500000008605774
 31
0.0
  0
LINE
  5
1D3A
  8
0
 62
     0
 10
89.050744904127455
 20
-5.0000000008617924
 30
0.0
 11
88.300744904127455
 21
-4.2500000008618031
 31
0.0
  0
LINE
  5
1D3B
  8
0
 62
     0
 10
87.928212888993798
 20
-5.0000000008617924
 30
0.0
 11
87.499999999719307
 21
-4.5717871115872866
 31
0.0
  0
LINE
  5
1D3C
  8
0
 62
     0
 10
99.473503844722885
 20
-5.0000000008618102
 30
0.0
 11
100.2235038447359
 21
-4.2500000008487566
 31
0.0
  0
LINE
  5
1D3D
  8
0
 62
     0
 10
98.350971829589227
 20
-5.0000000008618173
 30
0.0
 11
99.100971829601065
 21
-4.2500000008499788
 31
0.0
  0
LINE
  5
1D3E
  8
0
 62
     0
 10
97.228439814455598
 20
-5.0000000008618102
 30
0.0
 11
97.978439814466185
 21
-4.2500000008512151
 31
0.0
  0
LINE
  5
1D3F
  8
0
 62
     0
 10
96.105907799321955
 20
-5.0000000008618102
 30
0.0
 11
96.85590779933132
 21
-4.2500000008524381
 31
0.0
  0
LINE
  5
1D40
  8
0
 62
     0
 10
94.983375784188325
 20
-5.0000000008618102
 30
0.0
 11
95.733375784196454
 21
-4.25000000085367
 31
0.0
  0
LINE
  5
1D41
  8
0
 62
     0
 10
93.860843769054668
 20
-5.0000000008618102
 30
0.0
 11
94.610843769061574
 21
-4.250000000854893
 31
0.0
  0
LINE
  5
1D42
  8
0
 62
     0
 10
92.738311753921025
 20
-5.0000000008618102
 30
0.0
 11
93.488311753926709
 21
-4.2500000008561294
 31
0.0
  0
LINE
  5
1D43
  8
0
 62
     0
 10
91.615779738787381
 20
-5.0000000008617986
 30
0.0
 11
92.365779738791844
 21
-4.2500000008573444
 31
0.0
  0
LINE
  5
1D44
  8
0
 62
     0
 10
90.493247723653724
 20
-5.0000000008618102
 30
0.0
 11
91.243247723656964
 21
-4.2500000008585843
 31
0.0
  0
LINE
  5
1D45
  8
0
 62
     0
 10
89.370715708520095
 20
-5.0000000008617986
 30
0.0
 11
90.120715708522084
 21
-4.2500000008598056
 31
0.0
  0
LINE
  5
1D46
  8
0
 62
     0
 10
88.248183693386451
 20
-5.0000000008618031
 30
0.0
 11
88.998183693387205
 21
-4.2500000008610392
 31
0.0
  0
LINE
  5
1D47
  8
0
 62
     0
 10
87.499999999719364
 20
-4.6256516793952356
 30
0.0
 11
87.875651678252325
 21
-4.2500000008622614
 31
0.0
  0
ENDBLK
  5
1D49
  8
0
  0
BLOCK
  8
0
  2
*X49
 70
     1
 10
0.0
 20
0.0
 30
0.0
  3
*X49
  1

  0
LINE
  5
1D66
  8
0
 62
     0
 10
65.680151518979471
 20
29.800000000000171
 30
0.0
 11
64.999999999634525
 21
29.1198484806552
 31
0.0
  0
LINE
  5
1D67
  8
0
 62
     0
 10
65.749999999985945
 20
28.747316465873009
 30
0.0
 11
64.999999999634525
 21
27.997316465521561
 31
0.0
  0
LINE
  5
1D68
  8
0
 62
     0
 10
65.749999999984738
 20
27.624784450738129
 30
0.0
 11
64.999999999634539
 21
26.874784450387921
 31
0.0
  0
LINE
  5
1D69
  8
0
 62
     0
 10
65.74999999998353
 20
26.50225243560325
 30
0.0
 11
64.999999999634554
 21
25.75225243525427
 31
0.0
  0
LINE
  5
1D6A
  8
0
 62
     0
 10
65.749999999982293
 20
25.379720420468381
 30
0.0
 11
64.999999999634554
 21
24.629720420120631
 31
0.0
  0
LINE
  5
1D6B
  8
0
 62
     0
 10
65.749999999981085
 20
24.257188405333508
 30
0.0
 11
64.999999999634582
 21
23.507188404986991
 31
0.0
  0
LINE
  5
1D6C
  8
0
 62
     0
 10
65.749999999979863
 20
23.134656390198629
 30
0.0
 11
64.999999999634596
 21
22.384656389853351
 31
0.0
  0
LINE
  5
1D6D
  8
0
 62
     0
 10
65.749999999978655
 20
22.01212437506376
 30
0.0
 11
64.999999999634611
 21
21.262124374719701
 31
0.0
  0
LINE
  5
1D6E
  8
0
 62
     0
 10
65.749999999977433
 20
20.88959235992888
 30
0.0
 11
64.999999999634625
 21
20.139592359586061
 31
0.0
  0
LINE
  5
1D6F
  8
0
 62
     0
 10
65.749999999976211
 20
19.767060344794011
 30
0.0
 11
64.999999999634625
 21
19.01706034445241
 31
0.0
  0
LINE
  5
1D70
  8
0
 62
     0
 10
65.749999999975003
 20
18.644528329659138
 30
0.0
 11
64.999999999634625
 21
17.894528329318771
 31
0.0
  0
LINE
  5
1D71
  8
0
 62
     0
 10
65.749999999973781
 20
17.521996314524259
 30
0.0
 11
65.228003685438509
 21
16.999999999988969
 31
0.0
  0
LINE
  5
1D72
  8
0
 62
     0
 10
65.749999999986102
 20
28.8797204197189
 30
0.0
 11
64.999999999634511
 21
29.629720420070491
 31
0.0
  0
LINE
  5
1D73
  8
0
 62
     0
 10
65.74999999998488
 20
27.7571884045865
 30
0.0
 11
64.999999999634525
 21
28.507188404936841
 31
0.0
  0
LINE
  5
1D74
  8
0
 62
     0
 10
65.749999999983643
 20
26.634656389454079
 30
0.0
 11
64.999999999634539
 21
27.38465638980319
 31
0.0
  0
LINE
  5
1D75
  8
0
 62
     0
 10
65.74999999998245
 20
25.512124374321662
 30
0.0
 11
64.999999999634554
 21
26.262124374669551
 31
0.0
  0
LINE
  5
1D76
  8
0
 62
     0
 10
65.749999999981227
 20
24.389592359189241
 30
0.0
 11
64.999999999634554
 21
25.1395923595359
 31
0.0
  0
LINE
  5
1D77
  8
0
 62
     0
 10
65.74999999998002
 20
23.26706034405683
 30
0.0
 11
64.999999999634582
 21
24.01706034440225
 31
0.0
  0
LINE
  5
1D78
  8
0
 62
     0
 10
65.749999999978797
 20
22.144528328924419
 30
0.0
 11
64.999999999634582
 21
22.89452832926861
 31
0.0
  0
LINE
  5
1D79
  8
0
 62
     0
 10
65.749999999977575
 20
21.021996313791998
 30
0.0
 11
64.999999999634596
 21
21.77199631413497
 31
0.0
  0
LINE
  5
1D7A
  8
0
 62
     0
 10
65.749999999976353
 20
19.899464298659591
 30
0.0
 11
64.999999999634611
 21
20.64946429900132
 31
0.0
  0
LINE
  5
1D7B
  8
0
 62
     0
 10
65.749999999975145
 20
18.77693228352717
 30
0.0
 11
64.999999999634625
 21
19.526932283867669
 31
0.0
  0
LINE
  5
1D7C
  8
0
 62
     0
 10
65.749999999973923
 20
17.654400268394749
 30
0.0
 11
64.999999999634625
 21
18.404400268734019
 31
0.0
  0
LINE
  5
1D7D
  8
0
 62
     0
 10
65.281868253246117
 20
16.999999999988919
 30
0.0
 11
64.999999999634653
 21
17.281868253600379
 31
0.0
  0
ENDBLK
  5
1D7F
  8
0
  0
BLOCK
  8
0
  2
*X50
 70
     1
 10
0.0
 20
0.0
 30
0.0
  3
*X50
  1

  0
LINE
  5
1D81
  8
0
 62
     0
 10
22.999999999634181
 20
29.776065055732921
 30
0.0
 11
22.249999999621888
 21
29.026065055720618
 31
0.0
  0
LINE
  5
1D82
  8
0
 62
     0
 10
22.999999999634198
 20
28.653533040599282
 30
0.0
 11
22.249999999623139
 21
27.903533040588201
 31
0.0
  0
LINE
  5
1D83
  8
0
 62
     0
 10
22.999999999634209
 20
27.531001025465638
 30
0.0
 11
22.249999999624379
 21
26.78100102545579
 31
0.0
  0
LINE
  5
1D84
  8
0
 62
     0
 10
22.99999999963422
 20
26.408469010331999
 30
0.0
 11
22.249999999625619
 21
25.65846901032338
 31
0.0
  0
LINE
  5
1D85
  8
0
 62
     0
 10
22.99999999963423
 20
25.285936995198352
 30
0.0
 11
22.249999999626858
 21
24.535936995190969
 31
0.0
  0
LINE
  5
1D86
  8
0
 62
     0
 10
22.999999999634252
 20
24.163404980064708
 30
0.0
 11
22.249999999628109
 21
23.413404980058552
 31
0.0
  0
LINE
  5
1D87
  8
0
 62
     0
 10
22.999999999634252
 20
23.040872964931062
 30
0.0
 11
22.249999999629349
 21
22.29087296492613
 31
0.0
  0
LINE
  5
1D88
  8
0
 62
     0
 10
22.999999999634269
 20
21.918340949797411
 30
0.0
 11
22.249999999630589
 21
21.16834094979372
 31
0.0
  0
LINE
  5
1D89
  8
0
 62
     0
 10
22.99999999963428
 20
20.795808934663761
 30
0.0
 11
22.249999999631829
 21
20.045808934661299
 31
0.0
  0
LINE
  5
1D8A
  8
0
 62
     0
 10
22.999999999634291
 20
19.673276919530121
 30
0.0
 11
22.249999999633069
 21
18.923276919528892
 31
0.0
  0
LINE
  5
1D8B
  8
0
 62
     0
 10
22.999999999634301
 20
18.550744904396481
 30
0.0
 11
22.249999999634309
 21
17.800744904396481
 31
0.0
  0
LINE
  5
1D8C
  8
0
 62
     0
 10
22.999999999634309
 20
17.428212889262841
 30
0.0
 11
22.571787110359811
 21
16.999999999988329
 31
0.0
  0
LINE
  5
1D8D
  8
0
 62
     0
 10
22.999999999634191
 20
28.97350384499191
 30
0.0
 11
22.249999999621132
 21
29.723503845004959
 31
0.0
  0
LINE
  5
1D8E
  8
0
 62
     0
 10
22.999999999634209
 20
27.85097182985826
 30
0.0
 11
22.249999999622371
 21
28.60097182987009
 31
0.0
  0
LINE
  5
1D8F
  8
0
 62
     0
 10
22.999999999634209
 20
26.728439814724609
 30
0.0
 11
22.249999999623601
 21
27.478439814735211
 31
0.0
  0
LINE
  5
1D90
  8
0
 62
     0
 10
22.99999999963422
 20
25.60590779959098
 30
0.0
 11
22.249999999624841
 21
26.355907799600349
 31
0.0
  0
LINE
  5
1D91
  8
0
 62
     0
 10
22.999999999634241
 20
24.48337578445733
 30
0.0
 11
22.249999999626091
 21
25.233375784465469
 31
0.0
  0
LINE
  5
1D92
  8
0
 62
     0
 10
22.999999999634252
 20
23.36084376932369
 30
0.0
 11
22.249999999627331
 21
24.110843769330589
 31
0.0
  0
LINE
  5
1D93
  8
0
 62
     0
 10
22.999999999634259
 20
22.23831175419004
 30
0.0
 11
22.249999999628571
 21
22.98831175419572
 31
0.0
  0
LINE
  5
1D94
  8
0
 62
     0
 10
22.999999999634269
 20
21.1157797390564
 30
0.0
 11
22.249999999629821
 21
21.865779739060841
 31
0.0
  0
LINE
  5
1D95
  8
0
 62
     0
 10
22.999999999634291
 20
19.99324772392275
 30
0.0
 11
22.249999999631061
 21
20.743247723925968
 31
0.0
  0
LINE
  5
1D96
  8
0
 62
     0
 10
22.999999999634301
 20
18.870715708789099
 30
0.0
 11
22.249999999632291
 21
19.620715708791089
 31
0.0
  0
LINE
  5
1D97
  8
0
 62
     0
 10
22.999999999634301
 20
17.748183693655459
 30
0.0
 11
22.24999999963353
 21
18.498183693656209
 31
0.0
  0
LINE
  5
1D98
  8
0
 62
     0
 10
22.625651678167749
 20
16.999999999988379
 30
0.0
 11
22.249999999634781
 21
17.375651678521351
 31
0.0
  0
ENDBLK
  5
1D9A
  8
0
  0
BLOCK
  8
0
  2
*U51
 70
     1
 10
0.0
 20
0.0
 30
0.0
  3
*U51
  1

  0
TEXT
  5
1EE7
  8
SAPA_MATT
 62
     2
 10
15.27500000033594
 20
63.0
 30
0.0
 40
3.5
  1
5
  7
ISO
  0
ENDBLK
  5
1EE9
  8
0
  0
ENDSEC
  0
SECTION
  2
ENTITIES
  0
TEXT
  5
B34
  8
SAPA_ARTIKELNR
 10
18.37863198276802
 20
6.4089571002764103
 30
0.0000000048844772
 40
3.5
  1
D8V007
 50
90.0
  7
ISO
  0
TEXT
  5
F3E
  8
SAPA_ARTIKELNR
 10
76.137534051105007
 20
-1.614107805231711
 30
0.0000000048844772
 40
3.5
  1
D8C002
 50
90.0
  7
ISO
  0
TEXT
  5
F3F
  8
SAPA_ARTIKELNR
 10
12.784197920437469
 20
-34.545345357867632
 30
0.0000000048844772
 40
3.5
  1
D8C001
 50
90.0
  7
ISO
  0
TEXT
  5
11F6
  8
SAPA_ARTIKELNR
 10
80.544824963921386
 20
-55.034128592340792
 30
0.0000000048844772
 40
3.5
  1
D8V005
  7
ISO
  0
POLYLINE
  5
16D2
  8
SAPA_PROFIL
 66
     1
 10
0.0
 20
0.0
 30
0.0
 70
     1
  0
VERTEX
  5
1A8E
  8
SAPA_PROFIL
 10
59.243869040421998
 20
7.0000000000002292
 30
0.0
 42
-0.2418327667417041
  0
VERTEX
  5
1A8F
  8
SAPA_PROFIL
 10
58.999999999472116
 20
7.1252776749641749
 30
0.0
 42
0.2418327667547422
  0
VERTEX
  5
1A90
  8
SAPA_PROFIL
 10
58.756130958513097
 20
7.250555349939761
 30
0.0
  0
VERTEX
  5
1A91
  8
SAPA_PROFIL
 10
57.799999999477727
 20
7.250555349939761
 30
0.0
 42
0.2814258985282543
  0
VERTEX
  5
1A92
  8
SAPA_PROFIL
 10
57.533003197172469
 20
7.0873497488134962
 30
0.0
 42
-0.2814258985233465
  0
VERTEX
  5
1A93
  8
SAPA_PROFIL
 10
57.266006394876889
 20
6.9241441476898054
 30
0.0
  0
VERTEX
  5
1A94
  8
SAPA_PROFIL
 10
55.088458039919573
 20
6.9241441476902832
 30
0.0
 42
-0.0874886635248791
  0
VERTEX
  5
1A95
  8
SAPA_PROFIL
 10
54.985851996923039
 20
6.9422363614540847
 30
0.0
  0
VERTEX
  5
1A96
  8
SAPA_PROFIL
 10
53.55849882687761
 20
7.4617504291294274
 30
0.0
 42
-0.4142135623698204
  0
VERTEX
  5
1A97
  8
SAPA_PROFIL
 10
53.379197083640221
 20
7.8462642583716011
 30
0.0
  0
VERTEX
  5
1A98
  8
SAPA_PROFIL
 10
53.447601112311283
 20
8.0342027825203033
 30
0.0
 42
-0.4142135623730013
  0
VERTEX
  5
1A99
  8
SAPA_PROFIL
 10
53.8321149415329
 20
8.2135045257628256
 30
0.0
  0
VERTEX
  5
1A9A
  8
SAPA_PROFIL
 10
54.865776824402062
 20
7.8372823680961359
 30
0.0
 42
0.41421356237947
  0
VERTEX
  5
1A9B
  8
SAPA_PROFIL
 10
55.250290653633613
 20
8.0165841113472887
 30
0.0
  0
VERTEX
  5
1A9C
  8
SAPA_PROFIL
 10
55.909145960869431
 20
9.8267741906862085
 30
0.0
 42
-0.3152987888800596
  0
VERTEX
  5
1A9D
  8
SAPA_PROFIL
 10
56.191053747105649
 20
10.02416814768954
 30
0.0
  0
VERTEX
  5
1A9E
  8
SAPA_PROFIL
 10
56.610769514925003
 20
10.024168147689441
 30
0.0
 42
-0.1316524975873857
  0
VERTEX
  5
1A9F
  8
SAPA_PROFIL
 10
56.760769514924903
 20
9.9839757688247985
 30
0.0
  0
VERTEX
  5
1AA0
  8
SAPA_PROFIL
 10
58.249999999465778
 20
9.1241681476894954
 30
0.0
  0
VERTEX
  5
1AA1
  8
SAPA_PROFIL
 10
58.699999999465732
 20
9.1241561476898312
 30
0.0
 42
0.4142135623731054
  0
VERTEX
  5
1AA2
  8
SAPA_PROFIL
 10
58.999999999465743
 20
9.4241561476898354
 30
0.0
  0
VERTEX
  5
1AA3
  8
SAPA_PROFIL
 10
58.999999999465693
 20
13.024168147689901
 30
0.0
 42
0.414213562373095
  0
VERTEX
  5
1AA4
  8
SAPA_PROFIL
 10
58.699999999465689
 20
13.324168147689891
 30
0.0
  0
VERTEX
  5
1AA5
  8
SAPA_PROFIL
 10
58.249999999465693
 20
13.32416814768979
 30
0.0
  0
VERTEX
  5
1AA6
  8
SAPA_PROFIL
 10
56.760739868391532
 20
12.46434341012081
 30
0.0
 42
-0.1316363093594254
  0
VERTEX
  5
1AA7
  8
SAPA_PROFIL
 10
56.610758963344779
 20
12.42415103186385
 30
0.0
  0
VERTEX
  5
1AA8
  8
SAPA_PROFIL
 10
56.499999999467541
 20
12.424143982073041
 30
0.0
  0
VERTEX
  5
1AA9
  8
SAPA_PROFIL
 10
56.499999999467541
 20
14.49999999998931
 30
0.0
 42
-0.4142135623730955
  0
VERTEX
  5
1AAA
  8
SAPA_PROFIL
 10
56.999999999467541
 20
14.99999999998931
 30
0.0
  0
VERTEX
  5
1AAB
  8
SAPA_PROFIL
 10
62.249999999132847
 20
14.99999999998931
 30
0.0
 42
-0.4142135623730953
  0
VERTEX
  5
1AAC
  8
SAPA_PROFIL
 10
62.749999999132847
 20
14.49999999998931
 30
0.0
  0
VERTEX
  5
1AAD
  8
SAPA_PROFIL
 10
62.749999999132847
 20
13.99999999640591
 30
0.0
 42
-0.4142135623730953
  0
VERTEX
  5
1AAE
  8
SAPA_PROFIL
 10
62.249999999132847
 20
13.49999999640591
 30
0.0
  0
VERTEX
  5
1AAF
  8
SAPA_PROFIL
 10
61.249999998725649
 20
13.49999999640136
 30
0.0
  0
VERTEX
  5
1AB0
  8
SAPA_PROFIL
 10
61.249999998721513
 20
10.299999995946431
 30
0.0
  0
VERTEX
  5
1AB1
  8
SAPA_PROFIL
 10
65.749999999627406
 20
10.299999995954421
 30
0.0
  0
VERTEX
  5
1AB2
  8
SAPA_PROFIL
 10
65.749999999648765
 20
29.800000000000239
 30
0.0
 42
-0.4964147352859417
  0
VERTEX
  5
1AB3
  8
SAPA_PROFIL
 10
66.003790407974719
 20
29.992630713990732
 30
0.0
 42
-0.306467954212033
  0
VERTEX
  5
1AB4
  8
SAPA_PROFIL
 10
66.728906880823573
 20
29.138232780813631
 30
0.0
 42
-0.0272495355296329
  0
VERTEX
  5
1AB5
  8
SAPA_PROFIL
 10
67.499999999133195
 20
15.0000000000105
 30
0.0
  0
VERTEX
  5
1AB6
  8
SAPA_PROFIL
 10
67.499999999271097
 20
10.00000000009118
 30
0.0
 42
-0.4142135623819769
  0
VERTEX
  5
1AB7
  8
SAPA_PROFIL
 10
64.499999999271097
 20
7.00000000000023
 30
0.0
  0
SEQEND
  5
1AB8
  8
SAPA_PROFIL
  0
POLYLINE
  5
16D3
  8
SAPA_PROFIL
 66
     1
 10
0.0
 20
0.0
 30
0.0
 70
     1
  0
VERTEX
  5
1AB9
  8
SAPA_PROFIL
 10
28.75613095850948
 20
7.0000000000002292
 30
0.0
 42
0.2418327667417041
  0
VERTEX
  5
1ABA
  8
SAPA_PROFIL
 10
28.999999999459359
 20
7.1252776749641749
 30
0.0
 42
-0.2418327667547422
  0
VERTEX
  5
1ABB
  8
SAPA_PROFIL
 10
29.243869040418382
 20
7.250555349939761
 30
0.0
  0
VERTEX
  5
1ABC
  8
SAPA_PROFIL
 10
30.199999999453748
 20
7.250555349939761
 30
0.0
 42
-0.2814258985282543
  0
VERTEX
  5
1ABD
  8
SAPA_PROFIL
 10
30.466996801758999
 20
7.0873497488134962
 30
0.0
 42
0.2814258985233465
  0
VERTEX
  5
1ABE
  8
SAPA_PROFIL
 10
30.733993604054589
 20
6.9241441476898054
 30
0.0
  0
VERTEX
  5
1ABF
  8
SAPA_PROFIL
 10
32.911541959011913
 20
6.9241441476902832
 30
0.0
 42
0.0874886635248791
  0
VERTEX
  5
1AC0
  8
SAPA_PROFIL
 10
33.01414800200844
 20
6.9422363614540847
 30
0.0
  0
VERTEX
  5
1AC1
  8
SAPA_PROFIL
 10
34.441501172053883
 20
7.4617504291294274
 30
0.0
 42
0.4142135623698204
  0
VERTEX
  5
1AC2
  8
SAPA_PROFIL
 10
34.620802915291257
 20
7.8462642583716011
 30
0.0
  0
VERTEX
  5
1AC3
  8
SAPA_PROFIL
 10
34.55239888662021
 20
8.0342027825203033
 30
0.0
 42
0.4142135623730013
  0
VERTEX
  5
1AC4
  8
SAPA_PROFIL
 10
34.167885057398578
 20
8.2135045257628256
 30
0.0
  0
VERTEX
  5
1AC5
  8
SAPA_PROFIL
 10
33.134223174529431
 20
7.8372823680961359
 30
0.0
 42
-0.41421356237947
  0
VERTEX
  5
1AC6
  8
SAPA_PROFIL
 10
32.749709345297873
 20
8.0165841113472887
 30
0.0
  0
VERTEX
  5
1AC7
  8
SAPA_PROFIL
 10
32.090854038062048
 20
9.8267741906862085
 30
0.0
 42
0.3152987888800596
  0
VERTEX
  5
1AC8
  8
SAPA_PROFIL
 10
31.80894625182583
 20
10.02416814768954
 30
0.0
  0
VERTEX
  5
1AC9
  8
SAPA_PROFIL
 10
31.38923048400649
 20
10.024168147689441
 30
0.0
 42
0.1316524975873857
  0
VERTEX
  5
1ACA
  8
SAPA_PROFIL
 10
31.239230484006569
 20
9.9839757688247985
 30
0.0
  0
VERTEX
  5
1ACB
  8
SAPA_PROFIL
 10
29.74999999946569
 20
9.1241681476894954
 30
0.0
  0
VERTEX
  5
1ACC
  8
SAPA_PROFIL
 10
29.29999999946574
 20
9.1241561476898312
 30
0.0
 42
-0.4142135623731054
  0
VERTEX
  5
1ACD
  8
SAPA_PROFIL
 10
28.999999999465739
 20
9.4241561476898354
 30
0.0
  0
VERTEX
  5
1ACE
  8
SAPA_PROFIL
 10
28.999999999465789
 20
13.024168147689901
 30
0.0
 42
-0.414213562373095
  0
VERTEX
  5
1ACF
  8
SAPA_PROFIL
 10
29.29999999946579
 20
13.324168147689891
 30
0.0
  0
VERTEX
  5
1AD0
  8
SAPA_PROFIL
 10
29.749999999465789
 20
13.32416814768979
 30
0.0
  0
VERTEX
  5
1AD1
  8
SAPA_PROFIL
 10
31.239260130539961
 20
12.46434341012081
 30
0.0
 42
0.1316363093594254
  0
VERTEX
  5
1AD2
  8
SAPA_PROFIL
 10
31.3892410355867
 20
12.42415103186385
 30
0.0
  0
VERTEX
  5
1AD3
  8
SAPA_PROFIL
 10
31.499999999463931
 20
12.424143982073041
 30
0.0
  0
VERTEX
  5
1AD4
  8
SAPA_PROFIL
 10
31.499999999463931
 20
14.49999999998931
 30
0.0
 42
0.4142135623730955
  0
VERTEX
  5
1AD5
  8
SAPA_PROFIL
 10
30.999999999463931
 20
14.99999999998931
 30
0.0
  0
VERTEX
  5
1AD6
  8
SAPA_PROFIL
 10
25.749999999798622
 20
14.99999999998931
 30
0.0
 42
0.4142135623730953
  0
VERTEX
  5
1AD7
  8
SAPA_PROFIL
 10
25.249999999798629
 20
14.49999999998931
 30
0.0
  0
VERTEX
  5
1AD8
  8
SAPA_PROFIL
 10
25.249999999798629
 20
13.99999999640591
 30
0.0
 42
0.4142135623730953
  0
VERTEX
  5
1AD9
  8
SAPA_PROFIL
 10
25.749999999798622
 20
13.49999999640591
 30
0.0
  0
VERTEX
  5
1ADA
  8
SAPA_PROFIL
 10
26.750000000205819
 20
13.49999999640136
 30
0.0
  0
VERTEX
  5
1ADB
  8
SAPA_PROFIL
 10
26.75000000020998
 20
10.299999995946431
 30
0.0
  0
VERTEX
  5
1ADC
  8
SAPA_PROFIL
 10
22.24999999930408
 20
10.299999995954421
 30
0.0
  0
VERTEX
  5
1ADD
  8
SAPA_PROFIL
 10
22.249999999282721
 20
29.800000000000239
 30
0.0
 42
0.4964147352859417
  0
VERTEX
  5
1ADE
  8
SAPA_PROFIL
 10
21.996209590956759
 20
29.992630713990732
 30
0.0
 42
0.306467954212033
  0
VERTEX
  5
1ADF
  8
SAPA_PROFIL
 10
21.27109311810791
 20
29.138232780813631
 30
0.0
 42
0.0272495355296329
  0
VERTEX
  5
1AE0
  8
SAPA_PROFIL
 10
20.49999999979827
 20
15.0000000000105
 30
0.0
  0
VERTEX
  5
1AE1
  8
SAPA_PROFIL
 10
20.499999999660378
 20
10.00000000009118
 30
0.0
 42
0.4142135623819769
  0
VERTEX
  5
1AE2
  8
SAPA_PROFIL
 10
23.499999999660378
 20
7.00000000000023
 30
0.0
  0
SEQEND
  5
1AE3
  8
SAPA_PROFIL
  0
POLYLINE
  5
16D4
  8
SAPA_PROFIL
 62
     4
 66
     1
 10
0.0
 20
0.0
 30
0.0
 70
     1
  0
VERTEX
  5
16D5
  8
SAPA_PROFIL
 62
     4
 10
31.856217782118229
 20
10.274156147691849
 30
0.0
 42
0.1316524975873979
  0
VERTEX
  5
16D6
  8
SAPA_PROFIL
 62
     4
 10
31.45621778211822
 20
10.166976470719421
 30
0.0
  0
VERTEX
  5
16D7
  8
SAPA_PROFIL
 62
     4
 10
29.736602539844181
 20
9.1741561476899918
 30
0.0
  0
VERTEX
  5
16D8
  8
SAPA_PROFIL
 62
     4
 10
29.299999999465719
 20
9.1741561476898994
 30
0.0
 42
-0.4142135623730951
  0
VERTEX
  5
16D9
  8
SAPA_PROFIL
 62
     4
 10
29.04999999946574
 20
9.4241561476898923
 30
0.0
  0
VERTEX
  5
16DA
  8
SAPA_PROFIL
 62
     4
 10
29.04999999946569
 20
13.02416814768995
 30
0.0
 42
-0.4142135623731053
  0
VERTEX
  5
16DB
  8
SAPA_PROFIL
 62
     4
 10
29.29999999946569
 20
13.274168147689959
 30
0.0
  0
VERTEX
  5
16DC
  8
SAPA_PROFIL
 62
     4
 10
29.736601921044151
 20
13.2741565049546
 30
0.0
  0
VERTEX
  5
16DD
  8
SAPA_PROFIL
 62
     4
 10
31.456217782111541
 20
12.28133582466433
 30
0.0
 42
0.1316524975874149
  0
VERTEX
  5
16DE
  8
SAPA_PROFIL
 62
     4
 10
31.856217782111589
 20
12.17415614769183
 30
0.0
  0
VERTEX
  5
16DF
  8
SAPA_PROFIL
 62
     4
 10
56.143782216819879
 20
12.17415614769183
 30
0.0
 42
0.1316524975874151
  0
VERTEX
  5
16E0
  8
SAPA_PROFIL
 62
     4
 10
56.543782216819928
 20
12.28133582466433
 30
0.0
  0
VERTEX
  5
16E1
  8
SAPA_PROFIL
 62
     4
 10
58.263398077887331
 20
13.2741565049546
 30
0.0
  0
VERTEX
  5
16E2
  8
SAPA_PROFIL
 62
     4
 10
58.699999999465781
 20
13.274168147689959
 30
0.0
 42
-0.4142135623731054
  0
VERTEX
  5
16E3
  8
SAPA_PROFIL
 62
     4
 10
58.949999999465803
 20
13.02416814768995
 30
0.0
  0
VERTEX
  5
16E4
  8
SAPA_PROFIL
 62
     4
 10
58.949999999465739
 20
9.4241561476898923
 30
0.0
 42
-0.4142135623730953
  0
VERTEX
  5
16E5
  8
SAPA_PROFIL
 62
     4
 10
58.69999999946576
 20
9.1741561476898994
 30
0.0
  0
VERTEX
  5
16E6
  8
SAPA_PROFIL
 62
     4
 10
58.263397459087301
 20
9.1741561476899918
 30
0.0
  0
VERTEX
  5
16E7
  8
SAPA_PROFIL
 62
     4
 10
56.543782216813263
 20
10.166976470719421
 30
0.0
 42
0.1316524975873982
  0
VERTEX
  5
16E8
  8
SAPA_PROFIL
 62
     4
 10
56.14378221681325
 20
10.274156147691849
 30
0.0
  0
SEQEND
  5
16E9
  8
SAPA_PROFIL
 62
     4
  0
POLYLINE
  5
16EA
  8
SAPA_PROFIL
 66
     1
 10
0.0
 20
0.0
 30
0.0
 70
     1
  0
VERTEX
  5
1AE4
  8
SAPA_PROFIL
 10
77.49999999973123
 20
-41.243869041649383
 30
0.0
 42
-0.2418327667417041
  0
VERTEX
  5
1AE5
  8
SAPA_PROFIL
 10
77.62527767469517
 20
-41.000000000699508
 30
0.0
 42
0.2418327667547422
  0
VERTEX
  5
1AE6
  8
SAPA_PROFIL
 10
77.750555349670762
 20
-40.756130959740482
 30
0.0
  0
VERTEX
  5
1AE7
  8
SAPA_PROFIL
 10
77.750555349670762
 20
-39.800000000705133
 30
0.0
 42
0.2814258985282543
  0
VERTEX
  5
1AE8
  8
SAPA_PROFIL
 10
77.587349748544497
 20
-39.533003198399868
 30
0.0
 42
-0.2814258985233465
  0
VERTEX
  5
1AE9
  8
SAPA_PROFIL
 10
77.424144147420805
 20
-39.266006396104288
 30
0.0
  0
VERTEX
  5
1AEA
  8
SAPA_PROFIL
 10
77.424144147421273
 20
-37.088458041146971
 30
0.0
 42
-0.0874886635248791
  0
VERTEX
  5
1AEB
  8
SAPA_PROFIL
 10
77.442236361185081
 20
-36.985851998150437
 30
0.0
  0
VERTEX
  5
1AEC
  8
SAPA_PROFIL
 10
77.961750428860427
 20
-35.558498828105002
 30
0.0
 42
-0.4142135623698204
  0
VERTEX
  5
1AED
  8
SAPA_PROFIL
 10
78.346264258102593
 20
-35.379197084867613
 30
0.0
  0
VERTEX
  5
1AEE
  8
SAPA_PROFIL
 10
78.534202782251285
 20
-35.447601113538667
 30
0.0
 42
-0.4142135623730013
  0
VERTEX
  5
1AEF
  8
SAPA_PROFIL
 10
78.713504525493818
 20
-35.832114942760299
 30
0.0
  0
VERTEX
  5
1AF0
  8
SAPA_PROFIL
 10
78.337282367827129
 20
-36.865776825629453
 30
0.0
 42
0.41421356237947
  0
VERTEX
  5
1AF1
  8
SAPA_PROFIL
 10
78.516584111078288
 20
-37.250290654861011
 30
0.0
  0
VERTEX
  5
1AF2
  8
SAPA_PROFIL
 10
80.326774190417211
 20
-37.909145962096829
 30
0.0
 42
-0.3152987888800596
  0
VERTEX
  5
1AF3
  8
SAPA_PROFIL
 10
80.524168147420539
 20
-38.191053748333047
 30
0.0
  0
VERTEX
  5
1AF4
  8
SAPA_PROFIL
 10
80.524168147420426
 20
-38.610769516152388
 30
0.0
 42
-0.1316524975873857
  0
VERTEX
  5
1AF5
  8
SAPA_PROFIL
 10
80.483975768555794
 20
-38.760769516152301
 30
0.0
  0
VERTEX
  5
1AF6
  8
SAPA_PROFIL
 10
79.624168147420491
 20
-40.250000000693177
 30
0.0
  0
VERTEX
  5
1AF7
  8
SAPA_PROFIL
 10
79.62415614742082
 20
-40.700000000693123
 30
0.0
 42
0.4142135623731054
  0
VERTEX
  5
1AF8
  8
SAPA_PROFIL
 10
79.924156147420831
 20
-41.000000000693127
 30
0.0
  0
VERTEX
  5
1AF9
  8
SAPA_PROFIL
 10
83.524168147420895
 20
-41.00000000069307
 30
0.0
 42
0.414213562373095
  0
VERTEX
  5
1AFA
  8
SAPA_PROFIL
 10
83.824168147420892
 20
-40.70000000069308
 30
0.0
  0
VERTEX
  5
1AFB
  8
SAPA_PROFIL
 10
83.824168147420792
 20
-40.25000000069307
 30
0.0
  0
VERTEX
  5
1AFC
  8
SAPA_PROFIL
 10
82.964343409851807
 20
-38.760739869618916
 30
0.0
 42
-0.1316363093594254
  0
VERTEX
  5
1AFD
  8
SAPA_PROFIL
 10
82.924151031594846
 20
-38.61075896457217
 30
0.0
  0
VERTEX
  5
1AFE
  8
SAPA_PROFIL
 10
82.924143981804036
 20
-38.500000000694939
 30
0.0
  0
VERTEX
  5
1AFF
  8
SAPA_PROFIL
 10
84.999999999720316
 20
-38.500000000694939
 30
0.0
 42
-0.4142135623730955
  0
VERTEX
  5
1B00
  8
SAPA_PROFIL
 10
85.499999999720302
 20
-39.000000000694939
 30
0.0
  0
VERTEX
  5
1B01
  8
SAPA_PROFIL
 10
85.499999999720302
 20
-44.250000000360238
 30
0.0
 42
-0.4142135623730953
  0
VERTEX
  5
1B02
  8
SAPA_PROFIL
 10
84.999999999720316
 20
-44.750000000360252
 30
0.0
  0
VERTEX
  5
1B03
  8
SAPA_PROFIL
 10
84.499999996136907
 20
-44.750000000360252
 30
0.0
 42
-0.4142135623730953
  0
VERTEX
  5
1B04
  8
SAPA_PROFIL
 10
83.999999996136907
 20
-44.250000000360238
 30
0.0
  0
VERTEX
  5
1B05
  8
SAPA_PROFIL
 10
83.999999996132345
 20
-43.249999999953047
 30
0.0
  0
VERTEX
  5
1B06
  8
SAPA_PROFIL
 10
80.799999995677425
 20
-43.249999999948891
 30
0.0
  0
VERTEX
  5
1B07
  8
SAPA_PROFIL
 10
80.799999995685397
 20
-47.75000000085479
 30
0.0
  0
VERTEX
  5
1B08
  8
SAPA_PROFIL
 10
100.2999999997312
 20
-47.750000000876163
 30
0.0
 42
-0.4964147352859417
  0
VERTEX
  5
1B09
  8
SAPA_PROFIL
 10
100.4926307137217
 20
-48.003790409202118
 30
0.0
 42
-0.306467954212033
  0
VERTEX
  5
1B0A
  8
SAPA_PROFIL
 10
99.638232780544627
 20
-48.728906882050971
 30
0.0
 42
-0.0272495355296329
  0
VERTEX
  5
1B0B
  8
SAPA_PROFIL
 10
85.49999999974149
 20
-49.5000000003606
 30
0.0
  0
VERTEX
  5
1B0C
  8
SAPA_PROFIL
 10
80.499999999822165
 20
-49.500000000498488
 30
0.0
 42
-0.4142135623819769
  0
VERTEX
  5
1B0D
  8
SAPA_PROFIL
 10
77.49999999973123
 20
-46.500000000498488
 30
0.0
  0
SEQEND
  5
1B0E
  8
SAPA_PROFIL
  0
POLYLINE
  5
16EB
  8
SAPA_PROFIL
 66
     1
 10
0.0
 20
0.0
 30
0.0
 70
     1
  0
VERTEX
  5
1B0F
  8
SAPA_PROFIL
 10
77.49999999973123
 20
-10.75613095973687
 30
0.0
 42
0.2418327667417041
  0
VERTEX
  5
1B10
  8
SAPA_PROFIL
 10
77.625277674695184
 20
-11.00000000068674
 30
0.0
 42
-0.2418327667547422
  0
VERTEX
  5
1B11
  8
SAPA_PROFIL
 10
77.750555349670762
 20
-11.24386904164577
 30
0.0
  0
VERTEX
  5
1B12
  8
SAPA_PROFIL
 10
77.750555349670762
 20
-12.200000000681131
 30
0.0
 42
-0.2814258985282543
  0
VERTEX
  5
1B13
  8
SAPA_PROFIL
 10
77.587349748544497
 20
-12.46699680298639
 30
0.0
 42
0.2814258985233465
  0
VERTEX
  5
1B14
  8
SAPA_PROFIL
 10
77.424144147420805
 20
-12.733993605281981
 30
0.0
  0
VERTEX
  5
1B15
  8
SAPA_PROFIL
 10
77.424144147421273
 20
-14.911541960239299
 30
0.0
 42
0.0874886635248791
  0
VERTEX
  5
1B16
  8
SAPA_PROFIL
 10
77.442236361185081
 20
-15.01414800323583
 30
0.0
  0
VERTEX
  5
1B17
  8
SAPA_PROFIL
 10
77.961750428860427
 20
-16.44150117328126
 30
0.0
 42
0.4142135623698204
  0
VERTEX
  5
1B18
  8
SAPA_PROFIL
 10
78.346264258102593
 20
-16.620802916518649
 30
0.0
  0
VERTEX
  5
1B19
  8
SAPA_PROFIL
 10
78.534202782251285
 20
-16.552398887847598
 30
0.0
 42
0.4142135623730013
  0
VERTEX
  5
1B1A
  8
SAPA_PROFIL
 10
78.713504525493832
 20
-16.167885058625959
 30
0.0
  0
VERTEX
  5
1B1B
  8
SAPA_PROFIL
 10
78.337282367827143
 20
-15.13422317575681
 30
0.0
 42
-0.41421356237947
  0
VERTEX
  5
1B1C
  8
SAPA_PROFIL
 10
78.516584111078288
 20
-14.749709346525259
 30
0.0
  0
VERTEX
  5
1B1D
  8
SAPA_PROFIL
 10
80.326774190417211
 20
-14.090854039289439
 30
0.0
 42
0.3152987888800596
  0
VERTEX
  5
1B1E
  8
SAPA_PROFIL
 10
80.524168147420539
 20
-13.80894625305322
 30
0.0
  0
VERTEX
  5
1B1F
  8
SAPA_PROFIL
 10
80.524168147420426
 20
-13.389230485233879
 30
0.0
 42
0.1316524975873857
  0
VERTEX
  5
1B20
  8
SAPA_PROFIL
 10
80.483975768555794
 20
-13.239230485233961
 30
0.0
  0
VERTEX
  5
1B21
  8
SAPA_PROFIL
 10
79.624168147420491
 20
-11.750000000693079
 30
0.0
  0
VERTEX
  5
1B22
  8
SAPA_PROFIL
 10
79.624156147420834
 20
-11.30000000069313
 30
0.0
 42
-0.4142135623731054
  0
VERTEX
  5
1B23
  8
SAPA_PROFIL
 10
79.924156147420831
 20
-11.000000000693131
 30
0.0
  0
VERTEX
  5
1B24
  8
SAPA_PROFIL
 10
83.524168147420895
 20
-11.000000000693181
 30
0.0
 42
-0.414213562373095
  0
VERTEX
  5
1B25
  8
SAPA_PROFIL
 10
83.824168147420892
 20
-11.30000000069318
 30
0.0
  0
VERTEX
  5
1B26
  8
SAPA_PROFIL
 10
83.824168147420792
 20
-11.750000000693181
 30
0.0
  0
VERTEX
  5
1B27
  8
SAPA_PROFIL
 10
82.964343409851807
 20
-13.239260131767351
 30
0.0
 42
0.1316363093594254
  0
VERTEX
  5
1B28
  8
SAPA_PROFIL
 10
82.924151031594846
 20
-13.38924103681409
 30
0.0
  0
VERTEX
  5
1B29
  8
SAPA_PROFIL
 10
82.924143981804036
 20
-13.500000000691321
 30
0.0
  0
VERTEX
  5
1B2A
  8
SAPA_PROFIL
 10
84.999999999720316
 20
-13.500000000691321
 30
0.0
 42
0.4142135623730955
  0
VERTEX
  5
1B2B
  8
SAPA_PROFIL
 10
85.499999999720316
 20
-13.000000000691321
 30
0.0
  0
VERTEX
  5
1B2C
  8
SAPA_PROFIL
 10
85.499999999720316
 20
-7.7500000010260184
 30
0.0
 42
0.4142135623730953
  0
VERTEX
  5
1B2D
  8
SAPA_PROFIL
 10
84.999999999720316
 20
-7.2500000010260184
 30
0.0
  0
VERTEX
  5
1B2E
  8
SAPA_PROFIL
 10
84.499999996136907
 20
-7.2500000010260166
 30
0.0
 42
0.4142135623730953
  0
VERTEX
  5
1B2F
  8
SAPA_PROFIL
 10
83.999999996136907
 20
-7.7500000010260166
 30
0.0
  0
VERTEX
  5
1B30
  8
SAPA_PROFIL
 10
83.999999996132345
 20
-8.7500000014332109
 30
0.0
  0
VERTEX
  5
1B31
  8
SAPA_PROFIL
 10
80.799999995677439
 20
-8.7500000014373676
 30
0.0
  0
VERTEX
  5
1B32
  8
SAPA_PROFIL
 10
80.799999995685425
 20
-4.2500000005314718
 30
0.0
  0
VERTEX
  5
1B33
  8
SAPA_PROFIL
 10
100.2999999997312
 20
-4.2500000005101102
 30
0.0
 42
0.4964147352859417
  0
VERTEX
  5
1B34
  8
SAPA_PROFIL
 10
100.4926307137217
 20
-3.9962095921841549
 30
0.0
 42
0.306467954212033
  0
VERTEX
  5
1B35
  8
SAPA_PROFIL
 10
99.638232780544627
 20
-3.2710931193353052
 30
0.0
 42
0.0272495355296329
  0
VERTEX
  5
1B36
  8
SAPA_PROFIL
 10
85.499999999741505
 20
-2.5000000010256622
 30
0.0
  0
VERTEX
  5
1B37
  8
SAPA_PROFIL
 10
80.499999999822165
 20
-2.500000000887773
 30
0.0
 42
0.4142135623819769
  0
VERTEX
  5
1B38
  8
SAPA_PROFIL
 10
77.49999999973123
 20
-5.500000000887769
 30
0.0
  0
SEQEND
  5
1B39
  8
SAPA_PROFIL
  0
POLYLINE
  5
16EC
  8
SAPA_PROFIL
 62
     4
 66
     1
 10
0.0
 20
0.0
 30
0.0
 70
     1
  0
VERTEX
  5
16ED
  8
SAPA_PROFIL
 62
     4
 10
80.774156147422843
 20
-13.85621778334562
 30
0.0
 42
0.1316524975873979
  0
VERTEX
  5
16EE
  8
SAPA_PROFIL
 62
     4
 10
80.666976470450422
 20
-13.456217783345609
 30
0.0
  0
VERTEX
  5
16EF
  8
SAPA_PROFIL
 62
     4
 10
79.674156147420973
 20
-11.73660254107156
 30
0.0
  0
VERTEX
  5
16F0
  8
SAPA_PROFIL
 62
     4
 10
79.674156147420902
 20
-11.30000000069311
 30
0.0
 42
-0.4142135623730951
  0
VERTEX
  5
16F1
  8
SAPA_PROFIL
 62
     4
 10
79.924156147420888
 20
-11.050000000693119
 30
0.0
  0
VERTEX
  5
16F2
  8
SAPA_PROFIL
 62
     4
 10
83.524168147420951
 20
-11.05000000069308
 30
0.0
 42
-0.4142135623731053
  0
VERTEX
  5
16F3
  8
SAPA_PROFIL
 62
     4
 10
83.774168147420966
 20
-11.30000000069308
 30
0.0
  0
VERTEX
  5
16F4
  8
SAPA_PROFIL
 62
     4
 10
83.774156504685607
 20
-11.736601922271539
 30
0.0
  0
VERTEX
  5
16F5
  8
SAPA_PROFIL
 62
     4
 10
82.781335824395327
 20
-13.45621778333893
 30
0.0
 42
0.1316524975874149
  0
VERTEX
  5
16F6
  8
SAPA_PROFIL
 62
     4
 10
82.674156147422835
 20
-13.85621778333898
 30
0.0
  0
VERTEX
  5
16F7
  8
SAPA_PROFIL
 62
     4
 10
82.674156147422835
 20
-38.143782218047278
 30
0.0
 42
0.1316524975874151
  0
VERTEX
  5
16F8
  8
SAPA_PROFIL
 62
     4
 10
82.781335824395327
 20
-38.543782218047333
 30
0.0
  0
VERTEX
  5
16F9
  8
SAPA_PROFIL
 62
     4
 10
83.774156504685592
 20
-40.263398079114722
 30
0.0
  0
VERTEX
  5
16FA
  8
SAPA_PROFIL
 62
     4
 10
83.774168147420966
 20
-40.70000000069318
 30
0.0
 42
-0.4142135623731054
  0
VERTEX
  5
16FB
  8
SAPA_PROFIL
 62
     4
 10
83.524168147420951
 20
-40.950000000693187
 30
0.0
  0
VERTEX
  5
16FC
  8
SAPA_PROFIL
 62
     4
 10
79.924156147420888
 20
-40.950000000693137
 30
0.0
 42
-0.4142135623730953
  0
VERTEX
  5
16FD
  8
SAPA_PROFIL
 62
     4
 10
79.674156147420888
 20
-40.700000000693151
 30
0.0
  0
VERTEX
  5
16FE
  8
SAPA_PROFIL
 62
     4
 10
79.674156147420973
 20
-40.263397460314692
 30
0.0
  0
VERTEX
  5
16FF
  8
SAPA_PROFIL
 62
     4
 10
80.666976470450422
 20
-38.543782218040661
 30
0.0
 42
0.1316524975873982
  0
VERTEX
  5
1700
  8
SAPA_PROFIL
 62
     4
 10
80.774156147422843
 20
-38.143782218040641
 30
0.0
  0
SEQEND
  5
1701
  8
SAPA_PROFIL
 62
     4
  0
LINE
  5
1702
  8
SAPA_PROFIL
 10
71.499999999796017
 20
-14.00000000002392
 30
0.0
 11
71.499999999795435
 21
-44.000000000023917
 31
0.0
  0
LINE
  5
1703
  8
SAPA_PROFIL
 10
75.499999999796003
 20
-14.000000000024
 30
0.0
 11
71.499999999796017
 21
-14.00000000002392
 31
0.0
  0
LINE
  5
1704
  8
SAPA_PROFIL
 10
75.499999999795449
 20
-44.000000000024002
 30
0.0
 11
75.499999999796003
 21
-14.000000000024
 31
0.0
  0
LINE
  5
1705
  8
SAPA_PROFIL
 10
71.499999999795435
 20
-44.000000000023917
 30
0.0
 11
75.499999999795449
 21
-44.000000000024002
 31
0.0
  0
POLYLINE
  5
1706
  8
SAPA_PROFIL
 66
     1
 10
0.0
 20
0.0
 30
0.0
 70
     1
  0
VERTEX
  5
1B3A
  8
SAPA_PROFIL
 10
69.499999999791925
 20
-4.7500000006249152
 30
0.0
 42
0.4142135623730934
  0
VERTEX
  5
1B3B
  8
SAPA_PROFIL
 10
69.999999999791925
 20
-5.2500000006249223
 30
0.0
  0
VERTEX
  5
1B3C
  8
SAPA_PROFIL
 10
70.299999999794835
 20
-5.2500000006249223
 30
0.0
 42
0.414213562373094
  0
VERTEX
  5
1B3D
  8
SAPA_PROFIL
 10
70.499999999794881
 20
-5.0500000006248733
 30
0.0
  0
VERTEX
  5
1B3E
  8
SAPA_PROFIL
 10
70.499999999791925
 20
-4.2000000006243923
 30
0.0
 42
-0.4142135623731011
  0
VERTEX
  5
1B3F
  8
SAPA_PROFIL
 10
70.699999999789014
 20
-4.0000000006243432
 30
0.0
  0
VERTEX
  5
1B40
  8
SAPA_PROFIL
 10
71.699999999789014
 20
-4.0000000006212799
 30
0.0
 42
-0.4142135623730955
  0
VERTEX
  5
1B41
  8
SAPA_PROFIL
 10
72.199999999789014
 20
-4.5000000006212844
 30
0.0
  0
VERTEX
  5
1B42
  8
SAPA_PROFIL
 10
72.199999999810842
 20
-10.50000000062127
 30
0.0
 42
-0.414213562373093
  0
VERTEX
  5
1B43
  8
SAPA_PROFIL
 10
71.699999999810842
 20
-11.00000000062127
 30
0.0
  0
VERTEX
  5
1B44
  8
SAPA_PROFIL
 10
70.699999999803566
 20
-11.00000000062435
 30
0.0
 42
-0.414213562373099
  0
VERTEX
  5
1B45
  8
SAPA_PROFIL
 10
70.499999999806477
 20
-10.8000000006243
 30
0.0
  0
VERTEX
  5
1B46
  8
SAPA_PROFIL
 10
70.499999999806477
 20
-9.9500000006249607
 30
0.0
 42
0.4142135623730998
  0
VERTEX
  5
1B47
  8
SAPA_PROFIL
 10
70.299999999809387
 20
-9.7500000006278711
 30
0.0
  0
VERTEX
  5
1B48
  8
SAPA_PROFIL
 10
69.999999999806477
 20
-9.7500000006249152
 30
0.0
 42
0.4142135623730934
  0
VERTEX
  5
1B49
  8
SAPA_PROFIL
 10
69.499999999806477
 20
-10.250000000624921
 30
0.0
  0
VERTEX
  5
1B4A
  8
SAPA_PROFIL
 10
69.49999999983558
 20
-20.00000000002283
 30
0.0
 42
0.4142135623730951
  0
VERTEX
  5
1B4B
  8
SAPA_PROFIL
 10
69.99999999983558
 20
-20.50000000002283
 30
0.0
  0
VERTEX
  5
1B4C
  8
SAPA_PROFIL
 10
70.899999999800656
 20
-20.500000000021011
 30
0.0
 42
0.4142135623741607
  0
VERTEX
  5
1B4D
  8
SAPA_PROFIL
 10
71.399999999800656
 20
-20.000000000019192
 30
0.0
  0
VERTEX
  5
1B4E
  8
SAPA_PROFIL
 10
71.399999999786104
 20
-14.200000000025369
 30
0.0
 42
-0.4142135623741607
  0
VERTEX
  5
1B4F
  8
SAPA_PROFIL
 10
71.899999999786104
 20
-13.70000000002355
 30
0.0
  0
VERTEX
  5
1B50
  8
SAPA_PROFIL
 10
75.099999999797745
 20
-13.700000000025369
 30
0.0
 42
-0.4142135623720295
  0
VERTEX
  5
1B51
  8
SAPA_PROFIL
 10
75.599999999797745
 20
-14.200000000023561
 30
0.0
  0
VERTEX
  5
1B52
  8
SAPA_PROFIL
 10
75.599999999805021
 20
-20.000000000024649
 30
0.0
 42
0.4142135623720299
  0
VERTEX
  5
1B53
  8
SAPA_PROFIL
 10
76.099999999805021
 20
-20.50000000002283
 30
0.0
  0
VERTEX
  5
1B54
  8
SAPA_PROFIL
 10
76.999999999755545
 20
-20.50000000002283
 30
0.0
 42
0.4142135623741607
  0
VERTEX
  5
1B55
  8
SAPA_PROFIL
 10
77.499999999755545
 20
-20.000000000021011
 30
0.0
  0
VERTEX
  5
1B56
  8
SAPA_PROFIL
 10
77.499999999734953
 20
-5.5000000011524222
 30
0.0
 42
-0.2442508343818444
  0
VERTEX
  5
1B57
  8
SAPA_PROFIL
 10
78.775121427740686
 20
-3.0454545529997601
 30
0.0
 42
0.7325810975853262
  0
VERTEX
  5
1B58
  8
SAPA_PROFIL
 10
78.602633565230661
 20
-2.5000000006212799
 30
0.0
  0
VERTEX
  5
1B59
  8
SAPA_PROFIL
 10
69.999999999791925
 20
-2.5000000006249108
 30
0.0
 42
0.4142135623730943
  0
VERTEX
  5
1B5A
  8
SAPA_PROFIL
 10
69.499999999791925
 20
-3.0000000006249108
 30
0.0
  0
SEQEND
  5
1B5B
  8
SAPA_PROFIL
  0
POLYLINE
  5
1707
  8
SAPA_PROFIL
 66
     1
 10
0.0
 20
0.0
 30
0.0
 70
     1
  0
VERTEX
  5
1B5C
  8
SAPA_PROFIL
 10
78.60263356376403
 20
-49.500000000026311
 30
0.0
 42
0.7325810973615675
  0
VERTEX
  5
1B5D
  8
SAPA_PROFIL
 10
78.775121373218994
 20
-48.954545523405137
 30
0.0
 42
-0.244250834240976
  0
VERTEX
  5
1B5E
  8
SAPA_PROFIL
 10
77.49999999973096
 20
-46.50000000049846
 30
0.0
  0
VERTEX
  5
1B5F
  8
SAPA_PROFIL
 10
77.49999999970187
 20
-38.000000000018296
 30
0.0
 42
0.4142135623720462
  0
VERTEX
  5
1B60
  8
SAPA_PROFIL
 10
76.99999999970187
 20
-37.500000000020101
 30
0.0
  0
VERTEX
  5
1B61
  8
SAPA_PROFIL
 10
76.099999999722229
 20
-37.500000000018296
 30
0.0
 42
0.4142135623731023
  0
VERTEX
  5
1B62
  8
SAPA_PROFIL
 10
75.599999999722229
 20
-38.000000000018296
 30
0.0
  0
VERTEX
  5
1B63
  8
SAPA_PROFIL
 10
75.599999999736852
 20
-43.800000000015693
 30
0.0
 42
-0.4142135623731014
  0
VERTEX
  5
1B64
  8
SAPA_PROFIL
 10
75.099999999736823
 20
-44.300000000015693
 30
0.0
  0
VERTEX
  5
1B65
  8
SAPA_PROFIL
 10
71.899999999739734
 20
-44.300000000010293
 30
0.0
 42
-0.4142135623731023
  0
VERTEX
  5
1B66
  8
SAPA_PROFIL
 10
71.399999999739748
 20
-43.800000000010293
 30
0.0
  0
VERTEX
  5
1B67
  8
SAPA_PROFIL
 10
71.399999999739748
 20
-38.000000000014602
 30
0.0
 42
0.4142135623731014
  0
VERTEX
  5
1B68
  8
SAPA_PROFIL
 10
70.899999999739748
 20
-37.500000000014609
 30
0.0
  0
VERTEX
  5
1B69
  8
SAPA_PROFIL
 10
69.999999999745526
 20
-37.500000000016414
 30
0.0
 42
0.4142135623741899
  0
VERTEX
  5
1B6A
  8
SAPA_PROFIL
 10
69.499999999745526
 20
-38.000000000018296
 30
0.0
  0
VERTEX
  5
1B6B
  8
SAPA_PROFIL
 10
69.499999999760135
 20
-45.5000000000108
 30
0.0
 42
-0.4142135623737591
  0
VERTEX
  5
1B6C
  8
SAPA_PROFIL
 10
67.999999999760135
 20
-47.000000000014211
 30
0.0
  0
VERTEX
  5
1B6D
  8
SAPA_PROFIL
 10
47.000000000131152
 20
-47.000000000005997
 30
0.0
 42
-0.4142135623801642
  0
VERTEX
  5
1B6E
  8
SAPA_PROFIL
 10
45.500000000131159
 20
-45.499999999969781
 30
0.0
  0
VERTEX
  5
1B6F
  8
SAPA_PROFIL
 10
45.500000000152973
 20
-44.700000000654697
 30
0.0
 42
-0.4142135623693511
  0
VERTEX
  5
1B70
  8
SAPA_PROFIL
 10
46.00000000015298
 20
-44.200000000661099
 30
0.0
  0
VERTEX
  5
1B71
  8
SAPA_PROFIL
 10
47.499999999789189
 20
-44.200000000657489
 30
0.0
 42
0.4142135623763114
  0
VERTEX
  5
1B72
  8
SAPA_PROFIL
 10
47.999999999789182
 20
-43.70000000065199
 30
0.0
  0
VERTEX
  5
1B73
  8
SAPA_PROFIL
 10
47.99999999977463
 20
-43.000000000649393
 30
0.0
 42
0.4142135623731014
  0
VERTEX
  5
1B74
  8
SAPA_PROFIL
 10
47.49999999977463
 20
-42.500000000649401
 30
0.0
  0
VERTEX
  5
1B75
  8
SAPA_PROFIL
 10
46.00000000015298
 20
-42.500000000653088
 30
0.0
 42
-0.4142135623699316
  0
VERTEX
  5
1B76
  8
SAPA_PROFIL
 10
45.500000000152973
 20
-42.000000000658488
 30
0.0
  0
VERTEX
  5
1B77
  8
SAPA_PROFIL
 10
45.500000000138421
 20
-41.000000000651298
 30
0.0
 42
-0.4142135623730951
  0
VERTEX
  5
1B78
  8
SAPA_PROFIL
 10
46.000000000138421
 20
-40.500000000651312
 30
0.0
  0
VERTEX
  5
1B79
  8
SAPA_PROFIL
 10
46.29128784762743
 20
-40.500000000651298
 30
0.0
 42
0.2982166266985379
  0
VERTEX
  5
1B7A
  8
SAPA_PROFIL
 10
46.749545417109182
 20
-40.200000000664907
 30
0.0
 42
1.527525231655821
  0
VERTEX
  5
1B7B
  8
SAPA_PROFIL
 10
41.25045458315391
 20
-40.200000000651421
 30
0.0
 42
0.29821662669855
  0
VERTEX
  5
1B7C
  8
SAPA_PROFIL
 10
41.708712152649419
 20
-40.500000000651312
 30
0.0
  0
VERTEX
  5
1B7D
  8
SAPA_PROFIL
 10
42.000000000138428
 20
-40.500000000651298
 30
0.0
 42
-0.4142135623730951
  0
VERTEX
  5
1B7E
  8
SAPA_PROFIL
 10
42.500000000138428
 20
-41.000000000651298
 30
0.0
  0
VERTEX
  5
1B7F
  8
SAPA_PROFIL
 10
42.500000000123869
 20
-42.000000000658488
 30
0.0
 42
-0.4142135623699318
  0
VERTEX
  5
1B80
  8
SAPA_PROFIL
 10
42.000000000123869
 20
-42.500000000653088
 30
0.0
  0
VERTEX
  5
1B81
  8
SAPA_PROFIL
 10
40.500000000502219
 20
-42.500000000649401
 30
0.0
 42
0.4142135623730951
  0
VERTEX
  5
1B82
  8
SAPA_PROFIL
 10
40.000000000502219
 20
-43.000000000649393
 30
0.0
  0
VERTEX
  5
1B83
  8
SAPA_PROFIL
 10
40.000000000487681
 20
-43.70000000065199
 30
0.0
 42
0.414213562376323
  0
VERTEX
  5
1B84
  8
SAPA_PROFIL
 10
40.500000000487667
 20
-44.200000000657489
 30
0.0
  0
VERTEX
  5
1B85
  8
SAPA_PROFIL
 10
42.000000000123869
 20
-44.200000000661092
 30
0.0
 42
-0.4142135623693511
  0
VERTEX
  5
1B86
  8
SAPA_PROFIL
 10
42.500000000123869
 20
-44.700000000654697
 30
0.0
  0
VERTEX
  5
1B87
  8
SAPA_PROFIL
 10
42.500000000116657
 20
-45.49999999999919
 30
0.0
 42
-0.4142135623730965
  0
VERTEX
  5
1B88
  8
SAPA_PROFIL
 10
41.0000000001166
 20
-46.999999999999197
 30
0.0
  0
VERTEX
  5
1B89
  8
SAPA_PROFIL
 10
19.50000000048767
 20
-46.999999999973717
 30
0.0
 42
-0.4142135623730957
  0
VERTEX
  5
1B8A
  8
SAPA_PROFIL
 10
18.500000000494939
 20
-45.999999999981
 30
0.0
  0
VERTEX
  5
1B8B
  8
SAPA_PROFIL
 10
18.500000000502219
 20
-45.0000000006658
 30
0.0
 42
0.4142135623730951
  0
VERTEX
  5
1B8C
  8
SAPA_PROFIL
 10
18.000000000502219
 20
-44.500000000665793
 30
0.0
  0
VERTEX
  5
1B8D
  8
SAPA_PROFIL
 10
17.700000000502271
 20
-44.500000000665793
 30
0.0
 42
0.4142135623730951
  0
VERTEX
  5
1B8E
  8
SAPA_PROFIL
 10
17.500000000502219
 20
-44.700000000665788
 30
0.0
  0
VERTEX
  5
1B8F
  8
SAPA_PROFIL
 10
17.500000000502219
 20
-46.0000000006658
 30
0.0
 42
-0.4142135623730949
  0
VERTEX
  5
1B90
  8
SAPA_PROFIL
 10
17.000000000502219
 20
-46.500000000665793
 30
0.0
  0
VERTEX
  5
1B91
  8
SAPA_PROFIL
 10
16.70000000048476
 20
-46.500000000665793
 30
0.0
 42
-0.4142135623730961
  0
VERTEX
  5
1B92
  8
SAPA_PROFIL
 10
16.20000000048476
 20
-46.0000000006658
 30
0.0
  0
VERTEX
  5
1B93
  8
SAPA_PROFIL
 10
16.20000000048476
 20
-21.500000000665828
 30
0.0
 42
-0.4142135623730949
  0
VERTEX
  5
1B94
  8
SAPA_PROFIL
 10
16.70000000048476
 20
-21.000000000665821
 30
0.0
  0
VERTEX
  5
1B95
  8
SAPA_PROFIL
 10
17.000000000502219
 20
-21.000000000665821
 30
0.0
 42
-0.4142135623730946
  0
VERTEX
  5
1B96
  8
SAPA_PROFIL
 10
17.500000000502219
 20
-21.500000000665828
 30
0.0
  0
VERTEX
  5
1B97
  8
SAPA_PROFIL
 10
17.500000000502279
 20
-22.800000000665818
 30
0.0
 42
0.4142135623730959
  0
VERTEX
  5
1B98
  8
SAPA_PROFIL
 10
17.700000000502271
 20
-23.000000000665828
 30
0.0
  0
VERTEX
  5
1B99
  8
SAPA_PROFIL
 10
18.000000000502219
 20
-23.000000000665828
 30
0.0
 42
0.414213562373094
  0
VERTEX
  5
1B9A
  8
SAPA_PROFIL
 10
18.500000000502219
 20
-22.500000000665828
 30
0.0
  0
VERTEX
  5
1B9B
  8
SAPA_PROFIL
 10
18.50000000048767
 20
-18.750000000665828
 30
0.0
 42
0.4142135623730946
  0
VERTEX
  5
1B9C
  8
SAPA_PROFIL
 10
18.00000000048767
 20
-18.250000000665821
 30
0.0
  0
VERTEX
  5
1B9D
  8
SAPA_PROFIL
 10
17.700000000487659
 20
-18.250000000665821
 30
0.0
 42
0.4142135623730965
  0
VERTEX
  5
1B9E
  8
SAPA_PROFIL
 10
17.50000000048767
 20
-18.45000000066581
 30
0.0
  0
VERTEX
  5
1B9F
  8
SAPA_PROFIL
 10
17.500000000487621
 20
-19.300000000665811
 30
0.0
 42
-0.4142135623730965
  0
VERTEX
  5
1BA0
  8
SAPA_PROFIL
 10
17.300000000487621
 20
-19.500000000665821
 30
0.0
  0
VERTEX
  5
1BA1
  8
SAPA_PROFIL
 10
16.300000000490641
 20
-19.500000000665821
 30
0.0
 42
-0.4142135623730946
  0
VERTEX
  5
1BA2
  8
SAPA_PROFIL
 10
15.800000000490639
 20
-19.000000000665828
 30
0.0
  0
VERTEX
  5
1BA3
  8
SAPA_PROFIL
 10
15.800000000490639
 20
-13.000000000665811
 30
0.0
 42
-0.4142135623731024
  0
VERTEX
  5
1BA4
  8
SAPA_PROFIL
 10
16.300000000490641
 20
-12.5000000006658
 30
0.0
  0
VERTEX
  5
1BA5
  8
SAPA_PROFIL
 10
17.300000000490009
 20
-12.5000000006658
 30
0.0
 42
-0.4142135623696794
  0
VERTEX
  5
1BA6
  8
SAPA_PROFIL
 10
17.500000000490001
 20
-12.70000000066346
 30
0.0
  0
VERTEX
  5
1BA7
  8
SAPA_PROFIL
 10
17.500000000499892
 20
-13.550000000665181
 30
0.0
 42
0.4142135623739471
  0
VERTEX
  5
1BA8
  8
SAPA_PROFIL
 10
17.700000000502829
 20
-13.750000000662871
 30
0.0
  0
VERTEX
  5
1BA9
  8
SAPA_PROFIL
 10
18.00000000048767
 20
-13.75000000065849
 30
0.0
 42
0.4142135623731022
  0
VERTEX
  5
1BAA
  8
SAPA_PROFIL
 10
18.50000000048767
 20
-13.25000000065849
 30
0.0
  0
VERTEX
  5
1BAB
  8
SAPA_PROFIL
 10
18.50000000048767
 20
-10.25000000065849
 30
0.0
 42
0.4142135623731026
  0
VERTEX
  5
1BAC
  8
SAPA_PROFIL
 10
18.00000000048767
 20
-9.7500000006584884
 30
0.0
  0
VERTEX
  5
1BAD
  8
SAPA_PROFIL
 10
17.700000000487659
 20
-9.7500000006585221
 30
0.0
 42
0.4142135623730965
  0
VERTEX
  5
1BAE
  8
SAPA_PROFIL
 10
17.50000000048767
 20
-9.9500000006585125
 30
0.0
  0
VERTEX
  5
1BAF
  8
SAPA_PROFIL
 10
17.500000000487621
 20
-10.8000000006585
 30
0.0
 42
-0.4142135623730957
  0
VERTEX
  5
1BB0
  8
SAPA_PROFIL
 10
17.300000000487621
 20
-11.00000000065849
 30
0.0
  0
VERTEX
  5
1BB1
  8
SAPA_PROFIL
 10
16.300000000490641
 20
-11.00000000065849
 30
0.0
 42
-0.4142135623731023
  0
VERTEX
  5
1BB2
  8
SAPA_PROFIL
 10
15.800000000490639
 20
-10.50000000065849
 30
0.0
  0
VERTEX
  5
1BB3
  8
SAPA_PROFIL
 10
15.800000000490639
 20
-4.5000000006584946
 30
0.0
 42
-0.4142135623731024
  0
VERTEX
  5
1BB4
  8
SAPA_PROFIL
 10
16.300000000490641
 20
-4.0000000006584946
 30
0.0
  0
VERTEX
  5
1BB5
  8
SAPA_PROFIL
 10
17.300000000487621
 20
-4.000000000658523
 30
0.0
 42
-0.4142135623731133
  0
VERTEX
  5
1BB6
  8
SAPA_PROFIL
 10
17.50000000048767
 20
-4.2000000006585116
 30
0.0
  0
VERTEX
  5
1BB7
  8
SAPA_PROFIL
 10
17.50000000048767
 20
-5.0500000006585131
 30
0.0
 42
0.4142135623730965
  0
VERTEX
  5
1BB8
  8
SAPA_PROFIL
 10
17.700000000487659
 20
-5.2500000006584946
 30
0.0
  0
VERTEX
  5
1BB9
  8
SAPA_PROFIL
 10
18.00000000048767
 20
-5.2500000006584946
 30
0.0
 42
0.4142135623731022
  0
VERTEX
  5
1BBA
  8
SAPA_PROFIL
 10
18.50000000048767
 20
-4.7500000006584946
 30
0.0
  0
VERTEX
  5
1BBB
  8
SAPA_PROFIL
 10
18.50000000048767
 20
-3.000000000658495
 30
0.0
 42
0.4142135623731026
  0
VERTEX
  5
1BBC
  8
SAPA_PROFIL
 10
18.00000000048767
 20
-2.500000000658495
 30
0.0
  0
VERTEX
  5
1BBD
  8
SAPA_PROFIL
 10
15.50000000048767
 20
-2.500000000658495
 30
0.0
 42
0.4142135623730971
  0
VERTEX
  5
1BBE
  8
SAPA_PROFIL
 10
14.00000000048767
 20
-4.0000000006584946
 30
0.0
  0
VERTEX
  5
1BBF
  8
SAPA_PROFIL
 10
14.00000000050222
 20
-46.499999999985491
 30
0.0
 42
0.4142135623730951
  0
VERTEX
  5
1BC0
  8
SAPA_PROFIL
 10
17.000000000502219
 20
-49.499999999985491
 30
0.0
  0
SEQEND
  5
1BC1
  8
SAPA_PROFIL
  0
POLYLINE
  5
1708
  8
SAPA_PROFIL
 62
     4
 66
     1
 10
0.0
 20
0.0
 30
-0.2
 70
     1
  0
VERTEX
  5
1BC2
  8
SAPA_PROFIL
 62
     4
 10
31.456217782499401
 20
-11.592264973109801
 30
-0.2
  0
VERTEX
  5
1BC3
  8
SAPA_PROFIL
 62
     4
 10
29.736602540225359
 20
-10.599444650080381
 30
-0.2
  0
VERTEX
  5
1BC4
  8
SAPA_PROFIL
 62
     4
 10
29.299999999846911
 20
-10.599444650080279
 30
-0.2
 42
0.4142135623730951
  0
VERTEX
  5
1BC5
  8
SAPA_PROFIL
 62
     4
 10
29.049999999846921
 20
-10.849444650080279
 30
-0.2
  0
VERTEX
  5
1BC6
  8
SAPA_PROFIL
 62
     4
 10
29.049999999846872
 20
-14.449456650080339
 30
-0.2
 42
0.4142135623731053
  0
VERTEX
  5
1BC7
  8
SAPA_PROFIL
 62
     4
 10
29.299999999846872
 20
-14.69945665008035
 30
-0.2
  0
VERTEX
  5
1BC8
  8
SAPA_PROFIL
 62
     4
 10
29.736601921425329
 20
-14.699445007344989
 30
-0.2
  0
VERTEX
  5
1BC9
  8
SAPA_PROFIL
 62
     4
 10
31.456217782492729
 20
-13.70662432705471
 30
-0.2
 42
-0.1316524975874149
  0
VERTEX
  5
1BCA
  8
SAPA_PROFIL
 62
     4
 10
31.85621778249277
 20
-13.599444650082219
 30
-0.2
  0
VERTEX
  5
1BCB
  8
SAPA_PROFIL
 62
     4
 10
56.143782217201071
 20
-13.599444650082219
 30
-0.2
 42
-0.1316524975874152
  0
VERTEX
  5
1BCC
  8
SAPA_PROFIL
 62
     4
 10
56.543782217201112
 20
-13.706624327054721
 30
-0.2
  0
VERTEX
  5
1BCD
  8
SAPA_PROFIL
 62
     4
 10
58.263398078268509
 20
-14.699445007344989
 30
-0.2
  0
VERTEX
  5
1BCE
  8
SAPA_PROFIL
 62
     4
 10
58.699999999846973
 20
-14.69945665008035
 30
-0.2
 42
0.4142135623731045
  0
VERTEX
  5
1BCF
  8
SAPA_PROFIL
 62
     4
 10
58.94999999984698
 20
-14.44945665008035
 30
-0.2
  0
VERTEX
  5
1BD0
  8
SAPA_PROFIL
 62
     4
 10
58.949999999846924
 20
-10.849444650080279
 30
-0.2
 42
0.4142135623730935
  0
VERTEX
  5
1BD1
  8
SAPA_PROFIL
 62
     4
 10
58.699999999846938
 20
-10.599444650080279
 30
-0.2
  0
VERTEX
  5
1BD2
  8
SAPA_PROFIL
 62
     4
 10
58.263397459468479
 20
-10.599444650080381
 30
-0.2
  0
VERTEX
  5
1BD3
  8
SAPA_PROFIL
 62
     4
 10
56.54378221719444
 20
-11.59226497310981
 30
-0.2
 42
-0.1316524975873982
  0
VERTEX
  5
1BD4
  8
SAPA_PROFIL
 62
     4
 10
56.143782217194428
 20
-11.69944465008224
 30
-0.2
  0
VERTEX
  5
1BD5
  8
SAPA_PROFIL
 62
     4
 10
31.856217782499421
 20
-11.69944465008224
 30
-0.2
 42
-0.1316524975873979
  0
SEQEND
  5
1BD6
  8
SAPA_PROFIL
 62
     4
  0
POLYLINE
  5
1709
  8
SAPA_PROFIL
 66
     1
 10
0.0
 20
0.0
 30
0.0
 70
     1
  0
VERTEX
  5
1BD7
  8
SAPA_PROFIL
 10
96.499999999519517
 20
22.999999999979519
 30
0.0
  0
VERTEX
  5
1BD8
  8
SAPA_PROFIL
 10
95.711461024907905
 20
22.999999999979519
 30
0.0
 42
-0.0577043334240353
  0
VERTEX
  5
1BD9
  8
SAPA_PROFIL
 10
93.42621752067042
 20
23.26461802869634
 30
0.0
 42
0.1123270377207732
  0
VERTEX
  5
1BDA
  8
SAPA_PROFIL
 10
71.241252094439972
 20
23.416483945797129
 30
0.0
 42
0.3636666106259163
  0
VERTEX
  5
1BDB
  8
SAPA_PROFIL
 10
68.889330871576675
 20
20.362995954169801
 30
0.0
 42
-0.0360286231067385
  0
VERTEX
  5
1BDC
  8
SAPA_PROFIL
 10
68.313873080037638
 20
1.6612508490262741
 30
0.0
 42
-0.0472456768419823
  0
VERTEX
  5
1BDD
  8
SAPA_PROFIL
 10
67.944420123268344
 20
-0.1878192065815014
 30
0.0
 42
-0.0120164869908705
  0
VERTEX
  5
1BDE
  8
SAPA_PROFIL
 10
67.571428571134447
 20
-1.329931278357229
 30
0.0
 42
0.0851278882549297
  0
VERTEX
  5
1BDF
  8
SAPA_PROFIL
 10
66.999999999697764
 20
-4.6619037897203546
 30
0.0
  0
VERTEX
  5
1BE0
  8
SAPA_PROFIL
 10
66.999999999697764
 20
-12.000000000049591
 30
0.0
 42
-0.4142135623730951
  0
VERTEX
  5
1BE1
  8
SAPA_PROFIL
 10
61.999999999697764
 20
-17.000000000049589
 30
0.0
  0
VERTEX
  5
1BE2
  8
SAPA_PROFIL
 10
59.243869040797733
 20
-17.000000000038671
 30
0.0
 42
-0.2418327667382071
  0
VERTEX
  5
1BE3
  8
SAPA_PROFIL
 10
58.999999999832433
 20
-16.87472232507249
 30
0.0
 42
0.2418327667526432
  0
VERTEX
  5
1BE4
  8
SAPA_PROFIL
 10
58.756130958896108
 20
-16.749444650079131
 30
0.0
  0
VERTEX
  5
1BE5
  8
SAPA_PROFIL
 10
57.799999999846193
 20
-16.749444650079131
 30
0.0
 42
0.3178606011753677
  0
VERTEX
  5
1BE6
  8
SAPA_PROFIL
 10
57.517148803236033
 20
-16.94946865008037
 30
0.0
  0
VERTEX
  5
1BE7
  8
SAPA_PROFIL
 10
55.214189562220582
 20
-16.94946865008037
 30
0.0
 42
-0.6681786379192716
  0
VERTEX
  5
1BE8
  8
SAPA_PROFIL
 10
54.507082781033979
 20
-15.24236186889388
 30
0.0
  0
VERTEX
  5
1BE9
  8
SAPA_PROFIL
 10
55.812132034202953
 20
-13.937312615724711
 30
0.0
 42
-0.1989123673797335
  0
VERTEX
  5
1BEA
  8
SAPA_PROFIL
 10
56.024264068559027
 20
-13.849444650080599
 30
0.0
  0
VERTEX
  5
1BEB
  8
SAPA_PROFIL
 10
56.610769515306217
 20
-13.84944465008074
 30
0.0
 42
-0.1316524975873855
  0
VERTEX
  5
1BEC
  8
SAPA_PROFIL
 10
56.760769515306137
 20
-13.88963702894538
 30
0.0
  0
VERTEX
  5
1BED
  8
SAPA_PROFIL
 10
58.249999999847027
 20
-14.74944465008069
 30
0.0
  0
VERTEX
  5
1BEE
  8
SAPA_PROFIL
 10
58.699999999846959
 20
-14.749456650080351
 30
0.0
 42
0.4142135623731054
  0
VERTEX
  5
1BEF
  8
SAPA_PROFIL
 10
58.99999999984697
 20
-14.44945665008035
 30
0.0
  0
VERTEX
  5
1BF0
  8
SAPA_PROFIL
 10
58.999999999846921
 20
-10.849444650080279
 30
0.0
 42
0.4142135623730951
  0
VERTEX
  5
1BF1
  8
SAPA_PROFIL
 10
58.699999999846924
 20
-10.549444650080289
 30
0.0
  0
VERTEX
  5
1BF2
  8
SAPA_PROFIL
 10
58.249999999846921
 20
-10.54944465008038
 30
0.0
  0
VERTEX
  5
1BF3
  8
SAPA_PROFIL
 10
56.76073986877276
 20
-11.40926938764937
 30
0.0
 42
-0.1316363093594254
  0
VERTEX
  5
1BF4
  8
SAPA_PROFIL
 10
56.610758963726013
 20
-11.44946176590633
 30
0.0
  0
VERTEX
  5
1BF5
  8
SAPA_PROFIL
 10
56.499999999840199
 20
-11.44946865008024
 30
0.0
  0
VERTEX
  5
1BF6
  8
SAPA_PROFIL
 10
56.499999999846921
 20
-9.0000000000204832
 30
0.0
  0
VERTEX
  5
1BF7
  8
SAPA_PROFIL
 10
56.502601999847109
 20
-6.5505313499607238
 30
0.0
  0
VERTEX
  5
1BF8
  8
SAPA_PROFIL
 10
56.610758963726013
 20
-6.5505382341346339
 30
0.0
 42
-0.1316363093594255
  0
VERTEX
  5
1BF9
  8
SAPA_PROFIL
 10
56.76073986877276
 20
-6.5907306123915994
 30
0.0
  0
VERTEX
  5
1BFA
  8
SAPA_PROFIL
 10
58.249999999846921
 20
-7.4505553499605801
 30
0.0
  0
VERTEX
  5
1BFB
  8
SAPA_PROFIL
 10
58.699999999846924
 20
-7.4505553499606796
 30
0.0
 42
0.4142135623730951
  0
VERTEX
  5
1BFC
  8
SAPA_PROFIL
 10
58.999999999846921
 20
-7.1505553499606833
 30
0.0
  0
VERTEX
  5
1BFD
  8
SAPA_PROFIL
 10
58.99999999984697
 20
-3.5505433499606229
 30
0.0
 42
0.4142135623731054
  0
VERTEX
  5
1BFE
  8
SAPA_PROFIL
 10
58.699999999846959
 20
-3.2505433499606191
 30
0.0
  0
VERTEX
  5
1BFF
  8
SAPA_PROFIL
 10
58.24999999984702
 20
-3.2505553499602788
 30
0.0
  0
VERTEX
  5
1C00
  8
SAPA_PROFIL
 10
56.760769515306137
 20
-4.110362971095582
 30
0.0
 42
-0.1316524975873855
  0
VERTEX
  5
1C01
  8
SAPA_PROFIL
 10
56.61076951530621
 20
-4.1505553499602277
 30
0.0
  0
VERTEX
  5
1C02
  8
SAPA_PROFIL
 10
56.024264068559027
 20
-4.1505553499603742
 30
0.0
 42
-0.1989123673797335
  0
VERTEX
  5
1C03
  8
SAPA_PROFIL
 10
55.812132034202953
 20
-4.0626873843162548
 30
0.0
  0
VERTEX
  5
1C04
  8
SAPA_PROFIL
 10
54.507082781033979
 20
-2.7576381311470861
 30
0.0
 42
-0.6681786379192716
  0
VERTEX
  5
1C05
  8
SAPA_PROFIL
 10
55.214189562220582
 20
-1.0505313499605931
 30
0.0
  0
VERTEX
  5
1C06
  8
SAPA_PROFIL
 10
57.517148803236388
 20
-1.0505313499605931
 30
0.0
 42
0.3178606011750261
  0
VERTEX
  5
1C07
  8
SAPA_PROFIL
 10
57.799999999846193
 20
-1.2505553499600159
 30
0.0
  0
VERTEX
  5
1C08
  8
SAPA_PROFIL
 10
58.756130958896108
 20
-1.2505553499600159
 30
0.0
 42
0.2418327667543857
  0
VERTEX
  5
1C09
  8
SAPA_PROFIL
 10
58.999999999847041
 20
-1.125277674979166
 30
0.0
 42
-0.2418327667380065
  0
VERTEX
  5
1C0A
  8
SAPA_PROFIL
 10
59.243869040797328
 20
-0.9999999999758628
 30
0.0
  0
VERTEX
  5
1C0B
  8
SAPA_PROFIL
 10
59.999999999519503
 20
-1.0000000000204841
 30
0.0
 42
-0.4142135623523161
  0
VERTEX
  5
1C0C
  8
SAPA_PROFIL
 10
60.999999999519503
 20
-1.9999999999495439
 30
0.0
  0
VERTEX
  5
1C0D
  8
SAPA_PROFIL
 10
60.999999999697764
 20
-4.500000000178737
 30
0.0
 42
0.9999999999627103
  0
VERTEX
  5
1C0E
  8
SAPA_PROFIL
 10
64.999999999697764
 20
-4.500000000029579
 30
0.0
  0
VERTEX
  5
1C0F
  8
SAPA_PROFIL
 10
64.999999999697764
 20
3.4999999999704201
 30
0.0
 42
0.4142135623752261
  0
VERTEX
  5
1C10
  8
SAPA_PROFIL
 10
62.99999999968685
 20
5.4999999999704201
 30
0.0
  0
VERTEX
  5
1C11
  8
SAPA_PROFIL
 10
61.299999999507861
 20
5.4999999999522302
 30
0.0
 42
0.4142135623715025
  0
VERTEX
  5
1C12
  8
SAPA_PROFIL
 10
60.999999999519503
 20
5.199999999940224
 30
0.0
  0
VERTEX
  5
1C13
  8
SAPA_PROFIL
 10
60.99999999951222
 20
4.2999999999496827
 30
0.0
 42
-0.4142135623730888
  0
VERTEX
  5
1C14
  8
SAPA_PROFIL
 10
60.699999999509309
 20
3.9999999999394968
 30
0.0
  0
VERTEX
  5
1C15
  8
SAPA_PROFIL
 10
60.299999999507861
 20
3.9999999999394968
 30
0.0
 42
-0.4142135623730982
  0
VERTEX
  5
1C16
  8
SAPA_PROFIL
 10
59.999999999497682
 20
4.2999999999496827
 30
0.0
  0
VERTEX
  5
1C17
  8
SAPA_PROFIL
 10
59.999999999515872
 20
6.6999999999602329
 30
0.0
 42
-0.4142135623624388
  0
VERTEX
  5
1C18
  8
SAPA_PROFIL
 10
60.299999999507861
 20
6.9999999999613252
 30
0.0
  0
VERTEX
  5
1C19
  8
SAPA_PROFIL
 10
64.499999999519503
 20
6.9999999999613252
 30
0.0
 42
0.4142135623730951
  0
VERTEX
  5
1C1A
  8
SAPA_PROFIL
 10
67.499999999508574
 20
9.9999999999704201
 30
0.0
  0
VERTEX
  5
1C1B
  8
SAPA_PROFIL
 10
67.499999999508574
 20
14.99999999996132
 30
0.0
 42
0.0279290488515987
  0
VERTEX
  5
1C1C
  8
SAPA_PROFIL
 10
66.69003105480877
 20
29.489164086653151
 30
0.0
 42
0.3661896282372441
  0
VERTEX
  5
1C1D
  8
SAPA_PROFIL
 10
65.939003094596899
 20
30.198789765519489
 30
0.0
 42
-0.3981911081684388
  0
VERTEX
  5
1C1E
  8
SAPA_PROFIL
 10
65.749999998786222
 20
30.398487206909959
 30
0.0
  0
VERTEX
  5
1C1F
  8
SAPA_PROFIL
 10
65.749999998784574
 20
31.299999999969689
 30
0.0
 42
-0.414213562389099
  0
VERTEX
  5
1C20
  8
SAPA_PROFIL
 10
65.949999998796216
 20
31.499999999966789
 30
0.0
  0
VERTEX
  5
1C21
  8
SAPA_PROFIL
 10
66.176059067267147
 20
31.499999999979519
 30
0.0
 42
-0.3813405017903993
  0
VERTEX
  5
1C22
  8
SAPA_PROFIL
 10
68.163184990182344
 20
29.726562499979512
 30
0.0
 42
-0.0014144096544681
  0
VERTEX
  5
1C23
  8
SAPA_PROFIL
 10
68.24443488300868
 20
28.99557257294336
 30
0.0
 42
0.309186963272042
  0
VERTEX
  5
1C24
  8
SAPA_PROFIL
 10
68.978186575361406
 20
28.137739782561681
 30
0.0
 42
0.1241407988373373
  0
VERTEX
  5
1C25
  8
SAPA_PROFIL
 10
93.426217520653069
 20
27.735381971256029
 30
0.0
 42
-0.0577043334222099
  0
VERTEX
  5
1C26
  8
SAPA_PROFIL
 10
95.711461024809637
 20
27.999999999979512
 30
0.0
  0
VERTEX
  5
1C27
  8
SAPA_PROFIL
 10
96.499999999519446
 20
27.999999999979512
 30
0.0
 42
-0.4142135623730951
  0
VERTEX
  5
1C28
  8
SAPA_PROFIL
 10
97.499999999519446
 20
26.999999999979512
 30
0.0
  0
VERTEX
  5
1C29
  8
SAPA_PROFIL
 10
97.499999999519517
 20
23.999999999979519
 30
0.0
 42
-0.4142135623730951
  0
SEQEND
  5
1C2A
  8
SAPA_PROFIL
  0
POLYLINE
  5
170A
  8
SAPA_PROFIL
 66
     1
 10
0.0
 20
0.0
 30
0.0
 70
     1
  0
VERTEX
  5
1C2B
  8
SAPA_PROFIL
 10
28.000000000196451
 20
4.2999999999496756
 30
0.0
  0
VERTEX
  5
1C2C
  8
SAPA_PROFIL
 10
28.000000000174619
 20
6.6999999999584139
 30
0.0
 42
0.4142135623656343
  0
VERTEX
  5
1C2D
  8
SAPA_PROFIL
 10
27.700000000186261
 20
6.9999999999595062
 30
0.0
  0
VERTEX
  5
1C2E
  8
SAPA_PROFIL
 10
23.50000000017463
 20
6.9999999999595062
 30
0.0
 42
-0.4142135623730959
  0
VERTEX
  5
1C2F
  8
SAPA_PROFIL
 10
20.50000000018554
 20
9.999999999970413
 30
0.0
  0
VERTEX
  5
1C30
  8
SAPA_PROFIL
 10
20.50000000018554
 20
14.99999999995948
 30
0.0
 42
-0.0279290488516059
  0
VERTEX
  5
1C31
  8
SAPA_PROFIL
 10
21.30996894488192
 20
29.489164086651702
 30
0.0
 42
-0.3661896282372283
  0
VERTEX
  5
1C32
  8
SAPA_PROFIL
 10
22.060996905097909
 20
30.198789765519521
 30
0.0
 42
0.3981911081684177
  0
VERTEX
  5
1C33
  8
SAPA_PROFIL
 10
22.250000000906041
 20
30.39848720690815
 30
0.0
  0
VERTEX
  5
1C34
  8
SAPA_PROFIL
 10
22.250000000909498
 20
31.29999999996971
 30
0.0
 42
0.4142135623890976
  0
VERTEX
  5
1C35
  8
SAPA_PROFIL
 10
22.05000000089786
 20
31.499999999970441
 30
0.0
  0
VERTEX
  5
1C36
  8
SAPA_PROFIL
 10
21.823940932426918
 20
31.499999999977732
 30
0.0
 42
0.3813405017904005
  0
VERTEX
  5
1C37
  8
SAPA_PROFIL
 10
19.836815009515419
 20
29.726562499977721
 30
0.0
 42
0.0541306776717632
  0
VERTEX
  5
1C38
  8
SAPA_PROFIL
 10
19.686126919664389
 20
1.6612508489080531
 30
0.0
 42
0.0472456768419794
  0
VERTEX
  5
1C39
  8
SAPA_PROFIL
 10
20.055579876433171
 20
-0.1878192065863615
 30
0.0
 42
0.0120164869908679
  0
VERTEX
  5
1C3A
  8
SAPA_PROFIL
 10
20.42857142856435
 20
-1.3299312783557791
 30
0.0
 42
-0.0851278882549295
  0
VERTEX
  5
1C3B
  8
SAPA_PROFIL
 10
21.0
 20
-4.6619037897221673
 30
0.0
  0
VERTEX
  5
1C3C
  8
SAPA_PROFIL
 10
21.0
 20
-12.00000000005141
 30
0.0
 42
0.4142135623730951
  0
VERTEX
  5
1C3D
  8
SAPA_PROFIL
 10
26.0
 20
-17.000000000051411
 30
0.0
  0
VERTEX
  5
1C3E
  8
SAPA_PROFIL
 10
28.75613095890003
 20
-17.00000000004049
 30
0.0
 42
0.2418327667382104
  0
VERTEX
  5
1C3F
  8
SAPA_PROFIL
 10
28.99999999986386
 20
-16.87472232507141
 30
0.0
 42
-0.241832766754381
  0
VERTEX
  5
1C40
  8
SAPA_PROFIL
 10
29.243869040798021
 20
-16.74944465008095
 30
0.0
  0
VERTEX
  5
1C41
  8
SAPA_PROFIL
 10
30.199999999847929
 20
-16.74944465008095
 30
0.0
 42
-0.3178606011698609
  0
VERTEX
  5
1C42
  8
SAPA_PROFIL
 10
30.482851196455861
 20
-16.949468650075069
 30
0.0
  0
VERTEX
  5
1C43
  8
SAPA_PROFIL
 10
32.785810437480762
 20
-16.949468650075069
 30
0.0
 42
0.6681786379192716
  0
VERTEX
  5
1C44
  8
SAPA_PROFIL
 10
33.492917218666612
 20
-15.24236186888826
 30
0.0
  0
VERTEX
  5
1C45
  8
SAPA_PROFIL
 10
32.187867965497063
 20
-13.937312615719669
 30
0.0
 42
0.1989123673797334
  0
VERTEX
  5
1C46
  8
SAPA_PROFIL
 10
31.975735931140939
 20
-13.84944465007565
 30
0.0
  0
VERTEX
  5
1C47
  8
SAPA_PROFIL
 10
31.38923048439375
 20
-13.84944465007605
 30
0.0
 42
0.1316524975873855
  0
VERTEX
  5
1C48
  8
SAPA_PROFIL
 10
31.23923048439384
 20
-13.88963702894076
 30
0.0
  0
VERTEX
  5
1C49
  8
SAPA_PROFIL
 10
29.74999999985334
 20
-14.74944465007672
 30
0.0
  0
VERTEX
  5
1C4A
  8
SAPA_PROFIL
 10
29.299999999853402
 20
-14.74945665007658
 30
0.0
 42
-0.4142135623731054
  0
VERTEX
  5
1C4B
  8
SAPA_PROFIL
 10
28.999999999853259
 20
-14.44945665007671
 30
0.0
  0
VERTEX
  5
1C4C
  8
SAPA_PROFIL
 10
28.99999999985172
 20
-10.84944465007665
 30
0.0
 42
-0.4142135623730951
  0
VERTEX
  5
1C4D
  8
SAPA_PROFIL
 10
29.29999999985159
 20
-10.54944465007652
 30
0.0
  0
VERTEX
  5
1C4E
  8
SAPA_PROFIL
 10
29.749999999851589
 20
-10.549444650076421
 30
0.0
  0
VERTEX
  5
1C4F
  8
SAPA_PROFIL
 10
31.239260130926141
 20
-11.40926938764474
 30
0.0
 42
0.1316363093594257
  0
VERTEX
  5
1C50
  8
SAPA_PROFIL
 10
31.389241035972901
 20
-11.44946176590164
 30
0.0
  0
VERTEX
  5
1C51
  8
SAPA_PROFIL
 10
31.499999999858591
 20
-11.449464137710271
 30
0.0
  0
VERTEX
  5
1C52
  8
SAPA_PROFIL
 10
31.499999999843102
 20
-6.5505364249886711
 30
0.0
  0
VERTEX
  5
1C53
  8
SAPA_PROFIL
 10
31.389241035967832
 20
-6.5505382341346312
 30
0.0
 42
0.1316363093594255
  0
VERTEX
  5
1C54
  8
SAPA_PROFIL
 10
31.239260130921089
 20
-6.590730612391595
 30
0.0
  0
VERTEX
  5
1C55
  8
SAPA_PROFIL
 10
29.749999999846921
 20
-7.4505553499605766
 30
0.0
  0
VERTEX
  5
1C56
  8
SAPA_PROFIL
 10
29.299999999846911
 20
-7.450555349960676
 30
0.0
 42
-0.4142135623730951
  0
VERTEX
  5
1C57
  8
SAPA_PROFIL
 10
28.999999999846921
 20
-7.1505553499606789
 30
0.0
  0
VERTEX
  5
1C58
  8
SAPA_PROFIL
 10
28.99999999984686
 20
-3.5505433499606189
 30
0.0
 42
-0.4142135623731054
  0
VERTEX
  5
1C59
  8
SAPA_PROFIL
 10
29.299999999846872
 20
-3.2505433499606151
 30
0.0
  0
VERTEX
  5
1C5A
  8
SAPA_PROFIL
 10
29.749999999846821
 20
-3.2505553499602788
 30
0.0
  0
VERTEX
  5
1C5B
  8
SAPA_PROFIL
 10
31.239230484387701
 20
-4.110362971095582
 30
0.0
 42
0.1316524975873855
  0
VERTEX
  5
1C5C
  8
SAPA_PROFIL
 10
31.389230484387621
 20
-4.150555349960225
 30
0.0
  0
VERTEX
  5
1C5D
  8
SAPA_PROFIL
 10
31.975735931134821
 20
-4.1505553499603698
 30
0.0
 42
0.1989123673797335
  0
VERTEX
  5
1C5E
  8
SAPA_PROFIL
 10
32.187867965490888
 20
-4.0626873843162521
 30
0.0
  0
VERTEX
  5
1C5F
  8
SAPA_PROFIL
 10
33.492917218659869
 20
-2.7576381311470821
 30
0.0
 42
0.6681786379192716
  0
VERTEX
  5
1C60
  8
SAPA_PROFIL
 10
32.785810437473259
 20
-1.0505313499605859
 30
0.0
  0
VERTEX
  5
1C61
  8
SAPA_PROFIL
 10
30.482851196461208
 20
-1.0505313499605859
 30
0.0
 42
-0.3178606011758647
  0
VERTEX
  5
1C62
  8
SAPA_PROFIL
 10
30.199999999847929
 20
-1.2505553499618349
 30
0.0
  0
VERTEX
  5
1C63
  8
SAPA_PROFIL
 10
29.243869040798021
 20
-1.2505553499600159
 30
0.0
 42
-0.2418327667526379
  0
VERTEX
  5
1C64
  8
SAPA_PROFIL
 10
28.999999999847379
 20
-1.1252776749813691
 30
0.0
 42
0.2418327667380031
  0
VERTEX
  5
1C65
  8
SAPA_PROFIL
 10
28.75613095889674
 20
-0.999999999977696
 30
0.0
  0
VERTEX
  5
1C66
  8
SAPA_PROFIL
 10
28.000000000174619
 20
-1.000000000022303
 30
0.0
 42
0.4142135623709635
  0
VERTEX
  5
1C67
  8
SAPA_PROFIL
 10
27.00000000017463
 20
-2.000000000022303
 30
0.0
  0
VERTEX
  5
1C68
  8
SAPA_PROFIL
 10
27.0
 20
-4.500000000178737
 30
0.0
 42
-0.9999999999627103
  0
VERTEX
  5
1C69
  8
SAPA_PROFIL
 10
23.0
 20
-4.500000000029579
 30
0.0
  0
VERTEX
  5
1C6A
  8
SAPA_PROFIL
 10
23.0
 20
3.499999999970413
 30
0.0
 42
-0.4142135623752264
  0
VERTEX
  5
1C6B
  8
SAPA_PROFIL
 10
25.00000000000728
 20
5.499999999970413
 30
0.0
  0
VERTEX
  5
1C6C
  8
SAPA_PROFIL
 10
26.700000000182971
 20
5.4999999999485922
 30
0.0
 42
-0.4142135623762961
  0
VERTEX
  5
1C6D
  8
SAPA_PROFIL
 10
27.00000000017463
 20
5.199999999940224
 30
0.0
  0
VERTEX
  5
1C6E
  8
SAPA_PROFIL
 10
27.00000000018554
 20
4.2999999999496756
 30
0.0
 42
0.4142135623730957
  0
VERTEX
  5
1C6F
  8
SAPA_PROFIL
 10
27.300000000184809
 20
3.9999999999394968
 30
0.0
  0
VERTEX
  5
1C70
  8
SAPA_PROFIL
 10
27.700000000186261
 20
3.9999999999394968
 30
0.0
 42
0.4142135623730922
  0
SEQEND
  5
1C71
  8
SAPA_PROFIL
  0
POLYLINE
  5
170B
  8
SAPA_PROFIL
 62
     4
 66
     1
 10
0.0
 20
0.0
 30
-0.2
 70
     1
  0
VERTEX
  5
170C
  8
SAPA_PROFIL
 62
     4
 10
31.856217782499421
 20
-6.3005553499587199
 30
-0.2
 42
0.1316524975873979
  0
VERTEX
  5
170D
  8
SAPA_PROFIL
 62
     4
 10
31.456217782499401
 20
-6.4077350269311557
 30
-0.2
  0
VERTEX
  5
170E
  8
SAPA_PROFIL
 62
     4
 10
29.736602540225359
 20
-7.4005553499605803
 30
-0.2
  0
VERTEX
  5
170F
  8
SAPA_PROFIL
 62
     4
 10
29.299999999846911
 20
-7.4005553499606789
 30
-0.2
 42
-0.4142135623730951
  0
VERTEX
  5
1710
  8
SAPA_PROFIL
 62
     4
 10
29.049999999846921
 20
-7.1505553499606789
 30
-0.2
  0
VERTEX
  5
1711
  8
SAPA_PROFIL
 62
     4
 10
29.049999999846872
 20
-3.5505433499606189
 30
-0.2
 42
-0.4142135623731053
  0
VERTEX
  5
1712
  8
SAPA_PROFIL
 62
     4
 10
29.299999999846872
 20
-3.3005433499606118
 30
-0.2
  0
VERTEX
  5
1713
  8
SAPA_PROFIL
 62
     4
 10
29.736601921425329
 20
-3.3005549926959752
 30
-0.2
  0
VERTEX
  5
1714
  8
SAPA_PROFIL
 62
     4
 10
31.456217782492729
 20
-4.2933756729862473
 30
-0.2
 42
0.1316524975874149
  0
VERTEX
  5
1715
  8
SAPA_PROFIL
 62
     4
 10
31.856217782492781
 20
-4.4005553499587426
 30
-0.2
  0
VERTEX
  5
1716
  8
SAPA_PROFIL
 62
     4
 10
56.143782217201071
 20
-4.4005553499587426
 30
-0.2
 42
0.1316524975874151
  0
VERTEX
  5
1717
  8
SAPA_PROFIL
 62
     4
 10
56.543782217201112
 20
-4.2933756729862473
 30
-0.2
  0
VERTEX
  5
1718
  8
SAPA_PROFIL
 62
     4
 10
58.263398078268509
 20
-3.3005549926959752
 30
-0.2
  0
VERTEX
  5
1719
  8
SAPA_PROFIL
 62
     4
 10
58.699999999846973
 20
-3.3005433499606118
 30
-0.2
 42
-0.4142135623731054
  0
VERTEX
  5
171A
  8
SAPA_PROFIL
 62
     4
 10
58.94999999984698
 20
-3.5505433499606189
 30
-0.2
  0
VERTEX
  5
171B
  8
SAPA_PROFIL
 62
     4
 10
58.949999999846924
 20
-7.1505553499606789
 30
-0.2
 42
-0.4142135623730953
  0
VERTEX
  5
171C
  8
SAPA_PROFIL
 62
     4
 10
58.699999999846938
 20
-7.4005553499606789
 30
-0.2
  0
VERTEX
  5
171D
  8
SAPA_PROFIL
 62
     4
 10
58.263397459468479
 20
-7.4005553499605803
 30
-0.2
  0
VERTEX
  5
171E
  8
SAPA_PROFIL
 62
     4
 10
56.54378221719444
 20
-6.4077350269311557
 30
-0.2
 42
0.1316524975873982
  0
VERTEX
  5
171F
  8
SAPA_PROFIL
 62
     4
 10
56.143782217194428
 20
-6.3005553499587199
 30
-0.2
  0
SEQEND
  5
1720
  8
SAPA_PROFIL
 62
     4
  0
LINE
  5
1795
  8
SAPA_GLAS
 10
100.2999999997306
 20
-47.750000000875247
 30
0.0
 11
100.2999999997306
 21
-47.000000000862123
 31
0.0
  0
LINE
  5
1796
  8
SAPA_GLAS
 10
87.499999999719762
 20
-47.00000000086213
 30
0.0
 11
87.499999999718938
 21
-47.750000000861242
 31
0.0
  0
LINE
  5
1797
  8
SAPA_GLAS
 10
100.2999999997307
 20
-4.2500000008486722
 30
0.0
 11
100.2999999997307
 21
-5.0000000008618173
 31
0.0
  0
LINE
  5
1798
  8
SAPA_GLAS
 10
87.499999999719776
 20
-5.0000000008618031
 30
0.0
 11
87.499999999718966
 21
-4.2500000008626841
 31
0.0
  0
INSERT
  5
1799
  8
SAPA_GLAS
  6
CONTINUOUS
  2
*X47
 10
0.0
 20
0.0
 30
0.0
1001
ACAD
1000
HATCH
1002
{
1070
    19
1000
ANSI37
1040
0.25
1040
-0.0000000000000004
1000
R14_HATCH_DATA
1000
1799
1011
1.0
1021
0.0
1031
0.0
1021
0.0
1031
0.0
1011
0.0
1021
0.0
1031
0.0
1021
1.0
1031
0.0
1011
0.0
1021
0.0
1031
0.0
1021
0.0
1031
1.0
1040
0.0
1010
0.0
1020
0.0
1030
1.0
1000
ANSI37
1070
     0
1070
     0
1071
        1
1071
        7
1070
     0
1070
     1
1071
        4
1040
100.2999999997307
1040
-47.750000001214723
1040
100.2999999997307
1040
-47.000000000862137
1040
87.499999999719762
1040
-47.00000000086213
1040
87.499999999718938
1040
-47.750000001200689
1071
        0
1070
     0
1070
     1
1040
-0.0000000000000004
1040
0.25
1070
     0
1070
     2
1040
0.7853981633974478
1040
77.424144147420492
1040
-49.500000000837041
1040
-0.5612660075668218
1040
0.5612660075668224
1070
     0
1040
2.3561944901923439
1040
77.424144147420492
1040
-49.500000000837041
1040
-0.5612660075668224
1040
-0.5612660075668218
1070
     0
1040
0.0325758689756538
1071
        1
1040
92.739910499520661
1040
-47.40831858561981
1040
0.0
1002
}
  0
INSERT
  5
179A
  8
SAPA_GLAS
  6
CONTINUOUS
  2
*X48
 10
0.0
 20
0.0
 30
0.0
1001
ACAD
1000
HATCH
1002
{
1070
    19
1000
ANSI37
1040
0.25
1040
-0.0000000000000004
1000
R14_HATCH_DATA
1000
179A
1011
1.0
1021
0.0
1031
0.0
1021
0.0
1031
0.0
1011
0.0
1021
0.0
1031
0.0
1021
1.0
1031
0.0
1011
0.0
1021
0.0
1031
0.0
1021
0.0
1031
1.0
1040
0.0
1010
0.0
1020
0.0
1030
1.0
1000
ANSI37
1070
     0
1070
     0
1071
        1
1071
        7
1070
     0
1070
     1
1071
        4
1040
100.2999999997307
1040
-5.0000000008618173
1040
100.2999999997307
1040
-4.2500000008486722
1040
87.499999999718966
1040
-4.2500000008626841
1040
87.499999999719776
1040
-5.0000000008618031
1071
        0
1070
     0
1070
     1
1040
-0.0000000000000004
1040
0.25
1070
     0
1070
     2
1040
0.7853981633974478
1040
77.424144147420492
1040
-49.500000000837041
1040
-0.5612660075668218
1040
0.5612660075668224
1070
     0
1040
2.3561944901923439
1040
77.424144147420492
1040
-49.500000000837041
1040
-0.5612660075668224
1040
-0.5612660075668218
1070
     0
1040
0.0230646099693014
1071
        1
1040
91.368422804433962
1040
-4.6523143581691491
1040
0.0
1002
}
  0
POLYLINE
  5
179B
  8
SAPA_GLAS
 66
     1
 10
0.0
 20
0.0
 30
0.0
  0
VERTEX
  5
1D4A
  8
SAPA_GLAS
 10
119.49999999971971
 20
-47.000000000862151
 30
0.0
  0
VERTEX
  5
1D4B
  8
SAPA_GLAS
 10
87.499999999719762
 20
-47.00000000086213
 30
0.0
  0
VERTEX
  5
1D4C
  8
SAPA_GLAS
 10
87.499999999719762
 20
-41.000000000862137
 30
0.0
  0
VERTEX
  5
1D4D
  8
SAPA_GLAS
 10
119.49999999971971
 20
-41.000000000862158
 30
0.0
  0
SEQEND
  5
1D4E
  8
SAPA_GLAS
  0
POLYLINE
  5
179C
  8
SAPA_GLAS
 66
     1
 10
0.0
 20
0.0
 30
0.0
  0
VERTEX
  5
1D4F
  8
SAPA_GLAS
 10
97.49999999971979
 20
-29.000000000861991
 30
0.0
  0
VERTEX
  5
1D50
  8
SAPA_GLAS
 10
97.499999999719776
 20
-41.000000000861966
 30
0.0
  0
VERTEX
  5
1D51
  8
SAPA_GLAS
 10
87.499999999719762
 20
-41.000000000861959
 30
0.0
  0
VERTEX
  5
1D52
  8
SAPA_GLAS
 10
87.49999999971979
 20
-29.000000000861981
 30
0.0
  0
VERTEX
  5
1D53
  8
SAPA_GLAS
 10
97.49999999971979
 20
-29.000000000861991
 30
0.0
  0
SEQEND
  5
1D54
  8
SAPA_GLAS
  0
POLYLINE
  5
179D
  8
SAPA_GLAS
 66
     1
 10
0.0
 20
0.0
 30
0.0
  0
VERTEX
  5
1D55
  8
SAPA_GLAS
 10
119.4999999997198
 20
-29.000000000861998
 30
0.0
  0
VERTEX
  5
1D56
  8
SAPA_GLAS
 10
87.49999999971979
 20
-29.000000000861981
 30
0.0
  0
VERTEX
  5
1D57
  8
SAPA_GLAS
 10
87.49999999971979
 20
-23.000000000861981
 30
0.0
  0
VERTEX
  5
1D58
  8
SAPA_GLAS
 10
119.4999999997198
 20
-23.000000000861998
 30
0.0
  0
SEQEND
  5
1D59
  8
SAPA_GLAS
  0
POLYLINE
  5
179E
  8
SAPA_GLAS
 66
     1
 10
0.0
 20
0.0
 30
0.0
  0
VERTEX
  5
1D5A
  8
SAPA_GLAS
 10
97.499999999719833
 20
-11.00000000086183
 30
0.0
  0
VERTEX
  5
1D5B
  8
SAPA_GLAS
 10
97.49999999971979
 20
-23.000000000861821
 30
0.0
  0
VERTEX
  5
1D5C
  8
SAPA_GLAS
 10
87.49999999971979
 20
-23.000000000861821
 30
0.0
  0
VERTEX
  5
1D5D
  8
SAPA_GLAS
 10
87.499999999719805
 20
-11.0000000008618
 30
0.0
  0
VERTEX
  5
1D5E
  8
SAPA_GLAS
 10
97.499999999719833
 20
-11.00000000086183
 30
0.0
  0
SEQEND
  5
1D5F
  8
SAPA_GLAS
  0
POLYLINE
  5
179F
  8
SAPA_GLAS
 66
     1
 10
0.0
 20
0.0
 30
0.0
  0
VERTEX
  5
1D60
  8
SAPA_GLAS
 10
119.4999999997198
 20
-5.0000000008618306
 30
0.0
  0
VERTEX
  5
1D61
  8
SAPA_GLAS
 10
87.499999999719805
 20
-5.0000000008618031
 30
0.0
  0
VERTEX
  5
1D62
  8
SAPA_GLAS
 10
87.499999999719805
 20
-11.0000000008618
 30
0.0
  0
VERTEX
  5
1D63
  8
SAPA_GLAS
 10
119.4999999997198
 20
-11.00000000086184
 30
0.0
  0
SEQEND
  5
1D64
  8
SAPA_GLAS
  0
LINE
  5
17A0
  8
SAPA_GLAS
 10
65.749999999647642
 20
29.800000000000161
 30
0.0
 11
64.999999999634497
 21
29.800000000000161
 31
0.0
  0
LINE
  5
17A1
  8
SAPA_GLAS
 10
64.999999999634653
 20
16.999999999989221
 30
0.0
 11
65.749999999633758
 21
16.999999999988422
 31
0.0
  0
LINE
  5
17A2
  8
SAPA_GLAS
 10
22.249999999621039
 20
29.79999999999972
 30
0.0
 11
22.999999999634181
 21
29.79999999999972
 31
0.0
  0
LINE
  5
17A3
  8
SAPA_GLAS
 10
22.999999999634309
 20
16.999999999988798
 30
0.0
 11
22.24999999963519
 21
16.999999999987981
 31
0.0
  0
INSERT
  5
17A4
  8
SAPA_GLAS
  6
CONTINUOUS
  2
*X49
 10
0.0
 20
0.0
 30
0.0
1001
ACAD
1000
HATCH
1002
{
1070
    19
1000
ANSI37
1040
0.25
1040
-4.712388980384679
1000
R14_HATCH_DATA
1000
17A4
1011
1.0
1021
0.0
1031
0.0
1021
0.0
1031
0.0
1011
0.0
1021
0.0
1031
0.0
1021
1.0
1031
0.0
1011
0.0
1021
0.0
1031
0.0
1021
0.0
1031
1.0
1040
0.0
1010
0.0
1020
0.0
1030
1.0
1000
ANSI37
1070
     0
1070
     0
1071
        1
1071
        7
1070
     0
1070
     1
1071
        4
1040
65.749999999987097
1040
29.800000000000178
1040
64.999999999634511
1040
29.800000000000171
1040
64.999999999634653
1040
16.999999999989221
1040
65.749999999973213
1040
16.999999999988411
1071
        0
1070
     0
1070
     1
1040
-4.712388980384679
1040
0.25
1070
     0
1070
     2
1040
2.3561944901923551
1040
67.49999999960967
1040
6.9241441476899821
1040
-0.5612660075668164
1040
-0.5612660075668278
1070
     0
1040
3.9269908169872512
1040
67.49999999960967
1040
6.9241441476899821
1040
0.5612660075668278
1040
-0.5612660075668164
1070
     0
1040
0.0325758689756538
1071
        1
1040
65.408318584392262
1040
22.239910499790138
1040
0.0
1002
}
  0
INSERT
  5
17A5
  8
SAPA_GLAS
  6
CONTINUOUS
  2
*X50
 10
0.0
 20
0.0
 30
0.0
1001
ACAD
1000
HATCH
1002
{
1070
    19
1000
ANSI37
1040
0.25
1040
-4.712388980384679
1000
R14_HATCH_DATA
1000
17A5
1011
1.0
1021
0.0
1031
0.0
1021
0.0
1031
0.0
1011
0.0
1021
0.0
1031
0.0
1021
1.0
1031
0.0
1011
0.0
1021
0.0
1031
0.0
1021
0.0
1031
1.0
1040
0.0
1010
0.0
1020
0.0
1030
1.0
1000
ANSI37
1070
     0
1070
     0
1071
        1
1071
        7
1070
     0
1070
     1
1071
        4
1040
22.999999999634181
1040
29.79999999999972
1040
22.249999999621039
1040
29.79999999999972
1040
22.24999999963519
1040
16.999999999987981
1040
22.999999999634309
1040
16.999999999988798
1071
        0
1070
     0
1070
     1
1040
-4.712388980384679
1040
0.25
1070
     0
1070
     2
1040
2.3561944901923551
1040
67.49999999960967
1040
6.9241441476899821
1040
-0.5612660075668164
1040
-0.5612660075668278
1070
     0
1040
3.9269908169872512
1040
67.49999999960967
1040
6.9241441476899821
1040
0.5612660075668278
1040
-0.5612660075668164
1070
     0
1040
0.0230646099693014
1071
        1
1040
22.65231435694162
1040
20.86842280470298
1040
0.0
1002
}
  0
POLYLINE
  5
17A6
  8
SAPA_GLAS
 66
     1
 10
0.0
 20
0.0
 30
0.0
  0
VERTEX
  5
1D9B
  8
SAPA_GLAS
 10
64.999999999634326
 20
48.999999999989221
 30
0.0
  0
VERTEX
  5
1D9C
  8
SAPA_GLAS
 10
64.999999999634653
 20
16.999999999989221
 30
0.0
  0
VERTEX
  5
1D9D
  8
SAPA_GLAS
 10
58.99999999963466
 20
16.999999999989161
 30
0.0
  0
VERTEX
  5
1D9E
  8
SAPA_GLAS
 10
58.999999999634319
 20
48.999999999989157
 30
0.0
  0
SEQEND
  5
1D9F
  8
SAPA_GLAS
  0
POLYLINE
  5
17A7
  8
SAPA_GLAS
 66
     1
 10
0.0
 20
0.0
 30
0.0
  0
VERTEX
  5
1DA0
  8
SAPA_GLAS
 10
46.99999999963439
 20
26.999999999989068
 30
0.0
  0
VERTEX
  5
1DA1
  8
SAPA_GLAS
 10
58.999999999634369
 20
26.999999999989178
 30
0.0
  0
VERTEX
  5
1DA2
  8
SAPA_GLAS
 10
58.999999999634483
 20
16.999999999989161
 30
0.0
  0
VERTEX
  5
1DA3
  8
SAPA_GLAS
 10
46.999999999634483
 20
16.999999999989068
 30
0.0
  0
VERTEX
  5
1DA4
  8
SAPA_GLAS
 10
46.99999999963439
 20
26.999999999989068
 30
0.0
  0
SEQEND
  5
1DA5
  8
SAPA_GLAS
  0
POLYLINE
  5
17A8
  8
SAPA_GLAS
 66
     1
 10
0.0
 20
0.0
 30
0.0
  0
VERTEX
  5
1DA6
  8
SAPA_GLAS
 10
46.999999999634163
 20
48.999999999989058
 30
0.0
  0
VERTEX
  5
1DA7
  8
SAPA_GLAS
 10
46.999999999634483
 20
16.999999999989061
 30
0.0
  0
VERTEX
  5
1DA8
  8
SAPA_GLAS
 10
40.99999999963449
 20
16.99999999998899
 30
0.0
  0
VERTEX
  5
1DA9
  8
SAPA_GLAS
 10
40.999999999634149
 20
48.999999999989001
 30
0.0
  0
SEQEND
  5
1DAA
  8
SAPA_GLAS
  0
POLYLINE
  5
17A9
  8
SAPA_GLAS
 66
     1
 10
0.0
 20
0.0
 30
0.0
  0
VERTEX
  5
1DAB
  8
SAPA_GLAS
 10
28.99999999963423
 20
26.999999999988901
 30
0.0
  0
VERTEX
  5
1DAC
  8
SAPA_GLAS
 10
40.999999999634213
 20
26.999999999989011
 30
0.0
  0
VERTEX
  5
1DAD
  8
SAPA_GLAS
 10
40.999999999634319
 20
16.99999999998899
 30
0.0
  0
VERTEX
  5
1DAE
  8
SAPA_GLAS
 10
28.999999999634309
 20
16.999999999988901
 30
0.0
  0
VERTEX
  5
1DAF
  8
SAPA_GLAS
 10
28.99999999963423
 20
26.999999999988901
 30
0.0
  0
SEQEND
  5
1DB0
  8
SAPA_GLAS
  0
POLYLINE
  5
17AA
  8
SAPA_GLAS
 66
     1
 10
0.0
 20
0.0
 30
0.0
  0
VERTEX
  5
1DB1
  8
SAPA_GLAS
 10
22.999999999633999
 20
48.999999999988823
 30
0.0
  0
VERTEX
  5
1DB2
  8
SAPA_GLAS
 10
22.999999999634309
 20
16.99999999998883
 30
0.0
  0
VERTEX
  5
1DB3
  8
SAPA_GLAS
 10
28.999999999634309
 20
16.999999999988901
 30
0.0
  0
VERTEX
  5
1DB4
  8
SAPA_GLAS
 10
28.999999999633999
 20
48.999999999988887
 30
0.0
  0
SEQEND
  5
1DB5
  8
SAPA_GLAS
  0
POLYLINE
  5
17BD
  8
SAPA_FOGBAND
 66
     1
 10
0.0
 20
0.0
 30
0.0
 70
     1
  0
VERTEX
  5
1E3C
  8
SAPA_FOGBAND
 10
71.74999999979994
 20
-4.3500000006227557
 30
0.0
  0
VERTEX
  5
1E3D
  8
SAPA_FOGBAND
 10
70.949999999799743
 20
-4.3500000006227557
 30
0.0
  0
VERTEX
  5
1E3E
  8
SAPA_FOGBAND
 10
70.949999999799743
 20
-10.650000000619841
 30
0.0
  0
VERTEX
  5
1E3F
  8
SAPA_FOGBAND
 10
71.74999999979994
 20
-10.650000000619841
 30
0.0
  0
SEQEND
  5
1E40
  8
SAPA_FOGBAND
  0
POLYLINE
  5
17BE
  8
SAPA_FOGBAND
 66
     1
 10
0.0
 20
0.0
 30
0.0
  0
VERTEX
  5
1E41
  8
SAPA_FOGBAND
 10
70.949999999799743
 20
-9.0726896037623401
 30
0.0
  0
VERTEX
  5
1E42
  8
SAPA_FOGBAND
 10
67.49999999979994
 20
-10.19813620107826
 30
0.0
  0
VERTEX
  5
1E43
  8
SAPA_FOGBAND
 10
67.49999999979994
 20
-7.7599981545297263
 30
0.0
  0
VERTEX
  5
1E44
  8
SAPA_FOGBAND
 10
70.949999999799743
 20
-7.6500000006227529
 30
0.0
  0
SEQEND
  5
1E45
  8
SAPA_FOGBAND
  0
POLYLINE
  5
17BF
  8
SAPA_FOGBAND
 66
     1
 10
0.0
 20
0.0
 30
0.0
  0
VERTEX
  5
1E46
  8
SAPA_FOGBAND
 10
70.949999999799743
 20
-7.5750000006220262
 30
0.0
  0
VERTEX
  5
1E47
  8
SAPA_FOGBAND
 10
67.49999999979994
 20
-7.5750000006187523
 30
0.0
  0
VERTEX
  5
1E48
  8
SAPA_FOGBAND
 10
67.49999999979994
 20
-7.4250000006205648
 30
0.0
  0
VERTEX
  5
1E49
  8
SAPA_FOGBAND
 10
70.949999999799743
 20
-7.4250000006205701
 30
0.0
  0
SEQEND
  5
1E4A
  8
SAPA_FOGBAND
  0
POLYLINE
  5
17C0
  8
SAPA_FOGBAND
 66
     1
 10
0.0
 20
0.0
 30
0.0
  0
VERTEX
  5
1E4B
  8
SAPA_FOGBAND
 10
70.949999999799743
 20
-7.3500000006198434
 30
0.0
  0
VERTEX
  5
1E4C
  8
SAPA_FOGBAND
 10
67.49999999979994
 20
-7.2400026154375974
 30
0.0
  0
VERTEX
  5
1E4D
  8
SAPA_FOGBAND
 10
67.49999999979994
 20
-4.8019092750154337
 30
0.0
  0
VERTEX
  5
1E4E
  8
SAPA_FOGBAND
 10
70.949999999799743
 20
-5.9273103974802552
 30
0.0
  0
SEQEND
  5
1E4F
  8
SAPA_FOGBAND
  0
POLYLINE
  5
17C1
  8
SAPA_FOGBAND
 66
     1
 10
0.0
 20
0.0
 30
0.0
 70
     1
  0
VERTEX
  5
1E50
  8
SAPA_FOGBAND
 10
16.250000000490669
 20
-12.850000000667251
 30
0.0
  0
VERTEX
  5
1E51
  8
SAPA_FOGBAND
 10
17.050000000490851
 20
-12.850000000667251
 30
0.0
  0
VERTEX
  5
1E52
  8
SAPA_FOGBAND
 10
17.050000000490851
 20
-19.150000000664331
 30
0.0
  0
VERTEX
  5
1E53
  8
SAPA_FOGBAND
 10
16.250000000490669
 20
-19.150000000664331
 30
0.0
  0
SEQEND
  5
1E54
  8
SAPA_FOGBAND
  0
POLYLINE
  5
17C2
  8
SAPA_FOGBAND
 66
     1
 10
0.0
 20
0.0
 30
0.0
  0
VERTEX
  5
1E55
  8
SAPA_FOGBAND
 10
17.050000000490851
 20
-17.572689603806829
 30
0.0
  0
VERTEX
  5
1E56
  8
SAPA_FOGBAND
 10
20.500000000490669
 20
-18.698136201122761
 30
0.0
  0
VERTEX
  5
1E57
  8
SAPA_FOGBAND
 10
20.500000000490669
 20
-16.25999815457422
 30
0.0
  0
VERTEX
  5
1E58
  8
SAPA_FOGBAND
 10
17.050000000490851
 20
-16.150000000667251
 30
0.0
  0
SEQEND
  5
1E59
  8
SAPA_FOGBAND
  0
POLYLINE
  5
17C3
  8
SAPA_FOGBAND
 66
     1
 10
0.0
 20
0.0
 30
0.0
  0
VERTEX
  5
1E5A
  8
SAPA_FOGBAND
 10
17.050000000490851
 20
-16.07500000066652
 30
0.0
  0
VERTEX
  5
1E5B
  8
SAPA_FOGBAND
 10
20.500000000490669
 20
-16.075000000663241
 30
0.0
  0
VERTEX
  5
1E5C
  8
SAPA_FOGBAND
 10
20.500000000490669
 20
-15.92500000066506
 30
0.0
  0
VERTEX
  5
1E5D
  8
SAPA_FOGBAND
 10
17.050000000490851
 20
-15.92500000066506
 30
0.0
  0
SEQEND
  5
1E5E
  8
SAPA_FOGBAND
  0
POLYLINE
  5
17C4
  8
SAPA_FOGBAND
 66
     1
 10
0.0
 20
0.0
 30
0.0
  0
VERTEX
  5
1E5F
  8
SAPA_FOGBAND
 10
17.050000000490851
 20
-15.850000000664339
 30
0.0
  0
VERTEX
  5
1E60
  8
SAPA_FOGBAND
 10
20.500000000490669
 20
-15.740002615482091
 30
0.0
  0
VERTEX
  5
1E61
  8
SAPA_FOGBAND
 10
20.500000000490669
 20
-13.301909275059931
 30
0.0
  0
VERTEX
  5
1E62
  8
SAPA_FOGBAND
 10
17.050000000490851
 20
-14.427310397524749
 30
0.0
  0
SEQEND
  5
1E63
  8
SAPA_FOGBAND
  0
POLYLINE
  5
17C5
  8
SAPA_FOGBAND
 66
     1
 10
0.0
 20
0.0
 30
0.0
 70
     1
  0
VERTEX
  5
1E64
  8
SAPA_FOGBAND
 10
16.25000000049064
 20
-4.3500000006563653
 30
0.0
  0
VERTEX
  5
1E65
  8
SAPA_FOGBAND
 10
17.050000000490819
 20
-4.3500000006563653
 30
0.0
  0
VERTEX
  5
1E66
  8
SAPA_FOGBAND
 10
17.050000000490819
 20
-10.650000000653449
 30
0.0
  0
VERTEX
  5
1E67
  8
SAPA_FOGBAND
 10
16.25000000049064
 20
-10.650000000653449
 30
0.0
  0
SEQEND
  5
1E68
  8
SAPA_FOGBAND
  0
POLYLINE
  5
17C6
  8
SAPA_FOGBAND
 66
     1
 10
0.0
 20
0.0
 30
0.0
  0
VERTEX
  5
1E69
  8
SAPA_FOGBAND
 10
17.050000000490819
 20
-9.0726896037959506
 30
0.0
  0
VERTEX
  5
1E6A
  8
SAPA_FOGBAND
 10
20.500000000490651
 20
-10.19813620111187
 30
0.0
  0
VERTEX
  5
1E6B
  8
SAPA_FOGBAND
 10
20.500000000490651
 20
-7.7599981545633341
 30
0.0
  0
VERTEX
  5
1E6C
  8
SAPA_FOGBAND
 10
17.050000000490819
 20
-7.6500000006563624
 30
0.0
  0
SEQEND
  5
1E6D
  8
SAPA_FOGBAND
  0
POLYLINE
  5
17C7
  8
SAPA_FOGBAND
 66
     1
 10
0.0
 20
0.0
 30
0.0
  0
VERTEX
  5
1E6E
  8
SAPA_FOGBAND
 10
17.050000000490819
 20
-7.5750000006556339
 30
0.0
  0
VERTEX
  5
1E6F
  8
SAPA_FOGBAND
 10
20.500000000490651
 20
-7.575000000652361
 30
0.0
  0
VERTEX
  5
1E70
  8
SAPA_FOGBAND
 10
20.500000000490651
 20
-7.4250000006541743
 30
0.0
  0
VERTEX
  5
1E71
  8
SAPA_FOGBAND
 10
17.050000000490819
 20
-7.4250000006541788
 30
0.0
  0
SEQEND
  5
1E72
  8
SAPA_FOGBAND
  0
POLYLINE
  5
17C8
  8
SAPA_FOGBAND
 66
     1
 10
0.0
 20
0.0
 30
0.0
  0
VERTEX
  5
1E73
  8
SAPA_FOGBAND
 10
17.050000000490819
 20
-7.350000000653452
 30
0.0
  0
VERTEX
  5
1E74
  8
SAPA_FOGBAND
 10
20.500000000490651
 20
-7.240002615471206
 30
0.0
  0
VERTEX
  5
1E75
  8
SAPA_FOGBAND
 10
20.500000000490651
 20
-4.8019092750490433
 30
0.0
  0
VERTEX
  5
1E76
  8
SAPA_FOGBAND
 10
17.050000000490819
 20
-5.927310397513863
 30
0.0
  0
SEQEND
  5
1E77
  8
SAPA_FOGBAND
  0
POLYLINE
  5
17C9
  8
SAPA_FOGBAND
 66
     1
 10
0.0
 20
0.0
 30
0.0
 70
     1
  0
VERTEX
  5
1E78
  8
SAPA_FOGBAND
 10
58.500000000198114
 20
-29.8659006204078
 30
0.0
 42
0.1850472530618334
  0
VERTEX
  5
1E79
  8
SAPA_FOGBAND
 10
60.773218483501559
 20
-34.056924462708317
 30
0.0
  0
VERTEX
  5
1E7A
  8
SAPA_FOGBAND
 10
69.22773571224856
 20
-39.547352108949021
 30
0.0
 42
-0.9741568709149724
  0
VERTEX
  5
1E7B
  8
SAPA_FOGBAND
 10
68.705416197499517
 20
-40.399700096506521
 30
0.0
  0
VERTEX
  5
1E7C
  8
SAPA_FOGBAND
 10
59.61648116505026
 20
-35.152201048102711
 30
0.0
 42
0.1225854743533026
  0
VERTEX
  5
1E7D
  8
SAPA_FOGBAND
 10
58.117012069032469
 20
-34.750277311288428
 30
0.0
  0
VERTEX
  5
1E7E
  8
SAPA_FOGBAND
 10
50.742217735483408
 20
-34.750277311227038
 30
0.0
 42
0.7231341048822281
  0
VERTEX
  5
1E7F
  8
SAPA_FOGBAND
 10
49.375551978757322
 20
-36.868520554192941
 30
0.0
 42
-0.2949636304573953
  0
VERTEX
  5
1E80
  8
SAPA_FOGBAND
 10
48.988737315303112
 20
-42.450277311183868
 30
0.0
  0
VERTEX
  5
1E81
  8
SAPA_FOGBAND
 10
46.250000000108948
 20
-42.450277311181033
 30
0.0
  0
VERTEX
  5
1E82
  8
SAPA_FOGBAND
 10
45.630664716136792
 20
-41.496584606519647
 30
0.0
 42
-0.1449930994868795
  0
VERTEX
  5
1E83
  8
SAPA_FOGBAND
 10
45.550000000112369
 20
-41.224265089020591
 30
0.0
  0
VERTEX
  5
1E84
  8
SAPA_FOGBAND
 10
45.550000000114657
 20
-41.150277311173667
 30
0.0
 42
-0.4142135623645706
  0
VERTEX
  5
1E85
  8
SAPA_FOGBAND
 10
46.050000000117841
 20
-40.650277311176851
 30
0.0
  0
VERTEX
  5
1E86
  8
SAPA_FOGBAND
 10
46.437211533237459
 20
-40.650277311179309
 30
0.0
 42
0.3292444226696578
  0
VERTEX
  5
1E87
  8
SAPA_FOGBAND
 10
47.010673067936978
 20
-40.226747898629228
 30
0.0
 42
1.4872944655697831
  0
VERTEX
  5
1E88
  8
SAPA_FOGBAND
 10
40.989326932316452
 20
-40.226747898590979
 30
0.0
 42
0.3292444226696604
  0
VERTEX
  5
1E89
  8
SAPA_FOGBAND
 10
41.562788467010577
 20
-40.650277311148344
 30
0.0
  0
VERTEX
  5
1E8A
  8
SAPA_FOGBAND
 10
41.950000000131119
 20
-40.650277311150802
 30
0.0
 42
-0.4142135623651035
  0
VERTEX
  5
1E8B
  8
SAPA_FOGBAND
 10
42.450000000128853
 20
-41.150277311139433
 30
0.0
  0
VERTEX
  5
1E8C
  8
SAPA_FOGBAND
 10
42.450000000130203
 20
-41.224265088993619
 30
0.0
 42
-0.1449930994868797
  0
VERTEX
  5
1E8D
  8
SAPA_FOGBAND
 10
42.369335284102291
 20
-41.496584606498921
 30
0.0
  0
VERTEX
  5
1E8E
  8
SAPA_FOGBAND
 10
41.750000000110767
 20
-42.450277311152448
 30
0.0
  0
VERTEX
  5
1E8F
  8
SAPA_FOGBAND
 10
39.011262684916623
 20
-42.450277311135054
 30
0.0
 42
-0.2484312924681684
  0
VERTEX
  5
1E90
  8
SAPA_FOGBAND
 10
38.624448021529702
 20
-36.86852055412465
 30
0.0
 42
0.5855924822446267
  0
VERTEX
  5
1E91
  8
SAPA_FOGBAND
 10
37.257782264832329
 20
-34.750277311126823
 30
0.0
  0
VERTEX
  5
1E92
  8
SAPA_FOGBAND
 10
29.883518845919031
 20
-34.750277264135491
 30
0.0
 42
0.1316524983794406
  0
VERTEX
  5
1E93
  8
SAPA_FOGBAND
 10
28.383518835262201
 20
-35.152201047904292
 30
0.0
  0
VERTEX
  5
1E94
  8
SAPA_FOGBAND
 10
19.294583802743361
 20
-40.399700096192007
 30
0.0
 42
-0.9741568709149699
  0
VERTEX
  5
1E95
  8
SAPA_FOGBAND
 10
18.77226428801038
 20
-39.547352108616302
 30
0.0
  0
VERTEX
  5
1E96
  8
SAPA_FOGBAND
 10
27.223195161624339
 20
-34.059253468749112
 30
0.0
 42
0.2539676473361846
  0
VERTEX
  5
1E97
  8
SAPA_FOGBAND
 10
29.500000000189811
 20
-29.86590062022357
 30
0.0
  0
VERTEX
  5
1E98
  8
SAPA_FOGBAND
 10
29.500000000204619
 20
-27.5360534102531
 30
0.0
 42
0.2216946624071653
  0
VERTEX
  5
1E99
  8
SAPA_FOGBAND
 10
27.713938052107078
 20
-23.705831197521359
 30
0.0
  0
VERTEX
  5
1E9A
  8
SAPA_FOGBAND
 10
21.123160919182268
 20
-18.17551252597309
 30
0.0
 42
-1.126857075054595
  0
VERTEX
  5
1E9B
  8
SAPA_FOGBAND
 10
22.721269726334981
 20
-15.666984180747839
 30
0.0
  0
VERTEX
  5
1E9C
  8
SAPA_FOGBAND
 10
25.400547258917332
 20
-16.916351812532969
 30
0.0
 42
-0.0436609429066319
  0
VERTEX
  5
1E9D
  8
SAPA_FOGBAND
 10
25.7024636081278
 20
-17.090663298024769
 30
0.0
  0
VERTEX
  5
1E9E
  8
SAPA_FOGBAND
 10
27.524982819270829
 20
-18.366804988258512
 30
0.0
 42
-0.957291742260092
  0
VERTEX
  5
1E9F
  8
SAPA_FOGBAND
 10
27.095552244722331
 20
-19.040875967479032
 30
0.0
  0
VERTEX
  5
1EA0
  8
SAPA_FOGBAND
 10
25.055310735430599
 20
-17.86294198282414
 30
0.0
 42
0.0218200776225929
  0
VERTEX
  5
1EA1
  8
SAPA_FOGBAND
 10
24.977928997173379
 20
-17.822659599569558
 30
0.0
  0
VERTEX
  5
1EA2
  8
SAPA_FOGBAND
 10
22.29865146459036
 20
-16.573291967797509
 30
0.0
 42
0.2887584577560343
  0
VERTEX
  5
1EA3
  8
SAPA_FOGBAND
 10
21.769801229802269
 20
-16.64022358421348
 30
0.0
 42
1.2247448713754381
  0
VERTEX
  5
1EA4
  8
SAPA_FOGBAND
 10
21.588833471107559
 20
-16.9878594142331
 30
0.0
 42
0.2887584577534809
  0
VERTEX
  5
1EA5
  8
SAPA_FOGBAND
 10
21.837342333716411
 20
-17.45945856319905
 30
0.0
  0
VERTEX
  5
1EA6
  8
SAPA_FOGBAND
 10
27.350102818144929
 20
-21.321857718752049
 30
0.0
 42
0.1539147210599354
  0
VERTEX
  5
1EA7
  8
SAPA_FOGBAND
 10
33.085867181649519
 20
-23.130337275895101
 30
0.0
  0
VERTEX
  5
1EA8
  8
SAPA_FOGBAND
 10
54.914132818825351
 20
-23.13033727600466
 30
0.0
 42
0.1539147210595579
  0
VERTEX
  5
1EA9
  8
SAPA_FOGBAND
 10
60.64989718235951
 20
-21.32185771892167
 30
0.0
  0
VERTEX
  5
1EAA
  8
SAPA_FOGBAND
 10
66.199445884984613
 20
-17.43602188372698
 30
0.0
 42
0.2652670038588143
  0
VERTEX
  5
1EAB
  8
SAPA_FOGBAND
 10
66.411166529422232
 20
-16.987859414508488
 30
0.0
 42
1.2247448713754421
  0
VERTEX
  5
1EAC
  8
SAPA_FOGBAND
 10
66.230198770730624
 20
-16.640223584495949
 30
0.0
 42
0.288758457756027
  0
VERTEX
  5
1EAD
  8
SAPA_FOGBAND
 10
65.701348535943225
 20
-16.573291968066709
 30
0.0
  0
VERTEX
  5
1EAE
  8
SAPA_FOGBAND
 10
63.022071003346312
 20
-17.822659599809789
 30
0.0
 42
0.0218200776226741
  0
VERTEX
  5
1EAF
  8
SAPA_FOGBAND
 10
62.944689265084428
 20
-17.86294198306398
 30
0.0
  0
VERTEX
  5
1EB0
  8
SAPA_FOGBAND
 10
60.904447755780041
 20
-19.04087596769169
 30
0.0
 42
-0.9572917422600935
  0
VERTEX
  5
1EB1
  8
SAPA_FOGBAND
 10
60.475017181243018
 20
-18.366804988462761
 30
0.0
  0
VERTEX
  5
1EB2
  8
SAPA_FOGBAND
 10
62.297536392397149
 20
-17.090663298258129
 30
0.0
 42
-0.0436609429066254
  0
VERTEX
  5
1EB3
  8
SAPA_FOGBAND
 10
62.599452741609902
 20
-16.916351812772231
 30
0.0
  0
VERTEX
  5
1EB4
  8
SAPA_FOGBAND
 10
65.278730274211412
 20
-15.66698418101821
 30
0.0
 42
-0.8895204030443752
  0
VERTEX
  5
1EB5
  8
SAPA_FOGBAND
 10
66.87683908133225
 20
-18.175512526263741
 30
0.0
  0
VERTEX
  5
1EB6
  8
SAPA_FOGBAND
 10
60.286061948360008
 20
-23.70583119772801
 30
0.0
 42
0.2216946624071884
  0
VERTEX
  5
1EB7
  8
SAPA_FOGBAND
 10
58.500000000213483
 20
-27.53605341043734
 30
0.0
  0
SEQEND
  5
1EB8
  8
SAPA_FOGBAND
  0
POLYLINE
  5
17CA
  8
SAPA_FOGBAND
 66
     1
 10
0.0
 20
0.0
 30
0.0
 70
     1
  0
VERTEX
  5
1EB9
  8
SAPA_FOGBAND
 10
32.000000000192152
 20
-31.250277311093409
 30
0.0
 42
0.4142135623714636
  0
VERTEX
  5
1EBA
  8
SAPA_FOGBAND
 10
34.000000000168313
 20
-33.250277311106117
 30
0.0
  0
VERTEX
  5
1EBB
  8
SAPA_FOGBAND
 10
54.000000000175802
 20
-33.250277311233177
 30
0.0
 42
0.4142135623715295
  0
VERTEX
  5
1EBC
  8
SAPA_FOGBAND
 10
56.000000000188983
 20
-31.250277311245881
 30
0.0
  0
VERTEX
  5
1EBD
  8
SAPA_FOGBAND
 10
56.000000000219458
 20
-26.63033727604067
 30
0.0
 42
0.4142135623718642
  0
VERTEX
  5
1EBE
  8
SAPA_FOGBAND
 10
54.000000000233541
 20
-24.630337276027959
 30
0.0
  0
VERTEX
  5
1EBF
  8
SAPA_FOGBAND
 10
34.000000000222158
 20
-24.63033727590091
 30
0.0
 42
0.4142135623719296
  0
VERTEX
  5
1EC0
  8
SAPA_FOGBAND
 10
32.000000000217419
 20
-26.630337275888198
 30
0.0
  0
SEQEND
  5
1EC1
  8
SAPA_FOGBAND
  0
DIMENSION
  5
17D4
  8
SAPA_MATT
  2
*D42
 10
132.49999999973119
 20
-2.5000000013061601
 30
0.0
 11
129.74999999973119
 21
-26.000000000960291
 31
0.0
 70
     0
 13
85.499999999556536
 23
-49.500000000614449
 33
0.0
 14
85.499999999556479
 24
-2.5000000013061481
 34
0.0
 50
90.0
1001
ACAD
1000
DSTYLE
1002
{
1070
   287
1070
     4
1070
    40
1040
1.0
1070
   279
1070
     1
1002
}
  0
DIMENSION
  5
17D5
  8
SAPA_MATT
  2
*D41
 10
14.000000000502229
 20
-69.50000000001998
 30
0.0
 11
57.250000000117083
 21
-66.75000000001998
 31
0.0
 70
     0
 13
100.4999999997319
 23
-47.950000000876869
 33
0.0
 14
14.000000000502229
 24
-46.499999999985491
 34
0.0
 50
180.0
1001
ACAD
1000
DSTYLE
1002
{
1070
   287
1070
     4
1070
    40
1040
1.0
1070
   279
1070
     1
1002
}
  0
DIMENSION
  5
17D6
  8
SAPA_MATT
  2
*D40
 10
19.00000000018418
 20
62.0
 30
0.0
 11
16.500000000335941
 21
62.0
 31
0.0
 70
   128
 13
14.000000000487701
 23
-4.0000000006589991
 33
0.0
 14
19.000000000184169
 24
14.99999999992826
 34
0.0
1001
ACAD
1000
DSTYLE
1002
{
1070
    40
1040
1.0
1002
}
  0
DIMENSION
  5
17D7
  8
SAPA_MATT
  2
*D39
 10
19.000000000184158
 20
62.0
 30
0.0
 11
43.999999999844398
 21
64.75
 31
0.0
 70
     0
 13
68.999999999504624
 23
14.999999999928249
 33
0.0
 14
19.000000000184158
 24
14.99999999992826
 34
0.0
 50
180.0
1001
ACAD
1000
DSTYLE
1002
{
1070
   287
1070
     4
1070
    40
1040
1.0
1070
   279
1070
     1
1002
}
  0
DIMENSION
  5
17D8
  8
SAPA_MATT
  2
*D38
 10
-5.9999999994991446
 20
31.499999999977721
 30
0.0
 11
-8.7499999994991526
 21
-9.0000000000038813
 31
0.0
 70
     0
 13
17.000000000502229
 23
-49.499999999985491
 33
0.0
 14
21.823940932426929
 24
31.499999999977721
 34
0.0
 50
90.0
1001
ACAD
1000
DSTYLE
1002
{
1070
   287
1070
     4
1070
    40
1040
1.0
1070
   279
1070
     1
1002
}
  0
VIEWPORT
  5
C4
 67
     1
  8
0
 10
160.5543545598442
 20
116.00969601843509
 30
0.0
 40
404.96977709277462
 41
256.8421457311839
 68
     1
 69
     1
1001
ACAD
1000
MVIEW
1002
{
1070
    16
1010
0.0
1020
0.0
1030
0.0
1010
0.0
1020
0.0
1030
1.0
1040
0.0
1040
256.8421457311839
1040
99.206250190734863
1040
130.70624923706049
1040
50.0
1040
0.0
1040
0.0
1070
     0
1070
     0
1070
     1
1070
     1
1070
     0
1070
     0
1070
     0
1070
     0
1040
0.0
1040
0.0
1040
0.0
1040
10.0
1040
10.0
1040
10.0
1040
10.0
1070
     0
1002
{
1002
}
1002
}
  0
ENDSEC
  0
EOF
