  0
SECTION
  2
HEADER
  9
$ACADVER
  1
AC1009
  9
$INSBASE
 10
0.0
 20
0.0
 30
0.0
  9
$EXTMIN
 10
-12.249999999499151
 20
-75.000000000693191
 30
-0.2
  9
$EXTMAX
 10
133.99999999973119
 20
68.25
 30
0.0000000048844772
  9
$LIMMIN
 10
0.0
 20
0.0
  9
$LIMMAX
 10
790.0
 20
790.0
  9
$ORTHOMODE
 70
     0
  9
$REGENMODE
 70
     1
  9
$FILLMODE
 70
     1
  9
$QTEXTMODE
 70
     0
  9
$MIRRTEXT
 70
     1
  9
$DRAGMODE
 70
     2
  9
$LTSCALE
 40
4.0
  9
$OSMODE
 70
   167
  9
$ATTMODE
 70
     1
  9
$TEXTSIZE
 40
3.5
  9
$TRACEWID
 40
0.05
  9
$TEXTSTYLE
  7
ISO
  9
$CLAYER
  8
0
  9
$CELTYPE
  6
BYLAYER
  9
$CECOLOR
 62
   256
  9
$DIMSCALE
 40
0.0
  9
$DIMASZ
 40
3.0
  9
$DIMEXO
 40
1.5
  9
$DIMDLI
 40
10.0
  9
$DIMRND
 40
0.0
  9
$DIMDLE
 40
0.0
  9
$DIMEXE
 40
1.5
  9
$DIMTP
 40
0.0
  9
$DIMTM
 40
0.0
  9
$DIMTXT
 40
3.5
  9
$DIMCEN
 40
-5.0
  9
$DIMTSZ
 40
0.0
  9
$DIMTOL
 70
     0
  9
$DIMLIM
 70
     0
  9
$DIMTIH
 70
     0
  9
$DIMTOH
 70
     0
  9
$DIMSE1
 70
     0
  9
$DIMSE2
 70
     0
  9
$DIMTAD
 70
     1
  9
$DIMZIN
 70
     8
  9
$DIMBLK
  1

  9
$DIMASO
 70
     1
  9
$DIMSHO
 70
     1
  9
$DIMPOST
  1

  9
$DIMAPOST
  1

  9
$DIMALT
 70
     0
  9
$DIMALTD
 70
     0
  9
$DIMALTF
 40
25.399999999999999
  9
$DIMLFAC
 40
-1.0
  9
$DIMTOFL
 70
     1
  9
$DIMTVP
 40
0.0
  9
$DIMTIX
 70
     0
  9
$DIMSOXD
 70
     0
  9
$DIMSAH
 70
     0
  9
$DIMBLK1
  1

  9
$DIMBLK2
  1

  9
$DIMSTYLE
  2
MASKIN
  9
$DIMCLRD
 70
   256
  9
$DIMCLRE
 70
   256
  9
$DIMCLRT
 70
     2
  9
$DIMTFAC
 40
1.0
  9
$DIMGAP
 40
1.0
  9
$LUNITS
 70
     2
  9
$LUPREC
 70
     8
  9
$SKETCHINC
 40
0.1
  9
$FILLETRAD
 40
0.0
  9
$AUNITS
 70
     0
  9
$AUPREC
 70
     8
  9
$MENU
  1
ACAD
  9
$ELEVATION
 40
0.0
  9
$PELEVATION
 40
0.0
  9
$THICKNESS
 40
0.0
  9
$LIMCHECK
 70
     0
  9
$BLIPMODE
 70
     0
  9
$CHAMFERA
 40
0.0
  9
$CHAMFERB
 40
0.0
  9
$SKPOLY
 70
     0
  9
$TDCREATE
 40
2455734.518348461
  9
$TDUPDATE
 40
2455993.5855112039
  9
$TDINDWG
 40
1.3063670833000001
  9
$TDUSRTIMER
 40
1.3063668981000001
  9
$USRTIMER
 70
     1
  9
$ANGBASE
 50
0.0
  9
$ANGDIR
 70
     0
  9
$PDMODE
 70
     0
  9
$PDSIZE
 40
0.0
  9
$PLINEWID
 40
0.0
  9
$COORDS
 70
     1
  9
$SPLFRAME
 70
     0
  9
$SPLINETYPE
 70
     6
  9
$SPLINESEGS
 70
     8
  9
$ATTDIA
 70
     0
  9
$ATTREQ
 70
     1
  9
$HANDLING
 70
     1
  9
$HANDSEED
  5
1F4B
  9
$SURFTAB1
 70
     6
  9
$SURFTAB2
 70
     6
  9
$SURFTYPE
 70
     6
  9
$SURFU
 70
     6
  9
$SURFV
 70
     6
  9
$UCSNAME
  2

  9
$UCSORG
 10
0.0
 20
0.0
 30
0.0
  9
$UCSXDIR
 10
1.0
 20
0.0
 30
0.0
  9
$UCSYDIR
 10
0.0
 20
1.0
 30
0.0
  9
$PUCSNAME
  2

  9
$PUCSORG
 10
0.0
 20
0.0
 30
0.0
  9
$PUCSXDIR
 10
1.0
 20
0.0
 30
0.0
  9
$PUCSYDIR
 10
0.0
 20
1.0
 30
0.0
  9
$USERI1
 70
     0
  9
$USERI2
 70
     0
  9
$USERI3
 70
     0
  9
$USERI4
 70
     0
  9
$USERI5
 70
     0
  9
$USERR1
 40
0.0
  9
$USERR2
 40
0.0
  9
$USERR3
 40
0.0
  9
$USERR4
 40
0.0
  9
$USERR5
 40
0.0
  9
$WORLDVIEW
 70
     1
  9
$SHADEDGE
 70
     3
  9
$SHADEDIF
 70
    70
  9
$TILEMODE
 70
     1
  9
$MAXACTVP
 70
    16
  9
$PLIMCHECK
 70
     0
  9
$PEXTMIN
 10
1.0000000000000000E+020
 20
1.0000000000000000E+020
 30
1.0000000000000000E+020
  9
$PEXTMAX
 10
-1.0000000000000000E+020
 20
-1.0000000000000000E+020
 30
-1.0000000000000000E+020
  9
$PLIMMIN
 10
-5.069427490234375
 20
-5.8737497329711914
  9
$PLIMMAX
 10
291.89889526367187
 20
204.0995779037475
  9
$UNITMODE
 70
     0
  9
$VISRETAIN
 70
     1
  9
$PLINEGEN
 70
     0
  9
$PSLTSCALE
 70
     1
  0
ENDSEC
  0
SECTION
  2
TABLES
  0
TABLE
  2
VPORT
 70
     1
  0
VPORT
  2
*ACTIVE
 70
     0
 10
0.0
 20
0.0
 11
1.0
 21
1.0
 12
60.874469103559782
 22
43.228140526032533
 13
0.0
 23
0.0
 14
1.0
 24
1.0
 15
0.0
 25
0.0
 16
0.0
 26
0.0
 36
1.0
 17
0.0
 27
0.0
 37
0.0
 40
154.51235749473469
 41
2.37391304347826
 42
50.0
 43
0.0
 44
0.0
 50
0.0
 51
0.0
 71
     0
 72
   100
 73
     1
 74
     1
 75
     0
 76
     0
 77
     0
 78
     0
  0
ENDTAB
  0
TABLE
  2
LTYPE
 70
     5
  0
LTYPE
  2
CONTINUOUS
 70
     0
  3
Solid line
 72
    65
 73
     0
 40
0.0
  0
LTYPE
  2
BYGG-027387$0$NEWDOT
 70
     0
  3
____ . ____ . ____ . ____ . ____ . ____ . ____
 72
    65
 73
     4
 40
2.0
 49
1.0
 49
-0.5
 49
0.0
 49
-0.5
  0
LTYPE
  2
BYGG-027378$0$NEWDOT
 70
     0
  3
____ . ____ . ____ . ____ . ____ . ____ . ____
 72
    65
 73
     4
 40
2.0
 49
1.0
 49
-0.5
 49
0.0
 49
-0.5
  0
LTYPE
  2
BYGG-027929$0$NEWDOT
 70
     0
  3
____ . ____ . ____ . ____ . ____ . ____ . ____
 72
    65
 73
     4
 40
2.0
 49
1.0
 49
-0.5
 49
0.0
 49
-0.5
  0
LTYPE
  2
BYGG-027936$0$NEWDOT
 70
     0
  3
____ . ____ . ____ . ____ . ____ . ____ . ____
 72
    65
 73
     4
 40
2.0
 49
1.0
 49
-0.5
 49
0.0
 49
-0.5
  0
ENDTAB
  0
TABLE
  2
LAYER
 70
    41
  0
LAYER
  2
0
 70
     0
 62
     7
  6
CONTINUOUS
  0
LAYER
  2
DEFPOINTS
 70
     0
 62
     7
  6
CONTINUOUS
  0
LAYER
  2
SAPA_ARTIKELNR
 70
     0
 62
     4
  6
CONTINUOUS
  0
LAYER
  2
SAPA_MATT
 70
     0
 62
     1
  6
CONTINUOUS
  0
LAYER
  2
SAPA_GLAS
 70
     0
 62
     4
  6
CONTINUOUS
  0
LAYER
  2
SAPA_FOGBAND
 70
     0
 62
     2
  6
CONTINUOUS
  0
LAYER
  2
SAPA_PROFIL
 70
     0
 62
     7
  6
CONTINUOUS
  0
ENDTAB
  0
TABLE
  2
STYLE
 70
    25
  0
STYLE
  2
STANDARD
 70
     0
 40
0.0
 41
1.0
 50
0.0
 71
     0
 42
0.2
  3
txt
  4

  0
STYLE
  2
ISO
 70
     0
 40
0.0
 41
1.0
 50
0.0
 71
     0
 42
3.5
  3
txt
  4

  0
STYLE
  2
BYGG-027392$0$STANDARD
 70
     0
 40
0.0
 41
1.0
 50
0.0
 71
     0
 42
0.2
  3
txt
  4

  0
STYLE
  2
BYGG-027392$0$ISO
 70
     0
 40
0.0
 41
1.0
 50
0.0
 71
     0
 42
3.5
  3
txt
  4

  0
STYLE
  2
BYGG-027460$0$STANDARD
 70
     0
 40
0.0
 41
1.0
 50
0.0
 71
     0
 42
0.2
  3
txt
  4

  0
STYLE
  2
BYGG-027460$0$ISO
 70
     0
 40
0.0
 41
1.0
 50
0.0
 71
     0
 42
3.5
  3
txt
  4

  0
STYLE
  2
BYGG-027387$0$STANDARD
 70
     0
 40
0.0
 41
1.0
 50
0.0
 71
     0
 42
0.2
  3
txt
  4

  0
STYLE
  2
BYGG-027387$0$ISO
 70
     0
 40
0.0
 41
1.0
 50
0.0
 71
     0
 42
3.5
  3
txt
  4

  0
STYLE
  2
BYGG-027398$0$STANDARD
 70
     0
 40
0.0
 41
1.0
 50
0.0
 71
     0
 42
0.2
  3
txt
  4

  0
STYLE
  2
BYGG-027398$0$ISO
 70
     0
 40
0.0
 41
1.0
 50
0.0
 71
     0
 42
3.5
  3
txt
  4

  0
STYLE
  2
BYGG-027378$0$STANDARD
 70
     0
 40
0.0
 41
1.0
 50
0.0
 71
     0
 42
0.2
  3
txt
  4

  0
STYLE
  2
BYGG-027378$0$ISO
 70
     0
 40
0.0
 41
1.0
 50
0.0
 71
     0
 42
3.5
  3
txt
  4

  0
STYLE
  2
BYGG-028567$0$STANDARD
 70
     0
 40
0.0
 41
1.0
 50
0.0
 71
     0
 42
0.2
  3
txt
  4

  0
STYLE
  2
BYGG-028567$0$ISO
 70
     0
 40
0.0
 41
1.0
 50
0.0
 71
     0
 42
3.5
  3
txt
  4

  0
STYLE
  2
BYGG-027929$0$STANDARD
 70
     0
 40
0.0
 41
1.0
 50
0.0
 71
     0
 42
2.5
  3
txt
  4

  0
STYLE
  2
BYGG-027929$0$BORDER
 70
     0
 40
12.0
 41
1.0
 50
0.0
 71
     0
 42
5.0
  3
txt
  4

  0
STYLE
  2
BYGG-027929$0$ISO
 70
     0
 40
0.0
 41
1.0
 50
0.0
 71
     0
 42
4.0
  3
txt
  4

  0
STYLE
  2
BYGG-028568$0$STANDARD
 70
     0
 40
0.0
 41
1.0
 50
0.0
 71
     0
 42
0.2
  3
txt
  4

  0
STYLE
  2
BYGG-028568$0$ISO
 70
     0
 40
0.0
 41
1.0
 50
0.0
 71
     0
 42
3.5
  3
txt
  4

  0
STYLE
  2
BYGG-027936$0$STANDARD
 70
     0
 40
0.0
 41
1.0
 50
0.0
 71
     0
 42
0.2
  3
txt
  4

  0
STYLE
  2
BYGG-027936$0$ISO
 70
     0
 40
0.0
 41
1.0
 50
0.0
 71
     0
 42
3.5
  3
txt
  4

  0
STYLE
  2
BYGG-008910$0$STANDARD
 70
     0
 40
0.0
 41
1.0
 50
0.0
 71
     0
 42
0.2
  3
txt
  4

  0
STYLE
  2
BYGG-008910$0$ISO
 70
     0
 40
0.0
 41
1.0
 50
0.0
 71
     0
 42
3.5
  3
txt
  4

  0
STYLE
  2
BYGG-027394$0$STANDARD
 70
     0
 40
0.0
 41
1.0
 50
0.0
 71
     0
 42
0.2
  3
txt
  4

  0
STYLE
  2
BYGG-027394$0$ISO
 70
     0
 40
0.0
 41
1.0
 50
0.0
 71
     0
 42
3.5
  3
txt
  4

  0
ENDTAB
  0
TABLE
  2
VIEW
 70
     0
  0
ENDTAB
  0
TABLE
  2
UCS
 70
     0
  0
ENDTAB
  0
TABLE
  2
APPID
 70
    30
  0
APPID
  2
ACAD
 70
     0
  0
APPID
  2
ACAD_DSTYLE_DIMTEXT_FILL
 70
     0
  0
APPID
  2
ACAD_DSTYLE_DIMEXT_LENGTH
 70
     0
  0
APPID
  2
ACAD_DSTYLE_DIMEXT_ENABLED
 70
     0
  0
APPID
  2
ACAD_DSTYLE_DIM_LINETYPE
 70
     0
  0
APPID
  2
ACAD_DSTYLE_DIM_EXT1_LINETYPE
 70
     0
  0
APPID
  2
ACAD_DSTYLE_DIM_EXT2_LINETYPE
 70
     0
  0
APPID
  2
ACAD_DSTYLE_DIMJOGGED_JOGA
 70
     0
  0
APPID
  2
ACAD_DSTYLE_DIMARC_LENGTH_
 70
     0
  0
APPID
  2
ACAD_PSEXT
 70
     0
  0
APPID
  2
ACAD_MLEADERVER
 70
     0
  0
APPID
  2
GENIUS_GENODEF_13
 70
     0
  0
APPID
  2
RC_PROFILE
 70
     0
  0
APPID
  2
ACAECLAYERSTANDARD
 70
     0
  0
APPID
  2
GENIUS_GENOBJ-N-FIL_13
 70
     0
  0
APPID
  2
ACADANNOTATIVE
 70
     0
  0
APPID
  2
ACAD_EXEMPT_FROM_CAD_STANDARDS
 70
     0
  0
APPID
  2
AEC_XDATA_BOUND_SPACE
 70
     0
  0
APPID
  2
ACAD_DSTYLE_DIMJAG
 70
     0
  0
APPID
  2
ACAD_DSTYLE_DIMTALN
 70
     0
  0
APPID
  2
GENIUS_GENREC_14
 70
     0
  0
APPID
  2
GENIUS_GENOBJ-N-REC_13
 70
     0
  0
APPID
  2
ACDBDYNAMICBLOCKTRUENAME
 70
     0
  0
APPID
  2
ACDBBLOCKREPETAG
 70
     0
  0
APPID
  2
ACDBDYNAMICBLOCKGUID
 70
     0
  0
APPID
  2
ACDBBLOCKREPBTAG
 70
     0
  0
APPID
  2
ACAD_NAV_VCDISPLAY
 70
     0
  0
APPID
  2
GRADIENTCOLOR1ACI
 70
     0
  0
APPID
  2
GRADIENTCOLOR2ACI
 70
     0
  0
APPID
  2
ACCMTRANSPARENCY
 70
     0
  0
ENDTAB
  0
TABLE
  2
DIMSTYLE
 70
    17
  0
DIMSTYLE
  2
MASKIN
 70
     0
  3

  4

  5

  6

  7

 40
0.0
 41
3.0
 42
1.5
 43
10.0
 44
1.5
 45
0.0
 46
0.0
 47
0.0
 48
0.0
140
3.5
141
-5.0
142
0.0
143
25.399999999999999
144
-1.0
145
0.0
146
1.0
147
1.0
 71
     0
 72
     0
 73
     0
 74
     0
 75
     0
 76
     0
 77
     1
 78
     8
170
     0
171
     0
172
     1
173
     0
174
     0
175
     0
176
   256
177
   256
178
     2
  0
DIMSTYLE
  2
BYGG-027392$0$MASKIN
 70
     0
  3

  4

  5

  6

  7

 40
0.0
 41
3.0
 42
1.5
 43
10.0
 44
1.5
 45
0.0
 46
0.0
 47
0.0
 48
0.0
140
3.0
141
-5.0
142
0.0
143
25.399999999999999
144
-1.0
145
0.0
146
1.0
147
1.0
 71
     0
 72
     0
 73
     0
 74
     0
 75
     0
 76
     0
 77
     1
 78
     8
170
     0
171
     0
172
     1
173
     0
174
     0
175
     0
176
   256
177
   256
178
     2
  0
DIMSTYLE
  2
BYGG-027460$0$MASKIN
 70
     0
  3

  4

  5

  6

  7

 40
0.0
 41
3.0
 42
1.5
 43
10.0
 44
1.5
 45
0.0
 46
0.0
 47
0.0
 48
0.0
140
3.0
141
-5.0
142
0.0
143
25.399999999999999
144
-1.0
145
0.0
146
1.0
147
1.0
 71
     0
 72
     0
 73
     0
 74
     0
 75
     0
 76
     0
 77
     1
 78
     8
170
     0
171
     0
172
     1
173
     0
174
     0
175
     0
176
   256
177
   256
178
     2
  0
DIMSTYLE
  2
BYGG-027387$0$MASKIN
 70
     0
  3

  4

  5

  6

  7

 40
0.0
 41
3.0
 42
1.5
 43
10.0
 44
1.5
 45
0.0
 46
0.0
 47
0.0
 48
0.0
140
3.0
141
-5.0
142
0.0
143
25.399999999999999
144
-1.0
145
0.0
146
1.0
147
1.0
 71
     0
 72
     0
 73
     0
 74
     0
 75
     0
 76
     0
 77
     1
 78
     8
170
     0
171
     0
172
     1
173
     0
174
     0
175
     0
176
   256
177
   256
178
     2
  0
DIMSTYLE
  2
BYGG-027398$0$MASKIN
 70
     0
  3

  4

  5

  6

  7

 40
0.0
 41
3.0
 42
1.5
 43
10.0
 44
1.5
 45
0.0
 46
0.0
 47
0.0
 48
0.0
140
3.0
141
-5.0
142
0.0
143
25.399999999999999
144
-1.0
145
0.0
146
1.0
147
1.0
 71
     0
 72
     0
 73
     0
 74
     0
 75
     0
 76
     0
 77
     1
 78
     8
170
     0
171
     0
172
     1
173
     0
174
     0
175
     0
176
   256
177
   256
178
     2
  0
DIMSTYLE
  2
BYGG-027378$0$MASKIN
 70
     0
  3

  4

  5

  6

  7

 40
0.0
 41
3.0
 42
1.5
 43
10.0
 44
1.5
 45
0.0
 46
0.0
 47
0.0
 48
0.0
140
3.0
141
-5.0
142
0.0
143
25.399999999999999
144
-1.0
145
0.0
146
1.0
147
1.0
 71
     0
 72
     0
 73
     0
 74
     0
 75
     0
 76
     0
 77
     1
 78
     8
170
     0
171
     0
172
     1
173
     0
174
     0
175
     0
176
   256
177
   256
178
     2
  0
DIMSTYLE
  2
BYGG-028567$0$STANDARD
 70
     0
  3

  4

  5

  6

  7

 40
1.0
 41
0.18
 42
0.0625
 43
0.38
 44
0.18
 45
0.0
 46
0.0
 47
0.0
 48
0.0
140
0.18
141
0.09
142
0.0
143
25.399999999999999
144
1.0
145
0.0
146
1.0
147
0.09
 71
     0
 72
     0
 73
     1
 74
     1
 75
     0
 76
     0
 77
     0
 78
     0
170
     0
171
     2
172
     0
173
     0
174
     0
175
     0
176
     0
177
     0
178
     0
  0
DIMSTYLE
  2
BYGG-028567$0$MASKIN
 70
     0
  3

  4

  5

  6

  7

 40
0.0
 41
3.0
 42
1.5
 43
10.0
 44
1.5
 45
0.0
 46
0.0
 47
0.0
 48
0.0
140
3.0
141
-5.0
142
0.0
143
25.399999999999999
144
-1.0
145
0.0
146
1.0
147
1.0
 71
     0
 72
     0
 73
     0
 74
     0
 75
     0
 76
     0
 77
     1
 78
     8
170
     0
171
     0
172
     1
173
     0
174
     0
175
     0
176
   256
177
   256
178
     2
  0
DIMSTYLE
  2
BYGG-027929$0$STANDARD
 70
     0
  3

  4

  5

  6

  7

 40
1.0
 41
0.18
 42
0.0625
 43
0.38
 44
0.18
 45
0.0
 46
0.0
 47
0.0
 48
0.0
140
0.18
141
0.09
142
0.0
143
25.399999999999999
144
1.0
145
0.0
146
1.0
147
0.09
 71
     0
 72
     0
 73
     1
 74
     1
 75
     0
 76
     0
 77
     0
 78
     0
170
     0
171
     2
172
     0
173
     0
174
     0
175
     0
176
     0
177
     0
178
     0
  0
DIMSTYLE
  2
BYGG-027929$0$MASKIN
 70
     0
  3

  4

  5

  6

  7

 40
0.0
 41
3.0
 42
1.5
 43
10.0
 44
1.5
 45
0.0
 46
0.0
 47
0.0
 48
0.0
140
3.0
141
-5.0
142
0.0
143
25.399999999999999
144
-1.0
145
0.0
146
1.0
147
1.0
 71
     0
 72
     0
 73
     0
 74
     1
 75
     0
 76
     0
 77
     1
 78
     8
170
     0
171
     0
172
     1
173
     0
174
     0
175
     0
176
   256
177
   256
178
     2
  0
DIMSTYLE
  2
BYGG-028568$0$STANDARD
 70
     0
  3

  4

  5

  6

  7

 40
1.0
 41
0.18
 42
0.0625
 43
0.38
 44
0.18
 45
0.0
 46
0.0
 47
0.0
 48
0.0
140
0.18
141
0.09
142
0.0
143
25.399999999999999
144
1.0
145
0.0
146
1.0
147
0.09
 71
     0
 72
     0
 73
     1
 74
     1
 75
     0
 76
     0
 77
     0
 78
     0
170
     0
171
     2
172
     0
173
     0
174
     0
175
     0
176
     0
177
     0
178
     0
  0
DIMSTYLE
  2
BYGG-028568$0$MASKIN
 70
     0
  3

  4

  5

  6

  7

 40
0.0
 41
3.0
 42
1.5
 43
10.0
 44
1.5
 45
0.0
 46
0.0
 47
0.0
 48
0.0
140
3.0
141
-5.0
142
0.0
143
25.399999999999999
144
-1.0
145
0.0
146
1.0
147
1.0
 71
     0
 72
     0
 73
     0
 74
     0
 75
     0
 76
     0
 77
     1
 78
     8
170
     0
171
     0
172
     1
173
     0
174
     0
175
     0
176
   256
177
   256
178
     2
  0
DIMSTYLE
  2
BYGG-027936$0$STANDARD
 70
     0
  3

  4

  5

  6

  7

 40
1.0
 41
0.18
 42
0.0625
 43
0.38
 44
0.18
 45
0.0
 46
0.0
 47
0.0
 48
0.0
140
0.18
141
0.09
142
0.0
143
25.399999999999999
144
1.0
145
0.0
146
1.0
147
0.09
 71
     0
 72
     0
 73
     1
 74
     1
 75
     0
 76
     0
 77
     0
 78
     0
170
     0
171
     2
172
     0
173
     0
174
     0
175
     0
176
     0
177
     0
178
     0
  0
DIMSTYLE
  2
BYGG-027936$0$MASKIN
 70
     0
  3

  4

  5

  6

  7

 40
0.0
 41
3.0
 42
1.5
 43
10.0
 44
1.5
 45
0.0
 46
0.0
 47
0.0
 48
0.0
140
3.0
141
-5.0
142
0.0
143
25.399999999999999
144
-1.0
145
0.0
146
1.0
147
1.0
 71
     0
 72
     0
 73
     0
 74
     0
 75
     0
 76
     0
 77
     1
 78
     8
170
     0
171
     0
172
     1
173
     0
174
     0
175
     0
176
   256
177
   256
178
     2
  0
DIMSTYLE
  2
BYGG-008910$0$STANDARD
 70
     0
  3

  4

  5

  6

  7

 40
1.0
 41
0.18
 42
0.0625
 43
0.38
 44
0.18
 45
0.0
 46
0.0
 47
0.0
 48
0.0
140
0.18
141
0.09
142
0.0
143
25.399999999999999
144
1.0
145
0.0
146
1.0
147
0.09
 71
     0
 72
     0
 73
     1
 74
     1
 75
     0
 76
     0
 77
     0
 78
     0
170
     0
171
     2
172
     0
173
     0
174
     0
175
     0
176
     0
177
     0
178
     0
  0
DIMSTYLE
  2
BYGG-008910$0$MASKIN
 70
     0
  3

  4

  5

  6

  7

 40
0.0
 41
3.0
 42
1.5
 43
10.0
 44
1.5
 45
0.0
 46
0.0
 47
0.0
 48
0.0
140
3.0
141
-5.0
142
0.0
143
25.399999999999999
144
-1.0
145
0.0
146
1.0
147
1.0
 71
     0
 72
     0
 73
     0
 74
     0
 75
     0
 76
     0
 77
     1
 78
     8
170
     0
171
     0
172
     1
173
     0
174
     0
175
     0
176
   256
177
   256
178
     2
  0
DIMSTYLE
  2
BYGG-027394$0$MASKIN
 70
     0
  3

  4

  5

  6

  7

 40
0.0
 41
3.0
 42
1.5
 43
10.0
 44
1.5
 45
0.0
 46
0.0
 47
0.0
 48
0.0
140
3.0
141
-5.0
142
0.0
143
25.399999999999999
144
-1.0
145
0.0
146
1.0
147
1.0
 71
     0
 72
     0
 73
     0
 74
     0
 75
     0
 76
     0
 77
     1
 78
     8
170
     0
171
     0
172
     1
173
     0
174
     0
175
     0
176
   256
177
   256
178
     2
  0
ENDTAB
  0
ENDSEC
  0
SECTION
  2
BLOCKS
  0
BLOCK
  8
0
  2
$MODEL_SPACE
 70
     0
 10
0.0
 20
0.0
 30
0.0
  3
$MODEL_SPACE
  1

  0
ENDBLK
  5
37
  8
0
  0
BLOCK
 67
     1
  8
0
  2
$PAPER_SPACE
 70
     0
 10
0.0
 20
0.0
 30
0.0
  3
$PAPER_SPACE
  1

  0
ENDBLK
  5
35
 67
     1
  8
0
  0
BLOCK
  8
0
  2
*D38
 70
     1
 10
0.0
 20
0.0
 30
0.0
  3
*D38
  1

  0
LINE
  5
1F3A
  8
SAPA_MATT
 10
15.500000000502229
 20
-49.499999999985477
 30
0.0
 11
-7.499999999499166
 21
-49.499999999985477
 31
0.0
  0
LINE
  5
1F3B
  8
SAPA_MATT
 10
20.323940932426929
 20
31.499999999977721
 30
0.0
 11
-7.4999999994991491
 21
31.499999999977732
 31
0.0
  0
LINE
  5
1F3C
  8
SAPA_MATT
 10
-5.999999999499166
 20
-46.499999999985477
 30
0.0
 11
-5.9999999994991491
 21
28.499999999977721
 31
0.0
  0
SOLID
  5
1F3D
  8
SAPA_MATT
 10
-6.499999999499166
 20
-46.499999999985477
 30
0.0
 11
-5.499999999499166
 21
-46.499999999985477
 31
0.0
 12
-5.999999999499166
 22
-49.499999999985477
 32
0.0
 13
-5.999999999499166
 23
-49.499999999985477
 33
0.0
  0
SOLID
  5
1F3E
  8
SAPA_MATT
 10
-6.4999999994991491
 20
28.499999999977721
 30
0.0
 11
-5.4999999994991491
 21
28.499999999977721
 31
0.0
 12
-5.9999999994991491
 22
31.499999999977721
 32
0.0
 13
-5.9999999994991491
 23
31.499999999977721
 33
0.0
  0
TEXT
  8
SAPA_MATT
  40
3.5
  5
1F47
  62
2
  72
0
  71
0
 10
-15.7500
 20
-15.1950
 30
0.000000
  1
81
  7
ISO
  0
POINT
  5
1F40
  8
DEFPOINTS
 62
     0
 10
17.000000000502229
 20
-49.499999999985491
 30
0.0
  0
POINT
  5
1F41
  8
DEFPOINTS
 62
     0
 10
21.823940932426929
 20
31.499999999977721
 30
0.0
  0
POINT
  5
1F42
  8
DEFPOINTS
 62
     0
 10
-5.9999999994991491
 20
31.499999999977721
 30
0.0
  0
ENDBLK
  5
1764
  8
0
  0
BLOCK
  8
0
  2
*D39
 70
     1
 10
0.0
 20
0.0
 30
0.0
  3
*D39
  1

  0
LINE
  5
1F31
  8
SAPA_MATT
 10
68.999999999504624
 20
16.499999999928249
 30
0.0
 11
68.999999999504624
 21
63.5
 31
0.0
  0
LINE
  5
1F32
  8
SAPA_MATT
 10
19.000000000184151
 20
16.49999999992826
 30
0.0
 11
19.000000000184158
 21
63.5
 31
0.0
  0
LINE
  5
1F33
  8
SAPA_MATT
 10
65.999999999504638
 20
62.0
 30
0.0
 11
22.000000000184158
 21
62.0
 31
0.0
  0
SOLID
  5
1F34
  8
SAPA_MATT
 10
65.999999999504638
 20
62.5
 30
0.0
 11
65.999999999504638
 21
61.5
 31
0.0
 12
68.999999999504624
 22
62.0
 32
0.0
 13
68.999999999504624
 23
62.0
 33
0.0
  0
SOLID
  5
1F35
  8
SAPA_MATT
 10
22.000000000184158
 20
62.5
 30
0.0
 11
22.000000000184158
 21
61.5
 31
0.0
 12
19.000000000184158
 22
62.0
 32
0.0
 13
19.000000000184158
 23
62.0
 33
0.0
  0
TEXT
  8
SAPA_MATT
  40
3.5
  5
1F48
  62
2
  72
0
  71
0
 10
37.0000
 20
58.5550
 30
0.000000
  1
50
  7
ISO
  0
POINT
  5
1F37
  8
DEFPOINTS
 62
     0
 10
68.999999999504624
 20
14.999999999928249
 30
0.0
  0
POINT
  5
1F38
  8
DEFPOINTS
 62
     0
 10
19.000000000184151
 20
14.99999999992826
 30
0.0
  0
POINT
  5
1F39
  8
DEFPOINTS
 62
     0
 10
19.000000000184158
 20
62.0
 30
0.0
  0
ENDBLK
  5
1770
  8
0
  0
BLOCK
  8
0
  2
*D40
 70
     1
 10
0.0
 20
0.0
 30
0.0
  3
*D40
  1

  0
LINE
  5
17B2
  8
SAPA_MATT
 10
14.000000000487701
 20
-2.5000000006589991
 30
0.0
 11
14.000000000487701
 21
63.5
 31
0.0
  0
LINE
  5
17B3
  8
SAPA_MATT
 10
19.000000000184169
 20
16.49999999992826
 30
0.0
 11
19.000000000184169
 21
63.5
 31
0.0
  0
LINE
  5
17B4
  8
SAPA_MATT
 10
11.000000000487701
 20
62.0
 30
0.0
 11
8.0000000004877023
 21
62.0
 31
0.0
  0
LINE
  5
17B5
  8
SAPA_MATT
 10
22.000000000184169
 20
62.0
 30
0.0
 11
25.000000000184169
 21
62.0
 31
0.0
  0
LINE
  5
17B6
  8
SAPA_MATT
 10
14.000000000487701
 20
62.0
 30
0.0
 11
19.000000000184169
 21
62.0
 31
0.0
  0
SOLID
  5
17B7
  8
SAPA_MATT
 10
11.000000000487701
 20
62.5
 30
0.0
 11
11.000000000487701
 21
61.5
 31
0.0
 12
14.000000000487701
 22
62.0
 32
0.0
 13
14.000000000487701
 23
62.0
 33
0.0
  0
SOLID
  5
17B8
  8
SAPA_MATT
 10
22.000000000184169
 20
62.5
 30
0.0
 11
22.000000000184169
 21
61.5
 31
0.0
 12
19.000000000184169
 22
62.0
 32
0.0
 13
19.000000000184169
 23
62.0
 33
0.0
  0
INSERT
  5
17B9
  8
0
  2
*U51
 10
0.0
 20
0.0
 30
0.0
  0
POINT
  5
17BA
  8
DEFPOINTS
 62
     0
 10
14.000000000487701
 20
-4.0000000006589991
 30
0.0
  0
POINT
  5
17BB
  8
DEFPOINTS
 62
     0
 10
19.000000000184169
 20
14.99999999992826
 30
0.0
  0
POINT
  5
17BC
  8
DEFPOINTS
 62
     0
 10
19.000000000184169
 20
62.0
 30
0.0
  0
ENDBLK
  5
177C
  8
0
  0
BLOCK
  8
0
  2
*D41
 70
     1
 10
0.0
 20
0.0
 30
0.0
  3
*D41
  1

  0
LINE
  5
1F28
  8
SAPA_MATT
 10
100.4999999997348
 20
-49.250000000633527
 30
0.0
 11
100.4999999997348
 21
-71.00000000001998
 31
0.0
  0
LINE
  5
1F29
  8
SAPA_MATT
 10
14.000000000502229
 20
-47.999999999985491
 30
0.0
 11
14.000000000502229
 21
-71.00000000001998
 31
0.0
  0
LINE
  5
1F2A
  8
SAPA_MATT
 10
97.499999999734769
 20
-69.50000000001998
 30
0.0
 11
17.000000000502219
 21
-69.50000000001998
 31
0.0
  0
SOLID
  5
1F2B
  8
SAPA_MATT
 10
97.499999999734769
 20
-69.00000000001998
 30
0.0
 11
97.499999999734769
 21
-70.00000000001998
 31
0.0
 12
100.4999999997348
 22
-69.50000000001998
 32
0.0
 13
100.4999999997348
 23
-69.50000000001998
 33
0.0
  0
SOLID
  5
1F2C
  8
SAPA_MATT
 10
17.000000000502219
 20
-69.00000000001998
 30
0.0
 11
17.000000000502219
 21
-70.00000000001998
 31
0.0
 12
14.000000000502229
 22
-69.50000000001998
 32
0.0
 13
14.000000000502229
 23
-69.50000000001998
 33
0.0
  0
TEXT
  8
SAPA_MATT
  40
3.5
  5
1F49
  62
2
  72
0
  71
0
 10
50.2500
 20
-72.9450
 30
0.000000
  1
86.5
  7
ISO
  0
POINT
  5
1F2E
  8
DEFPOINTS
 62
     0
 10
100.4999999997348
 20
-47.750000000633527
 30
0.0
  0
POINT
  5
1F2F
  8
DEFPOINTS
 62
     0
 10
14.000000000502229
 20
-46.499999999985491
 30
0.0
  0
POINT
  5
1F30
  8
DEFPOINTS
 62
     0
 10
14.000000000502229
 20
-69.50000000001998
 30
0.0
  0
ENDBLK
  5
178A
  8
0
  0
BLOCK
  8
0
  2
*D42
 70
     1
 10
0.0
 20
0.0
 30
0.0
  3
*D42
  1

  0
LINE
  5
1F1F
  8
SAPA_MATT
 10
86.999999999556536
 20
-49.500000000614449
 30
0.0
 11
133.99999999973119
 21
-49.500000000614463
 31
0.0
  0
LINE
  5
1F20
  8
SAPA_MATT
 10
86.999999999556479
 20
-2.5000000013061481
 30
0.0
 11
133.99999999973119
 21
-2.500000001306161
 31
0.0
  0
LINE
  5
1F21
  8
SAPA_MATT
 10
132.49999999973119
 20
-46.500000000614449
 30
0.0
 11
132.49999999973119
 21
-5.5000000013061614
 31
0.0
  0
SOLID
  5
1F22
  8
SAPA_MATT
 10
131.99999999973119
 20
-46.500000000614449
 30
0.0
 11
132.99999999973119
 21
-46.500000000614449
 31
0.0
 12
132.49999999973119
 22
-49.500000000614463
 32
0.0
 13
132.49999999973119
 23
-49.500000000614463
 33
0.0
  0
SOLID
  5
1F23
  8
SAPA_MATT
 10
131.99999999973119
 20
-5.5000000013061614
 30
0.0
 11
132.99999999973119
 21
-5.5000000013061614
 31
0.0
 12
132.49999999973119
 22
-2.5000000013061601
 32
0.0
 13
132.49999999973119
 23
-2.5000000013061601
 33
0.0
  0
TEXT
  8
SAPA_MATT
  40
3.5
  5
1F4A
  62
2
  72
0
  71
0
 10
122.750
 20
-32.1950
 30
0.000000
  1
47
  7
ISO
  0
POINT
  5
1F25
  8
DEFPOINTS
 62
     0
 10
85.499999999556536
 20
-49.500000000614449
 30
0.0
  0
POINT
  5
1F26
  8
DEFPOINTS
 62
     0
 10
85.499999999556479
 20
-2.5000000013061481
 30
0.0
  0
POINT
  5
1F27
  8
DEFPOINTS
 62
     0
 10
132.49999999973119
 20
-2.5000000013061601
 30
0.0
  0
ENDBLK
  5
1796
  8
0
  0
BLOCK
  8
0
  2
*X43
 70
     1
 10
0.0
 20
0.0
 30
0.0
  3
*X43
  1

  0
LINE
  5
1CB1
  8
0
 62
     0
 10
25.733094621926629
 20
24.620560742152492
 30
0.0
 11
25.887492602731768
 21
24.466162761347331
 31
0.0
  0
LINE
  5
1CB2
  8
0
 62
     0
 10
26.000000000260659
 20
25.476187378952091
 30
0.0
 11
27.250329540266488
 21
24.225857838946251
 31
0.0
  0
LINE
  5
1CB3
  8
0
 62
     0
 10
24.500596143417489
 20
26.97559123579525
 30
0.0
 11
24.97559123605237
 21
26.50059614316039
 31
0.0
  0
LINE
  5
1CB4
  8
0
 62
     0
 10
24.50825238192532
 20
28.09046701242108
 30
0.0
 11
28.263113123257739
 21
24.33560627108864
 31
0.0
  0
LINE
  5
1CB5
  8
0
 62
     0
 10
29.295264896689378
 20
24.425986512790651
 30
0.0
 11
30.000000000134499
 21
23.72125140934553
 31
0.0
  0
LINE
  5
1CB6
  8
0
 62
     0
 10
25.2212514094686
 20
28.500000000011429
 30
0.0
 11
28.868753260404059
 21
24.852498149075981
 31
0.0
  0
LINE
  5
1CB7
  8
0
 62
     0
 10
25.999999999779519
 20
28.843783424834161
 30
0.0
 11
30.000000000134509
 21
24.84378342447917
 31
0.0
  0
LINE
  5
1CB8
  8
0
 62
     0
 10
26.20621097722481
 20
29.760104462522509
 30
0.0
 11
30.000000000134509
 21
25.966315439612821
 31
0.0
  0
LINE
  5
1CB9
  8
0
 62
     0
 10
27.477478753460101
 20
29.611368701420869
 30
0.0
 11
30.000000000134509
 21
27.08884745474646
 31
0.0
  0
LINE
  5
1CBA
  8
0
 62
     0
 10
28.595895769429269
 20
29.615483700585351
 30
0.0
 11
30.000000000134509
 21
28.2113794698801
 31
0.0
  0
LINE
  5
1CBB
  8
0
 62
     0
 10
29.60621123146845
 20
29.727700253679799
 30
0.0
 11
30.000000000134509
 21
29.333911485013751
 31
0.0
  0
LINE
  5
1CBC
  8
0
 62
     0
 10
25.588847454880259
 20
28.500000000006409
 30
0.0
 11
24.500000000063238
 21
27.411152545189399
 31
0.0
  0
LINE
  5
1CBD
  8
0
 62
     0
 10
26.763392839309311
 20
29.674545384435461
 30
0.0
 11
25.999999999779089
 21
28.911152544905239
 31
0.0
  0
LINE
  5
1CBE
  8
0
 62
     0
 10
27.810860758341089
 20
29.5994812883336
 30
0.0
 11
24.768303191328879
 21
26.5569237213214
 31
0.0
  0
LINE
  5
1CBF
  8
0
 62
     0
 10
28.979778694444299
 20
29.645867209303159
 30
0.0
 11
25.831426923734309
 21
26.497515438593179
 31
0.0
  0
LINE
  5
1CC0
  8
0
 62
     0
 10
30.00000000013452
 20
29.54355649985974
 30
0.0
 11
26.00000000026067
 21
25.54355649998589
 31
0.0
  0
LINE
  5
1CC1
  8
0
 62
     0
 10
30.00000000013452
 20
28.42102448472609
 30
0.0
 11
26.021507784402001
 21
24.442532268993581
 31
0.0
  0
LINE
  5
1CC2
  8
0
 62
     0
 10
30.00000000013452
 20
27.29849246959245
 30
0.0
 11
26.97577648140344
 21
24.27426895086138
 31
0.0
  0
LINE
  5
1CC3
  8
0
 62
     0
 10
28.238185212147211
 20
24.414145666471502
 30
0.0
 11
27.930045178404882
 21
24.106005632729179
 31
0.0
  0
LINE
  5
1CC4
  8
0
 62
     0
 10
30.000000000134509
 20
26.17596045445881
 30
0.0
 11
28.668916408677561
 21
24.844876863001861
 31
0.0
  0
LINE
  5
1CC5
  8
0
 62
     0
 10
30.000000000134509
 20
25.05342843932516
 30
0.0
 11
29.315890284985919
 21
24.369318724176559
 31
0.0
  0
LINE
  5
1CC6
  8
0
 62
     0
 10
30.000000000134509
 20
23.93089642419152
 30
0.0
 11
29.615433654955019
 21
23.54633007901203
 31
0.0
  0
ENDBLK
  5
1CC8
  8
0
  0
BLOCK
  8
0
  2
*X44
 70
     1
 10
0.0
 20
0.0
 30
0.0
  3
*X44
  1

  0
LINE
  5
1CCA
  8
0
 62
     0
 10
58.000000000134683
 20
23.784551787686429
 30
0.0
 11
58.345514839556067
 21
23.439036948265031
 31
0.0
  0
LINE
  5
1CCB
  8
0
 62
     0
 10
58.000000000134683
 20
24.907083802820079
 30
0.0
 11
58.645058209533879
 21
24.262025593420869
 31
0.0
  0
LINE
  5
1CCC
  8
0
 62
     0
 10
59.730754575903347
 20
24.298861242185041
 30
0.0
 11
59.944641679417792
 21
24.084974138670599
 31
0.0
  0
LINE
  5
1CCD
  8
0
 62
     0
 10
58.000000000134683
 20
26.029615817953719
 30
0.0
 11
59.172106143163631
 21
24.857509674924749
 31
0.0
  0
LINE
  5
1CCE
  8
0
 62
     0
 10
58.000000000134683
 20
27.152147833087369
 30
0.0
 11
60.899815391985641
 21
24.252332441236391
 31
0.0
  0
LINE
  5
1CCF
  8
0
 62
     0
 10
58.000000000134683
 20
28.274679848221009
 30
0.0
 11
61.854084088997737
 21
24.420595759357941
 31
0.0
  0
LINE
  5
1CD0
  8
0
 62
     0
 10
58.00000000013469
 20
29.397211863354659
 30
0.0
 11
61.999999999650854
 21
25.397211863838479
 31
0.0
  0
LINE
  5
1CD1
  8
0
 62
     0
 10
58.856356378758498
 20
29.663387499864481
 30
0.0
 11
62.068795559782629
 21
26.450948318840339
 31
0.0
  0
LINE
  5
1CD2
  8
0
 62
     0
 10
60.044486697902641
 20
29.597789195853981
 30
0.0
 11
63.126110676654797
 21
26.516165217101811
 31
0.0
  0
LINE
  5
1CD3
  8
0
 62
     0
 10
62.2648079088858
 20
28.500000000004459
 30
0.0
 11
63.499999999778012
 21
27.26480790911225
 31
0.0
  0
LINE
  5
1CD4
  8
0
 62
     0
 10
61.105718668341488
 20
29.65908924054877
 30
0.0
 11
62.000000000131472
 21
28.76480790875879
 31
0.0
  0
LINE
  5
1CD5
  8
0
 62
     0
 10
58.268652456357387
 20
29.748908577741489
 30
0.0
 11
58.000000000134683
 21
29.480256121518771
 31
0.0
  0
LINE
  5
1CD6
  8
0
 62
     0
 10
59.266908537577159
 20
29.624632643827621
 30
0.0
 11
58.000000000134683
 21
28.357724106385131
 31
0.0
  0
LINE
  5
1CD7
  8
0
 62
     0
 10
60.369329462997413
 20
29.604521554114211
 30
0.0
 11
58.000000000134683
 21
27.235192091251481
 31
0.0
  0
LINE
  5
1CD8
  8
0
 62
     0
 10
61.616765878788797
 20
29.729425954771951
 30
0.0
 11
58.00000000013469
 21
26.112660076117841
 31
0.0
  0
LINE
  5
1CD9
  8
0
 62
     0
 10
62.000000000132957
 20
28.990128060982471
 30
0.0
 11
58.000000000134683
 21
24.990128060984201
 31
0.0
  0
LINE
  5
1CDA
  8
0
 62
     0
 10
62.632403954293608
 20
28.500000000009472
 30
0.0
 11
58.00000000013469
 21
23.867596045850551
 31
0.0
  0
LINE
  5
1CDB
  8
0
 62
     0
 10
63.457243534040707
 20
28.20230756462292
 30
0.0
 11
59.766976826095252
 21
24.51204085667748
 31
0.0
  0
LINE
  5
1CDC
  8
0
 62
     0
 10
61.999999999650854
 20
25.622532015099431
 30
0.0
 11
60.571997241006727
 21
24.194529256455311
 31
0.0
  0
LINE
  5
1CDD
  8
0
 62
     0
 10
63.499999999709686
 20
27.12253201515826
 30
0.0
 11
62.877467984555011
 21
26.50000000000357
 31
0.0
  0
LINE
  5
1CDE
  8
0
 62
     0
 10
62.244968868919408
 20
24.744968869234341
 30
0.0
 11
61.934834178519729
 21
24.43483417883467
 31
0.0
  0
ENDBLK
  5
1CE0
  8
0
  0
BLOCK
  8
0
  2
*X45
 70
     1
 10
0.0
 20
0.0
 30
0.0
  3
*X45
  1

  0
LINE
  5
1D17
  8
0
 62
     0
 10
95.120560741883651
 20
-7.7330946229311763
 30
0.0
 11
94.966162761078522
 21
-7.8874926037363053
 31
0.0
  0
LINE
  5
1D18
  8
0
 62
     0
 10
95.976187378683264
 20
-8.0000000012652102
 30
0.0
 11
94.725857838677442
 21
-9.2503295412710251
 31
0.0
  0
LINE
  5
1D19
  8
0
 62
     0
 10
97.475591235526423
 20
-6.5005961444220537
 30
0.0
 11
97.000596142891567
 21
-6.9755912370569071
 31
0.0
  0
LINE
  5
1D1A
  8
0
 62
     0
 10
98.590467012152274
 20
-6.5082523829298706
 30
0.0
 11
94.83560627081981
 21
-10.263113124262309
 31
0.0
  0
LINE
  5
1D1B
  8
0
 62
     0
 10
94.925986512521831
 20
-11.295264897693929
 30
0.0
 11
94.2212514090767
 21
-12.00000000113905
 31
0.0
  0
LINE
  5
1D1C
  8
0
 62
     0
 10
98.999999999742613
 20
-7.2212514104731538
 30
0.0
 11
95.352498148807157
 21
-10.8687532614086
 31
0.0
  0
LINE
  5
1D1D
  8
0
 62
     0
 10
99.343783424565331
 20
-8.0000000007840768
 30
0.0
 11
95.343783424210329
 21
-12.00000000113905
 31
0.0
  0
LINE
  5
1D1E
  8
0
 62
     0
 10
100.26010446225369
 20
-8.2062109782293611
 30
0.0
 11
96.466315439343987
 21
-12.00000000113905
 31
0.0
  0
LINE
  5
1D1F
  8
0
 62
     0
 10
100.111368701152
 20
-9.4774787544646486
 30
0.0
 11
97.588847454477644
 21
-12.00000000113906
 31
0.0
  0
LINE
  5
1D20
  8
0
 62
     0
 10
100.1154837003165
 20
-10.59589577043381
 30
0.0
 11
98.711379469611273
 21
-12.00000000113906
 31
0.0
  0
LINE
  5
1D21
  8
0
 62
     0
 10
100.2277002534109
 20
-11.606211232472999
 30
0.0
 11
99.833911484744903
 21
-12.00000000113906
 31
0.0
  0
LINE
  5
1D22
  8
0
 62
     0
 10
98.999999999737611
 20
-7.58884745588482
 30
0.0
 11
97.911152544920583
 21
-6.500000001067785
 31
0.0
  0
LINE
  5
1D23
  8
0
 62
     0
 10
100.17454538416661
 20
-8.7633928403138697
 30
0.0
 11
99.411152544636423
 21
-8.0000000007836327
 31
0.0
  0
LINE
  5
1D24
  8
0
 62
     0
 10
100.09948128806479
 20
-9.8108607593456512
 30
0.0
 11
97.05692372105257
 21
-6.768303192333434
 31
0.0
  0
LINE
  5
1D25
  8
0
 62
     0
 10
100.14586720903429
 20
-10.979778695448861
 30
0.0
 11
96.997515438324356
 21
-7.8314269247388673
 31
0.0
  0
LINE
  5
1D26
  8
0
 62
     0
 10
100.04355649959091
 20
-12.00000000113906
 30
0.0
 11
96.043556499717056
 21
-8.0000000012652102
 31
0.0
  0
LINE
  5
1D27
  8
0
 62
     0
 10
98.921024484457263
 20
-12.00000000113906
 30
0.0
 11
94.942532268724761
 21
-8.0215077854065591
 31
0.0
  0
LINE
  5
1D28
  8
0
 62
     0
 10
97.798492469323634
 20
-12.00000000113905
 30
0.0
 11
94.774268950592585
 21
-8.9757764824080013
 31
0.0
  0
LINE
  5
1D29
  8
0
 62
     0
 10
94.914145666202671
 20
-10.238185213151761
 30
0.0
 11
94.606005632460366
 21
-9.9300451794094542
 31
0.0
  0
LINE
  5
1D2A
  8
0
 62
     0
 10
96.675960454189962
 20
-12.00000000113905
 30
0.0
 11
95.344876862733031
 21
-10.668916409682121
 31
0.0
  0
LINE
  5
1D2B
  8
0
 62
     0
 10
95.553428439056319
 20
-12.00000000113905
 30
0.0
 11
94.869318723907739
 21
-11.31589028599047
 31
0.0
  0
LINE
  5
1D2C
  8
0
 62
     0
 10
94.43089642392269
 20
-12.00000000113905
 30
0.0
 11
94.046330078743196
 21
-11.615433655959571
 31
0.0
  0
ENDBLK
  5
1D2E
  8
0
  0
BLOCK
  8
0
  2
*X46
 70
     1
 10
0.0
 20
0.0
 30
0.0
  3
*X46
  1

  0
LINE
  5
1D30
  8
0
 62
     0
 10
94.284551787417598
 20
-40.000000001139227
 30
0.0
 11
93.939036947996215
 21
-40.345514840560618
 31
0.0
  0
LINE
  5
1D31
  8
0
 62
     0
 10
95.407083802551256
 20
-40.000000001139227
 30
0.0
 11
94.762025593152046
 21
-40.64505821053843
 31
0.0
  0
LINE
  5
1D32
  8
0
 62
     0
 10
94.798861241916214
 20
-41.730754576907898
 30
0.0
 11
94.584974138401748
 21
-41.94464168042235
 31
0.0
  0
LINE
  5
1D33
  8
0
 62
     0
 10
96.529615817684885
 20
-40.000000001139227
 30
0.0
 11
95.357509674655915
 21
-41.172106144168197
 31
0.0
  0
LINE
  5
1D34
  8
0
 62
     0
 10
97.652147832818557
 20
-40.000000001139227
 30
0.0
 11
94.752332440967564
 21
-42.899815392990192
 31
0.0
  0
LINE
  5
1D35
  8
0
 62
     0
 10
98.774679847952186
 20
-40.000000001139227
 30
0.0
 11
94.92059575908911
 21
-43.854084090002303
 31
0.0
  0
LINE
  5
1D36
  8
0
 62
     0
 10
99.897211863085829
 20
-40.000000001139227
 30
0.0
 11
95.897211863569666
 21
-44.00000000065539
 31
0.0
  0
LINE
  5
1D37
  8
0
 62
     0
 10
100.1633874995956
 20
-40.856356379763042
 30
0.0
 11
96.950948318571534
 21
-44.06879556078718
 31
0.0
  0
LINE
  5
1D38
  8
0
 62
     0
 10
100.09778919558509
 20
-42.044486698907193
 30
0.0
 11
97.016165216832974
 21
-45.126110677659348
 31
0.0
  0
LINE
  5
1D39
  8
0
 62
     0
 10
98.999999999735664
 20
-44.264807909890337
 30
0.0
 11
97.764807908843423
 21
-45.500000000782549
 31
0.0
  0
LINE
  5
1D3A
  8
0
 62
     0
 10
100.1590892402799
 20
-43.105718669346039
 30
0.0
 11
99.264807908489985
 21
-44.000000001136009
 31
0.0
  0
LINE
  5
1D3B
  8
0
 62
     0
 10
100.2489085774726
 20
-40.268652457361938
 30
0.0
 11
99.980256121249937
 21
-40.00000000113922
 31
0.0
  0
LINE
  5
1D3C
  8
0
 62
     0
 10
100.1246326435587
 20
-41.266908538581717
 30
0.0
 11
98.857724106116294
 21
-40.00000000113922
 31
0.0
  0
LINE
  5
1D3D
  8
0
 62
     0
 10
100.1045215538454
 20
-42.369329464001972
 30
0.0
 11
97.735192090982665
 21
-40.000000001139227
 31
0.0
  0
LINE
  5
1D3E
  8
0
 62
     0
 10
100.2294259545031
 20
-43.616765879793348
 30
0.0
 11
96.612660075849007
 21
-40.000000001139227
 31
0.0
  0
LINE
  5
1D3F
  8
0
 62
     0
 10
99.490128060713644
 20
-44.000000001137501
 30
0.0
 11
95.490128060715364
 21
-40.000000001139227
 31
0.0
  0
LINE
  5
1D40
  8
0
 62
     0
 10
98.999999999740652
 20
-44.632403955298159
 30
0.0
 11
94.36759604558172
 21
-40.000000001139227
 31
0.0
  0
LINE
  5
1D41
  8
0
 62
     0
 10
98.702307564354115
 20
-45.457243535045258
 30
0.0
 11
95.01204085640866
 21
-41.766976827099803
 31
0.0
  0
LINE
  5
1D42
  8
0
 62
     0
 10
96.122532014830597
 20
-44.00000000065539
 30
0.0
 11
94.694529256186499
 21
-42.571997242011278
 31
0.0
  0
LINE
  5
1D43
  8
0
 62
     0
 10
97.622532014889444
 20
-45.50000000071423
 30
0.0
 11
96.999999999734783
 21
-44.877467985559562
 31
0.0
  0
LINE
  5
1D44
  8
0
 62
     0
 10
95.244968868965515
 20
-44.244968869923959
 30
0.0
 11
94.934834178565865
 21
-43.934834179524287
 31
0.0
  0
ENDBLK
  5
1D46
  8
0
  0
BLOCK
  8
0
  2
*X47
 70
     1
 10
0.0
 20
0.0
 30
0.0
  3
*X47
  1

  0
LINE
  5
1D7D
  8
0
 62
     0
 10
25.733094621926629
 20
24.620560742152492
 30
0.0
 11
25.887492602731768
 21
24.466162761347331
 31
0.0
  0
LINE
  5
1D7E
  8
0
 62
     0
 10
26.000000000260659
 20
25.476187378952091
 30
0.0
 11
27.250329540266488
 21
24.225857838946251
 31
0.0
  0
LINE
  5
1D7F
  8
0
 62
     0
 10
24.500596143417489
 20
26.97559123579525
 30
0.0
 11
24.97559123605237
 21
26.50059614316039
 31
0.0
  0
LINE
  5
1D80
  8
0
 62
     0
 10
24.50825238192532
 20
28.09046701242108
 30
0.0
 11
28.263113123257739
 21
24.33560627108864
 31
0.0
  0
LINE
  5
1D81
  8
0
 62
     0
 10
29.295264896689378
 20
24.425986512790651
 30
0.0
 11
30.000000000134499
 21
23.72125140934553
 31
0.0
  0
LINE
  5
1D82
  8
0
 62
     0
 10
25.2212514094686
 20
28.500000000011429
 30
0.0
 11
28.868753260404059
 21
24.852498149075981
 31
0.0
  0
LINE
  5
1D83
  8
0
 62
     0
 10
25.999999999779519
 20
28.843783424834161
 30
0.0
 11
30.000000000134509
 21
24.84378342447917
 31
0.0
  0
LINE
  5
1D84
  8
0
 62
     0
 10
26.20621097722481
 20
29.760104462522509
 30
0.0
 11
30.000000000134509
 21
25.966315439612821
 31
0.0
  0
LINE
  5
1D85
  8
0
 62
     0
 10
27.477478753460101
 20
29.611368701420869
 30
0.0
 11
30.000000000134509
 21
27.08884745474646
 31
0.0
  0
LINE
  5
1D86
  8
0
 62
     0
 10
28.595895769429269
 20
29.615483700585351
 30
0.0
 11
30.000000000134509
 21
28.2113794698801
 31
0.0
  0
LINE
  5
1D87
  8
0
 62
     0
 10
29.60621123146845
 20
29.727700253679799
 30
0.0
 11
30.000000000134509
 21
29.333911485013751
 31
0.0
  0
LINE
  5
1D88
  8
0
 62
     0
 10
25.588847454880259
 20
28.500000000006409
 30
0.0
 11
24.500000000063238
 21
27.411152545189399
 31
0.0
  0
LINE
  5
1D89
  8
0
 62
     0
 10
26.763392839309311
 20
29.674545384435461
 30
0.0
 11
25.999999999779089
 21
28.911152544905239
 31
0.0
  0
LINE
  5
1D8A
  8
0
 62
     0
 10
27.810860758341089
 20
29.5994812883336
 30
0.0
 11
24.768303191328879
 21
26.5569237213214
 31
0.0
  0
LINE
  5
1D8B
  8
0
 62
     0
 10
28.979778694444299
 20
29.645867209303159
 30
0.0
 11
25.831426923734309
 21
26.497515438593179
 31
0.0
  0
LINE
  5
1D8C
  8
0
 62
     0
 10
30.00000000013452
 20
29.54355649985974
 30
0.0
 11
26.00000000026067
 21
25.54355649998589
 31
0.0
  0
LINE
  5
1D8D
  8
0
 62
     0
 10
30.00000000013452
 20
28.42102448472609
 30
0.0
 11
26.021507784402001
 21
24.442532268993581
 31
0.0
  0
LINE
  5
1D8E
  8
0
 62
     0
 10
30.00000000013452
 20
27.29849246959245
 30
0.0
 11
26.97577648140344
 21
24.27426895086138
 31
0.0
  0
LINE
  5
1D8F
  8
0
 62
     0
 10
28.238185212147211
 20
24.414145666471502
 30
0.0
 11
27.930045178404882
 21
24.106005632729179
 31
0.0
  0
LINE
  5
1D90
  8
0
 62
     0
 10
30.000000000134509
 20
26.17596045445881
 30
0.0
 11
28.668916408677561
 21
24.844876863001861
 31
0.0
  0
LINE
  5
1D91
  8
0
 62
     0
 10
30.000000000134509
 20
25.05342843932516
 30
0.0
 11
29.315890284985919
 21
24.369318724176559
 31
0.0
  0
LINE
  5
1D92
  8
0
 62
     0
 10
30.000000000134509
 20
23.93089642419152
 30
0.0
 11
29.615433654955019
 21
23.54633007901203
 31
0.0
  0
ENDBLK
  5
1D94
  8
0
  0
BLOCK
  8
0
  2
*X48
 70
     1
 10
0.0
 20
0.0
 30
0.0
  3
*X48
  1

  0
LINE
  5
1D96
  8
0
 62
     0
 10
58.000000000134683
 20
23.784551787686429
 30
0.0
 11
58.345514839556067
 21
23.439036948265031
 31
0.0
  0
LINE
  5
1D97
  8
0
 62
     0
 10
58.000000000134683
 20
24.907083802820079
 30
0.0
 11
58.645058209533879
 21
24.262025593420869
 31
0.0
  0
LINE
  5
1D98
  8
0
 62
     0
 10
59.730754575903347
 20
24.298861242185041
 30
0.0
 11
59.944641679417792
 21
24.084974138670599
 31
0.0
  0
LINE
  5
1D99
  8
0
 62
     0
 10
58.000000000134683
 20
26.029615817953719
 30
0.0
 11
59.172106143163631
 21
24.857509674924749
 31
0.0
  0
LINE
  5
1D9A
  8
0
 62
     0
 10
58.000000000134683
 20
27.152147833087369
 30
0.0
 11
60.899815391985641
 21
24.252332441236391
 31
0.0
  0
LINE
  5
1D9B
  8
0
 62
     0
 10
58.000000000134683
 20
28.274679848221009
 30
0.0
 11
61.854084088997737
 21
24.420595759357941
 31
0.0
  0
LINE
  5
1D9C
  8
0
 62
     0
 10
58.00000000013469
 20
29.397211863354659
 30
0.0
 11
61.999999999650854
 21
25.397211863838479
 31
0.0
  0
LINE
  5
1D9D
  8
0
 62
     0
 10
58.856356378758498
 20
29.663387499864481
 30
0.0
 11
62.068795559782629
 21
26.450948318840339
 31
0.0
  0
LINE
  5
1D9E
  8
0
 62
     0
 10
60.044486697902641
 20
29.597789195853981
 30
0.0
 11
63.126110676654797
 21
26.516165217101811
 31
0.0
  0
LINE
  5
1D9F
  8
0
 62
     0
 10
62.2648079088858
 20
28.500000000004459
 30
0.0
 11
63.499999999778012
 21
27.26480790911225
 31
0.0
  0
LINE
  5
1DA0
  8
0
 62
     0
 10
61.105718668341488
 20
29.65908924054877
 30
0.0
 11
62.000000000131472
 21
28.76480790875879
 31
0.0
  0
LINE
  5
1DA1
  8
0
 62
     0
 10
58.268652456357387
 20
29.748908577741489
 30
0.0
 11
58.000000000134683
 21
29.480256121518771
 31
0.0
  0
LINE
  5
1DA2
  8
0
 62
     0
 10
59.266908537577159
 20
29.624632643827621
 30
0.0
 11
58.000000000134683
 21
28.357724106385131
 31
0.0
  0
LINE
  5
1DA3
  8
0
 62
     0
 10
60.369329462997413
 20
29.604521554114211
 30
0.0
 11
58.000000000134683
 21
27.235192091251481
 31
0.0
  0
LINE
  5
1DA4
  8
0
 62
     0
 10
61.616765878788797
 20
29.729425954771951
 30
0.0
 11
58.00000000013469
 21
26.112660076117841
 31
0.0
  0
LINE
  5
1DA5
  8
0
 62
     0
 10
62.000000000132957
 20
28.990128060982471
 30
0.0
 11
58.000000000134683
 21
24.990128060984201
 31
0.0
  0
LINE
  5
1DA6
  8
0
 62
     0
 10
62.632403954293608
 20
28.500000000009472
 30
0.0
 11
58.00000000013469
 21
23.867596045850551
 31
0.0
  0
LINE
  5
1DA7
  8
0
 62
     0
 10
63.457243534040707
 20
28.20230756462292
 30
0.0
 11
59.766976826095252
 21
24.51204085667748
 31
0.0
  0
LINE
  5
1DA8
  8
0
 62
     0
 10
61.999999999650854
 20
25.622532015099431
 30
0.0
 11
60.571997241006727
 21
24.194529256455311
 31
0.0
  0
LINE
  5
1DA9
  8
0
 62
     0
 10
63.499999999709686
 20
27.12253201515826
 30
0.0
 11
62.877467984555011
 21
26.50000000000357
 31
0.0
  0
LINE
  5
1DAA
  8
0
 62
     0
 10
62.244968868919408
 20
24.744968869234341
 30
0.0
 11
61.934834178519729
 21
24.43483417883467
 31
0.0
  0
ENDBLK
  5
1DAC
  8
0
  0
BLOCK
  8
0
  2
*X49
 70
     1
 10
0.0
 20
0.0
 30
0.0
  3
*X49
  1

  0
LINE
  5
1DE3
  8
0
 62
     0
 10
95.120560741883651
 20
-7.7330946229311763
 30
0.0
 11
94.966162761078522
 21
-7.8874926037363053
 31
0.0
  0
LINE
  5
1DE4
  8
0
 62
     0
 10
95.976187378683264
 20
-8.0000000012652102
 30
0.0
 11
94.725857838677442
 21
-9.2503295412710251
 31
0.0
  0
LINE
  5
1DE5
  8
0
 62
     0
 10
97.475591235526423
 20
-6.5005961444220537
 30
0.0
 11
97.000596142891567
 21
-6.9755912370569071
 31
0.0
  0
LINE
  5
1DE6
  8
0
 62
     0
 10
98.590467012152274
 20
-6.5082523829298706
 30
0.0
 11
94.83560627081981
 21
-10.263113124262309
 31
0.0
  0
LINE
  5
1DE7
  8
0
 62
     0
 10
94.925986512521831
 20
-11.295264897693929
 30
0.0
 11
94.2212514090767
 21
-12.00000000113905
 31
0.0
  0
LINE
  5
1DE8
  8
0
 62
     0
 10
98.999999999742613
 20
-7.2212514104731538
 30
0.0
 11
95.352498148807157
 21
-10.8687532614086
 31
0.0
  0
LINE
  5
1DE9
  8
0
 62
     0
 10
99.343783424565331
 20
-8.0000000007840768
 30
0.0
 11
95.343783424210329
 21
-12.00000000113905
 31
0.0
  0
LINE
  5
1DEA
  8
0
 62
     0
 10
100.26010446225369
 20
-8.2062109782293611
 30
0.0
 11
96.466315439343987
 21
-12.00000000113905
 31
0.0
  0
LINE
  5
1DEB
  8
0
 62
     0
 10
100.111368701152
 20
-9.4774787544646486
 30
0.0
 11
97.588847454477644
 21
-12.00000000113906
 31
0.0
  0
LINE
  5
1DEC
  8
0
 62
     0
 10
100.1154837003165
 20
-10.59589577043381
 30
0.0
 11
98.711379469611273
 21
-12.00000000113906
 31
0.0
  0
LINE
  5
1DED
  8
0
 62
     0
 10
100.2277002534109
 20
-11.606211232472999
 30
0.0
 11
99.833911484744903
 21
-12.00000000113906
 31
0.0
  0
LINE
  5
1DEE
  8
0
 62
     0
 10
98.999999999737611
 20
-7.58884745588482
 30
0.0
 11
97.911152544920583
 21
-6.500000001067785
 31
0.0
  0
LINE
  5
1DEF
  8
0
 62
     0
 10
100.17454538416661
 20
-8.7633928403138697
 30
0.0
 11
99.411152544636423
 21
-8.0000000007836327
 31
0.0
  0
LINE
  5
1DF0
  8
0
 62
     0
 10
100.09948128806479
 20
-9.8108607593456512
 30
0.0
 11
97.05692372105257
 21
-6.768303192333434
 31
0.0
  0
LINE
  5
1DF1
  8
0
 62
     0
 10
100.14586720903429
 20
-10.979778695448861
 30
0.0
 11
96.997515438324356
 21
-7.8314269247388673
 31
0.0
  0
LINE
  5
1DF2
  8
0
 62
     0
 10
100.04355649959091
 20
-12.00000000113906
 30
0.0
 11
96.043556499717056
 21
-8.0000000012652102
 31
0.0
  0
LINE
  5
1DF3
  8
0
 62
     0
 10
98.921024484457263
 20
-12.00000000113906
 30
0.0
 11
94.942532268724761
 21
-8.0215077854065591
 31
0.0
  0
LINE
  5
1DF4
  8
0
 62
     0
 10
97.798492469323634
 20
-12.00000000113905
 30
0.0
 11
94.774268950592585
 21
-8.9757764824080013
 31
0.0
  0
LINE
  5
1DF5
  8
0
 62
     0
 10
94.914145666202671
 20
-10.238185213151761
 30
0.0
 11
94.606005632460366
 21
-9.9300451794094542
 31
0.0
  0
LINE
  5
1DF6
  8
0
 62
     0
 10
96.675960454189962
 20
-12.00000000113905
 30
0.0
 11
95.344876862733031
 21
-10.668916409682121
 31
0.0
  0
LINE
  5
1DF7
  8
0
 62
     0
 10
95.553428439056319
 20
-12.00000000113905
 30
0.0
 11
94.869318723907739
 21
-11.31589028599047
 31
0.0
  0
LINE
  5
1DF8
  8
0
 62
     0
 10
94.43089642392269
 20
-12.00000000113905
 30
0.0
 11
94.046330078743196
 21
-11.615433655959571
 31
0.0
  0
ENDBLK
  5
1DFA
  8
0
  0
BLOCK
  8
0
  2
*X50
 70
     1
 10
0.0
 20
0.0
 30
0.0
  3
*X50
  1

  0
LINE
  5
1DFC
  8
0
 62
     0
 10
94.284551787417598
 20
-40.000000001139227
 30
0.0
 11
93.939036947996215
 21
-40.345514840560618
 31
0.0
  0
LINE
  5
1DFD
  8
0
 62
     0
 10
95.407083802551256
 20
-40.000000001139227
 30
0.0
 11
94.762025593152046
 21
-40.64505821053843
 31
0.0
  0
LINE
  5
1DFE
  8
0
 62
     0
 10
94.798861241916214
 20
-41.730754576907898
 30
0.0
 11
94.584974138401748
 21
-41.94464168042235
 31
0.0
  0
LINE
  5
1DFF
  8
0
 62
     0
 10
96.529615817684885
 20
-40.000000001139227
 30
0.0
 11
95.357509674655915
 21
-41.172106144168197
 31
0.0
  0
LINE
  5
1E00
  8
0
 62
     0
 10
97.652147832818557
 20
-40.000000001139227
 30
0.0
 11
94.752332440967564
 21
-42.899815392990192
 31
0.0
  0
LINE
  5
1E01
  8
0
 62
     0
 10
98.774679847952186
 20
-40.000000001139227
 30
0.0
 11
94.92059575908911
 21
-43.854084090002303
 31
0.0
  0
LINE
  5
1E02
  8
0
 62
     0
 10
99.897211863085829
 20
-40.000000001139227
 30
0.0
 11
95.897211863569666
 21
-44.00000000065539
 31
0.0
  0
LINE
  5
1E03
  8
0
 62
     0
 10
100.1633874995956
 20
-40.856356379763042
 30
0.0
 11
96.950948318571534
 21
-44.06879556078718
 31
0.0
  0
LINE
  5
1E04
  8
0
 62
     0
 10
100.09778919558509
 20
-42.044486698907193
 30
0.0
 11
97.016165216832974
 21
-45.126110677659348
 31
0.0
  0
LINE
  5
1E05
  8
0
 62
     0
 10
98.999999999735664
 20
-44.264807909890337
 30
0.0
 11
97.764807908843423
 21
-45.500000000782549
 31
0.0
  0
LINE
  5
1E06
  8
0
 62
     0
 10
100.1590892402799
 20
-43.105718669346039
 30
0.0
 11
99.264807908489985
 21
-44.000000001136009
 31
0.0
  0
LINE
  5
1E07
  8
0
 62
     0
 10
100.2489085774726
 20
-40.268652457361938
 30
0.0
 11
99.980256121249937
 21
-40.00000000113922
 31
0.0
  0
LINE
  5
1E08
  8
0
 62
     0
 10
100.1246326435587
 20
-41.266908538581717
 30
0.0
 11
98.857724106116294
 21
-40.00000000113922
 31
0.0
  0
LINE
  5
1E09
  8
0
 62
     0
 10
100.1045215538454
 20
-42.369329464001972
 30
0.0
 11
97.735192090982665
 21
-40.000000001139227
 31
0.0
  0
LINE
  5
1E0A
  8
0
 62
     0
 10
100.2294259545031
 20
-43.616765879793348
 30
0.0
 11
96.612660075849007
 21
-40.000000001139227
 31
0.0
  0
LINE
  5
1E0B
  8
0
 62
     0
 10
99.490128060713644
 20
-44.000000001137501
 30
0.0
 11
95.490128060715364
 21
-40.000000001139227
 31
0.0
  0
LINE
  5
1E0C
  8
0
 62
     0
 10
98.999999999740652
 20
-44.632403955298159
 30
0.0
 11
94.36759604558172
 21
-40.000000001139227
 31
0.0
  0
LINE
  5
1E0D
  8
0
 62
     0
 10
98.702307564354115
 20
-45.457243535045258
 30
0.0
 11
95.01204085640866
 21
-41.766976827099803
 31
0.0
  0
LINE
  5
1E0E
  8
0
 62
     0
 10
96.122532014830597
 20
-44.00000000065539
 30
0.0
 11
94.694529256186499
 21
-42.571997242011278
 31
0.0
  0
LINE
  5
1E0F
  8
0
 62
     0
 10
97.622532014889444
 20
-45.50000000071423
 30
0.0
 11
96.999999999734783
 21
-44.877467985559562
 31
0.0
  0
LINE
  5
1E10
  8
0
 62
     0
 10
95.244968868965515
 20
-44.244968869923959
 30
0.0
 11
94.934834178565865
 21
-43.934834179524287
 31
0.0
  0
ENDBLK
  5
1E12
  8
0
  0
BLOCK
  8
0
  2
*U51
 70
     1
 10
0.0
 20
0.0
 30
0.0
  3
*U51
  1

  0
TEXT
  5
1F44
  8
SAPA_MATT
 62
     2
 10
15.27500000033594
 20
63.0
 30
0.0
 40
3.5
  1
5
  7
ISO
  0
ENDBLK
  5
1F46
  8
0
  0
ENDSEC
  0
SECTION
  2
ENTITIES
  0
TEXT
  5
722
  8
SAPA_ARTIKELNR
 10
63.959913726553133
 20
30.955537278720691
 30
0.0000000048844772
 40
3.5
  1
D8V001
 50
90.0
  7
ISO
  0
TEXT
  5
B34
  8
SAPA_ARTIKELNR
 10
18.076027713277771
 20
6.7955087883420608
 30
0.0000000048844772
 40
3.5
  1
D8V007
 50
90.0
  7
ISO
  0
TEXT
  5
F3E
  8
SAPA_ARTIKELNR
 10
76.646255849373887
 20
-1.788976259447977
 30
0.0000000048844772
 40
3.5
  1
D8C002
 50
90.0
  7
ISO
  0
TEXT
  5
F3F
  8
SAPA_ARTIKELNR
 10
12.308171778372079
 20
-34.111764796386012
 30
0.0000000048844772
 40
3.5
  1
D8C001
 50
90.0
  7
ISO
  0
TEXT
  5
11F6
  8
SAPA_ARTIKELNR
 10
80.544824963921386
 20
-55.034128592340792
 30
0.0000000048844772
 40
3.5
  1
D8V001
  7
ISO
  0
POLYLINE
  5
1669
  8
SAPA_PROFIL
 62
     4
 66
     1
 10
0.0
 20
0.0
 30
0.0
 70
     1
  0
VERTEX
  5
166A
  8
SAPA_PROFIL
 62
     4
 10
80.850011999736779
 20
-13.85621778361279
 30
0.0
 42
0.1316524975873979
  0
VERTEX
  5
166B
  8
SAPA_PROFIL
 62
     4
 10
80.742832322764329
 20
-13.45621778361277
 30
0.0
  0
VERTEX
  5
166C
  8
SAPA_PROFIL
 62
     4
 10
79.750011999734895
 20
-11.736602541338719
 30
0.0
  0
VERTEX
  5
166D
  8
SAPA_PROFIL
 62
     4
 10
79.750011999734824
 20
-11.300000000960271
 30
0.0
 42
-0.4142135623730951
  0
VERTEX
  5
166E
  8
SAPA_PROFIL
 62
     4
 10
80.000011999734795
 20
-11.05000000096029
 30
0.0
  0
VERTEX
  5
166F
  8
SAPA_PROFIL
 62
     4
 10
83.600023999734859
 20
-11.050000000960241
 30
0.0
 42
-0.4142135623731053
  0
VERTEX
  5
1670
  8
SAPA_PROFIL
 62
     4
 10
83.850023999734887
 20
-11.300000000960241
 30
0.0
  0
VERTEX
  5
1671
  8
SAPA_PROFIL
 62
     4
 10
83.850012356999514
 20
-11.736601922538711
 30
0.0
  0
VERTEX
  5
1672
  8
SAPA_PROFIL
 62
     4
 10
82.857191676709235
 20
-13.4562177836061
 30
0.0
 42
0.1316524975874149
  0
VERTEX
  5
1673
  8
SAPA_PROFIL
 62
     4
 10
82.750011999736756
 20
-13.85621778360615
 30
0.0
  0
VERTEX
  5
1674
  8
SAPA_PROFIL
 62
     4
 10
82.750011999736714
 20
-38.143782218314449
 30
0.0
 42
0.1316524975874151
  0
VERTEX
  5
1675
  8
SAPA_PROFIL
 62
     4
 10
82.85719167670922
 20
-38.543782218314497
 30
0.0
  0
VERTEX
  5
1676
  8
SAPA_PROFIL
 62
     4
 10
83.850012356999486
 20
-40.263398079381879
 30
0.0
  0
VERTEX
  5
1677
  8
SAPA_PROFIL
 62
     4
 10
83.850023999734844
 20
-40.700000000960351
 30
0.0
 42
-0.4142135623731054
  0
VERTEX
  5
1678
  8
SAPA_PROFIL
 62
     4
 10
83.600023999734844
 20
-40.950000000960351
 30
0.0
  0
VERTEX
  5
1679
  8
SAPA_PROFIL
 62
     4
 10
80.000011999734781
 20
-40.950000000960287
 30
0.0
 42
-0.4142135623730953
  0
VERTEX
  5
167A
  8
SAPA_PROFIL
 62
     4
 10
79.750011999734795
 20
-40.700000000960308
 30
0.0
  0
VERTEX
  5
167B
  8
SAPA_PROFIL
 62
     4
 10
79.75001199973488
 20
-40.263397460581849
 30
0.0
  0
VERTEX
  5
167C
  8
SAPA_PROFIL
 62
     4
 10
80.742832322764315
 20
-38.543782218307818
 30
0.0
 42
0.1316524975873982
  0
VERTEX
  5
167D
  8
SAPA_PROFIL
 62
     4
 10
80.850011999736751
 20
-38.143782218307813
 30
0.0
  0
SEQEND
  5
167E
  8
SAPA_PROFIL
 62
     4
  0
POLYLINE
  5
167F
  8
SAPA_PROFIL
 66
     1
 10
0.0
 20
0.0
 30
0.0
 70
     1
  0
VERTEX
  5
1A57
  8
SAPA_PROFIL
 10
77.750555349674286
 20
-40.756130960006523
 30
0.0
  0
VERTEX
  5
1A58
  8
SAPA_PROFIL
 10
77.750555349677924
 20
-39.80000000097116
 30
0.0
 42
0.2418327667557183
  0
VERTEX
  5
1A59
  8
SAPA_PROFIL
 10
77.625277674700982
 20
-39.556130960004602
 30
0.0
 42
-0.2418327667535164
  0
VERTEX
  5
1A5A
  8
SAPA_PROFIL
 10
77.499999999726754
 20
-39.312261919045852
 30
0.0
  0
VERTEX
  5
1A5B
  8
SAPA_PROFIL
 10
77.499999999735238
 20
-37.088458041413027
 30
0.0
 42
-0.0874886635239214
  0
VERTEX
  5
1A5C
  8
SAPA_PROFIL
 10
77.518092213499031
 20
-36.985851998417637
 30
0.0
  0
VERTEX
  5
1A5D
  8
SAPA_PROFIL
 10
78.037606281174391
 20
-35.558498828372208
 30
0.0
 42
-0.4142135623698208
  0
VERTEX
  5
1A5E
  8
SAPA_PROFIL
 10
78.422120110416557
 20
-35.37919708513482
 30
0.0
  0
VERTEX
  5
1A5F
  8
SAPA_PROFIL
 10
78.610058634565263
 20
-35.447601113805867
 30
0.0
 42
-0.4142135623730019
  0
VERTEX
  5
1A60
  8
SAPA_PROFIL
 10
78.789360377807782
 20
-35.832114943027513
 30
0.0
  0
VERTEX
  5
1A61
  8
SAPA_PROFIL
 10
78.413138220141093
 20
-36.865776825896653
 30
0.0
 42
0.41421356237947
  0
VERTEX
  5
1A62
  8
SAPA_PROFIL
 10
78.592439963392223
 20
-37.250290655128218
 30
0.0
  0
VERTEX
  5
1A63
  8
SAPA_PROFIL
 10
80.402630042731161
 20
-37.909145962364029
 30
0.0
 42
-0.3152987888800591
  0
VERTEX
  5
1A64
  8
SAPA_PROFIL
 10
80.600023999734503
 20
-38.191053748600261
 30
0.0
  0
VERTEX
  5
1A65
  8
SAPA_PROFIL
 10
80.600023999734404
 20
-38.610769516419587
 30
0.0
 42
-0.1316524975873855
  0
VERTEX
  5
1A66
  8
SAPA_PROFIL
 10
80.559831620869744
 20
-38.760769516419508
 30
0.0
  0
VERTEX
  5
1A67
  8
SAPA_PROFIL
 10
79.700023999734441
 20
-40.250000000960391
 30
0.0
  0
VERTEX
  5
1A68
  8
SAPA_PROFIL
 10
79.700011999734784
 20
-40.70000000096033
 30
0.0
 42
0.4142135623731054
  0
VERTEX
  5
1A69
  8
SAPA_PROFIL
 10
80.000011999734781
 20
-41.000000000960341
 30
0.0
  0
VERTEX
  5
1A6A
  8
SAPA_PROFIL
 10
83.600023999734844
 20
-41.000000000960299
 30
0.0
 42
0.414213562373095
  0
VERTEX
  5
1A6B
  8
SAPA_PROFIL
 10
83.900023999734842
 20
-40.700000000960301
 30
0.0
  0
VERTEX
  5
1A6C
  8
SAPA_PROFIL
 10
83.900023999734728
 20
-40.250000000960299
 30
0.0
  0
VERTEX
  5
1A6D
  8
SAPA_PROFIL
 10
83.040199262165771
 20
-38.76073986988613
 30
0.0
 42
-0.1316363093594254
  0
VERTEX
  5
1A6E
  8
SAPA_PROFIL
 10
83.000006883908796
 20
-38.610758964839391
 30
0.0
  0
VERTEX
  5
1A6F
  8
SAPA_PROFIL
 10
82.999999834117986
 20
-38.500000000953698
 30
0.0
  0
VERTEX
  5
1A70
  8
SAPA_PROFIL
 10
84.999999999731116
 20
-38.500000000953698
 30
0.0
 42
-0.4142135623730951
  0
VERTEX
  5
1A71
  8
SAPA_PROFIL
 10
85.499999999731116
 20
-39.000000000953712
 30
0.0
  0
VERTEX
  5
1A72
  8
SAPA_PROFIL
 10
85.499999999731116
 20
-46.150000001231639
 30
0.0
 42
-0.4142135623730935
  0
VERTEX
  5
1A73
  8
SAPA_PROFIL
 10
85.199999999731844
 20
-46.450000001227281
 30
0.0
  0
VERTEX
  5
1A74
  8
SAPA_PROFIL
 10
84.549999999730375
 20
-46.450000001230919
 30
0.0
 42
0.4142135623730951
  0
VERTEX
  5
1A75
  8
SAPA_PROFIL
 10
84.249999999731116
 20
-46.750000001230191
 30
0.0
  0
VERTEX
  5
1A76
  8
SAPA_PROFIL
 10
84.249999999727464
 20
-47.450000001118141
 30
0.0
 42
0.4142135623730971
  0
VERTEX
  5
1A77
  8
SAPA_PROFIL
 10
84.549999999730375
 20
-47.750000001113769
 30
0.0
  0
VERTEX
  5
1A78
  8
SAPA_PROFIL
 10
96.449999999735468
 20
-47.750000001131973
 30
0.0
 42
0.4142135623730881
  0
VERTEX
  5
1A79
  8
SAPA_PROFIL
 10
96.74999999973474
 20
-47.450000001132707
 30
0.0
  0
VERTEX
  5
1A7A
  8
SAPA_PROFIL
 10
96.749999999745654
 20
-46.750000000655398
 30
0.0
 42
0.4142135623730968
  0
VERTEX
  5
1A7B
  8
SAPA_PROFIL
 10
96.449999999735468
 20
-46.450000000645218
 30
0.0
  0
VERTEX
  5
1A7C
  8
SAPA_PROFIL
 10
95.799999999723099
 20
-46.45000000065977
 30
0.0
 42
-0.4142135623517844
  0
VERTEX
  5
1A7D
  8
SAPA_PROFIL
 10
95.49999999973474
 20
-46.15000000065686
 30
0.0
  0
VERTEX
  5
1A7E
  8
SAPA_PROFIL
 10
95.49999999973474
 20
-44.200000000645211
 30
0.0
 42
-0.414213562373103
  0
VERTEX
  5
1A7F
  8
SAPA_PROFIL
 10
95.699999999735454
 20
-44.000000000655398
 30
0.0
  0
VERTEX
  5
1A80
  8
SAPA_PROFIL
 10
96.799999999734027
 20
-44.000000000655398
 30
0.0
 42
-0.4142135623731049
  0
VERTEX
  5
1A81
  8
SAPA_PROFIL
 10
96.99999999973474
 20
-44.200000000645211
 30
0.0
  0
VERTEX
  5
1A82
  8
SAPA_PROFIL
 10
96.99999999973474
 20
-45.000000000655398
 30
0.0
 42
0.414213562373094
  0
VERTEX
  5
1A83
  8
SAPA_PROFIL
 10
97.499999999734754
 20
-45.500000000655398
 30
0.0
  0
VERTEX
  5
1A84
  8
SAPA_PROFIL
 10
98.499999999745668
 20
-45.500000001135582
 30
0.0
 42
0.4142135623730951
  0
VERTEX
  5
1A85
  8
SAPA_PROFIL
 10
98.999999999745654
 20
-45.000000001135582
 30
0.0
  0
VERTEX
  5
1A86
  8
SAPA_PROFIL
 10
98.99999999973474
 20
-44.200000001132679
 30
0.0
 42
-0.414213562373103
  0
VERTEX
  5
1A87
  8
SAPA_PROFIL
 10
99.199999999735482
 20
-44.000000001135589
 30
0.0
  0
VERTEX
  5
1A88
  8
SAPA_PROFIL
 10
100.299999999734
 20
-44.000000001142858
 30
0.0
 42
-0.4142135623731049
  0
VERTEX
  5
1A89
  8
SAPA_PROFIL
 10
100.4999999997347
 20
-44.200000001132679
 30
0.0
  0
VERTEX
  5
1A8A
  8
SAPA_PROFIL
 10
100.4999999997347
 20
-47.750000000633548
 30
0.0
 42
-0.3389652260127085
  0
VERTEX
  5
1A8B
  8
SAPA_PROFIL
 10
99.760513148532354
 20
-48.715470300178552
 30
0.0
 42
-0.0274862826960608
  0
VERTEX
  5
1A8C
  8
SAPA_PROFIL
 10
85.499999999556493
 20
-49.500000000614449
 30
0.0
  0
VERTEX
  5
1A8D
  8
SAPA_PROFIL
 10
80.499999999829356
 20
-49.500000000771799
 30
0.0
 42
-0.4142135623816193
  0
VERTEX
  5
1A8E
  8
SAPA_PROFIL
 10
77.499999999734754
 20
-46.500000000771799
 30
0.0
  0
VERTEX
  5
1A8F
  8
SAPA_PROFIL
 10
77.499999999734754
 20
-41.243869041915417
 30
0.0
 42
-0.2418327667412822
  0
VERTEX
  5
1A90
  8
SAPA_PROFIL
 10
77.62527767469831
 20
-41.000000000965827
 30
0.0
 42
0.2418327667543803
  0
SEQEND
  5
1A91
  8
SAPA_PROFIL
  0
POLYLINE
  5
1680
  8
SAPA_PROFIL
 66
     1
 10
0.0
 20
0.0
 30
0.0
 70
     1
  0
VERTEX
  5
1A92
  8
SAPA_PROFIL
 10
77.750555349674244
 20
-11.24386904191406
 30
0.0
  0
VERTEX
  5
1A93
  8
SAPA_PROFIL
 10
77.750555349677896
 20
-12.200000000949419
 30
0.0
 42
-0.2418327667557183
  0
VERTEX
  5
1A94
  8
SAPA_PROFIL
 10
77.625277674700953
 20
-12.44386904191599
 30
0.0
 42
0.2418327667535164
  0
VERTEX
  5
1A95
  8
SAPA_PROFIL
 10
77.499999999726739
 20
-12.687738082874731
 30
0.0
  0
VERTEX
  5
1A96
  8
SAPA_PROFIL
 10
77.499999999735209
 20
-14.911541960507551
 30
0.0
 42
0.0874886635239214
  0
VERTEX
  5
1A97
  8
SAPA_PROFIL
 10
77.518092213499003
 20
-15.014148003502941
 30
0.0
  0
VERTEX
  5
1A98
  8
SAPA_PROFIL
 10
78.037606281174334
 20
-16.441501173548371
 30
0.0
 42
0.4142135623698208
  0
VERTEX
  5
1A99
  8
SAPA_PROFIL
 10
78.422120110416515
 20
-16.62080291678576
 30
0.0
  0
VERTEX
  5
1A9A
  8
SAPA_PROFIL
 10
78.61005863456522
 20
-16.552398888114709
 30
0.0
 42
0.4142135623730019
  0
VERTEX
  5
1A9B
  8
SAPA_PROFIL
 10
78.789360377807739
 20
-16.167885058893081
 30
0.0
  0
VERTEX
  5
1A9C
  8
SAPA_PROFIL
 10
78.413138220141064
 20
-15.134223176023919
 30
0.0
 42
-0.41421356237947
  0
VERTEX
  5
1A9D
  8
SAPA_PROFIL
 10
78.592439963392209
 20
-14.74970934679237
 30
0.0
  0
VERTEX
  5
1A9E
  8
SAPA_PROFIL
 10
80.402630042731118
 20
-14.09085403955655
 30
0.0
 42
0.3152987888800591
  0
VERTEX
  5
1A9F
  8
SAPA_PROFIL
 10
80.600023999734475
 20
-13.808946253320331
 30
0.0
  0
VERTEX
  5
1AA0
  8
SAPA_PROFIL
 10
80.600023999734361
 20
-13.38923048550099
 30
0.0
 42
0.1316524975873855
  0
VERTEX
  5
1AA1
  8
SAPA_PROFIL
 10
80.559831620869716
 20
-13.23923048550107
 30
0.0
  0
VERTEX
  5
1AA2
  8
SAPA_PROFIL
 10
79.700023999734412
 20
-11.75000000096019
 30
0.0
  0
VERTEX
  5
1AA3
  8
SAPA_PROFIL
 10
79.700011999734755
 20
-11.300000000960241
 30
0.0
 42
-0.4142135623731054
  0
VERTEX
  5
1AA4
  8
SAPA_PROFIL
 10
80.000011999734753
 20
-11.00000000096024
 30
0.0
  0
VERTEX
  5
1AA5
  8
SAPA_PROFIL
 10
83.600023999734816
 20
-11.00000000096029
 30
0.0
 42
-0.414213562373095
  0
VERTEX
  5
1AA6
  8
SAPA_PROFIL
 10
83.900023999734799
 20
-11.30000000096029
 30
0.0
  0
VERTEX
  5
1AA7
  8
SAPA_PROFIL
 10
83.900023999734714
 20
-11.75000000096029
 30
0.0
  0
VERTEX
  5
1AA8
  8
SAPA_PROFIL
 10
83.040199262165729
 20
-13.23926013203446
 30
0.0
 42
0.1316363093594254
  0
VERTEX
  5
1AA9
  8
SAPA_PROFIL
 10
83.000006883908767
 20
-13.389241037081201
 30
0.0
  0
VERTEX
  5
1AAA
  8
SAPA_PROFIL
 10
82.999999834117958
 20
-13.500000000966891
 30
0.0
  0
VERTEX
  5
1AAB
  8
SAPA_PROFIL
 10
84.999999999731088
 20
-13.500000000966891
 30
0.0
 42
0.4142135623730951
  0
VERTEX
  5
1AAC
  8
SAPA_PROFIL
 10
85.499999999731074
 20
-13.000000000966891
 30
0.0
  0
VERTEX
  5
1AAD
  8
SAPA_PROFIL
 10
85.499999999731102
 20
-5.8500000006889517
 30
0.0
 42
0.4142135623730935
  0
VERTEX
  5
1AAE
  8
SAPA_PROFIL
 10
85.19999999973183
 20
-5.5500000006933137
 30
0.0
  0
VERTEX
  5
1AAF
  8
SAPA_PROFIL
 10
84.549999999730375
 20
-5.5500000006896784
 30
0.0
 42
-0.4142135623730951
  0
VERTEX
  5
1AB0
  8
SAPA_PROFIL
 10
84.249999999731102
 20
-5.2500000006904051
 30
0.0
  0
VERTEX
  5
1AB1
  8
SAPA_PROFIL
 10
84.249999999727464
 20
-4.5500000008024548
 30
0.0
 42
-0.4142135623730971
  0
VERTEX
  5
1AB2
  8
SAPA_PROFIL
 10
84.549999999730375
 20
-4.2500000008068168
 30
0.0
  0
VERTEX
  5
1AB3
  8
SAPA_PROFIL
 10
96.449999999735454
 20
-4.2500000007886438
 30
0.0
 42
-0.4142135623730881
  0
VERTEX
  5
1AB4
  8
SAPA_PROFIL
 10
96.749999999734726
 20
-4.5500000007879171
 30
0.0
  0
VERTEX
  5
1AB5
  8
SAPA_PROFIL
 10
96.749999999745654
 20
-5.250000001265219
 30
0.0
 42
-0.4142135623730968
  0
VERTEX
  5
1AB6
  8
SAPA_PROFIL
 10
96.449999999735454
 20
-5.5500000012754063
 30
0.0
  0
VERTEX
  5
1AB7
  8
SAPA_PROFIL
 10
95.799999999723084
 20
-5.5500000012608526
 30
0.0
 42
0.4142135623517844
  0
VERTEX
  5
1AB8
  8
SAPA_PROFIL
 10
95.499999999734726
 20
-5.850000001263763
 30
0.0
  0
VERTEX
  5
1AB9
  8
SAPA_PROFIL
 10
95.499999999734726
 20
-7.8000000012754054
 30
0.0
 42
0.414213562373103
  0
VERTEX
  5
1ABA
  8
SAPA_PROFIL
 10
95.699999999735454
 20
-8.000000001265219
 30
0.0
  0
VERTEX
  5
1ABB
  8
SAPA_PROFIL
 10
96.799999999733998
 20
-8.0000000012652208
 30
0.0
 42
0.4142135623731049
  0
VERTEX
  5
1ABC
  8
SAPA_PROFIL
 10
96.999999999734726
 20
-7.8000000012754072
 30
0.0
  0
VERTEX
  5
1ABD
  8
SAPA_PROFIL
 10
96.999999999734726
 20
-7.0000000012652199
 30
0.0
 42
-0.414213562373094
  0
VERTEX
  5
1ABE
  8
SAPA_PROFIL
 10
97.499999999734726
 20
-6.5000000012652199
 30
0.0
  0
VERTEX
  5
1ABF
  8
SAPA_PROFIL
 10
98.499999999745654
 20
-6.5000000007850369
 30
0.0
 42
-0.4142135623730951
  0
VERTEX
  5
1AC0
  8
SAPA_PROFIL
 10
98.99999999974564
 20
-7.0000000007850369
 30
0.0
  0
VERTEX
  5
1AC1
  8
SAPA_PROFIL
 10
98.99999999973474
 20
-7.8000000007879482
 30
0.0
 42
0.414213562373103
  0
VERTEX
  5
1AC2
  8
SAPA_PROFIL
 10
99.199999999735454
 20
-8.0000000007850343
 30
0.0
  0
VERTEX
  5
1AC3
  8
SAPA_PROFIL
 10
100.299999999734
 20
-8.0000000007777636
 30
0.0
 42
0.4142135623731049
  0
VERTEX
  5
1AC4
  8
SAPA_PROFIL
 10
100.4999999997347
 20
-7.8000000007879491
 30
0.0
  0
VERTEX
  5
1AC5
  8
SAPA_PROFIL
 10
100.4999999997347
 20
-4.2500000012870798
 30
0.0
 42
0.3389652260127085
  0
VERTEX
  5
1AC6
  8
SAPA_PROFIL
 10
99.760513148532354
 20
-3.284529701742076
 30
0.0
 42
0.0274862826960608
  0
VERTEX
  5
1AC7
  8
SAPA_PROFIL
 10
85.499999999556493
 20
-2.500000001306149
 30
0.0
  0
VERTEX
  5
1AC8
  8
SAPA_PROFIL
 10
80.499999999829328
 20
-2.5000000011487868
 30
0.0
 42
0.4142135623816193
  0
VERTEX
  5
1AC9
  8
SAPA_PROFIL
 10
77.49999999973474
 20
-5.5000000011487797
 30
0.0
  0
VERTEX
  5
1ACA
  8
SAPA_PROFIL
 10
77.499999999734726
 20
-10.75613096000516
 30
0.0
 42
0.2418327667412822
  0
VERTEX
  5
1ACB
  8
SAPA_PROFIL
 10
77.625277674698282
 20
-11.000000000954749
 30
0.0
 42
-0.2418327667543803
  0
SEQEND
  5
1ACC
  8
SAPA_PROFIL
  0
LINE
  5
1681
  8
SAPA_PROFIL
 10
71.499999999796017
 20
-14.00000000002392
 30
0.0
 11
71.499999999795435
 21
-44.000000000023917
 31
0.0
  0
LINE
  5
1682
  8
SAPA_PROFIL
 10
75.499999999796003
 20
-14.000000000024
 30
0.0
 11
71.499999999796017
 21
-14.00000000002392
 31
0.0
  0
LINE
  5
1683
  8
SAPA_PROFIL
 10
75.499999999795449
 20
-44.000000000024002
 30
0.0
 11
75.499999999796003
 21
-14.000000000024
 31
0.0
  0
LINE
  5
1684
  8
SAPA_PROFIL
 10
71.499999999795435
 20
-44.000000000023917
 30
0.0
 11
75.499999999795449
 21
-44.000000000024002
 31
0.0
  0
POLYLINE
  5
1685
  8
SAPA_PROFIL
 66
     1
 10
0.0
 20
0.0
 30
0.0
 70
     1
  0
VERTEX
  5
1ACD
  8
SAPA_PROFIL
 10
69.499999999791925
 20
-4.7500000006249152
 30
0.0
 42
0.4142135623730934
  0
VERTEX
  5
1ACE
  8
SAPA_PROFIL
 10
69.999999999791925
 20
-5.2500000006249223
 30
0.0
  0
VERTEX
  5
1ACF
  8
SAPA_PROFIL
 10
70.299999999794835
 20
-5.2500000006249223
 30
0.0
 42
0.414213562373094
  0
VERTEX
  5
1AD0
  8
SAPA_PROFIL
 10
70.499999999794881
 20
-5.0500000006248733
 30
0.0
  0
VERTEX
  5
1AD1
  8
SAPA_PROFIL
 10
70.499999999791925
 20
-4.2000000006243923
 30
0.0
 42
-0.4142135623731011
  0
VERTEX
  5
1AD2
  8
SAPA_PROFIL
 10
70.699999999789014
 20
-4.0000000006243432
 30
0.0
  0
VERTEX
  5
1AD3
  8
SAPA_PROFIL
 10
71.699999999789014
 20
-4.0000000006212799
 30
0.0
 42
-0.4142135623730955
  0
VERTEX
  5
1AD4
  8
SAPA_PROFIL
 10
72.199999999789014
 20
-4.5000000006212844
 30
0.0
  0
VERTEX
  5
1AD5
  8
SAPA_PROFIL
 10
72.199999999810842
 20
-10.50000000062127
 30
0.0
 42
-0.414213562373093
  0
VERTEX
  5
1AD6
  8
SAPA_PROFIL
 10
71.699999999810842
 20
-11.00000000062127
 30
0.0
  0
VERTEX
  5
1AD7
  8
SAPA_PROFIL
 10
70.699999999803566
 20
-11.00000000062435
 30
0.0
 42
-0.414213562373099
  0
VERTEX
  5
1AD8
  8
SAPA_PROFIL
 10
70.499999999806477
 20
-10.8000000006243
 30
0.0
  0
VERTEX
  5
1AD9
  8
SAPA_PROFIL
 10
70.499999999806477
 20
-9.9500000006249607
 30
0.0
 42
0.4142135623730998
  0
VERTEX
  5
1ADA
  8
SAPA_PROFIL
 10
70.299999999809387
 20
-9.7500000006278711
 30
0.0
  0
VERTEX
  5
1ADB
  8
SAPA_PROFIL
 10
69.999999999806477
 20
-9.7500000006249152
 30
0.0
 42
0.4142135623730934
  0
VERTEX
  5
1ADC
  8
SAPA_PROFIL
 10
69.499999999806477
 20
-10.250000000624921
 30
0.0
  0
VERTEX
  5
1ADD
  8
SAPA_PROFIL
 10
69.49999999983558
 20
-20.00000000002283
 30
0.0
 42
0.4142135623730951
  0
VERTEX
  5
1ADE
  8
SAPA_PROFIL
 10
69.99999999983558
 20
-20.50000000002283
 30
0.0
  0
VERTEX
  5
1ADF
  8
SAPA_PROFIL
 10
70.899999999800656
 20
-20.500000000021011
 30
0.0
 42
0.4142135623741607
  0
VERTEX
  5
1AE0
  8
SAPA_PROFIL
 10
71.399999999800656
 20
-20.000000000019192
 30
0.0
  0
VERTEX
  5
1AE1
  8
SAPA_PROFIL
 10
71.399999999786104
 20
-14.200000000025369
 30
0.0
 42
-0.4142135623741607
  0
VERTEX
  5
1AE2
  8
SAPA_PROFIL
 10
71.899999999786104
 20
-13.70000000002355
 30
0.0
  0
VERTEX
  5
1AE3
  8
SAPA_PROFIL
 10
75.099999999797745
 20
-13.700000000025369
 30
0.0
 42
-0.4142135623720295
  0
VERTEX
  5
1AE4
  8
SAPA_PROFIL
 10
75.599999999797745
 20
-14.200000000023561
 30
0.0
  0
VERTEX
  5
1AE5
  8
SAPA_PROFIL
 10
75.599999999805021
 20
-20.000000000024649
 30
0.0
 42
0.4142135623720299
  0
VERTEX
  5
1AE6
  8
SAPA_PROFIL
 10
76.099999999805021
 20
-20.50000000002283
 30
0.0
  0
VERTEX
  5
1AE7
  8
SAPA_PROFIL
 10
76.999999999755545
 20
-20.50000000002283
 30
0.0
 42
0.4142135623741607
  0
VERTEX
  5
1AE8
  8
SAPA_PROFIL
 10
77.499999999755545
 20
-20.000000000021011
 30
0.0
  0
VERTEX
  5
1AE9
  8
SAPA_PROFIL
 10
77.499999999734953
 20
-5.5000000011524222
 30
0.0
 42
-0.2442508343818444
  0
VERTEX
  5
1AEA
  8
SAPA_PROFIL
 10
78.775121427740686
 20
-3.0454545529997601
 30
0.0
 42
0.7325810975853262
  0
VERTEX
  5
1AEB
  8
SAPA_PROFIL
 10
78.602633565230661
 20
-2.5000000006212799
 30
0.0
  0
VERTEX
  5
1AEC
  8
SAPA_PROFIL
 10
69.999999999791925
 20
-2.5000000006249108
 30
0.0
 42
0.4142135623730943
  0
VERTEX
  5
1AED
  8
SAPA_PROFIL
 10
69.499999999791925
 20
-3.0000000006249108
 30
0.0
  0
SEQEND
  5
1AEE
  8
SAPA_PROFIL
  0
POLYLINE
  5
1686
  8
SAPA_PROFIL
 66
     1
 10
0.0
 20
0.0
 30
0.0
 70
     1
  0
VERTEX
  5
1AEF
  8
SAPA_PROFIL
 10
78.60263356376403
 20
-49.500000000026311
 30
0.0
 42
0.7325810973615675
  0
VERTEX
  5
1AF0
  8
SAPA_PROFIL
 10
78.775121373218994
 20
-48.954545523405137
 30
0.0
 42
-0.244250834240976
  0
VERTEX
  5
1AF1
  8
SAPA_PROFIL
 10
77.49999999973096
 20
-46.50000000049846
 30
0.0
  0
VERTEX
  5
1AF2
  8
SAPA_PROFIL
 10
77.49999999970187
 20
-38.000000000018296
 30
0.0
 42
0.4142135623720462
  0
VERTEX
  5
1AF3
  8
SAPA_PROFIL
 10
76.99999999970187
 20
-37.500000000020101
 30
0.0
  0
VERTEX
  5
1AF4
  8
SAPA_PROFIL
 10
76.099999999722229
 20
-37.500000000018296
 30
0.0
 42
0.4142135623731023
  0
VERTEX
  5
1AF5
  8
SAPA_PROFIL
 10
75.599999999722229
 20
-38.000000000018296
 30
0.0
  0
VERTEX
  5
1AF6
  8
SAPA_PROFIL
 10
75.599999999736852
 20
-43.800000000015693
 30
0.0
 42
-0.4142135623731014
  0
VERTEX
  5
1AF7
  8
SAPA_PROFIL
 10
75.099999999736823
 20
-44.300000000015693
 30
0.0
  0
VERTEX
  5
1AF8
  8
SAPA_PROFIL
 10
71.899999999739734
 20
-44.300000000010293
 30
0.0
 42
-0.4142135623731023
  0
VERTEX
  5
1AF9
  8
SAPA_PROFIL
 10
71.399999999739748
 20
-43.800000000010293
 30
0.0
  0
VERTEX
  5
1AFA
  8
SAPA_PROFIL
 10
71.399999999739748
 20
-38.000000000014602
 30
0.0
 42
0.4142135623731014
  0
VERTEX
  5
1AFB
  8
SAPA_PROFIL
 10
70.899999999739748
 20
-37.500000000014609
 30
0.0
  0
VERTEX
  5
1AFC
  8
SAPA_PROFIL
 10
69.999999999745526
 20
-37.500000000016414
 30
0.0
 42
0.4142135623741899
  0
VERTEX
  5
1AFD
  8
SAPA_PROFIL
 10
69.499999999745526
 20
-38.000000000018296
 30
0.0
  0
VERTEX
  5
1AFE
  8
SAPA_PROFIL
 10
69.499999999760135
 20
-45.5000000000108
 30
0.0
 42
-0.4142135623737591
  0
VERTEX
  5
1AFF
  8
SAPA_PROFIL
 10
67.999999999760135
 20
-47.000000000014211
 30
0.0
  0
VERTEX
  5
1B00
  8
SAPA_PROFIL
 10
47.000000000131152
 20
-47.000000000005997
 30
0.0
 42
-0.4142135623801642
  0
VERTEX
  5
1B01
  8
SAPA_PROFIL
 10
45.500000000131159
 20
-45.499999999969781
 30
0.0
  0
VERTEX
  5
1B02
  8
SAPA_PROFIL
 10
45.500000000152973
 20
-44.700000000654697
 30
0.0
 42
-0.4142135623693511
  0
VERTEX
  5
1B03
  8
SAPA_PROFIL
 10
46.00000000015298
 20
-44.200000000661099
 30
0.0
  0
VERTEX
  5
1B04
  8
SAPA_PROFIL
 10
47.499999999789189
 20
-44.200000000657489
 30
0.0
 42
0.4142135623763114
  0
VERTEX
  5
1B05
  8
SAPA_PROFIL
 10
47.999999999789182
 20
-43.70000000065199
 30
0.0
  0
VERTEX
  5
1B06
  8
SAPA_PROFIL
 10
47.99999999977463
 20
-43.000000000649393
 30
0.0
 42
0.4142135623731014
  0
VERTEX
  5
1B07
  8
SAPA_PROFIL
 10
47.49999999977463
 20
-42.500000000649401
 30
0.0
  0
VERTEX
  5
1B08
  8
SAPA_PROFIL
 10
46.00000000015298
 20
-42.500000000653088
 30
0.0
 42
-0.4142135623699316
  0
VERTEX
  5
1B09
  8
SAPA_PROFIL
 10
45.500000000152973
 20
-42.000000000658488
 30
0.0
  0
VERTEX
  5
1B0A
  8
SAPA_PROFIL
 10
45.500000000138421
 20
-41.000000000651298
 30
0.0
 42
-0.4142135623730951
  0
VERTEX
  5
1B0B
  8
SAPA_PROFIL
 10
46.000000000138421
 20
-40.500000000651312
 30
0.0
  0
VERTEX
  5
1B0C
  8
SAPA_PROFIL
 10
46.29128784762743
 20
-40.500000000651298
 30
0.0
 42
0.2982166266985379
  0
VERTEX
  5
1B0D
  8
SAPA_PROFIL
 10
46.749545417109182
 20
-40.200000000664907
 30
0.0
 42
1.527525231655821
  0
VERTEX
  5
1B0E
  8
SAPA_PROFIL
 10
41.25045458315391
 20
-40.200000000651421
 30
0.0
 42
0.29821662669855
  0
VERTEX
  5
1B0F
  8
SAPA_PROFIL
 10
41.708712152649419
 20
-40.500000000651312
 30
0.0
  0
VERTEX
  5
1B10
  8
SAPA_PROFIL
 10
42.000000000138428
 20
-40.500000000651298
 30
0.0
 42
-0.4142135623730951
  0
VERTEX
  5
1B11
  8
SAPA_PROFIL
 10
42.500000000138428
 20
-41.000000000651298
 30
0.0
  0
VERTEX
  5
1B12
  8
SAPA_PROFIL
 10
42.500000000123869
 20
-42.000000000658488
 30
0.0
 42
-0.4142135623699318
  0
VERTEX
  5
1B13
  8
SAPA_PROFIL
 10
42.000000000123869
 20
-42.500000000653088
 30
0.0
  0
VERTEX
  5
1B14
  8
SAPA_PROFIL
 10
40.500000000502219
 20
-42.500000000649401
 30
0.0
 42
0.4142135623730951
  0
VERTEX
  5
1B15
  8
SAPA_PROFIL
 10
40.000000000502219
 20
-43.000000000649393
 30
0.0
  0
VERTEX
  5
1B16
  8
SAPA_PROFIL
 10
40.000000000487681
 20
-43.70000000065199
 30
0.0
 42
0.414213562376323
  0
VERTEX
  5
1B17
  8
SAPA_PROFIL
 10
40.500000000487667
 20
-44.200000000657489
 30
0.0
  0
VERTEX
  5
1B18
  8
SAPA_PROFIL
 10
42.000000000123869
 20
-44.200000000661092
 30
0.0
 42
-0.4142135623693511
  0
VERTEX
  5
1B19
  8
SAPA_PROFIL
 10
42.500000000123869
 20
-44.700000000654697
 30
0.0
  0
VERTEX
  5
1B1A
  8
SAPA_PROFIL
 10
42.500000000116657
 20
-45.49999999999919
 30
0.0
 42
-0.4142135623730965
  0
VERTEX
  5
1B1B
  8
SAPA_PROFIL
 10
41.0000000001166
 20
-46.999999999999197
 30
0.0
  0
VERTEX
  5
1B1C
  8
SAPA_PROFIL
 10
19.50000000048767
 20
-46.999999999973717
 30
0.0
 42
-0.4142135623730957
  0
VERTEX
  5
1B1D
  8
SAPA_PROFIL
 10
18.500000000494939
 20
-45.999999999981
 30
0.0
  0
VERTEX
  5
1B1E
  8
SAPA_PROFIL
 10
18.500000000502219
 20
-45.0000000006658
 30
0.0
 42
0.4142135623730951
  0
VERTEX
  5
1B1F
  8
SAPA_PROFIL
 10
18.000000000502219
 20
-44.500000000665793
 30
0.0
  0
VERTEX
  5
1B20
  8
SAPA_PROFIL
 10
17.700000000502271
 20
-44.500000000665793
 30
0.0
 42
0.4142135623730951
  0
VERTEX
  5
1B21
  8
SAPA_PROFIL
 10
17.500000000502219
 20
-44.700000000665788
 30
0.0
  0
VERTEX
  5
1B22
  8
SAPA_PROFIL
 10
17.500000000502219
 20
-46.0000000006658
 30
0.0
 42
-0.4142135623730949
  0
VERTEX
  5
1B23
  8
SAPA_PROFIL
 10
17.000000000502219
 20
-46.500000000665793
 30
0.0
  0
VERTEX
  5
1B24
  8
SAPA_PROFIL
 10
16.70000000048476
 20
-46.500000000665793
 30
0.0
 42
-0.4142135623730961
  0
VERTEX
  5
1B25
  8
SAPA_PROFIL
 10
16.20000000048476
 20
-46.0000000006658
 30
0.0
  0
VERTEX
  5
1B26
  8
SAPA_PROFIL
 10
16.20000000048476
 20
-21.500000000665828
 30
0.0
 42
-0.4142135623730949
  0
VERTEX
  5
1B27
  8
SAPA_PROFIL
 10
16.70000000048476
 20
-21.000000000665821
 30
0.0
  0
VERTEX
  5
1B28
  8
SAPA_PROFIL
 10
17.000000000502219
 20
-21.000000000665821
 30
0.0
 42
-0.4142135623730946
  0
VERTEX
  5
1B29
  8
SAPA_PROFIL
 10
17.500000000502219
 20
-21.500000000665828
 30
0.0
  0
VERTEX
  5
1B2A
  8
SAPA_PROFIL
 10
17.500000000502279
 20
-22.800000000665818
 30
0.0
 42
0.4142135623730959
  0
VERTEX
  5
1B2B
  8
SAPA_PROFIL
 10
17.700000000502271
 20
-23.000000000665828
 30
0.0
  0
VERTEX
  5
1B2C
  8
SAPA_PROFIL
 10
18.000000000502219
 20
-23.000000000665828
 30
0.0
 42
0.414213562373094
  0
VERTEX
  5
1B2D
  8
SAPA_PROFIL
 10
18.500000000502219
 20
-22.500000000665828
 30
0.0
  0
VERTEX
  5
1B2E
  8
SAPA_PROFIL
 10
18.50000000048767
 20
-18.750000000665828
 30
0.0
 42
0.4142135623730946
  0
VERTEX
  5
1B2F
  8
SAPA_PROFIL
 10
18.00000000048767
 20
-18.250000000665821
 30
0.0
  0
VERTEX
  5
1B30
  8
SAPA_PROFIL
 10
17.700000000487659
 20
-18.250000000665821
 30
0.0
 42
0.4142135623730965
  0
VERTEX
  5
1B31
  8
SAPA_PROFIL
 10
17.50000000048767
 20
-18.45000000066581
 30
0.0
  0
VERTEX
  5
1B32
  8
SAPA_PROFIL
 10
17.500000000487621
 20
-19.300000000665811
 30
0.0
 42
-0.4142135623730965
  0
VERTEX
  5
1B33
  8
SAPA_PROFIL
 10
17.300000000487621
 20
-19.500000000665821
 30
0.0
  0
VERTEX
  5
1B34
  8
SAPA_PROFIL
 10
16.300000000490641
 20
-19.500000000665821
 30
0.0
 42
-0.4142135623730946
  0
VERTEX
  5
1B35
  8
SAPA_PROFIL
 10
15.800000000490639
 20
-19.000000000665828
 30
0.0
  0
VERTEX
  5
1B36
  8
SAPA_PROFIL
 10
15.800000000490639
 20
-13.000000000665811
 30
0.0
 42
-0.4142135623731024
  0
VERTEX
  5
1B37
  8
SAPA_PROFIL
 10
16.300000000490641
 20
-12.5000000006658
 30
0.0
  0
VERTEX
  5
1B38
  8
SAPA_PROFIL
 10
17.300000000490009
 20
-12.5000000006658
 30
0.0
 42
-0.4142135623696794
  0
VERTEX
  5
1B39
  8
SAPA_PROFIL
 10
17.500000000490001
 20
-12.70000000066346
 30
0.0
  0
VERTEX
  5
1B3A
  8
SAPA_PROFIL
 10
17.500000000499892
 20
-13.550000000665181
 30
0.0
 42
0.4142135623739471
  0
VERTEX
  5
1B3B
  8
SAPA_PROFIL
 10
17.700000000502829
 20
-13.750000000662871
 30
0.0
  0
VERTEX
  5
1B3C
  8
SAPA_PROFIL
 10
18.00000000048767
 20
-13.75000000065849
 30
0.0
 42
0.4142135623731022
  0
VERTEX
  5
1B3D
  8
SAPA_PROFIL
 10
18.50000000048767
 20
-13.25000000065849
 30
0.0
  0
VERTEX
  5
1B3E
  8
SAPA_PROFIL
 10
18.50000000048767
 20
-10.25000000065849
 30
0.0
 42
0.4142135623731026
  0
VERTEX
  5
1B3F
  8
SAPA_PROFIL
 10
18.00000000048767
 20
-9.7500000006584884
 30
0.0
  0
VERTEX
  5
1B40
  8
SAPA_PROFIL
 10
17.700000000487659
 20
-9.7500000006585221
 30
0.0
 42
0.4142135623730965
  0
VERTEX
  5
1B41
  8
SAPA_PROFIL
 10
17.50000000048767
 20
-9.9500000006585125
 30
0.0
  0
VERTEX
  5
1B42
  8
SAPA_PROFIL
 10
17.500000000487621
 20
-10.8000000006585
 30
0.0
 42
-0.4142135623730957
  0
VERTEX
  5
1B43
  8
SAPA_PROFIL
 10
17.300000000487621
 20
-11.00000000065849
 30
0.0
  0
VERTEX
  5
1B44
  8
SAPA_PROFIL
 10
16.300000000490641
 20
-11.00000000065849
 30
0.0
 42
-0.4142135623731023
  0
VERTEX
  5
1B45
  8
SAPA_PROFIL
 10
15.800000000490639
 20
-10.50000000065849
 30
0.0
  0
VERTEX
  5
1B46
  8
SAPA_PROFIL
 10
15.800000000490639
 20
-4.5000000006584946
 30
0.0
 42
-0.4142135623731024
  0
VERTEX
  5
1B47
  8
SAPA_PROFIL
 10
16.300000000490641
 20
-4.0000000006584946
 30
0.0
  0
VERTEX
  5
1B48
  8
SAPA_PROFIL
 10
17.300000000487621
 20
-4.000000000658523
 30
0.0
 42
-0.4142135623731133
  0
VERTEX
  5
1B49
  8
SAPA_PROFIL
 10
17.50000000048767
 20
-4.2000000006585116
 30
0.0
  0
VERTEX
  5
1B4A
  8
SAPA_PROFIL
 10
17.50000000048767
 20
-5.0500000006585131
 30
0.0
 42
0.4142135623730965
  0
VERTEX
  5
1B4B
  8
SAPA_PROFIL
 10
17.700000000487659
 20
-5.2500000006584946
 30
0.0
  0
VERTEX
  5
1B4C
  8
SAPA_PROFIL
 10
18.00000000048767
 20
-5.2500000006584946
 30
0.0
 42
0.4142135623731022
  0
VERTEX
  5
1B4D
  8
SAPA_PROFIL
 10
18.50000000048767
 20
-4.7500000006584946
 30
0.0
  0
VERTEX
  5
1B4E
  8
SAPA_PROFIL
 10
18.50000000048767
 20
-3.000000000658495
 30
0.0
 42
0.4142135623731026
  0
VERTEX
  5
1B4F
  8
SAPA_PROFIL
 10
18.00000000048767
 20
-2.500000000658495
 30
0.0
  0
VERTEX
  5
1B50
  8
SAPA_PROFIL
 10
15.50000000048767
 20
-2.500000000658495
 30
0.0
 42
0.4142135623730971
  0
VERTEX
  5
1B51
  8
SAPA_PROFIL
 10
14.00000000048767
 20
-4.0000000006584946
 30
0.0
  0
VERTEX
  5
1B52
  8
SAPA_PROFIL
 10
14.00000000050222
 20
-46.499999999985491
 30
0.0
 42
0.4142135623730951
  0
VERTEX
  5
1B53
  8
SAPA_PROFIL
 10
17.000000000502219
 20
-49.499999999985491
 30
0.0
  0
SEQEND
  5
1B54
  8
SAPA_PROFIL
  0
POLYLINE
  5
1687
  8
SAPA_PROFIL
 62
     4
 66
     1
 10
0.0
 20
0.0
 30
0.0
 70
     1
  0
VERTEX
  5
1688
  8
SAPA_PROFIL
 62
     4
 10
31.85621778260824
 20
10.3500120000056
 30
0.0
 42
0.1316524975873979
  0
VERTEX
  5
1689
  8
SAPA_PROFIL
 62
     4
 10
31.456217782608221
 20
10.242832323033159
 30
0.0
  0
VERTEX
  5
168A
  8
SAPA_PROFIL
 62
     4
 10
29.736602540334179
 20
9.2500120000037356
 30
0.0
  0
VERTEX
  5
168B
  8
SAPA_PROFIL
 62
     4
 10
29.29999999995573
 20
9.2500120000036432
 30
0.0
 42
-0.4142135623730951
  0
VERTEX
  5
168C
  8
SAPA_PROFIL
 62
     4
 10
29.049999999955741
 20
9.5000120000036361
 30
0.0
  0
VERTEX
  5
168D
  8
SAPA_PROFIL
 62
     4
 10
29.049999999955691
 20
13.1000240000037
 30
0.0
 42
-0.4142135623731053
  0
VERTEX
  5
168E
  8
SAPA_PROFIL
 62
     4
 10
29.299999999955691
 20
13.35002400000371
 30
0.0
  0
VERTEX
  5
168F
  8
SAPA_PROFIL
 62
     4
 10
29.736601921534149
 20
13.350012357268341
 30
0.0
  0
VERTEX
  5
1690
  8
SAPA_PROFIL
 62
     4
 10
31.456217782601549
 20
12.35719167697807
 30
0.0
 42
0.1316524975874149
  0
VERTEX
  5
1691
  8
SAPA_PROFIL
 62
     4
 10
31.8562177826016
 20
12.250012000005571
 30
0.0
  0
VERTEX
  5
1692
  8
SAPA_PROFIL
 62
     4
 10
56.143782217309891
 20
12.250012000005571
 30
0.0
 42
0.1316524975874151
  0
VERTEX
  5
1693
  8
SAPA_PROFIL
 62
     4
 10
56.543782217309932
 20
12.35719167697807
 30
0.0
  0
VERTEX
  5
1694
  8
SAPA_PROFIL
 62
     4
 10
58.263398078377328
 20
13.350012357268341
 30
0.0
  0
VERTEX
  5
1695
  8
SAPA_PROFIL
 62
     4
 10
58.699999999955793
 20
13.35002400000371
 30
0.0
 42
-0.4142135623731054
  0
VERTEX
  5
1696
  8
SAPA_PROFIL
 62
     4
 10
58.949999999955793
 20
13.1000240000037
 30
0.0
  0
VERTEX
  5
1697
  8
SAPA_PROFIL
 62
     4
 10
58.949999999955743
 20
9.5000120000036361
 30
0.0
 42
-0.4142135623730953
  0
VERTEX
  5
1698
  8
SAPA_PROFIL
 62
     4
 10
58.699999999955757
 20
9.2500120000036432
 30
0.0
  0
VERTEX
  5
1699
  8
SAPA_PROFIL
 62
     4
 10
58.263397459577298
 20
9.2500120000037356
 30
0.0
  0
VERTEX
  5
169A
  8
SAPA_PROFIL
 62
     4
 10
56.54378221730326
 20
10.242832323033159
 30
0.0
 42
0.1316524975873982
  0
VERTEX
  5
169B
  8
SAPA_PROFIL
 62
     4
 10
56.143782217303247
 20
10.3500120000056
 30
0.0
  0
SEQEND
  5
169C
  8
SAPA_PROFIL
 62
     4
  0
POLYLINE
  5
169D
  8
SAPA_PROFIL
 66
     1
 10
0.0
 20
0.0
 30
0.0
 70
     1
  0
VERTEX
  5
1B55
  8
SAPA_PROFIL
 10
58.756130959001972
 20
7.2505553499431414
 30
0.0
  0
VERTEX
  5
1B56
  8
SAPA_PROFIL
 10
57.799999999966609
 20
7.2505553499467794
 30
0.0
 42
0.2418327667557183
  0
VERTEX
  5
1B57
  8
SAPA_PROFIL
 10
57.556130959000043
 20
7.1252776749698334
 30
0.0
 42
-0.2418327667535164
  0
VERTEX
  5
1B58
  8
SAPA_PROFIL
 10
57.312261918041287
 20
6.9999999999956231
 30
0.0
  0
VERTEX
  5
1B59
  8
SAPA_PROFIL
 10
55.088458040408483
 20
7.0000000000040847
 30
0.0
 42
-0.0874886635239214
  0
VERTEX
  5
1B5A
  8
SAPA_PROFIL
 10
54.985851997413093
 20
7.0180922137678863
 30
0.0
  0
VERTEX
  5
1B5B
  8
SAPA_PROFIL
 10
53.558498827367657
 20
7.5376062814432307
 30
0.0
 42
-0.4142135623698208
  0
VERTEX
  5
1B5C
  8
SAPA_PROFIL
 10
53.379197084130269
 20
7.9221201106854053
 30
0.0
  0
VERTEX
  5
1B5D
  8
SAPA_PROFIL
 10
53.447601112801323
 20
8.1100586348341075
 30
0.0
 42
-0.4142135623730019
  0
VERTEX
  5
1B5E
  8
SAPA_PROFIL
 10
53.832114942022962
 20
8.2893603780766298
 30
0.0
  0
VERTEX
  5
1B5F
  8
SAPA_PROFIL
 10
54.865776824892102
 20
7.9131382204099401
 30
0.0
 42
0.41421356237947
  0
VERTEX
  5
1B60
  8
SAPA_PROFIL
 10
55.250290654123667
 20
8.0924399636610929
 30
0.0
  0
VERTEX
  5
1B61
  8
SAPA_PROFIL
 10
55.909145961359478
 20
9.9026300430000127
 30
0.0
 42
-0.3152987888800591
  0
VERTEX
  5
1B62
  8
SAPA_PROFIL
 10
56.191053747595703
 20
10.10002400000335
 30
0.0
  0
VERTEX
  5
1B63
  8
SAPA_PROFIL
 10
56.610769515415029
 20
10.10002400000324
 30
0.0
 42
-0.1316524975873855
  0
VERTEX
  5
1B64
  8
SAPA_PROFIL
 10
56.760769515414957
 20
10.059831621138599
 30
0.0
  0
VERTEX
  5
1B65
  8
SAPA_PROFIL
 10
58.24999999995584
 20
9.200024000003296
 30
0.0
  0
VERTEX
  5
1B66
  8
SAPA_PROFIL
 10
58.699999999955779
 20
9.2000120000036354
 30
0.0
 42
0.4142135623731054
  0
VERTEX
  5
1B67
  8
SAPA_PROFIL
 10
58.99999999995579
 20
9.5000120000036397
 30
0.0
  0
VERTEX
  5
1B68
  8
SAPA_PROFIL
 10
58.99999999995574
 20
13.1000240000037
 30
0.0
 42
0.414213562373095
  0
VERTEX
  5
1B69
  8
SAPA_PROFIL
 10
58.699999999955743
 20
13.4000240000037
 30
0.0
  0
VERTEX
  5
1B6A
  8
SAPA_PROFIL
 10
58.24999999995574
 20
13.400024000003601
 30
0.0
  0
VERTEX
  5
1B6B
  8
SAPA_PROFIL
 10
56.760739868881572
 20
12.54019926243461
 30
0.0
 42
-0.1316363093594254
  0
VERTEX
  5
1B6C
  8
SAPA_PROFIL
 10
56.610758963834833
 20
12.500006884177649
 30
0.0
  0
VERTEX
  5
1B6D
  8
SAPA_PROFIL
 10
56.499999999949139
 20
12.499999834386839
 30
0.0
  0
VERTEX
  5
1B6E
  8
SAPA_PROFIL
 10
56.499999999949139
 20
14.49999999999997
 30
0.0
 42
-0.4142135623730951
  0
VERTEX
  5
1B6F
  8
SAPA_PROFIL
 10
56.999999999949146
 20
14.99999999999997
 30
0.0
  0
VERTEX
  5
1B70
  8
SAPA_PROFIL
 10
64.150000000227095
 20
14.99999999999997
 30
0.0
 42
-0.4142135623730935
  0
VERTEX
  5
1B71
  8
SAPA_PROFIL
 10
64.45000000022273
 20
14.700000000000699
 30
0.0
  0
VERTEX
  5
1B72
  8
SAPA_PROFIL
 10
64.450000000226368
 20
14.04999999999924
 30
0.0
 42
0.4142135623730951
  0
VERTEX
  5
1B73
  8
SAPA_PROFIL
 10
64.75000000022564
 20
13.74999999999998
 30
0.0
  0
VERTEX
  5
1B74
  8
SAPA_PROFIL
 10
65.45000000011359
 20
13.74999999999633
 30
0.0
 42
0.4142135623730971
  0
VERTEX
  5
1B75
  8
SAPA_PROFIL
 10
65.750000000109225
 20
14.04999999999924
 30
0.0
  0
VERTEX
  5
1B76
  8
SAPA_PROFIL
 10
65.750000000127415
 20
25.95000000000433
 30
0.0
 42
0.4142135623730881
  0
VERTEX
  5
1B77
  8
SAPA_PROFIL
 10
65.450000000128142
 20
26.25000000000361
 30
0.0
  0
VERTEX
  5
1B78
  8
SAPA_PROFIL
 10
64.749999999650839
 20
26.250000000014531
 30
0.0
 42
0.4142135623730968
  0
VERTEX
  5
1B79
  8
SAPA_PROFIL
 10
64.449999999640653
 20
25.95000000000433
 30
0.0
  0
VERTEX
  5
1B7A
  8
SAPA_PROFIL
 10
64.449999999655205
 20
25.299999999991961
 30
0.0
 42
-0.4142135623517844
  0
VERTEX
  5
1B7B
  8
SAPA_PROFIL
 10
64.149999999652294
 20
25.00000000000361
 30
0.0
  0
VERTEX
  5
1B7C
  8
SAPA_PROFIL
 10
62.199999999640639
 20
25.00000000000361
 30
0.0
 42
-0.414213562373103
  0
VERTEX
  5
1B7D
  8
SAPA_PROFIL
 10
61.999999999650832
 20
25.20000000000433
 30
0.0
  0
VERTEX
  5
1B7E
  8
SAPA_PROFIL
 10
61.999999999650832
 20
26.300000000002878
 30
0.0
 42
-0.4142135623731049
  0
VERTEX
  5
1B7F
  8
SAPA_PROFIL
 10
62.199999999640639
 20
26.500000000003599
 30
0.0
  0
VERTEX
  5
1B80
  8
SAPA_PROFIL
 10
62.999999999650832
 20
26.500000000003599
 30
0.0
 42
0.414213562373094
  0
VERTEX
  5
1B81
  8
SAPA_PROFIL
 10
63.499999999650832
 20
27.000000000003599
 30
0.0
  0
VERTEX
  5
1B82
  8
SAPA_PROFIL
 10
63.500000000131017
 20
28.000000000014531
 30
0.0
 42
0.4142135623730951
  0
VERTEX
  5
1B83
  8
SAPA_PROFIL
 10
63.000000000131017
 20
28.50000000001452
 30
0.0
  0
VERTEX
  5
1B84
  8
SAPA_PROFIL
 10
62.200000000128099
 20
28.500000000003599
 30
0.0
 42
-0.414213562373103
  0
VERTEX
  5
1B85
  8
SAPA_PROFIL
 10
62.00000000013101
 20
28.70000000000433
 30
0.0
  0
VERTEX
  5
1B86
  8
SAPA_PROFIL
 10
62.0000000001383
 20
29.800000000002889
 30
0.0
 42
-0.4142135623731049
  0
VERTEX
  5
1B87
  8
SAPA_PROFIL
 10
62.200000000128099
 20
30.00000000000362
 30
0.0
  0
VERTEX
  5
1B88
  8
SAPA_PROFIL
 10
65.749999999628983
 20
30.00000000000362
 30
0.0
 42
-0.3389652260127085
  0
VERTEX
  5
1B89
  8
SAPA_PROFIL
 10
66.715470299173973
 20
29.260513148801241
 30
0.0
 42
-0.0274862826960608
  0
VERTEX
  5
1B8A
  8
SAPA_PROFIL
 10
67.499999999609884
 20
14.999999999825359
 30
0.0
  0
VERTEX
  5
1B8B
  8
SAPA_PROFIL
 10
67.499999999767255
 20
10.000000000098201
 30
0.0
 42
-0.4142135623816193
  0
VERTEX
  5
1B8C
  8
SAPA_PROFIL
 10
64.499999999767255
 20
7.0000000000036158
 30
0.0
  0
VERTEX
  5
1B8D
  8
SAPA_PROFIL
 10
59.243869040910873
 20
7.0000000000036087
 30
0.0
 42
-0.2418327667412822
  0
VERTEX
  5
1B8E
  8
SAPA_PROFIL
 10
58.999999999961283
 20
7.1252776749671654
 30
0.0
 42
0.2418327667543803
  0
SEQEND
  5
1B8F
  8
SAPA_PROFIL
  0
POLYLINE
  5
169E
  8
SAPA_PROFIL
 66
     1
 10
0.0
 20
0.0
 30
0.0
 70
     1
  0
VERTEX
  5
1B90
  8
SAPA_PROFIL
 10
29.243869040909509
 20
7.250555349943081
 30
0.0
  0
VERTEX
  5
1B91
  8
SAPA_PROFIL
 10
30.199999999944868
 20
7.250555349946719
 30
0.0
 42
-0.2418327667557183
  0
VERTEX
  5
1B92
  8
SAPA_PROFIL
 10
30.443869040911441
 20
7.1252776749697757
 30
0.0
 42
0.2418327667535164
  0
VERTEX
  5
1B93
  8
SAPA_PROFIL
 10
30.687738081870179
 20
6.9999999999955662
 30
0.0
  0
VERTEX
  5
1B94
  8
SAPA_PROFIL
 10
32.911541959502998
 20
7.0000000000040279
 30
0.0
 42
0.0874886635239214
  0
VERTEX
  5
1B95
  8
SAPA_PROFIL
 10
33.014148002498388
 20
7.0180922137678294
 30
0.0
  0
VERTEX
  5
1B96
  8
SAPA_PROFIL
 10
34.44150117254383
 20
7.5376062814431739
 30
0.0
 42
0.4142135623698208
  0
VERTEX
  5
1B97
  8
SAPA_PROFIL
 10
34.620802915781212
 20
7.9221201106853441
 30
0.0
  0
VERTEX
  5
1B98
  8
SAPA_PROFIL
 10
34.552398887110158
 20
8.1100586348340471
 30
0.0
 42
0.4142135623730019
  0
VERTEX
  5
1B99
  8
SAPA_PROFIL
 10
34.167885057888533
 20
8.2893603780765694
 30
0.0
  0
VERTEX
  5
1B9A
  8
SAPA_PROFIL
 10
33.134223175019372
 20
7.9131382204098841
 30
0.0
 42
-0.41421356237947
  0
VERTEX
  5
1B9B
  8
SAPA_PROFIL
 10
32.749709345787821
 20
8.092439963661036
 30
0.0
  0
VERTEX
  5
1B9C
  8
SAPA_PROFIL
 10
32.090854038552003
 20
9.9026300429999559
 30
0.0
 42
0.3152987888800591
  0
VERTEX
  5
1B9D
  8
SAPA_PROFIL
 10
31.808946252315781
 20
10.10002400000328
 30
0.0
  0
VERTEX
  5
1B9E
  8
SAPA_PROFIL
 10
31.389230484496441
 20
10.10002400000319
 30
0.0
 42
0.1316524975873855
  0
VERTEX
  5
1B9F
  8
SAPA_PROFIL
 10
31.23923048449652
 20
10.059831621138541
 30
0.0
  0
VERTEX
  5
1BA0
  8
SAPA_PROFIL
 10
29.749999999955641
 20
9.2000240000032392
 30
0.0
  0
VERTEX
  5
1BA1
  8
SAPA_PROFIL
 10
29.299999999955691
 20
9.2000120000035732
 30
0.0
 42
-0.4142135623731054
  0
VERTEX
  5
1BA2
  8
SAPA_PROFIL
 10
28.99999999995568
 20
9.5000120000035793
 30
0.0
  0
VERTEX
  5
1BA3
  8
SAPA_PROFIL
 10
28.99999999995574
 20
13.100024000003639
 30
0.0
 42
-0.414213562373095
  0
VERTEX
  5
1BA4
  8
SAPA_PROFIL
 10
29.29999999995573
 20
13.40002400000364
 30
0.0
  0
VERTEX
  5
1BA5
  8
SAPA_PROFIL
 10
29.74999999995574
 20
13.40002400000354
 30
0.0
  0
VERTEX
  5
1BA6
  8
SAPA_PROFIL
 10
31.239260131029909
 20
12.540199262434561
 30
0.0
 42
0.1316363093594254
  0
VERTEX
  5
1BA7
  8
SAPA_PROFIL
 10
31.389241036076651
 20
12.500006884177591
 30
0.0
  0
VERTEX
  5
1BA8
  8
SAPA_PROFIL
 10
31.499999999962341
 20
12.499999834386781
 30
0.0
  0
VERTEX
  5
1BA9
  8
SAPA_PROFIL
 10
31.499999999962341
 20
14.499999999999909
 30
0.0
 42
0.4142135623730951
  0
VERTEX
  5
1BAA
  8
SAPA_PROFIL
 10
30.999999999962331
 20
14.999999999999909
 30
0.0
  0
VERTEX
  5
1BAB
  8
SAPA_PROFIL
 10
23.849999999684389
 20
14.999999999999909
 30
0.0
 42
0.4142135623730935
  0
VERTEX
  5
1BAC
  8
SAPA_PROFIL
 10
23.549999999688751
 20
14.700000000000641
 30
0.0
  0
VERTEX
  5
1BAD
  8
SAPA_PROFIL
 10
23.54999999968512
 20
14.04999999999918
 30
0.0
 42
-0.4142135623730951
  0
VERTEX
  5
1BAE
  8
SAPA_PROFIL
 10
23.249999999685851
 20
13.74999999999992
 30
0.0
  0
VERTEX
  5
1BAF
  8
SAPA_PROFIL
 10
22.549999999797901
 20
13.74999999999627
 30
0.0
 42
-0.4142135623730971
  0
VERTEX
  5
1BB0
  8
SAPA_PROFIL
 10
22.24999999980226
 20
14.04999999999918
 30
0.0
  0
VERTEX
  5
1BB1
  8
SAPA_PROFIL
 10
22.24999999978408
 20
25.95000000000427
 30
0.0
 42
-0.4142135623730881
  0
VERTEX
  5
1BB2
  8
SAPA_PROFIL
 10
22.549999999783349
 20
26.250000000003549
 30
0.0
  0
VERTEX
  5
1BB3
  8
SAPA_PROFIL
 10
23.250000000260648
 20
26.25000000001447
 30
0.0
 42
-0.4142135623730968
  0
VERTEX
  5
1BB4
  8
SAPA_PROFIL
 10
23.550000000270838
 20
25.95000000000427
 30
0.0
  0
VERTEX
  5
1BB5
  8
SAPA_PROFIL
 10
23.550000000256279
 20
25.299999999991911
 30
0.0
 42
0.4142135623517844
  0
VERTEX
  5
1BB6
  8
SAPA_PROFIL
 10
23.85000000025919
 20
25.000000000003549
 30
0.0
  0
VERTEX
  5
1BB7
  8
SAPA_PROFIL
 10
25.800000000270838
 20
25.000000000003549
 30
0.0
 42
0.414213562373103
  0
VERTEX
  5
1BB8
  8
SAPA_PROFIL
 10
26.000000000260648
 20
25.20000000000428
 30
0.0
  0
VERTEX
  5
1BB9
  8
SAPA_PROFIL
 10
26.000000000260648
 20
26.300000000002822
 30
0.0
 42
0.4142135623731049
  0
VERTEX
  5
1BBA
  8
SAPA_PROFIL
 10
25.800000000270838
 20
26.500000000003549
 30
0.0
  0
VERTEX
  5
1BBB
  8
SAPA_PROFIL
 10
25.000000000260648
 20
26.500000000003549
 30
0.0
 42
-0.414213562373094
  0
VERTEX
  5
1BBC
  8
SAPA_PROFIL
 10
24.500000000260648
 20
27.000000000003549
 30
0.0
  0
VERTEX
  5
1BBD
  8
SAPA_PROFIL
 10
24.499999999780471
 20
28.00000000001447
 30
0.0
 42
-0.4142135623730951
  0
VERTEX
  5
1BBE
  8
SAPA_PROFIL
 10
24.99999999978046
 20
28.500000000014449
 30
0.0
  0
VERTEX
  5
1BBF
  8
SAPA_PROFIL
 10
25.79999999978337
 20
28.500000000003549
 30
0.0
 42
0.414213562373103
  0
VERTEX
  5
1BC0
  8
SAPA_PROFIL
 10
25.99999999978046
 20
28.70000000000427
 30
0.0
  0
VERTEX
  5
1BC1
  8
SAPA_PROFIL
 10
25.999999999773191
 20
29.800000000002829
 30
0.0
 42
0.4142135623731049
  0
VERTEX
  5
1BC2
  8
SAPA_PROFIL
 10
25.79999999978337
 20
30.00000000000356
 30
0.0
  0
VERTEX
  5
1BC3
  8
SAPA_PROFIL
 10
22.250000000282501
 20
30.00000000000356
 30
0.0
 42
0.3389652260127085
  0
VERTEX
  5
1BC4
  8
SAPA_PROFIL
 10
21.284529700737501
 20
29.260513148801181
 30
0.0
 42
0.0274862826960608
  0
VERTEX
  5
1BC5
  8
SAPA_PROFIL
 10
20.50000000030159
 20
14.999999999825301
 30
0.0
  0
VERTEX
  5
1BC6
  8
SAPA_PROFIL
 10
20.50000000014423
 20
10.00000000009814
 30
0.0
 42
0.4142135623816193
  0
VERTEX
  5
1BC7
  8
SAPA_PROFIL
 10
23.50000000014423
 20
7.0000000000035563
 30
0.0
  0
VERTEX
  5
1BC8
  8
SAPA_PROFIL
 10
28.756130959000611
 20
7.0000000000035492
 30
0.0
 42
0.2418327667412822
  0
VERTEX
  5
1BC9
  8
SAPA_PROFIL
 10
28.999999999950202
 20
7.1252776749671041
 30
0.0
 42
-0.2418327667543803
  0
SEQEND
  5
1BCA
  8
SAPA_PROFIL
  0
POLYLINE
  5
169F
  8
SAPA_PROFIL
 62
     4
 66
     1
 10
0.0
 20
0.0
 30
-0.2
 70
     1
  0
VERTEX
  5
1BCB
  8
SAPA_PROFIL
 62
     4
 10
31.456217782499401
 20
-11.592264973109801
 30
-0.2
  0
VERTEX
  5
1BCC
  8
SAPA_PROFIL
 62
     4
 10
29.736602540225348
 20
-10.599444650080381
 30
-0.2
  0
VERTEX
  5
1BCD
  8
SAPA_PROFIL
 62
     4
 10
29.2999999998469
 20
-10.599444650080279
 30
-0.2
 42
0.4142135623730951
  0
VERTEX
  5
1BCE
  8
SAPA_PROFIL
 62
     4
 10
29.049999999846921
 20
-10.849444650080279
 30
-0.2
  0
VERTEX
  5
1BCF
  8
SAPA_PROFIL
 62
     4
 10
29.049999999846861
 20
-14.449456650080339
 30
-0.2
 42
0.4142135623731053
  0
VERTEX
  5
1BD0
  8
SAPA_PROFIL
 62
     4
 10
29.299999999846872
 20
-14.69945665008035
 30
-0.2
  0
VERTEX
  5
1BD1
  8
SAPA_PROFIL
 62
     4
 10
29.736601921425329
 20
-14.699445007344989
 30
-0.2
  0
VERTEX
  5
1BD2
  8
SAPA_PROFIL
 62
     4
 10
31.456217782492718
 20
-13.70662432705471
 30
-0.2
 42
-0.1316524975874149
  0
VERTEX
  5
1BD3
  8
SAPA_PROFIL
 62
     4
 10
31.85621778249277
 20
-13.599444650082219
 30
-0.2
  0
VERTEX
  5
1BD4
  8
SAPA_PROFIL
 62
     4
 10
56.143782217201057
 20
-13.599444650082219
 30
-0.2
 42
-0.1316524975874152
  0
VERTEX
  5
1BD5
  8
SAPA_PROFIL
 62
     4
 10
56.543782217201112
 20
-13.706624327054721
 30
-0.2
  0
VERTEX
  5
1BD6
  8
SAPA_PROFIL
 62
     4
 10
58.263398078268509
 20
-14.699445007344989
 30
-0.2
  0
VERTEX
  5
1BD7
  8
SAPA_PROFIL
 62
     4
 10
58.699999999846959
 20
-14.69945665008035
 30
-0.2
 42
0.4142135623731045
  0
VERTEX
  5
1BD8
  8
SAPA_PROFIL
 62
     4
 10
58.94999999984698
 20
-14.44945665008035
 30
-0.2
  0
VERTEX
  5
1BD9
  8
SAPA_PROFIL
 62
     4
 10
58.949999999846924
 20
-10.849444650080279
 30
-0.2
 42
0.4142135623730935
  0
VERTEX
  5
1BDA
  8
SAPA_PROFIL
 62
     4
 10
58.699999999846938
 20
-10.599444650080279
 30
-0.2
  0
VERTEX
  5
1BDB
  8
SAPA_PROFIL
 62
     4
 10
58.263397459468479
 20
-10.599444650080381
 30
-0.2
  0
VERTEX
  5
1BDC
  8
SAPA_PROFIL
 62
     4
 10
56.54378221719444
 20
-11.59226497310981
 30
-0.2
 42
-0.1316524975873982
  0
VERTEX
  5
1BDD
  8
SAPA_PROFIL
 62
     4
 10
56.143782217194428
 20
-11.69944465008224
 30
-0.2
  0
VERTEX
  5
1BDE
  8
SAPA_PROFIL
 62
     4
 10
31.85621778249941
 20
-11.69944465008224
 30
-0.2
 42
-0.1316524975873979
  0
SEQEND
  5
1BDF
  8
SAPA_PROFIL
 62
     4
  0
POLYLINE
  5
16A0
  8
SAPA_PROFIL
 66
     1
 10
0.0
 20
0.0
 30
0.0
 70
     1
  0
VERTEX
  5
1BE0
  8
SAPA_PROFIL
 10
96.499999999519517
 20
22.999999999979519
 30
0.0
  0
VERTEX
  5
1BE1
  8
SAPA_PROFIL
 10
95.711461024907905
 20
22.999999999979519
 30
0.0
 42
-0.0577043334240353
  0
VERTEX
  5
1BE2
  8
SAPA_PROFIL
 10
93.42621752067042
 20
23.26461802869634
 30
0.0
 42
0.1123270377207732
  0
VERTEX
  5
1BE3
  8
SAPA_PROFIL
 10
71.241252094439972
 20
23.416483945797129
 30
0.0
 42
0.3636666106259163
  0
VERTEX
  5
1BE4
  8
SAPA_PROFIL
 10
68.889330871576675
 20
20.362995954169801
 30
0.0
 42
-0.0360286231067385
  0
VERTEX
  5
1BE5
  8
SAPA_PROFIL
 10
68.313873080037638
 20
1.6612508490262741
 30
0.0
 42
-0.0472456768419823
  0
VERTEX
  5
1BE6
  8
SAPA_PROFIL
 10
67.944420123268344
 20
-0.1878192065815014
 30
0.0
 42
-0.0120164869908705
  0
VERTEX
  5
1BE7
  8
SAPA_PROFIL
 10
67.571428571134447
 20
-1.329931278357229
 30
0.0
 42
0.0851278882549297
  0
VERTEX
  5
1BE8
  8
SAPA_PROFIL
 10
66.999999999697764
 20
-4.6619037897203546
 30
0.0
  0
VERTEX
  5
1BE9
  8
SAPA_PROFIL
 10
66.999999999697764
 20
-12.000000000049591
 30
0.0
 42
-0.4142135623730951
  0
VERTEX
  5
1BEA
  8
SAPA_PROFIL
 10
61.999999999697764
 20
-17.000000000049589
 30
0.0
  0
VERTEX
  5
1BEB
  8
SAPA_PROFIL
 10
59.243869040797733
 20
-17.000000000038671
 30
0.0
 42
-0.2418327667382071
  0
VERTEX
  5
1BEC
  8
SAPA_PROFIL
 10
58.999999999832433
 20
-16.87472232507249
 30
0.0
 42
0.2418327667526432
  0
VERTEX
  5
1BED
  8
SAPA_PROFIL
 10
58.756130958896108
 20
-16.749444650079131
 30
0.0
  0
VERTEX
  5
1BEE
  8
SAPA_PROFIL
 10
57.799999999846193
 20
-16.749444650079131
 30
0.0
 42
0.3178606011753677
  0
VERTEX
  5
1BEF
  8
SAPA_PROFIL
 10
57.517148803236033
 20
-16.94946865008037
 30
0.0
  0
VERTEX
  5
1BF0
  8
SAPA_PROFIL
 10
55.214189562220582
 20
-16.94946865008037
 30
0.0
 42
-0.6681786379192716
  0
VERTEX
  5
1BF1
  8
SAPA_PROFIL
 10
54.507082781033972
 20
-15.24236186889388
 30
0.0
  0
VERTEX
  5
1BF2
  8
SAPA_PROFIL
 10
55.812132034202939
 20
-13.937312615724711
 30
0.0
 42
-0.1989123673797335
  0
VERTEX
  5
1BF3
  8
SAPA_PROFIL
 10
56.02426406855902
 20
-13.849444650080599
 30
0.0
  0
VERTEX
  5
1BF4
  8
SAPA_PROFIL
 10
56.61076951530621
 20
-13.84944465008074
 30
0.0
 42
-0.1316524975873855
  0
VERTEX
  5
1BF5
  8
SAPA_PROFIL
 10
56.760769515306137
 20
-13.88963702894538
 30
0.0
  0
VERTEX
  5
1BF6
  8
SAPA_PROFIL
 10
58.24999999984702
 20
-14.74944465008069
 30
0.0
  0
VERTEX
  5
1BF7
  8
SAPA_PROFIL
 10
58.699999999846959
 20
-14.749456650080351
 30
0.0
 42
0.4142135623731054
  0
VERTEX
  5
1BF8
  8
SAPA_PROFIL
 10
58.99999999984697
 20
-14.44945665008035
 30
0.0
  0
VERTEX
  5
1BF9
  8
SAPA_PROFIL
 10
58.999999999846921
 20
-10.849444650080279
 30
0.0
 42
0.4142135623730951
  0
VERTEX
  5
1BFA
  8
SAPA_PROFIL
 10
58.699999999846924
 20
-10.549444650080289
 30
0.0
  0
VERTEX
  5
1BFB
  8
SAPA_PROFIL
 10
58.249999999846921
 20
-10.54944465008038
 30
0.0
  0
VERTEX
  5
1BFC
  8
SAPA_PROFIL
 10
56.76073986877276
 20
-11.40926938764937
 30
0.0
 42
-0.1316363093594254
  0
VERTEX
  5
1BFD
  8
SAPA_PROFIL
 10
56.610758963726013
 20
-11.44946176590633
 30
0.0
  0
VERTEX
  5
1BFE
  8
SAPA_PROFIL
 10
56.499999999840199
 20
-11.44946865008024
 30
0.0
  0
VERTEX
  5
1BFF
  8
SAPA_PROFIL
 10
56.499999999846921
 20
-9.0000000000204832
 30
0.0
  0
VERTEX
  5
1C00
  8
SAPA_PROFIL
 10
56.502601999847109
 20
-6.5505313499607238
 30
0.0
  0
VERTEX
  5
1C01
  8
SAPA_PROFIL
 10
56.610758963726013
 20
-6.5505382341346339
 30
0.0
 42
-0.1316363093594255
  0
VERTEX
  5
1C02
  8
SAPA_PROFIL
 10
56.76073986877276
 20
-6.5907306123915994
 30
0.0
  0
VERTEX
  5
1C03
  8
SAPA_PROFIL
 10
58.249999999846921
 20
-7.4505553499605801
 30
0.0
  0
VERTEX
  5
1C04
  8
SAPA_PROFIL
 10
58.699999999846924
 20
-7.4505553499606796
 30
0.0
 42
0.4142135623730951
  0
VERTEX
  5
1C05
  8
SAPA_PROFIL
 10
58.999999999846921
 20
-7.1505553499606833
 30
0.0
  0
VERTEX
  5
1C06
  8
SAPA_PROFIL
 10
58.99999999984697
 20
-3.5505433499606229
 30
0.0
 42
0.4142135623731054
  0
VERTEX
  5
1C07
  8
SAPA_PROFIL
 10
58.699999999846959
 20
-3.2505433499606191
 30
0.0
  0
VERTEX
  5
1C08
  8
SAPA_PROFIL
 10
58.24999999984702
 20
-3.2505553499602788
 30
0.0
  0
VERTEX
  5
1C09
  8
SAPA_PROFIL
 10
56.760769515306137
 20
-4.110362971095582
 30
0.0
 42
-0.1316524975873855
  0
VERTEX
  5
1C0A
  8
SAPA_PROFIL
 10
56.61076951530621
 20
-4.1505553499602277
 30
0.0
  0
VERTEX
  5
1C0B
  8
SAPA_PROFIL
 10
56.02426406855902
 20
-4.1505553499603742
 30
0.0
 42
-0.1989123673797335
  0
VERTEX
  5
1C0C
  8
SAPA_PROFIL
 10
55.812132034202939
 20
-4.0626873843162548
 30
0.0
  0
VERTEX
  5
1C0D
  8
SAPA_PROFIL
 10
54.507082781033972
 20
-2.7576381311470861
 30
0.0
 42
-0.6681786379192716
  0
VERTEX
  5
1C0E
  8
SAPA_PROFIL
 10
55.214189562220582
 20
-1.0505313499605931
 30
0.0
  0
VERTEX
  5
1C0F
  8
SAPA_PROFIL
 10
57.517148803236388
 20
-1.0505313499605931
 30
0.0
 42
0.3178606011750261
  0
VERTEX
  5
1C10
  8
SAPA_PROFIL
 10
57.799999999846193
 20
-1.2505553499600159
 30
0.0
  0
VERTEX
  5
1C11
  8
SAPA_PROFIL
 10
58.756130958896108
 20
-1.2505553499600159
 30
0.0
 42
0.2418327667543857
  0
VERTEX
  5
1C12
  8
SAPA_PROFIL
 10
58.999999999847041
 20
-1.125277674979166
 30
0.0
 42
-0.2418327667380065
  0
VERTEX
  5
1C13
  8
SAPA_PROFIL
 10
59.243869040797328
 20
-0.9999999999758628
 30
0.0
  0
VERTEX
  5
1C14
  8
SAPA_PROFIL
 10
59.999999999519503
 20
-1.0000000000204841
 30
0.0
 42
-0.4142135623523161
  0
VERTEX
  5
1C15
  8
SAPA_PROFIL
 10
60.999999999519503
 20
-1.9999999999495439
 30
0.0
  0
VERTEX
  5
1C16
  8
SAPA_PROFIL
 10
60.999999999697764
 20
-4.500000000178737
 30
0.0
 42
0.9999999999627103
  0
VERTEX
  5
1C17
  8
SAPA_PROFIL
 10
64.999999999697764
 20
-4.500000000029579
 30
0.0
  0
VERTEX
  5
1C18
  8
SAPA_PROFIL
 10
64.999999999697764
 20
3.4999999999704201
 30
0.0
 42
0.4142135623752261
  0
VERTEX
  5
1C19
  8
SAPA_PROFIL
 10
62.99999999968685
 20
5.4999999999704201
 30
0.0
  0
VERTEX
  5
1C1A
  8
SAPA_PROFIL
 10
61.299999999507861
 20
5.4999999999522302
 30
0.0
 42
0.4142135623715025
  0
VERTEX
  5
1C1B
  8
SAPA_PROFIL
 10
60.999999999519503
 20
5.199999999940224
 30
0.0
  0
VERTEX
  5
1C1C
  8
SAPA_PROFIL
 10
60.99999999951222
 20
4.2999999999496827
 30
0.0
 42
-0.4142135623730888
  0
VERTEX
  5
1C1D
  8
SAPA_PROFIL
 10
60.699999999509309
 20
3.9999999999394968
 30
0.0
  0
VERTEX
  5
1C1E
  8
SAPA_PROFIL
 10
60.299999999507861
 20
3.9999999999394968
 30
0.0
 42
-0.4142135623730982
  0
VERTEX
  5
1C1F
  8
SAPA_PROFIL
 10
59.999999999497682
 20
4.2999999999496827
 30
0.0
  0
VERTEX
  5
1C20
  8
SAPA_PROFIL
 10
59.999999999515872
 20
6.6999999999602329
 30
0.0
 42
-0.4142135623624388
  0
VERTEX
  5
1C21
  8
SAPA_PROFIL
 10
60.299999999507861
 20
6.9999999999613252
 30
0.0
  0
VERTEX
  5
1C22
  8
SAPA_PROFIL
 10
64.499999999519503
 20
6.9999999999613252
 30
0.0
 42
0.4142135623730951
  0
VERTEX
  5
1C23
  8
SAPA_PROFIL
 10
67.499999999508574
 20
9.9999999999704201
 30
0.0
  0
VERTEX
  5
1C24
  8
SAPA_PROFIL
 10
67.499999999508574
 20
14.99999999996132
 30
0.0
 42
0.0279290488515987
  0
VERTEX
  5
1C25
  8
SAPA_PROFIL
 10
66.69003105480877
 20
29.489164086653151
 30
0.0
 42
0.3661896282372441
  0
VERTEX
  5
1C26
  8
SAPA_PROFIL
 10
65.939003094596899
 20
30.198789765519489
 30
0.0
 42
-0.3981911081684388
  0
VERTEX
  5
1C27
  8
SAPA_PROFIL
 10
65.749999998786222
 20
30.398487206909959
 30
0.0
  0
VERTEX
  5
1C28
  8
SAPA_PROFIL
 10
65.749999998784574
 20
31.299999999969689
 30
0.0
 42
-0.414213562389099
  0
VERTEX
  5
1C29
  8
SAPA_PROFIL
 10
65.949999998796216
 20
31.499999999966789
 30
0.0
  0
VERTEX
  5
1C2A
  8
SAPA_PROFIL
 10
66.176059067267147
 20
31.499999999979519
 30
0.0
 42
-0.3813405017903993
  0
VERTEX
  5
1C2B
  8
SAPA_PROFIL
 10
68.163184990182344
 20
29.726562499979512
 30
0.0
 42
-0.0014144096544681
  0
VERTEX
  5
1C2C
  8
SAPA_PROFIL
 10
68.24443488300868
 20
28.99557257294336
 30
0.0
 42
0.309186963272042
  0
VERTEX
  5
1C2D
  8
SAPA_PROFIL
 10
68.978186575361406
 20
28.137739782561681
 30
0.0
 42
0.1241407988373373
  0
VERTEX
  5
1C2E
  8
SAPA_PROFIL
 10
93.426217520653069
 20
27.735381971256029
 30
0.0
 42
-0.0577043334222099
  0
VERTEX
  5
1C2F
  8
SAPA_PROFIL
 10
95.711461024809637
 20
27.999999999979512
 30
0.0
  0
VERTEX
  5
1C30
  8
SAPA_PROFIL
 10
96.499999999519446
 20
27.999999999979512
 30
0.0
 42
-0.4142135623730951
  0
VERTEX
  5
1C31
  8
SAPA_PROFIL
 10
97.499999999519446
 20
26.999999999979512
 30
0.0
  0
VERTEX
  5
1C32
  8
SAPA_PROFIL
 10
97.499999999519517
 20
23.999999999979519
 30
0.0
 42
-0.4142135623730951
  0
SEQEND
  5
1C33
  8
SAPA_PROFIL
  0
POLYLINE
  5
16A1
  8
SAPA_PROFIL
 66
     1
 10
0.0
 20
0.0
 30
0.0
 70
     1
  0
VERTEX
  5
1C34
  8
SAPA_PROFIL
 10
28.000000000196451
 20
4.2999999999496756
 30
0.0
  0
VERTEX
  5
1C35
  8
SAPA_PROFIL
 10
28.000000000174619
 20
6.6999999999584139
 30
0.0
 42
0.4142135623656343
  0
VERTEX
  5
1C36
  8
SAPA_PROFIL
 10
27.700000000186261
 20
6.9999999999595062
 30
0.0
  0
VERTEX
  5
1C37
  8
SAPA_PROFIL
 10
23.500000000174619
 20
6.9999999999595062
 30
0.0
 42
-0.4142135623730959
  0
VERTEX
  5
1C38
  8
SAPA_PROFIL
 10
20.50000000018554
 20
9.999999999970413
 30
0.0
  0
VERTEX
  5
1C39
  8
SAPA_PROFIL
 10
20.50000000018554
 20
14.99999999995948
 30
0.0
 42
-0.0279290488516059
  0
VERTEX
  5
1C3A
  8
SAPA_PROFIL
 10
21.309968944881909
 20
29.489164086651702
 30
0.0
 42
-0.3661896282372283
  0
VERTEX
  5
1C3B
  8
SAPA_PROFIL
 10
22.060996905097909
 20
30.198789765519521
 30
0.0
 42
0.3981911081684177
  0
VERTEX
  5
1C3C
  8
SAPA_PROFIL
 10
22.250000000906041
 20
30.39848720690815
 30
0.0
  0
VERTEX
  5
1C3D
  8
SAPA_PROFIL
 10
22.250000000909491
 20
31.29999999996971
 30
0.0
 42
0.4142135623890976
  0
VERTEX
  5
1C3E
  8
SAPA_PROFIL
 10
22.05000000089785
 20
31.499999999970441
 30
0.0
  0
VERTEX
  5
1C3F
  8
SAPA_PROFIL
 10
21.823940932426918
 20
31.499999999977732
 30
0.0
 42
0.3813405017904005
  0
VERTEX
  5
1C40
  8
SAPA_PROFIL
 10
19.836815009515419
 20
29.726562499977721
 30
0.0
 42
0.0541306776717632
  0
VERTEX
  5
1C41
  8
SAPA_PROFIL
 10
19.686126919664382
 20
1.6612508489080531
 30
0.0
 42
0.0472456768419794
  0
VERTEX
  5
1C42
  8
SAPA_PROFIL
 10
20.055579876433161
 20
-0.1878192065863615
 30
0.0
 42
0.0120164869908679
  0
VERTEX
  5
1C43
  8
SAPA_PROFIL
 10
20.42857142856435
 20
-1.3299312783557791
 30
0.0
 42
-0.0851278882549295
  0
VERTEX
  5
1C44
  8
SAPA_PROFIL
 10
21.0
 20
-4.6619037897221673
 30
0.0
  0
VERTEX
  5
1C45
  8
SAPA_PROFIL
 10
21.0
 20
-12.00000000005141
 30
0.0
 42
0.4142135623730951
  0
VERTEX
  5
1C46
  8
SAPA_PROFIL
 10
26.0
 20
-17.000000000051411
 30
0.0
  0
VERTEX
  5
1C47
  8
SAPA_PROFIL
 10
28.75613095890003
 20
-17.00000000004049
 30
0.0
 42
0.2418327667382104
  0
VERTEX
  5
1C48
  8
SAPA_PROFIL
 10
28.99999999986386
 20
-16.87472232507141
 30
0.0
 42
-0.241832766754381
  0
VERTEX
  5
1C49
  8
SAPA_PROFIL
 10
29.24386904079801
 20
-16.74944465008095
 30
0.0
  0
VERTEX
  5
1C4A
  8
SAPA_PROFIL
 10
30.199999999847929
 20
-16.74944465008095
 30
0.0
 42
-0.3178606011698609
  0
VERTEX
  5
1C4B
  8
SAPA_PROFIL
 10
30.482851196455851
 20
-16.949468650075069
 30
0.0
  0
VERTEX
  5
1C4C
  8
SAPA_PROFIL
 10
32.785810437480762
 20
-16.949468650075069
 30
0.0
 42
0.6681786379192716
  0
VERTEX
  5
1C4D
  8
SAPA_PROFIL
 10
33.492917218666612
 20
-15.24236186888826
 30
0.0
  0
VERTEX
  5
1C4E
  8
SAPA_PROFIL
 10
32.187867965497048
 20
-13.937312615719669
 30
0.0
 42
0.1989123673797334
  0
VERTEX
  5
1C4F
  8
SAPA_PROFIL
 10
31.975735931140939
 20
-13.84944465007565
 30
0.0
  0
VERTEX
  5
1C50
  8
SAPA_PROFIL
 10
31.38923048439375
 20
-13.84944465007605
 30
0.0
 42
0.1316524975873855
  0
VERTEX
  5
1C51
  8
SAPA_PROFIL
 10
31.23923048439384
 20
-13.88963702894076
 30
0.0
  0
VERTEX
  5
1C52
  8
SAPA_PROFIL
 10
29.74999999985334
 20
-14.74944465007672
 30
0.0
  0
VERTEX
  5
1C53
  8
SAPA_PROFIL
 10
29.299999999853391
 20
-14.74945665007658
 30
0.0
 42
-0.4142135623731054
  0
VERTEX
  5
1C54
  8
SAPA_PROFIL
 10
28.999999999853259
 20
-14.44945665007671
 30
0.0
  0
VERTEX
  5
1C55
  8
SAPA_PROFIL
 10
28.99999999985171
 20
-10.84944465007665
 30
0.0
 42
-0.4142135623730951
  0
VERTEX
  5
1C56
  8
SAPA_PROFIL
 10
29.299999999851579
 20
-10.54944465007652
 30
0.0
  0
VERTEX
  5
1C57
  8
SAPA_PROFIL
 10
29.749999999851589
 20
-10.549444650076421
 30
0.0
  0
VERTEX
  5
1C58
  8
SAPA_PROFIL
 10
31.239260130926141
 20
-11.40926938764474
 30
0.0
 42
0.1316363093594257
  0
VERTEX
  5
1C59
  8
SAPA_PROFIL
 10
31.389241035972901
 20
-11.44946176590164
 30
0.0
  0
VERTEX
  5
1C5A
  8
SAPA_PROFIL
 10
31.499999999858591
 20
-11.449464137710271
 30
0.0
  0
VERTEX
  5
1C5B
  8
SAPA_PROFIL
 10
31.499999999843091
 20
-6.5505364249886711
 30
0.0
  0
VERTEX
  5
1C5C
  8
SAPA_PROFIL
 10
31.389241035967832
 20
-6.5505382341346312
 30
0.0
 42
0.1316363093594255
  0
VERTEX
  5
1C5D
  8
SAPA_PROFIL
 10
31.239260130921089
 20
-6.590730612391595
 30
0.0
  0
VERTEX
  5
1C5E
  8
SAPA_PROFIL
 10
29.74999999984691
 20
-7.4505553499605766
 30
0.0
  0
VERTEX
  5
1C5F
  8
SAPA_PROFIL
 10
29.299999999846911
 20
-7.450555349960676
 30
0.0
 42
-0.4142135623730951
  0
VERTEX
  5
1C60
  8
SAPA_PROFIL
 10
28.999999999846921
 20
-7.1505553499606789
 30
0.0
  0
VERTEX
  5
1C61
  8
SAPA_PROFIL
 10
28.99999999984686
 20
-3.5505433499606189
 30
0.0
 42
-0.4142135623731054
  0
VERTEX
  5
1C62
  8
SAPA_PROFIL
 10
29.299999999846872
 20
-3.2505433499606151
 30
0.0
  0
VERTEX
  5
1C63
  8
SAPA_PROFIL
 10
29.749999999846811
 20
-3.2505553499602788
 30
0.0
  0
VERTEX
  5
1C64
  8
SAPA_PROFIL
 10
31.23923048438769
 20
-4.110362971095582
 30
0.0
 42
0.1316524975873855
  0
VERTEX
  5
1C65
  8
SAPA_PROFIL
 10
31.389230484387621
 20
-4.150555349960225
 30
0.0
  0
VERTEX
  5
1C66
  8
SAPA_PROFIL
 10
31.97573593113481
 20
-4.1505553499603698
 30
0.0
 42
0.1989123673797335
  0
VERTEX
  5
1C67
  8
SAPA_PROFIL
 10
32.187867965490881
 20
-4.0626873843162521
 30
0.0
  0
VERTEX
  5
1C68
  8
SAPA_PROFIL
 10
33.492917218659862
 20
-2.7576381311470821
 30
0.0
 42
0.6681786379192716
  0
VERTEX
  5
1C69
  8
SAPA_PROFIL
 10
32.785810437473259
 20
-1.0505313499605859
 30
0.0
  0
VERTEX
  5
1C6A
  8
SAPA_PROFIL
 10
30.482851196461208
 20
-1.0505313499605859
 30
0.0
 42
-0.3178606011758647
  0
VERTEX
  5
1C6B
  8
SAPA_PROFIL
 10
30.199999999847929
 20
-1.2505553499618349
 30
0.0
  0
VERTEX
  5
1C6C
  8
SAPA_PROFIL
 10
29.24386904079801
 20
-1.2505553499600159
 30
0.0
 42
-0.2418327667526379
  0
VERTEX
  5
1C6D
  8
SAPA_PROFIL
 10
28.999999999847368
 20
-1.1252776749813691
 30
0.0
 42
0.2418327667380031
  0
VERTEX
  5
1C6E
  8
SAPA_PROFIL
 10
28.75613095889673
 20
-0.999999999977696
 30
0.0
  0
VERTEX
  5
1C6F
  8
SAPA_PROFIL
 10
28.000000000174619
 20
-1.000000000022303
 30
0.0
 42
0.4142135623709635
  0
VERTEX
  5
1C70
  8
SAPA_PROFIL
 10
27.000000000174619
 20
-2.000000000022303
 30
0.0
  0
VERTEX
  5
1C71
  8
SAPA_PROFIL
 10
27.0
 20
-4.500000000178737
 30
0.0
 42
-0.9999999999627103
  0
VERTEX
  5
1C72
  8
SAPA_PROFIL
 10
23.0
 20
-4.500000000029579
 30
0.0
  0
VERTEX
  5
1C73
  8
SAPA_PROFIL
 10
23.0
 20
3.499999999970413
 30
0.0
 42
-0.4142135623752264
  0
VERTEX
  5
1C74
  8
SAPA_PROFIL
 10
25.000000000007269
 20
5.499999999970413
 30
0.0
  0
VERTEX
  5
1C75
  8
SAPA_PROFIL
 10
26.70000000018296
 20
5.4999999999485922
 30
0.0
 42
-0.4142135623762961
  0
VERTEX
  5
1C76
  8
SAPA_PROFIL
 10
27.000000000174619
 20
5.199999999940224
 30
0.0
  0
VERTEX
  5
1C77
  8
SAPA_PROFIL
 10
27.00000000018553
 20
4.2999999999496756
 30
0.0
 42
0.4142135623730957
  0
VERTEX
  5
1C78
  8
SAPA_PROFIL
 10
27.300000000184809
 20
3.9999999999394968
 30
0.0
  0
VERTEX
  5
1C79
  8
SAPA_PROFIL
 10
27.700000000186261
 20
3.9999999999394968
 30
0.0
 42
0.4142135623730922
  0
SEQEND
  5
1C7A
  8
SAPA_PROFIL
  0
POLYLINE
  5
16A2
  8
SAPA_PROFIL
 62
     4
 66
     1
 10
0.0
 20
0.0
 30
-0.2
 70
     1
  0
VERTEX
  5
16A3
  8
SAPA_PROFIL
 62
     4
 10
31.85621778249941
 20
-6.3005553499587199
 30
-0.2
 42
0.1316524975873979
  0
VERTEX
  5
16A4
  8
SAPA_PROFIL
 62
     4
 10
31.456217782499401
 20
-6.4077350269311557
 30
-0.2
  0
VERTEX
  5
16A5
  8
SAPA_PROFIL
 62
     4
 10
29.736602540225348
 20
-7.4005553499605803
 30
-0.2
  0
VERTEX
  5
16A6
  8
SAPA_PROFIL
 62
     4
 10
29.2999999998469
 20
-7.4005553499606789
 30
-0.2
 42
-0.4142135623730951
  0
VERTEX
  5
16A7
  8
SAPA_PROFIL
 62
     4
 10
29.049999999846921
 20
-7.1505553499606789
 30
-0.2
  0
VERTEX
  5
16A8
  8
SAPA_PROFIL
 62
     4
 10
29.049999999846872
 20
-3.5505433499606189
 30
-0.2
 42
-0.4142135623731053
  0
VERTEX
  5
16A9
  8
SAPA_PROFIL
 62
     4
 10
29.299999999846872
 20
-3.3005433499606118
 30
-0.2
  0
VERTEX
  5
16AA
  8
SAPA_PROFIL
 62
     4
 10
29.736601921425329
 20
-3.3005549926959752
 30
-0.2
  0
VERTEX
  5
16AB
  8
SAPA_PROFIL
 62
     4
 10
31.456217782492718
 20
-4.2933756729862473
 30
-0.2
 42
0.1316524975874149
  0
VERTEX
  5
16AC
  8
SAPA_PROFIL
 62
     4
 10
31.85621778249277
 20
-4.4005553499587426
 30
-0.2
  0
VERTEX
  5
16AD
  8
SAPA_PROFIL
 62
     4
 10
56.143782217201057
 20
-4.4005553499587426
 30
-0.2
 42
0.1316524975874151
  0
VERTEX
  5
16AE
  8
SAPA_PROFIL
 62
     4
 10
56.543782217201112
 20
-4.2933756729862473
 30
-0.2
  0
VERTEX
  5
16AF
  8
SAPA_PROFIL
 62
     4
 10
58.263398078268509
 20
-3.3005549926959752
 30
-0.2
  0
VERTEX
  5
16B0
  8
SAPA_PROFIL
 62
     4
 10
58.699999999846959
 20
-3.3005433499606118
 30
-0.2
 42
-0.4142135623731054
  0
VERTEX
  5
16B1
  8
SAPA_PROFIL
 62
     4
 10
58.94999999984698
 20
-3.5505433499606189
 30
-0.2
  0
VERTEX
  5
16B2
  8
SAPA_PROFIL
 62
     4
 10
58.949999999846924
 20
-7.1505553499606789
 30
-0.2
 42
-0.4142135623730953
  0
VERTEX
  5
16B3
  8
SAPA_PROFIL
 62
     4
 10
58.699999999846938
 20
-7.4005553499606789
 30
-0.2
  0
VERTEX
  5
16B4
  8
SAPA_PROFIL
 62
     4
 10
58.263397459468479
 20
-7.4005553499605803
 30
-0.2
  0
VERTEX
  5
16B5
  8
SAPA_PROFIL
 62
     4
 10
56.54378221719444
 20
-6.4077350269311557
 30
-0.2
 42
0.1316524975873982
  0
VERTEX
  5
16B6
  8
SAPA_PROFIL
 62
     4
 10
56.143782217194428
 20
-6.3005553499587199
 30
-0.2
  0
SEQEND
  5
16B7
  8
SAPA_PROFIL
 62
     4
  0
LINE
  5
171C
  8
SAPA_GLAS
 10
25.800000000622909
 20
25.000000000003599
 30
0.0
 11
25.711346680911291
 21
24.497222039652851
 31
0.0
  0
LINE
  5
171D
  8
SAPA_GLAS
 10
29.809538931256409
 20
23.01303021489846
 30
0.0
 11
30.00000000013436
 21
23.01303021489846
 31
0.0
  0
ARC
  5
171E
  8
SAPA_GLAS
 10
28.000000000132552
 20
39.58466937281483
 30
0.0
 40
9.9869792597787779
 50
258.44779235426779
 51
281.5522076457321
  0
LINE
  5
171F
  8
SAPA_GLAS
 10
62.199999999646117
 20
25.00000000000357
 30
0.0
 11
62.288653319357742
 21
24.497222039652829
 31
0.0
  0
LINE
  5
1720
  8
SAPA_GLAS
 10
58.19046106901262
 20
23.01303021489845
 30
0.0
 11
58.000000000134683
 21
23.01303021489845
 31
0.0
  0
ARC
  5
1721
  8
SAPA_GLAS
 10
60.000000000136488
 20
39.584669372814822
 30
0.0
 40
9.9869792597787779
 50
258.44779235426779
 51
281.55220764573221
  0
POLYLINE
  5
1722
  8
SAPA_GLAS
 66
     1
 10
0.0
 20
0.0
 30
0.0
 70
     1
  0
VERTEX
  5
1D47
  8
SAPA_GLAS
 10
29.87721162969553
 20
22.239527733589739
 30
0.0
 42
0.1316524975872964
  0
VERTEX
  5
1D48
  8
SAPA_GLAS
 10
29.809538931358428
 20
23.013030215079141
 30
0.0
  0
VERTEX
  5
1D49
  8
SAPA_GLAS
 10
29.257351144906899
 20
24.530153689703258
 30
0.0
 42
0.4142135623734131
  0
VERTEX
  5
1D4A
  8
SAPA_GLAS
 10
28.616494762853812
 20
24.828989928437611
 30
0.0
  0
VERTEX
  5
1D4B
  8
SAPA_GLAS
 10
28.428556238694188
 20
24.760585899773009
 30
0.0
 42
0.4142135623732762
  0
VERTEX
  5
1D4C
  8
SAPA_GLAS
 10
28.249254495450021
 20
24.376072070539529
 30
0.0
  0
VERTEX
  5
1D4D
  8
SAPA_GLAS
 10
28.2577035029584
 20
24.35285861322162
 30
0.0
 42
-0.5773502691875974
  0
VERTEX
  5
1D4E
  8
SAPA_GLAS
 10
28.035035343261828
 20
24.08749303395528
 30
0.0
  0
VERTEX
  5
1D4F
  8
SAPA_GLAS
 10
23.719090503764932
 20
24.848510556432171
 30
0.0
 42
0.4142135623736183
  0
VERTEX
  5
1D50
  8
SAPA_GLAS
 10
23.371553724568741
 20
24.605162683830841
 30
0.0
  0
VERTEX
  5
1D51
  8
SAPA_GLAS
 10
23.302094453498629
 20
24.211239582628671
 30
0.0
 42
0.4142135623730951
  0
VERTEX
  5
1D52
  8
SAPA_GLAS
 10
23.545442326095781
 20
23.863702803423511
 30
0.0
  0
VERTEX
  5
1D53
  8
SAPA_GLAS
 10
28.486824089017169
 20
22.99240387660619
 30
0.0
 42
-0.4142135623725704
  0
VERTEX
  5
1D54
  8
SAPA_GLAS
 10
28.892403876682049
 20
22.413175911264769
 30
0.0
  0
VERTEX
  5
1D55
  8
SAPA_GLAS
 10
27.688733870549189
 20
15.586824088937711
 30
0.0
 42
0.4663076581553405
  0
VERTEX
  5
1D56
  8
SAPA_GLAS
 10
28.181137747054791
 20
15.000000000100609
 30
0.0
  0
VERTEX
  5
1D57
  8
SAPA_GLAS
 10
59.818862253214213
 20
14.999999999899179
 30
0.0
 42
0.4663076581553401
  0
VERTEX
  5
1D58
  8
SAPA_GLAS
 10
60.311266129723961
 20
15.58682408873006
 30
0.0
  0
VERTEX
  5
1D59
  8
SAPA_GLAS
 10
59.107596123681347
 20
22.4131759110724
 30
0.0
 42
-0.4142135623725707
  0
VERTEX
  5
1D5A
  8
SAPA_GLAS
 10
59.513175911353613
 20
22.992403876408648
 30
0.0
  0
VERTEX
  5
1D5B
  8
SAPA_GLAS
 10
64.454557674286093
 20
23.863702803163051
 30
0.0
 42
0.4142135623730951
  0
VERTEX
  5
1D5C
  8
SAPA_GLAS
 10
64.697905546887682
 20
24.211239582365121
 30
0.0
  0
VERTEX
  5
1D5D
  8
SAPA_GLAS
 10
64.628446275822554
 20
24.605162683568171
 30
0.0
 42
0.4142135623736183
  0
VERTEX
  5
1D5E
  8
SAPA_GLAS
 10
64.280909496629505
 20
24.848510556173931
 30
0.0
  0
VERTEX
  5
1D5F
  8
SAPA_GLAS
 10
59.964964657122891
 20
24.08749303375199
 30
0.0
 42
-0.5773502691875974
  0
VERTEX
  5
1D60
  8
SAPA_GLAS
 10
59.742296497429699
 20
24.352858613021159
 30
0.0
  0
VERTEX
  5
1D61
  8
SAPA_GLAS
 10
59.750745504938379
 20
24.37607207033896
 30
0.0
 42
0.4142135623732762
  0
VERTEX
  5
1D62
  8
SAPA_GLAS
 10
59.571443761699093
 20
24.760585899574728
 30
0.0
  0
VERTEX
  5
1D63
  8
SAPA_GLAS
 10
59.383505237540341
 20
24.828989928241729
 30
0.0
 42
0.4142135623734131
  0
VERTEX
  5
1D64
  8
SAPA_GLAS
 10
58.742648855483452
 20
24.53015368951554
 30
0.0
  0
VERTEX
  5
1D65
  8
SAPA_GLAS
 10
58.19046106901262
 20
23.01303021489845
 30
0.0
 42
0.1316524975872963
  0
VERTEX
  5
1D66
  8
SAPA_GLAS
 10
58.122788370665667
 20
22.239527733409911
 30
0.0
  0
VERTEX
  5
1D67
  8
SAPA_GLAS
 10
59.181596288992949
 20
16.234729635437219
 30
0.0
 42
-0.4663076581547951
  0
VERTEX
  5
1D68
  8
SAPA_GLAS
 10
58.984634738389012
 20
15.999999999905221
 30
0.0
  0
VERTEX
  5
1D69
  8
SAPA_GLAS
 10
29.01536526189274
 20
16.00000000009603
 30
0.0
 42
-0.466307658154795
  0
VERTEX
  5
1D6A
  8
SAPA_GLAS
 10
28.818403711291769
 20
16.234729635630529
 30
0.0
  0
SEQEND
  5
1D6B
  8
SAPA_GLAS
  0
POLYLINE
  5
1723
  8
SAPA_GLAS
 66
     1
 10
0.0
 20
0.0
 30
0.0
  0
VERTEX
  5
1D6C
  8
SAPA_GLAS
 10
58.00000000013469
 20
48.999999999999872
 30
0.0
  0
VERTEX
  5
1D6D
  8
SAPA_GLAS
 10
58.000000000134683
 20
16.999999999999879
 30
0.0
  0
VERTEX
  5
1D6E
  8
SAPA_GLAS
 10
54.000000000134662
 20
16.999999999999879
 30
0.0
  0
VERTEX
  5
1D6F
  8
SAPA_GLAS
 10
54.00000000013469
 20
48.999999999999872
 30
0.0
  0
SEQEND
  5
1D70
  8
SAPA_GLAS
  0
POLYLINE
  5
1724
  8
SAPA_GLAS
 66
     1
 10
0.0
 20
0.0
 30
0.0
  0
VERTEX
  5
1D71
  8
SAPA_GLAS
 10
34.00000000013452
 20
26.999999999999901
 30
0.0
  0
VERTEX
  5
1D72
  8
SAPA_GLAS
 10
54.000000000134513
 20
26.99999999999989
 30
0.0
  0
VERTEX
  5
1D73
  8
SAPA_GLAS
 10
54.000000000134499
 20
16.999999999999869
 30
0.0
  0
VERTEX
  5
1D74
  8
SAPA_GLAS
 10
34.000000000134499
 20
16.999999999999901
 30
0.0
  0
VERTEX
  5
1D75
  8
SAPA_GLAS
 10
34.00000000013452
 20
26.999999999999901
 30
0.0
  0
SEQEND
  5
1D76
  8
SAPA_GLAS
  0
POLYLINE
  5
1725
  8
SAPA_GLAS
 66
     1
 10
0.0
 20
0.0
 30
0.0
  0
VERTEX
  5
1D77
  8
SAPA_GLAS
 10
30.000000000134541
 20
48.999999999999901
 30
0.0
  0
VERTEX
  5
1D78
  8
SAPA_GLAS
 10
30.000000000134499
 20
16.999999999999901
 30
0.0
  0
VERTEX
  5
1D79
  8
SAPA_GLAS
 10
34.000000000134499
 20
16.999999999999901
 30
0.0
  0
VERTEX
  5
1D7A
  8
SAPA_GLAS
 10
34.000000000134541
 20
48.999999999999901
 30
0.0
  0
SEQEND
  5
1D7B
  8
SAPA_GLAS
  0
INSERT
  5
1726
  8
SAPA_GLAS
  6
CONTINUOUS
  2
*X47
 10
0.0
 20
0.0
 30
0.0
1001
ACAD
1000
HATCH
1002
{
1070
    19
1000
ANSI37
1040
0.25
1040
3.1415926535897918
1000
R14_HATCH_DATA
1000
1726
1011
1.0
1021
0.0
1031
0.0
1021
0.0
1031
0.0
1011
0.0
1021
0.0
1031
0.0
1021
1.0
1031
0.0
1011
0.0
1021
0.0
1031
0.0
1021
0.0
1031
1.0
1040
0.0
1010
0.0
1020
0.0
1030
1.0
1000
ANSI37
1070
     0
1070
     0
1071
        1
1071
        7
1070
     1
1070
     1
1071
       21
1040
30.000000000134509
1040
29.80000000000291
1040
-0.1011549434925542
1040
25.999999999773198
1040
29.800000000075961
1040
0.0
1040
25.999999999780481
1040
28.70000000000427
1040
-0.4142135623731029
1040
25.799999999783392
1040
28.500000000003539
1040
0.0
1040
24.999999999780481
1040
28.500000000014449
1040
0.4142135623730951
1040
24.499999999780481
1040
28.00000000001447
1040
0.0
1040
24.500000000260659
1040
27.000000000003549
1040
0.414213562373094
1040
25.000000000260659
1040
26.500000000003539
1040
0.0
1040
25.800000000270849
1040
26.500000000003539
1040
-0.4142135623731048
1040
26.000000000260659
1040
26.300000000002811
1040
0.0
1040
26.000000000260659
1040
25.20000000000427
1040
-0.4142135618575339
1040
25.800000000622902
1040
25.000000000003539
1040
0.0
1040
25.711346680954762
1040
24.49722203989937
1040
0.0
1040
28.035035343261828
1040
24.08749303395528
1040
0.5773502691875974
1040
28.2577035029584
1040
24.35285861322162
1040
0.0
1040
28.249254495450021
1040
24.376072070539529
1040
-0.4142135623732763
1040
28.428556238694188
1040
24.760585899773009
1040
0.0
1040
28.616494762853812
1040
24.828989928437611
1040
-0.4142135623734132
1040
29.257351144906899
1040
24.530153689703258
1040
0.0
1040
29.809538931424171
1040
23.01303021489846
1040
0.0
1040
30.000000000134509
1040
23.01303021489846
1040
0.0
1071
        0
1070
     0
1070
     1
1040
3.1415926535897918
1040
0.25
1070
     0
1070
     2
1040
3.9269908169872401
1040
67.499999999688598
1040
30.000000000003521
1040
0.5612660075668217
1040
-0.5612660075668225
1070
     0
1040
5.4977871437821371
1040
67.499999999688598
1040
30.000000000003521
1040
0.5612660075668225
1040
0.5612660075668217
1070
     0
1040
0.0554184978666472
1071
        1
1040
27.977469987124529
1040
27.385192219498968
1040
0.0
1002
}
  0
INSERT
  5
1727
  8
SAPA_GLAS
  6
CONTINUOUS
  2
*X48
 10
0.0
 20
0.0
 30
0.0
1001
ACAD
1000
HATCH
1002
{
1070
    19
1000
ANSI37
1040
0.25
1040
3.1415926535897918
1000
R14_HATCH_DATA
1000
1727
1011
1.0
1021
0.0
1031
0.0
1021
0.0
1031
0.0
1011
0.0
1021
0.0
1031
0.0
1021
1.0
1031
0.0
1011
0.0
1021
0.0
1031
0.0
1021
0.0
1031
1.0
1040
0.0
1010
0.0
1020
0.0
1030
1.0
1000
ANSI37
1070
     0
1070
     0
1071
        1
1071
        7
1070
     1
1070
     1
1071
       21
1040
58.000000000134683
1040
23.01303021489845
1040
0.0
1040
58.19046106901262
1040
23.01303021489845
1040
0.0
1040
58.742648855483452
1040
24.53015368951554
1040
-0.4142135623734131
1040
59.383505237540341
1040
24.828989928241729
1040
0.0
1040
59.571443761699093
1040
24.760585899574728
1040
-0.4142135623732763
1040
59.750745504938379
1040
24.37607207033896
1040
0.0
1040
59.742296497429699
1040
24.352858613021159
1040
0.5773502691875974
1040
59.964964657122891
1040
24.08749303375199
1040
0.0
1040
62.288653319357728
1040
24.497222039652829
1040
0.0
1040
62.199999999646117
1040
25.00000000000357
1040
-0.4142135623811048
1040
61.999999999650839
1040
25.200000000004302
1040
0.0
1040
61.999999999650839
1040
26.30000000000285
1040
-0.4142135623731048
1040
62.19999999964066
1040
26.50000000000357
1040
0.0
1040
62.999999999650839
1040
26.50000000000357
1040
0.414213562373094
1040
63.499999999650854
1040
27.000000000003581
1040
0.0
1040
63.500000000131031
1040
28.000000000014499
1040
0.4142135623730951
1040
63.000000000131038
1040
28.500000000014492
1040
0.0
1040
62.200000000128128
1040
28.500000000003581
1040
-0.4142135623731029
1040
62.000000000131038
1040
28.700000000004302
1040
0.0
1040
62.000000000138307
1040
29.800000000002861
1040
-0.101154943483322
1040
58.000000000134683
1040
29.800000000002861
1040
0.0
1071
        0
1070
     0
1070
     1
1040
3.1415926535897918
1040
0.25
1070
     0
1070
     2
1040
3.9269908169872401
1040
67.499999999688598
1040
30.000000000003521
1040
0.5612660075668217
1040
-0.5612660075668225
1070
     0
1040
5.4977871437821371
1040
67.499999999688598
1040
30.000000000003521
1040
0.5612660075668225
1040
0.5612660075668217
1070
     0
1040
0.0245236365555031
1071
        1
1040
59.942981476703586
1040
26.809426762816461
1040
0.0
1002
}
  0
LINE
  5
1728
  8
SAPA_GLAS
 10
95.499999999734769
 20
-7.8000000016274589
 30
0.0
 11
94.997222039384042
 21
-7.7113466819158409
 31
0.0
  0
LINE
  5
1729
  8
SAPA_GLAS
 10
93.513030214629637
 20
-11.80953893226096
 30
0.0
 11
93.513030214629637
 21
-12.000000001138909
 31
0.0
  0
ARC
  5
172A
  8
SAPA_GLAS
 10
110.084669372546
 20
-10.000000001137099
 30
0.0
 40
9.9869792597787779
 50
168.4477923542679
 51
191.5522076457321
  0
LINE
  5
172B
  8
SAPA_GLAS
 10
95.499999999734754
 20
-44.200000000650668
 30
0.0
 11
94.997222039384013
 21
-44.288653320362293
 31
0.0
  0
LINE
  5
172C
  8
SAPA_GLAS
 10
93.513030214629623
 20
-40.190461070017172
 30
0.0
 11
93.513030214629623
 21
-40.000000001139227
 31
0.0
  0
ARC
  5
172D
  8
SAPA_GLAS
 10
110.084669372546
 20
-42.000000001141053
 30
0.0
 40
9.9869792597787779
 50
168.4477923542679
 51
191.5522076457321
  0
POLYLINE
  5
172E
  8
SAPA_GLAS
 66
     1
 10
0.0
 20
0.0
 30
0.0
 70
     1
  0
VERTEX
  5
1DAD
  8
SAPA_GLAS
 10
92.739527733320926
 20
-11.87721163070008
 30
0.0
 42
0.1316524975872964
  0
VERTEX
  5
1DAE
  8
SAPA_GLAS
 10
93.513030214810314
 20
-11.809538932362971
 30
0.0
  0
VERTEX
  5
1DAF
  8
SAPA_GLAS
 10
95.030153689434442
 20
-11.25735114591145
 30
0.0
 42
0.4142135623734131
  0
VERTEX
  5
1DB0
  8
SAPA_GLAS
 10
95.328989928168795
 20
-10.616494763858361
 30
0.0
  0
VERTEX
  5
1DB1
  8
SAPA_GLAS
 10
95.260585899504193
 20
-10.428556239698739
 30
0.0
 42
0.4142135623732762
  0
VERTEX
  5
1DB2
  8
SAPA_GLAS
 10
94.876072070270709
 20
-10.24925449645457
 30
0.0
  0
VERTEX
  5
1DB3
  8
SAPA_GLAS
 10
94.852858612952787
 20
-10.257703503962951
 30
0.0
 42
-0.5773502691875974
  0
VERTEX
  5
1DB4
  8
SAPA_GLAS
 10
94.587493033686457
 20
-10.03503534426638
 30
0.0
  0
VERTEX
  5
1DB5
  8
SAPA_GLAS
 10
95.348510556163333
 20
-5.7190905047694818
 30
0.0
 42
0.4142135623736183
  0
VERTEX
  5
1DB6
  8
SAPA_GLAS
 10
95.105162683562028
 20
-5.3715537255732917
 30
0.0
  0
VERTEX
  5
1DB7
  8
SAPA_GLAS
 10
94.711239582359852
 20
-5.3020944545031758
 30
0.0
 42
0.4142135623730951
  0
VERTEX
  5
1DB8
  8
SAPA_GLAS
 10
94.363702803154695
 20
-5.5454423271003321
 30
0.0
  0
VERTEX
  5
1DB9
  8
SAPA_GLAS
 10
93.492403876337377
 20
-10.48682409002172
 30
0.0
 42
-0.4142135623725704
  0
VERTEX
  5
1DBA
  8
SAPA_GLAS
 10
92.913175910995975
 20
-10.892403877686601
 30
0.0
  0
VERTEX
  5
1DBB
  8
SAPA_GLAS
 10
86.086824088668877
 20
-9.6887338715537368
 30
0.0
 42
0.4663076581553405
  0
VERTEX
  5
1DBC
  8
SAPA_GLAS
 10
85.4999999998318
 20
-10.18113774805934
 30
0.0
  0
VERTEX
  5
1DBD
  8
SAPA_GLAS
 10
85.499999999630361
 20
-41.818862254218757
 30
0.0
 42
0.4663076581553401
  0
VERTEX
  5
1DBE
  8
SAPA_GLAS
 10
86.086824088461242
 20
-42.311266130728512
 30
0.0
  0
VERTEX
  5
1DBF
  8
SAPA_GLAS
 10
92.913175910803574
 20
-41.107596124685898
 30
0.0
 42
-0.4142135623725707
  0
VERTEX
  5
1DC0
  8
SAPA_GLAS
 10
93.492403876139832
 20
-41.513175912358157
 30
0.0
  0
VERTEX
  5
1DC1
  8
SAPA_GLAS
 10
94.363702802894224
 20
-46.45455767529063
 30
0.0
 42
0.4142135623730951
  0
VERTEX
  5
1DC2
  8
SAPA_GLAS
 10
94.711239582096283
 20
-46.697905547892233
 30
0.0
  0
VERTEX
  5
1DC3
  8
SAPA_GLAS
 10
95.105162683299355
 20
-46.628446276827098
 30
0.0
 42
0.4142135623736183
  0
VERTEX
  5
1DC4
  8
SAPA_GLAS
 10
95.348510555905108
 20
-46.280909497634049
 30
0.0
  0
VERTEX
  5
1DC5
  8
SAPA_GLAS
 10
94.587493033483184
 20
-41.964964658127442
 30
0.0
 42
-0.5773502691875974
  0
VERTEX
  5
1DC6
  8
SAPA_GLAS
 10
94.852858612752357
 20
-41.74229649843425
 30
0.0
  0
VERTEX
  5
1DC7
  8
SAPA_GLAS
 10
94.876072070070137
 20
-41.75074550594293
 30
0.0
 42
0.4142135623732762
  0
VERTEX
  5
1DC8
  8
SAPA_GLAS
 10
95.260585899305894
 20
-41.571443762703638
 30
0.0
  0
VERTEX
  5
1DC9
  8
SAPA_GLAS
 10
95.328989927972898
 20
-41.383505238544892
 30
0.0
 42
0.4142135623734131
  0
VERTEX
  5
1DCA
  8
SAPA_GLAS
 10
95.030153689246717
 20
-40.742648856488003
 30
0.0
  0
VERTEX
  5
1DCB
  8
SAPA_GLAS
 10
93.513030214629623
 20
-40.190461070017172
 30
0.0
 42
0.1316524975872963
  0
VERTEX
  5
1DCC
  8
SAPA_GLAS
 10
92.739527733141088
 20
-40.122788371670211
 30
0.0
  0
VERTEX
  5
1DCD
  8
SAPA_GLAS
 10
86.734729635168407
 20
-41.181596289997501
 30
0.0
 42
-0.4663076581547951
  0
VERTEX
  5
1DCE
  8
SAPA_GLAS
 10
86.499999999636401
 20
-40.984634739393549
 30
0.0
  0
VERTEX
  5
1DCF
  8
SAPA_GLAS
 10
86.49999999982721
 20
-11.015365262897291
 30
0.0
 42
-0.466307658154795
  0
VERTEX
  5
1DD0
  8
SAPA_GLAS
 10
86.734729635361717
 20
-10.818403712296311
 30
0.0
  0
SEQEND
  5
1DD1
  8
SAPA_GLAS
  0
POLYLINE
  5
172F
  8
SAPA_GLAS
 66
     1
 10
0.0
 20
0.0
 30
0.0
  0
VERTEX
  5
1DD2
  8
SAPA_GLAS
 10
119.499999999731
 20
-40.000000001139227
 30
0.0
  0
VERTEX
  5
1DD3
  8
SAPA_GLAS
 10
87.499999999731045
 20
-40.00000000113922
 30
0.0
  0
VERTEX
  5
1DD4
  8
SAPA_GLAS
 10
87.499999999731045
 20
-36.00000000113922
 30
0.0
  0
VERTEX
  5
1DD5
  8
SAPA_GLAS
 10
119.499999999731
 20
-36.000000001139242
 30
0.0
  0
SEQEND
  5
1DD6
  8
SAPA_GLAS
  0
POLYLINE
  5
1730
  8
SAPA_GLAS
 66
     1
 10
0.0
 20
0.0
 30
0.0
  0
VERTEX
  5
1DD7
  8
SAPA_GLAS
 10
97.499999999731074
 20
-16.000000001139071
 30
0.0
  0
VERTEX
  5
1DD8
  8
SAPA_GLAS
 10
97.499999999731045
 20
-36.000000001139071
 30
0.0
  0
VERTEX
  5
1DD9
  8
SAPA_GLAS
 10
87.499999999731045
 20
-36.000000001139057
 30
0.0
  0
VERTEX
  5
1DDA
  8
SAPA_GLAS
 10
87.499999999731074
 20
-16.00000000113905
 30
0.0
  0
VERTEX
  5
1DDB
  8
SAPA_GLAS
 10
97.499999999731074
 20
-16.000000001139071
 30
0.0
  0
SEQEND
  5
1DDC
  8
SAPA_GLAS
  0
POLYLINE
  5
1731
  8
SAPA_GLAS
 66
     1
 10
0.0
 20
0.0
 30
0.0
  0
VERTEX
  5
1DDD
  8
SAPA_GLAS
 10
119.4999999997311
 20
-12.00000000113908
 30
0.0
  0
VERTEX
  5
1DDE
  8
SAPA_GLAS
 10
87.499999999731088
 20
-12.00000000113905
 30
0.0
  0
VERTEX
  5
1DDF
  8
SAPA_GLAS
 10
87.499999999731074
 20
-16.00000000113905
 30
0.0
  0
VERTEX
  5
1DE0
  8
SAPA_GLAS
 10
119.499999999731
 20
-16.000000001139082
 30
0.0
  0
SEQEND
  5
1DE1
  8
SAPA_GLAS
  0
INSERT
  5
1732
  8
SAPA_GLAS
  6
CONTINUOUS
  2
*X49
 10
0.0
 20
0.0
 30
0.0
1001
ACAD
1000
HATCH
1002
{
1070
    19
1000
ANSI37
1040
0.25
1040
1.570796326794895
1000
R14_HATCH_DATA
1000
1732
1011
1.0
1021
0.0
1031
0.0
1021
0.0
1031
0.0
1011
0.0
1021
0.0
1031
0.0
1021
1.0
1031
0.0
1011
0.0
1021
0.0
1031
0.0
1021
0.0
1031
1.0
1040
0.0
1010
0.0
1020
0.0
1030
1.0
1000
ANSI37
1070
     0
1070
     0
1071
        1
1071
        7
1070
     1
1070
     1
1071
       21
1040
100.2999999997341
1040
-12.00000000113906
1040
-0.1011549434925542
1040
100.2999999998071
1040
-8.0000000007777512
1040
0.0
1040
99.199999999735454
1040
-8.0000000007850272
1040
-0.4142135623731029
1040
98.99999999973474
1040
-7.8000000007879393
1040
0.0
1040
98.999999999745626
1040
-7.000000000785028
1040
0.4142135623730951
1040
98.499999999745654
1040
-6.500000000785028
1040
0.0
1040
97.499999999734726
1040
-6.5000000012652128
1040
0.414213562373094
1040
96.999999999734726
1040
-7.0000000012652128
1040
0.0
1040
96.999999999734726
1040
-7.8000000012754001
1040
-0.4142135623731048
1040
96.799999999733998
1040
-8.0000000012652137
1040
0.0
1040
95.699999999735454
1040
-8.0000000012652137
1040
-0.4142135618575339
1040
95.499999999734726
1040
-7.8000000016274518
1040
0.0
1040
94.997222039630557
1040
-7.7113466819593119
1040
0.0
1040
94.587493033686457
1040
-10.03503534426638
1040
0.5773502691875974
1040
94.852858612952787
1040
-10.257703503962951
1040
0.0
1040
94.876072070270709
1040
-10.24925449645457
1040
-0.4142135623732763
1040
95.260585899504193
1040
-10.428556239698739
1040
0.0
1040
95.328989928168795
1040
-10.616494763858361
1040
-0.4142135623734132
1040
95.030153689434442
1040
-11.25735114591145
1040
0.0
1040
93.513030214629637
1040
-11.809538932428721
1040
0.0
1040
93.513030214629637
1040
-12.00000000113905
1040
0.0
1071
        0
1070
     0
1070
     1
1040
1.570796326794895
1040
0.25
1070
     0
1070
     2
1040
2.3561944901923431
1040
100.4999999997347
1040
-49.500000000693149
1040
-0.5612660075668225
1040
-0.5612660075668216
1070
     0
1040
3.9269908169872401
1040
100.4999999997347
1040
-49.500000000693149
1040
0.5612660075668216
1040
-0.5612660075668225
1070
     0
1040
0.0554184978666472
1071
        1
1040
97.885192219230149
1040
-9.97746998812908
1040
0.0
1002
}
  0
INSERT
  5
1733
  8
SAPA_GLAS
  6
CONTINUOUS
  2
*X50
 10
0.0
 20
0.0
 30
0.0
1001
ACAD
1000
HATCH
1002
{
1070
    19
1000
ANSI37
1040
0.25
1040
1.570796326794895
1000
R14_HATCH_DATA
1000
1733
1011
1.0
1021
0.0
1031
0.0
1021
0.0
1031
0.0
1011
0.0
1021
0.0
1031
0.0
1021
1.0
1031
0.0
1011
0.0
1021
0.0
1031
0.0
1021
0.0
1031
1.0
1040
0.0
1010
0.0
1020
0.0
1030
1.0
1000
ANSI37
1070
     0
1070
     0
1071
        1
1071
        7
1070
     1
1070
     1
1071
       21
1040
93.513030214629623
1040
-40.000000001139227
1040
0.0
1040
93.513030214629623
1040
-40.190461070017172
1040
0.0
1040
95.030153689246717
1040
-40.742648856488003
1040
-0.4142135623734131
1040
95.328989927972898
1040
-41.383505238544892
1040
0.0
1040
95.260585899305894
1040
-41.571443762703638
1040
-0.4142135623732763
1040
94.876072070070137
1040
-41.75074550594293
1040
0.0
1040
94.852858612752357
1040
-41.74229649843425
1040
0.5773502691875974
1040
94.587493033483184
1040
-41.964964658127442
1040
0.0
1040
94.997222039384013
1040
-44.288653320362279
1040
0.0
1040
95.499999999734754
1040
-44.200000000650668
1040
-0.4142135623811048
1040
95.699999999735482
1040
-44.00000000065539
1040
0.0
1040
96.799999999734041
1040
-44.00000000065539
1040
-0.4142135623731048
1040
96.999999999734754
1040
-44.200000000645211
1040
0.0
1040
96.999999999734754
1040
-45.00000000065539
1040
0.414213562373094
1040
97.499999999734754
1040
-45.500000000655398
1040
0.0
1040
98.499999999745697
1040
-45.500000001135582
1040
0.4142135623730951
1040
98.999999999745683
1040
-45.000000001135582
1040
0.0
1040
98.999999999734754
1040
-44.200000001132679
1040
-0.4142135623731029
1040
99.199999999735482
1040
-44.000000001135589
1040
0.0
1040
100.299999999734
1040
-44.000000001142858
1040
-0.101154943483322
1040
100.299999999734
1040
-40.000000001139227
1040
0.0
1071
        0
1070
     0
1070
     1
1040
1.570796326794895
1040
0.25
1070
     0
1070
     2
1040
2.3561944901923431
1040
100.4999999997347
1040
-49.500000000693149
1040
-0.5612660075668225
1040
-0.5612660075668216
1070
     0
1040
3.9269908169872401
1040
100.4999999997347
1040
-49.500000000693149
1040
0.5612660075668216
1040
-0.5612660075668225
1070
     0
1040
0.0245236365555031
1071
        1
1040
97.309426762547631
1040
-41.942981477708138
1040
0.0
1002
}
  0
POLYLINE
  5
1746
  8
SAPA_FOGBAND
 66
     1
 10
0.0
 20
0.0
 30
0.0
 70
     1
  0
VERTEX
  5
1E99
  8
SAPA_FOGBAND
 10
71.74999999979994
 20
-4.3500000006227557
 30
0.0
  0
VERTEX
  5
1E9A
  8
SAPA_FOGBAND
 10
70.949999999799743
 20
-4.3500000006227557
 30
0.0
  0
VERTEX
  5
1E9B
  8
SAPA_FOGBAND
 10
70.949999999799743
 20
-10.650000000619841
 30
0.0
  0
VERTEX
  5
1E9C
  8
SAPA_FOGBAND
 10
71.74999999979994
 20
-10.650000000619841
 30
0.0
  0
SEQEND
  5
1E9D
  8
SAPA_FOGBAND
  0
POLYLINE
  5
1747
  8
SAPA_FOGBAND
 66
     1
 10
0.0
 20
0.0
 30
0.0
  0
VERTEX
  5
1E9E
  8
SAPA_FOGBAND
 10
70.949999999799743
 20
-9.0726896037623401
 30
0.0
  0
VERTEX
  5
1E9F
  8
SAPA_FOGBAND
 10
67.49999999979994
 20
-10.19813620107826
 30
0.0
  0
VERTEX
  5
1EA0
  8
SAPA_FOGBAND
 10
67.49999999979994
 20
-7.7599981545297263
 30
0.0
  0
VERTEX
  5
1EA1
  8
SAPA_FOGBAND
 10
70.949999999799743
 20
-7.6500000006227529
 30
0.0
  0
SEQEND
  5
1EA2
  8
SAPA_FOGBAND
  0
POLYLINE
  5
1748
  8
SAPA_FOGBAND
 66
     1
 10
0.0
 20
0.0
 30
0.0
  0
VERTEX
  5
1EA3
  8
SAPA_FOGBAND
 10
70.949999999799743
 20
-7.5750000006220262
 30
0.0
  0
VERTEX
  5
1EA4
  8
SAPA_FOGBAND
 10
67.49999999979994
 20
-7.5750000006187523
 30
0.0
  0
VERTEX
  5
1EA5
  8
SAPA_FOGBAND
 10
67.49999999979994
 20
-7.4250000006205648
 30
0.0
  0
VERTEX
  5
1EA6
  8
SAPA_FOGBAND
 10
70.949999999799743
 20
-7.4250000006205701
 30
0.0
  0
SEQEND
  5
1EA7
  8
SAPA_FOGBAND
  0
POLYLINE
  5
1749
  8
SAPA_FOGBAND
 66
     1
 10
0.0
 20
0.0
 30
0.0
  0
VERTEX
  5
1EA8
  8
SAPA_FOGBAND
 10
70.949999999799743
 20
-7.3500000006198434
 30
0.0
  0
VERTEX
  5
1EA9
  8
SAPA_FOGBAND
 10
67.49999999979994
 20
-7.2400026154375974
 30
0.0
  0
VERTEX
  5
1EAA
  8
SAPA_FOGBAND
 10
67.49999999979994
 20
-4.8019092750154337
 30
0.0
  0
VERTEX
  5
1EAB
  8
SAPA_FOGBAND
 10
70.949999999799743
 20
-5.9273103974802552
 30
0.0
  0
SEQEND
  5
1EAC
  8
SAPA_FOGBAND
  0
POLYLINE
  5
174A
  8
SAPA_FOGBAND
 66
     1
 10
0.0
 20
0.0
 30
0.0
 70
     1
  0
VERTEX
  5
1EAD
  8
SAPA_FOGBAND
 10
16.250000000490669
 20
-12.850000000667251
 30
0.0
  0
VERTEX
  5
1EAE
  8
SAPA_FOGBAND
 10
17.050000000490851
 20
-12.850000000667251
 30
0.0
  0
VERTEX
  5
1EAF
  8
SAPA_FOGBAND
 10
17.050000000490851
 20
-19.150000000664331
 30
0.0
  0
VERTEX
  5
1EB0
  8
SAPA_FOGBAND
 10
16.250000000490669
 20
-19.150000000664331
 30
0.0
  0
SEQEND
  5
1EB1
  8
SAPA_FOGBAND
  0
POLYLINE
  5
174B
  8
SAPA_FOGBAND
 66
     1
 10
0.0
 20
0.0
 30
0.0
  0
VERTEX
  5
1EB2
  8
SAPA_FOGBAND
 10
17.050000000490851
 20
-17.572689603806829
 30
0.0
  0
VERTEX
  5
1EB3
  8
SAPA_FOGBAND
 10
20.500000000490669
 20
-18.698136201122761
 30
0.0
  0
VERTEX
  5
1EB4
  8
SAPA_FOGBAND
 10
20.500000000490669
 20
-16.25999815457422
 30
0.0
  0
VERTEX
  5
1EB5
  8
SAPA_FOGBAND
 10
17.050000000490851
 20
-16.150000000667251
 30
0.0
  0
SEQEND
  5
1EB6
  8
SAPA_FOGBAND
  0
POLYLINE
  5
174C
  8
SAPA_FOGBAND
 66
     1
 10
0.0
 20
0.0
 30
0.0
  0
VERTEX
  5
1EB7
  8
SAPA_FOGBAND
 10
17.050000000490851
 20
-16.07500000066652
 30
0.0
  0
VERTEX
  5
1EB8
  8
SAPA_FOGBAND
 10
20.500000000490669
 20
-16.075000000663241
 30
0.0
  0
VERTEX
  5
1EB9
  8
SAPA_FOGBAND
 10
20.500000000490669
 20
-15.92500000066506
 30
0.0
  0
VERTEX
  5
1EBA
  8
SAPA_FOGBAND
 10
17.050000000490851
 20
-15.92500000066506
 30
0.0
  0
SEQEND
  5
1EBB
  8
SAPA_FOGBAND
  0
POLYLINE
  5
174D
  8
SAPA_FOGBAND
 66
     1
 10
0.0
 20
0.0
 30
0.0
  0
VERTEX
  5
1EBC
  8
SAPA_FOGBAND
 10
17.050000000490851
 20
-15.850000000664339
 30
0.0
  0
VERTEX
  5
1EBD
  8
SAPA_FOGBAND
 10
20.500000000490669
 20
-15.740002615482091
 30
0.0
  0
VERTEX
  5
1EBE
  8
SAPA_FOGBAND
 10
20.500000000490669
 20
-13.301909275059931
 30
0.0
  0
VERTEX
  5
1EBF
  8
SAPA_FOGBAND
 10
17.050000000490851
 20
-14.427310397524749
 30
0.0
  0
SEQEND
  5
1EC0
  8
SAPA_FOGBAND
  0
POLYLINE
  5
174E
  8
SAPA_FOGBAND
 66
     1
 10
0.0
 20
0.0
 30
0.0
 70
     1
  0
VERTEX
  5
1EC1
  8
SAPA_FOGBAND
 10
16.25000000049064
 20
-4.3500000006563653
 30
0.0
  0
VERTEX
  5
1EC2
  8
SAPA_FOGBAND
 10
17.050000000490819
 20
-4.3500000006563653
 30
0.0
  0
VERTEX
  5
1EC3
  8
SAPA_FOGBAND
 10
17.050000000490819
 20
-10.650000000653449
 30
0.0
  0
VERTEX
  5
1EC4
  8
SAPA_FOGBAND
 10
16.25000000049064
 20
-10.650000000653449
 30
0.0
  0
SEQEND
  5
1EC5
  8
SAPA_FOGBAND
  0
POLYLINE
  5
174F
  8
SAPA_FOGBAND
 66
     1
 10
0.0
 20
0.0
 30
0.0
  0
VERTEX
  5
1EC6
  8
SAPA_FOGBAND
 10
17.050000000490819
 20
-9.0726896037959506
 30
0.0
  0
VERTEX
  5
1EC7
  8
SAPA_FOGBAND
 10
20.50000000049064
 20
-10.19813620111187
 30
0.0
  0
VERTEX
  5
1EC8
  8
SAPA_FOGBAND
 10
20.50000000049064
 20
-7.7599981545633341
 30
0.0
  0
VERTEX
  5
1EC9
  8
SAPA_FOGBAND
 10
17.050000000490819
 20
-7.6500000006563624
 30
0.0
  0
SEQEND
  5
1ECA
  8
SAPA_FOGBAND
  0
POLYLINE
  5
1750
  8
SAPA_FOGBAND
 66
     1
 10
0.0
 20
0.0
 30
0.0
  0
VERTEX
  5
1ECB
  8
SAPA_FOGBAND
 10
17.050000000490819
 20
-7.5750000006556339
 30
0.0
  0
VERTEX
  5
1ECC
  8
SAPA_FOGBAND
 10
20.50000000049064
 20
-7.575000000652361
 30
0.0
  0
VERTEX
  5
1ECD
  8
SAPA_FOGBAND
 10
20.50000000049064
 20
-7.4250000006541743
 30
0.0
  0
VERTEX
  5
1ECE
  8
SAPA_FOGBAND
 10
17.050000000490819
 20
-7.4250000006541788
 30
0.0
  0
SEQEND
  5
1ECF
  8
SAPA_FOGBAND
  0
POLYLINE
  5
1751
  8
SAPA_FOGBAND
 66
     1
 10
0.0
 20
0.0
 30
0.0
  0
VERTEX
  5
1ED0
  8
SAPA_FOGBAND
 10
17.050000000490819
 20
-7.350000000653452
 30
0.0
  0
VERTEX
  5
1ED1
  8
SAPA_FOGBAND
 10
20.50000000049064
 20
-7.240002615471206
 30
0.0
  0
VERTEX
  5
1ED2
  8
SAPA_FOGBAND
 10
20.50000000049064
 20
-4.8019092750490433
 30
0.0
  0
VERTEX
  5
1ED3
  8
SAPA_FOGBAND
 10
17.050000000490819
 20
-5.927310397513863
 30
0.0
  0
SEQEND
  5
1ED4
  8
SAPA_FOGBAND
  0
POLYLINE
  5
1752
  8
SAPA_FOGBAND
 66
     1
 10
0.0
 20
0.0
 30
0.0
 70
     1
  0
VERTEX
  5
1ED5
  8
SAPA_FOGBAND
 10
58.500000000198114
 20
-29.8659006204078
 30
0.0
 42
0.1850472530618334
  0
VERTEX
  5
1ED6
  8
SAPA_FOGBAND
 10
60.773218483501559
 20
-34.056924462708317
 30
0.0
  0
VERTEX
  5
1ED7
  8
SAPA_FOGBAND
 10
69.22773571224856
 20
-39.547352108949021
 30
0.0
 42
-0.9741568709149724
  0
VERTEX
  5
1ED8
  8
SAPA_FOGBAND
 10
68.705416197499517
 20
-40.399700096506521
 30
0.0
  0
VERTEX
  5
1ED9
  8
SAPA_FOGBAND
 10
59.61648116505026
 20
-35.152201048102711
 30
0.0
 42
0.1225854743533026
  0
VERTEX
  5
1EDA
  8
SAPA_FOGBAND
 10
58.117012069032469
 20
-34.750277311288428
 30
0.0
  0
VERTEX
  5
1EDB
  8
SAPA_FOGBAND
 10
50.742217735483408
 20
-34.750277311227038
 30
0.0
 42
0.7231341048822281
  0
VERTEX
  5
1EDC
  8
SAPA_FOGBAND
 10
49.375551978757322
 20
-36.868520554192941
 30
0.0
 42
-0.2949636304573953
  0
VERTEX
  5
1EDD
  8
SAPA_FOGBAND
 10
48.988737315303112
 20
-42.450277311183868
 30
0.0
  0
VERTEX
  5
1EDE
  8
SAPA_FOGBAND
 10
46.250000000108948
 20
-42.450277311181033
 30
0.0
  0
VERTEX
  5
1EDF
  8
SAPA_FOGBAND
 10
45.630664716136792
 20
-41.496584606519647
 30
0.0
 42
-0.1449930994868795
  0
VERTEX
  5
1EE0
  8
SAPA_FOGBAND
 10
45.550000000112369
 20
-41.224265089020591
 30
0.0
  0
VERTEX
  5
1EE1
  8
SAPA_FOGBAND
 10
45.550000000114657
 20
-41.150277311173667
 30
0.0
 42
-0.4142135623645706
  0
VERTEX
  5
1EE2
  8
SAPA_FOGBAND
 10
46.050000000117841
 20
-40.650277311176851
 30
0.0
  0
VERTEX
  5
1EE3
  8
SAPA_FOGBAND
 10
46.437211533237459
 20
-40.650277311179309
 30
0.0
 42
0.3292444226696578
  0
VERTEX
  5
1EE4
  8
SAPA_FOGBAND
 10
47.010673067936978
 20
-40.226747898629228
 30
0.0
 42
1.4872944655697831
  0
VERTEX
  5
1EE5
  8
SAPA_FOGBAND
 10
40.989326932316452
 20
-40.226747898590979
 30
0.0
 42
0.3292444226696604
  0
VERTEX
  5
1EE6
  8
SAPA_FOGBAND
 10
41.562788467010577
 20
-40.650277311148344
 30
0.0
  0
VERTEX
  5
1EE7
  8
SAPA_FOGBAND
 10
41.950000000131119
 20
-40.650277311150802
 30
0.0
 42
-0.4142135623651035
  0
VERTEX
  5
1EE8
  8
SAPA_FOGBAND
 10
42.450000000128853
 20
-41.150277311139433
 30
0.0
  0
VERTEX
  5
1EE9
  8
SAPA_FOGBAND
 10
42.450000000130203
 20
-41.224265088993619
 30
0.0
 42
-0.1449930994868797
  0
VERTEX
  5
1EEA
  8
SAPA_FOGBAND
 10
42.369335284102291
 20
-41.496584606498921
 30
0.0
  0
VERTEX
  5
1EEB
  8
SAPA_FOGBAND
 10
41.750000000110767
 20
-42.450277311152448
 30
0.0
  0
VERTEX
  5
1EEC
  8
SAPA_FOGBAND
 10
39.011262684916623
 20
-42.450277311135054
 30
0.0
 42
-0.2484312924681684
  0
VERTEX
  5
1EED
  8
SAPA_FOGBAND
 10
38.624448021529702
 20
-36.86852055412465
 30
0.0
 42
0.5855924822446267
  0
VERTEX
  5
1EEE
  8
SAPA_FOGBAND
 10
37.257782264832329
 20
-34.750277311126823
 30
0.0
  0
VERTEX
  5
1EEF
  8
SAPA_FOGBAND
 10
29.883518845919031
 20
-34.750277264135491
 30
0.0
 42
0.1316524983794406
  0
VERTEX
  5
1EF0
  8
SAPA_FOGBAND
 10
28.383518835262201
 20
-35.152201047904292
 30
0.0
  0
VERTEX
  5
1EF1
  8
SAPA_FOGBAND
 10
19.294583802743361
 20
-40.399700096192007
 30
0.0
 42
-0.9741568709149699
  0
VERTEX
  5
1EF2
  8
SAPA_FOGBAND
 10
18.77226428801038
 20
-39.547352108616302
 30
0.0
  0
VERTEX
  5
1EF3
  8
SAPA_FOGBAND
 10
27.223195161624339
 20
-34.059253468749112
 30
0.0
 42
0.2539676473361846
  0
VERTEX
  5
1EF4
  8
SAPA_FOGBAND
 10
29.500000000189811
 20
-29.86590062022357
 30
0.0
  0
VERTEX
  5
1EF5
  8
SAPA_FOGBAND
 10
29.500000000204619
 20
-27.5360534102531
 30
0.0
 42
0.2216946624071653
  0
VERTEX
  5
1EF6
  8
SAPA_FOGBAND
 10
27.713938052107078
 20
-23.705831197521359
 30
0.0
  0
VERTEX
  5
1EF7
  8
SAPA_FOGBAND
 10
21.123160919182268
 20
-18.17551252597309
 30
0.0
 42
-1.126857075054595
  0
VERTEX
  5
1EF8
  8
SAPA_FOGBAND
 10
22.721269726334981
 20
-15.666984180747839
 30
0.0
  0
VERTEX
  5
1EF9
  8
SAPA_FOGBAND
 10
25.400547258917332
 20
-16.916351812532969
 30
0.0
 42
-0.0436609429066319
  0
VERTEX
  5
1EFA
  8
SAPA_FOGBAND
 10
25.7024636081278
 20
-17.090663298024769
 30
0.0
  0
VERTEX
  5
1EFB
  8
SAPA_FOGBAND
 10
27.524982819270829
 20
-18.366804988258512
 30
0.0
 42
-0.957291742260092
  0
VERTEX
  5
1EFC
  8
SAPA_FOGBAND
 10
27.095552244722331
 20
-19.040875967479032
 30
0.0
  0
VERTEX
  5
1EFD
  8
SAPA_FOGBAND
 10
25.055310735430599
 20
-17.86294198282414
 30
0.0
 42
0.0218200776225929
  0
VERTEX
  5
1EFE
  8
SAPA_FOGBAND
 10
24.977928997173379
 20
-17.822659599569558
 30
0.0
  0
VERTEX
  5
1EFF
  8
SAPA_FOGBAND
 10
22.29865146459036
 20
-16.573291967797509
 30
0.0
 42
0.2887584577560343
  0
VERTEX
  5
1F00
  8
SAPA_FOGBAND
 10
21.769801229802269
 20
-16.64022358421348
 30
0.0
 42
1.2247448713754381
  0
VERTEX
  5
1F01
  8
SAPA_FOGBAND
 10
21.588833471107559
 20
-16.9878594142331
 30
0.0
 42
0.2887584577534809
  0
VERTEX
  5
1F02
  8
SAPA_FOGBAND
 10
21.837342333716411
 20
-17.45945856319905
 30
0.0
  0
VERTEX
  5
1F03
  8
SAPA_FOGBAND
 10
27.350102818144929
 20
-21.321857718752049
 30
0.0
 42
0.1539147210599354
  0
VERTEX
  5
1F04
  8
SAPA_FOGBAND
 10
33.085867181649519
 20
-23.130337275895101
 30
0.0
  0
VERTEX
  5
1F05
  8
SAPA_FOGBAND
 10
54.914132818825351
 20
-23.13033727600466
 30
0.0
 42
0.1539147210595579
  0
VERTEX
  5
1F06
  8
SAPA_FOGBAND
 10
60.64989718235951
 20
-21.32185771892167
 30
0.0
  0
VERTEX
  5
1F07
  8
SAPA_FOGBAND
 10
66.199445884984613
 20
-17.43602188372698
 30
0.0
 42
0.2652670038588143
  0
VERTEX
  5
1F08
  8
SAPA_FOGBAND
 10
66.411166529422232
 20
-16.987859414508488
 30
0.0
 42
1.2247448713754421
  0
VERTEX
  5
1F09
  8
SAPA_FOGBAND
 10
66.230198770730624
 20
-16.640223584495949
 30
0.0
 42
0.288758457756027
  0
VERTEX
  5
1F0A
  8
SAPA_FOGBAND
 10
65.701348535943225
 20
-16.573291968066709
 30
0.0
  0
VERTEX
  5
1F0B
  8
SAPA_FOGBAND
 10
63.022071003346312
 20
-17.822659599809789
 30
0.0
 42
0.0218200776226741
  0
VERTEX
  5
1F0C
  8
SAPA_FOGBAND
 10
62.944689265084428
 20
-17.86294198306398
 30
0.0
  0
VERTEX
  5
1F0D
  8
SAPA_FOGBAND
 10
60.904447755780041
 20
-19.04087596769169
 30
0.0
 42
-0.9572917422600935
  0
VERTEX
  5
1F0E
  8
SAPA_FOGBAND
 10
60.475017181243018
 20
-18.366804988462761
 30
0.0
  0
VERTEX
  5
1F0F
  8
SAPA_FOGBAND
 10
62.297536392397149
 20
-17.090663298258129
 30
0.0
 42
-0.0436609429066254
  0
VERTEX
  5
1F10
  8
SAPA_FOGBAND
 10
62.599452741609902
 20
-16.916351812772231
 30
0.0
  0
VERTEX
  5
1F11
  8
SAPA_FOGBAND
 10
65.278730274211412
 20
-15.66698418101821
 30
0.0
 42
-0.8895204030443752
  0
VERTEX
  5
1F12
  8
SAPA_FOGBAND
 10
66.87683908133225
 20
-18.175512526263741
 30
0.0
  0
VERTEX
  5
1F13
  8
SAPA_FOGBAND
 10
60.286061948360008
 20
-23.70583119772801
 30
0.0
 42
0.2216946624071884
  0
VERTEX
  5
1F14
  8
SAPA_FOGBAND
 10
58.500000000213483
 20
-27.53605341043734
 30
0.0
  0
SEQEND
  5
1F15
  8
SAPA_FOGBAND
  0
POLYLINE
  5
1753
  8
SAPA_FOGBAND
 66
     1
 10
0.0
 20
0.0
 30
0.0
 70
     1
  0
VERTEX
  5
1F16
  8
SAPA_FOGBAND
 10
32.000000000192152
 20
-31.250277311093409
 30
0.0
 42
0.4142135623714636
  0
VERTEX
  5
1F17
  8
SAPA_FOGBAND
 10
34.000000000168313
 20
-33.250277311106117
 30
0.0
  0
VERTEX
  5
1F18
  8
SAPA_FOGBAND
 10
54.000000000175802
 20
-33.250277311233177
 30
0.0
 42
0.4142135623715295
  0
VERTEX
  5
1F19
  8
SAPA_FOGBAND
 10
56.000000000188983
 20
-31.250277311245881
 30
0.0
  0
VERTEX
  5
1F1A
  8
SAPA_FOGBAND
 10
56.000000000219458
 20
-26.63033727604067
 30
0.0
 42
0.4142135623718642
  0
VERTEX
  5
1F1B
  8
SAPA_FOGBAND
 10
54.000000000233541
 20
-24.630337276027959
 30
0.0
  0
VERTEX
  5
1F1C
  8
SAPA_FOGBAND
 10
34.000000000222158
 20
-24.63033727590091
 30
0.0
 42
0.4142135623719296
  0
VERTEX
  5
1F1D
  8
SAPA_FOGBAND
 10
32.000000000217419
 20
-26.630337275888198
 30
0.0
  0
SEQEND
  5
1F1E
  8
SAPA_FOGBAND
  0
DIMENSION
  5
175D
  8
SAPA_MATT
  2
*D42
 10
132.49999999973119
 20
-2.5000000013061601
 30
0.0
 11
129.74999999973119
 21
-26.000000000960291
 31
0.0
 70
     0
 13
85.499999999556536
 23
-49.500000000614449
 33
0.0
 14
85.499999999556479
 24
-2.5000000013061481
 34
0.0
 50
90.0
1001
ACAD
1000
DSTYLE
1002
{
1070
   287
1070
     4
1070
    40
1040
1.0
1070
   279
1070
     1
1002
}
  0
DIMENSION
  5
175E
  8
SAPA_MATT
  2
*D41
 10
14.000000000502229
 20
-69.50000000001998
 30
0.0
 11
57.25000000011849
 21
-66.75000000001998
 31
0.0
 70
     0
 13
100.4999999997348
 23
-47.750000000633527
 33
0.0
 14
14.000000000502229
 24
-46.499999999985491
 34
0.0
 50
180.0
1001
ACAD
1000
DSTYLE
1002
{
1070
   287
1070
     4
1070
    40
1040
1.0
1070
   279
1070
     1
1002
}
  0
DIMENSION
  5
175F
  8
SAPA_MATT
  2
*D40
 10
19.000000000184169
 20
62.0
 30
0.0
 11
16.500000000335941
 21
62.0
 31
0.0
 70
   128
 13
14.000000000487701
 23
-4.0000000006589991
 33
0.0
 14
19.000000000184169
 24
14.99999999992826
 34
0.0
1001
ACAD
1000
DSTYLE
1002
{
1070
    40
1040
1.0
1002
}
  0
DIMENSION
  5
1760
  8
SAPA_MATT
  2
*D39
 10
19.000000000184158
 20
62.0
 30
0.0
 11
43.999999999844398
 21
64.75
 31
0.0
 70
     0
 13
68.999999999504624
 23
14.999999999928249
 33
0.0
 14
19.000000000184151
 24
14.99999999992826
 34
0.0
 50
180.0
1001
ACAD
1000
DSTYLE
1002
{
1070
   287
1070
     4
1070
    40
1040
1.0
1070
   279
1070
     1
1002
}
  0
DIMENSION
  5
1761
  8
SAPA_MATT
  2
*D38
 10
-5.9999999994991491
 20
31.499999999977721
 30
0.0
 11
-8.7499999994991562
 21
-9.0000000000038813
 31
0.0
 70
     0
 13
17.000000000502229
 23
-49.499999999985491
 33
0.0
 14
21.823940932426929
 24
31.499999999977721
 34
0.0
 50
90.0
1001
ACAD
1000
DSTYLE
1002
{
1070
   287
1070
     4
1070
    40
1040
1.0
1070
   279
1070
     1
1002
}
  0
VIEWPORT
  5
C4
 67
     1
  8
0
 10
160.5543545598442
 20
116.00969601843509
 30
0.0
 40
404.96977709277462
 41
256.8421457311839
 68
     1
 69
     1
1001
ACAD
1000
MVIEW
1002
{
1070
    16
1010
0.0
1020
0.0
1030
0.0
1010
0.0
1020
0.0
1030
1.0
1040
0.0
1040
256.8421457311839
1040
99.206250190734863
1040
130.70624923706049
1040
50.0
1040
0.0
1040
0.0
1070
     0
1070
     0
1070
     1
1070
     1
1070
     0
1070
     0
1070
     0
1070
     0
1040
0.0
1040
0.0
1040
0.0
1040
10.0
1040
10.0
1040
10.0
1040
10.0
1070
     0
1002
{
1002
}
1002
}
  0
ENDSEC
  0
EOF
