  0
SECTION
  2
HEADER
  9
$ACADVER
  1
AC1009
  9
$INSBASE
 10
0.0
 20
0.0
 30
0.0
  9
$EXTMIN
 10
-43.250000000000007
 20
59.999999928020593
 30
-0.2000000000000027
  9
$EXTMAX
 10
93.999999999986869
 20
182.31923809416389
 30
0.0000000048844772
  9
$LIMMIN
 10
0.0
 20
0.0
  9
$LIMMAX
 10
790.0
 20
790.0
  9
$ORTHOMODE
 70
     1
  9
$REGENMODE
 70
     1
  9
$FILLMODE
 70
     1
  9
$QTEXTMODE
 70
     0
  9
$MIRRTEXT
 70
     1
  9
$DRAGMODE
 70
     2
  9
$LTSCALE
 40
4.0
  9
$OSMODE
 70
   167
  9
$ATTMODE
 70
     1
  9
$TEXTSIZE
 40
3.5
  9
$TRACEWID
 40
0.05
  9
$TEXTSTYLE
  7
ISO
  9
$CLAYER
  8
0
  9
$CELTYPE
  6
BYLAYER
  9
$CECOLOR
 62
   256
  9
$DIMSCALE
 40
0.0
  9
$DIMASZ
 40
3.0
  9
$DIMEXO
 40
1.5
  9
$DIMDLI
 40
10.0
  9
$DIMRND
 40
0.0
  9
$DIMDLE
 40
0.0
  9
$DIMEXE
 40
1.5
  9
$DIMTP
 40
0.0
  9
$DIMTM
 40
0.0
  9
$DIMTXT
 40
3.5
  9
$DIMCEN
 40
-5.0
  9
$DIMTSZ
 40
0.0
  9
$DIMTOL
 70
     0
  9
$DIMLIM
 70
     0
  9
$DIMTIH
 70
     0
  9
$DIMTOH
 70
     0
  9
$DIMSE1
 70
     0
  9
$DIMSE2
 70
     0
  9
$DIMTAD
 70
     1
  9
$DIMZIN
 70
     8
  9
$DIMBLK
  1

  9
$DIMASO
 70
     1
  9
$DIMSHO
 70
     1
  9
$DIMPOST
  1

  9
$DIMAPOST
  1

  9
$DIMALT
 70
     0
  9
$DIMALTD
 70
     0
  9
$DIMALTF
 40
25.399999999999999
  9
$DIMLFAC
 40
-1.0
  9
$DIMTOFL
 70
     1
  9
$DIMTVP
 40
0.0
  9
$DIMTIX
 70
     0
  9
$DIMSOXD
 70
     0
  9
$DIMSAH
 70
     0
  9
$DIMBLK1
  1

  9
$DIMBLK2
  1

  9
$DIMSTYLE
  2
MASKIN
  9
$DIMCLRD
 70
   256
  9
$DIMCLRE
 70
   256
  9
$DIMCLRT
 70
     2
  9
$DIMTFAC
 40
1.0
  9
$DIMGAP
 40
1.0
  9
$LUNITS
 70
     2
  9
$LUPREC
 70
     8
  9
$SKETCHINC
 40
0.1
  9
$FILLETRAD
 40
0.0
  9
$AUNITS
 70
     0
  9
$AUPREC
 70
     8
  9
$MENU
  1
ACAD
  9
$ELEVATION
 40
0.0
  9
$PELEVATION
 40
0.0
  9
$THICKNESS
 40
0.0
  9
$LIMCHECK
 70
     0
  9
$BLIPMODE
 70
     0
  9
$CHAMFERA
 40
0.0
  9
$CHAMFERB
 40
0.0
  9
$SKPOLY
 70
     0
  9
$TDCREATE
 40
2455734.518348461
  9
$TDUPDATE
 40
2455959.438810254
  9
$TDINDWG
 40
1.2276764236
  9
$TDUSRTIMER
 40
1.2276762384
  9
$USRTIMER
 70
     1
  9
$ANGBASE
 50
0.0
  9
$ANGDIR
 70
     0
  9
$PDMODE
 70
     0
  9
$PDSIZE
 40
0.0
  9
$PLINEWID
 40
0.0
  9
$COORDS
 70
     1
  9
$SPLFRAME
 70
     0
  9
$SPLINETYPE
 70
     6
  9
$SPLINESEGS
 70
     8
  9
$ATTDIA
 70
     0
  9
$ATTREQ
 70
     1
  9
$HANDLING
 70
     1
  9
$HANDSEED
  5
1C5B
  9
$SURFTAB1
 70
     6
  9
$SURFTAB2
 70
     6
  9
$SURFTYPE
 70
     6
  9
$SURFU
 70
     6
  9
$SURFV
 70
     6
  9
$UCSNAME
  2

  9
$UCSORG
 10
0.0
 20
0.0
 30
0.0
  9
$UCSXDIR
 10
1.0
 20
0.0
 30
0.0
  9
$UCSYDIR
 10
0.0
 20
1.0
 30
0.0
  9
$PUCSNAME
  2

  9
$PUCSORG
 10
0.0
 20
0.0
 30
0.0
  9
$PUCSXDIR
 10
1.0
 20
0.0
 30
0.0
  9
$PUCSYDIR
 10
0.0
 20
1.0
 30
0.0
  9
$USERI1
 70
     0
  9
$USERI2
 70
     0
  9
$USERI3
 70
     0
  9
$USERI4
 70
     0
  9
$USERI5
 70
     0
  9
$USERR1
 40
0.0
  9
$USERR2
 40
0.0
  9
$USERR3
 40
0.0
  9
$USERR4
 40
0.0
  9
$USERR5
 40
0.0
  9
$WORLDVIEW
 70
     1
  9
$SHADEDGE
 70
     3
  9
$SHADEDIF
 70
    70
  9
$TILEMODE
 70
     1
  9
$MAXACTVP
 70
    16
  9
$PLIMCHECK
 70
     0
  9
$PEXTMIN
 10
1.0000000000000000E+020
 20
1.0000000000000000E+020
 30
1.0000000000000000E+020
  9
$PEXTMAX
 10
-1.0000000000000000E+020
 20
-1.0000000000000000E+020
 30
-1.0000000000000000E+020
  9
$PLIMMIN
 10
-5.069427490234375
 20
-5.8737497329711914
  9
$PLIMMAX
 10
291.89889526367187
 20
204.0995779037475
  9
$UNITMODE
 70
     0
  9
$VISRETAIN
 70
     1
  9
$PLINEGEN
 70
     0
  9
$PSLTSCALE
 70
     1
  0
ENDSEC
  0
SECTION
  2
TABLES
  0
TABLE
  2
VPORT
 70
     1
  0
VPORT
  2
*ACTIVE
 70
     0
 10
0.0
 20
0.0
 11
1.0
 21
1.0
 12
25.382257089143721
 22
157.0168631962519
 13
0.0
 23
0.0
 14
1.0
 24
1.0
 15
0.0
 25
0.0
 16
0.0
 26
0.0
 36
1.0
 17
0.0
 27
0.0
 37
0.0
 40
126.85770865872099
 41
2.37391304347826
 42
50.0
 43
0.0
 44
0.0
 50
0.0
 51
0.0
 71
     0
 72
   100
 73
     1
 74
     1
 75
     0
 76
     0
 77
     0
 78
     0
  0
ENDTAB
  0
TABLE
  2
LTYPE
 70
     4
  0
LTYPE
  2
CONTINUOUS
 70
     0
  3
Solid line
 72
    65
 73
     0
 40
0.0
  0
LTYPE
  2
BYGG-027387$0$NEWDOT
 70
     0
  3
____ . ____ . ____ . ____ . ____ . ____ . ____
 72
    65
 73
     4
 40
2.0
 49
1.0
 49
-0.5
 49
0.0
 49
-0.5
  0
LTYPE
  2
BYGG-027939$0$NEWDOT
 70
     0
  3
____ . ____ . ____ . ____ . ____ . ____ . ____
 72
    65
 73
     4
 40
2.0
 49
1.0
 49
-0.5
 49
0.0
 49
-0.5
  0
LTYPE
  2
BYGG-027385$0$NEWDOT
 70
     0
  3
____ . ____ . ____ . ____ . ____ . ____ . ____
 72
    65
 73
     4
 40
2.0
 49
1.0
 49
-0.5
 49
0.0
 49
-0.5
  0
ENDTAB
  0
TABLE
  2
LAYER
 70
    37
  0
LAYER
  2
0
 70
     0
 62
     7
  6
CONTINUOUS
  0
LAYER
  2
DEFPOINTS
 70
     0
 62
     7
  6
CONTINUOUS
  0
LAYER
  2
SAPA_ARTIKELNR
 70
     0
 62
     4
  6
CONTINUOUS
  0
LAYER
  2
SAPA_MATT
 70
     0
 62
     1
  6
CONTINUOUS
  0
LAYER
  2
SAPA_GLAS
 70
     0
 62
     4
  6
CONTINUOUS
  0
LAYER
  2
SAPA_FOGBAND
 70
     0
 62
     2
  6
CONTINUOUS
  0
LAYER
  2
SAPA_PROFIL
 70
     0
 62
     7
  6
CONTINUOUS
  0
ENDTAB
  0
TABLE
  2
STYLE
 70
    18
  0
STYLE
  2
STANDARD
 70
     0
 40
0.0
 41
1.0
 50
0.0
 71
     0
 42
0.2
  3
txt
  4

  0
STYLE
  2
ISO
 70
     0
 40
0.0
 41
1.0
 50
0.0
 71
     0
 42
3.5
  3
txt
  4

  0
STYLE
  2
BYGG-027392$0$STANDARD
 70
     0
 40
0.0
 41
1.0
 50
0.0
 71
     0
 42
0.2
  3
txt
  4

  0
STYLE
  2
BYGG-027392$0$ISO
 70
     0
 40
0.0
 41
1.0
 50
0.0
 71
     0
 42
3.5
  3
txt
  4

  0
STYLE
  2
BYGG-027460$0$STANDARD
 70
     0
 40
0.0
 41
1.0
 50
0.0
 71
     0
 42
0.2
  3
txt
  4

  0
STYLE
  2
BYGG-027460$0$ISO
 70
     0
 40
0.0
 41
1.0
 50
0.0
 71
     0
 42
3.5
  3
txt
  4

  0
STYLE
  2
BYGG-027387$0$STANDARD
 70
     0
 40
0.0
 41
1.0
 50
0.0
 71
     0
 42
0.2
  3
txt
  4

  0
STYLE
  2
BYGG-027387$0$ISO
 70
     0
 40
0.0
 41
1.0
 50
0.0
 71
     0
 42
3.5
  3
txt
  4

  0
STYLE
  2
BYGG-028313$0$STANDARD
 70
     0
 40
0.0
 41
1.0
 50
0.0
 71
     0
 42
0.2
  3
txt
  4

  0
STYLE
  2
BYGG-028313$0$ISO
 70
     0
 40
0.0
 41
1.0
 50
0.0
 71
     0
 42
3.5
  3
txt
  4

  0
STYLE
  2
BYGG-027939$0$STANDARD
 70
     0
 40
0.0
 41
1.0
 50
0.0
 71
     0
 42
0.2
  3
txt
  4

  0
STYLE
  2
BYGG-027939$0$ISO
 70
     0
 40
0.0
 41
1.0
 50
0.0
 71
     0
 42
3.5
  3
txt
  4

  0
STYLE
  2
BYGG-028315$0$STANDARD
 70
     0
 40
0.0
 41
1.0
 50
0.0
 71
     0
 42
0.2
  3
txt
  4

  0
STYLE
  2
BYGG-028315$0$ISO
 70
     0
 40
0.0
 41
1.0
 50
0.0
 71
     0
 42
3.5
  3
txt
  4

  0
STYLE
  2
BYGG-027414$0$STANDARD
 70
     0
 40
0.0
 41
1.0
 50
0.0
 71
     0
 42
0.2
  3
txt
  4

  0
STYLE
  2
BYGG-027414$0$ISO
 70
     0
 40
0.0
 41
1.0
 50
0.0
 71
     0
 42
3.5
  3
txt
  4

  0
STYLE
  2
BYGG-027385$0$STANDARD
 70
     0
 40
0.0
 41
1.0
 50
0.0
 71
     0
 42
0.2
  3
txt
  4

  0
STYLE
  2
BYGG-027385$0$ISO
 70
     0
 40
0.0
 41
1.0
 50
0.0
 71
     0
 42
3.5
  3
txt
  4

  0
ENDTAB
  0
TABLE
  2
VIEW
 70
     0
  0
ENDTAB
  0
TABLE
  2
UCS
 70
     0
  0
ENDTAB
  0
TABLE
  2
APPID
 70
    30
  0
APPID
  2
ACAD
 70
     0
  0
APPID
  2
ACAD_DSTYLE_DIMTEXT_FILL
 70
     0
  0
APPID
  2
ACAD_DSTYLE_DIMEXT_LENGTH
 70
     0
  0
APPID
  2
ACAD_DSTYLE_DIMEXT_ENABLED
 70
     0
  0
APPID
  2
ACAD_DSTYLE_DIM_LINETYPE
 70
     0
  0
APPID
  2
ACAD_DSTYLE_DIM_EXT1_LINETYPE
 70
     0
  0
APPID
  2
ACAD_DSTYLE_DIM_EXT2_LINETYPE
 70
     0
  0
APPID
  2
ACAD_DSTYLE_DIMJOGGED_JOGA
 70
     0
  0
APPID
  2
ACAD_DSTYLE_DIMARC_LENGTH_
 70
     0
  0
APPID
  2
ACAD_PSEXT
 70
     0
  0
APPID
  2
ACAD_MLEADERVER
 70
     0
  0
APPID
  2
GENIUS_GENODEF_13
 70
     0
  0
APPID
  2
RC_PROFILE
 70
     0
  0
APPID
  2
ACAECLAYERSTANDARD
 70
     0
  0
APPID
  2
GENIUS_GENOBJ-N-FIL_13
 70
     0
  0
APPID
  2
ACADANNOTATIVE
 70
     0
  0
APPID
  2
ACAD_EXEMPT_FROM_CAD_STANDARDS
 70
     0
  0
APPID
  2
AEC_XDATA_BOUND_SPACE
 70
     0
  0
APPID
  2
ACAD_DSTYLE_DIMJAG
 70
     0
  0
APPID
  2
ACAD_DSTYLE_DIMTALN
 70
     0
  0
APPID
  2
GENIUS_GENREC_14
 70
     0
  0
APPID
  2
GENIUS_GENOBJ-N-REC_13
 70
     0
  0
APPID
  2
ACDBDYNAMICBLOCKTRUENAME
 70
     0
  0
APPID
  2
ACDBBLOCKREPETAG
 70
     0
  0
APPID
  2
ACDBDYNAMICBLOCKGUID
 70
     0
  0
APPID
  2
ACDBBLOCKREPBTAG
 70
     0
  0
APPID
  2
ACAD_NAV_VCDISPLAY
 70
     0
  0
APPID
  2
GRADIENTCOLOR1ACI
 70
     0
  0
APPID
  2
GRADIENTCOLOR2ACI
 70
     0
  0
APPID
  2
ACCMTRANSPARENCY
 70
     0
  0
ENDTAB
  0
TABLE
  2
DIMSTYLE
 70
    12
  0
DIMSTYLE
  2
MASKIN
 70
     0
  3

  4

  5

  6

  7

 40
0.0
 41
3.0
 42
1.5
 43
10.0
 44
1.5
 45
0.0
 46
0.0
 47
0.0
 48
0.0
140
3.5
141
-5.0
142
0.0
143
25.399999999999999
144
-1.0
145
0.0
146
1.0
147
1.0
 71
     0
 72
     0
 73
     0
 74
     0
 75
     0
 76
     0
 77
     1
 78
     8
170
     0
171
     0
172
     1
173
     0
174
     0
175
     0
176
   256
177
   256
178
     2
  0
DIMSTYLE
  2
BYGG-027392$0$MASKIN
 70
     0
  3

  4

  5

  6

  7

 40
0.0
 41
3.0
 42
1.5
 43
10.0
 44
1.5
 45
0.0
 46
0.0
 47
0.0
 48
0.0
140
3.0
141
-5.0
142
0.0
143
25.399999999999999
144
-1.0
145
0.0
146
1.0
147
1.0
 71
     0
 72
     0
 73
     0
 74
     0
 75
     0
 76
     0
 77
     1
 78
     8
170
     0
171
     0
172
     1
173
     0
174
     0
175
     0
176
   256
177
   256
178
     2
  0
DIMSTYLE
  2
BYGG-027460$0$MASKIN
 70
     0
  3

  4

  5

  6

  7

 40
0.0
 41
3.0
 42
1.5
 43
10.0
 44
1.5
 45
0.0
 46
0.0
 47
0.0
 48
0.0
140
3.0
141
-5.0
142
0.0
143
25.399999999999999
144
-1.0
145
0.0
146
1.0
147
1.0
 71
     0
 72
     0
 73
     0
 74
     0
 75
     0
 76
     0
 77
     1
 78
     8
170
     0
171
     0
172
     1
173
     0
174
     0
175
     0
176
   256
177
   256
178
     2
  0
DIMSTYLE
  2
BYGG-027387$0$MASKIN
 70
     0
  3

  4

  5

  6

  7

 40
0.0
 41
3.0
 42
1.5
 43
10.0
 44
1.5
 45
0.0
 46
0.0
 47
0.0
 48
0.0
140
3.0
141
-5.0
142
0.0
143
25.399999999999999
144
-1.0
145
0.0
146
1.0
147
1.0
 71
     0
 72
     0
 73
     0
 74
     0
 75
     0
 76
     0
 77
     1
 78
     8
170
     0
171
     0
172
     1
173
     0
174
     0
175
     0
176
   256
177
   256
178
     2
  0
DIMSTYLE
  2
BYGG-028313$0$STANDARD
 70
     0
  3

  4

  5

  6

  7

 40
1.0
 41
0.18
 42
0.0625
 43
0.38
 44
0.18
 45
0.0
 46
0.0
 47
0.0
 48
0.0
140
0.18
141
0.09
142
0.0
143
25.399999999999999
144
1.0
145
0.0
146
1.0
147
0.09
 71
     0
 72
     0
 73
     1
 74
     1
 75
     0
 76
     0
 77
     0
 78
     0
170
     0
171
     2
172
     0
173
     0
174
     0
175
     0
176
     0
177
     0
178
     0
  0
DIMSTYLE
  2
BYGG-028313$0$MASKIN
 70
     0
  3

  4

  5

  6

  7

 40
0.0
 41
3.0
 42
1.5
 43
10.0
 44
1.5
 45
0.0
 46
0.0
 47
0.0
 48
0.0
140
3.0
141
-5.0
142
0.0
143
25.399999999999999
144
-1.0
145
0.0
146
1.0
147
1.0
 71
     0
 72
     0
 73
     0
 74
     0
 75
     0
 76
     0
 77
     1
 78
     8
170
     0
171
     0
172
     1
173
     0
174
     0
175
     0
176
   256
177
   256
178
     2
  0
DIMSTYLE
  2
BYGG-027939$0$STANDARD
 70
     0
  3

  4

  5

  6

  7

 40
1.0
 41
0.18
 42
0.0625
 43
0.38
 44
0.18
 45
0.0
 46
0.0
 47
0.0
 48
0.0
140
0.18
141
0.09
142
0.0
143
25.399999999999999
144
1.0
145
0.0
146
1.0
147
0.09
 71
     0
 72
     0
 73
     1
 74
     1
 75
     0
 76
     0
 77
     0
 78
     0
170
     0
171
     2
172
     0
173
     0
174
     0
175
     0
176
     0
177
     0
178
     0
  0
DIMSTYLE
  2
BYGG-027939$0$MASKIN
 70
     0
  3

  4

  5

  6

  7

 40
0.0
 41
3.0
 42
1.5
 43
10.0
 44
1.5
 45
0.0
 46
0.0
 47
0.0
 48
0.0
140
3.0
141
-5.0
142
0.0
143
25.399999999999999
144
-1.0
145
0.0
146
1.0
147
1.0
 71
     0
 72
     0
 73
     0
 74
     0
 75
     0
 76
     0
 77
     1
 78
     8
170
     0
171
     0
172
     1
173
     0
174
     0
175
     0
176
   256
177
   256
178
     2
  0
DIMSTYLE
  2
BYGG-028315$0$STANDARD
 70
     0
  3

  4

  5

  6

  7

 40
1.0
 41
0.18
 42
0.0625
 43
0.38
 44
0.18
 45
0.0
 46
0.0
 47
0.0
 48
0.0
140
0.18
141
0.09
142
0.0
143
25.399999999999999
144
1.0
145
0.0
146
1.0
147
0.09
 71
     0
 72
     0
 73
     1
 74
     1
 75
     0
 76
     0
 77
     0
 78
     0
170
     0
171
     2
172
     0
173
     0
174
     0
175
     0
176
     0
177
     0
178
     0
  0
DIMSTYLE
  2
BYGG-028315$0$MASKIN
 70
     0
  3

  4

  5

  6

  7

 40
0.0
 41
3.0
 42
1.5
 43
10.0
 44
1.5
 45
0.0
 46
0.0
 47
0.0
 48
0.0
140
3.0
141
-5.0
142
0.0
143
25.399999999999999
144
-1.0
145
0.0
146
1.0
147
1.0
 71
     0
 72
     0
 73
     0
 74
     0
 75
     0
 76
     0
 77
     1
 78
     8
170
     0
171
     0
172
     1
173
     0
174
     0
175
     0
176
   256
177
   256
178
     2
  0
DIMSTYLE
  2
BYGG-027414$0$MASKIN
 70
     0
  3

  4

  5

  6

  7

 40
0.0
 41
3.0
 42
1.5
 43
10.0
 44
1.5
 45
0.0
 46
0.0
 47
0.0
 48
0.0
140
3.0
141
-5.0
142
0.0
143
25.399999999999999
144
-1.0
145
0.0
146
1.0
147
1.0
 71
     0
 72
     0
 73
     0
 74
     0
 75
     0
 76
     0
 77
     1
 78
     8
170
     0
171
     0
172
     1
173
     0
174
     0
175
     0
176
   256
177
   256
178
     2
  0
DIMSTYLE
  2
BYGG-027385$0$MASKIN
 70
     0
  3

  4

  5

  6

  7

 40
0.0
 41
3.0
 42
1.5
 43
10.0
 44
1.5
 45
0.0
 46
0.0
 47
0.0
 48
0.0
140
3.0
141
-5.0
142
0.0
143
25.399999999999999
144
-1.0
145
0.0
146
1.0
147
1.0
 71
     0
 72
     0
 73
     0
 74
     0
 75
     0
 76
     0
 77
     1
 78
     8
170
     0
171
     0
172
     1
173
     0
174
     0
175
     0
176
   256
177
   256
178
     2
  0
ENDTAB
  0
ENDSEC
  0
SECTION
  2
BLOCKS
  0
BLOCK
  8
0
  2
$MODEL_SPACE
 70
     0
 10
0.0
 20
0.0
 30
0.0
  3
$MODEL_SPACE
  1

  0
ENDBLK
  5
37
  8
0
  0
BLOCK
 67
     1
  8
0
  2
$PAPER_SPACE
 70
     0
 10
0.0
 20
0.0
 30
0.0
  3
$PAPER_SPACE
  1

  0
ENDBLK
  5
35
 67
     1
  8
0
  0
BLOCK
  8
0
  2
*D30
 70
     1
 10
0.0
 20
0.0
 30
0.0
  3
*D30
  1

  0
LINE
  5
1C48
  8
SAPA_MATT
 10
76.499999999972189
 20
132.6856634648498
 30
0.0
 11
76.499999999972189
 21
170.4999999277548
 31
0.0
  0
LINE
  5
1C49
  8
SAPA_MATT
 10
-6.4999999999777174
 20
132.67605899532811
 30
0.0
 11
-6.4999999999777138
 21
170.4999999277548
 31
0.0
  0
LINE
  5
1C4A
  8
SAPA_MATT
 10
73.499999999972189
 20
168.9999999277548
 30
0.0
 11
-3.4999999999777138
 21
168.9999999277548
 31
0.0
  0
SOLID
  5
1C4B
  8
SAPA_MATT
 10
73.499999999972189
 20
169.4999999277548
 30
0.0
 11
73.499999999972189
 21
168.4999999277548
 31
0.0
 12
76.499999999972189
 22
168.9999999277548
 32
0.0
 13
76.499999999972189
 23
168.9999999277548
 33
0.0
  0
SOLID
  5
1C4C
  8
SAPA_MATT
 10
-3.4999999999777138
 20
169.4999999277548
 30
0.0
 11
-3.4999999999777138
 21
168.4999999277548
 31
0.0
 12
-6.4999999999777138
 22
168.9999999277548
 32
0.0
 13
-6.4999999999777138
 23
168.9999999277548
 33
0.0
  0
TEXT
  8
SAPA_MATT
  40
3.5
  5
1C59
  62
2
  72
0
  71
0
 10
28.0000
 20
165.555
 30
0.000000
  1
83
  7
ISO
  0
POINT
  5
1C4E
  8
DEFPOINTS
 62
     0
 10
76.499999999972189
 20
131.1856634648498
 30
0.0
  0
POINT
  5
1C4F
  8
DEFPOINTS
 62
     0
 10
-6.4999999999777174
 20
131.17605899532811
 30
0.0
  0
POINT
  5
1C50
  8
DEFPOINTS
 62
     0
 10
-6.4999999999777138
 20
168.9999999277548
 30
0.0
  0
ENDBLK
  5
152F
  8
0
  0
BLOCK
  8
0
  2
*D31
 70
     1
 10
0.0
 20
0.0
 30
0.0
  3
*D31
  1

  0
LINE
  5
1575
  8
SAPA_MATT
 10
25.00000000000011
 20
138.9999999277548
 30
0.0
 11
-38.499999999999972
 21
138.9999999277548
 31
0.0
  0
LINE
  5
1576
  8
SAPA_MATT
 10
8.5000000000717364
 20
133.9999999275708
 30
0.0
 11
-38.499999999999979
 21
133.9999999275708
 31
0.0
  0
LINE
  5
1577
  8
SAPA_MATT
 10
-36.999999999999979
 20
141.9999999277548
 30
0.0
 11
-36.999999999999972
 21
144.99999992775469
 31
0.0
  0
LINE
  5
1578
  8
SAPA_MATT
 10
-36.999999999999979
 20
130.9999999275708
 30
0.0
 11
-36.999999999999979
 21
127.9999999275708
 31
0.0
  0
LINE
  5
1579
  8
SAPA_MATT
 10
-36.999999999999979
 20
138.9999999277548
 30
0.0
 11
-36.999999999999979
 21
133.9999999275708
 31
0.0
  0
SOLID
  5
157A
  8
SAPA_MATT
 10
-37.499999999999979
 20
141.9999999277548
 30
0.0
 11
-36.499999999999979
 21
141.9999999277548
 31
0.0
 12
-36.999999999999979
 22
138.9999999277548
 32
0.0
 13
-36.999999999999979
 23
138.9999999277548
 33
0.0
  0
SOLID
  5
157B
  8
SAPA_MATT
 10
-37.499999999999979
 20
130.9999999275708
 30
0.0
 11
-36.499999999999979
 21
130.9999999275708
 31
0.0
 12
-36.999999999999979
 22
133.9999999275708
 32
0.0
 13
-36.999999999999979
 23
133.9999999275708
 33
0.0
  0
INSERT
  5
157C
  8
0
  2
*U43
 10
0.0
 20
0.0
 30
0.0
  0
POINT
  5
157D
  8
DEFPOINTS
 62
     0
 10
26.50000000000011
 20
138.9999999277548
 30
0.0
  0
POINT
  5
157E
  8
DEFPOINTS
 62
     0
 10
10.000000000071729
 20
133.9999999275708
 30
0.0
  0
POINT
  5
157F
  8
DEFPOINTS
 62
     0
 10
-36.999999999999979
 20
133.9999999275708
 30
0.0
  0
ENDBLK
  5
153B
  8
0
  0
BLOCK
  8
0
  2
*D32
 70
     1
 10
0.0
 20
0.0
 30
0.0
  3
*D32
  1

  0
LINE
  5
1C3F
  8
SAPA_MATT
 10
8.5000000000717364
 20
133.9999999275708
 30
0.0
 11
-38.5
 21
133.9999999275708
 31
0.0
  0
LINE
  5
1C40
  8
SAPA_MATT
 10
8.5000000000717364
 20
83.999999928250375
 30
0.0
 11
-38.5
 21
83.999999928250389
 31
0.0
  0
LINE
  5
1C41
  8
SAPA_MATT
 10
-36.999999999999993
 20
130.9999999275708
 30
0.0
 11
-37.0
 21
86.999999928250389
 31
0.0
  0
SOLID
  5
1C42
  8
SAPA_MATT
 10
-37.5
 20
130.9999999275708
 30
0.0
 11
-36.499999999999993
 21
130.9999999275708
 31
0.0
 12
-36.999999999999993
 22
133.9999999275708
 32
0.0
 13
-36.999999999999993
 23
133.9999999275708
 33
0.0
  0
SOLID
  5
1C43
  8
SAPA_MATT
 10
-37.5
 20
86.999999928250389
 30
0.0
 11
-36.5
 21
86.999999928250389
 31
0.0
 12
-37.0
 22
83.999999928250389
 32
0.0
 13
-37.0
 23
83.999999928250389
 33
0.0
  0
TEXT
  8
SAPA_MATT
  40
3.5
  5
1C5A
  62
2
  72
0
  71
0
 10
-46.7500
 20
102.805
 30
0.000000
  1
50
  7
ISO
  0
POINT
  5
1C45
  8
DEFPOINTS
 62
     0
 10
10.000000000071729
 20
133.9999999275708
 30
0.0
  0
POINT
  5
1C46
  8
DEFPOINTS
 62
     0
 10
10.000000000071729
 20
83.999999928250375
 30
0.0
  0
POINT
  5
1C47
  8
DEFPOINTS
 62
     0
 10
-37.0
 20
83.999999928250389
 30
0.0
  0
ENDBLK
  5
1549
  8
0
  0
BLOCK
  8
0
  2
*D33
 70
     1
 10
0.0
 20
0.0
 30
0.0
  3
*D33
  1

  0
LINE
  5
1561
  8
SAPA_MATT
 10
25.00000000000011
 20
78.999999928066472
 30
0.0
 11
-38.499999999999993
 21
78.999999928066487
 31
0.0
  0
LINE
  5
1562
  8
SAPA_MATT
 10
8.5000000000717364
 20
83.999999928250389
 30
0.0
 11
-38.499999999999979
 21
83.999999928250404
 31
0.0
  0
LINE
  5
1563
  8
SAPA_MATT
 10
-36.999999999999993
 20
75.999999928066487
 30
0.0
 11
-36.999999999999993
 21
72.999999928066487
 31
0.0
  0
LINE
  5
1564
  8
SAPA_MATT
 10
-36.999999999999993
 20
86.999999928250389
 30
0.0
 11
-36.999999999999993
 21
89.999999928250404
 31
0.0
  0
LINE
  5
1565
  8
SAPA_MATT
 10
-36.999999999999993
 20
78.999999928066487
 30
0.0
 11
-36.999999999999993
 21
83.999999928250404
 31
0.0
  0
SOLID
  5
1566
  8
SAPA_MATT
 10
-37.5
 20
75.999999928066487
 30
0.0
 11
-36.499999999999993
 21
75.999999928066487
 31
0.0
 12
-36.999999999999993
 22
78.999999928066487
 32
0.0
 13
-36.999999999999993
 23
78.999999928066487
 33
0.0
  0
SOLID
  5
1567
  8
SAPA_MATT
 10
-37.499999999999993
 20
86.999999928250389
 30
0.0
 11
-36.499999999999993
 21
86.999999928250389
 31
0.0
 12
-36.999999999999993
 22
83.999999928250404
 32
0.0
 13
-36.999999999999993
 23
83.999999928250404
 33
0.0
  0
INSERT
  5
1568
  8
0
  2
*U42
 10
0.0
 20
0.0
 30
0.0
  0
POINT
  5
1569
  8
DEFPOINTS
 62
     0
 10
26.50000000000011
 20
78.999999928066472
 30
0.0
  0
POINT
  5
156A
  8
DEFPOINTS
 62
     0
 10
10.000000000071729
 20
83.999999928250389
 30
0.0
  0
POINT
  5
156B
  8
DEFPOINTS
 62
     0
 10
-36.999999999999993
 20
83.999999928250404
 30
0.0
  0
ENDBLK
  5
1555
  8
0
  0
BLOCK
  8
0
  2
*X34
 70
     1
 10
0.0
 20
0.0
 30
0.0
  3
*X34
  1

  0
LINE
  5
1A00
  8
0
 62
     0
 10
74.799999999997254
 20
87.319848408506644
 30
0.0
 11
74.119848480652337
 21
87.999999927851576
 31
0.0
  0
LINE
  5
1A01
  8
0
 62
     0
 10
73.747316465870114
 20
87.24999992750017
 30
0.0
 11
72.997316465518693
 21
87.999999927851604
 31
0.0
  0
LINE
  5
1A02
  8
0
 62
     0
 10
72.624784450735248
 20
87.249999927501406
 30
0.0
 11
71.87478445038505
 21
87.999999927851604
 31
0.0
  0
LINE
  5
1A03
  8
0
 62
     0
 10
71.502252435600354
 20
87.249999927502643
 30
0.0
 11
70.752252435251407
 21
87.999999927851619
 31
0.0
  0
LINE
  5
1A04
  8
0
 62
     0
 10
70.379720420465503
 20
87.249999927503879
 30
0.0
 11
69.629720420117764
 21
87.999999927851633
 31
0.0
  0
LINE
  5
1A05
  8
0
 62
     0
 10
69.257188405330623
 20
87.249999927505129
 30
0.0
 11
68.50718840498412
 21
87.999999927851647
 31
0.0
  0
LINE
  5
1A06
  8
0
 62
     0
 10
68.134656390195744
 20
87.249999927506366
 30
0.0
 11
67.384656389850477
 21
87.999999927851647
 31
0.0
  0
LINE
  5
1A07
  8
0
 62
     0
 10
67.012124375060864
 20
87.249999927507616
 30
0.0
 11
66.262124374716819
 21
87.999999927851675
 31
0.0
  0
LINE
  5
1A08
  8
0
 62
     0
 10
65.889592359925999
 20
87.249999927508867
 30
0.0
 11
65.13959235958319
 21
87.99999992785169
 31
0.0
  0
LINE
  5
1A09
  8
0
 62
     0
 10
64.767060344791133
 20
87.249999927510103
 30
0.0
 11
64.017060344449533
 21
87.999999927851704
 31
0.0
  0
LINE
  5
1A0A
  8
0
 62
     0
 10
63.644528329656247
 20
87.249999927511354
 30
0.0
 11
62.894528329315897
 21
87.999999927851718
 31
0.0
  0
LINE
  5
1A0B
  8
0
 62
     0
 10
62.521996314521367
 20
87.24999992751259
 30
0.0
 11
61.999999999986088
 21
87.771996242047877
 31
0.0
  0
LINE
  5
1A0C
  8
0
 62
     0
 10
73.879720419716023
 20
87.249999927500028
 30
0.0
 11
74.629720420067599
 21
87.999999927851576
 31
0.0
  0
LINE
  5
1A0D
  8
0
 62
     0
 10
72.757188404583616
 20
87.249999927501264
 30
0.0
 11
73.507188404933956
 21
87.999999927851576
 31
0.0
  0
LINE
  5
1A0E
  8
0
 62
     0
 10
71.634656389451195
 20
87.249999927502515
 30
0.0
 11
72.384656389800313
 21
87.999999927851604
 31
0.0
  0
LINE
  5
1A0F
  8
0
 62
     0
 10
70.512124374318773
 20
87.249999927503737
 30
0.0
 11
71.262124374666669
 21
87.999999927851619
 31
0.0
  0
LINE
  5
1A10
  8
0
 62
     0
 10
69.389592359186366
 20
87.249999927504987
 30
0.0
 11
70.139592359533026
 21
87.999999927851633
 31
0.0
  0
LINE
  5
1A11
  8
0
 62
     0
 10
68.267060344053945
 20
87.249999927506224
 30
0.0
 11
69.017060344399383
 21
87.999999927851647
 31
0.0
  0
LINE
  5
1A12
  8
0
 62
     0
 10
67.144528328921524
 20
87.249999927507474
 30
0.0
 11
67.894528329265739
 21
87.999999927851647
 31
0.0
  0
LINE
  5
1A13
  8
0
 62
     0
 10
66.021996313789117
 20
87.249999927508725
 30
0.0
 11
66.771996314132082
 21
87.999999927851675
 31
0.0
  0
LINE
  5
1A14
  8
0
 62
     0
 10
64.899464298656696
 20
87.249999927509961
 30
0.0
 11
65.649464298998453
 21
87.99999992785169
 31
0.0
  0
LINE
  5
1A15
  8
0
 62
     0
 10
63.776932283524289
 20
87.249999927511197
 30
0.0
 11
64.526932283864809
 21
87.999999927851704
 31
0.0
  0
LINE
  5
1A16
  8
0
 62
     0
 10
62.654400268391868
 20
87.249999927512448
 30
0.0
 11
63.404400268731159
 21
87.999999927851718
 31
0.0
  0
LINE
  5
1A17
  8
0
 62
     0
 10
61.999999999986031
 20
87.718131674240254
 30
0.0
 11
62.281868253597523
 21
87.999999927851718
 31
0.0
  0
ENDBLK
  5
1A19
  8
0
  0
BLOCK
  8
0
  2
*X35
 70
     1
 10
0.0
 20
0.0
 30
0.0
  3
*X35
  1

  0
LINE
  5
1A1B
  8
0
 62
     0
 10
74.776065055730996
 20
129.99999992785189
 30
0.0
 11
74.026065055718703
 21
130.7499999278642
 31
0.0
  0
LINE
  5
1A1C
  8
0
 62
     0
 10
73.653533040597338
 20
129.99999992785189
 30
0.0
 11
72.903533040586254
 21
130.749999927863
 31
0.0
  0
LINE
  5
1A1D
  8
0
 62
     0
 10
72.531001025463709
 20
129.99999992785189
 30
0.0
 11
71.781001025453861
 21
130.74999992786181
 31
0.0
  0
LINE
  5
1A1E
  8
0
 62
     0
 10
71.408469010330052
 20
129.99999992785189
 30
0.0
 11
70.658469010321454
 21
130.7499999278605
 31
0.0
  0
LINE
  5
1A1F
  8
0
 62
     0
 10
70.285936995196408
 20
129.99999992785189
 30
0.0
 11
69.535936995189033
 21
130.74999992785931
 31
0.0
  0
LINE
  5
1A20
  8
0
 62
     0
 10
69.163404980062751
 20
129.999999927852
 30
0.0
 11
68.413404980056612
 21
130.74999992785811
 31
0.0
  0
LINE
  5
1A21
  8
0
 62
     0
 10
68.040872964929122
 20
129.999999927852
 30
0.0
 11
67.290872964924205
 21
130.74999992785689
 31
0.0
  0
LINE
  5
1A22
  8
0
 62
     0
 10
66.918340949795464
 20
129.999999927852
 30
0.0
 11
66.168340949791784
 21
130.7499999278557
 31
0.0
  0
LINE
  5
1A23
  8
0
 62
     0
 10
65.795808934661835
 20
129.999999927852
 30
0.0
 11
65.045808934659377
 21
130.74999992785439
 31
0.0
  0
LINE
  5
1A24
  8
0
 62
     0
 10
64.673276919528163
 20
129.999999927852
 30
0.0
 11
63.92327691952697
 21
130.7499999278532
 31
0.0
  0
LINE
  5
1A25
  8
0
 62
     0
 10
63.550744904394527
 20
129.999999927852
 30
0.0
 11
62.800744904394548
 21
130.749999927852
 31
0.0
  0
LINE
  5
1A26
  8
0
 62
     0
 10
62.428212889260891
 20
129.999999927852
 30
0.0
 11
61.999999999986372
 21
130.42821281712659
 31
0.0
  0
LINE
  5
1A27
  8
0
 62
     0
 10
73.973503844989906
 20
129.99999992785189
 30
0.0
 11
74.723503845002995
 21
130.74999992786491
 31
0.0
  0
LINE
  5
1A28
  8
0
 62
     0
 10
72.850971829856263
 20
129.99999992785189
 30
0.0
 11
73.600971829868115
 21
130.74999992786371
 31
0.0
  0
LINE
  5
1A29
  8
0
 62
     0
 10
71.728439814722634
 20
129.99999992785189
 30
0.0
 11
72.47843981473325
 21
130.74999992786249
 31
0.0
  0
LINE
  5
1A2A
  8
0
 62
     0
 10
70.605907799588991
 20
129.99999992785189
 30
0.0
 11
71.355907799598384
 21
130.7499999278613
 31
0.0
  0
LINE
  5
1A2B
  8
0
 62
     0
 10
69.483375784455347
 20
129.99999992785189
 30
0.0
 11
70.233375784463504
 21
130.7499999278601
 31
0.0
  0
LINE
  5
1A2C
  8
0
 62
     0
 10
68.360843769321704
 20
129.999999927852
 30
0.0
 11
69.110843769328639
 21
130.74999992785879
 31
0.0
  0
LINE
  5
1A2D
  8
0
 62
     0
 10
67.238311754188061
 20
129.999999927852
 30
0.0
 11
67.988311754193759
 21
130.74999992785769
 31
0.0
  0
LINE
  5
1A2E
  8
0
 62
     0
 10
66.115779739054418
 20
129.999999927852
 30
0.0
 11
66.865779739058894
 21
130.74999992785641
 31
0.0
  0
LINE
  5
1A2F
  8
0
 62
     0
 10
64.993247723920774
 20
129.999999927852
 30
0.0
 11
65.743247723924014
 21
130.74999992785521
 31
0.0
  0
LINE
  5
1A30
  8
0
 62
     0
 10
63.870715708787138
 20
129.999999927852
 30
0.0
 11
64.620715708789149
 21
130.74999992785399
 31
0.0
  0
LINE
  5
1A31
  8
0
 62
     0
 10
62.748183693653502
 20
129.999999927852
 30
0.0
 11
63.498183693654269
 21
130.7499999278528
 31
0.0
  0
LINE
  5
1A32
  8
0
 62
     0
 10
61.999999999986429
 20
130.37434824931859
 30
0.0
 11
62.37565167851939
 21
130.74999992785149
 31
0.0
  0
ENDBLK
  5
1A34
  8
0
  0
BLOCK
  8
0
  2
*X36
 70
     1
 10
0.0
 20
0.0
 30
0.0
  3
*X36
  1

  0
LINE
  5
1A51
  8
0
 62
     0
 10
7.7293069703022113
 20
87.249999927512874
 30
0.0
 11
8.0000000000086757
 21
87.520692957219339
 31
0.0
  0
LINE
  5
1A52
  8
0
 62
     0
 10
6.6067749551673236
 20
87.249999927511624
 30
0.0
 11
7.3567749555074151
 21
87.999999927851718
 31
0.0
  0
LINE
  5
1A53
  8
0
 62
     0
 10
5.4842429400324368
 20
87.249999927510387
 30
0.0
 11
6.2342429403737567
 21
87.999999927851704
 31
0.0
  0
LINE
  5
1A54
  8
0
 62
     0
 10
4.3617109248975536
 20
87.249999927509137
 30
0.0
 11
5.1117109252401072
 21
87.99999992785169
 31
0.0
  0
LINE
  5
1A55
  8
0
 62
     0
 10
3.2391789097626602
 20
87.249999927507901
 30
0.0
 11
3.9891789101064461
 21
87.999999927851675
 31
0.0
  0
LINE
  5
1A56
  8
0
 62
     0
 10
2.116646894627773
 20
87.249999927506664
 30
0.0
 11
2.8666468949727881
 21
87.999999927851647
 31
0.0
  0
LINE
  5
1A57
  8
0
 62
     0
 10
0.9941148794928871
 20
87.249999927505414
 30
0.0
 11
1.7441148798391379
 21
87.999999927851647
 31
0.0
  0
LINE
  5
1A58
  8
0
 62
     0
 10
-0.1284171356419925
 20
87.249999927504163
 30
0.0
 11
0.6215828647054842
 21
87.999999927851647
 31
0.0
  0
LINE
  5
1A59
  8
0
 62
     0
 10
-1.2509491507768931
 20
87.249999927502927
 30
0.0
 11
-0.5009491504281805
 21
87.999999927851633
 31
0.0
  0
LINE
  5
1A5A
  8
0
 62
     0
 10
-2.3734811659117732
 20
87.249999927501676
 30
0.0
 11
-1.6234811655618411
 21
87.999999927851619
 31
0.0
  0
LINE
  5
1A5B
  8
0
 62
     0
 10
-3.496013181046667
 20
87.24999992750044
 30
0.0
 11
-2.746013180695495
 21
87.999999927851619
 31
0.0
  0
LINE
  5
1A5C
  8
0
 62
     0
 10
-4.6185451961815529
 20
87.249999927499189
 30
0.0
 11
-3.868545195829149
 21
87.999999927851604
 31
0.0
  0
LINE
  5
1A5D
  8
0
 62
     0
 10
-4.5228634703387547
 20
87.999999927851576
 30
0.0
 11
-3.7728634699872989
 21
87.249999927500141
 31
0.0
  0
LINE
  5
1A5E
  8
0
 62
     0
 10
-3.4003314552051118
 20
87.999999927851604
 30
0.0
 11
-2.650331454854892
 21
87.249999927501378
 31
0.0
  0
LINE
  5
1A5F
  8
0
 62
     0
 10
-2.2777994400714898
 20
87.999999927851619
 30
0.0
 11
-1.5277994397225001
 21
87.249999927502614
 31
0.0
  0
LINE
  5
1A60
  8
0
 62
     0
 10
-1.1552674249378541
 20
87.999999927851619
 30
0.0
 11
-0.4052674245900932
 21
87.249999927503865
 31
0.0
  0
LINE
  5
1A61
  8
0
 62
     0
 10
-0.0327354098042179
 20
87.999999927851633
 30
0.0
 11
0.717264590542314
 21
87.249999927505087
 31
0.0
  0
LINE
  5
1A62
  8
0
 62
     0
 10
1.089796605329411
 20
87.999999927851633
 30
0.0
 11
1.839796605674713
 21
87.249999927506337
 31
0.0
  0
LINE
  5
1A63
  8
0
 62
     0
 10
2.2123286204630399
 20
87.999999927851647
 30
0.0
 11
2.9623286208071131
 21
87.249999927507574
 31
0.0
  0
LINE
  5
1A64
  8
0
 62
     0
 10
3.3348606355966761
 20
87.999999927851647
 30
0.0
 11
4.0848606359395196
 21
87.24999992750881
 31
0.0
  0
LINE
  5
1A65
  8
0
 62
     0
 10
4.4573926507303119
 20
87.99999992785169
 30
0.0
 11
5.2073926510719266
 21
87.249999927510075
 31
0.0
  0
LINE
  5
1A66
  8
0
 62
     0
 10
5.579924665863941
 20
87.99999992785169
 30
0.0
 11
6.3299246662043203
 21
87.249999927511311
 31
0.0
  0
LINE
  5
1A67
  8
0
 62
     0
 10
6.7024566809975781
 20
87.99999992785169
 30
0.0
 11
7.4524566813367343
 21
87.249999927512533
 31
0.0
  0
LINE
  5
1A68
  8
0
 62
     0
 10
7.8249886961312072
 20
87.999999927851704
 30
0.0
 11
8.0000000000083347
 21
87.824988623974576
 31
0.0
  0
ENDBLK
  5
1A6A
  8
0
  0
BLOCK
  8
0
  2
*X37
 70
     1
 10
0.0
 20
0.0
 30
0.0
  3
*X37
  1

  0
LINE
  5
1A6C
  8
0
 62
     0
 10
7.8230903955629421
 20
129.999999927852
 30
0.0
 11
8.000000000007887
 21
130.176909532297
 31
0.0
  0
LINE
  5
1A6D
  8
0
 62
     0
 10
6.7005583804292641
 20
129.999999927852
 30
0.0
 11
7.4505583804290012
 21
130.74999992785169
 31
0.0
  0
LINE
  5
1A6E
  8
0
 62
     0
 10
5.5780263652956057
 20
129.999999927852
 30
0.0
 11
6.328026365296572
 21
130.749999927853
 31
0.0
  0
LINE
  5
1A6F
  8
0
 62
     0
 10
4.4554943501619491
 20
129.999999927852
 30
0.0
 11
5.205494350164158
 21
130.74999992785419
 31
0.0
  0
LINE
  5
1A70
  8
0
 62
     0
 10
3.332962335028312
 20
129.999999927852
 30
0.0
 11
4.0829623350317226
 21
130.74999992785541
 31
0.0
  0
LINE
  5
1A71
  8
0
 62
     0
 10
2.2104303198946411
 20
129.999999927852
 30
0.0
 11
2.9604303198992881
 21
130.74999992785661
 31
0.0
  0
LINE
  5
1A72
  8
0
 62
     0
 10
1.08789830476099
 20
129.999999927852
 30
0.0
 11
1.8378983047668731
 21
130.7499999278578
 31
0.0
  0
LINE
  5
1A73
  8
0
 62
     0
 10
-0.034633710372681
 20
129.99999992785189
 30
0.0
 11
0.7153662896344457
 21
130.74999992785899
 31
0.0
  0
LINE
  5
1A74
  8
0
 62
     0
 10
-1.1571657255063239
 20
129.99999992785189
 30
0.0
 11
-0.4071657254979755
 21
130.7499999278603
 31
0.0
  0
LINE
  5
1A75
  8
0
 62
     0
 10
-2.2796977406399961
 20
129.99999992785189
 30
0.0
 11
-1.5296977406304251
 21
130.7499999278615
 31
0.0
  0
LINE
  5
1A76
  8
0
 62
     0
 10
-3.402229755773639
 20
129.99999992785189
 30
0.0
 11
-2.652229755762832
 21
130.74999992786269
 31
0.0
  0
LINE
  5
1A77
  8
0
 62
     0
 10
-4.5247617709073182
 20
129.99999992785189
 30
0.0
 11
-3.7747617708952599
 21
130.74999992786391
 31
0.0
  0
LINE
  5
1A78
  8
0
 62
     0
 10
-4.6166468952735178
 20
130.74999992786479
 30
0.0
 11
-3.8666468952605579
 21
129.99999992785189
 31
0.0
  0
LINE
  5
1A79
  8
0
 62
     0
 10
-3.494114880138667
 20
130.7499999278636
 30
0.0
 11
-2.744114880126943
 21
129.99999992785189
 31
0.0
  0
LINE
  5
1A7A
  8
0
 62
     0
 10
-2.3715828650038011
 20
130.7499999278624
 30
0.0
 11
-1.6215828649933
 21
129.99999992785189
 31
0.0
  0
LINE
  5
1A7B
  8
0
 62
     0
 10
-1.2490508498689501
 20
130.74999992786121
 30
0.0
 11
-0.4990508498596995
 21
129.99999992785189
 31
0.0
  0
LINE
  5
1A7C
  8
0
 62
     0
 10
-0.1265188347340853
 20
130.74999992785999
 30
0.0
 11
0.6234811652739439
 21
129.999999927852
 31
0.0
  0
LINE
  5
1A7D
  8
0
 62
     0
 10
0.9960131804007659
 20
130.74999992785871
 30
0.0
 11
1.746013180407558
 21
129.999999927852
 31
0.0
  0
LINE
  5
1A7E
  8
0
 62
     0
 10
2.1185451955356309
 20
130.74999992785749
 30
0.0
 11
2.8685451955411869
 21
129.999999927852
 31
0.0
  0
LINE
  5
1A7F
  8
0
 62
     0
 10
3.241077210670511
 20
130.74999992785629
 30
0.0
 11
3.9910772106748311
 21
129.999999927852
 31
0.0
  0
LINE
  5
1A80
  8
0
 62
     0
 10
4.363609225805348
 20
130.7499999278551
 30
0.0
 11
5.113609225808446
 21
129.999999927852
 31
0.0
  0
LINE
  5
1A81
  8
0
 62
     0
 10
5.4861412409402126
 20
130.74999992785391
 30
0.0
 11
6.2361412409420893
 21
129.999999927852
 31
0.0
  0
LINE
  5
1A82
  8
0
 62
     0
 10
6.6086732560750781
 20
130.74999992785271
 30
0.0
 11
7.3586732560757113
 21
129.999999927852
 31
0.0
  0
LINE
  5
1A83
  8
0
 62
     0
 10
7.7312052712099506
 20
130.74999992785141
 30
0.0
 11
8.0000000000081997
 21
130.48120519905319
 31
0.0
  0
ENDBLK
  5
1A85
  8
0
  0
BLOCK
  8
0
  2
*X38
 70
     1
 10
0.0
 20
0.0
 30
0.0
  3
*X38
  1

  0
LINE
  5
1AA2
  8
0
 62
     0
 10
74.799999999997254
 20
87.319848408506644
 30
0.0
 11
74.119848480652337
 21
87.999999927851576
 31
0.0
  0
LINE
  5
1AA3
  8
0
 62
     0
 10
73.747316465870114
 20
87.24999992750017
 30
0.0
 11
72.997316465518693
 21
87.999999927851604
 31
0.0
  0
LINE
  5
1AA4
  8
0
 62
     0
 10
72.624784450735248
 20
87.249999927501406
 30
0.0
 11
71.87478445038505
 21
87.999999927851604
 31
0.0
  0
LINE
  5
1AA5
  8
0
 62
     0
 10
71.502252435600354
 20
87.249999927502643
 30
0.0
 11
70.752252435251407
 21
87.999999927851619
 31
0.0
  0
LINE
  5
1AA6
  8
0
 62
     0
 10
70.379720420465503
 20
87.249999927503879
 30
0.0
 11
69.629720420117764
 21
87.999999927851633
 31
0.0
  0
LINE
  5
1AA7
  8
0
 62
     0
 10
69.257188405330623
 20
87.249999927505129
 30
0.0
 11
68.50718840498412
 21
87.999999927851647
 31
0.0
  0
LINE
  5
1AA8
  8
0
 62
     0
 10
68.134656390195744
 20
87.249999927506366
 30
0.0
 11
67.384656389850477
 21
87.999999927851647
 31
0.0
  0
LINE
  5
1AA9
  8
0
 62
     0
 10
67.012124375060864
 20
87.249999927507616
 30
0.0
 11
66.262124374716819
 21
87.999999927851675
 31
0.0
  0
LINE
  5
1AAA
  8
0
 62
     0
 10
65.889592359925999
 20
87.249999927508867
 30
0.0
 11
65.13959235958319
 21
87.99999992785169
 31
0.0
  0
LINE
  5
1AAB
  8
0
 62
     0
 10
64.767060344791133
 20
87.249999927510103
 30
0.0
 11
64.017060344449533
 21
87.999999927851704
 31
0.0
  0
LINE
  5
1AAC
  8
0
 62
     0
 10
63.644528329656247
 20
87.249999927511354
 30
0.0
 11
62.894528329315897
 21
87.999999927851718
 31
0.0
  0
LINE
  5
1AAD
  8
0
 62
     0
 10
62.521996314521367
 20
87.24999992751259
 30
0.0
 11
61.999999999986088
 21
87.771996242047877
 31
0.0
  0
LINE
  5
1AAE
  8
0
 62
     0
 10
73.879720419716023
 20
87.249999927500028
 30
0.0
 11
74.629720420067599
 21
87.999999927851576
 31
0.0
  0
LINE
  5
1AAF
  8
0
 62
     0
 10
72.757188404583616
 20
87.249999927501264
 30
0.0
 11
73.507188404933956
 21
87.999999927851576
 31
0.0
  0
LINE
  5
1AB0
  8
0
 62
     0
 10
71.634656389451195
 20
87.249999927502515
 30
0.0
 11
72.384656389800313
 21
87.999999927851604
 31
0.0
  0
LINE
  5
1AB1
  8
0
 62
     0
 10
70.512124374318773
 20
87.249999927503737
 30
0.0
 11
71.262124374666669
 21
87.999999927851619
 31
0.0
  0
LINE
  5
1AB2
  8
0
 62
     0
 10
69.389592359186366
 20
87.249999927504987
 30
0.0
 11
70.139592359533026
 21
87.999999927851633
 31
0.0
  0
LINE
  5
1AB3
  8
0
 62
     0
 10
68.267060344053945
 20
87.249999927506224
 30
0.0
 11
69.017060344399383
 21
87.999999927851647
 31
0.0
  0
LINE
  5
1AB4
  8
0
 62
     0
 10
67.144528328921524
 20
87.249999927507474
 30
0.0
 11
67.894528329265739
 21
87.999999927851647
 31
0.0
  0
LINE
  5
1AB5
  8
0
 62
     0
 10
66.021996313789117
 20
87.249999927508725
 30
0.0
 11
66.771996314132082
 21
87.999999927851675
 31
0.0
  0
LINE
  5
1AB6
  8
0
 62
     0
 10
64.899464298656696
 20
87.249999927509961
 30
0.0
 11
65.649464298998453
 21
87.99999992785169
 31
0.0
  0
LINE
  5
1AB7
  8
0
 62
     0
 10
63.776932283524289
 20
87.249999927511197
 30
0.0
 11
64.526932283864809
 21
87.999999927851704
 31
0.0
  0
LINE
  5
1AB8
  8
0
 62
     0
 10
62.654400268391868
 20
87.249999927512448
 30
0.0
 11
63.404400268731159
 21
87.999999927851718
 31
0.0
  0
LINE
  5
1AB9
  8
0
 62
     0
 10
61.999999999986031
 20
87.718131674240254
 30
0.0
 11
62.281868253597523
 21
87.999999927851718
 31
0.0
  0
ENDBLK
  5
1ABB
  8
0
  0
BLOCK
  8
0
  2
*X39
 70
     1
 10
0.0
 20
0.0
 30
0.0
  3
*X39
  1

  0
LINE
  5
1ABD
  8
0
 62
     0
 10
74.776065055730996
 20
129.99999992785189
 30
0.0
 11
74.026065055718703
 21
130.7499999278642
 31
0.0
  0
LINE
  5
1ABE
  8
0
 62
     0
 10
73.653533040597338
 20
129.99999992785189
 30
0.0
 11
72.903533040586254
 21
130.749999927863
 31
0.0
  0
LINE
  5
1ABF
  8
0
 62
     0
 10
72.531001025463709
 20
129.99999992785189
 30
0.0
 11
71.781001025453861
 21
130.74999992786181
 31
0.0
  0
LINE
  5
1AC0
  8
0
 62
     0
 10
71.408469010330052
 20
129.99999992785189
 30
0.0
 11
70.658469010321454
 21
130.7499999278605
 31
0.0
  0
LINE
  5
1AC1
  8
0
 62
     0
 10
70.285936995196408
 20
129.99999992785189
 30
0.0
 11
69.535936995189033
 21
130.74999992785931
 31
0.0
  0
LINE
  5
1AC2
  8
0
 62
     0
 10
69.163404980062751
 20
129.999999927852
 30
0.0
 11
68.413404980056612
 21
130.74999992785811
 31
0.0
  0
LINE
  5
1AC3
  8
0
 62
     0
 10
68.040872964929122
 20
129.999999927852
 30
0.0
 11
67.290872964924205
 21
130.74999992785689
 31
0.0
  0
LINE
  5
1AC4
  8
0
 62
     0
 10
66.918340949795464
 20
129.999999927852
 30
0.0
 11
66.168340949791784
 21
130.7499999278557
 31
0.0
  0
LINE
  5
1AC5
  8
0
 62
     0
 10
65.795808934661835
 20
129.999999927852
 30
0.0
 11
65.045808934659377
 21
130.74999992785439
 31
0.0
  0
LINE
  5
1AC6
  8
0
 62
     0
 10
64.673276919528163
 20
129.999999927852
 30
0.0
 11
63.92327691952697
 21
130.7499999278532
 31
0.0
  0
LINE
  5
1AC7
  8
0
 62
     0
 10
63.550744904394527
 20
129.999999927852
 30
0.0
 11
62.800744904394548
 21
130.749999927852
 31
0.0
  0
LINE
  5
1AC8
  8
0
 62
     0
 10
62.428212889260891
 20
129.999999927852
 30
0.0
 11
61.999999999986372
 21
130.42821281712659
 31
0.0
  0
LINE
  5
1AC9
  8
0
 62
     0
 10
73.973503844989906
 20
129.99999992785189
 30
0.0
 11
74.723503845002995
 21
130.74999992786491
 31
0.0
  0
LINE
  5
1ACA
  8
0
 62
     0
 10
72.850971829856263
 20
129.99999992785189
 30
0.0
 11
73.600971829868115
 21
130.74999992786371
 31
0.0
  0
LINE
  5
1ACB
  8
0
 62
     0
 10
71.728439814722634
 20
129.99999992785189
 30
0.0
 11
72.47843981473325
 21
130.74999992786249
 31
0.0
  0
LINE
  5
1ACC
  8
0
 62
     0
 10
70.605907799588991
 20
129.99999992785189
 30
0.0
 11
71.355907799598384
 21
130.7499999278613
 31
0.0
  0
LINE
  5
1ACD
  8
0
 62
     0
 10
69.483375784455347
 20
129.99999992785189
 30
0.0
 11
70.233375784463504
 21
130.7499999278601
 31
0.0
  0
LINE
  5
1ACE
  8
0
 62
     0
 10
68.360843769321704
 20
129.999999927852
 30
0.0
 11
69.110843769328639
 21
130.74999992785879
 31
0.0
  0
LINE
  5
1ACF
  8
0
 62
     0
 10
67.238311754188061
 20
129.999999927852
 30
0.0
 11
67.988311754193759
 21
130.74999992785769
 31
0.0
  0
LINE
  5
1AD0
  8
0
 62
     0
 10
66.115779739054418
 20
129.999999927852
 30
0.0
 11
66.865779739058894
 21
130.74999992785641
 31
0.0
  0
LINE
  5
1AD1
  8
0
 62
     0
 10
64.993247723920774
 20
129.999999927852
 30
0.0
 11
65.743247723924014
 21
130.74999992785521
 31
0.0
  0
LINE
  5
1AD2
  8
0
 62
     0
 10
63.870715708787138
 20
129.999999927852
 30
0.0
 11
64.620715708789149
 21
130.74999992785399
 31
0.0
  0
LINE
  5
1AD3
  8
0
 62
     0
 10
62.748183693653502
 20
129.999999927852
 30
0.0
 11
63.498183693654269
 21
130.7499999278528
 31
0.0
  0
LINE
  5
1AD4
  8
0
 62
     0
 10
61.999999999986429
 20
130.37434824931859
 30
0.0
 11
62.37565167851939
 21
130.74999992785149
 31
0.0
  0
ENDBLK
  5
1AD6
  8
0
  0
BLOCK
  8
0
  2
*X40
 70
     1
 10
0.0
 20
0.0
 30
0.0
  3
*X40
  1

  0
LINE
  5
1AF3
  8
0
 62
     0
 10
7.7293069703022113
 20
87.249999927512874
 30
0.0
 11
8.0000000000086757
 21
87.520692957219339
 31
0.0
  0
LINE
  5
1AF4
  8
0
 62
     0
 10
6.6067749551673236
 20
87.249999927511624
 30
0.0
 11
7.3567749555074151
 21
87.999999927851718
 31
0.0
  0
LINE
  5
1AF5
  8
0
 62
     0
 10
5.4842429400324368
 20
87.249999927510387
 30
0.0
 11
6.2342429403737567
 21
87.999999927851704
 31
0.0
  0
LINE
  5
1AF6
  8
0
 62
     0
 10
4.3617109248975536
 20
87.249999927509137
 30
0.0
 11
5.1117109252401072
 21
87.99999992785169
 31
0.0
  0
LINE
  5
1AF7
  8
0
 62
     0
 10
3.2391789097626602
 20
87.249999927507901
 30
0.0
 11
3.9891789101064461
 21
87.999999927851675
 31
0.0
  0
LINE
  5
1AF8
  8
0
 62
     0
 10
2.116646894627773
 20
87.249999927506664
 30
0.0
 11
2.8666468949727881
 21
87.999999927851647
 31
0.0
  0
LINE
  5
1AF9
  8
0
 62
     0
 10
0.9941148794928871
 20
87.249999927505414
 30
0.0
 11
1.7441148798391379
 21
87.999999927851647
 31
0.0
  0
LINE
  5
1AFA
  8
0
 62
     0
 10
-0.1284171356419925
 20
87.249999927504163
 30
0.0
 11
0.6215828647054842
 21
87.999999927851647
 31
0.0
  0
LINE
  5
1AFB
  8
0
 62
     0
 10
-1.2509491507768931
 20
87.249999927502927
 30
0.0
 11
-0.5009491504281805
 21
87.999999927851633
 31
0.0
  0
LINE
  5
1AFC
  8
0
 62
     0
 10
-2.3734811659117732
 20
87.249999927501676
 30
0.0
 11
-1.6234811655618411
 21
87.999999927851619
 31
0.0
  0
LINE
  5
1AFD
  8
0
 62
     0
 10
-3.496013181046667
 20
87.24999992750044
 30
0.0
 11
-2.746013180695495
 21
87.999999927851619
 31
0.0
  0
LINE
  5
1AFE
  8
0
 62
     0
 10
-4.6185451961815529
 20
87.249999927499189
 30
0.0
 11
-3.868545195829149
 21
87.999999927851604
 31
0.0
  0
LINE
  5
1AFF
  8
0
 62
     0
 10
-4.5228634703387547
 20
87.999999927851576
 30
0.0
 11
-3.7728634699872989
 21
87.249999927500141
 31
0.0
  0
LINE
  5
1B00
  8
0
 62
     0
 10
-3.4003314552051118
 20
87.999999927851604
 30
0.0
 11
-2.650331454854892
 21
87.249999927501378
 31
0.0
  0
LINE
  5
1B01
  8
0
 62
     0
 10
-2.2777994400714898
 20
87.999999927851619
 30
0.0
 11
-1.5277994397225001
 21
87.249999927502614
 31
0.0
  0
LINE
  5
1B02
  8
0
 62
     0
 10
-1.1552674249378541
 20
87.999999927851619
 30
0.0
 11
-0.4052674245900932
 21
87.249999927503865
 31
0.0
  0
LINE
  5
1B03
  8
0
 62
     0
 10
-0.0327354098042179
 20
87.999999927851633
 30
0.0
 11
0.717264590542314
 21
87.249999927505087
 31
0.0
  0
LINE
  5
1B04
  8
0
 62
     0
 10
1.089796605329411
 20
87.999999927851633
 30
0.0
 11
1.839796605674713
 21
87.249999927506337
 31
0.0
  0
LINE
  5
1B05
  8
0
 62
     0
 10
2.2123286204630399
 20
87.999999927851647
 30
0.0
 11
2.9623286208071131
 21
87.249999927507574
 31
0.0
  0
LINE
  5
1B06
  8
0
 62
     0
 10
3.3348606355966761
 20
87.999999927851647
 30
0.0
 11
4.0848606359395196
 21
87.24999992750881
 31
0.0
  0
LINE
  5
1B07
  8
0
 62
     0
 10
4.4573926507303119
 20
87.99999992785169
 30
0.0
 11
5.2073926510719266
 21
87.249999927510075
 31
0.0
  0
LINE
  5
1B08
  8
0
 62
     0
 10
5.579924665863941
 20
87.99999992785169
 30
0.0
 11
6.3299246662043203
 21
87.249999927511311
 31
0.0
  0
LINE
  5
1B09
  8
0
 62
     0
 10
6.7024566809975781
 20
87.99999992785169
 30
0.0
 11
7.4524566813367343
 21
87.249999927512533
 31
0.0
  0
LINE
  5
1B0A
  8
0
 62
     0
 10
7.8249886961312072
 20
87.999999927851704
 30
0.0
 11
8.0000000000083347
 21
87.824988623974576
 31
0.0
  0
ENDBLK
  5
1B0C
  8
0
  0
BLOCK
  8
0
  2
*X41
 70
     1
 10
0.0
 20
0.0
 30
0.0
  3
*X41
  1

  0
LINE
  5
1B0E
  8
0
 62
     0
 10
7.8230903955629421
 20
129.999999927852
 30
0.0
 11
8.000000000007887
 21
130.176909532297
 31
0.0
  0
LINE
  5
1B0F
  8
0
 62
     0
 10
6.7005583804292641
 20
129.999999927852
 30
0.0
 11
7.4505583804290012
 21
130.74999992785169
 31
0.0
  0
LINE
  5
1B10
  8
0
 62
     0
 10
5.5780263652956057
 20
129.999999927852
 30
0.0
 11
6.328026365296572
 21
130.749999927853
 31
0.0
  0
LINE
  5
1B11
  8
0
 62
     0
 10
4.4554943501619491
 20
129.999999927852
 30
0.0
 11
5.205494350164158
 21
130.74999992785419
 31
0.0
  0
LINE
  5
1B12
  8
0
 62
     0
 10
3.332962335028312
 20
129.999999927852
 30
0.0
 11
4.0829623350317226
 21
130.74999992785541
 31
0.0
  0
LINE
  5
1B13
  8
0
 62
     0
 10
2.2104303198946411
 20
129.999999927852
 30
0.0
 11
2.9604303198992881
 21
130.74999992785661
 31
0.0
  0
LINE
  5
1B14
  8
0
 62
     0
 10
1.08789830476099
 20
129.999999927852
 30
0.0
 11
1.8378983047668731
 21
130.7499999278578
 31
0.0
  0
LINE
  5
1B15
  8
0
 62
     0
 10
-0.034633710372681
 20
129.99999992785189
 30
0.0
 11
0.7153662896344457
 21
130.74999992785899
 31
0.0
  0
LINE
  5
1B16
  8
0
 62
     0
 10
-1.1571657255063239
 20
129.99999992785189
 30
0.0
 11
-0.4071657254979755
 21
130.7499999278603
 31
0.0
  0
LINE
  5
1B17
  8
0
 62
     0
 10
-2.2796977406399961
 20
129.99999992785189
 30
0.0
 11
-1.5296977406304251
 21
130.7499999278615
 31
0.0
  0
LINE
  5
1B18
  8
0
 62
     0
 10
-3.402229755773639
 20
129.99999992785189
 30
0.0
 11
-2.652229755762832
 21
130.74999992786269
 31
0.0
  0
LINE
  5
1B19
  8
0
 62
     0
 10
-4.5247617709073182
 20
129.99999992785189
 30
0.0
 11
-3.7747617708952599
 21
130.74999992786391
 31
0.0
  0
LINE
  5
1B1A
  8
0
 62
     0
 10
-4.6166468952735178
 20
130.74999992786479
 30
0.0
 11
-3.8666468952605579
 21
129.99999992785189
 31
0.0
  0
LINE
  5
1B1B
  8
0
 62
     0
 10
-3.494114880138667
 20
130.7499999278636
 30
0.0
 11
-2.744114880126943
 21
129.99999992785189
 31
0.0
  0
LINE
  5
1B1C
  8
0
 62
     0
 10
-2.3715828650038011
 20
130.7499999278624
 30
0.0
 11
-1.6215828649933
 21
129.99999992785189
 31
0.0
  0
LINE
  5
1B1D
  8
0
 62
     0
 10
-1.2490508498689501
 20
130.74999992786121
 30
0.0
 11
-0.4990508498596995
 21
129.99999992785189
 31
0.0
  0
LINE
  5
1B1E
  8
0
 62
     0
 10
-0.1265188347340853
 20
130.74999992785999
 30
0.0
 11
0.6234811652739439
 21
129.999999927852
 31
0.0
  0
LINE
  5
1B1F
  8
0
 62
     0
 10
0.9960131804007659
 20
130.74999992785871
 30
0.0
 11
1.746013180407558
 21
129.999999927852
 31
0.0
  0
LINE
  5
1B20
  8
0
 62
     0
 10
2.1185451955356309
 20
130.74999992785749
 30
0.0
 11
2.8685451955411869
 21
129.999999927852
 31
0.0
  0
LINE
  5
1B21
  8
0
 62
     0
 10
3.241077210670511
 20
130.74999992785629
 30
0.0
 11
3.9910772106748311
 21
129.999999927852
 31
0.0
  0
LINE
  5
1B22
  8
0
 62
     0
 10
4.363609225805348
 20
130.7499999278551
 30
0.0
 11
5.113609225808446
 21
129.999999927852
 31
0.0
  0
LINE
  5
1B23
  8
0
 62
     0
 10
5.4861412409402126
 20
130.74999992785391
 30
0.0
 11
6.2361412409420893
 21
129.999999927852
 31
0.0
  0
LINE
  5
1B24
  8
0
 62
     0
 10
6.6086732560750781
 20
130.74999992785271
 30
0.0
 11
7.3586732560757113
 21
129.999999927852
 31
0.0
  0
LINE
  5
1B25
  8
0
 62
     0
 10
7.7312052712099506
 20
130.74999992785141
 30
0.0
 11
8.0000000000081997
 21
130.48120519905319
 31
0.0
  0
ENDBLK
  5
1B27
  8
0
  0
BLOCK
  8
0
  2
*U42
 70
     1
 10
0.0
 20
0.0
 30
0.0
  3
*U42
  1

  0
TEXT
  5
1C52
  8
SAPA_MATT
 62
     2
 10
-38.0
 20
80.274999928158437
 30
0.0
 40
3.5
  1
5
 50
90.0
  7
ISO
  0
ENDBLK
  5
1C54
  8
0
  0
BLOCK
  8
0
  2
*U43
 70
     1
 10
0.0
 20
0.0
 30
0.0
  3
*U43
  1

  0
TEXT
  5
1C56
  8
SAPA_MATT
 62
     2
 10
-38.0
 20
135.2749999276628
 30
0.0
 40
3.5
  1
5
 50
90.0
  7
ISO
  0
ENDBLK
  5
1C58
  8
0
  0
ENDSEC
  0
SECTION
  2
ENTITIES
  0
TEXT
  5
B34
  8
SAPA_ARTIKELNR
 10
2.9073382793731919
 20
79.587767364321124
 30
0.0000000048844772
 40
3.5
  1
D8V007
  7
ISO
  0
TEXT
  5
F3F
  8
SAPA_ARTIKELNR
 10
51.839012082354508
 20
79.587767364321124
 30
0.0000000048844772
 40
3.5
  1
D8V010
  7
ISO
  0
POLYLINE
  5
142B
  8
SAPA_PROFIL
 66
     1
 10
0.0
 20
0.0
 30
0.0
 70
     1
  0
VERTEX
  5
17F3
  8
SAPA_PROFIL
 10
17.999999999996209
 20
93.756130887064558
 30
0.0
 42
0.2418327667417041
  0
VERTEX
  5
17F4
  8
SAPA_PROFIL
 10
17.874722325032259
 20
93.999999928014446
 30
0.0
 42
-0.2418327667547422
  0
VERTEX
  5
17F5
  8
SAPA_PROFIL
 10
17.749444650056681
 20
94.243868968973473
 30
0.0
  0
VERTEX
  5
17F6
  8
SAPA_PROFIL
 10
17.749444650056681
 20
95.199999928008836
 30
0.0
 42
-0.2814258985282543
  0
VERTEX
  5
17F7
  8
SAPA_PROFIL
 10
17.912650251182939
 20
95.466996730314094
 30
0.0
 42
0.2814258985233465
  0
VERTEX
  5
17F8
  8
SAPA_PROFIL
 10
18.075855852306631
 20
95.733993532609674
 30
0.0
  0
VERTEX
  5
17F9
  8
SAPA_PROFIL
 10
18.075855852306159
 20
97.911541887566983
 30
0.0
 42
0.0874886635248791
  0
VERTEX
  5
17FA
  8
SAPA_PROFIL
 10
18.057763638542351
 20
98.014147930563524
 30
0.0
  0
VERTEX
  5
17FB
  8
SAPA_PROFIL
 10
17.538249570867009
 20
99.441501100608946
 30
0.0
 42
0.4142135623698204
  0
VERTEX
  5
17FC
  8
SAPA_PROFIL
 10
17.153735741624839
 20
99.620802843846349
 30
0.0
  0
VERTEX
  5
17FD
  8
SAPA_PROFIL
 10
16.96579721747613
 20
99.552398815175295
 30
0.0
 42
0.4142135623730013
  0
VERTEX
  5
17FE
  8
SAPA_PROFIL
 10
16.786495474233611
 20
99.167884985953663
 30
0.0
  0
VERTEX
  5
17FF
  8
SAPA_PROFIL
 10
17.1627176319003
 20
98.134223103084508
 30
0.0
 42
-0.41421356237947
  0
VERTEX
  5
1800
  8
SAPA_PROFIL
 10
16.983415888649152
 20
97.749709273852972
 30
0.0
  0
VERTEX
  5
1801
  8
SAPA_PROFIL
 10
15.17322580931023
 20
97.090853966617132
 30
0.0
 42
0.3152987888800596
  0
VERTEX
  5
1802
  8
SAPA_PROFIL
 10
14.9758318523069
 20
96.808946180380914
 30
0.0
  0
VERTEX
  5
1803
  8
SAPA_PROFIL
 10
14.975831852306991
 20
96.389230412561574
 30
0.0
 42
0.1316524975873857
  0
VERTEX
  5
1804
  8
SAPA_PROFIL
 10
15.01602423117164
 20
96.239230412561668
 30
0.0
  0
VERTEX
  5
1805
  8
SAPA_PROFIL
 10
15.87583185230695
 20
94.749999928020785
 30
0.0
  0
VERTEX
  5
1806
  8
SAPA_PROFIL
 10
15.875843852306611
 20
94.299999928020839
 30
0.0
 42
-0.4142135623731054
  0
VERTEX
  5
1807
  8
SAPA_PROFIL
 10
15.57584385230661
 20
93.999999928020827
 30
0.0
  0
VERTEX
  5
1808
  8
SAPA_PROFIL
 10
11.975831852306539
 20
93.999999928020884
 30
0.0
 42
-0.414213562373095
  0
VERTEX
  5
1809
  8
SAPA_PROFIL
 10
11.675831852306541
 20
94.299999928020881
 30
0.0
  0
VERTEX
  5
180A
  8
SAPA_PROFIL
 10
11.675831852306651
 20
94.749999928020884
 30
0.0
  0
VERTEX
  5
180B
  8
SAPA_PROFIL
 10
12.53565658987563
 20
96.239260059095045
 30
0.0
 42
0.1316363093594254
  0
VERTEX
  5
180C
  8
SAPA_PROFIL
 10
12.57584896813259
 20
96.389240964141791
 30
0.0
  0
VERTEX
  5
180D
  8
SAPA_PROFIL
 10
12.5758560179234
 20
96.499999928019022
 30
0.0
  0
VERTEX
  5
180E
  8
SAPA_PROFIL
 10
10.50000000000713
 20
96.499999928019022
 30
0.0
 42
0.4142135623730955
  0
VERTEX
  5
180F
  8
SAPA_PROFIL
 10
10.00000000000713
 20
95.999999928019037
 30
0.0
  0
VERTEX
  5
1810
  8
SAPA_PROFIL
 10
10.00000000000713
 20
90.749999928353716
 30
0.0
 42
0.4142135623730953
  0
VERTEX
  5
1811
  8
SAPA_PROFIL
 10
10.50000000000713
 20
90.249999928353716
 30
0.0
  0
VERTEX
  5
1812
  8
SAPA_PROFIL
 10
11.000000003590531
 20
90.249999928353716
 30
0.0
 42
0.4142135623730953
  0
VERTEX
  5
1813
  8
SAPA_PROFIL
 10
11.500000003590531
 20
90.749999928353716
 30
0.0
  0
VERTEX
  5
1814
  8
SAPA_PROFIL
 10
11.50000000359508
 20
91.749999928760914
 30
0.0
  0
VERTEX
  5
1815
  8
SAPA_PROFIL
 10
14.700000004050001
 20
91.749999928765064
 30
0.0
  0
VERTEX
  5
1816
  8
SAPA_PROFIL
 10
14.700000004042019
 20
87.249999927859164
 30
0.0
  0
VERTEX
  5
1817
  8
SAPA_PROFIL
 10
-4.800000000003795
 20
87.249999927837791
 30
0.0
 42
0.4964147352859417
  0
VERTEX
  5
1818
  8
SAPA_PROFIL
 10
-4.9926307139942843
 20
86.996209519511837
 30
0.0
 42
0.306467954212033
  0
VERTEX
  5
1819
  8
SAPA_PROFIL
 10
-4.1382327808171802
 20
86.271093046662997
 30
0.0
 42
0.0272495355296329
  0
VERTEX
  5
181A
  8
SAPA_PROFIL
 10
9.9999999999859401
 20
85.499999928353375
 30
0.0
  0
VERTEX
  5
181B
  8
SAPA_PROFIL
 10
14.99999999990526
 20
85.499999928215473
 30
0.0
 42
0.4142135623819769
  0
VERTEX
  5
181C
  8
SAPA_PROFIL
 10
17.999999999996209
 20
88.499999928215473
 30
0.0
  0
SEQEND
  5
181D
  8
SAPA_PROFIL
  0
POLYLINE
  5
142C
  8
SAPA_PROFIL
 66
     1
 10
0.0
 20
0.0
 30
0.0
 70
     1
  0
VERTEX
  5
181E
  8
SAPA_PROFIL
 10
17.999999999996199
 20
124.2438689689771
 30
0.0
 42
-0.2418327667417041
  0
VERTEX
  5
181F
  8
SAPA_PROFIL
 10
17.874722325032259
 20
123.99999992802719
 30
0.0
 42
0.2418327667547422
  0
VERTEX
  5
1820
  8
SAPA_PROFIL
 10
17.74944465005667
 20
123.7561308870682
 30
0.0
  0
VERTEX
  5
1821
  8
SAPA_PROFIL
 10
17.74944465005667
 20
122.7999999280328
 30
0.0
 42
0.2814258985282543
  0
VERTEX
  5
1822
  8
SAPA_PROFIL
 10
17.912650251182939
 20
122.5330031257275
 30
0.0
 42
-0.2814258985233465
  0
VERTEX
  5
1823
  8
SAPA_PROFIL
 10
18.075855852306631
 20
122.26600632343199
 30
0.0
  0
VERTEX
  5
1824
  8
SAPA_PROFIL
 10
18.075855852306152
 20
120.0884579684746
 30
0.0
 42
-0.0874886635248791
  0
VERTEX
  5
1825
  8
SAPA_PROFIL
 10
18.057763638542351
 20
119.9858519254781
 30
0.0
  0
VERTEX
  5
1826
  8
SAPA_PROFIL
 10
17.538249570867009
 20
118.55849875543269
 30
0.0
 42
-0.4142135623698204
  0
VERTEX
  5
1827
  8
SAPA_PROFIL
 10
17.153735741624828
 20
118.37919701219531
 30
0.0
  0
VERTEX
  5
1828
  8
SAPA_PROFIL
 10
16.96579721747613
 20
118.4476010408663
 30
0.0
 42
-0.4142135623730013
  0
VERTEX
  5
1829
  8
SAPA_PROFIL
 10
16.786495474233611
 20
118.83211487008801
 30
0.0
  0
VERTEX
  5
182A
  8
SAPA_PROFIL
 10
17.1627176319003
 20
119.8657767529571
 30
0.0
 42
0.41421356237947
  0
VERTEX
  5
182B
  8
SAPA_PROFIL
 10
16.983415888649152
 20
120.2502905821887
 30
0.0
  0
VERTEX
  5
182C
  8
SAPA_PROFIL
 10
15.17322580931023
 20
120.90914588942449
 30
0.0
 42
-0.3152987888800596
  0
VERTEX
  5
182D
  8
SAPA_PROFIL
 10
14.975831852306889
 20
121.1910536756607
 30
0.0
  0
VERTEX
  5
182E
  8
SAPA_PROFIL
 10
14.975831852306991
 20
121.61076944348009
 30
0.0
 42
-0.1316524975873857
  0
VERTEX
  5
182F
  8
SAPA_PROFIL
 10
15.016024231171629
 20
121.76076944348
 30
0.0
  0
VERTEX
  5
1830
  8
SAPA_PROFIL
 10
15.875831852306939
 20
123.2499999280209
 30
0.0
  0
VERTEX
  5
1831
  8
SAPA_PROFIL
 10
15.8758438523066
 20
123.6999999280208
 30
0.0
 42
0.4142135623731054
  0
VERTEX
  5
1832
  8
SAPA_PROFIL
 10
15.575843852306599
 20
123.9999999280208
 30
0.0
  0
VERTEX
  5
1833
  8
SAPA_PROFIL
 10
11.975831852306531
 20
123.9999999280207
 30
0.0
 42
0.414213562373095
  0
VERTEX
  5
1834
  8
SAPA_PROFIL
 10
11.675831852306541
 20
123.6999999280208
 30
0.0
  0
VERTEX
  5
1835
  8
SAPA_PROFIL
 10
11.67583185230664
 20
123.2499999280208
 30
0.0
  0
VERTEX
  5
1836
  8
SAPA_PROFIL
 10
12.53565658987562
 20
121.76073979694659
 30
0.0
 42
-0.1316363093594254
  0
VERTEX
  5
1837
  8
SAPA_PROFIL
 10
12.57584896813259
 20
121.61075889189981
 30
0.0
  0
VERTEX
  5
1838
  8
SAPA_PROFIL
 10
12.575856017923391
 20
121.4999999280226
 30
0.0
  0
VERTEX
  5
1839
  8
SAPA_PROFIL
 10
10.50000000000712
 20
121.4999999280226
 30
0.0
 42
-0.4142135623730955
  0
VERTEX
  5
183A
  8
SAPA_PROFIL
 10
10.00000000000712
 20
121.9999999280226
 30
0.0
  0
VERTEX
  5
183B
  8
SAPA_PROFIL
 10
10.00000000000712
 20
127.2499999276879
 30
0.0
 42
-0.4142135623730953
  0
VERTEX
  5
183C
  8
SAPA_PROFIL
 10
10.50000000000712
 20
127.7499999276879
 30
0.0
  0
VERTEX
  5
183D
  8
SAPA_PROFIL
 10
11.00000000359052
 20
127.7499999276879
 30
0.0
 42
-0.4142135623730953
  0
VERTEX
  5
183E
  8
SAPA_PROFIL
 10
11.50000000359052
 20
127.2499999276879
 30
0.0
  0
VERTEX
  5
183F
  8
SAPA_PROFIL
 10
11.500000003595069
 20
126.2499999272807
 30
0.0
  0
VERTEX
  5
1840
  8
SAPA_PROFIL
 10
14.700000004050001
 20
126.2499999272766
 30
0.0
  0
VERTEX
  5
1841
  8
SAPA_PROFIL
 10
14.70000000404201
 20
130.74999992818249
 30
0.0
  0
VERTEX
  5
1842
  8
SAPA_PROFIL
 10
-4.8000000000038048
 20
130.74999992820381
 30
0.0
 42
-0.4964147352859417
  0
VERTEX
  5
1843
  8
SAPA_PROFIL
 10
-4.992630713994294
 20
131.00379033652979
 30
0.0
 42
-0.306467954212033
  0
VERTEX
  5
1844
  8
SAPA_PROFIL
 10
-4.1382327808171899
 20
131.7289068093786
 30
0.0
 42
-0.0272495355296329
  0
VERTEX
  5
1845
  8
SAPA_PROFIL
 10
9.9999999999859313
 20
132.49999992768829
 30
0.0
  0
VERTEX
  5
1846
  8
SAPA_PROFIL
 10
14.999999999905249
 20
132.4999999278262
 30
0.0
 42
-0.4142135623819769
  0
VERTEX
  5
1847
  8
SAPA_PROFIL
 10
17.999999999996199
 20
129.4999999278262
 30
0.0
  0
SEQEND
  5
1848
  8
SAPA_PROFIL
  0
LINE
  5
142D
  8
SAPA_PROFIL
 62
     4
 10
14.72584385230458
 20
96.85621771067332
 30
0.0
 11
14.72584385230458
 21
121.14378214536831
 31
0.0
  0
ARC
  5
142E
  8
SAPA_PROFIL
 62
     4
 10
15.5258438523046
 20
96.856217710673306
 30
0.0
 40
0.8000000000000166
 50
179.9999999999967
 51
209.9999999999981
  0
LINE
  5
142F
  8
SAPA_PROFIL
 62
     4
 10
15.82584385230645
 20
94.736602468399255
 30
0.0
 11
14.833023529277019
 21
96.456217710673315
 31
0.0
  0
LINE
  5
1430
  8
SAPA_PROFIL
 62
     4
 10
15.825843852306541
 20
94.29999992802081
 30
0.0
 11
15.82584385230645
 21
94.736602468399255
 31
0.0
  0
ARC
  5
1431
  8
SAPA_PROFIL
 62
     4
 10
15.57584385230655
 20
94.29999992802081
 30
0.0
 40
0.2499999999999892
 50
269.9999999999992
 51
0.0
  0
LINE
  5
1432
  8
SAPA_PROFIL
 62
     4
 10
11.975831852306481
 20
94.049999928020767
 30
0.0
 11
15.57584385230655
 21
94.049999928020824
 31
0.0
  0
ARC
  5
1433
  8
SAPA_PROFIL
 62
     4
 10
11.975831852306481
 20
94.299999928020796
 30
0.0
 40
0.2500000000000063
 50
179.99999999999841
 51
270.00000000000023
  0
LINE
  5
1434
  8
SAPA_PROFIL
 62
     4
 10
11.72584349504184
 20
94.736601849599225
 30
0.0
 11
11.725831852306481
 21
94.299999928020796
 31
0.0
  0
LINE
  5
1435
  8
SAPA_PROFIL
 62
     4
 10
12.71866417533211
 20
96.456217710666635
 30
0.0
 11
11.72584349504184
 21
94.736601849599225
 31
0.0
  0
ARC
  5
1436
  8
SAPA_PROFIL
 62
     4
 10
12.0258438523046
 20
96.856217710666726
 30
0.0
 40
0.8000000000000007
 50
329.99999999999261
 51
359.99999999999682
  0
LINE
  5
1437
  8
SAPA_PROFIL
 62
     4
 10
12.825843852304599
 20
121.143782145375
 30
0.0
 11
12.82584385230461
 21
96.856217710666684
 31
0.0
  0
ARC
  5
1438
  8
SAPA_PROFIL
 62
     4
 10
12.0258438523046
 20
121.1437821453749
 30
0.0
 40
0.8000000000000019
 50
0.0000000000032569
 51
30.000000000007311
  0
LINE
  5
1439
  8
SAPA_PROFIL
 62
     4
 10
11.725843495041831
 20
123.2633980064424
 30
0.0
 11
12.71866417533211
 21
121.543782145375
 31
0.0
  0
LINE
  5
143A
  8
SAPA_PROFIL
 62
     4
 10
11.72583185230647
 20
123.6999999280209
 30
0.0
 11
11.725843495041831
 21
123.2633980064424
 31
0.0
  0
ARC
  5
143B
  8
SAPA_PROFIL
 62
     4
 10
11.97583185230647
 20
123.6999999280209
 30
0.0
 40
0.2499999999999992
 50
89.999999999998167
 51
180.0
  0
LINE
  5
143C
  8
SAPA_PROFIL
 62
     4
 10
15.575843852306541
 20
123.9499999280208
 30
0.0
 11
11.975831852306481
 21
123.9499999280209
 31
0.0
  0
ARC
  5
143D
  8
SAPA_PROFIL
 62
     4
 10
15.575843852306541
 20
123.6999999280208
 30
0.0
 40
0.2499999999999893
 50
0.0000000000016284
 51
90.000000000000796
  0
LINE
  5
143E
  8
SAPA_PROFIL
 62
     4
 10
15.82584385230644
 20
123.2633973876424
 30
0.0
 11
15.82584385230653
 21
123.6999999280208
 31
0.0
  0
LINE
  5
143F
  8
SAPA_PROFIL
 62
     4
 10
14.833023529277011
 20
121.5437821453683
 30
0.0
 11
15.82584385230644
 21
123.2633973876424
 31
0.0
  0
ARC
  5
1440
  8
SAPA_PROFIL
 62
     4
 10
15.525843852304581
 20
121.14378214536841
 30
0.0
 40
0.8000000000000053
 50
150.0000000000019
 51
180.00000000000159
  0
POLYLINE
  5
1441
  8
SAPA_PROFIL
 66
     1
 10
0.0
 20
0.0
 30
0.0
 70
     1
  0
VERTEX
  5
1849
  8
SAPA_PROFIL
 10
51.999999999997868
 20
93.756130887064558
 30
0.0
 42
-0.2418327667417041
  0
VERTEX
  5
184A
  8
SAPA_PROFIL
 10
52.125277674961822
 20
93.999999928014446
 30
0.0
 42
0.2418327667547422
  0
VERTEX
  5
184B
  8
SAPA_PROFIL
 10
52.250555349937407
 20
94.243868968973445
 30
0.0
  0
VERTEX
  5
184C
  8
SAPA_PROFIL
 10
52.250555349937422
 20
95.199999928008808
 30
0.0
 42
0.2814258985282543
  0
VERTEX
  5
184D
  8
SAPA_PROFIL
 10
52.087349748811157
 20
95.466996730314094
 30
0.0
 42
-0.2814258985233465
  0
VERTEX
  5
184E
  8
SAPA_PROFIL
 10
51.924144147687471
 20
95.733993532609674
 30
0.0
  0
VERTEX
  5
184F
  8
SAPA_PROFIL
 10
51.924144147687983
 20
97.911541887566983
 30
0.0
 42
-0.0874886635248791
  0
VERTEX
  5
1850
  8
SAPA_PROFIL
 10
51.942236361451783
 20
98.014147930563524
 30
0.0
  0
VERTEX
  5
1851
  8
SAPA_PROFIL
 10
52.461750429127143
 20
99.441501100608946
 30
0.0
 42
-0.4142135623698204
  0
VERTEX
  5
1852
  8
SAPA_PROFIL
 10
52.84626425836931
 20
99.620802843846334
 30
0.0
  0
VERTEX
  5
1853
  8
SAPA_PROFIL
 10
53.034202782518022
 20
99.55239881517528
 30
0.0
 42
-0.4142135623730013
  0
VERTEX
  5
1854
  8
SAPA_PROFIL
 10
53.21350452576052
 20
99.167884985953663
 30
0.0
  0
VERTEX
  5
1855
  8
SAPA_PROFIL
 10
52.837282368093831
 20
98.134223103084494
 30
0.0
 42
0.41421356237947
  0
VERTEX
  5
1856
  8
SAPA_PROFIL
 10
53.016584111344969
 20
97.749709273852943
 30
0.0
  0
VERTEX
  5
1857
  8
SAPA_PROFIL
 10
54.826774190683892
 20
97.09085396661709
 30
0.0
 42
-0.3152987888800596
  0
VERTEX
  5
1858
  8
SAPA_PROFIL
 10
55.02416814768722
 20
96.808946180380886
 30
0.0
  0
VERTEX
  5
1859
  8
SAPA_PROFIL
 10
55.024168147687107
 20
96.389230412561545
 30
0.0
 42
-0.1316524975873857
  0
VERTEX
  5
185A
  8
SAPA_PROFIL
 10
54.983975768822468
 20
96.239230412561625
 30
0.0
  0
VERTEX
  5
185B
  8
SAPA_PROFIL
 10
54.124168147687151
 20
94.749999928020756
 30
0.0
  0
VERTEX
  5
185C
  8
SAPA_PROFIL
 10
54.124156147687479
 20
94.29999992802081
 30
0.0
 42
0.4142135623731054
  0
VERTEX
  5
185D
  8
SAPA_PROFIL
 10
54.424156147687476
 20
93.999999928020785
 30
0.0
  0
VERTEX
  5
185E
  8
SAPA_PROFIL
 10
58.02416814768754
 20
93.999999928020813
 30
0.0
 42
0.414213562373095
  0
VERTEX
  5
185F
  8
SAPA_PROFIL
 10
58.324168147687537
 20
94.29999992802081
 30
0.0
  0
VERTEX
  5
1860
  8
SAPA_PROFIL
 10
58.324168147687452
 20
94.749999928020799
 30
0.0
  0
VERTEX
  5
1861
  8
SAPA_PROFIL
 10
57.464343410118481
 20
96.239260059094988
 30
0.0
 42
-0.1316363093594254
  0
VERTEX
  5
1862
  8
SAPA_PROFIL
 10
57.42415103186152
 20
96.38924096414172
 30
0.0
  0
VERTEX
  5
1863
  8
SAPA_PROFIL
 10
57.42414398207071
 20
96.499999928018951
 30
0.0
  0
VERTEX
  5
1864
  8
SAPA_PROFIL
 10
59.499999999986983
 20
96.499999928018923
 30
0.0
 42
-0.4142135623730955
  0
VERTEX
  5
1865
  8
SAPA_PROFIL
 10
59.999999999986983
 20
95.999999928018923
 30
0.0
  0
VERTEX
  5
1866
  8
SAPA_PROFIL
 10
59.999999999986919
 20
90.749999928353617
 30
0.0
 42
-0.4142135623730953
  0
VERTEX
  5
1867
  8
SAPA_PROFIL
 10
59.499999999986912
 20
90.249999928353617
 30
0.0
  0
VERTEX
  5
1868
  8
SAPA_PROFIL
 10
58.99999999640351
 20
90.249999928353631
 30
0.0
 42
-0.4142135623730953
  0
VERTEX
  5
1869
  8
SAPA_PROFIL
 10
58.499999996403517
 20
90.749999928353645
 30
0.0
  0
VERTEX
  5
186A
  8
SAPA_PROFIL
 10
58.499999996398977
 20
91.749999928760843
 30
0.0
  0
VERTEX
  5
186B
  8
SAPA_PROFIL
 10
55.299999995944049
 20
91.749999928765021
 30
0.0
  0
VERTEX
  5
186C
  8
SAPA_PROFIL
 10
55.299999995951978
 20
87.249999927859122
 30
0.0
  0
VERTEX
  5
186D
  8
SAPA_PROFIL
 10
74.799999999997809
 20
87.249999927837536
 30
0.0
 42
-0.4964147352859417
  0
VERTEX
  5
186E
  8
SAPA_PROFIL
 10
74.992630713988291
 20
86.996209519511595
 30
0.0
 42
-0.306467954212033
  0
VERTEX
  5
186F
  8
SAPA_PROFIL
 10
74.138232780811165
 20
86.271093046662756
 30
0.0
 42
-0.0272495355296329
  0
VERTEX
  5
1870
  8
SAPA_PROFIL
 10
60.000000000008043
 20
85.499999928353276
 30
0.0
  0
VERTEX
  5
1871
  8
SAPA_PROFIL
 10
55.000000000088718
 20
85.499999928215431
 30
0.0
 42
-0.4142135623819769
  0
VERTEX
  5
1872
  8
SAPA_PROFIL
 10
51.999999999997812
 20
88.499999928215473
 30
0.0
  0
SEQEND
  5
1873
  8
SAPA_PROFIL
  0
POLYLINE
  5
1442
  8
SAPA_PROFIL
 66
     1
 10
0.0
 20
0.0
 30
0.0
 70
     1
  0
VERTEX
  5
1874
  8
SAPA_PROFIL
 10
51.999999999998231
 20
124.2438689689771
 30
0.0
 42
0.2418327667417041
  0
VERTEX
  5
1875
  8
SAPA_PROFIL
 10
52.12527767496217
 20
123.99999992802719
 30
0.0
 42
-0.2418327667547422
  0
VERTEX
  5
1876
  8
SAPA_PROFIL
 10
52.250555349937748
 20
123.7561308870682
 30
0.0
  0
VERTEX
  5
1877
  8
SAPA_PROFIL
 10
52.250555349937741
 20
122.7999999280328
 30
0.0
 42
-0.2814258985282543
  0
VERTEX
  5
1878
  8
SAPA_PROFIL
 10
52.087349748811477
 20
122.5330031257275
 30
0.0
 42
0.2814258985233465
  0
VERTEX
  5
1879
  8
SAPA_PROFIL
 10
51.924144147687777
 20
122.26600632343199
 30
0.0
  0
VERTEX
  5
187A
  8
SAPA_PROFIL
 10
51.924144147688231
 20
120.0884579684746
 30
0.0
 42
0.0874886635248791
  0
VERTEX
  5
187B
  8
SAPA_PROFIL
 10
51.942236361452032
 20
119.9858519254781
 30
0.0
  0
VERTEX
  5
187C
  8
SAPA_PROFIL
 10
52.461750429127349
 20
118.55849875543269
 30
0.0
 42
0.4142135623698204
  0
VERTEX
  5
187D
  8
SAPA_PROFIL
 10
52.84626425836953
 20
118.37919701219531
 30
0.0
  0
VERTEX
  5
187E
  8
SAPA_PROFIL
 10
53.034202782518243
 20
118.4476010408663
 30
0.0
 42
0.4142135623730013
  0
VERTEX
  5
187F
  8
SAPA_PROFIL
 10
53.213504525760762
 20
118.83211487008801
 30
0.0
  0
VERTEX
  5
1880
  8
SAPA_PROFIL
 10
52.837282368094087
 20
119.8657767529571
 30
0.0
 42
-0.41421356237947
  0
VERTEX
  5
1881
  8
SAPA_PROFIL
 10
53.016584111345239
 20
120.2502905821887
 30
0.0
  0
VERTEX
  5
1882
  8
SAPA_PROFIL
 10
54.826774190684169
 20
120.90914588942449
 30
0.0
 42
0.3152987888800596
  0
VERTEX
  5
1883
  8
SAPA_PROFIL
 10
55.024168147687497
 20
121.1910536756607
 30
0.0
  0
VERTEX
  5
1884
  8
SAPA_PROFIL
 10
55.024168147687412
 20
121.61076944348
 30
0.0
 42
0.1316524975873857
  0
VERTEX
  5
1885
  8
SAPA_PROFIL
 10
54.983975768822759
 20
121.7607694434799
 30
0.0
  0
VERTEX
  5
1886
  8
SAPA_PROFIL
 10
54.124168147687477
 20
123.2499999280208
 30
0.0
  0
VERTEX
  5
1887
  8
SAPA_PROFIL
 10
54.12415614768782
 20
123.6999999280208
 30
0.0
 42
-0.4142135623731054
  0
VERTEX
  5
1888
  8
SAPA_PROFIL
 10
54.424156147687832
 20
123.9999999280208
 30
0.0
  0
VERTEX
  5
1889
  8
SAPA_PROFIL
 10
58.024168147687902
 20
123.9999999280207
 30
0.0
 42
-0.414213562373095
  0
VERTEX
  5
188A
  8
SAPA_PROFIL
 10
58.324168147687878
 20
123.6999999280207
 30
0.0
  0
VERTEX
  5
188B
  8
SAPA_PROFIL
 10
58.324168147687779
 20
123.2499999280207
 30
0.0
  0
VERTEX
  5
188C
  8
SAPA_PROFIL
 10
57.464343410118779
 20
121.7607397969465
 30
0.0
 42
0.1316363093594254
  0
VERTEX
  5
188D
  8
SAPA_PROFIL
 10
57.424151031861811
 20
121.61075889189981
 30
0.0
  0
VERTEX
  5
188E
  8
SAPA_PROFIL
 10
57.424143982071008
 20
121.4999999280226
 30
0.0
  0
VERTEX
  5
188F
  8
SAPA_PROFIL
 10
59.499999999987281
 20
121.4999999280225
 30
0.0
 42
0.4142135623730955
  0
VERTEX
  5
1890
  8
SAPA_PROFIL
 10
59.999999999987288
 20
121.9999999280225
 30
0.0
  0
VERTEX
  5
1891
  8
SAPA_PROFIL
 10
59.999999999987352
 20
127.2499999276878
 30
0.0
 42
0.4142135623730953
  0
VERTEX
  5
1892
  8
SAPA_PROFIL
 10
59.499999999987352
 20
127.7499999276878
 30
0.0
  0
VERTEX
  5
1893
  8
SAPA_PROFIL
 10
58.99999999640395
 20
127.7499999276878
 30
0.0
 42
0.4142135623730953
  0
VERTEX
  5
1894
  8
SAPA_PROFIL
 10
58.499999996403943
 20
127.2499999276878
 30
0.0
  0
VERTEX
  5
1895
  8
SAPA_PROFIL
 10
58.499999996399382
 20
126.2499999272806
 30
0.0
  0
VERTEX
  5
1896
  8
SAPA_PROFIL
 10
55.299999995944461
 20
126.24999992727651
 30
0.0
  0
VERTEX
  5
1897
  8
SAPA_PROFIL
 10
55.299999995952497
 20
130.7499999281824
 30
0.0
  0
VERTEX
  5
1898
  8
SAPA_PROFIL
 10
74.799999999998306
 20
130.74999992820349
 30
0.0
 42
0.4964147352859417
  0
VERTEX
  5
1899
  8
SAPA_PROFIL
 10
74.992630713988802
 20
131.00379033652951
 30
0.0
 42
0.306467954212033
  0
VERTEX
  5
189A
  8
SAPA_PROFIL
 10
74.138232780811705
 20
131.7289068093784
 30
0.0
 42
0.0272495355296329
  0
VERTEX
  5
189B
  8
SAPA_PROFIL
 10
60.00000000000859
 20
132.49999992768821
 30
0.0
  0
VERTEX
  5
189C
  8
SAPA_PROFIL
 10
55.000000000089273
 20
132.49999992782611
 30
0.0
 42
0.4142135623819769
  0
VERTEX
  5
189D
  8
SAPA_PROFIL
 10
51.999999999998288
 20
129.4999999278262
 30
0.0
  0
SEQEND
  5
189E
  8
SAPA_PROFIL
  0
POLYLINE
  5
1443
  8
SAPA_PROFIL
 62
     4
 66
     1
 10
0.0
 20
0.0
 30
0.0
 70
     1
  0
VERTEX
  5
1444
  8
SAPA_PROFIL
 62
     4
 10
55.274156147689808
 20
121.14378214536831
 30
0.0
 42
0.1316524975873979
  0
VERTEX
  5
1445
  8
SAPA_PROFIL
 62
     4
 10
55.166976470717387
 20
121.5437821453683
 30
0.0
  0
VERTEX
  5
1446
  8
SAPA_PROFIL
 62
     4
 10
54.174156147687981
 20
123.2633973876424
 30
0.0
  0
VERTEX
  5
1447
  8
SAPA_PROFIL
 62
     4
 10
54.174156147687889
 20
123.6999999280208
 30
0.0
 42
-0.4142135623730951
  0
VERTEX
  5
1448
  8
SAPA_PROFIL
 62
     4
 10
54.424156147687889
 20
123.9499999280208
 30
0.0
  0
VERTEX
  5
1449
  8
SAPA_PROFIL
 62
     4
 10
58.024168147687952
 20
123.9499999280208
 30
0.0
 42
-0.4142135623731053
  0
VERTEX
  5
144A
  8
SAPA_PROFIL
 62
     4
 10
58.274168147687952
 20
123.6999999280208
 30
0.0
  0
VERTEX
  5
144B
  8
SAPA_PROFIL
 62
     4
 10
58.274156504952579
 20
123.2633980064423
 30
0.0
  0
VERTEX
  5
144C
  8
SAPA_PROFIL
 62
     4
 10
57.281335824662293
 20
121.54378214537491
 30
0.0
 42
0.1316524975874149
  0
VERTEX
  5
144D
  8
SAPA_PROFIL
 62
     4
 10
57.174156147689793
 20
121.1437821453749
 30
0.0
  0
VERTEX
  5
144E
  8
SAPA_PROFIL
 62
     4
 10
57.174156147689509
 20
96.856217710666627
 30
0.0
 42
0.1316524975874151
  0
VERTEX
  5
144F
  8
SAPA_PROFIL
 62
     4
 10
57.281335824662001
 20
96.456217710666564
 30
0.0
  0
VERTEX
  5
1450
  8
SAPA_PROFIL
 62
     4
 10
58.274156504952252
 20
94.736601849599154
 30
0.0
  0
VERTEX
  5
1451
  8
SAPA_PROFIL
 62
     4
 10
58.274168147687611
 20
94.299999928020725
 30
0.0
 42
-0.4142135623731054
  0
VERTEX
  5
1452
  8
SAPA_PROFIL
 62
     4
 10
58.024168147687597
 20
94.049999928020696
 30
0.0
  0
VERTEX
  5
1453
  8
SAPA_PROFIL
 62
     4
 10
54.42415614768754
 20
94.049999928020796
 30
0.0
 42
-0.4142135623730953
  0
VERTEX
  5
1454
  8
SAPA_PROFIL
 62
     4
 10
54.174156147687548
 20
94.299999928020796
 30
0.0
  0
VERTEX
  5
1455
  8
SAPA_PROFIL
 62
     4
 10
54.17415614768764
 20
94.736602468399255
 30
0.0
  0
VERTEX
  5
1456
  8
SAPA_PROFIL
 62
     4
 10
55.166976470717081
 20
96.456217710673243
 30
0.0
 42
0.1316524975873982
  0
VERTEX
  5
1457
  8
SAPA_PROFIL
 62
     4
 10
55.274156147689531
 20
96.856217710673278
 30
0.0
  0
SEQEND
  5
1458
  8
SAPA_PROFIL
 62
     4
  0
POLYLINE
  5
1459
  8
SAPA_PROFIL
 66
     1
 10
0.0
 20
0.0
 30
0.0
 70
     1
  0
VERTEX
  5
189F
  8
SAPA_PROFIL
 10
49.550531182958132
 20
96.500020597660253
 30
0.0
  0
VERTEX
  5
18A0
  8
SAPA_PROFIL
 10
49.550538234064511
 20
96.389240964812984
 30
0.0
 42
0.1316363093594259
  0
VERTEX
  5
18A1
  8
SAPA_PROFIL
 10
49.590730612321479
 20
96.239260059766238
 30
0.0
  0
VERTEX
  5
18A2
  8
SAPA_PROFIL
 10
50.450555349890458
 20
94.749999928692077
 30
0.0
  0
VERTEX
  5
18A3
  8
SAPA_PROFIL
 10
50.450555349890557
 20
94.299999928692046
 30
0.0
 42
-0.4142135623730951
  0
VERTEX
  5
18A4
  8
SAPA_PROFIL
 10
50.150555349890553
 20
93.999999928692077
 30
0.0
  0
VERTEX
  5
18A5
  8
SAPA_PROFIL
 10
46.550543349890489
 20
93.999999928692034
 30
0.0
 42
-0.4142135623731057
  0
VERTEX
  5
18A6
  8
SAPA_PROFIL
 10
46.250543349890492
 20
94.299999928692046
 30
0.0
  0
VERTEX
  5
18A7
  8
SAPA_PROFIL
 10
46.250555349890149
 20
94.749999928691977
 30
0.0
  0
VERTEX
  5
18A8
  8
SAPA_PROFIL
 10
47.110362971025459
 20
96.239230413232875
 30
0.0
 42
0.1316524975873847
  0
VERTEX
  5
18A9
  8
SAPA_PROFIL
 10
47.150555349890098
 20
96.389230413232795
 30
0.0
  0
VERTEX
  5
18AA
  8
SAPA_PROFIL
 10
47.150555349890212
 20
96.808946181052136
 30
0.0
 42
0.3152987888800601
  0
VERTEX
  5
18AB
  8
SAPA_PROFIL
 10
46.953161392886877
 20
97.090853967288339
 30
0.0
  0
VERTEX
  5
18AC
  8
SAPA_PROFIL
 10
45.142971313547953
 20
97.749709274524164
 30
0.0
 42
-0.4142135623794693
  0
VERTEX
  5
18AD
  8
SAPA_PROFIL
 10
44.963669570296801
 20
98.134223103755716
 30
0.0
  0
VERTEX
  5
18AE
  8
SAPA_PROFIL
 10
45.339891727963483
 20
99.16788498662487
 30
0.0
 42
0.4142135623730012
  0
VERTEX
  5
18AF
  8
SAPA_PROFIL
 10
45.160589984720957
 20
99.552398815846487
 30
0.0
  0
VERTEX
  5
18B0
  8
SAPA_PROFIL
 10
44.972651460572258
 20
99.620802844517556
 30
0.0
 42
0.4142135623698216
  0
VERTEX
  5
18B1
  8
SAPA_PROFIL
 10
44.588137631330092
 20
99.441501101280153
 30
0.0
  0
VERTEX
  5
18B2
  8
SAPA_PROFIL
 10
44.068623563654747
 20
98.014147931234731
 30
0.0
 42
0.0874886635248795
  0
VERTEX
  5
18B3
  8
SAPA_PROFIL
 10
44.050531349890953
 20
97.911541888238204
 30
0.0
  0
VERTEX
  5
18B4
  8
SAPA_PROFIL
 10
44.05053134989047
 20
95.482851125298978
 30
0.0
 42
-0.3178606011767442
  0
VERTEX
  5
18B5
  8
SAPA_PROFIL
 10
44.250555349898931
 20
95.199999928678267
 30
0.0
  0
VERTEX
  5
18B6
  8
SAPA_PROFIL
 10
44.250555349889837
 20
94.243868969639266
 30
0.0
 42
-0.2418327667528833
  0
VERTEX
  5
18B7
  8
SAPA_PROFIL
 10
44.125277674914827
 20
93.999999928680552
 30
0.0
 42
0.2418327667422567
  0
VERTEX
  5
18B8
  8
SAPA_PROFIL
 10
43.999999999961247
 20
93.756130887730365
 30
0.0
  0
VERTEX
  5
18B9
  8
SAPA_PROFIL
 10
43.99999999996129
 20
85.499999929441515
 30
0.0
 42
-0.4142135623730951
  0
VERTEX
  5
18BA
  8
SAPA_PROFIL
 10
41.99999999996129
 20
83.499999929441515
 30
0.0
  0
VERTEX
  5
18BB
  8
SAPA_PROFIL
 10
41.249999999941281
 20
83.499999929441515
 30
0.0
 42
0.4142135623730951
  0
VERTEX
  5
18BC
  8
SAPA_PROFIL
 10
40.749999999941281
 20
82.999999929441515
 30
0.0
  0
VERTEX
  5
18BD
  8
SAPA_PROFIL
 10
40.749999999941281
 20
82.699999929442242
 30
0.0
 42
0.4142135623730951
  0
VERTEX
  5
18BE
  8
SAPA_PROFIL
 10
40.949999999940182
 20
82.499999929441515
 30
0.0
  0
VERTEX
  5
18BF
  8
SAPA_PROFIL
 10
41.799999999940489
 20
82.499999929441515
 30
0.0
 42
-0.4142135623730951
  0
VERTEX
  5
18C0
  8
SAPA_PROFIL
 10
41.999999999941217
 20
82.299999929440773
 30
0.0
  0
VERTEX
  5
18C1
  8
SAPA_PROFIL
 10
41.999999999941281
 20
81.299999929440773
 30
0.0
 42
-0.4142135623730951
  0
VERTEX
  5
18C2
  8
SAPA_PROFIL
 10
41.499999999941281
 20
80.799999929440787
 30
0.0
  0
VERTEX
  5
18C3
  8
SAPA_PROFIL
 10
35.499999999941281
 20
80.799999929440787
 30
0.0
 42
-0.4142135623730951
  0
VERTEX
  5
18C4
  8
SAPA_PROFIL
 10
34.999999999941281
 20
81.299999929440773
 30
0.0
  0
VERTEX
  5
18C5
  8
SAPA_PROFIL
 10
34.999999999941281
 20
82.299999929440773
 30
0.0
 42
-0.4142135623731001
  0
VERTEX
  5
18C6
  8
SAPA_PROFIL
 10
35.199999999940196
 20
82.499999929441515
 30
0.0
  0
VERTEX
  5
18C7
  8
SAPA_PROFIL
 10
36.049999999940511
 20
82.499999929452429
 30
0.0
 42
0.4142135623731029
  0
VERTEX
  5
18C8
  8
SAPA_PROFIL
 10
36.249999999941281
 20
82.699999929453156
 30
0.0
  0
VERTEX
  5
18C9
  8
SAPA_PROFIL
 10
36.249999999930381
 20
82.999999929441515
 30
0.0
 42
0.4142135623730951
  0
VERTEX
  5
18CA
  8
SAPA_PROFIL
 10
35.749999999930381
 20
83.499999929441515
 30
0.0
  0
VERTEX
  5
18CB
  8
SAPA_PROFIL
 10
32.749999999930367
 20
83.499999929441515
 30
0.0
 42
0.4142135623730951
  0
VERTEX
  5
18CC
  8
SAPA_PROFIL
 10
32.249999999930381
 20
82.999999929441515
 30
0.0
  0
VERTEX
  5
18CD
  8
SAPA_PROFIL
 10
32.249999999930381
 20
82.699999929442242
 30
0.0
 42
0.4142135623731054
  0
VERTEX
  5
18CE
  8
SAPA_PROFIL
 10
32.449999999931102
 20
82.499999929441515
 30
0.0
  0
VERTEX
  5
18CF
  8
SAPA_PROFIL
 10
33.299999999931458
 20
82.499999929441515
 30
0.0
 42
-0.4142135623731003
  0
VERTEX
  5
18D0
  8
SAPA_PROFIL
 10
33.499999999930381
 20
82.299999929440773
 30
0.0
  0
VERTEX
  5
18D1
  8
SAPA_PROFIL
 10
33.499999999930353
 20
81.299999929440773
 30
0.0
 42
-0.4142135623730951
  0
VERTEX
  5
18D2
  8
SAPA_PROFIL
 10
32.999999999930367
 20
80.799999929440787
 30
0.0
  0
VERTEX
  5
18D3
  8
SAPA_PROFIL
 10
26.99999999993036
 20
80.799999929440787
 30
0.0
 42
-0.4142135623730971
  0
VERTEX
  5
18D4
  8
SAPA_PROFIL
 10
26.49999999993037
 20
81.299999929440773
 30
0.0
  0
VERTEX
  5
18D5
  8
SAPA_PROFIL
 10
26.499999999930392
 20
82.299999929440773
 30
0.0
 42
-0.4142135623730951
  0
VERTEX
  5
18D6
  8
SAPA_PROFIL
 10
26.699999999931091
 20
82.499999929441515
 30
0.0
  0
VERTEX
  5
18D7
  8
SAPA_PROFIL
 10
27.549999999931469
 20
82.499999929443334
 30
0.0
 42
0.4142135623730847
  0
VERTEX
  5
18D8
  8
SAPA_PROFIL
 10
27.74999999993037
 20
82.699999929442242
 30
0.0
  0
VERTEX
  5
18D9
  8
SAPA_PROFIL
 10
27.74999999993037
 20
82.999999929441515
 30
0.0
 42
0.414213562373093
  0
VERTEX
  5
18DA
  8
SAPA_PROFIL
 10
27.24999999993036
 20
83.499999929441515
 30
0.0
  0
VERTEX
  5
18DB
  8
SAPA_PROFIL
 10
25.49999999993037
 20
83.499999929441515
 30
0.0
 42
0.4142135623730971
  0
VERTEX
  5
18DC
  8
SAPA_PROFIL
 10
24.99999999993037
 20
82.999999929441515
 30
0.0
  0
VERTEX
  5
18DD
  8
SAPA_PROFIL
 10
24.99999999993036
 20
80.499999929441515
 30
0.0
 42
0.4142135623730966
  0
VERTEX
  5
18DE
  8
SAPA_PROFIL
 10
26.49999999993037
 20
78.999999929441515
 30
0.0
  0
VERTEX
  5
18DF
  8
SAPA_PROFIL
 10
43.499999999981299
 20
78.999999929441515
 30
0.0
 42
0.4142135623730943
  0
VERTEX
  5
18E0
  8
SAPA_PROFIL
 10
44.999999999981299
 20
80.499999929441515
 30
0.0
  0
VERTEX
  5
18E1
  8
SAPA_PROFIL
 10
44.999999999981299
 20
81.999999929943556
 30
0.0
 42
-0.4142135623730959
  0
VERTEX
  5
18E2
  8
SAPA_PROFIL
 10
46.999999999981299
 20
83.999999929943556
 30
0.0
  0
VERTEX
  5
18E3
  8
SAPA_PROFIL
 10
59.999999999961297
 20
83.999999929548579
 30
0.0
 42
0.0280584604927802
  0
VERTEX
  5
18E4
  8
SAPA_PROFIL
 10
74.723938223689814
 20
84.826913017277803
 30
0.0
 42
0.3817186928404021
  0
VERTEX
  5
18E5
  8
SAPA_PROFIL
 10
76.499999999970385
 20
86.814336392362847
 30
0.0
  0
VERTEX
  5
18E6
  8
SAPA_PROFIL
 10
76.499999999981284
 20
87.049999930252042
 30
0.0
 42
0.4142135623890832
  0
VERTEX
  5
18E7
  8
SAPA_PROFIL
 10
76.299999999980571
 20
87.249999930263684
 30
0.0
  0
VERTEX
  5
18E8
  8
SAPA_PROFIL
 10
75.398487206920834
 20
87.249999930262035
 30
0.0
 42
0.3981911081815064
  0
VERTEX
  5
18E9
  8
SAPA_PROFIL
 10
75.198789765521184
 20
87.060996834450734
 30
0.0
 42
-0.3661896282363019
  0
VERTEX
  5
18EA
  8
SAPA_PROFIL
 10
74.489164086660395
 20
86.309968874251439
 30
0.0
 42
-0.0279290488516246
  0
VERTEX
  5
18EB
  8
SAPA_PROFIL
 10
59.999999999961332
 20
85.499999929550626
 30
0.0
  0
VERTEX
  5
18EC
  8
SAPA_PROFIL
 10
54.999999999970377
 20
85.499999929943542
 30
0.0
 42
-0.4142135623738016
  0
VERTEX
  5
18ED
  8
SAPA_PROFIL
 10
51.999999999970377
 20
88.499999929950818
 30
0.0
  0
VERTEX
  5
18EE
  8
SAPA_PROFIL
 10
51.999999999961268
 20
95.999999928692077
 30
0.0
 42
0.4142135623730951
  0
VERTEX
  5
18EF
  8
SAPA_PROFIL
 10
51.499999999941259
 20
96.499999928692077
 30
0.0
  0
SEQEND
  5
18F0
  8
SAPA_PROFIL
  0
POLYLINE
  5
145A
  8
SAPA_PROFIL
 62
     4
 66
     1
 10
0.0
 20
0.0
 30
0.0
 70
     1
  0
VERTEX
  5
145B
  8
SAPA_PROFIL
 62
     4
 10
47.350011999754607
 20
121.1437821458059
 30
0.0
 42
0.1316524975873979
  0
VERTEX
  5
145C
  8
SAPA_PROFIL
 62
     4
 10
47.242832322782171
 20
121.54378214580591
 30
0.0
  0
VERTEX
  5
145D
  8
SAPA_PROFIL
 62
     4
 10
46.250011999752751
 20
123.26339738807999
 30
0.0
  0
VERTEX
  5
145E
  8
SAPA_PROFIL
 62
     4
 10
46.250011999752651
 20
123.6999999284584
 30
0.0
 42
-0.4142135623730951
  0
VERTEX
  5
145F
  8
SAPA_PROFIL
 62
     4
 10
46.500011999752651
 20
123.9499999284584
 30
0.0
  0
VERTEX
  5
1460
  8
SAPA_PROFIL
 62
     4
 10
50.100023999752707
 20
123.9499999284585
 30
0.0
 42
-0.4142135623731053
  0
VERTEX
  5
1461
  8
SAPA_PROFIL
 62
     4
 10
50.350023999752722
 20
123.6999999284585
 30
0.0
  0
VERTEX
  5
1462
  8
SAPA_PROFIL
 62
     4
 10
50.350012357017363
 20
123.26339800688
 30
0.0
  0
VERTEX
  5
1463
  8
SAPA_PROFIL
 62
     4
 10
49.357191676727084
 20
121.5437821458126
 30
0.0
 42
0.1316524975874149
  0
VERTEX
  5
1464
  8
SAPA_PROFIL
 62
     4
 10
49.250011999754591
 20
121.14378214581259
 30
0.0
  0
VERTEX
  5
1465
  8
SAPA_PROFIL
 62
     4
 10
49.250011999754577
 20
96.856217711104307
 30
0.0
 42
0.1316524975874151
  0
VERTEX
  5
1466
  8
SAPA_PROFIL
 62
     4
 10
49.357191676727084
 20
96.456217711104244
 30
0.0
  0
VERTEX
  5
1467
  8
SAPA_PROFIL
 62
     4
 10
50.350012357017349
 20
94.736601850036848
 30
0.0
  0
VERTEX
  5
1468
  8
SAPA_PROFIL
 62
     4
 10
50.350023999752707
 20
94.299999928458377
 30
0.0
 42
-0.4142135623731054
  0
VERTEX
  5
1469
  8
SAPA_PROFIL
 62
     4
 10
50.1000239997527
 20
94.049999928458377
 30
0.0
  0
VERTEX
  5
146A
  8
SAPA_PROFIL
 62
     4
 10
46.500011999752637
 20
94.049999928458433
 30
0.0
 42
-0.4142135623730953
  0
VERTEX
  5
146B
  8
SAPA_PROFIL
 62
     4
 10
46.250011999752637
 20
94.299999928458433
 30
0.0
  0
VERTEX
  5
146C
  8
SAPA_PROFIL
 62
     4
 10
46.250011999752743
 20
94.736602468836892
 30
0.0
  0
VERTEX
  5
146D
  8
SAPA_PROFIL
 62
     4
 10
47.242832322782156
 20
96.456217711110924
 30
0.0
 42
0.1316524975873982
  0
VERTEX
  5
146E
  8
SAPA_PROFIL
 62
     4
 10
47.350011999754599
 20
96.856217711110943
 30
0.0
  0
SEQEND
  5
146F
  8
SAPA_PROFIL
 62
     4
  0
POLYLINE
  5
1470
  8
SAPA_PROFIL
 66
     1
 10
0.0
 20
0.0
 30
0.0
 70
     1
  0
VERTEX
  5
18F1
  8
SAPA_PROFIL
 10
74.489164086662839
 20
131.69003098300669
 30
0.0
 42
-0.3661896282369366
  0
VERTEX
  5
18F2
  8
SAPA_PROFIL
 10
75.198789765521241
 20
130.9390030228038
 30
0.0
 42
0.3981911081762862
  0
VERTEX
  5
18F3
  8
SAPA_PROFIL
 10
75.398487206920834
 20
130.749999926996
 30
0.0
  0
VERTEX
  5
18F4
  8
SAPA_PROFIL
 10
76.29999999998239
 20
130.7499999269946
 30
0.0
 42
0.4142135623890821
  0
VERTEX
  5
18F5
  8
SAPA_PROFIL
 10
76.499999999983103
 20
130.94999992700619
 30
0.0
  0
VERTEX
  5
18F6
  8
SAPA_PROFIL
 10
76.499999999972204
 20
131.18566346489541
 30
0.0
 42
0.3817186928405929
  0
VERTEX
  5
18F7
  8
SAPA_PROFIL
 10
74.723938223690325
 20
133.17308683998061
 30
0.0
 42
0.0013952961753318
  0
VERTEX
  5
18F8
  8
SAPA_PROFIL
 10
73.994402528041249
 20
133.25322817803291
 30
0.0
 42
-0.3095794403630754
  0
VERTEX
  5
18F9
  8
SAPA_PROFIL
 10
73.135283677130644
 20
133.98729521094509
 30
0.0
 42
-0.1240929020087166
  0
VERTEX
  5
18FA
  8
SAPA_PROFIL
 10
72.735381971251115
 20
158.42621744873551
 30
0.0
 42
0.0577043334217576
  0
VERTEX
  5
18FB
  8
SAPA_PROFIL
 10
72.999999999967713
 20
160.71146095287409
 30
0.0
  0
VERTEX
  5
18FC
  8
SAPA_PROFIL
 10
72.999999999952195
 20
161.4999999275839
 30
0.0
 42
0.4142135623730919
  0
VERTEX
  5
18FD
  8
SAPA_PROFIL
 10
71.999999999952195
 20
162.4999999275839
 30
0.0
  0
VERTEX
  5
18FE
  8
SAPA_PROFIL
 10
68.999999999972204
 20
162.4999999275839
 30
0.0
 42
0.4142135623709599
  0
VERTEX
  5
18FF
  8
SAPA_PROFIL
 10
67.999999999964928
 20
161.4999999275839
 30
0.0
  0
VERTEX
  5
1900
  8
SAPA_PROFIL
 10
67.999999999972204
 20
160.71146095297601
 30
0.0
 42
0.0577043334242842
  0
VERTEX
  5
1901
  8
SAPA_PROFIL
 10
68.264618028696134
 20
158.42621744873651
 30
0.0
 42
-0.112327037720401
  0
VERTEX
  5
1902
  8
SAPA_PROFIL
 10
68.416483945651152
 20
136.24125202253509
 30
0.0
 42
-0.3554370601987876
  0
VERTEX
  5
1903
  8
SAPA_PROFIL
 10
65.450410842660887
 20
133.886997083609
 30
0.0
 42
0.0103653381647562
  0
VERTEX
  5
1904
  8
SAPA_PROFIL
 10
59.999999999961332
 20
133.9999999277039
 30
0.0
  0
VERTEX
  5
1905
  8
SAPA_PROFIL
 10
46.999999999981291
 20
133.99999992731469
 30
0.0
 42
-0.4142135623730946
  0
VERTEX
  5
1906
  8
SAPA_PROFIL
 10
44.999999999981299
 20
135.99999992731469
 30
0.0
  0
VERTEX
  5
1907
  8
SAPA_PROFIL
 10
44.999999999981299
 20
137.49999992781679
 30
0.0
 42
0.4142135623730958
  0
VERTEX
  5
1908
  8
SAPA_PROFIL
 10
43.499999999981299
 20
138.99999992781679
 30
0.0
  0
VERTEX
  5
1909
  8
SAPA_PROFIL
 10
26.499999999932221
 20
138.99999992781679
 30
0.0
 42
0.4142135623730961
  0
VERTEX
  5
190A
  8
SAPA_PROFIL
 10
24.999999999932211
 20
137.49999992781679
 30
0.0
  0
VERTEX
  5
190B
  8
SAPA_PROFIL
 10
24.999999999932211
 20
134.99999992781679
 30
0.0
 42
0.4142135623730919
  0
VERTEX
  5
190C
  8
SAPA_PROFIL
 10
25.499999999932211
 20
134.49999992781679
 30
0.0
  0
VERTEX
  5
190D
  8
SAPA_PROFIL
 10
27.249999999932221
 20
134.49999992781679
 30
0.0
 42
0.414213562373092
  0
VERTEX
  5
190E
  8
SAPA_PROFIL
 10
27.749999999932211
 20
134.99999992781679
 30
0.0
  0
VERTEX
  5
190F
  8
SAPA_PROFIL
 10
27.749999999932211
 20
135.299999927816
 30
0.0
 42
0.4142135623730977
  0
VERTEX
  5
1910
  8
SAPA_PROFIL
 10
27.54999999993143
 20
135.49999992781679
 30
0.0
  0
VERTEX
  5
1911
  8
SAPA_PROFIL
 10
26.699999999931119
 20
135.49999992781679
 30
0.0
 42
-0.4142135623731081
  0
VERTEX
  5
1912
  8
SAPA_PROFIL
 10
26.499999999932211
 20
135.69999992781379
 30
0.0
  0
VERTEX
  5
1913
  8
SAPA_PROFIL
 10
26.499999999932211
 20
136.69999992781379
 30
0.0
 42
-0.414213562373094
  0
VERTEX
  5
1914
  8
SAPA_PROFIL
 10
26.999999999932211
 20
137.19999992781391
 30
0.0
  0
VERTEX
  5
1915
  8
SAPA_PROFIL
 10
32.999999999932221
 20
137.19999992781391
 30
0.0
 42
-0.4142135623730919
  0
VERTEX
  5
1916
  8
SAPA_PROFIL
 10
33.499999999932108
 20
136.69999992781379
 30
0.0
  0
VERTEX
  5
1917
  8
SAPA_PROFIL
 10
33.499999999932108
 20
135.69999992781379
 30
0.0
 42
-0.4142135623730977
  0
VERTEX
  5
1918
  8
SAPA_PROFIL
 10
33.299999999931437
 20
135.49999992781679
 30
0.0
  0
VERTEX
  5
1919
  8
SAPA_PROFIL
 10
32.44999999993113
 20
135.49999992781679
 30
0.0
 42
0.4142135623730977
  0
VERTEX
  5
191A
  8
SAPA_PROFIL
 10
32.249999999930402
 20
135.299999927816
 30
0.0
  0
VERTEX
  5
191B
  8
SAPA_PROFIL
 10
32.249999999932221
 20
134.99999992781679
 30
0.0
 42
0.4142135623730909
  0
VERTEX
  5
191C
  8
SAPA_PROFIL
 10
32.749999999932221
 20
134.49999992781679
 30
0.0
  0
VERTEX
  5
191D
  8
SAPA_PROFIL
 10
35.749999999932193
 20
134.49999992781679
 30
0.0
 42
0.4142135623730909
  0
VERTEX
  5
191E
  8
SAPA_PROFIL
 10
36.249999999932193
 20
134.99999992781679
 30
0.0
  0
VERTEX
  5
191F
  8
SAPA_PROFIL
 10
36.249999999941302
 20
135.29999992780509
 30
0.0
 42
0.4142135623731004
  0
VERTEX
  5
1920
  8
SAPA_PROFIL
 10
36.049999999942379
 20
135.499999927804
 30
0.0
  0
VERTEX
  5
1921
  8
SAPA_PROFIL
 10
35.199999999942001
 20
135.49999992781679
 30
0.0
 42
-0.4142135623730977
  0
VERTEX
  5
1922
  8
SAPA_PROFIL
 10
34.999999999941302
 20
135.69999992781379
 30
0.0
  0
VERTEX
  5
1923
  8
SAPA_PROFIL
 10
34.999999999941302
 20
136.69999992781379
 30
0.0
 42
-0.414213562373093
  0
VERTEX
  5
1924
  8
SAPA_PROFIL
 10
35.499999999941302
 20
137.19999992781391
 30
0.0
  0
VERTEX
  5
1925
  8
SAPA_PROFIL
 10
41.499999999941281
 20
137.19999992781391
 30
0.0
 42
-0.414213562373093
  0
VERTEX
  5
1926
  8
SAPA_PROFIL
 10
41.999999999941281
 20
136.69999992781379
 30
0.0
  0
VERTEX
  5
1927
  8
SAPA_PROFIL
 10
41.999999999939462
 20
135.69999992781379
 30
0.0
 42
-0.4142135623731054
  0
VERTEX
  5
1928
  8
SAPA_PROFIL
 10
41.799999999942372
 20
135.49999992781679
 30
0.0
  0
VERTEX
  5
1929
  8
SAPA_PROFIL
 10
40.94999999994198
 20
135.49999992781679
 30
0.0
 42
0.4142135623731003
  0
VERTEX
  5
192A
  8
SAPA_PROFIL
 10
40.749999999941281
 20
135.299999927816
 30
0.0
  0
VERTEX
  5
192B
  8
SAPA_PROFIL
 10
40.749999999941281
 20
134.99999992781679
 30
0.0
 42
0.4142135623730951
  0
VERTEX
  5
192C
  8
SAPA_PROFIL
 10
41.249999999941281
 20
134.49999992781679
 30
0.0
  0
VERTEX
  5
192D
  8
SAPA_PROFIL
 10
41.999999999961247
 20
134.49999992781679
 30
0.0
 42
-0.4142135623730956
  0
VERTEX
  5
192E
  8
SAPA_PROFIL
 10
43.999999999961261
 20
132.4999999278167
 30
0.0
  0
VERTEX
  5
192F
  8
SAPA_PROFIL
 10
43.999999999961283
 20
124.2438689695243
 30
0.0
 42
0.2418327667422647
  0
VERTEX
  5
1930
  8
SAPA_PROFIL
 10
44.125277674916731
 20
123.9999999285741
 30
0.0
 42
-0.2418327667528779
  0
VERTEX
  5
1931
  8
SAPA_PROFIL
 10
44.250555349891719
 20
123.7561308876154
 30
0.0
  0
VERTEX
  5
1932
  8
SAPA_PROFIL
 10
44.250555349900807
 20
122.7999999285763
 30
0.0
 42
-0.366509610888124
  0
VERTEX
  5
1933
  8
SAPA_PROFIL
 10
43.999999999961283
 20
122.504102604179
 30
0.0
  0
VERTEX
  5
1934
  8
SAPA_PROFIL
 10
43.999999999735138
 20
120.08845796914579
 30
0.0
 42
0.0874886635248759
  0
VERTEX
  5
1935
  8
SAPA_PROFIL
 10
44.018092213498939
 20
119.98585192614919
 30
0.0
  0
VERTEX
  5
1936
  8
SAPA_PROFIL
 10
44.537606281174291
 20
118.5584987561038
 30
0.0
 42
0.4142135623698217
  0
VERTEX
  5
1937
  8
SAPA_PROFIL
 10
44.922120110416472
 20
118.3791970128664
 30
0.0
  0
VERTEX
  5
1938
  8
SAPA_PROFIL
 10
45.110058634565164
 20
118.4476010415375
 30
0.0
 42
0.4142135623730022
  0
VERTEX
  5
1939
  8
SAPA_PROFIL
 10
45.289360377807689
 20
118.8321148707591
 30
0.0
  0
VERTEX
  5
193A
  8
SAPA_PROFIL
 10
44.913138220141001
 20
119.8657767536283
 30
0.0
 42
-0.4142135623794707
  0
VERTEX
  5
193B
  8
SAPA_PROFIL
 10
45.092439963392152
 20
120.2502905828598
 30
0.0
  0
VERTEX
  5
193C
  8
SAPA_PROFIL
 10
46.902630042731069
 20
120.9091458900956
 30
0.0
 42
0.3152987888800592
  0
VERTEX
  5
193D
  8
SAPA_PROFIL
 10
47.100023999734397
 20
121.1910536763318
 30
0.0
  0
VERTEX
  5
193E
  8
SAPA_PROFIL
 10
47.100023999734297
 20
121.6107694441512
 30
0.0
 42
0.1316524975873863
  0
VERTEX
  5
193F
  8
SAPA_PROFIL
 10
47.059831621003667
 20
121.76076944395111
 30
0.0
  0
VERTEX
  5
1940
  8
SAPA_PROFIL
 10
46.200023999779191
 20
123.2499999284405
 30
0.0
  0
VERTEX
  5
1941
  8
SAPA_PROFIL
 10
46.200011999752583
 20
123.69999992844041
 30
0.0
 42
-0.4142135623731065
  0
VERTEX
  5
1942
  8
SAPA_PROFIL
 10
46.500011999734632
 20
123.99999992845839
 30
0.0
  0
VERTEX
  5
1943
  8
SAPA_PROFIL
 10
50.100023999734688
 20
123.9999999286739
 30
0.0
 42
-0.4142135623730951
  0
VERTEX
  5
1944
  8
SAPA_PROFIL
 10
50.400023999752648
 20
123.69999992869189
 30
0.0
  0
VERTEX
  5
1945
  8
SAPA_PROFIL
 10
50.400023999779499
 20
123.24999992869191
 30
0.0
  0
VERTEX
  5
1946
  8
SAPA_PROFIL
 10
49.54019926229968
 20
121.7607397975662
 30
0.0
 42
0.1316363093594254
  0
VERTEX
  5
1947
  8
SAPA_PROFIL
 10
49.500006884051707
 20
121.6107588925171
 30
0.0
  0
VERTEX
  5
1948
  8
SAPA_PROFIL
 10
49.500002873493877
 20
121.4999999285662
 30
0.0
  0
VERTEX
  5
1949
  8
SAPA_PROFIL
 10
51.499999999941281
 20
121.4999999285662
 30
0.0
 42
0.4142135623730951
  0
VERTEX
  5
194A
  8
SAPA_PROFIL
 10
51.99999999996129
 20
121.9999999285662
 30
0.0
  0
VERTEX
  5
194B
  8
SAPA_PROFIL
 10
51.999999999972211
 20
129.4999999273038
 30
0.0
 42
-0.4142135623741605
  0
VERTEX
  5
194C
  8
SAPA_PROFIL
 10
54.999999999972196
 20
132.49999992731469
 30
0.0
  0
VERTEX
  5
194D
  8
SAPA_PROFIL
 10
59.999999999961311
 20
132.4999999277095
 30
0.0
 42
-0.0279290488516269
  0
SEQEND
  5
194E
  8
SAPA_PROFIL
  0
POLYLINE
  5
1471
  8
SAPA_PROFIL
 62
     4
 66
     1
 10
0.0
 20
0.0
 30
-0.2
 70
     1
  0
VERTEX
  5
194F
  8
SAPA_PROFIL
 62
     4
 10
36.592264973109813
 20
96.456217710565625
 30
-0.2
  0
VERTEX
  5
1950
  8
SAPA_PROFIL
 62
     4
 10
35.599444650080379
 20
94.736602468291579
 30
-0.2
  0
VERTEX
  5
1951
  8
SAPA_PROFIL
 62
     4
 10
35.599444650080287
 20
94.29999992791312
 30
-0.2
 42
0.4142135623730951
  0
VERTEX
  5
1952
  8
SAPA_PROFIL
 62
     4
 10
35.849444650080279
 20
94.049999927913134
 30
-0.2
  0
VERTEX
  5
1953
  8
SAPA_PROFIL
 62
     4
 10
39.44945665008035
 20
94.049999927913078
 30
-0.2
 42
0.4142135623731053
  0
VERTEX
  5
1954
  8
SAPA_PROFIL
 62
     4
 10
39.69945665008035
 20
94.299999927913092
 30
-0.2
  0
VERTEX
  5
1955
  8
SAPA_PROFIL
 62
     4
 10
39.699445007344991
 20
94.736601849491549
 30
-0.2
  0
VERTEX
  5
1956
  8
SAPA_PROFIL
 62
     4
 10
38.706624327054719
 20
96.456217710558946
 30
-0.2
 42
-0.1316524975874149
  0
VERTEX
  5
1957
  8
SAPA_PROFIL
 62
     4
 10
38.599444650082219
 20
96.856217710558994
 30
-0.2
  0
VERTEX
  5
1958
  8
SAPA_PROFIL
 62
     4
 10
38.599444650082219
 20
121.14378214526729
 30
-0.2
 42
-0.1316524975874152
  0
VERTEX
  5
1959
  8
SAPA_PROFIL
 62
     4
 10
38.706624327054719
 20
121.5437821452673
 30
-0.2
  0
VERTEX
  5
195A
  8
SAPA_PROFIL
 62
     4
 10
39.699445007344991
 20
123.2633980063347
 30
-0.2
  0
VERTEX
  5
195B
  8
SAPA_PROFIL
 62
     4
 10
39.69945665008035
 20
123.6999999279132
 30
-0.2
 42
0.4142135623731045
  0
VERTEX
  5
195C
  8
SAPA_PROFIL
 62
     4
 10
39.44945665008035
 20
123.9499999279132
 30
-0.2
  0
VERTEX
  5
195D
  8
SAPA_PROFIL
 62
     4
 10
35.849444650080287
 20
123.9499999279131
 30
-0.2
 42
0.4142135623730935
  0
VERTEX
  5
195E
  8
SAPA_PROFIL
 62
     4
 10
35.599444650080287
 20
123.6999999279131
 30
-0.2
  0
VERTEX
  5
195F
  8
SAPA_PROFIL
 62
     4
 10
35.599444650080393
 20
123.2633973875347
 30
-0.2
  0
VERTEX
  5
1960
  8
SAPA_PROFIL
 62
     4
 10
36.59226497310982
 20
121.54378214526059
 30
-0.2
 42
-0.1316524975873982
  0
VERTEX
  5
1961
  8
SAPA_PROFIL
 62
     4
 10
36.699444650082249
 20
121.1437821452606
 30
-0.2
  0
VERTEX
  5
1962
  8
SAPA_PROFIL
 62
     4
 10
36.699444650082242
 20
96.85621771056563
 30
-0.2
 42
-0.1316524975873979
  0
SEQEND
  5
1963
  8
SAPA_PROFIL
 62
     4
  0
POLYLINE
  5
1472
  8
SAPA_PROFIL
 66
     1
 10
0.0
 20
0.0
 30
0.0
 70
     1
  0
VERTEX
  5
1964
  8
SAPA_PROFIL
 10
2.0000000000204921
 20
161.49999992758569
 30
0.0
  0
VERTEX
  5
1965
  8
SAPA_PROFIL
 10
2.0000000000204921
 20
160.71146095297411
 30
0.0
 42
-0.0577043334240353
  0
VERTEX
  5
1966
  8
SAPA_PROFIL
 10
1.7353819713036669
 20
158.42621744873659
 30
0.0
 42
0.1123270377207732
  0
VERTEX
  5
1967
  8
SAPA_PROFIL
 10
1.583516054202867
 20
136.24125202250619
 30
0.0
 42
0.3636666106259163
  0
VERTEX
  5
1968
  8
SAPA_PROFIL
 10
4.637004045830202
 20
133.88933079964289
 30
0.0
 42
-0.0360286231067385
  0
VERTEX
  5
1969
  8
SAPA_PROFIL
 10
23.338749150973729
 20
133.3138730081038
 30
0.0
 42
-0.0472456768419823
  0
VERTEX
  5
196A
  8
SAPA_PROFIL
 10
25.187819206581509
 20
132.9444200513345
 30
0.0
 42
-0.0120164869908705
  0
VERTEX
  5
196B
  8
SAPA_PROFIL
 10
26.329931278357229
 20
132.57142849920061
 30
0.0
 42
0.0851278882549297
  0
VERTEX
  5
196C
  8
SAPA_PROFIL
 10
29.661903789720359
 20
131.99999992776401
 30
0.0
  0
VERTEX
  5
196D
  8
SAPA_PROFIL
 10
37.000000000049589
 20
131.99999992776401
 30
0.0
 42
-0.4142135623730951
  0
VERTEX
  5
196E
  8
SAPA_PROFIL
 10
42.000000000049589
 20
126.99999992776399
 30
0.0
  0
VERTEX
  5
196F
  8
SAPA_PROFIL
 10
42.000000000038668
 20
124.24386896886389
 30
0.0
 42
-0.2418327667382071
  0
VERTEX
  5
1970
  8
SAPA_PROFIL
 10
41.87472232507249
 20
123.9999999278986
 30
0.0
 42
0.2418327667526432
  0
VERTEX
  5
1971
  8
SAPA_PROFIL
 10
41.749444650079127
 20
123.7561308869623
 30
0.0
  0
VERTEX
  5
1972
  8
SAPA_PROFIL
 10
41.749444650079127
 20
122.7999999279124
 30
0.0
 42
0.3178606011753677
  0
VERTEX
  5
1973
  8
SAPA_PROFIL
 10
41.94946865008037
 20
122.5171487313022
 30
0.0
  0
VERTEX
  5
1974
  8
SAPA_PROFIL
 10
41.94946865008037
 20
120.2141894902868
 30
0.0
 42
-0.6681786379192716
  0
VERTEX
  5
1975
  8
SAPA_PROFIL
 10
40.24236186889388
 20
119.5070827091002
 30
0.0
  0
VERTEX
  5
1976
  8
SAPA_PROFIL
 10
38.937312615724707
 20
120.81213196226921
 30
0.0
 42
-0.1989123673797335
  0
VERTEX
  5
1977
  8
SAPA_PROFIL
 10
38.849444650080599
 20
121.02426399662519
 30
0.0
  0
VERTEX
  5
1978
  8
SAPA_PROFIL
 10
38.849444650080741
 20
121.6107694433724
 30
0.0
 42
-0.1316524975873855
  0
VERTEX
  5
1979
  8
SAPA_PROFIL
 10
38.889637028945387
 20
121.7607694433723
 30
0.0
  0
VERTEX
  5
197A
  8
SAPA_PROFIL
 10
39.74944465008069
 20
123.24999992791319
 30
0.0
  0
VERTEX
  5
197B
  8
SAPA_PROFIL
 10
39.749456650080361
 20
123.6999999279132
 30
0.0
 42
0.4142135623731054
  0
VERTEX
  5
197C
  8
SAPA_PROFIL
 10
39.44945665008035
 20
123.99999992791319
 30
0.0
  0
VERTEX
  5
197D
  8
SAPA_PROFIL
 10
35.849444650080287
 20
123.99999992791309
 30
0.0
 42
0.4142135623730951
  0
VERTEX
  5
197E
  8
SAPA_PROFIL
 10
35.549444650080289
 20
123.6999999279131
 30
0.0
  0
VERTEX
  5
197F
  8
SAPA_PROFIL
 10
35.549444650080389
 20
123.24999992791309
 30
0.0
  0
VERTEX
  5
1980
  8
SAPA_PROFIL
 10
36.409269387649381
 20
121.76073979683891
 30
0.0
 42
-0.1316363093594254
  0
VERTEX
  5
1981
  8
SAPA_PROFIL
 10
36.449461765906342
 20
121.6107588917922
 30
0.0
  0
VERTEX
  5
1982
  8
SAPA_PROFIL
 10
36.449468650080242
 20
121.4999999279064
 30
0.0
  0
VERTEX
  5
1983
  8
SAPA_PROFIL
 10
34.000000000020478
 20
121.49999992791309
 30
0.0
  0
VERTEX
  5
1984
  8
SAPA_PROFIL
 10
31.550531349960728
 20
121.5026019279133
 30
0.0
  0
VERTEX
  5
1985
  8
SAPA_PROFIL
 10
31.550538234134638
 20
121.6107588917922
 30
0.0
 42
-0.1316363093594255
  0
VERTEX
  5
1986
  8
SAPA_PROFIL
 10
31.59073061239161
 20
121.76073979683891
 30
0.0
  0
VERTEX
  5
1987
  8
SAPA_PROFIL
 10
32.450555349960581
 20
123.24999992791309
 30
0.0
  0
VERTEX
  5
1988
  8
SAPA_PROFIL
 10
32.45055534996068
 20
123.6999999279131
 30
0.0
 42
0.4142135623730951
  0
VERTEX
  5
1989
  8
SAPA_PROFIL
 10
32.150555349960683
 20
123.99999992791309
 30
0.0
  0
VERTEX
  5
198A
  8
SAPA_PROFIL
 10
28.55054334996063
 20
123.99999992791319
 30
0.0
 42
0.4142135623731054
  0
VERTEX
  5
198B
  8
SAPA_PROFIL
 10
28.250543349960619
 20
123.6999999279132
 30
0.0
  0
VERTEX
  5
198C
  8
SAPA_PROFIL
 10
28.25055534996028
 20
123.24999992791319
 30
0.0
  0
VERTEX
  5
198D
  8
SAPA_PROFIL
 10
29.11036297109559
 20
121.7607694433723
 30
0.0
 42
-0.1316524975873855
  0
VERTEX
  5
198E
  8
SAPA_PROFIL
 10
29.150555349960229
 20
121.6107694433724
 30
0.0
  0
VERTEX
  5
198F
  8
SAPA_PROFIL
 10
29.150555349960381
 20
121.02426399662519
 30
0.0
 42
-0.1989123673797335
  0
VERTEX
  5
1990
  8
SAPA_PROFIL
 10
29.062687384316259
 20
120.81213196226921
 30
0.0
  0
VERTEX
  5
1991
  8
SAPA_PROFIL
 10
27.75763813114709
 20
119.5070827091002
 30
0.0
 42
-0.6681786379192716
  0
VERTEX
  5
1992
  8
SAPA_PROFIL
 10
26.05053134996059
 20
120.2141894902868
 30
0.0
  0
VERTEX
  5
1993
  8
SAPA_PROFIL
 10
26.05053134996059
 20
122.5171487313026
 30
0.0
 42
0.3178606011750261
  0
VERTEX
  5
1994
  8
SAPA_PROFIL
 10
26.25055534996002
 20
122.7999999279124
 30
0.0
  0
VERTEX
  5
1995
  8
SAPA_PROFIL
 10
26.25055534996002
 20
123.7561308869623
 30
0.0
 42
0.2418327667543857
  0
VERTEX
  5
1996
  8
SAPA_PROFIL
 10
26.12527767497917
 20
123.99999992791319
 30
0.0
 42
-0.2418327667380065
  0
VERTEX
  5
1997
  8
SAPA_PROFIL
 10
25.99999999997587
 20
124.2438689688635
 30
0.0
  0
VERTEX
  5
1998
  8
SAPA_PROFIL
 10
26.000000000020488
 20
124.9999999275857
 30
0.0
 42
-0.4142135623523161
  0
VERTEX
  5
1999
  8
SAPA_PROFIL
 10
26.999999999949541
 20
125.9999999275857
 30
0.0
  0
VERTEX
  5
199A
  8
SAPA_PROFIL
 10
29.500000000178741
 20
125.99999992776399
 30
0.0
 42
0.9999999999627103
  0
VERTEX
  5
199B
  8
SAPA_PROFIL
 10
29.500000000029591
 20
129.99999992776401
 30
0.0
  0
VERTEX
  5
199C
  8
SAPA_PROFIL
 10
21.50000000002958
 20
129.99999992776401
 30
0.0
 42
0.4142135623752261
  0
VERTEX
  5
199D
  8
SAPA_PROFIL
 10
19.50000000002958
 20
127.999999927753
 30
0.0
  0
VERTEX
  5
199E
  8
SAPA_PROFIL
 10
19.50000000004777
 20
126.29999992757411
 30
0.0
 42
0.4142135623715025
  0
VERTEX
  5
199F
  8
SAPA_PROFIL
 10
19.800000000059779
 20
125.9999999275857
 30
0.0
  0
VERTEX
  5
19A0
  8
SAPA_PROFIL
 10
20.70000000005032
 20
125.9999999275784
 30
0.0
 42
-0.4142135623730888
  0
VERTEX
  5
19A1
  8
SAPA_PROFIL
 10
21.00000000006051
 20
125.6999999275755
 30
0.0
  0
VERTEX
  5
19A2
  8
SAPA_PROFIL
 10
21.00000000006051
 20
125.29999992757411
 30
0.0
 42
-0.4142135623730982
  0
VERTEX
  5
19A3
  8
SAPA_PROFIL
 10
20.70000000005032
 20
124.99999992756391
 30
0.0
  0
VERTEX
  5
19A4
  8
SAPA_PROFIL
 10
18.30000000003977
 20
124.9999999275821
 30
0.0
 42
-0.4142135623624388
  0
VERTEX
  5
19A5
  8
SAPA_PROFIL
 10
18.000000000038678
 20
125.29999992757411
 30
0.0
  0
VERTEX
  5
19A6
  8
SAPA_PROFIL
 10
18.000000000038678
 20
129.49999992758569
 30
0.0
 42
0.4142135623730951
  0
VERTEX
  5
19A7
  8
SAPA_PROFIL
 10
15.00000000002958
 20
132.49999992757481
 30
0.0
  0
VERTEX
  5
19A8
  8
SAPA_PROFIL
 10
10.00000000003867
 20
132.49999992757481
 30
0.0
 42
0.0279290488515987
  0
VERTEX
  5
19A9
  8
SAPA_PROFIL
 10
-4.4891640866531466
 20
131.69003098287499
 30
0.0
 42
0.3661896282372441
  0
VERTEX
  5
19AA
  8
SAPA_PROFIL
 10
-5.1987897655194848
 20
130.93900302266309
 30
0.0
 42
-0.3981911081684388
  0
VERTEX
  5
19AB
  8
SAPA_PROFIL
 10
-5.3984872069099552
 20
130.74999992685241
 30
0.0
  0
VERTEX
  5
19AC
  8
SAPA_PROFIL
 10
-6.2999999999696916
 20
130.74999992685079
 30
0.0
 42
-0.414213562389099
  0
VERTEX
  5
19AD
  8
SAPA_PROFIL
 10
-6.4999999999667821
 20
130.9499999268624
 30
0.0
  0
VERTEX
  5
19AE
  8
SAPA_PROFIL
 10
-6.4999999999795151
 20
131.17605899533331
 30
0.0
 42
-0.3813405017903993
  0
VERTEX
  5
19AF
  8
SAPA_PROFIL
 10
-4.7265624999795071
 20
133.1631849182485
 30
0.0
 42
-0.0014144096544681
  0
VERTEX
  5
19B0
  8
SAPA_PROFIL
 10
-3.9955725729433591
 20
133.24443481107491
 30
0.0
 42
0.309186963272042
  0
VERTEX
  5
19B1
  8
SAPA_PROFIL
 10
-3.1377397825616811
 20
133.97818650342759
 30
0.0
 42
0.1241407988373373
  0
VERTEX
  5
19B2
  8
SAPA_PROFIL
 10
-2.7353819712560248
 20
158.42621744871931
 30
0.0
 42
-0.0577043334222099
  0
VERTEX
  5
19B3
  8
SAPA_PROFIL
 10
-2.9999999999795
 20
160.7114609528758
 30
0.0
  0
VERTEX
  5
19B4
  8
SAPA_PROFIL
 10
-2.9999999999795
 20
161.49999992758561
 30
0.0
 42
-0.4142135623730951
  0
VERTEX
  5
19B5
  8
SAPA_PROFIL
 10
-1.9999999999795
 20
162.49999992758561
 30
0.0
  0
VERTEX
  5
19B6
  8
SAPA_PROFIL
 10
1.0000000000204841
 20
162.49999992758569
 30
0.0
 42
-0.4142135623730951
  0
SEQEND
  5
19B7
  8
SAPA_PROFIL
  0
POLYLINE
  5
1473
  8
SAPA_PROFIL
 66
     1
 10
0.0
 20
0.0
 30
0.0
 70
     1
  0
VERTEX
  5
19B8
  8
SAPA_PROFIL
 10
20.70000000005032
 20
92.999999928262667
 30
0.0
  0
VERTEX
  5
19B9
  8
SAPA_PROFIL
 10
18.300000000041582
 20
92.999999928240825
 30
0.0
 42
0.4142135623656343
  0
VERTEX
  5
19BA
  8
SAPA_PROFIL
 10
18.00000000004049
 20
92.699999928252481
 30
0.0
  0
VERTEX
  5
19BB
  8
SAPA_PROFIL
 10
18.00000000004049
 20
88.49999992824084
 30
0.0
 42
-0.4142135623730959
  0
VERTEX
  5
19BC
  8
SAPA_PROFIL
 10
15.00000000002958
 20
85.499999928251754
 30
0.0
  0
VERTEX
  5
19BD
  8
SAPA_PROFIL
 10
10.00000000004052
 20
85.499999928251754
 30
0.0
 42
-0.0279290488516059
  0
VERTEX
  5
19BE
  8
SAPA_PROFIL
 10
-4.4891640866516971
 20
86.309968872948133
 30
0.0
 42
-0.3661896282372283
  0
VERTEX
  5
19BF
  8
SAPA_PROFIL
 10
-5.1987897655195141
 20
87.060996833164126
 30
0.0
 42
0.3981911081684177
  0
VERTEX
  5
19C0
  8
SAPA_PROFIL
 10
-5.3984872069081504
 20
87.249999928972258
 30
0.0
  0
VERTEX
  5
19C1
  8
SAPA_PROFIL
 10
-6.2999999999697058
 20
87.249999928975697
 30
0.0
 42
0.4142135623890976
  0
VERTEX
  5
19C2
  8
SAPA_PROFIL
 10
-6.4999999999704343
 20
87.04999992896407
 30
0.0
  0
VERTEX
  5
19C3
  8
SAPA_PROFIL
 10
-6.4999999999777236
 20
86.823940860493124
 30
0.0
 42
0.3813405017904005
  0
VERTEX
  5
19C4
  8
SAPA_PROFIL
 10
-4.7265624999777174
 20
84.836814937581636
 30
0.0
 42
0.0541306776717632
  0
VERTEX
  5
19C5
  8
SAPA_PROFIL
 10
23.33874915109195
 20
84.686126847730606
 30
0.0
 42
0.0472456768419794
  0
VERTEX
  5
19C6
  8
SAPA_PROFIL
 10
25.187819206586362
 20
85.055579804499388
 30
0.0
 42
0.0120164869908679
  0
VERTEX
  5
19C7
  8
SAPA_PROFIL
 10
26.32993127835578
 20
85.42857135663057
 30
0.0
 42
-0.0851278882549295
  0
VERTEX
  5
19C8
  8
SAPA_PROFIL
 10
29.661903789722171
 20
85.999999928066217
 30
0.0
  0
VERTEX
  5
19C9
  8
SAPA_PROFIL
 10
37.000000000051408
 20
85.999999928066217
 30
0.0
 42
0.4142135623730951
  0
VERTEX
  5
19CA
  8
SAPA_PROFIL
 10
42.000000000051401
 20
90.999999928066217
 30
0.0
  0
VERTEX
  5
19CB
  8
SAPA_PROFIL
 10
42.000000000040487
 20
93.756130886966247
 30
0.0
 42
0.2418327667382104
  0
VERTEX
  5
19CC
  8
SAPA_PROFIL
 10
41.87472232507141
 20
93.999999927930077
 30
0.0
 42
-0.241832766754381
  0
VERTEX
  5
19CD
  8
SAPA_PROFIL
 10
41.749444650080953
 20
94.243868968864234
 30
0.0
  0
VERTEX
  5
19CE
  8
SAPA_PROFIL
 10
41.749444650080953
 20
95.199999927914149
 30
0.0
 42
-0.3178606011698609
  0
VERTEX
  5
19CF
  8
SAPA_PROFIL
 10
41.949468650075069
 20
95.482851124522071
 30
0.0
  0
VERTEX
  5
19D0
  8
SAPA_PROFIL
 10
41.949468650075069
 20
97.785810365546965
 30
0.0
 42
0.6681786379192716
  0
VERTEX
  5
19D1
  8
SAPA_PROFIL
 10
40.242361868888267
 20
98.492917146732836
 30
0.0
  0
VERTEX
  5
19D2
  8
SAPA_PROFIL
 10
38.937312615719677
 20
97.187867893563265
 30
0.0
 42
0.1989123673797334
  0
VERTEX
  5
19D3
  8
SAPA_PROFIL
 10
38.849444650075647
 20
96.975735859207163
 30
0.0
  0
VERTEX
  5
19D4
  8
SAPA_PROFIL
 10
38.849444650076052
 20
96.389230412459966
 30
0.0
 42
0.1316524975873855
  0
VERTEX
  5
19D5
  8
SAPA_PROFIL
 10
38.889637028940761
 20
96.239230412460074
 30
0.0
  0
VERTEX
  5
19D6
  8
SAPA_PROFIL
 10
39.749444650076732
 20
94.749999927919546
 30
0.0
  0
VERTEX
  5
19D7
  8
SAPA_PROFIL
 10
39.749456650076588
 20
94.299999927919615
 30
0.0
 42
-0.4142135623731054
  0
VERTEX
  5
19D8
  8
SAPA_PROFIL
 10
39.449456650076712
 20
93.999999927919475
 30
0.0
  0
VERTEX
  5
19D9
  8
SAPA_PROFIL
 10
35.849444650076649
 20
93.999999927917941
 30
0.0
 42
-0.4142135623730951
  0
VERTEX
  5
19DA
  8
SAPA_PROFIL
 10
35.549444650076531
 20
94.29999992791781
 30
0.0
  0
VERTEX
  5
19DB
  8
SAPA_PROFIL
 10
35.549444650076417
 20
94.749999927917784
 30
0.0
  0
VERTEX
  5
19DC
  8
SAPA_PROFIL
 10
36.409269387644748
 20
96.239260058992343
 30
0.0
 42
0.1316363093594257
  0
VERTEX
  5
19DD
  8
SAPA_PROFIL
 10
36.449461765901653
 20
96.389240964039104
 30
0.0
  0
VERTEX
  5
19DE
  8
SAPA_PROFIL
 10
36.449464137710272
 20
96.499999927924804
 30
0.0
  0
VERTEX
  5
19DF
  8
SAPA_PROFIL
 10
31.550536424988671
 20
96.499999927909315
 30
0.0
  0
VERTEX
  5
19E0
  8
SAPA_PROFIL
 10
31.550538234134631
 20
96.389240964034045
 30
0.0
 42
0.1316363093594255
  0
VERTEX
  5
19E1
  8
SAPA_PROFIL
 10
31.590730612391599
 20
96.239260058987313
 30
0.0
  0
VERTEX
  5
19E2
  8
SAPA_PROFIL
 10
32.450555349960581
 20
94.749999927913137
 30
0.0
  0
VERTEX
  5
19E3
  8
SAPA_PROFIL
 10
32.45055534996068
 20
94.299999927913134
 30
0.0
 42
-0.4142135623730951
  0
VERTEX
  5
19E4
  8
SAPA_PROFIL
 10
32.150555349960683
 20
93.999999927913123
 30
0.0
  0
VERTEX
  5
19E5
  8
SAPA_PROFIL
 10
28.55054334996062
 20
93.99999992791308
 30
0.0
 42
-0.4142135623731054
  0
VERTEX
  5
19E6
  8
SAPA_PROFIL
 10
28.250543349960619
 20
94.299999927913092
 30
0.0
  0
VERTEX
  5
19E7
  8
SAPA_PROFIL
 10
28.25055534996028
 20
94.749999927913024
 30
0.0
  0
VERTEX
  5
19E8
  8
SAPA_PROFIL
 10
29.11036297109559
 20
96.239230412453907
 30
0.0
 42
0.1316524975873855
  0
VERTEX
  5
19E9
  8
SAPA_PROFIL
 10
29.150555349960229
 20
96.389230412453841
 30
0.0
  0
VERTEX
  5
19EA
  8
SAPA_PROFIL
 10
29.150555349960371
 20
96.975735859201023
 30
0.0
 42
0.1989123673797335
  0
VERTEX
  5
19EB
  8
SAPA_PROFIL
 10
29.062687384316249
 20
97.187867893557112
 30
0.0
  0
VERTEX
  5
19EC
  8
SAPA_PROFIL
 10
27.757638131147079
 20
98.492917146726086
 30
0.0
 42
0.6681786379192716
  0
VERTEX
  5
19ED
  8
SAPA_PROFIL
 10
26.05053134996059
 20
97.785810365539476
 30
0.0
  0
VERTEX
  5
19EE
  8
SAPA_PROFIL
 10
26.05053134996059
 20
95.482851124527429
 30
0.0
 42
-0.3178606011758647
  0
VERTEX
  5
19EF
  8
SAPA_PROFIL
 10
26.250555349961839
 20
95.199999927914149
 30
0.0
  0
VERTEX
  5
19F0
  8
SAPA_PROFIL
 10
26.25055534996002
 20
94.243868968864234
 30
0.0
 42
-0.2418327667526379
  0
VERTEX
  5
19F1
  8
SAPA_PROFIL
 10
26.125277674981369
 20
93.999999927913592
 30
0.0
 42
0.2418327667380031
  0
VERTEX
  5
19F2
  8
SAPA_PROFIL
 10
25.9999999999777
 20
93.756130886962964
 30
0.0
  0
VERTEX
  5
19F3
  8
SAPA_PROFIL
 10
26.000000000022311
 20
92.999999928240825
 30
0.0
 42
0.4142135623709635
  0
VERTEX
  5
19F4
  8
SAPA_PROFIL
 10
27.0000000000223
 20
91.99999992824084
 30
0.0
  0
VERTEX
  5
19F5
  8
SAPA_PROFIL
 10
29.500000000178741
 20
91.999999928066217
 30
0.0
 42
-0.9999999999627103
  0
VERTEX
  5
19F6
  8
SAPA_PROFIL
 10
29.50000000002958
 20
87.999999928066217
 30
0.0
  0
VERTEX
  5
19F7
  8
SAPA_PROFIL
 10
21.500000000029591
 20
87.999999928066217
 30
0.0
 42
-0.4142135623752264
  0
VERTEX
  5
19F8
  8
SAPA_PROFIL
 10
19.50000000002958
 20
89.999999928073493
 30
0.0
  0
VERTEX
  5
19F9
  8
SAPA_PROFIL
 10
19.500000000051411
 20
91.699999928249184
 30
0.0
 42
-0.4142135623762961
  0
VERTEX
  5
19FA
  8
SAPA_PROFIL
 10
19.800000000059772
 20
91.99999992824084
 30
0.0
  0
VERTEX
  5
19FB
  8
SAPA_PROFIL
 10
20.70000000005032
 20
91.999999928251739
 30
0.0
 42
0.4142135623730957
  0
VERTEX
  5
19FC
  8
SAPA_PROFIL
 10
21.000000000060499
 20
92.299999928251026
 30
0.0
  0
VERTEX
  5
19FD
  8
SAPA_PROFIL
 10
21.000000000060499
 20
92.699999928252481
 30
0.0
 42
0.4142135623730922
  0
SEQEND
  5
19FE
  8
SAPA_PROFIL
  0
POLYLINE
  5
1474
  8
SAPA_PROFIL
 62
     4
 66
     1
 10
0.0
 20
0.0
 30
-0.2
 70
     1
  0
VERTEX
  5
1475
  8
SAPA_PROFIL
 62
     4
 10
31.300555349958721
 20
96.85621771056563
 30
-0.2
 42
0.1316524975873979
  0
VERTEX
  5
1476
  8
SAPA_PROFIL
 62
     4
 10
31.40773502693116
 20
96.456217710565625
 30
-0.2
  0
VERTEX
  5
1477
  8
SAPA_PROFIL
 62
     4
 10
32.400555349960577
 20
94.736602468291579
 30
-0.2
  0
VERTEX
  5
1478
  8
SAPA_PROFIL
 62
     4
 10
32.40055534996069
 20
94.29999992791312
 30
-0.2
 42
-0.4142135623730951
  0
VERTEX
  5
1479
  8
SAPA_PROFIL
 62
     4
 10
32.150555349960683
 20
94.049999927913134
 30
-0.2
  0
VERTEX
  5
147A
  8
SAPA_PROFIL
 62
     4
 10
28.55054334996062
 20
94.049999927913078
 30
-0.2
 42
-0.4142135623731053
  0
VERTEX
  5
147B
  8
SAPA_PROFIL
 62
     4
 10
28.300543349960609
 20
94.299999927913092
 30
-0.2
  0
VERTEX
  5
147C
  8
SAPA_PROFIL
 62
     4
 10
28.300554992695979
 20
94.736601849491549
 30
-0.2
  0
VERTEX
  5
147D
  8
SAPA_PROFIL
 62
     4
 10
29.293375672986251
 20
96.456217710558946
 30
-0.2
 42
0.1316524975874149
  0
VERTEX
  5
147E
  8
SAPA_PROFIL
 62
     4
 10
29.40055534995874
 20
96.856217710558994
 30
-0.2
  0
VERTEX
  5
147F
  8
SAPA_PROFIL
 62
     4
 10
29.40055534995874
 20
121.14378214526729
 30
-0.2
 42
0.1316524975874151
  0
VERTEX
  5
1480
  8
SAPA_PROFIL
 62
     4
 10
29.293375672986251
 20
121.5437821452673
 30
-0.2
  0
VERTEX
  5
1481
  8
SAPA_PROFIL
 62
     4
 10
28.300554992695979
 20
123.2633980063347
 30
-0.2
  0
VERTEX
  5
1482
  8
SAPA_PROFIL
 62
     4
 10
28.300543349960609
 20
123.6999999279132
 30
-0.2
 42
-0.4142135623731054
  0
VERTEX
  5
1483
  8
SAPA_PROFIL
 62
     4
 10
28.55054334996062
 20
123.9499999279132
 30
-0.2
  0
VERTEX
  5
1484
  8
SAPA_PROFIL
 62
     4
 10
32.150555349960683
 20
123.9499999279131
 30
-0.2
 42
-0.4142135623730953
  0
VERTEX
  5
1485
  8
SAPA_PROFIL
 62
     4
 10
32.40055534996069
 20
123.6999999279131
 30
-0.2
  0
VERTEX
  5
1486
  8
SAPA_PROFIL
 62
     4
 10
32.400555349960577
 20
123.2633973875347
 30
-0.2
  0
VERTEX
  5
1487
  8
SAPA_PROFIL
 62
     4
 10
31.40773502693116
 20
121.54378214526059
 30
-0.2
 42
0.1316524975873982
  0
VERTEX
  5
1488
  8
SAPA_PROFIL
 62
     4
 10
31.300555349958721
 20
121.1437821452606
 30
-0.2
  0
SEQEND
  5
1489
  8
SAPA_PROFIL
 62
     4
  0
LINE
  5
14E3
  8
SAPA_GLAS
 10
74.799999999997254
 20
87.249999927838459
 30
0.0
 11
74.799999999997254
 21
87.999999927851604
 31
0.0
  0
LINE
  5
14E4
  8
SAPA_GLAS
 10
61.99999999998635
 20
87.999999927851718
 30
0.0
 11
61.999999999985533
 21
87.249999927852613
 31
0.0
  0
LINE
  5
14E5
  8
SAPA_GLAS
 10
74.79999999999778
 20
130.74999992786499
 30
0.0
 11
74.799999999997766
 21
129.99999992785189
 31
0.0
  0
LINE
  5
14E6
  8
SAPA_GLAS
 10
61.999999999986841
 20
129.999999927852
 30
0.0
 11
61.999999999986031
 21
130.74999992785121
 31
0.0
  0
INSERT
  5
14E7
  8
SAPA_GLAS
  6
CONTINUOUS
  2
*X38
 10
0.0
 20
0.0
 30
0.0
1001
ACAD
1000
HATCH
1002
{
1070
    19
1000
ANSI37
1040
0.25
1040
-0.0000000000000115
1000
R14_HATCH_DATA
1000
14E7
1011
1.0
1021
0.0
1031
0.0
1021
0.0
1031
0.0
1011
0.0
1021
0.0
1031
0.0
1021
1.0
1031
0.0
1011
0.0
1021
0.0
1031
0.0
1021
0.0
1031
1.0
1040
0.0
1010
0.0
1020
0.0
1030
1.0
1000
ANSI37
1070
     0
1070
     0
1071
        1
1071
        7
1070
     0
1070
     1
1071
        4
1040
74.799999999997283
1040
87.249999927499005
1040
74.799999999997283
1040
87.999999927851576
1040
61.99999999998635
1040
87.999999927851718
1040
61.999999999985519
1040
87.249999927513173
1071
        0
1070
     0
1070
     1
1040
-0.0000000000000115
1040
0.25
1070
     0
1070
     2
1040
0.7853981633974367
1040
51.924144147687052
1040
85.499999927876928
1040
-0.5612660075668156
1040
0.5612660075668287
1070
     0
1040
2.3561944901923328
1040
51.924144147687052
1040
85.499999927876928
1040
-0.5612660075668287
1040
-0.5612660075668156
1070
     0
1040
0.0325758689756538
1071
        1
1040
67.239910499787257
1040
87.591681343093995
1040
0.0
1002
}
  0
INSERT
  5
14E8
  8
SAPA_GLAS
  6
CONTINUOUS
  2
*X39
 10
0.0
 20
0.0
 30
0.0
1001
ACAD
1000
HATCH
1002
{
1070
    19
1000
ANSI37
1040
0.25
1040
-0.0000000000000115
1000
R14_HATCH_DATA
1000
14E8
1011
1.0
1021
0.0
1031
0.0
1021
0.0
1031
0.0
1011
0.0
1021
0.0
1031
0.0
1021
1.0
1031
0.0
1011
0.0
1021
0.0
1031
0.0
1021
0.0
1031
1.0
1040
0.0
1010
0.0
1020
0.0
1030
1.0
1000
ANSI37
1070
     0
1070
     0
1071
        1
1071
        7
1070
     0
1070
     1
1071
        4
1040
74.799999999997766
1040
129.99999992785189
1040
74.79999999999778
1040
130.74999992786499
1040
61.999999999986031
1040
130.74999992785121
1040
61.999999999986841
1040
129.999999927852
1071
        0
1070
     0
1070
     1
1040
-0.0000000000000115
1040
0.25
1070
     0
1070
     2
1040
0.7853981633974367
1040
51.924144147687052
1040
85.499999927876928
1040
-0.5612660075668156
1040
0.5612660075668287
1070
     0
1040
2.3561944901923328
1040
51.924144147687052
1040
85.499999927876928
1040
-0.5612660075668287
1040
-0.5612660075668156
1070
     0
1040
0.0230646099693014
1071
        1
1040
65.868422804701027
1040
130.34768557054471
1040
0.0
1002
}
  0
POLYLINE
  5
14E9
  8
SAPA_GLAS
 66
     1
 10
0.0
 20
0.0
 30
0.0
  0
VERTEX
  5
1AD7
  8
SAPA_GLAS
 10
93.999999999986358
 20
87.999999927851349
 30
0.0
  0
VERTEX
  5
1AD8
  8
SAPA_GLAS
 10
61.99999999998635
 20
87.999999927851718
 30
0.0
  0
VERTEX
  5
1AD9
  8
SAPA_GLAS
 10
61.999999999986422
 20
93.999999927851746
 30
0.0
  0
VERTEX
  5
1ADA
  8
SAPA_GLAS
 10
93.999999999986414
 20
93.999999927851349
 30
0.0
  0
SEQEND
  5
1ADB
  8
SAPA_GLAS
  0
POLYLINE
  5
14EA
  8
SAPA_GLAS
 66
     1
 10
0.0
 20
0.0
 30
0.0
  0
VERTEX
  5
1ADC
  8
SAPA_GLAS
 10
71.999999999986585
 20
105.9999999278518
 30
0.0
  0
VERTEX
  5
1ADD
  8
SAPA_GLAS
 10
71.999999999986429
 20
93.999999927851789
 30
0.0
  0
VERTEX
  5
1ADE
  8
SAPA_GLAS
 10
61.999999999986422
 20
93.999999927851903
 30
0.0
  0
VERTEX
  5
1ADF
  8
SAPA_GLAS
 10
61.999999999986592
 20
105.9999999278519
 30
0.0
  0
VERTEX
  5
1AE0
  8
SAPA_GLAS
 10
71.999999999986585
 20
105.9999999278518
 30
0.0
  0
SEQEND
  5
1AE1
  8
SAPA_GLAS
  0
POLYLINE
  5
14EB
  8
SAPA_GLAS
 66
     1
 10
0.0
 20
0.0
 30
0.0
  0
VERTEX
  5
1AE2
  8
SAPA_GLAS
 10
93.999999999986571
 20
105.9999999278515
 30
0.0
  0
VERTEX
  5
1AE3
  8
SAPA_GLAS
 10
61.999999999986578
 20
105.9999999278519
 30
0.0
  0
VERTEX
  5
1AE4
  8
SAPA_GLAS
 10
61.999999999986642
 20
111.9999999278519
 30
0.0
  0
VERTEX
  5
1AE5
  8
SAPA_GLAS
 10
93.999999999986642
 20
111.9999999278515
 30
0.0
  0
SEQEND
  5
1AE6
  8
SAPA_GLAS
  0
POLYLINE
  5
14EC
  8
SAPA_GLAS
 66
     1
 10
0.0
 20
0.0
 30
0.0
  0
VERTEX
  5
1AE7
  8
SAPA_GLAS
 10
71.999999999986812
 20
123.9999999278519
 30
0.0
  0
VERTEX
  5
1AE8
  8
SAPA_GLAS
 10
71.999999999986656
 20
111.9999999278519
 30
0.0
  0
VERTEX
  5
1AE9
  8
SAPA_GLAS
 10
61.999999999986642
 20
111.999999927852
 30
0.0
  0
VERTEX
  5
1AEA
  8
SAPA_GLAS
 10
61.999999999986812
 20
123.999999927852
 30
0.0
  0
VERTEX
  5
1AEB
  8
SAPA_GLAS
 10
71.999999999986812
 20
123.9999999278519
 30
0.0
  0
SEQEND
  5
1AEC
  8
SAPA_GLAS
  0
POLYLINE
  5
14ED
  8
SAPA_GLAS
 66
     1
 10
0.0
 20
0.0
 30
0.0
  0
VERTEX
  5
1AED
  8
SAPA_GLAS
 10
93.999999999986869
 20
129.9999999278516
 30
0.0
  0
VERTEX
  5
1AEE
  8
SAPA_GLAS
 10
61.999999999986883
 20
129.999999927852
 30
0.0
  0
VERTEX
  5
1AEF
  8
SAPA_GLAS
 10
61.999999999986812
 20
123.999999927852
 30
0.0
  0
VERTEX
  5
1AF0
  8
SAPA_GLAS
 10
93.999999999986798
 20
123.9999999278516
 30
0.0
  0
SEQEND
  5
1AF1
  8
SAPA_GLAS
  0
LINE
  5
14EE
  8
SAPA_GLAS
 10
-4.8000000000027754
 20
87.249999927838459
 30
0.0
 11
-4.8000000000027834
 21
87.999999927851604
 31
0.0
  0
LINE
  5
14EF
  8
SAPA_GLAS
 10
8.000000000008141
 20
87.999999927851718
 30
0.0
 11
8.0000000000089582
 21
87.249999927852613
 31
0.0
  0
LINE
  5
14F0
  8
SAPA_GLAS
 10
-4.8000000000032479
 20
130.74999992786499
 30
0.0
 11
-4.8000000000032399
 21
129.99999992785189
 31
0.0
  0
LINE
  5
14F1
  8
SAPA_GLAS
 10
8.0000000000076845
 20
129.999999927852
 30
0.0
 11
8.0000000000084874
 21
130.74999992785121
 31
0.0
  0
INSERT
  5
14F2
  8
SAPA_GLAS
  6
CONTINUOUS
  2
*X40
 10
0.0
 20
0.0
 30
0.0
1001
ACAD
1000
HATCH
1002
{
1070
    19
1000
ANSI37
1040
0.25
1040
-1.5707963267948959
1000
R14_HATCH_DATA
1000
14F2
1011
1.0
1021
0.0
1031
0.0
1021
0.0
1031
0.0
1011
0.0
1021
0.0
1031
0.0
1021
1.0
1031
0.0
1011
0.0
1021
0.0
1031
0.0
1021
0.0
1031
1.0
1040
0.0
1010
0.0
1020
0.0
1030
1.0
1000
ANSI37
1070
     0
1070
     0
1071
        1
1071
        7
1070
     0
1070
     1
1071
        4
1040
-4.8000000000027887
1040
87.249999927499005
1040
-4.8000000000027967
1040
87.999999927851576
1040
8.000000000008141
1040
87.999999927851718
1040
8.0000000000089742
1040
87.249999927513159
1071
        0
1070
     0
1070
     1
1040
-1.5707963267948959
1040
0.25
1070
     0
1070
     2
1040
5.4977871437821371
1040
20.4999999998562
1040
18.075855852310848
1040
0.5612660075668222
1040
0.5612660075668219
1070
     0
1040
0.7853981633974481
1040
20.4999999998562
1040
18.075855852310848
1040
-0.5612660075668219
1040
0.5612660075668222
1070
     0
1040
0.0325758689756538
1071
        1
1040
2.7600895002072319
1040
87.591681343093995
1040
0.0
1002
}
  0
INSERT
  5
14F3
  8
SAPA_GLAS
  6
CONTINUOUS
  2
*X41
 10
0.0
 20
0.0
 30
0.0
1001
ACAD
1000
HATCH
1002
{
1070
    19
1000
ANSI37
1040
0.25
1040
-1.5707963267948959
1000
R14_HATCH_DATA
1000
14F3
1011
1.0
1021
0.0
1031
0.0
1021
0.0
1031
0.0
1011
0.0
1021
0.0
1031
0.0
1021
1.0
1031
0.0
1011
0.0
1021
0.0
1031
0.0
1021
0.0
1031
1.0
1040
0.0
1010
0.0
1020
0.0
1030
1.0
1000
ANSI37
1070
     0
1070
     0
1071
        1
1071
        7
1070
     0
1070
     1
1071
        4
1040
-4.8000000000032399
1040
129.99999992785189
1040
-4.8000000000032479
1040
130.74999992786499
1040
8.0000000000084874
1040
130.74999992785121
1040
8.0000000000076845
1040
129.999999927852
1071
        0
1070
     0
1070
     1
1040
-1.5707963267948959
1040
0.25
1070
     0
1070
     2
1040
5.4977871437821371
1040
20.4999999998562
1040
18.075855852310848
1040
0.5612660075668222
1040
0.5612660075668219
1070
     0
1040
0.7853981633974481
1040
20.4999999998562
1040
18.075855852310848
1040
-0.5612660075668219
1040
0.5612660075668222
1070
     0
1040
0.0230646099693014
1071
        1
1040
4.1315771952934952
1040
130.34768557054471
1040
0.0
1002
}
  0
POLYLINE
  5
14F4
  8
SAPA_GLAS
 66
     1
 10
0.0
 20
0.0
 30
0.0
  0
VERTEX
  5
1B28
  8
SAPA_GLAS
 10
-23.999999999991861
 20
87.999999927851377
 30
0.0
  0
VERTEX
  5
1B29
  8
SAPA_GLAS
 10
8.0000000000081393
 20
87.999999927851718
 30
0.0
  0
VERTEX
  5
1B2A
  8
SAPA_GLAS
 10
8.0000000000080771
 20
93.999999927851718
 30
0.0
  0
VERTEX
  5
1B2B
  8
SAPA_GLAS
 10
-23.999999999991921
 20
93.999999927851377
 30
0.0
  0
SEQEND
  5
1B2C
  8
SAPA_GLAS
  0
POLYLINE
  5
14F5
  8
SAPA_GLAS
 66
     1
 10
0.0
 20
0.0
 30
0.0
  0
VERTEX
  5
1B2D
  8
SAPA_GLAS
 10
-1.9999999999920779
 20
105.9999999278518
 30
0.0
  0
VERTEX
  5
1B2E
  8
SAPA_GLAS
 10
-1.9999999999919369
 20
93.999999927851789
 30
0.0
  0
VERTEX
  5
1B2F
  8
SAPA_GLAS
 10
8.0000000000080771
 20
93.999999927851874
 30
0.0
  0
VERTEX
  5
1B30
  8
SAPA_GLAS
 10
8.0000000000079154
 20
105.9999999278519
 30
0.0
  0
VERTEX
  5
1B31
  8
SAPA_GLAS
 10
-1.9999999999920779
 20
105.9999999278518
 30
0.0
  0
SEQEND
  5
1B32
  8
SAPA_GLAS
  0
POLYLINE
  5
14F6
  8
SAPA_GLAS
 66
     1
 10
0.0
 20
0.0
 30
0.0
  0
VERTEX
  5
1B33
  8
SAPA_GLAS
 10
-23.99999999999207
 20
105.9999999278515
 30
0.0
  0
VERTEX
  5
1B34
  8
SAPA_GLAS
 10
8.0000000000079297
 20
105.9999999278519
 30
0.0
  0
VERTEX
  5
1B35
  8
SAPA_GLAS
 10
8.0000000000078657
 20
111.9999999278519
 30
0.0
  0
VERTEX
  5
1B36
  8
SAPA_GLAS
 10
-23.999999999992131
 20
111.9999999278515
 30
0.0
  0
SEQEND
  5
1B37
  8
SAPA_GLAS
  0
POLYLINE
  5
14F7
  8
SAPA_GLAS
 66
     1
 10
0.0
 20
0.0
 30
0.0
  0
VERTEX
  5
1B38
  8
SAPA_GLAS
 10
-1.9999999999922851
 20
123.9999999278519
 30
0.0
  0
VERTEX
  5
1B39
  8
SAPA_GLAS
 10
-1.999999999992141
 20
111.9999999278519
 30
0.0
  0
VERTEX
  5
1B3A
  8
SAPA_GLAS
 10
8.0000000000078657
 20
111.999999927852
 30
0.0
  0
VERTEX
  5
1B3B
  8
SAPA_GLAS
 10
8.0000000000077112
 20
123.999999927852
 30
0.0
  0
VERTEX
  5
1B3C
  8
SAPA_GLAS
 10
-1.9999999999922851
 20
123.9999999278519
 30
0.0
  0
SEQEND
  5
1B3D
  8
SAPA_GLAS
  0
POLYLINE
  5
14F8
  8
SAPA_GLAS
 66
     1
 10
0.0
 20
0.0
 30
0.0
  0
VERTEX
  5
1B3E
  8
SAPA_GLAS
 10
-23.99999999999234
 20
129.99999992785169
 30
0.0
  0
VERTEX
  5
1B3F
  8
SAPA_GLAS
 10
8.0000000000076472
 20
129.999999927852
 30
0.0
  0
VERTEX
  5
1B40
  8
SAPA_GLAS
 10
8.0000000000077112
 20
123.999999927852
 30
0.0
  0
VERTEX
  5
1B41
  8
SAPA_GLAS
 10
-23.999999999992269
 20
123.9999999278517
 30
0.0
  0
SEQEND
  5
1B42
  8
SAPA_GLAS
  0
POLYLINE
  5
150F
  8
SAPA_FOGBAND
 66
     1
 10
0.0
 20
0.0
 30
0.0
 70
     1
  0
VERTEX
  5
1BC1
  8
SAPA_FOGBAND
 10
35.350000000017587
 20
136.7499999277446
 30
0.0
  0
VERTEX
  5
1BC2
  8
SAPA_FOGBAND
 10
35.350000000017587
 20
135.94999992774439
 30
0.0
  0
VERTEX
  5
1BC3
  8
SAPA_FOGBAND
 10
41.650000000014671
 20
135.94999992774439
 30
0.0
  0
VERTEX
  5
1BC4
  8
SAPA_FOGBAND
 10
41.650000000014671
 20
136.7499999277446
 30
0.0
  0
SEQEND
  5
1BC5
  8
SAPA_FOGBAND
  0
POLYLINE
  5
1510
  8
SAPA_FOGBAND
 66
     1
 10
0.0
 20
0.0
 30
0.0
  0
VERTEX
  5
1BC6
  8
SAPA_FOGBAND
 10
40.072689603157173
 20
135.94999992774439
 30
0.0
  0
VERTEX
  5
1BC7
  8
SAPA_FOGBAND
 10
41.198136200473087
 20
132.4999999277446
 30
0.0
  0
VERTEX
  5
1BC8
  8
SAPA_FOGBAND
 10
38.759998153924563
 20
132.4999999277446
 30
0.0
  0
VERTEX
  5
1BC9
  8
SAPA_FOGBAND
 10
38.650000000017592
 20
135.94999992774439
 30
0.0
  0
SEQEND
  5
1BCA
  8
SAPA_FOGBAND
  0
POLYLINE
  5
1511
  8
SAPA_FOGBAND
 66
     1
 10
0.0
 20
0.0
 30
0.0
  0
VERTEX
  5
1BCB
  8
SAPA_FOGBAND
 10
38.575000000016857
 20
135.94999992774439
 30
0.0
  0
VERTEX
  5
1BCC
  8
SAPA_FOGBAND
 10
38.575000000013581
 20
132.4999999277446
 30
0.0
  0
VERTEX
  5
1BCD
  8
SAPA_FOGBAND
 10
38.425000000015388
 20
132.4999999277446
 30
0.0
  0
VERTEX
  5
1BCE
  8
SAPA_FOGBAND
 10
38.425000000015402
 20
135.94999992774439
 30
0.0
  0
SEQEND
  5
1BCF
  8
SAPA_FOGBAND
  0
POLYLINE
  5
1512
  8
SAPA_FOGBAND
 66
     1
 10
0.0
 20
0.0
 30
0.0
  0
VERTEX
  5
1BD0
  8
SAPA_FOGBAND
 10
38.350000000014681
 20
135.94999992774439
 30
0.0
  0
VERTEX
  5
1BD1
  8
SAPA_FOGBAND
 10
38.240002614832427
 20
132.4999999277446
 30
0.0
  0
VERTEX
  5
1BD2
  8
SAPA_FOGBAND
 10
35.801909274410271
 20
132.4999999277446
 30
0.0
  0
VERTEX
  5
1BD3
  8
SAPA_FOGBAND
 10
36.927310396875093
 20
135.94999992774439
 30
0.0
  0
SEQEND
  5
1BD4
  8
SAPA_FOGBAND
  0
POLYLINE
  5
1513
  8
SAPA_FOGBAND
 66
     1
 10
0.0
 20
0.0
 30
0.0
 70
     1
  0
VERTEX
  5
1BD5
  8
SAPA_FOGBAND
 10
26.850000000003039
 20
136.7499999277446
 30
0.0
  0
VERTEX
  5
1BD6
  8
SAPA_FOGBAND
 10
26.850000000003039
 20
135.94999992774439
 30
0.0
  0
VERTEX
  5
1BD7
  8
SAPA_FOGBAND
 10
33.150000000000119
 20
135.94999992774439
 30
0.0
  0
VERTEX
  5
1BD8
  8
SAPA_FOGBAND
 10
33.150000000000119
 20
136.7499999277446
 30
0.0
  0
SEQEND
  5
1BD9
  8
SAPA_FOGBAND
  0
POLYLINE
  5
1514
  8
SAPA_FOGBAND
 66
     1
 10
0.0
 20
0.0
 30
0.0
  0
VERTEX
  5
1BDA
  8
SAPA_FOGBAND
 10
31.572689603142621
 20
135.94999992774439
 30
0.0
  0
VERTEX
  5
1BDB
  8
SAPA_FOGBAND
 10
32.698136200458542
 20
132.4999999277446
 30
0.0
  0
VERTEX
  5
1BDC
  8
SAPA_FOGBAND
 10
30.259998153910011
 20
132.4999999277446
 30
0.0
  0
VERTEX
  5
1BDD
  8
SAPA_FOGBAND
 10
30.150000000003029
 20
135.94999992774439
 30
0.0
  0
SEQEND
  5
1BDE
  8
SAPA_FOGBAND
  0
POLYLINE
  5
1515
  8
SAPA_FOGBAND
 66
     1
 10
0.0
 20
0.0
 30
0.0
  0
VERTEX
  5
1BDF
  8
SAPA_FOGBAND
 10
30.075000000002309
 20
135.94999992774439
 30
0.0
  0
VERTEX
  5
1BE0
  8
SAPA_FOGBAND
 10
30.074999999999029
 20
132.4999999277446
 30
0.0
  0
VERTEX
  5
1BE1
  8
SAPA_FOGBAND
 10
29.925000000000839
 20
132.4999999277446
 30
0.0
  0
VERTEX
  5
1BE2
  8
SAPA_FOGBAND
 10
29.92500000000085
 20
135.94999992774439
 30
0.0
  0
SEQEND
  5
1BE3
  8
SAPA_FOGBAND
  0
POLYLINE
  5
1516
  8
SAPA_FOGBAND
 66
     1
 10
0.0
 20
0.0
 30
0.0
  0
VERTEX
  5
1BE4
  8
SAPA_FOGBAND
 10
29.850000000000119
 20
135.94999992774439
 30
0.0
  0
VERTEX
  5
1BE5
  8
SAPA_FOGBAND
 10
29.740002614817872
 20
132.4999999277446
 30
0.0
  0
VERTEX
  5
1BE6
  8
SAPA_FOGBAND
 10
27.301909274395712
 20
132.4999999277446
 30
0.0
  0
VERTEX
  5
1BE7
  8
SAPA_FOGBAND
 10
28.427310396860541
 20
135.94999992774439
 30
0.0
  0
SEQEND
  5
1BE8
  8
SAPA_FOGBAND
  0
POLYLINE
  5
1517
  8
SAPA_FOGBAND
 66
     1
 10
0.0
 20
0.0
 30
0.0
 70
     1
  0
VERTEX
  5
1BE9
  8
SAPA_FOGBAND
 10
35.349999999942732
 20
81.249999928082246
 30
0.0
  0
VERTEX
  5
1BEA
  8
SAPA_FOGBAND
 10
35.349999999942732
 20
82.049999928082457
 30
0.0
  0
VERTEX
  5
1BEB
  8
SAPA_FOGBAND
 10
41.649999999939801
 20
82.049999928082457
 30
0.0
  0
VERTEX
  5
1BEC
  8
SAPA_FOGBAND
 10
41.649999999939801
 20
81.249999928082246
 30
0.0
  0
SEQEND
  5
1BED
  8
SAPA_FOGBAND
  0
POLYLINE
  5
1518
  8
SAPA_FOGBAND
 66
     1
 10
0.0
 20
0.0
 30
0.0
  0
VERTEX
  5
1BEE
  8
SAPA_FOGBAND
 10
40.072689603082303
 20
82.049999928082457
 30
0.0
  0
VERTEX
  5
1BEF
  8
SAPA_FOGBAND
 10
41.198136200398231
 20
85.499999928082261
 30
0.0
  0
VERTEX
  5
1BF0
  8
SAPA_FOGBAND
 10
38.7599981538497
 20
85.499999928082261
 30
0.0
  0
VERTEX
  5
1BF1
  8
SAPA_FOGBAND
 10
38.649999999942722
 20
82.049999928082457
 30
0.0
  0
SEQEND
  5
1BF2
  8
SAPA_FOGBAND
  0
POLYLINE
  5
1519
  8
SAPA_FOGBAND
 66
     1
 10
0.0
 20
0.0
 30
0.0
  0
VERTEX
  5
1BF3
  8
SAPA_FOGBAND
 10
38.574999999942001
 20
82.049999928082457
 30
0.0
  0
VERTEX
  5
1BF4
  8
SAPA_FOGBAND
 10
38.574999999938719
 20
85.499999928082261
 30
0.0
  0
VERTEX
  5
1BF5
  8
SAPA_FOGBAND
 10
38.424999999940532
 20
85.499999928082261
 30
0.0
  0
VERTEX
  5
1BF6
  8
SAPA_FOGBAND
 10
38.424999999940539
 20
82.049999928082457
 30
0.0
  0
SEQEND
  5
1BF7
  8
SAPA_FOGBAND
  0
POLYLINE
  5
151A
  8
SAPA_FOGBAND
 66
     1
 10
0.0
 20
0.0
 30
0.0
  0
VERTEX
  5
1BF8
  8
SAPA_FOGBAND
 10
38.349999999939811
 20
82.049999928082457
 30
0.0
  0
VERTEX
  5
1BF9
  8
SAPA_FOGBAND
 10
38.240002614757557
 20
85.499999928082261
 30
0.0
  0
VERTEX
  5
1BFA
  8
SAPA_FOGBAND
 10
35.801909274335401
 20
85.499999928082261
 30
0.0
  0
VERTEX
  5
1BFB
  8
SAPA_FOGBAND
 10
36.92731039680023
 20
82.049999928082457
 30
0.0
  0
SEQEND
  5
1BFC
  8
SAPA_FOGBAND
  0
POLYLINE
  5
151B
  8
SAPA_FOGBAND
 66
     1
 10
0.0
 20
0.0
 30
0.0
 70
     1
  0
VERTEX
  5
1BFD
  8
SAPA_FOGBAND
 10
26.849999999931828
 20
81.249999928082232
 30
0.0
  0
VERTEX
  5
1BFE
  8
SAPA_FOGBAND
 10
26.849999999931828
 20
82.049999928082414
 30
0.0
  0
VERTEX
  5
1BFF
  8
SAPA_FOGBAND
 10
33.149999999928923
 20
82.049999928082414
 30
0.0
  0
VERTEX
  5
1C00
  8
SAPA_FOGBAND
 10
33.149999999928923
 20
81.249999928082232
 30
0.0
  0
SEQEND
  5
1C01
  8
SAPA_FOGBAND
  0
POLYLINE
  5
151C
  8
SAPA_FOGBAND
 66
     1
 10
0.0
 20
0.0
 30
0.0
  0
VERTEX
  5
1C02
  8
SAPA_FOGBAND
 10
31.572689603071421
 20
82.049999928082414
 30
0.0
  0
VERTEX
  5
1C03
  8
SAPA_FOGBAND
 10
32.698136200387339
 20
85.499999928082218
 30
0.0
  0
VERTEX
  5
1C04
  8
SAPA_FOGBAND
 10
30.259998153838801
 20
85.499999928082218
 30
0.0
  0
VERTEX
  5
1C05
  8
SAPA_FOGBAND
 10
30.149999999931829
 20
82.049999928082414
 30
0.0
  0
SEQEND
  5
1C06
  8
SAPA_FOGBAND
  0
POLYLINE
  5
151D
  8
SAPA_FOGBAND
 66
     1
 10
0.0
 20
0.0
 30
0.0
  0
VERTEX
  5
1C07
  8
SAPA_FOGBAND
 10
30.074999999931102
 20
82.049999928082414
 30
0.0
  0
VERTEX
  5
1C08
  8
SAPA_FOGBAND
 10
30.074999999927829
 20
85.499999928082218
 30
0.0
  0
VERTEX
  5
1C09
  8
SAPA_FOGBAND
 10
29.924999999929639
 20
85.499999928082218
 30
0.0
  0
VERTEX
  5
1C0A
  8
SAPA_FOGBAND
 10
29.92499999992965
 20
82.049999928082414
 30
0.0
  0
SEQEND
  5
1C0B
  8
SAPA_FOGBAND
  0
POLYLINE
  5
151E
  8
SAPA_FOGBAND
 66
     1
 10
0.0
 20
0.0
 30
0.0
  0
VERTEX
  5
1C0C
  8
SAPA_FOGBAND
 10
29.849999999928919
 20
82.049999928082414
 30
0.0
  0
VERTEX
  5
1C0D
  8
SAPA_FOGBAND
 10
29.740002614746668
 20
85.499999928082218
 30
0.0
  0
VERTEX
  5
1C0E
  8
SAPA_FOGBAND
 10
27.301909274324512
 20
85.499999928082218
 30
0.0
  0
VERTEX
  5
1C0F
  8
SAPA_FOGBAND
 10
28.427310396789331
 20
82.049999928082414
 30
0.0
  0
SEQEND
  5
1C10
  8
SAPA_FOGBAND
  0
POLYLINE
  5
151F
  8
SAPA_FOGBAND
 66
     1
 10
0.0
 20
0.0
 30
0.0
  0
VERTEX
  5
1C11
  8
SAPA_FOGBAND
 10
39.576064413156843
 20
104.259258823601
 30
0.0
 42
-0.1737111972539371
  0
VERTEX
  5
1C12
  8
SAPA_FOGBAND
 10
39.570189689110663
 20
113.7417615390011
 30
0.0
 42
-0.1686720477419639
  0
VERTEX
  5
1C13
  8
SAPA_FOGBAND
 10
43.299999999636533
 20
118.14627129684369
 30
0.0
  0
VERTEX
  5
1C14
  8
SAPA_FOGBAND
 10
43.29999999979762
 20
121.0553736102913
 30
0.0
 42
-0.4142135623730951
  0
VERTEX
  5
1C15
  8
SAPA_FOGBAND
 10
43.799999999828088
 20
121.5553736102638
 30
0.0
  0
VERTEX
  5
1C16
  8
SAPA_FOGBAND
 10
43.99999999983973
 20
121.55537361025171
 30
0.0
  0
VERTEX
  5
1C17
  8
SAPA_FOGBAND
 10
43.999999999661583
 20
118.50537361023861
 30
0.0
 42
0.4142135623730951
  0
VERTEX
  5
1C18
  8
SAPA_FOGBAND
 10
44.299999999646303
 20
118.2053736102349
 30
0.0
  0
VERTEX
  5
1C19
  8
SAPA_FOGBAND
 10
45.450017999641112
 20
118.20537361016579
 30
0.0
 42
0.3394542588568441
  0
VERTEX
  5
1C1A
  8
SAPA_FOGBAND
 10
45.739795747526642
 20
118.4277278966324
 30
0.0
  0
VERTEX
  5
1C1B
  8
SAPA_FOGBAND
 10
46.224287522816461
 20
119.9155096571357
 30
0.0
 42
-0.1051951073836738
  0
VERTEX
  5
1C1C
  8
SAPA_FOGBAND
 10
46.436419557181154
 20
120.1276416914768
 30
0.0
  0
VERTEX
  5
1C1D
  8
SAPA_FOGBAND
 10
46.672372286233347
 20
120.29515135816651
 30
0.0
 42
-0.3888787318517306
  0
VERTEX
  5
1C1E
  8
SAPA_FOGBAND
 10
47.031925785989223
 20
120.1079796532587
 30
0.0
  0
VERTEX
  5
1C1F
  8
SAPA_FOGBAND
 10
47.331925785950737
 20
119.283736427365
 30
0.0
 42
-0.0874886635260403
  0
VERTEX
  5
1C20
  8
SAPA_FOGBAND
 10
47.350017999709081
 20
119.181130384375
 30
0.0
  0
VERTEX
  5
1C21
  8
SAPA_FOGBAND
 10
47.350017999520929
 20
116.2032899752309
 30
0.0
 42
-0.2183081190165235
  0
VERTEX
  5
1C22
  8
SAPA_FOGBAND
 10
47.176333789375718
 20
115.8244522725256
 30
0.0
 42
0.3643020879534202
  0
VERTEX
  5
1C23
  8
SAPA_FOGBAND
 10
47.176333788152668
 20
102.1862949486686
 30
0.0
 42
-0.2183081190165256
  0
VERTEX
  5
1C24
  8
SAPA_FOGBAND
 10
47.350017998646109
 20
101.8074572452539
 30
0.0
  0
VERTEX
  5
1C25
  8
SAPA_FOGBAND
 10
47.350017998472389
 20
98.829616836115676
 30
0.0
 42
-0.0874886635260396
  0
VERTEX
  5
1C26
  8
SAPA_FOGBAND
 10
47.331925785941991
 20
98.727010792775815
 30
0.0
  0
VERTEX
  5
1C27
  8
SAPA_FOGBAND
 10
47.03192578597978
 20
97.902767566882432
 30
0.0
 42
-0.3888787318517325
  0
VERTEX
  5
1C28
  8
SAPA_FOGBAND
 10
46.672372286223691
 20
97.715595861974904
 30
0.0
  0
VERTEX
  5
1C29
  8
SAPA_FOGBAND
 10
46.43641955717171
 20
97.8831055286648
 30
0.0
 42
-0.1051951073836715
  0
VERTEX
  5
1C2A
  8
SAPA_FOGBAND
 10
46.224287522807138
 20
98.095237563006066
 30
0.0
  0
VERTEX
  5
1C2B
  8
SAPA_FOGBAND
 10
45.739795747518571
 20
99.583019323509845
 30
0.0
 42
0.3394542588568416
  0
VERTEX
  5
1C2C
  8
SAPA_FOGBAND
 10
45.450017999633268
 20
99.80537360997667
 30
0.0
  0
VERTEX
  5
1C2D
  8
SAPA_FOGBAND
 10
44.299999999638459
 20
99.805373609908514
 30
0.0
 42
0.4142135623730951
  0
VERTEX
  5
1C2E
  8
SAPA_FOGBAND
 10
43.999999999653511
 20
99.505373609905092
 30
0.0
  0
VERTEX
  5
1C2F
  8
SAPA_FOGBAND
 10
43.99999999982893
 20
96.455373609892021
 30
0.0
  0
VERTEX
  5
1C30
  8
SAPA_FOGBAND
 10
43.799999999817288
 20
96.455373609880013
 30
0.0
 42
-0.4142135623730951
  0
VERTEX
  5
1C31
  8
SAPA_FOGBAND
 10
43.299999999787381
 20
96.955373609852955
 30
0.0
  0
VERTEX
  5
1C32
  8
SAPA_FOGBAND
 10
43.299999999626628
 20
99.901623200165915
 30
0.0
 42
-0.1292706022183397
  0
VERTEX
  5
1C33
  8
SAPA_FOGBAND
 10
39.570189688534953
 20
104.2689856824292
 30
0.0
  0
SEQEND
  5
1C34
  8
SAPA_FOGBAND
  0
POLYLINE
  5
1520
  8
SAPA_FOGBAND
 66
     1
 10
0.0
 20
0.0
 30
0.0
 70
     1
  0
VERTEX
  5
1C35
  8
SAPA_FOGBAND
 10
40.287361650470331
 20
105.26834244177169
 30
0.0
 42
-0.0725332384740955
  0
VERTEX
  5
1C36
  8
SAPA_FOGBAND
 10
39.742376499341532
 20
109.0053736106786
 30
0.0
 42
-0.0725332384743131
  0
VERTEX
  5
1C37
  8
SAPA_FOGBAND
 10
40.287361650304582
 20
112.7424047780535
 30
0.0
 42
-0.0892668760333498
  0
VERTEX
  5
1C38
  8
SAPA_FOGBAND
 10
41.085870528273539
 20
114.3234221349807
 30
0.0
 42
-0.0978309991539163
  0
VERTEX
  5
1C39
  8
SAPA_FOGBAND
 10
43.904837512642331
 20
117.0010528576601
 30
0.0
 42
-1.225284198891784
  0
VERTEX
  5
1C3A
  8
SAPA_FOGBAND
 10
44.463058340007052
 20
116.1959315726621
 30
0.0
 42
0.2730025056476577
  0
VERTEX
  5
1C3B
  8
SAPA_FOGBAND
 10
44.463058339613347
 20
101.81481564794591
 30
0.0
 42
-1.2252841983733
  0
VERTEX
  5
1C3C
  8
SAPA_FOGBAND
 10
43.90483751161392
 20
101.00969436330379
 30
0.0
 42
-0.0978309991539171
  0
VERTEX
  5
1C3D
  8
SAPA_FOGBAND
 10
41.085870528509439
 20
103.6873250848799
 30
0.0
 42
-0.0892668760333514
  0
SEQEND
  5
1C3E
  8
SAPA_FOGBAND
  0
DIMENSION
  5
1529
  8
SAPA_MATT
  2
*D33
 10
-36.999999999999993
 20
83.999999928250404
 30
0.0
 11
-37.0
 21
81.499999928158431
 31
0.0
 70
   128
 13
26.50000000000011
 23
78.999999928066472
 33
0.0
 14
10.000000000071729
 24
83.999999928250389
 34
0.0
 50
90.000000000000028
1001
ACAD
1000
DSTYLE
1002
{
1070
    40
1040
1.0
1002
}
  0
DIMENSION
  5
152A
  8
SAPA_MATT
  2
*D32
 10
-37.0
 20
83.999999928250389
 30
0.0
 11
-39.750000000000007
 21
108.99999992791059
 31
0.0
 70
     0
 13
10.000000000071729
 23
133.9999999275708
 33
0.0
 14
10.000000000071729
 24
83.999999928250375
 34
0.0
 50
270.0
1001
ACAD
1000
DSTYLE
1002
{
1070
   287
1070
     4
1070
    40
1040
1.0
1070
   279
1070
     1
1002
}
  0
DIMENSION
  5
152B
  8
SAPA_MATT
  2
*D31
 10
-36.999999999999979
 20
133.9999999275708
 30
0.0
 11
-37.0
 21
136.4999999276628
 31
0.0
 70
   128
 13
26.50000000000011
 23
138.9999999277548
 33
0.0
 14
10.000000000071729
 24
133.9999999275708
 34
0.0
 50
270.0
1001
ACAD
1000
DSTYLE
1002
{
1070
    40
1040
1.0
1002
}
  0
DIMENSION
  5
152C
  8
SAPA_MATT
  2
*D30
 10
-6.4999999999777138
 20
168.9999999277548
 30
0.0
 11
34.999999999997243
 21
171.7499999277548
 31
0.0
 70
     0
 13
76.499999999972189
 23
131.1856634648498
 33
0.0
 14
-6.4999999999777174
 24
131.17605899532811
 34
0.0
 50
180.0
1001
ACAD
1000
DSTYLE
1002
{
1070
   287
1070
     4
1070
    40
1040
1.0
1070
   279
1070
     1
1002
}
  0
VIEWPORT
  5
C4
 67
     1
  8
0
 10
160.5543545598442
 20
116.00969601843509
 30
0.0
 40
404.96977709277462
 41
256.8421457311839
 68
     1
 69
     1
1001
ACAD
1000
MVIEW
1002
{
1070
    16
1010
0.0
1020
0.0
1030
0.0
1010
0.0
1020
0.0
1030
1.0
1040
0.0
1040
256.8421457311839
1040
99.206250190734863
1040
130.70624923706049
1040
50.0
1040
0.0
1040
0.0
1070
     0
1070
     0
1070
     1
1070
     1
1070
     0
1070
     0
1070
     0
1070
     0
1040
0.0
1040
0.0
1040
0.0
1040
10.0
1040
10.0
1040
10.0
1040
10.0
1070
     0
1002
{
1002
}
1002
}
  0
ENDSEC
  0
EOF
