  0
SECTION
  2
HEADER
  9
$ACADVER
  1
AC1009
  9
$INSBASE
 10
0.0
 20
0.0
 30
0.0
  9
$EXTMIN
 10
-62.250000000000171
 20
-23.048837602001459
 30
0.0
  9
$EXTMAX
 10
49.000000000017209
 20
187.75000000092049
 30
0.0000000048844772
  9
$LIMMIN
 10
0.0
 20
0.0
  9
$LIMMAX
 10
790.0
 20
790.0
  9
$ORTHOMODE
 70
     1
  9
$REGENMODE
 70
     1
  9
$FILLMODE
 70
     1
  9
$QTEXTMODE
 70
     0
  9
$MIRRTEXT
 70
     1
  9
$DRAGMODE
 70
     2
  9
$LTSCALE
 40
4.0
  9
$OSMODE
 70
    37
  9
$ATTMODE
 70
     1
  9
$TEXTSIZE
 40
3.5
  9
$TRACEWID
 40
0.05
  9
$TEXTSTYLE
  7
ISO
  9
$CLAYER
  8
0
  9
$CELTYPE
  6
BYLAYER
  9
$CECOLOR
 62
   256
  9
$DIMSCALE
 40
0.0
  9
$DIMASZ
 40
3.0
  9
$DIMEXO
 40
1.5
  9
$DIMDLI
 40
10.0
  9
$DIMRND
 40
0.0
  9
$DIMDLE
 40
0.0
  9
$DIMEXE
 40
1.5
  9
$DIMTP
 40
0.0
  9
$DIMTM
 40
0.0
  9
$DIMTXT
 40
3.5
  9
$DIMCEN
 40
-5.0
  9
$DIMTSZ
 40
0.0
  9
$DIMTOL
 70
     0
  9
$DIMLIM
 70
     0
  9
$DIMTIH
 70
     0
  9
$DIMTOH
 70
     0
  9
$DIMSE1
 70
     0
  9
$DIMSE2
 70
     0
  9
$DIMTAD
 70
     1
  9
$DIMZIN
 70
     8
  9
$DIMBLK
  1

  9
$DIMASO
 70
     1
  9
$DIMSHO
 70
     1
  9
$DIMPOST
  1

  9
$DIMAPOST
  1

  9
$DIMALT
 70
     0
  9
$DIMALTD
 70
     0
  9
$DIMALTF
 40
25.399999999999999
  9
$DIMLFAC
 40
-1.0
  9
$DIMTOFL
 70
     1
  9
$DIMTVP
 40
0.0
  9
$DIMTIX
 70
     0
  9
$DIMSOXD
 70
     0
  9
$DIMSAH
 70
     0
  9
$DIMBLK1
  1

  9
$DIMBLK2
  1

  9
$DIMSTYLE
  2
MASKIN
  9
$DIMCLRD
 70
   256
  9
$DIMCLRE
 70
   256
  9
$DIMCLRT
 70
     2
  9
$DIMTFAC
 40
1.0
  9
$DIMGAP
 40
1.0
  9
$LUNITS
 70
     2
  9
$LUPREC
 70
     8
  9
$SKETCHINC
 40
0.1
  9
$FILLETRAD
 40
0.0
  9
$AUNITS
 70
     0
  9
$AUPREC
 70
     8
  9
$MENU
  1
ACAD
  9
$ELEVATION
 40
0.0
  9
$PELEVATION
 40
0.0
  9
$THICKNESS
 40
0.0
  9
$LIMCHECK
 70
     0
  9
$BLIPMODE
 70
     0
  9
$CHAMFERA
 40
0.0
  9
$CHAMFERB
 40
0.0
  9
$SKPOLY
 70
     0
  9
$TDCREATE
 40
2455734.560015128
  9
$TDUPDATE
 40
2455782.4906900581
  9
$TDINDWG
 40
3.0736305093
  9
$TDUSRTIMER
 40
3.0736303240999998
  9
$USRTIMER
 70
     1
  9
$ANGBASE
 50
0.0
  9
$ANGDIR
 70
     0
  9
$PDMODE
 70
     0
  9
$PDSIZE
 40
0.0
  9
$PLINEWID
 40
0.0
  9
$COORDS
 70
     1
  9
$SPLFRAME
 70
     0
  9
$SPLINETYPE
 70
     6
  9
$SPLINESEGS
 70
     8
  9
$ATTDIA
 70
     0
  9
$ATTREQ
 70
     1
  9
$HANDLING
 70
     1
  9
$HANDSEED
  5
1DD5
  9
$SURFTAB1
 70
     6
  9
$SURFTAB2
 70
     6
  9
$SURFTYPE
 70
     6
  9
$SURFU
 70
     6
  9
$SURFV
 70
     6
  9
$UCSNAME
  2

  9
$UCSORG
 10
0.0
 20
0.0
 30
0.0
  9
$UCSXDIR
 10
1.0
 20
0.0
 30
0.0
  9
$UCSYDIR
 10
0.0
 20
1.0
 30
0.0
  9
$PUCSNAME
  2

  9
$PUCSORG
 10
0.0
 20
0.0
 30
0.0
  9
$PUCSXDIR
 10
1.0
 20
0.0
 30
0.0
  9
$PUCSYDIR
 10
0.0
 20
1.0
 30
0.0
  9
$USERI1
 70
     0
  9
$USERI2
 70
     0
  9
$USERI3
 70
     0
  9
$USERI4
 70
     0
  9
$USERI5
 70
     0
  9
$USERR1
 40
0.0
  9
$USERR2
 40
0.0
  9
$USERR3
 40
0.0
  9
$USERR4
 40
0.0
  9
$USERR5
 40
0.0
  9
$WORLDVIEW
 70
     1
  9
$SHADEDGE
 70
     3
  9
$SHADEDIF
 70
    70
  9
$TILEMODE
 70
     1
  9
$MAXACTVP
 70
    16
  9
$PLIMCHECK
 70
     0
  9
$PEXTMIN
 10
1.0000000000000000E+020
 20
1.0000000000000000E+020
 30
1.0000000000000000E+020
  9
$PEXTMAX
 10
-1.0000000000000000E+020
 20
-1.0000000000000000E+020
 30
-1.0000000000000000E+020
  9
$PLIMMIN
 10
-5.069427490234375
 20
-5.8737497329711914
  9
$PLIMMAX
 10
291.89889526367187
 20
204.0995779037475
  9
$UNITMODE
 70
     0
  9
$VISRETAIN
 70
     1
  9
$PLINEGEN
 70
     0
  9
$PSLTSCALE
 70
     1
  0
ENDSEC
  0
SECTION
  2
TABLES
  0
TABLE
  2
VPORT
 70
     1
  0
VPORT
  2
*ACTIVE
 70
     0
 10
0.0
 20
0.0
 11
1.0
 21
1.0
 12
-1.042888932353548
 22
82.347532346347066
 13
0.0
 23
0.0
 14
1.0
 24
1.0
 15
0.0
 25
0.0
 16
0.0
 26
0.0
 36
1.0
 17
0.0
 27
0.0
 37
0.0
 40
212.42764158086291
 41
2.362397820163487
 42
50.0
 43
0.0
 44
0.0
 50
0.0
 51
0.0
 71
     0
 72
   100
 73
     1
 74
     1
 75
     0
 76
     0
 77
     0
 78
     0
  0
ENDTAB
  0
TABLE
  2
LTYPE
 70
     3
  0
LTYPE
  2
CONTINUOUS
 70
     0
  3
Solid line
 72
    65
 73
     0
 40
0.0
  0
LTYPE
  2
BYGG-027389$0$NEWDOT
 70
     0
  3
____ . ____ . ____ . ____ . ____ . ____ . ____
 72
    65
 73
     4
 40
2.0
 49
1.0
 49
-0.5
 49
0.0
 49
-0.5
  0
LTYPE
  2
BYGG-027385$0$NEWDOT
 70
     0
  3
____ . ____ . ____ . ____ . ____ . ____ . ____
 72
    65
 73
     4
 40
2.0
 49
1.0
 49
-0.5
 49
0.0
 49
-0.5
  0
ENDTAB
  0
TABLE
  2
LAYER
 70
    32
  0
LAYER
  2
0
 70
     0
 62
     7
  6
CONTINUOUS
  0
LAYER
  2
DEFPOINTS
 70
     0
 62
     7
  6
CONTINUOUS
  0
LAYER
  2
SAPA_ARTIKELNR
 70
     0
 62
     4
  6
CONTINUOUS
  0
LAYER
  2
SAPA_MATT
 70
     0
 62
     1
  6
CONTINUOUS
  0
LAYER
  2
SAPA_GLAS
 70
     0
 62
     4
  6
CONTINUOUS
  0
LAYER
  2
SAPA_FOGBAND
 70
     0
 62
     2
  6
CONTINUOUS
  0
LAYER
  2
SAPA_PROFIL
 70
     0
 62
     7
  6
CONTINUOUS
  0
ENDTAB
  0
TABLE
  2
STYLE
 70
    16
  0
STYLE
  2
STANDARD
 70
     0
 40
0.0
 41
1.0
 50
0.0
 71
     0
 42
0.2
  3
txt
  4

  0
STYLE
  2
ISO
 70
     0
 40
0.0
 41
1.0
 50
0.0
 71
     0
 42
3.5
  3
txt
  4

  0
STYLE
  2
BYGG-027530$0$STANDARD
 70
     0
 40
0.0
 41
1.0
 50
0.0
 71
     0
 42
0.2
  3
txt
  4

  0
STYLE
  2
BYGG-027530$0$ISO
 70
     0
 40
0.0
 41
1.0
 50
0.0
 71
     0
 42
3.5
  3
txt
  4

  0
STYLE
  2
BYGG-027389$0$STANDARD
 70
     0
 40
0.0
 41
1.0
 50
0.0
 71
     0
 42
0.2
  3
txt
  4

  0
STYLE
  2
BYGG-027389$0$ISO
 70
     0
 40
0.0
 41
1.0
 50
0.0
 71
     0
 42
3.5
  3
txt
  4

  0
STYLE
  2
BYGG-027391$0$STANDARD
 70
     0
 40
0.0
 41
1.0
 50
0.0
 71
     0
 42
0.2
  3
txt
  4

  0
STYLE
  2
BYGG-027391$0$ISO
 70
     0
 40
0.0
 41
1.0
 50
0.0
 71
     0
 42
3.5
  3
txt
  4

  0
STYLE
  2
BYGG-027392$0$STANDARD
 70
     0
 40
0.0
 41
1.0
 50
0.0
 71
     0
 42
0.2
  3
txt
  4

  0
STYLE
  2
BYGG-027392$0$ISO
 70
     0
 40
0.0
 41
1.0
 50
0.0
 71
     0
 42
3.5
  3
txt
  4

  0
STYLE
  2
BYGG-027393$0$STANDARD
 70
     0
 40
0.0
 41
1.0
 50
0.0
 71
     0
 42
0.2
  3
txt
  4

  0
STYLE
  2
BYGG-027393$0$ISO
 70
     0
 40
0.0
 41
1.0
 50
0.0
 71
     0
 42
3.5
  3
txt
  4

  0
STYLE
  2
BYGG-027414$0$STANDARD
 70
     0
 40
0.0
 41
1.0
 50
0.0
 71
     0
 42
0.2
  3
txt
  4

  0
STYLE
  2
BYGG-027414$0$ISO
 70
     0
 40
0.0
 41
1.0
 50
0.0
 71
     0
 42
3.5
  3
txt
  4

  0
STYLE
  2
BYGG-027385$0$STANDARD
 70
     0
 40
0.0
 41
1.0
 50
0.0
 71
     0
 42
0.2
  3
txt
  4

  0
STYLE
  2
BYGG-027385$0$ISO
 70
     0
 40
0.0
 41
1.0
 50
0.0
 71
     0
 42
3.5
  3
txt
  4

  0
ENDTAB
  0
TABLE
  2
VIEW
 70
     0
  0
ENDTAB
  0
TABLE
  2
UCS
 70
     0
  0
ENDTAB
  0
TABLE
  2
APPID
 70
    26
  0
APPID
  2
ACAD
 70
     0
  0
APPID
  2
ACAD_DSTYLE_DIMTEXT_FILL
 70
     0
  0
APPID
  2
ACAD_DSTYLE_DIMEXT_LENGTH
 70
     0
  0
APPID
  2
ACAD_DSTYLE_DIMEXT_ENABLED
 70
     0
  0
APPID
  2
ACAD_DSTYLE_DIM_LINETYPE
 70
     0
  0
APPID
  2
ACAD_DSTYLE_DIM_EXT1_LINETYPE
 70
     0
  0
APPID
  2
ACAD_DSTYLE_DIM_EXT2_LINETYPE
 70
     0
  0
APPID
  2
ACAD_DSTYLE_DIMJOGGED_JOGA
 70
     0
  0
APPID
  2
ACAD_DSTYLE_DIMARC_LENGTH_
 70
     0
  0
APPID
  2
ACAD_PSEXT
 70
     0
  0
APPID
  2
ACAD_MLEADERVER
 70
     0
  0
APPID
  2
GENIUS_GENODEF_13
 70
     0
  0
APPID
  2
RC_PROFILE
 70
     0
  0
APPID
  2
ACAECLAYERSTANDARD
 70
     0
  0
APPID
  2
GENIUS_GENOBJ-N-FIL_13
 70
     0
  0
APPID
  2
ACADANNOTATIVE
 70
     0
  0
APPID
  2
ACAD_EXEMPT_FROM_CAD_STANDARDS
 70
     0
  0
APPID
  2
AEC_XDATA_BOUND_SPACE
 70
     0
  0
APPID
  2
ACAD_DSTYLE_DIMJAG
 70
     0
  0
APPID
  2
ACAD_DSTYLE_DIMTALN
 70
     0
  0
APPID
  2
GENIUS_GENREC_14
 70
     0
  0
APPID
  2
GENIUS_GENOBJ-N-REC_13
 70
     0
  0
APPID
  2
ACDBDYNAMICBLOCKTRUENAME
 70
     0
  0
APPID
  2
ACDBBLOCKREPETAG
 70
     0
  0
APPID
  2
ACDBDYNAMICBLOCKGUID
 70
     0
  0
APPID
  2
ACDBBLOCKREPBTAG
 70
     0
  0
ENDTAB
  0
TABLE
  2
DIMSTYLE
 70
     8
  0
DIMSTYLE
  2
MASKIN
 70
     0
  3

  4

  5

  6

  7

 40
0.0
 41
3.0
 42
1.5
 43
10.0
 44
1.5
 45
0.0
 46
0.0
 47
0.0
 48
0.0
140
3.5
141
-5.0
142
0.0
143
25.399999999999999
144
-1.0
145
0.0
146
1.0
147
1.0
 71
     0
 72
     0
 73
     0
 74
     0
 75
     0
 76
     0
 77
     1
 78
     8
170
     0
171
     0
172
     1
173
     0
174
     0
175
     0
176
   256
177
   256
178
     2
  0
DIMSTYLE
  2
BYGG-027530$0$MASKIN
 70
     0
  3

  4

  5

  6

  7

 40
0.0
 41
3.0
 42
1.5
 43
10.0
 44
1.5
 45
0.0
 46
0.0
 47
0.0
 48
0.0
140
3.0
141
-5.0
142
0.0
143
25.399999999999999
144
-1.0
145
0.0
146
1.0
147
1.0
 71
     0
 72
     0
 73
     0
 74
     0
 75
     0
 76
     0
 77
     1
 78
     8
170
     0
171
     0
172
     1
173
     0
174
     0
175
     0
176
   256
177
   256
178
     2
  0
DIMSTYLE
  2
BYGG-027389$0$MASKIN
 70
     0
  3

  4

  5

  6

  7

 40
0.0
 41
3.0
 42
1.5
 43
10.0
 44
1.5
 45
0.0
 46
0.0
 47
0.0
 48
0.0
140
3.0
141
-5.0
142
0.0
143
25.399999999999999
144
-1.0
145
0.0
146
1.0
147
1.0
 71
     0
 72
     0
 73
     0
 74
     0
 75
     0
 76
     0
 77
     1
 78
     8
170
     0
171
     0
172
     1
173
     0
174
     0
175
     0
176
   256
177
   256
178
     2
  0
DIMSTYLE
  2
BYGG-027391$0$MASKIN
 70
     0
  3

  4

  5

  6

  7

 40
0.0
 41
3.0
 42
1.5
 43
10.0
 44
1.5
 45
0.0
 46
0.0
 47
0.0
 48
0.0
140
3.0
141
-5.0
142
0.0
143
25.399999999999999
144
-1.0
145
0.0
146
1.0
147
1.0
 71
     0
 72
     0
 73
     0
 74
     0
 75
     0
 76
     0
 77
     1
 78
     8
170
     0
171
     0
172
     1
173
     0
174
     0
175
     0
176
   256
177
   256
178
     2
  0
DIMSTYLE
  2
BYGG-027392$0$MASKIN
 70
     0
  3

  4

  5

  6

  7

 40
0.0
 41
3.0
 42
1.5
 43
10.0
 44
1.5
 45
0.0
 46
0.0
 47
0.0
 48
0.0
140
3.0
141
-5.0
142
0.0
143
25.399999999999999
144
-1.0
145
0.0
146
1.0
147
1.0
 71
     0
 72
     0
 73
     0
 74
     0
 75
     0
 76
     0
 77
     1
 78
     8
170
     0
171
     0
172
     1
173
     0
174
     0
175
     0
176
   256
177
   256
178
     2
  0
DIMSTYLE
  2
BYGG-027393$0$MASKIN
 70
     0
  3

  4

  5

  6

  7

 40
0.0
 41
3.0
 42
1.5
 43
10.0
 44
1.5
 45
0.0
 46
0.0
 47
0.0
 48
0.0
140
3.0
141
-5.0
142
0.0
143
25.399999999999999
144
-1.0
145
0.0
146
1.0
147
1.0
 71
     0
 72
     0
 73
     0
 74
     0
 75
     0
 76
     0
 77
     1
 78
     8
170
     0
171
     0
172
     1
173
     0
174
     0
175
     0
176
   256
177
   256
178
     2
  0
DIMSTYLE
  2
BYGG-027414$0$MASKIN
 70
     0
  3

  4

  5

  6

  7

 40
0.0
 41
3.0
 42
1.5
 43
10.0
 44
1.5
 45
0.0
 46
0.0
 47
0.0
 48
0.0
140
3.0
141
-5.0
142
0.0
143
25.399999999999999
144
-1.0
145
0.0
146
1.0
147
1.0
 71
     0
 72
     0
 73
     0
 74
     0
 75
     0
 76
     0
 77
     1
 78
     8
170
     0
171
     0
172
     1
173
     0
174
     0
175
     0
176
   256
177
   256
178
     2
  0
DIMSTYLE
  2
BYGG-027385$0$MASKIN
 70
     0
  3

  4

  5

  6

  7

 40
0.0
 41
3.0
 42
1.5
 43
10.0
 44
1.5
 45
0.0
 46
0.0
 47
0.0
 48
0.0
140
3.0
141
-5.0
142
0.0
143
25.399999999999999
144
-1.0
145
0.0
146
1.0
147
1.0
 71
     0
 72
     0
 73
     0
 74
     0
 75
     0
 76
     0
 77
     1
 78
     8
170
     0
171
     0
172
     1
173
     0
174
     0
175
     0
176
   256
177
   256
178
     2
  0
ENDTAB
  0
ENDSEC
  0
SECTION
  2
BLOCKS
  0
BLOCK
  8
0
  2
$MODEL_SPACE
 70
     0
 10
0.0
 20
0.0
 30
0.0
  3
$MODEL_SPACE
  1

  0
ENDBLK
  5
37
  8
0
  0
BLOCK
 67
     1
  8
0
  2
$PAPER_SPACE
 70
     0
 10
0.0
 20
0.0
 30
0.0
  3
$PAPER_SPACE
  1

  0
ENDBLK
  5
35
 67
     1
  8
0
  0
BLOCK
  8
0
  2
*D28
 70
     1
 10
0.0
 20
0.0
 30
0.0
  3
*D28
  1

  0
LINE
  5
16FF
  8
SAPA_MATT
 10
-6.3999999998743462
 20
161.50000000091981
 30
0.0
 11
-45.500000000000171
 21
161.50000000091981
 31
0.0
  0
LINE
  5
1700
  8
SAPA_MATT
 10
8.5000000001744525
 20
67.499999999387001
 30
0.0
 11
-45.500000000000192
 21
67.499999999387015
 31
0.0
  0
LINE
  5
1701
  8
SAPA_MATT
 10
-44.000000000000171
 20
158.50000000091981
 30
0.0
 11
-44.000000000000192
 21
70.499999999387015
 31
0.0
  0
SOLID
  5
1702
  8
SAPA_MATT
 10
-44.500000000000171
 20
158.50000000091981
 30
0.0
 11
-43.500000000000171
 21
158.50000000091981
 31
0.0
 12
-44.000000000000171
 22
161.50000000091981
 32
0.0
 13
-44.000000000000171
 23
161.50000000091981
 33
0.0
  0
SOLID
  5
1703
  8
SAPA_MATT
 10
-44.500000000000192
 20
70.499999999387015
 30
0.0
 11
-43.500000000000192
 21
70.499999999387015
 31
0.0
 12
-44.000000000000192
 22
67.499999999387015
 32
0.0
 13
-44.000000000000192
 23
67.499999999387015
 33
0.0
  0
INSERT
  5
1704
  8
0
  2
*U64
 10
0.0
 20
0.0
 30
0.0
  0
POINT
  5
1705
  8
DEFPOINTS
 62
     0
 10
-4.8999999998743462
 20
161.50000000091981
 30
0.0
  0
POINT
  5
1706
  8
DEFPOINTS
 62
     0
 10
10.000000000174451
 20
67.499999999387001
 30
0.0
  0
POINT
  5
1707
  8
DEFPOINTS
 62
     0
 10
-44.000000000000192
 20
67.499999999387015
 30
0.0
  0
ENDBLK
  5
16A1
  8
0
  0
BLOCK
  8
0
  2
*D29
 70
     1
 10
0.0
 20
0.0
 30
0.0
  3
*D29
  1

  0
LINE
  5
1DBE
  8
SAPA_MATT
 10
8.5000000001744525
 20
67.499999999387001
 30
0.0
 11
-45.500000000000213
 21
67.499999999387015
 31
0.0
  0
LINE
  5
1DBF
  8
SAPA_MATT
 10
8.5000000001744951
 20
20.5000000000787
 30
0.0
 11
-45.500000000000213
 21
20.500000000078721
 31
0.0
  0
LINE
  5
1DC0
  8
SAPA_MATT
 10
-44.000000000000199
 20
64.499999999387015
 30
0.0
 11
-44.000000000000213
 21
23.500000000078721
 31
0.0
  0
SOLID
  5
1DC1
  8
SAPA_MATT
 10
-44.500000000000199
 20
64.499999999387015
 30
0.0
 11
-43.500000000000199
 21
64.499999999387015
 31
0.0
 12
-44.000000000000199
 22
67.499999999387015
 32
0.0
 13
-44.000000000000199
 23
67.499999999387015
 33
0.0
  0
SOLID
  5
1DC2
  8
SAPA_MATT
 10
-44.500000000000213
 20
23.500000000078721
 30
0.0
 11
-43.500000000000213
 21
23.500000000078721
 31
0.0
 12
-44.000000000000213
 22
20.500000000078721
 32
0.0
 13
-44.000000000000213
 23
20.500000000078721
 33
0.0
  0
TEXT
  8
SAPA_MATT
  40
3.5
  5
1DD3
  62
2
  72
0
  71
0
 10
-53.7500
 20
37.8050
 30
0.000000
  1
47
  7
ISO
  0
POINT
  5
1DC4
  8
DEFPOINTS
 62
     0
 10
10.000000000174451
 20
67.499999999387001
 30
0.0
  0
POINT
  5
1DC5
  8
DEFPOINTS
 62
     0
 10
10.00000000017449
 20
20.5000000000787
 30
0.0
  0
POINT
  5
1DC6
  8
DEFPOINTS
 62
     0
 10
-44.000000000000213
 20
20.500000000078721
 30
0.0
  0
ENDBLK
  5
16AD
  8
0
  0
BLOCK
  8
0
  2
*D30
 70
     1
 10
0.0
 20
0.0
 30
0.0
  3
*D30
  1

  0
LINE
  5
1DB5
  8
SAPA_MATT
 10
8.5000000001744951
 20
20.5000000000787
 30
0.0
 11
-45.500000000000192
 21
20.500000000078721
 31
0.0
  0
LINE
  5
1DB6
  8
SAPA_MATT
 10
-6.6000000001045116
 20
-8.5000000009207497
 30
0.0
 11
-45.500000000000199
 21
-8.500000000920739
 31
0.0
  0
LINE
  5
1DB7
  8
SAPA_MATT
 10
-44.000000000000192
 20
17.500000000078721
 30
0.0
 11
-44.000000000000192
 21
-5.500000000920739
 31
0.0
  0
TEXT
  8
SAPA_MATT
  40
3.5
  5
1DD4
  62
2
  72
0
  71
0
 10
-53.7500
 20
-0.195000
 30
0.000000
  1
29
  7
ISO
  0
SOLID
  5
1DB9
  8
SAPA_MATT
 10
-44.500000000000192
 20
17.500000000078721
 30
0.0
 11
-43.500000000000192
 21
17.500000000078721
 31
0.0
 12
-44.000000000000192
 22
20.500000000078721
 32
0.0
 13
-44.000000000000192
 23
20.500000000078721
 33
0.0
  0
SOLID
  5
1DBA
  8
SAPA_MATT
 10
-44.500000000000192
 20
-5.500000000920739
 30
0.0
 11
-43.500000000000199
 21
-5.500000000920739
 31
0.0
 12
-44.000000000000192
 22
-8.500000000920739
 32
0.0
 13
-44.000000000000192
 23
-8.500000000920739
 33
0.0
  0
POINT
  5
1DBB
  8
DEFPOINTS
 62
     0
 10
10.00000000017449
 20
20.5000000000787
 30
0.0
  0
POINT
  5
1DBC
  8
DEFPOINTS
 62
     0
 10
-5.1000000001045116
 20
-8.5000000009207497
 30
0.0
  0
POINT
  5
1DBD
  8
DEFPOINTS
 62
     0
 10
-44.000000000000192
 20
-8.500000000920739
 30
0.0
  0
ENDBLK
  5
16B9
  8
0
  0
BLOCK
  8
0
  2
*D31
 70
     1
 10
0.0
 20
0.0
 30
0.0
  3
*D31
  1

  0
LINE
  5
16E4
  8
SAPA_MATT
 10
-6.3999999998743462
 20
161.50000000091981
 30
0.0
 11
-57.500000000000142
 21
161.50000000091981
 31
0.0
  0
LINE
  5
16E5
  8
SAPA_MATT
 10
-6.6000000001045116
 20
-8.5000000009207497
 30
0.0
 11
-57.500000000000171
 21
-8.5000000009207355
 31
0.0
  0
LINE
  5
16E6
  8
SAPA_MATT
 10
-56.000000000000142
 20
158.50000000091981
 30
0.0
 11
-56.000000000000178
 21
-5.5000000009207346
 31
0.0
  0
SOLID
  5
16E7
  8
SAPA_MATT
 10
-56.500000000000142
 20
158.50000000091981
 30
0.0
 11
-55.500000000000142
 21
158.50000000091981
 31
0.0
 12
-56.000000000000142
 22
161.50000000091981
 32
0.0
 13
-56.000000000000142
 23
161.50000000091981
 33
0.0
  0
SOLID
  5
16E8
  8
SAPA_MATT
 10
-56.500000000000178
 20
-5.5000000009207346
 30
0.0
 11
-55.500000000000178
 21
-5.5000000009207346
 31
0.0
 12
-56.000000000000178
 22
-8.5000000009207355
 32
0.0
 13
-56.000000000000178
 23
-8.5000000009207355
 33
0.0
  0
INSERT
  5
16E9
  8
0
  2
*U63
 10
0.0
 20
0.0
 30
0.0
  0
POINT
  5
16EA
  8
DEFPOINTS
 62
     0
 10
-4.8999999998743462
 20
161.50000000091981
 30
0.0
  0
POINT
  5
16EB
  8
DEFPOINTS
 62
     0
 10
-5.1000000001045116
 20
-8.5000000009207497
 30
0.0
  0
POINT
  5
16EC
  8
DEFPOINTS
 62
     0
 10
-56.000000000000178
 20
-8.5000000009207355
 30
0.0
  0
ENDBLK
  5
16C5
  8
0
  0
BLOCK
  8
0
  2
*D32
 70
     1
 10
0.0
 20
0.0
 30
0.0
  3
*D32
  1

  0
LINE
  5
16DB
  8
SAPA_MATT
 10
31.599999999769128
 20
161.500033835903
 30
0.0
 11
31.599999999769128
 21
183.00000000092049
 31
0.0
  0
LINE
  5
16DC
  8
SAPA_MATT
 10
-6.3999999998743462
 20
161.5000000009189
 30
0.0
 11
-6.3999999998743444
 21
183.00000000092049
 31
0.0
  0
LINE
  5
16DD
  8
SAPA_MATT
 10
28.599999999769128
 20
181.50000000092049
 30
0.0
 11
-3.3999999998743449
 21
181.50000000092049
 31
0.0
  0
SOLID
  5
16DE
  8
SAPA_MATT
 10
28.599999999769128
 20
182.00000000092049
 30
0.0
 11
28.599999999769128
 21
181.00000000092049
 31
0.0
 12
31.599999999769128
 22
181.50000000092049
 32
0.0
 13
31.599999999769128
 23
181.50000000092049
 33
0.0
  0
SOLID
  5
16DF
  8
SAPA_MATT
 10
-3.3999999998743449
 20
182.00000000092049
 30
0.0
 11
-3.3999999998743449
 21
181.00000000092049
 31
0.0
 12
-6.3999999998743453
 22
181.50000000092049
 32
0.0
 13
-6.3999999998743453
 23
181.50000000092049
 33
0.0
  0
INSERT
  5
16E0
  8
0
  2
*U62
 10
0.0
 20
0.0
 30
0.0
  0
POINT
  5
16E1
  8
DEFPOINTS
 62
     0
 10
31.599999999769128
 20
160.00003383590311
 30
0.0
  0
POINT
  5
16E2
  8
DEFPOINTS
 62
     0
 10
-6.3999999998743462
 20
160.0000000009189
 30
0.0
  0
POINT
  5
16E3
  8
DEFPOINTS
 62
     0
 10
-6.3999999998743453
 20
181.50000000092049
 30
0.0
  0
ENDBLK
  5
16D1
  8
0
  0
BLOCK
  8
0
  2
*U33
 70
     1
 10
0.0
 20
0.0
 30
0.0
  3
*U33
  1

  0
TEXT
  5
1728
  8
0
 62
     2
 10
-45.00000000000022
 20
41.37499999973285
 30
0.0
 40
3.5
  1
47
 50
90.0
  7
ISO
  0
ENDBLK
  5
172A
  8
0
  0
BLOCK
  8
0
  2
*U34
 70
     1
 10
0.0
 20
0.0
 30
0.0
  3
*U34
  1

  0
TEXT
  5
172C
  8
0
 62
     2
 10
-45.000000000000199
 20
3.5499999995789882
 30
0.0
 40
3.5
  1
29
 50
90.0
  7
ISO
  0
ENDBLK
  5
172E
  8
0
  0
BLOCK
  8
0
  2
*U35
 70
     1
 10
0.0
 20
0.0
 30
0.0
  3
*U35
  1

  0
TEXT
  5
1730
  8
0
 62
     2
 10
-57.000000000000171
 20
73.174999999999557
 30
0.0
 40
3.5
  1
170
 50
90.0
  7
ISO
  0
ENDBLK
  5
1732
  8
0
  0
BLOCK
  8
0
  2
*U36
 70
     1
 10
0.0
 20
0.0
 30
0.0
  3
*U36
  1

  0
TEXT
  5
1734
  8
0
 62
     2
 10
-45.000000000000199
 20
111.87500000015341
 30
0.0
 40
3.5
  1
94
 50
90.0
  7
ISO
  0
ENDBLK
  5
1736
  8
0
  0
BLOCK
  8
0
  2
*U37
 70
     1
 10
0.0
 20
0.0
 30
0.0
  3
*U37
  1

  0
TEXT
  5
1738
  8
0
 62
     2
 10
10.14999999994739
 20
182.50000000092049
 30
0.0
 40
3.5
  1
38
  7
ISO
  0
ENDBLK
  5
173A
  8
0
  0
BLOCK
  8
0
  2
*U38
 70
     1
 10
0.0
 20
0.0
 30
0.0
  3
*U38
  1

  0
TEXT
  5
1771
  8
0
 62
     2
 10
16.549999999818102
 20
-12.04883760108115
 30
0.0
 40
3.5
  1
38
  7
BYGG-027389$0$ISO
  0
ENDBLK
  5
1773
  8
0
  0
BLOCK
  8
0
  2
*U39
 70
     1
 10
0.0
 20
0.0
 30
0.0
  3
*U39
  1

  0
TEXT
  5
1775
  8
0
 62
     2
 10
47.546389967435317
 20
43.54999999993661
 30
0.0
 40
3.5
  1
92
 50
90.0
  7
BYGG-027389$0$ISO
  0
ENDBLK
  5
1777
  8
0
  0
BLOCK
  8
0
  2
*U40
 70
     1
 10
0.0
 20
0.0
 30
0.0
  3
*U40
  1

  0
ENDBLK
  5
1832
  8
0
  0
BLOCK
  8
0
  2
*X41
 70
     1
 10
0.0
 20
0.0
 30
0.0
  3
*X41
  1

  0
LINE
  5
185C
  8
0
 62
     0
 10
64.999999999831431
 20
-4.7760650557325732
 30
0.0
 11
65.749999999843723
 21
-4.0260650557202791
 31
0.0
  0
LINE
  5
185D
  8
0
 62
     0
 10
64.999999999831417
 20
-3.653533040598929
 30
0.0
 11
65.749999999842487
 21
-2.903533040587861
 31
0.0
  0
LINE
  5
185E
  8
0
 62
     0
 10
64.999999999831431
 20
-2.5310010254652839
 30
0.0
 11
65.749999999841265
 21
-1.78100102545545
 31
0.0
  0
LINE
  5
185F
  8
0
 62
     0
 10
64.999999999831431
 20
-1.4084690103316371
 30
0.0
 11
65.749999999840028
 21
-0.6584690103230316
 31
0.0
  0
LINE
  5
1860
  8
0
 62
     0
 10
64.999999999831431
 20
-0.2859369951979929
 30
0.0
 11
65.74999999983882
 21
0.4640630048093862
 31
0.0
  0
LINE
  5
1861
  8
0
 62
     0
 10
64.999999999831431
 20
0.8365950199356522
 30
0.0
 11
65.74999999983757
 21
1.586595019941796
 31
0.0
  0
LINE
  5
1862
  8
0
 62
     0
 10
64.999999999831431
 20
1.959127035069304
 30
0.0
 11
65.749999999836348
 21
2.7091270350742191
 31
0.0
  0
LINE
  5
1863
  8
0
 62
     0
 10
64.999999999831431
 20
3.0816590502029468
 30
0.0
 11
65.749999999835111
 21
3.8316590502066279
 31
0.0
  0
LINE
  5
1864
  8
0
 62
     0
 10
64.999999999831431
 20
4.2041910653365919
 30
0.0
 11
65.749999999833889
 21
4.9541910653390451
 31
0.0
  0
LINE
  5
1865
  8
0
 62
     0
 10
64.999999999831445
 20
5.3267230804702388
 30
0.0
 11
65.749999999832653
 21
6.0767230804714556
 31
0.0
  0
LINE
  5
1866
  8
0
 62
     0
 10
64.999999999831431
 20
6.4492550956038812
 30
0.0
 11
65.749999999831431
 21
7.1992550956038741
 31
0.0
  0
LINE
  5
1867
  8
0
 62
     0
 10
64.999999999831431
 20
7.5717871107375236
 30
0.0
 11
65.428212889105936
 21
8.0000000000120295
 31
0.0
  0
LINE
  5
1868
  8
0
 62
     0
 10
64.999999999831431
 20
-3.973503844991515
 30
0.0
 11
65.749999999844491
 21
-4.7235038450045748
 31
0.0
  0
LINE
  5
1869
  8
0
 62
     0
 10
64.999999999831431
 20
-2.850971829857861
 30
0.0
 11
65.749999999843254
 21
-3.6009718298696991
 31
0.0
  0
LINE
  5
186A
  8
0
 62
     0
 10
64.999999999831431
 20
-1.7284398147242179
 30
0.0
 11
65.749999999842032
 21
-2.478439814734819
 31
0.0
  0
LINE
  5
186B
  8
0
 62
     0
 10
64.999999999831417
 20
-0.6059077995905753
 30
0.0
 11
65.74999999984081
 21
-1.355907799599954
 31
0.0
  0
LINE
  5
186C
  8
0
 62
     0
 10
64.999999999831431
 20
0.5166242155430681
 30
0.0
 11
65.749999999839574
 21
-0.2333757844650783
 31
0.0
  0
LINE
  5
186D
  8
0
 62
     0
 10
64.999999999831431
 20
1.639156230676704
 30
0.0
 11
65.749999999838337
 21
0.8891562306697871
 31
0.0
  0
LINE
  5
186E
  8
0
 62
     0
 10
64.999999999831445
 20
2.761688245810344
 30
0.0
 11
65.749999999837115
 21
2.0116882458046699
 31
0.0
  0
LINE
  5
186F
  8
0
 62
     0
 10
64.999999999831431
 20
3.88422026094399
 30
0.0
 11
65.749999999835893
 21
3.1342202609395349
 31
0.0
  0
LINE
  5
1870
  8
0
 62
     0
 10
64.999999999831431
 20
5.0067522760776342
 30
0.0
 11
65.749999999834657
 21
4.2567522760744154
 31
0.0
  0
LINE
  5
1871
  8
0
 62
     0
 10
64.999999999831445
 20
6.1292842912112766
 30
0.0
 11
65.749999999833435
 21
5.3792842912092844
 31
0.0
  0
LINE
  5
1872
  8
0
 62
     0
 10
64.999999999831445
 20
7.2518163063449173
 30
0.0
 11
65.749999999832184
 21
6.5018163063441561
 31
0.0
  0
LINE
  5
1873
  8
0
 62
     0
 10
65.374348321298029
 20
8.0000000000119726
 30
0.0
 11
65.749999999830976
 21
7.6243483214790286
 31
0.0
  0
ENDBLK
  5
1875
  8
0
  0
BLOCK
  8
0
  2
*X42
 70
     1
 10
0.0
 20
0.0
 30
0.0
  3
*X42
  1

  0
LINE
  5
1877
  8
0
 62
     0
 10
22.319848480486151
 20
-4.7999999999993586
 30
0.0
 11
22.999999999831111
 21
-4.1198484806544036
 31
0.0
  0
LINE
  5
1878
  8
0
 62
     0
 10
22.24999999947968
 20
-3.7473164658721898
 30
0.0
 11
22.999999999831111
 21
-2.9973164655207611
 31
0.0
  0
LINE
  5
1879
  8
0
 62
     0
 10
22.249999999480899
 20
-2.624784450737315
 30
0.0
 11
22.999999999831111
 21
-1.8747844503871161
 31
0.0
  0
LINE
  5
187A
  8
0
 62
     0
 10
22.249999999482132
 20
-1.5022524356024449
 30
0.0
 11
22.999999999831111
 21
-0.7522524352534729
 31
0.0
  0
LINE
  5
187B
  8
0
 62
     0
 10
22.249999999483361
 20
-0.3797204204675708
 30
0.0
 11
22.999999999831111
 21
0.3702795798801697
 31
0.0
  0
LINE
  5
187C
  8
0
 62
     0
 10
22.249999999484601
 20
0.7428115946673071
 30
0.0
 11
22.999999999831111
 21
1.4928115950138141
 31
0.0
  0
LINE
  5
187D
  8
0
 62
     0
 10
22.24999999948583
 20
1.8653436098021801
 30
0.0
 11
22.999999999831111
 21
2.6153436101474581
 31
0.0
  0
LINE
  5
187E
  8
0
 62
     0
 10
22.249999999487059
 20
2.9878756249370522
 30
0.0
 11
22.999999999831111
 21
3.7378756252811018
 31
0.0
  0
LINE
  5
187F
  8
0
 62
     0
 10
22.249999999488288
 20
4.1104076400719274
 30
0.0
 11
22.999999999831111
 21
4.8604076404147447
 31
0.0
  0
LINE
  5
1880
  8
0
 62
     0
 10
22.249999999489521
 20
5.2329396552068017
 30
0.0
 11
22.999999999831111
 21
5.9829396555483889
 31
0.0
  0
LINE
  5
1881
  8
0
 62
     0
 10
22.24999999949075
 20
6.3554716703416743
 30
0.0
 11
22.999999999831111
 21
7.1054716706820331
 31
0.0
  0
LINE
  5
1882
  8
0
 62
     0
 10
22.24999999949198
 20
7.4780036854765468
 30
0.0
 11
22.771996314027259
 21
8.0000000000118323
 31
0.0
  0
LINE
  5
1883
  8
0
 62
     0
 10
22.249999999479531
 20
-3.8797204197180788
 30
0.0
 11
22.999999999831111
 21
-4.6297204200696562
 31
0.0
  0
LINE
  5
1884
  8
0
 62
     0
 10
22.24999999948076
 20
-2.7571884045856652
 30
0.0
 11
22.999999999831111
 21
-3.507188404936012
 31
0.0
  0
LINE
  5
1885
  8
0
 62
     0
 10
22.249999999481989
 20
-1.6346563894532511
 30
0.0
 11
22.999999999831111
 21
-2.3846563898023669
 31
0.0
  0
LINE
  5
1886
  8
0
 62
     0
 10
22.249999999483219
 20
-0.5121243743208375
 30
0.0
 11
22.999999999831111
 21
-1.2621243746687241
 31
0.0
  0
LINE
  5
1887
  8
0
 62
     0
 10
22.249999999484452
 20
0.6104076408115767
 30
0.0
 11
22.999999999831111
 21
-0.1395923595350812
 31
0.0
  0
LINE
  5
1888
  8
0
 62
     0
 10
22.249999999485681
 20
1.732939655943992
 30
0.0
 11
22.999999999831111
 21
0.9829396555985621
 31
0.0
  0
LINE
  5
1889
  8
0
 62
     0
 10
22.24999999948691
 20
2.8554716710764039
 30
0.0
 11
22.999999999831111
 21
2.1054716707322081
 31
0.0
  0
LINE
  5
188A
  8
0
 62
     0
 10
22.249999999488139
 20
3.9780036862088179
 30
0.0
 11
22.999999999831111
 21
3.2280036858658518
 31
0.0
  0
LINE
  5
188B
  8
0
 62
     0
 10
22.249999999489368
 20
5.1005357013412338
 30
0.0
 11
22.999999999831111
 21
4.3505357009994992
 31
0.0
  0
LINE
  5
188C
  8
0
 62
     0
 10
22.249999999490601
 20
6.2230677164736488
 30
0.0
 11
22.999999999831111
 21
5.4730677161331416
 31
0.0
  0
LINE
  5
188D
  8
0
 62
     0
 10
22.24999999949183
 20
7.3455997316060619
 30
0.0
 11
22.999999999831111
 21
6.5955997312667858
 31
0.0
  0
LINE
  5
188E
  8
0
 62
     0
 10
22.718131746219651
 20
8.0000000000118892
 30
0.0
 11
22.999999999831111
 21
7.7181317464004309
 31
0.0
  0
ENDBLK
  5
1890
  8
0
  0
BLOCK
  8
0
  2
*U43
 70
     1
 10
0.0
 20
0.0
 30
0.0
  3
*U43
  1

  0
TEXT
  5
18FB
  8
0
 62
     2
 10
20.87499999973641
 20
-8.6022642397426434
 30
0.0
 40
3.5
  1
47
  7
BYGG-027385$0$ISO
  0
ENDBLK
  5
18FD
  8
0
  0
BLOCK
  8
0
  2
*U44
 70
     1
 10
0.0
 20
0.0
 30
0.0
  3
*U44
  1

  0
TEXT
  5
18FF
  8
0
 62
     2
 10
57.122739046411191
 20
9.1258558523105524
 30
0.0
 40
3.5
  1
23
 50
90.0
  7
BYGG-027385$0$ISO
  0
ENDBLK
  5
1901
  8
0
  0
BLOCK
  8
0
  2
*X45
 70
     1
 10
0.0
 20
0.0
 30
0.0
  3
*X45
  1

  0
LINE
  5
1903
  8
0
 62
     0
 10
38.100000000000001
 20
2.250011999999876
 30
0.0
 11
38.100000000000001
 21
6.350021333329261
 31
0.0
  0
LINE
  5
1904
  8
0
 62
     0
 10
36.512500000000003
 20
2.9722179848888439
 30
0.0
 11
36.512500000000003
 21
5.6278060151110578
 31
0.0
  0
LINE
  5
1905
  8
0
 62
     0
 10
34.924999999999997
 20
3.350012000001811
 30
0.0
 11
34.924999999999997
 21
5.2500120000017878
 31
0.0
  0
LINE
  5
1906
  8
0
 62
     0
 10
33.337499999999999
 20
3.350012000001811
 30
0.0
 11
33.337499999999999
 21
5.2500120000017878
 31
0.0
  0
LINE
  5
1907
  8
0
 62
     0
 10
31.75
 20
3.350012000001811
 30
0.0
 11
31.75
 21
5.2500120000017878
 31
0.0
  0
LINE
  5
1908
  8
0
 62
     0
 10
30.162500000000001
 20
3.350012000001811
 30
0.0
 11
30.162500000000001
 21
5.2500120000017878
 31
0.0
  0
LINE
  5
1909
  8
0
 62
     0
 10
28.574999999999999
 20
3.350012000001811
 30
0.0
 11
28.574999999999999
 21
5.2500120000017878
 31
0.0
  0
LINE
  5
190A
  8
0
 62
     0
 10
26.987500000000001
 20
3.350012000001811
 30
0.0
 11
26.987500000000001
 21
5.2500120000017878
 31
0.0
  0
LINE
  5
190B
  8
0
 62
     0
 10
25.399999999999999
 20
3.350012000001811
 30
0.0
 11
25.399999999999999
 21
5.2500120000017878
 31
0.0
  0
LINE
  5
190C
  8
0
 62
     0
 10
23.8125
 20
3.350012000001811
 30
0.0
 11
23.8125
 21
5.2500120000017878
 31
0.0
  0
LINE
  5
190D
  8
0
 62
     0
 10
22.225000000000001
 20
3.350012000001811
 30
0.0
 11
22.225000000000001
 21
5.2500120000017878
 31
0.0
  0
LINE
  5
190E
  8
0
 62
     0
 10
20.637499999999999
 20
3.350012000001811
 30
0.0
 11
20.637499999999999
 21
5.2500120000017878
 31
0.0
  0
LINE
  5
190F
  8
0
 62
     0
 10
19.050000000000001
 20
3.350012000001811
 30
0.0
 11
19.050000000000001
 21
5.2500120000017878
 31
0.0
  0
LINE
  5
1910
  8
0
 62
     0
 10
17.462499999999999
 20
3.350012000001811
 30
0.0
 11
17.462499999999999
 21
5.2500120000017878
 31
0.0
  0
LINE
  5
1911
  8
0
 62
     0
 10
15.875
 20
3.350012000001811
 30
0.0
 11
15.875
 21
5.2500120000017878
 31
0.0
  0
LINE
  5
1912
  8
0
 62
     0
 10
14.2875
 20
3.350012000001811
 30
0.0
 11
14.2875
 21
5.2500120000017878
 31
0.0
  0
LINE
  5
1913
  8
0
 62
     0
 10
12.699999999999999
 20
3.350012000001811
 30
0.0
 11
12.699999999999999
 21
5.2500120000017878
 31
0.0
  0
LINE
  5
1914
  8
0
 62
     0
 10
11.112500000000001
 20
3.3119842058908779
 30
0.0
 11
11.112500000000001
 21
5.2880397941106194
 31
0.0
  0
LINE
  5
1915
  8
0
 62
     0
 10
9.5249999999999986
 20
2.4165183510982322
 30
0.0
 11
9.5249999999999986
 21
6.1835056489018561
 31
0.0
  0
ENDBLK
  5
1917
  8
0
  0
BLOCK
  8
0
  2
*U46
 70
     1
 10
0.0
 20
0.0
 30
0.0
  3
*U46
  1

  0
TEXT
  5
191A
  8
0
 62
     2
 10
40.946389967698231
 20
35.049999999016308
 30
0.0
 40
3.5
  1
92
 50
90.0
  7
BYGG-027389$0$ISO
  0
ENDBLK
  5
191C
  8
0
  0
BLOCK
  8
0
  2
*U47
 70
     1
 10
0.0
 20
0.0
 30
0.0
  3
*U47
  1

  0
TEXT
  5
191E
  8
0
 62
     2
 10
-17.94638996766988
 20
113.0500000009837
 30
0.0
 40
3.5
  1
92
 50
90.0
  7
BYGG-027389$0$ISO
  0
ENDBLK
  5
1920
  8
0
  0
BLOCK
  8
0
  2
*U48
 70
     1
 10
0.0
 20
0.0
 30
0.0
  3
*U48
  1

  0
TEXT
  5
1B1E
  8
0
 62
     2
 10
26.678120092052829
 20
41.374999999465672
 30
0.0
 40
3.5
  1
47
 50
90.0
  7
BYGG-027385$0$ISO
  0
ENDBLK
  5
1B20
  8
0
  0
BLOCK
  8
0
  2
*U49
 70
     1
 10
0.0
 20
0.0
 30
0.0
  3
*U49
  1

  0
TEXT
  5
1B22
  8
0
 62
     2
 10
4.0499999999996534
 20
79.622739046140453
 30
0.0
 40
3.5
  1
23
  7
BYGG-027385$0$ISO
  0
ENDBLK
  5
1B24
  8
0
  0
BLOCK
  8
0
  2
*U50
 70
     1
 10
0.0
 20
0.0
 30
0.0
  3
*U50
  1

  0
TEXT
  5
1B26
  8
0
 62
     2
 10
-3.678120092024201
 20
106.3750000005342
 30
0.0
 40
3.5
  1
47
 50
90.0
  7
BYGG-027385$0$ISO
  0
ENDBLK
  5
1B28
  8
0
  0
BLOCK
  8
0
  2
*U51
 70
     1
 10
0.0
 20
0.0
 30
0.0
  3
*U51
  1

  0
TEXT
  5
1B2A
  8
0
 62
     2
 10
14.200000000028639
 20
75.577260953860133
 30
0.0
 40
3.5
  1
22.8
  7
BYGG-027385$0$ISO
  0
ENDBLK
  5
1B2C
  8
0
  0
BLOCK
  8
0
  2
*U52
 70
     1
 10
0.0
 20
0.0
 30
0.0
  3
*U52
  1

  0
TEXT
  5
1B2E
  8
0
 62
     2
 10
10.14999999994739
 20
175.54883760200141
 30
0.0
 40
3.5
  1
38
  7
BYGG-027389$0$ISO
  0
ENDBLK
  5
1B30
  8
0
  0
BLOCK
  8
0
  2
*U53
 70
     1
 10
0.0
 20
0.0
 30
0.0
  3
*U53
  1

  0
TEXT
  5
1B32
  8
0
 62
     2
 10
9.95000000008101
 20
-20.548837602001459
 30
0.0
 40
3.5
  1
38
  7
BYGG-027389$0$ISO
  0
ENDBLK
  5
1B34
  8
0
  0
BLOCK
  8
0
  2
*X54
 70
     1
 10
0.0
 20
0.0
 30
0.0
  3
*X54
  1

  0
LINE
  5
1B36
  8
0
 62
     0
 10
29.800000000028099
 20
87.319848481020244
 30
0.0
 11
29.119848480683171
 21
88.000000000365191
 31
0.0
  0
LINE
  5
1B37
  8
0
 62
     0
 10
28.747316465900951
 20
87.250000000013785
 30
0.0
 11
27.99731646554952
 21
88.000000000365205
 31
0.0
  0
LINE
  5
1B38
  8
0
 62
     0
 10
27.624784450766072
 20
87.250000000015007
 30
0.0
 11
26.874784450415881
 21
88.000000000365205
 31
0.0
  0
LINE
  5
1B39
  8
0
 62
     0
 10
26.50225243563121
 20
87.250000000016229
 30
0.0
 11
25.75225243528223
 21
88.000000000365205
 31
0.0
  0
LINE
  5
1B3A
  8
0
 62
     0
 10
25.37972042049633
 20
87.250000000017451
 30
0.0
 11
24.62972042014859
 21
88.000000000365191
 31
0.0
  0
LINE
  5
1B3B
  8
0
 62
     0
 10
24.257188405361461
 20
87.250000000018673
 30
0.0
 11
23.507188405014951
 21
88.000000000365205
 31
0.0
  0
LINE
  5
1B3C
  8
0
 62
     0
 10
23.134656390226581
 20
87.250000000019924
 30
0.0
 11
22.384656389881311
 21
88.000000000365191
 31
0.0
  0
LINE
  5
1B3D
  8
0
 62
     0
 10
22.012124375091709
 20
87.250000000021174
 30
0.0
 11
21.26212437474766
 21
88.000000000365205
 31
0.0
  0
LINE
  5
1B3E
  8
0
 62
     0
 10
20.889592359956829
 20
87.250000000022368
 30
0.0
 11
20.13959235961401
 21
88.000000000365191
 31
0.0
  0
LINE
  5
1B3F
  8
0
 62
     0
 10
19.76706034482196
 20
87.250000000023618
 30
0.0
 11
19.01706034448037
 21
88.000000000365205
 31
0.0
  0
LINE
  5
1B40
  8
0
 62
     0
 10
18.644528329687081
 20
87.250000000024841
 30
0.0
 11
17.89452832934672
 21
88.000000000365191
 31
0.0
  0
LINE
  5
1B41
  8
0
 62
     0
 10
17.521996314552212
 20
87.250000000026077
 30
0.0
 11
17.000000000016911
 21
87.771996314561378
 31
0.0
  0
LINE
  5
1B42
  8
0
 62
     0
 10
28.879720419746821
 20
87.250000000013628
 30
0.0
 11
29.629720420098401
 21
88.000000000365191
 31
0.0
  0
LINE
  5
1B43
  8
0
 62
     0
 10
27.757188404614411
 20
87.250000000014865
 30
0.0
 11
28.507188404964751
 21
88.000000000365205
 31
0.0
  0
LINE
  5
1B44
  8
0
 62
     0
 10
26.634656389481989
 20
87.250000000016087
 30
0.0
 11
27.384656389831111
 21
88.000000000365191
 31
0.0
  0
LINE
  5
1B45
  8
0
 62
     0
 10
25.512124374349579
 20
87.250000000017323
 30
0.0
 11
26.262124374697461
 21
88.000000000365205
 31
0.0
  0
LINE
  5
1B46
  8
0
 62
     0
 10
24.389592359217161
 20
87.250000000018545
 30
0.0
 11
25.139592359563821
 21
88.000000000365191
 31
0.0
  0
LINE
  5
1B47
  8
0
 62
     0
 10
23.267060344084751
 20
87.250000000019782
 30
0.0
 11
24.017060344430181
 21
88.000000000365205
 31
0.0
  0
LINE
  5
1B48
  8
0
 62
     0
 10
22.14452832895233
 20
87.250000000020989
 30
0.0
 11
22.894528329296531
 21
88.000000000365191
 31
0.0
  0
LINE
  5
1B49
  8
0
 62
     0
 10
21.021996313819919
 20
87.250000000022226
 30
0.0
 11
21.77199631416288
 21
88.000000000365205
 31
0.0
  0
LINE
  5
1B4A
  8
0
 62
     0
 10
19.899464298687501
 20
87.250000000023476
 30
0.0
 11
20.649464299029241
 21
88.000000000365205
 31
0.0
  0
LINE
  5
1B4B
  8
0
 62
     0
 10
18.776932283555091
 20
87.250000000024698
 30
0.0
 11
19.52693228389559
 21
88.000000000365191
 31
0.0
  0
LINE
  5
1B4C
  8
0
 62
     0
 10
17.65440026842268
 20
87.250000000025935
 30
0.0
 11
18.40440026876195
 21
88.000000000365205
 31
0.0
  0
LINE
  5
1B4D
  8
0
 62
     0
 10
17.000000000016861
 20
87.718131746753755
 30
0.0
 11
17.2818682536283
 21
88.000000000365191
 31
0.0
  0
ENDBLK
  5
1B4F
  8
0
  0
BLOCK
  8
0
  2
*X55
 70
     1
 10
0.0
 20
0.0
 30
0.0
  3
*X55
  1

  0
LINE
  5
1B51
  8
0
 62
     0
 10
29.776065055761329
 20
130.0000000003655
 30
0.0
 11
29.026065055749001
 21
130.75000000037781
 31
0.0
  0
LINE
  5
1B52
  8
0
 62
     0
 10
28.653533040627678
 20
130.0000000003655
 30
0.0
 11
27.90353304061659
 21
130.75000000037659
 31
0.0
  0
LINE
  5
1B53
  8
0
 62
     0
 10
27.531001025494032
 20
130.0000000003655
 30
0.0
 11
26.78100102548418
 21
130.75000000037539
 31
0.0
  0
LINE
  5
1B54
  8
0
 62
     0
 10
26.408469010360381
 20
130.0000000003655
 30
0.0
 11
25.658469010351759
 21
130.75000000037409
 31
0.0
  0
LINE
  5
1B55
  8
0
 62
     0
 10
25.285936995226749
 20
130.0000000003655
 30
0.0
 11
24.535936995219348
 21
130.75000000037289
 31
0.0
  0
LINE
  5
1B56
  8
0
 62
     0
 10
24.163404980093091
 20
130.0000000003655
 30
0.0
 11
23.413404980086931
 21
130.7500000003717
 31
0.0
  0
LINE
  5
1B57
  8
0
 62
     0
 10
23.040872964959441
 20
130.0000000003655
 30
0.0
 11
22.290872964954531
 21
130.75000000037039
 31
0.0
  0
LINE
  5
1B58
  8
0
 62
     0
 10
21.91834094982579
 20
130.0000000003655
 30
0.0
 11
21.16834094982211
 21
130.7500000003692
 31
0.0
  0
LINE
  5
1B59
  8
0
 62
     0
 10
20.79580893469214
 20
130.0000000003655
 30
0.0
 11
20.045808934689688
 21
130.750000000368
 31
0.0
  0
LINE
  5
1B5A
  8
0
 62
     0
 10
19.673276919558489
 20
130.0000000003655
 30
0.0
 11
18.923276919557289
 21
130.7500000003667
 31
0.0
  0
LINE
  5
1B5B
  8
0
 62
     0
 10
18.55074490442485
 20
130.0000000003655
 30
0.0
 11
17.800744904424871
 21
130.7500000003655
 31
0.0
  0
LINE
  5
1B5C
  8
0
 62
     0
 10
17.428212889291199
 20
130.0000000003655
 30
0.0
 11
17.000000000016719
 21
130.42821288964001
 31
0.0
  0
LINE
  5
1B5D
  8
0
 62
     0
 10
28.97350384502025
 20
130.0000000003655
 30
0.0
 11
29.723503845033331
 21
130.75000000037861
 31
0.0
  0
LINE
  5
1B5E
  8
0
 62
     0
 10
27.85097182988661
 20
130.0000000003655
 30
0.0
 11
28.600971829898459
 21
130.7500000003773
 31
0.0
  0
LINE
  5
1B5F
  8
0
 62
     0
 10
26.728439814752971
 20
130.0000000003655
 30
0.0
 11
27.478439814763568
 21
130.7500000003761
 31
0.0
  0
LINE
  5
1B60
  8
0
 62
     0
 10
25.605907799619331
 20
130.0000000003655
 30
0.0
 11
26.355907799628699
 21
130.75000000037491
 31
0.0
  0
LINE
  5
1B61
  8
0
 62
     0
 10
24.483375784485681
 20
130.0000000003655
 30
0.0
 11
25.23337578449383
 21
130.75000000037369
 31
0.0
  0
LINE
  5
1B62
  8
0
 62
     0
 10
23.360843769352059
 20
130.0000000003655
 30
0.0
 11
24.110843769358951
 21
130.75000000037241
 31
0.0
  0
LINE
  5
1B63
  8
0
 62
     0
 10
22.238311754218419
 20
130.0000000003655
 30
0.0
 11
22.988311754224078
 21
130.75000000037119
 31
0.0
  0
LINE
  5
1B64
  8
0
 62
     0
 10
21.115779739084768
 20
130.0000000003655
 30
0.0
 11
21.865779739089209
 21
130.75000000036999
 31
0.0
  0
LINE
  5
1B65
  8
0
 62
     0
 10
19.993247723951129
 20
130.0000000003655
 30
0.0
 11
20.743247723954308
 21
130.75000000036869
 31
0.0
  0
LINE
  5
1B66
  8
0
 62
     0
 10
18.870715708817482
 20
130.0000000003655
 30
0.0
 11
19.620715708819439
 21
130.75000000036749
 31
0.0
  0
LINE
  5
1B67
  8
0
 62
     0
 10
17.748183693683838
 20
130.0000000003655
 30
0.0
 11
18.498183693684581
 21
130.7500000003663
 31
0.0
  0
LINE
  5
1B68
  8
0
 62
     0
 10
17.00000000001679
 20
130.37434832183209
 30
0.0
 11
17.375651678549691
 21
130.75000000036499
 31
0.0
  0
ENDBLK
  5
1B6A
  8
0
  0
BLOCK
  8
0
  2
*X56
 70
     1
 10
0.0
 20
0.0
 30
0.0
  3
*X56
  1

  0
LINE
  5
1B87
  8
0
 62
     0
 10
-4.7999999999994616
 20
65.680151518979642
 30
0.0
 11
-4.1198484806545066
 21
64.999999999634696
 31
0.0
  0
LINE
  5
1B88
  8
0
 62
     0
 10
-3.7473164658722928
 20
65.74999999998613
 30
0.0
 11
-2.9973164655208642
 21
64.999999999634696
 31
0.0
  0
LINE
  5
1B89
  8
0
 62
     0
 10
-2.6247844507374172
 20
65.74999999998488
 30
0.0
 11
-1.87478445038722
 21
64.999999999634682
 31
0.0
  0
LINE
  5
1B8A
  8
0
 62
     0
 10
-1.502252435602548
 20
65.749999999983643
 30
0.0
 11
-0.7522524352535794
 21
64.999999999634696
 31
0.0
  0
LINE
  5
1B8B
  8
0
 62
     0
 10
-0.3797204204676721
 20
65.749999999982421
 30
0.0
 11
0.3702795798800649
 21
64.999999999634682
 31
0.0
  0
LINE
  5
1B8C
  8
0
 62
     0
 10
0.742811594667197
 20
65.749999999981213
 30
0.0
 11
1.492811595013706
 21
64.999999999634696
 31
0.0
  0
LINE
  5
1B8D
  8
0
 62
     0
 10
1.8653436098020719
 20
65.749999999979963
 30
0.0
 11
2.6153436101473502
 21
64.999999999634682
 31
0.0
  0
LINE
  5
1B8E
  8
0
 62
     0
 10
2.9878756249369491
 20
65.749999999978741
 30
0.0
 11
3.737875625280993
 21
64.999999999634696
 31
0.0
  0
LINE
  5
1B8F
  8
0
 62
     0
 10
4.1104076400718164
 20
65.749999999977504
 30
0.0
 11
4.8604076404146364
 21
64.999999999634682
 31
0.0
  0
LINE
  5
1B90
  8
0
 62
     0
 10
5.2329396552066934
 20
65.749999999976282
 30
0.0
 11
5.9829396555482814
 21
64.999999999634682
 31
0.0
  0
LINE
  5
1B91
  8
0
 62
     0
 10
6.3554716703415606
 20
65.749999999975046
 30
0.0
 11
7.1054716706819221
 21
64.999999999634682
 31
0.0
  0
LINE
  5
1B92
  8
0
 62
     0
 10
7.4780036854764367
 20
65.749999999973824
 30
0.0
 11
8.0000000000117382
 21
65.228003685438523
 31
0.0
  0
LINE
  5
1B93
  8
0
 62
     0
 10
-3.879720419718188
 20
65.749999999986258
 30
0.0
 11
-4.6297204200697637
 21
64.999999999634682
 31
0.0
  0
LINE
  5
1B94
  8
0
 62
     0
 10
-2.7571884045857749
 20
65.749999999985022
 30
0.0
 11
-3.5071884049361151
 21
64.999999999634682
 31
0.0
  0
LINE
  5
1B95
  8
0
 62
     0
 10
-1.6346563894533559
 20
65.7499999999838
 30
0.0
 11
-2.3846563898024722
 21
64.999999999634682
 31
0.0
  0
LINE
  5
1B96
  8
0
 62
     0
 10
-0.5121243743209459
 20
65.749999999982563
 30
0.0
 11
-1.2621243746688291
 21
64.999999999634682
 31
0.0
  0
LINE
  5
1B97
  8
0
 62
     0
 10
0.6104076408114718
 20
65.749999999981341
 30
0.0
 11
-0.1395923595351824
 21
64.999999999634682
 31
0.0
  0
LINE
  5
1B98
  8
0
 62
     0
 10
1.732939655943885
 20
65.749999999980105
 30
0.0
 11
0.9829396555984608
 21
64.999999999634682
 31
0.0
  0
LINE
  5
1B99
  8
0
 62
     0
 10
2.8554716710763048
 20
65.749999999978883
 30
0.0
 11
2.1054716707321051
 21
64.999999999634682
 31
0.0
  0
LINE
  5
1B9A
  8
0
 62
     0
 10
3.9780036862087158
 20
65.749999999977646
 30
0.0
 11
3.2280036858657519
 21
64.999999999634682
 31
0.0
  0
LINE
  5
1B9B
  8
0
 62
     0
 10
5.1005357013411361
 20
65.74999999997641
 30
0.0
 11
4.3505357009993961
 21
64.999999999634667
 31
0.0
  0
LINE
  5
1B9C
  8
0
 62
     0
 10
6.2230677164735484
 20
65.749999999975188
 30
0.0
 11
5.4730677161330403
 21
64.999999999634682
 31
0.0
  0
LINE
  5
1B9D
  8
0
 62
     0
 10
7.3455997316059598
 20
65.749999999973952
 30
0.0
 11
6.5955997312666863
 21
64.999999999634682
 31
0.0
  0
LINE
  5
1B9E
  8
0
 62
     0
 10
8.0000000000117915
 20
65.281868253246145
 30
0.0
 11
7.7181317464003296
 21
64.999999999634682
 31
0.0
  0
ENDBLK
  5
1BA0
  8
0
  0
BLOCK
  8
0
  2
*X57
 70
     1
 10
0.0
 20
0.0
 30
0.0
  3
*X57
  1

  0
LINE
  5
1BA2
  8
0
 62
     0
 10
-4.7760650557326993
 20
22.999999999634358
 30
0.0
 11
-4.0260650557203981
 21
22.249999999622059
 31
0.0
  0
LINE
  5
1BA3
  8
0
 62
     0
 10
-3.653533040599052
 20
22.999999999634358
 30
0.0
 11
-2.903533040587984
 21
22.249999999623281
 31
0.0
  0
LINE
  5
1BA4
  8
0
 62
     0
 10
-2.5310010254654101
 20
22.999999999634358
 30
0.0
 11
-1.781001025455569
 21
22.24999999962451
 31
0.0
  0
LINE
  5
1BA5
  8
0
 62
     0
 10
-1.408469010331767
 20
22.999999999634358
 30
0.0
 11
-0.6584690103231594
 21
22.249999999625739
 31
0.0
  0
LINE
  5
1BA6
  8
0
 62
     0
 10
-0.2859369951981261
 20
22.999999999634358
 30
0.0
 11
0.4640630048092529
 21
22.249999999626969
 31
0.0
  0
LINE
  5
1BA7
  8
0
 62
     0
 10
0.8365950199355243
 20
22.999999999634351
 30
0.0
 11
1.5865950199416701
 21
22.249999999628201
 31
0.0
  0
LINE
  5
1BA8
  8
0
 62
     0
 10
1.959127035069165
 20
22.999999999634351
 30
0.0
 11
2.7091270350740841
 21
22.249999999629431
 31
0.0
  0
LINE
  5
1BA9
  8
0
 62
     0
 10
3.0816590502028092
 20
22.99999999963434
 30
0.0
 11
3.831659050206496
 21
22.249999999630649
 31
0.0
  0
LINE
  5
1BAA
  8
0
 62
     0
 10
4.2041910653364587
 20
22.999999999634351
 30
0.0
 11
4.9541910653389136
 21
22.249999999631889
 31
0.0
  0
LINE
  5
1BAB
  8
0
 62
     0
 10
5.326723080470102
 20
22.99999999963434
 30
0.0
 11
6.076723080471325
 21
22.249999999633111
 31
0.0
  0
LINE
  5
1BAC
  8
0
 62
     0
 10
6.4492550956037462
 20
22.99999999963434
 30
0.0
 11
7.1992550956037418
 21
22.249999999634351
 31
0.0
  0
LINE
  5
1BAD
  8
0
 62
     0
 10
7.5717871107373931
 20
22.99999999963434
 30
0.0
 11
8.0000000000119194
 21
22.571787110359811
 31
0.0
  0
LINE
  5
1BAE
  8
0
 62
     0
 10
-3.9735038449916331
 20
22.999999999634358
 30
0.0
 11
-4.7235038450046991
 21
22.249999999621291
 31
0.0
  0
LINE
  5
1BAF
  8
0
 62
     0
 10
-2.8509718298579889
 20
22.999999999634358
 30
0.0
 11
-3.600971829869827
 21
22.249999999622521
 31
0.0
  0
LINE
  5
1BB0
  8
0
 62
     0
 10
-1.728439814724346
 20
22.999999999634358
 30
0.0
 11
-2.4784398147349398
 21
22.249999999623761
 31
0.0
  0
LINE
  5
1BB1
  8
0
 62
     0
 10
-0.6059077995906997
 20
22.999999999634358
 30
0.0
 11
-1.355907799600075
 21
22.249999999624979
 31
0.0
  0
LINE
  5
1BB2
  8
0
 62
     0
 10
0.5166242155429366
 20
22.999999999634351
 30
0.0
 11
-0.2333757844651991
 21
22.249999999626208
 31
0.0
  0
LINE
  5
1BB3
  8
0
 62
     0
 10
1.639156230676583
 20
22.999999999634351
 30
0.0
 11
0.8891562306696734
 21
22.249999999627441
 31
0.0
  0
LINE
  5
1BB4
  8
0
 62
     0
 10
2.7616882458102259
 20
22.999999999634358
 30
0.0
 11
2.011688245804542
 21
22.24999999962867
 31
0.0
  0
LINE
  5
1BB5
  8
0
 62
     0
 10
3.8842202609438621
 20
22.99999999963434
 30
0.0
 11
3.1342202609394141
 21
22.249999999629889
 31
0.0
  0
LINE
  5
1BB6
  8
0
 62
     0
 10
5.0067522760775089
 20
22.999999999634351
 30
0.0
 11
4.2567522760742937
 21
22.249999999631129
 31
0.0
  0
LINE
  5
1BB7
  8
0
 62
     0
 10
6.1292842912111558
 20
22.99999999963434
 30
0.0
 11
5.3792842912091627
 21
22.249999999632351
 31
0.0
  0
LINE
  5
1BB8
  8
0
 62
     0
 10
7.2518163063447956
 20
22.99999999963434
 30
0.0
 11
6.5018163063440433
 21
22.24999999963358
 31
0.0
  0
LINE
  5
1BB9
  8
0
 62
     0
 10
8.0000000000118625
 20
22.62565167816776
 30
0.0
 11
7.6243483214789149
 21
22.249999999634809
 31
0.0
  0
ENDBLK
  5
1BBB
  8
0
  0
BLOCK
  8
0
  2
*X58
 70
     1
 10
0.0
 20
0.0
 30
0.0
  3
*X58
  1

  0
LINE
  5
1BD8
  8
0
 62
     0
 10
29.800000000028099
 20
87.319848481020244
 30
0.0
 11
29.119848480683171
 21
88.000000000365191
 31
0.0
  0
LINE
  5
1BD9
  8
0
 62
     0
 10
28.747316465900951
 20
87.250000000013785
 30
0.0
 11
27.99731646554952
 21
88.000000000365205
 31
0.0
  0
LINE
  5
1BDA
  8
0
 62
     0
 10
27.624784450766072
 20
87.250000000015007
 30
0.0
 11
26.874784450415881
 21
88.000000000365205
 31
0.0
  0
LINE
  5
1BDB
  8
0
 62
     0
 10
26.50225243563121
 20
87.250000000016229
 30
0.0
 11
25.75225243528223
 21
88.000000000365205
 31
0.0
  0
LINE
  5
1BDC
  8
0
 62
     0
 10
25.37972042049633
 20
87.250000000017451
 30
0.0
 11
24.62972042014859
 21
88.000000000365191
 31
0.0
  0
LINE
  5
1BDD
  8
0
 62
     0
 10
24.257188405361461
 20
87.250000000018673
 30
0.0
 11
23.507188405014951
 21
88.000000000365205
 31
0.0
  0
LINE
  5
1BDE
  8
0
 62
     0
 10
23.134656390226581
 20
87.250000000019924
 30
0.0
 11
22.384656389881311
 21
88.000000000365191
 31
0.0
  0
LINE
  5
1BDF
  8
0
 62
     0
 10
22.012124375091709
 20
87.250000000021174
 30
0.0
 11
21.26212437474766
 21
88.000000000365205
 31
0.0
  0
LINE
  5
1BE0
  8
0
 62
     0
 10
20.889592359956829
 20
87.250000000022368
 30
0.0
 11
20.13959235961401
 21
88.000000000365191
 31
0.0
  0
LINE
  5
1BE1
  8
0
 62
     0
 10
19.76706034482196
 20
87.250000000023618
 30
0.0
 11
19.01706034448037
 21
88.000000000365205
 31
0.0
  0
LINE
  5
1BE2
  8
0
 62
     0
 10
18.644528329687081
 20
87.250000000024841
 30
0.0
 11
17.89452832934672
 21
88.000000000365191
 31
0.0
  0
LINE
  5
1BE3
  8
0
 62
     0
 10
17.521996314552212
 20
87.250000000026077
 30
0.0
 11
17.000000000016911
 21
87.771996314561378
 31
0.0
  0
LINE
  5
1BE4
  8
0
 62
     0
 10
28.879720419746821
 20
87.250000000013628
 30
0.0
 11
29.629720420098401
 21
88.000000000365191
 31
0.0
  0
LINE
  5
1BE5
  8
0
 62
     0
 10
27.757188404614411
 20
87.250000000014865
 30
0.0
 11
28.507188404964751
 21
88.000000000365205
 31
0.0
  0
LINE
  5
1BE6
  8
0
 62
     0
 10
26.634656389481989
 20
87.250000000016087
 30
0.0
 11
27.384656389831111
 21
88.000000000365191
 31
0.0
  0
LINE
  5
1BE7
  8
0
 62
     0
 10
25.512124374349579
 20
87.250000000017323
 30
0.0
 11
26.262124374697461
 21
88.000000000365205
 31
0.0
  0
LINE
  5
1BE8
  8
0
 62
     0
 10
24.389592359217161
 20
87.250000000018545
 30
0.0
 11
25.139592359563821
 21
88.000000000365191
 31
0.0
  0
LINE
  5
1BE9
  8
0
 62
     0
 10
23.267060344084751
 20
87.250000000019782
 30
0.0
 11
24.017060344430181
 21
88.000000000365205
 31
0.0
  0
LINE
  5
1BEA
  8
0
 62
     0
 10
22.14452832895233
 20
87.250000000020989
 30
0.0
 11
22.894528329296531
 21
88.000000000365191
 31
0.0
  0
LINE
  5
1BEB
  8
0
 62
     0
 10
21.021996313819919
 20
87.250000000022226
 30
0.0
 11
21.77199631416288
 21
88.000000000365205
 31
0.0
  0
LINE
  5
1BEC
  8
0
 62
     0
 10
19.899464298687501
 20
87.250000000023476
 30
0.0
 11
20.649464299029241
 21
88.000000000365205
 31
0.0
  0
LINE
  5
1BED
  8
0
 62
     0
 10
18.776932283555091
 20
87.250000000024698
 30
0.0
 11
19.52693228389559
 21
88.000000000365191
 31
0.0
  0
LINE
  5
1BEE
  8
0
 62
     0
 10
17.65440026842268
 20
87.250000000025935
 30
0.0
 11
18.40440026876195
 21
88.000000000365205
 31
0.0
  0
LINE
  5
1BEF
  8
0
 62
     0
 10
17.000000000016861
 20
87.718131746753755
 30
0.0
 11
17.2818682536283
 21
88.000000000365191
 31
0.0
  0
ENDBLK
  5
1BF1
  8
0
  0
BLOCK
  8
0
  2
*X59
 70
     1
 10
0.0
 20
0.0
 30
0.0
  3
*X59
  1

  0
LINE
  5
1BF3
  8
0
 62
     0
 10
29.776065055761329
 20
130.0000000003655
 30
0.0
 11
29.026065055749001
 21
130.75000000037781
 31
0.0
  0
LINE
  5
1BF4
  8
0
 62
     0
 10
28.653533040627678
 20
130.0000000003655
 30
0.0
 11
27.90353304061659
 21
130.75000000037659
 31
0.0
  0
LINE
  5
1BF5
  8
0
 62
     0
 10
27.531001025494032
 20
130.0000000003655
 30
0.0
 11
26.78100102548418
 21
130.75000000037539
 31
0.0
  0
LINE
  5
1BF6
  8
0
 62
     0
 10
26.408469010360381
 20
130.0000000003655
 30
0.0
 11
25.658469010351759
 21
130.75000000037409
 31
0.0
  0
LINE
  5
1BF7
  8
0
 62
     0
 10
25.285936995226749
 20
130.0000000003655
 30
0.0
 11
24.535936995219348
 21
130.75000000037289
 31
0.0
  0
LINE
  5
1BF8
  8
0
 62
     0
 10
24.163404980093091
 20
130.0000000003655
 30
0.0
 11
23.413404980086931
 21
130.7500000003717
 31
0.0
  0
LINE
  5
1BF9
  8
0
 62
     0
 10
23.040872964959441
 20
130.0000000003655
 30
0.0
 11
22.290872964954531
 21
130.75000000037039
 31
0.0
  0
LINE
  5
1BFA
  8
0
 62
     0
 10
21.91834094982579
 20
130.0000000003655
 30
0.0
 11
21.16834094982211
 21
130.7500000003692
 31
0.0
  0
LINE
  5
1BFB
  8
0
 62
     0
 10
20.79580893469214
 20
130.0000000003655
 30
0.0
 11
20.045808934689688
 21
130.750000000368
 31
0.0
  0
LINE
  5
1BFC
  8
0
 62
     0
 10
19.673276919558489
 20
130.0000000003655
 30
0.0
 11
18.923276919557289
 21
130.7500000003667
 31
0.0
  0
LINE
  5
1BFD
  8
0
 62
     0
 10
18.55074490442485
 20
130.0000000003655
 30
0.0
 11
17.800744904424871
 21
130.7500000003655
 31
0.0
  0
LINE
  5
1BFE
  8
0
 62
     0
 10
17.428212889291199
 20
130.0000000003655
 30
0.0
 11
17.000000000016719
 21
130.42821288964001
 31
0.0
  0
LINE
  5
1BFF
  8
0
 62
     0
 10
28.97350384502025
 20
130.0000000003655
 30
0.0
 11
29.723503845033331
 21
130.75000000037861
 31
0.0
  0
LINE
  5
1C00
  8
0
 62
     0
 10
27.85097182988661
 20
130.0000000003655
 30
0.0
 11
28.600971829898459
 21
130.7500000003773
 31
0.0
  0
LINE
  5
1C01
  8
0
 62
     0
 10
26.728439814752971
 20
130.0000000003655
 30
0.0
 11
27.478439814763568
 21
130.7500000003761
 31
0.0
  0
LINE
  5
1C02
  8
0
 62
     0
 10
25.605907799619331
 20
130.0000000003655
 30
0.0
 11
26.355907799628699
 21
130.75000000037491
 31
0.0
  0
LINE
  5
1C03
  8
0
 62
     0
 10
24.483375784485681
 20
130.0000000003655
 30
0.0
 11
25.23337578449383
 21
130.75000000037369
 31
0.0
  0
LINE
  5
1C04
  8
0
 62
     0
 10
23.360843769352059
 20
130.0000000003655
 30
0.0
 11
24.110843769358951
 21
130.75000000037241
 31
0.0
  0
LINE
  5
1C05
  8
0
 62
     0
 10
22.238311754218419
 20
130.0000000003655
 30
0.0
 11
22.988311754224078
 21
130.75000000037119
 31
0.0
  0
LINE
  5
1C06
  8
0
 62
     0
 10
21.115779739084768
 20
130.0000000003655
 30
0.0
 11
21.865779739089209
 21
130.75000000036999
 31
0.0
  0
LINE
  5
1C07
  8
0
 62
     0
 10
19.993247723951129
 20
130.0000000003655
 30
0.0
 11
20.743247723954308
 21
130.75000000036869
 31
0.0
  0
LINE
  5
1C08
  8
0
 62
     0
 10
18.870715708817482
 20
130.0000000003655
 30
0.0
 11
19.620715708819439
 21
130.75000000036749
 31
0.0
  0
LINE
  5
1C09
  8
0
 62
     0
 10
17.748183693683838
 20
130.0000000003655
 30
0.0
 11
18.498183693684581
 21
130.7500000003663
 31
0.0
  0
LINE
  5
1C0A
  8
0
 62
     0
 10
17.00000000001679
 20
130.37434832183209
 30
0.0
 11
17.375651678549691
 21
130.75000000036499
 31
0.0
  0
ENDBLK
  5
1C0C
  8
0
  0
BLOCK
  8
0
  2
*X60
 70
     1
 10
0.0
 20
0.0
 30
0.0
  3
*X60
  1

  0
LINE
  5
1C29
  8
0
 62
     0
 10
-4.7999999999994616
 20
65.680151518979642
 30
0.0
 11
-4.1198484806545066
 21
64.999999999634696
 31
0.0
  0
LINE
  5
1C2A
  8
0
 62
     0
 10
-3.7473164658722928
 20
65.74999999998613
 30
0.0
 11
-2.9973164655208642
 21
64.999999999634696
 31
0.0
  0
LINE
  5
1C2B
  8
0
 62
     0
 10
-2.6247844507374172
 20
65.74999999998488
 30
0.0
 11
-1.87478445038722
 21
64.999999999634682
 31
0.0
  0
LINE
  5
1C2C
  8
0
 62
     0
 10
-1.502252435602548
 20
65.749999999983643
 30
0.0
 11
-0.7522524352535794
 21
64.999999999634696
 31
0.0
  0
LINE
  5
1C2D
  8
0
 62
     0
 10
-0.3797204204676721
 20
65.749999999982421
 30
0.0
 11
0.3702795798800649
 21
64.999999999634682
 31
0.0
  0
LINE
  5
1C2E
  8
0
 62
     0
 10
0.742811594667197
 20
65.749999999981213
 30
0.0
 11
1.492811595013706
 21
64.999999999634696
 31
0.0
  0
LINE
  5
1C2F
  8
0
 62
     0
 10
1.8653436098020719
 20
65.749999999979963
 30
0.0
 11
2.6153436101473502
 21
64.999999999634682
 31
0.0
  0
LINE
  5
1C30
  8
0
 62
     0
 10
2.9878756249369491
 20
65.749999999978741
 30
0.0
 11
3.737875625280993
 21
64.999999999634696
 31
0.0
  0
LINE
  5
1C31
  8
0
 62
     0
 10
4.1104076400718164
 20
65.749999999977504
 30
0.0
 11
4.8604076404146364
 21
64.999999999634682
 31
0.0
  0
LINE
  5
1C32
  8
0
 62
     0
 10
5.2329396552066934
 20
65.749999999976282
 30
0.0
 11
5.9829396555482814
 21
64.999999999634682
 31
0.0
  0
LINE
  5
1C33
  8
0
 62
     0
 10
6.3554716703415606
 20
65.749999999975046
 30
0.0
 11
7.1054716706819221
 21
64.999999999634682
 31
0.0
  0
LINE
  5
1C34
  8
0
 62
     0
 10
7.4780036854764367
 20
65.749999999973824
 30
0.0
 11
8.0000000000117382
 21
65.228003685438523
 31
0.0
  0
LINE
  5
1C35
  8
0
 62
     0
 10
-3.879720419718188
 20
65.749999999986258
 30
0.0
 11
-4.6297204200697637
 21
64.999999999634682
 31
0.0
  0
LINE
  5
1C36
  8
0
 62
     0
 10
-2.7571884045857749
 20
65.749999999985022
 30
0.0
 11
-3.5071884049361151
 21
64.999999999634682
 31
0.0
  0
LINE
  5
1C37
  8
0
 62
     0
 10
-1.6346563894533559
 20
65.7499999999838
 30
0.0
 11
-2.3846563898024722
 21
64.999999999634682
 31
0.0
  0
LINE
  5
1C38
  8
0
 62
     0
 10
-0.5121243743209459
 20
65.749999999982563
 30
0.0
 11
-1.2621243746688291
 21
64.999999999634682
 31
0.0
  0
LINE
  5
1C39
  8
0
 62
     0
 10
0.6104076408114718
 20
65.749999999981341
 30
0.0
 11
-0.1395923595351824
 21
64.999999999634682
 31
0.0
  0
LINE
  5
1C3A
  8
0
 62
     0
 10
1.732939655943885
 20
65.749999999980105
 30
0.0
 11
0.9829396555984608
 21
64.999999999634682
 31
0.0
  0
LINE
  5
1C3B
  8
0
 62
     0
 10
2.8554716710763048
 20
65.749999999978883
 30
0.0
 11
2.1054716707321051
 21
64.999999999634682
 31
0.0
  0
LINE
  5
1C3C
  8
0
 62
     0
 10
3.9780036862087158
 20
65.749999999977646
 30
0.0
 11
3.2280036858657519
 21
64.999999999634682
 31
0.0
  0
LINE
  5
1C3D
  8
0
 62
     0
 10
5.1005357013411361
 20
65.74999999997641
 30
0.0
 11
4.3505357009993961
 21
64.999999999634667
 31
0.0
  0
LINE
  5
1C3E
  8
0
 62
     0
 10
6.2230677164735484
 20
65.749999999975188
 30
0.0
 11
5.4730677161330403
 21
64.999999999634682
 31
0.0
  0
LINE
  5
1C3F
  8
0
 62
     0
 10
7.3455997316059598
 20
65.749999999973952
 30
0.0
 11
6.5955997312666863
 21
64.999999999634682
 31
0.0
  0
LINE
  5
1C40
  8
0
 62
     0
 10
8.0000000000117915
 20
65.281868253246145
 30
0.0
 11
7.7181317464003296
 21
64.999999999634682
 31
0.0
  0
ENDBLK
  5
1C42
  8
0
  0
BLOCK
  8
0
  2
*X61
 70
     1
 10
0.0
 20
0.0
 30
0.0
  3
*X61
  1

  0
LINE
  5
1C44
  8
0
 62
     0
 10
-4.7760650557326993
 20
22.999999999634358
 30
0.0
 11
-4.0260650557203981
 21
22.249999999622059
 31
0.0
  0
LINE
  5
1C45
  8
0
 62
     0
 10
-3.653533040599052
 20
22.999999999634358
 30
0.0
 11
-2.903533040587984
 21
22.249999999623281
 31
0.0
  0
LINE
  5
1C46
  8
0
 62
     0
 10
-2.5310010254654101
 20
22.999999999634358
 30
0.0
 11
-1.781001025455569
 21
22.24999999962451
 31
0.0
  0
LINE
  5
1C47
  8
0
 62
     0
 10
-1.408469010331767
 20
22.999999999634358
 30
0.0
 11
-0.6584690103231594
 21
22.249999999625739
 31
0.0
  0
LINE
  5
1C48
  8
0
 62
     0
 10
-0.2859369951981261
 20
22.999999999634358
 30
0.0
 11
0.4640630048092529
 21
22.249999999626969
 31
0.0
  0
LINE
  5
1C49
  8
0
 62
     0
 10
0.8365950199355243
 20
22.999999999634351
 30
0.0
 11
1.5865950199416701
 21
22.249999999628201
 31
0.0
  0
LINE
  5
1C4A
  8
0
 62
     0
 10
1.959127035069165
 20
22.999999999634351
 30
0.0
 11
2.7091270350740841
 21
22.249999999629431
 31
0.0
  0
LINE
  5
1C4B
  8
0
 62
     0
 10
3.0816590502028092
 20
22.99999999963434
 30
0.0
 11
3.831659050206496
 21
22.249999999630649
 31
0.0
  0
LINE
  5
1C4C
  8
0
 62
     0
 10
4.2041910653364587
 20
22.999999999634351
 30
0.0
 11
4.9541910653389136
 21
22.249999999631889
 31
0.0
  0
LINE
  5
1C4D
  8
0
 62
     0
 10
5.326723080470102
 20
22.99999999963434
 30
0.0
 11
6.076723080471325
 21
22.249999999633111
 31
0.0
  0
LINE
  5
1C4E
  8
0
 62
     0
 10
6.4492550956037462
 20
22.99999999963434
 30
0.0
 11
7.1992550956037418
 21
22.249999999634351
 31
0.0
  0
LINE
  5
1C4F
  8
0
 62
     0
 10
7.5717871107373931
 20
22.99999999963434
 30
0.0
 11
8.0000000000119194
 21
22.571787110359811
 31
0.0
  0
LINE
  5
1C50
  8
0
 62
     0
 10
-3.9735038449916331
 20
22.999999999634358
 30
0.0
 11
-4.7235038450046991
 21
22.249999999621291
 31
0.0
  0
LINE
  5
1C51
  8
0
 62
     0
 10
-2.8509718298579889
 20
22.999999999634358
 30
0.0
 11
-3.600971829869827
 21
22.249999999622521
 31
0.0
  0
LINE
  5
1C52
  8
0
 62
     0
 10
-1.728439814724346
 20
22.999999999634358
 30
0.0
 11
-2.4784398147349398
 21
22.249999999623761
 31
0.0
  0
LINE
  5
1C53
  8
0
 62
     0
 10
-0.6059077995906997
 20
22.999999999634358
 30
0.0
 11
-1.355907799600075
 21
22.249999999624979
 31
0.0
  0
LINE
  5
1C54
  8
0
 62
     0
 10
0.5166242155429366
 20
22.999999999634351
 30
0.0
 11
-0.2333757844651991
 21
22.249999999626208
 31
0.0
  0
LINE
  5
1C55
  8
0
 62
     0
 10
1.639156230676583
 20
22.999999999634351
 30
0.0
 11
0.8891562306696734
 21
22.249999999627441
 31
0.0
  0
LINE
  5
1C56
  8
0
 62
     0
 10
2.7616882458102259
 20
22.999999999634358
 30
0.0
 11
2.011688245804542
 21
22.24999999962867
 31
0.0
  0
LINE
  5
1C57
  8
0
 62
     0
 10
3.8842202609438621
 20
22.99999999963434
 30
0.0
 11
3.1342202609394141
 21
22.249999999629889
 31
0.0
  0
LINE
  5
1C58
  8
0
 62
     0
 10
5.0067522760775089
 20
22.999999999634351
 30
0.0
 11
4.2567522760742937
 21
22.249999999631129
 31
0.0
  0
LINE
  5
1C59
  8
0
 62
     0
 10
6.1292842912111558
 20
22.99999999963434
 30
0.0
 11
5.3792842912091627
 21
22.249999999632351
 31
0.0
  0
LINE
  5
1C5A
  8
0
 62
     0
 10
7.2518163063447956
 20
22.99999999963434
 30
0.0
 11
6.5018163063440433
 21
22.24999999963358
 31
0.0
  0
LINE
  5
1C5B
  8
0
 62
     0
 10
8.0000000000118625
 20
22.62565167816776
 30
0.0
 11
7.6243483214789149
 21
22.249999999634809
 31
0.0
  0
ENDBLK
  5
1C5D
  8
0
  0
BLOCK
  8
0
  2
*U62
 70
     1
 10
0.0
 20
0.0
 30
0.0
  3
*U62
  1

  0
TEXT
  5
1DC8
  8
SAPA_MATT
 62
     2
 10
10.14999999994739
 20
182.50000000092049
 30
0.0
 40
3.5
  1
38
  7
ISO
  0
ENDBLK
  5
1DCA
  8
0
  0
BLOCK
  8
0
  2
*U63
 70
     1
 10
0.0
 20
0.0
 30
0.0
  3
*U63
  1

  0
TEXT
  5
1DCC
  8
SAPA_MATT
 62
     2
 10
-57.000000000000171
 20
73.174999999999557
 30
0.0
 40
3.5
  1
170
 50
90.0
  7
ISO
  0
ENDBLK
  5
1DCE
  8
0
  0
BLOCK
  8
0
  2
*U64
 70
     1
 10
0.0
 20
0.0
 30
0.0
  3
*U64
  1

  0
TEXT
  5
1DD0
  8
SAPA_MATT
 62
     2
 10
-45.000000000000199
 20
111.87500000015341
 30
0.0
 40
3.5
  1
94
 50
90.0
  7
ISO
  0
ENDBLK
  5
1DD2
  8
0
  0
ENDSEC
  0
SECTION
  2
ENTITIES
  0
TEXT
  5
1026
  8
SAPA_ARTIKELNR
 10
4.6185307842603001
 20
-13.54246934386614
 30
0.0000000048844772
 40
3.5
  1
D8V013
  7
ISO
  0
TEXT
  5
1028
  8
SAPA_ARTIKELNR
 10
4.6185307842603001
 20
163.1570294930317
 30
0.0000000048844772
 40
3.5
  1
D8V013
  7
ISO
  0
POLYLINE
  5
14AF
  8
SAPA_PROFIL
 66
     1
 10
0.0
 20
0.0
 30
0.0
 70
     1
  0
VERTEX
  5
1A1F
  8
SAPA_PROFIL
 10
18.000000000000011
 20
59.243869040421927
 30
0.0
 42
-0.2418327667417041
  0
VERTEX
  5
1A20
  8
SAPA_PROFIL
 10
17.874722325036061
 20
58.999999999472053
 30
0.0
 42
0.2418327667547422
  0
VERTEX
  5
1A21
  8
SAPA_PROFIL
 10
17.749444650060479
 20
58.756130958513033
 30
0.0
  0
VERTEX
  5
1A22
  8
SAPA_PROFIL
 10
17.749444650060479
 20
57.799999999477663
 30
0.0
 42
0.2814258985282543
  0
VERTEX
  5
1A23
  8
SAPA_PROFIL
 10
17.91265025118674
 20
57.533003197172398
 30
0.0
 42
-0.2814258985233465
  0
VERTEX
  5
1A24
  8
SAPA_PROFIL
 10
18.075855852310429
 20
57.266006394876818
 30
0.0
  0
VERTEX
  5
1A25
  8
SAPA_PROFIL
 10
18.07585585230995
 20
55.088458039919502
 30
0.0
 42
-0.0874886635248791
  0
VERTEX
  5
1A26
  8
SAPA_PROFIL
 10
18.057763638546149
 20
54.985851996922968
 30
0.0
  0
VERTEX
  5
1A27
  8
SAPA_PROFIL
 10
17.538249570870811
 20
53.558498826877539
 30
0.0
 42
-0.4142135623698204
  0
VERTEX
  5
1A28
  8
SAPA_PROFIL
 10
17.15373574162864
 20
53.37919708364015
 30
0.0
  0
VERTEX
  5
1A29
  8
SAPA_PROFIL
 10
16.965797217479938
 20
53.447601112311212
 30
0.0
 42
-0.4142135623730013
  0
VERTEX
  5
1A2A
  8
SAPA_PROFIL
 10
16.786495474237409
 20
53.832114941532829
 30
0.0
  0
VERTEX
  5
1A2B
  8
SAPA_PROFIL
 10
17.162717631904101
 20
54.865776824401991
 30
0.0
 42
0.41421356237947
  0
VERTEX
  5
1A2C
  8
SAPA_PROFIL
 10
16.983415888652949
 20
55.250290653633542
 30
0.0
  0
VERTEX
  5
1A2D
  8
SAPA_PROFIL
 10
15.17322580931403
 20
55.90914596086936
 30
0.0
 42
-0.3152987888800596
  0
VERTEX
  5
1A2E
  8
SAPA_PROFIL
 10
14.9758318523107
 20
56.191053747105578
 30
0.0
  0
VERTEX
  5
1A2F
  8
SAPA_PROFIL
 10
14.975831852310799
 20
56.610769514924932
 30
0.0
 42
-0.1316524975873857
  0
VERTEX
  5
1A30
  8
SAPA_PROFIL
 10
15.016024231175439
 20
56.760769514924831
 30
0.0
  0
VERTEX
  5
1A31
  8
SAPA_PROFIL
 10
15.875831852310739
 20
58.249999999465707
 30
0.0
  0
VERTEX
  5
1A32
  8
SAPA_PROFIL
 10
15.87584385231041
 20
58.69999999946566
 30
0.0
 42
0.4142135623731054
  0
VERTEX
  5
1A33
  8
SAPA_PROFIL
 10
15.575843852310401
 20
58.999999999465672
 30
0.0
  0
VERTEX
  5
1A34
  8
SAPA_PROFIL
 10
11.975831852310341
 20
58.999999999465622
 30
0.0
 42
0.414213562373095
  0
VERTEX
  5
1A35
  8
SAPA_PROFIL
 10
11.67583185231034
 20
58.699999999465611
 30
0.0
  0
VERTEX
  5
1A36
  8
SAPA_PROFIL
 10
11.67583185231045
 20
58.249999999465622
 30
0.0
  0
VERTEX
  5
1A37
  8
SAPA_PROFIL
 10
12.53565658987943
 20
56.760739868391461
 30
0.0
 42
-0.1316363093594254
  0
VERTEX
  5
1A38
  8
SAPA_PROFIL
 10
12.575848968136389
 20
56.610758963344701
 30
0.0
  0
VERTEX
  5
1A39
  8
SAPA_PROFIL
 10
12.575856017927199
 20
56.49999999946747
 30
0.0
  0
VERTEX
  5
1A3A
  8
SAPA_PROFIL
 10
10.50000000001093
 20
56.49999999946747
 30
0.0
 42
-0.4142135623730955
  0
VERTEX
  5
1A3B
  8
SAPA_PROFIL
 10
10.00000000001093
 20
56.99999999946747
 30
0.0
  0
VERTEX
  5
1A3C
  8
SAPA_PROFIL
 10
10.00000000001093
 20
62.249999999132783
 30
0.0
 42
-0.4142135623730953
  0
VERTEX
  5
1A3D
  8
SAPA_PROFIL
 10
10.50000000001093
 20
62.749999999132783
 30
0.0
  0
VERTEX
  5
1A3E
  8
SAPA_PROFIL
 10
11.00000000359433
 20
62.749999999132783
 30
0.0
 42
-0.4142135623730953
  0
VERTEX
  5
1A3F
  8
SAPA_PROFIL
 10
11.50000000359433
 20
62.249999999132783
 30
0.0
  0
VERTEX
  5
1A40
  8
SAPA_PROFIL
 10
11.500000003598879
 20
61.249999998725578
 30
0.0
  0
VERTEX
  5
1A41
  8
SAPA_PROFIL
 10
14.7000000040538
 20
61.249999998721442
 30
0.0
  0
VERTEX
  5
1A42
  8
SAPA_PROFIL
 10
14.700000004045821
 20
65.749999999627335
 30
0.0
  0
VERTEX
  5
1A43
  8
SAPA_PROFIL
 10
-4.7999999999999927
 20
65.749999999648693
 30
0.0
 42
-0.4964147352859417
  0
VERTEX
  5
1A44
  8
SAPA_PROFIL
 10
-4.992630713990482
 20
66.003790407974662
 30
0.0
 42
-0.306467954212033
  0
VERTEX
  5
1A45
  8
SAPA_PROFIL
 10
-4.1382327808133779
 20
66.728906880823502
 30
0.0
 42
-0.0272495355296329
  0
VERTEX
  5
1A46
  8
SAPA_PROFIL
 10
9.9999999999897415
 20
67.499999999133124
 30
0.0
  0
VERTEX
  5
1A47
  8
SAPA_PROFIL
 10
14.999999999909059
 20
67.499999999271026
 30
0.0
 42
-0.4142135623819769
  0
VERTEX
  5
1A48
  8
SAPA_PROFIL
 10
18.000000000000011
 20
64.499999999271026
 30
0.0
  0
SEQEND
  5
1A49
  8
SAPA_PROFIL
  0
POLYLINE
  5
14B0
  8
SAPA_PROFIL
 66
     1
 10
0.0
 20
0.0
 30
0.0
 70
     1
  0
VERTEX
  5
1A4A
  8
SAPA_PROFIL
 10
18.0
 20
28.756130958509409
 30
0.0
 42
0.2418327667417041
  0
VERTEX
  5
1A4B
  8
SAPA_PROFIL
 10
17.874722325036061
 20
28.999999999459281
 30
0.0
 42
-0.2418327667547422
  0
VERTEX
  5
1A4C
  8
SAPA_PROFIL
 10
17.749444650060472
 20
29.243869040418311
 30
0.0
  0
VERTEX
  5
1A4D
  8
SAPA_PROFIL
 10
17.749444650060472
 20
30.199999999453681
 30
0.0
 42
-0.2814258985282543
  0
VERTEX
  5
1A4E
  8
SAPA_PROFIL
 10
17.912650251186729
 20
30.466996801758931
 30
0.0
 42
0.2814258985233465
  0
VERTEX
  5
1A4F
  8
SAPA_PROFIL
 10
18.075855852310429
 20
30.733993604054511
 30
0.0
  0
VERTEX
  5
1A50
  8
SAPA_PROFIL
 10
18.07585585230995
 20
32.911541959011842
 30
0.0
 42
0.0874886635248791
  0
VERTEX
  5
1A51
  8
SAPA_PROFIL
 10
18.057763638546149
 20
33.014148002008369
 30
0.0
  0
VERTEX
  5
1A52
  8
SAPA_PROFIL
 10
17.5382495708708
 20
34.441501172053812
 30
0.0
 42
0.4142135623698204
  0
VERTEX
  5
1A53
  8
SAPA_PROFIL
 10
17.15373574162863
 20
34.620802915291193
 30
0.0
  0
VERTEX
  5
1A54
  8
SAPA_PROFIL
 10
16.965797217479931
 20
34.552398886620139
 30
0.0
 42
0.4142135623730013
  0
VERTEX
  5
1A55
  8
SAPA_PROFIL
 10
16.786495474237409
 20
34.167885057398507
 30
0.0
  0
VERTEX
  5
1A56
  8
SAPA_PROFIL
 10
17.162717631904101
 20
33.13422317452936
 30
0.0
 42
-0.41421356237947
  0
VERTEX
  5
1A57
  8
SAPA_PROFIL
 10
16.983415888652939
 20
32.749709345297788
 30
0.0
  0
VERTEX
  5
1A58
  8
SAPA_PROFIL
 10
15.173225809314021
 20
32.090854038061977
 30
0.0
 42
0.3152987888800596
  0
VERTEX
  5
1A59
  8
SAPA_PROFIL
 10
14.975831852310691
 20
31.808946251825759
 30
0.0
  0
VERTEX
  5
1A5A
  8
SAPA_PROFIL
 10
14.97583185231079
 20
31.389230484006418
 30
0.0
 42
0.1316524975873857
  0
VERTEX
  5
1A5B
  8
SAPA_PROFIL
 10
15.016024231175431
 20
31.239230484006502
 30
0.0
  0
VERTEX
  5
1A5C
  8
SAPA_PROFIL
 10
15.875831852310739
 20
29.749999999465619
 30
0.0
  0
VERTEX
  5
1A5D
  8
SAPA_PROFIL
 10
15.8758438523104
 20
29.299999999465669
 30
0.0
 42
-0.4142135623731054
  0
VERTEX
  5
1A5E
  8
SAPA_PROFIL
 10
15.575843852310401
 20
28.999999999465668
 30
0.0
  0
VERTEX
  5
1A5F
  8
SAPA_PROFIL
 10
11.97583185231033
 20
28.999999999465722
 30
0.0
 42
-0.414213562373095
  0
VERTEX
  5
1A60
  8
SAPA_PROFIL
 10
11.67583185231034
 20
29.299999999465719
 30
0.0
  0
VERTEX
  5
1A61
  8
SAPA_PROFIL
 10
11.67583185231044
 20
29.749999999465722
 30
0.0
  0
VERTEX
  5
1A62
  8
SAPA_PROFIL
 10
12.535656589879419
 20
31.23926013053989
 30
0.0
 42
0.1316363093594254
  0
VERTEX
  5
1A63
  8
SAPA_PROFIL
 10
12.575848968136389
 20
31.38924103558664
 30
0.0
  0
VERTEX
  5
1A64
  8
SAPA_PROFIL
 10
12.57585601792719
 20
31.49999999946386
 30
0.0
  0
VERTEX
  5
1A65
  8
SAPA_PROFIL
 10
10.500000000010919
 20
31.49999999946386
 30
0.0
 42
0.4142135623730955
  0
VERTEX
  5
1A66
  8
SAPA_PROFIL
 10
10.000000000010919
 20
30.99999999946386
 30
0.0
  0
VERTEX
  5
1A67
  8
SAPA_PROFIL
 10
10.000000000010919
 20
25.749999999798561
 30
0.0
 42
0.4142135623730953
  0
VERTEX
  5
1A68
  8
SAPA_PROFIL
 10
10.500000000010919
 20
25.249999999798561
 30
0.0
  0
VERTEX
  5
1A69
  8
SAPA_PROFIL
 10
11.00000000359432
 20
25.249999999798561
 30
0.0
 42
0.4142135623730953
  0
VERTEX
  5
1A6A
  8
SAPA_PROFIL
 10
11.50000000359432
 20
25.74999999979855
 30
0.0
  0
VERTEX
  5
1A6B
  8
SAPA_PROFIL
 10
11.500000003598871
 20
26.750000000205748
 30
0.0
  0
VERTEX
  5
1A6C
  8
SAPA_PROFIL
 10
14.700000004053789
 20
26.750000000209909
 30
0.0
  0
VERTEX
  5
1A6D
  8
SAPA_PROFIL
 10
14.70000000404581
 20
22.249999999304009
 30
0.0
  0
VERTEX
  5
1A6E
  8
SAPA_PROFIL
 10
-4.8000000000000069
 20
22.24999999928265
 30
0.0
 42
0.4964147352859417
  0
VERTEX
  5
1A6F
  8
SAPA_PROFIL
 10
-4.9926307139904971
 20
21.996209590956688
 30
0.0
 42
0.306467954212033
  0
VERTEX
  5
1A70
  8
SAPA_PROFIL
 10
-4.1382327808133921
 20
21.271093118107849
 30
0.0
 42
0.0272495355296329
  0
VERTEX
  5
1A71
  8
SAPA_PROFIL
 10
9.9999999999897291
 20
20.499999999798199
 30
0.0
  0
VERTEX
  5
1A72
  8
SAPA_PROFIL
 10
14.999999999909051
 20
20.499999999660311
 30
0.0
 42
0.4142135623819769
  0
VERTEX
  5
1A73
  8
SAPA_PROFIL
 10
18.0
 20
23.499999999660311
 30
0.0
  0
SEQEND
  5
1A74
  8
SAPA_PROFIL
  0
POLYLINE
  5
14B1
  8
SAPA_PROFIL
 62
     4
 66
     1
 10
0.0
 20
0.0
 30
0.0
 70
     1
  0
VERTEX
  5
14B2
  8
SAPA_PROFIL
 62
     4
 10
14.72584385230838
 20
31.856217782118168
 30
0.0
 42
0.1316524975873979
  0
VERTEX
  5
14B3
  8
SAPA_PROFIL
 62
     4
 10
14.83302352928081
 20
31.456217782118149
 30
0.0
  0
VERTEX
  5
14B4
  8
SAPA_PROFIL
 62
     4
 10
15.825843852310239
 20
29.73660253984411
 30
0.0
  0
VERTEX
  5
14B5
  8
SAPA_PROFIL
 62
     4
 10
15.82584385231033
 20
29.299999999465651
 30
0.0
 42
-0.4142135623730951
  0
VERTEX
  5
14B6
  8
SAPA_PROFIL
 62
     4
 10
15.57584385231034
 20
29.049999999465658
 30
0.0
  0
VERTEX
  5
14B7
  8
SAPA_PROFIL
 62
     4
 10
11.97583185231028
 20
29.049999999465619
 30
0.0
 42
-0.4142135623731053
  0
VERTEX
  5
14B8
  8
SAPA_PROFIL
 62
     4
 10
11.72583185231027
 20
29.299999999465619
 30
0.0
  0
VERTEX
  5
14B9
  8
SAPA_PROFIL
 62
     4
 10
11.725843495045631
 20
29.736601921044091
 30
0.0
  0
VERTEX
  5
14BA
  8
SAPA_PROFIL
 62
     4
 10
12.718664175335901
 20
31.456217782111469
 30
0.0
 42
0.1316524975874149
  0
VERTEX
  5
14BB
  8
SAPA_PROFIL
 62
     4
 10
12.825843852308401
 20
31.856217782111521
 30
0.0
  0
VERTEX
  5
14BC
  8
SAPA_PROFIL
 62
     4
 10
12.82584385230841
 20
56.143782216819808
 30
0.0
 42
0.1316524975874151
  0
VERTEX
  5
14BD
  8
SAPA_PROFIL
 62
     4
 10
12.71866417533591
 20
56.543782216819857
 30
0.0
  0
VERTEX
  5
14BE
  8
SAPA_PROFIL
 62
     4
 10
11.725843495045639
 20
58.26339807788726
 30
0.0
  0
VERTEX
  5
14BF
  8
SAPA_PROFIL
 62
     4
 10
11.72583185231028
 20
58.69999999946571
 30
0.0
 42
-0.4142135623731054
  0
VERTEX
  5
14C0
  8
SAPA_PROFIL
 62
     4
 10
11.97583185231028
 20
58.949999999465732
 30
0.0
  0
VERTEX
  5
14C1
  8
SAPA_PROFIL
 62
     4
 10
15.575843852310349
 20
58.949999999465668
 30
0.0
 42
-0.4142135623730953
  0
VERTEX
  5
14C2
  8
SAPA_PROFIL
 62
     4
 10
15.82584385231034
 20
58.699999999465689
 30
0.0
  0
VERTEX
  5
14C3
  8
SAPA_PROFIL
 62
     4
 10
15.82584385231025
 20
58.26339745908723
 30
0.0
  0
VERTEX
  5
14C4
  8
SAPA_PROFIL
 62
     4
 10
14.833023529280821
 20
56.543782216813192
 30
0.0
 42
0.1316524975873982
  0
VERTEX
  5
14C5
  8
SAPA_PROFIL
 62
     4
 10
14.72584385230838
 20
56.143782216813179
 30
0.0
  0
SEQEND
  5
14C6
  8
SAPA_PROFIL
 62
     4
  0
POLYLINE
  5
14C7
  8
SAPA_PROFIL
 66
     1
 10
0.0
 20
0.0
 30
0.0
 70
     1
  0
VERTEX
  5
1A75
  8
SAPA_PROFIL
 10
7.0000000000286331
 20
93.756130959577945
 30
0.0
 42
-0.2418327667417041
  0
VERTEX
  5
1A76
  8
SAPA_PROFIL
 10
7.1252776749925788
 20
94.000000000527834
 30
0.0
 42
0.2418327667547422
  0
VERTEX
  5
1A77
  8
SAPA_PROFIL
 10
7.2505553499681641
 20
94.24386904148686
 30
0.0
  0
VERTEX
  5
1A78
  8
SAPA_PROFIL
 10
7.2505553499681641
 20
95.200000000522223
 30
0.0
 42
0.2814258985282543
  0
VERTEX
  5
1A79
  8
SAPA_PROFIL
 10
7.0873497488419002
 20
95.466996802827467
 30
0.0
 42
-0.2814258985233465
  0
VERTEX
  5
1A7A
  8
SAPA_PROFIL
 10
6.9241441477182093
 20
95.733993605123061
 30
0.0
  0
VERTEX
  5
1A7B
  8
SAPA_PROFIL
 10
6.924144147718688
 20
97.911541960080385
 30
0.0
 42
-0.0874886635248791
  0
VERTEX
  5
1A7C
  8
SAPA_PROFIL
 10
6.9422363614824896
 20
98.014148003076912
 30
0.0
  0
VERTEX
  5
1A7D
  8
SAPA_PROFIL
 10
7.4617504291578323
 20
99.441501173122347
 30
0.0
 42
-0.4142135623698204
  0
VERTEX
  5
1A7E
  8
SAPA_PROFIL
 10
7.8462642584000051
 20
99.620802916359736
 30
0.0
  0
VERTEX
  5
1A7F
  8
SAPA_PROFIL
 10
8.034202782548709
 20
99.552398887688682
 30
0.0
 42
-0.4142135623730013
  0
VERTEX
  5
1A80
  8
SAPA_PROFIL
 10
8.2135045257912296
 20
99.16788505846705
 30
0.0
  0
VERTEX
  5
1A81
  8
SAPA_PROFIL
 10
7.8372823681245407
 20
98.134223175597896
 30
0.0
 42
0.41421356237947
  0
VERTEX
  5
1A82
  8
SAPA_PROFIL
 10
8.0165841113756926
 20
97.749709346366345
 30
0.0
  0
VERTEX
  5
1A83
  8
SAPA_PROFIL
 10
9.8267741907146124
 20
97.090854039130519
 30
0.0
 42
-0.3152987888800596
  0
VERTEX
  5
1A84
  8
SAPA_PROFIL
 10
10.024168147717949
 20
96.808946252894316
 30
0.0
  0
VERTEX
  5
1A85
  8
SAPA_PROFIL
 10
10.02416814771785
 20
96.389230485074961
 30
0.0
 42
-0.1316524975873857
  0
VERTEX
  5
1A86
  8
SAPA_PROFIL
 10
9.9839757688532025
 20
96.239230485075055
 30
0.0
  0
VERTEX
  5
1A87
  8
SAPA_PROFIL
 10
9.1241681477178993
 20
94.750000000534186
 30
0.0
  0
VERTEX
  5
1A88
  8
SAPA_PROFIL
 10
9.1241561477182351
 20
94.300000000534226
 30
0.0
 42
0.4142135623731054
  0
VERTEX
  5
1A89
  8
SAPA_PROFIL
 10
9.4241561477182394
 20
94.000000000534214
 30
0.0
  0
VERTEX
  5
1A8A
  8
SAPA_PROFIL
 10
13.024168147718299
 20
94.000000000534271
 30
0.0
 42
0.414213562373095
  0
VERTEX
  5
1A8B
  8
SAPA_PROFIL
 10
13.3241681477183
 20
94.300000000534268
 30
0.0
  0
VERTEX
  5
1A8C
  8
SAPA_PROFIL
 10
13.324168147718201
 20
94.750000000534271
 30
0.0
  0
VERTEX
  5
1A8D
  8
SAPA_PROFIL
 10
12.46434341014921
 20
96.239260131608432
 30
0.0
 42
-0.1316363093594254
  0
VERTEX
  5
1A8E
  8
SAPA_PROFIL
 10
12.424151031892251
 20
96.389241036655179
 30
0.0
  0
VERTEX
  5
1A8F
  8
SAPA_PROFIL
 10
12.424143982101439
 20
96.50000000053241
 30
0.0
  0
VERTEX
  5
1A90
  8
SAPA_PROFIL
 10
14.500000000017719
 20
96.50000000053241
 30
0.0
 42
-0.4142135623730955
  0
VERTEX
  5
1A91
  8
SAPA_PROFIL
 10
15.000000000017719
 20
96.000000000532424
 30
0.0
  0
VERTEX
  5
1A92
  8
SAPA_PROFIL
 10
15.000000000017719
 20
90.750000000867104
 30
0.0
 42
-0.4142135623730953
  0
VERTEX
  5
1A93
  8
SAPA_PROFIL
 10
14.500000000017719
 20
90.250000000867104
 30
0.0
  0
VERTEX
  5
1A94
  8
SAPA_PROFIL
 10
13.99999999643431
 20
90.250000000867104
 30
0.0
 42
-0.4142135623730953
  0
VERTEX
  5
1A95
  8
SAPA_PROFIL
 10
13.49999999643431
 20
90.750000000867104
 30
0.0
  0
VERTEX
  5
1A96
  8
SAPA_PROFIL
 10
13.499999996429761
 20
91.750000001274316
 30
0.0
  0
VERTEX
  5
1A97
  8
SAPA_PROFIL
 10
10.29999999597484
 20
91.750000001278451
 30
0.0
  0
VERTEX
  5
1A98
  8
SAPA_PROFIL
 10
10.299999995982819
 20
87.250000000372552
 30
0.0
  0
VERTEX
  5
1A99
  8
SAPA_PROFIL
 10
29.800000000028639
 20
87.250000000351179
 30
0.0
 42
-0.4964147352859417
  0
VERTEX
  5
1A9A
  8
SAPA_PROFIL
 10
29.992630714019128
 20
86.996209592025224
 30
0.0
 42
-0.306467954212033
  0
VERTEX
  5
1A9B
  8
SAPA_PROFIL
 10
29.138232780842031
 20
86.271093119176385
 30
0.0
 42
-0.0272495355296329
  0
VERTEX
  5
1A9C
  8
SAPA_PROFIL
 10
15.0000000000389
 20
85.500000000866734
 30
0.0
  0
VERTEX
  5
1A9D
  8
SAPA_PROFIL
 10
10.000000000119581
 20
85.500000000728861
 30
0.0
 42
-0.4142135623819769
  0
VERTEX
  5
1A9E
  8
SAPA_PROFIL
 10
7.0000000000286331
 20
88.500000000728875
 30
0.0
  0
SEQEND
  5
1A9F
  8
SAPA_PROFIL
  0
POLYLINE
  5
14C8
  8
SAPA_PROFIL
 66
     1
 10
0.0
 20
0.0
 30
0.0
 70
     1
  0
VERTEX
  5
1AA0
  8
SAPA_PROFIL
 10
7.0000000000286384
 20
124.2438690414905
 30
0.0
 42
0.2418327667417041
  0
VERTEX
  5
1AA1
  8
SAPA_PROFIL
 10
7.125277674992585
 20
124.0000000005406
 30
0.0
 42
-0.2418327667547422
  0
VERTEX
  5
1AA2
  8
SAPA_PROFIL
 10
7.2505553499681703
 20
123.7561309595816
 30
0.0
  0
VERTEX
  5
1AA3
  8
SAPA_PROFIL
 10
7.2505553499681703
 20
122.80000000054621
 30
0.0
 42
-0.2814258985282543
  0
VERTEX
  5
1AA4
  8
SAPA_PROFIL
 10
7.0873497488419046
 20
122.53300319824091
 30
0.0
 42
0.2814258985233465
  0
VERTEX
  5
1AA5
  8
SAPA_PROFIL
 10
6.9241441477182137
 20
122.2660063959454
 30
0.0
  0
VERTEX
  5
1AA6
  8
SAPA_PROFIL
 10
6.9241441477186907
 20
120.088458040988
 30
0.0
 42
0.0874886635248791
  0
VERTEX
  5
1AA7
  8
SAPA_PROFIL
 10
6.942236361482494
 20
119.9858519979915
 30
0.0
  0
VERTEX
  5
1AA8
  8
SAPA_PROFIL
 10
7.4617504291578349
 20
118.5584988279461
 30
0.0
 42
0.4142135623698204
  0
VERTEX
  5
1AA9
  8
SAPA_PROFIL
 10
7.8462642584000086
 20
118.37919708470869
 30
0.0
  0
VERTEX
  5
1AAA
  8
SAPA_PROFIL
 10
8.0342027825487108
 20
118.4476011133797
 30
0.0
 42
0.4142135623730013
  0
VERTEX
  5
1AAB
  8
SAPA_PROFIL
 10
8.2135045257912331
 20
118.83211494260129
 30
0.0
  0
VERTEX
  5
1AAC
  8
SAPA_PROFIL
 10
7.8372823681245452
 20
119.8657768254705
 30
0.0
 42
-0.41421356237947
  0
VERTEX
  5
1AAD
  8
SAPA_PROFIL
 10
8.0165841113756962
 20
120.2502906547021
 30
0.0
  0
VERTEX
  5
1AAE
  8
SAPA_PROFIL
 10
9.8267741907146178
 20
120.9091459619379
 30
0.0
 42
0.3152987888800596
  0
VERTEX
  5
1AAF
  8
SAPA_PROFIL
 10
10.024168147717949
 20
121.1910537481741
 30
0.0
  0
VERTEX
  5
1AB0
  8
SAPA_PROFIL
 10
10.02416814771785
 20
121.6107695159934
 30
0.0
 42
0.1316524975873857
  0
VERTEX
  5
1AB1
  8
SAPA_PROFIL
 10
9.9839757688532078
 20
121.7607695159934
 30
0.0
  0
VERTEX
  5
1AB2
  8
SAPA_PROFIL
 10
9.1241681477179046
 20
123.2500000005342
 30
0.0
  0
VERTEX
  5
1AB3
  8
SAPA_PROFIL
 10
9.1241561477182405
 20
123.7000000005342
 30
0.0
 42
-0.4142135623731054
  0
VERTEX
  5
1AB4
  8
SAPA_PROFIL
 10
9.4241561477182447
 20
124.0000000005342
 30
0.0
  0
VERTEX
  5
1AB5
  8
SAPA_PROFIL
 10
13.02416814771831
 20
124.0000000005341
 30
0.0
 42
-0.414213562373095
  0
VERTEX
  5
1AB6
  8
SAPA_PROFIL
 10
13.3241681477183
 20
123.7000000005342
 30
0.0
  0
VERTEX
  5
1AB7
  8
SAPA_PROFIL
 10
13.324168147718201
 20
123.2500000005341
 30
0.0
  0
VERTEX
  5
1AB8
  8
SAPA_PROFIL
 10
12.464343410149221
 20
121.76073986946
 30
0.0
 42
0.1316363093594254
  0
VERTEX
  5
1AB9
  8
SAPA_PROFIL
 10
12.424151031892251
 20
121.61075896441319
 30
0.0
  0
VERTEX
  5
1ABA
  8
SAPA_PROFIL
 10
12.42414398210145
 20
121.50000000053601
 30
0.0
  0
VERTEX
  5
1ABB
  8
SAPA_PROFIL
 10
14.500000000017719
 20
121.50000000053601
 30
0.0
 42
0.4142135623730955
  0
VERTEX
  5
1ABC
  8
SAPA_PROFIL
 10
15.000000000017719
 20
122.00000000053601
 30
0.0
  0
VERTEX
  5
1ABD
  8
SAPA_PROFIL
 10
15.000000000017719
 20
127.2500000002013
 30
0.0
 42
0.4142135623730953
  0
VERTEX
  5
1ABE
  8
SAPA_PROFIL
 10
14.500000000017719
 20
127.7500000002013
 30
0.0
  0
VERTEX
  5
1ABF
  8
SAPA_PROFIL
 10
13.999999996434321
 20
127.7500000002013
 30
0.0
 42
0.4142135623730953
  0
VERTEX
  5
1AC0
  8
SAPA_PROFIL
 10
13.499999996434321
 20
127.2500000002013
 30
0.0
  0
VERTEX
  5
1AC1
  8
SAPA_PROFIL
 10
13.49999999642977
 20
126.2499999997941
 30
0.0
  0
VERTEX
  5
1AC2
  8
SAPA_PROFIL
 10
10.29999999597484
 20
126.24999999979001
 30
0.0
  0
VERTEX
  5
1AC3
  8
SAPA_PROFIL
 10
10.29999999598283
 20
130.75000000069579
 30
0.0
  0
VERTEX
  5
1AC4
  8
SAPA_PROFIL
 10
29.80000000002865
 20
130.75000000071719
 30
0.0
 42
0.4964147352859417
  0
VERTEX
  5
1AC5
  8
SAPA_PROFIL
 10
29.992630714019139
 20
131.00379040904321
 30
0.0
 42
0.306467954212033
  0
VERTEX
  5
1AC6
  8
SAPA_PROFIL
 10
29.138232780842031
 20
131.72890688189199
 30
0.0
 42
0.0272495355296329
  0
VERTEX
  5
1AC7
  8
SAPA_PROFIL
 10
15.000000000038909
 20
132.50000000020171
 30
0.0
  0
VERTEX
  5
1AC8
  8
SAPA_PROFIL
 10
10.00000000011959
 20
132.50000000033961
 30
0.0
 42
0.4142135623819769
  0
VERTEX
  5
1AC9
  8
SAPA_PROFIL
 10
7.0000000000286411
 20
129.50000000033961
 30
0.0
  0
SEQEND
  5
1ACA
  8
SAPA_PROFIL
  0
POLYLINE
  5
14C9
  8
SAPA_PROFIL
 62
     4
 66
     1
 10
0.0
 20
0.0
 30
0.0
 70
     1
  0
VERTEX
  5
14CA
  8
SAPA_PROFIL
 62
     4
 10
10.274156147720261
 20
121.14378221788169
 30
0.0
 42
0.1316524975873979
  0
VERTEX
  5
14CB
  8
SAPA_PROFIL
 62
     4
 10
10.16697647074783
 20
121.5437822178817
 30
0.0
  0
VERTEX
  5
14CC
  8
SAPA_PROFIL
 62
     4
 10
9.174156147718401
 20
123.2633974601558
 30
0.0
  0
VERTEX
  5
14CD
  8
SAPA_PROFIL
 62
     4
 10
9.1741561477183087
 20
123.7000000005342
 30
0.0
 42
-0.4142135623730951
  0
VERTEX
  5
14CE
  8
SAPA_PROFIL
 62
     4
 10
9.4241561477183016
 20
123.9500000005342
 30
0.0
  0
VERTEX
  5
14CF
  8
SAPA_PROFIL
 62
     4
 10
13.02416814771836
 20
123.9500000005342
 30
0.0
 42
-0.4142135623731053
  0
VERTEX
  5
14D0
  8
SAPA_PROFIL
 62
     4
 10
13.27416814771837
 20
123.7000000005342
 30
0.0
  0
VERTEX
  5
14D1
  8
SAPA_PROFIL
 62
     4
 10
13.27415650498301
 20
123.2633980789558
 30
0.0
  0
VERTEX
  5
14D2
  8
SAPA_PROFIL
 62
     4
 10
12.281335824692739
 20
121.54378221788841
 30
0.0
 42
0.1316524975874149
  0
VERTEX
  5
14D3
  8
SAPA_PROFIL
 62
     4
 10
12.17415614772024
 20
121.1437822178883
 30
0.0
  0
VERTEX
  5
14D4
  8
SAPA_PROFIL
 62
     4
 10
12.174156147720231
 20
96.856217783180085
 30
0.0
 42
0.1316524975874151
  0
VERTEX
  5
14D5
  8
SAPA_PROFIL
 62
     4
 10
12.28133582469273
 20
96.456217783180023
 30
0.0
  0
VERTEX
  5
14D6
  8
SAPA_PROFIL
 62
     4
 10
13.274156504983001
 20
94.736601922112627
 30
0.0
  0
VERTEX
  5
14D7
  8
SAPA_PROFIL
 62
     4
 10
13.27416814771837
 20
94.300000000534155
 30
0.0
 42
-0.4142135623731054
  0
VERTEX
  5
14D8
  8
SAPA_PROFIL
 62
     4
 10
13.02416814771836
 20
94.050000000534155
 30
0.0
  0
VERTEX
  5
14D9
  8
SAPA_PROFIL
 62
     4
 10
9.4241561477182962
 20
94.050000000534212
 30
0.0
 42
-0.4142135623730953
  0
VERTEX
  5
14DA
  8
SAPA_PROFIL
 62
     4
 10
9.1741561477183033
 20
94.300000000534197
 30
0.0
  0
VERTEX
  5
14DB
  8
SAPA_PROFIL
 62
     4
 10
9.1741561477183957
 20
94.736602540912656
 30
0.0
  0
VERTEX
  5
14DC
  8
SAPA_PROFIL
 62
     4
 10
10.166976470747819
 20
96.456217783186702
 30
0.0
 42
0.1316524975873982
  0
VERTEX
  5
14DD
  8
SAPA_PROFIL
 62
     4
 10
10.274156147720261
 20
96.856217783186707
 30
0.0
  0
SEQEND
  5
14DE
  8
SAPA_PROFIL
 62
     4
  0
LINE
  5
14DF
  8
SAPA_PROFIL
 62
     4
 10
22.19999999828282
 20
46.799999998988739
 30
0.0
 11
27.7999999987683
 21
46.799999998824298
 31
0.0
  0
ARC
  5
14E0
  8
SAPA_PROFIL
 62
     4
 10
22.199999998268279
 20
46.299999998988739
 30
0.0
 40
0.4999999999999965
 50
89.999999998332882
 51
179.99999999833329
  0
LINE
  5
14E1
  8
SAPA_PROFIL
 62
     4
 10
21.699999998140949
 20
41.699999998997463
 30
0.0
 11
21.699999998268279
 21
46.29999999900329
 31
0.0
  0
ARC
  5
14E2
  8
SAPA_PROFIL
 62
     4
 10
22.199999998140939
 20
41.699999998982911
 30
0.0
 40
0.4999999999999929
 50
179.99999999833159
 51
269.9999999983321
  0
LINE
  5
14E3
  8
SAPA_PROFIL
 62
     4
 10
27.799999998612432
 20
41.199999998830123
 30
0.0
 11
22.19999999812639
 21
41.199999998982918
 31
0.0
  0
ARC
  5
14E4
  8
SAPA_PROFIL
 62
     4
 10
27.799999998602519
 20
40.899999998828442
 30
0.0
 40
0.3000000000016811
 50
359.99999999809882
 51
89.999999998106929
  0
LINE
  5
14E5
  8
SAPA_PROFIL
 62
     4
 10
28.099999998553489
 20
39.299999998821392
 30
0.0
 11
28.099999998604201
 21
40.899999998818487
 31
0.0
  0
ARC
  5
14E6
  8
SAPA_PROFIL
 62
     4
 10
27.799999998551279
 20
39.299999998830891
 30
0.0
 40
0.300000000002214
 50
269.99999999819312
 51
359.99999999818698
  0
LINE
  5
14E7
  8
SAPA_PROFIL
 62
     4
 10
22.39999999797978
 20
38.999999998978552
 30
0.0
 11
27.799999998541821
 21
38.99999999882867
 31
0.0
  0
ARC
  5
14E8
  8
SAPA_PROFIL
 62
     4
 10
22.399999997921569
 20
36.999999998978552
 30
0.0
 40
1.999999999999996
 50
89.999999998332555
 51
180.0
  0
LINE
  5
14E9
  8
SAPA_PROFIL
 62
     4
 10
20.399999997964319
 20
33.725529357089641
 30
0.0
 11
20.399999997921579
 21
36.999999998978552
 31
0.0
  0
ARC
  5
14EA
  8
SAPA_PROFIL
 62
     4
 10
22.39999999794361
 20
33.725529357093208
 30
0.0
 40
1.9999999999792939
 50
180.0000000001022
 51
199.99999999831959
  0
LINE
  5
14EB
  8
SAPA_PROFIL
 62
     4
 10
23.227893595914921
 20
25.603301590036519
 30
0.0
 11
20.520614756371192
 21
33.04148907050407
 31
0.0
  0
ARC
  5
14EC
  8
SAPA_PROFIL
 62
     4
 10
22.94598580967309
 20
25.500695547045389
 30
0.0
 40
0.3000000000034479
 50
289.99999999842998
 51
19.999999998425739
  0
LINE
  5
14ED
  8
SAPA_PROFIL
 62
     4
 10
19.96840402652391
 20
24.097691076237339
 30
0.0
 11
23.048591852664241
 21
25.218787760803561
 31
0.0
  0
ARC
  5
14EE
  8
SAPA_PROFIL
 62
     4
 10
19.89999999786199
 20
24.285629600401069
 30
0.0
 40
0.2000000000050477
 50
179.99999999861171
 51
289.99999999849263
  0
LINE
  5
14EF
  8
SAPA_PROFIL
 62
     4
 10
19.699999997863539
 20
24.399999999423841
 30
0.0
 11
19.699999997856949
 21
24.285629600405908
 31
0.0
  0
ARC
  5
14F0
  8
SAPA_PROFIL
 62
     4
 10
19.3999999978628
 20
24.399999999430371
 30
0.0
 40
0.3000000000007432
 50
359.99999999875291
 51
89.999999997916944
  0
LINE
  5
14F1
  8
SAPA_PROFIL
 62
     4
 10
18.49999999796195
 20
24.699999999470421
 30
0.0
 11
19.39999999787371
 21
24.69999999943111
 31
0.0
  0
ARC
  5
14F2
  8
SAPA_PROFIL
 62
     4
 10
18.499999997969791
 20
24.999999999469122
 30
0.0
 40
0.2999999999986969
 50
180.00000000058751
 51
269.9999999985032
  0
LINE
  5
14F3
  8
SAPA_PROFIL
 62
     4
 10
18.199999997968131
 20
25.499999999466041
 30
0.0
 11
18.199999997971091
 21
24.999999999466041
 31
0.0
  0
ARC
  5
14F4
  8
SAPA_PROFIL
 62
     4
 10
18.499999997969582
 20
25.499999999464588
 30
0.0
 40
0.3000000000014431
 50
89.999999997635356
 51
179.9999999997238
  0
LINE
  5
14F5
  8
SAPA_PROFIL
 62
     4
 10
21.376376419491081
 20
25.799999999359809
 30
0.0
 11
18.499999997981959
 21
25.799999999466039
 31
0.0
  0
ARC
  5
14F6
  8
SAPA_PROFIL
 62
     4
 10
21.376376419512969
 20
26.09999999934983
 30
0.0
 40
0.2999999999900217
 50
269.999999995819
 51
289.99999999611839
  0
LINE
  5
14F7
  8
SAPA_PROFIL
 62
     4
 10
21.638707812152589
 20
25.876227486046361
 30
0.0
 11
21.478982462488158
 21
25.81809221311649
 31
0.0
  0
ARC
  5
14F8
  8
SAPA_PROFIL
 62
     4
 10
21.536101769166301
 20
26.15813527228584
 30
0.0
 40
0.2999999999995738
 50
289.99999999771012
 51
19.99999999771444
  0
LINE
  5
14F9
  8
SAPA_PROFIL
 62
     4
 10
20.929243478850498
 20
28.70260604202204
 30
0.0
 11
21.818009555405769
 21
26.260741315272139
 31
0.0
  0
ARC
  5
14FA
  8
SAPA_PROFIL
 62
     4
 10
20.647335692614881
 20
28.599999999030171
 30
0.0
 40
0.2999999999978549
 50
19.99999999896384
 51
89.999999999083997
  0
LINE
  5
14FB
  8
SAPA_PROFIL
 62
     4
 10
18.49999999790283
 20
28.899999999096419
 30
0.0
 11
20.647335692619681
 21
28.899999999028029
 31
0.0
  0
ARC
  5
14FC
  8
SAPA_PROFIL
 62
     4
 10
18.499999997912749
 20
29.199999999098111
 30
0.0
 40
0.3000000000016882
 50
179.99999999809739
 51
269.99999999810558
  0
LINE
  5
14FD
  8
SAPA_PROFIL
 62
     4
 10
18.19999999792266
 20
29.699999999106609
 30
0.0
 11
18.19999999791106
 21
29.199999999108069
 31
0.0
  0
ARC
  5
14FE
  8
SAPA_PROFIL
 62
     4
 10
18.499999997922291
 20
29.69999999909243
 30
0.0
 40
0.2999999999996277
 50
89.999999997701181
 51
179.9999999972913
  0
LINE
  5
14FF
  8
SAPA_PROFIL
 62
     4
 10
20.028586294393921
 20
29.999999999051312
 30
0.0
 11
18.499999997934321
 21
29.999999999092051
 31
0.0
  0
ARC
  5
1500
  8
SAPA_PROFIL
 62
     4
 10
20.02858629440437
 20
30.29999999904928
 30
0.0
 40
0.2999999999979632
 50
269.9999999980032
 51
19.999999997887041
  0
LINE
  5
1501
  8
SAPA_PROFIL
 62
     4
 10
18.392951832318559
 20
35.67101007064494
 30
0.0
 11
20.31049408064202
 21
30.402606042035881
 31
0.0
  0
ARC
  5
1502
  8
SAPA_PROFIL
 62
     4
 10
17.923105521923588
 20
35.49999999899596
 30
0.0
 40
0.4999999999971508
 50
19.99999999843007
 51
89.999999998549868
  0
LINE
  5
1503
  8
SAPA_PROFIL
 62
     4
 10
16.999999997978321
 20
35.999999999022208
 30
0.0
 11
17.92310552193625
 21
35.999999998993097
 31
0.0
  0
ARC
  5
1504
  8
SAPA_PROFIL
 62
     4
 10
16.99999999796195
 20
35.499999999024027
 30
0.0
 40
0.499999999998181
 50
89.999999998124025
 51
179.99999999854089
  0
LINE
  5
1505
  8
SAPA_PROFIL
 62
     4
 10
16.49999999791466
 20
33.799999999032387
 30
0.0
 11
16.499999997963769
 21
35.49999999903676
 31
0.0
  0
ARC
  5
1506
  8
SAPA_PROFIL
 62
     4
 10
15.99999999791466
 20
33.799999999054222
 30
0.0
 40
0.5
 50
269.99999999749889
 51
359.99999999749872
  0
LINE
  5
1507
  8
SAPA_PROFIL
 62
     4
 10
15.29999999788846
 20
33.29999999907605
 30
0.0
 11
15.99999999789283
 21
33.299999999054222
 31
0.0
  0
ARC
  5
1508
  8
SAPA_PROFIL
 62
     4
 10
15.29999999790302
 20
33.79999999907605
 30
0.0
 40
0.5
 50
179.99999999833241
 51
269.9999999983325
  0
LINE
  5
1509
  8
SAPA_PROFIL
 62
     4
 10
14.799999998010341
 20
37.249999999204107
 30
0.0
 11
14.79999999790301
 21
33.799999999090602
 31
0.0
  0
ARC
  5
150A
  8
SAPA_PROFIL
 62
     4
 10
15.79999999801397
 20
37.249999999171372
 30
0.0
 40
1.0000000000036371
 50
89.999999998540915
 51
179.999999998124
  0
LINE
  5
150B
  8
SAPA_PROFIL
 62
     4
 10
16.299999998039439
 20
38.249999999160451
 30
0.0
 11
15.799999998039439
 21
38.249999999175003
 31
0.0
  0
ARC
  5
150C
  8
SAPA_PROFIL
 62
     4
 10
16.299999998126751
 20
41.249999999160437
 30
0.0
 40
3.0
 50
269.9999999983325
 51
359.9999999983325
  0
LINE
  5
150D
  8
SAPA_PROFIL
 62
     4
 10
19.299999998286829
 20
46.74999999721777
 30
0.0
 11
19.299999998126751
 21
41.24999999907314
 31
0.0
  0
ARC
  5
150E
  8
SAPA_PROFIL
 62
     4
 10
16.299999998286829
 20
46.749999997305082
 30
0.0
 40
3.0
 50
359.9999999983325
 51
89.999999998332399
  0
LINE
  5
150F
  8
SAPA_PROFIL
 62
     4
 10
15.79999999837414
 20
49.749999997319627
 30
0.0
 11
16.29999999837414
 21
49.749999997305082
 31
0.0
  0
ARC
  5
1510
  8
SAPA_PROFIL
 62
     4
 10
15.79999999840688
 20
50.749999997323272
 30
0.0
 40
1.0000000000036371
 50
179.99999999854089
 51
269.999999998124
  0
LINE
  5
1511
  8
SAPA_PROFIL
 62
     4
 10
14.799999998496009
 20
54.19999999745496
 30
0.0
 11
14.79999999840325
 21
50.749999997348738
 31
0.0
  0
ARC
  5
1512
  8
SAPA_PROFIL
 62
     4
 10
15.299999998496009
 20
54.199999997440422
 30
0.0
 40
0.5
 50
89.999999998332484
 51
179.99999999833241
  0
LINE
  5
1513
  8
SAPA_PROFIL
 62
     4
 10
15.99999999851493
 20
54.699999997425849
 30
0.0
 11
15.29999999851057
 21
54.699999997440408
 31
0.0
  0
ARC
  5
1514
  8
SAPA_PROFIL
 62
     4
 10
15.99999999850766
 20
54.199999997425863
 30
0.0
 40
0.4999999999999929
 50
359.99999999916707
 51
89.999999999167045
  0
LINE
  5
1515
  8
SAPA_PROFIL
 62
     4
 10
16.499999998458541
 20
52.499999997414221
 30
0.0
 11
16.499999998507661
 21
54.19999999741858
 31
0.0
  0
ARC
  5
1516
  8
SAPA_PROFIL
 62
     4
 10
16.999999998456719
 20
52.49999999739785
 30
0.0
 40
0.499999999998181
 50
179.999999998124
 51
269.99999999854089
  0
LINE
  5
1517
  8
SAPA_PROFIL
 62
     4
 10
17.899999998445448
 20
51.999999997370558
 30
0.0
 11
16.99999999844399
 21
51.999999997399669
 31
0.0
  0
ARC
  5
1518
  8
SAPA_PROFIL
 62
     4
 10
17.89999999846
 20
52.499999997370558
 30
0.0
 40
0.5
 50
269.9999999983325
 51
359.99999999666488
  0
LINE
  5
1519
  8
SAPA_PROFIL
 62
     4
 10
18.399999998721931
 20
57.000000005432327
 30
0.0
 11
18.39999999846
 21
52.499999997341462
 31
0.0
  0
LINE
  5
151A
  8
SAPA_PROFIL
 62
     4
 10
18.200000006326398
 20
57.19999999806614
 30
0.0
 11
18.399999998721931
 21
57.000000005432327
 31
0.0
  0
LINE
  5
151B
  8
SAPA_PROFIL
 62
     4
 10
18.19999999911229
 20
63.54999999959265
 30
0.0
 11
18.200000006326398
 21
57.19999999806614
 31
0.0
  0
ARC
  5
151C
  8
SAPA_PROFIL
 62
     4
 10
21.89999999911619
 20
63.549999999367841
 30
0.0
 40
3.700000000003894
 50
107.45760312128
 51
179.99999999651891
  0
ARC
  5
151D
  8
SAPA_PROFIL
 62
     4
 10
20.699999999276791
 20
67.365756805087415
 30
0.0
 40
0.2999999999973433
 50
287.45760312161269
 51
359.99999999852082
  0
LINE
  5
151E
  8
SAPA_PROFIL
 62
     4
 10
20.999999999293461
 20
67.949999999601374
 30
0.0
 11
20.999999999274142
 21
67.365756805079684
 31
0.0
  0
ARC
  5
151F
  8
SAPA_PROFIL
 62
     4
 10
21.299999999295679
 20
67.949999999591896
 30
0.0
 40
0.3000000000021998
 50
89.999999998194468
 51
179.99999999818971
  0
LINE
  5
1520
  8
SAPA_PROFIL
 62
     4
 10
21.999999999273459
 20
68.249999999567905
 30
0.0
 11
21.299999999305129
 21
68.249999999594095
 31
0.0
  0
ARC
  5
1521
  8
SAPA_PROFIL
 62
     4
 10
21.999999999270369
 20
67.949999999552134
 30
0.0
 40
0.3000000000157783
 50
359.99999998689373
 51
89.999999999409695
  0
LINE
  5
1522
  8
SAPA_PROFIL
 62
     4
 10
22.29999999919087
 20
67.549999999396192
 30
0.0
 11
22.29999999928614
 21
67.949999999483509
 31
0.0
  0
ARC
  5
1523
  8
SAPA_PROFIL
 62
     4
 10
22.599999999189031
 20
67.549999999350689
 30
0.0
 40
0.2999999999981639
 50
179.99999999130949
 51
269.99999999923602
  0
LINE
  5
1524
  8
SAPA_PROFIL
 62
     4
 10
23.899999999223979
 20
67.249999999313246
 30
0.0
 11
22.59999999918503
 21
67.249999999352525
 31
0.0
  0
ARC
  5
1525
  8
SAPA_PROFIL
 62
     4
 10
23.899999999282191
 20
69.249999999313246
 30
0.0
 40
1.999999999999992
 50
269.99999999833233
 51
359.99999999874888
  0
LINE
  5
1526
  8
SAPA_PROFIL
 62
     4
 10
25.89999999945681
 20
75.749999999255053
 30
0.0
 11
25.899999999282191
 21
69.249999999269576
 31
0.0
  0
ARC
  5
1527
  8
SAPA_PROFIL
 62
     4
 10
23.89999999945681
 20
75.74999999931326
 30
0.0
 40
2.0
 50
359.9999999983325
 51
89.999999998332484
  0
LINE
  5
1528
  8
SAPA_PROFIL
 62
     4
 10
22.599999999468452
 20
77.74999999934964
 30
0.0
 11
23.899999999515021
 21
77.74999999931326
 31
0.0
  0
ARC
  5
1529
  8
SAPA_PROFIL
 62
     4
 10
22.599999999458451
 20
77.449999999350581
 30
0.0
 40
0.2999999999990521
 50
89.999999998090644
 51
180.00000000559911
  0
LINE
  5
152A
  8
SAPA_PROFIL
 62
     4
 10
22.29999999953284
 20
77.049999999228859
 30
0.0
 11
22.299999999459398
 21
77.449999999321264
 31
0.0
  0
ARC
  5
152B
  8
SAPA_PROFIL
 62
     4
 10
21.99999999953425
 20
77.049999999176507
 30
0.0
 40
0.2999999999985903
 50
269.99999999791561
 51
0.0000000099986461
  0
LINE
  5
152C
  8
SAPA_PROFIL
 62
     4
 10
18.024109143837592
 20
76.749999999269605
 30
0.0
 11
21.99999999952334
 21
76.749999999177916
 31
0.0
  0
ARC
  5
152D
  8
SAPA_PROFIL
 62
     4
 10
18.024109143815782
 20
75.749999999269562
 30
0.0
 40
1.000000000000042
 50
89.99999999875017
 51
124.99999999882741
  0
LINE
  5
152E
  8
SAPA_PROFIL
 62
     4
 10
16.589319602404569
 20
75.966124135423271
 30
0.0
 11
17.450532707481472
 21
76.569152043570327
 31
0.0
  0
ARC
  5
152F
  8
SAPA_PROFIL
 62
     4
 10
16.015743166077819
 20
76.785276179725329
 30
0.0
 40
0.9999999999967664
 50
254.99999999781551
 51
304.9999999984301
  0
LINE
  5
1530
  8
SAPA_PROFIL
 62
     4
 10
11.040108049255799
 20
77.083217410855397
 30
0.0
 11
15.75692412093931
 21
75.819350353449252
 31
0.0
  0
ARC
  5
1531
  8
SAPA_PROFIL
 62
     4
 10
12.85184136517832
 20
83.844698194825796
 30
0.0
 40
7.0000000000017657
 50
209.9999999995751
 51
254.99999999826781
  0
LINE
  5
1532
  8
SAPA_PROFIL
 62
     4
 10
5.8339745960267129
 20
81.99999999980075
 30
0.0
 11
6.7896635386597728
 21
80.344698194869878
 31
0.0
  0
ARC
  5
1533
  8
SAPA_PROFIL
 62
     4
 10
6.6999999998137341
 20
82.499999999789551
 30
0.0
 40
0.9999999999966462
 50
89.9999999981884
 51
209.9999999993704
  0
LINE
  5
1534
  8
SAPA_PROFIL
 62
     4
 10
8.2499999998337117
 20
83.499999999742542
 30
0.0
 11
6.6999999998453532
 21
83.499999999786183
 31
0.0
  0
ARC
  5
1535
  8
SAPA_PROFIL
 62
     4
 10
8.2499999998209788
 20
82.999999999744375
 30
0.0
 40
0.499999999998181
 50
359.999999998124
 51
89.999999998540915
  0
LINE
  5
1536
  8
SAPA_PROFIL
 62
     4
 10
8.7499999998046079
 20
82.499999999727976
 30
0.0
 11
8.7499999998191598
 21
82.99999999972799
 31
0.0
  0
LINE
  5
1537
  8
SAPA_PROFIL
 62
     4
 10
7.499999999804607
 20
82.499999999749804
 30
0.0
 11
8.7499999998046079
 21
82.499999999727976
 31
0.0
  0
LINE
  5
1538
  8
SAPA_PROFIL
 62
     4
 10
7.499999999777323
 20
81.299999999752728
 30
0.0
 11
7.499999999804607
 21
82.499999999749804
 31
0.0
  0
ARC
  5
1539
  8
SAPA_PROFIL
 62
     4
 10
7.9999999997773301
 20
81.299999999738176
 30
0.0
 40
0.5
 50
179.99999999833079
 51
269.99999999874848
  0
LINE
  5
153A
  8
SAPA_PROFIL
 62
     4
 10
8.7499999997627711
 20
80.799999999716348
 30
0.0
 11
7.9999999997664091
 21
80.799999999738162
 31
0.0
  0
ARC
  5
153B
  8
SAPA_PROFIL
 62
     4
 10
10.99999999978945
 20
82.784313482955255
 30
0.0
 40
2.9999999999806439
 50
221.40962210808121
 51
318.59037788952111
  0
LINE
  5
153C
  8
SAPA_PROFIL
 62
     4
 10
13.999999999762769
 20
80.799999999578105
 30
0.0
 11
13.249999999733101
 21
80.799999999622173
 31
0.0
  0
ARC
  5
153D
  8
SAPA_PROFIL
 62
     4
 10
13.9999999997755
 20
81.299999999579924
 30
0.0
 40
0.500000000001819
 50
269.99999999854089
 51
359.999999998124
  0
LINE
  5
153E
  8
SAPA_PROFIL
 62
     4
 10
14.49999999980461
 20
82.499999999560643
 30
0.0
 11
14.499999999777319
 21
81.299999999563553
 31
0.0
  0
LINE
  5
153F
  8
SAPA_PROFIL
 62
     4
 10
13.24999999980461
 20
82.499999999597037
 30
0.0
 11
14.49999999980461
 21
82.499999999560643
 31
0.0
  0
LINE
  5
1540
  8
SAPA_PROFIL
 62
     4
 10
13.24999999981916
 20
82.999999999597023
 30
0.0
 11
13.24999999980461
 21
82.499999999597037
 31
0.0
  0
ARC
  5
1541
  8
SAPA_PROFIL
 62
     4
 10
13.74999999981916
 20
82.999999999582471
 30
0.0
 40
0.5
 50
89.999999998749345
 51
179.99999999833241
  0
LINE
  5
1542
  8
SAPA_PROFIL
 62
     4
 10
16.749999999833712
 20
83.499999999509726
 30
0.0
 11
13.74999999983007
 21
83.499999999582485
 31
0.0
  0
ARC
  5
1543
  8
SAPA_PROFIL
 62
     4
 10
16.749999999820979
 20
82.999999999511516
 30
0.0
 40
0.499999999998181
 50
359.999999998124
 51
89.999999998540915
  0
LINE
  5
1544
  8
SAPA_PROFIL
 62
     4
 10
17.24999999981188
 20
82.499999999495145
 30
0.0
 11
17.24999999981916
 21
82.999999999495159
 31
0.0
  0
LINE
  5
1545
  8
SAPA_PROFIL
 62
     4
 10
15.99999999981188
 20
82.499999999531525
 30
0.0
 11
17.24999999981188
 21
82.499999999495145
 31
0.0
  0
LINE
  5
1546
  8
SAPA_PROFIL
 62
     4
 10
15.999999999777311
 20
81.299999999534464
 30
0.0
 11
15.99999999981188
 21
82.499999999531525
 31
0.0
  0
ARC
  5
1547
  8
SAPA_PROFIL
 62
     4
 10
16.499999999777319
 20
81.299999999519883
 30
0.0
 40
0.5
 50
179.99999999833079
 51
269.99999999874848
  0
LINE
  5
1548
  8
SAPA_PROFIL
 62
     4
 10
17.249999999748209
 20
80.79999999949807
 30
0.0
 11
16.499999999766398
 21
80.799999999519883
 31
0.0
  0
ARC
  5
1549
  8
SAPA_PROFIL
 62
     4
 10
19.499999999802281
 20
82.784313482735257
 30
0.0
 40
3.0000000000000488
 50
221.40962210771059
 51
318.5903778891506
  0
LINE
  5
154A
  8
SAPA_PROFIL
 62
     4
 10
22.49999999976276
 20
80.799999999359812
 30
0.0
 11
21.749999999747651
 21
80.799999999374805
 31
0.0
  0
ARC
  5
154B
  8
SAPA_PROFIL
 62
     4
 10
22.49999999977549
 20
81.299999999361631
 30
0.0
 40
0.5000000000018261
 50
269.9999999985418
 51
359.99999999812559
  0
LINE
  5
154C
  8
SAPA_PROFIL
 62
     4
 10
22.99999999981188
 20
82.49999999934235
 30
0.0
 11
22.999999999777319
 21
81.299999999345275
 31
0.0
  0
LINE
  5
154D
  8
SAPA_PROFIL
 62
     4
 10
21.74999999981188
 20
82.499999999378744
 30
0.0
 11
22.99999999981188
 21
82.49999999934235
 31
0.0
  0
LINE
  5
154E
  8
SAPA_PROFIL
 62
     4
 10
21.749999999826429
 20
82.999999999378744
 30
0.0
 11
21.74999999981188
 21
82.499999999378744
 31
0.0
  0
ARC
  5
154F
  8
SAPA_PROFIL
 62
     4
 10
22.249999999826429
 20
82.999999999364192
 30
0.0
 40
0.5
 50
89.999999998748933
 51
179.99999999833241
  0
LINE
  5
1550
  8
SAPA_PROFIL
 62
     4
 10
24.499999999819149
 20
83.499999999291447
 30
0.0
 11
22.24999999983735
 21
83.499999999364206
 31
0.0
  0
ARC
  5
1551
  8
SAPA_PROFIL
 62
     4
 10
24.49999999981242
 20
83.199999999293837
 30
0.0
 40
0.2999999999975955
 50
359.99999999870272
 51
89.999999998713534
  0
LINE
  5
1552
  8
SAPA_PROFIL
 62
     4
 10
24.799999999722932
 20
80.099999999311805
 30
0.0
 11
24.799999999810009
 21
83.199999999287044
 31
0.0
  0
ARC
  5
1553
  8
SAPA_PROFIL
 62
     4
 10
25.099999999723671
 20
80.099999999305254
 30
0.0
 40
0.3000000000007361
 50
179.99999999874879
 51
269.999999998742
  0
LINE
  5
1554
  8
SAPA_PROFIL
 62
     4
 10
26.499999999719108
 20
79.799999999265239
 30
0.0
 11
25.099999999717092
 21
79.799999999304518
 31
0.0
  0
ARC
  5
1555
  8
SAPA_PROFIL
 62
     4
 10
26.49999999972971
 20
80.099999999262792
 30
0.0
 40
0.2999999999975493
 50
269.99999999797598
 51
359.9999999975492
  0
LINE
  5
1556
  8
SAPA_PROFIL
 62
     4
 10
26.799999999763859
 20
81.249999999247777
 30
0.0
 11
26.799999999727252
 21
80.09999999924996
 31
0.0
  0
ARC
  5
1557
  8
SAPA_PROFIL
 62
     4
 10
27.099999999766059
 20
81.249999999238284
 30
0.0
 40
0.300000000002214
 50
89.999999998192436
 51
179.99999999818419
  0
LINE
  5
1558
  8
SAPA_PROFIL
 62
     4
 10
27.799999999787509
 20
81.549999999221583
 30
0.0
 11
27.09999999977553
 21
81.549999999240484
 31
0.0
  0
ARC
  5
1559
  8
SAPA_PROFIL
 62
     4
 10
27.79999999978077
 20
81.249999999223988
 30
0.0
 40
0.2999999999975955
 50
359.99999999787218
 51
89.999999998713534
  0
LINE
  5
155A
  8
SAPA_PROFIL
 62
     4
 10
28.099999999432072
 20
69.249999999196831
 30
0.0
 11
28.099999999778358
 21
81.249999999212847
 31
0.0
  0
ARC
  5
155B
  8
SAPA_PROFIL
 62
     4
 10
23.899999999430641
 20
69.249999999314682
 30
0.0
 40
4.2000000000014381
 50
269.99999999839201
 51
359.9999999983923
  0
LINE
  5
155C
  8
SAPA_PROFIL
 62
     4
 10
21.899999999167591
 20
65.049999999374364
 30
0.0
 11
23.899999999312762
 21
65.049999999313243
 31
0.0
  0
ARC
  5
155D
  8
SAPA_PROFIL
 62
     4
 10
21.899999999123938
 20
63.549999999374371
 30
0.0
 40
1.5000000000000031
 50
89.999999998332626
 51
179.9999999966652
  0
LINE
  5
155E
  8
SAPA_PROFIL
 62
     4
 10
20.39999999835814
 20
50.999999999102243
 30
0.0
 11
20.399999999123931
 21
63.549999999461669
 31
0.0
  0
ARC
  5
155F
  8
SAPA_PROFIL
 62
     4
 10
22.399999998347219
 20
50.999999998967638
 30
0.0
 40
1.9999999999890861
 50
179.9999999961438
 51
269.99999999781141
  0
LINE
  5
1560
  8
SAPA_PROFIL
 62
     4
 10
27.799999998832529
 20
48.999999998825757
 30
0.0
 11
22.399999998270818
 21
48.999999998978552
 31
0.0
  0
ARC
  5
1561
  8
SAPA_PROFIL
 62
     4
 10
27.799999998822159
 20
48.699999998824531
 30
0.0
 40
0.3000000000012264
 50
359.9999999980119
 51
89.999999998020087
  0
LINE
  5
1562
  8
SAPA_PROFIL
 62
     4
 10
28.09999999877995
 20
47.099999998809729
 30
0.0
 11
28.099999998823389
 21
48.699999998814121
 31
0.0
  0
ARC
  5
1563
  8
SAPA_PROFIL
 62
     4
 10
27.799999998781391
 20
47.099999998822867
 30
0.0
 40
0.2999999999985618
 50
269.99999999749889
 51
359.99999999749218
  0
LINE
  5
1564
  8
SAPA_PROFIL
 62
     4
 10
2.8000000017455342
 20
106.2000000010112
 30
0.0
 11
-2.799999998739938
 21
106.2000000011757
 31
0.0
  0
ARC
  5
1565
  8
SAPA_PROFIL
 62
     4
 10
2.8000000017600821
 20
106.7000000010112
 30
0.0
 40
0.4999999999999965
 50
269.9999999983329
 51
359.9999999983325
  0
LINE
  5
1566
  8
SAPA_PROFIL
 62
     4
 10
3.3000000018874078
 20
111.3000000010025
 30
0.0
 11
3.300000001760079
 21
106.7000000009967
 31
0.0
  0
ARC
  5
1567
  8
SAPA_PROFIL
 62
     4
 10
2.8000000018874109
 20
111.300000001017
 30
0.0
 40
0.5
 50
359.9999999983325
 51
89.999999998332072
  0
LINE
  5
1568
  8
SAPA_PROFIL
 62
     4
 10
-2.7999999985840658
 20
111.80000000116981
 30
0.0
 11
2.8000000019019669
 21
111.8000000010171
 31
0.0
  0
ARC
  5
1569
  8
SAPA_PROFIL
 62
     4
 10
-2.7999999985741559
 20
112.10000000117149
 30
0.0
 40
0.3000000000016794
 50
179.99999999809739
 51
269.99999999810728
  0
LINE
  5
156A
  8
SAPA_PROFIL
 62
     4
 10
-3.0999999985251381
 20
113.70000000117859
 30
0.0
 11
-3.0999999985758349
 21
112.1000000011815
 31
0.0
  0
ARC
  5
156B
  8
SAPA_PROFIL
 62
     4
 10
-2.7999999985229209
 20
113.7000000011691
 30
0.0
 40
0.300000000002214
 50
89.999999998193005
 51
179.99999999818701
  0
LINE
  5
156C
  8
SAPA_PROFIL
 62
     4
 10
2.600000002048577
 20
114.00000000102141
 30
0.0
 11
-2.79999999851346
 21
114.0000000011713
 31
0.0
  0
ARC
  5
156D
  8
SAPA_PROFIL
 62
     4
 10
2.6000000021067811
 20
116.00000000102141
 30
0.0
 40
1.999999999999996
 50
269.9999999983325
 51
0.0
  0
LINE
  5
156E
  8
SAPA_PROFIL
 62
     4
 10
4.6000000020640393
 20
119.2744706429103
 30
0.0
 11
4.6000000021067784
 21
116.00000000102141
 31
0.0
  0
ARC
  5
156F
  8
SAPA_PROFIL
 62
     4
 10
2.6000000020847449
 20
119.27447064290681
 30
0.0
 40
1.999999999979293
 50
0.0000000001021849
 51
19.999999998319652
  0
LINE
  5
1570
  8
SAPA_PROFIL
 62
     4
 10
1.7721064041134329
 20
127.39669840996351
 30
0.0
 11
4.4793852436571662
 21
119.9585109294959
 31
0.0
  0
ARC
  5
1571
  8
SAPA_PROFIL
 62
     4
 10
2.0540141903552631
 20
127.4993044529546
 30
0.0
 40
0.3000000000034407
 50
109.9999999984302
 51
199.99999999842711
  0
LINE
  5
1572
  8
SAPA_PROFIL
 62
     4
 10
5.03159597350444
 20
128.9023089237626
 30
0.0
 11
1.9514081473641089
 21
127.78121223919641
 31
0.0
  0
ARC
  5
1573
  8
SAPA_PROFIL
 62
     4
 10
5.1000000021663556
 20
128.71437039959889
 30
0.0
 40
0.2000000000050486
 50
359.99999999861581
 51
109.99999999849101
  0
LINE
  5
1574
  8
SAPA_PROFIL
 62
     4
 10
5.3000000021648113
 20
128.6000000005761
 30
0.0
 11
5.3000000021714051
 21
128.71437039959409
 31
0.0
  0
ARC
  5
1575
  8
SAPA_PROFIL
 62
     4
 10
5.6000000021655474
 20
128.60000000056959
 30
0.0
 40
0.3000000000007219
 50
179.99999999875149
 51
269.99999999791828
  0
LINE
  5
1576
  8
SAPA_PROFIL
 62
     4
 10
6.500000002066403
 20
128.30000000052951
 30
0.0
 11
5.6000000021546468
 21
128.3000000005689
 31
0.0
  0
ARC
  5
1577
  8
SAPA_PROFIL
 62
     4
 10
6.5000000020585729
 20
128.0000000005308
 30
0.0
 40
0.2999999999986897
 50
0.000000000591668
 51
89.999999998504549
  0
LINE
  5
1578
  8
SAPA_PROFIL
 62
     4
 10
6.8000000020602194
 20
127.5000000005339
 30
0.0
 11
6.8000000020572626
 21
128.0000000005339
 31
0.0
  0
ARC
  5
1579
  8
SAPA_PROFIL
 62
     4
 10
6.5000000020587771
 20
127.50000000053539
 30
0.0
 40
0.3000000000014324
 50
269.9999999976352
 51
359.9999999997259
  0
LINE
  5
157A
  8
SAPA_PROFIL
 62
     4
 10
3.6236235805372732
 20
127.2000000006402
 30
0.0
 11
6.5000000020463951
 21
127.2000000005339
 31
0.0
  0
ARC
  5
157B
  8
SAPA_PROFIL
 62
     4
 10
3.62362358051538
 20
126.9000000006501
 30
0.0
 40
0.2999999999900346
 50
89.999999995818726
 51
109.9999999961172
  0
LINE
  5
157C
  8
SAPA_PROFIL
 62
     4
 10
3.3612921878757649
 20
127.1237725139536
 30
0.0
 11
3.521017537540192
 21
127.1819077868835
 31
0.0
  0
ARC
  5
157D
  8
SAPA_PROFIL
 62
     4
 10
3.4638982308620521
 20
126.8418647277141
 30
0.0
 40
0.2999999999995685
 50
109.9999999977091
 51
199.99999999771191
  0
LINE
  5
157E
  8
SAPA_PROFIL
 62
     4
 10
4.0707565211778594
 20
124.2973939579779
 30
0.0
 11
3.181990444622588
 21
126.7392586847278
 31
0.0
  0
ARC
  5
157F
  8
SAPA_PROFIL
 62
     4
 10
4.3526643074134723
 20
124.4000000009698
 30
0.0
 40
0.2999999999978513
 50
199.99999999896329
 51
269.9999999990842
  0
LINE
  5
1580
  8
SAPA_PROFIL
 62
     4
 10
6.5000000021255211
 20
124.10000000090351
 30
0.0
 11
4.352664307408677
 21
124.1000000009719
 31
0.0
  0
ARC
  5
1581
  8
SAPA_PROFIL
 62
     4
 10
6.500000002115601
 20
123.8000000009019
 30
0.0
 40
0.3000000000016882
 50
359.99999999809739
 51
89.999999998105579
  0
LINE
  5
1582
  8
SAPA_PROFIL
 62
     4
 10
6.8000000021056941
 20
123.30000000089341
 30
0.0
 11
6.8000000021172902
 21
123.8000000008919
 31
0.0
  0
ARC
  5
1583
  8
SAPA_PROFIL
 62
     4
 10
6.5000000021060638
 20
123.3000000009075
 30
0.0
 40
0.2999999999996277
 50
269.99999999770148
 51
359.99999999729141
  0
LINE
  5
1584
  8
SAPA_PROFIL
 62
     4
 10
4.9714137056344363
 20
123.0000000009487
 30
0.0
 11
6.500000002094029
 21
123.0000000009079
 31
0.0
  0
ARC
  5
1585
  8
SAPA_PROFIL
 62
     4
 10
4.9714137056239798
 20
122.70000000095069
 30
0.0
 40
0.2999999999979632
 50
89.999999998003119
 51
199.99999999788699
  0
LINE
  5
1586
  8
SAPA_PROFIL
 62
     4
 10
6.6070481677097952
 20
117.328989929355
 30
0.0
 11
4.6895059193863382
 21
122.5973939579641
 31
0.0
  0
ARC
  5
1587
  8
SAPA_PROFIL
 62
     4
 10
7.0768944781047587
 20
117.500000001004
 30
0.0
 40
0.4999999999971579
 50
199.99999999843081
 51
269.99999999854981
  0
LINE
  5
1588
  8
SAPA_PROFIL
 62
     4
 10
8.000000002050033
 20
117.00000000097781
 30
0.0
 11
7.076894478092103
 21
117.0000000010069
 31
0.0
  0
ARC
  5
1589
  8
SAPA_PROFIL
 62
     4
 10
8.0000000020664022
 20
117.500000000976
 30
0.0
 40
0.499999999998181
 50
269.999999998124
 51
359.99999999854089
  0
LINE
  5
158A
  8
SAPA_PROFIL
 62
     4
 10
8.5000000021136977
 20
119.20000000096761
 30
0.0
 11
8.5000000020645832
 21
117.5000000009632
 31
0.0
  0
ARC
  5
158B
  8
SAPA_PROFIL
 62
     4
 10
9.0000000021136977
 20
119.20000000094571
 30
0.0
 40
0.5
 50
89.999999997498705
 51
179.99999999749869
  0
LINE
  5
158C
  8
SAPA_PROFIL
 62
     4
 10
9.7000000021398911
 20
119.70000000092389
 30
0.0
 11
9.0000000021355255
 21
119.70000000094581
 31
0.0
  0
ARC
  5
158D
  8
SAPA_PROFIL
 62
     4
 10
9.7000000021253392
 20
119.20000000092389
 30
0.0
 40
0.5
 50
359.9999999983325
 51
89.999999998332484
  0
LINE
  5
158E
  8
SAPA_PROFIL
 62
     4
 10
10.200000002018021
 20
115.75000000079589
 30
0.0
 11
10.200000002125339
 21
119.2000000009094
 31
0.0
  0
ARC
  5
158F
  8
SAPA_PROFIL
 62
     4
 10
9.2000000020143808
 20
115.75000000082861
 30
0.0
 40
1.0000000000036371
 50
269.99999999854089
 51
359.999999998124
  0
LINE
  5
1590
  8
SAPA_PROFIL
 62
     4
 10
8.7000000019889132
 20
114.75000000083951
 30
0.0
 11
9.2000000019889132
 21
114.750000000825
 31
0.0
  0
ARC
  5
1591
  8
SAPA_PROFIL
 62
     4
 10
8.7000000019016035
 20
111.75000000083951
 30
0.0
 40
3.0
 50
89.999999998332484
 51
179.99999999833241
  0
LINE
  5
1592
  8
SAPA_PROFIL
 62
     4
 10
5.7000000017415253
 20
106.2500000027822
 30
0.0
 11
5.7000000019016026
 21
111.7500000009268
 31
0.0
  0
ARC
  5
1593
  8
SAPA_PROFIL
 62
     4
 10
8.7000000017415253
 20
106.2500000026949
 30
0.0
 40
3.0
 50
179.99999999833241
 51
269.9999999983325
  0
LINE
  5
1594
  8
SAPA_PROFIL
 62
     4
 10
9.2000000016542138
 20
103.2500000026803
 30
0.0
 11
8.7000000016542138
 21
103.2500000026949
 31
0.0
  0
ARC
  5
1595
  8
SAPA_PROFIL
 62
     4
 10
9.200000001621472
 20
102.2500000026767
 30
0.0
 40
1.0000000000036371
 50
359.99999999854089
 51
89.999999998124025
  0
LINE
  5
1596
  8
SAPA_PROFIL
 62
     4
 10
10.20000000153234
 20
98.800000002545033
 30
0.0
 11
10.20000000162511
 21
102.25000000265121
 31
0.0
  0
ARC
  5
1597
  8
SAPA_PROFIL
 62
     4
 10
9.7000000015323415
 20
98.800000002559585
 30
0.0
 40
0.5
 50
269.9999999983325
 51
359.9999999983325
  0
LINE
  5
1598
  8
SAPA_PROFIL
 62
     4
 10
9.0000000015134241
 20
98.300000002574151
 30
0.0
 11
9.7000000015177896
 21
98.300000002559585
 31
0.0
  0
ARC
  5
1599
  8
SAPA_PROFIL
 62
     4
 10
9.0000000015206911
 20
98.800000002574137
 30
0.0
 40
0.4999999999999929
 50
179.99999999916619
 51
269.99999999916707
  0
LINE
  5
159A
  8
SAPA_PROFIL
 62
     4
 10
8.5000000015698127
 20
100.50000000258579
 30
0.0
 11
8.5000000015207
 21
98.800000002581413
 31
0.0
  0
ARC
  5
159B
  8
SAPA_PROFIL
 62
     4
 10
8.0000000015716317
 20
100.50000000260211
 30
0.0
 40
0.499999999998181
 50
359.999999998124
 51
89.999999998540915
  0
LINE
  5
159C
  8
SAPA_PROFIL
 62
     4
 10
7.1000000015829086
 20
101.00000000262941
 30
0.0
 11
8.0000000015843646
 21
101.0000000026003
 31
0.0
  0
ARC
  5
159D
  8
SAPA_PROFIL
 62
     4
 10
7.1000000015683566
 20
100.50000000262941
 30
0.0
 40
0.5
 50
89.999999998332484
 51
179.99999999666491
  0
LINE
  5
159E
  8
SAPA_PROFIL
 62
     4
 10
6.6000000013064231
 20
95.999999994567673
 30
0.0
 11
6.6000000015683566
 21
100.5000000026585
 31
0.0
  0
LINE
  5
159F
  8
SAPA_PROFIL
 62
     4
 10
6.7999999937019551
 20
95.800000001933839
 30
0.0
 11
6.6000000013064231
 21
95.999999994567673
 31
0.0
  0
LINE
  5
15A0
  8
SAPA_PROFIL
 62
     4
 10
6.800000000916067
 20
89.450000000407357
 30
0.0
 11
6.7999999937019551
 21
95.800000001933839
 31
0.0
  0
ARC
  5
15A1
  8
SAPA_PROFIL
 62
     4
 10
3.1000000009121709
 20
89.450000000632144
 30
0.0
 40
3.700000000003894
 50
287.45760312127999
 51
359.99999999651891
  0
ARC
  5
15A2
  8
SAPA_PROFIL
 62
     4
 10
4.3000000007515649
 20
85.634243194912571
 30
0.0
 40
0.2999999999973424
 50
107.45760312161249
 51
179.99999999852079
  0
LINE
  5
15A3
  8
SAPA_PROFIL
 62
     4
 10
4.0000000007348957
 20
85.050000000398626
 30
0.0
 11
4.0000000007542234
 21
85.634243194920316
 31
0.0
  0
ARC
  5
15A4
  8
SAPA_PROFIL
 62
     4
 10
3.7000000007326861
 20
85.050000000408104
 30
0.0
 40
0.3000000000021998
 50
269.99999999819448
 51
359.99999999818971
  0
LINE
  5
15A5
  8
SAPA_PROFIL
 62
     4
 10
3.000000000754905
 20
84.750000000432095
 30
0.0
 11
3.7000000007232319
 21
84.750000000405905
 31
0.0
  0
ARC
  5
15A6
  8
SAPA_PROFIL
 62
     4
 10
3.000000000757995
 20
85.050000000447866
 30
0.0
 40
0.3000000000157774
 50
179.9999999868937
 51
269.99999999940991
  0
LINE
  5
15A7
  8
SAPA_PROFIL
 62
     4
 10
2.7000000008374871
 20
85.450000000603808
 30
0.0
 11
2.700000000742218
 21
85.050000000516505
 31
0.0
  0
ARC
  5
15A8
  8
SAPA_PROFIL
 62
     4
 10
2.400000000839329
 20
85.450000000649311
 30
0.0
 40
0.2999999999981639
 50
359.99999999130949
 51
89.999999999235825
  0
LINE
  5
15A9
  8
SAPA_PROFIL
 62
     4
 10
1.1000000008043811
 20
85.750000000686754
 30
0.0
 11
2.4000000008433311
 21
85.750000000647475
 31
0.0
  0
ARC
  5
15AA
  8
SAPA_PROFIL
 62
     4
 10
1.100000000746167
 20
83.750000000686754
 30
0.0
 40
1.999999999999992
 50
89.999999998332257
 51
179.9999999987489
  0
LINE
  5
15AB
  8
SAPA_PROFIL
 62
     4
 10
-0.8999999994284486
 20
77.250000000744933
 30
0.0
 11
-0.8999999992538256
 21
83.750000000730424
 31
0.0
  0
ARC
  5
15AC
  8
SAPA_PROFIL
 62
     4
 10
1.1000000005715509
 20
77.25000000068674
 30
0.0
 40
2.0
 50
179.99999999833241
 51
269.9999999983325
  0
LINE
  5
15AD
  8
SAPA_PROFIL
 62
     4
 10
2.4000000005599089
 20
75.25000000065036
 30
0.0
 11
1.100000000513343
 21
75.25000000068674
 31
0.0
  0
ARC
  5
15AE
  8
SAPA_PROFIL
 62
     4
 10
2.4000000005699049
 20
75.550000000649419
 30
0.0
 40
0.2999999999990539
 50
269.99999999809103
 51
0.0000000055991333
  0
LINE
  5
15AF
  8
SAPA_PROFIL
 62
     4
 10
2.7000000004955171
 20
75.950000000771141
 30
0.0
 11
2.7000000005689588
 21
75.550000000678736
 31
0.0
  0
ARC
  5
15B0
  8
SAPA_PROFIL
 62
     4
 10
3.0000000004941061
 20
75.950000000823493
 30
0.0
 40
0.2999999999985903
 50
89.999999997915253
 51
180.00000000999859
  0
LINE
  5
15B1
  8
SAPA_PROFIL
 62
     4
 10
6.9758908561907687
 20
76.250000000730395
 30
0.0
 11
3.0000000005050209
 21
76.250000000822084
 31
0.0
  0
ARC
  5
15B2
  8
SAPA_PROFIL
 62
     4
 10
6.9758908562125841
 20
77.250000000730438
 30
0.0
 40
1.0000000000000411
 50
269.99999999875013
 51
304.99999999882738
  0
LINE
  5
15B3
  8
SAPA_PROFIL
 62
     4
 10
8.4106803976237892
 20
77.033875864576714
 30
0.0
 11
7.5494672925468889
 21
76.430847956429673
 31
0.0
  0
ARC
  5
15B4
  8
SAPA_PROFIL
 62
     4
 10
8.9842568339505355
 20
76.214723820274671
 30
0.0
 40
0.9999999999967659
 50
74.999999997815635
 51
124.9999999984301
  0
LINE
  5
15B5
  8
SAPA_PROFIL
 62
     4
 10
13.95989195077256
 20
75.916782589144603
 30
0.0
 11
9.2430758790890444
 21
77.180649646550734
 31
0.0
  0
ARC
  5
15B6
  8
SAPA_PROFIL
 62
     4
 10
12.148158634850031
 20
69.15530180517419
 30
0.0
 40
7.0000000000017657
 50
29.999999999575149
 51
74.999999998267754
  0
LINE
  5
15B7
  8
SAPA_PROFIL
 62
     4
 10
19.16602540400164
 20
71.00000000019925
 30
0.0
 11
18.210336461368591
 21
72.655301805130122
 31
0.0
  0
ARC
  5
15B8
  8
SAPA_PROFIL
 62
     4
 10
18.300000000214631
 20
70.500000000210449
 30
0.0
 40
0.9999999999966462
 50
269.9999999981884
 51
29.999999999370399
  0
LINE
  5
15B9
  8
SAPA_PROFIL
 62
     4
 10
16.75000000019465
 20
69.500000000257444
 30
0.0
 11
18.300000000183012
 21
69.500000000213802
 31
0.0
  0
ARC
  5
15BA
  8
SAPA_PROFIL
 62
     4
 10
16.750000000207379
 20
70.000000000255639
 30
0.0
 40
0.499999999998181
 50
179.999999998124
 51
269.99999999854089
  0
LINE
  5
15BB
  8
SAPA_PROFIL
 62
     4
 10
16.25000000022375
 20
70.50000000027201
 30
0.0
 11
16.250000000209202
 21
70.00000000027201
 31
0.0
  0
LINE
  5
15BC
  8
SAPA_PROFIL
 62
     4
 10
17.50000000022375
 20
70.500000000250182
 30
0.0
 11
16.25000000022375
 21
70.50000000027201
 31
0.0
  0
LINE
  5
15BD
  8
SAPA_PROFIL
 62
     4
 10
17.500000000251038
 20
71.700000000247272
 30
0.0
 11
17.50000000022375
 21
70.500000000250182
 31
0.0
  0
ARC
  5
15BE
  8
SAPA_PROFIL
 62
     4
 10
17.000000000251031
 20
71.700000000261838
 30
0.0
 40
0.5
 50
359.99999999833079
 51
89.999999998748535
  0
LINE
  5
15BF
  8
SAPA_PROFIL
 62
     4
 10
16.25000000026559
 20
72.200000000283652
 30
0.0
 11
17.000000000261949
 21
72.200000000261838
 31
0.0
  0
ARC
  5
15C0
  8
SAPA_PROFIL
 62
     4
 10
14.0000000002389
 20
70.21568651704473
 30
0.0
 40
2.9999999999806439
 50
41.40962210808118
 51
138.59037788952099
  0
LINE
  5
15C1
  8
SAPA_PROFIL
 62
     4
 10
11.00000000026559
 20
72.200000000421895
 30
0.0
 11
11.750000000295261
 21
72.200000000377813
 31
0.0
  0
ARC
  5
15C2
  8
SAPA_PROFIL
 62
     4
 10
11.000000000252861
 20
71.700000000420076
 30
0.0
 40
0.500000000001819
 50
89.999999998540915
 51
179.999999998124
  0
LINE
  5
15C3
  8
SAPA_PROFIL
 62
     4
 10
10.50000000022375
 20
70.500000000439357
 30
0.0
 11
10.50000000025104
 21
71.700000000436447
 31
0.0
  0
LINE
  5
15C4
  8
SAPA_PROFIL
 62
     4
 10
11.75000000022375
 20
70.500000000402977
 30
0.0
 11
10.50000000022375
 21
70.500000000439357
 31
0.0
  0
LINE
  5
15C5
  8
SAPA_PROFIL
 62
     4
 10
11.7500000002092
 20
70.000000000402977
 30
0.0
 11
11.75000000022375
 21
70.500000000402977
 31
0.0
  0
ARC
  5
15C6
  8
SAPA_PROFIL
 62
     4
 10
11.2500000002092
 20
70.000000000417529
 30
0.0
 40
0.5
 50
269.99999999874927
 51
359.9999999983325
  0
LINE
  5
15C7
  8
SAPA_PROFIL
 62
     4
 10
8.2500000001946496
 20
69.500000000490289
 30
0.0
 11
11.250000000198289
 21
69.500000000417529
 31
0.0
  0
ARC
  5
15C8
  8
SAPA_PROFIL
 62
     4
 10
8.2500000002073826
 20
70.00000000048847
 30
0.0
 40
0.499999999998181
 50
179.999999998124
 51
269.99999999854089
  0
LINE
  5
15C9
  8
SAPA_PROFIL
 62
     4
 10
7.7500000002164766
 20
70.500000000504841
 30
0.0
 11
7.7500000002092007
 21
70.000000000504841
 31
0.0
  0
LINE
  5
15CA
  8
SAPA_PROFIL
 62
     4
 10
9.0000000002164775
 20
70.500000000468461
 30
0.0
 11
7.7500000002164766
 21
70.500000000504841
 31
0.0
  0
LINE
  5
15CB
  8
SAPA_PROFIL
 62
     4
 10
9.0000000002510454
 20
71.70000000046555
 30
0.0
 11
9.0000000002164775
 21
70.500000000468461
 31
0.0
  0
ARC
  5
15CC
  8
SAPA_PROFIL
 62
     4
 10
8.5000000002510383
 20
71.700000000480117
 30
0.0
 40
0.5
 50
359.99999999833079
 51
89.999999998748535
  0
LINE
  5
15CD
  8
SAPA_PROFIL
 62
     4
 10
7.7500000002801492
 20
72.20000000050193
 30
0.0
 11
8.5000000002619593
 21
72.200000000480117
 31
0.0
  0
ARC
  5
15CE
  8
SAPA_PROFIL
 62
     4
 10
5.5000000002260752
 20
70.215686517264729
 30
0.0
 40
3.000000000000048
 50
41.409622107710547
 51
138.59037788915049
  0
LINE
  5
15CF
  8
SAPA_PROFIL
 62
     4
 10
2.5000000002655969
 20
72.200000000640173
 30
0.0
 11
3.2500000002807101
 21
72.200000000625195
 31
0.0
  0
ARC
  5
15D0
  8
SAPA_PROFIL
 62
     4
 10
2.5000000002528711
 20
71.700000000638354
 30
0.0
 40
0.5000000000018267
 50
89.999999998541782
 51
179.9999999981257
  0
LINE
  5
15D1
  8
SAPA_PROFIL
 62
     4
 10
2.0000000002164842
 20
70.500000000657636
 30
0.0
 11
2.000000000251045
 21
71.700000000654725
 31
0.0
  0
LINE
  5
15D2
  8
SAPA_PROFIL
 62
     4
 10
3.2500000002164842
 20
70.500000000621256
 30
0.0
 11
2.0000000002164842
 21
70.500000000657636
 31
0.0
  0
LINE
  5
15D3
  8
SAPA_PROFIL
 62
     4
 10
3.2500000002019318
 20
70.000000000621256
 30
0.0
 11
3.2500000002164842
 21
70.500000000621256
 31
0.0
  0
ARC
  5
15D4
  8
SAPA_PROFIL
 62
     4
 10
2.7500000002019291
 20
70.000000000635808
 30
0.0
 40
0.5
 50
269.99999999874888
 51
359.9999999983325
  0
LINE
  5
15D5
  8
SAPA_PROFIL
 62
     4
 10
0.5000000002092087
 20
69.500000000708567
 30
0.0
 11
2.7500000001910112
 21
69.500000000635808
 31
0.0
  0
ARC
  5
15D6
  8
SAPA_PROFIL
 62
     4
 10
0.5000000002159464
 20
69.800000000706163
 30
0.0
 40
0.2999999999975973
 50
179.99999999870261
 51
269.99999999871318
  0
LINE
  5
15D7
  8
SAPA_PROFIL
 62
     4
 10
0.2000000003054332
 20
72.900000000688195
 30
0.0
 11
0.2000000002183491
 21
69.800000000712956
 31
0.0
  0
ARC
  5
15D8
  8
SAPA_PROFIL
 62
     4
 10
-0.0999999996953083
 20
72.900000000694746
 30
0.0
 40
0.3000000000007361
 50
359.99999999874882
 51
89.999999998742368
  0
LINE
  5
15D9
  8
SAPA_PROFIL
 62
     4
 10
-1.499999999690746
 20
73.200000000734761
 30
0.0
 11
-0.0999999996887233
 21
73.200000000695482
 31
0.0
  0
ARC
  5
15DA
  8
SAPA_PROFIL
 62
     4
 10
-1.499999999701344
 20
72.900000000737208
 30
0.0
 40
0.2999999999975491
 50
89.999999997975934
 51
179.9999999975492
  0
LINE
  5
15DB
  8
SAPA_PROFIL
 62
     4
 10
-1.7999999997354941
 20
71.750000000752223
 30
0.0
 11
-1.799999999698894
 21
72.90000000075004
 31
0.0
  0
ARC
  5
15DC
  8
SAPA_PROFIL
 62
     4
 10
-2.0999999997377019
 20
71.75000000076173
 30
0.0
 40
0.300000000002214
 50
269.99999999819278
 51
359.99999999818431
  0
LINE
  5
15DD
  8
SAPA_PROFIL
 62
     4
 10
-2.79999999975914
 20
71.450000000778417
 30
0.0
 11
-2.099999999747165
 21
71.450000000759516
 31
0.0
  0
ARC
  5
15DE
  8
SAPA_PROFIL
 62
     4
 10
-2.7999999997524059
 20
71.750000000776012
 30
0.0
 40
0.2999999999975937
 50
179.9999999978721
 51
269.9999999987138
  0
LINE
  5
15DF
  8
SAPA_PROFIL
 62
     4
 10
-3.09999999940371
 20
83.750000000803169
 30
0.0
 11
-3.0999999997500001
 21
71.750000000787153
 31
0.0
  0
ARC
  5
15E0
  8
SAPA_PROFIL
 62
     4
 10
1.100000000597718
 20
83.750000000685304
 30
0.0
 40
4.2000000000014381
 50
89.999999998391985
 51
179.9999999983923
  0
LINE
  5
15E1
  8
SAPA_PROFIL
 62
     4
 10
3.1000000008607702
 20
87.950000000625636
 30
0.0
 11
1.1000000007155919
 21
87.950000000686757
 31
0.0
  0
ARC
  5
15E2
  8
SAPA_PROFIL
 62
     4
 10
3.100000000904426
 20
89.450000000625636
 30
0.0
 40
1.5
 50
269.9999999983325
 51
359.99999999666488
  0
LINE
  5
15E3
  8
SAPA_PROFIL
 62
     4
 10
4.6000000016702201
 20
102.0000000008977
 30
0.0
 11
4.6000000009044264
 21
89.450000000538324
 31
0.0
  0
ARC
  5
15E4
  8
SAPA_PROFIL
 62
     4
 10
2.600000001681134
 20
102.0000000010323
 30
0.0
 40
1.9999999999890861
 50
359.9999999961438
 51
89.999999997811358
  0
LINE
  5
15E5
  8
SAPA_PROFIL
 62
     4
 10
-2.7999999988041711
 20
104.0000000011742
 30
0.0
 11
2.600000001757532
 21
104.00000000102141
 31
0.0
  0
ARC
  5
15E6
  8
SAPA_PROFIL
 62
     4
 10
-2.7999999987938051
 20
104.30000000117541
 30
0.0
 40
0.3000000000012259
 50
179.99999999801051
 51
269.99999999802009
  0
LINE
  5
15E7
  8
SAPA_PROFIL
 62
     4
 10
-3.0999999987515952
 20
105.90000000119019
 30
0.0
 11
-3.0999999987950311
 21
104.30000000118589
 31
0.0
  0
ARC
  5
15E8
  8
SAPA_PROFIL
 62
     4
 10
-2.7999999987530351
 20
105.9000000011771
 30
0.0
 40
0.2999999999985618
 50
89.999999997498719
 51
179.99999999749221
  0
POLYLINE
  5
15E9
  8
SAPA_PROFIL
 66
     1
 10
0.0
 20
0.0
 30
0.0
 70
     1
  0
VERTEX
  5
1ACB
  8
SAPA_PROFIL
 10
28.600000000118371
 20
156.20000000091781
 30
0.0
 42
0.4142135623753183
  0
VERTEX
  5
1ACC
  8
SAPA_PROFIL
 10
28.300000000115471
 20
156.50000000091981
 30
0.0
  0
VERTEX
  5
1ACD
  8
SAPA_PROFIL
 10
-3.0999999998714278
 20
156.500000000923
 30
0.0
 42
0.414213562373095
  0
VERTEX
  5
1ACE
  8
SAPA_PROFIL
 10
-3.3999999998743462
 20
156.20000000092011
 30
0.0
  0
VERTEX
  5
1ACF
  8
SAPA_PROFIL
 10
-3.3999999998716239
 20
135.80000000091911
 30
0.0
 42
0.4142135623730949
  0
VERTEX
  5
1AD0
  8
SAPA_PROFIL
 10
-3.0999999998714278
 20
135.5000000009189
 30
0.0
  0
VERTEX
  5
1AD1
  8
SAPA_PROFIL
 10
28.30000000001359
 20
135.50000000091981
 30
0.0
 42
0.4142135623722209
  0
VERTEX
  5
1AD2
  8
SAPA_PROFIL
 10
28.600000000016522
 20
135.80000000091911
 30
0.0
  0
SEQEND
  5
1AD3
  8
SAPA_PROFIL
  0
POLYLINE
  5
15EA
  8
SAPA_PROFIL
 66
     1
 10
0.0
 20
0.0
 30
0.0
 70
     1
  0
VERTEX
  5
1AD4
  8
SAPA_PROFIL
 10
-1.7999999998612559
 20
71.250000001050836
 30
0.0
 42
0.4142135623730956
  0
VERTEX
  5
1AD5
  8
SAPA_PROFIL
 10
-1.4999999998656219
 20
71.550000001051046
 30
0.0
  0
VERTEX
  5
1AD6
  8
SAPA_PROFIL
 10
-1.4999999998656219
 20
72.700000001052018
 30
0.0
 42
-0.4142135623730883
  0
VERTEX
  5
1AD7
  8
SAPA_PROFIL
 10
-1.1999999998627251
 20
73.000000001054929
 30
0.0
  0
VERTEX
  5
1AD8
  8
SAPA_PROFIL
 10
-0.1999999998554322
 20
73.000000001059931
 30
0.0
 42
-0.4663076581619016
  0
VERTEX
  5
1AD9
  8
SAPA_PROFIL
 10
0.0954423260468467
 20
72.647905547753368
 30
0.0
  0
VERTEX
  5
1ADA
  8
SAPA_PROFIL
 10
-0.4159059180058336
 20
69.747905547750008
 30
0.0
 42
-0.3639702342658946
  0
VERTEX
  5
1ADB
  8
SAPA_PROFIL
 10
-0.7113482439128945
 20
69.500000001047539
 30
0.0
  0
VERTEX
  5
1ADC
  8
SAPA_PROFIL
 10
-5.3999999998670836
 20
69.500000001054957
 30
0.0
 42
-0.4142135623730951
  0
VERTEX
  5
1ADD
  8
SAPA_PROFIL
 10
-6.3999999998670836
 20
70.500000001054957
 30
0.0
  0
VERTEX
  5
1ADE
  8
SAPA_PROFIL
 10
-6.3999999998743462
 20
160.0000000009189
 30
0.0
 42
-0.4142135623732721
  0
VERTEX
  5
1ADF
  8
SAPA_PROFIL
 10
-4.8999999998743462
 20
161.50000000091981
 30
0.0
  0
VERTEX
  5
1AE0
  8
SAPA_PROFIL
 10
30.100000000132919
 20
161.50000000092069
 30
0.0
 42
-0.4142135623726523
  0
VERTEX
  5
1AE1
  8
SAPA_PROFIL
 10
31.599999999769128
 20
160.00003383590311
 30
0.0
  0
VERTEX
  5
1AE2
  8
SAPA_PROFIL
 10
31.600000000103819
 20
130.9500000000038
 30
0.0
 42
-0.4142135623784228
  0
VERTEX
  5
1AE3
  8
SAPA_PROFIL
 10
31.400000000106729
 20
130.7500000000008
 30
0.0
  0
VERTEX
  5
1AE4
  8
SAPA_PROFIL
 10
30.49848720704518
 20
130.74999999999989
 30
0.0
 42
-0.3981911081797195
  0
VERTEX
  5
1AE5
  8
SAPA_PROFIL
 10
30.29878976565314
 20
130.93900309581321
 30
0.0
 42
0.3661896282356551
  0
VERTEX
  5
1AE6
  8
SAPA_PROFIL
 10
29.58916408678812
 20
131.6900310552974
 30
0.0
 42
0.0279290488516223
  0
VERTEX
  5
1AE7
  8
SAPA_PROFIL
 10
15.10000000008927
 20
132.49999999999989
 30
0.0
  0
VERTEX
  5
1AE8
  8
SAPA_PROFIL
 10
10.000000000083441
 20
132.49999999999989
 30
0.0
 42
0.4142135623706084
  0
VERTEX
  5
1AE9
  8
SAPA_PROFIL
 10
7.0000000000980078
 20
129.5000000000108
 30
0.0
 42
-0.4142135623712333
  0
VERTEX
  5
1AEA
  8
SAPA_PROFIL
 10
6.0000000001052767
 20
128.49999999984121
 30
0.0
  0
VERTEX
  5
1AEB
  8
SAPA_PROFIL
 10
5.9000000001358357
 20
128.5000000007561
 30
0.0
 42
-0.4142135623730986
  0
VERTEX
  5
1AEC
  8
SAPA_PROFIL
 10
5.6000000001329191
 20
128.8000000007558
 30
0.0
  0
VERTEX
  5
1AED
  8
SAPA_PROFIL
 10
5.6000000000892696
 20
130.00000000000989
 30
0.0
 42
0.4142135623672388
  0
VERTEX
  5
1AEE
  8
SAPA_PROFIL
 10
5.1000000000892696
 20
130.49999999999989
 30
0.0
  0
VERTEX
  5
1AEF
  8
SAPA_PROFIL
 10
-2.3999999999325601
 20
130.49999999999989
 30
0.0
 42
0.4142135623733613
  0
VERTEX
  5
1AF0
  8
SAPA_PROFIL
 10
-3.3999999999325601
 20
129.49999999999889
 30
0.0
  0
VERTEX
  5
1AF1
  8
SAPA_PROFIL
 10
-3.3999999999107469
 20
71.550000001050051
 30
0.0
 42
0.4142135623783301
  0
VERTEX
  5
1AF2
  8
SAPA_PROFIL
 10
-3.099999999900553
 20
71.250000000144894
 30
0.0
  0
SEQEND
  5
1AF3
  8
SAPA_PROFIL
  0
POLYLINE
  5
15EB
  8
SAPA_PROFIL
 66
     1
 10
0.0
 20
0.0
 30
0.0
 70
     1
  0
VERTEX
  5
1AF4
  8
SAPA_PROFIL
 10
-3.6000000000899668
 20
-3.2000000009178389
 30
0.0
 42
0.4142135623753183
  0
VERTEX
  5
1AF5
  8
SAPA_PROFIL
 10
-3.300000000087064
 20
-3.5000000009198402
 30
0.0
  0
VERTEX
  5
1AF6
  8
SAPA_PROFIL
 10
28.099999999899829
 20
-3.5000000009230301
 30
0.0
 42
0.414213562373095
  0
VERTEX
  5
1AF7
  8
SAPA_PROFIL
 10
28.39999999990275
 20
-3.2000000009201202
 30
0.0
  0
VERTEX
  5
1AF8
  8
SAPA_PROFIL
 10
28.399999999900029
 20
17.19999999908087
 30
0.0
 42
0.4142135623730949
  0
VERTEX
  5
1AF9
  8
SAPA_PROFIL
 10
28.099999999899829
 20
17.499999999081069
 30
0.0
  0
VERTEX
  5
1AFA
  8
SAPA_PROFIL
 10
-3.299999999985193
 20
17.49999999908016
 30
0.0
 42
0.4142135623722209
  0
VERTEX
  5
1AFB
  8
SAPA_PROFIL
 10
-3.599999999988118
 20
17.199999999080859
 30
0.0
  0
SEQEND
  5
1AFC
  8
SAPA_PROFIL
  0
POLYLINE
  5
15EC
  8
SAPA_PROFIL
 66
     1
 10
0.0
 20
0.0
 30
0.0
 70
     1
  0
VERTEX
  5
1AFD
  8
SAPA_PROFIL
 10
26.79999999988965
 20
81.749999998949164
 30
0.0
 42
0.4142135623730956
  0
VERTEX
  5
1AFE
  8
SAPA_PROFIL
 10
26.499999999894008
 20
81.449999998948954
 30
0.0
  0
VERTEX
  5
1AFF
  8
SAPA_PROFIL
 10
26.499999999894008
 20
80.299999998947982
 30
0.0
 42
-0.4142135623730883
  0
VERTEX
  5
1B00
  8
SAPA_PROFIL
 10
26.199999999891119
 20
79.999999998945071
 30
0.0
  0
VERTEX
  5
1B01
  8
SAPA_PROFIL
 10
25.199999999883829
 20
79.999999998940069
 30
0.0
 42
-0.4663076581619016
  0
VERTEX
  5
1B02
  8
SAPA_PROFIL
 10
24.90455767398155
 20
80.352094452246646
 30
0.0
  0
VERTEX
  5
1B03
  8
SAPA_PROFIL
 10
25.41590591803422
 20
83.252094452249992
 30
0.0
 42
-0.3639702342658946
  0
VERTEX
  5
1B04
  8
SAPA_PROFIL
 10
25.711348243941291
 20
83.499999998952461
 30
0.0
  0
VERTEX
  5
1B05
  8
SAPA_PROFIL
 10
30.399999999895471
 20
83.499999998945043
 30
0.0
 42
-0.4142135623730951
  0
VERTEX
  5
1B06
  8
SAPA_PROFIL
 10
31.399999999895481
 20
82.499999998945029
 30
0.0
  0
VERTEX
  5
1B07
  8
SAPA_PROFIL
 10
31.39999999990275
 20
-7.0000000009189343
 30
0.0
 42
-0.4142135623732721
  0
VERTEX
  5
1B08
  8
SAPA_PROFIL
 10
29.89999999990275
 20
-8.5000000009198438
 30
0.0
  0
VERTEX
  5
1B09
  8
SAPA_PROFIL
 10
-5.1000000001045116
 20
-8.5000000009207497
 30
0.0
 42
-0.4142135623726523
  0
VERTEX
  5
1B0A
  8
SAPA_PROFIL
 10
-6.5999999997407279
 20
-7.0000338359030776
 30
0.0
  0
VERTEX
  5
1B0B
  8
SAPA_PROFIL
 10
-6.6000000000754149
 20
22.04999999999621
 30
0.0
 42
-0.4142135623784228
  0
VERTEX
  5
1B0C
  8
SAPA_PROFIL
 10
-6.4000000000783333
 20
22.24999999999919
 30
0.0
  0
VERTEX
  5
1B0D
  8
SAPA_PROFIL
 10
-5.4984872070167761
 20
22.250000000000121
 30
0.0
 42
-0.3981911081797195
  0
VERTEX
  5
1B0E
  8
SAPA_PROFIL
 10
-5.2987897656247371
 20
22.060996904186752
 30
0.0
 42
0.3661896282356551
  0
VERTEX
  5
1B0F
  8
SAPA_PROFIL
 10
-4.5891640867597197
 20
21.30996894470259
 30
0.0
 42
0.0279290488516223
  0
VERTEX
  5
1B10
  8
SAPA_PROFIL
 10
9.8999999999391282
 20
20.500000000000099
 30
0.0
  0
VERTEX
  5
1B11
  8
SAPA_PROFIL
 10
14.99999999994496
 20
20.500000000000121
 30
0.0
 42
0.4142135623706084
  0
VERTEX
  5
1B12
  8
SAPA_PROFIL
 10
17.999999999930392
 20
23.4999999999892
 30
0.0
 42
-0.4142135623712333
  0
VERTEX
  5
1B13
  8
SAPA_PROFIL
 10
18.999999999923119
 20
24.500000000158821
 30
0.0
  0
VERTEX
  5
1B14
  8
SAPA_PROFIL
 10
19.09999999989256
 20
24.499999999243869
 30
0.0
 42
-0.4142135623730986
  0
VERTEX
  5
1B15
  8
SAPA_PROFIL
 10
19.399999999895481
 20
24.199999999244142
 30
0.0
  0
VERTEX
  5
1B16
  8
SAPA_PROFIL
 10
19.39999999993913
 20
22.999999999990109
 30
0.0
 42
0.4142135623672388
  0
VERTEX
  5
1B17
  8
SAPA_PROFIL
 10
19.89999999993913
 20
22.500000000000121
 30
0.0
  0
VERTEX
  5
1B18
  8
SAPA_PROFIL
 10
27.399999999960961
 20
22.50000000000011
 30
0.0
 42
0.4142135623733613
  0
VERTEX
  5
1B19
  8
SAPA_PROFIL
 10
28.399999999960961
 20
23.500000000001009
 30
0.0
  0
VERTEX
  5
1B1A
  8
SAPA_PROFIL
 10
28.399999999939141
 20
81.449999998949949
 30
0.0
 42
0.4142135623783301
  0
VERTEX
  5
1B1B
  8
SAPA_PROFIL
 10
28.099999999928951
 20
81.749999999855106
 30
0.0
  0
SEQEND
  5
1B1C
  8
SAPA_PROFIL
  0
LINE
  5
164F
  8
SAPA_GLAS
 10
29.800000000028088
 20
87.250000000352074
 30
0.0
 11
29.800000000028088
 21
88.000000000365233
 31
0.0
  0
LINE
  5
1650
  8
SAPA_GLAS
 10
17.00000000001717
 20
88.000000000365205
 30
0.0
 11
17.00000000001636
 21
87.2500000003661
 31
0.0
  0
LINE
  5
1651
  8
SAPA_GLAS
 10
29.80000000002811
 20
130.75000000037869
 30
0.0
 11
29.80000000002811
 21
130.0000000003655
 31
0.0
  0
LINE
  5
1652
  8
SAPA_GLAS
 10
17.000000000017181
 20
130.0000000003655
 30
0.0
 11
17.000000000016371
 21
130.75000000036459
 31
0.0
  0
INSERT
  5
1653
  8
SAPA_GLAS
  6
CONTINUOUS
  2
*X58
 10
0.0
 20
0.0
 30
0.0
1001
ACAD
1000
HATCH
1002
{
1070
    19
1000
ANSI37
1040
0.25
1040
-0.0000000000000002
1000
R14_HATCH_DATA
1000
1653
1011
1.0
1021
-9.6416282655539417E+061
1031
-0.0
1021
0.0
1031
0.0
1011
0.0
1021
-9.6416282655539417E+061
1031
-0.0
1021
1.0
1031
0.0
1011
0.0
1021
-9.6416282655539417E+061
1031
-0.0
1021
0.0
1031
1.0
1040
0.0
1010
0.0
1020
0.0
1030
1.0
1000
ANSI37
1070
     0
1070
     0
1071
        1
1071
        7
1070
     0
1070
     1
1071
        4
1040
29.800000000028099
1040
87.250000000012619
1040
29.800000000028099
1040
88.000000000365205
1040
17.00000000001717
1040
88.000000000365205
1040
17.000000000016339
1040
87.250000000026645
1071
        0
1070
     0
1070
     1
1040
-0.0000000000000002
1040
0.25
1070
     0
1070
     2
1040
0.7853981633974481
1040
6.9241441477178958
1040
85.500000000390301
1040
-0.5612660075668219
1040
0.5612660075668222
1070
     0
1040
2.3561944901923439
1040
6.9241441477178958
1040
85.500000000390301
1040
-0.5612660075668222
1040
-0.5612660075668219
1070
     0
1040
0.0325758689756538
1071
        1
1040
22.23991049981808
1040
87.591681415607539
1040
0.0
1002
}
  0
INSERT
  5
1654
  8
SAPA_GLAS
  6
CONTINUOUS
  2
*X59
 10
0.0
 20
0.0
 30
0.0
1001
ACAD
1000
HATCH
1002
{
1070
    19
1000
ANSI37
1040
0.25
1040
-0.0000000000000002
1000
R14_HATCH_DATA
1000
1654
1011
1.0
1021
-9.6416282655539417E+061
1031
-0.0
1021
0.0
1031
0.0
1011
0.0
1021
-9.6416282655539417E+061
1031
-0.0
1021
1.0
1031
0.0
1011
0.0
1021
-9.6416282655539417E+061
1031
-0.0
1021
0.0
1031
1.0
1040
0.0
1010
0.0
1020
0.0
1030
1.0
1000
ANSI37
1070
     0
1070
     0
1071
        1
1071
        7
1070
     0
1070
     1
1071
        4
1040
29.80000000002811
1040
130.0000000003655
1040
29.80000000002811
1040
130.75000000037869
1040
17.000000000016371
1040
130.75000000036459
1040
17.000000000017181
1040
130.0000000003655
1071
        0
1070
     0
1070
     1
1040
-0.0000000000000002
1040
0.25
1070
     0
1070
     2
1040
0.7853981633974481
1040
6.9241441477178958
1040
85.500000000390301
1040
-0.5612660075668219
1040
0.5612660075668222
1070
     0
1040
2.3561944901923439
1040
6.9241441477178958
1040
85.500000000390301
1040
-0.5612660075668222
1040
-0.5612660075668219
1070
     0
1040
0.0230646099693014
1071
        1
1040
20.86842280473137
1040
130.34768564305821
1040
0.0
1002
}
  0
POLYLINE
  5
1655
  8
SAPA_GLAS
 66
     1
 10
0.0
 20
0.0
 30
0.0
  0
VERTEX
  5
1C0D
  8
SAPA_GLAS
 10
49.000000000017167
 20
88.000000000365205
 30
0.0
  0
VERTEX
  5
1C0E
  8
SAPA_GLAS
 10
17.00000000001717
 20
88.000000000365205
 30
0.0
  0
VERTEX
  5
1C0F
  8
SAPA_GLAS
 10
17.00000000001717
 20
94.000000000365205
 30
0.0
  0
VERTEX
  5
1C10
  8
SAPA_GLAS
 10
49.000000000017167
 20
94.000000000365205
 30
0.0
  0
SEQEND
  5
1C11
  8
SAPA_GLAS
  0
POLYLINE
  5
1656
  8
SAPA_GLAS
 66
     1
 10
0.0
 20
0.0
 30
0.0
  0
VERTEX
  5
1C12
  8
SAPA_GLAS
 10
27.000000000017199
 20
106.0000000003653
 30
0.0
  0
VERTEX
  5
1C13
  8
SAPA_GLAS
 10
27.000000000017192
 20
94.000000000365375
 30
0.0
  0
VERTEX
  5
1C14
  8
SAPA_GLAS
 10
17.00000000001717
 20
94.000000000365375
 30
0.0
  0
VERTEX
  5
1C15
  8
SAPA_GLAS
 10
17.000000000017199
 20
106.0000000003654
 30
0.0
  0
VERTEX
  5
1C16
  8
SAPA_GLAS
 10
27.000000000017199
 20
106.0000000003653
 30
0.0
  0
SEQEND
  5
1C17
  8
SAPA_GLAS
  0
POLYLINE
  5
1657
  8
SAPA_GLAS
 66
     1
 10
0.0
 20
0.0
 30
0.0
  0
VERTEX
  5
1C18
  8
SAPA_GLAS
 10
49.000000000017188
 20
106.0000000003653
 30
0.0
  0
VERTEX
  5
1C19
  8
SAPA_GLAS
 10
17.000000000017192
 20
106.0000000003653
 30
0.0
  0
VERTEX
  5
1C1A
  8
SAPA_GLAS
 10
17.000000000017192
 20
112.0000000003653
 30
0.0
  0
VERTEX
  5
1C1B
  8
SAPA_GLAS
 10
49.000000000017188
 20
112.0000000003653
 30
0.0
  0
SEQEND
  5
1C1C
  8
SAPA_GLAS
  0
POLYLINE
  5
1658
  8
SAPA_GLAS
 66
     1
 10
0.0
 20
0.0
 30
0.0
  0
VERTEX
  5
1C1D
  8
SAPA_GLAS
 10
27.00000000001722
 20
124.0000000003655
 30
0.0
  0
VERTEX
  5
1C1E
  8
SAPA_GLAS
 10
27.000000000017199
 20
112.0000000003655
 30
0.0
  0
VERTEX
  5
1C1F
  8
SAPA_GLAS
 10
17.000000000017192
 20
112.0000000003655
 30
0.0
  0
VERTEX
  5
1C20
  8
SAPA_GLAS
 10
17.00000000001722
 20
124.0000000003655
 30
0.0
  0
VERTEX
  5
1C21
  8
SAPA_GLAS
 10
27.00000000001722
 20
124.0000000003655
 30
0.0
  0
SEQEND
  5
1C22
  8
SAPA_GLAS
  0
POLYLINE
  5
1659
  8
SAPA_GLAS
 66
     1
 10
0.0
 20
0.0
 30
0.0
  0
VERTEX
  5
1C23
  8
SAPA_GLAS
 10
49.000000000017209
 20
130.0000000003655
 30
0.0
  0
VERTEX
  5
1C24
  8
SAPA_GLAS
 10
17.00000000001722
 20
130.0000000003655
 30
0.0
  0
VERTEX
  5
1C25
  8
SAPA_GLAS
 10
17.00000000001722
 20
124.0000000003655
 30
0.0
  0
VERTEX
  5
1C26
  8
SAPA_GLAS
 10
49.000000000017209
 20
124.0000000003655
 30
0.0
  0
SEQEND
  5
1C27
  8
SAPA_GLAS
  0
LINE
  5
165A
  8
SAPA_GLAS
 10
-4.7999999999994474
 20
65.749999999647798
 30
0.0
 11
-4.7999999999994474
 21
64.999999999634653
 31
0.0
  0
LINE
  5
165B
  8
SAPA_GLAS
 10
8.0000000000114788
 20
64.999999999634682
 30
0.0
 11
8.0000000000122888
 21
65.749999999633786
 31
0.0
  0
LINE
  5
165C
  8
SAPA_GLAS
 10
-4.7999999999994687
 20
22.24999999962121
 30
0.0
 11
-4.7999999999994678
 21
22.999999999634358
 31
0.0
  0
LINE
  5
165D
  8
SAPA_GLAS
 10
8.0000000000114557
 20
22.99999999963434
 30
0.0
 11
8.0000000000122657
 21
22.249999999635222
 31
0.0
  0
INSERT
  5
165E
  8
SAPA_GLAS
  6
CONTINUOUS
  2
*X60
 10
0.0
 20
0.0
 30
0.0
1001
ACAD
1000
HATCH
1002
{
1070
    19
1000
ANSI37
1040
0.25
1040
-3.1415926535897931
1000
R14_HATCH_DATA
1000
165E
1011
1.0
1021
-9.6416282655539417E+061
1031
-0.0
1021
0.0
1031
0.0
1011
0.0
1021
-9.6416282655539417E+061
1031
-0.0
1021
1.0
1031
0.0
1011
0.0
1021
-9.6416282655539417E+061
1031
-0.0
1021
0.0
1031
1.0
1040
0.0
1010
0.0
1020
0.0
1030
1.0
1000
ANSI37
1070
     0
1070
     0
1071
        1
1071
        7
1070
     0
1070
     1
1071
        4
1040
-4.7999999999994607
1040
65.749999999987267
1040
-4.7999999999994607
1040
64.999999999634682
1040
8.0000000000114788
1040
64.999999999634682
1040
8.000000000012303
1040
65.749999999973241
1071
        0
1070
     0
1070
     1
1040
-3.1415926535897931
1040
0.25
1070
     0
1070
     2
1040
3.9269908169872401
1040
18.075855852310749
1040
67.499999999609585
1040
0.5612660075668218
1040
-0.5612660075668224
1070
     0
1040
5.4977871437821371
1040
18.075855852310749
1040
67.499999999609585
1040
0.5612660075668224
1040
0.5612660075668218
1070
     0
1040
0.0325758689756538
1071
        1
1040
2.7600895002105639
1040
65.408318584392347
1040
0.0
1002
}
  0
INSERT
  5
165F
  8
SAPA_GLAS
  6
CONTINUOUS
  2
*X61
 10
0.0
 20
0.0
 30
0.0
1001
ACAD
1000
HATCH
1002
{
1070
    19
1000
ANSI37
1040
0.25
1040
-3.1415926535897931
1000
R14_HATCH_DATA
1000
165F
1011
1.0
1021
-9.6416282655539417E+061
1031
-0.0
1021
0.0
1031
0.0
1011
0.0
1021
-9.6416282655539417E+061
1031
-0.0
1021
1.0
1031
0.0
1011
0.0
1021
-9.6416282655539417E+061
1031
-0.0
1021
0.0
1031
1.0
1040
0.0
1010
0.0
1020
0.0
1030
1.0
1000
ANSI37
1070
     0
1070
     0
1071
        1
1071
        7
1070
     0
1070
     1
1071
        4
1040
-4.7999999999994678
1040
22.999999999634358
1040
-4.7999999999994687
1040
22.24999999962121
1040
8.0000000000122657
1040
22.249999999635222
1040
8.0000000000114557
1040
22.99999999963434
1071
        0
1070
     0
1070
     1
1040
-3.1415926535897931
1040
0.25
1070
     0
1070
     2
1040
3.9269908169872401
1040
18.075855852310749
1040
67.499999999609585
1040
0.5612660075668218
1040
-0.5612660075668224
1070
     0
1040
5.4977871437821371
1040
18.075855852310749
1040
67.499999999609585
1040
0.5612660075668224
1040
0.5612660075668218
1070
     0
1040
0.0230646099693014
1071
        1
1040
4.1315771952972691
1040
22.652314356941691
1040
0.0
1002
}
  0
POLYLINE
  5
1660
  8
SAPA_GLAS
 66
     1
 10
0.0
 20
0.0
 30
0.0
  0
VERTEX
  5
1C5E
  8
SAPA_GLAS
 10
-23.999999999988521
 20
64.999999999634696
 30
0.0
  0
VERTEX
  5
1C5F
  8
SAPA_GLAS
 10
8.000000000011477
 20
64.999999999634682
 30
0.0
  0
VERTEX
  5
1C60
  8
SAPA_GLAS
 10
8.0000000000114753
 20
58.999999999634682
 30
0.0
  0
VERTEX
  5
1C61
  8
SAPA_GLAS
 10
-23.999999999988521
 20
58.999999999634689
 30
0.0
  0
SEQEND
  5
1C62
  8
SAPA_GLAS
  0
POLYLINE
  5
1661
  8
SAPA_GLAS
 66
     1
 10
0.0
 20
0.0
 30
0.0
  0
VERTEX
  5
1C63
  8
SAPA_GLAS
 10
-1.9999999999885549
 20
46.999999999634518
 30
0.0
  0
VERTEX
  5
1C64
  8
SAPA_GLAS
 10
-1.9999999999885381
 20
58.999999999634511
 30
0.0
  0
VERTEX
  5
1C65
  8
SAPA_GLAS
 10
8.0000000000114753
 20
58.999999999634511
 30
0.0
  0
VERTEX
  5
1C66
  8
SAPA_GLAS
 10
8.0000000000114362
 20
46.999999999634511
 30
0.0
  0
VERTEX
  5
1C67
  8
SAPA_GLAS
 10
-1.9999999999885549
 20
46.999999999634518
 30
0.0
  0
SEQEND
  5
1C68
  8
SAPA_GLAS
  0
POLYLINE
  5
1662
  8
SAPA_GLAS
 66
     1
 10
0.0
 20
0.0
 30
0.0
  0
VERTEX
  5
1C69
  8
SAPA_GLAS
 10
-23.99999999998855
 20
46.999999999634532
 30
0.0
  0
VERTEX
  5
1C6A
  8
SAPA_GLAS
 10
8.0000000000114522
 20
46.999999999634511
 30
0.0
  0
VERTEX
  5
1C6B
  8
SAPA_GLAS
 10
8.0000000000114504
 20
40.999999999634511
 30
0.0
  0
VERTEX
  5
1C6C
  8
SAPA_GLAS
 10
-23.99999999998855
 20
40.999999999634532
 30
0.0
  0
SEQEND
  5
1C6D
  8
SAPA_GLAS
  0
POLYLINE
  5
1663
  8
SAPA_GLAS
 66
     1
 10
0.0
 20
0.0
 30
0.0
  0
VERTEX
  5
1C6E
  8
SAPA_GLAS
 10
-1.999999999988576
 20
28.999999999634369
 30
0.0
  0
VERTEX
  5
1C6F
  8
SAPA_GLAS
 10
-1.999999999988556
 20
40.999999999634362
 30
0.0
  0
VERTEX
  5
1C70
  8
SAPA_GLAS
 10
8.0000000000114504
 20
40.999999999634362
 30
0.0
  0
VERTEX
  5
1C71
  8
SAPA_GLAS
 10
8.0000000000114202
 20
28.99999999963434
 30
0.0
  0
VERTEX
  5
1C72
  8
SAPA_GLAS
 10
-1.999999999988576
 20
28.999999999634369
 30
0.0
  0
SEQEND
  5
1C73
  8
SAPA_GLAS
  0
POLYLINE
  5
1664
  8
SAPA_GLAS
 66
     1
 10
0.0
 20
0.0
 30
0.0
  0
VERTEX
  5
1C74
  8
SAPA_GLAS
 10
-23.99999999998856
 20
22.999999999634369
 30
0.0
  0
VERTEX
  5
1C75
  8
SAPA_GLAS
 10
8.0000000000114184
 20
22.99999999963434
 30
0.0
  0
VERTEX
  5
1C76
  8
SAPA_GLAS
 10
8.0000000000114202
 20
28.99999999963434
 30
0.0
  0
VERTEX
  5
1C77
  8
SAPA_GLAS
 10
-23.99999999998856
 20
28.999999999634369
 30
0.0
  0
SEQEND
  5
1C78
  8
SAPA_GLAS
  0
POLYLINE
  5
167D
  8
SAPA_FOGBAND
 66
     1
 10
0.0
 20
0.0
 30
0.0
 70
     1
  0
VERTEX
  5
1D17
  8
SAPA_FOGBAND
 10
8.6500000002329251
 20
71.750000000637485
 30
0.0
  0
VERTEX
  5
1D18
  8
SAPA_FOGBAND
 10
8.6500000002329251
 20
70.950000000637303
 30
0.0
  0
VERTEX
  5
1D19
  8
SAPA_FOGBAND
 10
2.3500000002358421
 20
70.950000000637303
 30
0.0
  0
VERTEX
  5
1D1A
  8
SAPA_FOGBAND
 10
2.3500000002358421
 20
71.750000000637485
 30
0.0
  0
SEQEND
  5
1D1B
  8
SAPA_FOGBAND
  0
POLYLINE
  5
167E
  8
SAPA_FOGBAND
 66
     1
 10
0.0
 20
0.0
 30
0.0
  0
VERTEX
  5
1D1C
  8
SAPA_FOGBAND
 10
3.9273103970933412
 20
70.950000000637303
 30
0.0
  0
VERTEX
  5
1D1D
  8
SAPA_FOGBAND
 10
2.8018637997774181
 20
67.500000000637485
 30
0.0
  0
VERTEX
  5
1D1E
  8
SAPA_FOGBAND
 10
5.2400018463259563
 20
67.500000000637485
 30
0.0
  0
VERTEX
  5
1D1F
  8
SAPA_FOGBAND
 10
5.3500000002329289
 20
70.950000000637303
 30
0.0
  0
SEQEND
  5
1D20
  8
SAPA_FOGBAND
  0
POLYLINE
  5
167F
  8
SAPA_FOGBAND
 66
     1
 10
0.0
 20
0.0
 30
0.0
  0
VERTEX
  5
1D21
  8
SAPA_FOGBAND
 10
5.4250000002336574
 20
70.950000000637303
 30
0.0
  0
VERTEX
  5
1D22
  8
SAPA_FOGBAND
 10
5.4250000002369312
 20
67.500000000637485
 30
0.0
  0
VERTEX
  5
1D23
  8
SAPA_FOGBAND
 10
5.575000000235117
 20
67.500000000637485
 30
0.0
  0
VERTEX
  5
1D24
  8
SAPA_FOGBAND
 10
5.5750000002351117
 20
70.950000000637303
 30
0.0
  0
SEQEND
  5
1D25
  8
SAPA_FOGBAND
  0
POLYLINE
  5
1680
  8
SAPA_FOGBAND
 66
     1
 10
0.0
 20
0.0
 30
0.0
  0
VERTEX
  5
1D26
  8
SAPA_FOGBAND
 10
5.6500000002358401
 20
70.950000000637303
 30
0.0
  0
VERTEX
  5
1D27
  8
SAPA_FOGBAND
 10
5.7599973854180853
 20
67.500000000637485
 30
0.0
  0
VERTEX
  5
1D28
  8
SAPA_FOGBAND
 10
8.1980907258402471
 20
67.500000000637485
 30
0.0
  0
VERTEX
  5
1D29
  8
SAPA_FOGBAND
 10
7.0726896033754283
 20
70.950000000637303
 30
0.0
  0
SEQEND
  5
1D2A
  8
SAPA_FOGBAND
  0
POLYLINE
  5
1681
  8
SAPA_FOGBAND
 66
     1
 10
0.0
 20
0.0
 30
0.0
 70
     1
  0
VERTEX
  5
1D2B
  8
SAPA_FOGBAND
 10
17.15000000024019
 20
71.750000000419192
 30
0.0
  0
VERTEX
  5
1D2C
  8
SAPA_FOGBAND
 10
17.15000000024019
 20
70.95000000041901
 30
0.0
  0
VERTEX
  5
1D2D
  8
SAPA_FOGBAND
 10
10.85000000024311
 20
70.95000000041901
 30
0.0
  0
VERTEX
  5
1D2E
  8
SAPA_FOGBAND
 10
10.85000000024311
 20
71.750000000419192
 30
0.0
  0
SEQEND
  5
1D2F
  8
SAPA_FOGBAND
  0
POLYLINE
  5
1682
  8
SAPA_FOGBAND
 66
     1
 10
0.0
 20
0.0
 30
0.0
  0
VERTEX
  5
1D30
  8
SAPA_FOGBAND
 10
12.42731039710061
 20
70.95000000041901
 30
0.0
  0
VERTEX
  5
1D31
  8
SAPA_FOGBAND
 10
11.301863799784689
 20
67.500000000419192
 30
0.0
  0
VERTEX
  5
1D32
  8
SAPA_FOGBAND
 10
13.74000184633322
 20
67.500000000419192
 30
0.0
  0
VERTEX
  5
1D33
  8
SAPA_FOGBAND
 10
13.8500000002402
 20
70.95000000041901
 30
0.0
  0
SEQEND
  5
1D34
  8
SAPA_FOGBAND
  0
POLYLINE
  5
1683
  8
SAPA_FOGBAND
 66
     1
 10
0.0
 20
0.0
 30
0.0
  0
VERTEX
  5
1D35
  8
SAPA_FOGBAND
 10
13.92500000024093
 20
70.95000000041901
 30
0.0
  0
VERTEX
  5
1D36
  8
SAPA_FOGBAND
 10
13.9250000002442
 20
67.500000000419192
 30
0.0
  0
VERTEX
  5
1D37
  8
SAPA_FOGBAND
 10
14.07500000024239
 20
67.500000000419192
 30
0.0
  0
VERTEX
  5
1D38
  8
SAPA_FOGBAND
 10
14.07500000024238
 20
70.95000000041901
 30
0.0
  0
SEQEND
  5
1D39
  8
SAPA_FOGBAND
  0
POLYLINE
  5
1684
  8
SAPA_FOGBAND
 66
     1
 10
0.0
 20
0.0
 30
0.0
  0
VERTEX
  5
1D3A
  8
SAPA_FOGBAND
 10
14.150000000243111
 20
70.95000000041901
 30
0.0
  0
VERTEX
  5
1D3B
  8
SAPA_FOGBAND
 10
14.259997385425351
 20
67.500000000419192
 30
0.0
  0
VERTEX
  5
1D3C
  8
SAPA_FOGBAND
 10
16.698090725847521
 20
67.500000000419192
 30
0.0
  0
VERTEX
  5
1D3D
  8
SAPA_FOGBAND
 10
15.572689603382701
 20
70.95000000041901
 30
0.0
  0
SEQEND
  5
1D3E
  8
SAPA_FOGBAND
  0
POLYLINE
  5
1685
  8
SAPA_FOGBAND
 66
     1
 10
0.0
 20
0.0
 30
0.0
  0
VERTEX
  5
1D3F
  8
SAPA_FOGBAND
 10
4.6208303352795133
 20
77.297572673611796
 30
0.0
 42
0.1756065992291647
  0
VERTEX
  5
1D40
  8
SAPA_FOGBAND
 10
4.6208303352513331
 20
83.705146618690705
 30
0.0
 42
0.8300903082441967
  0
VERTEX
  5
1D41
  8
SAPA_FOGBAND
 10
3.6547222710894989
 20
83.524195596247765
 30
0.0
 42
-0.7165953663226575
  0
VERTEX
  5
1D42
  8
SAPA_FOGBAND
 10
2.3198342691230751
 20
83.220386441342356
 30
0.0
  0
VERTEX
  5
1D43
  8
SAPA_FOGBAND
 10
2.253821233166204
 20
83.296341408903345
 30
0.0
 42
0.6937624830513327
  0
VERTEX
  5
1D44
  8
SAPA_FOGBAND
 10
0.850000000658392
 20
82.771555815375535
 30
0.0
  0
VERTEX
  5
1D45
  8
SAPA_FOGBAND
 10
0.8500000006578725
 20
78.228444186122118
 30
0.0
 42
0.6937624830479733
  0
VERTEX
  5
1D46
  8
SAPA_FOGBAND
 10
2.253821233165004
 20
77.703658592592134
 30
0.0
  0
VERTEX
  5
1D47
  8
SAPA_FOGBAND
 10
2.3198342691244669
 20
77.779613560156676
 30
0.0
 42
-0.7165953663226584
  0
VERTEX
  5
1D48
  8
SAPA_FOGBAND
 10
3.654722270927016
 20
77.475804405099169
 30
0.0
 42
0.8300903082441981
  0
VERTEX
  5
1D49
  8
SAPA_FOGBAND
 10
4.6208303350791224
 20
77.294853382604344
 30
0.0
  0
SEQEND
  5
1D4A
  8
SAPA_FOGBAND
  0
POLYLINE
  5
1686
  8
SAPA_FOGBAND
 66
     1
 10
0.0
 20
0.0
 30
0.0
  0
VERTEX
  5
1D4B
  8
SAPA_FOGBAND
 10
5.2348396318287289
 20
76.946651725677654
 30
0.0
 42
0.1824613590943247
  0
VERTEX
  5
1D4C
  8
SAPA_FOGBAND
 10
5.234839631804876
 20
84.05606756661399
 30
0.0
 42
0.7211296999228974
  0
VERTEX
  5
1D4D
  8
SAPA_FOGBAND
 10
3.3406601382505761
 20
83.940944129233685
 30
0.0
  0
VERTEX
  5
1D4E
  8
SAPA_FOGBAND
 10
3.215046281304291
 20
83.646951193270553
 30
0.0
 42
-0.5666398931998444
  0
VERTEX
  5
1D4F
  8
SAPA_FOGBAND
 10
2.8933202805002498
 20
83.527638591436556
 30
0.0
  0
VERTEX
  5
1D50
  8
SAPA_FOGBAND
 10
2.3114312837128188
 20
83.994284359215897
 30
0.0
  0
VERTEX
  5
1D51
  8
SAPA_FOGBAND
 10
2.511431283709507
 20
85.550000000756484
 30
0.0
  0
VERTEX
  5
1D52
  8
SAPA_FOGBAND
 10
1.212876662785314
 20
84.355752227151143
 30
0.0
 42
-0.5406355956263407
  0
VERTEX
  5
1D53
  8
SAPA_FOGBAND
 10
0.7261686607874403
 20
84.478822508220745
 30
0.0
  0
VERTEX
  5
1D54
  8
SAPA_FOGBAND
 10
0.3880258078956284
 20
85.460024856328147
 30
0.0
  0
VERTEX
  5
1D55
  8
SAPA_FOGBAND
 10
-0.6419787583756582
 20
83.774532900089497
 30
0.0
 42
0.1434356650195011
  0
VERTEX
  5
1D56
  8
SAPA_FOGBAND
 10
-0.7999999993527789
 20
83.235022224239685
 30
0.0
  0
VERTEX
  5
1D57
  8
SAPA_FOGBAND
 10
-0.7999999993411376
 20
80.500000000737685
 30
0.0
  0
VERTEX
  5
1D58
  8
SAPA_FOGBAND
 10
-0.7999999993411402
 20
78.067914395200503
 30
0.0
  0
VERTEX
  5
1D59
  8
SAPA_FOGBAND
 10
-0.7999999993414529
 20
77.911982440103642
 30
0.0
  0
VERTEX
  5
1D5A
  8
SAPA_FOGBAND
 10
-0.7999999993411402
 20
77.764977777237334
 30
0.0
 42
0.1434356650195009
  0
VERTEX
  5
1D5B
  8
SAPA_FOGBAND
 10
-0.6419787583617227
 20
77.225467101387281
 30
0.0
  0
VERTEX
  5
1D5C
  8
SAPA_FOGBAND
 10
0.3880258079167369
 20
75.539975145152482
 30
0.0
  0
VERTEX
  5
1D5D
  8
SAPA_FOGBAND
 10
0.7261686608043725
 20
76.521177493262414
 30
0.0
 42
-0.5891605766439352
  0
VERTEX
  5
1D5E
  8
SAPA_FOGBAND
 10
1.212876662801722
 20
76.644247774332243
 30
0.0
  0
VERTEX
  5
1D5F
  8
SAPA_FOGBAND
 10
2.5114312837106239
 20
75.450000000741923
 30
0.0
  0
VERTEX
  5
1D60
  8
SAPA_FOGBAND
 10
2.3114312837131359
 20
77.005715642282382
 30
0.0
  0
VERTEX
  5
1D61
  8
SAPA_FOGBAND
 10
2.8933202803375742
 20
77.472361409951318
 30
0.0
 42
-0.5666398931998447
  0
VERTEX
  5
1D62
  8
SAPA_FOGBAND
 10
3.2150462811352041
 20
77.353048808100041
 30
0.0
  0
VERTEX
  5
1D63
  8
SAPA_FOGBAND
 10
3.3406601380656959
 20
77.059055872130145
 30
0.0
 42
0.7211296999228983
  0
VERTEX
  5
1D64
  8
SAPA_FOGBAND
 10
5.2348396316138039
 20
76.943932434648062
 30
0.0
  0
SEQEND
  5
1D65
  8
SAPA_FOGBAND
  0
POLYLINE
  5
1687
  8
SAPA_FOGBAND
 66
     1
 10
0.0
 20
0.0
 30
0.0
 70
     1
  0
VERTEX
  5
1D66
  8
SAPA_FOGBAND
 10
16.349999999795461
 20
81.249999999362515
 30
0.0
  0
VERTEX
  5
1D67
  8
SAPA_FOGBAND
 10
16.349999999795461
 20
82.049999999362683
 30
0.0
  0
VERTEX
  5
1D68
  8
SAPA_FOGBAND
 10
22.649999999792541
 20
82.049999999362683
 30
0.0
  0
VERTEX
  5
1D69
  8
SAPA_FOGBAND
 10
22.649999999792541
 20
81.249999999362515
 30
0.0
  0
SEQEND
  5
1D6A
  8
SAPA_FOGBAND
  0
POLYLINE
  5
1688
  8
SAPA_FOGBAND
 66
     1
 10
0.0
 20
0.0
 30
0.0
  0
VERTEX
  5
1D6B
  8
SAPA_FOGBAND
 10
21.072689602935039
 20
82.049999999362683
 30
0.0
  0
VERTEX
  5
1D6C
  8
SAPA_FOGBAND
 10
22.198136200250961
 20
85.499999999362515
 30
0.0
  0
VERTEX
  5
1D6D
  8
SAPA_FOGBAND
 10
19.759998153702419
 20
85.499999999362515
 30
0.0
  0
VERTEX
  5
1D6E
  8
SAPA_FOGBAND
 10
19.649999999795451
 20
82.049999999362683
 30
0.0
  0
SEQEND
  5
1D6F
  8
SAPA_FOGBAND
  0
POLYLINE
  5
1689
  8
SAPA_FOGBAND
 66
     1
 10
0.0
 20
0.0
 30
0.0
  0
VERTEX
  5
1D70
  8
SAPA_FOGBAND
 10
19.574999999794731
 20
82.049999999362683
 30
0.0
  0
VERTEX
  5
1D71
  8
SAPA_FOGBAND
 10
19.574999999791451
 20
85.499999999362515
 30
0.0
  0
VERTEX
  5
1D72
  8
SAPA_FOGBAND
 10
19.424999999793261
 20
85.499999999362515
 30
0.0
  0
VERTEX
  5
1D73
  8
SAPA_FOGBAND
 10
19.424999999793268
 20
82.049999999362683
 30
0.0
  0
SEQEND
  5
1D74
  8
SAPA_FOGBAND
  0
POLYLINE
  5
168A
  8
SAPA_FOGBAND
 66
     1
 10
0.0
 20
0.0
 30
0.0
  0
VERTEX
  5
1D75
  8
SAPA_FOGBAND
 10
19.349999999792541
 20
82.049999999362683
 30
0.0
  0
VERTEX
  5
1D76
  8
SAPA_FOGBAND
 10
19.240002614610301
 20
85.499999999362515
 30
0.0
  0
VERTEX
  5
1D77
  8
SAPA_FOGBAND
 10
16.80190927418813
 20
85.499999999362515
 30
0.0
  0
VERTEX
  5
1D78
  8
SAPA_FOGBAND
 10
17.927310396652949
 20
82.049999999362683
 30
0.0
  0
SEQEND
  5
1D79
  8
SAPA_FOGBAND
  0
POLYLINE
  5
168B
  8
SAPA_FOGBAND
 66
     1
 10
0.0
 20
0.0
 30
0.0
 70
     1
  0
VERTEX
  5
1D7A
  8
SAPA_FOGBAND
 10
7.8499999997881806
 20
81.249999999580808
 30
0.0
  0
VERTEX
  5
1D7B
  8
SAPA_FOGBAND
 10
7.8499999997881806
 20
82.04999999958099
 30
0.0
  0
VERTEX
  5
1D7C
  8
SAPA_FOGBAND
 10
14.14999999978526
 20
82.04999999958099
 30
0.0
  0
VERTEX
  5
1D7D
  8
SAPA_FOGBAND
 10
14.14999999978526
 20
81.249999999580808
 30
0.0
  0
SEQEND
  5
1D7E
  8
SAPA_FOGBAND
  0
POLYLINE
  5
168C
  8
SAPA_FOGBAND
 66
     1
 10
0.0
 20
0.0
 30
0.0
  0
VERTEX
  5
1D7F
  8
SAPA_FOGBAND
 10
12.57268960292776
 20
82.04999999958099
 30
0.0
  0
VERTEX
  5
1D80
  8
SAPA_FOGBAND
 10
13.69813620024369
 20
85.499999999580794
 30
0.0
  0
VERTEX
  5
1D81
  8
SAPA_FOGBAND
 10
11.25999815369515
 20
85.499999999580794
 30
0.0
  0
VERTEX
  5
1D82
  8
SAPA_FOGBAND
 10
11.14999999978818
 20
82.04999999958099
 30
0.0
  0
SEQEND
  5
1D83
  8
SAPA_FOGBAND
  0
POLYLINE
  5
168D
  8
SAPA_FOGBAND
 66
     1
 10
0.0
 20
0.0
 30
0.0
  0
VERTEX
  5
1D84
  8
SAPA_FOGBAND
 10
11.074999999787449
 20
82.04999999958099
 30
0.0
  0
VERTEX
  5
1D85
  8
SAPA_FOGBAND
 10
11.074999999784181
 20
85.499999999580794
 30
0.0
  0
VERTEX
  5
1D86
  8
SAPA_FOGBAND
 10
10.924999999785991
 20
85.499999999580794
 30
0.0
  0
VERTEX
  5
1D87
  8
SAPA_FOGBAND
 10
10.924999999785991
 20
82.04999999958099
 30
0.0
  0
SEQEND
  5
1D88
  8
SAPA_FOGBAND
  0
POLYLINE
  5
168E
  8
SAPA_FOGBAND
 66
     1
 10
0.0
 20
0.0
 30
0.0
  0
VERTEX
  5
1D89
  8
SAPA_FOGBAND
 10
10.84999999978527
 20
82.04999999958099
 30
0.0
  0
VERTEX
  5
1D8A
  8
SAPA_FOGBAND
 10
10.74000261460302
 20
85.499999999580794
 30
0.0
  0
VERTEX
  5
1D8B
  8
SAPA_FOGBAND
 10
8.3019092741808596
 20
85.499999999580794
 30
0.0
  0
VERTEX
  5
1D8C
  8
SAPA_FOGBAND
 10
9.4273103966456802
 20
82.04999999958099
 30
0.0
  0
SEQEND
  5
1D8D
  8
SAPA_FOGBAND
  0
POLYLINE
  5
168F
  8
SAPA_FOGBAND
 66
     1
 10
0.0
 20
0.0
 30
0.0
  0
VERTEX
  5
1D8E
  8
SAPA_FOGBAND
 10
20.379169664748868
 20
75.702427326388204
 30
0.0
 42
0.1756065992291647
  0
VERTEX
  5
1D8F
  8
SAPA_FOGBAND
 10
20.379169664777049
 20
69.294853381309295
 30
0.0
 42
0.8300903082441967
  0
VERTEX
  5
1D90
  8
SAPA_FOGBAND
 10
21.345277728938878
 20
69.47580440375225
 30
0.0
 42
-0.7165953663226575
  0
VERTEX
  5
1D91
  8
SAPA_FOGBAND
 10
22.680165730905301
 20
69.77961355865763
 30
0.0
  0
VERTEX
  5
1D92
  8
SAPA_FOGBAND
 10
22.746178766862169
 20
69.703658591096655
 30
0.0
 42
0.6937624830513327
  0
VERTEX
  5
1D93
  8
SAPA_FOGBAND
 10
24.149999999369989
 20
70.22844418462445
 30
0.0
  0
VERTEX
  5
1D94
  8
SAPA_FOGBAND
 10
24.149999999370511
 20
74.771555813877882
 30
0.0
 42
0.6937624830479733
  0
VERTEX
  5
1D95
  8
SAPA_FOGBAND
 10
22.74617876686338
 20
75.296341407407866
 30
0.0
  0
VERTEX
  5
1D96
  8
SAPA_FOGBAND
 10
22.680165730903909
 20
75.220386439843324
 30
0.0
 42
-0.7165953663226584
  0
VERTEX
  5
1D97
  8
SAPA_FOGBAND
 10
21.345277729101369
 20
75.524195594900831
 30
0.0
 42
0.8300903082441981
  0
VERTEX
  5
1D98
  8
SAPA_FOGBAND
 10
20.379169664949259
 20
75.70514661739567
 30
0.0
  0
SEQEND
  5
1D99
  8
SAPA_FOGBAND
  0
POLYLINE
  5
1690
  8
SAPA_FOGBAND
 66
     1
 10
0.0
 20
0.0
 30
0.0
  0
VERTEX
  5
1D9A
  8
SAPA_FOGBAND
 10
19.765160368199648
 20
76.053348274322346
 30
0.0
 42
0.1824613590943247
  0
VERTEX
  5
1D9B
  8
SAPA_FOGBAND
 10
19.765160368223501
 20
68.94393243338601
 30
0.0
 42
0.7211296999228974
  0
VERTEX
  5
1D9C
  8
SAPA_FOGBAND
 10
21.659339861777799
 20
69.059055870766315
 30
0.0
  0
VERTEX
  5
1D9D
  8
SAPA_FOGBAND
 10
21.78495371872409
 20
69.353048806729447
 30
0.0
 42
-0.5666398931998444
  0
VERTEX
  5
1D9E
  8
SAPA_FOGBAND
 10
22.106679719528131
 20
69.472361408563444
 30
0.0
  0
VERTEX
  5
1D9F
  8
SAPA_FOGBAND
 10
22.688568716315562
 20
69.005715640784103
 30
0.0
  0
VERTEX
  5
1DA0
  8
SAPA_FOGBAND
 10
22.48856871631887
 20
67.449999999243516
 30
0.0
  0
VERTEX
  5
1DA1
  8
SAPA_FOGBAND
 10
23.78712333724307
 20
68.644247772848843
 30
0.0
 42
-0.5406355956263407
  0
VERTEX
  5
1DA2
  8
SAPA_FOGBAND
 10
24.273831339240939
 20
68.52117749177927
 30
0.0
  0
VERTEX
  5
1DA3
  8
SAPA_FOGBAND
 10
24.611974192132749
 20
67.539975143671853
 30
0.0
  0
VERTEX
  5
1DA4
  8
SAPA_FOGBAND
 10
25.64197875840404
 20
69.225467099910503
 30
0.0
 42
0.1434356650195011
  0
VERTEX
  5
1DA5
  8
SAPA_FOGBAND
 10
25.799999999381161
 20
69.764977775760315
 30
0.0
  0
VERTEX
  5
1DA6
  8
SAPA_FOGBAND
 10
25.799999999369518
 20
72.499999999262315
 30
0.0
  0
VERTEX
  5
1DA7
  8
SAPA_FOGBAND
 10
25.799999999369518
 20
74.932085604799482
 30
0.0
  0
VERTEX
  5
1DA8
  8
SAPA_FOGBAND
 10
25.799999999369842
 20
75.088017559896358
 30
0.0
  0
VERTEX
  5
1DA9
  8
SAPA_FOGBAND
 10
25.799999999369518
 20
75.235022222762666
 30
0.0
 42
0.1434356650195009
  0
VERTEX
  5
1DAA
  8
SAPA_FOGBAND
 10
25.641978758390099
 20
75.774532898612719
 30
0.0
  0
VERTEX
  5
1DAB
  8
SAPA_FOGBAND
 10
24.611974192111649
 20
77.460024854847504
 30
0.0
  0
VERTEX
  5
1DAC
  8
SAPA_FOGBAND
 10
24.27383133922401
 20
76.478822506737586
 30
0.0
 42
-0.5891605766439352
  0
VERTEX
  5
1DAD
  8
SAPA_FOGBAND
 10
23.78712333722666
 20
76.355752225667743
 30
0.0
  0
VERTEX
  5
1DAE
  8
SAPA_FOGBAND
 10
22.488568716317761
 20
77.549999999258077
 30
0.0
  0
VERTEX
  5
1DAF
  8
SAPA_FOGBAND
 10
22.688568716315249
 20
75.994284357717618
 30
0.0
  0
VERTEX
  5
1DB0
  8
SAPA_FOGBAND
 10
22.10667971969081
 20
75.527638590048682
 30
0.0
 42
-0.5666398931998447
  0
VERTEX
  5
1DB1
  8
SAPA_FOGBAND
 10
21.784953718893181
 20
75.646951191899959
 30
0.0
  0
VERTEX
  5
1DB2
  8
SAPA_FOGBAND
 10
21.659339861962678
 20
75.940944127869855
 30
0.0
 42
0.7211296999228983
  0
VERTEX
  5
1DB3
  8
SAPA_FOGBAND
 10
19.76516036841458
 20
76.056067565351938
 30
0.0
  0
SEQEND
  5
1DB4
  8
SAPA_FOGBAND
  0
DIMENSION
  5
169A
  8
SAPA_MATT
  2
*D32
 10
-6.3999999998743453
 20
181.50000000092049
 30
0.0
 11
12.599999999947389
 21
184.25000000092049
 31
0.0
 70
     0
 13
31.599999999769128
 23
160.00003383590311
 33
0.0
 14
-6.3999999998743462
 24
160.0000000009189
 34
0.0
 50
180.0
1001
ACAD
1000
DSTYLE
1002
{
1070
    40
1040
1.0
1002
}
  0
DIMENSION
  5
169B
  8
SAPA_MATT
  2
*D31
 10
-56.000000000000178
 20
-8.5000000009207355
 30
0.0
 11
-56.000000000000171
 21
76.499999999999545
 31
0.0
 70
   128
 13
-4.8999999998743462
 23
161.50000000091981
 33
0.0
 14
-5.1000000001045116
 24
-8.5000000009207497
 34
0.0
 50
270.0
1001
ACAD
1000
DSTYLE
1002
{
1070
    40
1040
1.0
1002
}
  0
DIMENSION
  5
169C
  8
SAPA_MATT
  2
*D30
 10
-44.000000000000192
 20
-8.500000000920739
 30
0.0
 11
-44.000000000000192
 21
5.9999999995789892
 31
0.0
 70
   128
 13
10.00000000017449
 23
20.5000000000787
 33
0.0
 14
-5.1000000001045116
 24
-8.5000000009207497
 34
0.0
 50
270.0
1001
ACAD
1000
DSTYLE
1002
{
1070
   287
1070
     4
1070
    40
1040
1.0
1070
   279
1070
     1
1002
}
  0
DIMENSION
  5
169D
  8
SAPA_MATT
  2
*D29
 10
-44.000000000000213
 20
20.500000000078721
 30
0.0
 11
-46.75000000000022
 21
43.999999999732843
 31
0.0
 70
     0
 13
10.000000000174451
 23
67.499999999387001
 33
0.0
 14
10.00000000017449
 24
20.5000000000787
 34
0.0
 50
270.0
1001
ACAD
1000
DSTYLE
1002
{
1070
   287
1070
     4
1070
    40
1040
1.0
1070
   279
1070
     1
1002
}
  0
DIMENSION
  5
169E
  8
SAPA_MATT
  2
*D28
 10
-44.000000000000192
 20
67.499999999387015
 30
0.0
 11
-44.000000000000192
 21
114.50000000015341
 31
0.0
 70
   128
 13
-4.8999999998743462
 23
161.50000000091981
 33
0.0
 14
10.000000000174451
 24
67.499999999387001
 34
0.0
 50
270.0
1001
ACAD
1000
DSTYLE
1002
{
1070
    40
1040
1.0
1002
}
  0
VIEWPORT
  5
C4
 67
     1
  8
0
 10
160.5543545598442
 20
116.00969601843509
 30
0.0
 40
404.96977709277462
 41
256.8421457311839
 68
     1
 69
     1
1001
ACAD
1000
MVIEW
1002
{
1070
    16
1010
0.0
1020
0.0
1030
0.0
1010
0.0
1020
0.0
1030
1.0
1040
0.0
1040
256.8421457311839
1040
99.206250190734863
1040
130.70624923706049
1040
50.0
1040
0.0
1040
0.0
1070
     0
1070
     0
1070
     1
1070
     1
1070
     0
1070
     0
1070
     0
1070
     0
1040
0.0
1040
0.0
1040
0.0
1040
10.0
1040
10.0
1040
10.0
1040
10.0
1070
     0
1002
{
1002
}
1002
}
  0
ENDSEC
  0
EOF
