  0
SECTION
  2
HEADER
  9
$ACADVER
  1
AC1009
  9
$INSBASE
 10
0.0
 20
0.0
 30
0.0
  9
$EXTMIN
 10
-37.249999999999957
 20
-30.619466477045759
 30
-0.2
  9
$EXTMAX
 10
104.7553653089505
 20
194.0032559344132
 30
0.0000000048844772
  9
$LIMMIN
 10
0.0
 20
0.0
  9
$LIMMAX
 10
790.0
 20
790.0
  9
$ORTHOMODE
 70
     1
  9
$REGENMODE
 70
     1
  9
$FILLMODE
 70
     1
  9
$QTEXTMODE
 70
     0
  9
$MIRRTEXT
 70
     1
  9
$DRAGMODE
 70
     2
  9
$LTSCALE
 40
4.0
  9
$OSMODE
 70
   167
  9
$ATTMODE
 70
     1
  9
$TEXTSIZE
 40
3.5
  9
$TRACEWID
 40
0.05
  9
$TEXTSTYLE
  7
ISO
  9
$CLAYER
  8
0
  9
$CELTYPE
  6
BYLAYER
  9
$CECOLOR
 62
   256
  9
$DIMSCALE
 40
0.0
  9
$DIMASZ
 40
3.0
  9
$DIMEXO
 40
1.5
  9
$DIMDLI
 40
10.0
  9
$DIMRND
 40
0.0
  9
$DIMDLE
 40
0.0
  9
$DIMEXE
 40
1.5
  9
$DIMTP
 40
0.0
  9
$DIMTM
 40
0.0
  9
$DIMTXT
 40
3.5
  9
$DIMCEN
 40
-5.0
  9
$DIMTSZ
 40
0.0
  9
$DIMTOL
 70
     0
  9
$DIMLIM
 70
     0
  9
$DIMTIH
 70
     0
  9
$DIMTOH
 70
     0
  9
$DIMSE1
 70
     0
  9
$DIMSE2
 70
     0
  9
$DIMTAD
 70
     1
  9
$DIMZIN
 70
     8
  9
$DIMBLK
  1

  9
$DIMASO
 70
     1
  9
$DIMSHO
 70
     1
  9
$DIMPOST
  1

  9
$DIMAPOST
  1

  9
$DIMALT
 70
     0
  9
$DIMALTD
 70
     0
  9
$DIMALTF
 40
25.399999999999999
  9
$DIMLFAC
 40
-1.0
  9
$DIMTOFL
 70
     1
  9
$DIMTVP
 40
0.0
  9
$DIMTIX
 70
     0
  9
$DIMSOXD
 70
     0
  9
$DIMSAH
 70
     0
  9
$DIMBLK1
  1

  9
$DIMBLK2
  1

  9
$DIMSTYLE
  2
MASKIN
  9
$DIMCLRD
 70
   256
  9
$DIMCLRE
 70
   256
  9
$DIMCLRT
 70
     2
  9
$DIMTFAC
 40
1.0
  9
$DIMGAP
 40
1.0
  9
$LUNITS
 70
     2
  9
$LUPREC
 70
     8
  9
$SKETCHINC
 40
0.1
  9
$FILLETRAD
 40
0.0
  9
$AUNITS
 70
     0
  9
$AUPREC
 70
     8
  9
$MENU
  1
ACAD
  9
$ELEVATION
 40
0.0
  9
$PELEVATION
 40
0.0
  9
$THICKNESS
 40
0.0
  9
$LIMCHECK
 70
     0
  9
$BLIPMODE
 70
     0
  9
$CHAMFERA
 40
0.0
  9
$CHAMFERB
 40
0.0
  9
$SKPOLY
 70
     0
  9
$TDCREATE
 40
2455734.518348461
  9
$TDUPDATE
 40
2455994.498563542
  9
$TDINDWG
 40
3.0264784144000001
  9
$TDUSRTIMER
 40
3.0264782291999999
  9
$USRTIMER
 70
     1
  9
$ANGBASE
 50
0.0
  9
$ANGDIR
 70
     0
  9
$PDMODE
 70
     0
  9
$PDSIZE
 40
0.0
  9
$PLINEWID
 40
0.0
  9
$COORDS
 70
     1
  9
$SPLFRAME
 70
     0
  9
$SPLINETYPE
 70
     6
  9
$SPLINESEGS
 70
     8
  9
$ATTDIA
 70
     0
  9
$ATTREQ
 70
     1
  9
$HANDLING
 70
     1
  9
$HANDSEED
  5
19E7
  9
$SURFTAB1
 70
     6
  9
$SURFTAB2
 70
     6
  9
$SURFTYPE
 70
     6
  9
$SURFU
 70
     6
  9
$SURFV
 70
     6
  9
$UCSNAME
  2

  9
$UCSORG
 10
0.0
 20
0.0
 30
0.0
  9
$UCSXDIR
 10
1.0
 20
0.0
 30
0.0
  9
$UCSYDIR
 10
0.0
 20
1.0
 30
0.0
  9
$PUCSNAME
  2

  9
$PUCSORG
 10
0.0
 20
0.0
 30
0.0
  9
$PUCSXDIR
 10
1.0
 20
0.0
 30
0.0
  9
$PUCSYDIR
 10
0.0
 20
1.0
 30
0.0
  9
$USERI1
 70
     0
  9
$USERI2
 70
     0
  9
$USERI3
 70
     0
  9
$USERI4
 70
     0
  9
$USERI5
 70
     0
  9
$USERR1
 40
0.0
  9
$USERR2
 40
0.0
  9
$USERR3
 40
0.0
  9
$USERR4
 40
0.0
  9
$USERR5
 40
0.0
  9
$WORLDVIEW
 70
     1
  9
$SHADEDGE
 70
     3
  9
$SHADEDIF
 70
    70
  9
$TILEMODE
 70
     1
  9
$MAXACTVP
 70
    16
  9
$PLIMCHECK
 70
     0
  9
$PEXTMIN
 10
1.0000000000000000E+020
 20
1.0000000000000000E+020
 30
1.0000000000000000E+020
  9
$PEXTMAX
 10
-1.0000000000000000E+020
 20
-1.0000000000000000E+020
 30
-1.0000000000000000E+020
  9
$PLIMMIN
 10
-5.069427490234375
 20
-5.8737497329711914
  9
$PLIMMAX
 10
291.89889526367187
 20
204.0995779037475
  9
$UNITMODE
 70
     0
  9
$VISRETAIN
 70
     1
  9
$PLINEGEN
 70
     0
  9
$PSLTSCALE
 70
     1
  0
ENDSEC
  0
SECTION
  2
TABLES
  0
TABLE
  2
VPORT
 70
     1
  0
VPORT
  2
*ACTIVE
 70
     0
 10
0.0
 20
0.0
 11
1.0
 21
1.0
 12
37.310075770329973
 22
141.87597267186979
 13
0.0
 23
0.0
 14
1.0
 24
1.0
 15
0.0
 25
0.0
 16
0.0
 26
0.0
 36
1.0
 17
0.0
 27
0.0
 37
0.0
 40
225.46698890861899
 41
2.37391304347826
 42
50.0
 43
0.0
 44
0.0
 50
0.0
 51
0.0
 71
     0
 72
   100
 73
     1
 74
     1
 75
     0
 76
     0
 77
     0
 78
     0
  0
ENDTAB
  0
TABLE
  2
LTYPE
 70
     4
  0
LTYPE
  2
CONTINUOUS
 70
     0
  3
Solid line
 72
    65
 73
     0
 40
0.0
  0
LTYPE
  2
BYGG-027390$0$NEWDOT
 70
     0
  3
____ . ____ . ____ . ____ . ____ . ____ . ____
 72
    65
 73
     4
 40
2.0
 49
1.0
 49
-0.5
 49
0.0
 49
-0.5
  0
LTYPE
  2
BYGG-027368$0$NEWDOT
 70
     0
  3
____ . ____ . ____ . ____ . ____ . ____ . ____
 72
    65
 73
     4
 40
2.0
 49
1.0
 49
-0.5
 49
0.0
 49
-0.5
  0
LTYPE
  2
BYGG-027385$0$NEWDOT
 70
     0
  3
____ . ____ . ____ . ____ . ____ . ____ . ____
 72
    65
 73
     4
 40
2.0
 49
1.0
 49
-0.5
 49
0.0
 49
-0.5
  0
ENDTAB
  0
TABLE
  2
LAYER
 70
    35
  0
LAYER
  2
0
 70
     0
 62
     7
  6
CONTINUOUS
  0
LAYER
  2
DEFPOINTS
 70
     0
 62
     7
  6
CONTINUOUS
  0
LAYER
  2
SAPA_ARTIKELNR
 70
     0
 62
     4
  6
CONTINUOUS
  0
LAYER
  2
SAPA_GLAS
 70
     0
 62
     4
  6
CONTINUOUS
  0
LAYER
  2
SAPA_ANSLUTNING
 70
     0
 62
     6
  6
CONTINUOUS
  0
LAYER
  2
SAPA_MATT
 70
     0
 62
     1
  6
CONTINUOUS
  0
LAYER
  2
SAPA_FOGBAND
 70
     0
 62
     2
  6
CONTINUOUS
  0
LAYER
  2
SAPA_PROFIL
 70
     0
 62
     7
  6
CONTINUOUS
  0
ENDTAB
  0
TABLE
  2
STYLE
 70
    16
  0
STYLE
  2
STANDARD
 70
     0
 40
0.0
 41
1.0
 50
0.0
 71
     0
 42
0.2
  3
txt
  4

  0
STYLE
  2
ISO
 70
     0
 40
0.0
 41
1.0
 50
0.0
 71
     0
 42
3.5
  3
txt
  4

  0
STYLE
  2
BYGG-027392$0$STANDARD
 70
     0
 40
0.0
 41
1.0
 50
0.0
 71
     0
 42
0.2
  3
txt
  4

  0
STYLE
  2
BYGG-027392$0$ISO
 70
     0
 40
0.0
 41
1.0
 50
0.0
 71
     0
 42
3.5
  3
txt
  4

  0
STYLE
  2
BYGG-027457$0$STANDARD
 70
     0
 40
0.0
 41
1.0
 50
0.0
 71
     0
 42
0.2
  3
txt
  4

  0
STYLE
  2
BYGG-027457$0$ISO
 70
     0
 40
0.0
 41
1.0
 50
0.0
 71
     0
 42
3.5
  3
txt
  4

  0
STYLE
  2
BYGG-027390$0$STANDARD
 70
     0
 40
0.0
 41
1.0
 50
0.0
 71
     0
 42
0.2
  3
txt
  4

  0
STYLE
  2
BYGG-027390$0$ISO
 70
     0
 40
0.0
 41
1.0
 50
0.0
 71
     0
 42
3.5
  3
txt
  4

  0
STYLE
  2
BYGG-027458$0$STANDARD
 70
     0
 40
0.0
 41
1.0
 50
0.0
 71
     0
 42
0.2
  3
txt
  4

  0
STYLE
  2
BYGG-027458$0$ISO
 70
     0
 40
0.0
 41
1.0
 50
0.0
 71
     0
 42
3.5
  3
txt
  4

  0
STYLE
  2
BYGG-027368$0$STANDARD
 70
     0
 40
0.0
 41
1.0
 50
0.0
 71
     0
 42
0.2
  3
txt
  4

  0
STYLE
  2
BYGG-027368$0$ISO
 70
     0
 40
0.0
 41
1.0
 50
0.0
 71
     0
 42
3.5
  3
txt
  4

  0
STYLE
  2
BYGG-027414$0$STANDARD
 70
     0
 40
0.0
 41
1.0
 50
0.0
 71
     0
 42
0.2
  3
txt
  4

  0
STYLE
  2
BYGG-027414$0$ISO
 70
     0
 40
0.0
 41
1.0
 50
0.0
 71
     0
 42
3.5
  3
txt
  4

  0
STYLE
  2
BYGG-027385$0$STANDARD
 70
     0
 40
0.0
 41
1.0
 50
0.0
 71
     0
 42
0.2
  3
txt
  4

  0
STYLE
  2
BYGG-027385$0$ISO
 70
     0
 40
0.0
 41
1.0
 50
0.0
 71
     0
 42
3.5
  3
txt
  4

  0
ENDTAB
  0
TABLE
  2
VIEW
 70
     0
  0
ENDTAB
  0
TABLE
  2
UCS
 70
     0
  0
ENDTAB
  0
TABLE
  2
APPID
 70
    28
  0
APPID
  2
ACAD
 70
     0
  0
APPID
  2
ACAD_DSTYLE_DIMTEXT_FILL
 70
     0
  0
APPID
  2
ACAD_DSTYLE_DIMEXT_LENGTH
 70
     0
  0
APPID
  2
ACAD_DSTYLE_DIMEXT_ENABLED
 70
     0
  0
APPID
  2
ACAD_DSTYLE_DIM_LINETYPE
 70
     0
  0
APPID
  2
ACAD_DSTYLE_DIM_EXT1_LINETYPE
 70
     0
  0
APPID
  2
ACAD_DSTYLE_DIM_EXT2_LINETYPE
 70
     0
  0
APPID
  2
ACAD_DSTYLE_DIMJOGGED_JOGA
 70
     0
  0
APPID
  2
ACAD_DSTYLE_DIMARC_LENGTH_
 70
     0
  0
APPID
  2
ACAD_PSEXT
 70
     0
  0
APPID
  2
ACAD_MLEADERVER
 70
     0
  0
APPID
  2
GENIUS_GENODEF_13
 70
     0
  0
APPID
  2
RC_PROFILE
 70
     0
  0
APPID
  2
ACAECLAYERSTANDARD
 70
     0
  0
APPID
  2
GENIUS_GENOBJ-N-FIL_13
 70
     0
  0
APPID
  2
ACADANNOTATIVE
 70
     0
  0
APPID
  2
ACAD_EXEMPT_FROM_CAD_STANDARDS
 70
     0
  0
APPID
  2
AEC_XDATA_BOUND_SPACE
 70
     0
  0
APPID
  2
ACAD_DSTYLE_DIMJAG
 70
     0
  0
APPID
  2
ACAD_DSTYLE_DIMTALN
 70
     0
  0
APPID
  2
GENIUS_GENREC_14
 70
     0
  0
APPID
  2
GENIUS_GENOBJ-N-REC_13
 70
     0
  0
APPID
  2
ACDBDYNAMICBLOCKTRUENAME
 70
     0
  0
APPID
  2
ACDBBLOCKREPETAG
 70
     0
  0
APPID
  2
ACDBDYNAMICBLOCKGUID
 70
     0
  0
APPID
  2
ACDBBLOCKREPBTAG
 70
     0
  0
APPID
  2
ACAD_NAV_VCDISPLAY
 70
     0
  0
APPID
  2
ACCMTRANSPARENCY
 70
     0
  0
ENDTAB
  0
TABLE
  2
DIMSTYLE
 70
     8
  0
DIMSTYLE
  2
MASKIN
 70
     0
  3

  4

  5

  6

  7

 40
0.0
 41
3.0
 42
1.5
 43
10.0
 44
1.5
 45
0.0
 46
0.0
 47
0.0
 48
0.0
140
3.5
141
-5.0
142
0.0
143
25.399999999999999
144
-1.0
145
0.0
146
1.0
147
1.0
 71
     0
 72
     0
 73
     0
 74
     0
 75
     0
 76
     0
 77
     1
 78
     8
170
     0
171
     0
172
     1
173
     0
174
     0
175
     0
176
   256
177
   256
178
     2
  0
DIMSTYLE
  2
BYGG-027392$0$MASKIN
 70
     0
  3

  4

  5

  6

  7

 40
0.0
 41
3.0
 42
1.5
 43
10.0
 44
1.5
 45
0.0
 46
0.0
 47
0.0
 48
0.0
140
3.0
141
-5.0
142
0.0
143
25.399999999999999
144
-1.0
145
0.0
146
1.0
147
1.0
 71
     0
 72
     0
 73
     0
 74
     0
 75
     0
 76
     0
 77
     1
 78
     8
170
     0
171
     0
172
     1
173
     0
174
     0
175
     0
176
   256
177
   256
178
     2
  0
DIMSTYLE
  2
BYGG-027457$0$MASKIN
 70
     0
  3

  4

  5

  6

  7

 40
0.0
 41
3.0
 42
1.5
 43
10.0
 44
1.5
 45
0.0
 46
0.0
 47
0.0
 48
0.0
140
3.0
141
-5.0
142
0.0
143
25.399999999999999
144
-1.0
145
0.0
146
1.0
147
1.0
 71
     0
 72
     0
 73
     0
 74
     0
 75
     0
 76
     0
 77
     1
 78
     8
170
     0
171
     0
172
     1
173
     0
174
     0
175
     0
176
   256
177
   256
178
     2
  0
DIMSTYLE
  2
BYGG-027390$0$MASKIN
 70
     0
  3

  4

  5

  6

  7

 40
0.0
 41
3.0
 42
1.5
 43
10.0
 44
1.5
 45
0.0
 46
0.0
 47
0.0
 48
0.0
140
3.0
141
-5.0
142
0.0
143
25.399999999999999
144
-1.0
145
0.0
146
1.0
147
1.0
 71
     0
 72
     0
 73
     0
 74
     0
 75
     0
 76
     0
 77
     1
 78
     8
170
     0
171
     0
172
     1
173
     0
174
     0
175
     0
176
   256
177
   256
178
     2
  0
DIMSTYLE
  2
BYGG-027458$0$MASKIN
 70
     0
  3

  4

  5

  6

  7

 40
0.0
 41
3.0
 42
1.5
 43
10.0
 44
1.5
 45
0.0
 46
0.0
 47
0.0
 48
0.0
140
3.0
141
-5.0
142
0.0
143
25.399999999999999
144
-1.0
145
0.0
146
1.0
147
1.0
 71
     0
 72
     0
 73
     0
 74
     0
 75
     0
 76
     0
 77
     1
 78
     8
170
     0
171
     0
172
     1
173
     0
174
     0
175
     0
176
   256
177
   256
178
     2
  0
DIMSTYLE
  2
BYGG-027368$0$MASKIN
 70
     0
  3

  4

  5

  6

  7

 40
0.0
 41
3.0
 42
1.5
 43
10.0
 44
1.5
 45
0.0
 46
0.0
 47
0.0
 48
0.0
140
3.0
141
-5.0
142
0.0
143
25.399999999999999
144
-1.0
145
0.0
146
1.0
147
1.0
 71
     0
 72
     0
 73
     0
 74
     0
 75
     0
 76
     0
 77
     1
 78
     8
170
     0
171
     0
172
     1
173
     0
174
     0
175
     0
176
   256
177
   256
178
     2
  0
DIMSTYLE
  2
BYGG-027414$0$MASKIN
 70
     0
  3

  4

  5

  6

  7

 40
0.0
 41
3.0
 42
1.5
 43
10.0
 44
1.5
 45
0.0
 46
0.0
 47
0.0
 48
0.0
140
3.0
141
-5.0
142
0.0
143
25.399999999999999
144
-1.0
145
0.0
146
1.0
147
1.0
 71
     0
 72
     0
 73
     0
 74
     0
 75
     0
 76
     0
 77
     1
 78
     8
170
     0
171
     0
172
     1
173
     0
174
     0
175
     0
176
   256
177
   256
178
     2
  0
DIMSTYLE
  2
BYGG-027385$0$MASKIN
 70
     0
  3

  4

  5

  6

  7

 40
0.0
 41
3.0
 42
1.5
 43
10.0
 44
1.5
 45
0.0
 46
0.0
 47
0.0
 48
0.0
140
3.0
141
-5.0
142
0.0
143
25.399999999999999
144
-1.0
145
0.0
146
1.0
147
1.0
 71
     0
 72
     0
 73
     0
 74
     0
 75
     0
 76
     0
 77
     1
 78
     8
170
     0
171
     0
172
     1
173
     0
174
     0
175
     0
176
   256
177
   256
178
     2
  0
ENDTAB
  0
ENDSEC
  0
SECTION
  2
BLOCKS
  0
BLOCK
  8
0
  2
$MODEL_SPACE
 70
     0
 10
0.0
 20
0.0
 30
0.0
  3
$MODEL_SPACE
  1

  0
ENDBLK
  5
37
  8
0
  0
BLOCK
 67
     1
  8
0
  2
$PAPER_SPACE
 70
     0
 10
0.0
 20
0.0
 30
0.0
  3
$PAPER_SPACE
  1

  0
ENDBLK
  5
35
 67
     1
  8
0
  0
BLOCK
  8
0
  2
*D30
 70
     1
 10
0.0
 20
0.0
 30
0.0
  3
*D30
  1

  0
LINE
  5
1947
  8
SAPA_MATT
 10
25.00000000000011
 20
138.9999999277548
 30
0.0
 11
25.00000000000011
 21
160.4999999277548
 31
0.0
  0
LINE
  5
1948
  8
SAPA_MATT
 10
19.999999999996412
 20
132.44999992793839
 30
0.0
 11
19.999999999996412
 21
160.4999999277548
 31
0.0
  0
LINE
  5
1949
  8
SAPA_MATT
 10
28.00000000000011
 20
158.9999999277548
 30
0.0
 11
31.000000000000121
 21
158.9999999277548
 31
0.0
  0
LINE
  5
194A
  8
SAPA_MATT
 10
16.999999999996412
 20
158.9999999277548
 30
0.0
 11
13.99999999999641
 21
158.9999999277548
 31
0.0
  0
LINE
  5
194B
  8
SAPA_MATT
 10
25.00000000000011
 20
158.9999999277548
 30
0.0
 11
19.999999999996412
 21
158.9999999277548
 31
0.0
  0
SOLID
  5
194C
  8
SAPA_MATT
 10
28.00000000000011
 20
159.4999999277548
 30
0.0
 11
28.00000000000011
 21
158.4999999277548
 31
0.0
 12
25.00000000000011
 22
158.9999999277548
 32
0.0
 13
25.00000000000011
 23
158.9999999277548
 33
0.0
  0
SOLID
  5
194D
  8
SAPA_MATT
 10
16.999999999996412
 20
159.4999999277548
 30
0.0
 11
16.999999999996412
 21
158.4999999277548
 31
0.0
 12
19.999999999996412
 22
158.9999999277548
 32
0.0
 13
19.999999999996412
 23
158.9999999277548
 33
0.0
  0
TEXT
  8
SAPA_MATT
  40
3.5
  5
1962
  62
2
  72
0
  71
0
 10
15.5000
 20
155.555
 30
0.000000
  1
5
  7
ISO
  0
POINT
  5
194F
  8
DEFPOINTS
 62
     0
 10
25.00000000000011
 20
137.49999992775469
 30
0.0
  0
POINT
  5
1950
  8
DEFPOINTS
 62
     0
 10
19.999999999996412
 20
130.94999992793839
 30
0.0
  0
POINT
  5
1951
  8
DEFPOINTS
 62
     0
 10
19.999999999996412
 20
158.9999999277548
 30
0.0
  0
ENDBLK
  5
124A
  8
0
  0
BLOCK
  8
0
  2
*D31
 70
     1
 10
0.0
 20
0.0
 30
0.0
  3
*D31
  1

  0
LINE
  5
12CD
  8
SAPA_MATT
 10
25.00000000000011
 20
138.9999999277548
 30
0.0
 11
-20.499999999999972
 21
138.9999999277548
 31
0.0
  0
LINE
  5
12CE
  8
SAPA_MATT
 10
33.500000000174673
 20
132.4999999276761
 30
0.0
 11
-20.499999999999979
 21
132.4999999276761
 31
0.0
  0
LINE
  5
12CF
  8
SAPA_MATT
 10
-18.999999999999972
 20
141.9999999277548
 30
0.0
 11
-18.999999999999972
 21
144.99999992775469
 31
0.0
  0
LINE
  5
12D0
  8
SAPA_MATT
 10
-18.999999999999979
 20
129.4999999276761
 30
0.0
 11
-18.999999999999979
 21
126.4999999276761
 31
0.0
  0
LINE
  5
12D1
  8
SAPA_MATT
 10
-18.999999999999972
 20
138.9999999277548
 30
0.0
 11
-18.999999999999979
 21
132.4999999276761
 31
0.0
  0
SOLID
  5
12D2
  8
SAPA_MATT
 10
-19.499999999999972
 20
141.9999999277548
 30
0.0
 11
-18.499999999999972
 21
141.9999999277548
 31
0.0
 12
-18.999999999999972
 22
138.9999999277548
 32
0.0
 13
-18.999999999999972
 23
138.9999999277548
 33
0.0
  0
SOLID
  5
12D3
  8
SAPA_MATT
 10
-19.499999999999979
 20
129.4999999276761
 30
0.0
 11
-18.499999999999979
 21
129.4999999276761
 31
0.0
 12
-18.999999999999979
 22
132.4999999276761
 32
0.0
 13
-18.999999999999979
 23
132.4999999276761
 33
0.0
  0
INSERT
  5
12D4
  8
0
  2
*U48
 10
0.0
 20
0.0
 30
0.0
  0
POINT
  5
12D5
  8
DEFPOINTS
 62
     0
 10
26.50000000000011
 20
138.9999999277548
 30
0.0
  0
POINT
  5
12D6
  8
DEFPOINTS
 62
     0
 10
35.000000000174673
 20
132.4999999276761
 30
0.0
  0
POINT
  5
12D7
  8
DEFPOINTS
 62
     0
 10
-18.999999999999979
 20
132.4999999276761
 30
0.0
  0
ENDBLK
  5
1258
  8
0
  0
BLOCK
  8
0
  2
*D32
 70
     1
 10
0.0
 20
0.0
 30
0.0
  3
*D32
  1

  0
LINE
  5
193E
  8
SAPA_MATT
 10
33.500000000174673
 20
132.4999999276761
 30
0.0
 11
-20.499999999999979
 21
132.4999999276761
 31
0.0
  0
LINE
  5
193F
  8
SAPA_MATT
 10
33.500000000174708
 20
85.499999928367828
 30
0.0
 11
-20.5
 21
85.499999928367842
 31
0.0
  0
LINE
  5
1940
  8
SAPA_MATT
 10
-18.999999999999989
 20
129.4999999276761
 30
0.0
 11
-19.0
 21
88.499999928367828
 31
0.0
  0
SOLID
  5
1941
  8
SAPA_MATT
 10
-19.499999999999989
 20
129.4999999276761
 30
0.0
 11
-18.499999999999989
 21
129.4999999276761
 31
0.0
 12
-18.999999999999989
 22
132.4999999276761
 32
0.0
 13
-18.999999999999989
 23
132.4999999276761
 33
0.0
  0
SOLID
  5
1942
  8
SAPA_MATT
 10
-19.5
 20
88.499999928367828
 30
0.0
 11
-18.499999999999989
 21
88.499999928367828
 31
0.0
 12
-19.0
 22
85.499999928367842
 32
0.0
 13
-19.0
 23
85.499999928367842
 33
0.0
  0
TEXT
  8
SAPA_MATT
  40
3.5
  5
1963
  62
2
  72
0
  71
0
 10
-28.7500
 20
102.805
 30
0.000000
  1
47
  7
ISO
  0
POINT
  5
1944
  8
DEFPOINTS
 62
     0
 10
35.000000000174673
 20
132.4999999276761
 30
0.0
  0
POINT
  5
1945
  8
DEFPOINTS
 62
     0
 10
35.000000000174708
 20
85.499999928367828
 30
0.0
  0
POINT
  5
1946
  8
DEFPOINTS
 62
     0
 10
-19.0
 20
85.499999928367842
 30
0.0
  0
ENDBLK
  5
1266
  8
0
  0
BLOCK
  8
0
  2
*D33
 70
     1
 10
0.0
 20
0.0
 30
0.0
  3
*D33
  1

  0
LINE
  5
1935
  8
SAPA_MATT
 10
33.500000000174708
 20
85.499999928367828
 30
0.0
 11
-20.499999999999989
 21
85.499999928367842
 31
0.0
  0
LINE
  5
1936
  8
SAPA_MATT
 10
23.000000000000139
 20
13.99999992825272
 30
0.0
 11
-20.5
 21
13.999999928252731
 31
0.0
  0
LINE
  5
1937
  8
SAPA_MATT
 10
-18.999999999999979
 20
82.499999928367842
 30
0.0
 11
-19.0
 21
16.999999928252731
 31
0.0
  0
TEXT
  8
SAPA_MATT
  40
3.5
  5
1964
  62
2
  72
0
  71
0
 10
-27.9895
 20
43.9473
 30
0.000000
  1
71.5
  7
ISO
  0
SOLID
  5
1939
  8
SAPA_MATT
 10
-19.499999999999979
 20
82.499999928367842
 30
0.0
 11
-18.499999999999979
 21
82.499999928367842
 31
0.0
 12
-18.999999999999979
 22
85.499999928367842
 32
0.0
 13
-18.999999999999979
 23
85.499999928367842
 33
0.0
  0
SOLID
  5
193A
  8
SAPA_MATT
 10
-19.5
 20
16.999999928252731
 30
0.0
 11
-18.5
 21
16.999999928252731
 31
0.0
 12
-19.0
 22
13.999999928252731
 32
0.0
 13
-19.0
 23
13.999999928252731
 33
0.0
  0
POINT
  5
193B
  8
DEFPOINTS
 62
     0
 10
35.000000000174708
 20
85.499999928367828
 30
0.0
  0
POINT
  5
193C
  8
DEFPOINTS
 62
     0
 10
24.500000000000139
 20
13.99999992825272
 30
0.0
  0
POINT
  5
193D
  8
DEFPOINTS
 62
     0
 10
-19.0
 20
13.999999928252731
 30
0.0
  0
ENDBLK
  5
1272
  8
0
  0
BLOCK
  8
0
  2
*D34
 70
     1
 10
0.0
 20
0.0
 30
0.0
  3
*D34
  1

  0
LINE
  5
12B2
  8
SAPA_MATT
 10
25.00000000000011
 20
138.9999999277548
 30
0.0
 11
-32.49999999999995
 21
138.9999999277548
 31
0.0
  0
LINE
  5
12B3
  8
SAPA_MATT
 10
23.000000000000139
 20
13.99999992825272
 30
0.0
 11
-32.499999999999972
 21
13.999999928252731
 31
0.0
  0
LINE
  5
12B4
  8
SAPA_MATT
 10
-30.99999999999995
 20
135.99999992775469
 30
0.0
 11
-30.999999999999972
 21
16.999999928252731
 31
0.0
  0
SOLID
  5
12B5
  8
SAPA_MATT
 10
-31.49999999999995
 20
135.99999992775469
 30
0.0
 11
-30.49999999999995
 21
135.99999992775469
 31
0.0
 12
-30.99999999999994
 22
138.9999999277548
 32
0.0
 13
-30.99999999999994
 23
138.9999999277548
 33
0.0
  0
SOLID
  5
12B6
  8
SAPA_MATT
 10
-31.499999999999972
 20
16.999999928252731
 30
0.0
 11
-30.499999999999972
 21
16.999999928252731
 31
0.0
 12
-30.999999999999972
 22
13.999999928252731
 32
0.0
 13
-30.999999999999972
 23
13.999999928252731
 33
0.0
  0
INSERT
  5
12B7
  8
0
  2
*U47
 10
0.0
 20
0.0
 30
0.0
  0
POINT
  5
12B8
  8
DEFPOINTS
 62
     0
 10
26.50000000000011
 20
138.9999999277548
 30
0.0
  0
POINT
  5
12B9
  8
DEFPOINTS
 62
     0
 10
24.500000000000139
 20
13.99999992825272
 30
0.0
  0
POINT
  5
12BA
  8
DEFPOINTS
 62
     0
 10
-30.999999999999972
 20
13.999999928252731
 30
0.0
  0
ENDBLK
  5
127E
  8
0
  0
BLOCK
  8
0
  2
*D35
 70
     1
 10
0.0
 20
0.0
 30
0.0
  3
*D35
  1

  0
LINE
  5
12A9
  8
SAPA_MATT
 10
85.0
 20
140.19999985599719
 30
0.0
 11
85.0
 21
160.49999985600741
 31
0.0
  0
LINE
  5
12AA
  8
SAPA_MATT
 10
25.00000000000011
 20
138.99999985600729
 30
0.0
 11
25.00000000000011
 21
160.49999985600741
 31
0.0
  0
LINE
  5
12AB
  8
SAPA_MATT
 10
82.0
 20
158.99999985600741
 30
0.0
 11
28.00000000000011
 21
158.99999985600741
 31
0.0
  0
SOLID
  5
12AC
  8
SAPA_MATT
 10
82.0
 20
159.49999985600741
 30
0.0
 11
82.0
 21
158.49999985600741
 31
0.0
 12
85.0
 22
158.99999985600741
 32
0.0
 13
85.0
 23
158.99999985600741
 33
0.0
  0
SOLID
  5
12AD
  8
SAPA_MATT
 10
28.00000000000011
 20
159.49999985600741
 30
0.0
 11
28.00000000000011
 21
158.49999985600741
 31
0.0
 12
25.00000000000011
 22
158.99999985600741
 32
0.0
 13
25.00000000000011
 23
158.99999985600741
 33
0.0
  0
INSERT
  5
12AE
  8
0
  2
*U46
 10
0.0
 20
0.0
 30
0.0
  0
POINT
  5
12AF
  8
DEFPOINTS
 62
     0
 10
85.0
 20
138.69999985599719
 30
0.0
  0
POINT
  5
12B0
  8
DEFPOINTS
 62
     0
 10
25.00000000000011
 20
137.49999985600741
 30
0.0
  0
POINT
  5
12B1
  8
DEFPOINTS
 62
     0
 10
25.00000000000011
 20
158.99999985600741
 30
0.0
  0
ENDBLK
  5
128A
  8
0
  0
BLOCK
  8
0
  2
*D36
 70
     1
 10
0.0
 20
0.0
 30
0.0
  3
*D36
  1

  0
LINE
  5
12A0
  8
SAPA_MATT
 10
19.999999999996412
 20
132.44999992793839
 30
0.0
 11
19.999999999996412
 21
172.49999985600741
 31
0.0
  0
LINE
  5
12A1
  8
SAPA_MATT
 10
85.0
 20
140.19999985599719
 30
0.0
 11
85.0
 21
172.49999985600741
 31
0.0
  0
LINE
  5
12A2
  8
SAPA_MATT
 10
22.999999999996412
 20
170.99999985600741
 30
0.0
 11
82.0
 21
170.99999985600741
 31
0.0
  0
SOLID
  5
12A3
  8
SAPA_MATT
 10
22.999999999996412
 20
171.49999985600741
 30
0.0
 11
22.999999999996412
 21
170.49999985600741
 31
0.0
 12
19.999999999996412
 22
170.99999985600741
 32
0.0
 13
19.999999999996412
 23
170.99999985600741
 33
0.0
  0
SOLID
  5
12A4
  8
SAPA_MATT
 10
82.0
 20
171.49999985600741
 30
0.0
 11
82.0
 21
170.49999985600741
 31
0.0
 12
85.0
 22
170.99999985600741
 32
0.0
 13
85.0
 23
170.99999985600741
 33
0.0
  0
INSERT
  5
12A5
  8
0
  2
*U45
 10
0.0
 20
0.0
 30
0.0
  0
POINT
  5
12A6
  8
DEFPOINTS
 62
     0
 10
19.999999999996412
 20
130.94999992793839
 30
0.0
  0
POINT
  5
12A7
  8
DEFPOINTS
 62
     0
 10
85.0
 20
138.69999985599719
 30
0.0
  0
POINT
  5
12A8
  8
DEFPOINTS
 62
     0
 10
85.0
 20
170.99999985600741
 30
0.0
  0
ENDBLK
  5
1296
  8
0
  0
BLOCK
  8
0
  2
*X37
 70
     1
 10
0.0
 20
0.0
 30
0.0
  3
*X37
  1

  0
LINE
  5
1330
  8
0
 62
     0
 10
34.610925691064118
 20
85.499999928235809
 30
0.0
 11
34.610341714441347
 21
85.500583904858559
 31
0.0
  0
LINE
  5
1331
  8
0
 62
     0
 10
33.488393675930467
 20
85.499999928235809
 30
0.0
 11
33.479501387045303
 21
85.508892217120973
 31
0.0
  0
LINE
  5
1332
  8
0
 62
     0
 10
32.718558811822888
 20
85.147302777209745
 30
0.0
 11
32.338616646746701
 21
85.527244942285932
 31
0.0
  0
LINE
  5
1333
  8
0
 62
     0
 10
32.718558811822888
 20
84.024770762076102
 30
0.0
 11
31.187410548413421
 21
85.555919025485565
 31
0.0
  0
LINE
  5
1334
  8
0
 62
     0
 10
32.448999924841551
 20
83.171797633923788
 30
0.0
 11
30.02559065868553
 21
85.595206900079816
 31
0.0
  0
LINE
  5
1335
  8
0
 62
     0
 10
33.668558811798611
 20
81.952238746966742
 30
0.0
 11
33.120797630306797
 21
82.499999928458564
 31
0.0
  0
LINE
  5
1336
  8
0
 62
     0
 10
33.536653457478323
 20
80.961612086153366
 30
0.0
 11
28.85284782211318
 21
85.645417721518527
 31
0.0
  0
LINE
  5
1337
  8
0
 62
     0
 10
32.5757336000366
 20
80.799999928461446
 30
0.0
 11
27.668854796987379
 21
85.70687873151067
 31
0.0
  0
LINE
  5
1338
  8
0
 62
     0
 10
31.453201584902949
 20
80.799999928461446
 30
0.0
 11
26.47326474360483
 21
85.779936769759587
 31
0.0
  0
LINE
  5
1339
  8
0
 62
     0
 10
30.330669569769309
 20
80.799999928461446
 30
0.0
 11
25.265709544935699
 21
85.86495995329507
 31
0.0
  0
LINE
  5
133A
  8
0
 62
     0
 10
26.508137554639049
 20
83.499999928458067
 30
0.0
 11
25.168558811798619
 21
84.839578671298497
 31
0.0
  0
LINE
  5
133B
  8
0
 62
     0
 10
29.20813755463567
 20
80.799999928461446
 30
0.0
 11
27.50813755463858
 21
82.499999928458564
 31
0.0
  0
LINE
  5
133C
  8
0
 62
     0
 10
25.440596396652619
 20
83.445009071310864
 30
0.0
 11
25.168558811798619
 21
83.717046656164868
 31
0.0
  0
LINE
  5
133D
  8
0
 62
     0
 10
28.08560553950203
 20
80.799999928461446
 30
0.0
 11
26.669017753897339
 21
82.216587714066137
 31
0.0
  0
LINE
  5
133E
  8
0
 62
     0
 10
26.839745800443069
 20
80.923327652386774
 30
0.0
 11
26.791886535723918
 21
80.971186917105911
 31
0.0
  0
LINE
  5
133F
  8
0
 62
     0
 10
32.531123277714777
 20
80.799999928461446
 30
0.0
 11
33.668558811798611
 21
81.937435462545295
 31
0.0
  0
LINE
  5
1340
  8
0
 62
     0
 10
31.40859126258114
 20
80.799999928461446
 30
0.0
 11
33.108591262578223
 21
82.499999928458564
 31
0.0
  0
LINE
  5
1341
  8
0
 62
     0
 10
34.986059247221839
 20
85.499999928235809
 30
0.0
 11
34.986059994621101
 21
85.500000675635064
 31
0.0
  0
LINE
  5
1342
  8
0
 62
     0
 10
30.286059247447479
 20
80.799999928461446
 30
0.0
 11
32.418558811798611
 21
82.932499492812596
 31
0.0
  0
LINE
  5
1343
  8
0
 62
     0
 10
33.863527232088188
 20
85.499999928235809
 30
0.0
 11
33.868451944620567
 21
85.504924640768195
 31
0.0
  0
LINE
  5
1344
  8
0
 62
     0
 10
29.163527232313839
 20
80.799999928461446
 30
0.0
 11
32.718558811822888
 21
84.355031507970509
 31
0.0
  0
LINE
  5
1345
  8
0
 62
     0
 10
32.740995216954573
 20
85.499999928235837
 30
0.0
 11
32.76029011189182
 21
85.519294823173084
 31
0.0
  0
LINE
  5
1346
  8
0
 62
     0
 10
28.0409952171802
 20
80.799999928461446
 30
0.0
 11
32.718558811822888
 21
85.477563523104152
 31
0.0
  0
LINE
  5
1347
  8
0
 62
     0
 10
26.962774028443171
 20
80.844310754858085
 30
0.0
 11
31.66134195617753
 21
85.542878682592416
 31
0.0
  0
LINE
  5
1348
  8
0
 62
     0
 10
27.918558811798601
 20
82.922627553347155
 30
0.0
 11
30.57138623796887
 21
85.575454979517417
 31
0.0
  0
LINE
  5
1349
  8
0
 62
     0
 10
26.668558811798601
 20
81.672627553347155
 30
0.0
 11
27.495931186909999
 21
82.499999928458564
 31
0.0
  0
LINE
  5
134A
  8
0
 62
     0
 10
27.373399171776331
 20
83.499999928458521
 30
0.0
 11
29.49021227203967
 21
85.616813028721864
 31
0.0
  0
LINE
  5
134B
  8
0
 62
     0
 10
26.250867156642101
 20
83.499999928457925
 30
0.0
 11
28.417619243732659
 21
85.666752015548497
 31
0.0
  0
LINE
  5
134C
  8
0
 62
     0
 10
25.168558811798619
 20
83.540223598748085
 30
0.0
 11
27.353415581659409
 21
85.725080368608886
 31
0.0
  0
LINE
  5
134D
  8
0
 62
     0
 10
25.168558811798619
 20
84.662755613881757
 30
0.0
 11
26.297418381219419
 21
85.79161518330254
 31
0.0
  0
LINE
  5
134E
  8
0
 62
     0
 10
25.168558811798619
 20
85.785287629015386
 30
0.0
 11
25.24945287398868
 21
85.866181691205455
 31
0.0
  0
ENDBLK
  5
1350
  8
0
  0
BLOCK
  8
0
  2
*X38
 70
     1
 10
0.0
 20
0.0
 30
0.0
  3
*X38
  1

  0
LINE
  5
1352
  8
0
 62
     0
 10
33.499999999999972
 20
136.0023342851803
 30
0.0
 11
32.302334357435562
 21
137.1999999277447
 31
0.0
  0
LINE
  5
1353
  8
0
 62
     0
 10
32.879802342297232
 20
135.4999999277494
 30
0.0
 11
31.179802342301919
 21
137.1999999277447
 31
0.0
  0
LINE
  5
1354
  8
0
 62
     0
 10
32.249999999999972
 20
135.00727025491301
 30
0.0
 11
30.057270327168268
 21
137.1999999277447
 31
0.0
  0
LINE
  5
1355
  8
0
 62
     0
 10
34.757496511748499
 20
132.49977374316441
 30
0.0
 11
34.757270327158068
 21
132.49999992775491
 31
0.0
  0
LINE
  5
1356
  8
0
 62
     0
 10
32.71855881182308
 20
133.41617942795619
 30
0.0
 11
28.934738312034639
 21
137.1999999277447
 31
0.0
  0
LINE
  5
1357
  8
0
 62
     0
 10
33.641833186765908
 20
132.4929050530134
 30
0.0
 11
33.634738312024432
 21
132.49999992775491
 31
0.0
  0
LINE
  5
1358
  8
0
 62
     0
 10
32.535567728364903
 20
132.4766384962808
 30
0.0
 11
27.812206296900989
 21
137.1999999277447
 31
0.0
  0
LINE
  5
1359
  8
0
 62
     0
 10
31.438469963402159
 20
132.4512042461098
 30
0.0
 11
26.754240727647971
 21
137.135433481864
 31
0.0
  0
LINE
  5
135A
  8
0
 62
     0
 10
27.267142266623502
 20
135.49999992775491
 30
0.0
 11
26.500000000004722
 21
136.26714219437369
 31
0.0
  0
LINE
  5
135B
  8
0
 62
     0
 10
30.35032086191428
 20
132.41682133246411
 30
0.0
 11
27.749999999999989
 21
135.01714219437841
 31
0.0
  0
LINE
  5
135C
  8
0
 62
     0
 10
29.27091180399594
 20
132.37369837524881
 30
0.0
 11
27.144610251489851
 21
134.49999992775491
 31
0.0
  0
LINE
  5
135D
  8
0
 62
     0
 10
28.200043908072669
 20
132.32203425603839
 30
0.0
 11
26.022078236356219
 21
134.49999992775491
 31
0.0
  0
LINE
  5
135E
  8
0
 62
     0
 10
27.137527414389972
 20
132.26201873458751
 30
0.0
 11
25.499999999999979
 21
133.89954614897749
 31
0.0
  0
LINE
  5
135F
  8
0
 62
     0
 10
26.083181118263571
 20
132.1938330155802
 30
0.0
 11
25.499999999999989
 21
132.77701413384381
 31
0.0
  0
LINE
  5
1360
  8
0
 62
     0
 10
34.839615675968098
 20
132.49990099259509
 30
0.0
 11
34.839714611127903
 21
132.49999992775491
 31
0.0
  0
LINE
  5
1361
  8
0
 62
     0
 10
33.710789889927213
 20
132.49360722168791
 30
0.0
 11
33.717182595994252
 21
132.49999992775491
 31
0.0
  0
LINE
  5
1362
  8
0
 62
     0
 10
32.571974339219913
 20
132.4773236861142
 30
0.0
 11
32.718558811823101
 21
132.6239081587174
 31
0.0
  0
LINE
  5
1363
  8
0
 62
     0
 10
31.4228950947229
 20
132.45077645675079
 30
0.0
 11
32.718558811823087
 21
133.746440173851
 31
0.0
  0
LINE
  5
1364
  8
0
 62
     0
 10
33.358260287667399
 20
135.50867366482899
 30
0.0
 11
33.49132626291496
 21
135.64173964007651
 31
0.0
  0
LINE
  5
1365
  8
0
 62
     0
 10
30.263262975961219
 20
132.41367635312281
 30
0.0
 11
32.449763805487002
 21
134.60017718264859
 31
0.0
  0
LINE
  5
1366
  8
0
 62
     0
 10
29.092772341904919
 20
132.3657177342001
 30
0.0
 11
33.495318158170107
 21
136.76826355046529
 31
0.0
  0
LINE
  5
1367
  8
0
 62
     0
 10
27.91109975467689
 20
132.30657716210581
 30
0.0
 11
32.804522520315849
 21
137.1999999277447
 31
0.0
  0
LINE
  5
1368
  8
0
 62
     0
 10
26.71790249942168
 20
132.23591192198421
 30
0.0
 11
31.681990505182199
 21
137.1999999277447
 31
0.0
  0
LINE
  5
1369
  8
0
 62
     0
 10
25.5128169409092
 20
132.15335837860539
 30
0.0
 11
30.559458490048559
 21
137.1999999277447
 31
0.0
  0
LINE
  5
136A
  8
0
 62
     0
 10
27.684733442160741
 20
135.44780689499049
 30
0.0
 11
29.436926474914909
 21
137.1999999277447
 31
0.0
  0
LINE
  5
136B
  8
0
 62
     0
 10
25.499999999999972
 20
133.26307345282979
 30
0.0
 11
26.736926474925099
 21
134.49999992775491
 31
0.0
  0
LINE
  5
136C
  8
0
 62
     0
 10
26.62785861658914
 20
135.5134640845526
 30
0.0
 11
28.314394459781258
 21
137.1999999277447
 31
0.0
  0
LINE
  5
136D
  8
0
 62
     0
 10
25.499999999999989
 20
134.38560546796339
 30
0.0
 11
25.614394459791459
 21
134.49999992775491
 31
0.0
  0
LINE
  5
136E
  8
0
 62
     0
 10
26.500000000002071
 20
136.5081374830992
 30
0.0
 11
27.191862444647619
 21
137.1999999277447
 31
0.0
  0
ENDBLK
  5
1370
  8
0
  0
BLOCK
  8
0
  2
*X39
 70
     1
 10
0.0
 20
0.0
 30
0.0
  3
*X39
  1

  0
LINE
  5
1372
  8
0
 62
     0
 10
25.209045112868601
 20
148.99999992775491
 30
0.0
 11
25.047131215853881
 21
148.83808603074019
 31
0.0
  0
LINE
  5
1373
  8
0
 62
     0
 10
26.331577128002241
 20
148.99999992775491
 30
0.0
 11
25.281507321650079
 21
147.94993012140279
 31
0.0
  0
LINE
  5
1374
  8
0
 62
     0
 10
27.454109143135881
 20
148.99999992775491
 30
0.0
 11
25.482518794995759
 21
147.02840957961479
 31
0.0
  0
LINE
  5
1375
  8
0
 62
     0
 10
28.576641158269531
 20
148.99999992775491
 30
0.0
 11
25.64721784565624
 21
146.07057661514159
 31
0.0
  0
LINE
  5
1376
  8
0
 62
     0
 10
29.699173173403182
 20
148.99999992775491
 30
0.0
 11
25.771942281115049
 21
145.07276903546679
 31
0.0
  0
LINE
  5
1377
  8
0
 62
     0
 10
30.821705188536811
 20
148.99999992775491
 30
0.0
 11
25.852065673764201
 21
144.0303604129823
 31
0.0
  0
LINE
  5
1378
  8
0
 62
     0
 10
31.944237203670461
 20
148.99999992775491
 30
0.0
 11
25.88161863924709
 21
142.93738136333161
 31
0.0
  0
LINE
  5
1379
  8
0
 62
     0
 10
33.06676921880409
 20
148.99999992775491
 30
0.0
 11
25.852689199649792
 21
141.78591990860059
 31
0.0
  0
LINE
  5
137A
  8
0
 62
     0
 10
34.189301233937748
 20
148.99999992775491
 30
0.0
 11
25.754420377993359
 21
140.5651190718105
 31
0.0
  0
LINE
  5
137B
  8
0
 62
     0
 10
32.077919887211763
 20
145.76608656589531
 30
0.0
 11
25.571213607780301
 21
139.2593802864638
 31
0.0
  0
LINE
  5
137C
  8
0
 62
     0
 10
35.311833249071377
 20
148.99999992775491
 30
0.0
 11
34.751823390973392
 21
148.43999006965689
 31
0.0
  0
LINE
  5
137D
  8
0
 62
     0
 10
31.725104764860578
 20
144.2907394284104
 30
0.0
 11
26.432862007604591
 21
138.9984966711545
 31
0.0
  0
LINE
  5
137E
  8
0
 62
     0
 10
36.434365264205027
 20
148.99999992775491
 30
0.0
 11
36.358001422471347
 21
148.92363608602119
 31
0.0
  0
LINE
  5
137F
  8
0
 62
     0
 10
31.783283069945899
 20
143.22638571836211
 30
0.0
 11
27.55689727933866
 21
138.99999992775491
 31
0.0
  0
LINE
  5
1380
  8
0
 62
     0
 10
32.03018377748338
 20
142.350754410766
 30
0.0
 11
28.6794292944723
 21
138.99999992775491
 31
0.0
  0
LINE
  5
1381
  8
0
 62
     0
 10
32.404137113186842
 20
141.60217573133579
 30
0.0
 11
29.801961309605929
 21
138.99999992775491
 31
0.0
  0
LINE
  5
1382
  8
0
 62
     0
 10
32.878797021850332
 20
140.95430362486559
 30
0.0
 11
30.924493324739561
 21
138.99999992775491
 31
0.0
  0
LINE
  5
1383
  8
0
 62
     0
 10
33.441840128772249
 20
140.39481471665391
 30
0.0
 11
32.047025339873187
 21
138.99999992775491
 31
0.0
  0
LINE
  5
1384
  8
0
 62
     0
 10
34.088719067232852
 20
139.9191616399809
 30
0.0
 11
33.16955735500683
 21
138.99999992775491
 31
0.0
  0
LINE
  5
1385
  8
0
 62
     0
 10
34.820841696821908
 20
139.52875225443631
 30
0.0
 11
34.292089370140481
 21
138.9999999277548
 31
0.0
  0
LINE
  5
1386
  8
0
 62
     0
 10
35.646108925702947
 20
139.2314874681837
 30
0.0
 11
35.414621385274103
 21
138.9999999277548
 31
0.0
  0
LINE
  5
1387
  8
0
 62
     0
 10
36.582373814368331
 20
139.04522034171541
 30
0.0
 11
36.537153400407732
 21
138.9999999277548
 31
0.0
  0
LINE
  5
1388
  8
0
 62
     0
 10
37.035082384001868
 20
148.99279897802481
 30
0.0
 11
37.027881434271833
 21
148.99999992775491
 31
0.0
  0
LINE
  5
1389
  8
0
 62
     0
 10
36.040163568264241
 20
148.8651857786289
 30
0.0
 11
35.905349419138211
 21
148.9999999277548
 31
0.0
  0
LINE
  5
138A
  8
0
 62
     0
 10
35.169401614037973
 20
148.61341571772149
 30
0.0
 11
34.782817404004561
 21
148.99999992775491
 31
0.0
  0
LINE
  5
138B
  8
0
 62
     0
 10
34.397992255913579
 20
148.26229306071221
 30
0.0
 11
33.660285388870903
 21
148.9999999277548
 31
0.0
  0
LINE
  5
138C
  8
0
 62
     0
 10
33.714366726127523
 20
147.82338657536459
 30
0.0
 11
32.53775337373726
 21
148.99999992775491
 31
0.0
  0
LINE
  5
138D
  8
0
 62
     0
 10
33.114478245049028
 20
147.3007430413094
 30
0.0
 11
31.415221358603599
 21
148.9999999277548
 31
0.0
  0
LINE
  5
138E
  8
0
 62
     0
 10
32.600198375408517
 20
146.69249089581629
 30
0.0
 11
30.292689343469981
 21
148.9999999277548
 31
0.0
  0
LINE
  5
138F
  8
0
 62
     0
 10
32.180034872221391
 20
145.99012238386979
 30
0.0
 11
29.17015732833632
 21
148.99999992775491
 31
0.0
  0
LINE
  5
1390
  8
0
 62
     0
 10
31.872927364266761
 20
145.1746978766908
 30
0.0
 11
28.04762531320269
 21
148.99999992775491
 31
0.0
  0
LINE
  5
1391
  8
0
 62
     0
 10
31.72031030042346
 20
144.20478292540051
 30
0.0
 11
26.925093298069051
 21
148.99999992775491
 31
0.0
  0
LINE
  5
1392
  8
0
 62
     0
 10
36.925093298069143
 20
138.9999999277548
 30
0.0
 11
36.910718180287738
 21
139.01437504553621
 31
0.0
  0
LINE
  5
1393
  8
0
 62
     0
 10
31.83727177058805
 20
142.9652894401022
 30
0.0
 11
25.80256128293539
 21
148.99999992775491
 31
0.0
  0
LINE
  5
1394
  8
0
 62
     0
 10
35.802561282935471
 20
138.9999999277548
 30
0.0
 11
35.540393800976346
 21
139.2621674097139
 31
0.0
  0
LINE
  5
1395
  8
0
 62
     0
 10
34.680029267801821
 20
138.9999999277548
 30
0.0
 11
25.126699990922209
 21
148.55332920463439
 31
0.0
  0
LINE
  5
1396
  8
0
 62
     0
 10
33.557497252668178
 20
138.9999999277548
 30
0.0
 11
25.471114947087969
 21
147.086382233335
 31
0.0
  0
LINE
  5
1397
  8
0
 62
     0
 10
32.43496523753452
 20
138.9999999277548
 30
0.0
 11
25.693608217851139
 21
145.74135694743819
 31
0.0
  0
LINE
  5
1398
  8
0
 62
     0
 10
31.31243322240087
 20
138.9999999277548
 30
0.0
 11
25.82305823367183
 21
144.48937491648391
 31
0.0
  0
LINE
  5
1399
  8
0
 62
     0
 10
30.189901207267201
 20
138.99999992775491
 30
0.0
 11
25.87774311474595
 21
143.31215802027609
 31
0.0
  0
LINE
  5
139A
  8
0
 62
     0
 10
29.06736919213354
 20
138.99999992775491
 30
0.0
 11
25.870104048942991
 21
142.19726507094541
 31
0.0
  0
LINE
  5
139B
  8
0
 62
     0
 10
27.944837176999901
 20
138.99999992775491
 30
0.0
 11
25.80905944609702
 21
141.13577765865779
 31
0.0
  0
LINE
  5
139C
  8
0
 62
     0
 10
26.82230516186624
 20
138.99999992775491
 30
0.0
 11
25.70125405315201
 21
140.12105103646911
 31
0.0
  0
LINE
  5
139D
  8
0
 62
     0
 10
25.848597711055479
 20
138.85117536343199
 30
0.0
 11
25.55178756325337
 21
139.14798551123411
 31
0.0
  0
ENDBLK
  5
139F
  8
0
  0
BLOCK
  8
0
  2
*X40
 70
     1
 10
0.0
 20
0.0
 30
0.0
  3
*X40
  1

  0
LINE
  5
13A1
  8
0
 62
     0
 10
38.256266347423818
 20
148.43122837831021
 30
0.0
 11
37.568858683169921
 21
148.8281033783102
 31
0.0
  0
LINE
  5
13A2
  8
0
 62
     0
 10
40.318489340185501
 20
147.2406033783102
 30
0.0
 11
39.631081675931611
 21
147.63747837831019
 31
0.0
  0
LINE
  5
13A3
  8
0
 62
     0
 10
42.380712332947198
 20
146.04997837831019
 30
0.0
 11
41.693304668693301
 21
146.44685337831021
 31
0.0
  0
LINE
  5
13A4
  8
0
 62
     0
 10
35.506635854662122
 20
148.43122866280629
 30
0.0
 11
35.18260723401589
 21
148.6183066741616
 31
0.0
  0
LINE
  5
13A5
  8
0
 62
     0
 10
37.568858847423812
 20
147.24060366280631
 30
0.0
 11
36.881451183169922
 21
147.6374786628063
 31
0.0
  0
LINE
  5
13A6
  8
0
 62
     0
 10
39.631081840185502
 20
146.0499786628063
 30
0.0
 11
38.943674175931612
 21
146.44685366280629
 31
0.0
  0
LINE
  5
13A7
  8
0
 62
     0
 10
41.693304832947192
 20
144.8593536628064
 30
0.0
 11
41.005897168693288
 21
145.25622866280631
 31
0.0
  0
LINE
  5
13A8
  8
0
 62
     0
 10
34.819228354662108
 20
147.24060394730239
 30
0.0
 11
34.131820690408212
 21
147.63747894730241
 31
0.0
  0
LINE
  5
13A9
  8
0
 62
     0
 10
36.881451347423798
 20
146.04997894730241
 30
0.0
 11
36.194043683169902
 21
146.4468539473024
 31
0.0
  0
LINE
  5
13AA
  8
0
 62
     0
 10
38.943674340185488
 20
144.8593539473024
 30
0.0
 11
38.256266675931592
 21
145.25622894730239
 31
0.0
  0
LINE
  5
13AB
  8
0
 62
     0
 10
41.005897332947171
 20
143.66872894730241
 30
0.0
 11
40.318489668693282
 21
144.06560394730241
 31
0.0
  0
LINE
  5
13AC
  8
0
 62
     0
 10
42.752234571147923
 20
142.66048067273141
 30
0.0
 11
42.380712661454972
 21
142.87497894730251
 31
0.0
  0
LINE
  5
13AD
  8
0
 62
     0
 10
34.131820854662109
 20
146.04997923179849
 30
0.0
 11
33.444413190408213
 21
146.44685423179851
 31
0.0
  0
LINE
  5
13AE
  8
0
 62
     0
 10
36.194043847423799
 20
144.85935423179851
 30
0.0
 11
35.50663618316991
 21
145.2562292317985
 31
0.0
  0
LINE
  5
13AF
  8
0
 62
     0
 10
38.256266840185489
 20
143.66872923179849
 30
0.0
 11
37.568859175931593
 21
144.06560423179849
 31
0.0
  0
LINE
  5
13B0
  8
0
 62
     0
 10
40.318489832947172
 20
142.47810423179851
 30
0.0
 11
39.631082168693283
 21
142.87497923179851
 31
0.0
  0
LINE
  5
13B1
  8
0
 62
     0
 10
42.151471112402298
 20
141.41983199668559
 30
0.0
 11
41.693305161454973
 21
141.68435423179861
 31
0.0
  0
LINE
  5
13B2
  8
0
 62
     0
 10
33.444413354662132
 20
144.85935451629459
 30
0.0
 11
32.757005690408228
 21
145.25622951629461
 31
0.0
  0
LINE
  5
13B3
  8
0
 62
     0
 10
35.506636347423807
 20
143.6687295162946
 30
0.0
 11
34.819228683169918
 21
144.0656045162946
 31
0.0
  0
LINE
  5
13B4
  8
0
 62
     0
 10
37.568859340185497
 20
142.47810451629459
 30
0.0
 11
36.881451675931608
 21
142.87497951629459
 31
0.0
  0
LINE
  5
13B5
  8
0
 62
     0
 10
39.631082332947202
 20
141.2874795162947
 30
0.0
 11
38.943674668693298
 21
141.6843545162946
 31
0.0
  0
LINE
  5
13B6
  8
0
 62
     0
 10
41.209525994195758
 20
140.37616464357211
 30
0.0
 11
41.005897661454988
 21
140.49372951629471
 31
0.0
  0
LINE
  5
13B7
  8
0
 62
     0
 10
32.757005854662133
 20
143.66872980079069
 30
0.0
 11
32.069598190408229
 21
144.06560480079071
 31
0.0
  0
LINE
  5
13B8
  8
0
 62
     0
 10
34.819228847423808
 20
142.4781048007907
 30
0.0
 11
34.131821183169919
 21
142.8749798007907
 31
0.0
  0
LINE
  5
13B9
  8
0
 62
     0
 10
36.881451840185512
 20
141.28747980079069
 30
0.0
 11
36.194044175931609
 21
141.68435480079069
 31
0.0
  0
LINE
  5
13BA
  8
0
 62
     0
 10
38.943674832947202
 20
140.09685480079071
 30
0.0
 11
38.256267168693299
 21
140.4937298007907
 31
0.0
  0
LINE
  5
13BB
  8
0
 62
     0
 10
32.069598354662119
 20
142.47810508528681
 30
0.0
 11
31.960118357818718
 21
142.54131339093519
 31
0.0
  0
LINE
  5
13BC
  8
0
 62
     0
 10
34.131821347423809
 20
141.2874800852868
 30
0.0
 11
33.444413683169913
 21
141.6843550852868
 31
0.0
  0
LINE
  5
13BD
  8
0
 62
     0
 10
36.194044340185499
 20
140.09685508528679
 30
0.0
 11
35.506636675931603
 21
140.49373008528681
 31
0.0
  0
LINE
  5
13BE
  8
0
 62
     0
 10
38.028084744309183
 20
139.03797136426141
 30
0.0
 11
37.568859668693293
 21
139.3031050852868
 31
0.0
  0
LINE
  5
13BF
  8
0
 62
     0
 10
33.444443413125448
 20
146.44684342094681
 30
0.0
 11
32.757035748871559
 21
146.04996842094681
 31
0.0
  0
LINE
  5
13C0
  8
0
 62
     0
 10
35.506666405887152
 20
147.63746842094679
 30
0.0
 11
34.819258741633249
 21
147.24059342094679
 31
0.0
  0
LINE
  5
13C1
  8
0
 62
     0
 10
37.568889398648842
 20
148.8280934209468
 30
0.0
 11
36.881481734394939
 21
148.43121842094681
 31
0.0
  0
LINE
  5
13C2
  8
0
 62
     0
 10
32.069627920363779
 20
144.06559370544301
 30
0.0
 11
31.717722131996471
 21
143.86242080379969
 31
0.0
  0
LINE
  5
13C3
  8
0
 62
     0
 10
34.131850913125469
 20
145.25621870544299
 30
0.0
 11
33.444443248871572
 21
144.859343705443
 31
0.0
  0
LINE
  5
13C4
  8
0
 62
     0
 10
36.194073905887159
 20
146.446843705443
 30
0.0
 11
35.506666241633262
 21
146.04996870544289
 31
0.0
  0
LINE
  5
13C5
  8
0
 62
     0
 10
38.256296898648849
 20
147.6374687054429
 30
0.0
 11
37.568889234394952
 21
147.2405937054429
 31
0.0
  0
LINE
  5
13C6
  8
0
 62
     0
 10
39.765824059908972
 20
148.5089946183455
 30
0.0
 11
39.631112227156642
 21
148.43121870544289
 31
0.0
  0
LINE
  5
13C7
  8
0
 62
     0
 10
32.757035420363749
 20
142.87496898993911
 30
0.0
 11
32.069627756109853
 21
142.47809398993911
 31
0.0
  0
LINE
  5
13C8
  8
0
 62
     0
 10
34.819258413125439
 20
144.06559398993909
 30
0.0
 11
34.13185074887155
 21
143.66871898993909
 31
0.0
  0
LINE
  5
13C9
  8
0
 62
     0
 10
36.881481405887129
 20
145.25621898993899
 30
0.0
 11
36.194073741633233
 21
144.85934398993899
 31
0.0
  0
LINE
  5
13CA
  8
0
 62
     0
 10
38.943704398648819
 20
146.446843989939
 30
0.0
 11
38.256296734394923
 21
146.049968989939
 31
0.0
  0
LINE
  5
13CB
  8
0
 62
     0
 10
41.005927391410509
 20
147.63746898993901
 30
0.0
 11
40.318519727156612
 21
147.24059398993899
 31
0.0
  0
LINE
  5
13CC
  8
0
 62
     0
 10
33.44444292036377
 20
141.68434427443509
 30
0.0
 11
32.75703525610988
 21
141.28746927443521
 31
0.0
  0
LINE
  5
13CD
  8
0
 62
     0
 10
35.50666591312546
 20
142.8749692744351
 30
0.0
 11
34.819258248871563
 21
142.47809427443511
 31
0.0
  0
LINE
  5
13CE
  8
0
 62
     0
 10
37.56888890588715
 20
144.06559427443511
 30
0.0
 11
36.881481241633253
 21
143.66871927443509
 31
0.0
  0
LINE
  5
13CF
  8
0
 62
     0
 10
39.63111189864884
 20
145.2562192744351
 30
0.0
 11
38.943704234394943
 21
144.8593442744351
 31
0.0
  0
LINE
  5
13D0
  8
0
 62
     0
 10
41.693334891410522
 20
146.44684427443511
 30
0.0
 11
41.005927227156633
 21
146.04996927443511
 31
0.0
  0
LINE
  5
13D1
  8
0
 62
     0
 10
34.131850420363762
 20
140.4937195589313
 30
0.0
 11
33.65747548317902
 21
140.21983906125089
 31
0.0
  0
LINE
  5
13D2
  8
0
 62
     0
 10
36.194073413125452
 20
141.68434455893129
 30
0.0
 11
35.506665748871562
 21
141.28746955893129
 31
0.0
  0
LINE
  5
13D3
  8
0
 62
     0
 10
38.256296405887142
 20
142.87496955893121
 30
0.0
 11
37.568888741633252
 21
142.47809455893119
 31
0.0
  0
LINE
  5
13D4
  8
0
 62
     0
 10
40.318519398648831
 20
144.0655945589312
 30
0.0
 11
39.631111734394928
 21
143.6687195589312
 31
0.0
  0
LINE
  5
13D5
  8
0
 62
     0
 10
42.380742391410507
 20
145.25621955893121
 30
0.0
 11
41.693334727156632
 21
144.85934455893121
 31
0.0
  0
LINE
  5
13D6
  8
0
 62
     0
 10
36.881480913125458
 20
140.4937198434273
 30
0.0
 11
36.194073248871561
 21
140.09684484342739
 31
0.0
  0
LINE
  5
13D7
  8
0
 62
     0
 10
38.943703905887148
 20
141.68434484342731
 30
0.0
 11
38.256296241633251
 21
141.28746984342729
 31
0.0
  0
LINE
  5
13D8
  8
0
 62
     0
 10
41.005926898648838
 20
142.87496984342729
 30
0.0
 11
40.318519234394941
 21
142.4780948434273
 31
0.0
  0
LINE
  5
13D9
  8
0
 62
     0
 10
42.957708276428647
 20
144.0018313472878
 30
0.0
 11
42.380742227156617
 21
143.66871984342731
 31
0.0
  0
LINE
  5
13DA
  8
0
 62
     0
 10
37.568888413125457
 20
139.3030951279234
 30
0.0
 11
37.05480546227917
 21
139.00628919786649
 31
0.0
  0
LINE
  5
13DB
  8
0
 62
     0
 10
39.631111405887147
 20
140.49372012792341
 30
0.0
 11
38.94370374163325
 21
140.09684512792339
 31
0.0
  0
LINE
  5
13DC
  8
0
 62
     0
 10
41.693334398648837
 20
141.68434512792339
 30
0.0
 11
41.00592673439494
 21
141.2874701279234
 31
0.0
  0
LINE
  5
13DD
  8
0
 62
     0
 10
42.380734999985108
 20
145.25625000001361
 30
0.0
 11
42.380734999985108
 21
146.0500000000136
 31
0.0
  0
LINE
  5
13DE
  8
0
 62
     0
 10
42.380734999985108
 20
142.87500000001361
 30
0.0
 11
42.380734999985108
 21
143.6687500000136
 31
0.0
  0
LINE
  5
13DF
  8
0
 62
     0
 10
41.005919999985117
 20
147.6375000000136
 30
0.0
 11
41.005919999985117
 21
147.78777218175779
 31
0.0
  0
LINE
  5
13E0
  8
0
 62
     0
 10
41.005919999985117
 20
145.25625000001361
 30
0.0
 11
41.005919999985117
 21
146.0500000000136
 31
0.0
  0
LINE
  5
13E1
  8
0
 62
     0
 10
41.005919999985117
 20
142.87500000001361
 30
0.0
 11
41.005919999985117
 21
143.6687500000136
 31
0.0
  0
LINE
  5
13E2
  8
0
 62
     0
 10
41.005919999985117
 20
140.49375000001359
 30
0.0
 11
41.005919999985117
 21
141.28750000001361
 31
0.0
  0
LINE
  5
13E3
  8
0
 62
     0
 10
39.631104999985119
 20
147.6375000000136
 30
0.0
 11
39.631104999985119
 21
148.43125000001359
 31
0.0
  0
LINE
  5
13E4
  8
0
 62
     0
 10
39.631104999985119
 20
145.25625000001361
 30
0.0
 11
39.631104999985119
 21
146.0500000000136
 31
0.0
  0
LINE
  5
13E5
  8
0
 62
     0
 10
39.631104999985119
 20
142.87500000001361
 30
0.0
 11
39.631104999985119
 21
143.6687500000136
 31
0.0
  0
LINE
  5
13E6
  8
0
 62
     0
 10
39.631104999985119
 20
140.49375000001359
 30
0.0
 11
39.631104999985119
 21
141.28750000001361
 31
0.0
  0
LINE
  5
13E7
  8
0
 62
     0
 10
38.256289999985121
 20
147.6375000000136
 30
0.0
 11
38.256289999985121
 21
148.43125000001359
 31
0.0
  0
LINE
  5
13E8
  8
0
 62
     0
 10
38.256289999985121
 20
145.25625000001361
 30
0.0
 11
38.256289999985121
 21
146.0500000000136
 31
0.0
  0
LINE
  5
13E9
  8
0
 62
     0
 10
38.256289999985121
 20
142.87500000001361
 30
0.0
 11
38.256289999985121
 21
143.6687500000136
 31
0.0
  0
LINE
  5
13EA
  8
0
 62
     0
 10
38.256289999985121
 20
140.49375000001359
 30
0.0
 11
38.256289999985121
 21
141.28750000001361
 31
0.0
  0
LINE
  5
13EB
  8
0
 62
     0
 10
36.881474999985123
 20
147.6375000000136
 30
0.0
 11
36.881474999985123
 21
148.43125000001359
 31
0.0
  0
LINE
  5
13EC
  8
0
 62
     0
 10
36.881474999985123
 20
145.25625000001361
 30
0.0
 11
36.881474999985123
 21
146.0500000000136
 31
0.0
  0
LINE
  5
13ED
  8
0
 62
     0
 10
36.881474999985123
 20
142.87500000001361
 30
0.0
 11
36.881474999985123
 21
143.6687500000136
 31
0.0
  0
LINE
  5
13EE
  8
0
 62
     0
 10
36.881474999985123
 20
140.49375000001359
 30
0.0
 11
36.881474999985123
 21
141.28750000001361
 31
0.0
  0
LINE
  5
13EF
  8
0
 62
     0
 10
35.506659999985118
 20
147.6375000000136
 30
0.0
 11
35.506659999985118
 21
148.43125000001359
 31
0.0
  0
LINE
  5
13F0
  8
0
 62
     0
 10
35.506659999985118
 20
145.25625000001361
 30
0.0
 11
35.506659999985118
 21
146.0500000000136
 31
0.0
  0
LINE
  5
13F1
  8
0
 62
     0
 10
35.506659999985118
 20
142.87500000001361
 30
0.0
 11
35.506659999985118
 21
143.6687500000136
 31
0.0
  0
LINE
  5
13F2
  8
0
 62
     0
 10
35.506659999985118
 20
140.49375000001359
 30
0.0
 11
35.506659999985118
 21
141.28750000001361
 31
0.0
  0
LINE
  5
13F3
  8
0
 62
     0
 10
34.13184499998512
 20
147.6375000000136
 30
0.0
 11
34.13184499998512
 21
148.10772746508269
 31
0.0
  0
LINE
  5
13F4
  8
0
 62
     0
 10
34.13184499998512
 20
145.25625000001361
 30
0.0
 11
34.13184499998512
 21
146.0500000000136
 31
0.0
  0
LINE
  5
13F5
  8
0
 62
     0
 10
34.13184499998512
 20
142.87500000001361
 30
0.0
 11
34.13184499998512
 21
143.6687500000136
 31
0.0
  0
LINE
  5
13F6
  8
0
 62
     0
 10
34.13184499998512
 20
140.49375000001359
 30
0.0
 11
34.13184499998512
 21
141.28750000001361
 31
0.0
  0
LINE
  5
13F7
  8
0
 62
     0
 10
32.757029999985107
 20
145.25625000001361
 30
0.0
 11
32.757029999985107
 21
146.0500000000136
 31
0.0
  0
LINE
  5
13F8
  8
0
 62
     0
 10
32.757029999985107
 20
142.87500000001361
 30
0.0
 11
32.757029999985107
 21
143.6687500000136
 31
0.0
  0
LINE
  5
13F9
  8
0
 62
     0
 10
32.757029999985107
 20
141.1007687474137
 30
0.0
 11
32.757029999985107
 21
141.28750000001361
 31
0.0
  0
ENDBLK
  5
13FB
  8
0
  0
BLOCK
  8
0
  2
*X41
 70
     1
 10
0.0
 20
0.0
 30
0.0
  3
*X41
  1

  0
LINE
  5
186C
  8
0
 62
     0
 10
20.20000000000076
 20
130.6801514472686
 30
0.0
 11
20.880151519345748
 21
129.99999992792371
 31
0.0
  0
LINE
  5
186D
  8
0
 62
     0
 10
21.252683534127939
 20
130.74999992827509
 30
0.0
 11
22.002683534479392
 21
129.99999992792371
 31
0.0
  0
LINE
  5
186E
  8
0
 62
     0
 10
22.375215549262808
 20
130.74999992827389
 30
0.0
 11
23.125215549613031
 21
129.99999992792371
 31
0.0
  0
LINE
  5
186F
  8
0
 62
     0
 10
23.497747564397681
 20
130.74999992827259
 30
0.0
 11
24.247747564746678
 21
129.99999992792371
 31
0.0
  0
LINE
  5
1870
  8
0
 62
     0
 10
24.620279579532571
 20
130.74999992827139
 30
0.0
 11
25.370279579880322
 21
129.99999992792371
 31
0.0
  0
LINE
  5
1871
  8
0
 62
     0
 10
25.74281159466743
 20
130.7499999282702
 30
0.0
 11
26.492811595013951
 21
129.99999992792371
 31
0.0
  0
LINE
  5
1872
  8
0
 62
     0
 10
26.865343609802309
 20
130.74999992826901
 30
0.0
 11
27.615343610147601
 21
129.99999992792371
 31
0.0
  0
LINE
  5
1873
  8
0
 62
     0
 10
27.987875624937189
 20
130.7499999282677
 30
0.0
 11
28.737875625281252
 21
129.99999992792371
 31
0.0
  0
LINE
  5
1874
  8
0
 62
     0
 10
29.110407640072061
 20
130.7499999282665
 30
0.0
 11
29.860407640414891
 21
129.99999992792371
 31
0.0
  0
LINE
  5
1875
  8
0
 62
     0
 10
30.23293965520693
 20
130.74999992826531
 30
0.0
 11
30.982939655548531
 21
129.99999992792371
 31
0.0
  0
LINE
  5
1876
  8
0
 62
     0
 10
31.35547167034181
 20
130.749999928264
 30
0.0
 11
32.105471670682171
 21
129.99999992792371
 31
0.0
  0
LINE
  5
1877
  8
0
 62
     0
 10
32.478003685476679
 20
130.74999992826281
 30
0.0
 11
33.000000000011951
 21
130.22800361372751
 31
0.0
  0
LINE
  5
1878
  8
0
 62
     0
 10
21.120279580282009
 20
130.7499999282752
 30
0.0
 11
20.370279579930429
 21
129.99999992792371
 31
0.0
  0
LINE
  5
1879
  8
0
 62
     0
 10
22.24281159541443
 20
130.74999992827401
 30
0.0
 11
21.492811595064069
 21
129.99999992792371
 31
0.0
  0
LINE
  5
187A
  8
0
 62
     0
 10
23.365343610546851
 20
130.74999992827281
 30
0.0
 11
22.615343610197709
 21
129.99999992792371
 31
0.0
  0
LINE
  5
187B
  8
0
 62
     0
 10
24.487875625679269
 20
130.74999992827159
 30
0.0
 11
23.737875625331359
 21
129.99999992792371
 31
0.0
  0
LINE
  5
187C
  8
0
 62
     0
 10
25.610407640811669
 20
130.74999992827031
 30
0.0
 11
24.860407640464999
 21
129.99999992792371
 31
0.0
  0
LINE
  5
187D
  8
0
 62
     0
 10
26.73293965594409
 20
130.74999992826909
 30
0.0
 11
25.982939655598649
 21
129.99999992792371
 31
0.0
  0
LINE
  5
187E
  8
0
 62
     0
 10
27.855471671076511
 20
130.7499999282679
 30
0.0
 11
27.105471670732289
 21
129.99999992792371
 31
0.0
  0
LINE
  5
187F
  8
0
 62
     0
 10
28.978003686208911
 20
130.74999992826659
 30
0.0
 11
28.228003685865939
 21
129.99999992792371
 31
0.0
  0
LINE
  5
1880
  8
0
 62
     0
 10
30.100535701341329
 20
130.7499999282654
 30
0.0
 11
29.350535700999579
 21
129.99999992792371
 31
0.0
  0
LINE
  5
1881
  8
0
 62
     0
 10
31.223067716473739
 20
130.74999992826409
 30
0.0
 11
30.47306771613323
 21
129.9999999279236
 31
0.0
  0
LINE
  5
1882
  8
0
 62
     0
 10
32.34559973160615
 20
130.74999992826289
 30
0.0
 11
31.595599731266869
 21
129.99999992792371
 31
0.0
  0
LINE
  5
1883
  8
0
 62
     0
 10
33.000000000012008
 20
130.28186818153509
 30
0.0
 11
32.718131746400523
 21
129.99999992792371
 31
0.0
  0
ENDBLK
  5
1885
  8
0
  0
BLOCK
  8
0
  2
*X42
 70
     1
 10
0.0
 20
0.0
 30
0.0
  3
*X42
  1

  0
LINE
  5
1887
  8
0
 62
     0
 10
20.22393494426753
 20
87.999999927923355
 30
0.0
 11
20.973934944279829
 21
87.249999927911077
 31
0.0
  0
LINE
  5
1888
  8
0
 62
     0
 10
21.34646695940118
 20
87.999999927923383
 30
0.0
 11
22.09646695941224
 21
87.249999927912299
 31
0.0
  0
LINE
  5
1889
  8
0
 62
     0
 10
22.46899897453482
 20
87.999999927923355
 30
0.0
 11
23.218998974544661
 21
87.249999927913535
 31
0.0
  0
LINE
  5
188A
  8
0
 62
     0
 10
23.59153098966846
 20
87.999999927923355
 30
0.0
 11
24.341530989677072
 21
87.249999927914757
 31
0.0
  0
LINE
  5
188B
  8
0
 62
     0
 10
24.71406300480211
 20
87.999999927923355
 30
0.0
 11
25.464063004809489
 21
87.249999927915994
 31
0.0
  0
LINE
  5
188C
  8
0
 62
     0
 10
25.83659501993575
 20
87.999999927923355
 30
0.0
 11
26.5865950199419
 21
87.249999927917216
 31
0.0
  0
LINE
  5
188D
  8
0
 62
     0
 10
26.9591270350694
 20
87.999999927923355
 30
0.0
 11
27.70912703507431
 21
87.249999927918452
 31
0.0
  0
LINE
  5
188E
  8
0
 62
     0
 10
28.08165905020304
 20
87.999999927923355
 30
0.0
 11
28.831659050206731
 21
87.249999927919674
 31
0.0
  0
LINE
  5
188F
  8
0
 62
     0
 10
29.20419106533668
 20
87.999999927923355
 30
0.0
 11
29.954191065339149
 21
87.249999927920896
 31
0.0
  0
LINE
  5
1890
  8
0
 62
     0
 10
30.32672308047033
 20
87.999999927923355
 30
0.0
 11
31.07672308047156
 21
87.249999927922133
 31
0.0
  0
LINE
  5
1891
  8
0
 62
     0
 10
31.44925509560397
 20
87.999999927923355
 30
0.0
 11
32.199255095603966
 21
87.249999927923369
 31
0.0
  0
LINE
  5
1892
  8
0
 62
     0
 10
32.571787110737617
 20
87.999999927923355
 30
0.0
 11
33.000000000012143
 21
87.571787038648836
 31
0.0
  0
LINE
  5
1893
  8
0
 62
     0
 10
21.026496155008569
 20
87.999999927923355
 30
0.0
 11
20.27649615499552
 21
87.249999927910309
 31
0.0
  0
LINE
  5
1894
  8
0
 62
     0
 10
22.149028170142209
 20
87.999999927923355
 30
0.0
 11
21.399028170130379
 21
87.249999927911517
 31
0.0
  0
LINE
  5
1895
  8
0
 62
     0
 10
23.27156018527586
 20
87.999999927923355
 30
0.0
 11
22.521560185265251
 21
87.249999927912768
 31
0.0
  0
LINE
  5
1896
  8
0
 62
     0
 10
24.394092200409499
 20
87.999999927923355
 30
0.0
 11
23.644092200400131
 21
87.24999992791399
 31
0.0
  0
LINE
  5
1897
  8
0
 62
     0
 10
25.516624215543139
 20
87.999999927923355
 30
0.0
 11
24.76662421553501
 21
87.249999927915241
 31
0.0
  0
LINE
  5
1898
  8
0
 62
     0
 10
26.63915623067679
 20
87.999999927923355
 30
0.0
 11
25.889156230669879
 21
87.249999927916434
 31
0.0
  0
LINE
  5
1899
  8
0
 62
     0
 10
27.761688245810429
 20
87.999999927923355
 30
0.0
 11
27.011688245804748
 21
87.249999927917685
 31
0.0
  0
LINE
  5
189A
  8
0
 62
     0
 10
28.884220260944069
 20
87.999999927923355
 30
0.0
 11
28.134220260939632
 21
87.249999927918907
 31
0.0
  0
LINE
  5
189B
  8
0
 62
     0
 10
30.006752276077709
 20
87.999999927923355
 30
0.0
 11
29.25675227607449
 21
87.249999927920143
 31
0.0
  0
LINE
  5
189C
  8
0
 62
     0
 10
31.12928429121137
 20
87.999999927923355
 30
0.0
 11
30.37928429120937
 21
87.249999927921365
 31
0.0
  0
LINE
  5
189D
  8
0
 62
     0
 10
32.251816306344999
 20
87.999999927923355
 30
0.0
 11
31.501816306344239
 21
87.249999927922616
 31
0.0
  0
LINE
  5
189E
  8
0
 62
     0
 10
33.000000000012079
 20
87.625651606456785
 30
0.0
 11
32.624348321479118
 21
87.249999927923824
 31
0.0
  0
ENDBLK
  5
18A0
  8
0
  0
BLOCK
  8
0
  2
*X43
 70
     1
 10
0.0
 20
0.0
 30
0.0
  3
*X43
  1

  0
LINE
  5
18BD
  8
0
 62
     0
 10
20.20000000000076
 20
130.6801514472686
 30
0.0
 11
20.880151519345748
 21
129.99999992792371
 31
0.0
  0
LINE
  5
18BE
  8
0
 62
     0
 10
21.252683534127939
 20
130.74999992827509
 30
0.0
 11
22.002683534479392
 21
129.99999992792371
 31
0.0
  0
LINE
  5
18BF
  8
0
 62
     0
 10
22.375215549262808
 20
130.74999992827389
 30
0.0
 11
23.125215549613031
 21
129.99999992792371
 31
0.0
  0
LINE
  5
18C0
  8
0
 62
     0
 10
23.497747564397681
 20
130.74999992827259
 30
0.0
 11
24.247747564746678
 21
129.99999992792371
 31
0.0
  0
LINE
  5
18C1
  8
0
 62
     0
 10
24.620279579532571
 20
130.74999992827139
 30
0.0
 11
25.370279579880322
 21
129.99999992792371
 31
0.0
  0
LINE
  5
18C2
  8
0
 62
     0
 10
25.74281159466743
 20
130.7499999282702
 30
0.0
 11
26.492811595013951
 21
129.99999992792371
 31
0.0
  0
LINE
  5
18C3
  8
0
 62
     0
 10
26.865343609802309
 20
130.74999992826901
 30
0.0
 11
27.615343610147601
 21
129.99999992792371
 31
0.0
  0
LINE
  5
18C4
  8
0
 62
     0
 10
27.987875624937189
 20
130.7499999282677
 30
0.0
 11
28.737875625281252
 21
129.99999992792371
 31
0.0
  0
LINE
  5
18C5
  8
0
 62
     0
 10
29.110407640072061
 20
130.7499999282665
 30
0.0
 11
29.860407640414891
 21
129.99999992792371
 31
0.0
  0
LINE
  5
18C6
  8
0
 62
     0
 10
30.23293965520693
 20
130.74999992826531
 30
0.0
 11
30.982939655548531
 21
129.99999992792371
 31
0.0
  0
LINE
  5
18C7
  8
0
 62
     0
 10
31.35547167034181
 20
130.749999928264
 30
0.0
 11
32.105471670682171
 21
129.99999992792371
 31
0.0
  0
LINE
  5
18C8
  8
0
 62
     0
 10
32.478003685476679
 20
130.74999992826281
 30
0.0
 11
33.000000000011951
 21
130.22800361372751
 31
0.0
  0
LINE
  5
18C9
  8
0
 62
     0
 10
21.120279580282009
 20
130.7499999282752
 30
0.0
 11
20.370279579930429
 21
129.99999992792371
 31
0.0
  0
LINE
  5
18CA
  8
0
 62
     0
 10
22.24281159541443
 20
130.74999992827401
 30
0.0
 11
21.492811595064069
 21
129.99999992792371
 31
0.0
  0
LINE
  5
18CB
  8
0
 62
     0
 10
23.365343610546851
 20
130.74999992827281
 30
0.0
 11
22.615343610197709
 21
129.99999992792371
 31
0.0
  0
LINE
  5
18CC
  8
0
 62
     0
 10
24.487875625679269
 20
130.74999992827159
 30
0.0
 11
23.737875625331359
 21
129.99999992792371
 31
0.0
  0
LINE
  5
18CD
  8
0
 62
     0
 10
25.610407640811669
 20
130.74999992827031
 30
0.0
 11
24.860407640464999
 21
129.99999992792371
 31
0.0
  0
LINE
  5
18CE
  8
0
 62
     0
 10
26.73293965594409
 20
130.74999992826909
 30
0.0
 11
25.982939655598649
 21
129.99999992792371
 31
0.0
  0
LINE
  5
18CF
  8
0
 62
     0
 10
27.855471671076511
 20
130.7499999282679
 30
0.0
 11
27.105471670732289
 21
129.99999992792371
 31
0.0
  0
LINE
  5
18D0
  8
0
 62
     0
 10
28.978003686208911
 20
130.74999992826659
 30
0.0
 11
28.228003685865939
 21
129.99999992792371
 31
0.0
  0
LINE
  5
18D1
  8
0
 62
     0
 10
30.100535701341329
 20
130.7499999282654
 30
0.0
 11
29.350535700999579
 21
129.99999992792371
 31
0.0
  0
LINE
  5
18D2
  8
0
 62
     0
 10
31.223067716473739
 20
130.74999992826409
 30
0.0
 11
30.47306771613323
 21
129.9999999279236
 31
0.0
  0
LINE
  5
18D3
  8
0
 62
     0
 10
32.34559973160615
 20
130.74999992826289
 30
0.0
 11
31.595599731266869
 21
129.99999992792371
 31
0.0
  0
LINE
  5
18D4
  8
0
 62
     0
 10
33.000000000012008
 20
130.28186818153509
 30
0.0
 11
32.718131746400523
 21
129.99999992792371
 31
0.0
  0
ENDBLK
  5
18D6
  8
0
  0
BLOCK
  8
0
  2
*X44
 70
     1
 10
0.0
 20
0.0
 30
0.0
  3
*X44
  1

  0
LINE
  5
18D8
  8
0
 62
     0
 10
20.22393494426753
 20
87.999999927923355
 30
0.0
 11
20.973934944279829
 21
87.249999927911077
 31
0.0
  0
LINE
  5
18D9
  8
0
 62
     0
 10
21.34646695940118
 20
87.999999927923383
 30
0.0
 11
22.09646695941224
 21
87.249999927912299
 31
0.0
  0
LINE
  5
18DA
  8
0
 62
     0
 10
22.46899897453482
 20
87.999999927923355
 30
0.0
 11
23.218998974544661
 21
87.249999927913535
 31
0.0
  0
LINE
  5
18DB
  8
0
 62
     0
 10
23.59153098966846
 20
87.999999927923355
 30
0.0
 11
24.341530989677072
 21
87.249999927914757
 31
0.0
  0
LINE
  5
18DC
  8
0
 62
     0
 10
24.71406300480211
 20
87.999999927923355
 30
0.0
 11
25.464063004809489
 21
87.249999927915994
 31
0.0
  0
LINE
  5
18DD
  8
0
 62
     0
 10
25.83659501993575
 20
87.999999927923355
 30
0.0
 11
26.5865950199419
 21
87.249999927917216
 31
0.0
  0
LINE
  5
18DE
  8
0
 62
     0
 10
26.9591270350694
 20
87.999999927923355
 30
0.0
 11
27.70912703507431
 21
87.249999927918452
 31
0.0
  0
LINE
  5
18DF
  8
0
 62
     0
 10
28.08165905020304
 20
87.999999927923355
 30
0.0
 11
28.831659050206731
 21
87.249999927919674
 31
0.0
  0
LINE
  5
18E0
  8
0
 62
     0
 10
29.20419106533668
 20
87.999999927923355
 30
0.0
 11
29.954191065339149
 21
87.249999927920896
 31
0.0
  0
LINE
  5
18E1
  8
0
 62
     0
 10
30.32672308047033
 20
87.999999927923355
 30
0.0
 11
31.07672308047156
 21
87.249999927922133
 31
0.0
  0
LINE
  5
18E2
  8
0
 62
     0
 10
31.44925509560397
 20
87.999999927923355
 30
0.0
 11
32.199255095603966
 21
87.249999927923369
 31
0.0
  0
LINE
  5
18E3
  8
0
 62
     0
 10
32.571787110737617
 20
87.999999927923355
 30
0.0
 11
33.000000000012143
 21
87.571787038648836
 31
0.0
  0
LINE
  5
18E4
  8
0
 62
     0
 10
21.026496155008569
 20
87.999999927923355
 30
0.0
 11
20.27649615499552
 21
87.249999927910309
 31
0.0
  0
LINE
  5
18E5
  8
0
 62
     0
 10
22.149028170142209
 20
87.999999927923355
 30
0.0
 11
21.399028170130379
 21
87.249999927911517
 31
0.0
  0
LINE
  5
18E6
  8
0
 62
     0
 10
23.27156018527586
 20
87.999999927923355
 30
0.0
 11
22.521560185265251
 21
87.249999927912768
 31
0.0
  0
LINE
  5
18E7
  8
0
 62
     0
 10
24.394092200409499
 20
87.999999927923355
 30
0.0
 11
23.644092200400131
 21
87.24999992791399
 31
0.0
  0
LINE
  5
18E8
  8
0
 62
     0
 10
25.516624215543139
 20
87.999999927923355
 30
0.0
 11
24.76662421553501
 21
87.249999927915241
 31
0.0
  0
LINE
  5
18E9
  8
0
 62
     0
 10
26.63915623067679
 20
87.999999927923355
 30
0.0
 11
25.889156230669879
 21
87.249999927916434
 31
0.0
  0
LINE
  5
18EA
  8
0
 62
     0
 10
27.761688245810429
 20
87.999999927923355
 30
0.0
 11
27.011688245804748
 21
87.249999927917685
 31
0.0
  0
LINE
  5
18EB
  8
0
 62
     0
 10
28.884220260944069
 20
87.999999927923355
 30
0.0
 11
28.134220260939632
 21
87.249999927918907
 31
0.0
  0
LINE
  5
18EC
  8
0
 62
     0
 10
30.006752276077709
 20
87.999999927923355
 30
0.0
 11
29.25675227607449
 21
87.249999927920143
 31
0.0
  0
LINE
  5
18ED
  8
0
 62
     0
 10
31.12928429121137
 20
87.999999927923355
 30
0.0
 11
30.37928429120937
 21
87.249999927921365
 31
0.0
  0
LINE
  5
18EE
  8
0
 62
     0
 10
32.251816306344999
 20
87.999999927923355
 30
0.0
 11
31.501816306344239
 21
87.249999927922616
 31
0.0
  0
LINE
  5
18EF
  8
0
 62
     0
 10
33.000000000012079
 20
87.625651606456785
 30
0.0
 11
32.624348321479118
 21
87.249999927923824
 31
0.0
  0
ENDBLK
  5
18F1
  8
0
  0
BLOCK
  8
0
  2
*U45
 70
     1
 10
0.0
 20
0.0
 30
0.0
  3
*U45
  1

  0
TEXT
  5
1953
  8
SAPA_MATT
 62
     2
 10
50.049999999998207
 20
171.99999985600741
 30
0.0
 40
3.5
  1
65
  7
ISO
  0
ENDBLK
  5
1955
  8
0
  0
BLOCK
  8
0
  2
*U46
 70
     1
 10
0.0
 20
0.0
 30
0.0
  3
*U46
  1

  0
TEXT
  5
1957
  8
SAPA_MATT
 62
     2
 10
52.550000000000061
 20
159.99999985600741
 30
0.0
 40
3.5
  1
60
  7
ISO
  0
ENDBLK
  5
1959
  8
0
  0
BLOCK
  8
0
  2
*U47
 70
     1
 10
0.0
 20
0.0
 30
0.0
  3
*U47
  1

  0
TEXT
  5
195B
  8
SAPA_MATT
 62
     2
 10
-31.999999999999972
 20
73.174999928003757
 30
0.0
 40
3.5
  1
125
 50
90.0
  7
ISO
  0
ENDBLK
  5
195D
  8
0
  0
BLOCK
  8
0
  2
*U48
 70
     1
 10
0.0
 20
0.0
 30
0.0
  3
*U48
  1

  0
TEXT
  5
195F
  8
SAPA_MATT
 62
     2
 10
-20.0
 20
132.77499992771541
 30
0.0
 40
3.5
  1
6.5
 50
90.0
  7
ISO
  0
ENDBLK
  5
1961
  8
0
  0
ENDSEC
  0
SECTION
  2
ENTITIES
  0
TEXT
  5
70A
  8
SAPA_ARTIKELNR
 10
49.188039105301719
 20
8.9047155378684124
 30
0.0000000048844772
 40
3.5
  1
D8K025
  7
ISO
  0
TEXT
  5
8BF
  8
SAPA_ARTIKELNR
 10
21.985443845703369
 20
35.108374094093293
 30
0.0000000048844772
 40
3.5
  1
D8V020
 50
90.0
  7
ISO
  0
POLYLINE
  5
CBE
  8
SAPA_GLAS
 66
     1
 10
0.0
 20
0.0
 30
0.0
 70
     1
  0
VERTEX
  5
1325
  8
SAPA_GLAS
 10
32.718558811822888
 20
83.499999928235823
 30
0.0
  0
VERTEX
  5
1326
  8
SAPA_GLAS
 10
32.718558811822888
 20
85.499999928235837
 30
0.0
  0
VERTEX
  5
1327
  8
SAPA_GLAS
 10
44.718558811822881
 20
85.499999928235837
 30
0.0
  0
VERTEX
  5
1328
  8
SAPA_GLAS
 10
44.718558811822881
 20
83.499999928235823
 30
0.0
  0
SEQEND
  5
1329
  8
SAPA_GLAS
  0
POLYLINE
  5
CBF
  8
SAPA_GLAS
 66
     1
 10
0.0
 20
0.0
 30
0.0
 70
     1
  0
VERTEX
  5
132A
  8
SAPA_GLAS
 10
32.718558811823073
 20
134.49999992775491
 30
0.0
  0
VERTEX
  5
132B
  8
SAPA_GLAS
 10
32.718558811823073
 20
132.49999992775491
 30
0.0
  0
VERTEX
  5
132C
  8
SAPA_GLAS
 10
44.718558811823073
 20
132.49999992775491
 30
0.0
  0
VERTEX
  5
132D
  8
SAPA_GLAS
 10
44.718558811823073
 20
134.49999992775491
 30
0.0
  0
SEQEND
  5
132E
  8
SAPA_GLAS
  0
LINE
  5
CEA
  8
SAPA_GLAS
 10
25.499999999999989
 20
134.49999992775491
 30
0.0
 11
25.499999999999989
 21
132.15241988195939
 31
0.0
  0
LINE
  5
CEB
  8
SAPA_GLAS
 10
25.168558811798629
 20
82.999999928123842
 30
0.0
 11
25.168558811798629
 21
85.872291608869546
 31
0.0
  0
INSERT
  5
DA4
  8
SAPA_GLAS
  6
CONTINUOUS
  2
*X37
 10
0.0
 20
0.0
 30
0.0
1001
ACAD
1000
HATCH
1002
{
1070
    19
1000
ANSI37
1040
0.25
1040
0.0
1000
R14_HATCH_DATA
1000
DA4
1011
1.0
1021
0.0
1031
0.0
1021
0.0
1031
0.0
1011
0.0
1021
0.0
1031
0.0
1021
1.0
1031
0.0
1011
0.0
1021
0.0
1031
0.0
1021
0.0
1031
1.0
1040
0.0
1010
0.0
1020
0.0
1030
1.0
1000
ANSI37
1070
     0
1070
     0
1071
        1
1071
        7
1070
     1
1070
     1
1071
       22
1040
25.168558811798629
1040
85.872291608869574
1040
0.0
1040
25.168558811798629
1040
82.999999928123842
1040
-0.4142135623726955
1040
25.668558811798611
1040
83.499999928457655
1040
0.0
1040
27.418558811798611
1040
83.49999992845855
1040
-0.4142135623730951
1040
27.918558811798611
1040
82.999999928458536
1040
0.0
1040
27.918558811798611
1040
82.799999928458732
1040
-0.4142135623730948
1040
27.618558811798671
1040
82.499999928458564
1040
0.0
1040
26.968558811798811
1040
82.499999928458564
1040
0.4142135623730951
1040
26.668558811798611
1040
82.199999928457459
1040
0.0
1040
26.668558811798611
1040
81.29999992846146
1040
0.4142135623730951
1040
27.168558811798629
1040
80.799999928461446
1040
0.0
1040
33.168558811798611
1040
80.799999928461446
1040
0.4142135623730951
1040
33.668558811798611
1040
81.29999992846146
1040
0.0
1040
33.668558811798611
1040
82.199999928457459
1040
0.4142135623730952
1040
33.368558811798643
1040
82.499999928458564
1040
0.0
1040
32.7185588117988
1040
82.499999928458564
1040
-0.4142135623730951
1040
32.418558811798611
1040
82.799999928458732
1040
0.0
1040
32.418558811798611
1040
82.999999928458536
1040
-0.4142135622426331
1040
32.918558811798611
1040
83.499999928235823
1040
0.0
1040
32.718558811822888
1040
83.499999928235823
1040
0.0
1040
32.718558811822888
1040
85.499999928235823
1040
0.0
1040
35.000000000037033
1040
85.499999928235809
1040
-0.0189269460902338
1071
        0
1070
     0
1070
     1
1040
0.0
1040
0.25
1070
     0
1070
     2
1040
0.7853981633974483
1040
0.0
1040
0.0
1040
-0.5612660075668221
1040
0.5612660075668221
1070
     0
1040
2.3561944901923439
1040
0.0
1040
0.0
1040
-0.5612660075668221
1040
-0.5612660075668221
1070
     0
1040
0.0273279318620357
1071
        1
1040
30.010864373400409
1040
83.532193531068685
1040
0.0
1002
}
  0
INSERT
  5
EAD
  8
SAPA_GLAS
  6
CONTINUOUS
  2
*X38
 10
0.0
 20
0.0
 30
0.0
1001
ACAD
1000
HATCH
1002
{
1070
    19
1000
ANSI37
1040
0.25
1040
0.0
1000
R14_HATCH_DATA
1000
EAD
1011
1.0
1021
0.0
1031
0.0
1021
0.0
1031
0.0
1011
0.0
1021
0.0
1031
0.0
1021
1.0
1031
0.0
1011
0.0
1021
0.0
1031
0.0
1021
0.0
1031
1.0
1040
0.0
1010
0.0
1020
0.0
1030
1.0
1000
ANSI37
1070
     0
1070
     0
1071
        1
1071
        7
1070
     1
1070
     1
1071
       20
1040
27.749999999999989
1040
134.99999992775491
1040
-0.4142135623731036
1040
27.25
1040
134.49999992775491
1040
0.0
1040
25.499999999999989
1040
134.49999992775491
1040
0.0
1040
25.499999999999989
1040
132.15241988195939
1040
-0.0182875685645212
1040
35.000000000036863
1040
132.49999992775491
1040
0.0
1040
32.718558811823073
1040
132.49999992775491
1040
0.0
1040
32.718558811823073
1040
134.50098945523351
1040
-0.3959013923895259
1040
32.249999999999979
1040
134.99999992775491
1040
0.0
1040
32.249999999999979
1040
135.29999992775049
1040
-0.4142135623730744
1040
32.45000000000072
1040
135.49999992775491
1040
0.0
1040
33.300000000002903
1040
135.499999927744
1040
0.4142135623730533
1040
33.499999999999979
1040
135.6999999277447
1040
0.0
1040
33.499999999999979
1040
136.6999999277447
1040
0.4142135623731036
1040
32.999999999999979
1040
137.1999999277447
1040
0.0
1040
26.999999999999989
1040
137.1999999277447
1040
0.4142135623731033
1040
26.499999999999989
1040
136.6999999277447
1040
0.0
1040
26.50000000001091
1040
135.6999999277447
1040
0.4142135623730641
1040
26.70000000000072
1040
135.49999992775491
1040
0.0
1040
27.5500000000029
1040
135.49999992775491
1040
-0.4142135623730641
1040
27.749999999999989
1040
135.29999992775049
1040
0.0
1071
        0
1070
     0
1070
     1
1040
0.0
1040
0.25
1070
     0
1070
     2
1040
0.7853981633974483
1040
0.0
1040
0.0
1040
-0.5612660075668221
1040
0.5612660075668221
1070
     0
1040
2.3561944901923439
1040
0.0
1040
0.0
1040
-0.5612660075668221
1040
-0.5612660075668221
1070
     0
1040
0.0213076291070774
1071
        1
1040
29.675122396790361
1040
134.98724594988821
1040
0.0
1002
}
  0
INSERT
  5
FAC
  8
SAPA_ANSLUTNING
  6
CONTINUOUS
  2
*X39
 10
0.0
 20
0.0
 30
0.0
1001
ACAD
1000
HATCH
1002
{
1070
    19
1000
ANSI37
1040
0.25
1040
1.5707963267948959
1000
R14_HATCH_DATA
1000
FAC
1011
1.0
1021
0.0
1031
0.0
1021
0.0
1031
0.0
1011
0.0
1021
0.0
1031
0.0
1021
1.0
1031
0.0
1011
0.0
1021
0.0
1031
0.0
1021
0.0
1031
1.0
1040
0.0
1010
0.0
1020
0.0
1030
1.0
1000
ANSI37
1070
     0
1070
     0
1071
        1
1071
        5
1071
        6
1070
     2
1040
26.499999999985171
1040
137.49999992775491
1040
1.4999999999999989
1040
3.9269908169871939
1040
4.7123889803846613
1070
     0
1070
     1
1040
26.499999999985111
1040
138.99999992775491
1040
37.336651236675628
1040
138.9999999277548
1070
     3
1040
37.336651236675948
1040
143.99999992775491
1040
5.6210574168242138
1040
0.0000000000000003
1040
0.8895123513655372
1040
1.5707963267948959
1040
2.144309431217978
1070
     0
1070
     3
1040
37.336651236675948
1040
143.99999992775491
1040
5.6210574168242138
1040
0.0000000000000003
1040
0.8895123513655372
1040
2.144309431217978
1040
4.7123889803846888
1070
     0
1070
     1
1040
37.336651236675323
1040
148.99999992775491
1040
25.00000000000011
1040
148.99999992775491
1070
     2
1040
4.3532787000976887
1040
142.90216751658329
1040
21.528368738726542
1040
-0.2871774259191895
1040
0.2030570252108204
1070
     0
1071
        0
1070
     0
1070
     1
1040
1.5707963267948959
1040
0.25
1070
     0
1070
     2
1040
2.3561944901923439
1040
84.999999999985107
1040
0.0000000000136424
1040
-0.5612660075668221
1040
-0.5612660075668221
1070
     0
1040
3.926990816987241
1040
84.999999999985107
1040
0.0000000000136424
1040
0.5612660075668221
1040
-0.5612660075668221
1070
     0
1040
0.0591690278051155
1071
        1
1040
28.579635287059212
1040
142.9986763470032
1040
0.0
1002
}
  0
LINE
  5
FAD
  8
SAPA_ANSLUTNING
 10
100.0000000000055
 20
14.00000000000011
 30
0.0
 11
100.0000000000055
 21
148.99999992775491
 31
0.0
  0
LINE
  5
FAE
  8
SAPA_ANSLUTNING
 10
25.00000000000011
 20
148.99999992775491
 30
0.0
 11
25.00000000000006
 21
194.0032559344132
 31
0.0
  0
LINE
  5
FAF
  8
SAPA_ANSLUTNING
 10
100.0000000000055
 20
148.99999992775491
 30
0.0
 11
25.00000000000011
 21
148.99999992775491
 31
0.0
  0
ARC
  5
FB0
  8
SAPA_ANSLUTNING
 10
4.353278700097575
 20
142.90216751658329
 30
0.0
 40
21.52836873872667
 50
348.36568945493968
 51
16.454054476599431
  0
INSERT
  5
FB1
  8
SAPA_ANSLUTNING
  6
CONTINUOUS
  2
*X40
 10
0.0
 20
0.0
 30
0.0
1001
ACAD
1000
HATCH
1002
{
1070
    19
1000
HEX
1040
0.25
1040
1.5707963267948959
1000
ASC_BOUNDS
1070
     1
1070
     1
1070
     1
1005
FB2
1000
ASC_SEEDPOINT
1011
37.218313547619232
1021
0.0
1031
0.0
1021
144.2421099378295
1031
0.0
1000
R14_HATCH_DATA
1000
FB1
1011
1.0
1021
0.0
1031
0.0
1021
0.0
1031
0.0
1011
0.0
1021
0.0
1031
0.0
1021
1.0
1031
0.0
1011
0.0
1021
0.0
1031
0.0
1021
0.0
1031
1.0
1040
0.0
1010
0.0
1020
0.0
1030
1.0
1000
HEX
1070
     0
1070
     1
1071
        1
1071
        5
1071
        1
1070
     3
1040
37.336651236675948
1040
143.99999992775491
1040
5.6210574168242138
1040
0.0000000000000003
1040
0.8895123513655372
1040
0.0
1040
6.2831853071795862
1070
     1
1071
        1
1005
FB2
1070
     0
1070
     1
1040
1.5707963267948959
1040
0.25
1070
     0
1070
     3
1040
1.5707963267948959
1040
84.999999999985107
1040
0.0000000000136424
1040
-1.374814999999999
1040
-0.0000000000000001
1070
     2
1040
0.79375
1040
-1.587499999999999
1040
3.6651914291880909
1040
84.999999999985107
1040
0.0000000000136424
1040
0.6874074999999998
1040
-1.190624715503902
1070
     2
1040
0.7937499999999993
1040
-1.5874999999999979
1040
2.6179938779914931
1040
84.999999999985107
1040
0.7937500000136311
1040
-0.6874075
1040
-1.190624715503902
1070
     2
1040
0.79375
1040
-1.587499999999999
1040
0.0591690278051155
1071
        1
1040
37.218313547619232
1040
144.2421099378295
1040
0.0
1002
}
  0
POLYLINE
  5
FB2
  8
SAPA_ANSLUTNING
 10
42.957708653500163
 20
143.99999992775491
 30
0.0
 66
     1
 70
     8
  0
VERTEX
  8
SAPA_ANSLUTNING
  5
1965
 10
42.9577
 20
144.000
 30
0.000000
  70
    32
  0
VERTEX
  8
SAPA_ANSLUTNING
  5
1966
 10
42.9509
 20
144.245
 30
0.000000
  70
    32
  0
VERTEX
  8
SAPA_ANSLUTNING
  5
1967
 10
42.9306
 20
144.490
 30
0.000000
  70
    32
  0
VERTEX
  8
SAPA_ANSLUTNING
  5
1968
 10
42.8969
 20
144.734
 30
0.000000
  70
    32
  0
VERTEX
  8
SAPA_ANSLUTNING
  5
1969
 10
42.8497
 20
144.975
 30
0.000000
  70
    32
  0
VERTEX
  8
SAPA_ANSLUTNING
  5
196A
 10
42.7893
 20
145.215
 30
0.000000
  70
    32
  0
VERTEX
  8
SAPA_ANSLUTNING
  5
196B
 10
42.7157
 20
145.451
 30
0.000000
  70
    32
  0
VERTEX
  8
SAPA_ANSLUTNING
  5
196C
 10
42.6291
 20
145.684
 30
0.000000
  70
    32
  0
VERTEX
  8
SAPA_ANSLUTNING
  5
196D
 10
42.5298
 20
145.913
 30
0.000000
  70
    32
  0
VERTEX
  8
SAPA_ANSLUTNING
  5
196E
 10
42.4180
 20
146.138
 30
0.000000
  70
    32
  0
VERTEX
  8
SAPA_ANSLUTNING
  5
196F
 10
42.2940
 20
146.357
 30
0.000000
  70
    32
  0
VERTEX
  8
SAPA_ANSLUTNING
  5
1970
 10
42.1580
 20
146.571
 30
0.000000
  70
    32
  0
VERTEX
  8
SAPA_ANSLUTNING
  5
1971
 10
42.0104
 20
146.778
 30
0.000000
  70
    32
  0
VERTEX
  8
SAPA_ANSLUTNING
  5
1972
 10
41.8515
 20
146.978
 30
0.000000
  70
    32
  0
VERTEX
  8
SAPA_ANSLUTNING
  5
1973
 10
41.6818
 20
147.172
 30
0.000000
  70
    32
  0
VERTEX
  8
SAPA_ANSLUTNING
  5
1974
 10
41.5016
 20
147.358
 30
0.000000
  70
    32
  0
VERTEX
  8
SAPA_ANSLUTNING
  5
1975
 10
41.3113
 20
147.536
 30
0.000000
  70
    32
  0
VERTEX
  8
SAPA_ANSLUTNING
  5
1976
 10
41.1115
 20
147.705
 30
0.000000
  70
    32
  0
VERTEX
  8
SAPA_ANSLUTNING
  5
1977
 10
40.9026
 20
147.865
 30
0.000000
  70
    32
  0
VERTEX
  8
SAPA_ANSLUTNING
  5
1978
 10
40.6851
 20
148.016
 30
0.000000
  70
    32
  0
VERTEX
  8
SAPA_ANSLUTNING
  5
1979
 10
40.4595
 20
148.157
 30
0.000000
  70
    32
  0
VERTEX
  8
SAPA_ANSLUTNING
  5
197A
 10
40.2265
 20
148.289
 30
0.000000
  70
    32
  0
VERTEX
  8
SAPA_ANSLUTNING
  5
197B
 10
39.9864
 20
148.410
 30
0.000000
  70
    32
  0
VERTEX
  8
SAPA_ANSLUTNING
  5
197C
 10
39.7400
 20
148.520
 30
0.000000
  70
    32
  0
VERTEX
  8
SAPA_ANSLUTNING
  5
197D
 10
39.4877
 20
148.619
 30
0.000000
  70
    32
  0
VERTEX
  8
SAPA_ANSLUTNING
  5
197E
 10
39.2303
 20
148.708
 30
0.000000
  70
    32
  0
VERTEX
  8
SAPA_ANSLUTNING
  5
197F
 10
38.9684
 20
148.785
 30
0.000000
  70
    32
  0
VERTEX
  8
SAPA_ANSLUTNING
  5
1980
 10
38.7025
 20
148.850
 30
0.000000
  70
    32
  0
VERTEX
  8
SAPA_ANSLUTNING
  5
1981
 10
38.4333
 20
148.904
 30
0.000000
  70
    32
  0
VERTEX
  8
SAPA_ANSLUTNING
  5
1982
 10
38.1614
 20
148.946
 30
0.000000
  70
    32
  0
VERTEX
  8
SAPA_ANSLUTNING
  5
1983
 10
37.8876
 20
148.976
 30
0.000000
  70
    32
  0
VERTEX
  8
SAPA_ANSLUTNING
  5
1984
 10
37.6125
 20
148.994
 30
0.000000
  70
    32
  0
VERTEX
  8
SAPA_ANSLUTNING
  5
1985
 10
37.3367
 20
149.000
 30
0.000000
  70
    32
  0
VERTEX
  8
SAPA_ANSLUTNING
  5
1986
 10
37.0608
 20
148.994
 30
0.000000
  70
    32
  0
VERTEX
  8
SAPA_ANSLUTNING
  5
1987
 10
36.7857
 20
148.976
 30
0.000000
  70
    32
  0
VERTEX
  8
SAPA_ANSLUTNING
  5
1988
 10
36.5119
 20
148.946
 30
0.000000
  70
    32
  0
VERTEX
  8
SAPA_ANSLUTNING
  5
1989
 10
36.2400
 20
148.904
 30
0.000000
  70
    32
  0
VERTEX
  8
SAPA_ANSLUTNING
  5
198A
 10
35.9708
 20
148.850
 30
0.000000
  70
    32
  0
VERTEX
  8
SAPA_ANSLUTNING
  5
198B
 10
35.7049
 20
148.785
 30
0.000000
  70
    32
  0
VERTEX
  8
SAPA_ANSLUTNING
  5
198C
 10
35.4430
 20
148.708
 30
0.000000
  70
    32
  0
VERTEX
  8
SAPA_ANSLUTNING
  5
198D
 10
35.1856
 20
148.619
 30
0.000000
  70
    32
  0
VERTEX
  8
SAPA_ANSLUTNING
  5
198E
 10
34.9333
 20
148.520
 30
0.000000
  70
    32
  0
VERTEX
  8
SAPA_ANSLUTNING
  5
198F
 10
34.6869
 20
148.410
 30
0.000000
  70
    32
  0
VERTEX
  8
SAPA_ANSLUTNING
  5
1990
 10
34.4469
 20
148.289
 30
0.000000
  70
    32
  0
VERTEX
  8
SAPA_ANSLUTNING
  5
1991
 10
34.2138
 20
148.157
 30
0.000000
  70
    32
  0
VERTEX
  8
SAPA_ANSLUTNING
  5
1992
 10
33.9882
 20
148.016
 30
0.000000
  70
    32
  0
VERTEX
  8
SAPA_ANSLUTNING
  5
1993
 10
33.7707
 20
147.865
 30
0.000000
  70
    32
  0
VERTEX
  8
SAPA_ANSLUTNING
  5
1994
 10
33.5618
 20
147.705
 30
0.000000
  70
    32
  0
VERTEX
  8
SAPA_ANSLUTNING
  5
1995
 10
33.3620
 20
147.536
 30
0.000000
  70
    32
  0
VERTEX
  8
SAPA_ANSLUTNING
  5
1996
 10
33.1717
 20
147.358
 30
0.000000
  70
    32
  0
VERTEX
  8
SAPA_ANSLUTNING
  5
1997
 10
32.9915
 20
147.172
 30
0.000000
  70
    32
  0
VERTEX
  8
SAPA_ANSLUTNING
  5
1998
 10
32.8218
 20
146.978
 30
0.000000
  70
    32
  0
VERTEX
  8
SAPA_ANSLUTNING
  5
1999
 10
32.6629
 20
146.778
 30
0.000000
  70
    32
  0
VERTEX
  8
SAPA_ANSLUTNING
  5
199A
 10
32.5153
 20
146.571
 30
0.000000
  70
    32
  0
VERTEX
  8
SAPA_ANSLUTNING
  5
199B
 10
32.3793
 20
146.357
 30
0.000000
  70
    32
  0
VERTEX
  8
SAPA_ANSLUTNING
  5
199C
 10
32.2553
 20
146.138
 30
0.000000
  70
    32
  0
VERTEX
  8
SAPA_ANSLUTNING
  5
199D
 10
32.1435
 20
145.913
 30
0.000000
  70
    32
  0
VERTEX
  8
SAPA_ANSLUTNING
  5
199E
 10
32.0442
 20
145.684
 30
0.000000
  70
    32
  0
VERTEX
  8
SAPA_ANSLUTNING
  5
199F
 10
31.9576
 20
145.451
 30
0.000000
  70
    32
  0
VERTEX
  8
SAPA_ANSLUTNING
  5
19A0
 10
31.8840
 20
145.215
 30
0.000000
  70
    32
  0
VERTEX
  8
SAPA_ANSLUTNING
  5
19A1
 10
31.8236
 20
144.975
 30
0.000000
  70
    32
  0
VERTEX
  8
SAPA_ANSLUTNING
  5
19A2
 10
31.7764
 20
144.734
 30
0.000000
  70
    32
  0
VERTEX
  8
SAPA_ANSLUTNING
  5
19A3
 10
31.7427
 20
144.490
 30
0.000000
  70
    32
  0
VERTEX
  8
SAPA_ANSLUTNING
  5
19A4
 10
31.7224
 20
144.245
 30
0.000000
  70
    32
  0
VERTEX
  8
SAPA_ANSLUTNING
  5
19A5
 10
31.7156
 20
144.000
 30
0.000000
  70
    32
  0
VERTEX
  8
SAPA_ANSLUTNING
  5
19A6
 10
31.7224
 20
143.755
 30
0.000000
  70
    32
  0
VERTEX
  8
SAPA_ANSLUTNING
  5
19A7
 10
31.7427
 20
143.510
 30
0.000000
  70
    32
  0
VERTEX
  8
SAPA_ANSLUTNING
  5
19A8
 10
31.7764
 20
143.266
 30
0.000000
  70
    32
  0
VERTEX
  8
SAPA_ANSLUTNING
  5
19A9
 10
31.8236
 20
143.025
 30
0.000000
  70
    32
  0
VERTEX
  8
SAPA_ANSLUTNING
  5
19AA
 10
31.8840
 20
142.785
 30
0.000000
  70
    32
  0
VERTEX
  8
SAPA_ANSLUTNING
  5
19AB
 10
31.9576
 20
142.549
 30
0.000000
  70
    32
  0
VERTEX
  8
SAPA_ANSLUTNING
  5
19AC
 10
32.0442
 20
142.316
 30
0.000000
  70
    32
  0
VERTEX
  8
SAPA_ANSLUTNING
  5
19AD
 10
32.1435
 20
142.087
 30
0.000000
  70
    32
  0
VERTEX
  8
SAPA_ANSLUTNING
  5
19AE
 10
32.2553
 20
141.862
 30
0.000000
  70
    32
  0
VERTEX
  8
SAPA_ANSLUTNING
  5
19AF
 10
32.3793
 20
141.643
 30
0.000000
  70
    32
  0
VERTEX
  8
SAPA_ANSLUTNING
  5
19B0
 10
32.5153
 20
141.429
 30
0.000000
  70
    32
  0
VERTEX
  8
SAPA_ANSLUTNING
  5
19B1
 10
32.6629
 20
141.222
 30
0.000000
  70
    32
  0
VERTEX
  8
SAPA_ANSLUTNING
  5
19B2
 10
32.8218
 20
141.022
 30
0.000000
  70
    32
  0
VERTEX
  8
SAPA_ANSLUTNING
  5
19B3
 10
32.9915
 20
140.828
 30
0.000000
  70
    32
  0
VERTEX
  8
SAPA_ANSLUTNING
  5
19B4
 10
33.1717
 20
140.642
 30
0.000000
  70
    32
  0
VERTEX
  8
SAPA_ANSLUTNING
  5
19B5
 10
33.3620
 20
140.464
 30
0.000000
  70
    32
  0
VERTEX
  8
SAPA_ANSLUTNING
  5
19B6
 10
33.5618
 20
140.295
 30
0.000000
  70
    32
  0
VERTEX
  8
SAPA_ANSLUTNING
  5
19B7
 10
33.7707
 20
140.135
 30
0.000000
  70
    32
  0
VERTEX
  8
SAPA_ANSLUTNING
  5
19B8
 10
33.9882
 20
139.984
 30
0.000000
  70
    32
  0
VERTEX
  8
SAPA_ANSLUTNING
  5
19B9
 10
34.2138
 20
139.843
 30
0.000000
  70
    32
  0
VERTEX
  8
SAPA_ANSLUTNING
  5
19BA
 10
34.4469
 20
139.711
 30
0.000000
  70
    32
  0
VERTEX
  8
SAPA_ANSLUTNING
  5
19BB
 10
34.6869
 20
139.590
 30
0.000000
  70
    32
  0
VERTEX
  8
SAPA_ANSLUTNING
  5
19BC
 10
34.9333
 20
139.480
 30
0.000000
  70
    32
  0
VERTEX
  8
SAPA_ANSLUTNING
  5
19BD
 10
35.1856
 20
139.381
 30
0.000000
  70
    32
  0
VERTEX
  8
SAPA_ANSLUTNING
  5
19BE
 10
35.4430
 20
139.292
 30
0.000000
  70
    32
  0
VERTEX
  8
SAPA_ANSLUTNING
  5
19BF
 10
35.7049
 20
139.215
 30
0.000000
  70
    32
  0
VERTEX
  8
SAPA_ANSLUTNING
  5
19C0
 10
35.9708
 20
139.150
 30
0.000000
  70
    32
  0
VERTEX
  8
SAPA_ANSLUTNING
  5
19C1
 10
36.2400
 20
139.096
 30
0.000000
  70
    32
  0
VERTEX
  8
SAPA_ANSLUTNING
  5
19C2
 10
36.5119
 20
139.054
 30
0.000000
  70
    32
  0
VERTEX
  8
SAPA_ANSLUTNING
  5
19C3
 10
36.7857
 20
139.024
 30
0.000000
  70
    32
  0
VERTEX
  8
SAPA_ANSLUTNING
  5
19C4
 10
37.0608
 20
139.006
 30
0.000000
  70
    32
  0
VERTEX
  8
SAPA_ANSLUTNING
  5
19C5
 10
37.3367
 20
139.000
 30
0.000000
  70
    32
  0
VERTEX
  8
SAPA_ANSLUTNING
  5
19C6
 10
37.6125
 20
139.006
 30
0.000000
  70
    32
  0
VERTEX
  8
SAPA_ANSLUTNING
  5
19C7
 10
37.8876
 20
139.024
 30
0.000000
  70
    32
  0
VERTEX
  8
SAPA_ANSLUTNING
  5
19C8
 10
38.1614
 20
139.054
 30
0.000000
  70
    32
  0
VERTEX
  8
SAPA_ANSLUTNING
  5
19C9
 10
38.4333
 20
139.096
 30
0.000000
  70
    32
  0
VERTEX
  8
SAPA_ANSLUTNING
  5
19CA
 10
38.7025
 20
139.150
 30
0.000000
  70
    32
  0
VERTEX
  8
SAPA_ANSLUTNING
  5
19CB
 10
38.9684
 20
139.215
 30
0.000000
  70
    32
  0
VERTEX
  8
SAPA_ANSLUTNING
  5
19CC
 10
39.2303
 20
139.292
 30
0.000000
  70
    32
  0
VERTEX
  8
SAPA_ANSLUTNING
  5
19CD
 10
39.4877
 20
139.381
 30
0.000000
  70
    32
  0
VERTEX
  8
SAPA_ANSLUTNING
  5
19CE
 10
39.7400
 20
139.480
 30
0.000000
  70
    32
  0
VERTEX
  8
SAPA_ANSLUTNING
  5
19CF
 10
39.9864
 20
139.590
 30
0.000000
  70
    32
  0
VERTEX
  8
SAPA_ANSLUTNING
  5
19D0
 10
40.2265
 20
139.711
 30
0.000000
  70
    32
  0
VERTEX
  8
SAPA_ANSLUTNING
  5
19D1
 10
40.4595
 20
139.843
 30
0.000000
  70
    32
  0
VERTEX
  8
SAPA_ANSLUTNING
  5
19D2
 10
40.6851
 20
139.984
 30
0.000000
  70
    32
  0
VERTEX
  8
SAPA_ANSLUTNING
  5
19D3
 10
40.9026
 20
140.135
 30
0.000000
  70
    32
  0
VERTEX
  8
SAPA_ANSLUTNING
  5
19D4
 10
41.1115
 20
140.295
 30
0.000000
  70
    32
  0
VERTEX
  8
SAPA_ANSLUTNING
  5
19D5
 10
41.3113
 20
140.464
 30
0.000000
  70
    32
  0
VERTEX
  8
SAPA_ANSLUTNING
  5
19D6
 10
41.5016
 20
140.642
 30
0.000000
  70
    32
  0
VERTEX
  8
SAPA_ANSLUTNING
  5
19D7
 10
41.6818
 20
140.828
 30
0.000000
  70
    32
  0
VERTEX
  8
SAPA_ANSLUTNING
  5
19D8
 10
41.8515
 20
141.022
 30
0.000000
  70
    32
  0
VERTEX
  8
SAPA_ANSLUTNING
  5
19D9
 10
42.0104
 20
141.222
 30
0.000000
  70
    32
  0
VERTEX
  8
SAPA_ANSLUTNING
  5
19DA
 10
42.1580
 20
141.429
 30
0.000000
  70
    32
  0
VERTEX
  8
SAPA_ANSLUTNING
  5
19DB
 10
42.2940
 20
141.643
 30
0.000000
  70
    32
  0
VERTEX
  8
SAPA_ANSLUTNING
  5
19DC
 10
42.4180
 20
141.862
 30
0.000000
  70
    32
  0
VERTEX
  8
SAPA_ANSLUTNING
  5
19DD
 10
42.5298
 20
142.087
 30
0.000000
  70
    32
  0
VERTEX
  8
SAPA_ANSLUTNING
  5
19DE
 10
42.6291
 20
142.316
 30
0.000000
  70
    32
  0
VERTEX
  8
SAPA_ANSLUTNING
  5
19DF
 10
42.7157
 20
142.549
 30
0.000000
  70
    32
  0
VERTEX
  8
SAPA_ANSLUTNING
  5
19E0
 10
42.7893
 20
142.785
 30
0.000000
  70
    32
  0
VERTEX
  8
SAPA_ANSLUTNING
  5
19E1
 10
42.8497
 20
143.025
 30
0.000000
  70
    32
  0
VERTEX
  8
SAPA_ANSLUTNING
  5
19E2
 10
42.8969
 20
143.266
 30
0.000000
  70
    32
  0
VERTEX
  8
SAPA_ANSLUTNING
  5
19E3
 10
42.9306
 20
143.510
 30
0.000000
  70
    32
  0
VERTEX
  8
SAPA_ANSLUTNING
  5
19E4
 10
42.9509
 20
143.755
 30
0.000000
  70
    32
  0
VERTEX
  8
SAPA_ANSLUTNING
  5
19E5
 10
42.9577
 20
144.000
 30
0.000000
  70
    32
  0
SEQEND
  8
SAPA_ANSLUTNING
  5
19E6
  0
POLYLINE
  5
FB3
  8
SAPA_ANSLUTNING
 66
     1
 10
0.0
 20
0.0
 30
0.0
  0
VERTEX
  5
13FC
  8
SAPA_ANSLUTNING
 10
41.352069590546648
 20
140.5010714710958
 30
0.0
 42
0.8812634091771133
  0
VERTEX
  5
13FD
  8
SAPA_ANSLUTNING
 10
45.28883761876682
 20
140.99999992775491
 30
0.0
  0
VERTEX
  5
13FE
  8
SAPA_ANSLUTNING
 10
45.28883761876682
 20
146.99999992775491
 30
0.0
 42
-0.9999999999999998
  0
VERTEX
  5
13FF
  8
SAPA_ANSLUTNING
 10
49.28883761876682
 20
146.99999992775491
 30
0.0
  0
VERTEX
  5
1400
  8
SAPA_ANSLUTNING
 10
49.28883761876682
 20
140.99999992775491
 30
0.0
 42
0.9999999999999998
  0
VERTEX
  5
1401
  8
SAPA_ANSLUTNING
 10
53.28883761876682
 20
140.99999992775491
 30
0.0
  0
VERTEX
  5
1402
  8
SAPA_ANSLUTNING
 10
53.28883761876682
 20
146.99999992775491
 30
0.0
 42
-0.9999999999999998
  0
VERTEX
  5
1403
  8
SAPA_ANSLUTNING
 10
57.28883761876682
 20
146.99999992775491
 30
0.0
  0
VERTEX
  5
1404
  8
SAPA_ANSLUTNING
 10
57.28883761876682
 20
140.99999992775491
 30
0.0
 42
0.9999999999999998
  0
VERTEX
  5
1405
  8
SAPA_ANSLUTNING
 10
61.28883761876682
 20
140.99999992775491
 30
0.0
  0
VERTEX
  5
1406
  8
SAPA_ANSLUTNING
 10
61.28883761876682
 20
146.99999992775491
 30
0.0
 42
-0.9999999999999998
  0
VERTEX
  5
1407
  8
SAPA_ANSLUTNING
 10
65.28883761876682
 20
146.99999992775491
 30
0.0
  0
VERTEX
  5
1408
  8
SAPA_ANSLUTNING
 10
65.28883761876682
 20
140.99999992775491
 30
0.0
 42
0.9999999999999998
  0
VERTEX
  5
1409
  8
SAPA_ANSLUTNING
 10
69.28883761876682
 20
140.99999992775491
 30
0.0
  0
VERTEX
  5
140A
  8
SAPA_ANSLUTNING
 10
69.28883761876682
 20
146.99999992775491
 30
0.0
 42
-0.9999999999999998
  0
VERTEX
  5
140B
  8
SAPA_ANSLUTNING
 10
73.28883761876682
 20
146.99999992775491
 30
0.0
  0
VERTEX
  5
140C
  8
SAPA_ANSLUTNING
 10
73.28883761876682
 20
140.99999992775491
 30
0.0
 42
0.9999999999999998
  0
VERTEX
  5
140D
  8
SAPA_ANSLUTNING
 10
77.28883761876682
 20
140.99999992775491
 30
0.0
  0
VERTEX
  5
140E
  8
SAPA_ANSLUTNING
 10
77.28883761876682
 20
146.99999992775491
 30
0.0
 42
-0.9999999999999998
  0
VERTEX
  5
140F
  8
SAPA_ANSLUTNING
 10
81.288837618766792
 20
146.99999992775491
 30
0.0
  0
VERTEX
  5
1410
  8
SAPA_ANSLUTNING
 10
81.288837618766792
 20
140.99999992775491
 30
0.0
 42
0.9999999999999998
  0
VERTEX
  5
1411
  8
SAPA_ANSLUTNING
 10
85.288837618766792
 20
140.99999992775491
 30
0.0
  0
VERTEX
  5
1412
  8
SAPA_ANSLUTNING
 10
85.288837618766792
 20
146.99999992775491
 30
0.0
 42
-0.9999999999999998
  0
VERTEX
  5
1413
  8
SAPA_ANSLUTNING
 10
89.288837618766792
 20
146.99999992775491
 30
0.0
  0
VERTEX
  5
1414
  8
SAPA_ANSLUTNING
 10
89.288837618766792
 20
140.99999992775491
 30
0.0
 42
0.9999999999999998
  0
VERTEX
  5
1415
  8
SAPA_ANSLUTNING
 10
93.288837618766806
 20
140.99999992775491
 30
0.0
  0
VERTEX
  5
1416
  8
SAPA_ANSLUTNING
 10
93.288837618766806
 20
146.99999992775491
 30
0.0
 42
-0.9999999999999998
  0
VERTEX
  5
1417
  8
SAPA_ANSLUTNING
 10
97.288837618766806
 20
146.99999992775491
 30
0.0
  0
VERTEX
  5
1418
  8
SAPA_ANSLUTNING
 10
97.288837618766806
 20
140.99999992775491
 30
0.0
 42
0.5251735434384823
  0
VERTEX
  5
1419
  8
SAPA_ANSLUTNING
 10
100.0000000000055
 20
139.1307091350983
 30
0.0
 42
0.5251735434384823
  0
SEQEND
  5
141A
  8
SAPA_ANSLUTNING
  0
LINE
  5
FB4
  8
SAPA_ANSLUTNING
 10
25.00000000000006
 20
14.00000000000011
 30
0.0
 11
25.00000000000006
 21
-30.619466477045759
 31
0.0
  0
LINE
  5
FB5
  8
SAPA_ANSLUTNING
 10
25.00000000000006
 20
14.00000000000011
 30
0.0
 11
100.0000000000055
 21
14.00000000000011
 31
0.0
  0
POLYLINE
  5
FB6
  8
SAPA_ANSLUTNING
 66
     1
 10
0.0
 20
0.0
 30
0.0
  0
VERTEX
  5
141B
  8
SAPA_ANSLUTNING
 10
98.498928456659144
 20
14.00000000000011
 30
0.0
 42
0.8812634091771133
  0
VERTEX
  5
141C
  8
SAPA_ANSLUTNING
 10
98.000000000000057
 20
17.936768028220278
 30
0.0
  0
VERTEX
  5
141D
  8
SAPA_ANSLUTNING
 10
87.000000000000057
 20
17.936768028220278
 30
0.0
 42
-0.9999999999999998
  0
VERTEX
  5
141E
  8
SAPA_ANSLUTNING
 10
87.000000000000057
 20
21.936768028220289
 30
0.0
  0
VERTEX
  5
141F
  8
SAPA_ANSLUTNING
 10
98.000000000000057
 20
21.936768028220261
 30
0.0
 42
0.9999999999999998
  0
VERTEX
  5
1420
  8
SAPA_ANSLUTNING
 10
98.000000000000057
 20
25.936768028220261
 30
0.0
  0
VERTEX
  5
1421
  8
SAPA_ANSLUTNING
 10
87.000000000000057
 20
25.936768028220289
 30
0.0
 42
-0.9999999999999998
  0
VERTEX
  5
1422
  8
SAPA_ANSLUTNING
 10
87.000000000000057
 20
29.936768028220289
 30
0.0
  0
VERTEX
  5
1423
  8
SAPA_ANSLUTNING
 10
98.000000000000057
 20
29.936768028220261
 30
0.0
 42
0.9999999999999998
  0
VERTEX
  5
1424
  8
SAPA_ANSLUTNING
 10
98.000000000000057
 20
33.936768028220257
 30
0.0
  0
VERTEX
  5
1425
  8
SAPA_ANSLUTNING
 10
87.000000000000057
 20
33.936768028220257
 30
0.0
 42
-0.9999999999999998
  0
VERTEX
  5
1426
  8
SAPA_ANSLUTNING
 10
87.000000000000057
 20
37.936768028220257
 30
0.0
  0
VERTEX
  5
1427
  8
SAPA_ANSLUTNING
 10
98.000000000000057
 20
37.936768028220257
 30
0.0
 42
0.9999999999999998
  0
VERTEX
  5
1428
  8
SAPA_ANSLUTNING
 10
98.000000000000057
 20
41.93676802822025
 30
0.0
  0
VERTEX
  5
1429
  8
SAPA_ANSLUTNING
 10
87.000000000000057
 20
41.93676802822025
 30
0.0
 42
-0.9999999999999998
  0
VERTEX
  5
142A
  8
SAPA_ANSLUTNING
 10
87.000000000000057
 20
45.936768028220257
 30
0.0
  0
VERTEX
  5
142B
  8
SAPA_ANSLUTNING
 10
98.000000000000057
 20
45.936768028220257
 30
0.0
 42
0.9999999999999998
  0
VERTEX
  5
142C
  8
SAPA_ANSLUTNING
 10
98.000000000000057
 20
49.936768028220257
 30
0.0
  0
VERTEX
  5
142D
  8
SAPA_ANSLUTNING
 10
87.000000000000057
 20
49.936768028220257
 30
0.0
 42
-0.9999999999999998
  0
VERTEX
  5
142E
  8
SAPA_ANSLUTNING
 10
87.000000000000057
 20
53.93676802822025
 30
0.0
  0
VERTEX
  5
142F
  8
SAPA_ANSLUTNING
 10
98.000000000000057
 20
53.93676802822025
 30
0.0
 42
0.9999999999999998
  0
VERTEX
  5
1430
  8
SAPA_ANSLUTNING
 10
98.000000000000043
 20
57.936768028220257
 30
0.0
  0
VERTEX
  5
1431
  8
SAPA_ANSLUTNING
 10
87.000000000000014
 20
57.936768028220257
 30
0.0
 42
-0.9999999999999998
  0
VERTEX
  5
1432
  8
SAPA_ANSLUTNING
 10
87.000000000000014
 20
61.93676802822025
 30
0.0
  0
VERTEX
  5
1433
  8
SAPA_ANSLUTNING
 10
98.000000000000043
 20
61.93676802822025
 30
0.0
 42
0.9999999999999998
  0
VERTEX
  5
1434
  8
SAPA_ANSLUTNING
 10
98.000000000000043
 20
65.936768028220257
 30
0.0
  0
VERTEX
  5
1435
  8
SAPA_ANSLUTNING
 10
87.000000000000014
 20
65.936768028220257
 30
0.0
 42
-0.9999999999999998
  0
VERTEX
  5
1436
  8
SAPA_ANSLUTNING
 10
87.000000000000014
 20
69.936768028220257
 30
0.0
  0
VERTEX
  5
1437
  8
SAPA_ANSLUTNING
 10
98.000000000000043
 20
69.936768028220257
 30
0.0
 42
0.5251735434384823
  0
VERTEX
  5
1438
  8
SAPA_ANSLUTNING
 10
99.869290792656642
 20
72.647930409458979
 30
0.0
 42
0.5251735434384823
  0
SEQEND
  5
1439
  8
SAPA_ANSLUTNING
  0
POLYLINE
  5
FB7
  8
SAPA_ANSLUTNING
 66
     1
 10
0.0
 20
0.0
 30
0.0
  0
VERTEX
  5
143A
  8
SAPA_ANSLUTNING
 10
98.498928456659115
 20
62.000000000000107
 30
0.0
 42
0.8812634091771133
  0
VERTEX
  5
143B
  8
SAPA_ANSLUTNING
 10
98.000000000000043
 20
65.936768028220257
 30
0.0
  0
VERTEX
  5
143C
  8
SAPA_ANSLUTNING
 10
87.000000000000014
 20
65.936768028220257
 30
0.0
 42
-0.9999999999999998
  0
VERTEX
  5
143D
  8
SAPA_ANSLUTNING
 10
87.000000000000014
 20
69.936768028220257
 30
0.0
  0
VERTEX
  5
143E
  8
SAPA_ANSLUTNING
 10
98.000000000000043
 20
69.936768028220214
 30
0.0
 42
0.9999999999999998
  0
VERTEX
  5
143F
  8
SAPA_ANSLUTNING
 10
98.000000000000043
 20
73.936768028220229
 30
0.0
  0
VERTEX
  5
1440
  8
SAPA_ANSLUTNING
 10
87.000000000000014
 20
73.936768028220257
 30
0.0
 42
-0.9999999999999998
  0
VERTEX
  5
1441
  8
SAPA_ANSLUTNING
 10
87.000000000000014
 20
77.936768028220257
 30
0.0
  0
VERTEX
  5
1442
  8
SAPA_ANSLUTNING
 10
98.000000000000043
 20
77.936768028220229
 30
0.0
 42
0.9999999999999998
  0
VERTEX
  5
1443
  8
SAPA_ANSLUTNING
 10
98.000000000000043
 20
81.936768028220229
 30
0.0
  0
VERTEX
  5
1444
  8
SAPA_ANSLUTNING
 10
87.000000000000014
 20
81.936768028220229
 30
0.0
 42
-0.9999999999999998
  0
VERTEX
  5
1445
  8
SAPA_ANSLUTNING
 10
87.000000000000014
 20
85.936768028220214
 30
0.0
  0
VERTEX
  5
1446
  8
SAPA_ANSLUTNING
 10
98.000000000000043
 20
85.936768028220214
 30
0.0
 42
0.9999999999999998
  0
VERTEX
  5
1447
  8
SAPA_ANSLUTNING
 10
98.000000000000043
 20
89.936768028220214
 30
0.0
  0
VERTEX
  5
1448
  8
SAPA_ANSLUTNING
 10
87.000000000000014
 20
89.936768028220214
 30
0.0
 42
-0.9999999999999998
  0
VERTEX
  5
1449
  8
SAPA_ANSLUTNING
 10
87.000000000000014
 20
93.936768028220229
 30
0.0
  0
VERTEX
  5
144A
  8
SAPA_ANSLUTNING
 10
98.000000000000043
 20
93.936768028220229
 30
0.0
 42
0.9999999999999998
  0
VERTEX
  5
144B
  8
SAPA_ANSLUTNING
 10
98.000000000000043
 20
97.936768028220229
 30
0.0
  0
VERTEX
  5
144C
  8
SAPA_ANSLUTNING
 10
87.000000000000014
 20
97.936768028220229
 30
0.0
 42
-0.9999999999999998
  0
VERTEX
  5
144D
  8
SAPA_ANSLUTNING
 10
87.000000000000014
 20
101.9367680282202
 30
0.0
  0
VERTEX
  5
144E
  8
SAPA_ANSLUTNING
 10
98.000000000000043
 20
101.9367680282202
 30
0.0
 42
0.9999999999999998
  0
VERTEX
  5
144F
  8
SAPA_ANSLUTNING
 10
98.000000000000043
 20
105.9367680282202
 30
0.0
  0
VERTEX
  5
1450
  8
SAPA_ANSLUTNING
 10
87.000000000000014
 20
105.9367680282202
 30
0.0
 42
-0.9999999999999998
  0
VERTEX
  5
1451
  8
SAPA_ANSLUTNING
 10
87.000000000000014
 20
109.9367680282202
 30
0.0
  0
VERTEX
  5
1452
  8
SAPA_ANSLUTNING
 10
98.000000000000043
 20
109.9367680282202
 30
0.0
 42
0.9999999999999998
  0
VERTEX
  5
1453
  8
SAPA_ANSLUTNING
 10
98.000000000000043
 20
113.9367680282202
 30
0.0
  0
VERTEX
  5
1454
  8
SAPA_ANSLUTNING
 10
87.000000000000014
 20
113.9367680282202
 30
0.0
 42
-0.9999999999999998
  0
VERTEX
  5
1455
  8
SAPA_ANSLUTNING
 10
87.000000000000014
 20
117.9367680282202
 30
0.0
  0
VERTEX
  5
1456
  8
SAPA_ANSLUTNING
 10
98.000000000000043
 20
117.9367680282202
 30
0.0
 42
0.5251735434384823
  0
VERTEX
  5
1457
  8
SAPA_ANSLUTNING
 10
99.869290792656642
 20
120.64793040945899
 30
0.0
 42
0.5251735434384823
  0
SEQEND
  5
1458
  8
SAPA_ANSLUTNING
  0
POLYLINE
  5
FB8
  8
SAPA_ANSLUTNING
 66
     1
 10
0.0
 20
0.0
 30
0.0
  0
VERTEX
  5
1459
  8
SAPA_ANSLUTNING
 10
98.498928456659115
 20
110.0000000000001
 30
0.0
 42
0.8812634091771133
  0
VERTEX
  5
145A
  8
SAPA_ANSLUTNING
 10
98.000000000000043
 20
113.9367680282202
 30
0.0
  0
VERTEX
  5
145B
  8
SAPA_ANSLUTNING
 10
87.000000000000014
 20
113.9367680282202
 30
0.0
 42
-0.9999999999999998
  0
VERTEX
  5
145C
  8
SAPA_ANSLUTNING
 10
87.000000000000014
 20
117.9367680282202
 30
0.0
  0
VERTEX
  5
145D
  8
SAPA_ANSLUTNING
 10
98.000000000000043
 20
117.9367680282202
 30
0.0
 42
0.9999999999999998
  0
VERTEX
  5
145E
  8
SAPA_ANSLUTNING
 10
98.000000000000043
 20
121.9367680282202
 30
0.0
  0
VERTEX
  5
145F
  8
SAPA_ANSLUTNING
 10
87.000000000000014
 20
121.9367680282202
 30
0.0
 42
-0.9999999999999998
  0
VERTEX
  5
1460
  8
SAPA_ANSLUTNING
 10
87.000000000000014
 20
125.9367680282202
 30
0.0
  0
VERTEX
  5
1461
  8
SAPA_ANSLUTNING
 10
98.000000000000043
 20
125.9367680282202
 30
0.0
 42
0.9999999999999998
  0
VERTEX
  5
1462
  8
SAPA_ANSLUTNING
 10
98.000000000000043
 20
129.9367680282202
 30
0.0
  0
VERTEX
  5
1463
  8
SAPA_ANSLUTNING
 10
87.000000000000014
 20
129.9367680282202
 30
0.0
 42
-0.9999999999999998
  0
VERTEX
  5
1464
  8
SAPA_ANSLUTNING
 10
87.000000000000014
 20
133.9367680282202
 30
0.0
  0
VERTEX
  5
1465
  8
SAPA_ANSLUTNING
 10
98.000000000000043
 20
133.9367680282202
 30
0.0
 42
0.9999999999999998
  0
VERTEX
  5
1466
  8
SAPA_ANSLUTNING
 10
98.000000000000043
 20
137.9367680282202
 30
0.0
  0
VERTEX
  5
1467
  8
SAPA_ANSLUTNING
 10
87.000000000000014
 20
137.9367680282202
 30
0.0
 42
-0.4183530514568368
  0
VERTEX
  5
1468
  8
SAPA_ANSLUTNING
 10
85.000199156167781
 20
139.96499186580331
 30
0.0
 42
-0.4183530514568368
  0
SEQEND
  5
1469
  8
SAPA_ANSLUTNING
  0
POLYLINE
  5
11D4
  8
SAPA_PROFIL
 66
     1
 10
0.0
 20
0.0
 30
0.0
 70
     1
  0
VERTEX
  5
1678
  8
SAPA_PROFIL
 10
43.00000000000022
 20
124.2438689687109
 30
0.0
 42
-0.2418327667417041
  0
VERTEX
  5
1679
  8
SAPA_PROFIL
 10
42.874722325036267
 20
123.999999927761
 30
0.0
 42
0.2418327667547422
  0
VERTEX
  5
167A
  8
SAPA_PROFIL
 10
42.749444650060681
 20
123.756130886802
 30
0.0
  0
VERTEX
  5
167B
  8
SAPA_PROFIL
 10
42.749444650060681
 20
122.79999992776671
 30
0.0
 42
0.2814258985282543
  0
VERTEX
  5
167C
  8
SAPA_PROFIL
 10
42.912650251186953
 20
122.53300312546141
 30
0.0
 42
-0.2814258985233465
  0
VERTEX
  5
167D
  8
SAPA_PROFIL
 10
43.075855852310639
 20
122.2660063231658
 30
0.0
  0
VERTEX
  5
167E
  8
SAPA_PROFIL
 10
43.075855852310163
 20
120.0884579682085
 30
0.0
 42
-0.0874886635248791
  0
VERTEX
  5
167F
  8
SAPA_PROFIL
 10
43.057763638546362
 20
119.985851925212
 30
0.0
  0
VERTEX
  5
1680
  8
SAPA_PROFIL
 10
42.538249570871017
 20
118.5584987551665
 30
0.0
 42
-0.4142135623698204
  0
VERTEX
  5
1681
  8
SAPA_PROFIL
 10
42.153735741628843
 20
118.37919701192909
 30
0.0
  0
VERTEX
  5
1682
  8
SAPA_PROFIL
 10
41.965797217480137
 20
118.4476010406002
 30
0.0
 42
-0.4142135623730013
  0
VERTEX
  5
1683
  8
SAPA_PROFIL
 10
41.786495474237618
 20
118.83211486982179
 30
0.0
  0
VERTEX
  5
1684
  8
SAPA_PROFIL
 10
42.162717631904307
 20
119.865776752691
 30
0.0
 42
0.41421356237947
  0
VERTEX
  5
1685
  8
SAPA_PROFIL
 10
41.983415888653163
 20
120.2502905819225
 30
0.0
  0
VERTEX
  5
1686
  8
SAPA_PROFIL
 10
40.173225809314232
 20
120.9091458891583
 30
0.0
 42
-0.3152987888800596
  0
VERTEX
  5
1687
  8
SAPA_PROFIL
 10
39.975831852310911
 20
121.1910536753946
 30
0.0
  0
VERTEX
  5
1688
  8
SAPA_PROFIL
 10
39.975831852311003
 20
121.6107694432139
 30
0.0
 42
-0.1316524975873857
  0
VERTEX
  5
1689
  8
SAPA_PROFIL
 10
40.016024231175649
 20
121.7607694432138
 30
0.0
  0
VERTEX
  5
168A
  8
SAPA_PROFIL
 10
40.875831852310952
 20
123.2499999277547
 30
0.0
  0
VERTEX
  5
168B
  8
SAPA_PROFIL
 10
40.875843852310616
 20
123.6999999277546
 30
0.0
 42
0.4142135623731054
  0
VERTEX
  5
168C
  8
SAPA_PROFIL
 10
40.575843852310619
 20
123.9999999277547
 30
0.0
  0
VERTEX
  5
168D
  8
SAPA_PROFIL
 10
36.975831852310549
 20
123.9999999277546
 30
0.0
 42
0.414213562373095
  0
VERTEX
  5
168E
  8
SAPA_PROFIL
 10
36.675831852310552
 20
123.6999999277546
 30
0.0
  0
VERTEX
  5
168F
  8
SAPA_PROFIL
 10
36.675831852310658
 20
123.2499999277546
 30
0.0
  0
VERTEX
  5
1690
  8
SAPA_PROFIL
 10
37.535656589879643
 20
121.7607397966804
 30
0.0
 42
-0.1316363093594254
  0
VERTEX
  5
1691
  8
SAPA_PROFIL
 10
37.575848968136611
 20
121.61075889163369
 30
0.0
  0
VERTEX
  5
1692
  8
SAPA_PROFIL
 10
37.575856017927407
 20
121.49999992775651
 30
0.0
  0
VERTEX
  5
1693
  8
SAPA_PROFIL
 10
35.500000000011141
 20
121.49999992775651
 30
0.0
 42
-0.4142135623730955
  0
VERTEX
  5
1694
  8
SAPA_PROFIL
 10
35.000000000011141
 20
121.99999992775651
 30
0.0
  0
VERTEX
  5
1695
  8
SAPA_PROFIL
 10
35.000000000011141
 20
127.2499999274218
 30
0.0
 42
-0.4142135623730953
  0
VERTEX
  5
1696
  8
SAPA_PROFIL
 10
35.500000000011141
 20
127.7499999274218
 30
0.0
  0
VERTEX
  5
1697
  8
SAPA_PROFIL
 10
36.000000003594543
 20
127.7499999274218
 30
0.0
 42
-0.4142135623730953
  0
VERTEX
  5
1698
  8
SAPA_PROFIL
 10
36.50000000359455
 20
127.2499999274218
 30
0.0
  0
VERTEX
  5
1699
  8
SAPA_PROFIL
 10
36.500000003599091
 20
126.2499999270146
 30
0.0
  0
VERTEX
  5
169A
  8
SAPA_PROFIL
 10
39.700000004054019
 20
126.24999992701041
 30
0.0
  0
VERTEX
  5
169B
  8
SAPA_PROFIL
 10
39.700000004046032
 20
130.74999992791629
 30
0.0
  0
VERTEX
  5
169C
  8
SAPA_PROFIL
 10
20.20000000000022
 20
130.74999992793769
 30
0.0
 42
-0.4964147352859417
  0
VERTEX
  5
169D
  8
SAPA_PROFIL
 10
20.00736928600973
 20
131.00379033626371
 30
0.0
 42
-0.306467954212033
  0
VERTEX
  5
169E
  8
SAPA_PROFIL
 10
20.861767219186831
 20
131.72890680911249
 30
0.0
 42
-0.0272495355296329
  0
VERTEX
  5
169F
  8
SAPA_PROFIL
 10
34.999999999989953
 20
132.4999999274221
 30
0.0
  0
VERTEX
  5
16A0
  8
SAPA_PROFIL
 10
39.999999999909271
 20
132.49999992756
 30
0.0
 42
-0.4142135623819769
  0
VERTEX
  5
16A1
  8
SAPA_PROFIL
 10
43.00000000000022
 20
129.49999992756
 30
0.0
  0
SEQEND
  5
16A2
  8
SAPA_PROFIL
  0
POLYLINE
  5
11D5
  8
SAPA_PROFIL
 66
     1
 10
0.0
 20
0.0
 30
0.0
 70
     1
  0
VERTEX
  5
16A3
  8
SAPA_PROFIL
 10
43.000000000000213
 20
93.756130886798417
 30
0.0
 42
0.2418327667417041
  0
VERTEX
  5
16A4
  8
SAPA_PROFIL
 10
42.874722325036267
 20
93.999999927748277
 30
0.0
 42
-0.2418327667547422
  0
VERTEX
  5
16A5
  8
SAPA_PROFIL
 10
42.749444650060667
 20
94.243868968707318
 30
0.0
  0
VERTEX
  5
16A6
  8
SAPA_PROFIL
 10
42.749444650060667
 20
95.199999927742681
 30
0.0
 42
-0.2814258985282543
  0
VERTEX
  5
16A7
  8
SAPA_PROFIL
 10
42.912650251186939
 20
95.466996730047924
 30
0.0
 42
0.2814258985233465
  0
VERTEX
  5
16A8
  8
SAPA_PROFIL
 10
43.075855852310639
 20
95.733993532343533
 30
0.0
  0
VERTEX
  5
16A9
  8
SAPA_PROFIL
 10
43.075855852310163
 20
97.911541887300857
 30
0.0
 42
0.0874886635248791
  0
VERTEX
  5
16AA
  8
SAPA_PROFIL
 10
43.057763638546362
 20
98.014147930297383
 30
0.0
  0
VERTEX
  5
16AB
  8
SAPA_PROFIL
 10
42.53824957087101
 20
99.441501100342819
 30
0.0
 42
0.4142135623698204
  0
VERTEX
  5
16AC
  8
SAPA_PROFIL
 10
42.153735741628843
 20
99.620802843580208
 30
0.0
  0
VERTEX
  5
16AD
  8
SAPA_PROFIL
 10
41.965797217480137
 20
99.552398814909154
 30
0.0
 42
0.4142135623730013
  0
VERTEX
  5
16AE
  8
SAPA_PROFIL
 10
41.786495474237618
 20
99.167884985687522
 30
0.0
  0
VERTEX
  5
16AF
  8
SAPA_PROFIL
 10
42.1627176319043
 20
98.134223102818353
 30
0.0
 42
-0.41421356237947
  0
VERTEX
  5
16B0
  8
SAPA_PROFIL
 10
41.983415888653148
 20
97.749709273586802
 30
0.0
  0
VERTEX
  5
16B1
  8
SAPA_PROFIL
 10
40.173225809314232
 20
97.090853966350991
 30
0.0
 42
0.3152987888800596
  0
VERTEX
  5
16B2
  8
SAPA_PROFIL
 10
39.975831852310897
 20
96.808946180114773
 30
0.0
  0
VERTEX
  5
16B3
  8
SAPA_PROFIL
 10
39.975831852311003
 20
96.389230412295447
 30
0.0
 42
0.1316524975873857
  0
VERTEX
  5
16B4
  8
SAPA_PROFIL
 10
40.016024231175642
 20
96.239230412295527
 30
0.0
  0
VERTEX
  5
16B5
  8
SAPA_PROFIL
 10
40.875831852310938
 20
94.749999927754644
 30
0.0
  0
VERTEX
  5
16B6
  8
SAPA_PROFIL
 10
40.875843852310602
 20
94.299999927754683
 30
0.0
 42
-0.4142135623731054
  0
VERTEX
  5
16B7
  8
SAPA_PROFIL
 10
40.575843852310598
 20
93.999999927754686
 30
0.0
  0
VERTEX
  5
16B8
  8
SAPA_PROFIL
 10
36.975831852310542
 20
93.999999927754729
 30
0.0
 42
-0.414213562373095
  0
VERTEX
  5
16B9
  8
SAPA_PROFIL
 10
36.675831852310537
 20
94.299999927754726
 30
0.0
  0
VERTEX
  5
16BA
  8
SAPA_PROFIL
 10
36.675831852310651
 20
94.749999927754715
 30
0.0
  0
VERTEX
  5
16BB
  8
SAPA_PROFIL
 10
37.535656589879629
 20
96.239260058828904
 30
0.0
 42
0.1316363093594254
  0
VERTEX
  5
16BC
  8
SAPA_PROFIL
 10
37.575848968136597
 20
96.38924096387565
 30
0.0
  0
VERTEX
  5
16BD
  8
SAPA_PROFIL
 10
37.575856017927407
 20
96.499999927752881
 30
0.0
  0
VERTEX
  5
16BE
  8
SAPA_PROFIL
 10
35.500000000011127
 20
96.499999927752881
 30
0.0
 42
0.4142135623730955
  0
VERTEX
  5
16BF
  8
SAPA_PROFIL
 10
35.000000000011127
 20
95.999999927752881
 30
0.0
  0
VERTEX
  5
16C0
  8
SAPA_PROFIL
 10
35.000000000011127
 20
90.749999928087576
 30
0.0
 42
0.4142135623730953
  0
VERTEX
  5
16C1
  8
SAPA_PROFIL
 10
35.500000000011127
 20
90.249999928087576
 30
0.0
  0
VERTEX
  5
16C2
  8
SAPA_PROFIL
 10
36.000000003594543
 20
90.249999928087576
 30
0.0
 42
0.4142135623730953
  0
VERTEX
  5
16C3
  8
SAPA_PROFIL
 10
36.500000003594543
 20
90.749999928087576
 30
0.0
  0
VERTEX
  5
16C4
  8
SAPA_PROFIL
 10
36.500000003599077
 20
91.749999928494759
 30
0.0
  0
VERTEX
  5
16C5
  8
SAPA_PROFIL
 10
39.700000004054012
 20
91.749999928498923
 30
0.0
  0
VERTEX
  5
16C6
  8
SAPA_PROFIL
 10
39.700000004046018
 20
87.249999927593024
 30
0.0
  0
VERTEX
  5
16C7
  8
SAPA_PROFIL
 10
20.200000000000198
 20
87.249999927571665
 30
0.0
 42
0.4964147352859417
  0
VERTEX
  5
16C8
  8
SAPA_PROFIL
 10
20.007369286009709
 20
86.996209519245696
 30
0.0
 42
0.306467954212033
  0
VERTEX
  5
16C9
  8
SAPA_PROFIL
 10
20.86176721918682
 20
86.271093046396857
 30
0.0
 42
0.0272495355296329
  0
VERTEX
  5
16CA
  8
SAPA_PROFIL
 10
34.999999999989939
 20
85.49999992808722
 30
0.0
  0
VERTEX
  5
16CB
  8
SAPA_PROFIL
 10
39.999999999909257
 20
85.499999927949332
 30
0.0
 42
0.4142135623819769
  0
VERTEX
  5
16CC
  8
SAPA_PROFIL
 10
43.000000000000213
 20
88.499999927949318
 30
0.0
  0
SEQEND
  5
16CD
  8
SAPA_PROFIL
  0
POLYLINE
  5
11D6
  8
SAPA_PROFIL
 62
     4
 66
     1
 10
0.0
 20
0.0
 30
0.0
 70
     1
  0
VERTEX
  5
11D7
  8
SAPA_PROFIL
 62
     4
 10
39.725843852308593
 20
96.856217710407179
 30
0.0
 42
0.1316524975873979
  0
VERTEX
  5
11D8
  8
SAPA_PROFIL
 62
     4
 10
39.833023529281022
 20
96.456217710407145
 30
0.0
  0
VERTEX
  5
11D9
  8
SAPA_PROFIL
 62
     4
 10
40.825843852310449
 20
94.736602468133114
 30
0.0
  0
VERTEX
  5
11DA
  8
SAPA_PROFIL
 62
     4
 10
40.825843852310527
 20
94.299999927754669
 30
0.0
 42
-0.4142135623730951
  0
VERTEX
  5
11DB
  8
SAPA_PROFIL
 62
     4
 10
40.575843852310548
 20
94.049999927754683
 30
0.0
  0
VERTEX
  5
11DC
  8
SAPA_PROFIL
 62
     4
 10
36.975831852310492
 20
94.049999927754627
 30
0.0
 42
-0.4142135623731053
  0
VERTEX
  5
11DD
  8
SAPA_PROFIL
 62
     4
 10
36.725831852310478
 20
94.299999927754627
 30
0.0
  0
VERTEX
  5
11DE
  8
SAPA_PROFIL
 62
     4
 10
36.725843495045837
 20
94.736601849333098
 30
0.0
  0
VERTEX
  5
11DF
  8
SAPA_PROFIL
 62
     4
 10
37.718664175336123
 20
96.456217710400495
 30
0.0
 42
0.1316524975874149
  0
VERTEX
  5
11E0
  8
SAPA_PROFIL
 62
     4
 10
37.825843852308608
 20
96.856217710400543
 30
0.0
  0
VERTEX
  5
11E1
  8
SAPA_PROFIL
 62
     4
 10
37.825843852308623
 20
121.1437821451088
 30
0.0
 42
0.1316524975874151
  0
VERTEX
  5
11E2
  8
SAPA_PROFIL
 62
     4
 10
37.718664175336123
 20
121.54378214510891
 30
0.0
  0
VERTEX
  5
11E3
  8
SAPA_PROFIL
 62
     4
 10
36.725843495045851
 20
123.2633980061762
 30
0.0
  0
VERTEX
  5
11E4
  8
SAPA_PROFIL
 62
     4
 10
36.725831852310492
 20
123.6999999277547
 30
0.0
 42
-0.4142135623731054
  0
VERTEX
  5
11E5
  8
SAPA_PROFIL
 62
     4
 10
36.975831852310492
 20
123.9499999277547
 30
0.0
  0
VERTEX
  5
11E6
  8
SAPA_PROFIL
 62
     4
 10
40.575843852310562
 20
123.9499999277547
 30
0.0
 42
-0.4142135623730953
  0
VERTEX
  5
11E7
  8
SAPA_PROFIL
 62
     4
 10
40.825843852310548
 20
123.6999999277547
 30
0.0
  0
VERTEX
  5
11E8
  8
SAPA_PROFIL
 62
     4
 10
40.825843852310449
 20
123.2633973873762
 30
0.0
  0
VERTEX
  5
11E9
  8
SAPA_PROFIL
 62
     4
 10
39.833023529281029
 20
121.5437821451022
 30
0.0
 42
0.1316524975873982
  0
VERTEX
  5
11EA
  8
SAPA_PROFIL
 62
     4
 10
39.725843852308593
 20
121.14378214510219
 30
0.0
  0
SEQEND
  5
11EB
  8
SAPA_PROFIL
 62
     4
  0
POLYLINE
  5
11EC
  8
SAPA_PROFIL
 62
     4
 66
     1
 10
0.0
 20
0.0
 30
0.0
 70
     1
  0
VERTEX
  5
16CE
  8
SAPA_PROFIL
 62
     4
 10
79.50925230370224
 20
64.725833080859388
 30
0.0
  0
VERTEX
  5
16CF
  8
SAPA_PROFIL
 62
     4
 10
78.64944465005992
 20
63.236602540014189
 30
0.0
  0
VERTEX
  5
16D0
  8
SAPA_PROFIL
 62
     4
 10
78.64944465005982
 20
62.79999999963573
 30
0.0
 42
0.4142135623730946
  0
VERTEX
  5
16D1
  8
SAPA_PROFIL
 62
     4
 10
78.89944465005982
 20
62.549999999635759
 30
0.0
  0
VERTEX
  5
16D2
  8
SAPA_PROFIL
 62
     4
 10
82.499456650059884
 20
62.549999999635702
 30
0.0
 42
0.414213562373107
  0
VERTEX
  5
16D3
  8
SAPA_PROFIL
 62
     4
 10
82.749456650059884
 20
62.799999999635702
 30
0.0
  0
VERTEX
  5
16D4
  8
SAPA_PROFIL
 62
     4
 10
82.749445007324525
 20
63.236601921214167
 30
0.0
  0
VERTEX
  5
16D5
  8
SAPA_PROFIL
 62
     4
 10
81.889637061431529
 20
64.725832968251865
 30
0.0
 42
-0.1316524975874248
  0
VERTEX
  5
16D6
  8
SAPA_PROFIL
 62
     4
 10
81.849444682566855
 20
64.875832968251899
 30
0.0
  0
VERTEX
  5
16D7
  8
SAPA_PROFIL
 62
     4
 10
81.84944468256684
 20
88.124166959503157
 30
0.0
 42
-0.1316524975874248
  0
VERTEX
  5
16D8
  8
SAPA_PROFIL
 62
     4
 10
81.889637061431529
 20
88.274166959503191
 30
0.0
  0
VERTEX
  5
16D9
  8
SAPA_PROFIL
 62
     4
 10
82.749445007324496
 20
89.763398006540882
 30
0.0
  0
VERTEX
  5
16DA
  8
SAPA_PROFIL
 62
     4
 10
82.749456650059855
 20
90.199999928119325
 30
0.0
 42
0.4142135623731049
  0
VERTEX
  5
16DB
  8
SAPA_PROFIL
 62
     4
 10
82.499456650059855
 20
90.449999928119325
 30
0.0
  0
VERTEX
  5
16DC
  8
SAPA_PROFIL
 62
     4
 10
78.899444650059806
 20
90.449999928119297
 30
0.0
 42
0.4142135623730951
  0
VERTEX
  5
16DD
  8
SAPA_PROFIL
 62
     4
 10
78.649444650059806
 20
90.199999928119297
 30
0.0
  0
VERTEX
  5
16DE
  8
SAPA_PROFIL
 62
     4
 10
78.649444650059905
 20
89.763397387740838
 30
0.0
  0
VERTEX
  5
16DF
  8
SAPA_PROFIL
 62
     4
 10
79.509252303702155
 20
88.274166846895724
 30
0.0
 42
-0.1316524975873867
  0
VERTEX
  5
16E0
  8
SAPA_PROFIL
 62
     4
 10
79.549444682566843
 20
88.124166846895747
 30
0.0
  0
VERTEX
  5
16E1
  8
SAPA_PROFIL
 62
     4
 10
79.5494446825669
 20
64.875833080859366
 30
0.0
 42
-0.1316524975873873
  0
SEQEND
  5
16E2
  8
SAPA_PROFIL
 62
     4
  0
POLYLINE
  5
11ED
  8
SAPA_PROFIL
 66
     1
 10
0.0
 20
0.0
 30
0.0
 70
     1
  0
VERTEX
  5
16E3
  8
SAPA_PROFIL
 10
35.000000000032763
 20
17.300000000010311
 30
0.0
 42
-0.4142135623624294
  0
VERTEX
  5
16E4
  8
SAPA_PROFIL
 10
35.200000000008011
 20
17.500000000000099
 30
0.0
  0
VERTEX
  5
16E5
  8
SAPA_PROFIL
 10
36.05000000000657
 20
17.500000000014651
 30
0.0
 42
0.4142135623730744
  0
VERTEX
  5
16E6
  8
SAPA_PROFIL
 10
36.250000000007297
 20
17.700000000019021
 30
0.0
  0
VERTEX
  5
16E7
  8
SAPA_PROFIL
 10
36.250000000000007
 20
18.000000000000131
 30
0.0
 42
0.4142135623731035
  0
VERTEX
  5
16E8
  8
SAPA_PROFIL
 10
35.750000000000007
 20
18.500000000000131
 30
0.0
  0
VERTEX
  5
16E9
  8
SAPA_PROFIL
 10
32.750000000000007
 20
18.500000000000131
 30
0.0
 42
0.4142135623731035
  0
VERTEX
  5
16EA
  8
SAPA_PROFIL
 10
32.250000000000007
 20
18.000000000000131
 30
0.0
  0
VERTEX
  5
16EB
  8
SAPA_PROFIL
 10
32.250000000000007
 20
17.700000000004461
 30
0.0
 42
0.4142135623730744
  0
VERTEX
  5
16EC
  8
SAPA_PROFIL
 10
32.450000000000749
 20
17.500000000000099
 30
0.0
  0
VERTEX
  5
16ED
  8
SAPA_PROFIL
 10
33.300000000002932
 20
17.500000000011038
 30
0.0
 42
-0.4142135623730534
  0
VERTEX
  5
16EE
  8
SAPA_PROFIL
 10
33.500000000000007
 20
17.300000000010311
 30
0.0
  0
VERTEX
  5
16EF
  8
SAPA_PROFIL
 10
33.500000000000007
 20
16.300000000010311
 30
0.0
 42
-0.4142135623731035
  0
VERTEX
  5
16F0
  8
SAPA_PROFIL
 10
33.000000000000007
 20
15.800000000010311
 30
0.0
  0
VERTEX
  5
16F1
  8
SAPA_PROFIL
 10
27.000000000000021
 20
15.800000000010311
 30
0.0
 42
-0.4142135623731033
  0
VERTEX
  5
16F2
  8
SAPA_PROFIL
 10
26.500000000000021
 20
16.300000000010311
 30
0.0
  0
VERTEX
  5
16F3
  8
SAPA_PROFIL
 10
26.500000000010939
 20
17.300000000010311
 30
0.0
 42
-0.414213562373064
  0
VERTEX
  5
16F4
  8
SAPA_PROFIL
 10
26.700000000000749
 20
17.500000000000099
 30
0.0
  0
VERTEX
  5
16F5
  8
SAPA_PROFIL
 10
27.550000000002932
 20
17.500000000000099
 30
0.0
 42
0.414213562373064
  0
VERTEX
  5
16F6
  8
SAPA_PROFIL
 10
27.750000000000021
 20
17.700000000004461
 30
0.0
  0
VERTEX
  5
16F7
  8
SAPA_PROFIL
 10
27.750000000000021
 20
18.000000000000131
 30
0.0
 42
0.4142135623731035
  0
VERTEX
  5
16F8
  8
SAPA_PROFIL
 10
27.250000000000021
 20
18.500000000000131
 30
0.0
  0
VERTEX
  5
16F9
  8
SAPA_PROFIL
 10
25.500000000000021
 20
18.500000000000131
 30
0.0
 42
0.4142135623731035
  0
VERTEX
  5
16FA
  8
SAPA_PROFIL
 10
25.000000000000021
 20
18.000000000000131
 30
0.0
  0
VERTEX
  5
16FB
  8
SAPA_PROFIL
 10
25.000000000000021
 20
15.50000000000013
 30
0.0
 42
0.4142135623730966
  0
VERTEX
  5
16FC
  8
SAPA_PROFIL
 10
26.500000000000021
 20
14.000000000000099
 30
0.0
  0
VERTEX
  5
16FD
  8
SAPA_PROFIL
 10
84.700000000000728
 20
14.00000000000011
 30
0.0
 42
0.4142135623730935
  0
VERTEX
  5
16FE
  8
SAPA_PROFIL
 10
85.000000000000014
 20
14.3000000000103
 30
0.0
  0
VERTEX
  5
16FF
  8
SAPA_PROFIL
 10
85.000000000000014
 20
62.256130958696417
 30
0.0
 42
0.2418327667378115
  0
VERTEX
  5
1700
  8
SAPA_PROFIL
 10
84.874722325032906
 20
62.499999999634809
 30
0.0
 42
-0.2418327667509125
  0
VERTEX
  5
1701
  8
SAPA_PROFIL
 10
84.749444650060482
 20
62.743869040590774
 30
0.0
  0
VERTEX
  5
1702
  8
SAPA_PROFIL
 10
84.749444650056844
 20
63.699999999640681
 30
0.0
 42
-0.2418327667448973
  0
VERTEX
  5
1703
  8
SAPA_PROFIL
 10
84.87472232502526
 20
63.943869040595622
 30
0.0
 42
0.2418327667448979
  0
VERTEX
  5
1704
  8
SAPA_PROFIL
 10
84.999999999992454
 20
64.187738081548218
 30
0.0
  0
VERTEX
  5
1705
  8
SAPA_PROFIL
 10
84.999999999992454
 20
66.285810437266178
 30
0.0
 42
0.6681786379192718
  0
VERTEX
  5
1706
  8
SAPA_PROFIL
 10
83.292893218805958
 20
66.992917218452789
 30
0.0
  0
VERTEX
  5
1707
  8
SAPA_PROFIL
 10
81.987843965636785
 20
65.687867965283829
 30
0.0
 42
0.1989123673797335
  0
VERTEX
  5
1708
  8
SAPA_PROFIL
 10
81.899975999992677
 20
65.475735930927755
 30
0.0
  0
VERTEX
  5
1709
  8
SAPA_PROFIL
 10
81.899975999992819
 20
64.889230484180558
 30
0.0
 42
0.1316524975873855
  0
VERTEX
  5
170A
  8
SAPA_PROFIL
 10
81.940168378857464
 20
64.739230484180638
 30
0.0
  0
VERTEX
  5
170B
  8
SAPA_PROFIL
 10
82.799975999992753
 20
63.249999999639748
 30
0.0
  0
VERTEX
  5
170C
  8
SAPA_PROFIL
 10
82.799987999992425
 20
62.799999999639802
 30
0.0
 42
-0.4142135623731054
  0
VERTEX
  5
170D
  8
SAPA_PROFIL
 10
82.499987999992427
 20
62.49999999963979
 30
0.0
  0
VERTEX
  5
170E
  8
SAPA_PROFIL
 10
78.899975999992364
 20
62.49999999963984
 30
0.0
 42
-0.4142135623730951
  0
VERTEX
  5
170F
  8
SAPA_PROFIL
 10
78.599975999992367
 20
62.799999999639851
 30
0.0
  0
VERTEX
  5
1710
  8
SAPA_PROFIL
 10
78.599975999992466
 20
63.24999999963984
 30
0.0
  0
VERTEX
  5
1711
  8
SAPA_PROFIL
 10
79.459800737561451
 20
64.739260130714001
 30
0.0
 42
0.1316363093594257
  0
VERTEX
  5
1712
  8
SAPA_PROFIL
 10
79.499993115818413
 20
64.889241035760762
 30
0.0
  0
VERTEX
  5
1713
  8
SAPA_PROFIL
 10
79.500000165609222
 20
64.999999999643592
 30
0.0
  0
VERTEX
  5
1714
  8
SAPA_PROFIL
 10
77.914359353937485
 20
64.999999999643592
 30
0.0
 42
0.2679491924308306
  0
VERTEX
  5
1715
  8
SAPA_PROFIL
 10
77.048333950158863
 20
64.499999999643592
 30
0.0
  0
VERTEX
  5
1716
  8
SAPA_PROFIL
 10
76.037970979080384
 20
62.749999999643137
 30
0.0
 42
-0.2679491924308306
  0
VERTEX
  5
1717
  8
SAPA_PROFIL
 10
75.60495827718843
 20
62.499999999643592
 30
0.0
  0
VERTEX
  5
1718
  8
SAPA_PROFIL
 10
74.39504172280796
 20
62.499999999643592
 30
0.0
 42
-0.2679491924308304
  0
VERTEX
  5
1719
  8
SAPA_PROFIL
 10
73.96202902091683
 20
62.749999999643592
 30
0.0
  0
VERTEX
  5
171A
  8
SAPA_PROFIL
 10
72.951666049841165
 20
64.499999999643592
 30
0.0
 42
0.2679491924308308
  0
VERTEX
  5
171B
  8
SAPA_PROFIL
 10
72.085640646055268
 20
64.999999999641716
 30
0.0
  0
VERTEX
  5
171C
  8
SAPA_PROFIL
 10
70.499999834387154
 20
64.999999999643876
 30
0.0
  0
VERTEX
  5
171D
  8
SAPA_PROFIL
 10
70.500006884177978
 20
64.889241035760762
 30
0.0
 42
0.1316363093594255
  0
VERTEX
  5
171E
  8
SAPA_PROFIL
 10
70.540199262434939
 20
64.739260130714001
 30
0.0
  0
VERTEX
  5
171F
  8
SAPA_PROFIL
 10
71.400024000003924
 20
63.24999999963984
 30
0.0
  0
VERTEX
  5
1720
  8
SAPA_PROFIL
 10
71.400024000004024
 20
62.799999999639851
 30
0.0
 42
-0.4142135623730951
  0
VERTEX
  5
1721
  8
SAPA_PROFIL
 10
71.100024000004026
 20
62.49999999963984
 30
0.0
  0
VERTEX
  5
1722
  8
SAPA_PROFIL
 10
67.500012000003963
 20
62.49999999963979
 30
0.0
 42
-0.4142135623731054
  0
VERTEX
  5
1723
  8
SAPA_PROFIL
 10
67.200012000003966
 20
62.799999999639802
 30
0.0
  0
VERTEX
  5
1724
  8
SAPA_PROFIL
 10
67.200024000003623
 20
63.249999999639748
 30
0.0
  0
VERTEX
  5
1725
  8
SAPA_PROFIL
 10
68.059831621138926
 20
64.739230484180638
 30
0.0
 42
0.1316524975873855
  0
VERTEX
  5
1726
  8
SAPA_PROFIL
 10
68.100024000003572
 20
64.889230484180558
 30
0.0
  0
VERTEX
  5
1727
  8
SAPA_PROFIL
 10
68.100024000003714
 20
65.475735930927755
 30
0.0
 42
0.1989123673797335
  0
VERTEX
  5
1728
  8
SAPA_PROFIL
 10
68.012156034359606
 20
65.687867965283829
 30
0.0
  0
VERTEX
  5
1729
  8
SAPA_PROFIL
 10
66.707106781190433
 20
66.992917218452789
 30
0.0
 42
0.6681786379192716
  0
VERTEX
  5
172A
  8
SAPA_PROFIL
 10
65.000000000003936
 20
66.285810437266178
 30
0.0
  0
VERTEX
  5
172B
  8
SAPA_PROFIL
 10
65.000000000003936
 20
64.187738081546485
 30
0.0
 42
0.2418327667433386
  0
VERTEX
  5
172C
  8
SAPA_PROFIL
 10
65.125277674969695
 20
63.943869040594933
 30
0.0
 42
-0.2418327667449431
  0
VERTEX
  5
172D
  8
SAPA_PROFIL
 10
65.250555349935894
 20
63.699999999640681
 30
0.0
  0
VERTEX
  5
172E
  8
SAPA_PROFIL
 10
65.250555349939546
 20
62.743869040590774
 30
0.0
 42
-0.2418327667509097
  0
VERTEX
  5
172F
  8
SAPA_PROFIL
 10
65.125277674957132
 20
62.499999999643649
 30
0.0
 42
0.2418327667378167
  0
VERTEX
  5
1730
  8
SAPA_PROFIL
 10
65.000000000003936
 20
62.256130958696417
 30
0.0
  0
VERTEX
  5
1731
  8
SAPA_PROFIL
 10
64.999999999985462
 20
60.443389324929854
 30
0.0
 42
0.1095178116817878
  0
VERTEX
  5
1732
  8
SAPA_PROFIL
 10
65.187384425907297
 20
59.598152801458859
 30
0.0
  0
VERTEX
  5
1733
  8
SAPA_PROFIL
 10
67.812615574068346
 20
53.968326436319437
 30
0.0
 42
-0.1095178116855129
  0
VERTEX
  5
1734
  8
SAPA_PROFIL
 10
68.000000000000014
 20
53.123089912835098
 30
0.0
  0
VERTEX
  5
1735
  8
SAPA_PROFIL
 10
68.00000000000729
 20
45.999999999658137
 30
0.0
 42
-0.4142135623730957
  0
VERTEX
  5
1736
  8
SAPA_PROFIL
 10
67.499999999985462
 20
45.499999999658137
 30
0.0
  0
VERTEX
  5
1737
  8
SAPA_PROFIL
 10
66.499999999985462
 20
45.499999999658137
 30
0.0
 42
-0.4142135623730915
  0
VERTEX
  5
1738
  8
SAPA_PROFIL
 10
65.999999999985462
 20
45.999999999658137
 30
0.0
  0
VERTEX
  5
1739
  8
SAPA_PROFIL
 10
65.999999999985462
 20
46.291287847139863
 30
0.0
 42
0.2982166266909514
  0
VERTEX
  5
173A
  8
SAPA_PROFIL
 10
65.699999999998354
 20
46.749545416629807
 30
0.0
 42
1.5275252316550829
  0
VERTEX
  5
173B
  8
SAPA_PROFIL
 10
65.699999999998454
 20
41.250454582702361
 30
0.0
 42
0.2982166266892446
  0
VERTEX
  5
173C
  8
SAPA_PROFIL
 10
65.999999999976126
 20
41.708712152169142
 30
0.0
  0
VERTEX
  5
173D
  8
SAPA_PROFIL
 10
65.999999999985462
 20
41.999999999658137
 30
0.0
 42
-0.4142135623730915
  0
VERTEX
  5
173E
  8
SAPA_PROFIL
 10
66.499999999985462
 20
42.499999999658137
 30
0.0
  0
VERTEX
  5
173F
  8
SAPA_PROFIL
 10
67.499999999985462
 20
42.499999999658137
 30
0.0
 42
-0.4142135623730918
  0
VERTEX
  5
1740
  8
SAPA_PROFIL
 10
67.999999999985462
 20
41.999999999658137
 30
0.0
  0
VERTEX
  5
1741
  8
SAPA_PROFIL
 10
67.999999999985462
 20
23.0769100868057
 30
0.0
 42
-0.1095178116838485
  0
VERTEX
  5
1742
  8
SAPA_PROFIL
 10
67.812615574065546
 20
22.231673563315901
 30
0.0
  0
VERTEX
  5
1743
  8
SAPA_PROFIL
 10
65.538475052471782
 20
17.35476347652741
 30
0.0
 42
-0.2914734195858569
  0
VERTEX
  5
1744
  8
SAPA_PROFIL
 10
63.725859478388891
 20
16.200000000004479
 30
0.0
  0
VERTEX
  5
1745
  8
SAPA_PROFIL
 10
44.00000000000729
 20
16.200000000004461
 30
0.0
 42
-0.4142135623730951
  0
VERTEX
  5
1746
  8
SAPA_PROFIL
 10
43.50000000000729
 20
16.700000000004461
 30
0.0
  0
VERTEX
  5
1747
  8
SAPA_PROFIL
 10
43.50000000000729
 20
17.000000000021931
 30
0.0
 42
-0.4142135623731035
  0
VERTEX
  5
1748
  8
SAPA_PROFIL
 10
44.00000000000729
 20
17.500000000021931
 30
0.0
  0
VERTEX
  5
1749
  8
SAPA_PROFIL
 10
45.30000000000657
 20
17.500000000021931
 30
0.0
 42
0.4142135623730744
  0
VERTEX
  5
174A
  8
SAPA_PROFIL
 10
45.500000000010942
 20
17.700000000019021
 30
0.0
  0
VERTEX
  5
174B
  8
SAPA_PROFIL
 10
45.500000000007283
 20
18.00000000002192
 30
0.0
 42
0.4142135623731035
  0
VERTEX
  5
174C
  8
SAPA_PROFIL
 10
45.000000000007297
 20
18.500000000021931
 30
0.0
  0
VERTEX
  5
174D
  8
SAPA_PROFIL
 10
41.250000000007297
 20
18.500000000000131
 30
0.0
 42
0.4142135623731035
  0
VERTEX
  5
174E
  8
SAPA_PROFIL
 10
40.750000000007297
 20
18.000000000000131
 30
0.0
  0
VERTEX
  5
174F
  8
SAPA_PROFIL
 10
40.750000000007297
 20
17.700000000004461
 30
0.0
 42
0.4142135623731159
  0
VERTEX
  5
1750
  8
SAPA_PROFIL
 10
40.950000000022563
 20
17.49999999999649
 30
0.0
  0
VERTEX
  5
1751
  8
SAPA_PROFIL
 10
41.800000000006563
 20
17.500000000000099
 30
0.0
 42
-0.4142135623730951
  0
VERTEX
  5
1752
  8
SAPA_PROFIL
 10
42.000000000007297
 20
17.300000000010311
 30
0.0
  0
VERTEX
  5
1753
  8
SAPA_PROFIL
 10
42.000000000007297
 20
16.300000000010311
 30
0.0
 42
-0.4142135623731035
  0
VERTEX
  5
1754
  8
SAPA_PROFIL
 10
41.50000000000729
 20
15.800000000010311
 30
0.0
  0
VERTEX
  5
1755
  8
SAPA_PROFIL
 10
35.50000000000729
 20
15.800000000010311
 30
0.0
 42
-0.4142135623731033
  0
VERTEX
  5
1756
  8
SAPA_PROFIL
 10
35.000000000007297
 20
16.300000000010311
 30
0.0
  0
SEQEND
  5
1757
  8
SAPA_PROFIL
  0
POLYLINE
  5
11EE
  8
SAPA_PROFIL
 66
     1
 10
0.0
 20
0.0
 30
0.0
 70
     1
  0
VERTEX
  5
1758
  8
SAPA_PROFIL
 10
82.199999999986176
 20
59.999999999643592
 30
0.0
  0
VERTEX
  5
1759
  8
SAPA_PROFIL
 10
70.600000000005835
 20
59.999999999643592
 30
0.0
 42
0.4142135623730951
  0
VERTEX
  5
175A
  8
SAPA_PROFIL
 10
70.300000000002925
 20
59.699999999640681
 30
0.0
  0
VERTEX
  5
175B
  8
SAPA_PROFIL
 10
70.299999999981097
 20
16.8000000000103
 30
0.0
 42
0.4142135623730935
  0
VERTEX
  5
175C
  8
SAPA_PROFIL
 10
70.599999999980369
 20
16.500000000011031
 30
0.0
  0
VERTEX
  5
175D
  8
SAPA_PROFIL
 10
82.200000000000728
 20
16.50000000000011
 30
0.0
 42
0.4142135623730935
  0
VERTEX
  5
175E
  8
SAPA_PROFIL
 10
82.500000000000014
 20
16.8000000000103
 30
0.0
  0
VERTEX
  5
175F
  8
SAPA_PROFIL
 10
82.499999999985462
 20
59.699999999640681
 30
0.0
 42
0.4142135623730939
  0
SEQEND
  5
1760
  8
SAPA_PROFIL
  0
POLYLINE
  5
11EF
  8
SAPA_PROFIL
 66
     1
 10
0.0
 20
0.0
 30
0.0
 70
     1
  0
VERTEX
  5
1761
  8
SAPA_PROFIL
 10
35.000000000032742
 20
135.6999999277447
 30
0.0
 42
0.4142135623624294
  0
VERTEX
  5
1762
  8
SAPA_PROFIL
 10
35.200000000007982
 20
135.4999999277548
 30
0.0
  0
VERTEX
  5
1763
  8
SAPA_PROFIL
 10
36.050000000006541
 20
135.4999999277403
 30
0.0
 42
-0.4142135623730744
  0
VERTEX
  5
1764
  8
SAPA_PROFIL
 10
36.250000000007269
 20
135.299999927736
 30
0.0
  0
VERTEX
  5
1765
  8
SAPA_PROFIL
 10
36.249999999999979
 20
134.99999992775491
 30
0.0
 42
-0.4142135623731035
  0
VERTEX
  5
1766
  8
SAPA_PROFIL
 10
35.749999999999979
 20
134.49999992775491
 30
0.0
  0
VERTEX
  5
1767
  8
SAPA_PROFIL
 10
32.749999999999979
 20
134.49999992775491
 30
0.0
 42
-0.4142135623731035
  0
VERTEX
  5
1768
  8
SAPA_PROFIL
 10
32.249999999999979
 20
134.99999992775491
 30
0.0
  0
VERTEX
  5
1769
  8
SAPA_PROFIL
 10
32.249999999999979
 20
135.29999992775049
 30
0.0
 42
-0.4142135623730744
  0
VERTEX
  5
176A
  8
SAPA_PROFIL
 10
32.45000000000072
 20
135.4999999277548
 30
0.0
  0
VERTEX
  5
176B
  8
SAPA_PROFIL
 10
33.300000000002903
 20
135.49999992774389
 30
0.0
 42
0.4142135623730534
  0
VERTEX
  5
176C
  8
SAPA_PROFIL
 10
33.499999999999979
 20
135.6999999277447
 30
0.0
  0
VERTEX
  5
176D
  8
SAPA_PROFIL
 10
33.499999999999979
 20
136.6999999277447
 30
0.0
 42
0.4142135623731035
  0
VERTEX
  5
176E
  8
SAPA_PROFIL
 10
32.999999999999979
 20
137.1999999277447
 30
0.0
  0
VERTEX
  5
176F
  8
SAPA_PROFIL
 10
26.999999999999989
 20
137.1999999277447
 30
0.0
 42
0.4142135623731033
  0
VERTEX
  5
1770
  8
SAPA_PROFIL
 10
26.499999999999989
 20
136.6999999277447
 30
0.0
  0
VERTEX
  5
1771
  8
SAPA_PROFIL
 10
26.50000000001091
 20
135.6999999277447
 30
0.0
 42
0.414213562373064
  0
VERTEX
  5
1772
  8
SAPA_PROFIL
 10
26.70000000000072
 20
135.4999999277548
 30
0.0
  0
VERTEX
  5
1773
  8
SAPA_PROFIL
 10
27.5500000000029
 20
135.4999999277548
 30
0.0
 42
-0.414213562373064
  0
VERTEX
  5
1774
  8
SAPA_PROFIL
 10
27.749999999999989
 20
135.29999992775049
 30
0.0
  0
VERTEX
  5
1775
  8
SAPA_PROFIL
 10
27.749999999999989
 20
134.99999992775491
 30
0.0
 42
-0.4142135623731035
  0
VERTEX
  5
1776
  8
SAPA_PROFIL
 10
27.25
 20
134.49999992775491
 30
0.0
  0
VERTEX
  5
1777
  8
SAPA_PROFIL
 10
25.499999999999989
 20
134.49999992775491
 30
0.0
 42
-0.4142135623731035
  0
VERTEX
  5
1778
  8
SAPA_PROFIL
 10
25.0
 20
134.99999992775491
 30
0.0
  0
VERTEX
  5
1779
  8
SAPA_PROFIL
 10
25.0
 20
137.49999992775491
 30
0.0
 42
-0.4142135623730966
  0
VERTEX
  5
177A
  8
SAPA_PROFIL
 10
26.499999999999989
 20
138.99999992775491
 30
0.0
  0
VERTEX
  5
177B
  8
SAPA_PROFIL
 10
84.700000000000685
 20
138.99999992775491
 30
0.0
 42
-0.4142135623730935
  0
VERTEX
  5
177C
  8
SAPA_PROFIL
 10
84.999999999999986
 20
138.6999999277447
 30
0.0
  0
VERTEX
  5
177D
  8
SAPA_PROFIL
 10
85.0
 20
90.743868969058624
 30
0.0
 42
-0.2418327667378115
  0
VERTEX
  5
177E
  8
SAPA_PROFIL
 10
84.874722325032906
 20
90.499999928120218
 30
0.0
 42
0.2418327667509125
  0
VERTEX
  5
177F
  8
SAPA_PROFIL
 10
84.749444650060454
 20
90.256130887164261
 30
0.0
  0
VERTEX
  5
1780
  8
SAPA_PROFIL
 10
84.749444650056816
 20
89.299999928114346
 30
0.0
 42
0.2418327667448973
  0
VERTEX
  5
1781
  8
SAPA_PROFIL
 10
84.874722325025246
 20
89.056130887159412
 30
0.0
 42
-0.2418327667448979
  0
VERTEX
  5
1782
  8
SAPA_PROFIL
 10
84.999999999992454
 20
88.812261846206837
 30
0.0
  0
VERTEX
  5
1783
  8
SAPA_PROFIL
 10
84.999999999992454
 20
86.714189490488835
 30
0.0
 42
-0.6681786379192718
  0
VERTEX
  5
1784
  8
SAPA_PROFIL
 10
83.292893218805943
 20
86.007082709302239
 30
0.0
  0
VERTEX
  5
1785
  8
SAPA_PROFIL
 10
81.98784396563677
 20
87.312131962471227
 30
0.0
 42
-0.1989123673797335
  0
VERTEX
  5
1786
  8
SAPA_PROFIL
 10
81.899975999992662
 20
87.524263996827315
 30
0.0
  0
VERTEX
  5
1787
  8
SAPA_PROFIL
 10
81.899975999992805
 20
88.110769443574497
 30
0.0
 42
-0.1316524975873855
  0
VERTEX
  5
1788
  8
SAPA_PROFIL
 10
81.940168378857464
 20
88.260769443574418
 30
0.0
  0
VERTEX
  5
1789
  8
SAPA_PROFIL
 10
82.799975999992739
 20
89.749999928115315
 30
0.0
  0
VERTEX
  5
178A
  8
SAPA_PROFIL
 10
82.79998799999241
 20
90.199999928115233
 30
0.0
 42
0.4142135623731054
  0
VERTEX
  5
178B
  8
SAPA_PROFIL
 10
82.499987999992413
 20
90.499999928115244
 30
0.0
  0
VERTEX
  5
178C
  8
SAPA_PROFIL
 10
78.89997599999235
 20
90.499999928115187
 30
0.0
 42
0.4142135623730951
  0
VERTEX
  5
178D
  8
SAPA_PROFIL
 10
78.599975999992353
 20
90.199999928115204
 30
0.0
  0
VERTEX
  5
178E
  8
SAPA_PROFIL
 10
78.599975999992452
 20
89.749999928115173
 30
0.0
  0
VERTEX
  5
178F
  8
SAPA_PROFIL
 10
79.459800737561423
 20
88.260739797041026
 30
0.0
 42
-0.1316363093594257
  0
VERTEX
  5
1790
  8
SAPA_PROFIL
 10
79.499993115818398
 20
88.110758891994294
 30
0.0
  0
VERTEX
  5
1791
  8
SAPA_PROFIL
 10
79.500000165609194
 20
87.999999928111436
 30
0.0
  0
VERTEX
  5
1792
  8
SAPA_PROFIL
 10
77.914359353937471
 20
87.999999928111436
 30
0.0
 42
-0.2679491924308306
  0
VERTEX
  5
1793
  8
SAPA_PROFIL
 10
77.048333950158849
 20
88.499999928111436
 30
0.0
  0
VERTEX
  5
1794
  8
SAPA_PROFIL
 10
76.03797097908037
 20
90.24999992811189
 30
0.0
 42
0.2679491924308306
  0
VERTEX
  5
1795
  8
SAPA_PROFIL
 10
75.604958277188416
 20
90.499999928111436
 30
0.0
  0
VERTEX
  5
1796
  8
SAPA_PROFIL
 10
74.395041722807946
 20
90.499999928111436
 30
0.0
 42
0.2679491924308304
  0
VERTEX
  5
1797
  8
SAPA_PROFIL
 10
73.962029020916816
 20
90.249999928111436
 30
0.0
  0
VERTEX
  5
1798
  8
SAPA_PROFIL
 10
72.951666049841151
 20
88.499999928111436
 30
0.0
 42
-0.2679491924308308
  0
VERTEX
  5
1799
  8
SAPA_PROFIL
 10
72.085640646055253
 20
87.999999928113311
 30
0.0
  0
VERTEX
  5
179A
  8
SAPA_PROFIL
 10
70.499999834387154
 20
87.99999992811118
 30
0.0
  0
VERTEX
  5
179B
  8
SAPA_PROFIL
 10
70.500006884177964
 20
88.110758891994294
 30
0.0
 42
-0.1316363093594255
  0
VERTEX
  5
179C
  8
SAPA_PROFIL
 10
70.540199262434939
 20
88.260739797041026
 30
0.0
  0
VERTEX
  5
179D
  8
SAPA_PROFIL
 10
71.400024000003896
 20
89.749999928115173
 30
0.0
  0
VERTEX
  5
179E
  8
SAPA_PROFIL
 10
71.400024000004009
 20
90.199999928115204
 30
0.0
 42
0.4142135623730951
  0
VERTEX
  5
179F
  8
SAPA_PROFIL
 10
71.100024000004012
 20
90.499999928115187
 30
0.0
  0
VERTEX
  5
17A0
  8
SAPA_PROFIL
 10
67.500012000003963
 20
90.499999928115244
 30
0.0
 42
0.4142135623731054
  0
VERTEX
  5
17A1
  8
SAPA_PROFIL
 10
67.200012000003952
 20
90.199999928115233
 30
0.0
  0
VERTEX
  5
17A2
  8
SAPA_PROFIL
 10
67.200024000003623
 20
89.749999928115315
 30
0.0
  0
VERTEX
  5
17A3
  8
SAPA_PROFIL
 10
68.059831621138912
 20
88.260769443574418
 30
0.0
 42
-0.1316524975873855
  0
VERTEX
  5
17A4
  8
SAPA_PROFIL
 10
68.100024000003557
 20
88.110769443574497
 30
0.0
  0
VERTEX
  5
17A5
  8
SAPA_PROFIL
 10
68.1000240000037
 20
87.524263996827315
 30
0.0
 42
-0.1989123673797335
  0
VERTEX
  5
17A6
  8
SAPA_PROFIL
 10
68.012156034359592
 20
87.312131962471227
 30
0.0
  0
VERTEX
  5
17A7
  8
SAPA_PROFIL
 10
66.707106781190419
 20
86.007082709302239
 30
0.0
 42
-0.6681786379192716
  0
VERTEX
  5
17A8
  8
SAPA_PROFIL
 10
65.000000000003922
 20
86.714189490488835
 30
0.0
  0
VERTEX
  5
17A9
  8
SAPA_PROFIL
 10
65.000000000003922
 20
88.812261846208557
 30
0.0
 42
-0.2418327667433386
  0
VERTEX
  5
17AA
  8
SAPA_PROFIL
 10
65.125277674969681
 20
89.056130887160094
 30
0.0
 42
0.2418327667449431
  0
VERTEX
  5
17AB
  8
SAPA_PROFIL
 10
65.250555349935894
 20
89.299999928114346
 30
0.0
  0
VERTEX
  5
17AC
  8
SAPA_PROFIL
 10
65.250555349939532
 20
90.256130887164261
 30
0.0
 42
0.2418327667509097
  0
VERTEX
  5
17AD
  8
SAPA_PROFIL
 10
65.125277674957104
 20
90.499999928111365
 30
0.0
 42
-0.2418327667378167
  0
VERTEX
  5
17AE
  8
SAPA_PROFIL
 10
65.000000000003922
 20
90.743868969058624
 30
0.0
  0
VERTEX
  5
17AF
  8
SAPA_PROFIL
 10
64.999999999985448
 20
92.556610602825174
 30
0.0
 42
-0.1095178116817878
  0
VERTEX
  5
17B0
  8
SAPA_PROFIL
 10
65.187384425907283
 20
93.401847126296161
 30
0.0
  0
VERTEX
  5
17B1
  8
SAPA_PROFIL
 10
67.812615574068332
 20
99.031673491435583
 30
0.0
 42
0.1095178116855129
  0
VERTEX
  5
17B2
  8
SAPA_PROFIL
 10
68.0
 20
99.876910014919929
 30
0.0
  0
VERTEX
  5
17B3
  8
SAPA_PROFIL
 10
68.000000000007276
 20
106.9999999280969
 30
0.0
 42
0.4142135623730957
  0
VERTEX
  5
17B4
  8
SAPA_PROFIL
 10
67.499999999985448
 20
107.4999999280969
 30
0.0
  0
VERTEX
  5
17B5
  8
SAPA_PROFIL
 10
66.499999999985448
 20
107.4999999280969
 30
0.0
 42
0.4142135623730915
  0
VERTEX
  5
17B6
  8
SAPA_PROFIL
 10
65.999999999985434
 20
106.9999999280969
 30
0.0
  0
VERTEX
  5
17B7
  8
SAPA_PROFIL
 10
65.999999999985434
 20
106.7087120806151
 30
0.0
 42
-0.2982166266909514
  0
VERTEX
  5
17B8
  8
SAPA_PROFIL
 10
65.69999999999834
 20
106.2504545111252
 30
0.0
 42
-1.5275252316550829
  0
VERTEX
  5
17B9
  8
SAPA_PROFIL
 10
65.699999999998425
 20
111.7495453450526
 30
0.0
 42
-0.2982166266892446
  0
VERTEX
  5
17BA
  8
SAPA_PROFIL
 10
65.999999999976126
 20
111.2912877755859
 30
0.0
  0
VERTEX
  5
17BB
  8
SAPA_PROFIL
 10
65.999999999985434
 20
110.9999999280969
 30
0.0
 42
0.4142135623730915
  0
VERTEX
  5
17BC
  8
SAPA_PROFIL
 10
66.499999999985448
 20
110.4999999280969
 30
0.0
  0
VERTEX
  5
17BD
  8
SAPA_PROFIL
 10
67.499999999985448
 20
110.4999999280969
 30
0.0
 42
0.4142135623730918
  0
VERTEX
  5
17BE
  8
SAPA_PROFIL
 10
67.999999999985434
 20
110.9999999280969
 30
0.0
  0
VERTEX
  5
17BF
  8
SAPA_PROFIL
 10
67.999999999985434
 20
129.9230898409493
 30
0.0
 42
0.1095178116838485
  0
VERTEX
  5
17C0
  8
SAPA_PROFIL
 10
67.812615574065504
 20
130.7683263644391
 30
0.0
  0
VERTEX
  5
17C1
  8
SAPA_PROFIL
 10
65.538475052471753
 20
135.64523645122759
 30
0.0
 42
0.2914734195858569
  0
VERTEX
  5
17C2
  8
SAPA_PROFIL
 10
63.72585947838887
 20
136.79999992775049
 30
0.0
  0
VERTEX
  5
17C3
  8
SAPA_PROFIL
 10
44.000000000007262
 20
136.79999992775049
 30
0.0
 42
0.4142135623730951
  0
VERTEX
  5
17C4
  8
SAPA_PROFIL
 10
43.500000000007269
 20
136.29999992775049
 30
0.0
  0
VERTEX
  5
17C5
  8
SAPA_PROFIL
 10
43.500000000007269
 20
135.999999927733
 30
0.0
 42
0.4142135623731035
  0
VERTEX
  5
17C6
  8
SAPA_PROFIL
 10
44.000000000007262
 20
135.49999992773311
 30
0.0
  0
VERTEX
  5
17C7
  8
SAPA_PROFIL
 10
45.300000000006527
 20
135.49999992773311
 30
0.0
 42
-0.4142135623730744
  0
VERTEX
  5
17C8
  8
SAPA_PROFIL
 10
45.5000000000109
 20
135.299999927736
 30
0.0
  0
VERTEX
  5
17C9
  8
SAPA_PROFIL
 10
45.500000000007248
 20
134.99999992773311
 30
0.0
 42
-0.4142135623731035
  0
VERTEX
  5
17CA
  8
SAPA_PROFIL
 10
45.000000000007269
 20
134.49999992773311
 30
0.0
  0
VERTEX
  5
17CB
  8
SAPA_PROFIL
 10
41.250000000007269
 20
134.49999992775491
 30
0.0
 42
-0.4142135623731035
  0
VERTEX
  5
17CC
  8
SAPA_PROFIL
 10
40.750000000007262
 20
134.99999992775491
 30
0.0
  0
VERTEX
  5
17CD
  8
SAPA_PROFIL
 10
40.750000000007262
 20
135.29999992775049
 30
0.0
 42
-0.4142135623731159
  0
VERTEX
  5
17CE
  8
SAPA_PROFIL
 10
40.950000000022527
 20
135.49999992775849
 30
0.0
  0
VERTEX
  5
17CF
  8
SAPA_PROFIL
 10
41.800000000006541
 20
135.4999999277548
 30
0.0
 42
0.4142135623730951
  0
VERTEX
  5
17D0
  8
SAPA_PROFIL
 10
42.000000000007262
 20
135.6999999277447
 30
0.0
  0
VERTEX
  5
17D1
  8
SAPA_PROFIL
 10
42.000000000007262
 20
136.6999999277447
 30
0.0
 42
0.4142135623731035
  0
VERTEX
  5
17D2
  8
SAPA_PROFIL
 10
41.500000000007262
 20
137.1999999277447
 30
0.0
  0
VERTEX
  5
17D3
  8
SAPA_PROFIL
 10
35.500000000007248
 20
137.1999999277447
 30
0.0
 42
0.4142135623731033
  0
VERTEX
  5
17D4
  8
SAPA_PROFIL
 10
35.000000000007269
 20
136.6999999277447
 30
0.0
  0
SEQEND
  5
17D5
  8
SAPA_PROFIL
  0
POLYLINE
  5
11F0
  8
SAPA_PROFIL
 66
     1
 10
0.0
 20
0.0
 30
0.0
 70
     1
  0
VERTEX
  5
17D6
  8
SAPA_PROFIL
 10
82.199999999986176
 20
92.999999928111436
 30
0.0
  0
VERTEX
  5
17D7
  8
SAPA_PROFIL
 10
70.600000000005821
 20
92.999999928111436
 30
0.0
 42
-0.4142135623730951
  0
VERTEX
  5
17D8
  8
SAPA_PROFIL
 10
70.30000000000291
 20
93.299999928114346
 30
0.0
  0
VERTEX
  5
17D9
  8
SAPA_PROFIL
 10
70.299999999981068
 20
136.1999999277447
 30
0.0
 42
-0.4142135623730935
  0
VERTEX
  5
17DA
  8
SAPA_PROFIL
 10
70.599999999980341
 20
136.499999927744
 30
0.0
  0
VERTEX
  5
17DB
  8
SAPA_PROFIL
 10
82.200000000000713
 20
136.49999992775491
 30
0.0
 42
-0.4142135623730935
  0
VERTEX
  5
17DC
  8
SAPA_PROFIL
 10
82.499999999999986
 20
136.1999999277447
 30
0.0
  0
VERTEX
  5
17DD
  8
SAPA_PROFIL
 10
82.499999999985448
 20
93.299999928114346
 30
0.0
 42
-0.4142135623730939
  0
SEQEND
  5
17DE
  8
SAPA_PROFIL
  0
POLYLINE
  5
11F1
  8
SAPA_PROFIL
 62
     4
 66
     1
 10
0.0
 20
0.0
 30
-0.2
 70
     1
1001
RC_PROFILE
1002
{
1000
Region
1002
}
  0
VERTEX
  5
17DF
  8
SAPA_PROFIL
 62
     4
 10
41.652820282319411
 20
78.999999996510553
 30
-0.2
  0
VERTEX
  5
17E0
  8
SAPA_PROFIL
 62
     4
 10
27.45282028231734
 20
78.999999996510553
 30
-0.2
 42
0.4142135623720297
  0
VERTEX
  5
17E1
  8
SAPA_PROFIL
 62
     4
 10
26.95282028231734
 20
78.499999996512372
 30
-0.2
  0
VERTEX
  5
17E2
  8
SAPA_PROFIL
 62
     4
 10
26.95282028231437
 20
74.499999995891173
 30
-0.2
 42
0.4142135623730951
  0
VERTEX
  5
17E3
  8
SAPA_PROFIL
 62
     4
 10
27.45282028231437
 20
73.999999995891173
 30
-0.2
  0
VERTEX
  5
17E4
  8
SAPA_PROFIL
 62
     4
 10
41.652820282318267
 20
73.999999995883897
 30
-0.2
 42
0.414213562373761
  0
VERTEX
  5
17E5
  8
SAPA_PROFIL
 62
     4
 10
42.152820282319396
 20
74.499999995883897
 30
-0.2
  0
VERTEX
  5
17E6
  8
SAPA_PROFIL
 62
     4
 10
42.152820282319396
 20
78.499999996510553
 30
-0.2
 42
0.4142135623730951
  0
SEQEND
  5
17E7
  8
SAPA_PROFIL
 62
     4
  0
POLYLINE
  5
11F2
  8
SAPA_PROFIL
 62
     4
 66
     1
 10
0.0
 20
0.0
 30
0.0
1001
GENIUS_GENOBJ-N-FIL_13
1002
{
1000
OWNER
1000
GEN
1002
}
1001
GENIUS_GENODEF_13
1002
{
1000
HIER
1070
     0
1002
}
1002
{
1000
MANEDIT
1070
     0
1002
}
1002
{
1000
NOSEL
1070
     0
1002
}
1002
{
1000
BEHIND
1070
     0
1002
}
1002
{
1000
OTHER
1070
     0
1002
}
1002
{
1000
REACTOR
1002
}
  0
VERTEX
  5
17E8
  8
SAPA_PROFIL
 62
     4
 10
68.416293838728478
 20
65.577259926492104
 30
0.0
 42
-0.131652497587489
  0
VERTEX
  5
17E9
  8
SAPA_PROFIL
 62
     4
 10
68.255524323269739
 20
64.977259926491683
 30
0.0
  0
VERTEX
  5
17EA
  8
SAPA_PROFIL
 62
     4
 10
67.250554992671866
 20
63.236601985848147
 30
0.0
  0
VERTEX
  5
17EB
  8
SAPA_PROFIL
 62
     4
 10
67.250543349936507
 20
62.800000064269682
 30
0.0
 42
0.4142135623731046
  0
VERTEX
  5
17EC
  8
SAPA_PROFIL
 62
     4
 10
67.500543349936507
 20
62.550000064269682
 30
0.0
  0
VERTEX
  5
17ED
  8
SAPA_PROFIL
 62
     4
 10
71.10055534993657
 20
62.550000064269739
 30
0.0
 42
0.4142135623730957
  0
VERTEX
  5
17EE
  8
SAPA_PROFIL
 62
     4
 10
71.35055534993657
 20
62.80000006426971
 30
0.0
  0
VERTEX
  5
17EF
  8
SAPA_PROFIL
 62
     4
 10
71.350555349936471
 20
63.236602604648169
 30
0.0
  0
VERTEX
  5
17F0
  8
SAPA_PROFIL
 62
     4
 10
70.377063354186404
 20
64.922740202049056
 30
0.0
 42
-0.1316524975873848
  0
VERTEX
  5
17F1
  8
SAPA_PROFIL
 62
     4
 10
70.216293838727751
 20
65.522740202048993
 30
0.0
  0
VERTEX
  5
17F2
  8
SAPA_PROFIL
 62
     4
 10
70.216293838727736
 20
87.477259790340014
 30
0.0
 42
-0.1316524975873846
  0
VERTEX
  5
17F3
  8
SAPA_PROFIL
 62
     4
 10
70.37706335418639
 20
88.07725979033998
 30
0.0
  0
VERTEX
  5
17F4
  8
SAPA_PROFIL
 62
     4
 10
71.350555349936457
 20
89.763397387740838
 30
0.0
  0
VERTEX
  5
17F5
  8
SAPA_PROFIL
 62
     4
 10
71.350555349936556
 20
90.199999928119297
 30
0.0
 42
0.4142135623730951
  0
VERTEX
  5
17F6
  8
SAPA_PROFIL
 62
     4
 10
71.100555349936556
 20
90.449999928119297
 30
0.0
  0
VERTEX
  5
17F7
  8
SAPA_PROFIL
 62
     4
 10
67.500543349936493
 20
90.449999928119325
 30
0.0
 42
0.4142135623731046
  0
VERTEX
  5
17F8
  8
SAPA_PROFIL
 62
     4
 10
67.250543349936493
 20
90.199999928119325
 30
0.0
  0
VERTEX
  5
17F9
  8
SAPA_PROFIL
 62
     4
 10
67.250554992671852
 20
89.763398006540854
 30
0.0
  0
VERTEX
  5
17FA
  8
SAPA_PROFIL
 62
     4
 10
68.255524323269725
 20
88.022740065897324
 30
0.0
 42
-0.1316524975874892
  0
VERTEX
  5
17FB
  8
SAPA_PROFIL
 62
     4
 10
68.416293838728464
 20
87.422740065896903
 30
0.0
  0
VERTEX
  5
17FC
  8
SAPA_PROFIL
 62
     4
 10
68.416293838727782
 20
84.699999928368314
 30
0.0
 42
-0.414213562374094
  0
VERTEX
  5
17FD
  8
SAPA_PROFIL
 62
     4
 10
67.216293838723644
 20
83.499999928369405
 30
0.0
  0
VERTEX
  5
17FE
  8
SAPA_PROFIL
 62
     4
 10
41.418558811801823
 20
83.499999928458521
 30
0.0
 42
0.4142135623730951
  0
VERTEX
  5
17FF
  8
SAPA_PROFIL
 62
     4
 10
40.918558811801823
 20
82.999999928458536
 30
0.0
  0
VERTEX
  5
1800
  8
SAPA_PROFIL
 62
     4
 10
40.918558811801589
 20
82.799999928458703
 30
0.0
 42
0.4142135623730951
  0
VERTEX
  5
1801
  8
SAPA_PROFIL
 62
     4
 10
41.218558811801763
 20
82.499999928458521
 30
0.0
  0
VERTEX
  5
1802
  8
SAPA_PROFIL
 62
     4
 10
41.868558811803673
 20
82.499999928458521
 30
0.0
 42
-0.4142135623730951
  0
VERTEX
  5
1803
  8
SAPA_PROFIL
 62
     4
 10
42.168558811803642
 20
82.19999992845743
 30
0.0
  0
VERTEX
  5
1804
  8
SAPA_PROFIL
 62
     4
 10
42.168558811802733
 20
81.299999928461418
 30
0.0
 42
-0.4142135623730951
  0
VERTEX
  5
1805
  8
SAPA_PROFIL
 62
     4
 10
41.668558811803642
 20
80.799999928461432
 30
0.0
  0
VERTEX
  5
1806
  8
SAPA_PROFIL
 62
     4
 10
35.668558811801809
 20
80.799999928461432
 30
0.0
 42
-0.4142135623730951
  0
VERTEX
  5
1807
  8
SAPA_PROFIL
 62
     4
 10
35.168558811801809
 20
81.299999928461418
 30
0.0
  0
VERTEX
  5
1808
  8
SAPA_PROFIL
 62
     4
 10
35.168558811801809
 20
82.199999928460159
 30
0.0
 42
-0.4142135623710974
  0
VERTEX
  5
1809
  8
SAPA_PROFIL
 62
     4
 10
35.468558811799731
 20
82.499999928459431
 30
0.0
  0
VERTEX
  5
180A
  8
SAPA_PROFIL
 62
     4
 10
36.118558811801627
 20
82.499999928463964
 30
0.0
 42
0.4142135623730951
  0
VERTEX
  5
180B
  8
SAPA_PROFIL
 62
     4
 10
36.418558811799791
 20
82.799999928465965
 30
0.0
  0
VERTEX
  5
180C
  8
SAPA_PROFIL
 62
     4
 10
36.41855881179864
 20
82.999999928458536
 30
0.0
 42
0.4142135623730951
  0
VERTEX
  5
180D
  8
SAPA_PROFIL
 62
     4
 10
35.91855881179864
 20
83.499999928458521
 30
0.0
  0
VERTEX
  5
180E
  8
SAPA_PROFIL
 62
     4
 10
32.91855881179864
 20
83.499999928458521
 30
0.0
 42
0.4142135623730951
  0
VERTEX
  5
180F
  8
SAPA_PROFIL
 62
     4
 10
32.41855881179864
 20
82.999999928458536
 30
0.0
  0
VERTEX
  5
1810
  8
SAPA_PROFIL
 62
     4
 10
32.41855881179864
 20
82.799999928458703
 30
0.0
 42
0.4142135623730951
  0
VERTEX
  5
1811
  8
SAPA_PROFIL
 62
     4
 10
32.718558811798822
 20
82.499999928458521
 30
0.0
  0
VERTEX
  5
1812
  8
SAPA_PROFIL
 62
     4
 10
33.368558811798671
 20
82.499999928458521
 30
0.0
 42
-0.4142135623730951
  0
VERTEX
  5
1813
  8
SAPA_PROFIL
 62
     4
 10
33.66855881179864
 20
82.19999992845743
 30
0.0
  0
VERTEX
  5
1814
  8
SAPA_PROFIL
 62
     4
 10
33.66855881179864
 20
81.299999928461418
 30
0.0
 42
-0.4142135623730951
  0
VERTEX
  5
1815
  8
SAPA_PROFIL
 62
     4
 10
33.16855881179864
 20
80.799999928461432
 30
0.0
  0
VERTEX
  5
1816
  8
SAPA_PROFIL
 62
     4
 10
27.168558811798661
 20
80.799999928461432
 30
0.0
 42
-0.4142135623730951
  0
VERTEX
  5
1817
  8
SAPA_PROFIL
 62
     4
 10
26.66855881179864
 20
81.299999928461418
 30
0.0
  0
VERTEX
  5
1818
  8
SAPA_PROFIL
 62
     4
 10
26.66855881179864
 20
82.19999992845743
 30
0.0
 42
-0.4142135623730951
  0
VERTEX
  5
1819
  8
SAPA_PROFIL
 62
     4
 10
26.96855881179884
 20
82.499999928458521
 30
0.0
  0
VERTEX
  5
181A
  8
SAPA_PROFIL
 62
     4
 10
27.6185588117987
 20
82.499999928458521
 30
0.0
 42
0.4142135623730949
  0
VERTEX
  5
181B
  8
SAPA_PROFIL
 62
     4
 10
27.91855881179864
 20
82.799999928458703
 30
0.0
  0
VERTEX
  5
181C
  8
SAPA_PROFIL
 62
     4
 10
27.91855881179864
 20
82.999999928458536
 30
0.0
 42
0.4142135623730951
  0
VERTEX
  5
181D
  8
SAPA_PROFIL
 62
     4
 10
27.41855881179864
 20
83.499999928458521
 30
0.0
  0
VERTEX
  5
181E
  8
SAPA_PROFIL
 62
     4
 10
25.66855881179864
 20
83.499999928457612
 30
0.0
 42
0.4142135623726955
  0
VERTEX
  5
181F
  8
SAPA_PROFIL
 62
     4
 10
25.16855881179864
 20
82.999999928123827
 30
0.0
  0
VERTEX
  5
1820
  8
SAPA_PROFIL
 62
     4
 10
25.16855881179842
 20
69.999999928116537
 30
0.0
 42
0.4142135623732284
  0
VERTEX
  5
1821
  8
SAPA_PROFIL
 62
     4
 10
25.668558811796821
 20
69.499999927840051
 30
0.0
  0
VERTEX
  5
1822
  8
SAPA_PROFIL
 62
     4
 10
27.418558811796821
 20
69.499999927840051
 30
0.0
 42
0.4142135623730951
  0
VERTEX
  5
1823
  8
SAPA_PROFIL
 62
     4
 10
27.918558811796839
 20
69.999999927840051
 30
0.0
  0
VERTEX
  5
1824
  8
SAPA_PROFIL
 62
     4
 10
27.918558811796839
 20
70.199999927839855
 30
0.0
 42
0.4142135623730951
  0
VERTEX
  5
1825
  8
SAPA_PROFIL
 62
     4
 10
27.618558811796639
 20
70.499999927840051
 30
0.0
  0
VERTEX
  5
1826
  8
SAPA_PROFIL
 62
     4
 10
26.96855881179679
 20
70.499999927840051
 30
0.0
 42
-0.4142135623730951
  0
VERTEX
  5
1827
  8
SAPA_PROFIL
 62
     4
 10
26.668558811796839
 20
70.799999927839323
 30
0.0
  0
VERTEX
  5
1828
  8
SAPA_PROFIL
 62
     4
 10
26.668558811796839
 20
71.69999992783714
 30
0.0
 42
-0.4142135623730951
  0
VERTEX
  5
1829
  8
SAPA_PROFIL
 62
     4
 10
27.168558811796821
 20
72.19999992783714
 30
0.0
  0
VERTEX
  5
182A
  8
SAPA_PROFIL
 62
     4
 10
33.168558811796821
 20
72.19999992783714
 30
0.0
 42
-0.4142135623730951
  0
VERTEX
  5
182B
  8
SAPA_PROFIL
 62
     4
 10
33.668558811796821
 20
71.69999992783714
 30
0.0
  0
VERTEX
  5
182C
  8
SAPA_PROFIL
 62
     4
 10
33.668558811796821
 20
70.799999927839323
 30
0.0
 42
-0.4142135623730953
  0
VERTEX
  5
182D
  8
SAPA_PROFIL
 62
     4
 10
33.368558811796639
 20
70.499999927840051
 30
0.0
  0
VERTEX
  5
182E
  8
SAPA_PROFIL
 62
     4
 10
32.718558811796782
 20
70.499999927840051
 30
0.0
 42
0.4142135623730951
  0
VERTEX
  5
182F
  8
SAPA_PROFIL
 62
     4
 10
32.418558811796821
 20
70.199999927839855
 30
0.0
  0
VERTEX
  5
1830
  8
SAPA_PROFIL
 62
     4
 10
32.418558811796821
 20
69.999999927840051
 30
0.0
 42
0.4142135623730951
  0
VERTEX
  5
1831
  8
SAPA_PROFIL
 62
     4
 10
32.918558811796821
 20
69.499999927840051
 30
0.0
  0
VERTEX
  5
1832
  8
SAPA_PROFIL
 62
     4
 10
35.918558811796821
 20
69.499999927840051
 30
0.0
 42
0.4142135623730951
  0
VERTEX
  5
1833
  8
SAPA_PROFIL
 62
     4
 10
36.418558811796821
 20
69.999999927840051
 30
0.0
  0
VERTEX
  5
1834
  8
SAPA_PROFIL
 62
     4
 10
36.418558811797958
 20
70.199999927832593
 30
0.0
 42
0.414213562372873
  0
VERTEX
  5
1835
  8
SAPA_PROFIL
 62
     4
 10
36.118558811799829
 20
70.499999927834594
 30
0.0
  0
VERTEX
  5
1836
  8
SAPA_PROFIL
 62
     4
 10
35.468558811798822
 20
70.499999927837322
 30
0.0
 42
-0.4142135623722071
  0
VERTEX
  5
1837
  8
SAPA_PROFIL
 62
     4
 10
35.168558811799791
 20
70.799999927838414
 30
0.0
  0
VERTEX
  5
1838
  8
SAPA_PROFIL
 62
     4
 10
35.168558811799791
 20
71.69999992783714
 30
0.0
 42
-0.4142135623730951
  0
VERTEX
  5
1839
  8
SAPA_PROFIL
 62
     4
 10
35.668558811799763
 20
72.19999992783714
 30
0.0
  0
VERTEX
  5
183A
  8
SAPA_PROFIL
 62
     4
 10
41.668558811801823
 20
72.199999927829865
 30
0.0
 42
-0.4142135623730951
  0
VERTEX
  5
183B
  8
SAPA_PROFIL
 62
     4
 10
42.168558811801823
 20
71.699999927829865
 30
0.0
  0
VERTEX
  5
183C
  8
SAPA_PROFIL
 62
     4
 10
42.168558811801823
 20
70.799999927832957
 30
0.0
 42
-0.4142135623730951
  0
VERTEX
  5
183D
  8
SAPA_PROFIL
 62
     4
 10
41.868558811801627
 20
70.499999927832775
 30
0.0
  0
VERTEX
  5
183E
  8
SAPA_PROFIL
 62
     4
 10
41.218558811799731
 20
70.499999927832775
 30
0.0
 42
0.4142135623730951
  0
VERTEX
  5
183F
  8
SAPA_PROFIL
 62
     4
 10
40.918558811799763
 20
70.199999927832593
 30
0.0
  0
VERTEX
  5
1840
  8
SAPA_PROFIL
 62
     4
 10
40.918558811799763
 20
69.999999927832775
 30
0.0
 42
0.4142135623730951
  0
VERTEX
  5
1841
  8
SAPA_PROFIL
 62
     4
 10
41.41855881179977
 20
69.499999927832775
 30
0.0
  0
VERTEX
  5
1842
  8
SAPA_PROFIL
 62
     4
 10
67.216293838723644
 20
69.499999927914644
 30
0.0
 42
-0.414213562374094
  0
VERTEX
  5
1843
  8
SAPA_PROFIL
 62
     4
 10
68.416293838727555
 20
68.299999927914826
 30
0.0
  0
VERTEX
  5
1844
  8
SAPA_PROFIL
 62
     4
 10
68.416293838727796
 20
65.571518577834752
 30
0.0
  0
SEQEND
  5
1845
  8
SAPA_PROFIL
 62
     4
  0
POLYLINE
  5
11F3
  8
SAPA_PROFIL
 62
     4
 66
     1
 10
0.0
 20
0.0
 30
0.0
 70
     1
  0
VERTEX
  5
1846
  8
SAPA_PROFIL
 62
     4
 10
43.452820282317312
 20
73.199999995880077
 30
0.0
  0
VERTEX
  5
1847
  8
SAPA_PROFIL
 62
     4
 10
43.452820282321419
 20
80.699999996438535
 30
0.0
 42
-0.4142135623730951
  0
VERTEX
  5
1848
  8
SAPA_PROFIL
 62
     4
 10
44.452820282321412
 20
81.699999996438521
 30
0.0
  0
VERTEX
  5
1849
  8
SAPA_PROFIL
 62
     4
 10
67.600555309245209
 20
81.699999996453982
 30
0.0
 42
-0.4142135623730949
  0
VERTEX
  5
184A
  8
SAPA_PROFIL
 62
     4
 10
68.400555309245391
 20
80.899999996453801
 30
0.0
  0
VERTEX
  5
184B
  8
SAPA_PROFIL
 62
     4
 10
68.400555309245391
 20
72.099999995935207
 30
0.0
 42
-0.414213562373428
  0
VERTEX
  5
184C
  8
SAPA_PROFIL
 62
     4
 10
67.600555309244299
 20
71.299999995935025
 30
0.0
  0
VERTEX
  5
184D
  8
SAPA_PROFIL
 62
     4
 10
44.452820282317312
 20
71.299999995958657
 30
0.0
 42
-0.4142135623724957
  0
VERTEX
  5
184E
  8
SAPA_PROFIL
 62
     4
 10
43.452820282319351
 20
72.299999995957748
 30
0.0
  0
SEQEND
  5
184F
  8
SAPA_PROFIL
 62
     4
  0
POLYLINE
  5
11F4
  8
SAPA_PROFIL
 66
     1
 10
0.0
 20
0.0
 30
0.0
 70
     1
  0
VERTEX
  5
1850
  8
SAPA_PROFIL
 10
24.999999999998352
 20
14.50000000001341
 30
0.0
  0
VERTEX
  5
1851
  8
SAPA_PROFIL
 10
25.00000000000199
 20
19.500000000013411
 30
0.0
 42
-0.4142135623730951
  0
VERTEX
  5
1852
  8
SAPA_PROFIL
 10
26.00000000000199
 20
20.500000000013411
 30
0.0
  0
VERTEX
  5
1853
  8
SAPA_PROFIL
 10
36.000000000001307
 20
20.500000000006139
 30
0.0
 42
-0.4142135623730951
  0
VERTEX
  5
1854
  8
SAPA_PROFIL
 10
37.000000000001307
 20
19.500000000013411
 30
0.0
  0
VERTEX
  5
1855
  8
SAPA_PROFIL
 10
37.000000000001307
 20
17.749999999977032
 30
0.0
 42
0.9999999999999998
  0
VERTEX
  5
1856
  8
SAPA_PROFIL
 10
38.500000000008569
 20
17.749999999977032
 30
0.0
  0
VERTEX
  5
1857
  8
SAPA_PROFIL
 10
38.500000000012221
 20
19.500000000006139
 30
0.0
 42
0.4142135623730951
  0
VERTEX
  5
1858
  8
SAPA_PROFIL
 10
36.000000000008583
 20
22.000000000013419
 30
0.0
  0
VERTEX
  5
1859
  8
SAPA_PROFIL
 10
26.200000000002721
 20
22.000000000013411
 30
0.0
 42
-0.4142135623730951
  0
VERTEX
  5
185A
  8
SAPA_PROFIL
 10
25.200000000002721
 20
23.000000000013411
 30
0.0
  0
VERTEX
  5
185B
  8
SAPA_PROFIL
 10
25.20000000000271
 20
67.249999999307647
 30
0.0
 42
-0.4142135623730951
  0
VERTEX
  5
185C
  8
SAPA_PROFIL
 10
25.70000000000271
 20
67.749999999307633
 30
0.0
  0
VERTEX
  5
185D
  8
SAPA_PROFIL
 10
43.500000000005613
 20
67.74999999931056
 30
0.0
 42
0.8390996311761574
  0
VERTEX
  5
185E
  8
SAPA_PROFIL
 10
43.602606043003263
 20
68.331907785547401
 30
0.0
  0
VERTEX
  5
185F
  8
SAPA_PROFIL
 10
37.302606043004332
 20
70.624920261431981
 30
0.0
 42
0.4663076581554896
  0
VERTEX
  5
1860
  8
SAPA_PROFIL
 10
36.904557674102463
 20
70.39510692849467
 30
0.0
  0
VERTEX
  5
1861
  8
SAPA_PROFIL
 10
36.775498487606932
 20
69.663175910480945
 30
0.0
 42
-0.3639702342659115
  0
VERTEX
  5
1862
  8
SAPA_PROFIL
 10
36.283094611100907
 20
69.249999999314923
 30
0.0
  0
VERTEX
  5
1863
  8
SAPA_PROFIL
 10
25.500000000001979
 20
69.249999999307647
 30
0.0
 42
-0.4142135623730951
  0
VERTEX
  5
1864
  8
SAPA_PROFIL
 10
25.000000000001979
 20
69.749999999307647
 30
0.0
  0
VERTEX
  5
1865
  8
SAPA_PROFIL
 10
25.000000000009251
 20
82.999999999998863
 30
0.0
 42
0.4142135623730951
  0
VERTEX
  5
1866
  8
SAPA_PROFIL
 10
24.50000000000561
 20
83.499999999998849
 30
0.0
 42
0.4142135623730951
  0
VERTEX
  5
1867
  8
SAPA_PROFIL
 10
23.50000000000561
 20
82.499999999998863
 30
0.0
  0
VERTEX
  5
1868
  8
SAPA_PROFIL
 10
23.50000000000199
 20
15.00000000001341
 30
0.0
 42
0.4142135623730951
  0
VERTEX
  5
1869
  8
SAPA_PROFIL
 10
24.50000000000199
 20
14.00000000001341
 30
0.0
 42
0.4142135623730951
  0
SEQEND
  5
186A
  8
SAPA_PROFIL
  0
LINE
  5
121F
  8
SAPA_GLAS
 10
20.20000000000077
 20
130.74999992793681
 30
0.0
 11
20.20000000000077
 21
129.99999992792371
 31
0.0
  0
LINE
  5
1220
  8
SAPA_GLAS
 10
33.000000000011688
 20
129.99999992792371
 30
0.0
 11
33.000000000012513
 21
130.7499999279228
 31
0.0
  0
LINE
  5
1221
  8
SAPA_GLAS
 10
20.200000000000738
 20
87.249999927910224
 30
0.0
 11
20.200000000000749
 21
87.999999927923355
 31
0.0
  0
LINE
  5
1222
  8
SAPA_GLAS
 10
33.000000000011667
 20
87.999999927923355
 30
0.0
 11
33.000000000012477
 21
87.249999927924236
 31
0.0
  0
INSERT
  5
1223
  8
SAPA_GLAS
  6
CONTINUOUS
  2
*X43
 10
0.0
 20
0.0
 30
0.0
1001
ACAD
1000
HATCH
1002
{
1070
    19
1000
ANSI37
1040
0.25
1040
-3.1415926535897931
1000
R14_HATCH_DATA
1000
1223
1011
1.0
1021
0.0
1031
0.0
1021
0.0
1031
0.0
1011
0.0
1021
0.0
1031
0.0
1021
1.0
1031
0.0
1011
0.0
1021
0.0
1031
0.0
1021
0.0
1031
1.0
1040
0.0
1010
0.0
1020
0.0
1030
1.0
1000
ANSI37
1070
     0
1070
     0
1071
        1
1071
        7
1070
     0
1070
     1
1071
        4
1040
20.200000000000749
1040
130.74999992827631
1040
20.200000000000749
1040
129.99999992792371
1040
33.000000000011688
1040
129.99999992792371
1040
33.00000000001252
1040
130.74999992826221
1071
        0
1070
     0
1070
     1
1040
-3.1415926535897931
1040
0.25
1070
     0
1070
     2
1040
3.9269908169872401
1040
43.075855852310958
1040
132.49999992789861
1040
0.5612660075668218
1040
-0.5612660075668224
1070
     0
1040
5.4977871437821371
1040
43.075855852310958
1040
132.49999992789861
1040
0.5612660075668224
1040
0.5612660075668218
1070
     0
1040
0.0325758689756538
1071
        1
1040
27.760089500210778
1040
130.40831851268129
1040
0.0
1002
}
  0
INSERT
  5
1224
  8
SAPA_GLAS
  6
CONTINUOUS
  2
*X44
 10
0.0
 20
0.0
 30
0.0
1001
ACAD
1000
HATCH
1002
{
1070
    19
1000
ANSI37
1040
0.25
1040
-3.1415926535897931
1000
R14_HATCH_DATA
1000
1224
1011
1.0
1021
0.0
1031
0.0
1021
0.0
1031
0.0
1011
0.0
1021
0.0
1031
0.0
1021
1.0
1031
0.0
1011
0.0
1021
0.0
1031
0.0
1021
0.0
1031
1.0
1040
0.0
1010
0.0
1020
0.0
1030
1.0
1000
ANSI37
1070
     0
1070
     0
1071
        1
1071
        7
1070
     0
1070
     1
1071
        4
1040
20.200000000000749
1040
87.999999927923355
1040
20.200000000000738
1040
87.249999927910224
1040
33.000000000012477
1040
87.249999927924236
1040
33.000000000011667
1040
87.999999927923355
1071
        0
1070
     0
1070
     1
1040
-3.1415926535897931
1040
0.25
1070
     0
1070
     2
1040
3.9269908169872401
1040
43.075855852310958
1040
132.49999992789861
1040
0.5612660075668218
1040
-0.5612660075668224
1070
     0
1040
5.4977871437821371
1040
43.075855852310958
1040
132.49999992789861
1040
0.5612660075668224
1040
0.5612660075668218
1070
     0
1040
0.0230646099693014
1071
        1
1040
29.131577195297481
1040
87.652314285230716
1040
0.0
1002
}
  0
POLYLINE
  5
1225
  8
SAPA_GLAS
 66
     1
 10
0.0
 20
0.0
 30
0.0
  0
VERTEX
  5
18F2
  8
SAPA_GLAS
 10
1.0000000000116911
 20
129.99999992792371
 30
0.0
  0
VERTEX
  5
18F3
  8
SAPA_GLAS
 10
33.000000000011688
 20
129.99999992792371
 30
0.0
  0
VERTEX
  5
18F4
  8
SAPA_GLAS
 10
33.000000000011688
 20
123.9999999279237
 30
0.0
  0
VERTEX
  5
18F5
  8
SAPA_GLAS
 10
1.0000000000116911
 20
123.9999999279237
 30
0.0
  0
SEQEND
  5
18F6
  8
SAPA_GLAS
  0
POLYLINE
  5
1226
  8
SAPA_GLAS
 66
     1
 10
0.0
 20
0.0
 30
0.0
  0
VERTEX
  5
18F7
  8
SAPA_GLAS
 10
23.00000000001166
 20
111.9999999279235
 30
0.0
  0
VERTEX
  5
18F8
  8
SAPA_GLAS
 10
23.000000000011671
 20
123.9999999279235
 30
0.0
  0
VERTEX
  5
18F9
  8
SAPA_GLAS
 10
33.000000000011688
 20
123.9999999279235
 30
0.0
  0
VERTEX
  5
18FA
  8
SAPA_GLAS
 10
33.00000000001166
 20
111.9999999279235
 30
0.0
  0
VERTEX
  5
18FB
  8
SAPA_GLAS
 10
23.00000000001166
 20
111.9999999279235
 30
0.0
  0
SEQEND
  5
18FC
  8
SAPA_GLAS
  0
POLYLINE
  5
1227
  8
SAPA_GLAS
 66
     1
 10
0.0
 20
0.0
 30
0.0
  0
VERTEX
  5
18FD
  8
SAPA_GLAS
 10
1.0000000000116669
 20
111.9999999279235
 30
0.0
  0
VERTEX
  5
18FE
  8
SAPA_GLAS
 10
33.000000000011667
 20
111.9999999279235
 30
0.0
  0
VERTEX
  5
18FF
  8
SAPA_GLAS
 10
33.000000000011667
 20
105.9999999279235
 30
0.0
  0
VERTEX
  5
1900
  8
SAPA_GLAS
 10
1.0000000000116669
 20
105.9999999279235
 30
0.0
  0
SEQEND
  5
1901
  8
SAPA_GLAS
  0
POLYLINE
  5
1228
  8
SAPA_GLAS
 66
     1
 10
0.0
 20
0.0
 30
0.0
  0
VERTEX
  5
1902
  8
SAPA_GLAS
 10
23.000000000011639
 20
93.999999927923383
 30
0.0
  0
VERTEX
  5
1903
  8
SAPA_GLAS
 10
23.00000000001166
 20
105.9999999279233
 30
0.0
  0
VERTEX
  5
1904
  8
SAPA_GLAS
 10
33.000000000011667
 20
105.9999999279233
 30
0.0
  0
VERTEX
  5
1905
  8
SAPA_GLAS
 10
33.000000000011632
 20
93.999999927923355
 30
0.0
  0
VERTEX
  5
1906
  8
SAPA_GLAS
 10
23.000000000011639
 20
93.999999927923383
 30
0.0
  0
SEQEND
  5
1907
  8
SAPA_GLAS
  0
POLYLINE
  5
1229
  8
SAPA_GLAS
 66
     1
 10
0.0
 20
0.0
 30
0.0
  0
VERTEX
  5
1908
  8
SAPA_GLAS
 10
1.0000000000116489
 20
87.999999927923383
 30
0.0
  0
VERTEX
  5
1909
  8
SAPA_GLAS
 10
33.000000000011632
 20
87.999999927923355
 30
0.0
  0
VERTEX
  5
190A
  8
SAPA_GLAS
 10
33.000000000011632
 20
93.999999927923355
 30
0.0
  0
VERTEX
  5
190B
  8
SAPA_GLAS
 10
1.0000000000116489
 20
93.999999927923398
 30
0.0
  0
SEQEND
  5
190C
  8
SAPA_GLAS
  0
POLYLINE
  5
1232
  8
SAPA_FOGBAND
 66
     1
 10
0.0
 20
0.0
 30
0.0
 70
     1
  0
VERTEX
  5
1921
  8
SAPA_FOGBAND
 10
26.85000000000306
 20
16.2500000000237
 30
0.0
  0
VERTEX
  5
1922
  8
SAPA_FOGBAND
 10
26.85000000000306
 20
17.050000000023878
 30
0.0
  0
VERTEX
  5
1923
  8
SAPA_FOGBAND
 10
33.150000000000148
 20
17.050000000023878
 30
0.0
  0
VERTEX
  5
1924
  8
SAPA_FOGBAND
 10
33.150000000000148
 20
16.2500000000237
 30
0.0
  0
SEQEND
  5
1925
  8
SAPA_FOGBAND
  0
POLYLINE
  5
1233
  8
SAPA_FOGBAND
 66
     1
 10
0.0
 20
0.0
 30
0.0
  0
VERTEX
  5
1926
  8
SAPA_FOGBAND
 10
31.572689603142649
 20
17.050000000023878
 30
0.0
  0
VERTEX
  5
1927
  8
SAPA_FOGBAND
 10
32.69813620045857
 20
20.5000000000237
 30
0.0
  0
VERTEX
  5
1928
  8
SAPA_FOGBAND
 10
30.259998153910029
 20
20.5000000000237
 30
0.0
  0
VERTEX
  5
1929
  8
SAPA_FOGBAND
 10
30.150000000003061
 20
17.050000000023878
 30
0.0
  0
SEQEND
  5
192A
  8
SAPA_FOGBAND
  0
POLYLINE
  5
1234
  8
SAPA_FOGBAND
 66
     1
 10
0.0
 20
0.0
 30
0.0
  0
VERTEX
  5
192B
  8
SAPA_FOGBAND
 10
30.07500000000233
 20
17.050000000023878
 30
0.0
  0
VERTEX
  5
192C
  8
SAPA_FOGBAND
 10
30.074999999999061
 20
20.5000000000237
 30
0.0
  0
VERTEX
  5
192D
  8
SAPA_FOGBAND
 10
29.925000000000871
 20
20.5000000000237
 30
0.0
  0
VERTEX
  5
192E
  8
SAPA_FOGBAND
 10
29.925000000000878
 20
17.050000000023878
 30
0.0
  0
SEQEND
  5
192F
  8
SAPA_FOGBAND
  0
POLYLINE
  5
1235
  8
SAPA_FOGBAND
 66
     1
 10
0.0
 20
0.0
 30
0.0
  0
VERTEX
  5
1930
  8
SAPA_FOGBAND
 10
29.850000000000151
 20
17.050000000023878
 30
0.0
  0
VERTEX
  5
1931
  8
SAPA_FOGBAND
 10
29.740002614817911
 20
20.5000000000237
 30
0.0
  0
VERTEX
  5
1932
  8
SAPA_FOGBAND
 10
27.30190927439574
 20
20.5000000000237
 30
0.0
  0
VERTEX
  5
1933
  8
SAPA_FOGBAND
 10
28.427310396860559
 20
17.050000000023878
 30
0.0
  0
SEQEND
  5
1934
  8
SAPA_FOGBAND
  0
DIMENSION
  5
1241
  8
SAPA_MATT
  2
*D36
 10
85.0
 20
170.99999985600741
 30
0.0
 11
52.499999999998209
 21
173.74999985600741
 31
0.0
 70
     0
 13
19.999999999996412
 23
130.94999992793839
 33
0.0
 14
85.0
 24
138.69999985599719
 34
0.0
 50
180.0
1001
ACAD
1000
DSTYLE
1002
{
1070
    40
1040
1.0
1002
}
  0
DIMENSION
  5
1242
  8
SAPA_MATT
  2
*D35
 10
25.00000000000011
 20
158.99999985600741
 30
0.0
 11
55.000000000000057
 21
161.74999985600741
 31
0.0
 70
     0
 13
85.0
 23
138.69999985599719
 33
0.0
 14
25.00000000000011
 24
137.49999985600741
 34
0.0
 50
180.0
1001
ACAD
1000
DSTYLE
1002
{
1070
    40
1040
1.0
1002
}
  0
DIMENSION
  5
1243
  8
SAPA_MATT
  2
*D34
 10
-30.999999999999972
 20
13.999999928252731
 30
0.0
 11
-30.999999999999972
 21
76.499999928003746
 31
0.0
 70
   128
 13
26.50000000000011
 23
138.9999999277548
 33
0.0
 14
24.500000000000139
 24
13.99999992825272
 34
0.0
 50
270.0
1001
ACAD
1000
DSTYLE
1002
{
1070
    40
1040
1.0
1002
}
  0
DIMENSION
  5
1244
  8
SAPA_MATT
  2
*D33
 10
-19.0
 20
13.999999928252731
 30
0.0
 11
-18.239486851189749
 21
50.142264778476473
 31
0.0
 70
   128
 13
35.000000000174708
 23
85.499999928367828
 33
0.0
 14
24.500000000000139
 24
13.99999992825272
 34
0.0
 50
270.0
1001
ACAD
1000
DSTYLE
1002
{
1070
   287
1070
     4
1070
    40
1040
1.0
1070
   279
1070
     1
1002
}
  0
DIMENSION
  5
1245
  8
SAPA_MATT
  2
*D32
 10
-19.0
 20
85.499999928367842
 30
0.0
 11
-21.750000000000011
 21
108.99999992802201
 31
0.0
 70
     0
 13
35.000000000174673
 23
132.4999999276761
 33
0.0
 14
35.000000000174708
 24
85.499999928367828
 34
0.0
 50
270.0
1001
ACAD
1000
DSTYLE
1002
{
1070
   287
1070
     4
1070
    40
1040
1.0
1070
   279
1070
     1
1002
}
  0
DIMENSION
  5
1246
  8
SAPA_MATT
  2
*D31
 10
-18.999999999999979
 20
132.4999999276761
 30
0.0
 11
-19.0
 21
135.74999992771541
 31
0.0
 70
   128
 13
26.50000000000011
 23
138.9999999277548
 33
0.0
 14
35.000000000174673
 24
132.4999999276761
 34
0.0
 50
270.0
1001
ACAD
1000
DSTYLE
1002
{
1070
    40
1040
1.0
1002
}
  0
DIMENSION
  5
1247
  8
SAPA_MATT
  2
*D30
 10
19.999999999996412
 20
158.9999999277548
 30
0.0
 11
22.499999999998259
 21
161.7499999277548
 31
0.0
 70
     0
 13
25.00000000000011
 23
137.49999992775469
 33
0.0
 14
19.999999999996412
 24
130.94999992793839
 34
0.0
 50
180.0
1001
ACAD
1000
DSTYLE
1002
{
1070
   287
1070
     4
1070
    40
1040
1.0
1070
   279
1070
     1
1002
}
  0
VIEWPORT
  5
C4
 67
     1
  8
0
 10
160.5543545598442
 20
116.00969601843509
 30
0.0
 40
404.96977709277462
 41
256.8421457311839
 68
     1
 69
     1
1001
ACAD
1000
MVIEW
1002
{
1070
    16
1010
0.0
1020
0.0
1030
0.0
1010
0.0
1020
0.0
1030
1.0
1040
0.0
1040
256.8421457311839
1040
99.206250190734863
1040
130.70624923706049
1040
50.0
1040
0.0
1040
0.0
1070
     0
1070
     0
1070
     1
1070
     1
1070
     0
1070
     0
1070
     0
1070
     0
1040
0.0
1040
0.0
1040
0.0
1040
10.0
1040
10.0
1040
10.0
1040
10.0
1070
     0
1002
{
1002
}
1002
}
  0
ENDSEC
  0
EOF
