  0
SECTION
  2
HEADER
  9
$ACADVER
  1
AC1009
  9
$INSBASE
 10
0.0
 20
0.0
 30
0.0
  9
$EXTMIN
 10
-67.249999999999972
 20
-30.619466477045759
 30
-0.2
  9
$EXTMAX
 10
104.7553653089505
 20
194.0032559344132
 30
0.0000000048844772
  9
$LIMMIN
 10
0.0
 20
0.0
  9
$LIMMAX
 10
790.0
 20
790.0
  9
$ORTHOMODE
 70
     1
  9
$REGENMODE
 70
     1
  9
$FILLMODE
 70
     1
  9
$QTEXTMODE
 70
     0
  9
$MIRRTEXT
 70
     1
  9
$DRAGMODE
 70
     2
  9
$LTSCALE
 40
4.0
  9
$OSMODE
 70
   167
  9
$ATTMODE
 70
     1
  9
$TEXTSIZE
 40
3.5
  9
$TRACEWID
 40
0.05
  9
$TEXTSTYLE
  7
ISO
  9
$CLAYER
  8
0
  9
$CELTYPE
  6
BYLAYER
  9
$CECOLOR
 62
   256
  9
$DIMSCALE
 40
0.0
  9
$DIMASZ
 40
3.0
  9
$DIMEXO
 40
1.5
  9
$DIMDLI
 40
10.0
  9
$DIMRND
 40
0.0
  9
$DIMDLE
 40
0.0
  9
$DIMEXE
 40
1.5
  9
$DIMTP
 40
0.0
  9
$DIMTM
 40
0.0
  9
$DIMTXT
 40
3.5
  9
$DIMCEN
 40
-5.0
  9
$DIMTSZ
 40
0.0
  9
$DIMTOL
 70
     0
  9
$DIMLIM
 70
     0
  9
$DIMTIH
 70
     0
  9
$DIMTOH
 70
     0
  9
$DIMSE1
 70
     0
  9
$DIMSE2
 70
     0
  9
$DIMTAD
 70
     1
  9
$DIMZIN
 70
     8
  9
$DIMBLK
  1

  9
$DIMASO
 70
     1
  9
$DIMSHO
 70
     1
  9
$DIMPOST
  1

  9
$DIMAPOST
  1

  9
$DIMALT
 70
     0
  9
$DIMALTD
 70
     0
  9
$DIMALTF
 40
25.399999999999999
  9
$DIMLFAC
 40
-1.0
  9
$DIMTOFL
 70
     1
  9
$DIMTVP
 40
0.0
  9
$DIMTIX
 70
     0
  9
$DIMSOXD
 70
     0
  9
$DIMSAH
 70
     0
  9
$DIMBLK1
  1

  9
$DIMBLK2
  1

  9
$DIMSTYLE
  2
MASKIN
  9
$DIMCLRD
 70
   256
  9
$DIMCLRE
 70
   256
  9
$DIMCLRT
 70
     2
  9
$DIMTFAC
 40
1.0
  9
$DIMGAP
 40
1.0
  9
$LUNITS
 70
     2
  9
$LUPREC
 70
     8
  9
$SKETCHINC
 40
0.1
  9
$FILLETRAD
 40
0.0
  9
$AUNITS
 70
     0
  9
$AUPREC
 70
     8
  9
$MENU
  1
ACAD
  9
$ELEVATION
 40
0.0
  9
$PELEVATION
 40
0.0
  9
$THICKNESS
 40
0.0
  9
$LIMCHECK
 70
     0
  9
$BLIPMODE
 70
     0
  9
$CHAMFERA
 40
0.0
  9
$CHAMFERB
 40
0.0
  9
$SKPOLY
 70
     0
  9
$TDCREATE
 40
2455734.518348461
  9
$TDUPDATE
 40
2455994.4988941322
  9
$TDINDWG
 40
1.1564380208
  9
$TDUSRTIMER
 40
1.1564378356
  9
$USRTIMER
 70
     1
  9
$ANGBASE
 50
0.0
  9
$ANGDIR
 70
     0
  9
$PDMODE
 70
     0
  9
$PDSIZE
 40
0.0
  9
$PLINEWID
 40
0.0
  9
$COORDS
 70
     1
  9
$SPLFRAME
 70
     0
  9
$SPLINETYPE
 70
     6
  9
$SPLINESEGS
 70
     8
  9
$ATTDIA
 70
     0
  9
$ATTREQ
 70
     1
  9
$HANDLING
 70
     1
  9
$HANDSEED
  5
1A48
  9
$SURFTAB1
 70
     6
  9
$SURFTAB2
 70
     6
  9
$SURFTYPE
 70
     6
  9
$SURFU
 70
     6
  9
$SURFV
 70
     6
  9
$UCSNAME
  2

  9
$UCSORG
 10
0.0
 20
0.0
 30
0.0
  9
$UCSXDIR
 10
1.0
 20
0.0
 30
0.0
  9
$UCSYDIR
 10
0.0
 20
1.0
 30
0.0
  9
$PUCSNAME
  2

  9
$PUCSORG
 10
0.0
 20
0.0
 30
0.0
  9
$PUCSXDIR
 10
1.0
 20
0.0
 30
0.0
  9
$PUCSYDIR
 10
0.0
 20
1.0
 30
0.0
  9
$USERI1
 70
     0
  9
$USERI2
 70
     0
  9
$USERI3
 70
     0
  9
$USERI4
 70
     0
  9
$USERI5
 70
     0
  9
$USERR1
 40
0.0
  9
$USERR2
 40
0.0
  9
$USERR3
 40
0.0
  9
$USERR4
 40
0.0
  9
$USERR5
 40
0.0
  9
$WORLDVIEW
 70
     1
  9
$SHADEDGE
 70
     3
  9
$SHADEDIF
 70
    70
  9
$TILEMODE
 70
     1
  9
$MAXACTVP
 70
    16
  9
$PLIMCHECK
 70
     0
  9
$PEXTMIN
 10
1.0000000000000000E+020
 20
1.0000000000000000E+020
 30
1.0000000000000000E+020
  9
$PEXTMAX
 10
-1.0000000000000000E+020
 20
-1.0000000000000000E+020
 30
-1.0000000000000000E+020
  9
$PLIMMIN
 10
-5.069427490234375
 20
-5.8737497329711914
  9
$PLIMMAX
 10
291.89889526367187
 20
204.0995779037475
  9
$UNITMODE
 70
     0
  9
$VISRETAIN
 70
     1
  9
$PLINEGEN
 70
     0
  9
$PSLTSCALE
 70
     1
  0
ENDSEC
  0
SECTION
  2
TABLES
  0
TABLE
  2
VPORT
 70
     1
  0
VPORT
  2
*ACTIVE
 70
     0
 10
0.0
 20
0.0
 11
1.0
 21
1.0
 12
22.330330122083812
 22
141.89389500012001
 13
0.0
 23
0.0
 14
1.0
 24
1.0
 15
0.0
 25
0.0
 16
0.0
 26
0.0
 36
1.0
 17
0.0
 27
0.0
 37
0.0
 40
225.4607541553703
 41
2.37391304347826
 42
50.0
 43
0.0
 44
0.0
 50
0.0
 51
0.0
 71
     0
 72
   100
 73
     1
 74
     1
 75
     0
 76
     0
 77
     0
 78
     0
  0
ENDTAB
  0
TABLE
  2
LTYPE
 70
     5
  0
LTYPE
  2
CONTINUOUS
 70
     0
  3
Solid line
 72
    65
 73
     0
 40
0.0
  0
LTYPE
  2
BYGG-027390$0$NEWDOT
 70
     0
  3
____ . ____ . ____ . ____ . ____ . ____ . ____
 72
    65
 73
     4
 40
2.0
 49
1.0
 49
-0.5
 49
0.0
 49
-0.5
  0
LTYPE
  2
BYGG-027368$0$NEWDOT
 70
     0
  3
____ . ____ . ____ . ____ . ____ . ____ . ____
 72
    65
 73
     4
 40
2.0
 49
1.0
 49
-0.5
 49
0.0
 49
-0.5
  0
LTYPE
  2
BYGG-027387$0$NEWDOT
 70
     0
  3
____ . ____ . ____ . ____ . ____ . ____ . ____
 72
    65
 73
     4
 40
2.0
 49
1.0
 49
-0.5
 49
0.0
 49
-0.5
  0
LTYPE
  2
BYGG-027385$0$NEWDOT
 70
     0
  3
____ . ____ . ____ . ____ . ____ . ____ . ____
 72
    65
 73
     4
 40
2.0
 49
1.0
 49
-0.5
 49
0.0
 49
-0.5
  0
ENDTAB
  0
TABLE
  2
LAYER
 70
    41
  0
LAYER
  2
0
 70
     0
 62
     7
  6
CONTINUOUS
  0
LAYER
  2
DEFPOINTS
 70
     0
 62
     7
  6
CONTINUOUS
  0
LAYER
  2
SAPA_ARTIKELNR
 70
     0
 62
     4
  6
CONTINUOUS
  0
LAYER
  2
SAPA_ANSLUTNING
 70
     0
 62
     6
  6
CONTINUOUS
  0
LAYER
  2
SAPA_MATT
 70
     0
 62
     1
  6
CONTINUOUS
  0
LAYER
  2
SAPA_GLAS
 70
     0
 62
     4
  6
CONTINUOUS
  0
LAYER
  2
SAPA_FOGBAND
 70
     0
 62
     2
  6
CONTINUOUS
  0
LAYER
  2
SAPA_PROFIL
 70
     0
 62
     7
  6
CONTINUOUS
  0
ENDTAB
  0
TABLE
  2
STYLE
 70
    22
  0
STYLE
  2
STANDARD
 70
     0
 40
0.0
 41
1.0
 50
0.0
 71
     0
 42
0.2
  3
txt
  4

  0
STYLE
  2
ISO
 70
     0
 40
0.0
 41
1.0
 50
0.0
 71
     0
 42
3.5
  3
txt
  4

  0
STYLE
  2
BYGG-027392$0$STANDARD
 70
     0
 40
0.0
 41
1.0
 50
0.0
 71
     0
 42
0.2
  3
txt
  4

  0
STYLE
  2
BYGG-027392$0$ISO
 70
     0
 40
0.0
 41
1.0
 50
0.0
 71
     0
 42
3.5
  3
txt
  4

  0
STYLE
  2
BYGG-027457$0$STANDARD
 70
     0
 40
0.0
 41
1.0
 50
0.0
 71
     0
 42
0.2
  3
txt
  4

  0
STYLE
  2
BYGG-027457$0$ISO
 70
     0
 40
0.0
 41
1.0
 50
0.0
 71
     0
 42
3.5
  3
txt
  4

  0
STYLE
  2
BYGG-027390$0$STANDARD
 70
     0
 40
0.0
 41
1.0
 50
0.0
 71
     0
 42
0.2
  3
txt
  4

  0
STYLE
  2
BYGG-027390$0$ISO
 70
     0
 40
0.0
 41
1.0
 50
0.0
 71
     0
 42
3.5
  3
txt
  4

  0
STYLE
  2
BYGG-027458$0$STANDARD
 70
     0
 40
0.0
 41
1.0
 50
0.0
 71
     0
 42
0.2
  3
txt
  4

  0
STYLE
  2
BYGG-027458$0$ISO
 70
     0
 40
0.0
 41
1.0
 50
0.0
 71
     0
 42
3.5
  3
txt
  4

  0
STYLE
  2
BYGG-027368$0$STANDARD
 70
     0
 40
0.0
 41
1.0
 50
0.0
 71
     0
 42
0.2
  3
txt
  4

  0
STYLE
  2
BYGG-027368$0$ISO
 70
     0
 40
0.0
 41
1.0
 50
0.0
 71
     0
 42
3.5
  3
txt
  4

  0
STYLE
  2
BYGG-027460$0$STANDARD
 70
     0
 40
0.0
 41
1.0
 50
0.0
 71
     0
 42
0.2
  3
txt
  4

  0
STYLE
  2
BYGG-027460$0$ISO
 70
     0
 40
0.0
 41
1.0
 50
0.0
 71
     0
 42
3.5
  3
txt
  4

  0
STYLE
  2
BYGG-027387$0$STANDARD
 70
     0
 40
0.0
 41
1.0
 50
0.0
 71
     0
 42
0.2
  3
txt
  4

  0
STYLE
  2
BYGG-027387$0$ISO
 70
     0
 40
0.0
 41
1.0
 50
0.0
 71
     0
 42
3.5
  3
txt
  4

  0
STYLE
  2
BYGG-027394$0$STANDARD
 70
     0
 40
0.0
 41
1.0
 50
0.0
 71
     0
 42
0.2
  3
txt
  4

  0
STYLE
  2
BYGG-027394$0$ISO
 70
     0
 40
0.0
 41
1.0
 50
0.0
 71
     0
 42
3.5
  3
txt
  4

  0
STYLE
  2
BYGG-027414$0$STANDARD
 70
     0
 40
0.0
 41
1.0
 50
0.0
 71
     0
 42
0.2
  3
txt
  4

  0
STYLE
  2
BYGG-027414$0$ISO
 70
     0
 40
0.0
 41
1.0
 50
0.0
 71
     0
 42
3.5
  3
txt
  4

  0
STYLE
  2
BYGG-027385$0$STANDARD
 70
     0
 40
0.0
 41
1.0
 50
0.0
 71
     0
 42
0.2
  3
txt
  4

  0
STYLE
  2
BYGG-027385$0$ISO
 70
     0
 40
0.0
 41
1.0
 50
0.0
 71
     0
 42
3.5
  3
txt
  4

  0
ENDTAB
  0
TABLE
  2
VIEW
 70
     0
  0
ENDTAB
  0
TABLE
  2
UCS
 70
     0
  0
ENDTAB
  0
TABLE
  2
APPID
 70
    28
  0
APPID
  2
ACAD
 70
     0
  0
APPID
  2
ACAD_DSTYLE_DIMTEXT_FILL
 70
     0
  0
APPID
  2
ACAD_DSTYLE_DIMEXT_LENGTH
 70
     0
  0
APPID
  2
ACAD_DSTYLE_DIMEXT_ENABLED
 70
     0
  0
APPID
  2
ACAD_DSTYLE_DIM_LINETYPE
 70
     0
  0
APPID
  2
ACAD_DSTYLE_DIM_EXT1_LINETYPE
 70
     0
  0
APPID
  2
ACAD_DSTYLE_DIM_EXT2_LINETYPE
 70
     0
  0
APPID
  2
ACAD_DSTYLE_DIMJOGGED_JOGA
 70
     0
  0
APPID
  2
ACAD_DSTYLE_DIMARC_LENGTH_
 70
     0
  0
APPID
  2
ACAD_PSEXT
 70
     0
  0
APPID
  2
ACAD_MLEADERVER
 70
     0
  0
APPID
  2
GENIUS_GENODEF_13
 70
     0
  0
APPID
  2
RC_PROFILE
 70
     0
  0
APPID
  2
ACAECLAYERSTANDARD
 70
     0
  0
APPID
  2
GENIUS_GENOBJ-N-FIL_13
 70
     0
  0
APPID
  2
ACADANNOTATIVE
 70
     0
  0
APPID
  2
ACAD_EXEMPT_FROM_CAD_STANDARDS
 70
     0
  0
APPID
  2
AEC_XDATA_BOUND_SPACE
 70
     0
  0
APPID
  2
ACAD_DSTYLE_DIMJAG
 70
     0
  0
APPID
  2
ACAD_DSTYLE_DIMTALN
 70
     0
  0
APPID
  2
GENIUS_GENREC_14
 70
     0
  0
APPID
  2
GENIUS_GENOBJ-N-REC_13
 70
     0
  0
APPID
  2
ACDBDYNAMICBLOCKTRUENAME
 70
     0
  0
APPID
  2
ACDBBLOCKREPETAG
 70
     0
  0
APPID
  2
ACDBDYNAMICBLOCKGUID
 70
     0
  0
APPID
  2
ACDBBLOCKREPBTAG
 70
     0
  0
APPID
  2
ACAD_NAV_VCDISPLAY
 70
     0
  0
APPID
  2
ACCMTRANSPARENCY
 70
     0
  0
ENDTAB
  0
TABLE
  2
DIMSTYLE
 70
    11
  0
DIMSTYLE
  2
MASKIN
 70
     0
  3

  4

  5

  6

  7

 40
0.0
 41
3.0
 42
1.5
 43
10.0
 44
1.5
 45
0.0
 46
0.0
 47
0.0
 48
0.0
140
3.5
141
-5.0
142
0.0
143
25.399999999999999
144
-1.0
145
0.0
146
1.0
147
1.0
 71
     0
 72
     0
 73
     0
 74
     0
 75
     0
 76
     0
 77
     1
 78
     8
170
     0
171
     0
172
     1
173
     0
174
     0
175
     0
176
   256
177
   256
178
     2
  0
DIMSTYLE
  2
BYGG-027392$0$MASKIN
 70
     0
  3

  4

  5

  6

  7

 40
0.0
 41
3.0
 42
1.5
 43
10.0
 44
1.5
 45
0.0
 46
0.0
 47
0.0
 48
0.0
140
3.0
141
-5.0
142
0.0
143
25.399999999999999
144
-1.0
145
0.0
146
1.0
147
1.0
 71
     0
 72
     0
 73
     0
 74
     0
 75
     0
 76
     0
 77
     1
 78
     8
170
     0
171
     0
172
     1
173
     0
174
     0
175
     0
176
   256
177
   256
178
     2
  0
DIMSTYLE
  2
BYGG-027457$0$MASKIN
 70
     0
  3

  4

  5

  6

  7

 40
0.0
 41
3.0
 42
1.5
 43
10.0
 44
1.5
 45
0.0
 46
0.0
 47
0.0
 48
0.0
140
3.0
141
-5.0
142
0.0
143
25.399999999999999
144
-1.0
145
0.0
146
1.0
147
1.0
 71
     0
 72
     0
 73
     0
 74
     0
 75
     0
 76
     0
 77
     1
 78
     8
170
     0
171
     0
172
     1
173
     0
174
     0
175
     0
176
   256
177
   256
178
     2
  0
DIMSTYLE
  2
BYGG-027390$0$MASKIN
 70
     0
  3

  4

  5

  6

  7

 40
0.0
 41
3.0
 42
1.5
 43
10.0
 44
1.5
 45
0.0
 46
0.0
 47
0.0
 48
0.0
140
3.0
141
-5.0
142
0.0
143
25.399999999999999
144
-1.0
145
0.0
146
1.0
147
1.0
 71
     0
 72
     0
 73
     0
 74
     0
 75
     0
 76
     0
 77
     1
 78
     8
170
     0
171
     0
172
     1
173
     0
174
     0
175
     0
176
   256
177
   256
178
     2
  0
DIMSTYLE
  2
BYGG-027458$0$MASKIN
 70
     0
  3

  4

  5

  6

  7

 40
0.0
 41
3.0
 42
1.5
 43
10.0
 44
1.5
 45
0.0
 46
0.0
 47
0.0
 48
0.0
140
3.0
141
-5.0
142
0.0
143
25.399999999999999
144
-1.0
145
0.0
146
1.0
147
1.0
 71
     0
 72
     0
 73
     0
 74
     0
 75
     0
 76
     0
 77
     1
 78
     8
170
     0
171
     0
172
     1
173
     0
174
     0
175
     0
176
   256
177
   256
178
     2
  0
DIMSTYLE
  2
BYGG-027368$0$MASKIN
 70
     0
  3

  4

  5

  6

  7

 40
0.0
 41
3.0
 42
1.5
 43
10.0
 44
1.5
 45
0.0
 46
0.0
 47
0.0
 48
0.0
140
3.0
141
-5.0
142
0.0
143
25.399999999999999
144
-1.0
145
0.0
146
1.0
147
1.0
 71
     0
 72
     0
 73
     0
 74
     0
 75
     0
 76
     0
 77
     1
 78
     8
170
     0
171
     0
172
     1
173
     0
174
     0
175
     0
176
   256
177
   256
178
     2
  0
DIMSTYLE
  2
BYGG-027460$0$MASKIN
 70
     0
  3

  4

  5

  6

  7

 40
0.0
 41
3.0
 42
1.5
 43
10.0
 44
1.5
 45
0.0
 46
0.0
 47
0.0
 48
0.0
140
3.0
141
-5.0
142
0.0
143
25.399999999999999
144
-1.0
145
0.0
146
1.0
147
1.0
 71
     0
 72
     0
 73
     0
 74
     0
 75
     0
 76
     0
 77
     1
 78
     8
170
     0
171
     0
172
     1
173
     0
174
     0
175
     0
176
   256
177
   256
178
     2
  0
DIMSTYLE
  2
BYGG-027387$0$MASKIN
 70
     0
  3

  4

  5

  6

  7

 40
0.0
 41
3.0
 42
1.5
 43
10.0
 44
1.5
 45
0.0
 46
0.0
 47
0.0
 48
0.0
140
3.0
141
-5.0
142
0.0
143
25.399999999999999
144
-1.0
145
0.0
146
1.0
147
1.0
 71
     0
 72
     0
 73
     0
 74
     0
 75
     0
 76
     0
 77
     1
 78
     8
170
     0
171
     0
172
     1
173
     0
174
     0
175
     0
176
   256
177
   256
178
     2
  0
DIMSTYLE
  2
BYGG-027394$0$MASKIN
 70
     0
  3

  4

  5

  6

  7

 40
0.0
 41
3.0
 42
1.5
 43
10.0
 44
1.5
 45
0.0
 46
0.0
 47
0.0
 48
0.0
140
3.0
141
-5.0
142
0.0
143
25.399999999999999
144
-1.0
145
0.0
146
1.0
147
1.0
 71
     0
 72
     0
 73
     0
 74
     0
 75
     0
 76
     0
 77
     1
 78
     8
170
     0
171
     0
172
     1
173
     0
174
     0
175
     0
176
   256
177
   256
178
     2
  0
DIMSTYLE
  2
BYGG-027414$0$MASKIN
 70
     0
  3

  4

  5

  6

  7

 40
0.0
 41
3.0
 42
1.5
 43
10.0
 44
1.5
 45
0.0
 46
0.0
 47
0.0
 48
0.0
140
3.0
141
-5.0
142
0.0
143
25.399999999999999
144
-1.0
145
0.0
146
1.0
147
1.0
 71
     0
 72
     0
 73
     0
 74
     0
 75
     0
 76
     0
 77
     1
 78
     8
170
     0
171
     0
172
     1
173
     0
174
     0
175
     0
176
   256
177
   256
178
     2
  0
DIMSTYLE
  2
BYGG-027385$0$MASKIN
 70
     0
  3

  4

  5

  6

  7

 40
0.0
 41
3.0
 42
1.5
 43
10.0
 44
1.5
 45
0.0
 46
0.0
 47
0.0
 48
0.0
140
3.0
141
-5.0
142
0.0
143
25.399999999999999
144
-1.0
145
0.0
146
1.0
147
1.0
 71
     0
 72
     0
 73
     0
 74
     0
 75
     0
 76
     0
 77
     1
 78
     8
170
     0
171
     0
172
     1
173
     0
174
     0
175
     0
176
   256
177
   256
178
     2
  0
ENDTAB
  0
ENDSEC
  0
SECTION
  2
BLOCKS
  0
BLOCK
  8
0
  2
$MODEL_SPACE
 70
     0
 10
0.0
 20
0.0
 30
0.0
  3
$MODEL_SPACE
  1

  0
ENDBLK
  5
37
  8
0
  0
BLOCK
 67
     1
  8
0
  2
$PAPER_SPACE
 70
     0
 10
0.0
 20
0.0
 30
0.0
  3
$PAPER_SPACE
  1

  0
ENDBLK
  5
35
 67
     1
  8
0
  0
BLOCK
  8
0
  2
*D37
 70
     1
 10
0.0
 20
0.0
 30
0.0
  3
*D37
  1

  0
LINE
  5
19AA
  8
SAPA_MATT
 10
25.00000000000011
 20
138.9999999277548
 30
0.0
 11
25.000000000000121
 21
170.4999999277548
 31
0.0
  0
LINE
  5
19AB
  8
SAPA_MATT
 10
-6.4999999999777174
 20
132.67605899532811
 30
0.0
 11
-6.4999999999777138
 21
170.4999999277548
 31
0.0
  0
LINE
  5
19AC
  8
SAPA_MATT
 10
22.000000000000121
 20
168.9999999277548
 30
0.0
 11
-3.4999999999777138
 21
168.9999999277548
 31
0.0
  0
SOLID
  5
19AD
  8
SAPA_MATT
 10
22.000000000000121
 20
169.4999999277548
 30
0.0
 11
22.000000000000121
 21
168.4999999277548
 31
0.0
 12
25.000000000000121
 22
168.9999999277548
 32
0.0
 13
25.000000000000121
 23
168.9999999277548
 33
0.0
  0
SOLID
  5
19AE
  8
SAPA_MATT
 10
-3.4999999999777138
 20
169.4999999277548
 30
0.0
 11
-3.4999999999777138
 21
168.4999999277548
 31
0.0
 12
-6.4999999999777138
 22
168.9999999277548
 32
0.0
 13
-6.4999999999777138
 23
168.9999999277548
 33
0.0
  0
TEXT
  8
SAPA_MATT
  40
3.5
  5
19C3
  62
2
  72
0
  71
0
 10
2.25000
 20
165.555
 30
0.000000
  1
31.5
  7
ISO
  0
POINT
  5
19B0
  8
DEFPOINTS
 62
     0
 10
25.00000000000011
 20
137.49999992775469
 30
0.0
  0
POINT
  5
19B1
  8
DEFPOINTS
 62
     0
 10
-6.4999999999777174
 20
131.17605899532811
 30
0.0
  0
POINT
  5
19B2
  8
DEFPOINTS
 62
     0
 10
-6.4999999999777138
 20
168.9999999277548
 30
0.0
  0
ENDBLK
  5
1063
  8
0
  0
BLOCK
  8
0
  2
*D38
 70
     1
 10
0.0
 20
0.0
 30
0.0
  3
*D38
  1

  0
LINE
  5
10E4
  8
SAPA_MATT
 10
25.00000000000011
 20
138.9999999277548
 30
0.0
 11
-50.499999999999972
 21
138.9999999277548
 31
0.0
  0
LINE
  5
10E5
  8
SAPA_MATT
 10
8.5000000000717364
 20
133.9999999275708
 30
0.0
 11
-50.499999999999979
 21
133.9999999275708
 31
0.0
  0
LINE
  5
10E6
  8
SAPA_MATT
 10
-48.999999999999979
 20
141.9999999277548
 30
0.0
 11
-48.999999999999972
 21
144.99999992775469
 31
0.0
  0
LINE
  5
10E7
  8
SAPA_MATT
 10
-48.999999999999979
 20
130.9999999275708
 30
0.0
 11
-48.999999999999979
 21
127.9999999275708
 31
0.0
  0
LINE
  5
10E8
  8
SAPA_MATT
 10
-48.999999999999979
 20
138.9999999277548
 30
0.0
 11
-48.999999999999979
 21
133.9999999275708
 31
0.0
  0
SOLID
  5
10E9
  8
SAPA_MATT
 10
-49.499999999999979
 20
141.9999999277548
 30
0.0
 11
-48.499999999999972
 21
141.9999999277548
 31
0.0
 12
-48.999999999999979
 22
138.9999999277548
 32
0.0
 13
-48.999999999999979
 23
138.9999999277548
 33
0.0
  0
SOLID
  5
10EA
  8
SAPA_MATT
 10
-49.499999999999979
 20
130.9999999275708
 30
0.0
 11
-48.499999999999972
 21
130.9999999275708
 31
0.0
 12
-48.999999999999979
 22
133.9999999275708
 32
0.0
 13
-48.999999999999979
 23
133.9999999275708
 33
0.0
  0
INSERT
  5
10EB
  8
0
  2
*U53
 10
0.0
 20
0.0
 30
0.0
  0
POINT
  5
10EC
  8
DEFPOINTS
 62
     0
 10
26.50000000000011
 20
138.9999999277548
 30
0.0
  0
POINT
  5
10ED
  8
DEFPOINTS
 62
     0
 10
10.000000000071729
 20
133.9999999275708
 30
0.0
  0
POINT
  5
10EE
  8
DEFPOINTS
 62
     0
 10
-48.999999999999979
 20
133.9999999275708
 30
0.0
  0
ENDBLK
  5
106F
  8
0
  0
BLOCK
  8
0
  2
*D39
 70
     1
 10
0.0
 20
0.0
 30
0.0
  3
*D39
  1

  0
LINE
  5
19A1
  8
SAPA_MATT
 10
8.5000000000717364
 20
133.9999999275708
 30
0.0
 11
-50.499999999999993
 21
133.9999999275708
 31
0.0
  0
LINE
  5
19A2
  8
SAPA_MATT
 10
8.5000000000717364
 20
83.999999928250375
 30
0.0
 11
-50.499999999999993
 21
83.999999928250389
 31
0.0
  0
LINE
  5
19A3
  8
SAPA_MATT
 10
-48.999999999999993
 20
130.9999999275708
 30
0.0
 11
-49.0
 21
86.999999928250389
 31
0.0
  0
SOLID
  5
19A4
  8
SAPA_MATT
 10
-49.499999999999993
 20
130.9999999275708
 30
0.0
 11
-48.499999999999993
 21
130.9999999275708
 31
0.0
 12
-48.999999999999993
 22
133.9999999275708
 32
0.0
 13
-48.999999999999993
 23
133.9999999275708
 33
0.0
  0
SOLID
  5
19A5
  8
SAPA_MATT
 10
-49.5
 20
86.999999928250389
 30
0.0
 11
-48.5
 21
86.999999928250389
 31
0.0
 12
-49.0
 22
83.999999928250389
 32
0.0
 13
-49.0
 23
83.999999928250389
 33
0.0
  0
TEXT
  8
SAPA_MATT
  40
3.5
  5
19C4
  62
2
  72
0
  71
0
 10
-58.7500
 20
102.805
 30
0.000000
  1
50
  7
ISO
  0
POINT
  5
19A7
  8
DEFPOINTS
 62
     0
 10
10.000000000071729
 20
133.9999999275708
 30
0.0
  0
POINT
  5
19A8
  8
DEFPOINTS
 62
     0
 10
10.000000000071729
 20
83.999999928250375
 30
0.0
  0
POINT
  5
19A9
  8
DEFPOINTS
 62
     0
 10
-49.0
 20
83.999999928250389
 30
0.0
  0
ENDBLK
  5
107D
  8
0
  0
BLOCK
  8
0
  2
*D40
 70
     1
 10
0.0
 20
0.0
 30
0.0
  3
*D40
  1

  0
LINE
  5
1998
  8
SAPA_MATT
 10
8.5000000000717364
 20
83.999999928250375
 30
0.0
 11
-50.499999999999979
 21
83.999999928250389
 31
0.0
  0
LINE
  5
1999
  8
SAPA_MATT
 10
23.000000000000139
 20
13.99999992825272
 30
0.0
 11
-50.5
 21
13.999999928252739
 31
0.0
  0
LINE
  5
199A
  8
SAPA_MATT
 10
-48.999999999999979
 20
80.999999928250375
 30
0.0
 11
-48.999999999999993
 21
16.999999928252741
 31
0.0
  0
TEXT
  8
SAPA_MATT
  40
3.5
  5
19C5
  62
2
  72
0
  71
0
 10
-57.9895
 20
43.9473
 30
0.000000
  1
70
  7
ISO
  0
SOLID
  5
199C
  8
SAPA_MATT
 10
-49.499999999999979
 20
80.999999928250375
 30
0.0
 11
-48.499999999999972
 21
80.999999928250375
 31
0.0
 12
-48.999999999999979
 22
83.999999928250389
 32
0.0
 13
-48.999999999999979
 23
83.999999928250389
 33
0.0
  0
SOLID
  5
199D
  8
SAPA_MATT
 10
-49.499999999999993
 20
16.999999928252741
 30
0.0
 11
-48.499999999999993
 21
16.999999928252741
 31
0.0
 12
-49.0
 22
13.999999928252739
 32
0.0
 13
-49.0
 23
13.999999928252739
 33
0.0
  0
POINT
  5
199E
  8
DEFPOINTS
 62
     0
 10
10.000000000071729
 20
83.999999928250375
 30
0.0
  0
POINT
  5
199F
  8
DEFPOINTS
 62
     0
 10
24.500000000000139
 20
13.99999992825272
 30
0.0
  0
POINT
  5
19A0
  8
DEFPOINTS
 62
     0
 10
-49.0
 20
13.999999928252739
 30
0.0
  0
ENDBLK
  5
1089
  8
0
  0
BLOCK
  8
0
  2
*D41
 70
     1
 10
0.0
 20
0.0
 30
0.0
  3
*D41
  1

  0
LINE
  5
10C9
  8
SAPA_MATT
 10
25.00000000000011
 20
138.9999999277548
 30
0.0
 11
-62.499999999999943
 21
138.9999999277548
 31
0.0
  0
LINE
  5
10CA
  8
SAPA_MATT
 10
23.000000000000139
 20
13.99999992825272
 30
0.0
 11
-62.499999999999972
 21
13.999999928252739
 31
0.0
  0
LINE
  5
10CB
  8
SAPA_MATT
 10
-60.99999999999995
 20
135.99999992775469
 30
0.0
 11
-60.999999999999972
 21
16.999999928252741
 31
0.0
  0
SOLID
  5
10CC
  8
SAPA_MATT
 10
-61.49999999999995
 20
135.99999992775469
 30
0.0
 11
-60.49999999999995
 21
135.99999992775469
 31
0.0
 12
-60.99999999999995
 22
138.9999999277548
 32
0.0
 13
-60.99999999999995
 23
138.9999999277548
 33
0.0
  0
SOLID
  5
10CD
  8
SAPA_MATT
 10
-61.499999999999972
 20
16.999999928252741
 30
0.0
 11
-60.499999999999972
 21
16.999999928252741
 31
0.0
 12
-60.999999999999972
 22
13.999999928252739
 32
0.0
 13
-60.999999999999972
 23
13.999999928252739
 33
0.0
  0
INSERT
  5
10CE
  8
0
  2
*U52
 10
0.0
 20
0.0
 30
0.0
  0
POINT
  5
10CF
  8
DEFPOINTS
 62
     0
 10
26.50000000000011
 20
138.9999999277548
 30
0.0
  0
POINT
  5
10D0
  8
DEFPOINTS
 62
     0
 10
24.500000000000139
 20
13.99999992825272
 30
0.0
  0
POINT
  5
10D1
  8
DEFPOINTS
 62
     0
 10
-60.999999999999972
 20
13.999999928252739
 30
0.0
  0
ENDBLK
  5
1095
  8
0
  0
BLOCK
  8
0
  2
*D42
 70
     1
 10
0.0
 20
0.0
 30
0.0
  3
*D42
  1

  0
LINE
  5
10C0
  8
SAPA_MATT
 10
85.0
 20
140.19999985599719
 30
0.0
 11
85.0
 21
170.49999985600741
 31
0.0
  0
LINE
  5
10C1
  8
SAPA_MATT
 10
25.00000000000011
 20
138.99999985600729
 30
0.0
 11
25.000000000000121
 21
170.49999985600741
 31
0.0
  0
LINE
  5
10C2
  8
SAPA_MATT
 10
82.0
 20
168.99999985600741
 30
0.0
 11
28.000000000000121
 21
168.99999985600741
 31
0.0
  0
SOLID
  5
10C3
  8
SAPA_MATT
 10
82.0
 20
169.49999985600741
 30
0.0
 11
82.0
 21
168.49999985600741
 31
0.0
 12
85.0
 22
168.99999985600741
 32
0.0
 13
85.0
 23
168.99999985600741
 33
0.0
  0
SOLID
  5
10C4
  8
SAPA_MATT
 10
28.000000000000121
 20
169.49999985600741
 30
0.0
 11
28.000000000000121
 21
168.49999985600741
 31
0.0
 12
25.000000000000121
 22
168.99999985600741
 32
0.0
 13
25.000000000000121
 23
168.99999985600741
 33
0.0
  0
INSERT
  5
10C5
  8
0
  2
*U51
 10
0.0
 20
0.0
 30
0.0
  0
POINT
  5
10C6
  8
DEFPOINTS
 62
     0
 10
85.0
 20
138.69999985599719
 30
0.0
  0
POINT
  5
10C7
  8
DEFPOINTS
 62
     0
 10
25.00000000000011
 20
137.49999985600741
 30
0.0
  0
POINT
  5
10C8
  8
DEFPOINTS
 62
     0
 10
25.000000000000121
 20
168.99999985600741
 30
0.0
  0
ENDBLK
  5
10A1
  8
0
  0
BLOCK
  8
0
  2
*D43
 70
     1
 10
0.0
 20
0.0
 30
0.0
  3
*D43
  1

  0
LINE
  5
10B7
  8
SAPA_MATT
 10
-6.4999999999777174
 20
132.67605899532811
 30
0.0
 11
-6.4999999999777129
 21
182.49999985600741
 31
0.0
  0
LINE
  5
10B8
  8
SAPA_MATT
 10
85.0
 20
140.19999985599719
 30
0.0
 11
85.0
 21
182.49999985600741
 31
0.0
  0
LINE
  5
10B9
  8
SAPA_MATT
 10
-3.4999999999777138
 20
180.99999985600741
 30
0.0
 11
82.0
 21
180.99999985600741
 31
0.0
  0
SOLID
  5
10BA
  8
SAPA_MATT
 10
-3.4999999999777138
 20
181.49999985600741
 30
0.0
 11
-3.4999999999777138
 21
180.49999985600741
 31
0.0
 12
-6.4999999999777138
 22
180.99999985600741
 32
0.0
 13
-6.4999999999777138
 23
180.99999985600741
 33
0.0
  0
SOLID
  5
10BB
  8
SAPA_MATT
 10
82.0
 20
181.49999985600741
 30
0.0
 11
82.0
 21
180.49999985600741
 31
0.0
 12
85.0
 22
180.99999985600741
 32
0.0
 13
85.0
 23
180.99999985600741
 33
0.0
  0
INSERT
  5
10BC
  8
0
  2
*U50
 10
0.0
 20
0.0
 30
0.0
  0
POINT
  5
10BD
  8
DEFPOINTS
 62
     0
 10
-6.4999999999777174
 20
131.17605899532811
 30
0.0
  0
POINT
  5
10BE
  8
DEFPOINTS
 62
     0
 10
85.0
 20
138.69999985599719
 30
0.0
  0
POINT
  5
10BF
  8
DEFPOINTS
 62
     0
 10
85.0
 20
180.99999985600741
 30
0.0
  0
ENDBLK
  5
10AD
  8
0
  0
BLOCK
  8
0
  2
*X44
 70
     1
 10
0.0
 20
0.0
 30
0.0
  3
*X44
  1

  0
LINE
  5
113E
  8
0
 62
     0
 10
25.209045112868619
 20
148.99999992775491
 30
0.0
 11
25.047131215853899
 21
148.83808603074019
 31
0.0
  0
LINE
  5
113F
  8
0
 62
     0
 10
26.331577128002269
 20
148.99999992775491
 30
0.0
 11
25.28150732165011
 21
147.94993012140279
 31
0.0
  0
LINE
  5
1140
  8
0
 62
     0
 10
27.454109143135909
 20
148.99999992775491
 30
0.0
 11
25.48251879499578
 21
147.02840957961479
 31
0.0
  0
LINE
  5
1141
  8
0
 62
     0
 10
28.57664115826956
 20
148.99999992775491
 30
0.0
 11
25.647217845656272
 21
146.07057661514159
 31
0.0
  0
LINE
  5
1142
  8
0
 62
     0
 10
29.699173173403199
 20
148.99999992775491
 30
0.0
 11
25.77194228111507
 21
145.07276903546679
 31
0.0
  0
LINE
  5
1143
  8
0
 62
     0
 10
30.821705188536839
 20
148.99999992775491
 30
0.0
 11
25.85206567376423
 21
144.0303604129823
 31
0.0
  0
LINE
  5
1144
  8
0
 62
     0
 10
31.94423720367049
 20
148.99999992775491
 30
0.0
 11
25.881618639247129
 21
142.93738136333161
 31
0.0
  0
LINE
  5
1145
  8
0
 62
     0
 10
33.066769218804119
 20
148.99999992775491
 30
0.0
 11
25.85268919964982
 21
141.78591990860059
 31
0.0
  0
LINE
  5
1146
  8
0
 62
     0
 10
34.189301233937783
 20
148.99999992775491
 30
0.0
 11
25.754420377993391
 21
140.5651190718105
 31
0.0
  0
LINE
  5
1147
  8
0
 62
     0
 10
32.077919887211792
 20
145.76608656589531
 30
0.0
 11
25.571213607780329
 21
139.2593802864638
 31
0.0
  0
LINE
  5
1148
  8
0
 62
     0
 10
35.31183324907142
 20
148.99999992775491
 30
0.0
 11
34.751823390973421
 21
148.43999006965689
 31
0.0
  0
LINE
  5
1149
  8
0
 62
     0
 10
31.7251047648606
 20
144.2907394284104
 30
0.0
 11
26.432862007604619
 21
138.9984966711545
 31
0.0
  0
LINE
  5
114A
  8
0
 62
     0
 10
36.434365264205063
 20
148.99999992775491
 30
0.0
 11
36.358001422471382
 21
148.92363608602119
 31
0.0
  0
LINE
  5
114B
  8
0
 62
     0
 10
31.78328306994592
 20
143.22638571836211
 30
0.0
 11
27.556897279338688
 21
138.99999992775491
 31
0.0
  0
LINE
  5
114C
  8
0
 62
     0
 10
32.030183777483408
 20
142.350754410766
 30
0.0
 11
28.679429294472332
 21
138.99999992775491
 31
0.0
  0
LINE
  5
114D
  8
0
 62
     0
 10
32.404137113186863
 20
141.60217573133579
 30
0.0
 11
29.801961309605961
 21
138.99999992775491
 31
0.0
  0
LINE
  5
114E
  8
0
 62
     0
 10
32.87879702185036
 20
140.95430362486559
 30
0.0
 11
30.92449332473959
 21
138.99999992775491
 31
0.0
  0
LINE
  5
114F
  8
0
 62
     0
 10
33.441840128772277
 20
140.39481471665391
 30
0.0
 11
32.047025339873223
 21
138.99999992775491
 31
0.0
  0
LINE
  5
1150
  8
0
 62
     0
 10
34.08871906723288
 20
139.9191616399809
 30
0.0
 11
33.169557355006859
 21
138.99999992775491
 31
0.0
  0
LINE
  5
1151
  8
0
 62
     0
 10
34.820841696821937
 20
139.52875225443631
 30
0.0
 11
34.292089370140502
 21
138.9999999277548
 31
0.0
  0
LINE
  5
1152
  8
0
 62
     0
 10
35.646108925702983
 20
139.2314874681837
 30
0.0
 11
35.414621385274131
 21
138.9999999277548
 31
0.0
  0
LINE
  5
1153
  8
0
 62
     0
 10
36.58237381436836
 20
139.04522034171541
 30
0.0
 11
36.53715340040776
 21
138.9999999277548
 31
0.0
  0
LINE
  5
1154
  8
0
 62
     0
 10
37.035082384001903
 20
148.99279897802481
 30
0.0
 11
37.027881434271862
 21
148.99999992775491
 31
0.0
  0
LINE
  5
1155
  8
0
 62
     0
 10
36.040163568264262
 20
148.8651857786289
 30
0.0
 11
35.905349419138219
 21
148.99999992775491
 31
0.0
  0
LINE
  5
1156
  8
0
 62
     0
 10
35.169401614037973
 20
148.61341571772149
 30
0.0
 11
34.782817404004561
 21
148.99999992775491
 31
0.0
  0
LINE
  5
1157
  8
0
 62
     0
 10
34.397992255913607
 20
148.26229306071221
 30
0.0
 11
33.660285388870918
 21
148.99999992775491
 31
0.0
  0
LINE
  5
1158
  8
0
 62
     0
 10
33.714366726127551
 20
147.82338657536459
 30
0.0
 11
32.537753373737289
 21
148.99999992775491
 31
0.0
  0
LINE
  5
1159
  8
0
 62
     0
 10
33.114478245049092
 20
147.3007430413094
 30
0.0
 11
31.415221358603659
 21
148.9999999277548
 31
0.0
  0
LINE
  5
115A
  8
0
 62
     0
 10
32.60019837540856
 20
146.69249089581629
 30
0.0
 11
30.292689343469981
 21
148.99999992775491
 31
0.0
  0
LINE
  5
115B
  8
0
 62
     0
 10
32.180034872221412
 20
145.99012238386979
 30
0.0
 11
29.170157328336352
 21
148.99999992775491
 31
0.0
  0
LINE
  5
115C
  8
0
 62
     0
 10
31.87292736426679
 20
145.1746978766908
 30
0.0
 11
28.047625313202701
 21
148.99999992775491
 31
0.0
  0
LINE
  5
115D
  8
0
 62
     0
 10
31.72031030042346
 20
144.20478292540051
 30
0.0
 11
26.925093298069051
 21
148.99999992775491
 31
0.0
  0
LINE
  5
115E
  8
0
 62
     0
 10
36.925093298069143
 20
138.9999999277548
 30
0.0
 11
36.910718180287738
 21
139.01437504553621
 31
0.0
  0
LINE
  5
115F
  8
0
 62
     0
 10
31.837271770588082
 20
142.9652894401022
 30
0.0
 11
25.802561282935411
 21
148.99999992775491
 31
0.0
  0
LINE
  5
1160
  8
0
 62
     0
 10
35.8025612829355
 20
138.9999999277548
 30
0.0
 11
35.540393800976382
 21
139.2621674097139
 31
0.0
  0
LINE
  5
1161
  8
0
 62
     0
 10
34.680029267801842
 20
138.9999999277548
 30
0.0
 11
25.12669999092223
 21
148.55332920463439
 31
0.0
  0
LINE
  5
1162
  8
0
 62
     0
 10
33.55749725266822
 20
138.9999999277548
 30
0.0
 11
25.471114947088001
 21
147.086382233335
 31
0.0
  0
LINE
  5
1163
  8
0
 62
     0
 10
32.43496523753457
 20
138.9999999277548
 30
0.0
 11
25.6936082178512
 21
145.74135694743819
 31
0.0
  0
LINE
  5
1164
  8
0
 62
     0
 10
31.312433222400902
 20
138.9999999277548
 30
0.0
 11
25.823058233671858
 21
144.48937491648391
 31
0.0
  0
LINE
  5
1165
  8
0
 62
     0
 10
30.18990120726723
 20
138.99999992775491
 30
0.0
 11
25.877743114745989
 21
143.31215802027609
 31
0.0
  0
LINE
  5
1166
  8
0
 62
     0
 10
29.067369192133569
 20
138.99999992775491
 30
0.0
 11
25.87010404894302
 21
142.19726507094541
 31
0.0
  0
LINE
  5
1167
  8
0
 62
     0
 10
27.944837176999929
 20
138.99999992775491
 30
0.0
 11
25.809059446097059
 21
141.13577765865779
 31
0.0
  0
LINE
  5
1168
  8
0
 62
     0
 10
26.822305161866272
 20
138.99999992775491
 30
0.0
 11
25.701254053152041
 21
140.12105103646911
 31
0.0
  0
LINE
  5
1169
  8
0
 62
     0
 10
25.848597711055511
 20
138.85117536343199
 30
0.0
 11
25.551787563253399
 21
139.14798551123411
 31
0.0
  0
ENDBLK
  5
116B
  8
0
  0
BLOCK
  8
0
  2
*X45
 70
     1
 10
0.0
 20
0.0
 30
0.0
  3
*X45
  1

  0
LINE
  5
116D
  8
0
 62
     0
 10
38.256266347423832
 20
148.43122837831021
 30
0.0
 11
37.568858683169928
 21
148.8281033783102
 31
0.0
  0
LINE
  5
116E
  8
0
 62
     0
 10
40.318489340185508
 20
147.2406033783102
 30
0.0
 11
39.631081675931618
 21
147.63747837831019
 31
0.0
  0
LINE
  5
116F
  8
0
 62
     0
 10
42.380712332947212
 20
146.04997837831019
 30
0.0
 11
41.693304668693308
 21
146.44685337831021
 31
0.0
  0
LINE
  5
1170
  8
0
 62
     0
 10
35.506635854662122
 20
148.43122866280629
 30
0.0
 11
35.182607234015912
 21
148.61830667416149
 31
0.0
  0
LINE
  5
1171
  8
0
 62
     0
 10
37.568858847423812
 20
147.24060366280631
 30
0.0
 11
36.881451183169922
 21
147.6374786628063
 31
0.0
  0
LINE
  5
1172
  8
0
 62
     0
 10
39.631081840185502
 20
146.0499786628063
 30
0.0
 11
38.943674175931612
 21
146.44685366280629
 31
0.0
  0
LINE
  5
1173
  8
0
 62
     0
 10
41.693304832947192
 20
144.8593536628064
 30
0.0
 11
41.005897168693288
 21
145.25622866280631
 31
0.0
  0
LINE
  5
1174
  8
0
 62
     0
 10
34.819228354662151
 20
147.24060394730239
 30
0.0
 11
34.131820690408247
 21
147.63747894730241
 31
0.0
  0
LINE
  5
1175
  8
0
 62
     0
 10
36.881451347423841
 20
146.04997894730241
 30
0.0
 11
36.194043683169937
 21
146.4468539473024
 31
0.0
  0
LINE
  5
1176
  8
0
 62
     0
 10
38.943674340185531
 20
144.8593539473024
 30
0.0
 11
38.256266675931641
 21
145.25622894730239
 31
0.0
  0
LINE
  5
1177
  8
0
 62
     0
 10
41.005897332947221
 20
143.66872894730241
 30
0.0
 11
40.318489668693317
 21
144.06560394730241
 31
0.0
  0
LINE
  5
1178
  8
0
 62
     0
 10
42.752234571147952
 20
142.66048067273141
 30
0.0
 11
42.380712661455007
 21
142.87497894730251
 31
0.0
  0
LINE
  5
1179
  8
0
 62
     0
 10
34.131820854662152
 20
146.04997923179849
 30
0.0
 11
33.444413190408248
 21
146.44685423179851
 31
0.0
  0
LINE
  5
117A
  8
0
 62
     0
 10
36.194043847423842
 20
144.85935423179851
 30
0.0
 11
35.506636183169952
 21
145.2562292317985
 31
0.0
  0
LINE
  5
117B
  8
0
 62
     0
 10
38.256266840185532
 20
143.66872923179849
 30
0.0
 11
37.568859175931642
 21
144.06560423179849
 31
0.0
  0
LINE
  5
117C
  8
0
 62
     0
 10
40.318489832947222
 20
142.47810423179851
 30
0.0
 11
39.631082168693332
 21
142.87497923179851
 31
0.0
  0
LINE
  5
117D
  8
0
 62
     0
 10
42.151471112402326
 20
141.41983199668559
 30
0.0
 11
41.693305161455008
 21
141.68435423179861
 31
0.0
  0
LINE
  5
117E
  8
0
 62
     0
 10
33.444413354662153
 20
144.85935451629459
 30
0.0
 11
32.757005690408263
 21
145.25622951629461
 31
0.0
  0
LINE
  5
117F
  8
0
 62
     0
 10
35.506636347423843
 20
143.6687295162946
 30
0.0
 11
34.819228683169953
 21
144.0656045162946
 31
0.0
  0
LINE
  5
1180
  8
0
 62
     0
 10
37.56885934018554
 20
142.47810451629459
 30
0.0
 11
36.881451675931643
 21
142.87497951629459
 31
0.0
  0
LINE
  5
1181
  8
0
 62
     0
 10
39.631082332947223
 20
141.2874795162947
 30
0.0
 11
38.943674668693333
 21
141.6843545162946
 31
0.0
  0
LINE
  5
1182
  8
0
 62
     0
 10
41.209525994195758
 20
140.37616464357211
 30
0.0
 11
41.005897661455009
 21
140.49372951629471
 31
0.0
  0
LINE
  5
1183
  8
0
 62
     0
 10
32.757005854662161
 20
143.66872980079069
 30
0.0
 11
32.069598190408257
 21
144.06560480079071
 31
0.0
  0
LINE
  5
1184
  8
0
 62
     0
 10
34.819228847423851
 20
142.4781048007907
 30
0.0
 11
34.131821183169947
 21
142.8749798007907
 31
0.0
  0
LINE
  5
1185
  8
0
 62
     0
 10
36.881451840185541
 20
141.28747980079069
 30
0.0
 11
36.194044175931637
 21
141.68435480079069
 31
0.0
  0
LINE
  5
1186
  8
0
 62
     0
 10
38.943674832947217
 20
140.09685480079071
 30
0.0
 11
38.256267168693327
 21
140.4937298007907
 31
0.0
  0
LINE
  5
1187
  8
0
 62
     0
 10
32.069598354662162
 20
142.47810508528681
 30
0.0
 11
31.960118357818761
 21
142.54131339093519
 31
0.0
  0
LINE
  5
1188
  8
0
 62
     0
 10
34.131821347423852
 20
141.2874800852868
 30
0.0
 11
33.444413683169948
 21
141.6843550852868
 31
0.0
  0
LINE
  5
1189
  8
0
 62
     0
 10
36.194044340185542
 20
140.09685508528679
 30
0.0
 11
35.506636675931638
 21
140.49373008528681
 31
0.0
  0
LINE
  5
118A
  8
0
 62
     0
 10
38.028084744309211
 20
139.03797136426141
 30
0.0
 11
37.568859668693328
 21
139.3031050852868
 31
0.0
  0
LINE
  5
118B
  8
0
 62
     0
 10
33.444443413125491
 20
146.44684342094681
 30
0.0
 11
32.757035748871587
 21
146.04996842094681
 31
0.0
  0
LINE
  5
118C
  8
0
 62
     0
 10
35.506666405887181
 20
147.63746842094679
 30
0.0
 11
34.819258741633277
 21
147.24059342094679
 31
0.0
  0
LINE
  5
118D
  8
0
 62
     0
 10
37.568889398648857
 20
148.8280934209468
 30
0.0
 11
36.881481734394967
 21
148.43121842094681
 31
0.0
  0
LINE
  5
118E
  8
0
 62
     0
 10
32.069627920363793
 20
144.06559370544301
 30
0.0
 11
31.717722131996489
 21
143.86242080379969
 31
0.0
  0
LINE
  5
118F
  8
0
 62
     0
 10
34.131850913125483
 20
145.25621870544299
 30
0.0
 11
33.444443248871593
 21
144.859343705443
 31
0.0
  0
LINE
  5
1190
  8
0
 62
     0
 10
36.19407390588718
 20
146.446843705443
 30
0.0
 11
35.506666241633283
 21
146.04996870544289
 31
0.0
  0
LINE
  5
1191
  8
0
 62
     0
 10
38.256296898648863
 20
147.6374687054429
 30
0.0
 11
37.568889234394973
 21
147.2405937054429
 31
0.0
  0
LINE
  5
1192
  8
0
 62
     0
 10
39.765824059909001
 20
148.5089946183455
 30
0.0
 11
39.631112227156663
 21
148.43121870544289
 31
0.0
  0
LINE
  5
1193
  8
0
 62
     0
 10
32.757035420363778
 20
142.87496898993911
 30
0.0
 11
32.069627756109888
 21
142.47809398993911
 31
0.0
  0
LINE
  5
1194
  8
0
 62
     0
 10
34.819258413125482
 20
144.06559398993909
 30
0.0
 11
34.131850748871578
 21
143.66871898993909
 31
0.0
  0
LINE
  5
1195
  8
0
 62
     0
 10
36.881481405887172
 20
145.25621898993899
 30
0.0
 11
36.194073741633268
 21
144.85934398993899
 31
0.0
  0
LINE
  5
1196
  8
0
 62
     0
 10
38.943704398648862
 20
146.446843989939
 30
0.0
 11
38.256296734394958
 21
146.049968989939
 31
0.0
  0
LINE
  5
1197
  8
0
 62
     0
 10
41.005927391410538
 20
147.63746898993901
 30
0.0
 11
40.318519727156641
 21
147.24059398993899
 31
0.0
  0
LINE
  5
1198
  8
0
 62
     0
 10
33.444442920363798
 20
141.68434427443509
 30
0.0
 11
32.757035256109901
 21
141.28746927443521
 31
0.0
  0
LINE
  5
1199
  8
0
 62
     0
 10
35.506665913125488
 20
142.8749692744351
 30
0.0
 11
34.819258248871591
 21
142.47809427443511
 31
0.0
  0
LINE
  5
119A
  8
0
 62
     0
 10
37.568888905887178
 20
144.06559427443511
 30
0.0
 11
36.881481241633281
 21
143.66871927443509
 31
0.0
  0
LINE
  5
119B
  8
0
 62
     0
 10
39.631111898648868
 20
145.2562192744351
 30
0.0
 11
38.943704234394971
 21
144.8593442744351
 31
0.0
  0
LINE
  5
119C
  8
0
 62
     0
 10
41.693334891410551
 20
146.44684427443511
 30
0.0
 11
41.005927227156661
 21
146.04996927443511
 31
0.0
  0
LINE
  5
119D
  8
0
 62
     0
 10
34.13185042036379
 20
140.4937195589313
 30
0.0
 11
33.657475483179049
 21
140.21983906125089
 31
0.0
  0
LINE
  5
119E
  8
0
 62
     0
 10
36.19407341312548
 20
141.68434455893129
 30
0.0
 11
35.506665748871583
 21
141.28746955893129
 31
0.0
  0
LINE
  5
119F
  8
0
 62
     0
 10
38.25629640588717
 20
142.87496955893121
 30
0.0
 11
37.568888741633273
 21
142.47809455893119
 31
0.0
  0
LINE
  5
11A0
  8
0
 62
     0
 10
40.318519398648853
 20
144.0655945589312
 30
0.0
 11
39.63111173439497
 21
143.6687195589312
 31
0.0
  0
LINE
  5
11A1
  8
0
 62
     0
 10
42.38074239141055
 20
145.25621955893121
 30
0.0
 11
41.693334727156653
 21
144.85934455893121
 31
0.0
  0
LINE
  5
11A2
  8
0
 62
     0
 10
36.881480913125493
 20
140.4937198434273
 30
0.0
 11
36.194073248871589
 21
140.09684484342739
 31
0.0
  0
LINE
  5
11A3
  8
0
 62
     0
 10
38.943703905887183
 20
141.68434484342731
 30
0.0
 11
38.256296241633279
 21
141.28746984342729
 31
0.0
  0
LINE
  5
11A4
  8
0
 62
     0
 10
41.005926898648859
 20
142.87496984342729
 30
0.0
 11
40.318519234394962
 21
142.4780948434273
 31
0.0
  0
LINE
  5
11A5
  8
0
 62
     0
 10
42.957708276428683
 20
144.0018313472878
 30
0.0
 11
42.380742227156659
 21
143.66871984342731
 31
0.0
  0
LINE
  5
11A6
  8
0
 62
     0
 10
37.568888413125478
 20
139.3030951279234
 30
0.0
 11
37.054805462279198
 21
139.00628919786649
 31
0.0
  0
LINE
  5
11A7
  8
0
 62
     0
 10
39.631111405887182
 20
140.49372012792341
 30
0.0
 11
38.943703741633279
 21
140.09684512792339
 31
0.0
  0
LINE
  5
11A8
  8
0
 62
     0
 10
41.693334398648858
 20
141.68434512792339
 30
0.0
 11
41.005926734394961
 21
141.2874701279234
 31
0.0
  0
LINE
  5
11A9
  8
0
 62
     0
 10
42.380734999985137
 20
145.25625000001361
 30
0.0
 11
42.380734999985137
 21
146.0500000000136
 31
0.0
  0
LINE
  5
11AA
  8
0
 62
     0
 10
42.380734999985137
 20
142.87500000001361
 30
0.0
 11
42.380734999985137
 21
143.6687500000136
 31
0.0
  0
LINE
  5
11AB
  8
0
 62
     0
 10
41.005919999985139
 20
147.6375000000136
 30
0.0
 11
41.005919999985139
 21
147.78777218175779
 31
0.0
  0
LINE
  5
11AC
  8
0
 62
     0
 10
41.005919999985139
 20
145.25625000001361
 30
0.0
 11
41.005919999985139
 21
146.0500000000136
 31
0.0
  0
LINE
  5
11AD
  8
0
 62
     0
 10
41.005919999985139
 20
142.87500000001361
 30
0.0
 11
41.005919999985139
 21
143.6687500000136
 31
0.0
  0
LINE
  5
11AE
  8
0
 62
     0
 10
41.005919999985139
 20
140.49375000001359
 30
0.0
 11
41.005919999985139
 21
141.28750000001361
 31
0.0
  0
LINE
  5
11AF
  8
0
 62
     0
 10
39.631104999985148
 20
147.6375000000136
 30
0.0
 11
39.631104999985148
 21
148.43125000001359
 31
0.0
  0
LINE
  5
11B0
  8
0
 62
     0
 10
39.631104999985148
 20
145.25625000001361
 30
0.0
 11
39.631104999985148
 21
146.0500000000136
 31
0.0
  0
LINE
  5
11B1
  8
0
 62
     0
 10
39.631104999985148
 20
142.87500000001361
 30
0.0
 11
39.631104999985148
 21
143.6687500000136
 31
0.0
  0
LINE
  5
11B2
  8
0
 62
     0
 10
39.631104999985148
 20
140.49375000001359
 30
0.0
 11
39.631104999985148
 21
141.28750000001361
 31
0.0
  0
LINE
  5
11B3
  8
0
 62
     0
 10
38.25628999998515
 20
147.6375000000136
 30
0.0
 11
38.25628999998515
 21
148.43125000001359
 31
0.0
  0
LINE
  5
11B4
  8
0
 62
     0
 10
38.25628999998515
 20
145.25625000001361
 30
0.0
 11
38.25628999998515
 21
146.0500000000136
 31
0.0
  0
LINE
  5
11B5
  8
0
 62
     0
 10
38.25628999998515
 20
142.87500000001361
 30
0.0
 11
38.25628999998515
 21
143.6687500000136
 31
0.0
  0
LINE
  5
11B6
  8
0
 62
     0
 10
38.25628999998515
 20
140.49375000001359
 30
0.0
 11
38.25628999998515
 21
141.28750000001361
 31
0.0
  0
LINE
  5
11B7
  8
0
 62
     0
 10
36.881474999985137
 20
147.6375000000136
 30
0.0
 11
36.881474999985137
 21
148.43125000001359
 31
0.0
  0
LINE
  5
11B8
  8
0
 62
     0
 10
36.881474999985137
 20
145.25625000001361
 30
0.0
 11
36.881474999985137
 21
146.0500000000136
 31
0.0
  0
LINE
  5
11B9
  8
0
 62
     0
 10
36.881474999985137
 20
142.87500000001361
 30
0.0
 11
36.881474999985137
 21
143.6687500000136
 31
0.0
  0
LINE
  5
11BA
  8
0
 62
     0
 10
36.881474999985137
 20
140.49375000001359
 30
0.0
 11
36.881474999985137
 21
141.28750000001361
 31
0.0
  0
LINE
  5
11BB
  8
0
 62
     0
 10
35.506659999985153
 20
147.6375000000136
 30
0.0
 11
35.506659999985153
 21
148.43125000001359
 31
0.0
  0
LINE
  5
11BC
  8
0
 62
     0
 10
35.506659999985153
 20
145.25625000001361
 30
0.0
 11
35.506659999985153
 21
146.0500000000136
 31
0.0
  0
LINE
  5
11BD
  8
0
 62
     0
 10
35.506659999985153
 20
142.87500000001361
 30
0.0
 11
35.506659999985153
 21
143.6687500000136
 31
0.0
  0
LINE
  5
11BE
  8
0
 62
     0
 10
35.506659999985153
 20
140.49375000001359
 30
0.0
 11
35.506659999985153
 21
141.28750000001361
 31
0.0
  0
LINE
  5
11BF
  8
0
 62
     0
 10
34.131844999985148
 20
147.6375000000136
 30
0.0
 11
34.131844999985148
 21
148.10772746508269
 31
0.0
  0
LINE
  5
11C0
  8
0
 62
     0
 10
34.131844999985148
 20
145.25625000001361
 30
0.0
 11
34.131844999985148
 21
146.0500000000136
 31
0.0
  0
LINE
  5
11C1
  8
0
 62
     0
 10
34.131844999985148
 20
142.87500000001361
 30
0.0
 11
34.131844999985148
 21
143.6687500000136
 31
0.0
  0
LINE
  5
11C2
  8
0
 62
     0
 10
34.131844999985148
 20
140.49375000001359
 30
0.0
 11
34.131844999985148
 21
141.28750000001361
 31
0.0
  0
LINE
  5
11C3
  8
0
 62
     0
 10
32.757029999985143
 20
145.25625000001361
 30
0.0
 11
32.757029999985143
 21
146.0500000000136
 31
0.0
  0
LINE
  5
11C4
  8
0
 62
     0
 10
32.757029999985143
 20
142.87500000001361
 30
0.0
 11
32.757029999985143
 21
143.6687500000136
 31
0.0
  0
LINE
  5
11C5
  8
0
 62
     0
 10
32.757029999985143
 20
141.1007687474137
 30
0.0
 11
32.757029999985143
 21
141.28750000001361
 31
0.0
  0
ENDBLK
  5
11C7
  8
0
  0
BLOCK
  8
0
  2
*X46
 70
     1
 10
0.0
 20
0.0
 30
0.0
  3
*X46
  1

  0
LINE
  5
179B
  8
0
 62
     0
 10
-4.7999999999992422
 20
130.68015144727781
 30
0.0
 11
-4.1198484806542943
 21
129.99999992793281
 31
0.0
  0
LINE
  5
179C
  8
0
 62
     0
 10
-3.747316465872085
 20
130.7499999282843
 30
0.0
 11
-2.997316465520651
 21
129.99999992793281
 31
0.0
  0
LINE
  5
179D
  8
0
 62
     0
 10
-2.6247844507372138
 20
130.74999992828299
 30
0.0
 11
-1.874784450387007
 21
129.99999992793281
 31
0.0
  0
LINE
  5
179E
  8
0
 62
     0
 10
-1.502252435602349
 20
130.7499999282818
 30
0.0
 11
-0.7522524352533662
 21
129.99999992793281
 31
0.0
  0
LINE
  5
179F
  8
0
 62
     0
 10
-0.3797204204674642
 20
130.7499999282806
 30
0.0
 11
0.370279579880278
 21
129.99999992793281
 31
0.0
  0
LINE
  5
17A0
  8
0
 62
     0
 10
0.7428115946674048
 20
130.74999992827941
 30
0.0
 11
1.4928115950139189
 21
129.99999992793281
 31
0.0
  0
LINE
  5
17A1
  8
0
 62
     0
 10
1.865343609802276
 20
130.7499999282781
 30
0.0
 11
2.6153436101475629
 21
129.99999992793281
 31
0.0
  0
LINE
  5
17A2
  8
0
 62
     0
 10
2.9878756249371601
 20
130.74999992827691
 30
0.0
 11
3.7378756252812071
 21
129.99999992793281
 31
0.0
  0
LINE
  5
17A3
  8
0
 62
     0
 10
4.1104076400720269
 20
130.74999992827571
 30
0.0
 11
4.8604076404148486
 21
129.99999992793281
 31
0.0
  0
LINE
  5
17A4
  8
0
 62
     0
 10
5.2329396552068976
 20
130.74999992827441
 30
0.0
 11
5.9829396555484937
 21
129.99999992793281
 31
0.0
  0
LINE
  5
17A5
  8
0
 62
     0
 10
6.3554716703417808
 20
130.74999992827321
 30
0.0
 11
7.1054716706821353
 21
129.99999992793281
 31
0.0
  0
LINE
  5
17A6
  8
0
 62
     0
 10
7.4780036854766498
 20
130.74999992827199
 30
0.0
 11
8.0000000000119513
 21
130.22800361373669
 31
0.0
  0
LINE
  5
17A7
  8
0
 62
     0
 10
-3.8797204197179669
 20
130.74999992828441
 30
0.0
 11
-4.6297204200695514
 21
129.99999992793281
 31
0.0
  0
LINE
  5
17A8
  8
0
 62
     0
 10
-2.7571884045855479
 20
130.74999992828319
 30
0.0
 11
-3.5071884049359019
 21
129.99999992793281
 31
0.0
  0
LINE
  5
17A9
  8
0
 62
     0
 10
-1.6346563894531301
 20
130.74999992828199
 30
0.0
 11
-2.384656389802259
 21
129.99999992793281
 31
0.0
  0
LINE
  5
17AA
  8
0
 62
     0
 10
-0.5121243743207132
 20
130.7499999282808
 30
0.0
 11
-1.2621243746686119
 21
129.99999992793281
 31
0.0
  0
LINE
  5
17AB
  8
0
 62
     0
 10
0.6104076408116903
 20
130.74999992827949
 30
0.0
 11
-0.1395923595349675
 21
129.99999992793281
 31
0.0
  0
LINE
  5
17AC
  8
0
 62
     0
 10
1.732939655944109
 20
130.7499999282783
 30
0.0
 11
0.9829396555986775
 21
129.99999992793289
 31
0.0
  0
LINE
  5
17AD
  8
0
 62
     0
 10
2.8554716710765269
 20
130.74999992827699
 30
0.0
 11
2.1054716707323222
 21
129.99999992793281
 31
0.0
  0
LINE
  5
17AE
  8
0
 62
     0
 10
3.9780036862089321
 20
130.7499999282758
 30
0.0
 11
3.2280036858659691
 21
129.99999992793281
 31
0.0
  0
LINE
  5
17AF
  8
0
 62
     0
 10
5.100535701341351
 20
130.7499999282746
 30
0.0
 11
4.3505357009996137
 21
129.99999992793281
 31
0.0
  0
LINE
  5
17B0
  8
0
 62
     0
 10
6.2230677164737704
 20
130.7499999282733
 30
0.0
 11
5.4730677161332588
 21
129.99999992793281
 31
0.0
  0
LINE
  5
17B1
  8
0
 62
     0
 10
7.345599731606173
 20
130.7499999282721
 30
0.0
 11
6.5955997312669048
 21
129.99999992793281
 31
0.0
  0
LINE
  5
17B2
  8
0
 62
     0
 10
8.0000000000119904
 20
130.2818681815443
 30
0.0
 11
7.7181317464005508
 21
129.99999992793281
 31
0.0
  0
ENDBLK
  5
17B4
  8
0
  0
BLOCK
  8
0
  2
*X47
 70
     1
 10
0.0
 20
0.0
 30
0.0
  3
*X47
  1

  0
LINE
  5
17B6
  8
0
 62
     0
 10
-4.7760650557325004
 20
87.999999927932549
 30
0.0
 11
-4.0260650557202062
 21
87.249999927920257
 31
0.0
  0
LINE
  5
17B7
  8
0
 62
     0
 10
-3.6535330405988602
 20
87.999999927932564
 30
0.0
 11
-2.9035330405877922
 21
87.249999927921493
 31
0.0
  0
LINE
  5
17B8
  8
0
 62
     0
 10
-2.5310010254652151
 20
87.999999927932549
 30
0.0
 11
-1.781001025455379
 21
87.249999927922715
 31
0.0
  0
LINE
  5
17B9
  8
0
 62
     0
 10
-1.40846901033157
 20
87.999999927932549
 30
0.0
 11
-0.6584690103229623
 21
87.249999927923938
 31
0.0
  0
LINE
  5
17BA
  8
0
 62
     0
 10
-0.2859369951979289
 20
87.999999927932549
 30
0.0
 11
0.4640630048094519
 21
87.249999927925174
 31
0.0
  0
LINE
  5
17BB
  8
0
 62
     0
 10
0.8365950199357197
 20
87.999999927932549
 30
0.0
 11
1.5865950199418639
 21
87.249999927926396
 31
0.0
  0
LINE
  5
17BC
  8
0
 62
     0
 10
1.9591270350693679
 20
87.999999927932549
 30
0.0
 11
2.7091270350742782
 21
87.249999927927632
 31
0.0
  0
LINE
  5
17BD
  8
0
 62
     0
 10
3.081659050203009
 20
87.999999927932535
 30
0.0
 11
3.8316590502066861
 21
87.249999927928855
 31
0.0
  0
LINE
  5
17BE
  8
0
 62
     0
 10
4.2041910653366577
 20
87.999999927932535
 30
0.0
 11
4.954191065339109
 21
87.249999927930091
 31
0.0
  0
LINE
  5
17BF
  8
0
 62
     0
 10
5.3267230804703001
 20
87.999999927932535
 30
0.0
 11
6.076723080471516
 21
87.249999927931313
 31
0.0
  0
LINE
  5
17C0
  8
0
 62
     0
 10
6.4492550956039452
 20
87.999999927932535
 30
0.0
 11
7.1992550956039336
 21
87.249999927932549
 31
0.0
  0
LINE
  5
17C1
  8
0
 62
     0
 10
7.5717871107375876
 20
87.999999927932535
 30
0.0
 11
8.0000000000121325
 21
87.571787038657988
 31
0.0
  0
LINE
  5
17C2
  8
0
 62
     0
 10
-3.9735038449914049
 20
87.999999927932549
 30
0.0
 11
-4.7235038450044584
 21
87.249999927919504
 31
0.0
  0
LINE
  5
17C3
  8
0
 62
     0
 10
-2.850971829857762
 20
87.999999927932549
 30
0.0
 11
-3.6009718298695921
 21
87.249999927920712
 31
0.0
  0
LINE
  5
17C4
  8
0
 62
     0
 10
-1.7284398147241189
 20
87.999999927932549
 30
0.0
 11
-2.4784398147347129
 21
87.249999927921948
 31
0.0
  0
LINE
  5
17C5
  8
0
 62
     0
 10
-0.6059077995904723
 20
87.999999927932549
 30
0.0
 11
-1.3559077995998401
 21
87.249999927923184
 31
0.0
  0
LINE
  5
17C6
  8
0
 62
     0
 10
0.5166242155431675
 20
87.999999927932549
 30
0.0
 11
-0.2333757844649682
 21
87.249999927924421
 31
0.0
  0
LINE
  5
17C7
  8
0
 62
     0
 10
1.6391562306768099
 20
87.999999927932535
 30
0.0
 11
0.8891562306699044
 21
87.249999927925643
 31
0.0
  0
LINE
  5
17C8
  8
0
 62
     0
 10
2.7616882458104501
 20
87.999999927932549
 30
0.0
 11
2.011688245804776
 21
87.249999927926865
 31
0.0
  0
LINE
  5
17C9
  8
0
 62
     0
 10
3.884220260944097
 20
87.999999927932535
 30
0.0
 11
3.134220260939649
 21
87.249999927928073
 31
0.0
  0
LINE
  5
17CA
  8
0
 62
     0
 10
5.0067522760777443
 20
87.999999927932549
 30
0.0
 11
4.2567522760745247
 21
87.249999927929338
 31
0.0
  0
LINE
  5
17CB
  8
0
 62
     0
 10
6.1292842912113867
 20
87.999999927932549
 30
0.0
 11
5.3792842912093981
 21
87.249999927930574
 31
0.0
  0
LINE
  5
17CC
  8
0
 62
     0
 10
7.25181630634503
 20
87.999999927932549
 30
0.0
 11
6.5018163063442742
 21
87.249999927931796
 31
0.0
  0
LINE
  5
17CD
  8
0
 62
     0
 10
8.0000000000120721
 20
87.625651606465937
 30
0.0
 11
7.6243483214791432
 21
87.249999927933004
 31
0.0
  0
ENDBLK
  5
17CF
  8
0
  0
BLOCK
  8
0
  2
*X48
 70
     1
 10
0.0
 20
0.0
 30
0.0
  3
*X48
  1

  0
LINE
  5
17EC
  8
0
 62
     0
 10
-4.7999999999992422
 20
130.68015144727781
 30
0.0
 11
-4.1198484806542943
 21
129.99999992793281
 31
0.0
  0
LINE
  5
17ED
  8
0
 62
     0
 10
-3.747316465872085
 20
130.7499999282843
 30
0.0
 11
-2.997316465520651
 21
129.99999992793281
 31
0.0
  0
LINE
  5
17EE
  8
0
 62
     0
 10
-2.6247844507372138
 20
130.74999992828299
 30
0.0
 11
-1.874784450387007
 21
129.99999992793281
 31
0.0
  0
LINE
  5
17EF
  8
0
 62
     0
 10
-1.502252435602349
 20
130.7499999282818
 30
0.0
 11
-0.7522524352533662
 21
129.99999992793281
 31
0.0
  0
LINE
  5
17F0
  8
0
 62
     0
 10
-0.3797204204674642
 20
130.7499999282806
 30
0.0
 11
0.370279579880278
 21
129.99999992793281
 31
0.0
  0
LINE
  5
17F1
  8
0
 62
     0
 10
0.7428115946674048
 20
130.74999992827941
 30
0.0
 11
1.4928115950139189
 21
129.99999992793281
 31
0.0
  0
LINE
  5
17F2
  8
0
 62
     0
 10
1.865343609802276
 20
130.7499999282781
 30
0.0
 11
2.6153436101475629
 21
129.99999992793281
 31
0.0
  0
LINE
  5
17F3
  8
0
 62
     0
 10
2.9878756249371601
 20
130.74999992827691
 30
0.0
 11
3.7378756252812071
 21
129.99999992793281
 31
0.0
  0
LINE
  5
17F4
  8
0
 62
     0
 10
4.1104076400720269
 20
130.74999992827571
 30
0.0
 11
4.8604076404148486
 21
129.99999992793281
 31
0.0
  0
LINE
  5
17F5
  8
0
 62
     0
 10
5.2329396552068976
 20
130.74999992827441
 30
0.0
 11
5.9829396555484937
 21
129.99999992793281
 31
0.0
  0
LINE
  5
17F6
  8
0
 62
     0
 10
6.3554716703417808
 20
130.74999992827321
 30
0.0
 11
7.1054716706821353
 21
129.99999992793281
 31
0.0
  0
LINE
  5
17F7
  8
0
 62
     0
 10
7.4780036854766498
 20
130.74999992827199
 30
0.0
 11
8.0000000000119513
 21
130.22800361373669
 31
0.0
  0
LINE
  5
17F8
  8
0
 62
     0
 10
-3.8797204197179669
 20
130.74999992828441
 30
0.0
 11
-4.6297204200695514
 21
129.99999992793281
 31
0.0
  0
LINE
  5
17F9
  8
0
 62
     0
 10
-2.7571884045855479
 20
130.74999992828319
 30
0.0
 11
-3.5071884049359019
 21
129.99999992793281
 31
0.0
  0
LINE
  5
17FA
  8
0
 62
     0
 10
-1.6346563894531301
 20
130.74999992828199
 30
0.0
 11
-2.384656389802259
 21
129.99999992793281
 31
0.0
  0
LINE
  5
17FB
  8
0
 62
     0
 10
-0.5121243743207132
 20
130.7499999282808
 30
0.0
 11
-1.2621243746686119
 21
129.99999992793281
 31
0.0
  0
LINE
  5
17FC
  8
0
 62
     0
 10
0.6104076408116903
 20
130.74999992827949
 30
0.0
 11
-0.1395923595349675
 21
129.99999992793281
 31
0.0
  0
LINE
  5
17FD
  8
0
 62
     0
 10
1.732939655944109
 20
130.7499999282783
 30
0.0
 11
0.9829396555986775
 21
129.99999992793289
 31
0.0
  0
LINE
  5
17FE
  8
0
 62
     0
 10
2.8554716710765269
 20
130.74999992827699
 30
0.0
 11
2.1054716707323222
 21
129.99999992793281
 31
0.0
  0
LINE
  5
17FF
  8
0
 62
     0
 10
3.9780036862089321
 20
130.7499999282758
 30
0.0
 11
3.2280036858659691
 21
129.99999992793281
 31
0.0
  0
LINE
  5
1800
  8
0
 62
     0
 10
5.100535701341351
 20
130.7499999282746
 30
0.0
 11
4.3505357009996137
 21
129.99999992793281
 31
0.0
  0
LINE
  5
1801
  8
0
 62
     0
 10
6.2230677164737704
 20
130.7499999282733
 30
0.0
 11
5.4730677161332588
 21
129.99999992793281
 31
0.0
  0
LINE
  5
1802
  8
0
 62
     0
 10
7.345599731606173
 20
130.7499999282721
 30
0.0
 11
6.5955997312669048
 21
129.99999992793281
 31
0.0
  0
LINE
  5
1803
  8
0
 62
     0
 10
8.0000000000119904
 20
130.2818681815443
 30
0.0
 11
7.7181317464005508
 21
129.99999992793281
 31
0.0
  0
ENDBLK
  5
1805
  8
0
  0
BLOCK
  8
0
  2
*X49
 70
     1
 10
0.0
 20
0.0
 30
0.0
  3
*X49
  1

  0
LINE
  5
1807
  8
0
 62
     0
 10
-4.7760650557325004
 20
87.999999927932549
 30
0.0
 11
-4.0260650557202062
 21
87.249999927920257
 31
0.0
  0
LINE
  5
1808
  8
0
 62
     0
 10
-3.6535330405988602
 20
87.999999927932564
 30
0.0
 11
-2.9035330405877922
 21
87.249999927921493
 31
0.0
  0
LINE
  5
1809
  8
0
 62
     0
 10
-2.5310010254652151
 20
87.999999927932549
 30
0.0
 11
-1.781001025455379
 21
87.249999927922715
 31
0.0
  0
LINE
  5
180A
  8
0
 62
     0
 10
-1.40846901033157
 20
87.999999927932549
 30
0.0
 11
-0.6584690103229623
 21
87.249999927923938
 31
0.0
  0
LINE
  5
180B
  8
0
 62
     0
 10
-0.2859369951979289
 20
87.999999927932549
 30
0.0
 11
0.4640630048094519
 21
87.249999927925174
 31
0.0
  0
LINE
  5
180C
  8
0
 62
     0
 10
0.8365950199357197
 20
87.999999927932549
 30
0.0
 11
1.5865950199418639
 21
87.249999927926396
 31
0.0
  0
LINE
  5
180D
  8
0
 62
     0
 10
1.9591270350693679
 20
87.999999927932549
 30
0.0
 11
2.7091270350742782
 21
87.249999927927632
 31
0.0
  0
LINE
  5
180E
  8
0
 62
     0
 10
3.081659050203009
 20
87.999999927932535
 30
0.0
 11
3.8316590502066861
 21
87.249999927928855
 31
0.0
  0
LINE
  5
180F
  8
0
 62
     0
 10
4.2041910653366577
 20
87.999999927932535
 30
0.0
 11
4.954191065339109
 21
87.249999927930091
 31
0.0
  0
LINE
  5
1810
  8
0
 62
     0
 10
5.3267230804703001
 20
87.999999927932535
 30
0.0
 11
6.076723080471516
 21
87.249999927931313
 31
0.0
  0
LINE
  5
1811
  8
0
 62
     0
 10
6.4492550956039452
 20
87.999999927932535
 30
0.0
 11
7.1992550956039336
 21
87.249999927932549
 31
0.0
  0
LINE
  5
1812
  8
0
 62
     0
 10
7.5717871107375876
 20
87.999999927932535
 30
0.0
 11
8.0000000000121325
 21
87.571787038657988
 31
0.0
  0
LINE
  5
1813
  8
0
 62
     0
 10
-3.9735038449914049
 20
87.999999927932549
 30
0.0
 11
-4.7235038450044584
 21
87.249999927919504
 31
0.0
  0
LINE
  5
1814
  8
0
 62
     0
 10
-2.850971829857762
 20
87.999999927932549
 30
0.0
 11
-3.6009718298695921
 21
87.249999927920712
 31
0.0
  0
LINE
  5
1815
  8
0
 62
     0
 10
-1.7284398147241189
 20
87.999999927932549
 30
0.0
 11
-2.4784398147347129
 21
87.249999927921948
 31
0.0
  0
LINE
  5
1816
  8
0
 62
     0
 10
-0.6059077995904723
 20
87.999999927932549
 30
0.0
 11
-1.3559077995998401
 21
87.249999927923184
 31
0.0
  0
LINE
  5
1817
  8
0
 62
     0
 10
0.5166242155431675
 20
87.999999927932549
 30
0.0
 11
-0.2333757844649682
 21
87.249999927924421
 31
0.0
  0
LINE
  5
1818
  8
0
 62
     0
 10
1.6391562306768099
 20
87.999999927932535
 30
0.0
 11
0.8891562306699044
 21
87.249999927925643
 31
0.0
  0
LINE
  5
1819
  8
0
 62
     0
 10
2.7616882458104501
 20
87.999999927932549
 30
0.0
 11
2.011688245804776
 21
87.249999927926865
 31
0.0
  0
LINE
  5
181A
  8
0
 62
     0
 10
3.884220260944097
 20
87.999999927932535
 30
0.0
 11
3.134220260939649
 21
87.249999927928073
 31
0.0
  0
LINE
  5
181B
  8
0
 62
     0
 10
5.0067522760777443
 20
87.999999927932549
 30
0.0
 11
4.2567522760745247
 21
87.249999927929338
 31
0.0
  0
LINE
  5
181C
  8
0
 62
     0
 10
6.1292842912113867
 20
87.999999927932549
 30
0.0
 11
5.3792842912093981
 21
87.249999927930574
 31
0.0
  0
LINE
  5
181D
  8
0
 62
     0
 10
7.25181630634503
 20
87.999999927932549
 30
0.0
 11
6.5018163063442742
 21
87.249999927931796
 31
0.0
  0
LINE
  5
181E
  8
0
 62
     0
 10
8.0000000000120721
 20
87.625651606465937
 30
0.0
 11
7.6243483214791432
 21
87.249999927933004
 31
0.0
  0
ENDBLK
  5
1820
  8
0
  0
BLOCK
  8
0
  2
*U50
 70
     1
 10
0.0
 20
0.0
 30
0.0
  3
*U50
  1

  0
TEXT
  5
19B4
  8
SAPA_MATT
 62
     2
 10
35.40000000001114
 20
181.99999985600741
 30
0.0
 40
3.5
  1
91.5
  7
ISO
  0
ENDBLK
  5
19B6
  8
0
  0
BLOCK
  8
0
  2
*U51
 70
     1
 10
0.0
 20
0.0
 30
0.0
  3
*U51
  1

  0
TEXT
  5
19B8
  8
SAPA_MATT
 62
     2
 10
52.550000000000061
 20
169.99999985600741
 30
0.0
 40
3.5
  1
60
  7
ISO
  0
ENDBLK
  5
19BA
  8
0
  0
BLOCK
  8
0
  2
*U52
 70
     1
 10
0.0
 20
0.0
 30
0.0
  3
*U52
  1

  0
TEXT
  5
19BC
  8
SAPA_MATT
 62
     2
 10
-61.999999999999972
 20
73.174999928003757
 30
0.0
 40
3.5
  1
125
 50
90.0
  7
ISO
  0
ENDBLK
  5
19BE
  8
0
  0
BLOCK
  8
0
  2
*U53
 70
     1
 10
0.0
 20
0.0
 30
0.0
  3
*U53
  1

  0
TEXT
  5
19C0
  8
SAPA_MATT
 62
     2
 10
-50.0
 20
135.2749999276628
 30
0.0
 40
3.5
  1
5
 50
90.0
  7
ISO
  0
ENDBLK
  5
19C2
  8
0
  0
ENDSEC
  0
SECTION
  2
ENTITIES
  0
TEXT
  5
70A
  8
SAPA_ARTIKELNR
 10
49.188039105301719
 20
8.8852431521859785
 30
0.0000000048844772
 40
3.5
  1
D8K025
  7
ISO
  0
TEXT
  5
8BF
  8
SAPA_ARTIKELNR
 10
21.985443845703369
 20
35.108374094093293
 30
0.0000000048844772
 40
3.5
  1
D8V020
 50
90.0
  7
ISO
  0
TEXT
  5
B34
  8
SAPA_ARTIKELNR
 10
2.9073382793731919
 20
79.235370455443643
 30
0.0000000048844772
 40
3.5
  1
D8V007
  7
ISO
  0
INSERT
  5
CA8
  8
SAPA_ANSLUTNING
  6
CONTINUOUS
  2
*X44
 10
0.0
 20
0.0
 30
0.0
1001
ACAD
1000
HATCH
1002
{
1070
    19
1000
ANSI37
1040
0.25
1040
1.5707963267948959
1000
R14_HATCH_DATA
1000
CA8
1011
1.0
1021
0.0
1031
0.0
1021
0.0
1031
0.0
1011
0.0
1021
0.0
1031
0.0
1021
1.0
1031
0.0
1011
0.0
1021
0.0
1031
0.0
1021
0.0
1031
1.0
1040
0.0
1010
0.0
1020
0.0
1030
1.0
1000
ANSI37
1070
     0
1070
     0
1071
        1
1071
        5
1071
        6
1070
     2
1040
26.499999999985189
1040
137.49999992775491
1040
1.4999999999999989
1040
3.9269908169871939
1040
4.7123889803846613
1070
     0
1070
     1
1040
26.499999999985128
1040
138.99999992775491
1040
37.336651236675671
1040
138.9999999277548
1070
     3
1040
37.336651236675984
1040
143.99999992775491
1040
5.6210574168242138
1040
0.0000000000000003
1040
0.8895123513655372
1040
1.5707963267948959
1040
2.144309431217978
1070
     0
1070
     3
1040
37.336651236675984
1040
143.99999992775491
1040
5.6210574168242138
1040
0.0000000000000003
1040
0.8895123513655372
1040
2.144309431217978
1040
4.7123889803846888
1070
     0
1070
     1
1040
37.336651236675351
1040
148.99999992775491
1040
25.000000000000139
1040
148.99999992775491
1070
     2
1040
4.353278700097718
1040
142.90216751658329
1040
21.528368738726542
1040
-0.2871774259191895
1040
0.2030570252108204
1070
     0
1071
        0
1070
     0
1070
     1
1040
1.5707963267948959
1040
0.25
1070
     0
1070
     2
1040
2.3561944901923439
1040
84.999999999985135
1040
0.0000000000136442
1040
-0.5612660075668221
1040
-0.5612660075668221
1070
     0
1040
3.926990816987241
1040
84.999999999985135
1040
0.0000000000136442
1040
0.5612660075668221
1040
-0.5612660075668221
1070
     0
1040
0.0591690278051155
1071
        1
1040
28.579635287059229
1040
142.9986763470032
1040
0.0
1002
}
  0
LINE
  5
CA9
  8
SAPA_ANSLUTNING
 10
100.0000000000056
 20
14.00000000000011
 30
0.0
 11
100.0000000000055
 21
148.99999992775491
 31
0.0
  0
LINE
  5
CAA
  8
SAPA_ANSLUTNING
 10
25.000000000000139
 20
148.99999992775491
 30
0.0
 11
25.000000000000089
 21
194.0032559344132
 31
0.0
  0
LINE
  5
CAB
  8
SAPA_ANSLUTNING
 10
100.0000000000055
 20
148.99999992775491
 30
0.0
 11
25.000000000000139
 21
148.99999992775491
 31
0.0
  0
ARC
  5
CAC
  8
SAPA_ANSLUTNING
 10
4.3532787000976043
 20
142.90216751658329
 30
0.0
 40
21.52836873872667
 50
348.3656894549398
 51
16.454054476599431
  0
INSERT
  5
CAD
  8
SAPA_ANSLUTNING
  6
CONTINUOUS
  2
*X45
 10
0.0
 20
0.0
 30
0.0
1001
ACAD
1000
HATCH
1002
{
1070
    19
1000
HEX
1040
0.25
1040
1.5707963267948959
1000
ASC_BOUNDS
1070
     1
1070
     1
1070
     1
1005
CAE
1000
ASC_SEEDPOINT
1011
37.21831354761926
1021
0.0
1031
0.0
1021
144.2421099378295
1031
0.0
1000
R14_HATCH_DATA
1000
CAD
1011
1.0
1021
0.0
1031
0.0
1021
0.0
1031
0.0
1011
0.0
1021
0.0
1031
0.0
1021
1.0
1031
0.0
1011
0.0
1021
0.0
1031
0.0
1021
0.0
1031
1.0
1040
0.0
1010
0.0
1020
0.0
1030
1.0
1000
HEX
1070
     0
1070
     1
1071
        1
1071
        5
1071
        1
1070
     3
1040
37.336651236675984
1040
143.99999992775491
1040
5.6210574168242138
1040
0.0000000000000003
1040
0.8895123513655372
1040
0.0
1040
6.2831853071795862
1070
     1
1071
        1
1005
CAE
1070
     0
1070
     1
1040
1.5707963267948959
1040
0.25
1070
     0
1070
     3
1040
1.5707963267948959
1040
84.999999999985135
1040
0.0000000000136442
1040
-1.374814999999999
1040
-0.0000000000000001
1070
     2
1040
0.79375
1040
-1.587499999999999
1040
3.6651914291880909
1040
84.999999999985135
1040
0.0000000000136442
1040
0.6874074999999998
1040
-1.190624715503902
1070
     2
1040
0.7937499999999993
1040
-1.5874999999999979
1040
2.6179938779914931
1040
84.999999999985135
1040
0.7937500000136329
1040
-0.6874075
1040
-1.190624715503902
1070
     2
1040
0.79375
1040
-1.587499999999999
1040
0.0591690278051155
1071
        1
1040
37.21831354761926
1040
144.2421099378295
1040
0.0
1002
}
  0
POLYLINE
  5
CAE
  8
SAPA_ANSLUTNING
 10
42.957708653500198
 20
143.99999992775491
 30
0.0
 66
     1
 70
     8
  0
VERTEX
  8
SAPA_ANSLUTNING
  5
19C6
 10
42.9577
 20
144.000
 30
0.000000
  70
    32
  0
VERTEX
  8
SAPA_ANSLUTNING
  5
19C7
 10
42.9509
 20
144.245
 30
0.000000
  70
    32
  0
VERTEX
  8
SAPA_ANSLUTNING
  5
19C8
 10
42.9306
 20
144.490
 30
0.000000
  70
    32
  0
VERTEX
  8
SAPA_ANSLUTNING
  5
19C9
 10
42.8969
 20
144.734
 30
0.000000
  70
    32
  0
VERTEX
  8
SAPA_ANSLUTNING
  5
19CA
 10
42.8497
 20
144.975
 30
0.000000
  70
    32
  0
VERTEX
  8
SAPA_ANSLUTNING
  5
19CB
 10
42.7893
 20
145.215
 30
0.000000
  70
    32
  0
VERTEX
  8
SAPA_ANSLUTNING
  5
19CC
 10
42.7157
 20
145.451
 30
0.000000
  70
    32
  0
VERTEX
  8
SAPA_ANSLUTNING
  5
19CD
 10
42.6291
 20
145.684
 30
0.000000
  70
    32
  0
VERTEX
  8
SAPA_ANSLUTNING
  5
19CE
 10
42.5298
 20
145.913
 30
0.000000
  70
    32
  0
VERTEX
  8
SAPA_ANSLUTNING
  5
19CF
 10
42.4180
 20
146.138
 30
0.000000
  70
    32
  0
VERTEX
  8
SAPA_ANSLUTNING
  5
19D0
 10
42.2940
 20
146.357
 30
0.000000
  70
    32
  0
VERTEX
  8
SAPA_ANSLUTNING
  5
19D1
 10
42.1580
 20
146.571
 30
0.000000
  70
    32
  0
VERTEX
  8
SAPA_ANSLUTNING
  5
19D2
 10
42.0104
 20
146.778
 30
0.000000
  70
    32
  0
VERTEX
  8
SAPA_ANSLUTNING
  5
19D3
 10
41.8515
 20
146.978
 30
0.000000
  70
    32
  0
VERTEX
  8
SAPA_ANSLUTNING
  5
19D4
 10
41.6818
 20
147.172
 30
0.000000
  70
    32
  0
VERTEX
  8
SAPA_ANSLUTNING
  5
19D5
 10
41.5016
 20
147.358
 30
0.000000
  70
    32
  0
VERTEX
  8
SAPA_ANSLUTNING
  5
19D6
 10
41.3113
 20
147.536
 30
0.000000
  70
    32
  0
VERTEX
  8
SAPA_ANSLUTNING
  5
19D7
 10
41.1115
 20
147.705
 30
0.000000
  70
    32
  0
VERTEX
  8
SAPA_ANSLUTNING
  5
19D8
 10
40.9026
 20
147.865
 30
0.000000
  70
    32
  0
VERTEX
  8
SAPA_ANSLUTNING
  5
19D9
 10
40.6851
 20
148.016
 30
0.000000
  70
    32
  0
VERTEX
  8
SAPA_ANSLUTNING
  5
19DA
 10
40.4595
 20
148.157
 30
0.000000
  70
    32
  0
VERTEX
  8
SAPA_ANSLUTNING
  5
19DB
 10
40.2265
 20
148.289
 30
0.000000
  70
    32
  0
VERTEX
  8
SAPA_ANSLUTNING
  5
19DC
 10
39.9864
 20
148.410
 30
0.000000
  70
    32
  0
VERTEX
  8
SAPA_ANSLUTNING
  5
19DD
 10
39.7400
 20
148.520
 30
0.000000
  70
    32
  0
VERTEX
  8
SAPA_ANSLUTNING
  5
19DE
 10
39.4877
 20
148.619
 30
0.000000
  70
    32
  0
VERTEX
  8
SAPA_ANSLUTNING
  5
19DF
 10
39.2303
 20
148.708
 30
0.000000
  70
    32
  0
VERTEX
  8
SAPA_ANSLUTNING
  5
19E0
 10
38.9684
 20
148.785
 30
0.000000
  70
    32
  0
VERTEX
  8
SAPA_ANSLUTNING
  5
19E1
 10
38.7025
 20
148.850
 30
0.000000
  70
    32
  0
VERTEX
  8
SAPA_ANSLUTNING
  5
19E2
 10
38.4333
 20
148.904
 30
0.000000
  70
    32
  0
VERTEX
  8
SAPA_ANSLUTNING
  5
19E3
 10
38.1614
 20
148.946
 30
0.000000
  70
    32
  0
VERTEX
  8
SAPA_ANSLUTNING
  5
19E4
 10
37.8876
 20
148.976
 30
0.000000
  70
    32
  0
VERTEX
  8
SAPA_ANSLUTNING
  5
19E5
 10
37.6125
 20
148.994
 30
0.000000
  70
    32
  0
VERTEX
  8
SAPA_ANSLUTNING
  5
19E6
 10
37.3367
 20
149.000
 30
0.000000
  70
    32
  0
VERTEX
  8
SAPA_ANSLUTNING
  5
19E7
 10
37.0608
 20
148.994
 30
0.000000
  70
    32
  0
VERTEX
  8
SAPA_ANSLUTNING
  5
19E8
 10
36.7857
 20
148.976
 30
0.000000
  70
    32
  0
VERTEX
  8
SAPA_ANSLUTNING
  5
19E9
 10
36.5119
 20
148.946
 30
0.000000
  70
    32
  0
VERTEX
  8
SAPA_ANSLUTNING
  5
19EA
 10
36.2400
 20
148.904
 30
0.000000
  70
    32
  0
VERTEX
  8
SAPA_ANSLUTNING
  5
19EB
 10
35.9708
 20
148.850
 30
0.000000
  70
    32
  0
VERTEX
  8
SAPA_ANSLUTNING
  5
19EC
 10
35.7049
 20
148.785
 30
0.000000
  70
    32
  0
VERTEX
  8
SAPA_ANSLUTNING
  5
19ED
 10
35.4430
 20
148.708
 30
0.000000
  70
    32
  0
VERTEX
  8
SAPA_ANSLUTNING
  5
19EE
 10
35.1856
 20
148.619
 30
0.000000
  70
    32
  0
VERTEX
  8
SAPA_ANSLUTNING
  5
19EF
 10
34.9333
 20
148.520
 30
0.000000
  70
    32
  0
VERTEX
  8
SAPA_ANSLUTNING
  5
19F0
 10
34.6869
 20
148.410
 30
0.000000
  70
    32
  0
VERTEX
  8
SAPA_ANSLUTNING
  5
19F1
 10
34.4469
 20
148.289
 30
0.000000
  70
    32
  0
VERTEX
  8
SAPA_ANSLUTNING
  5
19F2
 10
34.2138
 20
148.157
 30
0.000000
  70
    32
  0
VERTEX
  8
SAPA_ANSLUTNING
  5
19F3
 10
33.9882
 20
148.016
 30
0.000000
  70
    32
  0
VERTEX
  8
SAPA_ANSLUTNING
  5
19F4
 10
33.7707
 20
147.865
 30
0.000000
  70
    32
  0
VERTEX
  8
SAPA_ANSLUTNING
  5
19F5
 10
33.5618
 20
147.705
 30
0.000000
  70
    32
  0
VERTEX
  8
SAPA_ANSLUTNING
  5
19F6
 10
33.3620
 20
147.536
 30
0.000000
  70
    32
  0
VERTEX
  8
SAPA_ANSLUTNING
  5
19F7
 10
33.1717
 20
147.358
 30
0.000000
  70
    32
  0
VERTEX
  8
SAPA_ANSLUTNING
  5
19F8
 10
32.9915
 20
147.172
 30
0.000000
  70
    32
  0
VERTEX
  8
SAPA_ANSLUTNING
  5
19F9
 10
32.8218
 20
146.978
 30
0.000000
  70
    32
  0
VERTEX
  8
SAPA_ANSLUTNING
  5
19FA
 10
32.6629
 20
146.778
 30
0.000000
  70
    32
  0
VERTEX
  8
SAPA_ANSLUTNING
  5
19FB
 10
32.5153
 20
146.571
 30
0.000000
  70
    32
  0
VERTEX
  8
SAPA_ANSLUTNING
  5
19FC
 10
32.3793
 20
146.357
 30
0.000000
  70
    32
  0
VERTEX
  8
SAPA_ANSLUTNING
  5
19FD
 10
32.2553
 20
146.138
 30
0.000000
  70
    32
  0
VERTEX
  8
SAPA_ANSLUTNING
  5
19FE
 10
32.1435
 20
145.913
 30
0.000000
  70
    32
  0
VERTEX
  8
SAPA_ANSLUTNING
  5
19FF
 10
32.0442
 20
145.684
 30
0.000000
  70
    32
  0
VERTEX
  8
SAPA_ANSLUTNING
  5
1A00
 10
31.9576
 20
145.451
 30
0.000000
  70
    32
  0
VERTEX
  8
SAPA_ANSLUTNING
  5
1A01
 10
31.8840
 20
145.215
 30
0.000000
  70
    32
  0
VERTEX
  8
SAPA_ANSLUTNING
  5
1A02
 10
31.8236
 20
144.975
 30
0.000000
  70
    32
  0
VERTEX
  8
SAPA_ANSLUTNING
  5
1A03
 10
31.7764
 20
144.734
 30
0.000000
  70
    32
  0
VERTEX
  8
SAPA_ANSLUTNING
  5
1A04
 10
31.7427
 20
144.490
 30
0.000000
  70
    32
  0
VERTEX
  8
SAPA_ANSLUTNING
  5
1A05
 10
31.7224
 20
144.245
 30
0.000000
  70
    32
  0
VERTEX
  8
SAPA_ANSLUTNING
  5
1A06
 10
31.7156
 20
144.000
 30
0.000000
  70
    32
  0
VERTEX
  8
SAPA_ANSLUTNING
  5
1A07
 10
31.7224
 20
143.755
 30
0.000000
  70
    32
  0
VERTEX
  8
SAPA_ANSLUTNING
  5
1A08
 10
31.7427
 20
143.510
 30
0.000000
  70
    32
  0
VERTEX
  8
SAPA_ANSLUTNING
  5
1A09
 10
31.7764
 20
143.266
 30
0.000000
  70
    32
  0
VERTEX
  8
SAPA_ANSLUTNING
  5
1A0A
 10
31.8236
 20
143.025
 30
0.000000
  70
    32
  0
VERTEX
  8
SAPA_ANSLUTNING
  5
1A0B
 10
31.8840
 20
142.785
 30
0.000000
  70
    32
  0
VERTEX
  8
SAPA_ANSLUTNING
  5
1A0C
 10
31.9576
 20
142.549
 30
0.000000
  70
    32
  0
VERTEX
  8
SAPA_ANSLUTNING
  5
1A0D
 10
32.0442
 20
142.316
 30
0.000000
  70
    32
  0
VERTEX
  8
SAPA_ANSLUTNING
  5
1A0E
 10
32.1435
 20
142.087
 30
0.000000
  70
    32
  0
VERTEX
  8
SAPA_ANSLUTNING
  5
1A0F
 10
32.2553
 20
141.862
 30
0.000000
  70
    32
  0
VERTEX
  8
SAPA_ANSLUTNING
  5
1A10
 10
32.3793
 20
141.643
 30
0.000000
  70
    32
  0
VERTEX
  8
SAPA_ANSLUTNING
  5
1A11
 10
32.5153
 20
141.429
 30
0.000000
  70
    32
  0
VERTEX
  8
SAPA_ANSLUTNING
  5
1A12
 10
32.6629
 20
141.222
 30
0.000000
  70
    32
  0
VERTEX
  8
SAPA_ANSLUTNING
  5
1A13
 10
32.8218
 20
141.022
 30
0.000000
  70
    32
  0
VERTEX
  8
SAPA_ANSLUTNING
  5
1A14
 10
32.9915
 20
140.828
 30
0.000000
  70
    32
  0
VERTEX
  8
SAPA_ANSLUTNING
  5
1A15
 10
33.1717
 20
140.642
 30
0.000000
  70
    32
  0
VERTEX
  8
SAPA_ANSLUTNING
  5
1A16
 10
33.3620
 20
140.464
 30
0.000000
  70
    32
  0
VERTEX
  8
SAPA_ANSLUTNING
  5
1A17
 10
33.5618
 20
140.295
 30
0.000000
  70
    32
  0
VERTEX
  8
SAPA_ANSLUTNING
  5
1A18
 10
33.7707
 20
140.135
 30
0.000000
  70
    32
  0
VERTEX
  8
SAPA_ANSLUTNING
  5
1A19
 10
33.9882
 20
139.984
 30
0.000000
  70
    32
  0
VERTEX
  8
SAPA_ANSLUTNING
  5
1A1A
 10
34.2138
 20
139.843
 30
0.000000
  70
    32
  0
VERTEX
  8
SAPA_ANSLUTNING
  5
1A1B
 10
34.4469
 20
139.711
 30
0.000000
  70
    32
  0
VERTEX
  8
SAPA_ANSLUTNING
  5
1A1C
 10
34.6869
 20
139.590
 30
0.000000
  70
    32
  0
VERTEX
  8
SAPA_ANSLUTNING
  5
1A1D
 10
34.9333
 20
139.480
 30
0.000000
  70
    32
  0
VERTEX
  8
SAPA_ANSLUTNING
  5
1A1E
 10
35.1856
 20
139.381
 30
0.000000
  70
    32
  0
VERTEX
  8
SAPA_ANSLUTNING
  5
1A1F
 10
35.4430
 20
139.292
 30
0.000000
  70
    32
  0
VERTEX
  8
SAPA_ANSLUTNING
  5
1A20
 10
35.7049
 20
139.215
 30
0.000000
  70
    32
  0
VERTEX
  8
SAPA_ANSLUTNING
  5
1A21
 10
35.9708
 20
139.150
 30
0.000000
  70
    32
  0
VERTEX
  8
SAPA_ANSLUTNING
  5
1A22
 10
36.2400
 20
139.096
 30
0.000000
  70
    32
  0
VERTEX
  8
SAPA_ANSLUTNING
  5
1A23
 10
36.5119
 20
139.054
 30
0.000000
  70
    32
  0
VERTEX
  8
SAPA_ANSLUTNING
  5
1A24
 10
36.7857
 20
139.024
 30
0.000000
  70
    32
  0
VERTEX
  8
SAPA_ANSLUTNING
  5
1A25
 10
37.0608
 20
139.006
 30
0.000000
  70
    32
  0
VERTEX
  8
SAPA_ANSLUTNING
  5
1A26
 10
37.3367
 20
139.000
 30
0.000000
  70
    32
  0
VERTEX
  8
SAPA_ANSLUTNING
  5
1A27
 10
37.6125
 20
139.006
 30
0.000000
  70
    32
  0
VERTEX
  8
SAPA_ANSLUTNING
  5
1A28
 10
37.8876
 20
139.024
 30
0.000000
  70
    32
  0
VERTEX
  8
SAPA_ANSLUTNING
  5
1A29
 10
38.1614
 20
139.054
 30
0.000000
  70
    32
  0
VERTEX
  8
SAPA_ANSLUTNING
  5
1A2A
 10
38.4333
 20
139.096
 30
0.000000
  70
    32
  0
VERTEX
  8
SAPA_ANSLUTNING
  5
1A2B
 10
38.7025
 20
139.150
 30
0.000000
  70
    32
  0
VERTEX
  8
SAPA_ANSLUTNING
  5
1A2C
 10
38.9684
 20
139.215
 30
0.000000
  70
    32
  0
VERTEX
  8
SAPA_ANSLUTNING
  5
1A2D
 10
39.2303
 20
139.292
 30
0.000000
  70
    32
  0
VERTEX
  8
SAPA_ANSLUTNING
  5
1A2E
 10
39.4877
 20
139.381
 30
0.000000
  70
    32
  0
VERTEX
  8
SAPA_ANSLUTNING
  5
1A2F
 10
39.7400
 20
139.480
 30
0.000000
  70
    32
  0
VERTEX
  8
SAPA_ANSLUTNING
  5
1A30
 10
39.9864
 20
139.590
 30
0.000000
  70
    32
  0
VERTEX
  8
SAPA_ANSLUTNING
  5
1A31
 10
40.2265
 20
139.711
 30
0.000000
  70
    32
  0
VERTEX
  8
SAPA_ANSLUTNING
  5
1A32
 10
40.4595
 20
139.843
 30
0.000000
  70
    32
  0
VERTEX
  8
SAPA_ANSLUTNING
  5
1A33
 10
40.6851
 20
139.984
 30
0.000000
  70
    32
  0
VERTEX
  8
SAPA_ANSLUTNING
  5
1A34
 10
40.9026
 20
140.135
 30
0.000000
  70
    32
  0
VERTEX
  8
SAPA_ANSLUTNING
  5
1A35
 10
41.1115
 20
140.295
 30
0.000000
  70
    32
  0
VERTEX
  8
SAPA_ANSLUTNING
  5
1A36
 10
41.3113
 20
140.464
 30
0.000000
  70
    32
  0
VERTEX
  8
SAPA_ANSLUTNING
  5
1A37
 10
41.5016
 20
140.642
 30
0.000000
  70
    32
  0
VERTEX
  8
SAPA_ANSLUTNING
  5
1A38
 10
41.6818
 20
140.828
 30
0.000000
  70
    32
  0
VERTEX
  8
SAPA_ANSLUTNING
  5
1A39
 10
41.8515
 20
141.022
 30
0.000000
  70
    32
  0
VERTEX
  8
SAPA_ANSLUTNING
  5
1A3A
 10
42.0104
 20
141.222
 30
0.000000
  70
    32
  0
VERTEX
  8
SAPA_ANSLUTNING
  5
1A3B
 10
42.1580
 20
141.429
 30
0.000000
  70
    32
  0
VERTEX
  8
SAPA_ANSLUTNING
  5
1A3C
 10
42.2940
 20
141.643
 30
0.000000
  70
    32
  0
VERTEX
  8
SAPA_ANSLUTNING
  5
1A3D
 10
42.4180
 20
141.862
 30
0.000000
  70
    32
  0
VERTEX
  8
SAPA_ANSLUTNING
  5
1A3E
 10
42.5298
 20
142.087
 30
0.000000
  70
    32
  0
VERTEX
  8
SAPA_ANSLUTNING
  5
1A3F
 10
42.6291
 20
142.316
 30
0.000000
  70
    32
  0
VERTEX
  8
SAPA_ANSLUTNING
  5
1A40
 10
42.7157
 20
142.549
 30
0.000000
  70
    32
  0
VERTEX
  8
SAPA_ANSLUTNING
  5
1A41
 10
42.7893
 20
142.785
 30
0.000000
  70
    32
  0
VERTEX
  8
SAPA_ANSLUTNING
  5
1A42
 10
42.8497
 20
143.025
 30
0.000000
  70
    32
  0
VERTEX
  8
SAPA_ANSLUTNING
  5
1A43
 10
42.8969
 20
143.266
 30
0.000000
  70
    32
  0
VERTEX
  8
SAPA_ANSLUTNING
  5
1A44
 10
42.9306
 20
143.510
 30
0.000000
  70
    32
  0
VERTEX
  8
SAPA_ANSLUTNING
  5
1A45
 10
42.9509
 20
143.755
 30
0.000000
  70
    32
  0
VERTEX
  8
SAPA_ANSLUTNING
  5
1A46
 10
42.9577
 20
144.000
 30
0.000000
  70
    32
  0
SEQEND
  8
SAPA_ANSLUTNING
  5
1A47
  0
POLYLINE
  5
CAF
  8
SAPA_ANSLUTNING
 66
     1
 10
0.0
 20
0.0
 30
0.0
  0
VERTEX
  5
11C8
  8
SAPA_ANSLUTNING
 10
41.35206959054667
 20
140.5010714710958
 30
0.0
 42
0.8812634091771133
  0
VERTEX
  5
11C9
  8
SAPA_ANSLUTNING
 10
45.288837618766841
 20
140.99999992775491
 30
0.0
  0
VERTEX
  5
11CA
  8
SAPA_ANSLUTNING
 10
45.288837618766841
 20
146.99999992775491
 30
0.0
 42
-0.9999999999999998
  0
VERTEX
  5
11CB
  8
SAPA_ANSLUTNING
 10
49.288837618766848
 20
146.99999992775491
 30
0.0
  0
VERTEX
  5
11CC
  8
SAPA_ANSLUTNING
 10
49.288837618766848
 20
140.99999992775491
 30
0.0
 42
0.9999999999999998
  0
VERTEX
  5
11CD
  8
SAPA_ANSLUTNING
 10
53.288837618766848
 20
140.99999992775491
 30
0.0
  0
VERTEX
  5
11CE
  8
SAPA_ANSLUTNING
 10
53.288837618766848
 20
146.99999992775491
 30
0.0
 42
-0.9999999999999998
  0
VERTEX
  5
11CF
  8
SAPA_ANSLUTNING
 10
57.288837618766848
 20
146.99999992775491
 30
0.0
  0
VERTEX
  5
11D0
  8
SAPA_ANSLUTNING
 10
57.288837618766848
 20
140.99999992775491
 30
0.0
 42
0.9999999999999998
  0
VERTEX
  5
11D1
  8
SAPA_ANSLUTNING
 10
61.288837618766848
 20
140.99999992775491
 30
0.0
  0
VERTEX
  5
11D2
  8
SAPA_ANSLUTNING
 10
61.288837618766848
 20
146.99999992775491
 30
0.0
 42
-0.9999999999999998
  0
VERTEX
  5
11D3
  8
SAPA_ANSLUTNING
 10
65.288837618766834
 20
146.99999992775491
 30
0.0
  0
VERTEX
  5
11D4
  8
SAPA_ANSLUTNING
 10
65.288837618766834
 20
140.99999992775491
 30
0.0
 42
0.9999999999999998
  0
VERTEX
  5
11D5
  8
SAPA_ANSLUTNING
 10
69.288837618766848
 20
140.99999992775491
 30
0.0
  0
VERTEX
  5
11D6
  8
SAPA_ANSLUTNING
 10
69.288837618766848
 20
146.99999992775491
 30
0.0
 42
-0.9999999999999998
  0
VERTEX
  5
11D7
  8
SAPA_ANSLUTNING
 10
73.288837618766848
 20
146.99999992775491
 30
0.0
  0
VERTEX
  5
11D8
  8
SAPA_ANSLUTNING
 10
73.288837618766848
 20
140.99999992775491
 30
0.0
 42
0.9999999999999998
  0
VERTEX
  5
11D9
  8
SAPA_ANSLUTNING
 10
77.288837618766848
 20
140.99999992775491
 30
0.0
  0
VERTEX
  5
11DA
  8
SAPA_ANSLUTNING
 10
77.288837618766848
 20
146.99999992775491
 30
0.0
 42
-0.9999999999999998
  0
VERTEX
  5
11DB
  8
SAPA_ANSLUTNING
 10
81.28883761876682
 20
146.99999992775491
 30
0.0
  0
VERTEX
  5
11DC
  8
SAPA_ANSLUTNING
 10
81.28883761876682
 20
140.99999992775491
 30
0.0
 42
0.9999999999999998
  0
VERTEX
  5
11DD
  8
SAPA_ANSLUTNING
 10
85.288837618766834
 20
140.99999992775491
 30
0.0
  0
VERTEX
  5
11DE
  8
SAPA_ANSLUTNING
 10
85.288837618766834
 20
146.99999992775491
 30
0.0
 42
-0.9999999999999998
  0
VERTEX
  5
11DF
  8
SAPA_ANSLUTNING
 10
89.288837618766806
 20
146.99999992775491
 30
0.0
  0
VERTEX
  5
11E0
  8
SAPA_ANSLUTNING
 10
89.288837618766806
 20
140.99999992775491
 30
0.0
 42
0.9999999999999998
  0
VERTEX
  5
11E1
  8
SAPA_ANSLUTNING
 10
93.28883761876682
 20
140.99999992775491
 30
0.0
  0
VERTEX
  5
11E2
  8
SAPA_ANSLUTNING
 10
93.28883761876682
 20
146.99999992775491
 30
0.0
 42
-0.9999999999999998
  0
VERTEX
  5
11E3
  8
SAPA_ANSLUTNING
 10
97.28883761876682
 20
146.99999992775491
 30
0.0
  0
VERTEX
  5
11E4
  8
SAPA_ANSLUTNING
 10
97.28883761876682
 20
140.99999992775491
 30
0.0
 42
0.5251735434384823
  0
VERTEX
  5
11E5
  8
SAPA_ANSLUTNING
 10
100.0000000000055
 20
139.1307091350983
 30
0.0
 42
0.5251735434384823
  0
SEQEND
  5
11E6
  8
SAPA_ANSLUTNING
  0
LINE
  5
CB0
  8
SAPA_ANSLUTNING
 10
25.000000000000089
 20
14.00000000000011
 30
0.0
 11
25.000000000000089
 21
-30.619466477045759
 31
0.0
  0
LINE
  5
CB1
  8
SAPA_ANSLUTNING
 10
25.000000000000089
 20
14.00000000000011
 30
0.0
 11
100.0000000000056
 21
14.00000000000011
 31
0.0
  0
POLYLINE
  5
CB2
  8
SAPA_ANSLUTNING
 66
     1
 10
0.0
 20
0.0
 30
0.0
  0
VERTEX
  5
11E7
  8
SAPA_ANSLUTNING
 10
98.498928456659186
 20
14.00000000000011
 30
0.0
 42
0.8812634091771133
  0
VERTEX
  5
11E8
  8
SAPA_ANSLUTNING
 10
98.000000000000085
 20
17.936768028220278
 30
0.0
  0
VERTEX
  5
11E9
  8
SAPA_ANSLUTNING
 10
87.000000000000085
 20
17.936768028220278
 30
0.0
 42
-0.9999999999999998
  0
VERTEX
  5
11EA
  8
SAPA_ANSLUTNING
 10
87.000000000000085
 20
21.936768028220289
 30
0.0
  0
VERTEX
  5
11EB
  8
SAPA_ANSLUTNING
 10
98.000000000000085
 20
21.936768028220261
 30
0.0
 42
0.9999999999999998
  0
VERTEX
  5
11EC
  8
SAPA_ANSLUTNING
 10
98.000000000000085
 20
25.936768028220261
 30
0.0
  0
VERTEX
  5
11ED
  8
SAPA_ANSLUTNING
 10
87.000000000000085
 20
25.936768028220289
 30
0.0
 42
-0.9999999999999998
  0
VERTEX
  5
11EE
  8
SAPA_ANSLUTNING
 10
87.000000000000085
 20
29.936768028220289
 30
0.0
  0
VERTEX
  5
11EF
  8
SAPA_ANSLUTNING
 10
98.000000000000085
 20
29.936768028220261
 30
0.0
 42
0.9999999999999998
  0
VERTEX
  5
11F0
  8
SAPA_ANSLUTNING
 10
98.000000000000085
 20
33.936768028220257
 30
0.0
  0
VERTEX
  5
11F1
  8
SAPA_ANSLUTNING
 10
87.000000000000085
 20
33.936768028220257
 30
0.0
 42
-0.9999999999999998
  0
VERTEX
  5
11F2
  8
SAPA_ANSLUTNING
 10
87.000000000000085
 20
37.936768028220257
 30
0.0
  0
VERTEX
  5
11F3
  8
SAPA_ANSLUTNING
 10
98.000000000000085
 20
37.936768028220257
 30
0.0
 42
0.9999999999999998
  0
VERTEX
  5
11F4
  8
SAPA_ANSLUTNING
 10
98.000000000000085
 20
41.93676802822025
 30
0.0
  0
VERTEX
  5
11F5
  8
SAPA_ANSLUTNING
 10
87.000000000000085
 20
41.93676802822025
 30
0.0
 42
-0.9999999999999998
  0
VERTEX
  5
11F6
  8
SAPA_ANSLUTNING
 10
87.000000000000085
 20
45.936768028220257
 30
0.0
  0
VERTEX
  5
11F7
  8
SAPA_ANSLUTNING
 10
98.000000000000085
 20
45.936768028220257
 30
0.0
 42
0.9999999999999998
  0
VERTEX
  5
11F8
  8
SAPA_ANSLUTNING
 10
98.000000000000085
 20
49.936768028220257
 30
0.0
  0
VERTEX
  5
11F9
  8
SAPA_ANSLUTNING
 10
87.000000000000085
 20
49.936768028220257
 30
0.0
 42
-0.9999999999999998
  0
VERTEX
  5
11FA
  8
SAPA_ANSLUTNING
 10
87.000000000000085
 20
53.93676802822025
 30
0.0
  0
VERTEX
  5
11FB
  8
SAPA_ANSLUTNING
 10
98.000000000000085
 20
53.93676802822025
 30
0.0
 42
0.9999999999999998
  0
VERTEX
  5
11FC
  8
SAPA_ANSLUTNING
 10
98.000000000000057
 20
57.936768028220257
 30
0.0
  0
VERTEX
  5
11FD
  8
SAPA_ANSLUTNING
 10
87.000000000000057
 20
57.936768028220257
 30
0.0
 42
-0.9999999999999998
  0
VERTEX
  5
11FE
  8
SAPA_ANSLUTNING
 10
87.000000000000057
 20
61.93676802822025
 30
0.0
  0
VERTEX
  5
11FF
  8
SAPA_ANSLUTNING
 10
98.000000000000057
 20
61.93676802822025
 30
0.0
 42
0.9999999999999998
  0
VERTEX
  5
1200
  8
SAPA_ANSLUTNING
 10
98.000000000000057
 20
65.936768028220257
 30
0.0
  0
VERTEX
  5
1201
  8
SAPA_ANSLUTNING
 10
87.000000000000057
 20
65.936768028220257
 30
0.0
 42
-0.9999999999999998
  0
VERTEX
  5
1202
  8
SAPA_ANSLUTNING
 10
87.000000000000057
 20
69.936768028220257
 30
0.0
  0
VERTEX
  5
1203
  8
SAPA_ANSLUTNING
 10
98.000000000000057
 20
69.936768028220257
 30
0.0
 42
0.5251735434384823
  0
VERTEX
  5
1204
  8
SAPA_ANSLUTNING
 10
99.86929079265667
 20
72.647930409458979
 30
0.0
 42
0.5251735434384823
  0
SEQEND
  5
1205
  8
SAPA_ANSLUTNING
  0
POLYLINE
  5
CB3
  8
SAPA_ANSLUTNING
 66
     1
 10
0.0
 20
0.0
 30
0.0
  0
VERTEX
  5
1206
  8
SAPA_ANSLUTNING
 10
98.498928456659144
 20
62.000000000000107
 30
0.0
 42
0.8812634091771133
  0
VERTEX
  5
1207
  8
SAPA_ANSLUTNING
 10
98.000000000000057
 20
65.936768028220257
 30
0.0
  0
VERTEX
  5
1208
  8
SAPA_ANSLUTNING
 10
87.000000000000057
 20
65.936768028220257
 30
0.0
 42
-0.9999999999999998
  0
VERTEX
  5
1209
  8
SAPA_ANSLUTNING
 10
87.000000000000057
 20
69.936768028220257
 30
0.0
  0
VERTEX
  5
120A
  8
SAPA_ANSLUTNING
 10
98.000000000000057
 20
69.936768028220214
 30
0.0
 42
0.9999999999999998
  0
VERTEX
  5
120B
  8
SAPA_ANSLUTNING
 10
98.000000000000057
 20
73.936768028220229
 30
0.0
  0
VERTEX
  5
120C
  8
SAPA_ANSLUTNING
 10
87.000000000000057
 20
73.936768028220257
 30
0.0
 42
-0.9999999999999998
  0
VERTEX
  5
120D
  8
SAPA_ANSLUTNING
 10
87.000000000000057
 20
77.936768028220257
 30
0.0
  0
VERTEX
  5
120E
  8
SAPA_ANSLUTNING
 10
98.000000000000057
 20
77.936768028220229
 30
0.0
 42
0.9999999999999998
  0
VERTEX
  5
120F
  8
SAPA_ANSLUTNING
 10
98.000000000000057
 20
81.936768028220229
 30
0.0
  0
VERTEX
  5
1210
  8
SAPA_ANSLUTNING
 10
87.000000000000057
 20
81.936768028220229
 30
0.0
 42
-0.9999999999999998
  0
VERTEX
  5
1211
  8
SAPA_ANSLUTNING
 10
87.000000000000057
 20
85.936768028220214
 30
0.0
  0
VERTEX
  5
1212
  8
SAPA_ANSLUTNING
 10
98.000000000000057
 20
85.936768028220214
 30
0.0
 42
0.9999999999999998
  0
VERTEX
  5
1213
  8
SAPA_ANSLUTNING
 10
98.000000000000057
 20
89.936768028220214
 30
0.0
  0
VERTEX
  5
1214
  8
SAPA_ANSLUTNING
 10
87.000000000000057
 20
89.936768028220214
 30
0.0
 42
-0.9999999999999998
  0
VERTEX
  5
1215
  8
SAPA_ANSLUTNING
 10
87.000000000000057
 20
93.936768028220229
 30
0.0
  0
VERTEX
  5
1216
  8
SAPA_ANSLUTNING
 10
98.000000000000057
 20
93.936768028220229
 30
0.0
 42
0.9999999999999998
  0
VERTEX
  5
1217
  8
SAPA_ANSLUTNING
 10
98.000000000000057
 20
97.936768028220229
 30
0.0
  0
VERTEX
  5
1218
  8
SAPA_ANSLUTNING
 10
87.000000000000057
 20
97.936768028220229
 30
0.0
 42
-0.9999999999999998
  0
VERTEX
  5
1219
  8
SAPA_ANSLUTNING
 10
87.000000000000057
 20
101.9367680282202
 30
0.0
  0
VERTEX
  5
121A
  8
SAPA_ANSLUTNING
 10
98.000000000000057
 20
101.9367680282202
 30
0.0
 42
0.9999999999999998
  0
VERTEX
  5
121B
  8
SAPA_ANSLUTNING
 10
98.000000000000057
 20
105.9367680282202
 30
0.0
  0
VERTEX
  5
121C
  8
SAPA_ANSLUTNING
 10
87.000000000000057
 20
105.9367680282202
 30
0.0
 42
-0.9999999999999998
  0
VERTEX
  5
121D
  8
SAPA_ANSLUTNING
 10
87.000000000000057
 20
109.9367680282202
 30
0.0
  0
VERTEX
  5
121E
  8
SAPA_ANSLUTNING
 10
98.000000000000057
 20
109.9367680282202
 30
0.0
 42
0.9999999999999998
  0
VERTEX
  5
121F
  8
SAPA_ANSLUTNING
 10
98.000000000000057
 20
113.9367680282202
 30
0.0
  0
VERTEX
  5
1220
  8
SAPA_ANSLUTNING
 10
87.000000000000057
 20
113.9367680282202
 30
0.0
 42
-0.9999999999999998
  0
VERTEX
  5
1221
  8
SAPA_ANSLUTNING
 10
87.000000000000057
 20
117.9367680282202
 30
0.0
  0
VERTEX
  5
1222
  8
SAPA_ANSLUTNING
 10
98.000000000000057
 20
117.9367680282202
 30
0.0
 42
0.5251735434384823
  0
VERTEX
  5
1223
  8
SAPA_ANSLUTNING
 10
99.86929079265667
 20
120.64793040945899
 30
0.0
 42
0.5251735434384823
  0
SEQEND
  5
1224
  8
SAPA_ANSLUTNING
  0
POLYLINE
  5
CB4
  8
SAPA_ANSLUTNING
 66
     1
 10
0.0
 20
0.0
 30
0.0
  0
VERTEX
  5
1225
  8
SAPA_ANSLUTNING
 10
98.498928456659144
 20
110.0000000000001
 30
0.0
 42
0.8812634091771133
  0
VERTEX
  5
1226
  8
SAPA_ANSLUTNING
 10
98.000000000000057
 20
113.9367680282202
 30
0.0
  0
VERTEX
  5
1227
  8
SAPA_ANSLUTNING
 10
87.000000000000057
 20
113.9367680282202
 30
0.0
 42
-0.9999999999999998
  0
VERTEX
  5
1228
  8
SAPA_ANSLUTNING
 10
87.000000000000057
 20
117.9367680282202
 30
0.0
  0
VERTEX
  5
1229
  8
SAPA_ANSLUTNING
 10
98.000000000000057
 20
117.9367680282202
 30
0.0
 42
0.9999999999999998
  0
VERTEX
  5
122A
  8
SAPA_ANSLUTNING
 10
98.000000000000057
 20
121.9367680282202
 30
0.0
  0
VERTEX
  5
122B
  8
SAPA_ANSLUTNING
 10
87.000000000000057
 20
121.9367680282202
 30
0.0
 42
-0.9999999999999998
  0
VERTEX
  5
122C
  8
SAPA_ANSLUTNING
 10
87.000000000000057
 20
125.9367680282202
 30
0.0
  0
VERTEX
  5
122D
  8
SAPA_ANSLUTNING
 10
98.000000000000057
 20
125.9367680282202
 30
0.0
 42
0.9999999999999998
  0
VERTEX
  5
122E
  8
SAPA_ANSLUTNING
 10
98.000000000000057
 20
129.9367680282202
 30
0.0
  0
VERTEX
  5
122F
  8
SAPA_ANSLUTNING
 10
87.000000000000057
 20
129.9367680282202
 30
0.0
 42
-0.9999999999999998
  0
VERTEX
  5
1230
  8
SAPA_ANSLUTNING
 10
87.000000000000057
 20
133.9367680282202
 30
0.0
  0
VERTEX
  5
1231
  8
SAPA_ANSLUTNING
 10
98.000000000000057
 20
133.9367680282202
 30
0.0
 42
0.9999999999999998
  0
VERTEX
  5
1232
  8
SAPA_ANSLUTNING
 10
98.000000000000057
 20
137.9367680282202
 30
0.0
  0
VERTEX
  5
1233
  8
SAPA_ANSLUTNING
 10
87.000000000000057
 20
137.9367680282202
 30
0.0
 42
-0.4183530514568368
  0
VERTEX
  5
1234
  8
SAPA_ANSLUTNING
 10
85.000199156167795
 20
139.96499186580331
 30
0.0
 42
-0.4183530514568368
  0
SEQEND
  5
1235
  8
SAPA_ANSLUTNING
  0
POLYLINE
  5
F9E
  8
SAPA_PROFIL
 66
     1
 10
0.0
 20
0.0
 30
0.0
 70
     1
  0
VERTEX
  5
14F7
  8
SAPA_PROFIL
 10
18.000000000000231
 20
124.24386896872009
 30
0.0
 42
-0.2418327667417041
  0
VERTEX
  5
14F8
  8
SAPA_PROFIL
 10
17.874722325036281
 20
123.9999999277702
 30
0.0
 42
0.2418327667547422
  0
VERTEX
  5
14F9
  8
SAPA_PROFIL
 10
17.749444650060688
 20
123.75613088681121
 30
0.0
  0
VERTEX
  5
14FA
  8
SAPA_PROFIL
 10
17.749444650060688
 20
122.7999999277758
 30
0.0
 42
0.2814258985282543
  0
VERTEX
  5
14FB
  8
SAPA_PROFIL
 10
17.91265025118695
 20
122.5330031254706
 30
0.0
 42
-0.2814258985233465
  0
VERTEX
  5
14FC
  8
SAPA_PROFIL
 10
18.075855852310649
 20
122.26600632317501
 30
0.0
  0
VERTEX
  5
14FD
  8
SAPA_PROFIL
 10
18.07585585231017
 20
120.0884579682177
 30
0.0
 42
-0.0874886635248791
  0
VERTEX
  5
14FE
  8
SAPA_PROFIL
 10
18.057763638546369
 20
119.9858519252211
 30
0.0
  0
VERTEX
  5
14FF
  8
SAPA_PROFIL
 10
17.53824957087102
 20
118.55849875517571
 30
0.0
 42
-0.4142135623698204
  0
VERTEX
  5
1500
  8
SAPA_PROFIL
 10
17.15373574162885
 20
118.3791970119383
 30
0.0
  0
VERTEX
  5
1501
  8
SAPA_PROFIL
 10
16.965797217480151
 20
118.4476010406094
 30
0.0
 42
-0.4142135623730013
  0
VERTEX
  5
1502
  8
SAPA_PROFIL
 10
16.786495474237629
 20
118.832114869831
 30
0.0
  0
VERTEX
  5
1503
  8
SAPA_PROFIL
 10
17.162717631904322
 20
119.8657767527002
 30
0.0
 42
0.41421356237947
  0
VERTEX
  5
1504
  8
SAPA_PROFIL
 10
16.983415888653159
 20
120.25029058193169
 30
0.0
  0
VERTEX
  5
1505
  8
SAPA_PROFIL
 10
15.173225809314239
 20
120.9091458891675
 30
0.0
 42
-0.3152987888800596
  0
VERTEX
  5
1506
  8
SAPA_PROFIL
 10
14.975831852310909
 20
121.19105367540379
 30
0.0
  0
VERTEX
  5
1507
  8
SAPA_PROFIL
 10
14.975831852311011
 20
121.61076944322311
 30
0.0
 42
-0.1316524975873857
  0
VERTEX
  5
1508
  8
SAPA_PROFIL
 10
15.016024231175651
 20
121.760769443223
 30
0.0
  0
VERTEX
  5
1509
  8
SAPA_PROFIL
 10
15.875831852310959
 20
123.24999992776389
 30
0.0
  0
VERTEX
  5
150A
  8
SAPA_PROFIL
 10
15.87584385231062
 20
123.6999999277638
 30
0.0
 42
0.4142135623731054
  0
VERTEX
  5
150B
  8
SAPA_PROFIL
 10
15.575843852310619
 20
123.9999999277638
 30
0.0
  0
VERTEX
  5
150C
  8
SAPA_PROFIL
 10
11.97583185231055
 20
123.9999999277638
 30
0.0
 42
0.414213562373095
  0
VERTEX
  5
150D
  8
SAPA_PROFIL
 10
11.67583185231056
 20
123.6999999277638
 30
0.0
  0
VERTEX
  5
150E
  8
SAPA_PROFIL
 10
11.67583185231066
 20
123.2499999277638
 30
0.0
  0
VERTEX
  5
150F
  8
SAPA_PROFIL
 10
12.53565658987964
 20
121.76073979668961
 30
0.0
 42
-0.1316363093594254
  0
VERTEX
  5
1510
  8
SAPA_PROFIL
 10
12.57584896813661
 20
121.6107588916429
 30
0.0
  0
VERTEX
  5
1511
  8
SAPA_PROFIL
 10
12.575856017927411
 20
121.4999999277657
 30
0.0
  0
VERTEX
  5
1512
  8
SAPA_PROFIL
 10
10.50000000001114
 20
121.4999999277657
 30
0.0
 42
-0.4142135623730955
  0
VERTEX
  5
1513
  8
SAPA_PROFIL
 10
10.00000000001114
 20
121.9999999277656
 30
0.0
  0
VERTEX
  5
1514
  8
SAPA_PROFIL
 10
10.00000000001114
 20
127.24999992743101
 30
0.0
 42
-0.4142135623730953
  0
VERTEX
  5
1515
  8
SAPA_PROFIL
 10
10.50000000001114
 20
127.74999992743101
 30
0.0
  0
VERTEX
  5
1516
  8
SAPA_PROFIL
 10
11.00000000359454
 20
127.74999992743101
 30
0.0
 42
-0.4142135623730953
  0
VERTEX
  5
1517
  8
SAPA_PROFIL
 10
11.50000000359455
 20
127.24999992743101
 30
0.0
  0
VERTEX
  5
1518
  8
SAPA_PROFIL
 10
11.500000003599091
 20
126.24999992702379
 30
0.0
  0
VERTEX
  5
1519
  8
SAPA_PROFIL
 10
14.70000000405402
 20
126.2499999270196
 30
0.0
  0
VERTEX
  5
151A
  8
SAPA_PROFIL
 10
14.70000000404603
 20
130.7499999279255
 30
0.0
  0
VERTEX
  5
151B
  8
SAPA_PROFIL
 10
-4.7999999999997804
 20
130.7499999279469
 30
0.0
 42
-0.4964147352859417
  0
VERTEX
  5
151C
  8
SAPA_PROFIL
 10
-4.9926307139902688
 20
131.0037903362728
 30
0.0
 42
-0.306467954212033
  0
VERTEX
  5
151D
  8
SAPA_PROFIL
 10
-4.1382327808131647
 20
131.7289068091217
 30
0.0
 42
-0.0272495355296329
  0
VERTEX
  5
151E
  8
SAPA_PROFIL
 10
9.9999999999899547
 20
132.4999999274313
 30
0.0
  0
VERTEX
  5
151F
  8
SAPA_PROFIL
 10
14.99999999990928
 20
132.49999992756921
 30
0.0
 42
-0.4142135623819769
  0
VERTEX
  5
1520
  8
SAPA_PROFIL
 10
18.000000000000231
 20
129.49999992756921
 30
0.0
  0
SEQEND
  5
1521
  8
SAPA_PROFIL
  0
POLYLINE
  5
F9F
  8
SAPA_PROFIL
 66
     1
 10
0.0
 20
0.0
 30
0.0
 70
     1
  0
VERTEX
  5
1522
  8
SAPA_PROFIL
 10
18.00000000000022
 20
93.756130886807597
 30
0.0
 42
0.2418327667417041
  0
VERTEX
  5
1523
  8
SAPA_PROFIL
 10
17.87472232503627
 20
93.999999927757472
 30
0.0
 42
-0.2418327667547422
  0
VERTEX
  5
1524
  8
SAPA_PROFIL
 10
17.749444650060681
 20
94.243868968716498
 30
0.0
  0
VERTEX
  5
1525
  8
SAPA_PROFIL
 10
17.749444650060681
 20
95.199999927751861
 30
0.0
 42
-0.2814258985282543
  0
VERTEX
  5
1526
  8
SAPA_PROFIL
 10
17.91265025118695
 20
95.466996730057105
 30
0.0
 42
0.2814258985233465
  0
VERTEX
  5
1527
  8
SAPA_PROFIL
 10
18.075855852310639
 20
95.733993532352713
 30
0.0
  0
VERTEX
  5
1528
  8
SAPA_PROFIL
 10
18.075855852310159
 20
97.911541887310037
 30
0.0
 42
0.0874886635248791
  0
VERTEX
  5
1529
  8
SAPA_PROFIL
 10
18.057763638546358
 20
98.014147930306564
 30
0.0
  0
VERTEX
  5
152A
  8
SAPA_PROFIL
 10
17.53824957087102
 20
99.441501100351999
 30
0.0
 42
0.4142135623698204
  0
VERTEX
  5
152B
  8
SAPA_PROFIL
 10
17.15373574162885
 20
99.620802843589402
 30
0.0
  0
VERTEX
  5
152C
  8
SAPA_PROFIL
 10
16.965797217480141
 20
99.552398814918334
 30
0.0
 42
0.4142135623730013
  0
VERTEX
  5
152D
  8
SAPA_PROFIL
 10
16.786495474237618
 20
99.167884985696716
 30
0.0
  0
VERTEX
  5
152E
  8
SAPA_PROFIL
 10
17.162717631904311
 20
98.134223102827548
 30
0.0
 42
-0.41421356237947
  0
VERTEX
  5
152F
  8
SAPA_PROFIL
 10
16.983415888653159
 20
97.749709273595982
 30
0.0
  0
VERTEX
  5
1530
  8
SAPA_PROFIL
 10
15.173225809314239
 20
97.090853966360186
 30
0.0
 42
0.3152987888800596
  0
VERTEX
  5
1531
  8
SAPA_PROFIL
 10
14.9758318523109
 20
96.808946180123954
 30
0.0
  0
VERTEX
  5
1532
  8
SAPA_PROFIL
 10
14.975831852311
 20
96.389230412304613
 30
0.0
 42
0.1316524975873857
  0
VERTEX
  5
1533
  8
SAPA_PROFIL
 10
15.016024231175651
 20
96.239230412304693
 30
0.0
  0
VERTEX
  5
1534
  8
SAPA_PROFIL
 10
15.875831852310951
 20
94.749999927763795
 30
0.0
  0
VERTEX
  5
1535
  8
SAPA_PROFIL
 10
15.87584385231062
 20
94.299999927763864
 30
0.0
 42
-0.4142135623731054
  0
VERTEX
  5
1536
  8
SAPA_PROFIL
 10
15.57584385231061
 20
93.999999927763866
 30
0.0
  0
VERTEX
  5
1537
  8
SAPA_PROFIL
 10
11.97583185231055
 20
93.999999927763909
 30
0.0
 42
-0.414213562373095
  0
VERTEX
  5
1538
  8
SAPA_PROFIL
 10
11.67583185231055
 20
94.299999927763906
 30
0.0
  0
VERTEX
  5
1539
  8
SAPA_PROFIL
 10
11.675831852310649
 20
94.749999927763909
 30
0.0
  0
VERTEX
  5
153A
  8
SAPA_PROFIL
 10
12.53565658987964
 20
96.239260058838084
 30
0.0
 42
0.1316363093594254
  0
VERTEX
  5
153B
  8
SAPA_PROFIL
 10
12.575848968136601
 20
96.389240963884845
 30
0.0
  0
VERTEX
  5
153C
  8
SAPA_PROFIL
 10
12.5758560179274
 20
96.499999927762076
 30
0.0
  0
VERTEX
  5
153D
  8
SAPA_PROFIL
 10
10.500000000011131
 20
96.499999927762076
 30
0.0
 42
0.4142135623730955
  0
VERTEX
  5
153E
  8
SAPA_PROFIL
 10
10.000000000011131
 20
95.999999927762062
 30
0.0
  0
VERTEX
  5
153F
  8
SAPA_PROFIL
 10
10.000000000011131
 20
90.749999928096756
 30
0.0
 42
0.4142135623730953
  0
VERTEX
  5
1540
  8
SAPA_PROFIL
 10
10.500000000011131
 20
90.249999928096756
 30
0.0
  0
VERTEX
  5
1541
  8
SAPA_PROFIL
 10
11.00000000359454
 20
90.249999928096756
 30
0.0
 42
0.4142135623730953
  0
VERTEX
  5
1542
  8
SAPA_PROFIL
 10
11.50000000359454
 20
90.749999928096756
 30
0.0
  0
VERTEX
  5
1543
  8
SAPA_PROFIL
 10
11.50000000359908
 20
91.749999928503925
 30
0.0
  0
VERTEX
  5
1544
  8
SAPA_PROFIL
 10
14.70000000405401
 20
91.749999928508103
 30
0.0
  0
VERTEX
  5
1545
  8
SAPA_PROFIL
 10
14.70000000404602
 20
87.249999927602204
 30
0.0
  0
VERTEX
  5
1546
  8
SAPA_PROFIL
 10
-4.7999999999997938
 20
87.249999927580845
 30
0.0
 42
0.4964147352859417
  0
VERTEX
  5
1547
  8
SAPA_PROFIL
 10
-4.992630713990283
 20
86.99620951925489
 30
0.0
 42
0.306467954212033
  0
VERTEX
  5
1548
  8
SAPA_PROFIL
 10
-4.1382327808131789
 20
86.271093046406037
 30
0.0
 42
0.0272495355296329
  0
VERTEX
  5
1549
  8
SAPA_PROFIL
 10
9.9999999999899423
 20
85.4999999280964
 30
0.0
  0
VERTEX
  5
154A
  8
SAPA_PROFIL
 10
14.99999999990926
 20
85.499999927958527
 30
0.0
 42
0.4142135623819769
  0
VERTEX
  5
154B
  8
SAPA_PROFIL
 10
18.00000000000021
 20
88.499999927958484
 30
0.0
  0
SEQEND
  5
154C
  8
SAPA_PROFIL
  0
POLYLINE
  5
FA0
  8
SAPA_PROFIL
 62
     4
 66
     1
 10
0.0
 20
0.0
 30
0.0
 70
     1
  0
VERTEX
  5
FA1
  8
SAPA_PROFIL
 62
     4
 10
14.725843852308589
 20
96.856217710416374
 30
0.0
 42
0.1316524975873979
  0
VERTEX
  5
FA2
  8
SAPA_PROFIL
 62
     4
 10
14.83302352928103
 20
96.45621771041634
 30
0.0
  0
VERTEX
  5
FA3
  8
SAPA_PROFIL
 62
     4
 10
15.825843852310451
 20
94.736602468142294
 30
0.0
  0
VERTEX
  5
FA4
  8
SAPA_PROFIL
 62
     4
 10
15.82584385231055
 20
94.299999927763864
 30
0.0
 42
-0.4142135623730951
  0
VERTEX
  5
FA5
  8
SAPA_PROFIL
 62
     4
 10
15.57584385231055
 20
94.049999927763864
 30
0.0
  0
VERTEX
  5
FA6
  8
SAPA_PROFIL
 62
     4
 10
11.97583185231049
 20
94.049999927763807
 30
0.0
 42
-0.4142135623731053
  0
VERTEX
  5
FA7
  8
SAPA_PROFIL
 62
     4
 10
11.725831852310479
 20
94.299999927763807
 30
0.0
  0
VERTEX
  5
FA8
  8
SAPA_PROFIL
 62
     4
 10
11.72584349504584
 20
94.736601849342279
 30
0.0
  0
VERTEX
  5
FA9
  8
SAPA_PROFIL
 62
     4
 10
12.718664175336119
 20
96.456217710409675
 30
0.0
 42
0.1316524975874149
  0
VERTEX
  5
FAA
  8
SAPA_PROFIL
 62
     4
 10
12.82584385230861
 20
96.856217710409723
 30
0.0
  0
VERTEX
  5
FAB
  8
SAPA_PROFIL
 62
     4
 10
12.825843852308619
 20
121.143782145118
 30
0.0
 42
0.1316524975874151
  0
VERTEX
  5
FAC
  8
SAPA_PROFIL
 62
     4
 10
12.718664175336119
 20
121.543782145118
 30
0.0
  0
VERTEX
  5
FAD
  8
SAPA_PROFIL
 62
     4
 10
11.725843495045851
 20
123.2633980061854
 30
0.0
  0
VERTEX
  5
FAE
  8
SAPA_PROFIL
 62
     4
 10
11.72583185231049
 20
123.6999999277639
 30
0.0
 42
-0.4142135623731054
  0
VERTEX
  5
FAF
  8
SAPA_PROFIL
 62
     4
 10
11.975831852310501
 20
123.9499999277639
 30
0.0
  0
VERTEX
  5
FB0
  8
SAPA_PROFIL
 62
     4
 10
15.575843852310561
 20
123.9499999277638
 30
0.0
 42
-0.4142135623730953
  0
VERTEX
  5
FB1
  8
SAPA_PROFIL
 62
     4
 10
15.82584385231055
 20
123.6999999277639
 30
0.0
  0
VERTEX
  5
FB2
  8
SAPA_PROFIL
 62
     4
 10
15.825843852310459
 20
123.2633973873854
 30
0.0
  0
VERTEX
  5
FB3
  8
SAPA_PROFIL
 62
     4
 10
14.83302352928103
 20
121.54378214511139
 30
0.0
 42
0.1316524975873982
  0
VERTEX
  5
FB4
  8
SAPA_PROFIL
 62
     4
 10
14.7258438523086
 20
121.1437821451113
 30
0.0
  0
SEQEND
  5
FB5
  8
SAPA_PROFIL
 62
     4
  0
POLYLINE
  5
FB6
  8
SAPA_PROFIL
 62
     4
 66
     1
 10
0.0
 20
0.0
 30
-0.2
 70
     1
  0
VERTEX
  5
154D
  8
SAPA_PROFIL
 62
     4
 10
36.592264973109813
 20
96.456217710565625
 30
-0.2
  0
VERTEX
  5
154E
  8
SAPA_PROFIL
 62
     4
 10
35.599444650080379
 20
94.736602468291579
 30
-0.2
  0
VERTEX
  5
154F
  8
SAPA_PROFIL
 62
     4
 10
35.599444650080287
 20
94.29999992791312
 30
-0.2
 42
0.4142135623730951
  0
VERTEX
  5
1550
  8
SAPA_PROFIL
 62
     4
 10
35.849444650080279
 20
94.049999927913134
 30
-0.2
  0
VERTEX
  5
1551
  8
SAPA_PROFIL
 62
     4
 10
39.44945665008035
 20
94.049999927913078
 30
-0.2
 42
0.4142135623731053
  0
VERTEX
  5
1552
  8
SAPA_PROFIL
 62
     4
 10
39.69945665008035
 20
94.299999927913092
 30
-0.2
  0
VERTEX
  5
1553
  8
SAPA_PROFIL
 62
     4
 10
39.699445007344991
 20
94.736601849491549
 30
-0.2
  0
VERTEX
  5
1554
  8
SAPA_PROFIL
 62
     4
 10
38.706624327054719
 20
96.456217710558946
 30
-0.2
 42
-0.1316524975874149
  0
VERTEX
  5
1555
  8
SAPA_PROFIL
 62
     4
 10
38.599444650082219
 20
96.856217710558994
 30
-0.2
  0
VERTEX
  5
1556
  8
SAPA_PROFIL
 62
     4
 10
38.599444650082219
 20
121.14378214526729
 30
-0.2
 42
-0.1316524975874152
  0
VERTEX
  5
1557
  8
SAPA_PROFIL
 62
     4
 10
38.706624327054719
 20
121.5437821452673
 30
-0.2
  0
VERTEX
  5
1558
  8
SAPA_PROFIL
 62
     4
 10
39.699445007344991
 20
123.2633980063347
 30
-0.2
  0
VERTEX
  5
1559
  8
SAPA_PROFIL
 62
     4
 10
39.69945665008035
 20
123.6999999279132
 30
-0.2
 42
0.4142135623731045
  0
VERTEX
  5
155A
  8
SAPA_PROFIL
 62
     4
 10
39.44945665008035
 20
123.9499999279132
 30
-0.2
  0
VERTEX
  5
155B
  8
SAPA_PROFIL
 62
     4
 10
35.849444650080287
 20
123.9499999279131
 30
-0.2
 42
0.4142135623730935
  0
VERTEX
  5
155C
  8
SAPA_PROFIL
 62
     4
 10
35.599444650080287
 20
123.6999999279131
 30
-0.2
  0
VERTEX
  5
155D
  8
SAPA_PROFIL
 62
     4
 10
35.599444650080393
 20
123.2633973875347
 30
-0.2
  0
VERTEX
  5
155E
  8
SAPA_PROFIL
 62
     4
 10
36.59226497310982
 20
121.54378214526059
 30
-0.2
 42
-0.1316524975873982
  0
VERTEX
  5
155F
  8
SAPA_PROFIL
 62
     4
 10
36.699444650082249
 20
121.1437821452606
 30
-0.2
  0
VERTEX
  5
1560
  8
SAPA_PROFIL
 62
     4
 10
36.699444650082242
 20
96.85621771056563
 30
-0.2
 42
-0.1316524975873979
  0
SEQEND
  5
1561
  8
SAPA_PROFIL
 62
     4
  0
POLYLINE
  5
FB7
  8
SAPA_PROFIL
 66
     1
 10
0.0
 20
0.0
 30
0.0
 70
     1
  0
VERTEX
  5
1562
  8
SAPA_PROFIL
 10
2.0000000000204921
 20
161.49999992758569
 30
0.0
  0
VERTEX
  5
1563
  8
SAPA_PROFIL
 10
2.0000000000204921
 20
160.71146095297411
 30
0.0
 42
-0.0577043334240353
  0
VERTEX
  5
1564
  8
SAPA_PROFIL
 10
1.7353819713036669
 20
158.42621744873659
 30
0.0
 42
0.1123270377207732
  0
VERTEX
  5
1565
  8
SAPA_PROFIL
 10
1.583516054202867
 20
136.24125202250619
 30
0.0
 42
0.3636666106259163
  0
VERTEX
  5
1566
  8
SAPA_PROFIL
 10
4.637004045830202
 20
133.88933079964289
 30
0.0
 42
-0.0360286231067385
  0
VERTEX
  5
1567
  8
SAPA_PROFIL
 10
23.338749150973729
 20
133.3138730081038
 30
0.0
 42
-0.0472456768419823
  0
VERTEX
  5
1568
  8
SAPA_PROFIL
 10
25.187819206581509
 20
132.9444200513345
 30
0.0
 42
-0.0120164869908705
  0
VERTEX
  5
1569
  8
SAPA_PROFIL
 10
26.329931278357229
 20
132.57142849920061
 30
0.0
 42
0.0851278882549297
  0
VERTEX
  5
156A
  8
SAPA_PROFIL
 10
29.661903789720359
 20
131.99999992776401
 30
0.0
  0
VERTEX
  5
156B
  8
SAPA_PROFIL
 10
37.000000000049589
 20
131.99999992776401
 30
0.0
 42
-0.4142135623730951
  0
VERTEX
  5
156C
  8
SAPA_PROFIL
 10
42.000000000049589
 20
126.99999992776399
 30
0.0
  0
VERTEX
  5
156D
  8
SAPA_PROFIL
 10
42.000000000038668
 20
124.24386896886389
 30
0.0
 42
-0.2418327667382071
  0
VERTEX
  5
156E
  8
SAPA_PROFIL
 10
41.87472232507249
 20
123.9999999278986
 30
0.0
 42
0.2418327667526432
  0
VERTEX
  5
156F
  8
SAPA_PROFIL
 10
41.749444650079127
 20
123.7561308869623
 30
0.0
  0
VERTEX
  5
1570
  8
SAPA_PROFIL
 10
41.749444650079127
 20
122.7999999279124
 30
0.0
 42
0.3178606011753677
  0
VERTEX
  5
1571
  8
SAPA_PROFIL
 10
41.94946865008037
 20
122.5171487313022
 30
0.0
  0
VERTEX
  5
1572
  8
SAPA_PROFIL
 10
41.94946865008037
 20
120.2141894902868
 30
0.0
 42
-0.6681786379192716
  0
VERTEX
  5
1573
  8
SAPA_PROFIL
 10
40.24236186889388
 20
119.5070827091002
 30
0.0
  0
VERTEX
  5
1574
  8
SAPA_PROFIL
 10
38.937312615724707
 20
120.81213196226921
 30
0.0
 42
-0.1989123673797335
  0
VERTEX
  5
1575
  8
SAPA_PROFIL
 10
38.849444650080599
 20
121.02426399662519
 30
0.0
  0
VERTEX
  5
1576
  8
SAPA_PROFIL
 10
38.849444650080741
 20
121.6107694433724
 30
0.0
 42
-0.1316524975873855
  0
VERTEX
  5
1577
  8
SAPA_PROFIL
 10
38.889637028945387
 20
121.7607694433723
 30
0.0
  0
VERTEX
  5
1578
  8
SAPA_PROFIL
 10
39.74944465008069
 20
123.24999992791319
 30
0.0
  0
VERTEX
  5
1579
  8
SAPA_PROFIL
 10
39.749456650080361
 20
123.6999999279132
 30
0.0
 42
0.4142135623731054
  0
VERTEX
  5
157A
  8
SAPA_PROFIL
 10
39.44945665008035
 20
123.99999992791319
 30
0.0
  0
VERTEX
  5
157B
  8
SAPA_PROFIL
 10
35.849444650080287
 20
123.99999992791309
 30
0.0
 42
0.4142135623730951
  0
VERTEX
  5
157C
  8
SAPA_PROFIL
 10
35.549444650080289
 20
123.6999999279131
 30
0.0
  0
VERTEX
  5
157D
  8
SAPA_PROFIL
 10
35.549444650080389
 20
123.24999992791309
 30
0.0
  0
VERTEX
  5
157E
  8
SAPA_PROFIL
 10
36.409269387649381
 20
121.76073979683891
 30
0.0
 42
-0.1316363093594254
  0
VERTEX
  5
157F
  8
SAPA_PROFIL
 10
36.449461765906342
 20
121.6107588917922
 30
0.0
  0
VERTEX
  5
1580
  8
SAPA_PROFIL
 10
36.449468650080242
 20
121.4999999279064
 30
0.0
  0
VERTEX
  5
1581
  8
SAPA_PROFIL
 10
34.000000000020478
 20
121.49999992791309
 30
0.0
  0
VERTEX
  5
1582
  8
SAPA_PROFIL
 10
31.550531349960728
 20
121.5026019279133
 30
0.0
  0
VERTEX
  5
1583
  8
SAPA_PROFIL
 10
31.550538234134638
 20
121.6107588917922
 30
0.0
 42
-0.1316363093594255
  0
VERTEX
  5
1584
  8
SAPA_PROFIL
 10
31.59073061239161
 20
121.76073979683891
 30
0.0
  0
VERTEX
  5
1585
  8
SAPA_PROFIL
 10
32.450555349960581
 20
123.24999992791309
 30
0.0
  0
VERTEX
  5
1586
  8
SAPA_PROFIL
 10
32.45055534996068
 20
123.6999999279131
 30
0.0
 42
0.4142135623730951
  0
VERTEX
  5
1587
  8
SAPA_PROFIL
 10
32.150555349960683
 20
123.99999992791309
 30
0.0
  0
VERTEX
  5
1588
  8
SAPA_PROFIL
 10
28.55054334996063
 20
123.99999992791319
 30
0.0
 42
0.4142135623731054
  0
VERTEX
  5
1589
  8
SAPA_PROFIL
 10
28.250543349960619
 20
123.6999999279132
 30
0.0
  0
VERTEX
  5
158A
  8
SAPA_PROFIL
 10
28.25055534996028
 20
123.24999992791319
 30
0.0
  0
VERTEX
  5
158B
  8
SAPA_PROFIL
 10
29.11036297109559
 20
121.7607694433723
 30
0.0
 42
-0.1316524975873855
  0
VERTEX
  5
158C
  8
SAPA_PROFIL
 10
29.150555349960229
 20
121.6107694433724
 30
0.0
  0
VERTEX
  5
158D
  8
SAPA_PROFIL
 10
29.150555349960381
 20
121.02426399662519
 30
0.0
 42
-0.1989123673797335
  0
VERTEX
  5
158E
  8
SAPA_PROFIL
 10
29.062687384316259
 20
120.81213196226921
 30
0.0
  0
VERTEX
  5
158F
  8
SAPA_PROFIL
 10
27.75763813114709
 20
119.5070827091002
 30
0.0
 42
-0.6681786379192716
  0
VERTEX
  5
1590
  8
SAPA_PROFIL
 10
26.05053134996059
 20
120.2141894902868
 30
0.0
  0
VERTEX
  5
1591
  8
SAPA_PROFIL
 10
26.05053134996059
 20
122.5171487313026
 30
0.0
 42
0.3178606011750261
  0
VERTEX
  5
1592
  8
SAPA_PROFIL
 10
26.25055534996002
 20
122.7999999279124
 30
0.0
  0
VERTEX
  5
1593
  8
SAPA_PROFIL
 10
26.25055534996002
 20
123.7561308869623
 30
0.0
 42
0.2418327667543857
  0
VERTEX
  5
1594
  8
SAPA_PROFIL
 10
26.12527767497917
 20
123.99999992791319
 30
0.0
 42
-0.2418327667380065
  0
VERTEX
  5
1595
  8
SAPA_PROFIL
 10
25.99999999997587
 20
124.2438689688635
 30
0.0
  0
VERTEX
  5
1596
  8
SAPA_PROFIL
 10
26.000000000020488
 20
124.9999999275857
 30
0.0
 42
-0.4142135623523161
  0
VERTEX
  5
1597
  8
SAPA_PROFIL
 10
26.999999999949541
 20
125.9999999275857
 30
0.0
  0
VERTEX
  5
1598
  8
SAPA_PROFIL
 10
29.500000000178741
 20
125.99999992776399
 30
0.0
 42
0.9999999999627103
  0
VERTEX
  5
1599
  8
SAPA_PROFIL
 10
29.500000000029591
 20
129.99999992776401
 30
0.0
  0
VERTEX
  5
159A
  8
SAPA_PROFIL
 10
21.50000000002958
 20
129.99999992776401
 30
0.0
 42
0.4142135623752261
  0
VERTEX
  5
159B
  8
SAPA_PROFIL
 10
19.50000000002958
 20
127.999999927753
 30
0.0
  0
VERTEX
  5
159C
  8
SAPA_PROFIL
 10
19.50000000004777
 20
126.29999992757411
 30
0.0
 42
0.4142135623715025
  0
VERTEX
  5
159D
  8
SAPA_PROFIL
 10
19.800000000059779
 20
125.9999999275857
 30
0.0
  0
VERTEX
  5
159E
  8
SAPA_PROFIL
 10
20.70000000005032
 20
125.9999999275784
 30
0.0
 42
-0.4142135623730888
  0
VERTEX
  5
159F
  8
SAPA_PROFIL
 10
21.00000000006051
 20
125.6999999275755
 30
0.0
  0
VERTEX
  5
15A0
  8
SAPA_PROFIL
 10
21.00000000006051
 20
125.29999992757411
 30
0.0
 42
-0.4142135623730982
  0
VERTEX
  5
15A1
  8
SAPA_PROFIL
 10
20.70000000005032
 20
124.99999992756391
 30
0.0
  0
VERTEX
  5
15A2
  8
SAPA_PROFIL
 10
18.30000000003977
 20
124.9999999275821
 30
0.0
 42
-0.4142135623624388
  0
VERTEX
  5
15A3
  8
SAPA_PROFIL
 10
18.000000000038678
 20
125.29999992757411
 30
0.0
  0
VERTEX
  5
15A4
  8
SAPA_PROFIL
 10
18.000000000038678
 20
129.49999992758569
 30
0.0
 42
0.4142135623730951
  0
VERTEX
  5
15A5
  8
SAPA_PROFIL
 10
15.00000000002958
 20
132.49999992757481
 30
0.0
  0
VERTEX
  5
15A6
  8
SAPA_PROFIL
 10
10.00000000003867
 20
132.49999992757481
 30
0.0
 42
0.0279290488515987
  0
VERTEX
  5
15A7
  8
SAPA_PROFIL
 10
-4.4891640866531466
 20
131.69003098287499
 30
0.0
 42
0.3661896282372441
  0
VERTEX
  5
15A8
  8
SAPA_PROFIL
 10
-5.1987897655194848
 20
130.93900302266309
 30
0.0
 42
-0.3981911081684388
  0
VERTEX
  5
15A9
  8
SAPA_PROFIL
 10
-5.3984872069099552
 20
130.74999992685241
 30
0.0
  0
VERTEX
  5
15AA
  8
SAPA_PROFIL
 10
-6.2999999999696916
 20
130.74999992685079
 30
0.0
 42
-0.414213562389099
  0
VERTEX
  5
15AB
  8
SAPA_PROFIL
 10
-6.4999999999667821
 20
130.9499999268624
 30
0.0
  0
VERTEX
  5
15AC
  8
SAPA_PROFIL
 10
-6.4999999999795151
 20
131.17605899533331
 30
0.0
 42
-0.3813405017903993
  0
VERTEX
  5
15AD
  8
SAPA_PROFIL
 10
-4.7265624999795071
 20
133.1631849182485
 30
0.0
 42
-0.0014144096544681
  0
VERTEX
  5
15AE
  8
SAPA_PROFIL
 10
-3.9955725729433591
 20
133.24443481107491
 30
0.0
 42
0.309186963272042
  0
VERTEX
  5
15AF
  8
SAPA_PROFIL
 10
-3.1377397825616811
 20
133.97818650342759
 30
0.0
 42
0.1241407988373373
  0
VERTEX
  5
15B0
  8
SAPA_PROFIL
 10
-2.7353819712560248
 20
158.42621744871931
 30
0.0
 42
-0.0577043334222099
  0
VERTEX
  5
15B1
  8
SAPA_PROFIL
 10
-2.9999999999795
 20
160.7114609528758
 30
0.0
  0
VERTEX
  5
15B2
  8
SAPA_PROFIL
 10
-2.9999999999795
 20
161.49999992758561
 30
0.0
 42
-0.4142135623730951
  0
VERTEX
  5
15B3
  8
SAPA_PROFIL
 10
-1.9999999999795
 20
162.49999992758561
 30
0.0
  0
VERTEX
  5
15B4
  8
SAPA_PROFIL
 10
1.0000000000204841
 20
162.49999992758569
 30
0.0
 42
-0.4142135623730951
  0
SEQEND
  5
15B5
  8
SAPA_PROFIL
  0
POLYLINE
  5
FB8
  8
SAPA_PROFIL
 66
     1
 10
0.0
 20
0.0
 30
0.0
 70
     1
  0
VERTEX
  5
15B6
  8
SAPA_PROFIL
 10
20.70000000005032
 20
92.999999928262667
 30
0.0
  0
VERTEX
  5
15B7
  8
SAPA_PROFIL
 10
18.300000000041582
 20
92.999999928240825
 30
0.0
 42
0.4142135623656343
  0
VERTEX
  5
15B8
  8
SAPA_PROFIL
 10
18.00000000004049
 20
92.699999928252481
 30
0.0
  0
VERTEX
  5
15B9
  8
SAPA_PROFIL
 10
18.00000000004049
 20
88.49999992824084
 30
0.0
 42
-0.4142135623730959
  0
VERTEX
  5
15BA
  8
SAPA_PROFIL
 10
15.00000000002958
 20
85.499999928251754
 30
0.0
  0
VERTEX
  5
15BB
  8
SAPA_PROFIL
 10
10.00000000004052
 20
85.499999928251754
 30
0.0
 42
-0.0279290488516059
  0
VERTEX
  5
15BC
  8
SAPA_PROFIL
 10
-4.4891640866516971
 20
86.309968872948133
 30
0.0
 42
-0.3661896282372283
  0
VERTEX
  5
15BD
  8
SAPA_PROFIL
 10
-5.1987897655195141
 20
87.060996833164126
 30
0.0
 42
0.3981911081684177
  0
VERTEX
  5
15BE
  8
SAPA_PROFIL
 10
-5.3984872069081504
 20
87.249999928972258
 30
0.0
  0
VERTEX
  5
15BF
  8
SAPA_PROFIL
 10
-6.2999999999697058
 20
87.249999928975697
 30
0.0
 42
0.4142135623890976
  0
VERTEX
  5
15C0
  8
SAPA_PROFIL
 10
-6.4999999999704343
 20
87.04999992896407
 30
0.0
  0
VERTEX
  5
15C1
  8
SAPA_PROFIL
 10
-6.4999999999777236
 20
86.823940860493124
 30
0.0
 42
0.3813405017904005
  0
VERTEX
  5
15C2
  8
SAPA_PROFIL
 10
-4.7265624999777174
 20
84.836814937581636
 30
0.0
 42
0.0541306776717632
  0
VERTEX
  5
15C3
  8
SAPA_PROFIL
 10
23.33874915109195
 20
84.686126847730606
 30
0.0
 42
0.0472456768419794
  0
VERTEX
  5
15C4
  8
SAPA_PROFIL
 10
25.187819206586362
 20
85.055579804499388
 30
0.0
 42
0.0120164869908679
  0
VERTEX
  5
15C5
  8
SAPA_PROFIL
 10
26.32993127835578
 20
85.42857135663057
 30
0.0
 42
-0.0851278882549295
  0
VERTEX
  5
15C6
  8
SAPA_PROFIL
 10
29.661903789722171
 20
85.999999928066217
 30
0.0
  0
VERTEX
  5
15C7
  8
SAPA_PROFIL
 10
37.000000000051408
 20
85.999999928066217
 30
0.0
 42
0.4142135623730951
  0
VERTEX
  5
15C8
  8
SAPA_PROFIL
 10
42.000000000051401
 20
90.999999928066217
 30
0.0
  0
VERTEX
  5
15C9
  8
SAPA_PROFIL
 10
42.000000000040487
 20
93.756130886966247
 30
0.0
 42
0.2418327667382104
  0
VERTEX
  5
15CA
  8
SAPA_PROFIL
 10
41.87472232507141
 20
93.999999927930077
 30
0.0
 42
-0.241832766754381
  0
VERTEX
  5
15CB
  8
SAPA_PROFIL
 10
41.749444650080953
 20
94.243868968864234
 30
0.0
  0
VERTEX
  5
15CC
  8
SAPA_PROFIL
 10
41.749444650080953
 20
95.199999927914149
 30
0.0
 42
-0.3178606011698609
  0
VERTEX
  5
15CD
  8
SAPA_PROFIL
 10
41.949468650075069
 20
95.482851124522071
 30
0.0
  0
VERTEX
  5
15CE
  8
SAPA_PROFIL
 10
41.949468650075069
 20
97.785810365546965
 30
0.0
 42
0.6681786379192716
  0
VERTEX
  5
15CF
  8
SAPA_PROFIL
 10
40.242361868888267
 20
98.492917146732836
 30
0.0
  0
VERTEX
  5
15D0
  8
SAPA_PROFIL
 10
38.937312615719677
 20
97.187867893563265
 30
0.0
 42
0.1989123673797334
  0
VERTEX
  5
15D1
  8
SAPA_PROFIL
 10
38.849444650075647
 20
96.975735859207163
 30
0.0
  0
VERTEX
  5
15D2
  8
SAPA_PROFIL
 10
38.849444650076052
 20
96.389230412459966
 30
0.0
 42
0.1316524975873855
  0
VERTEX
  5
15D3
  8
SAPA_PROFIL
 10
38.889637028940761
 20
96.239230412460074
 30
0.0
  0
VERTEX
  5
15D4
  8
SAPA_PROFIL
 10
39.749444650076732
 20
94.749999927919546
 30
0.0
  0
VERTEX
  5
15D5
  8
SAPA_PROFIL
 10
39.749456650076588
 20
94.299999927919615
 30
0.0
 42
-0.4142135623731054
  0
VERTEX
  5
15D6
  8
SAPA_PROFIL
 10
39.449456650076712
 20
93.999999927919475
 30
0.0
  0
VERTEX
  5
15D7
  8
SAPA_PROFIL
 10
35.849444650076649
 20
93.999999927917941
 30
0.0
 42
-0.4142135623730951
  0
VERTEX
  5
15D8
  8
SAPA_PROFIL
 10
35.549444650076531
 20
94.29999992791781
 30
0.0
  0
VERTEX
  5
15D9
  8
SAPA_PROFIL
 10
35.549444650076417
 20
94.749999927917784
 30
0.0
  0
VERTEX
  5
15DA
  8
SAPA_PROFIL
 10
36.409269387644748
 20
96.239260058992343
 30
0.0
 42
0.1316363093594257
  0
VERTEX
  5
15DB
  8
SAPA_PROFIL
 10
36.449461765901653
 20
96.389240964039104
 30
0.0
  0
VERTEX
  5
15DC
  8
SAPA_PROFIL
 10
36.449464137710272
 20
96.499999927924804
 30
0.0
  0
VERTEX
  5
15DD
  8
SAPA_PROFIL
 10
31.550536424988671
 20
96.499999927909315
 30
0.0
  0
VERTEX
  5
15DE
  8
SAPA_PROFIL
 10
31.550538234134631
 20
96.389240964034045
 30
0.0
 42
0.1316363093594255
  0
VERTEX
  5
15DF
  8
SAPA_PROFIL
 10
31.590730612391599
 20
96.239260058987313
 30
0.0
  0
VERTEX
  5
15E0
  8
SAPA_PROFIL
 10
32.450555349960581
 20
94.749999927913137
 30
0.0
  0
VERTEX
  5
15E1
  8
SAPA_PROFIL
 10
32.45055534996068
 20
94.299999927913134
 30
0.0
 42
-0.4142135623730951
  0
VERTEX
  5
15E2
  8
SAPA_PROFIL
 10
32.150555349960683
 20
93.999999927913123
 30
0.0
  0
VERTEX
  5
15E3
  8
SAPA_PROFIL
 10
28.55054334996062
 20
93.99999992791308
 30
0.0
 42
-0.4142135623731054
  0
VERTEX
  5
15E4
  8
SAPA_PROFIL
 10
28.250543349960619
 20
94.299999927913092
 30
0.0
  0
VERTEX
  5
15E5
  8
SAPA_PROFIL
 10
28.25055534996028
 20
94.749999927913024
 30
0.0
  0
VERTEX
  5
15E6
  8
SAPA_PROFIL
 10
29.11036297109559
 20
96.239230412453907
 30
0.0
 42
0.1316524975873855
  0
VERTEX
  5
15E7
  8
SAPA_PROFIL
 10
29.150555349960229
 20
96.389230412453841
 30
0.0
  0
VERTEX
  5
15E8
  8
SAPA_PROFIL
 10
29.150555349960371
 20
96.975735859201023
 30
0.0
 42
0.1989123673797335
  0
VERTEX
  5
15E9
  8
SAPA_PROFIL
 10
29.062687384316249
 20
97.187867893557112
 30
0.0
  0
VERTEX
  5
15EA
  8
SAPA_PROFIL
 10
27.757638131147079
 20
98.492917146726086
 30
0.0
 42
0.6681786379192716
  0
VERTEX
  5
15EB
  8
SAPA_PROFIL
 10
26.05053134996059
 20
97.785810365539476
 30
0.0
  0
VERTEX
  5
15EC
  8
SAPA_PROFIL
 10
26.05053134996059
 20
95.482851124527429
 30
0.0
 42
-0.3178606011758647
  0
VERTEX
  5
15ED
  8
SAPA_PROFIL
 10
26.250555349961839
 20
95.199999927914149
 30
0.0
  0
VERTEX
  5
15EE
  8
SAPA_PROFIL
 10
26.25055534996002
 20
94.243868968864234
 30
0.0
 42
-0.2418327667526379
  0
VERTEX
  5
15EF
  8
SAPA_PROFIL
 10
26.125277674981369
 20
93.999999927913592
 30
0.0
 42
0.2418327667380031
  0
VERTEX
  5
15F0
  8
SAPA_PROFIL
 10
25.9999999999777
 20
93.756130886962964
 30
0.0
  0
VERTEX
  5
15F1
  8
SAPA_PROFIL
 10
26.000000000022311
 20
92.999999928240825
 30
0.0
 42
0.4142135623709635
  0
VERTEX
  5
15F2
  8
SAPA_PROFIL
 10
27.0000000000223
 20
91.99999992824084
 30
0.0
  0
VERTEX
  5
15F3
  8
SAPA_PROFIL
 10
29.500000000178741
 20
91.999999928066217
 30
0.0
 42
-0.9999999999627103
  0
VERTEX
  5
15F4
  8
SAPA_PROFIL
 10
29.50000000002958
 20
87.999999928066217
 30
0.0
  0
VERTEX
  5
15F5
  8
SAPA_PROFIL
 10
21.500000000029591
 20
87.999999928066217
 30
0.0
 42
-0.4142135623752264
  0
VERTEX
  5
15F6
  8
SAPA_PROFIL
 10
19.50000000002958
 20
89.999999928073493
 30
0.0
  0
VERTEX
  5
15F7
  8
SAPA_PROFIL
 10
19.500000000051411
 20
91.699999928249184
 30
0.0
 42
-0.4142135623762961
  0
VERTEX
  5
15F8
  8
SAPA_PROFIL
 10
19.800000000059772
 20
91.99999992824084
 30
0.0
  0
VERTEX
  5
15F9
  8
SAPA_PROFIL
 10
20.70000000005032
 20
91.999999928251739
 30
0.0
 42
0.4142135623730957
  0
VERTEX
  5
15FA
  8
SAPA_PROFIL
 10
21.000000000060499
 20
92.299999928251026
 30
0.0
  0
VERTEX
  5
15FB
  8
SAPA_PROFIL
 10
21.000000000060499
 20
92.699999928252481
 30
0.0
 42
0.4142135623730922
  0
SEQEND
  5
15FC
  8
SAPA_PROFIL
  0
POLYLINE
  5
FB9
  8
SAPA_PROFIL
 62
     4
 66
     1
 10
0.0
 20
0.0
 30
-0.2
 70
     1
  0
VERTEX
  5
FBA
  8
SAPA_PROFIL
 62
     4
 10
31.300555349958721
 20
96.85621771056563
 30
-0.2
 42
0.1316524975873979
  0
VERTEX
  5
FBB
  8
SAPA_PROFIL
 62
     4
 10
31.40773502693116
 20
96.456217710565625
 30
-0.2
  0
VERTEX
  5
FBC
  8
SAPA_PROFIL
 62
     4
 10
32.400555349960577
 20
94.736602468291579
 30
-0.2
  0
VERTEX
  5
FBD
  8
SAPA_PROFIL
 62
     4
 10
32.40055534996069
 20
94.29999992791312
 30
-0.2
 42
-0.4142135623730951
  0
VERTEX
  5
FBE
  8
SAPA_PROFIL
 62
     4
 10
32.150555349960683
 20
94.049999927913134
 30
-0.2
  0
VERTEX
  5
FBF
  8
SAPA_PROFIL
 62
     4
 10
28.55054334996062
 20
94.049999927913078
 30
-0.2
 42
-0.4142135623731053
  0
VERTEX
  5
FC0
  8
SAPA_PROFIL
 62
     4
 10
28.300543349960609
 20
94.299999927913092
 30
-0.2
  0
VERTEX
  5
FC1
  8
SAPA_PROFIL
 62
     4
 10
28.300554992695979
 20
94.736601849491549
 30
-0.2
  0
VERTEX
  5
FC2
  8
SAPA_PROFIL
 62
     4
 10
29.293375672986251
 20
96.456217710558946
 30
-0.2
 42
0.1316524975874149
  0
VERTEX
  5
FC3
  8
SAPA_PROFIL
 62
     4
 10
29.40055534995874
 20
96.856217710558994
 30
-0.2
  0
VERTEX
  5
FC4
  8
SAPA_PROFIL
 62
     4
 10
29.40055534995874
 20
121.14378214526729
 30
-0.2
 42
0.1316524975874151
  0
VERTEX
  5
FC5
  8
SAPA_PROFIL
 62
     4
 10
29.293375672986251
 20
121.5437821452673
 30
-0.2
  0
VERTEX
  5
FC6
  8
SAPA_PROFIL
 62
     4
 10
28.300554992695979
 20
123.2633980063347
 30
-0.2
  0
VERTEX
  5
FC7
  8
SAPA_PROFIL
 62
     4
 10
28.300543349960609
 20
123.6999999279132
 30
-0.2
 42
-0.4142135623731054
  0
VERTEX
  5
FC8
  8
SAPA_PROFIL
 62
     4
 10
28.55054334996062
 20
123.9499999279132
 30
-0.2
  0
VERTEX
  5
FC9
  8
SAPA_PROFIL
 62
     4
 10
32.150555349960683
 20
123.9499999279131
 30
-0.2
 42
-0.4142135623730953
  0
VERTEX
  5
FCA
  8
SAPA_PROFIL
 62
     4
 10
32.40055534996069
 20
123.6999999279131
 30
-0.2
  0
VERTEX
  5
FCB
  8
SAPA_PROFIL
 62
     4
 10
32.400555349960577
 20
123.2633973875347
 30
-0.2
  0
VERTEX
  5
FCC
  8
SAPA_PROFIL
 62
     4
 10
31.40773502693116
 20
121.54378214526059
 30
-0.2
 42
0.1316524975873982
  0
VERTEX
  5
FCD
  8
SAPA_PROFIL
 62
     4
 10
31.300555349958721
 20
121.1437821452606
 30
-0.2
  0
SEQEND
  5
FCE
  8
SAPA_PROFIL
 62
     4
  0
POLYLINE
  5
FCF
  8
SAPA_PROFIL
 62
     4
 66
     1
 10
0.0
 20
0.0
 30
0.0
 70
     1
  0
VERTEX
  5
15FD
  8
SAPA_PROFIL
 62
     4
 10
79.50925230370224
 20
64.725833080859388
 30
0.0
  0
VERTEX
  5
15FE
  8
SAPA_PROFIL
 62
     4
 10
78.64944465005992
 20
63.236602540014189
 30
0.0
  0
VERTEX
  5
15FF
  8
SAPA_PROFIL
 62
     4
 10
78.64944465005982
 20
62.79999999963573
 30
0.0
 42
0.4142135623730946
  0
VERTEX
  5
1600
  8
SAPA_PROFIL
 62
     4
 10
78.89944465005982
 20
62.549999999635759
 30
0.0
  0
VERTEX
  5
1601
  8
SAPA_PROFIL
 62
     4
 10
82.499456650059884
 20
62.549999999635702
 30
0.0
 42
0.414213562373107
  0
VERTEX
  5
1602
  8
SAPA_PROFIL
 62
     4
 10
82.749456650059884
 20
62.799999999635702
 30
0.0
  0
VERTEX
  5
1603
  8
SAPA_PROFIL
 62
     4
 10
82.749445007324525
 20
63.236601921214167
 30
0.0
  0
VERTEX
  5
1604
  8
SAPA_PROFIL
 62
     4
 10
81.889637061431529
 20
64.725832968251865
 30
0.0
 42
-0.1316524975874248
  0
VERTEX
  5
1605
  8
SAPA_PROFIL
 62
     4
 10
81.849444682566855
 20
64.875832968251899
 30
0.0
  0
VERTEX
  5
1606
  8
SAPA_PROFIL
 62
     4
 10
81.84944468256684
 20
88.124166959503157
 30
0.0
 42
-0.1316524975874248
  0
VERTEX
  5
1607
  8
SAPA_PROFIL
 62
     4
 10
81.889637061431529
 20
88.274166959503191
 30
0.0
  0
VERTEX
  5
1608
  8
SAPA_PROFIL
 62
     4
 10
82.749445007324496
 20
89.763398006540882
 30
0.0
  0
VERTEX
  5
1609
  8
SAPA_PROFIL
 62
     4
 10
82.749456650059855
 20
90.199999928119325
 30
0.0
 42
0.4142135623731049
  0
VERTEX
  5
160A
  8
SAPA_PROFIL
 62
     4
 10
82.499456650059855
 20
90.449999928119325
 30
0.0
  0
VERTEX
  5
160B
  8
SAPA_PROFIL
 62
     4
 10
78.899444650059806
 20
90.449999928119297
 30
0.0
 42
0.4142135623730951
  0
VERTEX
  5
160C
  8
SAPA_PROFIL
 62
     4
 10
78.649444650059806
 20
90.199999928119297
 30
0.0
  0
VERTEX
  5
160D
  8
SAPA_PROFIL
 62
     4
 10
78.649444650059905
 20
89.763397387740838
 30
0.0
  0
VERTEX
  5
160E
  8
SAPA_PROFIL
 62
     4
 10
79.509252303702155
 20
88.274166846895724
 30
0.0
 42
-0.1316524975873867
  0
VERTEX
  5
160F
  8
SAPA_PROFIL
 62
     4
 10
79.549444682566843
 20
88.124166846895747
 30
0.0
  0
VERTEX
  5
1610
  8
SAPA_PROFIL
 62
     4
 10
79.5494446825669
 20
64.875833080859366
 30
0.0
 42
-0.1316524975873873
  0
SEQEND
  5
1611
  8
SAPA_PROFIL
 62
     4
  0
POLYLINE
  5
FD0
  8
SAPA_PROFIL
 66
     1
 10
0.0
 20
0.0
 30
0.0
 70
     1
  0
VERTEX
  5
1612
  8
SAPA_PROFIL
 10
35.000000000032763
 20
17.300000000010311
 30
0.0
 42
-0.4142135623624294
  0
VERTEX
  5
1613
  8
SAPA_PROFIL
 10
35.200000000008011
 20
17.500000000000099
 30
0.0
  0
VERTEX
  5
1614
  8
SAPA_PROFIL
 10
36.05000000000657
 20
17.500000000014651
 30
0.0
 42
0.4142135623730744
  0
VERTEX
  5
1615
  8
SAPA_PROFIL
 10
36.250000000007297
 20
17.700000000019021
 30
0.0
  0
VERTEX
  5
1616
  8
SAPA_PROFIL
 10
36.250000000000007
 20
18.000000000000131
 30
0.0
 42
0.4142135623731035
  0
VERTEX
  5
1617
  8
SAPA_PROFIL
 10
35.750000000000007
 20
18.500000000000131
 30
0.0
  0
VERTEX
  5
1618
  8
SAPA_PROFIL
 10
32.750000000000007
 20
18.500000000000131
 30
0.0
 42
0.4142135623731035
  0
VERTEX
  5
1619
  8
SAPA_PROFIL
 10
32.250000000000007
 20
18.000000000000131
 30
0.0
  0
VERTEX
  5
161A
  8
SAPA_PROFIL
 10
32.250000000000007
 20
17.700000000004461
 30
0.0
 42
0.4142135623730744
  0
VERTEX
  5
161B
  8
SAPA_PROFIL
 10
32.450000000000749
 20
17.500000000000099
 30
0.0
  0
VERTEX
  5
161C
  8
SAPA_PROFIL
 10
33.300000000002932
 20
17.500000000011038
 30
0.0
 42
-0.4142135623730534
  0
VERTEX
  5
161D
  8
SAPA_PROFIL
 10
33.500000000000007
 20
17.300000000010311
 30
0.0
  0
VERTEX
  5
161E
  8
SAPA_PROFIL
 10
33.500000000000007
 20
16.300000000010311
 30
0.0
 42
-0.4142135623731035
  0
VERTEX
  5
161F
  8
SAPA_PROFIL
 10
33.000000000000007
 20
15.800000000010311
 30
0.0
  0
VERTEX
  5
1620
  8
SAPA_PROFIL
 10
27.000000000000021
 20
15.800000000010311
 30
0.0
 42
-0.4142135623731033
  0
VERTEX
  5
1621
  8
SAPA_PROFIL
 10
26.500000000000021
 20
16.300000000010311
 30
0.0
  0
VERTEX
  5
1622
  8
SAPA_PROFIL
 10
26.500000000010939
 20
17.300000000010311
 30
0.0
 42
-0.414213562373064
  0
VERTEX
  5
1623
  8
SAPA_PROFIL
 10
26.700000000000749
 20
17.500000000000099
 30
0.0
  0
VERTEX
  5
1624
  8
SAPA_PROFIL
 10
27.550000000002932
 20
17.500000000000099
 30
0.0
 42
0.414213562373064
  0
VERTEX
  5
1625
  8
SAPA_PROFIL
 10
27.750000000000021
 20
17.700000000004461
 30
0.0
  0
VERTEX
  5
1626
  8
SAPA_PROFIL
 10
27.750000000000021
 20
18.000000000000131
 30
0.0
 42
0.4142135623731035
  0
VERTEX
  5
1627
  8
SAPA_PROFIL
 10
27.250000000000021
 20
18.500000000000131
 30
0.0
  0
VERTEX
  5
1628
  8
SAPA_PROFIL
 10
25.500000000000021
 20
18.500000000000131
 30
0.0
 42
0.4142135623731035
  0
VERTEX
  5
1629
  8
SAPA_PROFIL
 10
25.000000000000021
 20
18.000000000000131
 30
0.0
  0
VERTEX
  5
162A
  8
SAPA_PROFIL
 10
25.000000000000021
 20
15.50000000000013
 30
0.0
 42
0.4142135623730966
  0
VERTEX
  5
162B
  8
SAPA_PROFIL
 10
26.500000000000021
 20
14.000000000000099
 30
0.0
  0
VERTEX
  5
162C
  8
SAPA_PROFIL
 10
84.700000000000728
 20
14.00000000000011
 30
0.0
 42
0.4142135623730935
  0
VERTEX
  5
162D
  8
SAPA_PROFIL
 10
85.000000000000014
 20
14.3000000000103
 30
0.0
  0
VERTEX
  5
162E
  8
SAPA_PROFIL
 10
85.000000000000014
 20
62.256130958696417
 30
0.0
 42
0.2418327667378115
  0
VERTEX
  5
162F
  8
SAPA_PROFIL
 10
84.874722325032906
 20
62.499999999634809
 30
0.0
 42
-0.2418327667509125
  0
VERTEX
  5
1630
  8
SAPA_PROFIL
 10
84.749444650060482
 20
62.743869040590774
 30
0.0
  0
VERTEX
  5
1631
  8
SAPA_PROFIL
 10
84.749444650056844
 20
63.699999999640681
 30
0.0
 42
-0.2418327667448973
  0
VERTEX
  5
1632
  8
SAPA_PROFIL
 10
84.87472232502526
 20
63.943869040595622
 30
0.0
 42
0.2418327667448979
  0
VERTEX
  5
1633
  8
SAPA_PROFIL
 10
84.999999999992454
 20
64.187738081548218
 30
0.0
  0
VERTEX
  5
1634
  8
SAPA_PROFIL
 10
84.999999999992454
 20
66.285810437266178
 30
0.0
 42
0.6681786379192718
  0
VERTEX
  5
1635
  8
SAPA_PROFIL
 10
83.292893218805958
 20
66.992917218452789
 30
0.0
  0
VERTEX
  5
1636
  8
SAPA_PROFIL
 10
81.987843965636785
 20
65.687867965283829
 30
0.0
 42
0.1989123673797335
  0
VERTEX
  5
1637
  8
SAPA_PROFIL
 10
81.899975999992677
 20
65.475735930927755
 30
0.0
  0
VERTEX
  5
1638
  8
SAPA_PROFIL
 10
81.899975999992819
 20
64.889230484180558
 30
0.0
 42
0.1316524975873855
  0
VERTEX
  5
1639
  8
SAPA_PROFIL
 10
81.940168378857464
 20
64.739230484180638
 30
0.0
  0
VERTEX
  5
163A
  8
SAPA_PROFIL
 10
82.799975999992753
 20
63.249999999639748
 30
0.0
  0
VERTEX
  5
163B
  8
SAPA_PROFIL
 10
82.799987999992425
 20
62.799999999639802
 30
0.0
 42
-0.4142135623731054
  0
VERTEX
  5
163C
  8
SAPA_PROFIL
 10
82.499987999992427
 20
62.49999999963979
 30
0.0
  0
VERTEX
  5
163D
  8
SAPA_PROFIL
 10
78.899975999992364
 20
62.49999999963984
 30
0.0
 42
-0.4142135623730951
  0
VERTEX
  5
163E
  8
SAPA_PROFIL
 10
78.599975999992367
 20
62.799999999639851
 30
0.0
  0
VERTEX
  5
163F
  8
SAPA_PROFIL
 10
78.599975999992466
 20
63.24999999963984
 30
0.0
  0
VERTEX
  5
1640
  8
SAPA_PROFIL
 10
79.459800737561451
 20
64.739260130714001
 30
0.0
 42
0.1316363093594257
  0
VERTEX
  5
1641
  8
SAPA_PROFIL
 10
79.499993115818413
 20
64.889241035760762
 30
0.0
  0
VERTEX
  5
1642
  8
SAPA_PROFIL
 10
79.500000165609222
 20
64.999999999643592
 30
0.0
  0
VERTEX
  5
1643
  8
SAPA_PROFIL
 10
77.914359353937485
 20
64.999999999643592
 30
0.0
 42
0.2679491924308306
  0
VERTEX
  5
1644
  8
SAPA_PROFIL
 10
77.048333950158863
 20
64.499999999643592
 30
0.0
  0
VERTEX
  5
1645
  8
SAPA_PROFIL
 10
76.037970979080384
 20
62.749999999643137
 30
0.0
 42
-0.2679491924308306
  0
VERTEX
  5
1646
  8
SAPA_PROFIL
 10
75.60495827718843
 20
62.499999999643592
 30
0.0
  0
VERTEX
  5
1647
  8
SAPA_PROFIL
 10
74.39504172280796
 20
62.499999999643592
 30
0.0
 42
-0.2679491924308304
  0
VERTEX
  5
1648
  8
SAPA_PROFIL
 10
73.96202902091683
 20
62.749999999643592
 30
0.0
  0
VERTEX
  5
1649
  8
SAPA_PROFIL
 10
72.951666049841165
 20
64.499999999643592
 30
0.0
 42
0.2679491924308308
  0
VERTEX
  5
164A
  8
SAPA_PROFIL
 10
72.085640646055268
 20
64.999999999641716
 30
0.0
  0
VERTEX
  5
164B
  8
SAPA_PROFIL
 10
70.499999834387154
 20
64.999999999643876
 30
0.0
  0
VERTEX
  5
164C
  8
SAPA_PROFIL
 10
70.500006884177978
 20
64.889241035760762
 30
0.0
 42
0.1316363093594255
  0
VERTEX
  5
164D
  8
SAPA_PROFIL
 10
70.540199262434939
 20
64.739260130714001
 30
0.0
  0
VERTEX
  5
164E
  8
SAPA_PROFIL
 10
71.400024000003924
 20
63.24999999963984
 30
0.0
  0
VERTEX
  5
164F
  8
SAPA_PROFIL
 10
71.400024000004024
 20
62.799999999639851
 30
0.0
 42
-0.4142135623730951
  0
VERTEX
  5
1650
  8
SAPA_PROFIL
 10
71.100024000004026
 20
62.49999999963984
 30
0.0
  0
VERTEX
  5
1651
  8
SAPA_PROFIL
 10
67.500012000003963
 20
62.49999999963979
 30
0.0
 42
-0.4142135623731054
  0
VERTEX
  5
1652
  8
SAPA_PROFIL
 10
67.200012000003966
 20
62.799999999639802
 30
0.0
  0
VERTEX
  5
1653
  8
SAPA_PROFIL
 10
67.200024000003623
 20
63.249999999639748
 30
0.0
  0
VERTEX
  5
1654
  8
SAPA_PROFIL
 10
68.059831621138926
 20
64.739230484180638
 30
0.0
 42
0.1316524975873855
  0
VERTEX
  5
1655
  8
SAPA_PROFIL
 10
68.100024000003572
 20
64.889230484180558
 30
0.0
  0
VERTEX
  5
1656
  8
SAPA_PROFIL
 10
68.100024000003714
 20
65.475735930927755
 30
0.0
 42
0.1989123673797335
  0
VERTEX
  5
1657
  8
SAPA_PROFIL
 10
68.012156034359606
 20
65.687867965283829
 30
0.0
  0
VERTEX
  5
1658
  8
SAPA_PROFIL
 10
66.707106781190433
 20
66.992917218452789
 30
0.0
 42
0.6681786379192716
  0
VERTEX
  5
1659
  8
SAPA_PROFIL
 10
65.000000000003936
 20
66.285810437266178
 30
0.0
  0
VERTEX
  5
165A
  8
SAPA_PROFIL
 10
65.000000000003936
 20
64.187738081546485
 30
0.0
 42
0.2418327667433386
  0
VERTEX
  5
165B
  8
SAPA_PROFIL
 10
65.125277674969695
 20
63.943869040594933
 30
0.0
 42
-0.2418327667449431
  0
VERTEX
  5
165C
  8
SAPA_PROFIL
 10
65.250555349935894
 20
63.699999999640681
 30
0.0
  0
VERTEX
  5
165D
  8
SAPA_PROFIL
 10
65.250555349939546
 20
62.743869040590774
 30
0.0
 42
-0.2418327667509097
  0
VERTEX
  5
165E
  8
SAPA_PROFIL
 10
65.125277674957132
 20
62.499999999643649
 30
0.0
 42
0.2418327667378167
  0
VERTEX
  5
165F
  8
SAPA_PROFIL
 10
65.000000000003936
 20
62.256130958696417
 30
0.0
  0
VERTEX
  5
1660
  8
SAPA_PROFIL
 10
64.999999999985462
 20
60.443389324929854
 30
0.0
 42
0.1095178116817878
  0
VERTEX
  5
1661
  8
SAPA_PROFIL
 10
65.187384425907297
 20
59.598152801458859
 30
0.0
  0
VERTEX
  5
1662
  8
SAPA_PROFIL
 10
67.812615574068346
 20
53.968326436319437
 30
0.0
 42
-0.1095178116855129
  0
VERTEX
  5
1663
  8
SAPA_PROFIL
 10
68.000000000000014
 20
53.123089912835098
 30
0.0
  0
VERTEX
  5
1664
  8
SAPA_PROFIL
 10
68.00000000000729
 20
45.999999999658137
 30
0.0
 42
-0.4142135623730957
  0
VERTEX
  5
1665
  8
SAPA_PROFIL
 10
67.499999999985462
 20
45.499999999658137
 30
0.0
  0
VERTEX
  5
1666
  8
SAPA_PROFIL
 10
66.499999999985462
 20
45.499999999658137
 30
0.0
 42
-0.4142135623730915
  0
VERTEX
  5
1667
  8
SAPA_PROFIL
 10
65.999999999985462
 20
45.999999999658137
 30
0.0
  0
VERTEX
  5
1668
  8
SAPA_PROFIL
 10
65.999999999985462
 20
46.291287847139863
 30
0.0
 42
0.2982166266909514
  0
VERTEX
  5
1669
  8
SAPA_PROFIL
 10
65.699999999998354
 20
46.749545416629807
 30
0.0
 42
1.5275252316550829
  0
VERTEX
  5
166A
  8
SAPA_PROFIL
 10
65.699999999998454
 20
41.250454582702361
 30
0.0
 42
0.2982166266892446
  0
VERTEX
  5
166B
  8
SAPA_PROFIL
 10
65.999999999976126
 20
41.708712152169142
 30
0.0
  0
VERTEX
  5
166C
  8
SAPA_PROFIL
 10
65.999999999985462
 20
41.999999999658137
 30
0.0
 42
-0.4142135623730915
  0
VERTEX
  5
166D
  8
SAPA_PROFIL
 10
66.499999999985462
 20
42.499999999658137
 30
0.0
  0
VERTEX
  5
166E
  8
SAPA_PROFIL
 10
67.499999999985462
 20
42.499999999658137
 30
0.0
 42
-0.4142135623730918
  0
VERTEX
  5
166F
  8
SAPA_PROFIL
 10
67.999999999985462
 20
41.999999999658137
 30
0.0
  0
VERTEX
  5
1670
  8
SAPA_PROFIL
 10
67.999999999985462
 20
23.0769100868057
 30
0.0
 42
-0.1095178116838485
  0
VERTEX
  5
1671
  8
SAPA_PROFIL
 10
67.812615574065546
 20
22.231673563315901
 30
0.0
  0
VERTEX
  5
1672
  8
SAPA_PROFIL
 10
65.538475052471782
 20
17.35476347652741
 30
0.0
 42
-0.2914734195858569
  0
VERTEX
  5
1673
  8
SAPA_PROFIL
 10
63.725859478388891
 20
16.200000000004479
 30
0.0
  0
VERTEX
  5
1674
  8
SAPA_PROFIL
 10
44.00000000000729
 20
16.200000000004461
 30
0.0
 42
-0.4142135623730951
  0
VERTEX
  5
1675
  8
SAPA_PROFIL
 10
43.50000000000729
 20
16.700000000004461
 30
0.0
  0
VERTEX
  5
1676
  8
SAPA_PROFIL
 10
43.50000000000729
 20
17.000000000021931
 30
0.0
 42
-0.4142135623731035
  0
VERTEX
  5
1677
  8
SAPA_PROFIL
 10
44.00000000000729
 20
17.500000000021931
 30
0.0
  0
VERTEX
  5
1678
  8
SAPA_PROFIL
 10
45.30000000000657
 20
17.500000000021931
 30
0.0
 42
0.4142135623730744
  0
VERTEX
  5
1679
  8
SAPA_PROFIL
 10
45.500000000010942
 20
17.700000000019021
 30
0.0
  0
VERTEX
  5
167A
  8
SAPA_PROFIL
 10
45.500000000007283
 20
18.00000000002192
 30
0.0
 42
0.4142135623731035
  0
VERTEX
  5
167B
  8
SAPA_PROFIL
 10
45.000000000007297
 20
18.500000000021931
 30
0.0
  0
VERTEX
  5
167C
  8
SAPA_PROFIL
 10
41.250000000007297
 20
18.500000000000131
 30
0.0
 42
0.4142135623731035
  0
VERTEX
  5
167D
  8
SAPA_PROFIL
 10
40.750000000007297
 20
18.000000000000131
 30
0.0
  0
VERTEX
  5
167E
  8
SAPA_PROFIL
 10
40.750000000007297
 20
17.700000000004461
 30
0.0
 42
0.4142135623731159
  0
VERTEX
  5
167F
  8
SAPA_PROFIL
 10
40.950000000022563
 20
17.49999999999649
 30
0.0
  0
VERTEX
  5
1680
  8
SAPA_PROFIL
 10
41.800000000006563
 20
17.500000000000099
 30
0.0
 42
-0.4142135623730951
  0
VERTEX
  5
1681
  8
SAPA_PROFIL
 10
42.000000000007297
 20
17.300000000010311
 30
0.0
  0
VERTEX
  5
1682
  8
SAPA_PROFIL
 10
42.000000000007297
 20
16.300000000010311
 30
0.0
 42
-0.4142135623731035
  0
VERTEX
  5
1683
  8
SAPA_PROFIL
 10
41.50000000000729
 20
15.800000000010311
 30
0.0
  0
VERTEX
  5
1684
  8
SAPA_PROFIL
 10
35.50000000000729
 20
15.800000000010311
 30
0.0
 42
-0.4142135623731033
  0
VERTEX
  5
1685
  8
SAPA_PROFIL
 10
35.000000000007297
 20
16.300000000010311
 30
0.0
  0
SEQEND
  5
1686
  8
SAPA_PROFIL
  0
POLYLINE
  5
FD1
  8
SAPA_PROFIL
 66
     1
 10
0.0
 20
0.0
 30
0.0
 70
     1
  0
VERTEX
  5
1687
  8
SAPA_PROFIL
 10
82.199999999986176
 20
59.999999999643592
 30
0.0
  0
VERTEX
  5
1688
  8
SAPA_PROFIL
 10
70.600000000005835
 20
59.999999999643592
 30
0.0
 42
0.4142135623730951
  0
VERTEX
  5
1689
  8
SAPA_PROFIL
 10
70.300000000002925
 20
59.699999999640681
 30
0.0
  0
VERTEX
  5
168A
  8
SAPA_PROFIL
 10
70.299999999981097
 20
16.8000000000103
 30
0.0
 42
0.4142135623730935
  0
VERTEX
  5
168B
  8
SAPA_PROFIL
 10
70.599999999980369
 20
16.500000000011031
 30
0.0
  0
VERTEX
  5
168C
  8
SAPA_PROFIL
 10
82.200000000000728
 20
16.50000000000011
 30
0.0
 42
0.4142135623730935
  0
VERTEX
  5
168D
  8
SAPA_PROFIL
 10
82.500000000000014
 20
16.8000000000103
 30
0.0
  0
VERTEX
  5
168E
  8
SAPA_PROFIL
 10
82.499999999985462
 20
59.699999999640681
 30
0.0
 42
0.4142135623730939
  0
SEQEND
  5
168F
  8
SAPA_PROFIL
  0
POLYLINE
  5
FD2
  8
SAPA_PROFIL
 66
     1
 10
0.0
 20
0.0
 30
0.0
 70
     1
  0
VERTEX
  5
1690
  8
SAPA_PROFIL
 10
35.000000000032742
 20
135.6999999277447
 30
0.0
 42
0.4142135623624294
  0
VERTEX
  5
1691
  8
SAPA_PROFIL
 10
35.200000000007982
 20
135.4999999277548
 30
0.0
  0
VERTEX
  5
1692
  8
SAPA_PROFIL
 10
36.050000000006541
 20
135.4999999277403
 30
0.0
 42
-0.4142135623730744
  0
VERTEX
  5
1693
  8
SAPA_PROFIL
 10
36.250000000007269
 20
135.299999927736
 30
0.0
  0
VERTEX
  5
1694
  8
SAPA_PROFIL
 10
36.249999999999979
 20
134.99999992775491
 30
0.0
 42
-0.4142135623731035
  0
VERTEX
  5
1695
  8
SAPA_PROFIL
 10
35.749999999999979
 20
134.49999992775491
 30
0.0
  0
VERTEX
  5
1696
  8
SAPA_PROFIL
 10
32.749999999999979
 20
134.49999992775491
 30
0.0
 42
-0.4142135623731035
  0
VERTEX
  5
1697
  8
SAPA_PROFIL
 10
32.249999999999979
 20
134.99999992775491
 30
0.0
  0
VERTEX
  5
1698
  8
SAPA_PROFIL
 10
32.249999999999979
 20
135.29999992775049
 30
0.0
 42
-0.4142135623730744
  0
VERTEX
  5
1699
  8
SAPA_PROFIL
 10
32.45000000000072
 20
135.4999999277548
 30
0.0
  0
VERTEX
  5
169A
  8
SAPA_PROFIL
 10
33.300000000002903
 20
135.49999992774389
 30
0.0
 42
0.4142135623730534
  0
VERTEX
  5
169B
  8
SAPA_PROFIL
 10
33.499999999999979
 20
135.6999999277447
 30
0.0
  0
VERTEX
  5
169C
  8
SAPA_PROFIL
 10
33.499999999999979
 20
136.6999999277447
 30
0.0
 42
0.4142135623731035
  0
VERTEX
  5
169D
  8
SAPA_PROFIL
 10
32.999999999999979
 20
137.1999999277447
 30
0.0
  0
VERTEX
  5
169E
  8
SAPA_PROFIL
 10
26.999999999999989
 20
137.1999999277447
 30
0.0
 42
0.4142135623731033
  0
VERTEX
  5
169F
  8
SAPA_PROFIL
 10
26.499999999999989
 20
136.6999999277447
 30
0.0
  0
VERTEX
  5
16A0
  8
SAPA_PROFIL
 10
26.50000000001091
 20
135.6999999277447
 30
0.0
 42
0.414213562373064
  0
VERTEX
  5
16A1
  8
SAPA_PROFIL
 10
26.70000000000072
 20
135.4999999277548
 30
0.0
  0
VERTEX
  5
16A2
  8
SAPA_PROFIL
 10
27.5500000000029
 20
135.4999999277548
 30
0.0
 42
-0.414213562373064
  0
VERTEX
  5
16A3
  8
SAPA_PROFIL
 10
27.749999999999989
 20
135.29999992775049
 30
0.0
  0
VERTEX
  5
16A4
  8
SAPA_PROFIL
 10
27.749999999999989
 20
134.99999992775491
 30
0.0
 42
-0.4142135623731035
  0
VERTEX
  5
16A5
  8
SAPA_PROFIL
 10
27.25
 20
134.49999992775491
 30
0.0
  0
VERTEX
  5
16A6
  8
SAPA_PROFIL
 10
25.499999999999989
 20
134.49999992775491
 30
0.0
 42
-0.4142135623731035
  0
VERTEX
  5
16A7
  8
SAPA_PROFIL
 10
25.0
 20
134.99999992775491
 30
0.0
  0
VERTEX
  5
16A8
  8
SAPA_PROFIL
 10
25.0
 20
137.49999992775491
 30
0.0
 42
-0.4142135623730966
  0
VERTEX
  5
16A9
  8
SAPA_PROFIL
 10
26.499999999999989
 20
138.99999992775491
 30
0.0
  0
VERTEX
  5
16AA
  8
SAPA_PROFIL
 10
84.700000000000685
 20
138.99999992775491
 30
0.0
 42
-0.4142135623730935
  0
VERTEX
  5
16AB
  8
SAPA_PROFIL
 10
84.999999999999986
 20
138.6999999277447
 30
0.0
  0
VERTEX
  5
16AC
  8
SAPA_PROFIL
 10
85.0
 20
90.743868969058624
 30
0.0
 42
-0.2418327667378115
  0
VERTEX
  5
16AD
  8
SAPA_PROFIL
 10
84.874722325032906
 20
90.499999928120218
 30
0.0
 42
0.2418327667509125
  0
VERTEX
  5
16AE
  8
SAPA_PROFIL
 10
84.749444650060454
 20
90.256130887164261
 30
0.0
  0
VERTEX
  5
16AF
  8
SAPA_PROFIL
 10
84.749444650056816
 20
89.299999928114346
 30
0.0
 42
0.2418327667448973
  0
VERTEX
  5
16B0
  8
SAPA_PROFIL
 10
84.874722325025246
 20
89.056130887159412
 30
0.0
 42
-0.2418327667448979
  0
VERTEX
  5
16B1
  8
SAPA_PROFIL
 10
84.999999999992454
 20
88.812261846206837
 30
0.0
  0
VERTEX
  5
16B2
  8
SAPA_PROFIL
 10
84.999999999992454
 20
86.714189490488835
 30
0.0
 42
-0.6681786379192718
  0
VERTEX
  5
16B3
  8
SAPA_PROFIL
 10
83.292893218805943
 20
86.007082709302239
 30
0.0
  0
VERTEX
  5
16B4
  8
SAPA_PROFIL
 10
81.98784396563677
 20
87.312131962471227
 30
0.0
 42
-0.1989123673797335
  0
VERTEX
  5
16B5
  8
SAPA_PROFIL
 10
81.899975999992662
 20
87.524263996827315
 30
0.0
  0
VERTEX
  5
16B6
  8
SAPA_PROFIL
 10
81.899975999992805
 20
88.110769443574497
 30
0.0
 42
-0.1316524975873855
  0
VERTEX
  5
16B7
  8
SAPA_PROFIL
 10
81.940168378857464
 20
88.260769443574418
 30
0.0
  0
VERTEX
  5
16B8
  8
SAPA_PROFIL
 10
82.799975999992739
 20
89.749999928115315
 30
0.0
  0
VERTEX
  5
16B9
  8
SAPA_PROFIL
 10
82.79998799999241
 20
90.199999928115233
 30
0.0
 42
0.4142135623731054
  0
VERTEX
  5
16BA
  8
SAPA_PROFIL
 10
82.499987999992413
 20
90.499999928115244
 30
0.0
  0
VERTEX
  5
16BB
  8
SAPA_PROFIL
 10
78.89997599999235
 20
90.499999928115187
 30
0.0
 42
0.4142135623730951
  0
VERTEX
  5
16BC
  8
SAPA_PROFIL
 10
78.599975999992353
 20
90.199999928115204
 30
0.0
  0
VERTEX
  5
16BD
  8
SAPA_PROFIL
 10
78.599975999992452
 20
89.749999928115173
 30
0.0
  0
VERTEX
  5
16BE
  8
SAPA_PROFIL
 10
79.459800737561423
 20
88.260739797041026
 30
0.0
 42
-0.1316363093594257
  0
VERTEX
  5
16BF
  8
SAPA_PROFIL
 10
79.499993115818398
 20
88.110758891994294
 30
0.0
  0
VERTEX
  5
16C0
  8
SAPA_PROFIL
 10
79.500000165609194
 20
87.999999928111436
 30
0.0
  0
VERTEX
  5
16C1
  8
SAPA_PROFIL
 10
77.914359353937471
 20
87.999999928111436
 30
0.0
 42
-0.2679491924308306
  0
VERTEX
  5
16C2
  8
SAPA_PROFIL
 10
77.048333950158849
 20
88.499999928111436
 30
0.0
  0
VERTEX
  5
16C3
  8
SAPA_PROFIL
 10
76.03797097908037
 20
90.24999992811189
 30
0.0
 42
0.2679491924308306
  0
VERTEX
  5
16C4
  8
SAPA_PROFIL
 10
75.604958277188416
 20
90.499999928111436
 30
0.0
  0
VERTEX
  5
16C5
  8
SAPA_PROFIL
 10
74.395041722807946
 20
90.499999928111436
 30
0.0
 42
0.2679491924308304
  0
VERTEX
  5
16C6
  8
SAPA_PROFIL
 10
73.962029020916816
 20
90.249999928111436
 30
0.0
  0
VERTEX
  5
16C7
  8
SAPA_PROFIL
 10
72.951666049841151
 20
88.499999928111436
 30
0.0
 42
-0.2679491924308308
  0
VERTEX
  5
16C8
  8
SAPA_PROFIL
 10
72.085640646055253
 20
87.999999928113311
 30
0.0
  0
VERTEX
  5
16C9
  8
SAPA_PROFIL
 10
70.499999834387154
 20
87.99999992811118
 30
0.0
  0
VERTEX
  5
16CA
  8
SAPA_PROFIL
 10
70.500006884177964
 20
88.110758891994294
 30
0.0
 42
-0.1316363093594255
  0
VERTEX
  5
16CB
  8
SAPA_PROFIL
 10
70.540199262434939
 20
88.260739797041026
 30
0.0
  0
VERTEX
  5
16CC
  8
SAPA_PROFIL
 10
71.400024000003896
 20
89.749999928115173
 30
0.0
  0
VERTEX
  5
16CD
  8
SAPA_PROFIL
 10
71.400024000004009
 20
90.199999928115204
 30
0.0
 42
0.4142135623730951
  0
VERTEX
  5
16CE
  8
SAPA_PROFIL
 10
71.100024000004012
 20
90.499999928115187
 30
0.0
  0
VERTEX
  5
16CF
  8
SAPA_PROFIL
 10
67.500012000003963
 20
90.499999928115244
 30
0.0
 42
0.4142135623731054
  0
VERTEX
  5
16D0
  8
SAPA_PROFIL
 10
67.200012000003952
 20
90.199999928115233
 30
0.0
  0
VERTEX
  5
16D1
  8
SAPA_PROFIL
 10
67.200024000003623
 20
89.749999928115315
 30
0.0
  0
VERTEX
  5
16D2
  8
SAPA_PROFIL
 10
68.059831621138912
 20
88.260769443574418
 30
0.0
 42
-0.1316524975873855
  0
VERTEX
  5
16D3
  8
SAPA_PROFIL
 10
68.100024000003557
 20
88.110769443574497
 30
0.0
  0
VERTEX
  5
16D4
  8
SAPA_PROFIL
 10
68.1000240000037
 20
87.524263996827315
 30
0.0
 42
-0.1989123673797335
  0
VERTEX
  5
16D5
  8
SAPA_PROFIL
 10
68.012156034359592
 20
87.312131962471227
 30
0.0
  0
VERTEX
  5
16D6
  8
SAPA_PROFIL
 10
66.707106781190419
 20
86.007082709302239
 30
0.0
 42
-0.6681786379192716
  0
VERTEX
  5
16D7
  8
SAPA_PROFIL
 10
65.000000000003922
 20
86.714189490488835
 30
0.0
  0
VERTEX
  5
16D8
  8
SAPA_PROFIL
 10
65.000000000003922
 20
88.812261846208557
 30
0.0
 42
-0.2418327667433386
  0
VERTEX
  5
16D9
  8
SAPA_PROFIL
 10
65.125277674969681
 20
89.056130887160094
 30
0.0
 42
0.2418327667449431
  0
VERTEX
  5
16DA
  8
SAPA_PROFIL
 10
65.250555349935894
 20
89.299999928114346
 30
0.0
  0
VERTEX
  5
16DB
  8
SAPA_PROFIL
 10
65.250555349939532
 20
90.256130887164261
 30
0.0
 42
0.2418327667509097
  0
VERTEX
  5
16DC
  8
SAPA_PROFIL
 10
65.125277674957104
 20
90.499999928111365
 30
0.0
 42
-0.2418327667378167
  0
VERTEX
  5
16DD
  8
SAPA_PROFIL
 10
65.000000000003922
 20
90.743868969058624
 30
0.0
  0
VERTEX
  5
16DE
  8
SAPA_PROFIL
 10
64.999999999985448
 20
92.556610602825174
 30
0.0
 42
-0.1095178116817878
  0
VERTEX
  5
16DF
  8
SAPA_PROFIL
 10
65.187384425907283
 20
93.401847126296161
 30
0.0
  0
VERTEX
  5
16E0
  8
SAPA_PROFIL
 10
67.812615574068332
 20
99.031673491435583
 30
0.0
 42
0.1095178116855129
  0
VERTEX
  5
16E1
  8
SAPA_PROFIL
 10
68.0
 20
99.876910014919929
 30
0.0
  0
VERTEX
  5
16E2
  8
SAPA_PROFIL
 10
68.000000000007276
 20
106.9999999280969
 30
0.0
 42
0.4142135623730957
  0
VERTEX
  5
16E3
  8
SAPA_PROFIL
 10
67.499999999985448
 20
107.4999999280969
 30
0.0
  0
VERTEX
  5
16E4
  8
SAPA_PROFIL
 10
66.499999999985448
 20
107.4999999280969
 30
0.0
 42
0.4142135623730915
  0
VERTEX
  5
16E5
  8
SAPA_PROFIL
 10
65.999999999985434
 20
106.9999999280969
 30
0.0
  0
VERTEX
  5
16E6
  8
SAPA_PROFIL
 10
65.999999999985434
 20
106.7087120806151
 30
0.0
 42
-0.2982166266909514
  0
VERTEX
  5
16E7
  8
SAPA_PROFIL
 10
65.69999999999834
 20
106.2504545111252
 30
0.0
 42
-1.5275252316550829
  0
VERTEX
  5
16E8
  8
SAPA_PROFIL
 10
65.699999999998425
 20
111.7495453450526
 30
0.0
 42
-0.2982166266892446
  0
VERTEX
  5
16E9
  8
SAPA_PROFIL
 10
65.999999999976126
 20
111.2912877755859
 30
0.0
  0
VERTEX
  5
16EA
  8
SAPA_PROFIL
 10
65.999999999985434
 20
110.9999999280969
 30
0.0
 42
0.4142135623730915
  0
VERTEX
  5
16EB
  8
SAPA_PROFIL
 10
66.499999999985448
 20
110.4999999280969
 30
0.0
  0
VERTEX
  5
16EC
  8
SAPA_PROFIL
 10
67.499999999985448
 20
110.4999999280969
 30
0.0
 42
0.4142135623730918
  0
VERTEX
  5
16ED
  8
SAPA_PROFIL
 10
67.999999999985434
 20
110.9999999280969
 30
0.0
  0
VERTEX
  5
16EE
  8
SAPA_PROFIL
 10
67.999999999985434
 20
129.9230898409493
 30
0.0
 42
0.1095178116838485
  0
VERTEX
  5
16EF
  8
SAPA_PROFIL
 10
67.812615574065504
 20
130.7683263644391
 30
0.0
  0
VERTEX
  5
16F0
  8
SAPA_PROFIL
 10
65.538475052471753
 20
135.64523645122759
 30
0.0
 42
0.2914734195858569
  0
VERTEX
  5
16F1
  8
SAPA_PROFIL
 10
63.72585947838887
 20
136.79999992775049
 30
0.0
  0
VERTEX
  5
16F2
  8
SAPA_PROFIL
 10
44.000000000007262
 20
136.79999992775049
 30
0.0
 42
0.4142135623730951
  0
VERTEX
  5
16F3
  8
SAPA_PROFIL
 10
43.500000000007269
 20
136.29999992775049
 30
0.0
  0
VERTEX
  5
16F4
  8
SAPA_PROFIL
 10
43.500000000007269
 20
135.999999927733
 30
0.0
 42
0.4142135623731035
  0
VERTEX
  5
16F5
  8
SAPA_PROFIL
 10
44.000000000007262
 20
135.49999992773311
 30
0.0
  0
VERTEX
  5
16F6
  8
SAPA_PROFIL
 10
45.300000000006527
 20
135.49999992773311
 30
0.0
 42
-0.4142135623730744
  0
VERTEX
  5
16F7
  8
SAPA_PROFIL
 10
45.5000000000109
 20
135.299999927736
 30
0.0
  0
VERTEX
  5
16F8
  8
SAPA_PROFIL
 10
45.500000000007248
 20
134.99999992773311
 30
0.0
 42
-0.4142135623731035
  0
VERTEX
  5
16F9
  8
SAPA_PROFIL
 10
45.000000000007269
 20
134.49999992773311
 30
0.0
  0
VERTEX
  5
16FA
  8
SAPA_PROFIL
 10
41.250000000007269
 20
134.49999992775491
 30
0.0
 42
-0.4142135623731035
  0
VERTEX
  5
16FB
  8
SAPA_PROFIL
 10
40.750000000007262
 20
134.99999992775491
 30
0.0
  0
VERTEX
  5
16FC
  8
SAPA_PROFIL
 10
40.750000000007262
 20
135.29999992775049
 30
0.0
 42
-0.4142135623731159
  0
VERTEX
  5
16FD
  8
SAPA_PROFIL
 10
40.950000000022527
 20
135.49999992775849
 30
0.0
  0
VERTEX
  5
16FE
  8
SAPA_PROFIL
 10
41.800000000006541
 20
135.4999999277548
 30
0.0
 42
0.4142135623730951
  0
VERTEX
  5
16FF
  8
SAPA_PROFIL
 10
42.000000000007262
 20
135.6999999277447
 30
0.0
  0
VERTEX
  5
1700
  8
SAPA_PROFIL
 10
42.000000000007262
 20
136.6999999277447
 30
0.0
 42
0.4142135623731035
  0
VERTEX
  5
1701
  8
SAPA_PROFIL
 10
41.500000000007262
 20
137.1999999277447
 30
0.0
  0
VERTEX
  5
1702
  8
SAPA_PROFIL
 10
35.500000000007248
 20
137.1999999277447
 30
0.0
 42
0.4142135623731033
  0
VERTEX
  5
1703
  8
SAPA_PROFIL
 10
35.000000000007269
 20
136.6999999277447
 30
0.0
  0
SEQEND
  5
1704
  8
SAPA_PROFIL
  0
POLYLINE
  5
FD3
  8
SAPA_PROFIL
 66
     1
 10
0.0
 20
0.0
 30
0.0
 70
     1
  0
VERTEX
  5
1705
  8
SAPA_PROFIL
 10
82.199999999986176
 20
92.999999928111436
 30
0.0
  0
VERTEX
  5
1706
  8
SAPA_PROFIL
 10
70.600000000005821
 20
92.999999928111436
 30
0.0
 42
-0.4142135623730951
  0
VERTEX
  5
1707
  8
SAPA_PROFIL
 10
70.30000000000291
 20
93.299999928114346
 30
0.0
  0
VERTEX
  5
1708
  8
SAPA_PROFIL
 10
70.299999999981068
 20
136.1999999277447
 30
0.0
 42
-0.4142135623730935
  0
VERTEX
  5
1709
  8
SAPA_PROFIL
 10
70.599999999980341
 20
136.499999927744
 30
0.0
  0
VERTEX
  5
170A
  8
SAPA_PROFIL
 10
82.200000000000713
 20
136.49999992775491
 30
0.0
 42
-0.4142135623730935
  0
VERTEX
  5
170B
  8
SAPA_PROFIL
 10
82.499999999999986
 20
136.1999999277447
 30
0.0
  0
VERTEX
  5
170C
  8
SAPA_PROFIL
 10
82.499999999985448
 20
93.299999928114346
 30
0.0
 42
-0.4142135623730939
  0
SEQEND
  5
170D
  8
SAPA_PROFIL
  0
POLYLINE
  5
FD4
  8
SAPA_PROFIL
 62
     4
 66
     1
 10
0.0
 20
0.0
 30
-0.2
 70
     1
1001
RC_PROFILE
1002
{
1000
Region
1002
}
  0
VERTEX
  5
170E
  8
SAPA_PROFIL
 62
     4
 10
41.652820282319411
 20
78.999999996510553
 30
-0.2
  0
VERTEX
  5
170F
  8
SAPA_PROFIL
 62
     4
 10
27.45282028231734
 20
78.999999996510553
 30
-0.2
 42
0.4142135623720297
  0
VERTEX
  5
1710
  8
SAPA_PROFIL
 62
     4
 10
26.95282028231734
 20
78.499999996512372
 30
-0.2
  0
VERTEX
  5
1711
  8
SAPA_PROFIL
 62
     4
 10
26.95282028231437
 20
74.499999995891173
 30
-0.2
 42
0.4142135623730951
  0
VERTEX
  5
1712
  8
SAPA_PROFIL
 62
     4
 10
27.45282028231437
 20
73.999999995891173
 30
-0.2
  0
VERTEX
  5
1713
  8
SAPA_PROFIL
 62
     4
 10
41.652820282318267
 20
73.999999995883897
 30
-0.2
 42
0.414213562373761
  0
VERTEX
  5
1714
  8
SAPA_PROFIL
 62
     4
 10
42.152820282319396
 20
74.499999995883897
 30
-0.2
  0
VERTEX
  5
1715
  8
SAPA_PROFIL
 62
     4
 10
42.152820282319396
 20
78.499999996510553
 30
-0.2
 42
0.4142135623730951
  0
SEQEND
  5
1716
  8
SAPA_PROFIL
 62
     4
  0
POLYLINE
  5
FD5
  8
SAPA_PROFIL
 62
     4
 66
     1
 10
0.0
 20
0.0
 30
0.0
1001
GENIUS_GENOBJ-N-FIL_13
1002
{
1000
OWNER
1000
GEN
1002
}
1001
GENIUS_GENODEF_13
1002
{
1000
HIER
1070
     0
1002
}
1002
{
1000
MANEDIT
1070
     0
1002
}
1002
{
1000
NOSEL
1070
     0
1002
}
1002
{
1000
BEHIND
1070
     0
1002
}
1002
{
1000
OTHER
1070
     0
1002
}
1002
{
1000
REACTOR
1002
}
  0
VERTEX
  5
1717
  8
SAPA_PROFIL
 62
     4
 10
68.416293838728478
 20
65.577259926492104
 30
0.0
 42
-0.131652497587489
  0
VERTEX
  5
1718
  8
SAPA_PROFIL
 62
     4
 10
68.255524323269739
 20
64.977259926491683
 30
0.0
  0
VERTEX
  5
1719
  8
SAPA_PROFIL
 62
     4
 10
67.250554992671866
 20
63.236601985848147
 30
0.0
  0
VERTEX
  5
171A
  8
SAPA_PROFIL
 62
     4
 10
67.250543349936507
 20
62.800000064269682
 30
0.0
 42
0.4142135623731046
  0
VERTEX
  5
171B
  8
SAPA_PROFIL
 62
     4
 10
67.500543349936507
 20
62.550000064269682
 30
0.0
  0
VERTEX
  5
171C
  8
SAPA_PROFIL
 62
     4
 10
71.10055534993657
 20
62.550000064269739
 30
0.0
 42
0.4142135623730957
  0
VERTEX
  5
171D
  8
SAPA_PROFIL
 62
     4
 10
71.35055534993657
 20
62.80000006426971
 30
0.0
  0
VERTEX
  5
171E
  8
SAPA_PROFIL
 62
     4
 10
71.350555349936471
 20
63.236602604648169
 30
0.0
  0
VERTEX
  5
171F
  8
SAPA_PROFIL
 62
     4
 10
70.377063354186404
 20
64.922740202049056
 30
0.0
 42
-0.1316524975873848
  0
VERTEX
  5
1720
  8
SAPA_PROFIL
 62
     4
 10
70.216293838727751
 20
65.522740202048993
 30
0.0
  0
VERTEX
  5
1721
  8
SAPA_PROFIL
 62
     4
 10
70.216293838727736
 20
87.477259790340014
 30
0.0
 42
-0.1316524975873846
  0
VERTEX
  5
1722
  8
SAPA_PROFIL
 62
     4
 10
70.37706335418639
 20
88.07725979033998
 30
0.0
  0
VERTEX
  5
1723
  8
SAPA_PROFIL
 62
     4
 10
71.350555349936457
 20
89.763397387740838
 30
0.0
  0
VERTEX
  5
1724
  8
SAPA_PROFIL
 62
     4
 10
71.350555349936556
 20
90.199999928119297
 30
0.0
 42
0.4142135623730951
  0
VERTEX
  5
1725
  8
SAPA_PROFIL
 62
     4
 10
71.100555349936556
 20
90.449999928119297
 30
0.0
  0
VERTEX
  5
1726
  8
SAPA_PROFIL
 62
     4
 10
67.500543349936493
 20
90.449999928119325
 30
0.0
 42
0.4142135623731046
  0
VERTEX
  5
1727
  8
SAPA_PROFIL
 62
     4
 10
67.250543349936493
 20
90.199999928119325
 30
0.0
  0
VERTEX
  5
1728
  8
SAPA_PROFIL
 62
     4
 10
67.250554992671852
 20
89.763398006540854
 30
0.0
  0
VERTEX
  5
1729
  8
SAPA_PROFIL
 62
     4
 10
68.255524323269725
 20
88.022740065897324
 30
0.0
 42
-0.1316524975874892
  0
VERTEX
  5
172A
  8
SAPA_PROFIL
 62
     4
 10
68.416293838728464
 20
87.422740065896903
 30
0.0
  0
VERTEX
  5
172B
  8
SAPA_PROFIL
 62
     4
 10
68.416293838727782
 20
84.699999928368314
 30
0.0
 42
-0.414213562374094
  0
VERTEX
  5
172C
  8
SAPA_PROFIL
 62
     4
 10
67.216293838723644
 20
83.499999928369405
 30
0.0
  0
VERTEX
  5
172D
  8
SAPA_PROFIL
 62
     4
 10
41.418558811801823
 20
83.499999928458521
 30
0.0
 42
0.4142135623730951
  0
VERTEX
  5
172E
  8
SAPA_PROFIL
 62
     4
 10
40.918558811801823
 20
82.999999928458536
 30
0.0
  0
VERTEX
  5
172F
  8
SAPA_PROFIL
 62
     4
 10
40.918558811801589
 20
82.799999928458703
 30
0.0
 42
0.4142135623730951
  0
VERTEX
  5
1730
  8
SAPA_PROFIL
 62
     4
 10
41.218558811801763
 20
82.499999928458521
 30
0.0
  0
VERTEX
  5
1731
  8
SAPA_PROFIL
 62
     4
 10
41.868558811803673
 20
82.499999928458521
 30
0.0
 42
-0.4142135623730951
  0
VERTEX
  5
1732
  8
SAPA_PROFIL
 62
     4
 10
42.168558811803642
 20
82.19999992845743
 30
0.0
  0
VERTEX
  5
1733
  8
SAPA_PROFIL
 62
     4
 10
42.168558811802733
 20
81.299999928461418
 30
0.0
 42
-0.4142135623730951
  0
VERTEX
  5
1734
  8
SAPA_PROFIL
 62
     4
 10
41.668558811803642
 20
80.799999928461432
 30
0.0
  0
VERTEX
  5
1735
  8
SAPA_PROFIL
 62
     4
 10
35.668558811801809
 20
80.799999928461432
 30
0.0
 42
-0.4142135623730951
  0
VERTEX
  5
1736
  8
SAPA_PROFIL
 62
     4
 10
35.168558811801809
 20
81.299999928461418
 30
0.0
  0
VERTEX
  5
1737
  8
SAPA_PROFIL
 62
     4
 10
35.168558811801809
 20
82.199999928460159
 30
0.0
 42
-0.4142135623710974
  0
VERTEX
  5
1738
  8
SAPA_PROFIL
 62
     4
 10
35.468558811799731
 20
82.499999928459431
 30
0.0
  0
VERTEX
  5
1739
  8
SAPA_PROFIL
 62
     4
 10
36.118558811801627
 20
82.499999928463964
 30
0.0
 42
0.4142135623730951
  0
VERTEX
  5
173A
  8
SAPA_PROFIL
 62
     4
 10
36.418558811799791
 20
82.799999928465965
 30
0.0
  0
VERTEX
  5
173B
  8
SAPA_PROFIL
 62
     4
 10
36.41855881179864
 20
82.999999928458536
 30
0.0
 42
0.4142135623730951
  0
VERTEX
  5
173C
  8
SAPA_PROFIL
 62
     4
 10
35.91855881179864
 20
83.499999928458521
 30
0.0
  0
VERTEX
  5
173D
  8
SAPA_PROFIL
 62
     4
 10
32.91855881179864
 20
83.499999928458521
 30
0.0
 42
0.4142135623730951
  0
VERTEX
  5
173E
  8
SAPA_PROFIL
 62
     4
 10
32.41855881179864
 20
82.999999928458536
 30
0.0
  0
VERTEX
  5
173F
  8
SAPA_PROFIL
 62
     4
 10
32.41855881179864
 20
82.799999928458703
 30
0.0
 42
0.4142135623730951
  0
VERTEX
  5
1740
  8
SAPA_PROFIL
 62
     4
 10
32.718558811798822
 20
82.499999928458521
 30
0.0
  0
VERTEX
  5
1741
  8
SAPA_PROFIL
 62
     4
 10
33.368558811798671
 20
82.499999928458521
 30
0.0
 42
-0.4142135623730951
  0
VERTEX
  5
1742
  8
SAPA_PROFIL
 62
     4
 10
33.66855881179864
 20
82.19999992845743
 30
0.0
  0
VERTEX
  5
1743
  8
SAPA_PROFIL
 62
     4
 10
33.66855881179864
 20
81.299999928461418
 30
0.0
 42
-0.4142135623730951
  0
VERTEX
  5
1744
  8
SAPA_PROFIL
 62
     4
 10
33.16855881179864
 20
80.799999928461432
 30
0.0
  0
VERTEX
  5
1745
  8
SAPA_PROFIL
 62
     4
 10
27.168558811798661
 20
80.799999928461432
 30
0.0
 42
-0.4142135623730951
  0
VERTEX
  5
1746
  8
SAPA_PROFIL
 62
     4
 10
26.66855881179864
 20
81.299999928461418
 30
0.0
  0
VERTEX
  5
1747
  8
SAPA_PROFIL
 62
     4
 10
26.66855881179864
 20
82.19999992845743
 30
0.0
 42
-0.4142135623730951
  0
VERTEX
  5
1748
  8
SAPA_PROFIL
 62
     4
 10
26.96855881179884
 20
82.499999928458521
 30
0.0
  0
VERTEX
  5
1749
  8
SAPA_PROFIL
 62
     4
 10
27.6185588117987
 20
82.499999928458521
 30
0.0
 42
0.4142135623730949
  0
VERTEX
  5
174A
  8
SAPA_PROFIL
 62
     4
 10
27.91855881179864
 20
82.799999928458703
 30
0.0
  0
VERTEX
  5
174B
  8
SAPA_PROFIL
 62
     4
 10
27.91855881179864
 20
82.999999928458536
 30
0.0
 42
0.4142135623730951
  0
VERTEX
  5
174C
  8
SAPA_PROFIL
 62
     4
 10
27.41855881179864
 20
83.499999928458521
 30
0.0
  0
VERTEX
  5
174D
  8
SAPA_PROFIL
 62
     4
 10
25.66855881179864
 20
83.499999928457612
 30
0.0
 42
0.4142135623726955
  0
VERTEX
  5
174E
  8
SAPA_PROFIL
 62
     4
 10
25.16855881179864
 20
82.999999928123827
 30
0.0
  0
VERTEX
  5
174F
  8
SAPA_PROFIL
 62
     4
 10
25.16855881179842
 20
69.999999928116537
 30
0.0
 42
0.4142135623732284
  0
VERTEX
  5
1750
  8
SAPA_PROFIL
 62
     4
 10
25.668558811796821
 20
69.499999927840051
 30
0.0
  0
VERTEX
  5
1751
  8
SAPA_PROFIL
 62
     4
 10
27.418558811796821
 20
69.499999927840051
 30
0.0
 42
0.4142135623730951
  0
VERTEX
  5
1752
  8
SAPA_PROFIL
 62
     4
 10
27.918558811796839
 20
69.999999927840051
 30
0.0
  0
VERTEX
  5
1753
  8
SAPA_PROFIL
 62
     4
 10
27.918558811796839
 20
70.199999927839855
 30
0.0
 42
0.4142135623730951
  0
VERTEX
  5
1754
  8
SAPA_PROFIL
 62
     4
 10
27.618558811796639
 20
70.499999927840051
 30
0.0
  0
VERTEX
  5
1755
  8
SAPA_PROFIL
 62
     4
 10
26.96855881179679
 20
70.499999927840051
 30
0.0
 42
-0.4142135623730951
  0
VERTEX
  5
1756
  8
SAPA_PROFIL
 62
     4
 10
26.668558811796839
 20
70.799999927839323
 30
0.0
  0
VERTEX
  5
1757
  8
SAPA_PROFIL
 62
     4
 10
26.668558811796839
 20
71.69999992783714
 30
0.0
 42
-0.4142135623730951
  0
VERTEX
  5
1758
  8
SAPA_PROFIL
 62
     4
 10
27.168558811796821
 20
72.19999992783714
 30
0.0
  0
VERTEX
  5
1759
  8
SAPA_PROFIL
 62
     4
 10
33.168558811796821
 20
72.19999992783714
 30
0.0
 42
-0.4142135623730951
  0
VERTEX
  5
175A
  8
SAPA_PROFIL
 62
     4
 10
33.668558811796821
 20
71.69999992783714
 30
0.0
  0
VERTEX
  5
175B
  8
SAPA_PROFIL
 62
     4
 10
33.668558811796821
 20
70.799999927839323
 30
0.0
 42
-0.4142135623730953
  0
VERTEX
  5
175C
  8
SAPA_PROFIL
 62
     4
 10
33.368558811796639
 20
70.499999927840051
 30
0.0
  0
VERTEX
  5
175D
  8
SAPA_PROFIL
 62
     4
 10
32.718558811796782
 20
70.499999927840051
 30
0.0
 42
0.4142135623730951
  0
VERTEX
  5
175E
  8
SAPA_PROFIL
 62
     4
 10
32.418558811796821
 20
70.199999927839855
 30
0.0
  0
VERTEX
  5
175F
  8
SAPA_PROFIL
 62
     4
 10
32.418558811796821
 20
69.999999927840051
 30
0.0
 42
0.4142135623730951
  0
VERTEX
  5
1760
  8
SAPA_PROFIL
 62
     4
 10
32.918558811796821
 20
69.499999927840051
 30
0.0
  0
VERTEX
  5
1761
  8
SAPA_PROFIL
 62
     4
 10
35.918558811796821
 20
69.499999927840051
 30
0.0
 42
0.4142135623730951
  0
VERTEX
  5
1762
  8
SAPA_PROFIL
 62
     4
 10
36.418558811796821
 20
69.999999927840051
 30
0.0
  0
VERTEX
  5
1763
  8
SAPA_PROFIL
 62
     4
 10
36.418558811797958
 20
70.199999927832593
 30
0.0
 42
0.414213562372873
  0
VERTEX
  5
1764
  8
SAPA_PROFIL
 62
     4
 10
36.118558811799829
 20
70.499999927834594
 30
0.0
  0
VERTEX
  5
1765
  8
SAPA_PROFIL
 62
     4
 10
35.468558811798822
 20
70.499999927837322
 30
0.0
 42
-0.4142135623722071
  0
VERTEX
  5
1766
  8
SAPA_PROFIL
 62
     4
 10
35.168558811799791
 20
70.799999927838414
 30
0.0
  0
VERTEX
  5
1767
  8
SAPA_PROFIL
 62
     4
 10
35.168558811799791
 20
71.69999992783714
 30
0.0
 42
-0.4142135623730951
  0
VERTEX
  5
1768
  8
SAPA_PROFIL
 62
     4
 10
35.668558811799763
 20
72.19999992783714
 30
0.0
  0
VERTEX
  5
1769
  8
SAPA_PROFIL
 62
     4
 10
41.668558811801823
 20
72.199999927829865
 30
0.0
 42
-0.4142135623730951
  0
VERTEX
  5
176A
  8
SAPA_PROFIL
 62
     4
 10
42.168558811801823
 20
71.699999927829865
 30
0.0
  0
VERTEX
  5
176B
  8
SAPA_PROFIL
 62
     4
 10
42.168558811801823
 20
70.799999927832957
 30
0.0
 42
-0.4142135623730951
  0
VERTEX
  5
176C
  8
SAPA_PROFIL
 62
     4
 10
41.868558811801627
 20
70.499999927832775
 30
0.0
  0
VERTEX
  5
176D
  8
SAPA_PROFIL
 62
     4
 10
41.218558811799731
 20
70.499999927832775
 30
0.0
 42
0.4142135623730951
  0
VERTEX
  5
176E
  8
SAPA_PROFIL
 62
     4
 10
40.918558811799763
 20
70.199999927832593
 30
0.0
  0
VERTEX
  5
176F
  8
SAPA_PROFIL
 62
     4
 10
40.918558811799763
 20
69.999999927832775
 30
0.0
 42
0.4142135623730951
  0
VERTEX
  5
1770
  8
SAPA_PROFIL
 62
     4
 10
41.41855881179977
 20
69.499999927832775
 30
0.0
  0
VERTEX
  5
1771
  8
SAPA_PROFIL
 62
     4
 10
67.216293838723644
 20
69.499999927914644
 30
0.0
 42
-0.414213562374094
  0
VERTEX
  5
1772
  8
SAPA_PROFIL
 62
     4
 10
68.416293838727555
 20
68.299999927914826
 30
0.0
  0
VERTEX
  5
1773
  8
SAPA_PROFIL
 62
     4
 10
68.416293838727796
 20
65.571518577834752
 30
0.0
  0
SEQEND
  5
1774
  8
SAPA_PROFIL
 62
     4
  0
POLYLINE
  5
FD6
  8
SAPA_PROFIL
 62
     4
 66
     1
 10
0.0
 20
0.0
 30
0.0
 70
     1
  0
VERTEX
  5
1775
  8
SAPA_PROFIL
 62
     4
 10
43.452820282317312
 20
73.199999995880077
 30
0.0
  0
VERTEX
  5
1776
  8
SAPA_PROFIL
 62
     4
 10
43.452820282321419
 20
80.699999996438535
 30
0.0
 42
-0.4142135623730951
  0
VERTEX
  5
1777
  8
SAPA_PROFIL
 62
     4
 10
44.452820282321412
 20
81.699999996438521
 30
0.0
  0
VERTEX
  5
1778
  8
SAPA_PROFIL
 62
     4
 10
67.600555309245209
 20
81.699999996453982
 30
0.0
 42
-0.4142135623730949
  0
VERTEX
  5
1779
  8
SAPA_PROFIL
 62
     4
 10
68.400555309245391
 20
80.899999996453801
 30
0.0
  0
VERTEX
  5
177A
  8
SAPA_PROFIL
 62
     4
 10
68.400555309245391
 20
72.099999995935207
 30
0.0
 42
-0.414213562373428
  0
VERTEX
  5
177B
  8
SAPA_PROFIL
 62
     4
 10
67.600555309244299
 20
71.299999995935025
 30
0.0
  0
VERTEX
  5
177C
  8
SAPA_PROFIL
 62
     4
 10
44.452820282317312
 20
71.299999995958657
 30
0.0
 42
-0.4142135623724957
  0
VERTEX
  5
177D
  8
SAPA_PROFIL
 62
     4
 10
43.452820282319351
 20
72.299999995957748
 30
0.0
  0
SEQEND
  5
177E
  8
SAPA_PROFIL
 62
     4
  0
POLYLINE
  5
FD7
  8
SAPA_PROFIL
 66
     1
 10
0.0
 20
0.0
 30
0.0
 70
     1
  0
VERTEX
  5
177F
  8
SAPA_PROFIL
 10
24.999999999998352
 20
14.50000000001341
 30
0.0
  0
VERTEX
  5
1780
  8
SAPA_PROFIL
 10
25.00000000000199
 20
19.500000000013411
 30
0.0
 42
-0.4142135623730951
  0
VERTEX
  5
1781
  8
SAPA_PROFIL
 10
26.00000000000199
 20
20.500000000013411
 30
0.0
  0
VERTEX
  5
1782
  8
SAPA_PROFIL
 10
36.000000000001307
 20
20.500000000006139
 30
0.0
 42
-0.4142135623730951
  0
VERTEX
  5
1783
  8
SAPA_PROFIL
 10
37.000000000001307
 20
19.500000000013411
 30
0.0
  0
VERTEX
  5
1784
  8
SAPA_PROFIL
 10
37.000000000001307
 20
17.749999999977032
 30
0.0
 42
0.9999999999999998
  0
VERTEX
  5
1785
  8
SAPA_PROFIL
 10
38.500000000008569
 20
17.749999999977032
 30
0.0
  0
VERTEX
  5
1786
  8
SAPA_PROFIL
 10
38.500000000012221
 20
19.500000000006139
 30
0.0
 42
0.4142135623730951
  0
VERTEX
  5
1787
  8
SAPA_PROFIL
 10
36.000000000008583
 20
22.000000000013419
 30
0.0
  0
VERTEX
  5
1788
  8
SAPA_PROFIL
 10
26.200000000002721
 20
22.000000000013411
 30
0.0
 42
-0.4142135623730951
  0
VERTEX
  5
1789
  8
SAPA_PROFIL
 10
25.200000000002721
 20
23.000000000013411
 30
0.0
  0
VERTEX
  5
178A
  8
SAPA_PROFIL
 10
25.20000000000271
 20
67.249999999307647
 30
0.0
 42
-0.4142135623730951
  0
VERTEX
  5
178B
  8
SAPA_PROFIL
 10
25.70000000000271
 20
67.749999999307633
 30
0.0
  0
VERTEX
  5
178C
  8
SAPA_PROFIL
 10
43.500000000005613
 20
67.74999999931056
 30
0.0
 42
0.8390996311761574
  0
VERTEX
  5
178D
  8
SAPA_PROFIL
 10
43.602606043003263
 20
68.331907785547401
 30
0.0
  0
VERTEX
  5
178E
  8
SAPA_PROFIL
 10
37.302606043004332
 20
70.624920261431981
 30
0.0
 42
0.4663076581554896
  0
VERTEX
  5
178F
  8
SAPA_PROFIL
 10
36.904557674102463
 20
70.39510692849467
 30
0.0
  0
VERTEX
  5
1790
  8
SAPA_PROFIL
 10
36.775498487606932
 20
69.663175910480945
 30
0.0
 42
-0.3639702342659115
  0
VERTEX
  5
1791
  8
SAPA_PROFIL
 10
36.283094611100907
 20
69.249999999314923
 30
0.0
  0
VERTEX
  5
1792
  8
SAPA_PROFIL
 10
25.500000000001979
 20
69.249999999307647
 30
0.0
 42
-0.4142135623730951
  0
VERTEX
  5
1793
  8
SAPA_PROFIL
 10
25.000000000001979
 20
69.749999999307647
 30
0.0
  0
VERTEX
  5
1794
  8
SAPA_PROFIL
 10
25.000000000009251
 20
82.999999999998863
 30
0.0
 42
0.4142135623730951
  0
VERTEX
  5
1795
  8
SAPA_PROFIL
 10
24.50000000000561
 20
83.499999999998849
 30
0.0
 42
0.4142135623730951
  0
VERTEX
  5
1796
  8
SAPA_PROFIL
 10
23.50000000000561
 20
82.499999999998863
 30
0.0
  0
VERTEX
  5
1797
  8
SAPA_PROFIL
 10
23.50000000000199
 20
15.00000000001341
 30
0.0
 42
0.4142135623730951
  0
VERTEX
  5
1798
  8
SAPA_PROFIL
 10
24.50000000000199
 20
14.00000000001341
 30
0.0
 42
0.4142135623730951
  0
SEQEND
  5
1799
  8
SAPA_PROFIL
  0
LINE
  5
1014
  8
SAPA_GLAS
 10
-4.7999999999992342
 20
130.74999992794599
 30
0.0
 11
-4.7999999999992342
 21
129.99999992793281
 31
0.0
  0
LINE
  5
1015
  8
SAPA_GLAS
 10
8.0000000000116902
 20
129.99999992793281
 30
0.0
 11
8.0000000000125002
 21
130.74999992793201
 31
0.0
  0
LINE
  5
1016
  8
SAPA_GLAS
 10
-4.7999999999992564
 20
87.249999927919404
 30
0.0
 11
-4.7999999999992546
 21
87.999999927932549
 31
0.0
  0
LINE
  5
1017
  8
SAPA_GLAS
 10
8.0000000000116689
 20
87.999999927932535
 30
0.0
 11
8.0000000000124771
 21
87.249999927933416
 31
0.0
  0
INSERT
  5
1018
  8
SAPA_GLAS
  6
CONTINUOUS
  2
*X48
 10
0.0
 20
0.0
 30
0.0
1001
ACAD
1000
HATCH
1002
{
1070
    19
1000
ANSI37
1040
0.25
1040
-3.1415926535897931
1000
R14_HATCH_DATA
1000
1018
1011
1.0
1021
0.0
1031
0.0
1021
0.0
1031
0.0
1011
0.0
1021
0.0
1031
0.0
1021
1.0
1031
0.0
1011
0.0
1021
0.0
1031
0.0
1021
0.0
1031
1.0
1040
0.0
1010
0.0
1020
0.0
1030
1.0
1000
ANSI37
1070
     0
1070
     0
1071
        1
1071
        7
1070
     0
1070
     1
1071
        4
1040
-4.7999999999992484
1040
130.7499999282854
1040
-4.7999999999992484
1040
129.99999992793281
1040
8.0000000000116902
1040
129.99999992793281
1040
8.0000000000125162
1040
130.74999992827139
1071
        0
1070
     0
1070
     1
1040
-3.1415926535897931
1040
0.25
1070
     0
1070
     2
1040
3.9269908169872401
1040
18.075855852310958
1040
132.49999992790771
1040
0.5612660075668218
1040
-0.5612660075668224
1070
     0
1040
5.4977871437821371
1040
18.075855852310958
1040
132.49999992790771
1040
0.5612660075668224
1040
0.5612660075668218
1070
     0
1040
0.0325758689756538
1071
        1
1040
2.760089500210777
1040
130.4083185126905
1040
0.0
1002
}
  0
INSERT
  5
1019
  8
SAPA_GLAS
  6
CONTINUOUS
  2
*X49
 10
0.0
 20
0.0
 30
0.0
1001
ACAD
1000
HATCH
1002
{
1070
    19
1000
ANSI37
1040
0.25
1040
-3.1415926535897931
1000
R14_HATCH_DATA
1000
1019
1011
1.0
1021
0.0
1031
0.0
1021
0.0
1031
0.0
1011
0.0
1021
0.0
1031
0.0
1021
1.0
1031
0.0
1011
0.0
1021
0.0
1031
0.0
1021
0.0
1031
1.0
1040
0.0
1010
0.0
1020
0.0
1030
1.0
1000
ANSI37
1070
     0
1070
     0
1071
        1
1071
        7
1070
     0
1070
     1
1071
        4
1040
-4.7999999999992546
1040
87.999999927932549
1040
-4.7999999999992564
1040
87.249999927919404
1040
8.0000000000124771
1040
87.249999927933416
1040
8.0000000000116689
1040
87.999999927932535
1071
        0
1070
     0
1070
     1
1040
-3.1415926535897931
1040
0.25
1070
     0
1070
     2
1040
3.9269908169872401
1040
18.075855852310958
1040
132.49999992790771
1040
0.5612660075668218
1040
-0.5612660075668224
1070
     0
1040
5.4977871437821371
1040
18.075855852310958
1040
132.49999992790771
1040
0.5612660075668224
1040
0.5612660075668218
1070
     0
1040
0.0230646099693014
1071
        1
1040
4.1315771952974831
1040
87.652314285239868
1040
0.0
1002
}
  0
POLYLINE
  5
101A
  8
SAPA_GLAS
 66
     1
 10
0.0
 20
0.0
 30
0.0
  0
VERTEX
  5
1821
  8
SAPA_GLAS
 10
-23.999999999988312
 20
129.99999992793289
 30
0.0
  0
VERTEX
  5
1822
  8
SAPA_GLAS
 10
8.0000000000116902
 20
129.99999992793281
 30
0.0
  0
VERTEX
  5
1823
  8
SAPA_GLAS
 10
8.0000000000116884
 20
123.99999992793281
 30
0.0
  0
VERTEX
  5
1824
  8
SAPA_GLAS
 10
-23.999999999988312
 20
123.9999999279329
 30
0.0
  0
SEQEND
  5
1825
  8
SAPA_GLAS
  0
POLYLINE
  5
101B
  8
SAPA_GLAS
 66
     1
 10
0.0
 20
0.0
 30
0.0
  0
VERTEX
  5
1826
  8
SAPA_GLAS
 10
-1.999999999988342
 20
111.99999992793271
 30
0.0
  0
VERTEX
  5
1827
  8
SAPA_GLAS
 10
-1.9999999999883249
 20
123.99999992793271
 30
0.0
  0
VERTEX
  5
1828
  8
SAPA_GLAS
 10
8.0000000000116884
 20
123.99999992793271
 30
0.0
  0
VERTEX
  5
1829
  8
SAPA_GLAS
 10
8.0000000000116511
 20
111.99999992793271
 30
0.0
  0
VERTEX
  5
182A
  8
SAPA_GLAS
 10
-1.999999999988342
 20
111.99999992793271
 30
0.0
  0
SEQEND
  5
182B
  8
SAPA_GLAS
  0
POLYLINE
  5
101C
  8
SAPA_GLAS
 66
     1
 10
0.0
 20
0.0
 30
0.0
  0
VERTEX
  5
182C
  8
SAPA_GLAS
 10
-23.999999999988329
 20
111.99999992793271
 30
0.0
  0
VERTEX
  5
182D
  8
SAPA_GLAS
 10
8.0000000000116653
 20
111.99999992793271
 30
0.0
  0
VERTEX
  5
182E
  8
SAPA_GLAS
 10
8.0000000000116636
 20
105.99999992793271
 30
0.0
  0
VERTEX
  5
182F
  8
SAPA_GLAS
 10
-23.999999999988329
 20
105.99999992793271
 30
0.0
  0
SEQEND
  5
1830
  8
SAPA_GLAS
  0
POLYLINE
  5
101D
  8
SAPA_GLAS
 66
     1
 10
0.0
 20
0.0
 30
0.0
  0
VERTEX
  5
1831
  8
SAPA_GLAS
 10
-1.9999999999883631
 20
93.999999927932564
 30
0.0
  0
VERTEX
  5
1832
  8
SAPA_GLAS
 10
-1.9999999999883431
 20
105.99999992793251
 30
0.0
  0
VERTEX
  5
1833
  8
SAPA_GLAS
 10
8.0000000000116636
 20
105.99999992793251
 30
0.0
  0
VERTEX
  5
1834
  8
SAPA_GLAS
 10
8.0000000000116334
 20
93.999999927932535
 30
0.0
  0
VERTEX
  5
1835
  8
SAPA_GLAS
 10
-1.9999999999883631
 20
93.999999927932564
 30
0.0
  0
SEQEND
  5
1836
  8
SAPA_GLAS
  0
POLYLINE
  5
101E
  8
SAPA_GLAS
 66
     1
 10
0.0
 20
0.0
 30
0.0
  0
VERTEX
  5
1837
  8
SAPA_GLAS
 10
-23.999999999988351
 20
87.999999927932564
 30
0.0
  0
VERTEX
  5
1838
  8
SAPA_GLAS
 10
8.0000000000116316
 20
87.999999927932535
 30
0.0
  0
VERTEX
  5
1839
  8
SAPA_GLAS
 10
8.0000000000116334
 20
93.999999927932535
 30
0.0
  0
VERTEX
  5
183A
  8
SAPA_GLAS
 10
-23.999999999988351
 20
93.999999927932578
 30
0.0
  0
SEQEND
  5
183B
  8
SAPA_GLAS
  0
POLYLINE
  5
1039
  8
SAPA_FOGBAND
 66
     1
 10
0.0
 20
0.0
 30
0.0
 70
     1
  0
VERTEX
  5
18EA
  8
SAPA_FOGBAND
 10
35.350000000017587
 20
136.7499999277446
 30
0.0
  0
VERTEX
  5
18EB
  8
SAPA_FOGBAND
 10
35.350000000017587
 20
135.94999992774439
 30
0.0
  0
VERTEX
  5
18EC
  8
SAPA_FOGBAND
 10
41.650000000014671
 20
135.94999992774439
 30
0.0
  0
VERTEX
  5
18ED
  8
SAPA_FOGBAND
 10
41.650000000014671
 20
136.7499999277446
 30
0.0
  0
SEQEND
  5
18EE
  8
SAPA_FOGBAND
  0
POLYLINE
  5
103A
  8
SAPA_FOGBAND
 66
     1
 10
0.0
 20
0.0
 30
0.0
  0
VERTEX
  5
18EF
  8
SAPA_FOGBAND
 10
40.072689603157173
 20
135.94999992774439
 30
0.0
  0
VERTEX
  5
18F0
  8
SAPA_FOGBAND
 10
41.198136200473087
 20
132.4999999277446
 30
0.0
  0
VERTEX
  5
18F1
  8
SAPA_FOGBAND
 10
38.759998153924563
 20
132.4999999277446
 30
0.0
  0
VERTEX
  5
18F2
  8
SAPA_FOGBAND
 10
38.650000000017592
 20
135.94999992774439
 30
0.0
  0
SEQEND
  5
18F3
  8
SAPA_FOGBAND
  0
POLYLINE
  5
103B
  8
SAPA_FOGBAND
 66
     1
 10
0.0
 20
0.0
 30
0.0
  0
VERTEX
  5
18F4
  8
SAPA_FOGBAND
 10
38.575000000016857
 20
135.94999992774439
 30
0.0
  0
VERTEX
  5
18F5
  8
SAPA_FOGBAND
 10
38.575000000013581
 20
132.4999999277446
 30
0.0
  0
VERTEX
  5
18F6
  8
SAPA_FOGBAND
 10
38.425000000015388
 20
132.4999999277446
 30
0.0
  0
VERTEX
  5
18F7
  8
SAPA_FOGBAND
 10
38.425000000015402
 20
135.94999992774439
 30
0.0
  0
SEQEND
  5
18F8
  8
SAPA_FOGBAND
  0
POLYLINE
  5
103C
  8
SAPA_FOGBAND
 66
     1
 10
0.0
 20
0.0
 30
0.0
  0
VERTEX
  5
18F9
  8
SAPA_FOGBAND
 10
38.350000000014681
 20
135.94999992774439
 30
0.0
  0
VERTEX
  5
18FA
  8
SAPA_FOGBAND
 10
38.240002614832427
 20
132.4999999277446
 30
0.0
  0
VERTEX
  5
18FB
  8
SAPA_FOGBAND
 10
35.801909274410271
 20
132.4999999277446
 30
0.0
  0
VERTEX
  5
18FC
  8
SAPA_FOGBAND
 10
36.927310396875093
 20
135.94999992774439
 30
0.0
  0
SEQEND
  5
18FD
  8
SAPA_FOGBAND
  0
POLYLINE
  5
103D
  8
SAPA_FOGBAND
 66
     1
 10
0.0
 20
0.0
 30
0.0
 70
     1
  0
VERTEX
  5
18FE
  8
SAPA_FOGBAND
 10
26.850000000003039
 20
136.7499999277446
 30
0.0
  0
VERTEX
  5
18FF
  8
SAPA_FOGBAND
 10
26.850000000003039
 20
135.94999992774439
 30
0.0
  0
VERTEX
  5
1900
  8
SAPA_FOGBAND
 10
33.150000000000119
 20
135.94999992774439
 30
0.0
  0
VERTEX
  5
1901
  8
SAPA_FOGBAND
 10
33.150000000000119
 20
136.7499999277446
 30
0.0
  0
SEQEND
  5
1902
  8
SAPA_FOGBAND
  0
POLYLINE
  5
103E
  8
SAPA_FOGBAND
 66
     1
 10
0.0
 20
0.0
 30
0.0
  0
VERTEX
  5
1903
  8
SAPA_FOGBAND
 10
31.572689603142621
 20
135.94999992774439
 30
0.0
  0
VERTEX
  5
1904
  8
SAPA_FOGBAND
 10
32.698136200458542
 20
132.4999999277446
 30
0.0
  0
VERTEX
  5
1905
  8
SAPA_FOGBAND
 10
30.259998153910011
 20
132.4999999277446
 30
0.0
  0
VERTEX
  5
1906
  8
SAPA_FOGBAND
 10
30.150000000003029
 20
135.94999992774439
 30
0.0
  0
SEQEND
  5
1907
  8
SAPA_FOGBAND
  0
POLYLINE
  5
103F
  8
SAPA_FOGBAND
 66
     1
 10
0.0
 20
0.0
 30
0.0
  0
VERTEX
  5
1908
  8
SAPA_FOGBAND
 10
30.075000000002309
 20
135.94999992774439
 30
0.0
  0
VERTEX
  5
1909
  8
SAPA_FOGBAND
 10
30.074999999999029
 20
132.4999999277446
 30
0.0
  0
VERTEX
  5
190A
  8
SAPA_FOGBAND
 10
29.925000000000839
 20
132.4999999277446
 30
0.0
  0
VERTEX
  5
190B
  8
SAPA_FOGBAND
 10
29.92500000000085
 20
135.94999992774439
 30
0.0
  0
SEQEND
  5
190C
  8
SAPA_FOGBAND
  0
POLYLINE
  5
1040
  8
SAPA_FOGBAND
 66
     1
 10
0.0
 20
0.0
 30
0.0
  0
VERTEX
  5
190D
  8
SAPA_FOGBAND
 10
29.850000000000119
 20
135.94999992774439
 30
0.0
  0
VERTEX
  5
190E
  8
SAPA_FOGBAND
 10
29.740002614817872
 20
132.4999999277446
 30
0.0
  0
VERTEX
  5
190F
  8
SAPA_FOGBAND
 10
27.301909274395712
 20
132.4999999277446
 30
0.0
  0
VERTEX
  5
1910
  8
SAPA_FOGBAND
 10
28.427310396860541
 20
135.94999992774439
 30
0.0
  0
SEQEND
  5
1911
  8
SAPA_FOGBAND
  0
POLYLINE
  5
1041
  8
SAPA_FOGBAND
 66
     1
 10
0.0
 20
0.0
 30
0.0
 70
     1
  0
VERTEX
  5
1912
  8
SAPA_FOGBAND
 10
35.568558811853343
 20
81.249999928082246
 30
0.0
  0
VERTEX
  5
1913
  8
SAPA_FOGBAND
 10
35.568558811853343
 20
82.049999928082457
 30
0.0
  0
VERTEX
  5
1914
  8
SAPA_FOGBAND
 10
41.868558811850413
 20
82.049999928082457
 30
0.0
  0
VERTEX
  5
1915
  8
SAPA_FOGBAND
 10
41.868558811850413
 20
81.249999928082246
 30
0.0
  0
SEQEND
  5
1916
  8
SAPA_FOGBAND
  0
POLYLINE
  5
1042
  8
SAPA_FOGBAND
 66
     1
 10
0.0
 20
0.0
 30
0.0
  0
VERTEX
  5
1917
  8
SAPA_FOGBAND
 10
40.291248414992907
 20
82.049999928082457
 30
0.0
  0
VERTEX
  5
1918
  8
SAPA_FOGBAND
 10
41.416695012308843
 20
85.499999928082261
 30
0.0
  0
VERTEX
  5
1919
  8
SAPA_FOGBAND
 10
38.978556965760298
 20
85.499999928082261
 30
0.0
  0
VERTEX
  5
191A
  8
SAPA_FOGBAND
 10
38.868558811853333
 20
82.049999928082457
 30
0.0
  0
SEQEND
  5
191B
  8
SAPA_FOGBAND
  0
POLYLINE
  5
1043
  8
SAPA_FOGBAND
 66
     1
 10
0.0
 20
0.0
 30
0.0
  0
VERTEX
  5
191C
  8
SAPA_FOGBAND
 10
38.793558811852613
 20
82.049999928082457
 30
0.0
  0
VERTEX
  5
191D
  8
SAPA_FOGBAND
 10
38.79355881184933
 20
85.499999928082261
 30
0.0
  0
VERTEX
  5
191E
  8
SAPA_FOGBAND
 10
38.643558811851143
 20
85.499999928082261
 30
0.0
  0
VERTEX
  5
191F
  8
SAPA_FOGBAND
 10
38.64355881185115
 20
82.049999928082457
 30
0.0
  0
SEQEND
  5
1920
  8
SAPA_FOGBAND
  0
POLYLINE
  5
1044
  8
SAPA_FOGBAND
 66
     1
 10
0.0
 20
0.0
 30
0.0
  0
VERTEX
  5
1921
  8
SAPA_FOGBAND
 10
38.568558811850423
 20
82.049999928082457
 30
0.0
  0
VERTEX
  5
1922
  8
SAPA_FOGBAND
 10
38.458561426668183
 20
85.499999928082261
 30
0.0
  0
VERTEX
  5
1923
  8
SAPA_FOGBAND
 10
36.020468086246019
 20
85.499999928082261
 30
0.0
  0
VERTEX
  5
1924
  8
SAPA_FOGBAND
 10
37.145869208710828
 20
82.049999928082457
 30
0.0
  0
SEQEND
  5
1925
  8
SAPA_FOGBAND
  0
POLYLINE
  5
1045
  8
SAPA_FOGBAND
 66
     1
 10
0.0
 20
0.0
 30
0.0
 70
     1
  0
VERTEX
  5
1926
  8
SAPA_FOGBAND
 10
27.068558811838791
 20
81.249999928082246
 30
0.0
  0
VERTEX
  5
1927
  8
SAPA_FOGBAND
 10
27.068558811838791
 20
82.049999928082457
 30
0.0
  0
VERTEX
  5
1928
  8
SAPA_FOGBAND
 10
33.368558811835868
 20
82.049999928082457
 30
0.0
  0
VERTEX
  5
1929
  8
SAPA_FOGBAND
 10
33.368558811835868
 20
81.249999928082246
 30
0.0
  0
SEQEND
  5
192A
  8
SAPA_FOGBAND
  0
POLYLINE
  5
1046
  8
SAPA_FOGBAND
 66
     1
 10
0.0
 20
0.0
 30
0.0
  0
VERTEX
  5
192B
  8
SAPA_FOGBAND
 10
31.791248414978369
 20
82.049999928082457
 30
0.0
  0
VERTEX
  5
192C
  8
SAPA_FOGBAND
 10
32.916695012294291
 20
85.499999928082261
 30
0.0
  0
VERTEX
  5
192D
  8
SAPA_FOGBAND
 10
30.47855696574576
 20
85.499999928082261
 30
0.0
  0
VERTEX
  5
192E
  8
SAPA_FOGBAND
 10
30.368558811838781
 20
82.049999928082457
 30
0.0
  0
SEQEND
  5
192F
  8
SAPA_FOGBAND
  0
POLYLINE
  5
1047
  8
SAPA_FOGBAND
 66
     1
 10
0.0
 20
0.0
 30
0.0
  0
VERTEX
  5
1930
  8
SAPA_FOGBAND
 10
30.293558811838061
 20
82.049999928082457
 30
0.0
  0
VERTEX
  5
1931
  8
SAPA_FOGBAND
 10
30.293558811834782
 20
85.499999928082261
 30
0.0
  0
VERTEX
  5
1932
  8
SAPA_FOGBAND
 10
30.143558811836591
 20
85.499999928082261
 30
0.0
  0
VERTEX
  5
1933
  8
SAPA_FOGBAND
 10
30.143558811836598
 20
82.049999928082457
 30
0.0
  0
SEQEND
  5
1934
  8
SAPA_FOGBAND
  0
POLYLINE
  5
1048
  8
SAPA_FOGBAND
 66
     1
 10
0.0
 20
0.0
 30
0.0
  0
VERTEX
  5
1935
  8
SAPA_FOGBAND
 10
30.068558811835871
 20
82.049999928082457
 30
0.0
  0
VERTEX
  5
1936
  8
SAPA_FOGBAND
 10
29.95856142665362
 20
85.499999928082261
 30
0.0
  0
VERTEX
  5
1937
  8
SAPA_FOGBAND
 10
27.52046808623146
 20
85.499999928082261
 30
0.0
  0
VERTEX
  5
1938
  8
SAPA_FOGBAND
 10
28.645869208696279
 20
82.049999928082457
 30
0.0
  0
SEQEND
  5
1939
  8
SAPA_FOGBAND
  0
POLYLINE
  5
1049
  8
SAPA_FOGBAND
 66
     1
 10
0.0
 20
0.0
 30
0.0
 70
     1
  0
VERTEX
  5
193A
  8
SAPA_FOGBAND
 10
26.85000000000306
 20
16.2500000000237
 30
0.0
  0
VERTEX
  5
193B
  8
SAPA_FOGBAND
 10
26.85000000000306
 20
17.050000000023878
 30
0.0
  0
VERTEX
  5
193C
  8
SAPA_FOGBAND
 10
33.150000000000148
 20
17.050000000023878
 30
0.0
  0
VERTEX
  5
193D
  8
SAPA_FOGBAND
 10
33.150000000000148
 20
16.2500000000237
 30
0.0
  0
SEQEND
  5
193E
  8
SAPA_FOGBAND
  0
POLYLINE
  5
104A
  8
SAPA_FOGBAND
 66
     1
 10
0.0
 20
0.0
 30
0.0
  0
VERTEX
  5
193F
  8
SAPA_FOGBAND
 10
31.572689603142649
 20
17.050000000023878
 30
0.0
  0
VERTEX
  5
1940
  8
SAPA_FOGBAND
 10
32.69813620045857
 20
20.5000000000237
 30
0.0
  0
VERTEX
  5
1941
  8
SAPA_FOGBAND
 10
30.259998153910029
 20
20.5000000000237
 30
0.0
  0
VERTEX
  5
1942
  8
SAPA_FOGBAND
 10
30.150000000003061
 20
17.050000000023878
 30
0.0
  0
SEQEND
  5
1943
  8
SAPA_FOGBAND
  0
POLYLINE
  5
104B
  8
SAPA_FOGBAND
 66
     1
 10
0.0
 20
0.0
 30
0.0
  0
VERTEX
  5
1944
  8
SAPA_FOGBAND
 10
30.07500000000233
 20
17.050000000023878
 30
0.0
  0
VERTEX
  5
1945
  8
SAPA_FOGBAND
 10
30.074999999999061
 20
20.5000000000237
 30
0.0
  0
VERTEX
  5
1946
  8
SAPA_FOGBAND
 10
29.925000000000871
 20
20.5000000000237
 30
0.0
  0
VERTEX
  5
1947
  8
SAPA_FOGBAND
 10
29.925000000000878
 20
17.050000000023878
 30
0.0
  0
SEQEND
  5
1948
  8
SAPA_FOGBAND
  0
POLYLINE
  5
104C
  8
SAPA_FOGBAND
 66
     1
 10
0.0
 20
0.0
 30
0.0
  0
VERTEX
  5
1949
  8
SAPA_FOGBAND
 10
29.850000000000151
 20
17.050000000023878
 30
0.0
  0
VERTEX
  5
194A
  8
SAPA_FOGBAND
 10
29.740002614817911
 20
20.5000000000237
 30
0.0
  0
VERTEX
  5
194B
  8
SAPA_FOGBAND
 10
27.30190927439574
 20
20.5000000000237
 30
0.0
  0
VERTEX
  5
194C
  8
SAPA_FOGBAND
 10
28.427310396860559
 20
17.050000000023878
 30
0.0
  0
SEQEND
  5
194D
  8
SAPA_FOGBAND
  0
POLYLINE
  5
104D
  8
SAPA_FOGBAND
 66
     1
 10
0.0
 20
0.0
 30
0.0
 70
     1
  0
VERTEX
  5
194E
  8
SAPA_FOGBAND
 10
55.365900619755529
 20
123.4999999281525
 30
0.0
 42
0.1850472530618334
  0
VERTEX
  5
194F
  8
SAPA_FOGBAND
 10
59.55692446205606
 20
125.773218411456
 30
0.0
  0
VERTEX
  5
1950
  8
SAPA_FOGBAND
 10
65.047352108296749
 20
134.22773564020301
 30
0.0
 42
-0.9741568709149724
  0
VERTEX
  5
1951
  8
SAPA_FOGBAND
 10
65.899700095854243
 20
133.70541612545401
 30
0.0
  0
VERTEX
  5
1952
  8
SAPA_FOGBAND
 10
60.65220104745044
 20
124.61648109300469
 30
0.0
 42
0.1225854743533026
  0
VERTEX
  5
1953
  8
SAPA_FOGBAND
 10
60.250277310636172
 20
123.1170119969869
 30
0.0
  0
VERTEX
  5
1954
  8
SAPA_FOGBAND
 10
60.250277310574774
 20
115.7422176634378
 30
0.0
 42
0.7231341048822281
  0
VERTEX
  5
1955
  8
SAPA_FOGBAND
 10
62.368520553540677
 20
114.37555190671181
 30
0.0
 42
-0.2949636304573953
  0
VERTEX
  5
1956
  8
SAPA_FOGBAND
 10
67.950277310531618
 20
113.9887372432575
 30
0.0
  0
VERTEX
  5
1957
  8
SAPA_FOGBAND
 10
67.950277310528776
 20
111.2499999280634
 30
0.0
  0
VERTEX
  5
1958
  8
SAPA_FOGBAND
 10
66.996584605867383
 20
110.6306646440913
 30
0.0
 42
-0.1449930994868795
  0
VERTEX
  5
1959
  8
SAPA_FOGBAND
 10
66.724265088368341
 20
110.5499999280668
 30
0.0
  0
VERTEX
  5
195A
  8
SAPA_FOGBAND
 10
66.650277310521403
 20
110.5499999280691
 30
0.0
 42
-0.4142135623645706
  0
VERTEX
  5
195B
  8
SAPA_FOGBAND
 10
66.150277310524586
 20
111.0499999280723
 30
0.0
  0
VERTEX
  5
195C
  8
SAPA_FOGBAND
 10
66.150277310527045
 20
111.43721146119189
 30
0.0
 42
0.3292444226696578
  0
VERTEX
  5
195D
  8
SAPA_FOGBAND
 10
65.726747897976978
 20
112.0106729958914
 30
0.0
 42
1.4872944655697831
  0
VERTEX
  5
195E
  8
SAPA_FOGBAND
 10
65.726747897938722
 20
105.98932686027091
 30
0.0
 42
0.3292444226696604
  0
VERTEX
  5
195F
  8
SAPA_FOGBAND
 10
66.150277310496065
 20
106.562788394965
 30
0.0
  0
VERTEX
  5
1960
  8
SAPA_FOGBAND
 10
66.150277310498524
 20
106.9499999280856
 30
0.0
 42
-0.4142135623651035
  0
VERTEX
  5
1961
  8
SAPA_FOGBAND
 10
66.650277310487155
 20
107.4499999280833
 30
0.0
  0
VERTEX
  5
1962
  8
SAPA_FOGBAND
 10
66.724265088341369
 20
107.44999992808469
 30
0.0
 42
-0.1449930994868797
  0
VERTEX
  5
1963
  8
SAPA_FOGBAND
 10
66.996584605846664
 20
107.3693352120567
 30
0.0
  0
VERTEX
  5
1964
  8
SAPA_FOGBAND
 10
67.950277310500184
 20
106.74999992806519
 30
0.0
  0
VERTEX
  5
1965
  8
SAPA_FOGBAND
 10
67.950277310482775
 20
104.01126261287111
 30
0.0
 42
-0.2484312924681684
  0
VERTEX
  5
1966
  8
SAPA_FOGBAND
 10
62.368520553472393
 20
103.62444794948409
 30
0.0
 42
0.5855924822446267
  0
VERTEX
  5
1967
  8
SAPA_FOGBAND
 10
60.250277310474559
 20
102.25778219278681
 30
0.0
  0
VERTEX
  5
1968
  8
SAPA_FOGBAND
 10
60.250277263483227
 20
94.883518773873504
 30
0.0
 42
0.1316524983794406
  0
VERTEX
  5
1969
  8
SAPA_FOGBAND
 10
60.652201047252028
 20
93.383518763216671
 30
0.0
  0
VERTEX
  5
196A
  8
SAPA_FOGBAND
 10
65.899700095539757
 20
84.294583730697823
 30
0.0
 42
-0.9741568709149699
  0
VERTEX
  5
196B
  8
SAPA_FOGBAND
 10
65.047352107964031
 20
83.772264215964839
 30
0.0
  0
VERTEX
  5
196C
  8
SAPA_FOGBAND
 10
59.559253468096841
 20
92.223195089578795
 30
0.0
 42
0.2539676473361846
  0
VERTEX
  5
196D
  8
SAPA_FOGBAND
 10
55.365900619571313
 20
94.499999928144263
 30
0.0
  0
VERTEX
  5
196E
  8
SAPA_FOGBAND
 10
53.036053409600839
 20
94.49999992815907
 30
0.0
 42
0.2216946624071653
  0
VERTEX
  5
196F
  8
SAPA_FOGBAND
 10
49.205831196869113
 20
92.71393798006153
 30
0.0
  0
VERTEX
  5
1970
  8
SAPA_FOGBAND
 10
43.675512525320833
 20
86.123160847136717
 30
0.0
 42
-1.126857075054595
  0
VERTEX
  5
1971
  8
SAPA_FOGBAND
 10
41.166984180095582
 20
87.721269654289429
 30
0.0
  0
VERTEX
  5
1972
  8
SAPA_FOGBAND
 10
42.416351811880723
 20
90.400547186871776
 30
0.0
 42
-0.0436609429066319
  0
VERTEX
  5
1973
  8
SAPA_FOGBAND
 10
42.590663297372508
 20
90.702463536082263
 30
0.0
  0
VERTEX
  5
1974
  8
SAPA_FOGBAND
 10
43.866804987606251
 20
92.52498274722528
 30
0.0
 42
-0.957291742260092
  0
VERTEX
  5
1975
  8
SAPA_FOGBAND
 10
44.540875966826768
 20
92.095552172676776
 30
0.0
  0
VERTEX
  5
1976
  8
SAPA_FOGBAND
 10
43.362941982171883
 20
90.055310663385043
 30
0.0
 42
0.0218200776225929
  0
VERTEX
  5
1977
  8
SAPA_FOGBAND
 10
43.322659598917312
 20
89.977928925127813
 30
0.0
  0
VERTEX
  5
1978
  8
SAPA_FOGBAND
 10
42.073291967145259
 20
87.298651392544812
 30
0.0
 42
0.2887584577560343
  0
VERTEX
  5
1979
  8
SAPA_FOGBAND
 10
42.14022358356123
 20
86.769801157756717
 30
0.0
 42
1.2247448713754381
  0
VERTEX
  5
197A
  8
SAPA_FOGBAND
 10
42.487859413580843
 20
86.588833399062025
 30
0.0
 42
0.2887584577534809
  0
VERTEX
  5
197B
  8
SAPA_FOGBAND
 10
42.959458562546793
 20
86.837342261670884
 30
0.0
  0
VERTEX
  5
197C
  8
SAPA_FOGBAND
 10
46.821857718099793
 20
92.350102746099395
 30
0.0
 42
0.1539147210599354
  0
VERTEX
  5
197D
  8
SAPA_FOGBAND
 10
48.630337275242837
 20
98.085867109603981
 30
0.0
  0
VERTEX
  5
197E
  8
SAPA_FOGBAND
 10
48.630337275352403
 20
119.9141327467798
 30
0.0
 42
0.1539147210595579
  0
VERTEX
  5
197F
  8
SAPA_FOGBAND
 10
46.821857718269413
 20
125.649897110314
 30
0.0
  0
VERTEX
  5
1980
  8
SAPA_FOGBAND
 10
42.936021883074709
 20
131.19944581293899
 30
0.0
 42
0.2652670038588143
  0
VERTEX
  5
1981
  8
SAPA_FOGBAND
 10
42.487859413856221
 20
131.41116645737671
 30
0.0
 42
1.2247448713754421
  0
VERTEX
  5
1982
  8
SAPA_FOGBAND
 10
42.140223583843678
 20
131.23019869868509
 30
0.0
 42
0.288758457756027
  0
VERTEX
  5
1983
  8
SAPA_FOGBAND
 10
42.073291967414448
 20
130.70134846389769
 30
0.0
  0
VERTEX
  5
1984
  8
SAPA_FOGBAND
 10
43.322659599157532
 20
128.0220709313007
 30
0.0
 42
0.0218200776226741
  0
VERTEX
  5
1985
  8
SAPA_FOGBAND
 10
43.362941982411719
 20
127.9446891930389
 30
0.0
  0
VERTEX
  5
1986
  8
SAPA_FOGBAND
 10
44.540875967039433
 20
125.9044476837345
 30
0.0
 42
-0.9572917422600935
  0
VERTEX
  5
1987
  8
SAPA_FOGBAND
 10
43.866804987810497
 20
125.47501710919749
 30
0.0
  0
VERTEX
  5
1988
  8
SAPA_FOGBAND
 10
42.590663297605872
 20
127.2975363203516
 30
0.0
 42
-0.0436609429066254
  0
VERTEX
  5
1989
  8
SAPA_FOGBAND
 10
42.41635181211997
 20
127.5994526695643
 30
0.0
  0
VERTEX
  5
198A
  8
SAPA_FOGBAND
 10
41.166984180365937
 20
130.2787302021658
 30
0.0
 42
-0.8895204030443752
  0
VERTEX
  5
198B
  8
SAPA_FOGBAND
 10
43.675512525611481
 20
131.8768390092867
 30
0.0
  0
VERTEX
  5
198C
  8
SAPA_FOGBAND
 10
49.20583119707576
 20
125.28606187631451
 30
0.0
 42
0.2216946624071884
  0
VERTEX
  5
198D
  8
SAPA_FOGBAND
 10
53.036053409785062
 20
123.4999999281679
 30
0.0
  0
SEQEND
  5
198E
  8
SAPA_FOGBAND
  0
POLYLINE
  5
104E
  8
SAPA_FOGBAND
 66
     1
 10
0.0
 20
0.0
 30
0.0
 70
     1
  0
VERTEX
  5
198F
  8
SAPA_FOGBAND
 10
56.750277310441149
 20
96.999999928146622
 30
0.0
 42
0.4142135623714636
  0
VERTEX
  5
1990
  8
SAPA_FOGBAND
 10
58.75027731045386
 20
98.999999928122776
 30
0.0
  0
VERTEX
  5
1991
  8
SAPA_FOGBAND
 10
58.750277310580913
 20
118.99999992813029
 30
0.0
 42
0.4142135623715295
  0
VERTEX
  5
1992
  8
SAPA_FOGBAND
 10
56.750277310593617
 20
120.9999999281434
 30
0.0
  0
VERTEX
  5
1993
  8
SAPA_FOGBAND
 10
52.130337275388399
 20
120.99999992817391
 30
0.0
 42
0.4142135623718642
  0
VERTEX
  5
1994
  8
SAPA_FOGBAND
 10
50.130337275375688
 20
118.999999928188
 30
0.0
  0
VERTEX
  5
1995
  8
SAPA_FOGBAND
 10
50.13033727524865
 20
98.999999928176621
 30
0.0
 42
0.4142135623719296
  0
VERTEX
  5
1996
  8
SAPA_FOGBAND
 10
52.130337275235938
 20
96.999999928171874
 30
0.0
  0
SEQEND
  5
1997
  8
SAPA_FOGBAND
  0
DIMENSION
  5
105A
  8
SAPA_MATT
  2
*D43
 10
85.0
 20
180.99999985600741
 30
0.0
 11
39.250000000011141
 21
183.74999985600741
 31
0.0
 70
     0
 13
-6.4999999999777174
 23
131.17605899532811
 33
0.0
 14
85.0
 24
138.69999985599719
 34
0.0
 50
180.0
1001
ACAD
1000
DSTYLE
1002
{
1070
    40
1040
1.0
1002
}
  0
DIMENSION
  5
105B
  8
SAPA_MATT
  2
*D42
 10
25.000000000000121
 20
168.99999985600741
 30
0.0
 11
55.000000000000057
 21
171.74999985600741
 31
0.0
 70
     0
 13
85.0
 23
138.69999985599719
 33
0.0
 14
25.00000000000011
 24
137.49999985600741
 34
0.0
 50
180.0
1001
ACAD
1000
DSTYLE
1002
{
1070
    40
1040
1.0
1002
}
  0
DIMENSION
  5
105C
  8
SAPA_MATT
  2
*D41
 10
-60.999999999999972
 20
13.999999928252739
 30
0.0
 11
-60.999999999999972
 21
76.499999928003746
 31
0.0
 70
   128
 13
26.50000000000011
 23
138.9999999277548
 33
0.0
 14
24.500000000000139
 24
13.99999992825272
 34
0.0
 50
270.0
1001
ACAD
1000
DSTYLE
1002
{
1070
    40
1040
1.0
1002
}
  0
DIMENSION
  5
105D
  8
SAPA_MATT
  2
*D40
 10
-49.0
 20
13.999999928252739
 30
0.0
 11
-48.239486851189753
 21
50.142264778476473
 31
0.0
 70
   128
 13
10.000000000071729
 23
83.999999928250375
 33
0.0
 14
24.500000000000139
 24
13.99999992825272
 34
0.0
 50
270.0
1001
ACAD
1000
DSTYLE
1002
{
1070
   287
1070
     4
1070
    40
1040
1.0
1070
   279
1070
     1
1002
}
  0
DIMENSION
  5
105E
  8
SAPA_MATT
  2
*D39
 10
-49.0
 20
83.999999928250389
 30
0.0
 11
-51.750000000000007
 21
108.99999992791059
 31
0.0
 70
     0
 13
10.000000000071729
 23
133.9999999275708
 33
0.0
 14
10.000000000071729
 24
83.999999928250375
 34
0.0
 50
270.0
1001
ACAD
1000
DSTYLE
1002
{
1070
   287
1070
     4
1070
    40
1040
1.0
1070
   279
1070
     1
1002
}
  0
DIMENSION
  5
105F
  8
SAPA_MATT
  2
*D38
 10
-48.999999999999979
 20
133.9999999275708
 30
0.0
 11
-49.0
 21
136.4999999276628
 31
0.0
 70
   128
 13
26.50000000000011
 23
138.9999999277548
 33
0.0
 14
10.000000000071729
 24
133.9999999275708
 34
0.0
 50
270.0
1001
ACAD
1000
DSTYLE
1002
{
1070
    40
1040
1.0
1002
}
  0
DIMENSION
  5
1060
  8
SAPA_MATT
  2
*D37
 10
-6.4999999999777138
 20
168.9999999277548
 30
0.0
 11
9.2500000000112017
 21
171.7499999277548
 31
0.0
 70
     0
 13
25.00000000000011
 23
137.49999992775469
 33
0.0
 14
-6.4999999999777174
 24
131.17605899532811
 34
0.0
 50
180.0
1001
ACAD
1000
DSTYLE
1002
{
1070
   287
1070
     4
1070
    40
1040
1.0
1070
   279
1070
     1
1002
}
  0
VIEWPORT
  5
C4
 67
     1
  8
0
 10
160.5543545598442
 20
116.00969601843509
 30
0.0
 40
404.96977709277462
 41
256.8421457311839
 68
     1
 69
     1
1001
ACAD
1000
MVIEW
1002
{
1070
    16
1010
0.0
1020
0.0
1030
0.0
1010
0.0
1020
0.0
1030
1.0
1040
0.0
1040
256.8421457311839
1040
99.206250190734863
1040
130.70624923706049
1040
50.0
1040
0.0
1040
0.0
1070
     0
1070
     0
1070
     1
1070
     1
1070
     0
1070
     0
1070
     0
1070
     0
1040
0.0
1040
0.0
1040
0.0
1040
10.0
1040
10.0
1040
10.0
1040
10.0
1070
     0
1002
{
1002
}
1002
}
  0
ENDSEC
  0
EOF
