  0
SECTION
  2
HEADER
  9
$ACADVER
  1
AC1009
  9
$INSBASE
 10
0.0
 20
0.0
 30
0.0
  9
$EXTMIN
 10
-19.755365308950608
 20
-30.619466477045879
 30
-0.2
  9
$EXTMAX
 10
147.49999999999989
 20
194.003255934413
 30
0.0000000048844772
  9
$LIMMIN
 10
0.0
 20
0.0
  9
$LIMMAX
 10
790.0
 20
790.0
  9
$ORTHOMODE
 70
     1
  9
$REGENMODE
 70
     1
  9
$FILLMODE
 70
     1
  9
$QTEXTMODE
 70
     0
  9
$MIRRTEXT
 70
     1
  9
$DRAGMODE
 70
     2
  9
$LTSCALE
 40
4.0
  9
$OSMODE
 70
   167
  9
$ATTMODE
 70
     1
  9
$TEXTSIZE
 40
3.5
  9
$TRACEWID
 40
0.05
  9
$TEXTSTYLE
  7
ISO
  9
$CLAYER
  8
0
  9
$CELTYPE
  6
BYLAYER
  9
$CECOLOR
 62
   256
  9
$DIMSCALE
 40
0.0
  9
$DIMASZ
 40
3.0
  9
$DIMEXO
 40
1.5
  9
$DIMDLI
 40
10.0
  9
$DIMRND
 40
0.0
  9
$DIMDLE
 40
0.0
  9
$DIMEXE
 40
1.5
  9
$DIMTP
 40
0.0
  9
$DIMTM
 40
0.0
  9
$DIMTXT
 40
3.5
  9
$DIMCEN
 40
-5.0
  9
$DIMTSZ
 40
0.0
  9
$DIMTOL
 70
     0
  9
$DIMLIM
 70
     0
  9
$DIMTIH
 70
     0
  9
$DIMTOH
 70
     0
  9
$DIMSE1
 70
     0
  9
$DIMSE2
 70
     0
  9
$DIMTAD
 70
     1
  9
$DIMZIN
 70
     8
  9
$DIMBLK
  1

  9
$DIMASO
 70
     1
  9
$DIMSHO
 70
     1
  9
$DIMPOST
  1

  9
$DIMAPOST
  1

  9
$DIMALT
 70
     0
  9
$DIMALTD
 70
     0
  9
$DIMALTF
 40
25.399999999999999
  9
$DIMLFAC
 40
-1.0
  9
$DIMTOFL
 70
     1
  9
$DIMTVP
 40
0.0
  9
$DIMTIX
 70
     0
  9
$DIMSOXD
 70
     0
  9
$DIMSAH
 70
     0
  9
$DIMBLK1
  1

  9
$DIMBLK2
  1

  9
$DIMSTYLE
  2
MASKIN
  9
$DIMCLRD
 70
   256
  9
$DIMCLRE
 70
   256
  9
$DIMCLRT
 70
     2
  9
$DIMTFAC
 40
1.0
  9
$DIMGAP
 40
1.0
  9
$LUNITS
 70
     2
  9
$LUPREC
 70
     8
  9
$SKETCHINC
 40
0.1
  9
$FILLETRAD
 40
0.0
  9
$AUNITS
 70
     0
  9
$AUPREC
 70
     8
  9
$MENU
  1
ACAD
  9
$ELEVATION
 40
0.0
  9
$PELEVATION
 40
0.0
  9
$THICKNESS
 40
0.0
  9
$LIMCHECK
 70
     0
  9
$BLIPMODE
 70
     0
  9
$CHAMFERA
 40
0.0
  9
$CHAMFERB
 40
0.0
  9
$SKPOLY
 70
     0
  9
$TDCREATE
 40
2455734.518348461
  9
$TDUPDATE
 40
2455994.4992288779
  9
$TDINDWG
 40
1.1451597801
  9
$TDUSRTIMER
 40
1.1451595949
  9
$USRTIMER
 70
     1
  9
$ANGBASE
 50
0.0
  9
$ANGDIR
 70
     0
  9
$PDMODE
 70
     0
  9
$PDSIZE
 40
0.0
  9
$PLINEWID
 40
0.0
  9
$COORDS
 70
     1
  9
$SPLFRAME
 70
     0
  9
$SPLINETYPE
 70
     6
  9
$SPLINESEGS
 70
     8
  9
$ATTDIA
 70
     0
  9
$ATTREQ
 70
     1
  9
$HANDLING
 70
     1
  9
$HANDSEED
  5
199C
  9
$SURFTAB1
 70
     6
  9
$SURFTAB2
 70
     6
  9
$SURFTYPE
 70
     6
  9
$SURFU
 70
     6
  9
$SURFV
 70
     6
  9
$UCSNAME
  2

  9
$UCSORG
 10
0.0
 20
0.0
 30
0.0
  9
$UCSXDIR
 10
1.0
 20
0.0
 30
0.0
  9
$UCSYDIR
 10
0.0
 20
1.0
 30
0.0
  9
$PUCSNAME
  2

  9
$PUCSORG
 10
0.0
 20
0.0
 30
0.0
  9
$PUCSXDIR
 10
1.0
 20
0.0
 30
0.0
  9
$PUCSYDIR
 10
0.0
 20
1.0
 30
0.0
  9
$USERI1
 70
     0
  9
$USERI2
 70
     0
  9
$USERI3
 70
     0
  9
$USERI4
 70
     0
  9
$USERI5
 70
     0
  9
$USERR1
 40
0.0
  9
$USERR2
 40
0.0
  9
$USERR3
 40
0.0
  9
$USERR4
 40
0.0
  9
$USERR5
 40
0.0
  9
$WORLDVIEW
 70
     1
  9
$SHADEDGE
 70
     3
  9
$SHADEDIF
 70
    70
  9
$TILEMODE
 70
     1
  9
$MAXACTVP
 70
    16
  9
$PLIMCHECK
 70
     0
  9
$PEXTMIN
 10
1.0000000000000000E+020
 20
1.0000000000000000E+020
 30
1.0000000000000000E+020
  9
$PEXTMAX
 10
-1.0000000000000000E+020
 20
-1.0000000000000000E+020
 30
-1.0000000000000000E+020
  9
$PLIMMIN
 10
-5.069427490234375
 20
-5.8737497329711914
  9
$PLIMMAX
 10
291.89889526367187
 20
204.0995779037475
  9
$UNITMODE
 70
     0
  9
$VISRETAIN
 70
     1
  9
$PLINEGEN
 70
     0
  9
$PSLTSCALE
 70
     1
  0
ENDSEC
  0
SECTION
  2
TABLES
  0
TABLE
  2
VPORT
 70
     1
  0
VPORT
  2
*ACTIVE
 70
     0
 10
0.0
 20
0.0
 11
1.0
 21
1.0
 12
72.192362089842447
 22
141.91035595763009
 13
0.0
 23
0.0
 14
1.0
 24
1.0
 15
0.0
 25
0.0
 16
0.0
 26
0.0
 36
1.0
 17
0.0
 27
0.0
 37
0.0
 40
225.4963203039284
 41
2.37391304347826
 42
50.0
 43
0.0
 44
0.0
 50
0.0
 51
0.0
 71
     0
 72
   100
 73
     1
 74
     1
 75
     0
 76
     0
 77
     0
 78
     0
  0
ENDTAB
  0
TABLE
  2
LTYPE
 70
     5
  0
LTYPE
  2
CONTINUOUS
 70
     0
  3
Solid line
 72
    65
 73
     0
 40
0.0
  0
LTYPE
  2
BYGG-027390$0$NEWDOT
 70
     0
  3
____ . ____ . ____ . ____ . ____ . ____ . ____
 72
    65
 73
     4
 40
2.0
 49
1.0
 49
-0.5
 49
0.0
 49
-0.5
  0
LTYPE
  2
BYGG-027368$0$NEWDOT
 70
     0
  3
____ . ____ . ____ . ____ . ____ . ____ . ____
 72
    65
 73
     4
 40
2.0
 49
1.0
 49
-0.5
 49
0.0
 49
-0.5
  0
LTYPE
  2
BYGG-027387$0$NEWDOT
 70
     0
  3
____ . ____ . ____ . ____ . ____ . ____ . ____
 72
    65
 73
     4
 40
2.0
 49
1.0
 49
-0.5
 49
0.0
 49
-0.5
  0
LTYPE
  2
BYGG-027385$0$NEWDOT
 70
     0
  3
____ . ____ . ____ . ____ . ____ . ____ . ____
 72
    65
 73
     4
 40
2.0
 49
1.0
 49
-0.5
 49
0.0
 49
-0.5
  0
ENDTAB
  0
TABLE
  2
LAYER
 70
    41
  0
LAYER
  2
0
 70
     0
 62
     7
  6
CONTINUOUS
  0
LAYER
  2
DEFPOINTS
 70
     0
 62
     7
  6
CONTINUOUS
  0
LAYER
  2
SAPA_ARTIKELNR
 70
     0
 62
     4
  6
CONTINUOUS
  0
LAYER
  2
SAPA_ANSLUTNING
 70
     0
 62
     6
  6
CONTINUOUS
  0
LAYER
  2
SAPA_MATT
 70
     0
 62
     1
  6
CONTINUOUS
  0
LAYER
  2
SAPA_GLAS
 70
     0
 62
     4
  6
CONTINUOUS
  0
LAYER
  2
SAPA_FOGBAND
 70
     0
 62
     2
  6
CONTINUOUS
  0
LAYER
  2
SAPA_PROFIL
 70
     0
 62
     7
  6
CONTINUOUS
  0
ENDTAB
  0
TABLE
  2
STYLE
 70
    22
  0
STYLE
  2
STANDARD
 70
     0
 40
0.0
 41
1.0
 50
0.0
 71
     0
 42
0.2
  3
txt
  4

  0
STYLE
  2
ISO
 70
     0
 40
0.0
 41
1.0
 50
0.0
 71
     0
 42
3.5
  3
txt
  4

  0
STYLE
  2
BYGG-027392$0$STANDARD
 70
     0
 40
0.0
 41
1.0
 50
0.0
 71
     0
 42
0.2
  3
txt
  4

  0
STYLE
  2
BYGG-027392$0$ISO
 70
     0
 40
0.0
 41
1.0
 50
0.0
 71
     0
 42
3.5
  3
txt
  4

  0
STYLE
  2
BYGG-027457$0$STANDARD
 70
     0
 40
0.0
 41
1.0
 50
0.0
 71
     0
 42
0.2
  3
txt
  4

  0
STYLE
  2
BYGG-027457$0$ISO
 70
     0
 40
0.0
 41
1.0
 50
0.0
 71
     0
 42
3.5
  3
txt
  4

  0
STYLE
  2
BYGG-027390$0$STANDARD
 70
     0
 40
0.0
 41
1.0
 50
0.0
 71
     0
 42
0.2
  3
txt
  4

  0
STYLE
  2
BYGG-027390$0$ISO
 70
     0
 40
0.0
 41
1.0
 50
0.0
 71
     0
 42
3.5
  3
txt
  4

  0
STYLE
  2
BYGG-027458$0$STANDARD
 70
     0
 40
0.0
 41
1.0
 50
0.0
 71
     0
 42
0.2
  3
txt
  4

  0
STYLE
  2
BYGG-027458$0$ISO
 70
     0
 40
0.0
 41
1.0
 50
0.0
 71
     0
 42
3.5
  3
txt
  4

  0
STYLE
  2
BYGG-027368$0$STANDARD
 70
     0
 40
0.0
 41
1.0
 50
0.0
 71
     0
 42
0.2
  3
txt
  4

  0
STYLE
  2
BYGG-027368$0$ISO
 70
     0
 40
0.0
 41
1.0
 50
0.0
 71
     0
 42
3.5
  3
txt
  4

  0
STYLE
  2
BYGG-027460$0$STANDARD
 70
     0
 40
0.0
 41
1.0
 50
0.0
 71
     0
 42
0.2
  3
txt
  4

  0
STYLE
  2
BYGG-027460$0$ISO
 70
     0
 40
0.0
 41
1.0
 50
0.0
 71
     0
 42
3.5
  3
txt
  4

  0
STYLE
  2
BYGG-027387$0$STANDARD
 70
     0
 40
0.0
 41
1.0
 50
0.0
 71
     0
 42
0.2
  3
txt
  4

  0
STYLE
  2
BYGG-027387$0$ISO
 70
     0
 40
0.0
 41
1.0
 50
0.0
 71
     0
 42
3.5
  3
txt
  4

  0
STYLE
  2
BYGG-027394$0$STANDARD
 70
     0
 40
0.0
 41
1.0
 50
0.0
 71
     0
 42
0.2
  3
txt
  4

  0
STYLE
  2
BYGG-027394$0$ISO
 70
     0
 40
0.0
 41
1.0
 50
0.0
 71
     0
 42
3.5
  3
txt
  4

  0
STYLE
  2
BYGG-027414$0$STANDARD
 70
     0
 40
0.0
 41
1.0
 50
0.0
 71
     0
 42
0.2
  3
txt
  4

  0
STYLE
  2
BYGG-027414$0$ISO
 70
     0
 40
0.0
 41
1.0
 50
0.0
 71
     0
 42
3.5
  3
txt
  4

  0
STYLE
  2
BYGG-027385$0$STANDARD
 70
     0
 40
0.0
 41
1.0
 50
0.0
 71
     0
 42
0.2
  3
txt
  4

  0
STYLE
  2
BYGG-027385$0$ISO
 70
     0
 40
0.0
 41
1.0
 50
0.0
 71
     0
 42
3.5
  3
txt
  4

  0
ENDTAB
  0
TABLE
  2
VIEW
 70
     0
  0
ENDTAB
  0
TABLE
  2
UCS
 70
     0
  0
ENDTAB
  0
TABLE
  2
APPID
 70
    28
  0
APPID
  2
ACAD
 70
     0
  0
APPID
  2
ACAD_DSTYLE_DIMTEXT_FILL
 70
     0
  0
APPID
  2
ACAD_DSTYLE_DIMEXT_LENGTH
 70
     0
  0
APPID
  2
ACAD_DSTYLE_DIMEXT_ENABLED
 70
     0
  0
APPID
  2
ACAD_DSTYLE_DIM_LINETYPE
 70
     0
  0
APPID
  2
ACAD_DSTYLE_DIM_EXT1_LINETYPE
 70
     0
  0
APPID
  2
ACAD_DSTYLE_DIM_EXT2_LINETYPE
 70
     0
  0
APPID
  2
ACAD_DSTYLE_DIMJOGGED_JOGA
 70
     0
  0
APPID
  2
ACAD_DSTYLE_DIMARC_LENGTH_
 70
     0
  0
APPID
  2
ACAD_PSEXT
 70
     0
  0
APPID
  2
ACAD_MLEADERVER
 70
     0
  0
APPID
  2
GENIUS_GENODEF_13
 70
     0
  0
APPID
  2
RC_PROFILE
 70
     0
  0
APPID
  2
ACAECLAYERSTANDARD
 70
     0
  0
APPID
  2
GENIUS_GENOBJ-N-FIL_13
 70
     0
  0
APPID
  2
ACADANNOTATIVE
 70
     0
  0
APPID
  2
ACAD_EXEMPT_FROM_CAD_STANDARDS
 70
     0
  0
APPID
  2
AEC_XDATA_BOUND_SPACE
 70
     0
  0
APPID
  2
ACAD_DSTYLE_DIMJAG
 70
     0
  0
APPID
  2
ACAD_DSTYLE_DIMTALN
 70
     0
  0
APPID
  2
GENIUS_GENREC_14
 70
     0
  0
APPID
  2
GENIUS_GENOBJ-N-REC_13
 70
     0
  0
APPID
  2
ACDBDYNAMICBLOCKTRUENAME
 70
     0
  0
APPID
  2
ACDBBLOCKREPETAG
 70
     0
  0
APPID
  2
ACDBDYNAMICBLOCKGUID
 70
     0
  0
APPID
  2
ACDBBLOCKREPBTAG
 70
     0
  0
APPID
  2
ACAD_NAV_VCDISPLAY
 70
     0
  0
APPID
  2
ACCMTRANSPARENCY
 70
     0
  0
ENDTAB
  0
TABLE
  2
DIMSTYLE
 70
    11
  0
DIMSTYLE
  2
MASKIN
 70
     0
  3

  4

  5

  6

  7

 40
0.0
 41
3.0
 42
1.5
 43
10.0
 44
1.5
 45
0.0
 46
0.0
 47
0.0
 48
0.0
140
3.5
141
-5.0
142
0.0
143
25.399999999999999
144
-1.0
145
0.0
146
1.0
147
1.0
 71
     0
 72
     0
 73
     0
 74
     0
 75
     0
 76
     0
 77
     1
 78
     8
170
     0
171
     0
172
     1
173
     0
174
     0
175
     0
176
   256
177
   256
178
     2
  0
DIMSTYLE
  2
BYGG-027392$0$MASKIN
 70
     0
  3

  4

  5

  6

  7

 40
0.0
 41
3.0
 42
1.5
 43
10.0
 44
1.5
 45
0.0
 46
0.0
 47
0.0
 48
0.0
140
3.0
141
-5.0
142
0.0
143
25.399999999999999
144
-1.0
145
0.0
146
1.0
147
1.0
 71
     0
 72
     0
 73
     0
 74
     0
 75
     0
 76
     0
 77
     1
 78
     8
170
     0
171
     0
172
     1
173
     0
174
     0
175
     0
176
   256
177
   256
178
     2
  0
DIMSTYLE
  2
BYGG-027457$0$MASKIN
 70
     0
  3

  4

  5

  6

  7

 40
0.0
 41
3.0
 42
1.5
 43
10.0
 44
1.5
 45
0.0
 46
0.0
 47
0.0
 48
0.0
140
3.0
141
-5.0
142
0.0
143
25.399999999999999
144
-1.0
145
0.0
146
1.0
147
1.0
 71
     0
 72
     0
 73
     0
 74
     0
 75
     0
 76
     0
 77
     1
 78
     8
170
     0
171
     0
172
     1
173
     0
174
     0
175
     0
176
   256
177
   256
178
     2
  0
DIMSTYLE
  2
BYGG-027390$0$MASKIN
 70
     0
  3

  4

  5

  6

  7

 40
0.0
 41
3.0
 42
1.5
 43
10.0
 44
1.5
 45
0.0
 46
0.0
 47
0.0
 48
0.0
140
3.0
141
-5.0
142
0.0
143
25.399999999999999
144
-1.0
145
0.0
146
1.0
147
1.0
 71
     0
 72
     0
 73
     0
 74
     0
 75
     0
 76
     0
 77
     1
 78
     8
170
     0
171
     0
172
     1
173
     0
174
     0
175
     0
176
   256
177
   256
178
     2
  0
DIMSTYLE
  2
BYGG-027458$0$MASKIN
 70
     0
  3

  4

  5

  6

  7

 40
0.0
 41
3.0
 42
1.5
 43
10.0
 44
1.5
 45
0.0
 46
0.0
 47
0.0
 48
0.0
140
3.0
141
-5.0
142
0.0
143
25.399999999999999
144
-1.0
145
0.0
146
1.0
147
1.0
 71
     0
 72
     0
 73
     0
 74
     0
 75
     0
 76
     0
 77
     1
 78
     8
170
     0
171
     0
172
     1
173
     0
174
     0
175
     0
176
   256
177
   256
178
     2
  0
DIMSTYLE
  2
BYGG-027368$0$MASKIN
 70
     0
  3

  4

  5

  6

  7

 40
0.0
 41
3.0
 42
1.5
 43
10.0
 44
1.5
 45
0.0
 46
0.0
 47
0.0
 48
0.0
140
3.0
141
-5.0
142
0.0
143
25.399999999999999
144
-1.0
145
0.0
146
1.0
147
1.0
 71
     0
 72
     0
 73
     0
 74
     0
 75
     0
 76
     0
 77
     1
 78
     8
170
     0
171
     0
172
     1
173
     0
174
     0
175
     0
176
   256
177
   256
178
     2
  0
DIMSTYLE
  2
BYGG-027460$0$MASKIN
 70
     0
  3

  4

  5

  6

  7

 40
0.0
 41
3.0
 42
1.5
 43
10.0
 44
1.5
 45
0.0
 46
0.0
 47
0.0
 48
0.0
140
3.0
141
-5.0
142
0.0
143
25.399999999999999
144
-1.0
145
0.0
146
1.0
147
1.0
 71
     0
 72
     0
 73
     0
 74
     0
 75
     0
 76
     0
 77
     1
 78
     8
170
     0
171
     0
172
     1
173
     0
174
     0
175
     0
176
   256
177
   256
178
     2
  0
DIMSTYLE
  2
BYGG-027387$0$MASKIN
 70
     0
  3

  4

  5

  6

  7

 40
0.0
 41
3.0
 42
1.5
 43
10.0
 44
1.5
 45
0.0
 46
0.0
 47
0.0
 48
0.0
140
3.0
141
-5.0
142
0.0
143
25.399999999999999
144
-1.0
145
0.0
146
1.0
147
1.0
 71
     0
 72
     0
 73
     0
 74
     0
 75
     0
 76
     0
 77
     1
 78
     8
170
     0
171
     0
172
     1
173
     0
174
     0
175
     0
176
   256
177
   256
178
     2
  0
DIMSTYLE
  2
BYGG-027394$0$MASKIN
 70
     0
  3

  4

  5

  6

  7

 40
0.0
 41
3.0
 42
1.5
 43
10.0
 44
1.5
 45
0.0
 46
0.0
 47
0.0
 48
0.0
140
3.0
141
-5.0
142
0.0
143
25.399999999999999
144
-1.0
145
0.0
146
1.0
147
1.0
 71
     0
 72
     0
 73
     0
 74
     0
 75
     0
 76
     0
 77
     1
 78
     8
170
     0
171
     0
172
     1
173
     0
174
     0
175
     0
176
   256
177
   256
178
     2
  0
DIMSTYLE
  2
BYGG-027414$0$MASKIN
 70
     0
  3

  4

  5

  6

  7

 40
0.0
 41
3.0
 42
1.5
 43
10.0
 44
1.5
 45
0.0
 46
0.0
 47
0.0
 48
0.0
140
3.0
141
-5.0
142
0.0
143
25.399999999999999
144
-1.0
145
0.0
146
1.0
147
1.0
 71
     0
 72
     0
 73
     0
 74
     0
 75
     0
 76
     0
 77
     1
 78
     8
170
     0
171
     0
172
     1
173
     0
174
     0
175
     0
176
   256
177
   256
178
     2
  0
DIMSTYLE
  2
BYGG-027385$0$MASKIN
 70
     0
  3

  4

  5

  6

  7

 40
0.0
 41
3.0
 42
1.5
 43
10.0
 44
1.5
 45
0.0
 46
0.0
 47
0.0
 48
0.0
140
3.0
141
-5.0
142
0.0
143
25.399999999999999
144
-1.0
145
0.0
146
1.0
147
1.0
 71
     0
 72
     0
 73
     0
 74
     0
 75
     0
 76
     0
 77
     1
 78
     8
170
     0
171
     0
172
     1
173
     0
174
     0
175
     0
176
   256
177
   256
178
     2
  0
ENDTAB
  0
ENDSEC
  0
SECTION
  2
BLOCKS
  0
BLOCK
  8
0
  2
$MODEL_SPACE
 70
     0
 10
0.0
 20
0.0
 30
0.0
  3
$MODEL_SPACE
  1

  0
ENDBLK
  5
37
  8
0
  0
BLOCK
 67
     1
  8
0
  2
$PAPER_SPACE
 70
     0
 10
0.0
 20
0.0
 30
0.0
  3
$PAPER_SPACE
  1

  0
ENDBLK
  5
35
 67
     1
  8
0
  0
BLOCK
  8
0
  2
*D37
 70
     1
 10
0.0
 20
0.0
 30
0.0
  3
*D37
  1

  0
LINE
  5
18FE
  8
SAPA_MATT
 10
59.999999999999801
 20
14.00000000000014
 30
0.0
 11
59.999999999999801
 21
-7.4999999999999138
 31
0.0
  0
LINE
  5
18FF
  8
SAPA_MATT
 10
91.499999999977632
 20
20.323940932426812
 30
0.0
 11
91.499999999977632
 21
-7.4999999999999138
 31
0.0
  0
LINE
  5
1900
  8
SAPA_MATT
 10
62.999999999999801
 20
-5.9999999999999138
 30
0.0
 11
88.499999999977632
 21
-5.9999999999999138
 31
0.0
  0
SOLID
  5
1901
  8
SAPA_MATT
 10
62.999999999999801
 20
-5.4999999999999138
 30
0.0
 11
62.999999999999801
 21
-6.4999999999999138
 31
0.0
 12
59.999999999999801
 22
-5.9999999999999138
 32
0.0
 13
59.999999999999801
 23
-5.9999999999999138
 33
0.0
  0
SOLID
  5
1902
  8
SAPA_MATT
 10
88.499999999977632
 20
-5.4999999999999138
 30
0.0
 11
88.499999999977632
 21
-6.4999999999999138
 31
0.0
 12
91.499999999977632
 22
-5.9999999999999138
 32
0.0
 13
91.499999999977632
 23
-5.9999999999999138
 33
0.0
  0
TEXT
  8
SAPA_MATT
  40
3.5
  5
1917
  62
2
  72
0
  71
0
 10
68.7500
 20
-9.44500
 30
0.000000
  1
31.5
  7
ISO
  0
POINT
  5
1904
  8
DEFPOINTS
 62
     0
 10
59.999999999999801
 20
15.50000000000014
 30
0.0
  0
POINT
  5
1905
  8
DEFPOINTS
 62
     0
 10
91.499999999977632
 20
21.823940932426812
 30
0.0
  0
POINT
  5
1906
  8
DEFPOINTS
 62
     0
 10
91.499999999977632
 20
-5.9999999999999138
 30
0.0
  0
ENDBLK
  5
FB7
  8
0
  0
BLOCK
  8
0
  2
*D38
 70
     1
 10
0.0
 20
0.0
 30
0.0
  3
*D38
  1

  0
LINE
  5
1038
  8
SAPA_MATT
 10
59.999999999999801
 20
14.00000000000014
 30
0.0
 11
135.49999999999989
 21
14.000000000000121
 31
0.0
  0
LINE
  5
1039
  8
SAPA_MATT
 10
76.499999999928178
 20
19.000000000184059
 30
0.0
 11
135.49999999999989
 21
19.000000000184041
 31
0.0
  0
LINE
  5
103A
  8
SAPA_MATT
 10
133.99999999999989
 20
11.000000000000121
 30
0.0
 11
133.99999999999989
 21
8.000000000000119
 31
0.0
  0
LINE
  5
103B
  8
SAPA_MATT
 10
133.99999999999989
 20
22.000000000184048
 30
0.0
 11
133.99999999999989
 21
25.000000000184048
 31
0.0
  0
LINE
  5
103C
  8
SAPA_MATT
 10
133.99999999999989
 20
14.000000000000121
 30
0.0
 11
133.99999999999989
 21
19.000000000184041
 31
0.0
  0
SOLID
  5
103D
  8
SAPA_MATT
 10
133.49999999999989
 20
11.000000000000121
 30
0.0
 11
134.49999999999989
 21
11.000000000000121
 31
0.0
 12
133.99999999999989
 22
14.000000000000121
 32
0.0
 13
133.99999999999989
 23
14.000000000000121
 33
0.0
  0
SOLID
  5
103E
  8
SAPA_MATT
 10
133.49999999999989
 20
22.000000000184048
 30
0.0
 11
134.49999999999989
 21
22.000000000184048
 31
0.0
 12
133.99999999999989
 22
19.000000000184041
 32
0.0
 13
133.99999999999989
 23
19.000000000184041
 33
0.0
  0
INSERT
  5
103F
  8
0
  2
*U53
 10
0.0
 20
0.0
 30
0.0
  0
POINT
  5
1040
  8
DEFPOINTS
 62
     0
 10
58.499999999999801
 20
14.00000000000014
 30
0.0
  0
POINT
  5
1041
  8
DEFPOINTS
 62
     0
 10
74.999999999928178
 20
19.000000000184059
 30
0.0
  0
POINT
  5
1042
  8
DEFPOINTS
 62
     0
 10
133.99999999999989
 20
19.000000000184041
 30
0.0
  0
ENDBLK
  5
FC3
  8
0
  0
BLOCK
  8
0
  2
*D39
 70
     1
 10
0.0
 20
0.0
 30
0.0
  3
*D39
  1

  0
LINE
  5
18F5
  8
SAPA_MATT
 10
76.499999999928178
 20
19.000000000184059
 30
0.0
 11
135.49999999999989
 21
19.000000000184041
 31
0.0
  0
LINE
  5
18F6
  8
SAPA_MATT
 10
76.499999999928178
 20
68.999999999504539
 30
0.0
 11
135.49999999999989
 21
68.999999999504524
 31
0.0
  0
LINE
  5
18F7
  8
SAPA_MATT
 10
133.99999999999989
 20
22.000000000184048
 30
0.0
 11
133.99999999999989
 21
65.999999999504524
 31
0.0
  0
SOLID
  5
18F8
  8
SAPA_MATT
 10
133.49999999999989
 20
22.000000000184048
 30
0.0
 11
134.49999999999989
 21
22.000000000184048
 31
0.0
 12
133.99999999999989
 22
19.000000000184041
 32
0.0
 13
133.99999999999989
 23
19.000000000184041
 33
0.0
  0
SOLID
  5
18F9
  8
SAPA_MATT
 10
133.49999999999989
 20
65.999999999504524
 30
0.0
 11
134.49999999999989
 21
65.999999999504524
 31
0.0
 12
133.99999999999989
 22
68.999999999504524
 32
0.0
 13
133.99999999999989
 23
68.999999999504524
 33
0.0
  0
TEXT
  8
SAPA_MATT
  40
3.5
  5
1918
  62
2
  72
0
  71
0
 10
124.250
 20
37.8050
 30
0.000000
  1
50
  7
ISO
  0
POINT
  5
18FB
  8
DEFPOINTS
 62
     0
 10
74.999999999928178
 20
19.000000000184059
 30
0.0
  0
POINT
  5
18FC
  8
DEFPOINTS
 62
     0
 10
74.999999999928178
 20
68.999999999504539
 30
0.0
  0
POINT
  5
18FD
  8
DEFPOINTS
 62
     0
 10
133.99999999999989
 20
68.999999999504524
 30
0.0
  0
ENDBLK
  5
FD1
  8
0
  0
BLOCK
  8
0
  2
*D40
 70
     1
 10
0.0
 20
0.0
 30
0.0
  3
*D40
  1

  0
LINE
  5
18EC
  8
SAPA_MATT
 10
76.499999999928178
 20
68.999999999504539
 30
0.0
 11
135.49999999999989
 21
68.999999999504524
 31
0.0
  0
LINE
  5
18ED
  8
SAPA_MATT
 10
61.999999999999773
 20
138.99999999950219
 30
0.0
 11
135.49999999999989
 21
138.99999999950211
 31
0.0
  0
LINE
  5
18EE
  8
SAPA_MATT
 10
133.99999999999989
 20
71.999999999504524
 30
0.0
 11
133.99999999999989
 21
135.99999999950211
 31
0.0
  0
TEXT
  8
SAPA_MATT
  40
3.5
  5
1919
  62
2
  72
0
  71
0
 10
123.489
 20
96.6627
 30
0.000000
  1
70
  7
ISO
  0
SOLID
  5
18F0
  8
SAPA_MATT
 10
133.49999999999989
 20
71.999999999504524
 30
0.0
 11
134.49999999999989
 21
71.999999999504524
 31
0.0
 12
133.99999999999989
 22
68.999999999504524
 32
0.0
 13
133.99999999999989
 23
68.999999999504524
 33
0.0
  0
SOLID
  5
18F1
  8
SAPA_MATT
 10
133.49999999999989
 20
135.99999999950211
 30
0.0
 11
134.49999999999989
 21
135.99999999950211
 31
0.0
 12
133.99999999999989
 22
138.99999999950211
 32
0.0
 13
133.99999999999989
 23
138.99999999950211
 33
0.0
  0
POINT
  5
18F2
  8
DEFPOINTS
 62
     0
 10
74.999999999928178
 20
68.999999999504539
 30
0.0
  0
POINT
  5
18F3
  8
DEFPOINTS
 62
     0
 10
60.499999999999773
 20
138.99999999950219
 30
0.0
  0
POINT
  5
18F4
  8
DEFPOINTS
 62
     0
 10
133.99999999999989
 20
138.99999999950211
 30
0.0
  0
ENDBLK
  5
FDD
  8
0
  0
BLOCK
  8
0
  2
*D41
 70
     1
 10
0.0
 20
0.0
 30
0.0
  3
*D41
  1

  0
LINE
  5
101D
  8
SAPA_MATT
 10
59.999999999999801
 20
14.00000000000014
 30
0.0
 11
147.49999999999989
 21
14.000000000000121
 31
0.0
  0
LINE
  5
101E
  8
SAPA_MATT
 10
61.999999999999773
 20
138.99999999950219
 30
0.0
 11
147.49999999999989
 21
138.99999999950211
 31
0.0
  0
LINE
  5
101F
  8
SAPA_MATT
 10
145.99999999999989
 20
17.00000000000011
 30
0.0
 11
145.99999999999989
 21
135.99999999950211
 31
0.0
  0
SOLID
  5
1020
  8
SAPA_MATT
 10
145.49999999999989
 20
17.00000000000011
 30
0.0
 11
146.49999999999989
 21
17.00000000000011
 31
0.0
 12
145.99999999999989
 22
14.000000000000121
 32
0.0
 13
145.99999999999989
 23
14.000000000000121
 33
0.0
  0
SOLID
  5
1021
  8
SAPA_MATT
 10
145.49999999999989
 20
135.99999999950211
 30
0.0
 11
146.49999999999989
 21
135.99999999950211
 31
0.0
 12
145.99999999999989
 22
138.99999999950211
 32
0.0
 13
145.99999999999989
 23
138.99999999950211
 33
0.0
  0
INSERT
  5
1022
  8
0
  2
*U52
 10
0.0
 20
0.0
 30
0.0
  0
POINT
  5
1023
  8
DEFPOINTS
 62
     0
 10
58.499999999999801
 20
14.00000000000014
 30
0.0
  0
POINT
  5
1024
  8
DEFPOINTS
 62
     0
 10
60.499999999999773
 20
138.99999999950219
 30
0.0
  0
POINT
  5
1025
  8
DEFPOINTS
 62
     0
 10
145.99999999999989
 20
138.99999999950211
 30
0.0
  0
ENDBLK
  5
FE9
  8
0
  0
BLOCK
  8
0
  2
*D42
 70
     1
 10
0.0
 20
0.0
 30
0.0
  3
*D42
  1

  0
LINE
  5
1014
  8
SAPA_MATT
 10
-0.0000000000000783
 20
12.80000007175766
 30
0.0
 11
-0.0000000000000795
 21
-7.49999992825252
 31
0.0
  0
LINE
  5
1015
  8
SAPA_MATT
 10
59.999999999999801
 20
14.000000071747531
 30
0.0
 11
59.999999999999801
 21
-7.49999992825252
 31
0.0
  0
LINE
  5
1016
  8
SAPA_MATT
 10
2.9999999999999201
 20
-5.99999992825252
 30
0.0
 11
56.999999999999801
 21
-5.99999992825252
 31
0.0
  0
SOLID
  5
1017
  8
SAPA_MATT
 10
2.9999999999999201
 20
-5.49999992825252
 30
0.0
 11
2.9999999999999201
 21
-6.49999992825252
 31
0.0
 12
-0.0000000000000794
 22
-5.99999992825252
 32
0.0
 13
-0.0000000000000794
 23
-5.99999992825252
 33
0.0
  0
SOLID
  5
1018
  8
SAPA_MATT
 10
56.999999999999801
 20
-5.49999992825252
 30
0.0
 11
56.999999999999801
 21
-6.49999992825252
 31
0.0
 12
59.999999999999801
 22
-5.99999992825252
 32
0.0
 13
59.999999999999801
 23
-5.99999992825252
 33
0.0
  0
INSERT
  5
1019
  8
0
  2
*U51
 10
0.0
 20
0.0
 30
0.0
  0
POINT
  5
101A
  8
DEFPOINTS
 62
     0
 10
-0.0000000000000782
 20
14.30000007175766
 30
0.0
  0
POINT
  5
101B
  8
DEFPOINTS
 62
     0
 10
59.999999999999801
 20
15.500000071747531
 30
0.0
  0
POINT
  5
101C
  8
DEFPOINTS
 62
     0
 10
59.999999999999801
 20
-5.99999992825252
 30
0.0
  0
ENDBLK
  5
FF5
  8
0
  0
BLOCK
  8
0
  2
*D43
 70
     1
 10
0.0
 20
0.0
 30
0.0
  3
*D43
  1

  0
LINE
  5
100B
  8
SAPA_MATT
 10
91.499999999977632
 20
20.323940932426812
 30
0.0
 11
91.499999999977632
 21
-19.499999928252489
 31
0.0
  0
LINE
  5
100C
  8
SAPA_MATT
 10
-0.0000000000000783
 20
12.80000007175766
 30
0.0
 11
-0.0000000000000802
 21
-19.499999928252489
 31
0.0
  0
LINE
  5
100D
  8
SAPA_MATT
 10
88.499999999977632
 20
-17.999999928252489
 30
0.0
 11
2.9999999999999201
 21
-17.999999928252489
 31
0.0
  0
SOLID
  5
100E
  8
SAPA_MATT
 10
88.499999999977632
 20
-17.499999928252489
 30
0.0
 11
88.499999999977632
 21
-18.499999928252489
 31
0.0
 12
91.499999999977632
 22
-17.999999928252489
 32
0.0
 13
91.499999999977632
 23
-17.999999928252489
 33
0.0
  0
SOLID
  5
100F
  8
SAPA_MATT
 10
2.9999999999999201
 20
-17.499999928252489
 30
0.0
 11
2.9999999999999201
 21
-18.499999928252489
 31
0.0
 12
-0.0000000000000801
 22
-17.999999928252489
 32
0.0
 13
-0.0000000000000801
 23
-17.999999928252489
 33
0.0
  0
INSERT
  5
1010
  8
0
  2
*U50
 10
0.0
 20
0.0
 30
0.0
  0
POINT
  5
1011
  8
DEFPOINTS
 62
     0
 10
91.499999999977632
 20
21.823940932426812
 30
0.0
  0
POINT
  5
1012
  8
DEFPOINTS
 62
     0
 10
-0.0000000000000782
 20
14.30000007175766
 30
0.0
  0
POINT
  5
1013
  8
DEFPOINTS
 62
     0
 10
-0.0000000000000801
 20
-17.999999928252489
 30
0.0
  0
ENDBLK
  5
1001
  8
0
  0
BLOCK
  8
0
  2
*X44
 70
     1
 10
0.0
 20
0.0
 30
0.0
  3
*X44
  1

  0
LINE
  5
1092
  8
0
 62
     0
 10
48.417626185631661
 20
139.04522034171529
 30
0.0
 11
48.462846599592268
 21
138.99999992775469
 31
0.0
  0
LINE
  5
1093
  8
0
 62
     0
 10
49.353891074297039
 20
139.2314874681835
 30
0.0
 11
49.585378614725897
 21
138.99999992775469
 31
0.0
  0
LINE
  5
1094
  8
0
 62
     0
 10
50.17915830317807
 20
139.52875225443611
 30
0.0
 11
50.707910629859533
 21
138.99999992775469
 31
0.0
  0
LINE
  5
1095
  8
0
 62
     0
 10
50.91128093276712
 20
139.9191616399807
 30
0.0
 11
51.83044264499317
 21
138.99999992775469
 31
0.0
  0
LINE
  5
1096
  8
0
 62
     0
 10
51.558159871227708
 20
140.3948147166538
 30
0.0
 11
52.952974660126799
 21
138.99999992775469
 31
0.0
  0
LINE
  5
1097
  8
0
 62
     0
 10
52.12120297814964
 20
140.9543036248655
 30
0.0
 11
54.075506675260442
 21
138.99999992775469
 31
0.0
  0
LINE
  5
1098
  8
0
 62
     0
 10
52.595862886813123
 20
141.60217573133571
 30
0.0
 11
55.19803869039405
 21
138.99999992775469
 31
0.0
  0
LINE
  5
1099
  8
0
 62
     0
 10
52.969816222516592
 20
142.35075441076589
 30
0.0
 11
56.320570705527693
 21
138.9999999277548
 31
0.0
  0
LINE
  5
109A
  8
0
 62
     0
 10
53.216716930054062
 20
143.226385718362
 30
0.0
 11
57.443102720661308
 21
138.9999999277548
 31
0.0
  0
LINE
  5
109B
  8
0
 62
     0
 10
53.274895235139383
 20
144.29073942841029
 30
0.0
 11
58.567137992395388
 21
138.9984966711543
 31
0.0
  0
LINE
  5
109C
  8
0
 62
     0
 10
48.565634735794958
 20
148.9999999277548
 30
0.0
 11
48.641998577528653
 21
148.92363608602111
 31
0.0
  0
LINE
  5
109D
  8
0
 62
     0
 10
52.922080112788159
 20
145.76608656589519
 30
0.0
 11
59.428786392219621
 21
139.25938028646371
 31
0.0
  0
LINE
  5
109E
  8
0
 62
     0
 10
49.688166750928602
 20
148.9999999277548
 30
0.0
 11
50.248176609026622
 21
148.43999006965669
 31
0.0
  0
LINE
  5
109F
  8
0
 62
     0
 10
50.810698766062252
 20
148.9999999277548
 30
0.0
 11
59.245579622006566
 21
140.5651190718105
 31
0.0
  0
LINE
  5
10A0
  8
0
 62
     0
 10
51.933230781195881
 20
148.9999999277548
 30
0.0
 11
59.147310800350141
 21
141.7859199086005
 31
0.0
  0
LINE
  5
10A1
  8
0
 62
     0
 10
53.055762796329539
 20
148.9999999277548
 30
0.0
 11
59.118381360752842
 21
142.9373813633315
 31
0.0
  0
LINE
  5
10A2
  8
0
 62
     0
 10
54.178294811463189
 20
148.99999992775469
 30
0.0
 11
59.147934326235742
 21
144.03036041298219
 31
0.0
  0
LINE
  5
10A3
  8
0
 62
     0
 10
55.300826826596811
 20
148.9999999277548
 30
0.0
 11
59.228057718884898
 21
145.07276903546671
 31
0.0
  0
LINE
  5
10A4
  8
0
 62
     0
 10
56.423358841730469
 20
148.99999992775469
 30
0.0
 11
59.3527821543437
 21
146.0705766151415
 31
0.0
  0
LINE
  5
10A5
  8
0
 62
     0
 10
57.545890856864112
 20
148.9999999277548
 30
0.0
 11
59.517481205004181
 21
147.0284095796147
 31
0.0
  0
LINE
  5
10A6
  8
0
 62
     0
 10
58.668422871997763
 20
148.99999992775469
 30
0.0
 11
59.718492678349861
 21
147.94993012140259
 31
0.0
  0
LINE
  5
10A7
  8
0
 62
     0
 10
59.790954887131399
 20
148.9999999277548
 30
0.0
 11
59.952868784146069
 21
148.8380860307401
 31
0.0
  0
LINE
  5
10A8
  8
0
 62
     0
 10
59.15140228894451
 20
138.85117536343179
 30
0.0
 11
59.44821243674658
 21
139.14798551123391
 31
0.0
  0
LINE
  5
10A9
  8
0
 62
     0
 10
58.17769483813376
 20
138.9999999277548
 30
0.0
 11
59.298745946847909
 21
140.12105103646891
 31
0.0
  0
LINE
  5
10AA
  8
0
 62
     0
 10
57.05516282300011
 20
138.9999999277548
 30
0.0
 11
59.190940553902912
 21
141.13577765865759
 31
0.0
  0
LINE
  5
10AB
  8
0
 62
     0
 10
55.932630807866467
 20
138.9999999277548
 30
0.0
 11
59.129895951056952
 21
142.19726507094521
 31
0.0
  0
LINE
  5
10AC
  8
0
 62
     0
 10
54.810098792732823
 20
138.9999999277548
 30
0.0
 11
59.122256885253982
 21
143.31215802027589
 31
0.0
  0
LINE
  5
10AD
  8
0
 62
     0
 10
53.687566777599152
 20
138.99999992775469
 30
0.0
 11
59.176941766328099
 21
144.48937491648371
 31
0.0
  0
LINE
  5
10AE
  8
0
 62
     0
 10
52.565034762465508
 20
138.99999992775469
 30
0.0
 11
59.306391782148772
 21
145.74135694743799
 31
0.0
  0
LINE
  5
10AF
  8
0
 62
     0
 10
51.442502747331829
 20
138.99999992775469
 30
0.0
 11
59.52888505291196
 21
147.0863822333348
 31
0.0
  0
LINE
  5
10B0
  8
0
 62
     0
 10
50.3199707321982
 20
138.99999992775469
 30
0.0
 11
59.873300009077703
 21
148.5533292046342
 31
0.0
  0
LINE
  5
10B1
  8
0
 62
     0
 10
53.162728229411897
 20
142.96528944010211
 30
0.0
 11
59.197438717064642
 21
148.9999999277548
 31
0.0
  0
LINE
  5
10B2
  8
0
 62
     0
 10
49.197438717064543
 20
138.99999992775469
 30
0.0
 11
49.45960619902371
 21
139.26216740971381
 31
0.0
  0
LINE
  5
10B3
  8
0
 62
     0
 10
53.279689699576537
 20
144.20478292540031
 30
0.0
 11
58.074906701930978
 21
148.9999999277548
 31
0.0
  0
LINE
  5
10B4
  8
0
 62
     0
 10
48.074906701930857
 20
138.99999992775469
 30
0.0
 11
48.089281819712291
 21
139.0143750455361
 31
0.0
  0
LINE
  5
10B5
  8
0
 62
     0
 10
53.127072635733228
 20
145.17469787669069
 30
0.0
 11
56.95237468679732
 21
148.9999999277548
 31
0.0
  0
LINE
  5
10B6
  8
0
 62
     0
 10
52.819965127778602
 20
145.9901223838697
 30
0.0
 11
55.829842671663677
 21
148.9999999277548
 31
0.0
  0
LINE
  5
10B7
  8
0
 62
     0
 10
52.399801624591447
 20
146.69249089581621
 30
0.0
 11
54.707310656530048
 21
148.9999999277548
 31
0.0
  0
LINE
  5
10B8
  8
0
 62
     0
 10
51.885521754950958
 20
147.3007430413094
 30
0.0
 11
53.584778641396397
 21
148.9999999277548
 31
0.0
  0
LINE
  5
10B9
  8
0
 62
     0
 10
51.285633273872499
 20
147.82338657536451
 30
0.0
 11
52.462246626262761
 21
148.9999999277548
 31
0.0
  0
LINE
  5
10BA
  8
0
 62
     0
 10
50.60200774408645
 20
148.2622930607121
 30
0.0
 11
51.339714611129111
 21
148.9999999277548
 31
0.0
  0
LINE
  5
10BB
  8
0
 62
     0
 10
49.830598385962077
 20
148.61341571772141
 30
0.0
 11
50.217182595995467
 21
148.9999999277548
 31
0.0
  0
LINE
  5
10BC
  8
0
 62
     0
 10
48.959836431735809
 20
148.86518577862881
 30
0.0
 11
49.094650580861831
 21
148.9999999277548
 31
0.0
  0
LINE
  5
10BD
  8
0
 62
     0
 10
47.964917615998161
 20
148.99279897802469
 30
0.0
 11
47.972118565728167
 21
148.9999999277548
 31
0.0
  0
ENDBLK
  5
10BF
  8
0
  0
BLOCK
  8
0
  2
*X45
 70
     1
 10
0.0
 20
0.0
 30
0.0
  3
*X45
  1

  0
LINE
  5
10C1
  8
0
 62
     0
 10
52.930401645337838
 20
142.47810508528659
 30
0.0
 11
53.03988164218125
 21
142.5413133909351
 31
0.0
  0
LINE
  5
10C2
  8
0
 62
     0
 10
50.868178652576141
 20
141.28748008528669
 30
0.0
 11
51.555586316830038
 21
141.68435508528671
 31
0.0
  0
LINE
  5
10C3
  8
0
 62
     0
 10
48.805955659814458
 20
140.09685508528671
 30
0.0
 11
49.493363324068362
 21
140.4937300852867
 31
0.0
  0
LINE
  5
10C4
  8
0
 62
     0
 10
46.971915255690831
 20
139.0379713642613
 30
0.0
 11
47.431140331306658
 21
139.30310508528669
 31
0.0
  0
LINE
  5
10C5
  8
0
 62
     0
 10
52.242994145337839
 20
143.6687298007906
 30
0.0
 11
52.930401809591743
 21
144.0656048007906
 31
0.0
  0
LINE
  5
10C6
  8
0
 62
     0
 10
50.180771152576142
 20
142.47810480079059
 30
0.0
 11
50.868178816830039
 21
142.87497980079061
 31
0.0
  0
LINE
  5
10C7
  8
0
 62
     0
 10
48.118548159814459
 20
141.28747980079061
 30
0.0
 11
48.805955824068363
 21
141.6843548007906
 31
0.0
  0
LINE
  5
10C8
  8
0
 62
     0
 10
46.056325167052762
 20
140.0968548007906
 30
0.0
 11
46.743732831306659
 21
140.49372980079059
 31
0.0
  0
LINE
  5
10C9
  8
0
 62
     0
 10
51.55558664533784
 20
144.85935451629439
 30
0.0
 11
52.242994309591737
 21
145.25622951629441
 31
0.0
  0
LINE
  5
10CA
  8
0
 62
     0
 10
49.49336365257615
 20
143.66872951629449
 30
0.0
 11
50.18077131683004
 21
144.06560451629451
 31
0.0
  0
LINE
  5
10CB
  8
0
 62
     0
 10
47.43114065981446
 20
142.47810451629451
 30
0.0
 11
48.118548324068357
 21
142.8749795162945
 31
0.0
  0
LINE
  5
10CC
  8
0
 62
     0
 10
45.368917667052763
 20
141.2874795162945
 30
0.0
 11
46.05632533130666
 21
141.68435451629449
 31
0.0
  0
LINE
  5
10CD
  8
0
 62
     0
 10
43.790474005804249
 20
140.376164643572
 30
0.0
 11
43.994102338544977
 21
140.49372951629451
 31
0.0
  0
LINE
  5
10CE
  8
0
 62
     0
 10
50.868179145337841
 20
146.0499792317984
 30
0.0
 11
51.555586809591738
 21
146.44685423179831
 31
0.0
  0
LINE
  5
10CF
  8
0
 62
     0
 10
48.805956152576151
 20
144.85935423179839
 30
0.0
 11
49.49336381683004
 21
145.25622923179839
 31
0.0
  0
LINE
  5
10D0
  8
0
 62
     0
 10
46.743733159814461
 20
143.66872923179841
 30
0.0
 11
47.431140824068358
 21
144.0656042317984
 31
0.0
  0
LINE
  5
10D1
  8
0
 62
     0
 10
44.681510167052757
 20
142.4781042317984
 30
0.0
 11
45.368917831306661
 21
142.87497923179839
 31
0.0
  0
LINE
  5
10D2
  8
0
 62
     0
 10
42.848528887597681
 20
141.4198319966855
 30
0.0
 11
43.306694838544978
 21
141.68435423179841
 31
0.0
  0
LINE
  5
10D3
  8
0
 62
     0
 10
50.180771645337821
 20
147.24060394730219
 30
0.0
 11
50.868179309591717
 21
147.63747894730221
 31
0.0
  0
LINE
  5
10D4
  8
0
 62
     0
 10
48.118548652576138
 20
146.04997894730229
 30
0.0
 11
48.805956316830041
 21
146.4468539473022
 31
0.0
  0
LINE
  5
10D5
  8
0
 62
     0
 10
46.056325659814441
 20
144.85935394730231
 30
0.0
 11
46.743733324068337
 21
145.2562289473023
 31
0.0
  0
LINE
  5
10D6
  8
0
 62
     0
 10
43.994102667052758
 20
143.6687289473023
 30
0.0
 11
44.681510331306647
 21
144.06560394730229
 31
0.0
  0
LINE
  5
10D7
  8
0
 62
     0
 10
42.247765428852077
 20
142.6604806727313
 30
0.0
 11
42.619287338544957
 21
142.87497894730231
 31
0.0
  0
LINE
  5
10D8
  8
0
 62
     0
 10
49.493364145337843
 20
148.43122866280609
 30
0.0
 11
49.817392765984117
 21
148.6183066741614
 31
0.0
  0
LINE
  5
10D9
  8
0
 62
     0
 10
47.431141152576153
 20
147.24060366280619
 30
0.0
 11
48.118548816830049
 21
147.63747866280619
 31
0.0
  0
LINE
  5
10DA
  8
0
 62
     0
 10
45.368918159814463
 20
146.04997866280621
 30
0.0
 11
46.05632582406836
 21
146.44685366280621
 31
0.0
  0
LINE
  5
10DB
  8
0
 62
     0
 10
43.306695167052773
 20
144.8593536628062
 30
0.0
 11
43.994102831306662
 21
145.25622866280619
 31
0.0
  0
LINE
  5
10DC
  8
0
 62
     0
 10
46.74373365257614
 20
148.4312283783101
 30
0.0
 11
47.431141316830043
 21
148.82810337831009
 31
0.0
  0
LINE
  5
10DD
  8
0
 62
     0
 10
44.68151065981445
 20
147.24060337831011
 30
0.0
 11
45.368918324068353
 21
147.63747837831011
 31
0.0
  0
LINE
  5
10DE
  8
0
 62
     0
 10
42.619287667052767
 20
146.0499783783101
 30
0.0
 11
43.306695331306663
 21
146.4468533783101
 31
0.0
  0
LINE
  5
10DF
  8
0
 62
     0
 10
47.431111586874493
 20
139.3030951279234
 30
0.0
 11
47.945194537720809
 21
139.00628919786641
 31
0.0
  0
LINE
  5
10E0
  8
0
 62
     0
 10
45.368888594112804
 20
140.4937201279233
 30
0.0
 11
46.0562962583667
 21
140.0968451279233
 31
0.0
  0
LINE
  5
10E1
  8
0
 62
     0
 10
43.306665601351114
 20
141.68434512792331
 30
0.0
 11
43.99407326560501
 21
141.28747012792331
 31
0.0
  0
LINE
  5
10E2
  8
0
 62
     0
 10
48.118519086874478
 20
140.49371984342719
 30
0.0
 11
48.805926751128382
 21
140.09684484342719
 31
0.0
  0
LINE
  5
10E3
  8
0
 62
     0
 10
46.056296094112803
 20
141.6843448434272
 30
0.0
 11
46.743703758366692
 21
141.2874698434272
 31
0.0
  0
LINE
  5
10E4
  8
0
 62
     0
 10
43.994073101351098
 20
142.87496984342721
 30
0.0
 11
44.681480765605002
 21
142.47809484342719
 31
0.0
  0
LINE
  5
10E5
  8
0
 62
     0
 10
42.04229172357126
 20
144.00183134728769
 30
0.0
 11
42.619257772843312
 21
143.6687198434272
 31
0.0
  0
LINE
  5
10E6
  8
0
 62
     0
 10
50.868149579636182
 20
140.49371955893119
 30
0.0
 11
51.342524516820937
 21
140.2198390612507
 31
0.0
  0
LINE
  5
10E7
  8
0
 62
     0
 10
48.805926586874492
 20
141.6843445589312
 30
0.0
 11
49.493334251128388
 21
141.28746955893121
 31
0.0
  0
LINE
  5
10E8
  8
0
 62
     0
 10
46.743703594112787
 20
142.8749695589311
 30
0.0
 11
47.431111258366691
 21
142.4780945589311
 31
0.0
  0
LINE
  5
10E9
  8
0
 62
     0
 10
44.681480601351112
 20
144.06559455893111
 30
0.0
 11
45.368888265605008
 21
143.66871955893109
 31
0.0
  0
LINE
  5
10EA
  8
0
 62
     0
 10
42.619257608589422
 20
145.25621955893109
 30
0.0
 11
43.306665272843311
 21
144.8593445589311
 31
0.0
  0
LINE
  5
10EB
  8
0
 62
     0
 10
51.555557079636181
 20
141.68434427443509
 30
0.0
 11
52.24296474389007
 21
141.2874692744351
 31
0.0
  0
LINE
  5
10EC
  8
0
 62
     0
 10
49.493334086874484
 20
142.8749692744351
 30
0.0
 11
50.18074175112838
 21
142.47809427443511
 31
0.0
  0
LINE
  5
10ED
  8
0
 62
     0
 10
47.431111094112786
 20
144.065594274435
 30
0.0
 11
48.11851875836669
 21
143.66871927443509
 31
0.0
  0
LINE
  5
10EE
  8
0
 62
     0
 10
45.368888101351097
 20
145.25621927443501
 30
0.0
 11
46.056295765605
 21
144.85934427443499
 31
0.0
  0
LINE
  5
10EF
  8
0
 62
     0
 10
43.306665108589407
 20
146.44684427443499
 30
0.0
 11
43.99407277284331
 21
146.049969274435
 31
0.0
  0
LINE
  5
10F0
  8
0
 62
     0
 10
52.242964579636187
 20
142.87496898993899
 30
0.0
 11
52.930372243890091
 21
142.478093989939
 31
0.0
  0
LINE
  5
10F1
  8
0
 62
     0
 10
50.180741586874511
 20
144.06559398993889
 30
0.0
 11
50.868149251128401
 21
143.66871898993901
 31
0.0
  0
LINE
  5
10F2
  8
0
 62
     0
 10
48.118518594112807
 20
145.2562189899389
 30
0.0
 11
48.805926258366711
 21
144.85934398993891
 31
0.0
  0
LINE
  5
10F3
  8
0
 62
     0
 10
46.056295601351117
 20
146.44684398993891
 30
0.0
 11
46.743703265605014
 21
146.04996898993889
 31
0.0
  0
LINE
  5
10F4
  8
0
 62
     0
 10
43.994072608589427
 20
147.6374689899389
 30
0.0
 11
44.681480272843331
 21
147.2405939899389
 31
0.0
  0
LINE
  5
10F5
  8
0
 62
     0
 10
52.930372079636172
 20
144.06559370544289
 30
0.0
 11
53.282277868003469
 21
143.86242080379961
 31
0.0
  0
LINE
  5
10F6
  8
0
 62
     0
 10
50.868149086874482
 20
145.2562187054429
 30
0.0
 11
51.555556751128378
 21
144.85934370544291
 31
0.0
  0
LINE
  5
10F7
  8
0
 62
     0
 10
48.805926094112792
 20
146.4468437054428
 30
0.0
 11
49.493333758366688
 21
146.04996870544281
 31
0.0
  0
LINE
  5
10F8
  8
0
 62
     0
 10
46.743703101351102
 20
147.63746870544281
 30
0.0
 11
47.431110765604998
 21
147.24059370544279
 31
0.0
  0
LINE
  5
10F9
  8
0
 62
     0
 10
45.234175940090992
 20
148.50899461834541
 30
0.0
 11
45.368887772843308
 21
148.4312187054428
 31
0.0
  0
LINE
  5
10FA
  8
0
 62
     0
 10
51.555556586874502
 20
146.44684342094681
 30
0.0
 11
52.242964251128392
 21
146.04996842094681
 31
0.0
  0
LINE
  5
10FB
  8
0
 62
     0
 10
49.493333594112812
 20
147.6374684209467
 30
0.0
 11
50.180741258366709
 21
147.24059342094679
 31
0.0
  0
LINE
  5
10FC
  8
0
 62
     0
 10
47.431110601351122
 20
148.82809342094669
 30
0.0
 11
48.118518265605019
 21
148.43121842094669
 31
0.0
  0
LINE
  5
10FD
  8
0
 62
     0
 10
52.24297000001485
 20
145.25625000001349
 30
0.0
 11
52.24297000001485
 21
146.05000000001351
 31
0.0
  0
LINE
  5
10FE
  8
0
 62
     0
 10
52.24297000001485
 20
142.8750000000135
 30
0.0
 11
52.24297000001485
 21
143.66875000001349
 31
0.0
  0
LINE
  5
10FF
  8
0
 62
     0
 10
52.24297000001485
 20
141.10076874741361
 30
0.0
 11
52.24297000001485
 21
141.28750000001349
 31
0.0
  0
LINE
  5
1100
  8
0
 62
     0
 10
50.868155000014838
 20
147.63750000001349
 30
0.0
 11
50.868155000014838
 21
148.1077274650826
 31
0.0
  0
LINE
  5
1101
  8
0
 62
     0
 10
50.868155000014838
 20
145.25625000001349
 30
0.0
 11
50.868155000014838
 21
146.05000000001351
 31
0.0
  0
LINE
  5
1102
  8
0
 62
     0
 10
50.868155000014838
 20
142.8750000000135
 30
0.0
 11
50.868155000014838
 21
143.66875000001349
 31
0.0
  0
LINE
  5
1103
  8
0
 62
     0
 10
50.868155000014838
 20
140.49375000001351
 30
0.0
 11
50.868155000014838
 21
141.28750000001349
 31
0.0
  0
LINE
  5
1104
  8
0
 62
     0
 10
49.49334000001484
 20
147.63750000001349
 30
0.0
 11
49.49334000001484
 21
148.43125000001339
 31
0.0
  0
LINE
  5
1105
  8
0
 62
     0
 10
49.49334000001484
 20
145.25625000001349
 30
0.0
 11
49.49334000001484
 21
146.05000000001351
 31
0.0
  0
LINE
  5
1106
  8
0
 62
     0
 10
49.49334000001484
 20
142.8750000000135
 30
0.0
 11
49.49334000001484
 21
143.66875000001349
 31
0.0
  0
LINE
  5
1107
  8
0
 62
     0
 10
49.49334000001484
 20
140.49375000001351
 30
0.0
 11
49.49334000001484
 21
141.28750000001349
 31
0.0
  0
LINE
  5
1108
  8
0
 62
     0
 10
48.118525000014841
 20
147.63750000001349
 30
0.0
 11
48.118525000014841
 21
148.43125000001339
 31
0.0
  0
LINE
  5
1109
  8
0
 62
     0
 10
48.118525000014841
 20
145.25625000001349
 30
0.0
 11
48.118525000014841
 21
146.05000000001351
 31
0.0
  0
LINE
  5
110A
  8
0
 62
     0
 10
48.118525000014841
 20
142.8750000000135
 30
0.0
 11
48.118525000014841
 21
143.66875000001349
 31
0.0
  0
LINE
  5
110B
  8
0
 62
     0
 10
48.118525000014841
 20
140.49375000001351
 30
0.0
 11
48.118525000014841
 21
141.28750000001349
 31
0.0
  0
LINE
  5
110C
  8
0
 62
     0
 10
46.743710000014829
 20
147.63750000001349
 30
0.0
 11
46.743710000014829
 21
148.43125000001339
 31
0.0
  0
LINE
  5
110D
  8
0
 62
     0
 10
46.743710000014829
 20
145.25625000001349
 30
0.0
 11
46.743710000014829
 21
146.05000000001351
 31
0.0
  0
LINE
  5
110E
  8
0
 62
     0
 10
46.743710000014829
 20
142.8750000000135
 30
0.0
 11
46.743710000014829
 21
143.66875000001349
 31
0.0
  0
LINE
  5
110F
  8
0
 62
     0
 10
46.743710000014829
 20
140.49375000001351
 30
0.0
 11
46.743710000014829
 21
141.28750000001349
 31
0.0
  0
LINE
  5
1110
  8
0
 62
     0
 10
45.368895000014838
 20
147.63750000001349
 30
0.0
 11
45.368895000014838
 21
148.43125000001339
 31
0.0
  0
LINE
  5
1111
  8
0
 62
     0
 10
45.368895000014838
 20
145.25625000001349
 30
0.0
 11
45.368895000014838
 21
146.05000000001351
 31
0.0
  0
LINE
  5
1112
  8
0
 62
     0
 10
45.368895000014838
 20
142.8750000000135
 30
0.0
 11
45.368895000014838
 21
143.66875000001349
 31
0.0
  0
LINE
  5
1113
  8
0
 62
     0
 10
45.368895000014838
 20
140.49375000001351
 30
0.0
 11
45.368895000014838
 21
141.28750000001349
 31
0.0
  0
LINE
  5
1114
  8
0
 62
     0
 10
43.99408000001484
 20
147.63750000001349
 30
0.0
 11
43.99408000001484
 21
147.7877721817577
 31
0.0
  0
LINE
  5
1115
  8
0
 62
     0
 10
43.99408000001484
 20
145.25625000001349
 30
0.0
 11
43.99408000001484
 21
146.05000000001351
 31
0.0
  0
LINE
  5
1116
  8
0
 62
     0
 10
43.99408000001484
 20
142.8750000000135
 30
0.0
 11
43.99408000001484
 21
143.66875000001349
 31
0.0
  0
LINE
  5
1117
  8
0
 62
     0
 10
43.99408000001484
 20
140.49375000001351
 30
0.0
 11
43.99408000001484
 21
141.28750000001349
 31
0.0
  0
LINE
  5
1118
  8
0
 62
     0
 10
42.619265000014842
 20
145.25625000001349
 30
0.0
 11
42.619265000014842
 21
146.05000000001351
 31
0.0
  0
LINE
  5
1119
  8
0
 62
     0
 10
42.619265000014842
 20
142.8750000000135
 30
0.0
 11
42.619265000014842
 21
143.66875000001349
 31
0.0
  0
ENDBLK
  5
111B
  8
0
  0
BLOCK
  8
0
  2
*X46
 70
     1
 10
0.0
 20
0.0
 30
0.0
  3
*X46
  1

  0
LINE
  5
16EF
  8
0
 62
     0
 10
89.799999999999415
 20
22.319848480486101
 30
0.0
 11
89.119848480654468
 21
22.999999999831068
 31
0.0
  0
LINE
  5
16F0
  8
0
 62
     0
 10
88.747316465872245
 20
22.249999999479641
 30
0.0
 11
87.997316465520825
 21
22.999999999831079
 31
0.0
  0
LINE
  5
16F1
  8
0
 62
     0
 10
87.624784450737366
 20
22.249999999480892
 30
0.0
 11
86.874784450387196
 21
22.99999999983109
 31
0.0
  0
LINE
  5
16F2
  8
0
 62
     0
 10
86.5022524356025
 20
22.249999999482121
 30
0.0
 11
85.752252435253538
 21
22.999999999831111
 31
0.0
  0
LINE
  5
16F3
  8
0
 62
     0
 10
85.379720420467635
 20
22.249999999483361
 30
0.0
 11
84.629720420119895
 21
22.999999999831111
 31
0.0
  0
LINE
  5
16F4
  8
0
 62
     0
 10
84.257188405332755
 20
22.249999999484611
 30
0.0
 11
83.507188404986252
 21
22.999999999831122
 31
0.0
  0
LINE
  5
16F5
  8
0
 62
     0
 10
83.134656390197875
 20
22.249999999485851
 30
0.0
 11
82.384656389852594
 21
22.99999999983114
 31
0.0
  0
LINE
  5
16F6
  8
0
 62
     0
 10
82.01212437506301
 20
22.249999999487091
 30
0.0
 11
81.262124374718965
 21
22.99999999983115
 31
0.0
  0
LINE
  5
16F7
  8
0
 62
     0
 10
80.889592359928145
 20
22.249999999488331
 30
0.0
 11
80.139592359585322
 21
22.999999999831171
 31
0.0
  0
LINE
  5
16F8
  8
0
 62
     0
 10
79.767060344793265
 20
22.249999999489571
 30
0.0
 11
79.017060344451679
 21
22.999999999831179
 31
0.0
  0
LINE
  5
16F9
  8
0
 62
     0
 10
78.644528329658399
 20
22.249999999490811
 30
0.0
 11
77.894528329318035
 21
22.999999999831189
 31
0.0
  0
LINE
  5
16FA
  8
0
 62
     0
 10
77.52199631452352
 20
22.249999999492061
 30
0.0
 11
76.999999999988219
 21
22.771996314027369
 31
0.0
  0
LINE
  5
16FB
  8
0
 62
     0
 10
88.87972041971814
 20
22.249999999479481
 30
0.0
 11
89.629720420069717
 21
22.999999999831061
 31
0.0
  0
LINE
  5
16FC
  8
0
 62
     0
 10
87.757188404585705
 20
22.249999999480728
 30
0.0
 11
88.507188404936088
 21
22.999999999831068
 31
0.0
  0
LINE
  5
16FD
  8
0
 62
     0
 10
86.634656389453298
 20
22.249999999481972
 30
0.0
 11
87.384656389802444
 21
22.999999999831079
 31
0.0
  0
LINE
  5
16FE
  8
0
 62
     0
 10
85.512124374320905
 20
22.249999999483212
 30
0.0
 11
86.262124374668815
 21
22.99999999983109
 31
0.0
  0
LINE
  5
16FF
  8
0
 62
     0
 10
84.389592359188484
 20
22.249999999484459
 30
0.0
 11
85.139592359535158
 21
22.999999999831111
 31
0.0
  0
LINE
  5
1700
  8
0
 62
     0
 10
83.267060344056077
 20
22.249999999485699
 30
0.0
 11
84.017060344401514
 21
22.999999999831122
 31
0.0
  0
LINE
  5
1701
  8
0
 62
     0
 10
82.144528328923656
 20
22.249999999486938
 30
0.0
 11
82.894528329267871
 21
22.999999999831129
 31
0.0
  0
LINE
  5
1702
  8
0
 62
     0
 10
81.021996313791249
 20
22.249999999488189
 30
0.0
 11
81.771996314134213
 21
22.99999999983115
 31
0.0
  0
LINE
  5
1703
  8
0
 62
     0
 10
79.899464298658842
 20
22.249999999489429
 30
0.0
 11
80.649464299000584
 21
22.999999999831161
 31
0.0
  0
LINE
  5
1704
  8
0
 62
     0
 10
78.776932283526421
 20
22.249999999490669
 30
0.0
 11
79.526932283866941
 21
22.999999999831179
 31
0.0
  0
LINE
  5
1705
  8
0
 62
     0
 10
77.654400268394014
 20
22.249999999491919
 30
0.0
 11
78.404400268733298
 21
22.999999999831189
 31
0.0
  0
LINE
  5
1706
  8
0
 62
     0
 10
76.999999999988148
 20
22.718131746219719
 30
0.0
 11
77.28186825359964
 21
22.9999999998312
 31
0.0
  0
ENDBLK
  5
1708
  8
0
  0
BLOCK
  8
0
  2
*X47
 70
     1
 10
0.0
 20
0.0
 30
0.0
  3
*X47
  1

  0
LINE
  5
170A
  8
0
 62
     0
 10
89.776065055733113
 20
64.999999999831374
 30
0.0
 11
89.026065055720849
 21
65.749999999843666
 31
0.0
  0
LINE
  5
170B
  8
0
 62
     0
 10
88.65353304059947
 20
64.999999999831374
 30
0.0
 11
87.903533040588414
 21
65.749999999842458
 31
0.0
  0
LINE
  5
170C
  8
0
 62
     0
 10
87.531001025465827
 20
64.999999999831402
 30
0.0
 11
86.781001025456007
 21
65.749999999841251
 31
0.0
  0
LINE
  5
170D
  8
0
 62
     0
 10
86.408469010332169
 20
64.999999999831417
 30
0.0
 11
85.658469010323586
 21
65.749999999840028
 31
0.0
  0
LINE
  5
170E
  8
0
 62
     0
 10
85.28593699519854
 20
64.999999999831431
 30
0.0
 11
84.535936995191165
 21
65.74999999983882
 31
0.0
  0
LINE
  5
170F
  8
0
 62
     0
 10
84.163404980064897
 20
64.999999999831445
 30
0.0
 11
83.413404980058743
 21
65.749999999837584
 31
0.0
  0
LINE
  5
1710
  8
0
 62
     0
 10
83.040872964931253
 20
64.999999999831445
 30
0.0
 11
82.290872964926365
 21
65.749999999836376
 31
0.0
  0
LINE
  5
1711
  8
0
 62
     0
 10
81.918340949797596
 20
64.999999999831473
 30
0.0
 11
81.168340949793915
 21
65.749999999835168
 31
0.0
  0
LINE
  5
1712
  8
0
 62
     0
 10
80.795808934663967
 20
64.999999999831488
 30
0.0
 11
80.045808934661537
 21
65.749999999833946
 31
0.0
  0
LINE
  5
1713
  8
0
 62
     0
 10
79.673276919530295
 20
64.999999999831502
 30
0.0
 11
78.923276919529087
 21
65.749999999832738
 31
0.0
  0
LINE
  5
1714
  8
0
 62
     0
 10
78.55074490439668
 20
64.999999999831516
 30
0.0
 11
77.80074490439668
 21
65.74999999983153
 31
0.0
  0
LINE
  5
1715
  8
0
 62
     0
 10
77.428212889263023
 20
64.99999999983153
 30
0.0
 11
76.999999999988503
 21
65.428212889106049
 31
0.0
  0
LINE
  5
1716
  8
0
 62
     0
 10
88.973503844992067
 20
64.999999999831374
 30
0.0
 11
89.723503845005126
 21
65.749999999844434
 31
0.0
  0
LINE
  5
1717
  8
0
 62
     0
 10
87.850971829858409
 20
64.999999999831402
 30
0.0
 11
88.600971829870275
 21
65.749999999843226
 31
0.0
  0
LINE
  5
1718
  8
0
 62
     0
 10
86.72843981472478
 20
64.999999999831417
 30
0.0
 11
87.478439814735395
 21
65.749999999842004
 31
0.0
  0
LINE
  5
1719
  8
0
 62
     0
 10
85.605907799591137
 20
64.999999999831431
 30
0.0
 11
86.355907799600516
 21
65.749999999840782
 31
0.0
  0
LINE
  5
171A
  8
0
 62
     0
 10
84.483375784457493
 20
64.999999999831445
 30
0.0
 11
85.233375784465636
 21
65.749999999839574
 31
0.0
  0
LINE
  5
171B
  8
0
 62
     0
 10
83.36084376932385
 20
64.999999999831445
 30
0.0
 11
84.110843769330771
 21
65.749999999838366
 31
0.0
  0
LINE
  5
171C
  8
0
 62
     0
 10
82.238311754190207
 20
64.999999999831445
 30
0.0
 11
82.988311754195905
 21
65.749999999837144
 31
0.0
  0
LINE
  5
171D
  8
0
 62
     0
 10
81.115779739056563
 20
64.999999999831488
 30
0.0
 11
81.865779739061026
 21
65.749999999835921
 31
0.0
  0
LINE
  5
171E
  8
0
 62
     0
 10
79.993247723922906
 20
64.999999999831488
 30
0.0
 11
80.743247723926146
 21
65.749999999834714
 31
0.0
  0
LINE
  5
171F
  8
0
 62
     0
 10
78.870715708789277
 20
64.999999999831502
 30
0.0
 11
79.62071570879128
 21
65.749999999833491
 31
0.0
  0
LINE
  5
1720
  8
0
 62
     0
 10
77.748183693655633
 20
64.999999999831516
 30
0.0
 11
78.498183693656415
 21
65.749999999832283
 31
0.0
  0
LINE
  5
1721
  8
0
 62
     0
 10
76.999999999988574
 20
65.374348321298115
 30
0.0
 11
77.375651678521535
 21
65.749999999831061
 31
0.0
  0
ENDBLK
  5
1723
  8
0
  0
BLOCK
  8
0
  2
*X48
 70
     1
 10
0.0
 20
0.0
 30
0.0
  3
*X48
  1

  0
LINE
  5
1740
  8
0
 62
     0
 10
89.799999999999415
 20
22.319848480486101
 30
0.0
 11
89.119848480654468
 21
22.999999999831068
 31
0.0
  0
LINE
  5
1741
  8
0
 62
     0
 10
88.747316465872245
 20
22.249999999479641
 30
0.0
 11
87.997316465520825
 21
22.999999999831079
 31
0.0
  0
LINE
  5
1742
  8
0
 62
     0
 10
87.624784450737366
 20
22.249999999480892
 30
0.0
 11
86.874784450387196
 21
22.99999999983109
 31
0.0
  0
LINE
  5
1743
  8
0
 62
     0
 10
86.5022524356025
 20
22.249999999482121
 30
0.0
 11
85.752252435253538
 21
22.999999999831111
 31
0.0
  0
LINE
  5
1744
  8
0
 62
     0
 10
85.379720420467635
 20
22.249999999483361
 30
0.0
 11
84.629720420119895
 21
22.999999999831111
 31
0.0
  0
LINE
  5
1745
  8
0
 62
     0
 10
84.257188405332755
 20
22.249999999484611
 30
0.0
 11
83.507188404986252
 21
22.999999999831122
 31
0.0
  0
LINE
  5
1746
  8
0
 62
     0
 10
83.134656390197875
 20
22.249999999485851
 30
0.0
 11
82.384656389852594
 21
22.99999999983114
 31
0.0
  0
LINE
  5
1747
  8
0
 62
     0
 10
82.01212437506301
 20
22.249999999487091
 30
0.0
 11
81.262124374718965
 21
22.99999999983115
 31
0.0
  0
LINE
  5
1748
  8
0
 62
     0
 10
80.889592359928145
 20
22.249999999488331
 30
0.0
 11
80.139592359585322
 21
22.999999999831171
 31
0.0
  0
LINE
  5
1749
  8
0
 62
     0
 10
79.767060344793265
 20
22.249999999489571
 30
0.0
 11
79.017060344451679
 21
22.999999999831179
 31
0.0
  0
LINE
  5
174A
  8
0
 62
     0
 10
78.644528329658399
 20
22.249999999490811
 30
0.0
 11
77.894528329318035
 21
22.999999999831189
 31
0.0
  0
LINE
  5
174B
  8
0
 62
     0
 10
77.52199631452352
 20
22.249999999492061
 30
0.0
 11
76.999999999988219
 21
22.771996314027369
 31
0.0
  0
LINE
  5
174C
  8
0
 62
     0
 10
88.87972041971814
 20
22.249999999479481
 30
0.0
 11
89.629720420069717
 21
22.999999999831061
 31
0.0
  0
LINE
  5
174D
  8
0
 62
     0
 10
87.757188404585705
 20
22.249999999480728
 30
0.0
 11
88.507188404936088
 21
22.999999999831068
 31
0.0
  0
LINE
  5
174E
  8
0
 62
     0
 10
86.634656389453298
 20
22.249999999481972
 30
0.0
 11
87.384656389802444
 21
22.999999999831079
 31
0.0
  0
LINE
  5
174F
  8
0
 62
     0
 10
85.512124374320905
 20
22.249999999483212
 30
0.0
 11
86.262124374668815
 21
22.99999999983109
 31
0.0
  0
LINE
  5
1750
  8
0
 62
     0
 10
84.389592359188484
 20
22.249999999484459
 30
0.0
 11
85.139592359535158
 21
22.999999999831111
 31
0.0
  0
LINE
  5
1751
  8
0
 62
     0
 10
83.267060344056077
 20
22.249999999485699
 30
0.0
 11
84.017060344401514
 21
22.999999999831122
 31
0.0
  0
LINE
  5
1752
  8
0
 62
     0
 10
82.144528328923656
 20
22.249999999486938
 30
0.0
 11
82.894528329267871
 21
22.999999999831129
 31
0.0
  0
LINE
  5
1753
  8
0
 62
     0
 10
81.021996313791249
 20
22.249999999488189
 30
0.0
 11
81.771996314134213
 21
22.99999999983115
 31
0.0
  0
LINE
  5
1754
  8
0
 62
     0
 10
79.899464298658842
 20
22.249999999489429
 30
0.0
 11
80.649464299000584
 21
22.999999999831161
 31
0.0
  0
LINE
  5
1755
  8
0
 62
     0
 10
78.776932283526421
 20
22.249999999490669
 30
0.0
 11
79.526932283866941
 21
22.999999999831179
 31
0.0
  0
LINE
  5
1756
  8
0
 62
     0
 10
77.654400268394014
 20
22.249999999491919
 30
0.0
 11
78.404400268733298
 21
22.999999999831189
 31
0.0
  0
LINE
  5
1757
  8
0
 62
     0
 10
76.999999999988148
 20
22.718131746219719
 30
0.0
 11
77.28186825359964
 21
22.9999999998312
 31
0.0
  0
ENDBLK
  5
1759
  8
0
  0
BLOCK
  8
0
  2
*X49
 70
     1
 10
0.0
 20
0.0
 30
0.0
  3
*X49
  1

  0
LINE
  5
175B
  8
0
 62
     0
 10
89.776065055733113
 20
64.999999999831374
 30
0.0
 11
89.026065055720849
 21
65.749999999843666
 31
0.0
  0
LINE
  5
175C
  8
0
 62
     0
 10
88.65353304059947
 20
64.999999999831374
 30
0.0
 11
87.903533040588414
 21
65.749999999842458
 31
0.0
  0
LINE
  5
175D
  8
0
 62
     0
 10
87.531001025465827
 20
64.999999999831402
 30
0.0
 11
86.781001025456007
 21
65.749999999841251
 31
0.0
  0
LINE
  5
175E
  8
0
 62
     0
 10
86.408469010332169
 20
64.999999999831417
 30
0.0
 11
85.658469010323586
 21
65.749999999840028
 31
0.0
  0
LINE
  5
175F
  8
0
 62
     0
 10
85.28593699519854
 20
64.999999999831431
 30
0.0
 11
84.535936995191165
 21
65.74999999983882
 31
0.0
  0
LINE
  5
1760
  8
0
 62
     0
 10
84.163404980064897
 20
64.999999999831445
 30
0.0
 11
83.413404980058743
 21
65.749999999837584
 31
0.0
  0
LINE
  5
1761
  8
0
 62
     0
 10
83.040872964931253
 20
64.999999999831445
 30
0.0
 11
82.290872964926365
 21
65.749999999836376
 31
0.0
  0
LINE
  5
1762
  8
0
 62
     0
 10
81.918340949797596
 20
64.999999999831473
 30
0.0
 11
81.168340949793915
 21
65.749999999835168
 31
0.0
  0
LINE
  5
1763
  8
0
 62
     0
 10
80.795808934663967
 20
64.999999999831488
 30
0.0
 11
80.045808934661537
 21
65.749999999833946
 31
0.0
  0
LINE
  5
1764
  8
0
 62
     0
 10
79.673276919530295
 20
64.999999999831502
 30
0.0
 11
78.923276919529087
 21
65.749999999832738
 31
0.0
  0
LINE
  5
1765
  8
0
 62
     0
 10
78.55074490439668
 20
64.999999999831516
 30
0.0
 11
77.80074490439668
 21
65.74999999983153
 31
0.0
  0
LINE
  5
1766
  8
0
 62
     0
 10
77.428212889263023
 20
64.99999999983153
 30
0.0
 11
76.999999999988503
 21
65.428212889106049
 31
0.0
  0
LINE
  5
1767
  8
0
 62
     0
 10
88.973503844992067
 20
64.999999999831374
 30
0.0
 11
89.723503845005126
 21
65.749999999844434
 31
0.0
  0
LINE
  5
1768
  8
0
 62
     0
 10
87.850971829858409
 20
64.999999999831402
 30
0.0
 11
88.600971829870275
 21
65.749999999843226
 31
0.0
  0
LINE
  5
1769
  8
0
 62
     0
 10
86.72843981472478
 20
64.999999999831417
 30
0.0
 11
87.478439814735395
 21
65.749999999842004
 31
0.0
  0
LINE
  5
176A
  8
0
 62
     0
 10
85.605907799591137
 20
64.999999999831431
 30
0.0
 11
86.355907799600516
 21
65.749999999840782
 31
0.0
  0
LINE
  5
176B
  8
0
 62
     0
 10
84.483375784457493
 20
64.999999999831445
 30
0.0
 11
85.233375784465636
 21
65.749999999839574
 31
0.0
  0
LINE
  5
176C
  8
0
 62
     0
 10
83.36084376932385
 20
64.999999999831445
 30
0.0
 11
84.110843769330771
 21
65.749999999838366
 31
0.0
  0
LINE
  5
176D
  8
0
 62
     0
 10
82.238311754190207
 20
64.999999999831445
 30
0.0
 11
82.988311754195905
 21
65.749999999837144
 31
0.0
  0
LINE
  5
176E
  8
0
 62
     0
 10
81.115779739056563
 20
64.999999999831488
 30
0.0
 11
81.865779739061026
 21
65.749999999835921
 31
0.0
  0
LINE
  5
176F
  8
0
 62
     0
 10
79.993247723922906
 20
64.999999999831488
 30
0.0
 11
80.743247723926146
 21
65.749999999834714
 31
0.0
  0
LINE
  5
1770
  8
0
 62
     0
 10
78.870715708789277
 20
64.999999999831502
 30
0.0
 11
79.62071570879128
 21
65.749999999833491
 31
0.0
  0
LINE
  5
1771
  8
0
 62
     0
 10
77.748183693655633
 20
64.999999999831516
 30
0.0
 11
78.498183693656415
 21
65.749999999832283
 31
0.0
  0
LINE
  5
1772
  8
0
 62
     0
 10
76.999999999988574
 20
65.374348321298115
 30
0.0
 11
77.375651678521535
 21
65.749999999831061
 31
0.0
  0
ENDBLK
  5
1774
  8
0
  0
BLOCK
  8
0
  2
*U50
 70
     1
 10
0.0
 20
0.0
 30
0.0
  3
*U50
  1

  0
TEXT
  5
1908
  8
SAPA_MATT
 62
     2
 10
41.899999999988772
 20
-16.999999928252489
 30
0.0
 40
3.5
  1
91.5
  7
ISO
  0
ENDBLK
  5
190A
  8
0
  0
BLOCK
  8
0
  2
*U51
 70
     1
 10
0.0
 20
0.0
 30
0.0
  3
*U51
  1

  0
TEXT
  5
190C
  8
SAPA_MATT
 62
     2
 10
27.549999999999859
 20
-4.99999992825252
 30
0.0
 40
3.5
  1
60
  7
ISO
  0
ENDBLK
  5
190E
  8
0
  0
BLOCK
  8
0
  2
*U52
 70
     1
 10
0.0
 20
0.0
 30
0.0
  3
*U52
  1

  0
TEXT
  5
1910
  8
SAPA_MATT
 62
     2
 10
144.99999999999989
 20
73.174999999751179
 30
0.0
 40
3.5
  1
125
 50
90.0
  7
ISO
  0
ENDBLK
  5
1912
  8
0
  0
BLOCK
  8
0
  2
*U53
 70
     1
 10
0.0
 20
0.0
 30
0.0
  3
*U53
  1

  0
TEXT
  5
1914
  8
SAPA_MATT
 62
     2
 10
132.99999999999989
 20
15.275000000092099
 30
0.0
 40
3.5
  1
5
 50
90.0
  7
ISO
  0
ENDBLK
  5
1916
  8
0
  0
ENDSEC
  0
SECTION
  2
ENTITIES
  0
TEXT
  5
70A
  8
SAPA_ARTIKELNR
 10
20.10863763778001
 20
8.8311199144468446
 30
0.0000000048844772
 40
3.5
  1
D8K025
  7
ISO
  0
TEXT
  5
8BF
  8
SAPA_ARTIKELNR
 10
66.617162345126928
 20
101.5879484317109
 30
0.0000000048844772
 40
3.5
  1
D8V020
 50
90.0
  7
ISO
  0
TEXT
  5
B34
  8
SAPA_ARTIKELNR
 10
66.103081755358744
 20
70.326635686177411
 30
0.0000000048844772
 40
3.5
  1
D8V007
  7
ISO
  0
INSERT
  5
BD9
  8
SAPA_ANSLUTNING
  6
CONTINUOUS
  2
*X44
 10
0.0
 20
0.0
 30
0.0
1001
ACAD
1000
HATCH
1002
{
1070
    19
1000
ANSI37
1040
0.25
1040
1.5707963267948959
1000
R14_HATCH_DATA
1000
BD9
1011
1.0
1021
0.0
1031
0.0
1021
0.0
1031
0.0
1011
0.0
1021
0.0
1031
0.0
1021
1.0
1031
0.0
1011
0.0
1021
0.0
1031
0.0
1021
0.0
1031
1.0
1040
0.0
1010
0.0
1020
0.0
1030
1.0
1000
ANSI37
1070
     0
1070
     0
1071
        1
1071
        5
1071
        6
1070
     2
1040
58.500000000014779
1040
137.4999999277548
1040
1.4999999999999989
1040
7.0685834705769874
1040
7.8539816339744544
1070
     1
1070
     1
1040
58.500000000014829
1040
138.9999999277548
1040
47.663348763324308
1040
138.99999992775469
1070
     3
1040
47.663348763324002
1040
143.9999999277548
1040
-5.6210574168242138
1040
0.0000000000000003
1040
0.8895123513655372
1040
1.5707963267948959
1040
2.144309431217978
1070
     1
1070
     3
1040
47.663348763324002
1040
143.9999999277548
1040
-5.6210574168242138
1040
0.0000000000000003
1040
0.8895123513655372
1040
2.144309431217978
1040
4.7123889803846888
1070
     1
1070
     1
1040
47.66334876332467
1040
148.9999999277548
1040
59.999999999999893
1040
148.9999999277548
1070
     2
1040
80.646721299902254
1040
142.90216751658321
1040
21.528368738726542
1040
2.8544152276706032
1040
3.344649678800613
1070
     1
1071
        0
1070
     0
1070
     1
1040
1.5707963267948959
1040
0.25
1070
     0
1070
     2
1040
0.7853981633974481
1040
0.0000000000148361
1040
0.0000000000135287
1040
0.5612660075668221
1040
-0.5612660075668221
1070
     0
1040
5.4977871437821371
1040
0.0000000000148361
1040
0.0000000000135287
1040
-0.5612660075668221
1040
-0.5612660075668221
1070
     0
1040
0.0591690278051155
1071
        1
1040
56.420364712940739
1040
142.99867634700311
1040
0.0
1002
}
  0
LINE
  5
BDA
  8
SAPA_ANSLUTNING
 10
-15.000000000005629
 20
14.0
 30
0.0
 11
-15.000000000005571
 21
148.9999999277548
 31
0.0
  0
LINE
  5
BDB
  8
SAPA_ANSLUTNING
 10
59.999999999999893
 20
148.9999999277548
 30
0.0
 11
59.999999999999893
 21
194.003255934413
 31
0.0
  0
LINE
  5
BDC
  8
SAPA_ANSLUTNING
 10
-15.000000000005571
 20
148.9999999277548
 30
0.0
 11
59.999999999999893
 21
148.9999999277548
 31
0.0
  0
ARC
  5
BDD
  8
SAPA_ANSLUTNING
 10
80.646721299902367
 20
142.90216751658321
 30
0.0
 40
21.52836873872667
 50
163.54594552340049
 51
191.6343105450602
  0
INSERT
  5
BDE
  8
SAPA_ANSLUTNING
  6
CONTINUOUS
  2
*X45
 10
0.0
 20
0.0
 30
0.0
1001
ACAD
1000
HATCH
1002
{
1070
    19
1000
HEX
1040
0.25
1040
1.5707963267948959
1000
ASC_BOUNDS
1070
     1
1070
     1
1070
     1
1005
BDF
1000
ASC_SEEDPOINT
1011
47.781686452380697
1021
0.0
1031
0.0
1021
144.24210993782941
1031
0.0
1000
R14_HATCH_DATA
1000
BDE
1011
1.0
1021
0.0
1031
0.0
1021
0.0
1031
0.0
1011
0.0
1021
0.0
1031
0.0
1021
1.0
1031
0.0
1011
0.0
1021
0.0
1031
0.0
1021
0.0
1031
1.0
1040
0.0
1010
0.0
1020
0.0
1030
1.0
1000
HEX
1070
     0
1070
     1
1071
        1
1071
        5
1071
        1
1070
     3
1040
47.663348763324002
1040
143.9999999277548
1040
-5.6210574168242138
1040
0.0000000000000003
1040
0.8895123513655372
1040
0.0
1040
6.2831853071795862
1070
     0
1071
        1
1005
BDF
1070
     0
1070
     1
1040
1.5707963267948959
1040
0.25
1070
     0
1070
     3
1040
1.5707963267948959
1040
0.0000000000148361
1040
0.0000000000135287
1040
1.374814999999999
1040
-0.0000000000000001
1070
     2
1040
0.79375
1040
-1.587499999999999
1040
5.7595865315812871
1040
0.0000000000148361
1040
0.0000000000135287
1040
-0.6874074999999998
1040
-1.190624715503902
1070
     2
1040
0.7937499999999993
1040
-1.5874999999999979
1040
0.5235987755982992
1040
0.0000000000148361
1040
0.7937500000135174
1040
0.6874075
1040
-1.190624715503902
1070
     2
1040
0.79375
1040
-1.587499999999999
1040
0.0591690278051155
1071
        1
1040
47.781686452380697
1040
144.24210993782941
1040
0.0
1002
}
  0
POLYLINE
  5
BDF
  8
SAPA_ANSLUTNING
 10
42.042291346499788
 20
143.9999999277548
 30
0.0
 66
     1
 70
     8
  0
VERTEX
  8
SAPA_ANSLUTNING
  5
191A
 10
42.0423
 20
144.000
 30
0.000000
  70
    32
  0
VERTEX
  8
SAPA_ANSLUTNING
  5
191B
 10
42.0491
 20
144.245
 30
0.000000
  70
    32
  0
VERTEX
  8
SAPA_ANSLUTNING
  5
191C
 10
42.0694
 20
144.490
 30
0.000000
  70
    32
  0
VERTEX
  8
SAPA_ANSLUTNING
  5
191D
 10
42.1031
 20
144.734
 30
0.000000
  70
    32
  0
VERTEX
  8
SAPA_ANSLUTNING
  5
191E
 10
42.1503
 20
144.975
 30
0.000000
  70
    32
  0
VERTEX
  8
SAPA_ANSLUTNING
  5
191F
 10
42.2107
 20
145.215
 30
0.000000
  70
    32
  0
VERTEX
  8
SAPA_ANSLUTNING
  5
1920
 10
42.2843
 20
145.451
 30
0.000000
  70
    32
  0
VERTEX
  8
SAPA_ANSLUTNING
  5
1921
 10
42.3709
 20
145.684
 30
0.000000
  70
    32
  0
VERTEX
  8
SAPA_ANSLUTNING
  5
1922
 10
42.4702
 20
145.913
 30
0.000000
  70
    32
  0
VERTEX
  8
SAPA_ANSLUTNING
  5
1923
 10
42.5820
 20
146.138
 30
0.000000
  70
    32
  0
VERTEX
  8
SAPA_ANSLUTNING
  5
1924
 10
42.7060
 20
146.357
 30
0.000000
  70
    32
  0
VERTEX
  8
SAPA_ANSLUTNING
  5
1925
 10
42.8420
 20
146.571
 30
0.000000
  70
    32
  0
VERTEX
  8
SAPA_ANSLUTNING
  5
1926
 10
42.9896
 20
146.778
 30
0.000000
  70
    32
  0
VERTEX
  8
SAPA_ANSLUTNING
  5
1927
 10
43.1485
 20
146.978
 30
0.000000
  70
    32
  0
VERTEX
  8
SAPA_ANSLUTNING
  5
1928
 10
43.3182
 20
147.172
 30
0.000000
  70
    32
  0
VERTEX
  8
SAPA_ANSLUTNING
  5
1929
 10
43.4984
 20
147.358
 30
0.000000
  70
    32
  0
VERTEX
  8
SAPA_ANSLUTNING
  5
192A
 10
43.6887
 20
147.536
 30
0.000000
  70
    32
  0
VERTEX
  8
SAPA_ANSLUTNING
  5
192B
 10
43.8885
 20
147.705
 30
0.000000
  70
    32
  0
VERTEX
  8
SAPA_ANSLUTNING
  5
192C
 10
44.0974
 20
147.865
 30
0.000000
  70
    32
  0
VERTEX
  8
SAPA_ANSLUTNING
  5
192D
 10
44.3149
 20
148.016
 30
0.000000
  70
    32
  0
VERTEX
  8
SAPA_ANSLUTNING
  5
192E
 10
44.5405
 20
148.157
 30
0.000000
  70
    32
  0
VERTEX
  8
SAPA_ANSLUTNING
  5
192F
 10
44.7735
 20
148.289
 30
0.000000
  70
    32
  0
VERTEX
  8
SAPA_ANSLUTNING
  5
1930
 10
45.0136
 20
148.410
 30
0.000000
  70
    32
  0
VERTEX
  8
SAPA_ANSLUTNING
  5
1931
 10
45.2600
 20
148.520
 30
0.000000
  70
    32
  0
VERTEX
  8
SAPA_ANSLUTNING
  5
1932
 10
45.5123
 20
148.619
 30
0.000000
  70
    32
  0
VERTEX
  8
SAPA_ANSLUTNING
  5
1933
 10
45.7697
 20
148.708
 30
0.000000
  70
    32
  0
VERTEX
  8
SAPA_ANSLUTNING
  5
1934
 10
46.0316
 20
148.785
 30
0.000000
  70
    32
  0
VERTEX
  8
SAPA_ANSLUTNING
  5
1935
 10
46.2975
 20
148.850
 30
0.000000
  70
    32
  0
VERTEX
  8
SAPA_ANSLUTNING
  5
1936
 10
46.5667
 20
148.904
 30
0.000000
  70
    32
  0
VERTEX
  8
SAPA_ANSLUTNING
  5
1937
 10
46.8386
 20
148.946
 30
0.000000
  70
    32
  0
VERTEX
  8
SAPA_ANSLUTNING
  5
1938
 10
47.1124
 20
148.976
 30
0.000000
  70
    32
  0
VERTEX
  8
SAPA_ANSLUTNING
  5
1939
 10
47.3875
 20
148.994
 30
0.000000
  70
    32
  0
VERTEX
  8
SAPA_ANSLUTNING
  5
193A
 10
47.6633
 20
149.000
 30
0.000000
  70
    32
  0
VERTEX
  8
SAPA_ANSLUTNING
  5
193B
 10
47.9392
 20
148.994
 30
0.000000
  70
    32
  0
VERTEX
  8
SAPA_ANSLUTNING
  5
193C
 10
48.2143
 20
148.976
 30
0.000000
  70
    32
  0
VERTEX
  8
SAPA_ANSLUTNING
  5
193D
 10
48.4881
 20
148.946
 30
0.000000
  70
    32
  0
VERTEX
  8
SAPA_ANSLUTNING
  5
193E
 10
48.7600
 20
148.904
 30
0.000000
  70
    32
  0
VERTEX
  8
SAPA_ANSLUTNING
  5
193F
 10
49.0292
 20
148.850
 30
0.000000
  70
    32
  0
VERTEX
  8
SAPA_ANSLUTNING
  5
1940
 10
49.2951
 20
148.785
 30
0.000000
  70
    32
  0
VERTEX
  8
SAPA_ANSLUTNING
  5
1941
 10
49.5570
 20
148.708
 30
0.000000
  70
    32
  0
VERTEX
  8
SAPA_ANSLUTNING
  5
1942
 10
49.8144
 20
148.619
 30
0.000000
  70
    32
  0
VERTEX
  8
SAPA_ANSLUTNING
  5
1943
 10
50.0667
 20
148.520
 30
0.000000
  70
    32
  0
VERTEX
  8
SAPA_ANSLUTNING
  5
1944
 10
50.3131
 20
148.410
 30
0.000000
  70
    32
  0
VERTEX
  8
SAPA_ANSLUTNING
  5
1945
 10
50.5531
 20
148.289
 30
0.000000
  70
    32
  0
VERTEX
  8
SAPA_ANSLUTNING
  5
1946
 10
50.7862
 20
148.157
 30
0.000000
  70
    32
  0
VERTEX
  8
SAPA_ANSLUTNING
  5
1947
 10
51.0118
 20
148.016
 30
0.000000
  70
    32
  0
VERTEX
  8
SAPA_ANSLUTNING
  5
1948
 10
51.2293
 20
147.865
 30
0.000000
  70
    32
  0
VERTEX
  8
SAPA_ANSLUTNING
  5
1949
 10
51.4382
 20
147.705
 30
0.000000
  70
    32
  0
VERTEX
  8
SAPA_ANSLUTNING
  5
194A
 10
51.6380
 20
147.536
 30
0.000000
  70
    32
  0
VERTEX
  8
SAPA_ANSLUTNING
  5
194B
 10
51.8283
 20
147.358
 30
0.000000
  70
    32
  0
VERTEX
  8
SAPA_ANSLUTNING
  5
194C
 10
52.0085
 20
147.172
 30
0.000000
  70
    32
  0
VERTEX
  8
SAPA_ANSLUTNING
  5
194D
 10
52.1782
 20
146.978
 30
0.000000
  70
    32
  0
VERTEX
  8
SAPA_ANSLUTNING
  5
194E
 10
52.3371
 20
146.778
 30
0.000000
  70
    32
  0
VERTEX
  8
SAPA_ANSLUTNING
  5
194F
 10
52.4847
 20
146.571
 30
0.000000
  70
    32
  0
VERTEX
  8
SAPA_ANSLUTNING
  5
1950
 10
52.6207
 20
146.357
 30
0.000000
  70
    32
  0
VERTEX
  8
SAPA_ANSLUTNING
  5
1951
 10
52.7447
 20
146.138
 30
0.000000
  70
    32
  0
VERTEX
  8
SAPA_ANSLUTNING
  5
1952
 10
52.8565
 20
145.913
 30
0.000000
  70
    32
  0
VERTEX
  8
SAPA_ANSLUTNING
  5
1953
 10
52.9558
 20
145.684
 30
0.000000
  70
    32
  0
VERTEX
  8
SAPA_ANSLUTNING
  5
1954
 10
53.0424
 20
145.451
 30
0.000000
  70
    32
  0
VERTEX
  8
SAPA_ANSLUTNING
  5
1955
 10
53.1160
 20
145.215
 30
0.000000
  70
    32
  0
VERTEX
  8
SAPA_ANSLUTNING
  5
1956
 10
53.1764
 20
144.975
 30
0.000000
  70
    32
  0
VERTEX
  8
SAPA_ANSLUTNING
  5
1957
 10
53.2236
 20
144.734
 30
0.000000
  70
    32
  0
VERTEX
  8
SAPA_ANSLUTNING
  5
1958
 10
53.2573
 20
144.490
 30
0.000000
  70
    32
  0
VERTEX
  8
SAPA_ANSLUTNING
  5
1959
 10
53.2776
 20
144.245
 30
0.000000
  70
    32
  0
VERTEX
  8
SAPA_ANSLUTNING
  5
195A
 10
53.2844
 20
144.000
 30
0.000000
  70
    32
  0
VERTEX
  8
SAPA_ANSLUTNING
  5
195B
 10
53.2776
 20
143.755
 30
0.000000
  70
    32
  0
VERTEX
  8
SAPA_ANSLUTNING
  5
195C
 10
53.2573
 20
143.510
 30
0.000000
  70
    32
  0
VERTEX
  8
SAPA_ANSLUTNING
  5
195D
 10
53.2236
 20
143.266
 30
0.000000
  70
    32
  0
VERTEX
  8
SAPA_ANSLUTNING
  5
195E
 10
53.1764
 20
143.025
 30
0.000000
  70
    32
  0
VERTEX
  8
SAPA_ANSLUTNING
  5
195F
 10
53.1160
 20
142.785
 30
0.000000
  70
    32
  0
VERTEX
  8
SAPA_ANSLUTNING
  5
1960
 10
53.0424
 20
142.549
 30
0.000000
  70
    32
  0
VERTEX
  8
SAPA_ANSLUTNING
  5
1961
 10
52.9558
 20
142.316
 30
0.000000
  70
    32
  0
VERTEX
  8
SAPA_ANSLUTNING
  5
1962
 10
52.8565
 20
142.087
 30
0.000000
  70
    32
  0
VERTEX
  8
SAPA_ANSLUTNING
  5
1963
 10
52.7447
 20
141.862
 30
0.000000
  70
    32
  0
VERTEX
  8
SAPA_ANSLUTNING
  5
1964
 10
52.6207
 20
141.643
 30
0.000000
  70
    32
  0
VERTEX
  8
SAPA_ANSLUTNING
  5
1965
 10
52.4847
 20
141.429
 30
0.000000
  70
    32
  0
VERTEX
  8
SAPA_ANSLUTNING
  5
1966
 10
52.3371
 20
141.222
 30
0.000000
  70
    32
  0
VERTEX
  8
SAPA_ANSLUTNING
  5
1967
 10
52.1782
 20
141.022
 30
0.000000
  70
    32
  0
VERTEX
  8
SAPA_ANSLUTNING
  5
1968
 10
52.0085
 20
140.828
 30
0.000000
  70
    32
  0
VERTEX
  8
SAPA_ANSLUTNING
  5
1969
 10
51.8283
 20
140.642
 30
0.000000
  70
    32
  0
VERTEX
  8
SAPA_ANSLUTNING
  5
196A
 10
51.6380
 20
140.464
 30
0.000000
  70
    32
  0
VERTEX
  8
SAPA_ANSLUTNING
  5
196B
 10
51.4382
 20
140.295
 30
0.000000
  70
    32
  0
VERTEX
  8
SAPA_ANSLUTNING
  5
196C
 10
51.2293
 20
140.135
 30
0.000000
  70
    32
  0
VERTEX
  8
SAPA_ANSLUTNING
  5
196D
 10
51.0118
 20
139.984
 30
0.000000
  70
    32
  0
VERTEX
  8
SAPA_ANSLUTNING
  5
196E
 10
50.7862
 20
139.843
 30
0.000000
  70
    32
  0
VERTEX
  8
SAPA_ANSLUTNING
  5
196F
 10
50.5531
 20
139.711
 30
0.000000
  70
    32
  0
VERTEX
  8
SAPA_ANSLUTNING
  5
1970
 10
50.3131
 20
139.590
 30
0.000000
  70
    32
  0
VERTEX
  8
SAPA_ANSLUTNING
  5
1971
 10
50.0667
 20
139.480
 30
0.000000
  70
    32
  0
VERTEX
  8
SAPA_ANSLUTNING
  5
1972
 10
49.8144
 20
139.381
 30
0.000000
  70
    32
  0
VERTEX
  8
SAPA_ANSLUTNING
  5
1973
 10
49.5570
 20
139.292
 30
0.000000
  70
    32
  0
VERTEX
  8
SAPA_ANSLUTNING
  5
1974
 10
49.2951
 20
139.215
 30
0.000000
  70
    32
  0
VERTEX
  8
SAPA_ANSLUTNING
  5
1975
 10
49.0292
 20
139.150
 30
0.000000
  70
    32
  0
VERTEX
  8
SAPA_ANSLUTNING
  5
1976
 10
48.7600
 20
139.096
 30
0.000000
  70
    32
  0
VERTEX
  8
SAPA_ANSLUTNING
  5
1977
 10
48.4881
 20
139.054
 30
0.000000
  70
    32
  0
VERTEX
  8
SAPA_ANSLUTNING
  5
1978
 10
48.2143
 20
139.024
 30
0.000000
  70
    32
  0
VERTEX
  8
SAPA_ANSLUTNING
  5
1979
 10
47.9392
 20
139.006
 30
0.000000
  70
    32
  0
VERTEX
  8
SAPA_ANSLUTNING
  5
197A
 10
47.6633
 20
139.000
 30
0.000000
  70
    32
  0
VERTEX
  8
SAPA_ANSLUTNING
  5
197B
 10
47.3875
 20
139.006
 30
0.000000
  70
    32
  0
VERTEX
  8
SAPA_ANSLUTNING
  5
197C
 10
47.1124
 20
139.024
 30
0.000000
  70
    32
  0
VERTEX
  8
SAPA_ANSLUTNING
  5
197D
 10
46.8386
 20
139.054
 30
0.000000
  70
    32
  0
VERTEX
  8
SAPA_ANSLUTNING
  5
197E
 10
46.5667
 20
139.096
 30
0.000000
  70
    32
  0
VERTEX
  8
SAPA_ANSLUTNING
  5
197F
 10
46.2975
 20
139.150
 30
0.000000
  70
    32
  0
VERTEX
  8
SAPA_ANSLUTNING
  5
1980
 10
46.0316
 20
139.215
 30
0.000000
  70
    32
  0
VERTEX
  8
SAPA_ANSLUTNING
  5
1981
 10
45.7697
 20
139.292
 30
0.000000
  70
    32
  0
VERTEX
  8
SAPA_ANSLUTNING
  5
1982
 10
45.5123
 20
139.381
 30
0.000000
  70
    32
  0
VERTEX
  8
SAPA_ANSLUTNING
  5
1983
 10
45.2600
 20
139.480
 30
0.000000
  70
    32
  0
VERTEX
  8
SAPA_ANSLUTNING
  5
1984
 10
45.0136
 20
139.590
 30
0.000000
  70
    32
  0
VERTEX
  8
SAPA_ANSLUTNING
  5
1985
 10
44.7735
 20
139.711
 30
0.000000
  70
    32
  0
VERTEX
  8
SAPA_ANSLUTNING
  5
1986
 10
44.5405
 20
139.843
 30
0.000000
  70
    32
  0
VERTEX
  8
SAPA_ANSLUTNING
  5
1987
 10
44.3149
 20
139.984
 30
0.000000
  70
    32
  0
VERTEX
  8
SAPA_ANSLUTNING
  5
1988
 10
44.0974
 20
140.135
 30
0.000000
  70
    32
  0
VERTEX
  8
SAPA_ANSLUTNING
  5
1989
 10
43.8885
 20
140.295
 30
0.000000
  70
    32
  0
VERTEX
  8
SAPA_ANSLUTNING
  5
198A
 10
43.6887
 20
140.464
 30
0.000000
  70
    32
  0
VERTEX
  8
SAPA_ANSLUTNING
  5
198B
 10
43.4984
 20
140.642
 30
0.000000
  70
    32
  0
VERTEX
  8
SAPA_ANSLUTNING
  5
198C
 10
43.3182
 20
140.828
 30
0.000000
  70
    32
  0
VERTEX
  8
SAPA_ANSLUTNING
  5
198D
 10
43.1485
 20
141.022
 30
0.000000
  70
    32
  0
VERTEX
  8
SAPA_ANSLUTNING
  5
198E
 10
42.9896
 20
141.222
 30
0.000000
  70
    32
  0
VERTEX
  8
SAPA_ANSLUTNING
  5
198F
 10
42.8420
 20
141.429
 30
0.000000
  70
    32
  0
VERTEX
  8
SAPA_ANSLUTNING
  5
1990
 10
42.7060
 20
141.643
 30
0.000000
  70
    32
  0
VERTEX
  8
SAPA_ANSLUTNING
  5
1991
 10
42.5820
 20
141.862
 30
0.000000
  70
    32
  0
VERTEX
  8
SAPA_ANSLUTNING
  5
1992
 10
42.4702
 20
142.087
 30
0.000000
  70
    32
  0
VERTEX
  8
SAPA_ANSLUTNING
  5
1993
 10
42.3709
 20
142.316
 30
0.000000
  70
    32
  0
VERTEX
  8
SAPA_ANSLUTNING
  5
1994
 10
42.2843
 20
142.549
 30
0.000000
  70
    32
  0
VERTEX
  8
SAPA_ANSLUTNING
  5
1995
 10
42.2107
 20
142.785
 30
0.000000
  70
    32
  0
VERTEX
  8
SAPA_ANSLUTNING
  5
1996
 10
42.1503
 20
143.025
 30
0.000000
  70
    32
  0
VERTEX
  8
SAPA_ANSLUTNING
  5
1997
 10
42.1031
 20
143.266
 30
0.000000
  70
    32
  0
VERTEX
  8
SAPA_ANSLUTNING
  5
1998
 10
42.0694
 20
143.510
 30
0.000000
  70
    32
  0
VERTEX
  8
SAPA_ANSLUTNING
  5
1999
 10
42.0491
 20
143.755
 30
0.000000
  70
    32
  0
VERTEX
  8
SAPA_ANSLUTNING
  5
199A
 10
42.0423
 20
144.000
 30
0.000000
  70
    32
  0
SEQEND
  8
SAPA_ANSLUTNING
  5
199B
  0
POLYLINE
  5
BE0
  8
SAPA_ANSLUTNING
 66
     1
 10
0.0
 20
0.0
 30
0.0
  0
VERTEX
  5
111C
  8
SAPA_ANSLUTNING
 10
43.647930409453288
 20
140.50107147109571
 30
0.0
 42
-0.8812634091771133
  0
VERTEX
  5
111D
  8
SAPA_ANSLUTNING
 10
39.71116238123313
 20
140.9999999277548
 30
0.0
  0
VERTEX
  5
111E
  8
SAPA_ANSLUTNING
 10
39.71116238123313
 20
146.9999999277548
 30
0.0
 42
0.9999999999999998
  0
VERTEX
  5
111F
  8
SAPA_ANSLUTNING
 10
35.71116238123313
 20
146.9999999277548
 30
0.0
  0
VERTEX
  5
1120
  8
SAPA_ANSLUTNING
 10
35.71116238123313
 20
140.9999999277548
 30
0.0
 42
-0.9999999999999998
  0
VERTEX
  5
1121
  8
SAPA_ANSLUTNING
 10
31.71116238123313
 20
140.9999999277548
 30
0.0
  0
VERTEX
  5
1122
  8
SAPA_ANSLUTNING
 10
31.71116238123313
 20
146.9999999277548
 30
0.0
 42
0.9999999999999998
  0
VERTEX
  5
1123
  8
SAPA_ANSLUTNING
 10
27.71116238123312
 20
146.9999999277548
 30
0.0
  0
VERTEX
  5
1124
  8
SAPA_ANSLUTNING
 10
27.71116238123312
 20
140.9999999277548
 30
0.0
 42
-0.9999999999999998
  0
VERTEX
  5
1125
  8
SAPA_ANSLUTNING
 10
23.71116238123312
 20
140.9999999277548
 30
0.0
  0
VERTEX
  5
1126
  8
SAPA_ANSLUTNING
 10
23.71116238123312
 20
146.9999999277548
 30
0.0
 42
0.9999999999999998
  0
VERTEX
  5
1127
  8
SAPA_ANSLUTNING
 10
19.71116238123312
 20
146.9999999277548
 30
0.0
  0
VERTEX
  5
1128
  8
SAPA_ANSLUTNING
 10
19.71116238123312
 20
140.9999999277548
 30
0.0
 42
-0.9999999999999998
  0
VERTEX
  5
1129
  8
SAPA_ANSLUTNING
 10
15.71116238123312
 20
140.9999999277548
 30
0.0
  0
VERTEX
  5
112A
  8
SAPA_ANSLUTNING
 10
15.71116238123312
 20
146.9999999277548
 30
0.0
 42
0.9999999999999998
  0
VERTEX
  5
112B
  8
SAPA_ANSLUTNING
 10
11.71116238123312
 20
146.9999999277548
 30
0.0
  0
VERTEX
  5
112C
  8
SAPA_ANSLUTNING
 10
11.71116238123312
 20
140.9999999277548
 30
0.0
 42
-0.9999999999999998
  0
VERTEX
  5
112D
  8
SAPA_ANSLUTNING
 10
7.7111623812331231
 20
140.9999999277548
 30
0.0
  0
VERTEX
  5
112E
  8
SAPA_ANSLUTNING
 10
7.7111623812331231
 20
146.9999999277548
 30
0.0
 42
0.9999999999999998
  0
VERTEX
  5
112F
  8
SAPA_ANSLUTNING
 10
3.7111623812331231
 20
146.9999999277548
 30
0.0
  0
VERTEX
  5
1130
  8
SAPA_ANSLUTNING
 10
3.7111623812331231
 20
140.9999999277548
 30
0.0
 42
-0.9999999999999998
  0
VERTEX
  5
1131
  8
SAPA_ANSLUTNING
 10
-0.2888376187668768
 20
140.9999999277548
 30
0.0
  0
VERTEX
  5
1132
  8
SAPA_ANSLUTNING
 10
-0.2888376187668768
 20
146.9999999277548
 30
0.0
 42
0.9999999999999998
  0
VERTEX
  5
1133
  8
SAPA_ANSLUTNING
 10
-4.288837618766876
 20
146.9999999277548
 30
0.0
  0
VERTEX
  5
1134
  8
SAPA_ANSLUTNING
 10
-4.288837618766876
 20
140.9999999277548
 30
0.0
 42
-0.9999999999999998
  0
VERTEX
  5
1135
  8
SAPA_ANSLUTNING
 10
-8.2888376187668769
 20
140.9999999277548
 30
0.0
  0
VERTEX
  5
1136
  8
SAPA_ANSLUTNING
 10
-8.2888376187668769
 20
146.9999999277548
 30
0.0
 42
0.9999999999999998
  0
VERTEX
  5
1137
  8
SAPA_ANSLUTNING
 10
-12.28883761876687
 20
146.9999999277548
 30
0.0
  0
VERTEX
  5
1138
  8
SAPA_ANSLUTNING
 10
-12.28883761876687
 20
140.9999999277548
 30
0.0
 42
-0.5251735434384823
  0
VERTEX
  5
1139
  8
SAPA_ANSLUTNING
 10
-15.000000000005571
 20
139.13070913509819
 30
0.0
 42
-0.5251735434384823
  0
SEQEND
  5
113A
  8
SAPA_ANSLUTNING
  0
LINE
  5
BE1
  8
SAPA_ANSLUTNING
 10
59.999999999999893
 20
14.0
 30
0.0
 11
59.999999999999893
 21
-30.619466477045879
 31
0.0
  0
LINE
  5
BE2
  8
SAPA_ANSLUTNING
 10
59.999999999999893
 20
14.0
 30
0.0
 11
-15.000000000005629
 21
14.0
 31
0.0
  0
POLYLINE
  5
BE3
  8
SAPA_ANSLUTNING
 66
     1
 10
0.0
 20
0.0
 30
0.0
  0
VERTEX
  5
113B
  8
SAPA_ANSLUTNING
 10
-13.4989284566592
 20
14.0
 30
0.0
 42
-0.8812634091771133
  0
VERTEX
  5
113C
  8
SAPA_ANSLUTNING
 10
-13.00000000000011
 20
17.936768028220168
 30
0.0
  0
VERTEX
  5
113D
  8
SAPA_ANSLUTNING
 10
-2.0000000000001128
 20
17.936768028220168
 30
0.0
 42
0.9999999999999998
  0
VERTEX
  5
113E
  8
SAPA_ANSLUTNING
 10
-2.0000000000001128
 20
21.936768028220168
 30
0.0
  0
VERTEX
  5
113F
  8
SAPA_ANSLUTNING
 10
-13.00000000000011
 20
21.936768028220168
 30
0.0
 42
-0.9999999999999998
  0
VERTEX
  5
1140
  8
SAPA_ANSLUTNING
 10
-13.00000000000006
 20
25.936768028220168
 30
0.0
  0
VERTEX
  5
1141
  8
SAPA_ANSLUTNING
 10
-2.000000000000056
 20
25.936768028220168
 30
0.0
 42
0.9999999999999998
  0
VERTEX
  5
1142
  8
SAPA_ANSLUTNING
 10
-2.000000000000056
 20
29.936768028220168
 30
0.0
  0
VERTEX
  5
1143
  8
SAPA_ANSLUTNING
 10
-13.00000000000006
 20
29.936768028220168
 30
0.0
 42
-0.9999999999999998
  0
VERTEX
  5
1144
  8
SAPA_ANSLUTNING
 10
-13.00000000000006
 20
33.936768028220172
 30
0.0
  0
VERTEX
  5
1145
  8
SAPA_ANSLUTNING
 10
-2.000000000000056
 20
33.936768028220172
 30
0.0
 42
0.9999999999999998
  0
VERTEX
  5
1146
  8
SAPA_ANSLUTNING
 10
-2.000000000000056
 20
37.936768028220172
 30
0.0
  0
VERTEX
  5
1147
  8
SAPA_ANSLUTNING
 10
-13.00000000000006
 20
37.936768028220172
 30
0.0
 42
-0.9999999999999998
  0
VERTEX
  5
1148
  8
SAPA_ANSLUTNING
 10
-13.00000000000006
 20
41.936768028220172
 30
0.0
  0
VERTEX
  5
1149
  8
SAPA_ANSLUTNING
 10
-2.000000000000056
 20
41.936768028220172
 30
0.0
 42
0.9999999999999998
  0
VERTEX
  5
114A
  8
SAPA_ANSLUTNING
 10
-2.000000000000056
 20
45.936768028220172
 30
0.0
  0
VERTEX
  5
114B
  8
SAPA_ANSLUTNING
 10
-13.00000000000006
 20
45.936768028220172
 30
0.0
 42
-0.9999999999999998
  0
VERTEX
  5
114C
  8
SAPA_ANSLUTNING
 10
-13.00000000000006
 20
49.936768028220172
 30
0.0
  0
VERTEX
  5
114D
  8
SAPA_ANSLUTNING
 10
-2.000000000000056
 20
49.936768028220172
 30
0.0
 42
0.9999999999999998
  0
VERTEX
  5
114E
  8
SAPA_ANSLUTNING
 10
-2.000000000000056
 20
53.936768028220172
 30
0.0
  0
VERTEX
  5
114F
  8
SAPA_ANSLUTNING
 10
-13.00000000000006
 20
53.936768028220172
 30
0.0
 42
-0.9999999999999998
  0
VERTEX
  5
1150
  8
SAPA_ANSLUTNING
 10
-13.00000000000006
 20
57.936768028220172
 30
0.0
  0
VERTEX
  5
1151
  8
SAPA_ANSLUTNING
 10
-2.000000000000056
 20
57.936768028220172
 30
0.0
 42
0.9999999999999998
  0
VERTEX
  5
1152
  8
SAPA_ANSLUTNING
 10
-2.000000000000056
 20
61.936768028220172
 30
0.0
  0
VERTEX
  5
1153
  8
SAPA_ANSLUTNING
 10
-13.00000000000006
 20
61.936768028220172
 30
0.0
 42
-0.9999999999999998
  0
VERTEX
  5
1154
  8
SAPA_ANSLUTNING
 10
-13.00000000000006
 20
65.936768028220172
 30
0.0
  0
VERTEX
  5
1155
  8
SAPA_ANSLUTNING
 10
-2.000000000000056
 20
65.936768028220172
 30
0.0
 42
0.9999999999999998
  0
VERTEX
  5
1156
  8
SAPA_ANSLUTNING
 10
-2.000000000000056
 20
69.936768028220172
 30
0.0
  0
VERTEX
  5
1157
  8
SAPA_ANSLUTNING
 10
-13.00000000000006
 20
69.936768028220172
 30
0.0
 42
-0.5251735434384823
  0
VERTEX
  5
1158
  8
SAPA_ANSLUTNING
 10
-14.869290792656731
 20
72.647930409458866
 30
0.0
 42
-0.5251735434384823
  0
SEQEND
  5
1159
  8
SAPA_ANSLUTNING
  0
POLYLINE
  5
BE4
  8
SAPA_ANSLUTNING
 66
     1
 10
0.0
 20
0.0
 30
0.0
  0
VERTEX
  5
115A
  8
SAPA_ANSLUTNING
 10
-13.4989284566592
 20
62.0
 30
0.0
 42
-0.8812634091771133
  0
VERTEX
  5
115B
  8
SAPA_ANSLUTNING
 10
-13.00000000000011
 20
65.936768028220172
 30
0.0
  0
VERTEX
  5
115C
  8
SAPA_ANSLUTNING
 10
-2.0000000000001128
 20
65.936768028220172
 30
0.0
 42
0.9999999999999998
  0
VERTEX
  5
115D
  8
SAPA_ANSLUTNING
 10
-2.0000000000001128
 20
69.936768028220172
 30
0.0
  0
VERTEX
  5
115E
  8
SAPA_ANSLUTNING
 10
-13.00000000000011
 20
69.936768028220115
 30
0.0
 42
-0.9999999999999998
  0
VERTEX
  5
115F
  8
SAPA_ANSLUTNING
 10
-13.00000000000006
 20
73.936768028220115
 30
0.0
  0
VERTEX
  5
1160
  8
SAPA_ANSLUTNING
 10
-2.000000000000056
 20
73.936768028220172
 30
0.0
 42
0.9999999999999998
  0
VERTEX
  5
1161
  8
SAPA_ANSLUTNING
 10
-2.000000000000056
 20
77.936768028220172
 30
0.0
  0
VERTEX
  5
1162
  8
SAPA_ANSLUTNING
 10
-13.00000000000006
 20
77.936768028220115
 30
0.0
 42
-0.9999999999999998
  0
VERTEX
  5
1163
  8
SAPA_ANSLUTNING
 10
-13.00000000000006
 20
81.936768028220115
 30
0.0
  0
VERTEX
  5
1164
  8
SAPA_ANSLUTNING
 10
-2.000000000000056
 20
81.936768028220115
 30
0.0
 42
0.9999999999999998
  0
VERTEX
  5
1165
  8
SAPA_ANSLUTNING
 10
-2.000000000000056
 20
85.936768028220115
 30
0.0
  0
VERTEX
  5
1166
  8
SAPA_ANSLUTNING
 10
-13.00000000000006
 20
85.936768028220115
 30
0.0
 42
-0.9999999999999998
  0
VERTEX
  5
1167
  8
SAPA_ANSLUTNING
 10
-13.00000000000006
 20
89.936768028220115
 30
0.0
  0
VERTEX
  5
1168
  8
SAPA_ANSLUTNING
 10
-2.000000000000056
 20
89.936768028220115
 30
0.0
 42
0.9999999999999998
  0
VERTEX
  5
1169
  8
SAPA_ANSLUTNING
 10
-2.000000000000056
 20
93.936768028220115
 30
0.0
  0
VERTEX
  5
116A
  8
SAPA_ANSLUTNING
 10
-13.00000000000006
 20
93.936768028220115
 30
0.0
 42
-0.9999999999999998
  0
VERTEX
  5
116B
  8
SAPA_ANSLUTNING
 10
-13.00000000000006
 20
97.936768028220115
 30
0.0
  0
VERTEX
  5
116C
  8
SAPA_ANSLUTNING
 10
-2.000000000000056
 20
97.936768028220115
 30
0.0
 42
0.9999999999999998
  0
VERTEX
  5
116D
  8
SAPA_ANSLUTNING
 10
-2.000000000000056
 20
101.9367680282201
 30
0.0
  0
VERTEX
  5
116E
  8
SAPA_ANSLUTNING
 10
-13.00000000000006
 20
101.9367680282201
 30
0.0
 42
-0.9999999999999998
  0
VERTEX
  5
116F
  8
SAPA_ANSLUTNING
 10
-13.00000000000006
 20
105.9367680282201
 30
0.0
  0
VERTEX
  5
1170
  8
SAPA_ANSLUTNING
 10
-2.000000000000056
 20
105.9367680282201
 30
0.0
 42
0.9999999999999998
  0
VERTEX
  5
1171
  8
SAPA_ANSLUTNING
 10
-2.000000000000056
 20
109.9367680282201
 30
0.0
  0
VERTEX
  5
1172
  8
SAPA_ANSLUTNING
 10
-13.00000000000006
 20
109.9367680282201
 30
0.0
 42
-0.9999999999999998
  0
VERTEX
  5
1173
  8
SAPA_ANSLUTNING
 10
-13.00000000000006
 20
113.9367680282201
 30
0.0
  0
VERTEX
  5
1174
  8
SAPA_ANSLUTNING
 10
-2.000000000000056
 20
113.9367680282201
 30
0.0
 42
0.9999999999999998
  0
VERTEX
  5
1175
  8
SAPA_ANSLUTNING
 10
-2.000000000000056
 20
117.9367680282201
 30
0.0
  0
VERTEX
  5
1176
  8
SAPA_ANSLUTNING
 10
-13.00000000000006
 20
117.9367680282201
 30
0.0
 42
-0.5251735434384823
  0
VERTEX
  5
1177
  8
SAPA_ANSLUTNING
 10
-14.869290792656731
 20
120.64793040945879
 30
0.0
 42
-0.5251735434384823
  0
SEQEND
  5
1178
  8
SAPA_ANSLUTNING
  0
POLYLINE
  5
BE5
  8
SAPA_ANSLUTNING
 66
     1
 10
0.0
 20
0.0
 30
0.0
  0
VERTEX
  5
1179
  8
SAPA_ANSLUTNING
 10
-13.4989284566592
 20
110.0
 30
0.0
 42
-0.8812634091771133
  0
VERTEX
  5
117A
  8
SAPA_ANSLUTNING
 10
-13.00000000000011
 20
113.9367680282201
 30
0.0
  0
VERTEX
  5
117B
  8
SAPA_ANSLUTNING
 10
-2.0000000000001128
 20
113.9367680282201
 30
0.0
 42
0.9999999999999998
  0
VERTEX
  5
117C
  8
SAPA_ANSLUTNING
 10
-2.0000000000001128
 20
117.9367680282201
 30
0.0
  0
VERTEX
  5
117D
  8
SAPA_ANSLUTNING
 10
-13.00000000000011
 20
117.9367680282201
 30
0.0
 42
-0.9999999999999998
  0
VERTEX
  5
117E
  8
SAPA_ANSLUTNING
 10
-13.00000000000006
 20
121.9367680282201
 30
0.0
  0
VERTEX
  5
117F
  8
SAPA_ANSLUTNING
 10
-2.000000000000056
 20
121.9367680282201
 30
0.0
 42
0.9999999999999998
  0
VERTEX
  5
1180
  8
SAPA_ANSLUTNING
 10
-2.000000000000056
 20
125.9367680282201
 30
0.0
  0
VERTEX
  5
1181
  8
SAPA_ANSLUTNING
 10
-13.00000000000006
 20
125.9367680282201
 30
0.0
 42
-0.9999999999999998
  0
VERTEX
  5
1182
  8
SAPA_ANSLUTNING
 10
-13.00000000000006
 20
129.93676802822009
 30
0.0
  0
VERTEX
  5
1183
  8
SAPA_ANSLUTNING
 10
-2.000000000000056
 20
129.93676802822009
 30
0.0
 42
0.9999999999999998
  0
VERTEX
  5
1184
  8
SAPA_ANSLUTNING
 10
-2.000000000000056
 20
133.93676802822009
 30
0.0
  0
VERTEX
  5
1185
  8
SAPA_ANSLUTNING
 10
-13.00000000000006
 20
133.93676802822009
 30
0.0
 42
-0.9999999999999998
  0
VERTEX
  5
1186
  8
SAPA_ANSLUTNING
 10
-13.00000000000006
 20
137.93676802822009
 30
0.0
  0
VERTEX
  5
1187
  8
SAPA_ANSLUTNING
 10
-2.000000000000056
 20
137.93676802822009
 30
0.0
 42
0.4183530514568368
  0
VERTEX
  5
1188
  8
SAPA_ANSLUTNING
 10
-0.0001991561678665
 20
139.9649918658032
 30
0.0
 42
0.4183530514568368
  0
SEQEND
  5
1189
  8
SAPA_ANSLUTNING
  0
POLYLINE
  5
EFD
  8
SAPA_PROFIL
 66
     1
 10
0.0
 20
0.0
 30
0.0
 70
     1
  0
VERTEX
  5
144B
  8
SAPA_PROFIL
 10
67.0
 20
28.756130959044061
 30
0.0
 42
-0.2418327667417041
  0
VERTEX
  5
144C
  8
SAPA_PROFIL
 10
67.125277674963954
 20
28.999999999993928
 30
0.0
 42
0.2418327667547422
  0
VERTEX
  5
144D
  8
SAPA_PROFIL
 10
67.250555349939546
 20
29.243869040952951
 30
0.0
  0
VERTEX
  5
144E
  8
SAPA_PROFIL
 10
67.250555349939546
 20
30.199999999988322
 30
0.0
 42
0.2814258985282543
  0
VERTEX
  5
144F
  8
SAPA_PROFIL
 10
67.087349748813295
 20
30.466996802293579
 30
0.0
 42
-0.2814258985233465
  0
VERTEX
  5
1450
  8
SAPA_PROFIL
 10
66.924144147689603
 20
30.733993604589159
 30
0.0
  0
VERTEX
  5
1451
  8
SAPA_PROFIL
 10
66.9241441476901
 20
32.91154195954649
 30
0.0
 42
-0.0874886635248791
  0
VERTEX
  5
1452
  8
SAPA_PROFIL
 10
66.942236361453908
 20
33.01414800254301
 30
0.0
  0
VERTEX
  5
1453
  8
SAPA_PROFIL
 10
67.461750429129268
 20
34.441501172588438
 30
0.0
 42
-0.4142135623698204
  0
VERTEX
  5
1454
  8
SAPA_PROFIL
 10
67.846264258371448
 20
34.62080291582582
 30
0.0
  0
VERTEX
  5
1455
  8
SAPA_PROFIL
 10
68.03420278252014
 20
34.552398887154773
 30
0.0
 42
-0.4142135623730013
  0
VERTEX
  5
1456
  8
SAPA_PROFIL
 10
68.213504525762659
 20
34.167885057933127
 30
0.0
  0
VERTEX
  5
1457
  8
SAPA_PROFIL
 10
67.837282368095956
 20
33.13422317506398
 30
0.0
 42
0.41421356237947
  0
VERTEX
  5
1458
  8
SAPA_PROFIL
 10
68.016584111347115
 20
32.749709345832429
 30
0.0
  0
VERTEX
  5
1459
  8
SAPA_PROFIL
 10
69.826774190686024
 20
32.090854038596589
 30
0.0
 42
-0.3152987888800596
  0
VERTEX
  5
145A
  8
SAPA_PROFIL
 10
70.024168147689352
 20
31.808946252360371
 30
0.0
  0
VERTEX
  5
145B
  8
SAPA_PROFIL
 10
70.024168147689252
 20
31.389230484541031
 30
0.0
 42
-0.1316524975873857
  0
VERTEX
  5
145C
  8
SAPA_PROFIL
 10
69.983975768824607
 20
31.239230484541121
 30
0.0
  0
VERTEX
  5
145D
  8
SAPA_PROFIL
 10
69.124168147689275
 20
29.750000000000242
 30
0.0
  0
VERTEX
  5
145E
  8
SAPA_PROFIL
 10
69.124156147689604
 20
29.300000000000299
 30
0.0
 42
0.4142135623731054
  0
VERTEX
  5
145F
  8
SAPA_PROFIL
 10
69.424156147689615
 20
29.000000000000291
 30
0.0
  0
VERTEX
  5
1460
  8
SAPA_PROFIL
 10
73.024168147689664
 20
29.000000000000298
 30
0.0
 42
0.414213562373095
  0
VERTEX
  5
1461
  8
SAPA_PROFIL
 10
73.324168147689676
 20
29.300000000000288
 30
0.0
  0
VERTEX
  5
1462
  8
SAPA_PROFIL
 10
73.324168147689576
 20
29.750000000000291
 30
0.0
  0
VERTEX
  5
1463
  8
SAPA_PROFIL
 10
72.464343410120605
 20
31.23926013107447
 30
0.0
 42
-0.1316363093594254
  0
VERTEX
  5
1464
  8
SAPA_PROFIL
 10
72.424151031863644
 20
31.389241036121209
 30
0.0
  0
VERTEX
  5
1465
  8
SAPA_PROFIL
 10
72.424143982072849
 20
31.49999999999844
 30
0.0
  0
VERTEX
  5
1466
  8
SAPA_PROFIL
 10
74.499999999989114
 20
31.499999999998419
 30
0.0
 42
-0.4142135623730955
  0
VERTEX
  5
1467
  8
SAPA_PROFIL
 10
74.999999999989114
 20
30.999999999998408
 30
0.0
  0
VERTEX
  5
1468
  8
SAPA_PROFIL
 10
74.999999999989043
 20
25.75000000033311
 30
0.0
 42
-0.4142135623730953
  0
VERTEX
  5
1469
  8
SAPA_PROFIL
 10
74.499999999989043
 20
25.25000000033311
 30
0.0
  0
VERTEX
  5
146A
  8
SAPA_PROFIL
 10
73.999999996405634
 20
25.25000000033312
 30
0.0
 42
-0.4142135623730953
  0
VERTEX
  5
146B
  8
SAPA_PROFIL
 10
73.499999996405649
 20
25.750000000333131
 30
0.0
  0
VERTEX
  5
146C
  8
SAPA_PROFIL
 10
73.499999996401115
 20
26.750000000740322
 30
0.0
  0
VERTEX
  5
146D
  8
SAPA_PROFIL
 10
70.29999999594618
 20
26.75000000074451
 30
0.0
  0
VERTEX
  5
146E
  8
SAPA_PROFIL
 10
70.299999995954124
 20
22.249999999838611
 30
0.0
  0
VERTEX
  5
146F
  8
SAPA_PROFIL
 10
89.799999999999955
 20
22.249999999817021
 30
0.0
 42
-0.4964147352859417
  0
VERTEX
  5
1470
  8
SAPA_PROFIL
 10
89.992630713990422
 20
21.99620959149107
 30
0.0
 42
-0.306467954212033
  0
VERTEX
  5
1471
  8
SAPA_PROFIL
 10
89.138232780813311
 20
21.27109311864222
 30
0.0
 42
-0.0272495355296329
  0
VERTEX
  5
1472
  8
SAPA_PROFIL
 10
75.000000000010175
 20
20.500000000332751
 30
0.0
  0
VERTEX
  5
1473
  8
SAPA_PROFIL
 10
70.00000000009085
 20
20.50000000019492
 30
0.0
 42
-0.4142135623819769
  0
VERTEX
  5
1474
  8
SAPA_PROFIL
 10
66.999999999999943
 20
23.500000000194959
 30
0.0
  0
SEQEND
  5
1475
  8
SAPA_PROFIL
  0
POLYLINE
  5
EFE
  8
SAPA_PROFIL
 66
     1
 10
0.0
 20
0.0
 30
0.0
 70
     1
  0
VERTEX
  5
1476
  8
SAPA_PROFIL
 10
67.000000000000355
 20
59.243869040956582
 30
0.0
 42
0.2418327667417041
  0
VERTEX
  5
1477
  8
SAPA_PROFIL
 10
67.125277674964309
 20
59.0000000000067
 30
0.0
 42
-0.2418327667547422
  0
VERTEX
  5
1478
  8
SAPA_PROFIL
 10
67.250555349939873
 20
58.756130959047667
 30
0.0
  0
VERTEX
  5
1479
  8
SAPA_PROFIL
 10
67.250555349939873
 20
57.800000000012297
 30
0.0
 42
-0.2814258985282543
  0
VERTEX
  5
147A
  8
SAPA_PROFIL
 10
67.087349748813608
 20
57.533003197707053
 30
0.0
 42
0.2814258985233465
  0
VERTEX
  5
147B
  8
SAPA_PROFIL
 10
66.924144147689915
 20
57.266006395411459
 30
0.0
  0
VERTEX
  5
147C
  8
SAPA_PROFIL
 10
66.92414414769037
 20
55.088458040454142
 30
0.0
 42
0.0874886635248791
  0
VERTEX
  5
147D
  8
SAPA_PROFIL
 10
66.942236361454164
 20
54.985851997457608
 30
0.0
  0
VERTEX
  5
147E
  8
SAPA_PROFIL
 10
67.461750429129495
 20
53.558498827412173
 30
0.0
 42
0.4142135623698204
  0
VERTEX
  5
147F
  8
SAPA_PROFIL
 10
67.846264258371662
 20
53.379197084174777
 30
0.0
  0
VERTEX
  5
1480
  8
SAPA_PROFIL
 10
68.034202782520367
 20
53.447601112845838
 30
0.0
 42
0.4142135623730013
  0
VERTEX
  5
1481
  8
SAPA_PROFIL
 10
68.213504525762886
 20
53.832114942067463
 30
0.0
  0
VERTEX
  5
1482
  8
SAPA_PROFIL
 10
67.837282368096211
 20
54.865776824936617
 30
0.0
 42
-0.41421356237947
  0
VERTEX
  5
1483
  8
SAPA_PROFIL
 10
68.01658411134737
 20
55.250290654168168
 30
0.0
  0
VERTEX
  5
1484
  8
SAPA_PROFIL
 10
69.826774190686294
 20
55.909145961403972
 30
0.0
 42
0.3152987888800596
  0
VERTEX
  5
1485
  8
SAPA_PROFIL
 10
70.024168147689636
 20
56.19105374764019
 30
0.0
  0
VERTEX
  5
1486
  8
SAPA_PROFIL
 10
70.024168147689551
 20
56.610769515459531
 30
0.0
 42
0.1316524975873857
  0
VERTEX
  5
1487
  8
SAPA_PROFIL
 10
69.983975768824905
 20
56.760769515459437
 30
0.0
  0
VERTEX
  5
1488
  8
SAPA_PROFIL
 10
69.124168147689616
 20
58.250000000000341
 30
0.0
  0
VERTEX
  5
1489
  8
SAPA_PROFIL
 10
69.124156147689945
 20
58.700000000000287
 30
0.0
 42
-0.4142135623731054
  0
VERTEX
  5
148A
  8
SAPA_PROFIL
 10
69.424156147689956
 20
59.000000000000277
 30
0.0
  0
VERTEX
  5
148B
  8
SAPA_PROFIL
 10
73.024168147690034
 20
59.000000000000192
 30
0.0
 42
-0.414213562373095
  0
VERTEX
  5
148C
  8
SAPA_PROFIL
 10
73.324168147690017
 20
58.700000000000188
 30
0.0
  0
VERTEX
  5
148D
  8
SAPA_PROFIL
 10
73.324168147689917
 20
58.250000000000192
 30
0.0
  0
VERTEX
  5
148E
  8
SAPA_PROFIL
 10
72.464343410120918
 20
56.760739868926031
 30
0.0
 42
0.1316363093594254
  0
VERTEX
  5
148F
  8
SAPA_PROFIL
 10
72.424151031863943
 20
56.610758963879292
 30
0.0
  0
VERTEX
  5
1490
  8
SAPA_PROFIL
 10
72.424143982073133
 20
56.500000000002061
 30
0.0
  0
VERTEX
  5
1491
  8
SAPA_PROFIL
 10
74.499999999989413
 20
56.500000000002032
 30
0.0
 42
0.4142135623730955
  0
VERTEX
  5
1492
  8
SAPA_PROFIL
 10
74.999999999989413
 20
57.000000000002032
 30
0.0
  0
VERTEX
  5
1493
  8
SAPA_PROFIL
 10
74.999999999989484
 20
62.249999999667331
 30
0.0
 42
0.4142135623730953
  0
VERTEX
  5
1494
  8
SAPA_PROFIL
 10
74.499999999989484
 20
62.749999999667338
 30
0.0
  0
VERTEX
  5
1495
  8
SAPA_PROFIL
 10
73.999999996406075
 20
62.749999999667338
 30
0.0
 42
0.4142135623730953
  0
VERTEX
  5
1496
  8
SAPA_PROFIL
 10
73.499999996406075
 20
62.249999999667352
 30
0.0
  0
VERTEX
  5
1497
  8
SAPA_PROFIL
 10
73.499999996401513
 20
61.249999999260162
 30
0.0
  0
VERTEX
  5
1498
  8
SAPA_PROFIL
 10
70.299999995946592
 20
61.24999999925604
 30
0.0
  0
VERTEX
  5
1499
  8
SAPA_PROFIL
 10
70.299999995954636
 20
65.750000000161933
 30
0.0
  0
VERTEX
  5
149A
  8
SAPA_PROFIL
 10
89.800000000000438
 20
65.750000000183078
 30
0.0
 42
0.4964147352859417
  0
VERTEX
  5
149B
  8
SAPA_PROFIL
 10
89.992630713990934
 20
66.003790408509019
 30
0.0
 42
0.306467954212033
  0
VERTEX
  5
149C
  8
SAPA_PROFIL
 10
89.138232780813837
 20
66.728906881357887
 30
0.0
 42
0.0272495355296329
  0
VERTEX
  5
149D
  8
SAPA_PROFIL
 10
75.000000000010715
 20
67.499999999667693
 30
0.0
  0
VERTEX
  5
149E
  8
SAPA_PROFIL
 10
70.000000000091404
 20
67.499999999805624
 30
0.0
 42
0.4142135623819769
  0
VERTEX
  5
149F
  8
SAPA_PROFIL
 10
67.000000000000426
 20
64.499999999805681
 30
0.0
  0
SEQEND
  5
14A0
  8
SAPA_PROFIL
  0
POLYLINE
  5
EFF
  8
SAPA_PROFIL
 62
     4
 66
     1
 10
0.0
 20
0.0
 30
0.0
 70
     1
  0
VERTEX
  5
F00
  8
SAPA_PROFIL
 62
     4
 10
70.274156147691954
 20
56.143782217347777
 30
0.0
 42
0.1316524975873979
  0
VERTEX
  5
F01
  8
SAPA_PROFIL
 62
     4
 10
70.166976470719518
 20
56.543782217347797
 30
0.0
  0
VERTEX
  5
F02
  8
SAPA_PROFIL
 62
     4
 10
69.174156147690113
 20
58.263397459621856
 30
0.0
  0
VERTEX
  5
F03
  8
SAPA_PROFIL
 62
     4
 10
69.174156147690013
 20
58.700000000000308
 30
0.0
 42
-0.4142135623730951
  0
VERTEX
  5
F04
  8
SAPA_PROFIL
 62
     4
 10
69.424156147690013
 20
58.95000000000028
 30
0.0
  0
VERTEX
  5
F05
  8
SAPA_PROFIL
 62
     4
 10
73.024168147690077
 20
58.950000000000301
 30
0.0
 42
-0.4142135623731053
  0
VERTEX
  5
F06
  8
SAPA_PROFIL
 62
     4
 10
73.274168147690091
 20
58.700000000000287
 30
0.0
  0
VERTEX
  5
F07
  8
SAPA_PROFIL
 62
     4
 10
73.274156504954703
 20
58.263398078421829
 30
0.0
  0
VERTEX
  5
F08
  8
SAPA_PROFIL
 62
     4
 10
72.281335824664424
 20
56.543782217354448
 30
0.0
 42
0.1316524975874149
  0
VERTEX
  5
F09
  8
SAPA_PROFIL
 62
     4
 10
72.174156147691932
 20
56.143782217354399
 30
0.0
  0
VERTEX
  5
F0A
  8
SAPA_PROFIL
 62
     4
 10
72.174156147691647
 20
31.856217782646109
 30
0.0
 42
0.1316524975874151
  0
VERTEX
  5
F0B
  8
SAPA_PROFIL
 62
     4
 10
72.281335824664126
 20
31.45621778264606
 30
0.0
  0
VERTEX
  5
F0C
  8
SAPA_PROFIL
 62
     4
 10
73.274156504954391
 20
29.73660192157865
 30
0.0
  0
VERTEX
  5
F0D
  8
SAPA_PROFIL
 62
     4
 10
73.274168147689736
 20
29.3000000000002
 30
0.0
 42
-0.4142135623731054
  0
VERTEX
  5
F0E
  8
SAPA_PROFIL
 62
     4
 10
73.024168147689736
 20
29.050000000000178
 30
0.0
  0
VERTEX
  5
F0F
  8
SAPA_PROFIL
 62
     4
 10
69.424156147689672
 20
29.050000000000281
 30
0.0
 42
-0.4142135623730953
  0
VERTEX
  5
F10
  8
SAPA_PROFIL
 62
     4
 10
69.174156147689672
 20
29.300000000000271
 30
0.0
  0
VERTEX
  5
F11
  8
SAPA_PROFIL
 62
     4
 10
69.174156147689772
 20
29.73660254037873
 30
0.0
  0
VERTEX
  5
F12
  8
SAPA_PROFIL
 62
     4
 10
70.16697647071922
 20
31.45621778265275
 30
0.0
 42
0.1316524975873982
  0
VERTEX
  5
F13
  8
SAPA_PROFIL
 62
     4
 10
70.27415614769167
 20
31.856217782652759
 30
0.0
  0
SEQEND
  5
F14
  8
SAPA_PROFIL
 62
     4
  0
POLYLINE
  5
F15
  8
SAPA_PROFIL
 62
     4
 66
     1
 10
0.0
 20
0.0
 30
-0.2
 70
     1
  0
VERTEX
  5
14A1
  8
SAPA_PROFIL
 62
     4
 10
48.407735026890101
 20
31.456217782499291
 30
-0.2
  0
VERTEX
  5
14A2
  8
SAPA_PROFIL
 62
     4
 10
49.400555349919529
 20
29.736602540225238
 30
-0.2
  0
VERTEX
  5
14A3
  8
SAPA_PROFIL
 62
     4
 10
49.400555349919621
 20
29.29999999984679
 30
-0.2
 42
-0.4142135623730951
  0
VERTEX
  5
14A4
  8
SAPA_PROFIL
 62
     4
 10
49.150555349919642
 20
29.049999999846801
 30
-0.2
  0
VERTEX
  5
14A5
  8
SAPA_PROFIL
 62
     4
 10
45.550543349919558
 20
29.049999999846751
 30
-0.2
 42
-0.4142135623731053
  0
VERTEX
  5
14A6
  8
SAPA_PROFIL
 62
     4
 10
45.300543349919558
 20
29.299999999846751
 30
-0.2
  0
VERTEX
  5
14A7
  8
SAPA_PROFIL
 62
     4
 10
45.300554992654916
 20
29.736601921425219
 30
-0.2
  0
VERTEX
  5
14A8
  8
SAPA_PROFIL
 62
     4
 10
46.293375672945189
 20
31.456217782492612
 30
-0.2
 42
0.1316524975874149
  0
VERTEX
  5
14A9
  8
SAPA_PROFIL
 62
     4
 10
46.400555349917688
 20
31.85621778249266
 30
-0.2
  0
VERTEX
  5
14AA
  8
SAPA_PROFIL
 62
     4
 10
46.400555349917681
 20
56.14378221720095
 30
-0.2
 42
0.1316524975874152
  0
VERTEX
  5
14AB
  8
SAPA_PROFIL
 62
     4
 10
46.293375672945189
 20
56.543782217201013
 30
-0.2
  0
VERTEX
  5
14AC
  8
SAPA_PROFIL
 62
     4
 10
45.300554992654916
 20
58.263398078268402
 30
-0.2
  0
VERTEX
  5
14AD
  8
SAPA_PROFIL
 62
     4
 10
45.30054334991955
 20
58.69999999984686
 30
-0.2
 42
-0.4142135623731045
  0
VERTEX
  5
14AE
  8
SAPA_PROFIL
 62
     4
 10
45.550543349919558
 20
58.949999999846867
 30
-0.2
  0
VERTEX
  5
14AF
  8
SAPA_PROFIL
 62
     4
 10
49.150555349919621
 20
58.94999999984681
 30
-0.2
 42
-0.4142135623730935
  0
VERTEX
  5
14B0
  8
SAPA_PROFIL
 62
     4
 10
49.400555349919621
 20
58.699999999846817
 30
-0.2
  0
VERTEX
  5
14B1
  8
SAPA_PROFIL
 62
     4
 10
49.400555349919522
 20
58.263397459468358
 30
-0.2
  0
VERTEX
  5
14B2
  8
SAPA_PROFIL
 62
     4
 10
48.407735026890087
 20
56.543782217194327
 30
-0.2
 42
0.1316524975873982
  0
VERTEX
  5
14B3
  8
SAPA_PROFIL
 62
     4
 10
48.300555349917659
 20
56.143782217194307
 30
-0.2
  0
VERTEX
  5
14B4
  8
SAPA_PROFIL
 62
     4
 10
48.300555349917673
 20
31.8562177824993
 30
-0.2
 42
0.1316524975873979
  0
SEQEND
  5
14B5
  8
SAPA_PROFIL
 62
     4
  0
POLYLINE
  5
F16
  8
SAPA_PROFIL
 66
     1
 10
0.0
 20
0.0
 30
0.0
 70
     1
  0
VERTEX
  5
14B6
  8
SAPA_PROFIL
 10
82.999999999979408
 20
96.499999999519403
 30
0.0
  0
VERTEX
  5
14B7
  8
SAPA_PROFIL
 10
82.999999999979408
 20
95.71146102490782
 30
0.0
 42
0.0577043334240353
  0
VERTEX
  5
14B8
  8
SAPA_PROFIL
 10
83.264618028696248
 20
93.42621752067032
 30
0.0
 42
-0.1123270377207732
  0
VERTEX
  5
14B9
  8
SAPA_PROFIL
 10
83.416483945797054
 20
71.241252094439844
 30
0.0
 42
-0.3636666106259163
  0
VERTEX
  5
14BA
  8
SAPA_PROFIL
 10
80.362995954169676
 20
68.889330871576576
 30
0.0
 42
0.0360286231067385
  0
VERTEX
  5
14BB
  8
SAPA_PROFIL
 10
61.661250849026167
 20
68.313873080037524
 30
0.0
 42
0.0472456768419823
  0
VERTEX
  5
14BC
  8
SAPA_PROFIL
 10
59.812180793418399
 20
67.94442012326823
 30
0.0
 42
0.0120164869908705
  0
VERTEX
  5
14BD
  8
SAPA_PROFIL
 10
58.670068721642672
 20
67.571428571134334
 30
0.0
 42
-0.0851278882549297
  0
VERTEX
  5
14BE
  8
SAPA_PROFIL
 10
55.338096210279552
 20
66.99999999969765
 30
0.0
  0
VERTEX
  5
14BF
  8
SAPA_PROFIL
 10
47.999999999950319
 20
66.99999999969765
 30
0.0
 42
0.4142135623730951
  0
VERTEX
  5
14C0
  8
SAPA_PROFIL
 10
42.999999999950312
 20
61.99999999969765
 30
0.0
  0
VERTEX
  5
14C1
  8
SAPA_PROFIL
 10
42.999999999961233
 20
59.24386904079762
 30
0.0
 42
0.2418327667382071
  0
VERTEX
  5
14C2
  8
SAPA_PROFIL
 10
43.12527767492741
 20
58.999999999832312
 30
0.0
 42
-0.2418327667526432
  0
VERTEX
  5
14C3
  8
SAPA_PROFIL
 10
43.250555349920774
 20
58.756130958895987
 30
0.0
  0
VERTEX
  5
14C4
  8
SAPA_PROFIL
 10
43.250555349920774
 20
57.799999999846079
 30
0.0
 42
-0.3178606011753677
  0
VERTEX
  5
14C5
  8
SAPA_PROFIL
 10
43.050531349919531
 20
57.517148803235912
 30
0.0
  0
VERTEX
  5
14C6
  8
SAPA_PROFIL
 10
43.050531349919531
 20
55.214189562220469
 30
0.0
 42
0.6681786379192716
  0
VERTEX
  5
14C7
  8
SAPA_PROFIL
 10
44.75763813110602
 20
54.507082781033873
 30
0.0
  0
VERTEX
  5
14C8
  8
SAPA_PROFIL
 10
46.062687384275193
 20
55.81213203420284
 30
0.0
 42
0.1989123673797335
  0
VERTEX
  5
14C9
  8
SAPA_PROFIL
 10
46.150555349919301
 20
56.024264068558907
 30
0.0
  0
VERTEX
  5
14CA
  8
SAPA_PROFIL
 10
46.150555349919159
 20
56.61076951530611
 30
0.0
 42
0.1316524975873855
  0
VERTEX
  5
14CB
  8
SAPA_PROFIL
 10
46.110362971054521
 20
56.760769515306031
 30
0.0
  0
VERTEX
  5
14CC
  8
SAPA_PROFIL
 10
45.25055534991921
 20
58.249999999846906
 30
0.0
  0
VERTEX
  5
14CD
  8
SAPA_PROFIL
 10
45.250543349919553
 20
58.699999999846852
 30
0.0
 42
-0.4142135623731054
  0
VERTEX
  5
14CE
  8
SAPA_PROFIL
 10
45.550543349919558
 20
58.999999999846857
 30
0.0
  0
VERTEX
  5
14CF
  8
SAPA_PROFIL
 10
49.150555349919621
 20
58.999999999846807
 30
0.0
 42
-0.4142135623730951
  0
VERTEX
  5
14D0
  8
SAPA_PROFIL
 10
49.450555349919611
 20
58.69999999984681
 30
0.0
  0
VERTEX
  5
14D1
  8
SAPA_PROFIL
 10
49.450555349919519
 20
58.2499999998468
 30
0.0
  0
VERTEX
  5
14D2
  8
SAPA_PROFIL
 10
48.590730612350526
 20
56.760739868772639
 30
0.0
 42
0.1316363093594254
  0
VERTEX
  5
14D3
  8
SAPA_PROFIL
 10
48.550538234093572
 20
56.6107589637259
 30
0.0
  0
VERTEX
  5
14D4
  8
SAPA_PROFIL
 10
48.550531349919659
 20
56.499999999840078
 30
0.0
  0
VERTEX
  5
14D5
  8
SAPA_PROFIL
 10
50.999999999979423
 20
56.499999999846807
 30
0.0
  0
VERTEX
  5
14D6
  8
SAPA_PROFIL
 10
53.449468650039179
 20
56.502601999847002
 30
0.0
  0
VERTEX
  5
14D7
  8
SAPA_PROFIL
 10
53.449461765865273
 20
56.6107589637259
 30
0.0
 42
0.1316363093594255
  0
VERTEX
  5
14D8
  8
SAPA_PROFIL
 10
53.409269387608298
 20
56.760739868772639
 30
0.0
  0
VERTEX
  5
14D9
  8
SAPA_PROFIL
 10
52.549444650039327
 20
58.2499999998468
 30
0.0
  0
VERTEX
  5
14DA
  8
SAPA_PROFIL
 10
52.549444650039227
 20
58.69999999984681
 30
0.0
 42
-0.4142135623730951
  0
VERTEX
  5
14DB
  8
SAPA_PROFIL
 10
52.849444650039217
 20
58.999999999846807
 30
0.0
  0
VERTEX
  5
14DC
  8
SAPA_PROFIL
 10
56.449456650039281
 20
58.999999999846857
 30
0.0
 42
-0.4142135623731054
  0
VERTEX
  5
14DD
  8
SAPA_PROFIL
 10
56.749456650039278
 20
58.699999999846852
 30
0.0
  0
VERTEX
  5
14DE
  8
SAPA_PROFIL
 10
56.749444650039628
 20
58.249999999846899
 30
0.0
  0
VERTEX
  5
14DF
  8
SAPA_PROFIL
 10
55.889637028904318
 20
56.760769515306031
 30
0.0
 42
0.1316524975873855
  0
VERTEX
  5
14E0
  8
SAPA_PROFIL
 10
55.849444650039672
 20
56.610769515306103
 30
0.0
  0
VERTEX
  5
14E1
  8
SAPA_PROFIL
 10
55.84944465003953
 20
56.024264068558907
 30
0.0
 42
0.1989123673797335
  0
VERTEX
  5
14E2
  8
SAPA_PROFIL
 10
55.937312615683652
 20
55.81213203420284
 30
0.0
  0
VERTEX
  5
14E3
  8
SAPA_PROFIL
 10
57.242361868852818
 20
54.507082781033873
 30
0.0
 42
0.6681786379192716
  0
VERTEX
  5
14E4
  8
SAPA_PROFIL
 10
58.949468650039307
 20
55.214189562220469
 30
0.0
  0
VERTEX
  5
14E5
  8
SAPA_PROFIL
 10
58.949468650039307
 20
57.517148803236282
 30
0.0
 42
-0.3178606011750261
  0
VERTEX
  5
14E6
  8
SAPA_PROFIL
 10
58.749444650039891
 20
57.799999999846079
 30
0.0
  0
VERTEX
  5
14E7
  8
SAPA_PROFIL
 10
58.749444650039891
 20
58.756130958895987
 30
0.0
 42
-0.2418327667543857
  0
VERTEX
  5
14E8
  8
SAPA_PROFIL
 10
58.874722325020741
 20
58.999999999846921
 30
0.0
 42
0.2418327667380065
  0
VERTEX
  5
14E9
  8
SAPA_PROFIL
 10
59.000000000024038
 20
59.243869040797229
 30
0.0
  0
VERTEX
  5
14EA
  8
SAPA_PROFIL
 10
58.999999999979423
 20
59.999999999519389
 30
0.0
 42
0.4142135623523161
  0
VERTEX
  5
14EB
  8
SAPA_PROFIL
 10
58.000000000050363
 20
60.999999999519389
 30
0.0
  0
VERTEX
  5
14EC
  8
SAPA_PROFIL
 10
55.499999999821171
 20
60.99999999969765
 30
0.0
 42
-0.9999999999627103
  0
VERTEX
  5
14ED
  8
SAPA_PROFIL
 10
55.499999999970328
 20
64.99999999969765
 30
0.0
  0
VERTEX
  5
14EE
  8
SAPA_PROFIL
 10
63.499999999970328
 20
64.99999999969765
 30
0.0
 42
-0.4142135623752261
  0
VERTEX
  5
14EF
  8
SAPA_PROFIL
 10
65.499999999970328
 20
62.999999999686743
 30
0.0
  0
VERTEX
  5
14F0
  8
SAPA_PROFIL
 10
65.499999999952138
 20
61.299999999507762
 30
0.0
 42
-0.4142135623715025
  0
VERTEX
  5
14F1
  8
SAPA_PROFIL
 10
65.199999999940133
 20
60.999999999519403
 30
0.0
  0
VERTEX
  5
14F2
  8
SAPA_PROFIL
 10
64.299999999949591
 20
60.99999999951212
 30
0.0
 42
0.4142135623730888
  0
VERTEX
  5
14F3
  8
SAPA_PROFIL
 10
63.999999999939412
 20
60.69999999950921
 30
0.0
  0
VERTEX
  5
14F4
  8
SAPA_PROFIL
 10
63.999999999939412
 20
60.299999999507747
 30
0.0
 42
0.4142135623730982
  0
VERTEX
  5
14F5
  8
SAPA_PROFIL
 10
64.299999999949591
 20
59.999999999497568
 30
0.0
  0
VERTEX
  5
14F6
  8
SAPA_PROFIL
 10
66.699999999960141
 20
59.999999999515758
 30
0.0
 42
0.4142135623624388
  0
VERTEX
  5
14F7
  8
SAPA_PROFIL
 10
66.999999999961233
 20
60.299999999507747
 30
0.0
  0
VERTEX
  5
14F8
  8
SAPA_PROFIL
 10
66.999999999961233
 20
64.499999999519389
 30
0.0
 42
-0.4142135623730951
  0
VERTEX
  5
14F9
  8
SAPA_PROFIL
 10
69.999999999970328
 20
67.499999999508475
 30
0.0
  0
VERTEX
  5
14FA
  8
SAPA_PROFIL
 10
74.999999999961233
 20
67.499999999508475
 30
0.0
 42
-0.0279290488515987
  0
VERTEX
  5
14FB
  8
SAPA_PROFIL
 10
89.489164086653062
 20
66.690031054808657
 30
0.0
 42
-0.3661896282372441
  0
VERTEX
  5
14FC
  8
SAPA_PROFIL
 10
90.198789765519393
 20
65.939003094596785
 30
0.0
 42
0.3981911081684388
  0
VERTEX
  5
14FD
  8
SAPA_PROFIL
 10
90.398487206909863
 20
65.749999998786109
 30
0.0
  0
VERTEX
  5
14FE
  8
SAPA_PROFIL
 10
91.299999999969586
 20
65.749999998784475
 30
0.0
 42
0.414213562389099
  0
VERTEX
  5
14FF
  8
SAPA_PROFIL
 10
91.49999999996669
 20
65.949999998796116
 30
0.0
  0
VERTEX
  5
1500
  8
SAPA_PROFIL
 10
91.499999999979437
 20
66.176059067267047
 30
0.0
 42
0.3813405017903993
  0
VERTEX
  5
1501
  8
SAPA_PROFIL
 10
89.726562499979408
 20
68.163184990182231
 30
0.0
 42
0.0014144096544681
  0
VERTEX
  5
1502
  8
SAPA_PROFIL
 10
88.99557257294326
 20
68.24443488300858
 30
0.0
 42
-0.309186963272042
  0
VERTEX
  5
1503
  8
SAPA_PROFIL
 10
88.137739782561582
 20
68.978186575361292
 30
0.0
 42
-0.1241407988373373
  0
VERTEX
  5
1504
  8
SAPA_PROFIL
 10
87.735381971255947
 20
93.426217520652955
 30
0.0
 42
0.0577043334222099
  0
VERTEX
  5
1505
  8
SAPA_PROFIL
 10
87.999999999979408
 20
95.711461024809537
 30
0.0
  0
VERTEX
  5
1506
  8
SAPA_PROFIL
 10
87.999999999979408
 20
96.499999999519346
 30
0.0
 42
0.4142135623730951
  0
VERTEX
  5
1507
  8
SAPA_PROFIL
 10
86.999999999979394
 20
97.499999999519346
 30
0.0
  0
VERTEX
  5
1508
  8
SAPA_PROFIL
 10
83.999999999979437
 20
97.499999999519403
 30
0.0
 42
0.4142135623730951
  0
SEQEND
  5
1509
  8
SAPA_PROFIL
  0
POLYLINE
  5
F17
  8
SAPA_PROFIL
 66
     1
 10
0.0
 20
0.0
 30
0.0
 70
     1
  0
VERTEX
  5
150A
  8
SAPA_PROFIL
 10
64.299999999949591
 20
28.000000000196351
 30
0.0
  0
VERTEX
  5
150B
  8
SAPA_PROFIL
 10
66.699999999958322
 20
28.000000000174509
 30
0.0
 42
-0.4142135623656343
  0
VERTEX
  5
150C
  8
SAPA_PROFIL
 10
66.999999999959414
 20
27.700000000186161
 30
0.0
  0
VERTEX
  5
150D
  8
SAPA_PROFIL
 10
66.999999999959414
 20
23.50000000017452
 30
0.0
 42
0.4142135623730959
  0
VERTEX
  5
150E
  8
SAPA_PROFIL
 10
69.999999999970328
 20
20.50000000018543
 30
0.0
  0
VERTEX
  5
150F
  8
SAPA_PROFIL
 10
74.999999999959385
 20
20.50000000018543
 30
0.0
 42
0.0279290488516059
  0
VERTEX
  5
1510
  8
SAPA_PROFIL
 10
89.489164086651598
 20
21.30996894488181
 30
0.0
 42
0.3661896282372283
  0
VERTEX
  5
1511
  8
SAPA_PROFIL
 10
90.198789765519408
 20
22.060996905097799
 30
0.0
 42
-0.3981911081684177
  0
VERTEX
  5
1512
  8
SAPA_PROFIL
 10
90.398487206908072
 20
22.250000000905938
 30
0.0
  0
VERTEX
  5
1513
  8
SAPA_PROFIL
 10
91.299999999969629
 20
22.250000000909392
 30
0.0
 42
-0.4142135623890976
  0
VERTEX
  5
1514
  8
SAPA_PROFIL
 10
91.499999999970356
 20
22.05000000089775
 30
0.0
  0
VERTEX
  5
1515
  8
SAPA_PROFIL
 10
91.499999999977632
 20
21.823940932426819
 30
0.0
 42
-0.3813405017904005
  0
VERTEX
  5
1516
  8
SAPA_PROFIL
 10
89.726562499977632
 20
19.836815009515309
 30
0.0
 42
-0.0541306776717632
  0
VERTEX
  5
1517
  8
SAPA_PROFIL
 10
61.661250848907969
 20
19.686126919664279
 30
0.0
 42
-0.0472456768419794
  0
VERTEX
  5
1518
  8
SAPA_PROFIL
 10
59.812180793413553
 20
20.055579876433061
 30
0.0
 42
-0.0120164869908679
  0
VERTEX
  5
1519
  8
SAPA_PROFIL
 10
58.670068721644128
 20
20.42857142856424
 30
0.0
 42
0.0851278882549295
  0
VERTEX
  5
151A
  8
SAPA_PROFIL
 10
55.33809621027774
 20
20.99999999999989
 30
0.0
  0
VERTEX
  5
151B
  8
SAPA_PROFIL
 10
47.999999999948507
 20
20.999999999999879
 30
0.0
 42
-0.4142135623730951
  0
VERTEX
  5
151C
  8
SAPA_PROFIL
 10
42.999999999948507
 20
25.99999999999989
 30
0.0
  0
VERTEX
  5
151D
  8
SAPA_PROFIL
 10
42.999999999959421
 20
28.75613095889992
 30
0.0
 42
-0.2418327667382104
  0
VERTEX
  5
151E
  8
SAPA_PROFIL
 10
43.125277674928498
 20
28.99999999986375
 30
0.0
 42
0.241832766754381
  0
VERTEX
  5
151F
  8
SAPA_PROFIL
 10
43.250555349918947
 20
29.243869040797911
 30
0.0
  0
VERTEX
  5
1520
  8
SAPA_PROFIL
 10
43.250555349918947
 20
30.199999999847819
 30
0.0
 42
0.3178606011698609
  0
VERTEX
  5
1521
  8
SAPA_PROFIL
 10
43.050531349924839
 20
30.482851196455741
 30
0.0
  0
VERTEX
  5
1522
  8
SAPA_PROFIL
 10
43.050531349924839
 20
32.785810437480649
 30
0.0
 42
-0.6681786379192716
  0
VERTEX
  5
1523
  8
SAPA_PROFIL
 10
44.757638131111641
 20
33.492917218666491
 30
0.0
  0
VERTEX
  5
1524
  8
SAPA_PROFIL
 10
46.062687384280231
 20
32.187867965496942
 30
0.0
 42
-0.1989123673797334
  0
VERTEX
  5
1525
  8
SAPA_PROFIL
 10
46.150555349924268
 20
31.975735931140829
 30
0.0
  0
VERTEX
  5
1526
  8
SAPA_PROFIL
 10
46.150555349923863
 20
31.389230484393639
 30
0.0
 42
-0.1316524975873855
  0
VERTEX
  5
1527
  8
SAPA_PROFIL
 10
46.110362971059153
 20
31.23923048439373
 30
0.0
  0
VERTEX
  5
1528
  8
SAPA_PROFIL
 10
45.250555349923182
 20
29.74999999985323
 30
0.0
  0
VERTEX
  5
1529
  8
SAPA_PROFIL
 10
45.250543349923319
 20
29.299999999853291
 30
0.0
 42
0.4142135623731054
  0
VERTEX
  5
152A
  8
SAPA_PROFIL
 10
45.550543349923203
 20
28.999999999853149
 30
0.0
  0
VERTEX
  5
152B
  8
SAPA_PROFIL
 10
49.150555349923259
 20
28.99999999985161
 30
0.0
 42
0.4142135623730951
  0
VERTEX
  5
152C
  8
SAPA_PROFIL
 10
49.450555349923391
 20
29.299999999851469
 30
0.0
  0
VERTEX
  5
152D
  8
SAPA_PROFIL
 10
49.450555349923491
 20
29.749999999851472
 30
0.0
  0
VERTEX
  5
152E
  8
SAPA_PROFIL
 10
48.590730612355159
 20
31.239260130926031
 30
0.0
 42
-0.1316363093594257
  0
VERTEX
  5
152F
  8
SAPA_PROFIL
 10
48.550538234098269
 20
31.389241035972791
 30
0.0
  0
VERTEX
  5
1530
  8
SAPA_PROFIL
 10
48.550535862289642
 20
31.499999999858481
 30
0.0
  0
VERTEX
  5
1531
  8
SAPA_PROFIL
 10
53.449463575011237
 20
31.499999999842991
 30
0.0
  0
VERTEX
  5
1532
  8
SAPA_PROFIL
 10
53.44946176586528
 20
31.389241035967721
 30
0.0
 42
-0.1316363093594255
  0
VERTEX
  5
1533
  8
SAPA_PROFIL
 10
53.409269387608319
 20
31.239260130920979
 30
0.0
  0
VERTEX
  5
1534
  8
SAPA_PROFIL
 10
52.549444650039341
 20
29.749999999846811
 30
0.0
  0
VERTEX
  5
1535
  8
SAPA_PROFIL
 10
52.549444650039227
 20
29.299999999846801
 30
0.0
 42
0.4142135623730951
  0
VERTEX
  5
1536
  8
SAPA_PROFIL
 10
52.849444650039231
 20
28.999999999846811
 30
0.0
  0
VERTEX
  5
1537
  8
SAPA_PROFIL
 10
56.449456650039302
 20
28.999999999846761
 30
0.0
 42
0.4142135623731054
  0
VERTEX
  5
1538
  8
SAPA_PROFIL
 10
56.749456650039299
 20
29.299999999846762
 30
0.0
  0
VERTEX
  5
1539
  8
SAPA_PROFIL
 10
56.749444650039642
 20
29.749999999846711
 30
0.0
  0
VERTEX
  5
153A
  8
SAPA_PROFIL
 10
55.889637028904332
 20
31.239230484387591
 30
0.0
 42
-0.1316524975873855
  0
VERTEX
  5
153B
  8
SAPA_PROFIL
 10
55.849444650039679
 20
31.389230484387511
 30
0.0
  0
VERTEX
  5
153C
  8
SAPA_PROFIL
 10
55.849444650039537
 20
31.975735931134711
 30
0.0
 42
-0.1989123673797335
  0
VERTEX
  5
153D
  8
SAPA_PROFIL
 10
55.937312615683659
 20
32.187867965490781
 30
0.0
  0
VERTEX
  5
153E
  8
SAPA_PROFIL
 10
57.242361868852818
 20
33.492917218659763
 30
0.0
 42
-0.6681786379192716
  0
VERTEX
  5
153F
  8
SAPA_PROFIL
 10
58.949468650039321
 20
32.785810437473152
 30
0.0
  0
VERTEX
  5
1540
  8
SAPA_PROFIL
 10
58.949468650039329
 20
30.482851196461102
 30
0.0
 42
0.3178606011758647
  0
VERTEX
  5
1541
  8
SAPA_PROFIL
 10
58.749444650038079
 20
30.199999999847819
 30
0.0
  0
VERTEX
  5
1542
  8
SAPA_PROFIL
 10
58.749444650039898
 20
29.243869040797911
 30
0.0
 42
0.2418327667526379
  0
VERTEX
  5
1543
  8
SAPA_PROFIL
 10
58.874722325018539
 20
28.999999999847269
 30
0.0
 42
-0.2418327667380031
  0
VERTEX
  5
1544
  8
SAPA_PROFIL
 10
59.000000000022212
 20
28.75613095889662
 30
0.0
  0
VERTEX
  5
1545
  8
SAPA_PROFIL
 10
58.999999999977597
 20
28.000000000174509
 30
0.0
 42
-0.4142135623709635
  0
VERTEX
  5
1546
  8
SAPA_PROFIL
 10
57.999999999977611
 20
27.000000000174509
 30
0.0
  0
VERTEX
  5
1547
  8
SAPA_PROFIL
 10
55.499999999821178
 20
26.99999999999989
 30
0.0
 42
0.9999999999627103
  0
VERTEX
  5
1548
  8
SAPA_PROFIL
 10
55.499999999970342
 20
22.99999999999989
 30
0.0
  0
VERTEX
  5
1549
  8
SAPA_PROFIL
 10
63.499999999970328
 20
22.99999999999989
 30
0.0
 42
0.4142135623752264
  0
VERTEX
  5
154A
  8
SAPA_PROFIL
 10
65.499999999970328
 20
25.000000000007169
 30
0.0
  0
VERTEX
  5
154B
  8
SAPA_PROFIL
 10
65.4999999999485
 20
26.700000000182861
 30
0.0
 42
0.4142135623762961
  0
VERTEX
  5
154C
  8
SAPA_PROFIL
 10
65.199999999940133
 20
27.00000000017452
 30
0.0
  0
VERTEX
  5
154D
  8
SAPA_PROFIL
 10
64.299999999949591
 20
27.00000000018543
 30
0.0
 42
-0.4142135623730957
  0
VERTEX
  5
154E
  8
SAPA_PROFIL
 10
63.999999999939412
 20
27.300000000184699
 30
0.0
  0
VERTEX
  5
154F
  8
SAPA_PROFIL
 10
63.999999999939412
 20
27.700000000186161
 30
0.0
 42
-0.4142135623730922
  0
SEQEND
  5
1550
  8
SAPA_PROFIL
  0
LINE
  5
F18
  8
SAPA_PROFIL
 62
     4
 10
53.699444650041187
 20
56.143782217194307
 30
-0.2
 11
53.699444650041187
 21
31.8562177824993
 31
-0.2
  0
ARC
  5
F19
  8
SAPA_PROFIL
 62
     4
 10
52.899444650041168
 20
56.143782217194349
 30
-0.2
 40
0.8000000000000166
 50
359.99999999999761
 51
29.999999999997939
  0
LINE
  5
F1A
  8
SAPA_PROFIL
 62
     4
 10
52.599444650039331
 20
58.263397459468358
 30
-0.2
 11
53.592264973068751
 21
56.543782217194327
 31
-0.2
  0
LINE
  5
F1B
  8
SAPA_PROFIL
 62
     4
 10
52.599444650039217
 20
58.699999999846817
 30
-0.2
 11
52.599444650039331
 21
58.263397459468358
 31
-0.2
  0
ARC
  5
F1C
  8
SAPA_PROFIL
 62
     4
 10
52.84944465003921
 20
58.69999999984681
 30
-0.2
 40
0.2499999999999928
 50
89.999999999998366
 51
179.99999999999841
  0
LINE
  5
F1D
  8
SAPA_PROFIL
 62
     4
 10
56.449456650039288
 20
58.949999999846867
 30
-0.2
 11
52.849444650039217
 21
58.94999999984681
 31
-0.2
  0
ARC
  5
F1E
  8
SAPA_PROFIL
 62
     4
 10
56.449456650039288
 20
58.699999999846867
 30
-0.2
 40
0.2500000000000027
 50
359.99999999999841
 51
90.000000000000796
  0
LINE
  5
F1F
  8
SAPA_PROFIL
 62
     4
 10
56.699445007303929
 20
58.263398078268402
 30
-0.2
 11
56.699456650039288
 21
58.69999999984686
 31
-0.2
  0
LINE
  5
F20
  8
SAPA_PROFIL
 62
     4
 10
55.70662432701365
 20
56.543782217201013
 30
-0.2
 11
56.699445007303929
 21
58.263398078268402
 31
-0.2
  0
ARC
  5
F21
  8
SAPA_PROFIL
 62
     4
 10
56.399444650041161
 20
56.143782217200922
 30
-0.2
 40
0.8000000000000007
 50
149.99999999999309
 51
179.9999999999975
  0
LINE
  5
F22
  8
SAPA_PROFIL
 62
     4
 10
55.599444650041157
 20
31.856217782492671
 30
-0.2
 11
55.599444650041157
 21
56.14378221720095
 31
-0.2
  0
ARC
  5
F23
  8
SAPA_PROFIL
 62
     4
 10
56.399444650041161
 20
31.856217782492699
 30
-0.2
 40
0.8000000000000019
 50
180.00000000000239
 51
210.00000000000691
  0
LINE
  5
F24
  8
SAPA_PROFIL
 62
     4
 10
56.699445007303943
 20
29.736601921425219
 30
-0.2
 11
55.706624327013657
 21
31.456217782492619
 31
-0.2
  0
LINE
  5
F25
  8
SAPA_PROFIL
 62
     4
 10
56.699456650039302
 20
29.299999999846762
 30
-0.2
 11
56.699445007303943
 21
29.736601921425219
 31
-0.2
  0
ARC
  5
F26
  8
SAPA_PROFIL
 62
     4
 10
56.449456650039302
 20
29.299999999846762
 30
-0.2
 40
0.2499999999999992
 50
269.99999999999841
 51
0.0
  0
LINE
  5
F27
  8
SAPA_PROFIL
 62
     4
 10
52.849444650039231
 20
29.049999999846801
 30
-0.2
 11
56.449456650039302
 21
29.049999999846762
 31
-0.2
  0
ARC
  5
F28
  8
SAPA_PROFIL
 62
     4
 10
52.849444650039217
 20
29.299999999846801
 30
-0.2
 40
0.2499999999999929
 50
180.00000000000159
 51
270.00000000000171
  0
LINE
  5
F29
  8
SAPA_PROFIL
 62
     4
 10
52.599444650039331
 20
29.736602540225238
 30
-0.2
 11
52.599444650039231
 21
29.29999999984679
 31
-0.2
  0
LINE
  5
F2A
  8
SAPA_PROFIL
 62
     4
 10
53.592264973068751
 20
31.456217782499291
 30
-0.2
 11
52.599444650039331
 21
29.736602540225238
 31
-0.2
  0
ARC
  5
F2B
  8
SAPA_PROFIL
 62
     4
 10
52.899444650041183
 20
31.856217782499272
 30
-0.2
 40
0.8000000000000053
 50
330.0000000000021
 51
0.0000000000024427
  0
POLYLINE
  5
F2C
  8
SAPA_PROFIL
 62
     4
 66
     1
 10
0.0
 20
0.0
 30
0.0
 70
     1
  0
VERTEX
  5
1551
  8
SAPA_PROFIL
 62
     4
 10
5.4907476962976718
 20
64.725833080859275
 30
0.0
  0
VERTEX
  5
1552
  8
SAPA_PROFIL
 62
     4
 10
6.3505553499399916
 20
63.236602540014069
 30
0.0
  0
VERTEX
  5
1553
  8
SAPA_PROFIL
 62
     4
 10
6.350555349940084
 20
62.79999999963561
 30
0.0
 42
-0.4142135623730946
  0
VERTEX
  5
1554
  8
SAPA_PROFIL
 62
     4
 10
6.1005553499400911
 20
62.549999999635652
 30
0.0
  0
VERTEX
  5
1555
  8
SAPA_PROFIL
 62
     4
 10
2.500543349940028
 20
62.549999999635581
 30
0.0
 42
-0.414213562373107
  0
VERTEX
  5
1556
  8
SAPA_PROFIL
 62
     4
 10
2.2505433499400209
 20
62.799999999635588
 30
0.0
  0
VERTEX
  5
1557
  8
SAPA_PROFIL
 62
     4
 10
2.2505549926753869
 20
63.23660192121406
 30
0.0
  0
VERTEX
  5
1558
  8
SAPA_PROFIL
 62
     4
 10
3.1103629385683691
 20
64.725832968251751
 30
0.0
 42
0.1316524975874248
  0
VERTEX
  5
1559
  8
SAPA_PROFIL
 62
     4
 10
3.1505553174330569
 20
64.875832968251785
 30
0.0
  0
VERTEX
  5
155A
  8
SAPA_PROFIL
 62
     4
 10
3.1505553174330618
 20
88.124166959503043
 30
0.0
 42
0.1316524975874248
  0
VERTEX
  5
155B
  8
SAPA_PROFIL
 62
     4
 10
3.1103629385683811
 20
88.274166959503077
 30
0.0
  0
VERTEX
  5
155C
  8
SAPA_PROFIL
 62
     4
 10
2.2505549926753918
 20
89.763398006540768
 30
0.0
  0
VERTEX
  5
155D
  8
SAPA_PROFIL
 62
     4
 10
2.2505433499400329
 20
90.199999928119212
 30
0.0
 42
-0.4142135623731049
  0
VERTEX
  5
155E
  8
SAPA_PROFIL
 62
     4
 10
2.5005433499400329
 20
90.449999928119226
 30
0.0
  0
VERTEX
  5
155F
  8
SAPA_PROFIL
 62
     4
 10
6.1005553499400973
 20
90.449999928119183
 30
0.0
 42
-0.4142135623730951
  0
VERTEX
  5
1560
  8
SAPA_PROFIL
 62
     4
 10
6.3505553499400973
 20
90.199999928119183
 30
0.0
  0
VERTEX
  5
1561
  8
SAPA_PROFIL
 62
     4
 10
6.3505553499399969
 20
89.763397387740724
 30
0.0
  0
VERTEX
  5
1562
  8
SAPA_PROFIL
 62
     4
 10
5.4907476962977331
 20
88.274166846895611
 30
0.0
 42
0.1316524975873867
  0
VERTEX
  5
1563
  8
SAPA_PROFIL
 62
     4
 10
5.4505553174330661
 20
88.124166846895633
 30
0.0
  0
VERTEX
  5
1564
  8
SAPA_PROFIL
 62
     4
 10
5.4505553174330119
 20
64.875833080859252
 30
0.0
 42
0.1316524975873873
  0
SEQEND
  5
1565
  8
SAPA_PROFIL
 62
     4
  0
POLYLINE
  5
F2D
  8
SAPA_PROFIL
 66
     1
 10
0.0
 20
0.0
 30
0.0
 70
     1
  0
VERTEX
  5
1566
  8
SAPA_PROFIL
 10
49.999999999967152
 20
17.300000000010201
 30
0.0
 42
0.4142135623624294
  0
VERTEX
  5
1567
  8
SAPA_PROFIL
 10
49.799999999991897
 20
17.499999999999979
 30
0.0
  0
VERTEX
  5
1568
  8
SAPA_PROFIL
 10
48.949999999993352
 20
17.500000000014541
 30
0.0
 42
-0.4142135623730744
  0
VERTEX
  5
1569
  8
SAPA_PROFIL
 10
48.74999999999261
 20
17.7000000000189
 30
0.0
  0
VERTEX
  5
156A
  8
SAPA_PROFIL
 10
48.749999999999908
 20
18.000000000000011
 30
0.0
 42
-0.4142135623731035
  0
VERTEX
  5
156B
  8
SAPA_PROFIL
 10
49.249999999999901
 20
18.500000000000011
 30
0.0
  0
VERTEX
  5
156C
  8
SAPA_PROFIL
 10
52.249999999999901
 20
18.500000000000011
 30
0.0
 42
-0.4142135623731035
  0
VERTEX
  5
156D
  8
SAPA_PROFIL
 10
52.749999999999908
 20
18.000000000000011
 30
0.0
  0
VERTEX
  5
156E
  8
SAPA_PROFIL
 10
52.749999999999908
 20
17.700000000004351
 30
0.0
 42
-0.4142135623730744
  0
VERTEX
  5
156F
  8
SAPA_PROFIL
 10
52.549999999999173
 20
17.499999999999979
 30
0.0
  0
VERTEX
  5
1570
  8
SAPA_PROFIL
 10
51.699999999996983
 20
17.500000000010932
 30
0.0
 42
0.4142135623730534
  0
VERTEX
  5
1571
  8
SAPA_PROFIL
 10
51.499999999999908
 20
17.300000000010201
 30
0.0
  0
VERTEX
  5
1572
  8
SAPA_PROFIL
 10
51.499999999999908
 20
16.300000000010201
 30
0.0
 42
0.4142135623731035
  0
VERTEX
  5
1573
  8
SAPA_PROFIL
 10
51.999999999999908
 20
15.800000000010201
 30
0.0
  0
VERTEX
  5
1574
  8
SAPA_PROFIL
 10
57.999999999999901
 20
15.800000000010201
 30
0.0
 42
0.4142135623731033
  0
VERTEX
  5
1575
  8
SAPA_PROFIL
 10
58.499999999999893
 20
16.300000000010201
 30
0.0
  0
VERTEX
  5
1576
  8
SAPA_PROFIL
 10
58.499999999988979
 20
17.300000000010201
 30
0.0
 42
0.414213562373064
  0
VERTEX
  5
1577
  8
SAPA_PROFIL
 10
58.299999999999159
 20
17.499999999999979
 30
0.0
  0
VERTEX
  5
1578
  8
SAPA_PROFIL
 10
57.44999999999699
 20
17.499999999999979
 30
0.0
 42
-0.414213562373064
  0
VERTEX
  5
1579
  8
SAPA_PROFIL
 10
57.249999999999893
 20
17.700000000004351
 30
0.0
  0
VERTEX
  5
157A
  8
SAPA_PROFIL
 10
57.249999999999893
 20
18.000000000000011
 30
0.0
 42
-0.4142135623731035
  0
VERTEX
  5
157B
  8
SAPA_PROFIL
 10
57.749999999999893
 20
18.500000000000011
 30
0.0
  0
VERTEX
  5
157C
  8
SAPA_PROFIL
 10
59.499999999999893
 20
18.500000000000011
 30
0.0
 42
-0.4142135623731035
  0
VERTEX
  5
157D
  8
SAPA_PROFIL
 10
59.999999999999893
 20
18.000000000000011
 30
0.0
  0
VERTEX
  5
157E
  8
SAPA_PROFIL
 10
59.999999999999893
 20
15.500000000000011
 30
0.0
 42
-0.4142135623730966
  0
VERTEX
  5
157F
  8
SAPA_PROFIL
 10
58.499999999999893
 20
13.99999999999998
 30
0.0
  0
VERTEX
  5
1580
  8
SAPA_PROFIL
 10
0.2999999999991758
 20
14.0
 30
0.0
 42
-0.4142135623730935
  0
VERTEX
  5
1581
  8
SAPA_PROFIL
 10
-0.0000000000001036
 20
14.300000000010179
 30
0.0
  0
VERTEX
  5
1582
  8
SAPA_PROFIL
 10
-0.000000000000109
 20
62.256130958696303
 30
0.0
 42
-0.2418327667378115
  0
VERTEX
  5
1583
  8
SAPA_PROFIL
 10
0.1252776749669924
 20
62.499999999634703
 30
0.0
 42
0.2418327667509125
  0
VERTEX
  5
1584
  8
SAPA_PROFIL
 10
0.2505553499394301
 20
62.743869040590653
 30
0.0
  0
VERTEX
  5
1585
  8
SAPA_PROFIL
 10
0.2505553499430682
 20
63.699999999640568
 30
0.0
 42
0.2418327667448973
  0
VERTEX
  5
1586
  8
SAPA_PROFIL
 10
0.1252776749746523
 20
63.943869040595501
 30
0.0
 42
-0.2418327667448979
  0
VERTEX
  5
1587
  8
SAPA_PROFIL
 10
0.0000000000074586
 20
64.187738081548105
 30
0.0
  0
VERTEX
  5
1588
  8
SAPA_PROFIL
 10
0.000000000007459
 20
66.285810437266065
 30
0.0
 42
-0.6681786379192718
  0
VERTEX
  5
1589
  8
SAPA_PROFIL
 10
1.7071067811939551
 20
66.992917218452675
 30
0.0
  0
VERTEX
  5
158A
  8
SAPA_PROFIL
 10
3.012156034363128
 20
65.687867965283715
 30
0.0
 42
-0.1989123673797335
  0
VERTEX
  5
158B
  8
SAPA_PROFIL
 10
3.1000240000072359
 20
65.475735930927641
 30
0.0
  0
VERTEX
  5
158C
  8
SAPA_PROFIL
 10
3.1000240000070929
 20
64.889230484180445
 30
0.0
 42
-0.1316524975873855
  0
VERTEX
  5
158D
  8
SAPA_PROFIL
 10
3.0598316211424552
 20
64.739230484180524
 30
0.0
  0
VERTEX
  5
158E
  8
SAPA_PROFIL
 10
2.200024000007144
 20
63.249999999639641
 30
0.0
  0
VERTEX
  5
158F
  8
SAPA_PROFIL
 10
2.200012000007487
 20
62.799999999639681
 30
0.0
 42
0.4142135623731054
  0
VERTEX
  5
1590
  8
SAPA_PROFIL
 10
2.5000120000074841
 20
62.49999999963967
 30
0.0
  0
VERTEX
  5
1591
  8
SAPA_PROFIL
 10
6.1000240000075481
 20
62.499999999639719
 30
0.0
 42
0.4142135623730951
  0
VERTEX
  5
1592
  8
SAPA_PROFIL
 10
6.4000240000075452
 20
62.799999999639731
 30
0.0
  0
VERTEX
  5
1593
  8
SAPA_PROFIL
 10
6.4000240000074449
 20
63.249999999639719
 30
0.0
  0
VERTEX
  5
1594
  8
SAPA_PROFIL
 10
5.5401992624384606
 20
64.739260130713873
 30
0.0
 42
-0.1316363093594257
  0
VERTEX
  5
1595
  8
SAPA_PROFIL
 10
5.5000068841815004
 20
64.889241035760634
 30
0.0
  0
VERTEX
  5
1596
  8
SAPA_PROFIL
 10
5.4999998343906897
 20
64.999999999643478
 30
0.0
  0
VERTEX
  5
1597
  8
SAPA_PROFIL
 10
7.0856406460624282
 20
64.999999999643478
 30
0.0
 42
-0.2679491924308306
  0
VERTEX
  5
1598
  8
SAPA_PROFIL
 10
7.951666049841049
 20
64.499999999643464
 30
0.0
  0
VERTEX
  5
1599
  8
SAPA_PROFIL
 10
8.9620290209195286
 20
62.749999999643023
 30
0.0
 42
0.2679491924308306
  0
VERTEX
  5
159A
  8
SAPA_PROFIL
 10
9.3950417228114826
 20
62.499999999643478
 30
0.0
  0
VERTEX
  5
159B
  8
SAPA_PROFIL
 10
10.604958277191949
 20
62.499999999643478
 30
0.0
 42
0.2679491924308304
  0
VERTEX
  5
159C
  8
SAPA_PROFIL
 10
11.037970979083079
 20
62.749999999643471
 30
0.0
  0
VERTEX
  5
159D
  8
SAPA_PROFIL
 10
12.048333950158749
 20
64.499999999643464
 30
0.0
 42
-0.2679491924308308
  0
VERTEX
  5
159E
  8
SAPA_PROFIL
 10
12.91435935394464
 20
64.999999999641602
 30
0.0
  0
VERTEX
  5
159F
  8
SAPA_PROFIL
 10
14.50000016561274
 20
64.999999999643762
 30
0.0
  0
VERTEX
  5
15A0
  8
SAPA_PROFIL
 10
14.49999311582193
 20
64.889241035760634
 30
0.0
 42
-0.1316363093594255
  0
VERTEX
  5
15A1
  8
SAPA_PROFIL
 10
14.45980073756496
 20
64.739260130713873
 30
0.0
  0
VERTEX
  5
15A2
  8
SAPA_PROFIL
 10
13.599975999995991
 20
63.249999999639719
 30
0.0
  0
VERTEX
  5
15A3
  8
SAPA_PROFIL
 10
13.599975999995889
 20
62.799999999639731
 30
0.0
 42
0.4142135623730951
  0
VERTEX
  5
15A4
  8
SAPA_PROFIL
 10
13.899975999995879
 20
62.499999999639719
 30
0.0
  0
VERTEX
  5
15A5
  8
SAPA_PROFIL
 10
17.499987999995941
 20
62.49999999963967
 30
0.0
 42
0.4142135623731054
  0
VERTEX
  5
15A6
  8
SAPA_PROFIL
 10
17.799987999995938
 20
62.799999999639681
 30
0.0
  0
VERTEX
  5
15A7
  8
SAPA_PROFIL
 10
17.799975999996281
 20
63.249999999639641
 30
0.0
  0
VERTEX
  5
15A8
  8
SAPA_PROFIL
 10
16.940168378860971
 20
64.739230484180524
 30
0.0
 42
-0.1316524975873855
  0
VERTEX
  5
15A9
  8
SAPA_PROFIL
 10
16.899975999996329
 20
64.889230484180445
 30
0.0
  0
VERTEX
  5
15AA
  8
SAPA_PROFIL
 10
16.89997599999619
 20
65.475735930927641
 30
0.0
 42
-0.1989123673797335
  0
VERTEX
  5
15AB
  8
SAPA_PROFIL
 10
16.987843965640302
 20
65.687867965283715
 30
0.0
  0
VERTEX
  5
15AC
  8
SAPA_PROFIL
 10
18.292893218809478
 20
66.992917218452675
 30
0.0
 42
-0.6681786379192716
  0
VERTEX
  5
15AD
  8
SAPA_PROFIL
 10
19.999999999995971
 20
66.285810437266065
 30
0.0
  0
VERTEX
  5
15AE
  8
SAPA_PROFIL
 10
19.999999999995971
 20
64.187738081546371
 30
0.0
 42
-0.2418327667433386
  0
VERTEX
  5
15AF
  8
SAPA_PROFIL
 10
19.874722325030209
 20
63.943869040594819
 30
0.0
 42
0.2418327667449431
  0
VERTEX
  5
15B0
  8
SAPA_PROFIL
 10
19.749444650064
 20
63.699999999640568
 30
0.0
  0
VERTEX
  5
15B1
  8
SAPA_PROFIL
 10
19.749444650060362
 20
62.743869040590653
 30
0.0
 42
0.2418327667509097
  0
VERTEX
  5
15B2
  8
SAPA_PROFIL
 10
19.874722325042779
 20
62.499999999643528
 30
0.0
 42
-0.2418327667378167
  0
VERTEX
  5
15B3
  8
SAPA_PROFIL
 10
19.999999999995971
 20
62.256130958696303
 30
0.0
  0
VERTEX
  5
15B4
  8
SAPA_PROFIL
 10
20.000000000014449
 20
60.44338932492974
 30
0.0
 42
-0.1095178116817878
  0
VERTEX
  5
15B5
  8
SAPA_PROFIL
 10
19.812615574092611
 20
59.598152801458752
 30
0.0
  0
VERTEX
  5
15B6
  8
SAPA_PROFIL
 10
17.187384425931558
 20
53.96832643631933
 30
0.0
 42
0.1095178116855129
  0
VERTEX
  5
15B7
  8
SAPA_PROFIL
 10
16.99999999999989
 20
53.123089912834978
 30
0.0
  0
VERTEX
  5
15B8
  8
SAPA_PROFIL
 10
16.999999999992621
 20
45.999999999658023
 30
0.0
 42
0.4142135623730957
  0
VERTEX
  5
15B9
  8
SAPA_PROFIL
 10
17.500000000014438
 20
45.49999999965803
 30
0.0
  0
VERTEX
  5
15BA
  8
SAPA_PROFIL
 10
18.500000000014438
 20
45.49999999965803
 30
0.0
 42
0.4142135623730915
  0
VERTEX
  5
15BB
  8
SAPA_PROFIL
 10
19.000000000014438
 20
45.999999999658023
 30
0.0
  0
VERTEX
  5
15BC
  8
SAPA_PROFIL
 10
19.000000000014438
 20
46.291287847139763
 30
0.0
 42
-0.2982166266909514
  0
VERTEX
  5
15BD
  8
SAPA_PROFIL
 10
19.30000000000155
 20
46.749545416629701
 30
0.0
 42
-1.5275252316550829
  0
VERTEX
  5
15BE
  8
SAPA_PROFIL
 10
19.30000000000145
 20
41.25045458270224
 30
0.0
 42
-0.2982166266892446
  0
VERTEX
  5
15BF
  8
SAPA_PROFIL
 10
19.000000000023771
 20
41.708712152169021
 30
0.0
  0
VERTEX
  5
15C0
  8
SAPA_PROFIL
 10
19.000000000014438
 20
41.99999999965803
 30
0.0
 42
0.4142135623730915
  0
VERTEX
  5
15C1
  8
SAPA_PROFIL
 10
18.500000000014438
 20
42.49999999965803
 30
0.0
  0
VERTEX
  5
15C2
  8
SAPA_PROFIL
 10
17.500000000014438
 20
42.49999999965803
 30
0.0
 42
0.4142135623730918
  0
VERTEX
  5
15C3
  8
SAPA_PROFIL
 10
17.000000000014438
 20
41.99999999965803
 30
0.0
  0
VERTEX
  5
15C4
  8
SAPA_PROFIL
 10
17.000000000014438
 20
23.076910086805579
 30
0.0
 42
0.1095178116838485
  0
VERTEX
  5
15C5
  8
SAPA_PROFIL
 10
17.187384425934351
 20
22.23167356331578
 30
0.0
  0
VERTEX
  5
15C6
  8
SAPA_PROFIL
 10
19.46152494752813
 20
17.354763476527289
 30
0.0
 42
0.2914734195858569
  0
VERTEX
  5
15C7
  8
SAPA_PROFIL
 10
21.27414052161102
 20
16.200000000004358
 30
0.0
  0
VERTEX
  5
15C8
  8
SAPA_PROFIL
 10
40.99999999999261
 20
16.200000000004351
 30
0.0
 42
0.4142135623730951
  0
VERTEX
  5
15C9
  8
SAPA_PROFIL
 10
41.499999999992617
 20
16.700000000004351
 30
0.0
  0
VERTEX
  5
15CA
  8
SAPA_PROFIL
 10
41.499999999992617
 20
17.00000000002181
 30
0.0
 42
0.4142135623731035
  0
VERTEX
  5
15CB
  8
SAPA_PROFIL
 10
40.99999999999261
 20
17.50000000002181
 30
0.0
  0
VERTEX
  5
15CC
  8
SAPA_PROFIL
 10
39.699999999993338
 20
17.50000000002181
 30
0.0
 42
-0.4142135623730744
  0
VERTEX
  5
15CD
  8
SAPA_PROFIL
 10
39.499999999988979
 20
17.7000000000189
 30
0.0
  0
VERTEX
  5
15CE
  8
SAPA_PROFIL
 10
39.499999999992632
 20
18.00000000002181
 30
0.0
 42
-0.4142135623731035
  0
VERTEX
  5
15CF
  8
SAPA_PROFIL
 10
39.999999999992617
 20
18.50000000002181
 30
0.0
  0
VERTEX
  5
15D0
  8
SAPA_PROFIL
 10
43.74999999999261
 20
18.500000000000011
 30
0.0
 42
-0.4142135623731035
  0
VERTEX
  5
15D1
  8
SAPA_PROFIL
 10
44.24999999999261
 20
18.000000000000011
 30
0.0
  0
VERTEX
  5
15D2
  8
SAPA_PROFIL
 10
44.24999999999261
 20
17.700000000004351
 30
0.0
 42
-0.4142135623731159
  0
VERTEX
  5
15D3
  8
SAPA_PROFIL
 10
44.049999999977352
 20
17.499999999996369
 30
0.0
  0
VERTEX
  5
15D4
  8
SAPA_PROFIL
 10
43.199999999993352
 20
17.499999999999979
 30
0.0
 42
0.4142135623730951
  0
VERTEX
  5
15D5
  8
SAPA_PROFIL
 10
42.99999999999261
 20
17.300000000010201
 30
0.0
  0
VERTEX
  5
15D6
  8
SAPA_PROFIL
 10
42.99999999999261
 20
16.300000000010201
 30
0.0
 42
0.4142135623731035
  0
VERTEX
  5
15D7
  8
SAPA_PROFIL
 10
43.49999999999261
 20
15.800000000010201
 30
0.0
  0
VERTEX
  5
15D8
  8
SAPA_PROFIL
 10
49.499999999992632
 20
15.800000000010201
 30
0.0
 42
0.4142135623731033
  0
VERTEX
  5
15D9
  8
SAPA_PROFIL
 10
49.99999999999261
 20
16.300000000010201
 30
0.0
  0
SEQEND
  5
15DA
  8
SAPA_PROFIL
  0
POLYLINE
  5
F2E
  8
SAPA_PROFIL
 66
     1
 10
0.0
 20
0.0
 30
0.0
 70
     1
  0
VERTEX
  5
15DB
  8
SAPA_PROFIL
 10
2.8000000000137208
 20
59.999999999643478
 30
0.0
  0
VERTEX
  5
15DC
  8
SAPA_PROFIL
 10
14.39999999999408
 20
59.999999999643478
 30
0.0
 42
-0.4142135623730951
  0
VERTEX
  5
15DD
  8
SAPA_PROFIL
 10
14.69999999999699
 20
59.699999999640561
 30
0.0
  0
VERTEX
  5
15DE
  8
SAPA_PROFIL
 10
14.700000000018809
 20
16.800000000010179
 30
0.0
 42
-0.4142135623730935
  0
VERTEX
  5
15DF
  8
SAPA_PROFIL
 10
14.40000000001953
 20
16.50000000001091
 30
0.0
  0
VERTEX
  5
15E0
  8
SAPA_PROFIL
 10
2.799999999999176
 20
16.5
 30
0.0
 42
-0.4142135623730935
  0
VERTEX
  5
15E1
  8
SAPA_PROFIL
 10
2.4999999999998961
 20
16.800000000010179
 30
0.0
  0
VERTEX
  5
15E2
  8
SAPA_PROFIL
 10
2.5000000000144489
 20
59.699999999640561
 30
0.0
 42
-0.4142135623730939
  0
SEQEND
  5
15E3
  8
SAPA_PROFIL
  0
POLYLINE
  5
F2F
  8
SAPA_PROFIL
 66
     1
 10
0.0
 20
0.0
 30
0.0
 70
     1
  0
VERTEX
  5
15E4
  8
SAPA_PROFIL
 10
49.999999999967173
 20
135.69999992774461
 30
0.0
 42
-0.4142135623624294
  0
VERTEX
  5
15E5
  8
SAPA_PROFIL
 10
49.799999999991932
 20
135.49999992775469
 30
0.0
  0
VERTEX
  5
15E6
  8
SAPA_PROFIL
 10
48.949999999993359
 20
135.49999992774019
 30
0.0
 42
0.4142135623730744
  0
VERTEX
  5
15E7
  8
SAPA_PROFIL
 10
48.749999999992639
 20
135.2999999277358
 30
0.0
  0
VERTEX
  5
15E8
  8
SAPA_PROFIL
 10
48.749999999999922
 20
134.99999992775469
 30
0.0
 42
0.4142135623731035
  0
VERTEX
  5
15E9
  8
SAPA_PROFIL
 10
49.249999999999929
 20
134.49999992775469
 30
0.0
  0
VERTEX
  5
15EA
  8
SAPA_PROFIL
 10
52.249999999999929
 20
134.49999992775469
 30
0.0
 42
0.4142135623731035
  0
VERTEX
  5
15EB
  8
SAPA_PROFIL
 10
52.749999999999929
 20
134.99999992775469
 30
0.0
  0
VERTEX
  5
15EC
  8
SAPA_PROFIL
 10
52.749999999999929
 20
135.29999992775041
 30
0.0
 42
0.4142135623730744
  0
VERTEX
  5
15ED
  8
SAPA_PROFIL
 10
52.549999999999187
 20
135.49999992775469
 30
0.0
  0
VERTEX
  5
15EE
  8
SAPA_PROFIL
 10
51.699999999996997
 20
135.4999999277438
 30
0.0
 42
-0.4142135623730534
  0
VERTEX
  5
15EF
  8
SAPA_PROFIL
 10
51.499999999999929
 20
135.69999992774461
 30
0.0
  0
VERTEX
  5
15F0
  8
SAPA_PROFIL
 10
51.499999999999929
 20
136.69999992774461
 30
0.0
 42
-0.4142135623731035
  0
VERTEX
  5
15F1
  8
SAPA_PROFIL
 10
51.999999999999929
 20
137.19999992774461
 30
0.0
  0
VERTEX
  5
15F2
  8
SAPA_PROFIL
 10
57.999999999999908
 20
137.19999992774461
 30
0.0
 42
-0.4142135623731033
  0
VERTEX
  5
15F3
  8
SAPA_PROFIL
 10
58.499999999999908
 20
136.69999992774461
 30
0.0
  0
VERTEX
  5
15F4
  8
SAPA_PROFIL
 10
58.499999999989001
 20
135.69999992774461
 30
0.0
 42
-0.414213562373064
  0
VERTEX
  5
15F5
  8
SAPA_PROFIL
 10
58.299999999999187
 20
135.49999992775469
 30
0.0
  0
VERTEX
  5
15F6
  8
SAPA_PROFIL
 10
57.449999999996997
 20
135.49999992775469
 30
0.0
 42
0.414213562373064
  0
VERTEX
  5
15F7
  8
SAPA_PROFIL
 10
57.249999999999908
 20
135.29999992775041
 30
0.0
  0
VERTEX
  5
15F8
  8
SAPA_PROFIL
 10
57.249999999999908
 20
134.99999992775469
 30
0.0
 42
0.4142135623731035
  0
VERTEX
  5
15F9
  8
SAPA_PROFIL
 10
57.749999999999908
 20
134.49999992775469
 30
0.0
  0
VERTEX
  5
15FA
  8
SAPA_PROFIL
 10
59.499999999999922
 20
134.49999992775469
 30
0.0
 42
0.4142135623731035
  0
VERTEX
  5
15FB
  8
SAPA_PROFIL
 10
59.999999999999922
 20
134.99999992775469
 30
0.0
  0
VERTEX
  5
15FC
  8
SAPA_PROFIL
 10
59.999999999999922
 20
137.49999992775469
 30
0.0
 42
0.4142135623730966
  0
VERTEX
  5
15FD
  8
SAPA_PROFIL
 10
58.499999999999908
 20
138.9999999277548
 30
0.0
  0
VERTEX
  5
15FE
  8
SAPA_PROFIL
 10
0.2999999999991988
 20
138.9999999277548
 30
0.0
 42
0.4142135623730935
  0
VERTEX
  5
15FF
  8
SAPA_PROFIL
 10
-0.0000000000000808
 20
138.69999992774461
 30
0.0
  0
VERTEX
  5
1600
  8
SAPA_PROFIL
 10
-0.0000000000000967
 20
90.743868969058497
 30
0.0
 42
0.2418327667378115
  0
VERTEX
  5
1601
  8
SAPA_PROFIL
 10
0.1252776749670046
 20
90.499999928120104
 30
0.0
 42
-0.2418327667509125
  0
VERTEX
  5
1602
  8
SAPA_PROFIL
 10
0.2505553499394351
 20
90.256130887164147
 30
0.0
  0
VERTEX
  5
1603
  8
SAPA_PROFIL
 10
0.250555349943073
 20
89.299999928114218
 30
0.0
 42
-0.2418327667448973
  0
VERTEX
  5
1604
  8
SAPA_PROFIL
 10
0.1252776749746569
 20
89.056130887159284
 30
0.0
 42
0.2418327667448979
  0
VERTEX
  5
1605
  8
SAPA_PROFIL
 10
0.0000000000074631
 20
88.812261846206724
 30
0.0
  0
VERTEX
  5
1606
  8
SAPA_PROFIL
 10
0.0000000000074627
 20
86.714189490488735
 30
0.0
 42
0.6681786379192718
  0
VERTEX
  5
1607
  8
SAPA_PROFIL
 10
1.707106781193958
 20
86.007082709302125
 30
0.0
  0
VERTEX
  5
1608
  8
SAPA_PROFIL
 10
3.012156034363132
 20
87.312131962471113
 30
0.0
 42
0.1989123673797335
  0
VERTEX
  5
1609
  8
SAPA_PROFIL
 10
3.1000240000072399
 20
87.524263996827173
 30
0.0
  0
VERTEX
  5
160A
  8
SAPA_PROFIL
 10
3.1000240000070982
 20
88.110769443574384
 30
0.0
 42
0.1316524975873855
  0
VERTEX
  5
160B
  8
SAPA_PROFIL
 10
3.0598316211424592
 20
88.260769443574304
 30
0.0
  0
VERTEX
  5
160C
  8
SAPA_PROFIL
 10
2.2000240000071489
 20
89.749999928115173
 30
0.0
  0
VERTEX
  5
160D
  8
SAPA_PROFIL
 10
2.2000120000074919
 20
90.199999928115105
 30
0.0
 42
-0.4142135623731054
  0
VERTEX
  5
160E
  8
SAPA_PROFIL
 10
2.500012000007489
 20
90.499999928115116
 30
0.0
  0
VERTEX
  5
160F
  8
SAPA_PROFIL
 10
6.1000240000075534
 20
90.499999928115074
 30
0.0
 42
-0.4142135623730951
  0
VERTEX
  5
1610
  8
SAPA_PROFIL
 10
6.4000240000075497
 20
90.199999928115091
 30
0.0
  0
VERTEX
  5
1611
  8
SAPA_PROFIL
 10
6.4000240000074511
 20
89.749999928115074
 30
0.0
  0
VERTEX
  5
1612
  8
SAPA_PROFIL
 10
5.540199262438473
 20
88.260739797040912
 30
0.0
 42
0.1316363093594257
  0
VERTEX
  5
1613
  8
SAPA_PROFIL
 10
5.5000068841815031
 20
88.11075889199418
 30
0.0
  0
VERTEX
  5
1614
  8
SAPA_PROFIL
 10
5.4999998343906942
 20
87.999999928111322
 30
0.0
  0
VERTEX
  5
1615
  8
SAPA_PROFIL
 10
7.0856406460624308
 20
87.999999928111322
 30
0.0
 42
0.2679491924308306
  0
VERTEX
  5
1616
  8
SAPA_PROFIL
 10
7.9516660498410543
 20
88.499999928111336
 30
0.0
  0
VERTEX
  5
1617
  8
SAPA_PROFIL
 10
8.9620290209195321
 20
90.249999928111777
 30
0.0
 42
-0.2679491924308306
  0
VERTEX
  5
1618
  8
SAPA_PROFIL
 10
9.3950417228114862
 20
90.499999928111322
 30
0.0
  0
VERTEX
  5
1619
  8
SAPA_PROFIL
 10
10.60495827719196
 20
90.499999928111322
 30
0.0
 42
-0.2679491924308304
  0
VERTEX
  5
161A
  8
SAPA_PROFIL
 10
11.03797097908309
 20
90.249999928111322
 30
0.0
  0
VERTEX
  5
161B
  8
SAPA_PROFIL
 10
12.048333950158749
 20
88.499999928111336
 30
0.0
 42
0.2679491924308308
  0
VERTEX
  5
161C
  8
SAPA_PROFIL
 10
12.914359353944651
 20
87.999999928113198
 30
0.0
  0
VERTEX
  5
161D
  8
SAPA_PROFIL
 10
14.50000016561274
 20
87.999999928111066
 30
0.0
  0
VERTEX
  5
161E
  8
SAPA_PROFIL
 10
14.49999311582194
 20
88.11075889199418
 30
0.0
 42
0.1316363093594255
  0
VERTEX
  5
161F
  8
SAPA_PROFIL
 10
14.45980073756497
 20
88.260739797040912
 30
0.0
  0
VERTEX
  5
1620
  8
SAPA_PROFIL
 10
13.599975999995991
 20
89.749999928115074
 30
0.0
  0
VERTEX
  5
1621
  8
SAPA_PROFIL
 10
13.599975999995889
 20
90.199999928115091
 30
0.0
 42
-0.4142135623730951
  0
VERTEX
  5
1622
  8
SAPA_PROFIL
 10
13.89997599999589
 20
90.499999928115074
 30
0.0
  0
VERTEX
  5
1623
  8
SAPA_PROFIL
 10
17.499987999995941
 20
90.499999928115116
 30
0.0
 42
-0.4142135623731054
  0
VERTEX
  5
1624
  8
SAPA_PROFIL
 10
17.799987999995949
 20
90.199999928115105
 30
0.0
  0
VERTEX
  5
1625
  8
SAPA_PROFIL
 10
17.799975999996281
 20
89.749999928115173
 30
0.0
  0
VERTEX
  5
1626
  8
SAPA_PROFIL
 10
16.940168378860989
 20
88.260769443574304
 30
0.0
 42
0.1316524975873855
  0
VERTEX
  5
1627
  8
SAPA_PROFIL
 10
16.899975999996339
 20
88.110769443574384
 30
0.0
  0
VERTEX
  5
1628
  8
SAPA_PROFIL
 10
16.899975999996201
 20
87.524263996827173
 30
0.0
 42
0.1989123673797335
  0
VERTEX
  5
1629
  8
SAPA_PROFIL
 10
16.987843965640309
 20
87.312131962471113
 30
0.0
  0
VERTEX
  5
162A
  8
SAPA_PROFIL
 10
18.292893218809478
 20
86.007082709302125
 30
0.0
 42
0.6681786379192716
  0
VERTEX
  5
162B
  8
SAPA_PROFIL
 10
19.999999999995978
 20
86.714189490488735
 30
0.0
  0
VERTEX
  5
162C
  8
SAPA_PROFIL
 10
19.999999999995978
 20
88.812261846208415
 30
0.0
 42
0.2418327667433386
  0
VERTEX
  5
162D
  8
SAPA_PROFIL
 10
19.87472232503022
 20
89.056130887159981
 30
0.0
 42
-0.2418327667449431
  0
VERTEX
  5
162E
  8
SAPA_PROFIL
 10
19.74944465006401
 20
89.299999928114218
 30
0.0
  0
VERTEX
  5
162F
  8
SAPA_PROFIL
 10
19.749444650060369
 20
90.256130887164147
 30
0.0
 42
-0.2418327667509097
  0
VERTEX
  5
1630
  8
SAPA_PROFIL
 10
19.874722325042779
 20
90.499999928111265
 30
0.0
 42
0.2418327667378167
  0
VERTEX
  5
1631
  8
SAPA_PROFIL
 10
19.999999999995978
 20
90.743868969058497
 30
0.0
  0
VERTEX
  5
1632
  8
SAPA_PROFIL
 10
20.000000000014449
 20
92.55661060282506
 30
0.0
 42
0.1095178116817878
  0
VERTEX
  5
1633
  8
SAPA_PROFIL
 10
19.812615574092622
 20
93.401847126296047
 30
0.0
  0
VERTEX
  5
1634
  8
SAPA_PROFIL
 10
17.187384425931569
 20
99.03167349143547
 30
0.0
 42
-0.1095178116855129
  0
VERTEX
  5
1635
  8
SAPA_PROFIL
 10
16.999999999999901
 20
99.876910014919815
 30
0.0
  0
VERTEX
  5
1636
  8
SAPA_PROFIL
 10
16.999999999992632
 20
106.9999999280968
 30
0.0
 42
-0.4142135623730957
  0
VERTEX
  5
1637
  8
SAPA_PROFIL
 10
17.500000000014449
 20
107.4999999280968
 30
0.0
  0
VERTEX
  5
1638
  8
SAPA_PROFIL
 10
18.500000000014449
 20
107.4999999280968
 30
0.0
 42
-0.4142135623730915
  0
VERTEX
  5
1639
  8
SAPA_PROFIL
 10
19.000000000014449
 20
106.9999999280968
 30
0.0
  0
VERTEX
  5
163A
  8
SAPA_PROFIL
 10
19.000000000014449
 20
106.708712080615
 30
0.0
 42
0.2982166266909514
  0
VERTEX
  5
163B
  8
SAPA_PROFIL
 10
19.30000000000156
 20
106.2504545111251
 30
0.0
 42
1.5275252316550829
  0
VERTEX
  5
163C
  8
SAPA_PROFIL
 10
19.300000000001472
 20
111.7495453450525
 30
0.0
 42
0.2982166266892446
  0
VERTEX
  5
163D
  8
SAPA_PROFIL
 10
19.000000000023778
 20
111.2912877755857
 30
0.0
  0
VERTEX
  5
163E
  8
SAPA_PROFIL
 10
19.00000000001446
 20
110.9999999280968
 30
0.0
 42
-0.4142135623730915
  0
VERTEX
  5
163F
  8
SAPA_PROFIL
 10
18.50000000001446
 20
110.4999999280968
 30
0.0
  0
VERTEX
  5
1640
  8
SAPA_PROFIL
 10
17.50000000001446
 20
110.4999999280968
 30
0.0
 42
-0.4142135623730918
  0
VERTEX
  5
1641
  8
SAPA_PROFIL
 10
17.00000000001446
 20
110.9999999280968
 30
0.0
  0
VERTEX
  5
1642
  8
SAPA_PROFIL
 10
17.00000000001447
 20
129.92308984094919
 30
0.0
 42
-0.1095178116838485
  0
VERTEX
  5
1643
  8
SAPA_PROFIL
 10
17.187384425934379
 20
130.76832636443899
 30
0.0
  0
VERTEX
  5
1644
  8
SAPA_PROFIL
 10
19.461524947528151
 20
135.6452364512275
 30
0.0
 42
-0.2914734195858569
  0
VERTEX
  5
1645
  8
SAPA_PROFIL
 10
21.274140521611031
 20
136.79999992775041
 30
0.0
  0
VERTEX
  5
1646
  8
SAPA_PROFIL
 10
40.999999999992639
 20
136.79999992775041
 30
0.0
 42
-0.4142135623730951
  0
VERTEX
  5
1647
  8
SAPA_PROFIL
 10
41.499999999992639
 20
136.29999992775041
 30
0.0
  0
VERTEX
  5
1648
  8
SAPA_PROFIL
 10
41.499999999992639
 20
135.99999992773289
 30
0.0
 42
-0.4142135623731035
  0
VERTEX
  5
1649
  8
SAPA_PROFIL
 10
40.999999999992639
 20
135.499999927733
 30
0.0
  0
VERTEX
  5
164A
  8
SAPA_PROFIL
 10
39.699999999993373
 20
135.499999927733
 30
0.0
 42
0.4142135623730744
  0
VERTEX
  5
164B
  8
SAPA_PROFIL
 10
39.499999999989001
 20
135.29999992773591
 30
0.0
  0
VERTEX
  5
164C
  8
SAPA_PROFIL
 10
39.49999999999266
 20
134.99999992773289
 30
0.0
 42
0.4142135623731035
  0
VERTEX
  5
164D
  8
SAPA_PROFIL
 10
39.999999999992639
 20
134.499999927733
 30
0.0
  0
VERTEX
  5
164E
  8
SAPA_PROFIL
 10
43.749999999992632
 20
134.49999992775469
 30
0.0
 42
0.4142135623731035
  0
VERTEX
  5
164F
  8
SAPA_PROFIL
 10
44.249999999992639
 20
134.99999992775469
 30
0.0
  0
VERTEX
  5
1650
  8
SAPA_PROFIL
 10
44.249999999992639
 20
135.29999992775041
 30
0.0
 42
0.4142135623731159
  0
VERTEX
  5
1651
  8
SAPA_PROFIL
 10
44.049999999977373
 20
135.49999992775841
 30
0.0
  0
VERTEX
  5
1652
  8
SAPA_PROFIL
 10
43.199999999993359
 20
135.49999992775469
 30
0.0
 42
-0.4142135623730951
  0
VERTEX
  5
1653
  8
SAPA_PROFIL
 10
42.999999999992639
 20
135.69999992774461
 30
0.0
  0
VERTEX
  5
1654
  8
SAPA_PROFIL
 10
42.999999999992639
 20
136.69999992774461
 30
0.0
 42
-0.4142135623731035
  0
VERTEX
  5
1655
  8
SAPA_PROFIL
 10
43.499999999992639
 20
137.19999992774461
 30
0.0
  0
VERTEX
  5
1656
  8
SAPA_PROFIL
 10
49.499999999992653
 20
137.19999992774461
 30
0.0
 42
-0.4142135623731033
  0
VERTEX
  5
1657
  8
SAPA_PROFIL
 10
49.999999999992639
 20
136.69999992774461
 30
0.0
  0
SEQEND
  5
1658
  8
SAPA_PROFIL
  0
POLYLINE
  5
F30
  8
SAPA_PROFIL
 66
     1
 10
0.0
 20
0.0
 30
0.0
 70
     1
  0
VERTEX
  5
1659
  8
SAPA_PROFIL
 10
2.800000000013728
 20
92.999999928111322
 30
0.0
  0
VERTEX
  5
165A
  8
SAPA_PROFIL
 10
14.39999999999408
 20
92.999999928111322
 30
0.0
 42
0.4142135623730951
  0
VERTEX
  5
165B
  8
SAPA_PROFIL
 10
14.69999999999699
 20
93.299999928114232
 30
0.0
  0
VERTEX
  5
165C
  8
SAPA_PROFIL
 10
14.700000000018839
 20
136.19999992774461
 30
0.0
 42
0.4142135623730935
  0
VERTEX
  5
165D
  8
SAPA_PROFIL
 10
14.40000000001956
 20
136.49999992774389
 30
0.0
  0
VERTEX
  5
165E
  8
SAPA_PROFIL
 10
2.7999999999991978
 20
136.4999999277548
 30
0.0
 42
0.4142135623730935
  0
VERTEX
  5
165F
  8
SAPA_PROFIL
 10
2.4999999999999178
 20
136.19999992774461
 30
0.0
  0
VERTEX
  5
1660
  8
SAPA_PROFIL
 10
2.5000000000144622
 20
93.299999928114232
 30
0.0
 42
0.4142135623730939
  0
SEQEND
  5
1661
  8
SAPA_PROFIL
  0
POLYLINE
  5
F31
  8
SAPA_PROFIL
 62
     4
 66
     1
 10
0.0
 20
0.0
 30
-0.2
 70
     1
1001
RC_PROFILE
1002
{
1000
Region
1002
}
  0
VERTEX
  5
1662
  8
SAPA_PROFIL
 62
     4
 10
43.34717971768049
 20
78.999999996510425
 30
-0.2
  0
VERTEX
  5
1663
  8
SAPA_PROFIL
 62
     4
 10
57.547179717682567
 20
78.999999996510425
 30
-0.2
 42
-0.4142135623720297
  0
VERTEX
  5
1664
  8
SAPA_PROFIL
 62
     4
 10
58.047179717682567
 20
78.499999996512258
 30
-0.2
  0
VERTEX
  5
1665
  8
SAPA_PROFIL
 62
     4
 10
58.04717971768553
 20
74.499999995891059
 30
-0.2
 42
-0.4142135623730951
  0
VERTEX
  5
1666
  8
SAPA_PROFIL
 62
     4
 10
57.54717971768553
 20
73.999999995891045
 30
-0.2
  0
VERTEX
  5
1667
  8
SAPA_PROFIL
 62
     4
 10
43.347179717681627
 20
73.999999995883783
 30
-0.2
 42
-0.414213562373761
  0
VERTEX
  5
1668
  8
SAPA_PROFIL
 62
     4
 10
42.847179717680497
 20
74.499999995883783
 30
-0.2
  0
VERTEX
  5
1669
  8
SAPA_PROFIL
 62
     4
 10
42.847179717680497
 20
78.499999996510439
 30
-0.2
 42
-0.4142135623730951
  0
SEQEND
  5
166A
  8
SAPA_PROFIL
 62
     4
  0
POLYLINE
  5
F32
  8
SAPA_PROFIL
 62
     4
 66
     1
 10
0.0
 20
0.0
 30
0.0
1001
GENIUS_GENOBJ-N-FIL_13
1002
{
1000
OWNER
1000
GEN
1002
}
1001
GENIUS_GENODEF_13
1002
{
1000
HIER
1070
     0
1002
}
1002
{
1000
MANEDIT
1070
     0
1002
}
1002
{
1000
NOSEL
1070
     0
1002
}
1002
{
1000
BEHIND
1070
     0
1002
}
1002
{
1000
OTHER
1070
     0
1002
}
1002
{
1000
REACTOR
1002
}
  0
VERTEX
  5
166B
  8
SAPA_PROFIL
 62
     4
 10
16.583706161271429
 20
65.57725992649199
 30
0.0
 42
0.131652497587489
  0
VERTEX
  5
166C
  8
SAPA_PROFIL
 62
     4
 10
16.744475676730168
 20
64.97725992649157
 30
0.0
  0
VERTEX
  5
166D
  8
SAPA_PROFIL
 62
     4
 10
17.749445007328038
 20
63.236601985848033
 30
0.0
  0
VERTEX
  5
166E
  8
SAPA_PROFIL
 62
     4
 10
17.749456650063401
 20
62.800000064269561
 30
0.0
 42
-0.4142135623731046
  0
VERTEX
  5
166F
  8
SAPA_PROFIL
 62
     4
 10
17.499456650063401
 20
62.550000064269568
 30
0.0
  0
VERTEX
  5
1670
  8
SAPA_PROFIL
 62
     4
 10
13.899444650063341
 20
62.550000064269618
 30
0.0
 42
-0.4142135623730957
  0
VERTEX
  5
1671
  8
SAPA_PROFIL
 62
     4
 10
13.649444650063341
 20
62.800000064269589
 30
0.0
  0
VERTEX
  5
1672
  8
SAPA_PROFIL
 62
     4
 10
13.64944465006344
 20
63.236602604648048
 30
0.0
  0
VERTEX
  5
1673
  8
SAPA_PROFIL
 62
     4
 10
14.62293664581351
 20
64.922740202048942
 30
0.0
 42
0.1316524975873848
  0
VERTEX
  5
1674
  8
SAPA_PROFIL
 62
     4
 10
14.783706161272161
 20
65.52274020204888
 30
0.0
  0
VERTEX
  5
1675
  8
SAPA_PROFIL
 62
     4
 10
14.783706161272161
 20
87.4772597903399
 30
0.0
 42
0.1316524975873846
  0
VERTEX
  5
1676
  8
SAPA_PROFIL
 62
     4
 10
14.62293664581351
 20
88.077259790339866
 30
0.0
  0
VERTEX
  5
1677
  8
SAPA_PROFIL
 62
     4
 10
13.649444650063449
 20
89.763397387740724
 30
0.0
  0
VERTEX
  5
1678
  8
SAPA_PROFIL
 62
     4
 10
13.64944465006335
 20
90.199999928119183
 30
0.0
 42
-0.4142135623730951
  0
VERTEX
  5
1679
  8
SAPA_PROFIL
 62
     4
 10
13.89944465006335
 20
90.449999928119183
 30
0.0
  0
VERTEX
  5
167A
  8
SAPA_PROFIL
 62
     4
 10
17.499456650063411
 20
90.449999928119226
 30
0.0
 42
-0.4142135623731046
  0
VERTEX
  5
167B
  8
SAPA_PROFIL
 62
     4
 10
17.749456650063411
 20
90.199999928119212
 30
0.0
  0
VERTEX
  5
167C
  8
SAPA_PROFIL
 62
     4
 10
17.749445007328049
 20
89.763398006540768
 30
0.0
  0
VERTEX
  5
167D
  8
SAPA_PROFIL
 62
     4
 10
16.744475676730168
 20
88.02274006589721
 30
0.0
 42
0.1316524975874892
  0
VERTEX
  5
167E
  8
SAPA_PROFIL
 62
     4
 10
16.583706161271429
 20
87.422740065896804
 30
0.0
  0
VERTEX
  5
167F
  8
SAPA_PROFIL
 62
     4
 10
16.583706161272119
 20
84.699999928368186
 30
0.0
 42
0.414213562374094
  0
VERTEX
  5
1680
  8
SAPA_PROFIL
 62
     4
 10
17.78370616127626
 20
83.499999928369263
 30
0.0
  0
VERTEX
  5
1681
  8
SAPA_PROFIL
 62
     4
 10
43.581441188198092
 20
83.499999928458408
 30
0.0
 42
-0.4142135623730951
  0
VERTEX
  5
1682
  8
SAPA_PROFIL
 62
     4
 10
44.081441188198092
 20
82.999999928458394
 30
0.0
  0
VERTEX
  5
1683
  8
SAPA_PROFIL
 62
     4
 10
44.081441188198319
 20
82.799999928458575
 30
0.0
 42
-0.4142135623730951
  0
VERTEX
  5
1684
  8
SAPA_PROFIL
 62
     4
 10
43.781441188198151
 20
82.499999928458408
 30
0.0
  0
VERTEX
  5
1685
  8
SAPA_PROFIL
 62
     4
 10
43.131441188196241
 20
82.499999928458408
 30
0.0
 42
0.4142135623730951
  0
VERTEX
  5
1686
  8
SAPA_PROFIL
 62
     4
 10
42.831441188196273
 20
82.199999928457316
 30
0.0
  0
VERTEX
  5
1687
  8
SAPA_PROFIL
 62
     4
 10
42.831441188197182
 20
81.299999928461318
 30
0.0
 42
0.4142135623730951
  0
VERTEX
  5
1688
  8
SAPA_PROFIL
 62
     4
 10
43.331441188196258
 20
80.799999928461304
 30
0.0
  0
VERTEX
  5
1689
  8
SAPA_PROFIL
 62
     4
 10
49.331441188198099
 20
80.799999928461304
 30
0.0
 42
0.4142135623730951
  0
VERTEX
  5
168A
  8
SAPA_PROFIL
 62
     4
 10
49.831441188198113
 20
81.299999928461318
 30
0.0
  0
VERTEX
  5
168B
  8
SAPA_PROFIL
 62
     4
 10
49.831441188198113
 20
82.199999928460045
 30
0.0
 42
0.4142135623710974
  0
VERTEX
  5
168C
  8
SAPA_PROFIL
 62
     4
 10
49.531441188200183
 20
82.499999928459317
 30
0.0
  0
VERTEX
  5
168D
  8
SAPA_PROFIL
 62
     4
 10
48.881441188198288
 20
82.499999928463865
 30
0.0
 42
-0.4142135623730951
  0
VERTEX
  5
168E
  8
SAPA_PROFIL
 62
     4
 10
48.581441188200117
 20
82.799999928465866
 30
0.0
  0
VERTEX
  5
168F
  8
SAPA_PROFIL
 62
     4
 10
48.581441188201282
 20
82.999999928458394
 30
0.0
 42
-0.4142135623730951
  0
VERTEX
  5
1690
  8
SAPA_PROFIL
 62
     4
 10
49.081441188201282
 20
83.499999928458408
 30
0.0
  0
VERTEX
  5
1691
  8
SAPA_PROFIL
 62
     4
 10
52.081441188201268
 20
83.499999928458408
 30
0.0
 42
-0.4142135623730951
  0
VERTEX
  5
1692
  8
SAPA_PROFIL
 62
     4
 10
52.581441188201268
 20
82.999999928458394
 30
0.0
  0
VERTEX
  5
1693
  8
SAPA_PROFIL
 62
     4
 10
52.581441188201268
 20
82.799999928458575
 30
0.0
 42
-0.4142135623730951
  0
VERTEX
  5
1694
  8
SAPA_PROFIL
 62
     4
 10
52.281441188201093
 20
82.499999928458408
 30
0.0
  0
VERTEX
  5
1695
  8
SAPA_PROFIL
 62
     4
 10
51.631441188201237
 20
82.499999928458408
 30
0.0
 42
0.4142135623730951
  0
VERTEX
  5
1696
  8
SAPA_PROFIL
 62
     4
 10
51.331441188201268
 20
82.199999928457316
 30
0.0
  0
VERTEX
  5
1697
  8
SAPA_PROFIL
 62
     4
 10
51.331441188201268
 20
81.299999928461318
 30
0.0
 42
0.4142135623730951
  0
VERTEX
  5
1698
  8
SAPA_PROFIL
 62
     4
 10
51.831441188201268
 20
80.799999928461304
 30
0.0
  0
VERTEX
  5
1699
  8
SAPA_PROFIL
 62
     4
 10
57.831441188201246
 20
80.799999928461304
 30
0.0
 42
0.4142135623730951
  0
VERTEX
  5
169A
  8
SAPA_PROFIL
 62
     4
 10
58.331441188201268
 20
81.299999928461318
 30
0.0
  0
VERTEX
  5
169B
  8
SAPA_PROFIL
 62
     4
 10
58.331441188201268
 20
82.199999928457316
 30
0.0
 42
0.4142135623730951
  0
VERTEX
  5
169C
  8
SAPA_PROFIL
 62
     4
 10
58.031441188201079
 20
82.499999928458408
 30
0.0
  0
VERTEX
  5
169D
  8
SAPA_PROFIL
 62
     4
 10
57.381441188201208
 20
82.499999928458408
 30
0.0
 42
-0.4142135623730949
  0
VERTEX
  5
169E
  8
SAPA_PROFIL
 62
     4
 10
57.081441188201268
 20
82.799999928458575
 30
0.0
  0
VERTEX
  5
169F
  8
SAPA_PROFIL
 62
     4
 10
57.081441188201268
 20
82.999999928458394
 30
0.0
 42
-0.4142135623730951
  0
VERTEX
  5
16A0
  8
SAPA_PROFIL
 62
     4
 10
57.581441188201268
 20
83.499999928458408
 30
0.0
  0
VERTEX
  5
16A1
  8
SAPA_PROFIL
 62
     4
 10
59.331441188201268
 20
83.499999928457498
 30
0.0
 42
-0.4142135623726955
  0
VERTEX
  5
16A2
  8
SAPA_PROFIL
 62
     4
 10
59.831441188201282
 20
82.999999928123714
 30
0.0
  0
VERTEX
  5
16A3
  8
SAPA_PROFIL
 62
     4
 10
59.831441188201488
 20
69.999999928116424
 30
0.0
 42
-0.4142135623732284
  0
VERTEX
  5
16A4
  8
SAPA_PROFIL
 62
     4
 10
59.33144118820308
 20
69.499999927839923
 30
0.0
  0
VERTEX
  5
16A5
  8
SAPA_PROFIL
 62
     4
 10
57.58144118820308
 20
69.499999927839923
 30
0.0
 42
-0.4142135623730951
  0
VERTEX
  5
16A6
  8
SAPA_PROFIL
 62
     4
 10
57.081441188203073
 20
69.999999927839937
 30
0.0
  0
VERTEX
  5
16A7
  8
SAPA_PROFIL
 62
     4
 10
57.081441188203073
 20
70.199999927839755
 30
0.0
 42
-0.4142135623730951
  0
VERTEX
  5
16A8
  8
SAPA_PROFIL
 62
     4
 10
57.381441188203269
 20
70.499999927839937
 30
0.0
  0
VERTEX
  5
16A9
  8
SAPA_PROFIL
 62
     4
 10
58.031441188203118
 20
70.499999927839937
 30
0.0
 42
0.4142135623730951
  0
VERTEX
  5
16AA
  8
SAPA_PROFIL
 62
     4
 10
58.331441188203073
 20
70.79999992783921
 30
0.0
  0
VERTEX
  5
16AB
  8
SAPA_PROFIL
 62
     4
 10
58.331441188203073
 20
71.699999927837027
 30
0.0
 42
0.4142135623730951
  0
VERTEX
  5
16AC
  8
SAPA_PROFIL
 62
     4
 10
57.831441188203087
 20
72.199999927837027
 30
0.0
  0
VERTEX
  5
16AD
  8
SAPA_PROFIL
 62
     4
 10
51.83144118820308
 20
72.199999927837027
 30
0.0
 42
0.4142135623730951
  0
VERTEX
  5
16AE
  8
SAPA_PROFIL
 62
     4
 10
51.33144118820308
 20
71.699999927837027
 30
0.0
  0
VERTEX
  5
16AF
  8
SAPA_PROFIL
 62
     4
 10
51.33144118820308
 20
70.79999992783921
 30
0.0
 42
0.4142135623730953
  0
VERTEX
  5
16B0
  8
SAPA_PROFIL
 62
     4
 10
51.631441188203262
 20
70.499999927839937
 30
0.0
  0
VERTEX
  5
16B1
  8
SAPA_PROFIL
 62
     4
 10
52.281441188203132
 20
70.499999927839937
 30
0.0
 42
-0.4142135623730951
  0
VERTEX
  5
16B2
  8
SAPA_PROFIL
 62
     4
 10
52.58144118820308
 20
70.199999927839755
 30
0.0
  0
VERTEX
  5
16B3
  8
SAPA_PROFIL
 62
     4
 10
52.58144118820308
 20
69.999999927839937
 30
0.0
 42
-0.4142135623730951
  0
VERTEX
  5
16B4
  8
SAPA_PROFIL
 62
     4
 10
52.081441188203087
 20
69.499999927839923
 30
0.0
  0
VERTEX
  5
16B5
  8
SAPA_PROFIL
 62
     4
 10
49.081441188203087
 20
69.499999927839923
 30
0.0
 42
-0.4142135623730951
  0
VERTEX
  5
16B6
  8
SAPA_PROFIL
 62
     4
 10
48.581441188203087
 20
69.999999927839937
 30
0.0
  0
VERTEX
  5
16B7
  8
SAPA_PROFIL
 62
     4
 10
48.58144118820195
 20
70.199999927832465
 30
0.0
 42
-0.414213562372873
  0
VERTEX
  5
16B8
  8
SAPA_PROFIL
 62
     4
 10
48.881441188200078
 20
70.49999992783448
 30
0.0
  0
VERTEX
  5
16B9
  8
SAPA_PROFIL
 62
     4
 10
49.531441188201093
 20
70.499999927837209
 30
0.0
 42
0.4142135623722071
  0
VERTEX
  5
16BA
  8
SAPA_PROFIL
 62
     4
 10
49.83144118820011
 20
70.7999999278383
 30
0.0
  0
VERTEX
  5
16BB
  8
SAPA_PROFIL
 62
     4
 10
49.83144118820011
 20
71.699999927837027
 30
0.0
 42
0.4142135623730951
  0
VERTEX
  5
16BC
  8
SAPA_PROFIL
 62
     4
 10
49.331441188200138
 20
72.199999927837027
 30
0.0
  0
VERTEX
  5
16BD
  8
SAPA_PROFIL
 62
     4
 10
43.331441188198077
 20
72.199999927829751
 30
0.0
 42
0.4142135623730951
  0
VERTEX
  5
16BE
  8
SAPA_PROFIL
 62
     4
 10
42.831441188198077
 20
71.699999927829751
 30
0.0
  0
VERTEX
  5
16BF
  8
SAPA_PROFIL
 62
     4
 10
42.831441188198077
 20
70.799999927832843
 30
0.0
 42
0.4142135623730951
  0
VERTEX
  5
16C0
  8
SAPA_PROFIL
 62
     4
 10
43.131441188198274
 20
70.499999927832661
 30
0.0
  0
VERTEX
  5
16C1
  8
SAPA_PROFIL
 62
     4
 10
43.781441188200169
 20
70.499999927832661
 30
0.0
 42
-0.4142135623730951
  0
VERTEX
  5
16C2
  8
SAPA_PROFIL
 62
     4
 10
44.081441188200138
 20
70.199999927832465
 30
0.0
  0
VERTEX
  5
16C3
  8
SAPA_PROFIL
 62
     4
 10
44.081441188200138
 20
69.999999927832661
 30
0.0
 42
-0.4142135623730951
  0
VERTEX
  5
16C4
  8
SAPA_PROFIL
 62
     4
 10
43.581441188200131
 20
69.499999927832661
 30
0.0
  0
VERTEX
  5
16C5
  8
SAPA_PROFIL
 62
     4
 10
17.78370616127625
 20
69.49999992791453
 30
0.0
 42
0.414213562374094
  0
VERTEX
  5
16C6
  8
SAPA_PROFIL
 62
     4
 10
16.583706161272339
 20
68.299999927914712
 30
0.0
  0
VERTEX
  5
16C7
  8
SAPA_PROFIL
 62
     4
 10
16.583706161272112
 20
65.571518577834624
 30
0.0
  0
SEQEND
  5
16C8
  8
SAPA_PROFIL
 62
     4
  0
POLYLINE
  5
F33
  8
SAPA_PROFIL
 62
     4
 66
     1
 10
0.0
 20
0.0
 30
0.0
 70
     1
  0
VERTEX
  5
16C9
  8
SAPA_PROFIL
 62
     4
 10
41.547179717682589
 20
73.199999995879963
 30
0.0
  0
VERTEX
  5
16CA
  8
SAPA_PROFIL
 62
     4
 10
41.547179717678489
 20
80.699999996438393
 30
0.0
 42
0.4142135623730951
  0
VERTEX
  5
16CB
  8
SAPA_PROFIL
 62
     4
 10
40.547179717678489
 20
81.699999996438393
 30
0.0
  0
VERTEX
  5
16CC
  8
SAPA_PROFIL
 62
     4
 10
17.399444690754699
 20
81.699999996453869
 30
0.0
 42
0.4142135623730949
  0
VERTEX
  5
16CD
  8
SAPA_PROFIL
 62
     4
 10
16.59944469075452
 20
80.899999996453687
 30
0.0
  0
VERTEX
  5
16CE
  8
SAPA_PROFIL
 62
     4
 10
16.59944469075452
 20
72.099999995935093
 30
0.0
 42
0.414213562373428
  0
VERTEX
  5
16CF
  8
SAPA_PROFIL
 62
     4
 10
17.399444690755612
 20
71.299999995934911
 30
0.0
  0
VERTEX
  5
16D0
  8
SAPA_PROFIL
 62
     4
 10
40.547179717682589
 20
71.299999995958544
 30
0.0
 42
0.4142135623724957
  0
VERTEX
  5
16D1
  8
SAPA_PROFIL
 62
     4
 10
41.54717971768055
 20
72.299999995957634
 30
0.0
  0
SEQEND
  5
16D2
  8
SAPA_PROFIL
 62
     4
  0
POLYLINE
  5
F34
  8
SAPA_PROFIL
 66
     1
 10
0.0
 20
0.0
 30
0.0
 70
     1
  0
VERTEX
  5
16D3
  8
SAPA_PROFIL
 10
60.000000000001563
 20
138.4999999277415
 30
0.0
  0
VERTEX
  5
16D4
  8
SAPA_PROFIL
 10
59.999999999997932
 20
133.4999999277415
 30
0.0
 42
-0.4142135623730951
  0
VERTEX
  5
16D5
  8
SAPA_PROFIL
 10
58.999999999997918
 20
132.4999999277415
 30
0.0
  0
VERTEX
  5
16D6
  8
SAPA_PROFIL
 10
48.9999999999986
 20
132.49999992774869
 30
0.0
 42
-0.4142135623730951
  0
VERTEX
  5
16D7
  8
SAPA_PROFIL
 10
47.999999999998607
 20
133.4999999277415
 30
0.0
  0
VERTEX
  5
16D8
  8
SAPA_PROFIL
 10
47.999999999998607
 20
135.24999992777791
 30
0.0
 42
0.9999999999999998
  0
VERTEX
  5
16D9
  8
SAPA_PROFIL
 10
46.499999999991338
 20
135.24999992777791
 30
0.0
  0
VERTEX
  5
16DA
  8
SAPA_PROFIL
 10
46.499999999987693
 20
133.49999992774869
 30
0.0
 42
0.4142135623730951
  0
VERTEX
  5
16DB
  8
SAPA_PROFIL
 10
48.999999999991338
 20
130.9999999277415
 30
0.0
  0
VERTEX
  5
16DC
  8
SAPA_PROFIL
 10
58.799999999997198
 20
130.9999999277415
 30
0.0
 42
-0.4142135623730951
  0
VERTEX
  5
16DD
  8
SAPA_PROFIL
 10
59.799999999997191
 20
129.9999999277415
 30
0.0
  0
VERTEX
  5
16DE
  8
SAPA_PROFIL
 10
59.799999999997212
 20
85.749999928447266
 30
0.0
 42
-0.4142135623730951
  0
VERTEX
  5
16DF
  8
SAPA_PROFIL
 10
59.299999999997212
 20
85.249999928447281
 30
0.0
  0
VERTEX
  5
16E0
  8
SAPA_PROFIL
 10
41.499999999994301
 20
85.249999928444353
 30
0.0
 42
0.8390996311761574
  0
VERTEX
  5
16E1
  8
SAPA_PROFIL
 10
41.397393956996652
 20
84.668092142207499
 30
0.0
  0
VERTEX
  5
16E2
  8
SAPA_PROFIL
 10
47.697393956995583
 20
82.375079666322932
 30
0.0
 42
0.4663076581554896
  0
VERTEX
  5
16E3
  8
SAPA_PROFIL
 10
48.095442325897451
 20
82.604892999260244
 30
0.0
  0
VERTEX
  5
16E4
  8
SAPA_PROFIL
 10
48.22450151239299
 20
83.336824017273955
 30
0.0
 42
-0.3639702342659115
  0
VERTEX
  5
16E5
  8
SAPA_PROFIL
 10
48.716905388899001
 20
83.749999928439991
 30
0.0
  0
VERTEX
  5
16E6
  8
SAPA_PROFIL
 10
59.499999999997939
 20
83.749999928447266
 30
0.0
 42
-0.4142135623730951
  0
VERTEX
  5
16E7
  8
SAPA_PROFIL
 10
59.999999999997932
 20
83.249999928447266
 30
0.0
  0
VERTEX
  5
16E8
  8
SAPA_PROFIL
 10
59.999999999990663
 20
69.999999927756051
 30
0.0
 42
0.4142135623730951
  0
VERTEX
  5
16E9
  8
SAPA_PROFIL
 10
60.499999999994301
 20
69.499999927756051
 30
0.0
 42
0.4142135623730951
  0
VERTEX
  5
16EA
  8
SAPA_PROFIL
 10
61.499999999994301
 20
70.499999927756051
 30
0.0
  0
VERTEX
  5
16EB
  8
SAPA_PROFIL
 10
61.499999999997918
 20
137.9999999277415
 30
0.0
 42
0.4142135623730951
  0
VERTEX
  5
16EC
  8
SAPA_PROFIL
 10
60.499999999997918
 20
138.9999999277415
 30
0.0
 42
0.4142135623730951
  0
SEQEND
  5
16ED
  8
SAPA_PROFIL
  0
LINE
  5
F68
  8
SAPA_GLAS
 10
89.7999999999994
 20
22.249999999817931
 30
0.0
 11
89.7999999999994
 21
22.999999999831079
 31
0.0
  0
LINE
  5
F69
  8
SAPA_GLAS
 10
76.999999999988475
 20
22.9999999998312
 30
0.0
 11
76.999999999987665
 21
22.249999999832092
 31
0.0
  0
LINE
  5
F6A
  8
SAPA_GLAS
 10
89.799999999999912
 20
65.749999999844519
 30
0.0
 11
89.799999999999883
 21
64.999999999831374
 31
0.0
  0
LINE
  5
F6B
  8
SAPA_GLAS
 10
76.999999999988972
 20
64.99999999983153
 30
0.0
 11
76.999999999988177
 21
65.749999999830649
 31
0.0
  0
INSERT
  5
F6C
  8
SAPA_GLAS
  6
CONTINUOUS
  2
*X48
 10
0.0
 20
0.0
 30
0.0
1001
ACAD
1000
HATCH
1002
{
1070
    19
1000
ANSI37
1040
0.25
1040
-0.0000000000000115
1000
R14_HATCH_DATA
1000
F6C
1011
1.0
1021
0.0
1031
0.0
1021
0.0
1031
0.0
1011
0.0
1021
0.0
1031
0.0
1021
1.0
1031
0.0
1011
0.0
1021
0.0
1031
0.0
1021
0.0
1031
1.0
1040
0.0
1010
0.0
1020
0.0
1030
1.0
1000
ANSI37
1070
     0
1070
     0
1071
        1
1071
        7
1070
     0
1070
     1
1071
        4
1040
89.799999999999415
1040
22.249999999478469
1040
89.799999999999415
1040
22.999999999831051
1040
76.999999999988475
1040
22.9999999998312
1040
76.999999999987651
1040
22.249999999492641
1071
        0
1070
     0
1070
     1
1040
-0.0000000000000115
1040
0.25
1070
     0
1070
     2
1040
0.7853981633974367
1040
66.924144147689191
1040
20.499999999856399
1040
-0.5612660075668156
1040
0.5612660075668287
1070
     0
1040
2.3561944901923328
1040
66.924144147689191
1040
20.499999999856399
1040
-0.5612660075668287
1040
-0.5612660075668156
1070
     0
1040
0.0325758689756538
1071
        1
1040
82.239910499789389
1040
22.59168141507347
1040
0.0
1002
}
  0
INSERT
  5
F6D
  8
SAPA_GLAS
  6
CONTINUOUS
  2
*X49
 10
0.0
 20
0.0
 30
0.0
1001
ACAD
1000
HATCH
1002
{
1070
    19
1000
ANSI37
1040
0.25
1040
-0.0000000000000115
1000
R14_HATCH_DATA
1000
F6D
1011
1.0
1021
0.0
1031
0.0
1021
0.0
1031
0.0
1011
0.0
1021
0.0
1031
0.0
1021
1.0
1031
0.0
1011
0.0
1021
0.0
1031
0.0
1021
0.0
1031
1.0
1040
0.0
1010
0.0
1020
0.0
1030
1.0
1000
ANSI37
1070
     0
1070
     0
1071
        1
1071
        7
1070
     0
1070
     1
1071
        4
1040
89.799999999999883
1040
64.999999999831374
1040
89.799999999999912
1040
65.749999999844519
1040
76.999999999988177
1040
65.749999999830649
1040
76.999999999988972
1040
64.99999999983153
1071
        0
1070
     0
1070
     1
1040
-0.0000000000000115
1040
0.25
1070
     0
1070
     2
1040
0.7853981633974367
1040
66.924144147689191
1040
20.499999999856399
1040
-0.5612660075668156
1040
0.5612660075668287
1070
     0
1040
2.3561944901923328
1040
66.924144147689191
1040
20.499999999856399
1040
-0.5612660075668287
1040
-0.5612660075668156
1070
     0
1040
0.0230646099693014
1071
        1
1040
80.868422804703158
1040
65.347685642524141
1040
0.0
1002
}
  0
POLYLINE
  5
F6E
  8
SAPA_GLAS
 66
     1
 10
0.0
 20
0.0
 30
0.0
  0
VERTEX
  5
1775
  8
SAPA_GLAS
 10
108.9999999999885
 20
22.99999999983083
 30
0.0
  0
VERTEX
  5
1776
  8
SAPA_GLAS
 10
76.999999999988489
 20
22.9999999998312
 30
0.0
  0
VERTEX
  5
1777
  8
SAPA_GLAS
 10
76.999999999988546
 20
28.9999999998312
 30
0.0
  0
VERTEX
  5
1778
  8
SAPA_GLAS
 10
108.9999999999885
 20
28.99999999983083
 30
0.0
  0
SEQEND
  5
1779
  8
SAPA_GLAS
  0
POLYLINE
  5
F6F
  8
SAPA_GLAS
 66
     1
 10
0.0
 20
0.0
 30
0.0
  0
VERTEX
  5
177A
  8
SAPA_GLAS
 10
86.999999999988717
 20
40.999999999831239
 30
0.0
  0
VERTEX
  5
177B
  8
SAPA_GLAS
 10
86.999999999988574
 20
28.99999999983126
 30
0.0
  0
VERTEX
  5
177C
  8
SAPA_GLAS
 10
76.999999999988546
 20
28.99999999983137
 30
0.0
  0
VERTEX
  5
177D
  8
SAPA_GLAS
 10
76.999999999988717
 20
40.99999999983136
 30
0.0
  0
VERTEX
  5
177E
  8
SAPA_GLAS
 10
86.999999999988717
 20
40.999999999831239
 30
0.0
  0
SEQEND
  5
177F
  8
SAPA_GLAS
  0
POLYLINE
  5
F70
  8
SAPA_GLAS
 66
     1
 10
0.0
 20
0.0
 30
0.0
  0
VERTEX
  5
1780
  8
SAPA_GLAS
 10
108.9999999999887
 20
40.99999999983099
 30
0.0
  0
VERTEX
  5
1781
  8
SAPA_GLAS
 10
76.999999999988717
 20
40.999999999831353
 30
0.0
  0
VERTEX
  5
1782
  8
SAPA_GLAS
 10
76.999999999988773
 20
46.99999999983136
 30
0.0
  0
VERTEX
  5
1783
  8
SAPA_GLAS
 10
108.9999999999887
 20
46.99999999983099
 30
0.0
  0
SEQEND
  5
1784
  8
SAPA_GLAS
  0
POLYLINE
  5
F71
  8
SAPA_GLAS
 66
     1
 10
0.0
 20
0.0
 30
0.0
  0
VERTEX
  5
1785
  8
SAPA_GLAS
 10
86.999999999988944
 20
58.999999999831402
 30
0.0
  0
VERTEX
  5
1786
  8
SAPA_GLAS
 10
86.999999999988773
 20
46.999999999831402
 30
0.0
  0
VERTEX
  5
1787
  8
SAPA_GLAS
 10
76.999999999988773
 20
46.999999999831523
 30
0.0
  0
VERTEX
  5
1788
  8
SAPA_GLAS
 10
76.999999999988944
 20
58.999999999831537
 30
0.0
  0
VERTEX
  5
1789
  8
SAPA_GLAS
 10
86.999999999988944
 20
58.999999999831402
 30
0.0
  0
SEQEND
  5
178A
  8
SAPA_GLAS
  0
POLYLINE
  5
F72
  8
SAPA_GLAS
 66
     1
 10
0.0
 20
0.0
 30
0.0
  0
VERTEX
  5
178B
  8
SAPA_GLAS
 10
108.999999999989
 20
64.999999999831147
 30
0.0
  0
VERTEX
  5
178C
  8
SAPA_GLAS
 10
76.999999999989015
 20
64.99999999983153
 30
0.0
  0
VERTEX
  5
178D
  8
SAPA_GLAS
 10
76.999999999988944
 20
58.999999999831537
 30
0.0
  0
VERTEX
  5
178E
  8
SAPA_GLAS
 10
108.9999999999889
 20
58.999999999831147
 30
0.0
  0
SEQEND
  5
178F
  8
SAPA_GLAS
  0
POLYLINE
  5
F8D
  8
SAPA_FOGBAND
 66
     1
 10
0.0
 20
0.0
 30
0.0
 70
     1
  0
VERTEX
  5
183E
  8
SAPA_FOGBAND
 10
49.649999999982327
 20
16.250000000010321
 30
0.0
  0
VERTEX
  5
183F
  8
SAPA_FOGBAND
 10
49.649999999982327
 20
17.050000000010488
 30
0.0
  0
VERTEX
  5
1840
  8
SAPA_FOGBAND
 10
43.349999999985243
 20
17.050000000010499
 30
0.0
  0
VERTEX
  5
1841
  8
SAPA_FOGBAND
 10
43.349999999985243
 20
16.250000000010321
 30
0.0
  0
SEQEND
  5
1842
  8
SAPA_FOGBAND
  0
POLYLINE
  5
F8E
  8
SAPA_FOGBAND
 66
     1
 10
0.0
 20
0.0
 30
0.0
  0
VERTEX
  5
1843
  8
SAPA_FOGBAND
 10
44.927310396842742
 20
17.050000000010499
 30
0.0
  0
VERTEX
  5
1844
  8
SAPA_FOGBAND
 10
43.801863799526807
 20
20.500000000010321
 30
0.0
  0
VERTEX
  5
1845
  8
SAPA_FOGBAND
 10
46.240001846075359
 20
20.500000000010321
 30
0.0
  0
VERTEX
  5
1846
  8
SAPA_FOGBAND
 10
46.34999999998233
 20
17.050000000010499
 30
0.0
  0
SEQEND
  5
1847
  8
SAPA_FOGBAND
  0
POLYLINE
  5
F8F
  8
SAPA_FOGBAND
 66
     1
 10
0.0
 20
0.0
 30
0.0
  0
VERTEX
  5
1848
  8
SAPA_FOGBAND
 10
46.424999999983058
 20
17.050000000010499
 30
0.0
  0
VERTEX
  5
1849
  8
SAPA_FOGBAND
 10
46.424999999986333
 20
20.500000000010321
 30
0.0
  0
VERTEX
  5
184A
  8
SAPA_FOGBAND
 10
46.57499999998452
 20
20.500000000010321
 30
0.0
  0
VERTEX
  5
184B
  8
SAPA_FOGBAND
 10
46.574999999984513
 20
17.050000000010499
 30
0.0
  0
SEQEND
  5
184C
  8
SAPA_FOGBAND
  0
POLYLINE
  5
F90
  8
SAPA_FOGBAND
 66
     1
 10
0.0
 20
0.0
 30
0.0
  0
VERTEX
  5
184D
  8
SAPA_FOGBAND
 10
46.649999999985234
 20
17.050000000010488
 30
0.0
  0
VERTEX
  5
184E
  8
SAPA_FOGBAND
 10
46.759997385167487
 20
20.500000000010321
 30
0.0
  0
VERTEX
  5
184F
  8
SAPA_FOGBAND
 10
49.198090725589651
 20
20.500000000010321
 30
0.0
  0
VERTEX
  5
1850
  8
SAPA_FOGBAND
 10
48.072689603124829
 20
17.050000000010499
 30
0.0
  0
SEQEND
  5
1851
  8
SAPA_FOGBAND
  0
POLYLINE
  5
F91
  8
SAPA_FOGBAND
 66
     1
 10
0.0
 20
0.0
 30
0.0
 70
     1
  0
VERTEX
  5
1852
  8
SAPA_FOGBAND
 10
58.149999999996879
 20
16.250000000010321
 30
0.0
  0
VERTEX
  5
1853
  8
SAPA_FOGBAND
 10
58.149999999996879
 20
17.050000000010488
 30
0.0
  0
VERTEX
  5
1854
  8
SAPA_FOGBAND
 10
51.849999999999802
 20
17.050000000010499
 30
0.0
  0
VERTEX
  5
1855
  8
SAPA_FOGBAND
 10
51.849999999999802
 20
16.250000000010321
 30
0.0
  0
SEQEND
  5
1856
  8
SAPA_FOGBAND
  0
POLYLINE
  5
F92
  8
SAPA_FOGBAND
 66
     1
 10
0.0
 20
0.0
 30
0.0
  0
VERTEX
  5
1857
  8
SAPA_FOGBAND
 10
53.427310396857287
 20
17.050000000010499
 30
0.0
  0
VERTEX
  5
1858
  8
SAPA_FOGBAND
 10
52.301863799541373
 20
20.500000000010321
 30
0.0
  0
VERTEX
  5
1859
  8
SAPA_FOGBAND
 10
54.74000184608991
 20
20.500000000010321
 30
0.0
  0
VERTEX
  5
185A
  8
SAPA_FOGBAND
 10
54.849999999996882
 20
17.050000000010499
 30
0.0
  0
SEQEND
  5
185B
  8
SAPA_FOGBAND
  0
POLYLINE
  5
F93
  8
SAPA_FOGBAND
 66
     1
 10
0.0
 20
0.0
 30
0.0
  0
VERTEX
  5
185C
  8
SAPA_FOGBAND
 10
54.92499999999761
 20
17.050000000010499
 30
0.0
  0
VERTEX
  5
185D
  8
SAPA_FOGBAND
 10
54.925000000000878
 20
20.500000000010321
 30
0.0
  0
VERTEX
  5
185E
  8
SAPA_FOGBAND
 10
55.074999999999072
 20
20.500000000010321
 30
0.0
  0
VERTEX
  5
185F
  8
SAPA_FOGBAND
 10
55.074999999999072
 20
17.050000000010499
 30
0.0
  0
SEQEND
  5
1860
  8
SAPA_FOGBAND
  0
POLYLINE
  5
F94
  8
SAPA_FOGBAND
 66
     1
 10
0.0
 20
0.0
 30
0.0
  0
VERTEX
  5
1861
  8
SAPA_FOGBAND
 10
55.149999999999793
 20
17.050000000010488
 30
0.0
  0
VERTEX
  5
1862
  8
SAPA_FOGBAND
 10
55.259997385182039
 20
20.500000000010321
 30
0.0
  0
VERTEX
  5
1863
  8
SAPA_FOGBAND
 10
57.698090725604203
 20
20.500000000010321
 30
0.0
  0
VERTEX
  5
1864
  8
SAPA_FOGBAND
 10
56.572689603139381
 20
17.050000000010499
 30
0.0
  0
SEQEND
  5
1865
  8
SAPA_FOGBAND
  0
POLYLINE
  5
F95
  8
SAPA_FOGBAND
 66
     1
 10
0.0
 20
0.0
 30
0.0
 70
     1
  0
VERTEX
  5
1866
  8
SAPA_FOGBAND
 10
49.431441188146572
 20
71.749999999672653
 30
0.0
  0
VERTEX
  5
1867
  8
SAPA_FOGBAND
 10
49.431441188146572
 20
70.949999999672471
 30
0.0
  0
VERTEX
  5
1868
  8
SAPA_FOGBAND
 10
43.131441188149488
 20
70.949999999672471
 30
0.0
  0
VERTEX
  5
1869
  8
SAPA_FOGBAND
 10
43.131441188149488
 20
71.749999999672653
 30
0.0
  0
SEQEND
  5
186A
  8
SAPA_FOGBAND
  0
POLYLINE
  5
F96
  8
SAPA_FOGBAND
 66
     1
 10
0.0
 20
0.0
 30
0.0
  0
VERTEX
  5
186B
  8
SAPA_FOGBAND
 10
44.708751585006993
 20
70.949999999672471
 30
0.0
  0
VERTEX
  5
186C
  8
SAPA_FOGBAND
 10
43.583304987691072
 20
67.499999999672653
 30
0.0
  0
VERTEX
  5
186D
  8
SAPA_FOGBAND
 10
46.02144303423961
 20
67.499999999672653
 30
0.0
  0
VERTEX
  5
186E
  8
SAPA_FOGBAND
 10
46.131441188146582
 20
70.949999999672471
 30
0.0
  0
SEQEND
  5
186F
  8
SAPA_FOGBAND
  0
POLYLINE
  5
F97
  8
SAPA_FOGBAND
 66
     1
 10
0.0
 20
0.0
 30
0.0
  0
VERTEX
  5
1870
  8
SAPA_FOGBAND
 10
46.206441188147302
 20
70.949999999672471
 30
0.0
  0
VERTEX
  5
1871
  8
SAPA_FOGBAND
 10
46.206441188150578
 20
67.499999999672653
 30
0.0
  0
VERTEX
  5
1872
  8
SAPA_FOGBAND
 10
46.356441188148771
 20
67.499999999672653
 30
0.0
  0
VERTEX
  5
1873
  8
SAPA_FOGBAND
 10
46.356441188148757
 20
70.949999999672471
 30
0.0
  0
SEQEND
  5
1874
  8
SAPA_FOGBAND
  0
POLYLINE
  5
F98
  8
SAPA_FOGBAND
 66
     1
 10
0.0
 20
0.0
 30
0.0
  0
VERTEX
  5
1875
  8
SAPA_FOGBAND
 10
46.431441188149492
 20
70.949999999672471
 30
0.0
  0
VERTEX
  5
1876
  8
SAPA_FOGBAND
 10
46.541438573331732
 20
67.499999999672653
 30
0.0
  0
VERTEX
  5
1877
  8
SAPA_FOGBAND
 10
48.979531913753902
 20
67.499999999672653
 30
0.0
  0
VERTEX
  5
1878
  8
SAPA_FOGBAND
 10
47.85413079128908
 20
70.949999999672471
 30
0.0
  0
SEQEND
  5
1879
  8
SAPA_FOGBAND
  0
POLYLINE
  5
F99
  8
SAPA_FOGBAND
 66
     1
 10
0.0
 20
0.0
 30
0.0
 70
     1
  0
VERTEX
  5
187A
  8
SAPA_FOGBAND
 10
57.931441188161131
 20
71.749999999672653
 30
0.0
  0
VERTEX
  5
187B
  8
SAPA_FOGBAND
 10
57.931441188161131
 20
70.949999999672471
 30
0.0
  0
VERTEX
  5
187C
  8
SAPA_FOGBAND
 10
51.63144118816404
 20
70.949999999672471
 30
0.0
  0
VERTEX
  5
187D
  8
SAPA_FOGBAND
 10
51.63144118816404
 20
71.749999999672653
 30
0.0
  0
SEQEND
  5
187E
  8
SAPA_FOGBAND
  0
POLYLINE
  5
F9A
  8
SAPA_FOGBAND
 66
     1
 10
0.0
 20
0.0
 30
0.0
  0
VERTEX
  5
187F
  8
SAPA_FOGBAND
 10
53.208751585021538
 20
70.949999999672471
 30
0.0
  0
VERTEX
  5
1880
  8
SAPA_FOGBAND
 10
52.083304987705617
 20
67.499999999672653
 30
0.0
  0
VERTEX
  5
1881
  8
SAPA_FOGBAND
 10
54.521443034254162
 20
67.499999999672653
 30
0.0
  0
VERTEX
  5
1882
  8
SAPA_FOGBAND
 10
54.631441188161141
 20
70.949999999672471
 30
0.0
  0
SEQEND
  5
1883
  8
SAPA_FOGBAND
  0
POLYLINE
  5
F9B
  8
SAPA_FOGBAND
 66
     1
 10
0.0
 20
0.0
 30
0.0
  0
VERTEX
  5
1884
  8
SAPA_FOGBAND
 10
54.706441188161861
 20
70.949999999672471
 30
0.0
  0
VERTEX
  5
1885
  8
SAPA_FOGBAND
 10
54.706441188165137
 20
67.499999999672653
 30
0.0
  0
VERTEX
  5
1886
  8
SAPA_FOGBAND
 10
54.856441188163323
 20
67.499999999672653
 30
0.0
  0
VERTEX
  5
1887
  8
SAPA_FOGBAND
 10
54.856441188163309
 20
70.949999999672471
 30
0.0
  0
SEQEND
  5
1888
  8
SAPA_FOGBAND
  0
POLYLINE
  5
F9C
  8
SAPA_FOGBAND
 66
     1
 10
0.0
 20
0.0
 30
0.0
  0
VERTEX
  5
1889
  8
SAPA_FOGBAND
 10
54.931441188164037
 20
70.949999999672471
 30
0.0
  0
VERTEX
  5
188A
  8
SAPA_FOGBAND
 10
55.041438573346291
 20
67.499999999672653
 30
0.0
  0
VERTEX
  5
188B
  8
SAPA_FOGBAND
 10
57.479531913768447
 20
67.499999999672653
 30
0.0
  0
VERTEX
  5
188C
  8
SAPA_FOGBAND
 10
56.354130791303632
 20
70.949999999672471
 30
0.0
  0
SEQEND
  5
188D
  8
SAPA_FOGBAND
  0
POLYLINE
  5
F9D
  8
SAPA_FOGBAND
 66
     1
 10
0.0
 20
0.0
 30
0.0
 70
     1
  0
VERTEX
  5
188E
  8
SAPA_FOGBAND
 10
58.149999999996851
 20
136.74999992773121
 30
0.0
  0
VERTEX
  5
188F
  8
SAPA_FOGBAND
 10
58.149999999996851
 20
135.949999927731
 30
0.0
  0
VERTEX
  5
1890
  8
SAPA_FOGBAND
 10
51.849999999999767
 20
135.949999927731
 30
0.0
  0
VERTEX
  5
1891
  8
SAPA_FOGBAND
 10
51.849999999999767
 20
136.74999992773121
 30
0.0
  0
SEQEND
  5
1892
  8
SAPA_FOGBAND
  0
POLYLINE
  5
F9E
  8
SAPA_FOGBAND
 66
     1
 10
0.0
 20
0.0
 30
0.0
  0
VERTEX
  5
1893
  8
SAPA_FOGBAND
 10
53.427310396857273
 20
135.949999927731
 30
0.0
  0
VERTEX
  5
1894
  8
SAPA_FOGBAND
 10
52.301863799541337
 20
132.49999992773121
 30
0.0
  0
VERTEX
  5
1895
  8
SAPA_FOGBAND
 10
54.740001846089882
 20
132.49999992773121
 30
0.0
  0
VERTEX
  5
1896
  8
SAPA_FOGBAND
 10
54.849999999996847
 20
135.949999927731
 30
0.0
  0
SEQEND
  5
1897
  8
SAPA_FOGBAND
  0
POLYLINE
  5
F9F
  8
SAPA_FOGBAND
 66
     1
 10
0.0
 20
0.0
 30
0.0
  0
VERTEX
  5
1898
  8
SAPA_FOGBAND
 10
54.924999999997581
 20
135.949999927731
 30
0.0
  0
VERTEX
  5
1899
  8
SAPA_FOGBAND
 10
54.92500000000085
 20
132.49999992773121
 30
0.0
  0
VERTEX
  5
189A
  8
SAPA_FOGBAND
 10
55.074999999999037
 20
132.49999992773121
 30
0.0
  0
VERTEX
  5
189B
  8
SAPA_FOGBAND
 10
55.074999999999037
 20
135.949999927731
 30
0.0
  0
SEQEND
  5
189C
  8
SAPA_FOGBAND
  0
POLYLINE
  5
FA0
  8
SAPA_FOGBAND
 66
     1
 10
0.0
 20
0.0
 30
0.0
  0
VERTEX
  5
189D
  8
SAPA_FOGBAND
 10
55.149999999999757
 20
135.949999927731
 30
0.0
  0
VERTEX
  5
189E
  8
SAPA_FOGBAND
 10
55.259997385182011
 20
132.49999992773121
 30
0.0
  0
VERTEX
  5
189F
  8
SAPA_FOGBAND
 10
57.698090725604168
 20
132.49999992773121
 30
0.0
  0
VERTEX
  5
18A0
  8
SAPA_FOGBAND
 10
56.572689603139352
 20
135.949999927731
 30
0.0
  0
SEQEND
  5
18A1
  8
SAPA_FOGBAND
  0
POLYLINE
  5
FA1
  8
SAPA_FOGBAND
 66
     1
 10
0.0
 20
0.0
 30
0.0
 70
     1
  0
VERTEX
  5
18A2
  8
SAPA_FOGBAND
 10
29.634099380244379
 20
29.499999999602348
 30
0.0
 42
0.1850472530618334
  0
VERTEX
  5
18A3
  8
SAPA_FOGBAND
 10
25.443075537943859
 20
27.226781516298889
 30
0.0
  0
VERTEX
  5
18A4
  8
SAPA_FOGBAND
 10
19.952647891703162
 20
18.772264287551899
 30
0.0
 42
-0.9741568709149724
  0
VERTEX
  5
18A5
  8
SAPA_FOGBAND
 10
19.100299904145661
 20
19.294583802300941
 30
0.0
  0
VERTEX
  5
18A6
  8
SAPA_FOGBAND
 10
24.347798952549471
 20
28.383518834750198
 30
0.0
 42
0.1225854743533026
  0
VERTEX
  5
18A7
  8
SAPA_FOGBAND
 10
24.74972268936375
 20
29.882987930767982
 30
0.0
  0
VERTEX
  5
18A8
  8
SAPA_FOGBAND
 10
24.749722689425141
 20
37.257782264317044
 30
0.0
 42
0.7231341048822281
  0
VERTEX
  5
18A9
  8
SAPA_FOGBAND
 10
22.631479446459231
 20
38.624448021043129
 30
0.0
 42
-0.2949636304573953
  0
VERTEX
  5
18AA
  8
SAPA_FOGBAND
 10
17.0497226894683
 20
39.011262684497339
 30
0.0
  0
VERTEX
  5
18AB
  8
SAPA_FOGBAND
 10
17.049722689471139
 20
41.749999999691489
 30
0.0
  0
VERTEX
  5
18AC
  8
SAPA_FOGBAND
 10
18.003415394132521
 20
42.369335283663652
 30
0.0
 42
-0.1449930994868795
  0
VERTEX
  5
18AD
  8
SAPA_FOGBAND
 10
18.275734911631581
 20
42.449999999688067
 30
0.0
  0
VERTEX
  5
18AE
  8
SAPA_FOGBAND
 10
18.349722689478501
 20
42.449999999685787
 30
0.0
 42
-0.4142135623645706
  0
VERTEX
  5
18AF
  8
SAPA_FOGBAND
 10
18.849722689475328
 20
41.949999999682603
 30
0.0
  0
VERTEX
  5
18B0
  8
SAPA_FOGBAND
 10
18.849722689472859
 20
41.562788466562978
 30
0.0
 42
0.3292444226696578
  0
VERTEX
  5
18B1
  8
SAPA_FOGBAND
 10
19.273252102022941
 20
40.989326931863467
 30
0.0
 42
1.4872944655697831
  0
VERTEX
  5
18B2
  8
SAPA_FOGBAND
 10
19.273252102061189
 20
47.010673067483992
 30
0.0
 42
0.3292444226696604
  0
VERTEX
  5
18B3
  8
SAPA_FOGBAND
 10
18.849722689503832
 20
46.43721153278986
 30
0.0
  0
VERTEX
  5
18B4
  8
SAPA_FOGBAND
 10
18.84972268950137
 20
46.049999999669318
 30
0.0
 42
-0.4142135623651035
  0
VERTEX
  5
18B5
  8
SAPA_FOGBAND
 10
18.349722689512738
 20
45.549999999671591
 30
0.0
  0
VERTEX
  5
18B6
  8
SAPA_FOGBAND
 10
18.275734911658539
 20
45.549999999670241
 30
0.0
 42
-0.1449930994868797
  0
VERTEX
  5
18B7
  8
SAPA_FOGBAND
 10
18.003415394153251
 20
45.630664715698153
 30
0.0
  0
VERTEX
  5
18B8
  8
SAPA_FOGBAND
 10
17.049722689499731
 20
46.24999999968967
 30
0.0
  0
VERTEX
  5
18B9
  8
SAPA_FOGBAND
 10
17.049722689517122
 20
48.988737314883828
 30
0.0
 42
-0.2484312924681684
  0
VERTEX
  5
18BA
  8
SAPA_FOGBAND
 10
22.631479446527521
 20
49.375551978270757
 30
0.0
 42
0.5855924822446267
  0
VERTEX
  5
18BB
  8
SAPA_FOGBAND
 10
24.74972268952536
 20
50.742217734968122
 30
0.0
  0
VERTEX
  5
18BC
  8
SAPA_FOGBAND
 10
24.749722736516681
 20
58.116481153881423
 30
0.0
 42
0.1316524983794406
  0
VERTEX
  5
18BD
  8
SAPA_FOGBAND
 10
24.34779895274788
 20
59.61648116453825
 30
0.0
  0
VERTEX
  5
18BE
  8
SAPA_FOGBAND
 10
19.100299904460162
 20
68.705416197057076
 30
0.0
 42
-0.9741568709149699
  0
VERTEX
  5
18BF
  8
SAPA_FOGBAND
 10
19.952647892035881
 20
69.227735711790075
 30
0.0
  0
VERTEX
  5
18C0
  8
SAPA_FOGBAND
 10
25.44074653190307
 20
60.776804838176112
 30
0.0
 42
0.2539676473361846
  0
VERTEX
  5
18C1
  8
SAPA_FOGBAND
 10
29.634099380428609
 20
58.499999999610637
 30
0.0
  0
VERTEX
  5
18C2
  8
SAPA_FOGBAND
 10
31.963946590399068
 20
58.499999999595843
 30
0.0
 42
0.2216946624071653
  0
VERTEX
  5
18C3
  8
SAPA_FOGBAND
 10
35.794168803130802
 20
60.286061947693383
 30
0.0
  0
VERTEX
  5
18C4
  8
SAPA_FOGBAND
 10
41.324487474679067
 20
66.876839080618197
 30
0.0
 42
-1.126857075054595
  0
VERTEX
  5
18C5
  8
SAPA_FOGBAND
 10
43.833015819904318
 20
65.27873027346547
 30
0.0
  0
VERTEX
  5
18C6
  8
SAPA_FOGBAND
 10
42.583648188119192
 20
62.59945274088313
 30
0.0
 42
-0.0436609429066319
  0
VERTEX
  5
18C7
  8
SAPA_FOGBAND
 10
42.4093367026274
 20
62.297536391672658
 30
0.0
  0
VERTEX
  5
18C8
  8
SAPA_FOGBAND
 10
41.133195012393656
 20
60.475017180529633
 30
0.0
 42
-0.957291742260092
  0
VERTEX
  5
18C9
  8
SAPA_FOGBAND
 10
40.45912403317314
 20
60.904447755078131
 30
0.0
  0
VERTEX
  5
18CA
  8
SAPA_FOGBAND
 10
41.637058017828032
 20
62.944689264369849
 30
0.0
 42
0.0218200776225929
  0
VERTEX
  5
18CB
  8
SAPA_FOGBAND
 10
41.677340401082603
 20
63.022071002627079
 30
0.0
  0
VERTEX
  5
18CC
  8
SAPA_FOGBAND
 10
42.926708032854648
 20
65.701348535210101
 30
0.0
 42
0.2887584577560343
  0
VERTEX
  5
18CD
  8
SAPA_FOGBAND
 10
42.85977641643867
 20
66.230198769998196
 30
0.0
 42
1.2247448713754381
  0
VERTEX
  5
18CE
  8
SAPA_FOGBAND
 10
42.512140586419058
 20
66.411166528692888
 30
0.0
 42
0.2887584577534809
  0
VERTEX
  5
18CF
  8
SAPA_FOGBAND
 10
42.040541437453108
 20
66.162657666084044
 30
0.0
  0
VERTEX
  5
18D0
  8
SAPA_FOGBAND
 10
38.178142281900122
 20
60.649897181655518
 30
0.0
 42
0.1539147210599354
  0
VERTEX
  5
18D1
  8
SAPA_FOGBAND
 10
36.369662724757077
 20
54.914132818150939
 30
0.0
  0
VERTEX
  5
18D2
  8
SAPA_FOGBAND
 10
36.369662724647512
 20
33.085867180975107
 30
0.0
 42
0.1539147210595579
  0
VERTEX
  5
18D3
  8
SAPA_FOGBAND
 10
38.178142281730501
 20
27.350102817440948
 30
0.0
  0
VERTEX
  5
18D4
  8
SAPA_FOGBAND
 10
42.063978116925199
 20
21.800554114815849
 30
0.0
 42
0.2652670038588143
  0
VERTEX
  5
18D5
  8
SAPA_FOGBAND
 10
42.51214058614368
 20
21.58883347037823
 30
0.0
 42
1.2247448713754421
  0
VERTEX
  5
18D6
  8
SAPA_FOGBAND
 10
42.85977641615623
 20
21.769801229069831
 30
0.0
 42
0.288758457756027
  0
VERTEX
  5
18D7
  8
SAPA_FOGBAND
 10
42.926708032585459
 20
22.29865146385724
 30
0.0
  0
VERTEX
  5
18D8
  8
SAPA_FOGBAND
 10
41.677340400842382
 20
24.97792899645415
 30
0.0
 42
0.0218200776226741
  0
VERTEX
  5
18D9
  8
SAPA_FOGBAND
 10
41.637058017588181
 20
25.05531073471602
 30
0.0
  0
VERTEX
  5
18DA
  8
SAPA_FOGBAND
 10
40.459124032960489
 20
27.095552244020421
 30
0.0
 42
-0.9572917422600935
  0
VERTEX
  5
18DB
  8
SAPA_FOGBAND
 10
41.133195012189411
 20
27.524982818557429
 30
0.0
  0
VERTEX
  5
18DC
  8
SAPA_FOGBAND
 10
42.409336702394043
 20
25.70246360740331
 30
0.0
 42
-0.0436609429066254
  0
VERTEX
  5
18DD
  8
SAPA_FOGBAND
 10
42.583648187879938
 20
25.40054725819056
 30
0.0
  0
VERTEX
  5
18DE
  8
SAPA_FOGBAND
 10
43.833015819633957
 20
22.72126972558905
 30
0.0
 42
-0.8895204030443752
  0
VERTEX
  5
18DF
  8
SAPA_FOGBAND
 10
41.324487474388427
 20
21.123160918468209
 30
0.0
  0
VERTEX
  5
18E0
  8
SAPA_FOGBAND
 10
35.794168802924162
 20
27.71393805144044
 30
0.0
 42
0.2216946624071884
  0
VERTEX
  5
18E1
  8
SAPA_FOGBAND
 10
31.963946590214849
 20
29.499999999586969
 30
0.0
  0
SEQEND
  5
18E2
  8
SAPA_FOGBAND
  0
POLYLINE
  5
FA2
  8
SAPA_FOGBAND
 66
     1
 10
0.0
 20
0.0
 30
0.0
 70
     1
  0
VERTEX
  5
18E3
  8
SAPA_FOGBAND
 10
28.249722689558759
 20
55.999999999608299
 30
0.0
 42
0.4142135623714636
  0
VERTEX
  5
18E4
  8
SAPA_FOGBAND
 10
26.249722689546061
 20
53.999999999632138
 30
0.0
  0
VERTEX
  5
18E5
  8
SAPA_FOGBAND
 10
26.249722689418999
 20
33.999999999624642
 30
0.0
 42
0.4142135623715295
  0
VERTEX
  5
18E6
  8
SAPA_FOGBAND
 10
28.249722689406301
 20
31.999999999611479
 30
0.0
  0
VERTEX
  5
18E7
  8
SAPA_FOGBAND
 10
32.869662724611509
 20
31.999999999580989
 30
0.0
 42
0.4142135623718642
  0
VERTEX
  5
18E8
  8
SAPA_FOGBAND
 10
34.86966272462422
 20
33.999999999566931
 30
0.0
  0
VERTEX
  5
18E9
  8
SAPA_FOGBAND
 10
34.869662724751272
 20
53.9999999995783
 30
0.0
 42
0.4142135623719296
  0
VERTEX
  5
18EA
  8
SAPA_FOGBAND
 10
32.86966272476397
 20
55.999999999583039
 30
0.0
  0
SEQEND
  5
18EB
  8
SAPA_FOGBAND
  0
DIMENSION
  5
FAE
  8
SAPA_MATT
  2
*D43
 10
-0.0000000000000801
 20
-17.999999928252489
 30
0.0
 11
45.749999999988773
 21
-15.249999928252491
 31
0.0
 70
     0
 13
91.499999999977632
 23
21.823940932426812
 33
0.0
 14
-0.0000000000000782
 24
14.30000007175766
 34
0.0
1001
ACAD
1000
DSTYLE
1002
{
1070
    40
1040
1.0
1002
}
  0
DIMENSION
  5
FAF
  8
SAPA_MATT
  2
*D42
 10
59.999999999999801
 20
-5.99999992825252
 30
0.0
 11
29.999999999999861
 21
-3.24999992825252
 31
0.0
 70
     0
 13
-0.0000000000000782
 23
14.30000007175766
 33
0.0
 14
59.999999999999801
 24
15.500000071747531
 34
0.0
1001
ACAD
1000
DSTYLE
1002
{
1070
    40
1040
1.0
1002
}
  0
DIMENSION
  5
FB0
  8
SAPA_MATT
  2
*D41
 10
145.99999999999989
 20
138.99999999950211
 30
0.0
 11
145.99999999999989
 21
76.499999999751168
 31
0.0
 70
   128
 13
58.499999999999801
 23
14.00000000000014
 33
0.0
 14
60.499999999999773
 24
138.99999999950219
 34
0.0
 50
90.000000000000028
1001
ACAD
1000
DSTYLE
1002
{
1070
    40
1040
1.0
1002
}
  0
DIMENSION
  5
FB1
  8
SAPA_MATT
  2
*D40
 10
133.99999999999989
 20
138.99999999950211
 30
0.0
 11
133.23948685118961
 21
102.8577351492784
 31
0.0
 70
   128
 13
74.999999999928178
 23
68.999999999504539
 33
0.0
 14
60.499999999999773
 24
138.99999999950219
 34
0.0
 50
90.000000000000028
1001
ACAD
1000
DSTYLE
1002
{
1070
   287
1070
     4
1070
    40
1040
1.0
1070
   279
1070
     1
1002
}
  0
DIMENSION
  5
FB2
  8
SAPA_MATT
  2
*D39
 10
133.99999999999989
 20
68.999999999504524
 30
0.0
 11
131.24999999999989
 21
43.999999999844299
 31
0.0
 70
     0
 13
74.999999999928178
 23
19.000000000184059
 33
0.0
 14
74.999999999928178
 24
68.999999999504539
 34
0.0
 50
90.000000000000028
1001
ACAD
1000
DSTYLE
1002
{
1070
   287
1070
     4
1070
    40
1040
1.0
1070
   279
1070
     1
1002
}
  0
DIMENSION
  5
FB3
  8
SAPA_MATT
  2
*D38
 10
133.99999999999989
 20
19.000000000184041
 30
0.0
 11
133.99999999999989
 21
16.500000000092101
 31
0.0
 70
   128
 13
58.499999999999801
 23
14.00000000000014
 33
0.0
 14
74.999999999928178
 24
19.000000000184059
 34
0.0
 50
90.000000000000028
1001
ACAD
1000
DSTYLE
1002
{
1070
    40
1040
1.0
1002
}
  0
DIMENSION
  5
FB4
  8
SAPA_MATT
  2
*D37
 10
91.499999999977632
 20
-5.9999999999999138
 30
0.0
 11
75.749999999988717
 21
-3.2499999999999138
 31
0.0
 70
     0
 13
59.999999999999801
 23
15.50000000000014
 33
0.0
 14
91.499999999977632
 24
21.823940932426812
 34
0.0
1001
ACAD
1000
DSTYLE
1002
{
1070
   287
1070
     4
1070
    40
1040
1.0
1070
   279
1070
     1
1002
}
  0
VIEWPORT
  5
C4
 67
     1
  8
0
 10
160.5543545598442
 20
116.00969601843509
 30
0.0
 40
404.96977709277462
 41
256.8421457311839
 68
     1
 69
     1
1001
ACAD
1000
MVIEW
1002
{
1070
    16
1010
0.0
1020
0.0
1030
0.0
1010
0.0
1020
0.0
1030
1.0
1040
0.0
1040
256.8421457311839
1040
99.206250190734863
1040
130.70624923706049
1040
50.0
1040
0.0
1040
0.0
1070
     0
1070
     0
1070
     1
1070
     1
1070
     0
1070
     0
1070
     0
1070
     0
1040
0.0
1040
0.0
1040
0.0
1040
10.0
1040
10.0
1040
10.0
1040
10.0
1070
     0
1002
{
1002
}
1002
}
  0
ENDSEC
  0
EOF
